  0
SECTION
  2
HEADER
  9
$ACADVER
  1
AC1015
  9
$ACADMAINTVER
 70
    20
  9
$DWGCODEPAGE
  3
ANSI_936
  9
$INSBASE
 10
0.0
 20
0.0
 30
0.0
  9
$EXTMIN
 10
-112.8986369999999
 20
-248.1945284828374
 30
0.0
  9
$EXTMAX
 10
681.2919040083763
 20
159.0259621267665
 30
0.0
  9
$LIMMIN
 10
0.0
 20
0.0
  9
$LIMMAX
 10
420.0
 20
297.0
  9
$ORTHOMODE
 70
     0
  9
$REGENMODE
 70
     1
  9
$FILLMODE
 70
     1
  9
$QTEXTMODE
 70
     0
  9
$MIRRTEXT
 70
     1
  9
$LTSCALE
 40
1.0
  9
$ATTMODE
 70
     1
  9
$TEXTSIZE
 40
3.5
  9
$TRACEWID
 40
1.0
  9
$TEXTSTYLE
  7
simplex
  9
$CLAYER
  8
0
  9
$CELTYPE
  6
ByLayer
  9
$CECOLOR
 62
   256
  9
$CELTSCALE
 40
1.0
  9
$DISPSILH
 70
     0
  9
$DIMSCALE
 40
0.0
  9
$DIMASZ
 40
3.5
  9
$DIMEXO
 40
0.0
  9
$DIMDLI
 40
0.38
  9
$DIMRND
 40
0.0
  9
$DIMDLE
 40
0.0
  9
$DIMEXE
 40
1.5
  9
$DIMTP
 40
0.0
  9
$DIMTM
 40
0.0
  9
$DIMTXT
 40
3.5
  9
$DIMCEN
 40
0.09
  9
$DIMTSZ
 40
0.0
  9
$DIMTOL
 70
     0
  9
$DIMLIM
 70
     0
  9
$DIMTIH
 70
     0
  9
$DIMTOH
 70
     0
  9
$DIMSE1
 70
     0
  9
$DIMSE2
 70
     0
  9
$DIMTAD
 70
     1
  9
$DIMZIN
 70
     8
  9
$DIMBLK
  1

  9
$DIMASO
 70
     1
  9
$DIMSHO
 70
     1
  9
$DIMPOST
  1

  9
$DIMAPOST
  1

  9
$DIMALT
 70
     0
  9
$DIMALTD
 70
     2
  9
$DIMALTF
 40
25.4
  9
$DIMLFAC
 40
1.0
  9
$DIMTOFL
 70
     0
  9
$DIMTVP
 40
0.0
  9
$DIMTIX
 70
     0
  9
$DIMSOXD
 70
     0
  9
$DIMSAH
 70
     0
  9
$DIMBLK1
  1

  9
$DIMBLK2
  1

  9
$DIMSTYLE
  2
\M+18352\M+18373\M+1815B - ISO-25
  9
$DIMCLRD
 70
   256
  9
$DIMCLRE
 70
   256
  9
$DIMCLRT
 70
   256
  9
$DIMTFAC
 40
1.0
  9
$DIMGAP
 40
2.299999999999998
  9
$DIMJUST
 70
     0
  9
$DIMSD1
 70
     0
  9
$DIMSD2
 70
     0
  9
$DIMTOLJ
 70
     1
  9
$DIMTZIN
 70
     8
  9
$DIMALTZ
 70
     0
  9
$DIMALTTZ
 70
     0
  9
$DIMUPT
 70
     0
  9
$DIMDEC
 70
     2
  9
$DIMTDEC
 70
     2
  9
$DIMALTU
 70
     2
  9
$DIMALTTD
 70
     2
  9
$DIMTXSTY
  7
simplex
  9
$DIMAUNIT
 70
     0
  9
$DIMADEC
 70
     0
  9
$DIMALTRND
 40
0.0
  9
$DIMAZIN
 70
     0
  9
$DIMDSEP
 70
    46
  9
$DIMATFIT
 70
     3
  9
$DIMFRAC
 70
     0
  9
$DIMLDRBLK
  1

  9
$DIMLUNIT
 70
     2
  9
$DIMLWD
 70
    -1
  9
$DIMLWE
 70
    -1
  9
$DIMTMOVE
 70
     0
  9
$LUNITS
 70
     2
  9
$LUPREC
 70
     4
  9
$SKETCHINC
 40
1.0
  9
$FILLETRAD
 40
0.5
  9
$AUNITS
 70
     0
  9
$AUPREC
 70
     0
  9
$MENU
  1
.
  9
$ELEVATION
 40
0.0
  9
$PELEVATION
 40
0.0
  9
$THICKNESS
 40
0.0
  9
$LIMCHECK
 70
     0
  9
$CHAMFERA
 40
10.0
  9
$CHAMFERB
 40
10.0
  9
$CHAMFERC
 40
20.0
  9
$CHAMFERD
 40
0.0
  9
$SKPOLY
 70
     0
  9
$TDCREATE
 40
2455489.391063368
  9
$TDUCREATE
 40
2455489.057730035
  9
$TDUPDATE
 40
2458572.998480474
  9
$TDUUPDATE
 40
2458572.665147141
  9
$TDINDWG
 40
2.7511965509
  9
$TDUSRTIMER
 40
2.7511399884
  9
$USRTIMER
 70
     1
  9
$ANGBASE
 50
0.0
  9
$ANGDIR
 70
     0
  9
$PDMODE
 70
     0
  9
$PDSIZE
 40
0.0
  9
$PLINEWID
 40
0.0
  9
$SPLFRAME
 70
     0
  9
$SPLINETYPE
 70
     6
  9
$SPLINESEGS
 70
     8
  9
$HANDSEED
  5
5567D
  9
$SURFTAB1
 70
     6
  9
$SURFTAB2
 70
     6
  9
$SURFTYPE
 70
     6
  9
$SURFU
 70
     6
  9
$SURFV
 70
     6
  9
$UCSBASE
  2

  9
$UCSNAME
  2

  9
$UCSORG
 10
0.0
 20
0.0
 30
0.0
  9
$UCSXDIR
 10
1.0
 20
0.0
 30
0.0
  9
$UCSYDIR
 10
0.0
 20
1.0
 30
0.0
  9
$UCSORTHOREF
  2

  9
$UCSORTHOVIEW
 70
     0
  9
$UCSORGTOP
 10
0.0
 20
0.0
 30
0.0
  9
$UCSORGBOTTOM
 10
0.0
 20
0.0
 30
0.0
  9
$UCSORGLEFT
 10
0.0
 20
0.0
 30
0.0
  9
$UCSORGRIGHT
 10
0.0
 20
0.0
 30
0.0
  9
$UCSORGFRONT
 10
0.0
 20
0.0
 30
0.0
  9
$UCSORGBACK
 10
0.0
 20
0.0
 30
0.0
  9
$PUCSBASE
  2

  9
$PUCSNAME
  2

  9
$PUCSORG
 10
0.0
 20
0.0
 30
0.0
  9
$PUCSXDIR
 10
1.0
 20
0.0
 30
0.0
  9
$PUCSYDIR
 10
0.0
 20
1.0
 30
0.0
  9
$PUCSORTHOREF
  2

  9
$PUCSORTHOVIEW
 70
     0
  9
$PUCSORGTOP
 10
0.0
 20
0.0
 30
0.0
  9
$PUCSORGBOTTOM
 10
0.0
 20
0.0
 30
0.0
  9
$PUCSORGLEFT
 10
0.0
 20
0.0
 30
0.0
  9
$PUCSORGRIGHT
 10
0.0
 20
0.0
 30
0.0
  9
$PUCSORGFRONT
 10
0.0
 20
0.0
 30
0.0
  9
$PUCSORGBACK
 10
0.0
 20
0.0
 30
0.0
  9
$USERI1
 70
     0
  9
$USERI2
 70
     0
  9
$USERI3
 70
     0
  9
$USERI4
 70
     0
  9
$USERI5
 70
     0
  9
$USERR1
 40
0.0
  9
$USERR2
 40
0.0
  9
$USERR3
 40
0.0
  9
$USERR4
 40
0.0
  9
$USERR5
 40
0.0
  9
$WORLDVIEW
 70
     1
  9
$SHADEDGE
 70
     3
  9
$SHADEDIF
 70
    70
  9
$TILEMODE
 70
     1
  9
$MAXACTVP
 70
    64
  9
$PINSBASE
 10
0.0
 20
0.0
 30
0.0
  9
$PLIMCHECK
 70
     0
  9
$PEXTMIN
 10
26.66999878883364
 20
20.31999878883365
 30
0.0
  9
$PEXTMAX
 10
240.0299890995025
 20
182.8799890995025
 30
0.0
  9
$PLIMMIN
 10
-6.350006103515625
 20
-6.349999904632567
  9
$PLIMMAX
 10
273.0499877929688
 20
209.5499939918518
  9
$UNITMODE
 70
     0
  9
$VISRETAIN
 70
     1
  9
$PLINEGEN
 70
     0
  9
$PSLTSCALE
 70
     1
  9
$TREEDEPTH
 70
  3020
  9
$CMLSTYLE
  2
Standard
  9
$CMLJUST
 70
     0
  9
$CMLSCALE
 40
20.0
  9
$PROXYGRAPHICS
 70
     1
  9
$MEASUREMENT
 70
     1
  9
$CELWEIGHT
370
    -1
  9
$ENDCAPS
280
     0
  9
$JOINSTYLE
280
     0
  9
$LWDISPLAY
290
     0
  9
$INSUNITS
 70
     4
  9
$HYPERLINKBASE
  1

  9
$STYLESHEET
  1

  9
$XEDIT
290
     1
  9
$CEPSNTYPE
380
     0
  9
$PSTYLEMODE
290
     1
  9
$FINGERPRINTGUID
  2
{601DDA01-5B13-4A4C-8F56-1333B78D855B}
  9
$VERSIONGUID
  2
{FE9063FA-9101-4685-BD57-7400094B9C85}
  9
$EXTNAMES
290
     1
  9
$PSVPSCALE
 40
0.0
  9
$OLESTARTUP
290
     0
  0
ENDSEC
  0
SECTION
  2
CLASSES
  0
CLASS
  1
ACDBDICTIONARYWDFLT
  2
AcDbDictionaryWithDefault
  3
ObjectDBX Classes
 90
        0
280
     0
281
     0
  0
CLASS
  1
ACDBPLACEHOLDER
  2
AcDbPlaceHolder
  3
ObjectDBX Classes
 90
        0
280
     0
281
     0
  0
CLASS
  1
LAYOUT
  2
AcDbLayout
  3
ObjectDBX Classes
 90
        0
280
     0
281
     0
  0
CLASS
  1
DICTIONARYVAR
  2
AcDbDictionaryVar
  3
ObjectDBX Classes
 90
        0
280
     0
281
     0
  0
CLASS
  1
TABLESTYLE
  2
AcDbTableStyle
  3
ObjectDBX Classes
 90
     2047
280
     0
281
     0
  0
CLASS
  1
SORTENTSTABLE
  2
AcDbSortentsTable
  3
ObjectDBX Classes
 90
        0
280
     0
281
     0
  0
CLASS
  1
DIMASSOC
  2
AcDbDimAssoc
  3
"AcDbDimAssoc|Product Desc:     AcDim ARX App For Dimension|Company:          Autodesk, Inc.|WEB Address:      www.autodesk.com"
 90
        0
280
     0
281
     0
  0
CLASS
  1
ACAD_EVALUATION_GRAPH
  2
AcDbEvalGraph
  3
ObjectDBX Classes
 90
    33921
280
     0
281
     0
  0
CLASS
  1
ACAECUSTOBJ
  2
AcAeEditorObj
  3
AcAeEditorObj
 90
    33792
280
     0
281
     0
  0
CLASS
  1
ACDB_DYNAMICBLOCKPURGEPREVENTER_VERSION
  2
AcDbDynamicBlockPurgePreventer
  3
ObjectDBX Classes
 90
    33921
280
     0
281
     0
  0
ENDSEC
  0
SECTION
  2
TABLES
  0
TABLE
  2
VPORT
  5
8
330
0
100
AcDbSymbolTable
 70
     5
  0
VPORT
  5
5566E
330
8
100
AcDbSymbolTableRecord
100
AcDbViewportTableRecord
  2
*Active
 70
     0
 10
0.0
 20
0.0
 11
1.0
 21
1.0
 12
-10.80397013982747
 22
11.35719326517087
 13
0.0
 23
0.0
 14
10.0
 24
10.0
 15
10.0
 25
10.0
 16
0.0
 26
0.0
 36
1.0
 17
0.0
 27
0.0
 37
0.0
 40
306.8873683237756
 41
1.508350730688935
 42
50.0
 43
0.0
 44
0.0
 50
0.0
 51
0.0
 71
     0
 72
  1000
 73
     1
 74
     1
 75
     0
 76
     0
 77
     0
 78
     0
281
     0
 65
     1
110
0.0
120
0.0
130
0.0
111
1.0
121
0.0
131
0.0
112
0.0
122
1.0
132
0.0
 79
     0
146
0.0
  0
ENDTAB
  0
TABLE
  2
LTYPE
  5
5
330
0
100
AcDbSymbolTable
 70
     4
  0
LTYPE
  5
14
330
5
100
AcDbSymbolTableRecord
100
AcDbLinetypeTableRecord
  2
ByBlock
 70
     0
  3

 72
    65
 73
     0
 40
0.0
  0
LTYPE
  5
15
330
5
100
AcDbSymbolTableRecord
100
AcDbLinetypeTableRecord
  2
ByLayer
 70
     0
  3

 72
    65
 73
     0
 40
0.0
  0
LTYPE
  5
16
330
5
100
AcDbSymbolTableRecord
100
AcDbLinetypeTableRecord
  2
Continuous
 70
     0
  3
Solid line
 72
    65
 73
     0
 40
0.0
  0
LTYPE
  5
D7
330
5
100
AcDbSymbolTableRecord
100
AcDbLinetypeTableRecord
  2
HIDDEN
 70
     0
  3
Hidden __ __ __ __ __ __ __ __ __ __ __ __ __ _
 72
    65
 73
     2
 40
9.524999999999996
 49
6.349999999999997
 74
     0
 49
-3.174999999999998
 74
     0
  0
LTYPE
  5
D9
330
5
100
AcDbSymbolTableRecord
100
AcDbLinetypeTableRecord
  2
CENTER
 70
     0
  3
Center ____ _ ____ _ ____ _ ____ _ ____ _ ____
 72
    65
 73
     4
 40
50.8
 49
31.75
 74
     0
 49
-6.349999999999997
 74
     0
 49
6.349999999999997
 74
     0
 49
-6.349999999999997
 74
     0
  0
LTYPE
  5
35815
330
5
100
AcDbSymbolTableRecord
100
AcDbLinetypeTableRecord
  2
PHANTOM
 70
     0
  3
_____ _ _ _____ _ _ _____ _ _ _____
 72
    65
 73
     6
 40
0.8
 49
0.45
 74
     0
 49
-0.05
 74
     0
 49
0.1
 74
     0
 49
-0.05
 74
     0
 49
0.1
 74
     0
 49
-0.05
 74
     0
  0
ENDTAB
  0
TABLE
  2
LAYER
  5
2
102
{ACAD_XDICTIONARY
360
E2
102
}
330
0
100
AcDbSymbolTable
 70
    14
  0
LAYER
  5
10
330
2
100
AcDbSymbolTableRecord
100
AcDbLayerTableRecord
  2
0
 70
     0
 62
     7
  6
Continuous
370
    -3
390
F
  0
LAYER
  5
D1
330
2
100
AcDbSymbolTableRecord
100
AcDbLayerTableRecord
  2
1
 70
     0
 62
     4
  6
Continuous
370
    50
390
F
1001
AcAecLayerStandard
1000

1000

  0
LAYER
  5
D3
330
2
100
AcDbSymbolTableRecord
100
AcDbLayerTableRecord
  2
2
 70
     0
 62
     7
  6
Continuous
370
    25
390
F
1001
AcAecLayerStandard
1000

1000

  0
LAYER
  5
D4
330
2
100
AcDbSymbolTableRecord
100
AcDbLayerTableRecord
  2
3
 70
     0
 62
     1
  6
HIDDEN
370
    35
390
F
1001
AcAecLayerStandard
1000

1000

  0
LAYER
  5
D8
330
2
100
AcDbSymbolTableRecord
100
AcDbLayerTableRecord
  2
4
 70
     0
 62
     2
  6
CENTER
370
    25
390
F
1001
AcAecLayerStandard
1000

1000

  0
LAYER
  5
DA
330
2
100
AcDbSymbolTableRecord
100
AcDbLayerTableRecord
  2
6
 70
     0
 62
     5
  6
Continuous
370
    35
390
F
1001
AcAecLayerStandard
1000

1000

  0
LAYER
  5
DB
330
2
100
AcDbSymbolTableRecord
100
AcDbLayerTableRecord
  2
cut
 70
     0
 62
     1
  6
Continuous
370
    25
390
F
1001
AcAecLayerStandard
1000

1000

  0
LAYER
  5
DC
330
2
100
AcDbSymbolTableRecord
100
AcDbLayerTableRecord
  2
nocut
 70
     0
 62
     7
  6
Continuous
370
    25
390
F
1001
AcAecLayerStandard
1000

1000

  0
LAYER
  5
DD
330
2
100
AcDbSymbolTableRecord
100
AcDbLayerTableRecord
  2
sk1
 70
     0
 62
     4
  6
Continuous
370
    50
390
F
1001
AcAecLayerStandard
1000

1000

  0
LAYER
  5
DE
330
2
100
AcDbSymbolTableRecord
100
AcDbLayerTableRecord
  2
sk2
 70
     0
 62
     7
  6
Continuous
370
    25
390
F
1001
AcAecLayerStandard
1000

1000

  0
LAYER
  5
DF
330
2
100
AcDbSymbolTableRecord
100
AcDbLayerTableRecord
  2
sk3
 70
     0
 62
     1
  6
HIDDEN
370
    35
390
F
1001
AcAecLayerStandard
1000

1000

  0
LAYER
  5
E0
330
2
100
AcDbSymbolTableRecord
100
AcDbLayerTableRecord
  2
sk4
 70
     0
 62
     2
  6
CENTER
370
    25
390
F
1001
AcAecLayerStandard
1000

1000

  0
LAYER
  5
E1
330
2
100
AcDbSymbolTableRecord
100
AcDbLayerTableRecord
  2
sk6
 70
     0
 62
     5
  6
Continuous
370
    35
390
F
1001
AcAecLayerStandard
1000

1000

  0
LAYER
  5
31B6
330
2
100
AcDbSymbolTableRecord
100
AcDbLayerTableRecord
  2
Defpoints
 70
     0
 62
     7
  6
Continuous
290
     0
370
    -3
390
F
  0
ENDTAB
  0
TABLE
  2
STYLE
  5
3
330
0
100
AcDbSymbolTable
 70
    12
  0
STYLE
  5
11
330
3
100
AcDbSymbolTableRecord
100
AcDbTextStyleTableRecord
  2
Standard
 70
     0
 40
0.0
 41
1.0
 50
0.0
 71
     0
 42
2.5
  3
txt.shx
  4
@extfont2.shx
  0
STYLE
  5
D6
330
3
100
AcDbSymbolTableRecord
100
AcDbTextStyleTableRecord
  2

 70
     1
 40
0.0
 41
1.0
 50
0.0
 71
     0
 42
2.5
  3
ltypeshp.shx
  4

  0
STYLE
  5
24A
330
3
100
AcDbSymbolTableRecord
100
AcDbTextStyleTableRecord
  2
simplex
 70
     0
 40
3.5
 41
1.0
 50
0.0
 71
     0
 42
3.5
  3
txt.shx
  4

  0
STYLE
  5
69E
330
3
100
AcDbSymbolTableRecord
100
AcDbTextStyleTableRecord
  2
MX_NOTE_STANDARD
 70
     0
 40
0.0
 41
1.0
 50
0.0
 71
     0
 42
4.2
  3
txt.shx
  4
extfont.shx
  0
STYLE
  5
3524
330
3
100
AcDbSymbolTableRecord
100
AcDbTextStyleTableRecord
  2
TEXTSTYLE_2
 70
     0
 40
0.0
 41
0.775
 50
0.0
 71
     0
 42
0.2
  3
gdt
  4

  0
STYLE
  5
3525
330
3
100
AcDbSymbolTableRecord
100
AcDbTextStyleTableRecord
  2
TEXTSTYLE_3
 70
     0
 40
0.0
 41
0.75
 50
0.0
 71
     0
 42
0.2
  3
txt
  4

  0
STYLE
  5
3526
330
3
100
AcDbSymbolTableRecord
100
AcDbTextStyleTableRecord
  2
TEXTSTYLE_13
 70
     0
 40
0.0
 41
1.0
 50
0.0
 71
     0
 42
0.2
  3
txt
  4

  0
STYLE
  5
519A
330
3
100
AcDbSymbolTableRecord
100
AcDbTextStyleTableRecord
  2
TEXTSTYLE_14
 70
     0
 40
0.0
 41
1.0
 50
0.0
 71
     0
 42
0.2
  3
txt
  4

  0
STYLE
  5
6F72
330
3
100
AcDbSymbolTableRecord
100
AcDbTextStyleTableRecord
  2
TEXTSTYLE_4
 70
     0
 40
0.0
 41
0.75
 50
0.0
 71
     0
 42
0.2
  3
txt
  4

  0
STYLE
  5
6F73
330
3
100
AcDbSymbolTableRecord
100
AcDbTextStyleTableRecord
  2
TEXTSTYLE_17
 70
     0
 40
0.0
 41
1.0
 50
0.0
 71
     0
 42
0.2
  3
txt
  4

  0
STYLE
  5
FE12
330
3
100
AcDbSymbolTableRecord
100
AcDbTextStyleTableRecord
  2
TEXTSTYLE_12
 70
     0
 40
0.0
 41
1.0
 50
0.0
 71
     0
 42
0.2
  3
txt
  4

  0
STYLE
  5
3AAB8
330
3
100
AcDbSymbolTableRecord
100
AcDbTextStyleTableRecord
  2
TEXTSTYLE_20
 70
     0
 40
0.0
 41
0.6
 50
0.0
 71
     0
 42
0.2
  3
txt
  4

  0
ENDTAB
  0
TABLE
  2
VIEW
  5
6
330
0
100
AcDbSymbolTable
 70
     0
  0
ENDTAB
  0
TABLE
  2
UCS
  5
7
330
0
100
AcDbSymbolTable
 70
     0
  0
ENDTAB
  0
TABLE
  2
APPID
  5
9
330
0
100
AcDbSymbolTable
 70
    11
  0
APPID
  5
12
330
9
100
AcDbSymbolTableRecord
100
AcDbRegAppTableRecord
  2
ACAD
 70
     0
  0
APPID
  5
D2
330
9
100
AcDbSymbolTableRecord
100
AcDbRegAppTableRecord
  2
AcAecLayerStandard
 70
     0
  0
APPID
  5
E6
330
9
100
AcDbSymbolTableRecord
100
AcDbRegAppTableRecord
  2
ACAD_DSTYLE_DIMTEXT_FILL
 70
     0
  0
APPID
  5
4C84
330
9
100
AcDbSymbolTableRecord
100
AcDbRegAppTableRecord
  2
ACAD_EXEMPT_FROM_CAD_STANDARDS
 70
     0
  0
APPID
  5
3493E
330
9
100
AcDbSymbolTableRecord
100
AcDbRegAppTableRecord
  2
DCO15
 70
     0
  0
APPID
  5
3BAB0
330
9
100
AcDbSymbolTableRecord
100
AcDbRegAppTableRecord
  2
ACAD_DSTYLE_DIMEXT_ENABLED
 70
     0
  0
APPID
  5
3BAB1
330
9
100
AcDbSymbolTableRecord
100
AcDbRegAppTableRecord
  2
ACAD_DSTYLE_DIMEXT_LENGTH
 70
     0
  0
APPID
  5
3BEB4
330
9
100
AcDbSymbolTableRecord
100
AcDbRegAppTableRecord
  2
ACAUTHENVIRON
 70
     0
  0
APPID
  5
3BEB7
330
9
100
AcDbSymbolTableRecord
100
AcDbRegAppTableRecord
  2
AcDbDynamicBlockTrueName
 70
     0
  0
APPID
  5
3BEB8
330
9
100
AcDbSymbolTableRecord
100
AcDbRegAppTableRecord
  2
AcDbDynamicBlockGUID
 70
     0
  0
APPID
  5
3BEBA
330
9
100
AcDbSymbolTableRecord
100
AcDbRegAppTableRecord
  2
AcDbBlockRepETag
 70
     0
  0
ENDTAB
  0
TABLE
  2
DIMSTYLE
  5
A
330
0
100
AcDbSymbolTable
 70
    11
100
AcDbDimStyleTable
 71
     5
340
1BF
340
27
340
352A
340
3527
340
69F
  0
DIMSTYLE
105
27
330
A
100
AcDbSymbolTableRecord
100
AcDbDimStyleTableRecord
  2
ISO-25
 70
     0
 41
2.5
 42
0.625
 43
3.75
 44
1.25
 73
     0
 74
     0
 77
     1
 78
     8
140
2.5
141
2.5
143
0.03937007874016
147
0.625
171
     3
172
     1
271
     2
272
     2
274
     3
278
    44
283
     0
284
     8
340
11
  0
DIMSTYLE
105
1BF
102
{ACAD_REACTORS
330
552B0
330
552B1
330
55303
330
55304
330
55305
330
5543B
330
55480
102
}
330
A
100
AcDbSymbolTableRecord
100
AcDbDimStyleTableRecord
  2
\M+18352\M+18373\M+1815B - ISO-25
 70
     0
 40
0.0
 41
3.5
 42
0.0
 44
1.5
 73
     0
 74
     0
 77
     1
 78
     8
140
3.5
147
2.299999999999998
176
   256
177
   256
178
   256
271
     2
272
     2
284
     8
340
24A
371
    -1
372
    -1
  0
DIMSTYLE
105
69F
330
A
100
AcDbSymbolTableRecord
100
AcDbDimStyleTableRecord
  2
MXDIMSTYLE
 70
     0
 41
2.5
 42
0.5
 43
3.75
 44
1.5
 73
     0
 74
     0
 77
     1
 78
     8
140
4.2
141
2.5
143
0.03937
147
1.0
171
     4
172
     1
173
     1
271
     2
272
     2
274
     4
283
     0
288
     1
340
69E
341
697
343
697
344
697
  0
DIMSTYLE
105
3527
330
A
100
AcDbSymbolTableRecord
100
AcDbDimStyleTableRecord
  2
STANDARD
 70
     0
 41
3.0
 47
0.001
 48
0.001
 71
     1
 73
     0
 74
     0
 77
     1
 78
     8
140
4.0
271
     3
272
     3
284
     8
340
11
341
34B1
342
34B1
343
34B1
344
34B1
  0
DIMSTYLE
105
3528
330
A
100
AcDbSymbolTableRecord
100
AcDbDimStyleTableRecord
  2
DIMSTYLE_1
 70
     0
 41
3.0
 73
     0
 74
     0
 77
     1
 78
     8
140
4.0
271
     3
272
     3
284
     8
340
11
341
34B1
342
34B1
343
34B1
344
34B1
  0
DIMSTYLE
105
3529
330
A
100
AcDbSymbolTableRecord
100
AcDbDimStyleTableRecord
  2
DIMSTYLE_2
 70
     0
 41
3.0
 47
0.001
 48
0.001
 73
     0
 74
     0
 77
     1
 78
     8
140
4.0
271
     3
272
     3
284
     8
340
11
341
34B1
342
34B1
343
34B1
344
34B1
  0
DIMSTYLE
105
352A
330
A
100
AcDbSymbolTableRecord
100
AcDbDimStyleTableRecord
  2
DIMSTYLE_3
 70
     0
 41
3.0
 47
-0.1
 48
0.3
 71
     1
 73
     0
 74
     0
 77
     1
 78
     8
140
4.0
146
0.5
271
     3
272
     3
284
     8
340
11
341
34B1
342
34B1
343
34B1
344
34B1
  0
DIMSTYLE
105
352B
330
A
100
AcDbSymbolTableRecord
100
AcDbDimStyleTableRecord
  2
DIMSTYLE_4
 70
     0
 41
3.0
 47
0.1
 48
0.1
 71
     1
 73
     0
 74
     0
 77
     1
 78
     8
140
4.0
271
     3
272
     3
284
     8
340
11
341
34B1
342
34B1
343
34B1
344
34B1
  0
DIMSTYLE
105
27245
330
A
100
AcDbSymbolTableRecord
100
AcDbDimStyleTableRecord
  2
DIMSTYLE_5
 70
     0
 41
3.0
 47
0.001
 48
0.001
 73
     0
 74
     0
 77
     1
 78
     8
140
4.0
271
     3
272
     3
284
     8
340
11
341
34B1
342
34B1
343
34B1
344
34B1
  0
DIMSTYLE
105
3AAB9
330
A
100
AcDbSymbolTableRecord
100
AcDbDimStyleTableRecord
  2
DIMSTYLE_6
 70
     0
 41
3.0
 42
0.0
 44
1.0
 47
0.05
 48
0.05
 71
     1
 73
     0
 74
     0
 77
     1
 78
     8
140
4.0
147
1.0
271
     3
272
     3
284
     8
340
11
341
34B1
342
34B1
343
34B1
344
34B1
  0
DIMSTYLE
105
532EA
330
A
100
AcDbSymbolTableRecord
100
AcDbDimStyleTableRecord
  2
NEW-DIMSTYLE
 70
     0
 40
0.0
 41
4.57
 42
0.0
 44
5.0
 73
     0
 74
     0
 77
     1
 78
     8
140
4.57
147
2.299999999999998
271
     2
340
24A
  0
ENDTAB
  0
TABLE
  2
BLOCK_RECORD
  5
1
330
0
100
AcDbSymbolTable
 70
    86
  0
BLOCK_RECORD
  5
1F
102
{ACAD_XDICTIONARY
360
31EE
102
}
330
1
100
AcDbSymbolTableRecord
100
AcDbBlockTableRecord
  2
*Model_Space
340
22
  0
BLOCK_RECORD
  5
50
330
1
100
AcDbSymbolTableRecord
100
AcDbBlockTableRecord
  2
*Paper_Space
340
51
  0
BLOCK_RECORD
  5
55
330
1
100
AcDbSymbolTableRecord
100
AcDbBlockTableRecord
  2
*Paper_Space0
340
56
  0
BLOCK_RECORD
  5
680
102
{ACAD_XDICTIONARY
360
3BEB2
102
}
330
1
100
AcDbSymbolTableRecord
100
AcDbBlockTableRecord
  2
zero block
340
0
102
{BLKREFS
331
68C
102
}
1001
ACAD
1000
DesignCenter Data
1002
{
1070
     1
1070
     4
1002
}
1001
AcDbDynamicBlockGUID
1000
{C2E8894D-A8DA-456D-ABB6-198B00672C1A}
1001
AcDbBlockRepETag
1070
     1
1071
        7
  0
BLOCK_RECORD
  5
697
330
1
100
AcDbSymbolTableRecord
100
AcDbBlockTableRecord
  2
_OPEN30
340
0
  0
BLOCK_RECORD
  5
34B1
330
1
100
AcDbSymbolTableRecord
100
AcDbBlockTableRecord
  2
_OPEN
340
0
  0
BLOCK_RECORD
  5
50E6F
330
1
100
AcDbSymbolTableRecord
100
AcDbBlockTableRecord
  2
_None
340
0
  0
BLOCK_RECORD
  5
54330
330
1
100
AcDbSymbolTableRecord
100
AcDbBlockTableRecord
  2
*D10
340
0
  0
BLOCK_RECORD
  5
554F6
330
1
100
AcDbSymbolTableRecord
100
AcDbBlockTableRecord
  2
*D71
340
0
  0
BLOCK_RECORD
  5
55502
330
1
100
AcDbSymbolTableRecord
100
AcDbBlockTableRecord
  2
*D72
340
0
  0
BLOCK_RECORD
  5
5550F
330
1
100
AcDbSymbolTableRecord
100
AcDbBlockTableRecord
  2
*D73
340
0
  0
BLOCK_RECORD
  5
5551C
330
1
100
AcDbSymbolTableRecord
100
AcDbBlockTableRecord
  2
*D74
340
0
  0
BLOCK_RECORD
  5
55529
330
1
100
AcDbSymbolTableRecord
100
AcDbBlockTableRecord
  2
*D75
340
0
  0
BLOCK_RECORD
  5
55560
330
1
100
AcDbSymbolTableRecord
100
AcDbBlockTableRecord
  2
*D80
340
0
  0
BLOCK_RECORD
  5
555EB
330
1
100
AcDbSymbolTableRecord
100
AcDbBlockTableRecord
  2
*D85
340
0
  0
ENDTAB
  0
ENDSEC
  0
SECTION
  2
BLOCKS
  0
BLOCK
  5
20
330
1F
100
AcDbEntity
  8
0
100
AcDbBlockBegin
  2
*Model_Space
 70
     0
 10
0.0
 20
0.0
 30
0.0
  3
*Model_Space
  1

  0
ENDBLK
  5
21
330
1F
100
AcDbEntity
  8
0
100
AcDbBlockEnd
  0
BLOCK
  5
52
330
50
100
AcDbEntity
 67
     1
  8
0
100
AcDbBlockBegin
  2
*Paper_Space
 70
     0
 10
0.0
 20
0.0
 30
0.0
  3
*Paper_Space
  1

  0
ENDBLK
  5
53
330
50
100
AcDbEntity
 67
     1
  8
0
100
AcDbBlockEnd
  0
BLOCK
  5
57
330
55
100
AcDbEntity
 67
     1
  8
0
100
AcDbBlockBegin
  2
*Paper_Space0
 70
     0
 10
0.0
 20
0.0
 30
0.0
  3
*Paper_Space0
  1

  0
VIEWPORT
  5
71
102
{ACAD_XDICTIONARY
360
55679
102
}
330
55
100
AcDbEntity
 67
     1
  8
0
100
AcDbViewport
 10
150.1652135264906
 20
101.599997546291
 30
0.0
 40
339.1973820494347
 41
164.5360435314421
 68
     0
 69
     0
 12
150.1652135264906
 22
101.599997546291
 13
0.0
 23
0.0
 14
10.0
 24
10.0
 15
10.0
 25
10.0
 16
0.0
 26
0.0
 36
1.0
 17
0.0
 27
0.0
 37
0.0
 42
50.0
 43
0.0
 44
0.0
 45
164.5360435314421
 50
0.0
 51
0.0
 72
  1000
 90
    32864
  1

281
     0
 71
     1
 74
     0
110
0.0
120
0.0
130
0.0
111
1.0
121
0.0
131
0.0
112
0.0
122
1.0
132
0.0
 79
     0
146
0.0
  0
VIEWPORT
  5
73
102
{ACAD_XDICTIONARY
360
5567B
102
}
330
55
100
AcDbEntity
 67
     1
  8
0
100
AcDbViewport
 10
133.3499939441681
 20
101.5999939441681
 30
0.0
 40
213.3599903106689
 41
162.5599903106689
 68
     0
 69
     0
 12
210.0
 22
148.5
 13
0.0
 23
0.0
 14
10.0
 24
10.0
 15
10.0
 25
10.0
 16
0.0
 26
0.0
 36
1.0
 17
0.0
 27
0.0
 37
0.0
 42
50.0
 43
0.0
 44
0.0
 45
324.0677920111345
 50
0.0
 51
0.0
 72
   100
 90
    32864
  1

281
     0
 71
     1
 74
     0
110
0.0
120
0.0
130
0.0
111
1.0
121
0.0
131
0.0
112
0.0
122
1.0
132
0.0
 79
     0
146
0.0
  0
ENDBLK
  5
58
330
55
100
AcDbEntity
 67
     1
  8
0
100
AcDbBlockEnd
  0
BLOCK
  5
68A
330
680
100
AcDbEntity
  8
0
100
AcDbBlockBegin
  2
zero block
 70
     0
 10
0.0
 20
0.0
 30
0.0
  3
zero block
  1

  0
HATCH
  5
3BEAB
330
680
100
AcDbEntity
  8
0
 62
     7
100
AcDbHatch
 10
0.0
 20
0.0
 30
0.0
210
0.0
220
0.0
230
1.0
  2
SOLID
 70
     1
 71
     0
 91
        2
 92
        7
 72
     1
 73
     1
 93
        3
 10
0.0
 20
0.9999999999999875
 42
0.4142135623730915
 10
-1.0
 20
0.0
 42
0.0
 10
0.0
 20
0.0
 42
0.0
 97
        0
 92
        7
 72
     1
 73
     1
 93
        3
 10
1.000000000000007
 20
0.0
 42
0.0
 10
0.0
 20
0.0
 42
0.0
 10
0.0
 20
-1.0
 42
0.4142135623730974
 97
        0
 75
     0
 76
     1
 47
0.0090601366782909
 98
        2
 10
-0.380591363650975
 20
0.4885804701532896
 10
0.4350764810977559
 20
-0.4536738423704725
1001
AcDbBlockRepETag
1070
     1
1071
        0
1005
3BEAB
  0
LINE
  5
3BEAC
330
680
100
AcDbEntity
  8
0
 62
     7
 48
0.2
100
AcDbLine
 10
-1.0
 20
0.0
 30
0.0
 11
1.000000000000007
 21
0.0
 31
0.0
1001
AcDbBlockRepETag
1070
     1
1071
        1
1005
3BEAC
  0
LINE
  5
3BEAD
330
680
100
AcDbEntity
  8
0
 62
     7
 48
0.2
100
AcDbLine
 10
0.0
 20
-1.0
 30
0.0
 11
0.0
 21
0.9999999999999875
 31
0.0
1001
AcDbBlockRepETag
1070
     1
1071
        2
1005
3BEAD
  0
ARC
  5
3BEAE
330
680
100
AcDbEntity
  8
0
 62
     7
 48
0.2
100
AcDbCircle
 10
0.0
 20
0.0
 30
0.0
 40
1.0
100
AcDbArc
 50
270.0
 51
0.0
1001
AcDbBlockRepETag
1070
     1
1071
        3
1005
3BEAE
  0
ARC
  5
3BEAF
330
680
100
AcDbEntity
  8
0
 62
     7
 48
0.2
100
AcDbCircle
 10
0.0
 20
0.0
 30
0.0
 40
1.0
100
AcDbArc
 50
0.0
 51
90.0
1001
AcDbBlockRepETag
1070
     1
1071
        4
1005
3BEAF
  0
ARC
  5
3BEB0
330
680
100
AcDbEntity
  8
0
 62
     7
 48
0.2
100
AcDbCircle
 10
0.0
 20
0.0
 30
0.0
 40
1.0
100
AcDbArc
 50
180.0
 51
270.0
1001
AcDbBlockRepETag
1070
     1
1071
        5
1005
3BEB0
  0
ARC
  5
3BEB1
330
680
100
AcDbEntity
  8
0
 62
     7
 48
0.2
100
AcDbCircle
 10
0.0
 20
0.0
 30
0.0
 40
1.0
100
AcDbArc
 50
90.0
 51
180.0
1001
AcDbBlockRepETag
1070
     1
1071
        6
1005
3BEB1
  0
ENDBLK
  5
68B
330
680
100
AcDbEntity
  8
0
100
AcDbBlockEnd
  0
BLOCK
  5
698
330
697
100
AcDbEntity
  8
0
  6
ByBlock
 62
     0
370
    -2
100
AcDbBlockBegin
  2
_OPEN30
 70
     2
 10
0.0
 20
0.0
 30
0.0
  3
_OPEN30
  1

  0
LINE
  5
699
330
697
100
AcDbEntity
  8
0
  6
ByBlock
 62
     0
370
    -2
100
AcDbLine
 10
-1.0
 20
0.267949
 30
0.0
 11
0.0
 21
0.0
 31
0.0
  0
LINE
  5
69A
330
697
100
AcDbEntity
  8
0
  6
ByBlock
 62
     0
370
    -2
100
AcDbLine
 10
0.0
 20
0.0
 30
0.0
 11
-1.0
 21
-0.267949
 31
0.0
  0
LINE
  5
69B
330
697
100
AcDbEntity
  8
0
  6
ByBlock
 62
     0
370
    -2
100
AcDbLine
 10
0.0
 20
0.0
 30
0.0
 11
-1.0
 21
0.0
 31
0.0
  0
ENDBLK
  5
69C
330
697
100
AcDbEntity
  8
0
  6
ByBlock
 62
     0
370
    -2
100
AcDbBlockEnd
  0
BLOCK
  5
34B2
330
34B1
100
AcDbEntity
  8
0
100
AcDbBlockBegin
  2
_OPEN
 70
     0
 10
0.0
 20
0.0
 30
0.0
  3
_OPEN
  1

  0
LINE
  5
34B3
330
34B1
100
AcDbEntity
  8
0
  6
ByBlock
 62
     0
100
AcDbLine
 10
0.0
 20
0.0
 30
0.0
 11
-1.0
 21
0.1766666667
 31
0.0
  0
LINE
  5
34B4
330
34B1
100
AcDbEntity
  8
0
  6
ByBlock
 62
     0
100
AcDbLine
 10
-1.0
 20
-0.1766666667
 30
0.0
 11
0.0
 21
0.0
 31
0.0
  0
LINE
  5
34B5
330
34B1
100
AcDbEntity
  8
0
  6
ByBlock
 62
     0
100
AcDbLine
 10
-1.0
 20
0.0
 30
0.0
 11
0.0
 21
0.0
 31
0.0
  0
ENDBLK
  5
34B6
330
34B1
100
AcDbEntity
  8
0
  6
ByBlock
 62
     0
100
AcDbBlockEnd
  0
BLOCK
  5
50E70
330
50E6F
100
AcDbEntity
  8
0
100
AcDbBlockBegin
  2
_None
 70
     0
 10
0.0
 20
0.0
 30
0.0
  3
_None
  1

  0
ENDBLK
  5
50E71
330
50E6F
100
AcDbEntity
  8
0
100
AcDbBlockEnd
  0
BLOCK
  5
5433A
330
54330
100
AcDbEntity
  8
0
100
AcDbBlockBegin
  2
*D10
 70
     1
 10
0.0
 20
0.0
 30
0.0
  3
*D10
  1

  0
LINE
  5
54F84
330
54330
100
AcDbEntity
  8
2
100
AcDbLine
 10
30.80000599998391
 20
7.687500000000028
 30
0.0
 11
30.80000599998391
 21
27.05105466061711
 31
0.0
  0
LINE
  5
54F85
330
54330
100
AcDbEntity
  8
2
100
AcDbLine
 10
50.80000599998391
 20
5.035113170532079
 30
0.0
 11
50.80000599998391
 21
27.05105466061711
 31
0.0
  0
LINE
  5
54F86
330
54330
100
AcDbEntity
  8
2
100
AcDbLine
 10
47.3000059999839
 20
25.55105466061711
 30
0.0
 11
34.30000599998391
 21
25.55105466061711
 31
0.0
  0
LINE
  5
54F87
330
54330
100
AcDbEntity
  8
2
100
AcDbLine
 10
30.80000599998391
 20
25.55105466061711
 30
0.0
 11
-4.716660666682749
 21
25.55105466061711
 31
0.0
  0
SOLID
  5
54F88
330
54330
100
AcDbEntity
  8
2
100
AcDbTrace
 10
47.3000059999839
 20
26.13438799395044
 30
0.0
 11
47.3000059999839
 21
24.96772132728378
 31
0.0
 12
50.80000599998391
 22
25.55105466061711
 32
0.0
 13
50.80000599998391
 23
25.55105466061711
 33
0.0
  0
SOLID
  5
54F89
330
54330
100
AcDbEntity
  8
2
100
AcDbTrace
 10
34.30000599998391
 20
26.13438799395044
 30
0.0
 11
34.30000599998391
 21
24.96772132728378
 31
0.0
 12
30.80000599998391
 22
25.55105466061711
 32
0.0
 13
30.80000599998391
 23
25.55105466061711
 33
0.0
  0
MTEXT
  5
54F8A
330
54330
100
AcDbEntity
  8
2
100
AcDbMText
 10
11.29167266665058
 20
29.6010546606171
 30
0.0
 40
3.5
 41
0.0
 71
     5
 72
     1
  1
\A1;20 [.787"]
  7
simplex
 73
     1
 44
0.892857
1001
ACAD
1000
MTEXTBEGIN
1070
    73
1070
     1
1070
    44
1040
0.892857
1070
    74
1070
     0
1000
MTEXTEND
  0
POINT
  5
54F8B
330
54330
100
AcDbEntity
  8
Defpoints
 62
     0
100
AcDbPoint
 10
30.80000599998391
 20
7.687500000000028
 30
0.0
  0
POINT
  5
54F8C
330
54330
100
AcDbEntity
  8
Defpoints
 62
     0
100
AcDbPoint
 10
50.80000599998391
 20
5.035113170532079
 30
0.0
  0
POINT
  5
54F8D
330
54330
100
AcDbEntity
  8
Defpoints
 62
     0
100
AcDbPoint
 10
50.80000599998391
 20
25.55105466061711
 30
0.0
  0
ENDBLK
  5
5433B
330
54330
100
AcDbEntity
  8
0
100
AcDbBlockEnd
  0
BLOCK
  5
55500
330
554F6
100
AcDbEntity
  8
0
100
AcDbBlockBegin
  2
*D71
 70
     1
 10
0.0
 20
0.0
 30
0.0
  3
*D71
  1

  0
LINE
  5
55628
330
554F6
100
AcDbEntity
  8
2
100
AcDbLine
 10
50.80000300000006
 20
8.751083622144676
 30
0.0
 11
50.80000300000006
 21
39.74118294807988
 31
0.0
  0
LINE
  5
55629
330
554F6
100
AcDbEntity
  8
2
100
AcDbLine
 10
0.0000030000000493
 20
9.525023999999973
 30
0.0
 11
0.0000030000000511
 21
39.74118294807988
 31
0.0
  0
LINE
  5
5562A
330
554F6
100
AcDbEntity
  8
2
100
AcDbLine
 10
47.30000300000006
 20
38.24118294807988
 30
0.0
 11
3.500003000000051
 21
38.24118294807988
 31
0.0
  0
SOLID
  5
5562B
330
554F6
100
AcDbEntity
  8
2
100
AcDbTrace
 10
47.30000300000006
 20
38.82451628141322
 30
0.0
 11
47.30000300000006
 21
37.65784961474655
 31
0.0
 12
50.80000300000006
 22
38.24118294807988
 32
0.0
 13
50.80000300000006
 23
38.24118294807988
 33
0.0
  0
SOLID
  5
5562C
330
554F6
100
AcDbEntity
  8
2
100
AcDbTrace
 10
3.500003000000051
 20
38.82451628141322
 30
0.0
 11
3.500003000000051
 21
37.65784961474655
 31
0.0
 12
0.000003000000051
 22
38.24118294807988
 32
0.0
 13
0.000003000000051
 23
38.24118294807988
 33
0.0
  0
MTEXT
  5
5562D
330
554F6
100
AcDbEntity
  8
2
100
AcDbMText
 10
23.95041009432077
 20
42.29118294807988
 30
0.0
 40
3.5
 41
0.0
 71
     5
 72
     1
  1
\A1;50.8 [2.000"]
  7
simplex
 73
     1
 44
0.892857
1001
ACAD
1000
MTEXTBEGIN
1070
    73
1070
     1
1070
    44
1040
0.892857
1070
    74
1070
     0
1000
MTEXTEND
  0
POINT
  5
5562E
330
554F6
100
AcDbEntity
  8
Defpoints
 62
     0
100
AcDbPoint
 10
50.80000300000006
 20
8.751083622144676
 30
0.0
  0
POINT
  5
5562F
330
554F6
100
AcDbEntity
  8
Defpoints
 62
     0
100
AcDbPoint
 10
0.0000030000000493
 20
9.525023999999973
 30
0.0
  0
POINT
  5
55630
330
554F6
100
AcDbEntity
  8
Defpoints
 62
     0
100
AcDbPoint
 10
0.000003000000051
 20
38.24118294807988
 30
0.0
  0
ENDBLK
  5
55501
330
554F6
100
AcDbEntity
  8
0
100
AcDbBlockEnd
  0
BLOCK
  5
5550D
330
55502
100
AcDbEntity
  8
0
100
AcDbBlockBegin
  2
*D72
 70
     1
 10
0.0
 20
0.0
 30
0.0
  3
*D72
  1

  0
LINE
  5
55631
330
55502
100
AcDbEntity
  8
2
100
AcDbLine
 10
30.79998799005438
 20
-7.695999999999997
 30
0.0
 11
15.34463500000004
 21
-7.695999999999993
 31
0.0
  0
LINE
  5
55632
330
55502
100
AcDbEntity
  8
2
100
AcDbLine
 10
30.80000599998391
 20
7.696000000000026
 30
0.0
 11
15.34463500000004
 21
7.69600000000003
 31
0.0
  0
LINE
  5
55633
330
55502
100
AcDbEntity
  8
2
100
AcDbLine
 10
16.84463500000004
 20
4.19600000000003
 30
0.0
 11
16.84463500000004
 21
-4.195999999999993
 31
0.0
  0
LINE
  5
55634
330
55502
100
AcDbEntity
  8
2
100
AcDbLine
 10
16.84463500000004
 20
-7.695999999999993
 30
0.0
 11
16.84463500000003
 21
-60.71266666666666
 31
0.0
  0
SOLID
  5
55635
330
55502
100
AcDbEntity
  8
2
100
AcDbTrace
 10
16.26130166666671
 20
4.19600000000003
 30
0.0
 11
17.42796833333337
 21
4.19600000000003
 31
0.0
 12
16.84463500000004
 22
7.69600000000003
 32
0.0
 13
16.84463500000004
 23
7.69600000000003
 33
0.0
  0
SOLID
  5
55636
330
55502
100
AcDbEntity
  8
2
100
AcDbTrace
 10
16.26130166666671
 20
-4.195999999999993
 30
0.0
 11
17.42796833333337
 21
-4.195999999999993
 31
0.0
 12
16.84463500000004
 22
-7.695999999999993
 32
0.0
 13
16.84463500000004
 23
-7.695999999999993
 33
0.0
  0
MTEXT
  5
55637
330
55502
100
AcDbEntity
  8
2
100
AcDbMText
 10
12.79463500000004
 20
-35.95433333333332
 30
0.0
 40
3.5
 41
0.0
 71
     5
 72
     1
  1
\A1;%%c15.392 [%%C.606"]
  7
simplex
 11
0.0000000000000001
 21
1.0
 31
0.0
 73
     1
 44
0.892857
1001
ACAD
1000
MTEXTBEGIN
1070
    73
1070
     1
1070
    44
1040
0.892857
1070
    74
1070
     0
1000
MTEXTEND
  0
POINT
  5
55638
330
55502
100
AcDbEntity
  8
Defpoints
 62
     0
100
AcDbPoint
 10
30.79998799005438
 20
-7.695999999999997
 30
0.0
  0
POINT
  5
55639
330
55502
100
AcDbEntity
  8
Defpoints
 62
     0
100
AcDbPoint
 10
30.80000599998391
 20
7.696000000000026
 30
0.0
  0
POINT
  5
5563A
330
55502
100
AcDbEntity
  8
Defpoints
 62
     0
100
AcDbPoint
 10
16.84463500000004
 20
7.69600000000003
 30
0.0
  0
ENDBLK
  5
5550E
330
55502
100
AcDbEntity
  8
0
100
AcDbBlockEnd
  0
BLOCK
  5
5551A
330
5550F
100
AcDbEntity
  8
0
100
AcDbBlockBegin
  2
*D73
 70
     1
 10
0.0
 20
0.0
 30
0.0
  3
*D73
  1

  0
LINE
  5
5563B
330
5550F
100
AcDbEntity
  8
sk2
100
AcDbLine
 10
-78.17499499999996
 20
-9.524984000000017
 30
0.0
 11
-108.5986369999999
 21
-9.524984000000008
 31
0.0
  0
LINE
  5
5563C
330
5550F
100
AcDbEntity
  8
sk2
100
AcDbLine
 10
-78.17499499999996
 20
9.525015999999993
 30
0.0
 11
-108.5986369999999
 21
9.525016000000002
 31
0.0
  0
LINE
  5
5563D
330
5550F
100
AcDbEntity
  8
sk2
100
AcDbLine
 10
-107.0986369999999
 20
6.025016000000001
 30
0.0
 11
-107.0986369999999
 21
-6.024984000000009
 31
0.0
  0
LINE
  5
5563E
330
5550F
100
AcDbEntity
  8
sk2
100
AcDbLine
 10
-107.0986369999999
 20
-9.52498400000001
 30
0.0
 11
-107.0986369999999
 21
-62.28332733333344
 31
0.0
  0
SOLID
  5
5563F
330
5550F
100
AcDbEntity
  8
sk2
100
AcDbTrace
 10
-107.6819703333332
 20
6.025016000000001
 30
0.0
 11
-106.5153036666666
 21
6.025016000000001
 31
0.0
 12
-107.0986369999999
 22
9.525016
 32
0.0
 13
-107.0986369999999
 23
9.525016
 33
0.0
  0
SOLID
  5
55640
330
5550F
100
AcDbEntity
  8
sk2
100
AcDbTrace
 10
-107.6819703333332
 20
-6.024984000000009
 30
0.0
 11
-106.5153036666666
 21
-6.024984000000009
 31
0.0
 12
-107.0986369999999
 22
-9.52498400000001
 32
0.0
 13
-107.0986369999999
 23
-9.52498400000001
 33
0.0
  0
MTEXT
  5
55641
330
5550F
100
AcDbEntity
  8
sk2
100
AcDbMText
 10
-111.1486369999999
 20
-39.56666066666679
 30
0.0
 40
3.5
 41
0.0
 71
     5
 72
     1
  1
\A1;%%c19.05 [%%C.750"]
  7
simplex
 11
0.0000000000000001
 21
1.0
 31
0.0
 73
     1
 44
0.892857
1001
ACAD
1000
MTEXTBEGIN
1070
    73
1070
     1
1070
    44
1040
0.892857
1070
    74
1070
     0
1000
MTEXTEND
  0
POINT
  5
55642
330
5550F
100
AcDbEntity
  8
Defpoints
 62
     0
100
AcDbPoint
 10
-78.17499499999996
 20
-9.524984000000017
 30
0.0
  0
POINT
  5
55643
330
5550F
100
AcDbEntity
  8
Defpoints
 62
     0
100
AcDbPoint
 10
-78.17499499999996
 20
9.525015999999993
 30
0.0
  0
POINT
  5
55644
330
5550F
100
AcDbEntity
  8
Defpoints
 62
     0
100
AcDbPoint
 10
-107.0986369999999
 20
9.525016
 30
0.0
  0
ENDBLK
  5
5551B
330
5550F
100
AcDbEntity
  8
0
100
AcDbBlockEnd
  0
BLOCK
  5
55527
330
5551C
100
AcDbEntity
  8
0
100
AcDbBlockBegin
  2
*D74
 70
     1
 10
0.0
 20
0.0
 30
0.0
  3
*D74
  1

  0
LINE
  5
55645
330
5551C
100
AcDbEntity
  8
2
100
AcDbLine
 10
30.80000599998391
 20
7.687500000000028
 30
0.0
 11
30.80000599998391
 21
27.05105466061713
 31
0.0
  0
LINE
  5
55646
330
5551C
100
AcDbEntity
  8
2
100
AcDbLine
 10
50.80000599998391
 20
5.035113170532071
 30
0.0
 11
50.80000599998391
 21
27.05105466061713
 31
0.0
  0
LINE
  5
55647
330
5551C
100
AcDbEntity
  8
2
100
AcDbLine
 10
47.3000059999839
 20
25.55105466061713
 30
0.0
 11
34.30000599998391
 21
25.55105466061713
 31
0.0
  0
LINE
  5
55648
330
5551C
100
AcDbEntity
  8
2
100
AcDbLine
 10
30.80000599998391
 20
25.55105466061713
 30
0.0
 11
-4.716660666682749
 21
25.55105466061713
 31
0.0
  0
SOLID
  5
55649
330
5551C
100
AcDbEntity
  8
2
100
AcDbTrace
 10
47.3000059999839
 20
26.13438799395046
 30
0.0
 11
47.3000059999839
 21
24.96772132728379
 31
0.0
 12
50.80000599998391
 22
25.55105466061713
 32
0.0
 13
50.80000599998391
 23
25.55105466061713
 33
0.0
  0
SOLID
  5
5564A
330
5551C
100
AcDbEntity
  8
2
100
AcDbTrace
 10
34.30000599998391
 20
26.13438799395046
 30
0.0
 11
34.30000599998391
 21
24.96772132728379
 31
0.0
 12
30.80000599998391
 22
25.55105466061713
 32
0.0
 13
30.80000599998391
 23
25.55105466061713
 33
0.0
  0
MTEXT
  5
5564B
330
5551C
100
AcDbEntity
  8
2
100
AcDbMText
 10
11.29167266665058
 20
29.60105466061712
 30
0.0
 40
3.5
 41
0.0
 71
     5
 72
     1
  1
\A1;20 [.787"]
  7
simplex
 73
     1
 44
0.892857
1001
ACAD
1000
MTEXTBEGIN
1070
    73
1070
     1
1070
    44
1040
0.892857
1070
    74
1070
     0
1000
MTEXTEND
  0
POINT
  5
5564C
330
5551C
100
AcDbEntity
  8
Defpoints
 62
     0
100
AcDbPoint
 10
30.80000599998391
 20
7.687500000000028
 30
0.0
  0
POINT
  5
5564D
330
5551C
100
AcDbEntity
  8
Defpoints
 62
     0
100
AcDbPoint
 10
50.80000599998391
 20
5.035113170532071
 30
0.0
  0
POINT
  5
5564E
330
5551C
100
AcDbEntity
  8
Defpoints
 62
     0
100
AcDbPoint
 10
50.80000599998391
 20
25.55105466061713
 30
0.0
  0
ENDBLK
  5
55528
330
5551C
100
AcDbEntity
  8
0
100
AcDbBlockEnd
  0
BLOCK
  5
55533
330
55529
100
AcDbEntity
  8
0
100
AcDbBlockBegin
  2
*D75
 70
     1
 10
0.0
 20
0.0
 30
0.0
  3
*D75
  1

  0
LINE
  5
5564F
330
55529
100
AcDbEntity
  8
sk2
100
AcDbLine
 10
50.80000599998391
 20
5.035113170532071
 30
0.0
 11
50.80000599998391
 21
53.57651473337227
 31
0.0
  0
LINE
  5
55650
330
55529
100
AcDbEntity
  8
sk2
100
AcDbLine
 10
-79.3749940000161
 20
0.0000000000000284
 30
0.0
 11
-79.3749940000161
 21
53.57651473337227
 31
0.0
  0
LINE
  5
55651
330
55529
100
AcDbEntity
  8
sk2
100
AcDbLine
 10
47.3000059999839
 20
52.07651473337228
 30
0.0
 11
-75.8749940000161
 21
52.07651473337228
 31
0.0
  0
SOLID
  5
55652
330
55529
100
AcDbEntity
  8
sk2
100
AcDbTrace
 10
47.3000059999839
 20
52.65984806670561
 30
0.0
 11
47.3000059999839
 21
51.49318140003894
 31
0.0
 12
50.80000599998391
 22
52.07651473337228
 32
0.0
 13
50.80000599998391
 23
52.07651473337228
 33
0.0
  0
SOLID
  5
55653
330
55529
100
AcDbEntity
  8
sk2
100
AcDbTrace
 10
-75.8749940000161
 20
52.65984806670561
 30
0.0
 11
-75.8749940000161
 21
51.49318140003894
 31
0.0
 12
-79.3749940000161
 22
52.07651473337228
 32
0.0
 13
-79.3749940000161
 23
52.07651473337228
 33
0.0
  0
MTEXT
  5
55654
330
55529
100
AcDbEntity
  8
sk2
100
AcDbMText
 10
-12.07561795909373
 20
56.12651473337227
 30
0.0
 40
3.5
 41
0.0
 71
     5
 72
     1
  1
\A1;130.175 [5.125"]
  7
simplex
 73
     1
 44
1.0
1001
ACAD
1000
MTEXTBEGIN
1070
    73
1070
     1
1070
    44
1040
1.0
1070
    74
1070
     0
1000
MTEXTEND
  0
POINT
  5
55655
330
55529
100
AcDbEntity
  8
Defpoints
 62
     0
100
AcDbPoint
 10
50.80000599998391
 20
5.035113170532071
 30
0.0
  0
POINT
  5
55656
330
55529
100
AcDbEntity
  8
Defpoints
 62
     0
100
AcDbPoint
 10
-79.3749940000161
 20
0.0000000000000284
 30
0.0
  0
POINT
  5
55657
330
55529
100
AcDbEntity
  8
Defpoints
 62
     0
100
AcDbPoint
 10
-79.3749940000161
 20
52.07651473337228
 30
0.0
  0
ENDBLK
  5
55534
330
55529
100
AcDbEntity
  8
0
100
AcDbBlockEnd
  0
BLOCK
  5
55569
330
55560
100
AcDbEntity
  8
0
100
AcDbBlockBegin
  2
*D80
 70
     1
 10
0.0
 20
0.0
 30
0.0
  3
*D80
  1

  0
LINE
  5
55658
330
55560
100
AcDbEntity
  8
2
100
AcDbLine
 10
48.79999699502462
 20
7.999999998900023
 30
0.0
 11
67.23813968636836
 21
7.999999998900017
 31
0.0
  0
LINE
  5
55659
330
55560
100
AcDbEntity
  8
2
100
AcDbLine
 10
65.73813968636835
 20
4.499999998900018
 30
0.0
 11
65.73813968636835
 21
-8.000000000000007
 31
0.0
  0
LINE
  5
5565A
330
55560
100
AcDbEntity
  8
2
100
AcDbLine
 10
65.73813968636835
 20
-8.000000000000007
 30
0.0
 11
65.73813968636834
 21
-49.34999999999999
 31
0.0
  0
SOLID
  5
5565B
330
55560
100
AcDbEntity
  8
2
100
AcDbTrace
 10
65.15480635303503
 20
4.499999998900018
 30
0.0
 11
66.32147301970168
 21
4.499999998900017
 31
0.0
 12
65.73813968636835
 22
7.999999998900018
 32
0.0
 13
65.73813968636835
 23
7.999999998900018
 33
0.0
  0
MTEXT
  5
5565C
330
55560
100
AcDbEntity
  8
2
100
AcDbMText
 10
61.68813968636836
 20
-30.42499999999999
 30
0.0
 40
3.5
 41
0.0
 71
     5
 72
     1
  1
\A1;%%c16 [%%c.630"]
  7
simplex
 11
0.0000000000000001
 21
1.0
 31
0.0
 73
     1
 44
1.0
1001
ACAD
1000
MTEXTBEGIN
1070
    73
1070
     1
1070
    44
1040
1.0
1070
    74
1070
     0
1000
MTEXTEND
  0
POINT
  5
5565D
330
55560
100
AcDbEntity
  8
Defpoints
 62
     0
100
AcDbPoint
 10
42.79999699502463
 20
-8.0
 30
0.0
  0
POINT
  5
5565E
330
55560
100
AcDbEntity
  8
Defpoints
 62
     0
100
AcDbPoint
 10
48.79999699502462
 20
7.999999998900023
 30
0.0
  0
POINT
  5
5565F
330
55560
100
AcDbEntity
  8
Defpoints
 62
     0
100
AcDbPoint
 10
65.73813968636835
 20
7.999999998900018
 30
0.0
  0
ENDBLK
  5
5556A
330
55560
100
AcDbEntity
  8
0
100
AcDbBlockEnd
  0
BLOCK
  5
555F3
330
555EB
100
AcDbEntity
  8
0
100
AcDbBlockBegin
  2
*D85
 70
     1
 10
0.0
 20
0.0
 30
0.0
  3
*D85
  1

  0
LINE
  5
55667
330
555EB
100
AcDbEntity
  8
2
100
AcDbLine
 10
84.59686266915239
 20
32.36834992502052
 30
0.0
 11
53.22257208994773
 21
9.174510906233525
 31
0.0
  0
MTEXT
  5
55668
330
555EB
100
AcDbEntity
  8
2
100
AcDbMText
 10
67.90937463254078
 20
25.06844267864256
 30
0.0
 40
3.5
 41
0.0
 71
     5
 72
     1
  1
\A1;R2 [R.079"]
  7
simplex
 11
0.8041253459001628
 21
0.5944597783542163
 31
0.0
 73
     1
 44
1.0
1001
ACAD
1000
MTEXTBEGIN
1070
    73
1070
     1
1070
    44
1040
1.0
1070
    74
1070
     0
1000
MTEXTEND
  0
SOLID
  5
55669
330
555EB
100
AcDbEntity
  8
2
100
AcDbTrace
 10
52.87580388590777
 20
9.643584024675288
 30
0.0
 11
53.56934029398769
 21
8.705437787791765
 31
0.0
 12
50.40813337929717
 22
7.093901681993767
 32
0.0
 13
50.40813337929717
 23
7.093901681993767
 33
0.0
  0
LINE
  5
5566A
330
555EB
100
AcDbEntity
  8
2
100
AcDbLine
 10
48.70988268749655
 20
5.90498212528513
 30
0.0
 11
48.88988268749656
 21
5.90498212528513
 31
0.0
  0
LINE
  5
5566B
330
555EB
100
AcDbEntity
  8
2
100
AcDbLine
 10
48.79988268749656
 20
5.81498212528513
 30
0.0
 11
48.79988268749656
 21
5.994982125285126
 31
0.0
  0
POINT
  5
5566C
330
555EB
100
AcDbEntity
  8
Defpoints
 62
     0
100
AcDbPoint
 10
50.40813337929717
 20
7.093901681993767
 30
0.0
  0
POINT
  5
5566D
330
555EB
100
AcDbEntity
  8
Defpoints
 62
     0
100
AcDbPoint
 10
48.79988268749656
 20
5.90498212528513
 30
0.0
  0
ENDBLK
  5
555F4
330
555EB
100
AcDbEntity
  8
0
100
AcDbBlockEnd
  0
ENDSEC
  0
SECTION
  2
ENTITIES
  0
INSERT
  5
68C
330
1F
100
AcDbEntity
  8
0
100
AcDbBlockReference
  2
zero block
 10
0.0
 20
0.0
 30
0.0
  0
MTEXT
  5
53AD9
330
1F
100
AcDbEntity
  8
sk6
100
AcDbMText
 10
-81.32466216386069
 20
85.57116836711657
 30
0.0
 40
5.0
 41
70.03712541027798
 71
     1
 72
     5
  1
SRFU10S12M\PSUFT16R20
  7
simplex
 73
     1
 44
1.0
1001
ACAD
1000
ACAD_MTEXT_DEFINED_HEIGHT_BEGIN
1070
    46
1040
0.0
1000
ACAD_MTEXT_DEFINED_HEIGHT_END
1000
MTEXTBEGIN
1070
    73
1070
     1
1070
    44
1040
1.0
1070
    74
1070
     0
1000
MTEXTEND
  0
DIMENSION
  5
552B0
330
1F
100
AcDbEntity
  8
2
100
AcDbDimension
  2
*D71
 10
0.000003000000051
 20
38.24118294807988
 30
0.0
 11
23.95041009432077
 21
38.24118294807988
 31
0.0
 70
   160
 71
     5
 41
0.892857
 42
50.80000000000001
  3
\M+18352\M+18373\M+1815B - ISO-25
100
AcDbAlignedDimension
 13
50.80000300000006
 23
8.751083622144676
 33
0.0
 14
0.0000030000000493
 24
9.525023999999973
 34
0.0
 50
180.0
100
AcDbRotatedDimension
1001
ACAD
1000
DSTYLE
1002
{
1070
     4
1000
"
1070
    40
1040
1.0
1070
   143
1040
0.03937
1070
   170
1070
     1
1070
   171
1070
     3
1070
   271
1070
     8
1070
   285
1070
     4
1002
}
  0
DIMENSION
  5
552B1
330
1F
100
AcDbEntity
  8
2
100
AcDbDimension
  2
*D72
 10
16.84463500000004
 20
7.69600000000003
 30
0.0
 11
16.84463500000004
 21
-35.95433333333332
 31
0.0
 70
   160
  1
%%c<>
 71
     5
 41
0.892857
 42
15.39200000000002
  3
\M+18352\M+18373\M+1815B - ISO-25
100
AcDbAlignedDimension
 13
30.79998799005438
 23
-7.695999999999997
 33
0.0
 14
30.80000599998391
 24
7.696000000000026
 34
0.0
 50
270.0
100
AcDbRotatedDimension
1001
ACAD
1000
DSTYLE
1002
{
1070
     4
1000
%%C[]"
1070
    40
1040
1.0
1070
   143
1040
0.03937
1070
   170
1070
     1
1070
   171
1070
     3
1070
   271
1070
     8
1070
   285
1070
     4
1002
}
  0
SPLINE
  5
552B2
330
1F
100
AcDbEntity
  8
1
100
AcDbSpline
210
0.0
220
0.0
230
1.0
 70
     8
 71
     3
 72
    27
 73
    23
 74
    21
 42
0.0000000001
 43
0.0000000001
 44
0.000001
 12
0.9999993800498621
 22
0.0011135079215446
 32
0.0
 13
-0.9999999594001586
 23
0.0002849555773617
 33
0.0
 40
0.0
 40
0.0
 40
0.0
 40
0.0
 40
0.3735085918494724
 40
0.7578528137952604
 40
1.131472391173132
 40
1.515911965766972
 40
1.889542555000605
 40
2.274000101060577
 40
2.647689403257972
 40
3.032199330200648
 40
3.27979516048596
 40
3.530458078957174
 40
3.904092375486501
 40
4.288595978855976
 40
4.662237342551502
 40
5.046717163866485
 40
5.420388809620887
 40
5.804904288526643
 40
6.178589081806537
 40
6.563114633676369
 40
6.810470854461082
 40
7.060889099005416
 40
7.060889099005416
 40
7.060889099005416
 40
7.060889099005416
 10
42.80000340136723
 20
-2.250000314453131
 30
0.0
 10
42.92450618813148
 20
-2.249861679527867
 30
0.0
 10
43.17761912557102
 20
-2.22904862373997
 30
0.0
 10
43.54460720451709
 20
-2.134533514406086
 30
0.0
 10
43.89386354900119
 20
-1.978456224575666
 30
0.0
 10
44.20908637632925
 20
-1.767860329626756
 30
0.0
 10
44.48699562895654
 20
-1.504933515408851
 30
0.0
 10
44.71477153149487
 20
-1.201847638698524
 30
0.0
 10
44.89001926278388
 20
-0.8617489994671814
 30
0.0
 10
44.99189790155168
 20
-0.540500810436356
 30
0.0
 10
45.0407471888966
 20
-0.2497728887227879
 30
0.0
 10
45.05695237061809
 20
0.0409735484117562
 30
0.0
 10
45.02894884961427
 20
0.3777035753334417
 30
0.0
 10
44.93445990823238
 20
0.7448444138964874
 30
0.0
 10
44.77827939262647
 20
1.094128454588542
 30
0.0
 10
44.56764369034664
 20
1.409369364333258
 30
0.0
 10
44.30461107354853
 20
1.687242127012638
 30
0.0
 10
44.00147556078849
 20
1.915007278643258
 30
0.0
 10
43.66130763115052
 20
2.090163501580775
 30
0.0
 10
43.34010090787285
 20
2.191968099743291
 30
0.0
 10
43.04955958659741
 20
2.240733606402699
 30
0.0
 10
42.88347614615969
 20
2.249975899521729
 30
0.0
 10
42.80000340136723
 20
2.249999685546868
 30
0.0
 11
42.80000340136723
 21
-2.250000314453131
 31
0.0
 11
43.17222630175786
 21
-2.219024972656256
 31
0.0
 11
43.54445683154302
 21
-2.123291330078075
 31
0.0
 11
43.88555180224614
 21
-1.970825509765575
 31
0.0
 11
44.20521580371098
 21
-1.757263498046881
 31
0.0
 11
44.4766315141602
 21
-1.500488595703131
 31
0.0
 11
44.70760380419926
 21
-1.193146066406256
 31
0.0
 11
44.87876927050786
 21
-0.8609622285156319
 31
0.0
 11
44.99501835498051
 21
-0.4944461152344389
 31
0.0
 11
45.03605686816411
 21
-0.250274972656257
 31
0.0
 11
45.05000340136724
 21
-0.000000314453132
 31
0.0
 11
45.0189899125977
 21
0.372344656249993
 31
0.0
 11
44.92317997607426
 21
0.7447201445312431
 31
0.0
 11
44.77066075000005
 21
1.085815115234424
 31
0.0
 11
44.55703770312505
 21
1.405486746093743
 31
0.0
 11
44.30017887744145
 21
1.676879568359368
 31
0.0
 11
43.99275242480473
 21
1.907836599609368
 31
0.0
 11
43.66053043994145
 21
2.078918142578118
 31
0.0
 11
43.29397617968749
 21
2.195098562499993
 31
0.0
 11
43.05003391894536
 21
2.236053152343743
 31
0.0
 11
42.80000340136723
 21
2.249999685546868
 31
0.0
  0
SPLINE
  5
552B3
330
1F
100
AcDbEntity
  8
1
100
AcDbSpline
210
0.0
220
0.0
230
1.0
 70
     8
 71
     3
 72
    27
 73
    23
 74
    21
 42
0.0000000001
 43
0.0000000001
 44
0.000001
 12
-0.9999993800497753
 22
-0.0011135079994636
 32
0.0
 13
0.9999999594001918
 23
-0.0002849554611409
 33
0.0
 40
0.0
 40
0.0
 40
0.0
 40
0.0
 40
0.3735111234111143
 40
0.7578479569811478
 40
1.131455082086767
 40
1.515917954095487
 40
1.88952202858
 40
2.273979574646435
 40
2.64766538231928
 40
3.03220670531711
 40
3.279801271159261
 40
3.530434568879158
 40
3.904099910983287
 40
4.288603514348309
 40
4.662241763801438
 40
5.046696211991972
 40
5.420395266918482
 40
5.804916845646881
 40
6.178594855977468
 40
6.563113134693246
 40
6.810469354402981
 40
7.060885902284049
 40
7.060885902284049
 40
7.060885902284049
 40
7.060885902284049
 10
42.80000340136723
 20
2.249999685546868
 30
0.0
 10
42.67549977074963
 20
2.249861049672261
 30
0.0
 10
42.42239040331765
 20
2.229007374246208
 30
0.0
 10
42.05541441029299
 20
2.134494334467916
 30
0.0
 10
41.70613096949279
 20
1.978465996014193
 30
0.0
 10
41.39094289960803
 20
1.767826390093432
 30
0.0
 10
41.11300796305636
 20
1.50493285693804
 30
0.0
 10
40.88524240781771
 20
1.201847267498521
 30
0.0
 10
40.71000126476536
 20
0.8617370639489081
 30
0.0
 10
40.60811211774432
 20
0.540481148725462
 30
0.0
 10
40.55928440710772
 20
0.2497503836988812
 30
0.0
 10
40.54304298582678
 20
-0.0409936863428016
 30
0.0
 10
40.57106796685229
 20
-0.377725271718532
 30
0.0
 10
40.66555683902294
 20
-0.7448721802000762
 30
0.0
 10
40.82171583384542
 20
-1.094158635250948
 30
0.0
 10
41.0323841280782
 20
-1.409375668998507
 30
0.0
 10
41.29539108174287
 20
-1.687275382261873
 30
0.0
 10
41.59854581027992
 20
-1.915032162808643
 30
0.0
 10
41.93870558260829
 20
-2.090197349450761
 30
0.0
 10
42.25990866540769
 20
-2.191993921909045
 30
0.0
 10
42.5504458815584
 20
-2.240778316626602
 30
0.0
 10
42.71653122212916
 20
-2.249976528598836
 30
0.0
 10
42.80000340136723
 20
-2.250000314453131
 30
0.0
 11
42.80000340136723
 21
2.249999685546868
 31
0.0
 11
42.42778050097661
 21
2.218993826171924
 31
0.0
 11
42.05555760058598
 21
2.123260183593743
 31
0.0
 11
41.71446262988285
 21
1.970824880859368
 31
0.0
 11
41.39479099902348
 21
1.757232351562493
 31
0.0
 11
41.1233829179688
 21
1.500487966796868
 31
0.0
 11
40.89241062792973
 21
1.193145437499993
 31
0.0
 11
40.72125279101567
 21
0.860961599609368
 31
0.0
 11
40.60499607714848
 21
0.4944149687499931
 31
0.0
 11
40.56396519335942
 21
0.2502438261719249
 31
0.0
 11
40.55000340136723
 21
-0.000000314453132
 31
0.0
 11
40.58102451953129
 21
-0.3723758027344388
 31
0.0
 11
40.67683445605474
 21
-0.7447512910155752
 31
0.0
 11
40.82934605273442
 21
-1.085846261718756
 31
0.0
 11
41.04296909960942
 21
-1.405487375000006
 31
0.0
 11
41.29983555468754
 21
-1.6769107148437
 31
0.0
 11
41.60726963671879
 21
-1.9078677460937
 31
0.0
 11
41.93948399218754
 21
-2.078949289062506
 31
0.0
 11
42.30603062304692
 21
-2.195129708984438
 31
0.0
 11
42.54997288378911
 21
-2.236084298828131
 31
0.0
 11
42.80000340136723
 21
-2.250000314453131
 31
0.0
  0
SPLINE
  5
552B4
330
1F
100
AcDbEntity
  8
1
100
AcDbSpline
210
0.0
220
0.0
230
1.0
 70
     8
 71
     3
 72
    12
 73
     8
 74
     0
 42
0.0000000001
 43
0.0000000001
 40
0.0
 40
0.0
 40
0.0
 40
0.0
 40
0.4339577819477788
 40
0.9099859142833391
 40
1.405962155925799
 40
1.890497526646711
 40
2.181940945473638
 40
2.181940945473638
 40
2.181940945473638
 40
2.181940945473638
 10
36.68621861132817
 20
7.066283865234396
 30
0.0
 10
36.82729362130067
 20
7.034311775731794
 30
0.0
 10
37.12271225732684
 20
6.96544532082288
 30
0.0
 10
37.57759374855652
 20
6.852613173690428
 30
0.0
 10
38.04758219001292
 20
6.730790561208095
 30
0.0
 10
38.4570621782438
 20
6.620821768275959
 30
0.0
 10
38.70648756439925
 20
6.552321742218566
 30
0.0
 10
38.8001174992952
 20
6.526414810546611
 30
0.0
  0
SPLINE
  5
552B5
330
1F
100
AcDbEntity
  8
1
100
AcDbSpline
210
0.0
220
0.0
230
1.0
 70
     8
 71
     3
 72
    13
 73
     9
 74
     0
 42
0.0000000001
 43
0.0000000001
 40
2.181940945473638
 40
2.181940945473638
 40
2.181940945473638
 40
2.181940945473638
 40
2.411830244661465
 40
2.927049205807353
 40
3.541407071120663
 40
4.174229917974114
 40
4.797916357174424
 40
5.447220821965697
 40
5.447220821965697
 40
5.447220821965697
 40
5.447220821965697
 10
38.8001174992952
 20
6.526414810546611
 30
0.0
 10
38.87397238407135
 20
6.50597953569931
 30
0.0
 10
39.11324779668007
 20
6.439383374656358
 30
0.0
 10
39.54926244424019
 20
6.315919560148245
 30
0.0
 10
40.11352095569918
 20
6.152415478133718
 30
0.0
 10
40.71154144921172
 20
5.975554071017995
 30
0.0
 10
41.31982576145969
 20
5.792353863724827
 30
0.0
 10
41.72560858350538
 20
5.668265696382718
 30
0.0
 10
41.93243443164067
 20
5.604491873046868
 30
0.0
  0
SPLINE
  5
552B6
330
1F
100
AcDbEntity
  8
1
100
AcDbSpline
210
0.0
220
0.0
230
1.0
 70
     8
 71
     3
 72
    11
 73
     7
 74
     5
 42
0.0000000001
 43
0.0000000001
 44
0.000001
 12
0.9963985396872141
 22
-0.084793573513487
 32
0.0
 13
0.9789822437785613
 23
-0.2039454985193194
 33
0.0
 40
0.0
 40
0.0
 40
0.0
 40
0.0
 40
0.2130711443669438
 40
0.4663665831631653
 40
0.7267152747765289
 40
1.018957862130388
 40
1.018957862130388
 40
1.018957862130388
 40
1.018957862130388
 10
35.29422032031255
 20
7.309539480468743
 30
0.0
 10
35.36498824601142
 20
7.303517125887594
 30
0.0
 10
35.51968112142657
 20
7.287619562023223
 30
0.0
 10
35.75931471664518
 20
7.251755669112526
 30
0.0
 10
36.02387309640187
 20
7.205110402456767
 30
0.0
 10
36.20463663340212
 20
7.169616628128437
 30
0.0
 10
36.30000340136724
 20
7.149749441406271
 30
0.0
 11
35.29422032031255
 21
7.309539480468743
 31
0.0
 11
35.50614964160161
 21
7.287505789062493
 31
0.0
 11
35.7568057695313
 21
7.251037283203118
 31
0.0
 11
36.01326023730474
 21
7.206176443359368
 31
0.0
 11
36.30000340136724
 21
7.149749441406271
 31
0.0
  0
SPLINE
  5
552B7
330
1F
100
AcDbEntity
  8
1
100
AcDbSpline
210
0.0
220
0.0
230
1.0
 70
     8
 71
     3
 72
    25
 73
    21
 74
    19
 42
0.0000000001
 43
0.0000000001
 44
0.000001
 12
0.9387154891178772
 22
-0.344692951030602
 32
0.0
 13
0.4705113083783492
 23
-0.882393964557835
 33
0.0
 40
0.0
 40
0.0
 40
0.0
 40
0.0
 40
0.5361253125571418
 40
1.082717031125198
 40
1.651580274534605
 40
2.226043003257944
 40
2.820603751770648
 40
3.419319782861885
 40
4.027883746906575
 40
4.634260997362719
 40
5.208921196023834
 40
5.774467776516532
 40
6.335359884410273
 40
6.878366849115972
 40
7.359868950982829
 40
7.817099570736536
 40
8.252218999229748
 40
8.651666475936631
 40
8.984832127785644
 40
9.277084341228137
 40
9.277084341228137
 40
9.277084341228137
 40
9.277084341228137
 10
42.86250340136724
 20
5.291106863281243
 30
0.0
 10
43.03025977970242
 20
5.229507324578747
 30
0.0
 10
43.3665579773716
 20
5.098195666431792
 30
0.0
 10
43.87075645706022
 20
4.876768488953587
 30
0.0
 10
44.37676805479668
 20
4.628870076735324
 30
0.0
 10
44.88614239374743
 20
4.35262571993644
 30
0.0
 10
45.39202672719091
 20
4.050134406357955
 30
0.0
 10
45.89427271815577
 20
3.720444223247909
 30
0.0
 10
46.38540457421107
 20
3.367610671794068
 30
0.0
 10
46.85496320579716
 20
2.99940516083916
 30
0.0
 10
47.29828187962289
 20
2.621788329709943
 30
0.0
 10
47.71524813441908
 20
2.237302351025903
 30
0.0
 10
48.10941132334654
 20
1.844280549402867
 30
0.0
 10
48.46887274217715
 20
1.456714543766622
 30
0.0
 10
48.79109298546819
 20
1.08224443939676
 30
0.0
 10
49.07717131381696
 20
0.724517828877282
 30
0.0
 10
49.33365567547809
 20
0.3785084193347643
 30
0.0
 10
49.55317251914556
 20
0.0569537494272936
 30
0.0
 10
49.73465178747381
 20
-0.232609999580319
 30
0.0
 10
49.8365343542855
 20
-0.4145891011026209
 30
0.0
 10
49.8823703447266
 20
-0.500549630859382
 30
0.0
 11
42.86250340136724
 21
5.291106863281243
 31
0.0
 11
43.36189304980473
 21
5.096069021484424
 31
0.0
 11
43.86238896044926
 21
4.876372976562493
 31
0.0
 11
44.37329899462895
 21
4.626220388671924
 31
0.0
 11
44.87829624804692
 21
4.352386160156299
 31
0.0
 11
45.38863407763677
 21
4.047332449218743
 31
0.0
 11
45.88916813525395
 21
3.718810720703118
 31
0.0
 11
46.38343083056645
 21
3.363769216796868
 31
0.0
 11
46.86061894091801
 21
2.989623708984424
 31
0.0
 11
47.29807316455082
 21
2.616973562499993
 31
0.0
 11
47.71382939013676
 21
2.233581228515561
 31
0.0
 11
48.11096226367192
 21
1.837493582031243
 31
0.0
 11
48.48014866503911
 21
1.439300222656299
 31
0.0
 11
48.79409062060552
 21
1.074218435546868
 31
0.0
 11
49.07950627001958
 21
0.7170101835937431
 31
0.0
 11
49.33834110888676
 21
0.367248220703118
 31
0.0
 11
49.56325565966801
 21
0.037139578124993
 31
0.0
 11
49.73938023242192
 21
-0.245666818359382
 31
0.0
 11
49.8823703447266
 21
-0.500549630859382
 31
0.0
  0
SPLINE
  5
552B8
330
1F
100
AcDbEntity
  8
1
100
AcDbSpline
210
0.0
220
0.0
230
1.0
 70
     8
 71
     3
 72
    25
 73
    21
 74
    19
 42
0.0000000001
 43
0.0000000001
 44
0.000001
 12
0.9999996013455653
 22
0.0008929214469263
 32
0.0
 13
0.071290566155126
 23
0.99745559057899
 33
0.0
 40
0.0
 40
0.0
 40
0.0
 40
0.0
 40
0.5922924038055563
 40
1.186690590553761
 40
1.781098218969258
 40
2.373377591140886
 40
2.965665444549685
 40
3.560078335163356
 40
4.154485610839476
 40
4.746773526674719
 40
5.3390624286696
 40
5.933459066629705
 40
6.527872613708604
 40
7.120156073373412
 40
7.712454480681707
 40
8.306855695230298
 40
8.901295006397663
 40
9.493583483009013
 40
10.02232122025199
 40
10.5510486108835
 40
10.5510486108835
 40
10.5510486108835
 40
10.5510486108835
 10
42.86250340136724
 20
-7.038605050781256
 30
0.0
 10
43.0599341239291
 20
-7.038428760584508
 30
0.0
 10
43.45569219244874
 20
-7.021564813886243
 30
0.0
 10
44.04524915425156
 20
-6.946125751915985
 30
0.0
 10
44.62654796891842
 20
-6.822097353923538
 30
0.0
 10
45.19476004260923
 20
-6.64995983208604
 30
0.0
 10
45.74600373922442
 20
-6.429436848712271
 30
0.0
 10
46.27740823570536
 20
-6.163153940893806
 30
0.0
 10
46.78486796370691
 20
-5.853670523547293
 30
0.0
 10
47.26407913234175
 20
-5.503159707788597
 30
0.0
 10
47.71123401333574
 20
-5.112584309642045
 30
0.0
 10
48.12456433400661
 20
-4.685441548082792
 30
0.0
 10
48.50097525065137
 20
-4.225435184124336
 30
0.0
 10
48.83715206791248
 20
-3.736058204362876
 30
0.0
 10
49.12983788433496
 20
-3.219496671308377
 30
0.0
 10
49.37848265519858
 20
-2.679603770834091
 30
0.0
 10
49.58145487134578
 20
-2.120939977553121
 30
0.0
 10
49.73107148677605
 20
-1.568302401146723
 30
0.0
 10
49.83149584818113
 20
-1.027134347103299
 30
0.0
 10
49.86980591971996
 20
-0.6763436614185992
 30
0.0
 10
49.8823703447266
 20
-0.500549630859382
 30
0.0
 11
42.86250340136724
 21
-7.038605050781256
 31
0.0
 11
43.45425450000004
 21
-7.013275460937506
 31
0.0
 11
44.0438693681641
 21
-6.938019113281256
 31
0.0
 11
44.62516819628911
 21
-6.813873605468756
 31
0.0
 11
45.19193302783207
 21
-6.641907052734438
 31
0.0
 11
45.74194370898442
 21
-6.422149972656256
 31
0.0
 11
46.27341496142583
 21
-6.155945138671881
 31
0.0
 11
46.78084599169927
 21
-5.846374826171881
 31
0.0
 11
47.25874363574223
 21
-5.496490792968756
 31
0.0
 11
47.70500218066411
 21
-5.107055978515575
 31
0.0
 11
48.11840092333989
 21
-4.679962472656256
 31
0.0
 11
48.49476658496098
 21
-4.2198794648437
 31
0.0
 11
48.82991062792974
 21
-3.731537179687506
 31
0.0
 11
49.12212406787114
 21
-3.216339425781256
 31
0.0
 11
49.37085758837895
 21
-2.676483468750006
 31
0.0
 11
49.57373844775395
 21
-2.117737130859381
 31
0.0
 11
49.72837101611332
 21
-1.545990304687506
 31
0.0
 11
49.82498203906255
 21
-1.026153878906256
 31
0.0
 11
49.8823703447266
 21
-0.500549630859382
 31
0.0
  0
ARC
  5
552B9
330
1F
100
AcDbEntity
  8
1
100
AcDbCircle
 10
42.80000300000006
 20
0.0
 30
0.0
 40
3.0
100
AcDbArc
 50
89.9999970000023
 51
180.0000009999997
  0
ARC
  5
552BA
330
1F
100
AcDbEntity
  8
1
100
AcDbCircle
 10
42.80000300000006
 20
0.0
 30
0.0
 40
3.0
100
AcDbArc
 50
0.0000050000005032
 51
90.00000100000141
  0
ARC
  5
552BB
330
1F
100
AcDbEntity
  8
1
100
AcDbCircle
 10
42.80000300000006
 20
0.0
 30
0.0
 40
3.0
100
AcDbArc
 50
89.9999970000023
 51
180.0000009999997
  0
ARC
  5
552BC
330
1F
100
AcDbEntity
  8
1
100
AcDbCircle
 10
42.80000300000006
 20
0.0
 30
0.0
 40
3.0
100
AcDbArc
 50
180.0000009999997
 51
270.0000029999977
  0
ARC
  5
552BD
330
1F
100
AcDbEntity
  8
1
100
AcDbCircle
 10
42.80000300000006
 20
0.0
 30
0.0
 40
3.0
100
AcDbArc
 50
270.0000029999977
 51
0.0000050000005032
  0
ARC
  5
552BE
330
1F
100
AcDbEntity
  8
1
100
AcDbCircle
 10
42.80000300000006
 20
0.0
 30
0.0
 40
3.0
100
AcDbArc
 50
0.0000050000005032
 51
90.00000100000141
  0
ARC
  5
552BF
330
1F
100
AcDbEntity
  8
1
100
AcDbCircle
 10
43.37967000000003
 20
-1.004029000000002
 30
0.0
 40
0.529669
100
AcDbArc
 50
244.6855869999976
 51
355.3144409999993
  0
ARC
  5
552C0
330
1F
100
AcDbEntity
  8
1
100
AcDbCircle
 10
42.80000300000006
 20
-2.22949299999999
 30
0.0
 40
0.8259999999999998
100
AcDbArc
 50
64.68550600000137
 51
115.3144890000011
  0
ARC
  5
552C1
330
1F
100
AcDbEntity
  8
1
100
AcDbCircle
 10
40.86920200000008
 20
-1.114746000000025
 30
0.0
 40
0.8259999999999998
100
AcDbArc
 50
4.685491000000058
 51
55.31447299999998
  0
ARC
  5
552C2
330
1F
100
AcDbEntity
  8
1
100
AcDbCircle
 10
42.22033700000008
 20
-1.004029000000002
 30
0.0
 40
0.529669
100
AcDbArc
 50
184.685593
 51
295.3144249999998
  0
ARC
  5
552C3
330
1F
100
AcDbEntity
  8
1
100
AcDbCircle
 10
44.73081200000001
 20
-1.114746000000025
 30
0.0
 40
0.8259999999999998
100
AcDbArc
 50
124.6854879999982
 51
175.3144860000005
  0
ARC
  5
552C4
330
1F
100
AcDbEntity
  8
1
100
AcDbCircle
 10
43.95933600000001
 20
0.0
 30
0.0
 40
0.529669
100
AcDbArc
 50
304.6856089999999
 51
0.0000050000005032
  0
ARC
  5
552C5
330
1F
100
AcDbEntity
  8
1
100
AcDbCircle
 10
43.95933600000001
 20
0.0
 30
0.0
 40
0.529669
100
AcDbArc
 50
359.9999949999995
 51
55.31443199999776
  0
ARC
  5
552C6
330
1F
100
AcDbEntity
  8
1
100
AcDbCircle
 10
41.64067099999999
 20
0.0
 30
0.0
 40
0.529669
100
AcDbArc
 50
180.0
 51
235.3144509999961
  0
ARC
  5
552C7
330
1F
100
AcDbEntity
  8
1
100
AcDbCircle
 10
41.64067099999999
 20
0.0
 30
0.0
 40
0.529669
100
AcDbArc
 50
180.0
 51
235.3144509999961
  0
ARC
  5
552C8
330
1F
100
AcDbEntity
  8
1
100
AcDbCircle
 10
42.22033700000008
 20
1.003996999999969
 30
0.0
 40
0.529669
100
AcDbArc
 50
64.6856020000018
 51
175.3144370000003
  0
ARC
  5
552C9
330
1F
100
AcDbEntity
  8
1
100
AcDbCircle
 10
42.80000300000006
 20
2.229491999999993
 30
0.0
 40
0.8259999999999998
100
AcDbArc
 50
244.6854839999987
 51
295.31448
  0
ARC
  5
552CA
330
1F
100
AcDbEntity
  8
1
100
AcDbCircle
 10
43.37967000000003
 20
1.003996999999969
 30
0.0
 40
0.529669
100
AcDbArc
 50
4.685587000000261
 51
115.3144410000005
  0
ARC
  5
552CB
330
1F
100
AcDbEntity
  8
1
100
AcDbCircle
 10
44.73081200000001
 20
1.114746000000025
 30
0.0
 40
0.8259999999999998
100
AcDbArc
 50
184.6854960000005
 51
235.3144879999976
  0
ARC
  5
552CC
330
1F
100
AcDbEntity
  8
1
100
AcDbCircle
 10
43.95933600000001
 20
0.0
 30
0.0
 40
0.529669
100
AcDbArc
 50
304.685595000001
 51
0.0000050000005032
  0
ARC
  5
552CD
330
1F
100
AcDbEntity
  8
1
100
AcDbCircle
 10
44.73081200000001
 20
-1.114746000000025
 30
0.0
 40
0.8259999999999998
100
AcDbArc
 50
124.6854909999985
 51
175.3144860000005
  0
ARC
  5
552CE
330
1F
100
AcDbEntity
  8
1
100
AcDbCircle
 10
43.37967000000003
 20
-1.004029000000002
 30
0.0
 40
0.529669
100
AcDbArc
 50
244.6855800000024
 51
355.3144409999993
  0
ARC
  5
552CF
330
1F
100
AcDbEntity
  8
1
100
AcDbCircle
 10
42.80000300000006
 20
-2.229523000000028
 30
0.0
 40
0.8259999999999998
100
AcDbArc
 50
64.68550600000137
 51
115.3144890000011
  0
ARC
  5
552D0
330
1F
100
AcDbEntity
  8
1
100
AcDbCircle
 10
42.22033700000008
 20
-1.004029000000002
 30
0.0
 40
0.529669
100
AcDbArc
 50
184.6855909999995
 51
295.3144249999998
  0
ARC
  5
552D1
330
1F
100
AcDbEntity
  8
1
100
AcDbCircle
 10
40.86920200000008
 20
-1.114746000000025
 30
0.0
 40
0.8259999999999998
100
AcDbArc
 50
4.685491000000058
 51
55.31447299999998
  0
ARC
  5
552D2
330
1F
100
AcDbEntity
  8
1
100
AcDbCircle
 10
41.64067099999999
 20
0.0
 30
0.0
 40
0.529669
100
AcDbArc
 50
124.6855659999973
 51
180.0
  0
ARC
  5
552D3
330
1F
100
AcDbEntity
  8
1
100
AcDbCircle
 10
40.86920200000008
 20
1.114746000000025
 30
0.0
 40
0.8259999999999998
100
AcDbArc
 50
304.6855129999999
 51
355.3144819999998
  0
ARC
  5
552D4
330
1F
100
AcDbEntity
  8
1
100
AcDbCircle
 10
42.65001000000006
 20
0.0
 30
0.0
 40
3.250001999999998
100
AcDbArc
 50
89.99994299999817
 51
179.9999470000005
  0
ARC
  5
552D5
330
1F
100
AcDbEntity
  8
1
100
AcDbCircle
 10
42.65001000000006
 20
0.0
 30
0.0
 40
3.250001999999998
100
AcDbArc
 50
0.0000500000001468
 51
89.99995699999827
  0
ARC
  5
552D6
330
1F
100
AcDbEntity
  8
1
100
AcDbCircle
 10
42.65001000000006
 20
0.0
 30
0.0
 40
3.250001999999998
100
AcDbArc
 50
269.9999960000009
 51
359.9999499999999
  0
ARC
  5
552D7
330
1F
100
AcDbEntity
  8
1
100
AcDbCircle
 10
42.65001000000006
 20
0.0
 30
0.0
 40
3.250001999999998
100
AcDbArc
 50
180.0000529999995
 51
270.0000089999996
  0
ARC
  5
552D8
330
1F
100
AcDbEntity
  8
1
100
AcDbCircle
 10
42.65001000000006
 20
0.0
 30
0.0
 40
3.450002999999998
100
AcDbArc
 50
89.99393199999937
 51
269.9938420000028
  0
ARC
  5
552D9
330
1F
100
AcDbEntity
  8
1
100
AcDbCircle
 10
42.80000300000006
 20
0.0
 30
0.0
 40
3.450002999999998
100
AcDbArc
 50
0.0000050000005032
 51
88.96192100000293
  0
ARC
  5
552DA
330
1F
100
AcDbEntity
  8
1
100
AcDbCircle
 10
42.80000300000006
 20
0.0
 30
0.0
 40
3.450002999999998
100
AcDbArc
 50
271.0380680000001
 51
0.0000050000005032
  0
LINE
  5
552DB
330
1F
100
AcDbEntity
  8
1
100
AcDbLine
 10
38.80000300000006
 20
6.526001000000007
 30
0.0
 11
38.80000300000006
 21
6.644164999999986
 31
0.0
  0
LINE
  5
552DC
330
1F
100
AcDbEntity
  8
1
100
AcDbLine
 10
38.80000300000006
 20
7.31499999890002
 30
0.0
 11
38.80000300000006
 21
6.644164999999986
 31
0.0
  0
LINE
  5
552DD
330
1F
100
AcDbEntity
  8
1
100
AcDbLine
 10
38.80000300000006
 20
7.289611999999976
 30
0.0
 11
38.80000300000006
 21
7.185180000000002
 31
0.0
  0
LINE
  5
552DE
330
1F
100
AcDbEntity
  8
1
100
AcDbLine
 10
42.80000300000006
 20
-2.990021000000012
 30
0.0
 11
42.80000300000006
 21
-3.0
 31
0.0
  0
LINE
  5
552DF
330
1F
100
AcDbEntity
  8
1
100
AcDbLine
 10
45.80000300000006
 20
0.0
 30
0.0
 11
45.7999880000001
 21
0.0
 31
0.0
  0
LINE
  5
552E0
330
1F
100
AcDbEntity
  8
1
100
AcDbLine
 10
45.90001000000007
 20
0.0
 30
0.0
 11
45.80000300000006
 21
0.0
 31
0.0
  0
LINE
  5
552E1
330
1F
100
AcDbEntity
  8
1
100
AcDbLine
 10
39.80000300000006
 20
0.0
 30
0.0
 11
39.80001900000002
 21
0.0
 31
0.0
  0
LINE
  5
552E2
330
1F
100
AcDbEntity
  8
1
100
AcDbLine
 10
39.40001000000007
 20
0.0
 30
0.0
 11
39.80000300000006
 21
0.0
 31
0.0
  0
LINE
  5
552E3
330
1F
100
AcDbEntity
  8
1
100
AcDbLine
 10
36.44978600000002
 20
7.066278000000011
 30
0.0
 11
36.30000400000006
 21
7.122130999999967
 31
0.0
  0
LINE
  5
552E4
330
1F
100
AcDbEntity
  8
1
100
AcDbLine
 10
39.61100800000009
 20
-7.038605000000018
 30
0.0
 11
42.86250300000006
 21
-7.038605000000018
 31
0.0
  0
LINE
  5
552E5
330
1F
100
AcDbEntity
  8
1
100
AcDbLine
 10
38.80000300000006
 20
-7.038605000000018
 30
0.0
 11
39.61100800000009
 21
-7.038605000000018
 31
0.0
  0
LINE
  5
552E6
330
1F
100
AcDbEntity
  8
1
100
AcDbLine
 10
38.80000300000006
 20
-7.038605000000018
 30
0.0
 11
38.80000300000001
 21
-7.314999998899992
 31
0.0
  0
LINE
  5
552E7
330
1F
100
AcDbEntity
  8
1
100
AcDbLine
 10
41.93242800000007
 20
5.604497999999978
 30
0.0
 11
42.86250500000005
 21
5.291130000000009
 31
0.0
  0
LINE
  5
552E8
330
1F
100
AcDbEntity
  8
1
100
AcDbLine
 10
36.30000300000006
 20
7.066283999999996
 30
0.0
 11
36.68623400000001
 21
7.066283999999996
 31
0.0
  0
LINE
  5
552E9
330
1F
100
AcDbEntity
  8
1
100
AcDbLine
 10
36.30000300000006
 20
7.149748999999985
 30
0.0
 11
36.30000300000006
 21
7.066283999999996
 31
0.0
  0
LINE
  5
552EA
330
1F
100
AcDbEntity
  8
1
100
AcDbLine
 10
35.29422000000011
 20
7.309538999999972
 30
0.0
 11
38.80000300000006
 21
7.309538999999972
 31
0.0
  0
LINE
  5
552EB
330
1F
100
AcDbEntity
  8
1
100
AcDbLine
 10
36.30000300000006
 20
-7.182068000000015
 30
0.0
 11
38.80000300000006
 21
-7.182068000000015
 31
0.0
  0
LINE
  5
552EC
330
1F
100
AcDbEntity
  8
1
100
AcDbLine
 10
36.30000300000006
 20
-7.066253999999958
 30
0.0
 11
36.30000300000006
 21
-7.182068000000015
 31
0.0
  0
LINE
  5
552ED
330
1F
100
AcDbEntity
  8
1
100
AcDbLine
 10
36.30000300000006
 20
-7.066253999999958
 30
0.0
 11
38.80000300000006
 21
-7.066253999999958
 31
0.0
  0
LINE
  5
552EE
330
1F
100
AcDbEntity
  8
1
100
AcDbLine
 10
42.79964300000005
 20
-3.450021999999989
 30
0.0
 11
42.86250700000005
 21
-3.449455999999997
 31
0.0
  0
LINE
  5
552EF
330
1F
100
AcDbEntity
  8
1
100
AcDbLine
 10
42.64964000000008
 20
-3.450002999999981
 30
0.0
 11
42.79963400000008
 21
-3.450018999999997
 31
0.0
  0
LINE
  5
552F0
330
1F
100
AcDbEntity
  8
1
100
AcDbLine
 10
42.65037600000005
 20
3.450020999999992
 30
0.0
 11
42.80037000000004
 21
3.450004999999976
 31
0.0
  0
LINE
  5
552F1
330
1F
100
AcDbEntity
  8
1
100
AcDbLine
 10
42.86250400000006
 20
3.449424999999962
 30
0.0
 11
42.80037300000003
 21
3.449991000000011
 31
0.0
  0
LINE
  5
552F2
330
1F
100
AcDbEntity
  8
1
100
AcDbLine
 10
34.80000300000006
 20
-7.317230999999992
 30
0.0
 11
34.80000300000006
 21
0.0
 31
0.0
  0
LINE
  5
552F3
330
1F
100
AcDbEntity
  8
1
100
AcDbLine
 10
34.80000300000006
 20
7.317259999999976
 30
0.0
 11
34.80000300000006
 21
0.0
 31
0.0
  0
LINE
  5
552F4
330
1F
100
AcDbEntity
  8
1
100
AcDbLine
 10
30.79998799005438
 20
-7.695999999999997
 30
0.0
 11
30.80000599998391
 21
7.696000000000026
 31
0.0
  0
LINE
  5
552F6
330
1F
100
AcDbEntity
  8
sk1
100
AcDbLine
 10
-78.17500299999995
 20
9.525014999999996
 30
0.0
 11
-79.374999
 21
8.325018
 31
0.0
  0
LINE
  5
552F7
330
1F
100
AcDbEntity
  8
sk1
100
AcDbLine
 10
-79.37499999999989
 20
8.325011999999986
 30
0.0
 11
-79.37499999999989
 21
0.0
 31
0.0
  0
LINE
  5
552F8
330
1F
100
AcDbEntity
  8
sk1
100
AcDbLine
 10
-79.37499999999989
 20
0.0
 30
0.0
 11
-79.37499999999989
 21
-8.325013000000012
 31
0.0
  0
LINE
  5
552F9
330
1F
100
AcDbEntity
  8
sk1
100
AcDbLine
 10
-78.17499599999996
 20
-9.524992999999994
 30
0.0
 11
-79.37499500000001
 21
-8.324993000000006
 31
0.0
  0
LINE
  5
552FA
330
1F
100
AcDbEntity
  8
sk1
100
AcDbLine
 10
-78.17498699999998
 20
0.0
 30
0.0
 11
-78.17498699999998
 21
9.525024000000001
 31
0.0
  0
LINE
  5
552FB
330
1F
100
AcDbEntity
  8
sk1
100
AcDbLine
 10
-78.17498699999998
 20
0.0
 30
0.0
 11
-78.17498699999998
 21
-9.524994000000049
 31
0.0
  0
LINE
  5
552FC
330
1F
100
AcDbEntity
  8
sk1
100
AcDbLine
 10
-78.17500299999995
 20
-9.524994000000049
 30
0.0
 11
0.0
 21
-9.524994000000049
 31
0.0
  0
LINE
  5
552FD
330
1F
100
AcDbEntity
  8
sk1
100
AcDbLine
 10
-78.17500299999995
 20
9.525024000000001
 30
0.0
 11
0.0000030000000493
 21
9.525023999999973
 31
0.0
  0
LINE
  5
552FE
330
1F
100
AcDbEntity
  8
1
100
AcDbLine
 10
0.0000030000000493
 20
9.525023999999973
 30
0.0
 11
0.0
 21
0.0000000000000284
 31
0.0
  0
LINE
  5
552FF
330
1F
100
AcDbEntity
  8
1
100
AcDbLine
 10
0.0
 20
-9.524994000000049
 30
0.0
 11
0.0
 21
0.0
 31
0.0
  0
LINE
  5
55300
330
1F
100
AcDbEntity
  8
sk4
100
AcDbLine
 10
-85.24584899999991
 20
0.0
 30
0.0
 11
0.0
 21
0.0000000000000284
 31
0.0
  0
LINE
  5
55301
330
1F
100
AcDbEntity
  8
4
100
AcDbLine
 10
0.0
 20
0.0000000000000284
 30
0.0
 11
58.91508500000009
 21
0.0
 31
0.0
  0
LINE
  5
55302
330
1F
100
AcDbEntity
  8
1
100
AcDbLine
 10
2.311003000000027
 20
8.385358368129175
 30
0.0
 11
2.311003000000027
 21
-8.385358368129118
 31
0.0
  0
DIMENSION
  5
55303
330
1F
100
AcDbEntity
  8
sk2
100
AcDbDimension
  2
*D73
 10
-107.0986369999999
 20
9.525016
 30
0.0
 11
-107.0986369999999
 21
-39.56666066666679
 31
0.0
 70
   160
  1
%%c<>
 71
     5
 41
0.892857
 42
19.05000000000001
  3
\M+18352\M+18373\M+1815B - ISO-25
100
AcDbAlignedDimension
 13
-78.17499499999996
 23
-9.524984000000017
 33
0.0
 14
-78.17499499999996
 24
9.525015999999993
 34
0.0
 50
270.0
100
AcDbRotatedDimension
1001
ACAD
1000
DSTYLE
1002
{
1070
     4
1000
%%C[]"
1070
    40
1040
1.0
1070
   143
1040
0.03937
1070
   170
1070
     1
1070
   171
1070
     3
1070
   271
1070
     8
1070
   285
1070
     4
1002
}
  0
DIMENSION
  5
55304
330
1F
100
AcDbEntity
  8
2
100
AcDbDimension
  2
*D74
 10
50.80000599998391
 20
25.55105466061713
 30
0.0
 11
11.29167266665058
 21
25.55105466061713
 31
0.0
 70
   160
 71
     5
 41
0.892857
 42
20.0
  3
\M+18352\M+18373\M+1815B - ISO-25
100
AcDbAlignedDimension
 13
30.80000599998391
 23
7.687500000000028
 33
0.0
 14
50.80000599998391
 24
5.035113170532071
 34
0.0
 50
180.0
100
AcDbRotatedDimension
1001
ACAD
1000
DSTYLE
1002
{
1070
     4
1000
"
1070
    40
1040
1.0
1070
   143
1040
0.03937
1070
   170
1070
     1
1070
   171
1070
     3
1070
   271
1070
     8
1070
   285
1070
     4
1002
}
  0
DIMENSION
  5
55305
330
1F
100
AcDbEntity
  8
sk2
100
AcDbDimension
  2
*D75
 10
-79.3749940000161
 20
52.07651473337228
 30
0.0
 11
-12.07561795909373
 21
52.07651473337228
 31
0.0
 70
   160
 71
     5
 42
130.175
  3
\M+18352\M+18373\M+1815B - ISO-25
100
AcDbAlignedDimension
 13
50.80000599998391
 23
5.035113170532071
 33
0.0
 14
-79.3749940000161
 24
0.0000000000000284
 34
0.0
 50
180.0
100
AcDbRotatedDimension
1001
ACAD
1000
DSTYLE
1002
{
1070
     4
1000
"
1070
    40
1040
1.0
1070
   143
1040
0.03937
1070
   170
1070
     1
1070
   171
1070
     3
1070
   271
1070
     8
1070
   285
1070
     4
1002
}
  0
LINE
  5
55306
330
1F
100
AcDbEntity
  8
1
100
AcDbLine
 10
34.79999999999995
 20
7.31499999890002
 30
0.0
 11
38.80000300000012
 21
7.31499999890002
 31
0.0
1001
ACAD
1000
RTMaterial
1005
0
  0
LINE
  5
55307
330
1F
100
AcDbEntity
  8
1
100
AcDbLine
 10
30.79999999999996
 20
7.699999998900011
 30
0.0
 11
2.310999999999978
 21
8.385358440300024
 31
0.0
1001
ACAD
1000
RTMaterial
1005
0
  0
LINE
  5
55308
330
1F
100
AcDbEntity
  8
1
100
AcDbLine
 10
34.79999999999995
 20
7.31499999890002
 30
0.0
 11
30.79999999999996
 21
7.699999998900011
 31
0.0
1001
ACAD
1000
RTMaterial
1005
0
  0
LINE
  5
55309
330
1F
100
AcDbEntity
  8
1
100
AcDbLine
 10
0.2618296307999799
 20
9.263170368099963
 30
0.0
 11
0.0
 21
9.5249999989
 31
0.0
1001
ACAD
1000
RTMaterial
1005
0
  0
ARC
  5
5530A
330
1F
100
AcDbEntity
  8
1
100
AcDbCircle
 10
2.383149974399941
 20
11.38449071169998
 30
0.0
 40
3.0
100
AcDbArc
 50
224.9999999999997
 51
268.6219041219999
1001
ACAD
1000
RTMaterial
1005
0
  0
ARC
  5
5530B
330
1F
100
AcDbEntity
  8
nocut
100
AcDbCircle
 10
42.79499999990003
 20
-0.0000000000000284
 30
0.0
 40
7.314999998900054
100
AcDbArc
 50
0.0
 51
90.0
  0
LINE
  5
5530C
330
1F
100
AcDbEntity
  8
nocut
100
AcDbLine
 10
0.0
 20
0.0
 30
0.0
 11
0.0
 21
9.5249999989
 31
0.0
1001
ACAD
1000
RTMaterial
1005
0
  0
LINE
  5
5530D
330
1F
100
AcDbEntity
  8
nocut
100
AcDbLine
 10
50.1099999988001
 20
0.0
 30
0.0
 11
0.0
 21
0.0
 31
0.0
1001
ACAD
1000
RTMaterial
1005
0
  0
LINE
  5
5530E
330
1F
100
AcDbEntity
  8
nocut
100
AcDbLine
 10
34.79999999999995
 20
7.31499999890002
 30
0.0
 11
42.79499999990003
 21
7.31499999890002
 31
0.0
1001
ACAD
1000
RTMaterial
1005
0
  0
LINE
  5
5530F
330
1F
100
AcDbEntity
  8
nocut
100
AcDbLine
 10
30.79999999999996
 20
7.699999998900011
 30
0.0
 11
2.310999999999978
 21
8.385358440300024
 31
0.0
1001
ACAD
1000
RTMaterial
1005
0
  0
LINE
  5
55310
330
1F
100
AcDbEntity
  8
nocut
100
AcDbLine
 10
34.79999999999995
 20
7.31499999890002
 30
0.0
 11
30.79999999999996
 21
7.699999998900011
 31
0.0
1001
ACAD
1000
RTMaterial
1005
0
  0
LINE
  5
55311
330
1F
100
AcDbEntity
  8
nocut
100
AcDbLine
 10
0.2618296307999799
 20
9.263170368099963
 30
0.0
 11
0.0
 21
9.5249999989
 31
0.0
1001
ACAD
1000
RTMaterial
1005
0
  0
ARC
  5
55312
330
1F
100
AcDbEntity
  8
nocut
100
AcDbCircle
 10
2.383149974399941
 20
11.38449071169998
 30
0.0
 40
3.0
100
AcDbArc
 50
224.9999999999997
 51
268.6219041219999
1001
ACAD
1000
RTMaterial
1005
0
  0
LINE
  5
55313
330
1F
100
AcDbEntity
  8
1
100
AcDbLine
 10
34.79999999999995
 20
-7.314999998899992
 30
0.0
 11
38.80000299999995
 21
-7.314999998899992
 31
0.0
1001
ACAD
1000
RTMaterial
1005
0
  0
LINE
  5
55314
330
1F
100
AcDbEntity
  8
1
100
AcDbLine
 10
30.79999999999996
 20
-7.699999998899983
 30
0.0
 11
2.310999999999921
 21
-8.385358440299967
 31
0.0
1001
ACAD
1000
RTMaterial
1005
0
  0
LINE
  5
55315
330
1F
100
AcDbEntity
  8
1
100
AcDbLine
 10
34.79999999999995
 20
-7.314999998899992
 30
0.0
 11
30.79999999999996
 21
-7.699999998899983
 31
0.0
1001
ACAD
1000
RTMaterial
1005
0
  0
LINE
  5
55316
330
1F
100
AcDbEntity
  8
1
100
AcDbLine
 10
0.2618296307999799
 20
-9.263170368099906
 30
0.0
 11
0.0
 21
-9.524999998899943
 31
0.0
1001
ACAD
1000
RTMaterial
1005
0
  0
ARC
  5
55317
330
1F
100
AcDbEntity
  8
1
100
AcDbCircle
 10
2.383149974399884
 20
-11.38449071169992
 30
0.0
 40
3.0
100
AcDbArc
 50
91.37809587800013
 51
135.0000000000003
1001
ACAD
1000
RTMaterial
1005
0
  0
DIMENSION
  5
5543B
330
1F
100
AcDbEntity
  8
2
100
AcDbDimension
  2
*D80
 10
65.73813968636835
 20
7.999999998900018
 30
0.0
 11
65.73813968636835
 21
-30.42499999999999
 31
0.0
 70
   160
  1
%%c<>
 71
     5
 42
15.99999999890002
  3
\M+18352\M+18373\M+1815B - ISO-25
100
AcDbAlignedDimension
 13
42.79999699502463
 23
-8.0
 33
0.0
 14
48.79999699502462
 24
7.999999998900023
 34
0.0
 50
270.0
100
AcDbRotatedDimension
1001
ACAD
1000
DSTYLE
1002
{
1070
     4
1000
%%c[]"
1070
    40
1040
1.0
1070
    75
1070
     1
1070
   143
1040
0.03937
1070
   170
1070
     1
1070
   171
1070
     3
1070
   173
1070
     1
1070
   271
1070
     8
1070
   285
1070
     4
1070
   343
1005
50E6F
1002
}
  0
SPLINE
  5
5543C
330
1F
100
AcDbEntity
  8
1
100
AcDbSpline
210
0.0
220
0.0
230
1.0
 70
     8
 71
     3
 72
    16
 73
    12
 74
    10
 42
0.0000000001
 43
0.0000000001
 44
0.000001
 12
0.0550085357342658
 22
0.9984858842248957
 32
0.0
 13
0.0582088927811122
 23
0.998304424913161
 33
0.0
 40
0.0
 40
0.0
 40
0.0
 40
0.0
 40
0.0814986635523565
 40
0.1554979847208647
 40
0.2208744869063155
 40
0.2786222823493713
 40
0.3299816598902954
 40
0.3765373465344411
 40
0.4201252649802496
 40
0.4625357384708592
 40
0.5051570979304387
 40
0.5051570979304387
 40
0.5051570979304387
 40
0.5051570979304387
 10
50.54083729461166
 20
0.4522933207999813
 30
0.0
 10
50.54233166866044
 20
0.479418409180056
 30
0.0
 10
50.54519042294401
 20
0.5311721765553444
 30
0.0
 10
50.54927613901958
 20
0.6046835538786724
 30
0.0
 10
50.55294612458357
 20
0.6702888580165905
 30
0.0
 10
50.55621341749457
 20
0.7283582392786486
 30
0.0
 10
50.55914874152057
 20
0.7801627672191956
 30
0.0
 10
50.56183546734695
 20
0.8272538475087714
 30
0.0
 10
50.56436880043242
 20
0.8713658571713835
 30
0.0
 10
50.56684206153017
 20
0.9141677104190506
 30
0.0
 10
50.56848597529739
 20
0.9424639428185486
 30
0.0
 10
50.56931295601174
 20
0.9566469733999838
 30
0.0
 11
50.54083729461166
 21
0.4522933207999813
 31
0.0
 11
50.54533413641178
 21
0.5336678203000247
 31
0.0
 11
50.54944095611171
 21
0.6075530780000236
 31
0.0
 11
50.55309089661176
 21
0.6728276201000086
 31
0.0
 11
50.5563360623118
 21
0.7304841708000254
 31
0.0
 11
50.55924183131168
 21
0.781761285000016
 31
0.0
 11
50.56189381461166
 21
0.8282413779999728
 31
0.0
 11
50.56439290181168
 21
0.8717575960999965
 31
0.0
 11
50.56683943901174
 21
0.9140974453000012
 31
0.0
 11
50.56931295601174
 21
0.9566469733999838
 31
0.0
  0
SPLINE
  5
5543D
330
1F
100
AcDbEntity
  8
1
100
AcDbSpline
210
0.0
220
0.0
230
1.0
 70
     8
 71
     3
 72
    23
 73
    19
 74
    17
 42
0.0000000001
 43
0.0000000001
 44
0.000001
 12
0.0545153799555513
 22
0.9985129309870261
 32
0.0
 13
0.0571541058744279
 23
0.9983653680800905
 33
0.0
 40
0.0
 40
0.0
 40
0.0
 40
0.0
 40
0.0504394881170993
 40
0.0972449312135712
 40
0.142799289805982
 40
0.1883906179534973
 40
0.2340241580923021
 40
0.2796302187800994
 40
0.3252905668756766
 40
0.3709863873679269
 40
0.416642463676245
 40
0.4623580892051412
 40
0.5082891131389506
 40
0.5543491381171215
 40
0.6003752786314543
 40
0.6464083274275973
 40
0.6927453767742721
 40
0.7399064699160205
 40
0.7399064699160205
 40
0.7399064699160205
 40
0.7399064699160205
 10
50.56931295601174
 20
0.9566469733999838
 30
0.0
 10
50.57022953196491
 20
0.973435133772412
 30
0.0
 10
50.57200170866128
 20
1.005801631850488
 30
0.0
 10
50.57462531855009
 20
1.053329037184653
 30
0.0
 10
50.5771755753687
 20
1.099241974659179
 30
0.0
 10
50.57971531711752
 20
1.144764258018398
 30
0.0
 10
50.58226239069012
 20
1.19030339248016
 30
0.0
 10
50.58481239941801
 20
1.235865405278559
 30
0.0
 10
50.58736077450788
 20
1.281448302197446
 30
0.0
 10
50.58990163284528
 20
1.327048316606237
 30
0.0
 10
50.59243660757903
 20
1.372667112514307
 30
0.0
 10
50.59497386559513
 20
1.418364303513072
 30
0.0
 10
50.59752059494207
 20
1.464195825610957
 30
0.0
 10
50.60007942439296
 20
1.51013033974354
 30
0.0
 10
50.60265083527309
 20
1.556098213206524
 30
0.0
 10
50.60524233190739
 20
1.602157446584698
 30
0.0
 10
50.60787087682644
 20
1.64859350927712
 30
0.0
 10
50.60964727244146
 20
1.679708891428845
 30
0.0
 10
50.61054575581164
 20
1.695403558800023
 30
0.0
 11
50.56931295601174
 21
0.9566469733999838
 31
0.0
 11
50.57207282801181
 21
1.007010899299984
 31
0.0
 11
50.57465200591167
 21
1.053745226399996
 31
0.0
 11
50.57717774631175
 21
1.099229511700002
 31
0.0
 11
50.57971659281173
 21
1.144750094400023
 31
0.0
 11
50.58226417581176
 21
1.190312467000012
 31
0.0
 11
50.58481192181165
 21
1.235847308100005
 31
0.0
 11
50.58735970591175
 21
1.281436519300029
 31
0.0
 11
50.58990221621178
 21
1.327061552399982
 31
0.0
 11
50.59243616131169
 21
1.372647256499988
 31
0.0
 11
50.5949712159117
 21
1.418292539999981
 31
0.0
 11
50.59752026401174
 21
1.46415277660003
 31
0.0
 11
50.60008283411178
 21
1.510141461300008
 31
0.0
 11
50.60265418721184
 21
1.556095718300014
 31
0.0
 11
50.60524023491172
 21
1.602056069900015
 31
0.0
 11
50.6078600455117
 21
1.648319000100002
 31
0.0
 11
50.61054575581164
 21
1.695403558800023
 31
0.0
  0
SPLINE
  5
5543E
330
1F
100
AcDbEntity
  8
1
100
AcDbSpline
210
0.0
220
0.0
230
1.0
 70
     8
 71
     3
 72
    21
 73
    17
 74
    15
 42
0.0000000001
 43
0.0000000001
 44
0.000001
 12
0.0536690574142078
 22
0.9985587775770991
 32
0.0
 13
0.056666691735327
 23
0.9983931520437094
 33
0.0
 40
0.0
 40
0.0
 40
0.0
 40
0.0
 40
0.0460244982303621
 40
0.0918287415918641
 40
0.1375371683467769
 40
0.1832788750591597
 40
0.229040218193815
 40
0.2746400901219266
 40
0.3200763235104224
 40
0.3654910805232649
 40
0.4109594814885439
 40
0.4564979563324925
 40
0.5020334980626834
 40
0.5475060762272588
 40
0.5930850119614889
 40
0.638987959575803
 40
0.638987959575803
 40
0.638987959575803
 40
0.638987959575803
 10
50.61054575581164
 20
1.695403558800023
 30
0.0
 10
50.61136911962439
 20
1.710722947697192
 30
0.0
 10
50.61301797657467
 20
1.741288087502837
 30
0.0
 10
50.61551165894996
 20
1.787065942940913
 30
0.0
 10
50.61802419351619
 20
1.832748361152681
 30
0.0
 10
50.62055556237277
 20
1.878415416643761
 30
0.0
 10
50.62309718366538
 20
1.92404566101861
 30
0.0
 10
50.62563874796097
 20
1.969573925693566
 30
0.0
 10
50.62817291912352
 20
2.014986894535198
 30
0.0
 10
50.63069645002014
 20
2.060356565020441
 30
0.0
 10
50.63320961508196
 20
2.105760943390009
 30
0.0
 10
50.63572114201059
 20
2.151205735055583
 30
0.0
 10
50.63823558700557
 20
2.19665176019167
 30
0.0
 10
50.64076124019533
 20
2.242110671799608
 30
0.0
 10
50.64330986226861
 20
2.287690963559356
 30
0.0
 10
50.64503157365101
 20
2.318136283314458
 30
0.0
 10
50.64589862971178
 20
2.333412679500042
 30
0.0
 11
50.61054575581164
 21
1.695403558800023
 31
0.0
 11
50.61302697111177
 21
1.741361126400022
 31
0.0
 11
50.61551840011174
 21
1.78709756110004
 31
0.0
 11
50.61802784951175
 21
1.832737049599984
 31
0.0
 11
50.62055824251178
 21
1.878408712800023
 31
0.0
 11
50.62310211481173
 21
1.924099294100017
 31
0.0
 11
50.62564262701181
 21
1.969628340899987
 31
0.0
 11
50.6281729498117
 21
2.014994063199992
 31
0.0
 11
50.63069441621173
 21
2.060338769099985
 31
0.0
 11
50.63320867991177
 21
2.105737601200019
 31
0.0
 11
50.63572266821172
 21
2.151206629599982
 31
0.0
 11
50.63823949021179
 21
2.196672563600031
 31
0.0
 11
50.64076295411172
 21
2.242075068799977
 31
0.0
 11
50.64330962211176
 21
2.287582802700001
 31
0.0
 11
50.64589862971178
 21
2.333412679500042
 31
0.0
  0
SPLINE
  5
5543F
330
1F
100
AcDbEntity
  8
1
100
AcDbSpline
210
0.0
220
0.0
230
1.0
 70
     8
 71
     3
 72
    18
 73
    14
 74
    12
 42
0.0000000001
 43
0.0000000001
 44
0.000001
 12
0.053365178223814
 22
0.9985750636547765
 32
0.0
 13
0.0570756646491215
 23
0.9983698555669944
 33
0.0
 40
0.0
 40
0.0
 40
0.0
 40
0.0
 40
0.0304719689558112
 40
0.0641437925696777
 40
0.1021442938825029
 40
0.1451321973801337
 40
0.1925724651978185
 40
0.2410755408276857
 40
0.2886546790608699
 40
0.3363046652587116
 40
0.3845915250176828
 40
0.4332711979833153
 40
0.4813489965087861
 40
0.4813489965087861
 40
0.4813489965087861
 40
0.4813489965087861
 10
50.64589862971178
 20
2.333412679500042
 30
0.0
 10
50.64644067706314
 20
2.343555528946623
 30
0.0
 10
50.64758362060269
 20
2.364906223545602
 30
0.0
 10
50.64941883273565
 20
2.39890482697325
 30
0.0
 10
50.65149108573717
 20
2.437068684658314
 30
0.0
 10
50.65382712242348
 20
2.479814459021696
 30
0.0
 10
50.6563689414051
 20
2.52605506686288
 30
0.0
 10
50.65900707596864
 20
2.573823100483323
 30
0.0
 10
50.66165978841382
 20
2.621660340495793
 30
0.0
 10
50.66432220698112
 20
2.669424858005186
 30
0.0
 10
50.66702163600751
 20
2.717554724098164
 30
0.0
 10
50.66974730395287
 20
2.765825944170231
 30
0.0
 10
50.67158251434313
 20
2.798026180743391
 30
0.0
 10
50.67249720511171
 20
2.814025989000015
 30
0.0
 11
50.64589862971178
 21
2.333412679500042
 31
0.0
 11
50.6475297509117
 21
2.363840961200025
 31
0.0
 11
50.6493437374117
 21
2.397463887000014
 31
0.0
 11
50.65140402211176
 21
2.435408495399997
 31
0.0
 11
50.65374930441175
 21
2.478332375400043
 31
0.0
 11
50.65635250831173
 21
2.525701165899988
 31
0.0
 11
50.65902688431169
 21
2.5741304549
 31
0.0
 11
50.66166174801168
 21
2.621636579399989
 31
0.0
 11
50.66431410621174
 21
2.66921268850001
 31
0.0
 11
50.66701832821166
 21
2.717423765900036
 31
0.0
 11
50.66976390251176
 21
2.76602595060001
 31
0.0
 11
50.67249720511171
 21
2.814025989000015
 31
0.0
  0
SPLINE
  5
55440
330
1F
100
AcDbEntity
  8
1
100
AcDbSpline
210
0.0
220
0.0
230
1.0
 70
     8
 71
     3
 72
    34
 73
    30
 74
    28
 42
0.0000000001
 43
0.0000000001
 44
0.000001
 12
0.0423311762723708
 22
0.9991036340217151
 32
0.0
 13
0.0007513889669363
 23
0.9999997177072703
 33
0.0
 40
0.0
 40
0.0
 40
0.0
 40
0.0
 40
0.0206725595035572
 40
0.0413455094129604
 40
0.0620550961989751
 40
0.0827130924359615
 40
0.1030121706448297
 40
0.1225858628337562
 40
0.1412254717362898
 40
0.1589903678775148
 40
0.1760240959824764
 40
0.1924861578690528
 40
0.2086706608770676
 40
0.2248810626286322
 40
0.2411024355153718
 40
0.2571966472219786
 40
0.2733582182079958
 40
0.289912489028369
 40
0.306803357327326
 40
0.323826462612129
 40
0.3413413997277255
 40
0.3601749696338131
 40
0.3810956261231485
 40
0.4046214439182584
 40
0.4309608025634566
 40
0.4602915281994521
 40
0.4927057225649176
 40
0.5282766403670303
 40
0.567078670966673
 40
0.567078670966673
 40
0.567078670966673
 40
0.567078670966673
 10
50.79574936391174
 20
5.101079908299993
 30
0.0
 10
50.79604106183177
 20
5.107964584741509
 30
0.0
 10
50.79659586724886
 20
5.121735287645037
 30
0.0
 10
50.79735433570618
 20
5.14240645988022
 30
0.0
 10
50.79802131208822
 20
5.163075954301561
 30
0.0
 10
50.79858951003036
 20
5.183623724136552
 30
0.0
 10
50.79905904352966
 20
5.203795240606751
 30
0.0
 10
50.7994354415809
 20
5.223295784380567
 30
0.0
 10
50.79972375991037
 20
5.241952998499129
 30
0.0
 10
50.7999364291266
 20
5.259764506482667
 30
0.0
 10
50.80008509170358
 20
5.276850783351349
 30
0.0
 10
50.80017862109634
 20
5.293410640312274
 30
0.0
 10
50.80022367754025
 20
5.309696257329463
 30
0.0
 10
50.80022150579708
 20
5.325901700235874
 30
0.0
 10
50.80018877517153
 20
5.342076999286121
 30
0.0
 10
50.80014519045954
 20
5.35823599228695
 30
0.0
 10
50.8001123487075
 20
5.374505978866693
 30
0.0
 10
50.80009151726034
 20
5.391041536689186
 30
0.0
 10
50.80007614024492
 20
5.407864277764119
 30
0.0
 10
50.80006003136958
 20
5.425007240446859
 30
0.0
 10
50.80004226280135
 20
5.442797769002368
 30
0.0
 10
50.80002461978216
 20
5.461887482087504
 30
0.0
 10
50.80000945073123
 20
5.482980824870168
 30
0.0
 10
50.79999731018773
 20
5.506576099518014
 30
0.0
 10
50.79998811554759
 20
5.532974732068282
 30
0.0
 10
50.79998339683886
 20
5.56233615810396
 30
0.0
 10
50.79998568777927
 20
5.59477477102601
 30
0.0
 10
50.79999789175321
 20
5.630370483442661
 30
0.0
 10
50.80001149853927
 20
5.655161462951326
 30
0.0
 10
50.80002121701176
 20
5.66809546950003
 30
0.0
 11
50.79574936391174
 21
5.101079908299993
 31
0.0
 11
50.79658449351171
 21
5.121735719000014
 31
0.0
 11
50.79733968351177
 21
5.142394875299999
 31
0.0
 11
50.79800692681175
 21
5.163093749300003
 31
0.0
 11
50.79857860951171
 21
5.183743927299985
 31
0.0
 11
50.79905185671174
 21
5.204037753699992
 31
0.0
 11
50.79942824051176
 21
5.223608246100013
 31
0.0
 11
50.79971617251175
 21
5.242245082199985
 31
0.0
 11
50.79992857491169
 21
5.260008542799994
 31
0.0
 11
50.80007694851173
 21
5.277041553499998
 31
0.0
 11
50.8001701783117
 21
5.293503311100039
 31
0.0
 11
50.80021483991169
 21
5.309687725800017
 31
0.0
 11
50.80021540581168
 21
5.325898108300009
 31
0.0
 11
50.80018586251168
 21
5.342119441000022
 31
0.0
 11
50.80014606901176
 21
5.358213594900007
 31
0.0
 11
50.80011363321176
 21
5.374375128099984
 31
0.0
 11
50.80009160381172
 21
5.390929381000034
 31
0.0
 11
50.80007510951173
 21
5.407820238999988
 31
0.0
 11
50.80005902091176
 21
5.424843334900003
 31
0.0
 11
50.80004191221172
 21
5.442358262100015
 31
0.0
 11
50.80002487331177
 21
5.461191822899991
 31
0.0
 11
50.80000974741171
 21
5.482112472700009
 31
0.0
 11
50.79999740831175
 21
5.505638286199996
 31
0.0
 11
50.79998824261173
 21
5.531977642299978
 31
0.0
 11
50.79998363691169
 21
5.561308366700018
 31
0.0
 11
50.79998601631172
 21
5.593722560200035
 31
0.0
 11
50.7999976912119
 21
5.629293475400004
 31
0.0
 11
50.80002121701176
 21
5.66809546950003
 31
0.0
  0
SPLINE
  5
55441
330
1F
100
AcDbEntity
  8
1
100
AcDbSpline
210
0.0
220
0.0
230
1.0
 70
     8
 71
     3
 72
    36
 73
    32
 74
    30
 42
0.0000000001
 43
0.0000000001
 44
0.000001
 12
-0.9997702938011816
 22
-0.0214326767506836
 32
0.0
 13
-0.9997000679241562
 23
-0.0244902877165125
 33
0.0
 40
0.0
 40
0.0
 40
0.0
 40
0.0
 40
0.010629080358806
 40
0.02238153925953
 40
0.0352674220665646
 40
0.0492955672470228
 40
0.0643714893936634
 40
0.0803381022498598
 40
0.0970238365510008
 40
0.114213555947937
 40
0.1316665423235551
 40
0.1492042067693875
 40
0.166726011463087
 40
0.1843281896784936
 40
0.2022473893168552
 40
0.2204480709875256
 40
0.2386801661178814
 40
0.2568167973001293
 40
0.2748779111596349
 40
0.29302795129392
 40
0.3113505061835264
 40
0.3295712483883238
 40
0.3477887696819186
 40
0.3669857875045952
 40
0.3884816868429806
 40
0.4135091413227829
 40
0.4421035390977127
 40
0.4725455534682878
 40
0.50317727811343
 40
0.5337072997945289
 40
0.564561032156257
 40
0.564561032156257
 40
0.564561032156257
 40
0.564561032156257
 10
46.89403687991165
 20
7.868457914500027
 30
0.0
 10
46.8904946669806
 20
7.868381977952196
 30
0.0
 10
46.88303586818671
 20
7.868222036924223
 30
0.0
 10
46.87128294226948
 20
7.867961735886353
 30
0.0
 10
46.85839738803696
 20
7.86767119838376
 30
0.0
 10
46.84440445430681
 20
7.867348653136644
 30
0.0
 10
46.8293850401306
 20
7.866995712510501
 30
0.0
 10
46.81348014861481
 20
7.866616005233538
 30
0.0
 10
46.7968709511287
 20
7.866215638771137
 30
0.0
 10
46.77976645918642
 20
7.865802526530245
 30
0.0
 10
46.76237800189364
 20
7.865385516287375
 30
0.0
 10
46.74487875299149
 20
7.864971236646084
 30
0.0
 10
46.72732969752274
 20
7.864559600307586
 30
0.0
 10
46.70965342877792
 20
7.864147971473045
 30
0.0
 10
46.69175087908075
 20
7.863733226953669
 30
0.0
 10
46.67363838098203
 20
7.863315021872267
 30
0.0
 10
46.65545341022578
 20
7.86289578514436
 30
0.0
 10
46.63731495181212
 20
7.862477529639249
 30
0.0
 10
46.61920385631032
 20
7.862059102090242
 30
0.0
 10
46.60103083737084
 20
7.861637747281136
 30
0.0
 10
46.58280467738762
 20
7.861212830370959
 30
0.0
 10
46.56455609599805
 20
7.860784558820157
 30
0.0
 10
46.54601616812982
 20
7.860346860595257
 30
0.0
 10
46.52638488773521
 20
7.859880759774569
 30
0.0
 10
46.50448433831757
 20
7.859357873476156
 30
0.0
 10
46.47945230162242
 20
7.858756866141689
 30
0.0
 10
46.45143917294632
 20
7.858080659202755
 30
0.0
 10
46.42155857628933
 20
7.857356146128438
 30
0.0
 10
46.39103301840584
 20
7.85661364182873
 30
0.0
 10
46.36037029142613
 20
7.855866578507843
 30
0.0
 10
46.33991519429099
 20
7.855364771660902
 30
0.0
 10
46.32963370151168
 20
7.855112899400012
 30
0.0
 11
46.89403687991165
 21
7.868457914500027
 31
0.0
 11
46.88341028861174
 21
7.868227880400013
 31
0.0
 11
46.87166069581173
 21
7.867968355199991
 31
0.0
 11
46.85877809061179
 21
7.86767774780003
 31
0.0
 11
46.84475366601174
 21
7.867354692099979
 31
0.0
 11
46.8296818989117
 21
7.867000774000018
 31
0.0
 11
46.8137198243117
 21
7.86662012459999
 31
0.0
 11
46.79703892301171
 21
7.866218558300033
 31
0.0
 11
46.77985420021167
 21
7.865804129300045
 31
0.0
 11
46.76240622121173
 21
7.865386085900013
 31
0.0
 11
46.74487347561165
 21
7.864970748199993
 31
0.0
 11
46.72735649251166
 21
7.864559721500029
 31
0.0
 11
46.7097590885117
 21
7.864149781399987
 31
0.0
 11
46.69184469861164
 21
7.86373462969999
 31
0.0
 11
46.67364886951173
 21
7.863314370699981
 31
0.0
 11
46.65542162031175
 21
7.862894036700026
 31
0.0
 11
46.63728981171169
 21
7.862475815399989
 31
0.0
 11
46.61923351871172
 21
7.862058539899976
 31
0.0
 11
46.60108835821171
 21
7.861637695900014
 31
0.0
 11
46.58277078251166
 21
7.861210564799989
 31
0.0
 11
46.56455505491163
 21
7.860783110099987
 31
0.0
 11
46.54634260761173
 21
7.860353169900008
 31
0.0
 11
46.5271509973117
 21
7.859897548500043
 31
0.0
 11
46.50566122061166
 21
7.859384528199996
 31
0.0
 11
46.48064097421178
 21
7.85878390160002
 31
0.0
 11
46.45205489971175
 21
7.858094023399985
 31
0.0
 11
46.42162182581176
 21
7.857356289700021
 31
0.0
 11
46.39099915431171
 21
7.85661161400003
 31
0.0
 11
46.36047820571178
 21
7.855867356200008
 31
0.0
 11
46.32963370151168
 21
7.855112899400012
 31
0.0
  0
SPLINE
  5
55442
330
1F
100
AcDbEntity
  8
1
100
AcDbSpline
210
0.0
220
0.0
230
1.0
 70
     8
 71
     3
 72
    21
 73
    17
 74
    15
 42
0.0000000001
 43
0.0000000001
 44
0.000001
 12
-0.999693012087042
 22
-0.024776633837897
 32
0.0
 13
-0.999642555319458
 23
-0.0267350256103176
 33
0.0
 40
0.0
 40
0.0
 40
0.0
 40
0.0
 40
0.0213414000497966
 40
0.0447034015316454
 40
0.0702151571014857
 40
0.0980034888112815
 40
0.1282214733162402
 40
0.1611115211213876
 40
0.1969460428808645
 40
0.2359890184656879
 40
0.2786149926655764
 40
0.3254368080685521
 40
0.3770763927975045
 40
0.4337029595980395
 40
0.4958651031728275
 40
0.5645893129825294
 40
0.5645893129825294
 40
0.5645893129825294
 40
0.5645893129825294
 10
46.32963370151168
 20
7.855112899400012
 30
0.0
 10
46.32252208534572
 20
7.854936643381805
 30
0.0
 10
46.30762554171662
 20
7.854566807854752
 30
0.0
 10
46.28422774953429
 20
7.853983885086648
 30
0.0
 10
46.25868171040742
 20
7.853344889909266
 30
0.0
 10
46.23085111676636
 20
7.852646410951891
 30
0.0
 10
46.20056195760134
 20
7.851882606964636
 30
0.0
 10
46.16759169235439
 20
7.851047039878409
 30
0.0
 10
46.13168083403633
 20
7.850131971979465
 30
0.0
 10
46.09252583768188
 20
7.849129627674471
 30
0.0
 10
46.04970977388695
 20
7.848027155652516
 30
0.0
 10
46.00269641886183
 20
7.846809352237528
 30
0.0
 10
45.951017989317
 20
7.845462050131445
 30
0.0
 10
45.89422811928847
 20
7.843971335742054
 30
0.0
 10
45.83174564826203
 20
7.842319300299905
 30
0.0
 10
45.78813233948056
 20
7.841157334836452
 30
0.0
 10
45.76523245791173
 20
7.840544887000021
 30
0.0
 11
46.32963370151168
 21
7.855112899400012
 31
0.0
 11
46.30829887281168
 21
7.854583328600028
 31
0.0
 11
46.28494411041168
 21
7.854001777400014
 31
0.0
 11
46.25944031781176
 21
7.853364390199999
 31
0.0
 11
46.2316607331117
 21
7.852667200300004
 31
0.0
 11
46.20145235091166
 21
7.851905452999972
 31
0.0
 11
46.16857285961174
 21
7.851072179000027
 31
0.0
 11
46.13274995981174
 21
7.850159542500023
 31
0.0
 11
46.09371978601171
 21
7.84915977899999
 31
0.0
 11
46.05110794621174
 21
7.848062140800038
 31
0.0
 11
46.00430183871179
 21
7.846849424500021
 31
0.0
 11
45.9526797964117
 21
7.845503548700037
 31
0.0
 11
45.89607272671168
 21
7.844017754999981
 31
0.0
 11
45.83393229601171
 21
7.842374957099991
 31
0.0
 11
45.76523245791173
 21
7.840544887000021
 31
0.0
  0
SPLINE
  5
55443
330
1F
100
AcDbEntity
  8
1
100
AcDbSpline
210
0.0
220
0.0
230
1.0
 70
     8
 71
     3
 72
    11
 73
     7
 74
     5
 42
0.0000000001
 43
0.0000000001
 44
0.000001
 12
-0.9996296322626324
 22
-0.0272139358137326
 32
0.0
 13
-0.9995805655575386
 23
-0.028960196126262
 33
0.0
 40
0.0
 40
0.0
 40
0.0
 40
0.0
 40
0.1409124149412078
 40
0.2820063265686002
 40
0.4232735938266474
 40
0.5647059683824211
 40
0.5647059683824211
 40
0.5647059683824211
 40
0.5647059683824211
 10
45.76523245791173
 20
7.840544887000021
 30
0.0
 10
45.71827904940204
 20
7.839266626528171
 30
0.0
 10
45.6243123791998
 20
7.836685511996023
 30
0.0
 10
45.48327618111506
 20
7.832746191860934
 30
0.0
 10
45.34206846745718
 20
7.82874035060918
 30
0.0
 10
45.24787425189373
 20
7.826029463401923
 30
0.0
 10
45.2007499009116
 20
7.824664160300017
 30
0.0
 11
45.76523245791173
 21
7.840544887000021
 31
0.0
 11
45.62437313661161
 21
7.8366769438
 31
0.0
 11
45.48333422881177
 21
7.832737567700007
 31
0.0
 11
45.34212377341162
 21
7.828731629100047
 31
0.0
 11
45.2007499009116
 21
7.824664160300017
 31
0.0
  0
SPLINE
  5
55444
330
1F
100
AcDbEntity
  8
1
100
AcDbSpline
210
0.0
220
0.0
230
1.0
 70
     8
 71
     3
 72
    11
 73
     7
 74
     5
 42
0.0000000001
 43
0.0000000001
 44
0.000001
 12
-0.9995613952662974
 22
-0.0296144743882593
 32
0.0
 13
-0.9995142668509302
 23
-0.0311645690078927
 33
0.0
 40
0.0
 40
0.0
 40
0.0
 40
0.0
 40
0.1409444808759508
 40
0.2820690479441865
 40
0.4233653547943877
 40
0.5648249769262418
 40
0.5648249769262418
 40
0.5648249769262418
 40
0.5648249769262418
 10
45.2007499009116
 20
7.824664160300017
 30
0.0
 10
45.15378901359184
 20
7.823272828060325
 30
0.0
 10
45.05980784741604
 20
7.820467729700439
 30
0.0
 10
44.91875063093806
 20
7.816199138144767
 30
0.0
 10
44.77752344752701
 20
7.811870587514391
 30
0.0
 10
44.68331675871314
 20
7.808949073685283
 30
0.0
 10
44.63618645521177
 20
7.807479564300024
 30
0.0
 11
45.2007499009116
 21
7.824664160300017
 31
0.0
 11
45.0598681208117
 21
7.820460431699984
 31
0.0
 11
44.91880812611174
 21
7.816191754900046
 31
0.0
 11
44.77757814071168
 21
7.811863119699978
 31
0.0
 11
44.63618645521177
 21
7.807479564300024
 31
0.0
  0
SPLINE
  5
55445
330
1F
100
AcDbEntity
  8
1
100
AcDbSpline
210
0.0
220
0.0
230
1.0
 70
     8
 71
     3
 72
    48
 73
    44
 74
     0
 42
0.0000000001
 43
0.0000000001
 40
0.116674726277265
 40
0.116674726277265
 40
0.116674726277265
 40
0.116674726277265
 40
0.1217216002577114
 40
0.1722054755416247
 40
0.1974179934171793
 40
0.2103382922695738
 40
0.2232810237057024
 40
0.2488883969752773
 40
0.2743628930043844
 40
0.2999188150483189
 40
0.3254512377810918
 40
0.3508382988009187
 40
0.3636165724857451
 40
0.3765464932021843
 40
0.3896299851189196
 40
0.4026792345755519
 40
0.4276486491439793
 40
0.4499321046951457
 40
0.4700134614594158
 40
0.4889147792404966
 40
0.5076580164914103
 40
0.5270491530240155
 40
0.5470303343122195
 40
0.587667547629104
 40
0.6278419334764718
 40
0.6676774422297875
 40
0.7076370836920997
 40
0.7476877547917927
 40
0.8276983640241269
 40
0.907709481865208
 40
0.9877210239110056
 40
1.067732867685805
 40
1.147745178628249
 40
1.227758029224645
 40
1.307771256475219
 40
1.387784805060321
 40
1.467798930655364
 40
1.547813435091665
 40
1.627828576822158
 40
1.707844254083784
 40
1.787860221664329
 40
1.867876440934433
 40
1.947893374416311
 40
1.947893374416311
 40
1.947893374416311
 40
1.947893374416311
 10
46.89409008772412
 20
-7.86702945606504
 30
0.0
 10
46.89577121327983
 20
-7.86709207533164
 30
0.0
 10
46.91426871115703
 20
-7.867779057028599
 30
0.0
 10
46.94116580463123
 20
-7.868745168891678
 30
0.0
 10
46.97068729864571
 20
-7.86975974319165
 30
0.0
 10
46.98770395128241
 20
-7.870299064070081
 30
0.0
 10
47.00485344456746
 20
-7.870800458944927
 30
0.0
 10
47.02618878699474
 20
-7.871320922676034
 30
0.0
 10
47.05173047662862
 20
-7.871792870232752
 30
0.0
 10
47.07724922025176
 20
-7.87213601157839
 30
0.0
 10
47.10274018417016
 20
-7.872354110125684
 30
0.0
 10
47.12397274908522
 20
-7.872430050196669
 30
0.0
 10
47.14100451819393
 20
-7.872415203955199
 30
0.0
 10
47.15393500055887
 20
-7.872363637681473
 30
0.0
 10
47.16695557096573
 20
-7.872270216543199
 30
0.0
 10
47.1839888469704
 20
-7.872106437965157
 30
0.0
 10
47.20408809958104
 20
-7.87186270105775
 30
0.0
 10
47.22653071318592
 20
-7.871553265383056
 30
0.0
 10
47.24695044094204
 20
-7.871245404997011
 30
0.0
 10
47.26618995347592
 20
-7.87093780976329
 30
0.0
 10
47.28519936193328
 20
-7.870630187578683
 30
0.0
 10
47.30456883942764
 20
-7.870326854679603
 30
0.0
 10
47.3312355348965
 20
-7.869917078554465
 30
0.0
 10
47.36482925485887
 20
-7.869406884083446
 30
0.0
 10
47.40504005020574
 20
-7.868778578271417
 30
0.0
 10
47.44502484656385
 20
-7.868143128842575
 30
0.0
 10
47.4849683644407
 20
-7.867505482380465
 30
0.0
 10
47.53830177194157
 20
-7.866647551742516
 30
0.0
 10
47.60498366163727
 20
-7.865557377648656
 30
0.0
 10
47.68498367407886
 20
-7.864225963608703
 30
0.0
 10
47.76498368281198
 20
-7.862869815417354
 30
0.0
 10
47.84498367267014
 20
-7.861489312752041
 30
0.0
 10
47.92498367255183
 20
-7.860084325735158
 30
0.0
 10
48.00498370061126
 20
-7.858654894312621
 30
0.0
 10
48.08498370168689
 20
-7.857201067550477
 30
0.0
 10
48.16498367807724
 20
-7.855722699679347
 30
0.0
 10
48.2449836274398
 20
-7.85422002729814
 30
0.0
 10
48.32498364318957
 20
-7.852692811746692
 30
0.0
 10
48.40498370778044
 20
-7.851141252077752
 30
0.0
 10
48.48498378607513
 20
-7.8495654337583
 30
0.0
 10
48.56498373290145
 20
-7.847964900725401
 30
0.0
 10
48.64498361510271
 20
-7.846340374423675
 30
0.0
 10
48.69831663801932
 20
-7.845239419954339
 30
0.0
 10
48.72498319921175
 20
-7.844685617799996
 30
0.0
  0
SPLINE
  5
55446
330
1F
100
AcDbEntity
  8
1
100
AcDbSpline
210
0.0
220
0.0
230
1.0
 70
     8
 71
     3
 72
    50
 73
    46
 74
     0
 42
0.0000000001
 43
0.0000000001
 40
0.0
 40
0.0
 40
0.0
 40
0.0
 40
0.0038739469796806
 40
0.0077009047805029
 40
0.0114828747380293
 40
0.0152223340747337
 40
0.0189214280326993
 40
0.0225823285820688
 40
0.0262070429950286
 40
0.0297973690968723
 40
0.0333554916074656
 40
0.0368830922238586
 40
0.0403821165732999
 40
0.043853615305866
 40
0.0472992148443678
 40
0.0507222186300743
 40
0.0541252985202292
 40
0.0575090592321645
 40
0.0608740410256586
 40
0.0642211790088517
 40
0.0675518385805155
 40
0.0708653965732264
 40
0.0741610324479192
 40
0.0774383898755162
 40
0.0806984657507601
 40
0.0839410879820686
 40
0.0871658829073027
 40
0.0903730578330349
 40
0.0935644890340674
 40
0.09674104010069
 40
0.0999034675134374
 40
0.1030529845048461
 40
0.1061918599185944
 40
0.1093216218077406
 40
0.1124439660484156
 40
0.1155597645602324
 40
0.1186704225259586
 40
0.121776713018662
 40
0.124880375686271
 40
0.1279829203529175
 40
0.1310861816709033
 40
0.1341905950081848
 40
0.1372962122856413
 40
0.1404038982022354
 40
0.1407170445268393
 40
0.1407170445268393
 40
0.1407170445268393
 40
0.1407170445268393
 10
50.45615525991166
 20
-6.903185355499999
 30
0.0
 10
50.45681619025248
 20
-6.902076001084878
 30
0.0
 10
50.4581283634647
 20
-6.899869752318863
 30
0.0
 10
50.46007991229856
 20
-6.896577005697622
 30
0.0
 10
50.46200367750595
 20
-6.893319908516161
 30
0.0
 10
50.46390066417626
 20
-6.890096500559138
 30
0.0
 10
50.46577190882629
 20
-6.886904775658194
 30
0.0
 10
50.46761900353061
 20
-6.883743234312703
 30
0.0
 10
50.46944294718645
 20
-6.880610162420339
 30
0.0
 10
50.47124487004072
 20
-6.877503917826743
 30
0.0
 10
50.47302580006107
 20
-6.874422923904717
 30
0.0
 10
50.47478679055081
 20
-6.87136556156679
 30
0.0
 10
50.47652869444817
 20
-6.868330532264565
 30
0.0
 10
50.47825234744101
 20
-6.865316548564635
 30
0.0
 10
50.47995880263346
 20
-6.862321925762785
 30
0.0
 10
50.48164936835445
 20
-6.859344502416433
 30
0.0
 10
50.48332517145064
 20
-6.856382405527654
 30
0.0
 10
50.48498687583031
 20
-6.853434558328274
 30
0.0
 10
50.48663485617175
 20
-6.850500385482007
 30
0.0
 10
50.48826960708146
 20
-6.847579088119573
 30
0.0
 10
50.48989142943099
 20
-6.844670203297937
 30
0.0
 10
50.49150033708787
 20
-6.841773778038543
 30
0.0
 10
50.4930960675868
 20
-6.838890362326196
 30
0.0
 10
50.49467862253806
 20
-6.836020035032731
 30
0.0
 10
50.49624810831045
 20
-6.833162685898287
 30
0.0
 10
50.49780462650864
 20
-6.830318208578773
 30
0.0
 10
50.49934815342959
 20
-6.827486728129315
 30
0.0
 10
50.50087899177282
 20
-6.824667769825794
 30
0.0
 10
50.50239763673295
 20
-6.821860494115583
 30
0.0
 10
50.50390466448192
 20
-6.819063897087403
 30
0.0
 10
50.50540054067511
 20
-6.816277166315785
 30
0.0
 10
50.50688594615071
 20
-6.813499073244088
 30
0.0
 10
50.50836167468952
 20
-6.810728158075789
 30
0.0
 10
50.50982858445064
 20
-6.807962813077153
 30
0.0
 10
50.51128730637043
 20
-6.805201837165839
 30
0.0
 10
50.51273844363362
 20
-6.80244406103452
 30
0.0
 10
50.51418244883456
 20
-6.79968858386519
 30
0.0
 10
50.5156199017485
 20
-6.796934245106967
 30
0.0
 10
50.51705139002518
 20
-6.794179849162446
 30
0.0
 10
50.5184776535636
 20
-6.791423881010359
 30
0.0
 10
50.51989922517731
 20
-6.788665208200427
 30
0.0
 10
50.52131639694749
 20
-6.785903121409774
 30
0.0
 10
50.52272934476417
 20
-6.783137214835392
 30
0.0
 10
50.52371520915818
 20
-6.781197935606883
 30
0.0
 10
50.52423097762397
 20
-6.780180971541653
 30
0.0
 10
50.52427818339509
 20
-6.780087873511661
 30
0.0
  0
SPLINE
  5
55447
330
1F
100
AcDbEntity
  8
1
100
AcDbSpline
210
0.0
220
0.0
230
1.0
 70
     8
 71
     3
 72
    52
 73
    48
 74
    46
 42
0.0000000001
 43
0.0000000001
 44
0.000001
 12
0.5735598588079949
 22
0.8191636517596183
 32
0.0
 13
0.5207813832728326
 23
0.8536900789141427
 33
0.0
 40
0.0
 40
0.0
 40
0.0
 40
0.0
 40
0.0038447063202267
 40
0.007644786950012
 40
0.0114024787138877
 40
0.0151197754418378
 40
0.0187988615286299
 40
0.0224416735638783
 40
0.026049996849244
 40
0.029625935970357
 40
0.033171116402089
 40
0.0366872461808981
 40
0.0401764161578136
 40
0.0436401956218294
 40
0.0470805749970731
 40
0.0504997707005094
 40
0.0538990127365352
 40
0.0572794794433686
 40
0.0606428287971175
 40
0.0639903695501646
 40
0.0673216787601507
 40
0.0706364780346946
 40
0.0739351268336878
 40
0.0772175483885691
 40
0.0804825965169811
 40
0.0837297337482928
 40
0.0869599874211037
 40
0.090174140685543
 40
0.0933726577610742
 40
0.0965565512769958
 40
0.0997279172433124
 40
0.1028883012164864
 40
0.1060396816057934
 40
0.1091834073102969
 40
0.1123213123356109
 40
0.1154540070419456
 40
0.1185819149923923
 40
0.121706380692674
 40
0.1248288518845767
 40
0.1279498538697502
 40
0.1310701533770536
 40
0.1341915756155129
 40
0.1373151008505367
 40
0.1404425175401765
 40
0.1435750253988213
 40
0.1467142893558199
 40
0.1498614760226023
 40
0.1498614760226023
 40
0.1498614760226023
 40
0.1498614760226023
 10
50.3739037090117
 20
-7.028428061299962
 30
0.0
 10
50.37463876541636
 20
-7.027378246743552
 30
0.0
 10
50.37609894401436
 20
-7.025289820553211
 30
0.0
 10
50.37827265155937
 20
-7.022171923185169
 30
0.0
 10
50.38041790178971
 20
-7.01908596262271
 30
0.0
 10
50.38253606188726
 20
-7.01603029328848
 30
0.0
 10
50.38462817917042
 20
-7.013003169350682
 30
0.0
 10
50.38669536608285
 20
-7.010002975652099
 30
0.0
 10
50.38873908252384
 20
-7.007028367961652
 30
0.0
 10
50.39076037722231
 20
-7.004077844018837
 30
0.0
 10
50.39276036682969
 20
-7.00114997950601
 30
0.0
 10
50.39474013412251
 20
-6.99824333209554
 30
0.0
 10
50.39670074965892
 20
-6.995356473632625
 30
0.0
 10
50.39864332742917
 20
-6.992487891456633
 30
0.0
 10
50.40056899709504
 20
-6.98963603279968
 30
0.0
 10
50.40247881650367
 20
-6.986799432712615
 30
0.0
 10
50.40437368528746
 20
-6.983976845927386
 30
0.0
 10
50.40625439233423
 20
-6.981167176927328
 30
0.0
 10
50.40812173584703
 20
-6.978369304755048
 30
0.0
 10
50.40997621209209
 20
-6.975582548584114
 30
0.0
 10
50.41181795661299
 20
-6.972806762796622
 30
0.0
 10
50.41364693096688
 20
-6.970042066029691
 30
0.0
 10
50.41546316004627
 20
-6.967288480408257
 30
0.0
 10
50.4172665102605
 20
-6.964546269990506
 30
0.0
 10
50.41905668551425
 20
-6.96181594974351
 30
0.0
 10
50.42083359455347
 20
-6.959097728787384
 30
0.0
 10
50.42259749744295
 20
-6.956391277499221
 30
0.0
 10
50.42434883449249
 20
-6.953695985111053
 30
0.0
 10
50.42608803966135
 20
-6.951011242517338
 30
0.0
 10
50.42781578157854
 20
-6.948336071162046
 30
0.0
 10
50.42953291753082
 20
-6.945669185209823
 30
0.0
 10
50.43124047146211
 20
-6.943009023232093
 30
0.0
 10
50.43293932437899
 20
-6.940354227983903
 30
0.0
 10
50.43463040112357
 20
-6.937703356154813
 30
0.0
 10
50.43631437348103
 20
-6.935055343963
 30
0.0
 10
50.43799174222527
 20
-6.932409384488792
 30
0.0
 10
50.43966291616647
 20
-6.929764805801028
 30
0.0
 10
50.44132844876566
 20
-6.927120697298477
 30
0.0
 10
50.44298890584963
 20
-6.924476116223246
 30
0.0
 10
50.44464474456987
 20
-6.92183027911399
 30
0.0
 10
50.44629648407163
 20
-6.919182293141503
 30
0.0
 10
50.4479447197013
 20
-6.916531134098462
 30
0.0
 10
50.449589875777
 20
-6.913875271929299
 30
0.0
 10
50.45123308108071
 20
-6.911213858777315
 30
0.0
 10
50.45287497777207
 20
-6.908545476155552
 30
0.0
 10
50.45451625215441
 20
-6.90586897740836
 30
0.0
 10
50.4556089278364
 20
-6.904080929511309
 30
0.0
 10
50.45615525991166
 20
-6.903185355499999
 30
0.0
 11
50.3739037090117
 21
-7.028428061299962
 31
0.0
 11
50.37610669101167
 21
-7.025277106200007
 31
0.0
 11
50.37827980271169
 21
-7.022159756400014
 31
0.0
 11
50.38042443831177
 21
-7.019074259499973
 31
0.0
 11
50.38254184341173
 21
-7.016019056000004
 31
0.0
 11
50.38463338861169
 21
-7.01299238629997
 31
0.0
 11
50.38670027671168
 21
-7.009992713299993
 31
0.0
 11
50.3887435781117
 21
-7.007018674800008
 31
0.0
 11
50.39076456391166
 21
-7.004068598900005
 31
0.0
 11
50.39276422591178
 21
-7.001141202700011
 31
0.0
 11
50.39474359551178
 21
-6.998235130099999
 31
0.0
 11
50.39670391161172
 21
-6.995348702900002
 31
0.0
 11
50.39864611191177
 21
-6.992480668600023
 31
0.0
 11
50.40057136271179
 21
-6.989629420699998
 31
0.0
 11
50.40248094781174
 21
-6.986793159199976
 31
0.0
 11
50.40437559221181
 21
-6.983970896900018
 31
0.0
 11
50.40625598651167
 21
-6.9811616856
 31
0.0
 11
50.40812308251173
 21
-6.978364174700004
 31
0.0
 11
50.40997763141167
 21
-6.975577299500002
 31
0.0
 11
50.41181942191172
 21
-6.972801434799976
 31
0.0
 11
50.4136483247118
 21
-6.970036836299982
 31
0.0
 11
50.41546456251177
 21
-6.967283227700022
 31
0.0
 11
50.41726811721168
 21
-6.964540696399978
 31
0.0
 11
50.41905838531175
 21
-6.961810224700002
 31
0.0
 11
50.42083510151172
 21
-6.959092288699991
 31
0.0
 11
50.42259885651168
 21
-6.956386054500001
 31
0.0
 11
50.42435010381172
 21
-6.953690890199993
 31
0.0
 11
50.42608912011184
 21
-6.95100642929998
 31
0.0
 11
50.42781647751173
 21
-6.94833184319998
 31
0.0
 11
50.42953332911173
 21
-6.945665388799966
 31
0.0
 11
50.43124052131173
 21
-6.943005780199996
 31
0.0
 11
50.43293912631174
 21
-6.940351362099988
 31
0.0
 11
50.43462986861181
 21
-6.937701004100006
 31
0.0
 11
50.43631372611168
 21
-6.935053162099961
 31
0.0
 11
50.4379910134117
 21
-6.932407320399988
 31
0.0
 11
50.43966194201169
 21
-6.929763119200003
 31
0.0
 11
50.44132721141176
 21
-6.927119417799985
 31
0.0
 11
50.44298756911172
 21
-6.924474983899983
 31
0.0
 11
50.44464326581175
 21
-6.921829362600021
 31
0.0
 11
50.44629467701174
 21
-6.919181892600022
 31
0.0
 11
50.44794274021177
 21
-6.916530996699975
 31
0.0
 11
50.4495879531118
 21
-6.913875786699975
 31
0.0
 11
50.45123117111171
 21
-6.91121478049996
 31
0.0
 11
50.45287296751173
 21
-6.908546933600007
 31
0.0
 11
50.45451415081169
 21
-6.905870800499997
 31
0.0
 11
50.45615525991166
 21
-6.903185355499999
 31
0.0
  0
SPLINE
  5
55448
330
1F
100
AcDbEntity
  8
1
100
AcDbSpline
210
0.0
220
0.0
230
1.0
 70
     8
 71
     3
 72
    16
 73
    12
 74
    10
 42
0.0000000001
 43
0.0000000001
 44
0.000001
 12
0.0550085357342854
 22
-0.9984858842248948
 32
0.0
 13
0.0582088927811112
 23
-0.9983044249131612
 33
0.0
 40
0.0
 40
0.0
 40
0.0
 40
0.0
 40
0.0814986635523139
 40
0.1554979847208222
 40
0.2208744869063155
 40
0.2786222823493146
 40
0.3299816598902387
 40
0.3765373465344411
 40
0.4201252649802529
 40
0.4625357384708735
 40
0.5051570979304389
 40
0.5051570979304389
 40
0.5051570979304389
 40
0.5051570979304389
 10
50.54083729461166
 20
-0.4522933206999938
 30
0.0
 10
50.54233166866044
 20
-0.4794184090800542
 30
0.0
 10
50.54519042294367
 20
-0.5311721764553426
 30
0.0
 10
50.54927613901992
 20
-0.6046835537786564
 30
0.0
 10
50.55294612458346
 20
-0.6702888579165887
 30
0.0
 10
50.55621341749446
 20
-0.7283582391786183
 30
0.0
 10
50.55914874152057
 20
-0.7801627671191512
 30
0.0
 10
50.56183546734684
 20
-0.8272538474087696
 30
0.0
 10
50.56436880043264
 20
-0.871365857071396
 30
0.0
 10
50.56684206153005
 20
-0.9141677103191057
 30
0.0
 10
50.56848597529739
 20
-0.942463942718561
 30
0.0
 10
50.56931295601174
 20
-0.9566469732999962
 30
0.0
 11
50.54083729461166
 21
-0.4522933206999938
 31
0.0
 11
50.54533413641178
 21
-0.5336678201999803
 31
0.0
 11
50.54944095611171
 21
-0.6075530778999792
 31
0.0
 11
50.55309089661176
 21
-0.672827620000021
 31
0.0
 11
50.5563360623118
 21
-0.730484170699981
 31
0.0
 11
50.55924183131168
 21
-0.7817612848999716
 31
0.0
 11
50.56189381461166
 21
-0.8282413778999853
 31
0.0
 11
50.56439290181168
 21
-0.871757596000009
 31
0.0
 11
50.56683943901174
 21
-0.9140974452000136
 31
0.0
 11
50.56931295601174
 21
-0.9566469732999962
 31
0.0
  0
SPLINE
  5
55449
330
1F
100
AcDbEntity
  8
1
100
AcDbSpline
210
0.0
220
0.0
230
1.0
 70
     8
 71
     3
 72
    52
 73
    48
 74
    46
 42
0.0000000001
 43
0.0000000001
 44
0.000001
 12
0.6323995908141175
 22
0.7746423416894645
 32
0.0
 13
0.5894784428169845
 23
0.8077841081960349
 33
0.0
 40
0.0
 40
0.0
 40
0.0
 40
0.0
 40
0.0038171418127734
 40
0.0075916858865238
 40
0.011326219616077
 40
0.0150225265879766
 40
0.0186823001002564
 40
0.0223079510364162
 40
0.0259009181429839
 40
0.0294624786751802
 40
0.0329947119674198
 40
0.0364993666482177
 40
0.0399784362147557
 40
0.043433652405099
 40
0.0468667782166244
 40
0.0502796686201777
 40
0.0536735738568851
 40
0.0570499436903588
 40
0.0604103970048925
 40
0.063755759649996
 40
0.0670867747273274
 40
0.0704039257089248
 40
0.073706268016578
 40
0.0769924216625606
 40
0.0802617487145502
 40
0.083513864620924
 40
0.0867490375672289
 40
0.0899691605051757
 40
0.0931761716455729
 40
0.0963714035220651
 40
0.0995553143048955
 40
0.1027291084334
 40
0.1058944590560815
 40
0.1090522639102218
 40
0.1122039547965267
 40
0.115350960104227
 40
0.1184937133728905
 40
0.1216332796083313
 40
0.1247712612608766
 40
0.1279089537638803
 40
0.1310479564496964
 40
0.1341897147576038
 40
0.1373356424127381
 40
0.1404861030844394
 40
0.1436415876726056
 40
0.14680389377231
 40
0.1499740029849671
 40
0.1499740029849671
 40
0.1499740029849671
 40
0.1499740029849671
 10
50.28210787531174
 20
-7.147003904299992
 30
0.0
 10
50.28291252828529
 20
-7.146018264409192
 30
0.0
 10
50.28451168853888
 20
-7.144057031651215
 30
0.0
 10
50.28689402296885
 20
-7.141128178015293
 30
0.0
 10
50.28924749215497
 20
-7.138227768995037
 30
0.0
 10
50.29157345593507
 20
-7.135354311635921
 30
0.0
 10
50.2938731941029
 20
-7.13250632370574
 30
0.0
 10
50.29614804227964
 20
-7.129682515112719
 30
0.0
 10
50.29839874753219
 20
-7.126881300244036
 30
0.0
 10
50.30062672168748
 20
-7.12410177010885
 30
0.0
 10
50.30283302708841
 20
-7.121342601320165
 30
0.0
 10
50.30501894856758
 20
-7.118602343041132
 30
0.0
 10
50.30718567111222
 20
-7.115879612628717
 30
0.0
 10
50.30933438157507
 20
-7.113173022693075
 30
0.0
 10
50.31146623024625
 20
-7.110481215605105
 30
0.0
 10
50.31358226175001
 20
-7.10780295466138
 30
0.0
 10
50.31568345034765
 20
-7.105137080516598
 30
0.0
 10
50.31777071620076
 20
-7.102482491288185
 30
0.0
 10
50.31984488709174
 20
-7.099838192328874
 30
0.0
 10
50.32190664051751
 20
-7.097203370412984
 30
0.0
 10
50.32395641817487
 20
-7.094577508313307
 30
0.0
 10
50.32599429614464
 20
-7.091960552004721
 30
0.0
 10
50.32801991685272
 20
-7.089353006684675
 30
0.0
 10
50.33003269617819
 20
-7.08675567484866
 30
0.0
 10
50.33203216813234
 20
-7.084169214310634
 30
0.0
 10
50.33401820520959
 20
-7.08159385006931
 30
0.0
 10
50.33599119497757
 20
-7.079029138908964
 30
0.0
 10
50.33795199353409
 20
-7.076474021127438
 30
0.0
 10
50.33990166773236
 20
-7.07392715148542
 30
0.0
 10
50.34184098690679
 20
-7.071387559253793
 30
0.0
 10
50.34377056865077
 20
-7.068854465553968
 30
0.0
 10
50.34569109532134
 20
-7.066326998095334
 30
0.0
 10
50.34760333290086
 20
-7.063804164103601
 30
0.0
 10
50.34950808913226
 20
-7.061284907369554
 30
0.0
 10
50.35140611680839
 20
-7.058768232441721
 30
0.0
 10
50.35329807156398
 20
-7.056253264429358
 30
0.0
 10
50.35518452884542
 20
-7.053739221189331
 30
0.0
 10
50.35706610378787
 20
-7.051225277822069
 30
0.0
 10
50.3589435466883
 20
-7.048710351982464
 30
0.0
 10
50.36081782814898
 20
-7.04619330320267
 30
0.0
 10
50.36268943532395
 20
-7.043672697087018
 30
0.0
 10
50.36455955864238
 20
-7.041147573272965
 30
0.0
 10
50.36642875359035
 20
-7.038617012234936
 30
0.0
 10
50.36829745118876
 20
-7.036080398721722
 30
0.0
 10
50.370166136828
 20
-7.033536998557764
 30
0.0
 10
50.37203541835452
 20
-7.030985912269812
 30
0.0
 10
50.37328080533092
 20
-7.029281649247707
 30
0.0
 10
50.3739037090117
 20
-7.028428061299962
 30
0.0
 11
50.28210787531174
 21
-7.147003904299992
 31
0.0
 11
50.28452003111175
 21
-7.144045525299986
 31
0.0
 11
50.28690172041177
 21
-7.141117292800004
 31
0.0
 11
50.28925466971173
 21
-7.138217278999945
 31
0.0
 11
50.29158009011172
 21
-7.135344173100008
 31
0.0
 11
50.29387912931174
 21
-7.132496729199999
 31
0.0
 11
50.29615337831166
 21
-7.129673137099985
 31
0.0
 11
50.29840384851167
 21
-7.126872290199969
 31
0.0
 11
50.30063137441169
 21
-7.124093291800022
 31
0.0
 11
50.30283731441176
 21
-7.121334579599988
 31
0.0
 11
50.30502281681169
 21
-7.1185948392
 31
0.0
 11
50.30718917621169
 21
-7.115872559500019
 31
0.0
 11
50.30933751741173
 21
-7.113166428599981
 31
0.0
 11
50.31146897841171
 21
-7.110475104999977
 31
0.0
 11
50.31358474781171
 21
-7.107797169799994
 31
0.0
 11
50.31568563351169
 21
-7.105131673899961
 31
0.0
 11
50.31777256211166
 21
-7.102477507599985
 31
0.0
 11
50.31984655931177
 21
-7.099833423900008
 31
0.0
 11
50.32190815641178
 21
-7.097198795800011
 31
0.0
 11
50.32395783111173
 21
-7.094573059399976
 31
0.0
 11
50.32599589881186
 21
-7.091955853400008
 31
0.0
 11
50.32802179791173
 21
-7.089347943500001
 31
0.0
 11
50.33003470371176
 21
-7.086750442300001
 31
0.0
 11
50.33203425031178
 21
-7.084163879100003
 31
0.0
 11
50.33402022901174
 21
-7.08158858439998
 31
0.0
 11
50.33599283021175
 21
-7.079024372099979
 31
0.0
 11
50.33795323171165
 21
-7.076469765699982
 31
0.0
 11
50.33990263201173
 21
-7.073923247499976
 31
0.0
 11
50.34184185471173
 21
-7.071383775500009
 31
0.0
 11
50.34377118931178
 21
-7.068850999999995
 31
0.0
 11
50.3456913746117
 21
-7.066323975399996
 31
0.0
 11
50.34760342761178
 21
-7.063801378800008
 31
0.0
 11
50.34950789201179
 21
-7.061282501599976
 31
0.0
 11
50.35140562911164
 21
-7.058766205799997
 31
0.0
 11
50.35329749261172
 21
-7.056251352000003
 31
0.0
 11
50.35518373381177
 21
-7.053737592599986
 31
0.0
 11
50.35706498021176
 21
-7.051224072900026
 31
0.0
 11
50.35894217611172
 21
-7.048709504099974
 31
0.0
 11
50.36081607601175
 21
-7.046192839000013
 31
0.0
 11
50.36268763941172
 21
-7.043672742399962
 31
0.0
 11
50.36455766981174
 21
-7.041148075199998
 31
0.0
 11
50.36642696911172
 21
-7.038617687999987
 31
0.0
 11
50.36829571411175
 21
-7.036081267399993
 31
0.0
 11
50.37016415481179
 21
-7.033538396200015
 31
0.0
 11
50.37203331001177
 21
-7.030987600900004
 31
0.0
 11
50.3739037090117
 21
-7.028428061299962
 31
0.0
  0
SPLINE
  5
5544A
330
1F
100
AcDbEntity
  8
1
100
AcDbSpline
210
0.0
220
0.0
230
1.0
 70
     8
 71
     3
 72
    23
 73
    19
 74
    17
 42
0.0000000001
 43
0.0000000001
 44
0.000001
 12
0.0545153799555509
 22
-0.9985129309870263
 32
0.0
 13
0.0571541058743924
 23
-0.9983653680800925
 33
0.0
 40
0.0
 40
0.0
 40
0.0
 40
0.0
 40
0.0504394881170993
 40
0.0972449312135712
 40
0.142799289805982
 40
0.1883906180533297
 40
0.2340241580923029
 40
0.2796302187800434
 40
0.3252905669754524
 40
0.3709863873679267
 40
0.4166424636762449
 40
0.462358089205141
 40
0.5082891131388936
 40
0.5543491381171214
 40
0.6003752787312856
 40
0.6464083274275421
 40
0.6927453767742595
 40
0.7399064699159654
 40
0.7399064699159654
 40
0.7399064699159654
 40
0.7399064699159654
 10
50.56931295601174
 20
-0.9566469732999962
 30
0.0
 10
50.57022953196491
 20
-0.9734351336724245
 30
0.0
 10
50.5720017086615
 20
-1.005801631750514
 30
0.0
 10
50.57462531854941
 20
-1.053329037084708
 30
0.0
 10
50.57717557537336
 20
-1.09924197459226
 30
0.0
 10
50.57971531710967
 20
-1.144764257952161
 30
0.0
 10
50.58226239069387
 20
-1.190303392413255
 30
0.0
 10
50.58481239942176
 20
-1.235865405211711
 30
0.0
 10
50.58736077450015
 20
-1.281448302131153
 30
0.0
 10
50.58990163284983
 20
-1.327048316539304
 30
0.0
 10
50.59243660757823
 20
-1.372667112414333
 30
0.0
 10
50.59497386559548
 20
-1.418364303413042
 30
0.0
 10
50.59752059494138
 20
-1.464195825510984
 30
0.0
 10
50.60007942439728
 20
-1.510130339676621
 30
0.0
 10
50.60265083526537
 20
-1.556098213140245
 30
0.0
 10
50.60524233191182
 20
-1.602157446517807
 30
0.0
 10
50.60787087682576
 20
-1.648593509177104
 30
0.0
 10
50.60964727244146
 20
-1.679708891328814
 30
0.0
 10
50.61054575581164
 20
-1.695403558699979
 30
0.0
 11
50.56931295601174
 21
-0.9566469732999962
 31
0.0
 11
50.57207282801181
 21
-1.007010899199997
 31
0.0
 11
50.57465200591167
 21
-1.053745226300009
 31
0.0
 11
50.57717774631175
 21
-1.099229511600015
 31
0.0
 11
50.57971659281173
 21
-1.144750094400023
 31
0.0
 11
50.58226417581176
 21
-1.190312466900024
 31
0.0
 11
50.58481192181165
 21
-1.235847307999961
 31
0.0
 11
50.58735970591175
 21
-1.281436519299973
 31
0.0
 11
50.58990221621178
 21
-1.327061552299994
 31
0.0
 11
50.59243616131169
 21
-1.3726472564
 31
0.0
 11
50.5949712159117
 21
-1.418292539899994
 31
0.0
 11
50.59752026401174
 21
-1.464152776499986
 31
0.0
 11
50.60008283411178
 21
-1.510141461200021
 31
0.0
 11
50.60265418721184
 21
-1.556095718300014
 31
0.0
 11
50.60524023491172
 21
-1.602056069799971
 31
0.0
 11
50.6078600455117
 21
-1.648319000000014
 31
0.0
 11
50.61054575581164
 21
-1.695403558699979
 31
0.0
  0
SPLINE
  5
5544B
330
1F
100
AcDbEntity
  8
1
100
AcDbSpline
210
0.0
220
0.0
230
1.0
 70
     8
 71
     3
 72
    51
 73
    47
 74
    45
 42
0.0000000001
 43
0.0000000001
 44
0.000001
 12
0.6880160073903327
 22
0.7256955102346065
 32
0.0
 13
0.6533644113716947
 23
0.7570435561795101
 33
0.0
 40
0.0
 40
0.0
 40
0.0
 40
0.0
 40
0.0038738820107647
 40
0.0077054086660245
 40
0.011496431980271
 40
0.0152496251759742
 40
0.0189668648296106
 40
0.0226504111387336
 40
0.0263019294767768
 40
0.0299232662180711
 40
0.0335164964857476
 40
0.03708321986614
 40
0.0406253297959694
 40
0.0441435178609908
 40
0.0476399360169123
 40
0.0511172208516909
 40
0.0545757789208898
 40
0.0580181897907576
 40
0.0614475289287822
 40
0.0648652857366884
 40
0.0682699560994102
 40
0.071659976344615
 40
0.0750342270896791
 40
0.0783930004094209
 40
0.0817354491770099
 40
0.0850607146341154
 40
0.0883698971589341
 40
0.0916647508500908
 40
0.0949466540534783
 40
0.098217557197351
 40
0.101479209428687
 40
0.1047318987141355
 40
0.1079760686251937
 40
0.1112136441149629
 40
0.1144462833973126
 40
0.1176758566213629
 40
0.1209031854431815
 40
0.1241297825212058
 40
0.1273568579663148
 40
0.1305858037061047
 40
0.1338170362840904
 40
0.1370528566822213
 40
0.1402946430450907
 40
0.1435426955088789
 40
0.1467984888731011
 40
0.150063027807084
 40
0.150063027807084
 40
0.150063027807084
 40
0.150063027807084
 10
50.18135350001165
 20
-7.258194622100006
 30
0.0
 10
50.18224193095642
 20
-7.257257535839215
 30
0.0
 10
50.18400807184213
 20
-7.255392653727611
 30
0.0
 10
50.18664013462142
 20
-7.252607410735564
 30
0.0
 10
50.1892415988928
 20
-7.249848605927269
 30
0.0
 10
50.19181400035853
 20
-7.24711476046005
 30
0.0
 10
50.19435896138208
 20
-7.24440428984451
 30
0.0
 10
50.19687786796243
 20
-7.241715848270771
 30
0.0
 10
50.19937209349172
 20
-7.239048091671833
 30
0.0
 10
50.20184296361463
 20
-7.236399715624543
 30
0.0
 10
50.20429178385296
 20
-7.23376942659641
 30
0.0
 10
50.20671972400527
 20
-7.231155783579723
 30
0.0
 10
50.20912795699809
 20
-7.228557977925788
 30
0.0
 10
50.21151754964484
 20
-7.225974850627821
 30
0.0
 10
50.21388979216289
 20
-7.223405112065421
 30
0.0
 10
50.21624588859783
 20
-7.220847522129645
 30
0.0
 10
50.21858713862042
 20
-7.218300734933379
 30
0.0
 10
50.22091493402792
 20
-7.215763290455086
 30
0.0
 10
50.22323090451658
 20
-7.213233457017395
 30
0.0
 10
50.22553575401918
 20
-7.210710500871371
 30
0.0
 10
50.22782914224689
 20
-7.208194828795058
 30
0.0
 10
50.23011014663729
 20
-7.205687493412469
 30
0.0
 10
50.23237825079963
 20
-7.203189107381248
 30
0.0
 10
50.23463310126607
 20
-7.20070010860924
 30
0.0
 10
50.23687440424732
 20
-7.19822087177657
 30
0.0
 10
50.23910204830219
 20
-7.195751573124724
 30
0.0
 10
50.24131650251565
 20
-7.193291744760344
 30
0.0
 10
50.2435187315179
 20
-7.190840361467849
 30
0.0
 10
50.24570988504655
 20
-7.188396183365739
 30
0.0
 10
50.24789110617001
 20
-7.185957966759971
 30
0.0
 10
50.25006329054832
 20
-7.183524734267066
 30
0.0
 10
50.25222699626709
 20
-7.181095880436714
 30
0.0
 10
50.25438281654345
 20
-7.178670752632257
 30
0.0
 10
50.25653164974499
 20
-7.176248358313415
 30
0.0
 10
50.25867468704035
 20
-7.173827329115283
 30
0.0
 10
50.26081293553073
 20
-7.171406624694952
 30
0.0
 10
50.26294712291127
 20
-7.168985023032007
 30
0.0
 10
50.26507818367344
 20
-7.16656177814147
 30
0.0
 10
50.26720699411459
 20
-7.164135838968263
 30
0.0
 10
50.26933420623862
 20
-7.161706444001751
 30
0.0
 10
50.27146070246676
 20
-7.159272550180148
 30
0.0
 10
50.27358735913304
 20
-7.156833115326691
 30
0.0
 10
50.27571502167638
 20
-7.154387121908825
 30
0.0
 10
50.27784435096368
 20
-7.151933756938618
 30
0.0
 10
50.27997592269975
 20
-7.149472298570785
 30
0.0
 10
50.2813968974587
 20
-7.147827703687951
 30
0.0
 10
50.28210787531174
 20
-7.147003904299992
 30
0.0
 11
50.18135350001165
 21
-7.258194622100006
 31
0.0
 11
50.18401724761173
 21
-7.255381906299987
 31
0.0
 11
50.18664882911167
 21
-7.252597079099984
 31
0.0
 11
50.18924959931172
 21
-7.249838876399962
 31
0.0
 11
50.19182146921167
 21
-7.247105429800001
 31
0.0
 11
50.19436579621168
 21
-7.244395443799987
 31
0.0
 11
50.1968841937117
 21
-7.241707336999979
 31
0.0
 11
50.1993778621117
 21
-7.239039956099986
 31
0.0
 11
50.20184811961172
 21
-7.236392010100018
 31
0.0
 11
50.20429644031167
 21
-7.233762029300009
 31
0.0
 11
50.20672397751167
 21
-7.23114887600002
 31
0.0
 11
50.20913204291168
 21
-7.228551231599965
 31
0.0
 11
50.21152114761179
 21
-7.225968632199965
 31
0.0
 11
50.21389279061174
 21
-7.223399538199998
 31
0.0
 11
50.21624879261167
 21
-7.220842047299981
 31
0.0
 11
50.21858945791172
 21
-7.218295892199989
 31
0.0
 11
50.22091655771174
 21
-7.215759202299977
 31
0.0
 11
50.22323219031176
 21
-7.213229734099968
 31
0.0
 11
50.22553737531172
 21
-7.210706406799999
 31
0.0
 11
50.22783111211168
 21
-7.208190348599998
 31
0.0
 11
50.23011236491169
 21
-7.205682736200003
 31
0.0
 11
50.23238040101176
 21
-7.203184421299965
 31
0.0
 11
50.23463543841166
 21
-7.20069521229999
 31
0.0
 11
50.23687693071173
 21
-7.198215762199993
 31
0.0
 11
50.23910432641168
 21
-7.195746734999943
 31
0.0
 11
50.24131838671173
 21
-7.193287340300003
 31
0.0
 11
50.2435203060117
 21
-7.190836297999965
 31
0.0
 11
50.24571102281169
 21
-7.188392603199986
 31
0.0
 11
50.24789185241167
 21
-7.185954820400013
 31
0.0
 11
50.25006397011174
 21
-7.183521658899962
 31
0.0
 11
50.25222757441174
 21
-7.181092914700002
 31
0.0
 11
50.25438296611167
 21
-7.178668266499983
 31
0.0
 11
50.25653142721165
 21
-7.176246283199986
 31
0.0
 11
50.25867405681168
 21
-7.173825727999997
 31
0.0
 11
50.26081208891167
 21
-7.171405200499975
 31
0.0
 11
50.26294607851167
 21
-7.168984059100012
 31
0.0
 11
50.26507699781172
 21
-7.166561182399959
 31
0.0
 11
50.2672056267117
 21
-7.164135657999963
 31
0.0
 11
50.26933286441175
 21
-7.161706428999991
 31
0.0
 11
50.2714589639117
 21
-7.159273169299979
 31
0.0
 11
50.27358541401174
 21
-7.156834130300012
 31
0.0
 11
50.27571309041167
 21
-7.154388253399986
 31
0.0
 11
50.27784215731168
 21
-7.15193529009997
 31
0.0
 11
50.27997354611165
 21
-7.149474102599981
 31
0.0
 11
50.28210787531174
 21
-7.147003904299992
 31
0.0
  0
SPLINE
  5
5544C
330
1F
100
AcDbEntity
  8
1
100
AcDbSpline
210
0.0
220
0.0
230
1.0
 70
     8
 71
     3
 72
    21
 73
    17
 74
    15
 42
0.0000000001
 43
0.0000000001
 44
0.000001
 12
0.0536690574142072
 22
-0.9985587775770991
 32
0.0
 13
0.0566666917353267
 23
-0.9983931520437096
 33
0.0
 40
0.0
 40
0.0
 40
0.0
 40
0.0
 40
0.0460244982303053
 40
0.0918287415918641
 40
0.1375371683468336
 40
0.1832788750591596
 40
0.2290402181938149
 40
0.2746400901219833
 40
0.3200763235104791
 40
0.3654910805233217
 40
0.4109594815884352
 40
0.4564979563325487
 40
0.5020334980626828
 40
0.547506076227315
 40
0.5930850119615451
 40
0.6389879595758025
 40
0.6389879595758025
 40
0.6389879595758025
 40
0.6389879595758025
 10
50.61054575581164
 20
-1.695403558699979
 30
0.0
 10
50.61136911962439
 20
-1.710722947597133
 30
0.0
 10
50.61301797657467
 20
-1.74128808740275
 30
0.0
 10
50.61551165894986
 20
-1.787065942840868
 30
0.0
 10
50.61802419351607
 20
-1.832748361052651
 30
0.0
 10
50.62055556237277
 20
-1.878415416543731
 30
0.0
 10
50.62309718366527
 20
-1.924045660918608
 30
0.0
 10
50.6256387479612
 20
-1.96957392559355
 30
0.0
 10
50.62817291912296
 20
-2.014986894435267
 30
0.0
 10
50.63069645002457
 20
-2.060356564953508
 30
0.0
 10
50.63320961507435
 20
-2.105760943323801
 30
0.0
 10
50.63572114201514
 20
-2.151205734988636
 30
0.0
 10
50.63823558700454
 20
-2.196651760091711
 30
0.0
 10
50.64076124019567
 20
-2.242110671699592
 30
0.0
 10
50.64330986226827
 20
-2.287690963459354
 30
0.0
 10
50.64503157365101
 20
-2.318136283214428
 30
0.0
 10
50.64589862971178
 20
-2.333412679399998
 30
0.0
 11
50.61054575581164
 21
-1.695403558699979
 31
0.0
 11
50.61302697111177
 21
-1.741361126299921
 31
0.0
 11
50.61551840011174
 21
-1.787097560999995
 31
0.0
 11
50.61802784951175
 21
-1.832737049499996
 31
0.0
 11
50.62055824251178
 21
-1.878408712699979
 31
0.0
 11
50.62310211481173
 21
-1.924099293999972
 31
0.0
 11
50.62564262701181
 21
-1.969628340799999
 31
0.0
 11
50.6281729498117
 21
-2.014994063100004
 31
0.0
 11
50.63069441621173
 21
-2.060338768999997
 31
0.0
 11
50.63320867991177
 21
-2.105737601200019
 31
0.0
 11
50.63572266821172
 21
-2.151206629499995
 31
0.0
 11
50.63823949021179
 21
-2.196672563499987
 31
0.0
 11
50.64076295411172
 21
-2.242075068699989
 31
0.0
 11
50.64330962211176
 21
-2.287582802600013
 31
0.0
 11
50.64589862971178
 21
-2.333412679399998
 31
0.0
  0
SPLINE
  5
5544D
330
1F
100
AcDbEntity
  8
1
100
AcDbSpline
210
0.0
220
0.0
230
1.0
 70
     8
 71
     3
 72
    18
 73
    14
 74
    12
 42
0.0000000001
 43
0.0000000001
 44
0.000001
 12
0.053365178223766
 22
-0.9985750636547789
 32
0.0
 13
0.0570756648826731
 23
-0.9983698555536424
 33
0.0
 40
0.0
 40
0.0
 40
0.0
 40
0.0
 40
0.0304719689558112
 40
0.0641437925696919
 40
0.1021442938825597
 40
0.1451321973801337
 40
0.1925724651978895
 40
0.2410755408277425
 40
0.2886546790609268
 40
0.3363046652587116
 40
0.384591525017697
 40
0.4332711980832006
 40
0.4813489965087889
 40
0.4813489965087889
 40
0.4813489965087889
 40
0.4813489965087889
 10
50.64589862971178
 20
-2.333412679399998
 30
0.0
 10
50.64644067706314
 20
-2.343555528846579
 30
0.0
 10
50.64758362060269
 20
-2.364906223445586
 30
0.0
 10
50.64941883273565
 20
-2.39890482687322
 30
0.0
 10
50.65149108573729
 20
-2.437068684558298
 30
0.0
 10
50.65382712242348
 20
-2.47981445892168
 30
0.0
 10
50.6563689414051
 20
-2.526055066762921
 30
0.0
 10
50.65900707596887
 20
-2.573823100383364
 30
0.0
 10
50.66165978841382
 20
-2.621660340395777
 30
0.0
 10
50.66432220698056
 20
-2.669424857905212
 30
0.0
 10
50.66702163601184
 20
-2.717554724031231
 30
0.0
 10
50.66974730394594
 20
-2.765825944103937
 30
0.0
 10
50.67158251434131
 20
-2.798026180676799
 30
0.0
 10
50.67249720511171
 20
-2.81402598889997
 30
0.0
 11
50.64589862971178
 21
-2.333412679399998
 31
0.0
 11
50.6475297509117
 21
-2.363840961099981
 31
0.0
 11
50.6493437374117
 21
-2.39746388689997
 31
0.0
 11
50.65140402211176
 21
-2.435408495300009
 31
0.0
 11
50.65374930441175
 21
-2.478332375299999
 31
0.0
 11
50.65635250831173
 21
-2.525701165800001
 31
0.0
 11
50.65902688431169
 21
-2.574130454800013
 31
0.0
 11
50.66166174801168
 21
-2.621636579300002
 31
0.0
 11
50.66431410621174
 21
-2.669212688399966
 31
0.0
 11
50.66701832821166
 21
-2.717423765799992
 31
0.0
 11
50.66976390251176
 21
-2.76602595060001
 31
0.0
 11
50.67249720511171
 21
-2.81402598889997
 31
0.0
  0
SPLINE
  5
5544E
330
1F
100
AcDbEntity
  8
1
100
AcDbSpline
210
0.0
220
0.0
230
1.0
 70
     8
 71
     3
 72
    51
 73
    47
 74
    45
 42
0.0000000001
 43
0.0000000001
 44
0.000001
 12
0.7400860621008648
 22
0.6725121714021503
 32
0.0
 13
0.7122103331231759
 23
0.7019661255306948
 33
0.0
 40
0.0
 40
0.0
 40
0.0
 40
0.0
 40
0.0038407855924749
 40
0.0076420365835483
 40
0.0114056930364203
 40
0.0151340551536838
 40
0.0188289393337151
 40
0.0224917507115048
 40
0.0261246485986825
 40
0.0297295473826242
 40
0.0333076641766116
 40
0.0368608839844254
 40
0.0403914558301409
 40
0.0439005704519507
 40
0.0473897985465674
 40
0.050861672673391
 40
0.0543173071719698
 40
0.0577576790261888
 40
0.0611840719889453
 40
0.0645980192967927
 40
0.0679991509408771
 40
0.0713872605705007
 40
0.0747622229925586
 40
0.0781223803523212
 40
0.0814665664831416
 40
0.0847956211067265
 40
0.0881100667387498
 40
0.0914108490039491
 40
0.0946997301299567
 40
0.0979781182501384
 40
0.1012479036598617
 40
0.1045106165116421
 40
0.107768055604248
 40
0.1110209049647055
 40
0.1142695519921076
 40
0.1175156745859812
 40
0.1207606560244873
 40
0.1240053110422159
 40
0.1272512145830934
 40
0.1304998342857522
 40
0.1337518043258359
 40
0.1370079872607628
 40
0.1402699629352794
 40
0.1435390939915296
 40
0.1468170000135902
 40
0.1501051091552229
 40
0.1501051091552229
 40
0.1501051091552229
 40
0.1501051091552229
 10
50.07229243431169
 20
-7.361316590499995
 30
0.0
 10
50.07323993827316
 20
-7.360455598813771
 30
0.0
 10
50.07512436495023
 20
-7.358741566217219
 30
0.0
 10
50.0779343884455
 20
-7.356180668297085
 30
0.0
 10
50.0807142800382
 20
-7.353642344235197
 30
0.0
 10
50.08346558980139
 20
-7.351125302717832
 30
0.0
 10
50.08618973114216
 20
-7.348628366883389
 30
0.0
 10
50.08888807827583
 20
-7.346150386419722
 30
0.0
 10
50.09156202488958
 20
-7.343690183715125
 30
0.0
 10
50.09421291382881
 20
-7.341246618276841
 30
0.0
 10
50.09684201645967
 20
-7.338818606800003
 30
0.0
 10
50.09945068192696
 20
-7.336404985627126
 30
0.0
 10
50.10204024831904
 20
-7.334004591949209
 30
0.0
 10
50.1046119726015
 20
-7.331616329422942
 30
0.0
 10
50.10716717700979
 20
-7.329239032980169
 30
0.0
 10
50.10970716064133
 20
-7.326871549961452
 30
0.0
 10
50.11223307363792
 20
-7.324512858058909
 30
0.0
 10
50.11474575870664
 20
-7.322162215570699
 30
0.0
 10
50.1172461577159
 20
-7.319818782327473
 30
0.0
 10
50.11973488205097
 20
-7.317482022065192
 30
0.0
 10
50.12221217950304
 20
-7.315151736863597
 30
0.0
 10
50.12467789521514
 20
-7.312828107528588
 30
0.0
 10
50.12713156281171
 20
-7.31051161017389
 30
0.0
 10
50.12957248535958
 20
-7.308202942696269
 30
0.0
 10
50.1320002022074
 20
-7.305902584668459
 30
0.0
 10
50.13441478124281
 20
-7.303610516718507
 30
0.0
 10
50.13681679998256
 20
-7.301326233811423
 30
0.0
 10
50.13920705676281
 20
-7.299049016821555
 30
0.0
 10
50.14158656069009
 20
-7.296777939821865
 30
0.0
 10
50.14395654498668
 20
-7.294511855570846
 30
0.0
 10
50.14631818289803
 20
-7.292249665993523
 30
0.0
 10
50.14867273760927
 20
-7.289990178625657
 30
0.0
 10
50.15102117819407
 20
-7.287732475221176
 30
0.0
 10
50.15336419611475
 20
-7.285475898389222
 30
0.0
 10
50.15570245173393
 20
-7.283219816538576
 30
0.0
 10
50.1580367706519
 20
-7.280963433652217
 30
0.0
 10
50.16036807767313
 20
-7.278705851398029
 30
0.0
 10
50.16269726982063
 20
-7.276446192109276
 30
0.0
 10
50.16502526111111
 20
-7.274183555280572
 30
0.0
 10
50.16735291897401
 20
-7.271917078866152
 30
0.0
 10
50.16968093777308
 20
-7.269646063517313
 30
0.0
 10
50.17201003615827
 20
-7.267369781274069
 30
0.0
 10
50.17434110340599
 20
-7.265087331419834
 30
0.0
 10
50.17667520538697
 20
-7.262797632963057
 30
0.0
 10
50.17901336775975
 20
-7.260499636279149
 30
0.0
 10
50.18057289157599
 20
-7.258964002511504
 30
0.0
 10
50.18135350001165
 20
-7.258194622100006
 30
0.0
 11
50.07229243431169
 21
-7.361316590499995
 31
0.0
 11
50.07513368501173
 21
-7.358732231899978
 31
0.0
 11
50.07794320431168
 21
-7.356171752199998
 31
0.0
 11
50.08072249231173
 21
-7.353633921200014
 31
0.0
 11
50.08347330901171
 21
-7.351117259099964
 31
0.0
 11
50.0861970521118
 21
-7.348620606699967
 31
0.0
 11
50.08889481131172
 21
-7.346143077299984
 31
0.0
 11
50.09156822741175
 21
-7.343683269199971
 31
0.0
 11
50.09421875561173
 21
-7.341239940599962
 31
0.0
 11
50.09684733401167
 21
-7.33881231739997
 31
0.0
 11
50.09945538751168
 21
-7.336399168100001
 31
0.0
 11
50.10204460321171
 21
-7.333999008499972
 31
0.0
 11
50.10461588721176
 21
-7.331611068500023
 31
0.0
 11
50.10717042061168
 21
-7.329234315699977
 31
0.0
 11
50.10971008401174
 21
-7.326867057399965
 31
0.0
 11
50.11223571551176
 21
-7.324508562400012
 31
0.0
 11
50.11474805001177
 21
-7.322158190200013
 31
0.0
 11
50.11724804391173
 21
-7.319815087999984
 31
0.0
 11
50.11973683211175
 21
-7.317478228600009
 31
0.0
 11
50.12221415991172
 21
-7.315147885300007
 31
0.0
 11
50.12467989261171
 21
-7.312824220099969
 31
0.0
 11
50.12713395521172
 21
-7.310507340000015
 31
0.0
 11
50.12957516001171
 21
-7.308198405999974
 31
0.0
 11
50.13200268011172
 21
-7.30589824499998
 31
0.0
 11
50.13441714581171
 21
-7.303606305400023
 31
0.0
 11
50.13681895541179
 21
-7.301322251899989
 31
0.0
 11
50.13920881221173
 21
-7.299045455899999
 31
0.0
 11
50.14158800771173
 21
-7.296774722299971
 31
0.0
 11
50.14395757301173
 21
-7.294509096000012
 31
0.0
 11
50.14631888391176
 21
-7.29224728470001
 31
0.0
 11
50.14867305161164
 21
-7.289988240500008
 31
0.0
 11
50.15102137721175
 21
-7.287730725400024
 31
0.0
 11
50.15336435451178
 21
-7.285474270199983
 31
0.0
 11
50.15570226221171
 21
-7.283218610000005
 31
0.0
 11
50.1580363056118
 21
-7.280962581700009
 31
0.0
 11
50.1603674740117
 21
-7.278705222700011
 31
0.0
 11
50.16269634521171
 21
-7.276445962799982
 31
0.0
 11
50.16502403981172
 21
-7.274183699599973
 31
0.0
 11
50.16735159741171
 21
-7.271917401400003
 31
0.0
 11
50.16967945721166
 21
-7.269646614699979
 31
0.0
 11
50.17200822011176
 21
-7.267370724800002
 31
0.0
 11
50.1743389967117
 21
-7.265088612399949
 31
0.0
 11
50.17667273861178
 21
-7.262799306399983
 31
0.0
 11
50.17901057641172
 21
-7.260501651399977
 31
0.0
 11
50.18135350001165
 21
-7.258194622100006
 31
0.0
  0
SPLINE
  5
5544F
330
1F
100
AcDbEntity
  8
1
100
AcDbSpline
210
0.0
220
0.0
230
1.0
 70
     8
 71
     3
 72
    51
 73
    47
 74
    45
 42
0.0000000001
 43
0.0000000001
 44
0.000001
 12
0.788294304838762
 22
0.61529837392827
 32
0.0
 13
0.7658391448339873
 23
0.6430321953370198
 33
0.0
 40
0.0
 40
0.0
 40
0.0
 40
0.0
 40
0.0038084239048199
 40
0.0075794520121964
 40
0.0113153061364571
 40
0.015017460146442
 40
0.0186878680937098
 40
0.0223287196964926
 40
0.0259413311928718
 40
0.0295267910597809
 40
0.0330868703076738
 40
0.0366236208127581
 40
0.0401387547797229
 40
0.0436342145931113
 40
0.0471115495215206
 40
0.0505729433080203
 40
0.0540200051601542
 40
0.0574540156730923
 40
0.0608765956237099
 40
0.0642890980715108
 40
0.0676906995486687
 40
0.0710805384655863
 40
0.0744579481047884
 40
0.077821242454681
 40
0.0811679022945244
 40
0.0844994018577948
 40
0.0878185316035077
 40
0.0911275446718824
 40
0.0944267554018722
 40
0.0977164352186927
 40
0.100997720437573
 40
0.1042726616471455
 40
0.1075422104753498
 40
0.1108072657316335
 40
0.1140698035989936
 40
0.1173311266217592
 40
0.1205916126496128
 40
0.123851593895159
 40
0.1271128069549825
 40
0.130376858257953
 40
0.1336456723213773
 40
0.1369206000753909
 40
0.1402034134653291
 40
0.1434951736417316
 40
0.1467963188000915
 40
0.1501077228329386
 40
0.1501077228329386
 40
0.1501077228329386
 40
0.1501077228329386
 10
49.95561865681174
 20
-7.45574734859997
 30
0.0
 10
49.95661937643666
 20
-7.454966242921344
 30
0.0
 10
49.95861030781481
 20
-7.45341082798896
 30
0.0
 10
49.96158052304981
 20
-7.451086163692707
 30
0.0
 10
49.96452084490198
 20
-7.44878078130003
 30
0.0
 10
49.96743280511151
 20
-7.446493586812877
 30
0.0
 10
49.97031792292995
 20
-7.444223487349802
 30
0.0
 10
49.97317767209636
 20
-7.441969416971517
 30
0.0
 10
49.97601329597256
 20
-7.439730483350786
 30
0.0
 10
49.97882592530022
 20
-7.437505876571691
 30
0.0
 10
49.98161688000124
 20
-7.435294630455331
 30
0.0
 10
49.98438763923792
 20
-7.433095644858042
 30
0.0
 10
49.98713972300532
 20
-7.430907779053086
 30
0.0
 10
49.98987451633133
 20
-7.428729991633773
 30
0.0
 10
49.99259352354028
 20
-7.426561138567564
 30
0.0
 10
49.99529815833415
 20
-7.424400140207609
 30
0.0
 10
49.99798976081121
 20
-7.422245968169335
 30
0.0
 10
50.00066952135381
 20
-7.420097707240898
 30
0.0
 10
50.00333856076309
 20
-7.417954491850835
 30
0.0
 10
50.00599745043934
 20
-7.415815892342294
 30
0.0
 10
50.00864611622723
 20
-7.413681996636668
 30
0.0
 10
50.01128396064581
 20
-7.411553316171946
 30
0.0
 10
50.01391016420297
 20
-7.409430545041047
 30
0.0
 10
50.0165234801953
 20
-7.407314727719665
 30
0.0
 10
50.01912321973049
 20
-7.405206463452657
 30
0.0
 10
50.02170985376273
 20
-7.403105412636023
 30
0.0
 10
50.02428508527572
 20
-7.401010229245883
 30
0.0
 10
50.02685031302172
 20
-7.398919805884503
 30
0.0
 10
50.02940628194807
 20
-7.396833561997752
 30
0.0
 10
50.03195344724071
 20
-7.394751150718988
 30
0.0
 10
50.03449271067274
 20
-7.392671857012729
 30
0.0
 10
50.03702514682726
 20
-7.390594818964672
 30
0.0
 10
50.0395517663149
 20
-7.388519221475689
 30
0.0
 10
50.04207355820284
 20
-7.38644426227043
 30
0.0
 10
50.04459159920651
 20
-7.384369061485671
 30
0.0
 10
50.04710682921774
 20
-7.382292846275873
 30
0.0
 10
50.04961976354019
 20
-7.380215190249032
 30
0.0
 10
50.05213102772239
 20
-7.378135573299346
 30
0.0
 10
50.0546415607634
 20
-7.376053211758488
 30
0.0
 10
50.05715270720457
 20
-7.373966979527196
 30
0.0
 10
50.05966570917888
 20
-7.371875828438533
 30
0.0
 10
50.06218184784001
 20
-7.369778670999352
 30
0.0
 10
50.0647021799777
 20
-7.367674600072504
 30
0.0
 10
50.0672275260336
 20
-7.365562900195513
 30
0.0
 10
50.06975847475752
 20
-7.363443045605393
 30
0.0
 10
50.07144710003416
 20
-7.36202637030162
 30
0.0
 10
50.07229243431169
 20
-7.361316590499995
 30
0.0
 11
49.95561865681174
 21
-7.45574734859997
 31
0.0
 11
49.9586197846117
 21
-7.453402712500007
 31
0.0
 11
49.96158941001175
 21
-7.451078500899996
 31
0.0
 11
49.9645293362118
 21
-7.448773416999983
 31
0.0
 11
49.96744077311172
 21
-7.446486619300003
 31
0.0
 11
49.97032530461178
 21
-7.444216964899965
 31
0.0
 11
49.9731846954117
 21
-7.441963159400017
 31
0.0
 11
49.9760200199118
 21
-7.439724443499983
 31
0.0
 11
49.97883217131169
 21
-7.437500195799998
 31
0.0
 11
49.98162257501173
 21
-7.435289367400002
 31
0.0
 11
49.98439287271179
 21
-7.433090730000003
 31
0.0
 11
49.98714443581178
 21
-7.430903260999969
 31
0.0
 11
49.98987881211172
 21
-7.428725789699967
 31
0.0
 11
49.9925972383117
 21
-7.426557385699993
 31
0.0
 11
49.99530144331169
 21
-7.424396718100013
 31
0.0
 11
49.99799270311171
 21
-7.422242809499948
 31
0.0
 11
50.00067203421173
 21
-7.420094884099967
 31
0.0
 11
50.00334071551169
 21
-7.417951949499979
 31
0.0
 11
50.00599981421174
 21
-7.415813177199993
 31
0.0
 11
50.00864870031176
 21
-7.413679101299976
 31
0.0
 11
50.01128671591169
 21
-7.411550282000007
 31
0.0
 11
50.01391335631177
 21
-7.40942715899996
 31
0.0
 11
50.01652732611177
 21
-7.407310815199991
 31
0.0
 11
50.01912668651169
 21
-7.405202862900011
 31
0.0
 11
50.02171260231176
 21
-7.403102401299975
 31
0.0
 11
50.02428725601174
 21
-7.4010076948
 31
0.0
 11
50.02685240831164
 21
-7.398917340699995
 31
0.0
 11
50.02940831391168
 21
-7.39683115729997
 31
0.0
 11
50.03195519361174
 21
-7.394748989199968
 31
0.0
 11
50.03449393671172
 21
-7.392670132200009
 31
0.0
 11
50.03702613691172
 21
-7.39059329920002
 31
0.0
 11
50.0395525349117
 21
-7.388517895999996
 31
0.0
 11
50.04207382861176
 21
-7.386443359499992
 31
0.0
 11
50.04459154551176
 21
-7.384368439199988
 31
0.0
 11
50.04710668961178
 21
-7.382292308599971
 31
0.0
 11
50.04961954991171
 21
-7.380214727599991
 31
0.0
 11
50.05213037941172
 21
-7.378135484200015
 31
0.0
 11
50.0546405111117
 21
-7.376053468699979
 31
0.0
 11
50.05715117431162
 21
-7.373967650300016
 31
0.0
 11
50.05966383951175
 21
-7.371876790800001
 31
0.0
 11
50.06217953261165
 21
-7.369780014500008
 31
0.0
 11
50.06469959991176
 21
-7.367676172599999
 31
0.0
 11
50.0672248388118
 21
-7.365564567999967
 31
0.0
 11
50.06975556681169
 21
-7.363444900899992
 31
0.0
 11
50.07229243431169
 21
-7.361316590499995
 31
0.0
  0
SPLINE
  5
55450
330
1F
100
AcDbEntity
  8
1
100
AcDbSpline
210
0.0
220
0.0
230
1.0
 70
     8
 71
     3
 72
    50
 73
    46
 74
    44
 42
0.0000000001
 43
0.0000000001
 44
0.000001
 12
0.8718976318990096
 22
0.4896881859805272
 32
0.0
 13
0.8569386229095025
 23
0.5154184674281334
 33
0.0
 40
0.0
 40
0.0
 40
0.0
 40
0.0
 40
0.0038266521867907
 40
0.0076188981665073
 40
0.0113791029912273
 40
0.0151088530523804
 40
0.0188093602559564
 40
0.022482824321562
 40
0.0261312293713208
 40
0.0297559590207074
 40
0.03335880864068
 40
0.0369419828382134
 40
0.0405067247262261
 40
0.0440537349222409
 40
0.0475844619987148
 40
0.051101254266197
 40
0.0546060886023915
 40
0.0581005956899973
 40
0.0615868267980852
 40
0.0650653452243052
 40
0.0685349477679073
 40
0.0719945870828931
 40
0.0754439394946039
 40
0.0788822053901782
 40
0.082307489010515
 40
0.0857185858779547
 40
0.0891166401844891
 40
0.0925047399659719
 40
0.0958852938796457
 40
0.0992593497415658
 40
0.1026278150211001
 40
0.1059921504899929
 40
0.1093537016506864
 40
0.1127139514822098
 40
0.1160741028573671
 40
0.1194355899350004
 40
0.1227994428036202
 40
0.1261672267792884
 40
0.1295399983326905
 40
0.1329192932248228
 40
0.1363062043070137
 40
0.1397022100900914
 40
0.1431085906918724
 40
0.1465267830494411
 40
0.1499579338786686
 40
0.1499579338786686
 40
0.1499579338786686
 40
0.1499579338786686
 10
49.70243111291171
 20
-7.616324574399982
 30
0.0
 10
49.7035432625716
 20
-7.61569995227741
 30
0.0
 10
49.70575707185566
 20
-7.614455450609924
 30
0.0
 10
49.70906201884026
 20
-7.612594150626662
 30
0.0
 10
49.7123373893018
 20
-7.610746160215398
 30
0.0
 10
49.71558471863199
 20
-7.608910702778331
 30
0.0
 10
49.71880549151563
 20
-7.607087023676342
 30
0.0
 10
49.72200130515983
 20
-7.605274297710977
 30
0.0
 10
49.72517380351388
 20
-7.603471665859757
 30
0.0
 10
49.72832451050516
 20
-7.601678330500121
 30
0.0
 10
49.7314550112523
 20
-7.599893452757555
 30
0.0
 10
49.73456684736214
 20
-7.598116211832049
 30
0.0
 10
49.73766124104457
 20
-7.59634596333646
 30
0.0
 10
49.7407391938977
 20
-7.594582184623334
 30
0.0
 10
49.74380202532876
 20
-7.59282416655634
 30
0.0
 10
49.74685142119795
 20
-7.591070983728272
 30
0.0
 10
49.74988911709687
 20
-7.589321675335028
 30
0.0
 10
49.75291676006833
 20
-7.587575325121292
 30
0.0
 10
49.75593558649342
 20
-7.585831247843415
 30
0.0
 10
49.75894601318003
 20
-7.584089227902495
 30
0.0
 10
49.76194756290823
 20
-7.582349566872878
 30
0.0
 10
49.76493950371054
 20
-7.580612716334442
 30
0.0
 10
49.76792122101705
 20
-7.578879062062455
 30
0.0
 10
49.77089185677352
 20
-7.577149133629674
 30
0.0
 10
49.7738503007684
 20
-7.575423610950622
 30
0.0
 10
49.77679600406685
 20
-7.573702850133514
 30
0.0
 10
49.77972985223397
 20
-7.571986369334254
 30
0.0
 10
49.78265376816096
 20
-7.570273074659766
 30
0.0
 10
49.78556964382454
 20
-7.568561882926459
 30
0.0
 10
49.78847874175625
 20
-7.56685207440752
 30
0.0
 10
49.7913820503897
 20
-7.565143086527385
 30
0.0
 10
49.79428064208804
 20
-7.563434303638643
 30
0.0
 10
49.7971757526937
 20
-7.561725009615031
 30
0.0
 10
49.80006854214747
 20
-7.56001452883035
 30
0.0
 10
49.80296019403119
 20
-7.558302167553094
 30
0.0
 10
49.80585176027506
 20
-7.556587305992323
 30
0.0
 10
49.80874439505981
 20
-7.554869259914397
 30
0.0
 10
49.81163914260054
 20
-7.553147406468681
 30
0.0
 10
49.81453719027621
 20
-7.551421033776961
 30
0.0
 10
49.8174395884077
 20
-7.549689507615568
 30
0.0
 10
49.82034750641713
 20
-7.547952118831517
 30
0.0
 10
49.82326203880091
 20
-7.546208199032463
 30
0.0
 10
49.82618437668901
 20
-7.544457017961931
 30
0.0
 10
49.82911561448628
 20
-7.542697899196411
 30
0.0
 10
49.83107248868958
 20
-7.541521780333937
 30
0.0
 10
49.83205258391177
 20
-7.54093228749997
 30
0.0
 11
49.70243111291171
 21
-7.616324574399982
 31
0.0
 11
49.70576682661175
 21
-7.614449397599969
 31
0.0
 11
49.70907109561171
 21
-7.612588496299963
 31
0.0
 11
49.71234601861175
 21
-7.610740782599975
 31
0.0
 11
49.71559301281178
 21
-7.60890554499997
 31
0.0
 11
49.71881316681169
 21
-7.607082251399958
 31
0.0
 11
49.72200842641171
 21
-7.605269878499996
 31
0.0
 11
49.72518054641176
 21
-7.60346750299999
 31
0.0
 11
49.72833075681177
 21
-7.601674493299981
 31
0.0
 11
49.73146064301175
 21
-7.59989000959996
 31
0.0
 11
49.73457214301169
 21
-7.598113004100014
 31
0.0
 11
49.73766635711166
 21
-7.596342900799982
 31
0.0
 11
49.74074391311177
 21
-7.594579390100022
 31
0.0
 11
49.74380608641166
 21
-7.592821787999923
 31
0.0
 11
49.74685493001169
 21
-7.591068957699974
 31
0.0
 11
49.74989217191176
 21
-7.589319942200006
 31
0.0
 11
49.75291923731169
 21
-7.587573952299976
 31
0.0
 11
49.75593791351179
 21
-7.585829984700012
 31
0.0
 11
49.75894869711175
 21
-7.584087776399996
 31
0.0
 11
49.76195055611168
 21
-7.582347949699965
 31
0.0
 11
49.76494259471173
 21
-7.580611051000005
 31
0.0
 11
49.76792454431171
 21
-7.578877265599999
 31
0.0
 11
49.77089572531173
 21
-7.577147018699974
 31
0.0
 11
49.77385451261165
 21
-7.575421290000008
 31
0.0
 11
49.77679988051176
 21
-7.573700714700009
 31
0.0
 11
49.77973283171166
 21
-7.571984743899975
 31
0.0
 11
49.78265604401173
 21
-7.570271842400018
 31
0.0
 11
49.78557160531176
 21
-7.568560811999986
 31
0.0
 11
49.78848042721171
 21
-7.566851138699973
 31
0.0
 11
49.79138329911172
 21
-7.565142377499967
 31
0.0
 11
49.79428148561163
 21
-7.563433799899939
 31
0.0
 11
49.79717615031171
 21
-7.561724733000005
 31
0.0
 11
49.80006857321171
 21
-7.560014430600006
 31
0.0
 11
49.80295979141175
 21
-7.558302286000014
 31
0.0
 11
49.80585103941172
 21
-7.556587571900024
 31
0.0
 11
49.80874320251172
 21
-7.554869764300008
 31
0.0
 11
49.81163762461171
 21
-7.553148063200012
 31
0.0
 11
49.81453521061173
 21
-7.551421925900001
 31
0.0
 11
49.81743727551173
 21
-7.549690561600016
 31
0.0
 11
49.82034475221173
 21
-7.547953403500002
 31
0.0
 11
49.82325890301166
 21
-7.546209684199993
 31
0.0
 11
49.82618081831168
 21
-7.544458735399985
 31
0.0
 11
49.8291117211117
 21
-7.542699804999983
 31
0.0
 11
49.83205258391177
 21
-7.54093228749997
 31
0.0
  0
SPLINE
  5
55451
330
1F
100
AcDbEntity
  8
1
100
AcDbSpline
210
0.0
220
0.0
230
1.0
 70
     8
 71
     3
 72
    50
 73
    46
 74
    44
 42
0.0000000001
 43
0.0000000001
 44
0.000001
 12
0.9066880912237868
 22
0.4218017368776071
 32
0.0
 13
0.8942370146317001
 23
0.4475937462281896
 33
0.0
 40
0.0
 40
0.0
 40
0.0
 40
0.0
 40
0.003793161666071
 40
0.0075545550647137
 40
0.0112854602876277
 40
0.0149870269920794
 40
0.0186611843900424
 40
0.0223098115957152
 40
0.0259346425940524
 40
0.0295377038887101
 40
0.0331206944723028
 40
0.0366856878239035
 40
0.0402336607746095
 40
0.0437654374672564
 40
0.0472831587458618
 40
0.0507886552825859
 40
0.0542833731113406
 40
0.0577693597576405
 40
0.0612475756867432
 40
0.0647175722435812
 40
0.0681788979666905
 40
0.0716319238233882
 40
0.0750758582148858
 40
0.0785092215573308
 40
0.0819306883398192
 40
0.0853408632882143
 40
0.0887411118112941
 40
0.0921330496337944
 40
0.0955182403315778
 40
0.098897466265
 40
0.1022719236912536
 40
0.1056430903805427
 40
0.1090125092892032
 40
0.1123815145099205
 40
0.1157513569001584
 40
0.1191233086984788
 40
0.1224985917923218
 40
0.1258785764209895
 40
0.1292645618197514
 40
0.1326578432609678
 40
0.1360594920282921
 40
0.1394709915848926
 40
0.142894282563847
 40
0.1463312185546135
 40
0.1497830938506547
 40
0.1497830938506547
 40
0.1497830938506547
 40
0.1497830938506547
 10
49.56756864401171
 20
-7.681482509500028
 30
0.0
 10
49.56871504884856
 20
-7.680949188773695
 30
0.0
 10
49.57099784629377
 20
-7.679886130391992
 30
0.0
 10
49.57440680881581
 20
-7.678295448912308
 30
0.0
 10
49.57778690428523
 20
-7.676715110107295
 30
0.0
 10
49.5811394793862
 20
-7.675144568815269
 30
0.0
 10
49.58446605942771
 20
-7.673583190116545
 30
0.0
 10
49.58776834354734
 20
-7.672030250786207
 30
0.0
 10
49.59104805770022
 20
-7.670485008166011
 30
0.0
 10
49.59430687101548
 20
-7.668946739635913
 30
0.0
 10
49.59754655250271
 20
-7.667414668858441
 30
0.0
 10
49.60076855248138
 20
-7.665888163846702
 30
0.0
 10
49.60397405579652
 20
-7.66436671320757
 30
0.0
 10
49.60716426602579
 20
-7.662849792485928
 30
0.0
 10
49.61034064197787
 20
-7.661336751065888
 30
0.0
 10
49.61350482745405
 20
-7.659826844519585
 30
0.0
 10
49.61665843604084
 20
-7.658319337208951
 30
0.0
 10
49.61980281757536
 20
-7.656813614213234
 30
0.0
 10
49.62293875067672
 20
-7.655309329950966
 30
0.0
 10
49.62606626230211
 20
-7.653806497762843
 30
0.0
 10
49.62918520243789
 20
-7.65230521630751
 30
0.0
 10
49.63229531823578
 20
-7.650805634087873
 30
0.0
 10
49.63539604852991
 20
-7.64930804915258
 30
0.0
 10
49.63848632394018
 20
-7.647813007467703
 30
0.0
 10
49.64156549532248
 20
-7.646320854793827
 30
0.0
 10
49.64463376734688
 20
-7.644831524077716
 30
0.0
 10
49.64769222589183
 20
-7.643344518425536
 30
0.0
 10
49.65074224271717
 20
-7.641859197888067
 30
0.0
 10
49.65378501315393
 20
-7.640375004042937
 30
0.0
 10
49.65682160544628
 20
-7.638891436789975
 30
0.0
 10
49.65985306087048
 20
-7.637408005924442
 30
0.0
 10
49.66288064702206
 20
-7.635924106868372
 30
0.0
 10
49.66590567115367
 20
-7.634439111511881
 30
0.0
 10
49.66892937104666
 20
-7.632952421830225
 30
0.0
 10
49.67195290204376
 20
-7.63146347661582
 30
0.0
 10
49.67497738454909
 20
-7.629971728348692
 30
0.0
 10
49.67800397329114
 20
-7.628476609119289
 30
0.0
 10
49.681033829667
 20
-7.62697754418717
 30
0.0
 10
49.68406813557902
 20
-7.62547394509059
 30
0.0
 10
49.68710798224612
 20
-7.623965264803018
 30
0.0
 10
49.69015451457011
 20
-7.622450926336583
 30
0.0
 10
49.69320906864294
 20
-7.620930254060141
 30
0.0
 10
49.69627321224556
 20
-7.619402452619524
 30
0.0
 10
49.69934845477308
 20
-7.617866750951577
 30
0.0
 10
49.70140218135856
 20
-7.616839586998409
 30
0.0
 10
49.70243111291171
 20
-7.616324574399982
 30
0.0
 11
49.56756864401171
 21
-7.681482509500028
 31
0.0
 11
49.57100724401169
 21
-7.679881223800009
 31
0.0
 11
49.57441582971177
 21
-7.678290736099938
 31
0.0
 11
49.5777955923117
 21
-7.676710578099971
 31
0.0
 11
49.58114760291181
 21
-7.675140332199987
 31
0.0
 11
49.58447363661178
 21
-7.673579245599967
 31
0.0
 11
49.58777542051172
 21
-7.672026580799979
 31
0.0
 11
49.59105454791171
 21
-7.670481656499987
 31
0.0
 11
49.59431287431169
 21
-7.668943661299977
 31
0.0
 11
49.59755195661177
 21
-7.667411918200002
 31
0.0
 11
49.60077368781168
 21
-7.665885584699992
 31
0.0
 11
49.6039789679117
 21
-7.664364283499992
 31
0.0
 11
49.60716855761171
 21
-7.662847699699966
 31
0.0
 11
49.61034440531176
 21
-7.661334949799993
 31
0.0
 11
49.61350817671172
 21
-7.659825277899983
 31
0.0
 11
49.61666118851173
 21
-7.658318089700003
 31
0.0
 11
49.61980529801173
 21
-7.656812526999999
 31
0.0
 11
49.62294138021178
 21
-7.655308197099998
 31
0.0
 11
49.62606903901172
 21
-7.653805315400006
 31
0.0
 11
49.62918787631173
 21
-7.652304099499986
 31
0.0
 11
49.63229823531168
 21
-7.650804410700004
 31
0.0
 11
49.63539941211178
 21
-7.649306615300019
 31
0.0
 11
49.63849008451171
 21
-7.647811381200028
 31
0.0
 11
49.64156907071168
 21
-7.646319312599985
 31
0.0
 11
49.64463692651174
 21
-7.644830172999945
 31
0.0
 11
49.64769489111171
 21
-7.6433433917
 31
0.0
 11
49.65074442711176
 21
-7.641858284899967
 31
0.0
 11
49.65378694841177
 21
-7.640374187799977
 31
0.0
 11
49.65682316541171
 21
-7.638890775200025
 31
0.0
 11
49.65985415931169
 21
-7.637407537900003
 31
0.0
 11
49.6628812628117
 21
-7.635923840100019
 31
0.0
 11
49.66590586541173
 21
-7.634439013699989
 31
0.0
 11
49.66892916771172
 21
-7.632952479700009
 31
0.0
 11
49.67195229401176
 21
-7.631463692500005
 31
0.0
 11
49.67497638661171
 21
-7.629972094599963
 31
0.0
 11
49.67800254131174
 21
-7.628477148000001
 31
0.0
 11
49.68103198551165
 21
-7.626978246100009
 31
0.0
 11
49.68406588161172
 21
-7.625474811000003
 31
0.0
 11
49.68710538711178
 21
-7.623966263799957
 31
0.0
 11
49.69015145761176
 21
-7.622452122600009
 31
0.0
 11
49.69320541651171
 21
-7.620931719400005
 31
0.0
 11
49.69626899491169
 21
-7.619404179299976
 31
0.0
 11
49.6993438440117
 21
-7.61786866220001
 31
0.0
 11
49.70243111291171
 21
-7.616324574399982
 31
0.0
  0
SPLINE
  5
55452
330
1F
100
AcDbEntity
  8
1
100
AcDbSpline
210
0.0
220
0.0
230
1.0
 70
     8
 71
     3
 72
    49
 73
    45
 74
    43
 42
0.0000000001
 43
0.0000000001
 44
0.000001
 12
0.9364146143909358
 22
0.350895525698284
 32
0.0
 13
0.9259554466453787
 23
0.3776327724493163
 33
0.0
 40
0.0
 40
0.0
 40
0.0
 40
0.0
 40
0.0038460350594665
 40
0.0076609158825612
 40
0.0114466913095747
 40
0.0152044177068823
 40
0.0189353092857857
 40
0.022641375260721
 40
0.0263247003440694
 40
0.0299872254774569
 40
0.0336308598313655
 40
0.0372572393225455
 40
0.0408680250843174
 40
0.0444642037377519
 40
0.0480473613076997
 40
0.0516200906828299
 40
0.055185058884946
 40
0.0587443049346559
 40
0.0622976923462316
 40
0.0658438551924148
 40
0.0693819574837899
 40
0.0729118761622056
 40
0.076432877115348
 40
0.0799431675650507
 40
0.083441424433375
 40
0.0869283295645635
 40
0.0904065102178894
 40
0.093878227351031
 40
0.0973447925110008
 40
0.100807204062018
 40
0.1042669623636066
 40
0.1077254572350302
 40
0.1111841840380578
 40
0.1146443890396802
 40
0.1181074971671974
 40
0.1215747381518033
 40
0.1250477422079083
 40
0.1285279641386653
 40
0.1320169198613501
 40
0.1355154992010072
 40
0.1390251464044511
 40
0.1425472752202244
 40
0.1460831065779639
 40
0.1496342896261318
 40
0.1496342896261318
 40
0.1496342896261318
 40
0.1496342896261318
 10
49.42824560931166
 20
-7.736053331899995
 30
0.0
 10
49.42944610379067
 20
-7.735603479735317
 30
0.0
 10
49.43183700770004
 20
-7.73470645665894
 30
0.0
 10
49.43540834714696
 20
-7.733363302037091
 30
0.0
 10
49.43895108214196
 20
-7.732027714694197
 30
0.0
 10
49.44246658599166
 20
-7.730699262541364
 30
0.0
 10
49.44595621794127
 20
-7.729377513152599
 30
0.0
 10
49.44942165586093
 20
-7.728061907257881
 30
0.0
 10
49.45286480184524
 20
-7.72675179335394
 30
0.0
 10
49.4562875245046
 20
-7.725446525407164
 30
0.0
 10
49.45969155047492
 20
-7.72414550466216
 30
0.0
 10
49.46307851725845
 20
-7.722848160146625
 30
0.0
 10
49.46644977336877
 20
-7.721554025910478
 30
0.0
 10
49.46980665025165
 20
-7.72026263773688
 30
0.0
 10
49.47315076764829
 20
-7.718973415590525
 30
0.0
 10
49.47648426587392
 20
-7.717685572414481
 30
0.0
 10
49.4798094236001
 20
-7.716398260114772
 30
0.0
 10
49.48312766882526
 20
-7.715110953131997
 30
0.0
 10
49.48643917517262
 20
-7.713823609253907
 30
0.0
 10
49.48974322333237
 20
-7.712536534124126
 30
0.0
 10
49.49303909900942
 20
-7.711250033816341
 30
0.0
 10
49.49632628472312
 20
-7.709964339307347
 30
0.0
 10
49.4996039665528
 20
-7.708679799105553
 30
0.0
 10
49.50287095918264
 20
-7.707396910185337
 30
0.0
 10
49.50612651779369
 20
-7.706115999851732
 30
0.0
 10
49.50937126887101
 20
-7.704836856500392
 30
0.0
 10
49.5126069491111
 20
-7.703558827148086
 30
0.0
 10
49.51583548841568
 20
-7.702281176469298
 30
0.0
 10
49.51905831000925
 20
-7.701003364260131
 30
0.0
 10
49.52227660011357
 20
-7.699724940345163
 30
0.0
 10
49.52549156798358
 20
-7.69844544177792
 30
0.0
 10
49.52870457549607
 20
-7.697164341011784
 30
0.0
 10
49.53191690450643
 20
-7.695881138425747
 30
0.0
 10
49.53512984645198
 20
-7.694595326790206
 30
0.0
 10
49.53834460931211
 20
-7.693306428600777
 30
0.0
 10
49.54156251862554
 20
-7.692013915618886
 30
0.0
 10
49.54478490785771
 20
-7.69071725260072
 30
0.0
 10
49.54801319761412
 20
-7.68941586529273
 30
0.0
 10
49.5512485782703
 20
-7.688109268407302
 30
0.0
 10
49.55449223579449
 20
-7.686796975139969
 30
0.0
 10
49.55774532345805
 20
-7.685478508684937
 30
0.0
 10
49.56100909562696
 20
-7.684153347843277
 30
0.0
 10
49.56428486869294
 20
-7.682820942706129
 30
0.0
 10
49.56647256491663
 20
-7.681929523866685
 30
0.0
 10
49.56756864401171
 20
-7.681482509500028
 30
0.0
 11
49.42824560931166
 21
-7.736053331899995
 31
0.0
 11
49.43184655451176
 21
-7.734702334500013
 31
0.0
 11
49.43541726511165
 21
-7.733359434600004
 31
0.0
 11
49.4389596854117
 21
-7.732023990199991
 31
0.0
 11
49.44247482891177
 21
-7.730695703200012
 31
0.0
 11
49.44596385541166
 21
-7.729374215599989
 31
0.0
 11
49.4494286663118
 21
-7.728058882399977
 31
0.0
 11
49.45287123141174
 21
-7.726749025599985
 31
0.0
 11
49.45629338381166
 21
-7.725444011799993
 31
0.0
 11
49.45969692481168
 21
-7.72414321299999
 31
0.0
 11
49.46308339851174
 21
-7.722846093300006
 31
0.0
 11
49.46645437081173
 21
-7.721552102899977
 31
0.0
 11
49.4698107763117
 21
-7.720260929299968
 31
0.0
 11
49.47315410781169
 21
-7.718972041299991
 31
0.0
 11
49.47648679551178
 21
-7.717684539900005
 31
0.0
 11
49.47981133611171
 21
-7.716397492299961
 31
0.0
 11
49.48312963821178
 21
-7.715110185900016
 31
0.0
 11
49.48644158091173
 21
-7.713822691500013
 31
0.0
 11
49.48974589811172
 21
-7.712535527
 31
0.0
 11
49.49304181861174
 21
-7.711249020600007
 31
0.0
 11
49.49632923601171
 21
-7.709963242799972
 31
0.0
 11
49.49960747511176
 21
-7.708678487199961
 31
0.0
 11
49.50287487621171
 21
-7.70739543649995
 31
0.0
 11
49.50613021841167
 21
-7.706114605599964
 31
0.0
 11
49.50937414701178
 21
-7.704835776399988
 31
0.0
 11
49.5126091158117
 21
-7.703558013699989
 31
0.0
 11
49.5158372355117
 21
-7.702280510599962
 31
0.0
 11
49.51905973231174
 21
-7.70100280509996
 31
0.0
 11
49.52227754001177
 21
-7.699724547299979
 31
0.0
 11
49.52549205801171
 21
-7.698445199499985
 31
0.0
 11
49.52870458151171
 21
-7.697164261000011
 31
0.0
 11
49.5319165025117
 21
-7.695881188800001
 31
0.0
 11
49.5351289804118
 21
-7.694595528999968
 31
0.0
 11
49.53834333931166
 21
-7.693306758299968
 31
0.0
 11
49.54156072091172
 21
-7.692014422900001
 31
0.0
 11
49.5447826373117
 21
-7.690717916599965
 31
0.0
 11
49.54801043651167
 21
-7.689416695200009
 31
0.0
 11
49.55124552191176
 21
-7.688110188400003
 31
0.0
 11
49.55448871521179
 21
-7.686798057399983
 31
0.0
 11
49.55774135121163
 21
-7.6854797533
 31
0.0
 11
49.56100473511168
 21
-7.684154735300012
 31
0.0
 11
49.56427999241174
 21
-7.682822532499983
 31
0.0
 11
49.56756864401171
 21
-7.681482509500028
 31
0.0
  0
SPLINE
  5
55453
330
1F
100
AcDbEntity
  8
1
100
AcDbSpline
210
0.0
220
0.0
230
1.0
 70
     8
 71
     3
 72
    49
 73
    45
 74
    43
 42
0.0000000001
 43
0.0000000001
 44
0.000001
 12
0.9607854318751073
 22
0.2772929027158177
 32
0.0
 13
0.952057805278107
 23
0.3059181841751711
 33
0.0
 40
0.0
 40
0.0
 40
0.0
 40
0.0
 40
0.0038090210519475
 40
0.0075889165281761
 40
0.0113417217658111
 40
0.0150684339345073
 40
0.0187704499283906
 40
0.02244990683037
 40
0.0261088218166669
 40
0.0297483823522736
 40
0.033370345860127
 40
0.0369769236389015
 40
0.0405690460953358
 40
0.0441474496385912
 40
0.047713493299576
 40
0.0512693128630317
 40
0.0548166300582946
 40
0.0583578259003776
 40
0.0618947920245468
 40
0.065428494162583
 40
0.0689571018732697
 40
0.0724786644233892
 40
0.0759924933937728
 40
0.0794980231318217
 40
0.0829941921820965
 40
0.0864810370488318
 40
0.0899602303919007
 40
0.0934327733543609
 40
0.0969000125342612
 40
0.1003640810683428
 40
0.1038262892595067
 40
0.1072884701687562
 40
0.1107518175843432
 40
0.1142179510584468
 40
0.1176875692289818
 40
0.121162267418774
 40
0.1246440910119353
 40
0.1281351149778226
 40
0.1316369112830533
 40
0.1351495443390752
 40
0.1386730263752982
 40
0.1422081427311379
 40
0.1457573019979531
 40
0.1493224963186152
 40
0.1493224963186152
 40
0.1493224963186152
 40
0.1493224963186152
 10
49.28544303401173
 20
-7.779676353000013
 30
0.0
 10
49.28666291799055
 20
-7.779324281498674
 30
0.0
 10
49.28909306174586
 20
-7.778621803170821
 30
0.0
 10
49.29272405792409
 20
-7.777568898109052
 30
0.0
 10
49.29632783691869
 20
-7.776520650889949
 30
0.0
 10
49.29990583661009
 20
-7.775476727707996
 30
0.0
 10
49.30345952602187
 20
-7.774436779734173
 30
0.0
 10
49.30699069883138
 20
-7.773400356528753
 30
0.0
 10
49.31050107990955
 20
-7.772367020650463
 30
0.0
 10
49.31399227109472
 20
-7.77133636445977
 30
0.0
 10
49.31746593475605
 20
-7.770307956437321
 30
0.0
 10
49.32092364947283
 20
-7.769281383549852
 30
0.0
 10
49.3243666661636
 20
-7.768256324600045
 30
0.0
 10
49.32779596245433
 20
-7.767232535762076
 30
0.0
 10
49.33121289996478
 20
-7.766209654619032
 30
0.0
 10
49.33461915357196
 20
-7.765187219682857
 30
0.0
 10
49.338016722816
 20
-7.764164665914137
 30
0.0
 10
49.34140752755723
 20
-7.763141445711426
 30
0.0
 10
49.34479324473869
 20
-7.76211707859457
 30
0.0
 10
49.34817420654207
 20
-7.761091486836136
 30
0.0
 10
49.35154951965995
 20
-7.760064964863488
 30
0.0
 10
49.35491776435793
 20
-7.759037971009746
 30
0.0
 10
49.35827792527908
 20
-7.758010844130552
 30
0.0
 10
49.36162927126253
 20
-7.756983838615099
 30
0.0
 10
49.36497130276217
 20
-7.755957139764234
 30
0.0
 10
49.36830423369571
 20
-7.754930714437236
 30
0.0
 10
49.37162893459737
 20
-7.753904325453007
 30
0.0
 10
49.37494669234485
 20
-7.752877603669631
 30
0.0
 10
49.37825893936741
 20
-7.751850130919052
 30
0.0
 10
49.38156720525256
 20
-7.750821454286182
 30
0.0
 10
49.38487317310904
 20
-7.749791068339817
 30
0.0
 10
49.38817822582899
 20
-7.748758556601416
 30
0.0
 10
49.39148384354059
 20
-7.747723468064066
 30
0.0
 10
49.39479114441491
 20
-7.746685461151685
 30
0.0
 10
49.39810137341095
 20
-7.745644151230976
 30
0.0
 10
49.40141590990112
 20
-7.74459910788255
 30
0.0
 10
49.40473656954299
 20
-7.743549758697099
 30
0.0
 10
49.40806515908917
 20
-7.742495528904129
 30
0.0
 10
49.41140285449108
 20
-7.741436039005989
 30
0.0
 10
49.41475017563988
 20
-7.740371115317458
 30
0.0
 10
49.41810739232465
 20
-7.739300662928286
 30
0.0
 10
49.42147551845568
 20
-7.738224348461514
 30
0.0
 10
49.42485619555435
 20
-7.73714163448497
 30
0.0
 10
49.42711418561822
 20
-7.736416884490935
 30
0.0
 10
49.42824560931166
 20
-7.736053331899995
 30
0.0
 11
49.28544303401173
 21
-7.779676353000013
 31
0.0
 11
49.28910224431177
 21
-7.778618600900017
 31
0.0
 11
49.29273259881171
 21
-7.77756589759997
 31
0.0
 11
49.2963360728117
 21
-7.776517759
 31
0.0
 11
49.29991364311167
 21
-7.775473984500024
 31
0.0
 11
49.30346666901169
 21
-7.774434256599988
 31
0.0
 11
49.30699721871173
 21
-7.773398044099963
 31
0.0
 11
49.31050724341179
 21
-7.772364842299964
 31
0.0
 11
49.31399789671167
 21
-7.771334374599973
 31
0.0
 11
49.3174708776117
 21
-7.770306198299977
 31
0.0
 11
49.32092831861172
 21
-7.76927973559998
 31
0.0
 11
49.32437112271173
 21
-7.768254767499968
 31
0.0
 11
49.32780000631175
 21
-7.767231127699972
 31
0.0
 11
49.33121628161171
 21
-7.766208468700028
 31
0.0
 11
49.33462200351169
 21
-7.765186215100015
 31
0.0
 11
49.33801882871176
 21
-7.7641639048
 31
0.0
 11
49.34140904351164
 21
-7.76314087969996
 31
0.0
 11
49.34479446391168
 21
-7.762116616900016
 31
0.0
 11
49.34817601841172
 21
-7.761090857199974
 31
0.0
 11
49.35155195981173
 21
-7.760064153099961
 31
0.0
 11
49.35492042751178
 21
-7.759037097399982
 31
0.0
 11
49.35828076951174
 21
-7.75800991829999
 31
0.0
 11
49.36163245181177
 21
-7.756982809799978
 31
0.0
 11
49.36497446701167
 21
-7.755956112999967
 31
0.0
 11
49.36830685781178
 21
-7.754929848100005
 31
0.0
 11
49.3716312300117
 21
-7.753903551599989
 31
0.0
 11
49.37494854671166
 21
-7.752876954399994
 31
0.0
 11
49.37826010011173
 21
-7.751849682099987
 31
0.0
 11
49.38156793231172
 21
-7.750821122800005
 31
0.0
 11
49.38487329831168
 21
-7.74979090429997
 31
0.0
 11
49.38817795101176
 21
-7.748758494900016
 31
0.0
 11
49.39148303201176
 21
-7.747723549800014
 31
0.0
 11
49.39479008821177
 21
-7.746685593599977
 31
0.0
 11
49.3980997869117
 21
-7.745644423499982
 31
0.0
 11
49.40141365011169
 21
-7.744599565399994
 31
0.0
 11
49.40473362761173
 21
-7.743550405199982
 31
0.0
 11
49.40806169601177
 21
-7.742496315300002
 31
0.0
 11
49.41139935091172
 21
-7.741436815200017
 31
0.0
 11
49.4147466504117
 21
-7.740371878500013
 31
0.0
 11
49.41810360291168
 21
-7.739301494599999
 31
0.0
 11
49.42147095321178
 21
-7.738225417399974
 31
0.0
 11
49.4248509914118
 21
-7.737142903699975
 31
0.0
 11
49.42824560931166
 21
-7.736053331899995
 31
0.0
  0
SPLINE
  5
55454
330
1F
100
AcDbEntity
  8
1
100
AcDbSpline
210
0.0
220
0.0
230
1.0
 70
     8
 71
     3
 72
    49
 73
    45
 74
    43
 42
0.0000000001
 43
0.0000000001
 44
0.000001
 12
0.9795221475833338
 22
0.2013364407993085
 32
0.0
 13
0.972518927683026
 23
0.2328238288884051
 33
0.0
 40
0.0
 40
0.0
 40
0.0
 40
0.0
 40
0.0037781183460146
 40
0.0075288752596645
 40
0.0112543888829467
 40
0.0149560208887035
 40
0.0186350866264123
 40
0.0222936588485689
 40
0.0259338857648625
 40
0.0295568667187805
 40
0.0331639354630743
 40
0.0367570642840015
 40
0.0403379844215638
 40
0.0439071680658808
 40
0.047465296395338
 40
0.051013893866901
 40
0.0545554367690628
 40
0.0580918939767081
 40
0.061624554895587
 40
0.065153319150974
 40
0.0686777684785407
 40
0.072195867538743
 40
0.0757058293554653
 40
0.0792071371415735
 40
0.0826995079374746
 40
0.0861841845769552
 40
0.0896627105747152
 40
0.0931367420156403
 40
0.096607195182788
 40
0.1000757607436051
 40
0.1035440699647004
 40
0.1070140045167268
 40
0.1104862708135661
 40
0.1139613979479696
 40
0.1174410916653276
 40
0.1209269617409372
 40
0.1244201290387978
 40
0.1279226392495159
 40
0.1314362341279531
 40
0.134961641485611
 40
0.13849965349288
 40
0.1420520170066402
 40
0.1456202720119394
 40
0.1492047024431674
 40
0.1492047024431674
 40
0.1492047024431674
 40
0.1492047024431674
 10
49.13982444351171
 20
-7.812162323099983
 30
0.0
 10
49.14105802704369
 20
-7.811908765466412
 30
0.0
 10
49.14351602944868
 20
-7.811402362145202
 30
0.0
 10
49.14718963744377
 20
-7.810642044936187
 30
0.0
 10
49.1508376016015
 20
-7.809883628734468
 30
0.0
 10
49.15446150097517
 20
-7.809126870842362
 30
0.0
 10
49.15806289868732
 20
-7.808371525243202
 30
0.0
 10
49.1616436131855
 20
-7.807617285370724
 30
0.0
 10
49.1652053910721
 20
-7.806863852209943
 30
0.0
 10
49.16874973673026
 20
-7.806110971348601
 30
0.0
 10
49.17227809614695
 20
-7.80535839511856
 30
0.0
 10
49.17579212019558
 20
-7.804605826166039
 30
0.0
 10
49.17929317777117
 20
-7.803853021393805
 30
0.0
 10
49.18278221617578
 20
-7.80309982382073
 30
0.0
 10
49.18626011475049
 20
-7.802346087893099
 30
0.0
 10
49.18972840495524
 20
-7.801591522679075
 30
0.0
 10
49.19318903646893
 20
-7.800835740117051
 30
0.0
 10
49.19664388106463
 20
-7.800078362323333
 30
0.0
 10
49.20009397047255
 20
-7.799319190146505
 30
0.0
 10
49.20353955882939
 20
-7.798558193038815
 30
0.0
 10
49.20697981822598
 20
-7.797795579788726
 30
0.0
 10
49.21041337262403
 20
-7.797031683989146
 30
0.0
 10
49.2138388149736
 20
-7.796266850808009
 30
0.0
 10
49.21725530913585
 20
-7.795501301531132
 30
0.0
 10
49.22066300480191
 20
-7.794735037809488
 30
0.0
 10
49.22406272143797
 20
-7.793967909181304
 30
0.0
 10
49.22745590827088
 20
-7.793199619383145
 30
0.0
 10
49.23084390740888
 20
-7.792429891726627
 30
0.0
 10
49.23422810792573
 20
-7.791658434618113
 30
0.0
 10
49.23760988995053
 20
-7.790884954254892
 30
0.0
 10
49.24099094633191
 20
-7.790109080640732
 30
0.0
 10
49.24437264910949
 20
-7.789330512495723
 30
0.0
 10
49.24775601150662
 20
-7.788549027404329
 30
0.0
 10
49.25114198905652
 20
-7.787764413646215
 30
0.0
 10
49.25453182998222
 20
-7.786976388585145
 30
0.0
 10
49.25792697377193
 20
-7.786184621104084
 30
0.0
 10
49.26132896936991
 20
-7.785388750434549
 30
0.0
 10
49.2647394075837
 20
-7.784588401580577
 30
0.0
 10
49.26815975065398
 20
-7.783783225137511
 30
0.0
 10
49.27159105330241
 20
-7.782972964046109
 30
0.0
 10
49.27503437131185
 20
-7.782157358364287
 30
0.0
 10
49.27849102319425
 20
-7.781336082752204
 30
0.0
 10
49.28196216177906
 20
-7.780508847568512
 30
0.0
 10
49.28428105853203
 20
-7.779954533272473
 30
0.0
 10
49.28544303401173
 20
-7.779676353000013
 30
0.0
 11
49.13982444351171
 21
-7.812162323099983
 31
0.0
 11
49.14352485051171
 21
-7.811399965499958
 31
0.0
 11
49.14719777601175
 21
-7.810639796700002
 31
0.0
 11
49.15084530851169
 21
-7.809881476300006
 31
0.0
 11
49.15446879451173
 21
-7.809124810000014
 31
0.0
 11
49.15806953421173
 21
-7.808369607200006
 31
0.0
 11
49.16164956791175
 21
-7.807615515099996
 31
0.0
 11
49.1652110083117
 21
-7.806862157499949
 31
0.0
 11
49.16875494071172
 21
-7.806109368500017
 31
0.0
 11
49.1722826789117
 21
-7.805356928899982
 31
0.0
 11
49.1757961601117
 21
-7.80460448040003
 31
0.0
 11
49.17929708451168
 21
-7.803851708399974
 31
0.0
 11
49.1827859206117
 21
-7.803098558700014
 31
0.0
 11
49.18626334081176
 21
-7.802344930599986
 31
0.0
 11
49.18973084101168
 21
-7.801590541200027
 31
0.0
 11
49.19319084601164
 21
-7.800834899300014
 31
0.0
 11
49.19664528331162
 21
-7.800077614299993
 31
0.0
 11
49.20009541561165
 21
-7.799318435700001
 31
0.0
 11
49.20354114791172
 21
-7.798557409499949
 31
0.0
 11
49.20698207501169
 21
-7.797794650799971
 31
0.0
 11
49.21041621361172
 21
-7.797030627200001
 31
0.0
 11
49.21384182431172
 21
-7.796265758499998
 31
0.0
 11
49.21725840821176
 21
-7.795500190999973
 31
0.0
 11
49.2206656949117
 21
-7.794734020899966
 31
0.0
 11
49.22406490251177
 21
-7.793967008700008
 31
0.0
 11
49.22745754151168
 21
-7.793198844299979
 31
0.0
 11
49.23084523121173
 21
-7.792429187999914
 31
0.0
 11
49.23422886871179
 21
-7.791657860200018
 31
0.0
 11
49.23761010531172
 21
-7.790884505300027
 31
0.0
 11
49.24099053341177
 21
-7.790108776299973
 31
0.0
 11
49.24437198841173
 21
-7.789330265300009
 31
0.0
 11
49.2477551596117
 21
-7.788548824299994
 31
0.0
 11
49.25114056311173
 21
-7.787764343099979
 31
0.0
 11
49.25452986081172
 21
-7.786976443599996
 31
0.0
 11
49.25792462011173
 21
-7.786184764799997
 31
0.0
 11
49.2613259314117
 21
-7.785389052799985
 31
0.0
 11
49.26473578491169
 21
-7.784588839799994
 31
0.0
 11
49.26815587371169
 21
-7.783783722099997
 31
0.0
 11
49.2715869032117
 21
-7.782973524999988
 31
0.0
 11
49.27502964111176
 21
-7.78215805740001
 31
0.0
 11
49.27848578341166
 21
-7.781336905099976
 31
0.0
 11
49.28195682391169
 21
-7.780509697599995
 31
0.0
 11
49.28544303401173
 21
-7.779676353000013
 31
0.0
  0
SPLINE
  5
55455
330
1F
100
AcDbEntity
  8
1
100
AcDbSpline
210
0.0
220
0.0
230
1.0
 70
     8
 71
     3
 72
    55
 73
    51
 74
    49
 42
0.0000000001
 43
0.0000000001
 44
0.000001
 12
0.9931926428111824
 22
0.1164833647596908
 32
0.0
 13
0.9873221771971614
 23
0.1587290723675311
 33
0.0
 40
0.0
 40
0.0
 40
0.0
 40
0.0
 40
0.0039781547715506
 40
0.0079199905754695
 40
0.0118267108004649
 40
0.0157002888130132
 40
0.0195428372773523
 40
0.0233558358218499
 40
0.0271409172068084
 40
0.0309003791846649
 40
0.0346358850828117
 40
0.0383482631655935
 40
0.0420386838090111
 40
0.0457090412595202
 40
0.0493611783578228
 40
0.0529969474582253
 40
0.0566181715424828
 40
0.0602267785031978
 40
0.0638245808802968
 40
0.0674125317925834
 40
0.0709916537883161
 40
0.0745638152571272
 40
0.0781305959375121
 40
0.0816926432032916
 40
0.0852510524039182
 40
0.0888068731815887
 40
0.0923595850256429
 40
0.0959076250756398
 40
0.0994499182976078
 40
0.1029864166256573
 40
0.1065170052502109
 40
0.1100409765370547
 40
0.1135590525370968
 40
0.1170729665260093
 40
0.1205840234838178
 40
0.12409409669472
 40
0.1276048374083663
 40
0.1311166331394366
 40
0.1346303309291674
 40
0.1381476221381299
 40
0.1416703185703167
 40
0.1452001918145498
 40
0.1487388835360551
 40
0.1522880328166809
 40
0.1558486180761099
 40
0.159421462305847
 40
0.1630081807733562
 40
0.1666101188296396
 40
0.170228240751686
 40
0.173864227762453
 40
0.173864227762453
 40
0.173864227762453
 40
0.173864227762453
 10
48.96765387401178
 20
-7.836276157199961
 30
0.0
 10
48.96897089869543
 20
-7.836121694248859
 30
0.0
 10
48.97159275157918
 20
-7.83581270504429
 30
0.0
 10
48.97550737886053
 20
-7.835346946228824
 30
0.0
 10
48.97938688338382
 20
-7.834881056009322
 30
0.0
 10
48.98323302734019
 20
-7.834414960291923
 30
0.0
 10
48.98704766350244
 20
-7.833948563724959
 30
0.0
 10
48.99083253104078
 20
-7.83348177506545
 30
0.0
 10
48.99458942953464
 20
-7.833014486549387
 30
0.0
 10
48.99832021842661
 20
-7.832546573542131
 30
0.0
 10
49.00202649020042
 20
-7.832077935870245
 30
0.0
 10
49.00570946384829
 20
-7.831608513472303
 30
0.0
 10
49.00937043416838
 20
-7.831138230610122
 30
0.0
 10
49.01301103071893
 20
-7.830666961672434
 30
0.0
 10
49.01663310767713
 20
-7.830194544073094
 30
0.0
 10
49.02023849479014
 20
-7.829720810319116
 30
0.0
 10
49.02382904904965
 20
-7.829245581469336
 30
0.0
 10
49.02740661341846
 20
-7.828768672679018
 30
0.0
 10
49.03097274261887
 20
-7.828289930242974
 30
0.0
 10
49.03452869161646
 20
-7.827809234840017
 30
0.0
 10
49.03807573328851
 20
-7.827326459888411
 30
0.0
 10
49.04161534685562
 20
-7.826841445336071
 30
0.0
 10
49.04514888694774
 20
-7.826354042407587
 30
0.0
 10
49.04867745237783
 20
-7.825864132931343
 30
0.0
 10
49.05220196650128
 20
-7.82537161932656
 30
0.0
 10
49.05572296674979
 20
-7.824876454715408
 30
0.0
 10
49.05924011304813
 20
-7.824378714628863
 30
0.0
 10
49.06275236446771
 20
-7.823878576100668
 30
0.0
 10
49.06625883655891
 20
-7.82337619748317
 30
0.0
 10
49.06975912305648
 20
-7.822871670811508
 30
0.0
 10
49.07325293909531
 20
-7.822365071436223
 30
0.0
 10
49.07674025402451
 20
-7.821856438497874
 30
0.0
 10
49.0802216467485
 20
-7.821345721564142
 30
0.0
 10
49.08369835954198
 20
-7.820832769631266
 30
0.0
 10
49.08717201367614
 20
-7.820317370920506
 30
0.0
 10
49.0906442026457
 20
-7.819799312337494
 30
0.0
 10
49.09411621676412
 20
-7.819278420832404
 30
0.0
 10
49.09758900754758
 20
-7.818754570453478
 30
0.0
 10
49.10106353935811
 20
-7.81822763049935
 30
0.0
 10
49.10454124544327
 20
-7.817697395465785
 30
0.0
 10
49.1080238629965
 20
-7.817163608485003
 30
0.0
 10
49.11151311204429
 20
-7.816626009860925
 30
0.0
 10
49.11501065494093
 20
-7.816084343532551
 30
0.0
 10
49.11851789204701
 20
-7.815538389175173
 30
0.0
 10
49.12203595349575
 20
-7.814987964632237
 30
0.0
 10
49.12556596110807
 20
-7.814432885942181
 30
0.0
 10
49.12910915700837
 20
-7.813872946822385
 30
0.0
 10
49.1326668292599
 20
-7.813307929934836
 30
0.0
 10
49.13624028704106
 20
-7.812737610990964
 30
0.0
 10
49.13862781330777
 20
-7.812354702048438
 30
0.0
 10
49.13982444351171
 20
-7.812162323099983
 30
0.0
 11
48.96765387401178
 21
-7.836276157199961
 31
0.0
 11
48.97160469421175
 21
-7.835810554799991
 31
0.0
 11
48.9755189390118
 21
-7.835344837099967
 31
0.0
 11
48.97939781401174
 21
-7.83487900839998
 31
0.0
 11
48.98324328871166
 21
-7.83441297180002
 31
0.0
 11
48.98705747011167
 21
-7.833946602999958
 31
0.0
 11
48.99084183601172
 21
-7.833479843899965
 31
0.0
 11
48.99459801561175
 21
-7.833012609499974
 31
0.0
 11
48.9983282972118
 21
-7.832544723000012
 31
0.0
 11
49.00203433871166
 21
-7.832076076500015
 31
0.0
 11
49.00571696901176
 21
-7.831606660100021
 31
0.0
 11
49.00937735601172
 21
-7.831136415300022
 31
0.0
 11
49.01301738501178
 21
-7.830665184599979
 31
0.0
 11
49.01663888951174
 21
-7.830192808700019
 31
0.0
 11
49.02024371161172
 21
-7.829719118799971
 31
0.0
 11
49.02383366351177
 21
-7.829243942299967
 31
0.0
 11
49.02741066061179
 21
-7.828767085200013
 31
0.0
 11
49.03097650311173
 21
-7.828288360899989
 31
0.0
 11
49.0345321388117
 21
-7.827807691299994
 31
0.0
 11
49.03807858391172
 21
-7.827324984799986
 31
0.0
 11
49.04161769221167
 21
-7.826840030799985
 31
0.0
 11
49.04515103071179
 21
-7.826352650899991
 31
0.0
 11
49.04867924231172
 21
-7.825862789700011
 31
0.0
 11
49.0522034133117
 21
-7.825370326999973
 31
0.0
 11
49.05572458431169
 21
-7.824875144999964
 31
0.0
 11
49.05924224091172
 21
-7.824377342700017
 31
0.0
 11
49.06275483721168
 21
-7.823877168299986
 31
0.0
 11
49.06626131101171
 21
-7.823374805599996
 31
0.0
 11
49.06976161711174
 21
-7.822870294799997
 31
0.0
 11
49.07325564441174
 21
-7.822363685899972
 31
0.0
 11
49.07674269541172
 21
-7.821855115099992
 31
0.0
 11
49.08022348741173
 21
-7.821344512099983
 31
0.0
 11
49.08369973781174
 21
-7.820831656299958
 31
0.0
 11
49.08717273961173
 21
-7.820316384199998
 31
0.0
 11
49.09064434731175
 21
-7.819798443899969
 31
0.0
 11
49.09411619501174
 21
-7.819277610299991
 31
0.0
 11
49.09758866661167
 21
-7.818753842099965
 31
0.0
 11
49.10106260021172
 21
-7.818227027700004
 31
0.0
 11
49.10453966821177
 21
-7.817696925300026
 31
0.0
 11
49.10802166131174
 21
-7.817163269399998
 31
0.0
 11
49.11151032971173
 21
-7.816625795200025
 31
0.0
 11
49.11500729451171
 21
-7.816084252699965
 31
0.0
 11
49.11851417351176
 21
-7.815538387000003
 31
0.0
 11
49.12203193121166
 21
-7.814988041099979
 31
0.0
 11
49.12556137821178
 21
-7.814433079399975
 31
0.0
 11
49.12910410731178
 21
-7.813873239899976
 31
0.0
 11
49.13266144411176
 21
-7.813308298499975
 31
0.0
 11
49.13623433741162
 21
-7.812738087599996
 31
0.0
 11
49.13982444351171
 21
-7.812162323099983
 31
0.0
  0
SPLINE
  5
55456
330
1F
100
AcDbEntity
  8
1
100
AcDbSpline
210
0.0
220
0.0
230
1.0
 70
     8
 71
     3
 72
    11
 73
     7
 74
     5
 42
0.0000000001
 43
0.0000000001
 44
0.000001
 12
-0.9995613952663033
 22
0.0296144743880585
 32
0.0
 13
-0.9995142668509302
 23
0.0311645690078932
 33
0.0
 40
0.0
 40
0.0
 40
0.0
 40
0.0
 40
0.14094448087595
 40
0.2820690479441856
 40
0.4233653547943872
 40
0.5648249769262418
 40
0.5648249769262418
 40
0.5648249769262418
 40
0.5648249769262418
 10
45.2007499009116
 20
-7.824664160199972
 30
0.0
 10
45.15378901359184
 20
-7.823272827960295
 30
0.0
 10
45.05980784741604
 20
-7.820467729600437
 30
0.0
 10
44.91875063093783
 20
-7.816199138044751
 30
0.0
 10
44.77752344752701
 20
-7.811870587414361
 30
0.0
 10
44.68331675871314
 20
-7.808949073585239
 30
0.0
 10
44.63618645521177
 20
-7.807479564199979
 30
0.0
 11
45.2007499009116
 21
-7.824664160199972
 31
0.0
 11
45.0598681208117
 21
-7.820460431599997
 31
0.0
 11
44.91880812611174
 21
-7.816191754800001
 31
0.0
 11
44.77757814071168
 21
-7.811863119599991
 31
0.0
 11
44.63618645521177
 21
-7.807479564199979
 31
0.0
  0
SPLINE
  5
55457
330
1F
100
AcDbEntity
  8
1
100
AcDbSpline
210
0.0
220
0.0
230
1.0
 70
     8
 71
     3
 72
    11
 73
     7
 74
     5
 42
0.0000000001
 43
0.0000000001
 44
0.000001
 12
-0.9996296322626267
 22
0.0272139358139455
 32
0.0
 13
-0.9995805655575267
 23
0.0289601961266644
 33
0.0
 40
0.0
 40
0.0
 40
0.0
 40
0.0
 40
0.1409124149412078
 40
0.2820063265685995
 40
0.423273593826703
 40
0.5647059683824212
 40
0.5647059683824212
 40
0.5647059683824212
 40
0.5647059683824212
 10
45.76523245791173
 20
-7.840544886899976
 30
0.0
 10
45.71827904940204
 20
-7.839266626428113
 30
0.0
 10
45.6243123791998
 20
-7.836685511895964
 30
0.0
 10
45.48327618111494
 20
-7.832746191760975
 30
0.0
 10
45.34206846745718
 20
-7.828740350509178
 30
0.0
 10
45.24787425189373
 20
-7.826029463301907
 30
0.0
 10
45.2007499009116
 20
-7.824664160199972
 30
0.0
 11
45.76523245791173
 21
-7.840544886899976
 31
0.0
 11
45.62437313661161
 21
-7.836676943700012
 31
0.0
 11
45.48333422881177
 21
-7.83273756760002
 31
0.0
 11
45.34212377341162
 21
-7.828731629000003
 31
0.0
 11
45.2007499009116
 21
-7.824664160199972
 31
0.0
  0
SPLINE
  5
55458
330
1F
100
AcDbEntity
  8
1
100
AcDbSpline
210
0.0
220
0.0
230
1.0
 70
     8
 71
     3
 72
    21
 73
    17
 74
    15
 42
0.0000000001
 43
0.0000000001
 44
0.000001
 12
-0.9996930120870421
 22
0.0247766338378975
 32
0.0
 13
-0.9996425553194697
 23
0.026735025609883
 33
0.0
 40
0.0
 40
0.0
 40
0.0
 40
0.0
 40
0.0213414000497966
 40
0.0447034015316454
 40
0.070215157101486
 40
0.098003488808885
 40
0.1282214733162502
 40
0.1611115211214559
 40
0.196946042880876
 40
0.2359890184656997
 40
0.2786149926655883
 40
0.3254368080659486
 40
0.3770763927975167
 40
0.4337029595980518
 40
0.4958651031728393
 40
0.5645893129825409
 40
0.5645893129825409
 40
0.5645893129825409
 40
0.5645893129825409
 10
46.32963370151168
 20
-7.855112899299967
 30
0.0
 10
46.32252208534572
 20
-7.85493664328176
 30
0.0
 10
46.30762554171673
 20
-7.854566807752291
 30
0.0
 10
46.28422774953395
 20
-7.853983884996281
 30
0.0
 10
46.25868171040946
 20
-7.853344889768294
 30
0.0
 10
46.2308511167626
 20
-7.852646411025361
 30
0.0
 10
46.20056195760361
 20
-7.851882606811983
 30
0.0
 10
46.16759169235382
 20
-7.851047039794366
 30
0.0
 10
46.13168083403644
 20
-7.85013197187456
 30
0.0
 10
46.09252583768176
 20
-7.849129627575862
 30
0.0
 10
46.04970977388785
 20
-7.848027155552031
 30
0.0
 10
46.00269641886251
 20
-7.846809352137597
 30
0.0
 10
45.9510179893179
 20
-7.845462050031343
 30
0.0
 10
45.89422811928847
 20
-7.843971335641953
 30
0.0
 10
45.8317456482618
 20
-7.842319300199861
 30
0.0
 10
45.78813233948056
 20
-7.841157334736408
 30
0.0
 10
45.76523245791173
 20
-7.840544886899976
 30
0.0
 11
46.32963370151168
 21
-7.855112899299967
 31
0.0
 11
46.30829887281168
 21
-7.854583328499984
 31
0.0
 11
46.28494411041168
 21
-7.85400177729997
 31
0.0
 11
46.25944031781176
 21
-7.853364390100011
 31
0.0
 11
46.2316607331117
 21
-7.852667200300004
 31
0.0
 11
46.20145235091166
 21
-7.851905452899984
 31
0.0
 11
46.16857285961174
 21
-7.851072178899983
 31
0.0
 11
46.13274995981174
 21
-7.850159542399978
 31
0.0
 11
46.09371978601171
 21
-7.849159778900002
 31
0.0
 11
46.05110794621174
 21
-7.848062140699994
 31
0.0
 11
46.00430183871179
 21
-7.846849424499964
 31
0.0
 11
45.9526797964117
 21
-7.845503548599992
 31
0.0
 11
45.89607272671168
 21
-7.844017754899994
 31
0.0
 11
45.83393229601171
 21
-7.842374957000004
 31
0.0
 11
45.76523245791173
 21
-7.840544886899976
 31
0.0
  0
SPLINE
  5
55459
330
1F
100
AcDbEntity
  8
1
100
AcDbSpline
210
0.0
220
0.0
230
1.0
 70
     8
 71
     3
 72
    36
 73
    32
 74
    30
 42
0.0000000001
 43
0.0000000001
 44
0.000001
 12
-0.9997702938011791
 22
0.0214326767507934
 32
0.0
 13
-0.9997000679241107
 23
0.0244902877183641
 33
0.0
 40
0.0
 40
0.0
 40
0.0
 40
0.0
 40
0.0106801542148277
 40
0.0224363235532059
 40
0.035320002276276
 40
0.0493481474601342
 40
0.0644240697323563
 40
0.0803906828546147
 40
0.0970764175587812
 40
0.1142661374564461
 40
0.1317191243516284
 40
0.1492567892539142
 40
0.1667785943159479
 40
0.1843807728106466
 40
0.2022999726434696
 40
0.2205006544258138
 40
0.238732749590797
 40
0.2568693807435795
 40
0.2749304945269171
 40
0.2930805345592442
 40
0.3114030893488867
 40
0.3296238314781596
 40
0.3478413527207802
 40
0.3670383705149858
 40
0.3885342698500176
 40
0.4135617243609
 40
0.4421561222151306
 40
0.4725981367235481
 40
0.5032298615332174
 40
0.5337598833371563
 40
0.5646135853140169
 40
0.5646135853140169
 40
0.5646135853140169
 40
0.5646135853140169
 10
46.89409008772412
 20
-7.86702945606504
 30
0.0
 10
46.89053085408505
 20
-7.86695315463406
 30
0.0
 10
46.88304912058794
 20
-7.867082163483786
 30
0.0
 10
46.8712875311873
 20
-7.867572729713401
 30
0.0
 10
46.85839521128793
 20
-7.867787235430043
 30
0.0
 10
46.84440491538675
 20
-7.867311233968763
 30
0.0
 10
46.8293849327585
 20
-7.867004118255422
 30
0.0
 10
46.81348020718036
 20
-7.866611009685129
 30
0.0
 10
46.79687096167623
 20
-7.866214483572164
 30
0.0
 10
46.77976648262443
 20
-7.865800293657073
 30
0.0
 10
46.76237802116583
 20
-7.865383579630574
 30
0.0
 10
46.74487877280904
 20
-7.864969219866139
 30
0.0
 10
46.72732971670558
 20
-7.864557605030682
 30
0.0
 10
46.7096534477518
 20
-7.864145970390694
 30
0.0
 10
46.69175089783976
 20
-7.86373122746184
 30
0.0
 10
46.67363839963269
 20
-7.86331302194479
 30
0.0
 10
46.6554534288361
 20
-7.86289378533317
 30
0.0
 10
46.63731497044676
 20
-7.862475529795375
 30
0.0
 10
46.61920387501362
 20
-7.862057102252975
 30
0.0
 10
46.6010308561676
 20
-7.861635747438171
 30
0.0
 10
46.58280469627647
 20
-7.861210830529813
 30
0.0
 10
46.56455611496307
 20
-7.860782558962426
 30
0.0
 10
46.54601618714496
 20
-7.860344860788444
 30
0.0
 10
46.52638490678344
 20
-7.859878759746905
 30
0.0
 10
46.5044843573425
 20
-7.859355874418071
 30
0.0
 10
46.47945232072203
 20
-7.858754862567181
 30
0.0
 10
46.45143919147011
 20
-7.858078675789471
 30
0.0
 10
46.42155859669372
 20
-7.857354080624375
 30
0.0
 10
46.39103303105133
 20
-7.856611887728746
 30
0.0
 10
46.36037034255486
 20
-7.855863661383068
 30
0.0
 10
46.33991518416559
 20
-7.855364771312835
 30
0.0
 10
46.32963370151168
 20
-7.855112899299967
 30
0.0
 11
46.89409008772412
 21
-7.86702945606504
 31
0.0
 11
46.88341028861174
 21
-7.867118355812294
 31
0.0
 11
46.87166069581173
 21
-7.867511279373843
 31
0.0
 11
46.85877809061179
 21
-7.867677747699985
 31
0.0
 11
46.84475366601174
 21
-7.867354691999992
 31
0.0
 11
46.8296818989117
 21
-7.867000773899974
 31
0.0
 11
46.8137198243117
 21
-7.866620124499945
 31
0.0
 11
46.79703892301171
 21
-7.866218558199989
 31
0.0
 11
46.77985420021167
 21
-7.8658041292
 31
0.0
 11
46.76240622121173
 21
-7.865386085799968
 31
0.0
 11
46.74487347561165
 21
-7.864970748100006
 31
0.0
 11
46.72735649251166
 21
-7.864559721399928
 31
0.0
 11
46.7097590885117
 21
-7.8641497813
 31
0.0
 11
46.69184469861164
 21
-7.863734629600003
 31
0.0
 11
46.67364886951173
 21
-7.863314370599994
 31
0.0
 11
46.65542162031175
 21
-7.862894036599982
 31
0.0
 11
46.63728981171169
 21
-7.862475815299944
 31
0.0
 11
46.61923351871172
 21
-7.862058539799932
 31
0.0
 11
46.60108835821171
 21
-7.86163769579997
 31
0.0
 11
46.58277078251166
 21
-7.861210564700002
 31
0.0
 11
46.56455505491163
 21
-7.860783109999999
 31
0.0
 11
46.54634260761173
 21
-7.860353169799964
 31
0.0
 11
46.5271509973117
 21
-7.859897548399999
 31
0.0
 11
46.50566122061166
 21
-7.859384528100008
 31
0.0
 11
46.48064097421178
 21
-7.858783901499975
 31
0.0
 11
46.45205489971175
 21
-7.858094023299941
 31
0.0
 11
46.42162182581176
 21
-7.857356289599977
 31
0.0
 11
46.39099915431171
 21
-7.856611613899985
 31
0.0
 11
46.36047820571178
 21
-7.85586735610002
 31
0.0
 11
46.32963370151168
 21
-7.855112899299967
 31
0.0
  0
SPLINE
  5
5545A
330
1F
100
AcDbEntity
  8
1
100
AcDbSpline
210
0.0
220
0.0
230
1.0
 70
     8
 71
     3
 72
    24
 73
    20
 74
    18
 42
0.0000000001
 43
0.0000000001
 44
0.000001
 12
-0.0810082892340973
 22
-0.9967134277591352
 32
0.0
 13
-0.2388057536782926
 23
-0.9710673570922578
 33
0.0
 40
0.0
 40
0.0
 40
0.0
 40
0.0
 40
0.0191614487240892
 40
0.0383211357518792
 40
0.0574774360768344
 40
0.0766287060448604
 40
0.0957751142049148
 40
0.1149158872639119
 40
0.1340502989502255
 40
0.153179073779244
 40
0.1723030083239169
 40
0.1914233018711828
 40
0.2105405314361017
 40
0.2296549330120657
 40
0.248767303588532
 40
0.267877953031363
 40
0.2869873873996218
 40
0.3060961790963992
 40
0.3252042603335095
 40
0.3252042603335095
 40
0.3252042603335095
 40
0.3252042603335095
 10
50.79364899681166
 20
-5.922512474600011
 30
0.0
 10
50.79313158475151
 20
-5.928878632346211
 30
0.0
 10
50.7920368536997
 20
-5.941605572188393
 30
0.0
 10
50.79021504663472
 20
-5.960678174707737
 30
0.0
 10
50.78821466388347
 20
-5.979729479447087
 30
0.0
 10
50.78603613464207
 20
-5.998756777333511
 30
0.0
 10
50.78367926707819
 20
-6.01775759535289
 30
0.0
 10
50.78114451413324
 20
-6.036729831894348
 30
0.0
 10
50.77843213831688
 20
-6.055671552669764
 30
0.0
 10
50.77554243785602
 20
-6.074581354984886
 30
0.0
 10
50.77247559996402
 20
-6.093458470120921
 30
0.0
 10
50.76923178303883
 20
-6.11230207500769
 30
0.0
 10
50.76581115800076
 20
-6.131111158188389
 30
0.0
 10
50.76221400743128
 20
-6.149884592031312
 30
0.0
 10
50.75844059538264
 20
-6.168621155914379
 30
0.0
 10
50.75449118994384
 20
-6.187319721803362
 30
0.0
 10
50.75036592206032
 20
-6.205979057540687
 30
0.0
 10
50.74606619241723
 20
-6.224598069942516
 30
0.0
 10
50.74308244522552
 20
-6.236982900618002
 30
0.0
 10
50.74156140531176
 20
-6.243167978600013
 30
0.0
 11
50.79364899681166
 21
-5.922512474600011
 31
0.0
 11
50.79200700581174
 21
-5.941603491299986
 31
0.0
 11
50.79018579561164
 21
-5.960676438799964
 31
0.0
 11
50.78818570021173
 21
-5.979728010799988
 31
0.0
 11
50.78600711141172
 21
-5.998754938599972
 31
0.0
 11
50.78365025481179
 21
-6.017755720100012
 31
0.0
 11
50.7811154813117
 21
-6.036727906299972
 31
0.0
 11
50.77840316891178
 21
-6.055669102299987
 31
0.0
 11
50.77551353871166
 21
-6.074578357999939
 31
0.0
 11
50.77244679461177
 21
-6.093454794799981
 31
0.0
 11
50.7692030419118
 21
-6.112297926099984
 31
0.0
 11
50.76578248081176
 21
-6.131106649499997
 31
0.0
 11
50.76218542751172
 21
-6.149879537499998
 31
0.0
 11
50.75841209001175
 21
-6.168615713000008
 31
0.0
 11
50.75446275141172
 21
-6.187313814399999
 31
0.0
 11
50.75033766941174
 21
-6.205972688200006
 31
0.0
 11
50.74603707751174
 21
-6.224591365200012
 31
0.0
 11
50.74156140531176
 21
-6.243167978600013
 31
0.0
  0
SPLINE
  5
5545B
330
1F
100
AcDbEntity
  8
1
100
AcDbSpline
210
0.0
220
0.0
230
1.0
 70
     8
 71
     3
 72
    34
 73
    30
 74
    28
 42
0.0000000001
 43
0.0000000001
 44
0.000001
 12
0.0423311762737424
 22
-0.999103634021657
 32
0.0
 13
0.0007513889654043
 23
-0.9999997177072716
 33
0.0
 40
0.0
 40
0.0
 40
0.0
 40
0.0
 40
0.0206725595035004
 40
0.0413455094129604
 40
0.0620550962988966
 40
0.0827130924359479
 40
0.103012170644816
 40
0.1225858628336858
 40
0.1412254717362762
 40
0.1589903678775012
 40
0.1760240959824628
 40
0.1924861579689683
 40
0.208670660876996
 40
0.2248810626285605
 40
0.2411024356153444
 40
0.257196647221907
 40
0.2733582182079811
 40
0.2899124890282975
 40
0.3068033573273113
 40
0.3238264626121143
 40
0.3413413997277108
 40
0.3601749696337984
 40
0.3810956261231338
 40
0.4046214439182437
 40
0.4309608025634418
 40
0.4602915281993806
 40
0.492705722564846
 40
0.5282766403670155
 40
0.5670786709666014
 40
0.5670786709666014
 40
0.5670786709666014
 40
0.5670786709666014
 10
50.79574936391174
 20
-5.101079908200006
 30
0.0
 10
50.79604106183189
 20
-5.107964584641493
 30
0.0
 10
50.79659586724853
 20
-5.121735287545021
 30
0.0
 10
50.7973543357088
 20
-5.142406459813443
 30
0.0
 10
50.79802131208402
 20
-5.163075954235026
 30
0.0
 10
50.79858951003251
 20
-5.183623724069818
 30
0.0
 10
50.79905904352921
 20
-5.203795240506792
 30
0.0
 10
50.7994354415809
 20
-5.223295784280566
 30
0.0
 10
50.79972375991037
 20
-5.241952998399099
 30
0.0
 10
50.79993642912672
 20
-5.259764506382708
 30
0.0
 10
50.80008509170415
 20
-5.276850783284615
 30
0.0
 10
50.80017862109565
 20
-5.293410640245625
 30
0.0
 10
50.80022367754049
 20
-5.309696257262729
 30
0.0
 10
50.80022150579697
 20
-5.325901700169211
 30
0.0
 10
50.80018877517176
 20
-5.342076999219429
 30
0.0
 10
50.80014519045921
 20
-5.35823599222023
 30
0.0
 10
50.80011234870761
 20
-5.374505978766677
 30
0.0
 10
50.80009151726057
 20
-5.391041536589142
 30
0.0
 10
50.80007614024492
 20
-5.40786427766416
 30
0.0
 10
50.80006003136947
 20
-5.425007240346786
 30
0.0
 10
50.80004226280158
 20
-5.442797768902408
 30
0.0
 10
50.80002461978205
 20
-5.461887481987488
 30
0.0
 10
50.80000945073123
 20
-5.482980824770194
 30
0.0
 10
50.79999731018773
 20
-5.50657609941804
 30
0.0
 10
50.79998811554782
 20
-5.53297473196828
 30
0.0
 10
50.79998339683851
 20
-5.56233615800393
 30
0.0
 10
50.79998568777961
 20
-5.59477477092598
 30
0.0
 10
50.79999789175309
 20
-5.630370483342673
 30
0.0
 10
50.80001149853927
 20
-5.655161462851296
 30
0.0
 10
50.80002121701176
 20
-5.668095469399986
 30
0.0
 11
50.79574936391174
 21
-5.101079908200006
 31
0.0
 11
50.79658449351171
 21
-5.121735718899969
 31
0.0
 11
50.79733968351177
 21
-5.142394875200011
 31
0.0
 11
50.79800692681175
 21
-5.163093749300003
 31
0.0
 11
50.79857860951171
 21
-5.183743927199998
 31
0.0
 11
50.79905185671174
 21
-5.204037753600005
 31
0.0
 11
50.79942824051176
 21
-5.223608245999969
 31
0.0
 11
50.79971617251175
 21
-5.242245082099998
 31
0.0
 11
50.79992857491169
 21
-5.260008542700006
 31
0.0
 11
50.80007694851173
 21
-5.27704155340001
 31
0.0
 11
50.8001701783117
 21
-5.293503311099982
 31
0.0
 11
50.80021483991169
 21
-5.309687725699973
 31
0.0
 11
50.80021540581168
 21
-5.325898108199965
 31
0.0
 11
50.80018586251168
 21
-5.342119441000022
 31
0.0
 11
50.80014606901176
 21
-5.358213594799963
 31
0.0
 11
50.80011363321176
 21
-5.374375127999996
 31
0.0
 11
50.80009160381172
 21
-5.39092938089999
 31
0.0
 11
50.80007510951173
 21
-5.407820238900001
 31
0.0
 11
50.80005902091176
 21
-5.424843334800016
 31
0.0
 11
50.80004191221172
 21
-5.442358262000027
 31
0.0
 11
50.80002487331177
 21
-5.461191822800003
 31
0.0
 11
50.80000974741171
 21
-5.482112472600022
 31
0.0
 11
50.79999740831175
 21
-5.505638286100008
 31
0.0
 11
50.79998824261173
 21
-5.53197764219999
 31
0.0
 11
50.79998363691169
 21
-5.561308366599973
 31
0.0
 11
50.79998601631172
 21
-5.59372256009999
 31
0.0
 11
50.7999976912119
 21
-5.629293475300016
 31
0.0
 11
50.80002121701176
 21
-5.668095469399986
 31
0.0
  0
SPLINE
  5
5545C
330
1F
100
AcDbEntity
  8
1
100
AcDbSpline
210
0.0
220
0.0
230
1.0
 70
     8
 71
     3
 72
    28
 73
    24
 74
    22
 42
0.0000000001
 43
0.0000000001
 44
0.000001
 12
0.0491201323274761
 22
-0.9987928777279758
 32
0.0
 13
0.0504174163819053
 23
-0.9987282333675031
 33
0.0
 40
0.0
 40
0.0
 40
0.0
 40
0.0
 40
0.0796699818219508
 40
0.1504813503349235
 40
0.2135506412617163
 40
0.2699055332308027
 40
0.3204802851157538
 40
0.3659243530697412
 40
0.4068152247160423
 40
0.4437486700380688
 40
0.4776596031446611
 40
0.5110965887809097
 40
0.5454362199367094
 40
0.579928838759916
 40
0.6141445792245201
 40
0.6480674351494978
 40
0.6826684981590257
 40
0.7195937857463494
 40
0.7598545647208429
 40
0.8026995912269828
 40
0.8468023940426123
 40
0.8900865681647823
 40
0.9306070606688885
 40
0.9306070606688885
 40
0.9306070606688885
 40
0.9306070606688885
 10
50.74583573261174
 20
-4.171819143800007
 30
0.0
 10
50.74714019929496
 20
-4.19834374727084
 30
0.0
 10
50.74962522871572
 20
-4.24844260878504
 30
0.0
 10
50.75319773740847
 20
-4.319536457561994
 30
0.0
 10
50.75643011952019
 20
-4.382865876850175
 30
0.0
 10
50.75935793391312
 20
-4.439456503755764
 30
0.0
 10
50.76199935443099
 20
-4.490179010599419
 30
0.0
 10
50.76437760571906
 20
-4.53575356358003
 30
0.0
 10
50.76651585040105
 20
-4.576787351764494
 30
0.0
 10
50.76844700002488
 20
-4.613982337071192
 30
0.0
 10
50.77023804706136
 20
-4.648696619393533
 30
0.0
 10
50.77197740729019
 20
-4.682547812394176
 30
0.0
 10
50.77373337618173
 20
-4.716592303058277
 30
0.0
 10
50.77552191578508
 20
-4.750895040934608
 30
0.0
 10
50.77733534840257
 20
-4.785057355634307
 30
0.0
 10
50.77919524335124
 20
-4.819253380252249
 30
0.0
 10
50.78116376754877
 20
-4.854347967926059
 30
0.0
 10
50.78333002869652
 20
-4.891547369246183
 30
0.0
 10
50.78577365237634
 20
-4.931483082655333
 30
0.0
 10
50.78842391806796
 20
-4.973803044920231
 30
0.0
 10
50.79109774732359
 20
-5.017131297352918
 30
0.0
 10
50.7935962154649
 20
-5.05969401596495
 30
0.0
 10
50.79506838439755
 20
-5.087590254902067
 30
0.0
 10
50.79574936391174
 20
-5.101079908200006
 30
0.0
 11
50.74583573261174
 21
-4.171819143800007
 31
0.0
 11
50.74977959841175
 21
-4.251391456399971
 31
0.0
 11
50.75333608381169
 21
-4.32211345669998
 31
0.0
 11
50.75655090511173
 21
-4.385100760199975
 31
0.0
 11
50.75945982851175
 21
-4.441380525900001
 31
0.0
 11
50.76208825091175
 21
-4.49188693069999
 31
0.0
 11
50.76445510991169
 21
-4.537269320300026
 31
0.0
 11
50.76658214511173
 21
-4.578104832999997
 31
0.0
 11
50.76849615861175
 21
-4.614988649599979
 31
0.0
 11
50.77024399021178
 21
-4.648854509399996
 31
0.0
 11
50.77196204321166
 21
-4.682247327399977
 31
0.0
 11
50.7737329428117
 21
-4.716541265300008
 31
0.0
 11
50.77553114331175
 21
-4.750986979499998
 31
0.0
 11
50.77734697461171
 21
-4.785154502900013
 31
0.0
 11
50.77919145561174
 21
-4.819027177000009
 31
0.0
 11
50.7811312725118
 21
-4.853573821999987
 31
0.0
 11
50.7832817017117
 21
-4.890436438899996
 31
0.0
 11
50.78572932251171
 21
-4.930622748299924
 31
0.0
 11
50.78839032351169
 21
-4.973385060099985
 31
0.0
 11
50.79109134561173
 21
-5.01740507339997
 31
0.0
 11
50.79360523301176
 21
-5.060616181800014
 31
0.0
 11
50.79574936391174
 21
-5.101079908200006
 31
0.0
  0
SPLINE
  5
5545D
330
1F
100
AcDbEntity
  8
1
100
AcDbSpline
210
0.0
220
0.0
230
1.0
 70
     8
 71
     3
 72
    24
 73
    20
 74
    18
 42
0.0000000001
 43
0.0000000001
 44
0.000001
 12
0.0500729887188733
 22
-0.9987455610918928
 32
0.0
 13
0.0568536831180993
 23
-0.9983825212391826
 33
0.0
 40
0.0
 40
0.0
 40
0.0
 40
0.0
 40
0.0359193577886425
 40
0.0718328564553259
 40
0.1075054223748691
 40
0.1431178680436687
 40
0.1799149425432711
 40
0.2193096094855611
 40
0.2612376079684913
 40
0.3047240923468713
 40
0.350286882684234
 40
0.3999066258513662
 40
0.4559681172532823
 40
0.5198391618000442
 40
0.5912497268155911
 40
0.6692980666138304
 40
0.7524374771936053
 40
0.8380578774373482
 40
0.9231504109535437
 40
0.9231504109535437
 40
0.9231504109535437
 40
0.9231504109535437
 10
50.69653988731187
 20
-3.249987763799992
 30
0.0
 10
50.69713941717765
 20
-3.261945863516217
 30
0.0
 10
50.69834126449217
 20
-3.285859967850285
 30
0.0
 10
50.70014948639499
 20
-3.32164945893507
 30
0.0
 10
50.70195951337467
 20
-3.35733642345464
 30
0.0
 10
50.70379074314309
 20
-3.393317215959683
 30
0.0
 10
50.70569343362212
 20
-3.430536676831877
 30
0.0
 10
50.70771329395421
 20
-3.469858080052162
 30
0.0
 10
50.70985942917736
 20
-3.511405738488605
 30
0.0
 10
50.71212567937306
 20
-3.555005972618673
 30
0.0
 10
50.7145417629302
 20
-3.601165792002547
 30
0.0
 10
50.71719751327822
 20
-3.651510469910192
 30
0.0
 10
50.72019976313339
 20
-3.707948101066577
 30
0.0
 10
50.72361940017419
 20
-3.771637399273885
 30
0.0
 10
50.72747079042375
 20
-3.842643012063746
 30
0.0
 10
50.73171580120805
 20
-3.920059491650278
 30
0.0
 10
50.73627013182004
 20
-4.002202722846149
 30
0.0
 10
50.74100632296148
 20
-4.086687524912463
 30
0.0
 10
50.74422312463292
 20
-4.143500844416493
 30
0.0
 10
50.74583573261174
 20
-4.171819143800007
 30
0.0
 11
50.69653988731187
 21
-3.249987763799992
 31
0.0
 11
50.69834283361178
 21
-3.285861844099997
 31
0.0
 11
50.70015419701184
 21
-3.321729633500012
 31
0.0
 11
50.70196056761171
 21
-3.357356435300005
 31
0.0
 11
50.70377098881175
 21
-3.392922833599982
 31
0.0
 11
50.70564968701177
 21
-3.429671917999996
 31
0.0
 11
50.70767079231171
 21
-3.469014705599988
 31
0.0
 11
50.70983383991171
 21
-3.510886871799982
 31
0.0
 11
50.71209131971176
 21
-3.554314721499963
 31
0.0
 11
50.7144730444117
 21
-3.599815218999992
 31
0.0
 11
50.71708683921173
 21
-3.649366071799988
 31
0.0
 11
50.72006480071166
 21
-3.705348413600006
 31
0.0
 11
50.72348914311175
 21
-3.769127597100009
 31
0.0
 11
50.72735666741181
 21
-3.840433354899971
 31
0.0
 11
50.73162954231174
 21
-3.918364644699977
 31
0.0
 11
50.73623172161177
 21
-4.001376580999988
 31
0.0
 11
50.7410231633117
 21
-4.086862807999978
 31
0.0
 11
50.74583573261174
 21
-4.171819143800007
 31
0.0
  0
SPLINE
  5
5545E
330
1F
100
AcDbEntity
  8
1
100
AcDbSpline
210
0.0
220
0.0
230
1.0
 70
     8
 71
     3
 72
    20
 73
    16
 74
    14
 42
0.0000000001
 43
0.0000000001
 44
0.000001
 12
0.0520058324996743
 22
-0.9986467810923018
 32
0.0
 13
0.0578264576825998
 23
-0.9983266503464097
 33
0.0
 40
0.0
 40
0.0
 40
0.0
 40
0.0
 40
0.0546900102831644
 40
0.1053564449105036
 40
0.15155636825409
 40
0.1933748254863545
 40
0.2308697301698131
 40
0.2641256430910541
 40
0.2933573573174169
 40
0.3193168528731821
 40
0.3432667772059946
 40
0.3664512501966879
 40
0.3897515111964105
 40
0.413208926814824
 40
0.436624893222483
 40
0.436624893222483
 40
0.436624893222483
 40
0.436624893222483
 10
50.67249720511171
 20
-2.81402598889997
 30
0.0
 10
50.67344527161646
 20
-2.832231323142366
 30
0.0
 10
50.67528634356841
 20
-2.867301850594344
 30
0.0
 10
50.67796843772629
 20
-2.917749395762285
 30
0.0
 10
50.68045508557469
 20
-2.96391074351996
 30
0.0
 10
50.68273208871318
 20
-3.005686499385191
 30
0.0
 10
50.68479631895087
 20
-3.043152770990332
 30
0.0
 10
50.68664760081509
 20
-3.076428825664308
 30
0.0
 10
50.68829921384343
 20
-3.105864902463196
 30
0.0
 10
50.68978712489223
 20
-3.132203286879416
 30
0.0
 10
50.6911691972868
 20
-3.156528687904753
 30
0.0
 10
50.69250757857441
 20
-3.179968729225109
 30
0.0
 10
50.69384274905832
 20
-3.203244516049579
 30
0.0
 10
50.6951874083806
 20
-3.226597049209615
 30
0.0
 10
50.69608853318169
 20
-3.2421955026972
 30
0.0
 10
50.69653988731187
 20
-3.249987763799992
 30
0.0
 11
50.67249720511171
 21
-2.81402598889997
 31
0.0
 11
50.6753619672117
 21
-2.868640921800022
 31
0.0
 11
50.67805266341173
 21
-2.91923585950002
 31
0.0
 11
50.68053777231165
 21
-2.965368897100006
 31
0.0
 11
50.68281384541177
 21
-3.007125368099991
 31
0.0
 11
50.6848766023117
 21
-3.04456348939999
 31
0.0
 11
50.68672390051171
 21
-3.077768056100012
 31
0.0
 11
50.68836128971174
 21
-3.106953876100021
 31
0.0
 11
50.68982535881167
 21
-3.13287205360001
 31
0.0
 11
50.69118381091169
 21
-3.15678342109993
 31
0.0
 11
50.69250539651164
 21
-3.179930196499981
 31
0.0
 11
50.69383958961174
 21
-3.20319222789999
 31
0.0
 11
50.69518837641175
 21
-3.226610833800009
 31
0.0
 11
50.69653988731187
 21
-3.249987763799992
 31
0.0
  0
ARC
  5
5545F
330
1F
100
AcDbEntity
  8
1
100
AcDbCircle
 10
47.2410504911117
 20
-3.65034700000001
 30
0.0
 40
4.674393
100
AcDbArc
 50
303.6623190000034
 51
305.5020270000014
  0
ARC
  5
55460
330
1F
100
AcDbEntity
  8
1
100
AcDbCircle
 10
48.77402649111167
 20
-5.184962999999982
 30
0.0
 40
2.658374
100
AcDbArc
 50
273.4814039999962
 51
274.1769350000002
  0
ARC
  5
55461
330
1F
100
AcDbEntity
  8
1
100
AcDbCircle
 10
48.74643649111175
 20
-5.747029999999995
 30
0.0
 40
2.056192999999999
100
AcDbArc
 50
329.8408429999956
 51
337.5889709999978
  0
ARC
  5
55462
330
1F
100
AcDbEntity
  8
1
100
AcDbCircle
 10
48.75674749111175
 20
-5.752598999999975
 30
0.0
 40
2.04454
100
AcDbArc
 50
337.6230849999994
 51
346.1169439999986
  0
ARC
  5
55463
330
1F
100
AcDbEntity
  8
1
100
AcDbCircle
 10
48.7809464911117
 20
-5.762821999999971
 30
0.0
 40
2.019026999999999
100
AcDbArc
 50
355.4635739999974
 51
356.0450929999979
  0
ARC
  5
55464
330
1F
100
AcDbEntity
  8
1
100
AcDbCircle
 10
42.70998349111169
 20
-10.46499999999997
 30
0.0
 40
3.0
100
AcDbArc
 50
63.13425199999681
 51
90.0
  0
ARC
  5
55465
330
1F
100
AcDbEntity
  8
1
100
AcDbCircle
 10
42.70998349111169
 20
10.46500000000003
 30
0.0
 40
3.0
100
AcDbArc
 50
270.0
 51
296.8657480000032
  0
LINE
  5
55466
330
1F
100
AcDbEntity
  8
1
100
AcDbLine
 10
38.96498349111181
 20
-7.464999999999974
 30
0.0
 11
42.70998349111169
 21
-7.464999999999974
 31
0.0
  0
LINE
  5
55467
330
1F
100
AcDbEntity
  8
1
100
AcDbLine
 10
38.80998349111172
 20
-7.310000000000002
 30
0.0
 11
38.96498349111181
 21
-7.464999999999974
 31
0.0
  0
LINE
  5
55468
330
1F
100
AcDbEntity
  8
1
100
AcDbLine
 10
42.70998349111169
 20
7.465000000000031
 30
0.0
 11
38.96498349111181
 21
7.465000000000031
 31
0.0
  0
LINE
  5
55469
330
1F
100
AcDbEntity
  8
1
100
AcDbLine
 10
39.67431049111173
 20
-7.464999999999974
 30
0.0
 11
39.67431049111173
 21
-7.038605000000018
 31
0.0
  0
LINE
  5
5546A
330
1F
100
AcDbEntity
  8
1
100
AcDbLine
 10
39.67431049111173
 20
6.279393727713696
 30
0.0
 11
39.67431049111173
 21
7.465000000000031
 31
0.0
  0
LINE
  5
5546B
330
1F
100
AcDbEntity
  8
1
100
AcDbLine
 10
38.80998349111172
 20
7.310000000000002
 30
0.0
 11
38.80998349111172
 21
6.523684225652445
 31
0.0
  0
LINE
  5
5546C
330
1F
100
AcDbEntity
  8
1
100
AcDbLine
 10
38.80998349111172
 20
-7.038605000000018
 30
0.0
 11
38.80998349111172
 21
-7.310000000000002
 31
0.0
  0
LINE
  5
5546D
330
1F
100
AcDbEntity
  8
1
100
AcDbLine
 10
38.80998349111172
 20
7.310000000000002
 30
0.0
 11
38.96498349111181
 21
7.465000000000031
 31
0.0
  0
LINE
  5
5546E
330
1F
100
AcDbEntity
  8
1
100
AcDbLine
 10
50.52654249111168
 20
0.2067959999999971
 30
0.0
 11
50.54083749111175
 21
0.4522929999999974
 31
0.0
  0
LINE
  5
5546F
330
1F
100
AcDbEntity
  8
1
100
AcDbLine
 10
50.51474749090033
 20
0.1849326094202297
 30
0.0
 11
50.52654249111168
 21
0.2067959999999971
 31
0.0
  0
LINE
  5
55470
330
1F
100
AcDbEntity
  8
1
100
AcDbLine
 10
50.80002149111163
 20
5.668094999999993
 30
0.0
 11
50.7998823458492
 21
5.906151137270057
 31
0.0
  0
LINE
  5
55471
330
1F
100
AcDbEntity
  8
1
100
AcDbLine
 10
44.6361864911118
 20
7.807479999999998
 30
0.0
 11
44.07153849111177
 21
7.788997999999992
 31
0.0
  0
LINE
  5
55472
330
1F
100
AcDbEntity
  8
1
100
AcDbLine
 10
44.07153849111177
 20
7.788997999999992
 30
0.0
 11
44.06568749111175
 21
7.78879599999999
 31
0.0
  0
LINE
  5
55473
330
1F
100
AcDbEntity
  8
1
100
AcDbLine
 10
50.51468549111172
 20
0.0703790000000026
 30
0.0
 11
50.51468549111172
 21
-0.0703790000000026
 31
0.0
  0
LINE
  5
55474
330
1F
100
AcDbEntity
  8
1
100
AcDbLine
 10
50.51468549111172
 20
-0.0703790000000026
 30
0.0
 11
50.51475132890885
 21
-0.184937694347127
 31
0.0
  0
LINE
  5
55475
330
1F
100
AcDbEntity
  8
1
100
AcDbLine
 10
50.51474749111179
 20
0.1849330000000009
 30
0.0
 11
50.51468549111172
 21
0.0703790000000026
 31
0.0
  0
LINE
  5
55476
330
1F
100
AcDbEntity
  8
1
100
AcDbLine
 10
48.86818049111167
 20
-7.841673000000014
 30
0.0
 11
48.93545549111166
 21
-7.838431000000014
 31
0.0
  0
LINE
  5
55477
330
1F
100
AcDbEntity
  8
1
100
AcDbLine
 10
48.72498349111168
 20
-7.844686000000024
 30
0.0
 11
48.86818049111167
 21
-7.841673000000014
 31
0.0
  0
LINE
  5
55478
330
1F
100
AcDbEntity
  8
1
100
AcDbLine
 10
50.52654249111168
 20
-0.2067959999999971
 30
0.0
 11
50.54083749111175
 21
-0.4522929999999974
 31
0.0
  0
LINE
  5
55479
330
1F
100
AcDbEntity
  8
1
100
AcDbLine
 10
44.07153849111177
 20
-7.788997999999992
 30
0.0
 11
44.06568749111175
 21
-7.788795999999933
 31
0.0
  0
LINE
  5
5547A
330
1F
100
AcDbEntity
  8
1
100
AcDbLine
 10
44.6361864911118
 20
-7.807479999999998
 30
0.0
 11
44.07153849111177
 21
-7.788997999999992
 31
0.0
  0
LINE
  5
5547B
330
1F
100
AcDbEntity
  8
1
100
AcDbLine
 10
50.80002149111163
 20
-5.668094999999993
 30
0.0
 11
50.7999954911117
 21
-5.71257700000001
 31
0.0
  0
LINE
  5
5547C
330
1F
100
AcDbEntity
  8
1
100
AcDbLine
 10
50.7999954911117
 20
-5.71257700000001
 30
0.0
 11
50.79997949111174
 21
-5.809261999999989
 31
0.0
  0
LINE
  5
5547D
330
1F
100
AcDbEntity
  8
1
100
AcDbLine
 10
50.79997949111174
 20
-5.809261999999989
 30
0.0
 11
50.79516649111173
 21
-5.902077000000019
 31
0.0
  0
LINE
  5
5547E
330
1F
100
AcDbEntity
  8
1
100
AcDbLine
 10
47.17930920741179
 20
7.872154215600005
 30
0.0
 11
48.75387724149693
 21
7.904452930007835
 31
0.0
  0
ARC
  5
5547F
102
{ACAD_REACTORS
330
55482
102
}
330
1F
100
AcDbEntity
  8
1
100
AcDbCircle
 10
48.79988268749656
 20
5.90498212528513
 30
0.0
 40
2.0
100
AcDbArc
 50
0.0334897283768576
 51
91.31807520044095
  0
DIMENSION
  5
55480
102
{ACAD_XDICTIONARY
360
55481
102
}
102
{ACAD_REACTORS
330
55482
102
}
330
1F
100
AcDbEntity
  8
2
100
AcDbDimension
  2
*D85
 10
48.79988268749656
 20
5.90498212528513
 30
0.0
 11
67.90937463254078
 21
25.06844267864256
 31
0.0
 70
    36
 71
     5
 42
2.000000000000348
  3
\M+18352\M+18373\M+1815B - ISO-25
100
AcDbRadialDimension
 15
50.40813337929717
 25
7.093901681993767
 35
0.0
 40
0.0
1001
ACAD
1000
DSTYLE
1002
{
1070
     4
1000
"
1070
    40
1040
1.0
1070
   143
1040
0.03937
1070
   170
1070
     1
1070
   171
1070
     3
1070
   271
1070
     8
1070
   285
1070
     4
1002
}
  0
SPLINE
  5
55483
330
1F
100
AcDbEntity
  8
1
100
AcDbSpline
210
0.0
220
0.0
230
1.0
 70
     8
 71
     3
 72
    20
 73
    16
 74
    14
 42
0.0000000001
 43
0.0000000001
 44
0.000001
 12
0.052005832499136
 22
0.9986467810923299
 32
0.0
 13
0.0578264571922064
 23
0.9983266503748149
 33
0.0
 40
0.0
 40
0.0
 40
0.0
 40
0.0
 40
0.0546900102830934
 40
0.1053564449104468
 40
0.151556368254019
 40
0.1933748254862978
 40
0.2308697301698131
 40
0.2641256429911642
 40
0.2933573573173576
 40
0.3193168528731228
 40
0.3432667772060488
 40
0.3664512501966854
 40
0.3897515111963512
 40
0.4132089267149342
 40
0.4366248932224214
 40
0.4366248932224214
 40
0.4366248932224214
 40
0.4366248932224214
 10
50.67249720511171
 20
2.814025989000015
 30
0.0
 10
50.67344527161646
 20
2.832231323242382
 30
0.0
 10
50.67528634356853
 20
2.867301850694346
 30
0.0
 10
50.6779684377264
 20
2.917749395862244
 30
0.0
 10
50.68045508557424
 20
2.963910743619976
 30
0.0
 10
50.68273208871421
 20
3.005686499485108
 30
0.0
 10
50.68479631894587
 20
3.043152771057322
 30
0.0
 10
50.68664760082317
 20
3.076428825730545
 30
0.0
 10
50.68829921383934
 20
3.105864902530058
 30
0.0
 10
50.68978712489291
 20
3.132203286979404
 30
0.0
 10
50.69116919728611
 20
3.15652868800484
 30
0.0
 10
50.69250757857577
 20
3.179968729325054
 30
0.0
 10
50.69384274905172
 20
3.203244516116598
 30
0.0
 10
50.69518740839618
 20
3.226597049275397
 30
0.0
 10
50.69608853318363
 20
3.242195502763749
 30
0.0
 10
50.69653988731187
 20
3.24998776389998
 30
0.0
 11
50.67249720511171
 21
2.814025989000015
 31
0.0
 11
50.6753619672117
 21
2.868640921900009
 31
0.0
 11
50.67805266341173
 21
2.919235859600007
 31
0.0
 11
50.68053777231165
 21
2.965368897199994
 31
0.0
 11
50.68281384541177
 21
3.007125368199979
 31
0.0
 11
50.6848766023117
 21
3.044563489500035
 31
0.0
 11
50.68672390051171
 21
3.077768056100012
 31
0.0
 11
50.68836128971174
 21
3.106953876200009
 31
0.0
 11
50.68982535881167
 21
3.132872053699998
 31
0.0
 11
50.69118381091169
 21
3.156783421200032
 31
0.0
 11
50.69250539651164
 21
3.179930196600025
 31
0.0
 11
50.69383958961174
 21
3.203192227999977
 31
0.0
 11
50.69518837641175
 21
3.226610833800009
 31
0.0
 11
50.69653988731187
 21
3.24998776389998
 31
0.0
  0
SPLINE
  5
55484
330
1F
100
AcDbEntity
  8
1
100
AcDbSpline
210
0.0
220
0.0
230
1.0
 70
     8
 71
     3
 72
    24
 73
    20
 74
    18
 42
0.0000000001
 43
0.0000000001
 44
0.000001
 12
0.0500729887188738
 22
0.9987455610918928
 32
0.0
 13
0.0568536831180996
 23
0.9983825212391826
 33
0.0
 40
0.0
 40
0.0
 40
0.0
 40
0.0
 40
0.0359193577886425
 40
0.0718328564553259
 40
0.1075054223748691
 40
0.1431178680437255
 40
0.1799149425432711
 40
0.2193096093857052
 40
0.2612376079685466
 40
0.3047240923469265
 40
0.3502868826842325
 40
0.3999066258514215
 40
0.4559681172532809
 40
0.5198391617001989
 40
0.5912497268156433
 40
0.6692980665139882
 40
0.7524374771936543
 40
0.8380578774373972
 40
0.9231504109535359
 40
0.9231504109535359
 40
0.9231504109535359
 40
0.9231504109535359
 10
50.69653988731187
 20
3.24998776389998
 30
0.0
 10
50.69713941717765
 20
3.261945863616205
 30
0.0
 10
50.69834126449217
 20
3.285859967950273
 30
0.0
 10
50.7001494863951
 20
3.321649459035029
 30
0.0
 10
50.70195951337456
 20
3.357336423554684
 30
0.0
 10
50.70379074314377
 20
3.393317216059642
 30
0.0
 10
50.70569343361802
 20
3.430536676898753
 30
0.0
 10
50.7077132939616
 20
3.469858080118456
 30
0.0
 10
50.70985942917281
 20
3.511405738555538
 30
0.0
 10
50.71212567937386
 20
3.555005972718646
 30
0.0
 10
50.71454176292974
 20
3.601165792102605
 30
0.0
 10
50.71719751327901
 20
3.651510470010151
 30
0.0
 10
50.72019976312919
 20
3.707948101133453
 30
0.0
 10
50.72361940018237
 20
3.771637399340107
 30
0.0
 10
50.727470790415
 20
3.842643012097582
 30
0.0
 10
50.73171580121647
 20
3.920059491716514
 30
0.0
 10
50.73627013181516
 20
4.002202722913068
 30
0.0
 10
50.74100632296216
 20
4.086687525012479
 30
0.0
 10
50.74422312463292
 20
4.143500844516509
 30
0.0
 10
50.74583573261174
 20
4.171819143899995
 30
0.0
 11
50.69653988731187
 21
3.24998776389998
 31
0.0
 11
50.69834283361178
 21
3.285861844199985
 31
0.0
 11
50.70015419701184
 21
3.3217296336
 31
0.0
 11
50.70196056761171
 21
3.357356435399992
 31
0.0
 11
50.70377098881175
 21
3.392922833700026
 31
0.0
 11
50.70564968701177
 21
3.429671918099984
 31
0.0
 11
50.70767079231171
 21
3.469014705599988
 31
0.0
 11
50.70983383991171
 21
3.510886871900027
 31
0.0
 11
50.71209131971176
 21
3.554314721600007
 31
0.0
 11
50.7144730444117
 21
3.59981521909998
 31
0.0
 11
50.71708683921173
 21
3.649366071900033
 31
0.0
 11
50.72006480071166
 21
3.705348413699994
 31
0.0
 11
50.72348914311175
 21
3.769127597100009
 31
0.0
 11
50.72735666741181
 21
3.840433355000016
 31
0.0
 11
50.73162954231174
 21
3.918364644699977
 31
0.0
 11
50.73623172161177
 21
4.001376581100032
 31
0.0
 11
50.7410231633117
 21
4.086862808100022
 31
0.0
 11
50.74583573261174
 21
4.171819143899995
 31
0.0
  0
SPLINE
  5
55485
330
1F
100
AcDbEntity
  8
1
100
AcDbSpline
210
0.0
220
0.0
230
1.0
 70
     8
 71
     3
 72
    28
 73
    24
 74
    22
 42
0.0000000001
 43
0.0000000001
 44
0.000001
 12
0.0491201323270987
 22
0.9987928777279943
 32
0.0
 13
0.0504174163818718
 23
0.9987282333675048
 33
0.0
 40
0.0
 40
0.0
 40
0.0
 40
0.0
 40
0.0796699818220076
 40
0.1504813503349803
 40
0.2135506411619155
 40
0.2699055332307993
 40
0.3204802851157504
 40
0.3659243530697378
 40
0.4068152247160389
 40
0.4437486699382122
 40
0.477659603144716
 40
0.5110965887809646
 40
0.5454362199367076
 40
0.579928838759914
 40
0.6141445792245181
 40
0.6480674351494958
 40
0.6826684981590237
 40
0.7195937857463474
 40
0.7598545647209545
 40
0.8026995912270377
 40
0.8468023940426672
 40
0.8900865681647804
 40
0.9306070606688868
 40
0.9306070606688868
 40
0.9306070606688868
 40
0.9306070606688868
 10
50.74583573261174
 20
4.171819143899995
 30
0.0
 10
50.74714019929496
 20
4.198343747370842
 30
0.0
 10
50.74962522871675
 20
4.248442608885028
 30
0.0
 10
50.75319773740393
 20
4.319536457628942
 30
0.0
 10
50.75643011952746
 20
4.382865876916497
 30
0.0
 10
50.75935793390937
 20
4.439456503822611
 30
0.0
 10
50.76199935443122
 20
4.490179010699407
 30
0.0
 10
50.76437760571963
 20
4.535753563679946
 30
0.0
 10
50.76651585039662
 20
4.576787351831399
 30
0.0
 10
50.76844700003192
 20
4.613982337137485
 30
0.0
 10
50.7702380470576
 20
4.648696619460395
 30
0.0
 10
50.77197740729076
 20
4.682547812494192
 30
0.0
 10
50.77373337618173
 20
4.716592303158279
 30
0.0
 10
50.77552191578519
 20
4.75089504103461
 30
0.0
 10
50.77733534840246
 20
4.785057355734267
 30
0.0
 10
50.77919524335135
 20
4.819253380352293
 30
0.0
 10
50.78116376754866
 20
4.854347968026019
 30
0.0
 10
50.78333002869664
 20
4.891547369346213
 30
0.0
 10
50.78577365237634
 20
4.931483082755363
 30
0.0
 10
50.78842391806796
 20
4.973803045020275
 30
0.0
 10
50.7910977473237
 20
5.017131297452948
 30
0.0
 10
50.7935962154649
 20
5.059694016064938
 30
0.0
 10
50.79506838439755
 20
5.087590255002055
 30
0.0
 10
50.79574936391174
 20
5.101079908299993
 30
0.0
 11
50.74583573261174
 21
4.171819143899995
 31
0.0
 11
50.74977959841175
 21
4.251391456500016
 31
0.0
 11
50.75333608381169
 21
4.322113456800025
 31
0.0
 11
50.75655090511173
 21
4.385100760200032
 31
0.0
 11
50.75945982851175
 21
4.441380525999989
 31
0.0
 11
50.76208825091175
 21
4.491886930799978
 31
0.0
 11
50.76445510991169
 21
4.537269320400014
 31
0.0
 11
50.76658214511173
 21
4.578104833099985
 31
0.0
 11
50.76849615861175
 21
4.614988649599979
 31
0.0
 11
50.77024399021178
 21
4.64885450950004
 31
0.0
 11
50.77196204321166
 21
4.682247327500022
 31
0.0
 11
50.7737329428117
 21
4.716541265399996
 31
0.0
 11
50.77553114331175
 21
4.750986979599986
 31
0.0
 11
50.77734697461171
 21
4.785154503000001
 31
0.0
 11
50.77919145561174
 21
4.819027177099997
 31
0.0
 11
50.7811312725118
 21
4.853573822099974
 31
0.0
 11
50.7832817017117
 21
4.890436438999984
 31
0.0
 11
50.78572932251171
 21
4.930622748400026
 31
0.0
 11
50.78839032351169
 21
4.97338506020003
 31
0.0
 11
50.79109134561173
 21
5.017405073500015
 31
0.0
 11
50.79360523301176
 21
5.060616181900002
 31
0.0
 11
50.79574936391174
 21
5.101079908299993
 31
0.0
  0
LINE
  5
55486
330
1F
100
AcDbEntity
  8
1
100
AcDbLine
 10
50.51474850467804
 20
-0.1849324589597927
 30
0.0
 11
50.52654250467805
 21
-0.2067954589597889
 31
0.0
  0
SPLINE
  5
55487
330
1F
100
AcDbEntity
  8
1
100
AcDbSpline
210
0.0
220
0.0
230
1.0
 70
     8
 71
     3
 72
    18
 73
    14
 74
     0
 42
0.0000000001
 43
0.0000000001
 40
0.0
 40
0.0
 40
0.0
 40
0.0
 40
0.0033428479668778
 40
0.0162855734778196
 40
0.0418929576074673
 40
0.067367463142007
 40
0.0929233954904393
 40
0.1184558312617857
 40
0.1438429116922201
 40
0.1566212008708871
 40
0.1695511466940501
 40
0.1826346896329039
 40
0.1949773647990549
 40
0.1949773647990549
 40
0.1949773647990549
 40
0.1949773647990549
 10
46.98435535691174
 20
7.87019171510002
 30
0.0
 10
46.98546910039744
 20
7.870226374657647
 30
0.0
 10
46.99089500671852
 20
7.87039495778356
 30
0.0
 10
47.00485341404834
 20
7.870801976438031
 30
0.0
 10
47.02618873967759
 20
7.871323084070013
 30
0.0
 10
47.05173044643896
 20
7.871794825964116
 30
0.0
 10
47.07724919916183
 20
7.872138022912508
 30
0.0
 10
47.10274017782097
 20
7.872356105215544
 30
0.0
 10
47.12397275863708
 20
7.872432052085912
 30
0.0
 10
47.14100454768543
 20
7.872417197788536
 30
0.0
 10
47.15393506083199
 20
7.872365650871699
 30
0.0
 10
47.16672013664259
 20
7.872273840027105
 30
0.0
 10
47.17519516357202
 20
7.872193082454657
 30
0.0
 10
47.17930920741179
 20
7.872154215600005
 30
0.0
  0
SPLINE
  5
55488
330
1F
100
AcDbEntity
  8
1
100
AcDbSpline
210
0.0
220
0.0
230
1.0
 70
     8
 71
     3
 72
    19
 73
    15
 74
     0
 42
0.0000000001
 43
0.0000000001
 40
0.2100024645242005
 40
0.2100024645242005
 40
0.2100024645242005
 40
0.2100024645242005
 40
0.2189121815899325
 40
0.2273901447297271
 40
0.2350426112799268
 40
0.2422328337859406
 40
0.2493186824444628
 40
0.2564638200033773
 40
0.2636301885017222
 40
0.2707717786322839
 40
0.2779214748469196
 40
0.2852646324318862
 40
0.2930977554827656
 40
0.3017217272465491
 40
0.3017217272465491
 40
0.3017217272465491
 40
0.3017217272465491
 10
46.98573930591663
 20
7.87020802816869
 30
0.0
 10
46.98276971262958
 20
7.870164914747022
 30
0.0
 10
46.97697450524986
 20
7.870075579059289
 30
0.0
 10
46.96862896957845
 20
7.869935113331791
 30
0.0
 10
46.96085666184188
 20
7.869796048393538
 30
0.0
 10
46.95354842043189
 20
7.869659707475022
 30
0.0
 10
46.94640933366218
 20
7.869522606052669
 30
0.0
 10
46.9392782413185
 20
7.869383363770282
 30
0.0
 10
46.93212860494333
 20
7.869242083033327
 30
0.0
 10
46.92497748629461
 20
7.869098911797721
 30
0.0
 10
46.91776748871956
 20
7.868952629623436
 30
0.0
 10
46.91032706573281
 20
7.868799798200029
 30
0.0
 10
46.90239538273425
 20
7.868633914484007
 30
0.0
 10
46.89691088307808
 20
7.86851923441327
 30
0.0
 10
46.89403687991176
 20
7.868457914500027
 30
0.0
  0
LINE
  5
55489
330
1F
100
AcDbEntity
  8
cut
100
AcDbLine
 10
44.39999699502453
 20
7.85325821690003
 30
0.0
 11
47.1999969950246
 21
7.999999998900023
 31
0.0
1001
ACAD
1000
RTMaterial
1005
0
  0
LINE
  5
5548A
330
1F
100
AcDbEntity
  8
cut
100
AcDbLine
 10
38.79999699502463
 20
7.464999998899997
 30
0.0
 11
42.92391946852461
 21
7.464999998899997
 31
0.0
1001
ACAD
1000
RTMaterial
1005
0
  0
LINE
  5
5548B
330
1F
100
AcDbEntity
  8
cut
100
AcDbLine
 10
47.1999969950246
 20
7.999999998900023
 30
0.0
 11
48.79999699502462
 21
7.999999998900023
 31
0.0
1001
ACAD
1000
RTMaterial
1005
0
  0
LINE
  5
5548C
330
1F
100
AcDbEntity
  8
cut
100
AcDbLine
 10
50.79999699502462
 20
5.499999998900307
 30
0.0
 11
50.79999699502462
 21
5.999999998900023
 31
0.0
1001
ACAD
1000
RTMaterial
1005
0
  0
LINE
  5
5548D
330
1F
100
AcDbEntity
  8
cut
100
AcDbLine
 10
50.51175420892462
 20
-0.000000001099977
 30
0.0
 11
50.79999699502462
 21
5.499999998900023
 31
0.0
1001
ACAD
1000
RTMaterial
1005
0
  0
ARC
  5
5548E
330
1F
100
AcDbEntity
  8
cut
100
AcDbCircle
 10
42.92391946852461
 20
10.46499999889999
 30
0.0
 40
3.0
100
AcDbArc
 50
270.0
 51
299.473821489898
1001
ACAD
1000
RTMaterial
1005
0
  0
ARC
  5
5548F
330
1F
100
AcDbEntity
  8
cut
100
AcDbCircle
 10
48.79999699502462
 20
5.999999998900023
 30
0.0
 40
2.0
100
AcDbArc
 50
0.0
 51
90.0
1001
ACAD
1000
RTMaterial
1005
0
  0
LINE
  5
55490
330
1F
100
AcDbEntity
  8
cut
100
AcDbLine
 10
44.39999699502453
 20
-7.853258216899916
 30
0.0
 11
47.1999969950246
 21
-7.999999998899966
 31
0.0
1001
ACAD
1000
RTMaterial
1005
0
  0
LINE
  5
55491
330
1F
100
AcDbEntity
  8
cut
100
AcDbLine
 10
38.79999699502463
 20
-7.464999998899997
 30
0.0
 11
42.92391946852461
 21
-7.464999998899997
 31
0.0
1001
ACAD
1000
RTMaterial
1005
0
  0
LINE
  5
55492
330
1F
100
AcDbEntity
  8
cut
100
AcDbLine
 10
47.1999969950246
 20
-7.999999998899966
 30
0.0
 11
48.79999699502462
 21
-7.999999998899966
 31
0.0
1001
ACAD
1000
RTMaterial
1005
0
  0
LINE
  5
55493
330
1F
100
AcDbEntity
  8
cut
100
AcDbLine
 10
50.79999699502462
 20
-5.49999999890025
 30
0.0
 11
50.79999699502462
 21
-5.999999998899966
 31
0.0
1001
ACAD
1000
RTMaterial
1005
0
  0
LINE
  5
55494
330
1F
100
AcDbEntity
  8
cut
100
AcDbLine
 10
38.79999699502463
 20
7.464999998899997
 30
0.0
 11
38.79999699502463
 21
-7.464999998899997
 31
0.0
1001
ACAD
1000
RTMaterial
1005
0
  0
LINE
  5
55495
330
1F
100
AcDbEntity
  8
cut
100
AcDbLine
 10
50.51175420892462
 20
0.0000000011000338
 30
0.0
 11
50.79999699502462
 21
-5.499999998899966
 31
0.0
1001
ACAD
1000
RTMaterial
1005
0
  0
ARC
  5
55496
330
1F
100
AcDbEntity
  8
cut
100
AcDbCircle
 10
42.92391946852461
 20
-10.46499999889999
 30
0.0
 40
3.0
100
AcDbArc
 50
60.52617851010198
 51
90.0
1001
ACAD
1000
RTMaterial
1005
0
  0
ARC
  5
55497
330
1F
100
AcDbEntity
  8
cut
100
AcDbCircle
 10
48.79999699502462
 20
-5.999999998899966
 30
0.0
 40
2.0
100
AcDbArc
 50
270.0
 51
0.0
1001
ACAD
1000
RTMaterial
1005
0
  0
VIEWPORT
  5
6B
102
{ACAD_XDICTIONARY
360
55675
102
}
330
50
100
AcDbEntity
 67
     1
  8
0
100
AcDbViewport
 10
150.1652135264906
 20
160.4455827878762
 30
0.0
 40
339.1973820494346
 41
282.2272140146125
 68
     1
 69
     1
 12
150.1652135264906
 22
160.4455827878762
 13
0.0
 23
0.0
 14
10.0
 24
10.0
 15
10.0
 25
10.0
 16
0.0
 26
0.0
 36
1.0
 17
0.0
 27
0.0
 37
0.0
 42
50.0
 43
0.0
 44
0.0
 45
282.2272140146125
 50
0.0
 51
0.0
 72
  1000
 90
    32864
  1

281
     0
 71
     1
 74
     0
110
0.0
120
0.0
130
0.0
111
1.0
121
0.0
131
0.0
112
0.0
122
1.0
132
0.0
 79
     0
146
0.0
  0
VIEWPORT
  5
6D
102
{ACAD_XDICTIONARY
360
55677
102
}
330
50
100
AcDbEntity
 67
     1
  8
0
100
AcDbViewport
 10
133.3499939441681
 20
101.5999939441681
 30
0.0
 40
213.3599903106689
 41
162.5599903106689
 68
     2
 69
     2
 12
210.0
 22
148.5
 13
0.0
 23
0.0
 14
10.0
 24
10.0
 15
10.0
 25
10.0
 16
0.0
 26
0.0
 36
1.0
 17
0.0
 27
0.0
 37
0.0
 42
50.0
 43
0.0
 44
0.0
 45
324.0677920111345
 50
0.0
 51
0.0
 72
   100
 90
    32864
  1

281
     0
 71
     1
 74
     0
110
0.0
120
0.0
130
0.0
111
1.0
121
0.0
131
0.0
112
0.0
122
1.0
132
0.0
 79
     0
146
0.0
  0
ENDSEC
  0
SECTION
  2
OBJECTS
  0
DICTIONARY
  5
C
330
0
100
AcDbDictionary
281
     1
  3
ACAD_COLOR
350
85
  3
ACAD_GROUP
350
D
  3
ACAD_LAYOUT
350
1A
  3
ACAD_MATERIAL
350
84
  3
ACAD_MLINESTYLE
350
17
  3
ACAD_PLOTSETTINGS
350
19
  3
ACAD_PLOTSTYLENAME
350
E
  3
ACAD_TABLESTYLE
350
A1
  3
ACDBHEADERROUNDTRIPXREC
350
55670
  3
AcDbVariableDictionary
350
5E
  3
ASE_INDEX_DICTIONARY
350
349E9
  3
DWGPROPS
350
5566F
  0
DICTIONARY
  5
E2
330
2
100
AcDbDictionary
280
     1
281
     1
  3
ACAD_LAYERFILTERS
360
54F66
  3
ACAD_LAYERSTATES
360
3759A
  3
ACLYDICTIONARY
360
54F65
  0
DICTIONARY
  5
31EE
330
1F
100
AcDbDictionary
280
     1
281
     1
  3
ACAD_SORTENTS
360
31EF
  0
DICTIONARY
  5
3BEB2
330
680
100
AcDbDictionary
280
     1
281
     1
  3
ACAD_SORTENTS
360
5428A
  0
DICTIONARY
  5
55679
330
71
100
AcDbDictionary
280
     1
281
     1
  3
ACAD_XREC_ROUNDTRIP
360
5567A
  0
DICTIONARY
  5
5567B
330
73
100
AcDbDictionary
280
     1
281
     1
  3
ACAD_XREC_ROUNDTRIP
360
5567C
  0
DICTIONARY
  5
55481
330
55480
100
AcDbDictionary
280
     1
281
     1
  3
ACAD_DIMASSOC
360
55482
  0
DICTIONARY
  5
55675
330
6B
100
AcDbDictionary
280
     1
281
     1
  3
ACAD_XREC_ROUNDTRIP
360
55676
  0
DICTIONARY
  5
55677
330
6D
100
AcDbDictionary
280
     1
281
     1
  3
ACAD_XREC_ROUNDTRIP
360
55678
  0
DICTIONARY
  5
85
102
{ACAD_REACTORS
330
C
102
}
330
C
100
AcDbDictionary
281
     1
  0
DICTIONARY
  5
D
102
{ACAD_REACTORS
330
C
102
}
330
C
100
AcDbDictionary
281
     1
  0
DICTIONARY
  5
1A
102
{ACAD_REACTORS
330
C
102
}
330
C
100
AcDbDictionary
281
     1
  3
\M+1838C\M+18343\M+18341\M+18345\M+183671
350
51
  3
\M+1838C\M+18343\M+18341\M+18345\M+183672
350
56
  3
Model
350
22
  0
DICTIONARY
  5
84
102
{ACAD_REACTORS
330
C
102
}
330
C
100
AcDbDictionary
281
     1
  0
DICTIONARY
  5
17
102
{ACAD_REACTORS
330
C
102
}
330
C
100
AcDbDictionary
281
     1
  3
Standard
350
18
  0
DICTIONARY
  5
19
102
{ACAD_REACTORS
330
C
102
}
330
C
100
AcDbDictionary
281
     1
  0
ACDBDICTIONARYWDFLT
  5
E
102
{ACAD_REACTORS
330
C
102
}
330
C
100
AcDbDictionary
281
     1
  3
Normal
350
F
100
AcDbDictionaryWithDefault
340
F
  0
DICTIONARY
  5
A1
102
{ACAD_REACTORS
330
C
102
}
330
C
100
AcDbDictionary
281
     1
  3
Standard
350
A2
  0
DICTIONARY
  5
55670
102
{ACAD_REACTORS
330
C
102
}
330
C
100
AcDbDictionary
281
     1
  0
DICTIONARY
  5
5E
102
{ACAD_REACTORS
330
C
102
}
330
C
100
AcDbDictionary
281
     1
  3
CTABLESTYLE
350
B8
  3
DIMASSOC
350
5F
  3
HIDETEXT
350
63
  3
PROJECTNAME
350
31CE
  0
DICTIONARY
  5
349E9
102
{ACAD_REACTORS
330
C
102
}
330
C
100
AcDbDictionary
281
     1
  3
ASEBlockHierarchyIndexRecord
350
349EA
1001
DCO15
1040
1842496176.844
  0
XRECORD
  5
5566F
102
{ACAD_REACTORS
330
C
102
}
330
C
100
AcDbXrecord
280
     1
  1
DWGPROPS COOKIE
  2

  3

  4

  6

  7

  8

  9

300
=
301
=
302
=
303
=
304
=
305
=
306
=
307
=
308
=
309
=
 40
2.751196134259259
 41
2455489.391063368
 42
2458572.998480474
  1

 90
        0
  0
DICTIONARY
  5
54F66
102
{ACAD_REACTORS
330
E2
102
}
330
E2
100
AcDbDictionary
281
     1
  0
DICTIONARY
  5
3759A
102
{ACAD_REACTORS
330
E2
102
}
330
E2
100
AcDbDictionary
281
     1
  0
DICTIONARY
  5
54F65
102
{ACAD_REACTORS
330
E2
102
}
330
E2
100
AcDbDictionary
281
     1
1001
ACAD
1000
<All
  0
SORTENTSTABLE
  5
31EF
102
{ACAD_REACTORS
330
31EE
102
}
330
31EE
100
AcDbSortentsTable
330
1F
331
68C
  5
3C6B0
331
53AD9
  5
53ADC
  0
SORTENTSTABLE
  5
5428A
102
{ACAD_REACTORS
330
3BEB2
102
}
330
3BEB2
100
AcDbSortentsTable
330
680
  0
XRECORD
  5
5567A
102
{ACAD_REACTORS
330
55679
102
}
330
55679
100
AcDbXrecord
280
     1
102
SHADEPLOT
 70
     0
  0
XRECORD
  5
5567C
102
{ACAD_REACTORS
330
5567B
102
}
330
5567B
100
AcDbXrecord
280
     1
102
SHADEPLOT
 70
     0
  0
DIMASSOC
  5
55482
102
{ACAD_REACTORS
330
55481
102
}
330
55481
100
AcDbDimAssoc
330
55480
 90
        2
 70
     0
 71
     0
  1
AcDbOsnapPointRef
 72
     3
331
5547F
 73
     2
 91
        0
 40
0.0
 10
0.0
 20
0.0
 30
0.0
 75
     0
  0
XRECORD
  5
55676
102
{ACAD_REACTORS
330
55675
102
}
330
55675
100
AcDbXrecord
280
     1
102
SHADEPLOT
 70
     0
  0
XRECORD
  5
55678
102
{ACAD_REACTORS
330
55677
102
}
330
55677
100
AcDbXrecord
280
     1
102
SHADEPLOT
 70
     0
  0
LAYOUT
  5
51
102
{ACAD_XDICTIONARY
360
B2
102
}
102
{ACAD_REACTORS
330
1A
102
}
330
1A
100
AcDbPlotSettings
  1

  2
none_device
  4
Letter_(8.50_x_11.00_Inches)
  6

 40
6.349999904632567
 41
6.349999904632567
 42
6.350006103515625
 43
6.350006103515625
 44
215.8999938964844
 45
279.3999938964844
 46
0.0
 47
0.0
 48
0.0
 49
0.0
140
0.0
141
0.0
142
1.0
143
1.0
 70
   688
 72
     1
 73
     1
 74
     5
  7

 75
    16
147
1.0
148
0.0
149
0.0
100
AcDbLayout
  1
\M+1838C\M+18343\M+18341\M+18345\M+183671
 70
     1
 71
     1
 10
-6.350006103515625
 20
-6.349999904632567
 11
273.0499877929688
 21
209.5499939918518
 12
0.0
 22
0.0
 32
0.0
 14
26.66999878883364
 24
20.31999878883365
 34
0.0
 15
240.0299890995025
 25
182.8799890995025
 35
0.0
146
0.0
 13
0.0
 23
0.0
 33
0.0
 16
1.0
 26
0.0
 36
0.0
 17
0.0
 27
1.0
 37
0.0
 76
     0
330
50
331
6B
  0
LAYOUT
  5
56
102
{ACAD_XDICTIONARY
360
B5
102
}
102
{ACAD_REACTORS
330
1A
102
}
330
1A
100
AcDbPlotSettings
  1

  2
none_device
  4
Letter_(8.50_x_11.00_Inches)
  6

 40
6.349999904632567
 41
6.349999904632567
 42
6.350006103515625
 43
6.350006103515625
 44
215.8999938964844
 45
279.3999938964844
 46
0.0
 47
0.0
 48
0.0
 49
0.0
140
0.0
141
0.0
142
1.0
143
1.0
 70
   688
 72
     1
 73
     1
 74
     5
  7

 75
    16
147
1.0
148
0.0
149
0.0
100
AcDbLayout
  1
\M+1838C\M+18343\M+18341\M+18345\M+183672
 70
     1
 71
     2
 10
-6.350006103515625
 20
-6.349999904632567
 11
273.0499877929688
 21
209.5499939918518
 12
0.0
 22
0.0
 32
0.0
 14
26.66999878883363
 24
20.31999878883363
 34
0.0
 15
240.0299890995026
 25
182.8799890995025
 35
0.0
146
0.0
 13
0.0
 23
0.0
 33
0.0
 16
1.0
 26
0.0
 36
0.0
 17
0.0
 27
1.0
 37
0.0
 76
     0
330
55
331
71
  0
LAYOUT
  5
22
102
{ACAD_XDICTIONARY
360
55671
102
}
102
{ACAD_REACTORS
330
1A
102
}
330
1A
100
AcDbPlotSettings
  1

  2
none_device
  4
ANSI_A_(8.50_x_11.00_Inches)
  6

 40
6.349999904632567
 41
19.04999923706055
 42
6.350006103515625
 43
19.04998779296875
 44
215.8999938964844
 45
279.3999938964844
 46
0.0
 47
0.0
 48
0.0
 49
0.0
140
0.0
141
0.0
142
1.0
143
78.436453180766
 70
 11952
 72
     0
 73
     1
 74
     0
  7

 75
     0
147
0.0127491741332998
148
0.0
149
0.0
100
AcDbLayout
  1
Model
 70
     1
 71
     0
 10
0.0
 20
0.0
 11
12.0
 21
9.0
 12
0.0
 22
0.0
 32
0.0
 14
0.0
 24
0.0
 34
0.0
 15
0.0
 25
0.0
 35
0.0
146
0.0
 13
0.0
 23
0.0
 33
0.0
 16
1.0
 26
0.0
 36
0.0
 17
0.0
 27
1.0
 37
0.0
 76
     0
330
1F
  0
MLINESTYLE
  5
18
102
{ACAD_REACTORS
330
17
102
}
330
17
100
AcDbMlineStyle
  2
STANDARD
 70
     0
  3

 62
   256
 51
90.0
 52
90.0
 71
     2
 49
0.5
 62
   256
  6
BYLAYER
 49
-0.5
 62
   256
  6
BYLAYER
  0
ACDBPLACEHOLDER
  5
F
102
{ACAD_REACTORS
330
E
102
}
330
E
  0
TABLESTYLE
  5
A2
102
{ACAD_REACTORS
330
A1
102
}
330
A1
100
AcDbTableStyle
  3
Standard
 70
     0
 71
     0
 40
1.5
 41
1.5
280
     0
281
     0
  7
Standard
140
4.5
170
     2
 62
     0
 63
     7
283
     0
274
    -2
284
     1
 64
     0
275
    -2
285
     1
 65
     0
276
    -2
286
     1
 66
     0
277
    -2
287
     1
 67
     0
278
    -2
288
     1
 68
     0
279
    -2
289
     1
 69
     0
  7
Standard
140
6.0
170
     5
 62
     0
 63
     7
283
     0
274
    -2
284
     1
 64
     0
275
    -2
285
     1
 65
     0
276
    -2
286
     1
 66
     0
277
    -2
287
     1
 67
     0
278
    -2
288
     1
 68
     0
279
    -2
289
     1
 69
     0
  7
Standard
140
4.5
170
     5
 62
     0
 63
     7
283
     0
274
    -2
284
     1
 64
     0
275
    -2
285
     1
 65
     0
276
    -2
286
     1
 66
     0
277
    -2
287
     1
 67
     0
278
    -2
288
     1
 68
     0
279
    -2
289
     1
 69
     0
  0
DICTIONARYVAR
  5
B8
102
{ACAD_REACTORS
330
5E
102
}
330
5E
100
DictionaryVariables
280
     0
  1
STANDARD
  0
DICTIONARYVAR
  5
5F
102
{ACAD_REACTORS
330
5E
102
}
330
5E
100
DictionaryVariables
280
     0
  1
2
  0
DICTIONARYVAR
  5
63
102
{ACAD_REACTORS
330
5E
102
}
330
5E
100
DictionaryVariables
280
     0
  1
1
  0
DICTIONARYVAR
  5
31CE
102
{ACAD_REACTORS
330
5E
102
}
330
5E
100
DictionaryVariables
280
     0
  1

  0
XRECORD
  5
349EA
102
{ACAD_REACTORS
330
349E9
102
}
330
349E9
100
AcDbXrecord
280
     1
330
68C
330
0
330
0
330
0
330
0
330
0
330
0
330
0
330
0
330
0
330
0
330
0
330
0
330
0
330
0
330
0
330
0
330
0
330
0
330
0
330
0
330
0
330
0
330
0
330
0
330
0
330
0
330
0
330
0
330
0
330
0
330
0
330
0
330
0
330
0
330
0
330
0
330
0
330
0
330
0
330
0
330
0
330
0
330
0
330
0
330
0
330
0
330
0
330
0
330
0
330
0
330
0
330
0
330
0
330
0
330
0
330
0
330
0
330
0
330
0
330
0
330
0
330
0
330
0
330
0
330
0
330
0
330
0
330
0
330
0
330
0
330
0
330
0
330
0
330
0
330
0
330
0
330
0
330
0
330
0
330
0
330
0
330
0
330
0
330
0
330
0
330
0
330
0
330
0
330
0
330
0
330
0
330
0
330
0
330
0
330
0
330
0
330
0
330
0
330
0
330
0
330
0
330
0
330
0
330
0
330
0
330
0
330
0
330
0
330
0
  0
DICTIONARY
  5
B2
330
51
100
AcDbDictionary
280
     1
281
     1
  3
ACAD_XREC_ROUNDTRIP
360
55673
  3
ADSK_XREC_LAYOUTTHUMBNAIL
360
B3
  0
DICTIONARY
  5
B5
330
56
100
AcDbDictionary
280
     1
281
     1
  3
ACAD_XREC_ROUNDTRIP
360
55674
  3
ADSK_XREC_LAYOUTTHUMBNAIL
360
B6
  0
DICTIONARY
  5
55671
330
22
100
AcDbDictionary
280
     1
281
     1
  3
ACAD_XREC_ROUNDTRIP
360
55672
  0
XRECORD
  5
55673
102
{ACAD_REACTORS
330
B2
102
}
330
B2
100
AcDbXrecord
280
     1
102
SHADEPLOT
 70
     0
102
SHADEPLOTRESLEVEL
 70
     2
102
SHADEPLOTCUSTOMDPI
 70
   300
  0
XRECORD
  5
B3
102
{ACAD_REACTORS
330
B2
102
}
330
B2
100
AcDbXrecord
280
     1
310
28000000B40000008B0000000100080000000000BC61000000000000000000000001000000000000FFFFFF0000000000FFFFFF000000000000000000000000000000000000000000000000000000000000000000330000006600000099000000CC000000FF00000000330000333300006633000099330000CC330000FF3300
310
0000660000336600006666000099660000CC660000FF66000000990000339900006699000099990000CC990000FF99000000CC000033CC000066CC000099CC0000CCCC0000FFCC000000FF000033FF000066FF000099FF0000CCFF0000FFFF000000003300330033006600330099003300CC003300FF003300003333003333
310
33006633330099333300CC333300FF33330000663300336633006666330099663300CC663300FF66330000993300339933006699330099993300CC993300FF99330000CC330033CC330066CC330099CC3300CCCC3300FFCC330000FF330033FF330066FF330099FF3300CCFF3300FFFF330000006600330066006600660099
310
006600CC006600FF00660000336600333366006633660099336600CC336600FF33660000666600336666006666660099666600CC666600FF66660000996600339966006699660099996600CC996600FF99660000CC660033CC660066CC660099CC6600CCCC6600FFCC660000FF660033FF660066FF660099FF6600CCFF6600
310
FFFF660000009900330099006600990099009900CC009900FF00990000339900333399006633990099339900CC339900FF33990000669900336699006666990099669900CC669900FF66990000999900339999006699990099999900CC999900FF99990000CC990033CC990066CC990099CC9900CCCC9900FFCC990000FF99
310
0033FF990066FF990099FF9900CCFF9900FFFF99000000CC003300CC006600CC009900CC00CC00CC00FF00CC000033CC003333CC006633CC009933CC00CC33CC00FF33CC000066CC003366CC006666CC009966CC00CC66CC00FF66CC000099CC003399CC006699CC009999CC00CC99CC00FF99CC0000CCCC0033CCCC0066CC
310
CC0099CCCC00CCCCCC00FFCCCC0000FFCC0033FFCC0066FFCC0099FFCC00CCFFCC00FFFFCC000000FF003300FF006600FF009900FF00CC00FF00FF00FF000033FF003333FF006633FF009933FF00CC33FF00FF33FF000066FF003366FF006666FF009966FF00CC66FF00FF66FF000099FF003399FF006699FF009999FF00CC
310
99FF00FF99FF0000CCFF0033CCFF0066CCFF0099CCFF00CCCCFF00FFCCFF0000FFFF0033FFFF0066FFFF0099FFFF00CCFFFF00FFFFFF00000000000D0D0D001A1A1A00282828003535350043434300505050005D5D5D006B6B6B00787878008686860093939300A1A1A100AEAEAE00BBBBBB00C9C9C900D6D6D600E4E4E400
310
F1F1F100FFFFFF0000000000000000000000000000000000000000000000000000000000000000000000000000000000E2E2E2E2E2E2E2E2E2E2E2E2E2E2E2E2E2E2E2E2E2E2E2E2E2E2E2E2E2E2E2E2E2E2E2E2E2E2E2E2E2E2E2E2E2E2E2E2E2E2E2E2E2E2E2E2E2E2E2E2E2E2E2E2E2E2E2E2E2E2E2E2E2E2E2E2E2E2E2
310
E2E2E2E2E2E2E2E2E2E2E2E2E2E2E2E2E2E2E2E2E2E2E2E2E2E2E2E2E2E2E2E2E2E2E2E2E2E2E2E2E2E2E2E2E2E2E2E2E2E2E2E2E2E2E2E2E2E2E2E2E2E2E2E2E2E2E2E2E2E2E2E2E2E2E2E2E2E2E2E2E2E2E2E2E2E2E2E2E2E2E2E2E2E2E2E2E2E2E2E2E2E2F5F5F5F5F5F5F5F5F5F5F5F5F5F5F5F5F5F5F5F5F5F5F5F5F5
310
F5F5F5F5F5F5F5F5F5F5F5F5F5F5F5F5F5F5F5F5F5F5F5F5F5F5F5F5F5F5F5F5F5F5F5F5F5F5F5F5F5F5F5F5F5F5F5F5F5F5F5F5F5F5F5F5F5F5F5F5F5F5F5F5F5F5F5F5F5F5F5F5F5F5F5F5F5F5F5F5F5F5F5F5F5F5F5F5F5F5F5F5F5F5F5F5F5F5F5F5F5F5F5F5F5F5F5F5F5F5F5F5F5F5F5F5F5F5F5F5F5F5F5F5F5F5F5
310
F5F5F5F5F5F5F5F5F5F5F5F5F5F5F5F5F5F5F5F5F5F5F5F5F5F5E2E2F5F5F5F5F5F5F5F5F5F5F5F5F5F5F5F5F5F5F5F5F5F5F5F5F5F5F5F5F5F5F5F5F5F5F5F5F5F5F5F5F5F5F5F5F5F5F5F5F5F5F5F5F5F5F5F5F5F5F5F5F5F5F5F5F5F5F5F5F5F5F5F5F5F5F5F5F5F5F5F5F5F5F5F5F5F5F5F5F5F5F5F5F5F5F5F5F5F5F5
310
F5F5F5F5F5F5F5F5F5F5F5F5F5F5F5F5F5F5F5F5F5F5F5F5F5F5F5F5F5F5F5F5F5F5F5F5F5F5F5F5F5F5F5F5F5F5F5F5F5F5F5F5F5F5F5F5F5F5F5F5F5F5F5F5F5F5F5F5F5F5F5F5F5F5F5F5F5F5F5E2E2F5F5F5F5F5F5F5F5F5F5F5F5F5F5F5F5F5F5F5F5F5F5F5F5F5F5F5F5F5F5F5F5F5F5F5F5F5F5F5F5F5F5F5F5F5F5
310
F5F5F5F5F5F5F5F5F5F5F5F5F5F5F5F5F5F5F5F5F5F5F5F5F5F5F5F5F5F5F5F5F5F5F5F5F5F5F5F5F5F5F5F5F5F5F5F5F5F5F5F5F5F5F5F5F5F5F5F5F5F5F5F5F5F5F5F5F5F5F5F5F5F5F5F5F5F5F5F5F5F5F5F5F5F5F5F5F5F5F5F5F5F5F5F5F5F5F5F5F5F5F5F5F5F5F5F5F5F5F5F5F5F5F5F5F5F5F5F5F5F5F5F5F5F5F5
310
F5F5F5F5F5E2E2F5F5F5F5E2E2E2E2E2E2E2E2F5F5F5F5F5F5F5F5F5E2E2E2E2E2E2E2E2E2E2E2E2E2E2E2F5F5F5F5F5F5F5F5F5E2E2E2E2E2E2E2E2E2E2E2E2E2E2E2E2F5F5F5F5F5F5F5F5E2E2E2E2E2E2E2E2E2E2E2E2E2E2E2E2F5F5F5F5F5F5F5F5E2E2E2E2E2E2E2E2E2E2E2E2E2E2E2E2F5F5F5F5F5F5F5F5E2E2E2
310
E2E2E2E2E2E2E2E2E2E2E2E2E2F5F5F5F5F5F5F5F5F5E2E2E2E2E2E2E2E2E2E2E2E2E2E2E2F5F5F5F5F5F5F5F5F5E2E2E2E2E2E2E2E2F5F5F5F5E2E2F5F5F5F5E2F5F5F5F5F5F5F5F5F5F5F5F5F5F5F5F5F5F5F5F5F5F5F5F5F5F5F5F5F5F5F5F5F5F5F5F5F5F5F5F5F5F5F5F5F5F5F5F5F5F5F5F5F5F5F5F5F5F5F5F5F5F5
310
F5F5F5F5F5F5F5F5F5F5F5F5F5F5F5F5F5F5F5F5F5F5F5F5F5F5F5F5F5F5F5F5F5F5F5F5F5F5F5F5F5F5F5F5F5F5F5F5F5F5F5F5F5F5F5F5F5F5F5F5F5F5F5F5F5F5F5F5F5F5F5F5F5F5F5F5F5F5F5F5F5F5F5F5F5F5F5F5F5F5F5F5F5F5F5F5F5F5F5F5F5F5F5F5F5F5E2F5F5F5F5E2E2F5F5F5F5E2F5F5F5F5F5F5F5F5F5
310
F5F5F5F5F5F5F5F5F5F5F5F5F5F5F5F5F5F5F5F5F5F5F5F5F5F5F5F5F5F5F5F5F5F5F5F5F5F5F5F5F5F5F5F5F5F5F5F5F5F5F5F5F5F5F5F5F5F5F5F5F5F5F5F5F5F5F5F5F5F5F5F5F5F5F5F5F5F5F5F5F5F5F5F5F5F5F5F5F5F5F5F5F5F5F5F5F5F5F5F5F5F5F5F5F5F5F5F5F5F5F5F5F5F5F5F5F5F5F5F5F5F5F5F5F5F5F5
310
F5F5F5F5F5F5F5F5F5F5F5F5F5F5F5F5F5F5F5F5F5F5F5F5F5F5F5F5F5F5F5F5E2F5F5F5F5E2E2F5F5F5F5E2F5F5F5F5F5F5F5F5F5F5F5F5F5F5F5F5F5F5F5F5F5F5F5F5F5F5F5F5F5F5F5F5F5F5F5F5F5F5F5F5F5F5F5F5F5F5F5F5F5F5F5F5F5F5F5F5F5F5F5F5F5F5F5F5F5F5F5F5F5F5F5F5F5F5F5F5F5F5F5F5F5F5F5
310
F5F5F5F5F5F5F5F5F5F5F5F5F5F5F5F5F5F5F5F5F5F5F5F5F5F5F5F5F5F5F5F5F5F5F5F5F5F5F5F5F5F5F5F5F5F5F5F5F5F5F5F5F5F5F5F5F5F5F5F5F5F5F5F5F5F5F5F5F5F5F5F5F5F5F5F5F5F5F5F5F5F5F5F5F5E2F5F5F5F5E2E2F5F5F5F5E2F5F5F5F5F5F5F5F5F5F5F5F5F5F5F5F5F5F5F5F5F5F5F5F5F5F5F5F5F5F5
310
F5F5F5F5F5F5F5F5F5F5F5F5F5F5F5F5F5F5F5F5F5F5F5F5F5F5F5F5F5F5F5F5F5F5F5F5F5F5F5F5F5F5F5F5F5F5F5F5F5F5F5F5F5F5F5F5F5F5F5F5F5F5F5F5F5F5F5F5F5F5F5F5F5F5F5F5F5F5F5F5F5F5F5F5F5F5F5F5F5F5F5F5F5F5F5F5F5F5F5F5F5F5F5F5F5F5F5F5F5F5F5F5F5F5F5F5F5F5F5F5F5F5F5F5F5F5F5
310
F5F5F5F5F5F5F5F5F5F5F5E2F5F5F5F5E2E2F5F5F5F5E2F5F5F5F5F5F5F5F5F5F5F5F5F5F5F5F5F5F5F5F5F5F5F5F5F5F5F5F5F5F5F5F5F5F5F5F5F5F5F5F5F5F5F5F5F5F5F5F5F5F5F5F5F5F5F5F5F5F5F5F5F5F5F5F5F5F5F5F5F5F5F5F5F5F5F5F5F5F5F5F5F5F5F5F5F5F5F5F5F5F5F5F5F5F5F5F5F5F5F5F5F5F5F5F5
310
F5F5F5F5F5F5F5F5F5F5F5F5F5F5F5F5F5F5F5F5F5F5F5F5F5F5F5F5F5F5F5F5F5F5F5F5F5F5F5F5F5F5F5F5F5F5F5F5F5F5F5F5F5F5F5F5F5F5F5F5F5F5F5F5E2F5F5F5F5E2E2F5F5F5F5E2F5F5F5F5F5F5F5F5F5F5F5F5F5F5F5F5F5F5F5F5F5F5F5F5F5F5F5F5F5F5F5F5F5F5F5F5F5F5F5F5F5F5F5F5F5F5F5F5F5F5F5
310
F5F5F5F5F5F5F5F5F5F5F5F5F5F5F5F5F5F5F5F5F5F5F5F5F5F5F5F5F5F5F5F5F5F5F5F5F5F5F5F5F5F5F5F5F5F5F5F5F5F5F5F5F5F5F5F5F5F5F5F5F5F5F5F5F5F5F5F5F5F5F5F5F5F5F5F5F5F5F5F5F5F5F5F5F5F5F5F5F5F5F5F5F5F5F5F5F5F5F5F5F5F5F5F5F5F5F5F5F5F5F5F5F5F5F5F5F5E2F5F5F5F5E2E2F5F5F5
310
F5E2F5F5F5F5F5F5F5F5F5F5F5F5F5F5F5F5F5F5F5F5F5F5F5F5F5F5F5F5F5F5F5F5F5F5F5F5F5F5F5F5F5F5F5F5F5F5F5F5F5F5F5F5F5F5F5F5F5F5F5F5F5F5F5F5F5F5F5F5F5F5F5F5F5F5F5F5F5F5F5F5F5F5F5F5F5F5F5F5F5F5F5F5F5F5F5F5F5F5F5F5F5F5F5F5F5F5F5F5F5F5F5F5F5F5F5F5F5F5F5F5F5F5F5F5F5
310
F5F5F5F5F5F5F5F5F5F5F5F5F5F5F5F5F5F5F5F5F5F5F5F5F5F5F5F5F5F5F5F5F5F5F5F5F5F5F5F5F5F5F5E2F5F5F5F5E2E2F5F5F5F5E2F5F5F5F5F5F5F5F5F5F5F5F5F5F5F5F5F5F5F5F5F5F5F5F5F5F5F5F5F5F5F5F5F5F5F5F5F5F5F5F5F5F5F5F5F5F5F5F5F5F5F5F5F5F5F5F5F5F5F5F5F5F5F5F5F5F5F5F5F5F5F5F5
310
F5F5F5F5F5F5F5F5F5F5F5F5F5F5F5F5F5F5F5F5F5F5F5F5F5F5F5F5F5F5F5F5F5F5F5F5F5F5F5F5F5F5F5F5F5F5F5F5F5F5F5F5F5F5F5F5F5F5F5F5F5F5F5F5F5F5F5F5F5F5F5F5F5F5F5F5F5F5F5F5F5F5F5F5F5F5F5F5F5F5F5F5F5F5F5F5E2F5F5F5F5E2E2F5F5F5F5F5F5F5F5F5F5F5F5F5F5F5F5F5F5F5F5F5F5F5F5
310
F5F5F5F5F5F5F5F5F5F5F5F5F5F5F5F5F5F5F5F5F5F5F5F5F5F5F5F5F5F5F5F5F5F5F5F5F5F5F5F5F5F5F5F5F5F5F5F5F5F5F5F5F5F5F5F5F5F5F5F5F5F5F5F5F5F5F5F5F5F5F5F5F5F5F5F5F5F5F5F5F5F5F5F5F5F5F5F5F5F5F5F5F5F5F5F5F5F5F5F5F5F5F5F5F5F5F5F5F5F5F5F5F5F5F5F5F5F5F5F5F5F5F5F5F5F5F5
310
F5F5F5F5F5F5F5F5F5F5F5F5F5F5F5F5F5F5F5F5F5F5F5F5F5F5F5E2E2F5F5F5F5F5F5F5F5F5F5F5F5F5F5F5F5F5F5F5F5F5F5F5F5F5F5F5F5F5F5F5F5F5F5F5F5F5F5F5F5F5F5F5F5F5F5F5F5F5F5F5F5F5F5F5F5F5F5F5F5F5F5F5F5F5F5F5F5F5F5F5F5F5F5F5F5F5F5F5F5F5F5F5F5F5F5F5F5F5F5F5F5F5F5F5F5F5F5
310
F5F5F5F5F5F5F5F5F5F5F5F5F5F5F5F5F5F5F5F5F5F5F5F5F5F5F5F5F5F5F5F5F5F5F5F5F5F5F5F5F5F5F5F5F5F5F5F5F5F5F5F5F5F5F5F5F5F5F5F5F5F5F5F5F5F5F5F5F5F5F5F5F5F5F5F5F5F5F5F5E2E2F5F5F5F5F5F5F5F5F5F5F5F5F5F5F5F5F5F5F5F5F5F5F5F5F5F5F5F5F5F5F5F5F5F5F5F5F5F5F5F5F5F5F5F5F5
310
F5F5F5F5F5F5F5F5F5F5F5F5F5F5F5F5F5F5F5F5F5F5F5F5F5F5F5F5F5F5F5F5F5F5F5F5F5F5F5F5F5F5F5F5F5F5F5F5F5F5F5F5F5F5F5F5F5F5F5F5F5F5F5F5F5F5F5F5F5F5F5F5F5F5F5F5F5F5F5F5F5F5F5F5F5F5F5F5F5F5F5F5F5F5F5F5F5F5F5F5F5F5F5F5F5F5F5F5F5F5F5F5F5F5F5F5F5F5F5F5F5F5F5F5F5F5F5
310
F5F5F5F5F5F5E2E2F5F5F5F5F5F5F5F5F5F5F5F5F5F5F5F5F5F5F5F5F5F5F5F5F5F5F5F5F5F5F5F5F5F5F5F5F5F5F5F5F5F5F5F5F5F5F5F5F5F5F5F5F5F5F5F5F5F5F5F5F5F5F5F5F5F5F5F5F5F5F5F5F5F5F5F5F5F5F5F5F5F5F5F5F5F5F5F5F5F5F5F5F5F5F5F5F5F5F5F5F5F5F5F5F5F5F5F5F5F5F5F5F5F5F5F5F5F5F5
310
F5F5F5F5F5F5F5F5F5F5F5F5F5F5F5F5F5F5F5F5F5F5F5F5F5F5F5F5F5F5F5F5F5F5F5F5F5F5F5F5F5F5F5F5F5F5F5F5F5F5F5F5F5F5F5F5F5F5F5E2E2F5F5F5F5F5F5F5F5F5F5F5F5F5F5F5F5F5F5F5F5F5E2E2E2E2E2E2E2E2E2E2E2E2E2E2E2E2E2E2E2E2E2E2E2E2E2E2E2E2E2E2E2E2E2E2E2E2E2E2E2E2E2E2E2E2E2
310
E2E2E2E2E2E2E2E2E2E2E2E2E2E2E2E2E2E2E2E2E2E2E2E2E2E2E2E2E2E2E2E2E2E2E2E2E2E2E2E2E2E2E2E2E2E2E2E2E2E2E2E2E2E2E2E2E2E2E2E2E2E2E2E2E2E2E2E2E2E2E2E2E2E2E2E2E2E2E2E2E2E2E2E2E2E2E2E2E2E2E2F5F5F5F5F5F5F5F5F5F5F5F5F5F5F5F5F5F5F5F5F5E2E2F5F5F5F5F5F5F5F5F5F5F5F5F5
310
F5F5F5F5F5F5F5F5E22D2D2D2D2D2D2D2D2D2D2D2DF5F5F5F5F5F5F5F5F5F5F5F5F5F5F5E2F5F5F5F5F5F5F5F5F5F5F5F5F5F5F5F5F5F5F5F5F5F5F5F5F5F5F5F5F5F5F5F5F5F5F5F5F5F5F5F5F5F5F5F5F5F5F5F5F5F5F5F5F5F5F5F5F5F5F5F5F5F5F5F5F5F5F5F5F5F5F5F5F5F5F5F5F5F5F5F5F5F5F5F5F5F5F5F5F5F5
310
F5F5F5F5F5F5F5F5F5F5F5F5F5F5F5F5E2F5F5F5F5F5F5F5F5F5F5F5F5F5F5F5F5F5F5F5F5F5E2E2F5F5F5F5F5F5F5F5F5F5F5F5F5F5F5F5F5F5F5F5F5E22D2D2DF5F5E2F5F5F5F5F52DF5F5F5F5F5F5F5F5F5F5F5F5F5F5F5E2F5F5F5F5F5F5F5F5F5F5F5F5F5F5F5F5F5F5F5F5F5F5F5F5F5F5F5F5F5F5F5F5F5F5F5F5F5
310
F5F5F5F5F5F5F5F5F5F5F5F5F5F5F5F5F5F5F5F5F5F5F5F5F5F5F5F5F5F5F5F5F5F5F5F5F5F5F5F5F5F5F5F5F5F5F5F5F5F5F5F5F5F5F5F5F5F5F5F5F5F5F5F5F5F5F5F5F5E2F5F5F5F5F5F5F5F5F5F5F5F5F5F5F5F5F5F5F5F5F5E2E2F5F5F5F5F5F5F5F5F5F5F5F5F5F5F5F5F5F5F5F5F5E2DCF52DF5F5E2F5F5F5F5F52D
310
F5F5F5F5F5F5F5F5F5F5F5F5F5F5F5E2F5F5F5F5F5F5F5F5F5F5F5F5F5F5F5F5F5F5F5F5F5F5F5F5F5F5F5F5F5F5F5F5F5F5F5F5F5F5F5F5F5F5F5F5F5F5F5F5F5F5F5F5F5F5F5F5F5F5F5F5F5F5F5F5F5F5F5F5F5F5F5F5F5F5F5F5F5F5F5F5F5F5F5F5F5F5F5F5F5F5F5F5F5F5F5F5F5F5F5F5F5F5F5F5F5F5E2F5F5F5F5
310
F5F5F5F5F5F5F5F5F5F5F5F5F5F5F5F5F5E2E2F5F5F5F5F5F5F5F5F5F5F5F5F5F5F5F5F5F5F5F5F5E2BEF52D2D2D2D2D2D2D2DE2E2E2E2E2E2E2E2E2E2E2E2E2E2E2E2E2E2F5F5F5F5F5F5F5F5F5F5F5F5F5F5F5F5F5F5F5F5F5F5F5F5F5F5F5F5F5F5F5F5F5F5F5F5F5F5F5F5F5F5F5F5F5F5F5F5F5F5F5F5F5F5F5F5F5F5
310
F5F5F5F5F5F5F5F5F5F5F5F5F5F5F5F5F5F5F5F5F5F5F5F5F5F5F5F5F5F5F5F5F5F5F5F5F5F5F5F5F5F5F5F5F5F5F5F5E2F5F5F5F5F5F5F5F5F5F5F5F5F5F5F5F5F5F5F5F5F5E2E2F5F5F5F5E2F5F5F5F5F5F5F5F5F5F5F5F5F5F5F5F5E2DCF5F5F5F5E2F5F5F5F5F5E2F5F5F5F5F5F5F5F5F5F5F5F5F5F5F5F5F5F5F5F5F5
310
F5F5F5F5F5F5F5F5F5F5F5F5F5F5F5F5F5F5F5F5F5F5F5F5F5F5F5F5F5F5F5F5F5F5F5F5F5F5F5F5F5F5F5F5F5F5F5F5F5F5F5F5F5F5F5F5F5F5F5F5F5F5F5F5F5F5F5F5F5F5F5F5F5F5F5F5F5F5F5F5F5F5F5F5F5F5F5F5F5F5F5F5F5F5F5F5F5F5F5F5F5E2F5F5F5F5F5F5F5F5F5F5F5F5F5F5F5F5E2F5F5F5F5E2E2F5F5
310
F5F5E2F5F5F5F5F5F5F5F5F5F5F5F5F5F5F5F5E2F5F5F5F5F5E2F5F5F5F5F5E2F5F5F5F5F5F5F5F5F5F5F5F5F5F5F5F5F5F5F5F5F5F5F5F5F5F5F5F5F5F5F5F5F5F5F5F5F5F5F5F5F5F5F5F5F5F5F5F5F5F5F5F5F5F5F5F5F5F5F5F5F5F5F5F5F5F5F5F5F5F5F5F5F5F5F5F5F5F5F5F5F5F5F5F5F5F5F5F5F5F5F5F5F5F5F5
310
F5F5F5F5F5F5F5F5F5F5F5F5F5F5F5F5F5F5F5F5F5F5F5F5F5F5F5E2F5F5F5F5F5F5F5F5F5F5F5F5F5F5F5F5E2F5F5F5F5E2E2F5F5F5F5E2F5F5F5F5F5F5F5F5F5F5F5F5F5F5F5F5E2F5F5F5F5F5E2F5F5F5F5F5E2F5F5F5F5F5F5F5F5F5F5F5F5F5F5F5F5F5F5F5F5F5F5F5F5F5F5F5F5F5F5F5F5F5F5F5F5F5F5F5F5F5F5
310
F5F5F5F5F5F5F5F5F5F5F5F5F5F5F5F5F5F5F5F5F5F5F5F5F5F5F5F5F5F5F5F5F5F5F5F5F5F5F5F5F5F5F5F5F5F5F5F5F5F5F5F5F5F5F5F5F5F5F5F5F5F5F5F5F5F5F5F5F5F5F5F5F5F5F5F5F5F5F5F5E2F5F5F5F5F5F5F5F5F5F5F5F5F5F5F5F5E2F5F5F5F5E2E2F5F5F5F5E2F5F5F5F5F5F5F5F5F5F5F5F5F5F5F5F5E2F5
310
F5F5F5F5E2F5F5F5F5F5E2F5F5F5F5F5F5F5F5F5F5F5F5F5F5F5F5F5F5F5F5F5F5F5F5F5F5F5F5F5F5F5F5F5F5F5F5F5F5F5F5F5F5F5F5F5F5F5F5F5F5F5F5F5F5F5F5F5F5F5F5F5F5F5F5F5F5F5F5F5F5F5F5F5F5F5F5F5F5F5F5F5F5F5F5F5F5F5F5F5F5F5F5F5F5F5F5F5F5F5F5F5F5F5F5F5F5F5F5F5F5F5F5F5F5F5F5
310
F5F5F5F5F5F5E2F5F5F5F5F5F5F5F5F5F5F5F5F5F5F5F5E2F5F5F5F5E2E2F5F5F5F5E2F5F5F5F5F5F5F5F5F5F5F5F5F5F5F5F5E2E2E2E2E2E2E2F5F5F5F5F5E2F5F5F5F5F5F5F5F5F5F5F5F5F5F5F5F5F5F5F5F5F5F5F5F5F5F5F5F5F5F5F5F5F5F5F5F5F5F5F5F5F5F5F5F5F5F5F5F5F5F5F5F5F5F5F5F5F5F5F5F5F5F5F5
310
F5F5F5F5F5F5F5F5F5F5F5F5F5F5F5F5F5F5F5F5F5F5F5F5F5F5F5F5F5F5F5F5F5F5F5F5F5F5F5F5F5F5F5F5F5F5F5F5F5F5F5F5F5F5F5F5F5F5F5E2F5F5F5F5F5F5F5F5F5F5F5F5F5F5F5F5E2F5F5F5F5E2E2F5F5F5F5E2F5F5F5F5F5F5F5F5F5F5F5F5F5F5F5F5E2E2E2E2F5E2E2F5F5F5F5F5E2F5F5F5F5F5F5F5F5F5F5
310
F5F5F5F5F5F5F5F5F5F5F5F5F5F5F5F5F5F5F5F5F5F5F5F5F5F5F5F5F5F5F5F5F5F5F5F5F5F5F5F5F5F5F5F5F5F5F5F5F5F5F5F5F5F5F5F5F5F5F5F5F5F5F5F5F5F5F5F5F5F5F5F5F5F5F5F5F5F5F5F5F5F5F5F5F5F5F5F5F5F5F5F5F5F5F5F5F5F5F5F5F5F5F5F5F5F5F5F5F5F5F5F5E2F5F5F5F5F5F5F5F5F5F5F5F5F5F5
310
F5F5E2F5F5F5F5E2E2F5F5F5F5E2F5F5F5F5F5F5F5F5F5F5F5F5F5F5F5F5E2E2E2E2F5F5F5F5F5F5F5F5E2F5F5F5F5F5F5F5F5F5F5F5F5F5F5F5F5F5F5F5F5F5F5F5F5F5F5F5F5F5F5F5F5F5F5F5F5F5F5F5F5F5F5F5F5F5F5F5F5F5F5F5F5F5F5F5F5F5F5F5F5F5F5F5F5F5F5F5F5F5F5F5F5F5F5F5F5F5F5F5F5F5F5F5F5
310
F5F5F5F5F5F5F5F5F5F5F5F5F5F5F5F5F5F5F5F5F5F5F5F5F5F5F5F5F5F5F5F5F5F5F5F5F5F5E2F5F5F5F5F5F5F5F5F5F5F5F5F5F5F5F5E2F5F5F5F5E2E2F5F5F5F5E2F5F5F5F5F5F5F5F5F5F5F5F5F5F5F5F5E2F5F5F5F5F5F5F5F5F5F5F5E2F5F5F5F5F5F5F5F5F5F5F5F5F5F5F5F5F5F5F5F5F5F5F5F5F5F5F5F5F5F5F5
310
F5F5F5F5F5F5F5F5F5F5F5F5F5F5F5F5F5F5F5F5F5F5F5F5F5F5F5F5F5F5F5F5F5F5F5F5F5F5F5F5F5F5F5F5F5F5F5F5F5F5F5F5F5F5F5F5F5F5F5F5F5F5F5F5F5F5F5F5F5F5F5F5F5F5F5F5F5F5F5F5F5F5F5F5F5F5F5F5F5F5F5E2F5F5F5F5F5F5F5F5F5F5F5F5F5F5F5F5E2F5F5F5F5E2E2F5F5F5F5E2F5F5F5F5F5F5F5
310
F5F5F5F5F5F5F5F5F5E2E2E2E2E2E2E2E2E2E2E2E2E2F5F5F5F5F5F5F5F5F5F5F5F5F5F5F5F5F5F5F5F5F5F5F5F5F5F5F5F5F5F5F5F5F5F5F5F5F5F5F5F5F5F5F5F5F5F5F5F5F5F5F5F5F5F5F5F5F5F5F5F5F5F5F5F5F5F5F5F5F5F5F5F5F5F5F5F5F5F5F5F5F5F5F5F5F5F5F5F5F5F5F5F5F5F5F5F5F5F5F5F5F5F5F5F5F5
310
F5F5F5F5F5F5F5F5F5F5F5F5F5F5F5F5F5E2F5F5F5F5F5F5F5F5F5F5F5F5F5F5F5F5E2F5F5F5F5E2E2F5F5F5F5E2F5F5F5F5F5F5F5F5F5F5F5F5F5F5F5F5E2E2E2F5F5F5F5F5F5F5F5F5F5F5F5F5F5F5F5F5F5F5F5F5F5F5F5F5F5F5F5F5F5F5F5F5F5F5F5F5F5F5F5F5F5F5F5F5F5F5F5F5F5F5F5F5F5F5F5F5F5F5F5F5F5
310
F5F5F5F5F5F5F5F5F5F5F5F5F5F5F5F5F5F5F5F5F5F5F5F5F5F5F5F5F5F5F5F5F5F5F5F5F5F5F5F5F5F5F5F5F5F5F5F5F5F5F5F5F5F5F5F5F5F5F5F5F5F5F5F5F5F5F5F5F5F5E2F5F5F5F5F5F5F5F5F5F5F5F5F5F5F5F5E2F5F5F5F5E2E2F5F5F5F5E2F5F5F5F5F5F5F5F5F5F5F5F5F5F5F5F5E2E2E2F5F5F5F5F5F5F5F5F5
310
F5F5F5F5F5F5F5F5F5F5F5F5F5F5F5F5F5F5F5F5F5F5F5F5F5F5F5F5F5F5F5F5F5F5F5F5F5F5F5F5F5F5F5F5F5F5F5F5F5F5F5F5F5F5F5F5F5F5F5F5F5F5F5F5F5F5F5F5F5F5F5F5F5F5F5F5F5F5F5F5F5F5F5F5F5F5F5F5F5F5F5F5F5F5F5F5F5F5F5F5F5F5F5F5F5F5F5F5F5F5F5F5F5F5F5F5F5F5F5F5F5F5F5E2F5F5F5
310
F5F5F5F5F5F5F5F5F5F5F5F5F5E2F5F5F5F5E2E2F5F5F5F5E2F5F5F5F5F5F5F5F5F5F5F5F5F5F5F5F5E2F5F5F5F5F5F5F5F5F5F5F5F5F5F5F5F5F5F5F5F5F5F5F5F5F5F5F5F5F5F5F5F5F5F5F5F5F5F5F5F5F5F5F5F5F5F5F5F5F5F5F5F5F5F5F5F5F5F5F5F5F5F5F5F5F5F5F5F5F5F5F5F5F5F5F5F5F5F5F5F5F5F5F5F5F5
310
F5F5F5F5F5F5F5F5F5F5F5F5F5F5F5F5F5F5F5F5F5F5F5F5F5F5F5F5F5F5F5F5F5F5F5F5F5F5F5F5F5F5F5F5F5F5F5F5F5E2F5F5F5F5F5F5F5F5F5F5F5F5F5F5F5F5E2F5F5F5F5E2E2F5F5F5F5E2F5F5F5F5F5F5F5F5F5F5F5F5F5F5F5F5E2F5F5F5F5F5F5F5F5F5F5F5F5F5F5F5F5F5F5F5F5F5F5F5F5F5F5F5F5F5F5F5F5
310
F5F5F5F5F5F5F5F5F5F5F5F5F5F5F5F5F5F5F5F5F5F5F5F5F5F5F5F5F5F5F5F5F5F5F5F5F5F5F5F5F5F5F5F5F5F5F5F5F5F5F5F5F5F5F5F5F5F5F5F5F5F5F5F5F5F5F5F5F5F5F5F5F5F5F5F5F5F5F5F5F5F5F5F5F5F5F5F5F5F5F5F5F5F5F5F5F5F5F5F5F5F5E2F5F5F5F5F5F5F5F5F5F5F5F5F5F5F5F5E2F5F5F5F5E2E2F5
310
F5F5F5E2F5F5F5F5F5F5F5F5F5F5F5F5F5F5F5F5E20F0F0F0F0F0F0F0F0F0F0FF5F5F5F5F5F5F5F5F5F5F5F5F5F5F5F5F5F5F5F5F5F5F5F5F5F5F5F5F5F5F5F5F5F5F5F5F5F5F5F5F5F5F5F5F5F5F5F5F5F5F5F5F5F5F5F5F5F5F5F5F5F5F5F5F5F5F5F5F5F5F5F5F5F5F5F5F5F5F5F5F5F5F5F5F5F5F5F5F5F5F5F5F5F5F5
310
F5F5F5F5F5F5F5F5F5F5F5F5F5F5F5F5F5F5F5F5F5F5F5F5F5F5F5F5E2F5F5F5F5F5F5F5F5F5F5F5F5F5F5F5F5E2F5F5F5F5E2E2F5F5F5F5E2F5F5F5F5F5F5F5F5F5F5F5F5F5F5F5F5E20F0F0F0F0F0F0F0F0F0F0FF5F5F5F5F5F5F5F5F5F5F5F5F5F5F5F5F5F5F5F5F5F5F5F5F5F5F5F5F5F5F5F5F5F5F5F5F5F5F5F5F5F5
310
F5F5F5F5F5F5F5F5F5F5F5F5F5F5F5F5F5F5F5F5F5F5F5F5F5F5F5F5F5F5F5F5F5F5F5F5F5F5F5F5F5F5F5F5F5F5F5F5F5F5F5F5F5F5F5F5F5F5F5F5F5F5F5F5F5F5F5F5F5F5F5F5F5F5F5F5F5F5F5F5F5E2F5F5F5F5F5F5F5F5F5F5F5F5F5F5F5F5E2F5F5F5F5E2E2F5F5F5F5E2F5F5F5F5F5F5F5F5F5F5F5F5F5F5F5F5E2
310
0F0F0F0F0F0F0F0F0F0FF5F5F5F5F5F5F5F5F5F5F5F5F5F5F5F5F5F5F5F5F5F5F5F5F5F5F5F5F5F5F5F5F5F5F5F5F5F5F5F5F5F5F5F5F5F5F5F5F5F5F5F5F5F5F5F5F5F5F5F5F5F5F5F5F5F5F5F5F5F5F5F5F5F5F5F5F5F5F5F5F5F5F5F5F5F5F5F5F5F5F5F5F5F5F5F5F5F5F5F5F5F5F5F5F5F5F5F5F5F5F5F5F5F5F5F5F5
310
F5F5F5F5F5F5F5E2F5F5F5F5F5F5F5F5F5F5F5F5F5F5F5F5E2F5F5F5F5E2E2F5F5F5F5E2F5F5F5F5F5F5F5F5F5F5F5F5F5F5F5F5E2F5F5F5F5F5F5F5F5F5F5F5F5F5F5F5F5F5F5F5F5F5F5F5F5F5F5F5F5F5F5F5F5F5F5F5F5F5F5F5F5F5F5F5F5F5F5F5F5F5F5F5F5F5F5F5F5F5F5F5F5F5F5F5F5F5F5F5F5F5F5F5F5F5F5
310
F5F5F5F5F5F5F5F5F5F5F5F5F5F5F5F5F5F5F5F5F5F5F5F5F5F5F5F5F5F5F5F5F5F5F5F5F5F5F5F5F5F5F5F5F5F5F5F5F5F5F5F5F5F5F5F5F5F5F5F5E2F5F5F5F5F5F5F5F5F5F5F5F5F5F5F5F5E2F5F5F5F5E2E2F5F5F5F5F5F5F5F5F5F5F5F5F5F5F5F5F5F5F5F5F5E2F5F5F5F5F5F5F5F5F5F5F5F5F5F5F5F5F5F5F5F5F5
310
F5F5F5F5F5F5F5F5F5F5F5F5F5F5F5F5F5F5F5F5F5F5F5F5F5F5F5F5F5F5F5F5F5F5F5F5F5F5F5F5F5F5F5F5F5F5F5F5F5F5F5F5F5F5F5F5F5F5F5F5F5F5F5F5F5F5F5F5F5F5F5F5F5F5F5F5F5F5F5F5F5F5F5F5F5F5F5F5F5F5F5F5F5F5F5F5F5F5F5F5F5F5F5F5F5F5F5F5F5F5F5F5F5E2F5F5F5F5F5F5F5F5F5F5F5F5F5
310
F5F5F5F5F5F5F5F5E2E2F5F5F5F5F5F5F5F5F5F5F5F5F5F5F5F5F5F5F5F5F5E2F5F5F5F5F5F5F5F5F5F5F5F5F5F5F5F5F5F5F5F5F5F5F5F5F5F5F5F5F5F5F5F5F5F5F5F5F5F5F5F5F5F5F5F5F5F5F5F5F5F5F5F5F5F5F5F5F5F5F5F5F5F5F5F5F5F5F5F5F5F5F5F5F5F5F5F5F5F5F5F5F5F5F5F5F5F5F5F5F5F5F5F5F5F5F5
310
F5F5F5F5F5F5F5F5F5F5F5F5F5F5F5F5F5F5F5F5F5F5F5F5F5F5F5F5F5F5F5F5F5F5F5F5F5F5F5E2F5F5F5F5F5F5F5F5F5F5F5F5F5F5F5F5F5F5F5F5F5E2E2F5F5F5F5F5F5F5F5F5F5F5F5F5F5F5F5F5F5F5F5F5E2F5F5F5F5F5F5F5F5F5F5F5F5F5F5F5F5F5F5F5F5F5F5F5F5F5F5F5F5F5F5F5F5F5F5F5F5F5F5F5F5F5F5
310
F5F5F5F5F5F5F5F5F5F5F5F5F5F5F5F5F5F5F5F5F5F5F5F5F5F5F5F5F5F5F5F5F5F5F5F5F5F5F5F5F5F5F5F5F5F5F5F5F5F5F5F5F5F5F5F5F5F5F5F5F5F5F5F5F5F5F5F5F5F5F5F5F5F5F5F5F5F5F5F5F5F5F5F5F5F5F5F5F5F5F5F5E2F5F5F5F5F5F5F5F5F5F5F5F5F5F5F5F5F5F5F5F5F5E2E2F5F5F5F5F5F5F5F5F5F5F5
310
F5F5F5F5F5F5F5F5F5F5E2F5F5F5F5F5F5F5F5F5F5F5F5F5F5F5F5F5F5F5F5F5F5F5F5F5F5F5F5F5F5F5F5F5F5F5F5F5F5F5F5F5F5F5F5F5F5F5F5F5F5F5F5F5F5F5F5F5F5F5F5F5F5F5F5F5F5F5F5F5F5F5F5F5F5F5F5F5F5F5F5F5F5F5F5F5F5F5F5F5F5F5F5F5F5F5F5F5F5F5F5F5F5F5F5F5F5F5F5F5F5F5F5F5F5F5F5
310
F5F5F5F5F5F5F5F5F5F5F5F5F5F5F5F5F5F5E2F5F5F5F5F5F5F5F5F5F5F5F5F5F5F5F5F5F5F5F5F5E2E2F5F5F5F5F5F5F5F5F5F5F5F5F5F5F5F5F5F5F5F5F5E2F5F5F5F5F5F5F5F5F5F5F5F5F5F5F5F5F5F5F5F5F5F5F5F5F5F5F5F5F5F5F5F5F5F5F5F5F5F5F5F5F5F5F5F5F5F5F5F5F5F5F5F5F5F5F5F5F5F5F5F5F5F5F5
310
F5F5F5F5F5F5F5F5F5F5F5F5F5F5F5F5F5F5F5F5F5F5F5F5F5F5F5F5F5F5F5F5F5F5F5F5F5F5F5F5F5F5F5F5F5F5F5F5F5F5F5F5F5F5F5F5F5F5F5F5F5F5F5F5F5F5F5F5F5F5F5E2F5F5F5F5F5F5F5F5F5F5F5F5F5F5F5F5F5F5F5F5F5E2E2F5F5F5F5F5F5F5F5F5F5F5F5F5F5F5F5F5F5F5F5F5E2F5F5F5F5F5F5F5F5F5F5
310
F5F5F5F5F5F5F5F5F5F5F5F5F5F5F5F5F5F5F5F5F5F5F5F5F5F5F5F5F5F5F5F5F5F5F5F5F5F5F5F5F5F5F5F5F5F5F5F5F5F5F5F5F5F5F5F5F5F5F5F5F5F5F5F5F5F5F5F5F5F5F5F5F5F5F5F5F5F5F5F5F5F5F5F5F5F5F5F5F5F5F5F5F5F5F5F5F5F5F5F5F5F5F5F5F5F5F5F5F5F5F5F5F5F5F5F5F5F5F5F5F5F5F5F5E2F5F5
310
F5F5F5F5F5F5F5F5F5F5F5F5F5F5F5F5F5F5F5E2E2F5F5F5F5F5F5F5F5F5F5F5F5F5F5F5F5F5F5F5F5F5E2F5F5F5F5F5F5F5F5F5F5F5F5F5F5F5F5F5F5F5F5F5F5F5F5F5F5F5F5F5F5F5F5F5F5F5F5F5F5F5F5F5F5F5F5F5F5F5F5F5F5F5F5F5F5F5F5F5F5F5F5F5F5F5F5F5F5F5F5F5F5F5F5F5F5F5F5F5F5F5F5F5F5F5F5
310
F5F5F5F5F5F5F5F5F5F5F5F5F5F5F5F5F5F5F5F5F5F5F5F5F5F5F5F5F5F5F5F5F5F5F5F5F5F5F5F5F5F5F5F5F5F5F5F5F5F5E2F5F5F5F5F5F5F5F5F5F5F5F5F5F5F5F5F5F5F5F5F5E2E2F5F5F5F5F5F5F5F5F5F5F5F5F5F5F5F5F5F5F5F5F5E2F5F5F5F5F5F5F5F5F5F5F5F5F5F5F5F5F5F5F5F5F5F5F5F5F5F5F5F5F5F5F5
310
F5F5F5F5F5F5F5F5F5F5F5F5F5F5F5F5F5F5F5F5F5F5F5F5F5F5F5F5F5F5F5F5F5F5F5F5F5F5F5F5F5F5F5F5F5F5F5F5F5F5F5F5F5F5F5F5F5F5F5F5F5F5F5F5F5F5F5F5F5F5F5F5F5F5F5F5F5F5F5F5F5F5F5F5F5F5F5F5F5F5F5F5F5F5F5F5F5F5F5F5F5F5F5E2F5F5F5F5F5F5F5F5F5F5F5F5F5F5F5F5F5F5F5F5F5E2E2
310
F5F5F5F5F5F5F5F5F5F5F5F5F5F5F5F5F5F5F5F5F5E2F5F5F5F5F5F5F5F5F5F5F5F5F5F5F5F5F5F5F5F5F5F5F5F5F5F5F5F5F5F5F5F5F5F5F5F5F5F5F5F5F5F5F5F5F5F5F5F5F5F5F5F5F5F5F5F5F5F5F5F5F5F5F5F5F5F5F5F5F5F5F5F5F5F5F5F5F5F5F5F5F5F5F5F5F5F5F5F5F5F5F5F5F5F5F5F5F5F5F5F5F5F5F5F5F5
310
F5F5F5F5F5F5F5F5F5F5F5F5F5F5F5F5F5F5F5F5F5F5F5F5F5F5F5F5F5E2F5F5F5F5F5F5F5F5F5F5F5F5F5F5F5F5F5F5F5F5F5E2E2F5F5F5F5E2F5F5F5F5F5F5F5F5F5F5F5F5F5F5F5F5E2F5F5F5F5F5F5F5F5F5F5F5F5F5F5F5F5F5F5F5F5F5F5F5F5F5F5F5F5F5F5F5F5F5F5F5F5F5F5F5F5F5F5F5F5F5F5F5F5F5F5F5F5
310
F5F5F5F5F5F5F5F5F5F5F5F5F5F5F5F5F5F5F5F5F5F5F5F5F5F5F5F5F5F5F5F5F5F5F5F5F5F5F5F5F5F5F5F5F5F5F5F5F5E2F0E2E2F5F5F5F5F5F5E2F0E2E2F5DCF5F5F5F5F5F5F0F0E2F5F5F5F5F5F5F5F5E2F5F5F5F5F5F5F5F5F5F5F5F5F5F5F5F5E2F5F5F5F5E2E2F5F5F5F5E2F5F5F5F5F5F5F5F5F5F5F5F5F5F5F5F5
310
E2F5F5F5F5F5F5F5F5F5F5F5F5F5F5F5F5F5F5F5F5F5F5F5F5F5F5F5F5F5F5F5F5F5F5F5F5F5F5F5F5F5F5F5F5F5F5F5F5F5F5F5F5F5F5F5F5F5F5F5F5F5F5F5F5F5F5F5F5F5F5F5F5F5F5F5F5F5F5F5F5F5F5F5F5F5F5F5F5F5F5F5F5F5F5F5F5F5F5F5F5E2DCDCF0F5E2F5F5F5F5F5E2F5F0E2E2DCF5F5F5F5F5E2F0F0F5
310
E2F5F5F5E2E2E2F5E2F5F5F5F5F5F5F5F5F5F5F5F5F5F5F5F5E2F5F5F5F5E2E2F5F5F5F5E2F5F5F5F5F5F5F5F5F5F5F5F5F5F5F5F5E2F5F5F5F5F5F5F5F5F5F5F5F5F5F5F5F5F5F5F5F5F5F5F5F5F5F5F5F5F5F5F5F5F5F5F5F5F5F5F5F5F5F5F5F5F5F5F5F5F5F5F5F5F5F5F5F5F5F5F5F5F5F5F5F5F5F5F5F5F5F5F5F5F5
310
F5F5F5F5F5F5F5F5F5F5F5F5F5F5F5F5F5F5F5F5F5F5F5F5F5F5E2F0DCF0DCE2E2E2F5F5F5E2E2F0F0F0E2DCF5F5F5F5E2F0F0F0E2E2F0E2E2E2E2E2E2E2F5F5F5F5F5F5F5F5F5F5F5F5F5F5F5F5E2F5F5F5F5E2E2F5F5F5F5E2F5F5F5F5F5F5F5F5F5F5F5F5F5F5F5F5E2F5F5F5F5F5F5F5F5F5F5F5F5F5F5F5F5F5F5F5F5
310
F5F5F5F5F5F5F5F5F5F5F5F5F5F5F5F5F5F5F5F5F5F5F5F5F5F5F5F5F5F5F5F5F5F5F5F5F5F5F5F5F5F5F5F5F5F5F5F5F5F5F5F5F5F5F5F5F5F5F5F5F5F5F5F5F5F5F5F5F5F5F5F5F5F5F5F5F5F5F5E2F0DCF0DCF0F0E2F5F5F5E2F0DCE2E2E2DCF5F5F5F5F0F0F0F0E2E2F0E2F5E2E2E2E2E2F5F5F5F5F5F5F5F5F5F5F5F5
310
F5F5F5F5E2F5F5F5F5E2E2F5F5F5F5E2F5F5F5F5F5F5F5F5F5F5F5F5F5F5F5F5E2F5F5F5F5F5F5F5F5F5F5F5F5F5F5F5F5F5F5F5F5F5F5F5F5F5F5F5F5F5F5F5F5F5F5F5F5F5F5F5F5F5F5F5F5F5F5F5F5F5F5F5F5F5F5F5F5F5F5F5F5F5F5F5F5F5F5F5F5F5F5F5F5F5F5F5F5F5F5F5F5F5F5F5F5F5F5F5F5F5F5F5F5F5F5
310
F5F5F5F5F5F5E2DCDCDCF0E2F5F5F5F5F5F0DCDCE2E2DCF5F5F5F5F5F0F0F0DCE2F0F5E2E2E2E2F5E2F5F5F5F5F5F5F5F5F5F5F5F5F5F5F5F5E2F5F5F5F5E2E2F5F5F5F5E2F5F5F5F5F5F5F5F5F5F5F5F5F5F5F5F5E2F5F5F5F5F5F5F5F5F5F5F5F5F5F5F5F5F5F5F5F5F5F5F5F5F5F5F5F5F5F5F5F5F5F5F5F5F5F5F5F5F5
310
F5F5F5F5F5F5F5F5F5F5F5F5F5F5F5F5F5F5F5F5F5F5F5F5F5F5F5F5F5F5F5F5F5F5F5F5F5F5F5F5F5F5F5F5F5F5F5F5F5F5F5F5F5F5F5F5F5F5F5E2F0F0F0E2F5F5F5F5F5E2F0E2E2E2E2DCF5F5F5F5F5F0F0E2E2F5F5F5F5E2E2E2F5E2F5F5F5F5F5F5F5F5F5F5F5F5F5F5F5F5E2F5F5F5F5E2E2F5F5F5F5E2F5F5F5F5F5
310
F5F5F5F5F5F5F5F5F5F5F5E2F5F5F5F5F5F5F5F5F5F5F5F5F5F5F5F5F5F5F5F5F5F5F5F5F5F5F5F5F5F5F5F5F5F5F5F5F5F5F5F5F5F5F5F5F5F5F5F5F5F5F5F5F5F5F5F5F5F5F5F5F5F5F5F5F5F5F5F5F5F5F5F5F5F5F5F5F5F5F5F5F5F5F5F5F5F5F5F5F5F5F5F5F5F5F5F5F5F5F5F5F5F5E2E2F5F5F5F5F5F5F5F5E2E2F5
310
F5DCF5F5F5F5F5F5F5F0E2F5F5F5F5F5E2F5F5E2F5F5F5F5F5F5F5F5F5F5F5F5F5F5F5F5E2F5F5F5F5E2E2F5F5F5F5E2F5F5F5F5F5F5F5F5F5F5F5F5F5F5F5F5E2F5F5F5F5F5F5F5F5F5F5F5F5F5F5F5F5F5F5F5F5F5F5F5F5F5F5F5F5F5F5F5F5F5F5F5F5F5F5F5F5F5F5F5F5F5F5F5F5F5F5F5F5F5F5F5F5F5F5F5F5F5F5
310
F5F5F5F5F5F5F5F5F5F5F5F5F5F5F5F5F5F5F5F5F5F5F5F5F5F5F5F5F5F5F5F5F5F5F5F5F5F5F5F5F5F5F5F5F5F5F5F5F5F5F5F5F5F5DCF5F5F5F5F5F5F5F5F5F5F5F5F5F5F5F5F5E2F5F5F5F5F5F5F5F5F5F5F5F5F5F5F5F5E2F5F5F5F5E2E2F5F5F5F5E2F5F5F5F5F5F5F5F5F5F5F5F5F5F5F5F5E2F5F5F5F5F5F5F5F5F5
310
F5F5F5F5F5F5F5F5F5F5F5F5F5F5F5F5F5F5F5F5F5F5F5F5F5F5F5F5F5F5F5F5F5F5F5F5F5F5F5F5F5F5F5F5F5F5F5F5F5F5F5F5F5F5F5F5F5F5F5F5F5F5F5F5F5F5F5F5F5F5F5F5F5F5F5F5F5F5F5F5F5F5F5F5F5F5F5F5F5F5F5F5F5F5F5F5F5F5F5F5F5F5F5F5F5F5F5DCF5F5F5F5F5F5F5F5F5F5F5F5F5F5F5F5F5E2F5
310
F5F5F5F5F5F5F5F5F5F5F5F5F5F5F5E2F5F5F5F5E2E2F5F5F5F5E2F5F5F5F5F5F5F5F5F5F5F5F5F5F5F5F5E2F5F5F5F5F5F5F5F5F5F5F5F5F5F5F5F5F5F5F5F5F5F5F5F5F5F5F5F5F5F5F5F5F5F5F5F5F5F5F5F5F5F5F5F5F5F5F5F5F5F5F5F5F5F5F5F5F5F5F5F5F5F5F5F5F5F5F5F5F5F5F5F5F5F5F5F5F5F5F5F5F5F5F5
310
F5F5F5F5F5F5F5F5F5F5F5F5F5F5F5F5F5F5F5F5F5F5F5F5F5F5F5F5F5F5F5F5F5DCF5F5F5F5F5F5F5F5F5F5F5F5F5F5F5F5F5E2F5F5F5F5F5F5F5F5F5F5F5F5F5F5F5F5E2F5F5F5F5E2E2F5F5F5F5E2F5F5F5F5F5F5F5F5F5F5F5F5F5F5F5F5E2F5F5F5F5F5F5F5F5F5F5F5F5F5F5F5F5F5F5F5F5F5F5F5F5F5F5F5F5F5F5
310
F5F5F5F5F5F5F5F5F5F5F5F5F5F5F5F5F5F5F5F5F5F5F5F5F5F5F5F5F5F5F5F5F5F5F5F5F5F5F5F5F5F5F5F5F5F5F5F5F5F5F5F5F5F5F5F5F5F5F5F5F5F5F5F5F5F5F5F5F5F5F5F5F5F5F5F5F5F5F5F5F5F5F5F5F5F5DCF5F5F5F5F5F5F5F5F5F5F5F5F5F5F5F5F5E2F5F5F5F5F5F5F5F5F5F5F5F5F5F5F5F5E2F5F5F5F5E2
310
E2F5F5F5F5E2F5F5F5F5F5F5F5F5F5F5F5F5F5F5F5F5E2F5F5F5F5F5F5F5F5F5F5F5F5F5F5F5F5F5F5F5F5F5F5F5F5F5F5F5F5F5F5F5F5F5F5F5F5F5F5F5F5F5F5F5F5F5F5F5F5F5F5F5F5F5F5F5F5F5F5F5F5F5F5F5F5F5F5F5F5F5F5F5F5F5F5F5F5F5F5F5F5F5F5F5F5F5F5F5F5F5F5F5F5F5F5F5F5F5F5F5F5F5F5F5F5
310
F5F5F5F5F5F5F5F5F5F5F5F5DCF5F5F5F5F5F5F5F5F5F5F5F5F5F5F5F5F5E2F5F5F5F5F5F5F5F5F5F5F5F5F5F5F5F5E2F5F5F5F5E2E2F5F5F5F5E2F5F5F5F5F5F5F5F5F5F5F5F5F5F5F5F5E2F5F5F5F5F5F5F5F5F5F5F5F5F5F5F5F5F5F5F5F5F5F5F5F5F5F5F5F5F5F5F5F5F5F5F5F5F5F5F5F5F5F5F5F5F5F5F5F5F5F5F5
310
F5F5F5F5F5F5F5F5F5F5F5F5F5F5F5F5F5F5F5F5F5F5F5F5F5F5F5F5F5F5F5F5F5F5F5F5F5F5F5F5F5F5F5F5F5F5F5F5F5F5F5F5F5F5F5F5F5F5F5F5F5F5F5F5F5DCF5F5F5F5F5F5F5F5F5F5F5F5F5F5F5F5F5E2F5F5F5F5F5F5F5F5F5F5F5F5F5F5F5F5E2F5F5F5F5E2E2F5F5F5F5E2F5F5F5F5F5F5F5F5F5F5F5F5F5F5F5
310
F5E2F5F5F5F5F5F5F5F5F5F5F5F5F5F5F5F5F5F5F5F5F5F5F5F5F5F5F5F5F5F5F5F5F5F5F5F5F5F5F5F5F5F5F5F5F5F5F5F5F5F5F5F5F5F5F5F5F5F5F5F5F5F5F5F5F5F5F5F5F5F5F5F5F5F5F5F5F5F5F5F5F5F5F5F5F5F5F5F5F5F5F5F5F5F5F5F5F5F5F5F5F5F5F5F5F5F5F5F5F5F5F5F5F5F5F5F5DCF5F5F5F5F5F5F5F5
310
F5F5F5F5F5F5F5F5F5E2F5F5F5F5F5F5F5F5F5F5F5F5F5F5F5F5E2F5F5F5F5E2E2F5F5F5F5E2F5F5F5F5F5F5F5F5F5F5F5F5F5F5F5F5E2F5F5F5F5F5F5F5F5F5F5F5F5F5F5F5F5F5F5F5F5F5F5F5F5F5F5F5F5F5F5F5F5F5F5F5F5F5F5F5F5F5F5F5F5F5F5F5F5F5F5F5F5F5F5F5F5F5F5F5F5F5F5F5F5F5F5F5F5F5F5F5F5
310
F5F5F5F5F5F5F5F5F5F5F5F5F5F5F5F5F5F5F5F5F5F5F5F5F5F5F5F5F5F5F5F5F5F5F5F5F5F5F5F5F5F5E2E2DCE2F5F5F5F5F5F5F5F5F5F5F5F5F5F5F5F5E2F5F5F5F5F5F5F5F5F5F5F5F5F5F5F5F5E2F5F5F5F5E2E2F5F5F5F5E2F5F5F5F5F5F5F5F5F5F5F5F5F5F5F5F5E2F5F5F5F5F5F5F5F5F5F5F5F5F5F5F5F5F5F5F5
310
F5F5F5F5F5F5F5F5F5F5F5F5F5F5F5F5F5F5F5F5F5F5F5F5F5F5F5F5F5F5F5F5F5F5F5F5F5F5F5F5F5F5F5F5F5F5F5F5F5F5F5F5F5F5F5F5F5F5F5F5F5F5F5F5F5F5F5F5F5F5F5F5F5F5F5F5F5F5F5F5F5F5F5F5F5F5F5F5F5F5F5F5F5F5F5F5F5DCF5F5F5F5F5F5F5F5F5F5F5F5F5F5F5F5F5E2F5F5F5F5F5F5F5F5F5F5F5
310
F5F5F5F5F5E2F5F5F5F5E2E2F5F5F5F5E2F5F5F5F5F5F5F5F5F5F5F5F5F5F5F5F5E2F5F5F5F5F5F5F5F5F5F5F5F5F5F5F5F5F5F5F5F5F5F5F5F5F5F5F5F5F5F5F5F5F5F5F5F5F5F5F5F5F5F5F5F5F5F5F5F5F5F5F5F5F5F5F5F5F5F5F5F5F5F5F5F5F5F5F5F5F5F5F5F5F5F5F5F5F5F5F5F5F5F5F5F5F5F5F5F5F5F5F5F5F5
310
F5F5F5F5F5F5F5F5F5F5F5F5F5F5F5F5F5F5F5F5F5F5F5DCF5F5F5F5F5F5F5F5F5F5F5F5F5F5F5F5F5E2F5F5F5F5F5F5F5F5F5F5F5F5F5F5F5F5E2F5F5F5F5E2E2F5F5F5F5F5F5F5F5F5F5F5F5F5F5F5F5F5F5F5F5F5E2F5F5F5F5F5F5F5F5F5F5F5F5F5F5F5F5F5F5F5F5F5F5F5F5F5F5F5F5F5F5F5F5F5F5F5F5F5F5F5F5
310
F5F5F5F5F5F5F5F5F5F5F5F5F5F5F5F5F5F5F5F5F5F5F5F5F5F5F5F5F5F5F5F5F5F5F5F5F5F5F5F5F5F5F5F5F5F5F5F5F5F5F5F5F5F5F5F5F5F5F5F5F5F5F5F5F5F5F5F5F5F5F5F5F5F5F5F5DCF5F5F5F5F5F5F5F5F5F5F5F5F5F5F5F5F5E2F5F5F5F5F5F5F5F5F5F5F5F5F5F5F5F5F5F5F5F5F5E2E2F5F5F5F5F5F5F5F5F5
310
F5F5F5F5F5F5F5F5F5F5F5F5E2F5F5F5F5F5F5F5F5F5F5F5F5F5F5F5F5F5F5F5F5F5F5F5F5F5F5F5F5F5F5F5F5F5F5F5F5F5F5F5F5F5F5F5F5F5F5F5F5F5F5F5F5F5F5F5F5F5F5F5F5F5F5F5F5F5F5F5F5F5F5F5F5F5F5F5F5F5F5F5F5F5F5F5F5F5F5F5F5F5F5F5F5F5F5F5F5F5F5F5F5F5F5F5F5F5F5F5F5F5F5F5F5F5F5
310
F5F5F5F5F5F5F5F5F5F5F5F5F5F5F5F5F5F5F5F5E2F5F5F5F5F5F5F5F5F5F5F5F5F5F5F5F5F5F5F5F5F5E2E2F5F5F5F5F5F5F5F5F5F5F5F5F5F5F5F5F5F5F5F5F5E2F5F5F5F5F5F5F5F5F5F5F5F5F5F5F5F5F5F5F5F5F5F5F5F5F5F5F5F5F5F5F5F5F5F5F5F5F5F5F5F5F5F5F5F5F5F5F5F5F5F5F5F5F5F5F5F5F5F5F5F5F5
310
F5F5F5F5F5F5F5F5F5F5F5F5F5F5F5F5F5F5F5F5F5F5F5F5F5F5F5F5F5F5F5F5F5F5F5F5F5F5F5F5F5F5F5F5F5F5F5F5F5F5F5F5F5F5F5F5F5F5F5F5F5F5F5F5F5F5F5F5F5F5F5F5F5E2F5F5F5F5F5F5F5F5F5F5F5F5F5F5F5F5F5F5F5F5F5E2E2F5F5F5F5F5F5F5F5F5F5F5F5F5F5F5F5F5F5F5F5F5E2F5F5F5F5F5F5F5F5
310
F5F5F5F5F5F5F5F5F5F5F5F5F5F5F5F5F5F5F5F5F5F5F5F5F5F5F5F5F5F5F5F5F5F5F5F5F5F5F5F5F5F5F5F5F5F5F5F5F5F5F5F5F5F5F5F5F5F5F5F5F5F5F5F5F5F5F5F5F5F5F5F5F5F5F5F5F5F5F5F5F5F5F5F5F5F5F5F5F5F5F5F5F5F5F5F5F5F5F5F5F5F5F5F5F5F5F5F5F5F5F5F5F5F5F5F5F5F5F5F5F5F5F5F5F5F5E2
310
F5F5F5F5F5F5F5F5F5F5F5F5F5F5F5F5F5F5F5F5F5E2E2F5F5F5F5F5F5F5F5F5F5F5F5F5F5F5F5F5F5F5F5F5E2F5F5F5F5F5F5F5F5F5F5F5F5F5F5F5F5F5F5F5F5F5F5F5F5F5F5F5F5F5F5F5F5F5F5F5F5F5F5F5F5F5F5F5F5F5F5F5F5F5F5F5F5F5F5F5F5F5F5F5F5F5F5F5F5F5F5F5F5F5F5F5F5F5F5F5F5F5F5F5F5F5F5
310
F5F5F5F5F5F5F5F5F5F5F5F5F5F5F5F5F5F5F5F5F5F5F5F5F5F5F5F5F5F5F5F5F5F5F5F5F5F5F5F5F5F5F5F5F5F5F5F5F5F5F5F5E2F5F5F5F5F5F5F5F5F5F5F5F5F5F5F5F5F5F5F5F5F5E2E2F5F5F5F5F5F5F5F5F5F5F5F5F5F5F5F5F5F5F5F5F5E2F5F5F5F5F5F5F5F5F5F5F5F5F5F5F5F5F5F5F5F5F5F5F5F5F5F5F5F5F5
310
F5F5F5F5F5F5F5F5F5F5F5F5F5F5F5F5F5F5F5F5F5F5F5F5F5F5F5F5F5F5F5F5F5F5F5F5F5F5F5F5F5F5F5F5F5F5F5F5F5F5F5F5F5F5F5F5F5F5F5F5F5F5F5F5F5F5F5F5F5F5F5F5F5F5F5F5F5F5F5F5F5F5F5F5F5F5F5F5F5F5F5F5F5F5F5F5F5F5F5F5F5F5F5F5F5E2F5F5F5F5F5F5F5F5F5F5F5F5F5F5F5F5F5F5F5F5F5
310
E2E2F5F5F5F5F5F5F5F5F5F5F5F5F5F5F5F5F5F5F5F5F5E2F5F5F5F5F5F5F5F5F5F5F5F5F5F5F5F5F5F5F5F5F5F5F5F5F5F5F5F5F5F5F5F5F5F5F5F5F5F5F5F5F5F5F5F5F5F5F5F5F5F5F5F5F5F5F5F5F5F5F5F5F5F5F5F5F5F5F5F5F5F5F5F5F5F5F5F5F5F5F5F5F5F5F5F5F5F5F5F5F5F5F5F5F5F5F5F5F5F5F5F5F5F5F5
310
F5F5F5F5F5F5F5F5F5F5F5F5F5F5F5F5F5F5F5F5F5F5F5F5F5F5F5F5F5F5F5E2F5F5F5F5F5F5F5F5F5F5F5F5F5F5F5F5F5F5F5F5F5E2E2F5F5F5F5F5F5F5F5F5F5F5F5F5F5F5F5F5F5F5F5F5E2F5F5F5F5F5F5F5F5F5F5F5F5F5F5F5F5F5F5F5F5F5F5F5F5F5F5F5F5F5F5F5F5F5F5F5F5F5F5F5F5F5F5F5F5F5F5F5F5F5F5
310
F5F5F5F5F5F5F5F5F5F5F5F5F5F5F5F5F5F5F5F5F5F5F5F5F5F5F5F5F5F5F5F5F5F5F5F5F5F5F5F5F5F5F5F5F5F5F5F5F5F5F5F5F5F5F5F5F5F5F5F5F5F5F5F5F5F5F5F5F5F5F5F5F5F5F5F5F5F5F5F5F5F5F5F5E2F5F5F5F5F5F5F5F5F5F5F5F5F5F5F5F5F5F5F5F5F5E2E2F5F5F5F5F5F5F5F5F5F5F5F5F5F5F5F5F5F5F5
310
F5F5E2F5F5F5F5F5F5F5F5F5F5F5F5F5F5F5F5F5F5F5F5F5F5F5F5F5F5F5F5F5F5F5F5F5F5F5F5F5F5F5F5F5F5F5F5F5F5F5F5F5F5F5F5F5F5F5F5F5F5F5F5F5F5F5F5F5F5F5F5F5F5F5F5F5F5F5F5F5F5F5F5F5F5F5F5F5F5F5F5F5F5F5F5F5F5F5F5F5F5F5F5F5F5F5F5F5F5F5F5F5F5F5F5F5F5F5F5F5F5F5F5F5F5F5F5
310
F5F5F5F5F5F5F5F5F5F5E2F5F5F5F5F5F5F5F5F5F5F5F5F5F5F5F5F5F5F5F5F5E2E2F5F5F5F5E2F5F5F5F5F5F5F5F5F5F5F5F5F5F5F5F5E2F5F5F5F5F5F5F5F5F5F5F5F5F5F5F5F5F5F5F5F5F5F5F5F5F5F5F5F5F5F5F5F5F5F5F5F5F5F5F5F5F5F5F5F5F5F5F5F5F5F5F5F5F5F5F5F5F5F5F5F5F5F5F5F5F5F5F5F5F5F5F5
310
F5F5F5F5F5F5F5F5F5F5F5F5F5F5F5F5F5F5F5F5F5F5F5F5F5F5F5F5F5F5F5F5F5F5F5F5F5F5F5F5F5F5F5F5F5F5F5F5F5F5F5F5F5F5F5F5F5F5F5F5F5F5F5E2F5F5F5F5F5F5F5F5F5F5F5F5F5F5F5F5E2F5F5F5F5E2E2F5F5F5F5E2F5F5F5F5F5F5F5F5F5F5F5F5F5F5F5F5E2F5F5F5F5F5F5F5F5F5F5F5F5F5F5F5F5F5F5
310
F5F5F5F5F5F5F5F5F5F5F5F5F5F5F5F5F5F5F5F5F5F5F5F5F5F5F5F5F5F5F5F5F5F5F5F5F5F5F5F5F5F5F5F5F5F5F5F5F5F5F5F5F5F5F5F5F5F5F5F5F5F5F5F5F5F5F5F5F5F5F5F5F5F5F5F5F5F5F5F5F5F5F5F5F5F5F5F5F5F5F5F5F5F5F5F5F5F5F5F5F5F5F5F5F5F5F5F5F5F5F5F5F5F5F5F5E2F5F5F5F5F5F5F5F5F5F5
310
F5F5F5F5F5F5E2F5F5F5F5E2E2F5F5F5F5E2F5F5F5F5F5F5F5F5F5F5F5F5F5F5F5F5E2F5F5F5F5F5F5F5F5F5F5F5F5F5F5F5F5F5F5F5F5F5F5F5F5F5F5F5F5F5F5F5F5F5F5F5F5F5F5F5F5F5F5F5F5F5F5F5F5F5F5F5F5F5F5F5F5F5F5F5F5F5F5F5F5F5F5F5F5F5F5F5F5F5F5F5F5F5F5F5F5F5F5F5F5F5F5F5F5F5F5F5F5
310
F5F5F5F5F5F5F5F5F5F5F5F5F5F5F5F5F5F5F5F5F5F5F5F5F5F5F5F5F5F5F5F5F5F5F5F5F5F5F5F5F5F5E2F5F5F5F5F5F5F5F5F5F5F5F5F5F5F5F5E2F5F5F5F5E2E2F5F5F5F5E2F5F5F5F5F5F5F5F5F5F5F5F5F5F5F5F5E2F5F5F5F5F5F5F5F5F5F5F5F5F5F5F5F5F5F5F5F5F5F5F5F5F5F5F5F5F5F5F5F5F5F5F5F5F5F5F5
310
F5F5F5F5F5F5F5F5F5F5F5F5F5F5F5F5F5F5F5F5F5F5F5F5F5F5F5F5F5F5F5F5F5F5F5F5F5F5F5F5F5F5F5F5F5F5F5F5F5F5F5F5F5F5F5F5F5F5F5F5F5F5F5F5F5F5F5F5F5F5F5F5F5F5F5F5F5F5F5F5F5F5F5F5F5F5F5F5F5F5F5F5F5F5F5E2F5F5F5F5F5F5F5F5F5F5F5F5F5F5F5F5E2F5F5F5F5E2E2F5F5F5F5E2F5F5F5
310
F5F5F5F5F5F5F5F5F5F5F5F5F5E2F5F5F5F5F5F5F5F5F5F5F5F5F5F5F5F5F5F5F5F5F5F5F5F5F5F5F5F5F5F5F5F5F5F5F5F5F5F5F5F5F5F5F5F5F5F5F5F5F5F5F5F5F5F5F5F5F5F5F5F5F5F5F5F5F5F5F5F5F5F5F5F5F5F5F5F5F5F5F5F5F5F5F5F5F5F5F5F5F5F5F5F5F5F5F5F5F5F5F5F5F5F5F5F5F5F5F5F5F5F5F5F5F5
310
F5F5F5F5F5F5F5F5F5F5F5F5F5F5F5F5F5F5F5F5F5E2F5F5F5F5F5F5F5F5F5F5F5F5F5F5F5F5E2F5F5F5F5E2E2F5F5F5F5E2F5F5F5F5F5F5F5F5F5F5F5F5F5F5F5F5E2F5F5F5F5F5F5F5F5F5F5F5F5F5F5F5F5F5F5F5F5F5F5F5F5F5F5F5F5F5F5F5F5F5F5F5F5F5F5F5F5F5F5F5F5F5F5F5F5F5F5F5F5F5F5F5F5F5F5F5F5
310
F5F5F5F5F5F5F5F5F5F5F5F5F5F5F5F5F5F5F5F5F5F5F5F5F5F5F5F5F5F5F5F5F5F5F5F5F5F5F5F5F5F5F5F5F5F5F5F5F5F5F5F5F5F5F5F5F5F5F5F5F5F5F5F5F5F5F5F5F5F5F5F5F5F5E2F5F5F5F5F5F5F5F5F5F5F5F5F5F5F5F5E2F5F5F5F5E2E2F5F5F5F5E2F5F5F5F5F5F5F5F5F5F5F5F5F5F5F5F5E2F5F5F5F5F5F5F5
310
F5F5F5F5F5F5F5F5F5F5F5F5F5F5F5F5F5F5F5F5F5F5F5F5F5F5F5F5F5F5F5F5F5F5F5F5F5F5F5F5F5F5F5F5F5F5F5F5F5F5F5F5F5F5F5F5F5F5F5F5F5F5F5F5F5F5F5F5F5F5F5F5F5F5F5F5F5F5F5F5F5F5F5F5F5F5F5F5F5F5F5F5F5F5F5F5F5F5F5F5F5F5F5F5F5F5F5F5F5F5F5F5F5F5F5F5F5F5F5F5F5F5F5F5F5F5F5
310
E2F5F5F5F5F5F5F5F5F5F5F5F5F5F5F5F5E2F5F5F5F5E2E2F5F5F5F5E2F5F5F5F5F5F5F5F5F5F5F5F5F5F5F5F5E2F5F5F5F5F5F5F5F5F5F5F5F5F5F5F5F5F5F5F5F5F5F5F5F5F5F5F5F5F5F5F5F5F5F5F5F5F5F5F5F5F5F5F5F5F5F5F5F5F5F5F5F5F5F5F5F5F5F5F5F5F5F5F5F5F5F5F5F5F5F5F5F5F5F5F5F5F5F5F5F5F5
310
F5F5F5F5F5F5F5F5F5F5F5F5F5F5F5F5F5F5F5F5F5F5F5F5F5F5F5F5F5F5F5F5F5F5F5F5F5F5F5F5F5F5F5F5F5F5F5F5F5F5F5F5F5E2F5F5F5F5F5F5F5F5F5F5F5F5F5F5F5F5E2F5F5F5F5E2E2F5F5F5F5E2F5F5F5F5F5F5F5F5F5F5F5F5F5F5F5F5E2F5F5F5F5F5F5F5F5F5F5F5F5F5F5F5F5F5F5F5F5F5F5F5F5F5F5F5F5
310
F5F5F5F5F5F5F5F5F5F5F5F5F5F5F5F5F5F5F5F5F5F5F5F5F5F5F5F5F5F5F5F5F5F5F5F5F5F5F5F5F5F5F5F5F5F5F5F5F5F5F5F5F5F5F5F5F5F5F5F5F5F5F5F5F5F5F5F5F5F5F5F5F5F5F5F5F5F5F5F5F5F5F5F5F5F5F5F5F5F5F5F5F5F5F5F5F5F5F5F5F5F5F5F5F5F5E2F5F5F5F5F5F5F5F5F5F5F5F5F5F5F5F5E2F5F5F5
310
F5E2E2F5F5F5F5E2F5F5F5F5F5F5F5F5F5F5F5F5F5F5F5F5E2F5F5F5F5F5F5F5F5F5F5F5F5F5F5F5F5F5F5F5F5F5F5F5F5F5F5F5F5F5F5F5F5F5F5F5F5F5F5F5F5F5F5F5F5F5F5F5F5F5F5F5F5F5F5F5F5F5F5F5F5F5F5F5F5F5F5F5F5F5F5F5F5F5F5F5F5F5F5F5F5F5F5F5F5F5F5F5F5F5F5F5F5F5F5F5F5F5F5F5F5F5F5
310
F5F5F5F5F5F5F5F5F5F5F5F5F5F5F5F5F5F5F5F5F5F5F5F5F5F5F5F5F5F5F5F5E2F5F5F5F5F5F5F5F5F5F5F5F5F5F5F5F5E2F5F5F5F5E2E2F5F5F5F5E2F5F5F5F5F5F5F5F5F5F5F5F5F5F5F5F5E2F5F5F5F5F5F5F5F5F5F5F5F5F5F5F5F5F5F5F5F5F5F5F5F5F5F5F5F5F5F5F5F5F5F5F5F5F5F5F5F5F5F5F5F5F5F5F5F5F5
310
F5F5F5F5F5F5F5F5F5F5F5F5F5F5F5F5F5F5F5F5F5F5F5F5F5F5F5F5F5F5F5F5F5F5F5F5F5F5F5F5F5F5F5F5F5F5F5F5F5F5F5F5F5F5F5F5F5F5F5F5F5F5F5F5F5F5F5F5F5F5F5F5F5F5F5F5F5F5F5F5F5F5F5F5F5E2F5F5F5F5F5F5F5F5F5F5F5F5F5F5F5F5E2F5F5F5F5E2E2F5F5F5F5E2F5F5F5F5F5F5F5F5F5F5F5F5F5
310
F5F5F5E2F5F5F5F5F5F5F5F5F5F5F5F5F5F5F5F5F5F5F5F5F5F5F5F5F5F5F5F5F5F5F5F5F5F5F5F5F5F5F5F5F5F5F5F5F5F5F5F5F5F5F5F5F5F5F5F5F5F5F5F5F5F5F5F5F5F5F5F5F5F5F5F5F5F5F5F5F5F5F5F5F5F5F5F5F5F5F5F5F5F5F5F5F5F5F5F5F5F5F5F5F5F5F5F5F5F5F5F5F5F5F5F5F5F5F5F5F5F5F5F5F5F5F5
310
F5F5F5F5F5F5F5F5F5F5F5E2F5F5F5F5F5F5F5F5F5F5F5F5F5F5F5F5E2F5F5F5F5E2E2F5F5F5F5E2F5F5F5F5F5F5F5F5F5F5F5F5F5F5F5F5E2F5F5F5F5F5F5F5F5F5F5F5F5F5F5F5F5F5F5F5F5F5F5F5F5F5F5F5F5F5F5F5F5F5F5F5F5F5F5F5F5F5F5F5F5F5F5F5F5F5F5F5F5F5F5F5F5F5F5F5F5F5F5F5F5F5F5F5F5F5F5
310
F5F5F5F5F5F5F5F5F5F5F5F5F5F5F5F5F5F5F5F5F5F5F5F5F5F5F5F5F5F5F5F5F5F5F5F5F5F5F5F5F5F5F5F5F5F5F5F5F5F5F5F5F5F5F5F5F5F5F5F5F5F5F5F5E2F5F5F5F5F5F5F5F5F5F5F5F5F5F5F5F5E2F5F5F5F5E2E2F5F5F5F5E2F5F5F5F5F5F5F5F5F5F5F5F5F5F5F5F5E2F5F5F5F5F5F5F5F5F5F5F5F5F5F5F5F5F5
310
F5F5F5F5F5F5F5F5F5F5F5F5F5F5F5F5F5F5F5F5F5F5F5F5F5F5F5F5F5F5F5F5F5F5F5F5F5F5F5F5F5F5F5F5F5F5F5F5F5F5F5F5F5F5F5F5F5F5F5F5F5F5F5F5F5F5F5F5F5F5F5F5F5F5F5F5F5F5F5F5F5F5F5F5F5F5F5F5F5F5F5F5F5F5F5F5F5F5F5F5F5F5F5F5F5F5F5F5F5F5F5F5F5F5F5F5F5E2F5F5F5F5F5F5F5F5F5
310
F5F5F5F5F5F5F5E2F5F5F5F5E2E2F5F5F5F5E2F5F5F5F5F5F5F5F5F5F5F5F5F5F5F5F5E2F5F5F5F5F5F5F5F5F5F5F5F5F5F5F5F5F5F5F5F5F5F5F5F5F5F5F5F5F5F5F5F5F5F5F5F5F5F5F5F5F5F5F5F5F5F5F5F5F5F5F5F5F5F5F5F5F5F5F5F5F5F5F5F5F5F5F5F5F5F5F5F5F5F5F5F5F5F5F5F5F5F5F5F5F5F5F5F5F5F5F5
310
F5F5F5F5F5F5F5F5F5F5F5F5F5F5F5F5F5F5F5F5F5F5F5F5F5F5F5F5F5F5F5F5F5F5F5F5F5F5F5F5F5F5F5E2F5F5F5F5F5F5F5F5F5F5F5F5F5F5F5F5E2F5F5F5F5E2E2F5F5F5F5E2F5F5F5F5F5F5F5F5F5F5F5F5F5F5F5F5E2F5F5F5F5F5F5F5F5F5F5F5F5F5F5F5F5F5F5F5F5F5F5F5F5F5F5F5F5F5F5F5F5F5F5F5F5F5F5
310
F5F5F5F5F5F5F5F5F5F5F5F5F5F5F5F5F5F5F5F5F5F5F5F5F5F5F5F5F5F5F5F5F5F5F5F5F5F5F5F5F5F5F5F5F5F5F5F5F5F5F5F5F5F5F5F5F5F5F5F5F5F5F5F5F5F5F5F5F5F5F5F5F5F5F5F5F5F5F5F5F5F5F5F5F5F5F5F5F5F5F5F5F5F5F5F5E2F5F5F5F5F5F5F5F5F5F5F5F5F5F5F5F5E2F5F5F5F5E2E2F5F5F5F5E2F5F5
310
F5F5F5F5F5F5F5F5F5F5F5F5F5F5E2F5F5F5F5F5F5F5F5F5F5F5F5F5F5F5F5F5F5F5F5F5F5F5F5F5F5F5F5F5F5F5F5F5F5F5F5F5F5F5F5F5F5F5F5F5F5F5F5F5F5F5F5F5F5F5F5F5F5F5F5F5F5F5F5F5F5F5F5F5F5F5F5F5F5F5F5F5F5F5F5F5F5F5F5F5F5F5F5F5F5F5F5F5F5F5F5F5F5F5F5F5F5F5F5F5F5F5F5F5F5F5F5
310
F5F5F5F5F5F5F5F5F5F5F5F5F5F5F5F5F5F5F5F5F5F5E2F5F5F5F5F5F5F5F5F5F5F5F5F5F5F5F5E2F5F5F5F5E2E2F5F5F5F5F5F5F5F5F5F5F5F5F5F5F5F5F5F5F5F5F5E2F5F5F5F5F5F5F5F5F5F5F5F5F5F5F5F5F5F5F5F5F5F5F5F5F5F5F5F5F5F5F5F5F5F5F5F5F5F5F5F5F5F5F5F5F5F5F5F5F5F5F5F5F5F5F5F5F5F5F5
310
F5F5F5F5F5F5F5F5F5F5F5F5F5F5F5F5F5F5F5F5F5F5F5F5F5F5F5F5F5F5F5F5F5F5F5F5F5F5F5F5F5F5F5F5F5F5F5F5F5F5F5F5F5F5F5F5F5F5F5F5F5F5F5F5F5F5F5F5F5F5F5F5F5F5F5E2F5F5F5F5F5F5F5F5F5F5F5F5F5F5F5F5F5F5F5F5F5E2E2F5F5F5F5F5F5F5F5F5F5F5F5F5F5F5F5F5F5F5F5F5E2F5F5F5F5F5F5
310
F5F5F5F5F5F5F5F5F5F5F5F5F5F5F5F5F5F5F5F5F5F5F5F5F5F5F5F5F5F5F5F5F5F5F5F5F5F5F5F5F5F5F5F5F5F5F5F5F5F5F5F5F5F5F5F5F5F5F5F5F5F5F5F5F5F5F5F5F5F5F5F5F5F5F5F5F5F5F5F5F5F5F5F5F5F5F5F5F5F5F5F5F5F5F5F5F5F5F5F5F5F5F5F5F5F5F5F5F5F5F5F5F5F5F5F5F5F5F5F5F5F5F5F5F5F5F5
310
F5E2F5F5F5F5F5F5F5F5F5F5F5F5F5F5F5F5F5F5F5F5F5E2E2F5F5F5F5F5F5F5F5F5F5F5F5F5F5F5F5F5F5F5F5F5E2F5F5F5F5F5F5F5F5F5F5F5F5F5F5F5F5F5F5F5F5F5F5F5F5F5F5F5F5F5F5F5F5F5F5F5F5F5F5F5F5F5F5F5F5F5F5F5F5F5F5F5F5F5F5F5F5F5F5F5F5F5F5F5F5F5F5F5F5F5F5F5F5F5F5F5F5F5F5F5F5
310
F5F5F5F5F5F5F5F5F5F5F5F5F5F5F5F5F5F5F5F5F5F5F5F5F5F5F5F5F5F5F5F5F5F5F5F5F5F5F5F5F5F5F5F5F5F5F5F5F5F5F5F5F5F5E2F5F5F5F5F5F5F5F5F5F5F5F5F5F5F5F5F5F5F5F5F5E2E2F5F5F5F5F5F5F5F5F5F5F5F5F5F5F5F5F5F5F5F5F5E2F5F5F5F5F5F5F5F5F5F5F5F5F5F5F5F5F5F5F5F5F5F5F5F5F5F5F5
310
F5F5F5F5F5F5F5F5F5F5F5F5F5F5F5F5F5F5F5F5F5F5F5F5F5F5F5F5F5F5F5F5F5F5F5F5F5F5F5F5F5F5F5F5F5F5F5F5F5F5F5F5F5F5F5F5F5F5F5F5F5F5F5F5F5F5F5F5F5F5F5F5F5F5F5F5F5F5F5F5F5F5F5F5F5F5F5F5F5F5F5F5F5F5F5F5F5F5F5F5F5F5F5F5F5F5F5E2F5F5F5F5F5F5F5F5F5F5F5F5F5F5F5F5F5F5F5
310
F5F5E2E2F5F5F5F5F5F5F5F5F5F5F5F5F5F5F5F5F5F5F5F5F5E2F5F5F5F5F5F5F5F5F5F5F5F5F5F5F5F5F5F5F5F5F5F5F5F5F5F5F5F5F5F5F5F5F5F5F5F5F5F5F5F5F5F5F5F5F5F5F5F5F5F5F5F5F5F5F5F5F5F5F5F5F5F5F5F5F5F5F5F5F5F5F5F5F5F5F5F5F5F5F5F5F5F5F5F5F5F5F5F5F5F5F5F5F5F5F5F5F5F5F5F5F5
310
F5F5F5F5F5F5F5F5F5F5F5F5F5F5F5F5F5F5F5F5F5F5F5F5F5F5F5F5F5F5F5F5F5E2F5F5F5F5F5F5F5F5F5F5F5F5F5F5F5F5F5F5F5F5F5E2E2F5F5F5F5F5F5F5F5F5F5F5F5F5F5F5F5F5F5F5F5F5E2F5F5F5F5F5F5F5F5F5F5F5F5F5F5F5F5F5F5F5F5F5F5F5F5F5F5F5F5F5F5F5F5F5F5F5F5F5F5F5F5F5F5F5F5F5F5F5F5
310
F5F5F5F5F5F5F5F5F5F5F5F5F5F5F5F5F5F5F5F5F5F5F5F5F5F5F5F5F5F5F5F5F5F5F5F5F5F5F5F5F5F5F5F5F5F5F5F5F5F5F5F5F5F5F5F5F5F5F5F5F5F5F5F5F5F5F5F5F5F5F5F5F5F5F5F5F5F5F5F5F5F5F5F5F5F5E2F5F5F5F5F5F5F5F5F5F5F5F5F5F5F5F5F5F5F5F5F5E2E2F5F5F5F5F5F5F5F5F5F5F5F5F5F5F5F5F5
310
F5F5F5F5E2F5F5F5F5F5F5F5F5F5F5F5F5F5F5F5F5F5F5F5F5F5F5F5F5F5F5F5F5F5F5F5F5F5F5F5F5F5F5F5F5F5F5F5F5F5F5F5F5F5F5F5F5F5F5F5F5F5F5F5F5F5F5F5F5F5F5F5F5F5F5F5F5F5F5F5F5F5F5F5F5F5F5F5F5F5F5F5F5F5F5F5F5F5F5F5F5F5F5F5F5F5F5F5F5F5F5F5F5F5F5F5F5F5F5F5F5F5F5F5F5F5F5
310
F5F5F5F5F5F5F5F5F5F5F5F5E2F5F5F5F5F5F5F5F5F5F5F5F5F5F5F5F5F5F5F5F5F5E2E2F5F5F5F5F5F5F5F5F5F5F5F5F5F5F5F5F5F5F5F5F5E2F5F5F5F5F5F5F5F5F5F5F5F5F5F5F5F5F5F5F5F5F5F5F5F5F5F5F5F5F5F5F5F5F5F5F5F5F5F5F5F5F5F5F5F5F5F5F5F5F5F5F5F5F5F5F5F5F5F5F5F5F5F5F5F5F5F5F5F5F5
310
F5F5F5F5F5F5F5F5F5F5F5F5F5F5F5F5F5F5F5F5F5F5F5F5F5F5F5F5F5F5F5F5F5F5F5F5F5F5F5F5F5F5F5F5F5F5F5F5F5F5F5F5F5F5F5F5F5F5F5F5F5F5F5F5F5E2F5F5F5F5F5F5F5F5F5F5F5F5F5F5F5F5F5F5F5F5F5E2E2F5F5F5F5F5F5F5F5F5F5F5F5F5F5F5F5F5F5F5F5F5E2F5F5F5F5F5F5F5F5F5F5F5F5F5F5F5F5
310
F5F5F5F5F5F5F5F5F5F5F5F5F5F5F5F5F5F5F5F5F5F5F5F5F5F5F5F5F5F5F5F5F5F5F5F5F5F5F5F5F5F5F5F5F5F5F5F5F5F5F5F5F5F5F5F5F5F5F5F5F5F5F5F5F5F5F5F5F5F5F5F5F5F5F5F5F5F5F5F5F5F5F5F5F5F5F5F5F5F5F5F5F5F5F5F5F5F5F5F5F5F5F5F5F5F5F5F5F5F5F5F5F5F5F5F5F5F5E2F5F5F5F5F5F5F5F5
310
F5F5F5F5F5F5F5F5F5F5F5F5F5E2E2F5F5F5F5E2F5F5F5F5F5F5F5F5F5F5F5F5F5F5F5F5E2F5F5F5F5F5F5F5F5F5F5F5F5F5F5F5F5F5F5F5F5F5F5F5F5F5F5F5F5F5F5F5F5F5F5F5F5F5F5F5F5F5F5F5F5F5F5F5F5F5F5F5F5F5F5F5F5F5F5F5F5F5F5F5F5F5F5F5F5F5F5F5F5F5F5F5F5F5F5F5F5F5F5F5F5F5F5F5F5F5F5
310
F5F5F5F5F5F5F5F5F5F5F5F5F5F5F5F5F5F5F5F5F5F5F5F5F5F5F5F5F5F5F5F5F5F5F5F5F5F5F5F5F5F5F5F5E2F5F5F5F5F5F5F5F5F5F5F5F5F5F5F5F5E2F5F5F5F5E2E2F5F5F5F5E2F5F5F5F5F5F5F5F5F5F5F5F5F5F5F5F5E2F5F5F5F5F5F5F5F5F5F5F5F5F5F5F5F5F5F5F5F5F5F5F5F5F5F5F5F5F5F5F5F5F5F5F5F5F5
310
F5F5F5F5F5F5F5F5F5F5F5F5F5F5F5F5F5F5F5F5F5F5F5F5F5F5F5F5F5F5F5F5F5F5F5F5F5F5F5F5F5F5F5F5F5F5F5F5F5F5F5F5F5F5F5F5F5F5F5F5F5F5F5F5F5F5F5F5F5F5F5F5F5F5F5F5F5F5F5F5F5F5F5F5F5F5F5F5F5F5F5F5F5F5F5F5F5E2F5F5F5F5F5F5F5F5F5F5F5F5F5F5F5F5E2F5F5F5F5E2E2F5F5F5F5E2F5
310
F5F5F5F5F5F5F5F5F5F5F5F5F5F5F5E2F5F5F5F5F5F5F5F5F5F5F5F5F5F5F5F5F5F5F5F5F5F5F5F5F5F5F5F5F5F5F5F5F5F5F5F5F5F5F5F5F5F5F5F5F5F5F5F5F5F5F5F5F5F5F5F5F5F5F5F5F5F5F5F5F5F5F5F5F5F5F5F5F5F5F5F5F5F5F5F5F5F5F5F5F5F5F5F5F5F5F5F5F5F5F5F5F5F5F5F5F5F5F5F5F5F5F5F5F5F5F5
310
F5F5F5F5F5F5F5F5F5F5F5F5F5F5F5F5F5F5F5F5F5F5F5E2F5F5F5F5F5F5F5F5F5F5F5F5F5F5F5F5E2F5F5F5F5E2E2F5F5F5F5E2F5F5F5F5F5F5F5F5F5F5F5F5F5F5F5F5E2F5F5F5F5F5F5F5F5F5F5F5F5F5F5F5F5F5F5F5F5F5F5F5F5F5F5F5F5F5F5F5F5F5F5F5F5F5F5F5F5F5F5F5F5F5F5F5F5F5F5F5F5F5F5F5F5F5F5
310
F5F5F5F5F5F5F5F5F5F5F5F5F5F5F5F5F5F5F5F5F5F5F5F5F5F5F5F5F5F5F5F5F5F5F5F5F5F5F5F5F5F5F5F5F5F5F5F5F5F5F5F5F5F5F5F5F5F5F5F5F5F5F5F5F5F5F5F5F5F5F5F5F5F5F5F5E2F5F5F5F5F5F5F5F5F5F5F5F5F5F5F5F5E2F5F5F5F5E2E2F5F5F5F5E2F5F5F5F5F5F5F5F5F5F5F5F5F5F5F5F5E2F5F5F5F5F5
310
F5F5F5F5F5F5F5F5F5F5F5F5F5F5F5F5F5F5F5F5F5F5F5F5F5F5F5F5F5F5F5F5F5F5F5F5F5F5F5F5F5F5F5F5F5F5F5F5F5F5F5F5F5F5F5F5F5F5F5F5F5F5F5F5F5F5F5F5F5F5F5F5F5F5F5F5F5F5F5F5F5F5F5F5F5F5F5F5F5F5F5F5F5F5F5F5F5F5F5F5F5F5F5F5F5F5F5F5F5F5F5F5F5F5F5F5F5F5F5F5F5F5F5F5F5F5F5
310
F5F5E2F5F5F5F5F5F5F5F5F5F5F5F5F5F5F5F5E2F5F5F5F5E2E2F5F5F5F5E2F5F5F5F5F5F5F5F5F5F5F5F5F5F5F5F5E2F5F5F5F5F5F5F5F5F5F5F5F5F5F5F5F5F5F5F5F5F5F5F5F5F5F5F5F5F5F5F5F5F5F5F5F5F5F5F5F5F5F5F5F5F5F5F5F5F5F5F5F5F5F5F5F5F5F5F5F5F5F5F5F5F5F5F5F5F5F5F5F5F5F5F5F5F5F5F5
310
F5F5F5F5F5F5F5F5F5F5F5F5F5F5F5F5F5F5F5F5F5F5F5F5F5F5F5F5F5F5F5F5F5F5F5F5F5F5F5F5F5F5F5F5F5F5F5F5F5F5F5F5F5F5F5E2F5F5F5F5F5F5F5F5F5F5F5F5F5F5F5F5E2F5F5F5F5E2E2F5F5F5F5E2F5F5F5F5F5F5F5F5F5F5F5F5F5F5F5F5E2F5F5F5F5F5F5F5F5F5F5F5F5F5F5F5F5F5F5F5F5F5F5F5F5F5F5
310
F5F5F5F5F5F5F5F5F5F5F5F5F5F5F5F5F5F5F5F5F5F5F5F5F5F5F5F5F5F5F5F5F5F5F5F5F5F5F5F5F5F5F5F5F5F5F5F5F5F5F5F5F5F5F5F5F5F5F5F5F5F5F5F5F5F5F5F5F5F5F5F5F5F5F5F5F5F5F5F5F5F5F5F5F5F5F5F5F5F5F5F5F5F5F5F5F5F5F5F5F5F5F5F5F5F5F5F5E2F5F5F5F5F5F5F5F5F5F5F5F5F5F5F5F5E2F5
310
F5F5F5E2E2F5F5F5F5E2F5F5F5F5F5F5F5F5F5F5F5F5F5F5F5F5E2F5F5F5F5F5F5F5F5F5F5F5F5F5F5F5F5F5F5F5F5F5F5F5F5F5F5F5F5F5F5F5F5F5F5F5F5F5F5F5F5F5F5F5F5F5F5F5F5F5F5F5F5F5F5F5F5F5F5F5F5F5F5F5F5F5F5F5F5F5F5F5F5F5F5F5F5F5F5F5F5F5F5F5F5F5F5F5F5F5F5F5F5F5F5F5F5F5F5F5F5
310
F5F5F5F5F5F5F5F5F5F5F5F5F5F5F5F5F5F5F5F5F5F5F5F5F5F5F5F5F5F5F5F5F5F5E2F5F5F5F5F5F5F5F5F5F5F5F5F5F5F5F5E2F5F5F5F5E2E2F5F5F5F5E2F5F5F5F5F5F5F5F5F5F5F5F5F5F5F5F5E2F5F5F5F5F5F5F5F5F5F5F5F5F5F5F5F5F5F5F5F5F5F5F5F5F5F5F5F5F5F5F5F5F5F5F5F5F5F5F5F5F5F5F5F5F5F5F5
310
F5F5F5F5F5F5F5F5F5F5F5F5F5F5F5F5F5F5F5F5F5F5F5F5F5F5F5F5F5F5F5F5F5F5F5F5F5F5F5F5F5F5F5F5F5F5F5F5F5F5F5F5F5F5F5F5F5F5F5F5F5F5F5F5F5F5F5F5F5F5F5F5F5F5F5F5F5F5F5F5F5F5F5F5F5F5F5E2F5F5F5F5F5F5F5F5F5F5F5F5F5F5F5F5E2F5F5F5F5E2E2F5F5F5F5E2F5F5F5F5F5F5F5F5F5F5F5
310
F5F5F5F5F5E2F5F5F5F5F5F5F5F5F5F5F5F5F5F5F5F5F5F5F5F5F5F5F5F5F5F5F5F5F5F5F5F5F5F5F5F5F5F5F5F5F5F5F5F5F5F5F5F5F5F5F5F5F5F5F5F5F5F5F5F5F5F5F5F5F5F5F5F5F5F5F5F5F5F5F5F5F5F5F5F5F5F5F5F5F5F5F5F5F5F5F5F5F5F5F5F5F5F5F5F5F5F5F5F5F5F5F5F5F5F5F5F5F5F5F5F5F5F5F5F5F5
310
F5F5F5F5F5F5F5F5F5F5F5F5F5E2F5F5F5F5F5F5F5F5F5F5F5F5F5F5F5F5E2F5F5F5F5E2E2F5F5F5F5E2F5F5F5F5F5F5F5F5F5F5F5F5F5F5F5F5E2F5F5F5F5F5F5F5F5F5F5F5F5F5F5F5F5F5F5F5F5F5F5F5F5F5F5F5F5F5F5F5F5F5F5F5F5F5F5F5F5F5F5F5F5F5F5F5F5F5F5F5F5F5F5F5F5F5F5F5F5F5F5F5F5F5F5F5F5
310
F5F5F5F5F5F5F5F5F5F5F5F5F5F5F5F5F5F5F5F5F5F5F5F5F5F5F5F5F5F5F5F5F5F5F5F5F5F5F5F5F5F5F5F5F5F5F5F5F5F5F5F5F5F5F5F5F5F5F5F5F5F5F5F5F5F5E2F5F5F5F5F5F5F5F5F5F5F5F5F5F5F5F5E2F5F5F5F5E2E2F5F5F5F5E2F5F5F5F5F5F5F5F5F5F5F5F5F5F5F5F5E2F5F5F5F5F5F5F5F5F5F5F5F5F5F5F5
310
F5F5F5F5F5F5F5F5F5F5F5F5F5F5F5F5F5F5F5F5F5F5F5F5F5F5F5F5F5F5F5F5F5F5F5F5F5F5F5F5F5F5F5F5F5F5F5F5F5F5F5F5F5F5F5F5F5F5F5F5F5F5F5F5F5F5F5F5F5F5F5F5F5F5F5F5F5F5F5F5F5F5F5F5F5F5F5F5F5F5F5F5F5F5F5F5F5F5F5F5F5F5F5F5F5F5F5F5F5F5F5F5F5F5F5F5F5F5F5E2F5F5F5F5F5F5F5
310
F5F5F5F5F5F5F5F5F5E2F5F5F5F5E2E2F5F5F5F5E2F5F5F5F5F5F5F5F5F5F5F5F5F5F5F5F5E2F5F5F5F5F5F5F5F5F5F5F5F5F5F5F5F5F5F5F5F5F5F5F5F5F5F5F5F5F5F5F5F5F5F5F5F5F5F5F5F5F5F5F5F5F5F5F5F5F5F5F5F5F5F5F5F5F5F5F5F5F5F5F5F5F5F5F5F5F5F5F5F5F5F5F5F5F5F5F5F5F5F5F5F5F5F5F5F5F5
310
F5F5F5F5F5F5F5F5F5F5F5F5F5F5F5F5F5F5F5F5F5F5F5F5F5F5F5F5F5F5F5F5F5F5F5F5F5F5F5F5F5F5F5F5F5E2F5F5F5F5F5F5F5F5F5F5F5F5F5F5F5F5E2F5F5F5F5E2E2F5F5F5F5E2F5F5F5F5F5F5F5F5F5F5F5F5F5F5F5F5E2F5F5F5F5F5F5F5F5F5F5F5F5F5F5F5F5F5F5F5F5F5F5F5F5F5F5F5F5F5F5F5F5F5F5F5F5
310
F5F5F5F5F5F5F5F5F5F5F5F5F5F5F5F5F5F5F5F5F5F5F5F5F5F5F5F5F5F5F5F5F5F5F5F5F5F5F5F5F5F5F5F5F5F5F5F5F5F5F5F5F5F5F5F5F5F5F5F5F5F5F5F5F5F5F5F5F5F5F5F5F5F5F5F5F5F5F5F5F5F5F5F5F5F5F5F5F5F5F5F5F5F5F5F5F5F5E2F5F5F5F5F5F5F5F5F5F5F5F5F5F5F5F5E2F5F5F5F5E2E2F5F5F5F5E2
310
F5F5F5F5F5F5F5F5F5F5F5F5F5F5F5F5E2F5F5F5F5F5F5F5F5F5F5F5F5F5F5F5F5F5F5F5F5F5F5F5F5F5F5F5F5F5F5F5F5F5F5F5F5F5F5F5F5F5F5F5F5F5F5F5F5F5F5F5F5F5F5F5F5F5F5F5F5F5F5F5F5F5F5F5F5F5F5F5F5F5F5F5F5F5F5F5F5F5F5F5F5F5F5F5F5F5F5F5F5F5F5F5F5F5F5F5F5F5F5F5F5F5F5F5F5F5F5
310
F5F5F5F5F5F5F5F5F5F5F5F5F5F5F5F5F5F5F5F5F5F5F5F5E2F5F5F5F5F5F5F5F5F5F5F5F5F5F5F5F5E2F5F5F5F5E2E2F5F5F5F5E2F5F5F5F5F5F5F5F5F5F5F5F5F5F5F5F5E2F5F5F5F5F5F5F5F5F5F5F5F5F5F5F5F5F5F5F5F5F5F5F5F5F5F5F5F5F5F5F5F5F5F5F5F5F5F5F5F5F5F5F5F5F5F5F5F5F5F5F5F5F5F5F5F5F5
310
F5F5F5F5F5F5F5F5F5F5F5F5F5F5F5F5F5F5F5F5F5F5F5F5F5F5F5F5F5F5F5F5F5F5F5F5F5F5F5F5F5F5F5F5F5F5F5F5F5F5F5F5F5F5F5F5F5F5F5F5F5F5F5F5F5F5F5F5F5F5F5F5F5F5F5F5F5E2F5F5F5F5F5F5F5F5F5F5F5F5F5F5F5F5E2F5F5F5F5E2E2F5F5F5F5E2F5F5F5F5F5F5F5F5F5F5F5F5F5F5F5F5E2F5F5F5F5
310
F5F5F5F5F5F5F5F5F5F5F5F5F5F5F5F5F5F5F5F5F5F5F5F5F5F5F5F5F5F5F5F5F5F5F5F5F5F5F5F5F5F5F5F5F5F5F5F5F5F5F5F5F5F5F5F5F5F5F5F5F5F5F5F5F5F5F5F5F5F5F5F5F5F5F5F5F5F5F5F5F5F5F5F5F5F5F5F5F5F5F5F5F5F5F5F5F5F5F5F5F5F5F5F5F5F5F5F5F5F5F5F5F5F5F5F5F5F5F5F5F5F5F5F5F5F5F5
310
F5F5F5E2F5F5F5F5F5F5F5F5F5F5F5F5F5F5F5F5E2F5F5F5F5E2E2F5F5F5F5F5F5F5F5F5F5F5F5F5F5F5F5F5F5F5F5F5E2F5F5F5F5F5F5F5F5F5F5F5F5F5F5F5F5F5F5F5F5F5F5F5F5F5F5F5F5F5F5F5F5F5F5F5F5F5F5F5F5F5F5F5F5F5F5F5F5F5F5F5F5F5F5F5F5F5F5F5F5F5F5F5F5F5F5F5F5F5F5F5F5F5F5F5F5F5F5
310
F5F5F5F5F5F5F5F5F5F5F5F5F5F5F5F5F5F5F5F5F5F5F5F5F5F5F5F5F5F5F5F5F5F5F5F5F5F5F5F5F5F5F5F5F5F5F5F5F5F5F5F5F5F5F5F5E2F5F5F5F5F5F5F5F5F5F5F5F5F5F5F5F5F5F5F5F5F5E2E2F5F5F5F5F5F5F5F5F5F5F5F5F5F5F5F5F5F5F5F5F5E2F5F5F5F5F5F5F5F5F5F5F5F5F5F5F5F5F5F5F5F5F5F5F5F5F5
310
F5F5F5F5F5F5F5F5F5F5F5F5F5F5F5F5F5F5F5F5F5F5F5F5F5F5F5F5F5F5F5F5F5F5F5F5F5F5F5F5F5F5F5F5F5F5F5F5F5F5F5F5F5F5F5F5F5F5F5F5F5F5F5F5F5F5F5F5F5F5F5F5F5F5F5F5F5F5F5F5F5F5F5F5F5F5F5F5F5F5F5F5F5F5F5F5F5F5F5F5F5F5F5F5F5F5F5F5F5E2F5F5F5F5F5F5F5F5F5F5F5F5F5F5F5F5F5
310
F5F5F5F5E2E2F5F5F5F5F5F5F5F5F5F5F5F5F5F5F5F5F5F5F5F5F5E2F5F5F5F5F5F5F5F5F5F5F5F5F5F5F5F5F5F5F5F5F5F5F5F5F5F5F5F5F5F5F5F5F5F5F5F5F5F5F5F5F5F5F5F5F5F5F5F5F5F5F5F5F5F5F5F5F5F5F5F5F5F5F5F5F5F5F5F5F5F5F5F5F5F5F5F5F5F5F5F5F5F5F5F5F5F5F5F5F5F5F5F5F5F5F5F5F5F5F5
310
F5F5F5F5F5F5F5F5F5F5F5F5F5F5F5F5F5F5F5F5F5F5F5F5F5F5F5F5F5F5F5F5F5F5F5E2F5F5F5F5F5F5F5F5F5F5F5F5F5F5F5F5F5F5F5F5F5E2E2F5F5F5F5F5F5F5F5F5F5F5F5F5F5F5F5F5F5F5F5F5E2F5F5F5F5F5F5F5F5F5F5F5F5F5F5F5F5F5F5F5F5F5F5F5F5F5F5F5F5F5F5F5F5F5F5F5F5F5F5F5F5F5F5F5F5F5F5
310
F5F5F5F5F5F5F5F5F5F5F5F5F5F5F5F5F5F5F5F5F5F5F5F5F5F5F5F5F5F5F5F5F5F5F5F5F5F5F5F5F5F5F5F5F5F5F5F5F5F5F5F5F5F5F5F5F5F5F5F5F5F5F5F5F5F5F5F5F5F5F5F5F5F5F5F5F5F5F5F5F5F5F5F5F5F5F5F5E2F5F5F5F5F5F5F5F5F5F5F5F5F5F5F5F5F5F5F5F5F5E2E2F5F5F5F5F5F5F5F5F5F5F5F5F5F5F5
310
F5F5F5F5F5F5E2E2E2E2E2E2E2E2E2E2E2E2E2E2E2E2E2E2E2E2E2E2E2E2E2E2E2E2E2E2E2E2E2E2E2E2E2E2E2E2E2E2E2E2E2E2E2E2E2E2E2E2E2E2E2E2E2E2E2E2E2E2E2E2E2E2E2E2E2E2E2E2E2E2E2E2E2E2E2E2E2E2E2E2E2E2E2E2E2E2E2E2E2E2E2E2E2E2E2E2E2E2E2E2E2E2E2E2E2E2E2E2E2E2E2E2E2E2E2E2E2
310
E2E2E2E2E2E2E2E2E2E2E2E2E2E2E2F5F5F5F5F5F5F5F5F5F5F5F5F5F5F5F5F5F5F5F5F5E2E2F5F5F5F5F5F5F5F5F5F5F5F5F5F5F5F5F5F5F5F5F5F5F5F5F5F5F5F5F5F5F5F5F5F5F5F5F5F5F5F5F5F5F5F5F5F5F5F5F5F5F5F5F5F5F5F5F5F5F5F5F5F5F5F5F5F5F5F5F5F5F5F5F5F5F5F5F5F5F5F5F5F5F5F5F5F5F5F5F5
310
F5F5F5F5F5F5F5F5F5F5F5F5F5F5F5F5F5F5F5F5F5F5F5F5F5F5F5F5F5F5F5F5F5F5F5F5F5F5F5F5F5F5F5F5F5F5F5F5F5F5F5F5F5F5F5F5F5F5F5F5F5F5F5F5F5F5F5F5F5F5F5F5F5F5F5F5F5F5F5F5F5F5F5F5F5F5F5F5F5E2E2F5F5F5F5F5F5F5F5F5F5F5F5F5F5F5F5F5F5F5F5F5F5F5F5F5F5F5F5F5F5F5F5F5F5F5F5
310
F5F5F5F5F5F5F5F5F5F5F5F5F5F5F5F5F5F5F5F5F5F5F5F5F5F5F5F5F5F5F5F5F5F5F5F5F5F5F5F5F5F5F5F5F5F5F5F5F5F5F5F5F5F5F5F5F5F5F5F5F5F5F5F5F5F5F5F5F5F5F5F5F5F5F5F5F5F5F5F5F5F5F5F5F5F5F5F5F5F5F5F5F5F5F5F5F5F5F5F5F5F5F5F5F5F5F5F5F5F5F5F5F5F5F5F5F5F5F5F5F5F5F5F5F5F5F5
310
F5F5F5F5F5F5F5F5F5F5F5F5F5F5F5E2E2F5F5F5F5F5F5F5F5F5F5F5F5F5F5F5F5F5F5F5F5F5F5F5F5F5F5F5F5F5F5F5F5F5F5F5F5F5F5F5F5F5F5F5F5F5F5F5F5F5F5F5F5F5F5F5F5F5F5F5F5F5F5F5F5F5F5F5F5F5F5F5F5F5F5F5F5F5F5F5F5F5F5F5F5F5F5F5F5F5F5F5F5F5F5F5F5F5F5F5F5F5F5F5F5F5F5F5F5F5F5
310
F5F5F5F5F5F5F5F5F5F5F5F5F5F5F5F5F5F5F5F5F5F5F5F5F5F5F5F5F5F5F5F5F5F5F5F5F5F5F5F5F5F5F5F5F5F5F5F5F5F5F5F5F5F5F5F5F5F5F5F5F5F5F5F5F5F5F5F5E2E2F5F5F5F5F5F5F5F5F5F5F5F5F5F5F5F5F5F5F5F5F5F5F5F5F5F5F5F5F5F5F5F5F5F5F5F5F5F5F5F5F5F5F5F5F5F5F5F5F5F5F5F5F5F5F5F5F5
310
F5F5F5F5F5F5F5F5F5F5F5F5F5F5F5F5F5F5F5F5F5F5F5F5F5F5F5F5F5F5F5F5F5F5F5F5F5F5F5F5F5F5F5F5F5F5F5F5F5F5F5F5F5F5F5F5F5F5F5F5F5F5F5F5F5F5F5F5F5F5F5F5F5F5F5F5F5F5F5F5F5F5F5F5F5F5F5F5F5F5F5F5F5F5F5F5F5F5F5F5F5F5F5F5F5F5F5F5F5F5F5F5F5F5F5F5F5F5F5F5F5E2E2F5F5F5F5
310
E2F5F5F5F5F5F5F5F5F5F5F5F5F5F5F5F5F5F5F5F5F5F5F5F5F5F5F5F5F5F5F5F5F5F5F5F5F5F5F5F5F5F5F5F5F5F5F5F5F5F5F5F5F5F5F5F5F5F5F5F5F5F5F5F5F5F5F5F5F5F5F5F5F5F5F5F5F5F5F5F5F5F5F5F5F5F5F5F5F5F5F5F5F5F5F5F5F5F5F5F5F5F5F5F5F5F5F5F5F5F5F5F5F5F5F5F5F5F5F5F5F5F5F5F5F5F5
310
F5F5F5F5F5F5F5F5F5F5F5F5F5F5F5F5F5F5F5F5F5F5F5F5F5F5F5F5F5F5F5F5F5F5F5F5F5F5F5F5F5F5E2F5F5F5F5E2E2F5F5F5F5E2F5F5F5F5F5F5F5F5F5F5F5F5F5F5F5F5F5F5F5F5F5F5F5F5F5F5F5F5F5F5F5F5F5F5F5F5F5F5F5F5F5F5F5F5F5F5F5F5F5F5F5F5F5F5F5F5F5F5F5F5F5F5F5F5F5F5F5F5F5F5F5F5F5
310
F5F5F5F5F5F5F5F5F5F5F5F5F5F5F5F5F5F5F5F5F5F5F5F5F5F5F5F5F5F5F5F5F5F5F5F5F5F5F5F5F5F5F5F5F5F5F5F5F5F5F5F5F5F5F5F5F5F5F5F5F5F5F5F5F5F5F5F5F5F5F5F5F5F5F5F5F5F5F5F5F5F5F5F5F5F5F5F5F5F5F5F5F5F5F5E2F5F5F5F5E2E2F5F5F5F5E2F5F5F5F5F5F5F5F5F5F5F5F5F5F5F5F5F5F5F5F5
310
F5F5F5F5F5F5F5F5F5F5F5F5F5F5F5F5F5F5F5F5F5F5F5F5F5F5F5F5F5F5F5F5F5F5F5F5F5F5F5F5F5F5F5F5F5F5F5F5F5F5F5F5F5F5F5F5F5F5F5F5F5F5F5F5F5F5F5F5F5F5F5F5F5F5F5F5F5F5F5F5F5F5F5F5F5F5F5F5F5F5F5F5F5F5F5F5F5F5F5F5F5F5F5F5F5F5F5F5F5F5F5F5F5F5F5F5F5F5F5F5F5F5F5F5F5F5F5
310
F5F5F5F5F5F5F5F5F5F5F5F5F5F5F5F5F5F5F5F5F5E2F5F5F5F5E2E2F5F5F5F5E2F5F5F5F5F5F5F5F5F5F5F5F5F5F5F5F5F5F5F5F5F5F5F5F5F5F5F5F5F5F5F5F5F5F5F5F5F5F5F5F5F5F5F5F5F5F5F5F5F5F5F5F5F5F5F5F5F5F5F5F5F5F5F5F5F5F5F5F5F5F5F5F5F5F5F5F5F5F5F5F5F5F5F5F5F5F5F5F5F5F5F5F5F5F5
310
F5F5F5F5F5F5F5F5F5F5F5F5F5F5F5F5F5F5F5F5F5F5F5F5F5F5F5F5F5F5F5F5F5F5F5F5F5F5F5F5F5F5F5F5F5F5F5F5F5F5F5F5F5F5F5F5F5F5F5F5F5F5F5F5F5F5F5F5F5F5F5F5F5F5E2F5F5F5F5E2E2F5F5F5F5E2F5F5F5F5F5F5F5F5F5F5F5F5F5F5F5F5F5F5F5F5F5F5F5F5F5F5F5F5F5F5F5F5F5F5F5F5F5F5F5F5F5
310
F5F5F5F5F5F5F5F5F5F5F5F5F5F5F5F5F5F5F5F5F5F5F5F5F5F5F5F5F5F5F5F5F5F5F5F5F5F5F5F5F5F5F5F5F5F5F5F5F5F5F5F5F5F5F5F5F5F5F5F5F5F5F5F5F5F5F5F5F5F5F5F5F5F5F5F5F5F5F5F5F5F5F5F5F5F5F5F5F5F5F5F5F5F5F5F5F5F5F5F5F5F5F5F5F5F5F5F5F5F5F5F5F5F5F5F5F5F5F5F5F5F5F5F5F5F5F5
310
E2F5F5F5F5E2E2F5F5F5F5E2F5F5F5F5F5F5F5F5F5F5F5F5F5F5F5F5F5F5F5F5F5F5F5F5F5F5F5F5F5F5F5F5F5F5F5F5F5F5F5F5F5F5F5F5F5F5F5F5F5F5F5F5F5F5F5F5F5F5F5F5F5F5F5F5F5F5F5F5F5F5F5F5F5F5F5F5F5F5F5F5F5F5F5F5F5F5F5F5F5F5F5F5F5F5F5F5F5F5F5F5F5F5F5F5F5F5F5F5F5F5F5F5F5F5F5
310
F5F5F5F5F5F5F5F5F5F5F5F5F5F5F5F5F5F5F5F5F5F5F5F5F5F5F5F5F5F5F5F5F5F5F5F5F5F5F5F5F5F5F5F5F5F5F5F5F5F5F5F5F5E2F5F5F5F5E2E2F5F5F5F5E2F5F5F5F5F5F5F5F5F5F5F5F5F5F5F5F5F5F5F5F5F5F5F5F5F5F5F5F5F5F5F5F5F5F5F5F5F5F5F5F5F5F5F5F5F5F5F5F5F5F5F5F5F5F5F5F5F5F5F5F5F5F5
310
F5F5F5F5F5F5F5F5F5F5F5F5F5F5F5F5F5F5F5F5F5F5F5F5F5F5F5F5F5F5F5F5F5F5F5F5F5F5F5F5F5F5F5F5F5F5F5F5F5F5F5F5F5F5F5F5F5F5F5F5F5F5F5F5F5F5F5F5F5F5F5F5F5F5F5F5F5F5F5F5F5F5F5F5F5F5F5F5F5F5F5F5F5F5F5F5F5F5F5F5F5F5F5F5F5F5E2F5F5F5F5E2E2F5F5F5F5E2F5F5F5F5F5F5F5F5F5
310
F5F5F5F5F5F5F5F5F5F5F5F5F5F5F5F5F5F5F5F5F5F5F5F5F5F5F5F5F5F5F5F5F5F5F5F5F5F5F5F5F5F5F5F5F5F5F5F5F5F5F5F5F5F5F5F5F5F5F5F5F5F5F5F5F5F5F5F5F5F5F5F5F5F5F5F5F5F5F5F5F5F5F5F5F5F5F5F5F5F5F5F5F5F5F5F5F5F5F5F5F5F5F5F5F5F5F5F5F5F5F5F5F5F5F5F5F5F5F5F5F5F5F5F5F5F5F5
310
F5F5F5F5F5F5F5F5F5F5F5F5F5F5F5F5F5F5F5F5F5F5F5F5F5F5F5F5F5F5F5F5E2F5F5F5F5E2E2F5F5F5F5E2E2E2E2E2E2E2E2F5F5F5F5F5F5F5F5F5E2E2E2E2E2E2E2E2E2E2E2E2E2E2E2F5F5F5F5F5F5F5F5F5E2E2E2E2E2E2E2E2E2E2E2E2E2E2E2E2F5F5F5F5F5F5F5F5E2E2E2E2E2E2E2E2E2E2E2E2E2E2E2E2F5F5F5
310
F5F5F5F5F5E2E2E2E2E2E2E2E2E2E2E2E2E2E2E2E2F5F5F5F5F5F5F5F5E2E2E2E2E2E2E2E2E2E2E2E2E2E2E2E2F5F5F5F5F5F5F5F5F5E2E2E2E2E2E2E2E2E2E2E2E2E2E2E2F5F5F5F5F5F5F5F5F5E2E2E2E2E2E2E2E2F5F5F5F5E2E2F5F5F5F5F5F5F5F5F5F5F5F5F5F5F5F5F5F5F5F5F5F5F5F5F5F5F5F5F5F5F5F5F5F5F5
310
F5F5F5F5F5F5F5F5F5F5F5F5F5F5F5F5F5F5F5F5F5F5F5F5F5F5F5F5F5F5F5F5F5F5F5F5F5F5F5F5F5F5F5F5F5F5F5F5F5F5F5F5F5F5F5F5F5F5F5F5F5F5F5F5F5F5F5F5F5F5F5F5F5F5F5F5F5F5F5F5F5F5F5F5F5F5F5F5F5F5F5F5F5F5F5F5F5F5F5F5F5F5F5F5F5F5F5F5F5F5F5F5F5F5F5F5F5F5F5F5F5F5F5F5F5F5F5
310
F5F5F5F5F5F5F5F5F5F5F5F5F5F5F5F5E2E2F5F5F5F5F5F5F5F5F5F5F5F5F5F5F5F5F5F5F5F5F5F5F5F5F5F5F5F5F5F5F5F5F5F5F5F5F5F5F5F5F5F5F5F5F5F5F5F5F5F5F5F5F5F5F5F5F5F5F5F5F5F5F5F5F5F5F5F5F5F5F5F5F5F5F5F5F5F5F5F5F5F5F5F5F5F5F5F5F5F5F5F5F5F5F5F5F5F5F5F5F5F5F5F5F5F5F5F5F5
310
F5F5F5F5F5F5F5F5F5F5F5F5F5F5F5F5F5F5F5F5F5F5F5F5F5F5F5F5F5F5F5F5F5F5F5F5F5F5F5F5F5F5F5F5F5F5F5F5F5F5F5F5F5F5F5F5F5F5F5F5F5F5F5F5F5F5F5F5F5E2E2F5F5F5F5F5F5F5F5F5F5F5F5F5F5F5F5F5F5F5F5F5F5F5F5F5F5F5F5F5F5F5F5F5F5F5F5F5F5F5F5F5F5F5F5F5F5F5F5F5F5F5F5F5F5F5F5
310
F5F5F5F5F5F5F5F5F5F5F5F5F5F5F5F5F5F5F5F5F5F5F5F5F5F5F5F5F5F5F5F5F5F5F5F5F5F5F5F5F5F5F5F5F5F5F5F5F5F5F5F5F5F5F5F5F5F5F5F5F5F5F5F5F5F5F5F5F5F5F5F5F5F5F5F5F5F5F5F5F5F5F5F5F5F5F5F5F5F5F5F5F5F5F5F5F5F5F5F5F5F5F5F5F5F5F5F5F5F5F5F5F5F5F5F5F5F5F5F5F5F5E2E2E2E2E2
310
E2E2E2E2E2E2E2E2E2E2E2E2E2E2E2E2E2E2E2E2E2E2E2E2E2E2E2E2E2E2E2E2E2E2E2E2E2E2E2E2E2E2E2E2E2E2E2E2E2E2E2E2E2E2E2E2E2E2E2E2E2E2E2E2E2E2E2E2E2E2E2E2E2E2E2E2E2E2E2E2E2E2E2E2E2E2E2E2E2E2E2E2E2E2E2E2E2E2E2E2E2E2E2E2E2E2E2E2E2E2E2E2E2E2E2E2E2E2E2E2E2E2E2E2E2E2E2
310
E2E2E2E2E2E2E2E2E2E2E2E2E2E2E2E2E2E2E2E2E2E2E2E2E2E2E2E2E2E2E2E2E2E2E2E2E2E2E2E2E2E2E2E2E2E2E2E2E2
  0
XRECORD
  5
55674
102
{ACAD_REACTORS
330
B5
102
}
330
B5
100
AcDbXrecord
280
     1
102
SHADEPLOT
 70
     0
102
SHADEPLOTRESLEVEL
 70
     2
102
SHADEPLOTCUSTOMDPI
 70
   300
  0
XRECORD
  5
B6
102
{ACAD_REACTORS
330
B5
102
}
330
B5
100
AcDbXrecord
280
     1
310
28000000B40000008B0000000100080000000000BC610000000000000000000000010000000000000000000000000000FFFFFF000000000000000000000000000000000000000000000000000000000000000000330000006600000099000000CC000000FF00000000330000333300006633000099330000CC330000FF3300
310
0000660000336600006666000099660000CC660000FF66000000990000339900006699000099990000CC990000FF99000000CC000033CC000066CC000099CC0000CCCC0000FFCC000000FF000033FF000066FF000099FF0000CCFF0000FFFF000000003300330033006600330099003300CC003300FF003300003333003333
310
33006633330099333300CC333300FF33330000663300336633006666330099663300CC663300FF66330000993300339933006699330099993300CC993300FF99330000CC330033CC330066CC330099CC3300CCCC3300FFCC330000FF330033FF330066FF330099FF3300CCFF3300FFFF330000006600330066006600660099
310
006600CC006600FF00660000336600333366006633660099336600CC336600FF33660000666600336666006666660099666600CC666600FF66660000996600339966006699660099996600CC996600FF99660000CC660033CC660066CC660099CC6600CCCC6600FFCC660000FF660033FF660066FF660099FF6600CCFF6600
310
FFFF660000009900330099006600990099009900CC009900FF00990000339900333399006633990099339900CC339900FF33990000669900336699006666990099669900CC669900FF66990000999900339999006699990099999900CC999900FF99990000CC990033CC990066CC990099CC9900CCCC9900FFCC990000FF99
310
0033FF990066FF990099FF9900CCFF9900FFFF99000000CC003300CC006600CC009900CC00CC00CC00FF00CC000033CC003333CC006633CC009933CC00CC33CC00FF33CC000066CC003366CC006666CC009966CC00CC66CC00FF66CC000099CC003399CC006699CC009999CC00CC99CC00FF99CC0000CCCC0033CCCC0066CC
310
CC0099CCCC00CCCCCC00FFCCCC0000FFCC0033FFCC0066FFCC0099FFCC00CCFFCC00FFFFCC000000FF003300FF006600FF009900FF00CC00FF00FF00FF000033FF003333FF006633FF009933FF00CC33FF00FF33FF000066FF003366FF006666FF009966FF00CC66FF00FF66FF000099FF003399FF006699FF009999FF00CC
310
99FF00FF99FF0000CCFF0033CCFF0066CCFF0099CCFF00CCCCFF00FFCCFF0000FFFF0033FFFF0066FFFF0099FFFF00CCFFFF00FFFFFF00000000000D0D0D001A1A1A00282828003535350043434300505050005D5D5D006B6B6B00787878008686860093939300A1A1A100AEAEAE00BBBBBB00C9C9C900D6D6D600E4E4E400
310
F1F1F100FFFFFF0000000000000000000000000000000000000000000000000000000000000000000000000000000000F5F5F5F5F5F5F5F5F5F5F5F5F5F5F5F5F5F5F5F5F5F5F5F5F5F5F5F5F5F5F5F5F5F5F5F5F5F5F5F5F5F5F5F5F5F5F5F5F5F5F5F5F5F5F5F5F5F5F5F5F5F5F5F5F5F5F5F5F5F5F5F5F5F5F5F5F5F5F5
310
F5F5F5F5F5F5F5F5F5F5F5F5F5F5F5F5F5F5F5F5F5F5F5F5F5F5F5F5F5F5F5F5F5F5F5F5F5F5F5F5F5F5F5F5F5F5F5F5F5F5F5F5F5F5F5F5F5F5F5F5F5F5F5F5F5F5F5F5F5F5F5F5F5F5F5F5F5F5F5F5F5F5F5F5F5F5F5F5F5F5F5F5F5F5F5F5F5F5F5F5F5F5E2E2E2E2E2E2E2E2E2E2E2E2E2E2E2E2E2E2E2E2E2E2E2E2E2
310
E2E2E2E2E2E2E2E2E2E2E2E2E2E2E2E2E2E2E2E2E2E2E2E2E2E2E2E2E2E2E2E2E2E2E2E2E2E2E2E2E2E2E2E2E2E2E2E2E2E2E2E2E2E2E2E2E2E2E2E2E2E2E2E2E2E2E2E2E2E2E2E2E2E2E2E2E2E2E2E2E2E2E2E2E2E2E2E2E2E2E2E2E2E2E2E2E2E2E2E2E2E2E2E2E2E2E2E2E2E2E2E2E2E2E2E2E2E2E2E2E2E2E2E2E2E2E2
310
E2E2E2E2E2E2E2E2E2E2E2E2E2E2E2E2E2E2E2E2E2E2E2E2E2E2F5F5E2E2E2E2E2E2E2E2E2E2E2E2E2E2E2E2E2E2E2E2E2E2E2E2E2E2E2E2E2E2E2E2E2E2E2E2E2E2E2E2E2E2E2E2E2E2E2E2E2E2E2E2E2E2E2E2E2E2E2E2E2E2E2E2E2E2E2E2E2E2E2E2E2E2E2E2E2E2E2E2E2E2E2E2E2E2E2E2E2E2E2E2E2E2E2E2E2E2E2
310
E2E2E2E2E2E2E2E2E2E2E2E2E2E2E2E2E2E2E2E2E2E2E2E2E2E2E2E2E2E2E2E2E2E2E2E2E2E2E2E2E2E2E2E2E2E2E2E2E2E2E2E2E2E2E2E2E2E2E2E2E2E2E2E2E2E2E2E2E2E2E2E2E2E2E2E2E2E2E2F5F5E2E2E2E2E2E2E2E2E2E2E2E2E2E2E2E2E2E2E2E2E2E2E2E2E2E2E2E2E2E2E2E2E2E2E2E2E2E2E2E2E2E2E2E2E2E2
310
E2E2E2E2E2E2E2E2E2E2E2E2E2E2E2E2E2E2E2E2E2E2E2E2E2E2E2E2E2E2E2E2E2E2E2E2E2E2E2E2E2E2E2E2E2E2E2E2E2E2E2E2E2E2E2E2E2E2E2E2E2E2E2E2E2E2E2E2E2E2E2E2E2E2E2E2E2E2E2E2E2E2E2E2E2E2E2E2E2E2E2E2E2E2E2E2E2E2E2E2E2E2E2E2E2E2E2E2E2E2E2E2E2E2E2E2E2E2E2E2E2E2E2E2E2E2E2
310
E2E2E2E2E2F5F5E2E2E2E2E2E2E2E2E2E2E2E2E2E2E2E2E2E2E2E2E2E2E2E2E2E2E2E2E2E2E2E2E2E2E2E2E2E2E2E2E2E2E2E2E2E2E2E2E2E2E2E2E2E2E2E2E2E2E2E2E2E2E2E2E2E2E2E2E2E2E2E2E2E2E2E2E2E2E2E2E2E2E2E2E2E2E2E2E2E2E2E2E2E2E2E2E2E2E2E2E2E2E2E2E2E2E2E2E2E2E2E2E2E2E2E2E2E2E2E2
310
E2E2E2E2E2E2E2E2E2E2E2E2E2E2E2E2E2E2E2E2E2E2E2E2E2E2E2E2E2E2E2E2E2E2E2E2E2E2E2E2E2E2E2E2E2E2E2E2E2E2E2E2E2E2E2E2E2E2F5F5E2E2E2F5F5F5F5F5F5F5F5E2E2E2E2E2E2E2E2E2F5F5F5F5F5F5F5F5F5F5F5F5F5F5F5F5E2E2E2E2E2E2E2E2E2F5F5F5F5F5F5F5F5F5F5F5F5F5F5F5E2E2E2E2E2E2E2
310
E2E2F5F5F5F5F5F5F5F5F5F5F5F5F5F5F5F5E2E2E2E2E2E2E2E2F5F5F5F5F5F5F5F5F5F5F5F5F5F5F5F5E2E2E2E2E2E2E2E2E2F5F5F5F5F5F5F5F5F5F5F5F5F5F5F5E2E2E2E2E2E2E2E2E2F5F5F5F5F5F5F5F5F5F5F5F5F5F5F5F5E2E2E2E2E2E2E2E2E2F5F5F5F5F5F5F5F5E2E2E2F5F5E2E2E2F5E2E2E2E2E2E2E2E2E2E2
310
E2E2E2E2E2E2E2E2E2E2E2E2E2E2E2E2E2E2E2E2E2E2E2E2E2E2E2E2E2E2E2E2E2E2E2E2E2E2E2E2E2E2E2E2E2E2E2E2E2E2E2E2E2E2E2E2E2E2E2E2E2E2E2E2E2E2E2E2E2E2E2E2E2E2E2E2E2E2E2E2E2E2E2E2E2E2E2E2E2E2E2E2E2E2E2E2E2E2E2E2E2E2E2E2E2E2E2E2E2E2E2E2E2E2E2E2E2E2E2E2E2E2E2E2E2E2E2
310
E2E2E2E2E2E2E2E2E2E2E2E2E2E2E2E2E2E2E2E2E2E2E2E2E2E2E2E2E2E2E2E2E2F5E2E2E2F5F5E2E2E2F5E2E2E2E2E2E2E2E2E2E2E2E2E2E2E2E2E2E2E2E2E2E2E2E2E2E2E2E2E2E2E2E2E2E2E2E2E2E2E2E2E2E2E2E2E2E2E2E2E2E2E2E2E2E2E2E2E2E2E2E2E2E2E2E2E2E2E2E2E2E2E2E2E2E2E2E2E2E2E2E2E2E2E2E2
310
E2E2E2E2E2E2E2E2E2E2E2E2E2E2E2E2E2E2E2E2E2E2E2E2E2E2E2E2E2E2E2E2E2E2E2E2E2E2E2E2E2E2E2E2E2E2E2E2E2E2E2E2E2E2E2E2E2E2E2E2E2E2E2E2E2E2E2E2E2E2E2E2E2E2E2E2E2E2E2E2E2E2E2E2E2E2F5E2E2E2F5F5E2E2E2F5E2E2E2E2E2E2E2E2E2E2E2E2E2E2E2E2E2E2E2E2E2E2E2E2E2E2E2E2E2E2E2
310
E2E2E2E2E2E2E2E2E2E2E2E2E2E2E2E2E2E2E2E2E2E2E2E2E2E2E2E2E2E2E2E2E2E2E2E2E2E2E2E2E2E2E2E2E2E2E2E2E2E2E2E2E2E2E2E2E2E2E2E2E2E2E2E2E2E2E2E2E2E2E2E2E2E2E2E2E2E2E2E2E2E2E2E2E2E2E2E2E2E2E2E2E2E2E2E2E2E2E2E2E2E2E2E2E2E2E2E2E2E2E2E2E2E2E2E2E2E2E2E2E2E2E2E2E2E2E2
310
E2E2E2E2E2E2E2E2E2E2E2E2F5E2E2E2F5F5E2E2E2F5E2E2E2E2E2E2E2E2E2E2E2E2E2E2E2E2E2E2E2E2E2E2E2E2E2E2E2E2E2E2E2E2E2E2E2E2E2E2E2E2E2E2E2E2E2E2E2E2E2E2E2E2E2E2E2E2E2E2E2E2E2E2E2E2E2E2E2E2E2E2E2E2E2E2E2E2E2E2E2E2E2E2E2E2E2E2E2E2E2E2E2E2E2E2E2E2E2E2E2E2E2E2E2E2E2
310
E2E2E2E2E2E2E2E2E2E2E2E2E2E2E2E2E2E2E2E2E2E2E2E2E2E2E2E2E2E2E2E2E2E2E2E2E2E2E2E2E2E2E2E2E2E2E2E2E2E2E2E2E2E2E2E2E2E2E2E2E2E2E2E2E2F5E2E2E2F5F5E2E2E2F5E2E2E2E2E2E2E2E2E2E2E2E2E2E2E2E2E2E2E2E2E2E2E2E2E2E2E2E2E2E2E2E2E2E2E2E2E2E2E2E2E2E2E2E2E2E2E2E2E2E2E2E2
310
E2E2E2E2E2E2E2E2E2E2E2E2E2E2E2E2E2E2E2E2E2E2E2E2E2E2E2E2E2E2E2E2E2E2E2E2E2E2E2E2E2E2E2E2E2E2E2E2E2E2E2E2E2E2E2E2E2E2E2E2E2E2E2E2E2E2E2E2E2E2E2E2E2E2E2E2E2E2E2E2E2E2E2E2E2E2E2E2E2E2E2E2E2E2E2E2E2E2E2E2E2E2E2E2E2E2E2E2E2E2E2E2E2E2E2E2E2E2F5E2E2E2F5F5E2E2E2
310
F5E2E2E2E2E2E2E2E2E2E2E2E2E2E2E2E2E2E2E2E2E2E2E2E2E2E2E2E2E2E2E2E2E2E2E2E2E2E2E2E2E2E2E2E2E2E2E2E2E2E2E2E2E2E2E2E2E2E2E2E2E2E2E2E2E2E2E2E2E2E2E2E2E2E2E2E2E2E2E2E2E2E2E2E2E2E2E2E2E2E2E2E2E2E2E2E2E2E2E2E2E2E2E2E2E2E2E2E2E2E2E2E2E2E2E2E2E2E2E2E2E2E2E2E2E2E2
310
E2E2E2E2E2E2E2E2E2E2E2E2E2E2E2E2E2E2E2E2E2E2E2E2E2E2E2E2E2E2E2E2E2E2E2E2E2E2E2E2E2E2E2E2F5E2E2E2F5F5E2E2E2F5E2E2E2E2E2E2E2E2E2E2E2E2E2E2E2E2E2E2E2E2E2E2E2E2E2E2E2E2E2E2E2E2E2E2E2E2E2E2E2E2E2E2E2E2E2E2E2E2E2E2E2E2E2E2E2E2E2E2E2E2E2E2E2E2E2E2E2E2E2E2E2E2E2
310
E2E2E2E2E2E2E2E2E2E2E2E2E2E2E2E2E2E2E2E2E2E2E2E2E2E2E2E2E2E2E2E2E2E2E2E2E2E2E2E2E2E2E2E2E2E2E2E2E2E2E2E2E2E2E2E2E2E2E2E2E2E2E2E2E2E2E2E2E2E2E2E2E2E2E2E2E2E2E2E2E2E2E2E2E2E2E2E2E2E2E2E2E2E2E2E2E2F5E2E2E2F5F5E2E2E2F5E2E2E2E2E2E2E2E2E2E2E2E2E2E2E2E2E2E2E2E2
310
E2E2E2E2E2E2E2E2E2E2E2E2E2E2E2E2E2E2E2E2E2E2E2E2E2E2E2E2E2E2E2E2E2E2E2E2E2E2E2E2E2E2E2E2E2E2E2E2E2E2E2E2E2E2E2E2E2E2E2E2E2E2E2E2E2E2E2E2E2E2E2E2E2E2E2E2E2E2E2E2E2E2E2E2E2E2E2E2E2E2E2E2E2E2E2E2E2E2E2E2E2E2E2E2E2E2E2E2E2E2E2E2E2E2E2E2E2E2E2E2E2E2E2E2E2E2E2
310
E2E2E2E2E2E2E2E2E2E2E2E2E2E2E2E2E2E2E2E2E2E2E2F5E2E2E2F5F5E2E2E2E2E2E2E2E2E2E2E2E2E2E2E2E2E2E2E2E2E2E2E2E2E2E2E2E2E2E2E2E2E2E2E2E2E2E2E2E2E2E2E2E2E2E2E2E2E2E2E2E2E2E2E2E2E2E2E2E2E2E2E2E2E2E2E2E2E2E2E2E2E2E2E2E2E2E2E2E2E2E2E2E2E2E2E2E2E2E2E2E2E2E2E2E2E2E2
310
E2E2E2E2E2E2E2E2E2E2E2E2E2E2E2E2E2E2E2E2E2E2E2E2E2E2E2E2E2E2E2E2E2E2E2E2E2E2E2E2E2E2E2E2E2E2E2E2E2E2E2E2E2E2E2E2E2E2E2E2E2E2E2E2E2E2E2E2E2E2E2E2E2E2E2E2E2E2E2E2F5F5E2E2E2E2E2E2E2E2E2E2E2E2E2E2E2E2E2E2E2E2E2E2E2E2E2E2E2E2E2E2E2E2E2E2E2E2E2E2E2E2E2E2E2E2E2
310
E2E2E2E2E2E2E2E2E2E2E2E2E2E2E2E2E2E2E2E2E2E2E2E2E2E2E2E2E2E2E2E2E2E2E2E2E2E2E2E2E2E2E2E2E2E2E2E2E2E2E2E2E2E2E2E2E2E2E2E2E2E2E2E2E2E2E2E2E2E2E2E2E2E2E2E2E2E2E2E2E2E2E2E2E2E2E2E2E2E2E2E2E2E2E2E2E2E2E2E2E2E2E2E2E2E2E2E2E2E2E2E2E2E2E2E2E2E2E2E2E2E2E2E2E2E2E2
310
E2E2E2E2E2E2F5F5E2E2E2E2E2E2E2E2E2E2E2E2E2E2E2E2E2E2E2E2E2E2E2E2E2E2E2E2E2E2E2E2E2E2E2E2E2E2E2E2E2E2E2E2E2E2E2E2E2E2E2E2E2E2E2E2E2E2E2E2E2E2E2E2E2E2E2E2E2E2E2E2E2E2E2E2E2E2E2E2E2E2E2E2E2E2E2E2E2E2E2E2E2E2E2E2E2E2E2E2E2E2E2E2E2E2E2E2E2E2E2E2E2E2E2E2E2E2E2
310
E2E2E2E2E2E2E2E2E2E2E2E2E2E2E2E2E2E2E2E2E2E2E2E2E2E2E2E2E2E2E2E2E2E2E2E2E2E2E2E2E2E2E2E2E2E2E2E2E2E2E2E2E2E2E2E2E2E2E2F5F5E2E2E2E2E2E2E2E2E2E2E2E2E2E2E2E2E2E2E2E2E2E2E2E2E2E2E2E2E2E2E2E2E2E2E2E2E2E2E2E2E2E2E2E2E2E2E2E2E2E2E2E2E2E2E2E2E2E2E2E2E2E2E2E2E2E2
310
E2E2E2E2E2E2E2E2E2E2E2E2E2E2E2E2E2E2E2E2E2E2E2E2E2E2E2E2E2E2E2E2E2E2E2E2E2E2E2E2E2E2E2E2E2E2E2E2E2E2E2E2E2E2E2E2E2E2E2E2E2E2E2E2E2E2E2E2E2E2E2E2E2E2E2E2E2E2E2E2E2E2E2E2E2E2E2E2E2E2E2E2E2E2E2E2E2E2E2E2E2E2E2E2E2E2E2E2E2E2E2E2F5F5E2E2E2E2E2E2E2E2E2E2E2E2E2
310
E2E2E2E2E2E2E2F5F5F5F5F5F5F5F5F5F5F5F5F5F5F5F5F5F5F5F5F5F5F5F5F5F5F5F5F5F5F5F5F5F5F5F5F5F5F5F5F5F5F5F5F5F5F5F5F5F5F5F5F5F5F5F5F5F5F5F5F5F5F5F5F5F5F5F5F5F5F5F5F5F5F5F5F5F5F5F5F5F5F5F5F5F5F5F5F5F5F5F5F5F5F5F5F5F5F5F5F5F5F5F5F5F5F5F5F5F5F5F5F5F5F5F5F5F5F5F5
310
F5F5F5F5F5F5F5F5F5F5F5F5F5F5F5F5F5F5E2E2E2E2E2E2E2E2E2E2E2E2E2E2E2E2E2E2E2E2F5F5E2E2E2E2E2E2E2E2E2E2E2E2E2E2E2E2E2E2E2E2F5E2E2E2E2E2E2E2E2E2E2E2E2E2E2E2E2E2E2E2E2E2E2E2E2E2E2E2E2E2E2E2E2E2E2E2E2E2E2E2E2E2E2E2E2E2E2E2E2E2E2E2E2E2E2E2E2E2E2E2E2E2E2E2E2E2E2
310
E2E2E2E2E2E2E2E2E2E2E2E2E2E2E2E2E2E2E2E2E2E2E2E2E2E2E2E2E2E2E2E2E2E2E2E2E2E2E2E2E2E2E2E2E2E2E2E2E2E2E2E2E2E2E2E2E2E2E2E2E2E2E2E2E2E2E2E2E2E2F5E2E2E2E2E2E2E2E2E2E2E2E2E2E2E2E2E2E2E2E2F5F5E2E2E2E2E2E2E2E2E2E2E2E2E2E2E2E2E2E2E2E2F5E2E2E2E2E2E2E2E2E2E2E2E2E2
310
E2E2E2E2E2E2E2E2E2E2E2E2E2E2E2E2E2E2E2E2E2E2E2E2E2E2E2E2E2E2E2E2E2E2E2E2E2E2E2E2E2E2E2E2E2E2E2E2E2E2E2E2E2E2E2E2E2E2E2E2E2E2E2E2E2E2E2E2E2E2E2E2E2E2E2E2E2E2E2E2E2E2E2E2E2E2E2E2E2E2E2E2E2E2E2E2E2E2E2E2E2E2E2E2E2E2E2E2E2E2E2E2E2E2E2E2E2E2E2E2E2E2E2F5E2E2E2
310
E2E2E2E2E2E2E2E2E2E2E2E2E2E2E2E2E2F5F5E2E2E2E2E2E2E2E2E2E2E2E2E2E2E2E2E2E2E2E2F5E2E2E2E2E2E2E2E2E2E2E2E2E2E2E2E2E2E2E2E2E2E2E2E2E2E2E2E2E2E2E2E2E2E2E2E2E2E2E2E2E2E2E2E2E2E2E2E2E2E2E2E2E2E2E2E2E2E2E2E2E2E2E2E2E2E2E2E2E2E2E2E2E2E2E2E2E2E2E2E2E2E2E2E2E2E2E2
310
E2E2E2E2E2E2E2E2E2E2E2E2E2E2E2E2E2E2E2E2E2E2E2E2E2E2E2E2E2E2E2E2E2E2E2E2E2E2E2E2E2E2E2E2E2E2E2E2E2F5E2E2E2E2E2E2E2E2E2E2E2E2E2E2E2E2E2E2E2E2F5F5E2E2E2E2E2E2E2E2E2E2E2E2E2E2E2E2E2E2E2E2F5E2E2E2E2E2E2E2E2E2E2E2E2E2E2E2E2E2E2E2E2E2E2E2E2E2E2E2E2E2E2E2E2E2E2
310
E2E2E2E2E2E2E2E2E2E2E2E2E2E2E2E2E2E2E2E2E2E2E2E2E2E2E2E2E2E2E2E2E2E2E2E2E2E2E2E2E2E2E2E2E2E2E2E2E2E2E2E2E2E2E2E2E2E2E2E2E2E2E2E2E2E2E2E2E2E2E2E2E2E2E2E2E2E2E2E2E2E2E2E2E2E2E2E2E2E2E2E2E2E2E2E2E2E2E2E2E2E2F5E2E2E2E2E2E2E2E2E2E2E2E2E2E2E2E2E2E2E2E2F5F5E2E2
310
E2F5E2E2E2E2E2E2E2E2E2E2E2E2E2E2E2E2F5E2E2E2E2E2E2E2E2E2E2E2E2E2E2E2E2E2E2E2E2E2E2E2E2E2E2E2E2E2E2E2E2E2E2E2E2E2E2E2E2E2E2E2E2E2E2E2E2E2E2E2E2E2E2E2E2E2E2E2E2E2E2E2E2E2E2E2E2E2E2E2E2E2E2E2E2E2E2E2E2E2E2E2E2E2E2E2E2E2E2E2E2E2E2E2E2E2E2E2E2E2E2E2E2E2E2E2E2
310
E2E2E2E2E2E2E2E2E2E2E2E2E2E2E2E2E2E2E2E2E2E2E2E2E2E2E2E2F5E2E2E2E2E2E2E2E2E2E2E2E2E2E2E2E2F5E2E2E2F5F5E2E2E2F5E2E2E2E2E2E2E2E2E2E2E2E2E2E2E2E2F5E2E2E2E2E2E2E2E2E2E2E2E2E2E2E2E2E2E2E2E2E2E2E2E2E2E2E2E2E2E2E2E2E2E2E2E2E2E2E2E2E2E2E2E2E2E2E2E2E2E2E2E2E2E2E2
310
E2E2E2E2E2E2E2E2E2E2E2E2E2E2E2E2E2E2E2E2E2E2E2E2E2E2E2E2E2E2E2E2E2E2E2E2E2E2E2E2E2E2E2E2E2E2E2E2E2E2E2E2E2E2E2E2E2E2E2E2E2E2E2E2E2E2E2E2E2E2E2E2E2E2E2E2E2E2E2E2E2F5E2E2E2E2E2E2E2E2E2E2E2E2E2E2E2E2F5E2E2E2F5F5E2E2E2F5E2E2E2E2E2E2E2E2E2E2E2E2E2E2E2E2F5E2E2
310
E2E2E2E2E2E2E2E2E2E2E2E2E2E2E2E2E2E2E2E2E2E2E2E2E2E2E2E2E2E2E2E2E2E2E2E2E2E2E2E2E2E2E2E2E2E2E2E2E2E2E2E2E2E2E2E2E2E2E2E2E2E2E2E2E2E2E2E2E2E2E2E2E2E2E2E2E2E2E2E2E2E2E2E2E2E2E2E2E2E2E2E2E2E2E2E2E2E2E2E2E2E2E2E2E2E2E2E2E2E2E2E2E2E2E2E2E2E2E2E2E2E2E2E2E2E2E2
310
E2E2E2E2E2E2E2F5E2E2E2E2E2E2E2E2E2E2E2E2E2E2E2E2F5E2E2E2F5F5E2E2E2F5E2E2E2E2E2E2E2E2E2E2E2E2E2E2E2E2F5E2E2E2E2E2E2E2E2E2E2E2E2E2E2E2E2E2E2E2E2E2E2E2E2E2E2E2E2E2E2E2E2E2E2E2E2E2E2E2E2E2E2E2E2E2E2E2E2E2E2E2E2E2E2E2E2E2E2E2E2E2E2E2E2E2E2E2E2E2E2E2E2E2E2E2E2
310
E2E2E2E2E2E2E2E2E2E2E2E2E2E2E2E2E2E2E2E2E2E2E2E2E2E2E2E2E2E2E2E2E2E2E2E2E2E2E2E2E2E2E2E2E2E2E2E2E2E2E2E2E2E2E2E2E2E2E2E2F5E2E2E2E2E2E2E2E2E2E2E2E2E2E2E2E2F5E2E2E2F5F5E2E2E2F5E2E2E2E2E2E2E2E2E2E2E2E2E2E2E2E2F5E2E2E2E2E2E2E2E2E2E2E2E2E2E2E2E2E2E2E2E2E2E2E2
310
E2E2E2E2E2E2E2E2E2E2E2E2E2E2E2E2E2E2E2E2E2E2E2E2E2E2E2E2E2E2E2E2E2E2E2E2E2E2E2E2E2E2E2E2E2E2E2E2E2E2E2E2E2E2E2E2E2E2E2E2E2E2E2E2E2E2E2E2E2E2E2E2E2E2E2E2E2E2E2E2E2E2E2E2E2E2E2E2E2E2E2E2E2E2E2E2E2E2E2E2E2E2E2E2E2E2E2E2E2E2E2E2E2F5E2E2E2E2E2E2E2E2E2E2E2E2E2
310
E2E2E2F5E2E2E2F5F5E2E2E2F5E2E2E2E2E2E2E2E2E2E2E2E2E2E2E2E2F5E2E2E2E2E2E2E2E2E2E2E2E2E2E2E2E2E2E2E2E2E2E2E2E2E2E2E2E2E2E2E2E2E2E2E2E2E2E2E2E2E2E2E2E2E2E2E2E2E2E2E2E2E2E2E2E2E2E2E2E2E2E2E2E2E2E2E2E2E2E2E2E2E2E2E2E2E2E2E2E2E2E2E2E2E2E2E2E2E2E2E2E2E2E2E2E2E2
310
E2E2E2E2E2E2E2E2E2E2E2E2E2E2E2E2E2E2E2E2E2E2E2E2E2E2E2E2E2E2E2E2E2E2E2E2E2E2E2F5E2E2E2E2E2E2E2E2E2E2E2E2E2E2E2E2F5E2E2E2F5F5E2E2E2F5E2E2E2E2E2E2E2E2E2E2E2E2E2E2E2E2F5E2E2E2E2E2E2E2E2E2E2E2E2E2E2E2E2E2E2E2E2E2E2E2E2E2E2E2E2E2E2E2E2E2E2E2E2E2E2E2E2E2E2E2E2
310
E2E2E2E2E2E2E2E2E2E2E2E2E2E2E2E2E2E2E2E2E2E2E2E2E2E2E2E2E2E2E2E2E2E2E2E2E2E2E2E2E2E2E2E2E2E2E2E2E2E2E2E2E2E2E2E2E2E2E2E2E2E2E2E2E2E2E2E2E2E2E2E2E2E2E2E2E2E2E2E2E2E2E2E2E2E2E2E2E2E2E2E2F5E2E2E2E2E2E2E2E2E2E2E2E2E2E2E2E2F5E2E2E2F5F5E2E2E2F5E2E2E2E2E2E2E2E2
310
E2E2E2E2E2E2E2E2F5E2E2E2E2E2E2E2E2E2E2E2E2E2E2E2E2E2E2E2E2E2E2E2E2E2E2E2E2E2E2E2E2E2E2E2E2E2E2E2E2E2E2E2E2E2E2E2E2E2E2E2E2E2E2E2E2E2E2E2E2E2E2E2E2E2E2E2E2E2E2E2E2E2E2E2E2E2E2E2E2E2E2E2E2E2E2E2E2E2E2E2E2E2E2E2E2E2E2E2E2E2E2E2E2E2E2E2E2E2E2E2E2E2E2E2E2E2E2
310
E2E2E2E2E2E2E2E2E2E2E2E2E2E2E2E2E2E2F5E2E2E2E2E2E2E2E2E2E2E2E2E2E2E2E2F5E2E2E2F5F5E2E2E2F5E2E2E2E2E2E2E2E2E2E2E2E2E2E2E2E2F5E2E2E2E2E2E2E2E2E2E2E2E2E2E2E2E2E2E2E2E2E2E2E2E2E2E2E2E2E2E2E2E2E2E2E2E2E2E2E2E2E2E2E2E2E2E2E2E2E2E2E2E2E2E2E2E2E2E2E2E2E2E2E2E2E2
310
E2E2E2E2E2E2E2E2E2E2E2E2E2E2E2E2E2E2E2E2E2E2E2E2E2E2E2E2E2E2E2E2E2E2E2E2E2E2E2E2E2E2E2E2E2E2E2E2E2E2E2E2E2E2E2E2E2E2E2E2E2E2E2E2E2E2E2E2E2E2E2F5E2E2E2E2E2E2E2E2E2E2E2E2E2E2E2E2F5E2E2E2F5F5E2E2E2F5E2E2E2E2E2E2E2E2E2E2E2E2E2E2E2E2F5E2E2E2E2E2E2E2E2E2E2E2E2
310
E2E2E2E2E2E2E2E2E2E2E2E2E2E2E2E2E2E2E2E2E2E2E2E2E2E2E2E2E2E2E2E2E2E2E2E2E2E2E2E2E2E2E2E2E2E2E2E2E2E2E2E2E2E2E2E2E2E2E2E2E2E2E2E2E2E2E2E2E2E2E2E2E2E2E2E2E2E2E2E2E2E2E2E2E2E2E2E2E2E2E2E2E2E2E2E2E2E2E2E2E2E2E2E2E2E2E2E2E2E2E2E2E2E2E2E2E2E2E2E2E2E2E2E2F5E2E2
310
E2E2E2E2E2E2E2E2E2E2E2E2E2E2F5E2E2E2F5F5E2E2E2F5E2E2E2E2E2E2E2E2E2E2E2E2E2E2E2E2F5E2E2E2E2E2E2E2E2E2E2E2E2E2E2E2E2E2E2E2E2E2E2E2E2E2E2E2E2E2E2E2E2E2E2E2E2E2E2E2E2E2E2E2E2E2E2E2E2E2E2E2E2E2E2E2E2E2E2E2E2E2E2E2E2E2E2E2E2E2E2E2E2E2E2E2E2E2E2E2E2E2E2E2E2E2E2
310
E2E2E2E2E2E2E2E2E2E2E2E2E2E2E2E2E2E2E2E2E2E2E2E2E2E2E2E2E2E2E2E2E2E2E2E2E2E2E2E2E2E2E2E2E2E2E2E2E2E2F5E2E2E2E2E2E2E2E2E2E2E2E2E2E2E2E2F5E2E2E2F5F5E2E2E2F5E2E2E2E2E2E2E2E2E2E2E2E2E2E2E2E2F5E2E2E2E2E2E2E2E2E2E2E2E2E2E2E2E2E2E2E2E2E2E2E2E2E2E2E2E2E2E2E2E2E2
310
E2E2E2E2E2E2E2E2E2E2E2E2E2E2E2E2E2E2E2E2E2E2E2E2E2E2E2E2E2E2E2E2E2E2E2E2E2E2E2E2E2E2E2E2E2E2E2E2E2E2E2E2E2E2E2E2E2E2E2E2E2E2E2E2E2E2E2E2E2E2E2E2E2E2E2E2E2E2E2E2E2E2E2E2E2E2E2E2E2E2E2E2E2E2E2E2E2E2E2E2E2E2E2F5E2E2E2E2E2E2E2E2E2E2E2E2E2E2E2E2F5E2E2E2F5F5E2
310
E2E2F5E2E2E2E2E2E2E2E2E2E2E2E2E2E2E2E2F5E2E2E2E2E2E2E2E2E2E2E2E2E2E2E2E2E2E2E2E2E2E2E2E2E2E2E2E2E2E2E2E2E2E2E2E2E2E2E2E2E2E2E2E2E2E2E2E2E2E2E2E2E2E2E2E2E2E2E2E2E2E2E2E2E2E2E2E2E2E2E2E2E2E2E2E2E2E2E2E2E2E2E2E2E2E2E2E2E2E2E2E2E2E2E2E2E2E2E2E2E2E2E2E2E2E2E2
310
E2E2E2E2E2E2E2E2E2E2E2E2E2E2E2E2E2E2E2E2E2E2E2E2E2E2E2E2E2F5E2E2E2E2E2E2E2E2E2E2E2E2E2E2E2E2F5E2E2E2F5F5E2E2E2F5E2E2E2E2E2E2E2E2E2E2E2E2E2E2E2E2F5E2E2E2E2E2E2E2E2E2E2E2E2E2E2E2E2E2E2E2E2E2E2E2E2E2E2E2E2E2E2E2E2E2E2E2E2E2E2E2E2E2E2E2E2E2E2E2E2E2E2E2E2E2E2
310
E2E2E2E2E2E2E2E2E2E2E2E2E2E2E2E2E2E2E2E2E2E2E2E2E2E2E2E2E2E2E2E2E2E2E2E2E2E2E2E2E2E2E2E2E2E2E2E2E2E2E2E2E2E2E2E2E2E2E2E2E2E2E2E2E2E2E2E2E2E2E2E2E2E2E2E2E2E2E2E2E2E2F5E2E2E2E2E2E2E2E2E2E2E2E2E2E2E2E2F5E2E2E2F5F5E2E2E2F5E2E2E2E2E2E2E2E2E2E2E2E2E2E2E2E2F5E2
310
E2E2E2E2E2E2E2E2E2E2E2E2E2E2E2E2E2E2E2E2E2E2E2E2E2E2E2E2E2E2E2E2E2E2E2E2E2E2E2E2E2E2E2E2E2E2E2E2E2E2E2E2E2E2E2E2E2E2E2E2E2E2E2E2E2E2E2E2E2E2E2E2E2E2E2E2E2E2E2E2E2E2E2E2E2E2E2E2E2E2E2E2E2E2E2E2E2E2E2E2E2E2E2E2E2E2E2E2E2E2E2E2E2E2E2E2E2E2E2E2E2E2E2E2E2E2E2
310
E2E2E2E2E2E2E2E2F5E2E2E2E2E2E2E2E2E2E2E2E2E2E2E2E2F5E2E2E2F5F5E2E2E2F5E2E2E2E2E2E2E2E2E2E2E2E2E2E2E2E2F5E2E2E2E2E2E2E2E2E2E2E2E2E2E2E2E2E2E2E2E2E2E2E2E2E2E2E2E2E2E2E2E2E2E2E2E2E2E2E2E2E2E2E2E2E2E2E2E2E2E2E2E2E2E2E2E2E2E2E2E2E2E2E2E2E2E2E2E2E2E2E2E2E2E2E2
310
E2E2E2E2E2E2E2E2E2E2E2E2E2E2E2E2E2E2E2E2E2E2E2E2E2E2E2E2E2E2E2E2E2E2E2E2E2E2E2E2E2E2E2E2E2E2E2E2E2E2E2E2E2E2E2E2E2E2E2E2E2F5E2E2E2E2E2E2E2E2E2E2E2E2E2E2E2E2F5E2E2E2F5F5E2E2E2F5E2E2E2E2E2E2E2E2E2E2E2E2E2E2E2E2F5E2E2E2E2E2E2E2E2E2E2E2E2E2E2E2E2E2E2E2E2E2E2
310
E2E2E2E2E2E2E2E2E2E2E2E2E2E2E2E2E2E2E2E2E2E2E2E2E2E2E2E2E2E2E2E2E2E2E2E2E2E2E2E2E2E2E2E2E2E2E2E2E2E2E2E2E2E2E2E2E2E2E2E2E2E2E2E2E2E2E2E2E2E2E2E2E2E2E2E2E2E2E2E2E2E2E2E2E2E2E2E2E2E2E2E2E2E2E2E2E2E2E2E2E2E2E2E2E2E2E2E2E2E2E2E2E2E2F5E2E2E2E2E2E2E2E2E2E2E2E2
310
E2E2E2E2F5E2E2E2F5F5E2E2E2E2E2E2E2E2E2E2E2E2E2E2E2E2E2E2E2E2F5E2E2E2E2E2E2E2E2E2E2E2E2E2E2E2E2E2E2E2E2E2E2E2E2E2E2E2E2E2E2E2E2E2E2E2E2E2E2E2E2E2E2E2E2E2E2E2E2E2E2E2E2E2E2E2E2E2E2E2E2E2E2E2E2E2E2E2E2E2E2E2E2E2E2E2E2E2E2E2E2E2E2E2E2E2E2E2E2E2E2E2E2E2E2E2E2
310
E2E2E2E2E2E2E2E2E2E2E2E2E2E2E2E2E2E2E2E2E2E2E2E2E2E2E2E2E2E2E2E2E2E2E2E2E2E2E2E2F5E2E2E2E2E2E2E2E2E2E2E2E2E2E2E2E2E2E2E2E2F5F5E2E2E2E2E2E2E2E2E2E2E2E2E2E2E2E2E2E2E2E2F5E2E2E2E2E2E2E2E2E2E2E2E2E2E2E2E2E2E2E2E2E2E2E2E2E2E2E2E2E2E2E2E2E2E2E2E2E2E2E2E2E2E2E2
310
E2E2E2E2E2E2E2E2E2E2E2E2E2E2E2E2E2E2E2E2E2E2E2E2E2E2E2E2E2E2E2E2E2E2E2E2E2E2E2E2E2E2E2E2E2E2E2E2E2E2E2E2E2E2E2E2E2E2E2E2E2E2E2E2E2E2E2E2E2E2E2E2E2E2E2E2E2E2E2E2E2E2E2E2E2E2E2E2E2E2E2E2E2F5E2E2E2E2E2E2E2E2E2E2E2E2E2E2E2E2E2E2E2E2F5F5E2E2E2E2E2E2E2E2E2E2E2
310
E2E2E2E2E2E2E2E2E2F5E2E2E2E2E2E2E2E2E2E2E2E2E2E2E2E2E2E2E2E2E2E2E2E2E2E2E2E2E2E2E2E2E2E2E2E2E2E2E2E2E2E2E2E2E2E2E2E2E2E2E2E2E2E2E2E2E2E2E2E2E2E2E2E2E2E2E2E2E2E2E2E2E2E2E2E2E2E2E2E2E2E2E2E2E2E2E2E2E2E2E2E2E2E2E2E2E2E2E2E2E2E2E2E2E2E2E2E2E2E2E2E2E2E2E2E2E2
310
E2E2E2E2E2E2E2E2E2E2E2E2E2E2E2E2E2E2E2F5E2E2E2E2E2E2E2E2E2E2E2E2E2E2E2E2E2E2E2E2F5F5E2E2E2E2E2E2E2E2E2E2E2E2E2E2E2E2E2E2E2E2F5E2E2E2E2E2E2E2E2E2E2E2E2E2E2E2E2E2E2E2E2E2E2E2E2E2E2E2E2E2E2E2E2E2E2E2E2E2E2E2E2E2E2E2E2E2E2E2E2E2E2E2E2E2E2E2E2E2E2E2E2E2E2E2E2
310
E2E2E2E2E2E2E2E2E2E2E2E2E2E2E2E2E2E2E2E2E2E2E2E2E2E2E2E2E2E2E2E2E2E2E2E2E2E2E2E2E2E2E2E2E2E2E2E2E2E2E2E2E2E2E2E2E2E2E2E2E2E2E2E2E2E2E2E2E2E2E2E2F5E2E2E2E2E2E2E2E2E2E2E2E2E2E2E2E2E2E2E2E2F5F5E2E2E2E2E2E2E2E2E2E2E2E2E2E2E2E2E2E2E2E2F5E2E2E2E2E2E2E2E2E2E2E2
310
E2E2E2E2E2E2E2E2E2E2E2E2E2E2E2E2E2E2E2E2E2E2E2E2E2E2E2E2E2E2E2E2E2E2E2E2E2E2E2E2E2E2E2E2E2E2E2E2E2E2E2E2E2E2E2E2E2E2E2E2E2E2E2E2E2E2E2E2E2E2E2E2E2E2E2E2E2E2E2E2E2E2E2E2E2E2E2E2E2E2E2E2E2E2E2E2E2E2E2E2E2E2E2E2E2E2E2E2E2E2E2E2E2E2E2E2E2E2E2E2E2E2E2E2E2F5E2
310
E2E2E2E2E2E2E2E2E2E2E2E2E2E2E2E2E2E2E2F5F5E2E2E2E2E2E2E2E2E2E2E2E2E2E2E2E2E2E2E2E2F5E2E2E2E2E2E2E2E2E2E2E2E2E2E2E2E2E2E2E2E2E2E2E2E2E2E2E2E2E2E2E2E2E2E2E2E2E2E2E2E2E2E2E2E2E2E2E2E2E2E2E2E2E2E2E2E2E2E2E2E2E2E2E2E2E2E2E2E2E2E2E2E2E2E2E2E2E2E2E2E2E2E2E2E2E2
310
E2E2E2E2E2E2E2E2E2E2E2E2E2E2E2E2E2E2E2E2E2E2E2E2E2E2E2E2E2E2E2E2E2E2E2E2E2E2E2E2E2E2E2E2E2E2E2E2E2E2E2F5E2E2E2E2E2E2E2E2E2E2E2E2E2E2E2E2E2E2E2E2F5F5E2E2E2E2E2E2E2E2E2E2E2E2E2E2E2E2E2E2E2E2F5E2E2E2E2E2E2E2E2E2E2E2E2E2E2E2E2E2E2E2E2E2E2E2E2E2E2E2E2E2E2E2E2
310
E2E2E2E2E2E2E2E2E2E2E2E2E2E2E2E2E2E2E2E2E2E2E2E2E2E2E2E2E2E2E2E2E2E2E2E2E2E2E2E2E2E2E2E2E2E2E2E2E2E2E2E2E2E2E2E2E2E2E2E2E2E2E2E2E2E2E2E2E2E2E2E2E2E2E2E2E2E2E2E2E2E2E2E2E2E2E2E2E2E2E2E2E2E2E2E2E2E2E2E2E2E2E2E2F5E2E2E2E2E2E2E2E2E2E2E2E2E2E2E2E2E2E2E2E2F5F5
310
E2E2E2E2E2E2E2E2E2E2E2E2E2E2E2E2E2E2E2E2F5E2E2E2E2E2E2E2E2E2E2E2E2E2E2E2E2E2E2E2E2E2E2E2E2E2E2E2E2E2E2E2E2E2E2E2E2E2E2E2E2E2E2E2E2E2E2E2E2E2E2E2E2E2E2E2E2E2E2E2E2E2E2E2E2E2E2E2E2E2E2E2E2E2E2E2E2E2E2E2E2E2E2E2E2E2E2E2E2E2E2E2E2E2E2E2E2E2E2E2E2E2E2E2E2E2E2
310
E2E2E2E2E2E2E2E2E2E2E2E2E2E2E2E2E2E2E2E2E2E2E2E2E2E2E2E2E2E2F5E2E2E2E2E2E2E2E2E2E2E2E2E2E2E2E2E2E2E2E2F5F5E2E2E2E2E2E2E2E2E2E2E2E2E2E2E2E2E2E2E2E2F5E2E2E2E2E2E2E2E2E2E2E2E2E2E2E2E2E2E2E2E2E2E2E2E2E2E2E2E2E2E2E2E2E2E2E2E2E2E2E2E2E2E2E2E2E2E2E2E2E2E2E2E2E2
310
E2E2E2E2E2E2E2E2E2E2E2E2E2E2E2E2E2E2E2E2E2E2E2E2E2E2E2E2E2E2E2E2E2E2E2E2E2E2E2E2E2E2E2E2E2E2E2E2E2E2E2E2E2E2E2E2E2E2E2E2E2E2E2E2E2E2E2E2E2E2E2E2E2E2E2E2E2E2E2E2E2E2E2F5E2E2E2E2E2E2E2E2E2E2E2E2E2E2E2E2E2E2E2E2F5F5E2E2E2F5E2E2E2E2E2E2E2E2E2E2E2E2E2E2E2E2F5
310
E2E2E2E2E2E2E2E2E2E2E2E2E2E2E2E2E2E2E2E2E2E2E2E2E2E2E2E2E2E2E2E2E2E2E2E2E2E2E2E2E2E2E2E2E2E2E2E2E2E2E2E2E2E2E2E2E2E2E2E2E2E2E2E2E2E2E2E2E2E2E2E2E2E2E2E2E2E2E2E2E2E2E2E2E2E2E2E2E2E2E2E2E2E2E2E2E2E2E2E2E2E2E2E2E2E2E2E2E2E2E2E2E2E2E2E2E2E2E2E2E2E2E2E2E2E2E2
310
E2E2E2E2E2E2E2E2E2F5E2E2E2E2E2E2E2E2E2E2E2E2E2E2E2E2F5E2E2E2F5F5E2E2E2F5E2E2E2E2E2E2E2E2E2E2E2E2E2E2E2E2F5E2E2E2E2E2E2E2E2E2E2E2E2E2E2E2E2E2E2E2E2E2E2E2E2E2E2E2E2E2E2E2E2E2E2E2E2E2E2E2E2E2E2E2E2E2E2E2E2E2E2E2E2E2E2E2E2E2E2E2E2E2E2E2E2E2E2E2E2E2E2E2E2E2E2
310
E2E2E2E2E2E2E2E2E2E2E2E2E2E2E2E2E2E2E2E2E2E2E2E2E2E2E2E2E2E2E2E2E2E2E2E2E2E2E2E2E2E2E2E2E2E2E2E2E2E2E2E2E2E2E2E2E2E2E2E2E2E2F5E2E2E2E2E2E2E2E2E2E2E2E2E2E2E2E2F5E2E2E2F5F5E2E2E2F5E2E2E2E2E2E2E2E2E2E2E2E2E2E2E2E2F5E2E2E2E2E2E2E2E2E2E2E2E2E2E2E2E2E2E2E2E2E2
310
E2E2E2E2E2E2E2E2E2E2E2E2E2E2E2E2E2E2E2E2E2E2E2E2E2E2E2E2E2E2E2E2E2E2E2E2E2E2E2E2E2E2E2E2E2E2E2E2E2E2E2E2E2E2E2E2E2E2E2E2E2E2E2E2E2E2E2E2E2E2E2E2E2E2E2E2E2E2E2E2E2E2E2E2E2E2E2E2E2E2E2E2E2E2E2E2E2E2E2E2E2E2E2E2E2E2E2E2E2E2E2E2E2E2E2F5E2E2E2E2E2E2E2E2E2E2E2
310
E2E2E2E2E2F5E2E2E2F5F5E2E2E2F5E2E2E2E2E2E2E2E2E2E2E2E2E2E2E2E2F5E2E2E2E2E2E2E2E2E2E2E2E2E2E2E2E2E2E2E2E2E2E2E2E2E2E2E2E2E2E2E2E2E2E2E2E2E2E2E2E2E2E2E2E2E2E2E2E2E2E2E2E2E2E2E2E2E2E2E2E2E2E2E2E2E2E2E2E2E2E2E2E2E2E2E2E2E2E2E2E2E2E2E2E2E2E2E2E2E2E2E2E2E2E2E2
310
E2E2E2E2E2E2E2E2E2E2E2E2E2E2E2E2E2E2E2E2E2E2E2E2E2E2E2E2E2E2E2E2E2E2E2E2E2E2E2E2E2F5E2E2E2E2E2E2E2E2E2E2E2E2E2E2E2E2F5E2E2E2F5F5E2E2E2F5E2E2E2E2E2E2E2E2E2E2E2E2E2E2E2E2F5E2E2E2E2E2E2E2E2E2E2E2E2E2E2E2E2E2E2E2E2E2E2E2E2E2E2E2E2E2E2E2E2E2E2E2E2E2E2E2E2E2E2
310
E2E2E2E2E2E2E2E2E2E2E2E2E2E2E2E2E2E2E2E2E2E2E2E2E2E2E2E2E2E2E2E2E2E2E2E2E2E2E2E2E2E2E2E2E2E2E2E2E2E2E2E2E2E2E2E2E2E2E2E2E2E2E2E2E2E2E2E2E2E2E2E2E2E2E2E2E2E2E2E2E2E2E2E2E2E2E2E2E2E2E2E2E2E2F5E2E2E2E2E2E2E2E2E2E2E2E2E2E2E2E2F5E2E2E2F5F5E2E2E2F5E2E2E2E2E2E2
310
E2E2E2E2E2E2E2E2E2E2F5E2E2E2E2E2E2E2E2E2E2E2E2E2E2E2E2E2E2E2E2E2E2E2E2E2E2E2E2E2E2E2E2E2E2E2E2E2E2E2E2E2E2E2E2E2E2E2E2E2E2E2E2E2E2E2E2E2E2E2E2E2E2E2E2E2E2E2E2E2E2E2E2E2E2E2E2E2E2E2E2E2E2E2E2E2E2E2E2E2E2E2E2E2E2E2E2E2E2E2E2E2E2E2E2E2E2E2E2E2E2E2E2E2E2E2E2
310
E2E2E2E2E2E2E2E2E2E2E2E2E2E2E2E2E2E2E2E2F5E2E2E2E2E2E2E2E2E2E2E2E2E2E2E2E2F5E2E2E2F5F5E2E2E2F5E2E2E2E2E2E2E2E2E2E2E2E2E2E2E2E2F5E2E2E2E2E2E2E2E2E2E2E2E2E2E2E2E2E2E2E2E2E2E2E2E2E2E2E2E2E2E2E2E2E2E2E2E2E2E2E2E2E2E2E2E2E2E2E2E2E2E2E2E2E2E2E2E2E2E2E2E2E2E2E2
310
E2E2E2E2E2E2E2E2E2E2E2E2E2E2E2E2E2E2E2E2E2E2E2E2E2E2E2E2E2E2E2E2E2E2E2E2E2E2E2E2E2E2E2E2E2E2E2E2E2E2E2E2E2E2E2E2E2E2E2E2E2E2E2E2E2E2E2E2E2E2E2E2E2F5E2E2E2E2E2E2E2E2E2E2E2E2E2E2E2E2F5E2E2E2F5F5E2E2E2F5E2E2E2E2E2E2E2E2E2E2E2E2E2E2E2E2F5E2E2E2E2E2E2E2E2E2E2
310
E2E2E2E2E2E2E2E2E2E2E2E2E2E2E2E2E2E2E2E2E2E2E2E2E2E2E2E2E2E2E2E2E2E2E2E2E2E2E2E2E2E2E2E2E2E2E2E2E2E2E2E2E2E2E2E2E2E2E2E2E2E2E2E2E2E2E2E2E2E2E2E2E2E2E2E2E2E2E2E2E2E2E2E2E2E2E2E2E2E2E2E2E2E2E2E2E2E2E2E2E2E2E2E2E2E2E2E2E2E2E2E2E2E2E2E2E2E2E2E2E2E2E2E2E2E2F5
310
E2E2E2E2E2E2E2E2E2E2E2E2E2E2E2E2F5E2E2E2F5F5E2E2E2F5E2E2E2E2E2E2E2E2E2E2E2E2E2E2E2E2F5E2E2E2E2E2E2E2E2E2E2E2E2E2E2E2E2E2E2E2E2E2E2E2E2E2E2E2E2E2E2E2E2E2E2E2E2E2E2E2E2E2E2E2E2E2E2E2E2E2E2E2E2E2E2E2E2E2E2E2E2E2E2E2E2E2E2E2E2E2E2E2E2E2E2E2E2E2E2E2E2E2E2E2E2
310
E2E2E2E2E2E2E2E2E2E2E2E2E2E2E2E2E2E2E2E2E2E2E2E2E2E2E2E2E2E2E2E2E2E2E2E2E2E2E2E2E2E2E2E2E2E2E2E2E2E2E2E2F5E2E2E2E2E2E2E2E2E2E2E2E2E2E2E2E2F5E2E2E2F5F5E2E2E2F5E2E2E2E2E2E2E2E2E2E2E2E2E2E2E2E2F5E2E2E2E2E2E2E2E2E2E2E2E2E2E2E2E2E2E2E2E2E2E2E2E2E2E2E2E2E2E2E2
310
E2E2E2E2E2E2E2E2E2E2E2E2E2E2E2E2E2E2E2E2E2E2E2E2E2E2E2E2E2E2E2E2E2E2E2E2E2E2E2E2E2E2E2E2E2E2E2E2E2E2E2E2E2E2E2E2E2E2E2E2E2E2E2E2E2E2E2E2E2E2E2E2E2E2E2E2E2E2E2E2E2E2E2E2E2E2E2E2E2E2E2E2E2E2E2E2E2E2E2E2E2E2E2E2E2F5E2E2E2E2E2E2E2E2E2E2E2E2E2E2E2E2F5E2E2E2F5
310
F5E2E2E2F5E2E2E2E2E2E2E2E2E2E2E2E2E2E2E2E2F5E2E2E2E2E2E2E2E2E2E2E2E2E2E2E2E2E2E2E2E2E2E2E2E2E2E2E2E2E2E2E2E2E2E2E2E2E2E2E2E2E2E2E2E2E2E2E2E2E2E2E2E2E2E2E2E2E2E2E2E2E2E2E2E2E2E2E2E2E2E2E2E2E2E2E2E2E2E2E2E2E2E2E2E2E2E2E2E2E2E2E2E2E2E2E2E2E2E2E2E2E2E2E2E2E2
310
E2E2E2E2E2E2E2E2E2E2E2E2E2E2E2E2E2E2E2E2E2E2E2E2E2E2E2E2E2E2E2F5E2E2E2E2E2E2E2E2E2E2E2E2E2E2E2E2F5E2E2E2F5F5E2E2E2F5E2E2E2E2E2E2E2E2E2E2E2E2E2E2E2E2F5E2E2E2E2E2E2E2E2E2E2E2E2E2E2E2E2E2E2E2E2E2E2E2E2E2E2E2E2E2E2E2E2E2E2E2E2E2E2E2E2E2E2E2E2E2E2E2E2E2E2E2E2
310
E2E2E2E2E2E2E2E2E2E2E2E2E2E2E2E2E2E2E2E2E2E2E2E2E2E2E2E2E2E2E2E2E2E2E2E2E2E2E2E2E2E2E2E2E2E2E2E2E2E2E2E2E2E2E2E2E2E2E2E2E2E2E2E2E2E2E2E2E2E2E2E2E2E2E2E2E2E2E2E2E2E2E2E2F5E2E2E2E2E2E2E2E2E2E2E2E2E2E2E2E2F5E2E2E2F5F5E2E2E2F5E2E2E2E2E2E2E2E2E2E2E2E2E2E2E2E2
310
F5E2E2E2E2E2E2E2E2E2E2E2E2E2E2E2E2E2E2E2E2E2E2E2E2E2E2E2E2E2E2E2E2E2E2E2E2E2E2E2E2E2E2E2E2E2E2E2E2E2E2E2E2E2E2E2E2E2E2E2E2E2E2E2E2E2E2E2E2E2E2E2E2E2E2E2E2E2E2E2E2E2E2E2E2E2E2E2E2E2E2E2E2E2E2E2E2E2E2E2E2E2E2E2E2E2E2E2E2E2E2E2E2E2E2E2E2E2E2E2E2E2E2E2E2E2E2
310
E2E2E2E2E2E2E2E2E2E2F5E2E2E2E2E2E2E2E2E2E2E2E2E2E2E2E2F5E2E2E2F5F5E2E2E2F5E2E2E2E2E2E2E2E2E2E2E2E2E2E2E2E2F5E2E2E2E2E2E2E2E2E2E2E2E2E2E2E2E2E2E2E2E2E2E2E2E2E2E2E2E2E2E2E2E2E2E2E2E2E2E2E2E2E2E2E2E2E2E2E2E2E2E2E2E2E2E2E2E2E2E2E2E2E2E2E2E2E2E2E2E2E2E2E2E2E2
310
E2E2E2E2E2E2E2E2E2E2E2E2E2E2E2E2E2E2E2E2E2E2E2E2E2E2E2E2E2E2E2E2E2E2E2E2E2E2E2E2E2E2E2E2E2E2E2E2E2E2E2E2E2E2E2E2E2E2E2E2E2E2E2F5E2E2E2E2E2E2E2E2E2E2E2E2E2E2E2E2F5E2E2E2F5F5E2E2E2F5E2E2E2E2E2E2E2E2E2E2E2E2E2E2E2E2F5E2E2E2E2E2E2E2E2E2E2E2E2E2E2E2E2E2E2E2E2
310
E2E2E2E2E2E2E2E2E2E2E2E2E2E2E2E2E2E2E2E2E2E2E2E2E2E2E2E2E2E2E2E2E2E2E2E2E2E2E2E2E2E2E2E2E2E2E2E2E2E2E2E2E2E2E2E2E2E2E2E2E2E2E2E2E2E2E2E2E2E2E2E2E2E2E2E2E2E2E2E2E2E2E2E2E2E2E2E2E2E2E2E2E2E2E2E2E2E2E2E2E2E2E2E2E2E2E2E2E2E2E2E2E2E2E2E2F5E2E2E2E2E2E2E2E2E2E2
310
E2E2E2E2E2E2F5E2E2E2F5F5E2E2E2F5E2E2E2E2E2E2E2E2E2E2E2E2E2E2E2E2F5E2E2E2E2E2E2E2E2E2E2E2E2E2E2E2E2E2E2E2E2E2E2E2E2E2E2E2E2E2E2E2E2E2E2E2E2E2E2E2E2E2E2E2E2E2E2E2E2E2E2E2E2E2E2E2E2E2E2E2E2E2E2E2E2E2E2E2E2E2E2E2E2E2E2E2E2E2E2E2E2E2E2E2E2E2E2E2E2E2E2E2E2E2E2
310
E2E2E2E2E2E2E2E2E2E2E2E2E2E2E2E2E2E2E2E2E2E2E2E2E2E2E2E2E2E2E2E2E2E2E2E2E2E2E2E2E2E2F5E2E2E2E2E2E2E2E2E2E2E2E2E2E2E2E2F5E2E2E2F5F5E2E2E2E2E2E2E2E2E2E2E2E2E2E2E2E2E2E2E2E2F5E2E2E2E2E2E2E2E2E2E2E2E2E2E2E2E2E2E2E2E2E2E2E2E2E2E2E2E2E2E2E2E2E2E2E2E2E2E2E2E2E2
310
E2E2E2E2E2E2E2E2E2E2E2E2E2E2E2E2E2E2E2E2E2E2E2E2E2E2E2E2E2E2E2E2E2E2E2E2E2E2E2E2E2E2E2E2E2E2E2E2E2E2E2E2E2E2E2E2E2E2E2E2E2E2E2E2E2E2E2E2E2E2E2E2E2E2E2E2E2E2E2E2E2E2E2E2E2E2E2E2E2E2E2E2E2E2E2F5E2E2E2E2E2E2E2E2E2E2E2E2E2E2E2E2E2E2E2E2F5F5E2E2E2E2E2E2E2E2E2
310
E2E2E2E2E2E2E2E2E2E2E2F5E2E2E2E2E2E2E2E2E2E2E2E2E2E2E2E2E2E2E2E2E2E2E2E2E2E2E2E2E2E2E2E2E2E2E2E2E2E2E2E2E2E2E2E2E2E2E2E2E2E2E2E2E2E2E2E2E2E2E2E2E2E2E2E2E2E2E2E2E2E2E2E2E2E2E2E2E2E2E2E2E2E2E2E2E2E2E2E2E2E2E2E2E2E2E2E2E2E2E2E2E2E2E2E2E2E2E2E2E2E2E2E2E2E2E2
310
E2E2E2E2E2E2E2E2E2E2E2E2E2E2E2E2E2E2E2E2E2F5E2E2E2E2E2E2E2E2E2E2E2E2E2E2E2E2E2E2E2E2F5F5E2E2E2E2E2E2E2E2E2E2E2E2E2E2E2E2E2E2E2E2F5E2E2E2E2E2E2E2E2E2E2E2E2E2E2E2E2E2E2E2E2E2E2E2E2E2E2E2E2E2E2E2E2E2E2E2E2E2E2E2E2E2E2E2E2E2E2E2E2E2E2E2E2E2E2E2E2E2E2E2E2E2E2
310
E2E2E2E2E2E2E2E2E2E2E2E2E2E2E2E2E2E2E2E2E2E2E2E2E2E2E2E2E2E2E2E2E2E2E2E2E2E2E2E2E2E2E2E2E2E2E2E2E2E2E2E2E2E2E2E2E2E2E2E2E2E2E2E2E2E2E2E2E2E2E2E2E2E2F5E2E2E2E2E2E2E2E2E2E2E2E2E2E2E2E2E2E2E2E2F5F5E2E2E2E2E2E2E2E2E2E2E2E2E2E2E2E2E2E2E2E2F5E2E2E2E2E2E2E2E2E2
310
E2E2E2E2E2E2E2E2E2E2E2E2E2E2E2E2E2E2E2E2E2E2E2E2E2E2E2E2E2E2E2E2E2E2E2E2E2E2E2E2E2E2E2E2E2E2E2E2E2E2E2E2E2E2E2E2E2E2E2E2E2E2E2E2E2E2E2E2E2E2E2E2E2E2E2E2E2E2E2E2E2E2E2E2E2E2E2E2E2E2E2E2E2E2E2E2E2E2E2E2E2E2E2E2E2E2E2E2E2E2E2E2E2E2E2E2E2E2E2E2E2E2E2E2E2E2E2
310
F5E2E2E2E2E2E2E2E2E2E2E2E2E2E2E2E2E2E2E2E2F5F5E2E2E2E2E2E2E2E2E2E2E2E2E2E2E2E2E2E2E2E2F5E2E2E2E2E2E2E2E2E2E2E2E2E2E2E2E2E2E2E2E2E2E2E2E2E2E2E2E2E2E2E2E2E2E2E2E2E2E2E2E2E2E2E2E2E2E2E2E2E2E2E2E2E2E2E2E2E2E2E2E2E2E2E2E2E2E2E2E2E2E2E2E2E2E2E2E2E2E2E2E2E2E2E2
310
E2E2E2E2E2E2E2E2E2E2E2E2E2E2E2E2E2E2E2E2E2E2E2E2E2E2E2E2E2E2E2E2E2E2E2E2E2E2E2E2E2E2E2E2E2E2E2E2E2E2E2E2E2F5E2E2E2E2E2E2E2E2E2E2E2E2E2E2E2E2E2E2E2E2F5F5E2E2E2E2E2E2E2E2E2E2E2E2E2E2E2E2E2E2E2E2F5E2E2E2E2E2E2E2E2E2E2E2E2E2E2E2E2E2E2E2E2E2E2E2E2E2E2E2E2E2E2
310
E2E2E2E2E2E2E2E2E2E2E2E2E2E2E2E2E2E2E2E2E2E2E2E2E2E2E2E2E2E2E2E2E2E2E2E2E2E2E2E2E2E2E2E2E2E2E2E2E2E2E2E2E2E2E2E2E2E2E2E2E2E2E2E2E2E2E2E2E2E2E2E2E2E2E2E2E2E2E2E2E2E2E2E2E2E2E2E2E2E2E2E2E2E2E2E2E2E2E2E2E2E2E2E2E2E2F5E2E2E2E2E2E2E2E2E2E2E2E2E2E2E2E2E2E2E2E2
310
F5F5E2E2E2E2E2E2E2E2E2E2E2E2E2E2E2E2E2E2E2E2F5E2E2E2E2E2E2E2E2E2E2E2E2E2E2E2E2E2E2E2E2E2E2E2E2E2E2E2E2E2E2E2E2E2E2E2E2E2E2E2E2E2E2E2E2E2E2E2E2E2E2E2E2E2E2E2E2E2E2E2E2E2E2E2E2E2E2E2E2E2E2E2E2E2E2E2E2E2E2E2E2E2E2E2E2E2E2E2E2E2E2E2E2E2E2E2E2E2E2E2E2E2E2E2E2
310
E2E2E2E2E2E2E2E2E2E2E2E2E2E2E2E2E2E2E2E2E2E2E2E2E2E2E2E2E2E2E2E2F5E2E2E2E2E2E2E2E2E2E2E2E2E2E2E2E2E2E2E2E2F5F5E2E2E2E2E2E2E2E2E2E2E2E2E2E2E2E2E2E2E2E2F5E2E2E2E2E2E2E2E2E2E2E2E2E2E2E2E2E2E2E2E2E2E2E2E2E2E2E2E2E2E2E2E2E2E2E2E2E2E2E2E2E2E2E2E2E2E2E2E2E2E2E2
310
E2E2E2E2E2E2E2E2E2E2E2E2E2E2E2E2E2E2E2E2E2E2E2E2E2E2E2E2E2E2E2E2E2E2E2E2E2E2E2E2E2E2E2E2E2E2E2E2E2E2E2E2E2E2E2E2E2E2E2E2E2E2E2E2E2E2E2E2E2E2E2E2E2E2E2E2E2E2E2E2E2E2E2E2E2F5E2E2E2E2E2E2E2E2E2E2E2E2E2E2E2E2E2E2E2E2F5F5E2E2E2E2E2E2E2E2E2E2E2E2E2E2E2E2E2E2E2
310
E2F5E2E2E2E2E2E2E2E2E2E2E2E2E2E2E2E2E2E2E2E2E2E2E2E2E2E2E2E2E2E2E2E2E2E2E2E2E2E2E2E2E2E2E2E2E2E2E2E2E2E2E2E2E2E2E2E2E2E2E2E2E2E2E2E2E2E2E2E2E2E2E2E2E2E2E2E2E2E2E2E2E2E2E2E2E2E2E2E2E2E2E2E2E2E2E2E2E2E2E2E2E2E2E2E2E2E2E2E2E2E2E2E2E2E2E2E2E2E2E2E2E2E2E2E2E2
310
E2E2E2E2E2E2E2E2E2E2E2F5E2E2E2E2E2E2E2E2E2E2E2E2E2E2E2E2E2E2E2E2F5F5E2E2E2E2E2E2E2E2E2E2E2E2E2E2E2E2E2E2E2E2F5E2E2E2E2E2E2E2E2E2E2E2E2E2E2E2E2E2E2E2E2E2E2E2E2E2E2E2E2E2E2E2E2E2E2E2E2E2E2E2E2E2E2E2E2E2E2E2E2E2E2E2E2E2E2E2E2E2E2E2E2E2E2E2E2E2E2E2E2E2E2E2E2
310
E2E2E2E2E2E2E2E2E2E2E2E2E2E2E2E2E2E2E2E2E2E2E2E2E2E2E2E2E2E2E2E2E2E2E2E2E2E2E2E2E2E2E2E2E2E2E2E2E2E2E2E2E2E2E2E2E2E2E2E2E2E2E2E2F5E2E2E2E2E2E2E2E2E2E2E2E2E2E2E2E2E2E2E2E2F5F5E2E2E2F5E2E2E2E2E2E2E2E2E2E2E2E2E2E2E2E2F5E2E2E2E2E2E2E2E2E2E2E2E2E2E2E2E2E2E2E2
310
E2E2E2E2E2E2E2E2E2E2E2E2E2E2E2E2E2E2E2E2E2E2E2E2E2E2E2E2E2E2E2E2E2E2E2E2E2E2E2E2E2E2E2E2E2E2E2E2E2E2E2E2E2E2E2E2E2E2E2E2E2E2E2E2E2E2E2E2E2E2E2E2E2E2E2E2E2E2E2E2E2E2E2E2E2E2E2E2E2E2E2E2E2E2E2E2E2E2E2E2E2E2E2E2E2E2E2E2E2E2E2E2E2E2E2E2E2F5E2E2E2E2E2E2E2E2E2
310
E2E2E2E2E2E2E2F5E2E2E2F5F5E2E2E2F5E2E2E2E2E2E2E2E2E2E2E2E2E2E2E2E2F5E2E2E2E2E2E2E2E2E2E2E2E2E2E2E2E2E2E2E2E2E2E2E2E2E2E2E2E2E2E2E2E2E2E2E2E2E2E2E2E2E2E2E2E2E2E2E2E2E2E2E2E2E2E2E2E2E2E2E2E2E2E2E2E2E2E2E2E2E2E2E2E2E2E2E2E2E2E2E2E2E2E2E2E2E2E2E2E2E2E2E2E2E2
310
E2E2E2E2E2E2E2E2E2E2E2E2E2E2E2E2E2E2E2E2E2E2E2E2E2E2E2E2E2E2E2E2E2E2E2E2E2E2E2E2E2E2E2F5E2E2E2E2E2E2E2E2E2E2E2E2E2E2E2E2F5E2E2E2F5F5E2E2E2F5E2E2E2E2E2E2E2E2E2E2E2E2E2E2E2E2F5E2E2E2E2E2E2E2E2E2E2E2E2E2E2E2E2E2E2E2E2E2E2E2E2E2E2E2E2E2E2E2E2E2E2E2E2E2E2E2E2
310
E2E2E2E2E2E2E2E2E2E2E2E2E2E2E2E2E2E2E2E2E2E2E2E2E2E2E2E2E2E2E2E2E2E2E2E2E2E2E2E2E2E2E2E2E2E2E2E2E2E2E2E2E2E2E2E2E2E2E2E2E2E2E2E2E2E2E2E2E2E2E2E2E2E2E2E2E2E2E2E2E2E2E2E2E2E2E2E2E2E2E2E2E2E2E2E2F5E2E2E2E2E2E2E2E2E2E2E2E2E2E2E2E2F5E2E2E2F5F5E2E2E2F5E2E2E2E2
310
E2E2E2E2E2E2E2E2E2E2E2E2F5E2E2E2E2E2E2E2E2E2E2E2E2E2E2E2E2E2E2E2E2E2E2E2E2E2E2E2E2E2E2E2E2E2E2E2E2E2E2E2E2E2E2E2E2E2E2E2E2E2E2E2E2E2E2E2E2E2E2E2E2E2E2E2E2E2E2E2E2E2E2E2E2E2E2E2E2E2E2E2E2E2E2E2E2E2E2E2E2E2E2E2E2E2E2E2E2E2E2E2E2E2E2E2E2E2E2E2E2E2E2E2E2E2E2
310
E2E2E2E2E2E2E2E2E2E2E2E2E2E2E2E2E2E2E2E2E2E2F5E2E2E2E2E2E2E2E2E2E2E2E2E2E2E2E2F5E2E2E2F5F5E2E2E2F5E2E2E2E2E2E2E2E2E2E2E2E2E2E2E2E2F5E2E2E2E2E2E2E2E2E2E2E2E2E2E2E2E2E2E2E2E2E2E2E2E2E2E2E2E2E2E2E2E2E2E2E2E2E2E2E2E2E2E2E2E2E2E2E2E2E2E2E2E2E2E2E2E2E2E2E2E2E2
310
E2E2E2E2E2E2E2E2E2E2E2E2E2E2E2E2E2E2E2E2E2E2E2E2E2E2E2E2E2E2E2E2E2E2E2E2E2E2E2E2E2E2E2E2E2E2E2E2E2E2E2E2E2E2E2E2E2E2E2E2E2E2E2E2E2E2E2E2E2E2E2E2E2E2E2F5E2E2E2E2E2E2E2E2E2E2E2E2E2E2E2E2F5E2E2E2F5F5E2E2E2F5E2E2E2E2E2E2E2E2E2E2E2E2E2E2E2E2F5E2E2E2E2E2E2E2E2
310
E2E2E2E2E2E2E2E2E2E2E2E2E2E2E2E2E2E2E2E2E2E2E2E2E2E2E2E2E2E2E2E2E2E2E2E2E2E2E2E2E2E2E2E2E2E2E2E2E2E2E2E2E2E2E2E2E2E2E2E2E2E2E2E2E2E2E2E2E2E2E2E2E2E2E2E2E2E2E2E2E2E2E2E2E2E2E2E2E2E2E2E2E2E2E2E2E2E2E2E2E2E2E2E2E2E2E2E2E2E2E2E2E2E2E2E2E2E2E2E2E2E2E2E2E2E2E2
310
E2F5E2E2E2E2E2E2E2E2E2E2E2E2E2E2E2E2F5E2E2E2F5F5E2E2E2F5E2E2E2E2E2E2E2E2E2E2E2E2E2E2E2E2F5E2E2E2E2E2E2E2E2E2E2E2E2E2E2E2E2E2E2E2E2E2E2E2E2E2E2E2E2E2E2E2E2E2E2E2E2E2E2E2E2E2E2E2E2E2E2E2E2E2E2E2E2E2E2E2E2E2E2E2E2E2E2E2E2E2E2E2E2E2E2E2E2E2E2E2E2E2E2E2E2E2E2
310
E2E2E2E2E2E2E2E2E2E2E2E2E2E2E2E2E2E2E2E2E2E2E2E2E2E2E2E2E2E2E2E2E2E2E2E2E2E2E2E2E2E2E2E2E2E2E2E2E2E2E2E2E2E2F5E2E2E2E2E2E2E2E2E2E2E2E2E2E2E2E2F5E2E2E2F5F5E2E2E2F5E2E2E2E2E2E2E2E2E2E2E2E2E2E2E2E2F5E2E2E2E2E2E2E2E2E2E2E2E2E2E2E2E2E2E2E2E2E2E2E2E2E2E2E2E2E2
310
E2E2E2E2E2E2E2E2E2E2E2E2E2E2E2E2E2E2E2E2E2E2E2E2E2E2E2E2E2E2E2E2E2E2E2E2E2E2E2E2E2E2E2E2E2E2E2E2E2E2E2E2E2E2E2E2E2E2E2E2E2E2E2E2E2E2E2E2E2E2E2E2E2E2E2E2E2E2E2E2E2E2E2E2E2E2E2E2E2E2E2E2E2E2E2E2E2E2E2E2E2E2E2E2E2E2E2F5E2E2E2E2E2E2E2E2E2E2E2E2E2E2E2E2F5E2E2
310
E2F5F5E2E2E2F5E2E2E2E2E2E2E2E2E2E2E2E2E2E2E2E2F5E2E2E2E2E2E2E2E2E2E2E2E2E2E2E2E2E2E2E2E2E2E2E2E2E2E2E2E2E2E2E2E2E2E2E2E2E2E2E2E2E2E2E2E2E2E2E2E2E2E2E2E2E2E2E2E2E2E2E2E2E2E2E2E2E2E2E2E2E2E2E2E2E2E2E2E2E2E2E2E2E2E2E2E2E2E2E2E2E2E2E2E2E2E2E2E2E2E2E2E2E2E2E2
310
E2E2E2E2E2E2E2E2E2E2E2E2E2E2E2E2E2E2E2E2E2E2E2E2E2E2E2E2E2E2E2E2E2F5E2E2E2E2E2E2E2E2E2E2E2E2E2E2E2E2F5E2E2E2F5F5E2E2E2F5E2E2E2E2E2E2E2E2E2E2E2E2E2E2E2E2F5E2E2E2E2E2E2E2E2E2E2E2E2E2E2E2E2E2E2E2E2E2E2E2E2E2E2E2E2E2E2E2E2E2E2E2E2E2E2E2E2E2E2E2E2E2E2E2E2E2E2
310
E2E2E2E2E2E2E2E2E2E2E2E2E2E2E2E2E2E2E2E2E2E2E2E2E2E2E2E2E2E2E2E2E2E2E2E2E2E2E2E2E2E2E2E2E2E2E2E2E2E2E2E2E2E2E2E2E2E2E2E2E2E2E2E2E2E2E2E2E2E2E2E2E2E2E2E2E2E2E2E2E2E2E2E2E2E2F5E2E2E2E2E2E2E2E2E2E2E2E2E2E2E2E2F5E2E2E2F5F5E2E2E2F5E2E2E2E2E2E2E2E2E2E2E2E2E2E2
310
E2E2F5E2E2E2E2E2E2E2E2E2E2E2E2E2E2E2E2E2E2E2E2E2E2E2E2E2E2E2E2E2E2E2E2E2E2E2E2E2E2E2E2E2E2E2E2E2E2E2E2E2E2E2E2E2E2E2E2E2E2E2E2E2E2E2E2E2E2E2E2E2E2E2E2E2E2E2E2E2E2E2E2E2E2E2E2E2E2E2E2E2E2E2E2E2E2E2E2E2E2E2E2E2E2E2E2E2E2E2E2E2E2E2E2E2E2E2E2E2E2E2E2E2E2E2E2
310
E2E2E2E2E2E2E2E2E2E2E2E2F5E2E2E2E2E2E2E2E2E2E2E2E2E2E2E2E2F5E2E2E2F5F5E2E2E2F5E2E2E2E2E2E2E2E2E2E2E2E2E2E2E2E2F5E2E2E2E2E2E2E2E2E2E2E2E2E2E2E2E2E2E2E2E2E2E2E2E2E2E2E2E2E2E2E2E2E2E2E2E2E2E2E2E2E2E2E2E2E2E2E2E2E2E2E2E2E2E2E2E2E2E2E2E2E2E2E2E2E2E2E2E2E2E2E2
310
E2E2E2E2E2E2E2E2E2E2E2E2E2E2E2E2E2E2E2E2E2E2E2E2E2E2E2E2E2E2E2E2E2E2E2E2E2E2E2E2E2E2E2E2E2E2E2E2E2E2E2E2E2E2E2E2E2E2E2E2E2E2E2E2E2F5E2E2E2E2E2E2E2E2E2E2E2E2E2E2E2E2F5E2E2E2F5F5E2E2E2F5E2E2E2E2E2E2E2E2E2E2E2E2E2E2E2E2F5E2E2E2E2E2E2E2E2E2E2E2E2E2E2E2E2E2E2
310
E2E2E2E2E2E2E2E2E2E2E2E2E2E2E2E2E2E2E2E2E2E2E2E2E2E2E2E2E2E2E2E2E2E2E2E2E2E2E2E2E2E2E2E2E2E2E2E2E2E2E2E2E2E2E2E2E2E2E2E2E2E2E2E2E2E2E2E2E2E2E2E2E2E2E2E2E2E2E2E2E2E2E2E2E2E2E2E2E2E2E2E2E2E2E2E2E2E2E2E2E2E2E2E2E2E2E2E2E2E2E2E2E2E2E2E2E2E2F5E2E2E2E2E2E2E2E2
310
E2E2E2E2E2E2E2E2F5E2E2E2F5F5E2E2E2F5E2E2E2E2E2E2E2E2E2E2E2E2E2E2E2E2F5E2E2E2E2E2E2E2E2E2E2E2E2E2E2E2E2E2E2E2E2E2E2E2E2E2E2E2E2E2E2E2E2E2E2E2E2E2E2E2E2E2E2E2E2E2E2E2E2E2E2E2E2E2E2E2E2E2E2E2E2E2E2E2E2E2E2E2E2E2E2E2E2E2E2E2E2E2E2E2E2E2E2E2E2E2E2E2E2E2E2E2E2
310
E2E2E2E2E2E2E2E2E2E2E2E2E2E2E2E2E2E2E2E2E2E2E2E2E2E2E2E2E2E2E2E2E2E2E2E2E2E2E2E2E2E2E2E2F5E2E2E2E2E2E2E2E2E2E2E2E2E2E2E2E2F5E2E2E2F5F5E2E2E2F5E2E2E2E2E2E2E2E2E2E2E2E2E2E2E2E2F5E2E2E2E2E2E2E2E2E2E2E2E2E2E2E2E2E2E2E2E2E2E2E2E2E2E2E2E2E2E2E2E2E2E2E2E2E2E2E2
310
E2E2E2E2E2E2E2E2E2E2E2E2E2E2E2E2E2E2E2E2E2E2E2E2E2E2E2E2E2E2E2E2E2E2E2E2E2E2E2E2E2E2E2E2E2E2E2E2E2E2E2E2E2E2E2E2E2E2E2E2E2E2E2E2E2E2E2E2E2E2E2E2E2E2E2E2E2E2E2E2E2E2E2E2E2E2E2E2E2E2E2E2E2E2E2E2E2F5E2E2E2E2E2E2E2E2E2E2E2E2E2E2E2E2F5E2E2E2F5F5E2E2E2F5E2E2E2
310
E2E2E2E2E2E2E2E2E2E2E2E2E2F5E2E2E2E2E2E2E2E2E2E2E2E2E2E2E2E2E2E2E2E2E2E2E2E2E2E2E2E2E2E2E2E2E2E2E2E2E2E2E2E2E2E2E2E2E2E2E2E2E2E2E2E2E2E2E2E2E2E2E2E2E2E2E2E2E2E2E2E2E2E2E2E2E2E2E2E2E2E2E2E2E2E2E2E2E2E2E2E2E2E2E2E2E2E2E2E2E2E2E2E2E2E2E2E2E2E2E2E2E2E2E2E2E2
310
E2E2E2E2E2E2E2E2E2E2E2E2E2E2E2E2E2E2E2E2E2E2E2F5E2E2E2E2E2E2E2E2E2E2E2E2E2E2E2E2F5E2E2E2F5F5E2E2E2E2E2E2E2E2E2E2E2E2E2E2E2E2E2E2E2E2F5E2E2E2E2E2E2E2E2E2E2E2E2E2E2E2E2E2E2E2E2E2E2E2E2E2E2E2E2E2E2E2E2E2E2E2E2E2E2E2E2E2E2E2E2E2E2E2E2E2E2E2E2E2E2E2E2E2E2E2E2
310
E2E2E2E2E2E2E2E2E2E2E2E2E2E2E2E2E2E2E2E2E2E2E2E2E2E2E2E2E2E2E2E2E2E2E2E2E2E2E2E2E2E2E2E2E2E2E2E2E2E2E2E2E2E2E2E2E2E2E2E2E2E2E2E2E2E2E2E2E2E2E2E2E2E2E2E2F5E2E2E2E2E2E2E2E2E2E2E2E2E2E2E2E2E2E2E2E2F5F5E2E2E2E2E2E2E2E2E2E2E2E2E2E2E2E2E2E2E2E2F5E2E2E2E2E2E2E2
310
E2E2E2E2E2E2E2E2E2E2E2E2E2E2E2E2E2E2E2E2E2E2E2E2E2E2E2E2E2E2E2E2E2E2E2E2E2E2E2E2E2E2E2E2E2E2E2E2E2E2E2E2E2E2E2E2E2E2E2E2E2E2E2E2E2E2E2E2E2E2E2E2E2E2E2E2E2E2E2E2E2E2E2E2E2E2E2E2E2E2E2E2E2E2E2E2E2E2E2E2E2E2E2E2E2E2E2E2E2E2E2E2E2E2E2E2E2E2E2E2E2E2E2E2E2E2E2
310
E2E2F5E2E2E2E2E2E2E2E2E2E2E2E2E2E2E2E2E2E2E2E2F5F5E2E2E2E2E2E2E2E2E2E2E2E2E2E2E2E2E2E2E2E2F5E2E2E2E2E2E2E2E2E2E2E2E2E2E2E2E2E2E2E2E2E2E2E2E2E2E2E2E2E2E2E2E2E2E2E2E2E2E2E2E2E2E2E2E2E2E2E2E2E2E2E2E2E2E2E2E2E2E2E2E2E2E2E2E2E2E2E2E2E2E2E2E2E2E2E2E2E2E2E2E2E2
310
E2E2E2E2E2E2E2E2E2E2E2E2E2E2E2E2E2E2E2E2E2E2E2E2E2E2E2E2E2E2E2E2E2E2E2E2E2E2E2E2E2E2E2E2E2E2E2E2E2E2E2E2E2E2E2F5E2E2E2E2E2E2E2E2E2E2E2E2E2E2E2E2E2E2E2E2F5F5E2E2E2E2E2E2E2E2E2E2E2E2E2E2E2E2E2E2E2E2F5E2E2E2E2E2E2E2E2E2E2E2E2E2E2E2E2E2E2E2E2E2E2E2E2E2E2E2E2
310
E2E2E2E2E2E2E2E2E2E2E2E2E2E2E2E2E2E2E2E2E2E2E2E2E2E2E2E2E2E2E2E2E2E2E2E2E2E2E2E2E2E2E2E2E2E2E2E2E2E2E2E2E2E2E2E2E2E2E2E2E2E2E2E2E2E2E2E2E2E2E2E2E2E2E2E2E2E2E2E2E2E2E2E2E2E2E2E2E2E2E2E2E2E2E2E2E2E2E2E2E2E2E2E2E2E2E2E2F5E2E2E2E2E2E2E2E2E2E2E2E2E2E2E2E2E2E2
310
E2E2F5F5E2E2E2E2E2E2E2E2E2E2E2E2E2E2E2E2E2E2E2E2F5E2E2E2E2E2E2E2E2E2E2E2E2E2E2E2E2E2E2E2E2E2E2E2E2E2E2E2E2E2E2E2E2E2E2E2E2E2E2E2E2E2E2E2E2E2E2E2E2E2E2E2E2E2E2E2E2E2E2E2E2E2E2E2E2E2E2E2E2E2E2E2E2E2E2E2E2E2E2E2E2E2E2E2E2E2E2E2E2E2E2E2E2E2E2E2E2E2E2E2E2E2E2
310
E2E2E2E2E2E2E2E2E2E2E2E2E2E2E2E2E2E2E2E2E2E2E2E2E2E2E2E2E2E2E2E2E2E2F5E2E2E2E2E2E2E2E2E2E2E2E2E2E2E2E2E2E2E2E2F5F5E2E2E2E2E2E2E2E2E2E2E2E2E2E2E2E2E2E2E2E2F5E2E2E2E2E2E2E2E2E2E2E2E2E2E2E2E2E2E2E2E2E2E2E2E2E2E2E2E2E2E2E2E2E2E2E2E2E2E2E2E2E2E2E2E2E2E2E2E2E2
310
E2E2E2E2E2E2E2E2E2E2E2E2E2E2E2E2E2E2E2E2E2E2E2E2E2E2E2E2E2E2E2E2E2E2E2E2E2E2E2E2E2E2E2E2E2E2E2E2E2E2E2E2E2E2E2E2E2E2E2E2E2E2E2E2E2E2E2E2E2E2E2E2E2E2E2E2E2E2E2E2E2E2E2E2E2E2E2F5E2E2E2E2E2E2E2E2E2E2E2E2E2E2E2E2E2E2E2E2F5F5E2E2E2E2E2E2E2E2E2E2E2E2E2E2E2E2E2
310
E2E2E2F5E2E2E2E2E2E2E2E2E2E2E2E2E2E2E2E2E2E2E2E2E2E2E2E2E2E2E2E2E2E2E2E2E2E2E2E2E2E2E2E2E2E2E2E2E2E2E2E2E2E2E2E2E2E2E2E2E2E2E2E2E2E2E2E2E2E2E2E2E2E2E2E2E2E2E2E2E2E2E2E2E2E2E2E2E2E2E2E2E2E2E2E2E2E2E2E2E2E2E2E2E2E2E2E2E2E2E2E2E2E2E2E2E2E2E2E2E2E2E2E2E2E2E2
310
E2E2E2E2E2E2E2E2E2E2E2E2E2F5E2E2E2E2E2E2E2E2E2E2E2E2E2E2E2E2E2E2E2E2F5F5E2E2E2E2E2E2E2E2E2E2E2E2E2E2E2E2E2E2E2E2F5E2E2E2E2E2E2E2E2E2E2E2E2E2E2E2E2E2E2E2E2E2E2E2E2E2E2E2E2E2E2E2E2E2E2E2E2E2E2E2E2E2E2E2E2E2E2E2E2E2E2E2E2E2E2E2E2E2E2E2E2E2E2E2E2E2E2E2E2E2E2
310
E2E2E2E2E2E2E2E2E2E2E2E2E2E2E2E2E2E2E2E2E2E2E2E2E2E2E2E2E2E2E2E2E2E2E2E2E2E2E2E2E2E2E2E2E2E2E2E2E2E2E2E2E2E2E2E2E2E2E2E2E2E2E2E2E2E2F5E2E2E2E2E2E2E2E2E2E2E2E2E2E2E2E2E2E2E2E2F5F5E2E2E2E2E2E2E2E2E2E2E2E2E2E2E2E2E2E2E2E2F5E2E2E2E2E2E2E2E2E2E2E2E2E2E2E2E2E2
310
E2E2E2E2E2E2E2E2E2E2E2E2E2E2E2E2E2E2E2E2E2E2E2E2E2E2E2E2E2E2E2E2E2E2E2E2E2E2E2E2E2E2E2E2E2E2E2E2E2E2E2E2E2E2E2E2E2E2E2E2E2E2E2E2E2E2E2E2E2E2E2E2E2E2E2E2E2E2E2E2E2E2E2E2E2E2E2E2E2E2E2E2E2E2E2E2E2E2E2E2E2E2E2E2E2E2E2E2E2E2E2E2E2E2E2E2E2E2E2F5E2E2E2E2E2E2E2
310
E2E2E2E2E2E2E2E2E2E2E2E2E2F5F5E2E2E2F5E2E2E2E2E2E2E2E2E2E2E2E2E2E2E2E2F5E2E2E2E2E2E2E2E2E2E2E2E2E2E2E2E2E2E2E2E2E2E2E2E2E2E2E2E2E2E2E2E2E2E2E2E2E2E2E2E2E2E2E2E2E2E2E2E2E2E2E2E2E2E2E2E2E2E2E2E2E2E2E2E2E2E2E2E2E2E2E2E2E2E2E2E2E2E2E2E2E2E2E2E2E2E2E2E2E2E2E2
310
E2E2E2E2E2E2E2E2E2E2E2E2E2E2E2E2E2E2E2E2E2E2E2E2E2E2E2E2E2E2E2E2E2E2E2E2E2E2E2E2E2E2E2E2E2F5E2E2E2E2E2E2E2E2E2E2E2E2E2E2E2E2F5E2E2E2F5F5E2E2E2F5E2E2E2E2E2E2E2E2E2E2E2E2E2E2E2E2F5E2E2E2E2E2E2E2E2E2E2E2E2E2E2E2E2E2E2E2E2E2E2E2E2E2E2E2E2E2E2E2E2E2E2E2E2E2E2
310
E2E2E2E2E2E2E2E2E2E2E2E2E2E2E2E2E2E2E2E2E2E2E2E2E2E2E2E2E2E2E2E2E2E2E2E2E2E2E2E2E2E2E2E2E2E2E2E2E2E2E2E2E2E2E2E2E2E2E2E2E2E2E2E2E2E2E2E2E2E2E2E2E2E2E2E2E2E2E2E2E2E2E2E2E2E2E2E2E2E2E2E2E2E2E2E2E2E2F5E2E2E2E2E2E2E2E2E2E2E2E2E2E2E2E2F5E2E2E2F5F5E2E2E2F5E2E2
310
E2E2E2E2E2E2E2E2E2E2E2E2E2E2F5E2E2E2E2E2E2E2E2E2E2E2E2E2E2E2E2E2E2E2E2E2E2E2E2E2E2E2E2E2E2E2E2E2E2E2E2E2E2E2E2E2E2E2E2E2E2E2E2E2E2E2E2E2E2E2E2E2E2E2E2E2E2E2E2E2E2E2E2E2E2E2E2E2E2E2E2E2E2E2E2E2E2E2E2E2E2E2E2E2E2E2E2E2E2E2E2E2E2E2E2E2E2E2E2E2E2E2E2E2E2E2E2
310
E2E2E2E2E2E2E2E2E2E2E2E2E2E2E2E2E2E2E2E2E2E2E2E2F5E2E2E2E2E2E2E2E2E2E2E2E2E2E2E2E2F5E2E2E2F5F5E2E2E2F5E2E2E2E2E2E2E2E2E2E2E2E2E2E2E2E2F5E2E2E2E2E2E2E2E2E2E2E2E2E2E2E2E2E2E2E2E2E2E2E2E2E2E2E2E2E2E2E2E2E2E2E2E2E2E2E2E2E2E2E2E2E2E2E2E2E2E2E2E2E2E2E2E2E2E2E2
310
E2E2E2E2E2E2E2E2E2E2E2E2E2E2E2E2E2E2E2E2E2E2E2E2E2E2E2E2E2E2E2E2E2E2E2E2E2E2E2E2E2E2E2E2E2E2E2E2E2E2E2E2E2E2E2E2E2E2E2E2E2E2E2E2E2E2E2E2E2E2E2E2E2E2E2E2E2F5E2E2E2E2E2E2E2E2E2E2E2E2E2E2E2E2F5E2E2E2F5F5E2E2E2F5E2E2E2E2E2E2E2E2E2E2E2E2E2E2E2E2F5E2E2E2E2E2E2
310
E2E2E2E2E2E2E2E2E2E2E2E2E2E2E2E2E2E2E2E2E2E2E2E2E2E2E2E2E2E2E2E2E2E2E2E2E2E2E2E2E2E2E2E2E2E2E2E2E2E2E2E2E2E2E2E2E2E2E2E2E2E2E2E2E2E2E2E2E2E2E2E2E2E2E2E2E2E2E2E2E2E2E2E2E2E2E2E2E2E2E2E2E2E2E2E2E2E2E2E2E2E2E2E2E2E2E2E2E2E2E2E2E2E2E2E2E2E2E2E2E2E2E2E2E2E2E2
310
E2E2E2F5E2E2E2E2E2E2E2E2E2E2E2E2E2E2E2E2F5E2E2E2F5F5E2E2E2F5E2E2E2E2E2E2E2E2E2E2E2E2E2E2E2E2F5E2E2E2E2E2E2E2E2E2E2E2E2E2E2E2E2E2E2E2E2E2E2E2E2E2E2E2E2E2E2E2E2E2E2E2E2E2E2E2E2E2E2E2E2E2E2E2E2E2E2E2E2E2E2E2E2E2E2E2E2E2E2E2E2E2E2E2E2E2E2E2E2E2E2E2E2E2E2E2E2
310
E2E2E2E2E2E2E2E2E2E2E2E2E2E2E2E2E2E2E2E2E2E2E2E2E2E2E2E2E2E2E2E2E2E2E2E2E2E2E2E2E2E2E2E2E2E2E2E2E2E2E2E2E2E2E2E2F5E2E2E2E2E2E2E2E2E2E2E2E2E2E2E2E2F5E2E2E2F5F5E2E2E2F5E2E2E2E2E2E2E2E2E2E2E2E2E2E2E2E2F5E2E2E2E2E2E2E2E2E2E2E2E2E2E2E2E2E2E2E2E2E2E2E2E2E2E2E2
310
E2E2E2E2E2E2E2E2E2E2E2E2E2E2E2E2E2E2E2E2E2E2E2E2E2E2E2E2E2E2E2E2E2E2E2E2E2E2E2E2E2E2E2E2E2E2E2E2E2E2E2E2E2E2E2E2E2E2E2E2E2E2E2E2E2E2E2E2E2E2E2E2E2E2E2E2E2E2E2E2E2E2E2E2E2E2E2E2E2E2E2E2E2E2E2E2E2E2E2E2E2E2E2E2E2E2E2E2E2F5E2E2E2E2E2E2E2E2E2E2E2E2E2E2E2E2F5
310
E2E2E2F5F5E2E2E2F5E2E2E2E2E2E2E2E2E2E2E2E2E2E2E2E2F5E2E2E2E2E2E2E2E2E2E2E2E2E2E2E2E2E2E2E2E2E2E2E2E2E2E2E2E2E2E2E2E2E2E2E2E2E2E2E2E2E2E2E2E2E2E2E2E2E2E2E2E2E2E2E2E2E2E2E2E2E2E2E2E2E2E2E2E2E2E2E2E2E2E2E2E2E2E2E2E2E2E2E2E2E2E2E2E2E2E2E2E2E2E2E2E2E2E2E2E2E2
310
E2E2E2E2E2E2E2E2E2E2E2E2E2E2E2E2E2E2E2E2E2E2E2E2E2E2E2E2E2E2E2E2E2E2E2F5E2E2E2E2E2E2E2E2E2E2E2E2E2E2E2E2F5E2E2E2F5F5E2E2E2F5E2E2E2E2E2E2E2E2E2E2E2E2E2E2E2E2F5E2E2E2E2E2E2E2E2E2E2E2E2E2E2E2E2E2E2E2E2E2E2E2E2E2E2E2E2E2E2E2E2E2E2E2E2E2E2E2E2E2E2E2E2E2E2E2E2
310
E2E2E2E2E2E2E2E2E2E2E2E2E2E2E2E2E2E2E2E2E2E2E2E2E2E2E2E2E2E2E2E2E2E2E2E2E2E2E2E2E2E2E2E2E2E2E2E2E2E2E2E2E2E2E2E2E2E2E2E2E2E2E2E2E2E2E2E2E2E2E2E2E2E2E2E2E2E2E2E2E2E2E2E2E2E2E2E2F5E2E2E2E2E2E2E2E2E2E2E2E2E2E2E2E2F5E2E2E2F5F5E2E2E2F5E2E2E2E2E2E2E2E2E2E2E2E2
310
E2E2E2E2F5E2E2E2E2E2E2E2E2E2E2E2E2E2E2E2E2E2E2E2E2E2E2E2E2E2E2E2E2E2E2E2E2E2E2E2E2E2E2E2E2E2E2E2E2E2E2E2E2E2E2E2E2E2E2E2E2E2E2E2E2E2E2E2E2E2E2E2E2E2E2E2E2E2E2E2E2E2E2E2E2E2E2E2E2E2E2E2E2E2E2E2E2E2E2E2E2E2E2E2E2E2E2E2E2E2E2E2E2E2E2E2E2E2E2E2E2E2E2E2E2E2E2
310
E2E2E2E2E2E2E2E2E2E2E2E2E2E2F5E2E2E2E2E2E2E2E2E2E2E2E2E2E2E2E2F5E2E2E2F5F5E2E2E2F5E2E2E2E2E2E2E2E2E2E2E2E2E2E2E2E2F5E2E2E2E2E2E2E2E2E2E2E2E2E2E2E2E2E2E2E2E2E2E2E2E2E2E2E2E2E2E2E2E2E2E2E2E2E2E2E2E2E2E2E2E2E2E2E2E2E2E2E2E2E2E2E2E2E2E2E2E2E2E2E2E2E2E2E2E2E2
310
E2E2E2E2E2E2E2E2E2E2E2E2E2E2E2E2E2E2E2E2E2E2E2E2E2E2E2E2E2E2E2E2E2E2E2E2E2E2E2E2E2E2E2E2E2E2E2E2E2E2E2E2E2E2E2E2E2E2E2E2E2E2E2E2E2E2E2F5E2E2E2E2E2E2E2E2E2E2E2E2E2E2E2E2F5E2E2E2F5F5E2E2E2F5E2E2E2E2E2E2E2E2E2E2E2E2E2E2E2E2F5E2E2E2E2E2E2E2E2E2E2E2E2E2E2E2E2
310
E2E2E2E2E2E2E2E2E2E2E2E2E2E2E2E2E2E2E2E2E2E2E2E2E2E2E2E2E2E2E2E2E2E2E2E2E2E2E2E2E2E2E2E2E2E2E2E2E2E2E2E2E2E2E2E2E2E2E2E2E2E2E2E2E2E2E2E2E2E2E2E2E2E2E2E2E2E2E2E2E2E2E2E2E2E2E2E2E2E2E2E2E2E2E2E2E2E2E2E2E2E2E2E2E2E2E2E2E2E2E2E2E2E2E2E2E2E2E2E2F5E2E2E2E2E2E2
310
E2E2E2E2E2E2E2E2E2E2F5E2E2E2F5F5E2E2E2F5E2E2E2E2E2E2E2E2E2E2E2E2E2E2E2E2F5E2E2E2E2E2E2E2E2E2E2E2E2E2E2E2E2E2E2E2E2E2E2E2E2E2E2E2E2E2E2E2E2E2E2E2E2E2E2E2E2E2E2E2E2E2E2E2E2E2E2E2E2E2E2E2E2E2E2E2E2E2E2E2E2E2E2E2E2E2E2E2E2E2E2E2E2E2E2E2E2E2E2E2E2E2E2E2E2E2E2
310
E2E2E2E2E2E2E2E2E2E2E2E2E2E2E2E2E2E2E2E2E2E2E2E2E2E2E2E2E2E2E2E2E2E2E2E2E2E2E2E2E2E2E2E2E2E2F5E2E2E2E2E2E2E2E2E2E2E2E2E2E2E2E2F5E2E2E2F5F5E2E2E2F5E2E2E2E2E2E2E2E2E2E2E2E2E2E2E2E2F5E2E2E2E2E2E2E2E2E2E2E2E2E2E2E2E2E2E2E2E2E2E2E2E2E2E2E2E2E2E2E2E2E2E2E2E2E2
310
E2E2E2E2E2E2E2E2E2E2E2E2E2E2E2E2E2E2E2E2E2E2E2E2E2E2E2E2E2E2E2E2E2E2E2E2E2E2E2E2E2E2E2E2E2E2E2E2E2E2E2E2E2E2E2E2E2E2E2E2E2E2E2E2E2E2E2E2E2E2E2E2E2E2E2E2E2E2E2E2E2E2E2E2E2E2E2E2E2E2E2E2E2E2E2E2E2E2E2F5E2E2E2E2E2E2E2E2E2E2E2E2E2E2E2E2F5E2E2E2F5F5E2E2E2F5E2
310
E2E2E2E2E2E2E2E2E2E2E2E2E2E2E2F5E2E2E2E2E2E2E2E2E2E2E2E2E2E2E2E2E2E2E2E2E2E2E2E2E2E2E2E2E2E2E2E2E2E2E2E2E2E2E2E2E2E2E2E2E2E2E2E2E2E2E2E2E2E2E2E2E2E2E2E2E2E2E2E2E2E2E2E2E2E2E2E2E2E2E2E2E2E2E2E2E2E2E2E2E2E2E2E2E2E2E2E2E2E2E2E2E2E2E2E2E2E2E2E2E2E2E2E2E2E2E2
310
E2E2E2E2E2E2E2E2E2E2E2E2E2E2E2E2E2E2E2E2E2E2E2E2E2F5E2E2E2E2E2E2E2E2E2E2E2E2E2E2E2E2F5E2E2E2F5F5E2E2E2F5E2E2E2E2E2E2E2E2E2E2E2E2E2E2E2E2F5E2E2E2E2E2E2E2E2E2E2E2E2E2E2E2E2E2E2E2E2E2E2E2E2E2E2E2E2E2E2E2E2E2E2E2E2E2E2E2E2E2E2E2E2E2E2E2E2E2E2E2E2E2E2E2E2E2E2
310
E2E2E2E2E2E2E2E2E2E2E2E2E2E2E2E2E2E2E2E2E2E2E2E2E2E2E2E2E2E2E2E2E2E2E2E2E2E2E2E2E2E2E2E2E2E2E2E2E2E2E2E2E2E2E2E2E2E2E2E2E2E2E2E2E2E2E2E2E2E2E2E2E2E2E2E2E2E2F5E2E2E2E2E2E2E2E2E2E2E2E2E2E2E2E2F5E2E2E2F5F5E2E2E2F5E2E2E2E2E2E2E2E2E2E2E2E2E2E2E2E2F5E2E2E2E2E2
310
E2E2E2E2E2E2E2E2E2E2E2E2E2E2E2E2E2E2E2E2E2E2E2E2E2E2E2E2E2E2E2E2E2E2E2E2E2E2E2E2E2E2E2E2E2E2E2E2E2E2E2E2E2E2E2E2E2E2E2E2E2E2E2E2E2E2E2E2E2E2E2E2E2E2E2E2E2E2E2E2E2E2E2E2E2E2E2E2E2E2E2E2E2E2E2E2E2E2E2E2E2E2E2E2E2E2E2E2E2E2E2E2E2E2E2E2E2E2E2E2E2E2E2E2E2E2E2
310
E2E2E2E2F5E2E2E2E2E2E2E2E2E2E2E2E2E2E2E2E2F5E2E2E2F5F5E2E2E2E2E2E2E2E2E2E2E2E2E2E2E2E2E2E2E2E2F5E2E2E2E2E2E2E2E2E2E2E2E2E2E2E2E2E2E2E2E2E2E2E2E2E2E2E2E2E2E2E2E2E2E2E2E2E2E2E2E2E2E2E2E2E2E2E2E2E2E2E2E2E2E2E2E2E2E2E2E2E2E2E2E2E2E2E2E2E2E2E2E2E2E2E2E2E2E2E2
310
E2E2E2E2E2E2E2E2E2E2E2E2E2E2E2E2E2E2E2E2E2E2E2E2E2E2E2E2E2E2E2E2E2E2E2E2E2E2E2E2E2E2E2E2E2E2E2E2E2E2E2E2E2E2E2E2E2F5E2E2E2E2E2E2E2E2E2E2E2E2E2E2E2E2E2E2E2E2F5F5E2E2E2E2E2E2E2E2E2E2E2E2E2E2E2E2E2E2E2E2F5E2E2E2E2E2E2E2E2E2E2E2E2E2E2E2E2E2E2E2E2E2E2E2E2E2E2
310
E2E2E2E2E2E2E2E2E2E2E2E2E2E2E2E2E2E2E2E2E2E2E2E2E2E2E2E2E2E2E2E2E2E2E2E2E2E2E2E2E2E2E2E2E2E2E2E2E2E2E2E2E2E2E2E2E2E2E2E2E2E2E2E2E2E2E2E2E2E2E2E2E2E2E2E2E2E2E2E2E2E2E2E2E2E2E2E2E2E2E2E2E2E2E2E2E2E2E2E2E2E2E2E2E2E2E2E2E2E2F5E2E2E2E2E2E2E2E2E2E2E2E2E2E2E2E2
310
E2E2E2E2F5F5E2E2E2E2E2E2E2E2E2E2E2E2E2E2E2E2E2E2E2E2F5E2E2E2E2E2E2E2E2E2E2E2E2E2E2E2E2E2E2E2E2E2E2E2E2E2E2E2E2E2E2E2E2E2E2E2E2E2E2E2E2E2E2E2E2E2E2E2E2E2E2E2E2E2E2E2E2E2E2E2E2E2E2E2E2E2E2E2E2E2E2E2E2E2E2E2E2E2E2E2E2E2E2E2E2E2E2E2E2E2E2E2E2E2E2E2E2E2E2E2E2
310
E2E2E2E2E2E2E2E2E2E2E2E2E2E2E2E2E2E2E2E2E2E2E2E2E2E2E2E2E2E2E2E2E2E2E2E2F5E2E2E2E2E2E2E2E2E2E2E2E2E2E2E2E2E2E2E2E2F5F5E2E2E2E2E2E2E2E2E2E2E2E2E2E2E2E2E2E2E2E2F5E2E2E2E2E2E2E2E2E2E2E2E2E2E2E2E2E2E2E2E2E2E2E2E2E2E2E2E2E2E2E2E2E2E2E2E2E2E2E2E2E2E2E2E2E2E2E2
310
E2E2E2E2E2E2E2E2E2E2E2E2E2E2E2E2E2E2E2E2E2E2E2E2E2E2E2E2E2E2E2E2E2E2E2E2E2E2E2E2E2E2E2E2E2E2E2E2E2E2E2E2E2E2E2E2E2E2E2E2E2E2E2E2E2E2E2E2E2E2E2E2E2E2E2E2E2E2E2E2E2E2E2E2E2E2E2E2E2F5E2E2E2E2E2E2E2E2E2E2E2E2E2E2E2E2E2E2E2E2F5F5E2E2E2E2E2E2E2E2E2E2E2E2E2E2E2
310
E2E2E2E2E2F5F5F5F5F5F5F5F5F5F5F5F5F5F5F5F5F5F5F5F5F5F5F5F5F5F5F5F5F5F5F5F5F5F5F5F5F5F5F5F5F5F5F5F5F5F5F5F5F5F5F5F5F5F5F5F5F5F5F5F5F5F5F5F5F5F5F5F5F5F5F5F5F5F5F5F5F5F5F5F5F5F5F5F5F5F5F5F5F5F5F5F5F5F5F5F5F5F5F5F5F5F5F5F5F5F5F5F5F5F5F5F5F5F5F5F5F5F5F5F5F5F5
310
F5F5F5F5F5F5F5F5F5F5F5F5F5F5F5F5E2E2E2E2E2E2E2E2E2E2E2E2E2E2E2E2E2E2E2E2F5F5E2E2E2E2E2E2E2E2E2E2E2E2E2E2E2E2E2E2E2E2E2E2E2E2E2E2E2E2E2E2E2E2E2E2E2E2E2E2E2E2E2E2E2E2E2E2E2E2E2E2E2E2E2E2E2E2E2E2E2E2E2E2E2E2E2E2E2E2E2E2E2E2E2E2E2E2E2E2E2E2E2E2E2E2E2E2E2E2E2
310
E2E2E2E2E2E2E2E2E2E2E2E2E2E2E2E2E2E2E2E2E2E2E2E2E2E2E2E2E2E2E2E2E2E2E2E2E2E2E2E2E2E2E2E2E2E2E2E2E2E2E2E2E2E2E2E2E2E2E2E2E2E2E2E2E2E2E2E2E2E2E2E2E2E2E2E2E2E2E2E2E2E2E2E2E2E2E2E2E2F5F5E2E2E2E2E2E2E2E2E2E2E2E2E2E2E2E2E2E2E2E2E2E2E2E2E2E2E2E2E2E2E2E2E2E2E2E2
310
E2E2E2E2E2E2E2E2E2E2E2E2E2E2E2E2E2E2E2E2E2E2E2E2E2E2E2E2E2E2E2E2E2E2E2E2E2E2E2E2E2E2E2E2E2E2E2E2E2E2E2E2E2E2E2E2E2E2E2E2E2E2E2E2E2E2E2E2E2E2E2E2E2E2E2E2E2E2E2E2E2E2E2E2E2E2E2E2E2E2E2E2E2E2E2E2E2E2E2E2E2E2E2E2E2E2E2E2E2E2E2E2E2E2E2E2E2E2E2E2E2E2E2E2E2E2E2
310
E2E2E2E2E2E2E2E2E2E2E2E2E2E2E2F5F5E2E2E2E2E2E2E2E2E2E2E2E2E2E2E2E2E2E2E2E2E2E2E2E2E2E2E2E2E2E2E2E2E2E2E2E2E2E2E2E2E2E2E2E2E2E2E2E2E2E2E2E2E2E2E2E2E2E2E2E2E2E2E2E2E2E2E2E2E2E2E2E2E2E2E2E2E2E2E2E2E2E2E2E2E2E2E2E2E2E2E2E2E2E2E2E2E2E2E2E2E2E2E2E2E2E2E2E2E2E2
310
E2E2E2E2E2E2E2E2E2E2E2E2E2E2E2E2E2E2E2E2E2E2E2E2E2E2E2E2E2E2E2E2E2E2E2E2E2E2E2E2E2E2E2E2E2E2E2E2E2E2E2E2E2E2E2E2E2E2E2E2E2E2E2E2E2E2E2E2F5F5E2E2E2E2E2E2E2E2E2E2E2E2E2E2E2E2E2E2E2E2E2E2E2E2E2E2E2E2E2E2E2E2E2E2E2E2E2E2E2E2E2E2E2E2E2E2E2E2E2E2E2E2E2E2E2E2E2
310
E2E2E2E2E2E2E2E2E2E2E2E2E2E2E2E2E2E2E2E2E2E2E2E2E2E2E2E2E2E2E2E2E2E2E2E2E2E2E2E2E2E2E2E2E2E2E2E2E2E2E2E2E2E2E2E2E2E2E2E2E2E2E2E2E2E2E2E2E2E2E2E2E2E2E2E2E2E2E2E2E2E2E2E2E2E2E2E2E2E2E2E2E2E2E2E2E2E2E2E2E2E2E2E2E2E2E2E2E2E2E2E2E2E2E2E2E2E2E2E2E2F5F5E2E2E2F5
310
E2E2E2E2E2E2E2E2E2E2E2E2E2E2E2E2E2E2E2E2E2E2E2E2E2E2E2E2E2E2E2E2E2E2E2E2E2E2E2E2E2E2E2E2E2E2E2E2E2E2E2E2E2E2E2E2E2E2E2E2E2E2E2E2E2E2E2E2E2E2E2E2E2E2E2E2E2E2E2E2E2E2E2E2E2E2E2E2E2E2E2E2E2E2E2E2E2E2E2E2E2E2E2E2E2E2E2E2E2E2E2E2E2E2E2E2E2E2E2E2E2E2E2E2E2E2E2
310
E2E2E2E2E2E2E2E2E2E2E2E2E2E2E2E2E2E2E2E2E2E2E2E2E2E2E2E2E2E2E2E2E2E2E2E2E2E2E2E2E2E2E2F5E2E2E2F5F5E2E2E2F5E2E2E2E2E2E2E2E2E2E2E2E2E2E2E2E2E2E2E2E2E2E2E2E2E2E2E2E2E2E2E2E2E2E2E2E2E2E2E2E2E2E2E2E2E2E2E2E2E2E2E2E2E2E2E2E2E2E2E2E2E2E2E2E2E2E2E2E2E2E2E2E2E2E2
310
E2E2E2E2E2E2E2E2E2E2E2E2E2E2E2E2E2E2E2E2E2E2E2E2E2E2E2E2E2E2E2E2E2E2E2E2E2E2E2E2E2E2E2E2E2E2E2E2E2E2E2E2E2E2E2E2E2E2E2E2E2E2E2E2E2E2E2E2E2E2E2E2E2E2E2E2E2E2E2E2E2E2E2E2E2E2E2E2E2E2E2E2E2E2E2E2F5E2E2E2F5F5E2E2E2F5E2E2E2E2E2E2E2E2E2E2E2E2E2E2E2E2E2E2E2E2E2
310
E2E2E2E2E2E2E2E2E2E2E2E2E2E2E2E2E2E2E2E2E2E2E2E2E2E2E2E2E2E2E2E2E2E2E2E2E2E2E2E2E2E2E2E2E2E2E2E2E2E2E2E2E2E2E2E2E2E2E2E2E2E2E2E2E2E2E2E2E2E2E2E2E2E2E2E2E2E2E2E2E2E2E2E2E2E2E2E2E2E2E2E2E2E2E2E2E2E2E2E2E2E2E2E2E2E2E2E2E2E2E2E2E2E2E2E2E2E2E2E2E2E2E2E2E2E2E2
310
E2E2E2E2E2E2E2E2E2E2E2E2E2E2E2E2E2E2E2E2E2E2F5E2E2E2F5F5E2E2E2F5E2E2E2E2E2E2E2E2E2E2E2E2E2E2E2E2E2E2E2E2E2E2E2E2E2E2E2E2E2E2E2E2E2E2E2E2E2E2E2E2E2E2E2E2E2E2E2E2E2E2E2E2E2E2E2E2E2E2E2E2E2E2E2E2E2E2E2E2E2E2E2E2E2E2E2E2E2E2E2E2E2E2E2E2E2E2E2E2E2E2E2E2E2E2E2
310
E2E2E2E2E2E2E2E2E2E2E2E2E2E2E2E2E2E2E2E2E2E2E2E2E2E2E2E2E2E2E2E2E2E2E2E2E2E2E2E2E2E2E2E2E2E2E2E2E2E2E2E2E2E2E2E2E2E2E2E2E2E2E2E2E2E2E2E2E2E2E2E2E2E2E2F5E2E2E2F5F5E2E2E2F5E2E2E2E2E2E2E2E2E2E2E2E2E2E2E2E2E2E2E2E2E2E2E2E2E2E2E2E2E2E2E2E2E2E2E2E2E2E2E2E2E2E2
310
E2E2E2E2E2E2E2E2E2E2E2E2E2E2E2E2E2E2E2E2E2E2E2E2E2E2E2E2E2E2E2E2E2E2E2E2E2E2E2E2E2E2E2E2E2E2E2E2E2E2E2E2E2E2E2E2E2E2E2E2E2E2E2E2E2E2E2E2E2E2E2E2E2E2E2E2E2E2E2E2E2E2E2E2E2E2E2E2E2E2E2E2E2E2E2E2E2E2E2E2E2E2E2E2E2E2E2E2E2E2E2E2E2E2E2E2E2E2E2E2E2E2E2E2E2E2E2
310
E2F5E2E2E2F5F5E2E2E2F5E2E2E2E2E2E2E2E2E2E2E2E2E2E2E2E2E2E2E2E2E2E2E2E2E2E2E2E2E2E2E2E2E2E2E2E2E2E2E2E2E2E2E2E2E2E2E2E2E2E2E2E2E2E2E2E2E2E2E2E2E2E2E2E2E2E2E2E2E2E2E2E2E2E2E2E2E2E2E2E2E2E2E2E2E2E2E2E2E2E2E2E2E2E2E2E2E2E2E2E2E2E2E2E2E2E2E2E2E2E2E2E2E2E2E2E2
310
E2E2E2E2E2E2E2E2E2E2E2E2E2E2E2E2E2E2E2E2E2E2E2E2E2E2E2E2E2E2E2E2E2E2E2E2E2E2E2E2E2E2E2E2E2E2E2E2E2E2E2E2E2E2F5E2E2E2F5F5E2E2E2F5E2E2E2E2E2E2E2E2E2E2E2E2E2E2E2E2E2E2E2E2E2E2E2E2E2E2E2E2E2E2E2E2E2E2E2E2E2E2E2E2E2E2E2E2E2E2E2E2E2E2E2E2E2E2E2E2E2E2E2E2E2E2E2
310
E2E2E2E2E2E2E2E2E2E2E2E2E2E2E2E2E2E2E2E2E2E2E2E2E2E2E2E2E2E2E2E2E2E2E2E2E2E2E2E2E2E2E2E2E2E2E2E2E2E2E2E2E2E2E2E2E2E2E2E2E2E2E2E2E2E2E2E2E2E2E2E2E2E2E2E2E2E2E2E2E2E2E2E2E2E2E2E2E2E2E2E2E2E2E2E2E2E2E2E2E2E2E2E2E2E2E2F5E2E2E2F5F5E2E2E2F5E2E2E2E2E2E2E2E2E2E2
310
E2E2E2E2E2E2E2E2E2E2E2E2E2E2E2E2E2E2E2E2E2E2E2E2E2E2E2E2E2E2E2E2E2E2E2E2E2E2E2E2E2E2E2E2E2E2E2E2E2E2E2E2E2E2E2E2E2E2E2E2E2E2E2E2E2E2E2E2E2E2E2E2E2E2E2E2E2E2E2E2E2E2E2E2E2E2E2E2E2E2E2E2E2E2E2E2E2E2E2E2E2E2E2E2E2E2E2E2E2E2E2E2E2E2E2E2E2E2E2E2E2E2E2E2E2E2E2
310
E2E2E2E2E2E2E2E2E2E2E2E2E2E2E2E2E2E2E2E2E2E2E2E2E2E2E2E2E2E2E2E2E2F5E2E2E2F5F5E2E2E2F5F5F5F5F5F5F5F5E2E2E2E2E2E2E2E2E2F5F5F5F5F5F5F5F5F5F5F5F5F5F5F5F5E2E2E2E2E2E2E2E2E2F5F5F5F5F5F5F5F5F5F5F5F5F5F5F5E2E2E2E2E2E2E2E2E2F5F5F5F5F5F5F5F5F5F5F5F5F5F5F5F5E2E2E2
310
E2E2E2E2E2F5F5F5F5F5F5F5F5F5F5F5F5F5F5F5F5E2E2E2E2E2E2E2E2E2F5F5F5F5F5F5F5F5F5F5F5F5F5F5F5E2E2E2E2E2E2E2E2E2F5F5F5F5F5F5F5F5F5F5F5F5F5F5F5F5E2E2E2E2E2E2E2E2E2F5F5F5F5F5F5F5F5E2E2E2F5F5E2E2E2E2E2E2E2E2E2E2E2E2E2E2E2E2E2E2E2E2E2E2E2E2E2E2E2E2E2E2E2E2E2E2E2
310
E2E2E2E2E2E2E2E2E2E2E2E2E2E2E2E2E2E2E2E2E2E2E2E2E2E2E2E2E2E2E2E2E2E2E2E2E2E2E2E2E2E2E2E2E2E2E2E2E2E2E2E2E2E2E2E2E2E2E2E2E2E2E2E2E2E2E2E2E2E2E2E2E2E2E2E2E2E2E2E2E2E2E2E2E2E2E2E2E2E2E2E2E2E2E2E2E2E2E2E2E2E2E2E2E2E2E2E2E2E2E2E2E2E2E2E2E2E2E2E2E2E2E2E2E2E2E2
310
E2E2E2E2E2E2E2E2E2E2E2E2E2E2E2E2F5F5E2E2E2E2E2E2E2E2E2E2E2E2E2E2E2E2E2E2E2E2E2E2E2E2E2E2E2E2E2E2E2E2E2E2E2E2E2E2E2E2E2E2E2E2E2E2E2E2E2E2E2E2E2E2E2E2E2E2E2E2E2E2E2E2E2E2E2E2E2E2E2E2E2E2E2E2E2E2E2E2E2E2E2E2E2E2E2E2E2E2E2E2E2E2E2E2E2E2E2E2E2E2E2E2E2E2E2E2E2
310
E2E2E2E2E2E2E2E2E2E2E2E2E2E2E2E2E2E2E2E2E2E2E2E2E2E2E2E2E2E2E2E2E2E2E2E2E2E2E2E2E2E2E2E2E2E2E2E2E2E2E2E2E2E2E2E2E2E2E2E2E2E2E2E2E2E2E2E2E2F5F5E2E2E2E2E2E2E2E2E2E2E2E2E2E2E2E2E2E2E2E2E2E2E2E2E2E2E2E2E2E2E2E2E2E2E2E2E2E2E2E2E2E2E2E2E2E2E2E2E2E2E2E2E2E2E2E2
310
E2E2E2E2E2E2E2E2E2E2E2E2E2E2E2E2E2E2E2E2E2E2E2E2E2E2E2E2E2E2E2E2E2E2E2E2E2E2E2E2E2E2E2E2E2E2E2E2E2E2E2E2E2E2E2E2E2E2E2E2E2E2E2E2E2E2E2E2E2E2E2E2E2E2E2E2E2E2E2E2E2E2E2E2E2E2E2E2E2E2E2E2E2E2E2E2E2E2E2E2E2E2E2E2E2E2E2E2E2E2E2E2E2E2E2E2E2E2E2E2E2E2F5F5E2E2E2
310
E2E2E2E2E2E2E2E2E2E2E2E2E2E2E2E2E2E2E2E2E2E2E2E2E2E2E2E2E2E2E2E2E2E2E2E2E2E2E2E2E2E2E2E2E2E2E2E2E2E2E2E2E2E2E2E2E2E2E2E2E2E2E2E2E2E2E2E2E2E2E2E2E2E2E2E2E2E2E2E2E2E2E2E2E2E2E2E2E2E2E2E2E2E2E2E2E2E2E2E2E2E2E2E2E2E2E2E2E2E2E2E2E2E2E2E2E2E2E2E2E2E2E2E2E2E2E2
310
E2E2E2E2E2E2E2E2E2E2E2E2E2E2E2E2E2E2E2E2E2E2E2E2E2E2E2E2E2E2E2E2E2E2E2E2E2E2E2E2E2E2E2E2E2E2E2E2F5
  0
XRECORD
  5
55672
102
{ACAD_REACTORS
330
55671
102
}
330
55671
100
AcDbXrecord
280
     1
102
SHADEPLOT
 70
     0
102
SHADEPLOTRESLEVEL
 70
     2
102
SHADEPLOTCUSTOMDPI
 70
   300
  0
ENDSEC
  0
EOF
