  0
SECTION
  2
HEADER
  9
$ACADVER
  1
AC1015
  9
$ACADMAINTVER
 70
    20
  9
$DWGCODEPAGE
  3
ANSI_936
  9
$INSBASE
 10
0.0
 20
0.0
 30
0.0
  9
$EXTMIN
 10
-106.3902099999999
 20
-318.6921913802791
 30
0.0
  9
$EXTMAX
 10
1004.54963853857
 20
95.85346451126588
 30
0.0
  9
$LIMMIN
 10
0.0
 20
0.0
  9
$LIMMAX
 10
420.0
 20
297.0
  9
$ORTHOMODE
 70
     0
  9
$REGENMODE
 70
     1
  9
$FILLMODE
 70
     1
  9
$QTEXTMODE
 70
     0
  9
$MIRRTEXT
 70
     1
  9
$LTSCALE
 40
1.0
  9
$ATTMODE
 70
     1
  9
$TEXTSIZE
 40
3.5
  9
$TRACEWID
 40
1.0
  9
$TEXTSTYLE
  7
simplex
  9
$CLAYER
  8
0
  9
$CELTYPE
  6
ByLayer
  9
$CECOLOR
 62
   256
  9
$CELTSCALE
 40
1.0
  9
$DISPSILH
 70
     0
  9
$DIMSCALE
 40
0.0
  9
$DIMASZ
 40
3.5
  9
$DIMEXO
 40
0.0
  9
$DIMDLI
 40
0.38
  9
$DIMRND
 40
0.0
  9
$DIMDLE
 40
0.0
  9
$DIMEXE
 40
1.5
  9
$DIMTP
 40
0.0
  9
$DIMTM
 40
0.0
  9
$DIMTXT
 40
3.5
  9
$DIMCEN
 40
0.09
  9
$DIMTSZ
 40
0.0
  9
$DIMTOL
 70
     0
  9
$DIMLIM
 70
     0
  9
$DIMTIH
 70
     0
  9
$DIMTOH
 70
     0
  9
$DIMSE1
 70
     0
  9
$DIMSE2
 70
     0
  9
$DIMTAD
 70
     1
  9
$DIMZIN
 70
     8
  9
$DIMBLK
  1

  9
$DIMASO
 70
     1
  9
$DIMSHO
 70
     1
  9
$DIMPOST
  1

  9
$DIMAPOST
  1

  9
$DIMALT
 70
     0
  9
$DIMALTD
 70
     2
  9
$DIMALTF
 40
25.4
  9
$DIMLFAC
 40
1.0
  9
$DIMTOFL
 70
     0
  9
$DIMTVP
 40
0.0
  9
$DIMTIX
 70
     0
  9
$DIMSOXD
 70
     0
  9
$DIMSAH
 70
     0
  9
$DIMBLK1
  1

  9
$DIMBLK2
  1

  9
$DIMSTYLE
  2
\M+18352\M+18373\M+1815B - ISO-25
  9
$DIMCLRD
 70
   256
  9
$DIMCLRE
 70
   256
  9
$DIMCLRT
 70
   256
  9
$DIMTFAC
 40
1.0
  9
$DIMGAP
 40
2.299999999999998
  9
$DIMJUST
 70
     0
  9
$DIMSD1
 70
     0
  9
$DIMSD2
 70
     0
  9
$DIMTOLJ
 70
     1
  9
$DIMTZIN
 70
     8
  9
$DIMALTZ
 70
     0
  9
$DIMALTTZ
 70
     0
  9
$DIMUPT
 70
     0
  9
$DIMDEC
 70
     2
  9
$DIMTDEC
 70
     2
  9
$DIMALTU
 70
     2
  9
$DIMALTTD
 70
     2
  9
$DIMTXSTY
  7
simplex
  9
$DIMAUNIT
 70
     0
  9
$DIMADEC
 70
     0
  9
$DIMALTRND
 40
0.0
  9
$DIMAZIN
 70
     0
  9
$DIMDSEP
 70
    46
  9
$DIMATFIT
 70
     3
  9
$DIMFRAC
 70
     0
  9
$DIMLDRBLK
  1

  9
$DIMLUNIT
 70
     2
  9
$DIMLWD
 70
    -1
  9
$DIMLWE
 70
    -1
  9
$DIMTMOVE
 70
     0
  9
$LUNITS
 70
     2
  9
$LUPREC
 70
     4
  9
$SKETCHINC
 40
1.0
  9
$FILLETRAD
 40
0.5
  9
$AUNITS
 70
     0
  9
$AUPREC
 70
     0
  9
$MENU
  1
.
  9
$ELEVATION
 40
0.0
  9
$PELEVATION
 40
0.0
  9
$THICKNESS
 40
0.0
  9
$LIMCHECK
 70
     0
  9
$CHAMFERA
 40
10.0
  9
$CHAMFERB
 40
10.0
  9
$CHAMFERC
 40
20.0
  9
$CHAMFERD
 40
0.0
  9
$SKPOLY
 70
     0
  9
$TDCREATE
 40
2455489.391063368
  9
$TDUCREATE
 40
2455489.057730035
  9
$TDUPDATE
 40
2458572.958417454
  9
$TDUUPDATE
 40
2458572.625084121
  9
$TDINDWG
 40
2.8323803588
  9
$TDUSRTIMER
 40
2.8323229977
  9
$USRTIMER
 70
     1
  9
$ANGBASE
 50
0.0
  9
$ANGDIR
 70
     0
  9
$PDMODE
 70
     0
  9
$PDSIZE
 40
0.0
  9
$PLINEWID
 40
0.0
  9
$SPLFRAME
 70
     0
  9
$SPLINETYPE
 70
     6
  9
$SPLINESEGS
 70
     8
  9
$HANDSEED
  5
57029
  9
$SURFTAB1
 70
     6
  9
$SURFTAB2
 70
     6
  9
$SURFTYPE
 70
     6
  9
$SURFU
 70
     6
  9
$SURFV
 70
     6
  9
$UCSBASE
  2

  9
$UCSNAME
  2

  9
$UCSORG
 10
0.0
 20
0.0
 30
0.0
  9
$UCSXDIR
 10
1.0
 20
0.0
 30
0.0
  9
$UCSYDIR
 10
0.0
 20
1.0
 30
0.0
  9
$UCSORTHOREF
  2

  9
$UCSORTHOVIEW
 70
     0
  9
$UCSORGTOP
 10
0.0
 20
0.0
 30
0.0
  9
$UCSORGBOTTOM
 10
0.0
 20
0.0
 30
0.0
  9
$UCSORGLEFT
 10
0.0
 20
0.0
 30
0.0
  9
$UCSORGRIGHT
 10
0.0
 20
0.0
 30
0.0
  9
$UCSORGFRONT
 10
0.0
 20
0.0
 30
0.0
  9
$UCSORGBACK
 10
0.0
 20
0.0
 30
0.0
  9
$PUCSBASE
  2

  9
$PUCSNAME
  2

  9
$PUCSORG
 10
0.0
 20
0.0
 30
0.0
  9
$PUCSXDIR
 10
1.0
 20
0.0
 30
0.0
  9
$PUCSYDIR
 10
0.0
 20
1.0
 30
0.0
  9
$PUCSORTHOREF
  2

  9
$PUCSORTHOVIEW
 70
     0
  9
$PUCSORGTOP
 10
0.0
 20
0.0
 30
0.0
  9
$PUCSORGBOTTOM
 10
0.0
 20
0.0
 30
0.0
  9
$PUCSORGLEFT
 10
0.0
 20
0.0
 30
0.0
  9
$PUCSORGRIGHT
 10
0.0
 20
0.0
 30
0.0
  9
$PUCSORGFRONT
 10
0.0
 20
0.0
 30
0.0
  9
$PUCSORGBACK
 10
0.0
 20
0.0
 30
0.0
  9
$USERI1
 70
     0
  9
$USERI2
 70
     0
  9
$USERI3
 70
     0
  9
$USERI4
 70
     0
  9
$USERI5
 70
     0
  9
$USERR1
 40
0.0
  9
$USERR2
 40
0.0
  9
$USERR3
 40
0.0
  9
$USERR4
 40
0.0
  9
$USERR5
 40
0.0
  9
$WORLDVIEW
 70
     1
  9
$SHADEDGE
 70
     3
  9
$SHADEDIF
 70
    70
  9
$TILEMODE
 70
     1
  9
$MAXACTVP
 70
    64
  9
$PINSBASE
 10
0.0
 20
0.0
 30
0.0
  9
$PLIMCHECK
 70
     0
  9
$PEXTMIN
 10
26.66999878883364
 20
20.31999878883365
 30
0.0
  9
$PEXTMAX
 10
240.0299890995025
 20
182.8799890995025
 30
0.0
  9
$PLIMMIN
 10
-6.350006103515625
 20
-6.349999904632567
  9
$PLIMMAX
 10
273.0499877929688
 20
209.5499939918518
  9
$UNITMODE
 70
     0
  9
$VISRETAIN
 70
     1
  9
$PLINEGEN
 70
     0
  9
$PSLTSCALE
 70
     1
  9
$TREEDEPTH
 70
  3020
  9
$CMLSTYLE
  2
Standard
  9
$CMLJUST
 70
     0
  9
$CMLSCALE
 40
20.0
  9
$PROXYGRAPHICS
 70
     1
  9
$MEASUREMENT
 70
     1
  9
$CELWEIGHT
370
    -1
  9
$ENDCAPS
280
     0
  9
$JOINSTYLE
280
     0
  9
$LWDISPLAY
290
     0
  9
$INSUNITS
 70
     4
  9
$HYPERLINKBASE
  1

  9
$STYLESHEET
  1

  9
$XEDIT
290
     1
  9
$CEPSNTYPE
380
     0
  9
$PSTYLEMODE
290
     1
  9
$FINGERPRINTGUID
  2
{601DDA01-5B13-4A4C-8F56-1333B78D855B}
  9
$VERSIONGUID
  2
{0F5BFA5F-A6E6-4A94-B1EC-9E08F08440F4}
  9
$EXTNAMES
290
     1
  9
$PSVPSCALE
 40
0.0
  9
$OLESTARTUP
290
     0
  0
ENDSEC
  0
SECTION
  2
CLASSES
  0
CLASS
  1
ACDBDICTIONARYWDFLT
  2
AcDbDictionaryWithDefault
  3
ObjectDBX Classes
 90
        0
280
     0
281
     0
  0
CLASS
  1
ACDBPLACEHOLDER
  2
AcDbPlaceHolder
  3
ObjectDBX Classes
 90
        0
280
     0
281
     0
  0
CLASS
  1
LAYOUT
  2
AcDbLayout
  3
ObjectDBX Classes
 90
        0
280
     0
281
     0
  0
CLASS
  1
DICTIONARYVAR
  2
AcDbDictionaryVar
  3
ObjectDBX Classes
 90
        0
280
     0
281
     0
  0
CLASS
  1
TABLESTYLE
  2
AcDbTableStyle
  3
ObjectDBX Classes
 90
     2047
280
     0
281
     0
  0
CLASS
  1
SORTENTSTABLE
  2
AcDbSortentsTable
  3
ObjectDBX Classes
 90
        0
280
     0
281
     0
  0
CLASS
  1
DIMASSOC
  2
AcDbDimAssoc
  3
"AcDbDimAssoc|Product Desc:     AcDim ARX App For Dimension|Company:          Autodesk, Inc.|WEB Address:      www.autodesk.com"
 90
        0
280
     0
281
     0
  0
CLASS
  1
ACAD_EVALUATION_GRAPH
  2
AcDbEvalGraph
  3
ObjectDBX Classes
 90
    33921
280
     0
281
     0
  0
CLASS
  1
ACAECUSTOBJ
  2
AcAeEditorObj
  3
AcAeEditorObj
 90
    33792
280
     0
281
     0
  0
CLASS
  1
ACDB_DYNAMICBLOCKPURGEPREVENTER_VERSION
  2
AcDbDynamicBlockPurgePreventer
  3
ObjectDBX Classes
 90
    33921
280
     0
281
     0
  0
ENDSEC
  0
SECTION
  2
TABLES
  0
TABLE
  2
VPORT
  5
8
330
0
100
AcDbSymbolTable
 70
     6
  0
VPORT
  5
5701A
330
8
100
AcDbSymbolTableRecord
100
AcDbViewportTableRecord
  2
*Active
 70
     0
 10
0.0
 20
0.0
 11
1.0
 21
1.0
 12
9.08833958116304
 22
9.616985025585307
 13
0.0
 23
0.0
 14
10.0
 24
10.0
 15
10.0
 25
10.0
 16
0.0
 26
0.0
 36
1.0
 17
0.0
 27
0.0
 37
0.0
 40
493.1583662198645
 41
1.508350730688935
 42
50.0
 43
0.0
 44
0.0
 50
0.0
 51
0.0
 71
     0
 72
  1000
 73
     1
 74
     1
 75
     0
 76
     0
 77
     0
 78
     0
281
     0
 65
     1
110
0.0
120
0.0
130
0.0
111
1.0
121
0.0
131
0.0
112
0.0
122
1.0
132
0.0
 79
     0
146
0.0
  0
ENDTAB
  0
TABLE
  2
LTYPE
  5
5
330
0
100
AcDbSymbolTable
 70
     4
  0
LTYPE
  5
14
330
5
100
AcDbSymbolTableRecord
100
AcDbLinetypeTableRecord
  2
ByBlock
 70
     0
  3

 72
    65
 73
     0
 40
0.0
  0
LTYPE
  5
15
330
5
100
AcDbSymbolTableRecord
100
AcDbLinetypeTableRecord
  2
ByLayer
 70
     0
  3

 72
    65
 73
     0
 40
0.0
  0
LTYPE
  5
16
330
5
100
AcDbSymbolTableRecord
100
AcDbLinetypeTableRecord
  2
Continuous
 70
     0
  3
Solid line
 72
    65
 73
     0
 40
0.0
  0
LTYPE
  5
D7
330
5
100
AcDbSymbolTableRecord
100
AcDbLinetypeTableRecord
  2
HIDDEN
 70
     0
  3
Hidden __ __ __ __ __ __ __ __ __ __ __ __ __ _
 72
    65
 73
     2
 40
9.524999999999996
 49
6.349999999999997
 74
     0
 49
-3.174999999999998
 74
     0
  0
LTYPE
  5
D9
330
5
100
AcDbSymbolTableRecord
100
AcDbLinetypeTableRecord
  2
CENTER
 70
     0
  3
Center ____ _ ____ _ ____ _ ____ _ ____ _ ____
 72
    65
 73
     4
 40
50.8
 49
31.75
 74
     0
 49
-6.349999999999997
 74
     0
 49
6.349999999999997
 74
     0
 49
-6.349999999999997
 74
     0
  0
LTYPE
  5
35815
330
5
100
AcDbSymbolTableRecord
100
AcDbLinetypeTableRecord
  2
PHANTOM
 70
     0
  3
_____ _ _ _____ _ _ _____ _ _ _____
 72
    65
 73
     6
 40
0.8
 49
0.45
 74
     0
 49
-0.05
 74
     0
 49
0.1
 74
     0
 49
-0.05
 74
     0
 49
0.1
 74
     0
 49
-0.05
 74
     0
  0
ENDTAB
  0
TABLE
  2
LAYER
  5
2
102
{ACAD_XDICTIONARY
360
E2
102
}
330
0
100
AcDbSymbolTable
 70
    14
  0
LAYER
  5
10
330
2
100
AcDbSymbolTableRecord
100
AcDbLayerTableRecord
  2
0
 70
     0
 62
     7
  6
Continuous
370
    -3
390
F
  0
LAYER
  5
D1
330
2
100
AcDbSymbolTableRecord
100
AcDbLayerTableRecord
  2
1
 70
     0
 62
     4
  6
Continuous
370
    50
390
F
1001
AcAecLayerStandard
1000

1000

  0
LAYER
  5
D3
330
2
100
AcDbSymbolTableRecord
100
AcDbLayerTableRecord
  2
2
 70
     0
 62
     7
  6
Continuous
370
    25
390
F
1001
AcAecLayerStandard
1000

1000

  0
LAYER
  5
D4
330
2
100
AcDbSymbolTableRecord
100
AcDbLayerTableRecord
  2
3
 70
     0
 62
     1
  6
HIDDEN
370
    35
390
F
1001
AcAecLayerStandard
1000

1000

  0
LAYER
  5
D8
330
2
100
AcDbSymbolTableRecord
100
AcDbLayerTableRecord
  2
4
 70
     0
 62
     2
  6
CENTER
370
    25
390
F
1001
AcAecLayerStandard
1000

1000

  0
LAYER
  5
DA
330
2
100
AcDbSymbolTableRecord
100
AcDbLayerTableRecord
  2
6
 70
     0
 62
     5
  6
Continuous
370
    35
390
F
1001
AcAecLayerStandard
1000

1000

  0
LAYER
  5
DB
330
2
100
AcDbSymbolTableRecord
100
AcDbLayerTableRecord
  2
cut
 70
     0
 62
     1
  6
Continuous
370
    25
390
F
1001
AcAecLayerStandard
1000

1000

  0
LAYER
  5
DC
330
2
100
AcDbSymbolTableRecord
100
AcDbLayerTableRecord
  2
nocut
 70
     0
 62
     7
  6
Continuous
370
    25
390
F
1001
AcAecLayerStandard
1000

1000

  0
LAYER
  5
DD
330
2
100
AcDbSymbolTableRecord
100
AcDbLayerTableRecord
  2
sk1
 70
     0
 62
     4
  6
Continuous
370
    50
390
F
1001
AcAecLayerStandard
1000

1000

  0
LAYER
  5
DE
330
2
100
AcDbSymbolTableRecord
100
AcDbLayerTableRecord
  2
sk2
 70
     0
 62
     7
  6
Continuous
370
    25
390
F
1001
AcAecLayerStandard
1000

1000

  0
LAYER
  5
DF
330
2
100
AcDbSymbolTableRecord
100
AcDbLayerTableRecord
  2
sk3
 70
     0
 62
     1
  6
HIDDEN
370
    35
390
F
1001
AcAecLayerStandard
1000

1000

  0
LAYER
  5
E0
330
2
100
AcDbSymbolTableRecord
100
AcDbLayerTableRecord
  2
sk4
 70
     0
 62
     2
  6
CENTER
370
    25
390
F
1001
AcAecLayerStandard
1000

1000

  0
LAYER
  5
E1
330
2
100
AcDbSymbolTableRecord
100
AcDbLayerTableRecord
  2
sk6
 70
     0
 62
     5
  6
Continuous
370
    35
390
F
1001
AcAecLayerStandard
1000

1000

  0
LAYER
  5
31B6
330
2
100
AcDbSymbolTableRecord
100
AcDbLayerTableRecord
  2
Defpoints
 70
     0
 62
     7
  6
Continuous
290
     0
370
    -3
390
F
  0
ENDTAB
  0
TABLE
  2
STYLE
  5
3
330
0
100
AcDbSymbolTable
 70
    12
  0
STYLE
  5
11
330
3
100
AcDbSymbolTableRecord
100
AcDbTextStyleTableRecord
  2
Standard
 70
     0
 40
0.0
 41
1.0
 50
0.0
 71
     0
 42
2.5
  3
txt.shx
  4
@extfont2.shx
  0
STYLE
  5
D6
330
3
100
AcDbSymbolTableRecord
100
AcDbTextStyleTableRecord
  2

 70
     1
 40
0.0
 41
1.0
 50
0.0
 71
     0
 42
2.5
  3
ltypeshp.shx
  4

  0
STYLE
  5
24A
330
3
100
AcDbSymbolTableRecord
100
AcDbTextStyleTableRecord
  2
simplex
 70
     0
 40
3.5
 41
1.0
 50
0.0
 71
     0
 42
3.5
  3
txt.shx
  4

  0
STYLE
  5
69E
330
3
100
AcDbSymbolTableRecord
100
AcDbTextStyleTableRecord
  2
MX_NOTE_STANDARD
 70
     0
 40
0.0
 41
1.0
 50
0.0
 71
     0
 42
4.2
  3
txt.shx
  4
extfont.shx
  0
STYLE
  5
3524
330
3
100
AcDbSymbolTableRecord
100
AcDbTextStyleTableRecord
  2
TEXTSTYLE_2
 70
     0
 40
0.0
 41
0.775
 50
0.0
 71
     0
 42
0.2
  3
gdt
  4

  0
STYLE
  5
3525
330
3
100
AcDbSymbolTableRecord
100
AcDbTextStyleTableRecord
  2
TEXTSTYLE_3
 70
     0
 40
0.0
 41
0.75
 50
0.0
 71
     0
 42
0.2
  3
txt
  4

  0
STYLE
  5
3526
330
3
100
AcDbSymbolTableRecord
100
AcDbTextStyleTableRecord
  2
TEXTSTYLE_13
 70
     0
 40
0.0
 41
1.0
 50
0.0
 71
     0
 42
0.2
  3
txt
  4

  0
STYLE
  5
519A
330
3
100
AcDbSymbolTableRecord
100
AcDbTextStyleTableRecord
  2
TEXTSTYLE_14
 70
     0
 40
0.0
 41
1.0
 50
0.0
 71
     0
 42
0.2
  3
txt
  4

  0
STYLE
  5
6F72
330
3
100
AcDbSymbolTableRecord
100
AcDbTextStyleTableRecord
  2
TEXTSTYLE_4
 70
     0
 40
0.0
 41
0.75
 50
0.0
 71
     0
 42
0.2
  3
txt
  4

  0
STYLE
  5
6F73
330
3
100
AcDbSymbolTableRecord
100
AcDbTextStyleTableRecord
  2
TEXTSTYLE_17
 70
     0
 40
0.0
 41
1.0
 50
0.0
 71
     0
 42
0.2
  3
txt
  4

  0
STYLE
  5
FE12
330
3
100
AcDbSymbolTableRecord
100
AcDbTextStyleTableRecord
  2
TEXTSTYLE_12
 70
     0
 40
0.0
 41
1.0
 50
0.0
 71
     0
 42
0.2
  3
txt
  4

  0
STYLE
  5
3AAB8
330
3
100
AcDbSymbolTableRecord
100
AcDbTextStyleTableRecord
  2
TEXTSTYLE_20
 70
     0
 40
0.0
 41
0.6
 50
0.0
 71
     0
 42
0.2
  3
txt
  4

  0
ENDTAB
  0
TABLE
  2
VIEW
  5
6
330
0
100
AcDbSymbolTable
 70
     0
  0
ENDTAB
  0
TABLE
  2
UCS
  5
7
330
0
100
AcDbSymbolTable
 70
     0
  0
ENDTAB
  0
TABLE
  2
APPID
  5
9
330
0
100
AcDbSymbolTable
 70
    11
  0
APPID
  5
12
330
9
100
AcDbSymbolTableRecord
100
AcDbRegAppTableRecord
  2
ACAD
 70
     0
  0
APPID
  5
D2
330
9
100
AcDbSymbolTableRecord
100
AcDbRegAppTableRecord
  2
AcAecLayerStandard
 70
     0
  0
APPID
  5
E6
330
9
100
AcDbSymbolTableRecord
100
AcDbRegAppTableRecord
  2
ACAD_DSTYLE_DIMTEXT_FILL
 70
     0
  0
APPID
  5
4C84
330
9
100
AcDbSymbolTableRecord
100
AcDbRegAppTableRecord
  2
ACAD_EXEMPT_FROM_CAD_STANDARDS
 70
     0
  0
APPID
  5
3493E
330
9
100
AcDbSymbolTableRecord
100
AcDbRegAppTableRecord
  2
DCO15
 70
     0
  0
APPID
  5
3BAB0
330
9
100
AcDbSymbolTableRecord
100
AcDbRegAppTableRecord
  2
ACAD_DSTYLE_DIMEXT_ENABLED
 70
     0
  0
APPID
  5
3BAB1
330
9
100
AcDbSymbolTableRecord
100
AcDbRegAppTableRecord
  2
ACAD_DSTYLE_DIMEXT_LENGTH
 70
     0
  0
APPID
  5
3BEB4
330
9
100
AcDbSymbolTableRecord
100
AcDbRegAppTableRecord
  2
ACAUTHENVIRON
 70
     0
  0
APPID
  5
3BEB7
330
9
100
AcDbSymbolTableRecord
100
AcDbRegAppTableRecord
  2
AcDbDynamicBlockTrueName
 70
     0
  0
APPID
  5
3BEB8
330
9
100
AcDbSymbolTableRecord
100
AcDbRegAppTableRecord
  2
AcDbDynamicBlockGUID
 70
     0
  0
APPID
  5
3BEBA
330
9
100
AcDbSymbolTableRecord
100
AcDbRegAppTableRecord
  2
AcDbBlockRepETag
 70
     0
  0
ENDTAB
  0
TABLE
  2
DIMSTYLE
  5
A
330
0
100
AcDbSymbolTable
 70
    11
100
AcDbDimStyleTable
 71
     5
340
1BF
340
27
340
352A
340
3527
340
69F
  0
DIMSTYLE
105
27
330
A
100
AcDbSymbolTableRecord
100
AcDbDimStyleTableRecord
  2
ISO-25
 70
     0
 41
2.5
 42
0.625
 43
3.75
 44
1.25
 73
     0
 74
     0
 77
     1
 78
     8
140
2.5
141
2.5
143
0.03937007874016
147
0.625
171
     3
172
     1
271
     2
272
     2
274
     3
278
    44
283
     0
284
     8
340
11
  0
DIMSTYLE
105
1BF
102
{ACAD_REACTORS
330
565BB
330
565BC
330
56607
330
5660C
330
5660D
330
562C2
330
5630D
102
}
330
A
100
AcDbSymbolTableRecord
100
AcDbDimStyleTableRecord
  2
\M+18352\M+18373\M+1815B - ISO-25
 70
     0
 40
0.0
 41
3.5
 42
0.0
 44
1.5
 73
     0
 74
     0
 77
     1
 78
     8
140
3.5
147
2.299999999999998
176
   256
177
   256
178
   256
271
     2
272
     2
284
     8
340
24A
371
    -1
372
    -1
  0
DIMSTYLE
105
69F
330
A
100
AcDbSymbolTableRecord
100
AcDbDimStyleTableRecord
  2
MXDIMSTYLE
 70
     0
 41
2.5
 42
0.5
 43
3.75
 44
1.5
 73
     0
 74
     0
 77
     1
 78
     8
140
4.2
141
2.5
143
0.03937
147
1.0
171
     4
172
     1
173
     1
271
     2
272
     2
274
     4
283
     0
288
     1
340
69E
341
697
343
697
344
697
  0
DIMSTYLE
105
3527
330
A
100
AcDbSymbolTableRecord
100
AcDbDimStyleTableRecord
  2
STANDARD
 70
     0
 41
3.0
 47
0.001
 48
0.001
 71
     1
 73
     0
 74
     0
 77
     1
 78
     8
140
4.0
271
     3
272
     3
284
     8
340
11
341
34B1
342
34B1
343
34B1
344
34B1
  0
DIMSTYLE
105
3528
330
A
100
AcDbSymbolTableRecord
100
AcDbDimStyleTableRecord
  2
DIMSTYLE_1
 70
     0
 41
3.0
 73
     0
 74
     0
 77
     1
 78
     8
140
4.0
271
     3
272
     3
284
     8
340
11
341
34B1
342
34B1
343
34B1
344
34B1
  0
DIMSTYLE
105
3529
330
A
100
AcDbSymbolTableRecord
100
AcDbDimStyleTableRecord
  2
DIMSTYLE_2
 70
     0
 41
3.0
 47
0.001
 48
0.001
 73
     0
 74
     0
 77
     1
 78
     8
140
4.0
271
     3
272
     3
284
     8
340
11
341
34B1
342
34B1
343
34B1
344
34B1
  0
DIMSTYLE
105
352A
330
A
100
AcDbSymbolTableRecord
100
AcDbDimStyleTableRecord
  2
DIMSTYLE_3
 70
     0
 41
3.0
 47
-0.1
 48
0.3
 71
     1
 73
     0
 74
     0
 77
     1
 78
     8
140
4.0
146
0.5
271
     3
272
     3
284
     8
340
11
341
34B1
342
34B1
343
34B1
344
34B1
  0
DIMSTYLE
105
352B
330
A
100
AcDbSymbolTableRecord
100
AcDbDimStyleTableRecord
  2
DIMSTYLE_4
 70
     0
 41
3.0
 47
0.1
 48
0.1
 71
     1
 73
     0
 74
     0
 77
     1
 78
     8
140
4.0
271
     3
272
     3
284
     8
340
11
341
34B1
342
34B1
343
34B1
344
34B1
  0
DIMSTYLE
105
27245
330
A
100
AcDbSymbolTableRecord
100
AcDbDimStyleTableRecord
  2
DIMSTYLE_5
 70
     0
 41
3.0
 47
0.001
 48
0.001
 73
     0
 74
     0
 77
     1
 78
     8
140
4.0
271
     3
272
     3
284
     8
340
11
341
34B1
342
34B1
343
34B1
344
34B1
  0
DIMSTYLE
105
3AAB9
330
A
100
AcDbSymbolTableRecord
100
AcDbDimStyleTableRecord
  2
DIMSTYLE_6
 70
     0
 41
3.0
 42
0.0
 44
1.0
 47
0.05
 48
0.05
 71
     1
 73
     0
 74
     0
 77
     1
 78
     8
140
4.0
147
1.0
271
     3
272
     3
284
     8
340
11
341
34B1
342
34B1
343
34B1
344
34B1
  0
DIMSTYLE
105
532EA
330
A
100
AcDbSymbolTableRecord
100
AcDbDimStyleTableRecord
  2
NEW-DIMSTYLE
 70
     0
 40
0.0
 41
4.57
 42
0.0
 44
5.0
 73
     0
 74
     0
 77
     1
 78
     8
140
4.57
147
2.299999999999998
271
     2
340
24A
  0
ENDTAB
  0
TABLE
  2
BLOCK_RECORD
  5
1
330
0
100
AcDbSymbolTable
 70
    95
  0
BLOCK_RECORD
  5
1F
102
{ACAD_XDICTIONARY
360
31EE
102
}
330
1
100
AcDbSymbolTableRecord
100
AcDbBlockTableRecord
  2
*Model_Space
340
22
  0
BLOCK_RECORD
  5
50
330
1
100
AcDbSymbolTableRecord
100
AcDbBlockTableRecord
  2
*Paper_Space
340
51
  0
BLOCK_RECORD
  5
55
330
1
100
AcDbSymbolTableRecord
100
AcDbBlockTableRecord
  2
*Paper_Space0
340
56
  0
BLOCK_RECORD
  5
680
102
{ACAD_XDICTIONARY
360
3BEB2
102
}
330
1
100
AcDbSymbolTableRecord
100
AcDbBlockTableRecord
  2
zero block
340
0
102
{BLKREFS
331
68C
102
}
1001
ACAD
1000
DesignCenter Data
1002
{
1070
     1
1070
     4
1002
}
1001
AcDbDynamicBlockGUID
1000
{C2E8894D-A8DA-456D-ABB6-198B00672C1A}
1001
AcDbBlockRepETag
1070
     1
1071
        7
  0
BLOCK_RECORD
  5
697
330
1
100
AcDbSymbolTableRecord
100
AcDbBlockTableRecord
  2
_OPEN30
340
0
  0
BLOCK_RECORD
  5
34B1
330
1
100
AcDbSymbolTableRecord
100
AcDbBlockTableRecord
  2
_OPEN
340
0
  0
BLOCK_RECORD
  5
50E6F
330
1
100
AcDbSymbolTableRecord
100
AcDbBlockTableRecord
  2
_None
340
0
  0
BLOCK_RECORD
  5
55A50
330
1
100
AcDbSymbolTableRecord
100
AcDbBlockTableRecord
  2
*D10
340
0
  0
BLOCK_RECORD
  5
5645D
330
1
100
AcDbSymbolTableRecord
100
AcDbBlockTableRecord
  2
*D25
340
0
  0
BLOCK_RECORD
  5
56489
330
1
100
AcDbSymbolTableRecord
100
AcDbBlockTableRecord
  2
*D28
340
0
  0
BLOCK_RECORD
  5
56617
330
1
100
AcDbSymbolTableRecord
100
AcDbBlockTableRecord
  2
*D36
340
0
  0
BLOCK_RECORD
  5
56623
330
1
100
AcDbSymbolTableRecord
100
AcDbBlockTableRecord
  2
*D37
340
0
  0
BLOCK_RECORD
  5
5662F
330
1
100
AcDbSymbolTableRecord
100
AcDbBlockTableRecord
  2
*D38
340
0
  0
BLOCK_RECORD
  5
5663C
330
1
100
AcDbSymbolTableRecord
100
AcDbBlockTableRecord
  2
*D39
340
0
  0
BLOCK_RECORD
  5
56649
330
1
100
AcDbSymbolTableRecord
100
AcDbBlockTableRecord
  2
*D40
340
0
  0
ENDTAB
  0
ENDSEC
  0
SECTION
  2
BLOCKS
  0
BLOCK
  5
20
330
1F
100
AcDbEntity
  8
0
100
AcDbBlockBegin
  2
*Model_Space
 70
     0
 10
0.0
 20
0.0
 30
0.0
  3
*Model_Space
  1

  0
ENDBLK
  5
21
330
1F
100
AcDbEntity
  8
0
100
AcDbBlockEnd
  0
BLOCK
  5
52
330
50
100
AcDbEntity
 67
     1
  8
0
100
AcDbBlockBegin
  2
*Paper_Space
 70
     0
 10
0.0
 20
0.0
 30
0.0
  3
*Paper_Space
  1

  0
ENDBLK
  5
53
330
50
100
AcDbEntity
 67
     1
  8
0
100
AcDbBlockEnd
  0
BLOCK
  5
57
330
55
100
AcDbEntity
 67
     1
  8
0
100
AcDbBlockBegin
  2
*Paper_Space0
 70
     0
 10
0.0
 20
0.0
 30
0.0
  3
*Paper_Space0
  1

  0
VIEWPORT
  5
71
102
{ACAD_XDICTIONARY
360
57025
102
}
330
55
100
AcDbEntity
 67
     1
  8
0
100
AcDbViewport
 10
150.1652135264906
 20
101.599997546291
 30
0.0
 40
339.1973820494347
 41
164.5360435314421
 68
     0
 69
     0
 12
150.1652135264906
 22
101.599997546291
 13
0.0
 23
0.0
 14
10.0
 24
10.0
 15
10.0
 25
10.0
 16
0.0
 26
0.0
 36
1.0
 17
0.0
 27
0.0
 37
0.0
 42
50.0
 43
0.0
 44
0.0
 45
164.5360435314421
 50
0.0
 51
0.0
 72
  1000
 90
    32864
  1

281
     0
 71
     1
 74
     0
110
0.0
120
0.0
130
0.0
111
1.0
121
0.0
131
0.0
112
0.0
122
1.0
132
0.0
 79
     0
146
0.0
  0
VIEWPORT
  5
73
102
{ACAD_XDICTIONARY
360
57027
102
}
330
55
100
AcDbEntity
 67
     1
  8
0
100
AcDbViewport
 10
133.3499939441681
 20
101.5999939441681
 30
0.0
 40
213.3599903106689
 41
162.5599903106689
 68
     0
 69
     0
 12
210.0
 22
148.5
 13
0.0
 23
0.0
 14
10.0
 24
10.0
 15
10.0
 25
10.0
 16
0.0
 26
0.0
 36
1.0
 17
0.0
 27
0.0
 37
0.0
 42
50.0
 43
0.0
 44
0.0
 45
324.0677920111345
 50
0.0
 51
0.0
 72
   100
 90
    32864
  1

281
     0
 71
     1
 74
     0
110
0.0
120
0.0
130
0.0
111
1.0
121
0.0
131
0.0
112
0.0
122
1.0
132
0.0
 79
     0
146
0.0
  0
ENDBLK
  5
58
330
55
100
AcDbEntity
 67
     1
  8
0
100
AcDbBlockEnd
  0
BLOCK
  5
68A
330
680
100
AcDbEntity
  8
0
100
AcDbBlockBegin
  2
zero block
 70
     0
 10
0.0
 20
0.0
 30
0.0
  3
zero block
  1

  0
HATCH
  5
3BEAB
330
680
100
AcDbEntity
  8
0
 62
     7
100
AcDbHatch
 10
0.0
 20
0.0
 30
0.0
210
0.0
220
0.0
230
1.0
  2
SOLID
 70
     1
 71
     0
 91
        2
 92
        7
 72
     1
 73
     1
 93
        3
 10
0.0
 20
0.9999999999999875
 42
0.4142135623730915
 10
-1.0
 20
0.0
 42
0.0
 10
0.0
 20
0.0
 42
0.0
 97
        0
 92
        7
 72
     1
 73
     1
 93
        3
 10
1.000000000000007
 20
0.0
 42
0.0
 10
0.0
 20
0.0
 42
0.0
 10
0.0
 20
-1.0
 42
0.4142135623730974
 97
        0
 75
     0
 76
     1
 47
0.0090601366782909
 98
        2
 10
-0.380591363650975
 20
0.4885804701532896
 10
0.4350764810977559
 20
-0.4536738423704725
1001
AcDbBlockRepETag
1070
     1
1071
        0
1005
3BEAB
  0
LINE
  5
3BEAC
330
680
100
AcDbEntity
  8
0
 62
     7
 48
0.2
100
AcDbLine
 10
-1.0
 20
0.0
 30
0.0
 11
1.000000000000007
 21
0.0
 31
0.0
1001
AcDbBlockRepETag
1070
     1
1071
        1
1005
3BEAC
  0
LINE
  5
3BEAD
330
680
100
AcDbEntity
  8
0
 62
     7
 48
0.2
100
AcDbLine
 10
0.0
 20
-1.0
 30
0.0
 11
0.0
 21
0.9999999999999875
 31
0.0
1001
AcDbBlockRepETag
1070
     1
1071
        2
1005
3BEAD
  0
ARC
  5
3BEAE
330
680
100
AcDbEntity
  8
0
 62
     7
 48
0.2
100
AcDbCircle
 10
0.0
 20
0.0
 30
0.0
 40
1.0
100
AcDbArc
 50
270.0
 51
0.0
1001
AcDbBlockRepETag
1070
     1
1071
        3
1005
3BEAE
  0
ARC
  5
3BEAF
330
680
100
AcDbEntity
  8
0
 62
     7
 48
0.2
100
AcDbCircle
 10
0.0
 20
0.0
 30
0.0
 40
1.0
100
AcDbArc
 50
0.0
 51
90.0
1001
AcDbBlockRepETag
1070
     1
1071
        4
1005
3BEAF
  0
ARC
  5
3BEB0
330
680
100
AcDbEntity
  8
0
 62
     7
 48
0.2
100
AcDbCircle
 10
0.0
 20
0.0
 30
0.0
 40
1.0
100
AcDbArc
 50
180.0
 51
270.0
1001
AcDbBlockRepETag
1070
     1
1071
        5
1005
3BEB0
  0
ARC
  5
3BEB1
330
680
100
AcDbEntity
  8
0
 62
     7
 48
0.2
100
AcDbCircle
 10
0.0
 20
0.0
 30
0.0
 40
1.0
100
AcDbArc
 50
90.0
 51
180.0
1001
AcDbBlockRepETag
1070
     1
1071
        6
1005
3BEB1
  0
ENDBLK
  5
68B
330
680
100
AcDbEntity
  8
0
100
AcDbBlockEnd
  0
BLOCK
  5
698
330
697
100
AcDbEntity
  8
0
  6
ByBlock
 62
     0
370
    -2
100
AcDbBlockBegin
  2
_OPEN30
 70
     2
 10
0.0
 20
0.0
 30
0.0
  3
_OPEN30
  1

  0
LINE
  5
699
330
697
100
AcDbEntity
  8
0
  6
ByBlock
 62
     0
370
    -2
100
AcDbLine
 10
-1.0
 20
0.267949
 30
0.0
 11
0.0
 21
0.0
 31
0.0
  0
LINE
  5
69A
330
697
100
AcDbEntity
  8
0
  6
ByBlock
 62
     0
370
    -2
100
AcDbLine
 10
0.0
 20
0.0
 30
0.0
 11
-1.0
 21
-0.267949
 31
0.0
  0
LINE
  5
69B
330
697
100
AcDbEntity
  8
0
  6
ByBlock
 62
     0
370
    -2
100
AcDbLine
 10
0.0
 20
0.0
 30
0.0
 11
-1.0
 21
0.0
 31
0.0
  0
ENDBLK
  5
69C
330
697
100
AcDbEntity
  8
0
  6
ByBlock
 62
     0
370
    -2
100
AcDbBlockEnd
  0
BLOCK
  5
34B2
330
34B1
100
AcDbEntity
  8
0
100
AcDbBlockBegin
  2
_OPEN
 70
     0
 10
0.0
 20
0.0
 30
0.0
  3
_OPEN
  1

  0
LINE
  5
34B3
330
34B1
100
AcDbEntity
  8
0
  6
ByBlock
 62
     0
100
AcDbLine
 10
0.0
 20
0.0
 30
0.0
 11
-1.0
 21
0.1766666667
 31
0.0
  0
LINE
  5
34B4
330
34B1
100
AcDbEntity
  8
0
  6
ByBlock
 62
     0
100
AcDbLine
 10
-1.0
 20
-0.1766666667
 30
0.0
 11
0.0
 21
0.0
 31
0.0
  0
LINE
  5
34B5
330
34B1
100
AcDbEntity
  8
0
  6
ByBlock
 62
     0
100
AcDbLine
 10
-1.0
 20
0.0
 30
0.0
 11
0.0
 21
0.0
 31
0.0
  0
ENDBLK
  5
34B6
330
34B1
100
AcDbEntity
  8
0
  6
ByBlock
 62
     0
100
AcDbBlockEnd
  0
BLOCK
  5
50E70
330
50E6F
100
AcDbEntity
  8
0
100
AcDbBlockBegin
  2
_None
 70
     0
 10
0.0
 20
0.0
 30
0.0
  3
_None
  1

  0
ENDBLK
  5
50E71
330
50E6F
100
AcDbEntity
  8
0
100
AcDbBlockEnd
  0
BLOCK
  5
55A58
330
55A50
100
AcDbEntity
  8
0
100
AcDbBlockBegin
  2
*D10
 70
     1
 10
0.0
 20
0.0
 30
0.0
  3
*D10
  1

  0
LINE
  5
560B3
330
55A50
100
AcDbEntity
  8
2
100
AcDbLine
 10
63.62486910705658
 20
9.52498700000001
 30
0.0
 11
96.07720548977695
 21
9.524986999999999
 31
0.0
  0
LINE
  5
560B4
330
55A50
100
AcDbEntity
  8
2
100
AcDbLine
 10
94.57720548977695
 20
6.024987000000001
 30
0.0
 11
94.57720548977695
 21
-9.525013000000006
 31
0.0
  0
SOLID
  5
560B5
330
55A50
100
AcDbEntity
  8
2
100
AcDbTrace
 10
93.99387215644363
 20
6.024987000000002
 30
0.0
 11
95.16053882311027
 21
6.024987000000001
 31
0.0
 12
94.57720548977695
 22
9.524986999999999
 32
0.0
 13
94.57720548977695
 23
9.524986999999999
 33
0.0
  0
MTEXT
  5
560B6
330
55A50
100
AcDbEntity
  8
2
100
AcDbMText
 10
90.52720548977696
 20
-1.750012999999985
 30
0.0
 40
3.5
 41
0.0
 71
     5
 72
     1
  1
\A1;%%c19.05 [%%c.750"]
  7
simplex
 11
0.0000000000000001
 21
1.0
 31
0.0
 73
     1
 44
1.0
1001
ACAD
1000
MTEXTBEGIN
1070
    73
1070
     1
1070
    44
1040
1.0
1070
    74
1070
     0
1000
MTEXTEND
  0
POINT
  5
560B7
330
55A50
100
AcDbEntity
  8
Defpoints
 62
     0
100
AcDbPoint
 10
63.62486910705658
 20
9.52498700000001
 30
0.0
  0
POINT
  5
560B8
330
55A50
100
AcDbEntity
  8
Defpoints
 62
     0
100
AcDbPoint
 10
77.55398400000001
 20
-9.525012999999999
 30
0.0
  0
POINT
  5
560B9
330
55A50
100
AcDbEntity
  8
Defpoints
 62
     0
100
AcDbPoint
 10
94.57720548977695
 20
-9.525013000000006
 30
0.0
  0
ENDBLK
  5
55A59
330
55A50
100
AcDbEntity
  8
0
100
AcDbBlockEnd
  0
BLOCK
  5
56465
330
5645D
100
AcDbEntity
  8
0
100
AcDbBlockBegin
  2
*D25
 70
     1
 10
0.0
 20
0.0
 30
0.0
  3
*D25
  1

  0
LINE
  5
56D32
330
5645D
100
AcDbEntity
  8
2
100
AcDbLine
 10
71.02497899997695
 20
9.999999998900037
 30
0.0
 11
94.52497899997695
 21
9.99999999890003
 31
0.0
  0
LINE
  5
56D33
330
5645D
100
AcDbEntity
  8
2
100
AcDbLine
 10
93.02497899997694
 20
6.49999999890003
 30
0.0
 11
93.02497899997694
 21
-9.999999999999966
 31
0.0
  0
LINE
  5
56D34
330
5645D
100
AcDbEntity
  8
2
100
AcDbLine
 10
93.02497899997694
 20
-9.999999999999966
 30
0.0
 11
93.02497899997694
 21
-52.51666666666663
 31
0.0
  0
SOLID
  5
56D35
330
5645D
100
AcDbEntity
  8
2
100
AcDbTrace
 10
92.44164566664363
 20
6.49999999890003
 30
0.0
 11
93.60831233331028
 21
6.49999999890003
 31
0.0
 12
93.02497899997694
 22
9.99999999890003
 32
0.0
 13
93.02497899997694
 23
9.99999999890003
 33
0.0
  0
MTEXT
  5
56D36
330
5645D
100
AcDbEntity
  8
2
100
AcDbMText
 10
88.97497899997695
 20
-33.00833333333328
 30
0.0
 40
3.5
 41
0.0
 71
     5
 72
     1
  1
\A1;%%c20 [%%c.787"]
  7
simplex
 11
0.0000000000000001
 21
1.0
 31
0.0
 73
     1
 44
1.0
1001
ACAD
1000
MTEXTBEGIN
1070
    73
1070
     1
1070
    44
1040
1.0
1070
    74
1070
     0
1000
MTEXTEND
  0
POINT
  5
56D37
330
5645D
100
AcDbEntity
  8
Defpoints
 62
     0
100
AcDbPoint
 10
71.02497899997695
 20
9.999999998900037
 30
0.0
  0
POINT
  5
56D38
330
5645D
100
AcDbEntity
  8
Defpoints
 62
     0
100
AcDbPoint
 10
63.02497899997695
 20
-9.999999999999957
 30
0.0
  0
POINT
  5
56D39
330
5645D
100
AcDbEntity
  8
Defpoints
 62
     0
100
AcDbPoint
 10
93.02497899997694
 20
-9.999999999999966
 30
0.0
  0
ENDBLK
  5
56466
330
5645D
100
AcDbEntity
  8
0
100
AcDbBlockEnd
  0
BLOCK
  5
56491
330
56489
100
AcDbEntity
  8
0
100
AcDbBlockBegin
  2
*D28
 70
     1
 10
0.0
 20
0.0
 30
0.0
  3
*D28
  1

  0
LINE
  5
56CA9
330
56489
100
AcDbEntity
  8
2
100
AcDbLine
 10
110.9989165375415
 20
34.39283635190931
 30
0.0
 11
75.60352915941121
 21
10.83793247189882
 31
0.0
  0
MTEXT
  5
56CAA
330
56489
100
AcDbEntity
  8
2
100
AcDbMText
 10
92.51434477394136
 20
26.95656200511722
 30
0.0
 40
3.5
 41
0.0
 71
     5
 72
     1
  1
\A1;R2 [R.0787"]
  7
simplex
 11
0.8325061711829958
 21
0.5540157713840179
 31
0.0
 73
     1
 44
1.0
1001
ACAD
1000
MTEXTBEGIN
1070
    73
1070
     1
1070
    44
1040
1.0
1070
    74
1070
     0
1000
MTEXTEND
  0
SOLID
  5
56CAB
330
56489
100
AcDbEntity
  8
2
100
AcDbTrace
 10
75.28035329277052
 20
11.32356107175557
 30
0.0
 11
75.92670502605187
 21
10.35230387204207
 31
0.0
 12
72.68975756027072
 22
8.898877272054757
 32
0.0
 13
72.68975756027072
 23
8.898877272054757
 33
0.0
  0
LINE
  5
56CAC
330
56489
100
AcDbEntity
  8
2
100
AcDbLine
 10
70.93474521790486
 20
7.7908457292868
 30
0.0
 11
71.11474521790487
 21
7.790845729286804
 31
0.0
  0
LINE
  5
56CAD
330
56489
100
AcDbEntity
  8
2
100
AcDbLine
 10
71.02474521790487
 20
7.700845729286811
 30
0.0
 11
71.02474521790487
 21
7.8808457292868
 31
0.0
  0
POINT
  5
56CAE
330
56489
100
AcDbEntity
  8
Defpoints
 62
     0
100
AcDbPoint
 10
72.68975756027072
 20
8.898877272054757
 30
0.0
  0
POINT
  5
56CAF
330
56489
100
AcDbEntity
  8
Defpoints
 62
     0
100
AcDbPoint
 10
71.02474521790487
 20
7.790845729286804
 30
0.0
  0
ENDBLK
  5
56492
330
56489
100
AcDbEntity
  8
0
100
AcDbBlockEnd
  0
BLOCK
  5
56621
330
56617
100
AcDbEntity
  8
0
100
AcDbBlockBegin
  2
*D36
 70
     1
 10
0.0
 20
0.0
 30
0.0
  3
*D36
  1

  0
LINE
  5
566AB
330
56617
100
AcDbEntity
  8
sk2
100
AcDbLine
 10
-79.375
 20
11.50003100000003
 30
0.0
 11
-79.375
 21
61.70131323240454
 31
0.0
  0
LINE
  5
566AC
330
56617
100
AcDbEntity
  8
sk2
100
AcDbLine
 10
73.02500000000003
 20
7.992124326932753
 30
0.0
 11
73.02500000000003
 21
61.70131323240454
 31
0.0
  0
LINE
  5
566AD
330
56617
100
AcDbEntity
  8
sk2
100
AcDbLine
 10
-75.875
 20
60.20131323240454
 30
0.0
 11
69.52500000000004
 21
60.20131323240454
 31
0.0
  0
SOLID
  5
566AE
330
56617
100
AcDbEntity
  8
sk2
100
AcDbTrace
 10
-75.875
 20
60.78464656573788
 30
0.0
 11
-75.875
 21
59.61797989907121
 31
0.0
 12
-79.375
 22
60.20131323240454
 32
0.0
 13
-79.375
 23
60.20131323240454
 33
0.0
  0
SOLID
  5
566AF
330
56617
100
AcDbEntity
  8
sk2
100
AcDbTrace
 10
69.52500000000004
 20
60.78464656573788
 30
0.0
 11
69.52500000000004
 21
59.61797989907121
 31
0.0
 12
73.02500000000003
 22
60.20131323240454
 32
0.0
 13
73.02500000000003
 23
60.20131323240454
 33
0.0
  0
MTEXT
  5
566B0
330
56617
100
AcDbEntity
  8
sk2
100
AcDbMText
 10
-10.79008475328237
 20
64.25131323240454
 30
0.0
 40
3.5
 41
0.0
 71
     5
 72
     1
  1
\A1;152.4 [6.000"]
  7
simplex
 73
     1
 44
0.892857
1001
ACAD
1000
MTEXTBEGIN
1070
    73
1070
     1
1070
    44
1040
0.892857
1070
    74
1070
     0
1000
MTEXTEND
  0
POINT
  5
566B1
330
56617
100
AcDbEntity
  8
Defpoints
 62
     0
100
AcDbPoint
 10
-79.375
 20
11.50003100000003
 30
0.0
  0
POINT
  5
566B2
330
56617
100
AcDbEntity
  8
Defpoints
 62
     0
100
AcDbPoint
 10
73.02500000000003
 20
7.992124326932753
 30
0.0
  0
POINT
  5
566B3
330
56617
100
AcDbEntity
  8
Defpoints
 62
     0
100
AcDbPoint
 10
73.02500000000003
 20
60.20131323240454
 30
0.0
  0
ENDBLK
  5
56622
330
56617
100
AcDbEntity
  8
0
100
AcDbBlockEnd
  0
BLOCK
  5
5662D
330
56623
100
AcDbEntity
  8
0
100
AcDbBlockBegin
  2
*D37
 70
     1
 10
0.0
 20
0.0
 30
0.0
  3
*D37
  1

  0
LINE
  5
566B4
330
56623
100
AcDbEntity
  8
2
100
AcDbLine
 10
73.02500000000003
 20
7.992124326932753
 30
0.0
 11
73.02500000000003
 21
46.463231307365
 31
0.0
  0
LINE
  5
566B5
330
56623
100
AcDbEntity
  8
2
100
AcDbLine
 10
0.0
 20
0.0
 30
0.0
 11
0.0000000000000028
 21
46.463231307365
 31
0.0
  0
LINE
  5
566B6
330
56623
100
AcDbEntity
  8
2
100
AcDbLine
 10
69.52500000000004
 20
44.96323130736501
 30
0.0
 11
3.500000000000002
 21
44.96323130736501
 31
0.0
  0
SOLID
  5
566B7
330
56623
100
AcDbEntity
  8
2
100
AcDbTrace
 10
69.52500000000004
 20
45.54656464069834
 30
0.0
 11
69.52500000000004
 21
44.37989797403167
 31
0.0
 12
73.02500000000003
 22
44.96323130736501
 32
0.0
 13
73.02500000000003
 23
44.96323130736501
 33
0.0
  0
SOLID
  5
566B8
330
56623
100
AcDbEntity
  8
2
100
AcDbTrace
 10
3.500000000000002
 20
45.54656464069834
 30
0.0
 11
3.500000000000002
 21
44.37989797403167
 31
0.0
 12
0.0000000000000028
 22
44.96323130736501
 32
0.0
 13
0.0000000000000028
 23
44.96323130736501
 33
0.0
  0
MTEXT
  5
566B9
330
56623
100
AcDbEntity
  8
2
100
AcDbMText
 10
35.58000976752396
 20
49.013231307365
 30
0.0
 40
3.5
 41
0.0
 71
     5
 72
     1
  1
\A1;73.025 [2.875"]
  7
simplex
 73
     1
 44
0.892857
1001
ACAD
1000
MTEXTBEGIN
1070
    73
1070
     1
1070
    44
1040
0.892857
1070
    74
1070
     0
1000
MTEXTEND
  0
POINT
  5
566BA
330
56623
100
AcDbEntity
  8
Defpoints
 62
     0
100
AcDbPoint
 10
73.02500000000003
 20
7.992124326932753
 30
0.0
  0
POINT
  5
566BB
330
56623
100
AcDbEntity
  8
Defpoints
 62
     0
100
AcDbPoint
 10
0.0
 20
0.0
 30
0.0
  0
POINT
  5
566BC
330
56623
100
AcDbEntity
  8
Defpoints
 62
     0
100
AcDbPoint
 10
0.0000000000000028
 20
44.96323130736501
 30
0.0
  0
ENDBLK
  5
5662E
330
56623
100
AcDbEntity
  8
0
100
AcDbBlockEnd
  0
BLOCK
  5
5663A
330
5662F
100
AcDbEntity
  8
0
100
AcDbBlockBegin
  2
*D38
 70
     1
 10
0.0
 20
0.0
 30
0.0
  3
*D38
  1

  0
LINE
  5
566BD
330
5662F
100
AcDbEntity
  8
sk2
100
AcDbLine
 10
-78.17498799999999
 20
-12.69999999999999
 30
0.0
 11
-102.0902099999999
 21
-12.69999999999998
 31
0.0
  0
LINE
  5
566BE
330
5662F
100
AcDbEntity
  8
sk2
100
AcDbLine
 10
-78.17498799999999
 20
12.69999999999999
 30
0.0
 11
-102.0902099999999
 21
12.69999999999999
 31
0.0
  0
LINE
  5
566BF
330
5662F
100
AcDbEntity
  8
sk2
100
AcDbLine
 10
-100.5902099999999
 20
9.199999999999995
 30
0.0
 11
-100.5902099999999
 21
-9.199999999999981
 31
0.0
  0
LINE
  5
566C0
330
5662F
100
AcDbEntity
  8
sk2
100
AcDbLine
 10
-100.5902099999999
 20
-12.69999999999998
 30
0.0
 11
-100.5902099999999
 21
-61.05000000000004
 31
0.0
  0
SOLID
  5
566C1
330
5662F
100
AcDbEntity
  8
sk2
100
AcDbTrace
 10
-101.1735433333332
 20
9.199999999999995
 30
0.0
 11
-100.0068766666665
 21
9.199999999999995
 31
0.0
 12
-100.5902099999999
 22
12.69999999999999
 32
0.0
 13
-100.5902099999999
 23
12.69999999999999
 33
0.0
  0
SOLID
  5
566C2
330
5662F
100
AcDbEntity
  8
sk2
100
AcDbTrace
 10
-101.1735433333332
 20
-9.199999999999981
 30
0.0
 11
-100.0068766666665
 21
-9.199999999999981
 31
0.0
 12
-100.5902099999999
 22
-12.69999999999998
 32
0.0
 13
-100.5902099999999
 23
-12.69999999999998
 33
0.0
  0
MTEXT
  5
566C3
330
5662F
100
AcDbEntity
  8
sk2
100
AcDbMText
 10
-104.6402099999999
 20
-38.62500000000006
 30
0.0
 40
3.5
 41
0.0
 71
     5
 72
     1
  1
\A1;%%C25.4 [%%C1.000"]
  7
simplex
 11
0.0000000000000001
 21
1.0
 31
0.0
 73
     1
 44
0.892857
1001
ACAD
1000
MTEXTBEGIN
1070
    73
1070
     1
1070
    44
1040
0.892857
1070
    74
1070
     0
1000
MTEXTEND
  0
POINT
  5
566C4
330
5662F
100
AcDbEntity
  8
Defpoints
 62
     0
100
AcDbPoint
 10
-78.17498799999999
 20
-12.69999999999999
 30
0.0
  0
POINT
  5
566C5
330
5662F
100
AcDbEntity
  8
Defpoints
 62
     0
100
AcDbPoint
 10
-78.17498799999999
 20
12.69999999999999
 30
0.0
  0
POINT
  5
566C6
330
5662F
100
AcDbEntity
  8
Defpoints
 62
     0
100
AcDbPoint
 10
-100.5902099999999
 20
12.69999999999999
 30
0.0
  0
ENDBLK
  5
5663B
330
5662F
100
AcDbEntity
  8
0
100
AcDbBlockEnd
  0
BLOCK
  5
56647
330
5663C
100
AcDbEntity
  8
0
100
AcDbBlockBegin
  2
*D39
 70
     1
 10
0.0
 20
0.0
 30
0.0
  3
*D39
  1

  0
LINE
  5
566C7
330
5663C
100
AcDbEntity
  8
2
100
AcDbLine
 10
73.02500000000003
 20
7.992124326932753
 30
0.0
 11
73.02500000000003
 21
30.62762372841077
 31
0.0
  0
LINE
  5
566C8
330
5663C
100
AcDbEntity
  8
2
100
AcDbLine
 10
49.02500000000009
 20
9.300015499999972
 30
0.0
 11
49.02500000000009
 21
30.62762372841077
 31
0.0
  0
LINE
  5
566C9
330
5663C
100
AcDbEntity
  8
2
100
AcDbLine
 10
69.52500000000004
 20
29.12762372841077
 30
0.0
 11
52.52500000000009
 21
29.12762372841077
 31
0.0
  0
LINE
  5
566CA
330
5663C
100
AcDbEntity
  8
2
100
AcDbLine
 10
49.02500000000009
 20
29.12762372841077
 30
0.0
 11
12.92500000000009
 21
29.12762372841077
 31
0.0
  0
SOLID
  5
566CB
330
5663C
100
AcDbEntity
  8
2
100
AcDbTrace
 10
69.52500000000004
 20
29.7109570617441
 30
0.0
 11
69.52500000000004
 21
28.54429039507744
 31
0.0
 12
73.02500000000003
 22
29.12762372841077
 32
0.0
 13
73.02500000000003
 23
29.12762372841077
 33
0.0
  0
SOLID
  5
566CC
330
5663C
100
AcDbEntity
  8
2
100
AcDbTrace
 10
52.52500000000009
 20
29.7109570617441
 30
0.0
 11
52.52500000000009
 21
28.54429039507744
 31
0.0
 12
49.02500000000009
 22
29.12762372841077
 32
0.0
 13
49.02500000000009
 23
29.12762372841077
 33
0.0
  0
MTEXT
  5
566CD
330
5663C
100
AcDbEntity
  8
2
100
AcDbMText
 10
29.2250000000001
 20
33.17762372841077
 30
0.0
 40
3.5
 41
0.0
 71
     5
 72
     1
  1
\A1;24 [.945"]
  7
simplex
 73
     1
 44
1.0
1001
ACAD
1000
MTEXTBEGIN
1070
    73
1070
     1
1070
    44
1040
1.0
1070
    74
1070
     0
1000
MTEXTEND
  0
POINT
  5
566CE
330
5663C
100
AcDbEntity
  8
Defpoints
 62
     0
100
AcDbPoint
 10
73.02500000000003
 20
7.992124326932753
 30
0.0
  0
POINT
  5
566CF
330
5663C
100
AcDbEntity
  8
Defpoints
 62
     0
100
AcDbPoint
 10
49.02500000000009
 20
9.300015499999972
 30
0.0
  0
POINT
  5
566D0
330
5663C
100
AcDbEntity
  8
Defpoints
 62
     0
100
AcDbPoint
 10
49.02500000000009
 20
29.12762372841077
 30
0.0
  0
ENDBLK
  5
56648
330
5663C
100
AcDbEntity
  8
0
100
AcDbBlockEnd
  0
BLOCK
  5
56654
330
56649
100
AcDbEntity
  8
0
100
AcDbBlockBegin
  2
*D40
 70
     1
 10
0.0
 20
0.0
 30
0.0
  3
*D40
  1

  0
LINE
  5
566D1
330
56649
100
AcDbEntity
  8
2
100
AcDbLine
 10
49.02499399999999
 20
-9.29998450000005
 30
0.0
 11
30.24269468978616
 21
-9.299984500000045
 31
0.0
  0
LINE
  5
566D2
330
56649
100
AcDbEntity
  8
2
100
AcDbLine
 10
49.02500000000009
 20
9.300015499999972
 30
0.0
 11
30.24269468978617
 21
9.300015499999977
 31
0.0
  0
LINE
  5
566D3
330
56649
100
AcDbEntity
  8
2
100
AcDbLine
 10
31.74269468978617
 20
5.800015499999977
 30
0.0
 11
31.74269468978617
 21
-5.799984500000045
 31
0.0
  0
LINE
  5
566D4
330
56649
100
AcDbEntity
  8
2
100
AcDbLine
 10
31.74269468978617
 20
-9.299984500000045
 30
0.0
 11
31.74269468978616
 21
-55.89998450000006
 31
0.0
  0
SOLID
  5
566D5
330
56649
100
AcDbEntity
  8
2
100
AcDbTrace
 10
31.15936135645283
 20
5.800015499999977
 30
0.0
 11
32.3260280231195
 21
5.800015499999977
 31
0.0
 12
31.74269468978617
 22
9.300015499999977
 32
0.0
 13
31.74269468978617
 23
9.300015499999977
 33
0.0
  0
SOLID
  5
566D6
330
56649
100
AcDbEntity
  8
2
100
AcDbTrace
 10
31.15936135645283
 20
-5.799984500000045
 30
0.0
 11
32.3260280231195
 21
-5.799984500000045
 31
0.0
 12
31.74269468978617
 22
-9.299984500000045
 32
0.0
 13
31.74269468978617
 23
-9.299984500000045
 33
0.0
  0
MTEXT
  5
566D7
330
56649
100
AcDbEntity
  8
2
100
AcDbMText
 10
27.69269468978617
 20
-34.34998450000005
 30
0.0
 40
3.5
 41
0.0
 71
     5
 72
     1
  1
\A1;%%c18.6 [%%C.732"]
  7
simplex
 11
0.0000000000000001
 21
1.0
 31
0.0
 73
     1
 44
1.0
1001
ACAD
1000
MTEXTBEGIN
1070
    73
1070
     1
1070
    44
1040
1.0
1070
    74
1070
     0
1000
MTEXTEND
  0
POINT
  5
566D8
330
56649
100
AcDbEntity
  8
Defpoints
 62
     0
100
AcDbPoint
 10
49.02499399999999
 20
-9.29998450000005
 30
0.0
  0
POINT
  5
566D9
330
56649
100
AcDbEntity
  8
Defpoints
 62
     0
100
AcDbPoint
 10
49.02500000000009
 20
9.300015499999972
 30
0.0
  0
POINT
  5
566DA
330
56649
100
AcDbEntity
  8
Defpoints
 62
     0
100
AcDbPoint
 10
31.74269468978617
 20
9.300015499999977
 30
0.0
  0
ENDBLK
  5
56655
330
56649
100
AcDbEntity
  8
0
100
AcDbBlockEnd
  0
ENDSEC
  0
SECTION
  2
ENTITIES
  0
INSERT
  5
68C
330
1F
100
AcDbEntity
  8
0
100
AcDbBlockReference
  2
zero block
 10
0.0
 20
0.0
 30
0.0
  0
MTEXT
  5
55BF4
330
1F
100
AcDbEntity
  8
sk6
100
AcDbMText
 10
-78.43025320393848
 20
95.85346451126588
 30
0.0
 40
5.0
 41
70.03712541027798
 71
     1
 72
     5
  1
SRFU12S16M\PSUFT20R20
  7
simplex
 73
     1
 44
1.0
1001
ACAD
1000
ACAD_MTEXT_DEFINED_HEIGHT_BEGIN
1070
    46
1040
0.0
1000
ACAD_MTEXT_DEFINED_HEIGHT_END
1000
MTEXTBEGIN
1070
    73
1070
     1
1070
    44
1040
1.0
1070
    74
1070
     0
1000
MTEXTEND
  0
DIMENSION
  5
562C2
330
1F
100
AcDbEntity
  8
2
100
AcDbDimension
  2
*D25
 10
93.02497899997694
 20
-9.999999999999966
 30
0.0
 11
88.97497899997695
 21
-33.00833333333328
 31
0.0
 70
    32
  1
%%c<>
 71
     5
 42
19.99999999889999
  3
\M+18352\M+18373\M+1815B - ISO-25
100
AcDbAlignedDimension
 13
71.02497899997695
 23
9.999999998900037
 33
0.0
 14
63.02497899997695
 24
-9.999999999999957
 34
0.0
 50
270.0
100
AcDbRotatedDimension
1001
ACAD
1000
DSTYLE
1002
{
1070
    76
1070
     1
1070
   344
1005
50E6F
1070
     4
1000
%%c[]"
1070
    40
1040
1.0
1070
    75
1070
     0
1070
   143
1040
0.03937
1070
   170
1070
     1
1070
   171
1070
     3
1070
   173
1070
     1
1070
   271
1070
     8
1070
   285
1070
     4
1070
   343
1005
0
1002
}
  0
SPLINE
  5
562C3
330
1F
100
AcDbEntity
  8
1
100
AcDbSpline
210
0.0
220
0.0
230
1.0
 70
     8
 71
     3
 72
    14
 73
    10
 74
     8
 42
0.0000000001
 43
0.0000000001
 44
0.000001
 12
0.0506334837042103
 22
-0.9987173025075591
 32
0.0
 13
0.0557805924395193
 23
-0.9984430507079991
 33
0.0
 40
0.0
 40
0.0
 40
0.0
 40
0.0
 40
0.0573501914590615
 40
0.1102663095490641
 40
0.1623615261918132
 40
0.2140997768049132
 40
0.2658390888234538
 40
0.318298280189953
 40
0.3722868905523341
 40
0.3722868905523341
 40
0.3722868905523341
 40
0.3722868905523341
 10
72.89774250966331
 20
-4.747355095500509
 30
0.0
 10
72.89871045632486
 20
-4.766447305004632
 30
0.0
 10
72.90058723247136
 20
-4.803154799291988
 30
0.0
 10
72.90338715916732
 20
-4.857202836313021
 30
0.0
 10
72.90613078429498
 20
-4.909380620775081
 30
0.0
 10
72.90889600138536
 20
-4.961164441759635
 30
0.0
 10
72.91170896060521
 20
-5.013067194417814
 30
0.0
 10
72.91460093546191
 20
-5.065716869195611
 30
0.0
 10
72.91656698207299
 20
-5.101144962622626
 30
0.0
 10
72.91757082096331
 20
-5.119113146900517
 30
0.0
 11
72.89774250966331
 21
-4.747355095500509
 31
0.0
 11
72.90066840356326
 21
-4.80463060450053
 31
0.0
 11
72.90340720256324
 21
-4.857475798300541
 31
0.0
 11
72.90614312196328
 21
-4.909499123600497
 31
0.0
 11
72.90890183086332
 21
-4.961163774500519
 31
0.0
 11
72.91170121606331
 21
-5.012827300400502
 31
0.0
 11
72.91457682606335
 21
-5.065207618100473
 31
0.0
 11
72.91757082096331
 21
-5.119113146900517
 31
0.0
  0
SPLINE
  5
562C4
330
1F
100
AcDbEntity
  8
1
100
AcDbSpline
210
0.0
220
0.0
230
1.0
 70
     8
 71
     3
 72
    21
 73
    17
 74
    15
 42
0.0000000001
 43
0.0000000001
 44
0.000001
 12
0.0511078688581111
 22
-0.9986931389274595
 32
0.0
 13
0.0551810176571189
 23
-0.9984763669162756
 33
0.0
 40
0.0
 40
0.0
 40
0.0
 40
0.0
 40
0.0415683516765957
 40
0.0832511107815437
 40
0.1248411935694014
 40
0.166182299776781
 40
0.2073536043359488
 40
0.2488506702005814
 40
0.2906688272927107
 40
0.3313998396280374
 40
0.3713994895712666
 40
0.4141705428455203
 40
0.461085103863969
 40
0.5130193503344459
 40
0.5708153131043244
 40
0.63538964878329
 40
0.63538964878329
 40
0.63538964878329
 40
0.63538964878329
 10
72.91757082096331
 20
-5.119113146900517
 30
0.0
 10
72.91827897758537
 20
-5.132951156105846
 30
0.0
 10
72.91970079339643
 20
-5.160665079243713
 30
0.0
 10
72.92185177678994
 20
-5.202223182950987
 30
0.0
 10
72.92401112018808
 20
-5.24370500163728
 30
0.0
 10
72.92617284167301
 20
-5.285015979275001
 30
0.0
 10
72.92834146719229
 20
-5.326295546531369
 30
0.0
 10
72.93052703748236
 20
-5.367733459010324
 30
0.0
 10
72.93271392853682
 20
-5.409024332787353
 30
0.0
 10
72.93488359331866
 20
-5.449816279673555
 30
0.0
 10
72.93707949093402
 20
-5.490924911255277
 30
0.0
 10
72.93939576573325
 20
-5.534091232940383
 30
0.0
 10
72.94193791355986
 20
-5.58122935493715
 30
0.0
 10
72.94476611856072
 20
-5.633367628518257
 30
0.0
 10
72.94793294673024
 20
-5.691382776825108
 30
0.0
 10
72.9501760272775
 20
-5.732111157005576
 30
0.0
 10
72.95136378646327
 20
-5.753603139700501
 30
0.0
 11
72.91757082096331
 21
-5.119113146900517
 31
0.0
 11
72.9197029746632
 21
-5.160626780600509
 31
0.0
 11
72.92185642756328
 21
-5.202253875400529
 31
0.0
 11
72.92401832236328
 21
-5.243787731200498
 31
0.0
 11
72.92617822186333
 21
-5.28507237580051
 31
0.0
 11
72.9283381859633
 21
-5.326186982200496
 31
0.0
 11
72.9305239068633
 21
-5.367626445100469
 31
0.0
 11
72.93273567876326
 21
-5.409386070500502
 31
0.0
 11
72.93489909816333
 21
-5.450059587300543
 31
0.0
 11
72.9370327680632
 21
-5.490002289200518
 31
0.0
 11
72.93932458916322
 21
-5.532711896300511
 31
0.0
 11
72.94185113066328
 21
-5.579558375400509
 31
0.0
 11
72.94466407346329
 21
-5.631416386200513
 31
0.0
 11
72.94781521296306
 21
-5.689126381900521
 31
0.0
 11
72.95136378646327
 21
-5.753603139700501
 31
0.0
  0
SPLINE
  5
562C5
330
1F
100
AcDbEntity
  8
1
100
AcDbSpline
210
0.0
220
0.0
230
1.0
 70
     8
 71
     3
 72
    14
 73
    10
 74
     8
 42
0.0000000001
 43
0.0000000001
 44
0.000001
 12
0.0505181688986341
 22
-0.998723142122545
 32
0.0
 13
0.0534636888484701
 23
-0.9985697942431034
 33
0.0
 40
0.0
 40
0.0
 40
0.0
 40
0.0
 40
0.0881924567879491
 40
0.1785507381501324
 40
0.2704015820190617
 40
0.3631240271482183
 40
0.4553680577226046
 40
0.5468025426730849
 40
0.6377289465635038
 40
0.6377289465635038
 40
0.6377289465635038
 40
0.6377289465635038
 10
72.95136378646327
 20
-5.753603139700501
 30
0.0
 10
72.95284889360579
 20
-5.782963088885409
 30
0.0
 10
72.9558799824847
 20
-5.842402773853464
 30
0.0
 10
72.96053370987289
 20
-5.932416423911561
 30
0.0
 10
72.9653475080284
 20
-6.023933780670816
 30
0.0
 10
72.97028080222907
 20
-6.116074256924619
 30
0.0
 10
72.97525085613745
 20
-6.208073760694006
 30
0.0
 10
72.9801995097315
 20
-6.299474867800185
 30
0.0
 10
72.98345608864138
 20
-6.360174536925811
 30
0.0
 10
72.98507650896329
 20
-6.390439990400537
 30
0.0
 11
72.95136378646327
 21
-5.753603139700501
 31
0.0
 11
72.9558524260633
 21
-5.841681299600494
 31
0.0
 11
72.96052040586335
 21
-5.931918924600566
 31
0.0
 11
72.96534552806327
 21
-6.023642944200517
 31
0.0
 11
72.97029575936324
 21
-6.116233155000529
 31
0.0
 11
72.97526625236321
 21
-6.208343173400507
 31
0.0
 11
72.9802001897633
 21
-6.299644443700529
 31
0.0
 11
72.98507650896329
 21
-6.390439990400537
 31
0.0
  0
SPLINE
  5
562C6
330
1F
100
AcDbEntity
  8
1
100
AcDbSpline
210
0.0
220
0.0
230
1.0
 70
     8
 71
     3
 72
    16
 73
    12
 74
    10
 42
0.0000000001
 43
0.0000000001
 44
0.000001
 12
0.0482150813204129
 22
-0.9988369766549826
 32
0.0
 13
0.0465816941588105
 23
-0.9989144837118415
 33
0.0
 40
0.0
 40
0.0
 40
0.0
 40
0.0
 40
0.0934047751872859
 40
0.1846952751433357
 40
0.270969547143527
 40
0.3494597662359943
 40
0.419570843644986
 40
0.4824303558567403
 40
0.539064916025631
 40
0.5903807594740333
 40
0.6373488984060756
 40
0.6373488984060756
 40
0.6373488984060756
 40
0.6373488984060756
 10
72.98507650896329
 20
-6.390439990400537
 30
0.0
 10
72.98657768190707
 20
-6.421538704818246
 30
0.0
 10
72.98959243798652
 20
-6.483029943916037
 30
0.0
 10
72.99407906138629
 20
-6.573241668657757
 30
0.0
 10
72.99855552855195
 20
-6.658476014030682
 30
0.0
 10
73.00295928870889
 20
-6.73664419458008
 30
0.0
 10
73.00723192118107
 20
-6.807001603774935
 30
0.0
 10
73.01109340869061
 20
-6.870085236266575
 30
0.0
 10
73.01444624626038
 20
-6.926923150015355
 30
0.0
 10
73.01728332525005
 20
-6.978484901016102
 30
0.0
 10
73.01888799990218
 20
-7.011207104683123
 30
0.0
 10
73.01961728506319
 20
-7.026846156100546
 30
0.0
 11
72.98507650896329
 21
-6.390439990400537
 31
0.0
 11
72.98963704176333
 21
-6.483733368800542
 31
0.0
 11
72.99420452406332
 21
-6.574909536200564
 31
0.0
 11
72.99874784606322
 21
-6.661064096700513
 31
0.0
 11
73.00317575566328
 21
-6.739429319300555
 31
0.0
 11
73.00738338066333
 21
-6.809414024200506
 31
0.0
 11
73.01119482036336
 21
-6.872157875900555
 31
0.0
 11
73.01451055616325
 21
-6.928695287700506
 31
0.0
 11
73.01730872466328
 21
-6.979934779300563
 31
0.0
 11
73.01961728506319
 21
-7.026846156100546
 31
0.0
  0
SPLINE
  5
562C7
330
1F
100
AcDbEntity
  8
1
100
AcDbSpline
210
0.0
220
0.0
230
1.0
 70
     8
 71
     3
 72
    32
 73
    28
 74
    26
 42
0.0000000001
 43
0.0000000001
 44
0.000001
 12
0.0416878758996551
 22
-0.9991306826451557
 32
0.0
 13
0.0019987911344949
 23
-0.9999980024150051
 33
0.0
 40
0.0
 40
0.0
 40
0.0
 40
0.0
 40
0.0253133319661957
 40
0.0509427929948313
 40
0.0764004652371742
 40
0.10124017668111
 40
0.1250533978001991
 40
0.1475424225628823
 40
0.1687766574405858
 40
0.1893683020126223
 40
0.2098316069471412
 40
0.2303177311687376
 40
0.250825744739803
 40
0.2711925831334577
 40
0.2913544538676666
 40
0.311478089731511
 40
0.3316522802766872
 40
0.3518362433463444
 40
0.37234436804622
 40
0.3939907504043677
 40
0.4175913240086608
 40
0.4437149185543507
 40
0.4726668127186145
 40
0.5047461785271836
 40
0.5402520825516853
 40
0.5794833583851489
 40
0.622738904741389
 40
0.622738904741389
 40
0.622738904741389
 40
0.622738904741389
 10
73.01961728506319
 20
-7.026846156100546
 30
0.0
 10
73.01996903807708
 20
-7.035276598316343
 30
0.0
 10
73.0206419134139
 20
-7.052244240454271
 30
0.0
 10
73.02155734589621
 20
-7.077694668317789
 30
0.0
 10
73.02235581137813
 20
-7.102991107749559
 30
0.0
 10
73.02302348479873
 20
-7.12768570005339
 30
0.0
 10
73.02356120553838
 20
-7.151393660080074
 30
0.0
 10
73.02397813938444
 20
-7.173902022216438
 30
0.0
 10
73.02428962073197
 20
-7.195338111669471
 30
0.0
 10
73.02451458071255
 20
-7.216100003653778
 30
0.0
 10
73.02465573964849
 20
-7.236613264392005
 30
0.0
 10
73.02471519025454
 20
-7.257099045082966
 30
0.0
 10
73.02470354140968
 20
-7.277552719707742
 30
0.0
 10
73.02466861536686
 20
-7.297898262172779
 30
0.0
 10
73.02465569578846
 20
-7.318115711242015
 30
0.0
 10
73.02465881499
 20
-7.338268943589426
 30
0.0
 10
73.02466414909742
 20
-7.358429539379287
 30
0.0
 10
73.02466627717888
 20
-7.378718298744203
 30
0.0
 10
73.02466971308445
 20
-7.399497788562385
 30
0.0
 10
73.02467793511778
 20
-7.421416147423443
 30
0.0
 10
73.0246914725517
 20
-7.445206327177331
 30
0.0
 10
73.0247101848986
 20
-7.471431674693675
 30
0.0
 10
73.02473569748582
 20
-7.500483281846342
 30
0.0
 10
73.02477083059267
 20
-7.532662317578555
 30
0.0
 10
73.02481767547181
 20
-7.568267802383857
 30
0.0
 10
73.02487990174348
 20
-7.607598662194234
 30
0.0
 10
73.02492939456249
 20
-7.635094225550645
 30
0.0
 10
73.02495821416335
 20
-7.649512712200518
 30
0.0
 11
73.01961728506319
 21
-7.026846156100546
 31
0.0
 11
73.0206233102632
 21
-7.052139583100554
 31
0.0
 11
73.02154155596326
 21
-7.077752591100519
 31
0.0
 11
73.02234388816327
 21
-7.103197632000515
 31
0.0
 11
73.02301532986337
 21
-7.128028293100513
 31
0.0
 11
73.02355524256324
 21
-7.151835436700523
 31
0.0
 11
73.02397146836336
 21
-7.174320704500516
 31
0.0
 11
73.02428024516325
 21
-7.19555306980051
 31
0.0
 11
73.02450057126327
 21
-7.216143408600558
 31
0.0
 11
73.02464114236329
 21
-7.236605916300518
 31
0.0
 11
73.02470232816324
 21
-7.257091865300552
 31
0.0
 11
73.02469858286326
 21
-7.277599842800512
 31
0.0
 11
73.0246711760633
 21
-7.297966646000517
 31
0.0
 11
73.02465735876331
 21
-7.318128504100528
 31
0.0
 11
73.02465818116331
 21
-7.338252135700557
 31
0.0
 11
73.02466261226334
 21
-7.358426322900513
 31
0.0
 11
73.0246654683632
 21
-7.37861028350052
 31
0.0
 11
73.02466934866322
 21
-7.399118406000539
 31
0.0
 11
73.02467736076335
 21
-7.420764785400521
 31
0.0
 11
73.02469053406333
 21
-7.444365354100526
 31
0.0
 11
73.02470919286327
 21
-7.470488940900523
 31
0.0
 11
73.02473476046327
 21
-7.499440822800536
 31
0.0
 11
73.0247697202633
 21
-7.531520168700509
 31
0.0
 11
73.02481654036331
 21
-7.567026041100533
 31
0.0
 11
73.02487813516325
 21
-7.606257267900517
 31
0.0
 11
73.02495821416335
 21
-7.649512712200518
 31
0.0
  0
SPLINE
  5
562C8
330
1F
100
AcDbEntity
  8
1
100
AcDbSpline
210
0.0
220
0.0
230
1.0
 70
     8
 71
     3
 72
    20
 73
    16
 74
    14
 42
0.0000000001
 43
0.0000000001
 44
0.000001
 12
-0.0705500074041531
 22
-0.9975082438031648
 32
0.0
 13
-0.2048092514259854
 23
-0.9788019056634123
 33
0.0
 40
0.0
 40
0.0
 40
0.0
 40
0.0
 40
0.0212122497786227
 40
0.0424244089386515
 40
0.0636342518070033
 40
0.084841415904401
 40
0.1060437011342754
 40
0.1272402104853105
 40
0.1484307849998468
 40
0.1696148689705712
 40
0.1907933407181814
 40
0.2119669497222543
 40
0.2331364766532164
 40
0.2543034182839094
 40
0.2754685412008561
 40
0.2754685412008561
 40
0.2754685412008561
 40
0.2754685412008561
 10
73.01984038586329
 20
-7.839938075500541
 30
0.0
 10
73.01934154440363
 20
-7.846991206841792
 30
0.0
 10
73.0182702193348
 20
-7.861092342055215
 30
0.0
 10
73.01644268892454
 20
-7.882225252410918
 30
0.0
 10
73.01439483331773
 20
-7.90333627104151
 30
0.0
 10
73.01212763248987
 20
-7.924421543150188
 30
0.0
 10
73.00964131069247
 20
-7.945477628859109
 30
0.0
 10
73.00693610594516
 20
-7.966501137984479
 30
0.0
 10
73.00401249374061
 20
-7.987489263202164
 30
0.0
 10
73.00087084058725
 20
-8.008439779220296
 30
0.0
 10
72.99751160930771
 20
-8.029350784401529
 30
0.0
 10
72.99393495281742
 20
-8.050220774293805
 30
0.0
 10
72.99014170105454
 20
-8.071048584348389
 30
0.0
 10
72.98613190230804
 20
-8.091832887233763
 30
0.0
 10
72.98331412022361
 20
-8.105659680652323
 30
0.0
 10
72.98186918256329
 20
-8.112565168200561
 30
0.0
 11
73.01984038586329
 21
-7.839938075500541
 31
0.0
 11
73.01823356176317
 21
-7.861089448100543
 31
0.0
 11
73.0164062826633
 21
-7.882222776800503
 31
0.0
 11
73.01435894746328
 21
-7.903333558500534
 31
0.0
 11
73.01209183916319
 21
-7.924419148500518
 31
0.0
 11
73.00960547766329
 21
-7.945475110100531
 31
0.0
 11
73.00690030546332
 21
-7.96649826750054
 31
0.0
 11
73.00397669946335
 21
-7.987486175000512
 31
0.0
 11
73.00083514586333
 21
-8.008436004200532
 31
0.0
 11
72.99747597426324
 21
-8.0293463559005
 31
0.0
 11
72.99389950576335
 21
-8.050215696500501
 31
0.0
 11
72.99010604386331
 21
-8.071042589800541
 31
0.0
 11
72.98609581956327
 21
-8.091826265800548
 31
0.0
 11
72.98186918256329
 21
-8.112565168200561
 31
0.0
  0
SPLINE
  5
562C9
330
1F
100
AcDbEntity
  8
1
100
AcDbSpline
210
0.0
220
0.0
230
1.0
 70
     8
 71
     3
 72
    16
 73
    12
 74
    10
 42
0.0000000001
 43
0.0000000001
 44
0.000001
 12
-0.9996962433583492
 22
0.0246459127484515
 32
0.0
 13
-0.9996000911015123
 23
0.0282782225369379
 33
0.0
 40
0.0
 40
0.0
 40
0.0
 40
0.0
 40
0.163761860278081
 40
0.3277414180042939
 40
0.4919281962052386
 40
0.6563135297889547
 40
0.8208888962267545
 40
0.9856442955217453
 40
1.150570143171763
 40
1.315656195566704
 40
1.480892119941626
 40
1.480892119941626
 40
1.480892119941626
 40
1.480892119941626
 10
67.57161509586319
 20
-9.798387295500518
 30
0.0
 10
67.51704439035473
 20
-9.797041941993867
 30
0.0
 10
67.40783118588945
 20
-9.794318923976092
 30
0.0
 10
67.24390825213015
 20
-9.790144705445797
 30
0.0
 10
67.0797796992934
 20
-9.78588207776265
 30
0.0
 10
66.91545460099064
 20
-9.781538383637254
 30
0.0
 10
66.75094184265436
 20
-9.777121612039181
 30
0.0
 10
66.58625071279761
 20
-9.77263586959684
 30
0.0
 10
66.42139101022895
 20
-9.768087420669857
 30
0.0
 10
66.25637258493714
 20
-9.763484428756399
 30
0.0
 10
66.14630890778267
 20
-9.760384358380676
 30
0.0
 10
66.09125229276322
 20
-9.758826832300471
 30
0.0
 11
67.57161509586319
 21
-9.798387295500518
 31
0.0
 11
67.4079040552632
 21
-9.794307249600549
 31
0.0
 11
67.24397760496334
 21
-9.790133635200518
 31
0.0
 11
67.07984610976325
 21
-9.785872163600501
 31
0.0
 11
66.91551807656321
 21
-9.781529607500559
 31
0.0
 11
66.75100200466329
 21
-9.777112306900491
 31
0.0
 11
66.58630772266326
 21
-9.772626754000512
 31
0.0
 11
66.42144461836335
 21
-9.768079551200528
 31
0.0
 11
66.25642274816335
 21
-9.763477340600488
 31
0.0
 11
66.09125229276322
 21
-9.758826832300471
 31
0.0
  0
SPLINE
  5
562CA
330
1F
100
AcDbEntity
  8
1
100
AcDbSpline
210
0.0
220
0.0
230
1.0
 70
     8
 71
     3
 72
    17
 73
    13
 74
    11
 42
0.0000000001
 43
0.0000000001
 44
0.000001
 12
-0.9995492550243911
 22
0.0300214386761347
 32
0.0
 13
-0.9994721208135452
 23
0.0324881473228999
 33
0.0
 40
0.0
 40
0.0
 40
0.0
 40
0.0
 40
0.1392979215173434
 40
0.2787515037443925
 40
0.4183555683841539
 40
0.5581042733331532
 40
0.6979920413608856
 40
0.83801313540866
 40
0.9781617522586159
 40
1.118431689016502
 40
1.25881663944506
 40
1.399309822882246
 40
1.399309822882246
 40
1.399309822882246
 40
1.399309822882246
 10
66.09125229276322
 20
-9.758826832300471
 30
0.0
 10
66.04484058153684
 20
-9.757432857630973
 30
0.0
 10
65.95196582859336
 20
-9.754625578832659
 30
0.0
 10
65.81257910852054
 20
-9.750363753841853
 30
0.0
 10
65.67304362651293
 20
-9.746050857366086
 30
0.0
 10
65.53336478334165
 20
-9.741691703387559
 30
0.0
 10
65.39354819436107
 20
-9.73729005510215
 30
0.0
 10
65.2535994618666
 20
-9.732849593993066
 30
0.0
 10
65.11352438740198
 20
-9.72837421042233
 30
0.0
 10
64.97332896995072
 20
-9.723867484704484
 30
0.0
 10
64.83301947947495
 20
-9.719334633770856
 30
0.0
 10
64.73944269126661
 20
-9.716298024414314
 30
0.0
 10
64.69263635126333
 20
-9.714776570000552
 30
0.0
 11
66.09125229276322
 21
-9.758826832300471
 31
0.0
 11
65.95201789866326
 21
-9.754619995900512
 31
0.0
 11
65.81262942746332
 21
-9.750358551100489
 31
0.0
 11
65.6730919539633
 21
-9.746046390100516
 31
0.0
 11
65.53341122476331
 21
-9.741687459100532
 31
0.0
 11
65.39359272236322
 21
-9.737285728700484
 31
0.0
 11
65.25364206496317
 21
-9.732845205700542
 31
0.0
 11
65.11356493976325
 21
-9.728369929600532
 31
0.0
 11
64.97336741836329
 21
-9.723863981900549
 31
0.0
 11
64.83305566966328
 21
-9.719331476300524
 31
0.0
 11
64.69263635126333
 21
-9.714776570000552
 31
0.0
  0
SPLINE
  5
562CB
330
1F
100
AcDbEntity
  8
1
100
AcDbSpline
210
0.0
220
0.0
230
1.0
 70
     8
 71
     3
 72
    51
 73
    47
 74
    45
 42
0.0000000001
 43
0.0000000001
 44
0.000001
 12
0.9920984437143754
 22
0.125461858664354
 32
0.0
 13
0.987794970035512
 23
0.1557597418222757
 33
0.0
 40
0.0
 40
0.0
 40
0.0
 40
0.0
 40
0.0043371271921891
 40
0.008625524185351
 40
0.0128669465092161
 40
0.0170639554851449
 40
0.0212194754740526
 40
0.0253357886205436
 40
0.0294157951111352
 40
0.0334621347429927
 40
0.0374768070110755
 40
0.0414625634164756
 40
0.04542166186591
 40
0.0493556590220152
 40
0.0532669861141509
 40
0.057158029566098
 40
0.0610311150805479
 40
0.064889099950712
 40
0.0687347230930641
 40
0.0725704720333263
 40
0.0763970939473777
 40
0.0802152873105205
 40
0.0840273043507747
 40
0.0878365205488131
 40
0.0916441470025088
 40
0.0954476132978857
 40
0.0992434393881252
 40
0.1030292552599629
 40
0.1068042835058291
 40
0.1105709737721892
 40
0.1143322493863668
 40
0.1180900649977779
 40
0.1218457238554131
 40
0.1256013156500091
 40
0.1293583643273229
 40
0.1331188821547573
 40
0.1368851145538069
 40
0.1406590656352591
 40
0.1444428255175456
 40
0.1482382465000492
 40
0.1520473725219708
 40
0.1558720674826623
 40
0.1597146685888744
 40
0.1635772520372511
 40
0.1674619424897982
 40
0.1713703407097345
 40
0.1713703407097345
 40
0.1713703407097345
 40
0.1713703407097345
 10
71.19534950916329
 20
-9.786257170600563
 30
0.0
 10
71.19678379487584
 20
-9.786075789254297
 30
0.0
 10
71.19963608592883
 20
-9.785713755830798
 30
0.0
 10
71.20389044108879
 20
-9.785169848762976
 30
0.0
 10
71.20809798782307
 20
-9.784628127731295
 30
0.0
 10
71.21226113591768
 20
-9.784088433391517
 30
0.0
 10
71.21638246805151
 20
-9.783550571995689
 30
0.0
 10
71.22046467763453
 20
-9.783014323526757
 30
0.0
 10
71.22451036278795
 20
-9.78247946899485
 30
0.0
 10
71.22852202701801
 20
-9.781945790928077
 30
0.0
 10
71.23250212358829
 20
-9.781413068491062
 30
0.0
 10
71.23645297851601
 20
-9.780881088304639
 30
0.0
 10
71.24037677050058
 20
-9.780349647784547
 30
0.0
 10
71.24427557154473
 20
-9.779818550822241
 30
0.0
 10
71.24815149521618
 20
-9.779287587979027
 30
0.0
 10
71.25200690811334
 20
-9.778756507150362
 30
0.0
 10
71.25584431653766
 20
-9.778225028775537
 30
0.0
 10
71.25966634213966
 20
-9.777692848874053
 30
0.0
 10
71.26347565892365
 20
-9.777159647608996
 30
0.0
 10
71.26727424333319
 20
-9.776625195006957
 30
0.0
 10
71.27106339763492
 20
-9.776089350567659
 30
0.0
 10
71.2748443460082
 20
-9.775551981221397
 30
0.0
 10
71.27861917945131
 20
-9.775012826143822
 30
0.0
 10
71.28239015724478
 20
-9.774471593772418
 30
0.0
 10
71.28615794673362
 20
-9.773928215706447
 30
0.0
 10
71.28992095361434
 20
-9.773382950257584
 30
0.0
 10
71.29367640311705
 20
-9.772836232760582
 30
0.0
 10
71.29742211295422
 20
-9.772288419236858
 30
0.0
 10
71.30115785720187
 20
-9.771739583365231
 30
0.0
 10
71.30488515547568
 20
-9.77118954075793
 30
0.0
 10
71.30860642756835
 20
-9.770637968560706
 30
0.0
 10
71.312323714419
 20
-9.770084593830645
 30
0.0
 10
71.31603878144705
 20
-9.769529179713472
 30
0.0
 10
71.31975325147954
 20
-9.768971506250281
 30
0.0
 10
71.32346898046222
 20
-9.768411314123099
 30
0.0
 10
71.32718787503279
 20
-9.767848331804074
 30
0.0
 10
71.33091199939292
 20
-9.76728225905812
 30
0.0
 10
71.33464344268827
 20
-9.766712786893904
 30
0.0
 10
71.33838416383281
 20
-9.766139621418105
 30
0.0
 10
71.3421361342078
 20
-9.76556246233143
 30
0.0
 10
71.34590125002103
 20
-9.764981016523378
 30
0.0
 10
71.34968156658288
 20
-9.764394962003237
 30
0.0
 10
71.35347914914939
 20
-9.763803970714818
 30
0.0
 10
71.35729614817671
 20
-9.763207696765576
 30
0.0
 10
71.36113447088814
 20
-9.762605827854329
 30
0.0
 10
71.36370057736235
 20
-9.762201941599769
 30
0.0
 10
71.36498747606322
 20
-9.761999017900521
 30
0.0
 11
71.19534950916329
 21
-9.786257170600563
 31
0.0
 11
71.19965212276326
 21
-9.785711066000473
 31
0.0
 11
71.20390591116336
 21
-9.785167242400504
 31
0.0
 11
71.20811263096323
 21
-9.784625636400491
 31
0.0
 11
71.21227483706332
 21
-9.784086070900528
 31
0.0
 11
71.2163954432632
 21
-9.783548309900496
 31
0.0
 11
71.22047672536325
 21
-9.783012188300531
 31
0.0
 11
71.22452157086332
 21
-9.782477449400531
 31
0.0
 11
71.2285326079633
 21
-9.781943859300511
 31
0.0
 11
71.23251182916328
 21
-9.781411258800531
 31
0.0
 11
71.23646197136327
 21
-9.780879379600563
 31
0.0
 11
71.24038528126323
 21
-9.780348009800562
 31
0.0
 11
71.24428330986336
 21
-9.779817024000507
 31
0.0
 11
71.24815847396337
 21
-9.779286171500487
 31
0.0
 11
71.2520131450633
 21
-9.778755199600496
 31
0.0
 11
71.25584963356335
 21
-9.778223855700488
 31
0.0
 11
71.25967077546329
 21
-9.77769180610052
 31
0.0
 11
71.26347928846326
 21
-9.777158724800543
 31
0.0
 11
71.26727764026327
 21
-9.776624312300512
 31
0.0
 11
71.27106657456329
 21
-9.776088506300496
 31
0.0
 11
71.27484678656322
 21
-9.775551248500519
 31
0.0
 11
71.27862050936335
 21
-9.775012258400479
 31
0.0
 11
71.28239108706328
 21
-9.774471089200531
 31
0.0
 11
71.28615972036334
 21
-9.773927594200543
 31
0.0
 11
71.28992386736332
 21
-9.773382167100507
 31
0.0
 11
71.29368008716324
 21
-9.772835339800522
 31
0.0
 11
71.29742603856323
 21
-9.772287492100545
 31
0.0
 11
71.30116095696326
 21
-9.771738777800536
 31
0.0
 11
71.30488727036333
 21
-9.771188879800504
 31
0.0
 11
71.30860787446329
 21
-9.770637405100515
 31
0.0
 11
71.31232470586326
 21
-9.770084096100518
 31
0.0
 11
71.31603905626332
 21
-9.769528786500544
 31
0.0
 11
71.3197529946633
 21
-9.76897118990054
 31
0.0
 11
71.32346802996323
 21
-9.768411099200548
 31
0.0
 11
71.3271861533633
 21
-9.767848230300515
 31
0.0
 11
71.33090958596324
 21
-9.767282259600463
 31
0.0
 11
71.33464030956327
 21
-9.766712894500543
 31
0.0
 11
71.33838039036311
 21
-9.766139824900491
 31
0.0
 11
71.34213165886331
 21
-9.765562772200539
 31
0.0
 11
71.34589613446326
 21
-9.764981424900511
 31
0.0
 11
71.3496756579633
 21
-9.764395494200513
 31
0.0
 11
71.35347253736324
 21
-9.763804615000552
 31
0.0
 11
71.35728882206319
 21
-9.763208457400523
 31
0.0
 11
71.36112660876335
 21
-9.762606679800526
 31
0.0
 11
71.36498747606322
 21
-9.761999017900521
 31
0.0
  0
SPLINE
  5
562CC
330
1F
100
AcDbEntity
  8
1
100
AcDbSpline
210
0.0
220
0.0
230
1.0
 70
     8
 71
     3
 72
    46
 73
    42
 74
    40
 42
0.0000000001
 43
0.0000000001
 44
0.000001
 12
0.9782223854983003
 22
0.2075595444926938
 32
0.0
 13
0.9732252220544843
 23
0.2298535776467269
 33
0.0
 40
0.0
 40
0.0
 40
0.0
 40
0.0
 40
0.0040736484004141
 40
0.0081108059046223
 40
0.0121134571730234
 40
0.0160846197031835
 40
0.0200272021203847
 40
0.0239424658028381
 40
0.0278318939418311
 40
0.0316982854990391
 40
0.0355444703349521
 40
0.0393721880243346
 40
0.0431838581218462
 40
0.0469822452948646
 40
0.0507681400121596
 40
0.054542357827371
 40
0.0583079057903839
 40
0.0620683586735861
 40
0.0658264700917291
 40
0.0695800952633628
 40
0.073326465019161
 40
0.0770628221795072
 40
0.0807863067578942
 40
0.0844987187992581
 40
0.0882034605186892
 40
0.0919041271414941
 40
0.0956013162920762
 40
0.0992948589234685
 40
0.1029851037894558
 40
0.1066749104892717
 40
0.1103669371564982
 40
0.1140641391027902
 40
0.1177678160976433
 40
0.1214798577511276
 40
0.1252020564035555
 40
0.1289365618104143
 40
0.1326852815623636
 40
0.1364501190323013
 40
0.140232933906723
 40
0.1440354859918585
 40
0.1478602327404891
 40
0.1478602327404891
 40
0.1478602327404891
 40
0.1478602327404891
 10
71.36498747606322
 20
-9.761999017900521
 30
0.0
 10
71.3663157874152
 20
-9.761717176365053
 30
0.0
 10
71.36896030757788
 20
-9.761155056958855
 30
0.0
 10
71.37290928418742
 20
-9.760312697715235
 30
0.0
 10
71.37682425934497
 20
-9.759474698693864
 30
0.0
 10
71.38070782844022
 20
-9.758640596316766
 30
0.0
 10
71.38456234944647
 20
-9.757809968904084
 30
0.0
 10
71.38838967894804
 20
-9.756982495326369
 30
0.0
 10
71.39219163666576
 20
-9.756157856367948
 30
0.0
 10
71.39597055198476
 20
-9.755335615569677
 30
0.0
 10
71.39972883629633
 20
-9.754515310934991
 30
0.0
 10
71.40346877603064
 20
-9.753696500595665
 30
0.0
 10
71.4071926350831
 20
-9.752878740979653
 30
0.0
 10
71.41090236704354
 20
-9.752061650102788
 30
0.0
 10
71.41459940234
 20
-9.751244956088967
 30
0.0
 10
71.418285249561
 20
-9.75042836603167
 30
0.0
 10
71.42196232241622
 20
-9.749611381451913
 30
0.0
 10
71.42563366376037
 20
-9.748793356773475
 30
0.0
 10
71.42930063887343
 20
-9.747974013399428
 30
0.0
 10
71.43296254898212
 20
-9.747153532356335
 30
0.0
 10
71.43661690366298
 20
-9.746332499856904
 30
0.0
 10
71.4402609812501
 20
-9.745511560233168
 30
0.0
 10
71.44389354711984
 20
-9.744691028235578
 30
0.0
 10
71.44751536958381
 20
-9.743870767160629
 30
0.0
 10
71.4511293146324
 20
-9.74305016077487
 30
0.0
 10
71.45473785591372
 20
-9.742228674856832
 30
0.0
 10
71.45834230530931
 20
-9.74140603467201
 30
0.0
 10
71.46194291929515
 20
-9.740582204467628
 30
0.0
 10
71.46554068915924
 20
-9.739756979359711
 30
0.0
 10
71.46913752407079
 20
-9.738929940760996
 30
0.0
 10
71.47273617884116
 20
-9.73810047041276
 30
0.0
 10
71.47633890037446
 20
-9.737268061315162
 30
0.0
 10
71.47994768497693
 20
-9.736432259730705
 30
0.0
 10
71.48356415047579
 20
-9.735592695783864
 30
0.0
 10
71.48719018990721
 20
-9.734748932109894
 30
0.0
 10
71.49082770129104
 20
-9.733900526271852
 30
0.0
 10
71.49447861783375
 20
-9.733047023718441
 30
0.0
 10
71.4981447777576
 20
-9.732187988329414
 30
0.0
 10
71.50182797053253
 20
-9.731322991825535
 30
0.0
 10
71.50553016462606
 20
-9.730451560349294
 30
0.0
 10
71.50800467056206
 20
-9.72986779130845
 30
0.0
 10
71.5092454505633
 20
-9.729574747400548
 30
0.0
 11
71.36498747606322
 21
-9.761999017900521
 31
0.0
 11
71.36897210776317
 21
-9.761152058500513
 31
0.0
 11
71.37292044716321
 21
-9.760309855300548
 31
0.0
 11
71.37683445256323
 21
-9.75947208900051
 31
0.0
 11
71.38071709066332
 21
-9.758638215700543
 31
0.0
 11
71.38457121986323
 21
-9.75780770470051
 31
0.0
 11
71.38839808696332
 21
-9.75698036530052
 31
0.0
 11
71.39219915466322
 21
-9.756155954900535
 31
0.0
 11
71.39597717036327
 21
-9.755333945800444
 31
0.0
 11
71.39973491006333
 21
-9.754513795700532
 31
0.0
 11
71.40347408316324
 21
-9.753695187800488
 31
0.0
 11
71.4071970622632
 21
-9.752877654500551
 31
0.0
 11
71.4109065555632
 21
-9.752060646900545
 31
0.0
 11
71.41460334226326
 21
-9.751244035700509
 31
0.0
 11
71.41828822556329
 21
-9.750427683500518
 31
0.0
 11
71.42196414756324
 21
-9.749610975200468
 31
0.0
 11
71.42563460286317
 21
-9.748793164500526
 31
0.0
 11
71.42930228296325
 21
-9.747973676200516
 31
0.0
 11
71.43296509836329
 21
-9.747153000800565
 31
0.0
 11
71.43662035156319
 21
-9.746331770700507
 31
0.0
 11
71.44026535826322
 21
-9.745510622000509
 31
0.0
 11
71.44389733526328
 21
-9.744690219200563
 31
0.0
 11
71.44751804546331
 21
-9.743870202300527
 31
0.0
 11
71.45113081316333
 21
-9.743049851800563
 31
0.0
 11
71.45473914916329
 21
-9.742228397600527
 31
0.0
 11
71.45834364026325
 21
-9.741405729500527
 31
0.0
 11
71.46194412576335
 21
-9.74058190740051
 31
0.0
 11
71.46554094966325
 21
-9.739756875200512
 31
0.0
 11
71.46913690276335
 21
-9.738930013100471
 31
0.0
 11
71.47273457816334
 21
-9.738100740300538
 31
0.0
 11
71.4763368573632
 21
-9.7372684039005
 31
0.0
 11
71.47994500776326
 21
-9.73643271890053
 31
0.0
 11
71.4835608707632
 21
-9.735593264300533
 31
0.0
 11
71.48718619236331
 21
-9.734749638100495
 31
0.0
 11
71.49082306586331
 21
-9.733901353600501
 31
0.0
 11
71.49447334786327
 21
-9.733047975200534
 31
0.0
 11
71.4981388901632
 21
-9.732189065100484
 31
0.0
 11
71.50182150126318
 21
-9.731324192000514
 31
0.0
 11
71.50552289176324
 21
-9.730452944400511
 31
0.0
 11
71.5092454505633
 21
-9.729574747400548
 31
0.0
  0
SPLINE
  5
562CD
330
1F
100
AcDbEntity
  8
1
100
AcDbSpline
210
0.0
220
0.0
230
1.0
 70
     8
 71
     3
 72
    46
 73
    42
 74
    40
 42
0.0000000001
 43
0.0000000001
 44
0.000001
 12
0.9591977425440447
 22
0.2827360795837851
 32
0.0
 13
0.9529761039563
 23
0.3030454508621958
 33
0.0
 40
0.0
 40
0.0
 40
0.0
 40
0.0
 40
0.0041072006853507
 40
0.0081750302865331
 40
0.0122062631024342
 40
0.0162040920299009
 40
0.020170681247266
 40
0.0241078454938267
 40
0.028018427830513
 40
0.0319051096953836
 40
0.0357690238195567
 40
0.0396116054819789
 40
0.0434351980772997
 40
0.0472423129121894
 40
0.0510352647873464
 40
0.0548178075192043
 40
0.0585934984243954
 40
0.0623647590155287
 40
0.0661302983793847
 40
0.06988829076586
 40
0.07363738731468
 40
0.0773762121794295
 40
0.0811019609982941
 40
0.0848151604237283
 40
0.0885181878864312
 40
0.0922136576825037
 40
0.095902794987447
 40
0.099587822963541
 40
0.1032712238967902
 40
0.1069559283332928
 40
0.1106433715671454
 40
0.1143340717795016
 40
0.1180294151853225
 40
0.1217323982620364
 40
0.1254444915589587
 40
0.1291672756407439
 40
0.1329041677492225
 40
0.1366568597330887
 40
0.140426436169246
 40
0.1442140856872765
 40
0.1480229930160494
 40
0.1480229930160494
 40
0.1480229930160494
 40
0.1480229930160494
 10
71.5092454505633
 20
-9.729574747400548
 30
0.0
 10
71.51055865643849
 20
-9.729187662793933
 30
0.0
 10
71.51317222056161
 20
-9.728416323751488
 30
0.0
 10
71.51707380557792
 20
-9.72726202797294
 30
0.0
 10
71.52093968114718
 20
-9.726115542724087
 30
0.0
 10
71.52477246881312
 20
-9.724976180821485
 30
0.0
 10
71.52857448133051
 20
-9.723843338301762
 30
0.0
 10
71.53234791778539
 20
-9.722716437721246
 30
0.0
 10
71.53609514057262
 20
-9.721594845564013
 30
0.0
 10
71.53981829234692
 20
-9.720477986658622
 30
0.0
 10
71.54351906469845
 20
-9.719365415059385
 30
0.0
 10
71.54719904003957
 20
-9.718256712768791
 30
0.0
 10
71.55086023939168
 20
-9.717151324387756
 30
0.0
 10
71.55450496279389
 20
-9.716048604100947
 30
0.0
 10
71.55813595850071
 20
-9.714947763848599
 30
0.0
 10
71.56175630638052
 20
-9.713847907428615
 30
0.0
 10
71.56536911809741
 20
-9.712748120764459
 30
0.0
 10
71.56897589479666
 20
-9.711647973340475
 30
0.0
 10
71.57257642076132
 20
-9.71054755615053
 30
0.0
 10
71.57616927891848
 20
-9.709447329217525
 30
0.0
 10
71.57975302607787
 20
-9.708347763839398
 30
0.0
 10
71.58332590815252
 20
-9.707249429990113
 30
0.0
 10
71.5868867696862
 20
-9.706152717246041
 30
0.0
 10
71.59043565138574
 20
-9.705057648392696
 30
0.0
 10
71.59397431930227
 20
-9.703963711635893
 30
0.0
 10
71.59750476062857
 20
-9.702870322033717
 30
0.0
 10
71.6010289121748
 20
-9.701776905663408
 30
0.0
 10
71.6045486675361
 20
-9.700682897704396
 30
0.0
 10
71.60806646181436
 20
-9.699587560226817
 30
0.0
 10
71.61158447786903
 20
-9.698490228496339
 30
0.0
 10
71.61510427233707
 20
-9.697390428749926
 30
0.0
 10
71.61862690974823
 20
-9.696287838269157
 30
0.0
 10
71.62215395059764
 20
-9.695181976695394
 30
0.0
 10
71.62568725725754
 20
-9.694072265333929
 30
0.0
 10
71.62922875277377
 20
-9.692958102434587
 30
0.0
 10
71.6327804929249
 20
-9.69183884076726
 30
0.0
 10
71.63634460260732
 20
-9.690713806981719
 30
0.0
 10
71.63992304782436
 20
-9.689582373585082
 30
0.0
 10
71.64351708537299
 20
-9.688444134187207
 30
0.0
 10
71.6471284457246
 20
-9.687298529900814
 30
0.0
 10
71.64954173790772
 20
-9.686531727846741
 30
0.0
 10
71.65075167046325
 20
-9.686146970500473
 30
0.0
 11
71.5092454505633
 21
-9.729574747400548
 31
0.0
 11
71.51318468306328
 21
-9.728412181200511
 31
0.0
 11
71.5170853935632
 21
-9.727258172600542
 31
0.0
 11
71.52095026606332
 21
-9.726112023100469
 31
0.0
 11
71.52478238346327
 21
-9.724972906300493
 31
0.0
 11
71.52858384036324
 21
-9.723840280800502
 31
0.0
 11
71.53235639486331
 21
-9.722713699000522
 31
0.0
 11
71.53610278856319
 21
-9.721592412400482
 31
0.0
 11
71.53982560626321
 21
-9.720475711800546
 31
0.0
 11
71.54352594766328
 21
-9.719363326900534
 31
0.0
 11
71.54720520136322
 21
-9.718254897100521
 31
0.0
 11
71.55086562416329
 21
-9.717149795100525
 31
0.0
 11
71.55450963206317
 21
-9.716047339600507
 31
0.0
 11
71.55813945116335
 21
-9.71494689990051
 31
0.0
 11
71.56175868286311
 21
-9.713847421500545
 31
0.0
 11
71.56537073806328
 21
-9.712747898600539
 31
0.0
 11
71.5689779390633
 21
-9.71164764930053
 31
0.0
 11
71.57257905666324
 21
-9.710547072700549
 31
0.0
 11
71.57617235106329
 21
-9.709446726900537
 31
0.0
 11
71.57975653966321
 21
-9.708347034100611
 31
0.0
 11
71.58333031486325
 21
-9.707248426800518
 31
0.0
 11
71.58689100486333
 21
-9.706151761100542
 31
0.0
 11
71.59043912226332
 21
-9.705056915500492
 31
0.0
 11
71.59397694736333
 21
-9.703963220000488
 31
0.0
 11
71.59750698526329
 21
-9.702869929600481
 31
0.0
 11
71.60103041286323
 21
-9.701776706000529
 31
0.0
 11
71.60454935926328
 21
-9.7006829119005
 31
0.0
 11
71.60806619966331
 21
-9.699587828600513
 31
0.0
 11
71.61158373576324
 21
-9.698490599200496
 31
0.0
 11
71.61510334056322
 21
-9.697390807800516
 31
0.0
 11
71.61862551116326
 21
-9.696288310200472
 31
0.0
 11
71.62215157266325
 21
-9.695182701500542
 31
0.0
 11
71.6256843855632
 21
-9.694073091400539
 31
0.0
 11
71.62922535326322
 21
-9.69295904260052
 31
0.0
 11
71.63277598336333
 21
-9.691840082300544
 31
0.0
 11
71.63633953406327
 21
-9.690715181900557
 31
0.0
 11
71.63991761676323
 21
-9.689583827500499
 31
0.0
 11
71.6435112631633
 21
-9.68844568600052
 31
0.0
 11
71.64712160366332
 21
-9.687300391200508
 31
0.0
 11
71.65075167046325
 21
-9.686146970500473
 31
0.0
  0
SPLINE
  5
562CE
330
1F
100
AcDbEntity
  8
1
100
AcDbSpline
210
0.0
220
0.0
230
1.0
 70
     8
 71
     3
 72
    46
 73
    42
 74
    40
 42
0.0000000001
 43
0.0000000001
 44
0.000001
 12
0.934654589246212
 22
0.3555570260886354
 32
0.0
 13
0.9270502599381027
 23
0.3749370821200486
 33
0.0
 40
0.0
 40
0.0
 40
0.0
 40
0.0
 40
0.0041489707828779
 40
0.0082565603931953
 40
0.0123250116902147
 40
0.0163580731550084
 40
0.0203579126050396
 40
0.0243260303253744
 40
0.0282643136393547
 40
0.0321762600408199
 40
0.0360641228161139
 40
0.0399300050653346
 40
0.0437770990340088
 40
0.0476067487895884
 40
0.0514199296420954
 40
0.0552194179635629
 40
0.0590082029416413
 40
0.0627890717001456
 40
0.0665617949562897
 40
0.0703261004419977
 40
0.0740815003526445
 40
0.0778261335241462
 40
0.0815580303065208
 40
0.0852767775455646
 40
0.0889843882534484
 40
0.0926825609917556
 40
0.0963738986539879
 40
0.1000595777609891
 40
0.1037414501406935
 40
0.10742157429098
 40
0.1111020975761084
 40
0.1147849887371476
 40
0.1184721199178729
 40
0.1221653977690184
 40
0.1258664109260317
 40
0.1295774299286402
 40
0.1333003117465056
 40
0.1370373136133078
 40
0.1407895098198433
 40
0.144559121829987
 40
0.148348490064424
 40
0.148348490064424
 40
0.148348490064424
 40
0.148348490064424
 10
71.65075167046325
 20
-9.686146970500473
 30
0.0
 10
71.65204428865752
 20
-9.685655238596197
 30
0.0
 10
71.65461631284552
 20
-9.684675838259906
 30
0.0
 10
71.65845476545832
 20
-9.683211352503505
 30
0.0
 10
71.66225619576278
 20
-9.681758219888124
 30
0.0
 10
71.66602317347758
 20
-9.680315550516539
 30
0.0
 10
71.66975803435997
 20
-9.678882535278361
 30
0.0
 10
71.67346253267965
 20
-9.677458581099116
 30
0.0
 10
71.67713883441962
 20
-9.676042930391631
 30
0.0
 10
71.68078933738923
 20
-9.674634728864432
 30
0.0
 10
71.68441650400047
 20
-9.673233089618904
 30
0.0
 10
71.68802269945127
 20
-9.671837156258803
 30
0.0
 10
71.69161000406052
 20
-9.670446175809317
 30
0.0
 10
71.69518014573213
 20
-9.669059526101207
 30
0.0
 10
71.69873472168529
 20
-9.667676631224324
 30
0.0
 10
71.70227583856337
 20
-9.666296712093426
 30
0.0
 10
71.70580616358859
 20
-9.664918764708644
 30
0.0
 10
71.70932742852897
 20
-9.663542143747591
 30
0.0
 10
71.71284035144606
 20
-9.662166596608571
 30
0.0
 10
71.71634463368343
 20
-9.660792268046705
 30
0.0
 10
71.71983947051012
 20
-9.659419502177158
 30
0.0
 10
71.72332353136858
 20
-9.658048851908361
 30
0.0
 10
71.72679550999248
 20
-9.656680863823837
 30
0.0
 10
71.73025530232775
 20
-9.655315612828061
 30
0.0
 10
71.73370394131928
 20
-9.65395272391855
 30
0.0
 10
71.73714339367484
 20
-9.652591449401811
 30
0.0
 10
71.74057536526516
 20
-9.651231140127165
 30
0.0
 10
71.74400160804953
 20
-9.649871124493969
 30
0.0
 10
71.7474237040243
 20
-9.648510794504446
 30
0.0
 10
71.75084353455861
 20
-9.647149419151858
 30
0.0
 10
71.75426301574589
 20
-9.645786249233381
 30
0.0
 10
71.75768400451909
 20
-9.644420554843534
 30
0.0
 10
71.76110828191259
 20
-9.643051632331705
 30
0.0
 10
71.76453751000479
 20
-9.641678821778711
 30
0.0
 10
71.76797347291404
 20
-9.640301410771357
 30
0.0
 10
71.7714179380755
 20
-9.638918689768146
 30
0.0
 10
71.77487287839102
 20
-9.637529862808932
 30
0.0
 10
71.77833989543057
 20
-9.636134279283183
 30
0.0
 10
71.78182070231923
 20
-9.634731240335852
 30
0.0
 10
71.78531703669193
 20
-9.633320033790667
 30
0.0
 10
71.78765310859427
 20
-9.632375864556863
 30
0.0
 10
71.7888240868632
 20
-9.631902273000562
 30
0.0
 11
71.65075167046325
 21
-9.686146970500473
 31
0.0
 11
71.6546290496633
 21
-9.684670521300532
 31
0.0
 11
71.65846681826327
 21
-9.683206329000469
 31
0.0
 11
71.66226710206331
 21
-9.68175367970052
 31
0.0
 11
71.66603343026327
 21
-9.680311313600483
 31
0.0
 11
71.66976785286329
 21
-9.678878527700547
 31
0.0
 11
71.67347179486331
 21
-9.677454853100542
 31
0.0
 11
71.67714704086325
 21
-9.676039677300522
 31
0.0
 11
71.68079687576335
 21
-9.674631802800561
 31
0.0
 11
71.68442342086326
 21
-9.673230472400504
 31
0.0
 11
71.6880286554632
 21
-9.671834977800543
 31
0.0
 11
71.69161557226323
 21
-9.670444211300562
 31
0.0
 11
71.69518543876325
 21
-9.669057727900522
 31
0.0
 11
71.69873917756319
 21
-9.667675212900533
 31
0.0
 11
71.70227938846335
 21
-9.666295695000556
 31
0.0
 11
71.70580886716322
 21
-9.66491811930048
 31
0.0
 11
71.70933021886333
 21
-9.663541498400533
 31
0.0
 11
71.71284323806332
 21
-9.662165939600512
 31
0.0
 11
71.71634767946329
 21
-9.660791566300545
 31
0.0
 11
71.7198430973633
 21
-9.659418581100524
 31
0.0
 11
71.72332776866335
 21
-9.658047690800472
 31
0.0
 11
71.72679987066328
 21
-9.656679645200554
 31
0.0
 11
71.73025902996335
 21
-9.655314626300523
 31
0.0
 11
71.73370712946326
 21
-9.653951924100525
 31
0.0
 11
71.73714575846327
 21
-9.652590941100484
 31
0.0
 11
71.74057734536325
 21
-9.651230742400528
 31
0.0
 11
71.7440029912633
 21
-9.649870915300496
 31
0.0
 11
71.74742442376327
 21
-9.648510794900531
 31
0.0
 11
71.75084356126331
 21
-9.647149636700547
 31
0.0
 11
71.75426240316335
 21
-9.645786659300554
 31
0.0
 11
71.75768278156329
 21
-9.644421143900459
 31
0.0
 11
71.76110643756328
 21
-9.643052404200531
 31
0.0
 11
71.76453514306331
 21
-9.641679737900531
 31
0.0
 11
71.76797037356323
 21
-9.64030255790054
 31
0.0
 11
71.77141423626324
 21
-9.638920020200473
 31
0.0
 11
71.77486845336329
 21
-9.637531431800468
 31
0.0
 11
71.77833511706331
 21
-9.636135946900552
 31
0.0
 11
71.78181522116336
 21
-9.634733158800528
 31
0.0
 11
71.7853108224632
 21
-9.633322229400519
 31
0.0
 11
71.7888240868632
 21
-9.631902273000562
 31
0.0
  0
SPLINE
  5
562CF
330
1F
100
AcDbEntity
  8
1
100
AcDbSpline
210
0.0
220
0.0
230
1.0
 70
     8
 71
     3
 72
    46
 73
    42
 74
    40
 42
0.0000000001
 43
0.0000000001
 44
0.000001
 12
0.9048663183377422
 22
0.4256958373509188
 32
0.0
 13
0.8954624942028468
 23
0.4451369693431639
 33
0.0
 40
0.0
 40
0.0
 40
0.0
 40
0.0
 40
0.0041898318148246
 40
0.0083356622692072
 40
0.012440708606862
 40
0.0165080840728855
 40
0.0205393342853326
 40
0.0245362547388442
 40
0.0285016149438576
 40
0.0324382540901536
 40
0.036348730972817
 40
0.0402357613823062
 40
0.0441017546842318
 40
0.0479498487081147
 40
0.0517823015242015
 40
0.0556009111709338
 40
0.0594082428771447
 40
0.0632062342246708
 40
0.0669940925014221
 40
0.070770800445357
 40
0.0745356841702663
 40
0.0782867511412635
 40
0.0820211458585329
 40
0.0857403735664884
 40
0.0894485139437209
 40
0.0931487961937703
 40
0.0968419744212317
 40
0.1005285228851687
 40
0.1042099377597864
 40
0.1078889159230097
 40
0.1115665657130055
 40
0.1152435094232211
 40
0.1189212070487841
 40
0.1226026051004896
 40
0.1262903366172486
 40
0.1299872301999225
 40
0.1336957407495707
 40
0.1374184733913033
 40
0.1411564978285768
 40
0.1449103717262732
 40
0.1486816431750637
 40
0.1486816431750637
 40
0.1486816431750637
 40
0.1486816431750637
 10
71.7888240868632
 20
-9.631902273000562
 30
0.0
 10
71.79008783275946
 20
-9.631307741679663
 30
0.0
 10
71.79260165995225
 20
-9.630124087585258
 30
0.0
 10
71.79635230362151
 20
-9.62835505457609
 30
0.0
 10
71.80006489319708
 20
-9.626601028486604
 30
0.0
 10
71.80374183869156
 20
-9.624860968556177
 30
0.0
 10
71.80738511863729
 20
-9.623134029823219
 30
0.0
 10
71.8109966054289
 20
-9.621419410674704
 30
0.0
 10
71.81457855823982
 20
-9.61971611854797
 30
0.0
 10
71.81813346292006
 20
-9.618023044876892
 30
0.0
 10
71.82166378602989
 20
-9.616339082037498
 30
0.0
 10
71.82517186182486
 20
-9.614663177643976
 30
0.0
 10
71.82866019584025
 20
-9.612994189921138
 30
0.0
 10
71.83213115304965
 20
-9.611331036672069
 30
0.0
 10
71.83558691193252
 20
-9.60967271793531
 30
0.0
 10
71.83902947652654
 20
-9.608018311286613
 30
0.0
 10
71.84246075234216
 20
-9.606366935809532
 30
0.0
 10
71.84588186477833
 20
-9.604718080930226
 30
0.0
 10
71.8492928626826
 20
-9.603071752777125
 30
0.0
 10
71.85269301129171
 20
-9.601428336482982
 30
0.0
 10
71.8560812165905
 20
-9.59978839286596
 30
0.0
 10
71.85945583429822
 20
-9.598152752240039
 30
0.0
 10
71.86281587540401
 20
-9.596521931365899
 30
0.0
 10
71.86616217218625
 20
-9.594895563862692
 30
0.0
 10
71.8694973792542
 20
-9.593272392827302
 30
0.0
 10
71.87282392317332
 20
-9.591651264862505
 30
0.0
 10
71.87614314806984
 20
-9.590031548697297
 30
0.0
 10
71.87945587784219
 20
-9.588412864154449
 30
0.0
 10
71.88276351721299
 20
-9.586794544603563
 30
0.0
 10
71.88606765915631
 20
-9.585175827198227
 30
0.0
 10
71.88936963348851
 20
-9.583556073999332
 30
0.0
 10
71.89267039877274
 20
-9.581934826372204
 30
0.0
 10
71.89597146245927
 20
-9.580311353325683
 30
0.0
 10
71.89927493169562
 20
-9.578684624486882
 30
0.0
 10
71.90258332063383
 20
-9.57705340332221
 30
0.0
 10
71.90589899404483
 20
-9.575416520874611
 30
0.0
 10
71.90922430605621
 20
-9.573772807644289
 30
0.0
 10
71.91256108306652
 20
-9.572121349622804
 30
0.0
 10
71.91591058310888
 20
-9.570461510147978
 30
0.0
 10
71.91927374750594
 20
-9.568792807033972
 30
0.0
 10
71.921520187184
 20
-9.567676792448267
 30
0.0
 10
71.92264586456326
 20
-9.567117215000521
 30
0.0
 11
71.7888240868632
 21
-9.631902273000562
 31
0.0
 11
71.79261473926328
 21
-9.630117432400467
 31
0.0
 11
71.79636442866319
 21
-9.628348882700564
 31
0.0
 11
71.80007610256325
 21
-9.626595336500557
 31
0.0
 11
71.80375261036329
 21
-9.624855541800528
 31
0.0
 11
71.8073953815632
 21
-9.623128910600556
 31
0.0
 11
71.81100606926327
 21
-9.621414742900512
 31
0.0
 11
71.81458720396324
 21
-9.619711915400515
 31
0.0
 11
71.81814137586332
 21
-9.618019267800534
 31
0.0
 11
71.82167091896326
 21
-9.616335753700539
 31
0.0
 11
71.82517830616325
 21
-9.614660253000479
 31
0.0
 11
71.82866573106332
 21
-9.612991771600562
 31
0.0
 11
71.83213604156333
 21
-9.611328994900546
 31
0.0
 11
71.83559128926333
 21
-9.609670982200483
 31
0.0
 11
71.83903310896323
 21
-9.608016987400517
 31
0.0
 11
71.84246382476328
 21
-9.606365927400545
 31
0.0
 11
71.84588519296323
 21
-9.604716986500491
 31
0.0
 11
71.84929650946322
 21
-9.603070532500524
 31
0.0
 11
71.85269686876324
 21
-9.601427032400508
 31
0.0
 11
71.85608567546331
 21
-9.599786805600487
 31
0.0
 11
71.85946114846331
 21
-9.598150748400556
 31
0.0
 11
71.8628207321633
 21
-9.596520137600535
 31
0.0
 11
71.86616579526333
 21
-9.594894348300513
 31
0.0
 11
71.86950001956336
 21
-9.593271625300488
 31
0.0
 11
71.87282631846324
 21
-9.591650577900523
 31
0.0
 11
71.87614537846332
 21
-9.590030895600492
 31
0.0
 11
71.87945763396328
 21
-9.588412389300501
 31
0.0
 11
71.88276443666325
 21
-9.586794419400533
 31
0.0
 11
71.8860682152632
 21
-9.585175815400489
 31
0.0
 11
71.88936996986331
 21
-9.583556101400475
 31
0.0
 11
71.89267026356333
 21
-9.58193501420051
 31
0.0
 11
71.89597041066327
 21
-9.580311919800479
 31
0.0
 11
71.89927305746334
 21
-9.57868552420048
 31
0.0
 11
71.90258056676327
 21
-9.577054667200471
 31
0.0
 11
71.90589547446325
 21
-9.575418097400543
 31
0.0
 11
71.90921997916325
 21
-9.57377472430052
 31
0.0
 11
71.91255641206328
 21
-9.572123386600551
 31
0.0
 11
71.91590572666325
 21
-9.570463600800522
 31
0.0
 11
71.91926841726331
 21
-9.568795109900477
 31
0.0
 11
71.92264586456326
 21
-9.567117215000521
 31
0.0
  0
SPLINE
  5
562D0
330
1F
100
AcDbEntity
  8
1
100
AcDbSpline
210
0.0
220
0.0
230
1.0
 70
     8
 71
     3
 72
    47
 73
    43
 74
    41
 42
0.0000000001
 43
0.0000000001
 44
0.000001
 12
0.8701112419890822
 22
0.4928553809833235
 32
0.0
 13
0.858239587974398
 23
0.5132492665689215
 33
0.0
 40
0.0
 40
0.0
 40
0.0
 40
0.0
 40
0.0041278870644232
 40
0.0082110238743256
 40
0.0122524453580391
 40
0.0162547744086782
 40
0.0202204634868922
 40
0.0241521666702831
 40
0.0280518479829119
 40
0.0319222996937535
 40
0.0357655159383444
 40
0.0395837898671243
 40
0.0433794750146873
 40
0.0471539450762915
 40
0.0509096937319314
 40
0.0546487205144952
 40
0.0583736698610662
 40
0.0620867826256555
 40
0.0657903318621082
 40
0.0694833712088641
 40
0.0731640206796612
 40
0.0768304914915788
 40
0.0804831195609922
 40
0.0841222439031904
 40
0.0877474221351326
 40
0.0913597961744553
 40
0.0949613023578236
 40
0.0985530355968289
 40
0.1021368027996391
 40
0.1057151347606438
 40
0.1092900443260989
 40
0.1128636441847443
 40
0.1164374256000304
 40
0.1200133943547269
 40
0.1235930616648647
 40
0.1271784470449984
 40
0.1307710261824666
 40
0.1343728210198463
 40
0.1379855608130097
 40
0.141611349816676
 40
0.1452516777035309
 40
0.1489080280146399
 40
0.1489080280146399
 40
0.1489080280146399
 40
0.1489080280146399
 10
71.92264586456326
 20
-9.567117215000521
 30
0.0
 10
71.92384310487671
 20
-9.566439064549896
 30
0.0
 10
71.9262241423022
 20
-9.565089296147803
 30
0.0
 10
71.92977573808343
 20
-9.563072754947071
 30
0.0
 10
71.93328959375867
 20
-9.561074511731234
 30
0.0
 10
71.93676810151202
 20
-9.559093307972389
 30
0.0
 10
71.94021353930145
 20
-9.557127940791261
 30
0.0
 10
71.94362799061036
 20
-9.555177309423939
 30
0.0
 10
71.9470136338457
 20
-9.553240250709123
 30
0.0
 10
71.95037245309709
 20
-9.551315704634916
 30
0.0
 10
71.95370652443705
 20
-9.549402550877246
 30
0.0
 10
71.95701779400497
 20
-9.547499736358943
 30
0.0
 10
71.96030802569459
 20
-9.545606305802309
 30
0.0
 10
71.96357903870421
 20
-9.543721265888322
 30
0.0
 10
71.96683254738127
 20
-9.541843677563392
 30
0.0
 10
71.97007063022346
 20
-9.539972385229603
 30
0.0
 10
71.9732952898284
 20
-9.538106270284359
 30
0.0
 10
71.9765086048003
 20
-9.53624416335181
 30
0.0
 10
71.97971161561918
 20
-9.534385490776926
 30
0.0
 10
71.98290417379803
 20
-9.532530366716386
 30
0.0
 10
71.9860849611249
 20
-9.530679587110157
 30
0.0
 10
71.9892530305388
 20
-9.528833735812625
 30
0.0
 10
71.99240807498131
 20
-9.526993025785358
 30
0.0
 10
71.99555017506458
 20
-9.525157443790206
 30
0.0
 10
71.99867964317888
 20
-9.52332684064568
 30
0.0
 10
72.00179725067494
 20
-9.52150079719199
 30
0.0
 10
72.00490420966224
 20
-9.519678632810681
 30
0.0
 10
72.00800192171664
 20
-9.517859551717506
 30
0.0
 10
72.01109195739798
 20
-9.51604265452336
 30
0.0
 10
72.01417614876078
 20
-9.514226882846358
 30
0.0
 10
72.01725641321644
 20
-9.51241112234446
 30
0.0
 10
72.02033436730812
 20
-9.510594430601443
 30
0.0
 10
72.02341162347102
 20
-9.508775862849191
 30
0.0
 10
72.02648961953793
 20
-9.506954572923078
 30
0.0
 10
72.0295699429513
 20
-9.505129621712811
 30
0.0
 10
72.03265402715249
 20
-9.503300156827819
 30
0.0
 10
72.03574345008076
 20
-9.501465235784891
 30
0.0
 10
72.03883970449829
 20
-9.499623962163937
 30
0.0
 10
72.04194446121824
 20
-9.4977753290472
 30
0.0
 10
72.04505923649356
 20
-9.49591841674659
 30
0.0
 10
72.04818547423986
 20
-9.494052344247009
 30
0.0
 10
72.05027324996843
 20
-9.492804579505715
 30
0.0
 10
72.05131925816329
 20
-9.492179039800547
 30
0.0
 11
71.92264586456326
 21
-9.567117215000521
 31
0.0
 11
71.92623689166328
 21
-9.565081537400587
 31
0.0
 11
71.92978762186328
 21
-9.563065516600502
 31
0.0
 11
71.93330073826325
 21
-9.561067735800534
 31
0.0
 11
71.93677856166335
 21
-9.559086974300484
 31
0.0
 11
71.94022326086326
 21
-9.557122088600536
 31
0.0
 11
71.94363717646331
 21
-9.555171829200517
 31
0.0
 11
71.94702204626321
 21
-9.553235282300491
 31
0.0
 11
71.9503803240633
 21
-9.551311117500532
 31
0.0
 11
71.95371376766331
 21
-9.549398394900507
 31
0.0
 11
71.95702439146328
 21
-9.547496020800494
 31
0.0
 11
71.96031425926332
 21
-9.545602866100537
 31
0.0
 11
71.96358458286306
 21
-9.543718285500503
 31
0.0
 11
71.96683754246328
 21
-9.541841070900503
 31
0.0
 11
71.97007488706333
 21
-9.539970255500534
 31
0.0
 11
71.97329892166329
 21
-9.538104545600518
 31
0.0
 11
71.97651159886333
 21
-9.536242844200515
 31
0.0
 11
71.97971489636325
 21
-9.534384033300526
 31
0.0
 11
71.98290800606321
 21
-9.532528608500527
 31
0.0
 11
71.98608931426315
 21
-9.530677537200503
 31
0.0
 11
71.98925728816323
 21
-9.528831744400534
 31
0.0
 11
71.99241223196327
 21
-9.526991087400503
 31
0.0
 11
71.99555445216322
 21
-9.525155421200523
 31
0.0
 11
71.9986835804633
 21
-9.523324994700558
 31
0.0
 11
72.00180061586332
 21
-9.521499256400559
 31
0.0
 11
72.00490724126325
 21
-9.519677250500549
 31
0.0
 11
72.0080044117633
 21
-9.517858443400498
 31
0.0
 11
72.01109369496328
 21
-9.516041938400533
 31
0.0
 11
72.01417728016327
 21
-9.514226467900513
 31
0.0
 11
72.0172569076633
 21
-9.512411022500558
 31
0.0
 11
72.02033440156322
 21
-9.510594538300509
 31
0.0
 11
72.0234110486632
 21
-9.508776263600523
 31
0.0
 11
72.02648857706333
 21
-9.506955182100469
 31
0.0
 11
72.02956828726326
 21
-9.505130526000542
 31
0.0
 11
72.03265191536331
 21
-9.503301265500525
 31
0.0
 11
72.03574072776325
 21
-9.501466644900503
 31
0.0
 11
72.03883645866324
 21
-9.499625626400543
 31
0.0
 11
72.04194058886321
 21
-9.497777318700528
 31
0.0
 11
72.04505491926318
 21
-9.495920635100517
 31
0.0
 11
72.04818072096327
 21
-9.49405480040049
 31
0.0
 11
72.05131925816329
 21
-9.492179039800547
 31
0.0
  0
SPLINE
  5
562D1
330
1F
100
AcDbEntity
  8
1
100
AcDbSpline
210
0.0
220
0.0
230
1.0
 70
     8
 71
     3
 72
    21
 73
    17
 74
    15
 42
0.0000000001
 43
0.0000000001
 44
0.000001
 12
0.0529856683051067
 22
-0.9985952728479448
 32
0.0
 13
0.0561841219915477
 23
-0.9984204246889378
 33
0.0
 40
0.0
 40
0.0
 40
0.0
 40
0.0
 40
0.04148288196723
 40
0.0841943123596444
 40
0.1297373316848198
 40
0.1782820053246919
 40
0.2287344996061478
 40
0.2808102188464745
 40
0.3355674621593501
 40
0.3944642926659712
 40
0.4588516966675634
 40
0.5297385936655579
 40
0.6078072277793016
 40
0.6930985300723247
 40
0.7831805019654805
 40
0.8730019523472149
 40
0.8730019523472149
 40
0.8730019523472149
 40
0.8730019523472149
 10
72.84498386166331
 20
-3.7834169779005
 30
0.0
 10
72.84571652773809
 20
-3.797225181179371
 30
0.0
 10
72.8472060198975
 20
-3.825250398309506
 30
0.0
 10
72.84951579899177
 20
-3.86843444904322
 30
0.0
 10
72.8519654329325
 20
-3.913968312370869
 30
0.0
 10
72.85456867072349
 20
-3.962077995758065
 30
0.0
 10
72.85730292305732
 20
-4.012361340085377
 30
0.0
 10
72.8601610863189
 20
-4.064711860999054
 30
0.0
 10
72.86318176764393
 20
-4.119872478828014
 30
0.0
 10
72.86643320344018
 20
-4.179130503461138
 30
0.0
 10
72.86998083806463
 20
-4.243756914394268
 30
0.0
 10
72.87387647163519
 20
-4.314764444738059
 30
0.0
 10
72.87815975458329
 20
-4.392729152379175
 30
0.0
 10
72.88281106338434
 20
-4.477081646790807
 30
0.0
 10
72.88770694374591
 20
-4.5653442100011
 30
0.0
 10
72.89106319738812
 20
-4.625218026588456
 30
0.0
 10
72.89274537716335
 20
-4.655111216800563
 30
0.0
 11
72.84498386166331
 21
-3.7834169779005
 31
0.0
 11
72.84718758096335
 21
-3.824841283900539
 31
0.0
 11
72.84946852046312
 21
-3.867491765500503
 31
0.0
 11
72.85191496716322
 21
-3.912969028900491
 31
0.0
 11
72.8545374132633
 21
-3.961442816600495
 31
0.0
 11
72.85727635356329
 21
-4.011820910700507
 31
0.0
 11
72.86011474576333
 21
-4.063819218800475
 31
0.0
 11
72.8631082574633
 21
-4.118494574900537
 31
0.0
 11
72.86633416876327
 21
-4.177302993700536
 31
0.0
 11
72.86986275866332
 21
-4.241593637100507
 31
0.0
 11
72.87374718806325
 21
-4.312374025300513
 31
0.0
 11
72.87803119216312
 21
-4.390325028600514
 31
0.0
 11
72.88272865766328
 21
-4.475486874700507
 31
0.0
 11
72.88772152086323
 21
-4.565430373300515
 31
0.0
 11
72.89274537716335
 21
-4.655111216800563
 31
0.0
  0
SPLINE
  5
562D2
330
1F
100
AcDbEntity
  8
1
100
AcDbSpline
210
0.0
220
0.0
230
1.0
 70
     8
 71
     3
 72
    47
 73
    43
 74
    41
 42
0.0000000001
 43
0.0000000001
 44
0.000001
 12
0.7868237050203132
 22
0.6171778165311092
 32
0.0
 13
0.7670990057521833
 23
0.6415287330852859
 33
0.0
 40
0.0
 40
0.0
 40
0.0
 40
0.0
 40
0.0041994556737588
 40
0.0083499187244611
 40
0.0124539277414505
 40
0.0165143870421908
 40
0.0205339163309749
 40
0.0245149557043816
 40
0.028460466338492
 40
0.0323725308727605
 40
0.0362540181025285
 40
0.040106463968788
 40
0.0439317242451451
 40
0.0477328718147108
 40
0.051512776153966
 40
0.055272831874355
 40
0.0590154206931709
 40
0.0627430779612016
 40
0.0664578148018158
 40
0.0701592049024216
 40
0.0738461853470453
 40
0.0775162493524944
 40
0.0811682533781356
 40
0.0848025195277851
 40
0.0884197923649488
 40
0.0920221411403599
 40
0.0956114417434184
 40
0.0991896483528324
 40
0.1027589564630384
 40
0.1063205026423371
 40
0.1098757595274981
 40
0.1134268479148068
 40
0.1169759124026884
 40
0.1205248782999819
 40
0.1240753883628033
 40
0.1276292351172191
 40
0.1311880989038287
 40
0.1347537289076591
 40
0.1383276955464128
 40
0.1419117777553212
 40
0.145508126501545
 40
0.149118737875569
 40
0.149118737875569
 40
0.149118737875569
 40
0.149118737875569
 10
72.1739834304633
 20
-9.407547542300491
 30
0.0
 10
72.17508484088739
 20
-9.406683605339381
 30
0.0
 10
72.17727408090218
 20
-9.404964877898649
 30
0.0
 10
72.18053716266007
 20
-9.402398621910876
 30
0.0
 10
72.18376169208887
 20
-9.399858296907027
 30
0.0
 10
72.18694984367971
 20
-9.397342324895319
 30
0.0
 10
72.19010376029837
 20
-9.394849140451995
 30
0.0
 10
72.19322559401155
 20
-9.392377159001327
 30
0.0
 10
72.19631735095203
 20
-9.389924899812953
 30
0.0
 10
72.1993811438989
 20
-9.387490786450271
 30
0.0
 10
72.20241870853351
 20
-9.38507353135931
 30
0.0
 10
72.20543171694697
 20
-9.382671888349406
 30
0.0
 10
72.20842189035062
 20
-9.380284563551711
 30
0.0
 10
72.21139129263156
 20
-9.377909979718268
 30
0.0
 10
72.21434186235132
 20
-9.375546648885162
 30
0.0
 10
72.21727535369684
 20
-9.373193221316441
 30
0.0
 10
72.22019342985345
 20
-9.370848411725532
 30
0.0
 10
72.22309790982257
 20
-9.368510800567648
 30
0.0
 10
72.22598987941046
 20
-9.36617955010162
 30
0.0
 10
72.22886948883581
 20
-9.363854573056229
 30
0.0
 10
72.23173571745849
 20
-9.361536729219366
 30
0.0
 10
72.23458736169163
 20
-9.359227032295777
 30
0.0
 10
72.2374235796733
 20
-9.35692620900356
 30
0.0
 10
72.24024437249841
 20
-9.354634304796135
 30
0.0
 10
72.24305057169022
 20
-9.352350688819271
 30
0.0
 10
72.2458434080578
 20
-9.350074400238369
 30
0.0
 10
72.24862442156194
 20
-9.347804219251898
 30
0.0
 10
72.25139518100116
 20
-9.345538894780602
 30
0.0
 10
72.25415706062927
 20
-9.34327732709265
 30
0.0
 10
72.25691130726829
 20
-9.341018514153844
 30
0.0
 10
72.25965914558497
 20
-9.338761466151979
 30
0.0
 10
72.2624020566123
 20
-9.33650497598542
 30
0.0
 10
72.26514163405841
 20
-9.334247735998516
 30
0.0
 10
72.26787934476141
 20
-9.331988535143196
 30
0.0
 10
72.27061656146452
 20
-9.329726232742629
 30
0.0
 10
72.27335459055308
 20
-9.327459736028018
 30
0.0
 10
72.27609476234926
 20
-9.325187925543204
 30
0.0
 10
72.2788383467697
 20
-9.322909725011882
 30
0.0
 10
72.28158663565074
 20
-9.320624033164889
 30
0.0
 10
72.28434102029791
 20
-9.318329658931546
 30
0.0
 10
72.2871029971094
 20
-9.316025315837563
 30
0.0
 10
72.28894641983152
 20
-9.314484882247327
 30
0.0
 10
72.28986965196327
 20
-9.313712778600532
 30
0.0
 11
72.1739834304633
 21
-9.407547542300491
 31
0.0
 11
72.17728655496319
 21
-9.404954322400485
 31
0.0
 11
72.18054896706326
 21
-9.402388588600516
 31
0.0
 11
72.18377273036333
 21
-9.399848862500519
 31
0.0
 11
72.18696018996332
 21
-9.397333431800532
 31
0.0
 11
72.19011346146328
 21
-9.394840752600472
 31
0.0
 11
72.19323451396326
 21
-9.392369385100508
 31
0.0
 11
72.19632571966326
 21
-9.389917559000522
 31
0.0
 11
72.19938875676326
 21
-9.387484042600547
 31
0.0
 11
72.20242591406327
 21
-9.385067108800527
 31
0.0
 11
72.2054384326633
 21
-9.382665854300526
 31
0.0
 11
72.20842780016312
 21
-9.380279171800523
 31
0.0
 11
72.21139645076323
 21
-9.377905188800539
 31
0.0
 11
72.21434665386334
 21
-9.375542152300525
 31
0.0
 11
72.21727952306321
 21
-9.373189225400508
 31
0.0
 11
72.2201969383633
 21
-9.370844949000527
 31
0.0
 11
72.22310089486325
 21
-9.368507761900517
 31
0.0
 11
72.2259929746632
 21
-9.366176425800532
 31
0.0
 11
72.22887286006323
 21
-9.363851229400509
 31
0.0
 11
72.2317397393632
 21
-9.361532862900517
 31
0.0
 11
72.23459168126328
 21
-9.359222928200509
 31
0.0
 11
72.2374278177632
 21
-9.356922174000587
 31
0.0
 11
72.24024842006326
 21
-9.354630426800511
 31
0.0
 11
72.24305408656334
 21
-9.352347245800487
 31
0.0
 11
72.24584644076333
 21
-9.350071351100481
 31
0.0
 11
72.24862695236322
 21
-9.347801580100522
 31
0.0
 11
72.25139714816328
 21
-9.345536716300514
 31
0.0
 11
72.25415873776331
 21
-9.34327538550049
 31
0.0
 11
72.25691260806332
 21
-9.341016880200541
 31
0.0
 11
72.25965990346333
 21
-9.338760276900543
 31
0.0
 11
72.26240226586321
 21
-9.336504236600561
 31
0.0
 11
72.26514135136324
 21
-9.334247400100551
 31
0.0
 11
72.26787864306323
 21
-9.331988543100536
 31
0.0
 11
72.2706154023632
 21
-9.329726616600524
 31
0.0
 11
72.27335300286324
 21
-9.327460472300501
 31
0.0
 11
72.27609272836332
 21
-9.325189029400505
 31
0.0
 11
72.27883591216334
 21
-9.322911159000526
 31
0.0
 11
72.28158374656334
 21
-9.320625842300486
 31
0.0
 11
72.28433758106326
 21
-9.31833192350048
 31
0.0
 11
72.28709904686332
 21
-9.316028003800525
 31
0.0
 11
72.28986965196327
 21
-9.313712778600532
 31
0.0
  0
SPLINE
  5
562D3
330
1F
100
AcDbEntity
  8
1
100
AcDbSpline
210
0.0
220
0.0
230
1.0
 70
     8
 71
     3
 72
    19
 73
    15
 74
    13
 42
0.0000000001
 43
0.0000000001
 44
0.000001
 12
0.0539732259751213
 22
-0.9985423831154282
 32
0.0
 13
0.0556055887574215
 23
-0.9984528123546654
 33
0.0
 40
0.0
 40
0.0
 40
0.0
 40
0.0
 40
0.1074676643135017
 40
0.2056032265421486
 40
0.293107883003688
 40
0.3705032989617671
 40
0.439233172792633
 40
0.5010157423126471
 40
0.5581652280586848
 40
0.6130978806274005
 40
0.6678713714534577
 40
0.723046911625997
 40
0.7781499500077712
 40
0.8332325007366796
 40
0.8332325007366796
 40
0.8332325007366796
 40
0.8332325007366796
 10
72.79956988466324
 20
-2.951423070800515
 30
0.0
 10
72.80150334350691
 20
-2.987193410011016
 30
0.0
 10
72.80520630215102
 20
-3.055627709889321
 30
0.0
 10
72.81051119091273
 20
-3.153186213835212
 30
0.0
 10
72.81526813922846
 20
-3.240735620804443
 30
0.0
 10
72.81949423978744
 20
-3.318497516994838
 30
0.0
 10
72.82325841999488
 20
-3.387697835345207
 30
0.0
 10
72.82666064407891
 20
-3.45015922213453
 30
0.0
 10
72.82981807747251
 20
-3.508028051066204
 30
0.0
 10
72.83285414296717
 20
-3.563563667121073
 30
0.0
 10
72.8358621926468
 20
-3.618441849997836
 30
0.0
 10
72.83888424741451
 20
-3.673376144687537
 30
0.0
 10
72.84192427080364
 20
-3.72841262576118
 30
0.0
 10
72.84396289577546
 20
-3.765084535338175
 30
0.0
 10
72.84498386166331
 20
-3.7834169779005
 30
0.0
 11
72.79956988466324
 21
-2.951423070800515
 31
0.0
 11
72.80538034746325
 21
-3.058733542000553
 31
0.0
 11
72.81070387176328
 21
-3.156724606200512
 31
0.0
 11
72.81545214986329
 21
-3.244100339300516
 31
0.0
 11
72.81965265116321
 21
-3.321381683600534
 31
0.0
 11
72.82338608636326
 21
-3.390010081500477
 31
0.0
 11
72.82674662516331
 21
-3.451701188300532
 31
0.0
 11
72.8298603679633
 21
-3.508765786000552
 31
0.0
 11
72.83285935566334
 21
-3.563616514100473
 31
0.0
 11
72.83585765766327
 21
-3.618307879600521
 31
0.0
 11
72.83888862836329
 21
-3.673400106100515
 31
0.0
 11
72.8419288862633
 21
-3.728419208400495
 31
0.0
 11
72.84498386166331
 21
-3.7834169779005
 31
0.0
  0
SPLINE
  5
562D4
330
1F
100
AcDbEntity
  8
1
100
AcDbSpline
210
0.0
220
0.0
230
1.0
 70
     8
 71
     3
 72
    47
 73
    43
 74
    41
 42
0.0000000001
 43
0.0000000001
 44
0.000001
 12
0.7388589381848503
 22
0.6738601260383015
 32
0.0
 13
0.7133658030530894
 23
0.7007918599944074
 33
0.0
 40
0.0
 40
0.0
 40
0.0
 40
0.0
 40
0.0042333093801283
 40
0.0084144354888523
 40
0.0125463139975509
 40
0.0166323476718051
 40
0.0206751221949046
 40
0.0246777063389407
 40
0.0286422782093501
 40
0.0325714597380785
 40
0.0364675492886214
 40
0.0403330040319252
 40
0.0441706071906154
 40
0.0479833853820122
 40
0.0517744075021511
 40
0.0555454679163649
 40
0.0592976822076769
 40
0.0630329850287745
 40
0.0667529984004376
 40
0.0704573756457627
 40
0.0741451614180203
 40
0.0778162614093214
 40
0.0814696605463953
 40
0.0851029651677294
 40
0.0887157040207867
 40
0.0923104706135751
 40
0.0958909653755151
 40
0.0994600563608438
 40
0.103019658786467
 40
0.1065718962138636
 40
0.1101177154520192
 40
0.1136581222451483
 40
0.1171953534124614
 40
0.1207313663250799
 40
0.1242674028955715
 40
0.1278055922517682
 40
0.1313479982782324
 40
0.1348953686723061
 40
0.1384492709266033
 40
0.1420121645593955
 40
0.1455856425849385
 40
0.1491720854136784
 40
0.1491720854136784
 40
0.1491720854136784
 40
0.1491720854136784
 10
72.28986965196327
 20
-9.313712778600532
 30
0.0
 10
72.29091225812112
 20
-9.312761892469708
 30
0.0
 10
72.29298369981416
 20
-9.310870834125168
 30
0.0
 10
72.29606957692488
 20
-9.308048181636522
 30
0.0
 10
72.29911654143723
 20
-9.305255726250365
 30
0.0
 10
72.30212686405725
 20
-9.302491548586871
 30
0.0
 10
72.30510284042555
 20
-9.299753690418967
 30
0.0
 10
72.30804645834729
 20
-9.297040461592885
 30
0.0
 10
72.31095970783087
 20
-9.29435015625286
 30
0.0
 10
72.31384438388466
 20
-9.291681235670509
 30
0.0
 10
72.31670234373831
 20
-9.289032091178839
 30
0.0
 10
72.31953547793387
 20
-9.286401070766416
 30
0.0
 10
72.32234584843912
 20
-9.283786350106723
 30
0.0
 10
72.32513565947613
 20
-9.281185958262071
 30
0.0
 10
72.32790686700332
 20
-9.278598141239186
 30
0.0
 10
72.33066095546906
 20
-9.276021573343754
 30
0.0
 10
72.33339912894843
 20
-9.273455182506282
 30
0.0
 10
72.33612254578776
 20
-9.270897931787672
 30
0.0
 10
72.33883200540657
 20
-9.268349113987639
 30
0.0
 10
72.3415276038869
 20
-9.265808680120827
 30
0.0
 10
72.34420902166198
 20
-9.263276974262581
 30
0.0
 10
72.34687577864349
 20
-9.260754494941906
 30
0.0
 10
72.34952704851355
 20
-9.25824207227167
 30
0.0
 10
72.35216191722599
 20
-9.255740626380045
 30
0.0
 10
72.35478034578921
 20
-9.253250251976069
 30
0.0
 10
72.35738376549625
 20
-9.250769641994097
 30
0.0
 10
72.3599744073004
 20
-9.248296714931612
 30
0.0
 10
72.36255433106243
 20
-9.245829537432754
 30
0.0
 10
72.36512521037474
 20
-9.243366532694764
 30
0.0
 10
72.36768825127478
 20
-9.240906561584054
 30
0.0
 10
72.37024443724386
 20
-9.238448690875898
 30
0.0
 10
72.37279477582791
 20
-9.235991957900253
 30
0.0
 10
72.37534051333341
 20
-9.233535162305471
 30
0.0
 10
72.37788294805534
 20
-9.2310770442635
 30
0.0
 10
72.38042334801895
 20
-9.228616364313083
 30
0.0
 10
72.38296300221247
 20
-9.226151853646214
 30
0.0
 10
72.38550307660074
 20
-9.223682353290811
 30
0.0
 10
72.38804459884
 20
-9.221206830649393
 30
0.0
 10
72.39058868724106
 20
-9.218724157276383
 30
0.0
 10
72.39313665699592
 20
-9.216233003104107
 30
0.0
 10
72.39569001157838
 20
-9.213731843220571
 30
0.0
 10
72.39739336194043
 20
-9.212060122114067
 30
0.0
 10
72.39824617716329
 20
-9.211222338800482
 30
0.0
 11
72.28986965196327
 21
-9.313712778600532
 31
0.0
 11
72.29299606906329
 21
-9.310858588600481
 31
0.0
 11
72.29608119426325
 21
-9.308036576700558
 31
0.0
 11
72.29912728096326
 21
-9.305244861100518
 31
0.0
 11
72.30213691816323
 21
-9.302481234700522
 31
0.0
 11
72.30511208486325
 21
-9.299744034000539
 31
0.0
 11
72.30805510796324
 21
-9.297031260000537
 31
0.0
 11
72.31096765226323
 21
-9.294341509400524
 31
0.0
 11
72.31385170246324
 21
-9.291673071000488
 31
0.0
 11
72.31670899916332
 21
-9.289024446100583
 31
0.0
 11
72.31954139346328
 21
-9.286394021500498
 31
0.0
 11
72.32235096866327
 21
-9.283779954800493
 31
0.0
 11
72.32513997916328
 21
-9.281180230100531
 31
0.0
 11
72.32791070236328
 21
-9.278592794100532
 31
0.0
 11
72.33066447786325
 21
-9.276016456600487
 31
0.0
 11
72.33340214566329
 21
-9.2734504869005
 31
0.0
 11
72.33612513976334
 21
-9.270893590300559
 31
0.0
 11
72.3388346618633
 21
-9.268344681400506
 31
0.0
 11
72.34153047746326
 21
-9.265804021300525
 31
0.0
 11
72.34421191066326
 21
-9.263272290200504
 31
0.0
 11
72.3468789133633
 21
-9.26074957900046
 31
0.0
 11
72.34953076966326
 21
-9.258236612500539
 31
0.0
 11
72.35216576676328
 21
-9.255735067700541
 31
0.0
 11
72.35478359016326
 21
-9.25324530230047
 31
0.0
 11
72.35738614466334
 21
-9.250765560300507
 31
0.0
 11
72.35997612886331
 21
-9.248293314100536
 31
0.0
 11
72.36255563066322
 21
-9.245826601800487
 31
0.0
 11
72.36512604326333
 21
-9.243364113700508
 31
0.0
 11
72.3676889049633
 21
-9.240904390400558
 31
0.0
 11
72.37024490116334
 21
-9.238446783300517
 31
0.0
 11
72.37279475706327
 21
-9.235990600200508
 31
0.0
 11
72.37534008076329
 21
-9.233534291000481
 31
0.0
 11
72.37788227376324
 21
-9.231076494000561
 31
0.0
 11
72.38042221876333
 21
-9.228616340300519
 31
0.0
 11
72.38296143156333
 21
-9.226152339500501
 31
0.0
 11
72.3855013755633
 21
-9.223683041000541
 31
0.0
 11
72.38804256616333
 21
-9.22120790740054
 31
0.0
 11
72.39058610326321
 21
-9.218725826600532
 31
0.0
 11
72.39313371966329
 21
-9.216235058000492
 31
0.0
 11
72.39568652286322
 21
-9.213734461100514
 31
0.0
 11
72.39824617716329
 21
-9.211222338800482
 31
0.0
  0
SPLINE
  5
562D5
330
1F
100
AcDbEntity
  8
1
100
AcDbSpline
210
0.0
220
0.0
230
1.0
 70
     8
 71
     3
 72
    19
 73
    15
 74
    13
 42
0.0000000001
 43
0.0000000001
 44
0.000001
 12
0.0538085029810505
 22
-0.9985512730986517
 32
0.0
 13
0.0566763476030875
 23
-0.9983926039501566
 33
0.0
 40
0.0
 40
0.0
 40
0.0
 40
0.0
 40
0.1007597028417522
 40
0.1918198453534133
 40
0.2745202638348894
 40
0.3490695690306333
 40
0.4156015673123438
 40
0.475317384356973
 40
0.5306870848672198
 40
0.5841779500529669
 40
0.6379045465048527
 40
0.692116963194795
 40
0.7463628107728554
 40
0.8000961225817761
 40
0.8000961225817761
 40
0.8000961225817761
 40
0.8000961225817761
 10
72.75560144616327
 20
-2.152536264800502
 30
0.0
 10
72.75740868908684
 20
-2.186074174650386
 30
0.0
 10
72.76085446432819
 20
-2.249921208322192
 30
0.0
 10
72.76580576085973
 20
-2.341293911650254
 30
0.0
 10
72.77030006089359
 20
-2.4239417602396
 30
0.0
 10
72.77436512834339
 20
-2.498424820604597
 30
0.0
 10
72.77802441631485
 20
-2.565257090782139
 30
0.0
 10
72.78135212357534
 20
-2.625704735662239
 30
0.0
 10
72.78445010122965
 20
-2.681811399963876
 30
0.0
 10
72.78745280414603
 20
-2.735923875410222
 30
0.0
 10
72.79044888343339
 20
-2.789650361615187
 30
0.0
 10
72.7934758663439
 20
-2.843627174017299
 30
0.0
 10
72.79652094300996
 20
-2.897605210114349
 30
0.0
 10
72.79855474871055
 20
-2.933540757101937
 30
0.0
 10
72.79956988466324
 20
-2.951423070800515
 30
0.0
 11
72.75560144616327
 21
-2.152536264800502
 31
0.0
 11
72.76103354296322
 21
-2.253149430300553
 31
0.0
 11
72.76596056126312
 21
-2.344076180000527
 31
0.0
 11
72.77045145076328
 21
-2.426654572200519
 31
0.0
 11
72.77451406696321
 21
-2.501093093200481
 31
0.0
 11
72.77815309266327
 21
-2.567525465800557
 31
0.0
 11
72.78143245066326
 21
-2.627151190600486
 31
0.0
 11
72.78448619226321
 21
-2.682436631100515
 31
0.0
 11
72.7874498901632
 21
-2.735845334000558
 31
0.0
 11
72.79044165336324
 21
-2.789488569500534
 31
0.0
 11
72.7934772458633
 21
-2.843615932300522
 31
0.0
 11
72.79653121856324
 21
-2.897775744200473
 31
0.0
 11
72.79956988466324
 21
-2.951423070800515
 31
0.0
  0
SPLINE
  5
562D6
330
1F
100
AcDbEntity
  8
1
100
AcDbSpline
210
0.0
220
0.0
230
1.0
 70
     8
 71
     3
 72
    19
 73
    15
 74
    13
 42
0.0000000001
 43
0.0000000001
 44
0.000001
 12
0.0538989856343329
 22
-0.9985463931874122
 32
0.0
 13
0.0566953971756919
 23
-0.9983915223694012
 33
0.0
 40
0.0
 40
0.0
 40
0.0
 40
0.0
 40
0.048159329592138
 40
0.0981852707365556
 40
0.1502228643354269
 40
0.2034551794316235
 40
0.2583157413556872
 40
0.3169186162271371
 40
0.3814642349521517
 40
0.4537562252742419
 40
0.5344728585698232
 40
0.6238599491698972
 40
0.7227951737312432
 40
0.83313417915222
 40
0.83313417915222
 40
0.83313417915222
 40
0.83313417915222
 10
72.70929975966328
 20
-1.320689968300555
 30
0.0
 10
72.71016500600126
 20
-1.336719743254761
 30
0.0
 10
72.71193375422751
 20
-1.36940033781731
 30
0.0
 10
72.71464944246281
 20
-1.419400931882321
 30
0.0
 10
72.71747126372208
 20
-1.471089247357454
 30
0.0
 10
72.72039591992404
 20
-1.52438588652599
 30
0.0
 10
72.72345449914098
 20
-1.579866894257818
 30
0.0
 10
72.7267332745879
 20
-1.639112589098388
 30
0.0
 10
72.73035177974373
 20
-1.704158847358868
 30
0.0
 10
72.73439511887159
 20
-1.776564120059177
 30
0.0
 10
72.73891702570757
 20
-1.857236058176383
 30
0.0
 10
72.74395468862474
 20
-1.946774103703873
 30
0.0
 10
72.74956758590099
 20
-2.046169522905003
 30
0.0
 10
72.75351620825119
 20
-2.115815755600849
 30
0.0
 10
72.75560144616327
 20
-2.152536264800502
 30
0.0
 11
72.70929975966328
 21
-1.320689968300555
 31
0.0
 11
72.71190091426331
 21
-1.368779003800526
 31
0.0
 11
72.71461435566322
 21
-1.418731302600505
 31
0.0
 11
72.71745096426332
 21
-1.470691528100516
 31
0.0
 11
72.72036738736336
 21
-1.523843899200542
 31
0.0
 11
72.72338723916312
 21
-1.578621313600521
 31
0.0
 11
72.72662747596325
 21
-1.637134518800522
 31
0.0
 11
72.73021151366322
 21
-1.701580543700501
 31
0.0
 11
72.73424192036327
 21
-1.773760092100516
 31
0.0
 11
72.7387589422633
 21
-1.854350235300515
 31
0.0
 11
72.74377982326325
 21
-1.943596202000534
 31
0.0
 11
72.74935775906328
 21
-2.042374059300541
 31
0.0
 11
72.75560144616327
 21
-2.152536264800502
 31
0.0
  0
SPLINE
  5
562D7
330
1F
100
AcDbEntity
  8
1
100
AcDbSpline
210
0.0
220
0.0
230
1.0
 70
     8
 71
     3
 72
    18
 73
    14
 74
    12
 42
0.0000000001
 43
0.0000000001
 44
0.000001
 12
0.0551823759455847
 22
-0.9984762918492357
 32
0.0
 13
0.0569091252315841
 23
-0.9983793624997343
 33
0.0
 40
0.0
 40
0.0
 40
0.0
 40
0.0
 40
0.1034938397612957
 40
0.2006097325419581
 40
0.2891938172656357
 40
0.3692262147892313
 40
0.4413512521560629
 40
0.5068294486225713
 40
0.5668484553409927
 40
0.6221055373332725
 40
0.67283496726273
 40
0.7192927952926475
 40
0.7617176630757241
 40
0.7617176630757241
 40
0.7617176630757241
 40
0.7617176630757241
 10
72.66655597256328
 20
-0.5601726050005169
 30
0.0
 10
72.66845965122121
 20
-0.5946179867852237
 30
0.0
 10
72.67215969320614
 20
-0.6613854559604278
 30
0.0
 10
72.67753310757211
 20
-0.7576335177008531
 30
0.0
 10
72.68248841547023
 20
-0.8460722598159549
 30
0.0
 10
72.68699133541821
 20
-0.9261929972722526
 30
0.0
 10
72.6910705553787
 20
-0.9986234296811886
 30
0.0
 10
72.69478024463854
 20
-1.064392971662513
 30
0.0
 10
72.69817631763806
 20
-1.124548614066512
 30
0.0
 10
72.70129901316159
 20
-1.179795606217922
 30
0.0
 10
72.70417252212377
 20
-1.230529074634304
 30
0.0
 10
72.70680947469577
 20
-1.276991681138085
 30
0.0
 10
72.7084949722921
 20
-1.306571264150093
 30
0.0
 10
72.70929975966328
 20
-1.320689968300555
 30
0.0
 11
72.66655597256328
 21
-0.5601726050005169
 31
0.0
 11
72.67228562446326
 21
-0.6635077201005544
 31
0.0
 11
72.67769603916327
 21
-0.7604727858005305
 31
0.0
 11
72.68265151936327
 21
-0.8489181545005379
 31
0.0
 11
72.68714187656326
 21
-0.9288244829005662
 31
0.0
 11
72.69119720666333
 21
-1.000835421600541
 31
0.0
 11
72.69488429216323
 21
-1.066209725400497
 31
0.0
 11
72.6982674863633
 21
-1.126133303000514
 31
0.0
 11
72.70138629716337
 21
-1.181302299000506
 31
0.0
 11
72.70425504836328
 21
-1.23195054990056
 31
0.0
 11
72.70688847896327
 21
-1.278333680700555
 31
0.0
 11
72.70929975966328
 21
-1.320689968300555
 31
0.0
  0
SPLINE
  5
562D8
330
1F
100
AcDbEntity
  8
1
100
AcDbSpline
210
0.0
220
0.0
230
1.0
 70
     8
 71
     3
 72
    47
 73
    43
 74
    41
 42
0.0000000001
 43
0.0000000001
 44
0.000001
 12
0.6870671021677919
 22
0.7265939699163165
 32
0.0
 13
0.6543764207597062
 23
0.7561689625696867
 33
0.0
 40
0.0
 40
0.0
 40
0.0
 40
0.0
 40
0.0042667549002791
 40
0.0084791366573782
 40
0.0126405864126626
 40
0.0167538556280835
 40
0.0208219702923328
 40
0.0248475985964972
 40
0.0288333926904228
 40
0.0327821047199458
 40
0.0366958155444231
 40
0.0405774334821867
 40
0.0444293629447978
 40
0.0482542663923453
 40
0.0520544416340075
 40
0.0558310149529871
 40
0.0595861951712442
 40
0.0633231946500598
 40
0.0670448793158907
 40
0.0707509661052733
 40
0.074439796767694
 40
0.0781088030240252
 40
0.0817560107285379
 40
0.085382033476026
 40
0.088989164039465
 40
0.0925794227890965
 40
0.0961543019339734
 40
0.0997158767773044
 40
0.103265656433599
 40
0.1068054742182228
 40
0.1103372639854672
 40
0.1138630765867316
 40
0.1173847473631957
 40
0.1209040918426743
 40
0.1244227527489782
 40
0.1279423840968293
 40
0.1314650763835464
 40
0.1349933000874716
 40
0.1385291852155118
 40
0.1420736738738558
 40
0.1456273194670459
 40
0.1491921256909703
 40
0.1491921256909703
 40
0.1491921256909703
 40
0.1491921256909703
 10
72.39824617716329
 20
-9.211222338800482
 30
0.0
 10
72.39922335947159
 20
-9.210188939339943
 30
0.0
 10
72.40116412464226
 20
-9.208134224731381
 30
0.0
 10
72.40405396543218
 20
-9.205067850295066
 30
0.0
 10
72.40690534648695
 20
-9.20203553573917
 30
0.0
 10
72.40972046607061
 20
-9.199035137257183
 30
0.0
 10
72.41250133624283
 20
-9.196064689178271
 30
0.0
 10
72.41524994091321
 20
-9.193122244505147
 30
0.0
 10
72.41796818196258
 20
-9.190205904312577
 30
0.0
 10
72.42065786174567
 20
-9.187313944035722
 30
0.0
 10
72.42332059225112
 20
-9.18444434577357
 30
0.0
 10
72.42595834148824
 20
-9.181595580233462
 30
0.0
 10
72.42857290791778
 20
-9.178765695662448
 30
0.0
 10
72.43116602127407
 20
-9.175952954117391
 30
0.0
 10
72.43373909447189
 20
-9.173155904724339
 30
0.0
 10
72.43629343797647
 20
-9.170373207735977
 30
0.0
 10
72.43883056095836
 20
-9.167603291845765
 30
0.0
 10
72.44135235680585
 20
-9.164844151200767
 30
0.0
 10
72.4438601505953
 20
-9.16209438573351
 30
0.0
 10
72.44635416841117
 20
-9.159353790362288
 30
0.0
 10
72.44883341945154
 20
-9.156623501732795
 30
0.0
 10
72.45129653921299
 20
-9.153905078502688
 30
0.0
 10
72.4537426782033
 20
-9.151199523986392
 30
0.0
 10
72.45617207605483
 20
-9.148506641668333
 30
0.0
 10
72.45858586151598
 20
-9.145825243774268
 30
0.0
 10
72.46098535313866
 20
-9.143153919246444
 30
0.0
 10
72.46337181554969
 20
-9.140491305959201
 30
0.0
 10
72.46574639316247
 20
-9.137836162840969
 30
0.0
 10
72.46811030159193
 20
-9.135187159918203
 30
0.0
 10
72.4704647175028
 20
-9.132542995647256
 30
0.0
 10
72.47281093755913
 20
-9.129902233495883
 30
0.0
 10
72.47515022974522
 20
-9.127263410691099
 30
0.0
 10
72.47748391488295
 20
-9.12462516374093
 30
0.0
 10
72.47981289828238
 20
-9.121985943805654
 30
0.0
 10
72.48213853837348
 20
-9.119344683134713
 30
0.0
 10
72.48446194453987
 20
-9.116699971511806
 30
0.0
 10
72.48678447677434
 20
-9.114050252147265
 30
0.0
 10
72.48910757211035
 20
-9.111393824746031
 30
0.0
 10
72.49143241340277
 20
-9.108729275454962
 30
0.0
 10
72.49375975612093
 20
-9.106055665705881
 30
0.0
 10
72.49609032431681
 20
-9.103372085694175
 30
0.0
 10
72.49764409331738
 20
-9.101578746141868
 30
0.0
 10
72.49842166836322
 20
-9.100680214200522
 30
0.0
 11
72.39824617716329
 21
-9.211222338800482
 31
0.0
 11
72.40117595986328
 21
-9.208120481600516
 31
0.0
 11
72.40406494366323
 21
-9.205054900500513
 31
0.0
 11
72.40691559666323
 21
-9.202023197100501
 31
0.0
 11
72.40972990366334
 21
-9.199023465200539
 31
0.0
 11
72.41251002786327
 21
-9.19605358950055
 31
0.0
 11
72.41525787816328
 21
-9.19311170670052
 31
0.0
 11
72.41797534376326
 21
-9.19019595700054
 31
0.0
 11
72.42066437686332
 21
-9.18730439590054
 31
0.0
 11
72.42332648216336
 21
-9.184435543200564
 31
0.0
 11
72.42596367276326
 21
-9.181587355400509
 31
0.0
 11
72.42857763576319
 21
-9.178758124100525
 31
0.0
 11
72.43117022546323
 21
-9.175945943800527
 31
0.0
 11
72.43374304106317
 21
-9.173149169600563
 31
0.0
 11
72.43629688306327
 21
-9.170367013600483
 31
0.0
 11
72.43883327926335
 21
-9.167597885900548
 31
0.0
 11
72.44135442716322
 21
-9.164839449000524
 31
0.0
 11
72.44386228096335
 21
-9.162089612300533
 31
0.0
 11
72.44635666736326
 21
-9.159348606700532
 31
0.0
 11
72.44883649036331
 21
-9.156617682800501
 31
0.0
 11
72.45130004846328
 21
-9.153898770500504
 31
0.0
 11
72.45374604676328
 21
-9.151193366300518
 31
0.0
 11
72.45617492916323
 21
-9.148501050100534
 31
0.0
 11
72.45858826046322
 21
-9.145820151400542
 31
0.0
 11
72.46098741616322
 21
-9.143149195700473
 31
0.0
 11
72.46337341316337
 21
-9.14048709630056
 31
0.0
 11
72.46574765186335
 21
-9.137832327100525
 31
0.0
 11
72.4681111494632
 21
-9.135183778900525
 31
0.0
 11
72.4704651336632
 21
-9.132540095800507
 31
0.0
 11
72.47281089276327
 21
-9.129899841200497
 31
0.0
 11
72.47514978636321
 21
-9.127261485400495
 31
0.0
 11
72.47748302446325
 21
-9.124623654100489
 31
0.0
 11
72.47981182256319
 21
-9.12198495480051
 31
0.0
 11
72.48213722706328
 21
-9.119344174100504
 31
0.0
 11
72.48446030886327
 21
-9.116700059800521
 31
0.0
 11
72.4867824211633
 21
-9.114051025200538
 31
0.0
 11
72.48910515966326
 21
-9.111395191100498
 31
0.0
 11
72.49142988716323
 21
-9.108730927200511
 31
0.0
 11
72.49375717906321
 21
-9.106057493000506
 31
0.0
 11
72.49608735186325
 21
-9.103374438300548
 31
0.0
 11
72.49842166836322
 21
-9.100680214200522
 31
0.0
  0
SPLINE
  5
562D9
330
1F
100
AcDbEntity
  8
1
100
AcDbSpline
210
0.0
220
0.0
230
1.0
 70
     8
 71
     3
 72
    47
 73
    43
 74
    41
 42
0.0000000001
 43
0.0000000001
 44
0.000001
 12
0.6317454721875885
 22
0.7751758886668762
 32
0.0
 13
0.5903292049932213
 23
0.8071625794919333
 33
0.0
 40
0.0
 40
0.0
 40
0.0
 40
0.0
 40
0.0042961580133923
 40
0.0085360334437021
 40
0.0127228725201547
 40
0.0168598422086268
 40
0.0209492861728617
 40
0.0249943025728075
 40
0.0289978492901839
 40
0.0329620038053911
 40
0.0368898165227454
 40
0.040784152316393
 40
0.0446469237059253
 40
0.0484812533922547
 40
0.0522902374112162
 40
0.0560756382038892
 40
0.0598393650435066
 40
0.0635839766233363
 40
0.0673104535610607
 40
0.071017489702996
 40
0.0747043389302345
 40
0.0783714292042391
 40
0.0820186034192481
 40
0.0856445293686444
 40
0.0892493235489719
 40
0.0928349404532972
 40
0.096403093213883
 40
0.0999550207938436
 40
0.1034930839899628
 40
0.1070200535548634
 40
0.110538246745527
 40
0.1140496803732831
 40
0.117555983308138
 40
0.1210589458104365
 40
0.1245601719460887
 40
0.1280615549142287
 40
0.1315648456709541
 40
0.1350719854726179
 40
0.138584423858314
 40
0.142103712493396
 40
0.1456316790208186
 40
0.1491698333561827
 40
0.1491698333561827
 40
0.1491698333561827
 40
0.1491698333561827
 10
72.49842166836322
 20
-9.100680214200522
 30
0.0
 10
72.49932636115414
 20
-9.099570121498558
 30
0.0
 10
72.50112247947777
 20
-9.097363325288071
 30
0.0
 10
72.50379533539251
 20
-9.094070671161958
 30
0.0
 10
72.50643057730849
 20
-9.090815832883137
 30
0.0
 10
72.50903012653435
 20
-9.087596619415322
 30
0.0
 10
72.51159598207721
 20
-9.084410964936196
 30
0.0
 10
72.51412965314194
 20
-9.081256498924417
 30
0.0
 10
72.51663315887435
 20
-9.078131375050034
 30
0.0
 10
72.51910830546307
 20
-9.075033594970747
 30
0.0
 10
72.52155682788395
 20
-9.071961142908591
 30
0.0
 10
72.52398042737173
 20
-9.068912046216368
 30
0.0
 10
72.52638080738666
 20
-9.065884302971639
 30
0.0
 10
72.52875971003948
 20
-9.062875843338517
 30
0.0
 10
72.53111883469177
 20
-9.059884627260501
 30
0.0
 10
72.53345962140901
 20
-9.056908925156321
 30
0.0
 10
72.53578339066496
 20
-9.053947141126528
 30
0.0
 10
72.53809129429112
 20
-9.050997878097959
 30
0.0
 10
72.54038381761415
 20
-9.048060578321653
 30
0.0
 10
72.54266076727771
 20
-9.045135551692354
 30
0.0
 10
72.54492183904602
 20
-9.042223255176608
 30
0.0
 10
72.54716696546063
 20
-9.039323844592203
 30
0.0
 10
72.54939595965578
 20
-9.036437630300284
 30
0.0
 10
72.55160857376427
 20
-9.033565006648714
 30
0.0
 10
72.55380499098925
 20
-9.030705811466148
 30
0.0
 10
72.55598600957035
 20
-9.027859074898756
 30
0.0
 10
72.55815265027002
 20
-9.025023526155038
 30
0.0
 10
72.56030600864898
 20
-9.022197781089303
 30
0.0
 10
72.56244738678731
 20
-9.019380169658731
 30
0.0
 10
72.56457829495002
 20
-9.016568728569282
 30
0.0
 10
72.56670016360477
 20
-9.013761577938041
 30
0.0
 10
72.56881418483408
 20
-9.01095713486147
 30
0.0
 10
72.57092143426916
 20
-9.008153948738865
 30
0.0
 10
72.57302290599239
 20
-9.005350679817169
 30
0.0
 10
72.57511960765373
 20
-9.002545888727112
 30
0.0
 10
72.5772126462848
 20
-8.999738226385332
 30
0.0
 10
72.57930268526365
 20
-8.996925874024682
 30
0.0
 10
72.58139116004406
 20
-8.994107771933258
 30
0.0
 10
72.58347888742457
 20
-8.991282482650504
 30
0.0
 10
72.58556680755749
 20
-8.988448708049489
 30
0.0
 10
72.5876558235222
 20
-8.985605097755481
 30
0.0
 10
72.58904762528465
 20
-8.983704919560508
 30
0.0
 10
72.58974385056331
 20
-8.98275296430053
 30
0.0
 11
72.49842166836322
 21
-9.100680214200522
 31
0.0
 11
72.50113354976327
 21
-9.097348161700509
 31
0.0
 11
72.50380559356324
 21
-9.094056284700528
 31
0.0
 11
72.50643997886334
 21
-9.090802174600511
 31
0.0
 11
72.50903882146326
 21
-9.08758347370049
 31
0.0
 11
72.51160370846321
 21
-9.08439845570048
 31
0.0
 11
72.51413672366322
 21
-9.081244755300488
 31
0.0
 11
72.5166397956633
 21
-9.078120175000506
 31
0.0
 11
72.51911430016332
 21
-9.075023186600517
 31
0.0
 11
72.52156222206327
 21
-9.071951479900477
 31
0.0
 11
72.52398541916329
 21
-9.068902880300512
 31
0.0
 11
72.52638514706325
 21
-9.065875950800503
 31
0.0
 11
72.52876340406328
 21
-9.06286829860052
 31
0.0
 11
72.53112215956332
 21
-9.059877541800531
 31
0.0
 11
72.53346254736323
 21
-9.05690233780048
 31
0.0
 11
72.53578578476333
 21
-9.053941222700544
 31
0.0
 11
72.53809348156335
 21
-9.050992215000533
 31
0.0
 11
72.54038626736326
 21
-9.048054569900514
 31
0.0
 11
72.5426633643632
 21
-9.045129344900587
 31
0.0
 11
72.54492434326323
 21
-9.042217159000543
 31
0.0
 11
72.54716949626334
 21
-9.039317704900511
 31
0.0
 11
72.54939875646335
 21
-9.036431137100535
 31
0.0
 11
72.55161134146328
 21
-9.033558542200537
 31
0.0
 11
72.55380735626329
 21
-9.030699861600524
 31
0.0
 11
72.5559880221632
 21
-9.027853576400488
 31
0.0
 11
72.55815440656329
 21
-9.02501835380049
 31
0.0
 11
72.56030728246321
 21
-9.022193232700558
 31
0.0
 11
72.56244809626321
 21
-9.019376354700526
 31
0.0
 11
72.56457853226322
 21
-9.016565527300556
 31
0.0
 11
72.56669998996324
 21
-9.013758911200525
 31
0.0
 11
72.56881367826327
 21
-9.010954899700507
 31
0.0
 11
72.57092056436317
 21
-9.008152189800526
 31
0.0
 11
72.57302170516334
 21
-9.005349344200524
 31
0.0
 11
72.57511803776321
 21
-9.002545068600468
 31
0.0
 11
72.57721066696319
 21
-8.999737828800519
 31
0.0
 11
72.57930063426329
 21
-8.996926157400523
 31
0.0
 11
72.58138901516327
 21
-8.994108522400509
 31
0.0
 11
72.58347662096332
 21
-8.991283731600518
 31
0.0
 11
72.58556431576323
 21
-8.988450505300491
 31
0.0
 11
72.58765311836327
 21
-8.985607335500517
 31
0.0
 11
72.58974385056331
 21
-8.98275296430053
 31
0.0
  0
SPLINE
  5
562DA
330
1F
100
AcDbEntity
  8
1
100
AcDbSpline
210
0.0
220
0.0
230
1.0
 70
     8
 71
     3
 72
    48
 73
    44
 74
    42
 42
0.0000000001
 43
0.0000000001
 44
0.000001
 12
0.5731995894183429
 22
0.8194157862102995
 32
0.0
 13
0.5214814048625433
 23
0.8532626467756502
 33
0.0
 40
0.0
 40
0.0
 40
0.0
 40
0.0
 40
0.0042224000576507
 40
0.0083888175611244
 40
0.0125027091560673
 40
0.0165676480575077
 40
0.0205850790018101
 40
0.0245569329354652
 40
0.0284858147279757
 40
0.0323751521372526
 40
0.0362273788674609
 40
0.0400455794797162
 40
0.043831596456402
 40
0.0475880986669144
 40
0.0513169359735959
 40
0.055020006394944
 40
0.0587003947605947
 40
0.0623603480332732
 40
0.0660023042599893
 40
0.0696258296299576
 40
0.0732301098514569
 40
0.0768142776576853
 40
0.0803758415437433
 40
0.0839148019082779
 40
0.0874321824928527
 40
0.0909300870960375
 40
0.0944100657566866
 40
0.0978742640882281
 40
0.1013245713037302
 40
0.1047632495911555
 40
0.1081920636140437
 40
0.111611882355495
 40
0.1150245652423208
 40
0.1184318269122356
 40
0.1218347651022829
 40
0.1252355133847747
 40
0.1286360599977457
 40
0.1320381014192922
 40
0.1354438824911142
 40
0.1388549602169433
 40
0.142271791980763
 40
0.1456952229976246
 40
0.149127368249815
 40
0.149127368249815
 40
0.149127368249815
 40
0.149127368249815
 10
72.58974385056331
 20
-8.98275296430053
 30
0.0
 10
72.59055060988976
 20
-8.981599663879549
 30
0.0
 10
72.59215178436858
 20
-8.979307200867239
 30
0.0
 10
72.59453325188809
 20
-8.975887074893179
 30
0.0
 10
72.59687980740205
 20
-8.972506602503059
 30
0.0
 10
72.5991933848199
 20
-8.969163697168099
 30
0.0
 10
72.60147466936439
 20
-8.965856027739548
 30
0.0
 10
72.60372558991878
 20
-8.962582514518103
 30
0.0
 10
72.60594759448827
 20
-8.959340941079133
 30
0.0
 10
72.60814242766514
 20
-8.956129092049209
 30
0.0
 10
72.61031185385468
 20
-8.952944571084785
 30
0.0
 10
72.61245734228072
 20
-8.94978541997186
 30
0.0
 10
72.61458039069419
 20
-8.946649604776169
 30
0.0
 10
72.61668225661174
 20
-8.943535425696424
 30
0.0
 10
72.61876419704208
 20
-8.94044116003026
 30
0.0
 10
72.62082753764468
 20
-8.937364963960831
 30
0.0
 10
72.62287366565056
 20
-8.93430487542308
 30
0.0
 10
72.62490405775065
 20
-8.931258775505668
 30
0.0
 10
72.62691952856243
 20
-8.928225513451778
 30
0.0
 10
72.62892032324112
 20
-8.925204785209714
 30
0.0
 10
72.63090607988818
 20
-8.922197206127989
 30
0.0
 10
72.63287606241317
 20
-8.919203966352981
 30
0.0
 10
72.63482969190284
 20
-8.916226034307484
 30
0.0
 10
72.63676673964727
 20
-8.913263854189423
 30
0.0
 10
72.63868781559835
 20
-8.910316588312198
 30
0.0
 10
72.64059380534376
 20
-8.907382961960493
 30
0.0
 10
72.64248578975935
 20
-8.904461381269598
 30
0.0
 10
72.64436480225896
 20
-8.901550306803116
 30
0.0
 10
72.64623199412529
 20
-8.89864799264582
 30
0.0
 10
72.64808843851063
 20
-8.895752793622321
 30
0.0
 10
72.64993501458485
 20
-8.892863344201302
 30
0.0
 10
72.65177252175511
 20
-8.889978387281715
 30
0.0
 10
72.65360174210389
 20
-8.887096674601806
 30
0.0
 10
72.65542349114809
 20
-8.884216888927866
 30
0.0
 10
72.65723862163042
 20
-8.881337628631811
 30
0.0
 10
72.65904803577337
 20
-8.87845741557713
 30
0.0
 10
72.660852693832
 20
-8.875574572838772
 30
0.0
 10
72.6626537037128
 20
-8.872687471905223
 30
0.0
 10
72.66445156536747
 20
-8.869794275573454
 30
0.0
 10
72.6662472619098
 20
-8.866893935006842
 30
0.0
 10
72.66804132259557
 20
-8.863985667211792
 30
0.0
 10
72.669834256135
 20
-8.861068458452038
 30
0.0
 10
72.67102757838728
 20
-8.859119589381165
 30
0.0
 10
72.67162417836323
 20
-8.85814341560048
 30
0.0
 11
72.58974385056331
 21
-8.98275296430053
 31
0.0
 11
72.5921615512633
 21
-8.979291284600506
 31
0.0
 11
72.59454214256322
 21
-8.975872017900499
 31
0.0
 11
72.59688775236327
 21
-8.972492436300498
 31
0.0
 11
72.59920055776331
 21
-8.969149704600496
 31
0.0
 11
72.60148157346328
 21
-8.965842639400548
 31
0.0
 11
72.60373196586328
 21
-8.96256982110053
 31
0.0
 11
72.60595332396326
 21
-8.959329193600538
 31
0.0
 11
72.60814768976331
 21
-8.956118011100514
 31
0.0
 11
72.6103165300633
 21
-8.952934338200478
 31
0.0
 11
72.61246166586329
 21
-8.949775692900502
 31
0.0
 11
72.61458420826329
 21
-8.946640612200511
 31
0.0
 11
72.61668572186329
 21
-8.943526941900543
 31
0.0
 11
72.6187673019632
 21
-8.940433198900521
 31
0.0
 11
72.62083006246325
 21
-8.937357854400559
 31
0.0
 11
72.62287576706331
 21
-8.934298386200524
 31
0.0
 11
72.62490570116336
 21
-8.931252960100508
 31
0.0
 11
72.62692124476337
 21
-8.928219575200515
 31
0.0
 11
72.62892218216325
 21
-8.925198618300512
 31
0.0
 11
72.63090809076323
 21
-8.922190795500469
 31
0.0
 11
72.63287852266319
 21
-8.919196859600518
 31
0.0
 11
72.63483214476321
 21
-8.91621892520051
 31
0.0
 11
72.6367689985633
 21
-8.91325702830052
 31
0.0
 11
72.63868968436327
 21
-8.91031034750047
 31
0.0
 11
72.64059538536333
 21
-8.907377152000506
 31
0.0
 11
72.64248697386324
 21
-8.904456169300559
 31
0.0
 11
72.64436563746324
 21
-8.901545621500545
 31
0.0
 11
72.64623241406332
 21
-8.89864393920051
 31
0.0
 11
72.64808853346323
 21
-8.895749233000472
 31
0.0
 11
72.64993494606335
 21
-8.892860025400509
 31
0.0
 11
72.65177211256321
 21
-8.889975589000542
 31
0.0
 11
72.65360101896328
 21
-8.887094356800517
 31
0.0
 11
72.65542256406331
 21
-8.884214878100479
 31
0.0
 11
72.65723730846332
 21
-8.881336218400477
 31
0.0
 11
72.65904635676327
 21
-8.878456561900506
 31
0.0
 11
72.66085072436329
 21
-8.875574208700484
 31
0.0
 11
72.66265126076326
 21
-8.872687699700534
 31
0.0
 11
72.66444912566317
 21
-8.869795052900556
 31
0.0
 11
72.66624504986328
 21
-8.866894949000467
 31
0.0
 11
72.66803918216329
 21
-8.863986991900517
 31
0.0
 11
72.66983188556321
 21
-8.861070427700482
 31
0.0
 11
72.67162417836323
 21
-8.85814341560048
 31
0.0
  0
SPLINE
  5
562DB
330
1F
100
AcDbEntity
  8
1
100
AcDbSpline
210
0.0
220
0.0
230
1.0
 70
     8
 71
     3
 72
    47
 73
    43
 74
    41
 42
0.0000000001
 43
0.0000000001
 44
0.000001
 12
0.5117436941092194
 22
0.859138167898185
 32
0.0
 13
0.4481500113666919
 23
0.8939583700106139
 33
0.0
 40
0.0
 40
0.0
 40
0.0
 40
0.0
 40
0.0043539141027718
 40
0.0086469475033137
 40
0.0128826881155745
 40
0.0170636183979135
 40
0.0211934785584897
 40
0.0252748998853225
 40
0.0293114492098285
 40
0.0333056917747065
 40
0.0372595669329214
 40
0.0411765268648595
 40
0.0450590870516829
 40
0.0489092158611928
 40
0.0527302243619964
 40
0.0565240347219022
 40
0.0602917487986542
 40
0.0640358015316972
 40
0.0677589560531683
 40
0.0714631793179956
 40
0.0751465732734202
 40
0.0788074293235066
 40
0.0824457856740325
 40
0.0860610968771054
 40
0.0896529966443743
 40
0.0932239836028637
 40
0.0967763372798224
 40
0.1003117922119372
 40
0.1038325668519213
 40
0.107341817606603
 40
0.1108402857175113
 40
0.1143283398882587
 40
0.1178074356506108
 40
0.1212804053581659
 40
0.1247496509618044
 40
0.1282178333026352
 40
0.1316872054866529
 40
0.1351600605115837
 40
0.1386369453386284
 40
0.1421182468659038
 40
0.1456058715295001
 40
0.1491021265565053
 40
0.1491021265565053
 40
0.1491021265565053
 40
0.1491021265565053
 10
72.67162417836323
 20
-8.85814341560048
 30
0.0
 10
72.67236687439214
 20
-8.856896544338681
 30
0.0
 10
72.67383981157405
 20
-8.854419003154518
 30
0.0
 10
72.67602796166119
 20
-8.850724084942683
 30
0.0
 10
72.67818074700028
 20
-8.847075243490806
 30
0.0
 10
72.6802990616402
 20
-8.843469225308595
 30
0.0
 10
72.68238528037318
 20
-8.839904018779193
 30
0.0
 10
72.68444112202735
 20
-8.836376804816993
 30
0.0
 10
72.68646822735616
 20
-8.832885172799521
 30
0.0
 10
72.68846806947511
 20
-8.829426880540566
 30
0.0
 10
72.6904420969667
 20
-8.825999715464902
 30
0.0
 10
72.69239173269676
 20
-8.822601468857229
 30
0.0
 10
72.69431838982234
 20
-8.819229914916618
 30
0.0
 10
72.69622344309244
 20
-8.815882859740824
 30
0.0
 10
72.69810815542825
 20
-8.812558273060957
 30
0.0
 10
72.69997363319783
 20
-8.809254367649501
 30
0.0
 10
72.70182082863255
 20
-8.805969604444257
 30
0.0
 10
72.7036508204153
 20
-8.80270219373294
 30
0.0
 10
72.70546481458819
 20
-8.799450086508116
 30
0.0
 10
72.70726330198488
 20
-8.796212488584345
 30
0.0
 10
72.70904604773694
 20
-8.792989907735389
 30
0.0
 10
72.71081251245289
 20
-8.789783417968649
 30
0.0
 10
72.71256238073608
 20
-8.786593701863992
 30
0.0
 10
72.7142955556925
 20
-8.783421051446211
 30
0.0
 10
72.7160123351785
 20
-8.780265039755207
 30
0.0
 10
72.71771346125695
 20
-8.777124409405743
 30
0.0
 10
72.71939999833705
 20
-8.773997281144787
 30
0.0
 10
72.72107295350344
 20
-8.770881850885942
 30
0.0
 10
72.72273345799181
 20
-8.767776049463051
 30
0.0
 10
72.72438247232873
 20
-8.764678091962721
 30
0.0
 10
72.7260206545559
 20
-8.761586731083482
 30
0.0
 10
72.72764839006669
 20
-8.758501216855009
 30
0.0
 10
72.72926638230848
 20
-8.75542017920732
 30
0.0
 10
72.73087563707782
 20
-8.752341641541605
 30
0.0
 10
72.73247732601067
 20
-8.749263260933147
 30
0.0
 10
72.7340725270065
 20
-8.746182863564214
 30
0.0
 10
72.73566223022271
 20
-8.743098271872256
 30
0.0
 10
72.73724728313386
 20
-8.740008027112125
 30
0.0
 10
72.73882750165654
 20
-8.736910842533703
 30
0.0
 10
72.74040369299985
 20
-8.733806084526904
 30
0.0
 10
72.74197656114836
 20
-8.730692406242567
 30
0.0
 10
72.7430219725199
 20
-8.728612377082228
 30
0.0
 10
72.74354425476326
 20
-8.727570541600542
 30
0.0
 11
72.67162417836323
 21
-8.85814341560048
 31
0.0
 11
72.67384897886325
 21
-8.854400882500513
 31
0.0
 11
72.67603623036325
 21
-8.850706926000484
 31
0.0
 11
72.67818796126324
 21
-8.847058578500522
 31
0.0
 11
72.6803056921633
 21
-8.843453689900528
 31
0.0
 11
72.68239143796325
 21
-8.839889229000519
 31
0.0
 11
72.68444667396329
 21
-8.836363043400538
 31
0.0
 11
72.68647333746333
 21
-8.832872148100491
 31
0.0
 11
72.68847284516334
 21
-8.829414413300511
 31
0.0
 11
72.69044628726328
 21
-8.825988242800534
 31
0.0
 11
72.6923954949633
 21
-8.822590720900493
 31
0.0
 11
72.69432181576326
 21
-8.819219733900538
 31
0.0
 11
72.69622631246329
 21
-8.815873635200503
 31
0.0
 11
72.69811069816331
 21
-8.812549603100549
 31
0.0
 11
72.69997598476322
 21
-8.809246014700491
 31
0.0
 11
72.70182277176321
 21
-8.805961956100517
 31
0.0
 11
72.70365230286325
 21
-8.80269534610052
 31
0.0
 11
72.70546596706333
 21
-8.799443808600486
 31
0.0
 11
72.70726475106323
 21
-8.7962056547005
 31
0.0
 11
72.70904776186319
 21
-8.792982572600479
 31
0.0
 11
72.71081420976327
 21
-8.789776091100534
 31
0.0
 11
72.71256415476329
 21
-8.786586212700498
 31
0.0
 11
72.7142973775633
 21
-8.783413452300536
 31
0.0
 11
72.71601374826321
 21
-8.780258169400511
 31
0.0
 11
72.7177145016633
 21
-8.777118204400537
 31
0.0
 11
72.71940075346321
 21
-8.773991582300496
 31
0.0
 11
72.72107334776331
 21
-8.770876800800479
 31
0.0
 11
72.72273334516319
 21
-8.767771924600467
 31
0.0
 11
72.7243822321633
 21
-8.764674182600529
 31
0.0
 11
72.72602034546332
 21
-8.761582927800489
 31
0.0
 11
72.72764784306321
 21
-8.758497840300563
 31
0.0
 11
72.72926538466333
 21
-8.755417636300521
 31
0.0
 11
72.7308742560632
 21
-8.752339805900547
 31
0.0
 11
72.7324755251633
 21
-8.749262211300518
 31
0.0
 11
72.73407036116328
 21
-8.746182476000498
 31
0.0
 11
72.73565972696326
 21
-8.743098576400555
 31
0.0
 11
72.73724458636332
 21
-8.740008445400533
 31
0.0
 11
72.73882513146327
 21
-8.736911487000512
 31
0.0
 11
72.74040140596333
 21
-8.733807382300554
 31
0.0
 11
72.74197414236335
 21
-8.730694433600504
 31
0.0
 11
72.74354425476326
 21
-8.727570541600542
 31
0.0
  0
SPLINE
  5
562DC
330
1F
100
AcDbEntity
  8
1
100
AcDbSpline
210
0.0
220
0.0
230
1.0
 70
     8
 71
     3
 72
    59
 73
    55
 74
    53
 42
0.0000000001
 43
0.0000000001
 44
0.000001
 12
0.9993424176592453
 22
0.0362592369883121
 32
0.0
 13
0.999723953563212
 23
-0.0234950350487293
 33
0.0
 40
0.0
 40
0.0
 40
0.0
 40
0.0
 40
0.042310389536123
 40
0.1032191964306628
 40
0.1639271086824844
 40
0.2231405518876739
 40
0.2517826082874747
 40
0.2795659633009992
 40
0.3064562830323203
 40
0.3329296707724699
 40
0.3595895696751792
 40
0.3870394295313877
 40
0.4158827146563555
 40
0.4467229081417727
 40
0.5168080352738541
 40
0.5419709247261735
 40
0.5548278002577519
 40
0.567704778004039
 40
0.5932126739662285
 40
0.6186097321252909
 40
0.644079000456128
 40
0.6695229671246095
 40
0.6948273752475912
 40
0.707562634861183
 40
0.720444896920716
 40
0.7334746440557459
 40
0.7464716859459736
 40
0.7713755130394988
 40
0.800209380971877
 40
0.8253460575983712
 40
0.8485014653845912
 40
0.8713914866037692
 40
0.8953693789492032
 40
0.9203379561564798
 40
0.9714079517496694
 40
1.021700821039153
 40
1.071425038664136
 40
1.121357438249512
 40
1.171442456677053
 40
1.271460555788123
 40
1.371479467897773
 40
1.471498875817453
 40
1.571518831082904
 40
1.671539360991305
 40
1.771560630279038
 40
1.871582504236562
 40
1.971604975264692
 40
2.071628102566673
 40
2.171651904446485
 40
2.271676436814774
 40
2.371701589670594
 40
2.471727229228792
 40
2.57175381992921
 40
2.67178197177628
 40
2.67178197177628
 40
2.67178197177628
 40
2.67178197177628
 10
68.25864920066317
 20
9.814259385599484
 30
0.0
 10
68.27274338965356
 20
9.814770766413232
 30
0.0
 10
68.3071273770438
 20
9.816012433802654
 30
0.0
 10
68.36173482206817
 20
9.817965787253612
 30
0.0
 10
68.42197335649757
 20
9.820111013951674
 30
0.0
 10
68.47146283124044
 20
9.821881620429863
 30
0.0
 10
68.50998393852865
 20
9.823274606929871
 30
0.0
 10
68.53773734970002
 20
9.824288130495304
 30
0.0
 10
68.56476787390363
 20
9.825288290706467
 30
0.0
 10
68.59142402315086
 20
9.826278513786533
 30
0.0
 10
68.61826678477655
 20
9.827269537792275
 30
0.0
 10
68.6458995593382
 20
9.828273785255461
 30
0.0
 10
68.67492574227907
 20
9.829303742699877
 30
0.0
 10
68.71815632863195
 20
9.830792436847971
 30
0.0
 10
68.76016340094395
 20
9.832163315002034
 30
0.0
 10
68.79618085179686
 20
9.833287459803827
 30
0.0
 10
68.81313951238155
 20
9.833772479960188
 30
0.0
 10
68.83021427579496
 20
9.834219089001223
 30
0.0
 10
68.85147025437345
 20
9.834671824481915
 30
0.0
 10
68.87692542380972
 20
9.835064054968043
 30
0.0
 10
68.90236091232401
 20
9.835328828458514
 30
0.0
 10
68.9277664949791
 20
9.835469825977327
 30
0.0
 10
68.94892781582268
 20
9.835482874015269
 30
0.0
 10
68.96590169188619
 20
9.835417930073347
 30
0.0
 10
68.97878382724718
 20
9.835328410259435
 30
0.0
 10
68.9917528584425
 20
9.835196557214459
 30
0.0
 10
69.00872840361808
 20
9.834983331401375
 30
0.0
 10
69.03097078217275
 20
9.834646153255235
 30
0.0
 10
69.05725869986628
 20
9.834214544937182
 30
0.0
 10
69.08296327971982
 20
9.83375659488162
 30
0.0
 10
69.10668644528579
 20
9.833309968673901
 30
0.0
 10
69.13002332090605
 20
9.832865521431315
 30
0.0
 10
69.15396474851736
 20
9.832424013677368
 30
0.0
 10
69.18729810210732
 20
9.831820216171934
 30
0.0
 10
69.22940183232021
 20
9.831066197984014
 30
0.0
 10
69.27975569948109
 20
9.83014120618894
 30
0.0
 10
69.32973017145059
 20
9.829209188580634
 30
0.0
 10
69.37963531456887
 20
9.828275395492411
 30
0.0
 10
69.44630199207813
 20
9.827019507643555
 30
0.0
 10
69.5296608622142
 20
9.825430621318631
 30
0.0
 10
69.62966085416292
 20
9.823490626884151
 30
0.0
 10
69.72966088387398
 20
9.821520919473769
 30
0.0
 10
69.82966084306901
 20
9.819520481931164
 30
0.0
 10
69.92966080844599
 20
9.817489565639078
 30
0.0
 10
70.02966078779474
 20
9.815428068874652
 30
0.0
 10
70.1296607813864
 20
9.813336095058602
 30
0.0
 10
70.22966075101169
 20
9.811213586085244
 30
0.0
 10
70.32966071073684
 20
9.809060546193634
 30
0.0
 10
70.42966069662611
 20
9.806877016310309
 30
0.0
 10
70.52966068859638
 20
9.804663048823442
 30
0.0
 10
70.62966061444064
 20
9.802418625986689
 30
0.0
 10
70.72966052713218
 20
9.800143258063258
 30
0.0
 10
70.82966076238585
 20
9.797838308257524
 30
0.0
 10
70.89632746871927
 20
9.79628003941066
 30
0.0
 10
70.92966098186332
 20
9.795496651099483
 30
0.0
 11
68.25864920066317
 21
9.814259385599484
 31
0.0
 11
68.30093200676322
 21
9.815787738199475
 31
0.0
 11
68.36180179476321
 21
9.817967571199488
 31
0.0
 11
68.42247112996336
 21
9.820131432599438
 31
0.0
 11
68.4816465862633
 21
9.82225207709942
 31
0.0
 11
68.51026991416325
 21
9.8232876786995
 31
0.0
 11
68.53803473756329
 21
9.824302259099511
 31
0.0
 11
68.5649067221633
 21
9.825295091499455
 31
0.0
 11
68.59136192316327
 21
9.826276203599505
 31
0.0
 11
68.61800372646337
 21
9.827258301499497
 31
0.0
 11
68.64543551836323
 21
9.8282540913995
 31
0.0
 11
68.67426068506325
 21
9.829276279599469
 31
0.0
 11
68.70508261246334
 21
9.83033757229947
 31
0.0
 11
68.77513029446323
 21
9.832628296399491
 31
0.0
 11
68.80028128816332
 21
9.833401950999473
 31
0.0
 11
68.81313295026325
 21
9.833768061199464
 31
0.0
 11
68.8260055712633
 21
9.834103013799477
 31
0.0
 11
68.85150763426327
 21
9.834648526599465
 31
0.0
 11
68.87690162106321
 21
9.835043559099432
 31
0.0
 11
68.90236950436326
 21
9.835309278899487
 31
0.0
 11
68.92781308246333
 21
9.835450106599452
 31
0.0
 11
68.95311748916322
 21
9.835461529799474
 31
0.0
 11
68.96585265506326
 21
9.835412527099478
 31
0.0
 11
68.97873460576329
 21
9.835322883599474
 31
0.0
 11
68.99176369846327
 21
9.835192241999493
 31
0.0
 11
69.00475973216328
 21
9.835030320899477
 31
0.0
 11
69.02966083876333
 21
9.83466216729947
 31
0.0
 11
69.05849081096324
 21
9.834188141299478
 31
0.0
 11
69.08362351876326
 21
9.833741424999445
 31
0.0
 11
69.10677487916325
 21
9.833308456799485
 31
0.0
 11
69.12966080966327
 21
9.832875674699479
 31
0.0
 11
69.15363460516335
 21
9.832432383099487
 31
0.0
 11
69.1785990735633
 21
9.831979350799485
 31
0.0
 11
69.22966077226329
 21
9.831058605499464
 31
0.0
 11
69.27994519066328
 21
9.830136365099463
 31
0.0
 11
69.32966080536323
 21
9.829210973999465
 31
0.0
 11
69.3795844724633
 21
9.8282762919995
 31
0.0
 11
69.42966064376321
 21
9.827332761599478
 31
0.0
 11
69.52966068106332
 21
9.825423995999457
 31
0.0
 11
69.62966065266312
 21
9.823484681799456
 31
0.0
 11
69.72966064006334
 21
9.821514803999491
 31
0.0
 11
69.82966058126328
 21
9.819514408599474
 31
0.0
 11
69.92966048546327
 21
9.817483476499489
 31
0.0
 11
70.02966050576322
 21
9.815421996099473
 31
0.0
 11
70.12966049826321
 21
9.813330012499505
 31
0.0
 11
70.22966044526322
 21
9.811207504799483
 31
0.0
 11
70.32966039646328
 21
9.809054472099461
 31
0.0
 11
70.42966036156326
 21
9.806870951399488
 31
0.0
 11
70.52966038796331
 21
9.804656979999492
 31
0.0
 11
70.62966035446322
 21
9.802412474899469
 31
0.0
 11
70.72966011566325
 21
9.800137338999476
 31
0.0
 11
70.82966013456325
 21
9.797831913799484
 31
0.0
 11
70.92966098186332
 21
9.795496651099483
 31
0.0
  0
SPLINE
  5
562DD
330
1F
100
AcDbEntity
  8
1
100
AcDbSpline
210
0.0
220
0.0
230
1.0
 70
     8
 71
     3
 72
    36
 73
    32
 74
     0
 42
0.0000000001
 43
0.0000000001
 40
0.6009475512781837
 40
0.6009475512781837
 40
0.6009475512781837
 40
0.6009475512781837
 40
0.6025607008871142
 40
0.6245638633691149
 40
0.6455120022656839
 40
0.6664536395021453
 40
0.6876655592525417
 40
0.7088958440466378
 40
0.7299774841903504
 40
0.7510167166707486
 40
0.7725510991794109
 40
0.7953389828261355
 40
0.8201280080374594
 40
0.8476477227366999
 40
0.878446672652249
 40
0.912856010572989
 40
0.9511741463463874
 40
0.9936947108028483
 40
1.04069306154564
 40
1.092432569736951
 40
1.149746704230999
 40
1.214699473542321
 40
1.288395308757229
 40
1.367365087796228
 40
1.446108260723369
 40
1.522815633881833
 40
1.599096733834828
 40
1.679619999129544
 40
1.768996195770915
 40
1.867736263267303
 40
1.975382571895489
 40
1.975382571895489
 40
1.975382571895489
 40
1.975382571895489
 10
68.25864922889365
 20
9.814258100452121
 30
0.0
 10
68.25838043546889
 20
9.814252195943652
 30
0.0
 10
68.2544453329798
 20
9.814165744381057
 30
0.0
 10
68.24701972248783
 20
9.814002324959972
 30
0.0
 10
68.23637349296962
 20
9.813767312901049
 30
0.0
 10
68.225859119858
 20
9.813534544593906
 30
0.0
 10
68.21529774834528
 20
9.813300086142533
 30
0.0
 10
68.2047130627958
 20
9.813064478528019
 30
0.0
 10
68.19415716473042
 20
9.812828910213227
 30
0.0
 10
68.1835506091885
 20
9.812591635582009
 30
0.0
 10
68.17265976360534
 20
9.812347431826367
 30
0.0
 10
68.1611441229553
 20
9.812088623996359
 30
0.0
 10
68.14863119344511
 20
9.811806750419435
 30
0.0
 10
68.13478344149882
 20
9.81149406972186
 30
0.0
 10
68.1193327316472
 20
9.811144355325779
 30
0.0
 10
68.10208276697619
 20
9.810752980461899
 30
0.0
 10
68.08287972523124
 20
9.810316292555484
 30
0.0
 10
68.06157908022498
 20
9.809830882797655
 30
0.0
 10
68.03804214103888
 20
9.80929360666542
 30
0.0
 10
68.01204027356106
 20
9.808698986677029
 30
0.0
 10
67.9830468183344
 20
9.808034502951244
 30
0.0
 10
67.95039498089852
 20
9.807284214600741
 30
0.0
 10
67.91413488324076
 20
9.806448344907153
 30
0.0
 10
67.87557707389135
 20
9.805556108034153
 30
0.0
 10
67.83651756530912
 20
9.804648402644119
 30
0.0
 10
67.79790614528031
 20
9.803746972567381
 30
0.0
 10
67.75899822068379
 20
9.802834486628398
 30
0.0
 10
67.7179795057799
 20
9.801868247561756
 30
0.0
 10
67.67321877820871
 20
9.800809176487177
 30
0.0
 10
67.62393894658146
 20
9.799637346263438
 30
0.0
 10
67.58955100683022
 20
9.798816742216644
 30
0.0
 10
67.57161509586319
 20
9.79838729549948
 30
0.0
  0
SPLINE
  5
562DE
330
1F
100
AcDbEntity
  8
1
100
AcDbSpline
210
0.0
220
0.0
230
1.0
 70
     8
 71
     3
 72
    41
 73
    37
 74
     0
 42
0.0000000001
 43
0.0000000001
 40
0.0
 40
0.0
 40
0.0
 40
0.0
 40
0.0086742543841339
 40
0.017251048394832
 40
0.025733893041621
 40
0.0341279109661479
 40
0.0424389509424542
 40
0.0506715772594268
 40
0.0588315902384174
 40
0.0669242694736539
 40
0.0749536140341751
 40
0.0829251268162632
 40
0.0908433237130376
 40
0.0987113180499454
 40
0.1065339722050548
 40
0.1143160591345143
 40
0.1220622301615951
 40
0.1297781998729032
 40
0.1374694461839589
 40
0.1451409440353203
 40
0.152794187890375
 40
0.1604305745877657
 40
0.1680546086673145
 40
0.1756730410913943
 40
0.1832882939982845
 40
0.1908952265602227
 40
0.1984868787697523
 40
0.206058510484689
 40
0.2136085670058364
 40
0.2211419475388856
 40
0.2286644987387072
 40
0.2361801299622986
 40
0.2436914476783827
 40
0.2512026312685796
 40
0.2587167286542775
 40
0.2588176947272802
 40
0.2588176947272802
 40
0.2588176947272802
 40
0.2588176947272802
 10
71.19534950916329
 20
9.786257170599469
 30
0.0
 10
71.19678379487789
 20
9.786075789269887
 30
0.0
 10
71.19963608593844
 20
9.785713755874638
 30
0.0
 10
71.20389044110618
 20
9.785169848836915
 30
0.0
 10
71.20809798784228
 20
9.784628127824319
 30
0.0
 10
71.21226113593309
 20
9.784088433493693
 30
0.0
 10
71.21638246806606
 20
9.783550572097141
 30
0.0
 10
71.22046467765108
 20
9.783014323618516
 30
0.0
 10
71.22451036280143
 20
9.782479469069912
 30
0.0
 10
71.22852202702723
 20
9.781945790979875
 30
0.0
 10
71.23250212358801
 20
9.781413068514325
 30
0.0
 10
71.2364529785101
 20
9.78088108829371
 30
0.0
 10
71.24037677048852
 20
9.78034964773505
 30
0.0
 10
71.24427557152569
 20
9.779818550730539
 30
0.0
 10
71.24815149519452
 20
9.77928758784148
 30
0.0
 10
71.25200690808402
 20
9.778756506965152
 30
0.0
 10
71.25584431650077
 20
9.778225028540902
 30
0.0
 10
71.25966634209487
 20
9.777692848588714
 30
0.0
 10
71.26347565886646
 20
9.777159647272966
 30
0.0
 10
71.2672742432727
 20
9.776625194618802
 30
0.0
 10
71.27106339756199
 20
9.776089350129069
 30
0.0
 10
71.27484434592782
 20
9.775551980732728
 30
0.0
 10
71.27861917936366
 20
9.775012825606538
 30
0.0
 10
71.28239015715474
 20
9.774471593187811
 30
0.0
 10
71.28615794663699
 20
9.773928215077773
 30
0.0
 10
71.28992095351179
 20
9.773382949587912
 30
0.0
 10
71.29367640300438
 20
9.772836232054316
 30
0.0
 10
71.29742211284156
 20
9.772288418496799
 30
0.0
 10
71.30115785708529
 20
9.771739582596808
 30
0.0
 10
71.30488515535592
 20
9.771189539966385
 30
0.0
 10
71.30860642744142
 20
9.770637967752435
 30
0.0
 10
71.31232371428587
 20
9.770084593011844
 30
0.0
 10
71.31603878131375
 20
9.769529178890195
 30
0.0
 10
71.31975325135215
 20
9.768971505429021
 30
0.0
 10
71.32224612127777
 20
9.768595674445109
 30
0.0
 10
71.32350105777414
 20
9.768406081950487
 30
0.0
 10
71.32351769662853
 20
9.768403568126785
 30
0.0
  0
SPLINE
  5
562DF
330
1F
100
AcDbEntity
  8
1
100
AcDbSpline
210
0.0
220
0.0
230
1.0
 70
     8
 71
     3
 72
    17
 73
    13
 74
    11
 42
0.0000000001
 43
0.0000000001
 44
0.000001
 12
-0.9995492549813395
 22
-0.0300214401095161
 32
0.0
 13
-0.9994721208135317
 23
-0.0324881473233101
 33
0.0
 40
0.0
 40
0.0
 40
0.0
 40
0.0
 40
0.1392979215203898
 40
0.2787515037496282
 40
0.4183555683969412
 40
0.5581042733365395
 40
0.6979920413610838
 40
0.838013135408779
 40
0.9781617522606531
 40
1.1184316890152
 40
1.258816639444832
 40
1.399309822881984
 40
1.399309822881984
 40
1.399309822881984
 40
1.399309822881984
 10
66.09125229276322
 20
9.758826832299462
 30
0.0
 10
66.04484058153781
 20
9.757432857563358
 30
0.0
 10
65.95196582859853
 20
9.754625578570212
 30
0.0
 10
65.81257910851218
 20
9.750363753883931
 30
0.0
 10
65.67304362650293
 20
9.746050857452686
 30
0.0
 10
65.53336478334859
 20
9.741691702987054
 30
0.0
 10
65.39354819436681
 20
9.737290054875742
 30
0.0
 10
65.25359946187217
 20
9.732849593785473
 30
0.0
 10
65.11352438740487
 20
9.728374210313745
 30
0.0
 10
64.97332896994908
 20
9.723867484740665
 30
0.0
 10
64.83301947947666
 20
9.719334633728038
 30
0.0
 10
64.73944269126661
 20
9.716298024413276
 30
0.0
 10
64.69263635126333
 20
9.714776569999472
 30
0.0
 11
66.09125229276322
 21
9.758826832299462
 31
0.0
 11
65.95201789866326
 21
9.754619995799487
 31
0.0
 11
65.81262942746332
 21
9.750358551099495
 31
0.0
 11
65.6730919539633
 21
9.746046390099479
 31
0.0
 11
65.53341122476331
 21
9.741687458999479
 31
0.0
 11
65.39359272236322
 21
9.737285728699461
 31
0.0
 11
65.25364206496317
 21
9.732845205699462
 31
0.0
 11
65.11356493976325
 21
9.728369929499493
 31
0.0
 11
64.97336741836329
 21
9.723863981899441
 31
0.0
 11
64.83305566966328
 21
9.719331476299487
 31
0.0
 11
64.69263635126333
 21
9.714776569999472
 31
0.0
  0
SPLINE
  5
562E0
330
1F
100
AcDbEntity
  8
1
100
AcDbSpline
210
0.0
220
0.0
230
1.0
 70
     8
 71
     3
 72
    16
 73
    12
 74
    10
 42
0.0000000001
 43
0.0000000001
 44
0.000001
 12
-0.9996962433357856
 22
-0.0246459136636909
 32
0.0
 13
-0.9996000911271801
 23
-0.0282782216296055
 33
0.0
 40
0.0
 40
0.0
 40
0.0
 40
0.0
 40
0.1637618602808583
 40
0.3277414180084358
 40
0.491928196214674
 40
0.6563135297889016
 40
0.8208888962292901
 40
0.9856442955118392
 40
1.150570143171726
 40
1.315656195568791
 40
1.48089211994116
 40
1.48089211994116
 40
1.48089211994116
 40
1.48089211994116
 10
67.57161509586319
 20
9.79838729549948
 30
0.0
 10
67.51704439035506
 20
9.79704194194285
 30
0.0
 10
67.40783118588968
 20
9.794318923871045
 30
0.0
 10
67.24390825212879
 20
9.790144705283339
 30
0.0
 10
67.07977969928487
 20
9.785882077911352
 30
0.0
 10
66.9154546009982
 20
9.781538383194259
 30
0.0
 10
66.75094184266686
 20
9.7771216116558
 30
0.0
 10
66.58625071280045
 20
9.772635869568716
 30
0.0
 10
66.42139101023428
 20
9.768087420554977
 30
0.0
 10
66.25637258493947
 20
9.763484428638008
 30
0.0
 10
66.14630890778324
 20
9.760384358329659
 30
0.0
 10
66.09125229276322
 20
9.758826832299462
 30
0.0
 11
67.57161509586319
 21
9.79838729549948
 31
0.0
 11
67.4079040552632
 21
9.794307249499482
 31
0.0
 11
67.24397760496334
 21
9.790133635099493
 31
0.0
 11
67.07984610976325
 21
9.785872163599492
 31
0.0
 11
66.91551807656321
 21
9.78152960749945
 31
0.0
 11
66.75100200466329
 21
9.777112306799494
 31
0.0
 11
66.58630772266326
 21
9.772626753899473
 31
0.0
 11
66.42144461836335
 21
9.768079551099489
 31
0.0
 11
66.25642274816335
 21
9.763477340499463
 31
0.0
 11
66.09125229276322
 21
9.758826832299462
 31
0.0
  0
SPLINE
  5
562E1
330
1F
100
AcDbEntity
  8
1
100
AcDbSpline
210
0.0
220
0.0
230
1.0
 70
     8
 71
     3
 72
    32
 73
    28
 74
    26
 42
0.0000000001
 43
0.0000000001
 44
0.000001
 12
0.0416878756684485
 22
0.9991306826548028
 32
0.0
 13
0.0019987911344967
 23
0.9999980024150051
 33
0.0
 40
0.0
 40
0.0
 40
0.0
 40
0.0
 40
0.0253133237737623
 40
0.0509427840259757
 40
0.0764004519048247
 40
0.1012401531212121
 40
0.1250533484845331
 40
0.1475422696219331
 40
0.1687763512392617
 40
0.1893685203037157
 40
0.209831653387399
 40
0.2303177497521344
 40
0.2508257554714757
 40
0.2711925912183024
 40
0.2913544608748726
 40
0.311478096401258
 40
0.3316522865852416
 40
0.3518362494562078
 40
0.372344373999017
 40
0.3939907562334007
 40
0.4175913298325181
 40
0.4437149242710565
 40
0.4726668182013339
 40
0.5047461838967477
 40
0.5402520874222687
 40
0.5794833610641043
 40
0.6400628535945483
 40
0.6400628535945483
 40
0.6400628535945483
 40
0.6400628535945483
 10
73.01961728506319
 20
7.026846155999479
 30
0.0
 10
73.01996903796123
 20
7.035276595486934
 30
0.0
 10
73.02064191527375
 20
7.052244234577997
 30
0.0
 10
73.02155734303443
 20
7.077694658074292
 30
0.0
 10
73.02235582379058
 20
7.102991092163406
 30
0.0
 10
73.02302344549412
 20
7.127685671693186
 30
0.0
 10
73.02356135414107
 20
7.151393582605734
 30
0.0
 10
73.02397766974968
 20
7.173901858706514
 30
0.0
 10
73.02429152252216
 20
7.195338004735916
 30
0.0
 10
73.02451422505544
 20
7.216099989418992
 30
0.0
 10
73.02465584584883
 20
7.236613352428676
 30
0.0
 10
73.02471516385708
 20
7.257099065564617
 30
0.0
 10
73.02470354900163
 20
7.277552726966959
 30
0.0
 10
73.02466861358533
 20
7.297898265688971
 30
0.0
 10
73.02465569638883
 20
7.318115713373529
 30
0.0
 10
73.0246588149198
 20
7.338268945137016
 30
0.0
 10
73.02466414917848
 20
7.358429540625607
 30
0.0
 10
73.02466627723777
 20
7.378718299752065
 30
0.0
 10
73.02466971301317
 20
7.39949778941046
 30
0.0
 10
73.02467793558822
 20
7.42141614817531
 30
0.0
 10
73.02469147067518
 20
7.445206327854563
 30
0.0
 10
73.02471019320023
 20
7.471431675237838
 30
0.0
 10
73.02473566138303
 20
7.500483282315926
 30
0.0
 10
73.02477098797635
 20
7.532662317431217
 30
0.0
 10
73.02481699110126
 20
7.568267802758796
 30
0.0
 10
73.02489254172411
 20
7.613373295964564
 30
0.0
 10
73.02493863805944
 20
7.646643522070789
 30
0.0
 10
73.02497899997695
 20
7.666836645910038
 30
0.0
 11
73.01961728506319
 21
7.026846155999479
 31
0.0
 11
73.0206233102632
 21
7.052139583099503
 31
0.0
 11
73.02154155596326
 21
7.077752591099439
 31
0.0
 11
73.02234388816327
 21
7.10319763199952
 31
0.0
 11
73.02301532986337
 21
7.128028292999474
 31
0.0
 11
73.02355524256324
 21
7.151835436699499
 31
0.0
 11
73.02397146836336
 21
7.174320704499493
 31
0.0
 11
73.02428024516325
 21
7.195553069799458
 31
0.0
 11
73.02450057126327
 21
7.216143408499462
 31
0.0
 11
73.02464114236329
 21
7.236605916199479
 31
0.0
 11
73.02470232816324
 21
7.2570918652995
 31
0.0
 11
73.02469858286326
 21
7.27759984279946
 31
0.0
 11
73.0246711760633
 21
7.297966645999437
 31
0.0
 11
73.02465735876331
 21
7.318128503999488
 31
0.0
 11
73.02465818116331
 21
7.338252135699448
 31
0.0
 11
73.02466261226334
 21
7.358426322799502
 31
0.0
 11
73.0246654683632
 21
7.378610283399481
 31
0.0
 11
73.02466934866322
 21
7.3991184058995
 31
0.0
 11
73.02467736076335
 21
7.420764785299482
 31
0.0
 11
73.02469053406333
 21
7.444365354099474
 31
0.0
 11
73.02470919286327
 21
7.470488940899471
 31
0.0
 11
73.02473476046327
 21
7.49944082269944
 31
0.0
 11
73.0247697202633
 21
7.531520168699486
 31
0.0
 11
73.02481654036331
 21
7.567026041099481
 31
0.0
 11
73.02487813516325
 21
7.606257267899465
 31
0.0
 11
73.02497899997695
 21
7.666836645910038
 31
0.0
  0
SPLINE
  5
562E2
330
1F
100
AcDbEntity
  8
1
100
AcDbSpline
210
0.0
220
0.0
230
1.0
 70
     8
 71
     3
 72
    16
 73
    12
 74
    10
 42
0.0000000001
 43
0.0000000001
 44
0.000001
 12
0.0482150812919933
 22
0.9988369766563543
 32
0.0
 13
0.0465816943160087
 23
0.9989144837045111
 33
0.0
 40
0.0
 40
0.0
 40
0.0
 40
0.0
 40
0.093404775187242
 40
0.1846952750434144
 40
0.2709695470436353
 40
0.349459766235916
 40
0.4195708436449658
 40
0.4824303558566641
 40
0.5390649160255819
 40
0.590380759473942
 40
0.6373488983061322
 40
0.6373488983061322
 40
0.6373488983061322
 40
0.6373488983061322
 10
72.98507650896329
 20
6.390439990399485
 30
0.0
 10
72.98657768190617
 20
6.421538704817251
 30
0.0
 10
72.98959243798345
 20
6.483029943881817
 30
0.0
 10
72.99407906138895
 20
6.573241668589915
 30
0.0
 10
72.9985555285557
 20
6.658476013962726
 30
0.0
 10
73.0029592887052
 20
6.736644194545917
 30
0.0
 10
73.00723192118147
 20
6.807001603773855
 30
0.0
 10
73.01109340869044
 20
6.870085236265552
 30
0.0
 10
73.01444624626078
 20
6.926923150014275
 30
0.0
 10
73.01728332524698
 20
6.978484900981882
 30
0.0
 10
73.01888799990127
 20
7.011207104615451
 30
0.0
 10
73.01961728506319
 20
7.026846155999479
 30
0.0
 11
72.98507650896329
 21
6.390439990399485
 31
0.0
 11
72.98963704176333
 21
6.483733368799462
 31
0.0
 11
72.99420452406332
 21
6.574909536099497
 31
0.0
 11
72.99874784606322
 21
6.661064096599474
 31
0.0
 11
73.00317575566328
 21
6.739429319299503
 31
0.0
 11
73.00738338066333
 21
6.809414024199483
 31
0.0
 11
73.01119482036336
 21
6.872157875899503
 31
0.0
 11
73.01451055616325
 21
6.928695287699483
 31
0.0
 11
73.01730872466328
 21
6.979934779299455
 31
0.0
 11
73.01961728506319
 21
7.026846155999479
 31
0.0
  0
SPLINE
  5
562E3
330
1F
100
AcDbEntity
  8
1
100
AcDbSpline
210
0.0
220
0.0
230
1.0
 70
     8
 71
     3
 72
    14
 73
    10
 74
     8
 42
0.0000000001
 43
0.0000000001
 44
0.000001
 12
0.0505181688986345
 22
0.998723142122545
 32
0.0
 13
0.0534636888779657
 23
0.9985697942415242
 33
0.0
 40
0.0
 40
0.0
 40
0.0
 40
0.0
 40
0.0881924567879659
 40
0.1785507381500774
 40
0.270401582019062
 40
0.3631240270483165
 40
0.4553680576227447
 40
0.5468025426730938
 40
0.6377289465635149
 40
0.6377289465635149
 40
0.6377289465635149
 40
0.6377289465635149
 10
72.95136378646327
 20
5.75360313969945
 30
0.0
 10
72.95284889360579
 20
5.782963088884386
 30
0.0
 10
72.95587998248459
 20
5.842402773852413
 30
0.0
 10
72.96053370987334
 20
5.932416423910481
 30
0.0
 10
72.96534750802482
 20
6.023933780636625
 30
0.0
 10
72.97028080223231
 20
6.11607425685672
 30
0.0
 10
72.97525085614063
 20
6.208073760626106
 30
0.0
 10
72.98019950972821
 20
6.299474867766022
 30
0.0
 10
72.98345608864048
 20
6.360174536924844
 30
0.0
 10
72.98507650896329
 20
6.390439990399485
 30
0.0
 11
72.95136378646327
 21
5.75360313969945
 31
0.0
 11
72.9558524260633
 21
5.841681299599471
 31
0.0
 11
72.96052040586335
 21
5.931918924599486
 31
0.0
 11
72.96534552806327
 21
6.023642944199494
 31
0.0
 11
72.97029575936324
 21
6.116233154899461
 31
0.0
 11
72.97526625236321
 21
6.208343173299496
 31
0.0
 11
72.9802001897633
 21
6.299644443699477
 31
0.0
 11
72.98507650896329
 21
6.390439990399485
 31
0.0
  0
SPLINE
  5
562E4
330
1F
100
AcDbEntity
  8
1
100
AcDbSpline
210
0.0
220
0.0
230
1.0
 70
     8
 71
     3
 72
    21
 73
    17
 74
    15
 42
0.0000000001
 43
0.0000000001
 44
0.000001
 12
0.0511078686737044
 22
0.9986931389368965
 32
0.0
 13
0.0551810174779677
 23
0.9984763669261763
 33
0.0
 40
0.0
 40
0.0
 40
0.0
 40
0.0
 40
0.0415683517764899
 40
0.0832511108814539
 40
0.124841193569445
 40
0.1661822998766588
 40
0.2073536044358585
 40
0.2488506702006405
 40
0.2906688273925891
 40
0.3313998397278874
 40
0.3713994895712989
 40
0.4141705429454249
 40
0.4610851039638435
 40
0.5130193504343382
 40
0.5708153131043449
 40
0.6353896488831814
 40
0.6353896488831814
 40
0.6353896488831814
 40
0.6353896488831814
 10
72.91757082096331
 20
5.119113146799449
 30
0.0
 10
72.91827897758446
 20
5.132951156038174
 30
0.0
 10
72.91970079339421
 20
5.160665079209465
 30
0.0
 10
72.92185177678613
 20
5.202223182916824
 30
0.0
 10
72.92401112019513
 20
5.243705001602549
 30
0.0
 10
72.92617284166948
 20
5.28501597924081
 30
0.0
 10
72.92834146718883
 20
5.326295546497206
 30
0.0
 10
72.93052703748935
 20
5.367733458975592
 30
0.0
 10
72.93271392853336
 20
5.409024332753162
 30
0.0
 10
72.93488359331508
 20
5.449816279639335
 30
0.0
 10
72.9370794909413
 20
5.490924911220488
 30
0.0
 10
72.93939576572859
 20
5.534091232906249
 30
0.0
 10
72.94193791356116
 20
5.581229354936041
 30
0.0
 10
72.94476611855668
 20
5.633367628484094
 30
0.0
 10
72.94793294673713
 20
5.691382776790348
 30
0.0
 10
72.95017602727956
 20
5.7321111569711
 30
0.0
 10
72.95136378646327
 20
5.75360313969945
 30
0.0
 11
72.91757082096331
 21
5.119113146799449
 31
0.0
 11
72.9197029746632
 21
5.160626780599457
 31
0.0
 11
72.92185642756328
 21
5.202253875399478
 31
0.0
 11
72.92401832236328
 21
5.243787731099459
 31
0.0
 11
72.92617822186333
 21
5.285072375799458
 31
0.0
 11
72.9283381859633
 21
5.326186982199473
 31
0.0
 11
72.9305239068633
 21
5.367626444999459
 31
0.0
 11
72.93273567876326
 21
5.409386070499451
 31
0.0
 11
72.93489909816333
 21
5.450059587299435
 31
0.0
 11
72.9370327680632
 21
5.490002289099479
 31
0.0
 11
72.93932458916322
 21
5.53271189629946
 31
0.0
 11
72.94185113066328
 21
5.579558375399457
 31
0.0
 11
72.94466407346329
 21
5.631416386199461
 31
0.0
 11
72.94781521296306
 21
5.689126381799482
 31
0.0
 11
72.95136378646327
 21
5.75360313969945
 31
0.0
  0
SPLINE
  5
562E5
330
1F
100
AcDbEntity
  8
1
100
AcDbSpline
210
0.0
220
0.0
230
1.0
 70
     8
 71
     3
 72
    14
 73
    10
 74
     8
 42
0.0000000001
 43
0.0000000001
 44
0.000001
 12
0.0506334838899357
 22
0.9987173024981432
 32
0.0
 13
0.0557805926463935
 23
0.9984430506964418
 33
0.0
 40
0.0
 40
0.0
 40
0.0
 40
0.0
 40
0.0573501913591989
 40
0.1102663095490542
 40
0.1623615261918006
 40
0.2140997768049157
 40
0.2658390887236276
 40
0.3182982801899818
 40
0.372286890452467
 40
0.372286890452467
 40
0.372286890452467
 40
0.372286890452467
 10
72.89774250966331
 20
4.747355095499457
 30
0.0
 10
72.89871045632674
 20
4.766447304970128
 30
0.0
 10
72.90058723247773
 20
4.803154799257285
 30
0.0
 10
72.90338715916329
 20
4.85720283627883
 30
0.0
 10
72.90613078429624
 20
4.909380620773973
 30
0.0
 10
72.90889600138081
 20
4.9611644417255
 30
0.0
 10
72.91170896061316
 20
5.013067194383026
 30
0.0
 10
72.91460093545459
 20
5.065716869128308
 30
0.0
 10
72.91656698207112
 20
5.101144962555011
 30
0.0
 10
72.91757082096331
 20
5.119113146799449
 30
0.0
 11
72.89774250966331
 21
4.747355095499457
 31
0.0
 11
72.90066840356326
 21
4.804630604399491
 31
0.0
 11
72.90340720256324
 21
4.857475798299489
 31
0.0
 11
72.90614312196328
 21
4.909499123599417
 31
0.0
 11
72.90890183086332
 21
4.961163774499468
 31
0.0
 11
72.91170121606331
 21
5.012827300299463
 31
0.0
 11
72.91457682606335
 21
5.065207618099449
 31
0.0
 11
72.91757082096331
 21
5.119113146799449
 31
0.0
  0
SPLINE
  5
562E6
330
1F
100
AcDbEntity
  8
1
100
AcDbSpline
210
0.0
220
0.0
230
1.0
 70
     8
 71
     3
 72
    21
 73
    17
 74
    15
 42
0.0000000001
 43
0.0000000001
 44
0.000001
 12
0.0529856682432913
 22
0.9985952728512248
 32
0.0
 13
0.0561841220223891
 23
0.9984204246872023
 33
0.0
 40
0.0
 40
0.0
 40
0.0
 40
0.0
 40
0.0414828819672016
 40
0.0841943122598164
 40
0.1297373316847906
 40
0.1782820053246485
 40
0.2287344995062944
 40
0.2808102187466628
 40
0.3355674620594791
 40
0.3944642926659252
 40
0.4588516965677351
 40
0.5297385936654702
 40
0.6078072277792806
 40
0.6930985299724413
 40
0.783180501965462
 40
0.8730019523471238
 40
0.8730019523471238
 40
0.8730019523471238
 40
0.8730019523471238
 10
72.84498386166331
 20
3.783416977899477
 30
0.0
 10
72.84571652773718
 20
3.797225181178376
 30
0.0
 10
72.84720601989363
 20
3.825250398275343
 30
0.0
 10
72.8495157989991
 20
3.868434449008461
 30
0.0
 10
72.85196543292847
 20
3.913968312336734
 30
0.0
 10
72.85456867072048
 20
3.962077995723845
 30
0.0
 10
72.85730292306112
 20
4.012361340017505
 30
0.0
 10
72.86016108631781
 20
4.0647118608981
 30
0.0
 10
72.86318176764826
 20
4.119872478760086
 30
0.0
 10
72.86643320343211
 20
4.179130503393892
 30
0.0
 10
72.86998083807287
 20
4.243756914359423
 30
0.0
 10
72.87387647163069
 20
4.314764444703925
 30
0.0
 10
72.87815975458011
 20
4.392729152344927
 30
0.0
 10
72.88281106339178
 20
4.477081646756019
 30
0.0
 10
72.88770694374171
 20
4.565344209966937
 30
0.0
 10
72.89106319738721
 20
4.625218026587432
 30
0.0
 10
72.89274537716335
 20
4.655111216799454
 30
0.0
 11
72.84498386166331
 21
3.783416977899477
 31
0.0
 11
72.84718758096335
 21
3.824841283899488
 31
0.0
 11
72.84946852046312
 21
3.867491765399492
 31
0.0
 11
72.85191496716322
 21
3.912969028899439
 31
0.0
 11
72.8545374132633
 21
3.961442816599443
 31
0.0
 11
72.85727635356329
 21
4.011820910599496
 31
0.0
 11
72.86011474576333
 21
4.063819218699492
 31
0.0
 11
72.8631082574633
 21
4.118494574799498
 31
0.0
 11
72.86633416876327
 21
4.177302993699456
 31
0.0
 11
72.86986275866332
 21
4.241593636999525
 31
0.0
 11
72.87374718806325
 21
4.312374025299433
 31
0.0
 11
72.87803119216312
 21
4.390325028599491
 31
0.0
 11
72.88272865766328
 21
4.475486874599468
 31
0.0
 11
72.88772152086323
 21
4.565430373299463
 31
0.0
 11
72.89274537716335
 21
4.655111216799454
 31
0.0
  0
SPLINE
  5
562E7
330
1F
100
AcDbEntity
  8
1
100
AcDbSpline
210
0.0
220
0.0
230
1.0
 70
     8
 71
     3
 72
    19
 73
    15
 74
    13
 42
0.0000000001
 43
0.0000000001
 44
0.000001
 12
0.0538085030625013
 22
0.9985512730942629
 32
0.0
 13
0.0566763474465095
 23
0.9983926039590452
 33
0.0
 40
0.0
 40
0.0
 40
0.0
 40
0.0
 40
0.1007597027418736
 40
0.1918198452535791
 40
0.274520263735049
 40
0.3490695689308443
 40
0.4156015672130049
 40
0.4753173843567555
 40
0.5306870848671937
 40
0.5841779499530447
 40
0.6379045465048108
 40
0.6921169630949278
 40
0.7463628106730279
 40
0.8000961225817516
 40
0.8000961225817516
 40
0.8000961225817516
 40
0.8000961225817516
 10
72.75560144616327
 20
2.152536264799451
 30
0.0
 10
72.75740868908781
 20
2.186074174615967
 30
0.0
 10
72.76085446433109
 20
2.24992120825432
 30
0.0
 10
72.76580576085945
 20
2.341293911549243
 30
0.0
 10
72.77030006089387
 20
2.423941760138561
 30
0.0
 10
72.7743651283427
 20
2.498424820503814
 30
0.0
 10
72.77802441631877
 20
2.565257090714325
 30
0.0
 10
72.7813521235725
 20
2.625704735628104
 30
0.0
 10
72.7844501012255
 20
2.681811399929628
 30
0.0
 10
72.78745280415416
 20
2.735923875375377
 30
0.0
 10
72.79044888342514
 20
2.789650361547913
 30
0.0
 10
72.79347586634816
 20
2.843627173949343
 30
0.0
 10
72.79652094301241
 20
2.897605210046478
 30
0.0
 10
72.79855474871152
 20
2.933540757067518
 30
0.0
 10
72.79956988466324
 20
2.951423070799464
 30
0.0
 11
72.75560144616327
 21
2.152536264799451
 31
0.0
 11
72.76103354296322
 21
2.253149430199457
 31
0.0
 11
72.76596056126312
 21
2.344076179899488
 31
0.0
 11
72.77045145076328
 21
2.426654572099479
 31
0.0
 11
72.77451406696321
 21
2.50109309309947
 31
0.0
 11
72.77815309266327
 21
2.567525465699461
 31
0.0
 11
72.78143245066326
 21
2.627151190599462
 31
0.0
 11
72.78448619226321
 21
2.682436631099491
 31
0.0
 11
72.7874498901632
 21
2.735845333899462
 31
0.0
 11
72.79044165336324
 21
2.789488569499482
 31
0.0
 11
72.7934772458633
 21
2.843615932199483
 31
0.0
 11
72.79653121856324
 21
2.897775744099462
 31
0.0
 11
72.79956988466324
 21
2.951423070799464
 31
0.0
  0
SPLINE
  5
562E8
330
1F
100
AcDbEntity
  8
1
100
AcDbSpline
210
0.0
220
0.0
230
1.0
 70
     8
 71
     3
 72
    19
 73
    15
 74
    13
 42
0.0000000001
 43
0.0000000001
 44
0.000001
 12
0.0538989856337871
 22
0.9985463931874416
 32
0.0
 13
0.0566953971756925
 23
0.9983915223694012
 33
0.0
 40
0.0
 40
0.0
 40
0.0
 40
0.0
 40
0.0481593295921514
 40
0.0981852707366
 40
0.1502228643354393
 40
0.2034551794316075
 40
0.2583157413557178
 40
0.3169186162271513
 40
0.3814642348523574
 40
0.4537562251744121
 40
0.5344728584700218
 40
0.6238599491698956
 40
0.7227951737312424
 40
0.8331341791522433
 40
0.8331341791522433
 40
0.8331341791522433
 40
0.8331341791522433
 10
72.70929975966328
 20
1.320689968299504
 30
0.0
 10
72.7101650060012
 20
1.336719743253681
 30
0.0
 10
72.71193375422751
 20
1.369400337816287
 30
0.0
 10
72.71464944246281
 20
1.41940093188127
 30
0.0
 10
72.71747126372213
 20
1.471089247356374
 30
0.0
 10
72.72039591992399
 20
1.524385886524939
 30
0.0
 10
72.72345449914126
 20
1.579866894256738
 30
0.0
 10
72.72673327458426
 20
1.639112589064225
 30
0.0
 10
72.73035177974804
 20
1.704158847290941
 30
0.0
 10
72.73439511887045
 20
1.776564119958223
 30
0.0
 10
72.73891702571148
 20
1.857236058108455
 30
0.0
 10
72.74395468862048
 20
1.946774103669739
 30
0.0
 10
72.74956758590178
 20
2.046169522903923
 30
0.0
 10
72.75351620825119
 20
2.115815755599797
 30
0.0
 10
72.75560144616327
 20
2.152536264799451
 30
0.0
 11
72.70929975966328
 21
1.320689968299504
 31
0.0
 11
72.71190091426331
 21
1.368779003799446
 31
0.0
 11
72.71461435566322
 21
1.418731302599482
 31
0.0
 11
72.71745096426332
 21
1.470691528099465
 31
0.0
 11
72.72036738736336
 21
1.523843899199434
 31
0.0
 11
72.72338723916312
 21
1.578621313599498
 31
0.0
 11
72.72662747596325
 21
1.63713451879947
 31
0.0
 11
72.73021151366322
 21
1.70158054359949
 31
0.0
 11
72.73424192036327
 21
1.773760091999449
 31
0.0
 11
72.7387589422633
 21
1.854350235199476
 31
0.0
 11
72.74377982326325
 21
1.943596201999454
 31
0.0
 11
72.74935775906328
 21
2.04237405929949
 31
0.0
 11
72.75560144616327
 21
2.152536264799451
 31
0.0
  0
SPLINE
  5
562E9
330
1F
100
AcDbEntity
  8
1
100
AcDbSpline
210
0.0
220
0.0
230
1.0
 70
     8
 71
     3
 72
    18
 73
    14
 74
    12
 42
0.0000000001
 43
0.0000000001
 44
0.000001
 12
0.0551823759458681
 22
0.9984762918492201
 32
0.0
 13
0.0569091249763605
 23
0.9983793625142826
 33
0.0
 40
0.0
 40
0.0
 40
0.0
 40
0.0
 40
0.1034938397612655
 40
0.2006097325419705
 40
0.2891938172656073
 40
0.3692262147891888
 40
0.4413512520562336
 40
0.5068294485227419
 40
0.5668484553409494
 40
0.6221055373332699
 40
0.6728349672626424
 40
0.7192927951927331
 40
0.7617176630756941
 40
0.7617176630756941
 40
0.7617176630756941
 40
0.7617176630756941
 10
72.66655597256328
 20
0.5601726049994653
 30
0.0
 10
72.66845965122121
 20
0.5946179867841721
 30
0.0
 10
72.67215969320625
 20
0.6613854559594046
 30
0.0
 10
72.67753310757189
 20
0.7576335176998299
 30
0.0
 10
72.68248841547091
 20
0.8460722598148748
 30
0.0
 10
72.68699133541429
 20
0.9261929972380897
 30
0.0
 10
72.69107055538166
 20
0.9986234296132892
 30
0.0
 10
72.6947802446424
 20
1.064392971594585
 30
0.0
 10
72.69817631763413
 20
1.124548614032377
 30
0.0
 10
72.70129901316284
 20
1.179795606216785
 30
0.0
 10
72.70417252211917
 20
1.230529074600141
 30
0.0
 10
72.70680947470265
 20
1.276991681103268
 30
0.0
 10
72.70849497229381
 20
1.306571264115589
 30
0.0
 10
72.70929975966328
 20
1.320689968299504
 30
0.0
 11
72.66655597256328
 21
0.5601726049994653
 31
0.0
 11
72.67228562446326
 21
0.6635077200995028
 31
0.0
 11
72.67769603916327
 21
0.7604727857994789
 31
0.0
 11
72.68265151936327
 21
0.8489181544994579
 31
0.0
 11
72.68714187656326
 21
0.9288244828994578
 31
0.0
 11
72.69119720666333
 21
1.000835421499502
 31
0.0
 11
72.69488429216323
 21
1.066209725299458
 31
0.0
 11
72.6982674863633
 21
1.126133302999434
 31
0.0
 11
72.70138629716337
 21
1.181302298999455
 31
0.0
 11
72.70425504836328
 21
1.231950549899451
 31
0.0
 11
72.70688847896327
 21
1.278333680599459
 31
0.0
 11
72.70929975966328
 21
1.320689968299504
 31
0.0
  0
SPLINE
  5
562EA
330
1F
100
AcDbEntity
  8
1
100
AcDbSpline
210
0.0
220
0.0
230
1.0
 70
     8
 71
     3
 72
    35
 73
    31
 74
    29
 42
0.0000000001
 43
0.0000000001
 44
0.000001
 12
-0.9997588000473873
 22
0.0219622796587335
 32
0.0
 13
-0.9997134798575704
 23
0.0239365450946275
 33
0.0
 40
0.0
 40
0.0
 40
0.0
 40
0.0
 40
0.011808167349189
 40
0.0222822366242166
 40
0.0327530550382044
 40
0.0433590149631657
 40
0.0539741574023332
 40
0.064514977518218
 40
0.0750345937982482
 40
0.0858017850913268
 40
0.0971957269534468
 40
0.1095902395986687
 40
0.1233500969867722
 40
0.1387495719860713
 40
0.1559542409894993
 40
0.1751133089143575
 40
0.1963735911748631
 40
0.2198727665678083
 40
0.2457425206713474
 40
0.2743995879173966
 40
0.3068759725577282
 40
0.3437238901288311
 40
0.3832087795824761
 40
0.4225803659509089
 40
0.4609340524124962
 40
0.4990746022746013
 40
0.5393362348067115
 40
0.5840243330373284
 40
0.6333943674370856
 40
0.6872175244037896
 40
0.6872175244037896
 40
0.6872175244037896
 40
0.6872175244037896
 10
68.25864922926325
 20
-9.814258600600524
 30
0.0
 10
68.25471412285662
 20
-9.814172155842655
 30
0.0
 10
68.247288506058
 20
-9.814008854456474
 30
0.0
 10
68.23637347153635
 20
-9.81376829806588
 30
0.0
 10
68.22585908405187
 20
-9.813536184226038
 30
0.0
 10
68.21529771651069
 20
-9.813301547986597
 30
0.0
 10
68.2047130298535
 20
-9.813065988386554
 30
0.0
 10
68.19415713203238
 20
-9.812830407136189
 30
0.0
 10
68.1835505763728
 20
-9.812593135970629
 30
0.0
 10
68.17265973077178
 20
-9.812348931251889
 30
0.0
 10
68.16114409007639
 20
-9.812090123708642
 30
0.0
 10
68.14863116053022
 20
-9.81180825000861
 30
0.0
 10
68.13478340853953
 20
-9.811495569501644
 30
0.0
 10
68.11933269864744
 20
-9.811145855080567
 30
0.0
 10
68.10208273393908
 20
-9.810754480062755
 30
0.0
 10
68.0828796921553
 20
-9.810317792201615
 30
0.0
 10
68.06157904711858
 20
-9.809832382437193
 30
0.0
 10
68.0380421079127
 20
-9.809295106269061
 30
0.0
 10
68.01204024042141
 20
-9.808700486453048
 30
0.0
 10
67.98304678519878
 20
-9.808036002672068
 30
0.0
 10
67.95039494777995
 20
-9.807285714345582
 30
0.0
 10
67.9141348501621
 20
-9.806449844618853
 30
0.0
 10
67.87557704087561
 20
-9.805557607865281
 30
0.0
 10
67.83651753239673
 20
-9.804649902042527
 30
0.0
 10
67.79790611245307
 20
-9.803748472962709
 30
0.0
 10
67.7589981880439
 20
-9.802835984051327
 30
0.0
 10
67.7179794729754
 20
-9.801869756230971
 30
0.0
 10
67.67321874642306
 20
-9.800810636759464
 30
0.0
 10
67.62393890867747
 20
-9.799639015703363
 30
0.0
 10
67.58955100771254
 20
-9.79881674230846
 30
0.0
 10
67.57161509586319
 20
-9.798387295500518
 30
0.0
 11
68.25864922926325
 21
-9.814258600600524
 31
0.0
 11
68.24684391956328
 21
-9.813998830000528
 31
0.0
 11
68.23637240106325
 21
-9.813767678200477
 31
0.0
 11
68.22590414726334
 21
-9.813535935000501
 31
0.0
 11
68.21530079976321
 21
-9.813300548600508
 31
0.0
 11
68.20468828606329
 21
-9.813064326100501
 31
0.0
 11
68.19415008966337
 21
-9.812829157000507
 31
0.0
 11
68.18363310456323
 21
-9.812593890600524
 31
0.0
 11
68.1728686189632
 21
-9.812352525100507
 31
0.0
 11
68.16147755346321
 21
-9.812096523000562
 31
0.0
 11
68.14908618426329
 21
-9.811817395600499
 31
0.0
 11
68.13532983306334
 21
-9.811506789900548
 31
0.0
 11
68.11993430086329
 21
-9.811158340100504
 31
0.0
 11
68.10273405786336
 21
-9.810768116000517
 31
0.0
 11
68.08357994126334
 21
-9.810332570900541
 31
0.0
 11
68.0623251761632
 21
-9.809848256000506
 31
0.0
 11
68.0388321206633
 21
-9.809311985200523
 31
0.0
 11
68.0129691287633
 21
-9.808720523600541
 31
0.0
 11
67.98431958506319
 21
-9.808063904200551
 31
0.0
 11
67.95185177156326
 21
-9.807317816400498
 31
0.0
 11
67.91501364146324
 21
-9.80646857960049
 31
0.0
 11
67.87553932036326
 21
-9.805555083700554
 31
0.0
 11
67.83617836246333
 21
-9.804640307800539
 31
0.0
 11
67.79783512396329
 21
-9.803745133900534
 31
0.0
 11
67.75970505786324
 21
-9.802850923200495
 31
0.0
 11
67.71945458976325
 21
-9.801902829300516
 31
0.0
 11
67.67477899546327
 21
-9.800845754900549
 31
0.0
 11
67.62542290526312
 21
-9.799672472300542
 31
0.0
 11
67.57161509586319
 21
-9.798387295500518
 31
0.0
  0
SPLINE
  5
562EB
330
1F
100
AcDbEntity
  8
1
100
AcDbSpline
210
0.0
220
0.0
230
1.0
 70
     8
 71
     3
 72
    59
 73
    55
 74
     0
 42
0.0000000001
 43
0.0000000001
 40
0.5997190317629693
 40
0.5997190317629693
 40
0.5997190317629693
 40
0.5997190317629693
 40
0.684339842132693
 40
0.8061574557202135
 40
0.9275732787535487
 40
1.046000163577517
 40
1.1032842756125
 40
1.158850984892509
 40
1.212631623664287
 40
1.265578398615363
 40
1.318898196141071
 40
1.373797915828377
 40
1.431484486291829
 40
1.493164873692021
 40
1.633335129267376
 40
1.683660908733054
 40
1.709374660182733
 40
1.735128616146675
 40
1.786144409303761
 40
1.836938527085473
 40
1.887877065326837
 40
1.938765000307538
 40
1.989373818213739
 40
2.014844338266077
 40
2.040608863195588
 40
2.066668358253504
 40
2.092662442786032
 40
2.142470098372601
 40
2.200137835925038
 40
2.250411190733589
 40
2.296722007862324
 40
2.34250205203934
 40
2.39045783888483
 40
2.440394995965394
 40
2.542534994332423
 40
2.643120743439355
 40
2.742569195665789
 40
2.842434026966662
 40
2.942604145139917
 40
3.142640648521602
 40
3.342678195444423
 40
3.542716967983567
 40
3.742756858739761
 40
3.942797905110756
 40
4.142840431616568
 40
4.342884165788308
 40
4.54292908818257
 40
4.742975305853113
 40
4.943022796709585
 40
5.143071158495579
 40
5.343122129372068
 40
5.543173486775771
 40
5.743226697041677
 40
5.94328301938217
 40
5.94328301938217
 40
5.94328301938217
 40
5.94328301938217
 10
68.25864921901973
 20
-9.814258882817611
 30
0.0
 10
68.27274340648717
 20
-9.814770453455665
 30
0.0
 10
68.3071273497676
 20
-9.816013484666612
 30
0.0
 10
68.36173482576771
 20
-9.817966117837627
 30
0.0
 10
68.42197335189315
 20
-9.820111559240373
 30
0.0
 10
68.47146282783035
 20
-9.821882115043209
 30
0.0
 10
68.5099839343726
 20
-9.823275107885322
 30
0.0
 10
68.53773734522258
 20
-9.824288630183687
 30
0.0
 10
68.56476786907887
 20
-9.825288790921675
 30
0.0
 10
68.59142401808696
 20
-9.826279013700954
 30
0.0
 10
68.61826677957072
 20
-9.827270037783719
 30
0.0
 10
68.64589955411759
 20
-9.828274285233632
 30
0.0
 10
68.67492573716265
 20
-9.829304242646188
 30
0.0
 10
68.71815632383357
 20
-9.830792937020319
 30
0.0
 10
68.76016339653403
 20
-9.832163815052908
 30
0.0
 10
68.7961808477678
 20
-9.833287959700541
 30
0.0
 10
68.81313950858191
 20
-9.83377298011085
 30
0.0
 10
68.83021427235053
 20
-9.834219588903366
 30
0.0
 10
68.85147025145442
 20
-9.834672324461067
 30
0.0
 10
68.8769254216013
 20
-9.835064555125043
 30
0.0
 10
68.90236091089889
 20
-9.83532932843498
 30
0.0
 10
68.92776649436711
 20
-9.835470325917938
 30
0.0
 10
68.94892781589987
 20
-9.835483374237256
 30
0.0
 10
68.96590169251112
 20
-9.835418429997403
 30
0.0
 10
68.97878382827798
 20
-9.835328910446222
 30
0.0
 10
68.99175285986292
 20
-9.835197057176188
 30
0.0
 10
69.00872840552882
 20
-9.834983831409161
 30
0.0
 10
69.03097078472637
 20
-9.83464665344168
 30
0.0
 10
69.05725870318907
 20
-9.834215044841684
 30
0.0
 10
69.08296328384756
 20
-9.833757095063688
 30
0.0
 10
69.10668645021781
 20
-9.833310468623167
 30
0.0
 10
69.13002332674762
 20
-9.83286602143788
 30
0.0
 10
69.15396475545162
 20
-9.832424513651332
 30
0.0
 10
69.18729811104276
 20
-9.831820716185788
 30
0.0
 10
69.22940184467336
 20
-9.831066699103942
 30
0.0
 10
69.27975571750642
 20
-9.830141701579904
 30
0.0
 10
69.32973019982466
 20
-9.829209705335003
 30
0.0
 10
69.37963536313066
 20
-9.828275830809261
 30
0.0
 10
69.44630211807941
 20
-9.827020344378368
 30
0.0
 10
69.52966094739565
 20
-9.825428364290431
 30
0.0
 10
69.62966095511013
 20
-9.823489331697842
 30
0.0
 10
69.72966092314436
 20
-9.821519365373902
 30
0.0
 10
69.82966087090438
 20
-9.819518997128724
 30
0.0
 10
69.92966082838472
 20
-9.817488062593341
 30
0.0
 10
70.02966080124622
 20
-9.815426569088188
 30
0.0
 10
70.12966078736383
 20
-9.813334599927671
 30
0.0
 10
70.2296607447937
 20
-9.811212069779756
 30
0.0
 10
70.32966067808558
 20
-9.809059112337379
 30
0.0
 10
70.42966051522182
 20
-9.806875284693362
 30
0.0
 10
70.52966050774784
 20
-9.804662478375135
 30
0.0
 10
70.62966044185452
 20
-9.802418119088102
 30
0.0
 10
70.7296604847728
 20
-9.800142814758132
 30
0.0
 10
70.82966073424097
 20
-9.797837575546381
 30
0.0
 10
70.89632746561244
 20
-9.796280039484727
 30
0.0
 10
70.92966098186332
 20
-9.795496651100492
 30
0.0
  0
ARC
  5
562EC
330
1F
100
AcDbEntity
  8
1
100
AcDbCircle
 10
63.03466083876322
 20
12.21499999999949
 30
0.0
 40
3.0
100
AcDbArc
 50
270.0
 51
303.5495889999984
  0
ARC
  5
562ED
330
1F
100
AcDbEntity
  8
1
100
AcDbCircle
 10
70.98794783876326
 20
-7.693473500000507
 30
0.0
 40
2.037488499999998
100
AcDbArc
 50
340.4821559999997
 51
348.1300820000009
  0
ARC
  5
562EE
330
1F
100
AcDbEntity
  8
1
100
AcDbCircle
 10
70.97683883876323
 20
-7.688403000000519
 30
0.0
 40
2.049654
100
AcDbArc
 50
332.9637470000013
 51
340.4523199999991
  0
ARC
  5
562EF
330
1F
100
AcDbEntity
  8
1
100
AcDbCircle
 10
70.96773983876335
 20
-7.683392500000522
 30
0.0
 40
2.060036
100
AcDbArc
 50
329.5494119999987
 51
332.9546519999998
  0
ARC
  5
562F0
330
1F
100
AcDbEntity
  8
1
100
AcDbCircle
 10
70.78107583876328
 20
-7.745022500000501
 30
0.0
 40
2.194693999999999
100
AcDbArc
 50
333.4042630000009
 51
333.4080050525555
  0
ARC
  5
562F1
330
1F
100
AcDbEntity
  8
1
100
AcDbCircle
 10
70.98984083876326
 20
-6.891601500000504
 30
0.0
 40
2.901941499999998
100
AcDbArc
 50
273.3418310000049
 51
274.0609489999987
  0
ARC
  5
562F2
330
1F
100
AcDbEntity
  8
1
100
AcDbCircle
 10
70.98984083876326
 20
6.891601499999481
 30
0.0
 40
2.901941499999998
100
AcDbArc
 50
85.9390510000013
 51
86.65816900000173
  0
ARC
  5
562F3
330
1F
100
AcDbEntity
  8
1
100
AcDbCircle
 10
68.96309133876332
 20
-4.8849840000005
 30
0.0
 40
5.546476999999997
100
AcDbArc
 50
303.8341630000053
 51
305.3736739999941
  0
ARC
  5
562F4
330
1F
100
AcDbEntity
  8
1
100
AcDbCircle
 10
63.03466083876322
 20
-12.2150000000005
 30
0.0
 40
3.0
100
AcDbArc
 50
56.45041099999357
 51
90.0
  0
LINE
  5
562F5
330
1F
100
AcDbEntity
  8
1
100
AcDbLine
 10
73.02495833876321
 20
-7.649512500000511
 30
0.0
 11
73.02498633876325
 21
-7.662885500000513
 31
0.0
  0
LINE
  5
562F6
330
1F
100
AcDbEntity
  8
1
100
AcDbLine
 10
73.02483083876325
 20
-7.746605500000512
 30
0.0
 11
73.01984033876329
 21
-7.839938000000486
 31
0.0
  0
LINE
  5
562F7
330
1F
100
AcDbEntity
  8
1
100
AcDbLine
 10
73.02498633876325
 20
-7.662885500000513
 30
0.0
 11
73.02483083876325
 21
-7.746605500000512
 31
0.0
  0
LINE
  5
562F8
330
1F
100
AcDbEntity
  8
1
100
AcDbLine
 10
72.89274533876334
 20
-4.655111000000502
 30
0.0
 11
72.89774233876335
 21
-4.747355000000496
 31
0.0
  0
LINE
  5
562F9
330
1F
100
AcDbEntity
  8
1
100
AcDbLine
 10
72.63411283876326
 20
-0.2282125000005095
 30
0.0
 11
72.64907683876334
 21
-0.2561170000004864
 31
0.0
  0
LINE
  5
562FA
330
1F
100
AcDbEntity
  8
1
100
AcDbLine
 10
72.64907683876334
 20
-0.2561170000004864
 30
0.0
 11
72.66655583876332
 21
-0.5601725000005189
 31
0.0
  0
LINE
  5
562FB
330
1F
100
AcDbEntity
  8
1
100
AcDbLine
 10
71.09676983876318
 20
9.791523499999499
 30
0.0
 11
71.15900333876322
 21
9.788608499999483
 31
0.0
  0
LINE
  5
562FC
330
1F
100
AcDbEntity
  8
1
100
AcDbLine
 10
70.92966083876319
 20
9.795496499999487
 30
0.0
 11
71.09676983876318
 21
9.791523499999499
 31
0.0
  0
LINE
  5
562FD
330
1F
100
AcDbEntity
  8
1
100
AcDbLine
 10
71.09676983876318
 20
-9.791523500000508
 30
0.0
 11
71.15900333876322
 21
-9.788608500000506
 31
0.0
  0
LINE
  5
562FE
330
1F
100
AcDbEntity
  8
1
100
AcDbLine
 10
72.63411283876326
 20
0.2282124999994863
 30
0.0
 11
72.6340048387633
 21
0.0794724999994827
 31
0.0
  0
LINE
  5
562FF
330
1F
100
AcDbEntity
  8
1
100
AcDbLine
 10
72.6340048387633
 20
-0.0794725000005343
 30
0.0
 11
72.63411766074262
 21
-0.2282214919095082
 31
0.0
  0
LINE
  5
56300
330
1F
100
AcDbEntity
  8
1
100
AcDbLine
 10
72.6340048387633
 20
0.0794724999994827
 30
0.0
 11
72.6340048387633
 21
-0.0794725000005343
 31
0.0
  0
LINE
  5
56301
330
1F
100
AcDbEntity
  8
1
100
AcDbLine
 10
73.02497899997695
 20
7.666836645910038
 30
0.0
 11
73.02474176804674
 21
7.794560486376596
 31
0.0
  0
LINE
  5
56302
330
1F
100
AcDbEntity
  8
1
100
AcDbLine
 10
70.92966083876319
 20
-9.795496500000538
 30
0.0
 11
71.09676983876318
 21
-9.791523500000508
 31
0.0
  0
LINE
  5
56303
330
1F
100
AcDbEntity
  8
1
100
AcDbLine
 10
72.63411283833249
 20
0.2282119067322554
 30
0.0
 11
72.64907683876334
 21
0.2561169999994917
 31
0.0
  0
LINE
  5
56304
330
1F
100
AcDbEntity
  8
1
100
AcDbLine
 10
72.64907683876334
 20
0.2561169999994917
 30
0.0
 11
72.66655583876332
 21
0.5601724999994957
 31
0.0
  0
LINE
  5
56305
330
1F
100
AcDbEntity
  8
1
100
AcDbLine
 10
58.03466083876322
 20
-9.2150000000005
 30
0.0
 11
58.03466083876322
 21
-8.734192000000088
 31
0.0
  0
LINE
  5
56306
330
1F
100
AcDbEntity
  8
1
100
AcDbLine
 10
58.03466083876322
 20
8.148729408917354
 30
0.0
 11
58.03466083876322
 21
9.214999999999491
 31
0.0
  0
LINE
  5
56307
330
1F
100
AcDbEntity
  8
1
100
AcDbLine
 10
63.03466083876322
 20
9.214999999999491
 30
0.0
 11
58.03466083876322
 21
9.214999999999491
 31
0.0
  0
LINE
  5
56308
330
1F
100
AcDbEntity
  8
1
100
AcDbLine
 10
58.81238483876325
 20
-9.2150000000005
 30
0.0
 11
58.81238483876325
 21
-8.734192000000088
 31
0.0
  0
LINE
  5
56309
330
1F
100
AcDbEntity
  8
1
100
AcDbLine
 10
58.81238483876325
 20
7.916053090915287
 30
0.0
 11
58.81238483876325
 21
9.214999999999477
 31
0.0
  0
LINE
  5
5630A
330
1F
100
AcDbEntity
  8
1
100
AcDbLine
 10
62.99408333876328
 20
-9.2150000000005
 30
0.0
 11
63.03466083876322
 21
-9.2150000000005
 31
0.0
  0
LINE
  5
5630B
330
1F
100
AcDbEntity
  8
1
100
AcDbLine
 10
58.03466083876322
 20
-9.2150000000005
 30
0.0
 11
62.99408333876328
 21
-9.2150000000005
 31
0.0
  0
ARC
  5
5630C
102
{ACAD_REACTORS
330
5630F
102
}
330
1F
100
AcDbEntity
  8
1
100
AcDbCircle
 10
71.02474521790487
 20
7.7908457292868
 30
0.0
 40
2.0
100
AcDbArc
 50
0.106420012768979
 51
81.40864008301477
  0
DIMENSION
  5
5630D
102
{ACAD_XDICTIONARY
360
5630E
102
}
102
{ACAD_REACTORS
330
5630F
102
}
330
1F
100
AcDbEntity
  8
2
100
AcDbDimension
  2
*D28
 10
71.02474521790487
 20
7.790845729286804
 30
0.0
 11
92.51434477394136
 21
26.95656200511722
 31
0.0
 70
    36
 71
     5
 42
1.999999999999843
  3
\M+18352\M+18373\M+1815B - ISO-25
100
AcDbRadialDimension
 15
72.68975756027072
 25
8.898877272054757
 35
0.0
 40
0.0
1001
ACAD
1000
DSTYLE
1002
{
1070
     4
1000
"
1070
    40
1040
1.0
1070
   143
1040
0.03937
1070
   170
1070
     1
1070
   171
1070
     4
1070
   271
1070
     8
1070
   285
1070
     4
1002
}
  0
LINE
  5
56310
330
1F
100
AcDbEntity
  8
1
100
AcDbLine
 10
72.89274537716335
 20
4.655111216799454
 30
0.0
 11
72.89774250966331
 21
4.747355095499457
 31
0.0
  0
SPLINE
  5
56311
330
1F
100
AcDbEntity
  8
1
100
AcDbSpline
210
0.0
220
0.0
230
1.0
 70
     8
 71
     3
 72
    19
 73
    15
 74
    13
 42
0.0000000001
 43
0.0000000001
 44
0.000001
 12
0.053973225975107
 22
0.9985423831154289
 32
0.0
 13
0.0556055887574507
 23
0.9984528123546636
 33
0.0
 40
0.0
 40
0.0
 40
0.0
 40
0.0
 40
0.107467664313515
 40
0.2056032265421371
 40
0.293107882903822
 40
0.370503298961783
 40
0.4392331727926905
 40
0.5010157422127799
 40
0.5581652280587126
 40
0.6130978806274169
 40
0.6678713714534608
 40
0.7230469116259557
 40
0.7781499500078169
 40
0.8332325007367094
 40
0.8332325007367094
 40
0.8332325007367094
 40
0.8332325007367094
 10
72.79956988466324
 20
2.951423070799464
 30
0.0
 10
72.80150334350691
 20
2.987193410009965
 30
0.0
 10
72.80520630215199
 20
3.055627709888213
 30
0.0
 10
72.81051119090801
 20
3.153186213801077
 30
0.0
 10
72.81526813923574
 20
3.240735620769655
 30
0.0
 10
72.81949423978449
 20
3.318497516960619
 30
0.0
 10
72.82325841999067
 20
3.387697835311072
 30
0.0
 10
72.82666064408636
 20
3.450159222099742
 30
0.0
 10
72.82981807746836
 20
3.508028051032042
 30
0.0
 10
72.83285414296779
 20
3.563563667120021
 30
0.0
 10
72.83586219264662
 20
3.618441849996784
 30
0.0
 10
72.83888424741457
 20
3.673376144686486
 30
0.0
 10
72.84192427080359
 20
3.728412625760128
 30
0.0
 10
72.84396289577546
 20
3.765084535337152
 30
0.0
 10
72.84498386166331
 20
3.783416977899477
 30
0.0
 11
72.79956988466324
 21
2.951423070799464
 31
0.0
 11
72.80538034746325
 21
3.058733541999501
 31
0.0
 11
72.81070387176328
 21
3.15672460619946
 31
0.0
 11
72.81545214986329
 21
3.244100339199448
 31
0.0
 11
72.81965265116321
 21
3.321381683599483
 31
0.0
 11
72.82338608636326
 21
3.390010081499482
 31
0.0
 11
72.82674662516331
 21
3.451701188199464
 31
0.0
 11
72.8298603679633
 21
3.5087657859995
 31
0.0
 11
72.83285935566334
 21
3.56361651409945
 31
0.0
 11
72.83585765766327
 21
3.618307879599498
 31
0.0
 11
72.83888862836329
 21
3.673400106099435
 31
0.0
 11
72.8419288862633
 21
3.728419208399472
 31
0.0
 11
72.84498386166331
 21
3.783416977899477
 31
0.0
  0
LINE
  5
56312
330
1F
100
AcDbEntity
  8
cut
100
AcDbLine
 10
65.02497899997695
 20
9.790368881800063
 30
0.0
 11
69.02497899997695
 21
9.999999998900037
 31
0.0
1001
ACAD
1000
RTMaterial
1005
0
  0
LINE
  5
56313
330
1F
100
AcDbEntity
  8
cut
100
AcDbLine
 10
58.02497899997695
 20
9.214999998900069
 30
0.0
 11
63.25829738017694
 21
9.21499999890004
 31
0.0
1001
ACAD
1000
RTMaterial
1005
0
  0
LINE
  5
56314
330
1F
100
AcDbEntity
  8
cut
100
AcDbLine
 10
69.02497899997695
 20
9.999999998900037
 30
0.0
 11
71.02497899997695
 21
9.999999998900037
 31
0.0
1001
ACAD
1000
RTMaterial
1005
0
  0
LINE
  5
56315
330
1F
100
AcDbEntity
  8
cut
100
AcDbLine
 10
73.02497899997695
 20
7.499999998898957
 30
0.0
 11
73.02497899997695
 21
7.999999998900037
 31
0.0
1001
ACAD
1000
RTMaterial
1005
0
  0
LINE
  5
56317
330
1F
100
AcDbEntity
  8
cut
100
AcDbLine
 10
72.63192065537691
 20
-0.0000000010999628
 30
0.0
 11
73.02497899997695
 21
7.499999998900037
 31
0.0
1001
ACAD
1000
RTMaterial
1005
0
  0
ARC
  5
56318
330
1F
100
AcDbEntity
  8
cut
100
AcDbCircle
 10
63.25829738017694
 20
12.21499999890004
 30
0.0
 40
3.0
100
AcDbArc
 50
270.0
 51
306.0785533250036
1001
ACAD
1000
RTMaterial
1005
0
  0
ARC
  5
56319
330
1F
100
AcDbEntity
  8
cut
100
AcDbCircle
 10
71.02497899997695
 20
7.999999998900037
 30
0.0
 40
2.0
100
AcDbArc
 50
0.0
 51
90.0
1001
ACAD
1000
RTMaterial
1005
0
  0
LINE
  5
5631A
330
1F
100
AcDbEntity
  8
cut
100
AcDbLine
 10
65.02497899850244
 20
-9.790368882854281
 30
0.0
 11
69.02497899847083
 21
-10.00000000055671
 31
0.0
1001
ACAD
1000
RTMaterial
1005
0
  0
LINE
  5
5631B
330
1F
100
AcDbEntity
  8
cut
100
AcDbLine
 10
58.02497899858906
 20
-9.214999998899983
 30
0.0
 11
63.25829737878905
 21
-9.214999999688174
 31
0.0
1001
ACAD
1000
RTMaterial
1005
0
  0
LINE
  5
5631C
330
1F
100
AcDbEntity
  8
cut
100
AcDbLine
 10
69.02497899847083
 20
-10.00000000055671
 30
0.0
 11
71.02497899847083
 21
-10.00000000085795
 31
0.0
1001
ACAD
1000
RTMaterial
1005
0
  0
LINE
  5
5631D
330
1F
100
AcDbEntity
  8
cut
100
AcDbLine
 10
73.02497899884736
 20
-7.500000001158085
 30
0.0
 11
73.02497899877209
 21
-8.000000001159165
 31
0.0
1001
ACAD
1000
RTMaterial
1005
0
  0
LINE
  5
5631E
330
1F
100
AcDbEntity
  8
cut
100
AcDbLine
 10
72.63192065537691
 20
-0.0000000010999628
 30
0.0
 11
73.02497899884736
 21
-7.500000001159165
 31
0.0
1001
ACAD
1000
RTMaterial
1005
0
  0
ARC
  5
5631F
330
1F
100
AcDbEntity
  8
cut
100
AcDbCircle
 10
63.25829737833726
 20
-12.21499999968817
 30
0.0
 40
3.0
100
AcDbArc
 50
53.92144666637274
 51
89.99999999136925
1001
ACAD
1000
RTMaterial
1005
0
  0
ARC
  5
56320
330
1F
100
AcDbEntity
  8
cut
100
AcDbCircle
 10
71.0249789987721
 20
-8.000000000857951
 30
0.0
 40
2.0
100
AcDbArc
 50
269.9999999913692
 51
359.9999999913692
1001
ACAD
1000
RTMaterial
1005
0
  0
DIMENSION
  5
565BB
330
1F
100
AcDbEntity
  8
sk2
100
AcDbDimension
  2
*D36
 10
73.02500000000003
 20
60.20131323240454
 30
0.0
 11
-10.79008475328237
 21
60.20131323240454
 31
0.0
 70
   160
 71
     5
 41
0.892857
 42
152.4
  3
\M+18352\M+18373\M+1815B - ISO-25
100
AcDbAlignedDimension
 13
-79.375
 23
11.50003100000003
 33
0.0
 14
73.02500000000003
 24
7.992124326932753
 34
0.0
 50
180.0
100
AcDbRotatedDimension
1001
ACAD
1000
DSTYLE
1002
{
1070
     4
1000
"
1070
    40
1040
1.0
1070
   143
1040
0.03937
1070
   170
1070
     1
1070
   171
1070
     3
1070
   271
1070
     8
1070
   285
1070
     4
1002
}
  0
DIMENSION
  5
565BC
330
1F
100
AcDbEntity
  8
2
100
AcDbDimension
  2
*D37
 10
0.0000000000000028
 20
44.96323130736501
 30
0.0
 11
35.58000976752396
 21
44.96323130736501
 31
0.0
 70
   160
 71
     5
 41
0.892857
 42
73.02500000000003
  3
\M+18352\M+18373\M+1815B - ISO-25
100
AcDbAlignedDimension
 13
73.02500000000003
 23
7.992124326932753
 33
0.0
 14
0.0
 24
0.0
 34
0.0
 50
359.9999610000006
100
AcDbRotatedDimension
1001
ACAD
1000
DSTYLE
1002
{
1070
     4
1000
"
1070
    40
1040
1.0
1070
   143
1040
0.03937
1070
   170
1070
     1
1070
   171
1070
     3
1070
   271
1070
     8
1070
   285
1070
     4
1002
}
  0
SPLINE
  5
565BD
330
1F
100
AcDbEntity
  8
1
100
AcDbSpline
210
0.0
220
0.0
230
1.0
 70
     8
 71
     3
 72
    10
 73
     6
 74
     4
 42
0.0000000001
 43
0.0000000001
 44
0.000001
 12
0.9959101553832343
 22
-0.0903491140218995
 32
0.0
 13
0.9824277678813343
 23
-0.1866431913992558
 33
0.0
 40
0.0
 40
0.0
 40
0.0
 40
0.0
 40
0.2021055944582413
 40
0.4283389005465072
 40
0.6758636832241268
 40
0.6758636832241268
 40
0.6758636832241268
 40
0.6758636832241268
 10
54.13082933007808
 20
9.074737796874984
 30
0.0
 10
54.19792233473834
 20
9.068651109742262
 30
0.0
 10
54.33993238430287
 20
9.053428313265513
 30
0.0
 10
54.56275594985413
 20
9.019922095428754
 30
0.0
 10
54.71836528384921
 20
8.992908398098521
 30
0.0
 10
54.79942369042965
 20
8.977508792968734
 30
0.0
 11
54.13082933007808
 21
9.074737796874984
 31
0.0
 11
54.33175706445308
 21
9.052948246093734
 31
0.0
 11
54.55560349999996
 21
9.020172367187484
 31
0.0
 11
54.79942369042965
 21
8.977508792968734
 31
0.0
  0
SPLINE
  5
565BE
330
1F
100
AcDbEntity
  8
1
100
AcDbSpline
210
0.0
220
0.0
230
1.0
 70
     8
 71
     3
 72
    47
 73
    43
 74
    41
 42
0.0000000001
 43
0.0000000001
 44
0.000001
 12
-0.9999999690484479
 22
-0.0002488033421133
 32
0.0
 13
0.9999999685521048
 23
-0.0002507903296894
 33
0.0
 40
0.0
 40
0.0
 40
0.0
 40
0.0
 40
0.4500639720985335
 40
0.8959485888982086
 40
1.191304801459402
 40
1.486816615524889
 40
1.785831016514321
 40
2.073244113150636
 40
2.368341678515715
 40
2.662228446819063
 40
2.948784443830369
 40
3.232224318899086
 40
3.531077361431587
 40
3.882237252846928
 40
4.229753878224981
 40
4.583087740818475
 40
4.929408382840601
 40
5.277496673287314
 40
5.722068780334556
 40
6.168456027443305
 40
6.613407203131447
 40
7.06134560065568
 40
7.512815786772383
 40
7.959527579216414
 40
8.404985700370561
 40
8.851021064228794
 40
9.141332370285661
 40
9.432527611006499
 40
9.729127591883591
 40
10.01942694871504
 40
10.30917308752307
 40
10.60160863062473
 40
10.95630604829193
 40
11.29856678801469
 40
11.64837944602215
 40
11.99924207410439
 40
12.34505588393605
 40
12.64215686729147
 40
12.9374032668014
 40
13.2339777572608
 40
13.68210193950053
 40
14.13315345404619
 40
14.13315345404619
 40
14.13315345404619
 40
14.13315345404619
 10
62.87500047265621
 20
4.500030765624984
 30
0.0
 10
62.72497915326676
 20
4.499993439818183
 30
0.0
 10
62.42612290149799
 20
4.485070961518744
 30
0.0
 10
62.03281210399087
 20
4.425746621729558
 30
0.0
 10
61.69625815703438
 20
4.346251678201369
 30
0.0
 10
61.4124685263273
 20
4.259188750025259
 30
0.0
 10
61.13752020276513
 20
4.154519604750134
 30
0.0
 10
60.87012047392187
 20
4.03222285256885
 30
0.0
 10
60.61267976406117
 20
3.893699010767306
 30
0.0
 10
60.36509801815248
 20
3.738782807295393
 30
0.0
 10
60.13116740394059
 20
3.570527314783575
 30
0.0
 10
59.90709248881024
 20
3.386736671108309
 30
0.0
 10
59.67960919318262
 20
3.174120568873675
 30
0.0
 10
59.45349536471076
 20
2.929853615125082
 30
0.0
 10
59.23571849364435
 20
2.654563813816395
 30
0.0
 10
59.04093189997121
 20
2.36447528336663
 30
0.0
 10
58.86916165914226
 20
2.059989862729992
 30
0.0
 10
58.70851747872189
 20
1.715591567897902
 30
0.0
 10
58.56732319831223
 20
1.326717086804691
 30
0.0
 10
58.45726397414626
 20
0.8944807547090576
 30
0.0
 10
58.39035772908608
 20
0.4523588816349929
 30
0.0
 10
58.36749636006243
 20
0.0040809185185822
 30
0.0
 10
58.38952840197794
 20
-0.4448403927969267
 30
0.0
 10
58.45604772977868
 20
-0.8885007266994904
 30
0.0
 10
58.56575189550927
 20
-1.321608688802413
 30
0.0
 10
58.69998949535016
 20
-1.692697029842477
 30
0.0
 10
58.84255027895392
 20
-2.004369071148147
 30
0.0
 10
58.98132017318755
 20
-2.262322021702928
 30
0.0
 10
59.13664608170745
 20
-2.510657704876614
 30
0.0
 10
59.3075396867564
 20
-2.747940138275794
 30
0.0
 10
59.49247564818154
 20
-2.972655747639095
 30
0.0
 10
59.70623649145181
 20
-3.200614341361365
 30
0.0
 10
59.94879259454933
 20
-3.424596107645257
 30
0.0
 10
60.22295331144033
 20
-3.640961739984035
 30
0.0
 10
60.51188159366603
 20
-3.834929334238822
 30
0.0
 10
60.81605636621919
 20
-4.006410559067283
 30
0.0
 10
61.11665376785635
 20
-4.146395354941475
 30
0.0
 10
61.40904209557925
 20
-4.257929100592726
 30
0.0
 10
61.69243163776013
 20
-4.345211020863146
 30
0.0
 10
62.02996210918866
 20
-4.425210712943254
 30
0.0
 10
62.42471512568181
 20
-4.484969883066277
 30
0.0
 10
62.72464997253587
 20
-4.49996204550046
 30
0.0
 10
62.87500047265621
 20
-4.49999975195314
 30
0.0
 11
62.87500047265621
 21
4.500030765624984
 31
0.0
 11
62.42549943505856
 21
4.477508792968734
 31
0.0
 11
61.98459672509762
 21
4.411041507812484
 31
0.0
 11
61.69715165673824
 21
4.343139896484416
 31
0.0
 11
61.41463517724606
 21
4.256469974609359
 31
0.0
 11
61.13518571435543
 21
4.150085697265552
 31
0.0
 11
60.87381028710933
 21
4.030548343749984
 31
0.0
 11
60.61394547998043
 21
3.890716800781234
 31
0.0
 11
60.36480760156246
 21
3.734833011718734
 31
0.0
 11
60.13217973291012
 21
3.567505130859359
 31
0.0
 11
59.91302537499996
 21
3.387756595703109
 31
0.0
 11
59.69469499169917
 21
3.183685550781234
 31
0.0
 11
59.45613908349606
 21
2.925995121093734
 31
0.0
 11
59.24054002343746
 21
2.653442630859359
 31
0.0
 11
59.04356431542964
 21
2.360107669921916
 31
0.0
 11
58.87340592919918
 21
2.058471927734416
 31
0.0
 11
58.72626542626949
 21
1.743011722656291
 31
0.0
 11
58.57453202783199
 21
1.325134525390609
 31
0.0
 11
58.46439408837887
 21
0.8925478554687344
 31
0.0
 11
58.39781236230464
 21
0.4526064492187345
 31
0.0
 11
58.37500047265621
 21
0.0052492714844163
 31
0.0
 11
58.39712571679683
 21
-0.4456784628906405
 31
0.0
 11
58.46337174951168
 21
-0.8874509238281405
 31
0.0
 11
58.57273912011715
 21
-1.31927465429689
 31
0.0
 11
58.72447251855465
 21
-1.73870824804689
 31
0.0
 11
58.84522294580074
 21
-2.002715816406265
 31
0.0
 11
58.98318528710934
 21
-2.25915502539064
 31
0.0
 11
59.14046525537106
 21
-2.51061986914064
 31
0.0
 11
59.31012010156246
 21
-2.746185054687515
 31
0.0
 11
59.49424027978512
 21
-2.96990941992189
 31
0.0
 11
59.69427537499996
 21
-3.183227291015583
 31
0.0
 11
59.95486497460934
 21
-3.423858394531265
 31
0.0
 11
60.22353410302731
 21
-3.635894527343708
 31
0.0
 11
60.51396989404293
 21
-3.830871333984447
 31
0.0
 11
60.81961106835933
 21
-4.003173580078083
 31
0.0
 11
61.13309526025386
 21
-4.149169673828083
 31
0.0
 11
61.41068315087887
 21
-4.25506566992189
 31
0.0
 11
61.69285630761715
 21
-4.341949214843708
 31
0.0
 11
61.98143052636715
 21
-4.410369625000015
 31
0.0
 11
62.42451524316402
 21
-4.477386226562515
 31
0.0
 11
62.87500047265621
 21
-4.49999975195314
 31
0.0
  0
SPLINE
  5
565BF
330
1F
100
AcDbEntity
  8
1
100
AcDbSpline
210
0.0
220
0.0
230
1.0
 70
     8
 71
     3
 72
    16
 73
    12
 74
    10
 42
0.0000000001
 43
0.0000000001
 44
0.000001
 12
0.971374906312096
 22
-0.2375516604597128
 32
0.0
 13
0.9474750794729757
 23
-0.3198296011592397
 33
0.0
 40
0.0
 40
0.0
 40
0.0
 40
0.0
 40
0.6162293907559953
 40
1.266641421358325
 40
1.94437800071705
 40
2.643153195263496
 40
3.346129980189998
 40
4.065757165920902
 40
5.218360964634051
 40
6.376525657559676
 40
7.579731593613324
 40
7.579731593613324
 40
7.579731593613324
 40
7.579731593613324
 10
55.77574204980464
 20
8.764129886718734
 30
0.0
 10
55.97527197204209
 20
8.715334448386016
 30
0.0
 10
56.38468307106689
 20
8.612058294129241
 30
0.0
 10
57.01033947783844
 20
8.442792475530978
 30
0.0
 10
57.66048460193798
 20
8.25889707078295
 30
0.0
 10
58.32556713648568
 20
8.063567779689876
 30
0.0
 10
59.00244396591137
 20
7.85893607350755
 30
0.0
 10
59.82237807245059
 20
7.604824644268532
 30
0.0
 10
60.78495491191427
 20
7.298492234064255
 30
0.0
 10
61.89833816624633
 20
6.934626539340186
 30
0.0
 10
62.64499182251234
 20
6.68546381433326
 30
0.0
 10
63.02499436914058
 20
6.557190189453109
 30
0.0
 11
55.77574204980464
 21
8.764129886718734
 31
0.0
 11
56.37319993554683
 21
8.613189945312484
 31
0.0
 11
57.00122117578121
 21
8.444000492187484
 31
0.0
 11
57.65342759667965
 21
8.259735355468734
 31
0.0
 11
58.32395982324214
 21
8.063080082031234
 31
0.0
 11
58.99689530908199
 21
7.859771976562484
 31
0.0
 11
59.68431138574215
 21
7.646881351562484
 31
0.0
 11
60.78273057519528
 21
7.297638187499984
 31
0.0
 11
61.88369798242184
 21
6.938171634765552
 31
0.0
 11
63.02499436914058
 21
6.557190189453109
 31
0.0
  0
SPLINE
  5
565C0
330
1F
100
AcDbEntity
  8
1
100
AcDbSpline
210
0.0
220
0.0
230
1.0
 70
     8
 71
     3
 72
    25
 73
    21
 74
    19
 42
0.0000000001
 43
0.0000000001
 44
0.000001
 12
0.9468450350588154
 22
-0.3216900365017087
 32
0.0
 13
0.472672644905016
 23
-0.8812380897115698
 33
0.0
 40
0.0
 40
0.0
 40
0.0
 40
0.0
 40
0.6624445206021469
 40
1.343635475877358
 40
2.03704007901142
 40
2.744199950259003
 40
3.498205810181013
 40
4.256607259798171
 40
5.026797150448673
 40
5.79362020007297
 40
6.519207187702039
 40
7.232933973109574
 40
7.940537143243901
 40
8.625243230554744
 40
9.231303908532373
 40
9.806261301969117
 40
10.35277477793334
 40
10.85315324085366
 40
11.19386818035246
 40
11.49794529668526
 40
11.49794529668526
 40
11.49794529668526
 40
11.49794529668526
 10
63.10024308740231
 20
6.531738529296859
 30
0.0
 10
63.30932052251364
 20
6.460704595292568
 30
0.0
 10
63.73039831320273
 20
6.307632005196154
 30
0.0
 10
64.35814153321752
 20
6.048261447132588
 30
0.0
 10
64.98767477793831
 20
5.755840460141058
 30
0.0
 10
65.62562288392064
 20
5.425483047542044
 30
0.0
 10
66.26711035011442
 20
5.056349263872732
 30
0.0
 10
66.90902444881544
 20
4.647383552452879
 30
0.0
 10
67.5352766742294
 20
4.207331073443498
 30
0.0
 10
68.13244815856705
 20
3.746258729259722
 30
0.0
 10
68.69452858048004
 20
3.271739670699602
 30
0.0
 10
69.22167714844386
 20
2.787434208854151
 30
0.0
 10
69.71845360039083
 20
2.291126484408309
 30
0.0
 10
70.16991195660569
 20
1.801063203992278
 30
0.0
 10
70.57289495178281
 20
1.327188007293514
 30
0.0
 10
70.92916873509029
 20
0.8746126226264294
 30
0.0
 10
71.24699472668232
 20
0.4371124906709838
 30
0.0
 10
71.50348391489643
 20
0.0520423145740665
 30
0.0
 10
71.70289964972591
 20
-0.2735485438635692
 30
0.0
 10
71.80773505378636
 20
-0.4612459331988959
 30
0.0
 10
71.85564469873042
 20
-0.5505673789062655
 30
0.0
 11
63.10024308740231
 21
6.531738529296859
 31
0.0
 11
63.72281693994136
 21
6.305389652343734
 31
0.0
 11
64.35243272363277
 21
6.045379886718734
 31
0.0
 11
64.98134660302731
 21
5.753357181640609
 31
0.0
 11
65.60932969628902
 21
5.428222904296859
 31
0.0
 11
66.26290940820308
 21
5.052246341796802
 31
0.0
 11
66.90255021630855
 21
4.644775638671916
 31
0.0
 11
67.5327610927734
 21
4.202026615234416
 31
0.0
 11
68.13972520410152
 21
3.733398685546859
 31
0.0
 11
68.69416856347652
 21
3.265350589843734
 31
0.0
 11
69.21971940576168
 21
2.782440433593734
 31
0.0
 11
69.72026872216793
 21
2.282287845703109
 31
0.0
 11
70.18407487451168
 21
1.778595218749984
 31
0.0
 11
70.57657670556636
 21
1.316803226562484
 31
0.0
 11
70.93200730859371
 21
0.8648684121093594
 31
0.0
 11
71.25286149560543
 21
0.4224550820312345
 31
0.0
 11
71.52980851708981
 21
0.0057070351562913
 31
0.0
 11
71.7071995693359
 21
-0.2851865195312655
 31
0.0
 11
71.85564469873042
 21
-0.5505673789062655
 31
0.0
  0
SPLINE
  5
565C1
330
1F
100
AcDbEntity
  8
1
100
AcDbSpline
210
0.0
220
0.0
230
1.0
 70
     8
 71
     3
 72
    11
 73
     7
 74
     5
 42
0.0000000001
 43
0.0000000001
 44
0.000001
 12
-0.9469616152808802
 22
0.3213466962404101
 32
0.0
 13
-0.9475844315216047
 23
0.3195054696525196
 33
0.0
 40
0.0
 40
0.0
 40
0.0
 40
0.0
 40
0.0198802755307438
 40
0.0397533242843359
 40
0.0596021423995073
 40
0.0794365036403571
 40
0.0794365036403571
 40
0.0794365036403571
 40
0.0794365036403571
 10
63.10024308740231
 20
6.531738529296859
 30
0.0
 10
63.09396780145937
 20
6.533868016250906
 30
0.0
 10
63.08141532099148
 20
6.538113854800414
 30
0.0
 10
63.06260152892599
 20
6.544497765012977
 30
0.0
 10
63.04378920263116
 20
6.550838236606452
 30
0.0
 10
63.0312592797809
 20
6.555077793818597
 30
0.0
 10
63.02499436914058
 20
6.557190189453109
 30
0.0
 11
63.10024308740231
 21
6.531738529296859
 31
0.0
 11
63.08141374169918
 21
6.538116703124984
 31
0.0
 11
63.06259202539059
 21
6.544494876953109
 31
0.0
 11
63.04378556787106
 21
6.550842533203109
 31
0.0
 11
63.02499436914058
 21
6.557190189453109
 31
0.0
  0
SPLINE
  5
565C2
330
1F
100
AcDbEntity
  8
1
100
AcDbSpline
210
0.0
220
0.0
230
1.0
 70
     8
 71
     3
 72
    22
 73
    18
 74
    16
 42
0.0000000001
 43
0.0000000001
 44
0.000001
 12
0.9501051262673982
 22
0.3119298784028415
 32
0.0
 13
0.066472848683105
 23
0.9977882342400882
 33
0.0
 40
0.0
 40
0.0
 40
0.0
 40
0.0
 40
0.177388303654139
 40
0.9247315810938889
 40
1.674737135707884
 40
2.424734059915472
 40
3.172073090282073
 40
3.919103792564623
 40
4.66882460762552
 40
5.418512096781938
 40
6.165520686917254
 40
6.911030509148487
 40
7.659269185844087
 40
8.407427719404234
 40
9.152835591466786
 40
9.788513083387829
 40
10.42416986786292
 40
10.42416986786292
 40
10.42416986786292
 40
10.42416986786292
 10
65.79621934472652
 20
-8.290740718750015
 30
0.0
 10
65.85239852360712
 20
-8.272296481420376
 30
0.0
 10
66.14428550555913
 20
-8.173188121072023
 30
0.0
 10
66.66332974182478
 20
-7.965616761572512
 30
0.0
 10
67.33383036503937
 20
-7.629676588703688
 30
0.0
 10
67.97414510509316
 20
-7.239194469477105
 30
0.0
 10
68.57867730004284
 20
-6.796934447512683
 30
0.0
 10
69.1426715391517
 20
-6.304157489190984
 30
0.0
 10
69.66383179860713
 20
-5.76526056567414
 30
0.0
 10
70.138361963514
 20
-5.184887194432405
 30
0.0
 10
70.56159194202087
 20
-4.567747907194544
 30
0.0
 10
70.92958287376609
 20
-3.916717851614237
 30
0.0
 10
71.24151426053249
 20
-3.236664200873761
 30
0.0
 10
71.49517969853206
 20
-2.532824714173429
 30
0.0
 10
71.67798021613157
 20
-1.846061861392463
 30
0.0
 10
71.79761633389387
 20
-1.183950728101422
 30
0.0
 10
71.84156005964746
 20
-0.7619843324276446
 30
0.0
 10
71.85564469873042
 20
-0.5505673789062655
 30
0.0
 11
65.79621934472652
 21
-8.290740718750015
 31
0.0
 11
65.96418809472652
 21
-8.233703365234447
 31
0.0
 11
66.65818833886715
 21
-7.95642065039064
 31
0.0
 11
67.32879685937496
 21
-7.620574703125015
 31
0.0
 11
67.96905564843746
 21
-7.229980220703197
 31
0.0
 11
68.57202195703121
 21
-6.78845190039064
 31
0.0
 11
69.13478898583981
 21
-6.297179927734447
 31
0.0
 11
69.65605973779293
 21
-5.758331050781265
 31
0.0
 11
70.13048600732417
 21
-5.177856197265555
 31
0.0
 11
70.55270433007809
 21
-4.561614742187515
 31
0.0
 11
70.91980027734371
 21
-3.912749996093708
 31
0.0
 11
71.23180436669918
 21
-3.232665767578083
 31
0.0
 11
71.48526048242183
 21
-2.52874731054689
 31
0.0
 11
71.67672776757808
 21
-1.808349361328083
 31
0.0
 11
71.78974961816402
 21
-1.18280004492189
 31
0.0
 11
71.85564469873042
 21
-0.5505673789062655
 31
0.0
  0
SPLINE
  5
565C3
330
1F
100
AcDbEntity
  8
1
100
AcDbSpline
210
0.0
220
0.0
230
1.0
 70
     8
 71
     3
 72
    11
 73
     7
 74
     5
 42
0.0000000001
 43
0.0000000001
 44
0.000001
 12
0.9999996031474408
 22
0.0008909012070156
 32
0.0
 13
0.9508619751644026
 23
0.3096150903726288
 33
0.0
 40
0.0
 40
0.0
 40
0.0
 40
0.0
 40
0.7473246493751333
 40
1.49731941491221
 40
2.247314232719053
 40
2.804700492456469
 40
2.804700492456469
 40
2.804700492456469
 40
2.804700492456469
 10
63.02499436914058
 20
-8.734161128906265
 30
0.0
 10
63.2741024867397
 20
-8.733939198095548
 30
0.0
 10
63.77346040325625
 20
-8.71272715144385
 30
0.0
 10
64.51732121618647
 20
-8.617470072128753
 30
0.0
 10
65.18883854002365
 20
-8.474292689874744
 30
0.0
 10
65.60750673080725
 20
-8.352202552055103
 30
0.0
 10
65.78417253076167
 20
-8.294677486328083
 30
0.0
 11
63.02499436914058
 21
-8.734161128906265
 31
0.0
 11
63.77163743554683
 21
-8.702239742187515
 31
0.0
 11
64.51559495507808
 21
-8.607269039062515
 31
0.0
 11
65.24905442773434
 21
-8.450652828125015
 31
0.0
 11
65.78417253076167
 21
-8.294677486328083
 31
0.0
  0
ARC
  5
565C4
330
1F
100
AcDbEntity
  8
1
100
AcDbCircle
 10
3.473816999999939
 20
13.468816
 30
0.0
 40
3.0
100
AcDbArc
 50
224.9999899999976
 51
268.4999999999973
  0
ARC
  5
565C5
330
1F
100
AcDbEntity
  8
1
100
AcDbCircle
 10
3.473816999999939
 20
-13.46881499999995
 30
0.0
 40
3.0
100
AcDbArc
 50
91.50000000000272
 51
135.0000100000024
  0
ARC
  5
565C6
330
1F
100
AcDbEntity
  8
1
100
AcDbCircle
 10
63.02499399999999
 20
-0.0000000000000284
 30
0.0
 40
4.050004
100
AcDbArc
 50
270.0000430000017
 51
0.0000050000005032
  0
ARC
  5
565C7
330
1F
100
AcDbEntity
  8
1
100
AcDbCircle
 10
63.02499399999999
 20
-0.0000000000000284
 30
0.0
 40
4.050004
100
AcDbArc
 50
359.9999949999995
 51
89.9999970000023
  0
ARC
  5
565C8
330
1F
100
AcDbEntity
  8
1
100
AcDbCircle
 10
63.02499399999999
 20
-0.0000000000000284
 30
0.0
 40
4.050004
100
AcDbArc
 50
89.9999970000023
 51
179.9999980000004
  0
ARC
  5
565C9
330
1F
100
AcDbEntity
  8
1
100
AcDbCircle
 10
63.02499399999999
 20
-0.0000000000000284
 30
0.0
 40
4.050004
100
AcDbArc
 50
180.0000889999995
 51
270.0000430000017
  0
ARC
  5
565CA
330
1F
100
AcDbEntity
  8
1
100
AcDbCircle
 10
63.02499399999999
 20
2.229523
 30
0.0
 40
0.8260009999999999
100
AcDbArc
 50
223.665181000003
 51
316.3348239999998
  0
ARC
  5
565CB
330
1F
100
AcDbEntity
  8
1
100
AcDbCircle
 10
61.365227
 20
-0.0000000000000284
 30
0.0
 40
0.321227
100
AcDbArc
 50
103.665615
 51
256.3343789999976
  0
ARC
  5
565CC
330
1F
100
AcDbEntity
  8
1
100
AcDbCircle
 10
63.85488199999997
 20
1.437408999999973
 30
0.0
 40
0.321227
100
AcDbArc
 50
343.6656079999989
 51
136.3343919999981
  0
ARC
  5
565CD
330
1F
100
AcDbEntity
  8
1
100
AcDbCircle
 10
61.09419299999991
 20
1.114776999999975
 30
0.0
 40
0.8260009999999999
100
AcDbArc
 50
283.6651760000001
 51
16.3348260000003
  0
ARC
  5
565CE
330
1F
100
AcDbEntity
  8
1
100
AcDbCircle
 10
64.68476899999996
 20
-0.0000000000000284
 30
0.0
 40
0.321227
100
AcDbArc
 50
283.6656200000009
 51
76.33437700000127
  0
ARC
  5
565CF
330
1F
100
AcDbEntity
  8
1
100
AcDbCircle
 10
63.85488199999997
 20
-1.437378000000052
 30
0.0
 40
0.321227
100
AcDbArc
 50
223.6655969999997
 51
16.33438900000077
  0
ARC
  5
565D0
330
1F
100
AcDbEntity
  8
1
100
AcDbCircle
 10
64.95580299999994
 20
-1.114745999999996
 30
0.0
 40
0.8260009999999999
100
AcDbArc
 50
103.665171000002
 51
196.3348260000003
  0
ARC
  5
565D1
330
1F
100
AcDbEntity
  8
1
100
AcDbCircle
 10
64.95580299999994
 20
1.114776999999975
 30
0.0
 40
0.8260009999999999
100
AcDbArc
 50
163.6651769999996
 51
256.3348289999979
  0
ARC
  5
565D2
330
1F
100
AcDbEntity
  8
1
100
AcDbCircle
 10
62.19511499999999
 20
-1.437378000000052
 30
0.0
 40
0.321227
100
AcDbArc
 50
163.6656079999989
 51
316.3344010000032
  0
ARC
  5
565D3
330
1F
100
AcDbEntity
  8
1
100
AcDbCircle
 10
62.19511499999999
 20
1.437408999999973
 30
0.0
 40
0.321227
100
AcDbArc
 50
43.66559899999677
 51
196.3343850000001
  0
ARC
  5
565D4
330
1F
100
AcDbEntity
  8
1
100
AcDbCircle
 10
63.02499399999999
 20
-2.229492000000021
 30
0.0
 40
0.8260009999999999
100
AcDbArc
 50
43.66517600000025
 51
136.3348230000028
  0
ARC
  5
565D5
330
1F
100
AcDbEntity
  8
1
100
AcDbCircle
 10
61.09419299999991
 20
-1.114745999999996
 30
0.0
 40
0.8260009999999999
100
AcDbArc
 50
343.665170000001
 51
76.33484099999977
  0
ARC
  5
565D6
330
1F
100
AcDbEntity
  8
1
100
AcDbCircle
 10
63.02499399999999
 20
-0.0000000000000284
 30
0.0
 40
3.000001999999998
100
AcDbArc
 50
270.0000499999985
 51
89.99997300000119
  0
ARC
  5
565D7
330
1F
100
AcDbEntity
  8
1
100
AcDbCircle
 10
63.02500199999997
 20
-0.0000000000000284
 30
0.0
 40
3.000001999999998
100
AcDbArc
 50
90.000044999998
 51
269.9999619999988
  0
ARC
  5
565D8
330
1F
100
AcDbEntity
  8
1
100
AcDbCircle
 10
62.875
 20
-0.0000000000000284
 30
0.0
 40
4.300003
100
AcDbArc
 50
89.99992200000127
 51
179.9999470000005
  0
ARC
  5
565D9
330
1F
100
AcDbEntity
  8
1
100
AcDbCircle
 10
62.875
 20
-0.0000000000000284
 30
0.0
 40
4.300003
100
AcDbArc
 50
0.0000500000001468
 51
89.99993600000136
  0
ARC
  5
565DA
330
1F
100
AcDbEntity
  8
1
100
AcDbCircle
 10
62.875
 20
0.000031000000007
 30
0.0
 40
4.300003
100
AcDbArc
 50
269.9999960000009
 51
359.9999499999999
  0
ARC
  5
565DB
330
1F
100
AcDbEntity
  8
1
100
AcDbCircle
 10
62.875
 20
0.000031000000007
 30
0.0
 40
4.300003
100
AcDbArc
 50
180.0000529999995
 51
270.0000089999996
  0
ARC
  5
565DC
330
1F
100
AcDbEntity
  8
1
100
AcDbCircle
 10
63.02499399999999
 20
-0.0000000000000284
 30
0.0
 40
4.500003999999997
100
AcDbArc
 50
270.0000430000017
 51
90.00000100000141
  0
LINE
  5
565DD
330
1F
100
AcDbEntity
  8
1
100
AcDbLine
 10
49.02500000000009
 20
9.300015499999972
 30
0.0
 11
3.395285999999941
 21
10.46984400000002
 31
0.0
  0
LINE
  5
565DE
330
1F
100
AcDbEntity
  8
1
100
AcDbLine
 10
-0.0000100000000884
 20
12.70000199999998
 30
0.0
 11
1.352495999999973
 21
11.34749600000001
 31
0.0
  0
LINE
  5
565DF
330
1F
100
AcDbEntity
  8
1
100
AcDbLine
 10
49.02499399999999
 20
-9.29998450000005
 30
0.0
 11
3.395285999999941
 21
-10.46984300000002
 31
0.0
  0
LINE
  5
565E0
330
1F
100
AcDbEntity
  8
1
100
AcDbLine
 10
58.02499399999999
 20
8.841735999999997
 30
0.0
 11
58.02499399999999
 21
8.268645999999961
 31
0.0
  0
LINE
  5
565E1
330
1F
100
AcDbEntity
  8
1
100
AcDbLine
 10
58.02499399999999
 20
8.15075699999997
 30
0.0
 11
58.02499399999999
 21
8.268645999999961
 31
0.0
  0
LINE
  5
565E2
330
1F
100
AcDbEntity
  8
1
100
AcDbLine
 10
63.02499399999999
 20
4.040039000000007
 30
0.0
 11
63.02499399999999
 21
4.050018999999991
 31
0.0
  0
LINE
  5
565E3
330
1F
100
AcDbEntity
  8
1
100
AcDbLine
 10
58.02499399999999
 20
9.074737999999996
 30
0.0
 11
58.02499699999998
 21
8.841737999999992
 31
0.0
  0
LINE
  5
565E4
330
1F
100
AcDbEntity
  8
1
100
AcDbLine
 10
55.334023
 20
8.764123999999952
 30
0.0
 11
54.79944399999999
 21
8.977516000000008
 31
0.0
  0
LINE
  5
565E5
330
1F
100
AcDbEntity
  8
1
100
AcDbLine
 10
58.02499399999999
 20
-8.734192000000092
 30
0.0
 11
58.02499399999999
 21
-8.977478000000047
 31
0.0
  0
LINE
  5
565E6
330
1F
100
AcDbEntity
  8
1
100
AcDbLine
 10
58.02499399999999
 20
-8.734161
 30
0.0
 11
63.02499399999999
 21
-8.734161
 31
0.0
  0
LINE
  5
565E7
330
1F
100
AcDbEntity
  8
1
100
AcDbLine
 10
54.13084499999991
 20
9.074737999999996
 30
0.0
 11
58.02499399999999
 21
9.074737999999996
 31
0.0
  0
LINE
  5
565E8
330
1F
100
AcDbEntity
  8
1
100
AcDbLine
 10
58.02499399999999
 20
9.084960999999992
 30
0.0
 11
58.02499399999999
 21
9.074737999999996
 31
0.0
  0
LINE
  5
565E9
330
1F
100
AcDbEntity
  8
1
100
AcDbLine
 10
53.02499399999999
 20
9.084960999999992
 30
0.0
 11
58.02499399999999
 21
9.084960999999992
 31
0.0
  0
LINE
  5
565EA
330
1F
100
AcDbEntity
  8
1
100
AcDbLine
 10
53.02499399999999
 20
-9.084930000000014
 30
0.0
 11
58.02499399999999
 21
-9.084930000000014
 31
0.0
  0
LINE
  5
565EB
330
1F
100
AcDbEntity
  8
1
100
AcDbLine
 10
58.02499399999999
 20
-8.977478000000047
 30
0.0
 11
58.02499399999999
 21
-9.084930000000014
 31
0.0
  0
LINE
  5
565EC
330
1F
100
AcDbEntity
  8
1
100
AcDbLine
 10
54.52499399999999
 20
-8.977478000000047
 30
0.0
 11
58.02499399999999
 21
-8.977478000000047
 31
0.0
  0
LINE
  5
565ED
330
1F
100
AcDbEntity
  8
1
100
AcDbLine
 10
54.52499399999999
 20
-8.764099000000015
 30
0.0
 11
54.52499399999999
 21
-8.977478000000047
 31
0.0
  0
LINE
  5
565EE
330
1F
100
AcDbEntity
  8
1
100
AcDbLine
 10
54.52499399999999
 20
-8.764099000000015
 30
0.0
 11
58.02499399999999
 21
-8.764099000000015
 31
0.0
  0
LINE
  5
565EF
330
1F
100
AcDbEntity
  8
1
100
AcDbLine
 10
62.875
 20
-4.500000000000028
 30
0.0
 11
63.02499399999999
 21
-4.500000000000028
 31
0.0
  0
LINE
  5
565F0
330
1F
100
AcDbEntity
  8
1
100
AcDbLine
 10
62.875
 20
4.499999999999971
 30
0.0
 11
63.02499399999999
 21
4.499999999999971
 31
0.0
  0
LINE
  5
565F1
330
1F
100
AcDbEntity
  8
1
100
AcDbLine
 10
54.52499399999999
 20
8.764129999999994
 30
0.0
 11
55.775757
 21
8.764129999999994
 31
0.0
  0
LINE
  5
565F2
330
1F
100
AcDbEntity
  8
1
100
AcDbLine
 10
54.52499399999999
 20
8.977508999999969
 30
0.0
 11
54.52499399999999
 21
8.764129999999994
 31
0.0
  0
LINE
  5
565F3
330
1F
100
AcDbEntity
  8
1
100
AcDbLine
 10
54.52499399999999
 20
8.977508999999969
 30
0.0
 11
54.79943900000001
 21
8.977508999999969
 31
0.0
  0
LINE
  5
565F4
330
1F
100
AcDbEntity
  8
1
100
AcDbLine
 10
65.78417999999999
 20
-8.294691000000028
 30
0.0
 11
65.79622999999992
 21
-8.290743000000048
 31
0.0
  0
LINE
  5
565F5
330
1F
100
AcDbEntity
  8
1
100
AcDbLine
 10
49.02499399999999
 20
-9.29998450000005
 30
0.0
 11
53.02500199999997
 21
-9.084913999999969
 31
0.0
  0
LINE
  5
565F6
330
1F
100
AcDbEntity
  8
1
100
AcDbLine
 10
53.02497899999991
 20
-9.084930000000014
 30
0.0
 11
53.02497899999991
 21
9.084960999999992
 31
0.0
  0
LINE
  5
565F7
330
1F
100
AcDbEntity
  8
1
100
AcDbLine
 10
49.02500000000009
 20
9.300015499999972
 30
0.0
 11
53.02499799999998
 21
9.084939999999988
 31
0.0
  0
LINE
  5
565F8
330
1F
100
AcDbEntity
  8
1
100
AcDbLine
 10
49.02499399999999
 20
-9.29998450000005
 30
0.0
 11
49.02499399999999
 21
0.000031000000007
 31
0.0
  0
LINE
  5
565F9
330
1F
100
AcDbEntity
  8
1
100
AcDbLine
 10
49.02497899999992
 20
0.000031000000007
 30
0.0
 11
49.02500000000009
 21
9.300015499999972
 31
0.0
  0
LINE
  5
565FA
330
1F
100
AcDbEntity
  8
sk1
100
AcDbLine
 10
-78.17501100000004
 20
12.700017
 30
0.0
 11
-79.37500799999998
 21
11.50001900000001
 31
0.0
  0
LINE
  5
565FB
330
1F
100
AcDbEntity
  8
sk1
100
AcDbLine
 10
-79.375
 20
11.50003100000003
 30
0.0
 11
-79.375
 21
0.0
 31
0.0
  0
LINE
  5
565FC
330
1F
100
AcDbEntity
  8
sk1
100
AcDbLine
 10
-79.375
 20
0.0
 30
0.0
 11
-79.375
 21
-11.5
 31
0.0
  0
LINE
  5
565FD
330
1F
100
AcDbEntity
  8
1
100
AcDbLine
 10
0.0
 20
0.0
 30
0.0
 11
0.0
 21
-12.69998099999998
 31
0.0
  0
LINE
  5
565FE
330
1F
100
AcDbEntity
  8
sk1
100
AcDbLine
 10
-78.17500800000004
 20
-12.69998999999996
 30
0.0
 11
-79.37500700000009
 21
-11.49998999999997
 31
0.0
  0
LINE
  5
565FF
330
1F
100
AcDbEntity
  8
sk1
100
AcDbLine
 10
-78.1749870000001
 20
0.0
 30
0.0
 11
-78.1749870000001
 21
12.70001200000001
 31
0.0
  0
LINE
  5
56600
330
1F
100
AcDbEntity
  8
sk1
100
AcDbLine
 10
-78.1749870000001
 20
0.0
 30
0.0
 11
-78.1749870000001
 21
-12.69998099999998
 31
0.0
  0
LINE
  5
56601
330
1F
100
AcDbEntity
  8
sk1
100
AcDbLine
 10
-78.17501800000002
 20
-12.69998099999998
 30
0.0
 11
0.0
 21
-12.69998099999998
 31
0.0
  0
LINE
  5
56602
330
1F
100
AcDbEntity
  8
sk1
100
AcDbLine
 10
-78.17501800000002
 20
12.70001200000001
 30
0.0
 11
0.0
 21
12.70001200000001
 31
0.0
  0
LINE
  5
56603
330
1F
100
AcDbEntity
  8
1
100
AcDbLine
 10
0.0
 20
12.70001200000001
 30
0.0
 11
0.0
 21
0.0
 31
0.0
  0
LINE
  5
56604
330
1F
100
AcDbEntity
  8
1
100
AcDbLine
 10
-0.0000100000000884
 20
-12.70000199999998
 30
0.0
 11
1.352495999999973
 21
-11.34749499999998
 31
0.0
  0
LINE
  5
56605
330
1F
100
AcDbEntity
  8
sk4
100
AcDbLine
 10
-86.04135100000002
 20
0.0
 30
0.0
 11
0.0
 21
0.0
 31
0.0
  0
LINE
  5
56606
330
1F
100
AcDbEntity
  8
1
100
AcDbLine
 10
3.42900000000003
 20
10.46897965975782
 30
0.0
 11
3.42900000000003
 21
-10.46897863747838
 31
0.0
  0
DIMENSION
  5
56607
330
1F
100
AcDbEntity
  8
sk2
100
AcDbDimension
  2
*D38
 10
-100.5902099999999
 20
12.69999999999999
 30
0.0
 11
-100.5902099999999
 21
-38.62500000000006
 31
0.0
 70
   160
  1
%%C<>
 71
     5
 41
0.892857
 42
25.39999999999998
  3
\M+18352\M+18373\M+1815B - ISO-25
100
AcDbAlignedDimension
 13
-78.17498799999999
 23
-12.69999999999999
 33
0.0
 14
-78.17498799999999
 24
12.69999999999999
 34
0.0
 50
270.0
100
AcDbRotatedDimension
1001
ACAD
1000
DSTYLE
1002
{
1070
     4
1000
%%C[]"
1070
    40
1040
1.0
1070
   143
1040
0.03937
1070
   170
1070
     1
1070
   171
1070
     3
1070
   271
1070
     8
1070
   285
1070
     4
1002
}
  0
LINE
  5
56608
330
1F
100
AcDbEntity
  8
4
100
AcDbLine
 10
0.0
 20
0.0
 30
0.0
 11
79.52487465528657
 21
0.0
 31
0.0
  0
SPLINE
  5
56609
330
1F
100
AcDbEntity
  8
1
100
AcDbSpline
210
0.0
220
0.0
230
1.0
 70
     8
 71
     3
 72
    22
 73
    18
 74
    16
 42
0.0000000001
 43
0.0000000001
 44
0.000001
 12
0.9501051262673982
 22
0.3119298784028415
 32
0.0
 13
0.066472848683105
 23
0.9977882342400882
 33
0.0
 40
0.0
 40
0.0
 40
0.0
 40
0.0
 40
0.1773883036972392
 40
0.9247315811401886
 40
1.674737135758165
 40
2.424753210038116
 40
3.172089162723473
 40
3.919102669920998
 40
4.668823485007931
 40
5.418529775974285
 40
6.165540522230616
 40
6.911025661569658
 40
7.659262747671419
 40
8.407422573521772
 40
9.152829466008007
 40
9.788506281139195
 40
10.42416385496055
 40
10.42416385496055
 40
10.42416385496055
 40
10.42416385496055
 10
65.79622989233399
 20
-8.290771464843743
 30
0.0
 10
65.85240907122818
 20
-8.27232722750962
 30
0.0
 10
66.14429612222835
 20
-8.173218984038797
 30
0.0
 10
66.66333917971304
 20
-7.965645628282402
 30
0.0
 10
67.33385060951883
 20
-7.629711217909957
 30
0.0
 10
67.97415076470048
 20
-7.239193808018477
 30
0.0
 10
68.57867921921831
 20
-6.796932283846004
 30
0.0
 10
69.14269411922873
 20
-6.304189391726197
 30
0.0
 10
69.66385574527055
 20
-5.765290649598014
 30
0.0
 10
70.13835944992684
 20
-5.184886849631205
 30
0.0
 10
70.56159415474713
 20
-4.56775426872786
 30
0.0
 10
70.92960726720969
 20
-3.916745105374019
 30
0.0
 10
71.24152119815647
 20
-3.236692248409411
 30
0.0
 10
71.49519631317701
 20
-2.532857213650295
 30
0.0
 10
71.67799199094225
 20
-1.846092447351296
 30
0.0
 10
71.79761864808631
 20
-1.183980495206398
 30
0.0
 10
71.84157440446222
 20
-0.762015341054898
 30
0.0
 10
71.85565906103517
 20
-0.5505981250000503
 30
0.0
 11
65.79622989233399
 21
-8.290771464843743
 31
0.0
 11
65.964198642334
 21
-8.233734111328118
 31
0.0
 11
66.65819888647456
 21
-7.956451396484482
 31
0.0
 11
67.32880740698238
 21
-7.6206054492188
 31
0.0
 11
67.9690700107422
 21
-7.2299804492188
 31
0.0
 11
68.57203250463874
 21
-6.7884521289063
 31
0.0
 11
69.13480334814448
 21
-6.297210673828118
 31
0.0
 11
69.65607410009761
 21
-5.75836179687505
 31
0.0
 11
70.13049274023439
 21
-5.1778564257813
 31
0.0
 11
70.5527148776855
 21
-4.561614970703175
 31
0.0
 11
70.91981463964839
 21
-3.91278074218755
 31
0.0
 11
71.2318149143066
 21
-3.232696513671925
 31
0.0
 11
71.48527484472658
 21
-2.528778056640675
 31
0.0
 11
71.6767383151855
 21
-1.808380107421925
 31
0.0
 11
71.78975635107417
 21
-1.182830791015618
 31
0.0
 11
71.85565906103517
 21
-0.5505981250000503
 31
0.0
  0
SPLINE
  5
5660A
330
1F
100
AcDbEntity
  8
1
100
AcDbSpline
210
0.0
220
0.0
230
1.0
 70
     8
 71
     3
 72
    11
 73
     7
 74
     5
 42
0.0000000001
 43
0.0000000001
 44
0.000001
 12
0.9999996031474408
 22
0.0008909012070156
 32
0.0
 13
0.9508619751644026
 23
0.3096150903726288
 33
0.0
 40
0.0
 40
0.0
 40
0.0
 40
0.0
 40
0.7473258919349645
 40
1.497316848433575
 40
2.24730794268267
 40
2.804694205442631
 40
2.804694205442631
 40
2.804694205442631
 40
2.804694205442631
 10
63.02500873144527
 20
-8.73419187500005
 30
0.0
 10
63.27411726323089
 20
-8.733969943820333
 30
0.0
 10
63.77347089673401
 20
-8.712701491145033
 30
0.0
 10
64.51733727316781
 20
-8.617516324304801
 30
0.0
 10
65.18884989820844
 20
-8.47431971081388
 30
0.0
 10
65.60751727745662
 20
-8.352233298460888
 30
0.0
 10
65.78418307836909
 20
-8.294708232421925
 30
0.0
 11
63.02500873144527
 21
-8.73419187500005
 31
0.0
 11
63.77165179785151
 21
-8.702239970703175
 31
0.0
 11
64.51560931738277
 21
-8.6072997851563
 31
0.0
 11
65.24906497534181
 21
-8.4506835742188
 31
0.0
 11
65.78418307836909
 21
-8.294708232421925
 31
0.0
  0
LINE
  5
5660B
330
1F
100
AcDbEntity
  8
1
100
AcDbLine
 10
58.02500900000001
 20
-8.734192000000092
 30
0.0
 11
63.02500900000001
 21
-8.734192000000092
 31
0.0
  0
DIMENSION
  5
5660C
330
1F
100
AcDbEntity
  8
2
100
AcDbDimension
  2
*D39
 10
49.02500000000009
 20
29.12762372841077
 30
0.0
 11
29.2250000000001
 21
33.17762372841077
 31
0.0
 70
    32
 71
     5
 42
23.99999999999995
  3
\M+18352\M+18373\M+1815B - ISO-25
100
AcDbAlignedDimension
 13
73.02500000000003
 23
7.992124326932753
 33
0.0
 14
49.02500000000009
 24
9.300015499999972
 34
0.0
 50
180.0
100
AcDbRotatedDimension
1001
ACAD
1000
DSTYLE
1002
{
1070
     4
1000
"
1070
    40
1040
1.0
1070
   143
1040
0.03937
1070
   170
1070
     1
1070
   171
1070
     3
1070
   271
1070
     8
1070
   285
1070
     4
1002
}
  0
DIMENSION
  5
5660D
330
1F
100
AcDbEntity
  8
2
100
AcDbDimension
  2
*D40
 10
31.74269468978617
 20
9.300015499999977
 30
0.0
 11
31.74269468978617
 21
-34.34998450000005
 31
0.0
 70
   160
  1
%%c<>
 71
     5
 42
18.60000000000002
  3
\M+18352\M+18373\M+1815B - ISO-25
100
AcDbAlignedDimension
 13
49.02499399999999
 23
-9.29998450000005
 33
0.0
 14
49.02500000000009
 24
9.300015499999972
 34
0.0
 50
270.0
100
AcDbRotatedDimension
1001
ACAD
1000
DSTYLE
1002
{
1070
     4
1000
%%C[]"
1070
    40
1040
1.0
1070
   143
1040
0.03937
1070
   170
1070
     1
1070
   171
1070
     3
1070
   271
1070
     8
1070
   285
1070
     4
1002
}
  0
ARC
  5
5660E
330
1F
100
AcDbEntity
  8
nocut
100
AcDbCircle
 10
3.473816999999939
 20
13.468816
 30
0.0
 40
3.0
100
AcDbArc
 50
224.9999899999976
 51
268.4999999999973
  0
LINE
  5
5660F
330
1F
100
AcDbEntity
  8
nocut
100
AcDbLine
 10
49.02500000000009
 20
9.300015499999972
 30
0.0
 11
3.395285999999941
 21
10.46984400000002
 31
0.0
  0
LINE
  5
56610
330
1F
100
AcDbEntity
  8
nocut
100
AcDbLine
 10
-0.0000100000000884
 20
12.70000199999998
 30
0.0
 11
1.352495999999973
 21
11.34749599999998
 31
0.0
  0
LINE
  5
56611
330
1F
100
AcDbEntity
  8
nocut
100
AcDbLine
 10
49.02500000000009
 20
9.300015499999972
 30
0.0
 11
53.02499799999998
 21
9.08493999999996
 31
0.0
  0
LINE
  5
56612
330
1F
100
AcDbEntity
  8
nocut
100
AcDbLine
 10
0.0
 20
12.70001200000001
 30
0.0
 11
0.0
 21
0.0
 31
0.0
  0
LINE
  5
56613
330
1F
100
AcDbEntity
  8
nocut
100
AcDbLine
 10
0.0
 20
0.0
 30
0.0
 11
72.11195500000053
 21
0.0000000000000568
 31
0.0
  0
LINE
  5
56614
330
1F
100
AcDbEntity
  8
nocut
100
AcDbLine
 10
53.02499399999994
 20
9.084961000000021
 30
0.0
 11
63.026994
 21
9.084961000000021
 31
0.0
1001
ACAD
1000
RTMaterial
1005
0
  0
ARC
  5
56615
330
1F
100
AcDbEntity
  8
nocut
100
AcDbCircle
 10
63.026994
 20
-0.0000000000005116
 30
0.0
 40
9.084961000000561
100
AcDbArc
 50
0.0000000000032569
 51
90.0
  0
LINE
  5
56616
330
1F
100
AcDbEntity
  8
cut
100
AcDbLine
 10
58.02497899997695
 20
-9.214999998900026
 30
0.0
 11
58.02497899997695
 21
9.214999998900026
 31
0.0
1001
ACAD
1000
RTMaterial
1005
0
  0
VIEWPORT
  5
6B
102
{ACAD_XDICTIONARY
360
57021
102
}
330
50
100
AcDbEntity
 67
     1
  8
0
100
AcDbViewport
 10
150.1652135264906
 20
160.4455827878762
 30
0.0
 40
339.1973820494346
 41
282.2272140146125
 68
     1
 69
     1
 12
150.1652135264906
 22
160.4455827878762
 13
0.0
 23
0.0
 14
10.0
 24
10.0
 15
10.0
 25
10.0
 16
0.0
 26
0.0
 36
1.0
 17
0.0
 27
0.0
 37
0.0
 42
50.0
 43
0.0
 44
0.0
 45
282.2272140146125
 50
0.0
 51
0.0
 72
  1000
 90
    32864
  1

281
     0
 71
     1
 74
     0
110
0.0
120
0.0
130
0.0
111
1.0
121
0.0
131
0.0
112
0.0
122
1.0
132
0.0
 79
     0
146
0.0
  0
VIEWPORT
  5
6D
102
{ACAD_XDICTIONARY
360
57023
102
}
330
50
100
AcDbEntity
 67
     1
  8
0
100
AcDbViewport
 10
133.3499939441681
 20
101.5999939441681
 30
0.0
 40
213.3599903106689
 41
162.5599903106689
 68
     2
 69
     2
 12
210.0
 22
148.5
 13
0.0
 23
0.0
 14
10.0
 24
10.0
 15
10.0
 25
10.0
 16
0.0
 26
0.0
 36
1.0
 17
0.0
 27
0.0
 37
0.0
 42
50.0
 43
0.0
 44
0.0
 45
324.0677920111345
 50
0.0
 51
0.0
 72
   100
 90
    32864
  1

281
     0
 71
     1
 74
     0
110
0.0
120
0.0
130
0.0
111
1.0
121
0.0
131
0.0
112
0.0
122
1.0
132
0.0
 79
     0
146
0.0
  0
ENDSEC
  0
SECTION
  2
OBJECTS
  0
DICTIONARY
  5
C
330
0
100
AcDbDictionary
281
     1
  3
ACAD_COLOR
350
85
  3
ACAD_GROUP
350
D
  3
ACAD_LAYOUT
350
1A
  3
ACAD_MATERIAL
350
84
  3
ACAD_MLINESTYLE
350
17
  3
ACAD_PLOTSETTINGS
350
19
  3
ACAD_PLOTSTYLENAME
350
E
  3
ACAD_TABLESTYLE
350
A1
  3
ACDBHEADERROUNDTRIPXREC
350
5701C
  3
AcDbVariableDictionary
350
5E
  3
ASE_INDEX_DICTIONARY
350
349E9
  3
DWGPROPS
350
5701B
  0
DICTIONARY
  5
E2
330
2
100
AcDbDictionary
280
     1
281
     1
  3
ACAD_LAYERFILTERS
360
564C3
  3
ACAD_LAYERSTATES
360
3759A
  3
ACLYDICTIONARY
360
564C2
  0
DICTIONARY
  5
31EE
330
1F
100
AcDbDictionary
280
     1
281
     1
  3
ACAD_SORTENTS
360
31EF
  0
DICTIONARY
  5
3BEB2
330
680
100
AcDbDictionary
280
     1
281
     1
  3
ACAD_SORTENTS
360
55EE8
  0
DICTIONARY
  5
57025
330
71
100
AcDbDictionary
280
     1
281
     1
  3
ACAD_XREC_ROUNDTRIP
360
57026
  0
DICTIONARY
  5
57027
330
73
100
AcDbDictionary
280
     1
281
     1
  3
ACAD_XREC_ROUNDTRIP
360
57028
  0
DICTIONARY
  5
5630E
330
5630D
100
AcDbDictionary
280
     1
281
     1
  3
ACAD_DIMASSOC
360
5630F
  0
DICTIONARY
  5
57021
330
6B
100
AcDbDictionary
280
     1
281
     1
  3
ACAD_XREC_ROUNDTRIP
360
57022
  0
DICTIONARY
  5
57023
330
6D
100
AcDbDictionary
280
     1
281
     1
  3
ACAD_XREC_ROUNDTRIP
360
57024
  0
DICTIONARY
  5
85
102
{ACAD_REACTORS
330
C
102
}
330
C
100
AcDbDictionary
281
     1
  0
DICTIONARY
  5
D
102
{ACAD_REACTORS
330
C
102
}
330
C
100
AcDbDictionary
281
     1
  0
DICTIONARY
  5
1A
102
{ACAD_REACTORS
330
C
102
}
330
C
100
AcDbDictionary
281
     1
  3
\M+1838C\M+18343\M+18341\M+18345\M+183671
350
51
  3
\M+1838C\M+18343\M+18341\M+18345\M+183672
350
56
  3
Model
350
22
  0
DICTIONARY
  5
84
102
{ACAD_REACTORS
330
C
102
}
330
C
100
AcDbDictionary
281
     1
  0
DICTIONARY
  5
17
102
{ACAD_REACTORS
330
C
102
}
330
C
100
AcDbDictionary
281
     1
  3
Standard
350
18
  0
DICTIONARY
  5
19
102
{ACAD_REACTORS
330
C
102
}
330
C
100
AcDbDictionary
281
     1
  0
ACDBDICTIONARYWDFLT
  5
E
102
{ACAD_REACTORS
330
C
102
}
330
C
100
AcDbDictionary
281
     1
  3
Normal
350
F
100
AcDbDictionaryWithDefault
340
F
  0
DICTIONARY
  5
A1
102
{ACAD_REACTORS
330
C
102
}
330
C
100
AcDbDictionary
281
     1
  3
Standard
350
A2
  0
DICTIONARY
  5
5701C
102
{ACAD_REACTORS
330
C
102
}
330
C
100
AcDbDictionary
281
     1
  0
DICTIONARY
  5
5E
102
{ACAD_REACTORS
330
C
102
}
330
C
100
AcDbDictionary
281
     1
  3
CTABLESTYLE
350
B8
  3
DIMASSOC
350
5F
  3
HIDETEXT
350
63
  3
PROJECTNAME
350
31CE
  0
DICTIONARY
  5
349E9
102
{ACAD_REACTORS
330
C
102
}
330
C
100
AcDbDictionary
281
     1
  3
ASEBlockHierarchyIndexRecord
350
349EA
1001
DCO15
1040
1842496176.844
  0
XRECORD
  5
5701B
102
{ACAD_REACTORS
330
C
102
}
330
C
100
AcDbXrecord
280
     1
  1
DWGPROPS COOKIE
  2

  3

  4

  6

  7

  8

  9

300
=
301
=
302
=
303
=
304
=
305
=
306
=
307
=
308
=
309
=
 40
2.832379826388888
 41
2455489.391063368
 42
2458572.958417454
  1

 90
        0
  0
DICTIONARY
  5
564C3
102
{ACAD_REACTORS
330
E2
102
}
330
E2
100
AcDbDictionary
281
     1
  0
DICTIONARY
  5
3759A
102
{ACAD_REACTORS
330
E2
102
}
330
E2
100
AcDbDictionary
281
     1
  0
DICTIONARY
  5
564C2
102
{ACAD_REACTORS
330
E2
102
}
330
E2
100
AcDbDictionary
281
     1
1001
ACAD
1000
<All
  0
SORTENTSTABLE
  5
31EF
102
{ACAD_REACTORS
330
31EE
102
}
330
31EE
100
AcDbSortentsTable
330
1F
331
55BF4
  5
55D48
331
68C
  5
3C6B0
  0
SORTENTSTABLE
  5
55EE8
102
{ACAD_REACTORS
330
3BEB2
102
}
330
3BEB2
100
AcDbSortentsTable
330
680
  0
XRECORD
  5
57026
102
{ACAD_REACTORS
330
57025
102
}
330
57025
100
AcDbXrecord
280
     1
102
SHADEPLOT
 70
     0
  0
XRECORD
  5
57028
102
{ACAD_REACTORS
330
57027
102
}
330
57027
100
AcDbXrecord
280
     1
102
SHADEPLOT
 70
     0
  0
DIMASSOC
  5
5630F
102
{ACAD_REACTORS
330
5630E
102
}
330
5630E
100
AcDbDimAssoc
330
5630D
 90
        2
 70
     0
 71
     0
  1
AcDbOsnapPointRef
 72
     3
331
5630C
 73
     2
 91
        0
 40
0.0
 10
0.0
 20
0.0
 30
0.0
 75
     0
  0
XRECORD
  5
57022
102
{ACAD_REACTORS
330
57021
102
}
330
57021
100
AcDbXrecord
280
     1
102
SHADEPLOT
 70
     0
  0
XRECORD
  5
57024
102
{ACAD_REACTORS
330
57023
102
}
330
57023
100
AcDbXrecord
280
     1
102
SHADEPLOT
 70
     0
  0
LAYOUT
  5
51
102
{ACAD_XDICTIONARY
360
B2
102
}
102
{ACAD_REACTORS
330
1A
102
}
330
1A
100
AcDbPlotSettings
  1

  2
none_device
  4
Letter_(8.50_x_11.00_Inches)
  6

 40
6.349999904632567
 41
6.349999904632567
 42
6.350006103515625
 43
6.350006103515625
 44
215.8999938964844
 45
279.3999938964844
 46
0.0
 47
0.0
 48
0.0
 49
0.0
140
0.0
141
0.0
142
1.0
143
1.0
 70
   688
 72
     1
 73
     1
 74
     5
  7

 75
    16
147
1.0
148
0.0
149
0.0
100
AcDbLayout
  1
\M+1838C\M+18343\M+18341\M+18345\M+183671
 70
     1
 71
     1
 10
-6.350006103515625
 20
-6.349999904632567
 11
273.0499877929688
 21
209.5499939918518
 12
0.0
 22
0.0
 32
0.0
 14
26.66999878883364
 24
20.31999878883365
 34
0.0
 15
240.0299890995025
 25
182.8799890995025
 35
0.0
146
0.0
 13
0.0
 23
0.0
 33
0.0
 16
1.0
 26
0.0
 36
0.0
 17
0.0
 27
1.0
 37
0.0
 76
     0
330
50
331
6B
  0
LAYOUT
  5
56
102
{ACAD_XDICTIONARY
360
B5
102
}
102
{ACAD_REACTORS
330
1A
102
}
330
1A
100
AcDbPlotSettings
  1

  2
none_device
  4
Letter_(8.50_x_11.00_Inches)
  6

 40
6.349999904632567
 41
6.349999904632567
 42
6.350006103515625
 43
6.350006103515625
 44
215.8999938964844
 45
279.3999938964844
 46
0.0
 47
0.0
 48
0.0
 49
0.0
140
0.0
141
0.0
142
1.0
143
1.0
 70
   688
 72
     1
 73
     1
 74
     5
  7

 75
    16
147
1.0
148
0.0
149
0.0
100
AcDbLayout
  1
\M+1838C\M+18343\M+18341\M+18345\M+183672
 70
     1
 71
     2
 10
-6.350006103515625
 20
-6.349999904632567
 11
273.0499877929688
 21
209.5499939918518
 12
0.0
 22
0.0
 32
0.0
 14
26.66999878883363
 24
20.31999878883363
 34
0.0
 15
240.0299890995026
 25
182.8799890995025
 35
0.0
146
0.0
 13
0.0
 23
0.0
 33
0.0
 16
1.0
 26
0.0
 36
0.0
 17
0.0
 27
1.0
 37
0.0
 76
     0
330
55
331
71
  0
LAYOUT
  5
22
102
{ACAD_XDICTIONARY
360
5701D
102
}
102
{ACAD_REACTORS
330
1A
102
}
330
1A
100
AcDbPlotSettings
  1

  2
none_device
  4
ANSI_A_(8.50_x_11.00_Inches)
  6

 40
6.349999904632567
 41
19.04999923706055
 42
6.350006103515625
 43
19.04998779296875
 44
215.8999938964844
 45
279.3999938964844
 46
0.0
 47
0.0
 48
0.0
 49
0.0
140
0.0
141
0.0
142
1.0
143
78.436453180766
 70
 11952
 72
     0
 73
     1
 74
     0
  7

 75
     0
147
0.0127491741332998
148
0.0
149
0.0
100
AcDbLayout
  1
Model
 70
     1
 71
     0
 10
0.0
 20
0.0
 11
12.0
 21
9.0
 12
0.0
 22
0.0
 32
0.0
 14
0.0
 24
0.0
 34
0.0
 15
0.0
 25
0.0
 35
0.0
146
0.0
 13
0.0
 23
0.0
 33
0.0
 16
1.0
 26
0.0
 36
0.0
 17
0.0
 27
1.0
 37
0.0
 76
     0
330
1F
  0
MLINESTYLE
  5
18
102
{ACAD_REACTORS
330
17
102
}
330
17
100
AcDbMlineStyle
  2
STANDARD
 70
     0
  3

 62
   256
 51
90.0
 52
90.0
 71
     2
 49
0.5
 62
   256
  6
BYLAYER
 49
-0.5
 62
   256
  6
BYLAYER
  0
ACDBPLACEHOLDER
  5
F
102
{ACAD_REACTORS
330
E
102
}
330
E
  0
TABLESTYLE
  5
A2
102
{ACAD_REACTORS
330
A1
102
}
330
A1
100
AcDbTableStyle
  3
Standard
 70
     0
 71
     0
 40
1.5
 41
1.5
280
     0
281
     0
  7
Standard
140
4.5
170
     2
 62
     0
 63
     7
283
     0
274
    -2
284
     1
 64
     0
275
    -2
285
     1
 65
     0
276
    -2
286
     1
 66
     0
277
    -2
287
     1
 67
     0
278
    -2
288
     1
 68
     0
279
    -2
289
     1
 69
     0
  7
Standard
140
6.0
170
     5
 62
     0
 63
     7
283
     0
274
    -2
284
     1
 64
     0
275
    -2
285
     1
 65
     0
276
    -2
286
     1
 66
     0
277
    -2
287
     1
 67
     0
278
    -2
288
     1
 68
     0
279
    -2
289
     1
 69
     0
  7
Standard
140
4.5
170
     5
 62
     0
 63
     7
283
     0
274
    -2
284
     1
 64
     0
275
    -2
285
     1
 65
     0
276
    -2
286
     1
 66
     0
277
    -2
287
     1
 67
     0
278
    -2
288
     1
 68
     0
279
    -2
289
     1
 69
     0
  0
DICTIONARYVAR
  5
B8
102
{ACAD_REACTORS
330
5E
102
}
330
5E
100
DictionaryVariables
280
     0
  1
STANDARD
  0
DICTIONARYVAR
  5
5F
102
{ACAD_REACTORS
330
5E
102
}
330
5E
100
DictionaryVariables
280
     0
  1
2
  0
DICTIONARYVAR
  5
63
102
{ACAD_REACTORS
330
5E
102
}
330
5E
100
DictionaryVariables
280
     0
  1
1
  0
DICTIONARYVAR
  5
31CE
102
{ACAD_REACTORS
330
5E
102
}
330
5E
100
DictionaryVariables
280
     0
  1

  0
XRECORD
  5
349EA
102
{ACAD_REACTORS
330
349E9
102
}
330
349E9
100
AcDbXrecord
280
     1
330
68C
330
0
330
0
330
0
330
0
330
0
330
0
330
0
330
0
330
0
330
0
330
0
330
0
330
0
330
0
330
0
330
0
330
0
330
0
330
0
330
0
330
0
330
0
330
0
330
0
330
0
330
0
330
0
330
0
330
0
330
0
330
0
330
0
330
0
330
0
330
0
330
0
330
0
330
0
330
0
330
0
330
0
330
0
330
0
330
0
330
0
330
0
330
0
330
0
330
0
330
0
330
0
330
0
330
0
330
0
330
0
330
0
330
0
330
0
330
0
330
0
330
0
330
0
330
0
330
0
330
0
330
0
330
0
330
0
330
0
330
0
330
0
330
0
330
0
330
0
330
0
330
0
330
0
330
0
330
0
330
0
330
0
330
0
330
0
330
0
330
0
330
0
330
0
330
0
330
0
330
0
330
0
330
0
330
0
330
0
330
0
330
0
330
0
330
0
330
0
330
0
330
0
330
0
330
0
330
0
330
0
330
0
330
0
330
0
330
0
  0
DICTIONARY
  5
B2
330
51
100
AcDbDictionary
280
     1
281
     1
  3
ACAD_XREC_ROUNDTRIP
360
5701F
  3
ADSK_XREC_LAYOUTTHUMBNAIL
360
B3
  0
DICTIONARY
  5
B5
330
56
100
AcDbDictionary
280
     1
281
     1
  3
ACAD_XREC_ROUNDTRIP
360
57020
  3
ADSK_XREC_LAYOUTTHUMBNAIL
360
B6
  0
DICTIONARY
  5
5701D
330
22
100
AcDbDictionary
280
     1
281
     1
  3
ACAD_XREC_ROUNDTRIP
360
5701E
  0
XRECORD
  5
5701F
102
{ACAD_REACTORS
330
B2
102
}
330
B2
100
AcDbXrecord
280
     1
102
SHADEPLOT
 70
     0
102
SHADEPLOTRESLEVEL
 70
     2
102
SHADEPLOTCUSTOMDPI
 70
   300
  0
XRECORD
  5
B3
102
{ACAD_REACTORS
330
B2
102
}
330
B2
100
AcDbXrecord
280
     1
310
28000000B40000008B0000000100080000000000BC61000000000000000000000001000000000000FFFFFF0000000000FFFFFF000000000000000000000000000000000000000000000000000000000000000000330000006600000099000000CC000000FF00000000330000333300006633000099330000CC330000FF3300
310
0000660000336600006666000099660000CC660000FF66000000990000339900006699000099990000CC990000FF99000000CC000033CC000066CC000099CC0000CCCC0000FFCC000000FF000033FF000066FF000099FF0000CCFF0000FFFF000000003300330033006600330099003300CC003300FF003300003333003333
310
33006633330099333300CC333300FF33330000663300336633006666330099663300CC663300FF66330000993300339933006699330099993300CC993300FF99330000CC330033CC330066CC330099CC3300CCCC3300FFCC330000FF330033FF330066FF330099FF3300CCFF3300FFFF330000006600330066006600660099
310
006600CC006600FF00660000336600333366006633660099336600CC336600FF33660000666600336666006666660099666600CC666600FF66660000996600339966006699660099996600CC996600FF99660000CC660033CC660066CC660099CC6600CCCC6600FFCC660000FF660033FF660066FF660099FF6600CCFF6600
310
FFFF660000009900330099006600990099009900CC009900FF00990000339900333399006633990099339900CC339900FF33990000669900336699006666990099669900CC669900FF66990000999900339999006699990099999900CC999900FF99990000CC990033CC990066CC990099CC9900CCCC9900FFCC990000FF99
310
0033FF990066FF990099FF9900CCFF9900FFFF99000000CC003300CC006600CC009900CC00CC00CC00FF00CC000033CC003333CC006633CC009933CC00CC33CC00FF33CC000066CC003366CC006666CC009966CC00CC66CC00FF66CC000099CC003399CC006699CC009999CC00CC99CC00FF99CC0000CCCC0033CCCC0066CC
310
CC0099CCCC00CCCCCC00FFCCCC0000FFCC0033FFCC0066FFCC0099FFCC00CCFFCC00FFFFCC000000FF003300FF006600FF009900FF00CC00FF00FF00FF000033FF003333FF006633FF009933FF00CC33FF00FF33FF000066FF003366FF006666FF009966FF00CC66FF00FF66FF000099FF003399FF006699FF009999FF00CC
310
99FF00FF99FF0000CCFF0033CCFF0066CCFF0099CCFF00CCCCFF00FFCCFF0000FFFF0033FFFF0066FFFF0099FFFF00CCFFFF00FFFFFF00000000000D0D0D001A1A1A00282828003535350043434300505050005D5D5D006B6B6B00787878008686860093939300A1A1A100AEAEAE00BBBBBB00C9C9C900D6D6D600E4E4E400
310
F1F1F100FFFFFF0000000000000000000000000000000000000000000000000000000000000000000000000000000000E2E2E2E2E2E2E2E2E2E2E2E2E2E2E2E2E2E2E2E2E2E2E2E2E2E2E2E2E2E2E2E2E2E2E2E2E2E2E2E2E2E2E2E2E2E2E2E2E2E2E2E2E2E2E2E2E2E2E2E2E2E2E2E2E2E2E2E2E2E2E2E2E2E2E2E2E2E2E2
310
E2E2E2E2E2E2E2E2E2E2E2E2E2E2E2E2E2E2E2E2E2E2E2E2E2E2E2E2E2E2E2E2E2E2E2E2E2E2E2E2E2E2E2E2E2E2E2E2E2E2E2E2E2E2E2E2E2E2E2E2E2E2E2E2E2E2E2E2E2E2E2E2E2E2E2E2E2E2E2E2E2E2E2E2E2E2E2E2E2E2E2E2E2E2E2E2E2E2E2E2E2E2F5F5F5F5F5F5F5F5F5F5F5F5F5F5F5F5F5F5F5F5F5F5F5F5F5
310
F5F5F5F5F5F5F5F5F5F5F5F5F5F5F5F5F5F5F5F5F5F5F5F5F5F5F5F5F5F5F5F5F5F5F5F5F5F5F5F5F5F5F5F5F5F5F5F5F5F5F5F5F5F5F5F5F5F5F5F5F5F5F5F5F5F5F5F5F5F5F5F5F5F5F5F5F5F5F5F5F5F5F5F5F5F5F5F5F5F5F5F5F5F5F5F5F5F5F5F5F5F5F5F5F5F5F5F5F5F5F5F5F5F5F5F5F5F5F5F5F5F5F5F5F5F5F5
310
F5F5F5F5F5F5F5F5F5F5F5F5F5F5F5F5F5F5F5F5F5F5F5F5F5F5E2E2F5F5F5F5F5F5F5F5F5F5F5F5F5F5F5F5F5F5F5F5F5F5F5F5F5F5F5F5F5F5F5F5F5F5F5F5F5F5F5F5F5F5F5F5F5F5F5F5F5F5F5F5F5F5F5F5F5F5F5F5F5F5F5F5F5F5F5F5F5F5F5F5F5F5F5F5F5F5F5F5F5F5F5F5F5F5F5F5F5F5F5F5F5F5F5F5F5F5F5
310
F5F5F5F5F5F5F5F5F5F5F5F5F5F5F5F5F5F5F5F5F5F5F5F5F5F5F5F5F5F5F5F5F5F5F5F5F5F5F5F5F5F5F5F5F5F5F5F5F5F5F5F5F5F5F5F5F5F5F5F5F5F5F5F5F5F5F5F5F5F5F5F5F5F5F5F5F5F5F5E2E2F5F5F5F5F5F5F5F5F5F5F5F5F5F5F5F5F5F5F5F5F5F5F5F5F5F5F5F5F5F5F5F5F5F5F5F5F5F5F5F5F5F5F5F5F5F5
310
F5F5F5F5F5F5F5F5F5F5F5F5F5F5F5F5F5F5F5F5F5F5F5F5F5F5F5F5F5F5F5F5F5F5F5F5F5F5F5F5F5F5F5F5F5F5F5F5F5F5F5F5F5F5F5F5F5F5F5F5F5F5F5F5F5F5F5F5F5F5F5F5F5F5F5F5F5F5F5F5F5F5F5F5F5F5F5F5F5F5F5F5F5F5F5F5F5F5F5F5F5F5F5F5F5F5F5F5F5F5F5F5F5F5F5F5F5F5F5F5F5F5F5F5F5F5F5
310
F5F5F5F5F5E2E2F5F5F5F5E2E2E2E2E2E2E2E2F5F5F5F5F5F5F5F5F5E2E2E2E2E2E2E2E2E2E2E2E2E2E2E2F5F5F5F5F5F5F5F5F5E2E2E2E2E2E2E2E2E2E2E2E2E2E2E2E2F5F5F5F5F5F5F5F5E2E2E2E2E2E2E2E2E2E2E2E2E2E2E2E2F5F5F5F5F5F5F5F5E2E2E2E2E2E2E2E2E2E2E2E2E2E2E2E2F5F5F5F5F5F5F5F5E2E2E2
310
E2E2E2E2E2E2E2E2E2E2E2E2E2F5F5F5F5F5F5F5F5F5E2E2E2E2E2E2E2E2E2E2E2E2E2E2E2F5F5F5F5F5F5F5F5F5E2E2E2E2E2E2E2E2F5F5F5F5E2E2F5F5F5F5E2F5F5F5F5F5F5F5F5F5F5F5F5F5F5F5F5F5F5F5F5F5F5F5F5F5F5F5F5F5F5F5F5F5F5F5F5F5F5F5F5F5F5F5F5F5F5F5F5F5F5F5F5F5F5F5F5F5F5F5F5F5F5
310
F5F5F5F5F5F5F5F5F5F5F5F5F5F5F5F5F5F5F5F5F5F5F5F5F5F5F5F5F5F5F5F5F5F5F5F5F5F5F5F5F5F5F5F5F5F5F5F5F5F5F5F5F5F5F5F5F5F5F5F5F5F5F5F5F5F5F5F5F5F5F5F5F5F5F5F5F5F5F5F5F5F5F5F5F5F5F5F5F5F5F5F5F5F5F5F5F5F5F5F5F5F5F5F5F5F5E2F5F5F5F5E2E2F5F5F5F5E2F5F5F5F5F5F5F5F5F5
310
F5F5F5F5F5F5F5F5F5F5F5F5F5F5F5F5F5F5F5F5F5F5F5F5F5F5F5F5F5F5F5F5F5F5F5F5F5F5F5F5F5F5F5F5F5F5F5F5F5F5F5F5F5F5F5F5F5F5F5F5F5F5F5F5F5F5F5F5F5F5F5F5F5F5F5F5F5F5F5F5F5F5F5F5F5F5F5F5F5F5F5F5F5F5F5F5F5F5F5F5F5F5F5F5F5F5F5F5F5F5F5F5F5F5F5F5F5F5F5F5F5F5F5F5F5F5F5
310
F5F5F5F5F5F5F5F5F5F5F5F5F5F5F5F5F5F5F5F5F5F5F5F5F5F5F5F5F5F5F5F5E2F5F5F5F5E2E2F5F5F5F5E2F5F5F5F5F5F5F5F5F5F5F5F5F5F5F5F5F5F5F5F5F5F5F5F5F5F5F5F5F5F5F5F5F5F5F5F5F5F5F5F5F5F5F5F5F5F5F5F5F5F5F5F5F5F5F5F5F5F5F5F5F5F5F5F5F5F5F5F5F5F5F5F5F5F5F5F5F5F5F5F5F5F5F5
310
F5F5F5F5F5F5F5F5F5F5F5F5F5F5F5F5F5F5F5F5F5F5F5F5F5F5F5F5F5F5F5F5F5F5F5F5F5F5F5F5F5F5F5F5F5F5F5F5F5F5F5F5F5F5F5F5F5F5F5F5F5F5F5F5F5F5F5F5F5F5F5F5F5F5F5F5F5F5F5F5F5F5F5F5F5E2F5F5F5F5E2E2F5F5F5F5E2F5F5F5F5F5F5F5F5F5F5F5F5F5F5F5F5F5F5F5F5F5F5F5F5F5F5F5F5F5F5
310
F5F5F5F5F5F5F5F5F5F5F5F5F5F5F5F5F5F5F5F5F5F5F5F5F5F5F5F5F5F5F5F5F5F5F5F5F5F5F5F5F5F5F5F5F5F5F5F5F5F5F5F5F5F5F5F5F5F5F5F5F5F5F5F5F5F5F5F5F5F5F5F5F5F5F5F5F5F5F5F5F5F5F5F5F5F5F5F5F5F5F5F5F5F5F5F5F5F5F5F5F5F5F5F5F5F5F5F5F5F5F5F5F5F5F5F5F5F5F5F5F5F5F5F5F5F5F5
310
F5F5F5F5F5F5F5F5F5F5F5E2F5F5F5F5E2E2F5F5F5F5E2F5F5F5F5F5F5F5F5F5F5F5F5F5F5F5F5F5F5F5F5F5F5F5F5F5F5F5F5F5F5F5F5F5F5F5F5F5F5F5F5F5F5F5F5F5F5F5F5F5F5F5F5F5F5F5F5F5F5F5F5F5F5F5F5F5F5F5F5F5F5F5F5F5F5F5F5F5F5F5F5F5F5F5F5F5F5F5F5F5F5F5F5F5F5F5F5F5F5F5F5F5F5F5F5
310
F5F5F5F5F5F5F5F5F5F5F5F5F5F5F5F5F5F5F5F5F5F5F5F5F5F5F5F5F5F5F5F5F5F5F5F5F5F5F5F5F5F5F5F5F5F5F5F5F5F5F5F5F5F5F5F5F5F5F5F5F5F5F5F5E2F5F5F5F5E2E2F5F5F5F5E2F5F5F5F5F5F5F5F5F5F5F5F5F5F5F5F5F5F5F5F5F5F5F5F5F5F5F5F5F5F5F5F5F5F5F5F5F5F5F5F5F5F5F5F5F5F5F5F5F5F5F5
310
F5F5F5F5F5F5F5F5F5F5F5F5F5F5F5F5F5F5F5F5F5F5F5F5F5F5F5F5F5F5F5F5F5F5F5F5F5F5F5F5F5F5F5F5F5F5F5F5F5F5F5F5F5F5F5F5F5F5F5F5F5F5F5F5F5F5F5F5F5F5F5F5F5F5F5F5F5F5F5F5F5F5F5F5F5F5F5F5F5F5F5F5F5F5F5F5F5F5F5F5F5F5F5F5F5F5F5F5F5F5F5F5F5F5F5F5F5E2F5F5F5F5E2E2F5F5F5
310
F5E2F5F5F5F5F5F5F5F5F5F5F5F5F5F5F5F5F5F5F5F5F5F5F5F5F5F5F5F5F5F5F5F5F5F5F5F5F5F5F5F5F5F5F5F5F5F5F5F5F5F5F5F5F5F5F5F5F5F5F5F5F5F5F5F5F5F5F5F5F5F5F5F5F5F5F5F5F5F5F5F5F5F5F5F5F5F5F5F5F5F5F5F5F5F5F5F5F5F5F5F5F5F5F5F5F5F5F5F5F5F5F5F5F5F5F5F5F5F5F5F5F5F5F5F5F5
310
F5F5F5F5F5F5F5F5F5F5F5F5F5F5F5F5F5F5F5F5F5F5F5F5F5F5F5F5F5F5F5F5F5F5F5F5F5F5F5F5F5F5F5E2F5F5F5F5E2E2F5F5F5F5E2F5F5F5F5F5F5F5F5F5F5F5F5F5F5F5F5F5F5F5F5F5F5F5F5F5F5F5F5F5F5F5F5F5F5F5F5F5F5F5F5F5F5F5F5F5F5F5F5F5F5F5F5F5F5F5F5F5F5F5F5F5F5F5F5F5F5F5F5F5F5F5F5
310
F5F5F5F5F5F5F5F5F5F5F5F5F5F5F5F5F5F5F5F5F5F5F5F5F5F5F5F5F5F5F5F5F5F5F5F5F5F5F5F5F5F5F5F5F5F5F5F5F5F5F5F5F5F5F5F5F5F5F5F5F5F5F5F5F5F5F5F5F5F5F5F5F5F5F5F5F5F5F5F5F5F5F5F5F5F5F5F5F5F5F5F5F5F5F5F5E2F5F5F5F5E2E2F5F5F5F5F5F5F5F5F5F5F5F5F5F5F5F5F5F5F5F5F5F5F5F5
310
F5F5F5F5F5F5F5F5F5F5F5F5F5F5F5F5F5F5F5F5F5F5F5F5F5F5F5F5F5F5F5F5F5F5F5F5F5F5F5F5F5F5F5F5F5F5F5F5F5F5F5F5F5F5F5F5F5F5F5F5F5F5F5F5F5F5F5F5F5F5F5F5F5F5F5F5F5F5F5F5F5F5F5F5F5F5F5F5F5F5F5F5F5F5F5F5F5F5F5F5F5F5F5F5F5F5F5F5F5F5F5F5F5F5F5F5F5F5F5F5F5F5F5F5F5F5F5
310
F5F5F5F5F5F5F5F5F5F5F5F5F5F5F5F5F5F5F5F5F5F5F5F5F5F5F5E2E2F5F5F5F5F5F5F5F5F5F5F5F5F5F5F5F5F5F5F5F5F5F5F5F5F5F5F5F5F5F5F5F5F5F5F5F5F5F5F5F5F5F5F5F5F5F5F5F5F5F5F5F5F5F5F5F5F5F5F5F5F5F5F5F5F5F5F5F5F5F5F5F5F5F5F5F5F5F5F5F5F5F5F5F5F5F5F5F5F5F5F5F5F5F5F5F5F5F5
310
F5F5F5F5F5F5F5F5F5F5F5F5F5F5F5F5F5F5F5F5F5F5F5F5F5F5F5F5F5F5F5F5F5F5F5F5F5F5F5F5F5F5F5F5F5F5F5F5F5F5F5F5F5F5F5F5F5F5F5F5F5F5F5F5F5F5F5F5F5F5F5F5F5F5F5F5F5F5F5F5E2E2F5F5F5F5F5F5F5F5F5F5F5F5F5F5F5F5F5F5F5F5F5F5F5F5F5F5F5F5F5F5F5F5F5F5F5F5F5F5F5F5F5F5F5F5F5
310
F5F5F5F5F5F5F5F5F5F5F5F5F5F5F5F5F5F5F5F5F5F5F5F5F5F5F5F5F5F5F5F5F5F5F5F5F5F5F5F5F5F5F5F5F5F5F5F5F5F5F5F5F5F5F5F5F5F5F5F5F5F5F5F5F5F5F5F5F5F5F5F5F5F5F5F5F5F5F5F5F5F5F5F5F5F5F5F5F5F5F5F5F5F5F5F5F5F5F5F5F5F5F5F5F5F5F5F5F5F5F5F5F5F5F5F5F5F5F5F5F5F5F5F5F5F5F5
310
F5F5F5F5F5F5E2E2F5F5F5F5F5F5F5F5F5F5F5F5F5F5F5F5F5F5F5F5F5F5F5F5F5F5F5F5F5F5F5F5F5F5F5F5F5F5F5F5F5F5F5F5F5F5F5F5F5F5F5F5F5F5F5F5F5F5F5F5F5F5F5F5F5F5F5F5F5F5F5F5F5F5F5F5F5F5F5F5F5F5F5F5F5F5F5F5F5F5F5F5F5F5F5F5F5F5F5F5F5F5F5F5F5F5F5F5F5F5F5F5F5F5F5F5F5F5F5
310
F5F5F5F5F5F5F5F5F5F5F5F5F5F5F5F5F5F5F5F5F5F5F5F5F5F5F5F5F5F5F5F5F5F5F5F5F5F5F5F5F5F5F5F5F5F5F5F5F5F5F5F5F5F5F5F5F5F5F5E2E2F5F5F5F5F5F5F5F5F5F5F5F5F5F5F5F5F5F5F5F5F5E2E2E2E2E2E2E2E2E2E2E2E2E2E2E2E2E2E2E2E2E2E2E2E2E2E2E2E2E2E2E2E2E2E2E2E2E2E2E2E2E2E2E2E2E2
310
E2E2E2E2E2E2E2E2E2E2E2E2E2E2E2E2E2E2E2E2E2E2E2E2E2E2E2E2E2E2E2E2E2E2E2E2E2E2E2E2E2E2E2E2E2E2E2E2E2E2E2E2E2E2E2E2E2E2E2E2E2E2E2E2E2E2E2E2E2E2E2E2E2E2E2E2E2E2E2E2E2E2E2E2E2E2E2E2E2E2E2F5F5F5F5F5F5F5F5F5F5F5F5F5F5F5F5F5F5F5F5F5E2E2F5F5F5F5F5F5F5F5F5F5F5F5F5
310
F5F5F5F5F5F5F5F5E22D2D2D2D2D2D2D2D2D2D2D2DF5F5F5F5F5F5F5F5F5F5F5F5F5F5F5E2F5F5F5F5F5F5F5F5F5F5F5F5F5F5F5F5F5F5F5F5F5F5F5F5F5F5F5F5F5F5F5F5F5F5F5F5F5F5F5F5F5F5F5F5F5F5F5F5F5F5F5F5F5F5F5F5F5F5F5F5F5F5F5F5F5F5F5F5F5F5F5F5F5F5F5F5F5F5F5F5F5F5F5F5F5F5F5F5F5F5
310
F5F5F5F5F5F5F5F5F5F5F5F5F5F5F5F5E2F5F5F5F5F5F5F5F5F5F5F5F5F5F5F5F5F5F5F5F5F5E2E2F5F5F5F5F5F5F5F5F5F5F5F5F5F5F5F5F5F5F5F5F5E22D2D2DF5F5E2F5F5F5F5F52DF5F5F5F5F5F5F5F5F5F5F5F5F5F5F5E2F5F5F5F5F5F5F5F5F5F5F5F5F5F5F5F5F5F5F5F5F5F5F5F5F5F5F5F5F5F5F5F5F5F5F5F5F5
310
F5F5F5F5F5F5F5F5F5F5F5F5F5F5F5F5F5F5F5F5F5F5F5F5F5F5F5F5F5F5F5F5F5F5F5F5F5F5F5F5F5F5F5F5F5F5F5F5F5F5F5F5F5F5F5F5F5F5F5F5F5F5F5F5F5F5F5F5F5E2F5F5F5F5F5F5F5F5F5F5F5F5F5F5F5F5F5F5F5F5F5E2E2F5F5F5F5F5F5F5F5F5F5F5F5F5F5F5F5F5F5F5F5F5E2DCF52DF5F5E2F5F5F5F5F52D
310
F5F5F5F5F5F5F5F5F5F5F5F5F5F5F5E2F5F5F5F5F5F5F5F5F5F5F5F5F5F5F5F5F5F5F5F5F5F5F5F5F5F5F5F5F5F5F5F5F5F5F5F5F5F5F5F5F5F5F5F5F5F5F5F5F5F5F5F5F5F5F5F5F5F5F5F5F5F5F5F5F5F5F5F5F5F5F5F5F5F5F5F5F5F5F5F5F5F5F5F5F5F5F5F5F5F5F5F5F5F5F5F5F5F5F5F5F5F5F5F5F5F5E2F5F5F5F5
310
F5F5F5F5F5F5F5F5F5F5F5F5F5F5F5F5F5E2E2F5F5F5F5F5F5F5F5F5F5F5F5F5F5F5F5F5F5F5F5F5E2BEF52D2D2D2D2D2D2D2DE2E2E2E2E2E2E2E2E2E2E2E2E2E2E2E2E2E2F5F5F5F5F5F5F5F5F5F5F5F5F5F5F5F5F5F5F5F5F5F5F5F5F5F5F5F5F5F5F5F5F5F5F5F5F5F5F5F5F5F5F5F5F5F5F5F5F5F5F5F5F5F5F5F5F5F5
310
F5F5F5F5F5F5F5F5F5F5F5F5F5F5F5F5F5F5F5F5F5F5F5F5F5F5F5F5F5F5F5F5F5F5F5F5F5F5F5F5F5F5F5F5F5F5F5F5E2F5F5F5F5F5F5F5F5F5F5F5F5F5F5F5F5F5F5F5F5F5E2E2F5F5F5F5E2F5F5F5F5F5F5F5F5F5F5F5F5F5F5F5F5E2DCF5F5F5F5E2F5F5F5F5F5E2F5F5F5F5F5F5F5F5F5F5F5F5F5F5F5F5F5F5F5F5F5
310
F5F5F5F5F5F5F5F5F5F5F5F5F5F5F5F5F5F5F5F5F5F5F5F5F5F5F5F5F5F5F5F5F5F5F5F5F5F5F5F5F5F5F5F5F5F5F5F5F5F5F5F5F5F5F5F5F5F5F5F5F5F5F5F5F5F5F5F5F5F5F5F5F5F5F5F5F5F5F5F5F5F5F5F5F5F5F5F5F5F5F5F5F5F5F5F5F5F5F5F5F5E2F5F5F5F5F5F5F5F5F5F5F5F5F5F5F5F5E2F5F5F5F5E2E2F5F5
310
F5F5E2F5F5F5F5F5F5F5F5F5F5F5F5F5F5F5F5E2F5F5F5F5F5E2F5F5F5F5F5E2F5F5F5F5F5F5F5F5F5F5F5F5F5F5F5F5F5F5F5F5F5F5F5F5F5F5F5F5F5F5F5F5F5F5F5F5F5F5F5F5F5F5F5F5F5F5F5F5F5F5F5F5F5F5F5F5F5F5F5F5F5F5F5F5F5F5F5F5F5F5F5F5F5F5F5F5F5F5F5F5F5F5F5F5F5F5F5F5F5F5F5F5F5F5F5
310
F5F5F5F5F5F5F5F5F5F5F5F5F5F5F5F5F5F5F5F5F5F5F5F5F5F5F5E2F5F5F5F5F5F5F5F5F5F5F5F5F5F5F5F5E2F5F5F5F5E2E2F5F5F5F5E2F5F5F5F5F5F5F5F5F5F5F5F5F5F5F5F5E2F5F5F5F5F5E2F5F5F5F5F5E2F5F5F5F5F5F5F5F5F5F5F5F5F5F5F5F5F5F5F5F5F5F5F5F5F5F5F5F5F5F5F5F5F5F5F5F5F5F5F5F5F5F5
310
F5F5F5F5F5F5F5F5F5F5F5F5F5F5F5F5F5F5F5F5F5F5F5F5F5F5F5F5F5F5F5F5F5F5F5F5F5F5F5F5F5F5F5F5F5F5F5F5F5F5F5F5F5F5F5F5F5F5F5F5F5F5F5F5F5F5F5F5F5F5F5F5F5F5F5F5F5F5F5F5E2F5F5F5F5F5F5F5F5F5F5F5F5F5F5F5F5E2F5F5F5F5E2E2F5F5F5F5E2F5F5F5F5F5F5F5F5F5F5F5F5F5F5F5F5E2F5
310
F5F5F5F5E2F5F5F5F5F5E2F5F5F5F5F5F5F5F5F5F5F5F5F5F5F5F5F5F5F5F5F5F5F5F5F5F5F5F5F5F5F5F5F5F5F5F5F5F5F5F5F5F5F5F5F5F5F5F5F5F5F5F5F5F5F5F5F5F5F5F5F5F5F5F5F5F5F5F5F5F5F5F5F5F5F5F5F5F5F5F5F5F5F5F5F5F5F5F5F5F5F5F5F5F5F5F5F5F5F5F5F5F5F5F5F5F5F5F5F5F5F5F5F5F5F5F5
310
F5F5F5F5F5F5E2F5F5F5F5F5F5F5F5F5F5F5F5F5F5F5F5E2F5F5F5F5E2E2F5F5F5F5E2F5F5F5F5F5F5F5F5F5F5F5F5F5F5F5F5E2E2E2E2E2E2E2F5F5F5F5F5E2F5F5F5F5F5F5F5F5F5F5F5F5F5F5F5F5F5F5F5F5F5F5F5F5F5F5F5F5F5F5F5F5F5F5F5F5F5F5F5F5F5F5F5F5F5F5F5F5F5F5F5F5F5F5F5F5F5F5F5F5F5F5F5
310
F5F5F5F5F5F5F5F5F5F5F5F5F5F5F5F5F5F5F5F5F5F5F5F5F5F5F5F5F5F5F5F5F5F5F5F5F5F5F5F5F5F5F5F5F5F5F5F5F5F5F5F5F5F5F5F5F5F5F5E2F5F5F5F5F5F5F5F5F5F5F5F5F5F5F5F5E2F5F5F5F5E2E2F5F5F5F5E2F5F5F5F5F5F5F5F5F5F5F5F5F5F5F5F5E2E2E2E2F5E2E2F5F5F5F5F5E2F5F5F5F5F5F5F5F5F5F5
310
F5F5F5F5F5F5F5F5F5F5F5F5F5F5F5F5F5F5F5F5F5F5F5F5F5F5F5F5F5F5F5F5F5F5F5F5F5F5F5F5F5F5F5F5F5F5F5F5F5F5F5F5F5F5F5F5F5F5F5F5F5F5F5F5F5F5F5F5F5F5F5F5F5F5F5F5F5F5F5F5F5F5F5F5F5F5F5F5F5F5F5F5F5F5F5F5F5F5F5F5F5F5F5F5F5F5F5F5F5F5F5F5E2F5F5F5F5F5F5F5F5F5F5F5F5F5F5
310
F5F5E2F5F5F5F5E2E2F5F5F5F5E2F5F5F5F5F5F5F5F5F5F5F5F5F5F5F5F5E2E2E2E2F5F5F5F5F5F5F5F5E2F5F5F5F5F5F5F5F5F5F5F5F5F5F5F5F5F5F5F5F5F5F5F5F5F5F5F5F5F5F5F5F5F5F5F5F5F5F5F5F5F5F5F5F5F5F5F5F5F5F5F5F5F5F5F5F5F5F5F5F5F5F5F5F5F5F5F5F5F5F5F5F5F5F5F5F5F5F5F5F5F5F5F5F5
310
F5F5F5F5F5F5F5F5F5F5F5F5F5F5F5F5F5F5F5F5F5F5F5F5F5F5F5F5F5F5F5F5F5F5F5F5F5F5E2F5F5F5F5F5F5F5F5F5F5F5F5F5F5F5F5E2F5F5F5F5E2E2F5F5F5F5E2F5F5F5F5F5F5F5F5F5F5F5F5F5F5F5F5E2F5F5F5F5F5F5F5F5F5F5F5E2F5F5F5F5F5F5F5F5F5F5F5F5F5F5F5F5F5F5F5F5F5F5F5F5F5F5F5F5F5F5F5
310
F5F5F5F5F5F5F5F5F5F5F5F5F5F5F5F5F5F5F5F5F5F5F5F5F5F5F5F5F5F5F5F5F5F5F5F5F5F5F5F5F5F5F5F5F5F5F5F5F5F5F5F5F5F5F5F5F5F5F5F5F5F5F5F5F5F5F5F5F5F5F5F5F5F5F5F5F5F5F5F5F5F5F5F5F5F5F5F5F5F5F5E2F5F5F5F5F5F5F5F5F5F5F5F5F5F5F5F5E2F5F5F5F5E2E2F5F5F5F5E2F5F5F5F5F5F5F5
310
F5F5F5F5F5F5F5F5F5E2E2E2E2E2E2E2E2E2E2E2E2E2F5F5F5F5F5F5F5F5F5F5F5F5F5F5F5F5F5F5F5F5F5F5F5F5F5F5F5F5F5F5F5F5F5F5F5F5F5F5F5F5F5F5F5F5F5F5F5F5F5F5F5F5F5F5F5F5F5F5F5F5F5F5F5F5F5F5F5F5F5F5F5F5F5F5F5F5F5F5F5F5F5F5F5F5F5F5F5F5F5F5F5F5F5F5F5F5F5F5F5F5F5F5F5F5F5
310
F5F5F5F5F5F5F5F5F5F5F5F5F5F5F5F5F5E2F5F5F5F5F5F5F5F5F5F5F5F5F5F5F5F5E2F5F5F5F5E2E2F5F5F5F5E2F5F5F5F5F5F5F5F5F5F5F5F5F5F5F5F5E2E2E2F5F5F5F5F5F5F5F5F5F5F5F5F5F5F5F5F5F5F5F5F5F5F5F5F5F5F5F5F5F5F5F5F5F5F5F5F5F5F5F5F5F5F5F5F5F5F5F5F5F5F5F5F5F5F5F5F5F5F5F5F5F5
310
F5F5F5F5F5F5F5F5F5F5F5F5F5F5F5F5F5F5F5F5F5F5F5F5F5F5F5F5F5F5F5F5F5F5F5F5F5F5F5F5F5F5F5F5F5F5F5F5F5F5F5F5F5F5F5F5F5F5F5F5F5F5F5F5F5F5F5F5F5F5E2F5F5F5F5F5F5F5F5F5F5F5F5F5F5F5F5E2F5F5F5F5E2E2F5F5F5F5E2F5F5F5F5F5F5F5F5F5F5F5F5F5F5F5F5E2E2E2F5F5F5F5F5F5F5F5F5
310
F5F5F5F5F5F5F5F5F5F5F5F5F5F5F5F5F5F5F5F5F5F5F5F5F5F5F5F5F5F5F5F5F5F5F5F5F5F5F5F5F5F5F5F5F5F5F5F5F5F5F5F5F5F5F5F5F5F5F5F5F5F5F5F5F5F5F5F5F5F5F5F5F5F5F5F5F5F5F5F5F5F5F5F5F5F5F5F5F5F5F5F5F5F5F5F5F5F5F5F5F5F5F5F5F5F5F5F5F5F5F5F5F5F5F5F5F5F5F5F5F5F5F5E2F5F5F5
310
F5F5F5F5F5F5F5F5F5F5F5F5F5E2F5F5F5F5E2E2F5F5F5F5E2F5F5F5F5F5F5F5F5F5F5F5F5F5F5F5F5E2F5F5F5F5F5F5F5F5F5F5F5F5F5F5F5F5F5F5F5F5F5F5F5F5F5F5F5F5F5F5F5F5F5F5F5F5F5F5F5F5F5F5F5F5F5F5F5F5F5F5F5F5F5F5F5F5F5F5F5F5F5F5F5F5F5F5F5F5F5F5F5F5F5F5F5F5F5F5F5F5F5F5F5F5F5
310
F5F5F5F5F5F5F5F5F5F5F5F5F5F5F5F5F5F5F5F5F5F5F5F5F5F5F5F5F5F5F5F5F5F5F5F5F5F5F5F5F5F5F5F5F5F5F5F5F5E2F5F5F5F5F5F5F5F5F5F5F5F5F5F5F5F5E2F5F5F5F5E2E2F5F5F5F5E2F5F5F5F5F5F5F5F5F5F5F5F5F5F5F5F5E2F5F5F5F5F5F5F5F5F5F5F5F5F5F5F5F5F5F5F5F5F5F5F5F5F5F5F5F5F5F5F5F5
310
F5F5F5F5F5F5F5F5F5F5F5F5F5F5F5F5F5F5F5F5F5F5F5F5F5F5F5F5F5F5F5F5F5F5F5F5F5F5F5F5F5F5F5F5F5F5F5F5F5F5F5F5F5F5F5F5F5F5F5F5F5F5F5F5F5F5F5F5F5F5F5F5F5F5F5F5F5F5F5F5F5F5F5F5F5F5F5F5F5F5F5F5F5F5F5F5F5F5F5F5F5F5E2F5F5F5F5F5F5F5F5F5F5F5F5F5F5F5F5E2F5F5F5F5E2E2F5
310
F5F5F5E2F5F5F5F5F5F5F5F5F5F5F5F5F5F5F5F5E20F0F0F0F0F0F0F0F0F0F0FF5F5F5F5F5F5F5F5F5F5F5F5F5F5F5F5F5F5F5F5F5F5F5F5F5F5F5F5F5F5F5F5F5F5F5F5F5F5F5F5F5F5F5F5F5F5F5F5F5F5F5F5F5F5F5F5F5F5F5F5F5F5F5F5F5F5F5F5F5F5F5F5F5F5F5F5F5F5F5F5F5F5F5F5F5F5F5F5F5F5F5F5F5F5F5
310
F5F5F5F5F5F5F5F5F5F5F5F5F5F5F5F5F5F5F5F5F5F5F5F5F5F5F5F5E2F5F5F5F5F5F5F5F5F5F5F5F5F5F5F5F5E2F5F5F5F5E2E2F5F5F5F5E2F5F5F5F5F5F5F5F5F5F5F5F5F5F5F5F5E20F0F0F0F0F0F0F0F0F0F0FF5F5F5F5F5F5F5F5F5F5F5F5F5F5F5F5F5F5F5F5F5F5F5F5F5F5F5F5F5F5F5F5F5F5F5F5F5F5F5F5F5F5
310
F5F5F5F5F5F5F5F5F5F5F5F5F5F5F5F5F5F5F5F5F5F5F5F5F5F5F5F5F5F5F5F5F5F5F5F5F5F5F5F5F5F5F5F5F5F5F5F5F5F5F5F5F5F5F5F5F5F5F5F5F5F5F5F5F5F5F5F5F5F5F5F5F5F5F5F5F5F5F5F5F5E2F5F5F5F5F5F5F5F5F5F5F5F5F5F5F5F5E2F5F5F5F5E2E2F5F5F5F5E2F5F5F5F5F5F5F5F5F5F5F5F5F5F5F5F5E2
310
0F0F0F0F0F0F0F0F0F0FF5F5F5F5F5F5F5F5F5F5F5F5F5F5F5F5F5F5F5F5F5F5F5F5F5F5F5F5F5F5F5F5F5F5F5F5F5F5F5F5F5F5F5F5F5F5F5F5F5F5F5F5F5F5F5F5F5F5F5F5F5F5F5F5F5F5F5F5F5F5F5F5F5F5F5F5F5F5F5F5F5F5F5F5F5F5F5F5F5F5F5F5F5F5F5F5F5F5F5F5F5F5F5F5F5F5F5F5F5F5F5F5F5F5F5F5F5
310
F5F5F5F5F5F5F5E2F5F5F5F5F5F5F5F5F5F5F5F5F5F5F5F5E2F5F5F5F5E2E2F5F5F5F5E2F5F5F5F5F5F5F5F5F5F5F5F5F5F5F5F5E2F5F5F5F5F5F5F5F5F5F5F5F5F5F5F5F5F5F5F5F5F5F5F5F5F5F5F5F5F5F5F5F5F5F5F5F5F5F5F5F5F5F5F5F5F5F5F5F5F5F5F5F5F5F5F5F5F5F5F5F5F5F5F5F5F5F5F5F5F5F5F5F5F5F5
310
F5F5F5F5F5F5F5F5F5F5F5F5F5F5F5F5F5F5F5F5F5F5F5F5F5F5F5F5F5F5F5F5F5F5F5F5F5F5F5F5F5F5F5F5F5F5F5F5F5F5F5F5F5F5F5F5F5F5F5F5E2F5F5F5F5F5F5F5F5F5F5F5F5F5F5F5F5E2F5F5F5F5E2E2F5F5F5F5F5F5F5F5F5F5F5F5F5F5F5F5F5F5F5F5F5E2F5F5F5F5F5F5F5F5F5F5F5F5F5F5F5F5F5F5F5F5F5
310
F5F5F5F5F5F5F5F5F5F5F5F5F5F5F5F5F5F5F5F5F5F5F5F5F5F5F5F5F5F5F5F5F5F5F5F5F5F5F5F5F5F5F5F5F5F5F5F5F5F5F5F5F5F5F5F5F5F5F5F5F5F5F5F5F5F5F5F5F5F5F5F5F5F5F5F5F5F5F5F5F5F5F5F5F5F5F5F5F5F5F5F5F5F5F5F5F5F5F5F5F5F5F5F5F5F5F5F5F5F5F5F5F5E2F5F5F5F5F5F5F5F5F5F5F5F5F5
310
F5F5F5F5F5F5F5F5E2E2F5F5F5F5F5F5F5F5F5F5F5F5F5F5F5F5F5F5F5F5F5E2F5F5F5F5F5F5F5F5F5F5F5F5F5F5F5F5F5F5F5F5F5F5F5F5F5F5F5F5F5F5F5F5F5F5F5F5F5F5F5F5F5F5F5F5F5F5F5F5F5F5F5F5F5F5F5F5F5F5F5F5F5F5F5F5F5F5F5F5F5F5F5F5F5F5F5F5F5F5F5F5F5F5F5F5F5F5F5F5F5F5F5F5F5F5F5
310
F5F5F5F5F5F5F5F5F5F5F5F5F5F5F5F5F5F5F5F5F5F5F5F5F5F5F5F5F5F5F5F5F5F5F5F5F5F5F5E2F5F5F5F5F5F5F5F5F5F5F5F5F5F5F5F5F5F5F5F5F5E2E2F5F5F5F5F5F5F5F5F5F5F5F5F5F5F5F5F5F5F5F5F5E2F5F5F5F5F5F5F5F5F5F5F5F5F5F5F5F5F5F5F5F5F5F5F5F5F5F5F5F5F5F5F5F5F5F5F5F5F5F5F5F5F5F5
310
F5F5F5F5F5F5F5F5F5F5F5F5F5F5F5F5F5F5F5F5F5F5F5F5F5F5F5F5F5F5F5F5F5F5F5F5F5F5F5F5F5F5F5F5F5F5F5F5F5F5F5F5F5F5F5F5F5F5F5F5F5F5F5F5F5F5F5F5F5F5F5F5F5F5F5F5F5F5F5F5F5F5F5F5F5F5F5F5F5F5F5F5E2F5F5F5F5F5F5F5F5F5F5F5F5F5F5F5F5F5F5F5F5F5E2E2F5F5F5F5F5F5F5F5F5F5F5
310
F5F5F5F5F5F5F5F5F5F5E2F5F5F5F5F5F5F5F5F5F5F5F5F5F5F5F5F5F5F5F5F5F5F5F5F5F5F5F5F5F5F5F5F5F5F5F5F5F5F5F5F5F5F5F5F5F5F5F5F5F5F5F5F5F5F5F5F5F5F5F5F5F5F5F5F5F5F5F5F5F5F5F5F5F5F5F5F5F5F5F5F5F5F5F5F5F5F5F5F5F5F5F5F5F5F5F5F5F5F5F5F5F5F5F5F5F5F5F5F5F5F5F5F5F5F5F5
310
F5F5F5F5F5F5F5F5F5F5F5F5F5F5F5F5F5F5E2F5F5F5F5F5F5F5F5F5F5F5F5F5F5F5F5F5F5F5F5F5E2E2F5F5F5F5F5F5F5F5F5F5F5F5F5F5F5F5F5F5F5F5F5E2F5F5F5F5F5F5F5F5F5F5F5F5F5F5F5F5F5F5F5F5F5F5F5F5F5F5F5F5F5F5F5F5F5F5F5F5F5F5F5F5F5F5F5F5F5F5F5F5F5F5F5F5F5F5F5F5F5F5F5F5F5F5F5
310
F5F5F5F5F5F5F5F5F5F5F5F5F5F5F5F5F5F5F5F5F5F5F5F5F5F5F5F5F5F5F5F5F5F5F5F5F5F5F5F5F5F5F5F5F5F5F5F5F5F5F5F5F5F5F5F5F5F5F5F5F5F5F5F5F5F5F5F5F5F5F5E2F5F5F5F5F5F5F5F5F5F5F5F5F5F5F5F5F5F5F5F5F5E2E2F5F5F5F5F5F5F5F5F5F5F5F5F5F5F5F5F5F5F5F5F5E2F5F5F5F5F5F5F5F5F5F5
310
F5F5F5F5F5F5F5F5F5F5F5F5F5F5F5F5F5F5F5F5F5F5F5F5F5F5F5F5F5F5F5F5F5F5F5F5F5F5F5F5F5F5F5F5F5F5F5F5F5F5F5F5F5F5F5F5F5F5F5F5F5F5F5F5F5F5F5F5F5F5F5F5F5F5F5F5F5F5F5F5F5F5F5F5F5F5F5F5F5F5F5F5F5F5F5F5F5F5F5F5F5F5F5F5F5F5F5F5F5F5F5F5F5F5F5F5F5F5F5F5F5F5F5F5E2F5F5
310
F5F5F5F5F5F5F5F5F5F5F5F5F5F5F5F5F5F5F5E2E2F5F5F5F5F5F5F5F5F5F5F5F5F5F5F5F5F5F5F5F5F5E2F5F5F5F5F5F5F5F5F5F5F5F5F5F5F5F5F5F5F5F5F5F5F5F5F5F5F5F5F5F5F5F5F5F5F5F5F5F5F5F5F5F5F5F5F5F5F5F5F5F5F5F5F5F5F5F5F5F5F5F5F5F5F5F5F5F5F5F5F5F5F5F5F5F5F5F5F5F5F5F5F5F5F5F5
310
F5F5F5F5F5F5F5F5F5F5F5F5F5F5F5F5F5F5F5F5F5F5F5F5F5F5F5F5F5F5F5F5F5F5F5F5F5F5F5F5F5F5F5F5F5F5F5F5F5F5E2F5F5F5F5F5F5F5F5F5F5F5F5F5F5F5F5F5F5F5F5F5E2E2F5F5F5F5F5F5F5F5F5F5F5F5F5F5F5F5F5F5F5F5F5E2F5F5F5F5F5F5F5F5F5F5F5F5F5F5F5F5F5F5F5F5F5F5F5F5F5F5F5F5F5F5F5
310
F5F5F5F5F5F5F5F5F5F5F5F5F5F5F5F5F5F5F5F5F5F5F5F5F5F5F5F5F5F5F5F5F5F5F5F5F5F5F5F5F5F5F5F5F5F5F5F5F5F5F5F5F5F5F5F5F5F5F5F5F5F5F5F5F5F5F5F5F5F5F5F5F5F5F5F5F5F5F5F5F5F5F5F5F5F5F5F5F5F5F5F5F5F5F5F5F5F5F5F5F5F5F5E2F5F5F5F5F5F5F5F5F5F5F5F5F5F5F5F5F5F5F5F5F5E2E2
310
F5F5F5F5F5F5F5F5F5F5F5F5F5F5F5F5F5F5F5F5F5E2F5F5F5F5F5F5F5F5F5F5F5F5F5F5F5F5F5F5F5F5F5F5F5F5F5F5F5F5F5F5F5F5F5F5F5F5F5F5F5F5F5F5F5F5F5F5F5F5F5F5F5F5F5F5F5F5F5F5F5F5F5F5F5F5F5F5F5F5F5F5F5F5F5F5F5F5F5F5F5F5F5F5F5F5F5F5F5F5F5F5F5F5F5F5F5F5F5F5F5F5F5F5F5F5F5
310
F5F5F5F5F5F5F5F5F5F5F5F5F5F5F5F5F5F5F5F5F5F5F5F5F5F5F5F5F5E2F5F5F5F5F5F5F5F5F5F5F5F5F5F5F5F5F5F5F5F5F5E2E2F5F5F5F5E2F5F5F5F5F5F5F5F5F5F5F5F5F5F5F5F5E2F5F5F5F5F5F5F5F5F5F5F5F5F5F5F5F5F5F5F5F5F5F5F5F5F5F5F5F5F5F5F5F5F5F5F5F5F5F5F5F5F5F5F5F5F5F5F5F5F5F5F5F5
310
F5F5F5F5F5F5F5F5F5F5F5F5F5F5F5F5F5F5F5F5F5F5F5F5F5F5F5F5F5F5F5F5F5F5F5F5F5F5F5F5F5F5F5F5F5F5F5F5F5E2F0E2E2F5F5F5F5F5F5E2F0E2E2F5DCF5F5F5F5F5F5F0F0E2F5F5F5F5F5F5F5F5E2F5F5F5F5F5F5F5F5F5F5F5F5F5F5F5F5E2F5F5F5F5E2E2F5F5F5F5E2F5F5F5F5F5F5F5F5F5F5F5F5F5F5F5F5
310
E2F5F5F5F5F5F5F5F5F5F5F5F5F5F5F5F5F5F5F5F5F5F5F5F5F5F5F5F5F5F5F5F5F5F5F5F5F5F5F5F5F5F5F5F5F5F5F5F5F5F5F5F5F5F5F5F5F5F5F5F5F5F5F5F5F5F5F5F5F5F5F5F5F5F5F5F5F5F5F5F5F5F5F5F5F5F5F5F5F5F5F5F5F5F5F5F5F5F5F5F5E2DCDCF0F5E2F5F5F5F5F5E2F5F0E2E2DCF5F5F5F5F5E2F0F0F5
310
E2F5F5F5E2E2E2F5E2F5F5F5F5F5F5F5F5F5F5F5F5F5F5F5F5E2F5F5F5F5E2E2F5F5F5F5E2F5F5F5F5F5F5F5F5F5F5F5F5F5F5F5F5E2F5F5F5F5F5F5F5F5F5F5F5F5F5F5F5F5F5F5F5F5F5F5F5F5F5F5F5F5F5F5F5F5F5F5F5F5F5F5F5F5F5F5F5F5F5F5F5F5F5F5F5F5F5F5F5F5F5F5F5F5F5F5F5F5F5F5F5F5F5F5F5F5F5
310
F5F5F5F5F5F5F5F5F5F5F5F5F5F5F5F5F5F5F5F5F5F5F5F5F5F5E2F0DCF0DCE2E2E2F5F5F5E2E2F0F0F0E2DCF5F5F5F5E2F0F0F0E2E2F0E2E2E2E2E2E2E2F5F5F5F5F5F5F5F5F5F5F5F5F5F5F5F5E2F5F5F5F5E2E2F5F5F5F5E2F5F5F5F5F5F5F5F5F5F5F5F5F5F5F5F5E2F5F5F5F5F5F5F5F5F5F5F5F5F5F5F5F5F5F5F5F5
310
F5F5F5F5F5F5F5F5F5F5F5F5F5F5F5F5F5F5F5F5F5F5F5F5F5F5F5F5F5F5F5F5F5F5F5F5F5F5F5F5F5F5F5F5F5F5F5F5F5F5F5F5F5F5F5F5F5F5F5F5F5F5F5F5F5F5F5F5F5F5F5F5F5F5F5F5F5F5F5E2F0DCF0DCF0F0E2F5F5F5E2F0DCE2E2E2DCF5F5F5F5F0F0F0F0E2E2F0E2F5E2E2E2E2E2F5F5F5F5F5F5F5F5F5F5F5F5
310
F5F5F5F5E2F5F5F5F5E2E2F5F5F5F5E2F5F5F5F5F5F5F5F5F5F5F5F5F5F5F5F5E2F5F5F5F5F5F5F5F5F5F5F5F5F5F5F5F5F5F5F5F5F5F5F5F5F5F5F5F5F5F5F5F5F5F5F5F5F5F5F5F5F5F5F5F5F5F5F5F5F5F5F5F5F5F5F5F5F5F5F5F5F5F5F5F5F5F5F5F5F5F5F5F5F5F5F5F5F5F5F5F5F5F5F5F5F5F5F5F5F5F5F5F5F5F5
310
F5F5F5F5F5F5E2DCDCDCF0E2F5F5F5F5F5F0DCDCE2E2DCF5F5F5F5F5F0F0F0DCE2F0F5E2E2E2E2F5E2F5F5F5F5F5F5F5F5F5F5F5F5F5F5F5F5E2F5F5F5F5E2E2F5F5F5F5E2F5F5F5F5F5F5F5F5F5F5F5F5F5F5F5F5E2F5F5F5F5F5F5F5F5F5F5F5F5F5F5F5F5F5F5F5F5F5F5F5F5F5F5F5F5F5F5F5F5F5F5F5F5F5F5F5F5F5
310
F5F5F5F5F5F5F5F5F5F5F5F5F5F5F5F5F5F5F5F5F5F5F5F5F5F5F5F5F5F5F5F5F5F5F5F5F5F5F5F5F5F5F5F5F5F5F5F5F5F5F5F5F5F5F5F5F5F5F5E2F0F0F0E2F5F5F5F5F5E2F0E2E2E2E2DCF5F5F5F5F5F0F0E2E2F5F5F5F5E2E2E2F5E2F5F5F5F5F5F5F5F5F5F5F5F5F5F5F5F5E2F5F5F5F5E2E2F5F5F5F5E2F5F5F5F5F5
310
F5F5F5F5F5F5F5F5F5F5F5E2F5F5F5F5F5F5F5F5F5F5F5F5F5F5F5F5F5F5F5F5F5F5F5F5F5F5F5F5F5F5F5F5F5F5F5F5F5F5F5F5F5F5F5F5F5F5F5F5F5F5F5F5F5F5F5F5F5F5F5F5F5F5F5F5F5F5F5F5F5F5F5F5F5F5F5F5F5F5F5F5F5F5F5F5F5F5F5F5F5F5F5F5F5F5F5F5F5F5F5F5F5F5E2E2F5F5F5F5F5F5F5F5E2E2F5
310
F5DCF5F5F5F5F5F5F5F0E2F5F5F5F5F5E2F5F5E2F5F5F5F5F5F5F5F5F5F5F5F5F5F5F5F5E2F5F5F5F5E2E2F5F5F5F5E2F5F5F5F5F5F5F5F5F5F5F5F5F5F5F5F5E2F5F5F5F5F5F5F5F5F5F5F5F5F5F5F5F5F5F5F5F5F5F5F5F5F5F5F5F5F5F5F5F5F5F5F5F5F5F5F5F5F5F5F5F5F5F5F5F5F5F5F5F5F5F5F5F5F5F5F5F5F5F5
310
F5F5F5F5F5F5F5F5F5F5F5F5F5F5F5F5F5F5F5F5F5F5F5F5F5F5F5F5F5F5F5F5F5F5F5F5F5F5F5F5F5F5F5F5F5F5F5F5F5F5F5F5F5F5DCF5F5F5F5F5F5F5F5F5F5F5F5F5F5F5F5F5E2F5F5F5F5F5F5F5F5F5F5F5F5F5F5F5F5E2F5F5F5F5E2E2F5F5F5F5E2F5F5F5F5F5F5F5F5F5F5F5F5F5F5F5F5E2F5F5F5F5F5F5F5F5F5
310
F5F5F5F5F5F5F5F5F5F5F5F5F5F5F5F5F5F5F5F5F5F5F5F5F5F5F5F5F5F5F5F5F5F5F5F5F5F5F5F5F5F5F5F5F5F5F5F5F5F5F5F5F5F5F5F5F5F5F5F5F5F5F5F5F5F5F5F5F5F5F5F5F5F5F5F5F5F5F5F5F5F5F5F5F5F5F5F5F5F5F5F5F5F5F5F5F5F5F5F5F5F5F5F5F5F5F5DCF5F5F5F5F5F5F5F5F5F5F5F5F5F5F5F5F5E2F5
310
F5F5F5F5F5F5F5F5F5F5F5F5F5F5F5E2F5F5F5F5E2E2F5F5F5F5E2F5F5F5F5F5F5F5F5F5F5F5F5F5F5F5F5E2F5F5F5F5F5F5F5F5F5F5F5F5F5F5F5F5F5F5F5F5F5F5F5F5F5F5F5F5F5F5F5F5F5F5F5F5F5F5F5F5F5F5F5F5F5F5F5F5F5F5F5F5F5F5F5F5F5F5F5F5F5F5F5F5F5F5F5F5F5F5F5F5F5F5F5F5F5F5F5F5F5F5F5
310
F5F5F5F5F5F5F5F5F5F5F5F5F5F5F5F5F5F5F5F5F5F5F5F5F5F5F5F5F5F5F5F5F5DCF5F5F5F5F5F5F5F5F5F5F5F5F5F5F5F5F5E2F5F5F5F5F5F5F5F5F5F5F5F5F5F5F5F5E2F5F5F5F5E2E2F5F5F5F5E2F5F5F5F5F5F5F5F5F5F5F5F5F5F5F5F5E2F5F5F5F5F5F5F5F5F5F5F5F5F5F5F5F5F5F5F5F5F5F5F5F5F5F5F5F5F5F5
310
F5F5F5F5F5F5F5F5F5F5F5F5F5F5F5F5F5F5F5F5F5F5F5F5F5F5F5F5F5F5F5F5F5F5F5F5F5F5F5F5F5F5F5F5F5F5F5F5F5F5F5F5F5F5F5F5F5F5F5F5F5F5F5F5F5F5F5F5F5F5F5F5F5F5F5F5F5F5F5F5F5F5F5F5F5F5DCF5F5F5F5F5F5F5F5F5F5F5F5F5F5F5F5F5E2F5F5F5F5F5F5F5F5F5F5F5F5F5F5F5F5E2F5F5F5F5E2
310
E2F5F5F5F5E2F5F5F5F5F5F5F5F5F5F5F5F5F5F5F5F5E2F5F5F5F5F5F5F5F5F5F5F5F5F5F5F5F5F5F5F5F5F5F5F5F5F5F5F5F5F5F5F5F5F5F5F5F5F5F5F5F5F5F5F5F5F5F5F5F5F5F5F5F5F5F5F5F5F5F5F5F5F5F5F5F5F5F5F5F5F5F5F5F5F5F5F5F5F5F5F5F5F5F5F5F5F5F5F5F5F5F5F5F5F5F5F5F5F5F5F5F5F5F5F5F5
310
F5F5F5F5F5F5F5F5F5F5F5F5DCF5F5F5F5F5F5F5F5F5F5F5F5F5F5F5F5F5E2F5F5F5F5F5F5F5F5F5F5F5F5F5F5F5F5E2F5F5F5F5E2E2F5F5F5F5E2F5F5F5F5F5F5F5F5F5F5F5F5F5F5F5F5E2F5F5F5F5F5F5F5F5F5F5F5F5F5F5F5F5F5F5F5F5F5F5F5F5F5F5F5F5F5F5F5F5F5F5F5F5F5F5F5F5F5F5F5F5F5F5F5F5F5F5F5
310
F5F5F5F5F5F5F5F5F5F5F5F5F5F5F5F5F5F5F5F5F5F5F5F5F5F5F5F5F5F5F5F5F5F5F5F5F5F5F5F5F5F5F5F5F5F5F5F5F5F5F5F5F5F5F5F5F5F5F5F5F5F5F5F5F5DCF5F5F5F5F5F5F5F5F5F5F5F5F5F5F5F5F5E2F5F5F5F5F5F5F5F5F5F5F5F5F5F5F5F5E2F5F5F5F5E2E2F5F5F5F5E2F5F5F5F5F5F5F5F5F5F5F5F5F5F5F5
310
F5E2F5F5F5F5F5F5F5F5F5F5F5F5F5F5F5F5F5F5F5F5F5F5F5F5F5F5F5F5F5F5F5F5F5F5F5F5F5F5F5F5F5F5F5F5F5F5F5F5F5F5F5F5F5F5F5F5F5F5F5F5F5F5F5F5F5F5F5F5F5F5F5F5F5F5F5F5F5F5F5F5F5F5F5F5F5F5F5F5F5F5F5F5F5F5F5F5F5F5F5F5F5F5F5F5F5F5F5F5F5F5F5F5F5F5F5F5DCF5F5F5F5F5F5F5F5
310
F5F5F5F5F5F5F5F5F5E2F5F5F5F5F5F5F5F5F5F5F5F5F5F5F5F5E2F5F5F5F5E2E2F5F5F5F5E2F5F5F5F5F5F5F5F5F5F5F5F5F5F5F5F5E2F5F5F5F5F5F5F5F5F5F5F5F5F5F5F5F5F5F5F5F5F5F5F5F5F5F5F5F5F5F5F5F5F5F5F5F5F5F5F5F5F5F5F5F5F5F5F5F5F5F5F5F5F5F5F5F5F5F5F5F5F5F5F5F5F5F5F5F5F5F5F5F5
310
F5F5F5F5F5F5F5F5F5F5F5F5F5F5F5F5F5F5F5F5F5F5F5F5F5F5F5F5F5F5F5F5F5F5F5F5F5F5F5F5F5F5E2E2DCE2F5F5F5F5F5F5F5F5F5F5F5F5F5F5F5F5E2F5F5F5F5F5F5F5F5F5F5F5F5F5F5F5F5E2F5F5F5F5E2E2F5F5F5F5E2F5F5F5F5F5F5F5F5F5F5F5F5F5F5F5F5E2F5F5F5F5F5F5F5F5F5F5F5F5F5F5F5F5F5F5F5
310
F5F5F5F5F5F5F5F5F5F5F5F5F5F5F5F5F5F5F5F5F5F5F5F5F5F5F5F5F5F5F5F5F5F5F5F5F5F5F5F5F5F5F5F5F5F5F5F5F5F5F5F5F5F5F5F5F5F5F5F5F5F5F5F5F5F5F5F5F5F5F5F5F5F5F5F5F5F5F5F5F5F5F5F5F5F5F5F5F5F5F5F5F5F5F5F5F5DCF5F5F5F5F5F5F5F5F5F5F5F5F5F5F5F5F5E2F5F5F5F5F5F5F5F5F5F5F5
310
F5F5F5F5F5E2F5F5F5F5E2E2F5F5F5F5E2F5F5F5F5F5F5F5F5F5F5F5F5F5F5F5F5E2F5F5F5F5F5F5F5F5F5F5F5F5F5F5F5F5F5F5F5F5F5F5F5F5F5F5F5F5F5F5F5F5F5F5F5F5F5F5F5F5F5F5F5F5F5F5F5F5F5F5F5F5F5F5F5F5F5F5F5F5F5F5F5F5F5F5F5F5F5F5F5F5F5F5F5F5F5F5F5F5F5F5F5F5F5F5F5F5F5F5F5F5F5
310
F5F5F5F5F5F5F5F5F5F5F5F5F5F5F5F5F5F5F5F5F5F5F5DCF5F5F5F5F5F5F5F5F5F5F5F5F5F5F5F5F5E2F5F5F5F5F5F5F5F5F5F5F5F5F5F5F5F5E2F5F5F5F5E2E2F5F5F5F5F5F5F5F5F5F5F5F5F5F5F5F5F5F5F5F5F5E2F5F5F5F5F5F5F5F5F5F5F5F5F5F5F5F5F5F5F5F5F5F5F5F5F5F5F5F5F5F5F5F5F5F5F5F5F5F5F5F5
310
F5F5F5F5F5F5F5F5F5F5F5F5F5F5F5F5F5F5F5F5F5F5F5F5F5F5F5F5F5F5F5F5F5F5F5F5F5F5F5F5F5F5F5F5F5F5F5F5F5F5F5F5F5F5F5F5F5F5F5F5F5F5F5F5F5F5F5F5F5F5F5F5F5F5F5F5DCF5F5F5F5F5F5F5F5F5F5F5F5F5F5F5F5F5E2F5F5F5F5F5F5F5F5F5F5F5F5F5F5F5F5F5F5F5F5F5E2E2F5F5F5F5F5F5F5F5F5
310
F5F5F5F5F5F5F5F5F5F5F5F5E2F5F5F5F5F5F5F5F5F5F5F5F5F5F5F5F5F5F5F5F5F5F5F5F5F5F5F5F5F5F5F5F5F5F5F5F5F5F5F5F5F5F5F5F5F5F5F5F5F5F5F5F5F5F5F5F5F5F5F5F5F5F5F5F5F5F5F5F5F5F5F5F5F5F5F5F5F5F5F5F5F5F5F5F5F5F5F5F5F5F5F5F5F5F5F5F5F5F5F5F5F5F5F5F5F5F5F5F5F5F5F5F5F5F5
310
F5F5F5F5F5F5F5F5F5F5F5F5F5F5F5F5F5F5F5F5E2F5F5F5F5F5F5F5F5F5F5F5F5F5F5F5F5F5F5F5F5F5E2E2F5F5F5F5F5F5F5F5F5F5F5F5F5F5F5F5F5F5F5F5F5E2F5F5F5F5F5F5F5F5F5F5F5F5F5F5F5F5F5F5F5F5F5F5F5F5F5F5F5F5F5F5F5F5F5F5F5F5F5F5F5F5F5F5F5F5F5F5F5F5F5F5F5F5F5F5F5F5F5F5F5F5F5
310
F5F5F5F5F5F5F5F5F5F5F5F5F5F5F5F5F5F5F5F5F5F5F5F5F5F5F5F5F5F5F5F5F5F5F5F5F5F5F5F5F5F5F5F5F5F5F5F5F5F5F5F5F5F5F5F5F5F5F5F5F5F5F5F5F5F5F5F5F5F5F5F5F5E2F5F5F5F5F5F5F5F5F5F5F5F5F5F5F5F5F5F5F5F5F5E2E2F5F5F5F5F5F5F5F5F5F5F5F5F5F5F5F5F5F5F5F5F5E2F5F5F5F5F5F5F5F5
310
F5F5F5F5F5F5F5F5F5F5F5F5F5F5F5F5F5F5F5F5F5F5F5F5F5F5F5F5F5F5F5F5F5F5F5F5F5F5F5F5F5F5F5F5F5F5F5F5F5F5F5F5F5F5F5F5F5F5F5F5F5F5F5F5F5F5F5F5F5F5F5F5F5F5F5F5F5F5F5F5F5F5F5F5F5F5F5F5F5F5F5F5F5F5F5F5F5F5F5F5F5F5F5F5F5F5F5F5F5F5F5F5F5F5F5F5F5F5F5F5F5F5F5F5F5F5E2
310
F5F5F5F5F5F5F5F5F5F5F5F5F5F5F5F5F5F5F5F5F5E2E2F5F5F5F5F5F5F5F5F5F5F5F5F5F5F5F5F5F5F5F5F5E2F5F5F5F5F5F5F5F5F5F5F5F5F5F5F5F5F5F5F5F5F5F5F5F5F5F5F5F5F5F5F5F5F5F5F5F5F5F5F5F5F5F5F5F5F5F5F5F5F5F5F5F5F5F5F5F5F5F5F5F5F5F5F5F5F5F5F5F5F5F5F5F5F5F5F5F5F5F5F5F5F5F5
310
F5F5F5F5F5F5F5F5F5F5F5F5F5F5F5F5F5F5F5F5F5F5F5F5F5F5F5F5F5F5F5F5F5F5F5F5F5F5F5F5F5F5F5F5F5F5F5F5F5F5F5F5E2F5F5F5F5F5F5F5F5F5F5F5F5F5F5F5F5F5F5F5F5F5E2E2F5F5F5F5F5F5F5F5F5F5F5F5F5F5F5F5F5F5F5F5F5E2F5F5F5F5F5F5F5F5F5F5F5F5F5F5F5F5F5F5F5F5F5F5F5F5F5F5F5F5F5
310
F5F5F5F5F5F5F5F5F5F5F5F5F5F5F5F5F5F5F5F5F5F5F5F5F5F5F5F5F5F5F5F5F5F5F5F5F5F5F5F5F5F5F5F5F5F5F5F5F5F5F5F5F5F5F5F5F5F5F5F5F5F5F5F5F5F5F5F5F5F5F5F5F5F5F5F5F5F5F5F5F5F5F5F5F5F5F5F5F5F5F5F5F5F5F5F5F5F5F5F5F5F5F5F5F5E2F5F5F5F5F5F5F5F5F5F5F5F5F5F5F5F5F5F5F5F5F5
310
E2E2F5F5F5F5F5F5F5F5F5F5F5F5F5F5F5F5F5F5F5F5F5E2F5F5F5F5F5F5F5F5F5F5F5F5F5F5F5F5F5F5F5F5F5F5F5F5F5F5F5F5F5F5F5F5F5F5F5F5F5F5F5F5F5F5F5F5F5F5F5F5F5F5F5F5F5F5F5F5F5F5F5F5F5F5F5F5F5F5F5F5F5F5F5F5F5F5F5F5F5F5F5F5F5F5F5F5F5F5F5F5F5F5F5F5F5F5F5F5F5F5F5F5F5F5F5
310
F5F5F5F5F5F5F5F5F5F5F5F5F5F5F5F5F5F5F5F5F5F5F5F5F5F5F5F5F5F5F5E2F5F5F5F5F5F5F5F5F5F5F5F5F5F5F5F5F5F5F5F5F5E2E2F5F5F5F5F5F5F5F5F5F5F5F5F5F5F5F5F5F5F5F5F5E2F5F5F5F5F5F5F5F5F5F5F5F5F5F5F5F5F5F5F5F5F5F5F5F5F5F5F5F5F5F5F5F5F5F5F5F5F5F5F5F5F5F5F5F5F5F5F5F5F5F5
310
F5F5F5F5F5F5F5F5F5F5F5F5F5F5F5F5F5F5F5F5F5F5F5F5F5F5F5F5F5F5F5F5F5F5F5F5F5F5F5F5F5F5F5F5F5F5F5F5F5F5F5F5F5F5F5F5F5F5F5F5F5F5F5F5F5F5F5F5F5F5F5F5F5F5F5F5F5F5F5F5F5F5F5F5E2F5F5F5F5F5F5F5F5F5F5F5F5F5F5F5F5F5F5F5F5F5E2E2F5F5F5F5F5F5F5F5F5F5F5F5F5F5F5F5F5F5F5
310
F5F5E2F5F5F5F5F5F5F5F5F5F5F5F5F5F5F5F5F5F5F5F5F5F5F5F5F5F5F5F5F5F5F5F5F5F5F5F5F5F5F5F5F5F5F5F5F5F5F5F5F5F5F5F5F5F5F5F5F5F5F5F5F5F5F5F5F5F5F5F5F5F5F5F5F5F5F5F5F5F5F5F5F5F5F5F5F5F5F5F5F5F5F5F5F5F5F5F5F5F5F5F5F5F5F5F5F5F5F5F5F5F5F5F5F5F5F5F5F5F5F5F5F5F5F5F5
310
F5F5F5F5F5F5F5F5F5F5E2F5F5F5F5F5F5F5F5F5F5F5F5F5F5F5F5F5F5F5F5F5E2E2F5F5F5F5E2F5F5F5F5F5F5F5F5F5F5F5F5F5F5F5F5E2F5F5F5F5F5F5F5F5F5F5F5F5F5F5F5F5F5F5F5F5F5F5F5F5F5F5F5F5F5F5F5F5F5F5F5F5F5F5F5F5F5F5F5F5F5F5F5F5F5F5F5F5F5F5F5F5F5F5F5F5F5F5F5F5F5F5F5F5F5F5F5
310
F5F5F5F5F5F5F5F5F5F5F5F5F5F5F5F5F5F5F5F5F5F5F5F5F5F5F5F5F5F5F5F5F5F5F5F5F5F5F5F5F5F5F5F5F5F5F5F5F5F5F5F5F5F5F5F5F5F5F5F5F5F5F5E2F5F5F5F5F5F5F5F5F5F5F5F5F5F5F5F5E2F5F5F5F5E2E2F5F5F5F5E2F5F5F5F5F5F5F5F5F5F5F5F5F5F5F5F5E2F5F5F5F5F5F5F5F5F5F5F5F5F5F5F5F5F5F5
310
F5F5F5F5F5F5F5F5F5F5F5F5F5F5F5F5F5F5F5F5F5F5F5F5F5F5F5F5F5F5F5F5F5F5F5F5F5F5F5F5F5F5F5F5F5F5F5F5F5F5F5F5F5F5F5F5F5F5F5F5F5F5F5F5F5F5F5F5F5F5F5F5F5F5F5F5F5F5F5F5F5F5F5F5F5F5F5F5F5F5F5F5F5F5F5F5F5F5F5F5F5F5F5F5F5F5F5F5F5F5F5F5F5F5F5F5E2F5F5F5F5F5F5F5F5F5F5
310
F5F5F5F5F5F5E2F5F5F5F5E2E2F5F5F5F5E2F5F5F5F5F5F5F5F5F5F5F5F5F5F5F5F5E2F5F5F5F5F5F5F5F5F5F5F5F5F5F5F5F5F5F5F5F5F5F5F5F5F5F5F5F5F5F5F5F5F5F5F5F5F5F5F5F5F5F5F5F5F5F5F5F5F5F5F5F5F5F5F5F5F5F5F5F5F5F5F5F5F5F5F5F5F5F5F5F5F5F5F5F5F5F5F5F5F5F5F5F5F5F5F5F5F5F5F5F5
310
F5F5F5F5F5F5F5F5F5F5F5F5F5F5F5F5F5F5F5F5F5F5F5F5F5F5F5F5F5F5F5F5F5F5F5F5F5F5F5F5F5F5E2F5F5F5F5F5F5F5F5F5F5F5F5F5F5F5F5E2F5F5F5F5E2E2F5F5F5F5E2F5F5F5F5F5F5F5F5F5F5F5F5F5F5F5F5E2F5F5F5F5F5F5F5F5F5F5F5F5F5F5F5F5F5F5F5F5F5F5F5F5F5F5F5F5F5F5F5F5F5F5F5F5F5F5F5
310
F5F5F5F5F5F5F5F5F5F5F5F5F5F5F5F5F5F5F5F5F5F5F5F5F5F5F5F5F5F5F5F5F5F5F5F5F5F5F5F5F5F5F5F5F5F5F5F5F5F5F5F5F5F5F5F5F5F5F5F5F5F5F5F5F5F5F5F5F5F5F5F5F5F5F5F5F5F5F5F5F5F5F5F5F5F5F5F5F5F5F5F5F5F5F5E2F5F5F5F5F5F5F5F5F5F5F5F5F5F5F5F5E2F5F5F5F5E2E2F5F5F5F5E2F5F5F5
310
F5F5F5F5F5F5F5F5F5F5F5F5F5E2F5F5F5F5F5F5F5F5F5F5F5F5F5F5F5F5F5F5F5F5F5F5F5F5F5F5F5F5F5F5F5F5F5F5F5F5F5F5F5F5F5F5F5F5F5F5F5F5F5F5F5F5F5F5F5F5F5F5F5F5F5F5F5F5F5F5F5F5F5F5F5F5F5F5F5F5F5F5F5F5F5F5F5F5F5F5F5F5F5F5F5F5F5F5F5F5F5F5F5F5F5F5F5F5F5F5F5F5F5F5F5F5F5
310
F5F5F5F5F5F5F5F5F5F5F5F5F5F5F5F5F5F5F5F5F5E2F5F5F5F5F5F5F5F5F5F5F5F5F5F5F5F5E2F5F5F5F5E2E2F5F5F5F5E2F5F5F5F5F5F5F5F5F5F5F5F5F5F5F5F5E2F5F5F5F5F5F5F5F5F5F5F5F5F5F5F5F5F5F5F5F5F5F5F5F5F5F5F5F5F5F5F5F5F5F5F5F5F5F5F5F5F5F5F5F5F5F5F5F5F5F5F5F5F5F5F5F5F5F5F5F5
310
F5F5F5F5F5F5F5F5F5F5F5F5F5F5F5F5F5F5F5F5F5F5F5F5F5F5F5F5F5F5F5F5F5F5F5F5F5F5F5F5F5F5F5F5F5F5F5F5F5F5F5F5F5F5F5F5F5F5F5F5F5F5F5F5F5F5F5F5F5F5F5F5F5F5E2F5F5F5F5F5F5F5F5F5F5F5F5F5F5F5F5E2F5F5F5F5E2E2F5F5F5F5E2F5F5F5F5F5F5F5F5F5F5F5F5F5F5F5F5E2F5F5F5F5F5F5F5
310
F5F5F5F5F5F5F5F5F5F5F5F5F5F5F5F5F5F5F5F5F5F5F5F5F5F5F5F5F5F5F5F5F5F5F5F5F5F5F5F5F5F5F5F5F5F5F5F5F5F5F5F5F5F5F5F5F5F5F5F5F5F5F5F5F5F5F5F5F5F5F5F5F5F5F5F5F5F5F5F5F5F5F5F5F5F5F5F5F5F5F5F5F5F5F5F5F5F5F5F5F5F5F5F5F5F5F5F5F5F5F5F5F5F5F5F5F5F5F5F5F5F5F5F5F5F5F5
310
E2F5F5F5F5F5F5F5F5F5F5F5F5F5F5F5F5E2F5F5F5F5E2E2F5F5F5F5E2F5F5F5F5F5F5F5F5F5F5F5F5F5F5F5F5E2F5F5F5F5F5F5F5F5F5F5F5F5F5F5F5F5F5F5F5F5F5F5F5F5F5F5F5F5F5F5F5F5F5F5F5F5F5F5F5F5F5F5F5F5F5F5F5F5F5F5F5F5F5F5F5F5F5F5F5F5F5F5F5F5F5F5F5F5F5F5F5F5F5F5F5F5F5F5F5F5F5
310
F5F5F5F5F5F5F5F5F5F5F5F5F5F5F5F5F5F5F5F5F5F5F5F5F5F5F5F5F5F5F5F5F5F5F5F5F5F5F5F5F5F5F5F5F5F5F5F5F5F5F5F5F5E2F5F5F5F5F5F5F5F5F5F5F5F5F5F5F5F5E2F5F5F5F5E2E2F5F5F5F5E2F5F5F5F5F5F5F5F5F5F5F5F5F5F5F5F5E2F5F5F5F5F5F5F5F5F5F5F5F5F5F5F5F5F5F5F5F5F5F5F5F5F5F5F5F5
310
F5F5F5F5F5F5F5F5F5F5F5F5F5F5F5F5F5F5F5F5F5F5F5F5F5F5F5F5F5F5F5F5F5F5F5F5F5F5F5F5F5F5F5F5F5F5F5F5F5F5F5F5F5F5F5F5F5F5F5F5F5F5F5F5F5F5F5F5F5F5F5F5F5F5F5F5F5F5F5F5F5F5F5F5F5F5F5F5F5F5F5F5F5F5F5F5F5F5F5F5F5F5F5F5F5F5E2F5F5F5F5F5F5F5F5F5F5F5F5F5F5F5F5E2F5F5F5
310
F5E2E2F5F5F5F5E2F5F5F5F5F5F5F5F5F5F5F5F5F5F5F5F5E2F5F5F5F5F5F5F5F5F5F5F5F5F5F5F5F5F5F5F5F5F5F5F5F5F5F5F5F5F5F5F5F5F5F5F5F5F5F5F5F5F5F5F5F5F5F5F5F5F5F5F5F5F5F5F5F5F5F5F5F5F5F5F5F5F5F5F5F5F5F5F5F5F5F5F5F5F5F5F5F5F5F5F5F5F5F5F5F5F5F5F5F5F5F5F5F5F5F5F5F5F5F5
310
F5F5F5F5F5F5F5F5F5F5F5F5F5F5F5F5F5F5F5F5F5F5F5F5F5F5F5F5F5F5F5F5E2F5F5F5F5F5F5F5F5F5F5F5F5F5F5F5F5E2F5F5F5F5E2E2F5F5F5F5E2F5F5F5F5F5F5F5F5F5F5F5F5F5F5F5F5E2F5F5F5F5F5F5F5F5F5F5F5F5F5F5F5F5F5F5F5F5F5F5F5F5F5F5F5F5F5F5F5F5F5F5F5F5F5F5F5F5F5F5F5F5F5F5F5F5F5
310
F5F5F5F5F5F5F5F5F5F5F5F5F5F5F5F5F5F5F5F5F5F5F5F5F5F5F5F5F5F5F5F5F5F5F5F5F5F5F5F5F5F5F5F5F5F5F5F5F5F5F5F5F5F5F5F5F5F5F5F5F5F5F5F5F5F5F5F5F5F5F5F5F5F5F5F5F5F5F5F5F5F5F5F5F5E2F5F5F5F5F5F5F5F5F5F5F5F5F5F5F5F5E2F5F5F5F5E2E2F5F5F5F5E2F5F5F5F5F5F5F5F5F5F5F5F5F5
310
F5F5F5E2F5F5F5F5F5F5F5F5F5F5F5F5F5F5F5F5F5F5F5F5F5F5F5F5F5F5F5F5F5F5F5F5F5F5F5F5F5F5F5F5F5F5F5F5F5F5F5F5F5F5F5F5F5F5F5F5F5F5F5F5F5F5F5F5F5F5F5F5F5F5F5F5F5F5F5F5F5F5F5F5F5F5F5F5F5F5F5F5F5F5F5F5F5F5F5F5F5F5F5F5F5F5F5F5F5F5F5F5F5F5F5F5F5F5F5F5F5F5F5F5F5F5F5
310
F5F5F5F5F5F5F5F5F5F5F5E2F5F5F5F5F5F5F5F5F5F5F5F5F5F5F5F5E2F5F5F5F5E2E2F5F5F5F5E2F5F5F5F5F5F5F5F5F5F5F5F5F5F5F5F5E2F5F5F5F5F5F5F5F5F5F5F5F5F5F5F5F5F5F5F5F5F5F5F5F5F5F5F5F5F5F5F5F5F5F5F5F5F5F5F5F5F5F5F5F5F5F5F5F5F5F5F5F5F5F5F5F5F5F5F5F5F5F5F5F5F5F5F5F5F5F5
310
F5F5F5F5F5F5F5F5F5F5F5F5F5F5F5F5F5F5F5F5F5F5F5F5F5F5F5F5F5F5F5F5F5F5F5F5F5F5F5F5F5F5F5F5F5F5F5F5F5F5F5F5F5F5F5F5F5F5F5F5F5F5F5F5E2F5F5F5F5F5F5F5F5F5F5F5F5F5F5F5F5E2F5F5F5F5E2E2F5F5F5F5E2F5F5F5F5F5F5F5F5F5F5F5F5F5F5F5F5E2F5F5F5F5F5F5F5F5F5F5F5F5F5F5F5F5F5
310
F5F5F5F5F5F5F5F5F5F5F5F5F5F5F5F5F5F5F5F5F5F5F5F5F5F5F5F5F5F5F5F5F5F5F5F5F5F5F5F5F5F5F5F5F5F5F5F5F5F5F5F5F5F5F5F5F5F5F5F5F5F5F5F5F5F5F5F5F5F5F5F5F5F5F5F5F5F5F5F5F5F5F5F5F5F5F5F5F5F5F5F5F5F5F5F5F5F5F5F5F5F5F5F5F5F5F5F5F5F5F5F5F5F5F5F5F5E2F5F5F5F5F5F5F5F5F5
310
F5F5F5F5F5F5F5E2F5F5F5F5E2E2F5F5F5F5E2F5F5F5F5F5F5F5F5F5F5F5F5F5F5F5F5E2F5F5F5F5F5F5F5F5F5F5F5F5F5F5F5F5F5F5F5F5F5F5F5F5F5F5F5F5F5F5F5F5F5F5F5F5F5F5F5F5F5F5F5F5F5F5F5F5F5F5F5F5F5F5F5F5F5F5F5F5F5F5F5F5F5F5F5F5F5F5F5F5F5F5F5F5F5F5F5F5F5F5F5F5F5F5F5F5F5F5F5
310
F5F5F5F5F5F5F5F5F5F5F5F5F5F5F5F5F5F5F5F5F5F5F5F5F5F5F5F5F5F5F5F5F5F5F5F5F5F5F5F5F5F5F5E2F5F5F5F5F5F5F5F5F5F5F5F5F5F5F5F5E2F5F5F5F5E2E2F5F5F5F5E2F5F5F5F5F5F5F5F5F5F5F5F5F5F5F5F5E2F5F5F5F5F5F5F5F5F5F5F5F5F5F5F5F5F5F5F5F5F5F5F5F5F5F5F5F5F5F5F5F5F5F5F5F5F5F5
310
F5F5F5F5F5F5F5F5F5F5F5F5F5F5F5F5F5F5F5F5F5F5F5F5F5F5F5F5F5F5F5F5F5F5F5F5F5F5F5F5F5F5F5F5F5F5F5F5F5F5F5F5F5F5F5F5F5F5F5F5F5F5F5F5F5F5F5F5F5F5F5F5F5F5F5F5F5F5F5F5F5F5F5F5F5F5F5F5F5F5F5F5F5F5F5F5E2F5F5F5F5F5F5F5F5F5F5F5F5F5F5F5F5E2F5F5F5F5E2E2F5F5F5F5E2F5F5
310
F5F5F5F5F5F5F5F5F5F5F5F5F5F5E2F5F5F5F5F5F5F5F5F5F5F5F5F5F5F5F5F5F5F5F5F5F5F5F5F5F5F5F5F5F5F5F5F5F5F5F5F5F5F5F5F5F5F5F5F5F5F5F5F5F5F5F5F5F5F5F5F5F5F5F5F5F5F5F5F5F5F5F5F5F5F5F5F5F5F5F5F5F5F5F5F5F5F5F5F5F5F5F5F5F5F5F5F5F5F5F5F5F5F5F5F5F5F5F5F5F5F5F5F5F5F5F5
310
F5F5F5F5F5F5F5F5F5F5F5F5F5F5F5F5F5F5F5F5F5F5E2F5F5F5F5F5F5F5F5F5F5F5F5F5F5F5F5E2F5F5F5F5E2E2F5F5F5F5F5F5F5F5F5F5F5F5F5F5F5F5F5F5F5F5F5E2F5F5F5F5F5F5F5F5F5F5F5F5F5F5F5F5F5F5F5F5F5F5F5F5F5F5F5F5F5F5F5F5F5F5F5F5F5F5F5F5F5F5F5F5F5F5F5F5F5F5F5F5F5F5F5F5F5F5F5
310
F5F5F5F5F5F5F5F5F5F5F5F5F5F5F5F5F5F5F5F5F5F5F5F5F5F5F5F5F5F5F5F5F5F5F5F5F5F5F5F5F5F5F5F5F5F5F5F5F5F5F5F5F5F5F5F5F5F5F5F5F5F5F5F5F5F5F5F5F5F5F5F5F5F5F5E2F5F5F5F5F5F5F5F5F5F5F5F5F5F5F5F5F5F5F5F5F5E2E2F5F5F5F5F5F5F5F5F5F5F5F5F5F5F5F5F5F5F5F5F5E2F5F5F5F5F5F5
310
F5F5F5F5F5F5F5F5F5F5F5F5F5F5F5F5F5F5F5F5F5F5F5F5F5F5F5F5F5F5F5F5F5F5F5F5F5F5F5F5F5F5F5F5F5F5F5F5F5F5F5F5F5F5F5F5F5F5F5F5F5F5F5F5F5F5F5F5F5F5F5F5F5F5F5F5F5F5F5F5F5F5F5F5F5F5F5F5F5F5F5F5F5F5F5F5F5F5F5F5F5F5F5F5F5F5F5F5F5F5F5F5F5F5F5F5F5F5F5F5F5F5F5F5F5F5F5
310
F5E2F5F5F5F5F5F5F5F5F5F5F5F5F5F5F5F5F5F5F5F5F5E2E2F5F5F5F5F5F5F5F5F5F5F5F5F5F5F5F5F5F5F5F5F5E2F5F5F5F5F5F5F5F5F5F5F5F5F5F5F5F5F5F5F5F5F5F5F5F5F5F5F5F5F5F5F5F5F5F5F5F5F5F5F5F5F5F5F5F5F5F5F5F5F5F5F5F5F5F5F5F5F5F5F5F5F5F5F5F5F5F5F5F5F5F5F5F5F5F5F5F5F5F5F5F5
310
F5F5F5F5F5F5F5F5F5F5F5F5F5F5F5F5F5F5F5F5F5F5F5F5F5F5F5F5F5F5F5F5F5F5F5F5F5F5F5F5F5F5F5F5F5F5F5F5F5F5F5F5F5F5E2F5F5F5F5F5F5F5F5F5F5F5F5F5F5F5F5F5F5F5F5F5E2E2F5F5F5F5F5F5F5F5F5F5F5F5F5F5F5F5F5F5F5F5F5E2F5F5F5F5F5F5F5F5F5F5F5F5F5F5F5F5F5F5F5F5F5F5F5F5F5F5F5
310
F5F5F5F5F5F5F5F5F5F5F5F5F5F5F5F5F5F5F5F5F5F5F5F5F5F5F5F5F5F5F5F5F5F5F5F5F5F5F5F5F5F5F5F5F5F5F5F5F5F5F5F5F5F5F5F5F5F5F5F5F5F5F5F5F5F5F5F5F5F5F5F5F5F5F5F5F5F5F5F5F5F5F5F5F5F5F5F5F5F5F5F5F5F5F5F5F5F5F5F5F5F5F5F5F5F5F5E2F5F5F5F5F5F5F5F5F5F5F5F5F5F5F5F5F5F5F5
310
F5F5E2E2F5F5F5F5F5F5F5F5F5F5F5F5F5F5F5F5F5F5F5F5F5E2F5F5F5F5F5F5F5F5F5F5F5F5F5F5F5F5F5F5F5F5F5F5F5F5F5F5F5F5F5F5F5F5F5F5F5F5F5F5F5F5F5F5F5F5F5F5F5F5F5F5F5F5F5F5F5F5F5F5F5F5F5F5F5F5F5F5F5F5F5F5F5F5F5F5F5F5F5F5F5F5F5F5F5F5F5F5F5F5F5F5F5F5F5F5F5F5F5F5F5F5F5
310
F5F5F5F5F5F5F5F5F5F5F5F5F5F5F5F5F5F5F5F5F5F5F5F5F5F5F5F5F5F5F5F5F5E2F5F5F5F5F5F5F5F5F5F5F5F5F5F5F5F5F5F5F5F5F5E2E2F5F5F5F5F5F5F5F5F5F5F5F5F5F5F5F5F5F5F5F5F5E2F5F5F5F5F5F5F5F5F5F5F5F5F5F5F5F5F5F5F5F5F5F5F5F5F5F5F5F5F5F5F5F5F5F5F5F5F5F5F5F5F5F5F5F5F5F5F5F5
310
F5F5F5F5F5F5F5F5F5F5F5F5F5F5F5F5F5F5F5F5F5F5F5F5F5F5F5F5F5F5F5F5F5F5F5F5F5F5F5F5F5F5F5F5F5F5F5F5F5F5F5F5F5F5F5F5F5F5F5F5F5F5F5F5F5F5F5F5F5F5F5F5F5F5F5F5F5F5F5F5F5F5F5F5F5F5E2F5F5F5F5F5F5F5F5F5F5F5F5F5F5F5F5F5F5F5F5F5E2E2F5F5F5F5F5F5F5F5F5F5F5F5F5F5F5F5F5
310
F5F5F5F5E2F5F5F5F5F5F5F5F5F5F5F5F5F5F5F5F5F5F5F5F5F5F5F5F5F5F5F5F5F5F5F5F5F5F5F5F5F5F5F5F5F5F5F5F5F5F5F5F5F5F5F5F5F5F5F5F5F5F5F5F5F5F5F5F5F5F5F5F5F5F5F5F5F5F5F5F5F5F5F5F5F5F5F5F5F5F5F5F5F5F5F5F5F5F5F5F5F5F5F5F5F5F5F5F5F5F5F5F5F5F5F5F5F5F5F5F5F5F5F5F5F5F5
310
F5F5F5F5F5F5F5F5F5F5F5F5E2F5F5F5F5F5F5F5F5F5F5F5F5F5F5F5F5F5F5F5F5F5E2E2F5F5F5F5F5F5F5F5F5F5F5F5F5F5F5F5F5F5F5F5F5E2F5F5F5F5F5F5F5F5F5F5F5F5F5F5F5F5F5F5F5F5F5F5F5F5F5F5F5F5F5F5F5F5F5F5F5F5F5F5F5F5F5F5F5F5F5F5F5F5F5F5F5F5F5F5F5F5F5F5F5F5F5F5F5F5F5F5F5F5F5
310
F5F5F5F5F5F5F5F5F5F5F5F5F5F5F5F5F5F5F5F5F5F5F5F5F5F5F5F5F5F5F5F5F5F5F5F5F5F5F5F5F5F5F5F5F5F5F5F5F5F5F5F5F5F5F5F5F5F5F5F5F5F5F5F5F5E2F5F5F5F5F5F5F5F5F5F5F5F5F5F5F5F5F5F5F5F5F5E2E2F5F5F5F5F5F5F5F5F5F5F5F5F5F5F5F5F5F5F5F5F5E2F5F5F5F5F5F5F5F5F5F5F5F5F5F5F5F5
310
F5F5F5F5F5F5F5F5F5F5F5F5F5F5F5F5F5F5F5F5F5F5F5F5F5F5F5F5F5F5F5F5F5F5F5F5F5F5F5F5F5F5F5F5F5F5F5F5F5F5F5F5F5F5F5F5F5F5F5F5F5F5F5F5F5F5F5F5F5F5F5F5F5F5F5F5F5F5F5F5F5F5F5F5F5F5F5F5F5F5F5F5F5F5F5F5F5F5F5F5F5F5F5F5F5F5F5F5F5F5F5F5F5F5F5F5F5F5E2F5F5F5F5F5F5F5F5
310
F5F5F5F5F5F5F5F5F5F5F5F5F5E2E2F5F5F5F5E2F5F5F5F5F5F5F5F5F5F5F5F5F5F5F5F5E2F5F5F5F5F5F5F5F5F5F5F5F5F5F5F5F5F5F5F5F5F5F5F5F5F5F5F5F5F5F5F5F5F5F5F5F5F5F5F5F5F5F5F5F5F5F5F5F5F5F5F5F5F5F5F5F5F5F5F5F5F5F5F5F5F5F5F5F5F5F5F5F5F5F5F5F5F5F5F5F5F5F5F5F5F5F5F5F5F5F5
310
F5F5F5F5F5F5F5F5F5F5F5F5F5F5F5F5F5F5F5F5F5F5F5F5F5F5F5F5F5F5F5F5F5F5F5F5F5F5F5F5F5F5F5F5E2F5F5F5F5F5F5F5F5F5F5F5F5F5F5F5F5E2F5F5F5F5E2E2F5F5F5F5E2F5F5F5F5F5F5F5F5F5F5F5F5F5F5F5F5E2F5F5F5F5F5F5F5F5F5F5F5F5F5F5F5F5F5F5F5F5F5F5F5F5F5F5F5F5F5F5F5F5F5F5F5F5F5
310
F5F5F5F5F5F5F5F5F5F5F5F5F5F5F5F5F5F5F5F5F5F5F5F5F5F5F5F5F5F5F5F5F5F5F5F5F5F5F5F5F5F5F5F5F5F5F5F5F5F5F5F5F5F5F5F5F5F5F5F5F5F5F5F5F5F5F5F5F5F5F5F5F5F5F5F5F5F5F5F5F5F5F5F5F5F5F5F5F5F5F5F5F5F5F5F5F5E2F5F5F5F5F5F5F5F5F5F5F5F5F5F5F5F5E2F5F5F5F5E2E2F5F5F5F5E2F5
310
F5F5F5F5F5F5F5F5F5F5F5F5F5F5F5E2F5F5F5F5F5F5F5F5F5F5F5F5F5F5F5F5F5F5F5F5F5F5F5F5F5F5F5F5F5F5F5F5F5F5F5F5F5F5F5F5F5F5F5F5F5F5F5F5F5F5F5F5F5F5F5F5F5F5F5F5F5F5F5F5F5F5F5F5F5F5F5F5F5F5F5F5F5F5F5F5F5F5F5F5F5F5F5F5F5F5F5F5F5F5F5F5F5F5F5F5F5F5F5F5F5F5F5F5F5F5F5
310
F5F5F5F5F5F5F5F5F5F5F5F5F5F5F5F5F5F5F5F5F5F5F5E2F5F5F5F5F5F5F5F5F5F5F5F5F5F5F5F5E2F5F5F5F5E2E2F5F5F5F5E2F5F5F5F5F5F5F5F5F5F5F5F5F5F5F5F5E2F5F5F5F5F5F5F5F5F5F5F5F5F5F5F5F5F5F5F5F5F5F5F5F5F5F5F5F5F5F5F5F5F5F5F5F5F5F5F5F5F5F5F5F5F5F5F5F5F5F5F5F5F5F5F5F5F5F5
310
F5F5F5F5F5F5F5F5F5F5F5F5F5F5F5F5F5F5F5F5F5F5F5F5F5F5F5F5F5F5F5F5F5F5F5F5F5F5F5F5F5F5F5F5F5F5F5F5F5F5F5F5F5F5F5F5F5F5F5F5F5F5F5F5F5F5F5F5F5F5F5F5F5F5F5F5E2F5F5F5F5F5F5F5F5F5F5F5F5F5F5F5F5E2F5F5F5F5E2E2F5F5F5F5E2F5F5F5F5F5F5F5F5F5F5F5F5F5F5F5F5E2F5F5F5F5F5
310
F5F5F5F5F5F5F5F5F5F5F5F5F5F5F5F5F5F5F5F5F5F5F5F5F5F5F5F5F5F5F5F5F5F5F5F5F5F5F5F5F5F5F5F5F5F5F5F5F5F5F5F5F5F5F5F5F5F5F5F5F5F5F5F5F5F5F5F5F5F5F5F5F5F5F5F5F5F5F5F5F5F5F5F5F5F5F5F5F5F5F5F5F5F5F5F5F5F5F5F5F5F5F5F5F5F5F5F5F5F5F5F5F5F5F5F5F5F5F5F5F5F5F5F5F5F5F5
310
F5F5E2F5F5F5F5F5F5F5F5F5F5F5F5F5F5F5F5E2F5F5F5F5E2E2F5F5F5F5E2F5F5F5F5F5F5F5F5F5F5F5F5F5F5F5F5E2F5F5F5F5F5F5F5F5F5F5F5F5F5F5F5F5F5F5F5F5F5F5F5F5F5F5F5F5F5F5F5F5F5F5F5F5F5F5F5F5F5F5F5F5F5F5F5F5F5F5F5F5F5F5F5F5F5F5F5F5F5F5F5F5F5F5F5F5F5F5F5F5F5F5F5F5F5F5F5
310
F5F5F5F5F5F5F5F5F5F5F5F5F5F5F5F5F5F5F5F5F5F5F5F5F5F5F5F5F5F5F5F5F5F5F5F5F5F5F5F5F5F5F5F5F5F5F5F5F5F5F5F5F5F5F5E2F5F5F5F5F5F5F5F5F5F5F5F5F5F5F5F5E2F5F5F5F5E2E2F5F5F5F5E2F5F5F5F5F5F5F5F5F5F5F5F5F5F5F5F5E2F5F5F5F5F5F5F5F5F5F5F5F5F5F5F5F5F5F5F5F5F5F5F5F5F5F5
310
F5F5F5F5F5F5F5F5F5F5F5F5F5F5F5F5F5F5F5F5F5F5F5F5F5F5F5F5F5F5F5F5F5F5F5F5F5F5F5F5F5F5F5F5F5F5F5F5F5F5F5F5F5F5F5F5F5F5F5F5F5F5F5F5F5F5F5F5F5F5F5F5F5F5F5F5F5F5F5F5F5F5F5F5F5F5F5F5F5F5F5F5F5F5F5F5F5F5F5F5F5F5F5F5F5F5F5F5E2F5F5F5F5F5F5F5F5F5F5F5F5F5F5F5F5E2F5
310
F5F5F5E2E2F5F5F5F5E2F5F5F5F5F5F5F5F5F5F5F5F5F5F5F5F5E2F5F5F5F5F5F5F5F5F5F5F5F5F5F5F5F5F5F5F5F5F5F5F5F5F5F5F5F5F5F5F5F5F5F5F5F5F5F5F5F5F5F5F5F5F5F5F5F5F5F5F5F5F5F5F5F5F5F5F5F5F5F5F5F5F5F5F5F5F5F5F5F5F5F5F5F5F5F5F5F5F5F5F5F5F5F5F5F5F5F5F5F5F5F5F5F5F5F5F5F5
310
F5F5F5F5F5F5F5F5F5F5F5F5F5F5F5F5F5F5F5F5F5F5F5F5F5F5F5F5F5F5F5F5F5F5E2F5F5F5F5F5F5F5F5F5F5F5F5F5F5F5F5E2F5F5F5F5E2E2F5F5F5F5E2F5F5F5F5F5F5F5F5F5F5F5F5F5F5F5F5E2F5F5F5F5F5F5F5F5F5F5F5F5F5F5F5F5F5F5F5F5F5F5F5F5F5F5F5F5F5F5F5F5F5F5F5F5F5F5F5F5F5F5F5F5F5F5F5
310
F5F5F5F5F5F5F5F5F5F5F5F5F5F5F5F5F5F5F5F5F5F5F5F5F5F5F5F5F5F5F5F5F5F5F5F5F5F5F5F5F5F5F5F5F5F5F5F5F5F5F5F5F5F5F5F5F5F5F5F5F5F5F5F5F5F5F5F5F5F5F5F5F5F5F5F5F5F5F5F5F5F5F5F5F5F5F5E2F5F5F5F5F5F5F5F5F5F5F5F5F5F5F5F5E2F5F5F5F5E2E2F5F5F5F5E2F5F5F5F5F5F5F5F5F5F5F5
310
F5F5F5F5F5E2F5F5F5F5F5F5F5F5F5F5F5F5F5F5F5F5F5F5F5F5F5F5F5F5F5F5F5F5F5F5F5F5F5F5F5F5F5F5F5F5F5F5F5F5F5F5F5F5F5F5F5F5F5F5F5F5F5F5F5F5F5F5F5F5F5F5F5F5F5F5F5F5F5F5F5F5F5F5F5F5F5F5F5F5F5F5F5F5F5F5F5F5F5F5F5F5F5F5F5F5F5F5F5F5F5F5F5F5F5F5F5F5F5F5F5F5F5F5F5F5F5
310
F5F5F5F5F5F5F5F5F5F5F5F5F5E2F5F5F5F5F5F5F5F5F5F5F5F5F5F5F5F5E2F5F5F5F5E2E2F5F5F5F5E2F5F5F5F5F5F5F5F5F5F5F5F5F5F5F5F5E2F5F5F5F5F5F5F5F5F5F5F5F5F5F5F5F5F5F5F5F5F5F5F5F5F5F5F5F5F5F5F5F5F5F5F5F5F5F5F5F5F5F5F5F5F5F5F5F5F5F5F5F5F5F5F5F5F5F5F5F5F5F5F5F5F5F5F5F5
310
F5F5F5F5F5F5F5F5F5F5F5F5F5F5F5F5F5F5F5F5F5F5F5F5F5F5F5F5F5F5F5F5F5F5F5F5F5F5F5F5F5F5F5F5F5F5F5F5F5F5F5F5F5F5F5F5F5F5F5F5F5F5F5F5F5F5E2F5F5F5F5F5F5F5F5F5F5F5F5F5F5F5F5E2F5F5F5F5E2E2F5F5F5F5E2F5F5F5F5F5F5F5F5F5F5F5F5F5F5F5F5E2F5F5F5F5F5F5F5F5F5F5F5F5F5F5F5
310
F5F5F5F5F5F5F5F5F5F5F5F5F5F5F5F5F5F5F5F5F5F5F5F5F5F5F5F5F5F5F5F5F5F5F5F5F5F5F5F5F5F5F5F5F5F5F5F5F5F5F5F5F5F5F5F5F5F5F5F5F5F5F5F5F5F5F5F5F5F5F5F5F5F5F5F5F5F5F5F5F5F5F5F5F5F5F5F5F5F5F5F5F5F5F5F5F5F5F5F5F5F5F5F5F5F5F5F5F5F5F5F5F5F5F5F5F5F5F5E2F5F5F5F5F5F5F5
310
F5F5F5F5F5F5F5F5F5E2F5F5F5F5E2E2F5F5F5F5E2F5F5F5F5F5F5F5F5F5F5F5F5F5F5F5F5E2F5F5F5F5F5F5F5F5F5F5F5F5F5F5F5F5F5F5F5F5F5F5F5F5F5F5F5F5F5F5F5F5F5F5F5F5F5F5F5F5F5F5F5F5F5F5F5F5F5F5F5F5F5F5F5F5F5F5F5F5F5F5F5F5F5F5F5F5F5F5F5F5F5F5F5F5F5F5F5F5F5F5F5F5F5F5F5F5F5
310
F5F5F5F5F5F5F5F5F5F5F5F5F5F5F5F5F5F5F5F5F5F5F5F5F5F5F5F5F5F5F5F5F5F5F5F5F5F5F5F5F5F5F5F5F5E2F5F5F5F5F5F5F5F5F5F5F5F5F5F5F5F5E2F5F5F5F5E2E2F5F5F5F5E2F5F5F5F5F5F5F5F5F5F5F5F5F5F5F5F5E2F5F5F5F5F5F5F5F5F5F5F5F5F5F5F5F5F5F5F5F5F5F5F5F5F5F5F5F5F5F5F5F5F5F5F5F5
310
F5F5F5F5F5F5F5F5F5F5F5F5F5F5F5F5F5F5F5F5F5F5F5F5F5F5F5F5F5F5F5F5F5F5F5F5F5F5F5F5F5F5F5F5F5F5F5F5F5F5F5F5F5F5F5F5F5F5F5F5F5F5F5F5F5F5F5F5F5F5F5F5F5F5F5F5F5F5F5F5F5F5F5F5F5F5F5F5F5F5F5F5F5F5F5F5F5F5E2F5F5F5F5F5F5F5F5F5F5F5F5F5F5F5F5E2F5F5F5F5E2E2F5F5F5F5E2
310
F5F5F5F5F5F5F5F5F5F5F5F5F5F5F5F5E2F5F5F5F5F5F5F5F5F5F5F5F5F5F5F5F5F5F5F5F5F5F5F5F5F5F5F5F5F5F5F5F5F5F5F5F5F5F5F5F5F5F5F5F5F5F5F5F5F5F5F5F5F5F5F5F5F5F5F5F5F5F5F5F5F5F5F5F5F5F5F5F5F5F5F5F5F5F5F5F5F5F5F5F5F5F5F5F5F5F5F5F5F5F5F5F5F5F5F5F5F5F5F5F5F5F5F5F5F5F5
310
F5F5F5F5F5F5F5F5F5F5F5F5F5F5F5F5F5F5F5F5F5F5F5F5E2F5F5F5F5F5F5F5F5F5F5F5F5F5F5F5F5E2F5F5F5F5E2E2F5F5F5F5E2F5F5F5F5F5F5F5F5F5F5F5F5F5F5F5F5E2F5F5F5F5F5F5F5F5F5F5F5F5F5F5F5F5F5F5F5F5F5F5F5F5F5F5F5F5F5F5F5F5F5F5F5F5F5F5F5F5F5F5F5F5F5F5F5F5F5F5F5F5F5F5F5F5F5
310
F5F5F5F5F5F5F5F5F5F5F5F5F5F5F5F5F5F5F5F5F5F5F5F5F5F5F5F5F5F5F5F5F5F5F5F5F5F5F5F5F5F5F5F5F5F5F5F5F5F5F5F5F5F5F5F5F5F5F5F5F5F5F5F5F5F5F5F5F5F5F5F5F5F5F5F5F5E2F5F5F5F5F5F5F5F5F5F5F5F5F5F5F5F5E2F5F5F5F5E2E2F5F5F5F5E2F5F5F5F5F5F5F5F5F5F5F5F5F5F5F5F5E2F5F5F5F5
310
F5F5F5F5F5F5F5F5F5F5F5F5F5F5F5F5F5F5F5F5F5F5F5F5F5F5F5F5F5F5F5F5F5F5F5F5F5F5F5F5F5F5F5F5F5F5F5F5F5F5F5F5F5F5F5F5F5F5F5F5F5F5F5F5F5F5F5F5F5F5F5F5F5F5F5F5F5F5F5F5F5F5F5F5F5F5F5F5F5F5F5F5F5F5F5F5F5F5F5F5F5F5F5F5F5F5F5F5F5F5F5F5F5F5F5F5F5F5F5F5F5F5F5F5F5F5F5
310
F5F5F5E2F5F5F5F5F5F5F5F5F5F5F5F5F5F5F5F5E2F5F5F5F5E2E2F5F5F5F5F5F5F5F5F5F5F5F5F5F5F5F5F5F5F5F5F5E2F5F5F5F5F5F5F5F5F5F5F5F5F5F5F5F5F5F5F5F5F5F5F5F5F5F5F5F5F5F5F5F5F5F5F5F5F5F5F5F5F5F5F5F5F5F5F5F5F5F5F5F5F5F5F5F5F5F5F5F5F5F5F5F5F5F5F5F5F5F5F5F5F5F5F5F5F5F5
310
F5F5F5F5F5F5F5F5F5F5F5F5F5F5F5F5F5F5F5F5F5F5F5F5F5F5F5F5F5F5F5F5F5F5F5F5F5F5F5F5F5F5F5F5F5F5F5F5F5F5F5F5F5F5F5F5E2F5F5F5F5F5F5F5F5F5F5F5F5F5F5F5F5F5F5F5F5F5E2E2F5F5F5F5F5F5F5F5F5F5F5F5F5F5F5F5F5F5F5F5F5E2F5F5F5F5F5F5F5F5F5F5F5F5F5F5F5F5F5F5F5F5F5F5F5F5F5
310
F5F5F5F5F5F5F5F5F5F5F5F5F5F5F5F5F5F5F5F5F5F5F5F5F5F5F5F5F5F5F5F5F5F5F5F5F5F5F5F5F5F5F5F5F5F5F5F5F5F5F5F5F5F5F5F5F5F5F5F5F5F5F5F5F5F5F5F5F5F5F5F5F5F5F5F5F5F5F5F5F5F5F5F5F5F5F5F5F5F5F5F5F5F5F5F5F5F5F5F5F5F5F5F5F5F5F5F5F5E2F5F5F5F5F5F5F5F5F5F5F5F5F5F5F5F5F5
310
F5F5F5F5E2E2F5F5F5F5F5F5F5F5F5F5F5F5F5F5F5F5F5F5F5F5F5E2F5F5F5F5F5F5F5F5F5F5F5F5F5F5F5F5F5F5F5F5F5F5F5F5F5F5F5F5F5F5F5F5F5F5F5F5F5F5F5F5F5F5F5F5F5F5F5F5F5F5F5F5F5F5F5F5F5F5F5F5F5F5F5F5F5F5F5F5F5F5F5F5F5F5F5F5F5F5F5F5F5F5F5F5F5F5F5F5F5F5F5F5F5F5F5F5F5F5F5
310
F5F5F5F5F5F5F5F5F5F5F5F5F5F5F5F5F5F5F5F5F5F5F5F5F5F5F5F5F5F5F5F5F5F5F5E2F5F5F5F5F5F5F5F5F5F5F5F5F5F5F5F5F5F5F5F5F5E2E2F5F5F5F5F5F5F5F5F5F5F5F5F5F5F5F5F5F5F5F5F5E2F5F5F5F5F5F5F5F5F5F5F5F5F5F5F5F5F5F5F5F5F5F5F5F5F5F5F5F5F5F5F5F5F5F5F5F5F5F5F5F5F5F5F5F5F5F5
310
F5F5F5F5F5F5F5F5F5F5F5F5F5F5F5F5F5F5F5F5F5F5F5F5F5F5F5F5F5F5F5F5F5F5F5F5F5F5F5F5F5F5F5F5F5F5F5F5F5F5F5F5F5F5F5F5F5F5F5F5F5F5F5F5F5F5F5F5F5F5F5F5F5F5F5F5F5F5F5F5F5F5F5F5F5F5F5F5E2F5F5F5F5F5F5F5F5F5F5F5F5F5F5F5F5F5F5F5F5F5E2E2F5F5F5F5F5F5F5F5F5F5F5F5F5F5F5
310
F5F5F5F5F5F5E2E2E2E2E2E2E2E2E2E2E2E2E2E2E2E2E2E2E2E2E2E2E2E2E2E2E2E2E2E2E2E2E2E2E2E2E2E2E2E2E2E2E2E2E2E2E2E2E2E2E2E2E2E2E2E2E2E2E2E2E2E2E2E2E2E2E2E2E2E2E2E2E2E2E2E2E2E2E2E2E2E2E2E2E2E2E2E2E2E2E2E2E2E2E2E2E2E2E2E2E2E2E2E2E2E2E2E2E2E2E2E2E2E2E2E2E2E2E2E2E2
310
E2E2E2E2E2E2E2E2E2E2E2E2E2E2E2F5F5F5F5F5F5F5F5F5F5F5F5F5F5F5F5F5F5F5F5F5E2E2F5F5F5F5F5F5F5F5F5F5F5F5F5F5F5F5F5F5F5F5F5F5F5F5F5F5F5F5F5F5F5F5F5F5F5F5F5F5F5F5F5F5F5F5F5F5F5F5F5F5F5F5F5F5F5F5F5F5F5F5F5F5F5F5F5F5F5F5F5F5F5F5F5F5F5F5F5F5F5F5F5F5F5F5F5F5F5F5F5
310
F5F5F5F5F5F5F5F5F5F5F5F5F5F5F5F5F5F5F5F5F5F5F5F5F5F5F5F5F5F5F5F5F5F5F5F5F5F5F5F5F5F5F5F5F5F5F5F5F5F5F5F5F5F5F5F5F5F5F5F5F5F5F5F5F5F5F5F5F5F5F5F5F5F5F5F5F5F5F5F5F5F5F5F5F5F5F5F5F5E2E2F5F5F5F5F5F5F5F5F5F5F5F5F5F5F5F5F5F5F5F5F5F5F5F5F5F5F5F5F5F5F5F5F5F5F5F5
310
F5F5F5F5F5F5F5F5F5F5F5F5F5F5F5F5F5F5F5F5F5F5F5F5F5F5F5F5F5F5F5F5F5F5F5F5F5F5F5F5F5F5F5F5F5F5F5F5F5F5F5F5F5F5F5F5F5F5F5F5F5F5F5F5F5F5F5F5F5F5F5F5F5F5F5F5F5F5F5F5F5F5F5F5F5F5F5F5F5F5F5F5F5F5F5F5F5F5F5F5F5F5F5F5F5F5F5F5F5F5F5F5F5F5F5F5F5F5F5F5F5F5F5F5F5F5F5
310
F5F5F5F5F5F5F5F5F5F5F5F5F5F5F5E2E2F5F5F5F5F5F5F5F5F5F5F5F5F5F5F5F5F5F5F5F5F5F5F5F5F5F5F5F5F5F5F5F5F5F5F5F5F5F5F5F5F5F5F5F5F5F5F5F5F5F5F5F5F5F5F5F5F5F5F5F5F5F5F5F5F5F5F5F5F5F5F5F5F5F5F5F5F5F5F5F5F5F5F5F5F5F5F5F5F5F5F5F5F5F5F5F5F5F5F5F5F5F5F5F5F5F5F5F5F5F5
310
F5F5F5F5F5F5F5F5F5F5F5F5F5F5F5F5F5F5F5F5F5F5F5F5F5F5F5F5F5F5F5F5F5F5F5F5F5F5F5F5F5F5F5F5F5F5F5F5F5F5F5F5F5F5F5F5F5F5F5F5F5F5F5F5F5F5F5F5E2E2F5F5F5F5F5F5F5F5F5F5F5F5F5F5F5F5F5F5F5F5F5F5F5F5F5F5F5F5F5F5F5F5F5F5F5F5F5F5F5F5F5F5F5F5F5F5F5F5F5F5F5F5F5F5F5F5F5
310
F5F5F5F5F5F5F5F5F5F5F5F5F5F5F5F5F5F5F5F5F5F5F5F5F5F5F5F5F5F5F5F5F5F5F5F5F5F5F5F5F5F5F5F5F5F5F5F5F5F5F5F5F5F5F5F5F5F5F5F5F5F5F5F5F5F5F5F5F5F5F5F5F5F5F5F5F5F5F5F5F5F5F5F5F5F5F5F5F5F5F5F5F5F5F5F5F5F5F5F5F5F5F5F5F5F5F5F5F5F5F5F5F5F5F5F5F5F5F5F5F5E2E2F5F5F5F5
310
E2F5F5F5F5F5F5F5F5F5F5F5F5F5F5F5F5F5F5F5F5F5F5F5F5F5F5F5F5F5F5F5F5F5F5F5F5F5F5F5F5F5F5F5F5F5F5F5F5F5F5F5F5F5F5F5F5F5F5F5F5F5F5F5F5F5F5F5F5F5F5F5F5F5F5F5F5F5F5F5F5F5F5F5F5F5F5F5F5F5F5F5F5F5F5F5F5F5F5F5F5F5F5F5F5F5F5F5F5F5F5F5F5F5F5F5F5F5F5F5F5F5F5F5F5F5F5
310
F5F5F5F5F5F5F5F5F5F5F5F5F5F5F5F5F5F5F5F5F5F5F5F5F5F5F5F5F5F5F5F5F5F5F5F5F5F5F5F5F5F5E2F5F5F5F5E2E2F5F5F5F5E2F5F5F5F5F5F5F5F5F5F5F5F5F5F5F5F5F5F5F5F5F5F5F5F5F5F5F5F5F5F5F5F5F5F5F5F5F5F5F5F5F5F5F5F5F5F5F5F5F5F5F5F5F5F5F5F5F5F5F5F5F5F5F5F5F5F5F5F5F5F5F5F5F5
310
F5F5F5F5F5F5F5F5F5F5F5F5F5F5F5F5F5F5F5F5F5F5F5F5F5F5F5F5F5F5F5F5F5F5F5F5F5F5F5F5F5F5F5F5F5F5F5F5F5F5F5F5F5F5F5F5F5F5F5F5F5F5F5F5F5F5F5F5F5F5F5F5F5F5F5F5F5F5F5F5F5F5F5F5F5F5F5F5F5F5F5F5F5F5F5E2F5F5F5F5E2E2F5F5F5F5E2F5F5F5F5F5F5F5F5F5F5F5F5F5F5F5F5F5F5F5F5
310
F5F5F5F5F5F5F5F5F5F5F5F5F5F5F5F5F5F5F5F5F5F5F5F5F5F5F5F5F5F5F5F5F5F5F5F5F5F5F5F5F5F5F5F5F5F5F5F5F5F5F5F5F5F5F5F5F5F5F5F5F5F5F5F5F5F5F5F5F5F5F5F5F5F5F5F5F5F5F5F5F5F5F5F5F5F5F5F5F5F5F5F5F5F5F5F5F5F5F5F5F5F5F5F5F5F5F5F5F5F5F5F5F5F5F5F5F5F5F5F5F5F5F5F5F5F5F5
310
F5F5F5F5F5F5F5F5F5F5F5F5F5F5F5F5F5F5F5F5F5E2F5F5F5F5E2E2F5F5F5F5E2F5F5F5F5F5F5F5F5F5F5F5F5F5F5F5F5F5F5F5F5F5F5F5F5F5F5F5F5F5F5F5F5F5F5F5F5F5F5F5F5F5F5F5F5F5F5F5F5F5F5F5F5F5F5F5F5F5F5F5F5F5F5F5F5F5F5F5F5F5F5F5F5F5F5F5F5F5F5F5F5F5F5F5F5F5F5F5F5F5F5F5F5F5F5
310
F5F5F5F5F5F5F5F5F5F5F5F5F5F5F5F5F5F5F5F5F5F5F5F5F5F5F5F5F5F5F5F5F5F5F5F5F5F5F5F5F5F5F5F5F5F5F5F5F5F5F5F5F5F5F5F5F5F5F5F5F5F5F5F5F5F5F5F5F5F5F5F5F5F5E2F5F5F5F5E2E2F5F5F5F5E2F5F5F5F5F5F5F5F5F5F5F5F5F5F5F5F5F5F5F5F5F5F5F5F5F5F5F5F5F5F5F5F5F5F5F5F5F5F5F5F5F5
310
F5F5F5F5F5F5F5F5F5F5F5F5F5F5F5F5F5F5F5F5F5F5F5F5F5F5F5F5F5F5F5F5F5F5F5F5F5F5F5F5F5F5F5F5F5F5F5F5F5F5F5F5F5F5F5F5F5F5F5F5F5F5F5F5F5F5F5F5F5F5F5F5F5F5F5F5F5F5F5F5F5F5F5F5F5F5F5F5F5F5F5F5F5F5F5F5F5F5F5F5F5F5F5F5F5F5F5F5F5F5F5F5F5F5F5F5F5F5F5F5F5F5F5F5F5F5F5
310
E2F5F5F5F5E2E2F5F5F5F5E2F5F5F5F5F5F5F5F5F5F5F5F5F5F5F5F5F5F5F5F5F5F5F5F5F5F5F5F5F5F5F5F5F5F5F5F5F5F5F5F5F5F5F5F5F5F5F5F5F5F5F5F5F5F5F5F5F5F5F5F5F5F5F5F5F5F5F5F5F5F5F5F5F5F5F5F5F5F5F5F5F5F5F5F5F5F5F5F5F5F5F5F5F5F5F5F5F5F5F5F5F5F5F5F5F5F5F5F5F5F5F5F5F5F5F5
310
F5F5F5F5F5F5F5F5F5F5F5F5F5F5F5F5F5F5F5F5F5F5F5F5F5F5F5F5F5F5F5F5F5F5F5F5F5F5F5F5F5F5F5F5F5F5F5F5F5F5F5F5F5E2F5F5F5F5E2E2F5F5F5F5E2F5F5F5F5F5F5F5F5F5F5F5F5F5F5F5F5F5F5F5F5F5F5F5F5F5F5F5F5F5F5F5F5F5F5F5F5F5F5F5F5F5F5F5F5F5F5F5F5F5F5F5F5F5F5F5F5F5F5F5F5F5F5
310
F5F5F5F5F5F5F5F5F5F5F5F5F5F5F5F5F5F5F5F5F5F5F5F5F5F5F5F5F5F5F5F5F5F5F5F5F5F5F5F5F5F5F5F5F5F5F5F5F5F5F5F5F5F5F5F5F5F5F5F5F5F5F5F5F5F5F5F5F5F5F5F5F5F5F5F5F5F5F5F5F5F5F5F5F5F5F5F5F5F5F5F5F5F5F5F5F5F5F5F5F5F5F5F5F5F5E2F5F5F5F5E2E2F5F5F5F5E2F5F5F5F5F5F5F5F5F5
310
F5F5F5F5F5F5F5F5F5F5F5F5F5F5F5F5F5F5F5F5F5F5F5F5F5F5F5F5F5F5F5F5F5F5F5F5F5F5F5F5F5F5F5F5F5F5F5F5F5F5F5F5F5F5F5F5F5F5F5F5F5F5F5F5F5F5F5F5F5F5F5F5F5F5F5F5F5F5F5F5F5F5F5F5F5F5F5F5F5F5F5F5F5F5F5F5F5F5F5F5F5F5F5F5F5F5F5F5F5F5F5F5F5F5F5F5F5F5F5F5F5F5F5F5F5F5F5
310
F5F5F5F5F5F5F5F5F5F5F5F5F5F5F5F5F5F5F5F5F5F5F5F5F5F5F5F5F5F5F5F5E2F5F5F5F5E2E2F5F5F5F5E2E2E2E2E2E2E2E2F5F5F5F5F5F5F5F5F5E2E2E2E2E2E2E2E2E2E2E2E2E2E2E2F5F5F5F5F5F5F5F5F5E2E2E2E2E2E2E2E2E2E2E2E2E2E2E2E2F5F5F5F5F5F5F5F5E2E2E2E2E2E2E2E2E2E2E2E2E2E2E2E2F5F5F5
310
F5F5F5F5F5E2E2E2E2E2E2E2E2E2E2E2E2E2E2E2E2F5F5F5F5F5F5F5F5E2E2E2E2E2E2E2E2E2E2E2E2E2E2E2E2F5F5F5F5F5F5F5F5F5E2E2E2E2E2E2E2E2E2E2E2E2E2E2E2F5F5F5F5F5F5F5F5F5E2E2E2E2E2E2E2E2F5F5F5F5E2E2F5F5F5F5F5F5F5F5F5F5F5F5F5F5F5F5F5F5F5F5F5F5F5F5F5F5F5F5F5F5F5F5F5F5F5
310
F5F5F5F5F5F5F5F5F5F5F5F5F5F5F5F5F5F5F5F5F5F5F5F5F5F5F5F5F5F5F5F5F5F5F5F5F5F5F5F5F5F5F5F5F5F5F5F5F5F5F5F5F5F5F5F5F5F5F5F5F5F5F5F5F5F5F5F5F5F5F5F5F5F5F5F5F5F5F5F5F5F5F5F5F5F5F5F5F5F5F5F5F5F5F5F5F5F5F5F5F5F5F5F5F5F5F5F5F5F5F5F5F5F5F5F5F5F5F5F5F5F5F5F5F5F5F5
310
F5F5F5F5F5F5F5F5F5F5F5F5F5F5F5F5E2E2F5F5F5F5F5F5F5F5F5F5F5F5F5F5F5F5F5F5F5F5F5F5F5F5F5F5F5F5F5F5F5F5F5F5F5F5F5F5F5F5F5F5F5F5F5F5F5F5F5F5F5F5F5F5F5F5F5F5F5F5F5F5F5F5F5F5F5F5F5F5F5F5F5F5F5F5F5F5F5F5F5F5F5F5F5F5F5F5F5F5F5F5F5F5F5F5F5F5F5F5F5F5F5F5F5F5F5F5F5
310
F5F5F5F5F5F5F5F5F5F5F5F5F5F5F5F5F5F5F5F5F5F5F5F5F5F5F5F5F5F5F5F5F5F5F5F5F5F5F5F5F5F5F5F5F5F5F5F5F5F5F5F5F5F5F5F5F5F5F5F5F5F5F5F5F5F5F5F5F5E2E2F5F5F5F5F5F5F5F5F5F5F5F5F5F5F5F5F5F5F5F5F5F5F5F5F5F5F5F5F5F5F5F5F5F5F5F5F5F5F5F5F5F5F5F5F5F5F5F5F5F5F5F5F5F5F5F5
310
F5F5F5F5F5F5F5F5F5F5F5F5F5F5F5F5F5F5F5F5F5F5F5F5F5F5F5F5F5F5F5F5F5F5F5F5F5F5F5F5F5F5F5F5F5F5F5F5F5F5F5F5F5F5F5F5F5F5F5F5F5F5F5F5F5F5F5F5F5F5F5F5F5F5F5F5F5F5F5F5F5F5F5F5F5F5F5F5F5F5F5F5F5F5F5F5F5F5F5F5F5F5F5F5F5F5F5F5F5F5F5F5F5F5F5F5F5F5F5F5F5F5E2E2E2E2E2
310
E2E2E2E2E2E2E2E2E2E2E2E2E2E2E2E2E2E2E2E2E2E2E2E2E2E2E2E2E2E2E2E2E2E2E2E2E2E2E2E2E2E2E2E2E2E2E2E2E2E2E2E2E2E2E2E2E2E2E2E2E2E2E2E2E2E2E2E2E2E2E2E2E2E2E2E2E2E2E2E2E2E2E2E2E2E2E2E2E2E2E2E2E2E2E2E2E2E2E2E2E2E2E2E2E2E2E2E2E2E2E2E2E2E2E2E2E2E2E2E2E2E2E2E2E2E2E2
310
E2E2E2E2E2E2E2E2E2E2E2E2E2E2E2E2E2E2E2E2E2E2E2E2E2E2E2E2E2E2E2E2E2E2E2E2E2E2E2E2E2E2E2E2E2E2E2E2E2
  0
XRECORD
  5
57020
102
{ACAD_REACTORS
330
B5
102
}
330
B5
100
AcDbXrecord
280
     1
102
SHADEPLOT
 70
     0
102
SHADEPLOTRESLEVEL
 70
     2
102
SHADEPLOTCUSTOMDPI
 70
   300
  0
XRECORD
  5
B6
102
{ACAD_REACTORS
330
B5
102
}
330
B5
100
AcDbXrecord
280
     1
310
28000000B40000008B0000000100080000000000BC610000000000000000000000010000000000000000000000000000FFFFFF000000000000000000000000000000000000000000000000000000000000000000330000006600000099000000CC000000FF00000000330000333300006633000099330000CC330000FF3300
310
0000660000336600006666000099660000CC660000FF66000000990000339900006699000099990000CC990000FF99000000CC000033CC000066CC000099CC0000CCCC0000FFCC000000FF000033FF000066FF000099FF0000CCFF0000FFFF000000003300330033006600330099003300CC003300FF003300003333003333
310
33006633330099333300CC333300FF33330000663300336633006666330099663300CC663300FF66330000993300339933006699330099993300CC993300FF99330000CC330033CC330066CC330099CC3300CCCC3300FFCC330000FF330033FF330066FF330099FF3300CCFF3300FFFF330000006600330066006600660099
310
006600CC006600FF00660000336600333366006633660099336600CC336600FF33660000666600336666006666660099666600CC666600FF66660000996600339966006699660099996600CC996600FF99660000CC660033CC660066CC660099CC6600CCCC6600FFCC660000FF660033FF660066FF660099FF6600CCFF6600
310
FFFF660000009900330099006600990099009900CC009900FF00990000339900333399006633990099339900CC339900FF33990000669900336699006666990099669900CC669900FF66990000999900339999006699990099999900CC999900FF99990000CC990033CC990066CC990099CC9900CCCC9900FFCC990000FF99
310
0033FF990066FF990099FF9900CCFF9900FFFF99000000CC003300CC006600CC009900CC00CC00CC00FF00CC000033CC003333CC006633CC009933CC00CC33CC00FF33CC000066CC003366CC006666CC009966CC00CC66CC00FF66CC000099CC003399CC006699CC009999CC00CC99CC00FF99CC0000CCCC0033CCCC0066CC
310
CC0099CCCC00CCCCCC00FFCCCC0000FFCC0033FFCC0066FFCC0099FFCC00CCFFCC00FFFFCC000000FF003300FF006600FF009900FF00CC00FF00FF00FF000033FF003333FF006633FF009933FF00CC33FF00FF33FF000066FF003366FF006666FF009966FF00CC66FF00FF66FF000099FF003399FF006699FF009999FF00CC
310
99FF00FF99FF0000CCFF0033CCFF0066CCFF0099CCFF00CCCCFF00FFCCFF0000FFFF0033FFFF0066FFFF0099FFFF00CCFFFF00FFFFFF00000000000D0D0D001A1A1A00282828003535350043434300505050005D5D5D006B6B6B00787878008686860093939300A1A1A100AEAEAE00BBBBBB00C9C9C900D6D6D600E4E4E400
310
F1F1F100FFFFFF0000000000000000000000000000000000000000000000000000000000000000000000000000000000F5F5F5F5F5F5F5F5F5F5F5F5F5F5F5F5F5F5F5F5F5F5F5F5F5F5F5F5F5F5F5F5F5F5F5F5F5F5F5F5F5F5F5F5F5F5F5F5F5F5F5F5F5F5F5F5F5F5F5F5F5F5F5F5F5F5F5F5F5F5F5F5F5F5F5F5F5F5F5
310
F5F5F5F5F5F5F5F5F5F5F5F5F5F5F5F5F5F5F5F5F5F5F5F5F5F5F5F5F5F5F5F5F5F5F5F5F5F5F5F5F5F5F5F5F5F5F5F5F5F5F5F5F5F5F5F5F5F5F5F5F5F5F5F5F5F5F5F5F5F5F5F5F5F5F5F5F5F5F5F5F5F5F5F5F5F5F5F5F5F5F5F5F5F5F5F5F5F5F5F5F5F5E2E2E2E2E2E2E2E2E2E2E2E2E2E2E2E2E2E2E2E2E2E2E2E2E2
310
E2E2E2E2E2E2E2E2E2E2E2E2E2E2E2E2E2E2E2E2E2E2E2E2E2E2E2E2E2E2E2E2E2E2E2E2E2E2E2E2E2E2E2E2E2E2E2E2E2E2E2E2E2E2E2E2E2E2E2E2E2E2E2E2E2E2E2E2E2E2E2E2E2E2E2E2E2E2E2E2E2E2E2E2E2E2E2E2E2E2E2E2E2E2E2E2E2E2E2E2E2E2E2E2E2E2E2E2E2E2E2E2E2E2E2E2E2E2E2E2E2E2E2E2E2E2E2
310
E2E2E2E2E2E2E2E2E2E2E2E2E2E2E2E2E2E2E2E2E2E2E2E2E2E2F5F5E2E2E2E2E2E2E2E2E2E2E2E2E2E2E2E2E2E2E2E2E2E2E2E2E2E2E2E2E2E2E2E2E2E2E2E2E2E2E2E2E2E2E2E2E2E2E2E2E2E2E2E2E2E2E2E2E2E2E2E2E2E2E2E2E2E2E2E2E2E2E2E2E2E2E2E2E2E2E2E2E2E2E2E2E2E2E2E2E2E2E2E2E2E2E2E2E2E2E2
310
E2E2E2E2E2E2E2E2E2E2E2E2E2E2E2E2E2E2E2E2E2E2E2E2E2E2E2E2E2E2E2E2E2E2E2E2E2E2E2E2E2E2E2E2E2E2E2E2E2E2E2E2E2E2E2E2E2E2E2E2E2E2E2E2E2E2E2E2E2E2E2E2E2E2E2E2E2E2E2F5F5E2E2E2E2E2E2E2E2E2E2E2E2E2E2E2E2E2E2E2E2E2E2E2E2E2E2E2E2E2E2E2E2E2E2E2E2E2E2E2E2E2E2E2E2E2E2
310
E2E2E2E2E2E2E2E2E2E2E2E2E2E2E2E2E2E2E2E2E2E2E2E2E2E2E2E2E2E2E2E2E2E2E2E2E2E2E2E2E2E2E2E2E2E2E2E2E2E2E2E2E2E2E2E2E2E2E2E2E2E2E2E2E2E2E2E2E2E2E2E2E2E2E2E2E2E2E2E2E2E2E2E2E2E2E2E2E2E2E2E2E2E2E2E2E2E2E2E2E2E2E2E2E2E2E2E2E2E2E2E2E2E2E2E2E2E2E2E2E2E2E2E2E2E2E2
310
E2E2E2E2E2F5F5E2E2E2E2E2E2E2E2E2E2E2E2E2E2E2E2E2E2E2E2E2E2E2E2E2E2E2E2E2E2E2E2E2E2E2E2E2E2E2E2E2E2E2E2E2E2E2E2E2E2E2E2E2E2E2E2E2E2E2E2E2E2E2E2E2E2E2E2E2E2E2E2E2E2E2E2E2E2E2E2E2E2E2E2E2E2E2E2E2E2E2E2E2E2E2E2E2E2E2E2E2E2E2E2E2E2E2E2E2E2E2E2E2E2E2E2E2E2E2E2
310
E2E2E2E2E2E2E2E2E2E2E2E2E2E2E2E2E2E2E2E2E2E2E2E2E2E2E2E2E2E2E2E2E2E2E2E2E2E2E2E2E2E2E2E2E2E2E2E2E2E2E2E2E2E2E2E2E2E2F5F5E2E2E2F5F5F5F5F5F5F5F5E2E2E2E2E2E2E2E2E2F5F5F5F5F5F5F5F5F5F5F5F5F5F5F5F5E2E2E2E2E2E2E2E2E2F5F5F5F5F5F5F5F5F5F5F5F5F5F5F5E2E2E2E2E2E2E2
310
E2E2F5F5F5F5F5F5F5F5F5F5F5F5F5F5F5F5E2E2E2E2E2E2E2E2F5F5F5F5F5F5F5F5F5F5F5F5F5F5F5F5E2E2E2E2E2E2E2E2E2F5F5F5F5F5F5F5F5F5F5F5F5F5F5F5E2E2E2E2E2E2E2E2E2F5F5F5F5F5F5F5F5F5F5F5F5F5F5F5F5E2E2E2E2E2E2E2E2E2F5F5F5F5F5F5F5F5E2E2E2F5F5E2E2E2F5E2E2E2E2E2E2E2E2E2E2
310
E2E2E2E2E2E2E2E2E2E2E2E2E2E2E2E2E2E2E2E2E2E2E2E2E2E2E2E2E2E2E2E2E2E2E2E2E2E2E2E2E2E2E2E2E2E2E2E2E2E2E2E2E2E2E2E2E2E2E2E2E2E2E2E2E2E2E2E2E2E2E2E2E2E2E2E2E2E2E2E2E2E2E2E2E2E2E2E2E2E2E2E2E2E2E2E2E2E2E2E2E2E2E2E2E2E2E2E2E2E2E2E2E2E2E2E2E2E2E2E2E2E2E2E2E2E2E2
310
E2E2E2E2E2E2E2E2E2E2E2E2E2E2E2E2E2E2E2E2E2E2E2E2E2E2E2E2E2E2E2E2E2F5E2E2E2F5F5E2E2E2F5E2E2E2E2E2E2E2E2E2E2E2E2E2E2E2E2E2E2E2E2E2E2E2E2E2E2E2E2E2E2E2E2E2E2E2E2E2E2E2E2E2E2E2E2E2E2E2E2E2E2E2E2E2E2E2E2E2E2E2E2E2E2E2E2E2E2E2E2E2E2E2E2E2E2E2E2E2E2E2E2E2E2E2E2
310
E2E2E2E2E2E2E2E2E2E2E2E2E2E2E2E2E2E2E2E2E2E2E2E2E2E2E2E2E2E2E2E2E2E2E2E2E2E2E2E2E2E2E2E2E2E2E2E2E2E2E2E2E2E2E2E2E2E2E2E2E2E2E2E2E2E2E2E2E2E2E2E2E2E2E2E2E2E2E2E2E2E2E2E2E2E2F5E2E2E2F5F5E2E2E2F5E2E2E2E2E2E2E2E2E2E2E2E2E2E2E2E2E2E2E2E2E2E2E2E2E2E2E2E2E2E2E2
310
E2E2E2E2E2E2E2E2E2E2E2E2E2E2E2E2E2E2E2E2E2E2E2E2E2E2E2E2E2E2E2E2E2E2E2E2E2E2E2E2E2E2E2E2E2E2E2E2E2E2E2E2E2E2E2E2E2E2E2E2E2E2E2E2E2E2E2E2E2E2E2E2E2E2E2E2E2E2E2E2E2E2E2E2E2E2E2E2E2E2E2E2E2E2E2E2E2E2E2E2E2E2E2E2E2E2E2E2E2E2E2E2E2E2E2E2E2E2E2E2E2E2E2E2E2E2E2
310
E2E2E2E2E2E2E2E2E2E2E2E2F5E2E2E2F5F5E2E2E2F5E2E2E2E2E2E2E2E2E2E2E2E2E2E2E2E2E2E2E2E2E2E2E2E2E2E2E2E2E2E2E2E2E2E2E2E2E2E2E2E2E2E2E2E2E2E2E2E2E2E2E2E2E2E2E2E2E2E2E2E2E2E2E2E2E2E2E2E2E2E2E2E2E2E2E2E2E2E2E2E2E2E2E2E2E2E2E2E2E2E2E2E2E2E2E2E2E2E2E2E2E2E2E2E2E2
310
E2E2E2E2E2E2E2E2E2E2E2E2E2E2E2E2E2E2E2E2E2E2E2E2E2E2E2E2E2E2E2E2E2E2E2E2E2E2E2E2E2E2E2E2E2E2E2E2E2E2E2E2E2E2E2E2E2E2E2E2E2E2E2E2E2F5E2E2E2F5F5E2E2E2F5E2E2E2E2E2E2E2E2E2E2E2E2E2E2E2E2E2E2E2E2E2E2E2E2E2E2E2E2E2E2E2E2E2E2E2E2E2E2E2E2E2E2E2E2E2E2E2E2E2E2E2E2
310
E2E2E2E2E2E2E2E2E2E2E2E2E2E2E2E2E2E2E2E2E2E2E2E2E2E2E2E2E2E2E2E2E2E2E2E2E2E2E2E2E2E2E2E2E2E2E2E2E2E2E2E2E2E2E2E2E2E2E2E2E2E2E2E2E2E2E2E2E2E2E2E2E2E2E2E2E2E2E2E2E2E2E2E2E2E2E2E2E2E2E2E2E2E2E2E2E2E2E2E2E2E2E2E2E2E2E2E2E2E2E2E2E2E2E2E2E2E2F5E2E2E2F5F5E2E2E2
310
F5E2E2E2E2E2E2E2E2E2E2E2E2E2E2E2E2E2E2E2E2E2E2E2E2E2E2E2E2E2E2E2E2E2E2E2E2E2E2E2E2E2E2E2E2E2E2E2E2E2E2E2E2E2E2E2E2E2E2E2E2E2E2E2E2E2E2E2E2E2E2E2E2E2E2E2E2E2E2E2E2E2E2E2E2E2E2E2E2E2E2E2E2E2E2E2E2E2E2E2E2E2E2E2E2E2E2E2E2E2E2E2E2E2E2E2E2E2E2E2E2E2E2E2E2E2E2
310
E2E2E2E2E2E2E2E2E2E2E2E2E2E2E2E2E2E2E2E2E2E2E2E2E2E2E2E2E2E2E2E2E2E2E2E2E2E2E2E2E2E2E2E2F5E2E2E2F5F5E2E2E2F5E2E2E2E2E2E2E2E2E2E2E2E2E2E2E2E2E2E2E2E2E2E2E2E2E2E2E2E2E2E2E2E2E2E2E2E2E2E2E2E2E2E2E2E2E2E2E2E2E2E2E2E2E2E2E2E2E2E2E2E2E2E2E2E2E2E2E2E2E2E2E2E2E2
310
E2E2E2E2E2E2E2E2E2E2E2E2E2E2E2E2E2E2E2E2E2E2E2E2E2E2E2E2E2E2E2E2E2E2E2E2E2E2E2E2E2E2E2E2E2E2E2E2E2E2E2E2E2E2E2E2E2E2E2E2E2E2E2E2E2E2E2E2E2E2E2E2E2E2E2E2E2E2E2E2E2E2E2E2E2E2E2E2E2E2E2E2E2E2E2E2E2F5E2E2E2F5F5E2E2E2F5E2E2E2E2E2E2E2E2E2E2E2E2E2E2E2E2E2E2E2E2
310
E2E2E2E2E2E2E2E2E2E2E2E2E2E2E2E2E2E2E2E2E2E2E2E2E2E2E2E2E2E2E2E2E2E2E2E2E2E2E2E2E2E2E2E2E2E2E2E2E2E2E2E2E2E2E2E2E2E2E2E2E2E2E2E2E2E2E2E2E2E2E2E2E2E2E2E2E2E2E2E2E2E2E2E2E2E2E2E2E2E2E2E2E2E2E2E2E2E2E2E2E2E2E2E2E2E2E2E2E2E2E2E2E2E2E2E2E2E2E2E2E2E2E2E2E2E2E2
310
E2E2E2E2E2E2E2E2E2E2E2E2E2E2E2E2E2E2E2E2E2E2E2F5E2E2E2F5F5E2E2E2E2E2E2E2E2E2E2E2E2E2E2E2E2E2E2E2E2E2E2E2E2E2E2E2E2E2E2E2E2E2E2E2E2E2E2E2E2E2E2E2E2E2E2E2E2E2E2E2E2E2E2E2E2E2E2E2E2E2E2E2E2E2E2E2E2E2E2E2E2E2E2E2E2E2E2E2E2E2E2E2E2E2E2E2E2E2E2E2E2E2E2E2E2E2E2
310
E2E2E2E2E2E2E2E2E2E2E2E2E2E2E2E2E2E2E2E2E2E2E2E2E2E2E2E2E2E2E2E2E2E2E2E2E2E2E2E2E2E2E2E2E2E2E2E2E2E2E2E2E2E2E2E2E2E2E2E2E2E2E2E2E2E2E2E2E2E2E2E2E2E2E2E2E2E2E2E2F5F5E2E2E2E2E2E2E2E2E2E2E2E2E2E2E2E2E2E2E2E2E2E2E2E2E2E2E2E2E2E2E2E2E2E2E2E2E2E2E2E2E2E2E2E2E2
310
E2E2E2E2E2E2E2E2E2E2E2E2E2E2E2E2E2E2E2E2E2E2E2E2E2E2E2E2E2E2E2E2E2E2E2E2E2E2E2E2E2E2E2E2E2E2E2E2E2E2E2E2E2E2E2E2E2E2E2E2E2E2E2E2E2E2E2E2E2E2E2E2E2E2E2E2E2E2E2E2E2E2E2E2E2E2E2E2E2E2E2E2E2E2E2E2E2E2E2E2E2E2E2E2E2E2E2E2E2E2E2E2E2E2E2E2E2E2E2E2E2E2E2E2E2E2E2
310
E2E2E2E2E2E2F5F5E2E2E2E2E2E2E2E2E2E2E2E2E2E2E2E2E2E2E2E2E2E2E2E2E2E2E2E2E2E2E2E2E2E2E2E2E2E2E2E2E2E2E2E2E2E2E2E2E2E2E2E2E2E2E2E2E2E2E2E2E2E2E2E2E2E2E2E2E2E2E2E2E2E2E2E2E2E2E2E2E2E2E2E2E2E2E2E2E2E2E2E2E2E2E2E2E2E2E2E2E2E2E2E2E2E2E2E2E2E2E2E2E2E2E2E2E2E2E2
310
E2E2E2E2E2E2E2E2E2E2E2E2E2E2E2E2E2E2E2E2E2E2E2E2E2E2E2E2E2E2E2E2E2E2E2E2E2E2E2E2E2E2E2E2E2E2E2E2E2E2E2E2E2E2E2E2E2E2E2F5F5E2E2E2E2E2E2E2E2E2E2E2E2E2E2E2E2E2E2E2E2E2E2E2E2E2E2E2E2E2E2E2E2E2E2E2E2E2E2E2E2E2E2E2E2E2E2E2E2E2E2E2E2E2E2E2E2E2E2E2E2E2E2E2E2E2E2
310
E2E2E2E2E2E2E2E2E2E2E2E2E2E2E2E2E2E2E2E2E2E2E2E2E2E2E2E2E2E2E2E2E2E2E2E2E2E2E2E2E2E2E2E2E2E2E2E2E2E2E2E2E2E2E2E2E2E2E2E2E2E2E2E2E2E2E2E2E2E2E2E2E2E2E2E2E2E2E2E2E2E2E2E2E2E2E2E2E2E2E2E2E2E2E2E2E2E2E2E2E2E2E2E2E2E2E2E2E2E2E2E2F5F5E2E2E2E2E2E2E2E2E2E2E2E2E2
310
E2E2E2E2E2E2E2F5F5F5F5F5F5F5F5F5F5F5F5F5F5F5F5F5F5F5F5F5F5F5F5F5F5F5F5F5F5F5F5F5F5F5F5F5F5F5F5F5F5F5F5F5F5F5F5F5F5F5F5F5F5F5F5F5F5F5F5F5F5F5F5F5F5F5F5F5F5F5F5F5F5F5F5F5F5F5F5F5F5F5F5F5F5F5F5F5F5F5F5F5F5F5F5F5F5F5F5F5F5F5F5F5F5F5F5F5F5F5F5F5F5F5F5F5F5F5F5
310
F5F5F5F5F5F5F5F5F5F5F5F5F5F5F5F5F5F5E2E2E2E2E2E2E2E2E2E2E2E2E2E2E2E2E2E2E2E2F5F5E2E2E2E2E2E2E2E2E2E2E2E2E2E2E2E2E2E2E2E2F5E2E2E2E2E2E2E2E2E2E2E2E2E2E2E2E2E2E2E2E2E2E2E2E2E2E2E2E2E2E2E2E2E2E2E2E2E2E2E2E2E2E2E2E2E2E2E2E2E2E2E2E2E2E2E2E2E2E2E2E2E2E2E2E2E2E2
310
E2E2E2E2E2E2E2E2E2E2E2E2E2E2E2E2E2E2E2E2E2E2E2E2E2E2E2E2E2E2E2E2E2E2E2E2E2E2E2E2E2E2E2E2E2E2E2E2E2E2E2E2E2E2E2E2E2E2E2E2E2E2E2E2E2E2E2E2E2E2F5E2E2E2E2E2E2E2E2E2E2E2E2E2E2E2E2E2E2E2E2F5F5E2E2E2E2E2E2E2E2E2E2E2E2E2E2E2E2E2E2E2E2F5E2E2E2E2E2E2E2E2E2E2E2E2E2
310
E2E2E2E2E2E2E2E2E2E2E2E2E2E2E2E2E2E2E2E2E2E2E2E2E2E2E2E2E2E2E2E2E2E2E2E2E2E2E2E2E2E2E2E2E2E2E2E2E2E2E2E2E2E2E2E2E2E2E2E2E2E2E2E2E2E2E2E2E2E2E2E2E2E2E2E2E2E2E2E2E2E2E2E2E2E2E2E2E2E2E2E2E2E2E2E2E2E2E2E2E2E2E2E2E2E2E2E2E2E2E2E2E2E2E2E2E2E2E2E2E2E2E2F5E2E2E2
310
E2E2E2E2E2E2E2E2E2E2E2E2E2E2E2E2E2F5F5E2E2E2E2E2E2E2E2E2E2E2E2E2E2E2E2E2E2E2E2F5E2E2E2E2E2E2E2E2E2E2E2E2E2E2E2E2E2E2E2E2E2E2E2E2E2E2E2E2E2E2E2E2E2E2E2E2E2E2E2E2E2E2E2E2E2E2E2E2E2E2E2E2E2E2E2E2E2E2E2E2E2E2E2E2E2E2E2E2E2E2E2E2E2E2E2E2E2E2E2E2E2E2E2E2E2E2E2
310
E2E2E2E2E2E2E2E2E2E2E2E2E2E2E2E2E2E2E2E2E2E2E2E2E2E2E2E2E2E2E2E2E2E2E2E2E2E2E2E2E2E2E2E2E2E2E2E2E2F5E2E2E2E2E2E2E2E2E2E2E2E2E2E2E2E2E2E2E2E2F5F5E2E2E2E2E2E2E2E2E2E2E2E2E2E2E2E2E2E2E2E2F5E2E2E2E2E2E2E2E2E2E2E2E2E2E2E2E2E2E2E2E2E2E2E2E2E2E2E2E2E2E2E2E2E2E2
310
E2E2E2E2E2E2E2E2E2E2E2E2E2E2E2E2E2E2E2E2E2E2E2E2E2E2E2E2E2E2E2E2E2E2E2E2E2E2E2E2E2E2E2E2E2E2E2E2E2E2E2E2E2E2E2E2E2E2E2E2E2E2E2E2E2E2E2E2E2E2E2E2E2E2E2E2E2E2E2E2E2E2E2E2E2E2E2E2E2E2E2E2E2E2E2E2E2E2E2E2E2E2F5E2E2E2E2E2E2E2E2E2E2E2E2E2E2E2E2E2E2E2E2F5F5E2E2
310
E2F5E2E2E2E2E2E2E2E2E2E2E2E2E2E2E2E2F5E2E2E2E2E2E2E2E2E2E2E2E2E2E2E2E2E2E2E2E2E2E2E2E2E2E2E2E2E2E2E2E2E2E2E2E2E2E2E2E2E2E2E2E2E2E2E2E2E2E2E2E2E2E2E2E2E2E2E2E2E2E2E2E2E2E2E2E2E2E2E2E2E2E2E2E2E2E2E2E2E2E2E2E2E2E2E2E2E2E2E2E2E2E2E2E2E2E2E2E2E2E2E2E2E2E2E2E2
310
E2E2E2E2E2E2E2E2E2E2E2E2E2E2E2E2E2E2E2E2E2E2E2E2E2E2E2E2F5E2E2E2E2E2E2E2E2E2E2E2E2E2E2E2E2F5E2E2E2F5F5E2E2E2F5E2E2E2E2E2E2E2E2E2E2E2E2E2E2E2E2F5E2E2E2E2E2E2E2E2E2E2E2E2E2E2E2E2E2E2E2E2E2E2E2E2E2E2E2E2E2E2E2E2E2E2E2E2E2E2E2E2E2E2E2E2E2E2E2E2E2E2E2E2E2E2E2
310
E2E2E2E2E2E2E2E2E2E2E2E2E2E2E2E2E2E2E2E2E2E2E2E2E2E2E2E2E2E2E2E2E2E2E2E2E2E2E2E2E2E2E2E2E2E2E2E2E2E2E2E2E2E2E2E2E2E2E2E2E2E2E2E2E2E2E2E2E2E2E2E2E2E2E2E2E2E2E2E2E2F5E2E2E2E2E2E2E2E2E2E2E2E2E2E2E2E2F5E2E2E2F5F5E2E2E2F5E2E2E2E2E2E2E2E2E2E2E2E2E2E2E2E2F5E2E2
310
E2E2E2E2E2E2E2E2E2E2E2E2E2E2E2E2E2E2E2E2E2E2E2E2E2E2E2E2E2E2E2E2E2E2E2E2E2E2E2E2E2E2E2E2E2E2E2E2E2E2E2E2E2E2E2E2E2E2E2E2E2E2E2E2E2E2E2E2E2E2E2E2E2E2E2E2E2E2E2E2E2E2E2E2E2E2E2E2E2E2E2E2E2E2E2E2E2E2E2E2E2E2E2E2E2E2E2E2E2E2E2E2E2E2E2E2E2E2E2E2E2E2E2E2E2E2E2
310
E2E2E2E2E2E2E2F5E2E2E2E2E2E2E2E2E2E2E2E2E2E2E2E2F5E2E2E2F5F5E2E2E2F5E2E2E2E2E2E2E2E2E2E2E2E2E2E2E2E2F5E2E2E2E2E2E2E2E2E2E2E2E2E2E2E2E2E2E2E2E2E2E2E2E2E2E2E2E2E2E2E2E2E2E2E2E2E2E2E2E2E2E2E2E2E2E2E2E2E2E2E2E2E2E2E2E2E2E2E2E2E2E2E2E2E2E2E2E2E2E2E2E2E2E2E2E2
310
E2E2E2E2E2E2E2E2E2E2E2E2E2E2E2E2E2E2E2E2E2E2E2E2E2E2E2E2E2E2E2E2E2E2E2E2E2E2E2E2E2E2E2E2E2E2E2E2E2E2E2E2E2E2E2E2E2E2E2E2F5E2E2E2E2E2E2E2E2E2E2E2E2E2E2E2E2F5E2E2E2F5F5E2E2E2F5E2E2E2E2E2E2E2E2E2E2E2E2E2E2E2E2F5E2E2E2E2E2E2E2E2E2E2E2E2E2E2E2E2E2E2E2E2E2E2E2
310
E2E2E2E2E2E2E2E2E2E2E2E2E2E2E2E2E2E2E2E2E2E2E2E2E2E2E2E2E2E2E2E2E2E2E2E2E2E2E2E2E2E2E2E2E2E2E2E2E2E2E2E2E2E2E2E2E2E2E2E2E2E2E2E2E2E2E2E2E2E2E2E2E2E2E2E2E2E2E2E2E2E2E2E2E2E2E2E2E2E2E2E2E2E2E2E2E2E2E2E2E2E2E2E2E2E2E2E2E2E2E2E2E2F5E2E2E2E2E2E2E2E2E2E2E2E2E2
310
E2E2E2F5E2E2E2F5F5E2E2E2F5E2E2E2E2E2E2E2E2E2E2E2E2E2E2E2E2F5E2E2E2E2E2E2E2E2E2E2E2E2E2E2E2E2E2E2E2E2E2E2E2E2E2E2E2E2E2E2E2E2E2E2E2E2E2E2E2E2E2E2E2E2E2E2E2E2E2E2E2E2E2E2E2E2E2E2E2E2E2E2E2E2E2E2E2E2E2E2E2E2E2E2E2E2E2E2E2E2E2E2E2E2E2E2E2E2E2E2E2E2E2E2E2E2E2
310
E2E2E2E2E2E2E2E2E2E2E2E2E2E2E2E2E2E2E2E2E2E2E2E2E2E2E2E2E2E2E2E2E2E2E2E2E2E2E2F5E2E2E2E2E2E2E2E2E2E2E2E2E2E2E2E2F5E2E2E2F5F5E2E2E2F5E2E2E2E2E2E2E2E2E2E2E2E2E2E2E2E2F5E2E2E2E2E2E2E2E2E2E2E2E2E2E2E2E2E2E2E2E2E2E2E2E2E2E2E2E2E2E2E2E2E2E2E2E2E2E2E2E2E2E2E2E2
310
E2E2E2E2E2E2E2E2E2E2E2E2E2E2E2E2E2E2E2E2E2E2E2E2E2E2E2E2E2E2E2E2E2E2E2E2E2E2E2E2E2E2E2E2E2E2E2E2E2E2E2E2E2E2E2E2E2E2E2E2E2E2E2E2E2E2E2E2E2E2E2E2E2E2E2E2E2E2E2E2E2E2E2E2E2E2E2E2E2E2E2E2F5E2E2E2E2E2E2E2E2E2E2E2E2E2E2E2E2F5E2E2E2F5F5E2E2E2F5E2E2E2E2E2E2E2E2
310
E2E2E2E2E2E2E2E2F5E2E2E2E2E2E2E2E2E2E2E2E2E2E2E2E2E2E2E2E2E2E2E2E2E2E2E2E2E2E2E2E2E2E2E2E2E2E2E2E2E2E2E2E2E2E2E2E2E2E2E2E2E2E2E2E2E2E2E2E2E2E2E2E2E2E2E2E2E2E2E2E2E2E2E2E2E2E2E2E2E2E2E2E2E2E2E2E2E2E2E2E2E2E2E2E2E2E2E2E2E2E2E2E2E2E2E2E2E2E2E2E2E2E2E2E2E2E2
310
E2E2E2E2E2E2E2E2E2E2E2E2E2E2E2E2E2E2F5E2E2E2E2E2E2E2E2E2E2E2E2E2E2E2E2F5E2E2E2F5F5E2E2E2F5E2E2E2E2E2E2E2E2E2E2E2E2E2E2E2E2F5E2E2E2E2E2E2E2E2E2E2E2E2E2E2E2E2E2E2E2E2E2E2E2E2E2E2E2E2E2E2E2E2E2E2E2E2E2E2E2E2E2E2E2E2E2E2E2E2E2E2E2E2E2E2E2E2E2E2E2E2E2E2E2E2E2
310
E2E2E2E2E2E2E2E2E2E2E2E2E2E2E2E2E2E2E2E2E2E2E2E2E2E2E2E2E2E2E2E2E2E2E2E2E2E2E2E2E2E2E2E2E2E2E2E2E2E2E2E2E2E2E2E2E2E2E2E2E2E2E2E2E2E2E2E2E2E2E2F5E2E2E2E2E2E2E2E2E2E2E2E2E2E2E2E2F5E2E2E2F5F5E2E2E2F5E2E2E2E2E2E2E2E2E2E2E2E2E2E2E2E2F5E2E2E2E2E2E2E2E2E2E2E2E2
310
E2E2E2E2E2E2E2E2E2E2E2E2E2E2E2E2E2E2E2E2E2E2E2E2E2E2E2E2E2E2E2E2E2E2E2E2E2E2E2E2E2E2E2E2E2E2E2E2E2E2E2E2E2E2E2E2E2E2E2E2E2E2E2E2E2E2E2E2E2E2E2E2E2E2E2E2E2E2E2E2E2E2E2E2E2E2E2E2E2E2E2E2E2E2E2E2E2E2E2E2E2E2E2E2E2E2E2E2E2E2E2E2E2E2E2E2E2E2E2E2E2E2E2E2F5E2E2
310
E2E2E2E2E2E2E2E2E2E2E2E2E2E2F5E2E2E2F5F5E2E2E2F5E2E2E2E2E2E2E2E2E2E2E2E2E2E2E2E2F5E2E2E2E2E2E2E2E2E2E2E2E2E2E2E2E2E2E2E2E2E2E2E2E2E2E2E2E2E2E2E2E2E2E2E2E2E2E2E2E2E2E2E2E2E2E2E2E2E2E2E2E2E2E2E2E2E2E2E2E2E2E2E2E2E2E2E2E2E2E2E2E2E2E2E2E2E2E2E2E2E2E2E2E2E2E2
310
E2E2E2E2E2E2E2E2E2E2E2E2E2E2E2E2E2E2E2E2E2E2E2E2E2E2E2E2E2E2E2E2E2E2E2E2E2E2E2E2E2E2E2E2E2E2E2E2E2E2F5E2E2E2E2E2E2E2E2E2E2E2E2E2E2E2E2F5E2E2E2F5F5E2E2E2F5E2E2E2E2E2E2E2E2E2E2E2E2E2E2E2E2F5E2E2E2E2E2E2E2E2E2E2E2E2E2E2E2E2E2E2E2E2E2E2E2E2E2E2E2E2E2E2E2E2E2
310
E2E2E2E2E2E2E2E2E2E2E2E2E2E2E2E2E2E2E2E2E2E2E2E2E2E2E2E2E2E2E2E2E2E2E2E2E2E2E2E2E2E2E2E2E2E2E2E2E2E2E2E2E2E2E2E2E2E2E2E2E2E2E2E2E2E2E2E2E2E2E2E2E2E2E2E2E2E2E2E2E2E2E2E2E2E2E2E2E2E2E2E2E2E2E2E2E2E2E2E2E2E2E2F5E2E2E2E2E2E2E2E2E2E2E2E2E2E2E2E2F5E2E2E2F5F5E2
310
E2E2F5E2E2E2E2E2E2E2E2E2E2E2E2E2E2E2E2F5E2E2E2E2E2E2E2E2E2E2E2E2E2E2E2E2E2E2E2E2E2E2E2E2E2E2E2E2E2E2E2E2E2E2E2E2E2E2E2E2E2E2E2E2E2E2E2E2E2E2E2E2E2E2E2E2E2E2E2E2E2E2E2E2E2E2E2E2E2E2E2E2E2E2E2E2E2E2E2E2E2E2E2E2E2E2E2E2E2E2E2E2E2E2E2E2E2E2E2E2E2E2E2E2E2E2E2
310
E2E2E2E2E2E2E2E2E2E2E2E2E2E2E2E2E2E2E2E2E2E2E2E2E2E2E2E2E2F5E2E2E2E2E2E2E2E2E2E2E2E2E2E2E2E2F5E2E2E2F5F5E2E2E2F5E2E2E2E2E2E2E2E2E2E2E2E2E2E2E2E2F5E2E2E2E2E2E2E2E2E2E2E2E2E2E2E2E2E2E2E2E2E2E2E2E2E2E2E2E2E2E2E2E2E2E2E2E2E2E2E2E2E2E2E2E2E2E2E2E2E2E2E2E2E2E2
310
E2E2E2E2E2E2E2E2E2E2E2E2E2E2E2E2E2E2E2E2E2E2E2E2E2E2E2E2E2E2E2E2E2E2E2E2E2E2E2E2E2E2E2E2E2E2E2E2E2E2E2E2E2E2E2E2E2E2E2E2E2E2E2E2E2E2E2E2E2E2E2E2E2E2E2E2E2E2E2E2E2E2F5E2E2E2E2E2E2E2E2E2E2E2E2E2E2E2E2F5E2E2E2F5F5E2E2E2F5E2E2E2E2E2E2E2E2E2E2E2E2E2E2E2E2F5E2
310
E2E2E2E2E2E2E2E2E2E2E2E2E2E2E2E2E2E2E2E2E2E2E2E2E2E2E2E2E2E2E2E2E2E2E2E2E2E2E2E2E2E2E2E2E2E2E2E2E2E2E2E2E2E2E2E2E2E2E2E2E2E2E2E2E2E2E2E2E2E2E2E2E2E2E2E2E2E2E2E2E2E2E2E2E2E2E2E2E2E2E2E2E2E2E2E2E2E2E2E2E2E2E2E2E2E2E2E2E2E2E2E2E2E2E2E2E2E2E2E2E2E2E2E2E2E2E2
310
E2E2E2E2E2E2E2E2F5E2E2E2E2E2E2E2E2E2E2E2E2E2E2E2E2F5E2E2E2F5F5E2E2E2F5E2E2E2E2E2E2E2E2E2E2E2E2E2E2E2E2F5E2E2E2E2E2E2E2E2E2E2E2E2E2E2E2E2E2E2E2E2E2E2E2E2E2E2E2E2E2E2E2E2E2E2E2E2E2E2E2E2E2E2E2E2E2E2E2E2E2E2E2E2E2E2E2E2E2E2E2E2E2E2E2E2E2E2E2E2E2E2E2E2E2E2E2
310
E2E2E2E2E2E2E2E2E2E2E2E2E2E2E2E2E2E2E2E2E2E2E2E2E2E2E2E2E2E2E2E2E2E2E2E2E2E2E2E2E2E2E2E2E2E2E2E2E2E2E2E2E2E2E2E2E2E2E2E2E2F5E2E2E2E2E2E2E2E2E2E2E2E2E2E2E2E2F5E2E2E2F5F5E2E2E2F5E2E2E2E2E2E2E2E2E2E2E2E2E2E2E2E2F5E2E2E2E2E2E2E2E2E2E2E2E2E2E2E2E2E2E2E2E2E2E2
310
E2E2E2E2E2E2E2E2E2E2E2E2E2E2E2E2E2E2E2E2E2E2E2E2E2E2E2E2E2E2E2E2E2E2E2E2E2E2E2E2E2E2E2E2E2E2E2E2E2E2E2E2E2E2E2E2E2E2E2E2E2E2E2E2E2E2E2E2E2E2E2E2E2E2E2E2E2E2E2E2E2E2E2E2E2E2E2E2E2E2E2E2E2E2E2E2E2E2E2E2E2E2E2E2E2E2E2E2E2E2E2E2E2E2F5E2E2E2E2E2E2E2E2E2E2E2E2
310
E2E2E2E2F5E2E2E2F5F5E2E2E2E2E2E2E2E2E2E2E2E2E2E2E2E2E2E2E2E2F5E2E2E2E2E2E2E2E2E2E2E2E2E2E2E2E2E2E2E2E2E2E2E2E2E2E2E2E2E2E2E2E2E2E2E2E2E2E2E2E2E2E2E2E2E2E2E2E2E2E2E2E2E2E2E2E2E2E2E2E2E2E2E2E2E2E2E2E2E2E2E2E2E2E2E2E2E2E2E2E2E2E2E2E2E2E2E2E2E2E2E2E2E2E2E2E2
310
E2E2E2E2E2E2E2E2E2E2E2E2E2E2E2E2E2E2E2E2E2E2E2E2E2E2E2E2E2E2E2E2E2E2E2E2E2E2E2E2F5E2E2E2E2E2E2E2E2E2E2E2E2E2E2E2E2E2E2E2E2F5F5E2E2E2E2E2E2E2E2E2E2E2E2E2E2E2E2E2E2E2E2F5E2E2E2E2E2E2E2E2E2E2E2E2E2E2E2E2E2E2E2E2E2E2E2E2E2E2E2E2E2E2E2E2E2E2E2E2E2E2E2E2E2E2E2
310
E2E2E2E2E2E2E2E2E2E2E2E2E2E2E2E2E2E2E2E2E2E2E2E2E2E2E2E2E2E2E2E2E2E2E2E2E2E2E2E2E2E2E2E2E2E2E2E2E2E2E2E2E2E2E2E2E2E2E2E2E2E2E2E2E2E2E2E2E2E2E2E2E2E2E2E2E2E2E2E2E2E2E2E2E2E2E2E2E2E2E2E2E2F5E2E2E2E2E2E2E2E2E2E2E2E2E2E2E2E2E2E2E2E2F5F5E2E2E2E2E2E2E2E2E2E2E2
310
E2E2E2E2E2E2E2E2E2F5E2E2E2E2E2E2E2E2E2E2E2E2E2E2E2E2E2E2E2E2E2E2E2E2E2E2E2E2E2E2E2E2E2E2E2E2E2E2E2E2E2E2E2E2E2E2E2E2E2E2E2E2E2E2E2E2E2E2E2E2E2E2E2E2E2E2E2E2E2E2E2E2E2E2E2E2E2E2E2E2E2E2E2E2E2E2E2E2E2E2E2E2E2E2E2E2E2E2E2E2E2E2E2E2E2E2E2E2E2E2E2E2E2E2E2E2E2
310
E2E2E2E2E2E2E2E2E2E2E2E2E2E2E2E2E2E2E2F5E2E2E2E2E2E2E2E2E2E2E2E2E2E2E2E2E2E2E2E2F5F5E2E2E2E2E2E2E2E2E2E2E2E2E2E2E2E2E2E2E2E2F5E2E2E2E2E2E2E2E2E2E2E2E2E2E2E2E2E2E2E2E2E2E2E2E2E2E2E2E2E2E2E2E2E2E2E2E2E2E2E2E2E2E2E2E2E2E2E2E2E2E2E2E2E2E2E2E2E2E2E2E2E2E2E2E2
310
E2E2E2E2E2E2E2E2E2E2E2E2E2E2E2E2E2E2E2E2E2E2E2E2E2E2E2E2E2E2E2E2E2E2E2E2E2E2E2E2E2E2E2E2E2E2E2E2E2E2E2E2E2E2E2E2E2E2E2E2E2E2E2E2E2E2E2E2E2E2E2E2F5E2E2E2E2E2E2E2E2E2E2E2E2E2E2E2E2E2E2E2E2F5F5E2E2E2E2E2E2E2E2E2E2E2E2E2E2E2E2E2E2E2E2F5E2E2E2E2E2E2E2E2E2E2E2
310
E2E2E2E2E2E2E2E2E2E2E2E2E2E2E2E2E2E2E2E2E2E2E2E2E2E2E2E2E2E2E2E2E2E2E2E2E2E2E2E2E2E2E2E2E2E2E2E2E2E2E2E2E2E2E2E2E2E2E2E2E2E2E2E2E2E2E2E2E2E2E2E2E2E2E2E2E2E2E2E2E2E2E2E2E2E2E2E2E2E2E2E2E2E2E2E2E2E2E2E2E2E2E2E2E2E2E2E2E2E2E2E2E2E2E2E2E2E2E2E2E2E2E2E2E2F5E2
310
E2E2E2E2E2E2E2E2E2E2E2E2E2E2E2E2E2E2E2F5F5E2E2E2E2E2E2E2E2E2E2E2E2E2E2E2E2E2E2E2E2F5E2E2E2E2E2E2E2E2E2E2E2E2E2E2E2E2E2E2E2E2E2E2E2E2E2E2E2E2E2E2E2E2E2E2E2E2E2E2E2E2E2E2E2E2E2E2E2E2E2E2E2E2E2E2E2E2E2E2E2E2E2E2E2E2E2E2E2E2E2E2E2E2E2E2E2E2E2E2E2E2E2E2E2E2E2
310
E2E2E2E2E2E2E2E2E2E2E2E2E2E2E2E2E2E2E2E2E2E2E2E2E2E2E2E2E2E2E2E2E2E2E2E2E2E2E2E2E2E2E2E2E2E2E2E2E2E2E2F5E2E2E2E2E2E2E2E2E2E2E2E2E2E2E2E2E2E2E2E2F5F5E2E2E2E2E2E2E2E2E2E2E2E2E2E2E2E2E2E2E2E2F5E2E2E2E2E2E2E2E2E2E2E2E2E2E2E2E2E2E2E2E2E2E2E2E2E2E2E2E2E2E2E2E2
310
E2E2E2E2E2E2E2E2E2E2E2E2E2E2E2E2E2E2E2E2E2E2E2E2E2E2E2E2E2E2E2E2E2E2E2E2E2E2E2E2E2E2E2E2E2E2E2E2E2E2E2E2E2E2E2E2E2E2E2E2E2E2E2E2E2E2E2E2E2E2E2E2E2E2E2E2E2E2E2E2E2E2E2E2E2E2E2E2E2E2E2E2E2E2E2E2E2E2E2E2E2E2E2E2F5E2E2E2E2E2E2E2E2E2E2E2E2E2E2E2E2E2E2E2E2F5F5
310
E2E2E2E2E2E2E2E2E2E2E2E2E2E2E2E2E2E2E2E2F5E2E2E2E2E2E2E2E2E2E2E2E2E2E2E2E2E2E2E2E2E2E2E2E2E2E2E2E2E2E2E2E2E2E2E2E2E2E2E2E2E2E2E2E2E2E2E2E2E2E2E2E2E2E2E2E2E2E2E2E2E2E2E2E2E2E2E2E2E2E2E2E2E2E2E2E2E2E2E2E2E2E2E2E2E2E2E2E2E2E2E2E2E2E2E2E2E2E2E2E2E2E2E2E2E2E2
310
E2E2E2E2E2E2E2E2E2E2E2E2E2E2E2E2E2E2E2E2E2E2E2E2E2E2E2E2E2E2F5E2E2E2E2E2E2E2E2E2E2E2E2E2E2E2E2E2E2E2E2F5F5E2E2E2E2E2E2E2E2E2E2E2E2E2E2E2E2E2E2E2E2F5E2E2E2E2E2E2E2E2E2E2E2E2E2E2E2E2E2E2E2E2E2E2E2E2E2E2E2E2E2E2E2E2E2E2E2E2E2E2E2E2E2E2E2E2E2E2E2E2E2E2E2E2E2
310
E2E2E2E2E2E2E2E2E2E2E2E2E2E2E2E2E2E2E2E2E2E2E2E2E2E2E2E2E2E2E2E2E2E2E2E2E2E2E2E2E2E2E2E2E2E2E2E2E2E2E2E2E2E2E2E2E2E2E2E2E2E2E2E2E2E2E2E2E2E2E2E2E2E2E2E2E2E2E2E2E2E2E2F5E2E2E2E2E2E2E2E2E2E2E2E2E2E2E2E2E2E2E2E2F5F5E2E2E2F5E2E2E2E2E2E2E2E2E2E2E2E2E2E2E2E2F5
310
E2E2E2E2E2E2E2E2E2E2E2E2E2E2E2E2E2E2E2E2E2E2E2E2E2E2E2E2E2E2E2E2E2E2E2E2E2E2E2E2E2E2E2E2E2E2E2E2E2E2E2E2E2E2E2E2E2E2E2E2E2E2E2E2E2E2E2E2E2E2E2E2E2E2E2E2E2E2E2E2E2E2E2E2E2E2E2E2E2E2E2E2E2E2E2E2E2E2E2E2E2E2E2E2E2E2E2E2E2E2E2E2E2E2E2E2E2E2E2E2E2E2E2E2E2E2E2
310
E2E2E2E2E2E2E2E2E2F5E2E2E2E2E2E2E2E2E2E2E2E2E2E2E2E2F5E2E2E2F5F5E2E2E2F5E2E2E2E2E2E2E2E2E2E2E2E2E2E2E2E2F5E2E2E2E2E2E2E2E2E2E2E2E2E2E2E2E2E2E2E2E2E2E2E2E2E2E2E2E2E2E2E2E2E2E2E2E2E2E2E2E2E2E2E2E2E2E2E2E2E2E2E2E2E2E2E2E2E2E2E2E2E2E2E2E2E2E2E2E2E2E2E2E2E2E2
310
E2E2E2E2E2E2E2E2E2E2E2E2E2E2E2E2E2E2E2E2E2E2E2E2E2E2E2E2E2E2E2E2E2E2E2E2E2E2E2E2E2E2E2E2E2E2E2E2E2E2E2E2E2E2E2E2E2E2E2E2E2E2F5E2E2E2E2E2E2E2E2E2E2E2E2E2E2E2E2F5E2E2E2F5F5E2E2E2F5E2E2E2E2E2E2E2E2E2E2E2E2E2E2E2E2F5E2E2E2E2E2E2E2E2E2E2E2E2E2E2E2E2E2E2E2E2E2
310
E2E2E2E2E2E2E2E2E2E2E2E2E2E2E2E2E2E2E2E2E2E2E2E2E2E2E2E2E2E2E2E2E2E2E2E2E2E2E2E2E2E2E2E2E2E2E2E2E2E2E2E2E2E2E2E2E2E2E2E2E2E2E2E2E2E2E2E2E2E2E2E2E2E2E2E2E2E2E2E2E2E2E2E2E2E2E2E2E2E2E2E2E2E2E2E2E2E2E2E2E2E2E2E2E2E2E2E2E2E2E2E2E2E2E2F5E2E2E2E2E2E2E2E2E2E2E2
310
E2E2E2E2E2F5E2E2E2F5F5E2E2E2F5E2E2E2E2E2E2E2E2E2E2E2E2E2E2E2E2F5E2E2E2E2E2E2E2E2E2E2E2E2E2E2E2E2E2E2E2E2E2E2E2E2E2E2E2E2E2E2E2E2E2E2E2E2E2E2E2E2E2E2E2E2E2E2E2E2E2E2E2E2E2E2E2E2E2E2E2E2E2E2E2E2E2E2E2E2E2E2E2E2E2E2E2E2E2E2E2E2E2E2E2E2E2E2E2E2E2E2E2E2E2E2E2
310
E2E2E2E2E2E2E2E2E2E2E2E2E2E2E2E2E2E2E2E2E2E2E2E2E2E2E2E2E2E2E2E2E2E2E2E2E2E2E2E2E2F5E2E2E2E2E2E2E2E2E2E2E2E2E2E2E2E2F5E2E2E2F5F5E2E2E2F5E2E2E2E2E2E2E2E2E2E2E2E2E2E2E2E2F5E2E2E2E2E2E2E2E2E2E2E2E2E2E2E2E2E2E2E2E2E2E2E2E2E2E2E2E2E2E2E2E2E2E2E2E2E2E2E2E2E2E2
310
E2E2E2E2E2E2E2E2E2E2E2E2E2E2E2E2E2E2E2E2E2E2E2E2E2E2E2E2E2E2E2E2E2E2E2E2E2E2E2E2E2E2E2E2E2E2E2E2E2E2E2E2E2E2E2E2E2E2E2E2E2E2E2E2E2E2E2E2E2E2E2E2E2E2E2E2E2E2E2E2E2E2E2E2E2E2E2E2E2E2E2E2E2E2F5E2E2E2E2E2E2E2E2E2E2E2E2E2E2E2E2F5E2E2E2F5F5E2E2E2F5E2E2E2E2E2E2
310
E2E2E2E2E2E2E2E2E2E2F5E2E2E2E2E2E2E2E2E2E2E2E2E2E2E2E2E2E2E2E2E2E2E2E2E2E2E2E2E2E2E2E2E2E2E2E2E2E2E2E2E2E2E2E2E2E2E2E2E2E2E2E2E2E2E2E2E2E2E2E2E2E2E2E2E2E2E2E2E2E2E2E2E2E2E2E2E2E2E2E2E2E2E2E2E2E2E2E2E2E2E2E2E2E2E2E2E2E2E2E2E2E2E2E2E2E2E2E2E2E2E2E2E2E2E2E2
310
E2E2E2E2E2E2E2E2E2E2E2E2E2E2E2E2E2E2E2E2F5E2E2E2E2E2E2E2E2E2E2E2E2E2E2E2E2F5E2E2E2F5F5E2E2E2F5E2E2E2E2E2E2E2E2E2E2E2E2E2E2E2E2F5E2E2E2E2E2E2E2E2E2E2E2E2E2E2E2E2E2E2E2E2E2E2E2E2E2E2E2E2E2E2E2E2E2E2E2E2E2E2E2E2E2E2E2E2E2E2E2E2E2E2E2E2E2E2E2E2E2E2E2E2E2E2E2
310
E2E2E2E2E2E2E2E2E2E2E2E2E2E2E2E2E2E2E2E2E2E2E2E2E2E2E2E2E2E2E2E2E2E2E2E2E2E2E2E2E2E2E2E2E2E2E2E2E2E2E2E2E2E2E2E2E2E2E2E2E2E2E2E2E2E2E2E2E2E2E2E2E2F5E2E2E2E2E2E2E2E2E2E2E2E2E2E2E2E2F5E2E2E2F5F5E2E2E2F5E2E2E2E2E2E2E2E2E2E2E2E2E2E2E2E2F5E2E2E2E2E2E2E2E2E2E2
310
E2E2E2E2E2E2E2E2E2E2E2E2E2E2E2E2E2E2E2E2E2E2E2E2E2E2E2E2E2E2E2E2E2E2E2E2E2E2E2E2E2E2E2E2E2E2E2E2E2E2E2E2E2E2E2E2E2E2E2E2E2E2E2E2E2E2E2E2E2E2E2E2E2E2E2E2E2E2E2E2E2E2E2E2E2E2E2E2E2E2E2E2E2E2E2E2E2E2E2E2E2E2E2E2E2E2E2E2E2E2E2E2E2E2E2E2E2E2E2E2E2E2E2E2E2E2F5
310
E2E2E2E2E2E2E2E2E2E2E2E2E2E2E2E2F5E2E2E2F5F5E2E2E2F5E2E2E2E2E2E2E2E2E2E2E2E2E2E2E2E2F5E2E2E2E2E2E2E2E2E2E2E2E2E2E2E2E2E2E2E2E2E2E2E2E2E2E2E2E2E2E2E2E2E2E2E2E2E2E2E2E2E2E2E2E2E2E2E2E2E2E2E2E2E2E2E2E2E2E2E2E2E2E2E2E2E2E2E2E2E2E2E2E2E2E2E2E2E2E2E2E2E2E2E2E2
310
E2E2E2E2E2E2E2E2E2E2E2E2E2E2E2E2E2E2E2E2E2E2E2E2E2E2E2E2E2E2E2E2E2E2E2E2E2E2E2E2E2E2E2E2E2E2E2E2E2E2E2E2F5E2E2E2E2E2E2E2E2E2E2E2E2E2E2E2E2F5E2E2E2F5F5E2E2E2F5E2E2E2E2E2E2E2E2E2E2E2E2E2E2E2E2F5E2E2E2E2E2E2E2E2E2E2E2E2E2E2E2E2E2E2E2E2E2E2E2E2E2E2E2E2E2E2E2
310
E2E2E2E2E2E2E2E2E2E2E2E2E2E2E2E2E2E2E2E2E2E2E2E2E2E2E2E2E2E2E2E2E2E2E2E2E2E2E2E2E2E2E2E2E2E2E2E2E2E2E2E2E2E2E2E2E2E2E2E2E2E2E2E2E2E2E2E2E2E2E2E2E2E2E2E2E2E2E2E2E2E2E2E2E2E2E2E2E2E2E2E2E2E2E2E2E2E2E2E2E2E2E2E2E2F5E2E2E2E2E2E2E2E2E2E2E2E2E2E2E2E2F5E2E2E2F5
310
F5E2E2E2F5E2E2E2E2E2E2E2E2E2E2E2E2E2E2E2E2F5E2E2E2E2E2E2E2E2E2E2E2E2E2E2E2E2E2E2E2E2E2E2E2E2E2E2E2E2E2E2E2E2E2E2E2E2E2E2E2E2E2E2E2E2E2E2E2E2E2E2E2E2E2E2E2E2E2E2E2E2E2E2E2E2E2E2E2E2E2E2E2E2E2E2E2E2E2E2E2E2E2E2E2E2E2E2E2E2E2E2E2E2E2E2E2E2E2E2E2E2E2E2E2E2E2
310
E2E2E2E2E2E2E2E2E2E2E2E2E2E2E2E2E2E2E2E2E2E2E2E2E2E2E2E2E2E2E2F5E2E2E2E2E2E2E2E2E2E2E2E2E2E2E2E2F5E2E2E2F5F5E2E2E2F5E2E2E2E2E2E2E2E2E2E2E2E2E2E2E2E2F5E2E2E2E2E2E2E2E2E2E2E2E2E2E2E2E2E2E2E2E2E2E2E2E2E2E2E2E2E2E2E2E2E2E2E2E2E2E2E2E2E2E2E2E2E2E2E2E2E2E2E2E2
310
E2E2E2E2E2E2E2E2E2E2E2E2E2E2E2E2E2E2E2E2E2E2E2E2E2E2E2E2E2E2E2E2E2E2E2E2E2E2E2E2E2E2E2E2E2E2E2E2E2E2E2E2E2E2E2E2E2E2E2E2E2E2E2E2E2E2E2E2E2E2E2E2E2E2E2E2E2E2E2E2E2E2E2E2F5E2E2E2E2E2E2E2E2E2E2E2E2E2E2E2E2F5E2E2E2F5F5E2E2E2F5E2E2E2E2E2E2E2E2E2E2E2E2E2E2E2E2
310
F5E2E2E2E2E2E2E2E2E2E2E2E2E2E2E2E2E2E2E2E2E2E2E2E2E2E2E2E2E2E2E2E2E2E2E2E2E2E2E2E2E2E2E2E2E2E2E2E2E2E2E2E2E2E2E2E2E2E2E2E2E2E2E2E2E2E2E2E2E2E2E2E2E2E2E2E2E2E2E2E2E2E2E2E2E2E2E2E2E2E2E2E2E2E2E2E2E2E2E2E2E2E2E2E2E2E2E2E2E2E2E2E2E2E2E2E2E2E2E2E2E2E2E2E2E2E2
310
E2E2E2E2E2E2E2E2E2E2F5E2E2E2E2E2E2E2E2E2E2E2E2E2E2E2E2F5E2E2E2F5F5E2E2E2F5E2E2E2E2E2E2E2E2E2E2E2E2E2E2E2E2F5E2E2E2E2E2E2E2E2E2E2E2E2E2E2E2E2E2E2E2E2E2E2E2E2E2E2E2E2E2E2E2E2E2E2E2E2E2E2E2E2E2E2E2E2E2E2E2E2E2E2E2E2E2E2E2E2E2E2E2E2E2E2E2E2E2E2E2E2E2E2E2E2E2
310
E2E2E2E2E2E2E2E2E2E2E2E2E2E2E2E2E2E2E2E2E2E2E2E2E2E2E2E2E2E2E2E2E2E2E2E2E2E2E2E2E2E2E2E2E2E2E2E2E2E2E2E2E2E2E2E2E2E2E2E2E2E2E2F5E2E2E2E2E2E2E2E2E2E2E2E2E2E2E2E2F5E2E2E2F5F5E2E2E2F5E2E2E2E2E2E2E2E2E2E2E2E2E2E2E2E2F5E2E2E2E2E2E2E2E2E2E2E2E2E2E2E2E2E2E2E2E2
310
E2E2E2E2E2E2E2E2E2E2E2E2E2E2E2E2E2E2E2E2E2E2E2E2E2E2E2E2E2E2E2E2E2E2E2E2E2E2E2E2E2E2E2E2E2E2E2E2E2E2E2E2E2E2E2E2E2E2E2E2E2E2E2E2E2E2E2E2E2E2E2E2E2E2E2E2E2E2E2E2E2E2E2E2E2E2E2E2E2E2E2E2E2E2E2E2E2E2E2E2E2E2E2E2E2E2E2E2E2E2E2E2E2E2E2E2F5E2E2E2E2E2E2E2E2E2E2
310
E2E2E2E2E2E2F5E2E2E2F5F5E2E2E2F5E2E2E2E2E2E2E2E2E2E2E2E2E2E2E2E2F5E2E2E2E2E2E2E2E2E2E2E2E2E2E2E2E2E2E2E2E2E2E2E2E2E2E2E2E2E2E2E2E2E2E2E2E2E2E2E2E2E2E2E2E2E2E2E2E2E2E2E2E2E2E2E2E2E2E2E2E2E2E2E2E2E2E2E2E2E2E2E2E2E2E2E2E2E2E2E2E2E2E2E2E2E2E2E2E2E2E2E2E2E2E2
310
E2E2E2E2E2E2E2E2E2E2E2E2E2E2E2E2E2E2E2E2E2E2E2E2E2E2E2E2E2E2E2E2E2E2E2E2E2E2E2E2E2E2F5E2E2E2E2E2E2E2E2E2E2E2E2E2E2E2E2F5E2E2E2F5F5E2E2E2E2E2E2E2E2E2E2E2E2E2E2E2E2E2E2E2E2F5E2E2E2E2E2E2E2E2E2E2E2E2E2E2E2E2E2E2E2E2E2E2E2E2E2E2E2E2E2E2E2E2E2E2E2E2E2E2E2E2E2
310
E2E2E2E2E2E2E2E2E2E2E2E2E2E2E2E2E2E2E2E2E2E2E2E2E2E2E2E2E2E2E2E2E2E2E2E2E2E2E2E2E2E2E2E2E2E2E2E2E2E2E2E2E2E2E2E2E2E2E2E2E2E2E2E2E2E2E2E2E2E2E2E2E2E2E2E2E2E2E2E2E2E2E2E2E2E2E2E2E2E2E2E2E2E2E2F5E2E2E2E2E2E2E2E2E2E2E2E2E2E2E2E2E2E2E2E2F5F5E2E2E2E2E2E2E2E2E2
310
E2E2E2E2E2E2E2E2E2E2E2F5E2E2E2E2E2E2E2E2E2E2E2E2E2E2E2E2E2E2E2E2E2E2E2E2E2E2E2E2E2E2E2E2E2E2E2E2E2E2E2E2E2E2E2E2E2E2E2E2E2E2E2E2E2E2E2E2E2E2E2E2E2E2E2E2E2E2E2E2E2E2E2E2E2E2E2E2E2E2E2E2E2E2E2E2E2E2E2E2E2E2E2E2E2E2E2E2E2E2E2E2E2E2E2E2E2E2E2E2E2E2E2E2E2E2E2
310
E2E2E2E2E2E2E2E2E2E2E2E2E2E2E2E2E2E2E2E2E2F5E2E2E2E2E2E2E2E2E2E2E2E2E2E2E2E2E2E2E2E2F5F5E2E2E2E2E2E2E2E2E2E2E2E2E2E2E2E2E2E2E2E2F5E2E2E2E2E2E2E2E2E2E2E2E2E2E2E2E2E2E2E2E2E2E2E2E2E2E2E2E2E2E2E2E2E2E2E2E2E2E2E2E2E2E2E2E2E2E2E2E2E2E2E2E2E2E2E2E2E2E2E2E2E2E2
310
E2E2E2E2E2E2E2E2E2E2E2E2E2E2E2E2E2E2E2E2E2E2E2E2E2E2E2E2E2E2E2E2E2E2E2E2E2E2E2E2E2E2E2E2E2E2E2E2E2E2E2E2E2E2E2E2E2E2E2E2E2E2E2E2E2E2E2E2E2E2E2E2E2E2F5E2E2E2E2E2E2E2E2E2E2E2E2E2E2E2E2E2E2E2E2F5F5E2E2E2E2E2E2E2E2E2E2E2E2E2E2E2E2E2E2E2E2F5E2E2E2E2E2E2E2E2E2
310
E2E2E2E2E2E2E2E2E2E2E2E2E2E2E2E2E2E2E2E2E2E2E2E2E2E2E2E2E2E2E2E2E2E2E2E2E2E2E2E2E2E2E2E2E2E2E2E2E2E2E2E2E2E2E2E2E2E2E2E2E2E2E2E2E2E2E2E2E2E2E2E2E2E2E2E2E2E2E2E2E2E2E2E2E2E2E2E2E2E2E2E2E2E2E2E2E2E2E2E2E2E2E2E2E2E2E2E2E2E2E2E2E2E2E2E2E2E2E2E2E2E2E2E2E2E2E2
310
F5E2E2E2E2E2E2E2E2E2E2E2E2E2E2E2E2E2E2E2E2F5F5E2E2E2E2E2E2E2E2E2E2E2E2E2E2E2E2E2E2E2E2F5E2E2E2E2E2E2E2E2E2E2E2E2E2E2E2E2E2E2E2E2E2E2E2E2E2E2E2E2E2E2E2E2E2E2E2E2E2E2E2E2E2E2E2E2E2E2E2E2E2E2E2E2E2E2E2E2E2E2E2E2E2E2E2E2E2E2E2E2E2E2E2E2E2E2E2E2E2E2E2E2E2E2E2
310
E2E2E2E2E2E2E2E2E2E2E2E2E2E2E2E2E2E2E2E2E2E2E2E2E2E2E2E2E2E2E2E2E2E2E2E2E2E2E2E2E2E2E2E2E2E2E2E2E2E2E2E2E2F5E2E2E2E2E2E2E2E2E2E2E2E2E2E2E2E2E2E2E2E2F5F5E2E2E2E2E2E2E2E2E2E2E2E2E2E2E2E2E2E2E2E2F5E2E2E2E2E2E2E2E2E2E2E2E2E2E2E2E2E2E2E2E2E2E2E2E2E2E2E2E2E2E2
310
E2E2E2E2E2E2E2E2E2E2E2E2E2E2E2E2E2E2E2E2E2E2E2E2E2E2E2E2E2E2E2E2E2E2E2E2E2E2E2E2E2E2E2E2E2E2E2E2E2E2E2E2E2E2E2E2E2E2E2E2E2E2E2E2E2E2E2E2E2E2E2E2E2E2E2E2E2E2E2E2E2E2E2E2E2E2E2E2E2E2E2E2E2E2E2E2E2E2E2E2E2E2E2E2E2E2F5E2E2E2E2E2E2E2E2E2E2E2E2E2E2E2E2E2E2E2E2
310
F5F5E2E2E2E2E2E2E2E2E2E2E2E2E2E2E2E2E2E2E2E2F5E2E2E2E2E2E2E2E2E2E2E2E2E2E2E2E2E2E2E2E2E2E2E2E2E2E2E2E2E2E2E2E2E2E2E2E2E2E2E2E2E2E2E2E2E2E2E2E2E2E2E2E2E2E2E2E2E2E2E2E2E2E2E2E2E2E2E2E2E2E2E2E2E2E2E2E2E2E2E2E2E2E2E2E2E2E2E2E2E2E2E2E2E2E2E2E2E2E2E2E2E2E2E2E2
310
E2E2E2E2E2E2E2E2E2E2E2E2E2E2E2E2E2E2E2E2E2E2E2E2E2E2E2E2E2E2E2E2F5E2E2E2E2E2E2E2E2E2E2E2E2E2E2E2E2E2E2E2E2F5F5E2E2E2E2E2E2E2E2E2E2E2E2E2E2E2E2E2E2E2E2F5E2E2E2E2E2E2E2E2E2E2E2E2E2E2E2E2E2E2E2E2E2E2E2E2E2E2E2E2E2E2E2E2E2E2E2E2E2E2E2E2E2E2E2E2E2E2E2E2E2E2E2
310
E2E2E2E2E2E2E2E2E2E2E2E2E2E2E2E2E2E2E2E2E2E2E2E2E2E2E2E2E2E2E2E2E2E2E2E2E2E2E2E2E2E2E2E2E2E2E2E2E2E2E2E2E2E2E2E2E2E2E2E2E2E2E2E2E2E2E2E2E2E2E2E2E2E2E2E2E2E2E2E2E2E2E2E2E2F5E2E2E2E2E2E2E2E2E2E2E2E2E2E2E2E2E2E2E2E2F5F5E2E2E2E2E2E2E2E2E2E2E2E2E2E2E2E2E2E2E2
310
E2F5E2E2E2E2E2E2E2E2E2E2E2E2E2E2E2E2E2E2E2E2E2E2E2E2E2E2E2E2E2E2E2E2E2E2E2E2E2E2E2E2E2E2E2E2E2E2E2E2E2E2E2E2E2E2E2E2E2E2E2E2E2E2E2E2E2E2E2E2E2E2E2E2E2E2E2E2E2E2E2E2E2E2E2E2E2E2E2E2E2E2E2E2E2E2E2E2E2E2E2E2E2E2E2E2E2E2E2E2E2E2E2E2E2E2E2E2E2E2E2E2E2E2E2E2E2
310
E2E2E2E2E2E2E2E2E2E2E2F5E2E2E2E2E2E2E2E2E2E2E2E2E2E2E2E2E2E2E2E2F5F5E2E2E2E2E2E2E2E2E2E2E2E2E2E2E2E2E2E2E2E2F5E2E2E2E2E2E2E2E2E2E2E2E2E2E2E2E2E2E2E2E2E2E2E2E2E2E2E2E2E2E2E2E2E2E2E2E2E2E2E2E2E2E2E2E2E2E2E2E2E2E2E2E2E2E2E2E2E2E2E2E2E2E2E2E2E2E2E2E2E2E2E2E2
310
E2E2E2E2E2E2E2E2E2E2E2E2E2E2E2E2E2E2E2E2E2E2E2E2E2E2E2E2E2E2E2E2E2E2E2E2E2E2E2E2E2E2E2E2E2E2E2E2E2E2E2E2E2E2E2E2E2E2E2E2E2E2E2E2F5E2E2E2E2E2E2E2E2E2E2E2E2E2E2E2E2E2E2E2E2F5F5E2E2E2F5E2E2E2E2E2E2E2E2E2E2E2E2E2E2E2E2F5E2E2E2E2E2E2E2E2E2E2E2E2E2E2E2E2E2E2E2
310
E2E2E2E2E2E2E2E2E2E2E2E2E2E2E2E2E2E2E2E2E2E2E2E2E2E2E2E2E2E2E2E2E2E2E2E2E2E2E2E2E2E2E2E2E2E2E2E2E2E2E2E2E2E2E2E2E2E2E2E2E2E2E2E2E2E2E2E2E2E2E2E2E2E2E2E2E2E2E2E2E2E2E2E2E2E2E2E2E2E2E2E2E2E2E2E2E2E2E2E2E2E2E2E2E2E2E2E2E2E2E2E2E2E2E2E2E2F5E2E2E2E2E2E2E2E2E2
310
E2E2E2E2E2E2E2F5E2E2E2F5F5E2E2E2F5E2E2E2E2E2E2E2E2E2E2E2E2E2E2E2E2F5E2E2E2E2E2E2E2E2E2E2E2E2E2E2E2E2E2E2E2E2E2E2E2E2E2E2E2E2E2E2E2E2E2E2E2E2E2E2E2E2E2E2E2E2E2E2E2E2E2E2E2E2E2E2E2E2E2E2E2E2E2E2E2E2E2E2E2E2E2E2E2E2E2E2E2E2E2E2E2E2E2E2E2E2E2E2E2E2E2E2E2E2E2
310
E2E2E2E2E2E2E2E2E2E2E2E2E2E2E2E2E2E2E2E2E2E2E2E2E2E2E2E2E2E2E2E2E2E2E2E2E2E2E2E2E2E2E2F5E2E2E2E2E2E2E2E2E2E2E2E2E2E2E2E2F5E2E2E2F5F5E2E2E2F5E2E2E2E2E2E2E2E2E2E2E2E2E2E2E2E2F5E2E2E2E2E2E2E2E2E2E2E2E2E2E2E2E2E2E2E2E2E2E2E2E2E2E2E2E2E2E2E2E2E2E2E2E2E2E2E2E2
310
E2E2E2E2E2E2E2E2E2E2E2E2E2E2E2E2E2E2E2E2E2E2E2E2E2E2E2E2E2E2E2E2E2E2E2E2E2E2E2E2E2E2E2E2E2E2E2E2E2E2E2E2E2E2E2E2E2E2E2E2E2E2E2E2E2E2E2E2E2E2E2E2E2E2E2E2E2E2E2E2E2E2E2E2E2E2E2E2E2E2E2E2E2E2E2E2F5E2E2E2E2E2E2E2E2E2E2E2E2E2E2E2E2F5E2E2E2F5F5E2E2E2F5E2E2E2E2
310
E2E2E2E2E2E2E2E2E2E2E2E2F5E2E2E2E2E2E2E2E2E2E2E2E2E2E2E2E2E2E2E2E2E2E2E2E2E2E2E2E2E2E2E2E2E2E2E2E2E2E2E2E2E2E2E2E2E2E2E2E2E2E2E2E2E2E2E2E2E2E2E2E2E2E2E2E2E2E2E2E2E2E2E2E2E2E2E2E2E2E2E2E2E2E2E2E2E2E2E2E2E2E2E2E2E2E2E2E2E2E2E2E2E2E2E2E2E2E2E2E2E2E2E2E2E2E2
310
E2E2E2E2E2E2E2E2E2E2E2E2E2E2E2E2E2E2E2E2E2E2F5E2E2E2E2E2E2E2E2E2E2E2E2E2E2E2E2F5E2E2E2F5F5E2E2E2F5E2E2E2E2E2E2E2E2E2E2E2E2E2E2E2E2F5E2E2E2E2E2E2E2E2E2E2E2E2E2E2E2E2E2E2E2E2E2E2E2E2E2E2E2E2E2E2E2E2E2E2E2E2E2E2E2E2E2E2E2E2E2E2E2E2E2E2E2E2E2E2E2E2E2E2E2E2E2
310
E2E2E2E2E2E2E2E2E2E2E2E2E2E2E2E2E2E2E2E2E2E2E2E2E2E2E2E2E2E2E2E2E2E2E2E2E2E2E2E2E2E2E2E2E2E2E2E2E2E2E2E2E2E2E2E2E2E2E2E2E2E2E2E2E2E2E2E2E2E2E2E2E2E2E2F5E2E2E2E2E2E2E2E2E2E2E2E2E2E2E2E2F5E2E2E2F5F5E2E2E2F5E2E2E2E2E2E2E2E2E2E2E2E2E2E2E2E2F5E2E2E2E2E2E2E2E2
310
E2E2E2E2E2E2E2E2E2E2E2E2E2E2E2E2E2E2E2E2E2E2E2E2E2E2E2E2E2E2E2E2E2E2E2E2E2E2E2E2E2E2E2E2E2E2E2E2E2E2E2E2E2E2E2E2E2E2E2E2E2E2E2E2E2E2E2E2E2E2E2E2E2E2E2E2E2E2E2E2E2E2E2E2E2E2E2E2E2E2E2E2E2E2E2E2E2E2E2E2E2E2E2E2E2E2E2E2E2E2E2E2E2E2E2E2E2E2E2E2E2E2E2E2E2E2E2
310
E2F5E2E2E2E2E2E2E2E2E2E2E2E2E2E2E2E2F5E2E2E2F5F5E2E2E2F5E2E2E2E2E2E2E2E2E2E2E2E2E2E2E2E2F5E2E2E2E2E2E2E2E2E2E2E2E2E2E2E2E2E2E2E2E2E2E2E2E2E2E2E2E2E2E2E2E2E2E2E2E2E2E2E2E2E2E2E2E2E2E2E2E2E2E2E2E2E2E2E2E2E2E2E2E2E2E2E2E2E2E2E2E2E2E2E2E2E2E2E2E2E2E2E2E2E2E2
310
E2E2E2E2E2E2E2E2E2E2E2E2E2E2E2E2E2E2E2E2E2E2E2E2E2E2E2E2E2E2E2E2E2E2E2E2E2E2E2E2E2E2E2E2E2E2E2E2E2E2E2E2E2E2F5E2E2E2E2E2E2E2E2E2E2E2E2E2E2E2E2F5E2E2E2F5F5E2E2E2F5E2E2E2E2E2E2E2E2E2E2E2E2E2E2E2E2F5E2E2E2E2E2E2E2E2E2E2E2E2E2E2E2E2E2E2E2E2E2E2E2E2E2E2E2E2E2
310
E2E2E2E2E2E2E2E2E2E2E2E2E2E2E2E2E2E2E2E2E2E2E2E2E2E2E2E2E2E2E2E2E2E2E2E2E2E2E2E2E2E2E2E2E2E2E2E2E2E2E2E2E2E2E2E2E2E2E2E2E2E2E2E2E2E2E2E2E2E2E2E2E2E2E2E2E2E2E2E2E2E2E2E2E2E2E2E2E2E2E2E2E2E2E2E2E2E2E2E2E2E2E2E2E2E2E2F5E2E2E2E2E2E2E2E2E2E2E2E2E2E2E2E2F5E2E2
310
E2F5F5E2E2E2F5E2E2E2E2E2E2E2E2E2E2E2E2E2E2E2E2F5E2E2E2E2E2E2E2E2E2E2E2E2E2E2E2E2E2E2E2E2E2E2E2E2E2E2E2E2E2E2E2E2E2E2E2E2E2E2E2E2E2E2E2E2E2E2E2E2E2E2E2E2E2E2E2E2E2E2E2E2E2E2E2E2E2E2E2E2E2E2E2E2E2E2E2E2E2E2E2E2E2E2E2E2E2E2E2E2E2E2E2E2E2E2E2E2E2E2E2E2E2E2E2
310
E2E2E2E2E2E2E2E2E2E2E2E2E2E2E2E2E2E2E2E2E2E2E2E2E2E2E2E2E2E2E2E2E2F5E2E2E2E2E2E2E2E2E2E2E2E2E2E2E2E2F5E2E2E2F5F5E2E2E2F5E2E2E2E2E2E2E2E2E2E2E2E2E2E2E2E2F5E2E2E2E2E2E2E2E2E2E2E2E2E2E2E2E2E2E2E2E2E2E2E2E2E2E2E2E2E2E2E2E2E2E2E2E2E2E2E2E2E2E2E2E2E2E2E2E2E2E2
310
E2E2E2E2E2E2E2E2E2E2E2E2E2E2E2E2E2E2E2E2E2E2E2E2E2E2E2E2E2E2E2E2E2E2E2E2E2E2E2E2E2E2E2E2E2E2E2E2E2E2E2E2E2E2E2E2E2E2E2E2E2E2E2E2E2E2E2E2E2E2E2E2E2E2E2E2E2E2E2E2E2E2E2E2E2E2F5E2E2E2E2E2E2E2E2E2E2E2E2E2E2E2E2F5E2E2E2F5F5E2E2E2F5E2E2E2E2E2E2E2E2E2E2E2E2E2E2
310
E2E2F5E2E2E2E2E2E2E2E2E2E2E2E2E2E2E2E2E2E2E2E2E2E2E2E2E2E2E2E2E2E2E2E2E2E2E2E2E2E2E2E2E2E2E2E2E2E2E2E2E2E2E2E2E2E2E2E2E2E2E2E2E2E2E2E2E2E2E2E2E2E2E2E2E2E2E2E2E2E2E2E2E2E2E2E2E2E2E2E2E2E2E2E2E2E2E2E2E2E2E2E2E2E2E2E2E2E2E2E2E2E2E2E2E2E2E2E2E2E2E2E2E2E2E2E2
310
E2E2E2E2E2E2E2E2E2E2E2E2F5E2E2E2E2E2E2E2E2E2E2E2E2E2E2E2E2F5E2E2E2F5F5E2E2E2F5E2E2E2E2E2E2E2E2E2E2E2E2E2E2E2E2F5E2E2E2E2E2E2E2E2E2E2E2E2E2E2E2E2E2E2E2E2E2E2E2E2E2E2E2E2E2E2E2E2E2E2E2E2E2E2E2E2E2E2E2E2E2E2E2E2E2E2E2E2E2E2E2E2E2E2E2E2E2E2E2E2E2E2E2E2E2E2E2
310
E2E2E2E2E2E2E2E2E2E2E2E2E2E2E2E2E2E2E2E2E2E2E2E2E2E2E2E2E2E2E2E2E2E2E2E2E2E2E2E2E2E2E2E2E2E2E2E2E2E2E2E2E2E2E2E2E2E2E2E2E2E2E2E2E2F5E2E2E2E2E2E2E2E2E2E2E2E2E2E2E2E2F5E2E2E2F5F5E2E2E2F5E2E2E2E2E2E2E2E2E2E2E2E2E2E2E2E2F5E2E2E2E2E2E2E2E2E2E2E2E2E2E2E2E2E2E2
310
E2E2E2E2E2E2E2E2E2E2E2E2E2E2E2E2E2E2E2E2E2E2E2E2E2E2E2E2E2E2E2E2E2E2E2E2E2E2E2E2E2E2E2E2E2E2E2E2E2E2E2E2E2E2E2E2E2E2E2E2E2E2E2E2E2E2E2E2E2E2E2E2E2E2E2E2E2E2E2E2E2E2E2E2E2E2E2E2E2E2E2E2E2E2E2E2E2E2E2E2E2E2E2E2E2E2E2E2E2E2E2E2E2E2E2E2E2E2F5E2E2E2E2E2E2E2E2
310
E2E2E2E2E2E2E2E2F5E2E2E2F5F5E2E2E2F5E2E2E2E2E2E2E2E2E2E2E2E2E2E2E2E2F5E2E2E2E2E2E2E2E2E2E2E2E2E2E2E2E2E2E2E2E2E2E2E2E2E2E2E2E2E2E2E2E2E2E2E2E2E2E2E2E2E2E2E2E2E2E2E2E2E2E2E2E2E2E2E2E2E2E2E2E2E2E2E2E2E2E2E2E2E2E2E2E2E2E2E2E2E2E2E2E2E2E2E2E2E2E2E2E2E2E2E2E2
310
E2E2E2E2E2E2E2E2E2E2E2E2E2E2E2E2E2E2E2E2E2E2E2E2E2E2E2E2E2E2E2E2E2E2E2E2E2E2E2E2E2E2E2E2F5E2E2E2E2E2E2E2E2E2E2E2E2E2E2E2E2F5E2E2E2F5F5E2E2E2F5E2E2E2E2E2E2E2E2E2E2E2E2E2E2E2E2F5E2E2E2E2E2E2E2E2E2E2E2E2E2E2E2E2E2E2E2E2E2E2E2E2E2E2E2E2E2E2E2E2E2E2E2E2E2E2E2
310
E2E2E2E2E2E2E2E2E2E2E2E2E2E2E2E2E2E2E2E2E2E2E2E2E2E2E2E2E2E2E2E2E2E2E2E2E2E2E2E2E2E2E2E2E2E2E2E2E2E2E2E2E2E2E2E2E2E2E2E2E2E2E2E2E2E2E2E2E2E2E2E2E2E2E2E2E2E2E2E2E2E2E2E2E2E2E2E2E2E2E2E2E2E2E2E2E2F5E2E2E2E2E2E2E2E2E2E2E2E2E2E2E2E2F5E2E2E2F5F5E2E2E2F5E2E2E2
310
E2E2E2E2E2E2E2E2E2E2E2E2E2F5E2E2E2E2E2E2E2E2E2E2E2E2E2E2E2E2E2E2E2E2E2E2E2E2E2E2E2E2E2E2E2E2E2E2E2E2E2E2E2E2E2E2E2E2E2E2E2E2E2E2E2E2E2E2E2E2E2E2E2E2E2E2E2E2E2E2E2E2E2E2E2E2E2E2E2E2E2E2E2E2E2E2E2E2E2E2E2E2E2E2E2E2E2E2E2E2E2E2E2E2E2E2E2E2E2E2E2E2E2E2E2E2E2
310
E2E2E2E2E2E2E2E2E2E2E2E2E2E2E2E2E2E2E2E2E2E2E2F5E2E2E2E2E2E2E2E2E2E2E2E2E2E2E2E2F5E2E2E2F5F5E2E2E2E2E2E2E2E2E2E2E2E2E2E2E2E2E2E2E2E2F5E2E2E2E2E2E2E2E2E2E2E2E2E2E2E2E2E2E2E2E2E2E2E2E2E2E2E2E2E2E2E2E2E2E2E2E2E2E2E2E2E2E2E2E2E2E2E2E2E2E2E2E2E2E2E2E2E2E2E2E2
310
E2E2E2E2E2E2E2E2E2E2E2E2E2E2E2E2E2E2E2E2E2E2E2E2E2E2E2E2E2E2E2E2E2E2E2E2E2E2E2E2E2E2E2E2E2E2E2E2E2E2E2E2E2E2E2E2E2E2E2E2E2E2E2E2E2E2E2E2E2E2E2E2E2E2E2E2F5E2E2E2E2E2E2E2E2E2E2E2E2E2E2E2E2E2E2E2E2F5F5E2E2E2E2E2E2E2E2E2E2E2E2E2E2E2E2E2E2E2E2F5E2E2E2E2E2E2E2
310
E2E2E2E2E2E2E2E2E2E2E2E2E2E2E2E2E2E2E2E2E2E2E2E2E2E2E2E2E2E2E2E2E2E2E2E2E2E2E2E2E2E2E2E2E2E2E2E2E2E2E2E2E2E2E2E2E2E2E2E2E2E2E2E2E2E2E2E2E2E2E2E2E2E2E2E2E2E2E2E2E2E2E2E2E2E2E2E2E2E2E2E2E2E2E2E2E2E2E2E2E2E2E2E2E2E2E2E2E2E2E2E2E2E2E2E2E2E2E2E2E2E2E2E2E2E2E2
310
E2E2F5E2E2E2E2E2E2E2E2E2E2E2E2E2E2E2E2E2E2E2E2F5F5E2E2E2E2E2E2E2E2E2E2E2E2E2E2E2E2E2E2E2E2F5E2E2E2E2E2E2E2E2E2E2E2E2E2E2E2E2E2E2E2E2E2E2E2E2E2E2E2E2E2E2E2E2E2E2E2E2E2E2E2E2E2E2E2E2E2E2E2E2E2E2E2E2E2E2E2E2E2E2E2E2E2E2E2E2E2E2E2E2E2E2E2E2E2E2E2E2E2E2E2E2E2
310
E2E2E2E2E2E2E2E2E2E2E2E2E2E2E2E2E2E2E2E2E2E2E2E2E2E2E2E2E2E2E2E2E2E2E2E2E2E2E2E2E2E2E2E2E2E2E2E2E2E2E2E2E2E2E2F5E2E2E2E2E2E2E2E2E2E2E2E2E2E2E2E2E2E2E2E2F5F5E2E2E2E2E2E2E2E2E2E2E2E2E2E2E2E2E2E2E2E2F5E2E2E2E2E2E2E2E2E2E2E2E2E2E2E2E2E2E2E2E2E2E2E2E2E2E2E2E2
310
E2E2E2E2E2E2E2E2E2E2E2E2E2E2E2E2E2E2E2E2E2E2E2E2E2E2E2E2E2E2E2E2E2E2E2E2E2E2E2E2E2E2E2E2E2E2E2E2E2E2E2E2E2E2E2E2E2E2E2E2E2E2E2E2E2E2E2E2E2E2E2E2E2E2E2E2E2E2E2E2E2E2E2E2E2E2E2E2E2E2E2E2E2E2E2E2E2E2E2E2E2E2E2E2E2E2E2E2F5E2E2E2E2E2E2E2E2E2E2E2E2E2E2E2E2E2E2
310
E2E2F5F5E2E2E2E2E2E2E2E2E2E2E2E2E2E2E2E2E2E2E2E2F5E2E2E2E2E2E2E2E2E2E2E2E2E2E2E2E2E2E2E2E2E2E2E2E2E2E2E2E2E2E2E2E2E2E2E2E2E2E2E2E2E2E2E2E2E2E2E2E2E2E2E2E2E2E2E2E2E2E2E2E2E2E2E2E2E2E2E2E2E2E2E2E2E2E2E2E2E2E2E2E2E2E2E2E2E2E2E2E2E2E2E2E2E2E2E2E2E2E2E2E2E2E2
310
E2E2E2E2E2E2E2E2E2E2E2E2E2E2E2E2E2E2E2E2E2E2E2E2E2E2E2E2E2E2E2E2E2E2F5E2E2E2E2E2E2E2E2E2E2E2E2E2E2E2E2E2E2E2E2F5F5E2E2E2E2E2E2E2E2E2E2E2E2E2E2E2E2E2E2E2E2F5E2E2E2E2E2E2E2E2E2E2E2E2E2E2E2E2E2E2E2E2E2E2E2E2E2E2E2E2E2E2E2E2E2E2E2E2E2E2E2E2E2E2E2E2E2E2E2E2E2
310
E2E2E2E2E2E2E2E2E2E2E2E2E2E2E2E2E2E2E2E2E2E2E2E2E2E2E2E2E2E2E2E2E2E2E2E2E2E2E2E2E2E2E2E2E2E2E2E2E2E2E2E2E2E2E2E2E2E2E2E2E2E2E2E2E2E2E2E2E2E2E2E2E2E2E2E2E2E2E2E2E2E2E2E2E2E2E2F5E2E2E2E2E2E2E2E2E2E2E2E2E2E2E2E2E2E2E2E2F5F5E2E2E2E2E2E2E2E2E2E2E2E2E2E2E2E2E2
310
E2E2E2F5E2E2E2E2E2E2E2E2E2E2E2E2E2E2E2E2E2E2E2E2E2E2E2E2E2E2E2E2E2E2E2E2E2E2E2E2E2E2E2E2E2E2E2E2E2E2E2E2E2E2E2E2E2E2E2E2E2E2E2E2E2E2E2E2E2E2E2E2E2E2E2E2E2E2E2E2E2E2E2E2E2E2E2E2E2E2E2E2E2E2E2E2E2E2E2E2E2E2E2E2E2E2E2E2E2E2E2E2E2E2E2E2E2E2E2E2E2E2E2E2E2E2E2
310
E2E2E2E2E2E2E2E2E2E2E2E2E2F5E2E2E2E2E2E2E2E2E2E2E2E2E2E2E2E2E2E2E2E2F5F5E2E2E2E2E2E2E2E2E2E2E2E2E2E2E2E2E2E2E2E2F5E2E2E2E2E2E2E2E2E2E2E2E2E2E2E2E2E2E2E2E2E2E2E2E2E2E2E2E2E2E2E2E2E2E2E2E2E2E2E2E2E2E2E2E2E2E2E2E2E2E2E2E2E2E2E2E2E2E2E2E2E2E2E2E2E2E2E2E2E2E2
310
E2E2E2E2E2E2E2E2E2E2E2E2E2E2E2E2E2E2E2E2E2E2E2E2E2E2E2E2E2E2E2E2E2E2E2E2E2E2E2E2E2E2E2E2E2E2E2E2E2E2E2E2E2E2E2E2E2E2E2E2E2E2E2E2E2E2F5E2E2E2E2E2E2E2E2E2E2E2E2E2E2E2E2E2E2E2E2F5F5E2E2E2E2E2E2E2E2E2E2E2E2E2E2E2E2E2E2E2E2F5E2E2E2E2E2E2E2E2E2E2E2E2E2E2E2E2E2
310
E2E2E2E2E2E2E2E2E2E2E2E2E2E2E2E2E2E2E2E2E2E2E2E2E2E2E2E2E2E2E2E2E2E2E2E2E2E2E2E2E2E2E2E2E2E2E2E2E2E2E2E2E2E2E2E2E2E2E2E2E2E2E2E2E2E2E2E2E2E2E2E2E2E2E2E2E2E2E2E2E2E2E2E2E2E2E2E2E2E2E2E2E2E2E2E2E2E2E2E2E2E2E2E2E2E2E2E2E2E2E2E2E2E2E2E2E2E2E2F5E2E2E2E2E2E2E2
310
E2E2E2E2E2E2E2E2E2E2E2E2E2F5F5E2E2E2F5E2E2E2E2E2E2E2E2E2E2E2E2E2E2E2E2F5E2E2E2E2E2E2E2E2E2E2E2E2E2E2E2E2E2E2E2E2E2E2E2E2E2E2E2E2E2E2E2E2E2E2E2E2E2E2E2E2E2E2E2E2E2E2E2E2E2E2E2E2E2E2E2E2E2E2E2E2E2E2E2E2E2E2E2E2E2E2E2E2E2E2E2E2E2E2E2E2E2E2E2E2E2E2E2E2E2E2E2
310
E2E2E2E2E2E2E2E2E2E2E2E2E2E2E2E2E2E2E2E2E2E2E2E2E2E2E2E2E2E2E2E2E2E2E2E2E2E2E2E2E2E2E2E2E2F5E2E2E2E2E2E2E2E2E2E2E2E2E2E2E2E2F5E2E2E2F5F5E2E2E2F5E2E2E2E2E2E2E2E2E2E2E2E2E2E2E2E2F5E2E2E2E2E2E2E2E2E2E2E2E2E2E2E2E2E2E2E2E2E2E2E2E2E2E2E2E2E2E2E2E2E2E2E2E2E2E2
310
E2E2E2E2E2E2E2E2E2E2E2E2E2E2E2E2E2E2E2E2E2E2E2E2E2E2E2E2E2E2E2E2E2E2E2E2E2E2E2E2E2E2E2E2E2E2E2E2E2E2E2E2E2E2E2E2E2E2E2E2E2E2E2E2E2E2E2E2E2E2E2E2E2E2E2E2E2E2E2E2E2E2E2E2E2E2E2E2E2E2E2E2E2E2E2E2E2E2F5E2E2E2E2E2E2E2E2E2E2E2E2E2E2E2E2F5E2E2E2F5F5E2E2E2F5E2E2
310
E2E2E2E2E2E2E2E2E2E2E2E2E2E2F5E2E2E2E2E2E2E2E2E2E2E2E2E2E2E2E2E2E2E2E2E2E2E2E2E2E2E2E2E2E2E2E2E2E2E2E2E2E2E2E2E2E2E2E2E2E2E2E2E2E2E2E2E2E2E2E2E2E2E2E2E2E2E2E2E2E2E2E2E2E2E2E2E2E2E2E2E2E2E2E2E2E2E2E2E2E2E2E2E2E2E2E2E2E2E2E2E2E2E2E2E2E2E2E2E2E2E2E2E2E2E2E2
310
E2E2E2E2E2E2E2E2E2E2E2E2E2E2E2E2E2E2E2E2E2E2E2E2F5E2E2E2E2E2E2E2E2E2E2E2E2E2E2E2E2F5E2E2E2F5F5E2E2E2F5E2E2E2E2E2E2E2E2E2E2E2E2E2E2E2E2F5E2E2E2E2E2E2E2E2E2E2E2E2E2E2E2E2E2E2E2E2E2E2E2E2E2E2E2E2E2E2E2E2E2E2E2E2E2E2E2E2E2E2E2E2E2E2E2E2E2E2E2E2E2E2E2E2E2E2E2
310
E2E2E2E2E2E2E2E2E2E2E2E2E2E2E2E2E2E2E2E2E2E2E2E2E2E2E2E2E2E2E2E2E2E2E2E2E2E2E2E2E2E2E2E2E2E2E2E2E2E2E2E2E2E2E2E2E2E2E2E2E2E2E2E2E2E2E2E2E2E2E2E2E2E2E2E2E2F5E2E2E2E2E2E2E2E2E2E2E2E2E2E2E2E2F5E2E2E2F5F5E2E2E2F5E2E2E2E2E2E2E2E2E2E2E2E2E2E2E2E2F5E2E2E2E2E2E2
310
E2E2E2E2E2E2E2E2E2E2E2E2E2E2E2E2E2E2E2E2E2E2E2E2E2E2E2E2E2E2E2E2E2E2E2E2E2E2E2E2E2E2E2E2E2E2E2E2E2E2E2E2E2E2E2E2E2E2E2E2E2E2E2E2E2E2E2E2E2E2E2E2E2E2E2E2E2E2E2E2E2E2E2E2E2E2E2E2E2E2E2E2E2E2E2E2E2E2E2E2E2E2E2E2E2E2E2E2E2E2E2E2E2E2E2E2E2E2E2E2E2E2E2E2E2E2E2
310
E2E2E2F5E2E2E2E2E2E2E2E2E2E2E2E2E2E2E2E2F5E2E2E2F5F5E2E2E2F5E2E2E2E2E2E2E2E2E2E2E2E2E2E2E2E2F5E2E2E2E2E2E2E2E2E2E2E2E2E2E2E2E2E2E2E2E2E2E2E2E2E2E2E2E2E2E2E2E2E2E2E2E2E2E2E2E2E2E2E2E2E2E2E2E2E2E2E2E2E2E2E2E2E2E2E2E2E2E2E2E2E2E2E2E2E2E2E2E2E2E2E2E2E2E2E2E2
310
E2E2E2E2E2E2E2E2E2E2E2E2E2E2E2E2E2E2E2E2E2E2E2E2E2E2E2E2E2E2E2E2E2E2E2E2E2E2E2E2E2E2E2E2E2E2E2E2E2E2E2E2E2E2E2E2F5E2E2E2E2E2E2E2E2E2E2E2E2E2E2E2E2F5E2E2E2F5F5E2E2E2F5E2E2E2E2E2E2E2E2E2E2E2E2E2E2E2E2F5E2E2E2E2E2E2E2E2E2E2E2E2E2E2E2E2E2E2E2E2E2E2E2E2E2E2E2
310
E2E2E2E2E2E2E2E2E2E2E2E2E2E2E2E2E2E2E2E2E2E2E2E2E2E2E2E2E2E2E2E2E2E2E2E2E2E2E2E2E2E2E2E2E2E2E2E2E2E2E2E2E2E2E2E2E2E2E2E2E2E2E2E2E2E2E2E2E2E2E2E2E2E2E2E2E2E2E2E2E2E2E2E2E2E2E2E2E2E2E2E2E2E2E2E2E2E2E2E2E2E2E2E2E2E2E2E2E2F5E2E2E2E2E2E2E2E2E2E2E2E2E2E2E2E2F5
310
E2E2E2F5F5E2E2E2F5E2E2E2E2E2E2E2E2E2E2E2E2E2E2E2E2F5E2E2E2E2E2E2E2E2E2E2E2E2E2E2E2E2E2E2E2E2E2E2E2E2E2E2E2E2E2E2E2E2E2E2E2E2E2E2E2E2E2E2E2E2E2E2E2E2E2E2E2E2E2E2E2E2E2E2E2E2E2E2E2E2E2E2E2E2E2E2E2E2E2E2E2E2E2E2E2E2E2E2E2E2E2E2E2E2E2E2E2E2E2E2E2E2E2E2E2E2E2
310
E2E2E2E2E2E2E2E2E2E2E2E2E2E2E2E2E2E2E2E2E2E2E2E2E2E2E2E2E2E2E2E2E2E2E2F5E2E2E2E2E2E2E2E2E2E2E2E2E2E2E2E2F5E2E2E2F5F5E2E2E2F5E2E2E2E2E2E2E2E2E2E2E2E2E2E2E2E2F5E2E2E2E2E2E2E2E2E2E2E2E2E2E2E2E2E2E2E2E2E2E2E2E2E2E2E2E2E2E2E2E2E2E2E2E2E2E2E2E2E2E2E2E2E2E2E2E2
310
E2E2E2E2E2E2E2E2E2E2E2E2E2E2E2E2E2E2E2E2E2E2E2E2E2E2E2E2E2E2E2E2E2E2E2E2E2E2E2E2E2E2E2E2E2E2E2E2E2E2E2E2E2E2E2E2E2E2E2E2E2E2E2E2E2E2E2E2E2E2E2E2E2E2E2E2E2E2E2E2E2E2E2E2E2E2E2E2F5E2E2E2E2E2E2E2E2E2E2E2E2E2E2E2E2F5E2E2E2F5F5E2E2E2F5E2E2E2E2E2E2E2E2E2E2E2E2
310
E2E2E2E2F5E2E2E2E2E2E2E2E2E2E2E2E2E2E2E2E2E2E2E2E2E2E2E2E2E2E2E2E2E2E2E2E2E2E2E2E2E2E2E2E2E2E2E2E2E2E2E2E2E2E2E2E2E2E2E2E2E2E2E2E2E2E2E2E2E2E2E2E2E2E2E2E2E2E2E2E2E2E2E2E2E2E2E2E2E2E2E2E2E2E2E2E2E2E2E2E2E2E2E2E2E2E2E2E2E2E2E2E2E2E2E2E2E2E2E2E2E2E2E2E2E2E2
310
E2E2E2E2E2E2E2E2E2E2E2E2E2E2F5E2E2E2E2E2E2E2E2E2E2E2E2E2E2E2E2F5E2E2E2F5F5E2E2E2F5E2E2E2E2E2E2E2E2E2E2E2E2E2E2E2E2F5E2E2E2E2E2E2E2E2E2E2E2E2E2E2E2E2E2E2E2E2E2E2E2E2E2E2E2E2E2E2E2E2E2E2E2E2E2E2E2E2E2E2E2E2E2E2E2E2E2E2E2E2E2E2E2E2E2E2E2E2E2E2E2E2E2E2E2E2E2
310
E2E2E2E2E2E2E2E2E2E2E2E2E2E2E2E2E2E2E2E2E2E2E2E2E2E2E2E2E2E2E2E2E2E2E2E2E2E2E2E2E2E2E2E2E2E2E2E2E2E2E2E2E2E2E2E2E2E2E2E2E2E2E2E2E2E2E2F5E2E2E2E2E2E2E2E2E2E2E2E2E2E2E2E2F5E2E2E2F5F5E2E2E2F5E2E2E2E2E2E2E2E2E2E2E2E2E2E2E2E2F5E2E2E2E2E2E2E2E2E2E2E2E2E2E2E2E2
310
E2E2E2E2E2E2E2E2E2E2E2E2E2E2E2E2E2E2E2E2E2E2E2E2E2E2E2E2E2E2E2E2E2E2E2E2E2E2E2E2E2E2E2E2E2E2E2E2E2E2E2E2E2E2E2E2E2E2E2E2E2E2E2E2E2E2E2E2E2E2E2E2E2E2E2E2E2E2E2E2E2E2E2E2E2E2E2E2E2E2E2E2E2E2E2E2E2E2E2E2E2E2E2E2E2E2E2E2E2E2E2E2E2E2E2E2E2E2E2E2F5E2E2E2E2E2E2
310
E2E2E2E2E2E2E2E2E2E2F5E2E2E2F5F5E2E2E2F5E2E2E2E2E2E2E2E2E2E2E2E2E2E2E2E2F5E2E2E2E2E2E2E2E2E2E2E2E2E2E2E2E2E2E2E2E2E2E2E2E2E2E2E2E2E2E2E2E2E2E2E2E2E2E2E2E2E2E2E2E2E2E2E2E2E2E2E2E2E2E2E2E2E2E2E2E2E2E2E2E2E2E2E2E2E2E2E2E2E2E2E2E2E2E2E2E2E2E2E2E2E2E2E2E2E2E2
310
E2E2E2E2E2E2E2E2E2E2E2E2E2E2E2E2E2E2E2E2E2E2E2E2E2E2E2E2E2E2E2E2E2E2E2E2E2E2E2E2E2E2E2E2E2E2F5E2E2E2E2E2E2E2E2E2E2E2E2E2E2E2E2F5E2E2E2F5F5E2E2E2F5E2E2E2E2E2E2E2E2E2E2E2E2E2E2E2E2F5E2E2E2E2E2E2E2E2E2E2E2E2E2E2E2E2E2E2E2E2E2E2E2E2E2E2E2E2E2E2E2E2E2E2E2E2E2
310
E2E2E2E2E2E2E2E2E2E2E2E2E2E2E2E2E2E2E2E2E2E2E2E2E2E2E2E2E2E2E2E2E2E2E2E2E2E2E2E2E2E2E2E2E2E2E2E2E2E2E2E2E2E2E2E2E2E2E2E2E2E2E2E2E2E2E2E2E2E2E2E2E2E2E2E2E2E2E2E2E2E2E2E2E2E2E2E2E2E2E2E2E2E2E2E2E2E2E2F5E2E2E2E2E2E2E2E2E2E2E2E2E2E2E2E2F5E2E2E2F5F5E2E2E2F5E2
310
E2E2E2E2E2E2E2E2E2E2E2E2E2E2E2F5E2E2E2E2E2E2E2E2E2E2E2E2E2E2E2E2E2E2E2E2E2E2E2E2E2E2E2E2E2E2E2E2E2E2E2E2E2E2E2E2E2E2E2E2E2E2E2E2E2E2E2E2E2E2E2E2E2E2E2E2E2E2E2E2E2E2E2E2E2E2E2E2E2E2E2E2E2E2E2E2E2E2E2E2E2E2E2E2E2E2E2E2E2E2E2E2E2E2E2E2E2E2E2E2E2E2E2E2E2E2E2
310
E2E2E2E2E2E2E2E2E2E2E2E2E2E2E2E2E2E2E2E2E2E2E2E2E2F5E2E2E2E2E2E2E2E2E2E2E2E2E2E2E2E2F5E2E2E2F5F5E2E2E2F5E2E2E2E2E2E2E2E2E2E2E2E2E2E2E2E2F5E2E2E2E2E2E2E2E2E2E2E2E2E2E2E2E2E2E2E2E2E2E2E2E2E2E2E2E2E2E2E2E2E2E2E2E2E2E2E2E2E2E2E2E2E2E2E2E2E2E2E2E2E2E2E2E2E2E2
310
E2E2E2E2E2E2E2E2E2E2E2E2E2E2E2E2E2E2E2E2E2E2E2E2E2E2E2E2E2E2E2E2E2E2E2E2E2E2E2E2E2E2E2E2E2E2E2E2E2E2E2E2E2E2E2E2E2E2E2E2E2E2E2E2E2E2E2E2E2E2E2E2E2E2E2E2E2E2F5E2E2E2E2E2E2E2E2E2E2E2E2E2E2E2E2F5E2E2E2F5F5E2E2E2F5E2E2E2E2E2E2E2E2E2E2E2E2E2E2E2E2F5E2E2E2E2E2
310
E2E2E2E2E2E2E2E2E2E2E2E2E2E2E2E2E2E2E2E2E2E2E2E2E2E2E2E2E2E2E2E2E2E2E2E2E2E2E2E2E2E2E2E2E2E2E2E2E2E2E2E2E2E2E2E2E2E2E2E2E2E2E2E2E2E2E2E2E2E2E2E2E2E2E2E2E2E2E2E2E2E2E2E2E2E2E2E2E2E2E2E2E2E2E2E2E2E2E2E2E2E2E2E2E2E2E2E2E2E2E2E2E2E2E2E2E2E2E2E2E2E2E2E2E2E2E2
310
E2E2E2E2F5E2E2E2E2E2E2E2E2E2E2E2E2E2E2E2E2F5E2E2E2F5F5E2E2E2E2E2E2E2E2E2E2E2E2E2E2E2E2E2E2E2E2F5E2E2E2E2E2E2E2E2E2E2E2E2E2E2E2E2E2E2E2E2E2E2E2E2E2E2E2E2E2E2E2E2E2E2E2E2E2E2E2E2E2E2E2E2E2E2E2E2E2E2E2E2E2E2E2E2E2E2E2E2E2E2E2E2E2E2E2E2E2E2E2E2E2E2E2E2E2E2E2
310
E2E2E2E2E2E2E2E2E2E2E2E2E2E2E2E2E2E2E2E2E2E2E2E2E2E2E2E2E2E2E2E2E2E2E2E2E2E2E2E2E2E2E2E2E2E2E2E2E2E2E2E2E2E2E2E2E2F5E2E2E2E2E2E2E2E2E2E2E2E2E2E2E2E2E2E2E2E2F5F5E2E2E2E2E2E2E2E2E2E2E2E2E2E2E2E2E2E2E2E2F5E2E2E2E2E2E2E2E2E2E2E2E2E2E2E2E2E2E2E2E2E2E2E2E2E2E2
310
E2E2E2E2E2E2E2E2E2E2E2E2E2E2E2E2E2E2E2E2E2E2E2E2E2E2E2E2E2E2E2E2E2E2E2E2E2E2E2E2E2E2E2E2E2E2E2E2E2E2E2E2E2E2E2E2E2E2E2E2E2E2E2E2E2E2E2E2E2E2E2E2E2E2E2E2E2E2E2E2E2E2E2E2E2E2E2E2E2E2E2E2E2E2E2E2E2E2E2E2E2E2E2E2E2E2E2E2E2E2F5E2E2E2E2E2E2E2E2E2E2E2E2E2E2E2E2
310
E2E2E2E2F5F5E2E2E2E2E2E2E2E2E2E2E2E2E2E2E2E2E2E2E2E2F5E2E2E2E2E2E2E2E2E2E2E2E2E2E2E2E2E2E2E2E2E2E2E2E2E2E2E2E2E2E2E2E2E2E2E2E2E2E2E2E2E2E2E2E2E2E2E2E2E2E2E2E2E2E2E2E2E2E2E2E2E2E2E2E2E2E2E2E2E2E2E2E2E2E2E2E2E2E2E2E2E2E2E2E2E2E2E2E2E2E2E2E2E2E2E2E2E2E2E2E2
310
E2E2E2E2E2E2E2E2E2E2E2E2E2E2E2E2E2E2E2E2E2E2E2E2E2E2E2E2E2E2E2E2E2E2E2E2F5E2E2E2E2E2E2E2E2E2E2E2E2E2E2E2E2E2E2E2E2F5F5E2E2E2E2E2E2E2E2E2E2E2E2E2E2E2E2E2E2E2E2F5E2E2E2E2E2E2E2E2E2E2E2E2E2E2E2E2E2E2E2E2E2E2E2E2E2E2E2E2E2E2E2E2E2E2E2E2E2E2E2E2E2E2E2E2E2E2E2
310
E2E2E2E2E2E2E2E2E2E2E2E2E2E2E2E2E2E2E2E2E2E2E2E2E2E2E2E2E2E2E2E2E2E2E2E2E2E2E2E2E2E2E2E2E2E2E2E2E2E2E2E2E2E2E2E2E2E2E2E2E2E2E2E2E2E2E2E2E2E2E2E2E2E2E2E2E2E2E2E2E2E2E2E2E2E2E2E2E2F5E2E2E2E2E2E2E2E2E2E2E2E2E2E2E2E2E2E2E2E2F5F5E2E2E2E2E2E2E2E2E2E2E2E2E2E2E2
310
E2E2E2E2E2F5F5F5F5F5F5F5F5F5F5F5F5F5F5F5F5F5F5F5F5F5F5F5F5F5F5F5F5F5F5F5F5F5F5F5F5F5F5F5F5F5F5F5F5F5F5F5F5F5F5F5F5F5F5F5F5F5F5F5F5F5F5F5F5F5F5F5F5F5F5F5F5F5F5F5F5F5F5F5F5F5F5F5F5F5F5F5F5F5F5F5F5F5F5F5F5F5F5F5F5F5F5F5F5F5F5F5F5F5F5F5F5F5F5F5F5F5F5F5F5F5F5
310
F5F5F5F5F5F5F5F5F5F5F5F5F5F5F5F5E2E2E2E2E2E2E2E2E2E2E2E2E2E2E2E2E2E2E2E2F5F5E2E2E2E2E2E2E2E2E2E2E2E2E2E2E2E2E2E2E2E2E2E2E2E2E2E2E2E2E2E2E2E2E2E2E2E2E2E2E2E2E2E2E2E2E2E2E2E2E2E2E2E2E2E2E2E2E2E2E2E2E2E2E2E2E2E2E2E2E2E2E2E2E2E2E2E2E2E2E2E2E2E2E2E2E2E2E2E2E2
310
E2E2E2E2E2E2E2E2E2E2E2E2E2E2E2E2E2E2E2E2E2E2E2E2E2E2E2E2E2E2E2E2E2E2E2E2E2E2E2E2E2E2E2E2E2E2E2E2E2E2E2E2E2E2E2E2E2E2E2E2E2E2E2E2E2E2E2E2E2E2E2E2E2E2E2E2E2E2E2E2E2E2E2E2E2E2E2E2E2F5F5E2E2E2E2E2E2E2E2E2E2E2E2E2E2E2E2E2E2E2E2E2E2E2E2E2E2E2E2E2E2E2E2E2E2E2E2
310
E2E2E2E2E2E2E2E2E2E2E2E2E2E2E2E2E2E2E2E2E2E2E2E2E2E2E2E2E2E2E2E2E2E2E2E2E2E2E2E2E2E2E2E2E2E2E2E2E2E2E2E2E2E2E2E2E2E2E2E2E2E2E2E2E2E2E2E2E2E2E2E2E2E2E2E2E2E2E2E2E2E2E2E2E2E2E2E2E2E2E2E2E2E2E2E2E2E2E2E2E2E2E2E2E2E2E2E2E2E2E2E2E2E2E2E2E2E2E2E2E2E2E2E2E2E2E2
310
E2E2E2E2E2E2E2E2E2E2E2E2E2E2E2F5F5E2E2E2E2E2E2E2E2E2E2E2E2E2E2E2E2E2E2E2E2E2E2E2E2E2E2E2E2E2E2E2E2E2E2E2E2E2E2E2E2E2E2E2E2E2E2E2E2E2E2E2E2E2E2E2E2E2E2E2E2E2E2E2E2E2E2E2E2E2E2E2E2E2E2E2E2E2E2E2E2E2E2E2E2E2E2E2E2E2E2E2E2E2E2E2E2E2E2E2E2E2E2E2E2E2E2E2E2E2E2
310
E2E2E2E2E2E2E2E2E2E2E2E2E2E2E2E2E2E2E2E2E2E2E2E2E2E2E2E2E2E2E2E2E2E2E2E2E2E2E2E2E2E2E2E2E2E2E2E2E2E2E2E2E2E2E2E2E2E2E2E2E2E2E2E2E2E2E2E2F5F5E2E2E2E2E2E2E2E2E2E2E2E2E2E2E2E2E2E2E2E2E2E2E2E2E2E2E2E2E2E2E2E2E2E2E2E2E2E2E2E2E2E2E2E2E2E2E2E2E2E2E2E2E2E2E2E2E2
310
E2E2E2E2E2E2E2E2E2E2E2E2E2E2E2E2E2E2E2E2E2E2E2E2E2E2E2E2E2E2E2E2E2E2E2E2E2E2E2E2E2E2E2E2E2E2E2E2E2E2E2E2E2E2E2E2E2E2E2E2E2E2E2E2E2E2E2E2E2E2E2E2E2E2E2E2E2E2E2E2E2E2E2E2E2E2E2E2E2E2E2E2E2E2E2E2E2E2E2E2E2E2E2E2E2E2E2E2E2E2E2E2E2E2E2E2E2E2E2E2E2F5F5E2E2E2F5
310
E2E2E2E2E2E2E2E2E2E2E2E2E2E2E2E2E2E2E2E2E2E2E2E2E2E2E2E2E2E2E2E2E2E2E2E2E2E2E2E2E2E2E2E2E2E2E2E2E2E2E2E2E2E2E2E2E2E2E2E2E2E2E2E2E2E2E2E2E2E2E2E2E2E2E2E2E2E2E2E2E2E2E2E2E2E2E2E2E2E2E2E2E2E2E2E2E2E2E2E2E2E2E2E2E2E2E2E2E2E2E2E2E2E2E2E2E2E2E2E2E2E2E2E2E2E2E2
310
E2E2E2E2E2E2E2E2E2E2E2E2E2E2E2E2E2E2E2E2E2E2E2E2E2E2E2E2E2E2E2E2E2E2E2E2E2E2E2E2E2E2E2F5E2E2E2F5F5E2E2E2F5E2E2E2E2E2E2E2E2E2E2E2E2E2E2E2E2E2E2E2E2E2E2E2E2E2E2E2E2E2E2E2E2E2E2E2E2E2E2E2E2E2E2E2E2E2E2E2E2E2E2E2E2E2E2E2E2E2E2E2E2E2E2E2E2E2E2E2E2E2E2E2E2E2E2
310
E2E2E2E2E2E2E2E2E2E2E2E2E2E2E2E2E2E2E2E2E2E2E2E2E2E2E2E2E2E2E2E2E2E2E2E2E2E2E2E2E2E2E2E2E2E2E2E2E2E2E2E2E2E2E2E2E2E2E2E2E2E2E2E2E2E2E2E2E2E2E2E2E2E2E2E2E2E2E2E2E2E2E2E2E2E2E2E2E2E2E2E2E2E2E2E2F5E2E2E2F5F5E2E2E2F5E2E2E2E2E2E2E2E2E2E2E2E2E2E2E2E2E2E2E2E2E2
310
E2E2E2E2E2E2E2E2E2E2E2E2E2E2E2E2E2E2E2E2E2E2E2E2E2E2E2E2E2E2E2E2E2E2E2E2E2E2E2E2E2E2E2E2E2E2E2E2E2E2E2E2E2E2E2E2E2E2E2E2E2E2E2E2E2E2E2E2E2E2E2E2E2E2E2E2E2E2E2E2E2E2E2E2E2E2E2E2E2E2E2E2E2E2E2E2E2E2E2E2E2E2E2E2E2E2E2E2E2E2E2E2E2E2E2E2E2E2E2E2E2E2E2E2E2E2E2
310
E2E2E2E2E2E2E2E2E2E2E2E2E2E2E2E2E2E2E2E2E2E2F5E2E2E2F5F5E2E2E2F5E2E2E2E2E2E2E2E2E2E2E2E2E2E2E2E2E2E2E2E2E2E2E2E2E2E2E2E2E2E2E2E2E2E2E2E2E2E2E2E2E2E2E2E2E2E2E2E2E2E2E2E2E2E2E2E2E2E2E2E2E2E2E2E2E2E2E2E2E2E2E2E2E2E2E2E2E2E2E2E2E2E2E2E2E2E2E2E2E2E2E2E2E2E2E2
310
E2E2E2E2E2E2E2E2E2E2E2E2E2E2E2E2E2E2E2E2E2E2E2E2E2E2E2E2E2E2E2E2E2E2E2E2E2E2E2E2E2E2E2E2E2E2E2E2E2E2E2E2E2E2E2E2E2E2E2E2E2E2E2E2E2E2E2E2E2E2E2E2E2E2E2F5E2E2E2F5F5E2E2E2F5E2E2E2E2E2E2E2E2E2E2E2E2E2E2E2E2E2E2E2E2E2E2E2E2E2E2E2E2E2E2E2E2E2E2E2E2E2E2E2E2E2E2
310
E2E2E2E2E2E2E2E2E2E2E2E2E2E2E2E2E2E2E2E2E2E2E2E2E2E2E2E2E2E2E2E2E2E2E2E2E2E2E2E2E2E2E2E2E2E2E2E2E2E2E2E2E2E2E2E2E2E2E2E2E2E2E2E2E2E2E2E2E2E2E2E2E2E2E2E2E2E2E2E2E2E2E2E2E2E2E2E2E2E2E2E2E2E2E2E2E2E2E2E2E2E2E2E2E2E2E2E2E2E2E2E2E2E2E2E2E2E2E2E2E2E2E2E2E2E2E2
310
E2F5E2E2E2F5F5E2E2E2F5E2E2E2E2E2E2E2E2E2E2E2E2E2E2E2E2E2E2E2E2E2E2E2E2E2E2E2E2E2E2E2E2E2E2E2E2E2E2E2E2E2E2E2E2E2E2E2E2E2E2E2E2E2E2E2E2E2E2E2E2E2E2E2E2E2E2E2E2E2E2E2E2E2E2E2E2E2E2E2E2E2E2E2E2E2E2E2E2E2E2E2E2E2E2E2E2E2E2E2E2E2E2E2E2E2E2E2E2E2E2E2E2E2E2E2E2
310
E2E2E2E2E2E2E2E2E2E2E2E2E2E2E2E2E2E2E2E2E2E2E2E2E2E2E2E2E2E2E2E2E2E2E2E2E2E2E2E2E2E2E2E2E2E2E2E2E2E2E2E2E2E2F5E2E2E2F5F5E2E2E2F5E2E2E2E2E2E2E2E2E2E2E2E2E2E2E2E2E2E2E2E2E2E2E2E2E2E2E2E2E2E2E2E2E2E2E2E2E2E2E2E2E2E2E2E2E2E2E2E2E2E2E2E2E2E2E2E2E2E2E2E2E2E2E2
310
E2E2E2E2E2E2E2E2E2E2E2E2E2E2E2E2E2E2E2E2E2E2E2E2E2E2E2E2E2E2E2E2E2E2E2E2E2E2E2E2E2E2E2E2E2E2E2E2E2E2E2E2E2E2E2E2E2E2E2E2E2E2E2E2E2E2E2E2E2E2E2E2E2E2E2E2E2E2E2E2E2E2E2E2E2E2E2E2E2E2E2E2E2E2E2E2E2E2E2E2E2E2E2E2E2E2E2F5E2E2E2F5F5E2E2E2F5E2E2E2E2E2E2E2E2E2E2
310
E2E2E2E2E2E2E2E2E2E2E2E2E2E2E2E2E2E2E2E2E2E2E2E2E2E2E2E2E2E2E2E2E2E2E2E2E2E2E2E2E2E2E2E2E2E2E2E2E2E2E2E2E2E2E2E2E2E2E2E2E2E2E2E2E2E2E2E2E2E2E2E2E2E2E2E2E2E2E2E2E2E2E2E2E2E2E2E2E2E2E2E2E2E2E2E2E2E2E2E2E2E2E2E2E2E2E2E2E2E2E2E2E2E2E2E2E2E2E2E2E2E2E2E2E2E2E2
310
E2E2E2E2E2E2E2E2E2E2E2E2E2E2E2E2E2E2E2E2E2E2E2E2E2E2E2E2E2E2E2E2E2F5E2E2E2F5F5E2E2E2F5F5F5F5F5F5F5F5E2E2E2E2E2E2E2E2E2F5F5F5F5F5F5F5F5F5F5F5F5F5F5F5F5E2E2E2E2E2E2E2E2E2F5F5F5F5F5F5F5F5F5F5F5F5F5F5F5E2E2E2E2E2E2E2E2E2F5F5F5F5F5F5F5F5F5F5F5F5F5F5F5F5E2E2E2
310
E2E2E2E2E2F5F5F5F5F5F5F5F5F5F5F5F5F5F5F5F5E2E2E2E2E2E2E2E2E2F5F5F5F5F5F5F5F5F5F5F5F5F5F5F5E2E2E2E2E2E2E2E2E2F5F5F5F5F5F5F5F5F5F5F5F5F5F5F5F5E2E2E2E2E2E2E2E2E2F5F5F5F5F5F5F5F5E2E2E2F5F5E2E2E2E2E2E2E2E2E2E2E2E2E2E2E2E2E2E2E2E2E2E2E2E2E2E2E2E2E2E2E2E2E2E2E2
310
E2E2E2E2E2E2E2E2E2E2E2E2E2E2E2E2E2E2E2E2E2E2E2E2E2E2E2E2E2E2E2E2E2E2E2E2E2E2E2E2E2E2E2E2E2E2E2E2E2E2E2E2E2E2E2E2E2E2E2E2E2E2E2E2E2E2E2E2E2E2E2E2E2E2E2E2E2E2E2E2E2E2E2E2E2E2E2E2E2E2E2E2E2E2E2E2E2E2E2E2E2E2E2E2E2E2E2E2E2E2E2E2E2E2E2E2E2E2E2E2E2E2E2E2E2E2E2
310
E2E2E2E2E2E2E2E2E2E2E2E2E2E2E2E2F5F5E2E2E2E2E2E2E2E2E2E2E2E2E2E2E2E2E2E2E2E2E2E2E2E2E2E2E2E2E2E2E2E2E2E2E2E2E2E2E2E2E2E2E2E2E2E2E2E2E2E2E2E2E2E2E2E2E2E2E2E2E2E2E2E2E2E2E2E2E2E2E2E2E2E2E2E2E2E2E2E2E2E2E2E2E2E2E2E2E2E2E2E2E2E2E2E2E2E2E2E2E2E2E2E2E2E2E2E2E2
310
E2E2E2E2E2E2E2E2E2E2E2E2E2E2E2E2E2E2E2E2E2E2E2E2E2E2E2E2E2E2E2E2E2E2E2E2E2E2E2E2E2E2E2E2E2E2E2E2E2E2E2E2E2E2E2E2E2E2E2E2E2E2E2E2E2E2E2E2E2F5F5E2E2E2E2E2E2E2E2E2E2E2E2E2E2E2E2E2E2E2E2E2E2E2E2E2E2E2E2E2E2E2E2E2E2E2E2E2E2E2E2E2E2E2E2E2E2E2E2E2E2E2E2E2E2E2E2
310
E2E2E2E2E2E2E2E2E2E2E2E2E2E2E2E2E2E2E2E2E2E2E2E2E2E2E2E2E2E2E2E2E2E2E2E2E2E2E2E2E2E2E2E2E2E2E2E2E2E2E2E2E2E2E2E2E2E2E2E2E2E2E2E2E2E2E2E2E2E2E2E2E2E2E2E2E2E2E2E2E2E2E2E2E2E2E2E2E2E2E2E2E2E2E2E2E2E2E2E2E2E2E2E2E2E2E2E2E2E2E2E2E2E2E2E2E2E2E2E2E2E2F5F5E2E2E2
310
E2E2E2E2E2E2E2E2E2E2E2E2E2E2E2E2E2E2E2E2E2E2E2E2E2E2E2E2E2E2E2E2E2E2E2E2E2E2E2E2E2E2E2E2E2E2E2E2E2E2E2E2E2E2E2E2E2E2E2E2E2E2E2E2E2E2E2E2E2E2E2E2E2E2E2E2E2E2E2E2E2E2E2E2E2E2E2E2E2E2E2E2E2E2E2E2E2E2E2E2E2E2E2E2E2E2E2E2E2E2E2E2E2E2E2E2E2E2E2E2E2E2E2E2E2E2E2
310
E2E2E2E2E2E2E2E2E2E2E2E2E2E2E2E2E2E2E2E2E2E2E2E2E2E2E2E2E2E2E2E2E2E2E2E2E2E2E2E2E2E2E2E2E2E2E2E2F5
  0
XRECORD
  5
5701E
102
{ACAD_REACTORS
330
5701D
102
}
330
5701D
100
AcDbXrecord
280
     1
102
SHADEPLOT
 70
     0
102
SHADEPLOTRESLEVEL
 70
     2
102
SHADEPLOTCUSTOMDPI
 70
   300
  0
ENDSEC
  0
EOF
