  0
SECTION
  2
HEADER
  9
$ACADVER
  1
AC1015
  9
$ACADMAINTVER
 70
    20
  9
$DWGCODEPAGE
  3
ANSI_936
  9
$INSBASE
 10
0.0
 20
0.0
 30
0.0
  9
$EXTMIN
 10
-161.925
 20
-367.4287955290241
 30
0.0
  9
$EXTMAX
 10
261.2605525221328
 20
97.73187236423074
 30
0.0
  9
$LIMMIN
 10
0.0
 20
0.0
  9
$LIMMAX
 10
420.0
 20
297.0
  9
$ORTHOMODE
 70
     0
  9
$REGENMODE
 70
     1
  9
$FILLMODE
 70
     1
  9
$QTEXTMODE
 70
     0
  9
$MIRRTEXT
 70
     1
  9
$LTSCALE
 40
1.0
  9
$ATTMODE
 70
     1
  9
$TEXTSIZE
 40
3.5
  9
$TRACEWID
 40
1.0
  9
$TEXTSTYLE
  7
simplex
  9
$CLAYER
  8
0
  9
$CELTYPE
  6
ByLayer
  9
$CECOLOR
 62
   256
  9
$CELTSCALE
 40
1.0
  9
$DISPSILH
 70
     0
  9
$DIMSCALE
 40
0.0
  9
$DIMASZ
 40
3.5
  9
$DIMEXO
 40
0.0
  9
$DIMDLI
 40
0.38
  9
$DIMRND
 40
0.0
  9
$DIMDLE
 40
0.0
  9
$DIMEXE
 40
1.5
  9
$DIMTP
 40
0.0
  9
$DIMTM
 40
0.0
  9
$DIMTXT
 40
3.5
  9
$DIMCEN
 40
0.09
  9
$DIMTSZ
 40
0.0
  9
$DIMTOL
 70
     0
  9
$DIMLIM
 70
     0
  9
$DIMTIH
 70
     0
  9
$DIMTOH
 70
     0
  9
$DIMSE1
 70
     0
  9
$DIMSE2
 70
     0
  9
$DIMTAD
 70
     1
  9
$DIMZIN
 70
     8
  9
$DIMBLK
  1

  9
$DIMASO
 70
     1
  9
$DIMSHO
 70
     1
  9
$DIMPOST
  1

  9
$DIMAPOST
  1

  9
$DIMALT
 70
     0
  9
$DIMALTD
 70
     2
  9
$DIMALTF
 40
25.4
  9
$DIMLFAC
 40
1.0
  9
$DIMTOFL
 70
     0
  9
$DIMTVP
 40
0.0
  9
$DIMTIX
 70
     0
  9
$DIMSOXD
 70
     0
  9
$DIMSAH
 70
     0
  9
$DIMBLK1
  1

  9
$DIMBLK2
  1

  9
$DIMSTYLE
  2
\M+18352\M+18373\M+1815B - ISO-25
  9
$DIMCLRD
 70
   256
  9
$DIMCLRE
 70
   256
  9
$DIMCLRT
 70
   256
  9
$DIMTFAC
 40
1.0
  9
$DIMGAP
 40
2.299999999999998
  9
$DIMJUST
 70
     0
  9
$DIMSD1
 70
     0
  9
$DIMSD2
 70
     0
  9
$DIMTOLJ
 70
     1
  9
$DIMTZIN
 70
     8
  9
$DIMALTZ
 70
     0
  9
$DIMALTTZ
 70
     0
  9
$DIMUPT
 70
     0
  9
$DIMDEC
 70
     2
  9
$DIMTDEC
 70
     2
  9
$DIMALTU
 70
     2
  9
$DIMALTTD
 70
     2
  9
$DIMTXSTY
  7
simplex
  9
$DIMAUNIT
 70
     0
  9
$DIMADEC
 70
     0
  9
$DIMALTRND
 40
0.0
  9
$DIMAZIN
 70
     0
  9
$DIMDSEP
 70
    46
  9
$DIMATFIT
 70
     3
  9
$DIMFRAC
 70
     0
  9
$DIMLDRBLK
  1

  9
$DIMLUNIT
 70
     2
  9
$DIMLWD
 70
    -1
  9
$DIMLWE
 70
    -1
  9
$DIMTMOVE
 70
     0
  9
$LUNITS
 70
     2
  9
$LUPREC
 70
     4
  9
$SKETCHINC
 40
1.0
  9
$FILLETRAD
 40
0.5
  9
$AUNITS
 70
     0
  9
$AUPREC
 70
     0
  9
$MENU
  1
.
  9
$ELEVATION
 40
0.0
  9
$PELEVATION
 40
0.0
  9
$THICKNESS
 40
0.0
  9
$LIMCHECK
 70
     0
  9
$CHAMFERA
 40
10.0
  9
$CHAMFERB
 40
10.0
  9
$CHAMFERC
 40
20.0
  9
$CHAMFERD
 40
0.0
  9
$SKPOLY
 70
     0
  9
$TDCREATE
 40
2455489.391063368
  9
$TDUCREATE
 40
2455489.057730035
  9
$TDUPDATE
 40
2458572.762395926
  9
$TDUUPDATE
 40
2458572.429062593
  9
$TDINDWG
 40
2.7720666088
  9
$TDUSRTIMER
 40
2.7720095370
  9
$USRTIMER
 70
     1
  9
$ANGBASE
 50
0.0
  9
$ANGDIR
 70
     0
  9
$PDMODE
 70
     0
  9
$PDSIZE
 40
0.0
  9
$PLINEWID
 40
0.0
  9
$SPLFRAME
 70
     0
  9
$SPLINETYPE
 70
     6
  9
$SPLINESEGS
 70
     8
  9
$HANDSEED
  5
55876
  9
$SURFTAB1
 70
     6
  9
$SURFTAB2
 70
     6
  9
$SURFTYPE
 70
     6
  9
$SURFU
 70
     6
  9
$SURFV
 70
     6
  9
$UCSBASE
  2

  9
$UCSNAME
  2

  9
$UCSORG
 10
0.0
 20
0.0
 30
0.0
  9
$UCSXDIR
 10
1.0
 20
0.0
 30
0.0
  9
$UCSYDIR
 10
0.0
 20
1.0
 30
0.0
  9
$UCSORTHOREF
  2

  9
$UCSORTHOVIEW
 70
     0
  9
$UCSORGTOP
 10
0.0
 20
0.0
 30
0.0
  9
$UCSORGBOTTOM
 10
0.0
 20
0.0
 30
0.0
  9
$UCSORGLEFT
 10
0.0
 20
0.0
 30
0.0
  9
$UCSORGRIGHT
 10
0.0
 20
0.0
 30
0.0
  9
$UCSORGFRONT
 10
0.0
 20
0.0
 30
0.0
  9
$UCSORGBACK
 10
0.0
 20
0.0
 30
0.0
  9
$PUCSBASE
  2

  9
$PUCSNAME
  2

  9
$PUCSORG
 10
0.0
 20
0.0
 30
0.0
  9
$PUCSXDIR
 10
1.0
 20
0.0
 30
0.0
  9
$PUCSYDIR
 10
0.0
 20
1.0
 30
0.0
  9
$PUCSORTHOREF
  2

  9
$PUCSORTHOVIEW
 70
     0
  9
$PUCSORGTOP
 10
0.0
 20
0.0
 30
0.0
  9
$PUCSORGBOTTOM
 10
0.0
 20
0.0
 30
0.0
  9
$PUCSORGLEFT
 10
0.0
 20
0.0
 30
0.0
  9
$PUCSORGRIGHT
 10
0.0
 20
0.0
 30
0.0
  9
$PUCSORGFRONT
 10
0.0
 20
0.0
 30
0.0
  9
$PUCSORGBACK
 10
0.0
 20
0.0
 30
0.0
  9
$USERI1
 70
     0
  9
$USERI2
 70
     0
  9
$USERI3
 70
     0
  9
$USERI4
 70
     0
  9
$USERI5
 70
     0
  9
$USERR1
 40
0.0
  9
$USERR2
 40
0.0
  9
$USERR3
 40
0.0
  9
$USERR4
 40
0.0
  9
$USERR5
 40
0.0
  9
$WORLDVIEW
 70
     1
  9
$SHADEDGE
 70
     3
  9
$SHADEDIF
 70
    70
  9
$TILEMODE
 70
     1
  9
$MAXACTVP
 70
    64
  9
$PINSBASE
 10
0.0
 20
0.0
 30
0.0
  9
$PLIMCHECK
 70
     0
  9
$PEXTMIN
 10
26.66999878883364
 20
20.31999878883365
 30
0.0
  9
$PEXTMAX
 10
240.0299890995025
 20
182.8799890995025
 30
0.0
  9
$PLIMMIN
 10
-6.350006103515625
 20
-6.349999904632567
  9
$PLIMMAX
 10
273.0499877929688
 20
209.5499939918518
  9
$UNITMODE
 70
     0
  9
$VISRETAIN
 70
     1
  9
$PLINEGEN
 70
     0
  9
$PSLTSCALE
 70
     1
  9
$TREEDEPTH
 70
  3020
  9
$CMLSTYLE
  2
Standard
  9
$CMLJUST
 70
     0
  9
$CMLSCALE
 40
20.0
  9
$PROXYGRAPHICS
 70
     1
  9
$MEASUREMENT
 70
     1
  9
$CELWEIGHT
370
    -1
  9
$ENDCAPS
280
     0
  9
$JOINSTYLE
280
     0
  9
$LWDISPLAY
290
     0
  9
$INSUNITS
 70
     4
  9
$HYPERLINKBASE
  1

  9
$STYLESHEET
  1

  9
$XEDIT
290
     1
  9
$CEPSNTYPE
380
     0
  9
$PSTYLEMODE
290
     1
  9
$FINGERPRINTGUID
  2
{601DDA01-5B13-4A4C-8F56-1333B78D855B}
  9
$VERSIONGUID
  2
{7BC413B1-90D4-4598-9783-F814CCF6143A}
  9
$EXTNAMES
290
     1
  9
$PSVPSCALE
 40
0.0
  9
$OLESTARTUP
290
     0
  0
ENDSEC
  0
SECTION
  2
CLASSES
  0
CLASS
  1
ACDBDICTIONARYWDFLT
  2
AcDbDictionaryWithDefault
  3
ObjectDBX Classes
 90
        0
280
     0
281
     0
  0
CLASS
  1
ACDBPLACEHOLDER
  2
AcDbPlaceHolder
  3
ObjectDBX Classes
 90
        0
280
     0
281
     0
  0
CLASS
  1
LAYOUT
  2
AcDbLayout
  3
ObjectDBX Classes
 90
        0
280
     0
281
     0
  0
CLASS
  1
DICTIONARYVAR
  2
AcDbDictionaryVar
  3
ObjectDBX Classes
 90
        0
280
     0
281
     0
  0
CLASS
  1
TABLESTYLE
  2
AcDbTableStyle
  3
ObjectDBX Classes
 90
     2047
280
     0
281
     0
  0
CLASS
  1
SORTENTSTABLE
  2
AcDbSortentsTable
  3
ObjectDBX Classes
 90
        0
280
     0
281
     0
  0
CLASS
  1
DIMASSOC
  2
AcDbDimAssoc
  3
"AcDbDimAssoc|Product Desc:     AcDim ARX App For Dimension|Company:          Autodesk, Inc.|WEB Address:      www.autodesk.com"
 90
        0
280
     0
281
     0
  0
CLASS
  1
ACAD_EVALUATION_GRAPH
  2
AcDbEvalGraph
  3
ObjectDBX Classes
 90
    33921
280
     0
281
     0
  0
CLASS
  1
ACAECUSTOBJ
  2
AcAeEditorObj
  3
AcAeEditorObj
 90
    33792
280
     0
281
     0
  0
CLASS
  1
ACDB_DYNAMICBLOCKPURGEPREVENTER_VERSION
  2
AcDbDynamicBlockPurgePreventer
  3
ObjectDBX Classes
 90
    33921
280
     0
281
     0
  0
ENDSEC
  0
SECTION
  2
TABLES
  0
TABLE
  2
VPORT
  5
8
330
0
100
AcDbSymbolTable
 70
     6
  0
VPORT
  5
55867
330
8
100
AcDbSymbolTableRecord
100
AcDbViewportTableRecord
  2
*Active
 70
     0
 10
0.0
 20
0.0
 11
1.0
 21
1.0
 12
0.812633677017402
 22
-7.209369058364671
 13
0.0
 23
0.0
 14
10.0
 24
10.0
 15
10.0
 25
10.0
 16
0.0
 26
0.0
 36
1.0
 17
0.0
 27
0.0
 37
0.0
 40
471.0828719082895
 41
1.54384133611691
 42
50.0
 43
0.0
 44
0.0
 50
0.0
 51
0.0
 71
     0
 72
  1000
 73
     1
 74
     1
 75
     0
 76
     0
 77
     0
 78
     0
281
     0
 65
     1
110
0.0
120
0.0
130
0.0
111
1.0
121
0.0
131
0.0
112
0.0
122
1.0
132
0.0
 79
     0
146
0.0
  0
ENDTAB
  0
TABLE
  2
LTYPE
  5
5
330
0
100
AcDbSymbolTable
 70
     5
  0
LTYPE
  5
14
330
5
100
AcDbSymbolTableRecord
100
AcDbLinetypeTableRecord
  2
ByBlock
 70
     0
  3

 72
    65
 73
     0
 40
0.0
  0
LTYPE
  5
15
330
5
100
AcDbSymbolTableRecord
100
AcDbLinetypeTableRecord
  2
ByLayer
 70
     0
  3

 72
    65
 73
     0
 40
0.0
  0
LTYPE
  5
16
330
5
100
AcDbSymbolTableRecord
100
AcDbLinetypeTableRecord
  2
Continuous
 70
     0
  3
Solid line
 72
    65
 73
     0
 40
0.0
  0
LTYPE
  5
D7
330
5
100
AcDbSymbolTableRecord
100
AcDbLinetypeTableRecord
  2
HIDDEN
 70
     0
  3
Hidden __ __ __ __ __ __ __ __ __ __ __ __ __ _
 72
    65
 73
     2
 40
9.524999999999996
 49
6.349999999999997
 74
     0
 49
-3.174999999999998
 74
     0
  0
LTYPE
  5
D9
330
5
100
AcDbSymbolTableRecord
100
AcDbLinetypeTableRecord
  2
CENTER
 70
     0
  3
Center ____ _ ____ _ ____ _ ____ _ ____ _ ____
 72
    65
 73
     4
 40
50.8
 49
31.75
 74
     0
 49
-6.349999999999997
 74
     0
 49
6.349999999999997
 74
     0
 49
-6.349999999999997
 74
     0
  0
LTYPE
  5
35815
330
5
100
AcDbSymbolTableRecord
100
AcDbLinetypeTableRecord
  2
PHANTOM
 70
     0
  3
_____ _ _ _____ _ _ _____ _ _ _____
 72
    65
 73
     6
 40
0.8
 49
0.45
 74
     0
 49
-0.05
 74
     0
 49
0.1
 74
     0
 49
-0.05
 74
     0
 49
0.1
 74
     0
 49
-0.05
 74
     0
  0
ENDTAB
  0
TABLE
  2
LAYER
  5
2
102
{ACAD_XDICTIONARY
360
E2
102
}
330
0
100
AcDbSymbolTable
 70
    14
  0
LAYER
  5
10
330
2
100
AcDbSymbolTableRecord
100
AcDbLayerTableRecord
  2
0
 70
     0
 62
     7
  6
Continuous
370
    -3
390
F
  0
LAYER
  5
D1
330
2
100
AcDbSymbolTableRecord
100
AcDbLayerTableRecord
  2
1
 70
     0
 62
     4
  6
Continuous
370
    50
390
F
1001
AcAecLayerStandard
1000

1000

  0
LAYER
  5
D3
330
2
100
AcDbSymbolTableRecord
100
AcDbLayerTableRecord
  2
2
 70
     0
 62
     7
  6
Continuous
370
    25
390
F
1001
AcAecLayerStandard
1000

1000

  0
LAYER
  5
D4
330
2
100
AcDbSymbolTableRecord
100
AcDbLayerTableRecord
  2
3
 70
     0
 62
     1
  6
HIDDEN
370
    35
390
F
1001
AcAecLayerStandard
1000

1000

  0
LAYER
  5
D8
330
2
100
AcDbSymbolTableRecord
100
AcDbLayerTableRecord
  2
4
 70
     0
 62
     2
  6
CENTER
370
    25
390
F
1001
AcAecLayerStandard
1000

1000

  0
LAYER
  5
DA
330
2
100
AcDbSymbolTableRecord
100
AcDbLayerTableRecord
  2
6
 70
     0
 62
     5
  6
Continuous
370
    35
390
F
1001
AcAecLayerStandard
1000

1000

  0
LAYER
  5
DB
330
2
100
AcDbSymbolTableRecord
100
AcDbLayerTableRecord
  2
cut
 70
     0
 62
     1
  6
Continuous
370
    25
390
F
1001
AcAecLayerStandard
1000

1000

  0
LAYER
  5
DC
330
2
100
AcDbSymbolTableRecord
100
AcDbLayerTableRecord
  2
nocut
 70
     0
 62
     7
  6
Continuous
370
    25
390
F
1001
AcAecLayerStandard
1000

1000

  0
LAYER
  5
DD
330
2
100
AcDbSymbolTableRecord
100
AcDbLayerTableRecord
  2
sk1
 70
     0
 62
     4
  6
Continuous
370
    50
390
F
1001
AcAecLayerStandard
1000

1000

  0
LAYER
  5
DE
330
2
100
AcDbSymbolTableRecord
100
AcDbLayerTableRecord
  2
sk2
 70
     0
 62
     7
  6
Continuous
370
    25
390
F
1001
AcAecLayerStandard
1000

1000

  0
LAYER
  5
DF
330
2
100
AcDbSymbolTableRecord
100
AcDbLayerTableRecord
  2
sk3
 70
     0
 62
     1
  6
HIDDEN
370
    35
390
F
1001
AcAecLayerStandard
1000

1000

  0
LAYER
  5
E0
330
2
100
AcDbSymbolTableRecord
100
AcDbLayerTableRecord
  2
sk4
 70
     0
 62
     2
  6
CENTER
370
    25
390
F
1001
AcAecLayerStandard
1000

1000

  0
LAYER
  5
E1
330
2
100
AcDbSymbolTableRecord
100
AcDbLayerTableRecord
  2
sk6
 70
     0
 62
     5
  6
Continuous
370
    35
390
F
1001
AcAecLayerStandard
1000

1000

  0
LAYER
  5
31B6
330
2
100
AcDbSymbolTableRecord
100
AcDbLayerTableRecord
  2
Defpoints
 70
     0
 62
     7
  6
Continuous
290
     0
370
    -3
390
F
  0
ENDTAB
  0
TABLE
  2
STYLE
  5
3
330
0
100
AcDbSymbolTable
 70
    12
  0
STYLE
  5
11
330
3
100
AcDbSymbolTableRecord
100
AcDbTextStyleTableRecord
  2
Standard
 70
     0
 40
0.0
 41
1.0
 50
0.0
 71
     0
 42
2.5
  3
txt.shx
  4
@extfont2.shx
  0
STYLE
  5
D6
330
3
100
AcDbSymbolTableRecord
100
AcDbTextStyleTableRecord
  2

 70
     1
 40
0.0
 41
1.0
 50
0.0
 71
     0
 42
2.5
  3
ltypeshp.shx
  4

  0
STYLE
  5
24A
330
3
100
AcDbSymbolTableRecord
100
AcDbTextStyleTableRecord
  2
simplex
 70
     0
 40
3.5
 41
1.0
 50
0.0
 71
     0
 42
3.5
  3
txt.shx
  4

  0
STYLE
  5
69E
330
3
100
AcDbSymbolTableRecord
100
AcDbTextStyleTableRecord
  2
MX_NOTE_STANDARD
 70
     0
 40
0.0
 41
1.0
 50
0.0
 71
     0
 42
4.2
  3
txt.shx
  4
extfont.shx
  0
STYLE
  5
3524
330
3
100
AcDbSymbolTableRecord
100
AcDbTextStyleTableRecord
  2
TEXTSTYLE_2
 70
     0
 40
0.0
 41
0.775
 50
0.0
 71
     0
 42
0.2
  3
gdt
  4

  0
STYLE
  5
3525
330
3
100
AcDbSymbolTableRecord
100
AcDbTextStyleTableRecord
  2
TEXTSTYLE_3
 70
     0
 40
0.0
 41
0.75
 50
0.0
 71
     0
 42
0.2
  3
txt
  4

  0
STYLE
  5
3526
330
3
100
AcDbSymbolTableRecord
100
AcDbTextStyleTableRecord
  2
TEXTSTYLE_13
 70
     0
 40
0.0
 41
1.0
 50
0.0
 71
     0
 42
0.2
  3
txt
  4

  0
STYLE
  5
519A
330
3
100
AcDbSymbolTableRecord
100
AcDbTextStyleTableRecord
  2
TEXTSTYLE_14
 70
     0
 40
0.0
 41
1.0
 50
0.0
 71
     0
 42
0.2
  3
txt
  4

  0
STYLE
  5
6F72
330
3
100
AcDbSymbolTableRecord
100
AcDbTextStyleTableRecord
  2
TEXTSTYLE_4
 70
     0
 40
0.0
 41
0.75
 50
0.0
 71
     0
 42
0.2
  3
txt
  4

  0
STYLE
  5
6F73
330
3
100
AcDbSymbolTableRecord
100
AcDbTextStyleTableRecord
  2
TEXTSTYLE_17
 70
     0
 40
0.0
 41
1.0
 50
0.0
 71
     0
 42
0.2
  3
txt
  4

  0
STYLE
  5
FE12
330
3
100
AcDbSymbolTableRecord
100
AcDbTextStyleTableRecord
  2
TEXTSTYLE_12
 70
     0
 40
0.0
 41
1.0
 50
0.0
 71
     0
 42
0.2
  3
txt
  4

  0
STYLE
  5
3AAB8
330
3
100
AcDbSymbolTableRecord
100
AcDbTextStyleTableRecord
  2
TEXTSTYLE_20
 70
     0
 40
0.0
 41
0.6
 50
0.0
 71
     0
 42
0.2
  3
txt
  4

  0
ENDTAB
  0
TABLE
  2
VIEW
  5
6
330
0
100
AcDbSymbolTable
 70
     0
  0
ENDTAB
  0
TABLE
  2
UCS
  5
7
330
0
100
AcDbSymbolTable
 70
     0
  0
ENDTAB
  0
TABLE
  2
APPID
  5
9
330
0
100
AcDbSymbolTable
 70
    11
  0
APPID
  5
12
330
9
100
AcDbSymbolTableRecord
100
AcDbRegAppTableRecord
  2
ACAD
 70
     0
  0
APPID
  5
D2
330
9
100
AcDbSymbolTableRecord
100
AcDbRegAppTableRecord
  2
AcAecLayerStandard
 70
     0
  0
APPID
  5
E6
330
9
100
AcDbSymbolTableRecord
100
AcDbRegAppTableRecord
  2
ACAD_DSTYLE_DIMTEXT_FILL
 70
     0
  0
APPID
  5
4C84
330
9
100
AcDbSymbolTableRecord
100
AcDbRegAppTableRecord
  2
ACAD_EXEMPT_FROM_CAD_STANDARDS
 70
     0
  0
APPID
  5
3493E
330
9
100
AcDbSymbolTableRecord
100
AcDbRegAppTableRecord
  2
DCO15
 70
     0
  0
APPID
  5
3BAB0
330
9
100
AcDbSymbolTableRecord
100
AcDbRegAppTableRecord
  2
ACAD_DSTYLE_DIMEXT_ENABLED
 70
     0
  0
APPID
  5
3BAB1
330
9
100
AcDbSymbolTableRecord
100
AcDbRegAppTableRecord
  2
ACAD_DSTYLE_DIMEXT_LENGTH
 70
     0
  0
APPID
  5
3BEB4
330
9
100
AcDbSymbolTableRecord
100
AcDbRegAppTableRecord
  2
ACAUTHENVIRON
 70
     0
  0
APPID
  5
3BEB7
330
9
100
AcDbSymbolTableRecord
100
AcDbRegAppTableRecord
  2
AcDbDynamicBlockTrueName
 70
     0
  0
APPID
  5
3BEB8
330
9
100
AcDbSymbolTableRecord
100
AcDbRegAppTableRecord
  2
AcDbDynamicBlockGUID
 70
     0
  0
APPID
  5
3BEBA
330
9
100
AcDbSymbolTableRecord
100
AcDbRegAppTableRecord
  2
AcDbBlockRepETag
 70
     0
  0
ENDTAB
  0
TABLE
  2
DIMSTYLE
  5
A
330
0
100
AcDbSymbolTable
 70
    12
100
AcDbDimStyleTable
 71
     5
340
1BF
340
27
340
352A
340
3527
340
69F
  0
DIMSTYLE
105
27
330
A
100
AcDbSymbolTableRecord
100
AcDbDimStyleTableRecord
  2
ISO-25
 70
     0
 41
2.5
 42
0.625
 43
3.75
 44
1.25
 73
     0
 74
     0
 77
     1
 78
     8
140
2.5
141
2.5
143
0.03937007874016
147
0.625
171
     3
172
     1
271
     2
272
     2
274
     3
278
    44
283
     0
284
     8
340
11
  0
DIMSTYLE
105
1BF
102
{ACAD_REACTORS
330
54BAC
330
54BAD
330
54DF7
330
5508B
330
550DC
330
550E7
330
5580C
102
}
330
A
100
AcDbSymbolTableRecord
100
AcDbDimStyleTableRecord
  2
\M+18352\M+18373\M+1815B - ISO-25
 70
     0
 40
0.0
 41
3.5
 42
0.0
 44
1.5
 73
     0
 74
     0
 77
     1
 78
     8
140
3.5
147
2.299999999999998
176
   256
177
   256
178
   256
271
     2
272
     2
284
     8
340
24A
371
    -1
372
    -1
  0
DIMSTYLE
105
69F
330
A
100
AcDbSymbolTableRecord
100
AcDbDimStyleTableRecord
  2
MXDIMSTYLE
 70
     0
 41
2.5
 42
0.5
 43
3.75
 44
1.5
 73
     0
 74
     0
 77
     1
 78
     8
140
4.2
141
2.5
143
0.03937
147
1.0
171
     4
172
     1
173
     1
271
     2
272
     2
274
     4
283
     0
288
     1
340
69E
341
697
343
697
344
697
  0
DIMSTYLE
105
3527
330
A
100
AcDbSymbolTableRecord
100
AcDbDimStyleTableRecord
  2
STANDARD
 70
     0
 41
3.0
 47
0.001
 48
0.001
 71
     1
 73
     0
 74
     0
 77
     1
 78
     8
140
4.0
271
     3
272
     3
284
     8
340
11
341
34B1
342
34B1
343
34B1
344
34B1
  0
DIMSTYLE
105
3528
330
A
100
AcDbSymbolTableRecord
100
AcDbDimStyleTableRecord
  2
DIMSTYLE_1
 70
     0
 41
3.0
 73
     0
 74
     0
 77
     1
 78
     8
140
4.0
271
     3
272
     3
284
     8
340
11
341
34B1
342
34B1
343
34B1
344
34B1
  0
DIMSTYLE
105
3529
330
A
100
AcDbSymbolTableRecord
100
AcDbDimStyleTableRecord
  2
DIMSTYLE_2
 70
     0
 41
3.0
 47
0.001
 48
0.001
 73
     0
 74
     0
 77
     1
 78
     8
140
4.0
271
     3
272
     3
284
     8
340
11
341
34B1
342
34B1
343
34B1
344
34B1
  0
DIMSTYLE
105
352A
330
A
100
AcDbSymbolTableRecord
100
AcDbDimStyleTableRecord
  2
DIMSTYLE_3
 70
     0
 41
3.0
 47
-0.1
 48
0.3
 71
     1
 73
     0
 74
     0
 77
     1
 78
     8
140
4.0
146
0.5
271
     3
272
     3
284
     8
340
11
341
34B1
342
34B1
343
34B1
344
34B1
  0
DIMSTYLE
105
352B
330
A
100
AcDbSymbolTableRecord
100
AcDbDimStyleTableRecord
  2
DIMSTYLE_4
 70
     0
 41
3.0
 47
0.1
 48
0.1
 71
     1
 73
     0
 74
     0
 77
     1
 78
     8
140
4.0
271
     3
272
     3
284
     8
340
11
341
34B1
342
34B1
343
34B1
344
34B1
  0
DIMSTYLE
105
27245
330
A
100
AcDbSymbolTableRecord
100
AcDbDimStyleTableRecord
  2
DIMSTYLE_5
 70
     0
 41
3.0
 47
0.001
 48
0.001
 73
     0
 74
     0
 77
     1
 78
     8
140
4.0
271
     3
272
     3
284
     8
340
11
341
34B1
342
34B1
343
34B1
344
34B1
  0
DIMSTYLE
105
3AAB9
330
A
100
AcDbSymbolTableRecord
100
AcDbDimStyleTableRecord
  2
DIMSTYLE_6
 70
     0
 41
3.0
 42
0.0
 44
1.0
 47
0.05
 48
0.05
 71
     1
 73
     0
 74
     0
 77
     1
 78
     8
140
4.0
147
1.0
271
     3
272
     3
284
     8
340
11
341
34B1
342
34B1
343
34B1
344
34B1
  0
DIMSTYLE
105
532EA
330
A
100
AcDbSymbolTableRecord
100
AcDbDimStyleTableRecord
  2
NEW-DIMSTYLE
 70
     0
 40
0.0
 41
4.57
 42
0.0
 44
5.0
 73
     0
 74
     0
 77
     1
 78
     8
140
4.57
147
2.299999999999998
271
     2
340
24A
  0
ENDTAB
  0
TABLE
  2
BLOCK_RECORD
  5
1
330
0
100
AcDbSymbolTable
 70
    52
  0
BLOCK_RECORD
  5
1F
102
{ACAD_XDICTIONARY
360
31EE
102
}
330
1
100
AcDbSymbolTableRecord
100
AcDbBlockTableRecord
  2
*Model_Space
340
22
  0
BLOCK_RECORD
  5
50
330
1
100
AcDbSymbolTableRecord
100
AcDbBlockTableRecord
  2
*Paper_Space
340
51
  0
BLOCK_RECORD
  5
55
330
1
100
AcDbSymbolTableRecord
100
AcDbBlockTableRecord
  2
*Paper_Space0
340
56
  0
BLOCK_RECORD
  5
680
102
{ACAD_XDICTIONARY
360
3BEB2
102
}
330
1
100
AcDbSymbolTableRecord
100
AcDbBlockTableRecord
  2
zero block
340
0
102
{BLKREFS
331
68C
331
553BD
331
55561
331
5568F
102
}
1001
ACAD
1000
DesignCenter Data
1002
{
1070
     1
1070
     4
1002
}
1001
AcDbDynamicBlockGUID
1000
{C2E8894D-A8DA-456D-ABB6-198B00672C1A}
1001
AcDbBlockRepETag
1070
     1
1071
        7
  0
BLOCK_RECORD
  5
697
330
1
100
AcDbSymbolTableRecord
100
AcDbBlockTableRecord
  2
_OPEN30
340
0
  0
BLOCK_RECORD
  5
34B1
330
1
100
AcDbSymbolTableRecord
100
AcDbBlockTableRecord
  2
_OPEN
340
0
  0
BLOCK_RECORD
  5
50E6F
330
1
100
AcDbSymbolTableRecord
100
AcDbBlockTableRecord
  2
_None
340
0
  0
BLOCK_RECORD
  5
54BBA
330
1
100
AcDbSymbolTableRecord
100
AcDbBlockTableRecord
  2
*D5
340
0
  0
BLOCK_RECORD
  5
54BF0
330
1
100
AcDbSymbolTableRecord
100
AcDbBlockTableRecord
  2
*D6
340
0
  0
BLOCK_RECORD
  5
54C03
330
1
100
AcDbSymbolTableRecord
100
AcDbBlockTableRecord
  2
*D7
340
0
  0
BLOCK_RECORD
  5
54DF8
330
1
100
AcDbSymbolTableRecord
100
AcDbBlockTableRecord
  2
*D8
340
0
  0
BLOCK_RECORD
  5
550ED
330
1
100
AcDbSymbolTableRecord
100
AcDbBlockTableRecord
  2
*D9
340
0
  0
BLOCK_RECORD
  5
550F9
330
1
100
AcDbSymbolTableRecord
100
AcDbBlockTableRecord
  2
*D10
340
0
  0
BLOCK_RECORD
  5
55105
330
1
100
AcDbSymbolTableRecord
100
AcDbBlockTableRecord
  2
*D11
340
0
  0
BLOCK_RECORD
  5
5515E
330
1
100
AcDbSymbolTableRecord
100
AcDbBlockTableRecord
  2
*D12
340
0
  0
BLOCK_RECORD
  5
5530B
330
1
100
AcDbSymbolTableRecord
100
AcDbBlockTableRecord
  2
*D13
340
0
  0
BLOCK_RECORD
  5
55317
330
1
100
AcDbSymbolTableRecord
100
AcDbBlockTableRecord
  2
*D14
340
0
  0
BLOCK_RECORD
  5
55324
330
1
100
AcDbSymbolTableRecord
100
AcDbBlockTableRecord
  2
*D15
340
0
  0
BLOCK_RECORD
  5
5532E
330
1
100
AcDbSymbolTableRecord
100
AcDbBlockTableRecord
  2
*D16
340
0
  0
BLOCK_RECORD
  5
5533A
330
1
100
AcDbSymbolTableRecord
100
AcDbBlockTableRecord
  2
*D17
340
0
  0
BLOCK_RECORD
  5
55344
330
1
100
AcDbSymbolTableRecord
100
AcDbBlockTableRecord
  2
*D18
340
0
  0
BLOCK_RECORD
  5
55350
330
1
100
AcDbSymbolTableRecord
100
AcDbBlockTableRecord
  2
*D19
340
0
  0
BLOCK_RECORD
  5
55428
330
1
100
AcDbSymbolTableRecord
100
AcDbBlockTableRecord
  2
*D21
340
0
  0
BLOCK_RECORD
  5
55435
330
1
100
AcDbSymbolTableRecord
100
AcDbBlockTableRecord
  2
*D22
340
0
  0
BLOCK_RECORD
  5
5543F
330
1
100
AcDbSymbolTableRecord
100
AcDbBlockTableRecord
  2
*D23
340
0
  0
BLOCK_RECORD
  5
5544B
330
1
100
AcDbSymbolTableRecord
100
AcDbBlockTableRecord
  2
*D24
340
0
  0
BLOCK_RECORD
  5
55458
330
1
100
AcDbSymbolTableRecord
100
AcDbBlockTableRecord
  2
*D25
340
0
  0
BLOCK_RECORD
  5
55475
330
1
100
AcDbSymbolTableRecord
100
AcDbBlockTableRecord
  2
*D26
340
0
  0
BLOCK_RECORD
  5
55488
330
1
100
AcDbSymbolTableRecord
100
AcDbBlockTableRecord
  2
*D27
340
0
  0
BLOCK_RECORD
  5
554AF
330
1
100
AcDbSymbolTableRecord
100
AcDbBlockTableRecord
  2
*D28
340
0
  0
BLOCK_RECORD
  5
554BB
330
1
100
AcDbSymbolTableRecord
100
AcDbBlockTableRecord
  2
*D29
340
0
  0
BLOCK_RECORD
  5
554C8
330
1
100
AcDbSymbolTableRecord
100
AcDbBlockTableRecord
  2
*D30
340
0
  0
BLOCK_RECORD
  5
554D2
330
1
100
AcDbSymbolTableRecord
100
AcDbBlockTableRecord
  2
*D31
340
0
  0
BLOCK_RECORD
  5
554DE
330
1
100
AcDbSymbolTableRecord
100
AcDbBlockTableRecord
  2
*D32
340
0
  0
BLOCK_RECORD
  5
554E8
330
1
100
AcDbSymbolTableRecord
100
AcDbBlockTableRecord
  2
*D33
340
0
  0
BLOCK_RECORD
  5
554F4
330
1
100
AcDbSymbolTableRecord
100
AcDbBlockTableRecord
  2
*D34
340
0
  0
BLOCK_RECORD
  5
55501
102
{ACAD_XDICTIONARY
360
55564
102
}
330
1
100
AcDbSymbolTableRecord
100
AcDbBlockTableRecord
  2
A$C63B030E7
340
0
1001
ACAD
1000
DesignCenter Data
1002
{
1070
     1
1070
     4
1002
}
  0
BLOCK_RECORD
  5
555EB
330
1
100
AcDbSymbolTableRecord
100
AcDbBlockTableRecord
  2
*D37
340
0
  0
BLOCK_RECORD
  5
555F5
330
1
100
AcDbSymbolTableRecord
100
AcDbBlockTableRecord
  2
*D38
340
0
  0
BLOCK_RECORD
  5
55601
330
1
100
AcDbSymbolTableRecord
100
AcDbBlockTableRecord
  2
*D39
340
0
  0
BLOCK_RECORD
  5
5560E
330
1
100
AcDbSymbolTableRecord
100
AcDbBlockTableRecord
  2
*D40
340
0
  0
BLOCK_RECORD
  5
5561A
330
1
100
AcDbSymbolTableRecord
100
AcDbBlockTableRecord
  2
*D41
340
0
  0
BLOCK_RECORD
  5
55624
330
1
100
AcDbSymbolTableRecord
100
AcDbBlockTableRecord
  2
*D42
340
0
  0
BLOCK_RECORD
  5
556F9
330
1
100
AcDbSymbolTableRecord
100
AcDbBlockTableRecord
  2
*D44
340
0
  0
BLOCK_RECORD
  5
55705
330
1
100
AcDbSymbolTableRecord
100
AcDbBlockTableRecord
  2
*D45
340
0
  0
BLOCK_RECORD
  5
5570F
330
1
100
AcDbSymbolTableRecord
100
AcDbBlockTableRecord
  2
*D46
340
0
  0
BLOCK_RECORD
  5
5571B
330
1
100
AcDbSymbolTableRecord
100
AcDbBlockTableRecord
  2
*D47
340
0
  0
BLOCK_RECORD
  5
55738
330
1
100
AcDbSymbolTableRecord
100
AcDbBlockTableRecord
  2
*D48
340
0
  0
BLOCK_RECORD
  5
5574B
330
1
100
AcDbSymbolTableRecord
100
AcDbBlockTableRecord
  2
*D49
340
0
  0
BLOCK_RECORD
  5
5580D
330
1
100
AcDbSymbolTableRecord
100
AcDbBlockTableRecord
  2
*D50
340
0
  0
ENDTAB
  0
ENDSEC
  0
SECTION
  2
BLOCKS
  0
BLOCK
  5
20
330
1F
100
AcDbEntity
  8
0
100
AcDbBlockBegin
  2
*Model_Space
 70
     0
 10
0.0
 20
0.0
 30
0.0
  3
*Model_Space
  1

  0
ENDBLK
  5
21
330
1F
100
AcDbEntity
  8
0
100
AcDbBlockEnd
  0
BLOCK
  5
52
330
50
100
AcDbEntity
 67
     1
  8
0
100
AcDbBlockBegin
  2
*Paper_Space
 70
     0
 10
0.0
 20
0.0
 30
0.0
  3
*Paper_Space
  1

  0
ENDBLK
  5
53
330
50
100
AcDbEntity
 67
     1
  8
0
100
AcDbBlockEnd
  0
BLOCK
  5
57
330
55
100
AcDbEntity
 67
     1
  8
0
100
AcDbBlockBegin
  2
*Paper_Space0
 70
     0
 10
0.0
 20
0.0
 30
0.0
  3
*Paper_Space0
  1

  0
VIEWPORT
  5
71
102
{ACAD_XDICTIONARY
360
55872
102
}
330
55
100
AcDbEntity
 67
     1
  8
0
100
AcDbViewport
 10
150.1652135264906
 20
101.599997546291
 30
0.0
 40
339.1973820494347
 41
164.5360435314421
 68
     0
 69
     0
 12
150.1652135264906
 22
101.599997546291
 13
0.0
 23
0.0
 14
10.0
 24
10.0
 15
10.0
 25
10.0
 16
0.0
 26
0.0
 36
1.0
 17
0.0
 27
0.0
 37
0.0
 42
50.0
 43
0.0
 44
0.0
 45
164.5360435314421
 50
0.0
 51
0.0
 72
  1000
 90
    32864
  1

281
     0
 71
     1
 74
     0
110
0.0
120
0.0
130
0.0
111
1.0
121
0.0
131
0.0
112
0.0
122
1.0
132
0.0
 79
     0
146
0.0
  0
VIEWPORT
  5
73
102
{ACAD_XDICTIONARY
360
55874
102
}
330
55
100
AcDbEntity
 67
     1
  8
0
100
AcDbViewport
 10
133.3499939441681
 20
101.5999939441681
 30
0.0
 40
213.3599903106689
 41
162.5599903106689
 68
     0
 69
     0
 12
210.0
 22
148.5
 13
0.0
 23
0.0
 14
10.0
 24
10.0
 15
10.0
 25
10.0
 16
0.0
 26
0.0
 36
1.0
 17
0.0
 27
0.0
 37
0.0
 42
50.0
 43
0.0
 44
0.0
 45
324.0677920111345
 50
0.0
 51
0.0
 72
   100
 90
    32864
  1

281
     0
 71
     1
 74
     0
110
0.0
120
0.0
130
0.0
111
1.0
121
0.0
131
0.0
112
0.0
122
1.0
132
0.0
 79
     0
146
0.0
  0
ENDBLK
  5
58
330
55
100
AcDbEntity
 67
     1
  8
0
100
AcDbBlockEnd
  0
BLOCK
  5
68A
330
680
100
AcDbEntity
  8
0
100
AcDbBlockBegin
  2
zero block
 70
     0
 10
0.0
 20
0.0
 30
0.0
  3
zero block
  1

  0
HATCH
  5
3BEAB
330
680
100
AcDbEntity
  8
0
 62
     7
100
AcDbHatch
 10
0.0
 20
0.0
 30
0.0
210
0.0
220
0.0
230
1.0
  2
SOLID
 70
     1
 71
     0
 91
        2
 92
        7
 72
     1
 73
     1
 93
        3
 10
0.0
 20
0.9999999999999875
 42
0.4142135623730915
 10
-1.0
 20
0.0
 42
0.0
 10
0.0
 20
0.0
 42
0.0
 97
        0
 92
        7
 72
     1
 73
     1
 93
        3
 10
1.000000000000007
 20
0.0
 42
0.0
 10
0.0
 20
0.0
 42
0.0
 10
0.0
 20
-1.0
 42
0.4142135623730974
 97
        0
 75
     0
 76
     1
 47
0.0090601366782909
 98
        2
 10
-0.380591363650975
 20
0.4885804701532896
 10
0.4350764810977559
 20
-0.4536738423704725
1001
AcDbBlockRepETag
1070
     1
1071
        0
1005
3BEAB
  0
LINE
  5
3BEAC
330
680
100
AcDbEntity
  8
0
 62
     7
 48
0.2
100
AcDbLine
 10
-1.0
 20
0.0
 30
0.0
 11
1.000000000000007
 21
0.0
 31
0.0
1001
AcDbBlockRepETag
1070
     1
1071
        1
1005
3BEAC
  0
LINE
  5
3BEAD
330
680
100
AcDbEntity
  8
0
 62
     7
 48
0.2
100
AcDbLine
 10
0.0
 20
-1.0
 30
0.0
 11
0.0
 21
0.9999999999999875
 31
0.0
1001
AcDbBlockRepETag
1070
     1
1071
        2
1005
3BEAD
  0
ARC
  5
3BEAE
330
680
100
AcDbEntity
  8
0
 62
     7
 48
0.2
100
AcDbCircle
 10
0.0
 20
0.0
 30
0.0
 40
1.0
100
AcDbArc
 50
270.0
 51
0.0
1001
AcDbBlockRepETag
1070
     1
1071
        3
1005
3BEAE
  0
ARC
  5
3BEAF
330
680
100
AcDbEntity
  8
0
 62
     7
 48
0.2
100
AcDbCircle
 10
0.0
 20
0.0
 30
0.0
 40
1.0
100
AcDbArc
 50
0.0
 51
90.0
1001
AcDbBlockRepETag
1070
     1
1071
        4
1005
3BEAF
  0
ARC
  5
3BEB0
330
680
100
AcDbEntity
  8
0
 62
     7
 48
0.2
100
AcDbCircle
 10
0.0
 20
0.0
 30
0.0
 40
1.0
100
AcDbArc
 50
180.0
 51
270.0
1001
AcDbBlockRepETag
1070
     1
1071
        5
1005
3BEB0
  0
ARC
  5
3BEB1
330
680
100
AcDbEntity
  8
0
 62
     7
 48
0.2
100
AcDbCircle
 10
0.0
 20
0.0
 30
0.0
 40
1.0
100
AcDbArc
 50
90.0
 51
180.0
1001
AcDbBlockRepETag
1070
     1
1071
        6
1005
3BEB1
  0
ENDBLK
  5
68B
330
680
100
AcDbEntity
  8
0
100
AcDbBlockEnd
  0
BLOCK
  5
698
330
697
100
AcDbEntity
  8
0
  6
ByBlock
 62
     0
370
    -2
100
AcDbBlockBegin
  2
_OPEN30
 70
     2
 10
0.0
 20
0.0
 30
0.0
  3
_OPEN30
  1

  0
LINE
  5
699
330
697
100
AcDbEntity
  8
0
  6
ByBlock
 62
     0
370
    -2
100
AcDbLine
 10
-1.0
 20
0.267949
 30
0.0
 11
0.0
 21
0.0
 31
0.0
  0
LINE
  5
69A
330
697
100
AcDbEntity
  8
0
  6
ByBlock
 62
     0
370
    -2
100
AcDbLine
 10
0.0
 20
0.0
 30
0.0
 11
-1.0
 21
-0.267949
 31
0.0
  0
LINE
  5
69B
330
697
100
AcDbEntity
  8
0
  6
ByBlock
 62
     0
370
    -2
100
AcDbLine
 10
0.0
 20
0.0
 30
0.0
 11
-1.0
 21
0.0
 31
0.0
  0
ENDBLK
  5
69C
330
697
100
AcDbEntity
  8
0
  6
ByBlock
 62
     0
370
    -2
100
AcDbBlockEnd
  0
BLOCK
  5
34B2
330
34B1
100
AcDbEntity
  8
0
100
AcDbBlockBegin
  2
_OPEN
 70
     0
 10
0.0
 20
0.0
 30
0.0
  3
_OPEN
  1

  0
LINE
  5
34B3
330
34B1
100
AcDbEntity
  8
0
  6
ByBlock
 62
     0
100
AcDbLine
 10
0.0
 20
0.0
 30
0.0
 11
-1.0
 21
0.1766666667
 31
0.0
  0
LINE
  5
34B4
330
34B1
100
AcDbEntity
  8
0
  6
ByBlock
 62
     0
100
AcDbLine
 10
-1.0
 20
-0.1766666667
 30
0.0
 11
0.0
 21
0.0
 31
0.0
  0
LINE
  5
34B5
330
34B1
100
AcDbEntity
  8
0
  6
ByBlock
 62
     0
100
AcDbLine
 10
-1.0
 20
0.0
 30
0.0
 11
0.0
 21
0.0
 31
0.0
  0
ENDBLK
  5
34B6
330
34B1
100
AcDbEntity
  8
0
  6
ByBlock
 62
     0
100
AcDbBlockEnd
  0
BLOCK
  5
50E70
330
50E6F
100
AcDbEntity
  8
0
100
AcDbBlockBegin
  2
_None
 70
     0
 10
0.0
 20
0.0
 30
0.0
  3
_None
  1

  0
ENDBLK
  5
50E71
330
50E6F
100
AcDbEntity
  8
0
100
AcDbBlockEnd
  0
BLOCK
  5
54BC2
330
54BBA
100
AcDbEntity
  8
0
100
AcDbBlockBegin
  2
*D5
 70
     1
 10
0.0
 20
0.0
 30
0.0
  3
*D5
  1

  0
LINE
  5
55569
330
54BBA
100
AcDbEntity
  8
2
100
AcDbLine
 10
69.8631746328856
 20
12.70001152896745
 30
0.0
 11
111.6737962917955
 21
12.70001152896744
 31
0.0
  0
LINE
  5
5556A
330
54BBA
100
AcDbEntity
  8
2
100
AcDbLine
 10
110.1737962917955
 20
9.200011528967438
 30
0.0
 11
110.1737962917955
 21
-12.69998847103252
 31
0.0
  0
SOLID
  5
5556B
330
54BBA
100
AcDbEntity
  8
2
100
AcDbTrace
 10
109.5904629584621
 20
9.200011528967438
 30
0.0
 11
110.7571296251288
 21
9.200011528967438
 31
0.0
 12
110.1737962917955
 22
12.70001152896744
 32
0.0
 13
110.1737962917955
 23
12.70001152896744
 33
0.0
  0
MTEXT
  5
5556C
330
54BBA
100
AcDbEntity
  8
2
100
AcDbMText
 10
106.1237962917955
 20
-1.749988471032525
 30
0.0
 40
3.5
 41
0.0
 71
     5
 72
     1
  1
\A1;%%c25.4 [%%c1.000"]
  7
simplex
 11
0.0000000000000001
 21
1.0
 31
0.0
 73
     1
 44
1.0
1001
ACAD
1000
MTEXTBEGIN
1070
    73
1070
     1
1070
    44
1040
1.0
1070
    74
1070
     0
1000
MTEXTEND
  0
POINT
  5
5556D
330
54BBA
100
AcDbEntity
  8
Defpoints
 62
     0
100
AcDbPoint
 10
69.8631746328856
 20
12.70001152896745
 30
0.0
  0
POINT
  5
5556E
330
54BBA
100
AcDbEntity
  8
Defpoints
 62
     0
100
AcDbPoint
 10
86.26288300000011
 20
-12.69998847103252
 30
0.0
  0
POINT
  5
5556F
330
54BBA
100
AcDbEntity
  8
Defpoints
 62
     0
100
AcDbPoint
 10
110.1737962917955
 20
-12.69998847103252
 30
0.0
  0
ENDBLK
  5
54BC3
330
54BBA
100
AcDbEntity
  8
0
100
AcDbBlockEnd
  0
BLOCK
  5
54BF8
330
54BF0
100
AcDbEntity
  8
0
100
AcDbBlockBegin
  2
*D6
 70
     1
 10
0.0
 20
0.0
 30
0.0
  3
*D6
  1

  0
LINE
  5
55570
330
54BF0
100
AcDbEntity
  8
2
100
AcDbLine
 10
121.4076663695947
 20
42.07137480439826
 30
0.0
 11
82.40147685499271
 21
10.24209521056424
 31
0.0
  0
MTEXT
  5
55571
330
54BF0
100
AcDbEntity
  8
2
100
AcDbMText
 10
102.6025308076518
 20
31.95354462159437
 30
0.0
 40
3.5
 41
0.0
 71
     5
 72
     1
  1
\A1;R12.7 [R.500"]
  7
simplex
 11
0.7747828922834903
 21
0.6322273877528792
 31
0.0
 73
     1
 44
1.0
1001
ACAD
1000
MTEXTBEGIN
1070
    73
1070
     1
1070
    44
1040
1.0
1070
    74
1070
     0
1000
MTEXTEND
  0
SOLID
  5
55572
330
54BF0
100
AcDbEntity
  8
2
100
AcDbTrace
 10
82.0326775454702
 20
10.69405189772961
 30
0.0
 11
82.77027616451524
 21
9.790138523398873
 31
0.0
 12
79.68973673200051
 22
8.029299353429166
 32
0.0
 13
79.68973673200051
 23
8.029299353429166
 33
0.0
  0
LINE
  5
55573
330
54BF0
100
AcDbEntity
  8
2
100
AcDbLine
 10
69.75999400000009
 20
0.0000115289675122
 30
0.0
 11
69.9399940000001
 21
0.0000115289675193
 31
0.0
  0
LINE
  5
55574
330
54BF0
100
AcDbEntity
  8
2
100
AcDbLine
 10
69.8499940000001
 20
-0.089988471032477
 30
0.0
 11
69.8499940000001
 21
0.0900115289675228
 31
0.0
  0
POINT
  5
55575
330
54BF0
100
AcDbEntity
  8
Defpoints
 62
     0
100
AcDbPoint
 10
79.68973673200051
 20
8.029299353429166
 30
0.0
  0
POINT
  5
55576
330
54BF0
100
AcDbEntity
  8
Defpoints
 62
     0
100
AcDbPoint
 10
69.8499940000001
 20
0.0000115289675193
 30
0.0
  0
ENDBLK
  5
54BF9
330
54BF0
100
AcDbEntity
  8
0
100
AcDbBlockEnd
  0
BLOCK
  5
54C0D
330
54C03
100
AcDbEntity
  8
0
100
AcDbBlockBegin
  2
*D7
 70
     1
 10
0.0
 20
0.0
 30
0.0
  3
*D7
  1

  0
LINE
  5
54F93
330
54C03
100
AcDbEntity
  8
2
100
AcDbLine
 10
0.0
 20
12.69999999889995
 30
0.0
 11
0.0000000000000021
 21
46.77728057510416
 31
0.0
  0
LINE
  5
54F94
330
54C03
100
AcDbEntity
  8
2
100
AcDbLine
 10
206.375
 20
0.0000000000001705
 30
0.0
 11
206.375
 21
46.77728057510416
 31
0.0
  0
LINE
  5
54F95
330
54C03
100
AcDbEntity
  8
2
100
AcDbLine
 10
3.500000000000001
 20
45.27728057510418
 30
0.0
 11
202.875
 21
45.27728057510418
 31
0.0
  0
SOLID
  5
54F96
330
54C03
100
AcDbEntity
  8
2
100
AcDbTrace
 10
3.500000000000001
 20
45.86061390843751
 30
0.0
 11
3.500000000000001
 21
44.69394724177084
 31
0.0
 12
0.000000000000002
 22
45.27728057510418
 32
0.0
 13
0.000000000000002
 23
45.27728057510418
 33
0.0
  0
SOLID
  5
54F97
330
54C03
100
AcDbEntity
  8
2
100
AcDbTrace
 10
202.875
 20
45.86061390843751
 30
0.0
 11
202.875
 21
44.69394724177084
 31
0.0
 12
206.375
 22
45.27728057510418
 32
0.0
 13
206.375
 23
45.27728057510418
 33
0.0
  0
MTEXT
  5
54F98
330
54C03
100
AcDbEntity
  8
2
100
AcDbMText
 10
103.1875
 20
49.32728057510416
 30
0.0
 40
3.5
 41
0.0
 71
     5
 72
     1
  1
\A1;206.375 [8.125"]
  7
simplex
 73
     1
 44
1.0
1001
ACAD
1000
MTEXTBEGIN
1070
    73
1070
     1
1070
    44
1040
1.0
1070
    74
1070
     0
1000
MTEXTEND
  0
POINT
  5
54F99
330
54C03
100
AcDbEntity
  8
Defpoints
 62
     0
100
AcDbPoint
 10
0.0
 20
12.69999999889995
 30
0.0
  0
POINT
  5
54F9A
330
54C03
100
AcDbEntity
  8
Defpoints
 62
     0
100
AcDbPoint
 10
206.375
 20
0.0000000000001705
 30
0.0
  0
POINT
  5
54F9B
330
54C03
100
AcDbEntity
  8
Defpoints
 62
     0
100
AcDbPoint
 10
206.375
 20
45.27728057510418
 30
0.0
  0
ENDBLK
  5
54C0E
330
54C03
100
AcDbEntity
  8
0
100
AcDbBlockEnd
  0
BLOCK
  5
54E02
330
54DF8
100
AcDbEntity
  8
0
100
AcDbBlockBegin
  2
*D8
 70
     1
 10
0.0
 20
0.0
 30
0.0
  3
*D8
  1

  0
LINE
  5
55577
330
54DF8
100
AcDbEntity
  8
2
100
AcDbLine
 10
52.54999400000009
 20
12.2500115278672
 30
0.0
 11
52.54999400000009
 21
36.13829084411441
 31
0.0
  0
LINE
  5
55578
330
54DF8
100
AcDbEntity
  8
2
100
AcDbLine
 10
82.549994
 20
0.0000115278672013
 30
0.0
 11
82.549994
 21
36.13829084411441
 31
0.0
  0
LINE
  5
55579
330
54DF8
100
AcDbEntity
  8
2
100
AcDbLine
 10
56.0499940000001
 20
34.63829084411441
 30
0.0
 11
79.049994
 21
34.63829084411441
 31
0.0
  0
SOLID
  5
5557A
330
54DF8
100
AcDbEntity
  8
2
100
AcDbTrace
 10
56.0499940000001
 20
35.22162417744775
 30
0.0
 11
56.0499940000001
 21
34.05495751078107
 31
0.0
 12
52.54999400000009
 22
34.63829084411441
 32
0.0
 13
52.54999400000009
 23
34.63829084411441
 33
0.0
  0
SOLID
  5
5557B
330
54DF8
100
AcDbEntity
  8
2
100
AcDbTrace
 10
79.049994
 20
35.22162417744775
 30
0.0
 11
79.049994
 21
34.05495751078107
 31
0.0
 12
82.549994
 22
34.63829084411441
 32
0.0
 13
82.549994
 23
34.63829084411441
 33
0.0
  0
MTEXT
  5
5557C
330
54DF8
100
AcDbEntity
  8
2
100
AcDbMText
 10
67.54999400000006
 20
38.68829084411441
 30
0.0
 40
3.5
 41
0.0
 71
     5
 72
     1
  1
\A1;30 [1.181"]
  7
simplex
 73
     1
 44
1.0
1001
ACAD
1000
MTEXTBEGIN
1070
    73
1070
     1
1070
    44
1040
1.0
1070
    74
1070
     0
1000
MTEXTEND
  0
POINT
  5
5557D
330
54DF8
100
AcDbEntity
  8
Defpoints
 62
     0
100
AcDbPoint
 10
52.54999400000009
 20
12.2500115278672
 30
0.0
  0
POINT
  5
5557E
330
54DF8
100
AcDbEntity
  8
Defpoints
 62
     0
100
AcDbPoint
 10
82.549994
 20
0.0000115278672013
 30
0.0
  0
POINT
  5
5557F
330
54DF8
100
AcDbEntity
  8
Defpoints
 62
     0
100
AcDbPoint
 10
82.549994
 20
34.63829084411441
 30
0.0
  0
ENDBLK
  5
54E03
330
54DF8
100
AcDbEntity
  8
0
100
AcDbBlockEnd
  0
BLOCK
  5
550F7
330
550ED
100
AcDbEntity
  8
0
100
AcDbBlockBegin
  2
*D9
 70
     1
 10
0.0
 20
0.0
 30
0.0
  3
*D9
  1

  0
LINE
  5
55803
330
550ED
100
AcDbEntity
  8
sk2
100
AcDbLine
 10
-110.3109758802377
 20
28.08735753860105
 30
0.0
 11
-110.3109758802377
 21
66.946643845597
 31
0.0
  0
LINE
  5
55804
330
550ED
100
AcDbEntity
  8
sk2
100
AcDbLine
 10
82.54999400000009
 20
0.0000115278672013
 30
0.0
 11
82.54999400000009
 21
66.946643845597
 31
0.0
  0
LINE
  5
55805
330
550ED
100
AcDbEntity
  8
sk2
100
AcDbLine
 10
-106.8109758802377
 20
65.44664384559701
 30
0.0
 11
79.0499940000001
 21
65.44664384559701
 31
0.0
  0
SOLID
  5
55806
330
550ED
100
AcDbEntity
  8
sk2
100
AcDbTrace
 10
-106.8109758802377
 20
66.02997717893034
 30
0.0
 11
-106.8109758802377
 21
64.86331051226368
 31
0.0
 12
-110.3109758802377
 22
65.44664384559701
 32
0.0
 13
-110.3109758802377
 23
65.44664384559701
 33
0.0
  0
SOLID
  5
55807
330
550ED
100
AcDbEntity
  8
sk2
100
AcDbTrace
 10
79.0499940000001
 20
66.02997717893034
 30
0.0
 11
79.0499940000001
 21
64.86331051226368
 31
0.0
 12
82.54999400000009
 22
65.44664384559701
 32
0.0
 13
82.54999400000009
 23
65.44664384559701
 33
0.0
  0
MTEXT
  5
55808
330
550ED
100
AcDbEntity
  8
sk2
100
AcDbMText
 10
-50.66903688839317
 20
69.496643845597
 30
0.0
 40
3.5
 41
0.0
 71
     5
 72
     1
  1
\A1;192.86096988 [7.593"]
  7
simplex
 73
     1
 44
0.892857
1001
ACAD
1000
MTEXTBEGIN
1070
    73
1070
     1
1070
    44
1040
0.892857
1070
    74
1070
     0
1000
MTEXTEND
  0
POINT
  5
55809
330
550ED
100
AcDbEntity
  8
Defpoints
 62
     0
100
AcDbPoint
 10
-110.3109758802377
 20
28.08735753860105
 30
0.0
  0
POINT
  5
5580A
330
550ED
100
AcDbEntity
  8
Defpoints
 62
     0
100
AcDbPoint
 10
82.54999400000009
 20
0.0000115278672013
 30
0.0
  0
POINT
  5
5580B
330
550ED
100
AcDbEntity
  8
Defpoints
 62
     0
100
AcDbPoint
 10
82.54999400000009
 20
65.44664384559701
 30
0.0
  0
ENDBLK
  5
550F8
330
550ED
100
AcDbEntity
  8
0
100
AcDbBlockEnd
  0
BLOCK
  5
55103
330
550F9
100
AcDbEntity
  8
0
100
AcDbBlockBegin
  2
*D10
 70
     1
 10
0.0
 20
0.0
 30
0.0
  3
*D10
  1

  0
LINE
  5
557CD
330
550F9
100
AcDbEntity
  8
2
100
AcDbLine
 10
82.55
 20
-0.000000001099977
 30
0.0
 11
82.55
 21
51.73335122641356
 31
0.0
  0
LINE
  5
557CE
330
550F9
100
AcDbEntity
  8
2
100
AcDbLine
 10
0.0
 20
15.87498449999998
 30
0.0
 11
0.0000000000000022
 21
51.73335122641356
 31
0.0
  0
LINE
  5
557CF
330
550F9
100
AcDbEntity
  8
2
100
AcDbLine
 10
79.05
 20
50.23335122641356
 30
0.0
 11
3.500000000000002
 21
50.23335122641356
 31
0.0
  0
SOLID
  5
557D0
330
550F9
100
AcDbEntity
  8
2
100
AcDbTrace
 10
79.05
 20
50.81668455974689
 30
0.0
 11
79.05
 21
49.65001789308022
 31
0.0
 12
82.55
 22
50.23335122641356
 32
0.0
 13
82.55
 23
50.23335122641356
 33
0.0
  0
SOLID
  5
557D1
330
550F9
100
AcDbEntity
  8
2
100
AcDbTrace
 10
3.500000000000002
 20
50.81668455974689
 30
0.0
 11
3.500000000000002
 21
49.65001789308022
 31
0.0
 12
0.0000000000000021
 22
50.23335122641356
 32
0.0
 13
0.0000000000000021
 23
50.23335122641356
 33
0.0
  0
MTEXT
  5
557D2
330
550F9
100
AcDbEntity
  8
2
100
AcDbMText
 10
41.61709376690805
 20
54.28335122641356
 30
0.0
 40
3.5
 41
0.0
 71
     5
 72
     1
  1
\A1;82.55 [3.250"]
  7
simplex
 73
     1
 44
0.892857
1001
ACAD
1000
MTEXTBEGIN
1070
    73
1070
     1
1070
    44
1040
0.892857
1070
    74
1070
     0
1000
MTEXTEND
  0
POINT
  5
557D3
330
550F9
100
AcDbEntity
  8
Defpoints
 62
     0
100
AcDbPoint
 10
82.55
 20
-0.000000001099977
 30
0.0
  0
POINT
  5
557D4
330
550F9
100
AcDbEntity
  8
Defpoints
 62
     0
100
AcDbPoint
 10
0.0
 20
15.87498449999998
 30
0.0
  0
POINT
  5
557D5
330
550F9
100
AcDbEntity
  8
Defpoints
 62
     0
100
AcDbPoint
 10
0.0000000000000021
 20
50.23335122641356
 30
0.0
  0
ENDBLK
  5
55104
330
550F9
100
AcDbEntity
  8
0
100
AcDbBlockEnd
  0
BLOCK
  5
55110
330
55105
100
AcDbEntity
  8
0
100
AcDbBlockBegin
  2
*D11
 70
     1
 10
0.0
 20
0.0
 30
0.0
  3
*D11
  1

  0
LINE
  5
555A3
330
55105
100
AcDbEntity
  8
2
100
AcDbLine
 10
52.55001400000009
 20
-12.24999950000006
 30
0.0
 11
29.31918998635592
 21
-12.24999950000005
 31
0.0
  0
LINE
  5
555A4
330
55105
100
AcDbEntity
  8
2
100
AcDbLine
 10
52.55001400000009
 20
12.25000049999994
 30
0.0
 11
29.31918998635593
 21
12.25000049999995
 31
0.0
  0
LINE
  5
555A5
330
55105
100
AcDbEntity
  8
2
100
AcDbLine
 10
30.81918998635593
 20
8.750000499999947
 30
0.0
 11
30.81918998635592
 21
-8.749999500000052
 31
0.0
  0
LINE
  5
555A6
330
55105
100
AcDbEntity
  8
2
100
AcDbLine
 10
30.81918998635592
 20
-12.24999950000005
 30
0.0
 11
30.81918998635591
 21
-60.01666616666675
 31
0.0
  0
SOLID
  5
555A7
330
55105
100
AcDbEntity
  8
2
100
AcDbTrace
 10
30.2358566530226
 20
8.750000499999947
 30
0.0
 11
31.40252331968926
 21
8.750000499999947
 31
0.0
 12
30.81918998635593
 22
12.25000049999995
 32
0.0
 13
30.81918998635593
 23
12.25000049999995
 33
0.0
  0
SOLID
  5
555A8
330
55105
100
AcDbEntity
  8
2
100
AcDbTrace
 10
30.23585665302259
 20
-8.749999500000052
 30
0.0
 11
31.40252331968925
 21
-8.749999500000052
 31
0.0
 12
30.81918998635592
 22
-12.24999950000005
 32
0.0
 13
30.81918998635592
 23
-12.24999950000005
 33
0.0
  0
MTEXT
  5
555A9
330
55105
100
AcDbEntity
  8
2
100
AcDbMText
 10
26.76918998635593
 20
-37.8833328333334
 30
0.0
 40
3.5
 41
0.0
 71
     5
 72
     1
  1
\A1;%%c24.5 [%%C.965"]
  7
simplex
 11
0.0000000000000001
 21
1.0
 31
0.0
 73
     1
 44
1.0
1001
ACAD
1000
MTEXTBEGIN
1070
    73
1070
     1
1070
    44
1040
1.0
1070
    74
1070
     0
1000
MTEXTEND
  0
POINT
  5
555AA
330
55105
100
AcDbEntity
  8
Defpoints
 62
     0
100
AcDbPoint
 10
52.55001400000009
 20
-12.24999950000006
 30
0.0
  0
POINT
  5
555AB
330
55105
100
AcDbEntity
  8
Defpoints
 62
     0
100
AcDbPoint
 10
52.55001400000009
 20
12.25000049999994
 30
0.0
  0
POINT
  5
555AC
330
55105
100
AcDbEntity
  8
Defpoints
 62
     0
100
AcDbPoint
 10
30.81918998635593
 20
12.25000049999995
 30
0.0
  0
ENDBLK
  5
55111
330
55105
100
AcDbEntity
  8
0
100
AcDbBlockEnd
  0
BLOCK
  5
55169
330
5515E
100
AcDbEntity
  8
0
100
AcDbBlockBegin
  2
*D12
 70
     1
 10
0.0
 20
0.0
 30
0.0
  3
*D12
  1

  0
LINE
  5
552DB
330
5515E
100
AcDbEntity
  8
sk2
100
AcDbLine
 10
-93.42499999999999
 20
-15.87501550000002
 30
0.0
 11
-125.7520312063884
 21
-15.87501550000001
 31
0.0
  0
LINE
  5
552DC
330
5515E
100
AcDbEntity
  8
sk2
100
AcDbLine
 10
-93.42499999999999
 20
15.87498449999998
 30
0.0
 11
-125.7520312063884
 21
15.87498449999999
 31
0.0
  0
LINE
  5
552DD
330
5515E
100
AcDbEntity
  8
sk2
100
AcDbLine
 10
-124.2520312063884
 20
12.37498449999999
 30
0.0
 11
-124.2520312063884
 21
-12.37501550000001
 31
0.0
  0
LINE
  5
552DE
330
5515E
100
AcDbEntity
  8
sk2
100
AcDbLine
 10
-124.2520312063884
 20
-15.87501550000001
 30
0.0
 11
-124.2520312063884
 21
-73.35898760052365
 31
0.0
  0
SOLID
  5
552DF
330
5515E
100
AcDbEntity
  8
sk2
100
AcDbTrace
 10
-124.8353645397217
 20
12.37498449999999
 30
0.0
 11
-123.6686978730551
 21
12.37498449999999
 31
0.0
 12
-124.2520312063884
 22
15.87498449999999
 32
0.0
 13
-124.2520312063884
 23
15.87498449999999
 33
0.0
  0
SOLID
  5
552E0
330
5515E
100
AcDbEntity
  8
sk2
100
AcDbTrace
 10
-124.8353645397217
 20
-12.37501550000001
 30
0.0
 11
-123.6686978730551
 21
-12.37501550000001
 31
0.0
 12
-124.2520312063884
 22
-15.87501550000001
 32
0.0
 13
-124.2520312063884
 23
-15.87501550000001
 33
0.0
  0
MTEXT
  5
552E1
330
5515E
100
AcDbEntity
  8
sk2
100
AcDbMText
 10
-128.3020312063884
 20
-49.18398760052365
 30
0.0
 40
3.5
 41
0.0
 71
     5
 72
     1
  1
\A1;%%c31.75 [%%C1.250"]
  7
simplex
 11
0.0000000000000001
 21
1.0
 31
0.0
 73
     1
 44
1.0
1001
ACAD
1000
MTEXTBEGIN
1070
    73
1070
     1
1070
    44
1040
1.0
1070
    74
1070
     0
1000
MTEXTEND
  0
POINT
  5
552E2
330
5515E
100
AcDbEntity
  8
Defpoints
 62
     0
100
AcDbPoint
 10
-93.42499999999999
 20
-15.87501550000002
 30
0.0
  0
POINT
  5
552E3
330
5515E
100
AcDbEntity
  8
Defpoints
 62
     0
100
AcDbPoint
 10
-93.42499999999999
 20
15.87498449999998
 30
0.0
  0
POINT
  5
552E4
330
5515E
100
AcDbEntity
  8
Defpoints
 62
     0
100
AcDbPoint
 10
-124.2520312063884
 20
15.87498449999999
 30
0.0
  0
ENDBLK
  5
5516A
330
5515E
100
AcDbEntity
  8
0
100
AcDbBlockEnd
  0
BLOCK
  5
5530C
330
5530B
100
AcDbEntity
  8
0
100
AcDbBlockBegin
  2
*D13
 70
     1
 10
0.0
 20
0.0
 30
0.0
  3
*D13
  1

  0
LINE
  5
5530D
330
5530B
100
AcDbEntity
  8
sk2
100
AcDbLine
 10
-98.42500000000001
 20
14.17498800000008
 30
0.0
 11
-98.42500000000001
 21
65.52138040612014
 31
0.0
  0
LINE
  5
5530E
330
5530B
100
AcDbEntity
  8
sk2
100
AcDbLine
 10
82.54999999999997
 20
-0.0000150000001339
 30
0.0
 11
82.54999999999997
 21
65.52138040612014
 31
0.0
  0
LINE
  5
5530F
330
5530B
100
AcDbEntity
  8
sk2
100
AcDbLine
 10
-94.92499999999999
 20
64.02138040612014
 30
0.0
 11
79.04999999999997
 21
64.02138040612014
 31
0.0
  0
SOLID
  5
55310
330
5530B
100
AcDbEntity
  8
sk2
100
AcDbTrace
 10
-94.92499999999999
 20
64.60471373945347
 30
0.0
 11
-94.92499999999999
 21
63.43804707278681
 31
0.0
 12
-98.42500000000001
 22
64.02138040612014
 32
0.0
 13
-98.42500000000001
 23
64.02138040612014
 33
0.0
  0
SOLID
  5
55311
330
5530B
100
AcDbEntity
  8
sk2
100
AcDbTrace
 10
79.04999999999997
 20
64.60471373945347
 30
0.0
 11
79.04999999999997
 21
63.43804707278681
 31
0.0
 12
82.54999999999997
 22
64.02138040612014
 32
0.0
 13
82.54999999999997
 23
64.02138040612014
 33
0.0
  0
MTEXT
  5
55312
330
5530B
100
AcDbEntity
  8
sk2
100
AcDbMText
 10
-9.129143601021601
 20
68.07138040612014
 30
0.0
 40
3.5
 41
0.0
 71
     5
 72
     1
  1
\A1;180.975 [7.125"]
  7
simplex
 73
     1
 44
0.892857
1001
ACAD
1000
MTEXTBEGIN
1070
    73
1070
     1
1070
    44
1040
0.892857
1070
    74
1070
     0
1000
MTEXTEND
  0
POINT
  5
55313
330
5530B
100
AcDbEntity
  8
Defpoints
 62
     0
100
AcDbPoint
 10
-98.42500000000001
 20
14.17498800000008
 30
0.0
  0
POINT
  5
55314
330
5530B
100
AcDbEntity
  8
Defpoints
 62
     0
100
AcDbPoint
 10
82.54999999999997
 20
-0.0000150000001339
 30
0.0
  0
POINT
  5
55315
330
5530B
100
AcDbEntity
  8
Defpoints
 62
     0
100
AcDbPoint
 10
82.54999999999997
 20
64.02138040612014
 30
0.0
  0
ENDBLK
  5
55316
330
5530B
100
AcDbEntity
  8
0
100
AcDbBlockEnd
  0
BLOCK
  5
55318
330
55317
100
AcDbEntity
  8
0
100
AcDbBlockBegin
  2
*D14
 70
     1
 10
0.0
 20
0.0
 30
0.0
  3
*D14
  1

  0
LINE
  5
55319
330
55317
100
AcDbEntity
  8
2
100
AcDbLine
 10
52.55001400000007
 20
-12.25001500000018
 30
0.0
 11
18.34697874310095
 21
-12.25001500000016
 31
0.0
  0
LINE
  5
5531A
330
55317
100
AcDbEntity
  8
2
100
AcDbLine
 10
52.55001400000007
 20
12.24998499999982
 30
0.0
 11
18.34697874310096
 21
12.24998499999983
 31
0.0
  0
LINE
  5
5531B
330
55317
100
AcDbEntity
  8
2
100
AcDbLine
 10
19.84697874310096
 20
8.749984999999833
 30
0.0
 11
19.84697874310095
 21
-8.750015000000166
 31
0.0
  0
LINE
  5
5531C
330
55317
100
AcDbEntity
  8
2
100
AcDbLine
 10
19.84697874310095
 20
-12.25001500000016
 30
0.0
 11
19.84697874310094
 21
-60.01668166666685
 31
0.0
  0
SOLID
  5
5531D
330
55317
100
AcDbEntity
  8
2
100
AcDbTrace
 10
19.26364540976763
 20
8.749984999999833
 30
0.0
 11
20.4303120764343
 21
8.749984999999831
 31
0.0
 12
19.84697874310096
 22
12.24998499999983
 32
0.0
 13
19.84697874310096
 23
12.24998499999983
 33
0.0
  0
SOLID
  5
5531E
330
55317
100
AcDbEntity
  8
2
100
AcDbTrace
 10
19.26364540976762
 20
-8.750015000000166
 30
0.0
 11
20.43031207643429
 21
-8.750015000000168
 31
0.0
 12
19.84697874310095
 22
-12.25001500000016
 32
0.0
 13
19.84697874310095
 23
-12.25001500000016
 33
0.0
  0
MTEXT
  5
5531F
330
55317
100
AcDbEntity
  8
2
100
AcDbMText
 10
15.79697874310096
 20
-37.88334833333351
 30
0.0
 40
3.5
 41
0.0
 71
     5
 72
     1
  1
\A1;%%c24.5 [%%C.965"]
  7
simplex
 11
0.0000000000000001
 21
1.0
 31
0.0
 73
     1
 44
1.0
1001
ACAD
1000
MTEXTBEGIN
1070
    73
1070
     1
1070
    44
1040
1.0
1070
    74
1070
     0
1000
MTEXTEND
  0
POINT
  5
55320
330
55317
100
AcDbEntity
  8
Defpoints
 62
     0
100
AcDbPoint
 10
52.55001400000007
 20
-12.25001500000018
 30
0.0
  0
POINT
  5
55321
330
55317
100
AcDbEntity
  8
Defpoints
 62
     0
100
AcDbPoint
 10
52.55001400000007
 20
12.24998499999982
 30
0.0
  0
POINT
  5
55322
330
55317
100
AcDbEntity
  8
Defpoints
 62
     0
100
AcDbPoint
 10
19.84697874310096
 20
12.24998499999983
 30
0.0
  0
ENDBLK
  5
55323
330
55317
100
AcDbEntity
  8
0
100
AcDbBlockEnd
  0
BLOCK
  5
55325
330
55324
100
AcDbEntity
  8
0
100
AcDbBlockBegin
  2
*D15
 70
     1
 10
0.0
 20
0.0
 30
0.0
  3
*D15
  1

  0
LINE
  5
55326
330
55324
100
AcDbEntity
  8
2
100
AcDbLine
 10
69.86318063288546
 20
12.69998500000003
 30
0.0
 11
111.6738022917953
 21
12.69998500000002
 31
0.0
  0
LINE
  5
55327
330
55324
100
AcDbEntity
  8
2
100
AcDbLine
 10
110.1738022917953
 20
9.199985000000019
 30
0.0
 11
110.1738022917953
 21
-12.70001499999995
 31
0.0
  0
SOLID
  5
55328
330
55324
100
AcDbEntity
  8
2
100
AcDbTrace
 10
109.5904689584619
 20
9.199985000000019
 30
0.0
 11
110.7571356251286
 21
9.199985000000019
 31
0.0
 12
110.1738022917953
 22
12.69998500000002
 32
0.0
 13
110.1738022917953
 23
12.69998500000002
 33
0.0
  0
MTEXT
  5
55329
330
55324
100
AcDbEntity
  8
2
100
AcDbMText
 10
106.1238022917953
 20
-1.750014999999946
 30
0.0
 40
3.5
 41
0.0
 71
     5
 72
     1
  1
\A1;%%c25.4 [%%c1.000"]
  7
simplex
 11
0.0000000000000001
 21
1.0
 31
0.0
 73
     1
 44
1.0
1001
ACAD
1000
MTEXTBEGIN
1070
    73
1070
     1
1070
    44
1040
1.0
1070
    74
1070
     0
1000
MTEXTEND
  0
POINT
  5
5532A
330
55324
100
AcDbEntity
  8
Defpoints
 62
     0
100
AcDbPoint
 10
69.86318063288546
 20
12.69998500000003
 30
0.0
  0
POINT
  5
5532B
330
55324
100
AcDbEntity
  8
Defpoints
 62
     0
100
AcDbPoint
 10
86.26288899999996
 20
-12.70001499999994
 30
0.0
  0
POINT
  5
5532C
330
55324
100
AcDbEntity
  8
Defpoints
 62
     0
100
AcDbPoint
 10
110.1738022917953
 20
-12.70001499999995
 30
0.0
  0
ENDBLK
  5
5532D
330
55324
100
AcDbEntity
  8
0
100
AcDbBlockEnd
  0
BLOCK
  5
5532F
330
5532E
100
AcDbEntity
  8
0
100
AcDbBlockBegin
  2
*D16
 70
     1
 10
0.0
 20
0.0
 30
0.0
  3
*D16
  1

  0
LINE
  5
55330
330
5532E
100
AcDbEntity
  8
2
100
AcDbLine
 10
52.54999999999987
 20
12.24998500000005
 30
0.0
 11
52.54998760138208
 21
37.6210016211234
 31
0.0
  0
LINE
  5
55331
330
5532E
100
AcDbEntity
  8
2
100
AcDbLine
 10
82.54999999999997
 20
-0.0000149999999518
 30
0.0
 11
82.54998161489565
 21
37.62101628188631
 31
0.0
  0
LINE
  5
55332
330
5532E
100
AcDbEntity
  8
2
100
AcDbLine
 10
56.04998833441996
 20
36.12100333154626
 30
0.0
 11
79.04998234793435
 21
36.12101457146381
 31
0.0
  0
SOLID
  5
55333
330
5532E
100
AcDbEntity
  8
2
100
AcDbTrace
 10
56.0499880493495
 20
36.70433666487953
 30
0.0
 11
56.04998861949041
 21
35.537669998213
 31
0.0
 12
52.54998833442037
 22
36.12100162112358
 32
0.0
 13
52.54998833442037
 23
36.12100162112358
 33
0.0
  0
SOLID
  5
55334
330
5532E
100
AcDbEntity
  8
2
100
AcDbTrace
 10
79.0499820628639
 20
36.70434790479708
 30
0.0
 11
79.04998263300479
 21
35.53768123813055
 31
0.0
 12
82.54998234793394
 22
36.12101628188649
 32
0.0
 13
82.54998234793394
 23
36.12101628188649
 33
0.0
  0
MTEXT
  5
55335
330
5532E
100
AcDbEntity
  8
2
100
AcDbMText
 10
67.54998336197376
 20
40.17100895150455
 30
0.0
 40
3.5
 41
0.0
 71
     5
 72
     1
  1
\A1;29.99999401 [1.181"]
  7
simplex
 11
0.9999999999998808
 21
0.0000004886921943
 31
0.0
 73
     1
 44
0.892857
1001
ACAD
1000
MTEXTBEGIN
1070
    73
1070
     1
1070
    44
1040
0.892857
1070
    74
1070
     0
1000
MTEXTEND
  0
POINT
  5
55336
330
5532E
100
AcDbEntity
  8
Defpoints
 62
     0
100
AcDbPoint
 10
52.54999999999987
 20
12.24998500000005
 30
0.0
  0
POINT
  5
55337
330
5532E
100
AcDbEntity
  8
Defpoints
 62
     0
100
AcDbPoint
 10
82.54999999999997
 20
-0.0000149999999518
 30
0.0
  0
POINT
  5
55338
330
5532E
100
AcDbEntity
  8
Defpoints
 62
     0
100
AcDbPoint
 10
82.54998234793394
 20
36.12101628188649
 30
0.0
  0
ENDBLK
  5
55339
330
5532E
100
AcDbEntity
  8
0
100
AcDbBlockEnd
  0
BLOCK
  5
5533B
330
5533A
100
AcDbEntity
  8
0
100
AcDbBlockBegin
  2
*D17
 70
     1
 10
0.0
 20
0.0
 30
0.0
  3
*D17
  1

  0
LINE
  5
5533C
330
5533A
100
AcDbEntity
  8
2
100
AcDbLine
 10
109.1161931838341
 20
47.50613039854406
 30
0.0
 11
80.1709139466433
 21
12.48672738166178
 31
0.0
  0
MTEXT
  5
5533D
330
5533A
100
AcDbEntity
  8
2
100
AcDbMText
 10
92.63678151344221
 20
33.92553386860991
 30
0.0
 40
3.5
 41
0.0
 71
     5
 72
     1
  1
\A1;R12.7 [R.500"]
  7
simplex
 11
0.6370934534964974
 21
0.7707865667692363
 31
0.0
 73
     1
 44
1.0
1001
ACAD
1000
MTEXTBEGIN
1070
    73
1070
     1
1070
    44
1040
1.0
1070
    74
1070
     0
1000
MTEXTEND
  0
SOLID
  5
5533E
330
5533A
100
AcDbEntity
  8
2
100
AcDbTrace
 10
79.72128844936124
 20
12.85836522953474
 30
0.0
 11
80.62053944392536
 21
12.11508953378882
 31
0.0
 12
77.94108685940556
 22
9.788974397969447
 32
0.0
 13
77.94108685940556
 23
9.788974397969447
 33
0.0
  0
LINE
  5
5533F
330
5533A
100
AcDbEntity
  8
2
100
AcDbLine
 10
69.75999999999996
 20
-0.000014999999955
 30
0.0
 11
69.93999999999997
 21
-0.000014999999955
 31
0.0
  0
LINE
  5
55340
330
5533A
100
AcDbEntity
  8
2
100
AcDbLine
 10
69.84999999999996
 20
-0.0900149999999513
 30
0.0
 11
69.84999999999996
 21
0.0899850000000484
 31
0.0
  0
POINT
  5
55341
330
5533A
100
AcDbEntity
  8
Defpoints
 62
     0
100
AcDbPoint
 10
77.94108685940556
 20
9.788974397969447
 30
0.0
  0
POINT
  5
55342
330
5533A
100
AcDbEntity
  8
Defpoints
 62
     0
100
AcDbPoint
 10
69.84999999999995
 20
-0.000014999999955
 30
0.0
  0
ENDBLK
  5
55343
330
5533A
100
AcDbEntity
  8
0
100
AcDbBlockEnd
  0
BLOCK
  5
55345
330
55344
100
AcDbEntity
  8
0
100
AcDbBlockBegin
  2
*D18
 70
     1
 10
0.0
 20
0.0
 30
0.0
  3
*D18
  1

  0
LINE
  5
55346
330
55344
100
AcDbEntity
  8
2
100
AcDbLine
 10
0.0000000000000019
 20
15.8750155
 30
0.0
 11
0.0000000000000041
 21
51.33537448610882
 31
0.0
  0
LINE
  5
55347
330
55344
100
AcDbEntity
  8
2
100
AcDbLine
 10
82.54999999999997
 20
-0.0000150000001321
 30
0.0
 11
82.54999999999997
 21
51.33537448610882
 31
0.0
  0
LINE
  5
55348
330
55344
100
AcDbEntity
  8
2
100
AcDbLine
 10
3.500000000000003
 20
49.83537448610881
 30
0.0
 11
79.04999999999997
 21
49.83537448610881
 31
0.0
  0
SOLID
  5
55349
330
55344
100
AcDbEntity
  8
2
100
AcDbTrace
 10
3.500000000000003
 20
50.41870781944215
 30
0.0
 11
3.500000000000003
 21
49.25204115277548
 31
0.0
 12
0.000000000000004
 22
49.83537448610881
 32
0.0
 13
0.000000000000004
 23
49.83537448610881
 33
0.0
  0
SOLID
  5
5534A
330
55344
100
AcDbEntity
  8
2
100
AcDbTrace
 10
79.04999999999997
 20
50.41870781944215
 30
0.0
 11
79.04999999999997
 21
49.25204115277548
 31
0.0
 12
82.54999999999997
 22
49.83537448610881
 32
0.0
 13
82.54999999999997
 23
49.83537448610881
 33
0.0
  0
MTEXT
  5
5534B
330
55344
100
AcDbEntity
  8
2
100
AcDbMText
 10
40.73608759120861
 20
53.88537448610882
 30
0.0
 40
3.5
 41
0.0
 71
     5
 72
     1
  1
\A1;82.55 [3.250"]
  7
simplex
 73
     1
 44
1.0
1001
ACAD
1000
MTEXTBEGIN
1070
    73
1070
     1
1070
    44
1040
1.0
1070
    74
1070
     0
1000
MTEXTEND
  0
POINT
  5
5534C
330
55344
100
AcDbEntity
  8
Defpoints
 62
     0
100
AcDbPoint
 10
0.0000000000000019
 20
15.8750155
 30
0.0
  0
POINT
  5
5534D
330
55344
100
AcDbEntity
  8
Defpoints
 62
     0
100
AcDbPoint
 10
82.54999999999997
 20
-0.0000150000001321
 30
0.0
  0
POINT
  5
5534E
330
55344
100
AcDbEntity
  8
Defpoints
 62
     0
100
AcDbPoint
 10
82.54999999999997
 20
49.83537448610881
 30
0.0
  0
ENDBLK
  5
5534F
330
55344
100
AcDbEntity
  8
0
100
AcDbBlockEnd
  0
BLOCK
  5
55351
330
55350
100
AcDbEntity
  8
0
100
AcDbBlockBegin
  2
*D19
 70
     1
 10
0.0
 20
0.0
 30
0.0
  3
*D19
  1

  0
LINE
  5
55352
330
55350
100
AcDbEntity
  8
sk2
100
AcDbLine
 10
-93.42499999999999
 20
-15.875016
 30
0.0
 11
-125.7520312063884
 21
-15.87501599999999
 31
0.0
  0
LINE
  5
55353
330
55350
100
AcDbEntity
  8
sk2
100
AcDbLine
 10
-93.42499999999999
 20
15.874984
 30
0.0
 11
-125.7520312063884
 21
15.87498400000001
 31
0.0
  0
LINE
  5
55354
330
55350
100
AcDbEntity
  8
sk2
100
AcDbLine
 10
-124.2520312063884
 20
12.37498400000001
 30
0.0
 11
-124.2520312063884
 21
-12.37501599999999
 31
0.0
  0
LINE
  5
55355
330
55350
100
AcDbEntity
  8
sk2
100
AcDbLine
 10
-124.2520312063884
 20
-15.87501599999999
 30
0.0
 11
-124.2520312063884
 21
-73.35898810052362
 31
0.0
  0
SOLID
  5
55356
330
55350
100
AcDbEntity
  8
sk2
100
AcDbTrace
 10
-124.8353645397217
 20
12.37498400000001
 30
0.0
 11
-123.6686978730551
 21
12.37498400000001
 31
0.0
 12
-124.2520312063884
 22
15.87498400000001
 32
0.0
 13
-124.2520312063884
 23
15.87498400000001
 33
0.0
  0
SOLID
  5
55357
330
55350
100
AcDbEntity
  8
sk2
100
AcDbTrace
 10
-124.8353645397217
 20
-12.37501599999999
 30
0.0
 11
-123.6686978730551
 21
-12.37501599999999
 31
0.0
 12
-124.2520312063884
 22
-15.87501599999999
 32
0.0
 13
-124.2520312063884
 23
-15.87501599999999
 33
0.0
  0
MTEXT
  5
55358
330
55350
100
AcDbEntity
  8
sk2
100
AcDbMText
 10
-128.3020312063884
 20
-49.18398810052364
 30
0.0
 40
3.5
 41
0.0
 71
     5
 72
     1
  1
\A1;%%c31.75 [%%C1.250"]
  7
simplex
 11
0.0000000000000001
 21
1.0
 31
0.0
 73
     1
 44
1.0
1001
ACAD
1000
MTEXTBEGIN
1070
    73
1070
     1
1070
    44
1040
1.0
1070
    74
1070
     0
1000
MTEXTEND
  0
POINT
  5
55359
330
55350
100
AcDbEntity
  8
Defpoints
 62
     0
100
AcDbPoint
 10
-93.42499999999999
 20
-15.875016
 30
0.0
  0
POINT
  5
5535A
330
55350
100
AcDbEntity
  8
Defpoints
 62
     0
100
AcDbPoint
 10
-93.42499999999999
 20
15.874984
 30
0.0
  0
POINT
  5
5535B
330
55350
100
AcDbEntity
  8
Defpoints
 62
     0
100
AcDbPoint
 10
-124.2520312063884
 20
15.87498400000001
 30
0.0
  0
ENDBLK
  5
5535C
330
55350
100
AcDbEntity
  8
0
100
AcDbBlockEnd
  0
BLOCK
  5
55433
330
55428
100
AcDbEntity
  8
0
100
AcDbBlockBegin
  2
*D21
 70
     1
 10
0.0
 20
0.0
 30
0.0
  3
*D21
  1

  0
LINE
  5
55464
330
55428
100
AcDbEntity
  8
2
100
AcDbLine
 10
156.2045990443878
 20
-185.8401923263857
 30
0.0
 11
122.0015637874887
 21
-185.8401923263857
 31
0.0
  0
LINE
  5
55465
330
55428
100
AcDbEntity
  8
2
100
AcDbLine
 10
156.2045990443878
 20
-161.3401923263857
 30
0.0
 11
122.0015637874887
 21
-161.3401923263857
 31
0.0
  0
LINE
  5
55466
330
55428
100
AcDbEntity
  8
2
100
AcDbLine
 10
123.5015637874887
 20
-164.8401923263857
 30
0.0
 11
123.5015637874887
 21
-182.3401923263857
 31
0.0
  0
LINE
  5
55467
330
55428
100
AcDbEntity
  8
2
100
AcDbLine
 10
123.5015637874887
 20
-185.8401923263857
 30
0.0
 11
123.5015637874887
 21
-233.6068589930524
 31
0.0
  0
SOLID
  5
55468
330
55428
100
AcDbEntity
  8
2
100
AcDbTrace
 10
122.9182304541553
 20
-164.8401923263857
 30
0.0
 11
124.084897120822
 21
-164.8401923263857
 31
0.0
 12
123.5015637874887
 22
-161.3401923263857
 32
0.0
 13
123.5015637874887
 23
-161.3401923263857
 33
0.0
  0
SOLID
  5
55469
330
55428
100
AcDbEntity
  8
2
100
AcDbTrace
 10
122.9182304541553
 20
-182.3401923263857
 30
0.0
 11
124.084897120822
 21
-182.3401923263857
 31
0.0
 12
123.5015637874887
 22
-185.8401923263857
 32
0.0
 13
123.5015637874887
 23
-185.8401923263857
 33
0.0
  0
MTEXT
  5
5546A
330
55428
100
AcDbEntity
  8
2
100
AcDbMText
 10
119.4515637874887
 20
-211.473525659719
 30
0.0
 40
3.5
 41
0.0
 71
     5
 72
     1
  1
\A1;%%c24.5 [%%C.965"]
  7
simplex
 11
0.0000000000000001
 21
1.0
 31
0.0
 73
     1
 44
1.0
1001
ACAD
1000
MTEXTBEGIN
1070
    73
1070
     1
1070
    44
1040
1.0
1070
    74
1070
     0
1000
MTEXTEND
  0
POINT
  5
5546B
330
55428
100
AcDbEntity
  8
Defpoints
 62
     0
100
AcDbPoint
 10
156.2045990443878
 20
-185.8401923263857
 30
0.0
  0
POINT
  5
5546C
330
55428
100
AcDbEntity
  8
Defpoints
 62
     0
100
AcDbPoint
 10
156.2045990443878
 20
-161.3401923263857
 30
0.0
  0
POINT
  5
5546D
330
55428
100
AcDbEntity
  8
Defpoints
 62
     0
100
AcDbPoint
 10
123.5015637874887
 20
-161.3401923263857
 30
0.0
  0
ENDBLK
  5
55434
330
55428
100
AcDbEntity
  8
0
100
AcDbBlockEnd
  0
BLOCK
  5
5543D
330
55435
100
AcDbEntity
  8
0
100
AcDbBlockBegin
  2
*D22
 70
     1
 10
0.0
 20
0.0
 30
0.0
  3
*D22
  1

  0
LINE
  5
5546E
330
55435
100
AcDbEntity
  8
2
100
AcDbLine
 10
173.5177656772732
 20
-160.8901923263855
 30
0.0
 11
215.328387336183
 21
-160.8901923263855
 31
0.0
  0
LINE
  5
5546F
330
55435
100
AcDbEntity
  8
2
100
AcDbLine
 10
213.8283873361831
 20
-164.3901923263855
 30
0.0
 11
213.8283873361831
 21
-186.2901923263855
 31
0.0
  0
SOLID
  5
55470
330
55435
100
AcDbEntity
  8
2
100
AcDbTrace
 10
213.2450540028497
 20
-164.3901923263855
 30
0.0
 11
214.4117206695164
 21
-164.3901923263855
 31
0.0
 12
213.8283873361831
 22
-160.8901923263855
 32
0.0
 13
213.8283873361831
 23
-160.8901923263855
 33
0.0
  0
MTEXT
  5
55471
330
55435
100
AcDbEntity
  8
2
100
AcDbMText
 10
209.7783873361831
 20
-175.3401923263854
 30
0.0
 40
3.5
 41
0.0
 71
     5
 72
     1
  1
\A1;%%c25.4 [%%c1.000"]
  7
simplex
 11
0.0000000000000001
 21
1.0
 31
0.0
 73
     1
 44
1.0
1001
ACAD
1000
MTEXTBEGIN
1070
    73
1070
     1
1070
    44
1040
1.0
1070
    74
1070
     0
1000
MTEXTEND
  0
POINT
  5
55472
330
55435
100
AcDbEntity
  8
Defpoints
 62
     0
100
AcDbPoint
 10
173.5177656772732
 20
-160.8901923263855
 30
0.0
  0
POINT
  5
55473
330
55435
100
AcDbEntity
  8
Defpoints
 62
     0
100
AcDbPoint
 10
189.9174740443877
 20
-186.2901923263854
 30
0.0
  0
POINT
  5
55474
330
55435
100
AcDbEntity
  8
Defpoints
 62
     0
100
AcDbPoint
 10
213.8283873361831
 20
-186.2901923263855
 30
0.0
  0
ENDBLK
  5
5543E
330
55435
100
AcDbEntity
  8
0
100
AcDbBlockEnd
  0
BLOCK
  5
55449
330
5543F
100
AcDbEntity
  8
0
100
AcDbBlockBegin
  2
*D23
 70
     1
 10
0.0
 20
0.0
 30
0.0
  3
*D23
  1

  0
LINE
  5
5547F
330
5543F
100
AcDbEntity
  8
2
100
AcDbLine
 10
156.2045850443876
 20
-161.3401923263854
 30
0.0
 11
156.2045726457698
 21
-135.9691757052621
 31
0.0
  0
LINE
  5
55480
330
5543F
100
AcDbEntity
  8
2
100
AcDbLine
 10
186.2045850443877
 20
-173.5901923263854
 30
0.0
 11
186.2045666592834
 21
-135.9691610444992
 31
0.0
  0
LINE
  5
55481
330
5543F
100
AcDbEntity
  8
2
100
AcDbLine
 10
159.7045733788077
 20
-137.4691739948392
 30
0.0
 11
182.7045673923221
 21
-137.4691627549217
 31
0.0
  0
SOLID
  5
55482
330
5543F
100
AcDbEntity
  8
2
100
AcDbTrace
 10
159.7045730937373
 20
-136.8858406615059
 30
0.0
 11
159.7045736638781
 21
-138.0525073281725
 31
0.0
 12
156.2045733788081
 22
-137.4691757052619
 32
0.0
 13
156.2045733788081
 23
-137.4691757052619
 33
0.0
  0
SOLID
  5
55483
330
5543F
100
AcDbEntity
  8
2
100
AcDbTrace
 10
182.7045671072516
 20
-136.8858294215884
 30
0.0
 11
182.7045676773925
 21
-138.0524960882549
 31
0.0
 12
186.2045673923217
 22
-137.469161044499
 32
0.0
 13
186.2045673923217
 23
-137.469161044499
 33
0.0
  0
MTEXT
  5
55484
330
5543F
100
AcDbEntity
  8
2
100
AcDbMText
 10
171.2045684063615
 20
-133.4191683748809
 30
0.0
 40
3.5
 41
0.0
 71
     5
 72
     1
  1
\A1;29.99999401 [1.181"]
  7
simplex
 11
0.9999999999998808
 21
0.0000004886921943
 31
0.0
 73
     1
 44
0.892857
1001
ACAD
1000
MTEXTBEGIN
1070
    73
1070
     1
1070
    44
1040
0.892857
1070
    74
1070
     0
1000
MTEXTEND
  0
POINT
  5
55485
330
5543F
100
AcDbEntity
  8
Defpoints
 62
     0
100
AcDbPoint
 10
156.2045850443876
 20
-161.3401923263854
 30
0.0
  0
POINT
  5
55486
330
5543F
100
AcDbEntity
  8
Defpoints
 62
     0
100
AcDbPoint
 10
186.2045850443877
 20
-173.5901923263854
 30
0.0
  0
POINT
  5
55487
330
5543F
100
AcDbEntity
  8
Defpoints
 62
     0
100
AcDbPoint
 10
186.2045673923217
 20
-137.469161044499
 30
0.0
  0
ENDBLK
  5
5544A
330
5543F
100
AcDbEntity
  8
0
100
AcDbBlockEnd
  0
BLOCK
  5
55456
330
5544B
100
AcDbEntity
  8
0
100
AcDbBlockBegin
  2
*D24
 70
     1
 10
0.0
 20
0.0
 30
0.0
  3
*D24
  1

  0
LINE
  5
55494
330
5544B
100
AcDbEntity
  8
sk2
100
AcDbLine
 10
10.22958504438777
 20
-189.4651933263855
 30
0.0
 11
-22.09744616200065
 21
-189.4651933263855
 31
0.0
  0
LINE
  5
55495
330
5544B
100
AcDbEntity
  8
sk2
100
AcDbLine
 10
10.22958504438777
 20
-157.7151933263855
 30
0.0
 11
-22.09744616200064
 21
-157.7151933263855
 31
0.0
  0
LINE
  5
55496
330
5544B
100
AcDbEntity
  8
sk2
100
AcDbLine
 10
-20.59744616200064
 20
-161.2151933263855
 30
0.0
 11
-20.59744616200065
 21
-185.9651933263855
 31
0.0
  0
LINE
  5
55497
330
5544B
100
AcDbEntity
  8
sk2
100
AcDbLine
 10
-20.59744616200065
 20
-189.4651933263855
 30
0.0
 11
-20.59744616200066
 21
-246.9491654269091
 31
0.0
  0
SOLID
  5
55498
330
5544B
100
AcDbEntity
  8
sk2
100
AcDbTrace
 10
-21.18077949533398
 20
-161.2151933263855
 30
0.0
 11
-20.01411282866731
 21
-161.2151933263855
 31
0.0
 12
-20.59744616200064
 22
-157.7151933263855
 32
0.0
 13
-20.59744616200064
 23
-157.7151933263855
 33
0.0
  0
SOLID
  5
55499
330
5544B
100
AcDbEntity
  8
sk2
100
AcDbTrace
 10
-21.18077949533399
 20
-185.9651933263855
 30
0.0
 11
-20.01411282866732
 21
-185.9651933263855
 31
0.0
 12
-20.59744616200065
 22
-189.4651933263855
 32
0.0
 13
-20.59744616200065
 23
-189.4651933263855
 33
0.0
  0
MTEXT
  5
5549A
330
5544B
100
AcDbEntity
  8
sk2
100
AcDbMText
 10
-24.64744616200062
 20
-222.7741654269092
 30
0.0
 40
3.5
 41
0.0
 71
     5
 72
     1
  1
\A1;%%c31.75 [%%C1.250"]
  7
simplex
 11
0.0000000000000001
 21
1.0
 31
0.0
 73
     1
 44
1.0
1001
ACAD
1000
MTEXTBEGIN
1070
    73
1070
     1
1070
    44
1040
1.0
1070
    74
1070
     0
1000
MTEXTEND
  0
POINT
  5
5549B
330
5544B
100
AcDbEntity
  8
Defpoints
 62
     0
100
AcDbPoint
 10
10.22958504438777
 20
-189.4651933263855
 30
0.0
  0
POINT
  5
5549C
330
5544B
100
AcDbEntity
  8
Defpoints
 62
     0
100
AcDbPoint
 10
10.22958504438777
 20
-157.7151933263855
 30
0.0
  0
POINT
  5
5549D
330
5544B
100
AcDbEntity
  8
Defpoints
 62
     0
100
AcDbPoint
 10
-20.59744616200064
 20
-157.7151933263855
 30
0.0
  0
ENDBLK
  5
55457
330
5544B
100
AcDbEntity
  8
0
100
AcDbBlockEnd
  0
BLOCK
  5
55462
330
55458
100
AcDbEntity
  8
0
100
AcDbBlockBegin
  2
*D25
 70
     1
 10
0.0
 20
0.0
 30
0.0
  3
*D25
  1

  0
LINE
  5
5549E
330
55458
100
AcDbEntity
  8
sk2
100
AcDbLine
 10
5.229585044387775
 20
-159.4151893263854
 30
0.0
 11
5.229585044387778
 21
-108.0687969202653
 31
0.0
  0
LINE
  5
5549F
330
55458
100
AcDbEntity
  8
sk2
100
AcDbLine
 10
186.2045850443877
 20
-173.5901923263856
 30
0.0
 11
186.2045850443877
 21
-108.0687969202653
 31
0.0
  0
LINE
  5
554A0
330
55458
100
AcDbEntity
  8
sk2
100
AcDbLine
 10
8.729585044387778
 20
-109.5687969202653
 30
0.0
 11
182.7045850443877
 21
-109.5687969202653
 31
0.0
  0
SOLID
  5
554A1
330
55458
100
AcDbEntity
  8
sk2
100
AcDbTrace
 10
8.729585044387778
 20
-108.985463586932
 30
0.0
 11
8.729585044387778
 21
-110.1521302535987
 31
0.0
 12
5.229585044387778
 22
-109.5687969202653
 32
0.0
 13
5.229585044387778
 23
-109.5687969202653
 33
0.0
  0
SOLID
  5
554A2
330
55458
100
AcDbEntity
  8
sk2
100
AcDbTrace
 10
182.7045850443877
 20
-108.985463586932
 30
0.0
 11
182.7045850443877
 21
-110.1521302535987
 31
0.0
 12
186.2045850443877
 22
-109.5687969202653
 32
0.0
 13
186.2045850443877
 23
-109.5687969202653
 33
0.0
  0
MTEXT
  5
554A3
330
55458
100
AcDbEntity
  8
sk2
100
AcDbMText
 10
94.52544144336618
 20
-105.5187969202653
 30
0.0
 40
3.5
 41
0.0
 71
     5
 72
     1
  1
\A1;180.975 [7.125"]
  7
simplex
 73
     1
 44
0.892857
1001
ACAD
1000
MTEXTBEGIN
1070
    73
1070
     1
1070
    44
1040
0.892857
1070
    74
1070
     0
1000
MTEXTEND
  0
POINT
  5
554A4
330
55458
100
AcDbEntity
  8
Defpoints
 62
     0
100
AcDbPoint
 10
5.229585044387775
 20
-159.4151893263854
 30
0.0
  0
POINT
  5
554A5
330
55458
100
AcDbEntity
  8
Defpoints
 62
     0
100
AcDbPoint
 10
186.2045850443877
 20
-173.5901923263856
 30
0.0
  0
POINT
  5
554A6
330
55458
100
AcDbEntity
  8
Defpoints
 62
     0
100
AcDbPoint
 10
186.2045850443877
 20
-109.5687969202653
 30
0.0
  0
ENDBLK
  5
55463
330
55458
100
AcDbEntity
  8
0
100
AcDbBlockEnd
  0
BLOCK
  5
5547D
330
55475
100
AcDbEntity
  8
0
100
AcDbBlockBegin
  2
*D26
 70
     1
 10
0.0
 20
0.0
 30
0.0
  3
*D26
  1

  0
LINE
  5
554A7
330
55475
100
AcDbEntity
  8
2
100
AcDbLine
 10
212.7707782282219
 20
-126.0840469278414
 30
0.0
 11
183.8254989910311
 21
-161.1034499447237
 31
0.0
  0
MTEXT
  5
554A8
330
55475
100
AcDbEntity
  8
2
100
AcDbMText
 10
196.2913665578299
 20
-139.6646434577756
 30
0.0
 40
3.5
 41
0.0
 71
     5
 72
     1
  1
\A1;R12.7 [R.500"]
  7
simplex
 11
0.6370934534964964
 21
0.7707865667692371
 31
0.0
 73
     1
 44
1.0
1001
ACAD
1000
MTEXTBEGIN
1070
    73
1070
     1
1070
    44
1040
1.0
1070
    74
1070
     0
1000
MTEXTEND
  0
SOLID
  5
554A9
330
55475
100
AcDbEntity
  8
2
100
AcDbTrace
 10
183.375873493749
 20
-160.7318120968507
 30
0.0
 11
184.2751244883131
 21
-161.4750877925967
 31
0.0
 12
181.5956719037933
 22
-163.801202928416
 32
0.0
 13
181.5956719037933
 23
-163.801202928416
 33
0.0
  0
LINE
  5
554AA
330
55475
100
AcDbEntity
  8
2
100
AcDbLine
 10
173.4145850443877
 20
-173.5901923263854
 30
0.0
 11
173.5945850443877
 21
-173.5901923263855
 31
0.0
  0
LINE
  5
554AB
330
55475
100
AcDbEntity
  8
2
100
AcDbLine
 10
173.5045850443877
 20
-173.6801923263854
 30
0.0
 11
173.5045850443877
 21
-173.5001923263854
 31
0.0
  0
POINT
  5
554AC
330
55475
100
AcDbEntity
  8
Defpoints
 62
     0
100
AcDbPoint
 10
181.5956719037933
 20
-163.801202928416
 30
0.0
  0
POINT
  5
554AD
330
55475
100
AcDbEntity
  8
Defpoints
 62
     0
100
AcDbPoint
 10
173.5045850443877
 20
-173.5901923263855
 30
0.0
  0
ENDBLK
  5
5547E
330
55475
100
AcDbEntity
  8
0
100
AcDbBlockEnd
  0
BLOCK
  5
55492
330
55488
100
AcDbEntity
  8
0
100
AcDbBlockBegin
  2
*D27
 70
     1
 10
0.0
 20
0.0
 30
0.0
  3
*D27
  1

  0
LINE
  5
55489
330
55488
100
AcDbEntity
  8
2
100
AcDbLine
 10
103.6545850443878
 20
-157.7151618263855
 30
0.0
 11
103.6545850443878
 21
-122.2548028402767
 31
0.0
  0
LINE
  5
5548A
330
55488
100
AcDbEntity
  8
2
100
AcDbLine
 10
186.2045850443877
 20
-173.5901923263856
 30
0.0
 11
186.2045850443877
 21
-122.2548028402767
 31
0.0
  0
LINE
  5
5548B
330
55488
100
AcDbEntity
  8
2
100
AcDbLine
 10
107.1545850443877
 20
-123.7548028402767
 30
0.0
 11
182.7045850443877
 21
-123.7548028402767
 31
0.0
  0
SOLID
  5
5548C
330
55488
100
AcDbEntity
  8
2
100
AcDbTrace
 10
107.1545850443877
 20
-123.1714695069433
 30
0.0
 11
107.1545850443877
 21
-124.33813617361
 31
0.0
 12
103.6545850443878
 22
-123.7548028402767
 32
0.0
 13
103.6545850443878
 23
-123.7548028402767
 33
0.0
  0
SOLID
  5
5548D
330
55488
100
AcDbEntity
  8
2
100
AcDbTrace
 10
182.7045850443877
 20
-123.1714695069433
 30
0.0
 11
182.7045850443877
 21
-124.33813617361
 31
0.0
 12
186.2045850443877
 22
-123.7548028402767
 32
0.0
 13
186.2045850443877
 23
-123.7548028402767
 33
0.0
  0
MTEXT
  5
5548E
330
55488
100
AcDbEntity
  8
2
100
AcDbMText
 10
144.3906726355964
 20
-119.7048028402767
 30
0.0
 40
3.5
 41
0.0
 71
     5
 72
     1
  1
\A1;82.55 [3.250"]
  7
simplex
 73
     1
 44
1.0
1001
ACAD
1000
MTEXTBEGIN
1070
    73
1070
     1
1070
    44
1040
1.0
1070
    74
1070
     0
1000
MTEXTEND
  0
POINT
  5
5548F
330
55488
100
AcDbEntity
  8
Defpoints
 62
     0
100
AcDbPoint
 10
103.6545850443878
 20
-157.7151618263855
 30
0.0
  0
POINT
  5
55490
330
55488
100
AcDbEntity
  8
Defpoints
 62
     0
100
AcDbPoint
 10
186.2045850443877
 20
-173.5901923263856
 30
0.0
  0
POINT
  5
55491
330
55488
100
AcDbEntity
  8
Defpoints
 62
     0
100
AcDbPoint
 10
186.2045850443877
 20
-123.7548028402767
 30
0.0
  0
ENDBLK
  5
55493
330
55488
100
AcDbEntity
  8
0
100
AcDbBlockEnd
  0
BLOCK
  5
554B0
330
554AF
100
AcDbEntity
  8
0
100
AcDbBlockBegin
  2
*D28
 70
     1
 10
0.0
 20
0.0
 30
0.0
  3
*D28
  1

  0
LINE
  5
554B1
330
554AF
100
AcDbEntity
  8
sk2
100
AcDbLine
 10
-98.42500000000001
 20
14.17498800000008
 30
0.0
 11
-98.42500000000001
 21
65.52138040612014
 31
0.0
  0
LINE
  5
554B2
330
554AF
100
AcDbEntity
  8
sk2
100
AcDbLine
 10
82.54999999999997
 20
-0.0000150000001339
 30
0.0
 11
82.54999999999997
 21
65.52138040612014
 31
0.0
  0
LINE
  5
554B3
330
554AF
100
AcDbEntity
  8
sk2
100
AcDbLine
 10
-94.92499999999999
 20
64.02138040612014
 30
0.0
 11
79.04999999999997
 21
64.02138040612014
 31
0.0
  0
SOLID
  5
554B4
330
554AF
100
AcDbEntity
  8
sk2
100
AcDbTrace
 10
-94.92499999999999
 20
64.60471373945347
 30
0.0
 11
-94.92499999999999
 21
63.43804707278681
 31
0.0
 12
-98.42500000000001
 22
64.02138040612014
 32
0.0
 13
-98.42500000000001
 23
64.02138040612014
 33
0.0
  0
SOLID
  5
554B5
330
554AF
100
AcDbEntity
  8
sk2
100
AcDbTrace
 10
79.04999999999997
 20
64.60471373945347
 30
0.0
 11
79.04999999999997
 21
63.43804707278681
 31
0.0
 12
82.54999999999997
 22
64.02138040612014
 32
0.0
 13
82.54999999999997
 23
64.02138040612014
 33
0.0
  0
MTEXT
  5
554B6
330
554AF
100
AcDbEntity
  8
sk2
100
AcDbMText
 10
-9.129143601021601
 20
68.07138040612014
 30
0.0
 40
3.5
 41
0.0
 71
     5
 72
     1
  1
\A1;180.975 [7.125"]
  7
simplex
 73
     1
 44
0.892857
1001
ACAD
1000
MTEXTBEGIN
1070
    73
1070
     1
1070
    44
1040
0.892857
1070
    74
1070
     0
1000
MTEXTEND
  0
POINT
  5
554B7
330
554AF
100
AcDbEntity
  8
Defpoints
 62
     0
100
AcDbPoint
 10
-98.42500000000001
 20
14.17498800000008
 30
0.0
  0
POINT
  5
554B8
330
554AF
100
AcDbEntity
  8
Defpoints
 62
     0
100
AcDbPoint
 10
82.54999999999997
 20
-0.0000150000001339
 30
0.0
  0
POINT
  5
554B9
330
554AF
100
AcDbEntity
  8
Defpoints
 62
     0
100
AcDbPoint
 10
82.54999999999997
 20
64.02138040612014
 30
0.0
  0
ENDBLK
  5
554BA
330
554AF
100
AcDbEntity
  8
0
100
AcDbBlockEnd
  0
BLOCK
  5
554BC
330
554BB
100
AcDbEntity
  8
0
100
AcDbBlockBegin
  2
*D29
 70
     1
 10
0.0
 20
0.0
 30
0.0
  3
*D29
  1

  0
LINE
  5
554BD
330
554BB
100
AcDbEntity
  8
2
100
AcDbLine
 10
52.55001400000007
 20
-12.25001500000018
 30
0.0
 11
18.34697874310095
 21
-12.25001500000016
 31
0.0
  0
LINE
  5
554BE
330
554BB
100
AcDbEntity
  8
2
100
AcDbLine
 10
52.55001400000007
 20
12.24998499999982
 30
0.0
 11
18.34697874310096
 21
12.24998499999983
 31
0.0
  0
LINE
  5
554BF
330
554BB
100
AcDbEntity
  8
2
100
AcDbLine
 10
19.84697874310096
 20
8.749984999999833
 30
0.0
 11
19.84697874310095
 21
-8.750015000000166
 31
0.0
  0
LINE
  5
554C0
330
554BB
100
AcDbEntity
  8
2
100
AcDbLine
 10
19.84697874310095
 20
-12.25001500000016
 30
0.0
 11
19.84697874310094
 21
-60.01668166666685
 31
0.0
  0
SOLID
  5
554C1
330
554BB
100
AcDbEntity
  8
2
100
AcDbTrace
 10
19.26364540976763
 20
8.749984999999833
 30
0.0
 11
20.4303120764343
 21
8.749984999999831
 31
0.0
 12
19.84697874310096
 22
12.24998499999983
 32
0.0
 13
19.84697874310096
 23
12.24998499999983
 33
0.0
  0
SOLID
  5
554C2
330
554BB
100
AcDbEntity
  8
2
100
AcDbTrace
 10
19.26364540976762
 20
-8.750015000000166
 30
0.0
 11
20.43031207643429
 21
-8.750015000000168
 31
0.0
 12
19.84697874310095
 22
-12.25001500000016
 32
0.0
 13
19.84697874310095
 23
-12.25001500000016
 33
0.0
  0
MTEXT
  5
554C3
330
554BB
100
AcDbEntity
  8
2
100
AcDbMText
 10
15.79697874310096
 20
-37.88334833333351
 30
0.0
 40
3.5
 41
0.0
 71
     5
 72
     1
  1
\A1;%%c24.5 [%%C.965"]
  7
simplex
 11
0.0000000000000001
 21
1.0
 31
0.0
 73
     1
 44
1.0
1001
ACAD
1000
MTEXTBEGIN
1070
    73
1070
     1
1070
    44
1040
1.0
1070
    74
1070
     0
1000
MTEXTEND
  0
POINT
  5
554C4
330
554BB
100
AcDbEntity
  8
Defpoints
 62
     0
100
AcDbPoint
 10
52.55001400000007
 20
-12.25001500000018
 30
0.0
  0
POINT
  5
554C5
330
554BB
100
AcDbEntity
  8
Defpoints
 62
     0
100
AcDbPoint
 10
52.55001400000007
 20
12.24998499999982
 30
0.0
  0
POINT
  5
554C6
330
554BB
100
AcDbEntity
  8
Defpoints
 62
     0
100
AcDbPoint
 10
19.84697874310096
 20
12.24998499999983
 30
0.0
  0
ENDBLK
  5
554C7
330
554BB
100
AcDbEntity
  8
0
100
AcDbBlockEnd
  0
BLOCK
  5
554C9
330
554C8
100
AcDbEntity
  8
0
100
AcDbBlockBegin
  2
*D30
 70
     1
 10
0.0
 20
0.0
 30
0.0
  3
*D30
  1

  0
LINE
  5
554CA
330
554C8
100
AcDbEntity
  8
2
100
AcDbLine
 10
69.86318063288546
 20
12.69998500000003
 30
0.0
 11
111.6738022917953
 21
12.69998500000002
 31
0.0
  0
LINE
  5
554CB
330
554C8
100
AcDbEntity
  8
2
100
AcDbLine
 10
110.1738022917953
 20
9.199985000000019
 30
0.0
 11
110.1738022917953
 21
-12.70001499999995
 31
0.0
  0
SOLID
  5
554CC
330
554C8
100
AcDbEntity
  8
2
100
AcDbTrace
 10
109.5904689584619
 20
9.199985000000019
 30
0.0
 11
110.7571356251286
 21
9.199985000000019
 31
0.0
 12
110.1738022917953
 22
12.69998500000002
 32
0.0
 13
110.1738022917953
 23
12.69998500000002
 33
0.0
  0
MTEXT
  5
554CD
330
554C8
100
AcDbEntity
  8
2
100
AcDbMText
 10
106.1238022917953
 20
-1.750014999999946
 30
0.0
 40
3.5
 41
0.0
 71
     5
 72
     1
  1
\A1;%%c25.4 [%%c1.000"]
  7
simplex
 11
0.0000000000000001
 21
1.0
 31
0.0
 73
     1
 44
1.0
1001
ACAD
1000
MTEXTBEGIN
1070
    73
1070
     1
1070
    44
1040
1.0
1070
    74
1070
     0
1000
MTEXTEND
  0
POINT
  5
554CE
330
554C8
100
AcDbEntity
  8
Defpoints
 62
     0
100
AcDbPoint
 10
69.86318063288546
 20
12.69998500000003
 30
0.0
  0
POINT
  5
554CF
330
554C8
100
AcDbEntity
  8
Defpoints
 62
     0
100
AcDbPoint
 10
86.26288899999996
 20
-12.70001499999994
 30
0.0
  0
POINT
  5
554D0
330
554C8
100
AcDbEntity
  8
Defpoints
 62
     0
100
AcDbPoint
 10
110.1738022917953
 20
-12.70001499999995
 30
0.0
  0
ENDBLK
  5
554D1
330
554C8
100
AcDbEntity
  8
0
100
AcDbBlockEnd
  0
BLOCK
  5
554D3
330
554D2
100
AcDbEntity
  8
0
100
AcDbBlockBegin
  2
*D31
 70
     1
 10
0.0
 20
0.0
 30
0.0
  3
*D31
  1

  0
LINE
  5
554D4
330
554D2
100
AcDbEntity
  8
2
100
AcDbLine
 10
52.54999999999987
 20
12.24998500000005
 30
0.0
 11
52.54998760138208
 21
37.6210016211234
 31
0.0
  0
LINE
  5
554D5
330
554D2
100
AcDbEntity
  8
2
100
AcDbLine
 10
82.54999999999997
 20
-0.0000149999999518
 30
0.0
 11
82.54998161489565
 21
37.62101628188631
 31
0.0
  0
LINE
  5
554D6
330
554D2
100
AcDbEntity
  8
2
100
AcDbLine
 10
56.04998833441996
 20
36.12100333154626
 30
0.0
 11
79.04998234793435
 21
36.12101457146381
 31
0.0
  0
SOLID
  5
554D7
330
554D2
100
AcDbEntity
  8
2
100
AcDbTrace
 10
56.0499880493495
 20
36.70433666487953
 30
0.0
 11
56.04998861949041
 21
35.537669998213
 31
0.0
 12
52.54998833442037
 22
36.12100162112358
 32
0.0
 13
52.54998833442037
 23
36.12100162112358
 33
0.0
  0
SOLID
  5
554D8
330
554D2
100
AcDbEntity
  8
2
100
AcDbTrace
 10
79.0499820628639
 20
36.70434790479708
 30
0.0
 11
79.04998263300479
 21
35.53768123813055
 31
0.0
 12
82.54998234793394
 22
36.12101628188649
 32
0.0
 13
82.54998234793394
 23
36.12101628188649
 33
0.0
  0
MTEXT
  5
554D9
330
554D2
100
AcDbEntity
  8
2
100
AcDbMText
 10
67.54998336197376
 20
40.17100895150455
 30
0.0
 40
3.5
 41
0.0
 71
     5
 72
     1
  1
\A1;29.99999401 [1.181"]
  7
simplex
 11
0.9999999999998808
 21
0.0000004886921943
 31
0.0
 73
     1
 44
0.892857
1001
ACAD
1000
MTEXTBEGIN
1070
    73
1070
     1
1070
    44
1040
0.892857
1070
    74
1070
     0
1000
MTEXTEND
  0
POINT
  5
554DA
330
554D2
100
AcDbEntity
  8
Defpoints
 62
     0
100
AcDbPoint
 10
52.54999999999987
 20
12.24998500000005
 30
0.0
  0
POINT
  5
554DB
330
554D2
100
AcDbEntity
  8
Defpoints
 62
     0
100
AcDbPoint
 10
82.54999999999997
 20
-0.0000149999999518
 30
0.0
  0
POINT
  5
554DC
330
554D2
100
AcDbEntity
  8
Defpoints
 62
     0
100
AcDbPoint
 10
82.54998234793394
 20
36.12101628188649
 30
0.0
  0
ENDBLK
  5
554DD
330
554D2
100
AcDbEntity
  8
0
100
AcDbBlockEnd
  0
BLOCK
  5
554DF
330
554DE
100
AcDbEntity
  8
0
100
AcDbBlockBegin
  2
*D32
 70
     1
 10
0.0
 20
0.0
 30
0.0
  3
*D32
  1

  0
LINE
  5
554E0
330
554DE
100
AcDbEntity
  8
2
100
AcDbLine
 10
109.1161931838341
 20
47.50613039854406
 30
0.0
 11
80.1709139466433
 21
12.48672738166178
 31
0.0
  0
MTEXT
  5
554E1
330
554DE
100
AcDbEntity
  8
2
100
AcDbMText
 10
92.63678151344221
 20
33.92553386860991
 30
0.0
 40
3.5
 41
0.0
 71
     5
 72
     1
  1
\A1;R12.7 [R.500"]
  7
simplex
 11
0.6370934534964974
 21
0.7707865667692363
 31
0.0
 73
     1
 44
1.0
1001
ACAD
1000
MTEXTBEGIN
1070
    73
1070
     1
1070
    44
1040
1.0
1070
    74
1070
     0
1000
MTEXTEND
  0
SOLID
  5
554E2
330
554DE
100
AcDbEntity
  8
2
100
AcDbTrace
 10
79.72128844936124
 20
12.85836522953474
 30
0.0
 11
80.62053944392536
 21
12.11508953378882
 31
0.0
 12
77.94108685940556
 22
9.788974397969447
 32
0.0
 13
77.94108685940556
 23
9.788974397969447
 33
0.0
  0
LINE
  5
554E3
330
554DE
100
AcDbEntity
  8
2
100
AcDbLine
 10
69.75999999999996
 20
-0.000014999999955
 30
0.0
 11
69.93999999999997
 21
-0.000014999999955
 31
0.0
  0
LINE
  5
554E4
330
554DE
100
AcDbEntity
  8
2
100
AcDbLine
 10
69.84999999999996
 20
-0.0900149999999513
 30
0.0
 11
69.84999999999996
 21
0.0899850000000484
 31
0.0
  0
POINT
  5
554E5
330
554DE
100
AcDbEntity
  8
Defpoints
 62
     0
100
AcDbPoint
 10
77.94108685940556
 20
9.788974397969447
 30
0.0
  0
POINT
  5
554E6
330
554DE
100
AcDbEntity
  8
Defpoints
 62
     0
100
AcDbPoint
 10
69.84999999999995
 20
-0.000014999999955
 30
0.0
  0
ENDBLK
  5
554E7
330
554DE
100
AcDbEntity
  8
0
100
AcDbBlockEnd
  0
BLOCK
  5
554E9
330
554E8
100
AcDbEntity
  8
0
100
AcDbBlockBegin
  2
*D33
 70
     1
 10
0.0
 20
0.0
 30
0.0
  3
*D33
  1

  0
LINE
  5
554EA
330
554E8
100
AcDbEntity
  8
2
100
AcDbLine
 10
0.0000000000000019
 20
15.8750155
 30
0.0
 11
0.0000000000000041
 21
51.33537448610882
 31
0.0
  0
LINE
  5
554EB
330
554E8
100
AcDbEntity
  8
2
100
AcDbLine
 10
82.54999999999997
 20
-0.0000150000001321
 30
0.0
 11
82.54999999999997
 21
51.33537448610882
 31
0.0
  0
LINE
  5
554EC
330
554E8
100
AcDbEntity
  8
2
100
AcDbLine
 10
3.500000000000003
 20
49.83537448610881
 30
0.0
 11
79.04999999999997
 21
49.83537448610881
 31
0.0
  0
SOLID
  5
554ED
330
554E8
100
AcDbEntity
  8
2
100
AcDbTrace
 10
3.500000000000003
 20
50.41870781944215
 30
0.0
 11
3.500000000000003
 21
49.25204115277548
 31
0.0
 12
0.000000000000004
 22
49.83537448610881
 32
0.0
 13
0.000000000000004
 23
49.83537448610881
 33
0.0
  0
SOLID
  5
554EE
330
554E8
100
AcDbEntity
  8
2
100
AcDbTrace
 10
79.04999999999997
 20
50.41870781944215
 30
0.0
 11
79.04999999999997
 21
49.25204115277548
 31
0.0
 12
82.54999999999997
 22
49.83537448610881
 32
0.0
 13
82.54999999999997
 23
49.83537448610881
 33
0.0
  0
MTEXT
  5
554EF
330
554E8
100
AcDbEntity
  8
2
100
AcDbMText
 10
40.73608759120861
 20
53.88537448610882
 30
0.0
 40
3.5
 41
0.0
 71
     5
 72
     1
  1
\A1;82.55 [3.250"]
  7
simplex
 73
     1
 44
1.0
1001
ACAD
1000
MTEXTBEGIN
1070
    73
1070
     1
1070
    44
1040
1.0
1070
    74
1070
     0
1000
MTEXTEND
  0
POINT
  5
554F0
330
554E8
100
AcDbEntity
  8
Defpoints
 62
     0
100
AcDbPoint
 10
0.0000000000000019
 20
15.8750155
 30
0.0
  0
POINT
  5
554F1
330
554E8
100
AcDbEntity
  8
Defpoints
 62
     0
100
AcDbPoint
 10
82.54999999999997
 20
-0.0000150000001321
 30
0.0
  0
POINT
  5
554F2
330
554E8
100
AcDbEntity
  8
Defpoints
 62
     0
100
AcDbPoint
 10
82.54999999999997
 20
49.83537448610881
 30
0.0
  0
ENDBLK
  5
554F3
330
554E8
100
AcDbEntity
  8
0
100
AcDbBlockEnd
  0
BLOCK
  5
554F5
330
554F4
100
AcDbEntity
  8
0
100
AcDbBlockBegin
  2
*D34
 70
     1
 10
0.0
 20
0.0
 30
0.0
  3
*D34
  1

  0
LINE
  5
554F6
330
554F4
100
AcDbEntity
  8
sk2
100
AcDbLine
 10
-93.42499999999999
 20
-15.875016
 30
0.0
 11
-125.7520312063884
 21
-15.87501599999999
 31
0.0
  0
LINE
  5
554F7
330
554F4
100
AcDbEntity
  8
sk2
100
AcDbLine
 10
-93.42499999999999
 20
15.874984
 30
0.0
 11
-125.7520312063884
 21
15.87498400000001
 31
0.0
  0
LINE
  5
554F8
330
554F4
100
AcDbEntity
  8
sk2
100
AcDbLine
 10
-124.2520312063884
 20
12.37498400000001
 30
0.0
 11
-124.2520312063884
 21
-12.37501599999999
 31
0.0
  0
LINE
  5
554F9
330
554F4
100
AcDbEntity
  8
sk2
100
AcDbLine
 10
-124.2520312063884
 20
-15.87501599999999
 30
0.0
 11
-124.2520312063884
 21
-73.35898810052362
 31
0.0
  0
SOLID
  5
554FA
330
554F4
100
AcDbEntity
  8
sk2
100
AcDbTrace
 10
-124.8353645397217
 20
12.37498400000001
 30
0.0
 11
-123.6686978730551
 21
12.37498400000001
 31
0.0
 12
-124.2520312063884
 22
15.87498400000001
 32
0.0
 13
-124.2520312063884
 23
15.87498400000001
 33
0.0
  0
SOLID
  5
554FB
330
554F4
100
AcDbEntity
  8
sk2
100
AcDbTrace
 10
-124.8353645397217
 20
-12.37501599999999
 30
0.0
 11
-123.6686978730551
 21
-12.37501599999999
 31
0.0
 12
-124.2520312063884
 22
-15.87501599999999
 32
0.0
 13
-124.2520312063884
 23
-15.87501599999999
 33
0.0
  0
MTEXT
  5
554FC
330
554F4
100
AcDbEntity
  8
sk2
100
AcDbMText
 10
-128.3020312063884
 20
-49.18398810052364
 30
0.0
 40
3.5
 41
0.0
 71
     5
 72
     1
  1
\A1;%%c31.75 [%%C1.250"]
  7
simplex
 11
0.0000000000000001
 21
1.0
 31
0.0
 73
     1
 44
1.0
1001
ACAD
1000
MTEXTBEGIN
1070
    73
1070
     1
1070
    44
1040
1.0
1070
    74
1070
     0
1000
MTEXTEND
  0
POINT
  5
554FD
330
554F4
100
AcDbEntity
  8
Defpoints
 62
     0
100
AcDbPoint
 10
-93.42499999999999
 20
-15.875016
 30
0.0
  0
POINT
  5
554FE
330
554F4
100
AcDbEntity
  8
Defpoints
 62
     0
100
AcDbPoint
 10
-93.42499999999999
 20
15.874984
 30
0.0
  0
POINT
  5
554FF
330
554F4
100
AcDbEntity
  8
Defpoints
 62
     0
100
AcDbPoint
 10
-124.2520312063884
 20
15.87498400000001
 30
0.0
  0
ENDBLK
  5
55500
330
554F4
100
AcDbEntity
  8
0
100
AcDbBlockEnd
  0
BLOCK
  5
55567
330
55501
100
AcDbEntity
  8
0
100
AcDbBlockBegin
  2
A$C63B030E7
 70
     0
 10
0.0
 20
0.0
 30
0.0
  3
A$C63B030E7
  1

  0
DIMENSION
  5
55502
330
55501
100
AcDbEntity
  8
sk2
100
AcDbDimension
  2
*D28
 10
212.6020315383645
 20
137.3803685716853
 30
0.0
 11
120.9228879373429
 21
137.3803685716853
 31
0.0
 12
130.0520315383645
 22
73.35898816556516
 32
0.0
 70
   128
 71
     5
 41
0.892857
 42
180.975
  3
\M+18352\M+18373\M+1815B - ISO-25
100
AcDbAlignedDimension
 13
31.62703153836453
 23
87.53397616556524
 33
0.0
 14
212.6020315383645
 24
73.35897316556503
 34
0.0
 50
180.0
100
AcDbRotatedDimension
1001
ACAD
1000
DSTYLE
1002
{
1070
     4
1000
"
1070
    40
1040
1.0
1070
   143
1040
0.03937
1070
   170
1070
     1
1070
   171
1070
     3
1070
   271
1070
     8
1070
   285
1070
     4
1002
}
  0
SPLINE
  5
55503
330
55501
100
AcDbEntity
  8
1
100
AcDbSpline
210
0.0
220
0.0
230
1.0
 70
     8
 71
     3
 72
    10
 73
     6
 74
     4
 42
0.0000000001
 43
0.0000000001
 44
0.000001
 12
0.9939981913532239
 22
-0.1093965062811404
 32
0.0
 13
0.9846601879733476
 23
-0.1744829912062825
 33
0.0
 40
0.0
 40
0.0
 40
0.0
 40
0.0
 40
0.2729697609933845
 40
0.5696278389164938
 40
0.8867687606916183
 40
0.8867687606916183
 40
0.8867687606916183
 40
0.8867687606916183
 10
189.206087695591
 20
84.6568396655652
 30
0.0
 10
189.2965315118315
 20
84.64688568617416
 30
0.0
 10
189.4850449551617
 20
84.62397042717254
 30
0.0
 10
189.7774279696625
 20
84.5803944783082
 30
0.0
 10
189.979269241945
 20
84.54683641145884
 30
0.0
 10
190.0833612551614
 20
84.5283911792371
 30
0.0
 11
189.206087695591
 21
84.6568396655652
 31
0.0
 11
189.4770456423684
 21
84.62375861087769
 31
0.0
 11
189.7705484499856
 21
84.58060675540894
 31
0.0
 11
190.0833612551614
 21
84.5283911792371
 31
0.0
  0
SPLINE
  5
55504
330
55501
100
AcDbEntity
  8
1
100
AcDbSpline
210
0.0
220
0.0
230
1.0
 70
     8
 71
     3
 72
    56
 73
    52
 74
    50
 42
0.0000000001
 43
0.0000000001
 44
0.000001
 12
-0.9999999973384662
 22
-0.0000729593564862
 32
0.0
 13
0.9999999688642722
 23
-0.0002495424907634
 33
0.0
 40
0.0
 40
0.0
 40
0.0
 40
0.0
 40
0.345442679074576
 40
0.6888896339249636
 40
1.033155236005502
 40
1.287867330899087
 40
1.54811153611753
 40
1.800358867128083
 40
2.060957197459981
 40
2.393530606407318
 40
2.734671295356902
 40
3.074454177494019
 40
3.407139508863267
 40
3.736957054307937
 40
4.081619005168116
 40
4.420707103818575
 40
4.756233735105886
 40
5.091598916829776
 40
5.434016585142161
 40
5.769121316671346
 40
6.102741471089061
 40
6.615314631995268
 40
7.131163564364458
 40
7.64447816068758
 40
8.160279889619589
 40
8.680738616401189
 40
9.196026435569272
 40
9.536635767940857
 40
9.878551174167068
 40
10.22461154121137
 40
10.60145228066314
 40
10.97676858055238
 40
11.35889573095385
 40
11.5091807932629
 40
11.65604052546503
 40
11.80406806210353
 40
11.95290699754606
 40
12.0941730302984
 40
12.25060695890133
 40
12.54280924015631
 40
12.82845866301496
 40
13.11574013593833
 40
13.40469365475343
 40
13.69337892231565
 40
13.98638816610842
 40
14.26925018304902
 40
14.61197023292306
 40
14.95259428508425
 40
15.29467796946487
 40
15.81250869270013
 40
16.33267399543929
 40
16.33267399543929
 40
16.33267399543929
 40
16.33267399543929
 10
199.952051745884
 20
78.55896979251832
 30
0.0
 10
199.836904186499
 20
78.55896139142647
 30
0.0
 10
199.6072010014925
 20
78.55133130807434
 30
0.0
 10
199.2642815165125
 20
78.51713816841685
 30
0.0
 10
198.9541987236483
 20
78.46529641199272
 30
0.0
 10
198.6747987807319
 20
78.4018513714074
 30
0.0
 10
198.4284078346653
 20
78.33294726233693
 30
0.0
 10
198.1838668483805
 20
78.25134467515737
 30
0.0
 10
197.9211478019986
 20
78.14908307577742
 30
0.0
 10
197.6376609959289
 20
78.01960183053272
 30
0.0
 10
197.3398617036
 20
77.85957178806514
 30
0.0
 10
197.0531782039623
 20
77.68031971482142
 30
0.0
 10
196.7816963294888
 20
77.48520570133779
 30
0.0
 10
196.5219907893891
 20
77.27210326759827
 30
0.0
 10
196.2750360718628
 20
77.04117452827394
 30
0.0
 10
196.0424876701442
 20
76.79313982993559
 30
0.0
 10
195.8285173980382
 20
76.53292017356372
 30
0.0
 10
195.6310957725815
 20
76.25856536005599
 30
0.0
 10
195.452029241065
 20
75.97204499928287
 30
0.0
 10
195.2922850000583
 20
75.67498687624156
 30
0.0
 10
195.1283518477938
 20
75.31669907283374
 30
0.0
 10
194.9733932726373
 20
74.88911592960954
 30
0.0
 10
194.8466583073069
 20
74.39021715885296
 30
0.0
 10
194.7696934980423
 20
73.88016372612945
 30
0.0
 10
194.7434270097569
 20
73.36345581976195
 30
0.0
 10
194.7687496082263
 20
72.84603775052075
 30
0.0
 10
194.8367787275317
 20
72.39151878502017
 30
0.0
 10
194.9281963808587
 20
72.002588655047
 30
0.0
 10
195.0284418217691
 20
71.67444277742832
 30
0.0
 10
195.1544720006665
 20
71.34235923020398
 30
0.0
 10
195.3079239343914
 20
71.00963911596479
 30
0.0
 10
195.4908610960417
 20
70.67838694180545
 30
0.0
 10
195.6561504231427
 20
70.42458321834565
 30
0.0
 10
195.7893278285258
 20
70.2414386660666
 30
0.0
 10
195.8799885016665
 20
70.12393676476576
 30
0.0
 10
195.9736306388565
 20
70.0094209314486
 30
0.0
 10
196.0692707595074
 20
69.89902246619466
 30
0.0
 10
196.1698833922035
 20
69.78930512003801
 30
0.0
 10
196.3068566256165
 20
69.64819101979739
 30
0.0
 10
196.4848711049448
 20
69.48000098062234
 30
0.0
 10
196.7052480528111
 20
69.29378291857631
 30
0.0
 10
196.9347092563819
 20
69.12066368362346
 30
0.0
 10
197.1742205781456
 20
68.95991188660722
 30
0.0
 10
197.4239703624392
 20
68.81180301522705
 30
0.0
 10
197.6797712200246
 20
68.67873835503171
 30
0.0
 10
197.9589851378786
 20
68.55270207697902
 30
0.0
 10
198.2601720050714
 20
68.43794663974875
 30
0.0
 10
198.5871269669021
 20
68.33743168672834
 30
0.0
 10
198.9767897225942
 20
68.24512176900182
 30
0.0
 10
199.4324162972129
 20
68.17626266985853
 30
0.0
 10
199.7786556876416
 20
68.15901916381569
 30
0.0
 10
199.9520441164895
 20
68.15897589603395
 30
0.0
 11
199.952051745884
 21
78.55896979251832
 31
0.0
 11
199.6067987551614
 21
78.54749518314332
 31
0.0
 11
199.2650476565285
 21
78.5134070483777
 31
0.0
 11
198.9254938235207
 21
78.4566443530652
 31
0.0
 11
198.6771036257668
 21
78.4002478686902
 31
0.0
 11
198.4264780154153
 21
78.33014899173713
 31
0.0
 11
198.1871973147317
 21
78.25031500736208
 31
0.0
 11
197.944353686802
 21
78.15577155033077
 31
0.0
 11
197.6418329348489
 21
78.01761847415895
 31
0.0
 11
197.341341601841
 21
77.85611945072151
 31
0.0
 11
197.0532251467629
 21
77.6760047046277
 31
0.0
 11
196.783091174595
 21
77.48182135501832
 31
0.0
 11
196.528109179966
 21
77.27262335697151
 31
0.0
 11
196.2763696780129
 21
77.0372107593152
 31
0.0
 11
196.044451343052
 21
76.78983527103395
 31
0.0
 11
195.8313394656106
 21
76.53067999759645
 31
0.0
 11
195.6354623904153
 21
76.25846320072151
 31
0.0
 11
195.453989612095
 21
75.96808844486208
 31
0.0
 11
195.2952753176614
 21
75.6729529468152
 31
0.0
 11
195.1564737429543
 21
75.36957770267457
 31
0.0
 11
194.9818292727395
 21
74.8876746265027
 31
0.0
 11
194.8548227419778
 21
74.38770514408076
 31
0.0
 11
194.7782312502786
 21
73.88013678470582
 31
0.0
 11
194.7520471682473
 21
73.36500006595582
 31
0.0
 11
194.777491199009
 21
72.84516364017457
 31
0.0
 11
194.8537546267434
 21
72.3355506030652
 31
0.0
 11
194.9316888918801
 21
72.00397711673713
 31
0.0
 11
195.0315881838723
 21
71.6769812671277
 31
0.0
 11
195.1543680300637
 21
71.35343390384645
 31
0.0
 11
195.3122049441262
 21
71.01124030033076
 31
0.0
 11
195.4936319460793
 21
70.68268805423713
 31
0.0
 11
195.7021967043801
 21
70.36249762454963
 31
0.0
 11
195.7905756106301
 21
70.2409461108777
 31
0.0
 11
195.8802896609231
 21
70.1246741382215
 31
0.0
 11
195.9739938845559
 21
70.01008063236207
 31
0.0
 11
196.0714593996926
 21
69.89759283939332
 31
0.0
 11
196.1669260134621
 21
69.79346686283077
 31
0.0
 11
196.2758890261574
 21
69.68122321048713
 31
0.0
 11
196.4882761111184
 21
69.48053961673713
 31
0.0
 11
196.7064691653176
 21
69.29618292728395
 31
0.0
 11
196.9357935061379
 21
69.1231482593152
 31
0.0
 11
197.1757303347512
 21
68.9621375171277
 31
0.0
 11
197.4240213503762
 21
68.81485968509645
 31
0.0
 11
197.6839777102395
 21
68.6796668140027
 31
0.0
 11
197.941782580845
 21
68.56327277103395
 31
0.0
 11
198.2620493044778
 21
68.4412634936902
 31
0.0
 11
198.5876337160989
 21
68.3411658374402
 31
0.0
 11
198.9205041994973
 21
68.2623084155652
 31
0.0
 11
199.4325281252785
 21
68.18497687259645
 31
0.0
 11
199.9520441164895
 21
68.15897589603395
 31
0.0
  0
HATCH
  5
55505
330
55501
100
AcDbEntity
  8
6
100
AcDbHatch
 10
0.0
 20
0.0
 30
0.0
210
0.0
220
0.0
230
1.0
  2
ANSI37
 70
     0
 71
     1
 91
        1
 92
       33
 93
       17
 72
     1
 10
199.9020315383641
 20
60.65897316556521
 11
194.1020455383645
 21
61.52683516556521
 72
     2
 10
199.9020315383645
 20
73.35897316556522
 40
12.7
 50
269.9999999999984
 51
450.0
 73
     1
 72
     1
 10
195.2248025383645
 20
62.43351216556522
 11
200.1020455383645
 21
62.43351216556522
 72
     4
 94
        3
 73
     0
 74
     0
 95
       29
 96
       25
 40
0.0
 40
0.0
 40
0.0
 40
0.0
 40
0.7671199296705473
 40
1.536854420458386
 40
2.307476727081967
 40
3.077218851210711
 40
3.844339390602732
 40
4.611477114660679
 40
5.381269819466311
 40
6.151928265688328
 40
6.921700066992492
 40
7.688847781073526
 40
8.455184083117391
 40
9.224178949632598
 40
9.994047668190468
 40
10.76300917792539
 40
11.52930551949753
 40
12.29171226530856
 40
13.05694882201791
 40
13.82298815352544
 40
14.58794647814971
 40
15.35012738478957
 40
15.9630740972074
 40
16.57600420325564
 40
16.57600420325564
 40
16.57600420325564
 40
16.57600420325564
 10
200.1020456423684
 20
62.43351202884644
 10
200.3577522383907
 20
62.43366739724229
 10
200.8702022656592
 20
62.45115256964628
 10
201.635902794985
 20
62.52962671161192
 10
202.3955926051345
 20
62.65887351089688
 10
203.1441126227327
 20
62.83834466346206
 10
203.8777632609043
 20
63.06747897737674
 10
204.5938677056658
 20
63.34671205762077
 10
205.2905190774467
 20
63.67416116385619
 10
205.9645800102004
 20
64.04770461808972
 10
206.6114725884989
 20
64.46492511477787
 10
207.2275690290485
 20
64.92405076132666
 10
207.8102215182425
 20
65.424538448727
 10
208.3583465968213
 20
65.96387444552374
 10
208.8697210243548
 20
66.53934591929166
 10
209.3407655682952
 20
67.14713914472564
 10
209.7680050247635
 20
67.7835266738958
 10
210.1492867746823
 20
68.44703029231618
 10
210.4843786662325
 20
69.13490532252632
 10
210.7718868668964
 20
69.84492335080441
 10
211.0090659213204
 20
70.57224588831331
 10
211.1812944303591
 20
71.26518207731979
 10
211.2980766153327
 20
71.91786980215161
 10
211.3454490269026
 20
72.32404305415434
 10
211.3630014529153
 20
72.52759772220582
 72
     1
 10
194.1020455383645
 20
61.52683516556521
 11
194.1020455383645
 21
62.40653416556518
 72
     1
 10
194.1020455383645
 20
62.43351216556522
 11
195.2248025383645
 21
62.43351216556522
 72
     1
 10
194.1020455383645
 20
62.43351216556522
 11
194.1020455383645
 21
62.40653416556518
 72
     4
 94
        3
 73
     0
 74
     0
 95
       37
 96
       33
 40
0.0
 40
0.0
 40
0.0
 40
0.0
 40
0.8083824956855282
 40
1.644479507180572
 40
2.493266844777634
 40
3.363734089811382
 40
4.312698579938696
 40
5.270568765783446
 40
5.759274703374454
 40
6.246744268857324
 40
6.735870884291358
 40
7.222377311770304
 40
7.69000199830154
 40
8.153851389675867
 40
8.616568337458542
 40
9.074054180042864
 40
9.535893699122796
 40
9.990685472412364
 40
10.44111490690806
 40
10.88260187309817
 40
11.2856869388654
 40
11.6793563427835
 40
12.06564554858083
 40
12.44054436035871
 40
12.81237059304877
 40
13.17014836162564
 40
13.51600774526388
 40
13.84532022952904
 40
14.14943738264091
 40
14.43554070005083
 40
14.70526361987007
 40
14.95417927808399
 40
14.95417927808399
 40
14.95417927808399
 40
14.95417927808399
 10
200.1020456423684
 20
81.88657599369021
 10
200.3564466295094
 20
81.79775438783153
 10
200.8703533766755
 20
81.60649449687042
 10
201.6365694007677
 20
81.28398722699682
 10
202.4075413791956
 20
80.92128243200656
 10
203.1960741701516
 20
80.50931429841204
 10
203.9976226800138
 20
80.04549642641054
 10
204.6705294126347
 20
79.61505920304022
 10
205.2017532297412
 20
79.24971940561555
 10
205.5979548226423
 20
78.96400347023156
 10
205.9870944450479
 20
78.66996093236548
 10
206.3644741830163
 20
78.37152149498395
 10
206.7287881223289
 20
78.07033045665368
 10
207.0807184691934
 20
77.76676684678173
 10
207.423679401107
 20
77.4581354971394
 10
207.7597086480645
 20
77.1429514891026
 10
208.0872098911838
 20
76.82268024257918
 10
208.4063284216001
 20
76.49734451250157
 10
208.714026841498
 20
76.17044398161306
 10
209.0033834588153
 20
75.85007642502166
 10
209.2740111168388
 20
75.53840204221417
 10
209.5268885153176
 20
75.23577734820939
 10
209.7681689146149
 20
74.93579491745768
 10
209.9993335143822
 20
74.63710537383788
 10
210.2190683151044
 20
74.34167191812725
 10
210.4274570974228
 20
74.04994678806779
 10
210.6220670904053
 20
73.76587520447589
 10
210.8010957054405
 20
73.49289209782305
 10
210.9639344696359
 20
73.23318819997244
 10
211.1110079341564
 20
72.9871216892881
 10
211.2434798327775
 20
72.75383566498231
 10
211.3248244417623
 20
72.60126487701487
 10
211.3630014529153
 20
72.52759772220582
 72
     4
 94
        3
 73
     0
 74
     0
 95
       13
 96
        9
 40
3.001344698412578
 40
3.001344698412578
 40
3.001344698412578
 40
3.001344698412578
 40
3.560113329748731
 40
4.183693023625521
 40
5.057589400325893
 40
5.956706750495077
 40
6.843108628109401
 40
7.76513533923878
 40
7.76513533923878
 40
7.76513533923878
 40
7.76513533923878
 10
194.1020962988934
 20
83.60893942997675
 10
194.2823613082841
 20
83.56207811436481
 10
194.6635479622643
 20
83.46195050753001
 10
195.3256770451094
 20
83.28480143472836
 10
196.0962862235199
 20
83.07419934292159
 10
196.9501733099705
 20
82.83604851765179
 10
197.818332821329
 20
82.58939536960339
 10
198.3975302403896
 20
82.42232615903693
 10
198.692644702427
 20
82.3364966479871
 72
     4
 94
        3
 73
     0
 74
     0
 95
        9
 96
        5
 40
0.0
 40
0.0
 40
0.0
 40
0.0
 40
0.7348450070664637
 40
1.479601022990589
 40
1.479601022990589
 40
1.479601022990589
 40
1.479601022990589
 10
198.692644702427
 20
82.3364966479871
 10
198.9278718437984
 20
82.26817476921485
 10
199.399721032748
 20
82.12441437083576
 10
199.8676213890914
 20
81.96827255184901
 10
200.1020456423684
 20
81.88657599369021
 72
     1
 10
194.1020455383645
 20
85.21259516556519
 11
199.9020315383645
 21
86.05897316556522
 72
     1
 10
194.1020455383645
 20
84.6385291655652
 11
194.1020455383645
 21
83.90427616556522
 72
     1
 10
194.1020455383645
 20
83.60874416556518
 11
194.1020455383645
 21
83.90427616556522
 72
     1
 10
194.1020455383645
 20
85.01954116556522
 11
194.1020455383645
 21
84.65705316556517
 72
     1
 10
194.1020455383645
 20
84.65705316556517
 11
194.1020455383645
 21
84.63852916556522
 72
     1
 10
194.1020455383645
 20
85.21259516556519
 11
194.1020455383645
 21
85.05753516556522
 72
     1
 10
194.1020455383645
 20
85.01954116556522
 11
194.1020455383645
 21
85.05753516556522
 97
       17
330
5555B
330
55555
330
55532
330
5550B
330
5552A
330
55533
330
55531
330
55509
330
55508
330
55506
330
5555C
330
5552B
330
55529
330
5552D
330
5552C
330
55528
330
55527
 75
     0
 76
     1
 52
180.0
 41
0.5
 77
     0
 78
     2
 53
225.0
 43
258.9685853973928
 44
72.79569972247831
 45
1.122532015133642
 46
-1.122532015133643
 79
     0
 53
315.0
 43
258.9685853973928
 44
72.79569972247831
 45
1.122532015133643
 46
1.122532015133642
 79
     0
 98
        1
 10
258.9685853973928
 20
72.79569972247831
  0
SPLINE
  5
55506
102
{ACAD_REACTORS
330
55505
102
}
330
55501
100
AcDbEntity
  8
1
100
AcDbSpline
210
0.0
220
0.0
230
1.0
 70
     8
 71
     3
 72
     9
 73
     5
 74
     3
 42
0.0000000001
 43
0.0000000001
 44
0.000001
 12
0.9603132869219136
 22
-0.2789236292629771
 32
0.0
 13
0.9442995354099645
 23
-0.3290872033740075
 33
0.0
 40
0.0
 40
0.0
 40
0.0
 40
0.0
 40
0.7348450070664637
 40
1.479601022990589
 40
1.479601022990589
 40
1.479601022990589
 40
1.479601022990589
 10
198.692644702427
 20
82.3364966479871
 30
0.0
 10
198.9278718437984
 20
82.26817476921485
 30
0.0
 10
199.399721032748
 20
82.12441437083576
 30
0.0
 10
199.8676213890914
 20
81.96827255184901
 30
0.0
 10
200.1020456423684
 20
81.88657599369021
 30
0.0
 11
198.692644702427
 21
82.3364966479871
 31
0.0
 11
199.3955865969582
 21
82.12232428470583
 31
0.0
 11
200.1020456423684
 21
81.88657599369021
 31
0.0
  0
SPLINE
  5
55507
330
55501
100
AcDbEntity
  8
1
100
AcDbSpline
210
0.0
220
0.0
230
1.0
 70
     8
 71
     3
 72
    13
 73
     9
 74
     0
 42
0.0000000001
 43
0.0000000001
 40
0.0
 40
0.0
 40
0.0
 40
0.0
 40
0.5333439082108037
 40
1.107779624537654
 40
1.72335479701967
 40
2.308162769073045
 40
2.916598674837098
 40
3.001344698412578
 40
3.001344698412578
 40
3.001344698412578
 40
3.001344698412578
 10
191.1843362917825
 20
84.31141119876832
 30
0.0
 10
191.3581343610444
 20
84.27398897644435
 30
0.0
 10
191.7187458828818
 20
84.19450131660102
 30
0.0
 10
192.2783180092024
 20
84.06455969605621
 30
0.0
 10
192.8534042154204
 20
83.92570169191577
 30
0.0
 10
193.4384252918626
 20
83.77978384745622
 30
0.0
 10
193.8511056218086
 20
83.67409440188916
 30
0.0
 10
194.074756283941
 20
83.6160466832027
 30
0.0
 10
194.1020962988934
 20
83.60893942997675
 30
0.0
  0
SPLINE
  5
55508
102
{ACAD_REACTORS
330
55505
102
}
330
55501
100
AcDbEntity
  8
1
100
AcDbSpline
210
0.0
220
0.0
230
1.0
 70
     8
 71
     3
 72
    13
 73
     9
 74
     0
 42
0.0000000001
 43
0.0000000001
 40
3.001344698412578
 40
3.001344698412578
 40
3.001344698412578
 40
3.001344698412578
 40
3.560113329748731
 40
4.183693023625521
 40
5.057589400325893
 40
5.956706750495077
 40
6.843108628109401
 40
7.76513533923878
 40
7.76513533923878
 40
7.76513533923878
 40
7.76513533923878
 10
194.1020962988934
 20
83.60893942997675
 30
0.0
 10
194.2823613082841
 20
83.56207811436481
 30
0.0
 10
194.6635479622643
 20
83.46195050753001
 30
0.0
 10
195.3256770451094
 20
83.28480143472836
 30
0.0
 10
196.0962862235199
 20
83.07419934292159
 30
0.0
 10
196.9501733099705
 20
82.83604851765179
 30
0.0
 10
197.818332821329
 20
82.58939536960339
 30
0.0
 10
198.3975302403896
 20
82.42232615903693
 30
0.0
 10
198.692644702427
 20
82.3364966479871
 30
0.0
  0
SPLINE
  5
55509
102
{ACAD_REACTORS
330
55505
102
}
330
55501
100
AcDbEntity
  8
1
100
AcDbSpline
210
0.0
220
0.0
230
1.0
 70
     8
 71
     3
 72
    37
 73
    33
 74
    31
 42
0.0000000001
 43
0.0000000001
 44
0.000001
 12
0.94411119178906
 22
-0.3296271492742075
 32
0.0
 13
0.460119842522393
 23
-0.8878568187028628
 33
0.0
 40
0.0
 40
0.0
 40
0.0
 40
0.0
 40
0.8083824956855282
 40
1.644479507180572
 40
2.493266844777634
 40
3.363734089811382
 40
4.312698579938696
 40
5.270568765783446
 40
5.759274703374454
 40
6.246744268857324
 40
6.735870884291358
 40
7.222377311770305
 40
7.690001998301541
 40
8.153851389675869
 40
8.616568337458543
 40
9.074054180042866
 40
9.535893699122798
 40
9.990685472412366
 40
10.44111490690807
 40
10.88260187309818
 40
11.28568693886541
 40
11.67935634278351
 40
12.06564554858084
 40
12.44054436035871
 40
12.81237059304877
 40
13.17014836162565
 40
13.51600774526388
 40
13.84532022952904
 40
14.14943738264092
 40
14.43554070005084
 40
14.70526361987007
 40
14.95417927808399
 40
14.95417927808399
 40
14.95417927808399
 40
14.95417927808399
 10
200.1020456423684
 20
81.88657599369021
 30
0.0
 10
200.3564466295094
 20
81.79775438783153
 30
0.0
 10
200.8703533766755
 20
81.60649449687042
 30
0.0
 10
201.6365694007677
 20
81.28398722699682
 30
0.0
 10
202.4075413791956
 20
80.92128243200656
 30
0.0
 10
203.1960741701516
 20
80.50931429841204
 30
0.0
 10
203.9976226800138
 20
80.04549642641054
 30
0.0
 10
204.6705294126347
 20
79.61505920304022
 30
0.0
 10
205.2017532297412
 20
79.24971940561555
 30
0.0
 10
205.5979548226423
 20
78.96400347023156
 30
0.0
 10
205.9870944450479
 20
78.66996093236548
 30
0.0
 10
206.3644741830163
 20
78.37152149498395
 30
0.0
 10
206.7287881223289
 20
78.07033045665368
 30
0.0
 10
207.0807184691934
 20
77.76676684678175
 30
0.0
 10
207.423679401107
 20
77.4581354971394
 30
0.0
 10
207.7597086480645
 20
77.1429514891026
 30
0.0
 10
208.0872098911838
 20
76.82268024257918
 30
0.0
 10
208.4063284216001
 20
76.49734451250157
 30
0.0
 10
208.714026841498
 20
76.17044398161306
 30
0.0
 10
209.0033834588153
 20
75.85007642502166
 30
0.0
 10
209.2740111168388
 20
75.53840204221417
 30
0.0
 10
209.5268885153176
 20
75.23577734820939
 30
0.0
 10
209.7681689146149
 20
74.93579491745768
 30
0.0
 10
209.9993335143822
 20
74.63710537383788
 30
0.0
 10
210.2190683151044
 20
74.34167191812725
 30
0.0
 10
210.4274570974228
 20
74.04994678806779
 30
0.0
 10
210.6220670904053
 20
73.76587520447589
 30
0.0
 10
210.8010957054405
 20
73.49289209782305
 30
0.0
 10
210.9639344696359
 20
73.23318819997244
 30
0.0
 10
211.1110079341564
 20
72.9871216892881
 30
0.0
 10
211.2434798327775
 20
72.75383566498231
 30
0.0
 10
211.3248244417623
 20
72.60126487701487
 30
0.0
 10
211.3630014529153
 20
72.52759772220582
 30
0.0
 11
200.1020456423684
 21
81.88657599369021
 31
0.0
 11
200.8596292605325
 21
81.60453253665895
 31
0.0
 11
201.6303430666848
 21
81.28040533939332
 31
0.0
 11
202.3984094729348
 21
80.91913824954962
 31
0.0
 11
203.1699930300637
 21
80.51618414798713
 31
0.0
 11
203.9914117922708
 21
80.0409949390027
 31
0.0
 11
204.7983652224465
 21
79.52491217533077
 31
0.0
 11
205.2010446658059
 21
79.24799567142457
 31
0.0
 11
205.5964304079934
 21
78.9628699390027
 31
0.0
 11
205.9866891970559
 21
78.66800909915895
 31
0.0
 11
206.3682809939309
 21
78.36622076908077
 31
0.0
 11
206.7287012209817
 21
78.06827765384645
 31
0.0
 11
207.0799280276223
 21
77.76529913822151
 31
0.0
 11
207.4238916506692
 21
77.4557898608777
 31
0.0
 11
207.7575555910989
 21
77.1428015796277
 31
0.0
 11
208.0877481570169
 21
76.81989508548707
 31
0.0
 11
208.4062143435403
 21
76.4952185718152
 31
0.0
 11
208.7149225344583
 21
76.1672156421277
 31
0.0
 11
209.0108362307473
 21
75.8395789233777
 31
0.0
 11
209.2750879397317
 21
75.53519659915895
 31
0.0
 11
209.5275064577981
 21
75.23310309329962
 31
0.0
 11
209.7695871462747
 21
74.93207770267457
 31
0.0
 11
209.9990030398294
 21
74.63556891361207
 31
0.0
 11
210.2208810915871
 21
74.33719855228395
 31
0.0
 11
210.4287897219582
 21
74.04603033939332
 31
0.0
 11
210.6241937746926
 21
73.76066046634645
 31
0.0
 11
210.804720508091
 21
73.48523932376832
 31
0.0
 11
210.9661737551614
 21
73.2275183765027
 31
0.0
 11
211.1128641238137
 21
72.98188239017457
 31
0.0
 11
211.2458139529153
 21
72.74720221439332
 31
0.0
 11
211.3630014529153
 21
72.52759772220582
 31
0.0
  0
SPLINE
  5
5550A
330
55501
100
AcDbEntity
  8
1
100
AcDbSpline
210
0.0
220
0.0
230
1.0
 70
     8
 71
     3
 72
    64
 73
    60
 74
    58
 42
0.0000000001
 43
0.0000000001
 44
0.000001
 12
0.9999999976027297
 22
0.0000692426238353
 32
0.0
 13
-0.9999999719526073
 23
0.0002368433759521
 33
0.0
 40
0.0
 40
0.0
 40
0.0
 40
0.0
 40
0.3374190964438255
 40
0.6773914010440184
 40
1.019911651532927
 40
1.352142635755066
 40
1.693066038515862
 40
2.042667927938259
 40
2.310164618892682
 40
2.591203251274175
 40
2.885763865020339
 40
3.174760143389352
 40
3.284467825271922
 40
3.398621910127495
 40
3.517229077803986
 40
3.62213585197088
 40
3.721280166375314
 40
3.831251186483029
 40
3.952046973523818
 40
4.083636686280843
 40
4.275330389386178
 40
4.424017139584472
 40
4.529678794419064
 40
4.593807665578373
 40
4.73442036589049
 40
4.985745701574229
 40
5.236696413602985
 40
5.475218035428554
 40
5.702583326615222
 40
5.918743282244564
 40
6.12370258047298
 40
6.647465346935276
 40
7.144947289306798
 40
7.657727828884176
 40
8.163132935634687
 40
8.500766745983266
 40
8.841850067950199
 40
9.18644502803129
 40
9.514333228165273
 40
9.853441834433304
 40
10.20385901110016
 40
10.47236430950709
 40
10.7598818984291
 40
11.06640438449336
 40
11.35795789144735
 40
11.6539328390473
 40
11.86469131291771
 40
12.24627859719351
 40
12.56578312315859
 40
12.83643926831478
 40
13.13054947344813
 40
13.4233612762914
 40
13.72624593097748
 40
14.01483804142043
 40
14.28916038932707
 40
14.80751342159211
 40
15.30649973848988
 40
15.82270679006102
 40
16.33305485315846
 40
16.33305485315846
 40
16.33305485315846
 40
16.33305485315846
 10
200.1020456423684
 20
68.15897589603395
 30
0.0
 10
200.2145186742467
 20
68.1589836839618
 30
0.0
 10
200.4403832248771
 20
68.1663223296287
 30
0.0
 10
200.7789680522507
 20
68.19944402527984
 30
0.0
 10
201.1129582779931
 20
68.25446087213086
 30
0.0
 10
201.442966971412
 20
68.3310779656076
 30
0.0
 10
201.769605097598
 20
68.42955902573049
 30
0.0
 10
202.0687864269577
 20
68.54194227260553
 30
0.0
 10
202.3424315926094
 20
68.66368005661458
 30
0.0
 10
202.5929361035191
 20
68.79137130677929
 30
0.0
 10
202.8422086661145
 20
68.936313948476
 30
0.0
 10
203.0352527816122
 20
69.06358007506487
 30
0.0
 10
203.174286369035
 20
69.16306621175028
 30
0.0
 10
203.2656765514656
 20
69.23148986813595
 30
0.0
 10
203.3542301661356
 20
69.30098312246146
 30
0.0
 10
203.4374240827978
 20
69.3691584886211
 30
0.0
 10
203.517076555039
 20
69.43708079172226
 30
0.0
 10
203.5993077453768
 20
69.51011063428179
 30
0.0
 10
203.6877996390833
 20
69.59233592361013
 30
0.0
 10
203.7938131259251
 20
69.69566626091578
 30
0.0
 10
203.9030024836636
 20
69.80898345852626
 30
0.0
 10
204.0026234044997
 20
69.91937955787669
 30
0.0
 10
204.0718195037467
 20
69.99989818064662
 30
0.0
 10
204.137960817049
 20
70.07946804619319
 30
0.0
 10
204.2328051298746
 20
70.19829847773192
 30
0.0
 10
204.3601578256061
 20
70.3707575881733
 30
0.0
 10
204.4971470008862
 20
70.57632145657111
 30
0.0
 10
204.6201791093629
 20
70.78125727646195
 30
0.0
 10
204.7283812836504
 20
70.98128773651611
 30
0.0
 10
204.823058191683
 20
71.17568651041651
 30
0.0
 10
204.9494417734949
 20
71.46424064574475
 30
0.0
 10
205.0870203381597
 20
71.84995144911804
 30
0.0
 10
205.2109384165458
 20
72.34682010135767
 30
0.0
 10
205.2851815129434
 20
72.84739002874061
 30
0.0
 10
205.3074753936936
 20
73.29953052385902
 30
0.0
 10
205.2949290483421
 20
73.69429182489887
 30
0.0
 10
205.2618427512771
 20
74.0340386735274
 30
0.0
 10
205.2069696646364
 20
74.36765959829961
 30
0.0
 10
205.1308224928793
 20
74.69637442509281
 30
0.0
 10
205.0331599073942
 20
75.02139436693517
 30
0.0
 10
204.9211501130825
 20
75.32072043296729
 30
0.0
 10
204.7985266157617
 20
75.59700325487587
 30
0.0
 10
204.6679654061712
 20
75.85333048317622
 30
0.0
 10
204.5190863954764
 20
76.10843806483058
 30
0.0
 10
204.3542549682474
 20
76.35690263535399
 30
0.0
 10
204.1947636275386
 20
76.57009797688579
 30
0.0
 10
204.0060215182228
 20
76.79833689145917
 30
0.0
 10
203.7990637135709
 20
77.02135976033837
 30
0.0
 10
203.563133028404
 20
77.24358845361145
 30
0.0
 10
203.3373145139442
 20
77.43323059625733
 30
0.0
 10
203.1086604577078
 20
77.60504978329798
 30
0.0
 10
202.8617048442058
 20
77.76960320451674
 30
0.0
 10
202.6073463210417
 20
77.91888596383035
 30
0.0
 10
202.3503828617057
 20
78.05060080763438
 30
0.0
 10
202.0211023480337
 20
78.19749649978246
 30
0.0
 10
201.6149446515621
 20
78.34270629589255
 30
0.0
 10
201.1183464820533
 20
78.46711821700186
 30
0.0
 10
200.6145822905935
 20
78.54220328895557
 30
0.0
 10
200.2721616586296
 20
78.5589295016656
 30
0.0
 10
200.1020456423684
 20
78.55896979251832
 30
0.0
 11
200.1020456423684
 21
68.15897589603395
 31
0.0
 11
200.4392877688332
 21
68.16993170658077
 31
0.0
 11
200.7776437868997
 21
68.20304327884645
 31
0.0
 11
201.115610705845
 21
68.25870734134645
 31
0.0
 11
201.4392343630715
 21
68.3338416186902
 31
0.0
 11
201.765642749302
 21
68.43226080814332
 31
0.0
 11
202.092920886509
 21
68.55518561283076
 31
0.0
 11
202.3373209109231
 21
68.6639197436902
 31
0.0
 11
202.5877100100442
 21
68.79154425540895
 31
0.0
 11
202.8423486819192
 21
68.93961554447151
 31
0.0
 11
203.0836359133645
 21
69.09867316165895
 31
0.0
 11
203.1728540530129
 21
69.16251593509645
 31
0.0
 11
203.2642313113137
 21
69.2309363452527
 31
0.0
 11
203.3575464358254
 21
69.30414801517457
 31
0.0
 11
203.4386850466653
 21
69.37064581790895
 31
0.0
 11
203.5141244997903
 21
69.43497687259645
 31
0.0
 11
203.5963464846536
 21
69.50800543704963
 31
0.0
 11
203.6848474612161
 21
69.59021979251833
 31
0.0
 11
203.779070483677
 21
69.68207770267458
 31
0.0
 11
203.9120889773293
 21
69.82010870853395
 31
0.0
 11
204.0117059817239
 21
69.93049078861208
 31
0.0
 11
204.0805688967629
 21
70.01062994876832
 31
0.0
 11
204.1215616335793
 21
70.05994635501832
 31
0.0
 11
204.2092844118997
 21
70.16984015384645
 31
0.0
 11
204.3585764040872
 21
70.37201910892457
 31
0.0
 11
204.4977365603372
 21
70.58085089603395
 31
0.0
 11
204.620508777134
 21
70.78534918704963
 31
0.0
 11
204.7286859621926
 21
70.9853308765027
 31
0.0
 11
204.8233362307473
 21
71.1796668140027
 31
0.0
 11
204.9055582156106
 21
71.3674109546277
 31
0.0
 11
205.0815302004739
 21
71.86072760501833
 31
0.0
 11
205.2019144167825
 21
72.34342413822151
 31
0.0
 11
205.2771402468606
 21
72.85065680423713
 31
0.0
 11
205.3020425906106
 21
73.3554480640027
 31
0.0
 11
205.2913156618997
 21
73.69291144290895
 31
0.0
 11
205.2582574953957
 21
74.03238898197151
 31
0.0
 11
205.2023340334817
 21
74.3724158374402
 31
0.0
 11
205.1283289065286
 21
74.69184332767458
 31
0.0
 11
205.0307565798684
 21
75.01661139408077
 31
0.0
 11
204.9079309573098
 21
75.34479742923713
 31
0.0
 11
204.7990137209817
 21
75.59021979251832
 31
0.0
 11
204.6685129275247
 21
75.8464148608777
 31
0.0
 11
204.5140176882668
 21
76.11115485111207
 31
0.0
 11
204.3528390993996
 21
76.3541052905652
 31
0.0
 11
204.1755472292825
 21
76.59110480228395
 31
0.0
 11
204.0412317385598
 21
76.7535193530652
 31
0.0
 11
203.7816873660012
 21
77.03324347415895
 31
0.0
 11
203.5490976443215
 21
77.2522986499402
 31
0.0
 11
203.3418451418801
 21
77.4263709155652
 31
0.0
 11
203.106707202427
 21
77.60303717533076
 31
0.0
 11
202.8630472292825
 21
77.76542120853395
 31
0.0
 11
202.6018167605325
 21
77.91871100345582
 31
0.0
 11
202.3450037112161
 21
78.05036383548713
 31
0.0
 11
202.0944772829934
 21
78.16211920658076
 31
0.0
 11
201.6063791384622
 21
78.33661871829963
 31
0.0
 11
201.1223550906106
 21
78.45789557376832
 31
0.0
 11
200.6117807497903
 21
78.53394537845582
 31
0.0
 11
200.1020456423684
 21
78.55896979251832
 31
0.0
  0
SPLINE
  5
5550B
102
{ACAD_REACTORS
330
55505
102
}
330
55501
100
AcDbEntity
  8
1
100
AcDbSpline
210
0.0
220
0.0
230
1.0
 70
     8
 71
     3
 72
    29
 73
    25
 74
    23
 42
0.0000000001
 43
0.0000000001
 44
0.000001
 12
0.9999998154086332
 22
0.0006076040649003
 32
0.0
 13
0.0859107384651211
 23
0.9963028380047793
 33
0.0
 40
0.0
 40
0.0
 40
0.0
 40
0.0
 40
0.7671199296705473
 40
1.536854420458386
 40
2.307476727081967
 40
3.077218851210711
 40
3.844339390602732
 40
4.611477114660679
 40
5.381269819466311
 40
6.151928265688328
 40
6.921700066992492
 40
7.688847781073526
 40
8.455184083117389
 40
9.224178949632596
 40
9.994047668190466
 40
10.76300917792539
 40
11.52930551949752
 40
12.29171226530856
 40
13.05694882201791
 40
13.82298815352544
 40
14.58794647814971
 40
15.35012738478957
 40
15.96307409720739
 40
16.57600420325564
 40
16.57600420325564
 40
16.57600420325564
 40
16.57600420325564
 10
200.1020456423684
 20
62.43351202884644
 30
0.0
 10
200.3577522383907
 20
62.43366739724229
 30
0.0
 10
200.8702022656592
 20
62.45115256964628
 30
0.0
 10
201.635902794985
 20
62.52962671161192
 30
0.0
 10
202.3955926051345
 20
62.65887351089688
 30
0.0
 10
203.1441126227327
 20
62.83834466346206
 30
0.0
 10
203.8777632609043
 20
63.06747897737674
 30
0.0
 10
204.5938677056658
 20
63.34671205762077
 30
0.0
 10
205.2905190774467
 20
63.67416116385619
 30
0.0
 10
205.9645800102004
 20
64.04770461808972
 30
0.0
 10
206.6114725884989
 20
64.46492511477789
 30
0.0
 10
207.2275690290485
 20
64.92405076132666
 30
0.0
 10
207.8102215182425
 20
65.424538448727
 30
0.0
 10
208.3583465968213
 20
65.96387444552374
 30
0.0
 10
208.8697210243548
 20
66.53934591929166
 30
0.0
 10
209.3407655682952
 20
67.14713914472564
 30
0.0
 10
209.7680050247635
 20
67.7835266738958
 30
0.0
 10
210.1492867746823
 20
68.44703029231618
 30
0.0
 10
210.4843786662325
 20
69.13490532252632
 30
0.0
 10
210.7718868668964
 20
69.84492335080441
 30
0.0
 10
211.0090659213204
 20
70.57224588831331
 30
0.0
 10
211.181294430359
 20
71.26518207731979
 30
0.0
 10
211.2980766153327
 20
71.91786980215161
 30
0.0
 10
211.3454490269026
 20
72.32404305415434
 30
0.0
 10
211.3630014529153
 20
72.52759772220582
 30
0.0
 11
200.1020456423684
 21
62.43351202884644
 31
0.0
 11
200.8687158694192
 21
62.45978766361208
 31
0.0
 11
201.6344629397317
 21
62.53803473392458
 31
0.0
 11
202.3941599001809
 21
62.6673377124402
 31
0.0
 11
203.1426645388528
 21
62.84690314212769
 31
0.0
 11
203.8748346438333
 21
63.07581549564332
 31
0.0
 11
204.589632617466
 21
63.35431891361207
 31
0.0
 11
205.2863641848489
 21
63.68165045658077
 31
0.0
 11
205.9604288210794
 21
64.05521613040895
 31
0.0
 11
206.6072565188333
 21
64.47254401126833
 31
0.0
 11
207.2222467532082
 21
64.9311316577527
 31
0.0
 11
207.8037057986184
 21
65.43030768314332
 31
0.0
 11
208.3519159426614
 21
65.9695838061902
 31
0.0
 11
208.8632837405129
 21
66.54508429447151
 31
0.0
 11
209.3342233767434
 21
67.15296393314332
 31
0.0
 11
209.7611490359231
 21
67.78931647220582
 31
0.0
 11
210.1411615481301
 21
68.45026617923713
 31
0.0
 11
210.4762750735207
 21
69.13822394290895
 31
0.0
 11
210.7636743655129
 21
69.84830695072151
 31
0.0
 11
211.0005594363137
 21
70.5756629077527
 31
0.0
 11
211.1841226687356
 21
71.3154090015027
 31
0.0
 11
211.2919183840676
 21
71.9188025561902
 31
0.0
 11
211.3630014529153
 21
72.52759772220582
 31
0.0
  0
ARC
  5
5550C
330
55501
100
AcDbEntity
  8
1
100
AcDbCircle
 10
133.6364535383645
 20
89.89223316556522
 30
0.0
 40
3.0
100
AcDbArc
 50
224.9999950000006
 51
268.4999999999989
  0
ARC
  5
5550D
330
55501
100
AcDbEntity
  8
1
100
AcDbCircle
 10
133.6364535383645
 20
56.8257431655652
 30
0.0
 40
3.0
100
AcDbArc
 50
91.49999999999947
 51
135.0000049999994
  0
ARC
  5
5550E
330
55501
100
AcDbEntity
  8
1
100
AcDbCircle
 10
199.9520445383645
 20
73.35898816556516
 30
0.0
 40
5.000002999999998
100
AcDbArc
 50
269.9999959999993
 51
359.9999499999999
  0
ARC
  5
5550F
330
55501
100
AcDbEntity
  8
1
100
AcDbCircle
 10
199.9520445383645
 20
73.35898816556516
 30
0.0
 40
5.000002999999998
100
AcDbArc
 50
180.0000529999995
 51
270.0000089999996
  0
ARC
  5
55510
330
55501
100
AcDbEntity
  8
1
100
AcDbCircle
 10
199.9520445383645
 20
73.35895716556518
 30
0.0
 40
5.000002999999998
100
AcDbArc
 50
89.99992199999963
 51
179.9999470000005
  0
ARC
  5
55511
330
55501
100
AcDbEntity
  8
1
100
AcDbCircle
 10
199.9520445383645
 20
73.35895716556518
 30
0.0
 40
5.000002999999998
100
AcDbArc
 50
0.0000500000001468
 51
89.99993599999974
  0
ARC
  5
55512
330
55501
100
AcDbEntity
  8
1
100
AcDbCircle
 10
200.1020455383645
 20
73.35898816556516
 30
0.0
 40
4.750003999999997
100
AcDbArc
 50
270.0000430000001
 51
0.0000729999998561
  0
ARC
  5
55513
330
55501
100
AcDbEntity
  8
1
100
AcDbCircle
 10
200.1020455383645
 20
73.35898816556516
 30
0.0
 40
4.750003999999997
100
AcDbArc
 50
0.0000630000004781
 51
89.9999569999999
  0
ARC
  5
55514
330
55501
100
AcDbEntity
  8
1
100
AcDbCircle
 10
200.1020455383645
 20
73.35898816556516
 30
0.0
 40
4.750003999999997
100
AcDbArc
 50
89.99999699999904
 51
179.9999299999995
  0
ARC
  5
55515
330
55501
100
AcDbEntity
  8
1
100
AcDbCircle
 10
200.1020455383645
 20
73.35898816556516
 30
0.0
 40
4.750003999999997
100
AcDbArc
 50
180.0000210000001
 51
270.0000430000001
  0
ARC
  5
55516
330
55501
100
AcDbEntity
  8
1
100
AcDbCircle
 10
198.2634375383645
 20
73.35898816556516
 30
0.0
 40
0.440895
100
AcDbArc
 50
103.4785079999993
 51
256.5214850000005
  0
ARC
  5
55517
330
55501
100
AcDbEntity
  8
1
100
AcDbCircle
 10
197.9681575383645
 20
74.5909831655652
 30
0.0
 40
0.8260009999999999
100
AcDbArc
 50
283.4780969999993
 51
16.5219179999999
  0
ARC
  5
55518
330
55501
100
AcDbEntity
  8
1
100
AcDbCircle
 10
199.1827415383645
 20
74.95124316556519
 30
0.0
 40
0.440895
100
AcDbArc
 50
43.47854800000032
 51
196.5214589999998
  0
ARC
  5
55519
330
55501
100
AcDbEntity
  8
1
100
AcDbCircle
 10
201.9406535383645
 20
73.35898816556516
 30
0.0
 40
0.440895
100
AcDbArc
 50
283.4785130000001
 51
76.52149699999975
  0
ARC
  5
5551A
330
55501
100
AcDbEntity
  8
1
100
AcDbCircle
 10
199.1827415383645
 20
71.76670316556516
 30
0.0
 40
0.440895
100
AcDbArc
 50
163.478536000001
 51
316.5214519999997
  0
ARC
  5
5551B
330
55501
100
AcDbEntity
  8
1
100
AcDbCircle
 10
202.2359335383645
 20
72.1269631655652
 30
0.0
 40
0.8260009999999999
100
AcDbArc
 50
103.4780990000003
 51
196.5219169999999
  0
ARC
  5
5551C
330
55501
100
AcDbEntity
  8
1
100
AcDbCircle
 10
200.1020455383645
 20
75.82297716556519
 30
0.0
 40
0.8260009999999999
100
AcDbArc
 50
223.4780780000002
 51
316.5219300000007
  0
ARC
  5
5551D
330
55501
100
AcDbEntity
  8
1
100
AcDbCircle
 10
201.0213495383645
 20
74.95124316556519
 30
0.0
 40
0.440895
100
AcDbArc
 50
343.4785420000009
 51
136.521457
  0
ARC
  5
5551E
330
55501
100
AcDbEntity
  8
1
100
AcDbCircle
 10
200.1020455383645
 20
70.89496816556522
 30
0.0
 40
0.8260009999999999
100
AcDbArc
 50
43.47808299999991
 51
136.5219250000003
  0
ARC
  5
5551F
330
55501
100
AcDbEntity
  8
1
100
AcDbCircle
 10
201.0213495383645
 20
71.76670316556516
 30
0.0
 40
0.440895
100
AcDbArc
 50
223.4785489999997
 51
16.52145400000025
  0
ARC
  5
55520
330
55501
100
AcDbEntity
  8
1
100
AcDbCircle
 10
202.2359335383645
 20
74.5909831655652
 30
0.0
 40
0.8260009999999999
100
AcDbArc
 50
163.4780850000005
 51
256.5219009999997
  0
ARC
  5
55521
330
55501
100
AcDbEntity
  8
1
100
AcDbCircle
 10
200.1020455383645
 20
73.35898816556516
 30
0.0
 40
3.000002999999998
100
AcDbArc
 50
270.0000500000002
 51
89.99997299999956
  0
ARC
  5
55522
330
55501
100
AcDbEntity
  8
1
100
AcDbCircle
 10
200.1020455383645
 20
73.35898816556516
 30
0.0
 40
3.000002999999998
100
AcDbArc
 50
90.00004499999965
 51
269.9999619999988
  0
ARC
  5
55523
330
55501
100
AcDbEntity
  8
1
100
AcDbCircle
 10
197.9681575383645
 20
72.1269631655652
 30
0.0
 40
0.8260009999999999
100
AcDbArc
 50
343.4780920000008
 51
76.52190600000025
  0
LINE
  5
55524
330
55501
100
AcDbEntity
  8
1
100
AcDbLine
 10
182.6020455383645
 20
85.60899516556519
 30
0.0
 11
133.5579225383645
 21
86.89326116556518
 31
0.0
  0
LINE
  5
55525
330
55501
100
AcDbEntity
  8
1
100
AcDbLine
 10
130.0520315383645
 20
89.23398816556519
 30
0.0
 11
131.5151335383645
 21
87.7709131655652
 31
0.0
  0
LINE
  5
55526
330
55501
100
AcDbEntity
  8
1
100
AcDbLine
 10
182.6020455383646
 20
61.10897316556499
 30
0.0
 11
133.5579225383645
 21
59.82471516556518
 31
0.0
  0
LINE
  5
55527
102
{ACAD_REACTORS
330
55505
102
}
330
55501
100
AcDbEntity
  8
1
100
AcDbLine
 10
194.1020455383645
 20
85.01954116556522
 30
0.0
 11
194.1020455383645
 21
85.05753516556522
 31
0.0
  0
LINE
  5
55528
102
{ACAD_REACTORS
330
55505
102
}
330
55501
100
AcDbEntity
  8
1
100
AcDbLine
 10
194.1020455383645
 20
85.21259516556519
 30
0.0
 11
194.1020455383645
 21
85.05753516556522
 31
0.0
  0
LINE
  5
55529
102
{ACAD_REACTORS
330
55505
102
}
330
55501
100
AcDbEntity
  8
1
100
AcDbLine
 10
194.1020455383645
 20
83.60874416556518
 30
0.0
 11
194.1020455383645
 21
83.90427616556522
 31
0.0
  0
LINE
  5
5552A
102
{ACAD_REACTORS
330
55505
102
}
330
55501
100
AcDbEntity
  8
1
100
AcDbLine
 10
194.1020455383645
 20
61.52683516556521
 30
0.0
 11
194.1020455383645
 21
62.40653416556518
 31
0.0
  0
LINE
  5
5552B
102
{ACAD_REACTORS
330
55505
102
}
330
55501
100
AcDbEntity
  8
1
100
AcDbLine
 10
194.1020455383645
 20
84.6385291655652
 30
0.0
 11
194.1020455383645
 21
83.90427616556522
 31
0.0
  0
LINE
  5
5552C
102
{ACAD_REACTORS
330
55505
102
}
330
55501
100
AcDbEntity
  8
1
100
AcDbLine
 10
194.1020455383645
 20
84.65705316556517
 30
0.0
 11
194.1020455383645
 21
84.6385291655652
 31
0.0
  0
LINE
  5
5552D
102
{ACAD_REACTORS
330
55505
102
}
330
55501
100
AcDbEntity
  8
1
100
AcDbLine
 10
194.1020455383645
 20
85.01954116556522
 30
0.0
 11
194.1020455383645
 21
84.65705316556517
 31
0.0
  0
LINE
  5
5552E
330
55501
100
AcDbEntity
  8
1
100
AcDbLine
 10
204.9520515383645
 20
73.35898816556516
 30
0.0
 11
204.8520455383645
 21
73.35898816556516
 31
0.0
  0
LINE
  5
5552F
330
55501
100
AcDbEntity
  8
1
100
AcDbLine
 10
194.9520445383645
 20
73.35898816556516
 30
0.0
 11
195.3570505383645
 21
73.35898816556516
 31
0.0
  0
LINE
  5
55530
330
55501
100
AcDbEntity
  8
1
100
AcDbLine
 10
190.6907315383645
 20
84.31140716556518
 30
0.0
 11
190.0833655383645
 21
84.52838116556518
 31
0.0
  0
LINE
  5
55531
102
{ACAD_REACTORS
330
55505
102
}
330
55501
100
AcDbEntity
  8
1
100
AcDbLine
 10
194.1020455383645
 20
62.43351216556522
 30
0.0
 11
194.1020455383645
 21
62.40653416556518
 31
0.0
  0
LINE
  5
55532
102
{ACAD_REACTORS
330
55505
102
}
330
55501
100
AcDbEntity
  8
1
100
AcDbLine
 10
195.2248025383645
 20
62.43351216556522
 30
0.0
 11
200.1020455383645
 21
62.43351216556522
 31
0.0
  0
LINE
  5
55533
102
{ACAD_REACTORS
330
55505
102
}
330
55501
100
AcDbEntity
  8
1
100
AcDbLine
 10
194.1020455383645
 20
62.43351216556522
 30
0.0
 11
195.2248025383645
 21
62.43351216556522
 31
0.0
  0
LINE
  5
55534
330
55501
100
AcDbEntity
  8
1
100
AcDbLine
 10
189.2061025383645
 20
84.65683916556519
 30
0.0
 11
194.1020455383645
 21
84.65683916556519
 31
0.0
  0
LINE
  5
55535
330
55501
100
AcDbEntity
  8
1
100
AcDbLine
 10
187.6020375383645
 20
84.6888521655652
 30
0.0
 11
194.1020455383645
 21
84.6888521655652
 31
0.0
  0
LINE
  5
55536
330
55501
100
AcDbEntity
  8
1
100
AcDbLine
 10
187.6020375383645
 20
62.02912316556519
 30
0.0
 11
194.1020455383645
 21
62.02912316556519
 31
0.0
  0
LINE
  5
55537
330
55501
100
AcDbEntity
  8
1
100
AcDbLine
 10
189.1020455383645
 20
62.1895541655652
 30
0.0
 11
194.1020455383645
 21
62.1895541655652
 31
0.0
  0
LINE
  5
55538
330
55501
100
AcDbEntity
  8
1
100
AcDbLine
 10
189.1020455383645
 20
62.40653416556518
 30
0.0
 11
189.1020455383645
 21
62.1895541655652
 31
0.0
  0
LINE
  5
55539
330
55501
100
AcDbEntity
  8
1
100
AcDbLine
 10
189.1020455383645
 20
62.40653416556518
 30
0.0
 11
194.1020455383645
 21
62.40653416556518
 31
0.0
  0
LINE
  5
5553A
330
55501
100
AcDbEntity
  8
1
100
AcDbLine
 10
199.9520445383645
 20
68.15897616556521
 30
0.0
 11
200.1020455383645
 21
68.15897616556521
 31
0.0
  0
LINE
  5
5553B
330
55501
100
AcDbEntity
  8
1
100
AcDbLine
 10
199.9520445383645
 20
78.5589701655652
 30
0.0
 11
200.1020455383645
 21
78.5589701655652
 31
0.0
  0
LINE
  5
5553C
330
55501
100
AcDbEntity
  8
1
100
AcDbLine
 10
189.1020455383645
 20
84.31141116556517
 30
0.0
 11
191.1843435383645
 21
84.31141116556517
 31
0.0
  0
LINE
  5
5553D
330
55501
100
AcDbEntity
  8
1
100
AcDbLine
 10
189.1020455383645
 20
84.52839116556521
 30
0.0
 11
189.1020455383645
 21
84.31141116556517
 31
0.0
  0
LINE
  5
5553E
330
55501
100
AcDbEntity
  8
1
100
AcDbLine
 10
189.1020455383645
 20
84.52839116556521
 30
0.0
 11
190.0833685383645
 21
84.52839116556521
 31
0.0
  0
LINE
  5
5553F
330
55501
100
AcDbEntity
  8
1
100
AcDbLine
 10
182.6020455383646
 20
61.10897316556499
 30
0.0
 11
187.6020425383645
 21
62.02912716556522
 31
0.0
  0
LINE
  5
55540
330
55501
100
AcDbEntity
  8
1
100
AcDbLine
 10
187.6020455383645
 20
73.35898816556516
 30
0.0
 11
187.6020455383645
 21
62.02912316556519
 31
0.0
  0
LINE
  5
55541
330
55501
100
AcDbEntity
  8
1
100
AcDbLine
 10
187.6020455383645
 20
73.35898816556516
 30
0.0
 11
187.6020455383645
 21
84.6888521655652
 31
0.0
  0
LINE
  5
55542
330
55501
100
AcDbEntity
  8
1
100
AcDbLine
 10
182.6020495383645
 20
85.60899816556519
 30
0.0
 11
187.6020485383645
 21
84.68885116556521
 31
0.0
  0
LINE
  5
55543
330
55501
100
AcDbEntity
  8
1
100
AcDbLine
 10
182.6020455383646
 20
61.10897316556499
 30
0.0
 11
182.6020455383645
 21
73.35898816556516
 31
0.0
  0
LINE
  5
55544
330
55501
100
AcDbEntity
  8
1
100
AcDbLine
 10
182.6020455383645
 20
73.35898816556516
 30
0.0
 11
182.6020455383645
 21
85.6089881655652
 31
0.0
  0
LINE
  5
55545
330
55501
100
AcDbEntity
  8
sk1
100
AcDbLine
 10
36.62703153836453
 20
57.4839571655652
 30
0.0
 11
130.0520505383645
 21
57.48395716556519
 31
0.0
  0
LINE
  5
55546
330
55501
100
AcDbEntity
  8
sk1
100
AcDbLine
 10
36.62703153836453
 20
89.2339881655652
 30
0.0
 11
130.0520315383645
 21
89.23398816556519
 31
0.0
  0
LINE
  5
55547
330
55501
100
AcDbEntity
  8
1
100
AcDbLine
 10
130.0520305383644
 20
57.48396016556525
 30
0.0
 11
131.5151335383645
 21
58.94706316556518
 31
0.0
  0
LINE
  5
55548
330
55501
100
AcDbEntity
  8
1
100
AcDbLine
 10
200.1020455383645
 20
78.09900916556518
 30
0.0
 11
200.1020455383645
 21
78.10898816556516
 31
0.0
  0
LINE
  5
55549
330
55501
100
AcDbEntity
  8
sk4
100
AcDbLine
 10
25.26393353836453
 20
73.35898816556518
 30
0.0
 11
130.0520315383645
 21
73.35898816556516
 31
0.0
  0
LINE
  5
5554A
330
55501
100
AcDbEntity
  8
4
100
AcDbLine
 10
130.0520315383645
 20
73.35898816556516
 30
0.0
 11
222.5742665383645
 21
73.35898816556516
 31
0.0
  0
LINE
  5
5554B
330
55501
100
AcDbEntity
  8
sk1
100
AcDbLine
 10
36.62703153836453
 20
57.98398816556519
 30
0.0
 11
32.82704453836454
 21
57.98398816556519
 31
0.0
  0
LINE
  5
5554C
330
55501
100
AcDbEntity
  8
sk1
100
AcDbLine
 10
32.82704453836454
 20
88.73398816556521
 30
0.0
 11
32.82704453836454
 21
57.98398816556519
 31
0.0
  0
LINE
  5
5554D
330
55501
100
AcDbEntity
  8
sk1
100
AcDbLine
 10
31.62703153836453
 20
59.18397016556522
 30
0.0
 11
31.62703153836453
 21
87.53397616556524
 31
0.0
  0
LINE
  5
5554E
102
{ACAD_REACTORS
330
5555F
102
}
330
55501
100
AcDbEntity
  8
1
100
AcDbLine
 10
130.0520315383645
 20
57.48397266556516
 30
0.0
 11
130.0520315383645
 21
89.23400366556517
 31
0.0
  0
LINE
  5
5554F
330
55501
100
AcDbEntity
  8
sk1
100
AcDbLine
 10
31.62704753836449
 20
59.18398516556524
 30
0.0
 11
32.82704753836453
 21
57.98398516556524
 31
0.0
  0
LINE
  5
55550
330
55501
100
AcDbEntity
  8
sk1
100
AcDbLine
 10
31.62704853836454
 20
87.53398516556522
 30
0.0
 11
32.82704553836453
 21
88.7339821655652
 31
0.0
  0
LINE
  5
55551
330
55501
100
AcDbEntity
  8
sk1
100
AcDbLine
 10
32.82704453836454
 20
88.73398816556521
 30
0.0
 11
36.62703153836453
 21
88.73398816556521
 31
0.0
  0
LINE
  5
55552
330
55501
100
AcDbEntity
  8
sk1
100
AcDbLine
 10
36.62703153836453
 20
57.4839571655652
 30
0.0
 11
36.62703153836453
 21
89.2339881655652
 31
0.0
  0
LINE
  5
55553
330
55501
100
AcDbEntity
  8
1
100
AcDbLine
 10
133.5470315383645
 20
59.82441015373112
 30
0.0
 11
133.5470315383645
 21
86.89356617739932
 31
0.0
  0
DIMENSION
  5
55554
330
55501
100
AcDbEntity
  8
2
100
AcDbDimension
  2
*D29
 10
149.8990102814655
 20
85.608973165565
 30
0.0
 11
149.8990102814655
 21
35.47563983223166
 31
0.0
 12
130.0520315383645
 22
73.35898816556516
 32
0.0
 70
   128
  1
%%c<>
 71
     5
 42
24.5
  3
\M+18352\M+18373\M+1815B - ISO-25
100
AcDbAlignedDimension
 13
182.6020455383646
 23
61.10897316556499
 33
0.0
 14
182.6020455383646
 24
85.60897316556498
 34
0.0
 50
270.0
100
AcDbRotatedDimension
1001
ACAD
1000
DSTYLE
1002
{
1070
     4
1000
%%C[]"
1070
    40
1040
1.0
1070
   143
1040
0.03937
1070
   170
1070
     1
1070
   171
1070
     3
1070
   271
1070
     8
1070
   285
1070
     4
1002
}
  0
ARC
  5
55555
102
{ACAD_REACTORS
330
55505
330
5555F
330
55559
102
}
330
55501
100
AcDbEntity
  8
1
100
AcDbCircle
 10
199.9020315383645
 20
73.35897316556522
 30
0.0
 40
12.7
100
AcDbArc
 50
269.9999999999984
 51
90.0
  0
DIMENSION
  5
55556
330
55501
100
AcDbEntity
  8
2
100
AcDbDimension
  2
*D30
 10
240.2258338301598
 20
60.65897316556521
 30
0.0
 11
240.2258338301598
 21
71.60897316556521
 31
0.0
 12
130.0520315383645
 22
73.35898816556516
 32
0.0
 70
   128
  1
%%c<>
 71
     5
 42
25.39999999999997
  3
\M+18352\M+18373\M+1815B - ISO-25
100
AcDbAlignedDimension
 13
199.91521217125
 23
86.0589731655652
 33
0.0
 14
216.3149205383645
 24
60.65897316556522
 34
0.0
 50
270.0
100
AcDbRotatedDimension
1001
ACAD
1000
DSTYLE
1002
{
1070
     4
1000
%%c[]"
1070
    40
1040
1.0
1070
    76
1070
     1
1070
   143
1040
0.03937
1070
   170
1070
     1
1070
   171
1070
     3
1070
   173
1070
     1
1070
   271
1070
     8
1070
   285
1070
     4
1070
   344
1005
50E6F
1002
}
  0
DIMENSION
  5
55557
102
{ACAD_XDICTIONARY
360
55558
102
}
102
{ACAD_REACTORS
330
55559
102
}
330
55501
100
AcDbEntity
  8
2
100
AcDbDimension
  2
*D32
 10
199.9020315383645
 20
73.35897316556522
 30
0.0
 11
222.6888130518067
 21
107.2845220341751
 31
0.0
 12
130.0520315383645
 22
73.35898816556518
 32
0.0
 70
     4
 71
     5
 42
12.70000000000014
  3
\M+18352\M+18373\M+1815B - ISO-25
100
AcDbRadialDimension
 15
207.9931183977701
 25
83.14796256353462
 35
0.0
 40
0.0
1001
ACAD
1000
DSTYLE
1002
{
1070
     4
1000
"
1070
    40
1040
1.0
1070
   143
1040
0.03937
1070
   170
1070
     1
1070
   171
1070
     3
1070
   271
1070
     8
1070
   285
1070
     4
1002
}
  0
DIMENSION
  5
5555A
330
55501
100
AcDbEntity
  8
2
100
AcDbDimension
  2
*D31
 10
212.6020138862985
 20
109.4800044474516
 30
0.0
 11
197.6020168795417
 21
109.4799971170702
 31
0.0
 12
130.0520315383645
 22
73.35898816556516
 32
0.0
 70
   128
 71
     5
 41
0.892857
 42
29.99999401351715
  3
\M+18352\M+18373\M+1815B - ISO-25
100
AcDbAlignedDimension
 13
182.6020315383644
 23
85.60897316556522
 33
0.0
 14
212.6020315383645
 24
73.35897316556522
 34
0.0
 50
180.0000280000002
100
AcDbRotatedDimension
1001
ACAD
1000
DSTYLE
1002
{
1070
     4
1000
"
1070
    40
1040
1.0
1070
   143
1040
0.03937
1070
   170
1070
     1
1070
   171
1070
     3
1070
   271
1070
     8
1070
   285
1070
     4
1002
}
  0
LINE
  5
5555B
102
{ACAD_REACTORS
330
55505
102
}
330
55501
100
AcDbEntity
  8
1
100
AcDbLine
 10
199.9020315383641
 20
60.65897316556521
 30
0.0
 11
194.1020455383645
 21
61.52683516556521
 31
0.0
  0
LINE
  5
5555C
102
{ACAD_REACTORS
330
55505
102
}
330
55501
100
AcDbEntity
  8
1
100
AcDbLine
 10
194.1020455383645
 20
85.21259516556519
 30
0.0
 11
199.9020315383645
 21
86.05897316556522
 31
0.0
  0
DIMENSION
  5
5555D
102
{ACAD_XDICTIONARY
360
5555E
102
}
102
{ACAD_REACTORS
330
5555F
102
}
330
55501
100
AcDbEntity
  8
2
100
AcDbDimension
  2
*D33
 10
212.6020315383645
 20
123.194362651674
 30
0.0
 11
170.7881191295731
 21
123.194362651674
 31
0.0
 12
130.0520315383645
 22
73.35898816556516
 32
0.0
 70
   128
 71
     5
 42
82.54999999999997
  3
\M+18352\M+18373\M+1815B - ISO-25
100
AcDbAlignedDimension
 13
130.0520315383645
 23
89.23400366556517
 33
0.0
 14
212.6020315383645
 24
73.35897316556503
 34
0.0
 50
180.0
100
AcDbRotatedDimension
1001
ACAD
1000
DSTYLE
1002
{
1070
     4
1000
"
1070
    40
1040
1.0
1070
   143
1040
0.03937
1070
   170
1070
     1
1070
   171
1070
     3
1070
   271
1070
     8
1070
   285
1070
     4
1002
}
  0
DIMENSION
  5
55560
330
55501
100
AcDbEntity
  8
sk2
100
AcDbDimension
  2
*D34
 10
5.800000331976136
 20
89.23397216556518
 30
0.0
 11
5.800000331976136
 21
24.17500006504152
 31
0.0
 12
130.0520315383645
 22
73.35898816556516
 32
0.0
 70
   128
  1
%%c<>
 71
     5
 42
31.75
  3
\M+18352\M+18373\M+1815B - ISO-25
100
AcDbAlignedDimension
 13
36.62703153836453
 23
57.48397216556516
 33
0.0
 14
36.62703153836453
 24
89.23397216556516
 34
0.0
 50
270.0
100
AcDbRotatedDimension
1001
ACAD
1000
DSTYLE
1002
{
1070
     4
1000
%%C[]"
1070
    40
1040
1.0
1070
   143
1040
0.03937
1070
   170
1070
     1
1070
   171
1070
     3
1070
   271
1070
     8
1070
   285
1070
     4
1002
}
  0
INSERT
  5
55561
330
55501
100
AcDbEntity
  8
0
100
AcDbBlockReference
  2
zero block
 10
130.0520315383645
 20
73.35898816556516
 30
0.0
 50
180.0
  0
TEXT
  5
55562
330
55501
100
AcDbEntity
  8
6
100
AcDbText
 10
30.8201927555633
 20
125.5094950263209
 30
0.0
 40
5.0
  1
SRFU16S20M
  7
simplex
100
AcDbText
  0
TEXT
  5
55563
330
55501
100
AcDbEntity
  8
6
100
AcDbText
 10
30.8201927555633
 20
119.6761616929875
 30
0.0
 40
5.0
  1
SRFT1000
  7
simplex
100
AcDbText
  0
ENDBLK
  5
55568
330
55501
100
AcDbEntity
  8
0
100
AcDbBlockEnd
  0
BLOCK
  5
555EC
330
555EB
100
AcDbEntity
  8
0
100
AcDbBlockBegin
  2
*D37
 70
     1
 10
0.0
 20
0.0
 30
0.0
  3
*D37
  1

  0
LINE
  5
555ED
330
555EB
100
AcDbEntity
  8
2
100
AcDbLine
 10
173.5177656772732
 20
-160.8901923263855
 30
0.0
 11
215.328387336183
 21
-160.8901923263855
 31
0.0
  0
LINE
  5
555EE
330
555EB
100
AcDbEntity
  8
2
100
AcDbLine
 10
213.8283873361831
 20
-164.3901923263855
 30
0.0
 11
213.8283873361831
 21
-186.2901923263855
 31
0.0
  0
SOLID
  5
555EF
330
555EB
100
AcDbEntity
  8
2
100
AcDbTrace
 10
213.2450540028497
 20
-164.3901923263855
 30
0.0
 11
214.4117206695164
 21
-164.3901923263855
 31
0.0
 12
213.8283873361831
 22
-160.8901923263855
 32
0.0
 13
213.8283873361831
 23
-160.8901923263855
 33
0.0
  0
MTEXT
  5
555F0
330
555EB
100
AcDbEntity
  8
2
100
AcDbMText
 10
209.7783873361831
 20
-175.3401923263854
 30
0.0
 40
3.5
 41
0.0
 71
     5
 72
     1
  1
\A1;%%c25.4 [%%c1.000"]
  7
simplex
 11
0.0000000000000001
 21
1.0
 31
0.0
 73
     1
 44
1.0
1001
ACAD
1000
MTEXTBEGIN
1070
    73
1070
     1
1070
    44
1040
1.0
1070
    74
1070
     0
1000
MTEXTEND
  0
POINT
  5
555F1
330
555EB
100
AcDbEntity
  8
Defpoints
 62
     0
100
AcDbPoint
 10
173.5177656772732
 20
-160.8901923263855
 30
0.0
  0
POINT
  5
555F2
330
555EB
100
AcDbEntity
  8
Defpoints
 62
     0
100
AcDbPoint
 10
189.9174740443877
 20
-186.2901923263854
 30
0.0
  0
POINT
  5
555F3
330
555EB
100
AcDbEntity
  8
Defpoints
 62
     0
100
AcDbPoint
 10
213.8283873361831
 20
-186.2901923263855
 30
0.0
  0
ENDBLK
  5
555F4
330
555EB
100
AcDbEntity
  8
0
100
AcDbBlockEnd
  0
BLOCK
  5
555F6
330
555F5
100
AcDbEntity
  8
0
100
AcDbBlockBegin
  2
*D38
 70
     1
 10
0.0
 20
0.0
 30
0.0
  3
*D38
  1

  0
LINE
  5
555F7
330
555F5
100
AcDbEntity
  8
2
100
AcDbLine
 10
156.2045850443876
 20
-161.3401923263854
 30
0.0
 11
156.2045726457698
 21
-135.9691757052621
 31
0.0
  0
LINE
  5
555F8
330
555F5
100
AcDbEntity
  8
2
100
AcDbLine
 10
186.2045850443877
 20
-173.5901923263854
 30
0.0
 11
186.2045666592834
 21
-135.9691610444992
 31
0.0
  0
LINE
  5
555F9
330
555F5
100
AcDbEntity
  8
2
100
AcDbLine
 10
159.7045733788077
 20
-137.4691739948392
 30
0.0
 11
182.7045673923221
 21
-137.4691627549217
 31
0.0
  0
SOLID
  5
555FA
330
555F5
100
AcDbEntity
  8
2
100
AcDbTrace
 10
159.7045730937373
 20
-136.8858406615059
 30
0.0
 11
159.7045736638781
 21
-138.0525073281725
 31
0.0
 12
156.2045733788081
 22
-137.4691757052619
 32
0.0
 13
156.2045733788081
 23
-137.4691757052619
 33
0.0
  0
SOLID
  5
555FB
330
555F5
100
AcDbEntity
  8
2
100
AcDbTrace
 10
182.7045671072516
 20
-136.8858294215884
 30
0.0
 11
182.7045676773925
 21
-138.0524960882549
 31
0.0
 12
186.2045673923217
 22
-137.469161044499
 32
0.0
 13
186.2045673923217
 23
-137.469161044499
 33
0.0
  0
MTEXT
  5
555FC
330
555F5
100
AcDbEntity
  8
2
100
AcDbMText
 10
171.2045684063615
 20
-133.4191683748809
 30
0.0
 40
3.5
 41
0.0
 71
     5
 72
     1
  1
\A1;29.99999401 [1.181"]
  7
simplex
 11
0.9999999999998808
 21
0.0000004886921943
 31
0.0
 73
     1
 44
0.892857
1001
ACAD
1000
MTEXTBEGIN
1070
    73
1070
     1
1070
    44
1040
0.892857
1070
    74
1070
     0
1000
MTEXTEND
  0
POINT
  5
555FD
330
555F5
100
AcDbEntity
  8
Defpoints
 62
     0
100
AcDbPoint
 10
156.2045850443876
 20
-161.3401923263854
 30
0.0
  0
POINT
  5
555FE
330
555F5
100
AcDbEntity
  8
Defpoints
 62
     0
100
AcDbPoint
 10
186.2045850443877
 20
-173.5901923263854
 30
0.0
  0
POINT
  5
555FF
330
555F5
100
AcDbEntity
  8
Defpoints
 62
     0
100
AcDbPoint
 10
186.2045673923217
 20
-137.469161044499
 30
0.0
  0
ENDBLK
  5
55600
330
555F5
100
AcDbEntity
  8
0
100
AcDbBlockEnd
  0
BLOCK
  5
55602
330
55601
100
AcDbEntity
  8
0
100
AcDbBlockBegin
  2
*D39
 70
     1
 10
0.0
 20
0.0
 30
0.0
  3
*D39
  1

  0
LINE
  5
55603
330
55601
100
AcDbEntity
  8
sk2
100
AcDbLine
 10
10.22958504438777
 20
-189.4651933263855
 30
0.0
 11
-22.09744616200065
 21
-189.4651933263855
 31
0.0
  0
LINE
  5
55604
330
55601
100
AcDbEntity
  8
sk2
100
AcDbLine
 10
10.22958504438777
 20
-157.7151933263855
 30
0.0
 11
-22.09744616200064
 21
-157.7151933263855
 31
0.0
  0
LINE
  5
55605
330
55601
100
AcDbEntity
  8
sk2
100
AcDbLine
 10
-20.59744616200064
 20
-161.2151933263855
 30
0.0
 11
-20.59744616200065
 21
-185.9651933263855
 31
0.0
  0
LINE
  5
55606
330
55601
100
AcDbEntity
  8
sk2
100
AcDbLine
 10
-20.59744616200065
 20
-189.4651933263855
 30
0.0
 11
-20.59744616200066
 21
-246.9491654269091
 31
0.0
  0
SOLID
  5
55607
330
55601
100
AcDbEntity
  8
sk2
100
AcDbTrace
 10
-21.18077949533398
 20
-161.2151933263855
 30
0.0
 11
-20.01411282866731
 21
-161.2151933263855
 31
0.0
 12
-20.59744616200064
 22
-157.7151933263855
 32
0.0
 13
-20.59744616200064
 23
-157.7151933263855
 33
0.0
  0
SOLID
  5
55608
330
55601
100
AcDbEntity
  8
sk2
100
AcDbTrace
 10
-21.18077949533399
 20
-185.9651933263855
 30
0.0
 11
-20.01411282866732
 21
-185.9651933263855
 31
0.0
 12
-20.59744616200065
 22
-189.4651933263855
 32
0.0
 13
-20.59744616200065
 23
-189.4651933263855
 33
0.0
  0
MTEXT
  5
55609
330
55601
100
AcDbEntity
  8
sk2
100
AcDbMText
 10
-24.64744616200062
 20
-222.7741654269092
 30
0.0
 40
3.5
 41
0.0
 71
     5
 72
     1
  1
\A1;%%c31.75 [%%C1.250"]
  7
simplex
 11
0.0000000000000001
 21
1.0
 31
0.0
 73
     1
 44
1.0
1001
ACAD
1000
MTEXTBEGIN
1070
    73
1070
     1
1070
    44
1040
1.0
1070
    74
1070
     0
1000
MTEXTEND
  0
POINT
  5
5560A
330
55601
100
AcDbEntity
  8
Defpoints
 62
     0
100
AcDbPoint
 10
10.22958504438777
 20
-189.4651933263855
 30
0.0
  0
POINT
  5
5560B
330
55601
100
AcDbEntity
  8
Defpoints
 62
     0
100
AcDbPoint
 10
10.22958504438777
 20
-157.7151933263855
 30
0.0
  0
POINT
  5
5560C
330
55601
100
AcDbEntity
  8
Defpoints
 62
     0
100
AcDbPoint
 10
-20.59744616200064
 20
-157.7151933263855
 30
0.0
  0
ENDBLK
  5
5560D
330
55601
100
AcDbEntity
  8
0
100
AcDbBlockEnd
  0
BLOCK
  5
5560F
330
5560E
100
AcDbEntity
  8
0
100
AcDbBlockBegin
  2
*D40
 70
     1
 10
0.0
 20
0.0
 30
0.0
  3
*D40
  1

  0
LINE
  5
55610
330
5560E
100
AcDbEntity
  8
sk2
100
AcDbLine
 10
5.229585044387775
 20
-159.4151893263854
 30
0.0
 11
5.229585044387778
 21
-108.0687969202653
 31
0.0
  0
LINE
  5
55611
330
5560E
100
AcDbEntity
  8
sk2
100
AcDbLine
 10
186.2045850443877
 20
-173.5901923263856
 30
0.0
 11
186.2045850443877
 21
-108.0687969202653
 31
0.0
  0
LINE
  5
55612
330
5560E
100
AcDbEntity
  8
sk2
100
AcDbLine
 10
8.729585044387778
 20
-109.5687969202653
 30
0.0
 11
182.7045850443877
 21
-109.5687969202653
 31
0.0
  0
SOLID
  5
55613
330
5560E
100
AcDbEntity
  8
sk2
100
AcDbTrace
 10
8.729585044387778
 20
-108.985463586932
 30
0.0
 11
8.729585044387778
 21
-110.1521302535987
 31
0.0
 12
5.229585044387778
 22
-109.5687969202653
 32
0.0
 13
5.229585044387778
 23
-109.5687969202653
 33
0.0
  0
SOLID
  5
55614
330
5560E
100
AcDbEntity
  8
sk2
100
AcDbTrace
 10
182.7045850443877
 20
-108.985463586932
 30
0.0
 11
182.7045850443877
 21
-110.1521302535987
 31
0.0
 12
186.2045850443877
 22
-109.5687969202653
 32
0.0
 13
186.2045850443877
 23
-109.5687969202653
 33
0.0
  0
MTEXT
  5
55615
330
5560E
100
AcDbEntity
  8
sk2
100
AcDbMText
 10
94.52544144336618
 20
-105.5187969202653
 30
0.0
 40
3.5
 41
0.0
 71
     5
 72
     1
  1
\A1;180.975 [7.125"]
  7
simplex
 73
     1
 44
0.892857
1001
ACAD
1000
MTEXTBEGIN
1070
    73
1070
     1
1070
    44
1040
0.892857
1070
    74
1070
     0
1000
MTEXTEND
  0
POINT
  5
55616
330
5560E
100
AcDbEntity
  8
Defpoints
 62
     0
100
AcDbPoint
 10
5.229585044387775
 20
-159.4151893263854
 30
0.0
  0
POINT
  5
55617
330
5560E
100
AcDbEntity
  8
Defpoints
 62
     0
100
AcDbPoint
 10
186.2045850443877
 20
-173.5901923263856
 30
0.0
  0
POINT
  5
55618
330
5560E
100
AcDbEntity
  8
Defpoints
 62
     0
100
AcDbPoint
 10
186.2045850443877
 20
-109.5687969202653
 30
0.0
  0
ENDBLK
  5
55619
330
5560E
100
AcDbEntity
  8
0
100
AcDbBlockEnd
  0
BLOCK
  5
5561B
330
5561A
100
AcDbEntity
  8
0
100
AcDbBlockBegin
  2
*D41
 70
     1
 10
0.0
 20
0.0
 30
0.0
  3
*D41
  1

  0
LINE
  5
5561C
330
5561A
100
AcDbEntity
  8
2
100
AcDbLine
 10
212.7707782282219
 20
-126.0840469278414
 30
0.0
 11
183.8254989910311
 21
-161.1034499447237
 31
0.0
  0
MTEXT
  5
5561D
330
5561A
100
AcDbEntity
  8
2
100
AcDbMText
 10
196.2913665578299
 20
-139.6646434577756
 30
0.0
 40
3.5
 41
0.0
 71
     5
 72
     1
  1
\A1;R12.7 [R.500"]
  7
simplex
 11
0.6370934534964964
 21
0.7707865667692371
 31
0.0
 73
     1
 44
1.0
1001
ACAD
1000
MTEXTBEGIN
1070
    73
1070
     1
1070
    44
1040
1.0
1070
    74
1070
     0
1000
MTEXTEND
  0
SOLID
  5
5561E
330
5561A
100
AcDbEntity
  8
2
100
AcDbTrace
 10
183.375873493749
 20
-160.7318120968507
 30
0.0
 11
184.2751244883131
 21
-161.4750877925967
 31
0.0
 12
181.5956719037933
 22
-163.801202928416
 32
0.0
 13
181.5956719037933
 23
-163.801202928416
 33
0.0
  0
LINE
  5
5561F
330
5561A
100
AcDbEntity
  8
2
100
AcDbLine
 10
173.4145850443877
 20
-173.5901923263854
 30
0.0
 11
173.5945850443877
 21
-173.5901923263855
 31
0.0
  0
LINE
  5
55620
330
5561A
100
AcDbEntity
  8
2
100
AcDbLine
 10
173.5045850443877
 20
-173.6801923263854
 30
0.0
 11
173.5045850443877
 21
-173.5001923263854
 31
0.0
  0
POINT
  5
55621
330
5561A
100
AcDbEntity
  8
Defpoints
 62
     0
100
AcDbPoint
 10
181.5956719037933
 20
-163.801202928416
 30
0.0
  0
POINT
  5
55622
330
5561A
100
AcDbEntity
  8
Defpoints
 62
     0
100
AcDbPoint
 10
173.5045850443877
 20
-173.5901923263855
 30
0.0
  0
ENDBLK
  5
55623
330
5561A
100
AcDbEntity
  8
0
100
AcDbBlockEnd
  0
BLOCK
  5
55625
330
55624
100
AcDbEntity
  8
0
100
AcDbBlockBegin
  2
*D42
 70
     1
 10
0.0
 20
0.0
 30
0.0
  3
*D42
  1

  0
LINE
  5
55626
330
55624
100
AcDbEntity
  8
2
100
AcDbLine
 10
103.6545850443878
 20
-157.7151618263855
 30
0.0
 11
103.6545850443878
 21
-122.2548028402767
 31
0.0
  0
LINE
  5
55627
330
55624
100
AcDbEntity
  8
2
100
AcDbLine
 10
186.2045850443877
 20
-173.5901923263856
 30
0.0
 11
186.2045850443877
 21
-122.2548028402767
 31
0.0
  0
LINE
  5
55628
330
55624
100
AcDbEntity
  8
2
100
AcDbLine
 10
107.1545850443877
 20
-123.7548028402767
 30
0.0
 11
182.7045850443877
 21
-123.7548028402767
 31
0.0
  0
SOLID
  5
55629
330
55624
100
AcDbEntity
  8
2
100
AcDbTrace
 10
107.1545850443877
 20
-123.1714695069433
 30
0.0
 11
107.1545850443877
 21
-124.33813617361
 31
0.0
 12
103.6545850443878
 22
-123.7548028402767
 32
0.0
 13
103.6545850443878
 23
-123.7548028402767
 33
0.0
  0
SOLID
  5
5562A
330
55624
100
AcDbEntity
  8
2
100
AcDbTrace
 10
182.7045850443877
 20
-123.1714695069433
 30
0.0
 11
182.7045850443877
 21
-124.33813617361
 31
0.0
 12
186.2045850443877
 22
-123.7548028402767
 32
0.0
 13
186.2045850443877
 23
-123.7548028402767
 33
0.0
  0
MTEXT
  5
5562B
330
55624
100
AcDbEntity
  8
2
100
AcDbMText
 10
144.3906726355964
 20
-119.7048028402767
 30
0.0
 40
3.5
 41
0.0
 71
     5
 72
     1
  1
\A1;82.55 [3.250"]
  7
simplex
 73
     1
 44
1.0
1001
ACAD
1000
MTEXTBEGIN
1070
    73
1070
     1
1070
    44
1040
1.0
1070
    74
1070
     0
1000
MTEXTEND
  0
POINT
  5
5562C
330
55624
100
AcDbEntity
  8
Defpoints
 62
     0
100
AcDbPoint
 10
103.6545850443878
 20
-157.7151618263855
 30
0.0
  0
POINT
  5
5562D
330
55624
100
AcDbEntity
  8
Defpoints
 62
     0
100
AcDbPoint
 10
186.2045850443877
 20
-173.5901923263856
 30
0.0
  0
POINT
  5
5562E
330
55624
100
AcDbEntity
  8
Defpoints
 62
     0
100
AcDbPoint
 10
186.2045850443877
 20
-123.7548028402767
 30
0.0
  0
ENDBLK
  5
5562F
330
55624
100
AcDbEntity
  8
0
100
AcDbBlockEnd
  0
BLOCK
  5
55703
330
556F9
100
AcDbEntity
  8
0
100
AcDbBlockBegin
  2
*D44
 70
     1
 10
0.0
 20
0.0
 30
0.0
  3
*D44
  1

  0
LINE
  5
55728
330
556F9
100
AcDbEntity
  8
sk2
100
AcDbLine
 10
51.16175023033754
 20
-279.8948194285003
 30
0.0
 11
51.16175023033754
 21
-228.5484270223803
 31
0.0
  0
LINE
  5
55729
330
556F9
100
AcDbEntity
  8
sk2
100
AcDbLine
 10
232.1367502303375
 20
-294.0698224285006
 30
0.0
 11
232.1367502303375
 21
-228.5484270223803
 31
0.0
  0
LINE
  5
5572A
330
556F9
100
AcDbEntity
  8
sk2
100
AcDbLine
 10
54.66175023033755
 20
-230.0484270223803
 30
0.0
 11
228.6367502303375
 21
-230.0484270223803
 31
0.0
  0
SOLID
  5
5572B
330
556F9
100
AcDbEntity
  8
sk2
100
AcDbTrace
 10
54.66175023033755
 20
-229.4650936890469
 30
0.0
 11
54.66175023033755
 21
-230.6317603557136
 31
0.0
 12
51.16175023033754
 22
-230.0484270223803
 32
0.0
 13
51.16175023033754
 23
-230.0484270223803
 33
0.0
  0
SOLID
  5
5572C
330
556F9
100
AcDbEntity
  8
sk2
100
AcDbTrace
 10
228.6367502303375
 20
-229.4650936890469
 30
0.0
 11
228.6367502303375
 21
-230.6317603557136
 31
0.0
 12
232.1367502303375
 22
-230.0484270223803
 32
0.0
 13
232.1367502303375
 23
-230.0484270223803
 33
0.0
  0
MTEXT
  5
5572D
330
556F9
100
AcDbEntity
  8
sk2
100
AcDbMText
 10
140.4576066293159
 20
-225.9984270223803
 30
0.0
 40
3.5
 41
0.0
 71
     5
 72
     1
  1
\A1;180.975 [7.125"]
  7
simplex
 73
     1
 44
0.892857
1001
ACAD
1000
MTEXTBEGIN
1070
    73
1070
     1
1070
    44
1040
0.892857
1070
    74
1070
     0
1000
MTEXTEND
  0
POINT
  5
5572E
330
556F9
100
AcDbEntity
  8
Defpoints
 62
     0
100
AcDbPoint
 10
51.16175023033754
 20
-279.8948194285003
 30
0.0
  0
POINT
  5
5572F
330
556F9
100
AcDbEntity
  8
Defpoints
 62
     0
100
AcDbPoint
 10
232.1367502303375
 20
-294.0698224285006
 30
0.0
  0
POINT
  5
55730
330
556F9
100
AcDbEntity
  8
Defpoints
 62
     0
100
AcDbPoint
 10
232.1367502303375
 20
-230.0484270223803
 30
0.0
  0
ENDBLK
  5
55704
330
556F9
100
AcDbEntity
  8
0
100
AcDbBlockEnd
  0
BLOCK
  5
5570D
330
55705
100
AcDbEntity
  8
0
100
AcDbBlockBegin
  2
*D45
 70
     1
 10
0.0
 20
0.0
 30
0.0
  3
*D45
  1

  0
LINE
  5
55731
330
55705
100
AcDbEntity
  8
2
100
AcDbLine
 10
219.449930863223
 20
-281.3698224285004
 30
0.0
 11
261.2605525221328
 21
-281.3698224285004
 31
0.0
  0
LINE
  5
55732
330
55705
100
AcDbEntity
  8
2
100
AcDbLine
 10
259.7605525221328
 20
-284.8698224285004
 30
0.0
 11
259.7605525221328
 21
-306.7698224285004
 31
0.0
  0
SOLID
  5
55733
330
55705
100
AcDbEntity
  8
2
100
AcDbTrace
 10
259.1772191887995
 20
-284.8698224285004
 30
0.0
 11
260.3438858554661
 21
-284.8698224285004
 31
0.0
 12
259.7605525221328
 22
-281.3698224285004
 32
0.0
 13
259.7605525221328
 23
-281.3698224285004
 33
0.0
  0
MTEXT
  5
55734
330
55705
100
AcDbEntity
  8
2
100
AcDbMText
 10
255.7105525221328
 20
-295.8198224285003
 30
0.0
 40
3.5
 41
0.0
 71
     5
 72
     1
  1
\A1;%%c25.4 [%%c1.000"]
  7
simplex
 11
0.0000000000000001
 21
1.0
 31
0.0
 73
     1
 44
1.0
1001
ACAD
1000
MTEXTBEGIN
1070
    73
1070
     1
1070
    44
1040
1.0
1070
    74
1070
     0
1000
MTEXTEND
  0
POINT
  5
55735
330
55705
100
AcDbEntity
  8
Defpoints
 62
     0
100
AcDbPoint
 10
219.449930863223
 20
-281.3698224285004
 30
0.0
  0
POINT
  5
55736
330
55705
100
AcDbEntity
  8
Defpoints
 62
     0
100
AcDbPoint
 10
235.8496392303375
 20
-306.7698224285004
 30
0.0
  0
POINT
  5
55737
330
55705
100
AcDbEntity
  8
Defpoints
 62
     0
100
AcDbPoint
 10
259.7605525221328
 20
-306.7698224285004
 30
0.0
  0
ENDBLK
  5
5570E
330
55705
100
AcDbEntity
  8
0
100
AcDbBlockEnd
  0
BLOCK
  5
55719
330
5570F
100
AcDbEntity
  8
0
100
AcDbBlockBegin
  2
*D46
 70
     1
 10
0.0
 20
0.0
 30
0.0
  3
*D46
  1

  0
LINE
  5
55742
330
5570F
100
AcDbEntity
  8
2
100
AcDbLine
 10
202.1367502303374
 20
-281.8198224285004
 30
0.0
 11
202.1367378317196
 21
-256.448805807377
 31
0.0
  0
LINE
  5
55743
330
5570F
100
AcDbEntity
  8
2
100
AcDbLine
 10
232.1367502303375
 20
-294.0698224285004
 30
0.0
 11
232.1367318452332
 21
-256.4487911466141
 31
0.0
  0
LINE
  5
55744
330
5570F
100
AcDbEntity
  8
2
100
AcDbLine
 10
205.6367385647575
 20
-257.9488040969542
 30
0.0
 11
228.6367325782719
 21
-257.9487928570366
 31
0.0
  0
SOLID
  5
55745
330
5570F
100
AcDbEntity
  8
2
100
AcDbTrace
 10
205.636738279687
 20
-257.3654707636209
 30
0.0
 11
205.6367388498279
 21
-258.5321374302874
 31
0.0
 12
202.1367385647579
 22
-257.9488058073768
 32
0.0
 13
202.1367385647579
 23
-257.9488058073768
 33
0.0
  0
SOLID
  5
55746
330
5570F
100
AcDbEntity
  8
2
100
AcDbTrace
 10
228.6367322932014
 20
-257.3654595237034
 30
0.0
 11
228.6367328633423
 21
-258.5321261903699
 31
0.0
 12
232.1367325782714
 22
-257.9487911466139
 32
0.0
 13
232.1367325782714
 23
-257.9487911466139
 33
0.0
  0
MTEXT
  5
55747
330
5570F
100
AcDbEntity
  8
2
100
AcDbMText
 10
217.1367335923112
 20
-253.8987984769959
 30
0.0
 40
3.5
 41
0.0
 71
     5
 72
     1
  1
\A1;29.99999401 [1.181"]
  7
simplex
 11
0.9999999999998808
 21
0.0000004886921943
 31
0.0
 73
     1
 44
0.892857
1001
ACAD
1000
MTEXTBEGIN
1070
    73
1070
     1
1070
    44
1040
0.892857
1070
    74
1070
     0
1000
MTEXTEND
  0
POINT
  5
55748
330
5570F
100
AcDbEntity
  8
Defpoints
 62
     0
100
AcDbPoint
 10
202.1367502303374
 20
-281.8198224285004
 30
0.0
  0
POINT
  5
55749
330
5570F
100
AcDbEntity
  8
Defpoints
 62
     0
100
AcDbPoint
 10
232.1367502303375
 20
-294.0698224285004
 30
0.0
  0
POINT
  5
5574A
330
5570F
100
AcDbEntity
  8
Defpoints
 62
     0
100
AcDbPoint
 10
232.1367325782714
 20
-257.9487911466139
 30
0.0
  0
ENDBLK
  5
5571A
330
5570F
100
AcDbEntity
  8
0
100
AcDbBlockEnd
  0
BLOCK
  5
55726
330
5571B
100
AcDbEntity
  8
0
100
AcDbBlockBegin
  2
*D47
 70
     1
 10
0.0
 20
0.0
 30
0.0
  3
*D47
  1

  0
LINE
  5
55757
330
5571B
100
AcDbEntity
  8
sk2
100
AcDbLine
 10
56.16175023033754
 20
-309.9448234285004
 30
0.0
 11
23.8347190239491
 21
-309.9448234285004
 31
0.0
  0
LINE
  5
55758
330
5571B
100
AcDbEntity
  8
sk2
100
AcDbLine
 10
56.16175023033754
 20
-278.1948234285005
 30
0.0
 11
23.83471902394911
 21
-278.1948234285005
 31
0.0
  0
LINE
  5
55759
330
5571B
100
AcDbEntity
  8
sk2
100
AcDbLine
 10
25.33471902394911
 20
-281.6948234285005
 30
0.0
 11
25.3347190239491
 21
-306.4448234285005
 31
0.0
  0
LINE
  5
5575A
330
5571B
100
AcDbEntity
  8
sk2
100
AcDbLine
 10
25.3347190239491
 20
-309.9448234285004
 30
0.0
 11
25.33471902394909
 21
-367.4287955290241
 31
0.0
  0
SOLID
  5
5575B
330
5571B
100
AcDbEntity
  8
sk2
100
AcDbTrace
 10
24.75138569061578
 20
-281.6948234285005
 30
0.0
 11
25.91805235728244
 21
-281.6948234285005
 31
0.0
 12
25.33471902394911
 22
-278.1948234285005
 32
0.0
 13
25.33471902394911
 23
-278.1948234285005
 33
0.0
  0
SOLID
  5
5575C
330
5571B
100
AcDbEntity
  8
sk2
100
AcDbTrace
 10
24.75138569061577
 20
-306.4448234285005
 30
0.0
 11
25.91805235728243
 21
-306.4448234285005
 31
0.0
 12
25.3347190239491
 22
-309.9448234285004
 32
0.0
 13
25.3347190239491
 23
-309.9448234285004
 33
0.0
  0
MTEXT
  5
5575D
330
5571B
100
AcDbEntity
  8
sk2
100
AcDbMText
 10
21.28471902394915
 20
-343.2537955290241
 30
0.0
 40
3.5
 41
0.0
 71
     5
 72
     1
  1
\A1;%%c31.75 [%%C1.250"]
  7
simplex
 11
0.0000000000000001
 21
1.0
 31
0.0
 73
     1
 44
1.0
1001
ACAD
1000
MTEXTBEGIN
1070
    73
1070
     1
1070
    44
1040
1.0
1070
    74
1070
     0
1000
MTEXTEND
  0
POINT
  5
5575E
330
5571B
100
AcDbEntity
  8
Defpoints
 62
     0
100
AcDbPoint
 10
56.16175023033754
 20
-309.9448234285004
 30
0.0
  0
POINT
  5
5575F
330
5571B
100
AcDbEntity
  8
Defpoints
 62
     0
100
AcDbPoint
 10
56.16175023033754
 20
-278.1948234285005
 30
0.0
  0
POINT
  5
55760
330
5571B
100
AcDbEntity
  8
Defpoints
 62
     0
100
AcDbPoint
 10
25.33471902394911
 20
-278.1948234285005
 30
0.0
  0
ENDBLK
  5
55727
330
5571B
100
AcDbEntity
  8
0
100
AcDbBlockEnd
  0
BLOCK
  5
55740
330
55738
100
AcDbEntity
  8
0
100
AcDbBlockBegin
  2
*D48
 70
     1
 10
0.0
 20
0.0
 30
0.0
  3
*D48
  1

  0
LINE
  5
55761
330
55738
100
AcDbEntity
  8
2
100
AcDbLine
 10
258.7029434141717
 20
-246.5636770299564
 30
0.0
 11
229.7576641769809
 21
-281.5830800468387
 31
0.0
  0
MTEXT
  5
55762
330
55738
100
AcDbEntity
  8
2
100
AcDbMText
 10
242.2235317437797
 20
-260.1442735598905
 30
0.0
 40
3.5
 41
0.0
 71
     5
 72
     1
  1
\A1;R12.7 [R.500"]
  7
simplex
 11
0.6370934534964964
 21
0.7707865667692371
 31
0.0
 73
     1
 44
1.0
1001
ACAD
1000
MTEXTBEGIN
1070
    73
1070
     1
1070
    44
1040
1.0
1070
    74
1070
     0
1000
MTEXTEND
  0
SOLID
  5
55763
330
55738
100
AcDbEntity
  8
2
100
AcDbTrace
 10
229.3080386796988
 20
-281.2114421989657
 30
0.0
 11
230.2072896742629
 21
-281.9547178947116
 31
0.0
 12
227.5278370897432
 22
-284.280833030531
 32
0.0
 13
227.5278370897432
 23
-284.280833030531
 33
0.0
  0
LINE
  5
55764
330
55738
100
AcDbEntity
  8
2
100
AcDbLine
 10
219.3467502303375
 20
-294.0698224285005
 30
0.0
 11
219.5267502303376
 21
-294.0698224285005
 31
0.0
  0
LINE
  5
55765
330
55738
100
AcDbEntity
  8
2
100
AcDbLine
 10
219.4367502303375
 20
-294.1598224285004
 30
0.0
 11
219.4367502303375
 21
-293.9798224285005
 31
0.0
  0
POINT
  5
55766
330
55738
100
AcDbEntity
  8
Defpoints
 62
     0
100
AcDbPoint
 10
227.5278370897432
 20
-284.280833030531
 30
0.0
  0
POINT
  5
55767
330
55738
100
AcDbEntity
  8
Defpoints
 62
     0
100
AcDbPoint
 10
219.4367502303375
 20
-294.0698224285005
 30
0.0
  0
ENDBLK
  5
55741
330
55738
100
AcDbEntity
  8
0
100
AcDbBlockEnd
  0
BLOCK
  5
55755
330
5574B
100
AcDbEntity
  8
0
100
AcDbBlockBegin
  2
*D49
 70
     1
 10
0.0
 20
0.0
 30
0.0
  3
*D49
  1

  0
LINE
  5
5574C
330
5574B
100
AcDbEntity
  8
2
100
AcDbLine
 10
149.5867502303375
 20
-278.1947919285004
 30
0.0
 11
149.5867502303375
 21
-242.7344329423916
 31
0.0
  0
LINE
  5
5574D
330
5574B
100
AcDbEntity
  8
2
100
AcDbLine
 10
232.1367502303375
 20
-294.0698224285006
 30
0.0
 11
232.1367502303375
 21
-242.7344329423916
 31
0.0
  0
LINE
  5
5574E
330
5574B
100
AcDbEntity
  8
2
100
AcDbLine
 10
153.0867502303375
 20
-244.2344329423916
 30
0.0
 11
228.6367502303375
 21
-244.2344329423916
 31
0.0
  0
SOLID
  5
5574F
330
5574B
100
AcDbEntity
  8
2
100
AcDbTrace
 10
153.0867502303375
 20
-243.6510996090583
 30
0.0
 11
153.0867502303375
 21
-244.8177662757249
 31
0.0
 12
149.5867502303375
 22
-244.2344329423916
 32
0.0
 13
149.5867502303375
 23
-244.2344329423916
 33
0.0
  0
SOLID
  5
55750
330
5574B
100
AcDbEntity
  8
2
100
AcDbTrace
 10
228.6367502303375
 20
-243.6510996090583
 30
0.0
 11
228.6367502303375
 21
-244.8177662757249
 31
0.0
 12
232.1367502303375
 22
-244.2344329423916
 32
0.0
 13
232.1367502303375
 23
-244.2344329423916
 33
0.0
  0
MTEXT
  5
55751
330
5574B
100
AcDbEntity
  8
2
100
AcDbMText
 10
190.3228378215461
 20
-240.1844329423916
 30
0.0
 40
3.5
 41
0.0
 71
     5
 72
     1
  1
\A1;82.55 [3.250"]
  7
simplex
 73
     1
 44
1.0
1001
ACAD
1000
MTEXTBEGIN
1070
    73
1070
     1
1070
    44
1040
1.0
1070
    74
1070
     0
1000
MTEXTEND
  0
POINT
  5
55752
330
5574B
100
AcDbEntity
  8
Defpoints
 62
     0
100
AcDbPoint
 10
149.5867502303375
 20
-278.1947919285004
 30
0.0
  0
POINT
  5
55753
330
5574B
100
AcDbEntity
  8
Defpoints
 62
     0
100
AcDbPoint
 10
232.1367502303375
 20
-294.0698224285006
 30
0.0
  0
POINT
  5
55754
330
5574B
100
AcDbEntity
  8
Defpoints
 62
     0
100
AcDbPoint
 10
232.1367502303375
 20
-244.2344329423916
 30
0.0
  0
ENDBLK
  5
55756
330
5574B
100
AcDbEntity
  8
0
100
AcDbBlockEnd
  0
BLOCK
  5
55817
330
5580D
100
AcDbEntity
  8
0
100
AcDbBlockBegin
  2
*D50
 70
     1
 10
0.0
 20
0.0
 30
0.0
  3
*D50
  1

  0
LINE
  5
55836
330
5580D
100
AcDbEntity
  8
sk2
100
AcDbLine
 10
-98.42500000000001
 20
14.1749964999982
 30
0.0
 11
-98.42500000000001
 21
66.96735267775387
 31
0.0
  0
LINE
  5
55837
330
5580D
100
AcDbEntity
  8
sk2
100
AcDbLine
 10
82.55
 20
-0.000000001099977
 30
0.0
 11
82.55
 21
66.96735267775387
 31
0.0
  0
LINE
  5
55838
330
5580D
100
AcDbEntity
  8
sk2
100
AcDbLine
 10
-94.92499999999999
 20
65.46735267775386
 30
0.0
 11
79.05
 21
65.46735267775386
 31
0.0
  0
SOLID
  5
55839
330
5580D
100
AcDbEntity
  8
sk2
100
AcDbTrace
 10
-94.92499999999999
 20
66.05068601108719
 30
0.0
 11
-94.92499999999999
 21
64.88401934442054
 31
0.0
 12
-98.42500000000001
 22
65.46735267775386
 32
0.0
 13
-98.42500000000001
 23
65.46735267775386
 33
0.0
  0
SOLID
  5
5583A
330
5580D
100
AcDbEntity
  8
sk2
100
AcDbTrace
 10
79.05
 20
66.05068601108719
 30
0.0
 11
79.05
 21
64.88401934442054
 31
0.0
 12
82.55
 22
65.46735267775386
 32
0.0
 13
82.55
 23
65.46735267775386
 33
0.0
  0
MTEXT
  5
5583B
330
5580D
100
AcDbEntity
  8
sk2
100
AcDbMText
 10
-6.544211762515487
 20
69.51735267775386
 30
0.0
 40
3.5
 41
0.0
 71
     5
 72
     1
  1
\A1;180.975 [7.125"]
  7
simplex
 73
     1
 44
1.0
1001
ACAD
1000
MTEXTBEGIN
1070
    73
1070
     1
1070
    44
1040
1.0
1070
    74
1070
     0
1000
MTEXTEND
  0
POINT
  5
5583C
330
5580D
100
AcDbEntity
  8
Defpoints
 62
     0
100
AcDbPoint
 10
-98.42500000000001
 20
14.1749964999982
 30
0.0
  0
POINT
  5
5583D
330
5580D
100
AcDbEntity
  8
Defpoints
 62
     0
100
AcDbPoint
 10
82.55
 20
-0.000000001099977
 30
0.0
  0
POINT
  5
5583E
330
5580D
100
AcDbEntity
  8
Defpoints
 62
     0
100
AcDbPoint
 10
82.55
 20
65.46735267775386
 30
0.0
  0
ENDBLK
  5
55818
330
5580D
100
AcDbEntity
  8
0
100
AcDbBlockEnd
  0
ENDSEC
  0
SECTION
  2
ENTITIES
  0
INSERT
  5
68C
330
1F
100
AcDbEntity
  8
0
100
AcDbBlockReference
  2
zero block
 10
0.0
 20
0.0
 30
0.0
  0
MTEXT
  5
53DFB
330
1F
100
AcDbEntity
  8
sk6
100
AcDbMText
 10
-88.34009873463058
 20
91.33923152733039
 30
0.0
 40
5.0
 41
70.03712541027798
 71
     1
 72
     5
  1
SRFU16S20M\PSRFT1000
  7
simplex
 73
     1
 44
1.0
1001
ACAD
1000
ACAD_MTEXT_COLUMN_INFO_BEGIN
1070
    75
1070
     2
1070
    79
1070
     0
1070
    76
1070
     1
1070
    78
1070
     0
1070
    48
1040
59.04341590052445
1070
    49
1040
17.5
1070
    50
1070
     1
1040
0.0
1000
ACAD_MTEXT_COLUMN_INFO_END
1000
ACAD_MTEXT_DEFINED_HEIGHT_BEGIN
1070
    46
1040
0.0
1000
ACAD_MTEXT_DEFINED_HEIGHT_END
1000
MTEXTBEGIN
1070
    73
1070
     1
1070
    44
1040
1.0
1070
    74
1070
     0
1000
MTEXTEND
  0
SPLINE
  5
54B58
330
1F
100
AcDbEntity
  8
1
100
AcDbSpline
210
0.0
220
0.0
230
1.0
 70
     8
 71
     3
 72
    10
 73
     6
 74
     4
 42
0.0000000001
 43
0.0000000001
 44
0.000001
 12
0.9939981913532239
 22
-0.1093965062811404
 32
0.0
 13
0.9846601879733476
 23
-0.1744829912062825
 33
0.0
 40
0.0
 40
0.0
 40
0.0
 40
0.0
 40
0.2729697609933481
 40
0.5696278389164715
 40
0.8867687606915225
 40
0.8867687606915225
 40
0.8867687606915225
 40
0.8867687606915225
 10
59.15405615722669
 20
11.29786302896727
 30
0.0
 10
59.24449997346719
 20
11.28790904957624
 30
0.0
 10
59.43301341679734
 20
11.26499379057463
 30
0.0
 10
59.72539643129812
 20
11.22141784171029
 30
0.0
 10
59.92723770358056
 20
11.18785977486094
 30
0.0
 10
60.03132971679692
 20
11.1694145426392
 30
0.0
 11
59.15405615722669
 21
11.29786302896727
 31
0.0
 11
59.425014104004
 21
11.26478197427977
 31
0.0
 11
59.71851691162121
 21
11.22163011881102
 31
0.0
 11
60.03132971679692
 21
11.1694145426392
 31
0.0
  0
SPLINE
  5
54B59
330
1F
100
AcDbEntity
  8
1
100
AcDbSpline
210
0.0
220
0.0
230
1.0
 70
     8
 71
     3
 72
    56
 73
    52
 74
    50
 42
0.0000000001
 43
0.0000000001
 44
0.000001
 12
-0.9999999973384662
 22
-0.0000729593564862
 32
0.0
 13
0.9999999688642722
 23
-0.0002495424907634
 33
0.0
 40
0.0
 40
0.0
 40
0.0
 40
0.0
 40
0.345442679074505
 40
0.6888896339248643
 40
1.033155236005417
 40
1.287867330899099
 40
1.548111536117446
 40
1.800358867128026
 40
2.060957197459951
 40
2.393530606407262
 40
2.734671295356921
 40
3.074454177494014
 40
3.407139508863297
 40
3.736957054307867
 40
4.081619005168109
 40
4.420707103818548
 40
4.756233735105859
 40
5.091598916829717
 40
5.434016585142102
 40
5.769121316671294
 40
6.102741471089045
 40
6.615314631995243
 40
7.131163564364414
 40
7.644478160687539
 40
8.160279889619522
 40
8.680738616401146
 40
9.196026435569208
 40
9.536635767940794
 40
9.878551174167004
 40
10.22461154121131
 40
10.60145228066308
 40
10.97676858055231
 40
11.35889573095379
 40
11.50918079326285
 40
11.65604052546492
 40
11.80406806210348
 40
11.95290699754602
 40
12.09417303029829
 40
12.25060695890124
 40
12.54280924015625
 40
12.8284586630149
 40
13.11574013593828
 40
13.40469365475338
 40
13.69337892231561
 40
13.98638816610838
 40
14.26925018304902
 40
14.61197023292304
 40
14.95259428508415
 40
15.29467796946482
 40
15.81250869270013
 40
16.33267399543924
 40
16.33267399543924
 40
16.33267399543924
 40
16.33267399543924
 10
69.90002020751958
 20
5.199993155920394
 30
0.0
 10
69.78487264813455
 20
5.199984754828538
 30
0.0
 10
69.55516946312809
 20
5.192354671476407
 30
0.0
 10
69.21224997814815
 20
5.158161531818918
 30
0.0
 10
68.90216718528392
 20
5.106319775394781
 30
0.0
 10
68.62276724236759
 20
5.042874734809508
 30
0.0
 10
68.37637629630086
 20
4.973970625738976
 30
0.0
 10
68.13183531001616
 20
4.892368038559438
 30
0.0
 10
67.86911626363419
 20
4.790106439179511
 30
0.0
 10
67.58562945756458
 20
4.660625193934752
 30
0.0
 10
67.28783016523556
 20
4.500595151467259
 30
0.0
 10
67.00114666559784
 20
4.321343078223453
 30
0.0
 10
66.72966479112435
 20
4.126229064739924
 30
0.0
 10
66.46995925102467
 20
3.913126631000266
 30
0.0
 10
66.2230045334984
 20
3.682197891676065
 30
0.0
 10
65.99045613177986
 20
3.434163193337648
 30
0.0
 10
65.77648585967375
 20
3.173943536965812
 30
0.0
 10
65.57906423421712
 20
2.899588723458057
 30
0.0
 10
65.39999770270057
 20
2.61306836268494
 30
0.0
 10
65.24025346169401
 20
2.316010239643614
 30
0.0
 10
65.07632030942932
 20
1.957722436235851
 30
0.0
 10
64.92136173427295
 20
1.530139293011622
 30
0.0
 10
64.79462676894252
 20
1.031240522255022
 30
0.0
 10
64.71766195967799
 20
0.5211870895315374
 30
0.0
 10
64.69139547139249
 20
0.0044791831640447
 30
0.0
 10
64.71671806986186
 20
-0.5129388860771649
 30
0.0
 10
64.78474718916732
 20
-0.9674578515777326
 30
0.0
 10
64.87616484249435
 20
-1.35638798155089
 30
0.0
 10
64.97641028340471
 20
-1.684533859169582
 30
0.0
 10
65.10244046230212
 20
-2.016617406393919
 30
0.0
 10
65.25589239602703
 20
-2.349337520633102
 30
0.0
 10
65.43882955767731
 20
-2.680589694792443
 30
0.0
 10
65.60411888477824
 20
-2.934393418252286
 30
0.0
 10
65.73729629016148
 20
-3.117537970531254
 30
0.0
 10
65.82795696330191
 20
-3.235039871832199
 30
0.0
 10
65.92159910049208
 20
-3.349555705149269
 30
0.0
 10
66.017239221143
 20
-3.459954170403196
 30
0.0
 10
66.11785185383905
 20
-3.569671516559933
 30
0.0
 10
66.25482508725202
 20
-3.7107856168005
 30
0.0
 10
66.43283956658041
 20
-3.878975655975551
 30
0.0
 10
66.65321651444671
 20
-4.065193718021598
 30
0.0
 10
66.88267771801753
 20
-4.238312952974441
 30
0.0
 10
67.1221890397812
 20
-4.399064749990681
 30
0.0
 10
67.37193882407479
 20
-4.54717362137084
 30
0.0
 10
67.62773968166024
 20
-4.6802382815662
 30
0.0
 10
67.9069535995142
 20
-4.806274559618863
 30
0.0
 10
68.20814046670708
 20
-4.921029996849135
 30
0.0
 10
68.53509542853766
 20
-5.021544949869593
 30
0.0
 10
68.92475818422986
 20
-5.113854867596059
 30
0.0
 10
69.38038475884855
 20
-5.182713966739362
 30
0.0
 10
69.72662414927729
 20
-5.199957472782198
 30
0.0
 10
69.90001257812508
 20
-5.200000740563949
 30
0.0
 11
69.90002020751958
 21
5.199993155920394
 31
0.0
 11
69.55476721679701
 21
5.188518546545394
 31
0.0
 11
69.21301611816421
 21
5.154430411779769
 31
0.0
 11
68.87346228515639
 21
5.097667716467269
 31
0.0
 11
68.6250720874024
 21
5.041271232092269
 31
0.0
 11
68.37444647705092
 21
4.971172355139201
 31
0.0
 11
68.1351657763673
 21
4.891338370764144
 31
0.0
 11
67.89232214843758
 21
4.796794913732838
 31
0.0
 11
67.58980139648452
 21
4.658641837561019
 31
0.0
 11
67.28931006347659
 21
4.497142814123576
 31
0.0
 11
67.00119360839849
 21
4.317028068029769
 31
0.0
 11
66.7310596362305
 21
4.122844718420394
 31
0.0
 11
66.4760776416017
 21
3.913646720373576
 31
0.0
 11
66.2243381396485
 21
3.67823412271727
 31
0.0
 11
65.99241980468758
 21
3.43085863443602
 31
0.0
 11
65.77930792724621
 21
3.17170336099852
 31
0.0
 11
65.58343085205092
 21
2.899486564123576
 31
0.0
 11
65.40195807373061
 21
2.609111808264144
 31
0.0
 11
65.24324377929701
 21
2.313976310217269
 31
0.0
 11
65.1044422045899
 21
2.010601066076644
 31
0.0
 11
64.92979773437508
 21
1.528697989904769
 31
0.0
 11
64.80279120361342
 21
1.028728507482838
 31
0.0
 11
64.7261997119142
 21
0.5211601481078958
 31
0.0
 11
64.7000156298829
 21
0.0060234293579242
 31
0.0
 11
64.72545966064458
 21
-0.5138129964233542
 31
0.0
 11
64.80172308837899
 21
-1.023426033532699
 31
0.0
 11
64.87965735351571
 21
-1.354999519860768
 31
0.0
 11
64.9795566455079
 21
-1.681995369470199
 31
0.0
 11
65.1023364916993
 21
-2.005542732751449
 31
0.0
 11
65.2601734057618
 21
-2.347736336267131
 31
0.0
 11
65.4416004077149
 21
-2.676288582360768
 31
0.0
 11
65.65016516601571
 21
-2.996479012048268
 31
0.0
 11
65.73854407226571
 21
-3.118030525720199
 31
0.0
 11
65.82825812255859
 21
-3.234302498376393
 31
0.0
 11
65.92196234619149
 21
-3.348896004235824
 31
0.0
 11
66.01942786132821
 21
-3.461383797204574
 31
0.0
 11
66.11489447509768
 21
-3.565509773767131
 31
0.0
 11
66.223857487793
 21
-3.677753426110768
 31
0.0
 11
66.43624457275399
 21
-3.878437019860768
 31
0.0
 11
66.65443762695321
 21
-4.062793709313949
 31
0.0
 11
66.88376196777349
 21
-4.235828377282699
 31
0.0
 11
67.1236987963868
 21
-4.396839119470199
 31
0.0
 11
67.3719898120118
 21
-4.544116951501449
 31
0.0
 11
67.63194617187508
 21
-4.679309822595199
 31
0.0
 11
67.88975104248061
 21
-4.795703865563949
 31
0.0
 11
68.21001776611343
 21
-4.917713142907699
 31
0.0
 11
68.5356021777344
 21
-5.017810799157699
 31
0.0
 11
68.8684726611329
 21
-5.096668221032699
 31
0.0
 11
69.3804965869142
 21
-5.173999764001449
 31
0.0
 11
69.90001257812508
 21
-5.200000740563949
 31
0.0
  0
SPLINE
  5
54B5A
330
1F
100
AcDbEntity
  8
1
100
AcDbSpline
210
0.0
220
0.0
230
1.0
 70
     8
 71
     3
 72
     9
 73
     5
 74
     3
 42
0.0000000001
 43
0.0000000001
 44
0.000001
 12
0.9603132869219136
 22
-0.278923629262977
 32
0.0
 13
0.9442995354099645
 23
-0.3290872033740075
 33
0.0
 40
0.0
 40
0.0
 40
0.0
 40
0.0
 40
0.7348450070665264
 40
1.479601022990585
 40
1.479601022990585
 40
1.479601022990585
 40
1.479601022990585
 10
68.64061316406258
 20
8.977520011389202
 30
0.0
 10
68.875840305434
 20
8.909198132616944
 30
0.0
 10
69.34768949438364
 20
8.76543773423786
 30
0.0
 10
69.81558985072704
 20
8.609295915251074
 30
0.0
 10
70.05001410400399
 20
8.527599357092269
 30
0.0
 11
68.64061316406258
 21
8.977520011389202
 31
0.0
 11
69.34355505859389
 21
8.763347648107894
 31
0.0
 11
70.05001410400399
 21
8.527599357092269
 31
0.0
  0
SPLINE
  5
54B5B
330
1F
100
AcDbEntity
  8
1
100
AcDbSpline
210
0.0
220
0.0
230
1.0
 70
     8
 71
     3
 72
    18
 73
    14
 74
    12
 42
0.0000000001
 43
0.0000000001
 44
0.000001
 12
0.9775947559519689
 22
-0.210495826883124
 32
0.0
 13
0.9602144660513591
 23
-0.2792636374211717
 33
0.0
 40
0.0
 40
0.0
 40
0.0
 40
0.0
 40
0.5333439082107897
 40
1.107779624537678
 40
1.723354797019677
 40
2.308162769073101
 40
2.916598674837111
 40
3.560113329748777
 40
4.183693023625619
 40
5.057589400325875
 40
5.956706750495172
 40
6.843108628109385
 40
7.765135339238812
 40
7.765135339238812
 40
7.765135339238812
 40
7.765135339238812
 10
61.13230475341801
 20
10.95243456217039
 30
0.0
 10
61.30610282267994
 20
10.91501233984642
 30
0.0
 10
61.66671434451742
 20
10.83552468000309
 30
0.0
 10
62.22628647083798
 20
10.70558305945827
 30
0.0
 10
62.80137267705618
 20
10.56672505531791
 30
0.0
 10
63.38639375349817
 20
10.42080721085827
 30
0.0
 10
63.97950807818239
 20
10.26890773907602
 30
0.0
 10
64.58422745055313
 20
10.11027488889258
 30
0.0
 10
65.27364550674509
 20
9.925824798130507
 30
0.0
 10
66.04425468515555
 20
9.715222706323636
 30
0.0
 10
66.89814177160605
 20
9.477071881053877
 30
0.0
 10
67.76630128296469
 20
9.230418733005397
 30
0.0
 10
68.34549870202517
 20
9.063349522439031
 30
0.0
 10
68.64061316406258
 20
8.977520011389202
 30
0.0
 11
61.13230475341801
 21
10.95243456217039
 31
0.0
 11
61.65312537109379
 21
10.83753588052977
 31
0.0
 11
62.21274145996099
 21
10.70789720865477
 31
0.0
 11
62.81115302001959
 21
10.56354906412358
 31
0.0
 11
63.37860449707041
 21
10.42213060709227
 31
0.0
 11
63.9680362597657
 21
10.27125170084227
 31
0.0
 11
64.5905185595704
 21
10.10807421060789
 31
0.0
 11
65.19292029296889
 21
9.946941398107897
 31
0.0
 11
66.03594550048831
 21
9.716716788732897
 31
0.0
 11
66.90202673828139
 21
9.475231193029769
 31
0.0
 11
67.7547183886719
 21
9.233104728186019
 31
0.0
 11
68.64061316406258
 21
8.977520011389202
 31
0.0
  0
SPLINE
  5
54B5C
330
1F
100
AcDbEntity
  8
1
100
AcDbSpline
210
0.0
220
0.0
230
1.0
 70
     8
 71
     3
 72
    37
 73
    33
 74
    31
 42
0.0000000001
 43
0.0000000001
 44
0.000001
 12
0.9441111917890602
 22
-0.3296271492742075
 32
0.0
 13
0.4601198425223931
 23
-0.8878568187028628
 33
0.0
 40
0.0
 40
0.0
 40
0.0
 40
0.0
 40
0.8083824956881315
 40
1.644479507183101
 40
2.493266844779983
 40
3.363734089813589
 40
4.312698579940795
 40
5.270568765785331
 40
5.759274703376277
 40
6.246744268859064
 40
6.73587088429304
 40
7.222377311771928
 40
7.690001998303131
 40
8.153851389677393
 40
8.616568337460059
 40
9.074054180044331
 40
9.535893699124162
 40
9.990685472413732
 40
10.44111490690935
 40
10.88260187309945
 40
11.28568693886667
 40
11.67935634278467
 40
12.0656431579805
 40
12.44054196975643
 40
12.8123682024436
 40
13.17015040462176
 40
13.51600763302903
 40
13.84532011729104
 40
14.14943727039559
 40
14.43553863186618
 40
14.70526531249985
 40
14.95418097071383
 40
14.95418097071383
 40
14.95418097071383
 40
14.95418097071383
 10
70.05001410400399
 20
8.527599357092269
 30
0.0
 10
70.30441509114584
 20
8.438777751233319
 30
0.0
 10
70.81832183831193
 20
8.247517860269772
 30
0.0
 10
71.58453786240514
 20
7.925010590396854
 30
0.0
 10
72.35550984083293
 20
7.562305795406409
 30
0.0
 10
73.14404263178878
 20
7.150337661812038
 30
0.0
 10
73.94559114165085
 20
6.686519789810654
 30
0.0
 10
74.61849787427161
 20
6.256082566440373
 30
0.0
 10
75.14972169137803
 20
5.890742769015748
 30
0.0
 10
75.54592328427929
 20
5.605026833631953
 30
0.0
 10
75.93506290668395
 20
5.310984295765274
 30
0.0
 10
76.31244264465539
 20
5.012544858386193
 30
0.0
 10
76.67675658395708
 20
4.711353820047295
 30
0.0
 10
77.02868693086137
 20
4.407790210207246
 30
0.0
 10
77.37164786262724
 20
4.099158860446804
 30
0.0
 10
77.70767711013181
 20
3.783974852847435
 30
0.0
 10
78.03517835120572
 20
3.463703604688856
 30
0.0
 10
78.35429688913421
 20
3.138367880617137
 30
0.0
 10
78.66199528153121
 20
2.811467327742272
 30
0.0
 10
78.95135199643025
 20
2.491099849165449
 30
0.0
 10
79.22197932457368
 20
2.179425202625782
 30
0.0
 10
79.47485738441412
 20
1.876802057415943
 30
0.0
 10
79.71613306506583
 20
1.576816874835393
 30
0.0
 10
79.94729898314202
 20
1.278129341572953
 30
0.0
 10
80.16703157518312
 20
0.9826924771455953
 30
0.0
 10
80.37543085590241
 20
0.6909738862299298
 30
0.0
 10
80.57003475913987
 20
0.4068971253504349
 30
0.0
 10
80.74906395347358
 20
0.133915371466387
 30
0.0
 10
80.91190429793503
 20
-0.1257868896554435
 30
0.0
 10
81.05897028214206
 20
-0.3718584666450535
 30
0.0
 10
81.19145381746747
 20
-0.6051385562812153
 30
0.0
 10
81.27279671809516
 20
-0.7577117595830398
 30
0.0
 10
81.31097372924807
 20
-0.8313789143921042
 30
0.0
 11
70.05001410400399
 21
8.527599357092269
 31
0.0
 11
70.807597722168
 21
8.245555900061019
 31
0.0
 11
71.5783115283204
 21
7.921428702795394
 31
0.0
 11
72.34637793457039
 21
7.560161612951701
 31
0.0
 11
73.1179614916993
 21
7.157207511389201
 31
0.0
 11
73.93938025390639
 21
6.682018302404769
 31
0.0
 11
74.74633368408209
 21
6.165935538732837
 31
0.0
 11
75.14901312744149
 21
5.889019034826644
 31
0.0
 11
75.54439886962899
 21
5.603893302404769
 31
0.0
 11
75.93465765869149
 21
5.309032462561019
 31
0.0
 11
76.31624945556649
 21
5.007244132482838
 31
0.0
 11
76.6766696826173
 21
4.709301017248519
 31
0.0
 11
77.0278964892579
 21
4.406322501623576
 31
0.0
 11
77.37186011230483
 21
4.096813224279769
 31
0.0
 11
77.70552405273452
 21
3.78382494302977
 31
0.0
 11
78.0357166186524
 21
3.460918448889145
 31
0.0
 11
78.35418280517592
 21
3.13624193521727
 31
0.0
 11
78.66289099609381
 21
2.80823900552977
 31
0.0
 11
78.9588046923829
 21
2.480602286779769
 31
0.0
 11
79.22305640136733
 21
2.176219962561019
 31
0.0
 11
79.47547491943367
 21
1.874126456701701
 31
0.0
 11
79.717551793213
 21
1.573101066076644
 31
0.0
 11
79.94696768676769
 21
1.276592277014144
 31
0.0
 11
80.1688457385255
 21
0.9782219156860207
 31
0.0
 11
80.3767619982911
 21
0.6870537027953958
 31
0.0
 11
80.57216223632819
 21
0.4016838297485208
 31
0.0
 11
80.75268896972659
 21
0.1262626871703958
 31
0.0
 11
80.91414221679702
 21
-0.1314582600952292
 31
0.0
 11
81.06082877075198
 21
-0.3770942464233542
 31
0.0
 11
81.19378622924807
 21
-0.6117744222046042
 31
0.0
 11
81.31097372924807
 21
-0.8313789143921042
 31
0.0
  0
SPLINE
  5
54B5D
330
1F
100
AcDbEntity
  8
1
100
AcDbSpline
210
0.0
220
0.0
230
1.0
 70
     8
 71
     3
 72
    64
 73
    60
 74
    58
 42
0.0000000001
 43
0.0000000001
 44
0.000001
 12
0.9999999976027297
 22
0.0000692426238353
 32
0.0
 13
-0.9999999719526073
 23
0.0002368433759521
 33
0.0
 40
0.0
 40
0.0
 40
0.0
 40
0.0
 40
0.3374190964439108
 40
0.6773914010439764
 40
1.019911651533011
 40
1.352142635755151
 40
1.693066038515865
 40
2.042667927938248
 40
2.310164618892736
 40
2.591203251274203
 40
2.885763865020379
 40
3.174760143389369
 40
3.284467825271904
 40
3.3986219101275
 40
3.517229077803979
 40
3.622135851970949
 40
3.721280166375286
 40
3.831251186482983
 40
3.95204697352379
 40
4.083636686280857
 40
4.275330389386231
 40
4.424017139584525
 40
4.529678794419051
 40
4.59380766557837
 40
4.734420365890477
 40
4.985745701574267
 40
5.236696413603034
 40
5.475218035428525
 40
5.702583326615248
 40
5.918743282244577
 40
6.123702580473009
 40
6.647465346935281
 40
7.144947289306799
 40
7.657727828884173
 40
8.163132935634685
 40
8.500766745983266
 40
8.841850067950185
 40
9.186445028031284
 40
9.514333228165256
 40
9.853441834433306
 40
10.20385901110017
 40
10.47236430950708
 40
10.75988189842908
 40
11.06640438449334
 40
11.35795789144739
 40
11.65393283904728
 40
11.86469131291772
 40
12.24627859719351
 40
12.56578312315863
 40
12.83643926831479
 40
13.13054947344815
 40
13.42336127629145
 40
13.72624593097752
 40
14.0148380414204
 40
14.28916038932708
 40
14.80751342159216
 40
15.30649973848985
 40
15.82270679006097
 40
16.33305485315848
 40
16.33305485315848
 40
16.33305485315848
 40
16.33305485315848
 10
70.05001410400399
 20
-5.200000740563949
 30
0.0
 10
70.16248713588234
 20
-5.199992952636093
 30
0.0
 10
70.38835168651266
 20
-5.192654306969215
 30
0.0
 10
70.7269365138863
 20
-5.159532611318028
 30
0.0
 10
71.06092673962866
 20
-5.104515764467052
 30
0.0
 10
71.39093543304761
 20
-5.027898670990304
 30
0.0
 10
71.71757355923358
 20
-4.929417610867386
 30
0.0
 10
72.01675488859328
 20
-4.817034363992356
 30
0.0
 10
72.290400054245
 20
-4.69529657998335
 30
0.0
 10
72.54090456515467
 20
-4.56760532981858
 30
0.0
 10
72.79017712775019
 20
-4.422662688121907
 30
0.0
 10
72.98322124324773
 20
-4.295396561533047
 30
0.0
 10
73.12225483067058
 20
-4.195910424847602
 30
0.0
 10
73.2136450131012
 20
-4.127486768461968
 30
0.0
 10
73.30219862777113
 20
-4.057993514136393
 30
0.0
 10
73.38539254443339
 20
-3.989818147976881
 30
0.0
 10
73.46504501667453
 20
-3.921895844875582
 30
0.0
 10
73.54727620701234
 20
-3.84886600231615
 30
0.0
 10
73.63576810071876
 20
-3.766640712987747
 30
0.0
 10
73.74178158756066
 20
-3.663310375682125
 30
0.0
 10
73.85097094529928
 20
-3.549993178071644
 30
0.0
 10
73.95059186613534
 20
-3.439597078721247
 30
0.0
 10
74.01978796538227
 20
-3.359078455951236
 30
0.0
 10
74.08592927868449
 20
-3.279508590404731
 30
0.0
 10
74.1807735915101
 20
-3.160678158865945
 30
0.0
 10
74.30812628724175
 20
-2.988219048424615
 30
0.0
 10
74.44511546252181
 20
-2.782655180026827
 30
0.0
 10
74.56814757099838
 20
-2.577719360135919
 30
0.0
 10
74.67634974528602
 20
-2.37768890008183
 30
0.0
 10
74.77102665331855
 20
-2.183290126181373
 30
0.0
 10
74.89741023513054
 20
-1.894735990853187
 30
0.0
 10
75.03498879979517
 20
-1.509025187479827
 30
0.0
 10
75.15890687818151
 20
-1.012156535240282
 30
0.0
 10
75.23314997457896
 20
-0.5115866078573167
 30
0.0
 10
75.25544385532922
 20
-0.0594461127389013
 30
0.0
 10
75.24289750997758
 20
0.3353151883009358
 30
0.0
 10
75.20981121291282
 20
0.6750620369294963
 30
0.0
 10
75.15493812627195
 20
1.008682961701666
 30
0.0
 10
75.07879095451506
 20
1.337397788494908
 30
0.0
 10
74.98112836902979
 20
1.662417730337223
 30
0.0
 10
74.86911857471816
 20
1.961743796369365
 30
0.0
 10
74.74649507739724
 20
2.238026618277948
 30
0.0
 10
74.61593386780688
 20
2.494353846578302
 30
0.0
 10
74.46705485711209
 20
2.7494614282327
 30
0.0
 10
74.3022234298829
 20
2.997925998755987
 30
0.0
 10
74.14273208917425
 20
3.211121340287913
 30
0.0
 10
73.95398997985839
 20
3.439360254861212
 30
0.0
 10
73.74703217520653
 20
3.662383123740486
 30
0.0
 10
73.51110149003957
 20
3.884611817013492
 30
0.0
 10
73.28528297557983
 20
4.074253959659425
 30
0.0
 10
73.05662891934338
 20
4.246073146700061
 30
0.0
 10
72.80967330584124
 20
4.410626567918807
 30
0.0
 10
72.55531478267721
 20
4.559909327232398
 30
0.0
 10
72.29835132334125
 20
4.69162417103648
 30
0.0
 10
71.96907080966932
 20
4.83851986318452
 30
0.0
 10
71.56291311319762
 20
4.983729659294604
 30
0.0
 10
71.06631494368892
 20
5.108141580403956
 30
0.0
 10
70.56255075222907
 20
5.183226652357652
 30
0.0
 10
70.22013012026519
 20
5.199952865067669
 30
0.0
 10
70.05001410400399
 20
5.199993155920394
 30
0.0
 11
70.05001410400399
 21
-5.200000740563949
 31
0.0
 11
70.38725623046889
 21
-5.189044930017131
 31
0.0
 11
70.72561224853519
 21
-5.155933357751449
 31
0.0
 11
71.06357916748061
 21
-5.100269295251449
 31
0.0
 11
71.3872028247072
 21
-5.025135017907699
 31
0.0
 11
71.71361121093759
 21
-4.926715828454574
 31
0.0
 11
72.04088934814459
 21
-4.803791023767131
 31
0.0
 11
72.2852893725587
 21
-4.695056892907699
 31
0.0
 11
72.5356784716798
 21
-4.567432381188949
 31
0.0
 11
72.7903171435548
 21
-4.419361092126393
 31
0.0
 11
73.03160437500008
 21
-4.260303474938949
 31
0.0
 11
73.1208225146485
 21
-4.196460701501449
 31
0.0
 11
73.2121997729493
 21
-4.128040291345199
 31
0.0
 11
73.30551489746099
 21
-4.054828621423324
 31
0.0
 11
73.38665350830092
 21
-3.988330818688949
 31
0.0
 11
73.46209296142581
 21
-3.923999764001449
 31
0.0
 11
73.54431494628909
 21
-3.850971199548297
 31
0.0
 11
73.63281592285159
 21
-3.768756844079574
 31
0.0
 11
73.72703894531259
 21
-3.676898933923324
 31
0.0
 11
73.86005743896498
 21
-3.538867928063949
 31
0.0
 11
73.95967444335951
 21
-3.428485847985824
 31
0.0
 11
74.02853735839849
 21
-3.348346687829574
 31
0.0
 11
74.0695300952149
 21
-3.299030281579574
 31
0.0
 11
74.15725287353518
 21
-3.189136482751449
 31
0.0
 11
74.30654486572279
 21
-2.986957527673324
 31
0.0
 11
74.44570502197279
 21
-2.778125740563949
 31
0.0
 11
74.56847723876959
 21
-2.573627449548296
 31
0.0
 11
74.67665442382821
 21
-2.3736457600952
 31
0.0
 11
74.77130469238289
 21
-2.179309822595199
 31
0.0
 11
74.85352667724621
 21
-1.991565681970199
 31
0.0
 11
75.0294986621094
 21
-1.498249031579574
 31
0.0
 11
75.14988287841811
 21
-1.015552498376421
 31
0.0
 11
75.22510870849621
 21
-0.5083198323607974
 31
0.0
 11
75.25001105224621
 21
-0.0035285725952292
 31
0.0
 11
75.23928412353519
 21
0.3339348063110208
 31
0.0
 11
75.20622595703139
 21
0.6734123453735778
 31
0.0
 11
75.1503024951173
 21
1.013439200842269
 31
0.0
 11
75.0762973681642
 21
1.332866691076644
 31
0.0
 11
74.97872504150399
 21
1.657634757482838
 31
0.0
 11
74.8558994189454
 21
1.985820792639201
 31
0.0
 11
74.7469821826173
 21
2.231243155920394
 31
0.0
 11
74.6164813891603
 21
2.487438224279769
 31
0.0
 11
74.46198614990248
 21
2.752178214514145
 31
0.0
 11
74.30080756103518
 21
2.99512865396727
 31
0.0
 11
74.12351569091811
 21
3.23212816568602
 31
0.0
 11
73.9892002001954
 21
3.39454271646727
 31
0.0
 11
73.7296558276368
 21
3.67426683756102
 31
0.0
 11
73.49706610595709
 21
3.89332201334227
 31
0.0
 11
73.28981360351571
 21
4.067394278967269
 31
0.0
 11
73.05467566406258
 21
4.244060538732838
 31
0.0
 11
72.81101569091799
 21
4.406444571936019
 31
0.0
 11
72.54978522216799
 21
4.559734366857894
 31
0.0
 11
72.29297217285171
 21
4.691387198889201
 31
0.0
 11
72.04244574462899
 21
4.803142569982838
 31
0.0
 11
71.55434760009768
 21
4.977642081701701
 31
0.0
 11
71.07032355224621
 21
5.098918937170394
 31
0.0
 11
70.55974921142592
 21
5.174968741857894
 31
0.0
 11
70.05001410400399
 21
5.199993155920394
 31
0.0
  0
SPLINE
  5
54B5E
330
1F
100
AcDbEntity
  8
1
100
AcDbSpline
210
0.0
220
0.0
230
1.0
 70
     8
 71
     3
 72
    29
 73
    25
 74
    23
 42
0.0000000001
 43
0.0000000001
 44
0.000001
 12
0.9999998154086332
 22
0.0006076040649003
 32
0.0
 13
0.0859107384651211
 23
0.9963028380047793
 33
0.0
 40
0.0
 40
0.0
 40
0.0
 40
0.0
 40
0.7671199296735811
 40
1.536854420461745
 40
2.307476727085568
 40
3.077218851214646
 40
3.844339390607028
 40
4.611477114665451
 40
5.381269819471673
 40
6.151928265694363
 40
6.921700066999327
 40
7.688847781081387
 40
8.455184083126573
 40
9.224178949643654
 40
9.994047668203871
 40
10.76300917794192
 40
11.52930339426554
 40
12.29171394284823
 40
13.05694882906452
 40
13.82298959172494
 40
14.58794791634947
 40
15.35012882298953
 40
15.96307553540755
 40
16.57600564145746
 40
16.57600564145746
 40
16.57600564145746
 40
16.57600564145746
 10
70.05001410400399
 20
-10.92546460775145
 30
0.0
 10
70.30572070002728
 20
-10.9253092393556
 30
0.0
 10
70.81817072729677
 20
-10.90782406694954
 30
0.0
 10
71.58387125662409
 20
-10.82934992498463
 30
0.0
 10
72.34356106677285
 20
-10.70010312569869
 30
0.0
 10
73.09208108437525
 20
-10.52063197313597
 30
0.0
 10
73.82573172253231
 20
-10.29149765921167
 30
0.0
 10
74.54183616735
 20
-10.01226457900232
 30
0.0
 10
75.23848753892216
 20
-9.684815472635788
 30
0.0
 10
75.91254847245884
 20
-9.311272018891024
 30
0.0
 10
76.55944104784402
 20
-8.894051520380731
 30
0.0
 10
77.17553749922737
 20
-8.434925880603691
 30
0.0
 10
77.75818994801716
 20
-7.93443816794273
 30
0.0
 10
78.30631517792764
 20
-7.395102265750574
 30
0.0
 10
78.81768903987898
 20
-6.81963043840061
 30
0.0
 10
79.28873525591808
 20
-6.211839090157626
 30
0.0
 10
79.71596726332936
 20
-5.575446250220271
 30
0.0
 10
80.09726200923827
 20
-4.911950018677801
 30
0.0
 10
80.43234459084761
 20
-4.224068965969486
 30
0.0
 10
80.71986065221167
 20
-3.5140544657657
 30
0.0
 10
80.95703775236172
 20
-2.786730553173512
 30
0.0
 10
81.12926680067204
 20
-2.093794600460499
 30
0.0
 10
81.24604886734713
 20
-1.441106823793112
 30
0.0
 10
81.29342130323534
 20
-1.034933582444138
 30
0.0
 10
81.31097372924807
 20
-0.8313789143921042
 30
0.0
 11
70.05001410400399
 21
-10.92546460775145
 31
0.0
 11
70.8166843310548
 21
-10.89918897298585
 31
0.0
 11
71.5824314013673
 21
-10.82094190267335
 31
0.0
 11
72.34212836181649
 21
-10.69163892415773
 31
0.0
 11
73.09063300048842
 21
-10.51207349447023
 31
0.0
 11
73.82280310546889
 21
-10.28316114095457
 31
0.0
 11
74.5376010791017
 21
-10.00465772298582
 31
0.0
 11
75.23433264648452
 21
-9.677326180017161
 31
0.0
 11
75.90839728271498
 21
-9.30376050618898
 31
0.0
 11
76.55522498046889
 21
-8.886432625329602
 31
0.0
 11
77.17021521484389
 21
-8.427844978845227
 31
0.0
 11
77.75167426025399
 21
-7.928668953454603
 31
0.0
 11
78.29988440429701
 21
-7.389392830407728
 31
0.0
 11
78.81125220214849
 21
-6.813892342126392
 31
0.0
 11
79.28219183837899
 21
-6.206012703454603
 31
0.0
 11
79.7091136828613
 21
-5.569660164392103
 31
0.0
 11
80.089133824463
 21
-4.908710457360797
 31
0.0
 11
80.42424353515631
 21
-4.220752693688949
 31
0.0
 11
80.71164664184582
 21
-3.510669685876421
 31
0.0
 11
80.94853171264659
 21
-2.783313728845199
 31
0.0
 11
81.13209494506838
 21
-2.043567635095199
 31
0.0
 11
81.23989066040051
 21
-1.440174080407699
 31
0.0
 11
81.31097372924807
 21
-0.8313789143921042
 31
0.0
  0
ARC
  5
54B5F
330
1F
100
AcDbEntity
  8
1
100
AcDbCircle
 10
69.90001300000009
 20
0.0000115289672351
 30
0.0
 40
5.000002999999998
100
AcDbArc
 50
269.9999959999993
 51
359.9999499999983
  0
ARC
  5
54B60
330
1F
100
AcDbEntity
  8
1
100
AcDbCircle
 10
69.90001300000009
 20
0.0000115289672351
 30
0.0
 40
5.000002999999998
100
AcDbArc
 50
180.0000529999995
 51
270.0000089999996
  0
ARC
  5
54B61
330
1F
100
AcDbEntity
  8
1
100
AcDbCircle
 10
69.90001300000009
 20
-0.0000194710327435
 30
0.0
 40
5.000002999999998
100
AcDbArc
 50
89.99992199999963
 51
179.9999470000005
  0
ARC
  5
54B62
330
1F
100
AcDbEntity
  8
1
100
AcDbCircle
 10
69.90001300000009
 20
-0.0000194710327435
 30
0.0
 40
5.000002999999998
100
AcDbArc
 50
0.0000499999985184
 51
89.99993599999974
  0
ARC
  5
54B63
330
1F
100
AcDbEntity
  8
1
100
AcDbCircle
 10
70.05001400000009
 20
0.0000115289672351
 30
0.0
 40
4.750003999999997
100
AcDbArc
 50
270.0000430000001
 51
0.0000729999982277
  0
ARC
  5
54B64
330
1F
100
AcDbEntity
  8
1
100
AcDbCircle
 10
70.05001400000009
 20
0.0000115289672351
 30
0.0
 40
4.750003999999997
100
AcDbArc
 50
0.0000630000004781
 51
89.9999569999999
  0
ARC
  5
54B65
330
1F
100
AcDbEntity
  8
1
100
AcDbCircle
 10
70.05001400000009
 20
0.0000115289672351
 30
0.0
 40
4.750003999999997
100
AcDbArc
 50
89.99999700000067
 51
179.9999299999995
  0
ARC
  5
54B66
330
1F
100
AcDbEntity
  8
1
100
AcDbCircle
 10
70.05001400000009
 20
0.0000115289672351
 30
0.0
 40
4.750003999999997
100
AcDbArc
 50
180.0000210000001
 51
270.0000430000001
  0
ARC
  5
54B67
330
1F
100
AcDbEntity
  8
1
100
AcDbCircle
 10
68.2114060000001
 20
0.0000115289672351
 30
0.0
 40
0.440895
100
AcDbArc
 50
103.4785079999992
 51
256.5214850000006
  0
ARC
  5
54B68
330
1F
100
AcDbEntity
  8
1
100
AcDbCircle
 10
67.91612600000011
 20
1.232006528967274
 30
0.0
 40
0.8260009999999999
100
AcDbArc
 50
283.4780969999994
 51
16.52191799999966
  0
ARC
  5
54B69
330
1F
100
AcDbEntity
  8
1
100
AcDbCircle
 10
69.13071000000011
 20
1.592266528967256
 30
0.0
 40
0.440895
100
AcDbArc
 50
43.47854800000002
 51
196.5214590000014
  0
ARC
  5
54B6A
330
1F
100
AcDbEntity
  8
1
100
AcDbCircle
 10
71.88862200000008
 20
0.0000115289672351
 30
0.0
 40
0.440895
100
AcDbArc
 50
283.4785130000001
 51
76.52149699999985
  0
ARC
  5
54B6B
330
1F
100
AcDbEntity
  8
1
100
AcDbCircle
 10
69.13071000000011
 20
-1.592273471032739
 30
0.0
 40
0.440895
100
AcDbArc
 50
163.4785359999992
 51
316.521452
  0
ARC
  5
54B6C
330
1F
100
AcDbEntity
  8
1
100
AcDbCircle
 10
72.1839020000001
 20
-1.232013471032701
 30
0.0
 40
0.8260009999999999
100
AcDbArc
 50
103.4780990000012
 51
196.5219170000003
  0
ARC
  5
54B6D
330
1F
100
AcDbEntity
  8
1
100
AcDbCircle
 10
70.05001400000009
 20
2.46400052896726
 30
0.0
 40
0.8260009999999999
100
AcDbArc
 50
223.4780780000007
 51
316.5219300000013
  0
ARC
  5
54B6E
330
1F
100
AcDbEntity
  8
1
100
AcDbCircle
 10
70.9693180000001
 20
1.592266528967256
 30
0.0
 40
0.440895
100
AcDbArc
 50
343.4785419999992
 51
136.5214569999994
  0
ARC
  5
54B6F
330
1F
100
AcDbEntity
  8
1
100
AcDbCircle
 10
70.05001400000009
 20
-2.464008471032712
 30
0.0
 40
0.8260009999999999
100
AcDbArc
 50
43.47808299999787
 51
136.5219249999996
  0
ARC
  5
54B70
330
1F
100
AcDbEntity
  8
1
100
AcDbCircle
 10
70.9693180000001
 20
-1.592273471032739
 30
0.0
 40
0.440895
100
AcDbArc
 50
223.4785489999991
 51
16.52145399999874
  0
ARC
  5
54B71
330
1F
100
AcDbEntity
  8
1
100
AcDbCircle
 10
72.1839020000001
 20
1.232006528967274
 30
0.0
 40
0.8260009999999999
100
AcDbArc
 50
163.4780849999989
 51
256.5219009999988
  0
ARC
  5
54B72
330
1F
100
AcDbEntity
  8
1
100
AcDbCircle
 10
70.05001400000009
 20
0.0000115289672351
 30
0.0
 40
3.000002999999998
100
AcDbArc
 50
270.0000500000002
 51
89.99997299999956
  0
ARC
  5
54B73
330
1F
100
AcDbEntity
  8
1
100
AcDbCircle
 10
70.05001400000009
 20
0.0000115289672351
 30
0.0
 40
3.000002999999998
100
AcDbArc
 50
90.00004499999965
 51
269.9999620000004
  0
ARC
  5
54B74
330
1F
100
AcDbEntity
  8
1
100
AcDbCircle
 10
67.91612600000011
 20
-1.232013471032701
 30
0.0
 40
0.8260009999999999
100
AcDbArc
 50
343.4780919999988
 51
76.5219060000002
  0
LINE
  5
54B80
330
1F
100
AcDbEntity
  8
1
100
AcDbLine
 10
74.9000200000001
 20
0.0000115289672351
 30
0.0
 11
74.80001400000009
 21
0.0000115289672351
 31
0.0
  0
LINE
  5
54B81
330
1F
100
AcDbEntity
  8
1
100
AcDbLine
 10
64.90001300000009
 20
0.0000115289672635
 30
0.0
 11
65.3050190000001
 21
0.0000115289672351
 31
0.0
  0
LINE
  5
54B82
330
1F
100
AcDbEntity
  8
1
100
AcDbLine
 10
60.63870400000009
 20
10.95244052896728
 30
0.0
 11
60.0313370000001
 21
11.16941352896728
 31
0.0
  0
LINE
  5
54B83
330
1F
100
AcDbEntity
  8
1
100
AcDbLine
 10
64.05001400000009
 20
-10.92546447103268
 30
0.0
 11
64.05001400000009
 21
-10.95244247103275
 31
0.0
  0
LINE
  5
54B84
330
1F
100
AcDbEntity
  8
1
100
AcDbLine
 10
65.1727710000001
 20
-10.92546447103268
 30
0.0
 11
70.05001400000009
 21
-10.92546447103268
 31
0.0
  0
LINE
  5
54B85
330
1F
100
AcDbEntity
  8
1
100
AcDbLine
 10
64.05001400000009
 20
-10.92546447103268
 30
0.0
 11
65.1727710000001
 21
-10.92546447103268
 31
0.0
  0
LINE
  5
54B86
330
1F
100
AcDbEntity
  8
1
100
AcDbLine
 10
59.154071
 20
11.29786252896727
 30
0.0
 11
64.05001400000009
 21
11.29786252896727
 31
0.0
  0
LINE
  5
54B89
330
1F
100
AcDbEntity
  8
1
100
AcDbLine
 10
59.05001400000009
 20
-11.1694224710327
 30
0.0
 11
64.05001400000009
 21
-11.1694224710327
 31
0.0
  0
LINE
  5
54B8A
330
1F
100
AcDbEntity
  8
1
100
AcDbLine
 10
59.05001400000009
 20
-10.95244247103275
 30
0.0
 11
59.05001400000009
 21
-11.1694224710327
 31
0.0
  0
LINE
  5
54B8B
330
1F
100
AcDbEntity
  8
1
100
AcDbLine
 10
59.05001400000009
 20
-10.95244247103275
 30
0.0
 11
64.05001400000009
 21
-10.95244247103275
 31
0.0
  0
LINE
  5
54B8C
330
1F
100
AcDbEntity
  8
1
100
AcDbLine
 10
69.90001300000009
 20
-5.200000471032693
 30
0.0
 11
70.05001400000009
 21
-5.200000471032693
 31
0.0
  0
LINE
  5
54B8D
330
1F
100
AcDbEntity
  8
1
100
AcDbLine
 10
69.90001300000009
 20
5.199993528967268
 30
0.0
 11
70.05001400000009
 21
5.199993528967268
 31
0.0
  0
LINE
  5
54B8E
330
1F
100
AcDbEntity
  8
1
100
AcDbLine
 10
59.05001400000009
 20
10.95243452896724
 30
0.0
 11
61.1323120000001
 21
10.95243452896724
 31
0.0
  0
LINE
  5
54B8F
330
1F
100
AcDbEntity
  8
1
100
AcDbLine
 10
59.05001400000009
 20
11.16941452896728
 30
0.0
 11
59.05001400000009
 21
10.95243452896724
 31
0.0
  0
LINE
  5
54B90
330
1F
100
AcDbEntity
  8
1
100
AcDbLine
 10
59.05001400000009
 20
11.16941452896728
 30
0.0
 11
60.0313370000001
 21
11.16941452896728
 31
0.0
  0
LINE
  5
54B92
330
1F
100
AcDbEntity
  8
1
100
AcDbLine
 10
57.55001400000009
 20
0.0000115289672635
 30
0.0
 11
57.55001400000009
 21
-11.32985347103272
 31
0.0
  0
LINE
  5
54B93
330
1F
100
AcDbEntity
  8
1
100
AcDbLine
 10
57.55001400000009
 20
0.0000115289672635
 30
0.0
 11
57.55001400000009
 21
11.32987552896728
 31
0.0
  0
LINE
  5
54B95
330
1F
100
AcDbEntity
  8
1
100
AcDbLine
 10
52.55001400000009
 20
-12.24998847103274
 30
0.0
 11
52.55001400000009
 21
0.0000115289672635
 31
0.0
  0
LINE
  5
54B96
330
1F
100
AcDbEntity
  8
1
100
AcDbLine
 10
52.54999399402159
 20
0.0000115289672635
 30
0.0
 11
52.54999399402159
 21
12.25001152896729
 31
0.0
  0
LINE
  5
54B97
330
1F
100
AcDbEntity
  8
1
100
AcDbLine
 10
70.05001400000009
 20
4.740032528967248
 30
0.0
 11
70.05001400000009
 21
4.750011528967235
 31
0.0
  0
DIMENSION
  5
54BAC
330
1F
100
AcDbEntity
  8
2
100
AcDbDimension
  2
*D5
 10
110.1737962917955
 20
-12.69998847103252
 30
0.0
 11
110.1737962917955
 21
-1.749988471032525
 31
0.0
 70
   160
  1
%%c<>
 71
     5
 42
25.39999999999996
  3
\M+18352\M+18373\M+1815B - ISO-25
100
AcDbAlignedDimension
 13
69.8631746328856
 23
12.70001152896745
 33
0.0
 14
86.26288300000011
 24
-12.69998847103252
 34
0.0
 50
270.0
100
AcDbRotatedDimension
1001
ACAD
1000
DSTYLE
1002
{
1070
     4
1000
%%c[]"
1070
    40
1040
1.0
1070
    76
1070
     1
1070
   143
1040
0.03937
1070
   170
1070
     1
1070
   171
1070
     3
1070
   173
1070
     1
1070
   271
1070
     8
1070
   285
1070
     4
1070
   344
1005
50E6F
1002
}
  0
DIMENSION
  5
54BAD
330
1F
100
AcDbEntity
  8
2
100
AcDbDimension
  2
*D6
 10
69.8499940000001
 20
0.0000115289675193
 30
0.0
 11
105.1630517280509
 21
28.81567390784623
 31
0.0
 70
   164
 71
     5
 42
12.70000000000012
  3
\M+18352\M+18373\M+1815B - ISO-25
100
AcDbRadialDimension
 15
79.68973673200051
 25
8.029299353429166
 35
0.0
 40
0.0
1001
ACAD
1000
DSTYLE
1002
{
1070
     4
1000
"
1070
    40
1040
1.0
1070
   143
1040
0.03937
1070
   170
1070
     1
1070
   171
1070
     3
1070
   271
1070
     8
1070
   285
1070
     4
1002
}
  0
LINE
  5
54CA9
330
1F
100
AcDbEntity
  8
1
100
AcDbLine
 10
64.0499940000001
 20
11.83001152786724
 30
0.0
 11
68.85899400000011
 21
12.70001152786719
 31
0.0
1001
ACAD
1000
RTMaterial
1005
0
  0
LINE
  5
54CAB
330
1F
100
AcDbEntity
  8
1
100
AcDbLine
 10
57.54999400000009
 20
11.33001152786724
 30
0.0
 11
64.0499940000001
 21
11.33001152786727
 31
0.0
1001
ACAD
1000
RTMaterial
1005
0
  0
LINE
  5
54CAE
330
1F
100
AcDbEntity
  8
1
100
AcDbLine
 10
68.85899400000011
 20
12.70001152786719
 30
0.0
 11
69.8499940000001
 21
12.70001152786719
 31
0.0
1001
ACAD
1000
RTMaterial
1005
0
  0
LINE
  5
54CB0
102
{ACAD_REACTORS
330
54E0E
102
}
330
1F
100
AcDbEntity
  8
1
100
AcDbLine
 10
57.54999400000009
 20
11.33001152786724
 30
0.0
 11
52.54999400000009
 21
12.2500115278672
 31
0.0
1001
ACAD
1000
RTMaterial
1005
0
  0
LINE
  5
54CB1
330
1F
100
AcDbEntity
  8
1
100
AcDbLine
 10
64.0499940000001
 20
-11.82998846993277
 30
0.0
 11
64.0499940000001
 21
-10.92546447103268
 31
0.0
1001
ACAD
1000
RTMaterial
1005
0
  0
ARC
  5
54CB4
102
{ACAD_REACTORS
330
54E0E
102
}
330
1F
100
AcDbEntity
  8
1
100
AcDbCircle
 10
69.8499940000001
 20
0.0000115278672013
 30
0.0
 40
12.7
100
AcDbArc
 50
0.0
 51
90.0
1001
ACAD
1000
RTMaterial
1005
0
  0
LINE
  5
54CB5
330
1F
100
AcDbEntity
  8
1
100
AcDbLine
 10
64.0499940000001
 20
-11.82998846993277
 30
0.0
 11
68.85899400000011
 21
-12.69998846993272
 31
0.0
1001
ACAD
1000
RTMaterial
1005
0
  0
LINE
  5
54CB6
330
1F
100
AcDbEntity
  8
1
100
AcDbLine
 10
68.85899400000011
 20
-12.69998846993272
 30
0.0
 11
69.8499940000001
 21
-12.69998846993272
 31
0.0
1001
ACAD
1000
RTMaterial
1005
0
  0
ARC
  5
54CB7
330
1F
100
AcDbEntity
  8
1
100
AcDbCircle
 10
69.8499940000001
 20
0.000011530067269
 30
0.0
 40
12.7
100
AcDbArc
 50
270.0
 51
0.0
1001
ACAD
1000
RTMaterial
1005
0
  0
LINE
  5
54D15
330
1F
100
AcDbEntity
  8
1
100
AcDbLine
 10
57.54999400000009
 20
-11.32998846993283
 30
0.0
 11
64.0499940000001
 21
-11.32998846993285
 31
0.0
1001
ACAD
1000
RTMaterial
1005
0
  0
LINE
  5
54D16
330
1F
100
AcDbEntity
  8
1
100
AcDbLine
 10
57.54999400000009
 20
-11.32998846993283
 30
0.0
 11
52.55001400000009
 21
-12.24998847103274
 31
0.0
1001
ACAD
1000
RTMaterial
1005
0
  0
DIMENSION
  5
54DF7
102
{ACAD_XDICTIONARY
360
54E04
102
}
102
{ACAD_REACTORS
330
54E0E
102
}
330
1F
100
AcDbEntity
  8
2
100
AcDbDimension
  2
*D8
 10
82.549994
 20
34.63829084411441
 30
0.0
 11
67.54999400000006
 21
34.63829084411441
 31
0.0
 70
   160
 71
     5
 42
29.9999999999999
  3
\M+18352\M+18373\M+1815B - ISO-25
100
AcDbAlignedDimension
 13
52.54999400000009
 23
12.2500115278672
 33
0.0
 14
82.549994
 24
0.0000115278672013
 34
0.0
100
AcDbRotatedDimension
1001
ACAD
1000
DSTYLE
1002
{
1070
     4
1000
"
1070
    40
1040
1.0
1070
   143
1040
0.03937
1070
   170
1070
     1
1070
   171
1070
     3
1070
   271
1070
     8
1070
   285
1070
     4
1002
}
  0
LINE
  5
54E5D
330
1F
100
AcDbEntity
  8
1
100
AcDbLine
 10
64.0499940000001
 20
10.24998118811305
 30
0.0
 11
64.0499940000001
 21
11.83001152786724
 31
0.0
1001
ACAD
1000
RTMaterial
1005
0
  0
DIMENSION
  5
5508B
330
1F
100
AcDbEntity
  8
2
100
AcDbDimension
  2
*D10
 10
0.0000000000000021
 20
50.23335122641356
 30
0.0
 11
41.61709376690805
 21
50.23335122641356
 31
0.0
 70
   160
 71
     5
 41
0.892857
 42
82.55
  3
\M+18352\M+18373\M+1815B - ISO-25
100
AcDbAlignedDimension
 13
82.55
 23
-0.000000001099977
 33
0.0
 14
0.0
 24
15.87498449999998
 34
0.0
 50
180.0
100
AcDbRotatedDimension
1001
ACAD
1000
DSTYLE
1002
{
1070
     4
1000
"
1070
    40
1040
1.0
1070
   143
1040
0.03937
1070
   170
1070
     1
1070
   171
1070
     3
1070
   271
1070
     8
1070
   285
1070
     4
1002
}
  0
LINE
  5
550CD
330
1F
100
AcDbEntity
  8
sk1
100
AcDbLine
 10
-93.42499999999999
 20
15.87498449999998
 30
0.0
 11
0.000019000000151
 21
15.87498449999998
 31
0.0
  0
LINE
  5
550CE
330
1F
100
AcDbEntity
  8
sk1
100
AcDbLine
 10
-93.42499999999999
 20
-15.87501550000002
 30
0.0
 11
0.000019000000151
 21
-15.87501550000002
 31
0.0
  0
LINE
  5
550D1
330
1F
100
AcDbEntity
  8
sk4
100
AcDbLine
 10
-104.7880979999999
 20
0.0000154999999609
 30
0.0
 11
0.0
 21
0.0
 31
0.0
  0
LINE
  5
550D2
330
1F
100
AcDbEntity
  8
4
100
AcDbLine
 10
0.0
 20
0.000006308395817
 30
0.0
 11
92.52223200000008
 21
0.0000154999999324
 31
0.0
  0
LINE
  5
550D3
330
1F
100
AcDbEntity
  8
sk1
100
AcDbLine
 10
-93.42499999999999
 20
-15.37498450000001
 30
0.0
 11
-97.22498699999988
 21
-15.37498450000001
 31
0.0
  0
LINE
  5
550D4
330
1F
100
AcDbEntity
  8
sk1
100
AcDbLine
 10
-97.22498699999988
 20
15.37501550000001
 30
0.0
 11
-97.22498699999988
 21
-15.37498450000001
 31
0.0
  0
LINE
  5
550D5
330
1F
100
AcDbEntity
  8
sk1
100
AcDbLine
 10
-98.42500000000001
 20
-14.1750025
 30
0.0
 11
-98.42500000000001
 21
14.1750035
 31
0.0
  0
LINE
  5
550D7
330
1F
100
AcDbEntity
  8
1
100
AcDbLine
 10
0.0
 20
-15.87501550000002
 30
0.0
 11
0.0
 21
15.87501550000002
 31
0.0
  0
LINE
  5
550D8
330
1F
100
AcDbEntity
  8
sk1
100
AcDbLine
 10
-98.42499899999987
 20
-14.1750025
 30
0.0
 11
-97.22499899999979
 21
-15.37500249999999
 31
0.0
  0
LINE
  5
550D9
330
1F
100
AcDbEntity
  8
sk1
100
AcDbLine
 10
-98.42499799999986
 20
14.17499850000001
 30
0.0
 11
-97.22500199999991
 21
15.37499550000001
 31
0.0
  0
LINE
  5
550DA
330
1F
100
AcDbEntity
  8
sk1
100
AcDbLine
 10
-97.22498699999988
 20
15.37501550000001
 30
0.0
 11
-93.42499999999999
 21
15.37501550000001
 31
0.0
  0
LINE
  5
550DB
102
{ACAD_REACTORS
330
550E9
102
}
330
1F
100
AcDbEntity
  8
sk1
100
AcDbLine
 10
-93.42499999999999
 20
-15.87501550000002
 30
0.0
 11
-93.42499999999999
 21
15.87498449999998
 31
0.0
  0
DIMENSION
  5
550DC
330
1F
100
AcDbEntity
  8
2
100
AcDbDimension
  2
*D11
 10
30.81918998635593
 20
12.25000049999995
 30
0.0
 11
30.81918998635592
 21
-37.8833328333334
 31
0.0
 70
   160
  1
%%c<>
 71
     5
 42
24.5
  3
\M+18352\M+18373\M+1815B - ISO-25
100
AcDbAlignedDimension
 13
52.55001400000009
 23
-12.24999950000006
 33
0.0
 14
52.55001400000009
 24
12.25000049999994
 34
0.0
 50
270.0
100
AcDbRotatedDimension
1001
ACAD
1000
DSTYLE
1002
{
1070
     4
1000
%%C[]"
1070
    40
1040
1.0
1070
   143
1040
0.03937
1070
   170
1070
     1
1070
   171
1070
     3
1070
   271
1070
     8
1070
   285
1070
     4
1002
}
  0
DIMENSION
  5
550E7
102
{ACAD_XDICTIONARY
360
550E8
102
}
102
{ACAD_REACTORS
330
550E9
102
}
330
1F
100
AcDbEntity
  8
sk2
100
AcDbDimension
  2
*D12
 10
-124.2520312063884
 20
15.87498449999999
 30
0.0
 11
-124.2520312063884
 21
-49.18398760052365
 31
0.0
 70
   160
  1
%%c<>
 71
     5
 42
31.75
  3
\M+18352\M+18373\M+1815B - ISO-25
100
AcDbAlignedDimension
 13
-93.42499999999999
 23
-15.87501550000002
 33
0.0
 14
-93.42499999999999
 24
15.87498449999998
 34
0.0
 50
270.0
100
AcDbRotatedDimension
1001
ACAD
1000
DSTYLE
1002
{
1070
     4
1000
%%C[]"
1070
    40
1040
1.0
1070
   143
1040
0.03937
1070
   170
1070
     1
1070
   171
1070
     3
1070
   271
1070
     8
1070
   285
1070
     4
1002
}
  0
LINE
  5
551E5
330
1F
100
AcDbEntity
  8
cut
100
AcDbLine
 10
64.05
 20
11.8299999989
 30
0.0
 11
68.85900000000001
 21
12.69999999890001
 31
0.0
1001
ACAD
1000
RTMaterial
1005
0
  0
LINE
  5
551E8
330
1F
100
AcDbEntity
  8
cut
100
AcDbLine
 10
68.85900000000001
 20
12.69999999890001
 30
0.0
 11
69.84999999999999
 21
12.69999999890001
 31
0.0
1001
ACAD
1000
RTMaterial
1005
0
  0
LINE
  5
551EB
330
1F
100
AcDbEntity
  8
cut
100
AcDbLine
 10
64.05
 20
-11.8299999989
 30
0.0
 11
64.05
 21
11.8299999989
 31
0.0
1001
ACAD
1000
RTMaterial
1005
0
  0
ARC
  5
551EC
102
{ACAD_REACTORS
330
55823
102
}
330
1F
100
AcDbEntity
  8
cut
100
AcDbCircle
 10
69.84999999999999
 20
-0.000000001099977
 30
0.0
 40
12.7
100
AcDbArc
 50
0.0
 51
90.0
1001
ACAD
1000
RTMaterial
1005
0
  0
LINE
  5
551EF
330
1F
100
AcDbEntity
  8
cut
100
AcDbLine
 10
64.05
 20
-11.8299999989
 30
0.0
 11
68.85900000000001
 21
-12.69999999890001
 31
0.0
1001
ACAD
1000
RTMaterial
1005
0
  0
LINE
  5
551F0
330
1F
100
AcDbEntity
  8
cut
100
AcDbLine
 10
68.85900000000001
 20
-12.69999999890001
 30
0.0
 11
69.84999999999999
 21
-12.69999999890001
 31
0.0
1001
ACAD
1000
RTMaterial
1005
0
  0
ARC
  5
551F1
330
1F
100
AcDbEntity
  8
cut
100
AcDbCircle
 10
69.84999999999999
 20
0.000000001099977
 30
0.0
 40
12.7
100
AcDbArc
 50
270.0
 51
0.0
1001
ACAD
1000
RTMaterial
1005
0
  0
ARC
  5
553D0
330
1F
100
AcDbEntity
  8
1
100
AcDbCircle
 10
3.58442199999996
 20
16.53325130839587
 30
0.0
 40
3.0
100
AcDbArc
 50
224.999995
 51
268.4999999999989
  0
ARC
  5
553D1
330
1F
100
AcDbEntity
  8
1
100
AcDbCircle
 10
3.58442199999996
 20
-16.53323869160414
 30
0.0
 40
3.0
100
AcDbArc
 50
91.49999999999947
 51
135.000005
  0
LINE
  5
553E9
330
1F
100
AcDbEntity
  8
1
100
AcDbLine
 10
0.0
 20
15.87500630839585
 30
0.0
 11
1.463101999999992
 21
14.41193130839585
 31
0.0
  0
LINE
  5
553EA
330
1F
100
AcDbEntity
  8
1
100
AcDbLine
 10
52.55001400000006
 20
-12.25000869160436
 30
0.0
 11
3.505890999999962
 21
-13.53426669160416
 31
0.0
  0
LINE
  5
5540B
330
1F
100
AcDbEntity
  8
1
100
AcDbLine
 10
-0.0000010000000543
 20
-15.8750216916041
 30
0.0
 11
1.463101999999992
 21
-14.41191869160417
 31
0.0
  0
LINE
  5
55417
330
1F
100
AcDbEntity
  8
1
100
AcDbLine
 10
3.494999999999947
 20
-13.53457170343822
 30
0.0
 11
3.494999999999976
 21
13.53458432022998
 31
0.0
  0
DIMENSION
  5
5580C
102
{ACAD_XDICTIONARY
360
55819
102
}
102
{ACAD_REACTORS
330
55823
102
}
330
1F
100
AcDbEntity
  8
sk2
100
AcDbDimension
  2
*D50
 10
82.55
 20
65.46735267775386
 30
0.0
 11
-6.544211762515487
 21
65.46735267775386
 31
0.0
 70
   160
 71
     5
 42
180.975
  3
\M+18352\M+18373\M+1815B - ISO-25
100
AcDbAlignedDimension
 13
-98.42500000000001
 23
14.1749964999982
 33
0.0
 14
82.55
 24
-0.000000001099977
 34
0.0
100
AcDbRotatedDimension
1001
ACAD
1000
DSTYLE
1002
{
1070
     4
1000
"
1070
    40
1040
1.0
1070
   143
1040
0.03937
1070
   170
1070
     1
1070
   171
1070
     3
1070
   271
1070
     8
1070
   285
1070
     4
1002
}
  0
LINE
  5
5584B
330
1F
100
AcDbEntity
  8
1
100
AcDbLine
 10
3.505891155076284
 20
13.5342793334692
 30
0.0
 11
52.55001400000009
 21
12.25000049999994
 31
0.0
  0
ARC
  5
5585D
330
1F
100
AcDbEntity
  8
nocut
100
AcDbCircle
 10
70.05347995355251
 20
-0.0000001902566282
 30
0.0
 40
11.32999999889999
100
AcDbArc
 50
0.0
 51
90.0
  0
LINE
  5
5585E
330
1F
100
AcDbEntity
  8
nocut
100
AcDbLine
 10
57.5499799535526
 20
11.32999980864337
 30
0.0
 11
70.05347995355251
 21
11.32999980864343
 31
0.0
1001
ACAD
1000
RTMaterial
1005
0
  0
LINE
  5
5585F
330
1F
100
AcDbEntity
  8
nocut
100
AcDbLine
 10
81.38347995245252
 20
-0.0000001902566282
 30
0.0
 11
-0.0000000463473953
 21
-0.0000001902566282
 31
0.0
1001
ACAD
1000
RTMaterial
1005
0
  0
LINE
  5
55860
330
1F
100
AcDbEntity
  8
nocut
100
AcDbLine
 10
57.5499999536527
 20
11.32999980864337
 30
0.0
 11
52.5499999535526
 21
12.24999980864339
 31
0.0
1001
ACAD
1000
RTMaterial
1005
0
  0
LINE
  5
55861
330
1F
100
AcDbEntity
  8
nocut
100
AcDbLine
 10
-0.0000000463473953
 20
15.87499980864339
 30
0.0
 11
-0.0000000463473953
 21
-0.0000001902566282
 31
0.0
  0
ARC
  5
55862
330
1F
100
AcDbEntity
  8
nocut
100
AcDbCircle
 10
3.584421953652565
 20
16.53324480974345
 30
0.0
 40
3.0
100
AcDbArc
 50
224.999995
 51
268.4999999999989
  0
LINE
  5
55863
330
1F
100
AcDbEntity
  8
nocut
100
AcDbLine
 10
-0.0000000463473953
 20
15.87499980974337
 30
0.0
 11
1.463101953652596
 21
14.41192480974337
 31
0.0
  0
LINE
  5
55864
330
1F
100
AcDbEntity
  8
nocut
100
AcDbLine
 10
3.49499995365258
 20
13.53458412997335
 30
0.0
 11
52.5499999535526
 21
12.24999980864339
 31
0.0
  0
VIEWPORT
  5
6B
102
{ACAD_XDICTIONARY
360
5586E
102
}
330
50
100
AcDbEntity
 67
     1
  8
0
100
AcDbViewport
 10
150.1652135264906
 20
160.4455827878762
 30
0.0
 40
339.1973820494346
 41
282.2272140146125
 68
     1
 69
     1
 12
150.1652135264906
 22
160.4455827878762
 13
0.0
 23
0.0
 14
10.0
 24
10.0
 15
10.0
 25
10.0
 16
0.0
 26
0.0
 36
1.0
 17
0.0
 27
0.0
 37
0.0
 42
50.0
 43
0.0
 44
0.0
 45
282.2272140146125
 50
0.0
 51
0.0
 72
  1000
 90
    32864
  1

281
     0
 71
     1
 74
     0
110
0.0
120
0.0
130
0.0
111
1.0
121
0.0
131
0.0
112
0.0
122
1.0
132
0.0
 79
     0
146
0.0
  0
VIEWPORT
  5
6D
102
{ACAD_XDICTIONARY
360
55870
102
}
330
50
100
AcDbEntity
 67
     1
  8
0
100
AcDbViewport
 10
133.3499939441681
 20
101.5999939441681
 30
0.0
 40
213.3599903106689
 41
162.5599903106689
 68
     2
 69
     2
 12
210.0
 22
148.5
 13
0.0
 23
0.0
 14
10.0
 24
10.0
 15
10.0
 25
10.0
 16
0.0
 26
0.0
 36
1.0
 17
0.0
 27
0.0
 37
0.0
 42
50.0
 43
0.0
 44
0.0
 45
324.0677920111345
 50
0.0
 51
0.0
 72
   100
 90
    32864
  1

281
     0
 71
     1
 74
     0
110
0.0
120
0.0
130
0.0
111
1.0
121
0.0
131
0.0
112
0.0
122
1.0
132
0.0
 79
     0
146
0.0
  0
ENDSEC
  0
SECTION
  2
OBJECTS
  0
DICTIONARY
  5
C
330
0
100
AcDbDictionary
281
     1
  3
ACAD_COLOR
350
85
  3
ACAD_GROUP
350
D
  3
ACAD_LAYOUT
350
1A
  3
ACAD_MATERIAL
350
84
  3
ACAD_MLINESTYLE
350
17
  3
ACAD_PLOTSETTINGS
350
19
  3
ACAD_PLOTSTYLENAME
350
E
  3
ACAD_TABLESTYLE
350
A1
  3
ACDBHEADERROUNDTRIPXREC
350
55869
  3
AcDbVariableDictionary
350
5E
  3
ASE_INDEX_DICTIONARY
350
349E9
  3
DWGPROPS
350
55868
  0
DICTIONARY
  5
E2
330
2
100
AcDbDictionary
280
     1
281
     1
  3
ACAD_LAYERFILTERS
360
55866
  3
ACAD_LAYERSTATES
360
3759A
  3
ACLYDICTIONARY
360
55865
  0
DICTIONARY
  5
31EE
330
1F
100
AcDbDictionary
280
     1
281
     1
  3
ACAD_SORTENTS
360
31EF
  0
DICTIONARY
  5
3BEB2
330
680
100
AcDbDictionary
280
     1
281
     1
  3
ACAD_SORTENTS
360
55693
  0
DICTIONARY
  5
55564
330
55501
100
AcDbDictionary
280
     1
281
     1
  3
ACAD_SORTENTS
360
55566
  0
DICTIONARY
  5
55872
330
71
100
AcDbDictionary
280
     1
281
     1
  3
ACAD_XREC_ROUNDTRIP
360
55873
  0
DICTIONARY
  5
55874
330
73
100
AcDbDictionary
280
     1
281
     1
  3
ACAD_XREC_ROUNDTRIP
360
55875
  0
DICTIONARY
  5
55558
330
55557
100
AcDbDictionary
280
     1
281
     1
  3
ACAD_DIMASSOC
360
55559
  0
DICTIONARY
  5
5555E
330
5555D
100
AcDbDictionary
280
     1
281
     1
  3
ACAD_DIMASSOC
360
5555F
  0
DICTIONARY
  5
54E04
330
54DF7
100
AcDbDictionary
280
     1
281
     1
  3
ACAD_DIMASSOC
360
54E0E
  0
DICTIONARY
  5
550E8
330
550E7
100
AcDbDictionary
280
     1
281
     1
  3
ACAD_DIMASSOC
360
550E9
  0
DICTIONARY
  5
55819
330
5580C
100
AcDbDictionary
280
     1
281
     1
  3
ACAD_DIMASSOC
360
55823
  0
DICTIONARY
  5
5586E
330
6B
100
AcDbDictionary
280
     1
281
     1
  3
ACAD_XREC_ROUNDTRIP
360
5586F
  0
DICTIONARY
  5
55870
330
6D
100
AcDbDictionary
280
     1
281
     1
  3
ACAD_XREC_ROUNDTRIP
360
55871
  0
DICTIONARY
  5
85
102
{ACAD_REACTORS
330
C
102
}
330
C
100
AcDbDictionary
281
     1
  0
DICTIONARY
  5
D
102
{ACAD_REACTORS
330
C
102
}
330
C
100
AcDbDictionary
281
     1
  0
DICTIONARY
  5
1A
102
{ACAD_REACTORS
330
C
102
}
330
C
100
AcDbDictionary
281
     1
  3
\M+1838C\M+18343\M+18341\M+18345\M+183671
350
51
  3
\M+1838C\M+18343\M+18341\M+18345\M+183672
350
56
  3
Model
350
22
  0
DICTIONARY
  5
84
102
{ACAD_REACTORS
330
C
102
}
330
C
100
AcDbDictionary
281
     1
  0
DICTIONARY
  5
17
102
{ACAD_REACTORS
330
C
102
}
330
C
100
AcDbDictionary
281
     1
  3
Standard
350
18
  0
DICTIONARY
  5
19
102
{ACAD_REACTORS
330
C
102
}
330
C
100
AcDbDictionary
281
     1
  0
ACDBDICTIONARYWDFLT
  5
E
102
{ACAD_REACTORS
330
C
102
}
330
C
100
AcDbDictionary
281
     1
  3
Normal
350
F
100
AcDbDictionaryWithDefault
340
F
  0
DICTIONARY
  5
A1
102
{ACAD_REACTORS
330
C
102
}
330
C
100
AcDbDictionary
281
     1
  3
Standard
350
A2
  0
DICTIONARY
  5
55869
102
{ACAD_REACTORS
330
C
102
}
330
C
100
AcDbDictionary
281
     1
  0
DICTIONARY
  5
5E
102
{ACAD_REACTORS
330
C
102
}
330
C
100
AcDbDictionary
281
     1
  3
CTABLESTYLE
350
B8
  3
DIMASSOC
350
5F
  3
HIDETEXT
350
63
  3
PROJECTNAME
350
31CE
  0
DICTIONARY
  5
349E9
102
{ACAD_REACTORS
330
C
102
}
330
C
100
AcDbDictionary
281
     1
  3
ASEBlockHierarchyIndexRecord
350
349EA
1001
DCO15
1040
1842496176.844
  0
XRECORD
  5
55868
102
{ACAD_REACTORS
330
C
102
}
330
C
100
AcDbXrecord
280
     1
  1
DWGPROPS COOKIE
  2

  3

  4

  6

  7

  8

  9

300
=
301
=
302
=
303
=
304
=
305
=
306
=
307
=
308
=
309
=
 40
2.772066331018518
 41
2455489.391063368
 42
2458572.762395926
  1

 90
        0
  0
DICTIONARY
  5
55866
102
{ACAD_REACTORS
330
E2
102
}
330
E2
100
AcDbDictionary
281
     1
  0
DICTIONARY
  5
3759A
102
{ACAD_REACTORS
330
E2
102
}
330
E2
100
AcDbDictionary
281
     1
  0
DICTIONARY
  5
55865
102
{ACAD_REACTORS
330
E2
102
}
330
E2
100
AcDbDictionary
281
     1
1001
ACAD
1000
<All
  0
SORTENTSTABLE
  5
31EF
102
{ACAD_REACTORS
330
31EE
102
}
330
31EE
100
AcDbSortentsTable
330
1F
331
54CB0
  5
54CB1
331
54B70
  5
54B71
331
54B61
  5
54B62
331
54B60
  5
54B61
331
54B97
  5
54B98
331
54B5F
  5
54B60
331
54B86
  5
54B87
331
54B6F
  5
54B70
331
54D16
  5
54DF7
331
54B5E
  5
54B5F
331
54B96
  5
54B97
331
54D15
  5
54D16
331
54B85
  5
54B86
331
54B6E
  5
54B6F
331
54B95
  5
54B96
331
54B5D
  5
54B5E
331
54B84
  5
54B85
331
54B6D
  5
54B6E
331
54B5C
  5
54B5D
331
54B83
  5
54B84
331
54B6C
  5
54B6D
331
54B93
  5
54B94
331
54B5B
  5
54B5C
331
54BAD
  5
54BB0
331
54B82
  5
54B83
331
54B6B
  5
54B6C
331
54B5A
  5
54B5B
331
54BAC
  5
54BAD
331
54B92
  5
54B93
331
54B81
  5
54B82
331
54B6A
  5
54B6B
331
54B59
  5
54B5A
331
54B80
  5
54B81
331
54B69
  5
54B6A
331
54B58
  5
54B59
331
54B90
  5
54B91
331
54B68
  5
54B69
331
54CB7
  5
54CC5
331
54CAE
  5
54CAF
331
54B8F
  5
54B90
331
54E5D
  5
54CB5
331
54B67
  5
54B68
331
54CB6
  5
54CC2
331
54B8E
  5
54B8F
331
54B66
  5
54B67
331
54CB5
  5
54CB7
331
54B8D
  5
54B8E
331
54DF7
  5
54E5D
331
54CB4
  5
54CB6
331
54B74
  5
54B75
331
54B65
  5
54B66
331
54CAB
  5
54CAC
331
54B8C
  5
54B8D
331
54B73
  5
54B74
331
54B64
  5
54B65
331
53DFB
  5
53DFB
331
54B8B
  5
54B8C
331
54B72
  5
54B73
331
68C
  5
3C6B0
331
54B63
  5
54B64
331
54CA9
  5
54CAA
331
54B8A
  5
54B8B
331
54B71
  5
54B72
331
54B62
  5
54B63
331
54CB1
  5
54CB4
331
54B89
  5
54B8A
  0
SORTENTSTABLE
  5
55693
102
{ACAD_REACTORS
330
3BEB2
102
}
330
3BEB2
100
AcDbSortentsTable
330
680
  0
SORTENTSTABLE
  5
55566
102
{ACAD_REACTORS
330
55564
102
}
330
55564
100
AcDbSortentsTable
330
55501
  0
XRECORD
  5
55873
102
{ACAD_REACTORS
330
55872
102
}
330
55872
100
AcDbXrecord
280
     1
102
SHADEPLOT
 70
     0
  0
XRECORD
  5
55875
102
{ACAD_REACTORS
330
55874
102
}
330
55874
100
AcDbXrecord
280
     1
102
SHADEPLOT
 70
     0
  0
DIMASSOC
  5
55559
102
{ACAD_REACTORS
330
55558
102
}
330
55558
100
AcDbDimAssoc
330
55557
 90
        2
 70
     0
 71
     0
  1
AcDbOsnapPointRef
 72
     3
331
55555
 73
     2
 91
        0
 40
0.0
 10
0.0
 20
0.0
 30
0.0
 75
     0
  0
DIMASSOC
  5
5555F
102
{ACAD_REACTORS
330
5555E
102
}
330
5555E
100
AcDbDimAssoc
330
5555D
 90
        3
 70
     0
 71
     0
  1
AcDbOsnapPointRef
 72
     1
331
5554E
 73
     2
 91
        0
 40
1.0
 10
0.0
 20
0.0
 30
2.000000000000000E+50
 75
     0
  1
AcDbOsnapPointRef
 72
     2
331
55555
 73
     2
 91
        0
 40
3.141592653589778
 10
0.0
 20
0.0
 30
0.0
 75
     0
  0
DIMASSOC
  5
54E0E
102
{ACAD_REACTORS
330
54E04
102
}
330
54E04
100
AcDbDimAssoc
330
54DF7
 90
        3
 70
     0
 71
     0
  1
AcDbOsnapPointRef
 72
     1
331
54CB0
 73
     2
 91
        0
 40
1.0
 10
0.0
 20
0.0
 30
2.000000000000000E+50
 75
     0
  1
AcDbOsnapPointRef
 72
    13
331
54CB4
 73
     2
 91
        0
 40
0.0
 10
0.0
 20
0.0
 30
2.000000000000000E+50
 75
     0
  0
DIMASSOC
  5
550E9
102
{ACAD_REACTORS
330
550E8
102
}
330
550E8
100
AcDbDimAssoc
330
550E7
 90
        3
 70
     0
 71
     0
  1
AcDbOsnapPointRef
 72
    13
331
550DB
 73
     2
 91
        0
 40
0.0
 10
0.0
 20
0.0
 30
2.000000000000000E+50
 75
     0
  1
AcDbOsnapPointRef
 72
     1
331
550DB
 73
     2
 91
        0
 40
1.0
 10
0.0
 20
0.0
 30
2.000000000000000E+50
 75
     0
  0
DIMASSOC
  5
55823
102
{ACAD_REACTORS
330
55819
102
}
330
55819
100
AcDbDimAssoc
330
5580C
 90
        2
 70
     0
 71
     0
  1
AcDbOsnapPointRef
 72
    13
331
551EC
 73
     2
 91
        0
 40
0.0
 10
0.0
 20
0.0
 30
2.000000000000000E+50
 75
     0
  0
XRECORD
  5
5586F
102
{ACAD_REACTORS
330
5586E
102
}
330
5586E
100
AcDbXrecord
280
     1
102
SHADEPLOT
 70
     0
  0
XRECORD
  5
55871
102
{ACAD_REACTORS
330
55870
102
}
330
55870
100
AcDbXrecord
280
     1
102
SHADEPLOT
 70
     0
  0
LAYOUT
  5
51
102
{ACAD_XDICTIONARY
360
B2
102
}
102
{ACAD_REACTORS
330
1A
102
}
330
1A
100
AcDbPlotSettings
  1

  2
none_device
  4
Letter_(8.50_x_11.00_Inches)
  6

 40
6.349999904632567
 41
6.349999904632567
 42
6.350006103515625
 43
6.350006103515625
 44
215.8999938964844
 45
279.3999938964844
 46
0.0
 47
0.0
 48
0.0
 49
0.0
140
0.0
141
0.0
142
1.0
143
1.0
 70
   688
 72
     1
 73
     1
 74
     5
  7

 75
    16
147
1.0
148
0.0
149
0.0
100
AcDbLayout
  1
\M+1838C\M+18343\M+18341\M+18345\M+183671
 70
     1
 71
     1
 10
-6.350006103515625
 20
-6.349999904632567
 11
273.0499877929688
 21
209.5499939918518
 12
0.0
 22
0.0
 32
0.0
 14
26.66999878883364
 24
20.31999878883365
 34
0.0
 15
240.0299890995025
 25
182.8799890995025
 35
0.0
146
0.0
 13
0.0
 23
0.0
 33
0.0
 16
1.0
 26
0.0
 36
0.0
 17
0.0
 27
1.0
 37
0.0
 76
     0
330
50
331
6B
  0
LAYOUT
  5
56
102
{ACAD_XDICTIONARY
360
B5
102
}
102
{ACAD_REACTORS
330
1A
102
}
330
1A
100
AcDbPlotSettings
  1

  2
none_device
  4
Letter_(8.50_x_11.00_Inches)
  6

 40
6.349999904632567
 41
6.349999904632567
 42
6.350006103515625
 43
6.350006103515625
 44
215.8999938964844
 45
279.3999938964844
 46
0.0
 47
0.0
 48
0.0
 49
0.0
140
0.0
141
0.0
142
1.0
143
1.0
 70
   688
 72
     1
 73
     1
 74
     5
  7

 75
    16
147
1.0
148
0.0
149
0.0
100
AcDbLayout
  1
\M+1838C\M+18343\M+18341\M+18345\M+183672
 70
     1
 71
     2
 10
-6.350006103515625
 20
-6.349999904632567
 11
273.0499877929688
 21
209.5499939918518
 12
0.0
 22
0.0
 32
0.0
 14
26.66999878883363
 24
20.31999878883363
 34
0.0
 15
240.0299890995026
 25
182.8799890995025
 35
0.0
146
0.0
 13
0.0
 23
0.0
 33
0.0
 16
1.0
 26
0.0
 36
0.0
 17
0.0
 27
1.0
 37
0.0
 76
     0
330
55
331
71
  0
LAYOUT
  5
22
102
{ACAD_XDICTIONARY
360
5586A
102
}
102
{ACAD_REACTORS
330
1A
102
}
330
1A
100
AcDbPlotSettings
  1

  2
none_device
  4
ANSI_A_(8.50_x_11.00_Inches)
  6

 40
6.349999904632567
 41
19.04999923706055
 42
6.350006103515625
 43
19.04998779296875
 44
215.8999938964844
 45
279.3999938964844
 46
0.0
 47
0.0
 48
0.0
 49
0.0
140
0.0
141
0.0
142
1.0
143
78.436453180766
 70
 11952
 72
     0
 73
     1
 74
     0
  7

 75
     0
147
0.0127491741332998
148
0.0
149
0.0
100
AcDbLayout
  1
Model
 70
     1
 71
     0
 10
0.0
 20
0.0
 11
12.0
 21
9.0
 12
0.0
 22
0.0
 32
0.0
 14
0.0
 24
0.0
 34
0.0
 15
0.0
 25
0.0
 35
0.0
146
0.0
 13
0.0
 23
0.0
 33
0.0
 16
1.0
 26
0.0
 36
0.0
 17
0.0
 27
1.0
 37
0.0
 76
     0
330
1F
  0
MLINESTYLE
  5
18
102
{ACAD_REACTORS
330
17
102
}
330
17
100
AcDbMlineStyle
  2
STANDARD
 70
     0
  3

 62
   256
 51
90.0
 52
90.0
 71
     2
 49
0.5
 62
   256
  6
BYLAYER
 49
-0.5
 62
   256
  6
BYLAYER
  0
ACDBPLACEHOLDER
  5
F
102
{ACAD_REACTORS
330
E
102
}
330
E
  0
TABLESTYLE
  5
A2
102
{ACAD_REACTORS
330
A1
102
}
330
A1
100
AcDbTableStyle
  3
Standard
 70
     0
 71
     0
 40
1.5
 41
1.5
280
     0
281
     0
  7
Standard
140
4.5
170
     2
 62
     0
 63
     7
283
     0
274
    -2
284
     1
 64
     0
275
    -2
285
     1
 65
     0
276
    -2
286
     1
 66
     0
277
    -2
287
     1
 67
     0
278
    -2
288
     1
 68
     0
279
    -2
289
     1
 69
     0
  7
Standard
140
6.0
170
     5
 62
     0
 63
     7
283
     0
274
    -2
284
     1
 64
     0
275
    -2
285
     1
 65
     0
276
    -2
286
     1
 66
     0
277
    -2
287
     1
 67
     0
278
    -2
288
     1
 68
     0
279
    -2
289
     1
 69
     0
  7
Standard
140
4.5
170
     5
 62
     0
 63
     7
283
     0
274
    -2
284
     1
 64
     0
275
    -2
285
     1
 65
     0
276
    -2
286
     1
 66
     0
277
    -2
287
     1
 67
     0
278
    -2
288
     1
 68
     0
279
    -2
289
     1
 69
     0
  0
DICTIONARYVAR
  5
B8
102
{ACAD_REACTORS
330
5E
102
}
330
5E
100
DictionaryVariables
280
     0
  1
STANDARD
  0
DICTIONARYVAR
  5
5F
102
{ACAD_REACTORS
330
5E
102
}
330
5E
100
DictionaryVariables
280
     0
  1
2
  0
DICTIONARYVAR
  5
63
102
{ACAD_REACTORS
330
5E
102
}
330
5E
100
DictionaryVariables
280
     0
  1
1
  0
DICTIONARYVAR
  5
31CE
102
{ACAD_REACTORS
330
5E
102
}
330
5E
100
DictionaryVariables
280
     0
  1

  0
XRECORD
  5
349EA
102
{ACAD_REACTORS
330
349E9
102
}
330
349E9
100
AcDbXrecord
280
     1
330
68C
330
0
330
0
330
0
330
0
330
0
330
0
330
0
330
0
330
0
330
0
330
0
330
0
330
0
330
0
330
0
330
0
330
0
330
0
330
0
330
0
330
0
330
0
330
0
330
0
330
0
330
0
330
0
330
0
330
0
330
0
330
0
330
0
330
0
330
0
330
0
330
0
330
0
330
0
330
0
330
0
330
0
330
0
330
0
330
0
330
0
330
0
330
0
330
0
330
0
330
0
330
0
330
0
330
0
330
0
330
0
330
0
330
0
330
0
330
0
330
0
330
0
330
0
330
0
330
0
330
0
330
0
330
0
330
0
330
0
330
0
330
0
330
0
330
0
330
0
330
0
330
0
330
0
330
0
330
0
330
0
330
0
330
0
330
0
330
0
330
0
330
0
330
0
330
0
330
0
330
0
330
0
330
0
330
0
330
0
330
0
330
0
330
0
330
0
330
0
330
0
330
0
330
0
330
0
330
0
330
0
330
0
330
0
330
0
330
0
  0
DICTIONARY
  5
B2
330
51
100
AcDbDictionary
280
     1
281
     1
  3
ACAD_XREC_ROUNDTRIP
360
5586C
  3
ADSK_XREC_LAYOUTTHUMBNAIL
360
B3
  0
DICTIONARY
  5
B5
330
56
100
AcDbDictionary
280
     1
281
     1
  3
ACAD_XREC_ROUNDTRIP
360
5586D
  3
ADSK_XREC_LAYOUTTHUMBNAIL
360
B6
  0
DICTIONARY
  5
5586A
330
22
100
AcDbDictionary
280
     1
281
     1
  3
ACAD_XREC_ROUNDTRIP
360
5586B
  0
XRECORD
  5
5586C
102
{ACAD_REACTORS
330
B2
102
}
330
B2
100
AcDbXrecord
280
     1
102
SHADEPLOT
 70
     0
102
SHADEPLOTRESLEVEL
 70
     2
102
SHADEPLOTCUSTOMDPI
 70
   300
  0
XRECORD
  5
B3
102
{ACAD_REACTORS
330
B2
102
}
330
B2
100
AcDbXrecord
280
     1
310
28000000B40000008B0000000100080000000000BC61000000000000000000000001000000000000FFFFFF0000000000FFFFFF000000000000000000000000000000000000000000000000000000000000000000330000006600000099000000CC000000FF00000000330000333300006633000099330000CC330000FF3300
310
0000660000336600006666000099660000CC660000FF66000000990000339900006699000099990000CC990000FF99000000CC000033CC000066CC000099CC0000CCCC0000FFCC000000FF000033FF000066FF000099FF0000CCFF0000FFFF000000003300330033006600330099003300CC003300FF003300003333003333
310
33006633330099333300CC333300FF33330000663300336633006666330099663300CC663300FF66330000993300339933006699330099993300CC993300FF99330000CC330033CC330066CC330099CC3300CCCC3300FFCC330000FF330033FF330066FF330099FF3300CCFF3300FFFF330000006600330066006600660099
310
006600CC006600FF00660000336600333366006633660099336600CC336600FF33660000666600336666006666660099666600CC666600FF66660000996600339966006699660099996600CC996600FF99660000CC660033CC660066CC660099CC6600CCCC6600FFCC660000FF660033FF660066FF660099FF6600CCFF6600
310
FFFF660000009900330099006600990099009900CC009900FF00990000339900333399006633990099339900CC339900FF33990000669900336699006666990099669900CC669900FF66990000999900339999006699990099999900CC999900FF99990000CC990033CC990066CC990099CC9900CCCC9900FFCC990000FF99
310
0033FF990066FF990099FF9900CCFF9900FFFF99000000CC003300CC006600CC009900CC00CC00CC00FF00CC000033CC003333CC006633CC009933CC00CC33CC00FF33CC000066CC003366CC006666CC009966CC00CC66CC00FF66CC000099CC003399CC006699CC009999CC00CC99CC00FF99CC0000CCCC0033CCCC0066CC
310
CC0099CCCC00CCCCCC00FFCCCC0000FFCC0033FFCC0066FFCC0099FFCC00CCFFCC00FFFFCC000000FF003300FF006600FF009900FF00CC00FF00FF00FF000033FF003333FF006633FF009933FF00CC33FF00FF33FF000066FF003366FF006666FF009966FF00CC66FF00FF66FF000099FF003399FF006699FF009999FF00CC
310
99FF00FF99FF0000CCFF0033CCFF0066CCFF0099CCFF00CCCCFF00FFCCFF0000FFFF0033FFFF0066FFFF0099FFFF00CCFFFF00FFFFFF00000000000D0D0D001A1A1A00282828003535350043434300505050005D5D5D006B6B6B00787878008686860093939300A1A1A100AEAEAE00BBBBBB00C9C9C900D6D6D600E4E4E400
310
F1F1F100FFFFFF0000000000000000000000000000000000000000000000000000000000000000000000000000000000E2E2E2E2E2E2E2E2E2E2E2E2E2E2E2E2E2E2E2E2E2E2E2E2E2E2E2E2E2E2E2E2E2E2E2E2E2E2E2E2E2E2E2E2E2E2E2E2E2E2E2E2E2E2E2E2E2E2E2E2E2E2E2E2E2E2E2E2E2E2E2E2E2E2E2E2E2E2E2
310
E2E2E2E2E2E2E2E2E2E2E2E2E2E2E2E2E2E2E2E2E2E2E2E2E2E2E2E2E2E2E2E2E2E2E2E2E2E2E2E2E2E2E2E2E2E2E2E2E2E2E2E2E2E2E2E2E2E2E2E2E2E2E2E2E2E2E2E2E2E2E2E2E2E2E2E2E2E2E2E2E2E2E2E2E2E2E2E2E2E2E2E2E2E2E2E2E2E2E2E2E2E2F5F5F5F5F5F5F5F5F5F5F5F5F5F5F5F5F5F5F5F5F5F5F5F5F5
310
F5F5F5F5F5F5F5F5F5F5F5F5F5F5F5F5F5F5F5F5F5F5F5F5F5F5F5F5F5F5F5F5F5F5F5F5F5F5F5F5F5F5F5F5F5F5F5F5F5F5F5F5F5F5F5F5F5F5F5F5F5F5F5F5F5F5F5F5F5F5F5F5F5F5F5F5F5F5F5F5F5F5F5F5F5F5F5F5F5F5F5F5F5F5F5F5F5F5F5F5F5F5F5F5F5F5F5F5F5F5F5F5F5F5F5F5F5F5F5F5F5F5F5F5F5F5F5
310
F5F5F5F5F5F5F5F5F5F5F5F5F5F5F5F5F5F5F5F5F5F5F5F5F5F5E2E2F5F5F5F5F5F5F5F5F5F5F5F5F5F5F5F5F5F5F5F5F5F5F5F5F5F5F5F5F5F5F5F5F5F5F5F5F5F5F5F5F5F5F5F5F5F5F5F5F5F5F5F5F5F5F5F5F5F5F5F5F5F5F5F5F5F5F5F5F5F5F5F5F5F5F5F5F5F5F5F5F5F5F5F5F5F5F5F5F5F5F5F5F5F5F5F5F5F5F5
310
F5F5F5F5F5F5F5F5F5F5F5F5F5F5F5F5F5F5F5F5F5F5F5F5F5F5F5F5F5F5F5F5F5F5F5F5F5F5F5F5F5F5F5F5F5F5F5F5F5F5F5F5F5F5F5F5F5F5F5F5F5F5F5F5F5F5F5F5F5F5F5F5F5F5F5F5F5F5F5E2E2F5F5F5F5F5F5F5F5F5F5F5F5F5F5F5F5F5F5F5F5F5F5F5F5F5F5F5F5F5F5F5F5F5F5F5F5F5F5F5F5F5F5F5F5F5F5
310
F5F5F5F5F5F5F5F5F5F5F5F5F5F5F5F5F5F5F5F5F5F5F5F5F5F5F5F5F5F5F5F5F5F5F5F5F5F5F5F5F5F5F5F5F5F5F5F5F5F5F5F5F5F5F5F5F5F5F5F5F5F5F5F5F5F5F5F5F5F5F5F5F5F5F5F5F5F5F5F5F5F5F5F5F5F5F5F5F5F5F5F5F5F5F5F5F5F5F5F5F5F5F5F5F5F5F5F5F5F5F5F5F5F5F5F5F5F5F5F5F5F5F5F5F5F5F5
310
F5F5F5F5F5E2E2F5F5F5F5E2E2E2E2E2E2E2E2F5F5F5F5F5F5F5F5F5E2E2E2E2E2E2E2E2E2E2E2E2E2E2E2F5F5F5F5F5F5F5F5F5E2E2E2E2E2E2E2E2E2E2E2E2E2E2E2E2F5F5F5F5F5F5F5F5E2E2E2E2E2E2E2E2E2E2E2E2E2E2E2E2F5F5F5F5F5F5F5F5E2E2E2E2E2E2E2E2E2E2E2E2E2E2E2E2F5F5F5F5F5F5F5F5E2E2E2
310
E2E2E2E2E2E2E2E2E2E2E2E2E2F5F5F5F5F5F5F5F5F5E2E2E2E2E2E2E2E2E2E2E2E2E2E2E2F5F5F5F5F5F5F5F5F5E2E2E2E2E2E2E2E2F5F5F5F5E2E2F5F5F5F5E2F5F5F5F5F5F5F5F5F5F5F5F5F5F5F5F5F5F5F5F5F5F5F5F5F5F5F5F5F5F5F5F5F5F5F5F5F5F5F5F5F5F5F5F5F5F5F5F5F5F5F5F5F5F5F5F5F5F5F5F5F5F5
310
F5F5F5F5F5F5F5F5F5F5F5F5F5F5F5F5F5F5F5F5F5F5F5F5F5F5F5F5F5F5F5F5F5F5F5F5F5F5F5F5F5F5F5F5F5F5F5F5F5F5F5F5F5F5F5F5F5F5F5F5F5F5F5F5F5F5F5F5F5F5F5F5F5F5F5F5F5F5F5F5F5F5F5F5F5F5F5F5F5F5F5F5F5F5F5F5F5F5F5F5F5F5F5F5F5F5E2F5F5F5F5E2E2F5F5F5F5E2F5F5F5F5F5F5F5F5F5
310
F5F5F5F5F5F5F5F5F5F5F5F5F5F5F5F5F5F5F5F5F5F5F5F5F5F5F5F5F5F5F5F5F5F5F5F5F5F5F5F5F5F5F5F5F5F5F5F5F5F5F5F5F5F5F5F5F5F5F5F5F5F5F5F5F5F5F5F5F5F5F5F5F5F5F5F5F5F5F5F5F5F5F5F5F5F5F5F5F5F5F5F5F5F5F5F5F5F5F5F5F5F5F5F5F5F5F5F5F5F5F5F5F5F5F5F5F5F5F5F5F5F5F5F5F5F5F5
310
F5F5F5F5F5F5F5F5F5F5F5F5F5F5F5F5F5F5F5F5F5F5F5F5F5F5F5F5F5F5F5F5E2F5F5F5F5E2E2F5F5F5F5E2F5F5F5F5F5F5F5F5F5F5F5F5F5F5F5F5F5F5F5F5F5F5F5F5F5F5F5F5F5F5F5F5F5F5F5F5F5F5F5F5F5F5F5F5F5F5F5F5F5F5F5F5F5F5F5F5F5F5F5F5F5F5F5F5F5F5F5F5F5F5F5F5F5F5F5F5F5F5F5F5F5F5F5
310
F5F5F5F5F5F5F5F5F5F5F5F5F5F5F5F5F5F5F5F5F5F5F5F5F5F5F5F5F5F5F5F5F5F5F5F5F5F5F5F5F5F5F5F5F5F5F5F5F5F5F5F5F5F5F5F5F5F5F5F5F5F5F5F5F5F5F5F5F5F5F5F5F5F5F5F5F5F5F5F5F5F5F5F5F5E2F5F5F5F5E2E2F5F5F5F5E2F5F5F5F5F5F5F5F5F5F5F5F5F5F5F5F5F5F5F5F5F5F5F5F5F5F5F5F5F5F5
310
F5F5F5F5F5F5F5F5F5F5F5F5F5F5F5F5F5F5F5F5F5F5F5F5F5F5F5F5F5F5F5F5F5F5F5F5F5F5F5F5F5F5F5F5F5F5F5F5F5F5F5F5F5F5F5F5F5F5F5F5F5F5F5F5F5F5F5F5F5F5F5F5F5F5F5F5F5F5F5F5F5F5F5F5F5F5F5F5F5F5F5F5F5F5F5F5F5F5F5F5F5F5F5F5F5F5F5F5F5F5F5F5F5F5F5F5F5F5F5F5F5F5F5F5F5F5F5
310
F5F5F5F5F5F5F5F5F5F5F5E2F5F5F5F5E2E2F5F5F5F5E2F5F5F5F5F5F5F5F5F5F5F5F5F5F5F5F5F5F5F5F5F5F5F5F5F5F5F5F5F5F5F5F5F5F5F5F5F5F5F5F5F5F5F5F5F5F5F5F5F5F5F5F5F5F5F5F5F5F5F5F5F5F5F5F5F5F5F5F5F5F5F5F5F5F5F5F5F5F5F5F5F5F5F5F5F5F5F5F5F5F5F5F5F5F5F5F5F5F5F5F5F5F5F5F5
310
F5F5F5F5F5F5F5F5F5F5F5F5F5F5F5F5F5F5F5F5F5F5F5F5F5F5F5F5F5F5F5F5F5F5F5F5F5F5F5F5F5F5F5F5F5F5F5F5F5F5F5F5F5F5F5F5F5F5F5F5F5F5F5F5E2F5F5F5F5E2E2F5F5F5F5E2F5F5F5F5F5F5F5F5F5F5F5F5F5F5F5F5F5F5F5F5F5F5F5F5F5F5F5F5F5F5F5F5F5F5F5F5F5F5F5F5F5F5F5F5F5F5F5F5F5F5F5
310
F5F5F5F5F5F5F5F5F5F5F5F5F5F5F5F5F5F5F5F5F5F5F5F5F5F5F5F5F5F5F5F5F5F5F5F5F5F5F5F5F5F5F5F5F5F5F5F5F5F5F5F5F5F5F5F5F5F5F5F5F5F5F5F5F5F5F5F5F5F5F5F5F5F5F5F5F5F5F5F5F5F5F5F5F5F5F5F5F5F5F5F5F5F5F5F5F5F5F5F5F5F5F5F5F5F5F5F5F5F5F5F5F5F5F5F5F5E2F5F5F5F5E2E2F5F5F5
310
F5E2F5F5F5F5F5F5F5F5F5F5F5F5F5F5F5F5F5F5F5F5F5F5F5F5F5F5F5F5F5F5F5F5F5F5F5F5F5F5F5F5F5F5F5F5F5F5F5F5F5F5F5F5F5F5F5F5F5F5F5F5F5F5F5F5F5F5F5F5F5F5F5F5F5F5F5F5F5F5F5F5F5F5F5F5F5F5F5F5F5F5F5F5F5F5F5F5F5F5F5F5F5F5F5F5F5F5F5F5F5F5F5F5F5F5F5F5F5F5F5F5F5F5F5F5F5
310
F5F5F5F5F5F5F5F5F5F5F5F5F5F5F5F5F5F5F5F5F5F5F5F5F5F5F5F5F5F5F5F5F5F5F5F5F5F5F5F5F5F5F5E2F5F5F5F5E2E2F5F5F5F5E2F5F5F5F5F5F5F5F5F5F5F5F5F5F5F5F5F5F5F5F5F5F5F5F5F5F5F5F5F5F5F5F5F5F5F5F5F5F5F5F5F5F5F5F5F5F5F5F5F5F5F5F5F5F5F5F5F5F5F5F5F5F5F5F5F5F5F5F5F5F5F5F5
310
F5F5F5F5F5F5F5F5F5F5F5F5F5F5F5F5F5F5F5F5F5F5F5F5F5F5F5F5F5F5F5F5F5F5F5F5F5F5F5F5F5F5F5F5F5F5F5F5F5F5F5F5F5F5F5F5F5F5F5F5F5F5F5F5F5F5F5F5F5F5F5F5F5F5F5F5F5F5F5F5F5F5F5F5F5F5F5F5F5F5F5F5F5F5F5F5E2F5F5F5F5E2E2F5F5F5F5F5F5F5F5F5F5F5F5F5F5F5F5F5F5F5F5F5F5F5F5
310
F5F5F5F5F5F5F5F5F5F5F5F5F5F5F5F5F5F5F5F5F5F5F5F5F5F5F5F5F5F5F5F5F5F5F5F5F5F5F5F5F5F5F5F5F5F5F5F5F5F5F5F5F5F5F5F5F5F5F5F5F5F5F5F5F5F5F5F5F5F5F5F5F5F5F5F5F5F5F5F5F5F5F5F5F5F5F5F5F5F5F5F5F5F5F5F5F5F5F5F5F5F5F5F5F5F5F5F5F5F5F5F5F5F5F5F5F5F5F5F5F5F5F5F5F5F5F5
310
F5F5F5F5F5F5F5F5F5F5F5F5F5F5F5F5F5F5F5F5F5F5F5F5F5F5F5E2E2F5F5F5F5F5F5F5F5F5F5F5F5F5F5F5F5F5F5F5F5F5F5F5F5F5F5F5F5F5F5F5F5F5F5F5F5F5F5F5F5F5F5F5F5F5F5F5F5F5F5F5F5F5F5F5F5F5F5F5F5F5F5F5F5F5F5F5F5F5F5F5F5F5F5F5F5F5F5F5F5F5F5F5F5F5F5F5F5F5F5F5F5F5F5F5F5F5F5
310
F5F5F5F5F5F5F5F5F5F5F5F5F5F5F5F5F5F5F5F5F5F5F5F5F5F5F5F5F5F5F5F5F5F5F5F5F5F5F5F5F5F5F5F5F5F5F5F5F5F5F5F5F5F5F5F5F5F5F5F5F5F5F5F5F5F5F5F5F5F5F5F5F5F5F5F5F5F5F5F5E2E2F5F5F5F5F5F5F5F5F5F5F5F5F5F5F5F5F5F5F5F5F5F5F5F5F5F5F5F5F5F5F5F5F5F5F5F5F5F5F5F5F5F5F5F5F5
310
F5F5F5F5F5F5F5F5F5F5F5F5F5F5F5F5F5F5F5F5F5F5F5F5F5F5F5F5F5F5F5F5F5F5F5F5F5F5F5F5F5F5F5F5F5F5F5F5F5F5F5F5F5F5F5F5F5F5F5F5F5F5F5F5F5F5F5F5F5F5F5F5F5F5F5F5F5F5F5F5F5F5F5F5F5F5F5F5F5F5F5F5F5F5F5F5F5F5F5F5F5F5F5F5F5F5F5F5F5F5F5F5F5F5F5F5F5F5F5F5F5F5F5F5F5F5F5
310
F5F5F5F5F5F5E2E2F5F5F5F5F5F5F5F5F5F5F5F5F5F5F5F5F5F5F5F5F5F5F5F5F5F5F5F5F5F5F5F5F5F5F5F5F5F5F5F5F5F5F5F5F5F5F5F5F5F5F5F5F5F5F5F5F5F5F5F5F5F5F5F5F5F5F5F5F5F5F5F5F5F5F5F5F5F5F5F5F5F5F5F5F5F5F5F5F5F5F5F5F5F5F5F5F5F5F5F5F5F5F5F5F5F5F5F5F5F5F5F5F5F5F5F5F5F5F5
310
F5F5F5F5F5F5F5F5F5F5F5F5F5F5F5F5F5F5F5F5F5F5F5F5F5F5F5F5F5F5F5F5F5F5F5F5F5F5F5F5F5F5F5F5F5F5F5F5F5F5F5F5F5F5F5F5F5F5F5E2E2F5F5F5F5F5F5F5F5F5F5F5F5F5F5F5F5F5F5F5F5F5E2E2E2E2E2E2E2E2E2E2E2E2E2E2E2E2E2E2E2E2E2E2E2E2E2E2E2E2E2E2E2E2E2E2E2E2E2E2E2E2E2E2E2E2E2
310
E2E2E2E2E2E2E2E2E2E2E2E2E2E2E2E2E2E2E2E2E2E2E2E2E2E2E2E2E2E2E2E2E2E2E2E2E2E2E2E2E2E2E2E2E2E2E2E2E2E2E2E2E2E2E2E2E2E2E2E2E2E2E2E2E2E2E2E2E2E2E2E2E2E2E2E2E2E2E2E2E2E2E2E2E2E2E2E2E2E2E2F5F5F5F5F5F5F5F5F5F5F5F5F5F5F5F5F5F5F5F5F5E2E2F5F5F5F5F5F5F5F5F5F5F5F5F5
310
F5F5F5F5F5F5F5F5E22D2D2D2D2D2D2D2D2D2D2D2DF5F5F5F5F5F5F5F5F5F5F5F5F5F5F5E2F5F5F5F5F5F5F5F5F5F5F5F5F5F5F5F5F5F5F5F5F5F5F5F5F5F5F5F5F5F5F5F5F5F5F5F5F5F5F5F5F5F5F5F5F5F5F5F5F5F5F5F5F5F5F5F5F5F5F5F5F5F5F5F5F5F5F5F5F5F5F5F5F5F5F5F5F5F5F5F5F5F5F5F5F5F5F5F5F5F5
310
F5F5F5F5F5F5F5F5F5F5F5F5F5F5F5F5E2F5F5F5F5F5F5F5F5F5F5F5F5F5F5F5F5F5F5F5F5F5E2E2F5F5F5F5F5F5F5F5F5F5F5F5F5F5F5F5F5F5F5F5F5E22D2D2DF5F5E2F5F5F5F5F52DF5F5F5F5F5F5F5F5F5F5F5F5F5F5F5E2F5F5F5F5F5F5F5F5F5F5F5F5F5F5F5F5F5F5F5F5F5F5F5F5F5F5F5F5F5F5F5F5F5F5F5F5F5
310
F5F5F5F5F5F5F5F5F5F5F5F5F5F5F5F5F5F5F5F5F5F5F5F5F5F5F5F5F5F5F5F5F5F5F5F5F5F5F5F5F5F5F5F5F5F5F5F5F5F5F5F5F5F5F5F5F5F5F5F5F5F5F5F5F5F5F5F5F5E2F5F5F5F5F5F5F5F5F5F5F5F5F5F5F5F5F5F5F5F5F5E2E2F5F5F5F5F5F5F5F5F5F5F5F5F5F5F5F5F5F5F5F5F5E2DCF52DF5F5E2F5F5F5F5F52D
310
F5F5F5F5F5F5F5F5F5F5F5F5F5F5F5E2F5F5F5F5F5F5F5F5F5F5F5F5F5F5F5F5F5F5F5F5F5F5F5F5F5F5F5F5F5F5F5F5F5F5F5F5F5F5F5F5F5F5F5F5F5F5F5F5F5F5F5F5F5F5F5F5F5F5F5F5F5F5F5F5F5F5F5F5F5F5F5F5F5F5F5F5F5F5F5F5F5F5F5F5F5F5F5F5F5F5F5F5F5F5F5F5F5F5F5F5F5F5F5F5F5F5E2F5F5F5F5
310
F5F5F5F5F5F5F5F5F5F5F5F5F5F5F5F5F5E2E2F5F5F5F5F5F5F5F5F5F5F5F5F5F5F5F5F5F5F5F5F5E2BEF52D2D2D2D2D2D2D2DE2E2E2E2E2E2E2E2E2E2E2E2E2E2E2E2E2E2F5F5F5F5F5F5F5F5F5F5F5F5F5F5F5F5F5F5F5F5F5F5F5F5F5F5F5F5F5F5F5F5F5F5F5F5F5F5F5F5F5F5F5F5F5F5F5F5F5F5F5F5F5F5F5F5F5F5
310
F5F5F5F5F5F5F5F5F5F5F5F5F5F5F5F5F5F5F5F5F5F5F5F5F5F5F5F5F5F5F5F5F5F5F5F5F5F5F5F5F5F5F5F5F5F5F5F5E2F5F5F5F5F5F5F5F5F5F5F5F5F5F5F5F5F5F5F5F5F5E2E2F5F5F5F5E2F5F5F5F5F5F5F5F5F5F5F5F5F5F5F5F5E2DCF5F5F5F5E2F5F5F5F5F5E2F5F5F5F5F5F5F5F5F5F5F5F5F5F5F5F5F5F5F5F5F5
310
F5F5F5F5F5F5F5F5F5F5F5F5F5F5F5F5F5F5F5F5F5F5F5F5F5F5F5F5F5F5F5F5F5F5F5F5F5F5F5F5F5F5F5F5F5F5F5F5F5F5F5F5F5F5F5F5F5F5F5F5F5F5F5F5F5F5F5F5F5F5F5F5F5F5F5F5F5F5F5F5F5F5F5F5F5F5F5F5F5F5F5F5F5F5F5F5F5F5F5F5F5E2F5F5F5F5F5F5F5F5F5F5F5F5F5F5F5F5E2F5F5F5F5E2E2F5F5
310
F5F5E2F5F5F5F5F5F5F5F5F5F5F5F5F5F5F5F5E2F5F5F5F5F5E2F5F5F5F5F5E2F5F5F5F5F5F5F5F5F5F5F5F5F5F5F5F5F5F5F5F5F5F5F5F5F5F5F5F5F5F5F5F5F5F5F5F5F5F5F5F5F5F5F5F5F5F5F5F5F5F5F5F5F5F5F5F5F5F5F5F5F5F5F5F5F5F5F5F5F5F5F5F5F5F5F5F5F5F5F5F5F5F5F5F5F5F5F5F5F5F5F5F5F5F5F5
310
F5F5F5F5F5F5F5F5F5F5F5F5F5F5F5F5F5F5F5F5F5F5F5F5F5F5F5E2F5F5F5F5F5F5F5F5F5F5F5F5F5F5F5F5E2F5F5F5F5E2E2F5F5F5F5E2F5F5F5F5F5F5F5F5F5F5F5F5F5F5F5F5E2F5F5F5F5F5E2F5F5F5F5F5E2F5F5F5F5F5F5F5F5F5F5F5F5F5F5F5F5F5F5F5F5F5F5F5F5F5F5F5F5F5F5F5F5F5F5F5F5F5F5F5F5F5F5
310
F5F5F5F5F5F5F5F5F5F5F5F5F5F5F5F5F5F5F5F5F5F5F5F5F5F5F5F5F5F5F5F5F5F5F5F5F5F5F5F5F5F5F5F5F5F5F5F5F5F5F5F5F5F5F5F5F5F5F5F5F5F5F5F5F5F5F5F5F5F5F5F5F5F5F5F5F5F5F5F5E2F5F5F5F5F5F5F5F5F5F5F5F5F5F5F5F5E2F5F5F5F5E2E2F5F5F5F5E2F5F5F5F5F5F5F5F5F5F5F5F5F5F5F5F5E2F5
310
F5F5F5F5E2F5F5F5F5F5E2F5F5F5F5F5F5F5F5F5F5F5F5F5F5F5F5F5F5F5F5F5F5F5F5F5F5F5F5F5F5F5F5F5F5F5F5F5F5F5F5F5F5F5F5F5F5F5F5F5F5F5F5F5F5F5F5F5F5F5F5F5F5F5F5F5F5F5F5F5F5F5F5F5F5F5F5F5F5F5F5F5F5F5F5F5F5F5F5F5F5F5F5F5F5F5F5F5F5F5F5F5F5F5F5F5F5F5F5F5F5F5F5F5F5F5F5
310
F5F5F5F5F5F5E2F5F5F5F5F5F5F5F5F5F5F5F5F5F5F5F5E2F5F5F5F5E2E2F5F5F5F5E2F5F5F5F5F5F5F5F5F5F5F5F5F5F5F5F5E2E2E2E2E2E2E2F5F5F5F5F5E2F5F5F5F5F5F5F5F5F5F5F5F5F5F5F5F5F5F5F5F5F5F5F5F5F5F5F5F5F5F5F5F5F5F5F5F5F5F5F5F5F5F5F5F5F5F5F5F5F5F5F5F5F5F5F5F5F5F5F5F5F5F5F5
310
F5F5F5F5F5F5F5F5F5F5F5F5F5F5F5F5F5F5F5F5F5F5F5F5F5F5F5F5F5F5F5F5F5F5F5F5F5F5F5F5F5F5F5F5F5F5F5F5F5F5F5F5F5F5F5F5F5F5F5E2F5F5F5F5F5F5F5F5F5F5F5F5F5F5F5F5E2F5F5F5F5E2E2F5F5F5F5E2F5F5F5F5F5F5F5F5F5F5F5F5F5F5F5F5E2E2E2E2F5E2E2F5F5F5F5F5E2F5F5F5F5F5F5F5F5F5F5
310
F5F5F5F5F5F5F5F5F5F5F5F5F5F5F5F5F5F5F5F5F5F5F5F5F5F5F5F5F5F5F5F5F5F5F5F5F5F5F5F5F5F5F5F5F5F5F5F5F5F5F5F5F5F5F5F5F5F5F5F5F5F5F5F5F5F5F5F5F5F5F5F5F5F5F5F5F5F5F5F5F5F5F5F5F5F5F5F5F5F5F5F5F5F5F5F5F5F5F5F5F5F5F5F5F5F5F5F5F5F5F5F5E2F5F5F5F5F5F5F5F5F5F5F5F5F5F5
310
F5F5E2F5F5F5F5E2E2F5F5F5F5E2F5F5F5F5F5F5F5F5F5F5F5F5F5F5F5F5E2E2E2E2F5F5F5F5F5F5F5F5E2F5F5F5F5F5F5F5F5F5F5F5F5F5F5F5F5F5F5F5F5F5F5F5F5F5F5F5F5F5F5F5F5F5F5F5F5F5F5F5F5F5F5F5F5F5F5F5F5F5F5F5F5F5F5F5F5F5F5F5F5F5F5F5F5F5F5F5F5F5F5F5F5F5F5F5F5F5F5F5F5F5F5F5F5
310
F5F5F5F5F5F5F5F5F5F5F5F5F5F5F5F5F5F5F5F5F5F5F5F5F5F5F5F5F5F5F5F5F5F5F5F5F5F5E2F5F5F5F5F5F5F5F5F5F5F5F5F5F5F5F5E2F5F5F5F5E2E2F5F5F5F5E2F5F5F5F5F5F5F5F5F5F5F5F5F5F5F5F5E2F5F5F5F5F5F5F5F5F5F5F5E2F5F5F5F5F5F5F5F5F5F5F5F5F5F5F5F5F5F5F5F5F5F5F5F5F5F5F5F5F5F5F5
310
F5F5F5F5F5F5F5F5F5F5F5F5F5F5F5F5F5F5F5F5F5F5F5F5F5F5F5F5F5F5F5F5F5F5F5F5F5F5F5F5F5F5F5F5F5F5F5F5F5F5F5F5F5F5F5F5F5F5F5F5F5F5F5F5F5F5F5F5F5F5F5F5F5F5F5F5F5F5F5F5F5F5F5F5F5F5F5F5F5F5F5E2F5F5F5F5F5F5F5F5F5F5F5F5F5F5F5F5E2F5F5F5F5E2E2F5F5F5F5E2F5F5F5F5F5F5F5
310
F5F5F5F5F5F5F5F5F5E2E2E2E2E2E2E2E2E2E2E2E2E2F5F5F5F5F5F5F5F5F5F5F5F5F5F5F5F5F5F5F5F5F5F5F5F5F5F5F5F5F5F5F5F5F5F5F5F5F5F5F5F5F5F5F5F5F5F5F5F5F5F5F5F5F5F5F5F5F5F5F5F5F5F5F5F5F5F5F5F5F5F5F5F5F5F5F5F5F5F5F5F5F5F5F5F5F5F5F5F5F5F5F5F5F5F5F5F5F5F5F5F5F5F5F5F5F5
310
F5F5F5F5F5F5F5F5F5F5F5F5F5F5F5F5F5E2F5F5F5F5F5F5F5F5F5F5F5F5F5F5F5F5E2F5F5F5F5E2E2F5F5F5F5E2F5F5F5F5F5F5F5F5F5F5F5F5F5F5F5F5E2E2E2F5F5F5F5F5F5F5F5F5F5F5F5F5F5F5F5F5F5F5F5F5F5F5F5F5F5F5F5F5F5F5F5F5F5F5F5F5F5F5F5F5F5F5F5F5F5F5F5F5F5F5F5F5F5F5F5F5F5F5F5F5F5
310
F5F5F5F5F5F5F5F5F5F5F5F5F5F5F5F5F5F5F5F5F5F5F5F5F5F5F5F5F5F5F5F5F5F5F5F5F5F5F5F5F5F5F5F5F5F5F5F5F5F5F5F5F5F5F5F5F5F5F5F5F5F5F5F5F5F5F5F5F5F5E2F5F5F5F5F5F5F5F5F5F5F5F5F5F5F5F5E2F5F5F5F5E2E2F5F5F5F5E2F5F5F5F5F5F5F5F5F5F5F5F5F5F5F5F5E2E2E2F5F5F5F5F5F5F5F5F5
310
F5F5F5F5F5F5F5F5F5F5F5F5F5F5F5F5F5F5F5F5F5F5F5F5F5F5F5F5F5F5F5F5F5F5F5F5F5F5F5F5F5F5F5F5F5F5F5F5F5F5F5F5F5F5F5F5F5F5F5F5F5F5F5F5F5F5F5F5F5F5F5F5F5F5F5F5F5F5F5F5F5F5F5F5F5F5F5F5F5F5F5F5F5F5F5F5F5F5F5F5F5F5F5F5F5F5F5F5F5F5F5F5F5F5F5F5F5F5F5F5F5F5F5E2F5F5F5
310
F5F5F5F5F5F5F5F5F5F5F5F5F5E2F5F5F5F5E2E2F5F5F5F5E2F5F5F5F5F5F5F5F5F5F5F5F5F5F5F5F5E2F5F5F5F5F5F5F5F5F5F5F5F5F5F5F5F5F5F5F5F5F5F5F5F5F5F5F5F5F5F5F5F5F5F5F5F5F5F5F5F5F5F5F5F5F5F5F5F5F5F5F5F5F5F5F5F5F5F5F5F5F5F5F5F5F5F5F5F5F5F5F5F5F5F5F5F5F5F5F5F5F5F5F5F5F5
310
F5F5F5F5F5F5F5F5F5F5F5F5F5F5F5F5F5F5F5F5F5F5F5F5F5F5F5F5F5F5F5F5F5F5F5F5F5F5F5F5F5F5F5F5F5F5F5F5F5E2F5F5F5F5F5F5F5F5F5F5F5F5F5F5F5F5E2F5F5F5F5E2E2F5F5F5F5E2F5F5F5F5F5F5F5F5F5F5F5F5F5F5F5F5E2F5F5F5F5F5F5F5F5F5F5F5F5F5F5F5F5F5F5F5F5F5F5F5F5F5F5F5F5F5F5F5F5
310
F5F5F5F5F5F5F5F5F5F5F5F5F5F5F5F5F5F5F5F5F5F5F5F5F5F5F5F5F5F5F5F5F5F5F5F5F5F5F5F5F5F5F5F5F5F5F5F5F5F5F5F5F5F5F5F5F5F5F5F5F5F5F5F5F5F5F5F5F5F5F5F5F5F5F5F5F5F5F5F5F5F5F5F5F5F5F5F5F5F5F5F5F5F5F5F5F5F5F5F5F5F5E2F5F5F5F5F5F5F5F5F5F5F5F5F5F5F5F5E2F5F5F5F5E2E2F5
310
F5F5F5E2F5F5F5F5F5F5F5F5F5F5F5F5F5F5F5F5E20F0F0F0F0F0F0F0F0F0F0FF5F5F5F5F5F5F5F5F5F5F5F5F5F5F5F5F5F5F5F5F5F5F5F5F5F5F5F5F5F5F5F5F5F5F5F5F5F5F5F5F5F5F5F5F5F5F5F5F5F5F5F5F5F5F5F5F5F5F5F5F5F5F5F5F5F5F5F5F5F5F5F5F5F5F5F5F5F5F5F5F5F5F5F5F5F5F5F5F5F5F5F5F5F5F5
310
F5F5F5F5F5F5F5F5F5F5F5F5F5F5F5F5F5F5F5F5F5F5F5F5F5F5F5F5E2F5F5F5F5F5F5F5F5F5F5F5F5F5F5F5F5E2F5F5F5F5E2E2F5F5F5F5E2F5F5F5F5F5F5F5F5F5F5F5F5F5F5F5F5E20F0F0F0F0F0F0F0F0F0F0FF5F5F5F5F5F5F5F5F5F5F5F5F5F5F5F5F5F5F5F5F5F5F5F5F5F5F5F5F5F5F5F5F5F5F5F5F5F5F5F5F5F5
310
F5F5F5F5F5F5F5F5F5F5F5F5F5F5F5F5F5F5F5F5F5F5F5F5F5F5F5F5F5F5F5F5F5F5F5F5F5F5F5F5F5F5F5F5F5F5F5F5F5F5F5F5F5F5F5F5F5F5F5F5F5F5F5F5F5F5F5F5F5F5F5F5F5F5F5F5F5F5F5F5F5E2F5F5F5F5F5F5F5F5F5F5F5F5F5F5F5F5E2F5F5F5F5E2E2F5F5F5F5E2F5F5F5F5F5F5F5F5F5F5F5F5F5F5F5F5E2
310
0F0F0F0F0F0F0F0F0F0FF5F5F5F5F5F5F5F5F5F5F5F5F5F5F5F5F5F5F5F5F5F5F5F5F5F5F5F5F5F5F5F5F5F5F5F5F5F5F5F5F5F5F5F5F5F5F5F5F5F5F5F5F5F5F5F5F5F5F5F5F5F5F5F5F5F5F5F5F5F5F5F5F5F5F5F5F5F5F5F5F5F5F5F5F5F5F5F5F5F5F5F5F5F5F5F5F5F5F5F5F5F5F5F5F5F5F5F5F5F5F5F5F5F5F5F5F5
310
F5F5F5F5F5F5F5E2F5F5F5F5F5F5F5F5F5F5F5F5F5F5F5F5E2F5F5F5F5E2E2F5F5F5F5E2F5F5F5F5F5F5F5F5F5F5F5F5F5F5F5F5E2F5F5F5F5F5F5F5F5F5F5F5F5F5F5F5F5F5F5F5F5F5F5F5F5F5F5F5F5F5F5F5F5F5F5F5F5F5F5F5F5F5F5F5F5F5F5F5F5F5F5F5F5F5F5F5F5F5F5F5F5F5F5F5F5F5F5F5F5F5F5F5F5F5F5
310
F5F5F5F5F5F5F5F5F5F5F5F5F5F5F5F5F5F5F5F5F5F5F5F5F5F5F5F5F5F5F5F5F5F5F5F5F5F5F5F5F5F5F5F5F5F5F5F5F5F5F5F5F5F5F5F5F5F5F5F5E2F5F5F5F5F5F5F5F5F5F5F5F5F5F5F5F5E2F5F5F5F5E2E2F5F5F5F5F5F5F5F5F5F5F5F5F5F5F5F5F5F5F5F5F5E2F5F5F5F5F5F5F5F5F5F5F5F5F5F5F5F5F5F5F5F5F5
310
F5F5F5F5F5F5F5F5F5F5F5F5F5F5F5F5F5F5F5F5F5F5F5F5F5F5F5F5F5F5F5F5F5F5F5F5F5F5F5F5F5F5F5F5F5F5F5F5F5F5F5F5F5F5F5F5F5F5F5F5F5F5F5F5F5F5F5F5F5F5F5F5F5F5F5F5F5F5F5F5F5F5F5F5F5F5F5F5F5F5F5F5F5F5F5F5F5F5F5F5F5F5F5F5F5F5F5F5F5F5F5F5F5E2F5F5F5F5F5F5F5F5F5F5F5F5F5
310
F5F5F5F5F5F5F5F5E2E2F5F5F5F5F5F5F5F5F5F5F5F5F5F5F5F5F5F5F5F5F5E2F5F5F5F5F5F5F5F5F5F5F5F5F5F5F5F5F5F5F5F5F5F5F5F5F5F5F5F5F5F5F5F5F5F5F5F5F5F5F5F5F5F5F5F5F5F5F5F5F5F5F5F5F5F5F5F5F5F5F5F5F5F5F5F5F5F5F5F5F5F5F5F5F5F5F5F5F5F5F5F5F5F5F5F5F5F5F5F5F5F5F5F5F5F5F5
310
F5F5F5F5F5F5F5F5F5F5F5F5F5F5F5F5F5F5F5F5F5F5F5F5F5F5F5F5F5F5F5F5F5F5F5F5F5F5F5E2F5F5F5F5F5F5F5F5F5F5F5F5F5F5F5F5F5F5F5F5F5E2E2F5F5F5F5F5F5F5F5F5F5F5F5F5F5F5F5F5F5F5F5F5E2F5F5F5F5F5F5F5F5F5F5F5F5F5F5F5F5F5F5F5F5F5F5F5F5F5F5F5F5F5F5F5F5F5F5F5F5F5F5F5F5F5F5
310
F5F5F5F5F5F5F5F5F5F5F5F5F5F5F5F5F5F5F5F5F5F5F5F5F5F5F5F5F5F5F5F5F5F5F5F5F5F5F5F5F5F5F5F5F5F5F5F5F5F5F5F5F5F5F5F5F5F5F5F5F5F5F5F5F5F5F5F5F5F5F5F5F5F5F5F5F5F5F5F5F5F5F5F5F5F5F5F5F5F5F5F5E2F5F5F5F5F5F5F5F5F5F5F5F5F5F5F5F5F5F5F5F5F5E2E2F5F5F5F5F5F5F5F5F5F5F5
310
F5F5F5F5F5F5F5F5F5F5E2F5F5F5F5F5F5F5F5F5F5F5F5F5F5F5F5F5F5F5F5F5F5F5F5F5F5F5F5F5F5F5F5F5F5F5F5F5F5F5F5F5F5F5F5F5F5F5F5F5F5F5F5F5F5F5F5F5F5F5F5F5F5F5F5F5F5F5F5F5F5F5F5F5F5F5F5F5F5F5F5F5F5F5F5F5F5F5F5F5F5F5F5F5F5F5F5F5F5F5F5F5F5F5F5F5F5F5F5F5F5F5F5F5F5F5F5
310
F5F5F5F5F5F5F5F5F5F5F5F5F5F5F5F5F5F5E2F5F5F5F5F5F5F5F5F5F5F5F5F5F5F5F5F5F5F5F5F5E2E2F5F5F5F5F5F5F5F5F5F5F5F5F5F5F5F5F5F5F5F5F5E2F5F5F5F5F5F5F5F5F5F5F5F5F5F5F5F5F5F5F5F5F5F5F5F5F5F5F5F5F5F5F5F5F5F5F5F5F5F5F5F5F5F5F5F5F5F5F5F5F5F5F5F5F5F5F5F5F5F5F5F5F5F5F5
310
F5F5F5F5F5F5F5F5F5F5F5F5F5F5F5F5F5F5F5F5F5F5F5F5F5F5F5F5F5F5F5F5F5F5F5F5F5F5F5F5F5F5F5F5F5F5F5F5F5F5F5F5F5F5F5F5F5F5F5F5F5F5F5F5F5F5F5F5F5F5F5E2F5F5F5F5F5F5F5F5F5F5F5F5F5F5F5F5F5F5F5F5F5E2E2F5F5F5F5F5F5F5F5F5F5F5F5F5F5F5F5F5F5F5F5F5E2F5F5F5F5F5F5F5F5F5F5
310
F5F5F5F5F5F5F5F5F5F5F5F5F5F5F5F5F5F5F5F5F5F5F5F5F5F5F5F5F5F5F5F5F5F5F5F5F5F5F5F5F5F5F5F5F5F5F5F5F5F5F5F5F5F5F5F5F5F5F5F5F5F5F5F5F5F5F5F5F5F5F5F5F5F5F5F5F5F5F5F5F5F5F5F5F5F5F5F5F5F5F5F5F5F5F5F5F5F5F5F5F5F5F5F5F5F5F5F5F5F5F5F5F5F5F5F5F5F5F5F5F5F5F5F5E2F5F5
310
F5F5F5F5F5F5F5F5F5F5F5F5F5F5F5F5F5F5F5E2E2F5F5F5F5F5F5F5F5F5F5F5F5F5F5F5F5F5F5F5F5F5E2F5F5F5F5F5F5F5F5F5F5F5F5F5F5F5F5F5F5F5F5F5F5F5F5F5F5F5F5F5F5F5F5F5F5F5F5F5F5F5F5F5F5F5F5F5F5F5F5F5F5F5F5F5F5F5F5F5F5F5F5F5F5F5F5F5F5F5F5F5F5F5F5F5F5F5F5F5F5F5F5F5F5F5F5
310
F5F5F5F5F5F5F5F5F5F5F5F5F5F5F5F5F5F5F5F5F5F5F5F5F5F5F5F5F5F5F5F5F5F5F5F5F5F5F5F5F5F5F5F5F5F5F5F5F5F5E2F5F5F5F5F5F5F5F5F5F5F5F5F5F5F5F5F5F5F5F5F5E2E2F5F5F5F5F5F5F5F5F5F5F5F5F5F5F5F5F5F5F5F5F5E2F5F5F5F5F5F5F5F5F5F5F5F5F5F5F5F5F5F5F5F5F5F5F5F5F5F5F5F5F5F5F5
310
F5F5F5F5F5F5F5F5F5F5F5F5F5F5F5F5F5F5F5F5F5F5F5F5F5F5F5F5F5F5F5F5F5F5F5F5F5F5F5F5F5F5F5F5F5F5F5F5F5F5F5F5F5F5F5F5F5F5F5F5F5F5F5F5F5F5F5F5F5F5F5F5F5F5F5F5F5F5F5F5F5F5F5F5F5F5F5F5F5F5F5F5F5F5F5F5F5F5F5F5F5F5F5E2F5F5F5F5F5F5F5F5F5F5F5F5F5F5F5F5F5F5F5F5F5E2E2
310
F5F5F5F5F5F5F5F5F5F5F5F5F5F5F5F5F5F5F5F5F5E2F5F5F5F5F5F5F5F5F5F5F5F5F5F5F5F5F5F5F5F5F5F5F5F5F5F5F5F5F5F5F5F5F5F5F5F5F5F5F5F5F5F5F5F5F5F5F5F5F5F5F5F5F5F5F5F5F5F5F5F5F5F5F5F5F5F5F5F5F5F5F5F5F5F5F5F5F5F5F5F5F5F5F5F5F5F5F5F5F5F5F5F5F5F5F5F5F5F5F5F5F5F5F5F5F5
310
F5F5F5F5F5F5F5F5F5F5F5F5F5F5F5F5F5F5F5F5F5F5F5F5F5F5F5F5F5E2F5F5F5F5F5F5F5F5F5F5F5F5F5F5F5F5F5F5F5F5F5E2E2F5F5F5F5E2F5F5F5F5F5F5F5F5F5F5F5F5F5F5F5F5E2F5F5F5F5F5F5F5F5F5F5F5F5F5F5F5F5F5F5F5F5F5F5F5F5F5F5F5F5F5F5F5F5F5F5F5F5F5F5F5F5F5F5F5F5F5F5F5F5F5F5F5F5
310
F5F5F5F5F5F5F5F5F5F5F5F5F5F5F5F5F5F5F5F5F5F5F5F5F5F5F5F5F5F5F5F5F5F5F5F5F5F5F5F5F5F5F5F5F5F5F5F5F5E2F0E2E2F5F5F5F5F5F5E2F0E2E2F5DCF5F5F5F5F5F5F0F0E2F5F5F5F5F5F5F5F5E2F5F5F5F5F5F5F5F5F5F5F5F5F5F5F5F5E2F5F5F5F5E2E2F5F5F5F5E2F5F5F5F5F5F5F5F5F5F5F5F5F5F5F5F5
310
E2F5F5F5F5F5F5F5F5F5F5F5F5F5F5F5F5F5F5F5F5F5F5F5F5F5F5F5F5F5F5F5F5F5F5F5F5F5F5F5F5F5F5F5F5F5F5F5F5F5F5F5F5F5F5F5F5F5F5F5F5F5F5F5F5F5F5F5F5F5F5F5F5F5F5F5F5F5F5F5F5F5F5F5F5F5F5F5F5F5F5F5F5F5F5F5F5F5F5F5F5E2DCDCF0F5E2F5F5F5F5F5E2F5F0E2E2DCF5F5F5F5F5E2F0F0F5
310
E2F5F5F5E2E2E2F5E2F5F5F5F5F5F5F5F5F5F5F5F5F5F5F5F5E2F5F5F5F5E2E2F5F5F5F5E2F5F5F5F5F5F5F5F5F5F5F5F5F5F5F5F5E2F5F5F5F5F5F5F5F5F5F5F5F5F5F5F5F5F5F5F5F5F5F5F5F5F5F5F5F5F5F5F5F5F5F5F5F5F5F5F5F5F5F5F5F5F5F5F5F5F5F5F5F5F5F5F5F5F5F5F5F5F5F5F5F5F5F5F5F5F5F5F5F5F5
310
F5F5F5F5F5F5F5F5F5F5F5F5F5F5F5F5F5F5F5F5F5F5F5F5F5F5E2F0DCF0DCE2E2E2F5F5F5E2E2F0F0F0E2DCF5F5F5F5E2F0F0F0E2E2F0E2E2E2E2E2E2E2F5F5F5F5F5F5F5F5F5F5F5F5F5F5F5F5E2F5F5F5F5E2E2F5F5F5F5E2F5F5F5F5F5F5F5F5F5F5F5F5F5F5F5F5E2F5F5F5F5F5F5F5F5F5F5F5F5F5F5F5F5F5F5F5F5
310
F5F5F5F5F5F5F5F5F5F5F5F5F5F5F5F5F5F5F5F5F5F5F5F5F5F5F5F5F5F5F5F5F5F5F5F5F5F5F5F5F5F5F5F5F5F5F5F5F5F5F5F5F5F5F5F5F5F5F5F5F5F5F5F5F5F5F5F5F5F5F5F5F5F5F5F5F5F5F5E2F0DCF0DCF0F0E2F5F5F5E2F0DCE2E2E2DCF5F5F5F5F0F0F0F0E2E2F0E2F5E2E2E2E2E2F5F5F5F5F5F5F5F5F5F5F5F5
310
F5F5F5F5E2F5F5F5F5E2E2F5F5F5F5E2F5F5F5F5F5F5F5F5F5F5F5F5F5F5F5F5E2F5F5F5F5F5F5F5F5F5F5F5F5F5F5F5F5F5F5F5F5F5F5F5F5F5F5F5F5F5F5F5F5F5F5F5F5F5F5F5F5F5F5F5F5F5F5F5F5F5F5F5F5F5F5F5F5F5F5F5F5F5F5F5F5F5F5F5F5F5F5F5F5F5F5F5F5F5F5F5F5F5F5F5F5F5F5F5F5F5F5F5F5F5F5
310
F5F5F5F5F5F5E2DCDCDCF0E2F5F5F5F5F5F0DCDCE2E2DCF5F5F5F5F5F0F0F0DCE2F0F5E2E2E2E2F5E2F5F5F5F5F5F5F5F5F5F5F5F5F5F5F5F5E2F5F5F5F5E2E2F5F5F5F5E2F5F5F5F5F5F5F5F5F5F5F5F5F5F5F5F5E2F5F5F5F5F5F5F5F5F5F5F5F5F5F5F5F5F5F5F5F5F5F5F5F5F5F5F5F5F5F5F5F5F5F5F5F5F5F5F5F5F5
310
F5F5F5F5F5F5F5F5F5F5F5F5F5F5F5F5F5F5F5F5F5F5F5F5F5F5F5F5F5F5F5F5F5F5F5F5F5F5F5F5F5F5F5F5F5F5F5F5F5F5F5F5F5F5F5F5F5F5F5E2F0F0F0E2F5F5F5F5F5E2F0E2E2E2E2DCF5F5F5F5F5F0F0E2E2F5F5F5F5E2E2E2F5E2F5F5F5F5F5F5F5F5F5F5F5F5F5F5F5F5E2F5F5F5F5E2E2F5F5F5F5E2F5F5F5F5F5
310
F5F5F5F5F5F5F5F5F5F5F5E2F5F5F5F5F5F5F5F5F5F5F5F5F5F5F5F5F5F5F5F5F5F5F5F5F5F5F5F5F5F5F5F5F5F5F5F5F5F5F5F5F5F5F5F5F5F5F5F5F5F5F5F5F5F5F5F5F5F5F5F5F5F5F5F5F5F5F5F5F5F5F5F5F5F5F5F5F5F5F5F5F5F5F5F5F5F5F5F5F5F5F5F5F5F5F5F5F5F5F5F5F5F5E2E2F5F5F5F5F5F5F5F5E2E2F5
310
F5DCF5F5F5F5F5F5F5F0E2F5F5F5F5F5E2F5F5E2F5F5F5F5F5F5F5F5F5F5F5F5F5F5F5F5E2F5F5F5F5E2E2F5F5F5F5E2F5F5F5F5F5F5F5F5F5F5F5F5F5F5F5F5E2F5F5F5F5F5F5F5F5F5F5F5F5F5F5F5F5F5F5F5F5F5F5F5F5F5F5F5F5F5F5F5F5F5F5F5F5F5F5F5F5F5F5F5F5F5F5F5F5F5F5F5F5F5F5F5F5F5F5F5F5F5F5
310
F5F5F5F5F5F5F5F5F5F5F5F5F5F5F5F5F5F5F5F5F5F5F5F5F5F5F5F5F5F5F5F5F5F5F5F5F5F5F5F5F5F5F5F5F5F5F5F5F5F5F5F5F5F5DCF5F5F5F5F5F5F5F5F5F5F5F5F5F5F5F5F5E2F5F5F5F5F5F5F5F5F5F5F5F5F5F5F5F5E2F5F5F5F5E2E2F5F5F5F5E2F5F5F5F5F5F5F5F5F5F5F5F5F5F5F5F5E2F5F5F5F5F5F5F5F5F5
310
F5F5F5F5F5F5F5F5F5F5F5F5F5F5F5F5F5F5F5F5F5F5F5F5F5F5F5F5F5F5F5F5F5F5F5F5F5F5F5F5F5F5F5F5F5F5F5F5F5F5F5F5F5F5F5F5F5F5F5F5F5F5F5F5F5F5F5F5F5F5F5F5F5F5F5F5F5F5F5F5F5F5F5F5F5F5F5F5F5F5F5F5F5F5F5F5F5F5F5F5F5F5F5F5F5F5F5DCF5F5F5F5F5F5F5F5F5F5F5F5F5F5F5F5F5E2F5
310
F5F5F5F5F5F5F5F5F5F5F5F5F5F5F5E2F5F5F5F5E2E2F5F5F5F5E2F5F5F5F5F5F5F5F5F5F5F5F5F5F5F5F5E2F5F5F5F5F5F5F5F5F5F5F5F5F5F5F5F5F5F5F5F5F5F5F5F5F5F5F5F5F5F5F5F5F5F5F5F5F5F5F5F5F5F5F5F5F5F5F5F5F5F5F5F5F5F5F5F5F5F5F5F5F5F5F5F5F5F5F5F5F5F5F5F5F5F5F5F5F5F5F5F5F5F5F5
310
F5F5F5F5F5F5F5F5F5F5F5F5F5F5F5F5F5F5F5F5F5F5F5F5F5F5F5F5F5F5F5F5F5DCF5F5F5F5F5F5F5F5F5F5F5F5F5F5F5F5F5E2F5F5F5F5F5F5F5F5F5F5F5F5F5F5F5F5E2F5F5F5F5E2E2F5F5F5F5E2F5F5F5F5F5F5F5F5F5F5F5F5F5F5F5F5E2F5F5F5F5F5F5F5F5F5F5F5F5F5F5F5F5F5F5F5F5F5F5F5F5F5F5F5F5F5F5
310
F5F5F5F5F5F5F5F5F5F5F5F5F5F5F5F5F5F5F5F5F5F5F5F5F5F5F5F5F5F5F5F5F5F5F5F5F5F5F5F5F5F5F5F5F5F5F5F5F5F5F5F5F5F5F5F5F5F5F5F5F5F5F5F5F5F5F5F5F5F5F5F5F5F5F5F5F5F5F5F5F5F5F5F5F5F5DCF5F5F5F5F5F5F5F5F5F5F5F5F5F5F5F5F5E2F5F5F5F5F5F5F5F5F5F5F5F5F5F5F5F5E2F5F5F5F5E2
310
E2F5F5F5F5E2F5F5F5F5F5F5F5F5F5F5F5F5F5F5F5F5E2F5F5F5F5F5F5F5F5F5F5F5F5F5F5F5F5F5F5F5F5F5F5F5F5F5F5F5F5F5F5F5F5F5F5F5F5F5F5F5F5F5F5F5F5F5F5F5F5F5F5F5F5F5F5F5F5F5F5F5F5F5F5F5F5F5F5F5F5F5F5F5F5F5F5F5F5F5F5F5F5F5F5F5F5F5F5F5F5F5F5F5F5F5F5F5F5F5F5F5F5F5F5F5F5
310
F5F5F5F5F5F5F5F5F5F5F5F5DCF5F5F5F5F5F5F5F5F5F5F5F5F5F5F5F5F5E2F5F5F5F5F5F5F5F5F5F5F5F5F5F5F5F5E2F5F5F5F5E2E2F5F5F5F5E2F5F5F5F5F5F5F5F5F5F5F5F5F5F5F5F5E2F5F5F5F5F5F5F5F5F5F5F5F5F5F5F5F5F5F5F5F5F5F5F5F5F5F5F5F5F5F5F5F5F5F5F5F5F5F5F5F5F5F5F5F5F5F5F5F5F5F5F5
310
F5F5F5F5F5F5F5F5F5F5F5F5F5F5F5F5F5F5F5F5F5F5F5F5F5F5F5F5F5F5F5F5F5F5F5F5F5F5F5F5F5F5F5F5F5F5F5F5F5F5F5F5F5F5F5F5F5F5F5F5F5F5F5F5F5DCF5F5F5F5F5F5F5F5F5F5F5F5F5F5F5F5F5E2F5F5F5F5F5F5F5F5F5F5F5F5F5F5F5F5E2F5F5F5F5E2E2F5F5F5F5E2F5F5F5F5F5F5F5F5F5F5F5F5F5F5F5
310
F5E2F5F5F5F5F5F5F5F5F5F5F5F5F5F5F5F5F5F5F5F5F5F5F5F5F5F5F5F5F5F5F5F5F5F5F5F5F5F5F5F5F5F5F5F5F5F5F5F5F5F5F5F5F5F5F5F5F5F5F5F5F5F5F5F5F5F5F5F5F5F5F5F5F5F5F5F5F5F5F5F5F5F5F5F5F5F5F5F5F5F5F5F5F5F5F5F5F5F5F5F5F5F5F5F5F5F5F5F5F5F5F5F5F5F5F5F5DCF5F5F5F5F5F5F5F5
310
F5F5F5F5F5F5F5F5F5E2F5F5F5F5F5F5F5F5F5F5F5F5F5F5F5F5E2F5F5F5F5E2E2F5F5F5F5E2F5F5F5F5F5F5F5F5F5F5F5F5F5F5F5F5E2F5F5F5F5F5F5F5F5F5F5F5F5F5F5F5F5F5F5F5F5F5F5F5F5F5F5F5F5F5F5F5F5F5F5F5F5F5F5F5F5F5F5F5F5F5F5F5F5F5F5F5F5F5F5F5F5F5F5F5F5F5F5F5F5F5F5F5F5F5F5F5F5
310
F5F5F5F5F5F5F5F5F5F5F5F5F5F5F5F5F5F5F5F5F5F5F5F5F5F5F5F5F5F5F5F5F5F5F5F5F5F5F5F5F5F5E2E2DCE2F5F5F5F5F5F5F5F5F5F5F5F5F5F5F5F5E2F5F5F5F5F5F5F5F5F5F5F5F5F5F5F5F5E2F5F5F5F5E2E2F5F5F5F5E2F5F5F5F5F5F5F5F5F5F5F5F5F5F5F5F5E2F5F5F5F5F5F5F5F5F5F5F5F5F5F5F5F5F5F5F5
310
F5F5F5F5F5F5F5F5F5F5F5F5F5F5F5F5F5F5F5F5F5F5F5F5F5F5F5F5F5F5F5F5F5F5F5F5F5F5F5F5F5F5F5F5F5F5F5F5F5F5F5F5F5F5F5F5F5F5F5F5F5F5F5F5F5F5F5F5F5F5F5F5F5F5F5F5F5F5F5F5F5F5F5F5F5F5F5F5F5F5F5F5F5F5F5F5F5DCF5F5F5F5F5F5F5F5F5F5F5F5F5F5F5F5F5E2F5F5F5F5F5F5F5F5F5F5F5
310
F5F5F5F5F5E2F5F5F5F5E2E2F5F5F5F5E2F5F5F5F5F5F5F5F5F5F5F5F5F5F5F5F5E2F5F5F5F5F5F5F5F5F5F5F5F5F5F5F5F5F5F5F5F5F5F5F5F5F5F5F5F5F5F5F5F5F5F5F5F5F5F5F5F5F5F5F5F5F5F5F5F5F5F5F5F5F5F5F5F5F5F5F5F5F5F5F5F5F5F5F5F5F5F5F5F5F5F5F5F5F5F5F5F5F5F5F5F5F5F5F5F5F5F5F5F5F5
310
F5F5F5F5F5F5F5F5F5F5F5F5F5F5F5F5F5F5F5F5F5F5F5DCF5F5F5F5F5F5F5F5F5F5F5F5F5F5F5F5F5E2F5F5F5F5F5F5F5F5F5F5F5F5F5F5F5F5E2F5F5F5F5E2E2F5F5F5F5F5F5F5F5F5F5F5F5F5F5F5F5F5F5F5F5F5E2F5F5F5F5F5F5F5F5F5F5F5F5F5F5F5F5F5F5F5F5F5F5F5F5F5F5F5F5F5F5F5F5F5F5F5F5F5F5F5F5
310
F5F5F5F5F5F5F5F5F5F5F5F5F5F5F5F5F5F5F5F5F5F5F5F5F5F5F5F5F5F5F5F5F5F5F5F5F5F5F5F5F5F5F5F5F5F5F5F5F5F5F5F5F5F5F5F5F5F5F5F5F5F5F5F5F5F5F5F5F5F5F5F5F5F5F5F5DCF5F5F5F5F5F5F5F5F5F5F5F5F5F5F5F5F5E2F5F5F5F5F5F5F5F5F5F5F5F5F5F5F5F5F5F5F5F5F5E2E2F5F5F5F5F5F5F5F5F5
310
F5F5F5F5F5F5F5F5F5F5F5F5E2F5F5F5F5F5F5F5F5F5F5F5F5F5F5F5F5F5F5F5F5F5F5F5F5F5F5F5F5F5F5F5F5F5F5F5F5F5F5F5F5F5F5F5F5F5F5F5F5F5F5F5F5F5F5F5F5F5F5F5F5F5F5F5F5F5F5F5F5F5F5F5F5F5F5F5F5F5F5F5F5F5F5F5F5F5F5F5F5F5F5F5F5F5F5F5F5F5F5F5F5F5F5F5F5F5F5F5F5F5F5F5F5F5F5
310
F5F5F5F5F5F5F5F5F5F5F5F5F5F5F5F5F5F5F5F5E2F5F5F5F5F5F5F5F5F5F5F5F5F5F5F5F5F5F5F5F5F5E2E2F5F5F5F5F5F5F5F5F5F5F5F5F5F5F5F5F5F5F5F5F5E2F5F5F5F5F5F5F5F5F5F5F5F5F5F5F5F5F5F5F5F5F5F5F5F5F5F5F5F5F5F5F5F5F5F5F5F5F5F5F5F5F5F5F5F5F5F5F5F5F5F5F5F5F5F5F5F5F5F5F5F5F5
310
F5F5F5F5F5F5F5F5F5F5F5F5F5F5F5F5F5F5F5F5F5F5F5F5F5F5F5F5F5F5F5F5F5F5F5F5F5F5F5F5F5F5F5F5F5F5F5F5F5F5F5F5F5F5F5F5F5F5F5F5F5F5F5F5F5F5F5F5F5F5F5F5F5E2F5F5F5F5F5F5F5F5F5F5F5F5F5F5F5F5F5F5F5F5F5E2E2F5F5F5F5F5F5F5F5F5F5F5F5F5F5F5F5F5F5F5F5F5E2F5F5F5F5F5F5F5F5
310
F5F5F5F5F5F5F5F5F5F5F5F5F5F5F5F5F5F5F5F5F5F5F5F5F5F5F5F5F5F5F5F5F5F5F5F5F5F5F5F5F5F5F5F5F5F5F5F5F5F5F5F5F5F5F5F5F5F5F5F5F5F5F5F5F5F5F5F5F5F5F5F5F5F5F5F5F5F5F5F5F5F5F5F5F5F5F5F5F5F5F5F5F5F5F5F5F5F5F5F5F5F5F5F5F5F5F5F5F5F5F5F5F5F5F5F5F5F5F5F5F5F5F5F5F5F5E2
310
F5F5F5F5F5F5F5F5F5F5F5F5F5F5F5F5F5F5F5F5F5E2E2F5F5F5F5F5F5F5F5F5F5F5F5F5F5F5F5F5F5F5F5F5E2F5F5F5F5F5F5F5F5F5F5F5F5F5F5F5F5F5F5F5F5F5F5F5F5F5F5F5F5F5F5F5F5F5F5F5F5F5F5F5F5F5F5F5F5F5F5F5F5F5F5F5F5F5F5F5F5F5F5F5F5F5F5F5F5F5F5F5F5F5F5F5F5F5F5F5F5F5F5F5F5F5F5
310
F5F5F5F5F5F5F5F5F5F5F5F5F5F5F5F5F5F5F5F5F5F5F5F5F5F5F5F5F5F5F5F5F5F5F5F5F5F5F5F5F5F5F5F5F5F5F5F5F5F5F5F5E2F5F5F5F5F5F5F5F5F5F5F5F5F5F5F5F5F5F5F5F5F5E2E2F5F5F5F5F5F5F5F5F5F5F5F5F5F5F5F5F5F5F5F5F5E2F5F5F5F5F5F5F5F5F5F5F5F5F5F5F5F5F5F5F5F5F5F5F5F5F5F5F5F5F5
310
F5F5F5F5F5F5F5F5F5F5F5F5F5F5F5F5F5F5F5F5F5F5F5F5F5F5F5F5F5F5F5F5F5F5F5F5F5F5F5F5F5F5F5F5F5F5F5F5F5F5F5F5F5F5F5F5F5F5F5F5F5F5F5F5F5F5F5F5F5F5F5F5F5F5F5F5F5F5F5F5F5F5F5F5F5F5F5F5F5F5F5F5F5F5F5F5F5F5F5F5F5F5F5F5F5E2F5F5F5F5F5F5F5F5F5F5F5F5F5F5F5F5F5F5F5F5F5
310
E2E2F5F5F5F5F5F5F5F5F5F5F5F5F5F5F5F5F5F5F5F5F5E2F5F5F5F5F5F5F5F5F5F5F5F5F5F5F5F5F5F5F5F5F5F5F5F5F5F5F5F5F5F5F5F5F5F5F5F5F5F5F5F5F5F5F5F5F5F5F5F5F5F5F5F5F5F5F5F5F5F5F5F5F5F5F5F5F5F5F5F5F5F5F5F5F5F5F5F5F5F5F5F5F5F5F5F5F5F5F5F5F5F5F5F5F5F5F5F5F5F5F5F5F5F5F5
310
F5F5F5F5F5F5F5F5F5F5F5F5F5F5F5F5F5F5F5F5F5F5F5F5F5F5F5F5F5F5F5E2F5F5F5F5F5F5F5F5F5F5F5F5F5F5F5F5F5F5F5F5F5E2E2F5F5F5F5F5F5F5F5F5F5F5F5F5F5F5F5F5F5F5F5F5E2F5F5F5F5F5F5F5F5F5F5F5F5F5F5F5F5F5F5F5F5F5F5F5F5F5F5F5F5F5F5F5F5F5F5F5F5F5F5F5F5F5F5F5F5F5F5F5F5F5F5
310
F5F5F5F5F5F5F5F5F5F5F5F5F5F5F5F5F5F5F5F5F5F5F5F5F5F5F5F5F5F5F5F5F5F5F5F5F5F5F5F5F5F5F5F5F5F5F5F5F5F5F5F5F5F5F5F5F5F5F5F5F5F5F5F5F5F5F5F5F5F5F5F5F5F5F5F5F5F5F5F5F5F5F5F5E2F5F5F5F5F5F5F5F5F5F5F5F5F5F5F5F5F5F5F5F5F5E2E2F5F5F5F5F5F5F5F5F5F5F5F5F5F5F5F5F5F5F5
310
F5F5E2F5F5F5F5F5F5F5F5F5F5F5F5F5F5F5F5F5F5F5F5F5F5F5F5F5F5F5F5F5F5F5F5F5F5F5F5F5F5F5F5F5F5F5F5F5F5F5F5F5F5F5F5F5F5F5F5F5F5F5F5F5F5F5F5F5F5F5F5F5F5F5F5F5F5F5F5F5F5F5F5F5F5F5F5F5F5F5F5F5F5F5F5F5F5F5F5F5F5F5F5F5F5F5F5F5F5F5F5F5F5F5F5F5F5F5F5F5F5F5F5F5F5F5F5
310
F5F5F5F5F5F5F5F5F5F5E2F5F5F5F5F5F5F5F5F5F5F5F5F5F5F5F5F5F5F5F5F5E2E2F5F5F5F5E2F5F5F5F5F5F5F5F5F5F5F5F5F5F5F5F5E2F5F5F5F5F5F5F5F5F5F5F5F5F5F5F5F5F5F5F5F5F5F5F5F5F5F5F5F5F5F5F5F5F5F5F5F5F5F5F5F5F5F5F5F5F5F5F5F5F5F5F5F5F5F5F5F5F5F5F5F5F5F5F5F5F5F5F5F5F5F5F5
310
F5F5F5F5F5F5F5F5F5F5F5F5F5F5F5F5F5F5F5F5F5F5F5F5F5F5F5F5F5F5F5F5F5F5F5F5F5F5F5F5F5F5F5F5F5F5F5F5F5F5F5F5F5F5F5F5F5F5F5F5F5F5F5E2F5F5F5F5F5F5F5F5F5F5F5F5F5F5F5F5E2F5F5F5F5E2E2F5F5F5F5E2F5F5F5F5F5F5F5F5F5F5F5F5F5F5F5F5E2F5F5F5F5F5F5F5F5F5F5F5F5F5F5F5F5F5F5
310
F5F5F5F5F5F5F5F5F5F5F5F5F5F5F5F5F5F5F5F5F5F5F5F5F5F5F5F5F5F5F5F5F5F5F5F5F5F5F5F5F5F5F5F5F5F5F5F5F5F5F5F5F5F5F5F5F5F5F5F5F5F5F5F5F5F5F5F5F5F5F5F5F5F5F5F5F5F5F5F5F5F5F5F5F5F5F5F5F5F5F5F5F5F5F5F5F5F5F5F5F5F5F5F5F5F5F5F5F5F5F5F5F5F5F5F5E2F5F5F5F5F5F5F5F5F5F5
310
F5F5F5F5F5F5E2F5F5F5F5E2E2F5F5F5F5E2F5F5F5F5F5F5F5F5F5F5F5F5F5F5F5F5E2F5F5F5F5F5F5F5F5F5F5F5F5F5F5F5F5F5F5F5F5F5F5F5F5F5F5F5F5F5F5F5F5F5F5F5F5F5F5F5F5F5F5F5F5F5F5F5F5F5F5F5F5F5F5F5F5F5F5F5F5F5F5F5F5F5F5F5F5F5F5F5F5F5F5F5F5F5F5F5F5F5F5F5F5F5F5F5F5F5F5F5F5
310
F5F5F5F5F5F5F5F5F5F5F5F5F5F5F5F5F5F5F5F5F5F5F5F5F5F5F5F5F5F5F5F5F5F5F5F5F5F5F5F5F5F5E2F5F5F5F5F5F5F5F5F5F5F5F5F5F5F5F5E2F5F5F5F5E2E2F5F5F5F5E2F5F5F5F5F5F5F5F5F5F5F5F5F5F5F5F5E2F5F5F5F5F5F5F5F5F5F5F5F5F5F5F5F5F5F5F5F5F5F5F5F5F5F5F5F5F5F5F5F5F5F5F5F5F5F5F5
310
F5F5F5F5F5F5F5F5F5F5F5F5F5F5F5F5F5F5F5F5F5F5F5F5F5F5F5F5F5F5F5F5F5F5F5F5F5F5F5F5F5F5F5F5F5F5F5F5F5F5F5F5F5F5F5F5F5F5F5F5F5F5F5F5F5F5F5F5F5F5F5F5F5F5F5F5F5F5F5F5F5F5F5F5F5F5F5F5F5F5F5F5F5F5F5E2F5F5F5F5F5F5F5F5F5F5F5F5F5F5F5F5E2F5F5F5F5E2E2F5F5F5F5E2F5F5F5
310
F5F5F5F5F5F5F5F5F5F5F5F5F5E2F5F5F5F5F5F5F5F5F5F5F5F5F5F5F5F5F5F5F5F5F5F5F5F5F5F5F5F5F5F5F5F5F5F5F5F5F5F5F5F5F5F5F5F5F5F5F5F5F5F5F5F5F5F5F5F5F5F5F5F5F5F5F5F5F5F5F5F5F5F5F5F5F5F5F5F5F5F5F5F5F5F5F5F5F5F5F5F5F5F5F5F5F5F5F5F5F5F5F5F5F5F5F5F5F5F5F5F5F5F5F5F5F5
310
F5F5F5F5F5F5F5F5F5F5F5F5F5F5F5F5F5F5F5F5F5E2F5F5F5F5F5F5F5F5F5F5F5F5F5F5F5F5E2F5F5F5F5E2E2F5F5F5F5E2F5F5F5F5F5F5F5F5F5F5F5F5F5F5F5F5E2F5F5F5F5F5F5F5F5F5F5F5F5F5F5F5F5F5F5F5F5F5F5F5F5F5F5F5F5F5F5F5F5F5F5F5F5F5F5F5F5F5F5F5F5F5F5F5F5F5F5F5F5F5F5F5F5F5F5F5F5
310
F5F5F5F5F5F5F5F5F5F5F5F5F5F5F5F5F5F5F5F5F5F5F5F5F5F5F5F5F5F5F5F5F5F5F5F5F5F5F5F5F5F5F5F5F5F5F5F5F5F5F5F5F5F5F5F5F5F5F5F5F5F5F5F5F5F5F5F5F5F5F5F5F5F5E2F5F5F5F5F5F5F5F5F5F5F5F5F5F5F5F5E2F5F5F5F5E2E2F5F5F5F5E2F5F5F5F5F5F5F5F5F5F5F5F5F5F5F5F5E2F5F5F5F5F5F5F5
310
F5F5F5F5F5F5F5F5F5F5F5F5F5F5F5F5F5F5F5F5F5F5F5F5F5F5F5F5F5F5F5F5F5F5F5F5F5F5F5F5F5F5F5F5F5F5F5F5F5F5F5F5F5F5F5F5F5F5F5F5F5F5F5F5F5F5F5F5F5F5F5F5F5F5F5F5F5F5F5F5F5F5F5F5F5F5F5F5F5F5F5F5F5F5F5F5F5F5F5F5F5F5F5F5F5F5F5F5F5F5F5F5F5F5F5F5F5F5F5F5F5F5F5F5F5F5F5
310
E2F5F5F5F5F5F5F5F5F5F5F5F5F5F5F5F5E2F5F5F5F5E2E2F5F5F5F5E2F5F5F5F5F5F5F5F5F5F5F5F5F5F5F5F5E2F5F5F5F5F5F5F5F5F5F5F5F5F5F5F5F5F5F5F5F5F5F5F5F5F5F5F5F5F5F5F5F5F5F5F5F5F5F5F5F5F5F5F5F5F5F5F5F5F5F5F5F5F5F5F5F5F5F5F5F5F5F5F5F5F5F5F5F5F5F5F5F5F5F5F5F5F5F5F5F5F5
310
F5F5F5F5F5F5F5F5F5F5F5F5F5F5F5F5F5F5F5F5F5F5F5F5F5F5F5F5F5F5F5F5F5F5F5F5F5F5F5F5F5F5F5F5F5F5F5F5F5F5F5F5F5E2F5F5F5F5F5F5F5F5F5F5F5F5F5F5F5F5E2F5F5F5F5E2E2F5F5F5F5E2F5F5F5F5F5F5F5F5F5F5F5F5F5F5F5F5E2F5F5F5F5F5F5F5F5F5F5F5F5F5F5F5F5F5F5F5F5F5F5F5F5F5F5F5F5
310
F5F5F5F5F5F5F5F5F5F5F5F5F5F5F5F5F5F5F5F5F5F5F5F5F5F5F5F5F5F5F5F5F5F5F5F5F5F5F5F5F5F5F5F5F5F5F5F5F5F5F5F5F5F5F5F5F5F5F5F5F5F5F5F5F5F5F5F5F5F5F5F5F5F5F5F5F5F5F5F5F5F5F5F5F5F5F5F5F5F5F5F5F5F5F5F5F5F5F5F5F5F5F5F5F5F5E2F5F5F5F5F5F5F5F5F5F5F5F5F5F5F5F5E2F5F5F5
310
F5E2E2F5F5F5F5E2F5F5F5F5F5F5F5F5F5F5F5F5F5F5F5F5E2F5F5F5F5F5F5F5F5F5F5F5F5F5F5F5F5F5F5F5F5F5F5F5F5F5F5F5F5F5F5F5F5F5F5F5F5F5F5F5F5F5F5F5F5F5F5F5F5F5F5F5F5F5F5F5F5F5F5F5F5F5F5F5F5F5F5F5F5F5F5F5F5F5F5F5F5F5F5F5F5F5F5F5F5F5F5F5F5F5F5F5F5F5F5F5F5F5F5F5F5F5F5
310
F5F5F5F5F5F5F5F5F5F5F5F5F5F5F5F5F5F5F5F5F5F5F5F5F5F5F5F5F5F5F5F5E2F5F5F5F5F5F5F5F5F5F5F5F5F5F5F5F5E2F5F5F5F5E2E2F5F5F5F5E2F5F5F5F5F5F5F5F5F5F5F5F5F5F5F5F5E2F5F5F5F5F5F5F5F5F5F5F5F5F5F5F5F5F5F5F5F5F5F5F5F5F5F5F5F5F5F5F5F5F5F5F5F5F5F5F5F5F5F5F5F5F5F5F5F5F5
310
F5F5F5F5F5F5F5F5F5F5F5F5F5F5F5F5F5F5F5F5F5F5F5F5F5F5F5F5F5F5F5F5F5F5F5F5F5F5F5F5F5F5F5F5F5F5F5F5F5F5F5F5F5F5F5F5F5F5F5F5F5F5F5F5F5F5F5F5F5F5F5F5F5F5F5F5F5F5F5F5F5F5F5F5F5E2F5F5F5F5F5F5F5F5F5F5F5F5F5F5F5F5E2F5F5F5F5E2E2F5F5F5F5E2F5F5F5F5F5F5F5F5F5F5F5F5F5
310
F5F5F5E2F5F5F5F5F5F5F5F5F5F5F5F5F5F5F5F5F5F5F5F5F5F5F5F5F5F5F5F5F5F5F5F5F5F5F5F5F5F5F5F5F5F5F5F5F5F5F5F5F5F5F5F5F5F5F5F5F5F5F5F5F5F5F5F5F5F5F5F5F5F5F5F5F5F5F5F5F5F5F5F5F5F5F5F5F5F5F5F5F5F5F5F5F5F5F5F5F5F5F5F5F5F5F5F5F5F5F5F5F5F5F5F5F5F5F5F5F5F5F5F5F5F5F5
310
F5F5F5F5F5F5F5F5F5F5F5E2F5F5F5F5F5F5F5F5F5F5F5F5F5F5F5F5E2F5F5F5F5E2E2F5F5F5F5E2F5F5F5F5F5F5F5F5F5F5F5F5F5F5F5F5E2F5F5F5F5F5F5F5F5F5F5F5F5F5F5F5F5F5F5F5F5F5F5F5F5F5F5F5F5F5F5F5F5F5F5F5F5F5F5F5F5F5F5F5F5F5F5F5F5F5F5F5F5F5F5F5F5F5F5F5F5F5F5F5F5F5F5F5F5F5F5
310
F5F5F5F5F5F5F5F5F5F5F5F5F5F5F5F5F5F5F5F5F5F5F5F5F5F5F5F5F5F5F5F5F5F5F5F5F5F5F5F5F5F5F5F5F5F5F5F5F5F5F5F5F5F5F5F5F5F5F5F5F5F5F5F5E2F5F5F5F5F5F5F5F5F5F5F5F5F5F5F5F5E2F5F5F5F5E2E2F5F5F5F5E2F5F5F5F5F5F5F5F5F5F5F5F5F5F5F5F5E2F5F5F5F5F5F5F5F5F5F5F5F5F5F5F5F5F5
310
F5F5F5F5F5F5F5F5F5F5F5F5F5F5F5F5F5F5F5F5F5F5F5F5F5F5F5F5F5F5F5F5F5F5F5F5F5F5F5F5F5F5F5F5F5F5F5F5F5F5F5F5F5F5F5F5F5F5F5F5F5F5F5F5F5F5F5F5F5F5F5F5F5F5F5F5F5F5F5F5F5F5F5F5F5F5F5F5F5F5F5F5F5F5F5F5F5F5F5F5F5F5F5F5F5F5F5F5F5F5F5F5F5F5F5F5F5E2F5F5F5F5F5F5F5F5F5
310
F5F5F5F5F5F5F5E2F5F5F5F5E2E2F5F5F5F5E2F5F5F5F5F5F5F5F5F5F5F5F5F5F5F5F5E2F5F5F5F5F5F5F5F5F5F5F5F5F5F5F5F5F5F5F5F5F5F5F5F5F5F5F5F5F5F5F5F5F5F5F5F5F5F5F5F5F5F5F5F5F5F5F5F5F5F5F5F5F5F5F5F5F5F5F5F5F5F5F5F5F5F5F5F5F5F5F5F5F5F5F5F5F5F5F5F5F5F5F5F5F5F5F5F5F5F5F5
310
F5F5F5F5F5F5F5F5F5F5F5F5F5F5F5F5F5F5F5F5F5F5F5F5F5F5F5F5F5F5F5F5F5F5F5F5F5F5F5F5F5F5F5E2F5F5F5F5F5F5F5F5F5F5F5F5F5F5F5F5E2F5F5F5F5E2E2F5F5F5F5E2F5F5F5F5F5F5F5F5F5F5F5F5F5F5F5F5E2F5F5F5F5F5F5F5F5F5F5F5F5F5F5F5F5F5F5F5F5F5F5F5F5F5F5F5F5F5F5F5F5F5F5F5F5F5F5
310
F5F5F5F5F5F5F5F5F5F5F5F5F5F5F5F5F5F5F5F5F5F5F5F5F5F5F5F5F5F5F5F5F5F5F5F5F5F5F5F5F5F5F5F5F5F5F5F5F5F5F5F5F5F5F5F5F5F5F5F5F5F5F5F5F5F5F5F5F5F5F5F5F5F5F5F5F5F5F5F5F5F5F5F5F5F5F5F5F5F5F5F5F5F5F5F5E2F5F5F5F5F5F5F5F5F5F5F5F5F5F5F5F5E2F5F5F5F5E2E2F5F5F5F5E2F5F5
310
F5F5F5F5F5F5F5F5F5F5F5F5F5F5E2F5F5F5F5F5F5F5F5F5F5F5F5F5F5F5F5F5F5F5F5F5F5F5F5F5F5F5F5F5F5F5F5F5F5F5F5F5F5F5F5F5F5F5F5F5F5F5F5F5F5F5F5F5F5F5F5F5F5F5F5F5F5F5F5F5F5F5F5F5F5F5F5F5F5F5F5F5F5F5F5F5F5F5F5F5F5F5F5F5F5F5F5F5F5F5F5F5F5F5F5F5F5F5F5F5F5F5F5F5F5F5F5
310
F5F5F5F5F5F5F5F5F5F5F5F5F5F5F5F5F5F5F5F5F5F5E2F5F5F5F5F5F5F5F5F5F5F5F5F5F5F5F5E2F5F5F5F5E2E2F5F5F5F5F5F5F5F5F5F5F5F5F5F5F5F5F5F5F5F5F5E2F5F5F5F5F5F5F5F5F5F5F5F5F5F5F5F5F5F5F5F5F5F5F5F5F5F5F5F5F5F5F5F5F5F5F5F5F5F5F5F5F5F5F5F5F5F5F5F5F5F5F5F5F5F5F5F5F5F5F5
310
F5F5F5F5F5F5F5F5F5F5F5F5F5F5F5F5F5F5F5F5F5F5F5F5F5F5F5F5F5F5F5F5F5F5F5F5F5F5F5F5F5F5F5F5F5F5F5F5F5F5F5F5F5F5F5F5F5F5F5F5F5F5F5F5F5F5F5F5F5F5F5F5F5F5F5E2F5F5F5F5F5F5F5F5F5F5F5F5F5F5F5F5F5F5F5F5F5E2E2F5F5F5F5F5F5F5F5F5F5F5F5F5F5F5F5F5F5F5F5F5E2F5F5F5F5F5F5
310
F5F5F5F5F5F5F5F5F5F5F5F5F5F5F5F5F5F5F5F5F5F5F5F5F5F5F5F5F5F5F5F5F5F5F5F5F5F5F5F5F5F5F5F5F5F5F5F5F5F5F5F5F5F5F5F5F5F5F5F5F5F5F5F5F5F5F5F5F5F5F5F5F5F5F5F5F5F5F5F5F5F5F5F5F5F5F5F5F5F5F5F5F5F5F5F5F5F5F5F5F5F5F5F5F5F5F5F5F5F5F5F5F5F5F5F5F5F5F5F5F5F5F5F5F5F5F5
310
F5E2F5F5F5F5F5F5F5F5F5F5F5F5F5F5F5F5F5F5F5F5F5E2E2F5F5F5F5F5F5F5F5F5F5F5F5F5F5F5F5F5F5F5F5F5E2F5F5F5F5F5F5F5F5F5F5F5F5F5F5F5F5F5F5F5F5F5F5F5F5F5F5F5F5F5F5F5F5F5F5F5F5F5F5F5F5F5F5F5F5F5F5F5F5F5F5F5F5F5F5F5F5F5F5F5F5F5F5F5F5F5F5F5F5F5F5F5F5F5F5F5F5F5F5F5F5
310
F5F5F5F5F5F5F5F5F5F5F5F5F5F5F5F5F5F5F5F5F5F5F5F5F5F5F5F5F5F5F5F5F5F5F5F5F5F5F5F5F5F5F5F5F5F5F5F5F5F5F5F5F5F5E2F5F5F5F5F5F5F5F5F5F5F5F5F5F5F5F5F5F5F5F5F5E2E2F5F5F5F5F5F5F5F5F5F5F5F5F5F5F5F5F5F5F5F5F5E2F5F5F5F5F5F5F5F5F5F5F5F5F5F5F5F5F5F5F5F5F5F5F5F5F5F5F5
310
F5F5F5F5F5F5F5F5F5F5F5F5F5F5F5F5F5F5F5F5F5F5F5F5F5F5F5F5F5F5F5F5F5F5F5F5F5F5F5F5F5F5F5F5F5F5F5F5F5F5F5F5F5F5F5F5F5F5F5F5F5F5F5F5F5F5F5F5F5F5F5F5F5F5F5F5F5F5F5F5F5F5F5F5F5F5F5F5F5F5F5F5F5F5F5F5F5F5F5F5F5F5F5F5F5F5F5E2F5F5F5F5F5F5F5F5F5F5F5F5F5F5F5F5F5F5F5
310
F5F5E2E2F5F5F5F5F5F5F5F5F5F5F5F5F5F5F5F5F5F5F5F5F5E2F5F5F5F5F5F5F5F5F5F5F5F5F5F5F5F5F5F5F5F5F5F5F5F5F5F5F5F5F5F5F5F5F5F5F5F5F5F5F5F5F5F5F5F5F5F5F5F5F5F5F5F5F5F5F5F5F5F5F5F5F5F5F5F5F5F5F5F5F5F5F5F5F5F5F5F5F5F5F5F5F5F5F5F5F5F5F5F5F5F5F5F5F5F5F5F5F5F5F5F5F5
310
F5F5F5F5F5F5F5F5F5F5F5F5F5F5F5F5F5F5F5F5F5F5F5F5F5F5F5F5F5F5F5F5F5E2F5F5F5F5F5F5F5F5F5F5F5F5F5F5F5F5F5F5F5F5F5E2E2F5F5F5F5F5F5F5F5F5F5F5F5F5F5F5F5F5F5F5F5F5E2F5F5F5F5F5F5F5F5F5F5F5F5F5F5F5F5F5F5F5F5F5F5F5F5F5F5F5F5F5F5F5F5F5F5F5F5F5F5F5F5F5F5F5F5F5F5F5F5
310
F5F5F5F5F5F5F5F5F5F5F5F5F5F5F5F5F5F5F5F5F5F5F5F5F5F5F5F5F5F5F5F5F5F5F5F5F5F5F5F5F5F5F5F5F5F5F5F5F5F5F5F5F5F5F5F5F5F5F5F5F5F5F5F5F5F5F5F5F5F5F5F5F5F5F5F5F5F5F5F5F5F5F5F5F5F5E2F5F5F5F5F5F5F5F5F5F5F5F5F5F5F5F5F5F5F5F5F5E2E2F5F5F5F5F5F5F5F5F5F5F5F5F5F5F5F5F5
310
F5F5F5F5E2F5F5F5F5F5F5F5F5F5F5F5F5F5F5F5F5F5F5F5F5F5F5F5F5F5F5F5F5F5F5F5F5F5F5F5F5F5F5F5F5F5F5F5F5F5F5F5F5F5F5F5F5F5F5F5F5F5F5F5F5F5F5F5F5F5F5F5F5F5F5F5F5F5F5F5F5F5F5F5F5F5F5F5F5F5F5F5F5F5F5F5F5F5F5F5F5F5F5F5F5F5F5F5F5F5F5F5F5F5F5F5F5F5F5F5F5F5F5F5F5F5F5
310
F5F5F5F5F5F5F5F5F5F5F5F5E2F5F5F5F5F5F5F5F5F5F5F5F5F5F5F5F5F5F5F5F5F5E2E2F5F5F5F5F5F5F5F5F5F5F5F5F5F5F5F5F5F5F5F5F5E2F5F5F5F5F5F5F5F5F5F5F5F5F5F5F5F5F5F5F5F5F5F5F5F5F5F5F5F5F5F5F5F5F5F5F5F5F5F5F5F5F5F5F5F5F5F5F5F5F5F5F5F5F5F5F5F5F5F5F5F5F5F5F5F5F5F5F5F5F5
310
F5F5F5F5F5F5F5F5F5F5F5F5F5F5F5F5F5F5F5F5F5F5F5F5F5F5F5F5F5F5F5F5F5F5F5F5F5F5F5F5F5F5F5F5F5F5F5F5F5F5F5F5F5F5F5F5F5F5F5F5F5F5F5F5F5E2F5F5F5F5F5F5F5F5F5F5F5F5F5F5F5F5F5F5F5F5F5E2E2F5F5F5F5F5F5F5F5F5F5F5F5F5F5F5F5F5F5F5F5F5E2F5F5F5F5F5F5F5F5F5F5F5F5F5F5F5F5
310
F5F5F5F5F5F5F5F5F5F5F5F5F5F5F5F5F5F5F5F5F5F5F5F5F5F5F5F5F5F5F5F5F5F5F5F5F5F5F5F5F5F5F5F5F5F5F5F5F5F5F5F5F5F5F5F5F5F5F5F5F5F5F5F5F5F5F5F5F5F5F5F5F5F5F5F5F5F5F5F5F5F5F5F5F5F5F5F5F5F5F5F5F5F5F5F5F5F5F5F5F5F5F5F5F5F5F5F5F5F5F5F5F5F5F5F5F5F5E2F5F5F5F5F5F5F5F5
310
F5F5F5F5F5F5F5F5F5F5F5F5F5E2E2F5F5F5F5E2F5F5F5F5F5F5F5F5F5F5F5F5F5F5F5F5E2F5F5F5F5F5F5F5F5F5F5F5F5F5F5F5F5F5F5F5F5F5F5F5F5F5F5F5F5F5F5F5F5F5F5F5F5F5F5F5F5F5F5F5F5F5F5F5F5F5F5F5F5F5F5F5F5F5F5F5F5F5F5F5F5F5F5F5F5F5F5F5F5F5F5F5F5F5F5F5F5F5F5F5F5F5F5F5F5F5F5
310
F5F5F5F5F5F5F5F5F5F5F5F5F5F5F5F5F5F5F5F5F5F5F5F5F5F5F5F5F5F5F5F5F5F5F5F5F5F5F5F5F5F5F5F5E2F5F5F5F5F5F5F5F5F5F5F5F5F5F5F5F5E2F5F5F5F5E2E2F5F5F5F5E2F5F5F5F5F5F5F5F5F5F5F5F5F5F5F5F5E2F5F5F5F5F5F5F5F5F5F5F5F5F5F5F5F5F5F5F5F5F5F5F5F5F5F5F5F5F5F5F5F5F5F5F5F5F5
310
F5F5F5F5F5F5F5F5F5F5F5F5F5F5F5F5F5F5F5F5F5F5F5F5F5F5F5F5F5F5F5F5F5F5F5F5F5F5F5F5F5F5F5F5F5F5F5F5F5F5F5F5F5F5F5F5F5F5F5F5F5F5F5F5F5F5F5F5F5F5F5F5F5F5F5F5F5F5F5F5F5F5F5F5F5F5F5F5F5F5F5F5F5F5F5F5F5E2F5F5F5F5F5F5F5F5F5F5F5F5F5F5F5F5E2F5F5F5F5E2E2F5F5F5F5E2F5
310
F5F5F5F5F5F5F5F5F5F5F5F5F5F5F5E2F5F5F5F5F5F5F5F5F5F5F5F5F5F5F5F5F5F5F5F5F5F5F5F5F5F5F5F5F5F5F5F5F5F5F5F5F5F5F5F5F5F5F5F5F5F5F5F5F5F5F5F5F5F5F5F5F5F5F5F5F5F5F5F5F5F5F5F5F5F5F5F5F5F5F5F5F5F5F5F5F5F5F5F5F5F5F5F5F5F5F5F5F5F5F5F5F5F5F5F5F5F5F5F5F5F5F5F5F5F5F5
310
F5F5F5F5F5F5F5F5F5F5F5F5F5F5F5F5F5F5F5F5F5F5F5E2F5F5F5F5F5F5F5F5F5F5F5F5F5F5F5F5E2F5F5F5F5E2E2F5F5F5F5E2F5F5F5F5F5F5F5F5F5F5F5F5F5F5F5F5E2F5F5F5F5F5F5F5F5F5F5F5F5F5F5F5F5F5F5F5F5F5F5F5F5F5F5F5F5F5F5F5F5F5F5F5F5F5F5F5F5F5F5F5F5F5F5F5F5F5F5F5F5F5F5F5F5F5F5
310
F5F5F5F5F5F5F5F5F5F5F5F5F5F5F5F5F5F5F5F5F5F5F5F5F5F5F5F5F5F5F5F5F5F5F5F5F5F5F5F5F5F5F5F5F5F5F5F5F5F5F5F5F5F5F5F5F5F5F5F5F5F5F5F5F5F5F5F5F5F5F5F5F5F5F5F5E2F5F5F5F5F5F5F5F5F5F5F5F5F5F5F5F5E2F5F5F5F5E2E2F5F5F5F5E2F5F5F5F5F5F5F5F5F5F5F5F5F5F5F5F5E2F5F5F5F5F5
310
F5F5F5F5F5F5F5F5F5F5F5F5F5F5F5F5F5F5F5F5F5F5F5F5F5F5F5F5F5F5F5F5F5F5F5F5F5F5F5F5F5F5F5F5F5F5F5F5F5F5F5F5F5F5F5F5F5F5F5F5F5F5F5F5F5F5F5F5F5F5F5F5F5F5F5F5F5F5F5F5F5F5F5F5F5F5F5F5F5F5F5F5F5F5F5F5F5F5F5F5F5F5F5F5F5F5F5F5F5F5F5F5F5F5F5F5F5F5F5F5F5F5F5F5F5F5F5
310
F5F5E2F5F5F5F5F5F5F5F5F5F5F5F5F5F5F5F5E2F5F5F5F5E2E2F5F5F5F5E2F5F5F5F5F5F5F5F5F5F5F5F5F5F5F5F5E2F5F5F5F5F5F5F5F5F5F5F5F5F5F5F5F5F5F5F5F5F5F5F5F5F5F5F5F5F5F5F5F5F5F5F5F5F5F5F5F5F5F5F5F5F5F5F5F5F5F5F5F5F5F5F5F5F5F5F5F5F5F5F5F5F5F5F5F5F5F5F5F5F5F5F5F5F5F5F5
310
F5F5F5F5F5F5F5F5F5F5F5F5F5F5F5F5F5F5F5F5F5F5F5F5F5F5F5F5F5F5F5F5F5F5F5F5F5F5F5F5F5F5F5F5F5F5F5F5F5F5F5F5F5F5F5E2F5F5F5F5F5F5F5F5F5F5F5F5F5F5F5F5E2F5F5F5F5E2E2F5F5F5F5E2F5F5F5F5F5F5F5F5F5F5F5F5F5F5F5F5E2F5F5F5F5F5F5F5F5F5F5F5F5F5F5F5F5F5F5F5F5F5F5F5F5F5F5
310
F5F5F5F5F5F5F5F5F5F5F5F5F5F5F5F5F5F5F5F5F5F5F5F5F5F5F5F5F5F5F5F5F5F5F5F5F5F5F5F5F5F5F5F5F5F5F5F5F5F5F5F5F5F5F5F5F5F5F5F5F5F5F5F5F5F5F5F5F5F5F5F5F5F5F5F5F5F5F5F5F5F5F5F5F5F5F5F5F5F5F5F5F5F5F5F5F5F5F5F5F5F5F5F5F5F5F5F5E2F5F5F5F5F5F5F5F5F5F5F5F5F5F5F5F5E2F5
310
F5F5F5E2E2F5F5F5F5E2F5F5F5F5F5F5F5F5F5F5F5F5F5F5F5F5E2F5F5F5F5F5F5F5F5F5F5F5F5F5F5F5F5F5F5F5F5F5F5F5F5F5F5F5F5F5F5F5F5F5F5F5F5F5F5F5F5F5F5F5F5F5F5F5F5F5F5F5F5F5F5F5F5F5F5F5F5F5F5F5F5F5F5F5F5F5F5F5F5F5F5F5F5F5F5F5F5F5F5F5F5F5F5F5F5F5F5F5F5F5F5F5F5F5F5F5F5
310
F5F5F5F5F5F5F5F5F5F5F5F5F5F5F5F5F5F5F5F5F5F5F5F5F5F5F5F5F5F5F5F5F5F5E2F5F5F5F5F5F5F5F5F5F5F5F5F5F5F5F5E2F5F5F5F5E2E2F5F5F5F5E2F5F5F5F5F5F5F5F5F5F5F5F5F5F5F5F5E2F5F5F5F5F5F5F5F5F5F5F5F5F5F5F5F5F5F5F5F5F5F5F5F5F5F5F5F5F5F5F5F5F5F5F5F5F5F5F5F5F5F5F5F5F5F5F5
310
F5F5F5F5F5F5F5F5F5F5F5F5F5F5F5F5F5F5F5F5F5F5F5F5F5F5F5F5F5F5F5F5F5F5F5F5F5F5F5F5F5F5F5F5F5F5F5F5F5F5F5F5F5F5F5F5F5F5F5F5F5F5F5F5F5F5F5F5F5F5F5F5F5F5F5F5F5F5F5F5F5F5F5F5F5F5F5E2F5F5F5F5F5F5F5F5F5F5F5F5F5F5F5F5E2F5F5F5F5E2E2F5F5F5F5E2F5F5F5F5F5F5F5F5F5F5F5
310
F5F5F5F5F5E2F5F5F5F5F5F5F5F5F5F5F5F5F5F5F5F5F5F5F5F5F5F5F5F5F5F5F5F5F5F5F5F5F5F5F5F5F5F5F5F5F5F5F5F5F5F5F5F5F5F5F5F5F5F5F5F5F5F5F5F5F5F5F5F5F5F5F5F5F5F5F5F5F5F5F5F5F5F5F5F5F5F5F5F5F5F5F5F5F5F5F5F5F5F5F5F5F5F5F5F5F5F5F5F5F5F5F5F5F5F5F5F5F5F5F5F5F5F5F5F5F5
310
F5F5F5F5F5F5F5F5F5F5F5F5F5E2F5F5F5F5F5F5F5F5F5F5F5F5F5F5F5F5E2F5F5F5F5E2E2F5F5F5F5E2F5F5F5F5F5F5F5F5F5F5F5F5F5F5F5F5E2F5F5F5F5F5F5F5F5F5F5F5F5F5F5F5F5F5F5F5F5F5F5F5F5F5F5F5F5F5F5F5F5F5F5F5F5F5F5F5F5F5F5F5F5F5F5F5F5F5F5F5F5F5F5F5F5F5F5F5F5F5F5F5F5F5F5F5F5
310
F5F5F5F5F5F5F5F5F5F5F5F5F5F5F5F5F5F5F5F5F5F5F5F5F5F5F5F5F5F5F5F5F5F5F5F5F5F5F5F5F5F5F5F5F5F5F5F5F5F5F5F5F5F5F5F5F5F5F5F5F5F5F5F5F5F5E2F5F5F5F5F5F5F5F5F5F5F5F5F5F5F5F5E2F5F5F5F5E2E2F5F5F5F5E2F5F5F5F5F5F5F5F5F5F5F5F5F5F5F5F5E2F5F5F5F5F5F5F5F5F5F5F5F5F5F5F5
310
F5F5F5F5F5F5F5F5F5F5F5F5F5F5F5F5F5F5F5F5F5F5F5F5F5F5F5F5F5F5F5F5F5F5F5F5F5F5F5F5F5F5F5F5F5F5F5F5F5F5F5F5F5F5F5F5F5F5F5F5F5F5F5F5F5F5F5F5F5F5F5F5F5F5F5F5F5F5F5F5F5F5F5F5F5F5F5F5F5F5F5F5F5F5F5F5F5F5F5F5F5F5F5F5F5F5F5F5F5F5F5F5F5F5F5F5F5F5F5E2F5F5F5F5F5F5F5
310
F5F5F5F5F5F5F5F5F5E2F5F5F5F5E2E2F5F5F5F5E2F5F5F5F5F5F5F5F5F5F5F5F5F5F5F5F5E2F5F5F5F5F5F5F5F5F5F5F5F5F5F5F5F5F5F5F5F5F5F5F5F5F5F5F5F5F5F5F5F5F5F5F5F5F5F5F5F5F5F5F5F5F5F5F5F5F5F5F5F5F5F5F5F5F5F5F5F5F5F5F5F5F5F5F5F5F5F5F5F5F5F5F5F5F5F5F5F5F5F5F5F5F5F5F5F5F5
310
F5F5F5F5F5F5F5F5F5F5F5F5F5F5F5F5F5F5F5F5F5F5F5F5F5F5F5F5F5F5F5F5F5F5F5F5F5F5F5F5F5F5F5F5F5E2F5F5F5F5F5F5F5F5F5F5F5F5F5F5F5F5E2F5F5F5F5E2E2F5F5F5F5E2F5F5F5F5F5F5F5F5F5F5F5F5F5F5F5F5E2F5F5F5F5F5F5F5F5F5F5F5F5F5F5F5F5F5F5F5F5F5F5F5F5F5F5F5F5F5F5F5F5F5F5F5F5
310
F5F5F5F5F5F5F5F5F5F5F5F5F5F5F5F5F5F5F5F5F5F5F5F5F5F5F5F5F5F5F5F5F5F5F5F5F5F5F5F5F5F5F5F5F5F5F5F5F5F5F5F5F5F5F5F5F5F5F5F5F5F5F5F5F5F5F5F5F5F5F5F5F5F5F5F5F5F5F5F5F5F5F5F5F5F5F5F5F5F5F5F5F5F5F5F5F5F5E2F5F5F5F5F5F5F5F5F5F5F5F5F5F5F5F5E2F5F5F5F5E2E2F5F5F5F5E2
310
F5F5F5F5F5F5F5F5F5F5F5F5F5F5F5F5E2F5F5F5F5F5F5F5F5F5F5F5F5F5F5F5F5F5F5F5F5F5F5F5F5F5F5F5F5F5F5F5F5F5F5F5F5F5F5F5F5F5F5F5F5F5F5F5F5F5F5F5F5F5F5F5F5F5F5F5F5F5F5F5F5F5F5F5F5F5F5F5F5F5F5F5F5F5F5F5F5F5F5F5F5F5F5F5F5F5F5F5F5F5F5F5F5F5F5F5F5F5F5F5F5F5F5F5F5F5F5
310
F5F5F5F5F5F5F5F5F5F5F5F5F5F5F5F5F5F5F5F5F5F5F5F5E2F5F5F5F5F5F5F5F5F5F5F5F5F5F5F5F5E2F5F5F5F5E2E2F5F5F5F5E2F5F5F5F5F5F5F5F5F5F5F5F5F5F5F5F5E2F5F5F5F5F5F5F5F5F5F5F5F5F5F5F5F5F5F5F5F5F5F5F5F5F5F5F5F5F5F5F5F5F5F5F5F5F5F5F5F5F5F5F5F5F5F5F5F5F5F5F5F5F5F5F5F5F5
310
F5F5F5F5F5F5F5F5F5F5F5F5F5F5F5F5F5F5F5F5F5F5F5F5F5F5F5F5F5F5F5F5F5F5F5F5F5F5F5F5F5F5F5F5F5F5F5F5F5F5F5F5F5F5F5F5F5F5F5F5F5F5F5F5F5F5F5F5F5F5F5F5F5F5F5F5F5E2F5F5F5F5F5F5F5F5F5F5F5F5F5F5F5F5E2F5F5F5F5E2E2F5F5F5F5E2F5F5F5F5F5F5F5F5F5F5F5F5F5F5F5F5E2F5F5F5F5
310
F5F5F5F5F5F5F5F5F5F5F5F5F5F5F5F5F5F5F5F5F5F5F5F5F5F5F5F5F5F5F5F5F5F5F5F5F5F5F5F5F5F5F5F5F5F5F5F5F5F5F5F5F5F5F5F5F5F5F5F5F5F5F5F5F5F5F5F5F5F5F5F5F5F5F5F5F5F5F5F5F5F5F5F5F5F5F5F5F5F5F5F5F5F5F5F5F5F5F5F5F5F5F5F5F5F5F5F5F5F5F5F5F5F5F5F5F5F5F5F5F5F5F5F5F5F5F5
310
F5F5F5E2F5F5F5F5F5F5F5F5F5F5F5F5F5F5F5F5E2F5F5F5F5E2E2F5F5F5F5F5F5F5F5F5F5F5F5F5F5F5F5F5F5F5F5F5E2F5F5F5F5F5F5F5F5F5F5F5F5F5F5F5F5F5F5F5F5F5F5F5F5F5F5F5F5F5F5F5F5F5F5F5F5F5F5F5F5F5F5F5F5F5F5F5F5F5F5F5F5F5F5F5F5F5F5F5F5F5F5F5F5F5F5F5F5F5F5F5F5F5F5F5F5F5F5
310
F5F5F5F5F5F5F5F5F5F5F5F5F5F5F5F5F5F5F5F5F5F5F5F5F5F5F5F5F5F5F5F5F5F5F5F5F5F5F5F5F5F5F5F5F5F5F5F5F5F5F5F5F5F5F5F5E2F5F5F5F5F5F5F5F5F5F5F5F5F5F5F5F5F5F5F5F5F5E2E2F5F5F5F5F5F5F5F5F5F5F5F5F5F5F5F5F5F5F5F5F5E2F5F5F5F5F5F5F5F5F5F5F5F5F5F5F5F5F5F5F5F5F5F5F5F5F5
310
F5F5F5F5F5F5F5F5F5F5F5F5F5F5F5F5F5F5F5F5F5F5F5F5F5F5F5F5F5F5F5F5F5F5F5F5F5F5F5F5F5F5F5F5F5F5F5F5F5F5F5F5F5F5F5F5F5F5F5F5F5F5F5F5F5F5F5F5F5F5F5F5F5F5F5F5F5F5F5F5F5F5F5F5F5F5F5F5F5F5F5F5F5F5F5F5F5F5F5F5F5F5F5F5F5F5F5F5F5E2F5F5F5F5F5F5F5F5F5F5F5F5F5F5F5F5F5
310
F5F5F5F5E2E2F5F5F5F5F5F5F5F5F5F5F5F5F5F5F5F5F5F5F5F5F5E2F5F5F5F5F5F5F5F5F5F5F5F5F5F5F5F5F5F5F5F5F5F5F5F5F5F5F5F5F5F5F5F5F5F5F5F5F5F5F5F5F5F5F5F5F5F5F5F5F5F5F5F5F5F5F5F5F5F5F5F5F5F5F5F5F5F5F5F5F5F5F5F5F5F5F5F5F5F5F5F5F5F5F5F5F5F5F5F5F5F5F5F5F5F5F5F5F5F5F5
310
F5F5F5F5F5F5F5F5F5F5F5F5F5F5F5F5F5F5F5F5F5F5F5F5F5F5F5F5F5F5F5F5F5F5F5E2F5F5F5F5F5F5F5F5F5F5F5F5F5F5F5F5F5F5F5F5F5E2E2F5F5F5F5F5F5F5F5F5F5F5F5F5F5F5F5F5F5F5F5F5E2F5F5F5F5F5F5F5F5F5F5F5F5F5F5F5F5F5F5F5F5F5F5F5F5F5F5F5F5F5F5F5F5F5F5F5F5F5F5F5F5F5F5F5F5F5F5
310
F5F5F5F5F5F5F5F5F5F5F5F5F5F5F5F5F5F5F5F5F5F5F5F5F5F5F5F5F5F5F5F5F5F5F5F5F5F5F5F5F5F5F5F5F5F5F5F5F5F5F5F5F5F5F5F5F5F5F5F5F5F5F5F5F5F5F5F5F5F5F5F5F5F5F5F5F5F5F5F5F5F5F5F5F5F5F5F5E2F5F5F5F5F5F5F5F5F5F5F5F5F5F5F5F5F5F5F5F5F5E2E2F5F5F5F5F5F5F5F5F5F5F5F5F5F5F5
310
F5F5F5F5F5F5E2E2E2E2E2E2E2E2E2E2E2E2E2E2E2E2E2E2E2E2E2E2E2E2E2E2E2E2E2E2E2E2E2E2E2E2E2E2E2E2E2E2E2E2E2E2E2E2E2E2E2E2E2E2E2E2E2E2E2E2E2E2E2E2E2E2E2E2E2E2E2E2E2E2E2E2E2E2E2E2E2E2E2E2E2E2E2E2E2E2E2E2E2E2E2E2E2E2E2E2E2E2E2E2E2E2E2E2E2E2E2E2E2E2E2E2E2E2E2E2E2
310
E2E2E2E2E2E2E2E2E2E2E2E2E2E2E2F5F5F5F5F5F5F5F5F5F5F5F5F5F5F5F5F5F5F5F5F5E2E2F5F5F5F5F5F5F5F5F5F5F5F5F5F5F5F5F5F5F5F5F5F5F5F5F5F5F5F5F5F5F5F5F5F5F5F5F5F5F5F5F5F5F5F5F5F5F5F5F5F5F5F5F5F5F5F5F5F5F5F5F5F5F5F5F5F5F5F5F5F5F5F5F5F5F5F5F5F5F5F5F5F5F5F5F5F5F5F5F5
310
F5F5F5F5F5F5F5F5F5F5F5F5F5F5F5F5F5F5F5F5F5F5F5F5F5F5F5F5F5F5F5F5F5F5F5F5F5F5F5F5F5F5F5F5F5F5F5F5F5F5F5F5F5F5F5F5F5F5F5F5F5F5F5F5F5F5F5F5F5F5F5F5F5F5F5F5F5F5F5F5F5F5F5F5F5F5F5F5F5E2E2F5F5F5F5F5F5F5F5F5F5F5F5F5F5F5F5F5F5F5F5F5F5F5F5F5F5F5F5F5F5F5F5F5F5F5F5
310
F5F5F5F5F5F5F5F5F5F5F5F5F5F5F5F5F5F5F5F5F5F5F5F5F5F5F5F5F5F5F5F5F5F5F5F5F5F5F5F5F5F5F5F5F5F5F5F5F5F5F5F5F5F5F5F5F5F5F5F5F5F5F5F5F5F5F5F5F5F5F5F5F5F5F5F5F5F5F5F5F5F5F5F5F5F5F5F5F5F5F5F5F5F5F5F5F5F5F5F5F5F5F5F5F5F5F5F5F5F5F5F5F5F5F5F5F5F5F5F5F5F5F5F5F5F5F5
310
F5F5F5F5F5F5F5F5F5F5F5F5F5F5F5E2E2F5F5F5F5F5F5F5F5F5F5F5F5F5F5F5F5F5F5F5F5F5F5F5F5F5F5F5F5F5F5F5F5F5F5F5F5F5F5F5F5F5F5F5F5F5F5F5F5F5F5F5F5F5F5F5F5F5F5F5F5F5F5F5F5F5F5F5F5F5F5F5F5F5F5F5F5F5F5F5F5F5F5F5F5F5F5F5F5F5F5F5F5F5F5F5F5F5F5F5F5F5F5F5F5F5F5F5F5F5F5
310
F5F5F5F5F5F5F5F5F5F5F5F5F5F5F5F5F5F5F5F5F5F5F5F5F5F5F5F5F5F5F5F5F5F5F5F5F5F5F5F5F5F5F5F5F5F5F5F5F5F5F5F5F5F5F5F5F5F5F5F5F5F5F5F5F5F5F5F5E2E2F5F5F5F5F5F5F5F5F5F5F5F5F5F5F5F5F5F5F5F5F5F5F5F5F5F5F5F5F5F5F5F5F5F5F5F5F5F5F5F5F5F5F5F5F5F5F5F5F5F5F5F5F5F5F5F5F5
310
F5F5F5F5F5F5F5F5F5F5F5F5F5F5F5F5F5F5F5F5F5F5F5F5F5F5F5F5F5F5F5F5F5F5F5F5F5F5F5F5F5F5F5F5F5F5F5F5F5F5F5F5F5F5F5F5F5F5F5F5F5F5F5F5F5F5F5F5F5F5F5F5F5F5F5F5F5F5F5F5F5F5F5F5F5F5F5F5F5F5F5F5F5F5F5F5F5F5F5F5F5F5F5F5F5F5F5F5F5F5F5F5F5F5F5F5F5F5F5F5F5E2E2F5F5F5F5
310
E2F5F5F5F5F5F5F5F5F5F5F5F5F5F5F5F5F5F5F5F5F5F5F5F5F5F5F5F5F5F5F5F5F5F5F5F5F5F5F5F5F5F5F5F5F5F5F5F5F5F5F5F5F5F5F5F5F5F5F5F5F5F5F5F5F5F5F5F5F5F5F5F5F5F5F5F5F5F5F5F5F5F5F5F5F5F5F5F5F5F5F5F5F5F5F5F5F5F5F5F5F5F5F5F5F5F5F5F5F5F5F5F5F5F5F5F5F5F5F5F5F5F5F5F5F5F5
310
F5F5F5F5F5F5F5F5F5F5F5F5F5F5F5F5F5F5F5F5F5F5F5F5F5F5F5F5F5F5F5F5F5F5F5F5F5F5F5F5F5F5E2F5F5F5F5E2E2F5F5F5F5E2F5F5F5F5F5F5F5F5F5F5F5F5F5F5F5F5F5F5F5F5F5F5F5F5F5F5F5F5F5F5F5F5F5F5F5F5F5F5F5F5F5F5F5F5F5F5F5F5F5F5F5F5F5F5F5F5F5F5F5F5F5F5F5F5F5F5F5F5F5F5F5F5F5
310
F5F5F5F5F5F5F5F5F5F5F5F5F5F5F5F5F5F5F5F5F5F5F5F5F5F5F5F5F5F5F5F5F5F5F5F5F5F5F5F5F5F5F5F5F5F5F5F5F5F5F5F5F5F5F5F5F5F5F5F5F5F5F5F5F5F5F5F5F5F5F5F5F5F5F5F5F5F5F5F5F5F5F5F5F5F5F5F5F5F5F5F5F5F5F5E2F5F5F5F5E2E2F5F5F5F5E2F5F5F5F5F5F5F5F5F5F5F5F5F5F5F5F5F5F5F5F5
310
F5F5F5F5F5F5F5F5F5F5F5F5F5F5F5F5F5F5F5F5F5F5F5F5F5F5F5F5F5F5F5F5F5F5F5F5F5F5F5F5F5F5F5F5F5F5F5F5F5F5F5F5F5F5F5F5F5F5F5F5F5F5F5F5F5F5F5F5F5F5F5F5F5F5F5F5F5F5F5F5F5F5F5F5F5F5F5F5F5F5F5F5F5F5F5F5F5F5F5F5F5F5F5F5F5F5F5F5F5F5F5F5F5F5F5F5F5F5F5F5F5F5F5F5F5F5F5
310
F5F5F5F5F5F5F5F5F5F5F5F5F5F5F5F5F5F5F5F5F5E2F5F5F5F5E2E2F5F5F5F5E2F5F5F5F5F5F5F5F5F5F5F5F5F5F5F5F5F5F5F5F5F5F5F5F5F5F5F5F5F5F5F5F5F5F5F5F5F5F5F5F5F5F5F5F5F5F5F5F5F5F5F5F5F5F5F5F5F5F5F5F5F5F5F5F5F5F5F5F5F5F5F5F5F5F5F5F5F5F5F5F5F5F5F5F5F5F5F5F5F5F5F5F5F5F5
310
F5F5F5F5F5F5F5F5F5F5F5F5F5F5F5F5F5F5F5F5F5F5F5F5F5F5F5F5F5F5F5F5F5F5F5F5F5F5F5F5F5F5F5F5F5F5F5F5F5F5F5F5F5F5F5F5F5F5F5F5F5F5F5F5F5F5F5F5F5F5F5F5F5F5E2F5F5F5F5E2E2F5F5F5F5E2F5F5F5F5F5F5F5F5F5F5F5F5F5F5F5F5F5F5F5F5F5F5F5F5F5F5F5F5F5F5F5F5F5F5F5F5F5F5F5F5F5
310
F5F5F5F5F5F5F5F5F5F5F5F5F5F5F5F5F5F5F5F5F5F5F5F5F5F5F5F5F5F5F5F5F5F5F5F5F5F5F5F5F5F5F5F5F5F5F5F5F5F5F5F5F5F5F5F5F5F5F5F5F5F5F5F5F5F5F5F5F5F5F5F5F5F5F5F5F5F5F5F5F5F5F5F5F5F5F5F5F5F5F5F5F5F5F5F5F5F5F5F5F5F5F5F5F5F5F5F5F5F5F5F5F5F5F5F5F5F5F5F5F5F5F5F5F5F5F5
310
E2F5F5F5F5E2E2F5F5F5F5E2F5F5F5F5F5F5F5F5F5F5F5F5F5F5F5F5F5F5F5F5F5F5F5F5F5F5F5F5F5F5F5F5F5F5F5F5F5F5F5F5F5F5F5F5F5F5F5F5F5F5F5F5F5F5F5F5F5F5F5F5F5F5F5F5F5F5F5F5F5F5F5F5F5F5F5F5F5F5F5F5F5F5F5F5F5F5F5F5F5F5F5F5F5F5F5F5F5F5F5F5F5F5F5F5F5F5F5F5F5F5F5F5F5F5F5
310
F5F5F5F5F5F5F5F5F5F5F5F5F5F5F5F5F5F5F5F5F5F5F5F5F5F5F5F5F5F5F5F5F5F5F5F5F5F5F5F5F5F5F5F5F5F5F5F5F5F5F5F5F5E2F5F5F5F5E2E2F5F5F5F5E2F5F5F5F5F5F5F5F5F5F5F5F5F5F5F5F5F5F5F5F5F5F5F5F5F5F5F5F5F5F5F5F5F5F5F5F5F5F5F5F5F5F5F5F5F5F5F5F5F5F5F5F5F5F5F5F5F5F5F5F5F5F5
310
F5F5F5F5F5F5F5F5F5F5F5F5F5F5F5F5F5F5F5F5F5F5F5F5F5F5F5F5F5F5F5F5F5F5F5F5F5F5F5F5F5F5F5F5F5F5F5F5F5F5F5F5F5F5F5F5F5F5F5F5F5F5F5F5F5F5F5F5F5F5F5F5F5F5F5F5F5F5F5F5F5F5F5F5F5F5F5F5F5F5F5F5F5F5F5F5F5F5F5F5F5F5F5F5F5F5E2F5F5F5F5E2E2F5F5F5F5E2F5F5F5F5F5F5F5F5F5
310
F5F5F5F5F5F5F5F5F5F5F5F5F5F5F5F5F5F5F5F5F5F5F5F5F5F5F5F5F5F5F5F5F5F5F5F5F5F5F5F5F5F5F5F5F5F5F5F5F5F5F5F5F5F5F5F5F5F5F5F5F5F5F5F5F5F5F5F5F5F5F5F5F5F5F5F5F5F5F5F5F5F5F5F5F5F5F5F5F5F5F5F5F5F5F5F5F5F5F5F5F5F5F5F5F5F5F5F5F5F5F5F5F5F5F5F5F5F5F5F5F5F5F5F5F5F5F5
310
F5F5F5F5F5F5F5F5F5F5F5F5F5F5F5F5F5F5F5F5F5F5F5F5F5F5F5F5F5F5F5F5E2F5F5F5F5E2E2F5F5F5F5E2E2E2E2E2E2E2E2F5F5F5F5F5F5F5F5F5E2E2E2E2E2E2E2E2E2E2E2E2E2E2E2F5F5F5F5F5F5F5F5F5E2E2E2E2E2E2E2E2E2E2E2E2E2E2E2E2F5F5F5F5F5F5F5F5E2E2E2E2E2E2E2E2E2E2E2E2E2E2E2E2F5F5F5
310
F5F5F5F5F5E2E2E2E2E2E2E2E2E2E2E2E2E2E2E2E2F5F5F5F5F5F5F5F5E2E2E2E2E2E2E2E2E2E2E2E2E2E2E2E2F5F5F5F5F5F5F5F5F5E2E2E2E2E2E2E2E2E2E2E2E2E2E2E2F5F5F5F5F5F5F5F5F5E2E2E2E2E2E2E2E2F5F5F5F5E2E2F5F5F5F5F5F5F5F5F5F5F5F5F5F5F5F5F5F5F5F5F5F5F5F5F5F5F5F5F5F5F5F5F5F5F5
310
F5F5F5F5F5F5F5F5F5F5F5F5F5F5F5F5F5F5F5F5F5F5F5F5F5F5F5F5F5F5F5F5F5F5F5F5F5F5F5F5F5F5F5F5F5F5F5F5F5F5F5F5F5F5F5F5F5F5F5F5F5F5F5F5F5F5F5F5F5F5F5F5F5F5F5F5F5F5F5F5F5F5F5F5F5F5F5F5F5F5F5F5F5F5F5F5F5F5F5F5F5F5F5F5F5F5F5F5F5F5F5F5F5F5F5F5F5F5F5F5F5F5F5F5F5F5F5
310
F5F5F5F5F5F5F5F5F5F5F5F5F5F5F5F5E2E2F5F5F5F5F5F5F5F5F5F5F5F5F5F5F5F5F5F5F5F5F5F5F5F5F5F5F5F5F5F5F5F5F5F5F5F5F5F5F5F5F5F5F5F5F5F5F5F5F5F5F5F5F5F5F5F5F5F5F5F5F5F5F5F5F5F5F5F5F5F5F5F5F5F5F5F5F5F5F5F5F5F5F5F5F5F5F5F5F5F5F5F5F5F5F5F5F5F5F5F5F5F5F5F5F5F5F5F5F5
310
F5F5F5F5F5F5F5F5F5F5F5F5F5F5F5F5F5F5F5F5F5F5F5F5F5F5F5F5F5F5F5F5F5F5F5F5F5F5F5F5F5F5F5F5F5F5F5F5F5F5F5F5F5F5F5F5F5F5F5F5F5F5F5F5F5F5F5F5F5E2E2F5F5F5F5F5F5F5F5F5F5F5F5F5F5F5F5F5F5F5F5F5F5F5F5F5F5F5F5F5F5F5F5F5F5F5F5F5F5F5F5F5F5F5F5F5F5F5F5F5F5F5F5F5F5F5F5
310
F5F5F5F5F5F5F5F5F5F5F5F5F5F5F5F5F5F5F5F5F5F5F5F5F5F5F5F5F5F5F5F5F5F5F5F5F5F5F5F5F5F5F5F5F5F5F5F5F5F5F5F5F5F5F5F5F5F5F5F5F5F5F5F5F5F5F5F5F5F5F5F5F5F5F5F5F5F5F5F5F5F5F5F5F5F5F5F5F5F5F5F5F5F5F5F5F5F5F5F5F5F5F5F5F5F5F5F5F5F5F5F5F5F5F5F5F5F5F5F5F5F5E2E2E2E2E2
310
E2E2E2E2E2E2E2E2E2E2E2E2E2E2E2E2E2E2E2E2E2E2E2E2E2E2E2E2E2E2E2E2E2E2E2E2E2E2E2E2E2E2E2E2E2E2E2E2E2E2E2E2E2E2E2E2E2E2E2E2E2E2E2E2E2E2E2E2E2E2E2E2E2E2E2E2E2E2E2E2E2E2E2E2E2E2E2E2E2E2E2E2E2E2E2E2E2E2E2E2E2E2E2E2E2E2E2E2E2E2E2E2E2E2E2E2E2E2E2E2E2E2E2E2E2E2E2
310
E2E2E2E2E2E2E2E2E2E2E2E2E2E2E2E2E2E2E2E2E2E2E2E2E2E2E2E2E2E2E2E2E2E2E2E2E2E2E2E2E2E2E2E2E2E2E2E2E2
  0
XRECORD
  5
5586D
102
{ACAD_REACTORS
330
B5
102
}
330
B5
100
AcDbXrecord
280
     1
102
SHADEPLOT
 70
     0
102
SHADEPLOTRESLEVEL
 70
     2
102
SHADEPLOTCUSTOMDPI
 70
   300
  0
XRECORD
  5
B6
102
{ACAD_REACTORS
330
B5
102
}
330
B5
100
AcDbXrecord
280
     1
310
28000000B40000008B0000000100080000000000BC610000000000000000000000010000000000000000000000000000FFFFFF000000000000000000000000000000000000000000000000000000000000000000330000006600000099000000CC000000FF00000000330000333300006633000099330000CC330000FF3300
310
0000660000336600006666000099660000CC660000FF66000000990000339900006699000099990000CC990000FF99000000CC000033CC000066CC000099CC0000CCCC0000FFCC000000FF000033FF000066FF000099FF0000CCFF0000FFFF000000003300330033006600330099003300CC003300FF003300003333003333
310
33006633330099333300CC333300FF33330000663300336633006666330099663300CC663300FF66330000993300339933006699330099993300CC993300FF99330000CC330033CC330066CC330099CC3300CCCC3300FFCC330000FF330033FF330066FF330099FF3300CCFF3300FFFF330000006600330066006600660099
310
006600CC006600FF00660000336600333366006633660099336600CC336600FF33660000666600336666006666660099666600CC666600FF66660000996600339966006699660099996600CC996600FF99660000CC660033CC660066CC660099CC6600CCCC6600FFCC660000FF660033FF660066FF660099FF6600CCFF6600
310
FFFF660000009900330099006600990099009900CC009900FF00990000339900333399006633990099339900CC339900FF33990000669900336699006666990099669900CC669900FF66990000999900339999006699990099999900CC999900FF99990000CC990033CC990066CC990099CC9900CCCC9900FFCC990000FF99
310
0033FF990066FF990099FF9900CCFF9900FFFF99000000CC003300CC006600CC009900CC00CC00CC00FF00CC000033CC003333CC006633CC009933CC00CC33CC00FF33CC000066CC003366CC006666CC009966CC00CC66CC00FF66CC000099CC003399CC006699CC009999CC00CC99CC00FF99CC0000CCCC0033CCCC0066CC
310
CC0099CCCC00CCCCCC00FFCCCC0000FFCC0033FFCC0066FFCC0099FFCC00CCFFCC00FFFFCC000000FF003300FF006600FF009900FF00CC00FF00FF00FF000033FF003333FF006633FF009933FF00CC33FF00FF33FF000066FF003366FF006666FF009966FF00CC66FF00FF66FF000099FF003399FF006699FF009999FF00CC
310
99FF00FF99FF0000CCFF0033CCFF0066CCFF0099CCFF00CCCCFF00FFCCFF0000FFFF0033FFFF0066FFFF0099FFFF00CCFFFF00FFFFFF00000000000D0D0D001A1A1A00282828003535350043434300505050005D5D5D006B6B6B00787878008686860093939300A1A1A100AEAEAE00BBBBBB00C9C9C900D6D6D600E4E4E400
310
F1F1F100FFFFFF0000000000000000000000000000000000000000000000000000000000000000000000000000000000F5F5F5F5F5F5F5F5F5F5F5F5F5F5F5F5F5F5F5F5F5F5F5F5F5F5F5F5F5F5F5F5F5F5F5F5F5F5F5F5F5F5F5F5F5F5F5F5F5F5F5F5F5F5F5F5F5F5F5F5F5F5F5F5F5F5F5F5F5F5F5F5F5F5F5F5F5F5F5
310
F5F5F5F5F5F5F5F5F5F5F5F5F5F5F5F5F5F5F5F5F5F5F5F5F5F5F5F5F5F5F5F5F5F5F5F5F5F5F5F5F5F5F5F5F5F5F5F5F5F5F5F5F5F5F5F5F5F5F5F5F5F5F5F5F5F5F5F5F5F5F5F5F5F5F5F5F5F5F5F5F5F5F5F5F5F5F5F5F5F5F5F5F5F5F5F5F5F5F5F5F5F5E2E2E2E2E2E2E2E2E2E2E2E2E2E2E2E2E2E2E2E2E2E2E2E2E2
310
E2E2E2E2E2E2E2E2E2E2E2E2E2E2E2E2E2E2E2E2E2E2E2E2E2E2E2E2E2E2E2E2E2E2E2E2E2E2E2E2E2E2E2E2E2E2E2E2E2E2E2E2E2E2E2E2E2E2E2E2E2E2E2E2E2E2E2E2E2E2E2E2E2E2E2E2E2E2E2E2E2E2E2E2E2E2E2E2E2E2E2E2E2E2E2E2E2E2E2E2E2E2E2E2E2E2E2E2E2E2E2E2E2E2E2E2E2E2E2E2E2E2E2E2E2E2E2
310
E2E2E2E2E2E2E2E2E2E2E2E2E2E2E2E2E2E2E2E2E2E2E2E2E2E2F5F5E2E2E2E2E2E2E2E2E2E2E2E2E2E2E2E2E2E2E2E2E2E2E2E2E2E2E2E2E2E2E2E2E2E2E2E2E2E2E2E2E2E2E2E2E2E2E2E2E2E2E2E2E2E2E2E2E2E2E2E2E2E2E2E2E2E2E2E2E2E2E2E2E2E2E2E2E2E2E2E2E2E2E2E2E2E2E2E2E2E2E2E2E2E2E2E2E2E2E2
310
E2E2E2E2E2E2E2E2E2E2E2E2E2E2E2E2E2E2E2E2E2E2E2E2E2E2E2E2E2E2E2E2E2E2E2E2E2E2E2E2E2E2E2E2E2E2E2E2E2E2E2E2E2E2E2E2E2E2E2E2E2E2E2E2E2E2E2E2E2E2E2E2E2E2E2E2E2E2E2F5F5E2E2E2E2E2E2E2E2E2E2E2E2E2E2E2E2E2E2E2E2E2E2E2E2E2E2E2E2E2E2E2E2E2E2E2E2E2E2E2E2E2E2E2E2E2E2
310
E2E2E2E2E2E2E2E2E2E2E2E2E2E2E2E2E2E2E2E2E2E2E2E2E2E2E2E2E2E2E2E2E2E2E2E2E2E2E2E2E2E2E2E2E2E2E2E2E2E2E2E2E2E2E2E2E2E2E2E2E2E2E2E2E2E2E2E2E2E2E2E2E2E2E2E2E2E2E2E2E2E2E2E2E2E2E2E2E2E2E2E2E2E2E2E2E2E2E2E2E2E2E2E2E2E2E2E2E2E2E2E2E2E2E2E2E2E2E2E2E2E2E2E2E2E2E2
310
E2E2E2E2E2F5F5E2E2E2E2E2E2E2E2E2E2E2E2E2E2E2E2E2E2E2E2E2E2E2E2E2E2E2E2E2E2E2E2E2E2E2E2E2E2E2E2E2E2E2E2E2E2E2E2E2E2E2E2E2E2E2E2E2E2E2E2E2E2E2E2E2E2E2E2E2E2E2E2E2E2E2E2E2E2E2E2E2E2E2E2E2E2E2E2E2E2E2E2E2E2E2E2E2E2E2E2E2E2E2E2E2E2E2E2E2E2E2E2E2E2E2E2E2E2E2E2
310
E2E2E2E2E2E2E2E2E2E2E2E2E2E2E2E2E2E2E2E2E2E2E2E2E2E2E2E2E2E2E2E2E2E2E2E2E2E2E2E2E2E2E2E2E2E2E2E2E2E2E2E2E2E2E2E2E2E2F5F5E2E2E2F5F5F5F5F5F5F5F5E2E2E2E2E2E2E2E2E2F5F5F5F5F5F5F5F5F5F5F5F5F5F5F5F5E2E2E2E2E2E2E2E2E2F5F5F5F5F5F5F5F5F5F5F5F5F5F5F5E2E2E2E2E2E2E2
310
E2E2F5F5F5F5F5F5F5F5F5F5F5F5F5F5F5F5E2E2E2E2E2E2E2E2F5F5F5F5F5F5F5F5F5F5F5F5F5F5F5F5E2E2E2E2E2E2E2E2E2F5F5F5F5F5F5F5F5F5F5F5F5F5F5F5E2E2E2E2E2E2E2E2E2F5F5F5F5F5F5F5F5F5F5F5F5F5F5F5F5E2E2E2E2E2E2E2E2E2F5F5F5F5F5F5F5F5E2E2E2F5F5E2E2E2F5E2E2E2E2E2E2E2E2E2E2
310
E2E2E2E2E2E2E2E2E2E2E2E2E2E2E2E2E2E2E2E2E2E2E2E2E2E2E2E2E2E2E2E2E2E2E2E2E2E2E2E2E2E2E2E2E2E2E2E2E2E2E2E2E2E2E2E2E2E2E2E2E2E2E2E2E2E2E2E2E2E2E2E2E2E2E2E2E2E2E2E2E2E2E2E2E2E2E2E2E2E2E2E2E2E2E2E2E2E2E2E2E2E2E2E2E2E2E2E2E2E2E2E2E2E2E2E2E2E2E2E2E2E2E2E2E2E2E2
310
E2E2E2E2E2E2E2E2E2E2E2E2E2E2E2E2E2E2E2E2E2E2E2E2E2E2E2E2E2E2E2E2E2F5E2E2E2F5F5E2E2E2F5E2E2E2E2E2E2E2E2E2E2E2E2E2E2E2E2E2E2E2E2E2E2E2E2E2E2E2E2E2E2E2E2E2E2E2E2E2E2E2E2E2E2E2E2E2E2E2E2E2E2E2E2E2E2E2E2E2E2E2E2E2E2E2E2E2E2E2E2E2E2E2E2E2E2E2E2E2E2E2E2E2E2E2E2
310
E2E2E2E2E2E2E2E2E2E2E2E2E2E2E2E2E2E2E2E2E2E2E2E2E2E2E2E2E2E2E2E2E2E2E2E2E2E2E2E2E2E2E2E2E2E2E2E2E2E2E2E2E2E2E2E2E2E2E2E2E2E2E2E2E2E2E2E2E2E2E2E2E2E2E2E2E2E2E2E2E2E2E2E2E2E2F5E2E2E2F5F5E2E2E2F5E2E2E2E2E2E2E2E2E2E2E2E2E2E2E2E2E2E2E2E2E2E2E2E2E2E2E2E2E2E2E2
310
E2E2E2E2E2E2E2E2E2E2E2E2E2E2E2E2E2E2E2E2E2E2E2E2E2E2E2E2E2E2E2E2E2E2E2E2E2E2E2E2E2E2E2E2E2E2E2E2E2E2E2E2E2E2E2E2E2E2E2E2E2E2E2E2E2E2E2E2E2E2E2E2E2E2E2E2E2E2E2E2E2E2E2E2E2E2E2E2E2E2E2E2E2E2E2E2E2E2E2E2E2E2E2E2E2E2E2E2E2E2E2E2E2E2E2E2E2E2E2E2E2E2E2E2E2E2E2
310
E2E2E2E2E2E2E2E2E2E2E2E2F5E2E2E2F5F5E2E2E2F5E2E2E2E2E2E2E2E2E2E2E2E2E2E2E2E2E2E2E2E2E2E2E2E2E2E2E2E2E2E2E2E2E2E2E2E2E2E2E2E2E2E2E2E2E2E2E2E2E2E2E2E2E2E2E2E2E2E2E2E2E2E2E2E2E2E2E2E2E2E2E2E2E2E2E2E2E2E2E2E2E2E2E2E2E2E2E2E2E2E2E2E2E2E2E2E2E2E2E2E2E2E2E2E2E2
310
E2E2E2E2E2E2E2E2E2E2E2E2E2E2E2E2E2E2E2E2E2E2E2E2E2E2E2E2E2E2E2E2E2E2E2E2E2E2E2E2E2E2E2E2E2E2E2E2E2E2E2E2E2E2E2E2E2E2E2E2E2E2E2E2E2F5E2E2E2F5F5E2E2E2F5E2E2E2E2E2E2E2E2E2E2E2E2E2E2E2E2E2E2E2E2E2E2E2E2E2E2E2E2E2E2E2E2E2E2E2E2E2E2E2E2E2E2E2E2E2E2E2E2E2E2E2E2
310
E2E2E2E2E2E2E2E2E2E2E2E2E2E2E2E2E2E2E2E2E2E2E2E2E2E2E2E2E2E2E2E2E2E2E2E2E2E2E2E2E2E2E2E2E2E2E2E2E2E2E2E2E2E2E2E2E2E2E2E2E2E2E2E2E2E2E2E2E2E2E2E2E2E2E2E2E2E2E2E2E2E2E2E2E2E2E2E2E2E2E2E2E2E2E2E2E2E2E2E2E2E2E2E2E2E2E2E2E2E2E2E2E2E2E2E2E2E2F5E2E2E2F5F5E2E2E2
310
F5E2E2E2E2E2E2E2E2E2E2E2E2E2E2E2E2E2E2E2E2E2E2E2E2E2E2E2E2E2E2E2E2E2E2E2E2E2E2E2E2E2E2E2E2E2E2E2E2E2E2E2E2E2E2E2E2E2E2E2E2E2E2E2E2E2E2E2E2E2E2E2E2E2E2E2E2E2E2E2E2E2E2E2E2E2E2E2E2E2E2E2E2E2E2E2E2E2E2E2E2E2E2E2E2E2E2E2E2E2E2E2E2E2E2E2E2E2E2E2E2E2E2E2E2E2E2
310
E2E2E2E2E2E2E2E2E2E2E2E2E2E2E2E2E2E2E2E2E2E2E2E2E2E2E2E2E2E2E2E2E2E2E2E2E2E2E2E2E2E2E2E2F5E2E2E2F5F5E2E2E2F5E2E2E2E2E2E2E2E2E2E2E2E2E2E2E2E2E2E2E2E2E2E2E2E2E2E2E2E2E2E2E2E2E2E2E2E2E2E2E2E2E2E2E2E2E2E2E2E2E2E2E2E2E2E2E2E2E2E2E2E2E2E2E2E2E2E2E2E2E2E2E2E2E2
310
E2E2E2E2E2E2E2E2E2E2E2E2E2E2E2E2E2E2E2E2E2E2E2E2E2E2E2E2E2E2E2E2E2E2E2E2E2E2E2E2E2E2E2E2E2E2E2E2E2E2E2E2E2E2E2E2E2E2E2E2E2E2E2E2E2E2E2E2E2E2E2E2E2E2E2E2E2E2E2E2E2E2E2E2E2E2E2E2E2E2E2E2E2E2E2E2E2F5E2E2E2F5F5E2E2E2F5E2E2E2E2E2E2E2E2E2E2E2E2E2E2E2E2E2E2E2E2
310
E2E2E2E2E2E2E2E2E2E2E2E2E2E2E2E2E2E2E2E2E2E2E2E2E2E2E2E2E2E2E2E2E2E2E2E2E2E2E2E2E2E2E2E2E2E2E2E2E2E2E2E2E2E2E2E2E2E2E2E2E2E2E2E2E2E2E2E2E2E2E2E2E2E2E2E2E2E2E2E2E2E2E2E2E2E2E2E2E2E2E2E2E2E2E2E2E2E2E2E2E2E2E2E2E2E2E2E2E2E2E2E2E2E2E2E2E2E2E2E2E2E2E2E2E2E2E2
310
E2E2E2E2E2E2E2E2E2E2E2E2E2E2E2E2E2E2E2E2E2E2E2F5E2E2E2F5F5E2E2E2E2E2E2E2E2E2E2E2E2E2E2E2E2E2E2E2E2E2E2E2E2E2E2E2E2E2E2E2E2E2E2E2E2E2E2E2E2E2E2E2E2E2E2E2E2E2E2E2E2E2E2E2E2E2E2E2E2E2E2E2E2E2E2E2E2E2E2E2E2E2E2E2E2E2E2E2E2E2E2E2E2E2E2E2E2E2E2E2E2E2E2E2E2E2E2
310
E2E2E2E2E2E2E2E2E2E2E2E2E2E2E2E2E2E2E2E2E2E2E2E2E2E2E2E2E2E2E2E2E2E2E2E2E2E2E2E2E2E2E2E2E2E2E2E2E2E2E2E2E2E2E2E2E2E2E2E2E2E2E2E2E2E2E2E2E2E2E2E2E2E2E2E2E2E2E2E2F5F5E2E2E2E2E2E2E2E2E2E2E2E2E2E2E2E2E2E2E2E2E2E2E2E2E2E2E2E2E2E2E2E2E2E2E2E2E2E2E2E2E2E2E2E2E2
310
E2E2E2E2E2E2E2E2E2E2E2E2E2E2E2E2E2E2E2E2E2E2E2E2E2E2E2E2E2E2E2E2E2E2E2E2E2E2E2E2E2E2E2E2E2E2E2E2E2E2E2E2E2E2E2E2E2E2E2E2E2E2E2E2E2E2E2E2E2E2E2E2E2E2E2E2E2E2E2E2E2E2E2E2E2E2E2E2E2E2E2E2E2E2E2E2E2E2E2E2E2E2E2E2E2E2E2E2E2E2E2E2E2E2E2E2E2E2E2E2E2E2E2E2E2E2E2
310
E2E2E2E2E2E2F5F5E2E2E2E2E2E2E2E2E2E2E2E2E2E2E2E2E2E2E2E2E2E2E2E2E2E2E2E2E2E2E2E2E2E2E2E2E2E2E2E2E2E2E2E2E2E2E2E2E2E2E2E2E2E2E2E2E2E2E2E2E2E2E2E2E2E2E2E2E2E2E2E2E2E2E2E2E2E2E2E2E2E2E2E2E2E2E2E2E2E2E2E2E2E2E2E2E2E2E2E2E2E2E2E2E2E2E2E2E2E2E2E2E2E2E2E2E2E2E2
310
E2E2E2E2E2E2E2E2E2E2E2E2E2E2E2E2E2E2E2E2E2E2E2E2E2E2E2E2E2E2E2E2E2E2E2E2E2E2E2E2E2E2E2E2E2E2E2E2E2E2E2E2E2E2E2E2E2E2E2F5F5E2E2E2E2E2E2E2E2E2E2E2E2E2E2E2E2E2E2E2E2E2E2E2E2E2E2E2E2E2E2E2E2E2E2E2E2E2E2E2E2E2E2E2E2E2E2E2E2E2E2E2E2E2E2E2E2E2E2E2E2E2E2E2E2E2E2
310
E2E2E2E2E2E2E2E2E2E2E2E2E2E2E2E2E2E2E2E2E2E2E2E2E2E2E2E2E2E2E2E2E2E2E2E2E2E2E2E2E2E2E2E2E2E2E2E2E2E2E2E2E2E2E2E2E2E2E2E2E2E2E2E2E2E2E2E2E2E2E2E2E2E2E2E2E2E2E2E2E2E2E2E2E2E2E2E2E2E2E2E2E2E2E2E2E2E2E2E2E2E2E2E2E2E2E2E2E2E2E2E2F5F5E2E2E2E2E2E2E2E2E2E2E2E2E2
310
E2E2E2E2E2E2E2F5F5F5F5F5F5F5F5F5F5F5F5F5F5F5F5F5F5F5F5F5F5F5F5F5F5F5F5F5F5F5F5F5F5F5F5F5F5F5F5F5F5F5F5F5F5F5F5F5F5F5F5F5F5F5F5F5F5F5F5F5F5F5F5F5F5F5F5F5F5F5F5F5F5F5F5F5F5F5F5F5F5F5F5F5F5F5F5F5F5F5F5F5F5F5F5F5F5F5F5F5F5F5F5F5F5F5F5F5F5F5F5F5F5F5F5F5F5F5F5
310
F5F5F5F5F5F5F5F5F5F5F5F5F5F5F5F5F5F5E2E2E2E2E2E2E2E2E2E2E2E2E2E2E2E2E2E2E2E2F5F5E2E2E2E2E2E2E2E2E2E2E2E2E2E2E2E2E2E2E2E2F5E2E2E2E2E2E2E2E2E2E2E2E2E2E2E2E2E2E2E2E2E2E2E2E2E2E2E2E2E2E2E2E2E2E2E2E2E2E2E2E2E2E2E2E2E2E2E2E2E2E2E2E2E2E2E2E2E2E2E2E2E2E2E2E2E2E2
310
E2E2E2E2E2E2E2E2E2E2E2E2E2E2E2E2E2E2E2E2E2E2E2E2E2E2E2E2E2E2E2E2E2E2E2E2E2E2E2E2E2E2E2E2E2E2E2E2E2E2E2E2E2E2E2E2E2E2E2E2E2E2E2E2E2E2E2E2E2E2F5E2E2E2E2E2E2E2E2E2E2E2E2E2E2E2E2E2E2E2E2F5F5E2E2E2E2E2E2E2E2E2E2E2E2E2E2E2E2E2E2E2E2F5E2E2E2E2E2E2E2E2E2E2E2E2E2
310
E2E2E2E2E2E2E2E2E2E2E2E2E2E2E2E2E2E2E2E2E2E2E2E2E2E2E2E2E2E2E2E2E2E2E2E2E2E2E2E2E2E2E2E2E2E2E2E2E2E2E2E2E2E2E2E2E2E2E2E2E2E2E2E2E2E2E2E2E2E2E2E2E2E2E2E2E2E2E2E2E2E2E2E2E2E2E2E2E2E2E2E2E2E2E2E2E2E2E2E2E2E2E2E2E2E2E2E2E2E2E2E2E2E2E2E2E2E2E2E2E2E2E2F5E2E2E2
310
E2E2E2E2E2E2E2E2E2E2E2E2E2E2E2E2E2F5F5E2E2E2E2E2E2E2E2E2E2E2E2E2E2E2E2E2E2E2E2F5E2E2E2E2E2E2E2E2E2E2E2E2E2E2E2E2E2E2E2E2E2E2E2E2E2E2E2E2E2E2E2E2E2E2E2E2E2E2E2E2E2E2E2E2E2E2E2E2E2E2E2E2E2E2E2E2E2E2E2E2E2E2E2E2E2E2E2E2E2E2E2E2E2E2E2E2E2E2E2E2E2E2E2E2E2E2E2
310
E2E2E2E2E2E2E2E2E2E2E2E2E2E2E2E2E2E2E2E2E2E2E2E2E2E2E2E2E2E2E2E2E2E2E2E2E2E2E2E2E2E2E2E2E2E2E2E2E2F5E2E2E2E2E2E2E2E2E2E2E2E2E2E2E2E2E2E2E2E2F5F5E2E2E2E2E2E2E2E2E2E2E2E2E2E2E2E2E2E2E2E2F5E2E2E2E2E2E2E2E2E2E2E2E2E2E2E2E2E2E2E2E2E2E2E2E2E2E2E2E2E2E2E2E2E2E2
310
E2E2E2E2E2E2E2E2E2E2E2E2E2E2E2E2E2E2E2E2E2E2E2E2E2E2E2E2E2E2E2E2E2E2E2E2E2E2E2E2E2E2E2E2E2E2E2E2E2E2E2E2E2E2E2E2E2E2E2E2E2E2E2E2E2E2E2E2E2E2E2E2E2E2E2E2E2E2E2E2E2E2E2E2E2E2E2E2E2E2E2E2E2E2E2E2E2E2E2E2E2E2F5E2E2E2E2E2E2E2E2E2E2E2E2E2E2E2E2E2E2E2E2F5F5E2E2
310
E2F5E2E2E2E2E2E2E2E2E2E2E2E2E2E2E2E2F5E2E2E2E2E2E2E2E2E2E2E2E2E2E2E2E2E2E2E2E2E2E2E2E2E2E2E2E2E2E2E2E2E2E2E2E2E2E2E2E2E2E2E2E2E2E2E2E2E2E2E2E2E2E2E2E2E2E2E2E2E2E2E2E2E2E2E2E2E2E2E2E2E2E2E2E2E2E2E2E2E2E2E2E2E2E2E2E2E2E2E2E2E2E2E2E2E2E2E2E2E2E2E2E2E2E2E2E2
310
E2E2E2E2E2E2E2E2E2E2E2E2E2E2E2E2E2E2E2E2E2E2E2E2E2E2E2E2F5E2E2E2E2E2E2E2E2E2E2E2E2E2E2E2E2F5E2E2E2F5F5E2E2E2F5E2E2E2E2E2E2E2E2E2E2E2E2E2E2E2E2F5E2E2E2E2E2E2E2E2E2E2E2E2E2E2E2E2E2E2E2E2E2E2E2E2E2E2E2E2E2E2E2E2E2E2E2E2E2E2E2E2E2E2E2E2E2E2E2E2E2E2E2E2E2E2E2
310
E2E2E2E2E2E2E2E2E2E2E2E2E2E2E2E2E2E2E2E2E2E2E2E2E2E2E2E2E2E2E2E2E2E2E2E2E2E2E2E2E2E2E2E2E2E2E2E2E2E2E2E2E2E2E2E2E2E2E2E2E2E2E2E2E2E2E2E2E2E2E2E2E2E2E2E2E2E2E2E2E2F5E2E2E2E2E2E2E2E2E2E2E2E2E2E2E2E2F5E2E2E2F5F5E2E2E2F5E2E2E2E2E2E2E2E2E2E2E2E2E2E2E2E2F5E2E2
310
E2E2E2E2E2E2E2E2E2E2E2E2E2E2E2E2E2E2E2E2E2E2E2E2E2E2E2E2E2E2E2E2E2E2E2E2E2E2E2E2E2E2E2E2E2E2E2E2E2E2E2E2E2E2E2E2E2E2E2E2E2E2E2E2E2E2E2E2E2E2E2E2E2E2E2E2E2E2E2E2E2E2E2E2E2E2E2E2E2E2E2E2E2E2E2E2E2E2E2E2E2E2E2E2E2E2E2E2E2E2E2E2E2E2E2E2E2E2E2E2E2E2E2E2E2E2E2
310
E2E2E2E2E2E2E2F5E2E2E2E2E2E2E2E2E2E2E2E2E2E2E2E2F5E2E2E2F5F5E2E2E2F5E2E2E2E2E2E2E2E2E2E2E2E2E2E2E2E2F5E2E2E2E2E2E2E2E2E2E2E2E2E2E2E2E2E2E2E2E2E2E2E2E2E2E2E2E2E2E2E2E2E2E2E2E2E2E2E2E2E2E2E2E2E2E2E2E2E2E2E2E2E2E2E2E2E2E2E2E2E2E2E2E2E2E2E2E2E2E2E2E2E2E2E2E2
310
E2E2E2E2E2E2E2E2E2E2E2E2E2E2E2E2E2E2E2E2E2E2E2E2E2E2E2E2E2E2E2E2E2E2E2E2E2E2E2E2E2E2E2E2E2E2E2E2E2E2E2E2E2E2E2E2E2E2E2E2F5E2E2E2E2E2E2E2E2E2E2E2E2E2E2E2E2F5E2E2E2F5F5E2E2E2F5E2E2E2E2E2E2E2E2E2E2E2E2E2E2E2E2F5E2E2E2E2E2E2E2E2E2E2E2E2E2E2E2E2E2E2E2E2E2E2E2
310
E2E2E2E2E2E2E2E2E2E2E2E2E2E2E2E2E2E2E2E2E2E2E2E2E2E2E2E2E2E2E2E2E2E2E2E2E2E2E2E2E2E2E2E2E2E2E2E2E2E2E2E2E2E2E2E2E2E2E2E2E2E2E2E2E2E2E2E2E2E2E2E2E2E2E2E2E2E2E2E2E2E2E2E2E2E2E2E2E2E2E2E2E2E2E2E2E2E2E2E2E2E2E2E2E2E2E2E2E2E2E2E2E2F5E2E2E2E2E2E2E2E2E2E2E2E2E2
310
E2E2E2F5E2E2E2F5F5E2E2E2F5E2E2E2E2E2E2E2E2E2E2E2E2E2E2E2E2F5E2E2E2E2E2E2E2E2E2E2E2E2E2E2E2E2E2E2E2E2E2E2E2E2E2E2E2E2E2E2E2E2E2E2E2E2E2E2E2E2E2E2E2E2E2E2E2E2E2E2E2E2E2E2E2E2E2E2E2E2E2E2E2E2E2E2E2E2E2E2E2E2E2E2E2E2E2E2E2E2E2E2E2E2E2E2E2E2E2E2E2E2E2E2E2E2E2
310
E2E2E2E2E2E2E2E2E2E2E2E2E2E2E2E2E2E2E2E2E2E2E2E2E2E2E2E2E2E2E2E2E2E2E2E2E2E2E2F5E2E2E2E2E2E2E2E2E2E2E2E2E2E2E2E2F5E2E2E2F5F5E2E2E2F5E2E2E2E2E2E2E2E2E2E2E2E2E2E2E2E2F5E2E2E2E2E2E2E2E2E2E2E2E2E2E2E2E2E2E2E2E2E2E2E2E2E2E2E2E2E2E2E2E2E2E2E2E2E2E2E2E2E2E2E2E2
310
E2E2E2E2E2E2E2E2E2E2E2E2E2E2E2E2E2E2E2E2E2E2E2E2E2E2E2E2E2E2E2E2E2E2E2E2E2E2E2E2E2E2E2E2E2E2E2E2E2E2E2E2E2E2E2E2E2E2E2E2E2E2E2E2E2E2E2E2E2E2E2E2E2E2E2E2E2E2E2E2E2E2E2E2E2E2E2E2E2E2E2E2F5E2E2E2E2E2E2E2E2E2E2E2E2E2E2E2E2F5E2E2E2F5F5E2E2E2F5E2E2E2E2E2E2E2E2
310
E2E2E2E2E2E2E2E2F5E2E2E2E2E2E2E2E2E2E2E2E2E2E2E2E2E2E2E2E2E2E2E2E2E2E2E2E2E2E2E2E2E2E2E2E2E2E2E2E2E2E2E2E2E2E2E2E2E2E2E2E2E2E2E2E2E2E2E2E2E2E2E2E2E2E2E2E2E2E2E2E2E2E2E2E2E2E2E2E2E2E2E2E2E2E2E2E2E2E2E2E2E2E2E2E2E2E2E2E2E2E2E2E2E2E2E2E2E2E2E2E2E2E2E2E2E2E2
310
E2E2E2E2E2E2E2E2E2E2E2E2E2E2E2E2E2E2F5E2E2E2E2E2E2E2E2E2E2E2E2E2E2E2E2F5E2E2E2F5F5E2E2E2F5E2E2E2E2E2E2E2E2E2E2E2E2E2E2E2E2F5E2E2E2E2E2E2E2E2E2E2E2E2E2E2E2E2E2E2E2E2E2E2E2E2E2E2E2E2E2E2E2E2E2E2E2E2E2E2E2E2E2E2E2E2E2E2E2E2E2E2E2E2E2E2E2E2E2E2E2E2E2E2E2E2E2
310
E2E2E2E2E2E2E2E2E2E2E2E2E2E2E2E2E2E2E2E2E2E2E2E2E2E2E2E2E2E2E2E2E2E2E2E2E2E2E2E2E2E2E2E2E2E2E2E2E2E2E2E2E2E2E2E2E2E2E2E2E2E2E2E2E2E2E2E2E2E2E2F5E2E2E2E2E2E2E2E2E2E2E2E2E2E2E2E2F5E2E2E2F5F5E2E2E2F5E2E2E2E2E2E2E2E2E2E2E2E2E2E2E2E2F5E2E2E2E2E2E2E2E2E2E2E2E2
310
E2E2E2E2E2E2E2E2E2E2E2E2E2E2E2E2E2E2E2E2E2E2E2E2E2E2E2E2E2E2E2E2E2E2E2E2E2E2E2E2E2E2E2E2E2E2E2E2E2E2E2E2E2E2E2E2E2E2E2E2E2E2E2E2E2E2E2E2E2E2E2E2E2E2E2E2E2E2E2E2E2E2E2E2E2E2E2E2E2E2E2E2E2E2E2E2E2E2E2E2E2E2E2E2E2E2E2E2E2E2E2E2E2E2E2E2E2E2E2E2E2E2E2E2F5E2E2
310
E2E2E2E2E2E2E2E2E2E2E2E2E2E2F5E2E2E2F5F5E2E2E2F5E2E2E2E2E2E2E2E2E2E2E2E2E2E2E2E2F5E2E2E2E2E2E2E2E2E2E2E2E2E2E2E2E2E2E2E2E2E2E2E2E2E2E2E2E2E2E2E2E2E2E2E2E2E2E2E2E2E2E2E2E2E2E2E2E2E2E2E2E2E2E2E2E2E2E2E2E2E2E2E2E2E2E2E2E2E2E2E2E2E2E2E2E2E2E2E2E2E2E2E2E2E2E2
310
E2E2E2E2E2E2E2E2E2E2E2E2E2E2E2E2E2E2E2E2E2E2E2E2E2E2E2E2E2E2E2E2E2E2E2E2E2E2E2E2E2E2E2E2E2E2E2E2E2E2F5E2E2E2E2E2E2E2E2E2E2E2E2E2E2E2E2F5E2E2E2F5F5E2E2E2F5E2E2E2E2E2E2E2E2E2E2E2E2E2E2E2E2F5E2E2E2E2E2E2E2E2E2E2E2E2E2E2E2E2E2E2E2E2E2E2E2E2E2E2E2E2E2E2E2E2E2
310
E2E2E2E2E2E2E2E2E2E2E2E2E2E2E2E2E2E2E2E2E2E2E2E2E2E2E2E2E2E2E2E2E2E2E2E2E2E2E2E2E2E2E2E2E2E2E2E2E2E2E2E2E2E2E2E2E2E2E2E2E2E2E2E2E2E2E2E2E2E2E2E2E2E2E2E2E2E2E2E2E2E2E2E2E2E2E2E2E2E2E2E2E2E2E2E2E2E2E2E2E2E2E2F5E2E2E2E2E2E2E2E2E2E2E2E2E2E2E2E2F5E2E2E2F5F5E2
310
E2E2F5E2E2E2E2E2E2E2E2E2E2E2E2E2E2E2E2F5E2E2E2E2E2E2E2E2E2E2E2E2E2E2E2E2E2E2E2E2E2E2E2E2E2E2E2E2E2E2E2E2E2E2E2E2E2E2E2E2E2E2E2E2E2E2E2E2E2E2E2E2E2E2E2E2E2E2E2E2E2E2E2E2E2E2E2E2E2E2E2E2E2E2E2E2E2E2E2E2E2E2E2E2E2E2E2E2E2E2E2E2E2E2E2E2E2E2E2E2E2E2E2E2E2E2E2
310
E2E2E2E2E2E2E2E2E2E2E2E2E2E2E2E2E2E2E2E2E2E2E2E2E2E2E2E2E2F5E2E2E2E2E2E2E2E2E2E2E2E2E2E2E2E2F5E2E2E2F5F5E2E2E2F5E2E2E2E2E2E2E2E2E2E2E2E2E2E2E2E2F5E2E2E2E2E2E2E2E2E2E2E2E2E2E2E2E2E2E2E2E2E2E2E2E2E2E2E2E2E2E2E2E2E2E2E2E2E2E2E2E2E2E2E2E2E2E2E2E2E2E2E2E2E2E2
310
E2E2E2E2E2E2E2E2E2E2E2E2E2E2E2E2E2E2E2E2E2E2E2E2E2E2E2E2E2E2E2E2E2E2E2E2E2E2E2E2E2E2E2E2E2E2E2E2E2E2E2E2E2E2E2E2E2E2E2E2E2E2E2E2E2E2E2E2E2E2E2E2E2E2E2E2E2E2E2E2E2E2F5E2E2E2E2E2E2E2E2E2E2E2E2E2E2E2E2F5E2E2E2F5F5E2E2E2F5E2E2E2E2E2E2E2E2E2E2E2E2E2E2E2E2F5E2
310
E2E2E2E2E2E2E2E2E2E2E2E2E2E2E2E2E2E2E2E2E2E2E2E2E2E2E2E2E2E2E2E2E2E2E2E2E2E2E2E2E2E2E2E2E2E2E2E2E2E2E2E2E2E2E2E2E2E2E2E2E2E2E2E2E2E2E2E2E2E2E2E2E2E2E2E2E2E2E2E2E2E2E2E2E2E2E2E2E2E2E2E2E2E2E2E2E2E2E2E2E2E2E2E2E2E2E2E2E2E2E2E2E2E2E2E2E2E2E2E2E2E2E2E2E2E2E2
310
E2E2E2E2E2E2E2E2F5E2E2E2E2E2E2E2E2E2E2E2E2E2E2E2E2F5E2E2E2F5F5E2E2E2F5E2E2E2E2E2E2E2E2E2E2E2E2E2E2E2E2F5E2E2E2E2E2E2E2E2E2E2E2E2E2E2E2E2E2E2E2E2E2E2E2E2E2E2E2E2E2E2E2E2E2E2E2E2E2E2E2E2E2E2E2E2E2E2E2E2E2E2E2E2E2E2E2E2E2E2E2E2E2E2E2E2E2E2E2E2E2E2E2E2E2E2E2
310
E2E2E2E2E2E2E2E2E2E2E2E2E2E2E2E2E2E2E2E2E2E2E2E2E2E2E2E2E2E2E2E2E2E2E2E2E2E2E2E2E2E2E2E2E2E2E2E2E2E2E2E2E2E2E2E2E2E2E2E2E2F5E2E2E2E2E2E2E2E2E2E2E2E2E2E2E2E2F5E2E2E2F5F5E2E2E2F5E2E2E2E2E2E2E2E2E2E2E2E2E2E2E2E2F5E2E2E2E2E2E2E2E2E2E2E2E2E2E2E2E2E2E2E2E2E2E2
310
E2E2E2E2E2E2E2E2E2E2E2E2E2E2E2E2E2E2E2E2E2E2E2E2E2E2E2E2E2E2E2E2E2E2E2E2E2E2E2E2E2E2E2E2E2E2E2E2E2E2E2E2E2E2E2E2E2E2E2E2E2E2E2E2E2E2E2E2E2E2E2E2E2E2E2E2E2E2E2E2E2E2E2E2E2E2E2E2E2E2E2E2E2E2E2E2E2E2E2E2E2E2E2E2E2E2E2E2E2E2E2E2E2E2F5E2E2E2E2E2E2E2E2E2E2E2E2
310
E2E2E2E2F5E2E2E2F5F5E2E2E2E2E2E2E2E2E2E2E2E2E2E2E2E2E2E2E2E2F5E2E2E2E2E2E2E2E2E2E2E2E2E2E2E2E2E2E2E2E2E2E2E2E2E2E2E2E2E2E2E2E2E2E2E2E2E2E2E2E2E2E2E2E2E2E2E2E2E2E2E2E2E2E2E2E2E2E2E2E2E2E2E2E2E2E2E2E2E2E2E2E2E2E2E2E2E2E2E2E2E2E2E2E2E2E2E2E2E2E2E2E2E2E2E2E2
310
E2E2E2E2E2E2E2E2E2E2E2E2E2E2E2E2E2E2E2E2E2E2E2E2E2E2E2E2E2E2E2E2E2E2E2E2E2E2E2E2F5E2E2E2E2E2E2E2E2E2E2E2E2E2E2E2E2E2E2E2E2F5F5E2E2E2E2E2E2E2E2E2E2E2E2E2E2E2E2E2E2E2E2F5E2E2E2E2E2E2E2E2E2E2E2E2E2E2E2E2E2E2E2E2E2E2E2E2E2E2E2E2E2E2E2E2E2E2E2E2E2E2E2E2E2E2E2
310
E2E2E2E2E2E2E2E2E2E2E2E2E2E2E2E2E2E2E2E2E2E2E2E2E2E2E2E2E2E2E2E2E2E2E2E2E2E2E2E2E2E2E2E2E2E2E2E2E2E2E2E2E2E2E2E2E2E2E2E2E2E2E2E2E2E2E2E2E2E2E2E2E2E2E2E2E2E2E2E2E2E2E2E2E2E2E2E2E2E2E2E2E2F5E2E2E2E2E2E2E2E2E2E2E2E2E2E2E2E2E2E2E2E2F5F5E2E2E2E2E2E2E2E2E2E2E2
310
E2E2E2E2E2E2E2E2E2F5E2E2E2E2E2E2E2E2E2E2E2E2E2E2E2E2E2E2E2E2E2E2E2E2E2E2E2E2E2E2E2E2E2E2E2E2E2E2E2E2E2E2E2E2E2E2E2E2E2E2E2E2E2E2E2E2E2E2E2E2E2E2E2E2E2E2E2E2E2E2E2E2E2E2E2E2E2E2E2E2E2E2E2E2E2E2E2E2E2E2E2E2E2E2E2E2E2E2E2E2E2E2E2E2E2E2E2E2E2E2E2E2E2E2E2E2E2
310
E2E2E2E2E2E2E2E2E2E2E2E2E2E2E2E2E2E2E2F5E2E2E2E2E2E2E2E2E2E2E2E2E2E2E2E2E2E2E2E2F5F5E2E2E2E2E2E2E2E2E2E2E2E2E2E2E2E2E2E2E2E2F5E2E2E2E2E2E2E2E2E2E2E2E2E2E2E2E2E2E2E2E2E2E2E2E2E2E2E2E2E2E2E2E2E2E2E2E2E2E2E2E2E2E2E2E2E2E2E2E2E2E2E2E2E2E2E2E2E2E2E2E2E2E2E2E2
310
E2E2E2E2E2E2E2E2E2E2E2E2E2E2E2E2E2E2E2E2E2E2E2E2E2E2E2E2E2E2E2E2E2E2E2E2E2E2E2E2E2E2E2E2E2E2E2E2E2E2E2E2E2E2E2E2E2E2E2E2E2E2E2E2E2E2E2E2E2E2E2E2F5E2E2E2E2E2E2E2E2E2E2E2E2E2E2E2E2E2E2E2E2F5F5E2E2E2E2E2E2E2E2E2E2E2E2E2E2E2E2E2E2E2E2F5E2E2E2E2E2E2E2E2E2E2E2
310
E2E2E2E2E2E2E2E2E2E2E2E2E2E2E2E2E2E2E2E2E2E2E2E2E2E2E2E2E2E2E2E2E2E2E2E2E2E2E2E2E2E2E2E2E2E2E2E2E2E2E2E2E2E2E2E2E2E2E2E2E2E2E2E2E2E2E2E2E2E2E2E2E2E2E2E2E2E2E2E2E2E2E2E2E2E2E2E2E2E2E2E2E2E2E2E2E2E2E2E2E2E2E2E2E2E2E2E2E2E2E2E2E2E2E2E2E2E2E2E2E2E2E2E2E2F5E2
310
E2E2E2E2E2E2E2E2E2E2E2E2E2E2E2E2E2E2E2F5F5E2E2E2E2E2E2E2E2E2E2E2E2E2E2E2E2E2E2E2E2F5E2E2E2E2E2E2E2E2E2E2E2E2E2E2E2E2E2E2E2E2E2E2E2E2E2E2E2E2E2E2E2E2E2E2E2E2E2E2E2E2E2E2E2E2E2E2E2E2E2E2E2E2E2E2E2E2E2E2E2E2E2E2E2E2E2E2E2E2E2E2E2E2E2E2E2E2E2E2E2E2E2E2E2E2E2
310
E2E2E2E2E2E2E2E2E2E2E2E2E2E2E2E2E2E2E2E2E2E2E2E2E2E2E2E2E2E2E2E2E2E2E2E2E2E2E2E2E2E2E2E2E2E2E2E2E2E2E2F5E2E2E2E2E2E2E2E2E2E2E2E2E2E2E2E2E2E2E2E2F5F5E2E2E2E2E2E2E2E2E2E2E2E2E2E2E2E2E2E2E2E2F5E2E2E2E2E2E2E2E2E2E2E2E2E2E2E2E2E2E2E2E2E2E2E2E2E2E2E2E2E2E2E2E2
310
E2E2E2E2E2E2E2E2E2E2E2E2E2E2E2E2E2E2E2E2E2E2E2E2E2E2E2E2E2E2E2E2E2E2E2E2E2E2E2E2E2E2E2E2E2E2E2E2E2E2E2E2E2E2E2E2E2E2E2E2E2E2E2E2E2E2E2E2E2E2E2E2E2E2E2E2E2E2E2E2E2E2E2E2E2E2E2E2E2E2E2E2E2E2E2E2E2E2E2E2E2E2E2E2F5E2E2E2E2E2E2E2E2E2E2E2E2E2E2E2E2E2E2E2E2F5F5
310
E2E2E2E2E2E2E2E2E2E2E2E2E2E2E2E2E2E2E2E2F5E2E2E2E2E2E2E2E2E2E2E2E2E2E2E2E2E2E2E2E2E2E2E2E2E2E2E2E2E2E2E2E2E2E2E2E2E2E2E2E2E2E2E2E2E2E2E2E2E2E2E2E2E2E2E2E2E2E2E2E2E2E2E2E2E2E2E2E2E2E2E2E2E2E2E2E2E2E2E2E2E2E2E2E2E2E2E2E2E2E2E2E2E2E2E2E2E2E2E2E2E2E2E2E2E2E2
310
E2E2E2E2E2E2E2E2E2E2E2E2E2E2E2E2E2E2E2E2E2E2E2E2E2E2E2E2E2E2F5E2E2E2E2E2E2E2E2E2E2E2E2E2E2E2E2E2E2E2E2F5F5E2E2E2E2E2E2E2E2E2E2E2E2E2E2E2E2E2E2E2E2F5E2E2E2E2E2E2E2E2E2E2E2E2E2E2E2E2E2E2E2E2E2E2E2E2E2E2E2E2E2E2E2E2E2E2E2E2E2E2E2E2E2E2E2E2E2E2E2E2E2E2E2E2E2
310
E2E2E2E2E2E2E2E2E2E2E2E2E2E2E2E2E2E2E2E2E2E2E2E2E2E2E2E2E2E2E2E2E2E2E2E2E2E2E2E2E2E2E2E2E2E2E2E2E2E2E2E2E2E2E2E2E2E2E2E2E2E2E2E2E2E2E2E2E2E2E2E2E2E2E2E2E2E2E2E2E2E2E2F5E2E2E2E2E2E2E2E2E2E2E2E2E2E2E2E2E2E2E2E2F5F5E2E2E2F5E2E2E2E2E2E2E2E2E2E2E2E2E2E2E2E2F5
310
E2E2E2E2E2E2E2E2E2E2E2E2E2E2E2E2E2E2E2E2E2E2E2E2E2E2E2E2E2E2E2E2E2E2E2E2E2E2E2E2E2E2E2E2E2E2E2E2E2E2E2E2E2E2E2E2E2E2E2E2E2E2E2E2E2E2E2E2E2E2E2E2E2E2E2E2E2E2E2E2E2E2E2E2E2E2E2E2E2E2E2E2E2E2E2E2E2E2E2E2E2E2E2E2E2E2E2E2E2E2E2E2E2E2E2E2E2E2E2E2E2E2E2E2E2E2E2
310
E2E2E2E2E2E2E2E2E2F5E2E2E2E2E2E2E2E2E2E2E2E2E2E2E2E2F5E2E2E2F5F5E2E2E2F5E2E2E2E2E2E2E2E2E2E2E2E2E2E2E2E2F5E2E2E2E2E2E2E2E2E2E2E2E2E2E2E2E2E2E2E2E2E2E2E2E2E2E2E2E2E2E2E2E2E2E2E2E2E2E2E2E2E2E2E2E2E2E2E2E2E2E2E2E2E2E2E2E2E2E2E2E2E2E2E2E2E2E2E2E2E2E2E2E2E2E2
310
E2E2E2E2E2E2E2E2E2E2E2E2E2E2E2E2E2E2E2E2E2E2E2E2E2E2E2E2E2E2E2E2E2E2E2E2E2E2E2E2E2E2E2E2E2E2E2E2E2E2E2E2E2E2E2E2E2E2E2E2E2E2F5E2E2E2E2E2E2E2E2E2E2E2E2E2E2E2E2F5E2E2E2F5F5E2E2E2F5E2E2E2E2E2E2E2E2E2E2E2E2E2E2E2E2F5E2E2E2E2E2E2E2E2E2E2E2E2E2E2E2E2E2E2E2E2E2
310
E2E2E2E2E2E2E2E2E2E2E2E2E2E2E2E2E2E2E2E2E2E2E2E2E2E2E2E2E2E2E2E2E2E2E2E2E2E2E2E2E2E2E2E2E2E2E2E2E2E2E2E2E2E2E2E2E2E2E2E2E2E2E2E2E2E2E2E2E2E2E2E2E2E2E2E2E2E2E2E2E2E2E2E2E2E2E2E2E2E2E2E2E2E2E2E2E2E2E2E2E2E2E2E2E2E2E2E2E2E2E2E2E2E2E2F5E2E2E2E2E2E2E2E2E2E2E2
310
E2E2E2E2E2F5E2E2E2F5F5E2E2E2F5E2E2E2E2E2E2E2E2E2E2E2E2E2E2E2E2F5E2E2E2E2E2E2E2E2E2E2E2E2E2E2E2E2E2E2E2E2E2E2E2E2E2E2E2E2E2E2E2E2E2E2E2E2E2E2E2E2E2E2E2E2E2E2E2E2E2E2E2E2E2E2E2E2E2E2E2E2E2E2E2E2E2E2E2E2E2E2E2E2E2E2E2E2E2E2E2E2E2E2E2E2E2E2E2E2E2E2E2E2E2E2E2
310
E2E2E2E2E2E2E2E2E2E2E2E2E2E2E2E2E2E2E2E2E2E2E2E2E2E2E2E2E2E2E2E2E2E2E2E2E2E2E2E2E2F5E2E2E2E2E2E2E2E2E2E2E2E2E2E2E2E2F5E2E2E2F5F5E2E2E2F5E2E2E2E2E2E2E2E2E2E2E2E2E2E2E2E2F5E2E2E2E2E2E2E2E2E2E2E2E2E2E2E2E2E2E2E2E2E2E2E2E2E2E2E2E2E2E2E2E2E2E2E2E2E2E2E2E2E2E2
310
E2E2E2E2E2E2E2E2E2E2E2E2E2E2E2E2E2E2E2E2E2E2E2E2E2E2E2E2E2E2E2E2E2E2E2E2E2E2E2E2E2E2E2E2E2E2E2E2E2E2E2E2E2E2E2E2E2E2E2E2E2E2E2E2E2E2E2E2E2E2E2E2E2E2E2E2E2E2E2E2E2E2E2E2E2E2E2E2E2E2E2E2E2E2F5E2E2E2E2E2E2E2E2E2E2E2E2E2E2E2E2F5E2E2E2F5F5E2E2E2F5E2E2E2E2E2E2
310
E2E2E2E2E2E2E2E2E2E2F5E2E2E2E2E2E2E2E2E2E2E2E2E2E2E2E2E2E2E2E2E2E2E2E2E2E2E2E2E2E2E2E2E2E2E2E2E2E2E2E2E2E2E2E2E2E2E2E2E2E2E2E2E2E2E2E2E2E2E2E2E2E2E2E2E2E2E2E2E2E2E2E2E2E2E2E2E2E2E2E2E2E2E2E2E2E2E2E2E2E2E2E2E2E2E2E2E2E2E2E2E2E2E2E2E2E2E2E2E2E2E2E2E2E2E2E2
310
E2E2E2E2E2E2E2E2E2E2E2E2E2E2E2E2E2E2E2E2F5E2E2E2E2E2E2E2E2E2E2E2E2E2E2E2E2F5E2E2E2F5F5E2E2E2F5E2E2E2E2E2E2E2E2E2E2E2E2E2E2E2E2F5E2E2E2E2E2E2E2E2E2E2E2E2E2E2E2E2E2E2E2E2E2E2E2E2E2E2E2E2E2E2E2E2E2E2E2E2E2E2E2E2E2E2E2E2E2E2E2E2E2E2E2E2E2E2E2E2E2E2E2E2E2E2E2
310
E2E2E2E2E2E2E2E2E2E2E2E2E2E2E2E2E2E2E2E2E2E2E2E2E2E2E2E2E2E2E2E2E2E2E2E2E2E2E2E2E2E2E2E2E2E2E2E2E2E2E2E2E2E2E2E2E2E2E2E2E2E2E2E2E2E2E2E2E2E2E2E2E2F5E2E2E2E2E2E2E2E2E2E2E2E2E2E2E2E2F5E2E2E2F5F5E2E2E2F5E2E2E2E2E2E2E2E2E2E2E2E2E2E2E2E2F5E2E2E2E2E2E2E2E2E2E2
310
E2E2E2E2E2E2E2E2E2E2E2E2E2E2E2E2E2E2E2E2E2E2E2E2E2E2E2E2E2E2E2E2E2E2E2E2E2E2E2E2E2E2E2E2E2E2E2E2E2E2E2E2E2E2E2E2E2E2E2E2E2E2E2E2E2E2E2E2E2E2E2E2E2E2E2E2E2E2E2E2E2E2E2E2E2E2E2E2E2E2E2E2E2E2E2E2E2E2E2E2E2E2E2E2E2E2E2E2E2E2E2E2E2E2E2E2E2E2E2E2E2E2E2E2E2E2F5
310
E2E2E2E2E2E2E2E2E2E2E2E2E2E2E2E2F5E2E2E2F5F5E2E2E2F5E2E2E2E2E2E2E2E2E2E2E2E2E2E2E2E2F5E2E2E2E2E2E2E2E2E2E2E2E2E2E2E2E2E2E2E2E2E2E2E2E2E2E2E2E2E2E2E2E2E2E2E2E2E2E2E2E2E2E2E2E2E2E2E2E2E2E2E2E2E2E2E2E2E2E2E2E2E2E2E2E2E2E2E2E2E2E2E2E2E2E2E2E2E2E2E2E2E2E2E2E2
310
E2E2E2E2E2E2E2E2E2E2E2E2E2E2E2E2E2E2E2E2E2E2E2E2E2E2E2E2E2E2E2E2E2E2E2E2E2E2E2E2E2E2E2E2E2E2E2E2E2E2E2E2F5E2E2E2E2E2E2E2E2E2E2E2E2E2E2E2E2F5E2E2E2F5F5E2E2E2F5E2E2E2E2E2E2E2E2E2E2E2E2E2E2E2E2F5E2E2E2E2E2E2E2E2E2E2E2E2E2E2E2E2E2E2E2E2E2E2E2E2E2E2E2E2E2E2E2
310
E2E2E2E2E2E2E2E2E2E2E2E2E2E2E2E2E2E2E2E2E2E2E2E2E2E2E2E2E2E2E2E2E2E2E2E2E2E2E2E2E2E2E2E2E2E2E2E2E2E2E2E2E2E2E2E2E2E2E2E2E2E2E2E2E2E2E2E2E2E2E2E2E2E2E2E2E2E2E2E2E2E2E2E2E2E2E2E2E2E2E2E2E2E2E2E2E2E2E2E2E2E2E2E2E2F5E2E2E2E2E2E2E2E2E2E2E2E2E2E2E2E2F5E2E2E2F5
310
F5E2E2E2F5E2E2E2E2E2E2E2E2E2E2E2E2E2E2E2E2F5E2E2E2E2E2E2E2E2E2E2E2E2E2E2E2E2E2E2E2E2E2E2E2E2E2E2E2E2E2E2E2E2E2E2E2E2E2E2E2E2E2E2E2E2E2E2E2E2E2E2E2E2E2E2E2E2E2E2E2E2E2E2E2E2E2E2E2E2E2E2E2E2E2E2E2E2E2E2E2E2E2E2E2E2E2E2E2E2E2E2E2E2E2E2E2E2E2E2E2E2E2E2E2E2E2
310
E2E2E2E2E2E2E2E2E2E2E2E2E2E2E2E2E2E2E2E2E2E2E2E2E2E2E2E2E2E2E2F5E2E2E2E2E2E2E2E2E2E2E2E2E2E2E2E2F5E2E2E2F5F5E2E2E2F5E2E2E2E2E2E2E2E2E2E2E2E2E2E2E2E2F5E2E2E2E2E2E2E2E2E2E2E2E2E2E2E2E2E2E2E2E2E2E2E2E2E2E2E2E2E2E2E2E2E2E2E2E2E2E2E2E2E2E2E2E2E2E2E2E2E2E2E2E2
310
E2E2E2E2E2E2E2E2E2E2E2E2E2E2E2E2E2E2E2E2E2E2E2E2E2E2E2E2E2E2E2E2E2E2E2E2E2E2E2E2E2E2E2E2E2E2E2E2E2E2E2E2E2E2E2E2E2E2E2E2E2E2E2E2E2E2E2E2E2E2E2E2E2E2E2E2E2E2E2E2E2E2E2E2F5E2E2E2E2E2E2E2E2E2E2E2E2E2E2E2E2F5E2E2E2F5F5E2E2E2F5E2E2E2E2E2E2E2E2E2E2E2E2E2E2E2E2
310
F5E2E2E2E2E2E2E2E2E2E2E2E2E2E2E2E2E2E2E2E2E2E2E2E2E2E2E2E2E2E2E2E2E2E2E2E2E2E2E2E2E2E2E2E2E2E2E2E2E2E2E2E2E2E2E2E2E2E2E2E2E2E2E2E2E2E2E2E2E2E2E2E2E2E2E2E2E2E2E2E2E2E2E2E2E2E2E2E2E2E2E2E2E2E2E2E2E2E2E2E2E2E2E2E2E2E2E2E2E2E2E2E2E2E2E2E2E2E2E2E2E2E2E2E2E2E2
310
E2E2E2E2E2E2E2E2E2E2F5E2E2E2E2E2E2E2E2E2E2E2E2E2E2E2E2F5E2E2E2F5F5E2E2E2F5E2E2E2E2E2E2E2E2E2E2E2E2E2E2E2E2F5E2E2E2E2E2E2E2E2E2E2E2E2E2E2E2E2E2E2E2E2E2E2E2E2E2E2E2E2E2E2E2E2E2E2E2E2E2E2E2E2E2E2E2E2E2E2E2E2E2E2E2E2E2E2E2E2E2E2E2E2E2E2E2E2E2E2E2E2E2E2E2E2E2
310
E2E2E2E2E2E2E2E2E2E2E2E2E2E2E2E2E2E2E2E2E2E2E2E2E2E2E2E2E2E2E2E2E2E2E2E2E2E2E2E2E2E2E2E2E2E2E2E2E2E2E2E2E2E2E2E2E2E2E2E2E2E2E2F5E2E2E2E2E2E2E2E2E2E2E2E2E2E2E2E2F5E2E2E2F5F5E2E2E2F5E2E2E2E2E2E2E2E2E2E2E2E2E2E2E2E2F5E2E2E2E2E2E2E2E2E2E2E2E2E2E2E2E2E2E2E2E2
310
E2E2E2E2E2E2E2E2E2E2E2E2E2E2E2E2E2E2E2E2E2E2E2E2E2E2E2E2E2E2E2E2E2E2E2E2E2E2E2E2E2E2E2E2E2E2E2E2E2E2E2E2E2E2E2E2E2E2E2E2E2E2E2E2E2E2E2E2E2E2E2E2E2E2E2E2E2E2E2E2E2E2E2E2E2E2E2E2E2E2E2E2E2E2E2E2E2E2E2E2E2E2E2E2E2E2E2E2E2E2E2E2E2E2E2E2F5E2E2E2E2E2E2E2E2E2E2
310
E2E2E2E2E2E2F5E2E2E2F5F5E2E2E2F5E2E2E2E2E2E2E2E2E2E2E2E2E2E2E2E2F5E2E2E2E2E2E2E2E2E2E2E2E2E2E2E2E2E2E2E2E2E2E2E2E2E2E2E2E2E2E2E2E2E2E2E2E2E2E2E2E2E2E2E2E2E2E2E2E2E2E2E2E2E2E2E2E2E2E2E2E2E2E2E2E2E2E2E2E2E2E2E2E2E2E2E2E2E2E2E2E2E2E2E2E2E2E2E2E2E2E2E2E2E2E2
310
E2E2E2E2E2E2E2E2E2E2E2E2E2E2E2E2E2E2E2E2E2E2E2E2E2E2E2E2E2E2E2E2E2E2E2E2E2E2E2E2E2E2F5E2E2E2E2E2E2E2E2E2E2E2E2E2E2E2E2F5E2E2E2F5F5E2E2E2E2E2E2E2E2E2E2E2E2E2E2E2E2E2E2E2E2F5E2E2E2E2E2E2E2E2E2E2E2E2E2E2E2E2E2E2E2E2E2E2E2E2E2E2E2E2E2E2E2E2E2E2E2E2E2E2E2E2E2
310
E2E2E2E2E2E2E2E2E2E2E2E2E2E2E2E2E2E2E2E2E2E2E2E2E2E2E2E2E2E2E2E2E2E2E2E2E2E2E2E2E2E2E2E2E2E2E2E2E2E2E2E2E2E2E2E2E2E2E2E2E2E2E2E2E2E2E2E2E2E2E2E2E2E2E2E2E2E2E2E2E2E2E2E2E2E2E2E2E2E2E2E2E2E2E2F5E2E2E2E2E2E2E2E2E2E2E2E2E2E2E2E2E2E2E2E2F5F5E2E2E2E2E2E2E2E2E2
310
E2E2E2E2E2E2E2E2E2E2E2F5E2E2E2E2E2E2E2E2E2E2E2E2E2E2E2E2E2E2E2E2E2E2E2E2E2E2E2E2E2E2E2E2E2E2E2E2E2E2E2E2E2E2E2E2E2E2E2E2E2E2E2E2E2E2E2E2E2E2E2E2E2E2E2E2E2E2E2E2E2E2E2E2E2E2E2E2E2E2E2E2E2E2E2E2E2E2E2E2E2E2E2E2E2E2E2E2E2E2E2E2E2E2E2E2E2E2E2E2E2E2E2E2E2E2E2
310
E2E2E2E2E2E2E2E2E2E2E2E2E2E2E2E2E2E2E2E2E2F5E2E2E2E2E2E2E2E2E2E2E2E2E2E2E2E2E2E2E2E2F5F5E2E2E2E2E2E2E2E2E2E2E2E2E2E2E2E2E2E2E2E2F5E2E2E2E2E2E2E2E2E2E2E2E2E2E2E2E2E2E2E2E2E2E2E2E2E2E2E2E2E2E2E2E2E2E2E2E2E2E2E2E2E2E2E2E2E2E2E2E2E2E2E2E2E2E2E2E2E2E2E2E2E2E2
310
E2E2E2E2E2E2E2E2E2E2E2E2E2E2E2E2E2E2E2E2E2E2E2E2E2E2E2E2E2E2E2E2E2E2E2E2E2E2E2E2E2E2E2E2E2E2E2E2E2E2E2E2E2E2E2E2E2E2E2E2E2E2E2E2E2E2E2E2E2E2E2E2E2E2F5E2E2E2E2E2E2E2E2E2E2E2E2E2E2E2E2E2E2E2E2F5F5E2E2E2E2E2E2E2E2E2E2E2E2E2E2E2E2E2E2E2E2F5E2E2E2E2E2E2E2E2E2
310
E2E2E2E2E2E2E2E2E2E2E2E2E2E2E2E2E2E2E2E2E2E2E2E2E2E2E2E2E2E2E2E2E2E2E2E2E2E2E2E2E2E2E2E2E2E2E2E2E2E2E2E2E2E2E2E2E2E2E2E2E2E2E2E2E2E2E2E2E2E2E2E2E2E2E2E2E2E2E2E2E2E2E2E2E2E2E2E2E2E2E2E2E2E2E2E2E2E2E2E2E2E2E2E2E2E2E2E2E2E2E2E2E2E2E2E2E2E2E2E2E2E2E2E2E2E2E2
310
F5E2E2E2E2E2E2E2E2E2E2E2E2E2E2E2E2E2E2E2E2F5F5E2E2E2E2E2E2E2E2E2E2E2E2E2E2E2E2E2E2E2E2F5E2E2E2E2E2E2E2E2E2E2E2E2E2E2E2E2E2E2E2E2E2E2E2E2E2E2E2E2E2E2E2E2E2E2E2E2E2E2E2E2E2E2E2E2E2E2E2E2E2E2E2E2E2E2E2E2E2E2E2E2E2E2E2E2E2E2E2E2E2E2E2E2E2E2E2E2E2E2E2E2E2E2E2
310
E2E2E2E2E2E2E2E2E2E2E2E2E2E2E2E2E2E2E2E2E2E2E2E2E2E2E2E2E2E2E2E2E2E2E2E2E2E2E2E2E2E2E2E2E2E2E2E2E2E2E2E2E2F5E2E2E2E2E2E2E2E2E2E2E2E2E2E2E2E2E2E2E2E2F5F5E2E2E2E2E2E2E2E2E2E2E2E2E2E2E2E2E2E2E2E2F5E2E2E2E2E2E2E2E2E2E2E2E2E2E2E2E2E2E2E2E2E2E2E2E2E2E2E2E2E2E2
310
E2E2E2E2E2E2E2E2E2E2E2E2E2E2E2E2E2E2E2E2E2E2E2E2E2E2E2E2E2E2E2E2E2E2E2E2E2E2E2E2E2E2E2E2E2E2E2E2E2E2E2E2E2E2E2E2E2E2E2E2E2E2E2E2E2E2E2E2E2E2E2E2E2E2E2E2E2E2E2E2E2E2E2E2E2E2E2E2E2E2E2E2E2E2E2E2E2E2E2E2E2E2E2E2E2E2F5E2E2E2E2E2E2E2E2E2E2E2E2E2E2E2E2E2E2E2E2
310
F5F5E2E2E2E2E2E2E2E2E2E2E2E2E2E2E2E2E2E2E2E2F5E2E2E2E2E2E2E2E2E2E2E2E2E2E2E2E2E2E2E2E2E2E2E2E2E2E2E2E2E2E2E2E2E2E2E2E2E2E2E2E2E2E2E2E2E2E2E2E2E2E2E2E2E2E2E2E2E2E2E2E2E2E2E2E2E2E2E2E2E2E2E2E2E2E2E2E2E2E2E2E2E2E2E2E2E2E2E2E2E2E2E2E2E2E2E2E2E2E2E2E2E2E2E2E2
310
E2E2E2E2E2E2E2E2E2E2E2E2E2E2E2E2E2E2E2E2E2E2E2E2E2E2E2E2E2E2E2E2F5E2E2E2E2E2E2E2E2E2E2E2E2E2E2E2E2E2E2E2E2F5F5E2E2E2E2E2E2E2E2E2E2E2E2E2E2E2E2E2E2E2E2F5E2E2E2E2E2E2E2E2E2E2E2E2E2E2E2E2E2E2E2E2E2E2E2E2E2E2E2E2E2E2E2E2E2E2E2E2E2E2E2E2E2E2E2E2E2E2E2E2E2E2E2
310
E2E2E2E2E2E2E2E2E2E2E2E2E2E2E2E2E2E2E2E2E2E2E2E2E2E2E2E2E2E2E2E2E2E2E2E2E2E2E2E2E2E2E2E2E2E2E2E2E2E2E2E2E2E2E2E2E2E2E2E2E2E2E2E2E2E2E2E2E2E2E2E2E2E2E2E2E2E2E2E2E2E2E2E2E2F5E2E2E2E2E2E2E2E2E2E2E2E2E2E2E2E2E2E2E2E2F5F5E2E2E2E2E2E2E2E2E2E2E2E2E2E2E2E2E2E2E2
310
E2F5E2E2E2E2E2E2E2E2E2E2E2E2E2E2E2E2E2E2E2E2E2E2E2E2E2E2E2E2E2E2E2E2E2E2E2E2E2E2E2E2E2E2E2E2E2E2E2E2E2E2E2E2E2E2E2E2E2E2E2E2E2E2E2E2E2E2E2E2E2E2E2E2E2E2E2E2E2E2E2E2E2E2E2E2E2E2E2E2E2E2E2E2E2E2E2E2E2E2E2E2E2E2E2E2E2E2E2E2E2E2E2E2E2E2E2E2E2E2E2E2E2E2E2E2E2
310
E2E2E2E2E2E2E2E2E2E2E2F5E2E2E2E2E2E2E2E2E2E2E2E2E2E2E2E2E2E2E2E2F5F5E2E2E2E2E2E2E2E2E2E2E2E2E2E2E2E2E2E2E2E2F5E2E2E2E2E2E2E2E2E2E2E2E2E2E2E2E2E2E2E2E2E2E2E2E2E2E2E2E2E2E2E2E2E2E2E2E2E2E2E2E2E2E2E2E2E2E2E2E2E2E2E2E2E2E2E2E2E2E2E2E2E2E2E2E2E2E2E2E2E2E2E2E2
310
E2E2E2E2E2E2E2E2E2E2E2E2E2E2E2E2E2E2E2E2E2E2E2E2E2E2E2E2E2E2E2E2E2E2E2E2E2E2E2E2E2E2E2E2E2E2E2E2E2E2E2E2E2E2E2E2E2E2E2E2E2E2E2E2F5E2E2E2E2E2E2E2E2E2E2E2E2E2E2E2E2E2E2E2E2F5F5E2E2E2F5E2E2E2E2E2E2E2E2E2E2E2E2E2E2E2E2F5E2E2E2E2E2E2E2E2E2E2E2E2E2E2E2E2E2E2E2
310
E2E2E2E2E2E2E2E2E2E2E2E2E2E2E2E2E2E2E2E2E2E2E2E2E2E2E2E2E2E2E2E2E2E2E2E2E2E2E2E2E2E2E2E2E2E2E2E2E2E2E2E2E2E2E2E2E2E2E2E2E2E2E2E2E2E2E2E2E2E2E2E2E2E2E2E2E2E2E2E2E2E2E2E2E2E2E2E2E2E2E2E2E2E2E2E2E2E2E2E2E2E2E2E2E2E2E2E2E2E2E2E2E2E2E2E2E2F5E2E2E2E2E2E2E2E2E2
310
E2E2E2E2E2E2E2F5E2E2E2F5F5E2E2E2F5E2E2E2E2E2E2E2E2E2E2E2E2E2E2E2E2F5E2E2E2E2E2E2E2E2E2E2E2E2E2E2E2E2E2E2E2E2E2E2E2E2E2E2E2E2E2E2E2E2E2E2E2E2E2E2E2E2E2E2E2E2E2E2E2E2E2E2E2E2E2E2E2E2E2E2E2E2E2E2E2E2E2E2E2E2E2E2E2E2E2E2E2E2E2E2E2E2E2E2E2E2E2E2E2E2E2E2E2E2E2
310
E2E2E2E2E2E2E2E2E2E2E2E2E2E2E2E2E2E2E2E2E2E2E2E2E2E2E2E2E2E2E2E2E2E2E2E2E2E2E2E2E2E2E2F5E2E2E2E2E2E2E2E2E2E2E2E2E2E2E2E2F5E2E2E2F5F5E2E2E2F5E2E2E2E2E2E2E2E2E2E2E2E2E2E2E2E2F5E2E2E2E2E2E2E2E2E2E2E2E2E2E2E2E2E2E2E2E2E2E2E2E2E2E2E2E2E2E2E2E2E2E2E2E2E2E2E2E2
310
E2E2E2E2E2E2E2E2E2E2E2E2E2E2E2E2E2E2E2E2E2E2E2E2E2E2E2E2E2E2E2E2E2E2E2E2E2E2E2E2E2E2E2E2E2E2E2E2E2E2E2E2E2E2E2E2E2E2E2E2E2E2E2E2E2E2E2E2E2E2E2E2E2E2E2E2E2E2E2E2E2E2E2E2E2E2E2E2E2E2E2E2E2E2E2E2F5E2E2E2E2E2E2E2E2E2E2E2E2E2E2E2E2F5E2E2E2F5F5E2E2E2F5E2E2E2E2
310
E2E2E2E2E2E2E2E2E2E2E2E2F5E2E2E2E2E2E2E2E2E2E2E2E2E2E2E2E2E2E2E2E2E2E2E2E2E2E2E2E2E2E2E2E2E2E2E2E2E2E2E2E2E2E2E2E2E2E2E2E2E2E2E2E2E2E2E2E2E2E2E2E2E2E2E2E2E2E2E2E2E2E2E2E2E2E2E2E2E2E2E2E2E2E2E2E2E2E2E2E2E2E2E2E2E2E2E2E2E2E2E2E2E2E2E2E2E2E2E2E2E2E2E2E2E2E2
310
E2E2E2E2E2E2E2E2E2E2E2E2E2E2E2E2E2E2E2E2E2E2F5E2E2E2E2E2E2E2E2E2E2E2E2E2E2E2E2F5E2E2E2F5F5E2E2E2F5E2E2E2E2E2E2E2E2E2E2E2E2E2E2E2E2F5E2E2E2E2E2E2E2E2E2E2E2E2E2E2E2E2E2E2E2E2E2E2E2E2E2E2E2E2E2E2E2E2E2E2E2E2E2E2E2E2E2E2E2E2E2E2E2E2E2E2E2E2E2E2E2E2E2E2E2E2E2
310
E2E2E2E2E2E2E2E2E2E2E2E2E2E2E2E2E2E2E2E2E2E2E2E2E2E2E2E2E2E2E2E2E2E2E2E2E2E2E2E2E2E2E2E2E2E2E2E2E2E2E2E2E2E2E2E2E2E2E2E2E2E2E2E2E2E2E2E2E2E2E2E2E2E2E2F5E2E2E2E2E2E2E2E2E2E2E2E2E2E2E2E2F5E2E2E2F5F5E2E2E2F5E2E2E2E2E2E2E2E2E2E2E2E2E2E2E2E2F5E2E2E2E2E2E2E2E2
310
E2E2E2E2E2E2E2E2E2E2E2E2E2E2E2E2E2E2E2E2E2E2E2E2E2E2E2E2E2E2E2E2E2E2E2E2E2E2E2E2E2E2E2E2E2E2E2E2E2E2E2E2E2E2E2E2E2E2E2E2E2E2E2E2E2E2E2E2E2E2E2E2E2E2E2E2E2E2E2E2E2E2E2E2E2E2E2E2E2E2E2E2E2E2E2E2E2E2E2E2E2E2E2E2E2E2E2E2E2E2E2E2E2E2E2E2E2E2E2E2E2E2E2E2E2E2E2
310
E2F5E2E2E2E2E2E2E2E2E2E2E2E2E2E2E2E2F5E2E2E2F5F5E2E2E2F5E2E2E2E2E2E2E2E2E2E2E2E2E2E2E2E2F5E2E2E2E2E2E2E2E2E2E2E2E2E2E2E2E2E2E2E2E2E2E2E2E2E2E2E2E2E2E2E2E2E2E2E2E2E2E2E2E2E2E2E2E2E2E2E2E2E2E2E2E2E2E2E2E2E2E2E2E2E2E2E2E2E2E2E2E2E2E2E2E2E2E2E2E2E2E2E2E2E2E2
310
E2E2E2E2E2E2E2E2E2E2E2E2E2E2E2E2E2E2E2E2E2E2E2E2E2E2E2E2E2E2E2E2E2E2E2E2E2E2E2E2E2E2E2E2E2E2E2E2E2E2E2E2E2E2F5E2E2E2E2E2E2E2E2E2E2E2E2E2E2E2E2F5E2E2E2F5F5E2E2E2F5E2E2E2E2E2E2E2E2E2E2E2E2E2E2E2E2F5E2E2E2E2E2E2E2E2E2E2E2E2E2E2E2E2E2E2E2E2E2E2E2E2E2E2E2E2E2
310
E2E2E2E2E2E2E2E2E2E2E2E2E2E2E2E2E2E2E2E2E2E2E2E2E2E2E2E2E2E2E2E2E2E2E2E2E2E2E2E2E2E2E2E2E2E2E2E2E2E2E2E2E2E2E2E2E2E2E2E2E2E2E2E2E2E2E2E2E2E2E2E2E2E2E2E2E2E2E2E2E2E2E2E2E2E2E2E2E2E2E2E2E2E2E2E2E2E2E2E2E2E2E2E2E2E2E2F5E2E2E2E2E2E2E2E2E2E2E2E2E2E2E2E2F5E2E2
310
E2F5F5E2E2E2F5E2E2E2E2E2E2E2E2E2E2E2E2E2E2E2E2F5E2E2E2E2E2E2E2E2E2E2E2E2E2E2E2E2E2E2E2E2E2E2E2E2E2E2E2E2E2E2E2E2E2E2E2E2E2E2E2E2E2E2E2E2E2E2E2E2E2E2E2E2E2E2E2E2E2E2E2E2E2E2E2E2E2E2E2E2E2E2E2E2E2E2E2E2E2E2E2E2E2E2E2E2E2E2E2E2E2E2E2E2E2E2E2E2E2E2E2E2E2E2E2
310
E2E2E2E2E2E2E2E2E2E2E2E2E2E2E2E2E2E2E2E2E2E2E2E2E2E2E2E2E2E2E2E2E2F5E2E2E2E2E2E2E2E2E2E2E2E2E2E2E2E2F5E2E2E2F5F5E2E2E2F5E2E2E2E2E2E2E2E2E2E2E2E2E2E2E2E2F5E2E2E2E2E2E2E2E2E2E2E2E2E2E2E2E2E2E2E2E2E2E2E2E2E2E2E2E2E2E2E2E2E2E2E2E2E2E2E2E2E2E2E2E2E2E2E2E2E2E2
310
E2E2E2E2E2E2E2E2E2E2E2E2E2E2E2E2E2E2E2E2E2E2E2E2E2E2E2E2E2E2E2E2E2E2E2E2E2E2E2E2E2E2E2E2E2E2E2E2E2E2E2E2E2E2E2E2E2E2E2E2E2E2E2E2E2E2E2E2E2E2E2E2E2E2E2E2E2E2E2E2E2E2E2E2E2E2F5E2E2E2E2E2E2E2E2E2E2E2E2E2E2E2E2F5E2E2E2F5F5E2E2E2F5E2E2E2E2E2E2E2E2E2E2E2E2E2E2
310
E2E2F5E2E2E2E2E2E2E2E2E2E2E2E2E2E2E2E2E2E2E2E2E2E2E2E2E2E2E2E2E2E2E2E2E2E2E2E2E2E2E2E2E2E2E2E2E2E2E2E2E2E2E2E2E2E2E2E2E2E2E2E2E2E2E2E2E2E2E2E2E2E2E2E2E2E2E2E2E2E2E2E2E2E2E2E2E2E2E2E2E2E2E2E2E2E2E2E2E2E2E2E2E2E2E2E2E2E2E2E2E2E2E2E2E2E2E2E2E2E2E2E2E2E2E2E2
310
E2E2E2E2E2E2E2E2E2E2E2E2F5E2E2E2E2E2E2E2E2E2E2E2E2E2E2E2E2F5E2E2E2F5F5E2E2E2F5E2E2E2E2E2E2E2E2E2E2E2E2E2E2E2E2F5E2E2E2E2E2E2E2E2E2E2E2E2E2E2E2E2E2E2E2E2E2E2E2E2E2E2E2E2E2E2E2E2E2E2E2E2E2E2E2E2E2E2E2E2E2E2E2E2E2E2E2E2E2E2E2E2E2E2E2E2E2E2E2E2E2E2E2E2E2E2E2
310
E2E2E2E2E2E2E2E2E2E2E2E2E2E2E2E2E2E2E2E2E2E2E2E2E2E2E2E2E2E2E2E2E2E2E2E2E2E2E2E2E2E2E2E2E2E2E2E2E2E2E2E2E2E2E2E2E2E2E2E2E2E2E2E2E2F5E2E2E2E2E2E2E2E2E2E2E2E2E2E2E2E2F5E2E2E2F5F5E2E2E2F5E2E2E2E2E2E2E2E2E2E2E2E2E2E2E2E2F5E2E2E2E2E2E2E2E2E2E2E2E2E2E2E2E2E2E2
310
E2E2E2E2E2E2E2E2E2E2E2E2E2E2E2E2E2E2E2E2E2E2E2E2E2E2E2E2E2E2E2E2E2E2E2E2E2E2E2E2E2E2E2E2E2E2E2E2E2E2E2E2E2E2E2E2E2E2E2E2E2E2E2E2E2E2E2E2E2E2E2E2E2E2E2E2E2E2E2E2E2E2E2E2E2E2E2E2E2E2E2E2E2E2E2E2E2E2E2E2E2E2E2E2E2E2E2E2E2E2E2E2E2E2E2E2E2E2F5E2E2E2E2E2E2E2E2
310
E2E2E2E2E2E2E2E2F5E2E2E2F5F5E2E2E2F5E2E2E2E2E2E2E2E2E2E2E2E2E2E2E2E2F5E2E2E2E2E2E2E2E2E2E2E2E2E2E2E2E2E2E2E2E2E2E2E2E2E2E2E2E2E2E2E2E2E2E2E2E2E2E2E2E2E2E2E2E2E2E2E2E2E2E2E2E2E2E2E2E2E2E2E2E2E2E2E2E2E2E2E2E2E2E2E2E2E2E2E2E2E2E2E2E2E2E2E2E2E2E2E2E2E2E2E2E2
310
E2E2E2E2E2E2E2E2E2E2E2E2E2E2E2E2E2E2E2E2E2E2E2E2E2E2E2E2E2E2E2E2E2E2E2E2E2E2E2E2E2E2E2E2F5E2E2E2E2E2E2E2E2E2E2E2E2E2E2E2E2F5E2E2E2F5F5E2E2E2F5E2E2E2E2E2E2E2E2E2E2E2E2E2E2E2E2F5E2E2E2E2E2E2E2E2E2E2E2E2E2E2E2E2E2E2E2E2E2E2E2E2E2E2E2E2E2E2E2E2E2E2E2E2E2E2E2
310
E2E2E2E2E2E2E2E2E2E2E2E2E2E2E2E2E2E2E2E2E2E2E2E2E2E2E2E2E2E2E2E2E2E2E2E2E2E2E2E2E2E2E2E2E2E2E2E2E2E2E2E2E2E2E2E2E2E2E2E2E2E2E2E2E2E2E2E2E2E2E2E2E2E2E2E2E2E2E2E2E2E2E2E2E2E2E2E2E2E2E2E2E2E2E2E2E2F5E2E2E2E2E2E2E2E2E2E2E2E2E2E2E2E2F5E2E2E2F5F5E2E2E2F5E2E2E2
310
E2E2E2E2E2E2E2E2E2E2E2E2E2F5E2E2E2E2E2E2E2E2E2E2E2E2E2E2E2E2E2E2E2E2E2E2E2E2E2E2E2E2E2E2E2E2E2E2E2E2E2E2E2E2E2E2E2E2E2E2E2E2E2E2E2E2E2E2E2E2E2E2E2E2E2E2E2E2E2E2E2E2E2E2E2E2E2E2E2E2E2E2E2E2E2E2E2E2E2E2E2E2E2E2E2E2E2E2E2E2E2E2E2E2E2E2E2E2E2E2E2E2E2E2E2E2E2
310
E2E2E2E2E2E2E2E2E2E2E2E2E2E2E2E2E2E2E2E2E2E2E2F5E2E2E2E2E2E2E2E2E2E2E2E2E2E2E2E2F5E2E2E2F5F5E2E2E2E2E2E2E2E2E2E2E2E2E2E2E2E2E2E2E2E2F5E2E2E2E2E2E2E2E2E2E2E2E2E2E2E2E2E2E2E2E2E2E2E2E2E2E2E2E2E2E2E2E2E2E2E2E2E2E2E2E2E2E2E2E2E2E2E2E2E2E2E2E2E2E2E2E2E2E2E2E2
310
E2E2E2E2E2E2E2E2E2E2E2E2E2E2E2E2E2E2E2E2E2E2E2E2E2E2E2E2E2E2E2E2E2E2E2E2E2E2E2E2E2E2E2E2E2E2E2E2E2E2E2E2E2E2E2E2E2E2E2E2E2E2E2E2E2E2E2E2E2E2E2E2E2E2E2E2F5E2E2E2E2E2E2E2E2E2E2E2E2E2E2E2E2E2E2E2E2F5F5E2E2E2E2E2E2E2E2E2E2E2E2E2E2E2E2E2E2E2E2F5E2E2E2E2E2E2E2
310
E2E2E2E2E2E2E2E2E2E2E2E2E2E2E2E2E2E2E2E2E2E2E2E2E2E2E2E2E2E2E2E2E2E2E2E2E2E2E2E2E2E2E2E2E2E2E2E2E2E2E2E2E2E2E2E2E2E2E2E2E2E2E2E2E2E2E2E2E2E2E2E2E2E2E2E2E2E2E2E2E2E2E2E2E2E2E2E2E2E2E2E2E2E2E2E2E2E2E2E2E2E2E2E2E2E2E2E2E2E2E2E2E2E2E2E2E2E2E2E2E2E2E2E2E2E2E2
310
E2E2F5E2E2E2E2E2E2E2E2E2E2E2E2E2E2E2E2E2E2E2E2F5F5E2E2E2E2E2E2E2E2E2E2E2E2E2E2E2E2E2E2E2E2F5E2E2E2E2E2E2E2E2E2E2E2E2E2E2E2E2E2E2E2E2E2E2E2E2E2E2E2E2E2E2E2E2E2E2E2E2E2E2E2E2E2E2E2E2E2E2E2E2E2E2E2E2E2E2E2E2E2E2E2E2E2E2E2E2E2E2E2E2E2E2E2E2E2E2E2E2E2E2E2E2E2
310
E2E2E2E2E2E2E2E2E2E2E2E2E2E2E2E2E2E2E2E2E2E2E2E2E2E2E2E2E2E2E2E2E2E2E2E2E2E2E2E2E2E2E2E2E2E2E2E2E2E2E2E2E2E2E2F5E2E2E2E2E2E2E2E2E2E2E2E2E2E2E2E2E2E2E2E2F5F5E2E2E2E2E2E2E2E2E2E2E2E2E2E2E2E2E2E2E2E2F5E2E2E2E2E2E2E2E2E2E2E2E2E2E2E2E2E2E2E2E2E2E2E2E2E2E2E2E2
310
E2E2E2E2E2E2E2E2E2E2E2E2E2E2E2E2E2E2E2E2E2E2E2E2E2E2E2E2E2E2E2E2E2E2E2E2E2E2E2E2E2E2E2E2E2E2E2E2E2E2E2E2E2E2E2E2E2E2E2E2E2E2E2E2E2E2E2E2E2E2E2E2E2E2E2E2E2E2E2E2E2E2E2E2E2E2E2E2E2E2E2E2E2E2E2E2E2E2E2E2E2E2E2E2E2E2E2E2F5E2E2E2E2E2E2E2E2E2E2E2E2E2E2E2E2E2E2
310
E2E2F5F5E2E2E2E2E2E2E2E2E2E2E2E2E2E2E2E2E2E2E2E2F5E2E2E2E2E2E2E2E2E2E2E2E2E2E2E2E2E2E2E2E2E2E2E2E2E2E2E2E2E2E2E2E2E2E2E2E2E2E2E2E2E2E2E2E2E2E2E2E2E2E2E2E2E2E2E2E2E2E2E2E2E2E2E2E2E2E2E2E2E2E2E2E2E2E2E2E2E2E2E2E2E2E2E2E2E2E2E2E2E2E2E2E2E2E2E2E2E2E2E2E2E2E2
310
E2E2E2E2E2E2E2E2E2E2E2E2E2E2E2E2E2E2E2E2E2E2E2E2E2E2E2E2E2E2E2E2E2E2F5E2E2E2E2E2E2E2E2E2E2E2E2E2E2E2E2E2E2E2E2F5F5E2E2E2E2E2E2E2E2E2E2E2E2E2E2E2E2E2E2E2E2F5E2E2E2E2E2E2E2E2E2E2E2E2E2E2E2E2E2E2E2E2E2E2E2E2E2E2E2E2E2E2E2E2E2E2E2E2E2E2E2E2E2E2E2E2E2E2E2E2E2
310
E2E2E2E2E2E2E2E2E2E2E2E2E2E2E2E2E2E2E2E2E2E2E2E2E2E2E2E2E2E2E2E2E2E2E2E2E2E2E2E2E2E2E2E2E2E2E2E2E2E2E2E2E2E2E2E2E2E2E2E2E2E2E2E2E2E2E2E2E2E2E2E2E2E2E2E2E2E2E2E2E2E2E2E2E2E2E2F5E2E2E2E2E2E2E2E2E2E2E2E2E2E2E2E2E2E2E2E2F5F5E2E2E2E2E2E2E2E2E2E2E2E2E2E2E2E2E2
310
E2E2E2F5E2E2E2E2E2E2E2E2E2E2E2E2E2E2E2E2E2E2E2E2E2E2E2E2E2E2E2E2E2E2E2E2E2E2E2E2E2E2E2E2E2E2E2E2E2E2E2E2E2E2E2E2E2E2E2E2E2E2E2E2E2E2E2E2E2E2E2E2E2E2E2E2E2E2E2E2E2E2E2E2E2E2E2E2E2E2E2E2E2E2E2E2E2E2E2E2E2E2E2E2E2E2E2E2E2E2E2E2E2E2E2E2E2E2E2E2E2E2E2E2E2E2E2
310
E2E2E2E2E2E2E2E2E2E2E2E2E2F5E2E2E2E2E2E2E2E2E2E2E2E2E2E2E2E2E2E2E2E2F5F5E2E2E2E2E2E2E2E2E2E2E2E2E2E2E2E2E2E2E2E2F5E2E2E2E2E2E2E2E2E2E2E2E2E2E2E2E2E2E2E2E2E2E2E2E2E2E2E2E2E2E2E2E2E2E2E2E2E2E2E2E2E2E2E2E2E2E2E2E2E2E2E2E2E2E2E2E2E2E2E2E2E2E2E2E2E2E2E2E2E2E2
310
E2E2E2E2E2E2E2E2E2E2E2E2E2E2E2E2E2E2E2E2E2E2E2E2E2E2E2E2E2E2E2E2E2E2E2E2E2E2E2E2E2E2E2E2E2E2E2E2E2E2E2E2E2E2E2E2E2E2E2E2E2E2E2E2E2E2F5E2E2E2E2E2E2E2E2E2E2E2E2E2E2E2E2E2E2E2E2F5F5E2E2E2E2E2E2E2E2E2E2E2E2E2E2E2E2E2E2E2E2F5E2E2E2E2E2E2E2E2E2E2E2E2E2E2E2E2E2
310
E2E2E2E2E2E2E2E2E2E2E2E2E2E2E2E2E2E2E2E2E2E2E2E2E2E2E2E2E2E2E2E2E2E2E2E2E2E2E2E2E2E2E2E2E2E2E2E2E2E2E2E2E2E2E2E2E2E2E2E2E2E2E2E2E2E2E2E2E2E2E2E2E2E2E2E2E2E2E2E2E2E2E2E2E2E2E2E2E2E2E2E2E2E2E2E2E2E2E2E2E2E2E2E2E2E2E2E2E2E2E2E2E2E2E2E2E2E2E2F5E2E2E2E2E2E2E2
310
E2E2E2E2E2E2E2E2E2E2E2E2E2F5F5E2E2E2F5E2E2E2E2E2E2E2E2E2E2E2E2E2E2E2E2F5E2E2E2E2E2E2E2E2E2E2E2E2E2E2E2E2E2E2E2E2E2E2E2E2E2E2E2E2E2E2E2E2E2E2E2E2E2E2E2E2E2E2E2E2E2E2E2E2E2E2E2E2E2E2E2E2E2E2E2E2E2E2E2E2E2E2E2E2E2E2E2E2E2E2E2E2E2E2E2E2E2E2E2E2E2E2E2E2E2E2E2
310
E2E2E2E2E2E2E2E2E2E2E2E2E2E2E2E2E2E2E2E2E2E2E2E2E2E2E2E2E2E2E2E2E2E2E2E2E2E2E2E2E2E2E2E2E2F5E2E2E2E2E2E2E2E2E2E2E2E2E2E2E2E2F5E2E2E2F5F5E2E2E2F5E2E2E2E2E2E2E2E2E2E2E2E2E2E2E2E2F5E2E2E2E2E2E2E2E2E2E2E2E2E2E2E2E2E2E2E2E2E2E2E2E2E2E2E2E2E2E2E2E2E2E2E2E2E2E2
310
E2E2E2E2E2E2E2E2E2E2E2E2E2E2E2E2E2E2E2E2E2E2E2E2E2E2E2E2E2E2E2E2E2E2E2E2E2E2E2E2E2E2E2E2E2E2E2E2E2E2E2E2E2E2E2E2E2E2E2E2E2E2E2E2E2E2E2E2E2E2E2E2E2E2E2E2E2E2E2E2E2E2E2E2E2E2E2E2E2E2E2E2E2E2E2E2E2E2F5E2E2E2E2E2E2E2E2E2E2E2E2E2E2E2E2F5E2E2E2F5F5E2E2E2F5E2E2
310
E2E2E2E2E2E2E2E2E2E2E2E2E2E2F5E2E2E2E2E2E2E2E2E2E2E2E2E2E2E2E2E2E2E2E2E2E2E2E2E2E2E2E2E2E2E2E2E2E2E2E2E2E2E2E2E2E2E2E2E2E2E2E2E2E2E2E2E2E2E2E2E2E2E2E2E2E2E2E2E2E2E2E2E2E2E2E2E2E2E2E2E2E2E2E2E2E2E2E2E2E2E2E2E2E2E2E2E2E2E2E2E2E2E2E2E2E2E2E2E2E2E2E2E2E2E2E2
310
E2E2E2E2E2E2E2E2E2E2E2E2E2E2E2E2E2E2E2E2E2E2E2E2F5E2E2E2E2E2E2E2E2E2E2E2E2E2E2E2E2F5E2E2E2F5F5E2E2E2F5E2E2E2E2E2E2E2E2E2E2E2E2E2E2E2E2F5E2E2E2E2E2E2E2E2E2E2E2E2E2E2E2E2E2E2E2E2E2E2E2E2E2E2E2E2E2E2E2E2E2E2E2E2E2E2E2E2E2E2E2E2E2E2E2E2E2E2E2E2E2E2E2E2E2E2E2
310
E2E2E2E2E2E2E2E2E2E2E2E2E2E2E2E2E2E2E2E2E2E2E2E2E2E2E2E2E2E2E2E2E2E2E2E2E2E2E2E2E2E2E2E2E2E2E2E2E2E2E2E2E2E2E2E2E2E2E2E2E2E2E2E2E2E2E2E2E2E2E2E2E2E2E2E2E2F5E2E2E2E2E2E2E2E2E2E2E2E2E2E2E2E2F5E2E2E2F5F5E2E2E2F5E2E2E2E2E2E2E2E2E2E2E2E2E2E2E2E2F5E2E2E2E2E2E2
310
E2E2E2E2E2E2E2E2E2E2E2E2E2E2E2E2E2E2E2E2E2E2E2E2E2E2E2E2E2E2E2E2E2E2E2E2E2E2E2E2E2E2E2E2E2E2E2E2E2E2E2E2E2E2E2E2E2E2E2E2E2E2E2E2E2E2E2E2E2E2E2E2E2E2E2E2E2E2E2E2E2E2E2E2E2E2E2E2E2E2E2E2E2E2E2E2E2E2E2E2E2E2E2E2E2E2E2E2E2E2E2E2E2E2E2E2E2E2E2E2E2E2E2E2E2E2E2
310
E2E2E2F5E2E2E2E2E2E2E2E2E2E2E2E2E2E2E2E2F5E2E2E2F5F5E2E2E2F5E2E2E2E2E2E2E2E2E2E2E2E2E2E2E2E2F5E2E2E2E2E2E2E2E2E2E2E2E2E2E2E2E2E2E2E2E2E2E2E2E2E2E2E2E2E2E2E2E2E2E2E2E2E2E2E2E2E2E2E2E2E2E2E2E2E2E2E2E2E2E2E2E2E2E2E2E2E2E2E2E2E2E2E2E2E2E2E2E2E2E2E2E2E2E2E2E2
310
E2E2E2E2E2E2E2E2E2E2E2E2E2E2E2E2E2E2E2E2E2E2E2E2E2E2E2E2E2E2E2E2E2E2E2E2E2E2E2E2E2E2E2E2E2E2E2E2E2E2E2E2E2E2E2E2F5E2E2E2E2E2E2E2E2E2E2E2E2E2E2E2E2F5E2E2E2F5F5E2E2E2F5E2E2E2E2E2E2E2E2E2E2E2E2E2E2E2E2F5E2E2E2E2E2E2E2E2E2E2E2E2E2E2E2E2E2E2E2E2E2E2E2E2E2E2E2
310
E2E2E2E2E2E2E2E2E2E2E2E2E2E2E2E2E2E2E2E2E2E2E2E2E2E2E2E2E2E2E2E2E2E2E2E2E2E2E2E2E2E2E2E2E2E2E2E2E2E2E2E2E2E2E2E2E2E2E2E2E2E2E2E2E2E2E2E2E2E2E2E2E2E2E2E2E2E2E2E2E2E2E2E2E2E2E2E2E2E2E2E2E2E2E2E2E2E2E2E2E2E2E2E2E2E2E2E2E2F5E2E2E2E2E2E2E2E2E2E2E2E2E2E2E2E2F5
310
E2E2E2F5F5E2E2E2F5E2E2E2E2E2E2E2E2E2E2E2E2E2E2E2E2F5E2E2E2E2E2E2E2E2E2E2E2E2E2E2E2E2E2E2E2E2E2E2E2E2E2E2E2E2E2E2E2E2E2E2E2E2E2E2E2E2E2E2E2E2E2E2E2E2E2E2E2E2E2E2E2E2E2E2E2E2E2E2E2E2E2E2E2E2E2E2E2E2E2E2E2E2E2E2E2E2E2E2E2E2E2E2E2E2E2E2E2E2E2E2E2E2E2E2E2E2E2
310
E2E2E2E2E2E2E2E2E2E2E2E2E2E2E2E2E2E2E2E2E2E2E2E2E2E2E2E2E2E2E2E2E2E2E2F5E2E2E2E2E2E2E2E2E2E2E2E2E2E2E2E2F5E2E2E2F5F5E2E2E2F5E2E2E2E2E2E2E2E2E2E2E2E2E2E2E2E2F5E2E2E2E2E2E2E2E2E2E2E2E2E2E2E2E2E2E2E2E2E2E2E2E2E2E2E2E2E2E2E2E2E2E2E2E2E2E2E2E2E2E2E2E2E2E2E2E2
310
E2E2E2E2E2E2E2E2E2E2E2E2E2E2E2E2E2E2E2E2E2E2E2E2E2E2E2E2E2E2E2E2E2E2E2E2E2E2E2E2E2E2E2E2E2E2E2E2E2E2E2E2E2E2E2E2E2E2E2E2E2E2E2E2E2E2E2E2E2E2E2E2E2E2E2E2E2E2E2E2E2E2E2E2E2E2E2E2F5E2E2E2E2E2E2E2E2E2E2E2E2E2E2E2E2F5E2E2E2F5F5E2E2E2F5E2E2E2E2E2E2E2E2E2E2E2E2
310
E2E2E2E2F5E2E2E2E2E2E2E2E2E2E2E2E2E2E2E2E2E2E2E2E2E2E2E2E2E2E2E2E2E2E2E2E2E2E2E2E2E2E2E2E2E2E2E2E2E2E2E2E2E2E2E2E2E2E2E2E2E2E2E2E2E2E2E2E2E2E2E2E2E2E2E2E2E2E2E2E2E2E2E2E2E2E2E2E2E2E2E2E2E2E2E2E2E2E2E2E2E2E2E2E2E2E2E2E2E2E2E2E2E2E2E2E2E2E2E2E2E2E2E2E2E2E2
310
E2E2E2E2E2E2E2E2E2E2E2E2E2E2F5E2E2E2E2E2E2E2E2E2E2E2E2E2E2E2E2F5E2E2E2F5F5E2E2E2F5E2E2E2E2E2E2E2E2E2E2E2E2E2E2E2E2F5E2E2E2E2E2E2E2E2E2E2E2E2E2E2E2E2E2E2E2E2E2E2E2E2E2E2E2E2E2E2E2E2E2E2E2E2E2E2E2E2E2E2E2E2E2E2E2E2E2E2E2E2E2E2E2E2E2E2E2E2E2E2E2E2E2E2E2E2E2
310
E2E2E2E2E2E2E2E2E2E2E2E2E2E2E2E2E2E2E2E2E2E2E2E2E2E2E2E2E2E2E2E2E2E2E2E2E2E2E2E2E2E2E2E2E2E2E2E2E2E2E2E2E2E2E2E2E2E2E2E2E2E2E2E2E2E2E2F5E2E2E2E2E2E2E2E2E2E2E2E2E2E2E2E2F5E2E2E2F5F5E2E2E2F5E2E2E2E2E2E2E2E2E2E2E2E2E2E2E2E2F5E2E2E2E2E2E2E2E2E2E2E2E2E2E2E2E2
310
E2E2E2E2E2E2E2E2E2E2E2E2E2E2E2E2E2E2E2E2E2E2E2E2E2E2E2E2E2E2E2E2E2E2E2E2E2E2E2E2E2E2E2E2E2E2E2E2E2E2E2E2E2E2E2E2E2E2E2E2E2E2E2E2E2E2E2E2E2E2E2E2E2E2E2E2E2E2E2E2E2E2E2E2E2E2E2E2E2E2E2E2E2E2E2E2E2E2E2E2E2E2E2E2E2E2E2E2E2E2E2E2E2E2E2E2E2E2E2E2F5E2E2E2E2E2E2
310
E2E2E2E2E2E2E2E2E2E2F5E2E2E2F5F5E2E2E2F5E2E2E2E2E2E2E2E2E2E2E2E2E2E2E2E2F5E2E2E2E2E2E2E2E2E2E2E2E2E2E2E2E2E2E2E2E2E2E2E2E2E2E2E2E2E2E2E2E2E2E2E2E2E2E2E2E2E2E2E2E2E2E2E2E2E2E2E2E2E2E2E2E2E2E2E2E2E2E2E2E2E2E2E2E2E2E2E2E2E2E2E2E2E2E2E2E2E2E2E2E2E2E2E2E2E2E2
310
E2E2E2E2E2E2E2E2E2E2E2E2E2E2E2E2E2E2E2E2E2E2E2E2E2E2E2E2E2E2E2E2E2E2E2E2E2E2E2E2E2E2E2E2E2E2F5E2E2E2E2E2E2E2E2E2E2E2E2E2E2E2E2F5E2E2E2F5F5E2E2E2F5E2E2E2E2E2E2E2E2E2E2E2E2E2E2E2E2F5E2E2E2E2E2E2E2E2E2E2E2E2E2E2E2E2E2E2E2E2E2E2E2E2E2E2E2E2E2E2E2E2E2E2E2E2E2
310
E2E2E2E2E2E2E2E2E2E2E2E2E2E2E2E2E2E2E2E2E2E2E2E2E2E2E2E2E2E2E2E2E2E2E2E2E2E2E2E2E2E2E2E2E2E2E2E2E2E2E2E2E2E2E2E2E2E2E2E2E2E2E2E2E2E2E2E2E2E2E2E2E2E2E2E2E2E2E2E2E2E2E2E2E2E2E2E2E2E2E2E2E2E2E2E2E2E2E2F5E2E2E2E2E2E2E2E2E2E2E2E2E2E2E2E2F5E2E2E2F5F5E2E2E2F5E2
310
E2E2E2E2E2E2E2E2E2E2E2E2E2E2E2F5E2E2E2E2E2E2E2E2E2E2E2E2E2E2E2E2E2E2E2E2E2E2E2E2E2E2E2E2E2E2E2E2E2E2E2E2E2E2E2E2E2E2E2E2E2E2E2E2E2E2E2E2E2E2E2E2E2E2E2E2E2E2E2E2E2E2E2E2E2E2E2E2E2E2E2E2E2E2E2E2E2E2E2E2E2E2E2E2E2E2E2E2E2E2E2E2E2E2E2E2E2E2E2E2E2E2E2E2E2E2E2
310
E2E2E2E2E2E2E2E2E2E2E2E2E2E2E2E2E2E2E2E2E2E2E2E2E2F5E2E2E2E2E2E2E2E2E2E2E2E2E2E2E2E2F5E2E2E2F5F5E2E2E2F5E2E2E2E2E2E2E2E2E2E2E2E2E2E2E2E2F5E2E2E2E2E2E2E2E2E2E2E2E2E2E2E2E2E2E2E2E2E2E2E2E2E2E2E2E2E2E2E2E2E2E2E2E2E2E2E2E2E2E2E2E2E2E2E2E2E2E2E2E2E2E2E2E2E2E2
310
E2E2E2E2E2E2E2E2E2E2E2E2E2E2E2E2E2E2E2E2E2E2E2E2E2E2E2E2E2E2E2E2E2E2E2E2E2E2E2E2E2E2E2E2E2E2E2E2E2E2E2E2E2E2E2E2E2E2E2E2E2E2E2E2E2E2E2E2E2E2E2E2E2E2E2E2E2E2F5E2E2E2E2E2E2E2E2E2E2E2E2E2E2E2E2F5E2E2E2F5F5E2E2E2F5E2E2E2E2E2E2E2E2E2E2E2E2E2E2E2E2F5E2E2E2E2E2
310
E2E2E2E2E2E2E2E2E2E2E2E2E2E2E2E2E2E2E2E2E2E2E2E2E2E2E2E2E2E2E2E2E2E2E2E2E2E2E2E2E2E2E2E2E2E2E2E2E2E2E2E2E2E2E2E2E2E2E2E2E2E2E2E2E2E2E2E2E2E2E2E2E2E2E2E2E2E2E2E2E2E2E2E2E2E2E2E2E2E2E2E2E2E2E2E2E2E2E2E2E2E2E2E2E2E2E2E2E2E2E2E2E2E2E2E2E2E2E2E2E2E2E2E2E2E2E2
310
E2E2E2E2F5E2E2E2E2E2E2E2E2E2E2E2E2E2E2E2E2F5E2E2E2F5F5E2E2E2E2E2E2E2E2E2E2E2E2E2E2E2E2E2E2E2E2F5E2E2E2E2E2E2E2E2E2E2E2E2E2E2E2E2E2E2E2E2E2E2E2E2E2E2E2E2E2E2E2E2E2E2E2E2E2E2E2E2E2E2E2E2E2E2E2E2E2E2E2E2E2E2E2E2E2E2E2E2E2E2E2E2E2E2E2E2E2E2E2E2E2E2E2E2E2E2E2
310
E2E2E2E2E2E2E2E2E2E2E2E2E2E2E2E2E2E2E2E2E2E2E2E2E2E2E2E2E2E2E2E2E2E2E2E2E2E2E2E2E2E2E2E2E2E2E2E2E2E2E2E2E2E2E2E2E2F5E2E2E2E2E2E2E2E2E2E2E2E2E2E2E2E2E2E2E2E2F5F5E2E2E2E2E2E2E2E2E2E2E2E2E2E2E2E2E2E2E2E2F5E2E2E2E2E2E2E2E2E2E2E2E2E2E2E2E2E2E2E2E2E2E2E2E2E2E2
310
E2E2E2E2E2E2E2E2E2E2E2E2E2E2E2E2E2E2E2E2E2E2E2E2E2E2E2E2E2E2E2E2E2E2E2E2E2E2E2E2E2E2E2E2E2E2E2E2E2E2E2E2E2E2E2E2E2E2E2E2E2E2E2E2E2E2E2E2E2E2E2E2E2E2E2E2E2E2E2E2E2E2E2E2E2E2E2E2E2E2E2E2E2E2E2E2E2E2E2E2E2E2E2E2E2E2E2E2E2E2F5E2E2E2E2E2E2E2E2E2E2E2E2E2E2E2E2
310
E2E2E2E2F5F5E2E2E2E2E2E2E2E2E2E2E2E2E2E2E2E2E2E2E2E2F5E2E2E2E2E2E2E2E2E2E2E2E2E2E2E2E2E2E2E2E2E2E2E2E2E2E2E2E2E2E2E2E2E2E2E2E2E2E2E2E2E2E2E2E2E2E2E2E2E2E2E2E2E2E2E2E2E2E2E2E2E2E2E2E2E2E2E2E2E2E2E2E2E2E2E2E2E2E2E2E2E2E2E2E2E2E2E2E2E2E2E2E2E2E2E2E2E2E2E2E2
310
E2E2E2E2E2E2E2E2E2E2E2E2E2E2E2E2E2E2E2E2E2E2E2E2E2E2E2E2E2E2E2E2E2E2E2E2F5E2E2E2E2E2E2E2E2E2E2E2E2E2E2E2E2E2E2E2E2F5F5E2E2E2E2E2E2E2E2E2E2E2E2E2E2E2E2E2E2E2E2F5E2E2E2E2E2E2E2E2E2E2E2E2E2E2E2E2E2E2E2E2E2E2E2E2E2E2E2E2E2E2E2E2E2E2E2E2E2E2E2E2E2E2E2E2E2E2E2
310
E2E2E2E2E2E2E2E2E2E2E2E2E2E2E2E2E2E2E2E2E2E2E2E2E2E2E2E2E2E2E2E2E2E2E2E2E2E2E2E2E2E2E2E2E2E2E2E2E2E2E2E2E2E2E2E2E2E2E2E2E2E2E2E2E2E2E2E2E2E2E2E2E2E2E2E2E2E2E2E2E2E2E2E2E2E2E2E2E2F5E2E2E2E2E2E2E2E2E2E2E2E2E2E2E2E2E2E2E2E2F5F5E2E2E2E2E2E2E2E2E2E2E2E2E2E2E2
310
E2E2E2E2E2F5F5F5F5F5F5F5F5F5F5F5F5F5F5F5F5F5F5F5F5F5F5F5F5F5F5F5F5F5F5F5F5F5F5F5F5F5F5F5F5F5F5F5F5F5F5F5F5F5F5F5F5F5F5F5F5F5F5F5F5F5F5F5F5F5F5F5F5F5F5F5F5F5F5F5F5F5F5F5F5F5F5F5F5F5F5F5F5F5F5F5F5F5F5F5F5F5F5F5F5F5F5F5F5F5F5F5F5F5F5F5F5F5F5F5F5F5F5F5F5F5F5
310
F5F5F5F5F5F5F5F5F5F5F5F5F5F5F5F5E2E2E2E2E2E2E2E2E2E2E2E2E2E2E2E2E2E2E2E2F5F5E2E2E2E2E2E2E2E2E2E2E2E2E2E2E2E2E2E2E2E2E2E2E2E2E2E2E2E2E2E2E2E2E2E2E2E2E2E2E2E2E2E2E2E2E2E2E2E2E2E2E2E2E2E2E2E2E2E2E2E2E2E2E2E2E2E2E2E2E2E2E2E2E2E2E2E2E2E2E2E2E2E2E2E2E2E2E2E2E2
310
E2E2E2E2E2E2E2E2E2E2E2E2E2E2E2E2E2E2E2E2E2E2E2E2E2E2E2E2E2E2E2E2E2E2E2E2E2E2E2E2E2E2E2E2E2E2E2E2E2E2E2E2E2E2E2E2E2E2E2E2E2E2E2E2E2E2E2E2E2E2E2E2E2E2E2E2E2E2E2E2E2E2E2E2E2E2E2E2E2F5F5E2E2E2E2E2E2E2E2E2E2E2E2E2E2E2E2E2E2E2E2E2E2E2E2E2E2E2E2E2E2E2E2E2E2E2E2
310
E2E2E2E2E2E2E2E2E2E2E2E2E2E2E2E2E2E2E2E2E2E2E2E2E2E2E2E2E2E2E2E2E2E2E2E2E2E2E2E2E2E2E2E2E2E2E2E2E2E2E2E2E2E2E2E2E2E2E2E2E2E2E2E2E2E2E2E2E2E2E2E2E2E2E2E2E2E2E2E2E2E2E2E2E2E2E2E2E2E2E2E2E2E2E2E2E2E2E2E2E2E2E2E2E2E2E2E2E2E2E2E2E2E2E2E2E2E2E2E2E2E2E2E2E2E2E2
310
E2E2E2E2E2E2E2E2E2E2E2E2E2E2E2F5F5E2E2E2E2E2E2E2E2E2E2E2E2E2E2E2E2E2E2E2E2E2E2E2E2E2E2E2E2E2E2E2E2E2E2E2E2E2E2E2E2E2E2E2E2E2E2E2E2E2E2E2E2E2E2E2E2E2E2E2E2E2E2E2E2E2E2E2E2E2E2E2E2E2E2E2E2E2E2E2E2E2E2E2E2E2E2E2E2E2E2E2E2E2E2E2E2E2E2E2E2E2E2E2E2E2E2E2E2E2E2
310
E2E2E2E2E2E2E2E2E2E2E2E2E2E2E2E2E2E2E2E2E2E2E2E2E2E2E2E2E2E2E2E2E2E2E2E2E2E2E2E2E2E2E2E2E2E2E2E2E2E2E2E2E2E2E2E2E2E2E2E2E2E2E2E2E2E2E2E2F5F5E2E2E2E2E2E2E2E2E2E2E2E2E2E2E2E2E2E2E2E2E2E2E2E2E2E2E2E2E2E2E2E2E2E2E2E2E2E2E2E2E2E2E2E2E2E2E2E2E2E2E2E2E2E2E2E2E2
310
E2E2E2E2E2E2E2E2E2E2E2E2E2E2E2E2E2E2E2E2E2E2E2E2E2E2E2E2E2E2E2E2E2E2E2E2E2E2E2E2E2E2E2E2E2E2E2E2E2E2E2E2E2E2E2E2E2E2E2E2E2E2E2E2E2E2E2E2E2E2E2E2E2E2E2E2E2E2E2E2E2E2E2E2E2E2E2E2E2E2E2E2E2E2E2E2E2E2E2E2E2E2E2E2E2E2E2E2E2E2E2E2E2E2E2E2E2E2E2E2E2F5F5E2E2E2F5
310
E2E2E2E2E2E2E2E2E2E2E2E2E2E2E2E2E2E2E2E2E2E2E2E2E2E2E2E2E2E2E2E2E2E2E2E2E2E2E2E2E2E2E2E2E2E2E2E2E2E2E2E2E2E2E2E2E2E2E2E2E2E2E2E2E2E2E2E2E2E2E2E2E2E2E2E2E2E2E2E2E2E2E2E2E2E2E2E2E2E2E2E2E2E2E2E2E2E2E2E2E2E2E2E2E2E2E2E2E2E2E2E2E2E2E2E2E2E2E2E2E2E2E2E2E2E2E2
310
E2E2E2E2E2E2E2E2E2E2E2E2E2E2E2E2E2E2E2E2E2E2E2E2E2E2E2E2E2E2E2E2E2E2E2E2E2E2E2E2E2E2E2F5E2E2E2F5F5E2E2E2F5E2E2E2E2E2E2E2E2E2E2E2E2E2E2E2E2E2E2E2E2E2E2E2E2E2E2E2E2E2E2E2E2E2E2E2E2E2E2E2E2E2E2E2E2E2E2E2E2E2E2E2E2E2E2E2E2E2E2E2E2E2E2E2E2E2E2E2E2E2E2E2E2E2E2
310
E2E2E2E2E2E2E2E2E2E2E2E2E2E2E2E2E2E2E2E2E2E2E2E2E2E2E2E2E2E2E2E2E2E2E2E2E2E2E2E2E2E2E2E2E2E2E2E2E2E2E2E2E2E2E2E2E2E2E2E2E2E2E2E2E2E2E2E2E2E2E2E2E2E2E2E2E2E2E2E2E2E2E2E2E2E2E2E2E2E2E2E2E2E2E2E2F5E2E2E2F5F5E2E2E2F5E2E2E2E2E2E2E2E2E2E2E2E2E2E2E2E2E2E2E2E2E2
310
E2E2E2E2E2E2E2E2E2E2E2E2E2E2E2E2E2E2E2E2E2E2E2E2E2E2E2E2E2E2E2E2E2E2E2E2E2E2E2E2E2E2E2E2E2E2E2E2E2E2E2E2E2E2E2E2E2E2E2E2E2E2E2E2E2E2E2E2E2E2E2E2E2E2E2E2E2E2E2E2E2E2E2E2E2E2E2E2E2E2E2E2E2E2E2E2E2E2E2E2E2E2E2E2E2E2E2E2E2E2E2E2E2E2E2E2E2E2E2E2E2E2E2E2E2E2E2
310
E2E2E2E2E2E2E2E2E2E2E2E2E2E2E2E2E2E2E2E2E2E2F5E2E2E2F5F5E2E2E2F5E2E2E2E2E2E2E2E2E2E2E2E2E2E2E2E2E2E2E2E2E2E2E2E2E2E2E2E2E2E2E2E2E2E2E2E2E2E2E2E2E2E2E2E2E2E2E2E2E2E2E2E2E2E2E2E2E2E2E2E2E2E2E2E2E2E2E2E2E2E2E2E2E2E2E2E2E2E2E2E2E2E2E2E2E2E2E2E2E2E2E2E2E2E2E2
310
E2E2E2E2E2E2E2E2E2E2E2E2E2E2E2E2E2E2E2E2E2E2E2E2E2E2E2E2E2E2E2E2E2E2E2E2E2E2E2E2E2E2E2E2E2E2E2E2E2E2E2E2E2E2E2E2E2E2E2E2E2E2E2E2E2E2E2E2E2E2E2E2E2E2E2F5E2E2E2F5F5E2E2E2F5E2E2E2E2E2E2E2E2E2E2E2E2E2E2E2E2E2E2E2E2E2E2E2E2E2E2E2E2E2E2E2E2E2E2E2E2E2E2E2E2E2E2
310
E2E2E2E2E2E2E2E2E2E2E2E2E2E2E2E2E2E2E2E2E2E2E2E2E2E2E2E2E2E2E2E2E2E2E2E2E2E2E2E2E2E2E2E2E2E2E2E2E2E2E2E2E2E2E2E2E2E2E2E2E2E2E2E2E2E2E2E2E2E2E2E2E2E2E2E2E2E2E2E2E2E2E2E2E2E2E2E2E2E2E2E2E2E2E2E2E2E2E2E2E2E2E2E2E2E2E2E2E2E2E2E2E2E2E2E2E2E2E2E2E2E2E2E2E2E2E2
310
E2F5E2E2E2F5F5E2E2E2F5E2E2E2E2E2E2E2E2E2E2E2E2E2E2E2E2E2E2E2E2E2E2E2E2E2E2E2E2E2E2E2E2E2E2E2E2E2E2E2E2E2E2E2E2E2E2E2E2E2E2E2E2E2E2E2E2E2E2E2E2E2E2E2E2E2E2E2E2E2E2E2E2E2E2E2E2E2E2E2E2E2E2E2E2E2E2E2E2E2E2E2E2E2E2E2E2E2E2E2E2E2E2E2E2E2E2E2E2E2E2E2E2E2E2E2E2
310
E2E2E2E2E2E2E2E2E2E2E2E2E2E2E2E2E2E2E2E2E2E2E2E2E2E2E2E2E2E2E2E2E2E2E2E2E2E2E2E2E2E2E2E2E2E2E2E2E2E2E2E2E2E2F5E2E2E2F5F5E2E2E2F5E2E2E2E2E2E2E2E2E2E2E2E2E2E2E2E2E2E2E2E2E2E2E2E2E2E2E2E2E2E2E2E2E2E2E2E2E2E2E2E2E2E2E2E2E2E2E2E2E2E2E2E2E2E2E2E2E2E2E2E2E2E2E2
310
E2E2E2E2E2E2E2E2E2E2E2E2E2E2E2E2E2E2E2E2E2E2E2E2E2E2E2E2E2E2E2E2E2E2E2E2E2E2E2E2E2E2E2E2E2E2E2E2E2E2E2E2E2E2E2E2E2E2E2E2E2E2E2E2E2E2E2E2E2E2E2E2E2E2E2E2E2E2E2E2E2E2E2E2E2E2E2E2E2E2E2E2E2E2E2E2E2E2E2E2E2E2E2E2E2E2E2F5E2E2E2F5F5E2E2E2F5E2E2E2E2E2E2E2E2E2E2
310
E2E2E2E2E2E2E2E2E2E2E2E2E2E2E2E2E2E2E2E2E2E2E2E2E2E2E2E2E2E2E2E2E2E2E2E2E2E2E2E2E2E2E2E2E2E2E2E2E2E2E2E2E2E2E2E2E2E2E2E2E2E2E2E2E2E2E2E2E2E2E2E2E2E2E2E2E2E2E2E2E2E2E2E2E2E2E2E2E2E2E2E2E2E2E2E2E2E2E2E2E2E2E2E2E2E2E2E2E2E2E2E2E2E2E2E2E2E2E2E2E2E2E2E2E2E2E2
310
E2E2E2E2E2E2E2E2E2E2E2E2E2E2E2E2E2E2E2E2E2E2E2E2E2E2E2E2E2E2E2E2E2F5E2E2E2F5F5E2E2E2F5F5F5F5F5F5F5F5E2E2E2E2E2E2E2E2E2F5F5F5F5F5F5F5F5F5F5F5F5F5F5F5F5E2E2E2E2E2E2E2E2E2F5F5F5F5F5F5F5F5F5F5F5F5F5F5F5E2E2E2E2E2E2E2E2E2F5F5F5F5F5F5F5F5F5F5F5F5F5F5F5F5E2E2E2
310
E2E2E2E2E2F5F5F5F5F5F5F5F5F5F5F5F5F5F5F5F5E2E2E2E2E2E2E2E2E2F5F5F5F5F5F5F5F5F5F5F5F5F5F5F5E2E2E2E2E2E2E2E2E2F5F5F5F5F5F5F5F5F5F5F5F5F5F5F5F5E2E2E2E2E2E2E2E2E2F5F5F5F5F5F5F5F5E2E2E2F5F5E2E2E2E2E2E2E2E2E2E2E2E2E2E2E2E2E2E2E2E2E2E2E2E2E2E2E2E2E2E2E2E2E2E2E2
310
E2E2E2E2E2E2E2E2E2E2E2E2E2E2E2E2E2E2E2E2E2E2E2E2E2E2E2E2E2E2E2E2E2E2E2E2E2E2E2E2E2E2E2E2E2E2E2E2E2E2E2E2E2E2E2E2E2E2E2E2E2E2E2E2E2E2E2E2E2E2E2E2E2E2E2E2E2E2E2E2E2E2E2E2E2E2E2E2E2E2E2E2E2E2E2E2E2E2E2E2E2E2E2E2E2E2E2E2E2E2E2E2E2E2E2E2E2E2E2E2E2E2E2E2E2E2E2
310
E2E2E2E2E2E2E2E2E2E2E2E2E2E2E2E2F5F5E2E2E2E2E2E2E2E2E2E2E2E2E2E2E2E2E2E2E2E2E2E2E2E2E2E2E2E2E2E2E2E2E2E2E2E2E2E2E2E2E2E2E2E2E2E2E2E2E2E2E2E2E2E2E2E2E2E2E2E2E2E2E2E2E2E2E2E2E2E2E2E2E2E2E2E2E2E2E2E2E2E2E2E2E2E2E2E2E2E2E2E2E2E2E2E2E2E2E2E2E2E2E2E2E2E2E2E2E2
310
E2E2E2E2E2E2E2E2E2E2E2E2E2E2E2E2E2E2E2E2E2E2E2E2E2E2E2E2E2E2E2E2E2E2E2E2E2E2E2E2E2E2E2E2E2E2E2E2E2E2E2E2E2E2E2E2E2E2E2E2E2E2E2E2E2E2E2E2E2F5F5E2E2E2E2E2E2E2E2E2E2E2E2E2E2E2E2E2E2E2E2E2E2E2E2E2E2E2E2E2E2E2E2E2E2E2E2E2E2E2E2E2E2E2E2E2E2E2E2E2E2E2E2E2E2E2E2
310
E2E2E2E2E2E2E2E2E2E2E2E2E2E2E2E2E2E2E2E2E2E2E2E2E2E2E2E2E2E2E2E2E2E2E2E2E2E2E2E2E2E2E2E2E2E2E2E2E2E2E2E2E2E2E2E2E2E2E2E2E2E2E2E2E2E2E2E2E2E2E2E2E2E2E2E2E2E2E2E2E2E2E2E2E2E2E2E2E2E2E2E2E2E2E2E2E2E2E2E2E2E2E2E2E2E2E2E2E2E2E2E2E2E2E2E2E2E2E2E2E2E2F5F5E2E2E2
310
E2E2E2E2E2E2E2E2E2E2E2E2E2E2E2E2E2E2E2E2E2E2E2E2E2E2E2E2E2E2E2E2E2E2E2E2E2E2E2E2E2E2E2E2E2E2E2E2E2E2E2E2E2E2E2E2E2E2E2E2E2E2E2E2E2E2E2E2E2E2E2E2E2E2E2E2E2E2E2E2E2E2E2E2E2E2E2E2E2E2E2E2E2E2E2E2E2E2E2E2E2E2E2E2E2E2E2E2E2E2E2E2E2E2E2E2E2E2E2E2E2E2E2E2E2E2E2
310
E2E2E2E2E2E2E2E2E2E2E2E2E2E2E2E2E2E2E2E2E2E2E2E2E2E2E2E2E2E2E2E2E2E2E2E2E2E2E2E2E2E2E2E2E2E2E2E2F5
  0
XRECORD
  5
5586B
102
{ACAD_REACTORS
330
5586A
102
}
330
5586A
100
AcDbXrecord
280
     1
102
SHADEPLOT
 70
     0
102
SHADEPLOTRESLEVEL
 70
     2
102
SHADEPLOTCUSTOMDPI
 70
   300
  0
ENDSEC
  0
EOF
