  0
SECTION
  2
HEADER
  9
$ACADVER
  1
AC1015
  9
$ACADMAINTVER
 70
    20
  9
$DWGCODEPAGE
  3
ANSI_936
  9
$INSBASE
 10
0.0
 20
0.0
 30
0.0
  9
$EXTMIN
 10
-130.0520312527358
 20
-364.5812421387845
 30
0.0
  9
$EXTMAX
 10
1514.380979288612
 20
201.222272565814
 30
0.0
  9
$LIMMIN
 10
0.0
 20
0.0
  9
$LIMMAX
 10
420.0
 20
297.0
  9
$ORTHOMODE
 70
     0
  9
$REGENMODE
 70
     1
  9
$FILLMODE
 70
     1
  9
$QTEXTMODE
 70
     0
  9
$MIRRTEXT
 70
     1
  9
$LTSCALE
 40
1.0
  9
$ATTMODE
 70
     1
  9
$TEXTSIZE
 40
3.5
  9
$TRACEWID
 40
1.0
  9
$TEXTSTYLE
  7
simplex
  9
$CLAYER
  8
0
  9
$CELTYPE
  6
ByLayer
  9
$CECOLOR
 62
   256
  9
$CELTSCALE
 40
1.0
  9
$DISPSILH
 70
     0
  9
$DIMSCALE
 40
0.0
  9
$DIMASZ
 40
3.5
  9
$DIMEXO
 40
0.0
  9
$DIMDLI
 40
0.38
  9
$DIMRND
 40
0.0
  9
$DIMDLE
 40
0.0
  9
$DIMEXE
 40
1.5
  9
$DIMTP
 40
0.0
  9
$DIMTM
 40
0.0
  9
$DIMTXT
 40
3.5
  9
$DIMCEN
 40
0.09
  9
$DIMTSZ
 40
0.0
  9
$DIMTOL
 70
     0
  9
$DIMLIM
 70
     0
  9
$DIMTIH
 70
     0
  9
$DIMTOH
 70
     0
  9
$DIMSE1
 70
     0
  9
$DIMSE2
 70
     0
  9
$DIMTAD
 70
     1
  9
$DIMZIN
 70
     8
  9
$DIMBLK
  1

  9
$DIMASO
 70
     1
  9
$DIMSHO
 70
     1
  9
$DIMPOST
  1

  9
$DIMAPOST
  1

  9
$DIMALT
 70
     0
  9
$DIMALTD
 70
     2
  9
$DIMALTF
 40
25.4
  9
$DIMLFAC
 40
1.0
  9
$DIMTOFL
 70
     0
  9
$DIMTVP
 40
0.0
  9
$DIMTIX
 70
     0
  9
$DIMSOXD
 70
     0
  9
$DIMSAH
 70
     0
  9
$DIMBLK1
  1

  9
$DIMBLK2
  1

  9
$DIMSTYLE
  2
\M+18352\M+18373\M+1815B - ISO-25
  9
$DIMCLRD
 70
   256
  9
$DIMCLRE
 70
   256
  9
$DIMCLRT
 70
   256
  9
$DIMTFAC
 40
1.0
  9
$DIMGAP
 40
2.299999999999998
  9
$DIMJUST
 70
     0
  9
$DIMSD1
 70
     0
  9
$DIMSD2
 70
     0
  9
$DIMTOLJ
 70
     1
  9
$DIMTZIN
 70
     8
  9
$DIMALTZ
 70
     0
  9
$DIMALTTZ
 70
     0
  9
$DIMUPT
 70
     0
  9
$DIMDEC
 70
     2
  9
$DIMTDEC
 70
     2
  9
$DIMALTU
 70
     2
  9
$DIMALTTD
 70
     2
  9
$DIMTXSTY
  7
simplex
  9
$DIMAUNIT
 70
     0
  9
$DIMADEC
 70
     0
  9
$DIMALTRND
 40
0.0
  9
$DIMAZIN
 70
     0
  9
$DIMDSEP
 70
    46
  9
$DIMATFIT
 70
     3
  9
$DIMFRAC
 70
     0
  9
$DIMLDRBLK
  1

  9
$DIMLUNIT
 70
     2
  9
$DIMLWD
 70
    -1
  9
$DIMLWE
 70
    -1
  9
$DIMTMOVE
 70
     0
  9
$LUNITS
 70
     2
  9
$LUPREC
 70
     4
  9
$SKETCHINC
 40
1.0
  9
$FILLETRAD
 40
0.5
  9
$AUNITS
 70
     0
  9
$AUPREC
 70
     0
  9
$MENU
  1
.
  9
$ELEVATION
 40
0.0
  9
$PELEVATION
 40
0.0
  9
$THICKNESS
 40
0.0
  9
$LIMCHECK
 70
     0
  9
$CHAMFERA
 40
10.0
  9
$CHAMFERB
 40
10.0
  9
$CHAMFERC
 40
20.0
  9
$CHAMFERD
 40
0.0
  9
$SKPOLY
 70
     0
  9
$TDCREATE
 40
2455489.391063368
  9
$TDUCREATE
 40
2455489.057730035
  9
$TDUPDATE
 40
2458572.926795185
  9
$TDUUPDATE
 40
2458572.593461852
  9
$TDINDWG
 40
2.7886232176
  9
$TDUSRTIMER
 40
2.7885658681
  9
$USRTIMER
 70
     1
  9
$ANGBASE
 50
0.0
  9
$ANGDIR
 70
     0
  9
$PDMODE
 70
     0
  9
$PDSIZE
 40
0.0
  9
$PLINEWID
 40
0.0
  9
$SPLFRAME
 70
     0
  9
$SPLINETYPE
 70
     6
  9
$SPLINESEGS
 70
     8
  9
$HANDSEED
  5
57AEE
  9
$SURFTAB1
 70
     6
  9
$SURFTAB2
 70
     6
  9
$SURFTYPE
 70
     6
  9
$SURFU
 70
     6
  9
$SURFV
 70
     6
  9
$UCSBASE
  2

  9
$UCSNAME
  2

  9
$UCSORG
 10
0.0
 20
0.0
 30
0.0
  9
$UCSXDIR
 10
1.0
 20
0.0
 30
0.0
  9
$UCSYDIR
 10
0.0
 20
1.0
 30
0.0
  9
$UCSORTHOREF
  2

  9
$UCSORTHOVIEW
 70
     0
  9
$UCSORGTOP
 10
0.0
 20
0.0
 30
0.0
  9
$UCSORGBOTTOM
 10
0.0
 20
0.0
 30
0.0
  9
$UCSORGLEFT
 10
0.0
 20
0.0
 30
0.0
  9
$UCSORGRIGHT
 10
0.0
 20
0.0
 30
0.0
  9
$UCSORGFRONT
 10
0.0
 20
0.0
 30
0.0
  9
$UCSORGBACK
 10
0.0
 20
0.0
 30
0.0
  9
$PUCSBASE
  2

  9
$PUCSNAME
  2

  9
$PUCSORG
 10
0.0
 20
0.0
 30
0.0
  9
$PUCSXDIR
 10
1.0
 20
0.0
 30
0.0
  9
$PUCSYDIR
 10
0.0
 20
1.0
 30
0.0
  9
$PUCSORTHOREF
  2

  9
$PUCSORTHOVIEW
 70
     0
  9
$PUCSORGTOP
 10
0.0
 20
0.0
 30
0.0
  9
$PUCSORGBOTTOM
 10
0.0
 20
0.0
 30
0.0
  9
$PUCSORGLEFT
 10
0.0
 20
0.0
 30
0.0
  9
$PUCSORGRIGHT
 10
0.0
 20
0.0
 30
0.0
  9
$PUCSORGFRONT
 10
0.0
 20
0.0
 30
0.0
  9
$PUCSORGBACK
 10
0.0
 20
0.0
 30
0.0
  9
$USERI1
 70
     0
  9
$USERI2
 70
     0
  9
$USERI3
 70
     0
  9
$USERI4
 70
     0
  9
$USERI5
 70
     0
  9
$USERR1
 40
0.0
  9
$USERR2
 40
0.0
  9
$USERR3
 40
0.0
  9
$USERR4
 40
0.0
  9
$USERR5
 40
0.0
  9
$WORLDVIEW
 70
     1
  9
$SHADEDGE
 70
     3
  9
$SHADEDIF
 70
    70
  9
$TILEMODE
 70
     1
  9
$MAXACTVP
 70
    64
  9
$PINSBASE
 10
0.0
 20
0.0
 30
0.0
  9
$PLIMCHECK
 70
     0
  9
$PEXTMIN
 10
26.66999878883364
 20
20.31999878883365
 30
0.0
  9
$PEXTMAX
 10
240.0299890995025
 20
182.8799890995025
 30
0.0
  9
$PLIMMIN
 10
-6.350006103515625
 20
-6.349999904632567
  9
$PLIMMAX
 10
273.0499877929688
 20
209.5499939918518
  9
$UNITMODE
 70
     0
  9
$VISRETAIN
 70
     1
  9
$PLINEGEN
 70
     0
  9
$PSLTSCALE
 70
     1
  9
$TREEDEPTH
 70
  3020
  9
$CMLSTYLE
  2
Standard
  9
$CMLJUST
 70
     0
  9
$CMLSCALE
 40
20.0
  9
$PROXYGRAPHICS
 70
     1
  9
$MEASUREMENT
 70
     1
  9
$CELWEIGHT
370
    -1
  9
$ENDCAPS
280
     0
  9
$JOINSTYLE
280
     0
  9
$LWDISPLAY
290
     0
  9
$INSUNITS
 70
     4
  9
$HYPERLINKBASE
  1

  9
$STYLESHEET
  1

  9
$XEDIT
290
     1
  9
$CEPSNTYPE
380
     0
  9
$PSTYLEMODE
290
     1
  9
$FINGERPRINTGUID
  2
{601DDA01-5B13-4A4C-8F56-1333B78D855B}
  9
$VERSIONGUID
  2
{47CF48D6-4364-4AF2-9F44-393E68359987}
  9
$EXTNAMES
290
     1
  9
$PSVPSCALE
 40
0.0
  9
$OLESTARTUP
290
     0
  0
ENDSEC
  0
SECTION
  2
CLASSES
  0
CLASS
  1
ACDBDICTIONARYWDFLT
  2
AcDbDictionaryWithDefault
  3
ObjectDBX Classes
 90
        0
280
     0
281
     0
  0
CLASS
  1
ACDBPLACEHOLDER
  2
AcDbPlaceHolder
  3
ObjectDBX Classes
 90
        0
280
     0
281
     0
  0
CLASS
  1
LAYOUT
  2
AcDbLayout
  3
ObjectDBX Classes
 90
        0
280
     0
281
     0
  0
CLASS
  1
DICTIONARYVAR
  2
AcDbDictionaryVar
  3
ObjectDBX Classes
 90
        0
280
     0
281
     0
  0
CLASS
  1
TABLESTYLE
  2
AcDbTableStyle
  3
ObjectDBX Classes
 90
     2047
280
     0
281
     0
  0
CLASS
  1
SORTENTSTABLE
  2
AcDbSortentsTable
  3
ObjectDBX Classes
 90
        0
280
     0
281
     0
  0
CLASS
  1
DIMASSOC
  2
AcDbDimAssoc
  3
"AcDbDimAssoc|Product Desc:     AcDim ARX App For Dimension|Company:          Autodesk, Inc.|WEB Address:      www.autodesk.com"
 90
        0
280
     0
281
     0
  0
CLASS
  1
ACAD_EVALUATION_GRAPH
  2
AcDbEvalGraph
  3
ObjectDBX Classes
 90
    33921
280
     0
281
     0
  0
CLASS
  1
ACAECUSTOBJ
  2
AcAeEditorObj
  3
AcAeEditorObj
 90
    33792
280
     0
281
     0
  0
CLASS
  1
ACDB_DYNAMICBLOCKPURGEPREVENTER_VERSION
  2
AcDbDynamicBlockPurgePreventer
  3
ObjectDBX Classes
 90
    33921
280
     0
281
     0
  0
ENDSEC
  0
SECTION
  2
TABLES
  0
TABLE
  2
VPORT
  5
8
330
0
100
AcDbSymbolTable
 70
    13
  0
VPORT
  5
57ADF
330
8
100
AcDbSymbolTableRecord
100
AcDbViewportTableRecord
  2
*Active
 70
     0
 10
0.0
 20
0.0
 11
1.0
 21
1.0
 12
-2.172194263451501
 22
31.4233787947195
 13
0.0
 23
0.0
 14
10.0
 24
10.0
 15
10.0
 25
10.0
 16
0.0
 26
0.0
 36
1.0
 17
0.0
 27
0.0
 37
0.0
 40
529.6349898623491
 41
1.508350730688935
 42
50.0
 43
0.0
 44
0.0
 50
0.0
 51
0.0
 71
     0
 72
  1000
 73
     1
 74
     1
 75
     0
 76
     0
 77
     0
 78
     0
281
     0
 65
     1
110
0.0
120
0.0
130
0.0
111
1.0
121
0.0
131
0.0
112
0.0
122
1.0
132
0.0
 79
     0
146
0.0
  0
ENDTAB
  0
TABLE
  2
LTYPE
  5
5
330
0
100
AcDbSymbolTable
 70
     4
  0
LTYPE
  5
14
330
5
100
AcDbSymbolTableRecord
100
AcDbLinetypeTableRecord
  2
ByBlock
 70
     0
  3

 72
    65
 73
     0
 40
0.0
  0
LTYPE
  5
15
330
5
100
AcDbSymbolTableRecord
100
AcDbLinetypeTableRecord
  2
ByLayer
 70
     0
  3

 72
    65
 73
     0
 40
0.0
  0
LTYPE
  5
16
330
5
100
AcDbSymbolTableRecord
100
AcDbLinetypeTableRecord
  2
Continuous
 70
     0
  3
Solid line
 72
    65
 73
     0
 40
0.0
  0
LTYPE
  5
D7
330
5
100
AcDbSymbolTableRecord
100
AcDbLinetypeTableRecord
  2
HIDDEN
 70
     0
  3
Hidden __ __ __ __ __ __ __ __ __ __ __ __ __ _
 72
    65
 73
     2
 40
9.524999999999996
 49
6.349999999999997
 74
     0
 49
-3.174999999999998
 74
     0
  0
LTYPE
  5
D9
330
5
100
AcDbSymbolTableRecord
100
AcDbLinetypeTableRecord
  2
CENTER
 70
     0
  3
Center ____ _ ____ _ ____ _ ____ _ ____ _ ____
 72
    65
 73
     4
 40
50.8
 49
31.75
 74
     0
 49
-6.349999999999997
 74
     0
 49
6.349999999999997
 74
     0
 49
-6.349999999999997
 74
     0
  0
LTYPE
  5
35815
330
5
100
AcDbSymbolTableRecord
100
AcDbLinetypeTableRecord
  2
PHANTOM
 70
     0
  3
_____ _ _ _____ _ _ _____ _ _ _____
 72
    65
 73
     6
 40
0.8
 49
0.45
 74
     0
 49
-0.05
 74
     0
 49
0.1
 74
     0
 49
-0.05
 74
     0
 49
0.1
 74
     0
 49
-0.05
 74
     0
  0
ENDTAB
  0
TABLE
  2
LAYER
  5
2
102
{ACAD_XDICTIONARY
360
E2
102
}
330
0
100
AcDbSymbolTable
 70
    14
  0
LAYER
  5
10
330
2
100
AcDbSymbolTableRecord
100
AcDbLayerTableRecord
  2
0
 70
     0
 62
     7
  6
Continuous
370
    -3
390
F
  0
LAYER
  5
D1
330
2
100
AcDbSymbolTableRecord
100
AcDbLayerTableRecord
  2
1
 70
     0
 62
     4
  6
Continuous
370
    50
390
F
1001
AcAecLayerStandard
1000

1000

  0
LAYER
  5
D3
330
2
100
AcDbSymbolTableRecord
100
AcDbLayerTableRecord
  2
2
 70
     0
 62
     7
  6
Continuous
370
    25
390
F
1001
AcAecLayerStandard
1000

1000

  0
LAYER
  5
D4
330
2
100
AcDbSymbolTableRecord
100
AcDbLayerTableRecord
  2
3
 70
     0
 62
     1
  6
HIDDEN
370
    35
390
F
1001
AcAecLayerStandard
1000

1000

  0
LAYER
  5
D8
330
2
100
AcDbSymbolTableRecord
100
AcDbLayerTableRecord
  2
4
 70
     0
 62
     2
  6
CENTER
370
    25
390
F
1001
AcAecLayerStandard
1000

1000

  0
LAYER
  5
DA
330
2
100
AcDbSymbolTableRecord
100
AcDbLayerTableRecord
  2
6
 70
     0
 62
     5
  6
Continuous
370
    35
390
F
1001
AcAecLayerStandard
1000

1000

  0
LAYER
  5
DB
330
2
100
AcDbSymbolTableRecord
100
AcDbLayerTableRecord
  2
cut
 70
     0
 62
     1
  6
Continuous
370
    25
390
F
1001
AcAecLayerStandard
1000

1000

  0
LAYER
  5
DC
330
2
100
AcDbSymbolTableRecord
100
AcDbLayerTableRecord
  2
nocut
 70
     0
 62
     7
  6
Continuous
370
    25
390
F
1001
AcAecLayerStandard
1000

1000

  0
LAYER
  5
DD
330
2
100
AcDbSymbolTableRecord
100
AcDbLayerTableRecord
  2
sk1
 70
     0
 62
     4
  6
Continuous
370
    50
390
F
1001
AcAecLayerStandard
1000

1000

  0
LAYER
  5
DE
330
2
100
AcDbSymbolTableRecord
100
AcDbLayerTableRecord
  2
sk2
 70
     0
 62
     7
  6
Continuous
370
    25
390
F
1001
AcAecLayerStandard
1000

1000

  0
LAYER
  5
DF
330
2
100
AcDbSymbolTableRecord
100
AcDbLayerTableRecord
  2
sk3
 70
     0
 62
     1
  6
HIDDEN
370
    35
390
F
1001
AcAecLayerStandard
1000

1000

  0
LAYER
  5
E0
330
2
100
AcDbSymbolTableRecord
100
AcDbLayerTableRecord
  2
sk4
 70
     0
 62
     2
  6
CENTER
370
    25
390
F
1001
AcAecLayerStandard
1000

1000

  0
LAYER
  5
E1
330
2
100
AcDbSymbolTableRecord
100
AcDbLayerTableRecord
  2
sk6
 70
     0
 62
     5
  6
Continuous
370
    35
390
F
1001
AcAecLayerStandard
1000

1000

  0
LAYER
  5
31B6
330
2
100
AcDbSymbolTableRecord
100
AcDbLayerTableRecord
  2
Defpoints
 70
     0
 62
     7
  6
Continuous
290
     0
370
    -3
390
F
  0
ENDTAB
  0
TABLE
  2
STYLE
  5
3
330
0
100
AcDbSymbolTable
 70
    12
  0
STYLE
  5
11
330
3
100
AcDbSymbolTableRecord
100
AcDbTextStyleTableRecord
  2
Standard
 70
     0
 40
0.0
 41
1.0
 50
0.0
 71
     0
 42
2.5
  3
txt.shx
  4
@extfont2.shx
  0
STYLE
  5
D6
330
3
100
AcDbSymbolTableRecord
100
AcDbTextStyleTableRecord
  2

 70
     1
 40
0.0
 41
1.0
 50
0.0
 71
     0
 42
2.5
  3
ltypeshp.shx
  4

  0
STYLE
  5
24A
330
3
100
AcDbSymbolTableRecord
100
AcDbTextStyleTableRecord
  2
simplex
 70
     0
 40
3.5
 41
1.0
 50
0.0
 71
     0
 42
3.5
  3
txt.shx
  4

  0
STYLE
  5
69E
330
3
100
AcDbSymbolTableRecord
100
AcDbTextStyleTableRecord
  2
MX_NOTE_STANDARD
 70
     0
 40
0.0
 41
1.0
 50
0.0
 71
     0
 42
4.2
  3
txt.shx
  4
extfont.shx
  0
STYLE
  5
3524
330
3
100
AcDbSymbolTableRecord
100
AcDbTextStyleTableRecord
  2
TEXTSTYLE_2
 70
     0
 40
0.0
 41
0.775
 50
0.0
 71
     0
 42
0.2
  3
gdt
  4

  0
STYLE
  5
3525
330
3
100
AcDbSymbolTableRecord
100
AcDbTextStyleTableRecord
  2
TEXTSTYLE_3
 70
     0
 40
0.0
 41
0.75
 50
0.0
 71
     0
 42
0.2
  3
txt
  4

  0
STYLE
  5
3526
330
3
100
AcDbSymbolTableRecord
100
AcDbTextStyleTableRecord
  2
TEXTSTYLE_13
 70
     0
 40
0.0
 41
1.0
 50
0.0
 71
     0
 42
0.2
  3
txt
  4

  0
STYLE
  5
519A
330
3
100
AcDbSymbolTableRecord
100
AcDbTextStyleTableRecord
  2
TEXTSTYLE_14
 70
     0
 40
0.0
 41
1.0
 50
0.0
 71
     0
 42
0.2
  3
txt
  4

  0
STYLE
  5
6F72
330
3
100
AcDbSymbolTableRecord
100
AcDbTextStyleTableRecord
  2
TEXTSTYLE_4
 70
     0
 40
0.0
 41
0.75
 50
0.0
 71
     0
 42
0.2
  3
txt
  4

  0
STYLE
  5
6F73
330
3
100
AcDbSymbolTableRecord
100
AcDbTextStyleTableRecord
  2
TEXTSTYLE_17
 70
     0
 40
0.0
 41
1.0
 50
0.0
 71
     0
 42
0.2
  3
txt
  4

  0
STYLE
  5
FE12
330
3
100
AcDbSymbolTableRecord
100
AcDbTextStyleTableRecord
  2
TEXTSTYLE_12
 70
     0
 40
0.0
 41
1.0
 50
0.0
 71
     0
 42
0.2
  3
txt
  4

  0
STYLE
  5
3AAB8
330
3
100
AcDbSymbolTableRecord
100
AcDbTextStyleTableRecord
  2
TEXTSTYLE_20
 70
     0
 40
0.0
 41
0.6
 50
0.0
 71
     0
 42
0.2
  3
txt
  4

  0
ENDTAB
  0
TABLE
  2
VIEW
  5
6
330
0
100
AcDbSymbolTable
 70
     0
  0
ENDTAB
  0
TABLE
  2
UCS
  5
7
330
0
100
AcDbSymbolTable
 70
     0
  0
ENDTAB
  0
TABLE
  2
APPID
  5
9
330
0
100
AcDbSymbolTable
 70
    11
  0
APPID
  5
12
330
9
100
AcDbSymbolTableRecord
100
AcDbRegAppTableRecord
  2
ACAD
 70
     0
  0
APPID
  5
D2
330
9
100
AcDbSymbolTableRecord
100
AcDbRegAppTableRecord
  2
AcAecLayerStandard
 70
     0
  0
APPID
  5
E6
330
9
100
AcDbSymbolTableRecord
100
AcDbRegAppTableRecord
  2
ACAD_DSTYLE_DIMTEXT_FILL
 70
     0
  0
APPID
  5
4C84
330
9
100
AcDbSymbolTableRecord
100
AcDbRegAppTableRecord
  2
ACAD_EXEMPT_FROM_CAD_STANDARDS
 70
     0
  0
APPID
  5
3493E
330
9
100
AcDbSymbolTableRecord
100
AcDbRegAppTableRecord
  2
DCO15
 70
     0
  0
APPID
  5
3BAB0
330
9
100
AcDbSymbolTableRecord
100
AcDbRegAppTableRecord
  2
ACAD_DSTYLE_DIMEXT_ENABLED
 70
     0
  0
APPID
  5
3BAB1
330
9
100
AcDbSymbolTableRecord
100
AcDbRegAppTableRecord
  2
ACAD_DSTYLE_DIMEXT_LENGTH
 70
     0
  0
APPID
  5
3BEB4
330
9
100
AcDbSymbolTableRecord
100
AcDbRegAppTableRecord
  2
ACAUTHENVIRON
 70
     0
  0
APPID
  5
3BEB7
330
9
100
AcDbSymbolTableRecord
100
AcDbRegAppTableRecord
  2
AcDbDynamicBlockTrueName
 70
     0
  0
APPID
  5
3BEB8
330
9
100
AcDbSymbolTableRecord
100
AcDbRegAppTableRecord
  2
AcDbDynamicBlockGUID
 70
     0
  0
APPID
  5
3BEBA
330
9
100
AcDbSymbolTableRecord
100
AcDbRegAppTableRecord
  2
AcDbBlockRepETag
 70
     0
  0
ENDTAB
  0
TABLE
  2
DIMSTYLE
  5
A
330
0
100
AcDbSymbolTable
 70
    11
100
AcDbDimStyleTable
 71
     5
340
1BF
340
27
340
352A
340
3527
340
69F
  0
DIMSTYLE
105
27
330
A
100
AcDbSymbolTableRecord
100
AcDbDimStyleTableRecord
  2
ISO-25
 70
     0
 41
2.5
 42
0.625
 43
3.75
 44
1.25
 73
     0
 74
     0
 77
     1
 78
     8
140
2.5
141
2.5
143
0.03937007874016
147
0.625
171
     3
172
     1
271
     2
272
     2
274
     3
278
    44
283
     0
284
     8
340
11
  0
DIMSTYLE
105
1BF
102
{ACAD_REACTORS
330
55502
330
55554
330
55556
330
55557
330
5555A
330
5555D
330
55560
330
57834
330
5787C
330
577B0
330
577B3
330
577BF
330
577C0
330
577C9
102
}
330
A
100
AcDbSymbolTableRecord
100
AcDbDimStyleTableRecord
  2
\M+18352\M+18373\M+1815B - ISO-25
 70
     0
 40
0.0
 41
3.5
 42
0.0
 44
1.5
 73
     0
 74
     0
 77
     1
 78
     8
140
3.5
147
2.299999999999998
176
   256
177
   256
178
   256
271
     2
272
     2
284
     8
340
24A
371
    -1
372
    -1
  0
DIMSTYLE
105
69F
330
A
100
AcDbSymbolTableRecord
100
AcDbDimStyleTableRecord
  2
MXDIMSTYLE
 70
     0
 41
2.5
 42
0.5
 43
3.75
 44
1.5
 73
     0
 74
     0
 77
     1
 78
     8
140
4.2
141
2.5
143
0.03937
147
1.0
171
     4
172
     1
173
     1
271
     2
272
     2
274
     4
283
     0
288
     1
340
69E
341
697
343
697
344
697
  0
DIMSTYLE
105
3527
330
A
100
AcDbSymbolTableRecord
100
AcDbDimStyleTableRecord
  2
STANDARD
 70
     0
 41
3.0
 47
0.001
 48
0.001
 71
     1
 73
     0
 74
     0
 77
     1
 78
     8
140
4.0
271
     3
272
     3
284
     8
340
11
341
34B1
342
34B1
343
34B1
344
34B1
  0
DIMSTYLE
105
3528
330
A
100
AcDbSymbolTableRecord
100
AcDbDimStyleTableRecord
  2
DIMSTYLE_1
 70
     0
 41
3.0
 73
     0
 74
     0
 77
     1
 78
     8
140
4.0
271
     3
272
     3
284
     8
340
11
341
34B1
342
34B1
343
34B1
344
34B1
  0
DIMSTYLE
105
3529
330
A
100
AcDbSymbolTableRecord
100
AcDbDimStyleTableRecord
  2
DIMSTYLE_2
 70
     0
 41
3.0
 47
0.001
 48
0.001
 73
     0
 74
     0
 77
     1
 78
     8
140
4.0
271
     3
272
     3
284
     8
340
11
341
34B1
342
34B1
343
34B1
344
34B1
  0
DIMSTYLE
105
352A
330
A
100
AcDbSymbolTableRecord
100
AcDbDimStyleTableRecord
  2
DIMSTYLE_3
 70
     0
 41
3.0
 47
-0.1
 48
0.3
 71
     1
 73
     0
 74
     0
 77
     1
 78
     8
140
4.0
146
0.5
271
     3
272
     3
284
     8
340
11
341
34B1
342
34B1
343
34B1
344
34B1
  0
DIMSTYLE
105
352B
330
A
100
AcDbSymbolTableRecord
100
AcDbDimStyleTableRecord
  2
DIMSTYLE_4
 70
     0
 41
3.0
 47
0.1
 48
0.1
 71
     1
 73
     0
 74
     0
 77
     1
 78
     8
140
4.0
271
     3
272
     3
284
     8
340
11
341
34B1
342
34B1
343
34B1
344
34B1
  0
DIMSTYLE
105
27245
330
A
100
AcDbSymbolTableRecord
100
AcDbDimStyleTableRecord
  2
DIMSTYLE_5
 70
     0
 41
3.0
 47
0.001
 48
0.001
 73
     0
 74
     0
 77
     1
 78
     8
140
4.0
271
     3
272
     3
284
     8
340
11
341
34B1
342
34B1
343
34B1
344
34B1
  0
DIMSTYLE
105
3AAB9
330
A
100
AcDbSymbolTableRecord
100
AcDbDimStyleTableRecord
  2
DIMSTYLE_6
 70
     0
 41
3.0
 42
0.0
 44
1.0
 47
0.05
 48
0.05
 71
     1
 73
     0
 74
     0
 77
     1
 78
     8
140
4.0
147
1.0
271
     3
272
     3
284
     8
340
11
341
34B1
342
34B1
343
34B1
344
34B1
  0
DIMSTYLE
105
532EA
330
A
100
AcDbSymbolTableRecord
100
AcDbDimStyleTableRecord
  2
NEW-DIMSTYLE
 70
     0
 40
0.0
 41
4.57
 42
0.0
 44
5.0
 73
     0
 74
     0
 77
     1
 78
     8
140
4.57
147
2.299999999999998
271
     2
340
24A
  0
ENDTAB
  0
TABLE
  2
BLOCK_RECORD
  5
1
330
0
100
AcDbSymbolTable
 70
   200
  0
BLOCK_RECORD
  5
1F
102
{ACAD_XDICTIONARY
360
31EE
102
}
330
1
100
AcDbSymbolTableRecord
100
AcDbBlockTableRecord
  2
*Model_Space
340
22
  0
BLOCK_RECORD
  5
50
330
1
100
AcDbSymbolTableRecord
100
AcDbBlockTableRecord
  2
*Paper_Space
340
51
  0
BLOCK_RECORD
  5
55
330
1
100
AcDbSymbolTableRecord
100
AcDbBlockTableRecord
  2
*Paper_Space0
340
56
  0
BLOCK_RECORD
  5
680
102
{ACAD_XDICTIONARY
360
3BEB2
102
}
330
1
100
AcDbSymbolTableRecord
100
AcDbBlockTableRecord
  2
zero block
340
0
102
{BLKREFS
331
68C
331
55561
331
55D04
102
}
1001
ACAD
1000
DesignCenter Data
1002
{
1070
     1
1070
     4
1002
}
1001
AcDbDynamicBlockGUID
1000
{C2E8894D-A8DA-456D-ABB6-198B00672C1A}
1001
AcDbBlockRepETag
1070
     1
1071
        7
  0
BLOCK_RECORD
  5
697
330
1
100
AcDbSymbolTableRecord
100
AcDbBlockTableRecord
  2
_OPEN30
340
0
  0
BLOCK_RECORD
  5
34B1
330
1
100
AcDbSymbolTableRecord
100
AcDbBlockTableRecord
  2
_OPEN
340
0
  0
BLOCK_RECORD
  5
50E6F
330
1
100
AcDbSymbolTableRecord
100
AcDbBlockTableRecord
  2
_None
340
0
  0
BLOCK_RECORD
  5
550F9
330
1
100
AcDbSymbolTableRecord
100
AcDbBlockTableRecord
  2
*D10
340
0
  0
BLOCK_RECORD
  5
57948
330
1
100
AcDbSymbolTableRecord
100
AcDbBlockTableRecord
  2
*D183
340
0
  0
BLOCK_RECORD
  5
57970
330
1
100
AcDbSymbolTableRecord
100
AcDbBlockTableRecord
  2
*D187
340
0
  0
BLOCK_RECORD
  5
5797C
330
1
100
AcDbSymbolTableRecord
100
AcDbBlockTableRecord
  2
*D188
340
0
  0
BLOCK_RECORD
  5
57989
330
1
100
AcDbSymbolTableRecord
100
AcDbBlockTableRecord
  2
*D189
340
0
  0
BLOCK_RECORD
  5
579CE
330
1
100
AcDbSymbolTableRecord
100
AcDbBlockTableRecord
  2
*D195
340
0
  0
BLOCK_RECORD
  5
57A01
330
1
100
AcDbSymbolTableRecord
100
AcDbBlockTableRecord
  2
*D198
340
0
  0
BLOCK_RECORD
  5
57A20
330
1
100
AcDbSymbolTableRecord
100
AcDbBlockTableRecord
  2
*D199
340
0
  0
ENDTAB
  0
ENDSEC
  0
SECTION
  2
BLOCKS
  0
BLOCK
  5
20
330
1F
100
AcDbEntity
  8
0
100
AcDbBlockBegin
  2
*Model_Space
 70
     0
 10
0.0
 20
0.0
 30
0.0
  3
*Model_Space
  1

  0
ENDBLK
  5
21
330
1F
100
AcDbEntity
  8
0
100
AcDbBlockEnd
  0
BLOCK
  5
52
330
50
100
AcDbEntity
 67
     1
  8
0
100
AcDbBlockBegin
  2
*Paper_Space
 70
     0
 10
0.0
 20
0.0
 30
0.0
  3
*Paper_Space
  1

  0
ENDBLK
  5
53
330
50
100
AcDbEntity
 67
     1
  8
0
100
AcDbBlockEnd
  0
BLOCK
  5
57
330
55
100
AcDbEntity
 67
     1
  8
0
100
AcDbBlockBegin
  2
*Paper_Space0
 70
     0
 10
0.0
 20
0.0
 30
0.0
  3
*Paper_Space0
  1

  0
VIEWPORT
  5
71
102
{ACAD_XDICTIONARY
360
57AEA
102
}
330
55
100
AcDbEntity
 67
     1
  8
0
100
AcDbViewport
 10
150.1652135264906
 20
101.599997546291
 30
0.0
 40
339.1973820494347
 41
164.5360435314421
 68
     0
 69
     0
 12
150.1652135264906
 22
101.599997546291
 13
0.0
 23
0.0
 14
10.0
 24
10.0
 15
10.0
 25
10.0
 16
0.0
 26
0.0
 36
1.0
 17
0.0
 27
0.0
 37
0.0
 42
50.0
 43
0.0
 44
0.0
 45
164.5360435314421
 50
0.0
 51
0.0
 72
  1000
 90
    32864
  1

281
     0
 71
     1
 74
     0
110
0.0
120
0.0
130
0.0
111
1.0
121
0.0
131
0.0
112
0.0
122
1.0
132
0.0
 79
     0
146
0.0
  0
VIEWPORT
  5
73
102
{ACAD_XDICTIONARY
360
57AEC
102
}
330
55
100
AcDbEntity
 67
     1
  8
0
100
AcDbViewport
 10
133.3499939441681
 20
101.5999939441681
 30
0.0
 40
213.3599903106689
 41
162.5599903106689
 68
     0
 69
     0
 12
210.0
 22
148.5
 13
0.0
 23
0.0
 14
10.0
 24
10.0
 15
10.0
 25
10.0
 16
0.0
 26
0.0
 36
1.0
 17
0.0
 27
0.0
 37
0.0
 42
50.0
 43
0.0
 44
0.0
 45
324.0677920111345
 50
0.0
 51
0.0
 72
   100
 90
    32864
  1

281
     0
 71
     1
 74
     0
110
0.0
120
0.0
130
0.0
111
1.0
121
0.0
131
0.0
112
0.0
122
1.0
132
0.0
 79
     0
146
0.0
  0
ENDBLK
  5
58
330
55
100
AcDbEntity
 67
     1
  8
0
100
AcDbBlockEnd
  0
BLOCK
  5
68A
330
680
100
AcDbEntity
  8
0
100
AcDbBlockBegin
  2
zero block
 70
     0
 10
0.0
 20
0.0
 30
0.0
  3
zero block
  1

  0
HATCH
  5
3BEAB
330
680
100
AcDbEntity
  8
0
 62
     7
100
AcDbHatch
 10
0.0
 20
0.0
 30
0.0
210
0.0
220
0.0
230
1.0
  2
SOLID
 70
     1
 71
     0
 91
        2
 92
        7
 72
     1
 73
     1
 93
        3
 10
0.0
 20
0.9999999999999875
 42
0.4142135623730915
 10
-1.0
 20
0.0
 42
0.0
 10
0.0
 20
0.0
 42
0.0
 97
        0
 92
        7
 72
     1
 73
     1
 93
        3
 10
1.000000000000007
 20
0.0
 42
0.0
 10
0.0
 20
0.0
 42
0.0
 10
0.0
 20
-1.0
 42
0.4142135623730974
 97
        0
 75
     0
 76
     1
 47
0.0090601366782909
 98
        2
 10
-0.380591363650975
 20
0.4885804701532896
 10
0.4350764810977559
 20
-0.4536738423704725
1001
AcDbBlockRepETag
1070
     1
1071
        0
1005
3BEAB
  0
LINE
  5
3BEAC
330
680
100
AcDbEntity
  8
0
 62
     7
 48
0.2
100
AcDbLine
 10
-1.0
 20
0.0
 30
0.0
 11
1.000000000000007
 21
0.0
 31
0.0
1001
AcDbBlockRepETag
1070
     1
1071
        1
1005
3BEAC
  0
LINE
  5
3BEAD
330
680
100
AcDbEntity
  8
0
 62
     7
 48
0.2
100
AcDbLine
 10
0.0
 20
-1.0
 30
0.0
 11
0.0
 21
0.9999999999999875
 31
0.0
1001
AcDbBlockRepETag
1070
     1
1071
        2
1005
3BEAD
  0
ARC
  5
3BEAE
330
680
100
AcDbEntity
  8
0
 62
     7
 48
0.2
100
AcDbCircle
 10
0.0
 20
0.0
 30
0.0
 40
1.0
100
AcDbArc
 50
270.0
 51
0.0
1001
AcDbBlockRepETag
1070
     1
1071
        3
1005
3BEAE
  0
ARC
  5
3BEAF
330
680
100
AcDbEntity
  8
0
 62
     7
 48
0.2
100
AcDbCircle
 10
0.0
 20
0.0
 30
0.0
 40
1.0
100
AcDbArc
 50
0.0
 51
90.0
1001
AcDbBlockRepETag
1070
     1
1071
        4
1005
3BEAF
  0
ARC
  5
3BEB0
330
680
100
AcDbEntity
  8
0
 62
     7
 48
0.2
100
AcDbCircle
 10
0.0
 20
0.0
 30
0.0
 40
1.0
100
AcDbArc
 50
180.0
 51
270.0
1001
AcDbBlockRepETag
1070
     1
1071
        5
1005
3BEB0
  0
ARC
  5
3BEB1
330
680
100
AcDbEntity
  8
0
 62
     7
 48
0.2
100
AcDbCircle
 10
0.0
 20
0.0
 30
0.0
 40
1.0
100
AcDbArc
 50
90.0
 51
180.0
1001
AcDbBlockRepETag
1070
     1
1071
        6
1005
3BEB1
  0
ENDBLK
  5
68B
330
680
100
AcDbEntity
  8
0
100
AcDbBlockEnd
  0
BLOCK
  5
698
330
697
100
AcDbEntity
  8
0
  6
ByBlock
 62
     0
370
    -2
100
AcDbBlockBegin
  2
_OPEN30
 70
     2
 10
0.0
 20
0.0
 30
0.0
  3
_OPEN30
  1

  0
LINE
  5
699
330
697
100
AcDbEntity
  8
0
  6
ByBlock
 62
     0
370
    -2
100
AcDbLine
 10
-1.0
 20
0.267949
 30
0.0
 11
0.0
 21
0.0
 31
0.0
  0
LINE
  5
69A
330
697
100
AcDbEntity
  8
0
  6
ByBlock
 62
     0
370
    -2
100
AcDbLine
 10
0.0
 20
0.0
 30
0.0
 11
-1.0
 21
-0.267949
 31
0.0
  0
LINE
  5
69B
330
697
100
AcDbEntity
  8
0
  6
ByBlock
 62
     0
370
    -2
100
AcDbLine
 10
0.0
 20
0.0
 30
0.0
 11
-1.0
 21
0.0
 31
0.0
  0
ENDBLK
  5
69C
330
697
100
AcDbEntity
  8
0
  6
ByBlock
 62
     0
370
    -2
100
AcDbBlockEnd
  0
BLOCK
  5
34B2
330
34B1
100
AcDbEntity
  8
0
100
AcDbBlockBegin
  2
_OPEN
 70
     0
 10
0.0
 20
0.0
 30
0.0
  3
_OPEN
  1

  0
LINE
  5
34B3
330
34B1
100
AcDbEntity
  8
0
  6
ByBlock
 62
     0
100
AcDbLine
 10
0.0
 20
0.0
 30
0.0
 11
-1.0
 21
0.1766666667
 31
0.0
  0
LINE
  5
34B4
330
34B1
100
AcDbEntity
  8
0
  6
ByBlock
 62
     0
100
AcDbLine
 10
-1.0
 20
-0.1766666667
 30
0.0
 11
0.0
 21
0.0
 31
0.0
  0
LINE
  5
34B5
330
34B1
100
AcDbEntity
  8
0
  6
ByBlock
 62
     0
100
AcDbLine
 10
-1.0
 20
0.0
 30
0.0
 11
0.0
 21
0.0
 31
0.0
  0
ENDBLK
  5
34B6
330
34B1
100
AcDbEntity
  8
0
  6
ByBlock
 62
     0
100
AcDbBlockEnd
  0
BLOCK
  5
50E70
330
50E6F
100
AcDbEntity
  8
0
100
AcDbBlockBegin
  2
_None
 70
     0
 10
0.0
 20
0.0
 30
0.0
  3
_None
  1

  0
ENDBLK
  5
50E71
330
50E6F
100
AcDbEntity
  8
0
100
AcDbBlockEnd
  0
BLOCK
  5
55103
330
550F9
100
AcDbEntity
  8
0
100
AcDbBlockBegin
  2
*D10
 70
     1
 10
0.0
 20
0.0
 30
0.0
  3
*D10
  1

  0
LINE
  5
56597
330
550F9
100
AcDbEntity
  8
2
100
AcDbLine
 10
82.55
 20
9.515648401640866
 30
0.0
 11
82.55
 21
51.73335122641357
 31
0.0
  0
LINE
  5
56598
330
550F9
100
AcDbEntity
  8
2
100
AcDbLine
 10
0.0
 20
15.87498449999998
 30
0.0
 11
0.0000000000000022
 21
51.73335122641357
 31
0.0
  0
LINE
  5
56599
330
550F9
100
AcDbEntity
  8
2
100
AcDbLine
 10
79.05
 20
50.23335122641356
 30
0.0
 11
3.500000000000002
 21
50.23335122641356
 31
0.0
  0
SOLID
  5
5659A
330
550F9
100
AcDbEntity
  8
2
100
AcDbTrace
 10
79.05
 20
50.8166845597469
 30
0.0
 11
79.05
 21
49.65001789308023
 31
0.0
 12
82.55
 22
50.23335122641356
 32
0.0
 13
82.55
 23
50.23335122641356
 33
0.0
  0
SOLID
  5
5659B
330
550F9
100
AcDbEntity
  8
2
100
AcDbTrace
 10
3.500000000000002
 20
50.8166845597469
 30
0.0
 11
3.500000000000002
 21
49.65001789308023
 31
0.0
 12
0.0000000000000021
 22
50.23335122641356
 32
0.0
 13
0.0000000000000021
 23
50.23335122641356
 33
0.0
  0
MTEXT
  5
5659C
330
550F9
100
AcDbEntity
  8
2
100
AcDbMText
 10
41.61709376690803
 20
54.28335122641357
 30
0.0
 40
3.5
 41
0.0
 71
     5
 72
     1
  1
\A1;82.55 [3.250"]
  7
simplex
 73
     1
 44
0.892857
1001
ACAD
1000
MTEXTBEGIN
1070
    73
1070
     1
1070
    44
1040
0.892857
1070
    74
1070
     0
1000
MTEXTEND
  0
POINT
  5
5659D
330
550F9
100
AcDbEntity
  8
Defpoints
 62
     0
100
AcDbPoint
 10
82.55
 20
9.515648401640866
 30
0.0
  0
POINT
  5
5659E
330
550F9
100
AcDbEntity
  8
Defpoints
 62
     0
100
AcDbPoint
 10
0.0
 20
15.87498449999998
 30
0.0
  0
POINT
  5
5659F
330
550F9
100
AcDbEntity
  8
Defpoints
 62
     0
100
AcDbPoint
 10
0.0000000000000021
 20
50.23335122641356
 30
0.0
  0
ENDBLK
  5
55104
330
550F9
100
AcDbEntity
  8
0
100
AcDbBlockEnd
  0
BLOCK
  5
57950
330
57948
100
AcDbEntity
  8
0
100
AcDbBlockBegin
  2
*D183
 70
     1
 10
0.0
 20
0.0
 30
0.0
  3
*D183
  1

  0
LINE
  5
57ACA
330
57948
100
AcDbEntity
  8
2
100
AcDbLine
 10
79.54999404036903
 20
12.50001171812377
 30
0.0
 11
103.1092776586706
 21
12.50001171812376
 31
0.0
  0
LINE
  5
57ACB
330
57948
100
AcDbEntity
  8
2
100
AcDbLine
 10
101.6092776586706
 20
-12.49998828077611
 30
0.0
 11
101.6092776586706
 21
9.000011718123765
 31
0.0
  0
SOLID
  5
57ACC
330
57948
100
AcDbEntity
  8
2
100
AcDbTrace
 10
101.0259443253373
 20
9.000011718123765
 30
0.0
 11
102.1926109920039
 21
9.000011718123765
 31
0.0
 12
101.6092776586706
 22
12.50001171812376
 32
0.0
 13
101.6092776586706
 23
12.50001171812376
 33
0.0
  0
MTEXT
  5
57ACD
330
57948
100
AcDbEntity
  8
2
100
AcDbMText
 10
97.55927765867063
 20
-7.579377395559589
 30
0.0
 40
3.5
 41
0.0
 71
     5
 72
     1
  1
\A1;%%c25 [%%c.984"]
  7
simplex
 11
0.0000000000000001
 21
1.0
 31
0.0
 73
     1
 44
1.0
1001
ACAD
1000
MTEXTBEGIN
1070
    73
1070
     1
1070
    44
1040
1.0
1070
    74
1070
     0
1000
MTEXTEND
  0
POINT
  5
57ACE
330
57948
100
AcDbEntity
  8
Defpoints
 62
     0
100
AcDbPoint
 10
69.91860989269525
 20
-12.49998828077611
 30
0.0
  0
POINT
  5
57ACF
330
57948
100
AcDbEntity
  8
Defpoints
 62
     0
100
AcDbPoint
 10
79.54999404036903
 20
12.50001171812377
 30
0.0
  0
POINT
  5
57AD0
330
57948
100
AcDbEntity
  8
Defpoints
 62
     0
100
AcDbPoint
 10
101.6092776586706
 20
12.50001171812376
 30
0.0
  0
ENDBLK
  5
57951
330
57948
100
AcDbEntity
  8
0
100
AcDbBlockEnd
  0
BLOCK
  5
5797A
330
57970
100
AcDbEntity
  8
0
100
AcDbBlockBegin
  2
*D187
 70
     1
 10
0.0
 20
0.0
 30
0.0
  3
*D187
  1

  0
LINE
  5
57AA4
330
57970
100
AcDbEntity
  8
2
100
AcDbLine
 10
82.55000004634741
 20
9.213359787186874
 30
0.0
 11
82.55000004634741
 21
51.73335141667019
 31
0.0
  0
LINE
  5
57AA5
330
57970
100
AcDbEntity
  8
2
100
AcDbLine
 10
0.0000000463473953
 20
15.87498469025661
 30
0.0
 11
0.0000000463473975
 21
51.73335141667019
 31
0.0
  0
LINE
  5
57AA6
330
57970
100
AcDbEntity
  8
2
100
AcDbLine
 10
79.0500000463474
 20
50.23335141667018
 30
0.0
 11
3.500000046347397
 21
50.23335141667018
 31
0.0
  0
SOLID
  5
57AA7
330
57970
100
AcDbEntity
  8
2
100
AcDbTrace
 10
79.0500000463474
 20
50.81668475000352
 30
0.0
 11
79.0500000463474
 21
49.65001808333685
 31
0.0
 12
82.55000004634741
 22
50.23335141667018
 32
0.0
 13
82.55000004634741
 23
50.23335141667018
 33
0.0
  0
SOLID
  5
57AA8
330
57970
100
AcDbEntity
  8
2
100
AcDbTrace
 10
3.500000046347397
 20
50.81668475000352
 30
0.0
 11
3.500000046347397
 21
49.65001808333685
 31
0.0
 12
0.0000000463473974
 22
50.23335141667018
 32
0.0
 13
0.0000000463473974
 23
50.23335141667018
 33
0.0
  0
MTEXT
  5
57AA9
330
57970
100
AcDbEntity
  8
2
100
AcDbMText
 10
41.61709381325545
 20
54.28335141667019
 30
0.0
 40
3.5
 41
0.0
 71
     5
 72
     1
  1
\A1;82.55 [3.250"]
  7
simplex
 73
     1
 44
0.892857
1001
ACAD
1000
MTEXTBEGIN
1070
    73
1070
     1
1070
    44
1040
0.892857
1070
    74
1070
     0
1000
MTEXTEND
  0
POINT
  5
57AAA
330
57970
100
AcDbEntity
  8
Defpoints
 62
     0
100
AcDbPoint
 10
82.55000004634741
 20
9.213359787186874
 30
0.0
  0
POINT
  5
57AAB
330
57970
100
AcDbEntity
  8
Defpoints
 62
     0
100
AcDbPoint
 10
0.0000000463473953
 20
15.87498469025661
 30
0.0
  0
POINT
  5
57AAC
330
57970
100
AcDbEntity
  8
Defpoints
 62
     0
100
AcDbPoint
 10
0.0000000463473974
 20
50.23335141667018
 30
0.0
  0
ENDBLK
  5
5797B
330
57970
100
AcDbEntity
  8
0
100
AcDbBlockEnd
  0
BLOCK
  5
57987
330
5797C
100
AcDbEntity
  8
0
100
AcDbBlockBegin
  2
*D188
 70
     1
 10
0.0
 20
0.0
 30
0.0
  3
*D188
  1

  0
LINE
  5
57AAD
330
5797C
100
AcDbEntity
  8
2
100
AcDbLine
 10
52.55001404634748
 20
-12.24999930974343
 30
0.0
 11
29.31919003270332
 21
-12.24999930974342
 31
0.0
  0
LINE
  5
57AAE
330
5797C
100
AcDbEntity
  8
2
100
AcDbLine
 10
52.55001404634748
 20
12.25000069025657
 30
0.0
 11
29.31919003270333
 21
12.25000069025657
 31
0.0
  0
LINE
  5
57AAF
330
5797C
100
AcDbEntity
  8
2
100
AcDbLine
 10
30.81919003270332
 20
8.750000690256577
 30
0.0
 11
30.81919003270332
 21
-8.749999309743422
 31
0.0
  0
LINE
  5
57AB0
330
5797C
100
AcDbEntity
  8
2
100
AcDbLine
 10
30.81919003270332
 20
-12.24999930974342
 30
0.0
 11
30.81919003270331
 21
-60.01666597641011
 31
0.0
  0
SOLID
  5
57AB1
330
5797C
100
AcDbEntity
  8
2
100
AcDbTrace
 10
30.23585669936999
 20
8.750000690256577
 30
0.0
 11
31.40252336603666
 21
8.750000690256577
 31
0.0
 12
30.81919003270332
 22
12.25000069025657
 32
0.0
 13
30.81919003270332
 23
12.25000069025657
 33
0.0
  0
SOLID
  5
57AB2
330
5797C
100
AcDbEntity
  8
2
100
AcDbTrace
 10
30.23585669936999
 20
-8.749999309743422
 30
0.0
 11
31.40252336603665
 21
-8.749999309743422
 31
0.0
 12
30.81919003270332
 22
-12.24999930974342
 32
0.0
 13
30.81919003270332
 23
-12.24999930974342
 33
0.0
  0
MTEXT
  5
57AB3
330
5797C
100
AcDbEntity
  8
2
100
AcDbMText
 10
26.76919003270332
 20
-37.88333264307677
 30
0.0
 40
3.5
 41
0.0
 71
     5
 72
     1
  1
\A1;%%c24.5 [%%C.965"]
  7
simplex
 11
0.0000000000000001
 21
1.0
 31
0.0
 73
     1
 44
1.0
1001
ACAD
1000
MTEXTBEGIN
1070
    73
1070
     1
1070
    44
1040
1.0
1070
    74
1070
     0
1000
MTEXTEND
  0
POINT
  5
57AB4
330
5797C
100
AcDbEntity
  8
Defpoints
 62
     0
100
AcDbPoint
 10
52.55001404634748
 20
-12.24999930974343
 30
0.0
  0
POINT
  5
57AB5
330
5797C
100
AcDbEntity
  8
Defpoints
 62
     0
100
AcDbPoint
 10
52.55001404634748
 20
12.25000069025657
 30
0.0
  0
POINT
  5
57AB6
330
5797C
100
AcDbEntity
  8
Defpoints
 62
     0
100
AcDbPoint
 10
30.81919003270332
 20
12.25000069025657
 30
0.0
  0
ENDBLK
  5
57988
330
5797C
100
AcDbEntity
  8
0
100
AcDbBlockEnd
  0
BLOCK
  5
57993
330
57989
100
AcDbEntity
  8
0
100
AcDbBlockBegin
  2
*D189
 70
     1
 10
0.0
 20
0.0
 30
0.0
  3
*D189
  1

  0
LINE
  5
57AC1
330
57989
100
AcDbEntity
  8
sk2
100
AcDbLine
 10
-98.42499995365262
 20
14.17499669025483
 30
0.0
 11
-98.42499995365262
 21
66.96735286801049
 31
0.0
  0
LINE
  5
57AC2
330
57989
100
AcDbEntity
  8
sk2
100
AcDbLine
 10
82.55000004634741
 20
9.213359787186874
 30
0.0
 11
82.55000004634741
 21
66.96735286801049
 31
0.0
  0
LINE
  5
57AC3
330
57989
100
AcDbEntity
  8
sk2
100
AcDbLine
 10
-94.92499995365262
 20
65.46735286801049
 30
0.0
 11
79.0500000463474
 21
65.46735286801049
 31
0.0
  0
SOLID
  5
57AC4
330
57989
100
AcDbEntity
  8
sk2
100
AcDbTrace
 10
-94.92499995365262
 20
66.05068620134382
 30
0.0
 11
-94.92499995365262
 21
64.88401953467716
 31
0.0
 12
-98.42499995365262
 22
65.46735286801049
 32
0.0
 13
-98.42499995365262
 23
65.46735286801049
 33
0.0
  0
SOLID
  5
57AC5
330
57989
100
AcDbEntity
  8
sk2
100
AcDbTrace
 10
79.0500000463474
 20
66.05068620134382
 30
0.0
 11
79.0500000463474
 21
64.88401953467716
 31
0.0
 12
82.55000004634741
 22
65.46735286801049
 32
0.0
 13
82.55000004634741
 23
65.46735286801049
 33
0.0
  0
MTEXT
  5
57AC6
330
57989
100
AcDbEntity
  8
sk2
100
AcDbMText
 10
-6.544211716168092
 20
69.51735286801049
 30
0.0
 40
3.5
 41
0.0
 71
     5
 72
     1
  1
\A1;180.975 [7.125"]
  7
simplex
 73
     1
 44
1.0
1001
ACAD
1000
MTEXTBEGIN
1070
    73
1070
     1
1070
    44
1040
1.0
1070
    74
1070
     0
1000
MTEXTEND
  0
POINT
  5
57AC7
330
57989
100
AcDbEntity
  8
Defpoints
 62
     0
100
AcDbPoint
 10
-98.42499995365262
 20
14.17499669025483
 30
0.0
  0
POINT
  5
57AC8
330
57989
100
AcDbEntity
  8
Defpoints
 62
     0
100
AcDbPoint
 10
82.55000004634741
 20
9.213359787186874
 30
0.0
  0
POINT
  5
57AC9
330
57989
100
AcDbEntity
  8
Defpoints
 62
     0
100
AcDbPoint
 10
82.55000004634741
 20
65.46735286801049
 30
0.0
  0
ENDBLK
  5
57994
330
57989
100
AcDbEntity
  8
0
100
AcDbBlockEnd
  0
BLOCK
  5
579D6
330
579CE
100
AcDbEntity
  8
0
100
AcDbBlockBegin
  2
*D195
 70
     1
 10
0.0
 20
0.0
 30
0.0
  3
*D195
  1

  0
LINE
  5
57AD8
330
579CE
100
AcDbEntity
  8
2
100
AcDbLine
 10
116.8921135398925
 20
34.57316088492921
 30
0.0
 11
85.30529479282355
 21
13.71901545914374
 31
0.0
  0
MTEXT
  5
57AD9
330
579CE
100
AcDbEntity
  8
2
100
AcDbMText
 10
100.3277040034238
 20
28.4901138106297
 30
0.0
 40
3.5
 41
0.0
 71
     5
 72
     1
  1
\A1;R1 [R.039"]
  7
simplex
 11
0.8345262548763281
 21
0.5509681750537771
 31
0.0
 73
     1
 44
1.0
1001
ACAD
1000
MTEXTBEGIN
1070
    73
1070
     1
1070
    44
1040
1.0
1070
    74
1070
     0
1000
MTEXTEND
  0
SOLID
  5
57ADA
330
579CE
100
AcDbEntity
  8
2
100
AcDbTrace
 10
84.98389669070885
 20
14.20582244115494
 30
0.0
 11
85.62669289493825
 21
13.23220847713255
 31
0.0
 12
82.3844529007564
 22
11.79062684645552
 32
0.0
 13
82.3844529007564
 23
11.79062684645552
 33
0.0
  0
LINE
  5
57ADB
330
579CE
100
AcDbEntity
  8
2
100
AcDbLine
 10
81.45992664587984
 20
11.23965867140159
 30
0.0
 11
81.63992664587985
 21
11.23965867140159
 31
0.0
  0
LINE
  5
57ADC
330
579CE
100
AcDbEntity
  8
2
100
AcDbLine
 10
81.54992664587984
 20
11.1496586714016
 30
0.0
 11
81.54992664587984
 21
11.32965867140159
 31
0.0
  0
POINT
  5
57ADD
330
579CE
100
AcDbEntity
  8
Defpoints
 62
     0
100
AcDbPoint
 10
82.3844529007564
 20
11.79062684645552
 30
0.0
  0
POINT
  5
57ADE
330
579CE
100
AcDbEntity
  8
Defpoints
 62
     0
100
AcDbPoint
 10
81.54992664587984
 20
11.23965867140159
 30
0.0
  0
ENDBLK
  5
579D7
330
579CE
100
AcDbEntity
  8
0
100
AcDbBlockEnd
  0
BLOCK
  5
57A0B
330
57A01
100
AcDbEntity
  8
0
100
AcDbBlockBegin
  2
*D198
 70
     1
 10
0.0
 20
0.0
 30
0.0
  3
*D198
  1

  0
LINE
  5
57A9B
330
57A01
100
AcDbEntity
  8
2
100
AcDbLine
 10
52.54999404634748
 20
12.25001171812383
 30
0.0
 11
52.54999404634748
 21
36.13829103437104
 31
0.0
  0
LINE
  5
57A9C
330
57A01
100
AcDbEntity
  8
2
100
AcDbLine
 10
82.54999404634736
 20
9.213359750051523
 30
0.0
 11
82.54999404634736
 21
36.13829103437104
 31
0.0
  0
LINE
  5
57A9D
330
57A01
100
AcDbEntity
  8
2
100
AcDbLine
 10
56.04999404634748
 20
34.63829103437104
 30
0.0
 11
79.04999404634736
 21
34.63829103437104
 31
0.0
  0
SOLID
  5
57A9E
330
57A01
100
AcDbEntity
  8
2
100
AcDbTrace
 10
56.04999404634748
 20
35.22162436770437
 30
0.0
 11
56.04999404634748
 21
34.0549577010377
 31
0.0
 12
52.54999404634748
 22
34.63829103437104
 32
0.0
 13
52.54999404634748
 23
34.63829103437104
 33
0.0
  0
SOLID
  5
57A9F
330
57A01
100
AcDbEntity
  8
2
100
AcDbTrace
 10
79.04999404634736
 20
35.22162436770437
 30
0.0
 11
79.04999404634736
 21
34.0549577010377
 31
0.0
 12
82.54999404634736
 22
34.63829103437104
 32
0.0
 13
82.54999404634736
 23
34.63829103437104
 33
0.0
  0
MTEXT
  5
57AA0
330
57A01
100
AcDbEntity
  8
2
100
AcDbMText
 10
67.54999404634742
 20
38.68829103437104
 30
0.0
 40
3.5
 41
0.0
 71
     5
 72
     1
  1
\A1;30 [1.181"]
  7
simplex
 73
     1
 44
1.0
1001
ACAD
1000
MTEXTBEGIN
1070
    73
1070
     1
1070
    44
1040
1.0
1070
    74
1070
     0
1000
MTEXTEND
  0
POINT
  5
57AA1
330
57A01
100
AcDbEntity
  8
Defpoints
 62
     0
100
AcDbPoint
 10
52.54999404634748
 20
12.25001171812383
 30
0.0
  0
POINT
  5
57AA2
330
57A01
100
AcDbEntity
  8
Defpoints
 62
     0
100
AcDbPoint
 10
82.54999404634736
 20
9.213359750051523
 30
0.0
  0
POINT
  5
57AA3
330
57A01
100
AcDbEntity
  8
Defpoints
 62
     0
100
AcDbPoint
 10
82.54999404634736
 20
34.63829103437104
 30
0.0
  0
ENDBLK
  5
57A0C
330
57A01
100
AcDbEntity
  8
0
100
AcDbBlockEnd
  0
BLOCK
  5
57A2B
330
57A20
100
AcDbEntity
  8
0
100
AcDbBlockBegin
  2
*D199
 70
     1
 10
0.0
 20
0.0
 30
0.0
  3
*D199
  1

  0
LINE
  5
57AB7
330
57A20
100
AcDbEntity
  8
sk2
100
AcDbLine
 10
-93.42499995365262
 20
-15.87501530974339
 30
0.0
 11
-125.752031160041
 21
-15.87501530974338
 31
0.0
  0
LINE
  5
57AB8
330
57A20
100
AcDbEntity
  8
sk2
100
AcDbLine
 10
-93.42499995365262
 20
15.87498469025661
 30
0.0
 11
-125.752031160041
 21
15.87498469025662
 31
0.0
  0
LINE
  5
57AB9
330
57A20
100
AcDbEntity
  8
sk2
100
AcDbLine
 10
-124.252031160041
 20
12.37498469025662
 30
0.0
 11
-124.252031160041
 21
-12.37501530974338
 31
0.0
  0
LINE
  5
57ABA
330
57A20
100
AcDbEntity
  8
sk2
100
AcDbLine
 10
-124.252031160041
 20
-15.87501530974338
 30
0.0
 11
-124.252031160041
 21
-73.358987410267
 31
0.0
  0
SOLID
  5
57ABB
330
57A20
100
AcDbEntity
  8
sk2
100
AcDbTrace
 10
-124.8353644933743
 20
12.37498469025662
 30
0.0
 11
-123.6686978267076
 21
12.37498469025662
 31
0.0
 12
-124.252031160041
 22
15.87498469025662
 32
0.0
 13
-124.252031160041
 23
15.87498469025662
 33
0.0
  0
SOLID
  5
57ABC
330
57A20
100
AcDbEntity
  8
sk2
100
AcDbTrace
 10
-124.8353644933743
 20
-12.37501530974338
 30
0.0
 11
-123.6686978267076
 21
-12.37501530974338
 31
0.0
 12
-124.252031160041
 22
-15.87501530974338
 32
0.0
 13
-124.252031160041
 23
-15.87501530974338
 33
0.0
  0
MTEXT
  5
57ABD
330
57A20
100
AcDbEntity
  8
sk2
100
AcDbMText
 10
-128.302031160041
 20
-49.18398741026702
 30
0.0
 40
3.5
 41
0.0
 71
     5
 72
     1
  1
\A1;%%c31.75 [%%C1.250"]
  7
simplex
 11
0.0000000000000001
 21
1.0
 31
0.0
 73
     1
 44
1.0
1001
ACAD
1000
MTEXTBEGIN
1070
    73
1070
     1
1070
    44
1040
1.0
1070
    74
1070
     0
1000
MTEXTEND
  0
POINT
  5
57ABE
330
57A20
100
AcDbEntity
  8
Defpoints
 62
     0
100
AcDbPoint
 10
-93.42499995365262
 20
-15.87501530974339
 30
0.0
  0
POINT
  5
57ABF
330
57A20
100
AcDbEntity
  8
Defpoints
 62
     0
100
AcDbPoint
 10
-93.42499995365262
 20
15.87498469025661
 30
0.0
  0
POINT
  5
57AC0
330
57A20
100
AcDbEntity
  8
Defpoints
 62
     0
100
AcDbPoint
 10
-124.252031160041
 20
15.87498469025662
 30
0.0
  0
ENDBLK
  5
57A2C
330
57A20
100
AcDbEntity
  8
0
100
AcDbBlockEnd
  0
ENDSEC
  0
SECTION
  2
ENTITIES
  0
INSERT
  5
68C
330
1F
100
AcDbEntity
  8
0
100
AcDbBlockReference
  2
zero block
 10
0.0
 20
0.0
 30
0.0
  0
MTEXT
  5
53DFB
330
1F
100
AcDbEntity
  8
sk6
100
AcDbMText
 10
-88.34009873463058
 20
91.33923152733039
 30
0.0
 40
5.0
 41
70.03712541027798
 71
     1
 72
     5
  1
SRFU16S20M\PSUFT25R10
  7
simplex
 73
     1
 44
1.0
1001
ACAD
1000
ACAD_MTEXT_COLUMN_INFO_BEGIN
1070
    75
1070
     2
1070
    79
1070
     0
1070
    76
1070
     1
1070
    78
1070
     0
1070
    48
1040
59.04341590052445
1070
    49
1040
17.5
1070
    50
1070
     1
1040
0.0
1000
ACAD_MTEXT_COLUMN_INFO_END
1000
ACAD_MTEXT_DEFINED_HEIGHT_BEGIN
1070
    46
1040
0.0
1000
ACAD_MTEXT_DEFINED_HEIGHT_END
1000
MTEXTBEGIN
1070
    73
1070
     1
1070
    44
1040
1.0
1070
    74
1070
     0
1000
MTEXTEND
  0
SPLINE
  5
5777B
330
1F
100
AcDbEntity
  8
1
100
AcDbSpline
210
0.0
220
0.0
230
1.0
 70
     8
 71
     3
 72
    10
 73
     6
 74
     4
 42
0.0000000001
 43
0.0000000001
 44
0.000001
 12
0.9939981913532239
 22
-0.1093965062811404
 32
0.0
 13
0.9846601879733476
 23
-0.1744829912062825
 33
0.0
 40
0.0
 40
0.0
 40
0.0
 40
0.0
 40
0.2729697609933334
 40
0.5696278389164874
 40
0.8867687606914941
 40
0.8867687606914941
 40
0.8867687606914941
 40
0.8867687606914941
 10
59.1540562035741
 20
11.2978632192239
 30
0.0
 10
59.24450001981461
 20
11.28790923983288
 30
0.0
 10
59.43301346314473
 20
11.26499398083126
 30
0.0
 10
59.72539647764552
 20
11.22141803196689
 30
0.0
 10
59.92723774992794
 20
11.18785996511758
 30
0.0
 10
60.0313297631443
 20
11.16941473289583
 30
0.0
 11
59.1540562035741
 21
11.2978632192239
 31
0.0
 11
59.42501415035138
 21
11.2647821645364
 31
0.0
 11
59.71851695796863
 21
11.22163030906765
 31
0.0
 11
60.0313297631443
 21
11.16941473289583
 31
0.0
  0
SPLINE
  5
5777C
330
1F
100
AcDbEntity
  8
1
100
AcDbSpline
210
0.0
220
0.0
230
1.0
 70
     8
 71
     3
 72
    56
 73
    52
 74
    50
 42
0.0000000001
 43
0.0000000001
 44
0.000001
 12
-0.9999999973384662
 22
-0.0000729593564862
 32
0.0
 13
0.9999999688642722
 23
-0.0002495424907634
 33
0.0
 40
0.0
 40
0.0
 40
0.0
 40
0.0
 40
0.3454426790744767
 40
0.6888896339248362
 40
1.033155236005387
 40
1.287867330899101
 40
1.548111536117418
 40
1.800358867128023
 40
2.060957197459925
 40
2.393530606407232
 40
2.734671295356895
 40
3.074454177494012
 40
3.407139508863267
 40
3.736957054307836
 40
4.081619005168061
 40
4.420707103818526
 40
4.756233735105806
 40
5.091598916829685
 40
5.434016585142058
 40
5.769121316671251
 40
6.102741471089029
 40
6.615314631995209
 40
7.131163564364381
 40
7.644478160687515
 40
8.160279889619497
 40
8.680738616401114
 40
9.196026435569175
 40
9.536635767940762
 40
9.87855117416697
 40
10.22461154121127
 40
10.60145228066304
 40
10.97676858055228
 40
11.35889573095376
 40
11.50918079326283
 40
11.65604052546491
 40
11.80406806210344
 40
11.95290699754599
 40
12.09417303029826
 40
12.25060695890121
 40
12.54280924015621
 40
12.82845866301487
 40
13.11574013593822
 40
13.40469365475335
 40
13.69337892231559
 40
13.98638816610836
 40
14.269250183049
 40
14.61197023292301
 40
14.95259428508412
 40
15.29467796946479
 40
15.8125086927001
 40
16.33267399543921
 40
16.33267399543921
 40
16.33267399543921
 40
16.33267399543921
 10
69.90002025386695
 20
5.199993346177024
 30
0.0
 10
69.78487269448192
 20
5.199984945085162
 30
0.0
 10
69.55516950947549
 20
5.192354861733036
 30
0.0
 10
69.21225002449557
 20
5.158161722075533
 30
0.0
 10
68.90216723163144
 20
5.106319965651437
 30
0.0
 10
68.62276728871496
 20
5.0428749250662
 30
0.0
 10
68.3763763426482
 20
4.973970815995585
 30
0.0
 10
68.13183535636358
 20
4.89236822881611
 30
0.0
 10
67.86911630998156
 20
4.79010662943611
 30
0.0
 10
67.58562950391194
 20
4.660625384191405
 30
0.0
 10
67.2878302115829
 20
4.500595341723851
 30
0.0
 10
67.00114671194524
 20
4.321343268480092
 30
0.0
 10
66.72966483747171
 20
4.126229254996587
 30
0.0
 10
66.4699592973721
 20
3.913126821256923
 30
0.0
 10
66.22300457984585
 20
3.682198081932682
 30
0.0
 10
65.99045617812726
 20
3.434163383594295
 30
0.0
 10
65.7764859060212
 20
3.173943727222393
 30
0.0
 10
65.57906428056452
 20
2.899588913714694
 30
0.0
 10
65.39999774904799
 20
2.613068552941598
 30
0.0
 10
65.24025350804141
 20
2.316010429900245
 30
0.0
 10
65.07632035577671
 20
1.957722626492511
 30
0.0
 10
64.92136178062025
 20
1.530139483268158
 30
0.0
 10
64.79462681528997
 20
1.031240712511703
 30
0.0
 10
64.7176620060253
 20
0.5211872797881086
 30
0.0
 10
64.69139551774003
 20
0.004479373420736
 30
0.0
 10
64.71671811620916
 20
-0.5129386958204805
 30
0.0
 10
64.78474723551466
 20
-0.9674576613211627
 30
0.0
 10
64.87616488884174
 20
-1.356387791294253
 30
0.0
 10
64.97641032975207
 20
-1.684533668912962
 30
0.0
 10
65.10244050864958
 20
-2.016617216137291
 30
0.0
 10
65.25589244237443
 20
-2.349337330376442
 30
0.0
 10
65.43882960402465
 20
-2.680589504535845
 30
0.0
 10
65.60411893112564
 20
-2.934393227995713
 30
0.0
 10
65.73729633650884
 20
-3.117537780274631
 30
0.0
 10
65.82795700964936
 20
-3.235039681575585
 30
0.0
 10
65.92159914683941
 20
-3.349555514892642
 30
0.0
 10
66.01723926749037
 20
-3.459953980146565
 30
0.0
 10
66.1178519001864
 20
-3.569671326303335
 30
0.0
 10
66.25482513359952
 20
-3.71078542654385
 30
0.0
 10
66.4328396129277
 20
-3.878975465718951
 30
0.0
 10
66.65321656079413
 20
-4.065193527764904
 30
0.0
 10
66.88267776436487
 20
-4.238312762717811
 30
0.0
 10
67.12218908612863
 20
-4.399064559734057
 30
0.0
 10
67.37193887042218
 20
-4.547173431114231
 30
0.0
 10
67.62773972800761
 20
-4.680238091309547
 30
0.0
 10
67.90695364586162
 20
-4.806274369362256
 30
0.0
 10
68.2081405130545
 20
-4.921029806592457
 30
0.0
 10
68.53509547488499
 20
-5.021544759612993
 30
0.0
 10
68.92475823057726
 20
-5.113854677339418
 30
0.0
 10
69.38038480519594
 20
-5.182713776482728
 30
0.0
 10
69.72662419562471
 20
-5.199957282525559
 30
0.0
 10
69.90001262447248
 20
-5.200000550307322
 30
0.0
 11
69.90002025386695
 21
5.199993346177024
 31
0.0
 11
69.55476726314441
 21
5.188518736802024
 31
0.0
 11
69.2130161645116
 21
5.154430602036399
 31
0.0
 11
68.87346233150378
 21
5.097667906723899
 31
0.0
 11
68.62507213374977
 21
5.041271422348899
 31
0.0
 11
68.37444652339832
 21
4.97117254539583
 31
0.0
 11
68.13516582271467
 21
4.891338561020774
 31
0.0
 11
67.89232219478498
 21
4.796795103989467
 31
0.0
 11
67.58980144283191
 21
4.658642027817649
 31
0.0
 11
67.28931010982399
 21
4.497143004380205
 31
0.0
 11
67.00119365474586
 21
4.317028258286399
 31
0.0
 11
66.7310596825779
 21
4.122844908677024
 31
0.0
 11
66.4760776879491
 21
3.913646910630205
 31
0.0
 11
66.22433818599592
 21
3.678234312973899
 31
0.0
 11
65.99241985103498
 21
3.430858824692649
 31
0.0
 11
65.77930797359363
 21
3.171703551255149
 31
0.0
 11
65.58343089839832
 21
2.899486754380205
 31
0.0
 11
65.40195812007801
 21
2.609111998520774
 31
0.0
 11
65.24324382564441
 21
2.313976500473899
 31
0.0
 11
65.10444225093727
 21
2.010601256333274
 31
0.0
 11
64.92979778072248
 21
1.528698180161399
 31
0.0
 11
64.80279124996082
 21
1.028728697739467
 31
0.0
 11
64.7261997582616
 21
0.5211603383645241
 31
0.0
 11
64.70001567623029
 21
0.0060236196145524
 31
0.0
 11
64.72545970699195
 21
-0.513812806166726
 31
0.0
 11
64.80172313472639
 21
-1.023425843276072
 31
0.0
 11
64.87965739986311
 21
-1.35499932960414
 31
0.0
 11
64.97955669185529
 21
-1.681995179213572
 31
0.0
 11
65.1023365380467
 21
-2.005542542494822
 31
0.0
 11
65.2601734521092
 21
-2.347736146010504
 31
0.0
 11
65.44160045406226
 21
-2.67628839210414
 31
0.0
 11
65.6501652123631
 21
-2.99647882179164
 31
0.0
 11
65.73854411861311
 21
-3.118030335463572
 31
0.0
 11
65.82825816890601
 21
-3.234302308119765
 31
0.0
 11
65.92196239253889
 21
-3.348895813979197
 31
0.0
 11
66.0194279076756
 21
-3.461383606947947
 31
0.0
 11
66.11489452144508
 21
-3.565509583510504
 31
0.0
 11
66.2238575341404
 21
-3.67775323585414
 31
0.0
 11
66.43624461910139
 21
-3.87843682960414
 31
0.0
 11
66.6544376733006
 21
-4.062793519057322
 31
0.0
 11
66.88376201412086
 21
-4.235828187026072
 31
0.0
 11
67.1236988427342
 21
-4.396838929213572
 31
0.0
 11
67.3719898583592
 21
-4.544116761244822
 31
0.0
 11
67.63194621822248
 21
-4.679309632338572
 31
0.0
 11
67.88975108882801
 21
-4.795703675307322
 31
0.0
 11
68.21001781246081
 21
-4.917712952651072
 31
0.0
 11
68.5356022240818
 21
-5.017810608901072
 31
0.0
 11
68.86847270748029
 21
-5.096668030776072
 31
0.0
 11
69.3804966332616
 21
-5.173999573744822
 31
0.0
 11
69.90001262447248
 21
-5.200000550307322
 31
0.0
  0
SPLINE
  5
5777D
330
1F
100
AcDbEntity
  8
1
100
AcDbSpline
210
0.0
220
0.0
230
1.0
 70
     8
 71
     3
 72
     9
 73
     5
 74
     3
 42
0.0000000001
 43
0.0000000001
 44
0.000001
 12
0.9603132869219136
 22
-0.278923629262977
 32
0.0
 13
0.9442995354099645
 23
-0.3290872033740075
 33
0.0
 40
0.0
 40
0.0
 40
0.0
 40
0.0
 40
0.7348450070665252
 40
1.479601022990584
 40
1.479601022990584
 40
1.479601022990584
 40
1.479601022990584
 10
68.64061321040998
 20
8.97752020164583
 30
0.0
 10
68.87584035178139
 20
8.909198322873578
 30
0.0
 10
69.34768954073104
 20
8.765437924494477
 30
0.0
 10
69.81558989707446
 20
8.609296105507695
 30
0.0
 10
70.05001415035138
 20
8.527599547348899
 30
0.0
 11
68.64061321040998
 21
8.97752020164583
 31
0.0
 11
69.34355510494128
 21
8.763347838364524
 31
0.0
 11
70.05001415035138
 21
8.527599547348899
 31
0.0
  0
SPLINE
  5
5777E
330
1F
100
AcDbEntity
  8
1
100
AcDbSpline
210
0.0
220
0.0
230
1.0
 70
     8
 71
     3
 72
    18
 73
    14
 74
    12
 42
0.0000000001
 43
0.0000000001
 44
0.000001
 12
0.9775947559519691
 22
-0.2104958268831241
 32
0.0
 13
0.9602144660513589
 23
-0.2792636374211717
 33
0.0
 40
0.0
 40
0.0
 40
0.0
 40
0.0
 40
0.5333439082108037
 40
1.107779624537654
 40
1.723354797019663
 40
2.308162769073102
 40
2.916598674837154
 40
3.560113329748786
 40
4.183693023625631
 40
5.057589400325887
 40
5.956706750495188
 40
6.8431086281094
 40
7.765135339238825
 40
7.765135339238825
 40
7.765135339238825
 40
7.765135339238825
 10
61.1323047997654
 20
10.95243475242702
 30
0.0
 10
61.30610286902731
 20
10.91501253010304
 30
0.0
 10
61.66671439086485
 20
10.83552487025974
 30
0.0
 10
62.22628651718537
 20
10.70558324971486
 30
0.0
 10
62.80137272340346
 20
10.56672524557456
 30
0.0
 10
63.38639379984556
 20
10.42080740111493
 30
0.0
 10
63.97950812452973
 20
10.26890792933267
 30
0.0
 10
64.58422749690055
 20
10.11027507914923
 30
0.0
 10
65.27364555309247
 20
9.925824988387148
 30
0.0
 10
66.04425473150297
 20
9.715222896580286
 30
0.0
 10
66.8981418179535
 20
9.477072071310516
 30
0.0
 10
67.766301329312
 20
9.230418923262021
 30
0.0
 10
68.34549874837256
 20
9.063349712695668
 30
0.0
 10
68.64061321040998
 20
8.97752020164583
 30
0.0
 11
61.1323047997654
 21
10.95243475242702
 31
0.0
 11
61.65312541744118
 21
10.8375360707864
 31
0.0
 11
62.21274150630836
 21
10.7078973989114
 31
0.0
 11
62.81115306636696
 21
10.5635492543802
 31
0.0
 11
63.37860454341779
 21
10.4221307973489
 31
0.0
 11
63.9680363061131
 21
10.2712518910989
 31
0.0
 11
64.59051860591779
 21
10.10807440086452
 31
0.0
 11
65.19292033931629
 21
9.946941588364524
 31
0.0
 11
66.03594554683571
 21
9.716716978989524
 31
0.0
 11
66.90202678462878
 21
9.475231383286399
 31
0.0
 11
67.7547184350193
 21
9.233104918442649
 31
0.0
 11
68.64061321040998
 21
8.97752020164583
 31
0.0
  0
SPLINE
  5
5777F
330
1F
100
AcDbEntity
  8
1
100
AcDbSpline
210
0.0
220
0.0
230
1.0
 70
     8
 71
     3
 72
    37
 73
    33
 74
    31
 42
0.0000000001
 43
0.0000000001
 44
0.000001
 12
0.94411119178906
 22
-0.3296271492742075
 32
0.0
 13
0.4601198425223931
 23
-0.8878568187028628
 33
0.0
 40
0.0
 40
0.0
 40
0.0
 40
0.0
 40
0.8083824956881345
 40
1.644479507183101
 40
2.493266844779987
 40
3.363734089813586
 40
4.312698579940796
 40
5.270568765785349
 40
5.759274703376269
 40
6.246744268859059
 40
6.735870884293047
 40
7.22237731177192
 40
7.690001998303117
 40
8.153851389677384
 40
8.616568337460064
 40
9.074054180044322
 40
9.535893699124176
 40
9.990685472413719
 40
10.44111490690937
 40
10.88260187309944
 40
11.28568693886668
 40
11.67935634278467
 40
12.06564315798048
 40
12.44054196975641
 40
12.81236820244359
 40
13.17015040462177
 40
13.51600763302904
 40
13.84532011729105
 40
14.14943727039559
 40
14.43553863186618
 40
14.70526531249984
 40
14.95418097071383
 40
14.95418097071383
 40
14.95418097071383
 40
14.95418097071383
 10
70.05001415035138
 20
8.527599547348899
 30
0.0
 10
70.30441513749327
 20
8.438777941489945
 30
0.0
 10
70.81832188465932
 20
8.247518050526394
 30
0.0
 10
71.58453790875256
 20
7.925010780653536
 30
0.0
 10
72.35550988718029
 20
7.562305985662987
 30
0.0
 10
73.1440426781362
 20
7.150337852068673
 30
0.0
 10
73.94559118799827
 20
6.686519980067288
 30
0.0
 10
74.61849792061901
 20
6.256082756697054
 30
0.0
 10
75.14972173772548
 20
5.890742959272358
 30
0.0
 10
75.54592333062669
 20
5.605027023888624
 30
0.0
 10
75.93506295303132
 20
5.310984486021823
 30
0.0
 10
76.31244269100284
 20
5.012545048642891
 30
0.0
 10
76.67675663030434
 20
4.711354010303864
 30
0.0
 10
77.02868697720885
 20
4.407790400463909
 30
0.0
 10
77.37164790897463
 20
4.099159050703434
 30
0.0
 10
77.70767715647918
 20
3.783975043104049
 30
0.0
 10
78.03517839755312
 20
3.46370379494553
 30
0.0
 10
78.35429693548161
 20
3.138368070873752
 30
0.0
 10
78.66199532787863
 20
2.81146751799892
 30
0.0
 10
78.95135204277767
 20
2.491100039422093
 30
0.0
 10
79.22197937092102
 20
2.179425392882365
 30
0.0
 10
79.47485743076157
 20
1.8768022476726
 30
0.0
 10
79.71613311141311
 20
1.576817065092029
 30
0.0
 10
79.94729902948939
 20
1.278129531829591
 30
0.0
 10
80.16703162153049
 20
0.9826926674022047
 30
0.0
 10
80.37543090224984
 20
0.6909740764865547
 30
0.0
 10
80.57003480548729
 20
0.4068973156070684
 30
0.0
 10
80.74906399982097
 20
0.1339155617230006
 30
0.0
 10
80.91190434428233
 20
-0.1257866993988159
 30
0.0
 10
81.05897032848952
 20
-0.3718582763883944
 30
0.0
 10
81.19145386381489
 20
-0.6051383660245904
 30
0.0
 10
81.27279676444254
 20
-0.7577115693264034
 30
0.0
 10
81.31097377559546
 20
-0.8313787241354759
 30
0.0
 11
70.05001415035138
 21
8.527599547348899
 31
0.0
 11
70.8075977685154
 21
8.245556090317649
 31
0.0
 11
71.57831157466779
 21
7.921428893052024
 31
0.0
 11
72.34637798091779
 21
7.56016180320833
 31
0.0
 11
73.1179615380467
 21
7.15720770164583
 31
0.0
 11
73.93938030025378
 21
6.682018492661399
 31
0.0
 11
74.74633373042951
 21
6.165935728989467
 31
0.0
 11
75.14901317378889
 21
5.889019225083274
 31
0.0
 11
75.54439891597638
 21
5.603893492661399
 31
0.0
 11
75.93465770503889
 21
5.309032652817649
 31
0.0
 11
76.31624950191389
 21
5.007244322739467
 31
0.0
 11
76.67666972896467
 21
4.709301207505149
 31
0.0
 11
77.02789653560529
 21
4.406322691880205
 31
0.0
 11
77.37186015865223
 21
4.096813414536399
 31
0.0
 11
77.70552409908191
 21
3.783825133286399
 31
0.0
 11
78.03571666499983
 21
3.460918639145774
 31
0.0
 11
78.35418285152332
 21
3.136242125473899
 31
0.0
 11
78.66289104244123
 21
2.808239195786399
 31
0.0
 11
78.95880473873029
 21
2.480602477036399
 31
0.0
 11
79.22305644771473
 21
2.176220152817649
 31
0.0
 11
79.47547496578107
 21
1.87412664695833
 31
0.0
 11
79.71755183956037
 21
1.573101256333274
 31
0.0
 11
79.94696773311506
 21
1.276592467270774
 31
0.0
 11
80.16884578487287
 21
0.978222105942649
 31
0.0
 11
80.37676204463849
 21
0.6870538930520241
 31
0.0
 11
80.57216228267561
 21
0.4016840200051491
 31
0.0
 11
80.75268901607399
 21
0.126262877427024
 31
0.0
 11
80.91414226314441
 21
-0.131458069838601
 31
0.0
 11
81.06082881709937
 21
-0.377094056166726
 31
0.0
 11
81.19378627559546
 21
-0.611774231947976
 31
0.0
 11
81.31097377559546
 21
-0.8313787241354759
 31
0.0
  0
SPLINE
  5
57780
330
1F
100
AcDbEntity
  8
1
100
AcDbSpline
210
0.0
220
0.0
230
1.0
 70
     8
 71
     3
 72
    64
 73
    60
 74
    58
 42
0.0000000001
 43
0.0000000001
 44
0.000001
 12
0.9999999976027297
 22
0.0000692426238353
 32
0.0
 13
-0.9999999719526073
 23
0.0002368433759521
 33
0.0
 40
0.0
 40
0.0
 40
0.0
 40
0.0
 40
0.3374190964439104
 40
0.6773914010439779
 40
1.01991165153301
 40
1.352142635755121
 40
1.693066038515866
 40
2.042667927938277
 40
2.310164618892712
 40
2.591203251274185
 40
2.88576386502036
 40
3.174760143389368
 40
3.284467825271926
 40
3.398621910127495
 40
3.517229077803961
 40
3.622135851970945
 40
3.721280166375292
 40
3.831251186482985
 40
3.952046973523795
 40
4.083636686280852
 40
4.275330389386222
 40
4.424017139584517
 40
4.52967879441903
 40
4.593807665578382
 40
4.734420365890473
 40
4.985745701574259
 40
5.236696413603038
 40
5.475218035428543
 40
5.70258332661524
 40
5.91874328224459
 40
6.123702580473
 40
6.647465346935275
 40
7.144947289306809
 40
7.657727828884173
 40
8.163132935634667
 40
8.500766745983248
 40
8.84185006795017
 40
9.186445028031293
 40
9.51433322816525
 40
9.853441834433315
 40
10.20385901110017
 40
10.47236430950708
 40
10.75988189842909
 40
11.06640438449333
 40
11.35795789144739
 40
11.65393283904728
 40
11.86469131291772
 40
12.2462785971935
 40
12.56578312315861
 40
12.83643926831478
 40
13.13054947344815
 40
13.42336127629145
 40
13.72624593097752
 40
14.0148380414204
 40
14.28916038932708
 40
14.80751342159215
 40
15.30649973848986
 40
15.82270679006096
 40
16.33305485315847
 40
16.33305485315847
 40
16.33305485315847
 40
16.33305485315847
 10
70.05001415035138
 20
-5.200000550307322
 30
0.0
 10
70.16248718222971
 20
-5.199992762379451
 30
0.0
 10
70.38835173286009
 20
-5.19265411671256
 30
0.0
 10
70.72693656023375
 20
-5.159532421061413
 30
0.0
 10
71.06092678597599
 20
-5.104515574210438
 30
0.0
 10
71.39093547939501
 20
-5.027898480733682
 30
0.0
 10
71.71757360558098
 20
-4.929417420610747
 30
0.0
 10
72.01675493494071
 20
-4.817034173735748
 30
0.0
 10
72.29040010059236
 20
-4.695296389726706
 30
0.0
 10
72.54090461150202
 20
-4.567605139561976
 30
0.0
 10
72.79017717409749
 20
-4.422662497865246
 30
0.0
 10
72.98322128959512
 20
-4.29539637127641
 30
0.0
 10
73.12225487701801
 20
-4.195910234590996
 30
0.0
 10
73.2136450594486
 20
-4.127486578205321
 30
0.0
 10
73.30219867411853
 20
-4.05799332387977
 30
0.0
 10
73.38539259078084
 20
-3.989817957720248
 30
0.0
 10
73.46504506302199
 20
-3.921895654618936
 30
0.0
 10
73.54727625335977
 20
-3.848865812059472
 30
0.0
 10
73.63576814706618
 20
-3.766640522731165
 30
0.0
 10
73.74178163390809
 20
-3.663310185425501
 30
0.0
 10
73.85097099164671
 20
-3.549992987815016
 30
0.0
 10
73.95059191248276
 20
-3.43959688846462
 30
0.0
 10
74.01978801172965
 20
-3.359078265694591
 30
0.0
 10
74.08592932503194
 20
-3.279508400148159
 30
0.0
 10
74.18077363785744
 20
-3.160677968609292
 30
0.0
 10
74.30812633358915
 20
-2.988218858168011
 30
0.0
 10
74.44511550886921
 20
-2.782654989770179
 30
0.0
 10
74.56814761734586
 20
-2.577719169879259
 30
0.0
 10
74.67634979163341
 20
-2.377688709825207
 30
0.0
 10
74.77102669966598
 20
-2.183289935924733
 30
0.0
 10
74.8974102814779
 20
-1.894735800596549
 30
0.0
 10
75.03498884614254
 20
-1.509024997223235
 30
0.0
 10
75.15890692452899
 20
-1.012156344983623
 30
0.0
 10
75.2331500209263
 20
-0.5115864176006824
 30
0.0
 10
75.25544390167664
 20
-0.0594459224822686
 30
0.0
 10
75.24289755632492
 20
0.3353153785575103
 30
0.0
 10
75.20981125926022
 20
0.6750622271861176
 30
0.0
 10
75.15493817261932
 20
1.00868315195828
 30
0.0
 10
75.07879100086245
 20
1.337397978751539
 30
0.0
 10
74.98112841537715
 20
1.662417920593838
 30
0.0
 10
74.86911862106558
 20
1.961743986626004
 30
0.0
 10
74.74649512374458
 20
2.238026808534584
 30
0.0
 10
74.61593391415431
 20
2.49435403683492
 30
0.0
 10
74.46705490345943
 20
2.749461618489306
 30
0.0
 10
74.30222347623033
 20
2.997926189012645
 30
0.0
 10
74.14273213552156
 20
3.211121530544517
 30
0.0
 10
73.95399002620582
 20
3.439360445117898
 30
0.0
 10
73.74703222155392
 20
3.662383313997082
 30
0.0
 10
73.51110153638694
 20
3.884612007270135
 30
0.0
 10
73.28528302192728
 20
4.074254149916072
 30
0.0
 10
73.05662896569072
 20
4.246073336956669
 30
0.0
 10
72.80967335218872
 20
4.410626758175453
 30
0.0
 10
72.55531482902461
 20
4.559909517489074
 30
0.0
 10
72.2983513696887
 20
4.691624361293094
 30
0.0
 10
71.96907085601663
 20
4.838520053441129
 30
0.0
 10
71.56291315954502
 20
4.983729849551252
 30
0.0
 10
71.06631499003629
 20
5.108141770660523
 30
0.0
 10
70.56255079857646
 20
5.183226842614288
 30
0.0
 10
70.22013016661259
 20
5.1999530553243
 30
0.0
 10
70.05001415035138
 20
5.199993346177024
 30
0.0
 11
70.05001415035138
 21
-5.200000550307322
 31
0.0
 11
70.38725627681628
 21
-5.189044739760504
 31
0.0
 11
70.72561229488258
 21
-5.155933167494822
 31
0.0
 11
71.06357921382801
 21
-5.100269104994822
 31
0.0
 11
71.38720287105456
 21
-5.025134827651072
 31
0.0
 11
71.71361125728498
 21
-4.926715638197947
 31
0.0
 11
72.04088939449201
 21
-4.803790833510504
 31
0.0
 11
72.28528941890608
 21
-4.695056702651072
 31
0.0
 11
72.53567851802717
 21
-4.567432190932322
 31
0.0
 11
72.79031718990217
 21
-4.419360901869765
 31
0.0
 11
73.03160442134748
 21
-4.260303284682322
 31
0.0
 11
73.12082256099592
 21
-4.196460511244822
 31
0.0
 11
73.2121998192967
 21
-4.128040101088572
 31
0.0
 11
73.30551494380836
 21
-4.054828431166697
 31
0.0
 11
73.38665355464832
 21
-3.988330628432322
 31
0.0
 11
73.46209300777321
 21
-3.923999573744822
 31
0.0
 11
73.54431499263649
 21
-3.850971009291669
 31
0.0
 11
73.63281596919899
 21
-3.768756653822947
 31
0.0
 11
73.72703899165998
 21
-3.676898743666697
 31
0.0
 11
73.86005748531238
 21
-3.538867737807322
 31
0.0
 11
73.95967448970691
 21
-3.428485657729197
 31
0.0
 11
74.02853740474586
 21
-3.348346497572947
 31
0.0
 11
74.06953014156233
 21
-3.299030091322947
 31
0.0
 11
74.15725291988258
 21
-3.189136292494822
 31
0.0
 11
74.30654491207019
 21
-2.986957337416697
 31
0.0
 11
74.44570506832019
 21
-2.778125550307322
 31
0.0
 11
74.56847728511701
 21
-2.573627259291669
 31
0.0
 11
74.6766544701756
 21
-2.373645569838572
 31
0.0
 11
74.77130473873029
 21
-2.179309632338572
 31
0.0
 11
74.85352672359358
 21
-1.991565491713572
 31
0.0
 11
75.0294987084568
 21
-1.498248841322947
 31
0.0
 11
75.14988292476551
 21
-1.015552308119794
 31
0.0
 11
75.22510875484357
 21
-0.5083196421041692
 31
0.0
 11
75.25001109859357
 21
-0.003528382338601
 31
0.0
 11
75.23928416988258
 21
0.333934996567649
 31
0.0
 11
75.20622600337879
 21
0.6734125356302059
 31
0.0
 11
75.15030254146466
 21
1.013439391098899
 31
0.0
 11
75.0762974145116
 21
1.332866881333274
 31
0.0
 11
74.97872508785139
 21
1.657634947739467
 31
0.0
 11
74.85589946529279
 21
1.98582098289583
 31
0.0
 11
74.74698222896467
 21
2.231243346177024
 31
0.0
 11
74.61648143550769
 21
2.487438414536399
 31
0.0
 11
74.46198619624988
 21
2.752178404770774
 31
0.0
 11
74.30080760738258
 21
2.995128844223899
 31
0.0
 11
74.1235157372655
 21
3.232128355942649
 31
0.0
 11
73.98920024654279
 21
3.394542906723899
 31
0.0
 11
73.7296558739842
 21
3.674267027817649
 31
0.0
 11
73.49706615230451
 21
3.893322203598899
 31
0.0
 11
73.28981364986311
 21
4.067394469223899
 31
0.0
 11
73.05467571040998
 21
4.244060728989467
 31
0.0
 11
72.81101573726539
 21
4.406444762192649
 31
0.0
 11
72.54978526851539
 21
4.559734557114524
 31
0.0
 11
72.2929722191991
 21
4.69138738914583
 31
0.0
 11
72.04244579097639
 21
4.803142760239467
 31
0.0
 11
71.55434764644508
 21
4.97764227195833
 31
0.0
 11
71.07032359859357
 21
5.098919127427024
 31
0.0
 11
70.55974925777332
 21
5.174968932114524
 31
0.0
 11
70.05001415035138
 21
5.199993346177024
 31
0.0
  0
SPLINE
  5
57781
330
1F
100
AcDbEntity
  8
1
100
AcDbSpline
210
0.0
220
0.0
230
1.0
 70
     8
 71
     3
 72
    29
 73
    25
 74
    23
 42
0.0000000001
 43
0.0000000001
 44
0.000001
 12
0.9999998154086332
 22
0.0006076040649003
 32
0.0
 13
0.0859107384651211
 23
0.9963028380047793
 33
0.0
 40
0.0
 40
0.0
 40
0.0
 40
0.0
 40
0.7671199296735529
 40
1.536854420461715
 40
2.307476727085569
 40
3.077218851214648
 40
3.844339390607025
 40
4.611477114665452
 40
5.38126981947167
 40
6.151928265694365
 40
6.921700066999319
 40
7.688847781081377
 40
8.45518408312658
 40
9.224178949643658
 40
9.994047668203846
 40
10.76300917794192
 40
11.52930339426553
 40
12.2917139428482
 40
13.05694882906453
 40
13.82298959172493
 40
14.58794791634946
 40
15.35012882298951
 40
15.96307553540755
 40
16.57600564145745
 40
16.57600564145745
 40
16.57600564145745
 40
16.57600564145745
 10
70.05001415035138
 20
-10.92546441749482
 30
0.0
 10
70.30572074637468
 20
-10.92530904909898
 30
0.0
 10
70.81817077364417
 20
-10.90782387669293
 30
0.0
 10
71.58387130297143
 20
-10.82934973472802
 30
0.0
 10
72.34356111312019
 20
-10.70010293544206
 30
0.0
 10
73.0920811307227
 20
-10.52063178287932
 30
0.0
 10
73.82573176887968
 20
-10.29149746895501
 30
0.0
 10
74.54183621369742
 20
-10.01226438874573
 30
0.0
 10
75.23848758526952
 20
-9.684815282379133
 30
0.0
 10
75.91254851880626
 20
-9.311271828634403
 30
0.0
 10
76.55944109419135
 20
-8.894051330124113
 30
0.0
 10
77.17553754557474
 20
-8.434925690347085
 30
0.0
 10
77.75818999436461
 20
-7.934437977686087
 30
0.0
 10
78.30631522427501
 20
-7.39510207549398
 30
0.0
 10
78.81768908622632
 20
-6.819630248143965
 30
0.0
 10
79.28873530226548
 20
-6.211838899901039
 30
0.0
 10
79.71596730967679
 20
-5.575446059963667
 30
0.0
 10
80.09726205558548
 20
-4.911949828421171
 30
0.0
 10
80.43234463719512
 20
-4.224068775712879
 30
0.0
 10
80.71986069855899
 20
-3.514054275509067
 30
0.0
 10
80.95703779870905
 20
-2.786730362916898
 30
0.0
 10
81.12926684701944
 20
-2.093794410203827
 30
0.0
 10
81.24604891369461
 20
-1.44110663353652
 30
0.0
 10
81.29342134958273
 20
-1.034933392187497
 30
0.0
 10
81.31097377559546
 20
-0.8313787241354759
 30
0.0
 11
70.05001415035138
 21
-10.92546441749482
 31
0.0
 11
70.81668437740217
 21
-10.89918878272922
 31
0.0
 11
71.58243144771467
 21
-10.82094171241672
 31
0.0
 11
72.34212840816389
 21
-10.6916387339011
 31
0.0
 11
73.09063304683582
 21
-10.5120733042136
 31
0.0
 11
73.82280315181628
 21
-10.28316095069794
 31
0.0
 11
74.5376011254491
 21
-10.00465753272919
 31
0.0
 11
75.23433269283192
 21
-9.677325989760532
 31
0.0
 11
75.90839732906238
 21
-9.30376031593235
 31
0.0
 11
76.55522502681629
 21
-8.886432435072975
 31
0.0
 11
77.17021526119129
 21
-8.4278447885886
 31
0.0
 11
77.75167430660139
 21
-7.928668763197975
 31
0.0
 11
78.29988445064441
 21
-7.3893926401511
 31
0.0
 11
78.81125224849586
 21
-6.813892151869765
 31
0.0
 11
79.28219188472638
 21
-6.206012513197975
 31
0.0
 11
79.7091137292087
 21
-5.569659974135475
 31
0.0
 11
80.08913387081037
 21
-4.908710267104169
 31
0.0
 11
80.42424358150373
 21
-4.220752503432322
 31
0.0
 11
80.71164668819319
 21
-3.510669495619794
 31
0.0
 11
80.94853175899396
 21
-2.783313538588572
 31
0.0
 11
81.13209499141579
 21
-2.043567444838572
 31
0.0
 11
81.23989070674793
 21
-1.440173890151072
 31
0.0
 11
81.31097377559546
 21
-0.8313787241354759
 31
0.0
  0
ARC
  5
57782
330
1F
100
AcDbEntity
  8
1
100
AcDbCircle
 10
69.90001304634751
 20
0.0000117192238633
 30
0.0
 40
5.000002999999998
100
AcDbArc
 50
269.9999959999976
 51
359.9999499999983
  0
ARC
  5
57783
330
1F
100
AcDbEntity
  8
1
100
AcDbCircle
 10
69.90001304634751
 20
0.0000117192238633
 30
0.0
 40
5.000002999999998
100
AcDbArc
 50
180.0000529999995
 51
270.0000089999996
  0
ARC
  5
57784
330
1F
100
AcDbEntity
  8
1
100
AcDbCircle
 10
69.90001304634751
 20
-0.0000192807761152
 30
0.0
 40
5.000002999999998
100
AcDbArc
 50
89.999921999998
 51
179.9999470000005
  0
ARC
  5
57785
330
1F
100
AcDbEntity
  8
1
100
AcDbCircle
 10
69.90001304634751
 20
-0.0000192807761152
 30
0.0
 40
5.000002999999998
100
AcDbArc
 50
0.0000499999985184
 51
89.99993599999811
  0
ARC
  5
57786
330
1F
100
AcDbEntity
  8
1
100
AcDbCircle
 10
70.05001404634748
 20
0.0000117192238633
 30
0.0
 40
4.750003999999997
100
AcDbArc
 50
270.0000429999985
 51
0.0000729999982277
  0
ARC
  5
57787
330
1F
100
AcDbEntity
  8
1
100
AcDbCircle
 10
70.05001404634748
 20
0.0000117192238633
 30
0.0
 40
4.750003999999997
100
AcDbArc
 50
0.0000630000004781
 51
89.99995699999827
  0
ARC
  5
57788
330
1F
100
AcDbEntity
  8
1
100
AcDbCircle
 10
70.05001404634748
 20
0.0000117192238633
 30
0.0
 40
4.750003999999997
100
AcDbArc
 50
89.99999699999904
 51
179.9999299999995
  0
ARC
  5
57789
330
1F
100
AcDbEntity
  8
1
100
AcDbCircle
 10
70.05001404634748
 20
0.0000117192238633
 30
0.0
 40
4.750003999999997
100
AcDbArc
 50
180.0000210000001
 51
270.0000429999985
  0
ARC
  5
5778A
330
1F
100
AcDbEntity
  8
1
100
AcDbCircle
 10
68.21140604634752
 20
0.0000117192238633
 30
0.0
 40
0.440895
100
AcDbArc
 50
103.4785079999976
 51
256.521484999999
  0
ARC
  5
5778B
330
1F
100
AcDbEntity
  8
1
100
AcDbCircle
 10
67.91612604634747
 20
1.232006719223903
 30
0.0
 40
0.8260009999999999
100
AcDbArc
 50
283.4780969999994
 51
16.5219179999997
  0
ARC
  5
5778C
330
1F
100
AcDbEntity
  8
1
100
AcDbCircle
 10
69.13071004634753
 20
1.592266719223886
 30
0.0
 40
0.440895
100
AcDbArc
 50
43.47854800000046
 51
196.5214590000009
  0
ARC
  5
5778D
330
1F
100
AcDbEntity
  8
1
100
AcDbCircle
 10
71.88862204634745
 20
0.0000117192238633
 30
0.0
 40
0.440895
100
AcDbArc
 50
283.4785130000001
 51
76.52149700000144
  0
ARC
  5
5778E
330
1F
100
AcDbEntity
  8
1
100
AcDbCircle
 10
69.13071004634753
 20
-1.592273280776112
 30
0.0
 40
0.440895
100
AcDbArc
 50
163.4785359999992
 51
316.5214519999996
  0
ARC
  5
5778F
330
1F
100
AcDbEntity
  8
1
100
AcDbCircle
 10
72.1839020463475
 20
-1.232013280776072
 30
0.0
 40
0.8260009999999999
100
AcDbArc
 50
103.4780990000036
 51
196.5219170000002
  0
ARC
  5
57790
330
1F
100
AcDbEntity
  8
1
100
AcDbCircle
 10
70.05001404634748
 20
2.464000719223889
 30
0.0
 40
0.8260009999999999
100
AcDbArc
 50
223.4780779999996
 51
316.5219300000016
  0
ARC
  5
57791
330
1F
100
AcDbEntity
  8
1
100
AcDbCircle
 10
70.96931804634749
 20
1.592266719223886
 30
0.0
 40
0.440895
100
AcDbArc
 50
343.4785419999991
 51
136.5214569999991
  0
ARC
  5
57792
330
1F
100
AcDbEntity
  8
1
100
AcDbCircle
 10
70.05001404634748
 20
-2.464008280776084
 30
0.0
 40
0.8260009999999999
100
AcDbArc
 50
43.47808299999745
 51
136.5219249999994
  0
ARC
  5
57793
330
1F
100
AcDbEntity
  8
1
100
AcDbCircle
 10
70.96931804634749
 20
-1.592273280776112
 30
0.0
 40
0.440895
100
AcDbArc
 50
223.4785489999966
 51
16.52145399999822
  0
ARC
  5
57794
330
1F
100
AcDbEntity
  8
1
100
AcDbCircle
 10
72.1839020463475
 20
1.232006719223903
 30
0.0
 40
0.8260009999999999
100
AcDbArc
 50
163.4780849999984
 51
256.5219009999964
  0
ARC
  5
57795
330
1F
100
AcDbEntity
  8
1
100
AcDbCircle
 10
70.05001404634748
 20
0.0000117192238633
 30
0.0
 40
3.000002999999998
100
AcDbArc
 50
270.0000499999985
 51
89.99997299999794
  0
ARC
  5
57796
330
1F
100
AcDbEntity
  8
1
100
AcDbCircle
 10
70.05001404634748
 20
0.0000117192238633
 30
0.0
 40
3.000002999999998
100
AcDbArc
 50
90.000044999998
 51
269.9999619999988
  0
ARC
  5
57797
330
1F
100
AcDbEntity
  8
1
100
AcDbCircle
 10
67.91612604634747
 20
-1.232013280776072
 30
0.0
 40
0.8260009999999999
100
AcDbArc
 50
343.4780919999985
 51
76.5219060000002
  0
LINE
  5
57798
330
1F
100
AcDbEntity
  8
1
100
AcDbLine
 10
74.90002004634749
 20
0.0000117192238633
 30
0.0
 11
74.80001404634748
 21
0.0000117192238633
 31
0.0
  0
LINE
  5
57799
330
1F
100
AcDbEntity
  8
1
100
AcDbLine
 10
64.90001304634751
 20
0.0000117192238918
 30
0.0
 11
65.30501904634752
 21
0.0000117192238633
 31
0.0
  0
LINE
  5
5779A
330
1F
100
AcDbEntity
  8
1
100
AcDbLine
 10
60.63870404634747
 20
10.95244071922391
 30
0.0
 11
60.03133704634752
 21
11.16941371922391
 31
0.0
  0
LINE
  5
5779B
330
1F
100
AcDbEntity
  8
1
100
AcDbLine
 10
64.05001404634749
 20
-10.92546428077605
 30
0.0
 11
64.05001404634749
 21
-10.95244228077612
 31
0.0
  0
LINE
  5
5779C
330
1F
100
AcDbEntity
  8
1
100
AcDbLine
 10
65.17277104634752
 20
-10.92546428077605
 30
0.0
 11
70.05001404634748
 21
-10.92546428077605
 31
0.0
  0
LINE
  5
5779D
330
1F
100
AcDbEntity
  8
1
100
AcDbLine
 10
64.05001404634749
 20
-10.92546428077605
 30
0.0
 11
65.17277104634752
 21
-10.92546428077605
 31
0.0
  0
LINE
  5
5779E
330
1F
100
AcDbEntity
  8
1
100
AcDbLine
 10
59.15407104634738
 20
11.2978627192239
 30
0.0
 11
64.05001404634749
 21
11.2978627192239
 31
0.0
  0
LINE
  5
5779F
330
1F
100
AcDbEntity
  8
1
100
AcDbLine
 10
59.05001404634749
 20
-11.16942228077607
 30
0.0
 11
64.05001404634749
 21
-11.16942228077607
 31
0.0
  0
LINE
  5
577A0
330
1F
100
AcDbEntity
  8
1
100
AcDbLine
 10
59.05001404634749
 20
-10.95244228077612
 30
0.0
 11
59.05001404634749
 21
-11.16942228077607
 31
0.0
  0
LINE
  5
577A1
330
1F
100
AcDbEntity
  8
1
100
AcDbLine
 10
59.05001404634749
 20
-10.95244228077612
 30
0.0
 11
64.05001404634749
 21
-10.95244228077612
 31
0.0
  0
LINE
  5
577A2
330
1F
100
AcDbEntity
  8
1
100
AcDbLine
 10
69.90001304634751
 20
-5.200000280776066
 30
0.0
 11
70.05001404634748
 21
-5.200000280776066
 31
0.0
  0
LINE
  5
577A3
330
1F
100
AcDbEntity
  8
1
100
AcDbLine
 10
69.90001304634751
 20
5.199993719223897
 30
0.0
 11
70.05001404634748
 21
5.199993719223897
 31
0.0
  0
LINE
  5
577A4
330
1F
100
AcDbEntity
  8
1
100
AcDbLine
 10
59.05001404634749
 20
10.95243471922387
 30
0.0
 11
61.13231204634747
 21
10.95243471922387
 31
0.0
  0
LINE
  5
577A5
330
1F
100
AcDbEntity
  8
1
100
AcDbLine
 10
59.05001404634749
 20
11.16941471922391
 30
0.0
 11
59.05001404634749
 21
10.95243471922387
 31
0.0
  0
LINE
  5
577A6
330
1F
100
AcDbEntity
  8
1
100
AcDbLine
 10
59.05001404634749
 20
11.16941471922391
 30
0.0
 11
60.03133704634752
 21
11.16941471922391
 31
0.0
  0
LINE
  5
577A7
330
1F
100
AcDbEntity
  8
1
100
AcDbLine
 10
57.55001404634748
 20
0.0000117192238918
 30
0.0
 11
57.55001404634748
 21
-11.32985328077609
 31
0.0
  0
LINE
  5
577A8
330
1F
100
AcDbEntity
  8
1
100
AcDbLine
 10
57.55001404634748
 20
0.0000117192238918
 30
0.0
 11
57.55001404634748
 21
11.3298757192239
 31
0.0
  0
LINE
  5
577A9
330
1F
100
AcDbEntity
  8
1
100
AcDbLine
 10
52.55001404634748
 20
-12.24998828077611
 30
0.0
 11
52.55001404634748
 21
0.0000117192238918
 31
0.0
  0
LINE
  5
577AA
330
1F
100
AcDbEntity
  8
1
100
AcDbLine
 10
52.54999404036903
 20
0.0000117192238918
 30
0.0
 11
52.54999404036903
 21
12.25001171922392
 31
0.0
  0
LINE
  5
577AB
330
1F
100
AcDbEntity
  8
1
100
AcDbLine
 10
70.05001404634748
 20
4.740032719223876
 30
0.0
 11
70.05001404634748
 21
4.750011719223863
 31
0.0
  0
LINE
  5
577AC
330
1F
100
AcDbEntity
  8
1
100
AcDbLine
 10
57.54999404634748
 20
11.33001171812387
 30
0.0
 11
64.04999404634748
 21
11.3300117181239
 31
0.0
1001
ACAD
1000
RTMaterial
1005
0
  0
LINE
  5
577AD
102
{ACAD_REACTORS
330
577B2
102
}
330
1F
100
AcDbEntity
  8
1
100
AcDbLine
 10
57.54999404634748
 20
11.33001171812387
 30
0.0
 11
52.54999404634748
 21
12.25001171812383
 31
0.0
1001
ACAD
1000
RTMaterial
1005
0
  0
LINE
  5
577AE
330
1F
100
AcDbEntity
  8
1
100
AcDbLine
 10
57.54999404634748
 20
-11.3299882796762
 30
0.0
 11
64.04999404634748
 21
-11.32998827967623
 31
0.0
1001
ACAD
1000
RTMaterial
1005
0
  0
LINE
  5
577AF
330
1F
100
AcDbEntity
  8
1
100
AcDbLine
 10
57.54999404634748
 20
-11.3299882796762
 30
0.0
 11
52.55001404634748
 21
-12.24998828077611
 31
0.0
1001
ACAD
1000
RTMaterial
1005
0
  0
DIMENSION
  5
577B0
102
{ACAD_XDICTIONARY
360
577B1
102
}
102
{ACAD_REACTORS
330
577B2
102
}
330
1F
100
AcDbEntity
  8
2
100
AcDbDimension
  2
*D198
 10
82.54999404634736
 20
34.63829103437104
 30
0.0
 11
67.54999404634742
 21
34.63829103437104
 31
0.0
 70
   160
 71
     5
 42
29.99999999999989
  3
\M+18352\M+18373\M+1815B - ISO-25
100
AcDbAlignedDimension
 13
52.54999404634748
 23
12.25001171812383
 33
0.0
 14
82.54999404634736
 24
9.213359750051523
 34
0.0
100
AcDbRotatedDimension
1001
ACAD
1000
DSTYLE
1002
{
1070
     4
1000
"
1070
    40
1040
1.0
1070
   143
1040
0.03937
1070
   170
1070
     1
1070
   171
1070
     3
1070
   271
1070
     8
1070
   285
1070
     4
1002
}
  0
DIMENSION
  5
577B3
330
1F
100
AcDbEntity
  8
2
100
AcDbDimension
  2
*D187
 10
0.0000000463473974
 20
50.23335141667018
 30
0.0
 11
41.61709381325545
 21
50.23335141667018
 31
0.0
 70
   160
 71
     5
 41
0.892857
 42
82.55
  3
\M+18352\M+18373\M+1815B - ISO-25
100
AcDbAlignedDimension
 13
82.55000004634741
 23
9.213359787186874
 33
0.0
 14
0.0000000463473953
 24
15.87498469025661
 34
0.0
 50
180.0
100
AcDbRotatedDimension
1001
ACAD
1000
DSTYLE
1002
{
1070
     4
1000
"
1070
    40
1040
1.0
1070
   143
1040
0.03937
1070
   170
1070
     1
1070
   171
1070
     3
1070
   271
1070
     8
1070
   285
1070
     4
1002
}
  0
LINE
  5
577B4
330
1F
100
AcDbEntity
  8
sk1
100
AcDbLine
 10
-93.42499995365262
 20
15.87498469025661
 30
0.0
 11
0.0000190463475747
 21
15.87498469025661
 31
0.0
  0
LINE
  5
577B5
330
1F
100
AcDbEntity
  8
sk1
100
AcDbLine
 10
-93.42499995365262
 20
-15.87501530974339
 30
0.0
 11
0.0000190463475747
 21
-15.87501530974339
 31
0.0
  0
LINE
  5
577B6
330
1F
100
AcDbEntity
  8
sk4
100
AcDbLine
 10
-104.7880979536525
 20
0.0000156902565891
 30
0.0
 11
0.0000000463473953
 21
0.0000001902566282
 31
0.0
  0
LINE
  5
577B7
330
1F
100
AcDbEntity
  8
sk1
100
AcDbLine
 10
-93.42499995365262
 20
-15.37498430974338
 30
0.0
 11
-97.22498695365249
 21
-15.37498430974338
 31
0.0
  0
LINE
  5
577B8
330
1F
100
AcDbEntity
  8
sk1
100
AcDbLine
 10
-97.22498695365249
 20
15.37501569025664
 30
0.0
 11
-97.22498695365249
 21
-15.37498430974338
 31
0.0
  0
LINE
  5
577B9
330
1F
100
AcDbEntity
  8
sk1
100
AcDbLine
 10
-98.42499995365262
 20
-14.17500230974338
 30
0.0
 11
-98.42499995365262
 21
14.17500369025663
 31
0.0
  0
LINE
  5
577BA
330
1F
100
AcDbEntity
  8
1
100
AcDbLine
 10
0.0000000463473953
 20
-15.87501530974339
 30
0.0
 11
0.0000000463473953
 21
15.87501569025664
 31
0.0
  0
LINE
  5
577BB
330
1F
100
AcDbEntity
  8
sk1
100
AcDbLine
 10
-98.42499895365245
 20
-14.17500230974338
 30
0.0
 11
-97.2249989536524
 21
-15.37500230974336
 31
0.0
  0
LINE
  5
577BC
330
1F
100
AcDbEntity
  8
sk1
100
AcDbLine
 10
-98.42499795365245
 20
14.17499869025664
 30
0.0
 11
-97.22500195365251
 21
15.37499569025664
 31
0.0
  0
LINE
  5
577BD
330
1F
100
AcDbEntity
  8
sk1
100
AcDbLine
 10
-97.22498695365249
 20
15.37501569025664
 30
0.0
 11
-93.42499995365262
 21
15.37501569025664
 31
0.0
  0
LINE
  5
577BE
102
{ACAD_REACTORS
330
577C2
102
}
330
1F
100
AcDbEntity
  8
sk1
100
AcDbLine
 10
-93.42499995365262
 20
-15.87501530974339
 30
0.0
 11
-93.42499995365262
 21
15.87498469025661
 31
0.0
  0
DIMENSION
  5
577BF
330
1F
100
AcDbEntity
  8
2
100
AcDbDimension
  2
*D188
 10
30.81919003270332
 20
12.25000069025657
 30
0.0
 11
30.81919003270332
 21
-37.88333264307677
 31
0.0
 70
   160
  1
%%c<>
 71
     5
 42
24.5
  3
\M+18352\M+18373\M+1815B - ISO-25
100
AcDbAlignedDimension
 13
52.55001404634748
 23
-12.24999930974343
 33
0.0
 14
52.55001404634748
 24
12.25000069025657
 34
0.0
 50
270.0
100
AcDbRotatedDimension
1001
ACAD
1000
DSTYLE
1002
{
1070
     4
1000
%%C[]"
1070
    40
1040
1.0
1070
   143
1040
0.03937
1070
   170
1070
     1
1070
   171
1070
     3
1070
   271
1070
     8
1070
   285
1070
     4
1002
}
  0
DIMENSION
  5
577C0
102
{ACAD_XDICTIONARY
360
577C1
102
}
102
{ACAD_REACTORS
330
577C2
102
}
330
1F
100
AcDbEntity
  8
sk2
100
AcDbDimension
  2
*D199
 10
-124.252031160041
 20
15.87498469025662
 30
0.0
 11
-124.252031160041
 21
-49.18398741026702
 31
0.0
 70
   160
  1
%%c<>
 71
     5
 42
31.75
  3
\M+18352\M+18373\M+1815B - ISO-25
100
AcDbAlignedDimension
 13
-93.42499995365262
 23
-15.87501530974339
 33
0.0
 14
-93.42499995365262
 24
15.87498469025661
 34
0.0
 50
270.0
100
AcDbRotatedDimension
1001
ACAD
1000
DSTYLE
1002
{
1070
     4
1000
%%C[]"
1070
    40
1040
1.0
1070
   143
1040
0.03937
1070
   170
1070
     1
1070
   171
1070
     3
1070
   271
1070
     8
1070
   285
1070
     4
1002
}
  0
ARC
  5
577C3
330
1F
100
AcDbEntity
  8
1
100
AcDbCircle
 10
3.584422046347356
 20
16.5332514986525
 30
0.0
 40
3.0
100
AcDbArc
 50
224.9999949999997
 51
268.5000000000006
  0
ARC
  5
577C4
330
1F
100
AcDbEntity
  8
1
100
AcDbCircle
 10
3.584422046347356
 20
-16.53323850134751
 30
0.0
 40
3.0
100
AcDbArc
 50
91.49999999999947
 51
135.0000050000002
  0
LINE
  5
577C5
330
1F
100
AcDbEntity
  8
1
100
AcDbLine
 10
0.0000000463473953
 20
15.87500649865248
 30
0.0
 11
1.463102046347387
 21
14.41193149865248
 31
0.0
  0
LINE
  5
577C6
330
1F
100
AcDbEntity
  8
1
100
AcDbLine
 10
52.55001404634743
 20
-12.25000850134773
 30
0.0
 11
3.505891046347358
 21
-13.53426650134753
 31
0.0
  0
LINE
  5
577C7
330
1F
100
AcDbEntity
  8
1
100
AcDbLine
 10
-0.0000009536526591
 20
-15.87502150134747
 30
0.0
 11
1.463102046347387
 21
-14.41191850134754
 31
0.0
  0
LINE
  5
577C8
330
1F
100
AcDbEntity
  8
1
100
AcDbLine
 10
3.495000046347342
 20
-13.53457151318159
 30
0.0
 11
3.495000046347399
 21
13.53458451048661
 31
0.0
  0
DIMENSION
  5
577C9
330
1F
100
AcDbEntity
  8
sk2
100
AcDbDimension
  2
*D189
 10
82.55000004634741
 20
65.46735286801049
 30
0.0
 11
-6.544211716168092
 21
65.46735286801049
 31
0.0
 70
   160
 71
     5
 42
180.975
  3
\M+18352\M+18373\M+1815B - ISO-25
100
AcDbAlignedDimension
 13
-98.42499995365262
 23
14.17499669025483
 33
0.0
 14
82.55000004634741
 24
9.213359787186874
 34
0.0
100
AcDbRotatedDimension
1001
ACAD
1000
DSTYLE
1002
{
1070
     4
1000
"
1070
    40
1040
1.0
1070
   143
1040
0.03937
1070
   170
1070
     1
1070
   171
1070
     3
1070
   271
1070
     8
1070
   285
1070
     4
1002
}
  0
LINE
  5
577CA
330
1F
100
AcDbEntity
  8
1
100
AcDbLine
 10
3.505891201423651
 20
13.53427952372584
 30
0.0
 11
52.55001404634748
 21
12.25000069025657
 31
0.0
  0
ARC
  5
577CB
330
1F
100
AcDbEntity
  8
nocut
100
AcDbCircle
 10
70.05347999989988
 20
0.0
 30
0.0
 40
11.32999999889999
100
AcDbArc
 50
0.0
 51
90.0
  0
LINE
  5
577CC
330
1F
100
AcDbEntity
  8
nocut
100
AcDbLine
 10
57.54997999989996
 20
11.3299999989
 30
0.0
 11
70.05347999989988
 21
11.32999999890006
 31
0.0
1001
ACAD
1000
RTMaterial
1005
0
  0
LINE
  5
577CD
330
1F
100
AcDbEntity
  8
nocut
100
AcDbLine
 10
81.38347999879988
 20
0.0
 30
0.0
 11
0.0
 21
0.0
 31
0.0
1001
ACAD
1000
RTMaterial
1005
0
  0
LINE
  5
577CE
330
1F
100
AcDbEntity
  8
nocut
100
AcDbLine
 10
57.55000000000006
 20
11.3299999989
 30
0.0
 11
52.54999999990002
 21
12.24999999890002
 31
0.0
1001
ACAD
1000
RTMaterial
1005
0
  0
LINE
  5
577CF
330
1F
100
AcDbEntity
  8
nocut
100
AcDbLine
 10
0.0
 20
15.87499999890002
 30
0.0
 11
0.0
 21
0.0
 31
0.0
  0
ARC
  5
577D0
330
1F
100
AcDbEntity
  8
nocut
100
AcDbCircle
 10
3.58442199999996
 20
16.53324500000008
 30
0.0
 40
3.0
100
AcDbArc
 50
224.9999949999997
 51
268.5000000000006
  0
LINE
  5
577D1
330
1F
100
AcDbEntity
  8
nocut
100
AcDbLine
 10
0.0
 20
15.875
 30
0.0
 11
1.463101999999992
 21
14.41192499999999
 31
0.0
  0
LINE
  5
577D2
330
1F
100
AcDbEntity
  8
nocut
100
AcDbLine
 10
3.495000000000004
 20
13.53458432022998
 30
0.0
 11
52.54999999990002
 21
12.24999999890002
 31
0.0
  0
LINE
  5
57833
330
1F
100
AcDbEntity
  8
4
100
AcDbLine
 10
85.0
 20
0.0
 30
0.0
 11
0.0
 21
0.0
 31
0.0
  0
DIMENSION
  5
57834
330
1F
100
AcDbEntity
  8
2
100
AcDbDimension
  2
*D183
 10
101.6092776586706
 20
12.50001171812376
 30
0.0
 11
101.6092776586706
 21
-7.579377395559589
 31
0.0
 70
   160
  1
%%c<>
 71
     5
 42
24.99999999889988
  3
\M+18352\M+18373\M+1815B - ISO-25
100
AcDbAlignedDimension
 13
69.91860989269525
 23
-12.49998828077611
 33
0.0
 14
79.54999404036903
 24
12.50001171812377
 34
0.0
 50
270.0
100
AcDbRotatedDimension
1001
ACAD
1000
DSTYLE
1002
{
1070
    75
1070
     1
1070
   343
1005
50E6F
1070
     4
1000
%%c[]"
1070
    40
1040
1.0
1070
    76
1070
     0
1070
   143
1040
0.03937
1070
   170
1070
     1
1070
   171
1070
     3
1070
   173
1070
     1
1070
   271
1070
     8
1070
   285
1070
     4
1070
   344
1005
0
1002
}
  0
SPLINE
  5
57835
330
1F
100
AcDbEntity
  8
1
100
AcDbSpline
210
0.0
220
0.0
230
1.0
 70
     8
 71
     3
 72
    12
 73
     8
 74
     6
 42
0.0000000001
 43
0.0000000001
 44
0.000001
 12
0.0537566380759423
 22
0.9985540665696436
 32
0.0
 13
0.0552813878764437
 23
0.9984708148736517
 33
0.0
 40
0.0
 40
0.0
 40
0.0
 40
0.0
 40
0.2209122770196051
 40
0.4175401307254177
 40
0.5973613852576813
 40
0.7637312137249407
 40
0.9175676701088244
 40
0.9175676701088244
 40
0.9175676701088244
 40
0.9175676701088244
 10
82.25380308263197
 20
5.144202425423742
 30
0.0
 10
82.25776158307281
 20
5.217733376281444
 30
0.0
 10
82.26526202310003
 20
5.356711174680242
 30
0.0
 10
82.27604287811585
 20
5.555539573987147
 30
0.0
 10
82.285894223764
 20
5.736210843129043
 30
0.0
 10
82.29502386429874
 20
5.902636467403624
 30
0.0
 10
82.30090551066018
 20
6.009209721036143
 30
0.0
 10
82.30374027493189
 20
6.060410125023764
 30
0.0
 11
82.25380308263197
 21
5.144202425423742
 31
0.0
 11
82.26570907723203
 21
5.364793631923731
 31
0.0
 11
82.276357569232
 21
5.561132932423703
 31
0.0
 11
82.28614912243211
 21
5.740687401323754
 31
0.0
 11
82.29526143933208
 21
5.906807501223767
 31
0.0
 11
82.30374027493189
 21
6.060410125023764
 31
0.0
  0
SPLINE
  5
57836
330
1F
100
AcDbEntity
  8
1
100
AcDbSpline
210
0.0
220
0.0
230
1.0
 70
     8
 71
     3
 72
    16
 73
    12
 74
    10
 42
0.0000000001
 43
0.0000000001
 44
0.000001
 12
0.0523642815861722
 22
0.998628049883421
 32
0.0
 13
0.0569679970418169
 23
0.998376004976604
 33
0.0
 40
0.0
 40
0.0
 40
0.0
 40
0.0
 40
0.0854285124863477
 40
0.1685700608950766
 40
0.2492343870075947
 40
0.3282451804660274
 40
0.4084813185550421
 40
0.4933911897960887
 40
0.5851106058513818
 40
0.6853132240075796
 40
0.7972341521209132
 40
0.7972341521209132
 40
0.7972341521209132
 40
0.7972341521209132
 10
82.30374027493189
 20
6.060410125023764
 30
0.0
 10
82.30523140915966
 20
6.088847227966653
 30
0.0
 10
82.30818983031644
 20
6.14495931629321
 30
0.0
 10
82.31260316472377
 20
6.227920141494109
 30
0.0
 10
82.31694527932381
 20
6.308742480357494
 30
0.0
 10
82.32127661332652
 20
6.388595520822519
 30
0.0
 10
82.32572808323311
 20
6.469859295500867
 30
0.0
 10
82.33045557609285
 20
6.555350496888365
 30
0.0
 10
82.33559728968316
 20
6.647484442834155
 30
0.0
 10
82.34129283482195
 20
6.748605162178478
 30
0.0
 10
82.34530078923148
 20
6.81919933112934
 30
0.0
 10
82.34742609293197
 20
6.8564457208237
 30
0.0
 11
82.30374027493189
 21
6.060410125023764
 31
0.0
 11
82.30823578573199
 21
6.145720275623745
 31
0.0
 11
82.31265340453182
 21
6.228744378623702
 31
0.0
 11
82.31698084353183
 21
6.309292543123746
 31
0.0
 11
82.32126047493194
 21
6.388187348323782
 31
0.0
 11
82.325648599332
 21
6.468303403523663
 31
0.0
 11
82.33033614383202
 21
6.553083786123664
 31
0.0
 11
82.33544625173204
 21
6.644660738723729
 31
0.0
 11
82.34107924853196
 21
6.744704901623748
 31
0.0
 11
82.34742609293197
 21
6.8564457208237
 31
0.0
  0
SPLINE
  5
57837
330
1F
100
AcDbEntity
  8
1
100
AcDbSpline
210
0.0
220
0.0
230
1.0
 70
     8
 71
     3
 72
    20
 73
    16
 74
    14
 42
0.0000000001
 43
0.0000000001
 44
0.000001
 12
0.0504646768136971
 22
0.9987258464634273
 32
0.0
 13
0.0566339771029373
 23
0.9983950083196049
 33
0.0
 40
0.0
 40
0.0
 40
0.0
 40
0.0
 40
0.1299695316086983
 40
0.2634842210378501
 40
0.3944523656994926
 40
0.5221927303531916
 40
0.6478471449832548
 40
0.7733154705046026
 40
0.8993462909829316
 40
1.025951314724631
 40
1.153060762889081
 40
1.27968726531154
 40
1.405383091946248
 40
1.530137234819413
 40
1.653965431159819
 40
1.653965431159819
 40
1.653965431159819
 40
1.653965431159819
 10
82.34742609293197
 20
6.8564457208237
 30
0.0
 10
82.349612383068
 20
6.899713697647143
 30
0.0
 10
82.35406645112949
 20
6.987428761623505
 30
0.0
 10
82.36079301819428
 20
7.11874071385003
 30
0.0
 10
82.36754500026961
 20
7.249307319509654
 30
0.0
 10
82.37422282650255
 20
7.377254152276293
 30
0.0
 10
82.38086564634455
 20
7.503367029303149
 30
0.0
 10
82.38753931223925
 20
7.628907628863828
 30
0.0
 10
82.39429196203024
 20
7.754761331648666
 30
0.0
 10
82.40113769238645
 20
7.881157852071908
 30
0.0
 10
82.40805967439019
 20
8.007749077682888
 30
0.0
 10
82.41503075900437
 20
8.13403408218781
 30
0.0
 10
82.42201825537973
 20
8.259531868899557
 30
0.0
 10
82.42900998367053
 20
8.384095192470908
 30
0.0
 10
82.43368437328673
 20
8.466824022518551
 30
0.0
 10
82.43602200103214
 20
8.508033840223703
 30
0.0
 11
82.34742609293197
 21
6.8564457208237
 31
0.0
 11
82.35401503933189
 21
6.986248130623749
 31
0.0
 11
82.36084634533199
 21
7.119587942823756
 31
0.0
 11
82.36761011593216
 21
7.250381315623741
 31
0.0
 11
82.37426835983205
 21
7.377948037823699
 31
0.0
 11
82.38087804973202
 21
7.503428490423772
 31
0.0
 11
82.38753865133185
 21
7.628719899423714
 31
0.0
 11
82.39429126693199
 21
7.754569690723798
 31
0.0
 11
82.40113848263195
 21
7.880989419223766
 31
0.0
 11
82.40807848243184
 21
8.007909269123757
 31
0.0
 11
82.41505691763199
 21
8.13434333352373
 31
0.0
 11
82.42204416033201
 21
8.259844805023732
 31
0.0
 11
82.429034022432
 21
8.384402976323741
 31
0.0
 11
82.43602200103214
 21
8.508033840223703
 31
0.0
  0
SPLINE
  5
57838
330
1F
100
AcDbEntity
  8
1
100
AcDbSpline
210
0.0
220
0.0
230
1.0
 70
     8
 71
     3
 72
    30
 73
    26
 74
    24
 42
0.0000000001
 43
0.0000000001
 44
0.000001
 12
0.0501108550457699
 22
0.9987436619105935
 32
0.0
 13
0.0685508447169234
 23
0.9976476240078941
 33
0.0
 40
0.0
 40
0.0
 40
0.0
 40
0.0
 40
0.1293520783930464
 40
0.2603192429101879
 40
0.3930945670089732
 40
0.5277045224369362
 40
0.659568533759785
 40
0.7806610712026744
 40
0.8876429477450827
 40
0.9818894022043988
 40
1.065234832682697
 40
1.139357155344317
 40
1.20578968228768
 40
1.265838053149865
 40
1.320505457373278
 40
1.369133043826469
 40
1.413180334557013
 40
1.454877083267379
 40
1.49578016481331
 40
1.535065932231218
 40
1.571692658061884
 40
1.606311803942294
 40
1.640121211670024
 40
1.67371329612085
 40
1.707260265385096
 40
1.707260265385096
 40
1.707260265385096
 40
1.707260265385096
 10
82.43602200103214
 20
8.508033840223703
 30
0.0
 10
82.43818264878223
 20
8.551097029707051
 30
0.0
 10
82.44255269077269
 20
8.63776000312859
 30
0.0
 10
82.44921607720323
 20
8.768621995299952
 30
0.0
 10
82.45605871335191
 20
8.901229730386916
 30
0.0
 10
82.463026984242
 20
9.034130293875563
 30
0.0
 10
82.46992151079053
 20
9.163135038279932
 30
0.0
 10
82.47637619299599
 20
9.282940761033302
 30
0.0
 10
82.48214799563516
 20
9.390225906319045
 30
0.0
 10
82.48720353547321
 20
9.484949015251487
 30
0.0
 10
82.49162072972149
 20
9.568737407562025
 30
0.0
 10
82.49548990501102
 20
9.643270476264859
 30
0.0
 10
82.49895199895082
 20
9.710048530450251
 30
0.0
 10
82.50210698802925
 20
9.770348822296426
 30
0.0
 10
82.50499914355907
 20
9.824719752072269
 30
0.0
 10
82.50766417637112
 20
9.873761500011227
 30
0.0
 10
82.51015363676401
 20
9.918482820689206
 30
0.0
 10
82.51256195668963
 20
9.960629793327058
 30
0.0
 10
82.51494628135821
 20
10.001188323581
 30
0.0
 10
82.51730255752841
 20
10.04005551252149
 30
0.0
 10
82.51960115678036
 20
10.07682764648081
 30
0.0
 10
82.52186119164752
 20
10.11177309124599
 30
0.0
 10
82.52411638159333
 20
10.14570512526765
 30
0.0
 10
82.52639332756155
 20
10.17927749133508
 30
0.0
 10
82.52791726913846
 20
10.20160523056398
 30
0.0
 10
82.52868382683208
 20
10.2127612486237
 30
0.0
 11
82.43602200103214
 21
8.508033840223703
 31
0.0
 11
82.442537108132
 21
8.637221728323794
 31
0.0
 11
82.44920113833201
 21
8.768019239323763
 31
0.0
 11
82.45604640063197
 21
8.900617991823793
 31
0.0
 11
82.4630987451319
 21
9.03504308122379
 31
0.0
 11
82.47012398743208
 21
9.166719820123745
 31
0.0
 11
82.476628579632
 21
9.287637531623744
 31
0.0
 11
82.48236898753203
 21
9.394465288423731
 31
0.0
 11
82.48738734743211
 21
9.488578041023771
 31
0.0
 11
82.49177177193201
 21
9.571808068823742
 31
0.0
 11
82.49562291403208
 21
9.645830277023748
 31
0.0
 11
82.49906869713186
 21
9.712173378223752
 31
0.0
 11
82.50221080003212
 21
9.77213948432373
 31
0.0
 11
82.50511811613206
 21
9.826729524023704
 31
0.0
 11
82.507759229032
 21
9.875285332323784
 31
0.0
 11
82.510209253732
 21
9.919264429823755
 31
0.0
 11
82.51258953903198
 21
9.960893180223735
 31
0.0
 11
82.51499162073196
 21
10.00172566362371
 31
0.0
 11
82.51736989453183
 21
10.04093936632372
 31
0.0
 11
82.51965739183196
 21
10.07749450932377
 31
0.0
 11
82.52188798743191
 21
10.11204177992371
 31
0.0
 11
82.52412782323199
 21
10.14577693682375
 31
0.0
 11
82.52639574553199
 21
10.17929237592378
 31
0.0
 11
82.52868382683208
 21
10.2127612486237
 31
0.0
  0
SPLINE
  5
57839
330
1F
100
AcDbEntity
  8
1
100
AcDbSpline
210
0.0
220
0.0
230
1.0
 70
     8
 71
     3
 72
    60
 73
    56
 74
    54
 42
0.0000000001
 43
0.0000000001
 44
0.000001
 12
0.0617078449968049
 22
0.9980942550009244
 32
0.0
 13
0.0007198759664901
 23
0.999999740889263
 33
0.0
 40
0.0
 40
0.0
 40
0.0
 40
0.0
 40
0.0432744837885932
 40
0.0823935686413708
 40
0.117753275128666
 40
0.1497220396493156
 40
0.178667736125607
 40
0.2049579182663405
 40
0.2289612973591754
 40
0.2510367030538518
 40
0.2714400706075915
 40
0.2902279561845108
 40
0.3074326456797626
 40
0.323088814384723
 40
0.3372401682802951
 40
0.349991265494681
 40
0.3615097087537369
 40
0.3719613084208726
 40
0.3814767611587875
 40
0.3900733407339416
 40
0.3977667556746879
 40
0.4047613026780376
 40
0.4113991159087026
 40
0.4179911797457342
 40
0.4246423719515261
 40
0.4312995505542793
 40
0.4379259624950536
 40
0.4445326626112591
 40
0.4513306213811464
 40
0.4586060647179321
 40
0.4666431659472768
 40
0.4757432275953821
 40
0.4862224114175458
 40
0.4982100138526698
 40
0.5109769144586024
 40
0.5237251080617603
 40
0.536408589982857
 40
0.5491335174157696
 40
0.5618998155987982
 40
0.5746609883569415
 40
0.587316263397412
 40
0.600032276931248
 40
0.6133728508367442
 40
0.6279311261331618
 40
0.6442952238062852
 40
0.6630490617362462
 40
0.6845048964668745
 40
0.7072608473498607
 40
0.7296861738991275
 40
0.7517301393963764
 40
0.7738938224330393
 40
0.7970569753997036
 40
0.8221667547043782
 40
0.8501715043166797
 40
0.8820608283995865
 40
0.8820608283995865
 40
0.8820608283995865
 40
0.8820608283995865
 10
82.52868382683208
 20
10.2127612486237
 30
0.0
 10
82.52957395187809
 20
10.22715858650954
 30
0.0
 10
82.53125544142745
 20
10.2545715886703
 30
0.0
 10
82.53364303665398
 20
10.29375000110357
 30
0.0
 10
82.53574989353058
 20
10.32916993137499
 30
0.0
 10
82.53759814982903
 20
10.36120807275352
 30
0.0
 10
82.53921127668764
 20
10.39023151639631
 30
0.0
 10
82.54061714439661
 20
10.41660718514848
 30
0.0
 10
82.54184398003122
 20
10.4406989801993
 30
0.0
 10
82.54291745080161
 20
10.46283370462481
 30
0.0
 10
82.54385699453861
 20
10.48323432070154
 30
0.0
 10
82.54467639176505
 20
10.50201511983036
 30
0.0
 10
82.54538613218414
 20
10.51921674754282
 30
0.0
 10
82.54599651997841
 20
10.53487560575629
 30
0.0
 10
82.54651847738603
 20
10.54905221720108
 30
0.0
 10
82.54696378066057
 20
10.56185144610228
 30
0.0
 10
82.54734438217395
 20
10.57341890612329
 30
0.0
 10
82.54767109257818
 20
10.58390898993954
 30
0.0
 10
82.54795191891004
 20
10.59342606218737
 30
0.0
 10
82.54819259531222
 20
10.60202451328129
 30
0.0
 10
82.5483989846889
 20
10.60978328480789
 30
0.0
 10
82.54857896711929
 20
10.61688959944095
 30
0.0
 10
82.54874157805966
 20
10.62362911422332
 30
0.0
 10
82.54889362110452
 20
10.63025439447372
 30
0.0
 10
82.54903788408705
 20
10.63688630542569
 30
0.0
 10
82.54917432804587
 20
10.64352983366552
 30
0.0
 10
82.54930239773797
 20
10.65015869515335
 30
0.0
 10
82.54942322588226
 20
10.65683462707267
 30
0.0
 10
82.54953938590483
 20
10.66372701754616
 30
0.0
 10
82.54965386306697
 20
10.67109629851049
 30
0.0
 10
82.54976846290025
 20
10.67923303009436
 30
0.0
 10
82.5498829721713
 20
10.68843777149112
 30
0.0
 10
82.54999377315312
 20
10.69895947815695
 30
0.0
 10
82.55009115166888
 20
10.71070364832141
 30
0.0
 10
82.55016310345945
 20
10.72320435465619
 30
0.0
 10
82.55020192045947
 20
10.73593717144743
 30
0.0
 10
82.550205235764
 20
10.74865605109974
 30
0.0
 10
82.55018478530065
 20
10.76138094078226
 30
0.0
 10
82.55015229327296
 20
10.77413169890914
 30
0.0
 10
82.55012082177222
 20
10.78685924269544
 30
0.0
 10
82.55010054592345
 20
10.79957004835532
 30
0.0
 10
82.55008667557683
 20
10.81247399526367
 30
0.0
 10
82.5500763147229
 20
10.82601227895767
 30
0.0
 10
82.55006489899221
 20
10.84076659017333
 30
0.0
 10
82.55004938099501
 20
10.85732531991772
 30
0.0
 10
82.5500313687761
 20
10.87618323475649
 30
0.0
 10
82.55001461625818
 20
10.8971717694086
 30
0.0
 10
82.55000159695123
 20
10.91938413643967
 30
0.0
 10
82.54999153727771
 20
10.94179254853588
 30
0.0
 10
82.54998422783456
 20
10.96400353909413
 30
0.0
 10
82.54998014322211
 20
10.98646047264364
 30
0.0
 10
82.54997973864044
 20
11.00993934454007
 30
0.0
 10
82.54998395089002
 20
11.03536523824707
 30
0.0
 10
82.54999361122827
 20
11.06369985460088
 30
0.0
 10
82.55000691721239
 20
11.08366454168373
 30
0.0
 10
82.55001456933177
 20
11.09429431362375
 30
0.0
 11
82.52868382683208
 21
10.2127612486237
 31
0.0
 11
82.53133824943189
 21
10.25595427202373
 31
0.0
 11
82.53371032133191
 21
10.29500137292373
 31
0.0
 11
82.53580696613198
 21
10.33029886582372
 31
0.0
 11
82.53764544693195
 21
10.36221472362379
 31
0.0
 11
82.53924992913198
 21
10.39111591842371
 31
0.0
 11
82.54064786593199
 21
10.41736890912378
 31
0.0
 11
82.54186758853212
 21
10.44134127962374
 31
0.0
 11
82.54293613953199
 21
10.46339081002375
 31
0.0
 11
82.54387420713191
 21
10.48377260302371
 31
0.0
 11
82.54469266933211
 21
10.50254265382372
 31
0.0
 11
82.54540158263216
 21
10.5197327329237
 31
0.0
 11
82.5460111437319
 21
10.53537703172375
 31
0.0
 11
82.54653163103194
 21
10.54951881152371
 31
0.0
 11
82.54697485673204
 21
10.56226220402371
 31
0.0
 11
82.54735354283184
 21
10.57377442142379
 31
0.0
 11
82.54767882513215
 21
10.5842209587237
 31
0.0
 11
82.54795942803184
 21
10.59373227382375
 31
0.0
 11
82.54819991913199
 21
10.60232548942375
 31
0.0
 11
82.54840447003198
 21
10.61001618512378
 31
0.0
 11
82.548581544532
 21
10.61700849082379
 31
0.0
 11
82.54874163793193
 21
10.62364437362376
 31
0.0
 11
82.54889286153185
 21
10.63023470312376
 31
0.0
 11
82.54903749523192
 21
10.63688432302379
 31
0.0
 11
82.54917418493187
 21
10.64354009862373
 31
0.0
 11
82.54930217483206
 21
10.65016527482376
 31
0.0
 11
82.54942172063193
 21
10.65677089372374
 31
0.0
 11
82.54953626063207
 21
10.66356788792373
 31
0.0
 11
82.54964924913201
 21
10.67084245432377
 31
0.0
 11
82.54976240793212
 21
10.67887875942372
 31
0.0
 11
82.54987556203195
 21
10.68797811812371
 31
0.0
 11
82.54998583093197
 21
10.69845672242374
 31
0.0
 11
82.55008509123218
 21
10.71044391462376
 31
0.0
 11
82.55015837473207
 21
10.72321060562379
 31
0.0
 11
82.55019704763208
 21
10.73595874122375
 31
0.0
 11
82.55020229023193
 21
10.74864222262377
 31
0.0
 11
82.55018381473201
 21
10.76136713712375
 31
0.0
 11
82.55015344963203
 21
10.77413339962371
 31
0.0
 11
82.55012360863203
 21
10.7868945379237
 31
0.0
 11
82.5501026729321
 21
10.79954979612378
 31
0.0
 11
82.55008853973185
 21
10.81226580232376
 31
0.0
 11
82.55007760743206
 21
10.82560637232373
 31
0.0
 11
82.55006599133185
 21
10.84016464362375
 31
0.0
 11
82.55005108173191
 21
10.85652873522374
 31
0.0
 11
82.55003368673191
 21
10.87528256592375
 31
0.0
 11
82.55001669813191
 21
10.89673839492374
 31
0.0
 11
82.55000305653174
 21
10.91949434282375
 31
0.0
 11
82.54999293193213
 21
10.94191966822373
 31
0.0
 11
82.549985780332
 21
10.96396363372375
 31
0.0
 11
82.54998179863196
 21
10.98612731762378
 31
0.0
 11
82.54998142743216
 21
11.00929047192366
 31
0.0
 11
82.54998548453205
 21
11.03440025242375
 31
0.0
 11
82.54999559063207
 21
11.06240500202372
 31
0.0
 11
82.55001456933177
 21
11.09429431362375
 31
0.0
  0
SPLINE
  5
5783A
330
1F
100
AcDbEntity
  8
1
100
AcDbSpline
210
0.0
220
0.0
230
1.0
 70
     8
 71
     3
 72
    24
 73
    20
 74
     0
 42
0.0000000001
 43
0.0000000001
 40
0.487899064237684
 40
0.487899064237684
 40
0.487899064237684
 40
0.487899064237684
 40
0.5236648418388775
 40
0.5835404063895357
 40
0.6444439463131654
 40
0.7040897320836934
 40
0.7608884892163328
 40
0.8216121935209883
 40
0.8882564964476815
 40
0.9612742288492087
 40
1.041211352954175
 40
1.128859641138297
 40
1.225085230503133
 40
1.330891753639384
 40
1.447414246610523
 40
1.576366815720263
 40
1.719812078603109
 40
1.879584516116304
 40
2.058034587852425
 40
2.058034587852425
 40
2.058034587852425
 40
2.058034587852425
 10
77.7753074727002
 20
12.25508848107151
 30
0.0
 10
77.76934802332789
 20
12.25495415947065
 30
0.0
 10
77.75341185561228
 20
12.25459459006342
 30
0.0
 10
77.72732771507708
 20
12.25400452906032
 30
0.0
 10
77.69726463253528
 20
12.25332263006905
 30
0.0
 10
77.66771425473326
 20
12.25265080223343
 30
0.0
 10
77.63819387793728
 20
12.25197806764149
 30
0.0
 10
77.60750742310847
 20
12.25127706091925
 30
0.0
 10
77.57411855793453
 20
12.25051225754228
 30
0.0
 10
77.53752835438627
 20
12.24967157219956
 30
0.0
 10
77.49743848301068
 20
12.24874731511423
 30
0.0
 10
77.45348175391291
 20
12.24772997082218
 30
0.0
 10
77.40521472704722
 20
12.24660793026387
 30
0.0
 10
77.35213677716046
 20
12.24536783948426
 30
0.0
 10
77.2936060055872
 20
12.24399237006705
 30
0.0
 10
77.22880406257331
 20
12.24246017110695
 30
0.0
 10
77.15679606705726
 20
12.24074672586548
 30
0.0
 10
77.07654111420743
 20
12.23882480422608
 30
0.0
 10
77.02018707953221
 20
12.23746581265962
 30
0.0
 10
76.99045409643213
 20
12.23674667202377
 30
0.0
  0
SPLINE
  5
5783B
330
1F
100
AcDbEntity
  8
1
100
AcDbSpline
210
0.0
220
0.0
230
1.0
 70
     8
 71
     3
 72
    15
 73
    11
 74
     9
 42
0.0000000001
 43
0.0000000001
 44
0.000001
 12
-0.9996952981782621
 22
-0.0246842216866443
 32
0.0
 13
-0.9996437941717914
 23
-0.0266886637699441
 33
0.0
 40
0.0
 40
0.0
 40
0.0
 40
0.0
 40
0.1282896066431957
 40
0.2566918152153812
 40
0.3852058623263814
 40
0.51381866076574
 40
0.6425190924699951
 40
0.7713050421614153
 40
0.900181115469423
 40
1.029150374371223
 40
1.029150374371223
 40
1.029150374371223
 40
1.029150374371223
 10
76.99045409643213
 20
12.23674667202377
 30
0.0
 10
76.94770392424334
 20
12.23569109566028
 30
0.0
 10
76.86216640531757
 20
12.23356490596106
 30
0.0
 10
76.73380502201815
 20
12.23033728745795
 30
0.0
 10
76.6053368975563
 20
12.2270691773962
 30
0.0
 10
76.47677032538604
 20
12.22376228161081
 30
0.0
 10
76.34811397361705
 20
12.22042116227931
 30
0.0
 10
76.21937064913026
 20
12.21704878325261
 30
0.0
 10
76.09053848214853
 20
12.21364608856052
 30
0.0
 10
76.0046204474985
 20
12.21135994328625
 30
0.0
 10
75.96164600773182
 20
12.21021260422375
 30
0.0
 11
76.99045409643213
 21
12.23674667202377
 31
0.0
 11
76.862204055132
 21
12.23356058492371
 31
0.0
 11
76.73384241813209
 21
12.23033293482379
 31
0.0
 11
76.60536992633206
 21
12.22706497782374
 31
0.0
 11
76.47679962753182
 21
12.2237587219237
 31
0.0
 11
76.34814257113203
 21
12.22041742902379
 31
0.0
 11
76.21940080693184
 21
12.21704437562371
 31
0.0
 11
76.09056965563195
 21
12.21364216842372
 31
0.0
 11
75.96164600773182
 21
12.21021260422375
 31
0.0
  0
SPLINE
  5
5783C
330
1F
100
AcDbEntity
  8
1
100
AcDbSpline
210
0.0
220
0.0
230
1.0
 70
     8
 71
     3
 72
    15
 73
    11
 74
     9
 42
0.0000000001
 43
0.0000000001
 44
0.000001
 12
-0.9996187572485514
 22
-0.0276105080877133
 32
0.0
 13
-0.9995738757846494
 23
-0.0291901841182039
 33
0.0
 40
0.0
 40
0.0
 40
0.0
 40
0.0
 40
0.1283354155426486
 40
0.2567728937128316
 40
0.3853058315790946
 40
0.5139331379644128
 40
0.6426564717716863
 40
0.7714747182649058
 40
0.9003824744936189
 40
1.029374071479053
 40
1.029374071479053
 40
1.029374071479053
 40
1.029374071479053
 10
75.96164600773182
 20
12.21021260422375
 30
0.0
 10
75.91888384486651
 20
12.20903146888082
 30
0.0
 10
75.83332583198012
 20
12.20665663278316
 30
0.0
 10
75.70494090380339
 20
12.20306066935487
 30
0.0
 10
75.57645957569048
 20
12.19943144924986
 30
0.0
 10
75.44788379937358
 20
12.19577137071675
 30
0.0
 10
75.31921365999517
 20
12.19208403841554
 30
0.0
 10
75.19045072920016
 20
12.18837129712855
 30
0.0
 10
75.06159901975877
 20
12.18463505064252
 30
0.0
 10
74.97566904807945
 20
12.18213090847899
 30
0.0
 10
74.93269017123203
 20
12.18087581232376
 30
0.0
 11
75.96164600773182
 21
12.21021260422375
 31
0.0
 11
75.83335997833183
 21
12.20665249362375
 31
0.0
 11
75.70497285573196
 21
12.20305610302373
 31
0.0
 11
75.57649117023197
 21
12.1994266481237
 31
0.0
 11
75.44791593233185
 21
12.1957671950237
 31
0.0
 11
75.31924541433181
 21
12.19208016052371
 31
0.0
 11
75.19048067653193
 21
12.18836767292376
 31
0.0
 11
75.06162706363193
 21
12.18463202762373
 31
0.0
 11
74.93269017123203
 21
12.18087581232376
 31
0.0
  0
SPLINE
  5
5783D
330
1F
100
AcDbEntity
  8
1
100
AcDbSpline
210
0.0
220
0.0
230
1.0
 70
     8
 71
     3
 72
    15
 73
    11
 74
     9
 42
0.0000000001
 43
0.0000000001
 44
0.000001
 12
-0.9995341523545667
 22
-0.0305201290435991
 32
0.0
 13
-0.9994985880247448
 23
-0.0316634258497375
 33
0.0
 40
0.0
 40
0.0
 40
0.0
 40
0.0
 40
0.1283545482250002
 40
0.2568116738954782
 40
0.3853670982437238
 40
0.5140174891475491
 40
0.6427625600596603
 40
0.7716018809101745
 40
0.9005310218899616
 40
1.029539878204208
 40
1.029539878204208
 40
1.029539878204208
 40
1.029539878204208
 10
74.93269017123203
 20
12.18087581232376
 30
0.0
 10
74.88992525304502
 20
12.17957001319871
 30
0.0
 10
74.80436151879678
 20
12.17694823719375
 30
0.0
 10
74.67596685174726
 20
12.17298889813333
 30
0.0
 10
74.54747432651038
 20
12.16900359082959
 30
0.0
 10
74.41888650692829
 20
12.16499468992074
 30
0.0
 10
74.2902046825393
 20
12.16096423812209
 30
0.0
 10
74.16143048454569
 20
12.15691502640211
 30
0.0
 10
74.03256884466657
 20
12.1528489851355
 30
0.0
 10
73.94663252484156
 20
12.15012969140906
 30
0.0
 10
73.90365113493203
 20
12.14876807062379
 30
0.0
 11
74.93269017123203
 21
12.18087581232376
 31
0.0
 11
74.80439580923212
 21
12.17694550422371
 31
0.0
 11
74.67599971073195
 21
12.17298620292379
 31
0.0
 11
74.54750607923187
 21
12.16900065232372
 31
0.0
 11
74.41891816803195
 21
12.16499161102379
 31
0.0
 11
74.29023618953215
 21
12.16096158292376
 31
0.0
 11
74.16146050633187
 21
12.15691272422376
 31
0.0
 11
74.03259548133201
 21
12.15284729272375
 31
0.0
 11
73.90365113493203
 21
12.14876807062379
 31
0.0
  0
SPLINE
  5
5783E
330
1F
100
AcDbEntity
  8
1
100
AcDbSpline
210
0.0
220
0.0
230
1.0
 70
     8
 71
     3
 72
    65
 73
    61
 74
     0
 42
0.0000000001
 43
0.0000000001
 40
0.9419477497939141
 40
0.9419477497939141
 40
0.9419477497939141
 40
0.9419477497939141
 40
1.18325501640758
 40
1.36448006477373
 40
1.547973306492441
 40
1.733955933042738
 40
1.91932492568833
 40
2.100146633509103
 40
2.187622997150551
 40
2.272487439531325
 40
2.354634843873518
 40
2.435514156910338
 40
2.516960783854464
 40
2.600810153758548
 40
2.68889774845452
 40
2.783059119494629
 40
2.885129886638043
 40
2.996945727104926
 40
3.047118671259485
 40
3.072569920303745
 40
3.098048858233416
 40
3.148676789993535
 40
3.199169925868345
 40
3.249766715896661
 40
3.300310614597601
 40
3.350632794626609
 40
3.375931600850294
 40
3.401469416971781
 40
3.427247291820325
 40
3.452971419375818
 40
3.478239089882622
 40
3.502647499567276
 40
3.574757492423596
 40
3.637601219467498
 40
3.695479133018868
 40
3.752691587595001
 40
3.812631083798102
 40
3.87505336605219
 40
3.938806233820863
 40
4.002737481348662
 40
4.128473863578824
 40
4.252784712384696
 40
4.377617852860025
 40
4.502833392692362
 40
4.627909176444532
 40
4.752883442657235
 40
5.002934766993358
 40
5.252988149918849
 40
5.503042812872905
 40
5.753098964661754
 40
6.00315669723973
 40
6.253215100372284
 40
6.503276845562252
 40
6.753342553412742
 40
7.00340989561648
 40
7.253471114100201
 40
7.50352521845234
 40
7.753585627883567
 40
8.003668049512281
 40
8.25375722195819
 40
8.25375722195819
 40
8.25375722195819
 40
8.25375722195819
 10
77.77530749144535
 20
-12.25506455076217
 30
0.0
 10
77.81549810306296
 20
-12.25654525657083
 30
0.0
 10
77.88587279976809
 20
-12.2591274526911
 30
0.0
 10
77.9868107036632
 20
-12.26278812933
 30
0.0
 10
78.07853539419557
 20
-12.26607298219821
 30
0.0
 10
78.17095203882718
 20
-12.26933357655358
 30
0.0
 10
78.26292428841679
 20
-12.27256178893114
 30
0.0
 10
78.33848854366738
 20
-12.27522519980451
 30
0.0
 10
78.39731160983865
 20
-12.27732184217305
 30
0.0
 10
78.43969883205682
 20
-12.27884842582151
 30
0.0
 10
78.48098650011706
 20
-12.28035631900806
 30
0.0
 10
78.52170469891643
 20
-12.28184920667982
 30
0.0
 10
78.5627067639316
 20
-12.28334169712448
 30
0.0
 10
78.60491038968394
 20
-12.28485093555653
 30
0.0
 10
78.64923326228222
 20
-12.28639418040617
 30
0.0
 10
78.69659305301593
 20
-12.28798892214641
 30
0.0
 10
78.74790743443282
 20
-12.28965269674924
 30
0.0
 10
78.79189600503764
 20
-12.29102353574282
 30
0.0
 10
78.82312169695433
 20
-12.29196983764333
 30
0.0
 10
78.8399657577986
 20
-12.29243691519295
 30
0.0
 10
78.85688672472634
 20
-12.29286469371138
 30
0.0
 10
78.877982482481
 20
-12.29329539573118
 30
0.0
 10
78.90326621762324
 20
-12.29366411148575
 30
0.0
 10
78.92853745725529
 20
-12.29390687622376
 30
0.0
 10
78.95378107734086
 20
-12.29402655129908
 30
0.0
 10
78.97480866896853
 20
-12.2940228983455
 30
0.0
 10
78.99166831590446
 20
-12.29394573316338
 30
0.0
 10
79.00443704503186
 20
-12.2938476310625
 30
0.0
 10
79.01727626948832
 20
-12.2937076373797
 30
0.0
 10
79.03007009071143
 20
-12.29353739356608
 30
0.0
 10
79.04263537677252
 20
-12.29334851781183
 30
0.0
 10
79.0629304196118
 20
-12.29302134147323
 30
0.0
 10
79.08948695013032
 20
-12.29257006878694
 30
0.0
 10
79.12162014400109
 20
-12.29197987210293
 30
0.0
 10
79.15127027297126
 20
-12.29140589793022
 30
0.0
 10
79.18043632969056
 20
-12.29083496096101
 30
0.0
 10
79.21035997680291
 20
-12.29026680344375
 30
0.0
 10
79.24137368086395
 20
-12.2896878347502
 30
0.0
 10
79.27305263836934
 20
-12.28910061243735
 30
0.0
 10
79.31528209802127
 20
-12.28831590399878
 30
0.0
 10
79.3676024814622
 20
-12.28732595744091
 30
0.0
 10
79.4300710343291
 20
-12.28612676849766
 30
0.0
 10
79.49245271557401
 20
-12.2849250602375
 30
0.0
 10
79.55496171624282
 20
-12.28371332629311
 30
0.0
 10
79.61749401803468
 20
-12.28249007027895
 30
0.0
 10
79.7008280403511
 20
-12.28084646274598
 30
0.0
 10
79.80498716816237
 20
-12.27876963692986
 30
0.0
 10
79.92998809909932
 20
-12.27623805931873
 30
0.0
 10
80.05498906677031
 20
-12.27366884235081
 30
0.0
 10
80.17998996544974
 20
-12.27106127330128
 30
0.0
 10
80.30499068189284
 20
-12.26841536101685
 30
0.0
 10
80.42999151035406
 20
-12.26573097047892
 30
0.0
 10
80.55499285465202
 20
-12.26300895844761
 30
0.0
 10
80.67999488049327
 20
-12.26025006212271
 30
0.0
 10
80.80499598127994
 20
-12.25745347661765
 30
0.0
 10
80.9299942159139
 20
-12.2546155334733
 30
0.0
 10
81.05499031642693
 20
-12.25173482692807
 30
0.0
 10
81.17998908205164
 20
-12.24881667501128
 30
0.0
 10
81.30499307391165
 20
-12.24587208302651
 30
0.0
 10
81.38833129811269
 20
-12.24388401484677
 30
0.0
 10
81.43000082543199
 20
-12.2428838492763
 30
0.0
  0
SPLINE
  5
5783F
330
1F
100
AcDbEntity
  8
1
100
AcDbSpline
210
0.0
220
0.0
230
1.0
 70
     8
 71
     3
 72
    65
 73
    61
 74
    59
 42
0.0000000001
 43
0.0000000001
 44
0.000001
 12
0.9993200971720092
 22
0.0368692743097341
 32
0.0
 13
0.9997120686114714
 23
-0.0239954135736991
 33
0.0
 40
0.0
 40
0.0
 40
0.0
 40
0.0
 40
0.1206536181303887
 40
0.2112661423199734
 40
0.3030127630153132
 40
0.3960040761773749
 40
0.4886885726174382
 40
0.579099426825871
 40
0.6228376088411531
 40
0.6652698302473056
 40
0.7063435326433904
 40
0.746783189356129
 40
0.7875065029627408
 40
0.8294311879762968
 40
0.8734749853094706
 40
0.9205556707415288
 40
0.9715910541598766
 40
1.027498974185738
 40
1.052585446149964
 40
1.06531107059223
 40
1.078050539454041
 40
1.103364505060528
 40
1.128611072669644
 40
1.153909467330306
 40
1.179181416322598
 40
1.204342505992045
 40
1.216991908943296
 40
1.229760816855589
 40
1.242649754148547
 40
1.255511817813218
 40
1.268145652969087
 40
1.280349857725569
 40
1.316404853918898
 40
1.347826717266513
 40
1.376765673898575
 40
1.405371901044402
 40
1.435341648974622
 40
1.466552789899927
 40
1.498429223560101
 40
1.530394847086565
 40
1.593263037713248
 40
1.655418461594108
 40
1.717835031247625
 40
1.780442800508818
 40
1.842980691656311
 40
1.905467823945029
 40
2.030493484152749
 40
2.155520173061035
 40
2.280547501109039
 40
2.405575572211329
 40
2.530604431420715
 40
2.655633621642765
 40
2.78066447360189
 40
2.905697280513155
 40
3.030730762208337
 40
3.155761157879
 40
3.28078852843516
 40
3.405818797500218
 40
3.530860026909937
 40
3.655904708460957
 40
3.655904708460957
 40
3.655904708460957
 40
3.655904708460957
 10
77.77530747203195
 20
12.25508851072371
 30
0.0
 10
77.81549800049674
 20
12.25657131450481
 30
0.0
 10
77.88587284737388
 20
12.25914931763913
 30
0.0
 10
77.98681069694589
 20
12.26281132344388
 30
0.0
 10
78.07853539944654
 20
12.26609585059978
 30
0.0
 10
78.1709520407378
 20
12.26935653373814
 30
0.0
 10
78.26292429131092
 20
12.27258472227126
 30
0.0
 10
78.3384885465573
 20
12.2752481387553
 30
0.0
 10
78.39731161299062
 20
12.2773447804241
 30
0.0
 10
78.43969883541603
 20
12.27887136420733
 30
0.0
 10
78.48098650368922
 20
12.28037925736058
 30
0.0
 10
78.52170470267288
 20
12.28187214504211
 30
0.0
 10
78.56270676781832
 20
12.28336463548547
 30
0.0
 10
78.60491039363092
 20
12.28487387391848
 30
0.0
 10
78.64923326621568
 20
12.28641711876824
 30
0.0
 10
78.69659305686366
 20
12.28801186050799
 30
0.0
 10
78.74790743813128
 20
12.28967563510983
 30
0.0
 10
78.79189600857785
 20
12.29104647410236
 30
0.0
 10
78.82312170036107
 20
12.29199277600182
 30
0.0
 10
78.83996576110667
 20
12.29245985355092
 30
0.0
 10
78.85688672788205
 20
12.29288763206799
 30
0.0
 10
78.87798248540207
 20
12.29331833408665
 30
0.0
 10
78.90326622022553
 20
12.29368704983946
 30
0.0
 10
78.92853745951106
 20
12.29392981457565
 30
0.0
 10
78.95378107924455
 20
12.29404948964929
 30
0.0
 10
78.97480867058414
 20
12.29404583669458
 30
0.0
 10
78.99166831730202
 20
12.29396867151161
 30
0.0
 10
79.00443704628276
 20
12.29387056941021
 30
0.0
 10
79.01727627060802
 20
12.29373057572718
 30
0.0
 10
79.03007009171711
 20
12.29356033191229
 30
0.0
 10
79.0426353776794
 20
12.29337145616085
 30
0.0
 10
79.06293042037908
 20
12.29304427980392
 30
0.0
 10
79.08948695073582
 20
12.29259300731271
 30
0.0
 10
79.12162014441832
 20
12.29200281040675
 30
0.0
 10
79.15127027323592
 20
12.29142883628586
 30
0.0
 10
79.18043632980266
 20
12.29085789930292
 30
0.0
 10
79.21035997674334
 20
12.29028974178933
 30
0.0
 10
79.24137368060519
 20
12.28971077309421
 30
0.0
 10
79.27305263788946
 20
12.28912355078117
 30
0.0
 10
79.31528209722478
 20
12.28833884234217
 30
0.0
 10
79.36760248024961
 20
12.28734889578433
 30
0.0
 10
79.43007103258469
 20
12.28614970684225
 30
0.0
 10
79.49245271324253
 20
12.28494799857904
 30
0.0
 10
79.55496171325581
 20
12.28373626464827
 30
0.0
 10
79.61749401431257
 20
12.28251300858909
 30
0.0
 10
79.70082803546461
 20
12.28086940129452
 30
0.0
 10
79.80498716149236
 20
12.2787925752099
 30
0.0
 10
79.92998808978518
 20
12.27626099778169
 30
0.0
 10
80.0549890538573
 20
12.27369178053885
 30
0.0
 10
80.17998994746154
 20
12.27108421265797
 30
0.0
 10
80.30499065607569
 20
12.26843829647171
 30
0.0
 10
80.42999147186492
 20
12.26575392141944
 30
0.0
 10
80.55499278856336
 20
12.26303185383699
 30
0.0
 10
80.67999473356099
 20
12.260273171829
 30
0.0
 10
80.80499566675952
 20
12.25747581340115
 30
0.0
 10
80.92999394347691
 20
12.25464096836404
 30
0.0
 10
81.05499008698087
 20
12.25175966506234
 30
0.0
 10
81.17998898502492
 20
12.24884146433899
 30
0.0
 10
81.30499305618513
 20
12.24589770206478
 30
0.0
 10
81.3883312663445
 20
12.24390745400674
 30
0.0
 10
81.43000082543199
 20
12.24290728772374
 30
0.0
 11
77.77530747203195
 21
12.25508851072371
 31
0.0
 11
77.89588012043214
 21
12.2595088145238
 31
0.0
 11
77.98643316093194
 21
12.26279155832375
 31
0.0
 11
78.07812104373216
 21
12.2660740277237
 31
0.0
 11
78.17105434173209
 21
12.26935830682376
 31
0.0
 11
78.26368161833215
 21
12.27261460892376
 31
0.0
 11
78.35403615733184
 21
12.27580518732375
 31
0.0
 11
78.39774655133215
 21
12.27736403432371
 31
0.0
 11
78.44015124223187
 21
12.27889229542373
 31
0.0
 11
78.48119766753189
 21
12.28038895042371
 31
0.0
 11
78.52161027053217
 21
12.28186791432372
 31
0.0
 11
78.56230672193214
 21
12.28334679932371
 31
0.0
 11
78.60420469253199
 21
12.28484321742374
 31
0.0
 11
78.64822185283196
 21
12.28637478062379
 31
0.0
 11
78.69527587373204
 21
12.28795910112379
 31
0.0
 11
78.74628442583207
 21
12.28961379092371
 31
0.0
 11
78.80216517973213
 21
12.29135646202374
 31
0.0
 11
78.82724050233196
 21
12.2921043131237
 31
0.0
 11
78.83996127903197
 21
12.29245554072375
 31
0.0
 11
78.8526967221319
 21
12.29277579072371
 31
0.0
 11
78.87800535963197
 21
12.29329515982371
 31
0.0
 11
78.90324919103204
 21
12.29366688292376
 31
0.0
 11
78.92854641443182
 21
12.29391037492374
 31
0.0
 11
78.95381808123193
 21
12.29402991952375
 31
0.0
 11
78.97897917003183
 21
12.29402153742379
 31
0.0
 11
78.99162843933209
 21
12.29396333662376
 31
0.0
 11
79.00439696923195
 21
12.29386505582377
 31
0.0
 11
79.01728515993181
 21
12.29372631152378
 31
0.0
 11
79.03014610393211
 21
12.29355659022374
 31
0.0
 11
79.04277853113217
 21
12.29336797092375
 31
0.0
 11
79.05498117103206
 21
12.29317253272373
 31
0.0
 11
79.09103094613192
 21
12.29255894632379
 31
0.0
 11
79.12244753473214
 21
12.29198321102379
 31
0.0
 11
79.15138113883199
 21
12.29142663682379
 31
0.0
 11
79.17998196033204
 21
12.29087053362375
 31
0.0
 11
79.20994628033213
 21
12.29030015612378
 31
0.0
 11
79.24115196543198
 21
12.28971658872379
 31
0.0
 11
79.27302290673196
 21
12.2891248613237
 31
0.0
 11
79.30498299513192
 21
12.28853000362366
 31
0.0
 11
79.36783997003203
 21
12.28734249622371
 31
0.0
 11
79.42998398633199
 21
12.28615168412378
 31
0.0
 11
79.49238896793213
 21
12.28494896842372
 31
0.0
 11
79.55498496673204
 21
12.28373496592374
 31
0.0
 11
79.61751089963218
 21
12.28251199842375
 31
0.0
 11
79.67998588613181
 21
12.28127997572372
 31
0.0
 11
79.80498669253211
 21
12.27878705352376
 31
0.0
 11
79.92998775673186
 21
12.27625573152377
 31
0.0
 11
80.05498868553194
 21
12.27368639632371
 31
0.0
 11
80.17998956723204
 21
12.27107882882379
 31
0.0
 11
80.30499043323198
 21
12.26843289202375
 31
0.0
 11
80.42999081803191
 21
12.26574865542378
 31
0.0
 11
80.554992060132
 21
12.26302676932371
 31
0.0
 11
80.67999446943213
 21
12.26026772472372
 31
0.0
 11
80.804996847432
 21
12.25747049172375
 31
0.0
 11
80.9299952398319
 21
12.25463231312372
 31
0.0
 11
81.05498912333201
 21
12.25175256252376
 31
0.0
 11
81.17998531393187
 21
12.24883631552373
 31
0.0
 11
81.30499180433208
 21
12.2458898129237
 31
0.0
 11
81.43000082543199
 21
12.24290728772374
 31
0.0
  0
SPLINE
  5
57840
330
1F
100
AcDbEntity
  8
1
100
AcDbSpline
210
0.0
220
0.0
230
1.0
 70
     8
 71
     3
 72
    30
 73
    26
 74
    24
 42
0.0000000001
 43
0.0000000001
 44
0.000001
 12
0.5215181867291583
 22
0.8532401660205234
 32
0.0
 13
0.4780875323105111
 23
0.8783121947515281
 33
0.0
 40
0.0
 40
0.0
 40
0.0
 40
0.0
 40
0.0022065053235961
 40
0.0043931567899198
 40
0.0065602879747212
 40
0.0087081556901401
 40
0.0108374657359334
 40
0.0129483876021594
 40
0.0150412107360573
 40
0.0171166279682062
 40
0.0191756102856036
 40
0.021219158144872
 40
0.0232479414647023
 40
0.0252629323674541
 40
0.0272649230446178
 40
0.0292544591247416
 40
0.0312324827989804
 40
0.0331999036153405
 40
0.0351576626761321
 40
0.0371065129093317
 40
0.0390472471695012
 40
0.040980591555978
 40
0.0429073498683344
 40
0.0448283705386163
 40
0.0466620072689272
 40
0.0466620072689272
 40
0.0466620072689272
 40
0.0466620072689272
 10
82.32408783183201
 20
-11.82036442877628
 30
0.0
 10
82.32447140938381
 20
-11.81973686912008
 30
0.0
 10
82.32523376931704
 20
-11.8184865745707
 30
0.0
 10
82.32636815908994
 20
-11.81661705648872
 30
0.0
 10
82.32748839880162
 20
-11.81476182091819
 30
0.0
 10
82.32859477685394
 20
-11.81292054929099
 30
0.0
 10
82.32968755150034
 20
-11.81109296823007
 30
0.0
 10
82.33076698470119
 20
-11.80927879365322
 30
0.0
 10
82.33183333467559
 20
-11.80747774397272
 30
0.0
 10
82.33288699320757
 20
-11.80568930591212
 30
0.0
 10
82.33392846772062
 20
-11.80391275896554
 30
0.0
 10
82.3349582558983
 20
-11.80214738551075
 30
0.0
 10
82.33597684999244
 20
-11.80039246408242
 30
0.0
 10
82.33698470188642
 20
-11.79864732983671
 30
0.0
 10
82.33798223739336
 20
-11.79691135052323
 30
0.0
 10
82.33896987252695
 20
-11.79518389959421
 30
0.0
 10
82.33994803766131
 20
-11.79346431349634
 30
0.0
 10
82.34091722249274
 20
-11.79175181062629
 30
0.0
 10
82.34187787934024
 20
-11.79004566060823
 30
0.0
 10
82.34283043552977
 20
-11.78834516354925
 30
0.0
 10
82.34377527781544
 20
-11.78664967891137
 30
0.0
 10
82.34471279585363
 20
-11.7849585483321
 30
0.0
 10
82.34564338276994
 20
-11.78327109413368
 30
0.0
 10
82.34655421999695
 20
-11.78161070876732
 30
0.0
 10
82.3471537560788
 20
-11.78051209924322
 30
0.0
 10
82.34744596903192
 20
-11.77997526407623
 30
0.0
 11
82.32408783183201
 21
-11.82036442877628
 31
0.0
 11
82.325236508432
 21
-11.81848050067626
 31
0.0
 11
82.32637078923199
 21
-11.81661106487624
 31
0.0
 11
82.32749092043196
 21
-11.81475588907628
 31
0.0
 11
82.32859710663205
 21
-11.81291480567628
 31
0.0
 11
82.329689780732
 21
-11.81108726057627
 31
0.0
 11
82.33076909673195
 21
-11.80927315787627
 31
0.0
 11
82.33183526863195
 21
-11.80747229787627
 31
0.0
 11
82.33288871263198
 21
-11.80568413187629
 31
0.0
 11
82.33392998053204
 21
-11.80390786827624
 31
0.0
 11
82.33495963183214
 21
-11.80214268587625
 31
0.0
 11
82.3359780530318
 21
-11.80038804527621
 31
0.0
 11
82.33698577683208
 21
-11.79864314257625
 31
0.0
 11
82.33798323923201
 21
-11.79690732587627
 31
0.0
 11
82.33897074823198
 21
-11.79518015417622
 31
0.0
 11
82.33994880373211
 21
-11.79346083947629
 31
0.0
 11
82.34091788233218
 21
-11.79174861817628
 31
0.0
 11
82.34187846953181
 21
-11.7900426955762
 31
0.0
 11
82.34283095173214
 21
-11.78834243727621
 31
0.0
 11
82.34377572943186
 21
-11.78664717117621
 31
0.0
 11
82.34471316453209
 21
-11.78495628027625
 31
0.0
 11
82.34564365073197
 21
-11.78326907657626
 31
0.0
 11
82.34656759683185
 21
-11.78158482967623
 31
0.0
 11
82.34744596903192
 21
-11.77997526407623
 31
0.0
  0
SPLINE
  5
57841
330
1F
100
AcDbEntity
  8
1
100
AcDbSpline
210
0.0
220
0.0
230
1.0
 70
     8
 71
     3
 72
    42
 73
    38
 74
    36
 42
0.0000000001
 43
0.0000000001
 44
0.000001
 12
0.5847748923758401
 22
0.8111956146619782
 32
0.0
 13
0.5258557844892641
 23
0.850573743962968
 33
0.0
 40
0.0
 40
0.0
 40
0.0
 40
0.0
 40
0.0021928550738477
 40
0.0043661293286399
 40
0.0065210020731628
 40
0.0086587748219288
 40
0.0107801086307924
 40
0.0128851471182262
 40
0.0149737827751414
 40
0.0170460978889737
 40
0.0191023592704582
 40
0.0211430987867583
 40
0.023169453863033
 40
0.0251821522452353
 40
0.0271815897551164
 40
0.0291683990125763
 40
0.0311437519787511
 40
0.0331086234329914
 40
0.035063977993757
 40
0.0370106733570523
 40
0.0389491418966829
 40
0.0408801039435922
 40
0.0428044458481286
 40
0.0447230198793953
 40
0.0466366347535354
 40
0.048545973650938
 40
0.0504517104033562
 40
0.0523544409699527
 40
0.0542551279530947
 40
0.0561547416349267
 40
0.0580543282037193
 40
0.0599541944347982
 40
0.061854456525287
 40
0.0637555745295734
 40
0.0656586374506318
 40
0.0675642256659292
 40
0.0694727771563255
 40
0.0694727771563255
 40
0.0694727771563255
 40
0.0694727771563255
 10
82.28540110643189
 20
-11.87805140147625
 30
0.0
 10
82.2858285486285
 20
-11.87745845666976
 30
0.0
 10
82.28667847184329
 20
-11.8762770362147
 30
0.0
 10
82.28794442706112
 20
-11.87451006341965
 30
0.0
 10
82.28919626973425
 20
-11.87275557136578
 30
0.0
 10
82.29043465534061
 20
-11.87101275142208
 30
0.0
 10
82.2916600398122
 20
-11.86928107623521
 30
0.0
 10
82.29287258540034
 20
-11.86756038600916
 30
0.0
 10
82.29407241703233
 20
-11.86585073008362
 30
0.0
 10
82.29525941171596
 20
-11.8641519340106
 30
0.0
 10
82.29643393974175
 20
-11.86246390875723
 30
0.0
 10
82.29759643730108
 20
-11.86078618108533
 30
0.0
 10
82.29874739789659
 20
-11.85911813041733
 30
0.0
 10
82.299887290465
 20
-11.85745917410958
 30
0.0
 10
82.30101648352615
 20
-11.85580886449673
 30
0.0
 10
82.30213542514126
 20
-11.85416662875647
 30
0.0
 10
82.30324466753415
 20
-11.85253173136371
 30
0.0
 10
82.30434481805536
 20
-11.85090334033643
 30
0.0
 10
82.30543641993131
 20
-11.84928070669591
 30
0.0
 10
82.30651990885906
 20
-11.84766322695765
 30
0.0
 10
82.30759567122674
 20
-11.84605036257503
 30
0.0
 10
82.30866409453938
 20
-11.84444156423396
 30
0.0
 10
82.30972563826515
 20
-11.84283616238286
 30
0.0
 10
82.31078077288055
 20
-11.8412334594482
 30
0.0
 10
82.3118299265784
 20
-11.83963281113051
 30
0.0
 10
82.31287348783633
 20
-11.83803361830175
 30
0.0
 10
82.31391180764148
 20
-11.83643534206862
 30
0.0
 10
82.31494526088567
 20
-11.83483734830341
 30
0.0
 10
82.31597435269874
 20
-11.83323896905784
 30
0.0
 10
82.3169993143656
 20
-11.8316391827044
 30
0.0
 10
82.31802083180935
 20
-11.83003751954922
 30
0.0
 10
82.31903906265051
 20
-11.82843350885005
 30
0.0
 10
82.32005415624485
 20
-11.82682690706272
 30
0.0
 10
82.32106637194226
 20
-11.82521723164325
 30
0.0
 10
82.32207605373174
 20
-11.82360387078077
 30
0.0
 10
82.32308353405732
 20
-11.82198621452826
 30
0.0
 10
82.32375329088496
 20
-11.82090555003853
 30
0.0
 10
82.32408783183201
 20
-11.82036442877628
 30
0.0
 11
82.28540110643189
 21
-11.87805140147625
 31
0.0
 11
82.28668166633179
 21
-11.87627130777625
 31
0.0
 11
82.28794730293202
 21
-11.87450462787623
 31
0.0
 11
82.28919876673217
 21
-11.87275045397629
 31
0.0
 11
82.29043687113199
 21
-11.8710077732762
 31
0.0
 11
82.29166205183195
 21
-11.86927609047629
 31
0.0
 11
82.292874442732
 21
-11.8675553307763
 31
0.0
 11
82.29407403273217
 21
-11.86584562457634
 31
0.0
 11
82.29526094813195
 21
-11.86414690757621
 31
0.0
 11
82.29643537293213
 21
-11.86245903077625
 31
0.0
 11
82.29759764843198
 21
-11.86078161447634
 31
0.0
 11
82.29874846623216
 21
-11.85911376377621
 31
0.0
 11
82.29988827893203
 21
-11.85745491627634
 31
0.0
 11
82.30101734773189
 21
-11.85580478067626
 31
0.0
 11
82.30213606433199
 21
-11.85416286777624
 31
0.0
 11
82.30324511913204
 21
-11.85252823917628
 31
0.0
 11
82.30434508463213
 21
-11.8509001145762
 31
0.0
 11
82.30543652173196
 21
-11.84927771807625
 31
0.0
 11
82.30651992533195
 21
-11.84766035807624
 31
0.0
 11
82.30759554933184
 21
-11.84604769347626
 31
0.0
 11
82.30866380393218
 21
-11.84443914127629
 31
0.0
 11
82.30972518573208
 21
-11.84283397647627
 31
0.0
 11
82.31078016693208
 21
-11.84123149887622
 31
0.0
 11
82.31182919023195
 21
-11.83963104107627
 31
0.0
 11
82.31287262413207
 21
-11.83803203717625
 31
0.0
 11
82.31391082733216
 21
-11.83643392617622
 31
0.0
 11
82.31494411153198
 21
-11.83483620957625
 31
0.0
 11
82.31597298373207
 21
-11.83323807507625
 31
0.0
 11
82.31699797703186
 21
-11.83163865377625
 31
0.0
 11
82.31801959473205
 21
-11.83003710737622
 31
0.0
 11
82.31903796813185
 21
-11.82843316797627
 31
0.0
 11
82.32005312393198
 21
-11.82682672747628
 31
0.0
 11
82.32106527033193
 21
-11.82521738617626
 31
0.0
 11
82.32207494403201
 21
-11.82360420847621
 31
0.0
 11
82.3230824048319
 21
-11.82198668607626
 31
0.0
 11
82.32408783183201
 21
-11.82036442877628
 31
0.0
  0
SPLINE
  5
57842
330
1F
100
AcDbEntity
  8
1
100
AcDbSpline
210
0.0
220
0.0
230
1.0
 70
     8
 71
     3
 72
    42
 73
    38
 74
    36
 42
0.0000000001
 43
0.0000000001
 44
0.000001
 12
0.644572482870125
 22
0.7645432063177611
 32
0.0
 13
0.5945634191335855
 23
0.8040487178201209
 33
0.0
 40
0.0
 40
0.0
 40
0.0
 40
0.0
 40
0.0021802120418722
 40
0.0043420457869978
 40
0.0064867418036827
 40
0.0086146198478403
 40
0.0107260173558746
 40
0.0128219022324992
 40
0.014902650978167
 40
0.016968107629224
 40
0.0190180906454873
 40
0.0210532072109718
 40
0.0230742823537629
 40
0.0250819089282248
 40
0.0270771423433464
 40
0.0290606434221548
 40
0.0310328680173682
 40
0.0329947531244708
 40
0.0349471546127629
 40
0.0368910035162082
 40
0.0388270179025315
 40
0.0407559342120843
 40
0.0426783857137447
 40
0.0445950624551545
 40
0.046506911503133
 40
0.048415007961889
 40
0.0503203118433994
 40
0.0522231497687394
 40
0.0541237020394702
 40
0.0560225510222637
 40
0.0579207493763968
 40
0.0598188052085778
 40
0.0617171564958503
 40
0.0636166099446403
 40
0.0655182834909762
 40
0.0674225995417353
 40
0.0693300290516845
 40
0.0693300290516845
 40
0.0693300290516845
 40
0.0693300290516845
 10
82.24236301603196
 20
-11.9323906143762
 30
0.0
 10
82.24283145092829
 20
-11.93183499227456
 30
0.0
 10
82.24376339496689
 20
-11.93072760757806
 30
0.0
 10
82.24515272380813
 20
-11.92907077829292
 30
0.0
 10
82.24652792663221
 20
-11.9274248742002
 30
0.0
 10
82.24788945065188
 20
-11.92578945353776
 30
0.0
 10
82.24923768289739
 20
-11.92416414234813
 30
0.0
 10
82.250573019395
 20
-11.92254854941083
 30
0.0
 10
82.25189575107561
 20
-11.92094240978687
 30
0.0
 10
82.25320591699778
 20
-11.91934574738081
 30
0.0
 10
82.25450363380764
 20
-11.91775854985081
 30
0.0
 10
82.25578904426606
 20
-11.91618040430231
 30
0.0
 10
82.2570627976952
 20
-11.91461097768129
 30
0.0
 10
82.25832539915245
 20
-11.91304962602458
 30
0.0
 10
82.25957737696148
 20
-11.91149579490752
 30
0.0
 10
82.26081921028026
 20
-11.90994894860603
 30
0.0
 10
82.26205135412284
 20
-11.9084085825576
 30
0.0
 10
82.26327429932508
 20
-11.90687413746167
 30
0.0
 10
82.26448863128576
 20
-11.90534492674388
 30
0.0
 10
82.26569488481846
 20
-11.90382031676503
 30
0.0
 10
82.2668935659235
 20
-11.90229970179754
 30
0.0
 10
82.2680851145102
 20
-11.90078255036073
 30
0.0
 10
82.26926996131487
 20
-11.89926833562353
 30
0.0
 10
82.27044857522697
 20
-11.89775647147183
 30
0.0
 10
82.27162151468816
 20
-11.89624625483688
 30
0.0
 10
82.272789374392
 20
-11.89473689700884
 30
0.0
 10
82.2739526670432
 20
-11.89322780714977
 30
0.0
 10
82.2751115316778
 20
-11.89171848344787
 30
0.0
 10
82.27626627743893
 20
-11.89020871419706
 30
0.0
 10
82.27741727355226
 20
-11.88869802816262
 30
0.0
 10
82.27856493303454
 20
-11.88718585027413
 30
0.0
 10
82.2797096404256
 20
-11.8856716443943
 30
0.0
 10
82.28085172586316
 20
-11.8841549361727
 30
0.0
 10
82.28199163811211
 20
-11.88263508629643
 30
0.0
 10
82.28312981753537
 20
-11.88111145577591
 30
0.0
 10
82.28426663263121
 20
-11.87958349199513
 30
0.0
 10
82.28502307716144
 20
-11.87856262356018
 30
0.0
 10
82.28540110643189
 20
-11.87805140147625
 30
0.0
 11
82.24236301603196
 21
-11.9323906143762
 31
0.0
 11
82.24376681713193
 21
-11.93072249137625
 31
0.0
 11
82.24515581303194
 21
-11.92906595127621
 31
0.0
 11
82.24653085263208
 21
-11.92742009207629
 31
0.0
 11
82.24789218923206
 21
-11.92578471417627
 31
0.0
 11
82.2492400857318
 21
-11.92415960307627
 31
0.0
 11
82.2505752043321
 21
-11.92254405647625
 31
0.0
 11
82.25189782643202
 21
-11.9209378246762
 31
0.0
 11
82.25320789373199
 21
-11.91934106807625
 31
0.0
 11
82.25450533643197
 21
-11.91775396337627
 31
0.0
 11
82.25579059953203
 21
-11.91617605647624
 31
0.0
 11
82.25706421603218
 21
-11.91460677667621
 31
0.0
 11
82.25832659423213
 21
-11.9130457001763
 31
0.0
 11
82.25957842913203
 21
-11.91149203987626
 31
0.0
 11
82.26082016333203
 21
-11.90994531187621
 31
0.0
 11
82.26205210793205
 21
-11.90840518937622
 31
0.0
 11
82.26327487123217
 21
-11.90687096707629
 31
0.0
 11
82.26448900603191
 21
-11.90534199907628
 31
0.0
 11
82.26569510693208
 21
-11.90381757657624
 31
0.0
 11
82.26689363183186
 21
-11.90229715417624
 31
0.0
 11
82.26808504583187
 21
-11.90078016867622
 31
0.0
 11
82.26926974643196
 21
-11.89926613497627
 31
0.0
 11
82.27044816233206
 21
-11.89775452027626
 31
0.0
 11
82.27162087573196
 21
-11.89624458557623
 31
0.0
 11
82.27278854163206
 21
-11.89473548637622
 31
0.0
 11
82.27395173843206
 21
-11.89322646447621
 31
0.0
 11
82.27511067323211
 21
-11.89171723417629
 31
0.0
 11
82.27626543033194
 21
-11.89020766577627
 31
0.0
 11
82.2774163413319
 21
-11.88869730317626
 31
0.0
 11
82.27856402433189
 21
-11.88718530377625
 31
0.0
 11
82.27970876283189
 21
-11.88567125497624
 31
0.0
 11
82.28085079463198
 21
-11.88415479787628
 31
0.0
 11
82.28199057523216
 21
-11.8826352762762
 31
0.0
 11
82.28312874073209
 21
-11.88111178077625
 31
0.0
 11
82.28426550473205
 21
-11.87958395497625
 31
0.0
 11
82.28540110643189
 21
-11.87805140147625
 31
0.0
  0
SPLINE
  5
57843
330
1F
100
AcDbEntity
  8
1
100
AcDbSpline
210
0.0
220
0.0
230
1.0
 70
     8
 71
     3
 72
    42
 73
    38
 74
    36
 42
0.0000000001
 43
0.0000000001
 44
0.000001
 12
0.7006062732084163
 22
0.7135480712194618
 32
0.0
 13
0.6585192966998246
 23
0.7525638417263805
 33
0.0
 40
0.0
 40
0.0
 40
0.0
 40
0.0
 40
0.002165766427775
 40
0.0043137475547612
 40
0.0064449748026003
 40
0.008560637855278
 40
0.010661853207409
 40
0.0127494211619894
 40
0.0148232541185084
 40
0.0168830262700509
 40
0.0189288622876706
 40
0.0209606482069448
 40
0.0229781140164622
 40
0.0249817917115761
 40
0.0269729260067144
 40
0.0289527104502031
 40
0.0309218338844551
 40
0.0328809803074946
 40
0.0348309355428806
 40
0.0367724862596923
 40
0.038706461687263
 40
0.040633645696962
 40
0.0425548119801749
 40
0.0444703668780654
 40
0.0463812198495724
 40
0.0482878134305145
 40
0.050190787114638
 40
0.0520909662082065
 40
0.0539890587319644
 40
0.055885826566169
 40
0.0577818737587203
 40
0.0596779161510975
 40
0.0615745129904953
 40
0.0634724961069145
 40
0.0653726533779751
 40
0.0672758471266773
 40
0.0691825197816197
 40
0.0691825197816197
 40
0.0691825197816197
 40
0.0691825197816197
 10
82.19528602953188
 20
-11.98307261517627
 30
0.0
 10
82.19579181271376
 20
-11.98255748902386
 30
0.0
 10
82.19679839908417
 20
-11.98153065505082
 30
0.0
 10
82.1982998124181
 20
-11.97999408034027
 30
0.0
 10
82.19978709006751
 20
-11.97846704751342
 30
0.0
 10
82.20126104329199
 20
-11.97694880155035
 30
0.0
 10
82.2027224250869
 20
-11.97543863792222
 30
0.0
 10
82.20417168851236
 20
-11.97393615419372
 30
0.0
 10
82.20560895141398
 20
-11.97244129239954
 30
0.0
 10
82.20703417549101
 20
-11.97095415672459
 30
0.0
 10
82.20844731903708
 20
-11.96947486008602
 30
0.0
 10
82.20984834714693
 20
-11.96800349607511
 30
0.0
 10
82.21123734423599
 20
-11.96654008412841
 30
0.0
 10
82.21261461381208
 20
-11.96508422724597
 30
0.0
 10
82.21398091668959
 20
-11.96363528966597
 30
0.0
 10
82.21533701002455
 20
-11.96219255965266
 30
0.0
 10
82.21668349734159
 20
-11.96075543742392
 30
0.0
 10
82.21802089106143
 20
-11.95932342399155
 30
0.0
 10
82.21934972156327
 20
-11.95789599241575
 30
0.0
 10
82.22067054856143
 20
-11.95647257684623
 30
0.0
 10
82.22198392782059
 20
-11.95505260859212
 30
0.0
 10
82.22329040819557
 20
-11.95363551841697
 30
0.0
 10
82.22459043943104
 20
-11.95222083740592
 30
0.0
 10
82.22588449731665
 20
-11.95080806373087
 30
0.0
 10
82.22717297523832
 20
-11.94939676968744
 30
0.0
 10
82.22845624899798
 20
-11.94798640669236
 30
0.0
 10
82.22973482856446
 20
-11.94657658632863
 30
0.0
 10
82.2310091735501
 20
-11.94516675451919
 30
0.0
 10
82.23227979582134
 20
-11.94375634971064
 30
0.0
 10
82.23354714667607
 20
-11.94234485502724
 30
0.0
 10
82.23481167778208
 20
-11.9409317505322
 30
0.0
 10
82.23607379187285
 20
-11.93951656322139
 30
0.0
 10
82.23733393905968
 20
-11.93809876071972
 30
0.0
 10
82.23859258170705
 20
-11.93667778954867
 30
0.0
 10
82.23985024513149
 20
-11.93525301714103
 30
0.0
 10
82.24110736443458
 20
-11.93382390472229
 30
0.0
 10
82.24194448911999
 20
-11.9328689120089
 30
0.0
 10
82.24236301603196
 20
-11.9323906143762
 30
0.0
 11
82.19528602953188
 21
-11.98307261517627
 31
0.0
 11
82.19680211093191
 21
-11.98152599987625
 31
0.0
 11
82.19830323473207
 21
-11.97998964457625
 31
0.0
 11
82.19979016613207
 21
-11.97846285997624
 31
0.0
 11
82.20126377533189
 21
-11.97694483817625
 31
0.0
 11
82.202724876332
 21
-11.97543481877633
 31
0.0
 11
82.20417405853186
 21
-11.97393226407629
 31
0.0
 11
82.20561129243197
 21
-11.97243727307622
 31
0.0
 11
82.20703638463191
 21
-11.97095011767621
 31
0.0
 11
82.2084494537321
 21
-11.96947074487624
 31
0.0
 11
82.20985045363205
 21
-11.96799927437629
 31
0.0
 11
82.21123923113191
 21
-11.96653593937625
 31
0.0
 11
82.21261619593201
 21
-11.96508038007627
 31
0.0
 11
82.21398222513199
 21
-11.96363173457629
 31
0.0
 11
82.21533815703196
 21
-11.96218917107623
 31
0.0
 11
82.21668448523201
 21
-11.96075221517626
 31
0.0
 11
82.21802169683201
 21
-11.95932039287626
 31
0.0
 11
82.21935034533203
 21
-11.95789315287626
 31
0.0
 11
82.22067098103208
 21
-11.95646993957629
 31
0.0
 11
82.22198417953199
 21
-11.95505016277624
 31
0.0
 11
82.22329048173197
 21
-11.9536332618762
 31
0.0
 11
82.22459041803199
 21
-11.95221868047625
 31
0.0
 11
82.22588426703214
 21
-11.95080612957625
 31
0.0
 11
82.22717264853191
 21
-11.94939494237624
 31
0.0
 11
82.22845586903213
 21
-11.94798478737627
 31
0.0
 11
82.22973434403185
 21
-11.94657520847627
 31
0.0
 11
82.23100862153206
 21
-11.94516559627627
 31
0.0
 11
82.23227916693213
 21
-11.94375542497627
 31
0.0
 11
82.23354647783208
 21
-11.94234412547629
 31
0.0
 11
82.23481094243197
 21
-11.94093124277626
 31
0.0
 11
82.23607302033201
 21
-11.93951623597624
 31
0.0
 11
82.23733306273198
 21
-11.93809867757622
 31
0.0
 11
82.238591598732
 21
-11.93667793377634
 31
0.0
 11
82.23984912343212
 21
-11.93525339967627
 31
0.0
 11
82.24110617653195
 21
-11.93382441077628
 31
0.0
 11
82.24236301603196
 21
-11.9323906143762
 31
0.0
  0
SPLINE
  5
57844
330
1F
100
AcDbEntity
  8
1
100
AcDbSpline
210
0.0
220
0.0
230
1.0
 70
     8
 71
     3
 72
    12
 73
     8
 74
     6
 42
0.0000000001
 43
0.0000000001
 44
0.000001
 12
0.0537566380759419
 22
-0.9985540665696436
 32
0.0
 13
0.0552813878764529
 23
-0.9984708148736514
 33
0.0
 40
0.0
 40
0.0
 40
0.0
 40
0.0
 40
0.2209122770195928
 40
0.4175401307254178
 40
0.5973613852576532
 40
0.7637312137248557
 40
0.9175676701087679
 40
0.9175676701087679
 40
0.9175676701087679
 40
0.9175676701087679
 10
82.25380308263197
 20
-5.144178987076287
 30
0.0
 10
82.25776158307281
 20
-5.217709937933989
 30
0.0
 10
82.26526202309946
 20
-5.356687736332844
 30
0.0
 10
82.27604287811619
 20
-5.555516135639635
 30
0.0
 10
82.285894223764
 20
-5.73618740478156
 30
0.0
 10
82.29502386429862
 20
-5.902613029056112
 30
0.0
 10
82.30090551066018
 20
-6.009186282688602
 30
0.0
 10
82.30374027493189
 20
-6.060386686676253
 30
0.0
 11
82.25380308263197
 21
-5.144178987076287
 31
0.0
 11
82.2657090772318
 21
-5.364770193576276
 31
0.0
 11
82.276357569232
 21
-5.561109494076248
 31
0.0
 11
82.28614912243211
 21
-5.740663962976299
 31
0.0
 11
82.29526143933208
 21
-5.906784062876255
 31
0.0
 11
82.30374027493189
 21
-6.060386686676253
 31
0.0
  0
SPLINE
  5
57845
330
1F
100
AcDbEntity
  8
1
100
AcDbSpline
210
0.0
220
0.0
230
1.0
 70
     8
 71
     3
 72
    41
 73
    37
 74
    35
 42
0.0000000001
 43
0.0000000001
 44
0.000001
 12
0.7525912243647494
 22
0.6584880021755656
 32
0.0
 13
0.7174378700658707
 23
0.6966224964752051
 33
0.0
 40
0.0
 40
0.0
 40
0.0
 40
0.0
 40
0.0022131464720106
 40
0.0044084539595333
 40
0.006586548009865
 40
0.0087490930482861
 40
0.0108982063003758
 40
0.0130344040865204
 40
0.0151572223635205
 40
0.0172660959737814
 40
0.0193612743299418
 40
0.0214430248760099
 40
0.0235112455808439
 40
0.0255659069852016
 40
0.0276080055656237
 40
0.0296384899781409
 40
0.031658067242272
 40
0.0336677690241535
 40
0.035668777398808
 40
0.0376615391708702
 40
0.0396461675698843
 40
0.0416232845536294
 40
0.0435940300390701
 40
0.0455595795148155
 40
0.0475208603184234
 40
0.0494784649021435
 40
0.0514331229201115
 40
0.0533854837567468
 40
0.0553364071442507
 40
0.0572867288695352
 40
0.0592373490081077
 40
0.0611887739120292
 40
0.0631413646081826
 40
0.065096049642191
 40
0.0670536530330611
 40
0.0690151083873427
 40
0.0690151083873427
 40
0.0690151083873427
 40
0.0690151083873427
 10
82.14451248483191
 20
-12.02980659597628
 30
0.0
 10
82.14506768303635
 20
-12.02932081917666
 30
0.0
 10
82.1461728692933
 20
-12.02835234075027
 30
0.0
 10
82.14782189207676
 20
-12.02690285190451
 30
0.0
 10
82.14945605884578
 20
-12.02546201412235
 30
0.0
 10
82.15107650373807
 20
-12.02402890007912
 30
0.0
 10
82.15268432769461
 20
-12.02260259954403
 30
0.0
 10
82.15428009624417
 20
-12.02118266772487
 30
0.0
 10
82.15586370591267
 20
-12.01976925288335
 30
0.0
 10
82.15743498824622
 20
-12.0183625639404
 30
0.0
 10
82.15899395742736
 20
-12.01696264810536
 30
0.0
 10
82.16054074239627
 20
-12.01556944916629
 30
0.0
 10
82.16207540287223
 20
-12.01418297279471
 30
0.0
 10
82.16359817882846
 20
-12.01280306152137
 30
0.0
 10
82.16510956829337
 20
-12.01142932091932
 30
0.0
 10
82.16661024802931
 20
-12.01006118806609
 30
0.0
 10
82.1681009001586
 20
-12.00869808837615
 30
0.0
 10
82.16958226075893
 20
-12.00733939084952
 30
0.0
 10
82.17105499818865
 20
-12.00598451887717
 30
0.0
 10
82.17251955246865
 20
-12.00463309974529
 30
0.0
 10
82.17397622471571
 20
-12.00328488545395
 30
0.0
 10
82.17542548396057
 20
-12.00193946922851
 30
0.0
 10
82.17686805571066
 20
-12.00059620007545
 30
0.0
 10
82.17830473579965
 20
-11.99925435311465
 30
0.0
 10
82.1797361825727
 20
-11.99791332359743
 30
0.0
 10
82.18116294259449
 20
-11.9965726048278
 30
0.0
 10
82.18258549205689
 20
-11.99523175053647
 30
0.0
 10
82.18400436916898
 20
-11.99389025038621
 30
0.0
 10
82.18542013469891
 20
-11.99254756645106
 30
0.0
 10
82.18683340659721
 20
-11.99120309972105
 30
0.0
 10
82.18824471389188
 20
-11.98985632869298
 30
0.0
 10
82.18965446809205
 20
-11.98850683803303
 30
0.0
 10
82.19106308510276
 20
-11.98715420339155
 30
0.0
 10
82.19247105436124
 20
-11.98579792420165
 30
0.0
 10
82.19387899909419
 20
-11.98443736393278
 30
0.0
 10
82.19481695541469
 20
-11.98352807981814
 30
0.0
 10
82.19528602953188
 20
-11.98307261517627
 30
0.0
 11
82.14451248483191
 21
-12.02980659597628
 31
0.0
 11
82.14617695503193
 21
-12.02834798707627
 31
0.0
 11
82.147825784632
 21
-12.02689861127621
 31
0.0
 11
82.14945948373202
 21
-12.02545810687624
 31
0.0
 11
82.15107933723198
 21
-12.0240254200763
 31
0.0
 11
82.15268696193197
 21
-12.02259918887623
 31
0.0
 11
82.15428277103184
 21
-12.02117910687624
 31
0.0
 11
82.15586644463201
 21
-12.01976551857629
 31
0.0
 11
82.15743758933195
 21
-12.01835883797625
 31
0.0
 11
82.15899641963188
 21
-12.01695893687625
 31
0.0
 11
82.16054316243207
 21
-12.01556567387624
 31
0.0
 11
82.16207776943202
 21
-12.01417915407623
 31
0.0
 11
82.16360024643199
 21
-12.01279943417623
 31
0.0
 11
82.16511135813197
 21
-12.01142588047625
 31
0.0
 11
82.16661182973211
 21
-12.01005788687629
 31
0.0
 11
82.16810220443198
 21
-12.00869500627627
 31
0.0
 11
82.16958326153189
 21
-12.00733656867621
 31
0.0
 11
82.17105588693199
 21
-12.00598179777628
 31
0.0
 11
82.172520421532
 21
-12.00463041087627
 31
0.0
 11
82.17397695993213
 21
-12.00328235027629
 31
0.0
 11
82.175425968632
 21
-12.00193721117623
 31
0.0
 11
82.17686829073182
 21
-12.0005942331762
 31
0.0
 11
82.17830479033182
 21
-11.99925262627627
 31
0.0
 11
82.17973614583206
 21
-11.99791176527625
 31
0.0
 11
82.18116278763181
 21
-11.99657125017629
 31
0.0
 11
82.18258524343196
 21
-11.9952305842763
 31
0.0
 11
82.18400397933192
 21
-11.99388932267626
 31
0.0
 11
82.18541961113215
 21
-11.99254687277621
 31
0.0
 11
82.18683273333182
 21
-11.99120265447627
 31
0.0
 11
82.188243983132
 21
-11.98985603947633
 31
0.0
 11
82.1896537093321
 21
-11.98850666777625
 31
0.0
 11
82.19106215343208
 21
-11.98715427767624
 31
0.0
 11
82.19246996353195
 21
-11.98579821177625
 31
0.0
 11
82.19387770793195
 21
-11.98443788077625
 31
0.0
 11
82.19528602953188
 21
-11.98307261517627
 31
0.0
  0
SPLINE
  5
57846
330
1F
100
AcDbEntity
  8
1
100
AcDbSpline
210
0.0
220
0.0
230
1.0
 70
     8
 71
     3
 72
    41
 73
    37
 74
    35
 42
0.0000000001
 43
0.0000000001
 44
0.000001
 12
0.800265348110911
 22
0.599646039437369
 32
0.0
 13
0.771091088120963
 23
0.6367248493819205
 33
0.0
 40
0.0
 40
0.0
 40
0.0
 40
0.0
 40
0.0021967030596154
 40
0.0043767393203203
 40
0.0065412445039835
 40
0.0086912826736584
 40
0.0108282574953528
 40
0.0129523468078926
 40
0.0150634411796084
 40
0.0171616651001955
 40
0.0192477565458635
 40
0.0213216058639687
 40
0.0233829993360802
 40
0.0254320918441908
 40
0.027469774584922
 40
0.0294962891478462
 40
0.0315117982814013
 40
0.0335167929394464
 40
0.0355125521576582
 40
0.0375001959782134
 40
0.0394807500872503
 40
0.041454730492325
 40
0.0434229657324253
 40
0.0453860894752427
 40
0.0473450310562928
 40
0.0493005086178789
 40
0.0512534206975691
 40
0.0532042253621373
 40
0.0551536696267483
 40
0.0571026535419523
 40
0.0590521683900669
 40
0.0610032645711943
 40
0.0629564409717369
 40
0.0649119100217667
 40
0.066870205532958
 40
0.0688322683782376
 40
0.0688322683782376
 40
0.0688322683782376
 40
0.0688322683782376
 10
82.09039925313209
 20
-12.07233612577622
 30
0.0
 10
82.09098523491162
 20
-12.07189704434637
 30
0.0
 10
82.09215213949823
 20
-12.07102139441812
 30
0.0
 10
82.09389429567147
 20
-12.06971024847774
 30
0.0
 10
82.09562220020734
 20
-12.0684060371191
 30
0.0
 10
82.09733683784476
 20
-12.06710807831129
 30
0.0
 10
82.09903893517106
 20
-12.06581587770952
 30
0.0
 10
82.10072890481205
 20
-12.06452917418289
 30
0.0
 10
82.10240681940218
 20
-12.06324796376171
 30
0.0
 10
82.10407289981139
 20
-12.06197212879527
 30
0.0
 10
82.10572736601466
 20
-12.06070155043019
 30
0.0
 10
82.10737034792691
 20
-12.05943617748531
 30
0.0
 10
82.10900182157889
 20
-12.05817607736483
 30
0.0
 10
82.11062202706875
 20
-12.05692111344237
 30
0.0
 10
82.11223132335886
 20
-12.05567105455896
 30
0.0
 10
82.11383007005963
 20
-12.05442566597824
 30
0.0
 10
82.11541852052187
 20
-12.05318479352354
 30
0.0
 10
82.11699719943112
 20
-12.05194806848786
 30
0.0
 10
82.11856688015506
 20
-12.05071492205249
 30
0.0
 10
82.12012847274605
 20
-12.04948467075607
 30
0.0
 10
82.12168268399386
 20
-12.04825678404469
 30
0.0
 10
82.12323014172511
 20
-12.04703078809464
 30
0.0
 10
82.12477136896803
 20
-12.04580628718037
 30
0.0
 10
82.12630699429041
 20
-12.04458279689297
 30
0.0
 10
82.12783761487855
 20
-12.04335985246439
 30
0.0
 10
82.12936389422452
 20
-12.04213693065898
 30
0.0
 10
82.13088637052988
 20
-12.04091360309979
 30
0.0
 10
82.13240558714677
 20
-12.03968943247145
 30
0.0
 10
82.13392208549477
 20
-12.03846397828226
 30
0.0
 10
82.13543654253294
 20
-12.03723668502104
 30
0.0
 10
82.13694971054179
 20
-12.03600692955479
 30
0.0
 10
82.13846223461031
 20
-12.03477416895038
 30
0.0
 10
82.13997455579919
 20
-12.03353802097436
 30
0.0
 10
82.14148698002828
 20
-12.03229821022464
 30
0.0
 10
82.14299992541066
 20
-12.03105436598483
 30
0.0
 10
82.14400817510716
 20
-12.03022302736616
 30
0.0
 10
82.14451248483191
 20
-12.02980659597628
 30
0.0
 11
82.09039925313209
 21
-12.07233612577622
 31
0.0
 11
82.09215626363198
 21
-12.07101763877628
 31
0.0
 11
82.09389809253208
 21
-12.06970669997625
 31
0.0
 11
82.09562567903185
 21
-12.06840267417615
 31
0.0
 11
82.09733990113182
 21
-12.06710496397622
 31
0.0
 11
82.09904190353199
 21
-12.06581276157621
 31
0.0
 11
82.1007318514321
 21
-12.06452599617623
 31
0.0
 11
82.10240968103198
 21
-12.06324477037626
 31
0.0
 11
82.10407551453181
 21
-12.06196904487623
 31
0.0
 11
82.10572995993198
 21
-12.06069840567622
 31
0.0
 11
82.10737295173203
 21
-12.05943295337627
 31
0.0
 11
82.1090043423319
 21
-12.05817285247624
 31
0.0
 11
82.11062427613205
 21
-12.05691804247621
 31
0.0
 11
82.11223347813211
 21
-12.05566800997624
 31
0.0
 11
82.11383215803198
 21
-12.05442263707627
 31
0.0
 11
82.11542046263184
 21
-12.05318185337623
 31
0.0
 11
82.11699879643196
 21
-12.05194538517625
 31
0.0
 11
82.11856818153183
 21
-12.0507124691762
 31
0.0
 11
82.12012951093198
 21
-12.04948243507627
 31
0.0
 11
82.12168359983207
 21
-12.04825466627633
 31
0.0
 11
82.12323086053197
 21
-12.04702885837625
 31
0.0
 11
82.12477194813208
 21
-12.04580451017622
 31
0.0
 11
82.12630736273196
 21
-12.04458123867627
 31
0.0
 11
82.12783783273199
 21
-12.04335847297622
 31
0.0
 11
82.12936391883204
 21
-12.04213577067625
 31
0.0
 11
82.13088631973187
 21
-12.04091257317626
 31
0.0
 11
82.13240538813193
 21
-12.03968859457629
 31
0.0
 11
82.13392169963208
 21
-12.03846336517628
 31
0.0
 11
82.13543594593193
 21
-12.03723631557622
 31
0.0
 11
82.1369488861319
 21
-12.0360068147763
 31
0.0
 11
82.13846132133198
 21
-12.03477418987629
 31
0.0
 11
82.13997362193186
 21
-12.03353811267627
 31
0.0
 11
82.14148593483196
 21
-12.0322984343762
 31
0.0
 11
82.142998654032
 21
-12.03105480087626
 31
0.0
 11
82.14451248483191
 21
-12.02980659597628
 31
0.0
  0
SPLINE
  5
57847
330
1F
100
AcDbEntity
  8
1
100
AcDbSpline
210
0.0
220
0.0
230
1.0
 70
     8
 71
     3
 72
    41
 73
    37
 74
    35
 42
0.0000000001
 43
0.0000000001
 44
0.000001
 12
0.843390315682342
 22
0.5373013822923216
 32
0.0
 13
0.8193082197580736
 23
0.5733533300128783
 33
0.0
 40
0.0
 40
0.0
 40
0.0
 40
0.0
 40
0.0021816768942865
 40
0.0043470923843446
 40
0.0064974802810833
 40
0.0086339172923161
 40
0.010757470431142
 40
0.0128689863916122
 40
0.0149689940869029
 40
0.0170579403889208
 40
0.0191360175407774
 40
0.0212028933592348
 40
0.0232582328325045
 40
0.0253020331568583
 40
0.0273350897624726
 40
0.0293575183345318
 40
0.0313693897797864
 40
0.0333710309827818
 40
0.035363726392867
 40
0.0373484893153031
 40
0.0393265183654595
 40
0.0412982975625927
 40
0.0432644134671281
 40
0.0452257134506409
 40
0.0471829381928534
 40
0.0491369190002904
 40
0.0510882688720939
 40
0.053037775968486
 40
0.0549859536322613
 40
0.0569338151740182
 40
0.0588822129548966
 40
0.0608322085360196
 40
0.0627841766737169
 40
0.0647383148724868
 40
0.066695542880603
 40
0.0686566185808812
 40
0.0686566185808812
 40
0.0686566185808812
 40
0.0686566185808812
 10
82.03329850323189
 20
-12.1104477743763
 30
0.0
 10
82.03391183828671
 20
-12.11005703503929
 30
0.0
 10
82.03513342812653
 20
-12.10927766995891
 30
0.0
 10
82.03695778122357
 20
-12.10811038941838
 30
0.0
 10
82.03876792156052
 20
-12.10694887902565
 30
0.0
 10
82.04056481909413
 20
-12.10579257250691
 30
0.0
 10
82.04234933238002
 20
-12.10464096861531
 30
0.0
 10
82.0441221639893
 20
-12.10349366099609
 30
0.0
 10
82.04588384099929
 20
-12.10235035241624
 30
0.0
 10
82.04763470612034
 20
-12.10121086213419
 30
0.0
 10
82.04937486074186
 20
-12.10007516467806
 30
0.0
 10
82.05110418809978
 20
-12.09894337704051
 30
0.0
 10
82.05282251772576
 20
-12.09781565274252
 30
0.0
 10
82.05452999380076
 20
-12.09669193954926
 30
0.0
 10
82.05622688538028
 20
-12.09557210155097
 30
0.0
 10
82.05791348113894
 20
-12.09445598781815
 30
0.0
 10
82.05958993894091
 20
-12.09334353262957
 30
0.0
 10
82.06125674058137
 20
-12.09223445368431
 30
0.0
 10
82.06291462750403
 20
-12.09112829171624
 30
0.0
 10
82.06456458010325
 20
-12.09002442193562
 30
0.0
 10
82.0662073540584
 20
-12.08892236340276
 30
0.0
 10
82.06784358461186
 20
-12.08782171091076
 30
0.0
 10
82.06947380803626
 20
-12.08672212183396
 30
0.0
 10
82.07109862968014
 20
-12.08562320291
 30
0.0
 10
82.07271872037347
 20
-12.08452451203547
 30
0.0
 10
82.07433468412455
 20
-12.08342564774105
 30
0.0
 10
82.07594713599519
 20
-12.08232619665338
 30
0.0
 10
82.0775566014953
 20
-12.08122580220035
 30
0.0
 10
82.07916371437978
 20
-12.08012402971738
 30
0.0
 10
82.08076912383807
 20
-12.0790204292316
 30
0.0
 10
82.08237362712759
 20
-12.07791444361609
 30
0.0
 10
82.08397784357305
 20
-12.07680563270602
 30
0.0
 10
82.08558221085628
 20
-12.07569367752003
 30
0.0
 10
82.08718712638825
 20
-12.07457828401007
 30
0.0
 10
82.08879309073086
 20
-12.0734590829544
 30
0.0
 10
82.08986367798514
 20
-12.07271092220392
 30
0.0
 10
82.09039925313209
 20
-12.07233612577622
 30
0.0
 11
82.03329850323189
 21
-12.1104477743763
 31
0.0
 11
82.03513773463191
 21
-12.10927434537629
 31
0.0
 11
82.03696172453192
 21
-12.1081072691762
 31
0.0
 11
82.03877153903205
 21
-12.10694592847633
 31
0.0
 11
82.04056810853217
 21
-12.1057897852763
 31
0.0
 11
82.04235235223199
 21
-12.10463830197622
 31
0.0
 11
82.04412500133186
 21
-12.10349105587627
 31
0.0
 11
82.04588651813196
 21
-12.10234779357628
 31
0.0
 11
82.04763729463184
 21
-12.10120830397622
 31
0.0
 11
82.04937750843191
 21
-12.10007251327627
 31
0.0
 11
82.05110689793196
 21
-12.09894063417627
 31
0.0
 11
82.05282520003198
 21
-12.09781288217627
 31
0.0
 11
82.05453242973181
 21
-12.09668929097629
 31
0.0
 11
82.05622926823208
 21
-12.09556945447625
 31
0.0
 11
82.05791582773191
 21
-12.09445333837627
 31
0.0
 11
82.05959218293196
 21
-12.09334093277627
 31
0.0
 11
82.0612586212319
 21
-12.09223208527621
 31
0.0
 11
82.06291622533218
 21
-12.09112611007626
 31
0.0
 11
82.06456584903207
 21
-12.09002246677627
 31
0.0
 11
82.0662084971318
 21
-12.08892050737634
 31
0.0
 11
82.06784457833192
 21
-12.08781997797627
 31
0.0
 11
82.06947458483183
 21
-12.0867205650762
 31
0.0
 11
82.07109922333211
 21
-12.08562180677629
 31
0.0
 11
82.07271910953204
 21
-12.08452329707629
 31
0.0
 11
82.07433493213192
 21
-12.08342457617627
 31
0.0
 11
82.07594719693203
 21
-12.08232530357625
 31
0.0
 11
82.0775565526319
 21
-12.08122503747629
 31
0.0
 11
82.07916341883196
 21
-12.08012348797623
 31
0.0
 11
82.08076862553207
 21
-12.07902007967627
 31
0.0
 11
82.08237286723216
 21
-12.07791432427629
 31
0.0
 11
82.08397700793193
 21
-12.07680561087622
 31
0.0
 11
82.08558134413214
 21
-12.07569371557625
 31
0.0
 11
82.08718602553199
 21
-12.0745785139762
 31
0.0
 11
82.08879179333189
 21
-12.07345946737629
 31
0.0
 11
82.09039925313209
 21
-12.07233612577622
 31
0.0
  0
SPLINE
  5
57848
330
1F
100
AcDbEntity
  8
1
100
AcDbSpline
210
0.0
220
0.0
230
1.0
 70
     8
 71
     3
 72
    41
 73
    37
 74
    35
 42
0.0000000001
 43
0.0000000001
 44
0.000001
 12
0.881731776567252
 22
0.4717510722738825
 32
0.0
 13
0.8619662190229442
 23
0.5069657160630193
 33
0.0
 40
0.0
 40
0.0
 40
0.0
 40
0.0
 40
0.0021649091964279
 40
0.004315187689422
 40
0.0064512015390078
 40
0.0085736064647485
 40
0.0106836565739275
 40
0.0127824776811783
 40
0.014871248772539
 40
0.0169508710683117
 40
0.0190213711920181
 40
0.0210817208907521
 40
0.0231312002082588
 40
0.0251691497050238
 40
0.0271957493410707
 40
0.029211654060273
 40
0.0312176957877801
 40
0.0332149285465403
 40
0.0352040150521754
 40
0.0371856372948056
 40
0.0391606535127484
 40
0.0411295512282731
 40
0.0430929335807445
 40
0.0450516693162237
 40
0.047006590148814
 40
0.0489584927334556
 40
0.0509080079072001
 40
0.0528558235152739
 40
0.0548026567625283
 40
0.0567492004026812
 40
0.0586962103225473
 40
0.0606443291449588
 40
0.0625942497590288
 40
0.0645465660484077
 40
0.0665023305301217
 40
0.0684624984207554
 40
0.0684624984207554
 40
0.0684624984207554
 40
0.0684624984207554
 10
81.97359395363196
 20
-12.14394171377623
 30
0.0
 10
81.97423024337593
 20
-12.14360128103129
 30
0.0
 10
81.97549810389716
 20
-12.14292193303379
 30
0.0
 10
81.97739229997001
 20
-12.14190397143235
 30
0.0
 10
81.97927277304211
 20
-12.14089040727427
 30
0.0
 10
81.98114020957495
 20
-12.13988092208484
 30
0.0
 10
81.98299551687899
 20
-12.13887507304545
 30
0.0
 10
81.98483975307988
 20
-12.13787232939074
 30
0.0
 10
81.98667387035357
 20
-12.13687221156132
 30
0.0
 10
81.98849849699684
 20
-12.13587441122516
 30
0.0
 10
81.99031361476386
 20
-12.13487897106932
 30
0.0
 10
81.99211873229911
 20
-12.13388619478675
 30
0.0
 10
81.99391315954256
 20
-12.13289649918604
 30
0.0
 10
81.9956965606882
 20
-12.13191010931845
 30
0.0
 10
81.99746900157903
 20
-12.13092702935259
 30
0.0
 10
81.99923098220029
 20
-12.12994702111158
 30
0.0
 10
82.00098325564249
 20
-12.12896970192449
 30
0.0
 10
82.00272657529671
 20
-12.12799468420076
 30
0.0
 10
82.00446164904894
 20
-12.1270216012513
 30
0.0
 10
82.00618912618052
 20
-12.12605011519767
 30
0.0
 10
82.00790960344034
 20
-12.12507991378857
 30
0.0
 10
82.00962365318559
 20
-12.12411069494445
 30
0.0
 10
82.01133184942591
 20
-12.12314215231674
 30
0.0
 10
82.01303486439224
 20
-12.12217392011587
 30
0.0
 10
82.01473342456962
 20
-12.12120559741421
 30
0.0
 10
82.01642818570917
 20
-12.12023681929651
 30
0.0
 10
82.01811976025703
 20
-12.11926724169916
 30
0.0
 10
82.01980873610422
 20
-12.11829653096058
 30
0.0
 10
82.02149571743802
 20
-12.11732434035568
 30
0.0
 10
82.02318132644974
 20
-12.11635030898372
 30
0.0
 10
82.02486616211785
 20
-12.11537408548599
 30
0.0
 10
82.02655082180218
 20
-12.11439531565048
 30
0.0
 10
82.02823585454098
 20
-12.11341366964103
 30
0.0
 10
82.02992192579495
 20
-12.11242874606671
 30
0.0
 10
82.0316097744984
 20
-12.11144009611402
 30
0.0
 10
82.03273530373008
 20
-12.11077902034907
 30
0.0
 10
82.03329850323189
 20
-12.1104477743763
 30
0.0
 11
81.97359395363196
 21
-12.14394171377623
 31
0.0
 11
81.97550218743208
 21
-12.14291923037623
 31
0.0
 11
81.97739626493193
 21
-12.14190131187629
 31
0.0
 11
81.97927652963199
 21
-12.14088783037627
 31
0.0
 11
81.98114357883197
 21
-12.13987851817623
 31
0.0
 11
81.98299853413208
 21
-12.13887281897629
 31
0.0
 11
81.98484240153197
 21
-12.1378702322763
 31
0.0
 11
81.98667623093205
 21
-12.13687022687625
 31
0.0
 11
81.98850082593208
 21
-12.13587239997625
 31
0.0
 11
81.99031622123198
 21
-12.13487676547626
 31
0.0
 11
81.99212152763221
 21
-12.13388384627623
 31
0.0
 11
81.99391612803196
 21
-12.13289402017628
 31
0.0
 11
81.99569945983194
 21
-12.13190763837625
 31
0.0
 11
81.99747169573219
 21
-12.13092464707628
 31
0.0
 11
81.99923342303192
 21
-12.12994476057625
 31
0.0
 11
82.00098538183192
 21
-12.12896760367627
 31
0.0
 11
82.00272850413194
 21
-12.12799268917624
 31
0.0
 11
82.00446337833183
 21
-12.12701971707625
 31
0.0
 11
82.00619060813187
 21
-12.12604837517628
 31
0.0
 11
82.00791094903207
 21
-12.12507826157625
 31
0.0
 11
82.00962483213197
 21
-12.12410915377629
 31
0.0
 11
82.01133278773204
 21
-12.12314076977625
 31
0.0
 11
82.01303557573192
 21
-12.12217269397624
 31
0.0
 11
82.01473392163189
 21
-12.12120452517624
 31
0.0
 11
82.01642851873202
 21
-12.12023587647624
 31
0.0
 11
82.01811991443197
 21
-12.11926643987621
 31
0.0
 11
82.01980870423199
 21
-12.11829587667623
 31
0.0
 11
82.02149550713192
 21
-12.11732383017622
 31
0.0
 11
82.02318091953202
 21
-12.11634995347626
 31
0.0
 11
82.02486559043199
 21
-12.1153738645763
 31
0.0
 11
82.02655006923192
 21
-12.11439523557621
 31
0.0
 11
82.02823494703215
 21
-12.11341371037625
 31
0.0
 11
82.02992072773213
 21
-12.11242897997621
 31
0.0
 11
82.03160830933212
 21
-12.11144050087623
 31
0.0
 11
82.03329850323189
 21
-12.1104477743763
 31
0.0
  0
SPLINE
  5
57849
330
1F
100
AcDbEntity
  8
1
100
AcDbSpline
210
0.0
220
0.0
230
1.0
 70
     8
 71
     3
 72
    40
 73
    36
 74
    34
 42
0.0000000001
 43
0.0000000001
 44
0.000001
 12
0.9829897778219701
 22
0.1836602752298757
 32
0.0
 13
0.9755011572322501
 23
0.2199943004683095
 33
0.0
 40
0.0
 40
0.0
 40
0.0
 40
0.0
 40
0.0021557349551251
 40
0.0042994647909523
 40
0.0064323604603613
 40
0.0085556510871188
 40
0.0106701178927658
 40
0.0127767774775752
 40
0.0148765180154903
 40
0.0169692147624612
 40
0.0190548468340264
 40
0.0211338300904913
 40
0.023205682767666
 40
0.0252695835675879
 40
0.0273248589978503
 40
0.0293718896264264
 40
0.0314110862472385
 40
0.0334426628597278
 40
0.0354673152098408
 40
0.0374859476565843
 40
0.0394988570754857
 40
0.0415064551757081
 40
0.0435098718650207
 40
0.045509921113016
 40
0.0475076742916899
 40
0.0495037551839697
 40
0.0514991038895984
 40
0.0534942838975776
 40
0.0554897628785785
 40
0.057486496002584
 40
0.0594849522524742
 40
0.0614858191937991
 40
0.0634899050447033
 40
0.0654978452310393
 40
0.0675106811010354
 40
0.0675106811010354
 40
0.0675106811010354
 40
0.0675106811010354
 10
81.71726061703202
 20
-12.22863758727621
 30
0.0
 10
81.71796697217359
 20
-12.22850561298449
 30
0.0
 10
81.71937558747368
 20
-12.22824153494829
 30
0.0
 10
81.7214825101812
 20
-12.22784387920549
 30
0.0
 10
81.72357832476199
 20
-12.22744568915294
 30
0.0
 10
81.72566407791681
 20
-12.22704680956679
 30
0.0
 10
81.7277407649774
 20
-12.22664708965934
 30
0.0
 10
81.72980926884315
 20
-12.22624639536948
 30
0.0
 10
81.73187017523094
 20
-12.22584464593353
 30
0.0
 10
81.733923730048
 20
-12.22544182443894
 30
0.0
 10
81.73597002463134
 20
-12.22503794348554
 30
0.0
 10
81.73800903352434
 20
-12.22463303811858
 30
0.0
 10
81.74004046969868
 20
-12.22422719559486
 30
0.0
 10
81.74206369051171
 20
-12.22382057625549
 30
0.0
 10
81.74407833571342
 20
-12.22341328631791
 30
0.0
 10
81.7460844478353
 20
-12.22300535132075
 30
0.0
 10
81.74808235915486
 20
-12.22259673671075
 30
0.0
 10
81.75007250459101
 20
-12.22218738508158
 30
0.0
 10
81.75205547980443
 20
-12.22177720353991
 30
0.0
 10
81.75403190694373
 20
-12.22136609052512
 30
0.0
 10
81.75600231495138
 20
-12.22095396098711
 30
0.0
 10
81.75796730592844
 20
-12.22054071213549
 30
0.0
 10
81.75992765005219
 20
-12.22012620259394
 30
0.0
 10
81.76188433185689
 20
-12.21971024160683
 30
0.0
 10
81.76383817002534
 20
-12.21929266939156
 30
0.0
 10
81.76579002360824
 20
-12.2188733137236
 30
0.0
 10
81.76774058542378
 20
-12.21845203447265
 30
0.0
 10
81.76969049680042
 20
-12.2180286994959
 30
0.0
 10
81.77164040342359
 20
-12.21760317295801
 30
0.0
 10
81.77359091960466
 20
-12.21717532294482
 30
0.0
 10
81.77554273064766
 20
-12.21674499904554
 30
0.0
 10
81.77749647341864
 20
-12.21631205865307
 30
0.0
 10
81.77945283832537
 20
-12.21587634428866
 30
0.0
 10
81.7814126301555
 20
-12.21543766977513
 30
0.0
 10
81.78272021142516
 20
-12.21514351781596
 30
0.0
 10
81.78337471933195
 20
-12.21499591367623
 30
0.0
 11
81.71726061703202
 21
-12.22863758727621
 31
0.0
 11
81.71937943973217
 21
-12.2282403625762
 31
0.0
 11
81.72148597863202
 21
-12.22784276857621
 31
0.0
 11
81.72358139003199
 21
-12.22744463697629
 31
0.0
 11
81.725666886432
 21
-12.22704578277628
 31
0.0
 11
81.72774323943214
 21
-12.22664609927628
 31
0.0
 11
81.72981145103198
 21
-12.22624543077629
 31
0.0
 11
81.73187239643198
 21
-12.22584364167628
 31
0.0
 11
81.73392595613199
 21
-12.22544078707634
 31
0.0
 11
81.73597211273181
 21
-12.22503690247626
 31
0.0
 11
81.73801127713204
 21
-12.22463193737624
 31
0.0
 11
81.74004297983197
 21
-12.22422601577622
 31
0.0
 11
81.74206641893215
 21
-12.22381933047629
 31
0.0
 11
81.74408093813189
 21
-12.22341204807625
 31
0.0
 11
81.74608691463209
 21
-12.22300412747628
 31
0.0
 11
81.74808475483201
 21
-12.22259551897625
 31
0.0
 11
81.75007467213209
 21
-12.22218621087629
 31
0.0
 11
81.75205735143208
 21
-12.22177609217621
 31
0.0
 11
81.75403368123216
 21
-12.22136500587621
 31
0.0
 11
81.75600395473201
 21
-12.22095291567629
 31
0.0
 11
81.75796857723208
 21
-12.22053975997627
 31
0.0
 11
81.75992865623198
 21
-12.22012532607627
 31
0.0
 11
81.76188498933198
 21
-12.21970946257627
 31
0.0
 11
81.7638386250319
 21
-12.21929196017626
 31
0.0
 11
81.76579017333187
 21
-12.21887269917621
 31
0.0
 11
81.76774055283203
 21
-12.21845149017625
 31
0.0
 11
81.76969031333191
 21
-12.21802821997627
 31
0.0
 11
81.77163991043199
 21
-12.21760279297629
 31
0.0
 11
81.77359027553212
 21
-12.21717500727627
 31
0.0
 11
81.77554186433189
 21
-12.21674476137625
 31
0.0
 11
81.77749534553186
 21
-12.2163119045762
 31
0.0
 11
81.77945150493201
 21
-12.21587625687621
 31
0.0
 11
81.78141095893215
 21
-12.21543767247621
 31
0.0
 11
81.78337471933195
 21
-12.21499591367623
 31
0.0
  0
SPLINE
  5
5784A
330
1F
100
AcDbEntity
  8
1
100
AcDbSpline
210
0.0
220
0.0
230
1.0
 70
     8
 71
     3
 72
    41
 73
    37
 74
    35
 42
0.0000000001
 43
0.0000000001
 44
0.000001
 12
0.9943769463696765
 22
0.1058984821823119
 32
0.0
 13
0.9894598742051009
 23
0.1448073110655193
 33
0.0
 40
0.0
 40
0.0
 40
0.0
 40
0.0
 40
0.0020994898589587
 40
0.0041893106132882
 40
0.0062704561142251
 40
0.0083437188367814
 40
0.0104096062837312
 40
0.012468730303947
 40
0.0145222849571545
 40
0.0165707940506154
 40
0.0186144539774981
 40
0.0206535731643919
 40
0.0226888074982121
 40
0.0247196080196316
 40
0.0267451388280024
 40
0.0287646475284326
 40
0.0307782899665846
 40
0.0327858028697539
 40
0.0347867076592769
 40
0.0367805351868503
 40
0.0387679332500601
 40
0.0407500782052736
 40
0.042728349300022
 40
0.0447035658327664
 40
0.0466765343466318
 40
0.0486480137844756
 40
0.0506183812852578
 40
0.0525879881675562
 40
0.0545576898220793
 40
0.0565281245486313
 40
0.0584994833228418
 40
0.0604723394153176
 40
0.0624476152144629
 40
0.0644262339118042
 40
0.0664090661657608
 40
0.0683968396015477
 40
0.0683968396015477
 40
0.0683968396015477
 40
0.0683968396015477
 10
81.64941096683197
 20
-12.23723720397626
 30
0.0
 10
81.65010686160361
 20
-12.23716309304646
 30
0.0
 10
81.65149535239629
 20
-12.23701432983185
 30
0.0
 10
81.65357332764177
 20
-12.2367890375443
 30
0.0
 10
81.6556423283705
 20
-12.2365620916473
 30
0.0
 10
81.65770311569009
 20
-12.23633344863435
 30
0.0
 10
81.65975632389132
 20
-12.23610307523117
 30
0.0
 10
81.66180271998895
 20
-12.23587091975449
 30
0.0
 10
81.66384307602061
 20
-12.23563692573077
 30
0.0
 10
81.66587802607637
 20
-12.2354010485605
 30
0.0
 10
81.66790791077891
 20
-12.23516327507133
 30
0.0
 10
81.66993311434589
 20
-12.23492358521972
 30
0.0
 10
81.67195377412246
 20
-12.23468198635371
 30
0.0
 10
81.67396964874411
 20
-12.23443853086442
 30
0.0
 10
81.67598003112278
 20
-12.23419332950576
 30
0.0
 10
81.67798444781169
 20
-12.23394646757407
 30
0.0
 10
81.67998261508035
 20
-12.23369800863051
 30
0.0
 10
81.68197433994043
 20
-12.2334480057207
 30
0.0
 10
81.68395922291301
 20
-12.23319653896001
 30
0.0
 10
81.68593716604892
 20
-12.23294365164307
 30
0.0
 10
81.68790861859042
 20
-12.23268931648167
 30
0.0
 10
81.68987464047701
 20
-12.23243342389267
 30
0.0
 10
81.69183634772116
 20
-12.23217585166117
 30
0.0
 10
81.69379473351932
 20
-12.23191648864988
 30
0.0
 10
81.69575058559701
 20
-12.2316552467758
 30
0.0
 10
81.69770454518106
 20
-12.23139205407409
 30
0.0
 10
81.69965710279711
 20
-12.23112685620066
 30
0.0
 10
81.70160878057686
 20
-12.23085959239344
 30
0.0
 10
81.70356018658855
 20
-12.23059018758368
 30
0.0
 10
81.70551187559908
 20
-12.23031857125286
 30
0.0
 10
81.70746430895247
 20
-12.23004468368484
 30
0.0
 10
81.70941804150675
 20
-12.22976844999783
 30
0.0
 10
81.71137386939632
 20
-12.22948975828876
 30
0.0
 10
81.71333268639035
 20
-12.22920847901773
 30
0.0
 10
81.71529532142358
 20
-12.22892448813201
 30
0.0
 10
81.71660500968073
 20
-12.2287335353183
 30
0.0
 10
81.71726061703202
 20
-12.22863758727621
 30
0.0
 11
81.64941096683197
 21
-12.23723720397626
 31
0.0
 11
81.65149851063189
 21
-12.23701354237627
 31
0.0
 11
81.65357615813196
 21
-12.23678827187629
 31
0.0
 11
81.65564489853204
 21
-12.23656133137623
 31
0.0
 11
81.65770552043204
 21
-12.23633267627625
 31
0.0
 11
81.65975852893188
 21
-12.23610228957622
 31
0.0
 11
81.661804532632
 21
-12.23587013957623
 31
0.0
 11
81.66384471823198
 21
-12.23563612417624
 31
0.0
 11
81.66587960613197
 21
-12.2354002129762
 31
0.0
 11
81.66790939133216
 21
-12.23516241087625
 31
0.0
 11
81.66993438003192
 21
-12.2349227081763
 31
0.0
 11
81.67195522333214
 21
-12.23468105217628
 31
0.0
 11
81.67397137593207
 21
-12.23443753177625
 31
0.0
 11
81.675982008132
 21
-12.23419227337624
 31
0.0
 11
81.67798637363194
 21
-12.23394539657622
 31
0.0
 11
81.67998462783179
 21
-12.23369691127627
 31
0.0
 11
81.68197651033187
 21
-12.23344687917628
 31
0.0
 11
81.68396154733182
 21
-12.23319538977623
 31
0.0
 11
81.68593927473194
 21
-12.23294253327626
 31
0.0
 11
81.68791033643197
 21
-12.23268825797626
 31
0.0
 11
81.68987590013193
 21
-12.23243244057627
 31
0.0
 11
81.69183733403178
 21
-12.23217492557623
 31
0.0
 11
81.69379545053198
 21
-12.23191562507625
 31
0.0
 11
81.69575104893192
 21
-12.23165444887624
 31
0.0
 11
81.69770488093195
 21
-12.23139130947626
 31
0.0
 11
81.69965731953197
 21
-12.23112616757618
 31
0.0
 11
81.70160871193184
 21
-12.23085898537627
 31
0.0
 11
81.70355990443203
 21
-12.23058965407628
 31
0.0
 11
81.70551152783195
 21
-12.23031809097628
 31
0.0
 11
81.70746376963188
 21
-12.2300442729763
 31
0.0
 11
81.70941719573193
 21
-12.22976812227623
 31
0.0
 11
81.71137271733186
 21
-12.22948950927625
 31
0.0
 11
81.71333124583203
 21
-12.22920829987626
 31
0.0
 11
81.71529364013213
 21
-12.22892436377626
 31
0.0
 11
81.71726061703202
 21
-12.22863758727621
 31
0.0
  0
SPLINE
  5
5784B
330
1F
100
AcDbEntity
  8
1
100
AcDbSpline
210
0.0
220
0.0
230
1.0
 70
     8
 71
     3
 72
    15
 73
    11
 74
     9
 42
0.0000000001
 43
0.0000000001
 44
0.000001
 12
-0.9995341523545736
 22
0.0305201290433787
 32
0.0
 13
-0.9994985880247446
 23
0.0316634258497379
 33
0.0
 40
0.0
 40
0.0
 40
0.0
 40
0.0
 40
0.1283545482249993
 40
0.2568116738954773
 40
0.3853670982437229
 40
0.5140174891475482
 40
0.6427625600596603
 40
0.7716018809101755
 40
0.9005310218899635
 40
1.02953987820421
 40
1.02953987820421
 40
1.02953987820421
 40
1.02953987820421
 10
74.93269017123203
 20
-12.18085237397625
 30
0.0
 10
74.88992525304502
 20
-12.1795465748512
 30
0.0
 10
74.80436151879667
 20
-12.17692479884621
 30
0.0
 10
74.67596685174749
 20
-12.17296545978593
 30
0.0
 10
74.54747432651015
 20
-12.16898015248205
 30
0.0
 10
74.4188865069284
 20
-12.16497125157335
 30
0.0
 10
74.2902046825393
 20
-12.16094079977455
 30
0.0
 10
74.16143048454569
 20
-12.1568915880546
 30
0.0
 10
74.03256884466657
 20
-12.15282554678796
 30
0.0
 10
73.94663252484156
 20
-12.15010625306149
 30
0.0
 10
73.90365113493203
 20
-12.14874463227622
 30
0.0
 11
74.93269017123203
 21
-12.18085237397625
 31
0.0
 11
74.80439580923212
 21
-12.17692206587625
 31
0.0
 11
74.67599971073195
 21
-12.17296276457628
 31
0.0
 11
74.54750607923187
 21
-12.16897721397626
 31
0.0
 11
74.41891816803195
 21
-12.16496817267622
 31
0.0
 11
74.29023618953215
 21
-12.16093814457625
 31
0.0
 11
74.16146050633187
 21
-12.15688928587624
 31
0.0
 11
74.03259548133201
 21
-12.15282385437629
 31
0.0
 11
73.90365113493203
 21
-12.14874463227622
 31
0.0
  0
SPLINE
  5
5784C
330
1F
100
AcDbEntity
  8
1
100
AcDbSpline
210
0.0
220
0.0
230
1.0
 70
     8
 71
     3
 72
    15
 73
    11
 74
     9
 42
0.0000000001
 43
0.0000000001
 44
0.000001
 12
-0.9996187572485576
 22
0.0276105080874927
 32
0.0
 13
-0.9995738757846494
 23
0.0291901841182045
 33
0.0
 40
0.0
 40
0.0
 40
0.0
 40
0.0
 40
0.1283354155426486
 40
0.2567728937128316
 40
0.385305831579093
 40
0.5139331379644112
 40
0.6426564717716863
 40
0.7714747182649058
 40
0.9003824744936197
 40
1.029374071479053
 40
1.029374071479053
 40
1.029374071479053
 40
1.029374071479053
 10
75.96164600773182
 20
-12.21018916587624
 30
0.0
 10
75.91888384486651
 20
-12.20900803053334
 30
0.0
 10
75.83332583198012
 20
-12.20663319443562
 30
0.0
 10
75.70494090380316
 20
-12.2030372310073
 30
0.0
 10
75.57645957569071
 20
-12.19940801090243
 30
0.0
 10
75.44788379937358
 20
-12.19574793236933
 30
0.0
 10
75.31921365999528
 20
-12.19206060006792
 30
0.0
 10
75.19045072920016
 20
-12.18834785878104
 30
0.0
 10
75.06159901975866
 20
-12.1846116122949
 30
0.0
 10
74.97566904807945
 20
-12.18210747013148
 30
0.0
 10
74.93269017123203
 20
-12.18085237397625
 30
0.0
 11
75.96164600773182
 21
-12.21018916587624
 31
0.0
 11
75.83335997833183
 21
-12.20662905527624
 31
0.0
 11
75.70497285573196
 21
-12.20303266467621
 31
0.0
 11
75.57649117023197
 21
-12.19940320977625
 31
0.0
 11
75.44791593233185
 21
-12.19574375667625
 31
0.0
 11
75.31924541433181
 21
-12.1920567221762
 31
0.0
 11
75.19048067653193
 21
-12.18834423457625
 31
0.0
 11
75.06162706363193
 21
-12.18460858927628
 31
0.0
 11
74.93269017123203
 21
-12.18085237397625
 31
0.0
  0
SPLINE
  5
5784D
330
1F
100
AcDbEntity
  8
1
100
AcDbSpline
210
0.0
220
0.0
230
1.0
 70
     8
 71
     3
 72
    15
 73
    11
 74
     9
 42
0.0000000001
 43
0.0000000001
 44
0.000001
 12
-0.9996952981782733
 22
0.0246842216861969
 32
0.0
 13
-0.9996437941717855
 23
0.0266886637701593
 33
0.0
 40
0.0
 40
0.0
 40
0.0
 40
0.0
 40
0.1282896066431936
 40
0.2566918152153812
 40
0.3852058623263785
 40
0.5138186607657371
 40
0.6425190924699916
 40
0.7713050421614125
 40
0.9001811154694204
 40
1.029150374371222
 40
1.029150374371222
 40
1.029150374371222
 40
1.029150374371222
 10
76.99045409643213
 20
-12.2367232336762
 30
0.0
 10
76.94770392424334
 20
-12.23566765731272
 30
0.0
 10
76.86216640531734
 20
-12.23354146761372
 30
0.0
 10
76.73380502201826
 20
-12.2303138491103
 30
0.0
 10
76.6053368975563
 20
-12.2270457390488
 30
0.0
 10
76.47677032538604
 20
-12.22373884326333
 30
0.0
 10
76.34811397361693
 20
-12.22039772393188
 30
0.0
 10
76.21937064913038
 20
-12.21702534490518
 30
0.0
 10
76.09053848214853
 20
-12.21362265021307
 30
0.0
 10
76.0046204474985
 20
-12.21133650493874
 30
0.0
 10
75.96164600773182
 20
-12.21018916587624
 30
0.0
 11
76.99045409643213
 21
-12.2367232336762
 31
0.0
 11
76.862204055132
 21
-12.23353714657625
 31
0.0
 11
76.73384241813209
 21
-12.23030949647622
 31
0.0
 11
76.60536992633206
 21
-12.22704153947629
 31
0.0
 11
76.47679962753182
 21
-12.22373528357624
 31
0.0
 11
76.34814257113203
 21
-12.22039399067628
 31
0.0
 11
76.21940080693184
 21
-12.21702093727626
 31
0.0
 11
76.09056965563195
 21
-12.21361873007626
 31
0.0
 11
75.96164600773182
 21
-12.21018916587624
 31
0.0
  0
SPLINE
  5
5784E
330
1F
100
AcDbEntity
  8
1
100
AcDbSpline
210
0.0
220
0.0
230
1.0
 70
     8
 71
     3
 72
    24
 73
    20
 74
    18
 42
0.0000000001
 43
0.0000000001
 44
0.000001
 12
-0.9997460450447274
 22
0.0225354258319229
 32
0.0
 13
-0.9997076317538615
 23
0.0241795577520699
 33
0.0
 40
0.0
 40
0.0
 40
0.0
 40
0.0
 40
0.0178828971112327
 40
0.047820679290279
 40
0.0782724491080666
 40
0.1080953418156907
 40
0.1364947201858861
 40
0.1668565721046417
 40
0.2001787236499668
 40
0.236687590032044
 40
0.2766561521658919
 40
0.3204802963058166
 40
0.3685930910292219
 40
0.4214963526450452
 40
0.4797575991773265
 40
0.5442338837685066
 40
0.6159565152091034
 40
0.6958427337994464
 40
0.7850677676584418
 40
0.7850677676584418
 40
0.7850677676584418
 40
0.7850677676584418
 10
77.77530749173184
 20
-12.25506454297621
 30
0.0
 10
77.76934803984488
 20
-12.25493021007571
 30
0.0
 10
77.75341186836806
 20
-12.25457068618411
 30
0.0
 10
77.72732771915525
 20
-12.25398088991852
 30
0.0
 10
77.69726463216193
 20
-12.25329919310471
 30
0.0
 10
77.66771425788125
 20
-12.25262721777491
 30
0.0
 10
77.63819388925094
 20
-12.25195413356522
 30
0.0
 10
77.60750745092855
 20
-12.25125240966233
 30
0.0
 10
77.57411859434319
 20
-12.250487231536
 30
0.0
 10
77.53752838804018
 20
-12.24964666124319
 30
0.0
 10
77.49743851737071
 20
-12.24872236887555
 30
0.0
 10
77.45348178796871
 20
-12.24770503537161
 30
0.0
 10
77.40521476112849
 20
-12.24658299170207
 30
0.0
 10
77.35213681119694
 20
-12.24534290097247
 30
0.0
 10
77.29360603948475
 20
-12.2439674354693
 30
0.0
 10
77.22880409688821
 20
-12.24243521816797
 30
0.0
 10
77.1567960994563
 20
-12.24072185374254
 30
0.0
 10
77.07654115595153
 20
-12.23879957655833
 30
0.0
 10
77.02018707886293
 20
-12.23744237429591
 30
0.0
 10
76.99045409643213
 20
-12.2367232336762
 30
0.0
 11
77.77530749173184
 21
-12.25506454297621
 31
0.0
 11
77.75742914463217
 21
-12.25466116407628
 31
0.0
 11
77.72749901803218
 21
-12.2539841648763
 31
0.0
 11
77.69705507763183
 21
-12.25329366807622
 31
0.0
 11
77.66723988953208
 21
-12.25261580507626
 31
0.0
 11
77.63884788253199
 21
-12.25196877997629
 31
0.0
 11
77.60849394973184
 21
-12.25127536087629
 31
0.0
 11
77.57518053683179
 21
-12.25051227507626
 31
0.0
 11
77.53868130333194
 21
-12.24967366507624
 31
0.0
 11
77.49872335943201
 21
-12.2487524297762
 31
0.0
 11
77.45491094853196
 21
-12.24773839777626
 31
0.0
 11
77.40681114943209
 21
-12.24662020917625
 31
0.0
 11
77.3539223221319
 21
-12.24538447367624
 31
0.0
 11
77.29567715483199
 21
-12.24401577267625
 31
0.0
 11
77.23121888323203
 21
-12.24249179487626
 31
0.0
 11
77.15951654403216
 21
-12.24078579747626
 31
0.0
 11
77.0796532218319
 21
-12.23887328657625
 31
0.0
 11
76.99045409643213
 21
-12.2367232336762
 31
0.0
  0
SPLINE
  5
5784F
330
1F
100
AcDbEntity
  8
1
100
AcDbSpline
210
0.0
220
0.0
230
1.0
 70
     8
 71
     3
 72
    22
 73
    18
 74
    16
 42
0.0000000001
 43
0.0000000001
 44
0.000001
 12
-0.3921572058543344
 22
-0.9198982149653955
 32
0.0
 13
-0.528623876631518
 23
-0.8488561698280019
 33
0.0
 40
0.0
 40
0.0
 40
0.0
 40
0.0
 40
0.010305976362537
 40
0.0206147535927305
 40
0.0309265464299851
 40
0.041241105256992
 40
0.0515584470867853
 40
0.0618783234157784
 40
0.0722006225105462
 40
0.0825255085979962
 40
0.092852989075454
 40
0.1031833106961832
 40
0.1135163837619889
 40
0.1238521793700572
 40
0.134190448331392
 40
0.1445308122887018
 40
0.1548734196145533
 40
0.1548734196145533
 40
0.1548734196145533
 40
0.1548734196145533
 10
82.47150843573217
 20
-11.55959096227624
 30
0.0
 10
82.47016124810079
 20
-11.56275111202936
 30
0.0
 10
82.46743391817494
 20
-11.56905843486444
 30
0.0
 10
82.46324516351535
 20
-11.57847810896814
 30
0.0
 10
82.45895858187806
 20
-11.5878568284462
 30
0.0
 10
82.45457451777587
 20
-11.59719352688384
 30
0.0
 10
82.45009400370078
 20
-11.60648731824261
 30
0.0
 10
82.44551702298963
 20
-11.61573686311754
 30
0.0
 10
82.44084416629664
 20
-11.62494116327784
 30
0.0
 10
82.43607587524866
 20
-11.63409924553181
 30
0.0
 10
82.4312125658613
 20
-11.64321025643667
 30
0.0
 10
82.42625467608764
 20
-11.65227325843193
 30
0.0
 10
82.42120273256125
 20
-11.66128734727098
 30
0.0
 10
82.41605757092258
 20
-11.67025160898478
 30
0.0
 10
82.41081942148639
 20
-11.67916467767517
 30
0.0
 10
82.4054889518759
 20
-11.68802547954382
 30
0.0
 10
82.40187446615847
 20
-11.69389652456271
 30
0.0
 10
82.40005201643203
 20
-11.69682298657628
 30
0.0
 11
82.47150843573217
 21
-11.55959096227624
 31
0.0
 11
82.46741817833209
 21
-11.56905056437628
 31
0.0
 11
82.46322974043186
 21
-11.57847018147626
 31
0.0
 11
82.45894343843202
 21
-11.58784898417624
 31
0.0
 11
82.4545598033319
 21
-11.59718573387621
 31
0.0
 11
82.45007928483209
 21
-11.60647939897623
 31
0.0
 11
82.44550240113198
 21
-11.61572881517625
 31
0.0
 11
82.44082966273209
 21
-11.62493289767624
 31
0.0
 11
82.43606147153196
 21
-11.63409081137624
 31
0.0
 11
82.43119829773196
 21
-11.6432015812762
 31
0.0
 11
82.42624050593212
 21
-11.65226444627623
 31
0.0
 11
82.42118864203211
 21
-11.66127835397626
 31
0.0
 11
82.41604322143212
 21
-11.67024231717627
 31
0.0
 11
82.41080486803184
 21
-11.67915517627628
 31
0.0
 11
82.40547430963216
 21
-11.68801566747626
 31
0.0
 11
82.40005201643203
 21
-11.69682298657628
 31
0.0
  0
SPLINE
  5
57850
330
1F
100
AcDbEntity
  8
1
100
AcDbSpline
210
0.0
220
0.0
230
1.0
 70
     8
 71
     3
 72
    23
 73
    19
 74
    17
 42
0.0000000001
 43
0.0000000001
 44
0.000001
 12
-0.2422901253804503
 22
-0.9702038420574956
 32
0.0
 13
-0.3915625629086832
 23
-0.9201514871630559
 33
0.0
 40
0.0
 40
0.0
 40
0.0
 40
0.0
 40
0.0097666588534999
 40
0.0195346417021375
 40
0.0293037923556152
 40
0.0390743558338641
 40
0.0488462221313498
 40
0.058619317521529
 40
0.0683938304785831
 40
0.0781697694612519
 40
0.0879475174113195
 40
0.0977272048080268
 40
0.1075089590888032
 40
0.1172929349245162
 40
0.1270786982148538
 40
0.1368665641552266
 40
0.1466563722882838
 40
0.1564483300269383
 40
0.1564483300269383
 40
0.1564483300269383
 40
0.1564483300269383
 10
82.52120398133206
 20
-11.41141526527625
 30
0.0
 10
82.52041519299927
 20
-11.41457381525748
 30
0.0
 10
82.51880627735976
 20
-11.42088359101711
 30
0.0
 10
82.51629941595638
 20
-11.43032451585486
 30
0.0
 10
82.51369918980413
 20
-11.4397415146249
 30
0.0
 10
82.51100586108169
 20
-11.44913365154869
 30
0.0
 10
82.50822017589213
 20
-11.45850018394597
 30
0.0
 10
82.50534181371927
 20
-11.46784003148536
 30
0.0
 10
82.50237119149597
 20
-11.47715237008907
 30
0.0
 10
82.49930847099836
 20
-11.48643645942869
 30
0.0
 10
82.49615389040945
 20
-11.49569156179686
 30
0.0
 10
82.49290766009243
 20
-11.50491697197179
 30
0.0
 10
82.48957006785122
 20
-11.51411193291196
 30
0.0
 10
82.48614123838525
 20
-11.52327542349954
 30
0.0
 10
82.48262215000499
 20
-11.53240681432345
 30
0.0
 10
82.479012533552
 20
-11.54150489588093
 30
0.0
 10
82.47531272830338
 20
-11.55056889517212
 30
0.0
 10
82.47278649042153
 20
-11.55658760078444
 30
0.0
 10
82.47150843573217
 20
-11.55959096227624
 30
0.0
 11
82.52120398133206
 21
-11.41141526527625
 31
0.0
 11
82.51879092473201
 21
-11.4208791803762
 31
0.0
 11
82.51628433223187
 21
-11.43032012897626
 31
0.0
 11
82.51368448273206
 21
-11.43973703237626
 31
0.0
 11
82.51099155173188
 21
-11.44912919227621
 31
0.0
 11
82.50820581903189
 21
-11.45849555557626
 31
0.0
 11
82.50532755783206
 21
-11.46783519087628
 31
0.0
 11
82.50235698373217
 21
-11.47714736647626
 31
0.0
 11
82.49929436283196
 21
-11.48643117927625
 31
0.0
 11
82.49613985453198
 21
-11.49568608487627
 31
0.0
 11
82.49289370673205
 21
-11.50491130197625
 31
0.0
 11
82.48955616403192
 21
-11.51410604477629
 31
0.0
 11
82.48612746303207
 21
-11.52326955177622
 31
0.0
 11
82.48260807253201
 21
-11.53240052777622
 31
0.0
 11
82.47899820283192
 21
-11.54149838817622
 31
0.0
 11
82.47529823733202
 21
-11.55056209647622
 31
0.0
 11
82.47150843573217
 21
-11.55959096227624
 31
0.0
  0
SPLINE
  5
57851
330
1F
100
AcDbEntity
  8
1
100
AcDbSpline
210
0.0
220
0.0
230
1.0
 70
     8
 71
     3
 72
    22
 73
    18
 74
    16
 42
0.0000000001
 43
0.0000000001
 44
0.000001
 12
-0.0924202070271411
 22
-0.9957200938682822
 32
0.0
 13
-0.2410830776333412
 23
-0.9705044820498441
 33
0.0
 40
0.0
 40
0.0
 40
0.0
 40
0.0
 40
0.0098508584371792
 40
0.0197066562732318
 40
0.0295663272909289
 40
0.0394298579702018
 40
0.0492970912289744
 40
0.059167842022875
 40
0.0690423245901177
 40
0.0789201446525809
 40
0.0888012456117369
 40
0.0986844926302199
 40
0.1085690857391849
 40
0.1184548278173522
 40
0.1283414807632657
 40
0.1382295073426493
 40
0.1481187325325329
 40
0.1481187325325329
 40
0.1481187325325329
 40
0.1481187325325329
 10
82.54596015043217
 20
-11.26552183867622
 30
0.0
 10
82.54565667764017
 20
-11.26879140457214
 30
0.0
 10
82.54501659591188
 20
-11.27532916257593
 30
0.0
 10
82.54395748889351
 20
-11.28512769113629
 30
0.0
 10
82.54279926145249
 20
-11.29491926205247
 30
0.0
 10
82.54154204730093
 20
-11.30470245632008
 30
0.0
 10
82.5401859517467
 20
-11.31447616429898
 30
0.0
 10
82.53873107478398
 20
-11.32423934762448
 30
0.0
 10
82.5371775300033
 20
-11.33399089089724
 30
0.0
 10
82.53552542848911
 20
-11.34372972068107
 30
0.0
 10
82.53377496562256
 20
-11.3534543210022
 30
0.0
 10
82.53192638372899
 20
-11.36316304580154
 30
0.0
 10
82.52997996347813
 20
-11.37285420810056
 30
0.0
 10
82.52793594988157
 20
-11.38252641668811
 30
0.0
 10
82.5257945099238
 20
-11.39217869786043
 30
0.0
 10
82.5235558115453
 20
-11.40181006761651
 30
0.0
 10
82.52199868961339
 20
-11.40821608615266
 30
0.0
 10
82.52120398133206
 20
-11.41141526527625
 30
0.0
 11
82.54596015043217
 21
-11.26552183867622
 31
0.0
 11
82.54500037433217
 21
-11.27532587677629
 31
0.0
 11
82.5439414048319
 21
-11.28512466837625
 31
0.0
 11
82.54278339073199
 21
-11.29491614397622
 31
0.0
 11
82.541526384932
 21
-11.3046992844763
 31
0.0
 11
82.54017046193212
 21
-11.31447293027625
 31
0.0
 11
82.53871571503214
 21
-11.32423589717629
 31
0.0
 11
82.53716220903198
 21
-11.33398740137622
 31
0.0
 11
82.53551011243189
 21
-11.34372606047626
 31
0.0
 11
82.53375954803187
 21
-11.35345082747628
 31
0.0
 11
82.53191084693208
 21
-11.3631595975763
 31
0.0
 11
82.5299643163321
 21
-11.3728506022762
 31
0.0
 11
82.52792016713192
 21
-11.3825226684763
 31
0.0
 11
82.52577863423198
 21
-11.39217458587629
 31
0.0
 11
82.52353982333216
 21
-11.40180583287625
 31
0.0
 11
82.52120398133206
 21
-11.41141526527625
 31
0.0
  0
SPLINE
  5
57852
330
1F
100
AcDbEntity
  8
1
100
AcDbSpline
210
0.0
220
0.0
230
1.0
 70
     8
 71
     3
 72
    60
 73
    56
 74
    54
 42
0.0000000001
 43
0.0000000001
 44
0.000001
 12
0.0617078449968043
 22
-0.9980942550009244
 32
0.0
 13
0.0007198759664897
 23
-0.999999740889263
 33
0.0
 40
0.0
 40
0.0
 40
0.0
 40
0.0
 40
0.0432744837885932
 40
0.0823935686413708
 40
0.117753275128666
 40
0.1497220396492021
 40
0.1786677361256071
 40
0.2049579182662269
 40
0.2289612973591186
 40
0.2510367030538518
 40
0.2714400706075915
 40
0.290227956184454
 40
0.3074326456797626
 40
0.3230888143846662
 40
0.3372401682802951
 40
0.349991265494681
 40
0.3615097087536232
 40
0.3719613084208726
 40
0.3814767611587308
 40
0.3900733407339416
 40
0.3977667556745743
 40
0.4047613026779239
 40
0.4113991159086458
 40
0.4179911796457161
 40
0.4246423719514152
 40
0.4312995505542819
 40
0.4379259624949995
 40
0.4445326626112049
 40
0.4513306213811492
 40
0.4586060647178212
 40
0.4666431659472795
 40
0.4757432275953848
 40
0.4862224114174917
 40
0.4982100138526157
 40
0.5109769144584914
 40
0.5237251080617631
 40
0.5364085899827461
 40
0.5491335174157155
 40
0.5618998155988009
 40
0.5746609883569443
 40
0.587316263397301
 40
0.600032276931194
 40
0.6133728508368038
 40
0.6279311261331077
 40
0.6442952238062879
 40
0.663049061736249
 40
0.6845048963668328
 40
0.7072608473498066
 40
0.7296861738991871
 40
0.7517301393963223
 40
0.7738938224329284
 40
0.7970569753997632
 40
0.8221667547043242
 40
0.8501715043166257
 40
0.8820608283995325
 40
0.8820608283995325
 40
0.8820608283995325
 40
0.8820608283995325
 10
82.52868382683208
 20
-10.21273781027625
 30
0.0
 10
82.52957395187809
 20
-10.22713514816209
 30
0.0
 10
82.53125544142745
 20
-10.25454815032285
 30
0.0
 10
82.53364303665387
 20
-10.29372656275615
 30
0.0
 10
82.53574989353058
 20
-10.32914649302751
 30
0.0
 10
82.53759814982903
 20
-10.36118463440601
 30
0.0
 10
82.53921127668764
 20
-10.39020807804877
 30
0.0
 10
82.54061714439661
 20
-10.41658374680096
 30
0.0
 10
82.54184398003122
 20
-10.44067554185179
 30
0.0
 10
82.54291745080161
 20
-10.46281026627733
 30
0.0
 10
82.54385699453861
 20
-10.48321088235414
 30
0.0
 10
82.54467639176505
 20
-10.50199168148285
 30
0.0
 10
82.54538613218414
 20
-10.51919330919537
 30
0.0
 10
82.54599651997841
 20
-10.53485216740881
 30
0.0
 10
82.54651847738614
 20
-10.54902877885357
 30
0.0
 10
82.54696378066057
 20
-10.56182800775482
 30
0.0
 10
82.54734438217383
 20
-10.57339546777581
 30
0.0
 10
82.54767109257818
 20
-10.58388555159203
 30
0.0
 10
82.54795191890991
 20
-10.59340262383986
 30
0.0
 10
82.54819259531211
 20
-10.60200107493372
 30
0.0
 10
82.5483989846889
 20
-10.60975984646038
 30
0.0
 10
82.54857896711952
 20
-10.61686616109338
 30
0.0
 10
82.54874157805785
 20
-10.6236056758425
 30
0.0
 10
82.54889362110771
 20
-10.6302309560929
 30
0.0
 10
82.54903788408524
 20
-10.63686286704478
 30
0.0
 10
82.54917432804608
 20
-10.64350639531804
 30
0.0
 10
82.54930239773807
 20
-10.65013525680581
 30
0.0
 10
82.54942322588226
 20
-10.65681118872521
 30
0.0
 10
82.54953938590494
 20
-10.6637035791986
 30
0.0
 10
82.54965386306684
 20
-10.67107286016304
 30
0.0
 10
82.54976846290015
 20
-10.6792095917468
 30
0.0
 10
82.54988297217153
 20
-10.68841433314367
 30
0.0
 10
82.54999377315312
 20
-10.69893603980952
 30
0.0
 10
82.55009115166888
 20
-10.71068020997384
 30
0.0
 10
82.55016310345956
 20
-10.72318091630873
 30
0.0
 10
82.55020192045913
 20
-10.73591373309986
 30
0.0
 10
82.55020523576423
 20
-10.74863261275226
 30
0.0
 10
82.55018478530065
 20
-10.76135750243472
 30
0.0
 10
82.55015229327296
 20
-10.77410826056166
 30
0.0
 10
82.55012082177211
 20
-10.78683580434801
 30
0.0
 10
82.55010054592345
 20
-10.79954661000781
 30
0.0
 10
82.55008667557673
 20
-10.81245055691619
 30
0.0
 10
82.5500763147229
 20
-10.82598884061019
 30
0.0
 10
82.5500648989921
 20
-10.84074315182585
 30
0.0
 10
82.55004938099522
 20
-10.85730188157029
 30
0.0
 10
82.55003136877622
 20
-10.87615979637576
 30
0.0
 10
82.55001461625807
 20
-10.89714833102775
 30
0.0
 10
82.55000159695123
 20
-10.91936069805885
 30
0.0
 10
82.54999153727771
 20
-10.94176911018846
 30
0.0
 10
82.54998422783456
 20
-10.96398010074657
 30
0.0
 10
82.54998014322211
 20
-10.98643703429619
 30
0.0
 10
82.54997973864044
 20
-11.00991590619256
 30
0.0
 10
82.54998395088989
 20
-11.03534179989955
 30
0.0
 10
82.54999361122827
 20
-11.06367641625331
 30
0.0
 10
82.55000691721239
 20
-11.08364110333622
 30
0.0
 10
82.55001456933177
 20
-11.09427087527623
 30
0.0
 11
82.52868382683208
 21
-10.21273781027625
 31
0.0
 11
82.53133824943189
 21
-10.25593083367627
 31
0.0
 11
82.53371032133191
 21
-10.29497793457628
 31
0.0
 11
82.53580696613198
 21
-10.33027542747626
 31
0.0
 11
82.53764544693195
 21
-10.36219128527622
 31
0.0
 11
82.53924992913198
 21
-10.39109248007625
 31
0.0
 11
82.54064786593199
 21
-10.41734547077621
 31
0.0
 11
82.54186758853212
 21
-10.44131784127623
 31
0.0
 11
82.54293613953199
 21
-10.4633673716763
 31
0.0
 11
82.54387420713191
 21
-10.48374916467625
 31
0.0
 11
82.54469266933211
 21
-10.50251921547621
 31
0.0
 11
82.54540158263216
 21
-10.51970929457624
 31
0.0
 11
82.5460111437319
 21
-10.53535359337624
 31
0.0
 11
82.54653163103194
 21
-10.54949537317625
 31
0.0
 11
82.54697485673204
 21
-10.56223876567625
 31
0.0
 11
82.54735354283184
 21
-10.57375098307622
 31
0.0
 11
82.54767882513215
 21
-10.58419752037625
 31
0.0
 11
82.54795942803184
 21
-10.59370883547623
 31
0.0
 11
82.54819991913199
 21
-10.60230205107629
 31
0.0
 11
82.54840447003198
 21
-10.60999274677621
 31
0.0
 11
82.548581544532
 21
-10.61698505247622
 31
0.0
 11
82.54874163793193
 21
-10.62362093527625
 31
0.0
 11
82.54889286153185
 21
-10.63021126467626
 31
0.0
 11
82.54903749523192
 21
-10.63686088467622
 31
0.0
 11
82.54917418493187
 21
-10.64351666027627
 31
0.0
 11
82.54930217483206
 21
-10.65014183647625
 31
0.0
 11
82.54942172063193
 21
-10.65674745537623
 31
0.0
 11
82.54953626063207
 21
-10.66354444957628
 31
0.0
 11
82.54964924913201
 21
-10.6708190159762
 31
0.0
 11
82.54976240793212
 21
-10.67885532107627
 31
0.0
 11
82.54987556203195
 21
-10.68795467977625
 31
0.0
 11
82.54998583093197
 21
-10.69843328407623
 31
0.0
 11
82.55008509123218
 21
-10.71042047627625
 31
0.0
 11
82.55015837473207
 21
-10.72318716727622
 31
0.0
 11
82.55019704763208
 21
-10.7359353028763
 31
0.0
 11
82.55020229023193
 21
-10.7486187842762
 31
0.0
 11
82.55018381473201
 21
-10.76134369877624
 31
0.0
 11
82.55015344963203
 21
-10.77410996127625
 31
0.0
 11
82.55012360863203
 21
-10.78687109957624
 31
0.0
 11
82.5501026729321
 21
-10.79952635777621
 31
0.0
 11
82.55008853973185
 21
-10.81224236397625
 31
0.0
 11
82.55007760743206
 21
-10.82558293397633
 31
0.0
 11
82.55006599133185
 21
-10.84014120527624
 31
0.0
 11
82.55005108173191
 21
-10.85650529687629
 31
0.0
 11
82.55003368673191
 21
-10.8752591275763
 31
0.0
 11
82.55001669813191
 21
-10.89671495647624
 31
0.0
 11
82.55000305653174
 21
-10.91947090447624
 31
0.0
 11
82.54999293193213
 21
-10.94189622987633
 31
0.0
 11
82.549985780332
 21
-10.96394019537624
 31
0.0
 11
82.54998179863196
 21
-10.98610387927621
 31
0.0
 11
82.54998142743216
 21
-11.00926703357626
 31
0.0
 11
82.54998548453205
 21
-11.03437681407624
 31
0.0
 11
82.54999559063207
 21
-11.06238156367621
 31
0.0
 11
82.55001456933177
 21
-11.09427087527623
 31
0.0
  0
SPLINE
  5
57853
330
1F
100
AcDbEntity
  8
1
100
AcDbSpline
210
0.0
220
0.0
230
1.0
 70
     8
 71
     3
 72
    30
 73
    26
 74
    24
 42
0.0000000001
 43
0.0000000001
 44
0.000001
 12
0.0501108550457803
 22
-0.9987436619105929
 32
0.0
 13
0.0685508443136677
 23
-0.9976476240356028
 33
0.0
 40
0.0
 40
0.0
 40
0.0
 40
0.0
 40
0.1293520783929329
 40
0.2603192429101311
 40
0.3930945670088597
 40
0.5277045224368225
 40
0.6595685337597848
 40
0.7806610712026174
 40
0.8876429477450827
 40
0.9818894022042851
 40
1.06523483268264
 40
1.139357155344317
 40
1.20578968228768
 40
1.265838053149865
 40
1.320505457373278
 40
1.369133043826355
 40
1.413180334556956
 40
1.454877083267379
 40
1.49578016481331
 40
1.535065932231161
 40
1.571692658062114
 40
1.606311803942124
 40
1.640121211669995
 40
1.673713296021006
 40
1.707260265385091
 40
1.707260265385091
 40
1.707260265385091
 40
1.707260265385091
 10
82.43602200103214
 20
-8.508010401876248
 30
0.0
 10
82.43818264878223
 20
-8.551073591359539
 30
0.0
 10
82.4425526907728
 20
-8.637736564780993
 30
0.0
 10
82.44921607720312
 20
-8.768598556952468
 30
0.0
 10
82.45605871335204
 20
-8.901206292039404
 30
0.0
 10
82.463026984242
 20
-9.034106855527994
 30
0.0
 10
82.46992151079064
 20
-9.16311159993242
 30
0.0
 10
82.47637619299576
 20
-9.282917322685733
 30
0.0
 10
82.48214799563527
 20
-9.39020246797159
 30
0.0
 10
82.48720353547332
 20
-9.484925576903947
 30
0.0
 10
82.49162072972138
 20
-9.568713969214542
 30
0.0
 10
82.49548990501102
 20
-9.643247037917319
 30
0.0
 10
82.49895199895092
 20
-9.710025092102824
 30
0.0
 10
82.50210698802925
 20
-9.770325383948971
 30
0.0
 10
82.50499914355907
 20
-9.824696313724786
 30
0.0
 10
82.50766417637123
 20
-9.873738061663715
 30
0.0
 10
82.5101536367639
 20
-9.918459382341637
 30
0.0
 10
82.51256195668975
 20
-9.960606354979603
 30
0.0
 10
82.51494628135811
 20
-10.00116488523352
 30
0.0
 10
82.51730255752841
 20
-10.04003207417409
 30
0.0
 10
82.51960115678025
 20
-10.07680420813338
 30
0.0
 10
82.52186119164822
 20
-10.11174965289851
 30
0.0
 10
82.52411638158832
 20
-10.14568168688711
 30
0.0
 10
82.52639332756984
 20
-10.17925405295375
 30
0.0
 10
82.52791726914074
 20
-10.20158179218302
 30
0.0
 10
82.52868382683208
 20
-10.21273781027625
 30
0.0
 11
82.43602200103214
 21
-8.508010401876248
 31
0.0
 11
82.442537108132
 21
-8.637198289976225
 31
0.0
 11
82.44920113833201
 21
-8.767995800976251
 31
0.0
 11
82.45604640063197
 21
-8.900594553476224
 31
0.0
 11
82.4630987451319
 21
-9.035019642876221
 31
0.0
 11
82.47012398743208
 21
-9.16669638177629
 31
0.0
 11
82.476628579632
 21
-9.287614093276232
 31
0.0
 11
82.48236898753203
 21
-9.394441850076276
 31
0.0
 11
82.48738734743211
 21
-9.488554602676202
 31
0.0
 11
82.49177177193201
 21
-9.57178463047623
 31
0.0
 11
82.49562291403208
 21
-9.645806838676293
 31
0.0
 11
82.49906869713186
 21
-9.712149939876297
 31
0.0
 11
82.50221080003212
 21
-9.772116045976275
 31
0.0
 11
82.50511811613206
 21
-9.826706085676249
 31
0.0
 11
82.507759229032
 21
-9.875261893976215
 31
0.0
 11
82.510209253732
 21
-9.919240991476243
 31
0.0
 11
82.51258953903198
 21
-9.96086974187628
 31
0.0
 11
82.51499162073196
 21
-10.00170222527626
 31
0.0
 11
82.51736989453183
 21
-10.04091592797621
 31
0.0
 11
82.51965739183196
 21
-10.0774710709762
 31
0.0
 11
82.52188798743191
 21
-10.1120183415762
 31
0.0
 11
82.52412782323199
 21
-10.14575349847629
 31
0.0
 11
82.52639574553199
 21
-10.17926893747628
 31
0.0
 11
82.52868382683208
 21
-10.21273781027625
 31
0.0
  0
SPLINE
  5
57854
330
1F
100
AcDbEntity
  8
1
100
AcDbSpline
210
0.0
220
0.0
230
1.0
 70
     8
 71
     3
 72
    20
 73
    16
 74
    14
 42
0.0000000001
 43
0.0000000001
 44
0.000001
 12
0.0504646768136967
 22
-0.9987258464634273
 32
0.0
 13
0.0566339771029237
 23
-0.9983950083196058
 33
0.0
 40
0.0
 40
0.0
 40
0.0
 40
0.0
 40
0.1299695316086983
 40
0.2634842210377934
 40
0.3944523656994926
 40
0.5221927303531916
 40
0.6478471449831414
 40
0.7733154705046027
 40
0.8993462909828181
 40
1.025951314724574
 40
1.153060762889024
 40
1.27968726531154
 40
1.405383091946248
 40
1.530137234819413
 40
1.653965431159819
 40
1.653965431159819
 40
1.653965431159819
 40
1.653965431159819
 10
82.34742609293197
 20
-6.856422282476245
 30
0.0
 10
82.349612383068
 20
-6.899690259299688
 30
0.0
 10
82.35406645112949
 20
-6.987405323276107
 30
0.0
 10
82.36079301819405
 20
-7.118717275502518
 30
0.0
 10
82.3675450002695
 20
-7.249283881162199
 30
0.0
 10
82.37422282650266
 20
-7.37723071392881
 30
0.0
 10
82.38086564634432
 20
-7.503343590955637
 30
0.0
 10
82.38753931223937
 20
-7.628884190516316
 30
0.0
 10
82.39429196203037
 20
-7.754737893301125
 30
0.0
 10
82.40113769238645
 20
-7.881134413724367
 30
0.0
 10
82.40805967439042
 20
-8.007725639335433
 30
0.0
 10
82.41503075900437
 20
-8.134010643840298
 30
0.0
 10
82.42201825537973
 20
-8.259508430552074
 30
0.0
 10
82.42900998367053
 20
-8.38407175412351
 30
0.0
 10
82.43368437328673
 20
-8.466800584171096
 30
0.0
 10
82.43602200103214
 20
-8.508010401876248
 30
0.0
 11
82.34742609293197
 21
-6.856422282476245
 31
0.0
 11
82.35401503933189
 21
-6.986224692276294
 31
0.0
 11
82.36084634533199
 21
-7.119564504476244
 31
0.0
 11
82.36761011593216
 21
-7.250357877276286
 31
0.0
 11
82.37426835983205
 21
-7.377924599476244
 31
0.0
 11
82.38087804973202
 21
-7.503405052076203
 31
0.0
 11
82.38753865133185
 21
-7.628696461076259
 31
0.0
 11
82.39429126693199
 21
-7.754546252376229
 31
0.0
 11
82.40113848263195
 21
-7.880965980876254
 31
0.0
 11
82.40807848243184
 21
-8.007885830776245
 31
0.0
 11
82.41505691763199
 21
-8.134319895176275
 31
0.0
 11
82.42204416033201
 21
-8.259821366676277
 31
0.0
 11
82.429034022432
 21
-8.384379537976286
 31
0.0
 11
82.43602200103214
 21
-8.508010401876248
 31
0.0
  0
SPLINE
  5
57855
330
1F
100
AcDbEntity
  8
1
100
AcDbSpline
210
0.0
220
0.0
230
1.0
 70
     8
 71
     3
 72
    16
 73
    12
 74
    10
 42
0.0000000001
 43
0.0000000001
 44
0.000001
 12
0.0523642815861715
 22
-0.998628049883421
 32
0.0
 13
0.0569679970418007
 23
-0.9983760049766047
 33
0.0
 40
0.0
 40
0.0
 40
0.0
 40
0.0
 40
0.0854285124864044
 40
0.1685700608951334
 40
0.2492343870075947
 40
0.3282451804659707
 40
0.4084813185551556
 40
0.4933911897962022
 40
0.585110605851426
 40
0.6853132240076081
 40
0.7972341521209701
 40
0.7972341521209701
 40
0.7972341521209701
 40
0.7972341521209701
 10
82.30374027493189
 20
-6.060386686676253
 30
0.0
 10
82.30523140915966
 20
-6.088823789619169
 30
0.0
 10
82.30818983031644
 20
-6.144935877945727
 30
0.0
 10
82.31260316472377
 20
-6.227896703146654
 30
0.0
 10
82.31694527932393
 20
-6.308719042010011
 30
0.0
 10
82.32127661332652
 20
-6.388572082475064
 30
0.0
 10
82.32572808323311
 20
-6.469835857153469
 30
0.0
 10
82.33045557609306
 20
-6.555327058540939
 30
0.0
 10
82.33559728968272
 20
-6.647461004486785
 30
0.0
 10
82.34129283482207
 20
-6.748581723830966
 30
0.0
 10
82.34530078923148
 20
-6.819175892781885
 30
0.0
 10
82.34742609293197
 20
-6.856422282476245
 30
0.0
 11
82.30374027493189
 21
-6.060386686676253
 31
0.0
 11
82.30823578573199
 21
-6.14569683727629
 31
0.0
 11
82.31265340453182
 21
-6.228720940276247
 31
0.0
 11
82.31698084353183
 21
-6.309269104776234
 31
0.0
 11
82.32126047493194
 21
-6.388163909976213
 31
0.0
 11
82.325648599332
 21
-6.468279965176265
 31
0.0
 11
82.33033614383202
 21
-6.553060347776266
 31
0.0
 11
82.3354462517318
 21
-6.644637300376274
 31
0.0
 11
82.34107924853196
 21
-6.744681463276236
 31
0.0
 11
82.34742609293197
 21
-6.856422282476245
 31
0.0
  0
ARC
  5
57856
330
1F
100
AcDbEntity
  8
1
100
AcDbCircle
 10
81.3040551710319
 20
-10.42865528077627
 30
0.0
 40
1.8495305
100
AcDbArc
 50
285.0200780000069
 51
287.113774
  0
ARC
  5
57857
330
1F
100
AcDbEntity
  8
1
100
AcDbCircle
 10
81.23829217103184
 20
-10.46525328077624
 30
0.0
 40
1.835383
100
AcDbArc
 50
289.4126370000056
 51
291.5276320000018
  0
ARC
  5
57858
330
1F
100
AcDbEntity
  8
1
100
AcDbCircle
 10
81.19270817103188
 20
-10.54076528077624
 30
0.0
 40
1.783243999999999
100
AcDbArc
 50
293.780952999992
 51
295.9700880000097
  0
ARC
  5
57859
330
1F
100
AcDbEntity
  8
1
100
AcDbCircle
 10
81.56420367103192
 20
-10.91832478077626
 30
0.0
 40
1.321662
100
AcDbArc
 50
273.4000250000002
 51
273.6964119999963
  0
ARC
  5
5785A
330
1F
100
AcDbEntity
  8
1
100
AcDbCircle
 10
81.53713467103216
 20
-11.15925028077626
 30
0.0
 40
1.0166665
100
AcDbArc
 50
325.2284509999985
 51
328.0782749999971
  0
ARC
  5
5785B
330
1F
100
AcDbEntity
  8
1
100
AcDbCircle
 10
81.57841467103208
 20
-11.17719628077626
 30
0.0
 40
0.9715684999999998
100
AcDbArc
 50
354.784011999999
 51
355.9414410000014
  0
ARC
  5
5785C
330
1F
100
AcDbEntity
  8
1
100
AcDbCircle
 10
82.64991100657789
 20
-11.93542233914687
 30
0.0
 40
0.3400723319673814
100
AcDbArc
 50
144.7313882016997
 51
152.7998538176565
  0
ARC
  5
5785D
330
1F
100
AcDbEntity
  8
1
100
AcDbCircle
 10
70.759981171032
 20
-14.76498828077623
 30
0.0
 40
3.0
100
AcDbArc
 50
63.25191099999802
 51
90.0
  0
ARC
  5
5785E
330
1F
100
AcDbEntity
  8
1
100
AcDbCircle
 10
70.759981171032
 20
14.76501171922373
 30
0.0
 40
3.0
100
AcDbArc
 50
270.0
 51
296.7480890000019
  0
LINE
  5
5785F
330
1F
100
AcDbEntity
  8
1
100
AcDbLine
 10
64.05998117103194
 20
-11.76498828077623
 30
0.0
 11
70.70515267103201
 21
-11.76498828077623
 31
0.0
  0
LINE
  5
57860
330
1F
100
AcDbEntity
  8
1
100
AcDbLine
 10
70.70515267103201
 20
-11.76498828077623
 30
0.0
 11
70.759981171032
 21
-11.76498828077623
 31
0.0
  0
LINE
  5
57861
330
1F
100
AcDbEntity
  8
1
100
AcDbLine
 10
70.759981171032
 20
11.76501171922373
 30
0.0
 11
64.05998117103218
 21
11.76501171922373
 31
0.0
  0
LINE
  5
57862
330
1F
100
AcDbEntity
  8
1
100
AcDbLine
 10
65.18411567103203
 20
-11.76498828077623
 30
0.0
 11
65.18411567103197
 21
-10.92546428077605
 31
0.0
  0
LINE
  5
57863
330
1F
100
AcDbEntity
  8
1
100
AcDbLine
 10
65.18411567103203
 20
9.949319012416683
 30
0.0
 11
65.18411567103203
 21
11.76501171922373
 31
0.0
  0
LINE
  5
57864
330
1F
100
AcDbEntity
  8
1
100
AcDbLine
 10
64.05998117103194
 20
-11.76498828077623
 30
0.0
 11
64.05998117103194
 21
-10.92546428077605
 31
0.0
  0
LINE
  5
57865
330
1F
100
AcDbEntity
  8
1
100
AcDbLine
 10
64.05998117103218
 20
10.24738465331377
 30
0.0
 11
64.05998117103218
 21
11.76501171922373
 31
0.0
  0
LINE
  5
57866
330
1F
100
AcDbEntity
  8
1
100
AcDbLine
 10
81.99516317103189
 20
0.3698417192237287
 30
0.0
 11
82.02521517103196
 21
0.9227672192237434
 31
0.0
  0
LINE
  5
57867
330
1F
100
AcDbEntity
  8
1
100
AcDbLine
 10
81.97527867073654
 20
0.3319707558660809
 30
0.0
 11
81.99516317103189
 21
0.3698417192237287
 31
0.0
  0
LINE
  5
57868
330
1F
100
AcDbEntity
  8
1
100
AcDbLine
 10
82.02521517103196
 20
0.9227672192237434
 30
0.0
 11
82.14210467103203
 21
3.080869219223728
 31
0.0
  0
LINE
  5
57869
330
1F
100
AcDbEntity
  8
1
100
AcDbLine
 10
82.14210467103203
 20
3.080869219223728
 30
0.0
 11
82.25380317103191
 21
5.144202219223728
 31
0.0
  0
LINE
  5
5786A
330
1F
100
AcDbEntity
  8
1
100
AcDbLine
 10
82.55001467103193
 20
11.09429421922371
 30
0.0
 11
82.54992646329538
 21
11.24026296323794
 31
0.0
  0
ARC
  5
5786B
102
{ACAD_REACTORS
330
5787E
102
}
330
1F
100
AcDbEntity
  8
1
100
AcDbCircle
 10
81.54992664587984
 20
11.2396586714016
 30
0.0
 40
1.0
100
AcDbArc
 50
0.0346233739236708
 51
88.59245861885588
  0
LINE
  5
5786C
330
1F
100
AcDbEntity
  8
1
100
AcDbLine
 10
73.90365117103192
 20
12.14876821922374
 30
0.0
 11
72.874464671032
 21
12.11391221922375
 31
0.0
  0
LINE
  5
5786D
330
1F
100
AcDbEntity
  8
1
100
AcDbLine
 10
72.874464671032
 20
12.11391221922375
 30
0.0
 11
72.11018717103207
 21
12.08602971922372
 31
0.0
  0
LINE
  5
5786E
330
1F
100
AcDbEntity
  8
1
100
AcDbLine
 10
81.97512817103188
 20
0.0959362192237734
 30
0.0
 11
81.97512817103188
 21
-0.0959127807762741
 31
0.0
  0
LINE
  5
5786F
330
1F
100
AcDbEntity
  8
1
100
AcDbLine
 10
81.97512817103188
 20
-0.0959127807762741
 30
0.0
 11
81.97528081836845
 21
-0.3319509182463491
 31
0.0
  0
LINE
  5
57870
330
1F
100
AcDbEntity
  8
1
100
AcDbLine
 10
81.9752786710319
 20
0.3319712192237318
 30
0.0
 11
81.97512817103188
 21
0.0959362192237734
 31
0.0
  0
LINE
  5
57871
330
1F
100
AcDbEntity
  8
1
100
AcDbLine
 10
81.43000067103185
 20
-12.24288378077628
 30
0.0
 11
81.64258717103212
 21
-12.23766028077628
 31
0.0
  0
LINE
  5
57872
330
1F
100
AcDbEntity
  8
1
100
AcDbLine
 10
81.43000067103185
 20
12.24290721922372
 30
0.0
 11
81.57449040646133
 21
12.23935693671277
 31
0.0
  0
LINE
  5
57873
330
1F
100
AcDbEntity
  8
1
100
AcDbLine
 10
81.99516317103189
 20
-0.3698182807762862
 30
0.0
 11
82.02521517103196
 21
-0.9227437807762441
 31
0.0
  0
LINE
  5
57874
330
1F
100
AcDbEntity
  8
1
100
AcDbLine
 10
81.97527917103206
 20
-0.3319477807762325
 30
0.0
 11
81.99516317103189
 21
-0.3698182807762862
 31
0.0
  0
LINE
  5
57875
330
1F
100
AcDbEntity
  8
1
100
AcDbLine
 10
82.02521517103196
 20
-0.9227437807762441
 30
0.0
 11
82.14210467103203
 21
-3.080845780776229
 31
0.0
  0
LINE
  5
57876
330
1F
100
AcDbEntity
  8
1
100
AcDbLine
 10
82.14210467103203
 20
-3.080845780776229
 30
0.0
 11
82.25380317103191
 21
-5.144178780776286
 31
0.0
  0
LINE
  5
57877
330
1F
100
AcDbEntity
  8
1
100
AcDbLine
 10
72.874464671032
 20
-12.11388878077625
 30
0.0
 11
72.11018717103207
 21
-12.08600628077622
 31
0.0
  0
LINE
  5
57878
330
1F
100
AcDbEntity
  8
1
100
AcDbLine
 10
73.90365117103192
 20
-12.14874478077624
 30
0.0
 11
72.874464671032
 21
-12.11388878077625
 31
0.0
  0
LINE
  5
57879
330
1F
100
AcDbEntity
  8
1
100
AcDbLine
 10
82.55001467103193
 20
-11.09427078077621
 30
0.0
 11
82.54999417103181
 21
-11.12819478077628
 31
0.0
  0
LINE
  5
5787A
330
1F
100
AcDbEntity
  8
1
100
AcDbLine
 10
82.54999417103181
 20
-11.12819478077628
 30
0.0
 11
82.54997767103214
 21
-11.20029028077621
 31
0.0
  0
LINE
  5
5787B
330
1F
100
AcDbEntity
  8
1
100
AcDbLine
 10
82.54997767103214
 20
-11.20029028077621
 30
0.0
 11
82.54754667103203
 21
-11.24595978077624
 31
0.0
  0
DIMENSION
  5
5787C
102
{ACAD_XDICTIONARY
360
5787D
102
}
102
{ACAD_REACTORS
330
5787E
102
}
330
1F
100
AcDbEntity
  8
2
100
AcDbDimension
  2
*D195
 10
81.54992664587984
 20
11.23965867140159
 30
0.0
 11
100.3277040034238
 21
28.4901138106297
 31
0.0
 70
    36
 71
     5
 42
1.00000000000027
  3
\M+18352\M+18373\M+1815B - ISO-25
100
AcDbRadialDimension
 15
82.3844529007564
 25
11.79062684645552
 35
0.0
 40
0.0
1001
ACAD
1000
DSTYLE
1002
{
1070
     4
1000
"
1070
    40
1040
1.0
1070
   143
1040
0.03937
1070
   170
1070
     1
1070
   171
1070
     3
1070
   271
1070
     8
1070
   285
1070
     4
1002
}
  0
LINE
  5
5787F
330
1F
100
AcDbEntity
  8
cut
100
AcDbLine
 10
72.54999404036903
 20
12.15936115272373
 30
0.0
 11
79.04999404036903
 21
12.50001171812371
 31
0.0
1001
ACAD
1000
RTMaterial
1005
0
  0
LINE
  5
57880
330
1F
100
AcDbEntity
  8
cut
100
AcDbLine
 10
64.04999404036903
 20
11.7650117181237
 30
0.0
 11
71.06319037776893
 21
11.7650117181237
 31
0.0
1001
ACAD
1000
RTMaterial
1005
0
  0
LINE
  5
57881
330
1F
100
AcDbEntity
  8
cut
100
AcDbLine
 10
79.04999404036903
 20
12.50001171812371
 30
0.0
 11
81.54999404036903
 21
12.50001171812371
 31
0.0
1001
ACAD
1000
RTMaterial
1005
0
  0
LINE
  5
57882
330
1F
100
AcDbEntity
  8
cut
100
AcDbLine
 10
82.5499940403688
 20
11.0000117181219
 30
0.0
 11
82.54999404036903
 21
11.50001171812371
 31
0.0
1001
ACAD
1000
RTMaterial
1005
0
  0
LINE
  5
57883
330
1F
100
AcDbEntity
  8
cut
100
AcDbLine
 10
64.04999404036903
 20
-11.76498828187627
 30
0.0
 11
64.04999404036903
 21
11.76501171812364
 31
0.0
1001
ACAD
1000
RTMaterial
1005
0
  0
LINE
  5
57884
330
1F
100
AcDbEntity
  8
cut
100
AcDbLine
 10
81.97350846826907
 20
0.0000117181237158
 30
0.0
 11
82.54999404036903
 21
11.00001171812371
 31
0.0
1001
ACAD
1000
RTMaterial
1005
0
  0
ARC
  5
57885
330
1F
100
AcDbEntity
  8
cut
100
AcDbCircle
 10
71.06319037776893
 20
14.7650117181237
 30
0.0
 40
3.0
100
AcDbArc
 50
270.0
 51
299.709403338995
1001
ACAD
1000
RTMaterial
1005
0
  0
ARC
  5
57886
330
1F
100
AcDbEntity
  8
cut
100
AcDbCircle
 10
81.54999404036903
 20
11.50001171812371
 30
0.0
 40
1.0
100
AcDbArc
 50
0.0
 51
90.0
1001
ACAD
1000
RTMaterial
1005
0
  0
LINE
  5
57887
330
1F
100
AcDbEntity
  8
cut
100
AcDbLine
 10
72.54999404036903
 20
-12.1593377164763
 30
0.0
 11
79.04999404036903
 21
-12.49998828187628
 31
0.0
1001
ACAD
1000
RTMaterial
1005
0
  0
LINE
  5
57888
330
1F
100
AcDbEntity
  8
cut
100
AcDbLine
 10
64.04999404036903
 20
-11.76498828187627
 30
0.0
 11
71.06319037776893
 21
-11.76498828187627
 31
0.0
1001
ACAD
1000
RTMaterial
1005
0
  0
LINE
  5
57889
330
1F
100
AcDbEntity
  8
cut
100
AcDbLine
 10
79.04999404036903
 20
-12.49998828187628
 30
0.0
 11
81.54999404036903
 21
-12.49998828187628
 31
0.0
1001
ACAD
1000
RTMaterial
1005
0
  0
LINE
  5
5788A
330
1F
100
AcDbEntity
  8
cut
100
AcDbLine
 10
82.5499940403688
 20
-10.99998828187446
 30
0.0
 11
82.54999404036903
 21
-11.49998828187628
 31
0.0
1001
ACAD
1000
RTMaterial
1005
0
  0
LINE
  5
5788B
330
1F
100
AcDbEntity
  8
cut
100
AcDbLine
 10
81.97350846826907
 20
0.0000117181237158
 30
0.0
 11
82.54999404036903
 21
-10.99998828187628
 31
0.0
1001
ACAD
1000
RTMaterial
1005
0
  0
ARC
  5
5788C
330
1F
100
AcDbEntity
  8
cut
100
AcDbCircle
 10
71.06319037776893
 20
-14.76498828187624
 30
0.0
 40
3.0
100
AcDbArc
 50
60.29059666100495
 51
90.0
1001
ACAD
1000
RTMaterial
1005
0
  0
ARC
  5
5788D
330
1F
100
AcDbEntity
  8
cut
100
AcDbCircle
 10
81.54999404036903
 20
-11.49998828187628
 30
0.0
 40
1.0
100
AcDbArc
 50
270.0
 51
0.0
1001
ACAD
1000
RTMaterial
1005
0
  0
VIEWPORT
  5
6B
102
{ACAD_XDICTIONARY
360
57AE6
102
}
330
50
100
AcDbEntity
 67
     1
  8
0
100
AcDbViewport
 10
150.1652135264906
 20
160.4455827878762
 30
0.0
 40
339.1973820494346
 41
282.2272140146125
 68
     1
 69
     1
 12
150.1652135264906
 22
160.4455827878762
 13
0.0
 23
0.0
 14
10.0
 24
10.0
 15
10.0
 25
10.0
 16
0.0
 26
0.0
 36
1.0
 17
0.0
 27
0.0
 37
0.0
 42
50.0
 43
0.0
 44
0.0
 45
282.2272140146125
 50
0.0
 51
0.0
 72
  1000
 90
    32864
  1

281
     0
 71
     1
 74
     0
110
0.0
120
0.0
130
0.0
111
1.0
121
0.0
131
0.0
112
0.0
122
1.0
132
0.0
 79
     0
146
0.0
  0
VIEWPORT
  5
6D
102
{ACAD_XDICTIONARY
360
57AE8
102
}
330
50
100
AcDbEntity
 67
     1
  8
0
100
AcDbViewport
 10
133.3499939441681
 20
101.5999939441681
 30
0.0
 40
213.3599903106689
 41
162.5599903106689
 68
     2
 69
     2
 12
210.0
 22
148.5
 13
0.0
 23
0.0
 14
10.0
 24
10.0
 15
10.0
 25
10.0
 16
0.0
 26
0.0
 36
1.0
 17
0.0
 27
0.0
 37
0.0
 42
50.0
 43
0.0
 44
0.0
 45
324.0677920111345
 50
0.0
 51
0.0
 72
   100
 90
    32864
  1

281
     0
 71
     1
 74
     0
110
0.0
120
0.0
130
0.0
111
1.0
121
0.0
131
0.0
112
0.0
122
1.0
132
0.0
 79
     0
146
0.0
  0
ENDSEC
  0
SECTION
  2
OBJECTS
  0
DICTIONARY
  5
C
330
0
100
AcDbDictionary
281
     1
  3
ACAD_COLOR
350
85
  3
ACAD_GROUP
350
D
  3
ACAD_LAYOUT
350
1A
  3
ACAD_MATERIAL
350
84
  3
ACAD_MLINESTYLE
350
17
  3
ACAD_PLOTSETTINGS
350
19
  3
ACAD_PLOTSTYLENAME
350
E
  3
ACAD_TABLESTYLE
350
A1
  3
ACDBHEADERROUNDTRIPXREC
350
57AE1
  3
AcDbVariableDictionary
350
5E
  3
ASE_INDEX_DICTIONARY
350
349E9
  3
DWGPROPS
350
57AE0
  0
DICTIONARY
  5
E2
330
2
100
AcDbDictionary
280
     1
281
     1
  3
ACAD_LAYERFILTERS
360
57A9A
  3
ACAD_LAYERSTATES
360
3759A
  3
ACLYDICTIONARY
360
57A99
  0
DICTIONARY
  5
31EE
330
1F
100
AcDbDictionary
280
     1
281
     1
  3
ACAD_SORTENTS
360
31EF
  0
DICTIONARY
  5
3BEB2
330
680
100
AcDbDictionary
280
     1
281
     1
  3
ACAD_SORTENTS
360
55D57
  0
DICTIONARY
  5
57AEA
330
71
100
AcDbDictionary
280
     1
281
     1
  3
ACAD_XREC_ROUNDTRIP
360
57AEB
  0
DICTIONARY
  5
57AEC
330
73
100
AcDbDictionary
280
     1
281
     1
  3
ACAD_XREC_ROUNDTRIP
360
57AED
  0
DICTIONARY
  5
577B1
330
577B0
100
AcDbDictionary
280
     1
281
     1
  3
ACAD_DIMASSOC
360
577B2
  0
DICTIONARY
  5
577C1
330
577C0
100
AcDbDictionary
280
     1
281
     1
  3
ACAD_DIMASSOC
360
577C2
  0
DICTIONARY
  5
5787D
330
5787C
100
AcDbDictionary
280
     1
281
     1
  3
ACAD_DIMASSOC
360
5787E
  0
DICTIONARY
  5
57AE6
330
6B
100
AcDbDictionary
280
     1
281
     1
  3
ACAD_XREC_ROUNDTRIP
360
57AE7
  0
DICTIONARY
  5
57AE8
330
6D
100
AcDbDictionary
280
     1
281
     1
  3
ACAD_XREC_ROUNDTRIP
360
57AE9
  0
DICTIONARY
  5
85
102
{ACAD_REACTORS
330
C
102
}
330
C
100
AcDbDictionary
281
     1
  0
DICTIONARY
  5
D
102
{ACAD_REACTORS
330
C
102
}
330
C
100
AcDbDictionary
281
     1
  0
DICTIONARY
  5
1A
102
{ACAD_REACTORS
330
C
102
}
330
C
100
AcDbDictionary
281
     1
  3
\M+1838C\M+18343\M+18341\M+18345\M+183671
350
51
  3
\M+1838C\M+18343\M+18341\M+18345\M+183672
350
56
  3
Model
350
22
  0
DICTIONARY
  5
84
102
{ACAD_REACTORS
330
C
102
}
330
C
100
AcDbDictionary
281
     1
  0
DICTIONARY
  5
17
102
{ACAD_REACTORS
330
C
102
}
330
C
100
AcDbDictionary
281
     1
  3
Standard
350
18
  0
DICTIONARY
  5
19
102
{ACAD_REACTORS
330
C
102
}
330
C
100
AcDbDictionary
281
     1
  0
ACDBDICTIONARYWDFLT
  5
E
102
{ACAD_REACTORS
330
C
102
}
330
C
100
AcDbDictionary
281
     1
  3
Normal
350
F
100
AcDbDictionaryWithDefault
340
F
  0
DICTIONARY
  5
A1
102
{ACAD_REACTORS
330
C
102
}
330
C
100
AcDbDictionary
281
     1
  3
Standard
350
A2
  0
DICTIONARY
  5
57AE1
102
{ACAD_REACTORS
330
C
102
}
330
C
100
AcDbDictionary
281
     1
  0
DICTIONARY
  5
5E
102
{ACAD_REACTORS
330
C
102
}
330
C
100
AcDbDictionary
281
     1
  3
CTABLESTYLE
350
B8
  3
DIMASSOC
350
5F
  3
HIDETEXT
350
63
  3
PROJECTNAME
350
31CE
  0
DICTIONARY
  5
349E9
102
{ACAD_REACTORS
330
C
102
}
330
C
100
AcDbDictionary
281
     1
  3
ASEBlockHierarchyIndexRecord
350
349EA
1001
DCO15
1040
1842496176.844
  0
XRECORD
  5
57AE0
102
{ACAD_REACTORS
330
C
102
}
330
C
100
AcDbXrecord
280
     1
  1
DWGPROPS COOKIE
  2

  3

  4

  6

  7

  8

  9

300
=
301
=
302
=
303
=
304
=
305
=
306
=
307
=
308
=
309
=
 40
2.788621840277778
 41
2455489.391063368
 42
2458572.926795185
  1

 90
        0
  0
DICTIONARY
  5
57A9A
102
{ACAD_REACTORS
330
E2
102
}
330
E2
100
AcDbDictionary
281
     1
  0
DICTIONARY
  5
3759A
102
{ACAD_REACTORS
330
E2
102
}
330
E2
100
AcDbDictionary
281
     1
  0
DICTIONARY
  5
57A99
102
{ACAD_REACTORS
330
E2
102
}
330
E2
100
AcDbDictionary
281
     1
1001
ACAD
1000
<All
  0
SORTENTSTABLE
  5
31EF
102
{ACAD_REACTORS
330
31EE
102
}
330
31EE
100
AcDbSortentsTable
330
1F
331
5785D
  5
5785F
331
577A9
  5
577A9
331
5788D
  5
5788F
331
5784E
  5
57850
331
5787C
  5
57880
331
5783D
  5
5783F
331
577C8
  5
577CA
331
57791
  5
57791
331
5786D
  5
5786F
331
577B9
  5
577BB
331
57782
  5
57782
331
5785C
  5
5785E
331
577A8
  5
577A8
331
5788C
  5
5788E
331
5784D
  5
5784F
331
5787B
  5
5787F
331
5783C
  5
5783E
331
577C7
  5
577C9
331
57790
  5
57790
331
5786C
  5
5786E
331
577B8
  5
577BA
331
57781
  5
57781
331
5785B
  5
5785D
331
577A7
  5
577A7
331
5788B
  5
5788D
331
5784C
  5
5784E
331
5787A
  5
5787C
331
5783B
  5
5783D
331
577C6
  5
577C8
331
5778F
  5
5778F
331
5786B
  5
5786D
331
577B7
  5
577B9
331
57780
  5
57780
331
5785A
  5
5785C
331
577A6
  5
577A6
331
5788A
  5
5788C
331
5784B
  5
5784D
331
5779F
  5
5779F
331
57879
  5
5787B
331
5783A
  5
5783C
331
577C5
  5
577C7
331
5778E
  5
5778E
331
5786A
  5
5786C
331
577B6
  5
577B8
331
5777F
  5
5777F
331
57859
  5
5785B
331
577A5
  5
577A5
331
57889
  5
5788B
331
5784A
  5
5784C
331
5779E
  5
5779E
331
57878
  5
5787A
331
57839
  5
5783B
331
577C4
  5
577C6
331
5778D
  5
5778D
331
57869
  5
5786B
331
577B5
  5
577B7
331
5777E
  5
5777E
331
57858
  5
5785A
331
577A4
  5
577A4
331
57888
  5
5788A
331
57849
  5
5784B
331
5779D
  5
5779D
331
57838
  5
5783A
331
577C3
  5
577C5
331
5778C
  5
5778C
331
57868
  5
5786A
331
577B4
  5
577B6
331
5777D
  5
5777D
331
577A3
  5
577A3
331
57887
  5
57889
331
57848
  5
5784A
331
5779C
  5
5779C
331
5778B
  5
5778B
331
57867
  5
57869
331
577B3
  5
577B5
331
5777C
  5
5777C
331
577A2
  5
577A2
331
57886
  5
57888
331
57847
  5
57849
331
577D2
  5
577D7
331
5779B
  5
5779B
331
57877
  5
57879
331
5778A
  5
5778A
331
57866
  5
57868
331
5777B
  5
5777B
331
57857
  5
57859
331
577A1
  5
577A1
331
57885
  5
57887
331
57846
  5
57848
331
577D1
  5
577D6
331
5779A
  5
5779A
331
57876
  5
57878
331
57837
  5
57839
331
577C0
  5
577C4
331
57789
  5
57789
331
57865
  5
57867
331
57856
  5
57858
331
577A0
  5
577A0
331
57884
  5
57886
331
57845
  5
57847
331
577D0
  5
577D2
331
57799
  5
57799
331
57875
  5
57877
331
57836
  5
57838
331
57788
  5
57788
331
57864
  5
57866
331
577B0
  5
577B4
331
57855
  5
57857
331
57883
  5
57885
331
57844
  5
57846
331
577CF
  5
577D1
331
57798
  5
57798
331
57874
  5
57876
331
57835
  5
57837
331
57863
  5
57865
331
577AF
  5
577B3
331
57854
  5
57856
331
68C
  5
3C6B0
331
57882
  5
57884
331
57843
  5
57845
331
577CE
  5
577D0
331
57797
  5
57797
331
57873
  5
57875
331
57834
  5
57836
331
577BF
  5
577C3
331
57862
  5
57864
331
577AE
  5
577B0
331
57853
  5
57855
331
57881
  5
57883
331
57842
  5
57844
331
577CD
  5
577CF
331
57796
  5
57796
331
57872
  5
57874
331
57833
  5
57835
331
577BE
  5
577C0
331
57787
  5
57787
331
57861
  5
57863
331
577AD
  5
577AF
331
57852
  5
57854
331
57880
  5
57882
331
57841
  5
57843
331
577CC
  5
577CE
331
57795
  5
57795
331
57871
  5
57873
331
577BD
  5
577BF
331
57786
  5
57786
331
57860
  5
57862
331
577AC
  5
577AE
331
57851
  5
57853
331
5787F
  5
57881
331
57840
  5
57842
331
577CB
  5
577CD
331
57794
  5
57794
331
57870
  5
57872
331
577BC
  5
577BE
331
57785
  5
57785
331
5785F
  5
57861
331
577AB
  5
577AD
331
57850
  5
57852
331
5783F
  5
57841
331
577CA
  5
577CC
331
57793
  5
57793
331
5786F
  5
57871
331
577BB
  5
577BD
331
57784
  5
57784
331
5785E
  5
57860
331
577AA
  5
577AA
331
5784F
  5
57851
331
53DFB
  5
53DFB
331
5783E
  5
57840
331
577C9
  5
577CB
331
57792
  5
57792
331
5786E
  5
57870
331
577BA
  5
577BC
331
57783
  5
57783
  0
SORTENTSTABLE
  5
55D57
102
{ACAD_REACTORS
330
3BEB2
102
}
330
3BEB2
100
AcDbSortentsTable
330
680
  0
XRECORD
  5
57AEB
102
{ACAD_REACTORS
330
57AEA
102
}
330
57AEA
100
AcDbXrecord
280
     1
102
SHADEPLOT
 70
     0
  0
XRECORD
  5
57AED
102
{ACAD_REACTORS
330
57AEC
102
}
330
57AEC
100
AcDbXrecord
280
     1
102
SHADEPLOT
 70
     0
  0
DIMASSOC
  5
577B2
102
{ACAD_REACTORS
330
577B1
102
}
330
577B1
100
AcDbDimAssoc
330
577B0
 90
        1
 70
     0
 71
     0
  1
AcDbOsnapPointRef
 72
     1
331
577AD
 73
     2
 91
        0
 40
1.0
 10
0.0
 20
0.0
 30
2.000000000000000E+50
 75
     0
  0
DIMASSOC
  5
577C2
102
{ACAD_REACTORS
330
577C1
102
}
330
577C1
100
AcDbDimAssoc
330
577C0
 90
        3
 70
     0
 71
     0
  1
AcDbOsnapPointRef
 72
    13
331
577BE
 73
     2
 91
        0
 40
0.0
 10
0.0
 20
0.0
 30
2.000000000000000E+50
 75
     0
  1
AcDbOsnapPointRef
 72
     1
331
577BE
 73
     2
 91
        0
 40
1.0
 10
0.0
 20
0.0
 30
2.000000000000000E+50
 75
     0
  0
DIMASSOC
  5
5787E
102
{ACAD_REACTORS
330
5787D
102
}
330
5787D
100
AcDbDimAssoc
330
5787C
 90
        2
 70
     0
 71
     0
  1
AcDbOsnapPointRef
 72
     3
331
5786B
 73
     2
 91
        0
 40
0.0
 10
0.0
 20
0.0
 30
0.0
 75
     0
  0
XRECORD
  5
57AE7
102
{ACAD_REACTORS
330
57AE6
102
}
330
57AE6
100
AcDbXrecord
280
     1
102
SHADEPLOT
 70
     0
  0
XRECORD
  5
57AE9
102
{ACAD_REACTORS
330
57AE8
102
}
330
57AE8
100
AcDbXrecord
280
     1
102
SHADEPLOT
 70
     0
  0
LAYOUT
  5
51
102
{ACAD_XDICTIONARY
360
B2
102
}
102
{ACAD_REACTORS
330
1A
102
}
330
1A
100
AcDbPlotSettings
  1

  2
none_device
  4
Letter_(8.50_x_11.00_Inches)
  6

 40
6.349999904632567
 41
6.349999904632567
 42
6.350006103515625
 43
6.350006103515625
 44
215.8999938964844
 45
279.3999938964844
 46
0.0
 47
0.0
 48
0.0
 49
0.0
140
0.0
141
0.0
142
1.0
143
1.0
 70
   688
 72
     1
 73
     1
 74
     5
  7

 75
    16
147
1.0
148
0.0
149
0.0
100
AcDbLayout
  1
\M+1838C\M+18343\M+18341\M+18345\M+183671
 70
     1
 71
     1
 10
-6.350006103515625
 20
-6.349999904632567
 11
273.0499877929688
 21
209.5499939918518
 12
0.0
 22
0.0
 32
0.0
 14
26.66999878883364
 24
20.31999878883365
 34
0.0
 15
240.0299890995025
 25
182.8799890995025
 35
0.0
146
0.0
 13
0.0
 23
0.0
 33
0.0
 16
1.0
 26
0.0
 36
0.0
 17
0.0
 27
1.0
 37
0.0
 76
     0
330
50
331
6B
  0
LAYOUT
  5
56
102
{ACAD_XDICTIONARY
360
B5
102
}
102
{ACAD_REACTORS
330
1A
102
}
330
1A
100
AcDbPlotSettings
  1

  2
none_device
  4
Letter_(8.50_x_11.00_Inches)
  6

 40
6.349999904632567
 41
6.349999904632567
 42
6.350006103515625
 43
6.350006103515625
 44
215.8999938964844
 45
279.3999938964844
 46
0.0
 47
0.0
 48
0.0
 49
0.0
140
0.0
141
0.0
142
1.0
143
1.0
 70
   688
 72
     1
 73
     1
 74
     5
  7

 75
    16
147
1.0
148
0.0
149
0.0
100
AcDbLayout
  1
\M+1838C\M+18343\M+18341\M+18345\M+183672
 70
     1
 71
     2
 10
-6.350006103515625
 20
-6.349999904632567
 11
273.0499877929688
 21
209.5499939918518
 12
0.0
 22
0.0
 32
0.0
 14
26.66999878883363
 24
20.31999878883363
 34
0.0
 15
240.0299890995026
 25
182.8799890995025
 35
0.0
146
0.0
 13
0.0
 23
0.0
 33
0.0
 16
1.0
 26
0.0
 36
0.0
 17
0.0
 27
1.0
 37
0.0
 76
     0
330
55
331
71
  0
LAYOUT
  5
22
102
{ACAD_XDICTIONARY
360
57AE2
102
}
102
{ACAD_REACTORS
330
1A
102
}
330
1A
100
AcDbPlotSettings
  1

  2
none_device
  4
ANSI_A_(8.50_x_11.00_Inches)
  6

 40
6.349999904632567
 41
19.04999923706055
 42
6.350006103515625
 43
19.04998779296875
 44
215.8999938964844
 45
279.3999938964844
 46
0.0
 47
0.0
 48
0.0
 49
0.0
140
0.0
141
0.0
142
1.0
143
78.436453180766
 70
 11952
 72
     0
 73
     1
 74
     0
  7

 75
     0
147
0.0127491741332998
148
0.0
149
0.0
100
AcDbLayout
  1
Model
 70
     1
 71
     0
 10
0.0
 20
0.0
 11
12.0
 21
9.0
 12
0.0
 22
0.0
 32
0.0
 14
0.0
 24
0.0
 34
0.0
 15
0.0
 25
0.0
 35
0.0
146
0.0
 13
0.0
 23
0.0
 33
0.0
 16
1.0
 26
0.0
 36
0.0
 17
0.0
 27
1.0
 37
0.0
 76
     0
330
1F
  0
MLINESTYLE
  5
18
102
{ACAD_REACTORS
330
17
102
}
330
17
100
AcDbMlineStyle
  2
STANDARD
 70
     0
  3

 62
   256
 51
90.0
 52
90.0
 71
     2
 49
0.5
 62
   256
  6
BYLAYER
 49
-0.5
 62
   256
  6
BYLAYER
  0
ACDBPLACEHOLDER
  5
F
102
{ACAD_REACTORS
330
E
102
}
330
E
  0
TABLESTYLE
  5
A2
102
{ACAD_REACTORS
330
A1
102
}
330
A1
100
AcDbTableStyle
  3
Standard
 70
     0
 71
     0
 40
1.5
 41
1.5
280
     0
281
     0
  7
Standard
140
4.5
170
     2
 62
     0
 63
     7
283
     0
274
    -2
284
     1
 64
     0
275
    -2
285
     1
 65
     0
276
    -2
286
     1
 66
     0
277
    -2
287
     1
 67
     0
278
    -2
288
     1
 68
     0
279
    -2
289
     1
 69
     0
  7
Standard
140
6.0
170
     5
 62
     0
 63
     7
283
     0
274
    -2
284
     1
 64
     0
275
    -2
285
     1
 65
     0
276
    -2
286
     1
 66
     0
277
    -2
287
     1
 67
     0
278
    -2
288
     1
 68
     0
279
    -2
289
     1
 69
     0
  7
Standard
140
4.5
170
     5
 62
     0
 63
     7
283
     0
274
    -2
284
     1
 64
     0
275
    -2
285
     1
 65
     0
276
    -2
286
     1
 66
     0
277
    -2
287
     1
 67
     0
278
    -2
288
     1
 68
     0
279
    -2
289
     1
 69
     0
  0
DICTIONARYVAR
  5
B8
102
{ACAD_REACTORS
330
5E
102
}
330
5E
100
DictionaryVariables
280
     0
  1
STANDARD
  0
DICTIONARYVAR
  5
5F
102
{ACAD_REACTORS
330
5E
102
}
330
5E
100
DictionaryVariables
280
     0
  1
2
  0
DICTIONARYVAR
  5
63
102
{ACAD_REACTORS
330
5E
102
}
330
5E
100
DictionaryVariables
280
     0
  1
1
  0
DICTIONARYVAR
  5
31CE
102
{ACAD_REACTORS
330
5E
102
}
330
5E
100
DictionaryVariables
280
     0
  1

  0
XRECORD
  5
349EA
102
{ACAD_REACTORS
330
349E9
102
}
330
349E9
100
AcDbXrecord
280
     1
330
68C
330
0
330
0
330
0
330
0
330
0
330
0
330
0
330
0
330
0
330
0
330
0
330
0
330
0
330
0
330
0
330
0
330
0
330
0
330
0
330
0
330
0
330
0
330
0
330
0
330
0
330
0
330
0
330
0
330
0
330
0
330
0
330
0
330
0
330
0
330
0
330
0
330
0
330
0
330
0
330
0
330
0
330
0
330
0
330
0
330
0
330
0
330
0
330
0
330
0
330
0
330
0
330
0
330
0
330
0
330
0
330
0
330
0
330
0
330
0
330
0
330
0
330
0
330
0
330
0
330
0
330
0
330
0
330
0
330
0
330
0
330
0
330
0
330
0
330
0
330
0
330
0
330
0
330
0
330
0
330
0
330
0
330
0
330
0
330
0
330
0
330
0
330
0
330
0
330
0
330
0
330
0
330
0
330
0
330
0
330
0
330
0
330
0
330
0
330
0
330
0
330
0
330
0
330
0
330
0
330
0
330
0
330
0
330
0
330
0
  0
DICTIONARY
  5
B2
330
51
100
AcDbDictionary
280
     1
281
     1
  3
ACAD_XREC_ROUNDTRIP
360
57AE4
  3
ADSK_XREC_LAYOUTTHUMBNAIL
360
B3
  0
DICTIONARY
  5
B5
330
56
100
AcDbDictionary
280
     1
281
     1
  3
ACAD_XREC_ROUNDTRIP
360
57AE5
  3
ADSK_XREC_LAYOUTTHUMBNAIL
360
B6
  0
DICTIONARY
  5
57AE2
330
22
100
AcDbDictionary
280
     1
281
     1
  3
ACAD_XREC_ROUNDTRIP
360
57AE3
  0
XRECORD
  5
57AE4
102
{ACAD_REACTORS
330
B2
102
}
330
B2
100
AcDbXrecord
280
     1
102
SHADEPLOT
 70
     0
102
SHADEPLOTRESLEVEL
 70
     2
102
SHADEPLOTCUSTOMDPI
 70
   300
  0
XRECORD
  5
B3
102
{ACAD_REACTORS
330
B2
102
}
330
B2
100
AcDbXrecord
280
     1
310
28000000B40000008B0000000100080000000000BC61000000000000000000000001000000000000FFFFFF0000000000FFFFFF000000000000000000000000000000000000000000000000000000000000000000330000006600000099000000CC000000FF00000000330000333300006633000099330000CC330000FF3300
310
0000660000336600006666000099660000CC660000FF66000000990000339900006699000099990000CC990000FF99000000CC000033CC000066CC000099CC0000CCCC0000FFCC000000FF000033FF000066FF000099FF0000CCFF0000FFFF000000003300330033006600330099003300CC003300FF003300003333003333
310
33006633330099333300CC333300FF33330000663300336633006666330099663300CC663300FF66330000993300339933006699330099993300CC993300FF99330000CC330033CC330066CC330099CC3300CCCC3300FFCC330000FF330033FF330066FF330099FF3300CCFF3300FFFF330000006600330066006600660099
310
006600CC006600FF00660000336600333366006633660099336600CC336600FF33660000666600336666006666660099666600CC666600FF66660000996600339966006699660099996600CC996600FF99660000CC660033CC660066CC660099CC6600CCCC6600FFCC660000FF660033FF660066FF660099FF6600CCFF6600
310
FFFF660000009900330099006600990099009900CC009900FF00990000339900333399006633990099339900CC339900FF33990000669900336699006666990099669900CC669900FF66990000999900339999006699990099999900CC999900FF99990000CC990033CC990066CC990099CC9900CCCC9900FFCC990000FF99
310
0033FF990066FF990099FF9900CCFF9900FFFF99000000CC003300CC006600CC009900CC00CC00CC00FF00CC000033CC003333CC006633CC009933CC00CC33CC00FF33CC000066CC003366CC006666CC009966CC00CC66CC00FF66CC000099CC003399CC006699CC009999CC00CC99CC00FF99CC0000CCCC0033CCCC0066CC
310
CC0099CCCC00CCCCCC00FFCCCC0000FFCC0033FFCC0066FFCC0099FFCC00CCFFCC00FFFFCC000000FF003300FF006600FF009900FF00CC00FF00FF00FF000033FF003333FF006633FF009933FF00CC33FF00FF33FF000066FF003366FF006666FF009966FF00CC66FF00FF66FF000099FF003399FF006699FF009999FF00CC
310
99FF00FF99FF0000CCFF0033CCFF0066CCFF0099CCFF00CCCCFF00FFCCFF0000FFFF0033FFFF0066FFFF0099FFFF00CCFFFF00FFFFFF00000000000D0D0D001A1A1A00282828003535350043434300505050005D5D5D006B6B6B00787878008686860093939300A1A1A100AEAEAE00BBBBBB00C9C9C900D6D6D600E4E4E400
310
F1F1F100FFFFFF0000000000000000000000000000000000000000000000000000000000000000000000000000000000E2E2E2E2E2E2E2E2E2E2E2E2E2E2E2E2E2E2E2E2E2E2E2E2E2E2E2E2E2E2E2E2E2E2E2E2E2E2E2E2E2E2E2E2E2E2E2E2E2E2E2E2E2E2E2E2E2E2E2E2E2E2E2E2E2E2E2E2E2E2E2E2E2E2E2E2E2E2E2
310
E2E2E2E2E2E2E2E2E2E2E2E2E2E2E2E2E2E2E2E2E2E2E2E2E2E2E2E2E2E2E2E2E2E2E2E2E2E2E2E2E2E2E2E2E2E2E2E2E2E2E2E2E2E2E2E2E2E2E2E2E2E2E2E2E2E2E2E2E2E2E2E2E2E2E2E2E2E2E2E2E2E2E2E2E2E2E2E2E2E2E2E2E2E2E2E2E2E2E2E2E2E2F5F5F5F5F5F5F5F5F5F5F5F5F5F5F5F5F5F5F5F5F5F5F5F5F5
310
F5F5F5F5F5F5F5F5F5F5F5F5F5F5F5F5F5F5F5F5F5F5F5F5F5F5F5F5F5F5F5F5F5F5F5F5F5F5F5F5F5F5F5F5F5F5F5F5F5F5F5F5F5F5F5F5F5F5F5F5F5F5F5F5F5F5F5F5F5F5F5F5F5F5F5F5F5F5F5F5F5F5F5F5F5F5F5F5F5F5F5F5F5F5F5F5F5F5F5F5F5F5F5F5F5F5F5F5F5F5F5F5F5F5F5F5F5F5F5F5F5F5F5F5F5F5F5
310
F5F5F5F5F5F5F5F5F5F5F5F5F5F5F5F5F5F5F5F5F5F5F5F5F5F5E2E2F5F5F5F5F5F5F5F5F5F5F5F5F5F5F5F5F5F5F5F5F5F5F5F5F5F5F5F5F5F5F5F5F5F5F5F5F5F5F5F5F5F5F5F5F5F5F5F5F5F5F5F5F5F5F5F5F5F5F5F5F5F5F5F5F5F5F5F5F5F5F5F5F5F5F5F5F5F5F5F5F5F5F5F5F5F5F5F5F5F5F5F5F5F5F5F5F5F5F5
310
F5F5F5F5F5F5F5F5F5F5F5F5F5F5F5F5F5F5F5F5F5F5F5F5F5F5F5F5F5F5F5F5F5F5F5F5F5F5F5F5F5F5F5F5F5F5F5F5F5F5F5F5F5F5F5F5F5F5F5F5F5F5F5F5F5F5F5F5F5F5F5F5F5F5F5F5F5F5F5E2E2F5F5F5F5F5F5F5F5F5F5F5F5F5F5F5F5F5F5F5F5F5F5F5F5F5F5F5F5F5F5F5F5F5F5F5F5F5F5F5F5F5F5F5F5F5F5
310
F5F5F5F5F5F5F5F5F5F5F5F5F5F5F5F5F5F5F5F5F5F5F5F5F5F5F5F5F5F5F5F5F5F5F5F5F5F5F5F5F5F5F5F5F5F5F5F5F5F5F5F5F5F5F5F5F5F5F5F5F5F5F5F5F5F5F5F5F5F5F5F5F5F5F5F5F5F5F5F5F5F5F5F5F5F5F5F5F5F5F5F5F5F5F5F5F5F5F5F5F5F5F5F5F5F5F5F5F5F5F5F5F5F5F5F5F5F5F5F5F5F5F5F5F5F5F5
310
F5F5F5F5F5E2E2F5F5F5F5E2E2E2E2E2E2E2E2F5F5F5F5F5F5F5F5F5E2E2E2E2E2E2E2E2E2E2E2E2E2E2E2F5F5F5F5F5F5F5F5F5E2E2E2E2E2E2E2E2E2E2E2E2E2E2E2E2F5F5F5F5F5F5F5F5E2E2E2E2E2E2E2E2E2E2E2E2E2E2E2E2F5F5F5F5F5F5F5F5E2E2E2E2E2E2E2E2E2E2E2E2E2E2E2E2F5F5F5F5F5F5F5F5E2E2E2
310
E2E2E2E2E2E2E2E2E2E2E2E2E2F5F5F5F5F5F5F5F5F5E2E2E2E2E2E2E2E2E2E2E2E2E2E2E2F5F5F5F5F5F5F5F5F5E2E2E2E2E2E2E2E2F5F5F5F5E2E2F5F5F5F5E2F5F5F5F5F5F5F5F5F5F5F5F5F5F5F5F5F5F5F5F5F5F5F5F5F5F5F5F5F5F5F5F5F5F5F5F5F5F5F5F5F5F5F5F5F5F5F5F5F5F5F5F5F5F5F5F5F5F5F5F5F5F5
310
F5F5F5F5F5F5F5F5F5F5F5F5F5F5F5F5F5F5F5F5F5F5F5F5F5F5F5F5F5F5F5F5F5F5F5F5F5F5F5F5F5F5F5F5F5F5F5F5F5F5F5F5F5F5F5F5F5F5F5F5F5F5F5F5F5F5F5F5F5F5F5F5F5F5F5F5F5F5F5F5F5F5F5F5F5F5F5F5F5F5F5F5F5F5F5F5F5F5F5F5F5F5F5F5F5F5E2F5F5F5F5E2E2F5F5F5F5E2F5F5F5F5F5F5F5F5F5
310
F5F5F5F5F5F5F5F5F5F5F5F5F5F5F5F5F5F5F5F5F5F5F5F5F5F5F5F5F5F5F5F5F5F5F5F5F5F5F5F5F5F5F5F5F5F5F5F5F5F5F5F5F5F5F5F5F5F5F5F5F5F5F5F5F5F5F5F5F5F5F5F5F5F5F5F5F5F5F5F5F5F5F5F5F5F5F5F5F5F5F5F5F5F5F5F5F5F5F5F5F5F5F5F5F5F5F5F5F5F5F5F5F5F5F5F5F5F5F5F5F5F5F5F5F5F5F5
310
F5F5F5F5F5F5F5F5F5F5F5F5F5F5F5F5F5F5F5F5F5F5F5F5F5F5F5F5F5F5F5F5E2F5F5F5F5E2E2F5F5F5F5E2F5F5F5F5F5F5F5F5F5F5F5F5F5F5F5F5F5F5F5F5F5F5F5F5F5F5F5F5F5F5F5F5F5F5F5F5F5F5F5F5F5F5F5F5F5F5F5F5F5F5F5F5F5F5F5F5F5F5F5F5F5F5F5F5F5F5F5F5F5F5F5F5F5F5F5F5F5F5F5F5F5F5F5
310
F5F5F5F5F5F5F5F5F5F5F5F5F5F5F5F5F5F5F5F5F5F5F5F5F5F5F5F5F5F5F5F5F5F5F5F5F5F5F5F5F5F5F5F5F5F5F5F5F5F5F5F5F5F5F5F5F5F5F5F5F5F5F5F5F5F5F5F5F5F5F5F5F5F5F5F5F5F5F5F5F5F5F5F5F5E2F5F5F5F5E2E2F5F5F5F5E2F5F5F5F5F5F5F5F5F5F5F5F5F5F5F5F5F5F5F5F5F5F5F5F5F5F5F5F5F5F5
310
F5F5F5F5F5F5F5F5F5F5F5F5F5F5F5F5F5F5F5F5F5F5F5F5F5F5F5F5F5F5F5F5F5F5F5F5F5F5F5F5F5F5F5F5F5F5F5F5F5F5F5F5F5F5F5F5F5F5F5F5F5F5F5F5F5F5F5F5F5F5F5F5F5F5F5F5F5F5F5F5F5F5F5F5F5F5F5F5F5F5F5F5F5F5F5F5F5F5F5F5F5F5F5F5F5F5F5F5F5F5F5F5F5F5F5F5F5F5F5F5F5F5F5F5F5F5F5
310
F5F5F5F5F5F5F5F5F5F5F5E2F5F5F5F5E2E2F5F5F5F5E2F5F5F5F5F5F5F5F5F5F5F5F5F5F5F5F5F5F5F5F5F5F5F5F5F5F5F5F5F5F5F5F5F5F5F5F5F5F5F5F5F5F5F5F5F5F5F5F5F5F5F5F5F5F5F5F5F5F5F5F5F5F5F5F5F5F5F5F5F5F5F5F5F5F5F5F5F5F5F5F5F5F5F5F5F5F5F5F5F5F5F5F5F5F5F5F5F5F5F5F5F5F5F5F5
310
F5F5F5F5F5F5F5F5F5F5F5F5F5F5F5F5F5F5F5F5F5F5F5F5F5F5F5F5F5F5F5F5F5F5F5F5F5F5F5F5F5F5F5F5F5F5F5F5F5F5F5F5F5F5F5F5F5F5F5F5F5F5F5F5E2F5F5F5F5E2E2F5F5F5F5E2F5F5F5F5F5F5F5F5F5F5F5F5F5F5F5F5F5F5F5F5F5F5F5F5F5F5F5F5F5F5F5F5F5F5F5F5F5F5F5F5F5F5F5F5F5F5F5F5F5F5F5
310
F5F5F5F5F5F5F5F5F5F5F5F5F5F5F5F5F5F5F5F5F5F5F5F5F5F5F5F5F5F5F5F5F5F5F5F5F5F5F5F5F5F5F5F5F5F5F5F5F5F5F5F5F5F5F5F5F5F5F5F5F5F5F5F5F5F5F5F5F5F5F5F5F5F5F5F5F5F5F5F5F5F5F5F5F5F5F5F5F5F5F5F5F5F5F5F5F5F5F5F5F5F5F5F5F5F5F5F5F5F5F5F5F5F5F5F5F5E2F5F5F5F5E2E2F5F5F5
310
F5E2F5F5F5F5F5F5F5F5F5F5F5F5F5F5F5F5F5F5F5F5F5F5F5F5F5F5F5F5F5F5F5F5F5F5F5F5F5F5F5F5F5F5F5F5F5F5F5F5F5F5F5F5F5F5F5F5F5F5F5F5F5F5F5F5F5F5F5F5F5F5F5F5F5F5F5F5F5F5F5F5F5F5F5F5F5F5F5F5F5F5F5F5F5F5F5F5F5F5F5F5F5F5F5F5F5F5F5F5F5F5F5F5F5F5F5F5F5F5F5F5F5F5F5F5F5
310
F5F5F5F5F5F5F5F5F5F5F5F5F5F5F5F5F5F5F5F5F5F5F5F5F5F5F5F5F5F5F5F5F5F5F5F5F5F5F5F5F5F5F5E2F5F5F5F5E2E2F5F5F5F5E2F5F5F5F5F5F5F5F5F5F5F5F5F5F5F5F5F5F5F5F5F5F5F5F5F5F5F5F5F5F5F5F5F5F5F5F5F5F5F5F5F5F5F5F5F5F5F5F5F5F5F5F5F5F5F5F5F5F5F5F5F5F5F5F5F5F5F5F5F5F5F5F5
310
F5F5F5F5F5F5F5F5F5F5F5F5F5F5F5F5F5F5F5F5F5F5F5F5F5F5F5F5F5F5F5F5F5F5F5F5F5F5F5F5F5F5F5F5F5F5F5F5F5F5F5F5F5F5F5F5F5F5F5F5F5F5F5F5F5F5F5F5F5F5F5F5F5F5F5F5F5F5F5F5F5F5F5F5F5F5F5F5F5F5F5F5F5F5F5F5E2F5F5F5F5E2E2F5F5F5F5F5F5F5F5F5F5F5F5F5F5F5F5F5F5F5F5F5F5F5F5
310
F5F5F5F5F5F5F5F5F5F5F5F5F5F5F5F5F5F5F5F5F5F5F5F5F5F5F5F5F5F5F5F5F5F5F5F5F5F5F5F5F5F5F5F5F5F5F5F5F5F5F5F5F5F5F5F5F5F5F5F5F5F5F5F5F5F5F5F5F5F5F5F5F5F5F5F5F5F5F5F5F5F5F5F5F5F5F5F5F5F5F5F5F5F5F5F5F5F5F5F5F5F5F5F5F5F5F5F5F5F5F5F5F5F5F5F5F5F5F5F5F5F5F5F5F5F5F5
310
F5F5F5F5F5F5F5F5F5F5F5F5F5F5F5F5F5F5F5F5F5F5F5F5F5F5F5E2E2F5F5F5F5F5F5F5F5F5F5F5F5F5F5F5F5F5F5F5F5F5F5F5F5F5F5F5F5F5F5F5F5F5F5F5F5F5F5F5F5F5F5F5F5F5F5F5F5F5F5F5F5F5F5F5F5F5F5F5F5F5F5F5F5F5F5F5F5F5F5F5F5F5F5F5F5F5F5F5F5F5F5F5F5F5F5F5F5F5F5F5F5F5F5F5F5F5F5
310
F5F5F5F5F5F5F5F5F5F5F5F5F5F5F5F5F5F5F5F5F5F5F5F5F5F5F5F5F5F5F5F5F5F5F5F5F5F5F5F5F5F5F5F5F5F5F5F5F5F5F5F5F5F5F5F5F5F5F5F5F5F5F5F5F5F5F5F5F5F5F5F5F5F5F5F5F5F5F5F5E2E2F5F5F5F5F5F5F5F5F5F5F5F5F5F5F5F5F5F5F5F5F5F5F5F5F5F5F5F5F5F5F5F5F5F5F5F5F5F5F5F5F5F5F5F5F5
310
F5F5F5F5F5F5F5F5F5F5F5F5F5F5F5F5F5F5F5F5F5F5F5F5F5F5F5F5F5F5F5F5F5F5F5F5F5F5F5F5F5F5F5F5F5F5F5F5F5F5F5F5F5F5F5F5F5F5F5F5F5F5F5F5F5F5F5F5F5F5F5F5F5F5F5F5F5F5F5F5F5F5F5F5F5F5F5F5F5F5F5F5F5F5F5F5F5F5F5F5F5F5F5F5F5F5F5F5F5F5F5F5F5F5F5F5F5F5F5F5F5F5F5F5F5F5F5
310
F5F5F5F5F5F5E2E2F5F5F5F5F5F5F5F5F5F5F5F5F5F5F5F5F5F5F5F5F5F5F5F5F5F5F5F5F5F5F5F5F5F5F5F5F5F5F5F5F5F5F5F5F5F5F5F5F5F5F5F5F5F5F5F5F5F5F5F5F5F5F5F5F5F5F5F5F5F5F5F5F5F5F5F5F5F5F5F5F5F5F5F5F5F5F5F5F5F5F5F5F5F5F5F5F5F5F5F5F5F5F5F5F5F5F5F5F5F5F5F5F5F5F5F5F5F5F5
310
F5F5F5F5F5F5F5F5F5F5F5F5F5F5F5F5F5F5F5F5F5F5F5F5F5F5F5F5F5F5F5F5F5F5F5F5F5F5F5F5F5F5F5F5F5F5F5F5F5F5F5F5F5F5F5F5F5F5F5E2E2F5F5F5F5F5F5F5F5F5F5F5F5F5F5F5F5F5F5F5F5F5E2E2E2E2E2E2E2E2E2E2E2E2E2E2E2E2E2E2E2E2E2E2E2E2E2E2E2E2E2E2E2E2E2E2E2E2E2E2E2E2E2E2E2E2E2
310
E2E2E2E2E2E2E2E2E2E2E2E2E2E2E2E2E2E2E2E2E2E2E2E2E2E2E2E2E2E2E2E2E2E2E2E2E2E2E2E2E2E2E2E2E2E2E2E2E2E2E2E2E2E2E2E2E2E2E2E2E2E2E2E2E2E2E2E2E2E2E2E2E2E2E2E2E2E2E2E2E2E2E2E2E2E2E2E2E2E2E2F5F5F5F5F5F5F5F5F5F5F5F5F5F5F5F5F5F5F5F5F5E2E2F5F5F5F5F5F5F5F5F5F5F5F5F5
310
F5F5F5F5F5F5F5F5E22D2D2D2D2D2D2D2D2D2D2D2DF5F5F5F5F5F5F5F5F5F5F5F5F5F5F5E2F5F5F5F5F5F5F5F5F5F5F5F5F5F5F5F5F5F5F5F5F5F5F5F5F5F5F5F5F5F5F5F5F5F5F5F5F5F5F5F5F5F5F5F5F5F5F5F5F5F5F5F5F5F5F5F5F5F5F5F5F5F5F5F5F5F5F5F5F5F5F5F5F5F5F5F5F5F5F5F5F5F5F5F5F5F5F5F5F5F5
310
F5F5F5F5F5F5F5F5F5F5F5F5F5F5F5F5E2F5F5F5F5F5F5F5F5F5F5F5F5F5F5F5F5F5F5F5F5F5E2E2F5F5F5F5F5F5F5F5F5F5F5F5F5F5F5F5F5F5F5F5F5E22D2D2DF5F5E2F5F5F5F5F52DF5F5F5F5F5F5F5F5F5F5F5F5F5F5F5E2F5F5F5F5F5F5F5F5F5F5F5F5F5F5F5F5F5F5F5F5F5F5F5F5F5F5F5F5F5F5F5F5F5F5F5F5F5
310
F5F5F5F5F5F5F5F5F5F5F5F5F5F5F5F5F5F5F5F5F5F5F5F5F5F5F5F5F5F5F5F5F5F5F5F5F5F5F5F5F5F5F5F5F5F5F5F5F5F5F5F5F5F5F5F5F5F5F5F5F5F5F5F5F5F5F5F5F5E2F5F5F5F5F5F5F5F5F5F5F5F5F5F5F5F5F5F5F5F5F5E2E2F5F5F5F5F5F5F5F5F5F5F5F5F5F5F5F5F5F5F5F5F5E2DCF52DF5F5E2F5F5F5F5F52D
310
F5F5F5F5F5F5F5F5F5F5F5F5F5F5F5E2F5F5F5F5F5F5F5F5F5F5F5F5F5F5F5F5F5F5F5F5F5F5F5F5F5F5F5F5F5F5F5F5F5F5F5F5F5F5F5F5F5F5F5F5F5F5F5F5F5F5F5F5F5F5F5F5F5F5F5F5F5F5F5F5F5F5F5F5F5F5F5F5F5F5F5F5F5F5F5F5F5F5F5F5F5F5F5F5F5F5F5F5F5F5F5F5F5F5F5F5F5F5F5F5F5F5E2F5F5F5F5
310
F5F5F5F5F5F5F5F5F5F5F5F5F5F5F5F5F5E2E2F5F5F5F5F5F5F5F5F5F5F5F5F5F5F5F5F5F5F5F5F5E2BEF52D2D2D2D2D2D2D2DE2E2E2E2E2E2E2E2E2E2E2E2E2E2E2E2E2E2F5F5F5F5F5F5F5F5F5F5F5F5F5F5F5F5F5F5F5F5F5F5F5F5F5F5F5F5F5F5F5F5F5F5F5F5F5F5F5F5F5F5F5F5F5F5F5F5F5F5F5F5F5F5F5F5F5F5
310
F5F5F5F5F5F5F5F5F5F5F5F5F5F5F5F5F5F5F5F5F5F5F5F5F5F5F5F5F5F5F5F5F5F5F5F5F5F5F5F5F5F5F5F5F5F5F5F5E2F5F5F5F5F5F5F5F5F5F5F5F5F5F5F5F5F5F5F5F5F5E2E2F5F5F5F5E2F5F5F5F5F5F5F5F5F5F5F5F5F5F5F5F5E2DCF5F5F5F5E2F5F5F5F5F5E2F5F5F5F5F5F5F5F5F5F5F5F5F5F5F5F5F5F5F5F5F5
310
F5F5F5F5F5F5F5F5F5F5F5F5F5F5F5F5F5F5F5F5F5F5F5F5F5F5F5F5F5F5F5F5F5F5F5F5F5F5F5F5F5F5F5F5F5F5F5F5F5F5F5F5F5F5F5F5F5F5F5F5F5F5F5F5F5F5F5F5F5F5F5F5F5F5F5F5F5F5F5F5F5F5F5F5F5F5F5F5F5F5F5F5F5F5F5F5F5F5F5F5F5E2F5F5F5F5F5F5F5F5F5F5F5F5F5F5F5F5E2F5F5F5F5E2E2F5F5
310
F5F5E2F5F5F5F5F5F5F5F5F5F5F5F5F5F5F5F5E2F5F5F5F5F5E2F5F5F5F5F5E2F5F5F5F5F5F5F5F5F5F5F5F5F5F5F5F5F5F5F5F5F5F5F5F5F5F5F5F5F5F5F5F5F5F5F5F5F5F5F5F5F5F5F5F5F5F5F5F5F5F5F5F5F5F5F5F5F5F5F5F5F5F5F5F5F5F5F5F5F5F5F5F5F5F5F5F5F5F5F5F5F5F5F5F5F5F5F5F5F5F5F5F5F5F5F5
310
F5F5F5F5F5F5F5F5F5F5F5F5F5F5F5F5F5F5F5F5F5F5F5F5F5F5F5E2F5F5F5F5F5F5F5F5F5F5F5F5F5F5F5F5E2F5F5F5F5E2E2F5F5F5F5E2F5F5F5F5F5F5F5F5F5F5F5F5F5F5F5F5E2F5F5F5F5F5E2F5F5F5F5F5E2F5F5F5F5F5F5F5F5F5F5F5F5F5F5F5F5F5F5F5F5F5F5F5F5F5F5F5F5F5F5F5F5F5F5F5F5F5F5F5F5F5F5
310
F5F5F5F5F5F5F5F5F5F5F5F5F5F5F5F5F5F5F5F5F5F5F5F5F5F5F5F5F5F5F5F5F5F5F5F5F5F5F5F5F5F5F5F5F5F5F5F5F5F5F5F5F5F5F5F5F5F5F5F5F5F5F5F5F5F5F5F5F5F5F5F5F5F5F5F5F5F5F5F5E2F5F5F5F5F5F5F5F5F5F5F5F5F5F5F5F5E2F5F5F5F5E2E2F5F5F5F5E2F5F5F5F5F5F5F5F5F5F5F5F5F5F5F5F5E2F5
310
F5F5F5F5E2F5F5F5F5F5E2F5F5F5F5F5F5F5F5F5F5F5F5F5F5F5F5F5F5F5F5F5F5F5F5F5F5F5F5F5F5F5F5F5F5F5F5F5F5F5F5F5F5F5F5F5F5F5F5F5F5F5F5F5F5F5F5F5F5F5F5F5F5F5F5F5F5F5F5F5F5F5F5F5F5F5F5F5F5F5F5F5F5F5F5F5F5F5F5F5F5F5F5F5F5F5F5F5F5F5F5F5F5F5F5F5F5F5F5F5F5F5F5F5F5F5F5
310
F5F5F5F5F5F5E2F5F5F5F5F5F5F5F5F5F5F5F5F5F5F5F5E2F5F5F5F5E2E2F5F5F5F5E2F5F5F5F5F5F5F5F5F5F5F5F5F5F5F5F5E2E2E2E2E2E2E2F5F5F5F5F5E2F5F5F5F5F5F5F5F5F5F5F5F5F5F5F5F5F5F5F5F5F5F5F5F5F5F5F5F5F5F5F5F5F5F5F5F5F5F5F5F5F5F5F5F5F5F5F5F5F5F5F5F5F5F5F5F5F5F5F5F5F5F5F5
310
F5F5F5F5F5F5F5F5F5F5F5F5F5F5F5F5F5F5F5F5F5F5F5F5F5F5F5F5F5F5F5F5F5F5F5F5F5F5F5F5F5F5F5F5F5F5F5F5F5F5F5F5F5F5F5F5F5F5F5E2F5F5F5F5F5F5F5F5F5F5F5F5F5F5F5F5E2F5F5F5F5E2E2F5F5F5F5E2F5F5F5F5F5F5F5F5F5F5F5F5F5F5F5F5E2E2E2E2F5E2E2F5F5F5F5F5E2F5F5F5F5F5F5F5F5F5F5
310
F5F5F5F5F5F5F5F5F5F5F5F5F5F5F5F5F5F5F5F5F5F5F5F5F5F5F5F5F5F5F5F5F5F5F5F5F5F5F5F5F5F5F5F5F5F5F5F5F5F5F5F5F5F5F5F5F5F5F5F5F5F5F5F5F5F5F5F5F5F5F5F5F5F5F5F5F5F5F5F5F5F5F5F5F5F5F5F5F5F5F5F5F5F5F5F5F5F5F5F5F5F5F5F5F5F5F5F5F5F5F5F5E2F5F5F5F5F5F5F5F5F5F5F5F5F5F5
310
F5F5E2F5F5F5F5E2E2F5F5F5F5E2F5F5F5F5F5F5F5F5F5F5F5F5F5F5F5F5E2E2E2E2F5F5F5F5F5F5F5F5E2F5F5F5F5F5F5F5F5F5F5F5F5F5F5F5F5F5F5F5F5F5F5F5F5F5F5F5F5F5F5F5F5F5F5F5F5F5F5F5F5F5F5F5F5F5F5F5F5F5F5F5F5F5F5F5F5F5F5F5F5F5F5F5F5F5F5F5F5F5F5F5F5F5F5F5F5F5F5F5F5F5F5F5F5
310
F5F5F5F5F5F5F5F5F5F5F5F5F5F5F5F5F5F5F5F5F5F5F5F5F5F5F5F5F5F5F5F5F5F5F5F5F5F5E2F5F5F5F5F5F5F5F5F5F5F5F5F5F5F5F5E2F5F5F5F5E2E2F5F5F5F5E2F5F5F5F5F5F5F5F5F5F5F5F5F5F5F5F5E2F5F5F5F5F5F5F5F5F5F5F5E2F5F5F5F5F5F5F5F5F5F5F5F5F5F5F5F5F5F5F5F5F5F5F5F5F5F5F5F5F5F5F5
310
F5F5F5F5F5F5F5F5F5F5F5F5F5F5F5F5F5F5F5F5F5F5F5F5F5F5F5F5F5F5F5F5F5F5F5F5F5F5F5F5F5F5F5F5F5F5F5F5F5F5F5F5F5F5F5F5F5F5F5F5F5F5F5F5F5F5F5F5F5F5F5F5F5F5F5F5F5F5F5F5F5F5F5F5F5F5F5F5F5F5F5E2F5F5F5F5F5F5F5F5F5F5F5F5F5F5F5F5E2F5F5F5F5E2E2F5F5F5F5E2F5F5F5F5F5F5F5
310
F5F5F5F5F5F5F5F5F5E2E2E2E2E2E2E2E2E2E2E2E2E2F5F5F5F5F5F5F5F5F5F5F5F5F5F5F5F5F5F5F5F5F5F5F5F5F5F5F5F5F5F5F5F5F5F5F5F5F5F5F5F5F5F5F5F5F5F5F5F5F5F5F5F5F5F5F5F5F5F5F5F5F5F5F5F5F5F5F5F5F5F5F5F5F5F5F5F5F5F5F5F5F5F5F5F5F5F5F5F5F5F5F5F5F5F5F5F5F5F5F5F5F5F5F5F5F5
310
F5F5F5F5F5F5F5F5F5F5F5F5F5F5F5F5F5E2F5F5F5F5F5F5F5F5F5F5F5F5F5F5F5F5E2F5F5F5F5E2E2F5F5F5F5E2F5F5F5F5F5F5F5F5F5F5F5F5F5F5F5F5E2E2E2F5F5F5F5F5F5F5F5F5F5F5F5F5F5F5F5F5F5F5F5F5F5F5F5F5F5F5F5F5F5F5F5F5F5F5F5F5F5F5F5F5F5F5F5F5F5F5F5F5F5F5F5F5F5F5F5F5F5F5F5F5F5
310
F5F5F5F5F5F5F5F5F5F5F5F5F5F5F5F5F5F5F5F5F5F5F5F5F5F5F5F5F5F5F5F5F5F5F5F5F5F5F5F5F5F5F5F5F5F5F5F5F5F5F5F5F5F5F5F5F5F5F5F5F5F5F5F5F5F5F5F5F5F5E2F5F5F5F5F5F5F5F5F5F5F5F5F5F5F5F5E2F5F5F5F5E2E2F5F5F5F5E2F5F5F5F5F5F5F5F5F5F5F5F5F5F5F5F5E2E2E2F5F5F5F5F5F5F5F5F5
310
F5F5F5F5F5F5F5F5F5F5F5F5F5F5F5F5F5F5F5F5F5F5F5F5F5F5F5F5F5F5F5F5F5F5F5F5F5F5F5F5F5F5F5F5F5F5F5F5F5F5F5F5F5F5F5F5F5F5F5F5F5F5F5F5F5F5F5F5F5F5F5F5F5F5F5F5F5F5F5F5F5F5F5F5F5F5F5F5F5F5F5F5F5F5F5F5F5F5F5F5F5F5F5F5F5F5F5F5F5F5F5F5F5F5F5F5F5F5F5F5F5F5F5E2F5F5F5
310
F5F5F5F5F5F5F5F5F5F5F5F5F5E2F5F5F5F5E2E2F5F5F5F5E2F5F5F5F5F5F5F5F5F5F5F5F5F5F5F5F5E2F5F5F5F5F5F5F5F5F5F5F5F5F5F5F5F5F5F5F5F5F5F5F5F5F5F5F5F5F5F5F5F5F5F5F5F5F5F5F5F5F5F5F5F5F5F5F5F5F5F5F5F5F5F5F5F5F5F5F5F5F5F5F5F5F5F5F5F5F5F5F5F5F5F5F5F5F5F5F5F5F5F5F5F5F5
310
F5F5F5F5F5F5F5F5F5F5F5F5F5F5F5F5F5F5F5F5F5F5F5F5F5F5F5F5F5F5F5F5F5F5F5F5F5F5F5F5F5F5F5F5F5F5F5F5F5E2F5F5F5F5F5F5F5F5F5F5F5F5F5F5F5F5E2F5F5F5F5E2E2F5F5F5F5E2F5F5F5F5F5F5F5F5F5F5F5F5F5F5F5F5E2F5F5F5F5F5F5F5F5F5F5F5F5F5F5F5F5F5F5F5F5F5F5F5F5F5F5F5F5F5F5F5F5
310
F5F5F5F5F5F5F5F5F5F5F5F5F5F5F5F5F5F5F5F5F5F5F5F5F5F5F5F5F5F5F5F5F5F5F5F5F5F5F5F5F5F5F5F5F5F5F5F5F5F5F5F5F5F5F5F5F5F5F5F5F5F5F5F5F5F5F5F5F5F5F5F5F5F5F5F5F5F5F5F5F5F5F5F5F5F5F5F5F5F5F5F5F5F5F5F5F5F5F5F5F5F5E2F5F5F5F5F5F5F5F5F5F5F5F5F5F5F5F5E2F5F5F5F5E2E2F5
310
F5F5F5E2F5F5F5F5F5F5F5F5F5F5F5F5F5F5F5F5E20F0F0F0F0F0F0F0F0F0F0FF5F5F5F5F5F5F5F5F5F5F5F5F5F5F5F5F5F5F5F5F5F5F5F5F5F5F5F5F5F5F5F5F5F5F5F5F5F5F5F5F5F5F5F5F5F5F5F5F5F5F5F5F5F5F5F5F5F5F5F5F5F5F5F5F5F5F5F5F5F5F5F5F5F5F5F5F5F5F5F5F5F5F5F5F5F5F5F5F5F5F5F5F5F5F5
310
F5F5F5F5F5F5F5F5F5F5F5F5F5F5F5F5F5F5F5F5F5F5F5F5F5F5F5F5E2F5F5F5F5F5F5F5F5F5F5F5F5F5F5F5F5E2F5F5F5F5E2E2F5F5F5F5E2F5F5F5F5F5F5F5F5F5F5F5F5F5F5F5F5E20F0F0F0F0F0F0F0F0F0F0FF5F5F5F5F5F5F5F5F5F5F5F5F5F5F5F5F5F5F5F5F5F5F5F5F5F5F5F5F5F5F5F5F5F5F5F5F5F5F5F5F5F5
310
F5F5F5F5F5F5F5F5F5F5F5F5F5F5F5F5F5F5F5F5F5F5F5F5F5F5F5F5F5F5F5F5F5F5F5F5F5F5F5F5F5F5F5F5F5F5F5F5F5F5F5F5F5F5F5F5F5F5F5F5F5F5F5F5F5F5F5F5F5F5F5F5F5F5F5F5F5F5F5F5F5E2F5F5F5F5F5F5F5F5F5F5F5F5F5F5F5F5E2F5F5F5F5E2E2F5F5F5F5E2F5F5F5F5F5F5F5F5F5F5F5F5F5F5F5F5E2
310
0F0F0F0F0F0F0F0F0F0FF5F5F5F5F5F5F5F5F5F5F5F5F5F5F5F5F5F5F5F5F5F5F5F5F5F5F5F5F5F5F5F5F5F5F5F5F5F5F5F5F5F5F5F5F5F5F5F5F5F5F5F5F5F5F5F5F5F5F5F5F5F5F5F5F5F5F5F5F5F5F5F5F5F5F5F5F5F5F5F5F5F5F5F5F5F5F5F5F5F5F5F5F5F5F5F5F5F5F5F5F5F5F5F5F5F5F5F5F5F5F5F5F5F5F5F5F5
310
F5F5F5F5F5F5F5E2F5F5F5F5F5F5F5F5F5F5F5F5F5F5F5F5E2F5F5F5F5E2E2F5F5F5F5E2F5F5F5F5F5F5F5F5F5F5F5F5F5F5F5F5E2F5F5F5F5F5F5F5F5F5F5F5F5F5F5F5F5F5F5F5F5F5F5F5F5F5F5F5F5F5F5F5F5F5F5F5F5F5F5F5F5F5F5F5F5F5F5F5F5F5F5F5F5F5F5F5F5F5F5F5F5F5F5F5F5F5F5F5F5F5F5F5F5F5F5
310
F5F5F5F5F5F5F5F5F5F5F5F5F5F5F5F5F5F5F5F5F5F5F5F5F5F5F5F5F5F5F5F5F5F5F5F5F5F5F5F5F5F5F5F5F5F5F5F5F5F5F5F5F5F5F5F5F5F5F5F5E2F5F5F5F5F5F5F5F5F5F5F5F5F5F5F5F5E2F5F5F5F5E2E2F5F5F5F5F5F5F5F5F5F5F5F5F5F5F5F5F5F5F5F5F5E2F5F5F5F5F5F5F5F5F5F5F5F5F5F5F5F5F5F5F5F5F5
310
F5F5F5F5F5F5F5F5F5F5F5F5F5F5F5F5F5F5F5F5F5F5F5F5F5F5F5F5F5F5F5F5F5F5F5F5F5F5F5F5F5F5F5F5F5F5F5F5F5F5F5F5F5F5F5F5F5F5F5F5F5F5F5F5F5F5F5F5F5F5F5F5F5F5F5F5F5F5F5F5F5F5F5F5F5F5F5F5F5F5F5F5F5F5F5F5F5F5F5F5F5F5F5F5F5F5F5F5F5F5F5F5F5E2F5F5F5F5F5F5F5F5F5F5F5F5F5
310
F5F5F5F5F5F5F5F5E2E2F5F5F5F5F5F5F5F5F5F5F5F5F5F5F5F5F5F5F5F5F5E2F5F5F5F5F5F5F5F5F5F5F5F5F5F5F5F5F5F5F5F5F5F5F5F5F5F5F5F5F5F5F5F5F5F5F5F5F5F5F5F5F5F5F5F5F5F5F5F5F5F5F5F5F5F5F5F5F5F5F5F5F5F5F5F5F5F5F5F5F5F5F5F5F5F5F5F5F5F5F5F5F5F5F5F5F5F5F5F5F5F5F5F5F5F5F5
310
F5F5F5F5F5F5F5F5F5F5F5F5F5F5F5F5F5F5F5F5F5F5F5F5F5F5F5F5F5F5F5F5F5F5F5F5F5F5F5E2F5F5F5F5F5F5F5F5F5F5F5F5F5F5F5F5F5F5F5F5F5E2E2F5F5F5F5F5F5F5F5F5F5F5F5F5F5F5F5F5F5F5F5F5E2F5F5F5F5F5F5F5F5F5F5F5F5F5F5F5F5F5F5F5F5F5F5F5F5F5F5F5F5F5F5F5F5F5F5F5F5F5F5F5F5F5F5
310
F5F5F5F5F5F5F5F5F5F5F5F5F5F5F5F5F5F5F5F5F5F5F5F5F5F5F5F5F5F5F5F5F5F5F5F5F5F5F5F5F5F5F5F5F5F5F5F5F5F5F5F5F5F5F5F5F5F5F5F5F5F5F5F5F5F5F5F5F5F5F5F5F5F5F5F5F5F5F5F5F5F5F5F5F5F5F5F5F5F5F5F5E2F5F5F5F5F5F5F5F5F5F5F5F5F5F5F5F5F5F5F5F5F5E2E2F5F5F5F5F5F5F5F5F5F5F5
310
F5F5F5F5F5F5F5F5F5F5E2F5F5F5F5F5F5F5F5F5F5F5F5F5F5F5F5F5F5F5F5F5F5F5F5F5F5F5F5F5F5F5F5F5F5F5F5F5F5F5F5F5F5F5F5F5F5F5F5F5F5F5F5F5F5F5F5F5F5F5F5F5F5F5F5F5F5F5F5F5F5F5F5F5F5F5F5F5F5F5F5F5F5F5F5F5F5F5F5F5F5F5F5F5F5F5F5F5F5F5F5F5F5F5F5F5F5F5F5F5F5F5F5F5F5F5F5
310
F5F5F5F5F5F5F5F5F5F5F5F5F5F5F5F5F5F5E2F5F5F5F5F5F5F5F5F5F5F5F5F5F5F5F5F5F5F5F5F5E2E2F5F5F5F5F5F5F5F5F5F5F5F5F5F5F5F5F5F5F5F5F5E2F5F5F5F5F5F5F5F5F5F5F5F5F5F5F5F5F5F5F5F5F5F5F5F5F5F5F5F5F5F5F5F5F5F5F5F5F5F5F5F5F5F5F5F5F5F5F5F5F5F5F5F5F5F5F5F5F5F5F5F5F5F5F5
310
F5F5F5F5F5F5F5F5F5F5F5F5F5F5F5F5F5F5F5F5F5F5F5F5F5F5F5F5F5F5F5F5F5F5F5F5F5F5F5F5F5F5F5F5F5F5F5F5F5F5F5F5F5F5F5F5F5F5F5F5F5F5F5F5F5F5F5F5F5F5F5E2F5F5F5F5F5F5F5F5F5F5F5F5F5F5F5F5F5F5F5F5F5E2E2F5F5F5F5F5F5F5F5F5F5F5F5F5F5F5F5F5F5F5F5F5E2F5F5F5F5F5F5F5F5F5F5
310
F5F5F5F5F5F5F5F5F5F5F5F5F5F5F5F5F5F5F5F5F5F5F5F5F5F5F5F5F5F5F5F5F5F5F5F5F5F5F5F5F5F5F5F5F5F5F5F5F5F5F5F5F5F5F5F5F5F5F5F5F5F5F5F5F5F5F5F5F5F5F5F5F5F5F5F5F5F5F5F5F5F5F5F5F5F5F5F5F5F5F5F5F5F5F5F5F5F5F5F5F5F5F5F5F5F5F5F5F5F5F5F5F5F5F5F5F5F5F5F5F5F5F5F5E2F5F5
310
F5F5F5F5F5F5F5F5F5F5F5F5F5F5F5F5F5F5F5E2E2F5F5F5F5F5F5F5F5F5F5F5F5F5F5F5F5F5F5F5F5F5E2F5F5F5F5F5F5F5F5F5F5F5F5F5F5F5F5F5F5F5F5F5F5F5F5F5F5F5F5F5F5F5F5F5F5F5F5F5F5F5F5F5F5F5F5F5F5F5F5F5F5F5F5F5F5F5F5F5F5F5F5F5F5F5F5F5F5F5F5F5F5F5F5F5F5F5F5F5F5F5F5F5F5F5F5
310
F5F5F5F5F5F5F5F5F5F5F5F5F5F5F5F5F5F5F5F5F5F5F5F5F5F5F5F5F5F5F5F5F5F5F5F5F5F5F5F5F5F5F5F5F5F5F5F5F5F5E2F5F5F5F5F5F5F5F5F5F5F5F5F5F5F5F5F5F5F5F5F5E2E2F5F5F5F5F5F5F5F5F5F5F5F5F5F5F5F5F5F5F5F5F5E2F5F5F5F5F5F5F5F5F5F5F5F5F5F5F5F5F5F5F5F5F5F5F5F5F5F5F5F5F5F5F5
310
F5F5F5F5F5F5F5F5F5F5F5F5F5F5F5F5F5F5F5F5F5F5F5F5F5F5F5F5F5F5F5F5F5F5F5F5F5F5F5F5F5F5F5F5F5F5F5F5F5F5F5F5F5F5F5F5F5F5F5F5F5F5F5F5F5F5F5F5F5F5F5F5F5F5F5F5F5F5F5F5F5F5F5F5F5F5F5F5F5F5F5F5F5F5F5F5F5F5F5F5F5F5F5E2F5F5F5F5F5F5F5F5F5F5F5F5F5F5F5F5F5F5F5F5F5E2E2
310
F5F5F5F5F5F5F5F5F5F5F5F5F5F5F5F5F5F5F5F5F5E2F5F5F5F5F5F5F5F5F5F5F5F5F5F5F5F5F5F5F5F5F5F5F5F5F5F5F5F5F5F5F5F5F5F5F5F5F5F5F5F5F5F5F5F5F5F5F5F5F5F5F5F5F5F5F5F5F5F5F5F5F5F5F5F5F5F5F5F5F5F5F5F5F5F5F5F5F5F5F5F5F5F5F5F5F5F5F5F5F5F5F5F5F5F5F5F5F5F5F5F5F5F5F5F5F5
310
F5F5F5F5F5F5F5F5F5F5F5F5F5F5F5F5F5F5F5F5F5F5F5F5F5F5F5F5F5E2F5F5F5F5F5F5F5F5F5F5F5F5F5F5F5F5F5F5F5F5F5E2E2F5F5F5F5E2F5F5F5F5F5F5F5F5F5F5F5F5F5F5F5F5E2F5F5F5F5F5F5F5F5F5F5F5F5F5F5F5F5F5F5F5F5F5F5F5F5F5F5F5F5F5F5F5F5F5F5F5F5F5F5F5F5F5F5F5F5F5F5F5F5F5F5F5F5
310
F5F5F5F5F5F5F5F5F5F5F5F5F5F5F5F5F5F5F5F5F5F5F5F5F5F5F5F5F5F5F5F5F5F5F5F5F5F5F5F5F5F5F5F5F5F5F5F5F5E2F0E2E2F5F5F5F5F5F5E2F0E2E2F5DCF5F5F5F5F5F5F0F0E2F5F5F5F5F5F5F5F5E2F5F5F5F5F5F5F5F5F5F5F5F5F5F5F5F5E2F5F5F5F5E2E2F5F5F5F5E2F5F5F5F5F5F5F5F5F5F5F5F5F5F5F5F5
310
E2F5F5F5F5F5F5F5F5F5F5F5F5F5F5F5F5F5F5F5F5F5F5F5F5F5F5F5F5F5F5F5F5F5F5F5F5F5F5F5F5F5F5F5F5F5F5F5F5F5F5F5F5F5F5F5F5F5F5F5F5F5F5F5F5F5F5F5F5F5F5F5F5F5F5F5F5F5F5F5F5F5F5F5F5F5F5F5F5F5F5F5F5F5F5F5F5F5F5F5F5E2DCDCF0F5E2F5F5F5F5F5E2F5F0E2E2DCF5F5F5F5F5E2F0F0F5
310
E2F5F5F5E2E2E2F5E2F5F5F5F5F5F5F5F5F5F5F5F5F5F5F5F5E2F5F5F5F5E2E2F5F5F5F5E2F5F5F5F5F5F5F5F5F5F5F5F5F5F5F5F5E2F5F5F5F5F5F5F5F5F5F5F5F5F5F5F5F5F5F5F5F5F5F5F5F5F5F5F5F5F5F5F5F5F5F5F5F5F5F5F5F5F5F5F5F5F5F5F5F5F5F5F5F5F5F5F5F5F5F5F5F5F5F5F5F5F5F5F5F5F5F5F5F5F5
310
F5F5F5F5F5F5F5F5F5F5F5F5F5F5F5F5F5F5F5F5F5F5F5F5F5F5E2F0DCF0DCE2E2E2F5F5F5E2E2F0F0F0E2DCF5F5F5F5E2F0F0F0E2E2F0E2E2E2E2E2E2E2F5F5F5F5F5F5F5F5F5F5F5F5F5F5F5F5E2F5F5F5F5E2E2F5F5F5F5E2F5F5F5F5F5F5F5F5F5F5F5F5F5F5F5F5E2F5F5F5F5F5F5F5F5F5F5F5F5F5F5F5F5F5F5F5F5
310
F5F5F5F5F5F5F5F5F5F5F5F5F5F5F5F5F5F5F5F5F5F5F5F5F5F5F5F5F5F5F5F5F5F5F5F5F5F5F5F5F5F5F5F5F5F5F5F5F5F5F5F5F5F5F5F5F5F5F5F5F5F5F5F5F5F5F5F5F5F5F5F5F5F5F5F5F5F5F5E2F0DCF0DCF0F0E2F5F5F5E2F0DCE2E2E2DCF5F5F5F5F0F0F0F0E2E2F0E2F5E2E2E2E2E2F5F5F5F5F5F5F5F5F5F5F5F5
310
F5F5F5F5E2F5F5F5F5E2E2F5F5F5F5E2F5F5F5F5F5F5F5F5F5F5F5F5F5F5F5F5E2F5F5F5F5F5F5F5F5F5F5F5F5F5F5F5F5F5F5F5F5F5F5F5F5F5F5F5F5F5F5F5F5F5F5F5F5F5F5F5F5F5F5F5F5F5F5F5F5F5F5F5F5F5F5F5F5F5F5F5F5F5F5F5F5F5F5F5F5F5F5F5F5F5F5F5F5F5F5F5F5F5F5F5F5F5F5F5F5F5F5F5F5F5F5
310
F5F5F5F5F5F5E2DCDCDCF0E2F5F5F5F5F5F0DCDCE2E2DCF5F5F5F5F5F0F0F0DCE2F0F5E2E2E2E2F5E2F5F5F5F5F5F5F5F5F5F5F5F5F5F5F5F5E2F5F5F5F5E2E2F5F5F5F5E2F5F5F5F5F5F5F5F5F5F5F5F5F5F5F5F5E2F5F5F5F5F5F5F5F5F5F5F5F5F5F5F5F5F5F5F5F5F5F5F5F5F5F5F5F5F5F5F5F5F5F5F5F5F5F5F5F5F5
310
F5F5F5F5F5F5F5F5F5F5F5F5F5F5F5F5F5F5F5F5F5F5F5F5F5F5F5F5F5F5F5F5F5F5F5F5F5F5F5F5F5F5F5F5F5F5F5F5F5F5F5F5F5F5F5F5F5F5F5E2F0F0F0E2F5F5F5F5F5E2F0E2E2E2E2DCF5F5F5F5F5F0F0E2E2F5F5F5F5E2E2E2F5E2F5F5F5F5F5F5F5F5F5F5F5F5F5F5F5F5E2F5F5F5F5E2E2F5F5F5F5E2F5F5F5F5F5
310
F5F5F5F5F5F5F5F5F5F5F5E2F5F5F5F5F5F5F5F5F5F5F5F5F5F5F5F5F5F5F5F5F5F5F5F5F5F5F5F5F5F5F5F5F5F5F5F5F5F5F5F5F5F5F5F5F5F5F5F5F5F5F5F5F5F5F5F5F5F5F5F5F5F5F5F5F5F5F5F5F5F5F5F5F5F5F5F5F5F5F5F5F5F5F5F5F5F5F5F5F5F5F5F5F5F5F5F5F5F5F5F5F5F5E2E2F5F5F5F5F5F5F5F5E2E2F5
310
F5DCF5F5F5F5F5F5F5F0E2F5F5F5F5F5E2F5F5E2F5F5F5F5F5F5F5F5F5F5F5F5F5F5F5F5E2F5F5F5F5E2E2F5F5F5F5E2F5F5F5F5F5F5F5F5F5F5F5F5F5F5F5F5E2F5F5F5F5F5F5F5F5F5F5F5F5F5F5F5F5F5F5F5F5F5F5F5F5F5F5F5F5F5F5F5F5F5F5F5F5F5F5F5F5F5F5F5F5F5F5F5F5F5F5F5F5F5F5F5F5F5F5F5F5F5F5
310
F5F5F5F5F5F5F5F5F5F5F5F5F5F5F5F5F5F5F5F5F5F5F5F5F5F5F5F5F5F5F5F5F5F5F5F5F5F5F5F5F5F5F5F5F5F5F5F5F5F5F5F5F5F5DCF5F5F5F5F5F5F5F5F5F5F5F5F5F5F5F5F5E2F5F5F5F5F5F5F5F5F5F5F5F5F5F5F5F5E2F5F5F5F5E2E2F5F5F5F5E2F5F5F5F5F5F5F5F5F5F5F5F5F5F5F5F5E2F5F5F5F5F5F5F5F5F5
310
F5F5F5F5F5F5F5F5F5F5F5F5F5F5F5F5F5F5F5F5F5F5F5F5F5F5F5F5F5F5F5F5F5F5F5F5F5F5F5F5F5F5F5F5F5F5F5F5F5F5F5F5F5F5F5F5F5F5F5F5F5F5F5F5F5F5F5F5F5F5F5F5F5F5F5F5F5F5F5F5F5F5F5F5F5F5F5F5F5F5F5F5F5F5F5F5F5F5F5F5F5F5F5F5F5F5F5DCF5F5F5F5F5F5F5F5F5F5F5F5F5F5F5F5F5E2F5
310
F5F5F5F5F5F5F5F5F5F5F5F5F5F5F5E2F5F5F5F5E2E2F5F5F5F5E2F5F5F5F5F5F5F5F5F5F5F5F5F5F5F5F5E2F5F5F5F5F5F5F5F5F5F5F5F5F5F5F5F5F5F5F5F5F5F5F5F5F5F5F5F5F5F5F5F5F5F5F5F5F5F5F5F5F5F5F5F5F5F5F5F5F5F5F5F5F5F5F5F5F5F5F5F5F5F5F5F5F5F5F5F5F5F5F5F5F5F5F5F5F5F5F5F5F5F5F5
310
F5F5F5F5F5F5F5F5F5F5F5F5F5F5F5F5F5F5F5F5F5F5F5F5F5F5F5F5F5F5F5F5F5DCF5F5F5F5F5F5F5F5F5F5F5F5F5F5F5F5F5E2F5F5F5F5F5F5F5F5F5F5F5F5F5F5F5F5E2F5F5F5F5E2E2F5F5F5F5E2F5F5F5F5F5F5F5F5F5F5F5F5F5F5F5F5E2F5F5F5F5F5F5F5F5F5F5F5F5F5F5F5F5F5F5F5F5F5F5F5F5F5F5F5F5F5F5
310
F5F5F5F5F5F5F5F5F5F5F5F5F5F5F5F5F5F5F5F5F5F5F5F5F5F5F5F5F5F5F5F5F5F5F5F5F5F5F5F5F5F5F5F5F5F5F5F5F5F5F5F5F5F5F5F5F5F5F5F5F5F5F5F5F5F5F5F5F5F5F5F5F5F5F5F5F5F5F5F5F5F5F5F5F5F5DCF5F5F5F5F5F5F5F5F5F5F5F5F5F5F5F5F5E2F5F5F5F5F5F5F5F5F5F5F5F5F5F5F5F5E2F5F5F5F5E2
310
E2F5F5F5F5E2F5F5F5F5F5F5F5F5F5F5F5F5F5F5F5F5E2F5F5F5F5F5F5F5F5F5F5F5F5F5F5F5F5F5F5F5F5F5F5F5F5F5F5F5F5F5F5F5F5F5F5F5F5F5F5F5F5F5F5F5F5F5F5F5F5F5F5F5F5F5F5F5F5F5F5F5F5F5F5F5F5F5F5F5F5F5F5F5F5F5F5F5F5F5F5F5F5F5F5F5F5F5F5F5F5F5F5F5F5F5F5F5F5F5F5F5F5F5F5F5F5
310
F5F5F5F5F5F5F5F5F5F5F5F5DCF5F5F5F5F5F5F5F5F5F5F5F5F5F5F5F5F5E2F5F5F5F5F5F5F5F5F5F5F5F5F5F5F5F5E2F5F5F5F5E2E2F5F5F5F5E2F5F5F5F5F5F5F5F5F5F5F5F5F5F5F5F5E2F5F5F5F5F5F5F5F5F5F5F5F5F5F5F5F5F5F5F5F5F5F5F5F5F5F5F5F5F5F5F5F5F5F5F5F5F5F5F5F5F5F5F5F5F5F5F5F5F5F5F5
310
F5F5F5F5F5F5F5F5F5F5F5F5F5F5F5F5F5F5F5F5F5F5F5F5F5F5F5F5F5F5F5F5F5F5F5F5F5F5F5F5F5F5F5F5F5F5F5F5F5F5F5F5F5F5F5F5F5F5F5F5F5F5F5F5F5DCF5F5F5F5F5F5F5F5F5F5F5F5F5F5F5F5F5E2F5F5F5F5F5F5F5F5F5F5F5F5F5F5F5F5E2F5F5F5F5E2E2F5F5F5F5E2F5F5F5F5F5F5F5F5F5F5F5F5F5F5F5
310
F5E2F5F5F5F5F5F5F5F5F5F5F5F5F5F5F5F5F5F5F5F5F5F5F5F5F5F5F5F5F5F5F5F5F5F5F5F5F5F5F5F5F5F5F5F5F5F5F5F5F5F5F5F5F5F5F5F5F5F5F5F5F5F5F5F5F5F5F5F5F5F5F5F5F5F5F5F5F5F5F5F5F5F5F5F5F5F5F5F5F5F5F5F5F5F5F5F5F5F5F5F5F5F5F5F5F5F5F5F5F5F5F5F5F5F5F5F5DCF5F5F5F5F5F5F5F5
310
F5F5F5F5F5F5F5F5F5E2F5F5F5F5F5F5F5F5F5F5F5F5F5F5F5F5E2F5F5F5F5E2E2F5F5F5F5E2F5F5F5F5F5F5F5F5F5F5F5F5F5F5F5F5E2F5F5F5F5F5F5F5F5F5F5F5F5F5F5F5F5F5F5F5F5F5F5F5F5F5F5F5F5F5F5F5F5F5F5F5F5F5F5F5F5F5F5F5F5F5F5F5F5F5F5F5F5F5F5F5F5F5F5F5F5F5F5F5F5F5F5F5F5F5F5F5F5
310
F5F5F5F5F5F5F5F5F5F5F5F5F5F5F5F5F5F5F5F5F5F5F5F5F5F5F5F5F5F5F5F5F5F5F5F5F5F5F5F5F5F5E2E2DCE2F5F5F5F5F5F5F5F5F5F5F5F5F5F5F5F5E2F5F5F5F5F5F5F5F5F5F5F5F5F5F5F5F5E2F5F5F5F5E2E2F5F5F5F5E2F5F5F5F5F5F5F5F5F5F5F5F5F5F5F5F5E2F5F5F5F5F5F5F5F5F5F5F5F5F5F5F5F5F5F5F5
310
F5F5F5F5F5F5F5F5F5F5F5F5F5F5F5F5F5F5F5F5F5F5F5F5F5F5F5F5F5F5F5F5F5F5F5F5F5F5F5F5F5F5F5F5F5F5F5F5F5F5F5F5F5F5F5F5F5F5F5F5F5F5F5F5F5F5F5F5F5F5F5F5F5F5F5F5F5F5F5F5F5F5F5F5F5F5F5F5F5F5F5F5F5F5F5F5F5DCF5F5F5F5F5F5F5F5F5F5F5F5F5F5F5F5F5E2F5F5F5F5F5F5F5F5F5F5F5
310
F5F5F5F5F5E2F5F5F5F5E2E2F5F5F5F5E2F5F5F5F5F5F5F5F5F5F5F5F5F5F5F5F5E2F5F5F5F5F5F5F5F5F5F5F5F5F5F5F5F5F5F5F5F5F5F5F5F5F5F5F5F5F5F5F5F5F5F5F5F5F5F5F5F5F5F5F5F5F5F5F5F5F5F5F5F5F5F5F5F5F5F5F5F5F5F5F5F5F5F5F5F5F5F5F5F5F5F5F5F5F5F5F5F5F5F5F5F5F5F5F5F5F5F5F5F5F5
310
F5F5F5F5F5F5F5F5F5F5F5F5F5F5F5F5F5F5F5F5F5F5F5DCF5F5F5F5F5F5F5F5F5F5F5F5F5F5F5F5F5E2F5F5F5F5F5F5F5F5F5F5F5F5F5F5F5F5E2F5F5F5F5E2E2F5F5F5F5F5F5F5F5F5F5F5F5F5F5F5F5F5F5F5F5F5E2F5F5F5F5F5F5F5F5F5F5F5F5F5F5F5F5F5F5F5F5F5F5F5F5F5F5F5F5F5F5F5F5F5F5F5F5F5F5F5F5
310
F5F5F5F5F5F5F5F5F5F5F5F5F5F5F5F5F5F5F5F5F5F5F5F5F5F5F5F5F5F5F5F5F5F5F5F5F5F5F5F5F5F5F5F5F5F5F5F5F5F5F5F5F5F5F5F5F5F5F5F5F5F5F5F5F5F5F5F5F5F5F5F5F5F5F5F5DCF5F5F5F5F5F5F5F5F5F5F5F5F5F5F5F5F5E2F5F5F5F5F5F5F5F5F5F5F5F5F5F5F5F5F5F5F5F5F5E2E2F5F5F5F5F5F5F5F5F5
310
F5F5F5F5F5F5F5F5F5F5F5F5E2F5F5F5F5F5F5F5F5F5F5F5F5F5F5F5F5F5F5F5F5F5F5F5F5F5F5F5F5F5F5F5F5F5F5F5F5F5F5F5F5F5F5F5F5F5F5F5F5F5F5F5F5F5F5F5F5F5F5F5F5F5F5F5F5F5F5F5F5F5F5F5F5F5F5F5F5F5F5F5F5F5F5F5F5F5F5F5F5F5F5F5F5F5F5F5F5F5F5F5F5F5F5F5F5F5F5F5F5F5F5F5F5F5F5
310
F5F5F5F5F5F5F5F5F5F5F5F5F5F5F5F5F5F5F5F5E2F5F5F5F5F5F5F5F5F5F5F5F5F5F5F5F5F5F5F5F5F5E2E2F5F5F5F5F5F5F5F5F5F5F5F5F5F5F5F5F5F5F5F5F5E2F5F5F5F5F5F5F5F5F5F5F5F5F5F5F5F5F5F5F5F5F5F5F5F5F5F5F5F5F5F5F5F5F5F5F5F5F5F5F5F5F5F5F5F5F5F5F5F5F5F5F5F5F5F5F5F5F5F5F5F5F5
310
F5F5F5F5F5F5F5F5F5F5F5F5F5F5F5F5F5F5F5F5F5F5F5F5F5F5F5F5F5F5F5F5F5F5F5F5F5F5F5F5F5F5F5F5F5F5F5F5F5F5F5F5F5F5F5F5F5F5F5F5F5F5F5F5F5F5F5F5F5F5F5F5F5E2F5F5F5F5F5F5F5F5F5F5F5F5F5F5F5F5F5F5F5F5F5E2E2F5F5F5F5F5F5F5F5F5F5F5F5F5F5F5F5F5F5F5F5F5E2F5F5F5F5F5F5F5F5
310
F5F5F5F5F5F5F5F5F5F5F5F5F5F5F5F5F5F5F5F5F5F5F5F5F5F5F5F5F5F5F5F5F5F5F5F5F5F5F5F5F5F5F5F5F5F5F5F5F5F5F5F5F5F5F5F5F5F5F5F5F5F5F5F5F5F5F5F5F5F5F5F5F5F5F5F5F5F5F5F5F5F5F5F5F5F5F5F5F5F5F5F5F5F5F5F5F5F5F5F5F5F5F5F5F5F5F5F5F5F5F5F5F5F5F5F5F5F5F5F5F5F5F5F5F5F5E2
310
F5F5F5F5F5F5F5F5F5F5F5F5F5F5F5F5F5F5F5F5F5E2E2F5F5F5F5F5F5F5F5F5F5F5F5F5F5F5F5F5F5F5F5F5E2F5F5F5F5F5F5F5F5F5F5F5F5F5F5F5F5F5F5F5F5F5F5F5F5F5F5F5F5F5F5F5F5F5F5F5F5F5F5F5F5F5F5F5F5F5F5F5F5F5F5F5F5F5F5F5F5F5F5F5F5F5F5F5F5F5F5F5F5F5F5F5F5F5F5F5F5F5F5F5F5F5F5
310
F5F5F5F5F5F5F5F5F5F5F5F5F5F5F5F5F5F5F5F5F5F5F5F5F5F5F5F5F5F5F5F5F5F5F5F5F5F5F5F5F5F5F5F5F5F5F5F5F5F5F5F5E2F5F5F5F5F5F5F5F5F5F5F5F5F5F5F5F5F5F5F5F5F5E2E2F5F5F5F5F5F5F5F5F5F5F5F5F5F5F5F5F5F5F5F5F5E2F5F5F5F5F5F5F5F5F5F5F5F5F5F5F5F5F5F5F5F5F5F5F5F5F5F5F5F5F5
310
F5F5F5F5F5F5F5F5F5F5F5F5F5F5F5F5F5F5F5F5F5F5F5F5F5F5F5F5F5F5F5F5F5F5F5F5F5F5F5F5F5F5F5F5F5F5F5F5F5F5F5F5F5F5F5F5F5F5F5F5F5F5F5F5F5F5F5F5F5F5F5F5F5F5F5F5F5F5F5F5F5F5F5F5F5F5F5F5F5F5F5F5F5F5F5F5F5F5F5F5F5F5F5F5F5E2F5F5F5F5F5F5F5F5F5F5F5F5F5F5F5F5F5F5F5F5F5
310
E2E2F5F5F5F5F5F5F5F5F5F5F5F5F5F5F5F5F5F5F5F5F5E2F5F5F5F5F5F5F5F5F5F5F5F5F5F5F5F5F5F5F5F5F5F5F5F5F5F5F5F5F5F5F5F5F5F5F5F5F5F5F5F5F5F5F5F5F5F5F5F5F5F5F5F5F5F5F5F5F5F5F5F5F5F5F5F5F5F5F5F5F5F5F5F5F5F5F5F5F5F5F5F5F5F5F5F5F5F5F5F5F5F5F5F5F5F5F5F5F5F5F5F5F5F5F5
310
F5F5F5F5F5F5F5F5F5F5F5F5F5F5F5F5F5F5F5F5F5F5F5F5F5F5F5F5F5F5F5E2F5F5F5F5F5F5F5F5F5F5F5F5F5F5F5F5F5F5F5F5F5E2E2F5F5F5F5F5F5F5F5F5F5F5F5F5F5F5F5F5F5F5F5F5E2F5F5F5F5F5F5F5F5F5F5F5F5F5F5F5F5F5F5F5F5F5F5F5F5F5F5F5F5F5F5F5F5F5F5F5F5F5F5F5F5F5F5F5F5F5F5F5F5F5F5
310
F5F5F5F5F5F5F5F5F5F5F5F5F5F5F5F5F5F5F5F5F5F5F5F5F5F5F5F5F5F5F5F5F5F5F5F5F5F5F5F5F5F5F5F5F5F5F5F5F5F5F5F5F5F5F5F5F5F5F5F5F5F5F5F5F5F5F5F5F5F5F5F5F5F5F5F5F5F5F5F5F5F5F5F5E2F5F5F5F5F5F5F5F5F5F5F5F5F5F5F5F5F5F5F5F5F5E2E2F5F5F5F5F5F5F5F5F5F5F5F5F5F5F5F5F5F5F5
310
F5F5E2F5F5F5F5F5F5F5F5F5F5F5F5F5F5F5F5F5F5F5F5F5F5F5F5F5F5F5F5F5F5F5F5F5F5F5F5F5F5F5F5F5F5F5F5F5F5F5F5F5F5F5F5F5F5F5F5F5F5F5F5F5F5F5F5F5F5F5F5F5F5F5F5F5F5F5F5F5F5F5F5F5F5F5F5F5F5F5F5F5F5F5F5F5F5F5F5F5F5F5F5F5F5F5F5F5F5F5F5F5F5F5F5F5F5F5F5F5F5F5F5F5F5F5F5
310
F5F5F5F5F5F5F5F5F5F5E2F5F5F5F5F5F5F5F5F5F5F5F5F5F5F5F5F5F5F5F5F5E2E2F5F5F5F5E2F5F5F5F5F5F5F5F5F5F5F5F5F5F5F5F5E2F5F5F5F5F5F5F5F5F5F5F5F5F5F5F5F5F5F5F5F5F5F5F5F5F5F5F5F5F5F5F5F5F5F5F5F5F5F5F5F5F5F5F5F5F5F5F5F5F5F5F5F5F5F5F5F5F5F5F5F5F5F5F5F5F5F5F5F5F5F5F5
310
F5F5F5F5F5F5F5F5F5F5F5F5F5F5F5F5F5F5F5F5F5F5F5F5F5F5F5F5F5F5F5F5F5F5F5F5F5F5F5F5F5F5F5F5F5F5F5F5F5F5F5F5F5F5F5F5F5F5F5F5F5F5F5E2F5F5F5F5F5F5F5F5F5F5F5F5F5F5F5F5E2F5F5F5F5E2E2F5F5F5F5E2F5F5F5F5F5F5F5F5F5F5F5F5F5F5F5F5E2F5F5F5F5F5F5F5F5F5F5F5F5F5F5F5F5F5F5
310
F5F5F5F5F5F5F5F5F5F5F5F5F5F5F5F5F5F5F5F5F5F5F5F5F5F5F5F5F5F5F5F5F5F5F5F5F5F5F5F5F5F5F5F5F5F5F5F5F5F5F5F5F5F5F5F5F5F5F5F5F5F5F5F5F5F5F5F5F5F5F5F5F5F5F5F5F5F5F5F5F5F5F5F5F5F5F5F5F5F5F5F5F5F5F5F5F5F5F5F5F5F5F5F5F5F5F5F5F5F5F5F5F5F5F5F5E2F5F5F5F5F5F5F5F5F5F5
310
F5F5F5F5F5F5E2F5F5F5F5E2E2F5F5F5F5E2F5F5F5F5F5F5F5F5F5F5F5F5F5F5F5F5E2F5F5F5F5F5F5F5F5F5F5F5F5F5F5F5F5F5F5F5F5F5F5F5F5F5F5F5F5F5F5F5F5F5F5F5F5F5F5F5F5F5F5F5F5F5F5F5F5F5F5F5F5F5F5F5F5F5F5F5F5F5F5F5F5F5F5F5F5F5F5F5F5F5F5F5F5F5F5F5F5F5F5F5F5F5F5F5F5F5F5F5F5
310
F5F5F5F5F5F5F5F5F5F5F5F5F5F5F5F5F5F5F5F5F5F5F5F5F5F5F5F5F5F5F5F5F5F5F5F5F5F5F5F5F5F5E2F5F5F5F5F5F5F5F5F5F5F5F5F5F5F5F5E2F5F5F5F5E2E2F5F5F5F5E2F5F5F5F5F5F5F5F5F5F5F5F5F5F5F5F5E2F5F5F5F5F5F5F5F5F5F5F5F5F5F5F5F5F5F5F5F5F5F5F5F5F5F5F5F5F5F5F5F5F5F5F5F5F5F5F5
310
F5F5F5F5F5F5F5F5F5F5F5F5F5F5F5F5F5F5F5F5F5F5F5F5F5F5F5F5F5F5F5F5F5F5F5F5F5F5F5F5F5F5F5F5F5F5F5F5F5F5F5F5F5F5F5F5F5F5F5F5F5F5F5F5F5F5F5F5F5F5F5F5F5F5F5F5F5F5F5F5F5F5F5F5F5F5F5F5F5F5F5F5F5F5F5E2F5F5F5F5F5F5F5F5F5F5F5F5F5F5F5F5E2F5F5F5F5E2E2F5F5F5F5E2F5F5F5
310
F5F5F5F5F5F5F5F5F5F5F5F5F5E2F5F5F5F5F5F5F5F5F5F5F5F5F5F5F5F5F5F5F5F5F5F5F5F5F5F5F5F5F5F5F5F5F5F5F5F5F5F5F5F5F5F5F5F5F5F5F5F5F5F5F5F5F5F5F5F5F5F5F5F5F5F5F5F5F5F5F5F5F5F5F5F5F5F5F5F5F5F5F5F5F5F5F5F5F5F5F5F5F5F5F5F5F5F5F5F5F5F5F5F5F5F5F5F5F5F5F5F5F5F5F5F5F5
310
F5F5F5F5F5F5F5F5F5F5F5F5F5F5F5F5F5F5F5F5F5E2F5F5F5F5F5F5F5F5F5F5F5F5F5F5F5F5E2F5F5F5F5E2E2F5F5F5F5E2F5F5F5F5F5F5F5F5F5F5F5F5F5F5F5F5E2F5F5F5F5F5F5F5F5F5F5F5F5F5F5F5F5F5F5F5F5F5F5F5F5F5F5F5F5F5F5F5F5F5F5F5F5F5F5F5F5F5F5F5F5F5F5F5F5F5F5F5F5F5F5F5F5F5F5F5F5
310
F5F5F5F5F5F5F5F5F5F5F5F5F5F5F5F5F5F5F5F5F5F5F5F5F5F5F5F5F5F5F5F5F5F5F5F5F5F5F5F5F5F5F5F5F5F5F5F5F5F5F5F5F5F5F5F5F5F5F5F5F5F5F5F5F5F5F5F5F5F5F5F5F5F5E2F5F5F5F5F5F5F5F5F5F5F5F5F5F5F5F5E2F5F5F5F5E2E2F5F5F5F5E2F5F5F5F5F5F5F5F5F5F5F5F5F5F5F5F5E2F5F5F5F5F5F5F5
310
F5F5F5F5F5F5F5F5F5F5F5F5F5F5F5F5F5F5F5F5F5F5F5F5F5F5F5F5F5F5F5F5F5F5F5F5F5F5F5F5F5F5F5F5F5F5F5F5F5F5F5F5F5F5F5F5F5F5F5F5F5F5F5F5F5F5F5F5F5F5F5F5F5F5F5F5F5F5F5F5F5F5F5F5F5F5F5F5F5F5F5F5F5F5F5F5F5F5F5F5F5F5F5F5F5F5F5F5F5F5F5F5F5F5F5F5F5F5F5F5F5F5F5F5F5F5F5
310
E2F5F5F5F5F5F5F5F5F5F5F5F5F5F5F5F5E2F5F5F5F5E2E2F5F5F5F5E2F5F5F5F5F5F5F5F5F5F5F5F5F5F5F5F5E2F5F5F5F5F5F5F5F5F5F5F5F5F5F5F5F5F5F5F5F5F5F5F5F5F5F5F5F5F5F5F5F5F5F5F5F5F5F5F5F5F5F5F5F5F5F5F5F5F5F5F5F5F5F5F5F5F5F5F5F5F5F5F5F5F5F5F5F5F5F5F5F5F5F5F5F5F5F5F5F5F5
310
F5F5F5F5F5F5F5F5F5F5F5F5F5F5F5F5F5F5F5F5F5F5F5F5F5F5F5F5F5F5F5F5F5F5F5F5F5F5F5F5F5F5F5F5F5F5F5F5F5F5F5F5F5E2F5F5F5F5F5F5F5F5F5F5F5F5F5F5F5F5E2F5F5F5F5E2E2F5F5F5F5E2F5F5F5F5F5F5F5F5F5F5F5F5F5F5F5F5E2F5F5F5F5F5F5F5F5F5F5F5F5F5F5F5F5F5F5F5F5F5F5F5F5F5F5F5F5
310
F5F5F5F5F5F5F5F5F5F5F5F5F5F5F5F5F5F5F5F5F5F5F5F5F5F5F5F5F5F5F5F5F5F5F5F5F5F5F5F5F5F5F5F5F5F5F5F5F5F5F5F5F5F5F5F5F5F5F5F5F5F5F5F5F5F5F5F5F5F5F5F5F5F5F5F5F5F5F5F5F5F5F5F5F5F5F5F5F5F5F5F5F5F5F5F5F5F5F5F5F5F5F5F5F5F5E2F5F5F5F5F5F5F5F5F5F5F5F5F5F5F5F5E2F5F5F5
310
F5E2E2F5F5F5F5E2F5F5F5F5F5F5F5F5F5F5F5F5F5F5F5F5E2F5F5F5F5F5F5F5F5F5F5F5F5F5F5F5F5F5F5F5F5F5F5F5F5F5F5F5F5F5F5F5F5F5F5F5F5F5F5F5F5F5F5F5F5F5F5F5F5F5F5F5F5F5F5F5F5F5F5F5F5F5F5F5F5F5F5F5F5F5F5F5F5F5F5F5F5F5F5F5F5F5F5F5F5F5F5F5F5F5F5F5F5F5F5F5F5F5F5F5F5F5F5
310
F5F5F5F5F5F5F5F5F5F5F5F5F5F5F5F5F5F5F5F5F5F5F5F5F5F5F5F5F5F5F5F5E2F5F5F5F5F5F5F5F5F5F5F5F5F5F5F5F5E2F5F5F5F5E2E2F5F5F5F5E2F5F5F5F5F5F5F5F5F5F5F5F5F5F5F5F5E2F5F5F5F5F5F5F5F5F5F5F5F5F5F5F5F5F5F5F5F5F5F5F5F5F5F5F5F5F5F5F5F5F5F5F5F5F5F5F5F5F5F5F5F5F5F5F5F5F5
310
F5F5F5F5F5F5F5F5F5F5F5F5F5F5F5F5F5F5F5F5F5F5F5F5F5F5F5F5F5F5F5F5F5F5F5F5F5F5F5F5F5F5F5F5F5F5F5F5F5F5F5F5F5F5F5F5F5F5F5F5F5F5F5F5F5F5F5F5F5F5F5F5F5F5F5F5F5F5F5F5F5F5F5F5F5E2F5F5F5F5F5F5F5F5F5F5F5F5F5F5F5F5E2F5F5F5F5E2E2F5F5F5F5E2F5F5F5F5F5F5F5F5F5F5F5F5F5
310
F5F5F5E2F5F5F5F5F5F5F5F5F5F5F5F5F5F5F5F5F5F5F5F5F5F5F5F5F5F5F5F5F5F5F5F5F5F5F5F5F5F5F5F5F5F5F5F5F5F5F5F5F5F5F5F5F5F5F5F5F5F5F5F5F5F5F5F5F5F5F5F5F5F5F5F5F5F5F5F5F5F5F5F5F5F5F5F5F5F5F5F5F5F5F5F5F5F5F5F5F5F5F5F5F5F5F5F5F5F5F5F5F5F5F5F5F5F5F5F5F5F5F5F5F5F5F5
310
F5F5F5F5F5F5F5F5F5F5F5E2F5F5F5F5F5F5F5F5F5F5F5F5F5F5F5F5E2F5F5F5F5E2E2F5F5F5F5E2F5F5F5F5F5F5F5F5F5F5F5F5F5F5F5F5E2F5F5F5F5F5F5F5F5F5F5F5F5F5F5F5F5F5F5F5F5F5F5F5F5F5F5F5F5F5F5F5F5F5F5F5F5F5F5F5F5F5F5F5F5F5F5F5F5F5F5F5F5F5F5F5F5F5F5F5F5F5F5F5F5F5F5F5F5F5F5
310
F5F5F5F5F5F5F5F5F5F5F5F5F5F5F5F5F5F5F5F5F5F5F5F5F5F5F5F5F5F5F5F5F5F5F5F5F5F5F5F5F5F5F5F5F5F5F5F5F5F5F5F5F5F5F5F5F5F5F5F5F5F5F5F5E2F5F5F5F5F5F5F5F5F5F5F5F5F5F5F5F5E2F5F5F5F5E2E2F5F5F5F5E2F5F5F5F5F5F5F5F5F5F5F5F5F5F5F5F5E2F5F5F5F5F5F5F5F5F5F5F5F5F5F5F5F5F5
310
F5F5F5F5F5F5F5F5F5F5F5F5F5F5F5F5F5F5F5F5F5F5F5F5F5F5F5F5F5F5F5F5F5F5F5F5F5F5F5F5F5F5F5F5F5F5F5F5F5F5F5F5F5F5F5F5F5F5F5F5F5F5F5F5F5F5F5F5F5F5F5F5F5F5F5F5F5F5F5F5F5F5F5F5F5F5F5F5F5F5F5F5F5F5F5F5F5F5F5F5F5F5F5F5F5F5F5F5F5F5F5F5F5F5F5F5F5E2F5F5F5F5F5F5F5F5F5
310
F5F5F5F5F5F5F5E2F5F5F5F5E2E2F5F5F5F5E2F5F5F5F5F5F5F5F5F5F5F5F5F5F5F5F5E2F5F5F5F5F5F5F5F5F5F5F5F5F5F5F5F5F5F5F5F5F5F5F5F5F5F5F5F5F5F5F5F5F5F5F5F5F5F5F5F5F5F5F5F5F5F5F5F5F5F5F5F5F5F5F5F5F5F5F5F5F5F5F5F5F5F5F5F5F5F5F5F5F5F5F5F5F5F5F5F5F5F5F5F5F5F5F5F5F5F5F5
310
F5F5F5F5F5F5F5F5F5F5F5F5F5F5F5F5F5F5F5F5F5F5F5F5F5F5F5F5F5F5F5F5F5F5F5F5F5F5F5F5F5F5F5E2F5F5F5F5F5F5F5F5F5F5F5F5F5F5F5F5E2F5F5F5F5E2E2F5F5F5F5E2F5F5F5F5F5F5F5F5F5F5F5F5F5F5F5F5E2F5F5F5F5F5F5F5F5F5F5F5F5F5F5F5F5F5F5F5F5F5F5F5F5F5F5F5F5F5F5F5F5F5F5F5F5F5F5
310
F5F5F5F5F5F5F5F5F5F5F5F5F5F5F5F5F5F5F5F5F5F5F5F5F5F5F5F5F5F5F5F5F5F5F5F5F5F5F5F5F5F5F5F5F5F5F5F5F5F5F5F5F5F5F5F5F5F5F5F5F5F5F5F5F5F5F5F5F5F5F5F5F5F5F5F5F5F5F5F5F5F5F5F5F5F5F5F5F5F5F5F5F5F5F5F5E2F5F5F5F5F5F5F5F5F5F5F5F5F5F5F5F5E2F5F5F5F5E2E2F5F5F5F5E2F5F5
310
F5F5F5F5F5F5F5F5F5F5F5F5F5F5E2F5F5F5F5F5F5F5F5F5F5F5F5F5F5F5F5F5F5F5F5F5F5F5F5F5F5F5F5F5F5F5F5F5F5F5F5F5F5F5F5F5F5F5F5F5F5F5F5F5F5F5F5F5F5F5F5F5F5F5F5F5F5F5F5F5F5F5F5F5F5F5F5F5F5F5F5F5F5F5F5F5F5F5F5F5F5F5F5F5F5F5F5F5F5F5F5F5F5F5F5F5F5F5F5F5F5F5F5F5F5F5F5
310
F5F5F5F5F5F5F5F5F5F5F5F5F5F5F5F5F5F5F5F5F5F5E2F5F5F5F5F5F5F5F5F5F5F5F5F5F5F5F5E2F5F5F5F5E2E2F5F5F5F5F5F5F5F5F5F5F5F5F5F5F5F5F5F5F5F5F5E2F5F5F5F5F5F5F5F5F5F5F5F5F5F5F5F5F5F5F5F5F5F5F5F5F5F5F5F5F5F5F5F5F5F5F5F5F5F5F5F5F5F5F5F5F5F5F5F5F5F5F5F5F5F5F5F5F5F5F5
310
F5F5F5F5F5F5F5F5F5F5F5F5F5F5F5F5F5F5F5F5F5F5F5F5F5F5F5F5F5F5F5F5F5F5F5F5F5F5F5F5F5F5F5F5F5F5F5F5F5F5F5F5F5F5F5F5F5F5F5F5F5F5F5F5F5F5F5F5F5F5F5F5F5F5F5E2F5F5F5F5F5F5F5F5F5F5F5F5F5F5F5F5F5F5F5F5F5E2E2F5F5F5F5F5F5F5F5F5F5F5F5F5F5F5F5F5F5F5F5F5E2F5F5F5F5F5F5
310
F5F5F5F5F5F5F5F5F5F5F5F5F5F5F5F5F5F5F5F5F5F5F5F5F5F5F5F5F5F5F5F5F5F5F5F5F5F5F5F5F5F5F5F5F5F5F5F5F5F5F5F5F5F5F5F5F5F5F5F5F5F5F5F5F5F5F5F5F5F5F5F5F5F5F5F5F5F5F5F5F5F5F5F5F5F5F5F5F5F5F5F5F5F5F5F5F5F5F5F5F5F5F5F5F5F5F5F5F5F5F5F5F5F5F5F5F5F5F5F5F5F5F5F5F5F5F5
310
F5E2F5F5F5F5F5F5F5F5F5F5F5F5F5F5F5F5F5F5F5F5F5E2E2F5F5F5F5F5F5F5F5F5F5F5F5F5F5F5F5F5F5F5F5F5E2F5F5F5F5F5F5F5F5F5F5F5F5F5F5F5F5F5F5F5F5F5F5F5F5F5F5F5F5F5F5F5F5F5F5F5F5F5F5F5F5F5F5F5F5F5F5F5F5F5F5F5F5F5F5F5F5F5F5F5F5F5F5F5F5F5F5F5F5F5F5F5F5F5F5F5F5F5F5F5F5
310
F5F5F5F5F5F5F5F5F5F5F5F5F5F5F5F5F5F5F5F5F5F5F5F5F5F5F5F5F5F5F5F5F5F5F5F5F5F5F5F5F5F5F5F5F5F5F5F5F5F5F5F5F5F5E2F5F5F5F5F5F5F5F5F5F5F5F5F5F5F5F5F5F5F5F5F5E2E2F5F5F5F5F5F5F5F5F5F5F5F5F5F5F5F5F5F5F5F5F5E2F5F5F5F5F5F5F5F5F5F5F5F5F5F5F5F5F5F5F5F5F5F5F5F5F5F5F5
310
F5F5F5F5F5F5F5F5F5F5F5F5F5F5F5F5F5F5F5F5F5F5F5F5F5F5F5F5F5F5F5F5F5F5F5F5F5F5F5F5F5F5F5F5F5F5F5F5F5F5F5F5F5F5F5F5F5F5F5F5F5F5F5F5F5F5F5F5F5F5F5F5F5F5F5F5F5F5F5F5F5F5F5F5F5F5F5F5F5F5F5F5F5F5F5F5F5F5F5F5F5F5F5F5F5F5F5E2F5F5F5F5F5F5F5F5F5F5F5F5F5F5F5F5F5F5F5
310
F5F5E2E2F5F5F5F5F5F5F5F5F5F5F5F5F5F5F5F5F5F5F5F5F5E2F5F5F5F5F5F5F5F5F5F5F5F5F5F5F5F5F5F5F5F5F5F5F5F5F5F5F5F5F5F5F5F5F5F5F5F5F5F5F5F5F5F5F5F5F5F5F5F5F5F5F5F5F5F5F5F5F5F5F5F5F5F5F5F5F5F5F5F5F5F5F5F5F5F5F5F5F5F5F5F5F5F5F5F5F5F5F5F5F5F5F5F5F5F5F5F5F5F5F5F5F5
310
F5F5F5F5F5F5F5F5F5F5F5F5F5F5F5F5F5F5F5F5F5F5F5F5F5F5F5F5F5F5F5F5F5E2F5F5F5F5F5F5F5F5F5F5F5F5F5F5F5F5F5F5F5F5F5E2E2F5F5F5F5F5F5F5F5F5F5F5F5F5F5F5F5F5F5F5F5F5E2F5F5F5F5F5F5F5F5F5F5F5F5F5F5F5F5F5F5F5F5F5F5F5F5F5F5F5F5F5F5F5F5F5F5F5F5F5F5F5F5F5F5F5F5F5F5F5F5
310
F5F5F5F5F5F5F5F5F5F5F5F5F5F5F5F5F5F5F5F5F5F5F5F5F5F5F5F5F5F5F5F5F5F5F5F5F5F5F5F5F5F5F5F5F5F5F5F5F5F5F5F5F5F5F5F5F5F5F5F5F5F5F5F5F5F5F5F5F5F5F5F5F5F5F5F5F5F5F5F5F5F5F5F5F5F5E2F5F5F5F5F5F5F5F5F5F5F5F5F5F5F5F5F5F5F5F5F5E2E2F5F5F5F5F5F5F5F5F5F5F5F5F5F5F5F5F5
310
F5F5F5F5E2F5F5F5F5F5F5F5F5F5F5F5F5F5F5F5F5F5F5F5F5F5F5F5F5F5F5F5F5F5F5F5F5F5F5F5F5F5F5F5F5F5F5F5F5F5F5F5F5F5F5F5F5F5F5F5F5F5F5F5F5F5F5F5F5F5F5F5F5F5F5F5F5F5F5F5F5F5F5F5F5F5F5F5F5F5F5F5F5F5F5F5F5F5F5F5F5F5F5F5F5F5F5F5F5F5F5F5F5F5F5F5F5F5F5F5F5F5F5F5F5F5F5
310
F5F5F5F5F5F5F5F5F5F5F5F5E2F5F5F5F5F5F5F5F5F5F5F5F5F5F5F5F5F5F5F5F5F5E2E2F5F5F5F5F5F5F5F5F5F5F5F5F5F5F5F5F5F5F5F5F5E2F5F5F5F5F5F5F5F5F5F5F5F5F5F5F5F5F5F5F5F5F5F5F5F5F5F5F5F5F5F5F5F5F5F5F5F5F5F5F5F5F5F5F5F5F5F5F5F5F5F5F5F5F5F5F5F5F5F5F5F5F5F5F5F5F5F5F5F5F5
310
F5F5F5F5F5F5F5F5F5F5F5F5F5F5F5F5F5F5F5F5F5F5F5F5F5F5F5F5F5F5F5F5F5F5F5F5F5F5F5F5F5F5F5F5F5F5F5F5F5F5F5F5F5F5F5F5F5F5F5F5F5F5F5F5F5E2F5F5F5F5F5F5F5F5F5F5F5F5F5F5F5F5F5F5F5F5F5E2E2F5F5F5F5F5F5F5F5F5F5F5F5F5F5F5F5F5F5F5F5F5E2F5F5F5F5F5F5F5F5F5F5F5F5F5F5F5F5
310
F5F5F5F5F5F5F5F5F5F5F5F5F5F5F5F5F5F5F5F5F5F5F5F5F5F5F5F5F5F5F5F5F5F5F5F5F5F5F5F5F5F5F5F5F5F5F5F5F5F5F5F5F5F5F5F5F5F5F5F5F5F5F5F5F5F5F5F5F5F5F5F5F5F5F5F5F5F5F5F5F5F5F5F5F5F5F5F5F5F5F5F5F5F5F5F5F5F5F5F5F5F5F5F5F5F5F5F5F5F5F5F5F5F5F5F5F5F5E2F5F5F5F5F5F5F5F5
310
F5F5F5F5F5F5F5F5F5F5F5F5F5E2E2F5F5F5F5E2F5F5F5F5F5F5F5F5F5F5F5F5F5F5F5F5E2F5F5F5F5F5F5F5F5F5F5F5F5F5F5F5F5F5F5F5F5F5F5F5F5F5F5F5F5F5F5F5F5F5F5F5F5F5F5F5F5F5F5F5F5F5F5F5F5F5F5F5F5F5F5F5F5F5F5F5F5F5F5F5F5F5F5F5F5F5F5F5F5F5F5F5F5F5F5F5F5F5F5F5F5F5F5F5F5F5F5
310
F5F5F5F5F5F5F5F5F5F5F5F5F5F5F5F5F5F5F5F5F5F5F5F5F5F5F5F5F5F5F5F5F5F5F5F5F5F5F5F5F5F5F5F5E2F5F5F5F5F5F5F5F5F5F5F5F5F5F5F5F5E2F5F5F5F5E2E2F5F5F5F5E2F5F5F5F5F5F5F5F5F5F5F5F5F5F5F5F5E2F5F5F5F5F5F5F5F5F5F5F5F5F5F5F5F5F5F5F5F5F5F5F5F5F5F5F5F5F5F5F5F5F5F5F5F5F5
310
F5F5F5F5F5F5F5F5F5F5F5F5F5F5F5F5F5F5F5F5F5F5F5F5F5F5F5F5F5F5F5F5F5F5F5F5F5F5F5F5F5F5F5F5F5F5F5F5F5F5F5F5F5F5F5F5F5F5F5F5F5F5F5F5F5F5F5F5F5F5F5F5F5F5F5F5F5F5F5F5F5F5F5F5F5F5F5F5F5F5F5F5F5F5F5F5F5E2F5F5F5F5F5F5F5F5F5F5F5F5F5F5F5F5E2F5F5F5F5E2E2F5F5F5F5E2F5
310
F5F5F5F5F5F5F5F5F5F5F5F5F5F5F5E2F5F5F5F5F5F5F5F5F5F5F5F5F5F5F5F5F5F5F5F5F5F5F5F5F5F5F5F5F5F5F5F5F5F5F5F5F5F5F5F5F5F5F5F5F5F5F5F5F5F5F5F5F5F5F5F5F5F5F5F5F5F5F5F5F5F5F5F5F5F5F5F5F5F5F5F5F5F5F5F5F5F5F5F5F5F5F5F5F5F5F5F5F5F5F5F5F5F5F5F5F5F5F5F5F5F5F5F5F5F5F5
310
F5F5F5F5F5F5F5F5F5F5F5F5F5F5F5F5F5F5F5F5F5F5F5E2F5F5F5F5F5F5F5F5F5F5F5F5F5F5F5F5E2F5F5F5F5E2E2F5F5F5F5E2F5F5F5F5F5F5F5F5F5F5F5F5F5F5F5F5E2F5F5F5F5F5F5F5F5F5F5F5F5F5F5F5F5F5F5F5F5F5F5F5F5F5F5F5F5F5F5F5F5F5F5F5F5F5F5F5F5F5F5F5F5F5F5F5F5F5F5F5F5F5F5F5F5F5F5
310
F5F5F5F5F5F5F5F5F5F5F5F5F5F5F5F5F5F5F5F5F5F5F5F5F5F5F5F5F5F5F5F5F5F5F5F5F5F5F5F5F5F5F5F5F5F5F5F5F5F5F5F5F5F5F5F5F5F5F5F5F5F5F5F5F5F5F5F5F5F5F5F5F5F5F5F5E2F5F5F5F5F5F5F5F5F5F5F5F5F5F5F5F5E2F5F5F5F5E2E2F5F5F5F5E2F5F5F5F5F5F5F5F5F5F5F5F5F5F5F5F5E2F5F5F5F5F5
310
F5F5F5F5F5F5F5F5F5F5F5F5F5F5F5F5F5F5F5F5F5F5F5F5F5F5F5F5F5F5F5F5F5F5F5F5F5F5F5F5F5F5F5F5F5F5F5F5F5F5F5F5F5F5F5F5F5F5F5F5F5F5F5F5F5F5F5F5F5F5F5F5F5F5F5F5F5F5F5F5F5F5F5F5F5F5F5F5F5F5F5F5F5F5F5F5F5F5F5F5F5F5F5F5F5F5F5F5F5F5F5F5F5F5F5F5F5F5F5F5F5F5F5F5F5F5F5
310
F5F5E2F5F5F5F5F5F5F5F5F5F5F5F5F5F5F5F5E2F5F5F5F5E2E2F5F5F5F5E2F5F5F5F5F5F5F5F5F5F5F5F5F5F5F5F5E2F5F5F5F5F5F5F5F5F5F5F5F5F5F5F5F5F5F5F5F5F5F5F5F5F5F5F5F5F5F5F5F5F5F5F5F5F5F5F5F5F5F5F5F5F5F5F5F5F5F5F5F5F5F5F5F5F5F5F5F5F5F5F5F5F5F5F5F5F5F5F5F5F5F5F5F5F5F5F5
310
F5F5F5F5F5F5F5F5F5F5F5F5F5F5F5F5F5F5F5F5F5F5F5F5F5F5F5F5F5F5F5F5F5F5F5F5F5F5F5F5F5F5F5F5F5F5F5F5F5F5F5F5F5F5F5E2F5F5F5F5F5F5F5F5F5F5F5F5F5F5F5F5E2F5F5F5F5E2E2F5F5F5F5E2F5F5F5F5F5F5F5F5F5F5F5F5F5F5F5F5E2F5F5F5F5F5F5F5F5F5F5F5F5F5F5F5F5F5F5F5F5F5F5F5F5F5F5
310
F5F5F5F5F5F5F5F5F5F5F5F5F5F5F5F5F5F5F5F5F5F5F5F5F5F5F5F5F5F5F5F5F5F5F5F5F5F5F5F5F5F5F5F5F5F5F5F5F5F5F5F5F5F5F5F5F5F5F5F5F5F5F5F5F5F5F5F5F5F5F5F5F5F5F5F5F5F5F5F5F5F5F5F5F5F5F5F5F5F5F5F5F5F5F5F5F5F5F5F5F5F5F5F5F5F5F5F5E2F5F5F5F5F5F5F5F5F5F5F5F5F5F5F5F5E2F5
310
F5F5F5E2E2F5F5F5F5E2F5F5F5F5F5F5F5F5F5F5F5F5F5F5F5F5E2F5F5F5F5F5F5F5F5F5F5F5F5F5F5F5F5F5F5F5F5F5F5F5F5F5F5F5F5F5F5F5F5F5F5F5F5F5F5F5F5F5F5F5F5F5F5F5F5F5F5F5F5F5F5F5F5F5F5F5F5F5F5F5F5F5F5F5F5F5F5F5F5F5F5F5F5F5F5F5F5F5F5F5F5F5F5F5F5F5F5F5F5F5F5F5F5F5F5F5F5
310
F5F5F5F5F5F5F5F5F5F5F5F5F5F5F5F5F5F5F5F5F5F5F5F5F5F5F5F5F5F5F5F5F5F5E2F5F5F5F5F5F5F5F5F5F5F5F5F5F5F5F5E2F5F5F5F5E2E2F5F5F5F5E2F5F5F5F5F5F5F5F5F5F5F5F5F5F5F5F5E2F5F5F5F5F5F5F5F5F5F5F5F5F5F5F5F5F5F5F5F5F5F5F5F5F5F5F5F5F5F5F5F5F5F5F5F5F5F5F5F5F5F5F5F5F5F5F5
310
F5F5F5F5F5F5F5F5F5F5F5F5F5F5F5F5F5F5F5F5F5F5F5F5F5F5F5F5F5F5F5F5F5F5F5F5F5F5F5F5F5F5F5F5F5F5F5F5F5F5F5F5F5F5F5F5F5F5F5F5F5F5F5F5F5F5F5F5F5F5F5F5F5F5F5F5F5F5F5F5F5F5F5F5F5F5F5E2F5F5F5F5F5F5F5F5F5F5F5F5F5F5F5F5E2F5F5F5F5E2E2F5F5F5F5E2F5F5F5F5F5F5F5F5F5F5F5
310
F5F5F5F5F5E2F5F5F5F5F5F5F5F5F5F5F5F5F5F5F5F5F5F5F5F5F5F5F5F5F5F5F5F5F5F5F5F5F5F5F5F5F5F5F5F5F5F5F5F5F5F5F5F5F5F5F5F5F5F5F5F5F5F5F5F5F5F5F5F5F5F5F5F5F5F5F5F5F5F5F5F5F5F5F5F5F5F5F5F5F5F5F5F5F5F5F5F5F5F5F5F5F5F5F5F5F5F5F5F5F5F5F5F5F5F5F5F5F5F5F5F5F5F5F5F5F5
310
F5F5F5F5F5F5F5F5F5F5F5F5F5E2F5F5F5F5F5F5F5F5F5F5F5F5F5F5F5F5E2F5F5F5F5E2E2F5F5F5F5E2F5F5F5F5F5F5F5F5F5F5F5F5F5F5F5F5E2F5F5F5F5F5F5F5F5F5F5F5F5F5F5F5F5F5F5F5F5F5F5F5F5F5F5F5F5F5F5F5F5F5F5F5F5F5F5F5F5F5F5F5F5F5F5F5F5F5F5F5F5F5F5F5F5F5F5F5F5F5F5F5F5F5F5F5F5
310
F5F5F5F5F5F5F5F5F5F5F5F5F5F5F5F5F5F5F5F5F5F5F5F5F5F5F5F5F5F5F5F5F5F5F5F5F5F5F5F5F5F5F5F5F5F5F5F5F5F5F5F5F5F5F5F5F5F5F5F5F5F5F5F5F5F5E2F5F5F5F5F5F5F5F5F5F5F5F5F5F5F5F5E2F5F5F5F5E2E2F5F5F5F5E2F5F5F5F5F5F5F5F5F5F5F5F5F5F5F5F5E2F5F5F5F5F5F5F5F5F5F5F5F5F5F5F5
310
F5F5F5F5F5F5F5F5F5F5F5F5F5F5F5F5F5F5F5F5F5F5F5F5F5F5F5F5F5F5F5F5F5F5F5F5F5F5F5F5F5F5F5F5F5F5F5F5F5F5F5F5F5F5F5F5F5F5F5F5F5F5F5F5F5F5F5F5F5F5F5F5F5F5F5F5F5F5F5F5F5F5F5F5F5F5F5F5F5F5F5F5F5F5F5F5F5F5F5F5F5F5F5F5F5F5F5F5F5F5F5F5F5F5F5F5F5F5F5E2F5F5F5F5F5F5F5
310
F5F5F5F5F5F5F5F5F5E2F5F5F5F5E2E2F5F5F5F5E2F5F5F5F5F5F5F5F5F5F5F5F5F5F5F5F5E2F5F5F5F5F5F5F5F5F5F5F5F5F5F5F5F5F5F5F5F5F5F5F5F5F5F5F5F5F5F5F5F5F5F5F5F5F5F5F5F5F5F5F5F5F5F5F5F5F5F5F5F5F5F5F5F5F5F5F5F5F5F5F5F5F5F5F5F5F5F5F5F5F5F5F5F5F5F5F5F5F5F5F5F5F5F5F5F5F5
310
F5F5F5F5F5F5F5F5F5F5F5F5F5F5F5F5F5F5F5F5F5F5F5F5F5F5F5F5F5F5F5F5F5F5F5F5F5F5F5F5F5F5F5F5F5E2F5F5F5F5F5F5F5F5F5F5F5F5F5F5F5F5E2F5F5F5F5E2E2F5F5F5F5E2F5F5F5F5F5F5F5F5F5F5F5F5F5F5F5F5E2F5F5F5F5F5F5F5F5F5F5F5F5F5F5F5F5F5F5F5F5F5F5F5F5F5F5F5F5F5F5F5F5F5F5F5F5
310
F5F5F5F5F5F5F5F5F5F5F5F5F5F5F5F5F5F5F5F5F5F5F5F5F5F5F5F5F5F5F5F5F5F5F5F5F5F5F5F5F5F5F5F5F5F5F5F5F5F5F5F5F5F5F5F5F5F5F5F5F5F5F5F5F5F5F5F5F5F5F5F5F5F5F5F5F5F5F5F5F5F5F5F5F5F5F5F5F5F5F5F5F5F5F5F5F5F5E2F5F5F5F5F5F5F5F5F5F5F5F5F5F5F5F5E2F5F5F5F5E2E2F5F5F5F5E2
310
F5F5F5F5F5F5F5F5F5F5F5F5F5F5F5F5E2F5F5F5F5F5F5F5F5F5F5F5F5F5F5F5F5F5F5F5F5F5F5F5F5F5F5F5F5F5F5F5F5F5F5F5F5F5F5F5F5F5F5F5F5F5F5F5F5F5F5F5F5F5F5F5F5F5F5F5F5F5F5F5F5F5F5F5F5F5F5F5F5F5F5F5F5F5F5F5F5F5F5F5F5F5F5F5F5F5F5F5F5F5F5F5F5F5F5F5F5F5F5F5F5F5F5F5F5F5F5
310
F5F5F5F5F5F5F5F5F5F5F5F5F5F5F5F5F5F5F5F5F5F5F5F5E2F5F5F5F5F5F5F5F5F5F5F5F5F5F5F5F5E2F5F5F5F5E2E2F5F5F5F5E2F5F5F5F5F5F5F5F5F5F5F5F5F5F5F5F5E2F5F5F5F5F5F5F5F5F5F5F5F5F5F5F5F5F5F5F5F5F5F5F5F5F5F5F5F5F5F5F5F5F5F5F5F5F5F5F5F5F5F5F5F5F5F5F5F5F5F5F5F5F5F5F5F5F5
310
F5F5F5F5F5F5F5F5F5F5F5F5F5F5F5F5F5F5F5F5F5F5F5F5F5F5F5F5F5F5F5F5F5F5F5F5F5F5F5F5F5F5F5F5F5F5F5F5F5F5F5F5F5F5F5F5F5F5F5F5F5F5F5F5F5F5F5F5F5F5F5F5F5F5F5F5F5E2F5F5F5F5F5F5F5F5F5F5F5F5F5F5F5F5E2F5F5F5F5E2E2F5F5F5F5E2F5F5F5F5F5F5F5F5F5F5F5F5F5F5F5F5E2F5F5F5F5
310
F5F5F5F5F5F5F5F5F5F5F5F5F5F5F5F5F5F5F5F5F5F5F5F5F5F5F5F5F5F5F5F5F5F5F5F5F5F5F5F5F5F5F5F5F5F5F5F5F5F5F5F5F5F5F5F5F5F5F5F5F5F5F5F5F5F5F5F5F5F5F5F5F5F5F5F5F5F5F5F5F5F5F5F5F5F5F5F5F5F5F5F5F5F5F5F5F5F5F5F5F5F5F5F5F5F5F5F5F5F5F5F5F5F5F5F5F5F5F5F5F5F5F5F5F5F5F5
310
F5F5F5E2F5F5F5F5F5F5F5F5F5F5F5F5F5F5F5F5E2F5F5F5F5E2E2F5F5F5F5F5F5F5F5F5F5F5F5F5F5F5F5F5F5F5F5F5E2F5F5F5F5F5F5F5F5F5F5F5F5F5F5F5F5F5F5F5F5F5F5F5F5F5F5F5F5F5F5F5F5F5F5F5F5F5F5F5F5F5F5F5F5F5F5F5F5F5F5F5F5F5F5F5F5F5F5F5F5F5F5F5F5F5F5F5F5F5F5F5F5F5F5F5F5F5F5
310
F5F5F5F5F5F5F5F5F5F5F5F5F5F5F5F5F5F5F5F5F5F5F5F5F5F5F5F5F5F5F5F5F5F5F5F5F5F5F5F5F5F5F5F5F5F5F5F5F5F5F5F5F5F5F5F5E2F5F5F5F5F5F5F5F5F5F5F5F5F5F5F5F5F5F5F5F5F5E2E2F5F5F5F5F5F5F5F5F5F5F5F5F5F5F5F5F5F5F5F5F5E2F5F5F5F5F5F5F5F5F5F5F5F5F5F5F5F5F5F5F5F5F5F5F5F5F5
310
F5F5F5F5F5F5F5F5F5F5F5F5F5F5F5F5F5F5F5F5F5F5F5F5F5F5F5F5F5F5F5F5F5F5F5F5F5F5F5F5F5F5F5F5F5F5F5F5F5F5F5F5F5F5F5F5F5F5F5F5F5F5F5F5F5F5F5F5F5F5F5F5F5F5F5F5F5F5F5F5F5F5F5F5F5F5F5F5F5F5F5F5F5F5F5F5F5F5F5F5F5F5F5F5F5F5F5F5F5E2F5F5F5F5F5F5F5F5F5F5F5F5F5F5F5F5F5
310
F5F5F5F5E2E2F5F5F5F5F5F5F5F5F5F5F5F5F5F5F5F5F5F5F5F5F5E2F5F5F5F5F5F5F5F5F5F5F5F5F5F5F5F5F5F5F5F5F5F5F5F5F5F5F5F5F5F5F5F5F5F5F5F5F5F5F5F5F5F5F5F5F5F5F5F5F5F5F5F5F5F5F5F5F5F5F5F5F5F5F5F5F5F5F5F5F5F5F5F5F5F5F5F5F5F5F5F5F5F5F5F5F5F5F5F5F5F5F5F5F5F5F5F5F5F5F5
310
F5F5F5F5F5F5F5F5F5F5F5F5F5F5F5F5F5F5F5F5F5F5F5F5F5F5F5F5F5F5F5F5F5F5F5E2F5F5F5F5F5F5F5F5F5F5F5F5F5F5F5F5F5F5F5F5F5E2E2F5F5F5F5F5F5F5F5F5F5F5F5F5F5F5F5F5F5F5F5F5E2F5F5F5F5F5F5F5F5F5F5F5F5F5F5F5F5F5F5F5F5F5F5F5F5F5F5F5F5F5F5F5F5F5F5F5F5F5F5F5F5F5F5F5F5F5F5
310
F5F5F5F5F5F5F5F5F5F5F5F5F5F5F5F5F5F5F5F5F5F5F5F5F5F5F5F5F5F5F5F5F5F5F5F5F5F5F5F5F5F5F5F5F5F5F5F5F5F5F5F5F5F5F5F5F5F5F5F5F5F5F5F5F5F5F5F5F5F5F5F5F5F5F5F5F5F5F5F5F5F5F5F5F5F5F5F5E2F5F5F5F5F5F5F5F5F5F5F5F5F5F5F5F5F5F5F5F5F5E2E2F5F5F5F5F5F5F5F5F5F5F5F5F5F5F5
310
F5F5F5F5F5F5E2E2E2E2E2E2E2E2E2E2E2E2E2E2E2E2E2E2E2E2E2E2E2E2E2E2E2E2E2E2E2E2E2E2E2E2E2E2E2E2E2E2E2E2E2E2E2E2E2E2E2E2E2E2E2E2E2E2E2E2E2E2E2E2E2E2E2E2E2E2E2E2E2E2E2E2E2E2E2E2E2E2E2E2E2E2E2E2E2E2E2E2E2E2E2E2E2E2E2E2E2E2E2E2E2E2E2E2E2E2E2E2E2E2E2E2E2E2E2E2E2
310
E2E2E2E2E2E2E2E2E2E2E2E2E2E2E2F5F5F5F5F5F5F5F5F5F5F5F5F5F5F5F5F5F5F5F5F5E2E2F5F5F5F5F5F5F5F5F5F5F5F5F5F5F5F5F5F5F5F5F5F5F5F5F5F5F5F5F5F5F5F5F5F5F5F5F5F5F5F5F5F5F5F5F5F5F5F5F5F5F5F5F5F5F5F5F5F5F5F5F5F5F5F5F5F5F5F5F5F5F5F5F5F5F5F5F5F5F5F5F5F5F5F5F5F5F5F5F5
310
F5F5F5F5F5F5F5F5F5F5F5F5F5F5F5F5F5F5F5F5F5F5F5F5F5F5F5F5F5F5F5F5F5F5F5F5F5F5F5F5F5F5F5F5F5F5F5F5F5F5F5F5F5F5F5F5F5F5F5F5F5F5F5F5F5F5F5F5F5F5F5F5F5F5F5F5F5F5F5F5F5F5F5F5F5F5F5F5F5E2E2F5F5F5F5F5F5F5F5F5F5F5F5F5F5F5F5F5F5F5F5F5F5F5F5F5F5F5F5F5F5F5F5F5F5F5F5
310
F5F5F5F5F5F5F5F5F5F5F5F5F5F5F5F5F5F5F5F5F5F5F5F5F5F5F5F5F5F5F5F5F5F5F5F5F5F5F5F5F5F5F5F5F5F5F5F5F5F5F5F5F5F5F5F5F5F5F5F5F5F5F5F5F5F5F5F5F5F5F5F5F5F5F5F5F5F5F5F5F5F5F5F5F5F5F5F5F5F5F5F5F5F5F5F5F5F5F5F5F5F5F5F5F5F5F5F5F5F5F5F5F5F5F5F5F5F5F5F5F5F5F5F5F5F5F5
310
F5F5F5F5F5F5F5F5F5F5F5F5F5F5F5E2E2F5F5F5F5F5F5F5F5F5F5F5F5F5F5F5F5F5F5F5F5F5F5F5F5F5F5F5F5F5F5F5F5F5F5F5F5F5F5F5F5F5F5F5F5F5F5F5F5F5F5F5F5F5F5F5F5F5F5F5F5F5F5F5F5F5F5F5F5F5F5F5F5F5F5F5F5F5F5F5F5F5F5F5F5F5F5F5F5F5F5F5F5F5F5F5F5F5F5F5F5F5F5F5F5F5F5F5F5F5F5
310
F5F5F5F5F5F5F5F5F5F5F5F5F5F5F5F5F5F5F5F5F5F5F5F5F5F5F5F5F5F5F5F5F5F5F5F5F5F5F5F5F5F5F5F5F5F5F5F5F5F5F5F5F5F5F5F5F5F5F5F5F5F5F5F5F5F5F5F5E2E2F5F5F5F5F5F5F5F5F5F5F5F5F5F5F5F5F5F5F5F5F5F5F5F5F5F5F5F5F5F5F5F5F5F5F5F5F5F5F5F5F5F5F5F5F5F5F5F5F5F5F5F5F5F5F5F5F5
310
F5F5F5F5F5F5F5F5F5F5F5F5F5F5F5F5F5F5F5F5F5F5F5F5F5F5F5F5F5F5F5F5F5F5F5F5F5F5F5F5F5F5F5F5F5F5F5F5F5F5F5F5F5F5F5F5F5F5F5F5F5F5F5F5F5F5F5F5F5F5F5F5F5F5F5F5F5F5F5F5F5F5F5F5F5F5F5F5F5F5F5F5F5F5F5F5F5F5F5F5F5F5F5F5F5F5F5F5F5F5F5F5F5F5F5F5F5F5F5F5F5E2E2F5F5F5F5
310
E2F5F5F5F5F5F5F5F5F5F5F5F5F5F5F5F5F5F5F5F5F5F5F5F5F5F5F5F5F5F5F5F5F5F5F5F5F5F5F5F5F5F5F5F5F5F5F5F5F5F5F5F5F5F5F5F5F5F5F5F5F5F5F5F5F5F5F5F5F5F5F5F5F5F5F5F5F5F5F5F5F5F5F5F5F5F5F5F5F5F5F5F5F5F5F5F5F5F5F5F5F5F5F5F5F5F5F5F5F5F5F5F5F5F5F5F5F5F5F5F5F5F5F5F5F5F5
310
F5F5F5F5F5F5F5F5F5F5F5F5F5F5F5F5F5F5F5F5F5F5F5F5F5F5F5F5F5F5F5F5F5F5F5F5F5F5F5F5F5F5E2F5F5F5F5E2E2F5F5F5F5E2F5F5F5F5F5F5F5F5F5F5F5F5F5F5F5F5F5F5F5F5F5F5F5F5F5F5F5F5F5F5F5F5F5F5F5F5F5F5F5F5F5F5F5F5F5F5F5F5F5F5F5F5F5F5F5F5F5F5F5F5F5F5F5F5F5F5F5F5F5F5F5F5F5
310
F5F5F5F5F5F5F5F5F5F5F5F5F5F5F5F5F5F5F5F5F5F5F5F5F5F5F5F5F5F5F5F5F5F5F5F5F5F5F5F5F5F5F5F5F5F5F5F5F5F5F5F5F5F5F5F5F5F5F5F5F5F5F5F5F5F5F5F5F5F5F5F5F5F5F5F5F5F5F5F5F5F5F5F5F5F5F5F5F5F5F5F5F5F5F5E2F5F5F5F5E2E2F5F5F5F5E2F5F5F5F5F5F5F5F5F5F5F5F5F5F5F5F5F5F5F5F5
310
F5F5F5F5F5F5F5F5F5F5F5F5F5F5F5F5F5F5F5F5F5F5F5F5F5F5F5F5F5F5F5F5F5F5F5F5F5F5F5F5F5F5F5F5F5F5F5F5F5F5F5F5F5F5F5F5F5F5F5F5F5F5F5F5F5F5F5F5F5F5F5F5F5F5F5F5F5F5F5F5F5F5F5F5F5F5F5F5F5F5F5F5F5F5F5F5F5F5F5F5F5F5F5F5F5F5F5F5F5F5F5F5F5F5F5F5F5F5F5F5F5F5F5F5F5F5F5
310
F5F5F5F5F5F5F5F5F5F5F5F5F5F5F5F5F5F5F5F5F5E2F5F5F5F5E2E2F5F5F5F5E2F5F5F5F5F5F5F5F5F5F5F5F5F5F5F5F5F5F5F5F5F5F5F5F5F5F5F5F5F5F5F5F5F5F5F5F5F5F5F5F5F5F5F5F5F5F5F5F5F5F5F5F5F5F5F5F5F5F5F5F5F5F5F5F5F5F5F5F5F5F5F5F5F5F5F5F5F5F5F5F5F5F5F5F5F5F5F5F5F5F5F5F5F5F5
310
F5F5F5F5F5F5F5F5F5F5F5F5F5F5F5F5F5F5F5F5F5F5F5F5F5F5F5F5F5F5F5F5F5F5F5F5F5F5F5F5F5F5F5F5F5F5F5F5F5F5F5F5F5F5F5F5F5F5F5F5F5F5F5F5F5F5F5F5F5F5F5F5F5F5E2F5F5F5F5E2E2F5F5F5F5E2F5F5F5F5F5F5F5F5F5F5F5F5F5F5F5F5F5F5F5F5F5F5F5F5F5F5F5F5F5F5F5F5F5F5F5F5F5F5F5F5F5
310
F5F5F5F5F5F5F5F5F5F5F5F5F5F5F5F5F5F5F5F5F5F5F5F5F5F5F5F5F5F5F5F5F5F5F5F5F5F5F5F5F5F5F5F5F5F5F5F5F5F5F5F5F5F5F5F5F5F5F5F5F5F5F5F5F5F5F5F5F5F5F5F5F5F5F5F5F5F5F5F5F5F5F5F5F5F5F5F5F5F5F5F5F5F5F5F5F5F5F5F5F5F5F5F5F5F5F5F5F5F5F5F5F5F5F5F5F5F5F5F5F5F5F5F5F5F5F5
310
E2F5F5F5F5E2E2F5F5F5F5E2F5F5F5F5F5F5F5F5F5F5F5F5F5F5F5F5F5F5F5F5F5F5F5F5F5F5F5F5F5F5F5F5F5F5F5F5F5F5F5F5F5F5F5F5F5F5F5F5F5F5F5F5F5F5F5F5F5F5F5F5F5F5F5F5F5F5F5F5F5F5F5F5F5F5F5F5F5F5F5F5F5F5F5F5F5F5F5F5F5F5F5F5F5F5F5F5F5F5F5F5F5F5F5F5F5F5F5F5F5F5F5F5F5F5F5
310
F5F5F5F5F5F5F5F5F5F5F5F5F5F5F5F5F5F5F5F5F5F5F5F5F5F5F5F5F5F5F5F5F5F5F5F5F5F5F5F5F5F5F5F5F5F5F5F5F5F5F5F5F5E2F5F5F5F5E2E2F5F5F5F5E2F5F5F5F5F5F5F5F5F5F5F5F5F5F5F5F5F5F5F5F5F5F5F5F5F5F5F5F5F5F5F5F5F5F5F5F5F5F5F5F5F5F5F5F5F5F5F5F5F5F5F5F5F5F5F5F5F5F5F5F5F5F5
310
F5F5F5F5F5F5F5F5F5F5F5F5F5F5F5F5F5F5F5F5F5F5F5F5F5F5F5F5F5F5F5F5F5F5F5F5F5F5F5F5F5F5F5F5F5F5F5F5F5F5F5F5F5F5F5F5F5F5F5F5F5F5F5F5F5F5F5F5F5F5F5F5F5F5F5F5F5F5F5F5F5F5F5F5F5F5F5F5F5F5F5F5F5F5F5F5F5F5F5F5F5F5F5F5F5F5E2F5F5F5F5E2E2F5F5F5F5E2F5F5F5F5F5F5F5F5F5
310
F5F5F5F5F5F5F5F5F5F5F5F5F5F5F5F5F5F5F5F5F5F5F5F5F5F5F5F5F5F5F5F5F5F5F5F5F5F5F5F5F5F5F5F5F5F5F5F5F5F5F5F5F5F5F5F5F5F5F5F5F5F5F5F5F5F5F5F5F5F5F5F5F5F5F5F5F5F5F5F5F5F5F5F5F5F5F5F5F5F5F5F5F5F5F5F5F5F5F5F5F5F5F5F5F5F5F5F5F5F5F5F5F5F5F5F5F5F5F5F5F5F5F5F5F5F5F5
310
F5F5F5F5F5F5F5F5F5F5F5F5F5F5F5F5F5F5F5F5F5F5F5F5F5F5F5F5F5F5F5F5E2F5F5F5F5E2E2F5F5F5F5E2E2E2E2E2E2E2E2F5F5F5F5F5F5F5F5F5E2E2E2E2E2E2E2E2E2E2E2E2E2E2E2F5F5F5F5F5F5F5F5F5E2E2E2E2E2E2E2E2E2E2E2E2E2E2E2E2F5F5F5F5F5F5F5F5E2E2E2E2E2E2E2E2E2E2E2E2E2E2E2E2F5F5F5
310
F5F5F5F5F5E2E2E2E2E2E2E2E2E2E2E2E2E2E2E2E2F5F5F5F5F5F5F5F5E2E2E2E2E2E2E2E2E2E2E2E2E2E2E2E2F5F5F5F5F5F5F5F5F5E2E2E2E2E2E2E2E2E2E2E2E2E2E2E2F5F5F5F5F5F5F5F5F5E2E2E2E2E2E2E2E2F5F5F5F5E2E2F5F5F5F5F5F5F5F5F5F5F5F5F5F5F5F5F5F5F5F5F5F5F5F5F5F5F5F5F5F5F5F5F5F5F5
310
F5F5F5F5F5F5F5F5F5F5F5F5F5F5F5F5F5F5F5F5F5F5F5F5F5F5F5F5F5F5F5F5F5F5F5F5F5F5F5F5F5F5F5F5F5F5F5F5F5F5F5F5F5F5F5F5F5F5F5F5F5F5F5F5F5F5F5F5F5F5F5F5F5F5F5F5F5F5F5F5F5F5F5F5F5F5F5F5F5F5F5F5F5F5F5F5F5F5F5F5F5F5F5F5F5F5F5F5F5F5F5F5F5F5F5F5F5F5F5F5F5F5F5F5F5F5F5
310
F5F5F5F5F5F5F5F5F5F5F5F5F5F5F5F5E2E2F5F5F5F5F5F5F5F5F5F5F5F5F5F5F5F5F5F5F5F5F5F5F5F5F5F5F5F5F5F5F5F5F5F5F5F5F5F5F5F5F5F5F5F5F5F5F5F5F5F5F5F5F5F5F5F5F5F5F5F5F5F5F5F5F5F5F5F5F5F5F5F5F5F5F5F5F5F5F5F5F5F5F5F5F5F5F5F5F5F5F5F5F5F5F5F5F5F5F5F5F5F5F5F5F5F5F5F5F5
310
F5F5F5F5F5F5F5F5F5F5F5F5F5F5F5F5F5F5F5F5F5F5F5F5F5F5F5F5F5F5F5F5F5F5F5F5F5F5F5F5F5F5F5F5F5F5F5F5F5F5F5F5F5F5F5F5F5F5F5F5F5F5F5F5F5F5F5F5F5E2E2F5F5F5F5F5F5F5F5F5F5F5F5F5F5F5F5F5F5F5F5F5F5F5F5F5F5F5F5F5F5F5F5F5F5F5F5F5F5F5F5F5F5F5F5F5F5F5F5F5F5F5F5F5F5F5F5
310
F5F5F5F5F5F5F5F5F5F5F5F5F5F5F5F5F5F5F5F5F5F5F5F5F5F5F5F5F5F5F5F5F5F5F5F5F5F5F5F5F5F5F5F5F5F5F5F5F5F5F5F5F5F5F5F5F5F5F5F5F5F5F5F5F5F5F5F5F5F5F5F5F5F5F5F5F5F5F5F5F5F5F5F5F5F5F5F5F5F5F5F5F5F5F5F5F5F5F5F5F5F5F5F5F5F5F5F5F5F5F5F5F5F5F5F5F5F5F5F5F5F5E2E2E2E2E2
310
E2E2E2E2E2E2E2E2E2E2E2E2E2E2E2E2E2E2E2E2E2E2E2E2E2E2E2E2E2E2E2E2E2E2E2E2E2E2E2E2E2E2E2E2E2E2E2E2E2E2E2E2E2E2E2E2E2E2E2E2E2E2E2E2E2E2E2E2E2E2E2E2E2E2E2E2E2E2E2E2E2E2E2E2E2E2E2E2E2E2E2E2E2E2E2E2E2E2E2E2E2E2E2E2E2E2E2E2E2E2E2E2E2E2E2E2E2E2E2E2E2E2E2E2E2E2E2
310
E2E2E2E2E2E2E2E2E2E2E2E2E2E2E2E2E2E2E2E2E2E2E2E2E2E2E2E2E2E2E2E2E2E2E2E2E2E2E2E2E2E2E2E2E2E2E2E2E2
  0
XRECORD
  5
57AE5
102
{ACAD_REACTORS
330
B5
102
}
330
B5
100
AcDbXrecord
280
     1
102
SHADEPLOT
 70
     0
102
SHADEPLOTRESLEVEL
 70
     2
102
SHADEPLOTCUSTOMDPI
 70
   300
  0
XRECORD
  5
B6
102
{ACAD_REACTORS
330
B5
102
}
330
B5
100
AcDbXrecord
280
     1
310
28000000B40000008B0000000100080000000000BC610000000000000000000000010000000000000000000000000000FFFFFF000000000000000000000000000000000000000000000000000000000000000000330000006600000099000000CC000000FF00000000330000333300006633000099330000CC330000FF3300
310
0000660000336600006666000099660000CC660000FF66000000990000339900006699000099990000CC990000FF99000000CC000033CC000066CC000099CC0000CCCC0000FFCC000000FF000033FF000066FF000099FF0000CCFF0000FFFF000000003300330033006600330099003300CC003300FF003300003333003333
310
33006633330099333300CC333300FF33330000663300336633006666330099663300CC663300FF66330000993300339933006699330099993300CC993300FF99330000CC330033CC330066CC330099CC3300CCCC3300FFCC330000FF330033FF330066FF330099FF3300CCFF3300FFFF330000006600330066006600660099
310
006600CC006600FF00660000336600333366006633660099336600CC336600FF33660000666600336666006666660099666600CC666600FF66660000996600339966006699660099996600CC996600FF99660000CC660033CC660066CC660099CC6600CCCC6600FFCC660000FF660033FF660066FF660099FF6600CCFF6600
310
FFFF660000009900330099006600990099009900CC009900FF00990000339900333399006633990099339900CC339900FF33990000669900336699006666990099669900CC669900FF66990000999900339999006699990099999900CC999900FF99990000CC990033CC990066CC990099CC9900CCCC9900FFCC990000FF99
310
0033FF990066FF990099FF9900CCFF9900FFFF99000000CC003300CC006600CC009900CC00CC00CC00FF00CC000033CC003333CC006633CC009933CC00CC33CC00FF33CC000066CC003366CC006666CC009966CC00CC66CC00FF66CC000099CC003399CC006699CC009999CC00CC99CC00FF99CC0000CCCC0033CCCC0066CC
310
CC0099CCCC00CCCCCC00FFCCCC0000FFCC0033FFCC0066FFCC0099FFCC00CCFFCC00FFFFCC000000FF003300FF006600FF009900FF00CC00FF00FF00FF000033FF003333FF006633FF009933FF00CC33FF00FF33FF000066FF003366FF006666FF009966FF00CC66FF00FF66FF000099FF003399FF006699FF009999FF00CC
310
99FF00FF99FF0000CCFF0033CCFF0066CCFF0099CCFF00CCCCFF00FFCCFF0000FFFF0033FFFF0066FFFF0099FFFF00CCFFFF00FFFFFF00000000000D0D0D001A1A1A00282828003535350043434300505050005D5D5D006B6B6B00787878008686860093939300A1A1A100AEAEAE00BBBBBB00C9C9C900D6D6D600E4E4E400
310
F1F1F100FFFFFF0000000000000000000000000000000000000000000000000000000000000000000000000000000000F5F5F5F5F5F5F5F5F5F5F5F5F5F5F5F5F5F5F5F5F5F5F5F5F5F5F5F5F5F5F5F5F5F5F5F5F5F5F5F5F5F5F5F5F5F5F5F5F5F5F5F5F5F5F5F5F5F5F5F5F5F5F5F5F5F5F5F5F5F5F5F5F5F5F5F5F5F5F5
310
F5F5F5F5F5F5F5F5F5F5F5F5F5F5F5F5F5F5F5F5F5F5F5F5F5F5F5F5F5F5F5F5F5F5F5F5F5F5F5F5F5F5F5F5F5F5F5F5F5F5F5F5F5F5F5F5F5F5F5F5F5F5F5F5F5F5F5F5F5F5F5F5F5F5F5F5F5F5F5F5F5F5F5F5F5F5F5F5F5F5F5F5F5F5F5F5F5F5F5F5F5F5E2E2E2E2E2E2E2E2E2E2E2E2E2E2E2E2E2E2E2E2E2E2E2E2E2
310
E2E2E2E2E2E2E2E2E2E2E2E2E2E2E2E2E2E2E2E2E2E2E2E2E2E2E2E2E2E2E2E2E2E2E2E2E2E2E2E2E2E2E2E2E2E2E2E2E2E2E2E2E2E2E2E2E2E2E2E2E2E2E2E2E2E2E2E2E2E2E2E2E2E2E2E2E2E2E2E2E2E2E2E2E2E2E2E2E2E2E2E2E2E2E2E2E2E2E2E2E2E2E2E2E2E2E2E2E2E2E2E2E2E2E2E2E2E2E2E2E2E2E2E2E2E2E2
310
E2E2E2E2E2E2E2E2E2E2E2E2E2E2E2E2E2E2E2E2E2E2E2E2E2E2F5F5E2E2E2E2E2E2E2E2E2E2E2E2E2E2E2E2E2E2E2E2E2E2E2E2E2E2E2E2E2E2E2E2E2E2E2E2E2E2E2E2E2E2E2E2E2E2E2E2E2E2E2E2E2E2E2E2E2E2E2E2E2E2E2E2E2E2E2E2E2E2E2E2E2E2E2E2E2E2E2E2E2E2E2E2E2E2E2E2E2E2E2E2E2E2E2E2E2E2E2
310
E2E2E2E2E2E2E2E2E2E2E2E2E2E2E2E2E2E2E2E2E2E2E2E2E2E2E2E2E2E2E2E2E2E2E2E2E2E2E2E2E2E2E2E2E2E2E2E2E2E2E2E2E2E2E2E2E2E2E2E2E2E2E2E2E2E2E2E2E2E2E2E2E2E2E2E2E2E2E2F5F5E2E2E2E2E2E2E2E2E2E2E2E2E2E2E2E2E2E2E2E2E2E2E2E2E2E2E2E2E2E2E2E2E2E2E2E2E2E2E2E2E2E2E2E2E2E2
310
E2E2E2E2E2E2E2E2E2E2E2E2E2E2E2E2E2E2E2E2E2E2E2E2E2E2E2E2E2E2E2E2E2E2E2E2E2E2E2E2E2E2E2E2E2E2E2E2E2E2E2E2E2E2E2E2E2E2E2E2E2E2E2E2E2E2E2E2E2E2E2E2E2E2E2E2E2E2E2E2E2E2E2E2E2E2E2E2E2E2E2E2E2E2E2E2E2E2E2E2E2E2E2E2E2E2E2E2E2E2E2E2E2E2E2E2E2E2E2E2E2E2E2E2E2E2E2
310
E2E2E2E2E2F5F5E2E2E2E2E2E2E2E2E2E2E2E2E2E2E2E2E2E2E2E2E2E2E2E2E2E2E2E2E2E2E2E2E2E2E2E2E2E2E2E2E2E2E2E2E2E2E2E2E2E2E2E2E2E2E2E2E2E2E2E2E2E2E2E2E2E2E2E2E2E2E2E2E2E2E2E2E2E2E2E2E2E2E2E2E2E2E2E2E2E2E2E2E2E2E2E2E2E2E2E2E2E2E2E2E2E2E2E2E2E2E2E2E2E2E2E2E2E2E2E2
310
E2E2E2E2E2E2E2E2E2E2E2E2E2E2E2E2E2E2E2E2E2E2E2E2E2E2E2E2E2E2E2E2E2E2E2E2E2E2E2E2E2E2E2E2E2E2E2E2E2E2E2E2E2E2E2E2E2E2F5F5E2E2E2F5F5F5F5F5F5F5F5E2E2E2E2E2E2E2E2E2F5F5F5F5F5F5F5F5F5F5F5F5F5F5F5F5E2E2E2E2E2E2E2E2E2F5F5F5F5F5F5F5F5F5F5F5F5F5F5F5E2E2E2E2E2E2E2
310
E2E2F5F5F5F5F5F5F5F5F5F5F5F5F5F5F5F5E2E2E2E2E2E2E2E2F5F5F5F5F5F5F5F5F5F5F5F5F5F5F5F5E2E2E2E2E2E2E2E2E2F5F5F5F5F5F5F5F5F5F5F5F5F5F5F5E2E2E2E2E2E2E2E2E2F5F5F5F5F5F5F5F5F5F5F5F5F5F5F5F5E2E2E2E2E2E2E2E2E2F5F5F5F5F5F5F5F5E2E2E2F5F5E2E2E2F5E2E2E2E2E2E2E2E2E2E2
310
E2E2E2E2E2E2E2E2E2E2E2E2E2E2E2E2E2E2E2E2E2E2E2E2E2E2E2E2E2E2E2E2E2E2E2E2E2E2E2E2E2E2E2E2E2E2E2E2E2E2E2E2E2E2E2E2E2E2E2E2E2E2E2E2E2E2E2E2E2E2E2E2E2E2E2E2E2E2E2E2E2E2E2E2E2E2E2E2E2E2E2E2E2E2E2E2E2E2E2E2E2E2E2E2E2E2E2E2E2E2E2E2E2E2E2E2E2E2E2E2E2E2E2E2E2E2E2
310
E2E2E2E2E2E2E2E2E2E2E2E2E2E2E2E2E2E2E2E2E2E2E2E2E2E2E2E2E2E2E2E2E2F5E2E2E2F5F5E2E2E2F5E2E2E2E2E2E2E2E2E2E2E2E2E2E2E2E2E2E2E2E2E2E2E2E2E2E2E2E2E2E2E2E2E2E2E2E2E2E2E2E2E2E2E2E2E2E2E2E2E2E2E2E2E2E2E2E2E2E2E2E2E2E2E2E2E2E2E2E2E2E2E2E2E2E2E2E2E2E2E2E2E2E2E2E2
310
E2E2E2E2E2E2E2E2E2E2E2E2E2E2E2E2E2E2E2E2E2E2E2E2E2E2E2E2E2E2E2E2E2E2E2E2E2E2E2E2E2E2E2E2E2E2E2E2E2E2E2E2E2E2E2E2E2E2E2E2E2E2E2E2E2E2E2E2E2E2E2E2E2E2E2E2E2E2E2E2E2E2E2E2E2E2F5E2E2E2F5F5E2E2E2F5E2E2E2E2E2E2E2E2E2E2E2E2E2E2E2E2E2E2E2E2E2E2E2E2E2E2E2E2E2E2E2
310
E2E2E2E2E2E2E2E2E2E2E2E2E2E2E2E2E2E2E2E2E2E2E2E2E2E2E2E2E2E2E2E2E2E2E2E2E2E2E2E2E2E2E2E2E2E2E2E2E2E2E2E2E2E2E2E2E2E2E2E2E2E2E2E2E2E2E2E2E2E2E2E2E2E2E2E2E2E2E2E2E2E2E2E2E2E2E2E2E2E2E2E2E2E2E2E2E2E2E2E2E2E2E2E2E2E2E2E2E2E2E2E2E2E2E2E2E2E2E2E2E2E2E2E2E2E2E2
310
E2E2E2E2E2E2E2E2E2E2E2E2F5E2E2E2F5F5E2E2E2F5E2E2E2E2E2E2E2E2E2E2E2E2E2E2E2E2E2E2E2E2E2E2E2E2E2E2E2E2E2E2E2E2E2E2E2E2E2E2E2E2E2E2E2E2E2E2E2E2E2E2E2E2E2E2E2E2E2E2E2E2E2E2E2E2E2E2E2E2E2E2E2E2E2E2E2E2E2E2E2E2E2E2E2E2E2E2E2E2E2E2E2E2E2E2E2E2E2E2E2E2E2E2E2E2E2
310
E2E2E2E2E2E2E2E2E2E2E2E2E2E2E2E2E2E2E2E2E2E2E2E2E2E2E2E2E2E2E2E2E2E2E2E2E2E2E2E2E2E2E2E2E2E2E2E2E2E2E2E2E2E2E2E2E2E2E2E2E2E2E2E2E2F5E2E2E2F5F5E2E2E2F5E2E2E2E2E2E2E2E2E2E2E2E2E2E2E2E2E2E2E2E2E2E2E2E2E2E2E2E2E2E2E2E2E2E2E2E2E2E2E2E2E2E2E2E2E2E2E2E2E2E2E2E2
310
E2E2E2E2E2E2E2E2E2E2E2E2E2E2E2E2E2E2E2E2E2E2E2E2E2E2E2E2E2E2E2E2E2E2E2E2E2E2E2E2E2E2E2E2E2E2E2E2E2E2E2E2E2E2E2E2E2E2E2E2E2E2E2E2E2E2E2E2E2E2E2E2E2E2E2E2E2E2E2E2E2E2E2E2E2E2E2E2E2E2E2E2E2E2E2E2E2E2E2E2E2E2E2E2E2E2E2E2E2E2E2E2E2E2E2E2E2E2F5E2E2E2F5F5E2E2E2
310
F5E2E2E2E2E2E2E2E2E2E2E2E2E2E2E2E2E2E2E2E2E2E2E2E2E2E2E2E2E2E2E2E2E2E2E2E2E2E2E2E2E2E2E2E2E2E2E2E2E2E2E2E2E2E2E2E2E2E2E2E2E2E2E2E2E2E2E2E2E2E2E2E2E2E2E2E2E2E2E2E2E2E2E2E2E2E2E2E2E2E2E2E2E2E2E2E2E2E2E2E2E2E2E2E2E2E2E2E2E2E2E2E2E2E2E2E2E2E2E2E2E2E2E2E2E2E2
310
E2E2E2E2E2E2E2E2E2E2E2E2E2E2E2E2E2E2E2E2E2E2E2E2E2E2E2E2E2E2E2E2E2E2E2E2E2E2E2E2E2E2E2E2F5E2E2E2F5F5E2E2E2F5E2E2E2E2E2E2E2E2E2E2E2E2E2E2E2E2E2E2E2E2E2E2E2E2E2E2E2E2E2E2E2E2E2E2E2E2E2E2E2E2E2E2E2E2E2E2E2E2E2E2E2E2E2E2E2E2E2E2E2E2E2E2E2E2E2E2E2E2E2E2E2E2E2
310
E2E2E2E2E2E2E2E2E2E2E2E2E2E2E2E2E2E2E2E2E2E2E2E2E2E2E2E2E2E2E2E2E2E2E2E2E2E2E2E2E2E2E2E2E2E2E2E2E2E2E2E2E2E2E2E2E2E2E2E2E2E2E2E2E2E2E2E2E2E2E2E2E2E2E2E2E2E2E2E2E2E2E2E2E2E2E2E2E2E2E2E2E2E2E2E2E2F5E2E2E2F5F5E2E2E2F5E2E2E2E2E2E2E2E2E2E2E2E2E2E2E2E2E2E2E2E2
310
E2E2E2E2E2E2E2E2E2E2E2E2E2E2E2E2E2E2E2E2E2E2E2E2E2E2E2E2E2E2E2E2E2E2E2E2E2E2E2E2E2E2E2E2E2E2E2E2E2E2E2E2E2E2E2E2E2E2E2E2E2E2E2E2E2E2E2E2E2E2E2E2E2E2E2E2E2E2E2E2E2E2E2E2E2E2E2E2E2E2E2E2E2E2E2E2E2E2E2E2E2E2E2E2E2E2E2E2E2E2E2E2E2E2E2E2E2E2E2E2E2E2E2E2E2E2E2
310
E2E2E2E2E2E2E2E2E2E2E2E2E2E2E2E2E2E2E2E2E2E2E2F5E2E2E2F5F5E2E2E2E2E2E2E2E2E2E2E2E2E2E2E2E2E2E2E2E2E2E2E2E2E2E2E2E2E2E2E2E2E2E2E2E2E2E2E2E2E2E2E2E2E2E2E2E2E2E2E2E2E2E2E2E2E2E2E2E2E2E2E2E2E2E2E2E2E2E2E2E2E2E2E2E2E2E2E2E2E2E2E2E2E2E2E2E2E2E2E2E2E2E2E2E2E2E2
310
E2E2E2E2E2E2E2E2E2E2E2E2E2E2E2E2E2E2E2E2E2E2E2E2E2E2E2E2E2E2E2E2E2E2E2E2E2E2E2E2E2E2E2E2E2E2E2E2E2E2E2E2E2E2E2E2E2E2E2E2E2E2E2E2E2E2E2E2E2E2E2E2E2E2E2E2E2E2E2E2F5F5E2E2E2E2E2E2E2E2E2E2E2E2E2E2E2E2E2E2E2E2E2E2E2E2E2E2E2E2E2E2E2E2E2E2E2E2E2E2E2E2E2E2E2E2E2
310
E2E2E2E2E2E2E2E2E2E2E2E2E2E2E2E2E2E2E2E2E2E2E2E2E2E2E2E2E2E2E2E2E2E2E2E2E2E2E2E2E2E2E2E2E2E2E2E2E2E2E2E2E2E2E2E2E2E2E2E2E2E2E2E2E2E2E2E2E2E2E2E2E2E2E2E2E2E2E2E2E2E2E2E2E2E2E2E2E2E2E2E2E2E2E2E2E2E2E2E2E2E2E2E2E2E2E2E2E2E2E2E2E2E2E2E2E2E2E2E2E2E2E2E2E2E2E2
310
E2E2E2E2E2E2F5F5E2E2E2E2E2E2E2E2E2E2E2E2E2E2E2E2E2E2E2E2E2E2E2E2E2E2E2E2E2E2E2E2E2E2E2E2E2E2E2E2E2E2E2E2E2E2E2E2E2E2E2E2E2E2E2E2E2E2E2E2E2E2E2E2E2E2E2E2E2E2E2E2E2E2E2E2E2E2E2E2E2E2E2E2E2E2E2E2E2E2E2E2E2E2E2E2E2E2E2E2E2E2E2E2E2E2E2E2E2E2E2E2E2E2E2E2E2E2E2
310
E2E2E2E2E2E2E2E2E2E2E2E2E2E2E2E2E2E2E2E2E2E2E2E2E2E2E2E2E2E2E2E2E2E2E2E2E2E2E2E2E2E2E2E2E2E2E2E2E2E2E2E2E2E2E2E2E2E2E2F5F5E2E2E2E2E2E2E2E2E2E2E2E2E2E2E2E2E2E2E2E2E2E2E2E2E2E2E2E2E2E2E2E2E2E2E2E2E2E2E2E2E2E2E2E2E2E2E2E2E2E2E2E2E2E2E2E2E2E2E2E2E2E2E2E2E2E2
310
E2E2E2E2E2E2E2E2E2E2E2E2E2E2E2E2E2E2E2E2E2E2E2E2E2E2E2E2E2E2E2E2E2E2E2E2E2E2E2E2E2E2E2E2E2E2E2E2E2E2E2E2E2E2E2E2E2E2E2E2E2E2E2E2E2E2E2E2E2E2E2E2E2E2E2E2E2E2E2E2E2E2E2E2E2E2E2E2E2E2E2E2E2E2E2E2E2E2E2E2E2E2E2E2E2E2E2E2E2E2E2E2F5F5E2E2E2E2E2E2E2E2E2E2E2E2E2
310
E2E2E2E2E2E2E2F5F5F5F5F5F5F5F5F5F5F5F5F5F5F5F5F5F5F5F5F5F5F5F5F5F5F5F5F5F5F5F5F5F5F5F5F5F5F5F5F5F5F5F5F5F5F5F5F5F5F5F5F5F5F5F5F5F5F5F5F5F5F5F5F5F5F5F5F5F5F5F5F5F5F5F5F5F5F5F5F5F5F5F5F5F5F5F5F5F5F5F5F5F5F5F5F5F5F5F5F5F5F5F5F5F5F5F5F5F5F5F5F5F5F5F5F5F5F5F5
310
F5F5F5F5F5F5F5F5F5F5F5F5F5F5F5F5F5F5E2E2E2E2E2E2E2E2E2E2E2E2E2E2E2E2E2E2E2E2F5F5E2E2E2E2E2E2E2E2E2E2E2E2E2E2E2E2E2E2E2E2F5E2E2E2E2E2E2E2E2E2E2E2E2E2E2E2E2E2E2E2E2E2E2E2E2E2E2E2E2E2E2E2E2E2E2E2E2E2E2E2E2E2E2E2E2E2E2E2E2E2E2E2E2E2E2E2E2E2E2E2E2E2E2E2E2E2E2
310
E2E2E2E2E2E2E2E2E2E2E2E2E2E2E2E2E2E2E2E2E2E2E2E2E2E2E2E2E2E2E2E2E2E2E2E2E2E2E2E2E2E2E2E2E2E2E2E2E2E2E2E2E2E2E2E2E2E2E2E2E2E2E2E2E2E2E2E2E2E2F5E2E2E2E2E2E2E2E2E2E2E2E2E2E2E2E2E2E2E2E2F5F5E2E2E2E2E2E2E2E2E2E2E2E2E2E2E2E2E2E2E2E2F5E2E2E2E2E2E2E2E2E2E2E2E2E2
310
E2E2E2E2E2E2E2E2E2E2E2E2E2E2E2E2E2E2E2E2E2E2E2E2E2E2E2E2E2E2E2E2E2E2E2E2E2E2E2E2E2E2E2E2E2E2E2E2E2E2E2E2E2E2E2E2E2E2E2E2E2E2E2E2E2E2E2E2E2E2E2E2E2E2E2E2E2E2E2E2E2E2E2E2E2E2E2E2E2E2E2E2E2E2E2E2E2E2E2E2E2E2E2E2E2E2E2E2E2E2E2E2E2E2E2E2E2E2E2E2E2E2E2F5E2E2E2
310
E2E2E2E2E2E2E2E2E2E2E2E2E2E2E2E2E2F5F5E2E2E2E2E2E2E2E2E2E2E2E2E2E2E2E2E2E2E2E2F5E2E2E2E2E2E2E2E2E2E2E2E2E2E2E2E2E2E2E2E2E2E2E2E2E2E2E2E2E2E2E2E2E2E2E2E2E2E2E2E2E2E2E2E2E2E2E2E2E2E2E2E2E2E2E2E2E2E2E2E2E2E2E2E2E2E2E2E2E2E2E2E2E2E2E2E2E2E2E2E2E2E2E2E2E2E2E2
310
E2E2E2E2E2E2E2E2E2E2E2E2E2E2E2E2E2E2E2E2E2E2E2E2E2E2E2E2E2E2E2E2E2E2E2E2E2E2E2E2E2E2E2E2E2E2E2E2E2F5E2E2E2E2E2E2E2E2E2E2E2E2E2E2E2E2E2E2E2E2F5F5E2E2E2E2E2E2E2E2E2E2E2E2E2E2E2E2E2E2E2E2F5E2E2E2E2E2E2E2E2E2E2E2E2E2E2E2E2E2E2E2E2E2E2E2E2E2E2E2E2E2E2E2E2E2E2
310
E2E2E2E2E2E2E2E2E2E2E2E2E2E2E2E2E2E2E2E2E2E2E2E2E2E2E2E2E2E2E2E2E2E2E2E2E2E2E2E2E2E2E2E2E2E2E2E2E2E2E2E2E2E2E2E2E2E2E2E2E2E2E2E2E2E2E2E2E2E2E2E2E2E2E2E2E2E2E2E2E2E2E2E2E2E2E2E2E2E2E2E2E2E2E2E2E2E2E2E2E2E2F5E2E2E2E2E2E2E2E2E2E2E2E2E2E2E2E2E2E2E2E2F5F5E2E2
310
E2F5E2E2E2E2E2E2E2E2E2E2E2E2E2E2E2E2F5E2E2E2E2E2E2E2E2E2E2E2E2E2E2E2E2E2E2E2E2E2E2E2E2E2E2E2E2E2E2E2E2E2E2E2E2E2E2E2E2E2E2E2E2E2E2E2E2E2E2E2E2E2E2E2E2E2E2E2E2E2E2E2E2E2E2E2E2E2E2E2E2E2E2E2E2E2E2E2E2E2E2E2E2E2E2E2E2E2E2E2E2E2E2E2E2E2E2E2E2E2E2E2E2E2E2E2E2
310
E2E2E2E2E2E2E2E2E2E2E2E2E2E2E2E2E2E2E2E2E2E2E2E2E2E2E2E2F5E2E2E2E2E2E2E2E2E2E2E2E2E2E2E2E2F5E2E2E2F5F5E2E2E2F5E2E2E2E2E2E2E2E2E2E2E2E2E2E2E2E2F5E2E2E2E2E2E2E2E2E2E2E2E2E2E2E2E2E2E2E2E2E2E2E2E2E2E2E2E2E2E2E2E2E2E2E2E2E2E2E2E2E2E2E2E2E2E2E2E2E2E2E2E2E2E2E2
310
E2E2E2E2E2E2E2E2E2E2E2E2E2E2E2E2E2E2E2E2E2E2E2E2E2E2E2E2E2E2E2E2E2E2E2E2E2E2E2E2E2E2E2E2E2E2E2E2E2E2E2E2E2E2E2E2E2E2E2E2E2E2E2E2E2E2E2E2E2E2E2E2E2E2E2E2E2E2E2E2E2F5E2E2E2E2E2E2E2E2E2E2E2E2E2E2E2E2F5E2E2E2F5F5E2E2E2F5E2E2E2E2E2E2E2E2E2E2E2E2E2E2E2E2F5E2E2
310
E2E2E2E2E2E2E2E2E2E2E2E2E2E2E2E2E2E2E2E2E2E2E2E2E2E2E2E2E2E2E2E2E2E2E2E2E2E2E2E2E2E2E2E2E2E2E2E2E2E2E2E2E2E2E2E2E2E2E2E2E2E2E2E2E2E2E2E2E2E2E2E2E2E2E2E2E2E2E2E2E2E2E2E2E2E2E2E2E2E2E2E2E2E2E2E2E2E2E2E2E2E2E2E2E2E2E2E2E2E2E2E2E2E2E2E2E2E2E2E2E2E2E2E2E2E2E2
310
E2E2E2E2E2E2E2F5E2E2E2E2E2E2E2E2E2E2E2E2E2E2E2E2F5E2E2E2F5F5E2E2E2F5E2E2E2E2E2E2E2E2E2E2E2E2E2E2E2E2F5E2E2E2E2E2E2E2E2E2E2E2E2E2E2E2E2E2E2E2E2E2E2E2E2E2E2E2E2E2E2E2E2E2E2E2E2E2E2E2E2E2E2E2E2E2E2E2E2E2E2E2E2E2E2E2E2E2E2E2E2E2E2E2E2E2E2E2E2E2E2E2E2E2E2E2E2
310
E2E2E2E2E2E2E2E2E2E2E2E2E2E2E2E2E2E2E2E2E2E2E2E2E2E2E2E2E2E2E2E2E2E2E2E2E2E2E2E2E2E2E2E2E2E2E2E2E2E2E2E2E2E2E2E2E2E2E2E2F5E2E2E2E2E2E2E2E2E2E2E2E2E2E2E2E2F5E2E2E2F5F5E2E2E2F5E2E2E2E2E2E2E2E2E2E2E2E2E2E2E2E2F5E2E2E2E2E2E2E2E2E2E2E2E2E2E2E2E2E2E2E2E2E2E2E2
310
E2E2E2E2E2E2E2E2E2E2E2E2E2E2E2E2E2E2E2E2E2E2E2E2E2E2E2E2E2E2E2E2E2E2E2E2E2E2E2E2E2E2E2E2E2E2E2E2E2E2E2E2E2E2E2E2E2E2E2E2E2E2E2E2E2E2E2E2E2E2E2E2E2E2E2E2E2E2E2E2E2E2E2E2E2E2E2E2E2E2E2E2E2E2E2E2E2E2E2E2E2E2E2E2E2E2E2E2E2E2E2E2E2F5E2E2E2E2E2E2E2E2E2E2E2E2E2
310
E2E2E2F5E2E2E2F5F5E2E2E2F5E2E2E2E2E2E2E2E2E2E2E2E2E2E2E2E2F5E2E2E2E2E2E2E2E2E2E2E2E2E2E2E2E2E2E2E2E2E2E2E2E2E2E2E2E2E2E2E2E2E2E2E2E2E2E2E2E2E2E2E2E2E2E2E2E2E2E2E2E2E2E2E2E2E2E2E2E2E2E2E2E2E2E2E2E2E2E2E2E2E2E2E2E2E2E2E2E2E2E2E2E2E2E2E2E2E2E2E2E2E2E2E2E2E2
310
E2E2E2E2E2E2E2E2E2E2E2E2E2E2E2E2E2E2E2E2E2E2E2E2E2E2E2E2E2E2E2E2E2E2E2E2E2E2E2F5E2E2E2E2E2E2E2E2E2E2E2E2E2E2E2E2F5E2E2E2F5F5E2E2E2F5E2E2E2E2E2E2E2E2E2E2E2E2E2E2E2E2F5E2E2E2E2E2E2E2E2E2E2E2E2E2E2E2E2E2E2E2E2E2E2E2E2E2E2E2E2E2E2E2E2E2E2E2E2E2E2E2E2E2E2E2E2
310
E2E2E2E2E2E2E2E2E2E2E2E2E2E2E2E2E2E2E2E2E2E2E2E2E2E2E2E2E2E2E2E2E2E2E2E2E2E2E2E2E2E2E2E2E2E2E2E2E2E2E2E2E2E2E2E2E2E2E2E2E2E2E2E2E2E2E2E2E2E2E2E2E2E2E2E2E2E2E2E2E2E2E2E2E2E2E2E2E2E2E2E2F5E2E2E2E2E2E2E2E2E2E2E2E2E2E2E2E2F5E2E2E2F5F5E2E2E2F5E2E2E2E2E2E2E2E2
310
E2E2E2E2E2E2E2E2F5E2E2E2E2E2E2E2E2E2E2E2E2E2E2E2E2E2E2E2E2E2E2E2E2E2E2E2E2E2E2E2E2E2E2E2E2E2E2E2E2E2E2E2E2E2E2E2E2E2E2E2E2E2E2E2E2E2E2E2E2E2E2E2E2E2E2E2E2E2E2E2E2E2E2E2E2E2E2E2E2E2E2E2E2E2E2E2E2E2E2E2E2E2E2E2E2E2E2E2E2E2E2E2E2E2E2E2E2E2E2E2E2E2E2E2E2E2E2
310
E2E2E2E2E2E2E2E2E2E2E2E2E2E2E2E2E2E2F5E2E2E2E2E2E2E2E2E2E2E2E2E2E2E2E2F5E2E2E2F5F5E2E2E2F5E2E2E2E2E2E2E2E2E2E2E2E2E2E2E2E2F5E2E2E2E2E2E2E2E2E2E2E2E2E2E2E2E2E2E2E2E2E2E2E2E2E2E2E2E2E2E2E2E2E2E2E2E2E2E2E2E2E2E2E2E2E2E2E2E2E2E2E2E2E2E2E2E2E2E2E2E2E2E2E2E2E2
310
E2E2E2E2E2E2E2E2E2E2E2E2E2E2E2E2E2E2E2E2E2E2E2E2E2E2E2E2E2E2E2E2E2E2E2E2E2E2E2E2E2E2E2E2E2E2E2E2E2E2E2E2E2E2E2E2E2E2E2E2E2E2E2E2E2E2E2E2E2E2E2F5E2E2E2E2E2E2E2E2E2E2E2E2E2E2E2E2F5E2E2E2F5F5E2E2E2F5E2E2E2E2E2E2E2E2E2E2E2E2E2E2E2E2F5E2E2E2E2E2E2E2E2E2E2E2E2
310
E2E2E2E2E2E2E2E2E2E2E2E2E2E2E2E2E2E2E2E2E2E2E2E2E2E2E2E2E2E2E2E2E2E2E2E2E2E2E2E2E2E2E2E2E2E2E2E2E2E2E2E2E2E2E2E2E2E2E2E2E2E2E2E2E2E2E2E2E2E2E2E2E2E2E2E2E2E2E2E2E2E2E2E2E2E2E2E2E2E2E2E2E2E2E2E2E2E2E2E2E2E2E2E2E2E2E2E2E2E2E2E2E2E2E2E2E2E2E2E2E2E2E2E2F5E2E2
310
E2E2E2E2E2E2E2E2E2E2E2E2E2E2F5E2E2E2F5F5E2E2E2F5E2E2E2E2E2E2E2E2E2E2E2E2E2E2E2E2F5E2E2E2E2E2E2E2E2E2E2E2E2E2E2E2E2E2E2E2E2E2E2E2E2E2E2E2E2E2E2E2E2E2E2E2E2E2E2E2E2E2E2E2E2E2E2E2E2E2E2E2E2E2E2E2E2E2E2E2E2E2E2E2E2E2E2E2E2E2E2E2E2E2E2E2E2E2E2E2E2E2E2E2E2E2E2
310
E2E2E2E2E2E2E2E2E2E2E2E2E2E2E2E2E2E2E2E2E2E2E2E2E2E2E2E2E2E2E2E2E2E2E2E2E2E2E2E2E2E2E2E2E2E2E2E2E2E2F5E2E2E2E2E2E2E2E2E2E2E2E2E2E2E2E2F5E2E2E2F5F5E2E2E2F5E2E2E2E2E2E2E2E2E2E2E2E2E2E2E2E2F5E2E2E2E2E2E2E2E2E2E2E2E2E2E2E2E2E2E2E2E2E2E2E2E2E2E2E2E2E2E2E2E2E2
310
E2E2E2E2E2E2E2E2E2E2E2E2E2E2E2E2E2E2E2E2E2E2E2E2E2E2E2E2E2E2E2E2E2E2E2E2E2E2E2E2E2E2E2E2E2E2E2E2E2E2E2E2E2E2E2E2E2E2E2E2E2E2E2E2E2E2E2E2E2E2E2E2E2E2E2E2E2E2E2E2E2E2E2E2E2E2E2E2E2E2E2E2E2E2E2E2E2E2E2E2E2E2E2F5E2E2E2E2E2E2E2E2E2E2E2E2E2E2E2E2F5E2E2E2F5F5E2
310
E2E2F5E2E2E2E2E2E2E2E2E2E2E2E2E2E2E2E2F5E2E2E2E2E2E2E2E2E2E2E2E2E2E2E2E2E2E2E2E2E2E2E2E2E2E2E2E2E2E2E2E2E2E2E2E2E2E2E2E2E2E2E2E2E2E2E2E2E2E2E2E2E2E2E2E2E2E2E2E2E2E2E2E2E2E2E2E2E2E2E2E2E2E2E2E2E2E2E2E2E2E2E2E2E2E2E2E2E2E2E2E2E2E2E2E2E2E2E2E2E2E2E2E2E2E2E2
310
E2E2E2E2E2E2E2E2E2E2E2E2E2E2E2E2E2E2E2E2E2E2E2E2E2E2E2E2E2F5E2E2E2E2E2E2E2E2E2E2E2E2E2E2E2E2F5E2E2E2F5F5E2E2E2F5E2E2E2E2E2E2E2E2E2E2E2E2E2E2E2E2F5E2E2E2E2E2E2E2E2E2E2E2E2E2E2E2E2E2E2E2E2E2E2E2E2E2E2E2E2E2E2E2E2E2E2E2E2E2E2E2E2E2E2E2E2E2E2E2E2E2E2E2E2E2E2
310
E2E2E2E2E2E2E2E2E2E2E2E2E2E2E2E2E2E2E2E2E2E2E2E2E2E2E2E2E2E2E2E2E2E2E2E2E2E2E2E2E2E2E2E2E2E2E2E2E2E2E2E2E2E2E2E2E2E2E2E2E2E2E2E2E2E2E2E2E2E2E2E2E2E2E2E2E2E2E2E2E2E2F5E2E2E2E2E2E2E2E2E2E2E2E2E2E2E2E2F5E2E2E2F5F5E2E2E2F5E2E2E2E2E2E2E2E2E2E2E2E2E2E2E2E2F5E2
310
E2E2E2E2E2E2E2E2E2E2E2E2E2E2E2E2E2E2E2E2E2E2E2E2E2E2E2E2E2E2E2E2E2E2E2E2E2E2E2E2E2E2E2E2E2E2E2E2E2E2E2E2E2E2E2E2E2E2E2E2E2E2E2E2E2E2E2E2E2E2E2E2E2E2E2E2E2E2E2E2E2E2E2E2E2E2E2E2E2E2E2E2E2E2E2E2E2E2E2E2E2E2E2E2E2E2E2E2E2E2E2E2E2E2E2E2E2E2E2E2E2E2E2E2E2E2E2
310
E2E2E2E2E2E2E2E2F5E2E2E2E2E2E2E2E2E2E2E2E2E2E2E2E2F5E2E2E2F5F5E2E2E2F5E2E2E2E2E2E2E2E2E2E2E2E2E2E2E2E2F5E2E2E2E2E2E2E2E2E2E2E2E2E2E2E2E2E2E2E2E2E2E2E2E2E2E2E2E2E2E2E2E2E2E2E2E2E2E2E2E2E2E2E2E2E2E2E2E2E2E2E2E2E2E2E2E2E2E2E2E2E2E2E2E2E2E2E2E2E2E2E2E2E2E2E2
310
E2E2E2E2E2E2E2E2E2E2E2E2E2E2E2E2E2E2E2E2E2E2E2E2E2E2E2E2E2E2E2E2E2E2E2E2E2E2E2E2E2E2E2E2E2E2E2E2E2E2E2E2E2E2E2E2E2E2E2E2E2F5E2E2E2E2E2E2E2E2E2E2E2E2E2E2E2E2F5E2E2E2F5F5E2E2E2F5E2E2E2E2E2E2E2E2E2E2E2E2E2E2E2E2F5E2E2E2E2E2E2E2E2E2E2E2E2E2E2E2E2E2E2E2E2E2E2
310
E2E2E2E2E2E2E2E2E2E2E2E2E2E2E2E2E2E2E2E2E2E2E2E2E2E2E2E2E2E2E2E2E2E2E2E2E2E2E2E2E2E2E2E2E2E2E2E2E2E2E2E2E2E2E2E2E2E2E2E2E2E2E2E2E2E2E2E2E2E2E2E2E2E2E2E2E2E2E2E2E2E2E2E2E2E2E2E2E2E2E2E2E2E2E2E2E2E2E2E2E2E2E2E2E2E2E2E2E2E2E2E2E2E2F5E2E2E2E2E2E2E2E2E2E2E2E2
310
E2E2E2E2F5E2E2E2F5F5E2E2E2E2E2E2E2E2E2E2E2E2E2E2E2E2E2E2E2E2F5E2E2E2E2E2E2E2E2E2E2E2E2E2E2E2E2E2E2E2E2E2E2E2E2E2E2E2E2E2E2E2E2E2E2E2E2E2E2E2E2E2E2E2E2E2E2E2E2E2E2E2E2E2E2E2E2E2E2E2E2E2E2E2E2E2E2E2E2E2E2E2E2E2E2E2E2E2E2E2E2E2E2E2E2E2E2E2E2E2E2E2E2E2E2E2E2
310
E2E2E2E2E2E2E2E2E2E2E2E2E2E2E2E2E2E2E2E2E2E2E2E2E2E2E2E2E2E2E2E2E2E2E2E2E2E2E2E2F5E2E2E2E2E2E2E2E2E2E2E2E2E2E2E2E2E2E2E2E2F5F5E2E2E2E2E2E2E2E2E2E2E2E2E2E2E2E2E2E2E2E2F5E2E2E2E2E2E2E2E2E2E2E2E2E2E2E2E2E2E2E2E2E2E2E2E2E2E2E2E2E2E2E2E2E2E2E2E2E2E2E2E2E2E2E2
310
E2E2E2E2E2E2E2E2E2E2E2E2E2E2E2E2E2E2E2E2E2E2E2E2E2E2E2E2E2E2E2E2E2E2E2E2E2E2E2E2E2E2E2E2E2E2E2E2E2E2E2E2E2E2E2E2E2E2E2E2E2E2E2E2E2E2E2E2E2E2E2E2E2E2E2E2E2E2E2E2E2E2E2E2E2E2E2E2E2E2E2E2E2F5E2E2E2E2E2E2E2E2E2E2E2E2E2E2E2E2E2E2E2E2F5F5E2E2E2E2E2E2E2E2E2E2E2
310
E2E2E2E2E2E2E2E2E2F5E2E2E2E2E2E2E2E2E2E2E2E2E2E2E2E2E2E2E2E2E2E2E2E2E2E2E2E2E2E2E2E2E2E2E2E2E2E2E2E2E2E2E2E2E2E2E2E2E2E2E2E2E2E2E2E2E2E2E2E2E2E2E2E2E2E2E2E2E2E2E2E2E2E2E2E2E2E2E2E2E2E2E2E2E2E2E2E2E2E2E2E2E2E2E2E2E2E2E2E2E2E2E2E2E2E2E2E2E2E2E2E2E2E2E2E2E2
310
E2E2E2E2E2E2E2E2E2E2E2E2E2E2E2E2E2E2E2F5E2E2E2E2E2E2E2E2E2E2E2E2E2E2E2E2E2E2E2E2F5F5E2E2E2E2E2E2E2E2E2E2E2E2E2E2E2E2E2E2E2E2F5E2E2E2E2E2E2E2E2E2E2E2E2E2E2E2E2E2E2E2E2E2E2E2E2E2E2E2E2E2E2E2E2E2E2E2E2E2E2E2E2E2E2E2E2E2E2E2E2E2E2E2E2E2E2E2E2E2E2E2E2E2E2E2E2
310
E2E2E2E2E2E2E2E2E2E2E2E2E2E2E2E2E2E2E2E2E2E2E2E2E2E2E2E2E2E2E2E2E2E2E2E2E2E2E2E2E2E2E2E2E2E2E2E2E2E2E2E2E2E2E2E2E2E2E2E2E2E2E2E2E2E2E2E2E2E2E2E2F5E2E2E2E2E2E2E2E2E2E2E2E2E2E2E2E2E2E2E2E2F5F5E2E2E2E2E2E2E2E2E2E2E2E2E2E2E2E2E2E2E2E2F5E2E2E2E2E2E2E2E2E2E2E2
310
E2E2E2E2E2E2E2E2E2E2E2E2E2E2E2E2E2E2E2E2E2E2E2E2E2E2E2E2E2E2E2E2E2E2E2E2E2E2E2E2E2E2E2E2E2E2E2E2E2E2E2E2E2E2E2E2E2E2E2E2E2E2E2E2E2E2E2E2E2E2E2E2E2E2E2E2E2E2E2E2E2E2E2E2E2E2E2E2E2E2E2E2E2E2E2E2E2E2E2E2E2E2E2E2E2E2E2E2E2E2E2E2E2E2E2E2E2E2E2E2E2E2E2E2E2F5E2
310
E2E2E2E2E2E2E2E2E2E2E2E2E2E2E2E2E2E2E2F5F5E2E2E2E2E2E2E2E2E2E2E2E2E2E2E2E2E2E2E2E2F5E2E2E2E2E2E2E2E2E2E2E2E2E2E2E2E2E2E2E2E2E2E2E2E2E2E2E2E2E2E2E2E2E2E2E2E2E2E2E2E2E2E2E2E2E2E2E2E2E2E2E2E2E2E2E2E2E2E2E2E2E2E2E2E2E2E2E2E2E2E2E2E2E2E2E2E2E2E2E2E2E2E2E2E2E2
310
E2E2E2E2E2E2E2E2E2E2E2E2E2E2E2E2E2E2E2E2E2E2E2E2E2E2E2E2E2E2E2E2E2E2E2E2E2E2E2E2E2E2E2E2E2E2E2E2E2E2E2F5E2E2E2E2E2E2E2E2E2E2E2E2E2E2E2E2E2E2E2E2F5F5E2E2E2E2E2E2E2E2E2E2E2E2E2E2E2E2E2E2E2E2F5E2E2E2E2E2E2E2E2E2E2E2E2E2E2E2E2E2E2E2E2E2E2E2E2E2E2E2E2E2E2E2E2
310
E2E2E2E2E2E2E2E2E2E2E2E2E2E2E2E2E2E2E2E2E2E2E2E2E2E2E2E2E2E2E2E2E2E2E2E2E2E2E2E2E2E2E2E2E2E2E2E2E2E2E2E2E2E2E2E2E2E2E2E2E2E2E2E2E2E2E2E2E2E2E2E2E2E2E2E2E2E2E2E2E2E2E2E2E2E2E2E2E2E2E2E2E2E2E2E2E2E2E2E2E2E2E2E2F5E2E2E2E2E2E2E2E2E2E2E2E2E2E2E2E2E2E2E2E2F5F5
310
E2E2E2E2E2E2E2E2E2E2E2E2E2E2E2E2E2E2E2E2F5E2E2E2E2E2E2E2E2E2E2E2E2E2E2E2E2E2E2E2E2E2E2E2E2E2E2E2E2E2E2E2E2E2E2E2E2E2E2E2E2E2E2E2E2E2E2E2E2E2E2E2E2E2E2E2E2E2E2E2E2E2E2E2E2E2E2E2E2E2E2E2E2E2E2E2E2E2E2E2E2E2E2E2E2E2E2E2E2E2E2E2E2E2E2E2E2E2E2E2E2E2E2E2E2E2E2
310
E2E2E2E2E2E2E2E2E2E2E2E2E2E2E2E2E2E2E2E2E2E2E2E2E2E2E2E2E2E2F5E2E2E2E2E2E2E2E2E2E2E2E2E2E2E2E2E2E2E2E2F5F5E2E2E2E2E2E2E2E2E2E2E2E2E2E2E2E2E2E2E2E2F5E2E2E2E2E2E2E2E2E2E2E2E2E2E2E2E2E2E2E2E2E2E2E2E2E2E2E2E2E2E2E2E2E2E2E2E2E2E2E2E2E2E2E2E2E2E2E2E2E2E2E2E2E2
310
E2E2E2E2E2E2E2E2E2E2E2E2E2E2E2E2E2E2E2E2E2E2E2E2E2E2E2E2E2E2E2E2E2E2E2E2E2E2E2E2E2E2E2E2E2E2E2E2E2E2E2E2E2E2E2E2E2E2E2E2E2E2E2E2E2E2E2E2E2E2E2E2E2E2E2E2E2E2E2E2E2E2E2F5E2E2E2E2E2E2E2E2E2E2E2E2E2E2E2E2E2E2E2E2F5F5E2E2E2F5E2E2E2E2E2E2E2E2E2E2E2E2E2E2E2E2F5
310
E2E2E2E2E2E2E2E2E2E2E2E2E2E2E2E2E2E2E2E2E2E2E2E2E2E2E2E2E2E2E2E2E2E2E2E2E2E2E2E2E2E2E2E2E2E2E2E2E2E2E2E2E2E2E2E2E2E2E2E2E2E2E2E2E2E2E2E2E2E2E2E2E2E2E2E2E2E2E2E2E2E2E2E2E2E2E2E2E2E2E2E2E2E2E2E2E2E2E2E2E2E2E2E2E2E2E2E2E2E2E2E2E2E2E2E2E2E2E2E2E2E2E2E2E2E2E2
310
E2E2E2E2E2E2E2E2E2F5E2E2E2E2E2E2E2E2E2E2E2E2E2E2E2E2F5E2E2E2F5F5E2E2E2F5E2E2E2E2E2E2E2E2E2E2E2E2E2E2E2E2F5E2E2E2E2E2E2E2E2E2E2E2E2E2E2E2E2E2E2E2E2E2E2E2E2E2E2E2E2E2E2E2E2E2E2E2E2E2E2E2E2E2E2E2E2E2E2E2E2E2E2E2E2E2E2E2E2E2E2E2E2E2E2E2E2E2E2E2E2E2E2E2E2E2E2
310
E2E2E2E2E2E2E2E2E2E2E2E2E2E2E2E2E2E2E2E2E2E2E2E2E2E2E2E2E2E2E2E2E2E2E2E2E2E2E2E2E2E2E2E2E2E2E2E2E2E2E2E2E2E2E2E2E2E2E2E2E2E2F5E2E2E2E2E2E2E2E2E2E2E2E2E2E2E2E2F5E2E2E2F5F5E2E2E2F5E2E2E2E2E2E2E2E2E2E2E2E2E2E2E2E2F5E2E2E2E2E2E2E2E2E2E2E2E2E2E2E2E2E2E2E2E2E2
310
E2E2E2E2E2E2E2E2E2E2E2E2E2E2E2E2E2E2E2E2E2E2E2E2E2E2E2E2E2E2E2E2E2E2E2E2E2E2E2E2E2E2E2E2E2E2E2E2E2E2E2E2E2E2E2E2E2E2E2E2E2E2E2E2E2E2E2E2E2E2E2E2E2E2E2E2E2E2E2E2E2E2E2E2E2E2E2E2E2E2E2E2E2E2E2E2E2E2E2E2E2E2E2E2E2E2E2E2E2E2E2E2E2E2E2F5E2E2E2E2E2E2E2E2E2E2E2
310
E2E2E2E2E2F5E2E2E2F5F5E2E2E2F5E2E2E2E2E2E2E2E2E2E2E2E2E2E2E2E2F5E2E2E2E2E2E2E2E2E2E2E2E2E2E2E2E2E2E2E2E2E2E2E2E2E2E2E2E2E2E2E2E2E2E2E2E2E2E2E2E2E2E2E2E2E2E2E2E2E2E2E2E2E2E2E2E2E2E2E2E2E2E2E2E2E2E2E2E2E2E2E2E2E2E2E2E2E2E2E2E2E2E2E2E2E2E2E2E2E2E2E2E2E2E2E2
310
E2E2E2E2E2E2E2E2E2E2E2E2E2E2E2E2E2E2E2E2E2E2E2E2E2E2E2E2E2E2E2E2E2E2E2E2E2E2E2E2E2F5E2E2E2E2E2E2E2E2E2E2E2E2E2E2E2E2F5E2E2E2F5F5E2E2E2F5E2E2E2E2E2E2E2E2E2E2E2E2E2E2E2E2F5E2E2E2E2E2E2E2E2E2E2E2E2E2E2E2E2E2E2E2E2E2E2E2E2E2E2E2E2E2E2E2E2E2E2E2E2E2E2E2E2E2E2
310
E2E2E2E2E2E2E2E2E2E2E2E2E2E2E2E2E2E2E2E2E2E2E2E2E2E2E2E2E2E2E2E2E2E2E2E2E2E2E2E2E2E2E2E2E2E2E2E2E2E2E2E2E2E2E2E2E2E2E2E2E2E2E2E2E2E2E2E2E2E2E2E2E2E2E2E2E2E2E2E2E2E2E2E2E2E2E2E2E2E2E2E2E2E2F5E2E2E2E2E2E2E2E2E2E2E2E2E2E2E2E2F5E2E2E2F5F5E2E2E2F5E2E2E2E2E2E2
310
E2E2E2E2E2E2E2E2E2E2F5E2E2E2E2E2E2E2E2E2E2E2E2E2E2E2E2E2E2E2E2E2E2E2E2E2E2E2E2E2E2E2E2E2E2E2E2E2E2E2E2E2E2E2E2E2E2E2E2E2E2E2E2E2E2E2E2E2E2E2E2E2E2E2E2E2E2E2E2E2E2E2E2E2E2E2E2E2E2E2E2E2E2E2E2E2E2E2E2E2E2E2E2E2E2E2E2E2E2E2E2E2E2E2E2E2E2E2E2E2E2E2E2E2E2E2E2
310
E2E2E2E2E2E2E2E2E2E2E2E2E2E2E2E2E2E2E2E2F5E2E2E2E2E2E2E2E2E2E2E2E2E2E2E2E2F5E2E2E2F5F5E2E2E2F5E2E2E2E2E2E2E2E2E2E2E2E2E2E2E2E2F5E2E2E2E2E2E2E2E2E2E2E2E2E2E2E2E2E2E2E2E2E2E2E2E2E2E2E2E2E2E2E2E2E2E2E2E2E2E2E2E2E2E2E2E2E2E2E2E2E2E2E2E2E2E2E2E2E2E2E2E2E2E2E2
310
E2E2E2E2E2E2E2E2E2E2E2E2E2E2E2E2E2E2E2E2E2E2E2E2E2E2E2E2E2E2E2E2E2E2E2E2E2E2E2E2E2E2E2E2E2E2E2E2E2E2E2E2E2E2E2E2E2E2E2E2E2E2E2E2E2E2E2E2E2E2E2E2E2F5E2E2E2E2E2E2E2E2E2E2E2E2E2E2E2E2F5E2E2E2F5F5E2E2E2F5E2E2E2E2E2E2E2E2E2E2E2E2E2E2E2E2F5E2E2E2E2E2E2E2E2E2E2
310
E2E2E2E2E2E2E2E2E2E2E2E2E2E2E2E2E2E2E2E2E2E2E2E2E2E2E2E2E2E2E2E2E2E2E2E2E2E2E2E2E2E2E2E2E2E2E2E2E2E2E2E2E2E2E2E2E2E2E2E2E2E2E2E2E2E2E2E2E2E2E2E2E2E2E2E2E2E2E2E2E2E2E2E2E2E2E2E2E2E2E2E2E2E2E2E2E2E2E2E2E2E2E2E2E2E2E2E2E2E2E2E2E2E2E2E2E2E2E2E2E2E2E2E2E2E2F5
310
E2E2E2E2E2E2E2E2E2E2E2E2E2E2E2E2F5E2E2E2F5F5E2E2E2F5E2E2E2E2E2E2E2E2E2E2E2E2E2E2E2E2F5E2E2E2E2E2E2E2E2E2E2E2E2E2E2E2E2E2E2E2E2E2E2E2E2E2E2E2E2E2E2E2E2E2E2E2E2E2E2E2E2E2E2E2E2E2E2E2E2E2E2E2E2E2E2E2E2E2E2E2E2E2E2E2E2E2E2E2E2E2E2E2E2E2E2E2E2E2E2E2E2E2E2E2E2
310
E2E2E2E2E2E2E2E2E2E2E2E2E2E2E2E2E2E2E2E2E2E2E2E2E2E2E2E2E2E2E2E2E2E2E2E2E2E2E2E2E2E2E2E2E2E2E2E2E2E2E2E2F5E2E2E2E2E2E2E2E2E2E2E2E2E2E2E2E2F5E2E2E2F5F5E2E2E2F5E2E2E2E2E2E2E2E2E2E2E2E2E2E2E2E2F5E2E2E2E2E2E2E2E2E2E2E2E2E2E2E2E2E2E2E2E2E2E2E2E2E2E2E2E2E2E2E2
310
E2E2E2E2E2E2E2E2E2E2E2E2E2E2E2E2E2E2E2E2E2E2E2E2E2E2E2E2E2E2E2E2E2E2E2E2E2E2E2E2E2E2E2E2E2E2E2E2E2E2E2E2E2E2E2E2E2E2E2E2E2E2E2E2E2E2E2E2E2E2E2E2E2E2E2E2E2E2E2E2E2E2E2E2E2E2E2E2E2E2E2E2E2E2E2E2E2E2E2E2E2E2E2E2E2F5E2E2E2E2E2E2E2E2E2E2E2E2E2E2E2E2F5E2E2E2F5
310
F5E2E2E2F5E2E2E2E2E2E2E2E2E2E2E2E2E2E2E2E2F5E2E2E2E2E2E2E2E2E2E2E2E2E2E2E2E2E2E2E2E2E2E2E2E2E2E2E2E2E2E2E2E2E2E2E2E2E2E2E2E2E2E2E2E2E2E2E2E2E2E2E2E2E2E2E2E2E2E2E2E2E2E2E2E2E2E2E2E2E2E2E2E2E2E2E2E2E2E2E2E2E2E2E2E2E2E2E2E2E2E2E2E2E2E2E2E2E2E2E2E2E2E2E2E2E2
310
E2E2E2E2E2E2E2E2E2E2E2E2E2E2E2E2E2E2E2E2E2E2E2E2E2E2E2E2E2E2E2F5E2E2E2E2E2E2E2E2E2E2E2E2E2E2E2E2F5E2E2E2F5F5E2E2E2F5E2E2E2E2E2E2E2E2E2E2E2E2E2E2E2E2F5E2E2E2E2E2E2E2E2E2E2E2E2E2E2E2E2E2E2E2E2E2E2E2E2E2E2E2E2E2E2E2E2E2E2E2E2E2E2E2E2E2E2E2E2E2E2E2E2E2E2E2E2
310
E2E2E2E2E2E2E2E2E2E2E2E2E2E2E2E2E2E2E2E2E2E2E2E2E2E2E2E2E2E2E2E2E2E2E2E2E2E2E2E2E2E2E2E2E2E2E2E2E2E2E2E2E2E2E2E2E2E2E2E2E2E2E2E2E2E2E2E2E2E2E2E2E2E2E2E2E2E2E2E2E2E2E2E2F5E2E2E2E2E2E2E2E2E2E2E2E2E2E2E2E2F5E2E2E2F5F5E2E2E2F5E2E2E2E2E2E2E2E2E2E2E2E2E2E2E2E2
310
F5E2E2E2E2E2E2E2E2E2E2E2E2E2E2E2E2E2E2E2E2E2E2E2E2E2E2E2E2E2E2E2E2E2E2E2E2E2E2E2E2E2E2E2E2E2E2E2E2E2E2E2E2E2E2E2E2E2E2E2E2E2E2E2E2E2E2E2E2E2E2E2E2E2E2E2E2E2E2E2E2E2E2E2E2E2E2E2E2E2E2E2E2E2E2E2E2E2E2E2E2E2E2E2E2E2E2E2E2E2E2E2E2E2E2E2E2E2E2E2E2E2E2E2E2E2E2
310
E2E2E2E2E2E2E2E2E2E2F5E2E2E2E2E2E2E2E2E2E2E2E2E2E2E2E2F5E2E2E2F5F5E2E2E2F5E2E2E2E2E2E2E2E2E2E2E2E2E2E2E2E2F5E2E2E2E2E2E2E2E2E2E2E2E2E2E2E2E2E2E2E2E2E2E2E2E2E2E2E2E2E2E2E2E2E2E2E2E2E2E2E2E2E2E2E2E2E2E2E2E2E2E2E2E2E2E2E2E2E2E2E2E2E2E2E2E2E2E2E2E2E2E2E2E2E2
310
E2E2E2E2E2E2E2E2E2E2E2E2E2E2E2E2E2E2E2E2E2E2E2E2E2E2E2E2E2E2E2E2E2E2E2E2E2E2E2E2E2E2E2E2E2E2E2E2E2E2E2E2E2E2E2E2E2E2E2E2E2E2E2F5E2E2E2E2E2E2E2E2E2E2E2E2E2E2E2E2F5E2E2E2F5F5E2E2E2F5E2E2E2E2E2E2E2E2E2E2E2E2E2E2E2E2F5E2E2E2E2E2E2E2E2E2E2E2E2E2E2E2E2E2E2E2E2
310
E2E2E2E2E2E2E2E2E2E2E2E2E2E2E2E2E2E2E2E2E2E2E2E2E2E2E2E2E2E2E2E2E2E2E2E2E2E2E2E2E2E2E2E2E2E2E2E2E2E2E2E2E2E2E2E2E2E2E2E2E2E2E2E2E2E2E2E2E2E2E2E2E2E2E2E2E2E2E2E2E2E2E2E2E2E2E2E2E2E2E2E2E2E2E2E2E2E2E2E2E2E2E2E2E2E2E2E2E2E2E2E2E2E2E2E2F5E2E2E2E2E2E2E2E2E2E2
310
E2E2E2E2E2E2F5E2E2E2F5F5E2E2E2F5E2E2E2E2E2E2E2E2E2E2E2E2E2E2E2E2F5E2E2E2E2E2E2E2E2E2E2E2E2E2E2E2E2E2E2E2E2E2E2E2E2E2E2E2E2E2E2E2E2E2E2E2E2E2E2E2E2E2E2E2E2E2E2E2E2E2E2E2E2E2E2E2E2E2E2E2E2E2E2E2E2E2E2E2E2E2E2E2E2E2E2E2E2E2E2E2E2E2E2E2E2E2E2E2E2E2E2E2E2E2E2
310
E2E2E2E2E2E2E2E2E2E2E2E2E2E2E2E2E2E2E2E2E2E2E2E2E2E2E2E2E2E2E2E2E2E2E2E2E2E2E2E2E2E2F5E2E2E2E2E2E2E2E2E2E2E2E2E2E2E2E2F5E2E2E2F5F5E2E2E2E2E2E2E2E2E2E2E2E2E2E2E2E2E2E2E2E2F5E2E2E2E2E2E2E2E2E2E2E2E2E2E2E2E2E2E2E2E2E2E2E2E2E2E2E2E2E2E2E2E2E2E2E2E2E2E2E2E2E2
310
E2E2E2E2E2E2E2E2E2E2E2E2E2E2E2E2E2E2E2E2E2E2E2E2E2E2E2E2E2E2E2E2E2E2E2E2E2E2E2E2E2E2E2E2E2E2E2E2E2E2E2E2E2E2E2E2E2E2E2E2E2E2E2E2E2E2E2E2E2E2E2E2E2E2E2E2E2E2E2E2E2E2E2E2E2E2E2E2E2E2E2E2E2E2E2F5E2E2E2E2E2E2E2E2E2E2E2E2E2E2E2E2E2E2E2E2F5F5E2E2E2E2E2E2E2E2E2
310
E2E2E2E2E2E2E2E2E2E2E2F5E2E2E2E2E2E2E2E2E2E2E2E2E2E2E2E2E2E2E2E2E2E2E2E2E2E2E2E2E2E2E2E2E2E2E2E2E2E2E2E2E2E2E2E2E2E2E2E2E2E2E2E2E2E2E2E2E2E2E2E2E2E2E2E2E2E2E2E2E2E2E2E2E2E2E2E2E2E2E2E2E2E2E2E2E2E2E2E2E2E2E2E2E2E2E2E2E2E2E2E2E2E2E2E2E2E2E2E2E2E2E2E2E2E2E2
310
E2E2E2E2E2E2E2E2E2E2E2E2E2E2E2E2E2E2E2E2E2F5E2E2E2E2E2E2E2E2E2E2E2E2E2E2E2E2E2E2E2E2F5F5E2E2E2E2E2E2E2E2E2E2E2E2E2E2E2E2E2E2E2E2F5E2E2E2E2E2E2E2E2E2E2E2E2E2E2E2E2E2E2E2E2E2E2E2E2E2E2E2E2E2E2E2E2E2E2E2E2E2E2E2E2E2E2E2E2E2E2E2E2E2E2E2E2E2E2E2E2E2E2E2E2E2E2
310
E2E2E2E2E2E2E2E2E2E2E2E2E2E2E2E2E2E2E2E2E2E2E2E2E2E2E2E2E2E2E2E2E2E2E2E2E2E2E2E2E2E2E2E2E2E2E2E2E2E2E2E2E2E2E2E2E2E2E2E2E2E2E2E2E2E2E2E2E2E2E2E2E2E2F5E2E2E2E2E2E2E2E2E2E2E2E2E2E2E2E2E2E2E2E2F5F5E2E2E2E2E2E2E2E2E2E2E2E2E2E2E2E2E2E2E2E2F5E2E2E2E2E2E2E2E2E2
310
E2E2E2E2E2E2E2E2E2E2E2E2E2E2E2E2E2E2E2E2E2E2E2E2E2E2E2E2E2E2E2E2E2E2E2E2E2E2E2E2E2E2E2E2E2E2E2E2E2E2E2E2E2E2E2E2E2E2E2E2E2E2E2E2E2E2E2E2E2E2E2E2E2E2E2E2E2E2E2E2E2E2E2E2E2E2E2E2E2E2E2E2E2E2E2E2E2E2E2E2E2E2E2E2E2E2E2E2E2E2E2E2E2E2E2E2E2E2E2E2E2E2E2E2E2E2E2
310
F5E2E2E2E2E2E2E2E2E2E2E2E2E2E2E2E2E2E2E2E2F5F5E2E2E2E2E2E2E2E2E2E2E2E2E2E2E2E2E2E2E2E2F5E2E2E2E2E2E2E2E2E2E2E2E2E2E2E2E2E2E2E2E2E2E2E2E2E2E2E2E2E2E2E2E2E2E2E2E2E2E2E2E2E2E2E2E2E2E2E2E2E2E2E2E2E2E2E2E2E2E2E2E2E2E2E2E2E2E2E2E2E2E2E2E2E2E2E2E2E2E2E2E2E2E2E2
310
E2E2E2E2E2E2E2E2E2E2E2E2E2E2E2E2E2E2E2E2E2E2E2E2E2E2E2E2E2E2E2E2E2E2E2E2E2E2E2E2E2E2E2E2E2E2E2E2E2E2E2E2E2F5E2E2E2E2E2E2E2E2E2E2E2E2E2E2E2E2E2E2E2E2F5F5E2E2E2E2E2E2E2E2E2E2E2E2E2E2E2E2E2E2E2E2F5E2E2E2E2E2E2E2E2E2E2E2E2E2E2E2E2E2E2E2E2E2E2E2E2E2E2E2E2E2E2
310
E2E2E2E2E2E2E2E2E2E2E2E2E2E2E2E2E2E2E2E2E2E2E2E2E2E2E2E2E2E2E2E2E2E2E2E2E2E2E2E2E2E2E2E2E2E2E2E2E2E2E2E2E2E2E2E2E2E2E2E2E2E2E2E2E2E2E2E2E2E2E2E2E2E2E2E2E2E2E2E2E2E2E2E2E2E2E2E2E2E2E2E2E2E2E2E2E2E2E2E2E2E2E2E2E2E2F5E2E2E2E2E2E2E2E2E2E2E2E2E2E2E2E2E2E2E2E2
310
F5F5E2E2E2E2E2E2E2E2E2E2E2E2E2E2E2E2E2E2E2E2F5E2E2E2E2E2E2E2E2E2E2E2E2E2E2E2E2E2E2E2E2E2E2E2E2E2E2E2E2E2E2E2E2E2E2E2E2E2E2E2E2E2E2E2E2E2E2E2E2E2E2E2E2E2E2E2E2E2E2E2E2E2E2E2E2E2E2E2E2E2E2E2E2E2E2E2E2E2E2E2E2E2E2E2E2E2E2E2E2E2E2E2E2E2E2E2E2E2E2E2E2E2E2E2E2
310
E2E2E2E2E2E2E2E2E2E2E2E2E2E2E2E2E2E2E2E2E2E2E2E2E2E2E2E2E2E2E2E2F5E2E2E2E2E2E2E2E2E2E2E2E2E2E2E2E2E2E2E2E2F5F5E2E2E2E2E2E2E2E2E2E2E2E2E2E2E2E2E2E2E2E2F5E2E2E2E2E2E2E2E2E2E2E2E2E2E2E2E2E2E2E2E2E2E2E2E2E2E2E2E2E2E2E2E2E2E2E2E2E2E2E2E2E2E2E2E2E2E2E2E2E2E2E2
310
E2E2E2E2E2E2E2E2E2E2E2E2E2E2E2E2E2E2E2E2E2E2E2E2E2E2E2E2E2E2E2E2E2E2E2E2E2E2E2E2E2E2E2E2E2E2E2E2E2E2E2E2E2E2E2E2E2E2E2E2E2E2E2E2E2E2E2E2E2E2E2E2E2E2E2E2E2E2E2E2E2E2E2E2E2F5E2E2E2E2E2E2E2E2E2E2E2E2E2E2E2E2E2E2E2E2F5F5E2E2E2E2E2E2E2E2E2E2E2E2E2E2E2E2E2E2E2
310
E2F5E2E2E2E2E2E2E2E2E2E2E2E2E2E2E2E2E2E2E2E2E2E2E2E2E2E2E2E2E2E2E2E2E2E2E2E2E2E2E2E2E2E2E2E2E2E2E2E2E2E2E2E2E2E2E2E2E2E2E2E2E2E2E2E2E2E2E2E2E2E2E2E2E2E2E2E2E2E2E2E2E2E2E2E2E2E2E2E2E2E2E2E2E2E2E2E2E2E2E2E2E2E2E2E2E2E2E2E2E2E2E2E2E2E2E2E2E2E2E2E2E2E2E2E2E2
310
E2E2E2E2E2E2E2E2E2E2E2F5E2E2E2E2E2E2E2E2E2E2E2E2E2E2E2E2E2E2E2E2F5F5E2E2E2E2E2E2E2E2E2E2E2E2E2E2E2E2E2E2E2E2F5E2E2E2E2E2E2E2E2E2E2E2E2E2E2E2E2E2E2E2E2E2E2E2E2E2E2E2E2E2E2E2E2E2E2E2E2E2E2E2E2E2E2E2E2E2E2E2E2E2E2E2E2E2E2E2E2E2E2E2E2E2E2E2E2E2E2E2E2E2E2E2E2
310
E2E2E2E2E2E2E2E2E2E2E2E2E2E2E2E2E2E2E2E2E2E2E2E2E2E2E2E2E2E2E2E2E2E2E2E2E2E2E2E2E2E2E2E2E2E2E2E2E2E2E2E2E2E2E2E2E2E2E2E2E2E2E2E2F5E2E2E2E2E2E2E2E2E2E2E2E2E2E2E2E2E2E2E2E2F5F5E2E2E2F5E2E2E2E2E2E2E2E2E2E2E2E2E2E2E2E2F5E2E2E2E2E2E2E2E2E2E2E2E2E2E2E2E2E2E2E2
310
E2E2E2E2E2E2E2E2E2E2E2E2E2E2E2E2E2E2E2E2E2E2E2E2E2E2E2E2E2E2E2E2E2E2E2E2E2E2E2E2E2E2E2E2E2E2E2E2E2E2E2E2E2E2E2E2E2E2E2E2E2E2E2E2E2E2E2E2E2E2E2E2E2E2E2E2E2E2E2E2E2E2E2E2E2E2E2E2E2E2E2E2E2E2E2E2E2E2E2E2E2E2E2E2E2E2E2E2E2E2E2E2E2E2E2E2E2F5E2E2E2E2E2E2E2E2E2
310
E2E2E2E2E2E2E2F5E2E2E2F5F5E2E2E2F5E2E2E2E2E2E2E2E2E2E2E2E2E2E2E2E2F5E2E2E2E2E2E2E2E2E2E2E2E2E2E2E2E2E2E2E2E2E2E2E2E2E2E2E2E2E2E2E2E2E2E2E2E2E2E2E2E2E2E2E2E2E2E2E2E2E2E2E2E2E2E2E2E2E2E2E2E2E2E2E2E2E2E2E2E2E2E2E2E2E2E2E2E2E2E2E2E2E2E2E2E2E2E2E2E2E2E2E2E2E2
310
E2E2E2E2E2E2E2E2E2E2E2E2E2E2E2E2E2E2E2E2E2E2E2E2E2E2E2E2E2E2E2E2E2E2E2E2E2E2E2E2E2E2E2F5E2E2E2E2E2E2E2E2E2E2E2E2E2E2E2E2F5E2E2E2F5F5E2E2E2F5E2E2E2E2E2E2E2E2E2E2E2E2E2E2E2E2F5E2E2E2E2E2E2E2E2E2E2E2E2E2E2E2E2E2E2E2E2E2E2E2E2E2E2E2E2E2E2E2E2E2E2E2E2E2E2E2E2
310
E2E2E2E2E2E2E2E2E2E2E2E2E2E2E2E2E2E2E2E2E2E2E2E2E2E2E2E2E2E2E2E2E2E2E2E2E2E2E2E2E2E2E2E2E2E2E2E2E2E2E2E2E2E2E2E2E2E2E2E2E2E2E2E2E2E2E2E2E2E2E2E2E2E2E2E2E2E2E2E2E2E2E2E2E2E2E2E2E2E2E2E2E2E2E2E2F5E2E2E2E2E2E2E2E2E2E2E2E2E2E2E2E2F5E2E2E2F5F5E2E2E2F5E2E2E2E2
310
E2E2E2E2E2E2E2E2E2E2E2E2F5E2E2E2E2E2E2E2E2E2E2E2E2E2E2E2E2E2E2E2E2E2E2E2E2E2E2E2E2E2E2E2E2E2E2E2E2E2E2E2E2E2E2E2E2E2E2E2E2E2E2E2E2E2E2E2E2E2E2E2E2E2E2E2E2E2E2E2E2E2E2E2E2E2E2E2E2E2E2E2E2E2E2E2E2E2E2E2E2E2E2E2E2E2E2E2E2E2E2E2E2E2E2E2E2E2E2E2E2E2E2E2E2E2E2
310
E2E2E2E2E2E2E2E2E2E2E2E2E2E2E2E2E2E2E2E2E2E2F5E2E2E2E2E2E2E2E2E2E2E2E2E2E2E2E2F5E2E2E2F5F5E2E2E2F5E2E2E2E2E2E2E2E2E2E2E2E2E2E2E2E2F5E2E2E2E2E2E2E2E2E2E2E2E2E2E2E2E2E2E2E2E2E2E2E2E2E2E2E2E2E2E2E2E2E2E2E2E2E2E2E2E2E2E2E2E2E2E2E2E2E2E2E2E2E2E2E2E2E2E2E2E2E2
310
E2E2E2E2E2E2E2E2E2E2E2E2E2E2E2E2E2E2E2E2E2E2E2E2E2E2E2E2E2E2E2E2E2E2E2E2E2E2E2E2E2E2E2E2E2E2E2E2E2E2E2E2E2E2E2E2E2E2E2E2E2E2E2E2E2E2E2E2E2E2E2E2E2E2E2F5E2E2E2E2E2E2E2E2E2E2E2E2E2E2E2E2F5E2E2E2F5F5E2E2E2F5E2E2E2E2E2E2E2E2E2E2E2E2E2E2E2E2F5E2E2E2E2E2E2E2E2
310
E2E2E2E2E2E2E2E2E2E2E2E2E2E2E2E2E2E2E2E2E2E2E2E2E2E2E2E2E2E2E2E2E2E2E2E2E2E2E2E2E2E2E2E2E2E2E2E2E2E2E2E2E2E2E2E2E2E2E2E2E2E2E2E2E2E2E2E2E2E2E2E2E2E2E2E2E2E2E2E2E2E2E2E2E2E2E2E2E2E2E2E2E2E2E2E2E2E2E2E2E2E2E2E2E2E2E2E2E2E2E2E2E2E2E2E2E2E2E2E2E2E2E2E2E2E2E2
310
E2F5E2E2E2E2E2E2E2E2E2E2E2E2E2E2E2E2F5E2E2E2F5F5E2E2E2F5E2E2E2E2E2E2E2E2E2E2E2E2E2E2E2E2F5E2E2E2E2E2E2E2E2E2E2E2E2E2E2E2E2E2E2E2E2E2E2E2E2E2E2E2E2E2E2E2E2E2E2E2E2E2E2E2E2E2E2E2E2E2E2E2E2E2E2E2E2E2E2E2E2E2E2E2E2E2E2E2E2E2E2E2E2E2E2E2E2E2E2E2E2E2E2E2E2E2E2
310
E2E2E2E2E2E2E2E2E2E2E2E2E2E2E2E2E2E2E2E2E2E2E2E2E2E2E2E2E2E2E2E2E2E2E2E2E2E2E2E2E2E2E2E2E2E2E2E2E2E2E2E2E2E2F5E2E2E2E2E2E2E2E2E2E2E2E2E2E2E2E2F5E2E2E2F5F5E2E2E2F5E2E2E2E2E2E2E2E2E2E2E2E2E2E2E2E2F5E2E2E2E2E2E2E2E2E2E2E2E2E2E2E2E2E2E2E2E2E2E2E2E2E2E2E2E2E2
310
E2E2E2E2E2E2E2E2E2E2E2E2E2E2E2E2E2E2E2E2E2E2E2E2E2E2E2E2E2E2E2E2E2E2E2E2E2E2E2E2E2E2E2E2E2E2E2E2E2E2E2E2E2E2E2E2E2E2E2E2E2E2E2E2E2E2E2E2E2E2E2E2E2E2E2E2E2E2E2E2E2E2E2E2E2E2E2E2E2E2E2E2E2E2E2E2E2E2E2E2E2E2E2E2E2E2E2F5E2E2E2E2E2E2E2E2E2E2E2E2E2E2E2E2F5E2E2
310
E2F5F5E2E2E2F5E2E2E2E2E2E2E2E2E2E2E2E2E2E2E2E2F5E2E2E2E2E2E2E2E2E2E2E2E2E2E2E2E2E2E2E2E2E2E2E2E2E2E2E2E2E2E2E2E2E2E2E2E2E2E2E2E2E2E2E2E2E2E2E2E2E2E2E2E2E2E2E2E2E2E2E2E2E2E2E2E2E2E2E2E2E2E2E2E2E2E2E2E2E2E2E2E2E2E2E2E2E2E2E2E2E2E2E2E2E2E2E2E2E2E2E2E2E2E2E2
310
E2E2E2E2E2E2E2E2E2E2E2E2E2E2E2E2E2E2E2E2E2E2E2E2E2E2E2E2E2E2E2E2E2F5E2E2E2E2E2E2E2E2E2E2E2E2E2E2E2E2F5E2E2E2F5F5E2E2E2F5E2E2E2E2E2E2E2E2E2E2E2E2E2E2E2E2F5E2E2E2E2E2E2E2E2E2E2E2E2E2E2E2E2E2E2E2E2E2E2E2E2E2E2E2E2E2E2E2E2E2E2E2E2E2E2E2E2E2E2E2E2E2E2E2E2E2E2
310
E2E2E2E2E2E2E2E2E2E2E2E2E2E2E2E2E2E2E2E2E2E2E2E2E2E2E2E2E2E2E2E2E2E2E2E2E2E2E2E2E2E2E2E2E2E2E2E2E2E2E2E2E2E2E2E2E2E2E2E2E2E2E2E2E2E2E2E2E2E2E2E2E2E2E2E2E2E2E2E2E2E2E2E2E2E2F5E2E2E2E2E2E2E2E2E2E2E2E2E2E2E2E2F5E2E2E2F5F5E2E2E2F5E2E2E2E2E2E2E2E2E2E2E2E2E2E2
310
E2E2F5E2E2E2E2E2E2E2E2E2E2E2E2E2E2E2E2E2E2E2E2E2E2E2E2E2E2E2E2E2E2E2E2E2E2E2E2E2E2E2E2E2E2E2E2E2E2E2E2E2E2E2E2E2E2E2E2E2E2E2E2E2E2E2E2E2E2E2E2E2E2E2E2E2E2E2E2E2E2E2E2E2E2E2E2E2E2E2E2E2E2E2E2E2E2E2E2E2E2E2E2E2E2E2E2E2E2E2E2E2E2E2E2E2E2E2E2E2E2E2E2E2E2E2E2
310
E2E2E2E2E2E2E2E2E2E2E2E2F5E2E2E2E2E2E2E2E2E2E2E2E2E2E2E2E2F5E2E2E2F5F5E2E2E2F5E2E2E2E2E2E2E2E2E2E2E2E2E2E2E2E2F5E2E2E2E2E2E2E2E2E2E2E2E2E2E2E2E2E2E2E2E2E2E2E2E2E2E2E2E2E2E2E2E2E2E2E2E2E2E2E2E2E2E2E2E2E2E2E2E2E2E2E2E2E2E2E2E2E2E2E2E2E2E2E2E2E2E2E2E2E2E2E2
310
E2E2E2E2E2E2E2E2E2E2E2E2E2E2E2E2E2E2E2E2E2E2E2E2E2E2E2E2E2E2E2E2E2E2E2E2E2E2E2E2E2E2E2E2E2E2E2E2E2E2E2E2E2E2E2E2E2E2E2E2E2E2E2E2E2F5E2E2E2E2E2E2E2E2E2E2E2E2E2E2E2E2F5E2E2E2F5F5E2E2E2F5E2E2E2E2E2E2E2E2E2E2E2E2E2E2E2E2F5E2E2E2E2E2E2E2E2E2E2E2E2E2E2E2E2E2E2
310
E2E2E2E2E2E2E2E2E2E2E2E2E2E2E2E2E2E2E2E2E2E2E2E2E2E2E2E2E2E2E2E2E2E2E2E2E2E2E2E2E2E2E2E2E2E2E2E2E2E2E2E2E2E2E2E2E2E2E2E2E2E2E2E2E2E2E2E2E2E2E2E2E2E2E2E2E2E2E2E2E2E2E2E2E2E2E2E2E2E2E2E2E2E2E2E2E2E2E2E2E2E2E2E2E2E2E2E2E2E2E2E2E2E2E2E2E2E2F5E2E2E2E2E2E2E2E2
310
E2E2E2E2E2E2E2E2F5E2E2E2F5F5E2E2E2F5E2E2E2E2E2E2E2E2E2E2E2E2E2E2E2E2F5E2E2E2E2E2E2E2E2E2E2E2E2E2E2E2E2E2E2E2E2E2E2E2E2E2E2E2E2E2E2E2E2E2E2E2E2E2E2E2E2E2E2E2E2E2E2E2E2E2E2E2E2E2E2E2E2E2E2E2E2E2E2E2E2E2E2E2E2E2E2E2E2E2E2E2E2E2E2E2E2E2E2E2E2E2E2E2E2E2E2E2E2
310
E2E2E2E2E2E2E2E2E2E2E2E2E2E2E2E2E2E2E2E2E2E2E2E2E2E2E2E2E2E2E2E2E2E2E2E2E2E2E2E2E2E2E2E2F5E2E2E2E2E2E2E2E2E2E2E2E2E2E2E2E2F5E2E2E2F5F5E2E2E2F5E2E2E2E2E2E2E2E2E2E2E2E2E2E2E2E2F5E2E2E2E2E2E2E2E2E2E2E2E2E2E2E2E2E2E2E2E2E2E2E2E2E2E2E2E2E2E2E2E2E2E2E2E2E2E2E2
310
E2E2E2E2E2E2E2E2E2E2E2E2E2E2E2E2E2E2E2E2E2E2E2E2E2E2E2E2E2E2E2E2E2E2E2E2E2E2E2E2E2E2E2E2E2E2E2E2E2E2E2E2E2E2E2E2E2E2E2E2E2E2E2E2E2E2E2E2E2E2E2E2E2E2E2E2E2E2E2E2E2E2E2E2E2E2E2E2E2E2E2E2E2E2E2E2E2F5E2E2E2E2E2E2E2E2E2E2E2E2E2E2E2E2F5E2E2E2F5F5E2E2E2F5E2E2E2
310
E2E2E2E2E2E2E2E2E2E2E2E2E2F5E2E2E2E2E2E2E2E2E2E2E2E2E2E2E2E2E2E2E2E2E2E2E2E2E2E2E2E2E2E2E2E2E2E2E2E2E2E2E2E2E2E2E2E2E2E2E2E2E2E2E2E2E2E2E2E2E2E2E2E2E2E2E2E2E2E2E2E2E2E2E2E2E2E2E2E2E2E2E2E2E2E2E2E2E2E2E2E2E2E2E2E2E2E2E2E2E2E2E2E2E2E2E2E2E2E2E2E2E2E2E2E2E2
310
E2E2E2E2E2E2E2E2E2E2E2E2E2E2E2E2E2E2E2E2E2E2E2F5E2E2E2E2E2E2E2E2E2E2E2E2E2E2E2E2F5E2E2E2F5F5E2E2E2E2E2E2E2E2E2E2E2E2E2E2E2E2E2E2E2E2F5E2E2E2E2E2E2E2E2E2E2E2E2E2E2E2E2E2E2E2E2E2E2E2E2E2E2E2E2E2E2E2E2E2E2E2E2E2E2E2E2E2E2E2E2E2E2E2E2E2E2E2E2E2E2E2E2E2E2E2E2
310
E2E2E2E2E2E2E2E2E2E2E2E2E2E2E2E2E2E2E2E2E2E2E2E2E2E2E2E2E2E2E2E2E2E2E2E2E2E2E2E2E2E2E2E2E2E2E2E2E2E2E2E2E2E2E2E2E2E2E2E2E2E2E2E2E2E2E2E2E2E2E2E2E2E2E2E2F5E2E2E2E2E2E2E2E2E2E2E2E2E2E2E2E2E2E2E2E2F5F5E2E2E2E2E2E2E2E2E2E2E2E2E2E2E2E2E2E2E2E2F5E2E2E2E2E2E2E2
310
E2E2E2E2E2E2E2E2E2E2E2E2E2E2E2E2E2E2E2E2E2E2E2E2E2E2E2E2E2E2E2E2E2E2E2E2E2E2E2E2E2E2E2E2E2E2E2E2E2E2E2E2E2E2E2E2E2E2E2E2E2E2E2E2E2E2E2E2E2E2E2E2E2E2E2E2E2E2E2E2E2E2E2E2E2E2E2E2E2E2E2E2E2E2E2E2E2E2E2E2E2E2E2E2E2E2E2E2E2E2E2E2E2E2E2E2E2E2E2E2E2E2E2E2E2E2E2
310
E2E2F5E2E2E2E2E2E2E2E2E2E2E2E2E2E2E2E2E2E2E2E2F5F5E2E2E2E2E2E2E2E2E2E2E2E2E2E2E2E2E2E2E2E2F5E2E2E2E2E2E2E2E2E2E2E2E2E2E2E2E2E2E2E2E2E2E2E2E2E2E2E2E2E2E2E2E2E2E2E2E2E2E2E2E2E2E2E2E2E2E2E2E2E2E2E2E2E2E2E2E2E2E2E2E2E2E2E2E2E2E2E2E2E2E2E2E2E2E2E2E2E2E2E2E2E2
310
E2E2E2E2E2E2E2E2E2E2E2E2E2E2E2E2E2E2E2E2E2E2E2E2E2E2E2E2E2E2E2E2E2E2E2E2E2E2E2E2E2E2E2E2E2E2E2E2E2E2E2E2E2E2E2F5E2E2E2E2E2E2E2E2E2E2E2E2E2E2E2E2E2E2E2E2F5F5E2E2E2E2E2E2E2E2E2E2E2E2E2E2E2E2E2E2E2E2F5E2E2E2E2E2E2E2E2E2E2E2E2E2E2E2E2E2E2E2E2E2E2E2E2E2E2E2E2
310
E2E2E2E2E2E2E2E2E2E2E2E2E2E2E2E2E2E2E2E2E2E2E2E2E2E2E2E2E2E2E2E2E2E2E2E2E2E2E2E2E2E2E2E2E2E2E2E2E2E2E2E2E2E2E2E2E2E2E2E2E2E2E2E2E2E2E2E2E2E2E2E2E2E2E2E2E2E2E2E2E2E2E2E2E2E2E2E2E2E2E2E2E2E2E2E2E2E2E2E2E2E2E2E2E2E2E2E2F5E2E2E2E2E2E2E2E2E2E2E2E2E2E2E2E2E2E2
310
E2E2F5F5E2E2E2E2E2E2E2E2E2E2E2E2E2E2E2E2E2E2E2E2F5E2E2E2E2E2E2E2E2E2E2E2E2E2E2E2E2E2E2E2E2E2E2E2E2E2E2E2E2E2E2E2E2E2E2E2E2E2E2E2E2E2E2E2E2E2E2E2E2E2E2E2E2E2E2E2E2E2E2E2E2E2E2E2E2E2E2E2E2E2E2E2E2E2E2E2E2E2E2E2E2E2E2E2E2E2E2E2E2E2E2E2E2E2E2E2E2E2E2E2E2E2E2
310
E2E2E2E2E2E2E2E2E2E2E2E2E2E2E2E2E2E2E2E2E2E2E2E2E2E2E2E2E2E2E2E2E2E2F5E2E2E2E2E2E2E2E2E2E2E2E2E2E2E2E2E2E2E2E2F5F5E2E2E2E2E2E2E2E2E2E2E2E2E2E2E2E2E2E2E2E2F5E2E2E2E2E2E2E2E2E2E2E2E2E2E2E2E2E2E2E2E2E2E2E2E2E2E2E2E2E2E2E2E2E2E2E2E2E2E2E2E2E2E2E2E2E2E2E2E2E2
310
E2E2E2E2E2E2E2E2E2E2E2E2E2E2E2E2E2E2E2E2E2E2E2E2E2E2E2E2E2E2E2E2E2E2E2E2E2E2E2E2E2E2E2E2E2E2E2E2E2E2E2E2E2E2E2E2E2E2E2E2E2E2E2E2E2E2E2E2E2E2E2E2E2E2E2E2E2E2E2E2E2E2E2E2E2E2E2F5E2E2E2E2E2E2E2E2E2E2E2E2E2E2E2E2E2E2E2E2F5F5E2E2E2E2E2E2E2E2E2E2E2E2E2E2E2E2E2
310
E2E2E2F5E2E2E2E2E2E2E2E2E2E2E2E2E2E2E2E2E2E2E2E2E2E2E2E2E2E2E2E2E2E2E2E2E2E2E2E2E2E2E2E2E2E2E2E2E2E2E2E2E2E2E2E2E2E2E2E2E2E2E2E2E2E2E2E2E2E2E2E2E2E2E2E2E2E2E2E2E2E2E2E2E2E2E2E2E2E2E2E2E2E2E2E2E2E2E2E2E2E2E2E2E2E2E2E2E2E2E2E2E2E2E2E2E2E2E2E2E2E2E2E2E2E2E2
310
E2E2E2E2E2E2E2E2E2E2E2E2E2F5E2E2E2E2E2E2E2E2E2E2E2E2E2E2E2E2E2E2E2E2F5F5E2E2E2E2E2E2E2E2E2E2E2E2E2E2E2E2E2E2E2E2F5E2E2E2E2E2E2E2E2E2E2E2E2E2E2E2E2E2E2E2E2E2E2E2E2E2E2E2E2E2E2E2E2E2E2E2E2E2E2E2E2E2E2E2E2E2E2E2E2E2E2E2E2E2E2E2E2E2E2E2E2E2E2E2E2E2E2E2E2E2E2
310
E2E2E2E2E2E2E2E2E2E2E2E2E2E2E2E2E2E2E2E2E2E2E2E2E2E2E2E2E2E2E2E2E2E2E2E2E2E2E2E2E2E2E2E2E2E2E2E2E2E2E2E2E2E2E2E2E2E2E2E2E2E2E2E2E2E2F5E2E2E2E2E2E2E2E2E2E2E2E2E2E2E2E2E2E2E2E2F5F5E2E2E2E2E2E2E2E2E2E2E2E2E2E2E2E2E2E2E2E2F5E2E2E2E2E2E2E2E2E2E2E2E2E2E2E2E2E2
310
E2E2E2E2E2E2E2E2E2E2E2E2E2E2E2E2E2E2E2E2E2E2E2E2E2E2E2E2E2E2E2E2E2E2E2E2E2E2E2E2E2E2E2E2E2E2E2E2E2E2E2E2E2E2E2E2E2E2E2E2E2E2E2E2E2E2E2E2E2E2E2E2E2E2E2E2E2E2E2E2E2E2E2E2E2E2E2E2E2E2E2E2E2E2E2E2E2E2E2E2E2E2E2E2E2E2E2E2E2E2E2E2E2E2E2E2E2E2E2F5E2E2E2E2E2E2E2
310
E2E2E2E2E2E2E2E2E2E2E2E2E2F5F5E2E2E2F5E2E2E2E2E2E2E2E2E2E2E2E2E2E2E2E2F5E2E2E2E2E2E2E2E2E2E2E2E2E2E2E2E2E2E2E2E2E2E2E2E2E2E2E2E2E2E2E2E2E2E2E2E2E2E2E2E2E2E2E2E2E2E2E2E2E2E2E2E2E2E2E2E2E2E2E2E2E2E2E2E2E2E2E2E2E2E2E2E2E2E2E2E2E2E2E2E2E2E2E2E2E2E2E2E2E2E2E2
310
E2E2E2E2E2E2E2E2E2E2E2E2E2E2E2E2E2E2E2E2E2E2E2E2E2E2E2E2E2E2E2E2E2E2E2E2E2E2E2E2E2E2E2E2E2F5E2E2E2E2E2E2E2E2E2E2E2E2E2E2E2E2F5E2E2E2F5F5E2E2E2F5E2E2E2E2E2E2E2E2E2E2E2E2E2E2E2E2F5E2E2E2E2E2E2E2E2E2E2E2E2E2E2E2E2E2E2E2E2E2E2E2E2E2E2E2E2E2E2E2E2E2E2E2E2E2E2
310
E2E2E2E2E2E2E2E2E2E2E2E2E2E2E2E2E2E2E2E2E2E2E2E2E2E2E2E2E2E2E2E2E2E2E2E2E2E2E2E2E2E2E2E2E2E2E2E2E2E2E2E2E2E2E2E2E2E2E2E2E2E2E2E2E2E2E2E2E2E2E2E2E2E2E2E2E2E2E2E2E2E2E2E2E2E2E2E2E2E2E2E2E2E2E2E2E2E2F5E2E2E2E2E2E2E2E2E2E2E2E2E2E2E2E2F5E2E2E2F5F5E2E2E2F5E2E2
310
E2E2E2E2E2E2E2E2E2E2E2E2E2E2F5E2E2E2E2E2E2E2E2E2E2E2E2E2E2E2E2E2E2E2E2E2E2E2E2E2E2E2E2E2E2E2E2E2E2E2E2E2E2E2E2E2E2E2E2E2E2E2E2E2E2E2E2E2E2E2E2E2E2E2E2E2E2E2E2E2E2E2E2E2E2E2E2E2E2E2E2E2E2E2E2E2E2E2E2E2E2E2E2E2E2E2E2E2E2E2E2E2E2E2E2E2E2E2E2E2E2E2E2E2E2E2E2
310
E2E2E2E2E2E2E2E2E2E2E2E2E2E2E2E2E2E2E2E2E2E2E2E2F5E2E2E2E2E2E2E2E2E2E2E2E2E2E2E2E2F5E2E2E2F5F5E2E2E2F5E2E2E2E2E2E2E2E2E2E2E2E2E2E2E2E2F5E2E2E2E2E2E2E2E2E2E2E2E2E2E2E2E2E2E2E2E2E2E2E2E2E2E2E2E2E2E2E2E2E2E2E2E2E2E2E2E2E2E2E2E2E2E2E2E2E2E2E2E2E2E2E2E2E2E2E2
310
E2E2E2E2E2E2E2E2E2E2E2E2E2E2E2E2E2E2E2E2E2E2E2E2E2E2E2E2E2E2E2E2E2E2E2E2E2E2E2E2E2E2E2E2E2E2E2E2E2E2E2E2E2E2E2E2E2E2E2E2E2E2E2E2E2E2E2E2E2E2E2E2E2E2E2E2E2F5E2E2E2E2E2E2E2E2E2E2E2E2E2E2E2E2F5E2E2E2F5F5E2E2E2F5E2E2E2E2E2E2E2E2E2E2E2E2E2E2E2E2F5E2E2E2E2E2E2
310
E2E2E2E2E2E2E2E2E2E2E2E2E2E2E2E2E2E2E2E2E2E2E2E2E2E2E2E2E2E2E2E2E2E2E2E2E2E2E2E2E2E2E2E2E2E2E2E2E2E2E2E2E2E2E2E2E2E2E2E2E2E2E2E2E2E2E2E2E2E2E2E2E2E2E2E2E2E2E2E2E2E2E2E2E2E2E2E2E2E2E2E2E2E2E2E2E2E2E2E2E2E2E2E2E2E2E2E2E2E2E2E2E2E2E2E2E2E2E2E2E2E2E2E2E2E2E2
310
E2E2E2F5E2E2E2E2E2E2E2E2E2E2E2E2E2E2E2E2F5E2E2E2F5F5E2E2E2F5E2E2E2E2E2E2E2E2E2E2E2E2E2E2E2E2F5E2E2E2E2E2E2E2E2E2E2E2E2E2E2E2E2E2E2E2E2E2E2E2E2E2E2E2E2E2E2E2E2E2E2E2E2E2E2E2E2E2E2E2E2E2E2E2E2E2E2E2E2E2E2E2E2E2E2E2E2E2E2E2E2E2E2E2E2E2E2E2E2E2E2E2E2E2E2E2E2
310
E2E2E2E2E2E2E2E2E2E2E2E2E2E2E2E2E2E2E2E2E2E2E2E2E2E2E2E2E2E2E2E2E2E2E2E2E2E2E2E2E2E2E2E2E2E2E2E2E2E2E2E2E2E2E2E2F5E2E2E2E2E2E2E2E2E2E2E2E2E2E2E2E2F5E2E2E2F5F5E2E2E2F5E2E2E2E2E2E2E2E2E2E2E2E2E2E2E2E2F5E2E2E2E2E2E2E2E2E2E2E2E2E2E2E2E2E2E2E2E2E2E2E2E2E2E2E2
310
E2E2E2E2E2E2E2E2E2E2E2E2E2E2E2E2E2E2E2E2E2E2E2E2E2E2E2E2E2E2E2E2E2E2E2E2E2E2E2E2E2E2E2E2E2E2E2E2E2E2E2E2E2E2E2E2E2E2E2E2E2E2E2E2E2E2E2E2E2E2E2E2E2E2E2E2E2E2E2E2E2E2E2E2E2E2E2E2E2E2E2E2E2E2E2E2E2E2E2E2E2E2E2E2E2E2E2E2E2F5E2E2E2E2E2E2E2E2E2E2E2E2E2E2E2E2F5
310
E2E2E2F5F5E2E2E2F5E2E2E2E2E2E2E2E2E2E2E2E2E2E2E2E2F5E2E2E2E2E2E2E2E2E2E2E2E2E2E2E2E2E2E2E2E2E2E2E2E2E2E2E2E2E2E2E2E2E2E2E2E2E2E2E2E2E2E2E2E2E2E2E2E2E2E2E2E2E2E2E2E2E2E2E2E2E2E2E2E2E2E2E2E2E2E2E2E2E2E2E2E2E2E2E2E2E2E2E2E2E2E2E2E2E2E2E2E2E2E2E2E2E2E2E2E2E2
310
E2E2E2E2E2E2E2E2E2E2E2E2E2E2E2E2E2E2E2E2E2E2E2E2E2E2E2E2E2E2E2E2E2E2E2F5E2E2E2E2E2E2E2E2E2E2E2E2E2E2E2E2F5E2E2E2F5F5E2E2E2F5E2E2E2E2E2E2E2E2E2E2E2E2E2E2E2E2F5E2E2E2E2E2E2E2E2E2E2E2E2E2E2E2E2E2E2E2E2E2E2E2E2E2E2E2E2E2E2E2E2E2E2E2E2E2E2E2E2E2E2E2E2E2E2E2E2
310
E2E2E2E2E2E2E2E2E2E2E2E2E2E2E2E2E2E2E2E2E2E2E2E2E2E2E2E2E2E2E2E2E2E2E2E2E2E2E2E2E2E2E2E2E2E2E2E2E2E2E2E2E2E2E2E2E2E2E2E2E2E2E2E2E2E2E2E2E2E2E2E2E2E2E2E2E2E2E2E2E2E2E2E2E2E2E2E2F5E2E2E2E2E2E2E2E2E2E2E2E2E2E2E2E2F5E2E2E2F5F5E2E2E2F5E2E2E2E2E2E2E2E2E2E2E2E2
310
E2E2E2E2F5E2E2E2E2E2E2E2E2E2E2E2E2E2E2E2E2E2E2E2E2E2E2E2E2E2E2E2E2E2E2E2E2E2E2E2E2E2E2E2E2E2E2E2E2E2E2E2E2E2E2E2E2E2E2E2E2E2E2E2E2E2E2E2E2E2E2E2E2E2E2E2E2E2E2E2E2E2E2E2E2E2E2E2E2E2E2E2E2E2E2E2E2E2E2E2E2E2E2E2E2E2E2E2E2E2E2E2E2E2E2E2E2E2E2E2E2E2E2E2E2E2E2
310
E2E2E2E2E2E2E2E2E2E2E2E2E2E2F5E2E2E2E2E2E2E2E2E2E2E2E2E2E2E2E2F5E2E2E2F5F5E2E2E2F5E2E2E2E2E2E2E2E2E2E2E2E2E2E2E2E2F5E2E2E2E2E2E2E2E2E2E2E2E2E2E2E2E2E2E2E2E2E2E2E2E2E2E2E2E2E2E2E2E2E2E2E2E2E2E2E2E2E2E2E2E2E2E2E2E2E2E2E2E2E2E2E2E2E2E2E2E2E2E2E2E2E2E2E2E2E2
310
E2E2E2E2E2E2E2E2E2E2E2E2E2E2E2E2E2E2E2E2E2E2E2E2E2E2E2E2E2E2E2E2E2E2E2E2E2E2E2E2E2E2E2E2E2E2E2E2E2E2E2E2E2E2E2E2E2E2E2E2E2E2E2E2E2E2E2F5E2E2E2E2E2E2E2E2E2E2E2E2E2E2E2E2F5E2E2E2F5F5E2E2E2F5E2E2E2E2E2E2E2E2E2E2E2E2E2E2E2E2F5E2E2E2E2E2E2E2E2E2E2E2E2E2E2E2E2
310
E2E2E2E2E2E2E2E2E2E2E2E2E2E2E2E2E2E2E2E2E2E2E2E2E2E2E2E2E2E2E2E2E2E2E2E2E2E2E2E2E2E2E2E2E2E2E2E2E2E2E2E2E2E2E2E2E2E2E2E2E2E2E2E2E2E2E2E2E2E2E2E2E2E2E2E2E2E2E2E2E2E2E2E2E2E2E2E2E2E2E2E2E2E2E2E2E2E2E2E2E2E2E2E2E2E2E2E2E2E2E2E2E2E2E2E2E2E2E2E2F5E2E2E2E2E2E2
310
E2E2E2E2E2E2E2E2E2E2F5E2E2E2F5F5E2E2E2F5E2E2E2E2E2E2E2E2E2E2E2E2E2E2E2E2F5E2E2E2E2E2E2E2E2E2E2E2E2E2E2E2E2E2E2E2E2E2E2E2E2E2E2E2E2E2E2E2E2E2E2E2E2E2E2E2E2E2E2E2E2E2E2E2E2E2E2E2E2E2E2E2E2E2E2E2E2E2E2E2E2E2E2E2E2E2E2E2E2E2E2E2E2E2E2E2E2E2E2E2E2E2E2E2E2E2E2
310
E2E2E2E2E2E2E2E2E2E2E2E2E2E2E2E2E2E2E2E2E2E2E2E2E2E2E2E2E2E2E2E2E2E2E2E2E2E2E2E2E2E2E2E2E2E2F5E2E2E2E2E2E2E2E2E2E2E2E2E2E2E2E2F5E2E2E2F5F5E2E2E2F5E2E2E2E2E2E2E2E2E2E2E2E2E2E2E2E2F5E2E2E2E2E2E2E2E2E2E2E2E2E2E2E2E2E2E2E2E2E2E2E2E2E2E2E2E2E2E2E2E2E2E2E2E2E2
310
E2E2E2E2E2E2E2E2E2E2E2E2E2E2E2E2E2E2E2E2E2E2E2E2E2E2E2E2E2E2E2E2E2E2E2E2E2E2E2E2E2E2E2E2E2E2E2E2E2E2E2E2E2E2E2E2E2E2E2E2E2E2E2E2E2E2E2E2E2E2E2E2E2E2E2E2E2E2E2E2E2E2E2E2E2E2E2E2E2E2E2E2E2E2E2E2E2E2E2F5E2E2E2E2E2E2E2E2E2E2E2E2E2E2E2E2F5E2E2E2F5F5E2E2E2F5E2
310
E2E2E2E2E2E2E2E2E2E2E2E2E2E2E2F5E2E2E2E2E2E2E2E2E2E2E2E2E2E2E2E2E2E2E2E2E2E2E2E2E2E2E2E2E2E2E2E2E2E2E2E2E2E2E2E2E2E2E2E2E2E2E2E2E2E2E2E2E2E2E2E2E2E2E2E2E2E2E2E2E2E2E2E2E2E2E2E2E2E2E2E2E2E2E2E2E2E2E2E2E2E2E2E2E2E2E2E2E2E2E2E2E2E2E2E2E2E2E2E2E2E2E2E2E2E2E2
310
E2E2E2E2E2E2E2E2E2E2E2E2E2E2E2E2E2E2E2E2E2E2E2E2E2F5E2E2E2E2E2E2E2E2E2E2E2E2E2E2E2E2F5E2E2E2F5F5E2E2E2F5E2E2E2E2E2E2E2E2E2E2E2E2E2E2E2E2F5E2E2E2E2E2E2E2E2E2E2E2E2E2E2E2E2E2E2E2E2E2E2E2E2E2E2E2E2E2E2E2E2E2E2E2E2E2E2E2E2E2E2E2E2E2E2E2E2E2E2E2E2E2E2E2E2E2E2
310
E2E2E2E2E2E2E2E2E2E2E2E2E2E2E2E2E2E2E2E2E2E2E2E2E2E2E2E2E2E2E2E2E2E2E2E2E2E2E2E2E2E2E2E2E2E2E2E2E2E2E2E2E2E2E2E2E2E2E2E2E2E2E2E2E2E2E2E2E2E2E2E2E2E2E2E2E2E2F5E2E2E2E2E2E2E2E2E2E2E2E2E2E2E2E2F5E2E2E2F5F5E2E2E2F5E2E2E2E2E2E2E2E2E2E2E2E2E2E2E2E2F5E2E2E2E2E2
310
E2E2E2E2E2E2E2E2E2E2E2E2E2E2E2E2E2E2E2E2E2E2E2E2E2E2E2E2E2E2E2E2E2E2E2E2E2E2E2E2E2E2E2E2E2E2E2E2E2E2E2E2E2E2E2E2E2E2E2E2E2E2E2E2E2E2E2E2E2E2E2E2E2E2E2E2E2E2E2E2E2E2E2E2E2E2E2E2E2E2E2E2E2E2E2E2E2E2E2E2E2E2E2E2E2E2E2E2E2E2E2E2E2E2E2E2E2E2E2E2E2E2E2E2E2E2E2
310
E2E2E2E2F5E2E2E2E2E2E2E2E2E2E2E2E2E2E2E2E2F5E2E2E2F5F5E2E2E2E2E2E2E2E2E2E2E2E2E2E2E2E2E2E2E2E2F5E2E2E2E2E2E2E2E2E2E2E2E2E2E2E2E2E2E2E2E2E2E2E2E2E2E2E2E2E2E2E2E2E2E2E2E2E2E2E2E2E2E2E2E2E2E2E2E2E2E2E2E2E2E2E2E2E2E2E2E2E2E2E2E2E2E2E2E2E2E2E2E2E2E2E2E2E2E2E2
310
E2E2E2E2E2E2E2E2E2E2E2E2E2E2E2E2E2E2E2E2E2E2E2E2E2E2E2E2E2E2E2E2E2E2E2E2E2E2E2E2E2E2E2E2E2E2E2E2E2E2E2E2E2E2E2E2E2F5E2E2E2E2E2E2E2E2E2E2E2E2E2E2E2E2E2E2E2E2F5F5E2E2E2E2E2E2E2E2E2E2E2E2E2E2E2E2E2E2E2E2F5E2E2E2E2E2E2E2E2E2E2E2E2E2E2E2E2E2E2E2E2E2E2E2E2E2E2
310
E2E2E2E2E2E2E2E2E2E2E2E2E2E2E2E2E2E2E2E2E2E2E2E2E2E2E2E2E2E2E2E2E2E2E2E2E2E2E2E2E2E2E2E2E2E2E2E2E2E2E2E2E2E2E2E2E2E2E2E2E2E2E2E2E2E2E2E2E2E2E2E2E2E2E2E2E2E2E2E2E2E2E2E2E2E2E2E2E2E2E2E2E2E2E2E2E2E2E2E2E2E2E2E2E2E2E2E2E2E2F5E2E2E2E2E2E2E2E2E2E2E2E2E2E2E2E2
310
E2E2E2E2F5F5E2E2E2E2E2E2E2E2E2E2E2E2E2E2E2E2E2E2E2E2F5E2E2E2E2E2E2E2E2E2E2E2E2E2E2E2E2E2E2E2E2E2E2E2E2E2E2E2E2E2E2E2E2E2E2E2E2E2E2E2E2E2E2E2E2E2E2E2E2E2E2E2E2E2E2E2E2E2E2E2E2E2E2E2E2E2E2E2E2E2E2E2E2E2E2E2E2E2E2E2E2E2E2E2E2E2E2E2E2E2E2E2E2E2E2E2E2E2E2E2E2
310
E2E2E2E2E2E2E2E2E2E2E2E2E2E2E2E2E2E2E2E2E2E2E2E2E2E2E2E2E2E2E2E2E2E2E2E2F5E2E2E2E2E2E2E2E2E2E2E2E2E2E2E2E2E2E2E2E2F5F5E2E2E2E2E2E2E2E2E2E2E2E2E2E2E2E2E2E2E2E2F5E2E2E2E2E2E2E2E2E2E2E2E2E2E2E2E2E2E2E2E2E2E2E2E2E2E2E2E2E2E2E2E2E2E2E2E2E2E2E2E2E2E2E2E2E2E2E2
310
E2E2E2E2E2E2E2E2E2E2E2E2E2E2E2E2E2E2E2E2E2E2E2E2E2E2E2E2E2E2E2E2E2E2E2E2E2E2E2E2E2E2E2E2E2E2E2E2E2E2E2E2E2E2E2E2E2E2E2E2E2E2E2E2E2E2E2E2E2E2E2E2E2E2E2E2E2E2E2E2E2E2E2E2E2E2E2E2E2F5E2E2E2E2E2E2E2E2E2E2E2E2E2E2E2E2E2E2E2E2F5F5E2E2E2E2E2E2E2E2E2E2E2E2E2E2E2
310
E2E2E2E2E2F5F5F5F5F5F5F5F5F5F5F5F5F5F5F5F5F5F5F5F5F5F5F5F5F5F5F5F5F5F5F5F5F5F5F5F5F5F5F5F5F5F5F5F5F5F5F5F5F5F5F5F5F5F5F5F5F5F5F5F5F5F5F5F5F5F5F5F5F5F5F5F5F5F5F5F5F5F5F5F5F5F5F5F5F5F5F5F5F5F5F5F5F5F5F5F5F5F5F5F5F5F5F5F5F5F5F5F5F5F5F5F5F5F5F5F5F5F5F5F5F5F5
310
F5F5F5F5F5F5F5F5F5F5F5F5F5F5F5F5E2E2E2E2E2E2E2E2E2E2E2E2E2E2E2E2E2E2E2E2F5F5E2E2E2E2E2E2E2E2E2E2E2E2E2E2E2E2E2E2E2E2E2E2E2E2E2E2E2E2E2E2E2E2E2E2E2E2E2E2E2E2E2E2E2E2E2E2E2E2E2E2E2E2E2E2E2E2E2E2E2E2E2E2E2E2E2E2E2E2E2E2E2E2E2E2E2E2E2E2E2E2E2E2E2E2E2E2E2E2E2
310
E2E2E2E2E2E2E2E2E2E2E2E2E2E2E2E2E2E2E2E2E2E2E2E2E2E2E2E2E2E2E2E2E2E2E2E2E2E2E2E2E2E2E2E2E2E2E2E2E2E2E2E2E2E2E2E2E2E2E2E2E2E2E2E2E2E2E2E2E2E2E2E2E2E2E2E2E2E2E2E2E2E2E2E2E2E2E2E2E2F5F5E2E2E2E2E2E2E2E2E2E2E2E2E2E2E2E2E2E2E2E2E2E2E2E2E2E2E2E2E2E2E2E2E2E2E2E2
310
E2E2E2E2E2E2E2E2E2E2E2E2E2E2E2E2E2E2E2E2E2E2E2E2E2E2E2E2E2E2E2E2E2E2E2E2E2E2E2E2E2E2E2E2E2E2E2E2E2E2E2E2E2E2E2E2E2E2E2E2E2E2E2E2E2E2E2E2E2E2E2E2E2E2E2E2E2E2E2E2E2E2E2E2E2E2E2E2E2E2E2E2E2E2E2E2E2E2E2E2E2E2E2E2E2E2E2E2E2E2E2E2E2E2E2E2E2E2E2E2E2E2E2E2E2E2E2
310
E2E2E2E2E2E2E2E2E2E2E2E2E2E2E2F5F5E2E2E2E2E2E2E2E2E2E2E2E2E2E2E2E2E2E2E2E2E2E2E2E2E2E2E2E2E2E2E2E2E2E2E2E2E2E2E2E2E2E2E2E2E2E2E2E2E2E2E2E2E2E2E2E2E2E2E2E2E2E2E2E2E2E2E2E2E2E2E2E2E2E2E2E2E2E2E2E2E2E2E2E2E2E2E2E2E2E2E2E2E2E2E2E2E2E2E2E2E2E2E2E2E2E2E2E2E2E2
310
E2E2E2E2E2E2E2E2E2E2E2E2E2E2E2E2E2E2E2E2E2E2E2E2E2E2E2E2E2E2E2E2E2E2E2E2E2E2E2E2E2E2E2E2E2E2E2E2E2E2E2E2E2E2E2E2E2E2E2E2E2E2E2E2E2E2E2E2F5F5E2E2E2E2E2E2E2E2E2E2E2E2E2E2E2E2E2E2E2E2E2E2E2E2E2E2E2E2E2E2E2E2E2E2E2E2E2E2E2E2E2E2E2E2E2E2E2E2E2E2E2E2E2E2E2E2E2
310
E2E2E2E2E2E2E2E2E2E2E2E2E2E2E2E2E2E2E2E2E2E2E2E2E2E2E2E2E2E2E2E2E2E2E2E2E2E2E2E2E2E2E2E2E2E2E2E2E2E2E2E2E2E2E2E2E2E2E2E2E2E2E2E2E2E2E2E2E2E2E2E2E2E2E2E2E2E2E2E2E2E2E2E2E2E2E2E2E2E2E2E2E2E2E2E2E2E2E2E2E2E2E2E2E2E2E2E2E2E2E2E2E2E2E2E2E2E2E2E2E2F5F5E2E2E2F5
310
E2E2E2E2E2E2E2E2E2E2E2E2E2E2E2E2E2E2E2E2E2E2E2E2E2E2E2E2E2E2E2E2E2E2E2E2E2E2E2E2E2E2E2E2E2E2E2E2E2E2E2E2E2E2E2E2E2E2E2E2E2E2E2E2E2E2E2E2E2E2E2E2E2E2E2E2E2E2E2E2E2E2E2E2E2E2E2E2E2E2E2E2E2E2E2E2E2E2E2E2E2E2E2E2E2E2E2E2E2E2E2E2E2E2E2E2E2E2E2E2E2E2E2E2E2E2E2
310
E2E2E2E2E2E2E2E2E2E2E2E2E2E2E2E2E2E2E2E2E2E2E2E2E2E2E2E2E2E2E2E2E2E2E2E2E2E2E2E2E2E2E2F5E2E2E2F5F5E2E2E2F5E2E2E2E2E2E2E2E2E2E2E2E2E2E2E2E2E2E2E2E2E2E2E2E2E2E2E2E2E2E2E2E2E2E2E2E2E2E2E2E2E2E2E2E2E2E2E2E2E2E2E2E2E2E2E2E2E2E2E2E2E2E2E2E2E2E2E2E2E2E2E2E2E2E2
310
E2E2E2E2E2E2E2E2E2E2E2E2E2E2E2E2E2E2E2E2E2E2E2E2E2E2E2E2E2E2E2E2E2E2E2E2E2E2E2E2E2E2E2E2E2E2E2E2E2E2E2E2E2E2E2E2E2E2E2E2E2E2E2E2E2E2E2E2E2E2E2E2E2E2E2E2E2E2E2E2E2E2E2E2E2E2E2E2E2E2E2E2E2E2E2E2F5E2E2E2F5F5E2E2E2F5E2E2E2E2E2E2E2E2E2E2E2E2E2E2E2E2E2E2E2E2E2
310
E2E2E2E2E2E2E2E2E2E2E2E2E2E2E2E2E2E2E2E2E2E2E2E2E2E2E2E2E2E2E2E2E2E2E2E2E2E2E2E2E2E2E2E2E2E2E2E2E2E2E2E2E2E2E2E2E2E2E2E2E2E2E2E2E2E2E2E2E2E2E2E2E2E2E2E2E2E2E2E2E2E2E2E2E2E2E2E2E2E2E2E2E2E2E2E2E2E2E2E2E2E2E2E2E2E2E2E2E2E2E2E2E2E2E2E2E2E2E2E2E2E2E2E2E2E2E2
310
E2E2E2E2E2E2E2E2E2E2E2E2E2E2E2E2E2E2E2E2E2E2F5E2E2E2F5F5E2E2E2F5E2E2E2E2E2E2E2E2E2E2E2E2E2E2E2E2E2E2E2E2E2E2E2E2E2E2E2E2E2E2E2E2E2E2E2E2E2E2E2E2E2E2E2E2E2E2E2E2E2E2E2E2E2E2E2E2E2E2E2E2E2E2E2E2E2E2E2E2E2E2E2E2E2E2E2E2E2E2E2E2E2E2E2E2E2E2E2E2E2E2E2E2E2E2E2
310
E2E2E2E2E2E2E2E2E2E2E2E2E2E2E2E2E2E2E2E2E2E2E2E2E2E2E2E2E2E2E2E2E2E2E2E2E2E2E2E2E2E2E2E2E2E2E2E2E2E2E2E2E2E2E2E2E2E2E2E2E2E2E2E2E2E2E2E2E2E2E2E2E2E2E2F5E2E2E2F5F5E2E2E2F5E2E2E2E2E2E2E2E2E2E2E2E2E2E2E2E2E2E2E2E2E2E2E2E2E2E2E2E2E2E2E2E2E2E2E2E2E2E2E2E2E2E2
310
E2E2E2E2E2E2E2E2E2E2E2E2E2E2E2E2E2E2E2E2E2E2E2E2E2E2E2E2E2E2E2E2E2E2E2E2E2E2E2E2E2E2E2E2E2E2E2E2E2E2E2E2E2E2E2E2E2E2E2E2E2E2E2E2E2E2E2E2E2E2E2E2E2E2E2E2E2E2E2E2E2E2E2E2E2E2E2E2E2E2E2E2E2E2E2E2E2E2E2E2E2E2E2E2E2E2E2E2E2E2E2E2E2E2E2E2E2E2E2E2E2E2E2E2E2E2E2
310
E2F5E2E2E2F5F5E2E2E2F5E2E2E2E2E2E2E2E2E2E2E2E2E2E2E2E2E2E2E2E2E2E2E2E2E2E2E2E2E2E2E2E2E2E2E2E2E2E2E2E2E2E2E2E2E2E2E2E2E2E2E2E2E2E2E2E2E2E2E2E2E2E2E2E2E2E2E2E2E2E2E2E2E2E2E2E2E2E2E2E2E2E2E2E2E2E2E2E2E2E2E2E2E2E2E2E2E2E2E2E2E2E2E2E2E2E2E2E2E2E2E2E2E2E2E2E2
310
E2E2E2E2E2E2E2E2E2E2E2E2E2E2E2E2E2E2E2E2E2E2E2E2E2E2E2E2E2E2E2E2E2E2E2E2E2E2E2E2E2E2E2E2E2E2E2E2E2E2E2E2E2E2F5E2E2E2F5F5E2E2E2F5E2E2E2E2E2E2E2E2E2E2E2E2E2E2E2E2E2E2E2E2E2E2E2E2E2E2E2E2E2E2E2E2E2E2E2E2E2E2E2E2E2E2E2E2E2E2E2E2E2E2E2E2E2E2E2E2E2E2E2E2E2E2E2
310
E2E2E2E2E2E2E2E2E2E2E2E2E2E2E2E2E2E2E2E2E2E2E2E2E2E2E2E2E2E2E2E2E2E2E2E2E2E2E2E2E2E2E2E2E2E2E2E2E2E2E2E2E2E2E2E2E2E2E2E2E2E2E2E2E2E2E2E2E2E2E2E2E2E2E2E2E2E2E2E2E2E2E2E2E2E2E2E2E2E2E2E2E2E2E2E2E2E2E2E2E2E2E2E2E2E2E2F5E2E2E2F5F5E2E2E2F5E2E2E2E2E2E2E2E2E2E2
310
E2E2E2E2E2E2E2E2E2E2E2E2E2E2E2E2E2E2E2E2E2E2E2E2E2E2E2E2E2E2E2E2E2E2E2E2E2E2E2E2E2E2E2E2E2E2E2E2E2E2E2E2E2E2E2E2E2E2E2E2E2E2E2E2E2E2E2E2E2E2E2E2E2E2E2E2E2E2E2E2E2E2E2E2E2E2E2E2E2E2E2E2E2E2E2E2E2E2E2E2E2E2E2E2E2E2E2E2E2E2E2E2E2E2E2E2E2E2E2E2E2E2E2E2E2E2E2
310
E2E2E2E2E2E2E2E2E2E2E2E2E2E2E2E2E2E2E2E2E2E2E2E2E2E2E2E2E2E2E2E2E2F5E2E2E2F5F5E2E2E2F5F5F5F5F5F5F5F5E2E2E2E2E2E2E2E2E2F5F5F5F5F5F5F5F5F5F5F5F5F5F5F5F5E2E2E2E2E2E2E2E2E2F5F5F5F5F5F5F5F5F5F5F5F5F5F5F5E2E2E2E2E2E2E2E2E2F5F5F5F5F5F5F5F5F5F5F5F5F5F5F5F5E2E2E2
310
E2E2E2E2E2F5F5F5F5F5F5F5F5F5F5F5F5F5F5F5F5E2E2E2E2E2E2E2E2E2F5F5F5F5F5F5F5F5F5F5F5F5F5F5F5E2E2E2E2E2E2E2E2E2F5F5F5F5F5F5F5F5F5F5F5F5F5F5F5F5E2E2E2E2E2E2E2E2E2F5F5F5F5F5F5F5F5E2E2E2F5F5E2E2E2E2E2E2E2E2E2E2E2E2E2E2E2E2E2E2E2E2E2E2E2E2E2E2E2E2E2E2E2E2E2E2E2
310
E2E2E2E2E2E2E2E2E2E2E2E2E2E2E2E2E2E2E2E2E2E2E2E2E2E2E2E2E2E2E2E2E2E2E2E2E2E2E2E2E2E2E2E2E2E2E2E2E2E2E2E2E2E2E2E2E2E2E2E2E2E2E2E2E2E2E2E2E2E2E2E2E2E2E2E2E2E2E2E2E2E2E2E2E2E2E2E2E2E2E2E2E2E2E2E2E2E2E2E2E2E2E2E2E2E2E2E2E2E2E2E2E2E2E2E2E2E2E2E2E2E2E2E2E2E2E2
310
E2E2E2E2E2E2E2E2E2E2E2E2E2E2E2E2F5F5E2E2E2E2E2E2E2E2E2E2E2E2E2E2E2E2E2E2E2E2E2E2E2E2E2E2E2E2E2E2E2E2E2E2E2E2E2E2E2E2E2E2E2E2E2E2E2E2E2E2E2E2E2E2E2E2E2E2E2E2E2E2E2E2E2E2E2E2E2E2E2E2E2E2E2E2E2E2E2E2E2E2E2E2E2E2E2E2E2E2E2E2E2E2E2E2E2E2E2E2E2E2E2E2E2E2E2E2E2
310
E2E2E2E2E2E2E2E2E2E2E2E2E2E2E2E2E2E2E2E2E2E2E2E2E2E2E2E2E2E2E2E2E2E2E2E2E2E2E2E2E2E2E2E2E2E2E2E2E2E2E2E2E2E2E2E2E2E2E2E2E2E2E2E2E2E2E2E2E2F5F5E2E2E2E2E2E2E2E2E2E2E2E2E2E2E2E2E2E2E2E2E2E2E2E2E2E2E2E2E2E2E2E2E2E2E2E2E2E2E2E2E2E2E2E2E2E2E2E2E2E2E2E2E2E2E2E2
310
E2E2E2E2E2E2E2E2E2E2E2E2E2E2E2E2E2E2E2E2E2E2E2E2E2E2E2E2E2E2E2E2E2E2E2E2E2E2E2E2E2E2E2E2E2E2E2E2E2E2E2E2E2E2E2E2E2E2E2E2E2E2E2E2E2E2E2E2E2E2E2E2E2E2E2E2E2E2E2E2E2E2E2E2E2E2E2E2E2E2E2E2E2E2E2E2E2E2E2E2E2E2E2E2E2E2E2E2E2E2E2E2E2E2E2E2E2E2E2E2E2E2F5F5E2E2E2
310
E2E2E2E2E2E2E2E2E2E2E2E2E2E2E2E2E2E2E2E2E2E2E2E2E2E2E2E2E2E2E2E2E2E2E2E2E2E2E2E2E2E2E2E2E2E2E2E2E2E2E2E2E2E2E2E2E2E2E2E2E2E2E2E2E2E2E2E2E2E2E2E2E2E2E2E2E2E2E2E2E2E2E2E2E2E2E2E2E2E2E2E2E2E2E2E2E2E2E2E2E2E2E2E2E2E2E2E2E2E2E2E2E2E2E2E2E2E2E2E2E2E2E2E2E2E2E2
310
E2E2E2E2E2E2E2E2E2E2E2E2E2E2E2E2E2E2E2E2E2E2E2E2E2E2E2E2E2E2E2E2E2E2E2E2E2E2E2E2E2E2E2E2E2E2E2E2F5
  0
XRECORD
  5
57AE3
102
{ACAD_REACTORS
330
57AE2
102
}
330
57AE2
100
AcDbXrecord
280
     1
102
SHADEPLOT
 70
     0
102
SHADEPLOTRESLEVEL
 70
     2
102
SHADEPLOTCUSTOMDPI
 70
   300
  0
ENDSEC
  0
EOF
