  0
SECTION
  2
HEADER
  9
$ACADVER
  1
AC1015
  9
$ACADMAINTVER
 70
    20
  9
$DWGCODEPAGE
  3
ANSI_936
  9
$INSBASE
 10
0.0
 20
0.0
 30
0.0
  9
$EXTMIN
 10
-90.39050639981443
 20
-142.1596866919391
 30
0.0
  9
$EXTMAX
 10
630.8429779820222
 20
132.7306595911975
 30
0.0
  9
$LIMMIN
 10
0.0
 20
0.0
  9
$LIMMAX
 10
420.0
 20
297.0
  9
$ORTHOMODE
 70
     0
  9
$REGENMODE
 70
     1
  9
$FILLMODE
 70
     1
  9
$QTEXTMODE
 70
     0
  9
$MIRRTEXT
 70
     1
  9
$LTSCALE
 40
1.0
  9
$ATTMODE
 70
     1
  9
$TEXTSIZE
 40
3.5
  9
$TRACEWID
 40
1.0
  9
$TEXTSTYLE
  7
simplex
  9
$CLAYER
  8
0
  9
$CELTYPE
  6
ByLayer
  9
$CECOLOR
 62
   256
  9
$CELTSCALE
 40
1.0
  9
$DISPSILH
 70
     0
  9
$DIMSCALE
 40
0.0
  9
$DIMASZ
 40
3.5
  9
$DIMEXO
 40
0.0
  9
$DIMDLI
 40
0.38
  9
$DIMRND
 40
0.0
  9
$DIMDLE
 40
0.0
  9
$DIMEXE
 40
1.5
  9
$DIMTP
 40
0.0
  9
$DIMTM
 40
0.0
  9
$DIMTXT
 40
3.5
  9
$DIMCEN
 40
0.09
  9
$DIMTSZ
 40
0.0
  9
$DIMTOL
 70
     0
  9
$DIMLIM
 70
     0
  9
$DIMTIH
 70
     0
  9
$DIMTOH
 70
     0
  9
$DIMSE1
 70
     0
  9
$DIMSE2
 70
     0
  9
$DIMTAD
 70
     1
  9
$DIMZIN
 70
     8
  9
$DIMBLK
  1

  9
$DIMASO
 70
     1
  9
$DIMSHO
 70
     1
  9
$DIMPOST
  1

  9
$DIMAPOST
  1

  9
$DIMALT
 70
     0
  9
$DIMALTD
 70
     2
  9
$DIMALTF
 40
25.4
  9
$DIMLFAC
 40
1.0
  9
$DIMTOFL
 70
     0
  9
$DIMTVP
 40
0.0
  9
$DIMTIX
 70
     0
  9
$DIMSOXD
 70
     0
  9
$DIMSAH
 70
     0
  9
$DIMBLK1
  1

  9
$DIMBLK2
  1

  9
$DIMSTYLE
  2
\M+18352\M+18373\M+1815B - ISO-25
  9
$DIMCLRD
 70
   256
  9
$DIMCLRE
 70
   256
  9
$DIMCLRT
 70
   256
  9
$DIMTFAC
 40
1.0
  9
$DIMGAP
 40
2.299999999999998
  9
$DIMJUST
 70
     0
  9
$DIMSD1
 70
     0
  9
$DIMSD2
 70
     0
  9
$DIMTOLJ
 70
     1
  9
$DIMTZIN
 70
     8
  9
$DIMALTZ
 70
     0
  9
$DIMALTTZ
 70
     0
  9
$DIMUPT
 70
     0
  9
$DIMDEC
 70
     2
  9
$DIMTDEC
 70
     2
  9
$DIMALTU
 70
     2
  9
$DIMALTTD
 70
     2
  9
$DIMTXSTY
  7
simplex
  9
$DIMAUNIT
 70
     0
  9
$DIMADEC
 70
     0
  9
$DIMALTRND
 40
0.0
  9
$DIMAZIN
 70
     0
  9
$DIMDSEP
 70
    46
  9
$DIMATFIT
 70
     3
  9
$DIMFRAC
 70
     0
  9
$DIMLDRBLK
  1

  9
$DIMLUNIT
 70
     2
  9
$DIMLWD
 70
    -1
  9
$DIMLWE
 70
    -1
  9
$DIMTMOVE
 70
     0
  9
$LUNITS
 70
     2
  9
$LUPREC
 70
     4
  9
$SKETCHINC
 40
1.0
  9
$FILLETRAD
 40
0.5
  9
$AUNITS
 70
     0
  9
$AUPREC
 70
     0
  9
$MENU
  1
.
  9
$ELEVATION
 40
0.0
  9
$PELEVATION
 40
0.0
  9
$THICKNESS
 40
0.0
  9
$LIMCHECK
 70
     0
  9
$CHAMFERA
 40
10.0
  9
$CHAMFERB
 40
10.0
  9
$CHAMFERC
 40
20.0
  9
$CHAMFERD
 40
0.0
  9
$SKPOLY
 70
     0
  9
$TDCREATE
 40
2455489.391063368
  9
$TDUCREATE
 40
2455489.057730035
  9
$TDUPDATE
 40
2458573.032453704
  9
$TDUUPDATE
 40
2458572.699120370
  9
$TDINDWG
 40
2.7589692245
  9
$TDUSRTIMER
 40
2.7589139699
  9
$USRTIMER
 70
     1
  9
$ANGBASE
 50
0.0
  9
$ANGDIR
 70
     0
  9
$PDMODE
 70
     0
  9
$PDSIZE
 40
0.0
  9
$PLINEWID
 40
0.0
  9
$SPLFRAME
 70
     0
  9
$SPLINETYPE
 70
     6
  9
$SPLINESEGS
 70
     8
  9
$HANDSEED
  5
564B9
  9
$SURFTAB1
 70
     6
  9
$SURFTAB2
 70
     6
  9
$SURFTYPE
 70
     6
  9
$SURFU
 70
     6
  9
$SURFV
 70
     6
  9
$UCSBASE
  2

  9
$UCSNAME
  2

  9
$UCSORG
 10
0.0
 20
0.0
 30
0.0
  9
$UCSXDIR
 10
1.0
 20
0.0
 30
0.0
  9
$UCSYDIR
 10
0.0
 20
1.0
 30
0.0
  9
$UCSORTHOREF
  2

  9
$UCSORTHOVIEW
 70
     0
  9
$UCSORGTOP
 10
0.0
 20
0.0
 30
0.0
  9
$UCSORGBOTTOM
 10
0.0
 20
0.0
 30
0.0
  9
$UCSORGLEFT
 10
0.0
 20
0.0
 30
0.0
  9
$UCSORGRIGHT
 10
0.0
 20
0.0
 30
0.0
  9
$UCSORGFRONT
 10
0.0
 20
0.0
 30
0.0
  9
$UCSORGBACK
 10
0.0
 20
0.0
 30
0.0
  9
$PUCSBASE
  2

  9
$PUCSNAME
  2

  9
$PUCSORG
 10
0.0
 20
0.0
 30
0.0
  9
$PUCSXDIR
 10
1.0
 20
0.0
 30
0.0
  9
$PUCSYDIR
 10
0.0
 20
1.0
 30
0.0
  9
$PUCSORTHOREF
  2

  9
$PUCSORTHOVIEW
 70
     0
  9
$PUCSORGTOP
 10
0.0
 20
0.0
 30
0.0
  9
$PUCSORGBOTTOM
 10
0.0
 20
0.0
 30
0.0
  9
$PUCSORGLEFT
 10
0.0
 20
0.0
 30
0.0
  9
$PUCSORGRIGHT
 10
0.0
 20
0.0
 30
0.0
  9
$PUCSORGFRONT
 10
0.0
 20
0.0
 30
0.0
  9
$PUCSORGBACK
 10
0.0
 20
0.0
 30
0.0
  9
$USERI1
 70
     0
  9
$USERI2
 70
     0
  9
$USERI3
 70
     0
  9
$USERI4
 70
     0
  9
$USERI5
 70
     0
  9
$USERR1
 40
0.0
  9
$USERR2
 40
0.0
  9
$USERR3
 40
0.0
  9
$USERR4
 40
0.0
  9
$USERR5
 40
0.0
  9
$WORLDVIEW
 70
     1
  9
$SHADEDGE
 70
     3
  9
$SHADEDIF
 70
    70
  9
$TILEMODE
 70
     1
  9
$MAXACTVP
 70
    64
  9
$PINSBASE
 10
0.0
 20
0.0
 30
0.0
  9
$PLIMCHECK
 70
     0
  9
$PEXTMIN
 10
26.66999878883364
 20
20.31999878883365
 30
0.0
  9
$PEXTMAX
 10
240.0299890995025
 20
182.8799890995025
 30
0.0
  9
$PLIMMIN
 10
-6.350006103515625
 20
-6.349999904632567
  9
$PLIMMAX
 10
273.0499877929688
 20
209.5499939918518
  9
$UNITMODE
 70
     0
  9
$VISRETAIN
 70
     1
  9
$PLINEGEN
 70
     0
  9
$PSLTSCALE
 70
     1
  9
$TREEDEPTH
 70
  3020
  9
$CMLSTYLE
  2
Standard
  9
$CMLJUST
 70
     0
  9
$CMLSCALE
 40
20.0
  9
$PROXYGRAPHICS
 70
     1
  9
$MEASUREMENT
 70
     1
  9
$CELWEIGHT
370
    -1
  9
$ENDCAPS
280
     0
  9
$JOINSTYLE
280
     0
  9
$LWDISPLAY
290
     0
  9
$INSUNITS
 70
     4
  9
$HYPERLINKBASE
  1

  9
$STYLESHEET
  1

  9
$XEDIT
290
     1
  9
$CEPSNTYPE
380
     0
  9
$PSTYLEMODE
290
     1
  9
$FINGERPRINTGUID
  2
{601DDA01-5B13-4A4C-8F56-1333B78D855B}
  9
$VERSIONGUID
  2
{17D4BF75-ADF3-4ECD-811D-A0BEF2D82BA9}
  9
$EXTNAMES
290
     1
  9
$PSVPSCALE
 40
0.0
  9
$OLESTARTUP
290
     0
  0
ENDSEC
  0
SECTION
  2
CLASSES
  0
CLASS
  1
ACDBDICTIONARYWDFLT
  2
AcDbDictionaryWithDefault
  3
ObjectDBX Classes
 90
        0
280
     0
281
     0
  0
CLASS
  1
ACDBPLACEHOLDER
  2
AcDbPlaceHolder
  3
ObjectDBX Classes
 90
        0
280
     0
281
     0
  0
CLASS
  1
LAYOUT
  2
AcDbLayout
  3
ObjectDBX Classes
 90
        0
280
     0
281
     0
  0
CLASS
  1
DICTIONARYVAR
  2
AcDbDictionaryVar
  3
ObjectDBX Classes
 90
        0
280
     0
281
     0
  0
CLASS
  1
TABLESTYLE
  2
AcDbTableStyle
  3
ObjectDBX Classes
 90
     2047
280
     0
281
     0
  0
CLASS
  1
SORTENTSTABLE
  2
AcDbSortentsTable
  3
ObjectDBX Classes
 90
        0
280
     0
281
     0
  0
CLASS
  1
DIMASSOC
  2
AcDbDimAssoc
  3
"AcDbDimAssoc|Product Desc:     AcDim ARX App For Dimension|Company:          Autodesk, Inc.|WEB Address:      www.autodesk.com"
 90
        0
280
     0
281
     0
  0
CLASS
  1
ACAD_EVALUATION_GRAPH
  2
AcDbEvalGraph
  3
ObjectDBX Classes
 90
    33921
280
     0
281
     0
  0
CLASS
  1
ACAECUSTOBJ
  2
AcAeEditorObj
  3
AcAeEditorObj
 90
    33792
280
     0
281
     0
  0
CLASS
  1
ACDB_DYNAMICBLOCKPURGEPREVENTER_VERSION
  2
AcDbDynamicBlockPurgePreventer
  3
ObjectDBX Classes
 90
    33921
280
     0
281
     0
  0
ENDSEC
  0
SECTION
  2
TABLES
  0
TABLE
  2
VPORT
  5
8
330
0
100
AcDbSymbolTable
 70
     6
  0
VPORT
  5
564AA
330
8
100
AcDbSymbolTableRecord
100
AcDbViewportTableRecord
  2
*Active
 70
     0
 10
0.0
 20
0.0
 11
1.0
 21
1.0
 12
-3.948321161665518
 22
-3.725577760505984
 13
0.0
 23
0.0
 14
10.0
 24
10.0
 15
10.0
 25
10.0
 16
0.0
 26
0.0
 36
1.0
 17
0.0
 27
0.0
 37
0.0
 40
279.0959044267002
 41
1.508350730688935
 42
50.0
 43
0.0
 44
0.0
 50
0.0
 51
0.0
 71
     0
 72
  1000
 73
     1
 74
     1
 75
     0
 76
     0
 77
     0
 78
     0
281
     0
 65
     1
110
0.0
120
0.0
130
0.0
111
1.0
121
0.0
131
0.0
112
0.0
122
1.0
132
0.0
 79
     0
146
0.0
  0
ENDTAB
  0
TABLE
  2
LTYPE
  5
5
330
0
100
AcDbSymbolTable
 70
     4
  0
LTYPE
  5
14
330
5
100
AcDbSymbolTableRecord
100
AcDbLinetypeTableRecord
  2
ByBlock
 70
     0
  3

 72
    65
 73
     0
 40
0.0
  0
LTYPE
  5
15
330
5
100
AcDbSymbolTableRecord
100
AcDbLinetypeTableRecord
  2
ByLayer
 70
     0
  3

 72
    65
 73
     0
 40
0.0
  0
LTYPE
  5
16
330
5
100
AcDbSymbolTableRecord
100
AcDbLinetypeTableRecord
  2
Continuous
 70
     0
  3
Solid line
 72
    65
 73
     0
 40
0.0
  0
LTYPE
  5
D7
330
5
100
AcDbSymbolTableRecord
100
AcDbLinetypeTableRecord
  2
HIDDEN
 70
     0
  3
Hidden __ __ __ __ __ __ __ __ __ __ __ __ __ _
 72
    65
 73
     2
 40
9.524999999999996
 49
6.349999999999997
 74
     0
 49
-3.174999999999998
 74
     0
  0
LTYPE
  5
D9
330
5
100
AcDbSymbolTableRecord
100
AcDbLinetypeTableRecord
  2
CENTER
 70
     0
  3
Center ____ _ ____ _ ____ _ ____ _ ____ _ ____
 72
    65
 73
     4
 40
50.8
 49
31.75
 74
     0
 49
-6.349999999999997
 74
     0
 49
6.349999999999997
 74
     0
 49
-6.349999999999997
 74
     0
  0
LTYPE
  5
35815
330
5
100
AcDbSymbolTableRecord
100
AcDbLinetypeTableRecord
  2
PHANTOM
 70
     0
  3
_____ _ _ _____ _ _ _____ _ _ _____
 72
    65
 73
     6
 40
0.8
 49
0.45
 74
     0
 49
-0.05
 74
     0
 49
0.1
 74
     0
 49
-0.05
 74
     0
 49
0.1
 74
     0
 49
-0.05
 74
     0
  0
ENDTAB
  0
TABLE
  2
LAYER
  5
2
102
{ACAD_XDICTIONARY
360
E2
102
}
330
0
100
AcDbSymbolTable
 70
    14
  0
LAYER
  5
10
330
2
100
AcDbSymbolTableRecord
100
AcDbLayerTableRecord
  2
0
 70
     0
 62
     7
  6
Continuous
370
    -3
390
F
  0
LAYER
  5
D1
330
2
100
AcDbSymbolTableRecord
100
AcDbLayerTableRecord
  2
1
 70
     0
 62
     4
  6
Continuous
370
    50
390
F
1001
AcAecLayerStandard
1000

1000

  0
LAYER
  5
D3
330
2
100
AcDbSymbolTableRecord
100
AcDbLayerTableRecord
  2
2
 70
     0
 62
     7
  6
Continuous
370
    25
390
F
1001
AcAecLayerStandard
1000

1000

  0
LAYER
  5
D4
330
2
100
AcDbSymbolTableRecord
100
AcDbLayerTableRecord
  2
3
 70
     0
 62
     1
  6
HIDDEN
370
    35
390
F
1001
AcAecLayerStandard
1000

1000

  0
LAYER
  5
D8
330
2
100
AcDbSymbolTableRecord
100
AcDbLayerTableRecord
  2
4
 70
     0
 62
     2
  6
CENTER
370
    25
390
F
1001
AcAecLayerStandard
1000

1000

  0
LAYER
  5
DA
330
2
100
AcDbSymbolTableRecord
100
AcDbLayerTableRecord
  2
6
 70
     0
 62
     5
  6
Continuous
370
    35
390
F
1001
AcAecLayerStandard
1000

1000

  0
LAYER
  5
DB
330
2
100
AcDbSymbolTableRecord
100
AcDbLayerTableRecord
  2
cut
 70
     0
 62
     1
  6
Continuous
370
    25
390
F
1001
AcAecLayerStandard
1000

1000

  0
LAYER
  5
DC
330
2
100
AcDbSymbolTableRecord
100
AcDbLayerTableRecord
  2
nocut
 70
     0
 62
     7
  6
Continuous
370
    25
390
F
1001
AcAecLayerStandard
1000

1000

  0
LAYER
  5
DD
330
2
100
AcDbSymbolTableRecord
100
AcDbLayerTableRecord
  2
sk1
 70
     0
 62
     4
  6
Continuous
370
    50
390
F
1001
AcAecLayerStandard
1000

1000

  0
LAYER
  5
DE
330
2
100
AcDbSymbolTableRecord
100
AcDbLayerTableRecord
  2
sk2
 70
     0
 62
     7
  6
Continuous
370
    25
390
F
1001
AcAecLayerStandard
1000

1000

  0
LAYER
  5
DF
330
2
100
AcDbSymbolTableRecord
100
AcDbLayerTableRecord
  2
sk3
 70
     0
 62
     1
  6
HIDDEN
370
    35
390
F
1001
AcAecLayerStandard
1000

1000

  0
LAYER
  5
E0
330
2
100
AcDbSymbolTableRecord
100
AcDbLayerTableRecord
  2
sk4
 70
     0
 62
     2
  6
CENTER
370
    25
390
F
1001
AcAecLayerStandard
1000

1000

  0
LAYER
  5
E1
330
2
100
AcDbSymbolTableRecord
100
AcDbLayerTableRecord
  2
sk6
 70
     0
 62
     5
  6
Continuous
370
    35
390
F
1001
AcAecLayerStandard
1000

1000

  0
LAYER
  5
31B6
330
2
100
AcDbSymbolTableRecord
100
AcDbLayerTableRecord
  2
Defpoints
 70
     0
 62
     7
  6
Continuous
290
     0
370
    -3
390
F
  0
ENDTAB
  0
TABLE
  2
STYLE
  5
3
330
0
100
AcDbSymbolTable
 70
    12
  0
STYLE
  5
11
330
3
100
AcDbSymbolTableRecord
100
AcDbTextStyleTableRecord
  2
Standard
 70
     0
 40
0.0
 41
1.0
 50
0.0
 71
     0
 42
2.5
  3
txt.shx
  4
@extfont2.shx
  0
STYLE
  5
D6
330
3
100
AcDbSymbolTableRecord
100
AcDbTextStyleTableRecord
  2

 70
     1
 40
0.0
 41
1.0
 50
0.0
 71
     0
 42
2.5
  3
ltypeshp.shx
  4

  0
STYLE
  5
24A
330
3
100
AcDbSymbolTableRecord
100
AcDbTextStyleTableRecord
  2
simplex
 70
     0
 40
3.5
 41
1.0
 50
0.0
 71
     0
 42
3.5
  3
txt.shx
  4

  0
STYLE
  5
69E
330
3
100
AcDbSymbolTableRecord
100
AcDbTextStyleTableRecord
  2
MX_NOTE_STANDARD
 70
     0
 40
0.0
 41
1.0
 50
0.0
 71
     0
 42
4.2
  3
txt.shx
  4
extfont.shx
  0
STYLE
  5
3524
330
3
100
AcDbSymbolTableRecord
100
AcDbTextStyleTableRecord
  2
TEXTSTYLE_2
 70
     0
 40
0.0
 41
0.775
 50
0.0
 71
     0
 42
0.2
  3
gdt
  4

  0
STYLE
  5
3525
330
3
100
AcDbSymbolTableRecord
100
AcDbTextStyleTableRecord
  2
TEXTSTYLE_3
 70
     0
 40
0.0
 41
0.75
 50
0.0
 71
     0
 42
0.2
  3
txt
  4

  0
STYLE
  5
3526
330
3
100
AcDbSymbolTableRecord
100
AcDbTextStyleTableRecord
  2
TEXTSTYLE_13
 70
     0
 40
0.0
 41
1.0
 50
0.0
 71
     0
 42
0.2
  3
txt
  4

  0
STYLE
  5
519A
330
3
100
AcDbSymbolTableRecord
100
AcDbTextStyleTableRecord
  2
TEXTSTYLE_14
 70
     0
 40
0.0
 41
1.0
 50
0.0
 71
     0
 42
0.2
  3
txt
  4

  0
STYLE
  5
6F72
330
3
100
AcDbSymbolTableRecord
100
AcDbTextStyleTableRecord
  2
TEXTSTYLE_4
 70
     0
 40
0.0
 41
0.75
 50
0.0
 71
     0
 42
0.2
  3
txt
  4

  0
STYLE
  5
6F73
330
3
100
AcDbSymbolTableRecord
100
AcDbTextStyleTableRecord
  2
TEXTSTYLE_17
 70
     0
 40
0.0
 41
1.0
 50
0.0
 71
     0
 42
0.2
  3
txt
  4

  0
STYLE
  5
FE12
330
3
100
AcDbSymbolTableRecord
100
AcDbTextStyleTableRecord
  2
TEXTSTYLE_12
 70
     0
 40
0.0
 41
1.0
 50
0.0
 71
     0
 42
0.2
  3
txt
  4

  0
STYLE
  5
3AAB8
330
3
100
AcDbSymbolTableRecord
100
AcDbTextStyleTableRecord
  2
TEXTSTYLE_20
 70
     0
 40
0.0
 41
0.6
 50
0.0
 71
     0
 42
0.2
  3
txt
  4

  0
ENDTAB
  0
TABLE
  2
VIEW
  5
6
330
0
100
AcDbSymbolTable
 70
     0
  0
ENDTAB
  0
TABLE
  2
UCS
  5
7
330
0
100
AcDbSymbolTable
 70
     0
  0
ENDTAB
  0
TABLE
  2
APPID
  5
9
330
0
100
AcDbSymbolTable
 70
    11
  0
APPID
  5
12
330
9
100
AcDbSymbolTableRecord
100
AcDbRegAppTableRecord
  2
ACAD
 70
     0
  0
APPID
  5
D2
330
9
100
AcDbSymbolTableRecord
100
AcDbRegAppTableRecord
  2
AcAecLayerStandard
 70
     0
  0
APPID
  5
E6
330
9
100
AcDbSymbolTableRecord
100
AcDbRegAppTableRecord
  2
ACAD_DSTYLE_DIMTEXT_FILL
 70
     0
  0
APPID
  5
4C84
330
9
100
AcDbSymbolTableRecord
100
AcDbRegAppTableRecord
  2
ACAD_EXEMPT_FROM_CAD_STANDARDS
 70
     0
  0
APPID
  5
3493E
330
9
100
AcDbSymbolTableRecord
100
AcDbRegAppTableRecord
  2
DCO15
 70
     0
  0
APPID
  5
3BAB0
330
9
100
AcDbSymbolTableRecord
100
AcDbRegAppTableRecord
  2
ACAD_DSTYLE_DIMEXT_ENABLED
 70
     0
  0
APPID
  5
3BAB1
330
9
100
AcDbSymbolTableRecord
100
AcDbRegAppTableRecord
  2
ACAD_DSTYLE_DIMEXT_LENGTH
 70
     0
  0
APPID
  5
3BEB4
330
9
100
AcDbSymbolTableRecord
100
AcDbRegAppTableRecord
  2
ACAUTHENVIRON
 70
     0
  0
APPID
  5
3BEB7
330
9
100
AcDbSymbolTableRecord
100
AcDbRegAppTableRecord
  2
AcDbDynamicBlockTrueName
 70
     0
  0
APPID
  5
3BEB8
330
9
100
AcDbSymbolTableRecord
100
AcDbRegAppTableRecord
  2
AcDbDynamicBlockGUID
 70
     0
  0
APPID
  5
3BEBA
330
9
100
AcDbSymbolTableRecord
100
AcDbRegAppTableRecord
  2
AcDbBlockRepETag
 70
     0
  0
ENDTAB
  0
TABLE
  2
DIMSTYLE
  5
A
330
0
100
AcDbSymbolTable
 70
    11
100
AcDbDimStyleTable
 71
     5
340
1BF
340
27
340
352A
340
3527
340
69F
  0
DIMSTYLE
105
27
330
A
100
AcDbSymbolTableRecord
100
AcDbDimStyleTableRecord
  2
ISO-25
 70
     0
 41
2.5
 42
0.625
 43
3.75
 44
1.25
 73
     0
 74
     0
 77
     1
 78
     8
140
2.5
141
2.5
143
0.03937007874016
147
0.625
171
     3
172
     1
271
     2
272
     2
274
     3
278
    44
283
     0
284
     8
340
11
  0
DIMSTYLE
105
1BF
102
{ACAD_REACTORS
330
56186
330
561C3
330
561C6
330
561C7
330
561C8
330
561DE
330
5622B
102
}
330
A
100
AcDbSymbolTableRecord
100
AcDbDimStyleTableRecord
  2
\M+18352\M+18373\M+1815B - ISO-25
 70
     0
 40
0.0
 41
3.5
 42
0.0
 44
1.5
 73
     0
 74
     0
 77
     1
 78
     8
140
3.5
147
2.299999999999998
176
   256
177
   256
178
   256
271
     2
272
     2
284
     8
340
24A
371
    -1
372
    -1
  0
DIMSTYLE
105
69F
330
A
100
AcDbSymbolTableRecord
100
AcDbDimStyleTableRecord
  2
MXDIMSTYLE
 70
     0
 41
2.5
 42
0.5
 43
3.75
 44
1.5
 73
     0
 74
     0
 77
     1
 78
     8
140
4.2
141
2.5
143
0.03937
147
1.0
171
     4
172
     1
173
     1
271
     2
272
     2
274
     4
283
     0
288
     1
340
69E
341
697
343
697
344
697
  0
DIMSTYLE
105
3527
330
A
100
AcDbSymbolTableRecord
100
AcDbDimStyleTableRecord
  2
STANDARD
 70
     0
 41
3.0
 47
0.001
 48
0.001
 71
     1
 73
     0
 74
     0
 77
     1
 78
     8
140
4.0
271
     3
272
     3
284
     8
340
11
341
34B1
342
34B1
343
34B1
344
34B1
  0
DIMSTYLE
105
3528
330
A
100
AcDbSymbolTableRecord
100
AcDbDimStyleTableRecord
  2
DIMSTYLE_1
 70
     0
 41
3.0
 73
     0
 74
     0
 77
     1
 78
     8
140
4.0
271
     3
272
     3
284
     8
340
11
341
34B1
342
34B1
343
34B1
344
34B1
  0
DIMSTYLE
105
3529
330
A
100
AcDbSymbolTableRecord
100
AcDbDimStyleTableRecord
  2
DIMSTYLE_2
 70
     0
 41
3.0
 47
0.001
 48
0.001
 73
     0
 74
     0
 77
     1
 78
     8
140
4.0
271
     3
272
     3
284
     8
340
11
341
34B1
342
34B1
343
34B1
344
34B1
  0
DIMSTYLE
105
352A
330
A
100
AcDbSymbolTableRecord
100
AcDbDimStyleTableRecord
  2
DIMSTYLE_3
 70
     0
 41
3.0
 47
-0.1
 48
0.3
 71
     1
 73
     0
 74
     0
 77
     1
 78
     8
140
4.0
146
0.5
271
     3
272
     3
284
     8
340
11
341
34B1
342
34B1
343
34B1
344
34B1
  0
DIMSTYLE
105
352B
330
A
100
AcDbSymbolTableRecord
100
AcDbDimStyleTableRecord
  2
DIMSTYLE_4
 70
     0
 41
3.0
 47
0.1
 48
0.1
 71
     1
 73
     0
 74
     0
 77
     1
 78
     8
140
4.0
271
     3
272
     3
284
     8
340
11
341
34B1
342
34B1
343
34B1
344
34B1
  0
DIMSTYLE
105
27245
330
A
100
AcDbSymbolTableRecord
100
AcDbDimStyleTableRecord
  2
DIMSTYLE_5
 70
     0
 41
3.0
 47
0.001
 48
0.001
 73
     0
 74
     0
 77
     1
 78
     8
140
4.0
271
     3
272
     3
284
     8
340
11
341
34B1
342
34B1
343
34B1
344
34B1
  0
DIMSTYLE
105
3AAB9
330
A
100
AcDbSymbolTableRecord
100
AcDbDimStyleTableRecord
  2
DIMSTYLE_6
 70
     0
 41
3.0
 42
0.0
 44
1.0
 47
0.05
 48
0.05
 71
     1
 73
     0
 74
     0
 77
     1
 78
     8
140
4.0
147
1.0
271
     3
272
     3
284
     8
340
11
341
34B1
342
34B1
343
34B1
344
34B1
  0
DIMSTYLE
105
532EA
330
A
100
AcDbSymbolTableRecord
100
AcDbDimStyleTableRecord
  2
NEW-DIMSTYLE
 70
     0
 40
0.0
 41
4.57
 42
0.0
 44
5.0
 73
     0
 74
     0
 77
     1
 78
     8
140
4.57
147
2.299999999999998
271
     2
340
24A
  0
ENDTAB
  0
TABLE
  2
BLOCK_RECORD
  5
1
330
0
100
AcDbSymbolTable
 70
   101
  0
BLOCK_RECORD
  5
1F
102
{ACAD_XDICTIONARY
360
31EE
102
}
330
1
100
AcDbSymbolTableRecord
100
AcDbBlockTableRecord
  2
*Model_Space
340
22
  0
BLOCK_RECORD
  5
50
330
1
100
AcDbSymbolTableRecord
100
AcDbBlockTableRecord
  2
*Paper_Space
340
51
  0
BLOCK_RECORD
  5
55
330
1
100
AcDbSymbolTableRecord
100
AcDbBlockTableRecord
  2
*Paper_Space0
340
56
  0
BLOCK_RECORD
  5
680
102
{ACAD_XDICTIONARY
360
3BEB2
102
}
330
1
100
AcDbSymbolTableRecord
100
AcDbBlockTableRecord
  2
zero block
340
0
102
{BLKREFS
331
68C
102
}
1001
ACAD
1000
DesignCenter Data
1002
{
1070
     1
1070
     4
1002
}
1001
AcDbDynamicBlockGUID
1000
{C2E8894D-A8DA-456D-ABB6-198B00672C1A}
1001
AcDbBlockRepETag
1070
     1
1071
        7
  0
BLOCK_RECORD
  5
697
330
1
100
AcDbSymbolTableRecord
100
AcDbBlockTableRecord
  2
_OPEN30
340
0
  0
BLOCK_RECORD
  5
34B1
330
1
100
AcDbSymbolTableRecord
100
AcDbBlockTableRecord
  2
_OPEN
340
0
  0
BLOCK_RECORD
  5
50E6F
330
1
100
AcDbSymbolTableRecord
100
AcDbBlockTableRecord
  2
_None
340
0
  0
BLOCK_RECORD
  5
54C73
330
1
100
AcDbSymbolTableRecord
100
AcDbBlockTableRecord
  2
*D10
340
0
  0
BLOCK_RECORD
  5
56363
330
1
100
AcDbSymbolTableRecord
100
AcDbBlockTableRecord
  2
*D88
340
0
  0
BLOCK_RECORD
  5
5636F
330
1
100
AcDbSymbolTableRecord
100
AcDbBlockTableRecord
  2
*D89
340
0
  0
BLOCK_RECORD
  5
5637B
330
1
100
AcDbSymbolTableRecord
100
AcDbBlockTableRecord
  2
*D90
340
0
  0
BLOCK_RECORD
  5
56388
330
1
100
AcDbSymbolTableRecord
100
AcDbBlockTableRecord
  2
*D91
340
0
  0
BLOCK_RECORD
  5
563C7
330
1
100
AcDbSymbolTableRecord
100
AcDbBlockTableRecord
  2
*D96
340
0
  0
BLOCK_RECORD
  5
563E7
330
1
100
AcDbSymbolTableRecord
100
AcDbBlockTableRecord
  2
*D97
340
0
  0
BLOCK_RECORD
  5
563FC
330
1
100
AcDbSymbolTableRecord
100
AcDbBlockTableRecord
  2
*D98
340
0
  0
ENDTAB
  0
ENDSEC
  0
SECTION
  2
BLOCKS
  0
BLOCK
  5
20
330
1F
100
AcDbEntity
  8
0
100
AcDbBlockBegin
  2
*Model_Space
 70
     0
 10
0.0
 20
0.0
 30
0.0
  3
*Model_Space
  1

  0
ENDBLK
  5
21
330
1F
100
AcDbEntity
  8
0
100
AcDbBlockEnd
  0
BLOCK
  5
52
330
50
100
AcDbEntity
 67
     1
  8
0
100
AcDbBlockBegin
  2
*Paper_Space
 70
     0
 10
0.0
 20
0.0
 30
0.0
  3
*Paper_Space
  1

  0
ENDBLK
  5
53
330
50
100
AcDbEntity
 67
     1
  8
0
100
AcDbBlockEnd
  0
BLOCK
  5
57
330
55
100
AcDbEntity
 67
     1
  8
0
100
AcDbBlockBegin
  2
*Paper_Space0
 70
     0
 10
0.0
 20
0.0
 30
0.0
  3
*Paper_Space0
  1

  0
VIEWPORT
  5
71
102
{ACAD_XDICTIONARY
360
564B5
102
}
330
55
100
AcDbEntity
 67
     1
  8
0
100
AcDbViewport
 10
150.1652135264906
 20
101.599997546291
 30
0.0
 40
339.1973820494347
 41
164.5360435314421
 68
     0
 69
     0
 12
150.1652135264906
 22
101.599997546291
 13
0.0
 23
0.0
 14
10.0
 24
10.0
 15
10.0
 25
10.0
 16
0.0
 26
0.0
 36
1.0
 17
0.0
 27
0.0
 37
0.0
 42
50.0
 43
0.0
 44
0.0
 45
164.5360435314421
 50
0.0
 51
0.0
 72
  1000
 90
    32864
  1

281
     0
 71
     1
 74
     0
110
0.0
120
0.0
130
0.0
111
1.0
121
0.0
131
0.0
112
0.0
122
1.0
132
0.0
 79
     0
146
0.0
  0
VIEWPORT
  5
73
102
{ACAD_XDICTIONARY
360
564B7
102
}
330
55
100
AcDbEntity
 67
     1
  8
0
100
AcDbViewport
 10
133.3499939441681
 20
101.5999939441681
 30
0.0
 40
213.3599903106689
 41
162.5599903106689
 68
     0
 69
     0
 12
210.0
 22
148.5
 13
0.0
 23
0.0
 14
10.0
 24
10.0
 15
10.0
 25
10.0
 16
0.0
 26
0.0
 36
1.0
 17
0.0
 27
0.0
 37
0.0
 42
50.0
 43
0.0
 44
0.0
 45
324.0677920111345
 50
0.0
 51
0.0
 72
   100
 90
    32864
  1

281
     0
 71
     1
 74
     0
110
0.0
120
0.0
130
0.0
111
1.0
121
0.0
131
0.0
112
0.0
122
1.0
132
0.0
 79
     0
146
0.0
  0
ENDBLK
  5
58
330
55
100
AcDbEntity
 67
     1
  8
0
100
AcDbBlockEnd
  0
BLOCK
  5
68A
330
680
100
AcDbEntity
  8
0
100
AcDbBlockBegin
  2
zero block
 70
     0
 10
0.0
 20
0.0
 30
0.0
  3
zero block
  1

  0
HATCH
  5
3BEAB
330
680
100
AcDbEntity
  8
0
 62
     7
100
AcDbHatch
 10
0.0
 20
0.0
 30
0.0
210
0.0
220
0.0
230
1.0
  2
SOLID
 70
     1
 71
     0
 91
        2
 92
        7
 72
     1
 73
     1
 93
        3
 10
0.0
 20
0.9999999999999875
 42
0.4142135623730915
 10
-1.0
 20
0.0
 42
0.0
 10
0.0
 20
0.0
 42
0.0
 97
        0
 92
        7
 72
     1
 73
     1
 93
        3
 10
1.000000000000007
 20
0.0
 42
0.0
 10
0.0
 20
0.0
 42
0.0
 10
0.0
 20
-1.0
 42
0.4142135623730974
 97
        0
 75
     0
 76
     1
 47
0.0090601366782909
 98
        2
 10
-0.380591363650975
 20
0.4885804701532896
 10
0.4350764810977559
 20
-0.4536738423704725
1001
AcDbBlockRepETag
1070
     1
1071
        0
1005
3BEAB
  0
LINE
  5
3BEAC
330
680
100
AcDbEntity
  8
0
 62
     7
 48
0.2
100
AcDbLine
 10
-1.0
 20
0.0
 30
0.0
 11
1.000000000000007
 21
0.0
 31
0.0
1001
AcDbBlockRepETag
1070
     1
1071
        1
1005
3BEAC
  0
LINE
  5
3BEAD
330
680
100
AcDbEntity
  8
0
 62
     7
 48
0.2
100
AcDbLine
 10
0.0
 20
-1.0
 30
0.0
 11
0.0
 21
0.9999999999999875
 31
0.0
1001
AcDbBlockRepETag
1070
     1
1071
        2
1005
3BEAD
  0
ARC
  5
3BEAE
330
680
100
AcDbEntity
  8
0
 62
     7
 48
0.2
100
AcDbCircle
 10
0.0
 20
0.0
 30
0.0
 40
1.0
100
AcDbArc
 50
270.0
 51
0.0
1001
AcDbBlockRepETag
1070
     1
1071
        3
1005
3BEAE
  0
ARC
  5
3BEAF
330
680
100
AcDbEntity
  8
0
 62
     7
 48
0.2
100
AcDbCircle
 10
0.0
 20
0.0
 30
0.0
 40
1.0
100
AcDbArc
 50
0.0
 51
90.0
1001
AcDbBlockRepETag
1070
     1
1071
        4
1005
3BEAF
  0
ARC
  5
3BEB0
330
680
100
AcDbEntity
  8
0
 62
     7
 48
0.2
100
AcDbCircle
 10
0.0
 20
0.0
 30
0.0
 40
1.0
100
AcDbArc
 50
180.0
 51
270.0
1001
AcDbBlockRepETag
1070
     1
1071
        5
1005
3BEB0
  0
ARC
  5
3BEB1
330
680
100
AcDbEntity
  8
0
 62
     7
 48
0.2
100
AcDbCircle
 10
0.0
 20
0.0
 30
0.0
 40
1.0
100
AcDbArc
 50
90.0
 51
180.0
1001
AcDbBlockRepETag
1070
     1
1071
        6
1005
3BEB1
  0
ENDBLK
  5
68B
330
680
100
AcDbEntity
  8
0
100
AcDbBlockEnd
  0
BLOCK
  5
698
330
697
100
AcDbEntity
  8
0
  6
ByBlock
 62
     0
370
    -2
100
AcDbBlockBegin
  2
_OPEN30
 70
     2
 10
0.0
 20
0.0
 30
0.0
  3
_OPEN30
  1

  0
LINE
  5
699
330
697
100
AcDbEntity
  8
0
  6
ByBlock
 62
     0
370
    -2
100
AcDbLine
 10
-1.0
 20
0.267949
 30
0.0
 11
0.0
 21
0.0
 31
0.0
  0
LINE
  5
69A
330
697
100
AcDbEntity
  8
0
  6
ByBlock
 62
     0
370
    -2
100
AcDbLine
 10
0.0
 20
0.0
 30
0.0
 11
-1.0
 21
-0.267949
 31
0.0
  0
LINE
  5
69B
330
697
100
AcDbEntity
  8
0
  6
ByBlock
 62
     0
370
    -2
100
AcDbLine
 10
0.0
 20
0.0
 30
0.0
 11
-1.0
 21
0.0
 31
0.0
  0
ENDBLK
  5
69C
330
697
100
AcDbEntity
  8
0
  6
ByBlock
 62
     0
370
    -2
100
AcDbBlockEnd
  0
BLOCK
  5
34B2
330
34B1
100
AcDbEntity
  8
0
100
AcDbBlockBegin
  2
_OPEN
 70
     0
 10
0.0
 20
0.0
 30
0.0
  3
_OPEN
  1

  0
LINE
  5
34B3
330
34B1
100
AcDbEntity
  8
0
  6
ByBlock
 62
     0
100
AcDbLine
 10
0.0
 20
0.0
 30
0.0
 11
-1.0
 21
0.1766666667
 31
0.0
  0
LINE
  5
34B4
330
34B1
100
AcDbEntity
  8
0
  6
ByBlock
 62
     0
100
AcDbLine
 10
-1.0
 20
-0.1766666667
 30
0.0
 11
0.0
 21
0.0
 31
0.0
  0
LINE
  5
34B5
330
34B1
100
AcDbEntity
  8
0
  6
ByBlock
 62
     0
100
AcDbLine
 10
-1.0
 20
0.0
 30
0.0
 11
0.0
 21
0.0
 31
0.0
  0
ENDBLK
  5
34B6
330
34B1
100
AcDbEntity
  8
0
  6
ByBlock
 62
     0
100
AcDbBlockEnd
  0
BLOCK
  5
50E70
330
50E6F
100
AcDbEntity
  8
0
100
AcDbBlockBegin
  2
_None
 70
     0
 10
0.0
 20
0.0
 30
0.0
  3
_None
  1

  0
ENDBLK
  5
50E71
330
50E6F
100
AcDbEntity
  8
0
100
AcDbBlockEnd
  0
BLOCK
  5
54C7E
330
54C73
100
AcDbEntity
  8
0
100
AcDbBlockBegin
  2
*D10
 70
     1
 10
0.0
 20
0.0
 30
0.0
  3
*D10
  1

  0
LINE
  5
5591C
330
54C73
100
AcDbEntity
  8
2
100
AcDbLine
 10
35.80000299999995
 20
-5.750000000000007
 30
0.0
 11
27.41912465103121
 21
-5.750000000000005
 31
0.0
  0
LINE
  5
5591D
330
54C73
100
AcDbEntity
  8
2
100
AcDbLine
 10
35.80000299999995
 20
5.75
 30
0.0
 11
27.41912465103121
 21
5.750000000000002
 31
0.0
  0
LINE
  5
5591E
330
54C73
100
AcDbEntity
  8
2
100
AcDbLine
 10
28.91912465103122
 20
9.25
 30
0.0
 11
28.91912465103122
 21
12.75
 31
0.0
  0
LINE
  5
5591F
330
54C73
100
AcDbEntity
  8
2
100
AcDbLine
 10
28.91912465103121
 20
-9.250000000000007
 30
0.0
 11
28.9191246510312
 21
-58.13416372641142
 31
0.0
  0
SOLID
  5
55920
330
54C73
100
AcDbEntity
  8
2
100
AcDbTrace
 10
28.33579131769789
 20
9.25
 30
0.0
 11
29.50245798436455
 21
9.25
 31
0.0
 12
28.91912465103122
 22
5.750000000000001
 32
0.0
 13
28.91912465103122
 23
5.750000000000001
 33
0.0
  0
SOLID
  5
55921
330
54C73
100
AcDbEntity
  8
2
100
AcDbTrace
 10
28.33579131769788
 20
-9.250000000000007
 30
0.0
 11
29.50245798436455
 21
-9.250000000000007
 31
0.0
 12
28.91912465103122
 22
-5.750000000000006
 32
0.0
 13
28.91912465103122
 23
-5.750000000000006
 33
0.0
  0
MTEXT
  5
55922
330
54C73
100
AcDbEntity
  8
2
100
AcDbMText
 10
24.86912465103121
 20
-37.16749705974475
 30
0.0
 40
3.5
 41
0.0
 71
     5
 72
     1
  1
\A1;%%C11.5 [%%C.453"]
  7
simplex
 11
0.0000000000000001
 21
1.0
 31
0.0
 73
     1
 44
1.0
1001
ACAD
1000
MTEXTBEGIN
1070
    73
1070
     1
1070
    44
1040
1.0
1070
    74
1070
     0
1000
MTEXTEND
  0
POINT
  5
55923
330
54C73
100
AcDbEntity
  8
Defpoints
 62
     0
100
AcDbPoint
 10
35.80000299999995
 20
-5.750000000000007
 30
0.0
  0
POINT
  5
55924
330
54C73
100
AcDbEntity
  8
Defpoints
 62
     0
100
AcDbPoint
 10
35.80000299999995
 20
5.75
 30
0.0
  0
POINT
  5
55925
330
54C73
100
AcDbEntity
  8
Defpoints
 62
     0
100
AcDbPoint
 10
28.91912465103122
 20
5.750000000000001
 30
0.0
  0
ENDBLK
  5
54C7F
330
54C73
100
AcDbEntity
  8
0
100
AcDbBlockEnd
  0
BLOCK
  5
5636D
330
56363
100
AcDbEntity
  8
0
100
AcDbBlockBegin
  2
*D88
 70
     1
 10
0.0
 20
0.0
 30
0.0
  3
*D88
  1

  0
LINE
  5
56464
330
56363
100
AcDbEntity
  8
2
100
AcDbLine
 10
50.80000299999994
 20
6.349999999999965
 30
0.0
 11
50.80000299999994
 21
40.63686916212304
 31
0.0
  0
LINE
  5
56465
330
56363
100
AcDbEntity
  8
2
100
AcDbLine
 10
0.0000029999999924
 20
6.350000499999964
 30
0.0
 11
0.0000029999999945
 21
40.63686916212304
 31
0.0
  0
LINE
  5
56466
330
56363
100
AcDbEntity
  8
2
100
AcDbLine
 10
47.30000299999995
 20
39.13686916212305
 30
0.0
 11
3.500002999999994
 21
39.13686916212305
 31
0.0
  0
SOLID
  5
56467
330
56363
100
AcDbEntity
  8
2
100
AcDbTrace
 10
47.30000299999995
 20
39.72020249545638
 30
0.0
 11
47.30000299999995
 21
38.55353582878971
 31
0.0
 12
50.80000299999994
 22
39.13686916212305
 32
0.0
 13
50.80000299999994
 23
39.13686916212305
 33
0.0
  0
SOLID
  5
56468
330
56363
100
AcDbEntity
  8
2
100
AcDbTrace
 10
3.500002999999994
 20
39.72020249545638
 30
0.0
 11
3.500002999999994
 21
38.55353582878971
 31
0.0
 12
0.0000029999999944
 22
39.13686916212305
 32
0.0
 13
0.0000029999999944
 23
39.13686916212305
 33
0.0
  0
MTEXT
  5
56469
330
56363
100
AcDbEntity
  8
2
100
AcDbMText
 10
25.53532371319193
 20
43.18686916212304
 30
0.0
 40
3.5
 41
0.0
 71
     5
 72
     1
  1
\A1;50.8 [2.000"]
  7
simplex
 73
     1
 44
1.0
1001
ACAD
1000
MTEXTBEGIN
1070
    73
1070
     1
1070
    44
1040
1.0
1070
    74
1070
     0
1000
MTEXTEND
  0
POINT
  5
5646A
330
56363
100
AcDbEntity
  8
Defpoints
 62
     0
100
AcDbPoint
 10
50.80000299999994
 20
6.349999999999965
 30
0.0
  0
POINT
  5
5646B
330
56363
100
AcDbEntity
  8
Defpoints
 62
     0
100
AcDbPoint
 10
0.0000029999999924
 20
6.350000499999964
 30
0.0
  0
POINT
  5
5646C
330
56363
100
AcDbEntity
  8
Defpoints
 62
     0
100
AcDbPoint
 10
0.0000029999999944
 20
39.13686916212305
 30
0.0
  0
ENDBLK
  5
5636E
330
56363
100
AcDbEntity
  8
0
100
AcDbBlockEnd
  0
BLOCK
  5
56379
330
5636F
100
AcDbEntity
  8
0
100
AcDbBlockBegin
  2
*D89
 70
     1
 10
0.0
 20
0.0
 30
0.0
  3
*D89
  1

  0
LINE
  5
56477
330
5636F
100
AcDbEntity
  8
sk2
100
AcDbLine
 10
-69.84999700000003
 20
6.641602860002194
 30
0.0
 11
-69.84999700000003
 21
53.81903263185392
 31
0.0
  0
LINE
  5
56478
330
5636F
100
AcDbEntity
  8
sk2
100
AcDbLine
 10
50.80000299999994
 20
3.078728083596047
 30
0.0
 11
50.80000299999994
 21
53.81903263185392
 31
0.0
  0
LINE
  5
56479
330
5636F
100
AcDbEntity
  8
sk2
100
AcDbLine
 10
-66.34999700000003
 20
52.31903263185393
 30
0.0
 11
47.30000299999995
 21
52.31903263185393
 31
0.0
  0
SOLID
  5
5647A
330
5636F
100
AcDbEntity
  8
sk2
100
AcDbTrace
 10
-66.34999700000003
 20
52.90236596518727
 30
0.0
 11
-66.34999700000003
 21
51.73569929852059
 31
0.0
 12
-69.84999700000003
 22
52.31903263185393
 32
0.0
 13
-69.84999700000003
 23
52.31903263185393
 33
0.0
  0
SOLID
  5
5647B
330
5636F
100
AcDbEntity
  8
sk2
100
AcDbTrace
 10
47.30000299999995
 20
52.90236596518727
 30
0.0
 11
47.30000299999995
 21
51.73569929852059
 31
0.0
 12
50.80000299999994
 22
52.31903263185393
 32
0.0
 13
50.80000299999994
 23
52.31903263185393
 33
0.0
  0
MTEXT
  5
5647C
330
5636F
100
AcDbEntity
  8
sk2
100
AcDbMText
 10
-12.79263832285596
 20
56.36903263185392
 30
0.0
 40
3.5
 41
0.0
 71
     5
 72
     1
  1
\A1;120.65 [4.750"]
  7
simplex
 73
     1
 44
0.892857
1001
ACAD
1000
MTEXTBEGIN
1070
    73
1070
     1
1070
    44
1040
0.892857
1070
    74
1070
     0
1000
MTEXTEND
  0
POINT
  5
5647D
330
5636F
100
AcDbEntity
  8
Defpoints
 62
     0
100
AcDbPoint
 10
-69.84999700000003
 20
6.641602860002194
 30
0.0
  0
POINT
  5
5647E
330
5636F
100
AcDbEntity
  8
Defpoints
 62
     0
100
AcDbPoint
 10
50.80000299999994
 20
3.078728083596047
 30
0.0
  0
POINT
  5
5647F
330
5636F
100
AcDbEntity
  8
Defpoints
 62
     0
100
AcDbPoint
 10
50.80000299999994
 20
52.31903263185393
 30
0.0
  0
ENDBLK
  5
5637A
330
5636F
100
AcDbEntity
  8
0
100
AcDbBlockEnd
  0
BLOCK
  5
56386
330
5637B
100
AcDbEntity
  8
0
100
AcDbBlockBegin
  2
*D90
 70
     1
 10
0.0
 20
0.0
 30
0.0
  3
*D90
  1

  0
LINE
  5
56480
330
5637B
100
AcDbEntity
  8
2
100
AcDbLine
 10
35.79999500000003
 20
5.749999999999971
 30
0.0
 11
35.79999500000003
 21
27.09157037082821
 31
0.0
  0
LINE
  5
56481
330
5637B
100
AcDbEntity
  8
2
100
AcDbLine
 10
50.79999499999996
 20
17.60461399999991
 30
0.0
 11
50.79999499999996
 21
27.09157037082821
 31
0.0
  0
LINE
  5
56482
330
5637B
100
AcDbEntity
  8
2
100
AcDbLine
 10
47.29999499999997
 20
25.59157037082821
 30
0.0
 11
39.29999500000003
 21
25.59157037082821
 31
0.0
  0
LINE
  5
56483
330
5637B
100
AcDbEntity
  8
2
100
AcDbLine
 10
35.79999500000003
 20
25.59157037082821
 30
0.0
 11
2.033328333333308
 21
25.59157037082821
 31
0.0
  0
SOLID
  5
56484
330
5637B
100
AcDbEntity
  8
2
100
AcDbTrace
 10
47.29999499999997
 20
26.17490370416154
 30
0.0
 11
47.29999499999997
 21
25.00823703749488
 31
0.0
 12
50.79999499999996
 22
25.59157037082821
 32
0.0
 13
50.79999499999996
 23
25.59157037082821
 33
0.0
  0
SOLID
  5
56485
330
5637B
100
AcDbEntity
  8
2
100
AcDbTrace
 10
39.29999500000003
 20
26.17490370416154
 30
0.0
 11
39.29999500000003
 21
25.00823703749488
 31
0.0
 12
35.79999500000003
 22
25.59157037082821
 32
0.0
 13
35.79999500000003
 23
25.59157037082821
 33
0.0
  0
MTEXT
  5
56486
330
5637B
100
AcDbEntity
  8
2
100
AcDbMText
 10
17.16666166666664
 20
29.6415703708282
 30
0.0
 40
3.5
 41
0.0
 71
     5
 72
     1
  1
\A1;15 [.591"]
  7
simplex
 73
     1
 44
0.892857
1001
ACAD
1000
MTEXTBEGIN
1070
    73
1070
     1
1070
    44
1040
0.892857
1070
    74
1070
     0
1000
MTEXTEND
  0
POINT
  5
56487
330
5637B
100
AcDbEntity
  8
Defpoints
 62
     0
100
AcDbPoint
 10
35.79999500000003
 20
5.749999999999971
 30
0.0
  0
POINT
  5
56488
330
5637B
100
AcDbEntity
  8
Defpoints
 62
     0
100
AcDbPoint
 10
50.79999499999996
 20
17.60461399999991
 30
0.0
  0
POINT
  5
56489
330
5637B
100
AcDbEntity
  8
Defpoints
 62
     0
100
AcDbPoint
 10
50.79999499999996
 20
25.59157037082821
 30
0.0
  0
ENDBLK
  5
56387
330
5637B
100
AcDbEntity
  8
0
100
AcDbBlockEnd
  0
BLOCK
  5
56391
330
56388
100
AcDbEntity
  8
0
100
AcDbBlockBegin
  2
*D91
 70
     1
 10
0.0
 20
0.0
 30
0.0
  3
*D91
  1

  0
LINE
  5
56494
330
56388
100
AcDbEntity
  8
2
100
AcDbLine
 10
48.06451091538145
 20
6.000000000000014
 30
0.0
 11
71.21937666103088
 21
6.000000000000007
 31
0.0
  0
LINE
  5
56495
330
56388
100
AcDbEntity
  8
2
100
AcDbLine
 10
69.71937666103087
 20
2.500000000000008
 30
0.0
 11
69.71937666103087
 21
-5.999999999999978
 31
0.0
  0
LINE
  5
56496
330
56388
100
AcDbEntity
  8
2
100
AcDbLine
 10
69.71937666103087
 20
-5.999999999999978
 30
0.0
 11
69.71937666103086
 21
-47.93333333333331
 31
0.0
  0
SOLID
  5
56497
330
56388
100
AcDbEntity
  8
2
100
AcDbTrace
 10
69.13604332769755
 20
2.500000000000008
 30
0.0
 11
70.30270999436421
 21
2.500000000000008
 31
0.0
 12
69.71937666103087
 22
6.000000000000008
 32
0.0
 13
69.71937666103087
 23
6.000000000000008
 33
0.0
  0
MTEXT
  5
56498
330
56388
100
AcDbEntity
  8
2
100
AcDbMText
 10
65.66937666103088
 20
-28.71666666666664
 30
0.0
 40
3.5
 41
0.0
 71
     5
 72
     1
  1
\A1;%%c12 [%%c.472"]
  7
simplex
 11
0.0000000000000001
 21
1.0
 31
0.0
 73
     1
 44
1.0
1001
ACAD
1000
MTEXTBEGIN
1070
    73
1070
     1
1070
    44
1040
1.0
1070
    74
1070
     0
1000
MTEXTEND
  0
POINT
  5
56499
330
56388
100
AcDbEntity
  8
Defpoints
 62
     0
100
AcDbPoint
 10
48.06451091538145
 20
6.000000000000014
 30
0.0
  0
POINT
  5
5649A
330
56388
100
AcDbEntity
  8
Defpoints
 62
     0
100
AcDbPoint
 10
44.80000299999995
 20
-5.999999999999971
 30
0.0
  0
POINT
  5
5649B
330
56388
100
AcDbEntity
  8
Defpoints
 62
     0
100
AcDbPoint
 10
69.71937666103087
 20
-5.999999999999978
 30
0.0
  0
ENDBLK
  5
56392
330
56388
100
AcDbEntity
  8
0
100
AcDbBlockEnd
  0
BLOCK
  5
563D2
330
563C7
100
AcDbEntity
  8
0
100
AcDbBlockBegin
  2
*D96
 70
     1
 10
0.0
 20
0.0
 30
0.0
  3
*D96
  1

  0
LINE
  5
5646D
330
563C7
100
AcDbEntity
  8
2
100
AcDbLine
 10
35.80000299999995
 20
-5.75
 30
0.0
 11
27.41912465103121
 21
-5.749999999999997
 31
0.0
  0
LINE
  5
5646E
330
563C7
100
AcDbEntity
  8
2
100
AcDbLine
 10
35.80000299999995
 20
5.75
 30
0.0
 11
27.41912465103121
 21
5.750000000000002
 31
0.0
  0
LINE
  5
5646F
330
563C7
100
AcDbEntity
  8
2
100
AcDbLine
 10
28.91912465103122
 20
9.25
 30
0.0
 11
28.91912465103122
 21
12.75
 31
0.0
  0
LINE
  5
56470
330
563C7
100
AcDbEntity
  8
2
100
AcDbLine
 10
28.91912465103121
 20
-9.25
 30
0.0
 11
28.9191246510312
 21
-58.13416372641142
 31
0.0
  0
SOLID
  5
56471
330
563C7
100
AcDbEntity
  8
2
100
AcDbTrace
 10
28.33579131769789
 20
9.25
 30
0.0
 11
29.50245798436455
 21
9.25
 31
0.0
 12
28.91912465103122
 22
5.750000000000001
 32
0.0
 13
28.91912465103122
 23
5.750000000000001
 33
0.0
  0
SOLID
  5
56472
330
563C7
100
AcDbEntity
  8
2
100
AcDbTrace
 10
28.33579131769788
 20
-9.25
 30
0.0
 11
29.50245798436455
 21
-9.25
 31
0.0
 12
28.91912465103122
 22
-5.749999999999998
 32
0.0
 13
28.91912465103122
 23
-5.749999999999998
 33
0.0
  0
MTEXT
  5
56473
330
563C7
100
AcDbEntity
  8
2
100
AcDbMText
 10
24.86912465103121
 20
-37.16749705974475
 30
0.0
 40
3.5
 41
0.0
 71
     5
 72
     1
  1
\A1;%%C11.5 [%%C.453"]
  7
simplex
 11
0.0000000000000001
 21
1.0
 31
0.0
 73
     1
 44
1.0
1001
ACAD
1000
MTEXTBEGIN
1070
    73
1070
     1
1070
    44
1040
1.0
1070
    74
1070
     0
1000
MTEXTEND
  0
POINT
  5
56474
330
563C7
100
AcDbEntity
  8
Defpoints
 62
     0
100
AcDbPoint
 10
35.80000299999995
 20
-5.75
 30
0.0
  0
POINT
  5
56475
330
563C7
100
AcDbEntity
  8
Defpoints
 62
     0
100
AcDbPoint
 10
35.80000299999995
 20
5.75
 30
0.0
  0
POINT
  5
56476
330
563C7
100
AcDbEntity
  8
Defpoints
 62
     0
100
AcDbPoint
 10
28.91912465103122
 20
5.750000000000001
 30
0.0
  0
ENDBLK
  5
563D3
330
563C7
100
AcDbEntity
  8
0
100
AcDbBlockEnd
  0
BLOCK
  5
563F2
330
563E7
100
AcDbEntity
  8
0
100
AcDbBlockBegin
  2
*D97
 70
     1
 10
0.0
 20
0.0
 30
0.0
  3
*D97
  1

  0
LINE
  5
5648A
330
563E7
100
AcDbEntity
  8
sk2
100
AcDbLine
 10
-68.64999399999999
 20
-7.937499999999985
 30
0.0
 11
-86.09050639981438
 21
-7.93749999999998
 31
0.0
  0
LINE
  5
5648B
330
563E7
100
AcDbEntity
  8
sk2
100
AcDbLine
 10
-68.64999399999999
 20
7.9375
 30
0.0
 11
-86.09050639981438
 21
7.937500000000005
 31
0.0
  0
LINE
  5
5648C
330
563E7
100
AcDbEntity
  8
sk2
100
AcDbLine
 10
-84.59050639981439
 20
4.437500000000004
 30
0.0
 11
-84.59050639981439
 21
-4.437499999999981
 31
0.0
  0
LINE
  5
5648D
330
563E7
100
AcDbEntity
  8
sk2
100
AcDbLine
 10
-84.59050639981439
 20
-7.937499999999981
 30
0.0
 11
-84.59050639981439
 21
-61.53750000000003
 31
0.0
  0
SOLID
  5
5648E
330
563E7
100
AcDbEntity
  8
sk2
100
AcDbTrace
 10
-85.17383973314771
 20
4.437500000000004
 30
0.0
 11
-84.00717306648106
 21
4.437500000000004
 31
0.0
 12
-84.59050639981439
 22
7.937500000000004
 32
0.0
 13
-84.59050639981439
 23
7.937500000000004
 33
0.0
  0
SOLID
  5
5648F
330
563E7
100
AcDbEntity
  8
sk2
100
AcDbTrace
 10
-85.17383973314771
 20
-4.437499999999981
 30
0.0
 11
-84.00717306648106
 21
-4.437499999999981
 31
0.0
 12
-84.59050639981439
 22
-7.937499999999981
 32
0.0
 13
-84.59050639981439
 23
-7.937499999999981
 33
0.0
  0
MTEXT
  5
56490
330
563E7
100
AcDbEntity
  8
sk2
100
AcDbMText
 10
-88.64050639981439
 20
-36.48750000000004
 30
0.0
 40
3.5
 41
0.0
 71
     5
 72
     1
  1
\A1;%%C15.875 [%%C.625"]
  7
simplex
 11
0.0000000000000001
 21
1.0
 31
0.0
 73
     1
 44
1.0
1001
ACAD
1000
MTEXTBEGIN
1070
    73
1070
     1
1070
    44
1040
1.0
1070
    74
1070
     0
1000
MTEXTEND
  0
POINT
  5
56491
330
563E7
100
AcDbEntity
  8
Defpoints
 62
     0
100
AcDbPoint
 10
-68.64999399999999
 20
-7.937499999999985
 30
0.0
  0
POINT
  5
56492
330
563E7
100
AcDbEntity
  8
Defpoints
 62
     0
100
AcDbPoint
 10
-68.64999399999999
 20
7.9375
 30
0.0
  0
POINT
  5
56493
330
563E7
100
AcDbEntity
  8
Defpoints
 62
     0
100
AcDbPoint
 10
-84.59050639981439
 20
7.937500000000004
 30
0.0
  0
ENDBLK
  5
563F3
330
563E7
100
AcDbEntity
  8
0
100
AcDbBlockEnd
  0
BLOCK
  5
56404
330
563FC
100
AcDbEntity
  8
0
100
AcDbBlockBegin
  2
*D98
 70
     1
 10
0.0
 20
0.0
 30
0.0
  3
*D98
  1

  0
LINE
  5
564A3
330
563FC
100
AcDbEntity
  8
2
100
AcDbLine
 10
83.39591721953363
 20
28.34992744832467
 30
0.0
 11
53.08651086982321
 21
6.667115564886305
 31
0.0
  0
MTEXT
  5
564A4
330
563FC
100
AcDbEntity
  8
2
100
AcDbMText
 10
67.30810330185376
 20
21.82063286203512
 30
0.0
 40
3.5
 41
0.0
 71
     5
 72
     1
  1
\A1;R3 [R.118"]
  7
simplex
 11
0.8133114405110138
 21
0.5818285836343034
 31
0.0
 73
     1
 44
1.0
1001
ACAD
1000
MTEXTBEGIN
1070
    73
1070
     1
1070
    44
1040
1.0
1070
    74
1070
     0
1000
MTEXTEND
  0
SOLID
  5
564A5
330
563FC
100
AcDbEntity
  8
2
100
AcDbTrace
 10
52.74711086270319
 20
7.141547238517727
 30
0.0
 11
53.42591087694321
 21
6.19268389125488
 31
0.0
 12
50.23992082803466
 22
4.630715522166244
 32
0.0
 13
50.23992082803466
 23
4.630715522166244
 33
0.0
  0
LINE
  5
564A6
330
563FC
100
AcDbEntity
  8
2
100
AcDbLine
 10
47.70998650650168
 20
2.885229771263382
 30
0.0
 11
47.88998650650168
 21
2.885229771263382
 31
0.0
  0
LINE
  5
564A7
330
563FC
100
AcDbEntity
  8
2
100
AcDbLine
 10
47.79998650650168
 20
2.795229771263379
 30
0.0
 11
47.79998650650167
 21
2.975229771263379
 31
0.0
  0
POINT
  5
564A8
330
563FC
100
AcDbEntity
  8
Defpoints
 62
     0
100
AcDbPoint
 10
50.23992082803466
 20
4.630715522166244
 30
0.0
  0
POINT
  5
564A9
330
563FC
100
AcDbEntity
  8
Defpoints
 62
     0
100
AcDbPoint
 10
47.79998650650168
 20
2.885229771263382
 30
0.0
  0
ENDBLK
  5
56405
330
563FC
100
AcDbEntity
  8
0
100
AcDbBlockEnd
  0
ENDSEC
  0
SECTION
  2
ENTITIES
  0
INSERT
  5
68C
330
1F
100
AcDbEntity
  8
0
100
AcDbBlockReference
  2
zero block
 10
0.0
 20
0.0
 30
0.0
  0
MTEXT
  5
53AD9
330
1F
100
AcDbEntity
  8
sk6
100
AcDbMText
 10
-69.54559044197458
 20
84.56961532674586
 30
0.0
 40
5.0
 41
70.03712541027798
 71
     1
 72
     5
  1
SRFU08S10M\PSUFT12R30
  7
simplex
 73
     1
 44
1.0
1001
ACAD
1000
ACAD_MTEXT_DEFINED_HEIGHT_BEGIN
1070
    46
1040
0.0
1000
ACAD_MTEXT_DEFINED_HEIGHT_END
1000
MTEXTBEGIN
1070
    73
1070
     1
1070
    44
1040
1.0
1070
    74
1070
     0
1000
MTEXTEND
  0
DIMENSION
  5
56186
330
1F
100
AcDbEntity
  8
2
100
AcDbDimension
  2
*D88
 10
0.0000029999999944
 20
39.13686916212305
 30
0.0
 11
25.53532371319193
 21
39.13686916212305
 31
0.0
 70
   160
 71
     5
 42
50.79999999999995
  3
\M+18352\M+18373\M+1815B - ISO-25
100
AcDbAlignedDimension
 13
50.80000299999994
 23
6.349999999999965
 33
0.0
 14
0.0000029999999924
 24
6.350000499999964
 34
0.0
 50
180.0
100
AcDbRotatedDimension
1001
ACAD
1000
DSTYLE
1002
{
1070
     4
1000
"
1070
    40
1040
1.0
1070
   143
1040
0.03937
1070
   170
1070
     1
1070
   171
1070
     3
1070
   271
1070
     8
1070
   285
1070
     4
1002
}
  0
SPLINE
  5
56187
330
1F
100
AcDbEntity
  8
1
100
AcDbSpline
210
0.0
220
0.0
230
1.0
 70
     8
 71
     3
 72
    10
 73
     6
 74
     4
 42
0.0000000001
 43
0.0000000001
 44
0.000001
 12
0.9650356897166268
 22
-0.2621185181805258
 32
0.0
 13
0.9223637646072724
 23
-0.3863225151858227
 33
0.0
 40
0.0
 40
0.0
 40
0.0
 40
0.0
 40
0.764039005802932
 40
1.533174933640696
 40
2.300551820622076
 40
2.300551820622076
 40
2.300551820622076
 40
2.300551820622076
 10
42.62568618749992
 20
4.608642103515535
 30
0.0
 10
42.87146115714506
 20
4.54188584617114
 30
0.0
 10
43.36180867125972
 20
4.397213103579019
 30
0.0
 10
44.08756284192384
 20
4.148852424762367
 30
0.0
 10
44.56440474232647
 20
3.961366676540251
 30
0.0
 10
44.80033828710936
 20
3.862548353515535
 30
0.0
 11
42.62568618749992
 21
4.608642103515535
 31
0.0
 11
43.35852004980461
 21
4.392516615234399
 31
0.0
 11
44.0861430356445
 21
4.143249037109342
 31
0.0
 11
44.80033828710936
 21
3.862548353515535
 31
0.0
  0
SPLINE
  5
56188
330
1F
100
AcDbEntity
  8
1
100
AcDbSpline
210
0.0
220
0.0
230
1.0
 70
     8
 71
     3
 72
     8
 73
     4
 74
     0
 42
0.0000000001
 43
0.0000000001
 40
0.0
 40
0.0
 40
0.0
 40
0.0
 40
0.5463012196666999
 40
0.5463012196666999
 40
0.5463012196666999
 40
0.5463012196666999
 10
40.26698257421867
 20
5.195189955078092
 30
0.0
 10
40.44499454794709
 20
5.156819454989715
 30
0.0
 10
40.62271118985973
 20
5.117049478877675
 30
0.0
 10
40.8000516914978
 20
5.075677716626358
 30
0.0
  0
SPLINE
  5
56189
330
1F
100
AcDbEntity
  8
1
100
AcDbSpline
210
0.0
220
0.0
230
1.0
 70
     8
 71
     3
 72
    11
 73
     7
 74
     0
 42
0.0000000001
 43
0.0000000001
 40
0.5463012196666999
 40
0.5463012196666999
 40
0.5463012196666999
 40
0.5463012196666999
 40
0.572560241578073
 40
1.173774481261014
 40
1.794959738262245
 40
2.430813038627595
 40
2.430813038627595
 40
2.430813038627595
 40
2.430813038627595
 10
40.8000516914978
 20
5.075677716626358
 30
0.0
 10
40.80857590479013
 20
5.073689103069654
 30
0.0
 10
41.01224573804574
 20
5.026081694056131
 30
0.0
 10
41.41654673005848
 20
4.927113300972905
 30
0.0
 10
42.01640066872426
 20
4.772636735664605
 30
0.0
 10
42.42120818450348
 20
4.664427541878978
 30
0.0
 10
42.62568618749992
 20
4.608642103515535
 30
0.0
  0
SPLINE
  5
5618A
330
1F
100
AcDbEntity
  8
1
100
AcDbSpline
210
0.0
220
0.0
230
1.0
 70
     8
 71
     3
 72
    10
 73
     6
 74
     4
 42
0.0000000001
 43
0.0000000001
 44
0.000001
 12
0.9992380131607138
 22
-0.0390306681294253
 32
0.0
 13
0.9845565048197173
 23
-0.1750670980429567
 33
0.0
 40
0.0
 40
0.0
 40
0.0
 40
0.0
 40
0.1835697298275835
 40
0.398288399086534
 40
0.637228443835819
 40
0.637228443835819
 40
0.637228443835819
 40
0.637228443835819
 10
39.07240249609373
 20
5.380095960937467
 30
0.0
 10
39.13354578013019
 20
5.377707677869636
 30
0.0
 10
39.26614465907653
 20
5.369395465275914
 30
0.0
 10
39.47685665855999
 20
5.341915263173632
 30
0.0
 10
39.62629479761472
 20
5.318661056382211
 30
0.0
 10
39.70471145605467
 20
5.304717542968717
 30
0.0
 11
39.07240249609373
 21
5.380095960937467
 31
0.0
 11
39.25558425878904
 21
5.368163587890592
 31
0.0
 11
39.46871902441404
 21
5.342132093749967
 31
0.0
 11
39.70471145605467
 21
5.304717542968717
 31
0.0
  0
SPLINE
  5
5618B
330
1F
100
AcDbEntity
  8
1
100
AcDbSpline
210
0.0
220
0.0
230
1.0
 70
     8
 71
     3
 72
    21
 73
    17
 74
    15
 42
0.0000000001
 43
0.0000000001
 44
0.000001
 12
0.9216785663988003
 22
-0.3879544048481113
 32
0.0
 13
0.5206995909959633
 23
-0.8537399697429169
 33
0.0
 40
0.0
 40
0.0
 40
0.0
 40
0.0
 40
0.5301214347112392
 40
1.077157433463644
 40
1.632485665366771
 40
2.213835893196905
 40
2.795841884737309
 40
3.368614964653469
 40
3.928005971472934
 40
4.46870220419807
 40
4.98016921235316
 40
5.443678419843723
 40
5.869089330858194
 40
6.24645575201102
 40
6.498424543041665
 40
6.716659330773357
 40
6.716659330773357
 40
6.716659330773357
 40
6.716659330773357
 10
44.80033828710936
 20
3.862548353515535
 30
0.0
 10
44.96320547509663
 20
3.793994038281994
 30
0.0
 10
45.2911133623445
 20
3.647364942207047
 30
0.0
 10
45.77719639696584
 20
3.402360707595391
 30
0.0
 10
46.26703339650612
 20
3.128027071149176
 30
0.0
 10
46.75344972188452
 20
2.824967208251507
 30
0.0
 10
47.23076980845235
 20
2.497436497178085
 30
0.0
 10
47.6876012114481
 20
2.153910547647683
 30
0.0
 10
48.11780219351629
 20
1.798850108915843
 30
0.0
 10
48.51751221259736
 20
1.439737158415937
 30
0.0
 10
48.87897739559559
 20
1.08652922594311
 30
0.0
 10
49.19843957358785
 20
0.7459834787193245
 30
0.0
 10
49.47419957824428
 20
0.4262484475601412
 30
0.0
 10
49.69166302218332
 20
0.1498186977937621
 30
0.0
 10
49.85614286086286
 20
-0.0800134940832322
 30
0.0
 10
49.9406063945097
 20
-0.2121261779490169
 30
0.0
 10
49.97848464941404
 20
-0.2742314316406578
 30
0.0
 11
44.80033828710936
 21
3.862548353515535
 31
0.0
 11
45.28422500585935
 21
3.646026136718717
 31
0.0
 11
45.77287246679685
 21
3.400115492187467
 31
0.0
 11
46.25731613134763
 21
3.128631117187467
 31
0.0
 11
46.75091506933592
 21
2.821502210937467
 31
0.0
 11
47.23083450292967
 21
2.492248060546785
 31
0.0
 11
47.6884608457031
 21
2.147796156249967
 31
0.0
 11
48.12000991796873
 21
1.791869642578092
 31
0.0
 11
48.52210952734373
 21
1.430388929687467
 31
0.0
 11
48.88763381933592
 21
1.072631361328092
 31
0.0
 11
49.20462753271483
 21
0.7344660781249673
 31
0.0
 11
49.48204757666013
 21
0.4119563124999673
 31
0.0
 11
49.71477462744139
 21
0.1148982070312172
 31
0.0
 11
49.86074020361326
 21
-0.0904850937500328
 31
0.0
 11
49.97848464941404
 21
-0.2742314316406578
 31
0.0
  0
SPLINE
  5
5618C
330
1F
100
AcDbEntity
  8
1
100
AcDbSpline
210
0.0
220
0.0
230
1.0
 70
     8
 71
     3
 72
    21
 73
    17
 74
    15
 42
0.0000000001
 43
0.0000000001
 44
0.000001
 12
0.999999013931181
 22
0.001404327834146
 32
0.0
 13
0.0541299792816777
 23
0.9985338979438632
 33
0.0
 40
0.0
 40
0.0
 40
0.0
 40
0.0
 40
0.5827374161316092
 40
1.167328770258596
 40
1.75005298055976
 40
2.332800278349676
 40
2.917386152526665
 40
3.500121267031759
 40
4.082791390541663
 40
4.667323391609665
 40
5.250003556959729
 40
5.832335799914069
 40
6.416519186882956
 40
6.998857841921565
 40
7.424561447293661
 40
7.850297666896672
 40
7.850297666896672
 40
7.850297666896672
 40
7.850297666896672
 10
44.80033828710936
 20
-5.167236802734464
 30
0.0
 10
44.99458390094685
 20
-5.166964017943314
 30
0.0
 10
45.38402821744234
 20
-5.144900578617409
 30
0.0
 10
45.96019719902767
 20
-5.046600780745109
 30
0.0
 10
46.52210933437163
 20
-4.885255980509725
 30
0.0
 10
47.06169840114398
 20
-4.660277124719073
 30
0.0
 10
47.57298317946333
 20
-4.376968688426757
 30
0.0
 10
48.04971886571263
 20
-4.038635343303184
 30
0.0
 10
48.48441374440819
 20
-3.64778524089769
 30
0.0
 10
48.87298500739166
 20
-3.211184257704758
 30
0.0
 10
49.21068757401667
 20
-2.734184706906489
 30
0.0
 10
49.49125587404807
 20
-2.221623245017099
 30
0.0
 10
49.71310616634048
 20
-1.68126833960008
 30
0.0
 10
49.85890343234456
 20
-1.169687373276417
 30
0.0
 10
49.94371701578348
 20
-0.6988422376393828
 30
0.0
 10
49.97080295183184
 20
-0.4159354472593578
 30
0.0
 10
49.97848464941404
 20
-0.2742314316406578
 30
0.0
 11
44.80033828710936
 21
-5.167236802734464
 31
0.0
 11
45.38213302587888
 21
-5.134094712890657
 31
0.0
 11
45.95842697119138
 21
-5.035950181640657
 31
0.0
 11
46.51838638281247
 21
-4.874664781250032
 31
0.0
 11
47.05642654394529
 21
-4.650818345703157
 31
0.0
 11
47.56774856542967
 21
-4.367462632812532
 31
0.0
 11
48.04273941015622
 21
-4.029877183593725
 31
0.0
 11
48.47628738378904
 21
-3.640594957031282
 31
0.0
 11
48.86489822363279
 21
-3.203949449218782
 31
0.0
 11
49.20124771093748
 21
-2.728149888671907
 31
0.0
 11
49.4812083432617
 21
-2.217529771484464
 31
0.0
 11
49.70301773046873
 21
-1.677093980468782
 31
0.0
 11
49.86234237646482
 21
-1.116974351562532
 31
0.0
 11
49.93789627050779
 21
-0.6980290390625328
 31
0.0
 11
49.97848464941404
 21
-0.2742314316406578
 31
0.0
  0
ARC
  5
5618D
330
1F
100
AcDbEntity
  8
1
100
AcDbCircle
 10
44.80033800000001
 20
0.0
 30
0.0
 40
2.5
100
AcDbArc
 50
89.99999699999904
 51
180.0
  0
ARC
  5
5618E
330
1F
100
AcDbEntity
  8
1
100
AcDbCircle
 10
44.80033800000001
 20
0.0
 30
0.0
 40
2.5
100
AcDbArc
 50
180.0
 51
270.0000029999977
  0
ARC
  5
5618F
330
1F
100
AcDbEntity
  8
1
100
AcDbCircle
 10
44.80033800000001
 20
0.0
 30
0.0
 40
2.5
100
AcDbArc
 50
270.0000029999977
 51
0.000004999999689
  0
ARC
  5
56190
330
1F
100
AcDbEntity
  8
1
100
AcDbCircle
 10
44.80033800000001
 20
0.0
 30
0.0
 40
2.5
100
AcDbArc
 50
359.9999950000003
 51
89.99999699999904
  0
ARC
  5
56191
330
1F
100
AcDbEntity
  8
1
100
AcDbCircle
 10
44.80033800000001
 20
-1.516510000000039
 30
0.0
 40
0.4880010000000001
100
AcDbArc
 50
43.60110900000129
 51
136.3988859999982
  0
ARC
  5
56192
330
1F
100
AcDbEntity
  8
1
100
AcDbCircle
 10
45.365272
 20
-0.9785160000000132
 30
0.0
 40
0.29213
100
AcDbArc
 50
223.6015470000015
 51
16.39845599999871
  0
ARC
  5
56193
330
1F
100
AcDbEntity
  8
1
100
AcDbCircle
 10
45.930206
 20
0.0
 30
0.0
 40
0.29213
100
AcDbArc
 50
283.6015320000003
 51
76.39847099999807
  0
ARC
  5
56194
330
1F
100
AcDbEntity
  8
1
100
AcDbCircle
 10
43.48700699999994
 20
0.7582389999999464
 30
0.0
 40
0.4880010000000001
100
AcDbArc
 50
283.6011150000006
 51
16.39889300000063
  0
ARC
  5
56195
330
1F
100
AcDbEntity
  8
1
100
AcDbCircle
 10
45.365272
 20
0.9784849999999778
 30
0.0
 40
0.29213
100
AcDbArc
 50
343.6015400000011
 51
136.3984589999976
  0
ARC
  5
56196
330
1F
100
AcDbEntity
  8
1
100
AcDbCircle
 10
43.48700699999994
 20
-0.7582710000000361
 30
0.0
 40
0.4880010000000001
100
AcDbArc
 50
343.6011169999994
 51
76.39888099999969
  0
ARC
  5
56197
330
1F
100
AcDbEntity
  8
1
100
AcDbCircle
 10
43.67047100000002
 20
0.0
 30
0.0
 40
0.29213
100
AcDbArc
 50
103.6015340000002
 51
256.3984590000014
  0
ARC
  5
56198
330
1F
100
AcDbEntity
  8
1
100
AcDbCircle
 10
46.11366199999998
 20
-0.7582710000000361
 30
0.0
 40
0.4880010000000001
100
AcDbArc
 50
103.6011170000005
 51
196.3988879999988
  0
ARC
  5
56199
330
1F
100
AcDbEntity
  8
1
100
AcDbCircle
 10
46.11366199999998
 20
0.7582389999999464
 30
0.0
 40
0.4880010000000001
100
AcDbArc
 50
163.601115
 51
256.3988829999995
  0
ARC
  5
5619A
330
1F
100
AcDbEntity
  8
1
100
AcDbCircle
 10
44.23540499999996
 20
-0.9785160000000132
 30
0.0
 40
0.29213
100
AcDbArc
 50
163.6015370000011
 51
316.3984679999999
  0
ARC
  5
5619B
330
1F
100
AcDbEntity
  8
1
100
AcDbCircle
 10
44.23540499999996
 20
0.9784849999999778
 30
0.0
 40
0.29213
100
AcDbArc
 50
43.6015320000001
 51
196.3984579999998
  0
ARC
  5
5619C
330
1F
100
AcDbEntity
  8
1
100
AcDbCircle
 10
44.80033800000001
 20
1.516479000000003
 30
0.0
 40
0.4880010000000001
100
AcDbArc
 50
223.601116999999
 51
316.3988909999987
  0
ARC
  5
5619D
330
1F
100
AcDbEntity
  8
1
100
AcDbCircle
 10
44.80033800000001
 20
0.0
 30
0.0
 40
1.750004
100
AcDbArc
 50
90.00011400000039
 51
269.9998929999996
  0
ARC
  5
5619E
330
1F
100
AcDbEntity
  8
1
100
AcDbCircle
 10
44.80033099999997
 20
0.0
 30
0.0
 40
1.750004
100
AcDbArc
 50
270.0001319999996
 51
89.99989099999686
  0
ARC
  5
5619F
330
1F
100
AcDbEntity
  8
1
100
AcDbCircle
 10
44.65033699999998
 20
0.0
 30
0.0
 40
2.75
100
AcDbArc
 50
89.99992899999806
 51
180.0
  0
ARC
  5
561A0
330
1F
100
AcDbEntity
  8
1
100
AcDbCircle
 10
44.65033699999998
 20
0.0
 30
0.0
 40
2.75
100
AcDbArc
 50
180.0
 51
269.9999339999986
  0
ARC
  5
561A1
330
1F
100
AcDbEntity
  8
1
100
AcDbCircle
 10
44.65033699999998
 20
0.0
 30
0.0
 40
2.75
100
AcDbArc
 50
269.9999339999986
 51
0.000004999999689
  0
ARC
  5
561A2
330
1F
100
AcDbEntity
  8
1
100
AcDbCircle
 10
44.65033699999998
 20
0.0
 30
0.0
 40
2.75
100
AcDbArc
 50
0.000004999999689
 51
89.99991899999706
  0
ARC
  5
561A3
330
1F
100
AcDbEntity
  8
1
100
AcDbCircle
 10
44.65033699999998
 20
0.0
 30
0.0
 40
2.9
100
AcDbArc
 50
89.99999699999904
 51
270.0000029999977
  0
ARC
  5
561A4
330
1F
100
AcDbEntity
  8
1
100
AcDbCircle
 10
44.80033800000001
 20
0.0
 30
0.0
 40
2.9
100
AcDbArc
 50
270.0000029999977
 51
90.00000100000141
  0
LINE
  5
561A5
330
1F
100
AcDbEntity
  8
1
100
AcDbLine
 10
40.01621199999999
 20
5.19518899999997
 30
0.0
 11
39.70470799999998
 21
5.30471099999994
 31
0.0
  0
LINE
  5
561A6
330
1F
100
AcDbEntity
  8
1
100
AcDbLine
 10
39.00033499999995
 20
-5.304749000000015
 30
0.0
 11
40.80033800000001
 21
-5.304749000000015
 31
0.0
  0
LINE
  5
561A7
330
1F
100
AcDbEntity
  8
1
100
AcDbLine
 10
39.00033499999995
 20
-5.195221000000003
 30
0.0
 11
39.00033499999995
 21
-5.304749000000015
 31
0.0
  0
LINE
  5
561A8
330
1F
100
AcDbEntity
  8
1
100
AcDbLine
 10
39.00033499999995
 20
-5.195221000000003
 30
0.0
 11
40.80033800000001
 21
-5.195221000000003
 31
0.0
  0
LINE
  5
561A9
330
1F
100
AcDbEntity
  8
1
100
AcDbLine
 10
41.61106799999993
 20
-5.167237000000056
 30
0.0
 11
44.80033800000001
 21
-5.167237000000056
 31
0.0
  0
LINE
  5
561AA
330
1F
100
AcDbEntity
  8
1
100
AcDbLine
 10
40.8
 20
-5.167237000000056
 30
0.0
 11
41.61106799999993
 21
-5.167237000000056
 31
0.0
  0
LINE
  5
561AB
330
1F
100
AcDbEntity
  8
1
100
AcDbLine
 10
44.65033699999998
 20
-2.900025000000027
 30
0.0
 11
44.80033800000001
 21
-2.900025000000027
 31
0.0
  0
LINE
  5
561AC
330
1F
100
AcDbEntity
  8
1
100
AcDbLine
 10
44.65033699999998
 20
2.899992999999938
 30
0.0
 11
44.80033800000001
 21
2.899992999999938
 31
0.0
  0
LINE
  5
561AD
330
1F
100
AcDbEntity
  8
1
100
AcDbLine
 10
39.00033499999995
 20
5.195189999999968
 30
0.0
 11
40.26698299999998
 21
5.195189999999968
 31
0.0
  0
LINE
  5
561AE
330
1F
100
AcDbEntity
  8
1
100
AcDbLine
 10
39.00033499999995
 20
5.304717999999922
 30
0.0
 11
39.00033499999995
 21
5.195189999999968
 31
0.0
  0
LINE
  5
561AF
330
1F
100
AcDbEntity
  8
1
100
AcDbLine
 10
39.00033499999995
 20
5.304717999999922
 30
0.0
 11
39.70471099999997
 21
5.304717999999922
 31
0.0
  0
LINE
  5
561B0
330
1F
100
AcDbEntity
  8
1
100
AcDbLine
 10
39.07240200000001
 20
5.38009599999998
 30
0.0
 11
40.80000299999994
 21
5.38009599999998
 31
0.0
  0
LINE
  5
561B1
330
1F
100
AcDbEntity
  8
1
100
AcDbLine
 10
38.80000299999995
 20
-5.380555000000072
 30
0.0
 11
38.80000299999995
 21
0.0
 31
0.0
  0
LINE
  5
561B2
330
1F
100
AcDbEntity
  8
1
100
AcDbLine
 10
38.80000299999995
 20
0.0
 30
0.0
 11
38.80000299999995
 21
5.380522999999982
 31
0.0
  0
LINE
  5
561B3
102
{ACAD_REACTORS
330
561C5
102
}
330
1F
100
AcDbEntity
  8
1
100
AcDbLine
 10
35.80000299999995
 20
-5.75
 30
0.0
 11
35.80000299999995
 21
5.75
 31
0.0
  0
LINE
  5
561B5
102
{ACAD_REACTORS
330
561C5
102
}
330
1F
100
AcDbEntity
  8
1
100
AcDbLine
 10
40.80000299999994
 20
5.075689075822509
 30
0.0
 11
40.80000299999994
 21
5.38009599999998
 31
0.0
  0
LINE
  5
561B6
330
1F
100
AcDbEntity
  8
sk1
100
AcDbLine
 10
-68.64999399999999
 20
7.9375
 30
0.0
 11
-69.85001099999999
 21
6.737489999999979
 31
0.0
  0
LINE
  5
561B7
330
1F
100
AcDbEntity
  8
sk1
100
AcDbLine
 10
-69.850007
 20
6.73748699999993
 30
0.0
 11
-69.850007
 21
0.0
 31
0.0
  0
LINE
  5
561B8
330
1F
100
AcDbEntity
  8
sk1
100
AcDbLine
 10
-69.850007
 20
0.0
 30
0.0
 11
-69.850007
 21
-6.73751900000002
 31
0.0
  0
LINE
  5
561B9
330
1F
100
AcDbEntity
  8
sk1
100
AcDbLine
 10
-68.64999399999999
 20
-7.937499999999985
 30
0.0
 11
-69.85001500000004
 21
-6.737525000000005
 31
0.0
  0
LINE
  5
561BA
330
1F
100
AcDbEntity
  8
sk1
100
AcDbLine
 10
-68.64999399999999
 20
0.0
 30
0.0
 11
-68.64999399999999
 21
7.9375
 31
0.0
  0
LINE
  5
561BB
330
1F
100
AcDbEntity
  8
sk1
100
AcDbLine
 10
-68.64999399999999
 20
0.0
 30
0.0
 11
-68.64999399999999
 21
-7.937499999999985
 31
0.0
  0
LINE
  5
561BC
102
{ACAD_REACTORS
330
561CA
102
}
330
1F
100
AcDbEntity
  8
sk1
100
AcDbLine
 10
-68.64999399999999
 20
-7.937499999999985
 30
0.0
 11
0.0
 21
-7.9375
 31
0.0
  0
LINE
  5
561BD
330
1F
100
AcDbEntity
  8
1
100
AcDbLine
 10
0.0
 20
-7.937531000000035
 30
0.0
 11
0.0
 21
0.0
 31
0.0
  0
LINE
  5
561BE
330
1F
100
AcDbEntity
  8
1
100
AcDbLine
 10
0.0
 20
7.9375
 30
0.0
 11
0.0
 21
0.0
 31
0.0
  0
LINE
  5
561BF
102
{ACAD_REACTORS
330
561CA
102
}
330
1F
100
AcDbEntity
  8
sk1
100
AcDbLine
 10
-68.64999399999999
 20
7.9375
 30
0.0
 11
0.0
 21
7.9375
 31
0.0
  0
LINE
  5
561C0
330
1F
100
AcDbEntity
  8
1
100
AcDbLine
 10
2.488992999999936
 20
6.614334050400003
 30
0.0
 11
2.488992999999936
 21
-6.614334037047058
 31
0.0
  0
LINE
  5
561C1
330
1F
100
AcDbEntity
  8
sk4
100
AcDbLine
 10
-76.30812099999997
 20
0.0
 30
0.0
 11
0.0
 21
0.0
 31
0.0
  0
LINE
  5
561C2
330
1F
100
AcDbEntity
  8
4
100
AcDbLine
 10
0.0
 20
0.0
 30
0.0
 11
55.60280599999998
 21
0.0
 31
0.0
  0
DIMENSION
  5
561C3
102
{ACAD_XDICTIONARY
360
561C4
102
}
102
{ACAD_REACTORS
330
561C5
102
}
330
1F
100
AcDbEntity
  8
2
100
AcDbDimension
  2
*D96
 10
28.91912465103122
 20
5.750000000000001
 30
0.0
 11
28.91912465103121
 21
-37.16749705974475
 31
0.0
 70
   160
  1
%%C<>
 71
     5
 42
11.5
  3
\M+18352\M+18373\M+1815B - ISO-25
100
AcDbAlignedDimension
 13
35.80000299999995
 23
-5.75
 33
0.0
 14
35.80000299999995
 24
5.75
 34
0.0
 50
270.0
100
AcDbRotatedDimension
1001
ACAD
1000
DSTYLE
1002
{
1070
     4
1000
%%C[]"
1070
    40
1040
1.0
1070
   143
1040
0.03937
1070
   170
1070
     1
1070
   171
1070
     3
1070
   271
1070
     8
1070
   285
1070
     4
1002
}
  0
DIMENSION
  5
561C6
330
1F
100
AcDbEntity
  8
sk2
100
AcDbDimension
  2
*D89
 10
50.80000299999994
 20
52.31903263185393
 30
0.0
 11
-12.79263832285596
 21
52.31903263185393
 31
0.0
 70
   160
 71
     5
 41
0.892857
 42
120.65
  3
\M+18352\M+18373\M+1815B - ISO-25
100
AcDbAlignedDimension
 13
-69.84999700000003
 23
6.641602860002194
 33
0.0
 14
50.80000299999994
 24
3.078728083596047
 34
0.0
 50
180.0
100
AcDbRotatedDimension
1001
ACAD
1000
DSTYLE
1002
{
1070
     4
1000
"
1070
    40
1040
1.0
1070
   143
1040
0.03937
1070
   170
1070
     1
1070
   171
1070
     3
1070
   271
1070
     8
1070
   285
1070
     4
1002
}
  0
DIMENSION
  5
561C7
330
1F
100
AcDbEntity
  8
2
100
AcDbDimension
  2
*D90
 10
50.79999499999996
 20
25.59157037082821
 30
0.0
 11
17.16666166666664
 21
25.59157037082821
 31
0.0
 70
   160
 71
     5
 41
0.892857
 42
14.99999999999994
  3
\M+18352\M+18373\M+1815B - ISO-25
100
AcDbAlignedDimension
 13
35.79999500000003
 23
5.749999999999971
 33
0.0
 14
50.79999499999996
 24
17.60461399999991
 34
0.0
 50
180.0
100
AcDbRotatedDimension
1001
ACAD
1000
DSTYLE
1002
{
1070
     4
1000
"
1070
    40
1040
1.0
1070
   143
1040
0.03937
1070
   170
1070
     1
1070
   171
1070
     3
1070
   271
1070
     8
1070
   285
1070
     4
1002
}
  0
DIMENSION
  5
561C8
102
{ACAD_XDICTIONARY
360
561C9
102
}
102
{ACAD_REACTORS
330
561CA
102
}
330
1F
100
AcDbEntity
  8
sk2
100
AcDbDimension
  2
*D97
 10
-84.59050639981439
 20
7.937500000000004
 30
0.0
 11
-84.59050639981439
 21
-36.48750000000004
 31
0.0
 70
   160
  1
%%C<>
 71
     5
 42
15.87499999999998
  3
\M+18352\M+18373\M+1815B - ISO-25
100
AcDbAlignedDimension
 13
-68.64999399999999
 23
-7.937499999999985
 33
0.0
 14
-68.64999399999999
 24
7.9375
 34
0.0
 50
270.0
100
AcDbRotatedDimension
1001
ACAD
1000
DSTYLE
1002
{
1070
     4
1000
%%C[]"
1070
    40
1040
1.0
1070
   143
1040
0.03937
1070
   170
1070
     1
1070
   171
1070
     3
1070
   271
1070
     8
1070
   285
1070
     4
1002
}
  0
LINE
  5
561CB
330
1F
100
AcDbEntity
  8
1
100
AcDbLine
 10
38.79999299999997
 20
5.37999999889999
 30
0.0
 11
40.79999299999997
 21
5.37999999889999
 31
0.0
1001
ACAD
1000
RTMaterial
1005
0
  0
LINE
  5
561CC
330
1F
100
AcDbEntity
  8
1
100
AcDbLine
 10
35.79999299999997
 20
5.749999998899994
 30
0.0
 11
2.488992999999936
 21
6.614334050400003
 31
0.0
1001
ACAD
1000
RTMaterial
1005
0
  0
LINE
  5
561CD
330
1F
100
AcDbEntity
  8
1
100
AcDbLine
 10
38.79999299999997
 20
5.37999999889999
 30
0.0
 11
35.79999299999997
 21
5.749999998899994
 31
0.0
1001
ACAD
1000
RTMaterial
1005
0
  0
LINE
  5
561CE
330
1F
100
AcDbEntity
  8
1
100
AcDbLine
 10
0.4454886843000168
 20
7.492004314599995
 30
0.0
 11
-0.0000069999999823
 21
7.937499998899994
 31
0.0
1001
ACAD
1000
RTMaterial
1005
0
  0
ARC
  5
561CF
330
1F
100
AcDbEntity
  8
1
100
AcDbCircle
 10
2.56680902779999
 20
9.613324658200014
 30
0.0
 40
3.0
100
AcDbArc
 50
224.9999999999994
 51
268.5136566384988
1001
ACAD
1000
RTMaterial
1005
0
  0
LINE
  5
561D0
330
1F
100
AcDbEntity
  8
1
100
AcDbLine
 10
35.7999929981554
 20
-5.749999996288067
 30
0.0
 11
2.488992997878142
 21
-6.614334037102082
 31
0.0
1001
ACAD
1000
RTMaterial
1005
0
  0
LINE
  5
561D1
330
1F
100
AcDbEntity
  8
1
100
AcDbLine
 10
0.4454886818966202
 20
-7.492004300646541
 30
0.0
 11
-0.0000070025463401
 21
-7.937499984803622
 31
0.0
1001
ACAD
1000
RTMaterial
1005
0
  0
ARC
  5
561D2
330
1F
100
AcDbEntity
  8
1
100
AcDbCircle
 10
2.566809024716064
 20
-9.613324644927061
 30
0.0
 40
3.0
100
AcDbArc
 50
91.48634334311966
 51
134.9999999816226
1001
ACAD
1000
RTMaterial
1005
0
  0
LINE
  5
561D3
330
1F
100
AcDbEntity
  8
1
100
AcDbLine
 10
38.79999299827409
 20
-5.37999999725045
 30
0.0
 11
40.79999299827409
 21
-5.379999997892042
 31
0.0
1001
ACAD
1000
RTMaterial
1005
0
  0
LINE
  5
561D4
330
1F
100
AcDbEntity
  8
1
100
AcDbLine
 10
38.79999299827409
 20
-5.37999999725045
 30
0.0
 11
35.7999929981554
 21
-5.749999996288067
 31
0.0
1001
ACAD
1000
RTMaterial
1005
0
  0
ARC
  5
561D5
330
1F
100
AcDbEntity
  8
nocut
100
AcDbCircle
 10
44.79599999999999
 20
-0.0000000023000268
 30
0.0
 40
5.380000001200013
100
AcDbArc
 50
0.0
 51
90.0
  0
LINE
  5
561D6
330
1F
100
AcDbEntity
  8
nocut
100
AcDbLine
 10
0.0
 20
0.0
 30
0.0
 11
0.0
 21
7.937499998899994
 31
0.0
1001
ACAD
1000
RTMaterial
1005
0
  0
LINE
  5
561D7
330
1F
100
AcDbEntity
  8
nocut
100
AcDbLine
 10
50.17600000120001
 20
0.0000000000000284
 30
0.0
 11
0.0
 21
0.0
 31
0.0
1001
ACAD
1000
RTMaterial
1005
0
  0
LINE
  5
561D8
330
1F
100
AcDbEntity
  8
nocut
100
AcDbLine
 10
38.80000000000001
 20
5.37999999889999
 30
0.0
 11
44.79599999999999
 21
5.37999999889999
 31
0.0
1001
ACAD
1000
RTMaterial
1005
0
  0
LINE
  5
561D9
330
1F
100
AcDbEntity
  8
nocut
100
AcDbLine
 10
35.80000000000001
 20
5.749999998899994
 30
0.0
 11
2.488999999999975
 21
6.614334050400003
 31
0.0
1001
ACAD
1000
RTMaterial
1005
0
  0
LINE
  5
561DA
330
1F
100
AcDbEntity
  8
nocut
100
AcDbLine
 10
38.80000000000001
 20
5.37999999889999
 30
0.0
 11
35.80000000000001
 21
5.749999998899994
 31
0.0
1001
ACAD
1000
RTMaterial
1005
0
  0
LINE
  5
561DB
330
1F
100
AcDbEntity
  8
nocut
100
AcDbLine
 10
0.4454956842999991
 20
7.492004314599995
 30
0.0
 11
0.0
 21
7.937499998899994
 31
0.0
1001
ACAD
1000
RTMaterial
1005
0
  0
ARC
  5
561DC
330
1F
100
AcDbEntity
  8
nocut
100
AcDbCircle
 10
2.566816027799973
 20
9.613324658200014
 30
0.0
 40
3.0
100
AcDbArc
 50
224.9999999999994
 51
268.5136566384988
1001
ACAD
1000
RTMaterial
1005
0
  0
DIMENSION
  5
561DE
330
1F
100
AcDbEntity
  8
2
100
AcDbDimension
  2
*D91
 10
69.71937666103087
 20
-5.999999999999978
 30
0.0
 11
69.71937666103087
 21
-28.71666666666664
 31
0.0
 70
   160
  1
%%c<>
 71
     5
 42
11.99999999999998
  3
\M+18352\M+18373\M+1815B - ISO-25
100
AcDbAlignedDimension
 13
48.06451091538145
 23
6.000000000000014
 33
0.0
 14
44.80000299999995
 24
-5.999999999999971
 34
0.0
 50
270.0
100
AcDbRotatedDimension
1001
ACAD
1000
DSTYLE
1002
{
1070
    76
1070
     1
1070
   344
1005
50E6F
1070
     4
1000
%%c[]"
1070
    40
1040
1.0
1070
    75
1070
     0
1070
   143
1040
0.03937
1070
   170
1070
     1
1070
   171
1070
     3
1070
   173
1070
     1
1070
   271
1070
     8
1070
   285
1070
     4
1070
   343
1005
0
1002
}
  0
SPLINE
  5
561DF
330
1F
100
AcDbEntity
  8
1
100
AcDbSpline
210
0.0
220
0.0
230
1.0
 70
     8
 71
     3
 72
    71
 73
    67
 74
    65
 42
0.0000000001
 43
0.0000000001
 44
0.000001
 12
0.9617884745617532
 22
0.2737935905023637
 32
0.0
 13
0.9362140704887199
 23
0.3514302408998727
 33
0.0
 40
0.0
 40
0.0
 40
0.0
 40
0.0
 40
0.0044800750730422
 40
0.0089325687129723
 40
0.0133385956111273
 40
0.017699920461386
 40
0.0220188328173332
 40
0.0262971843849106
 40
0.0305373178888055
 40
0.0347417649820632
 40
0.0389124845776944
 40
0.0430509383735897
 40
0.0471588154169434
 40
0.0512387617015432
 40
0.0552924131147642
 40
0.0593208181043381
 40
0.0633253591931461
 40
0.0673083894065898
 40
0.0712717534627684
 40
0.075217436583126
 40
0.0791473428284626
 40
0.0830625611290523
 40
0.0869647282843465
 40
0.0908556693288672
 40
0.0947373462704649
 40
0.0986113830355753
 40
0.102479319979018
 40
0.1063429832750688
 40
0.110204176675187
 40
0.1140643432858906
 40
0.1179240960498496
 40
0.1217835571795148
 40
0.1256415104746136
 40
0.1294957117028411
 40
0.1333453969444271
 40
0.1371907515011159
 40
0.1410315539265232
 40
0.1448685919697909
 40
0.1487034226775977
 40
0.1525370213603668
 40
0.1563708562649352
 40
0.1602068969564359
 40
0.1640469508393653
 40
0.1678927226911746
 40
0.1717456541108249
 40
0.1756071660070024
 40
0.1794785230143463
 40
0.1833616034241474
 40
0.1872589290275053
 40
0.1911727155818262
 40
0.1951039375020585
 40
0.1990526140220877
 40
0.2030192285153647
 40
0.2070056634963219
 40
0.2110144248257733
 40
0.2150477044842299
 40
0.2191075065219331
 40
0.2231954082467279
 40
0.227313479944759
 40
0.2314627455866559
 40
0.2356446783503047
 40
0.2398614870197889
 40
0.2441148784633152
 40
0.2484063618578937
 40
0.2527383089125133
 40
0.2571123648800251
 40
0.2571123648800251
 40
0.2571123648800251
 40
0.2571123648800251
 10
48.59626107289989
 20
-5.757428891599971
 30
0.0
 10
48.59769736775672
 20
-5.757020019653317
 30
0.0
 10
48.60056042209663
 20
-5.756202356779418
 30
0.0
 10
48.6048336241671
 20
-5.754974169874728
 30
0.0
 10
48.60906675310326
 20
-5.753749876524807
 30
0.0
 10
48.61325511799396
 20
-5.752531095125455
 30
0.0
 10
48.6174006723071
 20
-5.751317533600541
 30
0.0
 10
48.62150553255253
 20
-5.750108769171802
 30
0.0
 10
48.62557200067858
 20
-5.748904717696149
 30
0.0
 10
48.62960220580806
 20
-5.747704581340229
 30
0.0
 10
48.63359812257221
 20
-5.746508074491323
 30
0.0
 10
48.63756141833801
 20
-5.745314860542151
 30
0.0
 10
48.6414939859099
 20
-5.74412455584158
 30
0.0
 10
48.64539776746704
 20
-5.742936737340251
 30
0.0
 10
48.64927449833044
 20
-5.741751034023778
 30
0.0
 10
48.65312550793055
 20
-5.740567186132381
 30
0.0
 10
48.65695235197586
 20
-5.739384854966779
 30
0.0
 10
48.66075683684176
 20
-5.73820361259581
 30
0.0
 10
48.66454095738572
 20
-5.73702295933667
 30
0.0
 10
48.66830656234128
 20
-5.735842428450652
 30
0.0
 10
48.67205525711899
 20
-5.734661618140535
 30
0.0
 10
48.67578853364989
 20
-5.73348015193293
 30
0.0
 10
48.67950785644939
 20
-5.732297653123225
 30
0.0
 10
48.68321496480041
 20
-5.731113647883987
 30
0.0
 10
48.68691159098904
 20
-5.729927653822159
 30
0.0
 10
48.69059937407786
 20
-5.728739207919751
 30
0.0
 10
48.69427990774664
 20
-5.727547853333781
 30
0.0
 10
48.69795483978328
 20
-5.726353105185438
 30
0.0
 10
48.70162578481466
 20
-5.725154480957719
 30
0.0
 10
48.70529397043111
 20
-5.723951615262969
 30
0.0
 10
48.70896009029798
 20
-5.722744312971713
 30
0.0
 10
48.71262399543912
 20
-5.721532653788457
 30
0.0
 10
48.71628463359286
 20
-5.720317018961239
 30
0.0
 10
48.71994067443797
 20
-5.719097889286018
 30
0.0
 10
48.72359123287299
 20
-5.717875603499209
 30
0.0
 10
48.72723606435124
 20
-5.71665028935395
 30
0.0
 10
48.73087541479652
 20
-5.715421909974949
 30
0.0
 10
48.73450996276403
 20
-5.714190280037016
 30
0.0
 10
48.73814076344053
 20
-5.712955082281254
 30
0.0
 10
48.7417690849818
 20
-5.711715920790787
 30
0.0
 10
48.74539632364826
 20
-5.710472348945749
 30
0.0
 10
48.74902413597891
 20
-5.709223823760069
 30
0.0
 10
48.75265425019825
 20
-5.707969767999991
 30
0.0
 10
48.75628822577692
 20
-5.706709654706209
 30
0.0
 10
48.75992749825354
 20
-5.705442992579691
 30
0.0
 10
48.76357336242552
 20
-5.704169332148858
 30
0.0
 10
48.76722724863657
 20
-5.702888170468504
 30
0.0
 10
48.77089093119747
 20
-5.701598876473397
 30
0.0
 10
48.77456648058938
 20
-5.700300705596895
 30
0.0
 10
48.77825568015731
 20
-5.698993005006371
 30
0.0
 10
48.78195952461055
 20
-5.697675393895785
 30
0.0
 10
48.78567846380349
 20
-5.696347682848099
 30
0.0
 10
48.78941323194118
 20
-5.695009578719641
 30
0.0
 10
48.79316534222209
 20
-5.693660505225004
 30
0.0
 10
48.79693684110373
 20
-5.692299686014841
 30
0.0
 10
48.80072980976786
 20
-5.690926321779699
 30
0.0
 10
48.80454603638327
 20
-5.689539713249658
 30
0.0
 10
48.80838726512621
 20
-5.688139159207274
 30
0.0
 10
48.81225494299411
 20
-5.686724096996528
 30
0.0
 10
48.81615043636458
 20
-5.685293845747473
 30
0.0
 10
48.82007534185442
 20
-5.683848216534165
 30
0.0
 10
48.82403114551045
 20
-5.682386060835248
 30
0.0
 10
48.8280195546356
 20
-5.680906798012692
 30
0.0
 10
48.83204226714565
 20
-5.679409664833876
 30
0.0
 10
48.83610097447899
 20
-5.677893940812914
 30
0.0
 10
48.83881844121924
 20
-5.676875614447432
 30
0.0
 10
48.84018345879986
 20
-5.676363222599974
 30
0.0
 11
48.59626107289989
 21
-5.757428891599971
 31
0.0
 11
48.60056894929982
 21
-5.756198644699935
 31
0.0
 11
48.60484829299991
 21
-5.754968780299947
 31
0.0
 11
48.60908099669984
 21
-5.753744734299971
 31
0.0
 11
48.61326881109983
 21
-5.752526272899956
 31
0.0
 11
48.61741398749984
 21
-5.751312998799988
 31
0.0
 11
48.62151832669986
 21
-5.750104628399952
 31
0.0
 11
48.62558397039982
 21
-5.748900760899971
 31
0.0
 11
48.62961355549987
 21
-5.747700829799953
 31
0.0
 11
48.63360900509985
 21
-5.746504462799947
 31
0.0
 11
48.6375717625998
 21
-5.745311416899966
 31
0.0
 11
48.6415034861999
 21
-5.744121372299957
 31
0.0
 11
48.64540674629984
 21
-5.742933717799957
 31
0.0
 11
48.64928314299993
 21
-5.741748121899973
 31
0.0
 11
48.65313371209992
 21
-5.740564414799962
 31
0.0
 11
48.65695980669977
 21
-5.739382320599958
 31
0.0
 11
48.66076370419989
 21
-5.738201265999947
 31
0.0
 11
48.66454719289993
 21
-5.737020815299956
 31
0.0
 11
48.66831219209984
 21
-5.735840479799918
 31
0.0
 11
48.67206054049984
 21
-5.734659783999973
 31
0.0
 11
48.6757932966999
 21
-5.733478487899958
 31
0.0
 11
48.67951203959989
 21
-5.732296178899957
 31
0.0
 11
48.68321852479983
 21
-5.731112378099936
 31
0.0
 11
48.68691463539983
 21
-5.729926554799959
 31
0.0
 11
48.69060192969993
 21
-5.72873827189997
 31
0.0
 11
48.69428188409983
 21
-5.727547110099948
 31
0.0
 11
48.69795624429992
 21
-5.72635255329996
 31
0.0
 11
48.70162673199991
 21
-5.725154083699948
 31
0.0
 11
48.70529472349983
 21
-5.723951287099936
 31
0.0
 11
48.70896080469981
 21
-5.722744002899958
 31
0.0
 11
48.71262509479982
 21
-5.721532221799947
 31
0.0
 11
48.71628644299983
 21
-5.720316356599965
 31
0.0
 11
48.71994272549989
 21
-5.719097151699969
 31
0.0
 11
48.72359322549982
 21
-5.717874890899935
 31
0.0
 11
48.72723812709989
 21
-5.716649558599982
 31
0.0
 11
48.73087722889988
 21
-5.715421268499966
 31
0.0
 11
48.73451128549993
 21
-5.714189810499959
 31
0.0
 11
48.73814177859992
 21
-5.712954722799963
 31
0.0
 11
48.74176963719981
 21
-5.711715724799972
 31
0.0
 11
48.74539625509988
 21
-5.710472371299971
 31
0.0
 11
48.74902349799993
 21
-5.709224047499958
 31
0.0
 11
48.75265307539985
 21
-5.707970182699938
 31
0.0
 11
48.75628659729989
 21
-5.706710232299968
 31
0.0
 11
48.75992542279982
 21
-5.705443731299936
 31
0.0
 11
48.76357088939982
 21
-5.704170215399955
 31
0.0
 11
48.76722418519989
 21
-5.702889266399921
 31
0.0
 11
48.77088707529981
 21
-5.701600256999967
 31
0.0
 11
48.77456192879993
 21
-5.700302337699952
 31
0.0
 11
48.7782508227998
 21
-5.698994751199933
 31
0.0
 11
48.78195466189993
 21
-5.697677147899952
 31
0.0
 11
48.7856734500998
 21
-5.696349496599964
 31
0.0
 11
48.78940762839977
 21
-5.695011609699974
 31
0.0
 11
48.79315895369984
 21
-5.693662824299934
 31
0.0
 11
48.79692976649983
 21
-5.692302258299946
 31
0.0
 11
48.80072210869991
 21
-5.690929126899987
 31
0.0
 11
48.80453784259987
 21
-5.689542701499959
 31
0.0
 11
48.80837842689982
 21
-5.688142392399953
 31
0.0
 11
48.81224578109993
 21
-5.686727434599958
 31
0.0
 11
48.81614083399984
 21
-5.68529741849997
 31
0.0
 11
48.82006478179983
 21
-5.683851832499982
 31
0.0
 11
48.82401985069987
 21
-5.682389778399937
 31
0.0
 11
48.82800761329986
 21
-5.680910590899969
 31
0.0
 11
48.83202945499977
 21
-5.679413667799963
 31
0.0
 11
48.83608756729984
 21
-5.677898099299937
 31
0.0
 11
48.84018345879986
 21
-5.676363222599974
 31
0.0
  0
SPLINE
  5
561E0
330
1F
100
AcDbEntity
  8
1
100
AcDbSpline
210
0.0
220
0.0
230
1.0
 70
     8
 71
     3
 72
    22
 73
    18
 74
    16
 42
0.0000000001
 43
0.0000000001
 44
0.000001
 12
0.0559714537861895
 22
0.9984323694477561
 32
0.0
 13
0.0608291190676251
 23
0.9981481945450067
 33
0.0
 40
0.0
 40
0.0
 40
0.0
 40
0.0
 40
0.0268166277439814
 40
0.0551691670068572
 40
0.0848750831786297
 40
0.1149711447063798
 40
0.1448086848357643
 40
0.1745727128649429
 40
0.2043852693574398
 40
0.234170604183995
 40
0.2639595293724268
 40
0.2938954309220914
 40
0.3240301460957917
 40
0.3543127927122505
 40
0.384349361774923
 40
0.4137192533091758
 40
0.4428177825256252
 40
0.4428177825256252
 40
0.4428177825256252
 40
0.4428177825256252
 10
50.69336401599992
 20
0.3279712223000644
 30
0.0
 10
50.69386433788008
 20
0.33689608535974
 30
0.0
 10
50.69489997702721
 20
0.355256626306371
 30
0.0
 10
50.6965244825567
 20
0.3835016468990489
 30
0.0
 10
50.6982304936946
 20
0.4128369215825459
 30
0.0
 10
50.69997703411428
 20
0.4426656729638694
 30
0.0
 10
50.70172520955077
 20
0.4725137320430051
 30
0.0
 10
50.70346607635292
 20
0.5022675556120717
 30
0.0
 10
50.7052042294477
 20
0.5320041063601906
 30
0.0
 10
50.70694040794944
 20
0.5617490856638057
 30
0.0
 10
50.70867700224522
 20
0.5915352255849414
 30
0.0
 10
50.71042135269749
 20
0.6214375712163758
 30
0.0
 10
50.71217899864871
 20
0.6515039946398105
 30
0.0
 10
50.71394478408922
 20
0.6816035552159932
 30
0.0
 10
50.71570825791991
 20
0.7114478695860527
 30
0.0
 10
50.71746542285217
 20
0.7408971598498795
 30
0.0
 10
50.71864492586707
 20
0.7603509117662953
 30
0.0
 10
50.71923493849988
 20
0.7700324599000652
 30
0.0
 11
50.69336401599992
 21
0.3279712223000644
 31
0.0
 11
50.69487693869985
 21
0.3547451383000322
 31
0.0
 11
50.69650252029987
 21
0.3830510377000138
 31
0.0
 11
50.69822588269983
 21
0.4127069217000355
 31
0.0
 11
50.69998315419991
 21
0.442751636700038
 31
0.0
 11
50.70172734269988
 21
0.4725381537000289
 31
0.0
 11
50.70346584739979
 21
0.5022513655000154
 31
0.0
 11
50.70520534699983
 21
0.5320131305000047
 31
0.0
 11
50.70694100709977
 21
0.5617478517000479
 31
0.0
 11
50.70867531069985
 21
0.5914862485000328
 31
0.0
 11
50.71041910439987
 21
0.621371317900028
 31
0.0
 11
50.71217814629983
 21
0.6514546491000175
 31
0.0
 11
50.71395272509983
 21
0.681685255100021
 31
0.0
 11
50.71572527689989
 21
0.7116694763000311
 31
0.0
 11
50.71747652199985
 21
0.7409871100000345
 31
0.0
 11
50.71923493849988
 21
0.7700324599000652
 31
0.0
  0
SPLINE
  5
561E1
330
1F
100
AcDbEntity
  8
1
100
AcDbSpline
210
0.0
220
0.0
230
1.0
 70
     8
 71
     3
 72
    23
 73
    19
 74
    17
 42
0.0000000001
 43
0.0000000001
 44
0.000001
 12
0.0541105523918324
 22
0.9985349508754568
 32
0.0
 13
0.0592824401113983
 23
0.998241249545639
 33
0.0
 40
0.0
 40
0.0
 40
0.0
 40
0.0
 40
0.0230890004884984
 40
0.0486423287925859
 40
0.0766366356534988
 40
0.1063285868174894
 40
0.1361713162147231
 40
0.1655437689494265
 40
0.1947255475075268
 40
0.2238910269434776
 40
0.2531308364542772
 40
0.282307739516624
 40
0.3111751632147995
 40
0.3395781279509034
 40
0.3673625898519291
 40
0.3940344971485932
 40
0.4189706421410838
 40
0.442227452445989
 40
0.442227452445989
 40
0.442227452445989
 40
0.442227452445989
 10
50.71923493849988
 20
0.7700324599000652
 30
0.0
 10
50.71965139135676
 20
0.7777175178895775
 30
0.0
 10
50.72053256539061
 20
0.7939076670478187
 30
0.0
 10
50.72194197352974
 20
0.8194143050686619
 30
0.0
 10
50.72349222189962
 20
0.8471174949125455
 30
0.0
 10
50.72514553591168
 20
0.8762469457712498
 30
0.0
 10
50.72684407124331
 20
0.9058339432119382
 30
0.0
 10
50.72854254188775
 20
0.9352506041557973
 30
0.0
 10
50.7302294379607
 20
0.9644418073858034
 30
0.0
 10
50.73190665986834
 20
0.9935892809799113
 30
0.0
 10
50.73357514160858
 20
1.022735628383365
 30
0.0
 10
50.73522861617323
 20
1.051783319013701
 30
0.0
 10
50.73685505879905
 20
1.080553146418388
 30
0.0
 10
50.73844725154697
 20
1.108860020032636
 30
0.0
 10
50.74000329710384
 20
1.136435931431279
 30
0.0
 10
50.74150894200727
 20
1.162857239323699
 30
0.0
 10
50.74295032466
 20
1.187770536842307
 30
0.0
 10
50.74389666571187
 20
1.203806959906955
 30
0.0
 10
50.74435623919987
 20
1.21154559570003
 30
0.0
 11
50.71923493849988
 21
0.7700324599000652
 31
0.0
 11
50.72049194009981
 21
0.7930872182000286
 31
0.0
 11
50.7219009234999
 21
0.8186016716000352
 31
0.0
 11
50.72346520129986
 21
0.8465522392000508
 31
0.0
 11
50.72514688259992
 21
0.8761965285000457
 31
0.0
 11
50.72685570139981
 21
0.9059902932000483
 31
0.0
 11
50.72854744549989
 21
0.935313986100013
 31
0.0
 11
50.73022956279988
 21
0.9644472432000128
 31
0.0
 11
50.73190479699985
 21
0.9935645709000056
 31
0.0
 11
50.7335757740999
 21
1.022756595300066
 31
0.0
 11
50.73523358059981
 21
1.051886362600029
 31
0.0
 11
50.73686341809992
 21
1.080707739600015
 31
0.0
 11
50.73846068609987
 21
1.109065756600031
 31
0.0
 11
50.74002781399986
 21
1.136805987600027
 31
0.0
 11
50.74154683589984
 21
1.163434603600038
 31
0.0
 11
50.74298860189981
 21
1.188329033000016
 31
0.0
 11
50.74435623919987
 21
1.21154559570003
 31
0.0
  0
SPLINE
  5
561E2
330
1F
100
AcDbEntity
  8
1
100
AcDbSpline
210
0.0
220
0.0
230
1.0
 70
     8
 71
     3
 72
    19
 73
    15
 74
    13
 42
0.0000000001
 43
0.0000000001
 44
0.000001
 12
0.0510398460869759
 22
0.9986966176529376
 32
0.0
 13
0.0565567434658943
 23
0.998399386402322
 33
0.0
 40
0.0
 40
0.0
 40
0.0
 40
0.0
 40
0.0510719787853475
 40
0.1004149413530488
 40
0.147131735782598
 40
0.1907901169028898
 40
0.230988016208088
 40
0.2669820152249191
 40
0.299001406317068
 40
0.3279026987514571
 40
0.3544837093717979
 40
0.3789903820457737
 40
0.4011435152572319
 40
0.420900094752141
 40
0.420900094752141
 40
0.420900094752141
 40
0.420900094752141
 10
50.76362256869981
 20
1.552782422199996
 30
0.0
 10
50.76449147067865
 20
1.569784226356588
 30
0.0
 10
50.76621450714583
 20
1.603211499496765
 30
0.0
 10
50.76877503739485
 20
1.652188528694459
 30
0.0
 10
50.77124080271096
 20
1.698695924975567
 30
0.0
 10
50.77357184167119
 20
1.742157819265216
 30
0.0
 10
50.77573726302853
 20
1.782049185879813
 30
0.0
 10
50.77771748420031
 20
1.818065222259583
 30
0.0
 10
50.77951469213338
 20
1.85032008795838
 30
0.0
 10
50.78115026033327
 20
1.879441425988773
 30
0.0
 10
50.7826519844732
 20
1.906062094041644
 30
0.0
 10
50.78402335592205
 20
1.930437152448149
 30
0.0
 10
50.78526674868953
 20
1.952541003572228
 30
0.0
 10
50.78605642986713
 20
1.966488570885026
 30
0.0
 10
50.78642888579986
 20
1.973063556500065
 30
0.0
 11
50.76362256869981
 21
1.552782422199996
 31
0.0
 11
50.76624951049985
 21
1.60378680280003
 31
0.0
 11
50.76882595609993
 21
1.65306245470002
 31
0.0
 11
50.77129871159979
 21
1.699713760500017
 31
0.0
 11
50.77363751599989
 21
1.743309450700067
 31
0.0
 11
50.7758171367999
 21
1.783448214399996
 31
0.0
 11
50.77779387969986
 21
1.819387892500017
 31
0.0
 11
50.77957400079981
 21
1.851357762700033
 31
0.0
 11
50.78119387129993
 21
1.880213624800049
 31
0.0
 11
50.78268923919984
 21
1.90675254890003
 31
0.0
 11
50.78406838429987
 21
1.931220375500018
 31
0.0
 11
50.7853136903999
 21
1.953338478600031
 31
0.0
 11
50.78642888579986
 21
1.973063556500065
 31
0.0
  0
SPLINE
  5
561E3
330
1F
100
AcDbEntity
  8
1
100
AcDbSpline
210
0.0
220
0.0
230
1.0
 70
     8
 71
     3
 72
    30
 73
    26
 74
    24
 42
0.0000000001
 43
0.0000000001
 44
0.000001
 12
0.0493283031565232
 22
0.99878261824468
 32
0.0
 13
0.0021003305499692
 23
0.9999977943033579
 33
0.0
 40
0.0
 40
0.0
 40
0.0
 40
0.0
 40
0.0173550853094994
 40
0.0338106406379506
 40
0.0499096408002139
 40
0.0659837950686566
 40
0.082105437367569
 40
0.098147982433337
 40
0.1140500686365509
 40
0.1305372672707227
 40
0.1488027020398034
 40
0.1699186759680895
 40
0.1940815468685561
 40
0.2200009331082707
 40
0.2462297063651677
 40
0.2711193331429897
 40
0.293088064540907
 40
0.312010055579015
 40
0.3289504541377539
 40
0.3450275060148405
 40
0.36118055476496
 40
0.3774478723880097
 40
0.3936480564817782
 40
0.4097492541819415
 40
0.425808657360792
 40
0.425808657360792
 40
0.425808657360792
 40
0.425808657360792
 10
50.78642888579986
 20
1.973063556500065
 30
0.0
 10
50.78671425143636
 20
1.97884154234849
 30
0.0
 10
50.78727335831837
 20
1.990097880031129
 30
0.0
 10
50.78811261821676
 20
2.00671324674974
 30
0.0
 10
50.78894589533553
 20
2.022901387305864
 30
0.0
 10
50.78979240180911
 20
2.038977386722748
 30
0.0
 10
50.79066247221948
 20
2.055033281855841
 30
0.0
 10
50.79154581276282
 20
2.07103100458697
 30
0.0
 10
50.79243689177122
 20
2.087150337037634
 30
0.0
 10
50.79335568420635
 20
2.104010231280234
 30
0.0
 10
50.79433505828444
 20
2.122607345886777
 30
0.0
 10
50.79538098103296
 20
2.143762996339525
 30
0.0
 10
50.79642234245802
 20
2.167473051416763
 30
0.0
 10
50.79736394550309
 20
2.192892824550639
 30
0.0
 10
50.79815301801568
 20
2.218560114937957
 30
0.0
 10
50.7987634014832
 20
2.242914958372892
 30
0.0
 10
50.7992092731796
 20
2.264837272193368
 30
0.0
 10
50.7995284184177
 20
2.284111706366275
 30
0.0
 10
50.79976206835095
 20
2.301423298945962
 30
0.0
 10
50.79994044175839
 20
2.317812511020242
 30
0.0
 10
50.80007813039765
 20
2.333977744630971
 30
0.0
 10
50.80018076087481
 20
2.350184281876281
 30
0.0
 10
50.80025038504925
 20
2.366373708803202
 30
0.0
 10
50.8002934904751
 20
2.382493914772929
 30
0.0
 10
50.80032121294817
 20
2.393214079414491
 30
0.0
 10
50.80033245629988
 20
2.398567202000052
 30
0.0
 11
50.78642888579986
 21
1.973063556500065
 31
0.0
 11
50.78729171849989
 21
1.990397170200012
 31
0.0
 11
50.78812227319986
 21
2.006831753600025
 31
0.0
 11
50.78895048059985
 21
2.022909437900025
 31
0.0
 11
50.78979665279985
 21
2.038961306100034
 31
0.0
 11
50.79066765009986
 21
2.055059403800029
 31
0.0
 11
50.79154956239984
 21
2.071077690600034
 31
0.0
 11
50.79242509299991
 21
2.086955657100034
 31
0.0
 11
50.79331966999984
 21
2.10341856950005
 31
0.0
 11
50.79427702079988
 21
2.121658899400031
 31
0.0
 11
50.7953137730999
 21
2.142749408500023
 31
0.0
 11
50.79637098659986
 21
2.166889142100032
 31
0.0
 11
50.79733412019994
 21
2.192790630200036
 31
0.0
 11
50.79814228169983
 21
2.219006952500038
 31
0.0
 11
50.79876799509986
 21
2.243888715400046
 31
0.0
 11
50.79921605689981
 21
2.265852879300027
 31
0.0
 11
50.79953016929983
 21
2.284772264900013
 31
0.0
 11
50.79975938239988
 21
2.301711114500037
 31
0.0
 11
50.79993484169984
 21
2.317787210700046
 31
0.0
 11
50.80007294459983
 21
2.333939671000067
 31
0.0
 11
50.80017638169988
 21
2.350206661800015
 31
0.0
 11
50.80024712139982
 21
2.366406693200033
 31
0.0
 11
50.80029429099989
 21
2.382507821900034
 31
0.0
 11
50.80033245629988
 21
2.398567202000052
 31
0.0
  0
SPLINE
  5
561E4
330
1F
100
AcDbEntity
  8
1
100
AcDbSpline
210
0.0
220
0.0
230
1.0
 70
     8
 71
     3
 72
    21
 73
    17
 74
    15
 42
0.0000000001
 43
0.0000000001
 44
0.000001
 12
-0.0037379819220891
 22
0.9999930137211709
 32
0.0
 13
0.0013695431392808
 23
0.9999990621753552
 33
0.0
 40
0.0
 40
0.0
 40
0.0
 40
0.0
 40
0.0149826634197538
 40
0.0299464678038263
 40
0.044931945100109
 40
0.0601060426138976
 40
0.0758193209703514
 40
0.0925123343930246
 40
0.110619682358664
 40
0.1305405063960813
 40
0.1526059388519617
 40
0.1771261533973325
 40
0.2044141737212611
 40
0.2347830977845545
 40
0.2684959493446773
 40
0.3056400063750285
 40
0.3056400063750285
 40
0.3056400063750285
 40
0.3056400063750285
 10
50.80033245629988
 20
2.398567202000052
 30
0.0
 10
50.80031378799157
 20
2.403561388248945
 30
0.0
 10
50.80027794227721
 20
2.413543480736514
 30
0.0
 10
50.80023683476935
 20
2.428520740553445
 30
0.0
 10
50.80020141493469
 20
2.443561825327087
 30
0.0
 10
50.80016937753362
 20
2.458852742924818
 30
0.0
 10
50.80013715995352
 20
2.474712839964546
 30
0.0
 10
50.80010542022972
 20
2.491550690059533
 30
0.0
 10
50.80007508920164
 20
2.509791060208996
 30
0.0
 10
50.80004807498176
 20
2.529822243834843
 30
0.0
 10
50.80002522531936
 20
2.551991056104263
 30
0.0
 10
50.80000778008439
 20
2.576615606157147
 30
0.0
 10
50.7999983753757
 20
2.604007991608554
 30
0.0
 10
50.80000125122592
 20
2.634464591119964
 30
0.0
 10
50.80002027185469
 20
2.668206531586093
 30
0.0
 10
50.8000475558037
 20
2.691825486768102
 30
0.0
 10
50.80006451259987
 20
2.704206827500016
 30
0.0
 11
50.80033245629988
 21
2.398567202000052
 31
0.0
 11
50.80028103439985
 21
2.413549777800014
 31
0.0
 11
50.80023882599983
 21
2.42851352220002
 31
0.0
 11
50.80020320749986
 21
2.443498956900029
 31
0.0
 11
50.80017091269986
 21
2.458673019900018
 31
0.0
 11
50.80013919499982
 21
2.474386266200028
 31
0.0
 11
50.80010790189987
 21
2.491079250300018
 31
0.0
 11
50.80007799749989
 21
2.509186573600018
 31
0.0
 11
50.80005104059989
 21
2.529107379400031
 31
0.0
 11
50.80002819139986
 21
2.551172800000031
 31
0.0
 11
50.80001084609989
 21
2.575693008400023
 31
0.0
 11
50.80000161249984
 21
2.602981027200016
 31
0.0
 11
50.80000439729985
 21
2.633349951200031
 31
0.0
 11
50.80002378949984
 21
2.66706279710003
 31
0.0
 11
50.80006451259987
 21
2.704206827500016
 31
0.0
  0
SPLINE
  5
561E5
330
1F
100
AcDbEntity
  8
1
100
AcDbSpline
210
0.0
220
0.0
230
1.0
 70
     8
 71
     3
 72
    36
 73
    32
 74
    30
 42
0.0000000001
 43
0.0000000001
 44
0.000001
 12
-0.9996520991020492
 22
0.0263757608585401
 32
0.0
 13
-0.999947290737543
 23
0.0102672170838913
 33
0.0
 40
0.0
 40
0.0
 40
0.0
 40
0.0
 40
0.0158507411263133
 40
0.0296376430516566
 40
0.0416572971635612
 40
0.0522485689310149
 40
0.0618163256791893
 40
0.0707860572642534
 40
0.0795805537046929
 40
0.0883863567415043
 40
0.0971697970852106
 40
0.1059648539047671
 40
0.1148616028971859
 40
0.123848572382709
 40
0.132851922193793
 40
0.1418118751404892
 40
0.1507366323936741
 40
0.1598430614810476
 40
0.1692974854695807
 40
0.1786671184480855
 40
0.1873247388596023
 40
0.1952690497850147
 40
0.2029699660644944
 40
0.2109371909376612
 40
0.2197176171047694
 40
0.2295217488561538
 40
0.2398338238783166
 40
0.2500577229381546
 40
0.2601918417158084
 40
0.2704053234517398
 40
0.2807461282122903
 40
0.2807461282122903
 40
0.2807461282122903
 40
0.2807461282122903
 10
46.80878144929988
 20
5.920851848100014
 30
0.0
 10
46.80349970708681
 20
5.920991206552471
 30
0.0
 10
46.79362396456861
 20
5.921253097747623
 30
0.0
 10
46.77974300843778
 20
5.921618539156391
 30
0.0
 10
46.76761461026444
 20
5.921938172242995
 30
0.0
 10
46.7568920885609
 20
5.922220104496403
 30
0.0
 10
46.74718584071621
 20
5.922474715593295
 30
0.0
 10
46.73807829326778
 20
5.922712905197585
 30
0.0
 10
46.72922462333059
 20
5.922943679448245
 30
0.0
 10
46.72043300462621
 20
5.923171883665361
 30
0.0
 10
46.71164118014115
 20
5.923399357136581
 30
0.0
 10
46.70281904586476
 20
5.923627436119851
 30
0.0
 10
46.69392909904627
 20
5.923857571844408
 30
0.0
 10
46.68496976616984
 20
5.924090341433043
 30
0.0
 10
46.67598940995691
 20
5.924325099308177
 30
0.0
 10
46.66702983629136
 20
5.924561308146849
 30
0.0
 10
46.65803599527737
 20
5.924801454625537
 30
0.0
 10
46.64887742535728
 20
5.925047341724614
 30
0.0
 10
46.63957057521452
 20
5.925295655594666
 30
0.0
 10
46.63041316513232
 20
5.925535849462178
 30
0.0
 10
46.62175881099677
 20
5.92575737068968
 30
0.0
 10
46.61366037446419
 20
5.925959147613397
 30
0.0
 10
46.60579186684214
 20
5.92614983733992
 30
0.0
 10
46.59764460452186
 20
5.926341786253942
 30
0.0
 10
46.58879629039478
 20
5.926542733551997
 30
0.0
 10
46.57916632204933
 20
5.926750697354073
 30
0.0
 10
46.56905500404508
 20
5.926954553532119
 30
0.0
 10
46.55883336813724
 20
5.927142887696021
 30
0.0
 10
46.54864420904067
 20
5.92730871707306
 30
0.0
 10
46.53841571879548
 20
5.927450973065162
 30
0.0
 10
46.53156471683462
 20
5.927528144370931
 30
0.0
 10
46.52811796359981
 20
5.927563534800029
 30
0.0
 11
46.80878144929988
 21
5.920851848100014
 31
0.0
 11
46.79293623009982
 21
5.921269793400014
 31
0.0
 11
46.77915411619983
 21
5.921633109500035
 31
0.0
 11
46.76713862929989
 21
5.921949586900026
 31
0.0
 11
46.75655101639984
 21
5.922227957600014
 31
0.0
 11
46.74698654879989
 21
5.922478813600022
 31
0.0
 11
46.73801988269985
 21
5.922713300300031
 31
0.0
 11
46.72922837139992
 21
5.922942422800048
 31
0.0
 11
46.72042553429981
 21
5.923170954300033
 31
0.0
 11
46.71164503479985
 21
5.923398227500015
 31
0.0
 11
46.70285291779987
 21
5.923625609900014
 31
0.0
 11
46.69395915069981
 21
5.923855931500028
 31
0.0
 11
46.68497521549977
 21
5.924089439800027
 31
0.0
 11
46.67597494309984
 21
5.924324811900035
 31
0.0
 11
46.66701810729989
 21
5.924561121700051
 31
0.0
 11
46.65809652279984
 21
5.924799053900031
 31
0.0
 11
46.64899336199982
 21
5.925042980200046
 31
0.0
 11
46.63954229039984
 21
5.925294695900007
 31
0.0
 11
46.6301758712998
 21
5.925540046200026
 31
0.0
 11
46.62152108279985
 21
5.925761431000026
 31
0.0
 11
46.61357923609978
 21
5.925959253600026
 31
0.0
 11
46.60588058129985
 21
5.926145836300023
 31
0.0
 11
46.5979155637998
 21
5.926333329100046
 31
0.0
 11
46.58913739679985
 21
5.926532445700033
 31
0.0
 11
46.57933554409988
 21
5.926743758800014
 31
0.0
 11
46.56902555679983
 21
5.926951151000011
 31
0.0
 11
46.55880338199984
 21
5.927138761000023
 31
0.0
 11
46.54867060299977
 21
5.927303305200027
 31
0.0
 11
46.53845810749987
 21
5.927444911800037
 31
0.0
 11
46.52811796359981
 21
5.927563534800029
 31
0.0
  0
SPLINE
  5
561E6
330
1F
100
AcDbEntity
  8
1
100
AcDbSpline
210
0.0
220
0.0
230
1.0
 70
     8
 71
     3
 72
    46
 73
    42
 74
    40
 42
0.0000000001
 43
0.0000000001
 44
0.000001
 12
-0.9999537832716137
 22
0.009614120905546
 32
0.0
 13
-0.9996162514440825
 23
-0.0277010802836385
 33
0.0
 40
0.0
 40
0.0
 40
0.0
 40
0.0
 40
0.008042436248513
 40
0.0156438665613298
 40
0.0231218226664979
 40
0.0305903094379682
 40
0.0380620753513188
 40
0.0455245770863648
 40
0.0530711943084922
 40
0.0609939155223199
 40
0.0696730198105344
 40
0.0793797854500865
 40
0.0897246831293527
 40
0.099852448231448
 40
0.1091229319200397
 40
0.1175444275046374
 40
0.1254527427789612
 40
0.1331531217853381
 40
0.1407986021061391
 40
0.1484273645429383
 40
0.156097711391614
 40
0.1638851013551638
 40
0.1718505989220631
 40
0.1798702111432154
 40
0.1874846026016889
 40
0.1943939045568852
 40
0.2008002157798472
 40
0.2070667011923378
 40
0.213513829983602
 40
0.2202087056580736
 40
0.2269437172876385
 40
0.2336123202598955
 40
0.2402506534529345
 40
0.2468926698028949
 40
0.2535544873700629
 40
0.2602259068884153
 40
0.2668954704596081
 40
0.2735901450928867
 40
0.2803012098534182
 40
0.2869345556952903
 40
0.2935326589839497
 40
0.2935326589839497
 40
0.2935326589839497
 40
0.2935326589839497
 10
46.52811796359981
 20
5.927563534800029
 30
0.0
 10
46.52543727541536
 20
5.927589308451516
 30
0.0
 10
46.52022283645362
 20
5.92763342746467
 30
0.0
 10
46.51251575225211
 20
5.927687889018329
 30
0.0
 10
46.50499990035541
 20
5.927728415287006
 30
0.0
 10
46.49752721936033
 20
5.927757773897099
 30
0.0
 10
46.4900596554786
 20
5.927776490213815
 30
0.0
 10
46.48256602928341
 20
5.927784730692771
 30
0.0
 10
46.47492208038772
 20
5.927782400461467
 30
0.0
 10
46.46687260887325
 20
5.927768321535424
 30
0.0
 10
46.45810312241962
 20
5.927739364783803
 30
0.0
 10
46.44852631598536
 20
5.927691135504879
 30
0.0
 10
46.43846674257867
 20
5.92762119257599
 30
0.0
 10
46.4285527605569
 20
5.927531248543807
 30
0.0
 10
46.41928008807878
 20
5.927427321154127
 30
0.0
 10
46.41074739825604
 20
5.927314404118099
 30
0.0
 10
46.40273824880824
 20
5.927193107147687
 30
0.0
 10
46.3949879724114
 20
5.927061369058058
 30
0.0
 10
46.38733111479007
 20
5.926917407471322
 30
0.0
 10
46.37968449555302
 20
5.926761963437925
 30
0.0
 10
46.37199079791253
 20
5.926595339643149
 30
0.0
 10
46.36418508417768
 20
5.926417193942754
 30
0.0
 10
46.35626316906644
 20
5.926228258753525
 30
0.0
 10
46.34839907471643
 20
5.926033675998112
 30
0.0
 10
46.34088707285991
 20
5.925842437804789
 30
0.0
 10
46.33391276678873
 20
5.925660891641982
 30
0.0
 10
46.3273877035079
 20
5.92548750639397
 30
0.0
 10
46.32101672843782
 20
5.925315051619982
 30
0.0
 10
46.31454968308481
 20
5.925136967782599
 30
0.0
 10
46.30792660045154
 20
5.924951741833062
 30
0.0
 10
46.30122978918928
 20
5.924762065468392
 30
0.0
 10
46.29455186518339
 20
5.924571261765962
 30
0.0
 10
46.2879049504553
 20
5.924380524016456
 30
0.0
 10
46.28126029513111
 20
5.924189902329629
 30
0.0
 10
46.27460458823867
 20
5.92399991738776
 30
0.0
 10
46.26793965634902
 20
5.923811301282057
 30
0.0
 10
46.26126375005924
 20
5.923623310329588
 30
0.0
 10
46.25457457656501
 20
5.923436995794652
 30
0.0
 10
46.24789746040756
 20
5.923251399517269
 30
0.0
 10
46.24125252540079
 20
5.923066584417632
 30
0.0
 10
46.23684374025856
 20
5.922944214962988
 30
0.0
 10
46.23464521649987
 20
5.922883290100017
 30
0.0
 11
46.52811796359981
 21
5.927563534800029
 31
0.0
 11
46.52007576089988
 21
5.927633747400037
 31
0.0
 11
46.51247451689982
 21
5.927687039300039
 31
0.0
 11
46.50499667329984
 21
5.927727605500038
 31
0.0
 11
46.49752824779977
 21
5.927756997700029
 31
0.0
 11
46.49005650879985
 21
5.927775743600037
 31
0.0
 11
46.48259401439986
 21
5.927783961400066
 31
0.0
 11
46.47504739979979
 21
5.927781665100027
 31
0.0
 11
46.46712469259989
 21
5.92776780420003
 31
0.0
 11
46.45844563729986
 21
5.927739126700046
 31
0.0
 11
46.44873899629987
 21
5.927690203500006
 31
0.0
 11
46.43839435159986
 21
5.927617995500028
 31
0.0
 11
46.42826700569992
 21
5.927525891800016
 31
0.0
 11
46.41899710549989
 21
5.927421869500037
 31
0.0
 11
46.41057634749984
 21
5.927310373400032
 31
0.0
 11
46.40266893869977
 21
5.927190582500045
 31
0.0
 11
46.39496967029981
 21
5.92705973480001
 31
0.0
 11
46.38732553299985
 21
5.926916355000017
 31
0.0
 11
46.37969833939985
 21
5.926761560200034
 31
0.0
 11
46.37202978389985
 21
5.926595705700023
 31
0.0
 11
46.36424441439987
 21
5.926418230000038
 31
0.0
 11
46.35628117429985
 21
5.926228506100031
 31
0.0
 11
46.34826400809981
 21
5.926030354300038
 31
0.0
 11
46.34065207759988
 21
5.925836692800046
 31
0.0
 11
46.3337451138999
 21
5.925656880299996
 31
0.0
 11
46.32734106079988
 21
5.925486730700029
 31
0.0
 11
46.3210768670998
 21
5.925317197100028
 31
0.0
 11
46.31463217729981
 21
5.925139786200034
 31
0.0
 11
46.30793991239977
 21
5.924952716900023
 31
0.0
 11
46.30120759259989
 21
5.92476215530003
 31
0.0
 11
46.29454169939992
 21
5.924571832799998
 31
0.0
 11
46.2879060831998
 21
5.92438156330003
 31
0.0
 11
46.28126677699981
 21
5.924191243600049
 31
0.0
 11
46.27460763889985
 21
5.924001270100021
 31
0.0
 11
46.26793883869993
 21
5.923812420300023
 31
0.0
 11
46.26127179239984
 21
5.923624834600033
 31
0.0
 11
46.25457971529988
 21
5.923437524800036
 31
0.0
 11
46.24787142549985
 21
5.92325052590003
 31
0.0
 11
46.2412407459999
 21
5.923066241300048
 31
0.0
 11
46.23464521649987
 21
5.922883290100017
 31
0.0
  0
SPLINE
  5
561E7
330
1F
100
AcDbEntity
  8
1
100
AcDbSpline
210
0.0
220
0.0
230
1.0
 70
     8
 71
     3
 72
    55
 73
    51
 74
     0
 42
0.0000000001
 43
0.0000000001
 40
0.0
 40
0.0
 40
0.0
 40
0.0
 40
0.0049958518605036
 40
0.0099154836547118
 40
0.0147614039393308
 40
0.0195361765226469
 40
0.0242426065888578
 40
0.0288840354260519
 40
0.0334632092930215
 40
0.0379827811565301
 40
0.0424455579928228
 40
0.0468539322024359
 40
0.0512106949502919
 40
0.0555183005384531
 40
0.0597787170893352
 40
0.0639946116448138
 40
0.0681682903514762
 40
0.0723013437081981
 40
0.0763961805138019
 40
0.0804553167587664
 40
0.0844804913487799
 40
0.0884739998521764
 40
0.0924382164776191
 40
0.0963743259211866
 40
0.1002830910839866
 40
0.1041660431218799
 40
0.1080255685188839
 40
0.1118637800677523
 40
0.1156827853006501
 40
0.1194842128833436
 40
0.1232689704898801
 40
0.1270389989150002
 40
0.130796545351451
 40
0.1345422087032235
 40
0.1382735226435646
 40
0.1419876255486954
 40
0.1456821546001881
 40
0.149355986884438
 40
0.1530116447863856
 40
0.1566521524863095
 40
0.160279425273424
 40
0.163893662741968
 40
0.1674952461642928
 40
0.1710854262347053
 40
0.1746664476601297
 40
0.178239181407441
 40
0.1818045453531805
 40
0.1853641601714313
 40
0.188920363188067
 40
0.1906203458717587
 40
0.1906203458717587
 40
0.1906203458717587
 40
0.1906203458717587
 10
50.2539340740999
 20
-4.55024704609994
 30
0.0
 10
50.25485222906843
 20
-4.548857743361367
 30
0.0
 10
50.2566727842692
 20
-4.546099179157351
 30
0.0
 10
50.2593778613392
 20
-4.541988999676078
 30
0.0
 10
50.26203735525053
 20
-4.537937045660697
 30
0.0
 10
50.26465273086831
 20
-4.533941146827032
 30
0.0
 10
50.2672254483258
 20
-4.529998799026088
 30
0.0
 10
50.26975776140648
 20
-4.526107942906008
 30
0.0
 10
50.27225130934937
 20
-4.522266177356385
 30
0.0
 10
50.2747077733087
 20
-4.518471340963714
 30
0.0
 10
50.27712871839582
 20
-4.514721336923003
 30
0.0
 10
50.27951573436053
 20
-4.511014029101772
 30
0.0
 10
50.28187033337326
 20
-4.507347370749812
 30
0.0
 10
50.28419394128071
 20
-4.503719427342247
 30
0.0
 10
50.28648795227741
 20
-4.500128292816242
 30
0.0
 10
50.28875372421419
 20
-4.496572096122235
 30
0.0
 10
50.29099253754464
 20
-4.493049065807753
 30
0.0
 10
50.29320561878626
 20
-4.489557497818481
 30
0.0
 10
50.29539422306561
 20
-4.486095623119268
 30
0.0
 10
50.29755962301954
 20
-4.482661624945649
 30
0.0
 10
50.29970306304733
 20
-4.479253713096312
 30
0.0
 10
50.30182575346157
 20
-4.475870131530456
 30
0.0
 10
50.30392879840462
 20
-4.472509275473726
 30
0.0
 10
50.30601302434115
 20
-4.46916996887316
 30
0.0
 10
50.30807910380634
 20
-4.465851270688887
 30
0.0
 10
50.31012791646446
 20
-4.462551896783878
 30
0.0
 10
50.31216057249082
 20
-4.459270176350912
 30
0.0
 10
50.31417827509438
 20
-4.456004270080342
 30
0.0
 10
50.31618208660564
 20
-4.452752548440599
 30
0.0
 10
50.31817285194961
 20
-4.449513719686521
 30
0.0
 10
50.32015138065594
 20
-4.446286535477298
 30
0.0
 10
50.32211858495634
 20
-4.443069568532067
 30
0.0
 10
50.32407531569686
 20
-4.439861474621963
 30
0.0
 10
50.32602165499771
 20
-4.436662161346561
 30
0.0
 10
50.32795680163906
 20
-4.433472992200947
 30
0.0
 10
50.32987945066498
 20
-4.430296179753412
 30
0.0
 10
50.33178853899869
 20
-4.427133559469808
 30
0.0
 10
50.33368393699845
 20
-4.423985433896959
 30
0.0
 10
50.33556644004057
 20
-4.420850566410209
 30
0.0
 10
50.33743735704468
 20
-4.417726847381686
 30
0.0
 10
50.33929758962177
 20
-4.414612825684031
 30
0.0
 10
50.34114758303997
 20
-4.411507803729392
 30
0.0
 10
50.34298766665177
 20
-4.408411272701144
 30
0.0
 10
50.34481851440148
 20
-4.405322135539449
 30
0.0
 10
50.34664087825354
 20
-4.402239151658221
 30
0.0
 10
50.34845544763914
 20
-4.399161172372672
 30
0.0
 10
50.35026280120837
 20
-4.396087225164677
 30
0.0
 10
50.35206376109056
 20
-4.393015913677487
 30
0.0
 10
50.35354721140527
 20
-4.390479232745619
 30
0.0
 10
50.35443035582466
 20
-4.388966031687047
 30
0.0
 10
50.35471584812092
 20
-4.388476543427856
 30
0.0
  0
SPLINE
  5
561E8
330
1F
100
AcDbEntity
  8
1
100
AcDbSpline
210
0.0
220
0.0
230
1.0
 70
     8
 71
     3
 72
    73
 73
    69
 74
    67
 42
0.0000000001
 43
0.0000000001
 44
0.000001
 12
0.619670405945217
 22
0.7848621458547291
 32
0.0
 13
0.5628224525657926
 23
0.8265778165955255
 33
0.0
 40
0.0
 40
0.0
 40
0.0
 40
0.0
 40
0.0049988741952299
 40
0.0099221252931372
 40
0.0147738007464664
 40
0.0195564841301275
 40
0.0242727781703653
 40
0.0289260858531371
 40
0.0335191057387568
 40
0.0380541628567852
 40
0.0425341741666922
 40
0.0469613987365436
 40
0.0513391045207296
 40
0.0556695727953052
 40
0.0599546918430288
 40
0.0641968021625251
 40
0.0683990033487315
 40
0.0725627074596918
 40
0.0766891771837711
 40
0.0807801063911625
 40
0.0848382233693556
 40
0.0888656453791649
 40
0.0928650335985183
 40
0.0968385408677618
 40
0.1007887784577799
 40
0.1047168581900098
 40
0.1086236419302433
 40
0.1125110140849646
 40
0.1163814954010147
 40
0.1202365929251662
 40
0.124077862601931
 40
0.1279074743315263
 40
0.1317249124858365
 40
0.1355287542437437
 40
0.1393177958343654
 40
0.1430910587836439
 40
0.1468458030114019
 40
0.1505820772596809
 40
0.1543019322413931
 40
0.1580077865069472
 40
0.1617005819339207
 40
0.1653819633056996
 40
0.16905358883004
 40
0.1727175785236521
 40
0.1763749902111282
 40
0.180026303560507
 40
0.1836733976966562
 40
0.1873178602074139
 40
0.1909609566600333
 40
0.1946051174793818
 40
0.1982514999752805
 40
0.2019007502152731
 40
0.205553563963936
 40
0.2092121383527104
 40
0.2128773368142415
 40
0.2165494592333653
 40
0.2202288818271034
 40
0.2239189731914201
 40
0.2276218481120222
 40
0.231337918148255
 40
0.235068699712312
 40
0.2388152625474543
 40
0.2425792397633102
 40
0.2463618145971065
 40
0.2501644329838744
 40
0.2539882138227943
 40
0.2578348642410673
 40
0.2617058373302795
 40
0.2617058373302795
 40
0.2617058373302795
 40
0.2617058373302795
 10
50.09888671759984
 20
-4.761012056099957
 30
0.0
 10
50.09991926906713
 20
-4.759704247057385
 30
0.0
 10
50.10196717916733
 20
-4.7571071716578
 30
0.0
 10
50.10501179502694
 20
-4.753236511126644
 30
0.0
 10
50.10800729965126
 20
-4.749418910418071
 30
0.0
 10
50.11095576790433
 20
-4.745652094090175
 30
0.0
 10
50.11385913071262
 20
-4.741933946044539
 30
0.0
 10
50.11671933061314
 20
-4.73826231005939
 30
0.0
 10
50.11953824340537
 20
-4.734635094678431
 30
0.0
 10
50.12231762946868
 20
-4.731050323427226
 30
0.0
 10
50.12505916998264
 20
-4.727506143255354
 30
0.0
 10
50.12776465353988
 20
-4.72400038641188
 30
0.0
 10
50.13043576782838
 20
-4.720531074851571
 30
0.0
 10
50.1330742219572
 20
-4.717096402440539
 30
0.0
 10
50.13568142041271
 20
-4.713694718213886
 30
0.0
 10
50.13825895429255
 20
-4.710324170332661
 30
0.0
 10
50.14080830176538
 20
-4.706983020061414
 30
0.0
 10
50.14333071731368
 20
-4.703669809613224
 30
0.0
 10
50.14582716508527
 20
-4.70038344879363
 30
0.0
 10
50.14829886970199
 20
-4.697122494033862
 30
0.0
 10
50.15074722016641
 20
-4.69388526867231
 30
0.0
 10
50.15317379250518
 20
-4.690669832999461
 30
0.0
 10
50.15558003897945
 20
-4.687474394003416
 30
0.0
 10
50.15796750261199
 20
-4.684297020696149
 30
0.0
 10
50.16033740904294
 20
-4.681136189441211
 30
0.0
 10
50.16269071914644
 20
-4.677990715788013
 30
0.0
 10
50.16502824471001
 20
-4.674859606205629
 30
0.0
 10
50.16735107363359
 20
-4.671741487088951
 30
0.0
 10
50.16966041604985
 20
-4.668634807605151
 30
0.0
 10
50.17195741041684
 20
-4.665538099971001
 30
0.0
 10
50.17424311994978
 20
-4.662449986121814
 30
0.0
 10
50.17651820171312
 20
-4.659369626125055
 30
0.0
 10
50.1787827198969
 20
-4.656296976491177
 30
0.0
 10
50.18103607363674
 20
-4.653232900506992
 30
0.0
 10
50.18327757426994
 20
-4.650178388342808
 30
0.0
 10
50.18550627781559
 20
-4.647134787367889
 30
0.0
 10
50.18772149219717
 20
-4.644103111862733
 30
0.0
 10
50.18992312444772
 20
-4.641083563219247
 30
0.0
 10
50.19211209303581
 20
-4.638074952110521
 30
0.0
 10
50.19428948566747
 20
-4.635075844081313
 30
0.0
 10
50.19645630517391
 20
-4.632084910194052
 30
0.0
 10
50.19861340052307
 20
-4.629101022949065
 30
0.0
 10
50.20076184597423
 20
-4.626122733079654
 30
0.0
 10
50.20290259502002
 20
-4.623148745410532
 30
0.0
 10
50.20503636731934
 20
-4.620178080462309
 30
0.0
 10
50.20716383171839
 20
-4.617209821107209
 30
0.0
 10
50.20928575616267
 20
-4.614242903978578
 30
0.0
 10
50.21140305608605
 20
-4.611276049126097
 30
0.0
 10
50.21351674848125
 20
-4.608307823329141
 30
0.0
 10
50.2156277611362
 20
-4.605336905945577
 30
0.0
 10
50.2177368968936
 20
-4.602362140917406
 30
0.0
 10
50.21984462050927
 20
-4.599382841338709
 30
0.0
 10
50.22195159188737
 20
-4.596398033855635
 30
0.0
 10
50.22405851662336
 20
-4.5934066887365
 30
0.0
 10
50.22616598868115
 20
-4.59040785910691
 30
0.0
 10
50.22827424159487
 20
-4.587401086951246
 30
0.0
 10
50.23038408880086
 20
-4.584385301040946
 30
0.0
 10
50.23249659644694
 20
-4.581358868506157
 30
0.0
 10
50.2346128533639
 20
-4.578320158160764
 30
0.0
 10
50.23673358309247
 20
-4.575268036887116
 30
0.0
 10
50.23885930761998
 20
-4.57220165586807
 30
0.0
 10
50.24099077583958
 20
-4.569119828289835
 30
0.0
 10
50.24312866821481
 20
-4.566021455222021
 30
0.0
 10
50.24527373094542
 20
-4.562905330930682
 30
0.0
 10
50.2474266075086
 20
-4.559770387272692
 30
0.0
 10
50.24958803478409
 20
-4.556615408599753
 30
0.0
 10
50.25175874492493
 20
-4.553439173473968
 30
0.0
 10
50.25320785057727
 20
-4.551313599594664
 30
0.0
 10
50.2539340740999
 20
-4.55024704609994
 30
0.0
 11
50.09888671759984
 21
-4.761012056099957
 31
0.0
 11
50.10198196869987
 21
-4.757086746799956
 31
0.0
 11
50.10502569399989
 21
-4.753217143799957
 31
0.0
 11
50.10802058579987
 21
-4.749400220299946
 31
0.0
 11
50.1109684180999
 21
-4.74563408939997
 31
0.0
 11
50.11387096539988
 21
-4.741916839999959
 31
0.0
 11
50.11673048279988
 21
-4.738245920699938
 31
0.0
 11
50.11954877999983
 21
-4.734619325799968
 31
0.0
 11
50.12232742709989
 21
-4.731035336199937
 31
0.0
 11
50.12506834699991
 21
-4.727491757099954
 31
0.0
 11
50.12777307659985
 21
-4.723986870399954
 31
0.0
 11
50.13044373879996
 21
-4.720518177799959
 31
0.0
 11
50.13308180359991
 21
-4.717084006999954
 31
0.0
 11
50.13568852639981
 21
-4.713682947799952
 31
0.0
 11
50.13826543039988
 21
-4.710313225299955
 31
0.0
 11
50.1408144904999
 21
-4.706972453999952
 31
0.0
 11
50.14333664919991
 21
-4.703659582999961
 31
0.0
 11
50.14583275369989
 21
-4.70037367629996
 31
0.0
 11
50.14830390719987
 21
-4.697113450699959
 31
0.0
 11
50.15075183029989
 21
-4.693876792599951
 31
0.0
 11
50.15317786669982
 21
-4.690662069299918
 31
0.0
 11
50.1555836798999
 21
-4.687467207799954
 31
0.0
 11
50.15797061919977
 21
-4.684290534599966
 31
0.0
 11
50.16034030179992
 21
-4.681130003999953
 31
0.0
 11
50.16269343839986
 21
-4.677984764499939
 31
0.0
 11
50.16503058679984
 21
-4.674854162299965
 31
0.0
 11
50.1673529123999
 21
-4.671736720999973
 31
0.0
 11
50.16966195379985
 21
-4.668630448599969
 31
0.0
 11
50.17195863789982
 21
-4.665534161399961
 31
0.0
 11
50.17424391589987
 21
-4.662446632799969
 31
0.0
 11
50.17651909849985
 21
-4.659366138399974
 31
0.0
 11
50.17878389689986
 21
-4.656293110899952
 31
0.0
 11
50.18103748719989
 21
-4.653228715599965
 31
0.0
 11
50.18327917969987
 21
-4.650173944499954
 31
0.0
 11
50.1855084217999
 21
-4.64712961069992
 31
0.0
 11
50.18772362559992
 21
-4.644097952499947
 31
0.0
 11
50.18992485419983
 21
-4.641078960499953
 31
0.0
 11
50.19211334759984
 21
-4.63807100569997
 31
0.0
 11
50.19429055499983
 21
-4.635072156299969
 31
0.0
 11
50.19645705209985
 21
-4.632081671099939
 31
0.0
 11
50.19861382299985
 21
-4.629098236699974
 31
0.0
 11
50.20076185439984
 21
-4.626120524999947
 31
0.0
 11
50.20290239699988
 21
-4.623146828799974
 31
0.0
 11
50.20503607559987
 21
-4.620176299199954
 31
0.0
 11
50.2071631747998
 21
-4.617208554699971
 31
0.0
 11
50.20928479119982
 21
-4.614242073999918
 31
0.0
 11
50.21140184599983
 21
-4.611275568799953
 31
0.0
 11
50.21351506849987
 21
-4.60830800949995
 31
0.0
 11
50.21562585789991
 21
-4.605337413499938
 31
0.0
 11
50.21773486949985
 21
-4.602362831499959
 31
0.0
 11
50.21984245939984
 21
-4.599383728699962
 31
0.0
 11
50.22194901019986
 21
-4.59639952829994
 31
0.0
 11
50.22405576599988
 21
-4.593408423999989
 31
0.0
 11
50.22616321619989
 21
-4.590409668099965
 31
0.0
 11
50.22827151919989
 21
-4.587402978799957
 31
0.0
 11
50.23038082639982
 21
-4.584388081999946
 31
0.0
 11
50.23249303379987
 21
-4.581362198899938
 31
0.0
 11
50.23460930909982
 21
-4.578323571599952
 31
0.0
 11
50.23672984139989
 21
-4.575271836499979
 31
0.0
 11
50.23885544639984
 21
-4.572205720199974
 31
0.0
 11
50.24098668049987
 21
-4.569124313299965
 31
0.0
 11
50.24312441519987
 21
-4.566026239599949
 31
0.0
 11
50.24526926059991
 21
-4.562910489399968
 31
0.0
 11
50.24742197049988
 21
-4.559775833299937
 31
0.0
 11
50.24958310799991
 21
-4.556621307999961
 31
0.0
 11
50.25175356269983
 21
-4.55344546119997
 31
0.0
 11
50.2539340740999
 21
-4.55024704609994
 31
0.0
  0
SPLINE
  5
561E9
330
1F
100
AcDbEntity
  8
1
100
AcDbSpline
210
0.0
220
0.0
230
1.0
 70
     8
 71
     3
 72
    22
 73
    18
 74
    16
 42
0.0000000001
 43
0.0000000001
 44
0.000001
 12
0.0559714537861892
 22
-0.9984323694477563
 32
0.0
 13
0.0608291190676837
 23
-0.9981481945450031
 33
0.0
 40
0.0
 40
0.0
 40
0.0
 40
0.0
 40
0.0268166277439814
 40
0.0551691670069139
 40
0.0848750831786297
 40
0.1149711447064082
 40
0.1448086848357927
 40
0.1745727128649997
 40
0.2043852693574965
 40
0.234170604183995
 40
0.2639595293724551
 40
0.2938954309221197
 40
0.3240301460958201
 40
0.3543127927122788
 40
0.3843493617749797
 40
0.4137192533092042
 40
0.4428177825256252
 40
0.4428177825256252
 40
0.4428177825256252
 40
0.4428177825256252
 10
50.69336401599992
 20
-0.3279712222999791
 30
0.0
 10
50.69386433788008
 20
-0.3368960853596548
 30
0.0
 10
50.69489997702715
 20
-0.3552566263063142
 30
0.0
 10
50.69652448255658
 20
-0.3835016468989636
 30
0.0
 10
50.69823049369472
 20
-0.4128369215824819
 30
0.0
 10
50.69997703411428
 20
-0.4426656729638055
 30
0.0
 10
50.70172520955082
 20
-0.4725137320429554
 30
0.0
 10
50.70346607635286
 20
-0.502267555612022
 30
0.0
 10
50.7052042294477
 20
-0.5320041063601338
 30
0.0
 10
50.70694040794944
 20
-0.5617490856637489
 30
0.0
 10
50.70867700224517
 20
-0.5915352255848632
 30
0.0
 10
50.7104213526976
 20
-0.6214375712163119
 30
0.0
 10
50.71217899864859
 20
-0.6515039946397465
 30
0.0
 10
50.71394478408928
 20
-0.6816035552159505
 30
0.0
 10
50.71570825791991
 20
-0.7114478695859959
 30
0.0
 10
50.71746542285211
 20
-0.7408971598498085
 30
0.0
 10
50.71864492586707
 20
-0.7603509117662171
 30
0.0
 10
50.71923493849988
 20
-0.77003245989998
 30
0.0
 11
50.69336401599992
 21
-0.3279712222999791
 31
0.0
 11
50.69487693869985
 21
-0.3547451382999469
 31
0.0
 11
50.69650252029987
 21
-0.3830510376999854
 31
0.0
 11
50.69822588269983
 21
-0.4127069216999502
 31
0.0
 11
50.69998315419991
 21
-0.4427516366999811
 31
0.0
 11
50.70172734269988
 21
-0.472538153699972
 31
0.0
 11
50.70346584739979
 21
-0.502251365499987
 31
0.0
 11
50.70520534699983
 21
-0.5320131304999763
 31
0.0
 11
50.70694100709977
 21
-0.5617478516999626
 31
0.0
 11
50.70867531069985
 21
-0.5914862484999759
 31
0.0
 11
50.71041910439987
 21
-0.6213713178999712
 31
0.0
 11
50.71217814629983
 21
-0.6514546490999607
 31
0.0
 11
50.71395272509983
 21
-0.6816852550999642
 31
0.0
 11
50.71572527689989
 21
-0.7116694763000027
 31
0.0
 11
50.71747652199985
 21
-0.7409871099999777
 31
0.0
 11
50.71923493849988
 21
-0.77003245989998
 31
0.0
  0
SPLINE
  5
561EA
330
1F
100
AcDbEntity
  8
1
100
AcDbSpline
210
0.0
220
0.0
230
1.0
 70
     8
 71
     3
 72
    23
 73
    19
 74
    17
 42
0.0000000001
 43
0.0000000001
 44
0.000001
 12
0.0541105523918318
 22
-0.9985349508754568
 32
0.0
 13
0.0592824401090443
 23
-0.9982412495457786
 33
0.0
 40
0.0
 40
0.0
 40
0.0
 40
0.0
 40
0.0230890004885268
 40
0.0486423287926143
 40
0.0766366356535058
 40
0.1063285869173449
 40
0.1361713162147266
 40
0.1655437689494868
 40
0.1947255475075871
 40
0.2238910269435378
 40
0.2531308364542808
 40
0.2823077396164961
 40
0.3111751632148436
 40
0.3395781279509191
 40
0.367362589851959
 40
0.3940344971485806
 40
0.4189706421411421
 40
0.4422274524460047
 40
0.4422274524460047
 40
0.4422274524460047
 40
0.4422274524460047
 10
50.71923493849988
 20
-0.77003245989998
 30
0.0
 10
50.71965139135676
 20
-0.7777175178895064
 30
0.0
 10
50.72053256539096
 20
-0.7939076670477477
 30
0.0
 10
50.72194197352899
 20
-0.8194143050686051
 30
0.0
 10
50.72349222190405
 20
-0.8471174949455715
 30
0.0
 10
50.72514553590377
 20
-0.8762469458049579
 30
0.0
 10
50.72684407124786
 20
-0.9058339432449571
 30
0.0
 10
50.72854254188701
 20
-0.9352506041558044
 30
0.0
 10
50.73022943796104
 20
-0.9644418073857394
 30
0.0
 10
50.73190665986766
 20
-0.9935892809799256
 30
0.0
 10
50.73357514161313
 20
-1.022735628416363
 30
0.0
 10
50.73522861616533
 20
-1.05178331904743
 30
0.0
 10
50.73685505880337
 20
-1.080553146451414
 30
0.0
 10
50.7384472515464
 20
-1.108860020032615
 30
0.0
 10
50.74000329710401
 20
-1.136435931431194
 30
0.0
 10
50.74150894200733
 20
-1.162857239323649
 30
0.0
 10
50.74295032466
 20
-1.187770536842229
 30
0.0
 10
50.74389666571187
 20
-1.203806959906899
 30
0.0
 10
50.74435623919987
 20
-1.211545595699959
 30
0.0
 11
50.71923493849988
 21
-0.77003245989998
 31
0.0
 11
50.72049194009981
 21
-0.7930872181999718
 31
0.0
 11
50.7219009234999
 21
-0.8186016715999784
 31
0.0
 11
50.72346520129986
 21
-0.8465522391999655
 31
0.0
 11
50.72514688259992
 21
-0.8761965285999764
 31
0.0
 11
50.72685570139981
 21
-0.905990293199963
 31
0.0
 11
50.72854744549989
 21
-0.9353139860999846
 31
0.0
 11
50.73022956279988
 21
-0.9644472431999844
 31
0.0
 11
50.73190479699985
 21
-0.9935645708999771
 31
0.0
 11
50.7335757740999
 21
-1.022756595299981
 31
0.0
 11
50.73523358059981
 21
-1.051886362699974
 31
0.0
 11
50.73686341809992
 21
-1.080707739599972
 31
0.0
 11
50.73846068609987
 21
-1.10906575659996
 31
0.0
 11
50.74002781399986
 21
-1.13680598759997
 31
0.0
 11
50.74154683589984
 21
-1.163434603599938
 31
0.0
 11
50.74298860189981
 21
-1.188329032999988
 31
0.0
 11
50.74435623919987
 21
-1.211545595699959
 31
0.0
  0
SPLINE
  5
561EB
330
1F
100
AcDbEntity
  8
1
100
AcDbSpline
210
0.0
220
0.0
230
1.0
 70
     8
 71
     3
 72
    73
 73
    69
 74
    67
 42
0.0000000001
 43
0.0000000001
 44
0.000001
 12
0.6844004535882524
 22
0.7291063153808191
 32
0.0
 13
0.6367164582721109
 23
0.7710980169637446
 33
0.0
 40
0.0
 40
0.0
 40
0.0
 40
0.0
 40
0.0049259580066887
 40
0.0097813288978066
 40
0.0145686220147031
 40
0.0192901558292665
 40
0.0239488425977022
 40
0.0285476173069226
 40
0.0330892182738233
 40
0.0375759543607223
 40
0.0420107786982106
 40
0.0463960315881905
 40
0.0507348189252718
 40
0.0550290000241035
 40
0.0592801618130457
 40
0.0634903429889511
 40
0.0676625592678862
 40
0.0717986533387776
 40
0.0759005752413804
 40
0.0799710530509334
 40
0.0840114229391386
 40
0.0880228969163149
 40
0.0920077190521541
 40
0.0959679376031519
 40
0.0999057620812672
 40
0.1038231664699671
 40
0.1077220253365969
 40
0.1116042118638268
 40
0.1154706636311643
 40
0.1193234094019596
 40
0.1231644383005323
 40
0.12699520708692
 40
0.1308170006980461
 40
0.1346281277008992
 40
0.1384265083480429
 40
0.1422106976253147
 40
0.1459781490840773
 40
0.1497289225048365
 40
0.1534651071399323
 40
0.1571890672224068
 40
0.1609017529206577
 40
0.1646047410603904
 40
0.1682998786960568
 40
0.1719893602508389
 40
0.175674366823765
 40
0.179355298723318
 40
0.1830334418466494
 40
0.1867108914481683
 40
0.1903887503631414
 40
0.1940686425396375
 40
0.1977528610128211
 40
0.2014421894761154
 40
0.2051372440110522
 40
0.2088392590979562
 40
0.2125504435086497
 40
0.2162714700165149
 40
0.2200028024126839
 40
0.2237454795662645
 40
0.2275020180906271
 40
0.2312746223704472
 40
0.2350644321529314
 40
0.2388723005896603
 40
0.2426999774545794
 40
0.2465486374957726
 40
0.25042033181968
 40
0.254316120682431
 40
0.2582366185996966
 40
0.2621835423035946
 40
0.2621835423035946
 40
0.2621835423035946
 40
0.2621835423035946
 10
49.9255893200999
 20
-4.957697121399974
 30
0.0
 10
49.92671309606459
 20
-4.956499939035978
 30
0.0
 10
49.92894316043396
 20
-4.954121429639556
 30
0.0
 10
49.93226058622042
 20
-4.950574960165582
 30
0.0
 10
49.93552746640381
 20
-4.947074520296553
 30
0.0
 10
49.93874572148382
 20
-4.943618381849546
 30
0.0
 10
49.94191735139827
 20
-4.940204695979318
 30
0.0
 10
49.94504446646448
 20
-4.936831524612522
 30
0.0
 10
49.94812893549568
 20
-4.933496979862404
 30
0.0
 10
49.95117304641451
 20
-4.930199551971142
 30
0.0
 10
49.9541782825517
 20
-4.926937167857083
 30
0.0
 10
49.95714674252326
 20
-4.923707961096823
 30
0.0
 10
49.96008015244519
 20
-4.920510217042959
 30
0.0
 10
49.96298009186415
 20
-4.917342427209916
 30
0.0
 10
49.96584788504344
 20
-4.914203331257063
 30
0.0
 10
49.96868511228484
 20
-4.911091380327093
 30
0.0
 10
49.97149340351393
 20
-4.908004955110158
 30
0.0
 10
49.974274361482
 20
-4.904942451231228
 30
0.0
 10
49.97702951808765
 20
-4.901902329214657
 30
0.0
 10
49.97976028534748
 20
-4.898883168542695
 30
0.0
 10
49.98246790395888
 20
-4.895883725220294
 30
0.0
 10
49.98515350214609
 20
-4.892902870851216
 30
0.0
 10
49.98781836189227
 20
-4.889939295875308
 30
0.0
 10
49.99046398132088
 20
-4.886991437742771
 30
0.0
 10
49.99309179293937
 20
-4.884057795813276
 30
0.0
 10
49.99570318401703
 20
-4.881136906496728
 30
0.0
 10
49.99829946194086
 20
-4.878227385029994
 30
0.0
 10
50.00088169890711
 20
-4.875328099668813
 30
0.0
 10
50.00345099687689
 20
-4.872437876239516
 30
0.0
 10
50.00600847918446
 20
-4.869555507759088
 30
0.0
 10
50.0085553790974
 20
-4.866679653335225
 30
0.0
 10
50.01109276049152
 20
-4.863809153182941
 30
0.0
 10
50.01362087157326
 20
-4.860943763896266
 30
0.0
 10
50.01613918103436
 20
-4.858084126326602
 30
0.0
 10
50.01864655964254
 20
-4.85523156725145
 30
0.0
 10
50.02114169516284
 20
-4.85238763197514
 30
0.0
 10
50.02362375131053
 20
-4.849553334543102
 30
0.0
 10
50.02609267004846
 20
-4.846728804465129
 30
0.0
 10
50.02854946960514
 20
-4.843912937833394
 30
0.0
 10
50.03099535820024
 20
-4.841104402530234
 30
0.0
 10
50.03343142747343
 20
-4.838301991334262
 30
0.0
 10
50.03585865151478
 20
-4.835504623193813
 30
0.0
 10
50.03827827240383
 20
-4.832710900413026
 30
0.0
 10
50.04069144034406
 20
-4.829919520179274
 30
0.0
 10
50.04309898603719
 20
-4.827129540908636
 30
0.0
 10
50.0455015397145
 20
-4.824340248007217
 30
0.0
 10
50.0478999276205
 20
-4.821550693521757
 30
0.0
 10
50.05029512516188
 20
-4.818759748900532
 30
0.0
 10
50.05268817658333
 20
-4.815966196172382
 30
0.0
 10
50.05508016519581
 20
-4.813168764026983
 30
0.0
 10
50.05747210033871
 20
-4.810366257883543
 30
0.0
 10
50.05986476934197
 20
-4.807557735386254
 30
0.0
 10
50.06225872807681
 20
-4.804742520561497
 30
0.0
 10
50.06465483710036
 20
-4.801919573013393
 30
0.0
 10
50.06705396567173
 20
-4.799087834990018
 30
0.0
 10
50.06945681310298
 20
-4.796246441508884
 30
0.0
 10
50.07186382441068
 20
-4.793394823322195
 30
0.0
 10
50.07427584008564
 20
-4.790531940752885
 30
0.0
 10
50.07669406309969
 20
-4.787656300966311
 30
0.0
 10
50.07911973924206
 20
-4.784766403167317
 30
0.0
 10
50.08155365098907
 20
-4.781861081974717
 30
0.0
 10
50.08399686407244
 20
-4.77893960667685
 30
0.0
 10
50.08644988539595
 20
-4.776000763545631
 30
0.0
 10
50.08891373162646
 20
-4.77304324542105
 30
0.0
 10
50.09138926386487
 20
-4.770065914661373
 30
0.0
 10
50.09387722014128
 20
-4.767067774359233
 30
0.0
 10
50.0963782632262
 20
-4.764047910238652
 30
0.0
 10
50.09804902717258
 20
-4.762026544447017
 30
0.0
 10
50.09888671759984
 20
-4.761012056099957
 30
0.0
 11
49.9255893200999
 21
-4.957697121399974
 31
0.0
 11
49.92895857159988
 21
-4.954103628699982
 31
0.0
 11
49.93227547559979
 21
-4.950557825099934
 31
0.0
 11
49.93554190849988
 21
-4.947058037599958
 31
0.0
 11
49.93875960699995
 21
-4.94360272329996
 31
0.0
 11
49.94193070269978
 21
-4.940189895099962
 31
0.0
 11
49.94505733199992
 21
-4.936817538799971
 31
0.0
 11
49.94814148809985
 21
-4.933483773399956
 31
0.0
 11
49.9511848727999
 21
-4.930187013999955
 31
0.0
 11
49.95418959519986
 21
-4.926925216599954
 31
0.0
 11
49.95715735009992
 21
-4.92369676719997
 31
0.0
 11
49.96009034179985
 21
-4.920499479799957
 31
0.0
 11
49.96298992339984
 21
-4.917332078799972
 31
0.0
 11
49.9658572579998
 21
-4.914193483599973
 31
0.0
 11
49.96869380769988
 21
-4.911082274499989
 31
0.0
 11
49.97150168529981
 21
-4.907996302599968
 31
0.0
 11
49.97428220609993
 21
-4.904934278999974
 31
0.0
 11
49.97703675189985
 21
-4.901894829899987
 31
0.0
 11
49.97976722019984
 21
-4.898875998599947
 31
0.0
 11
49.98247456799993
 21
-4.895876854299956
 31
0.0
 11
49.98515966539992
 21
-4.89289655479996
 31
0.0
 11
49.98782406849989
 21
-4.889933486599971
 31
0.0
 11
49.99046919599994
 21
-4.886986175799933
 31
0.0
 11
49.99309656849982
 21
-4.884053023099937
 31
0.0
 11
49.99570754309991
 21
-4.88113259879995
 31
0.0
 11
49.99830340529991
 21
-4.878223542399979
 31
0.0
 11
50.00088543439983
 21
-4.875324489599933
 31
0.0
 11
50.00345428309981
 21
-4.872434770799969
 31
0.0
 11
50.00601132539987
 21
-4.869552897499971
 31
0.0
 11
50.00855790339983
 21
-4.866677405799947
 31
0.0
 11
50.0110950011998
 21
-4.863807225799973
 31
0.0
 11
50.01362348539988
 21
-4.860941412999949
 31
0.0
 11
50.01614225309992
 21
-4.858081254399962
 31
0.0
 11
50.01864994979985
 21
-4.855228332799953
 31
0.0
 11
50.02114564529984
 21
-4.852383758799959
 31
0.0
 11
50.02362768839986
 21
-4.849549475599957
 31
0.0
 11
50.02609614899984
 21
-4.846725469199952
 31
0.0
 11
50.02855243059991
 21
-4.843910195699919
 31
0.0
 11
50.03099811139986
 21
-4.841101898599987
 31
0.0
 11
50.03343383599986
 21
-4.838299883399969
 31
0.0
 11
50.03586065679986
 21
-4.835502979699953
 31
0.0
 11
50.03827979899984
 21
-4.83270980919994
 31
0.0
 11
50.04069270969978
 21
-4.829918726199963
 31
0.0
 11
50.04310016849979
 21
-4.827128847399961
 31
0.0
 11
50.04550244269978
 21
-4.824339878699987
 31
0.0
 11
50.04790037559985
 21
-4.821550853299953
 31
0.0
 11
50.05029533399988
 21
-4.818760187099968
 31
0.0
 11
50.05268803359979
 21
-4.81596704499995
 31
0.0
 11
50.05507952579989
 21
-4.813170193299953
 31
0.0
 11
50.05747129169993
 21
-4.810367885399955
 31
0.0
 11
50.0598638278999
 21
-4.807559518799934
 31
0.0
 11
50.06225752039984
 21
-4.804744616999954
 31
0.0
 11
50.06465315339983
 21
-4.801922230399952
 31
0.0
 11
50.06705213739985
 21
-4.799090663099917
 31
0.0
 11
50.06945488539987
 21
-4.796249387299951
 31
0.0
 11
50.07186167399993
 21
-4.79339803359997
 31
0.0
 11
50.07427314869983
 21
-4.790535791499962
 31
0.0
 11
50.07669090279989
 21
-4.787660716799962
 31
0.0
 11
50.07911632179991
 21
-4.784771098599918
 31
0.0
 11
50.08155010179985
 21
-4.781866037399964
 31
0.0
 11
50.0839927587998
 21
-4.778944842399965
 31
0.0
 11
50.08644536739985
 21
-4.776006147899948
 31
0.0
 11
50.08890863329987
 21
-4.773049021599973
 31
0.0
 11
50.09138382059984
 21
-4.77007185179994
 31
0.0
 11
50.09387155489992
 21
-4.767073784699988
 31
0.0
 11
50.09637217449983
 21
-4.764054307499947
 31
0.0
 11
50.09888671759984
 21
-4.761012056099957
 31
0.0
  0
SPLINE
  5
561EC
330
1F
100
AcDbEntity
  8
1
100
AcDbSpline
210
0.0
220
0.0
230
1.0
 70
     8
 71
     3
 72
    73
 73
    69
 74
    67
 42
0.0000000001
 43
0.0000000001
 44
0.000001
 12
0.7449458148278069
 22
0.6671249755259768
 32
0.0
 13
0.7037731082459007
 23
0.7104248110179599
 33
0.0
 40
0.0
 40
0.0
 40
0.0
 40
0.0
 40
0.0048522093395648
 40
0.0096368486523113
 40
0.0143566311491633
 40
0.0190145962848739
 40
0.0236132206540274
 40
0.0281554450012159
 40
0.0326438378875234
 40
0.0370805699967886
 40
0.0414683539113918
 40
0.0458096405466184
 40
0.0501072858257298
 40
0.05436293178256
 40
0.0585781353619925
 40
0.062755057104085
 40
0.0668963994948911
 40
0.071003832787074
 40
0.0750794923556073
 40
0.0791258444255331
 40
0.0831443391222731
 40
0.0871369270807121
 40
0.0911058153342975
 40
0.0950519963104158
 40
0.0989769226681871
 40
0.1028829462983348
 40
0.1067718494370885
 40
0.1106457988660636
 40
0.1145061664294422
 40
0.1183551276858125
 40
0.1221945685351801
 40
0.1260260679376286
 40
0.1298505803745529
 40
0.1336662395240783
 40
0.1374711423269486
 40
0.1412634753012628
 40
0.1450404053017173
 40
0.1488024067267823
 40
0.1525517712023781
 40
0.1562907812721812
 40
0.1600202534269967
 40
0.1637419152120685
 40
0.1674575633356499
 40
0.1711693858614784
 40
0.1748783069079781
 40
0.1785847488468357
 40
0.1822903534508516
 40
0.185997005727959
 40
0.1897058241228698
 40
0.1934187783599833
 40
0.1971378400067696
 40
0.200863687860191
 40
0.2045969275932593
 40
0.2083391970689487
 40
0.2120924968775617
 40
0.2158575031648004
 40
0.2196347595053518
 40
0.2234257843232402
 40
0.2272327932632245
 40
0.231057551278896
 40
0.2349017158067104
 40
0.2387664758693251
 40
0.2426535027019958
 40
0.2465638391377761
 40
0.2504992946895428
 40
0.2544609481003109
 40
0.2584508453589288
 40
0.262470487905805
 40
0.262470487905805
 40
0.262470487905805
 40
0.262470487905805
 10
49.7354864030998
 20
-5.13861421119995
 30
0.0
 10
49.73669128077983
 20
-5.137535201187645
 30
0.0
 10
49.73908302299839
 20
-5.135390828115397
 30
0.0
 10
49.74264250584116
 20
-5.132192153395642
 30
0.0
 10
49.74615026952228
 20
-5.129032799882196
 30
0.0
 10
49.7496085340033
 20
-5.125911142213006
 30
0.0
 10
49.75301938470597
 20
-5.122825292654127
 30
0.0
 10
49.75638544288483
 20
-5.119774187954085
 30
0.0
 10
49.75970825204933
 20
-5.11675572582893
 30
0.0
 10
49.76298987197345
 20
-5.113768487394501
 30
0.0
 10
49.76623218287386
 20
-5.110810913295232
 30
0.0
 10
49.76943726351954
 20
-5.107881322775739
 30
0.0
 10
49.77260691121069
 20
-5.104978255513209
 30
0.0
 10
49.77574269972206
 20
-5.102100447957198
 30
0.0
 10
49.77884602575193
 20
-5.09924678602735
 30
0.0
 10
49.7819185406596
 20
-5.09641591000058
 30
0.0
 10
49.78496191707098
 20
-5.093606427159841
 30
0.0
 10
49.78797781566743
 20
-5.090816943905842
 30
0.0
 10
49.79096783322034
 20
-5.088046113236202
 30
0.0
 10
49.79393350718931
 20
-5.085292631828878
 30
0.0
 10
49.79687632408769
 20
-5.082555231750163
 30
0.0
 10
49.79979770277487
 20
-5.079832698958796
 30
0.0
 10
49.80269894497007
 20
-5.077123917286279
 30
0.0
 10
49.80558122722766
 20
-5.074427879544373
 30
0.0
 10
49.80844575723074
 20
-5.071743540958912
 30
0.0
 10
49.81129393065208
 20
-5.069069672179224
 30
0.0
 10
49.81412731139221
 20
-5.066404875110862
 30
0.0
 10
49.81694722085996
 20
-5.063747970526684
 30
0.0
 10
49.81975507114384
 20
-5.06109768413448
 30
0.0
 10
49.82255220179172
 20
-5.058452801082047
 30
0.0
 10
49.82533999806071
 20
-5.055812054278113
 30
0.0
 10
49.82811954550721
 20
-5.053174452024776
 30
0.0
 10
49.83089101971263
 20
-5.050539860640185
 30
0.0
 10
49.83365375593336
 20
-5.047908947013425
 30
0.0
 10
49.83640642458647
 20
-5.045283017730639
 30
0.0
 10
49.83914746786417
 20
-5.042663606949552
 30
0.0
 10
49.84187590575618
 20
-5.040051706300033
 30
0.0
 10
49.84459174882954
 20
-5.037447363272022
 30
0.0
 10
49.8472962372993
 20
-5.034849443814941
 30
0.0
 10
49.8499906882975
 20
-5.032256729245723
 30
0.0
 10
49.85267628050332
 20
-5.029668128085944
 30
0.0
 10
49.85535407172989
 20
-5.027082656737718
 30
0.0
 10
49.85802544554156
 20
-5.024499010708524
 30
0.0
 10
49.86069158820339
 20
-5.021916066671018
 30
0.0
 10
49.86335335415219
 20
-5.01933301711962
 30
0.0
 10
49.86601146423277
 20
-5.016749178323735
 30
0.0
 10
49.86866686728546
 20
-5.014163641544179
 30
0.0
 10
49.87132067431009
 20
-5.011575331959122
 30
0.0
 10
49.87397407174007
 20
-5.008983095507403
 30
0.0
 10
49.87662826254268
 20
-5.006385753750038
 30
0.0
 10
49.87928434143248
 20
-5.003782227159554
 30
0.0
 10
49.88194307516398
 20
-5.001171751177004
 30
0.0
 10
49.88460514910719
 20
-4.998553637141775
 30
0.0
 10
49.88727156059957
 20
-4.995926885263074
 30
0.0
 10
49.88994331994001
 20
-4.993290475461378
 30
0.0
 10
49.89262117536032
 20
-4.990643641430992
 30
0.0
 10
49.8953057583617
 20
-4.987985727439081
 30
0.0
 10
49.89799806334691
 20
-4.985315714960748
 30
0.0
 10
49.90069936951101
 20
-4.982632294521096
 30
0.0
 10
49.90341098623741
 20
-4.979934121332306
 30
0.0
 10
49.90613397177992
 20
-4.977220083492994
 30
0.0
 10
49.90886937647269
 20
-4.974489105366586
 30
0.0
 10
49.91161803675822
 20
-4.971740187457264
 30
0.0
 10
49.91438136369168
 20
-4.968972611600122
 30
0.0
 10
49.91715976974012
 20
-4.966184941469315
 30
0.0
 10
49.91995449716234
 20
-4.963376097516956
 30
0.0
 10
49.9227665499198
 20
-4.960544907432613
 30
0.0
 10
49.92464634799017
 20
-4.958649005998879
 30
0.0
 10
49.9255893200999
 20
-4.957697121399974
 30
0.0
 11
49.7354864030998
 21
-5.13861421119995
 31
0.0
 11
49.73909920659991
 21
-5.135375133499962
 31
0.0
 11
49.74265811239991
 21
-5.132177155499988
 31
0.0
 11
49.74616528139984
 21
-5.129018632999958
 31
0.0
 11
49.74962310719991
 21
-5.125897691799963
 31
0.0
 11
49.75303355579979
 21
-5.12281282319995
 31
0.0
 11
49.75639890879984
 21
-5.119762215099939
 31
0.0
 11
49.7597212006998
 21
-5.116744260499956
 31
0.0
 11
49.76300214679986
 21
-5.113757625699975
 31
0.0
 11
49.76624385519983
 21
-5.110800603999962
 31
0.0
 11
49.76944823259987
 21
-5.107871655699938
 31
0.0
 11
49.77261747659986
 21
-5.104968958599954
 31
0.0
 11
49.77575288259993
 21
-5.10209150229997
 31
0.0
 11
49.77885567839985
 21
-5.099238328199959
 31
0.0
 11
49.78192753069982
 21
-5.096408062899939
 31
0.0
 11
49.78497049799989
 21
-5.093598958099988
 31
0.0
 11
49.7879858739999
 21
-5.090809958499988
 31
0.0
 11
49.79097528859984
 21
-5.088039686999962
 31
0.0
 11
49.79394060829986
 21
-5.085286534799962
 31
0.0
 11
49.79688294919981
 21
-5.082549577999969
 31
0.0
 11
49.79980378969992
 21
-5.079827547099938
 31
0.0
 11
49.80270479019987
 21
-5.077118991599974
 31
0.0
 11
49.80558671889991
 21
-5.074423284999937
 31
0.0
 11
49.80845067699988
 21
-5.071739482899971
 31
0.0
 11
49.81129841739982
 21
-5.069066021099956
 31
0.0
 11
49.81413127219991
 21
-5.066401719299989
 31
0.0
 11
49.81695084899991
 21
-5.063745128699935
 31
0.0
 11
49.81975817209979
 21
-5.061095340499946
 31
0.0
 11
49.82255484619987
 21
-5.058450889799956
 31
0.0
 11
49.82534226059988
 21
-5.055810505399932
 31
0.0
 11
49.82812157749981
 21
-5.053173122599957
 31
0.0
 11
49.83089350289981
 21
-5.050538103099967
 31
0.0
 11
49.83365669879993
 21
-5.047906752499955
 31
0.0
 11
49.83640980519988
 21
-5.045280406499955
 31
0.0
 11
49.8391515315999
 21
-5.042660343799951
 31
0.0
 11
49.84187985559981
 21
-5.040048552999934
 31
0.0
 11
49.84459514779985
 21
-5.037444739299957
 31
0.0
 11
49.84729908789984
 21
-5.03484734739996
 31
0.0
 11
49.84999334329984
 21
-5.032254822199973
 31
0.0
 11
49.85267852129993
 21
-5.029666621199936
 31
0.0
 11
49.85535588219988
 21
-5.027081566499958
 31
0.0
 11
49.85802673219985
 21
-5.024498428099974
 31
0.0
 11
49.86069265419985
 21
-5.021915699099963
 31
0.0
 11
49.86335431959981
 21
-5.019332748199957
 31
0.0
 11
49.86601203789985
 21
-5.01674929159995
 31
0.0
 11
49.86866699129985
 21
-5.014164193799956
 31
0.0
 11
49.87132053209984
 21
-5.011576145299954
 31
0.0
 11
49.87397346049988
 21
-5.00898436839995
 31
0.0
 11
49.87662718229978
 21
-5.006387487099971
 31
0.0
 11
49.87928310029985
 21
-5.003784119699957
 31
0.0
 11
49.88194169069982
 21
-5.001173785999952
 31
0.0
 11
49.88460337619983
 21
-4.998556055699964
 31
0.0
 11
49.88726931339988
 21
-4.995929772699952
 31
0.0
 11
49.88994091319989
 21
-4.993293522199934
 31
0.0
 11
49.89261864059983
 21
-4.990646816499946
 31
0.0
 11
49.89530286489991
 21
-4.987989259699958
 31
0.0
 11
49.89799464639986
 21
-4.985319768299973
 31
0.0
 11
49.90069553639989
 21
-4.982636763799973
 31
0.0
 11
49.90340676199991
 21
-4.979938980899959
 31
0.0
 11
49.9061294702999
 21
-4.977225226399951
 31
0.0
 11
49.90886447339983
 21
-4.974494634599949
 31
0.0
 11
49.91161292029983
 21
-4.971745997599953
 31
0.0
 11
49.91437550639989
 21
-4.968978554899962
 31
0.0
 11
49.91715348389982
 21
-4.966190982499966
 31
0.0
 11
49.91994757549981
 21
-4.963382481099955
 31
0.0
 11
49.92275918289976
 21
-4.960551562599988
 31
0.0
 11
49.9255893200999
 21
-4.957697121399974
 31
0.0
  0
SPLINE
  5
561ED
330
1F
100
AcDbEntity
  8
1
100
AcDbSpline
210
0.0
220
0.0
230
1.0
 70
     8
 71
     3
 72
    73
 73
    69
 74
    67
 42
0.0000000001
 43
0.0000000001
 44
0.000001
 12
0.8006827351959502
 22
0.5990886057664026
 32
0.0
 13
0.7639670109371917
 23
0.6452553031162883
 33
0.0
 40
0.0
 40
0.0
 40
0.0
 40
0.0
 40
0.0047759563788658
 40
0.009488319799299
 40
0.0141403303888696
 40
0.0187341700444385
 40
0.0232721398849197
 40
0.02775704502515
 40
0.0321913312473969
 40
0.0365770186699923
 40
0.0409165819237632
 40
0.045212607928505
 40
0.0494676479529313
 40
0.0536832075901313
 40
0.0578609745626411
 40
0.0620034142359696
 40
0.0661130843165052
 40
0.0701914427179787
 40
0.0742403759912214
 40
0.0782623682617032
 40
0.0822591560479826
 40
0.086231463368884
 40
0.0901804633657576
 40
0.0941082820054757
 40
0.0980173848970713
 40
0.1019099606175777
 40
0.1057877472737249
 40
0.109652318436017
 40
0.1135050532029747
 40
0.1173474154905911
 40
0.1211822175021165
 40
0.1250117637496805
 40
0.1288365232698369
 40
0.1326542408298336
 40
0.1364629526895098
 40
0.1402602105548173
 40
0.1440435043088176
 40
0.1478140616958342
 40
0.1515739692853957
 40
0.1553250951209618
 40
0.1590683081169375
 40
0.1628055993639514
 40
0.1665386972272936
 40
0.1702696430916954
 40
0.1739990182173248
 40
0.1777274473729752
 40
0.1814570892767573
 40
0.1851894430183596
 40
0.1889258087222967
 40
0.1926686721762768
 40
0.1964191754209927
 40
0.2001779267171087
 40
0.2039456023382443
 40
0.2077246082114364
 40
0.2115163907573306
 40
0.2153217968709619
 40
0.2191416810621141
 40
0.2229785090631686
 40
0.2268337977846676
 40
0.2307084650109595
 40
0.2346041413841653
 40
0.2385229469864988
 40
0.2424658224183986
 40
0.2464337946005531
 40
0.2504290286143352
 40
0.2544528751431565
 40
0.2585072649616733
 40
0.2625934255979139
 40
0.2625934255979139
 40
0.2625934255979139
 40
0.2625934255979139
 10
49.53014843859989
 20
-5.302234040999962
 30
0.0
 10
49.5314231138721
 20
-5.30128030065056
 30
0.0
 10
49.53395437783047
 20
-5.299384029842059
 30
0.0
 10
49.53772339359023
 20
-5.29655364492136
 30
0.0
 10
49.54144067004597
 20
-5.293755460658076
 30
0.0
 10
49.54510835780019
 20
-5.290988063689759
 30
0.0
 10
49.54872863764666
 20
-5.2882503203639
 30
0.0
 10
49.5523037633273
 20
-5.285541045325217
 30
0.0
 10
49.55583552046966
 20
-5.282858590155001
 30
0.0
 10
49.55932591270232
 20
-5.280201776436648
 30
0.0
 10
49.5627768914295
 20
-5.277569278263435
 30
0.0
 10
49.56619056379435
 20
-5.274959681658486
 30
0.0
 10
49.56956876776593
 20
-5.272371751815974
 30
0.0
 10
49.57291309907759
 20
-5.269804430156611
 30
0.0
 10
49.57622512504599
 20
-5.267256667664184
 30
0.0
 10
49.57950668578593
 20
-5.264727194358982
 30
0.0
 10
49.58275955475187
 20
-5.262214778876021
 30
0.0
 10
49.58598534745021
 20
-5.25971830063915
 30
0.0
 10
49.58918565492405
 20
-5.25723664721071
 30
0.0
 10
49.59236213684153
 20
-5.254768642800407
 30
0.0
 10
49.59551614188796
 20
-5.252313342682114
 30
0.0
 10
49.59864867040619
 20
-5.249870065795427
 30
0.0
 10
49.60176082231669
 20
-5.247438047427607
 30
0.0
 10
49.60485415139345
 20
-5.245016160605352
 30
0.0
 10
49.6079304728006
 20
-5.242603062941242
 30
0.0
 10
49.61099149504542
 20
-5.240197485363339
 30
0.0
 10
49.61403868814938
 20
-5.237798336383036
 30
0.0
 10
49.61707330634147
 20
-5.235404686459801
 30
0.0
 10
49.62009652878283
 20
-5.233015658321775
 30
0.0
 10
49.6231098549357
 20
-5.230630113974626
 30
0.0
 10
49.62611502217601
 20
-5.228246718860532
 30
0.0
 10
49.62911350264784
 20
-5.225864337580695
 30
0.0
 10
49.63210544377466
 20
-5.223482882673749
 30
0.0
 10
49.63508988053195
 20
-5.221103153550401
 30
0.0
 10
49.6380650915288
 20
-5.218726560765254
 30
0.0
 10
49.64102929387974
 20
-5.216354573920277
 30
0.0
 10
49.64398153970711
 20
-5.213988003307996
 30
0.0
 10
49.64692206220752
 20
-5.211626715661196
 30
0.0
 10
49.64985223045232
 20
-5.209269661285304
 30
0.0
 10
49.65277331668301
 20
-5.206915860827784
 30
0.0
 10
49.6556865647986
 20
-5.20456435038406
 30
0.0
 10
49.65859317999997
 20
-5.202214192143557
 30
0.0
 10
49.66149466699346
 20
-5.199864197039488
 30
0.0
 10
49.6643921626561
 20
-5.197513468452903
 30
0.0
 10
49.66728651490655
 20
-5.195161337423087
 30
0.0
 10
49.67017860038658
 20
-5.192807108266862
 30
0.0
 10
49.6730695304177
 20
-5.190449888930245
 30
0.0
 10
49.67596058792413
 20
-5.188088641542599
 30
0.0
 10
49.67885313693193
 20
-5.185722255154495
 30
0.0
 10
49.68174844614146
 20
-5.183349690236092
 30
0.0
 10
49.68464760263612
 20
-5.180970049471525
 30
0.0
 10
49.68755122547202
 20
-5.178582816035493
 30
0.0
 10
49.69046025713424
 20
-5.176187203116874
 30
0.0
 10
49.69337585365332
 20
-5.173782243728084
 30
0.0
 10
49.69629921159276
 20
-5.171366930656375
 30
0.0
 10
49.69923112651361
 20
-5.168940583274682
 30
0.0
 10
49.70217265364738
 20
-5.166502301837383
 30
0.0
 10
49.70512501779069
 20
-5.164051041228766
 30
0.0
 10
49.70808945598946
 20
-5.161585738115775
 30
0.0
 10
49.71106699078922
 20
-5.159105506612348
 30
0.0
 10
49.71405878848066
 20
-5.156609319375469
 30
0.0
 10
49.71706605018744
 20
-5.15409617883396
 30
0.0
 10
49.72008969880841
 20
-5.151565068782382
 30
0.0
 10
49.72313112225624
 20
-5.149015504643678
 30
0.0
 10
49.72619114183704
 20
-5.146446112409222
 30
0.0
 10
49.72927108835245
 20
-5.143855658033707
 30
0.0
 10
49.73237207513836
 20
-5.14124313446198
 30
0.0
 10
49.73444583912396
 20
-5.139493083473254
 30
0.0
 10
49.7354864030998
 20
-5.13861421119995
 30
0.0
 11
49.53014843859989
 21
-5.302234040999962
 31
0.0
 11
49.53397082299978
 21
-5.299370614499963
 31
0.0
 11
49.53773908889991
 21
-5.296540995699956
 31
0.0
 11
49.54145595199986
 21
-5.293743418599973
 31
0.0
 11
49.54512327359987
 21
-5.290976740599973
 31
0.0
 11
49.54874298569984
 21
-5.288239749699954
 31
0.0
 11
49.55231742099988
 21
-5.285530914499958
 31
0.0
 11
49.55584865289984
 21
-5.282848882199971
 31
0.0
 11
49.55933838609985
 21
-5.280192565599946
 31
0.0
 11
49.5627886801999
 21
-5.277560592699956
 31
0.0
 11
49.56620167699987
 21
-5.274951513599972
 31
0.0
 11
49.56957948289982
 21
-5.27236389029997
 31
0.0
 11
49.57292336819989
 21
-5.269796912399982
 31
0.0
 11
49.57623474309992
 21
-5.26724965219995
 31
0.0
 11
49.57951562889991
 21
-5.264720700599951
 31
0.0
 11
49.58276811359985
 21
-5.262208583399939
 31
0.0
 11
49.58599340929993
 21
-5.259712491199962
 31
0.0
 11
49.58919306279984
 21
-5.257231346399947
 31
0.0
 11
49.59236908799983
 21
-5.254763698299967
 31
0.0
 11
49.59552290299985
 21
-5.252308547599938
 31
0.0
 11
49.59865512359988
 21
-5.249865512399964
 31
0.0
 11
49.60176671759985
 21
-5.247433931599971
 31
0.0
 11
49.60485939999978
 21
-5.245012552599973
 31
0.0
 11
49.60793514789987
 21
-5.242599906399988
 31
0.0
 11
49.61099571509987
 21
-5.240194687999974
 31
0.0
 11
49.61404249659984
 21
-5.237795864699961
 31
0.0
 11
49.61707675439981
 21
-5.235402500699962
 31
0.0
 11
49.62009959449983
 21
-5.233013776299969
 31
0.0
 11
49.62311218629986
 21
-5.230628815099947
 31
0.0
 11
49.62611675219989
 21
-5.22824589849992
 31
0.0
 11
49.62911511089988
 21
-5.225863615799966
 31
0.0
 11
49.63210764079986
 21
-5.223481693999957
 31
0.0
 11
49.63509258999977
 21
-5.221101558099974
 31
0.0
 11
49.6380684392999
 21
-5.21872445729997
 31
0.0
 11
49.64103329559987
 21
-5.216351948999971
 31
0.0
 11
49.64398522279987
 21
-5.21398563569997
 31
0.0
 11
49.64692520369988
 21
-5.211624784899953
 31
0.0
 11
49.64985488749983
 21
-5.209268122199972
 31
0.0
 11
49.6527757488999
 21
-5.206914504799954
 31
0.0
 11
49.6556884813998
 21
-5.204563412699968
 31
0.0
 11
49.65859464929986
 21
-5.202213617999973
 31
0.0
 11
49.66149560839983
 21
-5.19986405269995
 31
0.0
 11
49.66439295439989
 21
-5.197513447599959
 31
0.0
 11
49.66728714589987
 21
-5.195161449399961
 31
0.0
 11
49.67017867419986
 21
-5.192807675999972
 31
0.0
 11
49.67306921789987
 21
-5.19045077399997
 31
0.0
 11
49.67595994069984
 21
-5.18808980229997
 31
0.0
 11
49.67885184939984
 21
-5.185723942199956
 31
0.0
 11
49.6817468651999
 21
-5.183351620199971
 31
0.0
 11
49.68464586609991
 21
-5.180972109799967
 31
0.0
 11
49.68754931589979
 21
-5.17858502119995
 31
0.0
 11
49.69045772969991
 21
-5.17618991989994
 31
0.0
 11
49.69337295549985
 21
-5.173785269099965
 31
0.0
 11
49.69629609709989
 21
-5.171370137699938
 31
0.0
 11
49.69922779389992
 21
-5.168943973799969
 31
0.0
 11
49.70216868969988
 21
-5.166506218899968
 31
0.0
 11
49.70512066619983
 21
-5.164055283199957
 31
0.0
 11
49.70808487099986
 21
-5.16159017809997
 31
0.0
 11
49.71106198869984
 21
-5.159110295299939
 31
0.0
 11
49.71405324969987
 21
-5.156614567999952
 31
0.0
 11
49.71706025679987
 21
-5.154101611799973
 31
0.0
 11
49.72008370459992
 21
-5.151570794899953
 31
0.0
 11
49.72312433319984
 21
-5.149021444899972
 31
0.0
 11
49.72618378809977
 21
-5.14645212459996
 31
0.0
 11
49.72926307899991
 21
-5.143861924299955
 31
0.0
 11
49.73236364959984
 21
-5.141249563399952
 31
0.0
 11
49.7354864030998
 21
-5.13861421119995
 31
0.0
  0
SPLINE
  5
561EE
330
1F
100
AcDbEntity
  8
1
100
AcDbSpline
210
0.0
220
0.0
230
1.0
 70
     8
 71
     3
 72
    73
 73
    69
 74
    67
 42
0.0000000001
 43
0.0000000001
 44
0.000001
 12
0.8509642210562907
 22
0.5252236613882323
 32
0.0
 13
0.8172945438745189
 23
0.5762201216140773
 33
0.0
 40
0.0
 40
0.0
 40
0.0
 40
0.0
 40
0.0047019157541121
 40
0.0093443198297282
 40
0.0139291521115111
 40
0.0184590743159722
 40
0.0229364860028197
 40
0.0273636402144216
 40
0.0317432883534418
 40
0.0360776575447326
 40
0.0403685722649697
 40
0.0446186763689195
 40
0.0488302954991763
 40
0.0530049414478213
 40
0.0571446078659765
 40
0.0612518435113079
 40
0.0653285306234795
 40
0.0693757270007354
 40
0.0733950964389303
 40
0.0773889949606042
 40
0.0813593842593268
 40
0.085307991790002
 40
0.0892369943016147
 40
0.0931477912053004
 40
0.0970413344560179
 40
0.1009194123896765
 40
0.1047841775456461
 40
0.1086374958530061
 40
0.1124811054472663
 40
0.11631639660851
 40
0.1201452691690992
 40
0.1239691756265945
 40
0.1277898729239222
 40
0.1316072307206181
 40
0.1354173090856889
 40
0.139216178529905
 40
0.1430034453797031
 40
0.1467803631118747
 40
0.1505483122606362
 40
0.1543089726055751
 40
0.1580634924102593
 40
0.1618138625670755
 40
0.1655616668396295
 40
0.1693087547589904
 40
0.1730556855576284
 40
0.1768034787438862
 40
0.1805543609490479
 40
0.1843096587385575
 40
0.188071329061565
 40
0.1918413733792249
 40
0.1956203932669898
 40
0.19940893484056
 40
0.203208452470897
 40
0.2070212658497448
 40
0.2108483044200198
 40
0.2146903499365599
 40
0.2185490132658581
 40
0.2224266412699725
 40
0.2263243172392723
 40
0.2302432541949937
 40
0.2341858474688391
 40
0.2381533309264705
 40
0.2421466861374078
 40
0.2461682310483332
 40
0.2502194277479329
 40
0.2543013372850039
 40
0.2584163084809333
 40
0.2625659770255444
 40
0.2625659770255444
 40
0.2625659770255444
 40
0.2625659770255444
 10
49.31126639809986
 20
-5.447181919099961
 30
0.0
 10
49.31260011879226
 20
-5.446358733297323
 30
0.0
 10
49.31524966326538
 20
-5.444721133661779
 30
0.0
 10
49.31919621126076
 20
-5.442275180098661
 30
0.0
 10
49.32309111059874
 20
-5.439854727040945
 30
0.0
 10
49.32693642680033
 20
-5.437458689661013
 30
0.0
 10
49.33073444595152
 20
-5.435086138390026
 30
0.0
 10
49.33448747007185
 20
-5.432736109925173
 30
0.0
 10
49.33819742237898
 20
-5.430407143806647
 30
0.0
 10
49.34186636393736
 20
-5.428098268763093
 30
0.0
 10
49.34549624945799
 20
-5.425808410389791
 30
0.0
 10
49.3490890742043
 20
-5.423536496600227
 30
0.0
 10
49.35264673411189
 20
-5.421281492533438
 30
0.0
 10
49.35617093839539
 20
-5.419042473029762
 30
0.0
 10
49.35966345366399
 20
-5.416818464028267
 30
0.0
 10
49.3631261456025
 20
-5.414608416657166
 30
0.0
 10
49.36656061177825
 20
-5.412411441321758
 30
0.0
 10
49.36996819730916
 20
-5.41022680076967
 30
0.0
 10
49.37335037660449
 20
-5.408053666394636
 30
0.0
 10
49.37670887301357
 20
-5.405891039268666
 30
0.0
 10
49.38004542336307
 20
-5.403737901846696
 30
0.0
 10
49.38336170988856
 20
-5.401593261873429
 30
0.0
 10
49.38665925307197
 20
-5.399456221817388
 30
0.0
 10
49.38993935280706
 20
-5.397326018814503
 30
0.0
 10
49.3932031974345
 20
-5.395201955688619
 30
0.0
 10
49.39645218264809
 20
-5.393083193399412
 30
0.0
 10
49.39968795549209
 20
-5.390968720383781
 30
0.0
 10
49.40291214506601
 20
-5.388857528011413
 30
0.0
 10
49.40612616418701
 20
-5.386748740995621
 30
0.0
 10
49.40933143179774
 20
-5.384641472627244
 30
0.0
 10
49.41252928392271
 20
-5.382534883250706
 30
0.0
 10
49.41572115559018
 20
-5.380428061201335
 30
0.0
 10
49.41890791404756
 20
-5.378320462956196
 30
0.0
 10
49.42208892620249
 20
-5.376212534795534
 30
0.0
 10
49.42526198246127
 20
-5.374105775290367
 30
0.0
 10
49.42842480570153
 20
-5.37200173987734
 30
0.0
 10
49.43157656476711
 20
-5.369901031966918
 30
0.0
 10
49.43471790170213
 20
-5.367803273687449
 30
0.0
 10
49.43785003142727
 20
-5.365707700344863
 30
0.0
 10
49.44097413674729
 20
-5.363613562172162
 30
0.0
 10
49.44409156697133
 20
-5.361519992273414
 30
0.0
 10
49.4472036416422
 20
-5.359426136720159
 30
0.0
 10
49.45031187120531
 20
-5.357331006472698
 30
0.0
 10
49.45341736726982
 20
-5.35523387450965
 30
0.0
 10
49.45652108357035
 20
-5.353134116029494
 30
0.0
 10
49.45962407560012
 20
-5.351031032246417
 30
0.0
 10
49.46272760842902
 20
-5.348923777639676
 30
0.0
 10
49.46583320273328
 20
-5.346811326813686
 30
0.0
 10
49.46894231357436
 20
-5.344692691324937
 30
0.0
 10
49.47205619372238
 20
-5.342567014994912
 30
0.0
 10
49.47517570494699
 20
-5.340433702973825
 30
0.0
 10
49.47830155725478
 20
-5.338292261544495
 30
0.0
 10
49.48143493114042
 20
-5.33614187042167
 30
0.0
 10
49.48457711018654
 20
-5.333981633721883
 30
0.0
 10
49.48772919039282
 20
-5.331810778480736
 30
0.0
 10
49.49089207128975
 20
-5.329628663043074
 30
0.0
 10
49.49406703937365
 20
-5.327434374674304
 30
0.0
 10
49.49725546109977
 20
-5.325226939577703
 30
0.0
 10
49.50045859069422
 20
-5.323005454882334
 30
0.0
 10
49.50367769522159
 20
-5.320769007905397
 30
0.0
 10
49.50691407269409
 20
-5.318516642670132
 30
0.0
 10
49.51016898398302
 20
-5.316247484770642
 30
0.0
 10
49.51344355883128
 20
-5.313960517339239
 30
0.0
 10
49.51673939167733
 20
-5.31165525543836
 30
0.0
 10
49.52005750226681
 20
-5.309330345432925
 30
0.0
 10
49.52339916639914
 20
-5.306984783122665
 30
0.0
 10
49.5267657266354
 20
-5.304617558719925
 30
0.0
 10
49.5290179381131
 20
-5.303031081837772
 30
0.0
 10
49.53014843859989
 20
-5.302234040999962
 30
0.0
 11
49.31126639809986
 21
-5.447181919099961
 31
0.0
 11
49.31526606709986
 21
-5.444709922899988
 31
0.0
 11
49.31921217679985
 21
-5.442264432899946
 31
0.0
 11
49.32310648639987
 21
-5.439844623399949
 31
0.0
 11
49.32695136159987
 21
-5.437449275499972
 31
0.0
 11
49.33074891129979
 21
-5.435077312799961
 31
0.0
 11
49.3345011240998
 21
-5.432727717699918
 31
0.0
 11
49.33821045739989
 21
-5.430399162999947
 31
0.0
 11
49.34187888239979
 21
-5.428090610099957
 31
0.0
 11
49.34550802379987
 21
-5.425801225099974
 31
0.0
 11
49.34910019369988
 21
-5.423529727399966
 31
0.0
 11
49.35265742859986
 21
-5.421274995299967
 31
0.0
 11
49.3561810724999
 21
-5.419036334199972
 31
0.0
 11
49.35967287169979
 21
-5.416812783599965
 31
0.0
 11
49.36313503529993
 21
-5.414603075799988
 31
0.0
 11
49.36656920499979
 21
-5.412406292499952
 31
0.0
 11
49.3699763241998
 21
-5.410221953299952
 31
0.0
 11
49.37335784329992
 21
-5.408049245399951
 31
0.0
 11
49.37671579049982
 21
-5.405886974299988
 31
0.0
 11
49.38005185759982
 21
-5.403734151099939
 31
0.0
 11
49.38336753539977
 21
-5.401589907099946
 31
0.0
 11
49.38666468769986
 21
-5.399453122699952
 31
0.0
 11
49.38994452189991
 21
-5.397323094499967
 31
0.0
 11
49.39320786749988
 21
-5.395199358499951
 31
0.0
 11
49.3964562522998
 21
-5.393080990099974
 31
0.0
 11
49.39969150509989
 21
-5.390966859299936
 31
0.0
 11
49.40291521059987
 21
-5.388855986299972
 31
0.0
 11
49.40612884289987
 21
-5.386747455499971
 31
0.0
 11
49.40933358199993
 21
-5.384640536999967
 31
0.0
 11
49.41253103049985
 21
-5.382534215999953
 31
0.0
 11
49.41572241409983
 21
-5.380427718599918
 31
0.0
 11
49.41890920949993
 21
-5.378320098399939
 31
0.0
 11
49.42209131719983
 21
-5.376211446899958
 31
0.0
 11
49.42526546539977
 21
-5.374103964899973
 31
0.0
 11
49.42842839869979
 21
-5.371999858899954
 31
0.0
 11
49.43157981089985
 21
-5.369899384799964
 31
0.0
 11
49.43472076599983
 21
-5.367801884199963
 31
0.0
 11
49.43785243119987
 21
-5.365706624299917
 31
0.0
 11
49.44097621949993
 21
-5.363612701399972
 31
0.0
 11
49.4440930996999
 21
-5.361519503599964
 31
0.0
 11
49.44720473729979
 21
-5.359425944899953
 31
0.0
 11
49.45031245659982
 21
-5.357331161399969
 31
0.0
 11
49.45341779919989
 21
-5.35523413599995
 31
0.0
 11
49.45652123499986
 21
-5.353134570099967
 31
0.0
 11
49.45962361369982
 21
-5.351031904999956
 31
0.0
 11
49.46272678179991
 21
-5.348924901099962
 31
0.0
 11
49.46583183779978
 21
-5.346812819399957
 31
0.0
 11
49.46894039849985
 21
-5.344694561999972
 31
0.0
 11
49.47205411419986
 21
-5.342569001099974
 31
0.0
 11
49.47517347639984
 21
-5.340435794299963
 31
0.0
 11
49.47829892999982
 21
-5.338294629299952
 31
0.0
 11
49.48143166769989
 21
-5.336144678299973
 31
0.0
 11
49.48457359279984
 21
-5.333984619699918
 31
0.0
 11
49.48772545979989
 21
-5.331813914899953
 31
0.0
 11
49.49088790019994
 21
-5.329632107099968
 31
0.0
 11
49.49406222629988
 21
-5.327438266299935
 31
0.0
 11
49.49725035269977
 21
-5.325231039499982
 31
0.0
 11
49.50045315199986
 21
-5.323009788499973
 31
0.0
 11
49.50367160159988
 21
-5.320773798599958
 31
0.0
 11
49.50690764719991
 21
-5.318521676699958
 31
0.0
 11
49.51016227809986
 21
-5.316252688799949
 31
0.0
 11
49.5134362747998
 21
-5.313966242499958
 31
0.0
 11
49.51673147889983
 21
-5.311661000299949
 31
0.0
 11
49.52004908779986
 21
-5.309336068299955
 31
0.0
 11
49.52338995369984
 21
-5.30699079059994
 31
0.0
 11
49.52675596879988
 21
-5.304623776599953
 31
0.0
 11
49.53014843859989
 21
-5.302234040999962
 31
0.0
  0
SPLINE
  5
561EF
330
1F
100
AcDbEntity
  8
1
100
AcDbSpline
210
0.0
220
0.0
230
1.0
 70
     8
 71
     3
 72
    73
 73
    69
 74
    67
 42
0.0000000001
 43
0.0000000001
 44
0.000001
 12
0.8951164761837326
 22
0.4458323609434578
 32
0.0
 13
0.8637678588727787
 23
0.5038899542343898
 33
0.0
 40
0.0
 40
0.0
 40
0.0
 40
0.0
 40
0.0046284138718278
 40
0.0092001167807406
 40
0.0137177393213669
 40
0.0181838080545812
 40
0.022600339075356
 40
0.0269699529426996
 40
0.0312951294743429
 40
0.0355776683627297
 40
0.0398195207431171
 40
0.0440233114706131
 40
0.0481910391634844
 40
0.0523241332968336
 40
0.0564247880745341
 40
0.0604954073932276
 40
0.0645374900816614
 40
0.0685520844903581
 40
0.0725410284632172
 40
0.0765066336416325
 40
0.0804506150733438
 40
0.0843749001544855
 40
0.0882815038270926
 40
0.0921714165557794
 40
0.0960459547862674
 40
0.0999071691715555
 40
0.1037569782046768
 40
0.1075972327322308
 40
0.1114292185399544
 40
0.1152547411355548
 40
0.1190759565295788
 40
0.1228943565961301
 40
0.1267096943699435
 40
0.1305207898078393
 40
0.1343268417515309
 40
0.1381257677068074
 40
0.1419158418816294
 40
0.1456972818862606
 40
0.1494712226964344
 40
0.1532394588492848
 40
0.1570039299934816
 40
0.1607668558319122
 40
0.1645294602557593
 40
0.1682921592186068
 40
0.1720557545557478
 40
0.1758225449571395
 40
0.1795936493327797
 40
0.1833699430828503
 40
0.1871532871161545
 40
0.1909458946301099
 40
0.1947488288198809
 40
0.1985633122239257
 40
0.2023918091059301
 40
0.2062352393724581
 40
0.2100940931956213
 40
0.2139689557604846
 40
0.2178622049245037
 40
0.2217757312471814
 40
0.2257117515499945
 40
0.2296714713622168
 40
0.2336565170799625
 40
0.2376683178643096
 40
0.241708620272014
 40
0.2457790931907789
 40
0.2498817064085135
 40
0.2540183236899943
 40
0.2581900854595196
 40
0.2623977851671127
 40
0.2623977851671127
 40
0.2623977851671127
 40
0.2623977851671127
 10
49.08064258409979
 20
-5.572242150799951
 30
0.0
 10
49.08202357393822
 20
-5.571554318571983
 30
0.0
 10
49.08476770760876
 20
-5.570185223845477
 30
0.0
 10
49.08885658349902
 20
-5.568138374699387
 30
0.0
 10
49.09289440236159
 20
-5.566110431418863
 30
0.0
 10
49.09688340524514
 20
-5.564100545758257
 30
0.0
 10
49.10082579828383
 20
-5.562107806621362
 30
0.0
 10
49.10472402994201
 20
-5.560131813502977
 30
0.0
 10
49.10857997017791
 20
-5.558171181892859
 30
0.0
 10
49.1123956143017
 20
-5.556225268525061
 30
0.0
 10
49.1161729082745
 20
-5.554293224544011
 30
0.0
 10
49.11991387478929
 20
-5.552374205085875
 30
0.0
 10
49.12362037056084
 20
-5.550467421679798
 30
0.0
 10
49.12729412147223
 20
-5.548572144599212
 30
0.0
 10
49.13093696883328
 20
-5.546687572447794
 30
0.0
 10
49.1345507695305
 20
-5.544812882945841
 30
0.0
 10
49.13813703740993
 20
-5.542947421358867
 30
0.0
 10
49.1416971152338
 20
-5.541090612337711
 30
0.0
 10
49.14523258268093
 20
-5.53924174833908
 30
0.0
 10
49.14874521242643
 20
-5.537400010796027
 30
0.0
 10
49.15223679935633
 20
-5.535564558743033
 30
0.0
 10
49.15570904670778
 20
-5.533734588981367
 30
0.0
 10
49.15916344067341
 20
-5.53190940411536
 30
0.0
 10
49.16260128369827
 20
-5.530088394541621
 30
0.0
 10
49.16602388651535
 20
-5.528270940530603
 30
0.0
 10
49.16943282954219
 20
-5.526456270310617
 30
0.0
 10
49.17282984717406
 20
-5.524643521981246
 30
0.0
 10
49.17621644518556
 20
-5.52283194650181
 30
0.0
 10
49.17959409318712
 20
-5.521020806832773
 30
0.0
 10
49.18296434717309
 20
-5.519209311566974
 30
0.0
 10
49.18632882043209
 20
-5.51739663060264
 30
0.0
 10
49.1896885208198
 20
-5.515582252365206
 30
0.0
 10
49.19304347662012
 20
-5.513766191469429
 30
0.0
 10
49.19639304459895
 20
-5.511948827471456
 30
0.0
 10
49.19973604558208
 20
-5.510130834965863
 30
0.0
 10
49.20307114319768
 20
-5.508312980105813
 30
0.0
 10
49.20639730256294
 20
-5.506495872427748
 30
0.0
 10
49.20971443093321
 20
-5.504679608813034
 30
0.0
 10
49.21302346455707
 20
-5.502863721909513
 30
0.0
 10
49.21632584060387
 20
-5.50104746383505
 30
0.0
 10
49.21962330979209
 20
-5.499229906343991
 30
0.0
 10
49.22291745286236
 20
-5.497410206710107
 30
0.0
 10
49.2262094032294
 20
-5.495587762690306
 30
0.0
 10
49.22949987898118
 20
-5.493762197518876
 30
0.0
 10
49.23278991015871
 20
-5.491932958125829
 30
0.0
 10
49.23608072948173
 20
-5.490099373680223
 30
0.0
 10
49.23937358837696
 20
-5.488260756467752
 30
0.0
 10
49.24266960915389
 20
-5.486416486795
 30
0.0
 10
49.24597022980151
 20
-5.484565762083171
 30
0.0
 10
49.24927694031646
 20
-5.48270774447279
 30
0.0
 10
49.25259104241195
 20
-5.480841695382991
 30
0.0
 10
49.25591390846983
 20
-5.478966831155545
 30
0.0
 10
49.25924686661796
 20
-5.477082386896455
 30
0.0
 10
49.26259103052212
 20
-5.475187714417543
 30
0.0
 10
49.26594696691791
 20
-5.473282470854734
 30
0.0
 10
49.2693156647598
 20
-5.471366072722929
 30
0.0
 10
49.27269851601113
 20
-5.469437700956135
 30
0.0
 10
49.27609738299463
 20
-5.467496263427804
 30
0.0
 10
49.27951378447005
 20
-5.465540854474284
 30
0.0
 10
49.2829491624995
 20
-5.463570611727107
 30
0.0
 10
49.2864047206487
 20
-5.461584784904445
 30
0.0
 10
49.28988184886964
 20
-5.459582585894658
 30
0.0
 10
49.29338182527818
 20
-5.457563004829552
 30
0.0
 10
49.29690654065456
 20
-5.45552573198519
 30
0.0
 10
49.30045716310246
 20
-5.453469128436161
 30
0.0
 10
49.30403518767843
 20
-5.45139247435874
 30
0.0
 10
49.30764164531251
 20
-5.449295030486368
 30
0.0
 10
49.31005490617747
 20
-5.447888658304322
 30
0.0
 10
49.31126639809986
 20
-5.447181919099961
 30
0.0
 11
49.08064258409979
 21
-5.572242150799951
 31
0.0
 11
49.08478419619985
 21
-5.570175897199959
 31
0.0
 11
49.0888723889999
 21
-5.568129551899971
 31
0.0
 11
49.09290961129989
 21
-5.566102156299933
 31
0.0
 11
49.09689821209986
 21
-5.564092782599971
 31
0.0
 11
49.10084006149986
 21
-5.562100727099988
 31
0.0
 11
49.10473751379993
 21
-5.560125025399969
 31
0.0
 11
49.10859293149986
 21
-5.558164691199948
 31
0.0
 11
49.11240799389986
 21
-5.556219070399947
 31
0.0
 11
49.11618451029983
 21
-5.554287429499964
 31
0.0
 11
49.11992488439989
 21
-5.552368716799918
 31
0.0
 11
49.12363095699982
 21
-5.550462154499967
 31
0.0
 11
49.12730405839977
 21
-5.548567215799948
 31
0.0
 11
49.13094619449987
 21
-5.546683014799953
 31
0.0
 11
49.13455955219991
 21
-5.54480855839995
 31
0.0
 11
49.13814551049984
 21
-5.542943260999919
 31
0.0
 11
49.1417050455999
 21
-5.541086738199965
 31
0.0
 11
49.14523983069989
 21
-5.539238234199956
 31
0.0
 11
49.1487519545999
 21
-5.537396764999954
 31
0.0
 11
49.15224297329984
 21
-5.535561614699957
 31
0.0
 11
49.15571462699984
 21
-5.533731960999972
 31
0.0
 11
49.15916872949981
 21
-5.531906933099918
 31
0.0
 11
49.16260618529986
 21
-5.530086131799947
 31
0.0
 11
49.1660281848998
 21
-5.528269001099971
 31
0.0
 11
49.16943656399985
 21
-5.52645463419995
 31
0.0
 11
49.17283303789986
 21
-5.52464217909997
 31
0.0
 11
49.17621925859987
 21
-5.522830808599962
 31
0.0
 11
49.17959637679985
 21
-5.521019956099962
 31
0.0
 11
49.18296599839994
 21
-5.519208803899971
 31
0.0
 11
49.18633003449986
 21
-5.517396361599963
 31
0.0
 11
49.1896898079998
 21
-5.515581947099974
 31
0.0
 11
49.19304511039979
 21
-5.513765701799968
 31
0.0
 11
49.19639491379985
 21
-5.511948213299973
 31
0.0
 11
49.19973852529984
 21
-5.51012989199998
 31
0.0
 11
49.20307412879981
 21
-5.508311764799969
 31
0.0
 11
49.20640022519989
 21
-5.506494694699966
 31
0.0
 11
49.20971702249983
 21
-5.504678615699958
 31
0.0
 11
49.21302553249984
 21
-5.502863019499955
 31
0.0
 11
49.2163273427999
 21
-5.501047075899947
 31
0.0
 11
49.21962416479982
 21
-5.49922987849996
 31
0.0
 11
49.22291795159992
 21
-5.497410379099989
 31
0.0
 11
49.22620978149985
 21
-5.495588005199948
 31
0.0
 11
49.22950002439984
 21
-5.493762572699921
 31
0.0
 11
49.23278938679982
 21
-5.491933708699946
 31
0.0
 11
49.23607988119977
 21
-5.490100308799952
 31
0.0
 11
49.23937248629989
 21
-5.488261836999953
 31
0.0
 11
49.24266796669986
 21
-5.486417873299956
 31
0.0
 11
49.24596794489992
 21
-5.484567512599966
 31
0.0
 11
49.24927434749986
 21
-5.482709671799938
 31
0.0
 11
49.25258809559989
 21
-5.480843825899938
 31
0.0
 11
49.25591024739981
 21
-5.478969368599962
 31
0.0
 11
49.25924293989988
 21
-5.477085078699957
 31
0.0
 11
49.26258696289983
 21
-5.475190490099947
 31
0.0
 11
49.26594273109992
 21
-5.473285346399961
 31
0.0
 11
49.26931074139986
 21
-5.471369343599974
 31
0.0
 11
49.27269304679987
 21
-5.469441287599948
 31
0.0
 11
49.27609127369987
 21
-5.467500219999948
 31
0.0
 11
49.27950732849978
 21
-5.465545014799971
 31
0.0
 11
49.28294223709986
 21
-5.463575043499957
 31
0.0
 11
49.28639738859988
 21
-5.461589464999974
 31
0.0
 11
49.28987399879986
 21
-5.459587532499966
 31
0.0
 11
49.29337355629979
 21
-5.457568336799937
 31
0.0
 11
49.29689741389984
 21
-5.45553104169997
 31
0.0
 11
49.30044732299984
 21
-5.453474574399962
 31
0.0
 11
49.30402486949981
 21
-5.451397951399968
 31
0.0
 11
49.30763100949992
 21
-5.449300549799971
 31
0.0
 11
49.31126639809986
 21
-5.447181919099961
 31
0.0
  0
SPLINE
  5
561F0
330
1F
100
AcDbEntity
  8
1
100
AcDbSpline
210
0.0
220
0.0
230
1.0
 70
     8
 71
     3
 72
    72
 73
    68
 74
    66
 42
0.0000000001
 43
0.0000000001
 44
0.000001
 12
0.9324485846520691
 22
0.3613026943995201
 32
0.0
 13
0.903401563444131
 23
0.428795540049917
 33
0.0
 40
0.0
 40
0.0
 40
0.0
 40
0.0
 40
0.0046249144192595
 40
0.00919545289504
 40
0.0137135997966049
 40
0.0181816760718508
 40
0.0226019951240654
 40
0.0269775444997693
 40
0.0313100992894247
 40
0.0356013290901818
 40
0.0398538020785595
 40
0.0440700991476358
 40
0.0482518323121218
 40
0.0524005638348056
 40
0.0565190108164541
 40
0.0606090857687761
 40
0.0646719712204422
 40
0.0687089228938181
 40
0.0727223871593149
 40
0.0767143302675563
 40
0.0806865079605896
 40
0.0846412095264794
 40
0.0885796679287889
 40
0.0925030608701975
 40
0.0964134735700945
 40
0.1003127459792344
 40
0.1042028908699024
 40
0.1080851715357688
 40
0.1119615501725459
 40
0.1158339123462477
 40
0.1197041275816165
 40
0.1235723072266436
 40
0.1274382665121679
 40
0.1313012533300022
 40
0.1351594316291264
 40
0.139011384470464
 40
0.1428573450759644
 40
0.1466972482131531
 40
0.150530967323905
 40
0.1543601311604896
 40
0.1581867207627366
 40
0.1620131603702706
 40
0.165841392515071
 40
0.1696736867315049
 40
0.17351121384931
 40
0.177354349364079
 40
0.1812038898237424
 40
0.1850621051578561
 40
0.1889306896739261
 40
0.1928107226804721
 40
0.1967043473525099
 40
0.2006135001681636
 40
0.2045390085622238
 40
0.2084812341774247
 40
0.212441712615504
 40
0.2164226557844287
 40
0.2204262167962894
 40
0.2244544615566856
 40
0.2285090608004297
 40
0.2325921017894803
 40
0.2367050031852031
 40
0.2408485918274643
 40
0.2450248878673865
 40
0.2492359334652662
 40
0.2534830100514813
 40
0.257767948070227
 40
0.2620933233166809
 40
0.2620933233166809
 40
0.2620933233166809
 40
0.2620933233166809
 10
48.84018345879986
 20
-5.676363222599974
 30
0.0
 10
48.84162095710133
 20
-5.675806224586295
 30
0.0
 10
48.84447820444695
 20
-5.674696586489062
 30
0.0
 10
48.84873683610738
 20
-5.673035279712358
 30
0.0
 10
48.85294430877627
 20
-5.671386695015343
 30
0.0
 10
48.85710277826217
 20
-5.669750313870508
 30
0.0
 10
48.86121463549239
 20
-5.668125300607762
 30
0.0
 10
48.86528235385549
 20
-5.666511519491379
 30
0.0
 10
48.86930783917136
 20
-5.664907981541027
 30
0.0
 10
48.87329303507716
 20
-5.663314172936097
 30
0.0
 10
48.87724011074368
 20
-5.661729417870091
 30
0.0
 10
48.88115121745091
 20
-5.660153046360974
 30
0.0
 10
48.8850281891954
 20
-5.658584496740488
 30
0.0
 10
48.88887289864669
 20
-5.657023180662122
 30
0.0
 10
48.89268730669977
 20
-5.655468459650933
 30
0.0
 10
48.89647325291344
 20
-5.653919731835884
 30
0.0
 10
48.90023212216317
 20
-5.652376569451512
 30
0.0
 10
48.90396546138607
 20
-5.650838469998696
 30
0.0
 10
48.90767505508802
 20
-5.649304820948444
 30
0.0
 10
48.91136283820248
 20
-5.647774936591282
 30
0.0
 10
48.91503069337722
 20
-5.646248141096585
 30
0.0
 10
48.91868027376688
 20
-5.64472384268631
 30
0.0
 10
48.92231305173073
 20
-5.643201516048591
 30
0.0
 10
48.92593043393191
 20
-5.64168065453434
 30
0.0
 10
48.92953401094422
 20
-5.640160666359392
 30
0.0
 10
48.93312562621253
 20
-5.638640842534627
 30
0.0
 10
48.93670686759953
 20
-5.63712057268961
 30
0.0
 10
48.94027935756071
 20
-5.635599223271526
 30
0.0
 10
48.94384467642936
 20
-5.634076169687205
 30
0.0
 10
48.94740458726767
 20
-5.632550700385202
 30
0.0
 10
48.95096028323099
 20
-5.631022339937487
 30
0.0
 10
48.95451232151356
 20
-5.629490880687654
 30
0.0
 10
48.95806045662419
 20
-5.627956460239573
 30
0.0
 10
48.96160384825162
 20
-5.626419475912051
 30
0.0
 10
48.96514128133572
 20
-5.624880492966944
 30
0.0
 10
48.96867184435973
 20
-5.62333995082335
 30
0.0
 10
48.97219516816505
 20
-5.621798055642663
 30
0.0
 10
48.97571127815893
 20
-5.620254842047749
 30
0.0
 10
48.97922062548019
 20
-5.618710156918233
 30
0.0
 10
48.98272428432227
 20
-5.617163569262459
 30
0.0
 10
48.98622410446193
 20
-5.615614299332079
 30
0.0
 10
48.98972202775798
 20
-5.614061516773247
 30
0.0
 10
48.99322008047914
 20
-5.612504344179072
 30
0.0
 10
48.99671990409331
 20
-5.610942066914716
 30
0.0
 10
49.00022266002747
 20
-5.60937417628159
 30
0.0
 10
49.00372906056867
 20
-5.607800361864335
 30
0.0
 10
49.007240150715
 20
-5.606220159715249
 30
0.0
 10
49.01075737427129
 20
-5.604632920795552
 30
0.0
 10
49.01428225851304
 20
-5.603037951828795
 30
0.0
 10
49.01781628953461
 20
-5.60143457098141
 30
0.0
 10
49.02136102471934
 20
-5.599822058152554
 30
0.0
 10
49.02491794210732
 20
-5.598199721585338
 30
0.0
 10
49.0284879773983
 20
-5.596567111505187
 30
0.0
 10
49.03207194355132
 20
-5.594923831081167
 30
0.0
 10
49.03567107161723
 20
-5.5932692881183
 30
0.0
 10
49.03928713277008
 20
-5.591602635730083
 30
0.0
 10
49.04292205548518
 20
-5.589922946096407
 30
0.0
 10
49.04657760191321
 20
-5.588229361595146
 30
0.0
 10
49.05025550958232
 20
-5.586521023819926
 30
0.0
 10
49.05395732348336
 20
-5.58479717208101
 30
0.0
 10
49.05768431082816
 20
-5.583057115802326
 30
0.0
 10
49.06143779146759
 20
-5.581300330201699
 30
0.0
 10
49.06521927373114
 20
-5.579526201637037
 30
0.0
 10
49.06903017761436
 20
-5.577733572212004
 30
0.0
 10
49.07287206438008
 20
-5.575921734862312
 30
0.0
 10
49.0767465987177
 20
-5.574089784505659
 30
0.0
 10
49.07934006717977
 20
-5.572860384671528
 30
0.0
 10
49.08064258409979
 20
-5.572242150799951
 30
0.0
 11
48.84018345879986
 21
-5.676363222599974
 31
0.0
 11
48.8444947111999
 21
-5.674688968099957
 31
0.0
 11
48.84875282329983
 21
-5.673027995799969
 31
0.0
 11
48.85295972689982
 21
-5.671379840199961
 31
0.0
 11
48.85711766219981
 21
-5.669743896599953
 31
0.0
 11
48.86122885719988
 21
-5.668119546499951
 31
0.0
 11
48.86529603829979
 21
-5.666505954499967
 31
0.0
 11
48.86932101039985
 21
-5.664902632399957
 31
0.0
 11
48.87330541179983
 21
-5.663309143799949
 31
0.0
 11
48.87725169009979
 21
-5.661724713699953
 31
0.0
 11
48.88116229899981
 21
-5.660148546899961
 31
0.0
 11
48.8850387885999
 21
-5.658580196699972
 31
0.0
 11
48.88888265939988
 21
-5.657019225399949
 31
0.0
 11
48.89269647759988
 21
-5.655464749099962
 31
0.0
 11
48.89648205939988
 21
-5.653916174499954
 31
0.0
 11
48.90024054189985
 21
-5.652373175199954
 31
0.0
 11
48.90397312749986
 21
-5.650835390299988
 31
0.0
 11
48.90768211589977
 21
-5.649301995699971
 31
0.0
 11
48.9113693587999
 21
-5.647772339599953
 31
0.0
 11
48.91503650979984
 21
-5.646245841299958
 31
0.0
 11
48.91868571129987
 21
-5.644721705299957
 31
0.0
 11
48.9223181274998
 21
-5.643199534299952
 31
0.0
 11
48.92593486929979
 21
-5.641678946199959
 31
0.0
 11
48.92953788149987
 21
-5.640159200299962
 31
0.0
 11
48.93312887919989
 21
-5.63863964189997
 31
0.0
 11
48.93670973329983
 21
-5.637119540599968
 31
0.0
 11
48.94028162179984
 21
-5.635598451399971
 31
0.0
 11
48.94384636299981
 21
-5.634075648699962
 31
0.0
 11
48.94740570139981
 21
-5.632550428899918
 31
0.0
 11
48.95096136359995
 21
-5.63102208709995
 31
0.0
 11
48.95451345879985
 21
-5.629490607499974
 31
0.0
 11
48.9580618243998
 21
-5.627956091599969
 31
0.0
 11
48.96160577789988
 21
-5.626418867799969
 31
0.0
 11
48.96514364449979
 21
-5.624879700499974
 31
0.0
 11
48.96867413669986
 21
-5.623339193499958
 31
0.0
 11
48.9721974808998
 21
-5.621797293699955
 31
0.0
 11
48.97571362999986
 21
-5.620254067199965
 31
0.0
 11
48.97922248089992
 21
-5.61870960479996
 31
0.0
 11
48.98272553619984
 21
-5.617163287899956
 31
0.0
 11
48.98622461799994
 21
-5.615614349099956
 31
0.0
 11
48.98972195009981
 21
-5.614061833299956
 31
0.0
 11
48.9932193123999
 21
-5.612504972499948
 31
0.0
 11
48.99671878029983
 21
-5.610942858299921
 31
0.0
 11
49.00022142279988
 21
-5.609375022999955
 31
0.0
 11
49.00372758189985
 21
-5.607801321399961
 31
0.0
 11
49.00723798289982
 21
-5.606221433899975
 31
0.0
 11
49.0107546925999
 21
-5.604634431499988
 31
0.0
 11
49.01427924999985
 21
-5.603039614999971
 31
0.0
 11
49.01781263149985
 21
-5.601436533599979
 31
0.0
 11
49.02135678019988
 21
-5.599824292299956
 31
0.0
 11
49.0249134477998
 21
-5.598202074499965
 31
0.0
 11
49.02848337469993
 21
-5.59656951889994
 31
0.0
 11
49.03206687689987
 21
-5.594926456199971
 31
0.0
 11
49.03566533649985
 21
-5.593272225599918
 31
0.0
 11
49.03928074739986
 21
-5.591605877999967
 31
0.0
 11
49.04291504679986
 21
-5.589926481799949
 31
0.0
 11
49.04657008959986
 21
-5.588233135299958
 31
0.0
 11
49.05024736919983
 21
-5.586525096499968
 31
0.0
 11
49.05394875429988
 21
-5.584801442899959
 31
0.0
 11
49.05767550469988
 21
-5.583061527899957
 31
0.0
 11
49.06142830109991
 21
-5.581304971899953
 31
0.0
 11
49.06520892229981
 21
-5.579530876999939
 31
0.0
 11
49.06901926629984
 21
-5.577738281699936
 31
0.0
 11
49.07286046299986
 21
-5.575926579599951
 31
0.0
 11
49.07673413699979
 21
-5.574094925799954
 31
0.0
 11
49.08064258409979
 21
-5.572242150799951
 31
0.0
  0
SPLINE
  5
561F1
330
1F
100
AcDbEntity
  8
1
100
AcDbSpline
210
0.0
220
0.0
230
1.0
 70
     8
 71
     3
 72
    46
 73
    42
 74
    40
 42
0.0000000001
 43
0.0000000001
 44
0.000001
 12
-0.9999537832716145
 22
-0.0096141209054755
 32
0.0
 13
-0.9996162520729974
 23
0.027701057588724
 33
0.0
 40
0.0
 40
0.0
 40
0.0
 40
0.0
 40
0.0080424362486835
 40
0.0156438665615003
 40
0.0231218226666113
 40
0.0305903094380818
 40
0.0380620753513755
 40
0.0455245770864783
 40
0.0530711943085489
 40
0.0609939155223765
 40
0.0696730198105912
 40
0.0793797854500861
 40
0.0897246831293526
 40
0.0998524482315045
 40
0.1091229319200397
 40
0.1175444275033708
 40
0.1254527427792086
 40
0.1331531217855856
 40
0.1407986021064435
 40
0.1484273645431857
 40
0.1560977113919185
 40
0.1638851013554688
 40
0.1718505989223669
 40
0.1798702111435769
 40
0.1874846026021079
 40
0.1943939045573597
 40
0.2008002157803792
 40
0.2070667011929266
 40
0.2135138299843057
 40
0.2202087056588335
 40
0.2269437172859108
 40
0.2336123202612488
 40
0.2402506534549148
 40
0.2468926698039509
 40
0.2535544873769973
 40
0.2602259069058161
 40
0.266895470519915
 40
0.273590145093238
 40
0.2803012098537272
 40
0.2869345556955902
 40
0.2935326589814106
 40
0.2935326589814106
 40
0.2935326589814106
 40
0.2935326589814106
 10
46.52811796359981
 20
-5.927563534799958
 30
0.0
 10
46.52543727541529
 20
-5.927589308451445
 30
0.0
 10
46.52022283645351
 20
-5.92763342746457
 30
0.0
 10
46.51251575225194
 20
-5.927687889018258
 30
0.0
 10
46.50499990035524
 20
-5.9277284152869
 30
0.0
 10
46.49752721936033
 20
-5.92775777389702
 30
0.0
 10
46.49005965547831
 20
-5.927776490213702
 30
0.0
 10
46.48256602928348
 20
-5.927784730692671
 30
0.0
 10
46.47492208038761
 20
-5.927782400461353
 30
0.0
 10
46.4668726088733
 20
-5.927768321535481
 30
0.0
 10
46.45810312241957
 20
-5.927739364783377
 30
0.0
 10
46.44852631598531
 20
-5.927691135506051
 30
0.0
 10
46.43846674257878
 20
-5.92762119257128
 30
0.0
 10
46.42855276055661
 20
-5.927531248559994
 30
0.0
 10
46.41928008807986
 20
-5.927427321101305
 30
0.0
 10
46.41074739825398
 20
-5.927314404290846
 30
0.0
 10
46.40273824880949
 20
-5.927193107103875
 30
0.0
 10
46.39498797241105
 20
-5.927061369069498
 30
0.0
 10
46.38733111479007
 20
-5.926917407468181
 30
0.0
 10
46.37968449555279
 20
-5.926761963438657
 30
0.0
 10
46.37199079791253
 20
-5.926595339642858
 30
0.0
 10
46.36418508417756
 20
-5.926417193942675
 30
0.0
 10
46.35626316906626
 20
-5.926228258753496
 30
0.0
 10
46.34839907471627
 20
-5.92603367599802
 30
0.0
 10
46.34088707285968
 20
-5.925842437804732
 30
0.0
 10
46.3339127667885
 20
-5.925660891641697
 30
0.0
 10
46.32738770350743
 20
-5.925487506394674
 30
0.0
 10
46.32101672843766
 20
-5.925315051616948
 30
0.0
 10
46.31454968308389
 20
-5.925136967794088
 30
0.0
 10
46.30792660045313
 20
-5.924951741787552
 30
0.0
 10
46.30122978918456
 20
-5.924762065638063
 30
0.0
 10
46.29455186518396
 20
-5.924571261732211
 30
0.0
 10
46.28790495045507
 20
-5.924380523982826
 30
0.0
 10
46.28126029512316
 20
-5.92418990249704
 30
0.0
 10
46.27460458823145
 20
-5.923999917348041
 30
0.0
 10
46.26793965632145
 20
-5.923811301265942
 30
0.0
 10
46.26126375003105
 20
-5.923623310411805
 30
0.0
 10
46.25457457655693
 20
-5.923436995366387
 30
0.0
 10
46.24789746041142
 20
-5.923251399375018
 30
0.0
 10
46.24125252540318
 20
-5.923066584362075
 30
0.0
 10
46.23684374025901
 20
-5.922944215012996
 30
0.0
 10
46.23464521649987
 20
-5.922883290199962
 30
0.0
 11
46.52811796359981
 21
-5.927563534799958
 31
0.0
 11
46.52007576089988
 21
-5.927633747399966
 31
0.0
 11
46.51247451689982
 21
-5.927687039299968
 31
0.0
 11
46.50499667329984
 21
-5.927727605499939
 31
0.0
 11
46.49752824779977
 21
-5.927756997699958
 31
0.0
 11
46.49005650879985
 21
-5.927775743599937
 31
0.0
 11
46.48259401439986
 21
-5.927783961399967
 31
0.0
 11
46.47504739979979
 21
-5.927781665099956
 31
0.0
 11
46.46712469259989
 21
-5.927767804199987
 31
0.0
 11
46.45844563729986
 21
-5.927739126699947
 31
0.0
 11
46.44873899629987
 21
-5.927690203499963
 31
0.0
 11
46.43839435159986
 21
-5.927617995499957
 31
0.0
 11
46.42826700569992
 21
-5.927525891799973
 31
0.0
 11
46.41899710549989
 21
-5.927421869499966
 31
0.0
 11
46.41057634749984
 21
-5.927310373499921
 31
0.0
 11
46.40266893869977
 21
-5.927190582499974
 31
0.0
 11
46.39496967029981
 21
-5.927059734799939
 31
0.0
 11
46.38732553299985
 21
-5.926916354999946
 31
0.0
 11
46.37969833939985
 21
-5.926761560199963
 31
0.0
 11
46.37202978389985
 21
-5.926595705699952
 31
0.0
 11
46.36424441439987
 21
-5.926418229999939
 31
0.0
 11
46.35628117429985
 21
-5.926228506099988
 31
0.0
 11
46.34826400809981
 21
-5.926030354299967
 31
0.0
 11
46.34065207759988
 21
-5.925836692799947
 31
0.0
 11
46.3337451138999
 21
-5.925656880299953
 31
0.0
 11
46.32734106079988
 21
-5.925486730699958
 31
0.0
 11
46.3210768670998
 21
-5.925317197099957
 31
0.0
 11
46.31463217729981
 21
-5.925139786199935
 31
0.0
 11
46.30793991239977
 21
-5.924952716899952
 31
0.0
 11
46.30120759259989
 21
-5.924762155399946
 31
0.0
 11
46.29454169939992
 21
-5.924571832799955
 31
0.0
 11
46.2879060831998
 21
-5.924381563299988
 31
0.0
 11
46.28126677699981
 21
-5.924191243699937
 31
0.0
 11
46.27460763889985
 21
-5.924001270099921
 31
0.0
 11
46.26793883869993
 21
-5.923812420299952
 31
0.0
 11
46.26127179239984
 21
-5.923624834599962
 31
0.0
 11
46.25457971529988
 21
-5.923437524799936
 31
0.0
 11
46.24787142549985
 21
-5.923250525899987
 31
0.0
 11
46.2412407459999
 21
-5.923066241299949
 31
0.0
 11
46.23464521649987
 21
-5.922883290199962
 31
0.0
  0
SPLINE
  5
561F2
330
1F
100
AcDbEntity
  8
1
100
AcDbSpline
210
0.0
220
0.0
230
1.0
 70
     8
 71
     3
 72
    36
 73
    32
 74
    30
 42
0.0000000001
 43
0.0000000001
 44
0.000001
 12
-0.9996520991019984
 22
-0.0263757608604654
 32
0.0
 13
-0.999947290737543
 23
-0.0102672170838906
 33
0.0
 40
0.0
 40
0.0
 40
0.0
 40
0.0
 40
0.0158507411261996
 40
0.0296376430515429
 40
0.0416572971634468
 40
0.0522485689309012
 40
0.0618163256791885
 40
0.0707860572641397
 40
0.0795805537045782
 40
0.0883863567413899
 40
0.097169797085097
 40
0.1059648539072384
 40
0.114861602897068
 40
0.1238485723825911
 40
0.1328519221936751
 40
0.1418118751403705
 40
0.1507366323935569
 40
0.1598430614809289
 40
0.1692974854694635
 40
0.1786671184479676
 40
0.1873247388594844
 40
0.1952690497848968
 40
0.2029699660643765
 40
0.2109371909375426
 40
0.2197176171046515
 40
0.2295217488560366
 40
0.2398338238781987
 40
0.2500577229380366
 40
0.2601918417156904
 40
0.2704053234516215
 40
0.2807461282121724
 40
0.2807461282121724
 40
0.2807461282121724
 40
0.2807461282121724
 10
46.80878144929977
 20
-5.920851848099971
 30
0.0
 10
46.80349970708675
 20
-5.920991206552443
 30
0.0
 10
46.79362396456861
 20
-5.921253097747566
 30
0.0
 10
46.77974300843766
 20
-5.921618539156355
 30
0.0
 10
46.76761461026439
 20
-5.921938172242882
 30
0.0
 10
46.7568920885609
 20
-5.922220104496481
 30
0.0
 10
46.74718584071615
 20
-5.922474715592926
 30
0.0
 10
46.7380782932679
 20
-5.922712905198494
 30
0.0
 10
46.72922462333042
 20
-5.922943679444813
 30
0.0
 10
46.72043300462661
 20
-5.92317188367766
 30
0.0
 10
46.71164118013905
 20
-5.923399357090481
 30
0.0
 10
46.70281904586852
 20
-5.923627436292875
 30
0.0
 10
46.69392909904423
 20
-5.923857571797228
 30
0.0
 10
46.68496976617013
 20
-5.924090341445683
 30
0.0
 10
46.6759894099568
 20
-5.924325099304724
 30
0.0
 10
46.66702983629136
 20
-5.924561308147616
 30
0.0
 10
46.65803599527743
 20
-5.924801454625303
 30
0.0
 10
46.64887742535722
 20
-5.925047341724535
 30
0.0
 10
46.63957057521457
 20
-5.925295655594645
 30
0.0
 10
46.63041316513215
 20
-5.925535849462093
 30
0.0
 10
46.62175881099677
 20
-5.92575737068963
 30
0.0
 10
46.61366037446424
 20
-5.925959147613312
 30
0.0
 10
46.60579186684208
 20
-5.926149837339885
 30
0.0
 10
46.59764460452186
 20
-5.926341786253829
 30
0.0
 10
46.58879629039478
 20
-5.926542733551926
 30
0.0
 10
46.57916632204927
 20
-5.926750697354044
 30
0.0
 10
46.56905500404508
 20
-5.926954553532041
 30
0.0
 10
46.55883336813718
 20
-5.927142887695964
 30
0.0
 10
46.54864420904061
 20
-5.92730871707301
 30
0.0
 10
46.53841571879548
 20
-5.927450973065049
 30
0.0
 10
46.53156471683462
 20
-5.92752814437086
 30
0.0
 10
46.52811796359981
 20
-5.927563534799958
 30
0.0
 11
46.80878144929977
 21
-5.920851848099971
 31
0.0
 11
46.79293623009982
 21
-5.921269793399972
 31
0.0
 11
46.77915411619983
 21
-5.921633109499992
 31
0.0
 11
46.76713862929989
 21
-5.921949586899955
 31
0.0
 11
46.75655101639984
 21
-5.922227957599972
 31
0.0
 11
46.74698654879978
 21
-5.922478813599951
 31
0.0
 11
46.73801988269985
 21
-5.922713300299989
 31
0.0
 11
46.72922837139992
 21
-5.922942422799962
 31
0.0
 11
46.72042553429981
 21
-5.923170954299962
 31
0.0
 11
46.71164503479985
 21
-5.923398227499973
 31
0.0
 11
46.70285291779987
 21
-5.923625609999959
 31
0.0
 11
46.69395915069981
 21
-5.923855931499957
 31
0.0
 11
46.68497521549977
 21
-5.924089439799956
 31
0.0
 11
46.67597494309984
 21
-5.924324811899964
 31
0.0
 11
46.66701810729989
 21
-5.924561121699952
 31
0.0
 11
46.65809652279984
 21
-5.924799053899988
 31
0.0
 11
46.64899336199982
 21
-5.925042980199947
 31
0.0
 11
46.63954229039984
 21
-5.925294695899964
 31
0.0
 11
46.6301758712998
 21
-5.925540046199955
 31
0.0
 11
46.62152108279985
 21
-5.925761430999955
 31
0.0
 11
46.61357923609978
 21
-5.925959253599955
 31
0.0
 11
46.60588058129985
 21
-5.926145836299951
 31
0.0
 11
46.5979155637998
 21
-5.926333329099946
 31
0.0
 11
46.58913739679985
 21
-5.926532445699962
 31
0.0
 11
46.57933554409988
 21
-5.926743758799972
 31
0.0
 11
46.56902555679983
 21
-5.92695115099994
 31
0.0
 11
46.55880338199984
 21
-5.927138760999952
 31
0.0
 11
46.54867060299977
 21
-5.927303305199956
 31
0.0
 11
46.53845810749987
 21
-5.927444911799938
 31
0.0
 11
46.52811796359981
 21
-5.927563534799958
 31
0.0
  0
SPLINE
  5
561F3
330
1F
100
AcDbEntity
  8
1
100
AcDbSpline
210
0.0
220
0.0
230
1.0
 70
     8
 71
     3
 72
    26
 73
    22
 74
    20
 42
0.0000000001
 43
0.0000000001
 44
0.000001
 12
-0.9643344450809337
 22
-0.264686754542889
 32
0.0
 13
-0.994374717450565
 23
-0.1059194094352339
 33
0.0
 40
0.0
 40
0.0
 40
0.0
 40
0.0
 40
0.026032444566108
 40
0.0520600757241495
 40
0.0780827598932516
 40
0.1040996816700763
 40
0.130108784732546
 40
0.1561107395782991
 40
0.1821061494036479
 40
0.2080965875526647
 40
0.2340836903607076
 40
0.2600682754241107
 40
0.2860502461974233
 40
0.3120288284991024
 40
0.3380029586824814
 40
0.3639710102057136
 40
0.3899319523096202
 40
0.4158852529483616
 40
0.4418287584134752
 40
0.4677608207876105
 40
0.4936795178378101
 40
0.4936795178378101
 40
0.4936795178378101
 40
0.4936795178378101
 10
48.51207394789992
 20
-5.784674799899988
 30
0.0
 10
48.50370595357168
 20
-5.786971614321664
 30
0.0
 10
48.48695188910562
 20
-5.79149367224123
 30
0.0
 10
48.46176634438802
 20
-5.798061706360314
 30
0.0
 10
48.43653111969263
 20
-5.804415114821701
 30
0.0
 10
48.4112488070059
 20
-5.810552336889386
 30
0.0
 10
48.38592195316834
 20
-5.816472797795007
 30
0.0
 10
48.36055266088539
 20
-5.822176079635255
 30
0.0
 10
48.33514184841703
 20
-5.827662018140415
 30
0.0
 10
48.30969010972046
 20
-5.83293046616172
 30
0.0
 10
48.28419798056035
 20
-5.837981341792868
 30
0.0
 10
48.25866654685967
 20
-5.842814477195659
 30
0.0
 10
48.2330976782676
 20
-5.847429525980331
 30
0.0
 10
48.20749386397341
 20
-5.851826039747422
 30
0.0
 10
48.18185810441656
 20
-5.856003530895101
 30
0.0
 10
48.15619349248004
 20
-5.859961543165908
 30
0.0
 10
48.13050295616768
 20
-5.863699724219287
 30
0.0
 10
48.10478958541773
 20
-5.867217587345848
 30
0.0
 10
48.07905674417736
 20
-5.87051521003498
 30
0.0
 10
48.0533082202802
 20
-5.873592166782522
 30
0.0
 10
48.03612958948514
 20
-5.875496270804994
 30
0.0
 10
48.02753862379984
 20
-5.876411368499958
 30
0.0
 11
48.51207394789992
 21
-5.784674799899988
 31
0.0
 11
48.48694088189984
 21
-5.791458569699955
 31
0.0
 11
48.4617558153999
 21
-5.79802738609996
 31
0.0
 11
48.43652067099981
 21
-5.804380755899956
 31
0.0
 11
48.41123801309993
 21
-5.810518039099974
 31
0.0
 11
48.38591169089989
 21
-5.816438355699972
 31
0.0
 11
48.36054290459981
 21
-5.82214150059994
 31
0.0
 11
48.33513291289989
 21
-5.827627233399965
 31
0.0
 11
48.30968202049985
 21
-5.832895491699957
 31
0.0
 11
48.28419047399984
 21
-5.837946244999955
 31
0.0
 11
48.25865932459987
 21
-5.842779314399962
 31
0.0
 11
48.23309051929982
 21
-5.847394336499974
 31
0.0
 11
48.2074866751999
 21
-5.851790840099937
 31
0.0
 11
48.1818507027998
 21
-5.855968347799972
 31
0.0
 11
48.15618607739986
 21
-5.859926346199955
 31
0.0
 11
48.13049569349994
 21
-5.863664460099954
 31
0.0
 11
48.1047819577999
 21
-5.86718241479997
 31
0.0
 11
48.07904879049977
 21
-5.870479766399938
 31
0.0
 11
48.05329969399986
 21
-5.873556189999959
 31
0.0
 11
48.02753862379984
 21
-5.876411368499958
 31
0.0
  0
SPLINE
  5
561F4
330
1F
100
AcDbEntity
  8
1
100
AcDbSpline
210
0.0
220
0.0
230
1.0
 70
     8
 71
     3
 72
    25
 73
    21
 74
    19
 42
0.0000000001
 43
0.0000000001
 44
0.000001
 12
-0.3785758841779842
 22
-0.925570256608788
 32
0.0
 13
-0.5147983708628665
 23
-0.8573112838152422
 33
0.0
 40
0.0
 40
0.0
 40
0.0
 40
0.0
 40
0.0264572324585054
 40
0.0529084875786292
 40
0.0793535665979821
 40
0.1057936377364941
 40
0.1322289042863476
 40
0.1586590777633312
 40
0.1850848144396921
 40
0.2115055466312817
 40
0.2379216014391521
 40
0.2643331401239052
 40
0.2907406538249405
 40
0.3171444652925486
 40
0.3435440807423954
 40
0.3699396073455141
 40
0.3963314874248116
 40
0.4227198095643247
 40
0.4491053593069001
 40
0.4754882762245425
 40
0.4754882762245425
 40
0.4754882762245425
 40
0.4754882762245425
 10
50.57296726989989
 20
-3.954712864099974
 30
0.0
 10
50.56962857984292
 20
-3.962875539911898
 30
0.0
 10
50.56288268980813
 20
-3.979170817051922
 30
0.0
 10
50.55255778868048
 20
-4.003524003419798
 30
0.0
 10
50.5420300695061
 20
-4.027783986519558
 30
0.0
 10
50.53129936639385
 20
-4.051949036677633
 30
0.0
 10
50.52036638233386
 20
-4.076017788637557
 30
0.0
 10
50.50923189101786
 20
-4.099988717893047
 30
0.0
 10
50.49789677366391
 20
-4.123860068671518
 30
0.0
 10
50.48636182417784
 20
-4.147630270643766
 30
0.0
 10
50.47462796477157
 20
-4.171297632929899
 30
0.0
 10
50.46269596439663
 20
-4.194860783991288
 30
0.0
 10
50.45056658578267
 20
-4.218318348518323
 30
0.0
 10
50.4382406812295
 20
-4.24166875190297
 30
0.0
 10
50.42571922812403
 20
-4.264910341315633
 30
0.0
 10
50.41300318044466
 20
-4.28804149821083
 30
0.0
 10
50.4000934455567
 20
-4.311060800814992
 30
0.0
 10
50.38699063345996
 20
-4.33396692380743
 30
0.0
 10
50.37369659313185
 20
-4.356759115031479
 30
0.0
 10
50.36470549491577
 20
-4.371877286142144
 30
0.0
 10
50.3601782006998
 20
-4.379416743599961
 30
0.0
 11
50.57296726989989
 21
-3.954712864099974
 31
0.0
 11
50.5628475635998
 21
-3.979158316699937
 31
0.0
 11
50.55252354069989
 21
-4.003511662099967
 31
0.0
 11
50.54199610199987
 21
-4.027770960499978
 31
0.0
 11
50.53126555849985
 21
-4.051935636999971
 31
0.0
 11
50.5203326635999
 21
-4.076004172799969
 31
0.0
 11
50.50919839189987
 21
-4.099974604499934
 31
0.0
 11
50.49786331999985
 21
-4.123845829199964
 31
0.0
 11
50.48632855379981
 21
-4.147615641799987
 31
0.0
 11
50.47459485499985
 21
-4.171282665899951
 31
0.0
 11
50.4626630657998
 21
-4.19484538129997
 31
0.0
 11
50.45053387369989
 21
-4.218302559999969
 31
0.0
 11
50.43820804099993
 21
-4.24165282319997
 31
0.0
 11
50.42568675339987
 21
-4.264894092899936
 31
0.0
 11
50.41297093519983
 21
-4.288024833399973
 31
0.0
 11
50.40006134619989
 21
-4.311043799399968
 31
0.0
 11
50.38695891569989
 21
-4.333949446499971
 31
0.0
 11
50.37366419629996
 21
-4.356740962199964
 31
0.0
 11
50.3601782006998
 21
-4.379416743599961
 31
0.0
  0
SPLINE
  5
561F5
330
1F
100
AcDbEntity
  8
1
100
AcDbSpline
210
0.0
220
0.0
230
1.0
 70
     8
 71
     3
 72
    24
 73
    20
 74
    18
 42
0.0000000001
 43
0.0000000001
 44
0.000001
 12
-0.2333286664263413
 22
-0.9723979295657231
 32
0.0
 13
-0.3778117407848009
 23
-0.9258824377452887
 33
0.0
 40
0.0
 40
0.0
 40
0.0
 40
0.0
 40
0.0277529765306288
 40
0.0554988383530766
 40
0.0832382896554972
 40
0.1109707634841892
 40
0.1386969393654218
 40
0.1664175964529488
 40
0.1941334415404965
 40
0.2218448376701261
 40
0.249552859422901
 40
0.2772579826401214
 40
0.3049606004250244
 40
0.3326607876235972
 40
0.3603577681842112
 40
0.3880516154869928
 40
0.4157419670005499
 40
0.4434287770242803
 40
0.4711121659218661
 40
0.4711121659218661
 40
0.4711121659218661
 40
0.4711121659218661
 10
50.71717442269982
 20
-3.506688469299973
 30
0.0
 10
50.71501590103207
 20
-3.515684114939197
 30
0.0
 10
50.71061899824986
 20
-3.533653916123007
 30
0.0
 10
50.70378335194209
 20
-3.560545163642913
 30
0.0
 10
50.6967108374219
 20
-3.587368042021211
 30
0.0
 10
50.68940062511183
 20
-3.614120310926651
 30
0.0
 10
50.68185353873548
 20
-3.640800212797309
 30
0.0
 10
50.67406994468456
 20
-3.667406302388371
 30
0.0
 10
50.6660503831722
 20
-3.693937074171849
 30
0.0
 10
50.65779531747768
 20
-3.720391103460528
 30
0.0
 10
50.64930521385855
 20
-3.74676688501119
 30
0.0
 10
50.64058057010583
 20
-3.773062933293033
 30
0.0
 10
50.63162203129684
 20
-3.799277460630442
 30
0.0
 10
50.62243037241365
 20
-3.825408283392008
 30
0.0
 10
50.61300639276305
 20
-3.851453112925632
 30
0.0
 10
50.60335106551008
 20
-3.877409568111232
 30
0.0
 10
50.59346501048082
 20
-3.903275399735981
 30
0.0
 10
50.58335028659303
 20
-3.929048901994967
 30
0.0
 10
50.57645363968328
 20
-3.946169009567455
 30
0.0
 10
50.57296726989989
 20
-3.954712864099974
 30
0.0
 11
50.71717442269982
 21
-3.506688469299973
 31
0.0
 11
50.71057846619988
 21
-3.533646304499967
 31
0.0
 11
50.70374393999987
 21
-3.560537259999961
 31
0.0
 11
50.69667129109984
 21
-3.587359867899948
 31
0.0
 11
50.68936126749986
 21
-3.61411154729997
 31
0.0
 11
50.68181432379981
 21
-3.640790822399978
 31
0.0
 11
50.67403089469985
 21
-3.667396321099985
 31
0.0
 11
50.66601146189987
 21
-3.693926613099975
 31
0.0
 11
50.65775659699977
 21
-3.720379937399954
 31
0.0
 11
50.64926664569987
 21
-3.746755207600003
 31
0.0
 11
50.64054215709984
 21
-3.773050773399987
 31
0.0
 11
50.63158374079989
 21
-3.799264917599984
 31
0.0
 11
50.62239210809991
 21
-3.825395621099985
 31
0.0
 11
50.61296826879981
 21
-3.85144006619997
 31
0.0
 11
50.60331298679989
 21
-3.877396246799918
 31
0.0
 11
50.59342719729989
 21
-3.903261763099948
 31
0.0
 11
50.58331167359984
 21
-3.929034673299966
 31
0.0
 11
50.57296726989989
 21
-3.954712864099974
 31
0.0
  0
SPLINE
  5
561F6
330
1F
100
AcDbEntity
  8
1
100
AcDbSpline
210
0.0
220
0.0
230
1.0
 70
     8
 71
     3
 72
    25
 73
    21
 74
    19
 42
0.0000000001
 43
0.0000000001
 44
0.000001
 12
-0.0799998420317446
 22
-0.9967948762282517
 32
0.0
 13
-0.2315011230781479
 23
-0.9728346365202858
 33
0.0
 40
0.0
 40
0.0
 40
0.0
 40
0.0
 40
0.0264489060131336
 40
0.0528830728039967
 40
0.0793012415726998
 40
0.1057024203043382
 40
0.1320874674275899
 40
0.1584566412982819
 40
0.1848095959594342
 40
0.2111475092973946
 40
0.2374706466816967
 40
0.2637811222480987
 40
0.2900827845139372
 40
0.316377419068528
 40
0.3426651356942967
 40
0.3689462632067793
 40
0.3952221883202081
 40
0.4214940040506741
 40
0.4477617127444681
 40
0.474026411711005
 40
0.474026411711005
 40
0.474026411711005
 40
0.474026411711005
 10
50.79105909509985
 20
-3.038925470399959
 30
0.0
 10
50.79035379233221
 20
-3.047713515065204
 30
0.0
 10
50.78886880197683
 20
-3.065278799827957
 30
0.0
 10
50.7864172531701
 20
-3.09159892191208
 30
0.0
 10
50.78374508426822
 20
-3.117881589389142
 30
0.0
 10
50.78085086304793
 20
-3.144124258058717
 30
0.0
 10
50.77773545407137
 20
-3.170325141362482
 30
0.0
 10
50.77439907176915
 20
-3.196482599608714
 30
0.0
 10
50.77084208386565
 20
-3.222595116987818
 30
0.0
 10
50.76706480888788
 20
-3.248661174338785
 30
0.0
 10
50.7630675313211
 20
-3.274680075915071
 30
0.0
 10
50.75885035601277
 20
-3.300652000517359
 30
0.0
 10
50.7544132325296
 20
-3.326577615279774
 30
0.0
 10
50.74975614846846
 20
-3.352456914349879
 30
0.0
 10
50.74487940854623
 20
-3.378288755841047
 30
0.0
 10
50.73978329611015
 20
-3.404071859094145
 30
0.0
 10
50.73446812143299
 20
-3.429805283095454
 30
0.0
 10
50.7289337873745
 20
-3.455487893389268
 30
0.0
 10
50.72318178236668
 20
-3.481118774662441
 30
0.0
 10
50.71920119180254
 20
-3.498171399675833
 30
0.0
 10
50.71717442269982
 20
-3.506688469299973
 30
0.0
 11
50.79105909509985
 21
-3.038925470399959
 31
0.0
 11
50.78883115509984
 21
-3.065280396199952
 31
0.0
 11
50.78638070759985
 21
-3.091600670399984
 31
0.0
 11
50.78370819099984
 21
-3.117883281399969
 31
0.0
 11
50.78081407659988
 21
-3.144125342299972
 31
0.0
 11
50.77769865039988
 21
-3.170325812599969
 31
0.0
 11
50.77436225509984
 21
-3.196483063699957
 31
0.0
 11
50.77080531579986
 21
-3.222594870699964
 31
0.0
 11
50.76702806679986
 21
-3.248660521499985
 31
0.0
 11
50.76303091009993
 21
-3.274678407599978
 31
0.0
 11
50.75881395559986
 21
-3.300648746799964
 31
0.0
 11
50.75437694919981
 21
-3.326573454599966
 31
0.0
 11
50.74971991429982
 21
-3.35245239969997
 31
0.0
 11
50.74484323299987
 21
-3.378283812499972
 31
0.0
 11
50.73974726779988
 21
-3.404066142299967
 31
0.0
 11
50.73443215829991
 21
-3.429798870899972
 31
0.0
 11
50.72889808039986
 21
-3.455481181299987
 31
0.0
 11
50.72314542989989
 21
-3.481111353899976
 31
0.0
 11
50.71717442269982
 21
-3.506688469299973
 31
0.0
  0
SPLINE
  5
561F7
330
1F
100
AcDbEntity
  8
1
100
AcDbSpline
210
0.0
220
0.0
230
1.0
 70
     8
 71
     3
 72
    21
 73
    17
 74
    15
 42
0.0000000001
 43
0.0000000001
 44
0.000001
 12
-0.0037379819220824
 22
-0.9999930137211713
 32
0.0
 13
0.0013695431398007
 23
-0.9999990621753543
 33
0.0
 40
0.0
 40
0.0
 40
0.0
 40
0.0
 40
0.0149826634198107
 40
0.0299464678038548
 40
0.0449319451001517
 40
0.060106042613926
 40
0.075819320970394
 40
0.0925123343930672
 40
0.1106196823586782
 40
0.1305405063961239
 40
0.1526059389519634
 40
0.1771261533973751
 40
0.2044141737213179
 40
0.2347830978845847
 40
0.26849594934472
 40
0.3056400063750854
 40
0.3056400063750854
 40
0.3056400063750854
 40
0.3056400063750854
 10
50.80033245629988
 20
-2.398567201999952
 30
0.0
 10
50.80031378799157
 20
-2.403561388248867
 30
0.0
 10
50.80027794227721
 20
-2.413543480736443
 30
0.0
 10
50.80023683476929
 20
-2.428520740553395
 30
0.0
 10
50.80020141493458
 20
-2.443561825327009
 30
0.0
 10
50.80016937753356
 20
-2.458852742924761
 30
0.0
 10
50.80013715995369
 20
-2.474712839964482
 30
0.0
 10
50.80010542022967
 20
-2.491550690059462
 30
0.0
 10
50.8000750892017
 20
-2.509791060208939
 30
0.0
 10
50.80004807498153
 20
-2.529822243868068
 30
0.0
 10
50.80002522531953
 20
-2.551991056137552
 30
0.0
 10
50.80000778008423
 20
-2.576615606190401
 30
0.0
 10
50.79999837537577
 20
-2.604007991641836
 30
0.0
 10
50.8000012512258
 20
-2.634464591153246
 30
0.0
 10
50.8000202718548
 20
-2.668206531619375
 30
0.0
 10
50.8000475558037
 20
-2.691825486768053
 30
0.0
 10
50.80006451259987
 20
-2.704206827499973
 30
0.0
 11
50.80033245629988
 21
-2.398567201999952
 31
0.0
 11
50.80028103439985
 21
-2.413549777799971
 31
0.0
 11
50.80023882599983
 21
-2.428513522199949
 31
0.0
 11
50.80020320749986
 21
-2.443498956899972
 31
0.0
 11
50.80017091269986
 21
-2.458673019899947
 31
0.0
 11
50.80013919499982
 21
-2.474386266199971
 31
0.0
 11
50.80010790189987
 21
-2.491079250299961
 31
0.0
 11
50.80007799749989
 21
-2.509186573599933
 31
0.0
 11
50.80005104059989
 21
-2.529107379399974
 31
0.0
 11
50.80002819139986
 21
-2.551172800099934
 31
0.0
 11
50.80001084609989
 21
-2.575693008399966
 31
0.0
 11
50.80000161249984
 21
-2.602981027199973
 31
0.0
 11
50.80000439729985
 21
-2.633349951299962
 31
0.0
 11
50.80002378949984
 21
-2.667062797099973
 31
0.0
 11
50.80006451259987
 21
-2.704206827499973
 31
0.0
  0
SPLINE
  5
561F8
330
1F
100
AcDbEntity
  8
1
100
AcDbSpline
210
0.0
220
0.0
230
1.0
 70
     8
 71
     3
 72
    30
 73
    26
 74
    24
 42
0.0000000001
 43
0.0000000001
 44
0.000001
 12
0.0493283031532489
 22
-0.9987826182448419
 32
0.0
 13
0.0021003305499688
 23
-0.9999977943033579
 33
0.0
 40
0.0
 40
0.0
 40
0.0
 40
0.0
 40
0.0173550853095562
 40
0.0338106406379932
 40
0.0499096408002565
 40
0.0659837950686849
 40
0.0821054373675974
 40
0.0981479825332301
 40
0.1140500686365514
 40
0.1305372672707231
 40
0.1488027020398322
 40
0.1699186759681325
 40
0.1940815468685849
 40
0.2200009332082322
 40
0.2462297063651608
 40
0.2711193331429828
 40
0.2930880645409143
 40
0.3120100555790507
 40
0.3289504541377753
 40
0.3450275060148336
 40
0.3611805547649389
 40
0.3774478723880597
 40
0.3936480564817855
 40
0.4097492541819631
 40
0.425808657360771
 40
0.425808657360771
 40
0.425808657360771
 40
0.425808657360771
 10
50.78642888579986
 20
-1.973063556499965
 30
0.0
 10
50.78671425143631
 20
-1.978841542348412
 30
0.0
 10
50.78727335831832
 20
-1.990097880031058
 30
0.0
 10
50.78811261821676
 20
-2.006713246749697
 30
0.0
 10
50.78894589533565
 20
-2.022901387305786
 30
0.0
 10
50.78979240180848
 20
-2.03897738672272
 30
0.0
 10
50.7906624722238
 20
-2.055033281888867
 30
0.0
 10
50.79154581275514
 20
-2.071031004620657
 30
0.0
 10
50.79243689177565
 20
-2.087150337070625
 30
0.0
 10
50.7933556842055
 20
-2.104010231280184
 30
0.0
 10
50.7943350582849
 20
-2.122607345886692
 30
0.0
 10
50.79538098103256
 20
-2.143762996339468
 30
0.0
 10
50.79642234246103
 20
-2.167473051449924
 30
0.0
 10
50.7973639454982
 20
-2.192892824584042
 30
0.0
 10
50.79815301801819
 20
-2.218560114971133
 30
0.0
 10
50.79876340148286
 20
-2.242914958372828
 30
0.0
 10
50.79920927317971
 20
-2.264837272193297
 30
0.0
 10
50.79952841841777
 20
-2.284111706366211
 30
0.0
 10
50.79976206835095
 20
-2.301423298945898
 30
0.0
 10
50.79994044175839
 20
-2.317812511020171
 30
0.0
 10
50.8000781303976
 20
-2.3339777446309
 30
0.0
 10
50.80018076087481
 20
-2.350184281876209
 30
0.0
 10
50.80025038504925
 20
-2.366373708803152
 30
0.0
 10
50.8002934904751
 20
-2.382493914772844
 30
0.0
 10
50.80032121294817
 20
-2.393214079414406
 30
0.0
 10
50.80033245629988
 20
-2.398567201999952
 30
0.0
 11
50.78642888579986
 21
-1.973063556499965
 31
0.0
 11
50.78729171849989
 21
-1.990397170199969
 31
0.0
 11
50.78812227319986
 21
-2.006831753599968
 31
0.0
 11
50.78895048059985
 21
-2.022909437899969
 31
0.0
 11
50.78979665279985
 21
-2.038961306099963
 31
0.0
 11
50.79066765009986
 21
-2.055059403799958
 31
0.0
 11
50.79154956239984
 21
-2.071077690699979
 31
0.0
 11
50.79242509299991
 21
-2.086955657099935
 31
0.0
 11
50.79331966999984
 21
-2.10341856949995
 31
0.0
 11
50.79427702079988
 21
-2.12165889939996
 31
0.0
 11
50.7953137730999
 21
-2.142749408499966
 31
0.0
 11
50.79637098659986
 21
-2.166889142099961
 31
0.0
 11
50.79733412019994
 21
-2.192790630299967
 31
0.0
 11
50.79814228169983
 21
-2.219006952499952
 31
0.0
 11
50.79876799509986
 21
-2.243888715399961
 31
0.0
 11
50.79921605689981
 21
-2.265852879299956
 31
0.0
 11
50.79953016929983
 21
-2.28477226489997
 31
0.0
 11
50.79975938239988
 21
-2.30171111449998
 31
0.0
 11
50.79993484169984
 21
-2.317787210699961
 31
0.0
 11
50.80007294459983
 21
-2.333939670999967
 31
0.0
 11
50.80017638169988
 21
-2.350206661799987
 31
0.0
 11
50.80024712139982
 21
-2.366406693199962
 31
0.0
 11
50.80029429099989
 21
-2.382507821899977
 31
0.0
 11
50.80033245629988
 21
-2.398567201999952
 31
0.0
  0
SPLINE
  5
561F9
330
1F
100
AcDbEntity
  8
1
100
AcDbSpline
210
0.0
220
0.0
230
1.0
 70
     8
 71
     3
 72
    19
 73
    15
 74
    13
 42
0.0000000001
 43
0.0000000001
 44
0.000001
 12
0.0510398460869754
 22
-0.9986966176529376
 32
0.0
 13
0.056556743463181
 23
-0.9983993864024757
 33
0.0
 40
0.0
 40
0.0
 40
0.0
 40
0.0
 40
0.0510719787853262
 40
0.1004149413530204
 40
0.1471317357825483
 40
0.190790117002677
 40
0.2309880162080773
 40
0.26698201522488
 40
0.2990014063170431
 40
0.3279026988512625
 40
0.3544837094716318
 40
0.3789903820457496
 40
0.401143515257222
 40
0.4209000947520743
 40
0.4209000947520743
 40
0.4209000947520743
 40
0.4209000947520743
 10
50.76362256869981
 20
-1.552782422199967
 30
0.0
 10
50.76449147067865
 20
-1.569784226356553
 30
0.0
 10
50.76621450714611
 20
-1.60321149949668
 30
0.0
 10
50.7687750373941
 20
-1.652188528694452
 30
0.0
 10
50.77124080271551
 20
-1.698695925008571
 30
0.0
 10
50.77357184166351
 20
-1.742157819298896
 30
0.0
 10
50.77573726303274
 20
-1.782049185912839
 30
0.0
 10
50.77771748419917
 20
-1.818065222259605
 30
0.0
 10
50.77951469213735
 20
-1.850320087991399
 30
0.0
 10
50.78115026033032
 20
-1.879441426055549
 30
0.0
 10
50.78265198446946
 20
-1.906062094108456
 30
0.0
 10
50.78402335592574
 20
-1.930437152481246
 30
0.0
 10
50.78526674868903
 20
-1.952541003572171
 30
0.0
 10
50.78605642986713
 20
-1.966488570884941
 30
0.0
 10
50.78642888579986
 20
-1.973063556499965
 30
0.0
 11
50.76362256869981
 21
-1.552782422199967
 31
0.0
 11
50.76624951049985
 21
-1.603786802799987
 31
0.0
 11
50.76882595609993
 21
-1.653062454699963
 31
0.0
 11
50.77129871159979
 21
-1.699713760499946
 31
0.0
 11
50.77363751599989
 21
-1.743309450799969
 31
0.0
 11
50.7758171367999
 21
-1.783448214399953
 31
0.0
 11
50.77779387969986
 21
-1.819387892499946
 31
0.0
 11
50.77957400079981
 21
-1.851357762699976
 31
0.0
 11
50.78119387129993
 21
-1.88021362489998
 31
0.0
 11
50.78268923919984
 21
-1.906752548999946
 31
0.0
 11
50.78406838429987
 21
-1.931220375499961
 31
0.0
 11
50.7853136903999
 21
-1.953338478600002
 31
0.0
 11
50.78642888579986
 21
-1.973063556499965
 31
0.0
  0
ARC
  5
561FA
330
1F
100
AcDbEntity
  8
1
100
AcDbCircle
 10
47.67473799999982
 20
-2.766362999999984
 30
0.0
 40
3.132656
100
AcDbArc
 50
328.8160769999981
 51
329.0081770000012
  0
ARC
  5
561FB
330
1F
100
AcDbEntity
  8
1
100
AcDbCircle
 10
48.37376022860201
 20
-5.213620598199469
 30
0.0
 40
0.587566239401482
100
AcDbArc
 50
283.6152900662177
 51
292.25207559693
  0
ARC
  5
561FC
330
1F
100
AcDbEntity
  8
1
100
AcDbCircle
 10
47.75000599999986
 20
-2.805882999999951
 30
0.0
 40
3.04997
100
AcDbArc
 50
355.6178610000001
 51
356.1018129999998
  0
ARC
  5
561FD
330
1F
100
AcDbEntity
  8
1
100
AcDbCircle
 10
47.70884999999987
 20
-2.869846999999964
 30
0.0
 40
3.023407
100
AcDbArc
 50
275.7917990000011
 51
276.0506170000009
  0
ARC
  5
561FE
330
1F
100
AcDbEntity
  8
1
100
AcDbCircle
 10
43.81000099999994
 20
-8.384999999999962
 30
0.0
 40
3.0
100
AcDbArc
 50
55.91635300000152
 51
90.0
  0
ARC
  5
561FF
330
1F
100
AcDbEntity
  8
1
100
AcDbCircle
 10
43.81000099999994
 20
8.385000000000033
 30
0.0
 40
3.0
100
AcDbArc
 50
270.0
 51
304.0836469999985
  0
LINE
  5
56200
330
1F
100
AcDbEntity
  8
1
100
AcDbLine
 10
40.81000099999982
 20
-5.229999999999989
 30
0.0
 11
40.96500099999992
 21
-5.384999999999962
 31
0.0
  0
LINE
  5
56201
330
1F
100
AcDbEntity
  8
1
100
AcDbLine
 10
40.96500099999992
 20
-5.384999999999962
 30
0.0
 11
43.81000099999982
 21
-5.384999999999962
 31
0.0
  0
LINE
  5
56202
330
1F
100
AcDbEntity
  8
1
100
AcDbLine
 10
43.81000099999982
 20
5.385000000000005
 30
0.0
 11
40.96500099999992
 21
5.385000000000005
 31
0.0
  0
LINE
  5
56203
330
1F
100
AcDbEntity
  8
1
100
AcDbLine
 10
41.67432799999983
 20
-5.384999999999962
 30
0.0
 11
41.67432799999983
 21
-5.170538401699957
 31
0.0
  0
LINE
  5
56204
330
1F
100
AcDbEntity
  8
1
100
AcDbLine
 10
41.67432799999994
 20
4.860417111214623
 30
0.0
 11
41.67432799999994
 21
5.385000000000005
 31
0.0
  0
LINE
  5
56205
330
1F
100
AcDbEntity
  8
1
100
AcDbLine
 10
40.81000099999994
 20
5.230000000000032
 30
0.0
 11
40.81000099999994
 21
5.073354868426001
 31
0.0
  0
LINE
  5
56206
330
1F
100
AcDbEntity
  8
1
100
AcDbLine
 10
40.81000099999982
 20
-5.170538401699957
 30
0.0
 11
40.81000099999982
 21
-5.229999999999989
 31
0.0
  0
LINE
  5
56207
330
1F
100
AcDbEntity
  8
1
100
AcDbLine
 10
40.81000099999994
 20
5.230000000000032
 30
0.0
 11
40.96500099999992
 21
5.385000000000005
 31
0.0
  0
LINE
  5
56208
330
1F
100
AcDbEntity
  8
1
100
AcDbLine
 10
50.68604599999992
 20
0.2082150000000098
 30
0.0
 11
50.69336399999986
 21
0.3279710000000051
 31
0.0
  0
LINE
  5
56209
330
1F
100
AcDbEntity
  8
1
100
AcDbLine
 10
50.67251500028169
 20
0.1844481801189914
 30
0.0
 11
50.68604599999992
 21
0.2082150000000098
 31
0.0
  0
LINE
  5
5620A
330
1F
100
AcDbEntity
  8
1
100
AcDbLine
 10
50.74435599999981
 20
1.211546000000012
 30
0.0
 11
50.75203499999986
 21
1.34906500000001
 31
0.0
  0
LINE
  5
5620B
330
1F
100
AcDbEntity
  8
1
100
AcDbLine
 10
50.75203499999986
 20
1.34906500000001
 30
0.0
 11
50.76362299999982
 21
1.552781999999993
 31
0.0
  0
LINE
  5
5620C
330
1F
100
AcDbEntity
  8
1
100
AcDbLine
 10
50.80001699999991
 20
2.755185999999994
 30
0.0
 11
50.79998642446901
 21
2.885931338076446
 31
0.0
  0
LINE
  5
5620D
330
1F
100
AcDbEntity
  8
1
100
AcDbLine
 10
50.8000649999999
 20
2.70420700000001
 30
0.0
 11
50.80001699999991
 21
2.755185999999994
 31
0.0
  0
LINE
  5
5620E
330
1F
100
AcDbEntity
  8
1
100
AcDbLine
 10
47.74500099999989
 20
5.893615000000025
 30
0.0
 11
47.65042099999994
 21
5.89658100000004
 31
0.0
  0
LINE
  5
5620F
330
1F
100
AcDbEntity
  8
1
100
AcDbLine
 10
47.87490499999989
 20
5.88949300000003
 30
0.0
 11
47.74500099999989
 21
5.893615000000025
 31
0.0
  0
LINE
  5
56210
330
1F
100
AcDbEntity
  8
1
100
AcDbLine
 10
48.05095020903877
 20
5.874714211766274
 30
0.0
 11
47.87490499999989
 21
5.88949300000003
 31
0.0
  0
ARC
  5
56211
102
{ACAD_REACTORS
330
5622D
102
}
330
1F
100
AcDbEntity
  8
1
100
AcDbCircle
 10
47.79998650650168
 20
2.885229771263382
 30
0.0
 40
3.0
100
AcDbArc
 50
0.013398939266035
 51
85.20133829854044
  0
LINE
  5
56212
330
1F
100
AcDbEntity
  8
1
100
AcDbLine
 10
47.65042099999994
 20
5.89658100000004
 30
0.0
 11
47.36875399999985
 21
5.905106000000003
 31
0.0
  0
LINE
  5
56213
330
1F
100
AcDbEntity
  8
1
100
AcDbLine
 10
47.36875399999985
 20
5.905106000000003
 30
0.0
 11
47.08879299999989
 21
5.913179000000027
 31
0.0
  0
LINE
  5
56214
330
1F
100
AcDbEntity
  8
1
100
AcDbLine
 10
47.08879299999989
 20
5.913179000000027
 30
0.0
 11
46.80878099999984
 21
5.92085200000001
 31
0.0
  0
LINE
  5
56215
330
1F
100
AcDbEntity
  8
1
100
AcDbLine
 10
46.23464499999989
 20
5.922883000000027
 30
0.0
 11
45.93705999999985
 21
5.914237000000028
 31
0.0
  0
LINE
  5
56216
330
1F
100
AcDbEntity
  8
1
100
AcDbLine
 10
45.93705999999985
 20
5.914237000000028
 30
0.0
 11
45.63941699999986
 21
5.905100000000018
 31
0.0
  0
LINE
  5
56217
330
1F
100
AcDbEntity
  8
1
100
AcDbLine
 10
45.63941699999986
 20
5.905100000000018
 30
0.0
 11
45.49120899999991
 21
5.900339000000016
 31
0.0
  0
LINE
  5
56218
330
1F
100
AcDbEntity
  8
1
100
AcDbLine
 10
50.67255699999987
 20
0.0622760000000113
 30
0.0
 11
50.67255699999987
 21
-0.062273999999988
 31
0.0
  0
LINE
  5
56219
330
1F
100
AcDbEntity
  8
1
100
AcDbLine
 10
50.67255699999987
 20
-0.062273999999988
 30
0.0
 11
50.672509431182
 21
-0.1844392188657622
 31
0.0
  0
LINE
  5
5621A
330
1F
100
AcDbEntity
  8
1
100
AcDbLine
 10
50.67251499999986
 20
0.1844490000000149
 30
0.0
 11
50.67255699999987
 21
0.0622760000000113
 31
0.0
  0
LINE
  5
5621B
330
1F
100
AcDbEntity
  8
1
100
AcDbLine
 10
50.68604599999992
 20
-0.2082149999999814
 30
0.0
 11
50.69336399999986
 21
-0.3279709999999767
 31
0.0
  0
LINE
  5
5621C
330
1F
100
AcDbEntity
  8
1
100
AcDbLine
 10
50.67251499999986
 20
-0.1844489999999865
 30
0.0
 11
50.68604599999992
 21
-0.2082149999999814
 31
0.0
  0
LINE
  5
5621D
330
1F
100
AcDbEntity
  8
1
100
AcDbLine
 10
50.74435599999981
 20
-1.211545999999984
 30
0.0
 11
50.75203499999986
 21
-1.349064999999981
 31
0.0
  0
LINE
  5
5621E
330
1F
100
AcDbEntity
  8
1
100
AcDbLine
 10
45.63941699999986
 20
-5.905099999999976
 30
0.0
 11
45.49120899999991
 21
-5.900338999999974
 31
0.0
  0
LINE
  5
5621F
330
1F
100
AcDbEntity
  8
1
100
AcDbLine
 10
45.93705999999985
 20
-5.914236999999985
 30
0.0
 11
45.63941699999986
 21
-5.905099999999976
 31
0.0
  0
LINE
  5
56220
330
1F
100
AcDbEntity
  8
1
100
AcDbLine
 10
46.23464499999989
 20
-5.922882999999984
 30
0.0
 11
45.93705999999985
 21
-5.914236999999985
 31
0.0
  0
LINE
  5
56221
330
1F
100
AcDbEntity
  8
1
100
AcDbLine
 10
47.08879299999989
 20
-5.913178999999985
 30
0.0
 11
46.80878099999984
 21
-5.920851999999968
 31
0.0
  0
LINE
  5
56222
330
1F
100
AcDbEntity
  8
1
100
AcDbLine
 10
47.36875399999985
 20
-5.90510599999996
 30
0.0
 11
47.08879299999989
 21
-5.913178999999985
 31
0.0
  0
LINE
  5
56223
330
1F
100
AcDbEntity
  8
1
100
AcDbLine
 10
47.65042099999994
 20
-5.896580999999997
 30
0.0
 11
47.36875399999985
 21
-5.90510599999996
 31
0.0
  0
LINE
  5
56224
330
1F
100
AcDbEntity
  8
1
100
AcDbLine
 10
48.01395399999989
 20
-5.877819999999957
 30
0.0
 11
47.87490499999989
 21
-5.889492999999987
 31
0.0
  0
LINE
  5
56225
330
1F
100
AcDbEntity
  8
1
100
AcDbLine
 10
47.87490499999989
 20
-5.889492999999987
 30
0.0
 11
47.74500099999989
 21
-5.893614999999982
 31
0.0
  0
LINE
  5
56226
330
1F
100
AcDbEntity
  8
1
100
AcDbLine
 10
47.74500099999989
 20
-5.893614999999982
 30
0.0
 11
47.65042099999994
 21
-5.896580999999997
 31
0.0
  0
LINE
  5
56227
330
1F
100
AcDbEntity
  8
1
100
AcDbLine
 10
50.8000649999999
 20
-2.704206999999968
 30
0.0
 11
50.80001699999991
 21
-2.755185999999952
 31
0.0
  0
LINE
  5
56228
330
1F
100
AcDbEntity
  8
1
100
AcDbLine
 10
50.80001699999991
 20
-2.755185999999952
 30
0.0
 11
50.79998899999987
 21
-2.874917999999979
 31
0.0
  0
LINE
  5
56229
330
1F
100
AcDbEntity
  8
1
100
AcDbLine
 10
50.79998899999987
 20
-2.874917999999979
 30
0.0
 11
50.79291899999986
 21
-3.013231000000004
 31
0.0
  0
LINE
  5
5622A
330
1F
100
AcDbEntity
  8
1
100
AcDbLine
 10
50.75203499999986
 20
-1.349064999999981
 30
0.0
 11
50.76362299999982
 21
-1.55278199999995
 31
0.0
  0
DIMENSION
  5
5622B
102
{ACAD_XDICTIONARY
360
5622C
102
}
102
{ACAD_REACTORS
330
5622D
102
}
330
1F
100
AcDbEntity
  8
2
100
AcDbDimension
  2
*D98
 10
47.79998650650168
 20
2.885229771263382
 30
0.0
 11
67.30810330185376
 21
21.82063286203512
 31
0.0
 70
    36
 71
     5
 42
2.999999999999914
  3
\M+18352\M+18373\M+1815B - ISO-25
100
AcDbRadialDimension
 15
50.23992082803466
 25
4.630715522166244
 35
0.0
 40
0.0
1001
ACAD
1000
DSTYLE
1002
{
1070
     4
1000
"
1070
    40
1040
1.0
1070
   143
1040
0.03937
1070
   170
1070
     1
1070
   171
1070
     3
1070
   271
1070
     8
1070
   285
1070
     4
1002
}
  0
LINE
  5
5622E
330
1F
100
AcDbEntity
  8
cut
100
AcDbLine
 10
46.00000299999999
 20
5.968555331400054
 30
0.0
 11
46.6000029999999
 21
5.999999998900037
 31
0.0
1001
ACAD
1000
RTMaterial
1005
0
  0
LINE
  5
5622F
330
1F
100
AcDbEntity
  8
cut
100
AcDbLine
 10
40.80000299999994
 20
5.384999998900056
 30
0.0
 11
44.22214047199997
 21
5.384999998900056
 31
0.0
1001
ACAD
1000
RTMaterial
1005
0
  0
LINE
  5
56230
330
1F
100
AcDbEntity
  8
cut
100
AcDbLine
 10
46.6000029999999
 20
5.999999998900037
 30
0.0
 11
47.80000299999994
 21
5.999999998900037
 31
0.0
1001
ACAD
1000
RTMaterial
1005
0
  0
LINE
  5
56231
330
1F
100
AcDbEntity
  8
cut
100
AcDbLine
 10
50.80000299999994
 20
2.499999998899809
 30
0.0
 11
50.80000299999994
 21
2.999999998900037
 31
0.0
1001
ACAD
1000
RTMaterial
1005
0
  0
LINE
  5
56232
330
1F
100
AcDbEntity
  8
cut
100
AcDbLine
 10
40.80000299999994
 20
-5.385000001099996
 30
0.0
 11
40.80000299999994
 21
5.384999998900056
 31
0.0
1001
ACAD
1000
RTMaterial
1005
0
  0
LINE
  5
56233
330
1F
100
AcDbEntity
  8
cut
100
AcDbLine
 10
50.6689835517999
 20
-0.0000000010999628
 30
0.0
 11
50.80000299999994
 21
2.499999998900037
 31
0.0
1001
ACAD
1000
RTMaterial
1005
0
  0
ARC
  5
56234
330
1F
100
AcDbEntity
  8
cut
100
AcDbCircle
 10
47.80000299999994
 20
2.999999998900037
 30
0.0
 40
3.0
100
AcDbArc
 50
0.0
 51
90.0
1001
ACAD
1000
RTMaterial
1005
0
  0
ARC
  5
56235
330
1F
100
AcDbEntity
  8
cut
100
AcDbCircle
 10
44.22214047199997
 20
8.384999998900056
 30
0.0
 40
3.0
100
AcDbArc
 50
270.0
 51
306.3432125621003
1001
ACAD
1000
RTMaterial
1005
0
  0
LINE
  5
56236
330
1F
100
AcDbEntity
  8
cut
100
AcDbLine
 10
46.00000299999999
 20
-5.968555333599965
 30
0.0
 11
46.6000029999999
 21
-6.000000001099948
 31
0.0
1001
ACAD
1000
RTMaterial
1005
0
  0
LINE
  5
56237
330
1F
100
AcDbEntity
  8
cut
100
AcDbLine
 10
40.80000299999994
 20
-5.385000001099996
 30
0.0
 11
44.22214047199997
 21
-5.385000001099996
 31
0.0
1001
ACAD
1000
RTMaterial
1005
0
  0
LINE
  5
56238
330
1F
100
AcDbEntity
  8
cut
100
AcDbLine
 10
46.6000029999999
 20
-6.000000001099948
 30
0.0
 11
47.80000299999994
 21
-6.000000001099948
 31
0.0
1001
ACAD
1000
RTMaterial
1005
0
  0
LINE
  5
56239
330
1F
100
AcDbEntity
  8
cut
100
AcDbLine
 10
50.80000299999994
 20
-2.500000001099735
 30
0.0
 11
50.80000299999994
 21
-3.000000001099962
 31
0.0
1001
ACAD
1000
RTMaterial
1005
0
  0
LINE
  5
5623A
330
1F
100
AcDbEntity
  8
cut
100
AcDbLine
 10
50.6689835517999
 20
-0.0000000010999628
 30
0.0
 11
50.80000299999994
 21
-2.500000001099962
 31
0.0
1001
ACAD
1000
RTMaterial
1005
0
  0
ARC
  5
5623B
330
1F
100
AcDbEntity
  8
cut
100
AcDbCircle
 10
47.80000299999994
 20
-3.000000001099962
 30
0.0
 40
3.0
100
AcDbArc
 50
270.0
 51
0.0
1001
ACAD
1000
RTMaterial
1005
0
  0
ARC
  5
5623C
330
1F
100
AcDbEntity
  8
cut
100
AcDbCircle
 10
44.22214047199997
 20
-8.385000001099996
 30
0.0
 40
3.0
100
AcDbArc
 50
53.65678743789963
 51
90.0
1001
ACAD
1000
RTMaterial
1005
0
  0
VIEWPORT
  5
6B
102
{ACAD_XDICTIONARY
360
564B1
102
}
330
50
100
AcDbEntity
 67
     1
  8
0
100
AcDbViewport
 10
150.1652135264906
 20
160.4455827878762
 30
0.0
 40
339.1973820494346
 41
282.2272140146125
 68
     1
 69
     1
 12
150.1652135264906
 22
160.4455827878762
 13
0.0
 23
0.0
 14
10.0
 24
10.0
 15
10.0
 25
10.0
 16
0.0
 26
0.0
 36
1.0
 17
0.0
 27
0.0
 37
0.0
 42
50.0
 43
0.0
 44
0.0
 45
282.2272140146125
 50
0.0
 51
0.0
 72
  1000
 90
    32864
  1

281
     0
 71
     1
 74
     0
110
0.0
120
0.0
130
0.0
111
1.0
121
0.0
131
0.0
112
0.0
122
1.0
132
0.0
 79
     0
146
0.0
  0
VIEWPORT
  5
6D
102
{ACAD_XDICTIONARY
360
564B3
102
}
330
50
100
AcDbEntity
 67
     1
  8
0
100
AcDbViewport
 10
133.3499939441681
 20
101.5999939441681
 30
0.0
 40
213.3599903106689
 41
162.5599903106689
 68
     2
 69
     2
 12
210.0
 22
148.5
 13
0.0
 23
0.0
 14
10.0
 24
10.0
 15
10.0
 25
10.0
 16
0.0
 26
0.0
 36
1.0
 17
0.0
 27
0.0
 37
0.0
 42
50.0
 43
0.0
 44
0.0
 45
324.0677920111345
 50
0.0
 51
0.0
 72
   100
 90
    32864
  1

281
     0
 71
     1
 74
     0
110
0.0
120
0.0
130
0.0
111
1.0
121
0.0
131
0.0
112
0.0
122
1.0
132
0.0
 79
     0
146
0.0
  0
ENDSEC
  0
SECTION
  2
OBJECTS
  0
DICTIONARY
  5
C
330
0
100
AcDbDictionary
281
     1
  3
ACAD_COLOR
350
85
  3
ACAD_GROUP
350
D
  3
ACAD_LAYOUT
350
1A
  3
ACAD_MATERIAL
350
84
  3
ACAD_MLINESTYLE
350
17
  3
ACAD_PLOTSETTINGS
350
19
  3
ACAD_PLOTSTYLENAME
350
E
  3
ACAD_TABLESTYLE
350
A1
  3
ACDBHEADERROUNDTRIPXREC
350
564AC
  3
AcDbVariableDictionary
350
5E
  3
ASE_INDEX_DICTIONARY
350
349E9
  3
DWGPROPS
350
564AB
  0
DICTIONARY
  5
E2
330
2
100
AcDbDictionary
280
     1
281
     1
  3
ACAD_LAYERFILTERS
360
55511
  3
ACAD_LAYERSTATES
360
3759A
  3
ACLYDICTIONARY
360
55510
  0
DICTIONARY
  5
31EE
330
1F
100
AcDbDictionary
280
     1
281
     1
  3
ACAD_SORTENTS
360
31EF
  0
DICTIONARY
  5
3BEB2
330
680
100
AcDbDictionary
280
     1
281
     1
  3
ACAD_SORTENTS
360
54D94
  0
DICTIONARY
  5
564B5
330
71
100
AcDbDictionary
280
     1
281
     1
  3
ACAD_XREC_ROUNDTRIP
360
564B6
  0
DICTIONARY
  5
564B7
330
73
100
AcDbDictionary
280
     1
281
     1
  3
ACAD_XREC_ROUNDTRIP
360
564B8
  0
DICTIONARY
  5
561C4
330
561C3
100
AcDbDictionary
280
     1
281
     1
  3
ACAD_DIMASSOC
360
561C5
  0
DICTIONARY
  5
561C9
330
561C8
100
AcDbDictionary
280
     1
281
     1
  3
ACAD_DIMASSOC
360
561CA
  0
DICTIONARY
  5
5622C
330
5622B
100
AcDbDictionary
280
     1
281
     1
  3
ACAD_DIMASSOC
360
5622D
  0
DICTIONARY
  5
564B1
330
6B
100
AcDbDictionary
280
     1
281
     1
  3
ACAD_XREC_ROUNDTRIP
360
564B2
  0
DICTIONARY
  5
564B3
330
6D
100
AcDbDictionary
280
     1
281
     1
  3
ACAD_XREC_ROUNDTRIP
360
564B4
  0
DICTIONARY
  5
85
102
{ACAD_REACTORS
330
C
102
}
330
C
100
AcDbDictionary
281
     1
  0
DICTIONARY
  5
D
102
{ACAD_REACTORS
330
C
102
}
330
C
100
AcDbDictionary
281
     1
  0
DICTIONARY
  5
1A
102
{ACAD_REACTORS
330
C
102
}
330
C
100
AcDbDictionary
281
     1
  3
\M+1838C\M+18343\M+18341\M+18345\M+183671
350
51
  3
\M+1838C\M+18343\M+18341\M+18345\M+183672
350
56
  3
Model
350
22
  0
DICTIONARY
  5
84
102
{ACAD_REACTORS
330
C
102
}
330
C
100
AcDbDictionary
281
     1
  0
DICTIONARY
  5
17
102
{ACAD_REACTORS
330
C
102
}
330
C
100
AcDbDictionary
281
     1
  3
Standard
350
18
  0
DICTIONARY
  5
19
102
{ACAD_REACTORS
330
C
102
}
330
C
100
AcDbDictionary
281
     1
  0
ACDBDICTIONARYWDFLT
  5
E
102
{ACAD_REACTORS
330
C
102
}
330
C
100
AcDbDictionary
281
     1
  3
Normal
350
F
100
AcDbDictionaryWithDefault
340
F
  0
DICTIONARY
  5
A1
102
{ACAD_REACTORS
330
C
102
}
330
C
100
AcDbDictionary
281
     1
  3
Standard
350
A2
  0
DICTIONARY
  5
564AC
102
{ACAD_REACTORS
330
C
102
}
330
C
100
AcDbDictionary
281
     1
  0
DICTIONARY
  5
5E
102
{ACAD_REACTORS
330
C
102
}
330
C
100
AcDbDictionary
281
     1
  3
CTABLESTYLE
350
B8
  3
DIMASSOC
350
5F
  3
HIDETEXT
350
63
  3
PROJECTNAME
350
31CE
  0
DICTIONARY
  5
349E9
102
{ACAD_REACTORS
330
C
102
}
330
C
100
AcDbDictionary
281
     1
  3
ASEBlockHierarchyIndexRecord
350
349EA
1001
DCO15
1040
1842496176.844
  0
XRECORD
  5
564AB
102
{ACAD_REACTORS
330
C
102
}
330
C
100
AcDbXrecord
280
     1
  1
DWGPROPS COOKIE
  2

  3

  4

  6

  7

  8

  9

300
=
301
=
302
=
303
=
304
=
305
=
306
=
307
=
308
=
309
=
 40
2.758968726851851
 41
2455489.391063368
 42
2458573.032453704
  1

 90
        0
  0
DICTIONARY
  5
55511
102
{ACAD_REACTORS
330
E2
102
}
330
E2
100
AcDbDictionary
281
     1
  0
DICTIONARY
  5
3759A
102
{ACAD_REACTORS
330
E2
102
}
330
E2
100
AcDbDictionary
281
     1
  0
DICTIONARY
  5
55510
102
{ACAD_REACTORS
330
E2
102
}
330
E2
100
AcDbDictionary
281
     1
1001
ACAD
1000
<All
  0
SORTENTSTABLE
  5
31EF
102
{ACAD_REACTORS
330
31EE
102
}
330
31EE
100
AcDbSortentsTable
330
1F
331
68C
  5
3C6B0
331
53AD9
  5
53ADC
  0
SORTENTSTABLE
  5
54D94
102
{ACAD_REACTORS
330
3BEB2
102
}
330
3BEB2
100
AcDbSortentsTable
330
680
  0
XRECORD
  5
564B6
102
{ACAD_REACTORS
330
564B5
102
}
330
564B5
100
AcDbXrecord
280
     1
102
SHADEPLOT
 70
     0
  0
XRECORD
  5
564B8
102
{ACAD_REACTORS
330
564B7
102
}
330
564B7
100
AcDbXrecord
280
     1
102
SHADEPLOT
 70
     0
  0
DIMASSOC
  5
561C5
102
{ACAD_REACTORS
330
561C4
102
}
330
561C4
100
AcDbDimAssoc
330
561C3
 90
        3
 70
     0
 71
     0
  1
AcDbOsnapPointRef
 72
    13
331
561B3
 73
     2
 91
        0
 40
0.0
 10
0.0
 20
0.0
 30
2.000000000000000E+50
 75
     0
  1
AcDbOsnapPointRef
 72
     1
331
561B3
 73
     2
 91
        0
 40
1.0
 10
0.0
 20
0.0
 30
2.000000000000000E+50
 75
     0
  0
DIMASSOC
  5
561CA
102
{ACAD_REACTORS
330
561C9
102
}
330
561C9
100
AcDbDimAssoc
330
561C8
 90
        3
 70
     0
 71
     0
  1
AcDbOsnapPointRef
 72
    13
331
561BC
 73
     2
 91
        0
 40
0.0
 10
0.0
 20
0.0
 30
2.000000000000000E+50
 75
     0
  1
AcDbOsnapPointRef
 72
    13
331
561BF
 73
     2
 91
        0
 40
0.0
 10
0.0
 20
0.0
 30
2.000000000000000E+50
 75
     0
  0
DIMASSOC
  5
5622D
102
{ACAD_REACTORS
330
5622C
102
}
330
5622C
100
AcDbDimAssoc
330
5622B
 90
        2
 70
     0
 71
     0
  1
AcDbOsnapPointRef
 72
     3
331
56211
 73
     2
 91
        0
 40
0.0
 10
0.0
 20
0.0
 30
0.0
 75
     0
  0
XRECORD
  5
564B2
102
{ACAD_REACTORS
330
564B1
102
}
330
564B1
100
AcDbXrecord
280
     1
102
SHADEPLOT
 70
     0
  0
XRECORD
  5
564B4
102
{ACAD_REACTORS
330
564B3
102
}
330
564B3
100
AcDbXrecord
280
     1
102
SHADEPLOT
 70
     0
  0
LAYOUT
  5
51
102
{ACAD_XDICTIONARY
360
B2
102
}
102
{ACAD_REACTORS
330
1A
102
}
330
1A
100
AcDbPlotSettings
  1

  2
none_device
  4
Letter_(8.50_x_11.00_Inches)
  6

 40
6.349999904632567
 41
6.349999904632567
 42
6.350006103515625
 43
6.350006103515625
 44
215.8999938964844
 45
279.3999938964844
 46
0.0
 47
0.0
 48
0.0
 49
0.0
140
0.0
141
0.0
142
1.0
143
1.0
 70
   688
 72
     1
 73
     1
 74
     5
  7

 75
    16
147
1.0
148
0.0
149
0.0
100
AcDbLayout
  1
\M+1838C\M+18343\M+18341\M+18345\M+183671
 70
     1
 71
     1
 10
-6.350006103515625
 20
-6.349999904632567
 11
273.0499877929688
 21
209.5499939918518
 12
0.0
 22
0.0
 32
0.0
 14
26.66999878883364
 24
20.31999878883365
 34
0.0
 15
240.0299890995025
 25
182.8799890995025
 35
0.0
146
0.0
 13
0.0
 23
0.0
 33
0.0
 16
1.0
 26
0.0
 36
0.0
 17
0.0
 27
1.0
 37
0.0
 76
     0
330
50
331
6B
  0
LAYOUT
  5
56
102
{ACAD_XDICTIONARY
360
B5
102
}
102
{ACAD_REACTORS
330
1A
102
}
330
1A
100
AcDbPlotSettings
  1

  2
none_device
  4
Letter_(8.50_x_11.00_Inches)
  6

 40
6.349999904632567
 41
6.349999904632567
 42
6.350006103515625
 43
6.350006103515625
 44
215.8999938964844
 45
279.3999938964844
 46
0.0
 47
0.0
 48
0.0
 49
0.0
140
0.0
141
0.0
142
1.0
143
1.0
 70
   688
 72
     1
 73
     1
 74
     5
  7

 75
    16
147
1.0
148
0.0
149
0.0
100
AcDbLayout
  1
\M+1838C\M+18343\M+18341\M+18345\M+183672
 70
     1
 71
     2
 10
-6.350006103515625
 20
-6.349999904632567
 11
273.0499877929688
 21
209.5499939918518
 12
0.0
 22
0.0
 32
0.0
 14
26.66999878883363
 24
20.31999878883363
 34
0.0
 15
240.0299890995026
 25
182.8799890995025
 35
0.0
146
0.0
 13
0.0
 23
0.0
 33
0.0
 16
1.0
 26
0.0
 36
0.0
 17
0.0
 27
1.0
 37
0.0
 76
     0
330
55
331
71
  0
LAYOUT
  5
22
102
{ACAD_XDICTIONARY
360
564AD
102
}
102
{ACAD_REACTORS
330
1A
102
}
330
1A
100
AcDbPlotSettings
  1

  2
none_device
  4
ANSI_A_(8.50_x_11.00_Inches)
  6

 40
6.349999904632567
 41
19.04999923706055
 42
6.350006103515625
 43
19.04998779296875
 44
215.8999938964844
 45
279.3999938964844
 46
0.0
 47
0.0
 48
0.0
 49
0.0
140
0.0
141
0.0
142
1.0
143
78.436453180766
 70
 11952
 72
     0
 73
     1
 74
     0
  7

 75
     0
147
0.0127491741332998
148
0.0
149
0.0
100
AcDbLayout
  1
Model
 70
     1
 71
     0
 10
0.0
 20
0.0
 11
12.0
 21
9.0
 12
0.0
 22
0.0
 32
0.0
 14
0.0
 24
0.0
 34
0.0
 15
0.0
 25
0.0
 35
0.0
146
0.0
 13
0.0
 23
0.0
 33
0.0
 16
1.0
 26
0.0
 36
0.0
 17
0.0
 27
1.0
 37
0.0
 76
     0
330
1F
  0
MLINESTYLE
  5
18
102
{ACAD_REACTORS
330
17
102
}
330
17
100
AcDbMlineStyle
  2
STANDARD
 70
     0
  3

 62
   256
 51
90.0
 52
90.0
 71
     2
 49
0.5
 62
   256
  6
BYLAYER
 49
-0.5
 62
   256
  6
BYLAYER
  0
ACDBPLACEHOLDER
  5
F
102
{ACAD_REACTORS
330
E
102
}
330
E
  0
TABLESTYLE
  5
A2
102
{ACAD_REACTORS
330
A1
102
}
330
A1
100
AcDbTableStyle
  3
Standard
 70
     0
 71
     0
 40
1.5
 41
1.5
280
     0
281
     0
  7
Standard
140
4.5
170
     2
 62
     0
 63
     7
283
     0
274
    -2
284
     1
 64
     0
275
    -2
285
     1
 65
     0
276
    -2
286
     1
 66
     0
277
    -2
287
     1
 67
     0
278
    -2
288
     1
 68
     0
279
    -2
289
     1
 69
     0
  7
Standard
140
6.0
170
     5
 62
     0
 63
     7
283
     0
274
    -2
284
     1
 64
     0
275
    -2
285
     1
 65
     0
276
    -2
286
     1
 66
     0
277
    -2
287
     1
 67
     0
278
    -2
288
     1
 68
     0
279
    -2
289
     1
 69
     0
  7
Standard
140
4.5
170
     5
 62
     0
 63
     7
283
     0
274
    -2
284
     1
 64
     0
275
    -2
285
     1
 65
     0
276
    -2
286
     1
 66
     0
277
    -2
287
     1
 67
     0
278
    -2
288
     1
 68
     0
279
    -2
289
     1
 69
     0
  0
DICTIONARYVAR
  5
B8
102
{ACAD_REACTORS
330
5E
102
}
330
5E
100
DictionaryVariables
280
     0
  1
STANDARD
  0
DICTIONARYVAR
  5
5F
102
{ACAD_REACTORS
330
5E
102
}
330
5E
100
DictionaryVariables
280
     0
  1
2
  0
DICTIONARYVAR
  5
63
102
{ACAD_REACTORS
330
5E
102
}
330
5E
100
DictionaryVariables
280
     0
  1
1
  0
DICTIONARYVAR
  5
31CE
102
{ACAD_REACTORS
330
5E
102
}
330
5E
100
DictionaryVariables
280
     0
  1

  0
XRECORD
  5
349EA
102
{ACAD_REACTORS
330
349E9
102
}
330
349E9
100
AcDbXrecord
280
     1
330
68C
330
0
330
0
330
0
330
0
330
0
330
0
330
0
330
0
330
0
330
0
330
0
330
0
330
0
330
0
330
0
330
0
330
0
330
0
330
0
330
0
330
0
330
0
330
0
330
0
330
0
330
0
330
0
330
0
330
0
330
0
330
0
330
0
330
0
330
0
330
0
330
0
330
0
330
0
330
0
330
0
330
0
330
0
330
0
330
0
330
0
330
0
330
0
330
0
330
0
330
0
330
0
330
0
330
0
330
0
330
0
330
0
330
0
330
0
330
0
330
0
330
0
330
0
330
0
330
0
330
0
330
0
330
0
330
0
330
0
330
0
330
0
330
0
330
0
330
0
330
0
330
0
330
0
330
0
330
0
330
0
330
0
330
0
330
0
330
0
330
0
330
0
330
0
330
0
330
0
330
0
330
0
330
0
330
0
330
0
330
0
330
0
330
0
330
0
330
0
330
0
330
0
330
0
330
0
330
0
330
0
330
0
330
0
330
0
330
0
  0
DICTIONARY
  5
B2
330
51
100
AcDbDictionary
280
     1
281
     1
  3
ACAD_XREC_ROUNDTRIP
360
564AF
  3
ADSK_XREC_LAYOUTTHUMBNAIL
360
B3
  0
DICTIONARY
  5
B5
330
56
100
AcDbDictionary
280
     1
281
     1
  3
ACAD_XREC_ROUNDTRIP
360
564B0
  3
ADSK_XREC_LAYOUTTHUMBNAIL
360
B6
  0
DICTIONARY
  5
564AD
330
22
100
AcDbDictionary
280
     1
281
     1
  3
ACAD_XREC_ROUNDTRIP
360
564AE
  0
XRECORD
  5
564AF
102
{ACAD_REACTORS
330
B2
102
}
330
B2
100
AcDbXrecord
280
     1
102
SHADEPLOT
 70
     0
102
SHADEPLOTRESLEVEL
 70
     2
102
SHADEPLOTCUSTOMDPI
 70
   300
  0
XRECORD
  5
B3
102
{ACAD_REACTORS
330
B2
102
}
330
B2
100
AcDbXrecord
280
     1
310
28000000B40000008B0000000100080000000000BC61000000000000000000000001000000000000FFFFFF0000000000FFFFFF000000000000000000000000000000000000000000000000000000000000000000330000006600000099000000CC000000FF00000000330000333300006633000099330000CC330000FF3300
310
0000660000336600006666000099660000CC660000FF66000000990000339900006699000099990000CC990000FF99000000CC000033CC000066CC000099CC0000CCCC0000FFCC000000FF000033FF000066FF000099FF0000CCFF0000FFFF000000003300330033006600330099003300CC003300FF003300003333003333
310
33006633330099333300CC333300FF33330000663300336633006666330099663300CC663300FF66330000993300339933006699330099993300CC993300FF99330000CC330033CC330066CC330099CC3300CCCC3300FFCC330000FF330033FF330066FF330099FF3300CCFF3300FFFF330000006600330066006600660099
310
006600CC006600FF00660000336600333366006633660099336600CC336600FF33660000666600336666006666660099666600CC666600FF66660000996600339966006699660099996600CC996600FF99660000CC660033CC660066CC660099CC6600CCCC6600FFCC660000FF660033FF660066FF660099FF6600CCFF6600
310
FFFF660000009900330099006600990099009900CC009900FF00990000339900333399006633990099339900CC339900FF33990000669900336699006666990099669900CC669900FF66990000999900339999006699990099999900CC999900FF99990000CC990033CC990066CC990099CC9900CCCC9900FFCC990000FF99
310
0033FF990066FF990099FF9900CCFF9900FFFF99000000CC003300CC006600CC009900CC00CC00CC00FF00CC000033CC003333CC006633CC009933CC00CC33CC00FF33CC000066CC003366CC006666CC009966CC00CC66CC00FF66CC000099CC003399CC006699CC009999CC00CC99CC00FF99CC0000CCCC0033CCCC0066CC
310
CC0099CCCC00CCCCCC00FFCCCC0000FFCC0033FFCC0066FFCC0099FFCC00CCFFCC00FFFFCC000000FF003300FF006600FF009900FF00CC00FF00FF00FF000033FF003333FF006633FF009933FF00CC33FF00FF33FF000066FF003366FF006666FF009966FF00CC66FF00FF66FF000099FF003399FF006699FF009999FF00CC
310
99FF00FF99FF0000CCFF0033CCFF0066CCFF0099CCFF00CCCCFF00FFCCFF0000FFFF0033FFFF0066FFFF0099FFFF00CCFFFF00FFFFFF00000000000D0D0D001A1A1A00282828003535350043434300505050005D5D5D006B6B6B00787878008686860093939300A1A1A100AEAEAE00BBBBBB00C9C9C900D6D6D600E4E4E400
310
F1F1F100FFFFFF0000000000000000000000000000000000000000000000000000000000000000000000000000000000E2E2E2E2E2E2E2E2E2E2E2E2E2E2E2E2E2E2E2E2E2E2E2E2E2E2E2E2E2E2E2E2E2E2E2E2E2E2E2E2E2E2E2E2E2E2E2E2E2E2E2E2E2E2E2E2E2E2E2E2E2E2E2E2E2E2E2E2E2E2E2E2E2E2E2E2E2E2E2
310
E2E2E2E2E2E2E2E2E2E2E2E2E2E2E2E2E2E2E2E2E2E2E2E2E2E2E2E2E2E2E2E2E2E2E2E2E2E2E2E2E2E2E2E2E2E2E2E2E2E2E2E2E2E2E2E2E2E2E2E2E2E2E2E2E2E2E2E2E2E2E2E2E2E2E2E2E2E2E2E2E2E2E2E2E2E2E2E2E2E2E2E2E2E2E2E2E2E2E2E2E2E2F5F5F5F5F5F5F5F5F5F5F5F5F5F5F5F5F5F5F5F5F5F5F5F5F5
310
F5F5F5F5F5F5F5F5F5F5F5F5F5F5F5F5F5F5F5F5F5F5F5F5F5F5F5F5F5F5F5F5F5F5F5F5F5F5F5F5F5F5F5F5F5F5F5F5F5F5F5F5F5F5F5F5F5F5F5F5F5F5F5F5F5F5F5F5F5F5F5F5F5F5F5F5F5F5F5F5F5F5F5F5F5F5F5F5F5F5F5F5F5F5F5F5F5F5F5F5F5F5F5F5F5F5F5F5F5F5F5F5F5F5F5F5F5F5F5F5F5F5F5F5F5F5F5
310
F5F5F5F5F5F5F5F5F5F5F5F5F5F5F5F5F5F5F5F5F5F5F5F5F5F5E2E2F5F5F5F5F5F5F5F5F5F5F5F5F5F5F5F5F5F5F5F5F5F5F5F5F5F5F5F5F5F5F5F5F5F5F5F5F5F5F5F5F5F5F5F5F5F5F5F5F5F5F5F5F5F5F5F5F5F5F5F5F5F5F5F5F5F5F5F5F5F5F5F5F5F5F5F5F5F5F5F5F5F5F5F5F5F5F5F5F5F5F5F5F5F5F5F5F5F5F5
310
F5F5F5F5F5F5F5F5F5F5F5F5F5F5F5F5F5F5F5F5F5F5F5F5F5F5F5F5F5F5F5F5F5F5F5F5F5F5F5F5F5F5F5F5F5F5F5F5F5F5F5F5F5F5F5F5F5F5F5F5F5F5F5F5F5F5F5F5F5F5F5F5F5F5F5F5F5F5F5E2E2F5F5F5F5F5F5F5F5F5F5F5F5F5F5F5F5F5F5F5F5F5F5F5F5F5F5F5F5F5F5F5F5F5F5F5F5F5F5F5F5F5F5F5F5F5F5
310
F5F5F5F5F5F5F5F5F5F5F5F5F5F5F5F5F5F5F5F5F5F5F5F5F5F5F5F5F5F5F5F5F5F5F5F5F5F5F5F5F5F5F5F5F5F5F5F5F5F5F5F5F5F5F5F5F5F5F5F5F5F5F5F5F5F5F5F5F5F5F5F5F5F5F5F5F5F5F5F5F5F5F5F5F5F5F5F5F5F5F5F5F5F5F5F5F5F5F5F5F5F5F5F5F5F5F5F5F5F5F5F5F5F5F5F5F5F5F5F5F5F5F5F5F5F5F5
310
F5F5F5F5F5E2E2F5F5F5F5E2E2E2E2E2E2E2E2F5F5F5F5F5F5F5F5F5E2E2E2E2E2E2E2E2E2E2E2E2E2E2E2F5F5F5F5F5F5F5F5F5E2E2E2E2E2E2E2E2E2E2E2E2E2E2E2E2F5F5F5F5F5F5F5F5E2E2E2E2E2E2E2E2E2E2E2E2E2E2E2E2F5F5F5F5F5F5F5F5E2E2E2E2E2E2E2E2E2E2E2E2E2E2E2E2F5F5F5F5F5F5F5F5E2E2E2
310
E2E2E2E2E2E2E2E2E2E2E2E2E2F5F5F5F5F5F5F5F5F5E2E2E2E2E2E2E2E2E2E2E2E2E2E2E2F5F5F5F5F5F5F5F5F5E2E2E2E2E2E2E2E2F5F5F5F5E2E2F5F5F5F5E2F5F5F5F5F5F5F5F5F5F5F5F5F5F5F5F5F5F5F5F5F5F5F5F5F5F5F5F5F5F5F5F5F5F5F5F5F5F5F5F5F5F5F5F5F5F5F5F5F5F5F5F5F5F5F5F5F5F5F5F5F5F5
310
F5F5F5F5F5F5F5F5F5F5F5F5F5F5F5F5F5F5F5F5F5F5F5F5F5F5F5F5F5F5F5F5F5F5F5F5F5F5F5F5F5F5F5F5F5F5F5F5F5F5F5F5F5F5F5F5F5F5F5F5F5F5F5F5F5F5F5F5F5F5F5F5F5F5F5F5F5F5F5F5F5F5F5F5F5F5F5F5F5F5F5F5F5F5F5F5F5F5F5F5F5F5F5F5F5F5E2F5F5F5F5E2E2F5F5F5F5E2F5F5F5F5F5F5F5F5F5
310
F5F5F5F5F5F5F5F5F5F5F5F5F5F5F5F5F5F5F5F5F5F5F5F5F5F5F5F5F5F5F5F5F5F5F5F5F5F5F5F5F5F5F5F5F5F5F5F5F5F5F5F5F5F5F5F5F5F5F5F5F5F5F5F5F5F5F5F5F5F5F5F5F5F5F5F5F5F5F5F5F5F5F5F5F5F5F5F5F5F5F5F5F5F5F5F5F5F5F5F5F5F5F5F5F5F5F5F5F5F5F5F5F5F5F5F5F5F5F5F5F5F5F5F5F5F5F5
310
F5F5F5F5F5F5F5F5F5F5F5F5F5F5F5F5F5F5F5F5F5F5F5F5F5F5F5F5F5F5F5F5E2F5F5F5F5E2E2F5F5F5F5E2F5F5F5F5F5F5F5F5F5F5F5F5F5F5F5F5F5F5F5F5F5F5F5F5F5F5F5F5F5F5F5F5F5F5F5F5F5F5F5F5F5F5F5F5F5F5F5F5F5F5F5F5F5F5F5F5F5F5F5F5F5F5F5F5F5F5F5F5F5F5F5F5F5F5F5F5F5F5F5F5F5F5F5
310
F5F5F5F5F5F5F5F5F5F5F5F5F5F5F5F5F5F5F5F5F5F5F5F5F5F5F5F5F5F5F5F5F5F5F5F5F5F5F5F5F5F5F5F5F5F5F5F5F5F5F5F5F5F5F5F5F5F5F5F5F5F5F5F5F5F5F5F5F5F5F5F5F5F5F5F5F5F5F5F5F5F5F5F5F5E2F5F5F5F5E2E2F5F5F5F5E2F5F5F5F5F5F5F5F5F5F5F5F5F5F5F5F5F5F5F5F5F5F5F5F5F5F5F5F5F5F5
310
F5F5F5F5F5F5F5F5F5F5F5F5F5F5F5F5F5F5F5F5F5F5F5F5F5F5F5F5F5F5F5F5F5F5F5F5F5F5F5F5F5F5F5F5F5F5F5F5F5F5F5F5F5F5F5F5F5F5F5F5F5F5F5F5F5F5F5F5F5F5F5F5F5F5F5F5F5F5F5F5F5F5F5F5F5F5F5F5F5F5F5F5F5F5F5F5F5F5F5F5F5F5F5F5F5F5F5F5F5F5F5F5F5F5F5F5F5F5F5F5F5F5F5F5F5F5F5
310
F5F5F5F5F5F5F5F5F5F5F5E2F5F5F5F5E2E2F5F5F5F5E2F5F5F5F5F5F5F5F5F5F5F5F5F5F5F5F5F5F5F5F5F5F5F5F5F5F5F5F5F5F5F5F5F5F5F5F5F5F5F5F5F5F5F5F5F5F5F5F5F5F5F5F5F5F5F5F5F5F5F5F5F5F5F5F5F5F5F5F5F5F5F5F5F5F5F5F5F5F5F5F5F5F5F5F5F5F5F5F5F5F5F5F5F5F5F5F5F5F5F5F5F5F5F5F5
310
F5F5F5F5F5F5F5F5F5F5F5F5F5F5F5F5F5F5F5F5F5F5F5F5F5F5F5F5F5F5F5F5F5F5F5F5F5F5F5F5F5F5F5F5F5F5F5F5F5F5F5F5F5F5F5F5F5F5F5F5F5F5F5F5E2F5F5F5F5E2E2F5F5F5F5E2F5F5F5F5F5F5F5F5F5F5F5F5F5F5F5F5F5F5F5F5F5F5F5F5F5F5F5F5F5F5F5F5F5F5F5F5F5F5F5F5F5F5F5F5F5F5F5F5F5F5F5
310
F5F5F5F5F5F5F5F5F5F5F5F5F5F5F5F5F5F5F5F5F5F5F5F5F5F5F5F5F5F5F5F5F5F5F5F5F5F5F5F5F5F5F5F5F5F5F5F5F5F5F5F5F5F5F5F5F5F5F5F5F5F5F5F5F5F5F5F5F5F5F5F5F5F5F5F5F5F5F5F5F5F5F5F5F5F5F5F5F5F5F5F5F5F5F5F5F5F5F5F5F5F5F5F5F5F5F5F5F5F5F5F5F5F5F5F5F5E2F5F5F5F5E2E2F5F5F5
310
F5E2F5F5F5F5F5F5F5F5F5F5F5F5F5F5F5F5F5F5F5F5F5F5F5F5F5F5F5F5F5F5F5F5F5F5F5F5F5F5F5F5F5F5F5F5F5F5F5F5F5F5F5F5F5F5F5F5F5F5F5F5F5F5F5F5F5F5F5F5F5F5F5F5F5F5F5F5F5F5F5F5F5F5F5F5F5F5F5F5F5F5F5F5F5F5F5F5F5F5F5F5F5F5F5F5F5F5F5F5F5F5F5F5F5F5F5F5F5F5F5F5F5F5F5F5F5
310
F5F5F5F5F5F5F5F5F5F5F5F5F5F5F5F5F5F5F5F5F5F5F5F5F5F5F5F5F5F5F5F5F5F5F5F5F5F5F5F5F5F5F5E2F5F5F5F5E2E2F5F5F5F5E2F5F5F5F5F5F5F5F5F5F5F5F5F5F5F5F5F5F5F5F5F5F5F5F5F5F5F5F5F5F5F5F5F5F5F5F5F5F5F5F5F5F5F5F5F5F5F5F5F5F5F5F5F5F5F5F5F5F5F5F5F5F5F5F5F5F5F5F5F5F5F5F5
310
F5F5F5F5F5F5F5F5F5F5F5F5F5F5F5F5F5F5F5F5F5F5F5F5F5F5F5F5F5F5F5F5F5F5F5F5F5F5F5F5F5F5F5F5F5F5F5F5F5F5F5F5F5F5F5F5F5F5F5F5F5F5F5F5F5F5F5F5F5F5F5F5F5F5F5F5F5F5F5F5F5F5F5F5F5F5F5F5F5F5F5F5F5F5F5F5E2F5F5F5F5E2E2F5F5F5F5F5F5F5F5F5F5F5F5F5F5F5F5F5F5F5F5F5F5F5F5
310
F5F5F5F5F5F5F5F5F5F5F5F5F5F5F5F5F5F5F5F5F5F5F5F5F5F5F5F5F5F5F5F5F5F5F5F5F5F5F5F5F5F5F5F5F5F5F5F5F5F5F5F5F5F5F5F5F5F5F5F5F5F5F5F5F5F5F5F5F5F5F5F5F5F5F5F5F5F5F5F5F5F5F5F5F5F5F5F5F5F5F5F5F5F5F5F5F5F5F5F5F5F5F5F5F5F5F5F5F5F5F5F5F5F5F5F5F5F5F5F5F5F5F5F5F5F5F5
310
F5F5F5F5F5F5F5F5F5F5F5F5F5F5F5F5F5F5F5F5F5F5F5F5F5F5F5E2E2F5F5F5F5F5F5F5F5F5F5F5F5F5F5F5F5F5F5F5F5F5F5F5F5F5F5F5F5F5F5F5F5F5F5F5F5F5F5F5F5F5F5F5F5F5F5F5F5F5F5F5F5F5F5F5F5F5F5F5F5F5F5F5F5F5F5F5F5F5F5F5F5F5F5F5F5F5F5F5F5F5F5F5F5F5F5F5F5F5F5F5F5F5F5F5F5F5F5
310
F5F5F5F5F5F5F5F5F5F5F5F5F5F5F5F5F5F5F5F5F5F5F5F5F5F5F5F5F5F5F5F5F5F5F5F5F5F5F5F5F5F5F5F5F5F5F5F5F5F5F5F5F5F5F5F5F5F5F5F5F5F5F5F5F5F5F5F5F5F5F5F5F5F5F5F5F5F5F5F5E2E2F5F5F5F5F5F5F5F5F5F5F5F5F5F5F5F5F5F5F5F5F5F5F5F5F5F5F5F5F5F5F5F5F5F5F5F5F5F5F5F5F5F5F5F5F5
310
F5F5F5F5F5F5F5F5F5F5F5F5F5F5F5F5F5F5F5F5F5F5F5F5F5F5F5F5F5F5F5F5F5F5F5F5F5F5F5F5F5F5F5F5F5F5F5F5F5F5F5F5F5F5F5F5F5F5F5F5F5F5F5F5F5F5F5F5F5F5F5F5F5F5F5F5F5F5F5F5F5F5F5F5F5F5F5F5F5F5F5F5F5F5F5F5F5F5F5F5F5F5F5F5F5F5F5F5F5F5F5F5F5F5F5F5F5F5F5F5F5F5F5F5F5F5F5
310
F5F5F5F5F5F5E2E2F5F5F5F5F5F5F5F5F5F5F5F5F5F5F5F5F5F5F5F5F5F5F5F5F5F5F5F5F5F5F5F5F5F5F5F5F5F5F5F5F5F5F5F5F5F5F5F5F5F5F5F5F5F5F5F5F5F5F5F5F5F5F5F5F5F5F5F5F5F5F5F5F5F5F5F5F5F5F5F5F5F5F5F5F5F5F5F5F5F5F5F5F5F5F5F5F5F5F5F5F5F5F5F5F5F5F5F5F5F5F5F5F5F5F5F5F5F5F5
310
F5F5F5F5F5F5F5F5F5F5F5F5F5F5F5F5F5F5F5F5F5F5F5F5F5F5F5F5F5F5F5F5F5F5F5F5F5F5F5F5F5F5F5F5F5F5F5F5F5F5F5F5F5F5F5F5F5F5F5E2E2F5F5F5F5F5F5F5F5F5F5F5F5F5F5F5F5F5F5F5F5F5E2E2E2E2E2E2E2E2E2E2E2E2E2E2E2E2E2E2E2E2E2E2E2E2E2E2E2E2E2E2E2E2E2E2E2E2E2E2E2E2E2E2E2E2E2
310
E2E2E2E2E2E2E2E2E2E2E2E2E2E2E2E2E2E2E2E2E2E2E2E2E2E2E2E2E2E2E2E2E2E2E2E2E2E2E2E2E2E2E2E2E2E2E2E2E2E2E2E2E2E2E2E2E2E2E2E2E2E2E2E2E2E2E2E2E2E2E2E2E2E2E2E2E2E2E2E2E2E2E2E2E2E2E2E2E2E2E2F5F5F5F5F5F5F5F5F5F5F5F5F5F5F5F5F5F5F5F5F5E2E2F5F5F5F5F5F5F5F5F5F5F5F5F5
310
F5F5F5F5F5F5F5F5E22D2D2D2D2D2D2D2D2D2D2D2DF5F5F5F5F5F5F5F5F5F5F5F5F5F5F5E2F5F5F5F5F5F5F5F5F5F5F5F5F5F5F5F5F5F5F5F5F5F5F5F5F5F5F5F5F5F5F5F5F5F5F5F5F5F5F5F5F5F5F5F5F5F5F5F5F5F5F5F5F5F5F5F5F5F5F5F5F5F5F5F5F5F5F5F5F5F5F5F5F5F5F5F5F5F5F5F5F5F5F5F5F5F5F5F5F5F5
310
F5F5F5F5F5F5F5F5F5F5F5F5F5F5F5F5E2F5F5F5F5F5F5F5F5F5F5F5F5F5F5F5F5F5F5F5F5F5E2E2F5F5F5F5F5F5F5F5F5F5F5F5F5F5F5F5F5F5F5F5F5E22D2D2DF5F5E2F5F5F5F5F52DF5F5F5F5F5F5F5F5F5F5F5F5F5F5F5E2F5F5F5F5F5F5F5F5F5F5F5F5F5F5F5F5F5F5F5F5F5F5F5F5F5F5F5F5F5F5F5F5F5F5F5F5F5
310
F5F5F5F5F5F5F5F5F5F5F5F5F5F5F5F5F5F5F5F5F5F5F5F5F5F5F5F5F5F5F5F5F5F5F5F5F5F5F5F5F5F5F5F5F5F5F5F5F5F5F5F5F5F5F5F5F5F5F5F5F5F5F5F5F5F5F5F5F5E2F5F5F5F5F5F5F5F5F5F5F5F5F5F5F5F5F5F5F5F5F5E2E2F5F5F5F5F5F5F5F5F5F5F5F5F5F5F5F5F5F5F5F5F5E2DCF52DF5F5E2F5F5F5F5F52D
310
F5F5F5F5F5F5F5F5F5F5F5F5F5F5F5E2F5F5F5F5F5F5F5F5F5F5F5F5F5F5F5F5F5F5F5F5F5F5F5F5F5F5F5F5F5F5F5F5F5F5F5F5F5F5F5F5F5F5F5F5F5F5F5F5F5F5F5F5F5F5F5F5F5F5F5F5F5F5F5F5F5F5F5F5F5F5F5F5F5F5F5F5F5F5F5F5F5F5F5F5F5F5F5F5F5F5F5F5F5F5F5F5F5F5F5F5F5F5F5F5F5F5E2F5F5F5F5
310
F5F5F5F5F5F5F5F5F5F5F5F5F5F5F5F5F5E2E2F5F5F5F5F5F5F5F5F5F5F5F5F5F5F5F5F5F5F5F5F5E2BEF52D2D2D2D2D2D2D2DE2E2E2E2E2E2E2E2E2E2E2E2E2E2E2E2E2E2F5F5F5F5F5F5F5F5F5F5F5F5F5F5F5F5F5F5F5F5F5F5F5F5F5F5F5F5F5F5F5F5F5F5F5F5F5F5F5F5F5F5F5F5F5F5F5F5F5F5F5F5F5F5F5F5F5F5
310
F5F5F5F5F5F5F5F5F5F5F5F5F5F5F5F5F5F5F5F5F5F5F5F5F5F5F5F5F5F5F5F5F5F5F5F5F5F5F5F5F5F5F5F5F5F5F5F5E2F5F5F5F5F5F5F5F5F5F5F5F5F5F5F5F5F5F5F5F5F5E2E2F5F5F5F5E2F5F5F5F5F5F5F5F5F5F5F5F5F5F5F5F5E2DCF5F5F5F5E2F5F5F5F5F5E2F5F5F5F5F5F5F5F5F5F5F5F5F5F5F5F5F5F5F5F5F5
310
F5F5F5F5F5F5F5F5F5F5F5F5F5F5F5F5F5F5F5F5F5F5F5F5F5F5F5F5F5F5F5F5F5F5F5F5F5F5F5F5F5F5F5F5F5F5F5F5F5F5F5F5F5F5F5F5F5F5F5F5F5F5F5F5F5F5F5F5F5F5F5F5F5F5F5F5F5F5F5F5F5F5F5F5F5F5F5F5F5F5F5F5F5F5F5F5F5F5F5F5F5E2F5F5F5F5F5F5F5F5F5F5F5F5F5F5F5F5E2F5F5F5F5E2E2F5F5
310
F5F5E2F5F5F5F5F5F5F5F5F5F5F5F5F5F5F5F5E2F5F5F5F5F5E2F5F5F5F5F5E2F5F5F5F5F5F5F5F5F5F5F5F5F5F5F5F5F5F5F5F5F5F5F5F5F5F5F5F5F5F5F5F5F5F5F5F5F5F5F5F5F5F5F5F5F5F5F5F5F5F5F5F5F5F5F5F5F5F5F5F5F5F5F5F5F5F5F5F5F5F5F5F5F5F5F5F5F5F5F5F5F5F5F5F5F5F5F5F5F5F5F5F5F5F5F5
310
F5F5F5F5F5F5F5F5F5F5F5F5F5F5F5F5F5F5F5F5F5F5F5F5F5F5F5E2F5F5F5F5F5F5F5F5F5F5F5F5F5F5F5F5E2F5F5F5F5E2E2F5F5F5F5E2F5F5F5F5F5F5F5F5F5F5F5F5F5F5F5F5E2F5F5F5F5F5E2F5F5F5F5F5E2F5F5F5F5F5F5F5F5F5F5F5F5F5F5F5F5F5F5F5F5F5F5F5F5F5F5F5F5F5F5F5F5F5F5F5F5F5F5F5F5F5F5
310
F5F5F5F5F5F5F5F5F5F5F5F5F5F5F5F5F5F5F5F5F5F5F5F5F5F5F5F5F5F5F5F5F5F5F5F5F5F5F5F5F5F5F5F5F5F5F5F5F5F5F5F5F5F5F5F5F5F5F5F5F5F5F5F5F5F5F5F5F5F5F5F5F5F5F5F5F5F5F5F5E2F5F5F5F5F5F5F5F5F5F5F5F5F5F5F5F5E2F5F5F5F5E2E2F5F5F5F5E2F5F5F5F5F5F5F5F5F5F5F5F5F5F5F5F5E2F5
310
F5F5F5F5E2F5F5F5F5F5E2F5F5F5F5F5F5F5F5F5F5F5F5F5F5F5F5F5F5F5F5F5F5F5F5F5F5F5F5F5F5F5F5F5F5F5F5F5F5F5F5F5F5F5F5F5F5F5F5F5F5F5F5F5F5F5F5F5F5F5F5F5F5F5F5F5F5F5F5F5F5F5F5F5F5F5F5F5F5F5F5F5F5F5F5F5F5F5F5F5F5F5F5F5F5F5F5F5F5F5F5F5F5F5F5F5F5F5F5F5F5F5F5F5F5F5F5
310
F5F5F5F5F5F5E2F5F5F5F5F5F5F5F5F5F5F5F5F5F5F5F5E2F5F5F5F5E2E2F5F5F5F5E2F5F5F5F5F5F5F5F5F5F5F5F5F5F5F5F5E2E2E2E2E2E2E2F5F5F5F5F5E2F5F5F5F5F5F5F5F5F5F5F5F5F5F5F5F5F5F5F5F5F5F5F5F5F5F5F5F5F5F5F5F5F5F5F5F5F5F5F5F5F5F5F5F5F5F5F5F5F5F5F5F5F5F5F5F5F5F5F5F5F5F5F5
310
F5F5F5F5F5F5F5F5F5F5F5F5F5F5F5F5F5F5F5F5F5F5F5F5F5F5F5F5F5F5F5F5F5F5F5F5F5F5F5F5F5F5F5F5F5F5F5F5F5F5F5F5F5F5F5F5F5F5F5E2F5F5F5F5F5F5F5F5F5F5F5F5F5F5F5F5E2F5F5F5F5E2E2F5F5F5F5E2F5F5F5F5F5F5F5F5F5F5F5F5F5F5F5F5E2E2E2E2F5E2E2F5F5F5F5F5E2F5F5F5F5F5F5F5F5F5F5
310
F5F5F5F5F5F5F5F5F5F5F5F5F5F5F5F5F5F5F5F5F5F5F5F5F5F5F5F5F5F5F5F5F5F5F5F5F5F5F5F5F5F5F5F5F5F5F5F5F5F5F5F5F5F5F5F5F5F5F5F5F5F5F5F5F5F5F5F5F5F5F5F5F5F5F5F5F5F5F5F5F5F5F5F5F5F5F5F5F5F5F5F5F5F5F5F5F5F5F5F5F5F5F5F5F5F5F5F5F5F5F5F5E2F5F5F5F5F5F5F5F5F5F5F5F5F5F5
310
F5F5E2F5F5F5F5E2E2F5F5F5F5E2F5F5F5F5F5F5F5F5F5F5F5F5F5F5F5F5E2E2E2E2F5F5F5F5F5F5F5F5E2F5F5F5F5F5F5F5F5F5F5F5F5F5F5F5F5F5F5F5F5F5F5F5F5F5F5F5F5F5F5F5F5F5F5F5F5F5F5F5F5F5F5F5F5F5F5F5F5F5F5F5F5F5F5F5F5F5F5F5F5F5F5F5F5F5F5F5F5F5F5F5F5F5F5F5F5F5F5F5F5F5F5F5F5
310
F5F5F5F5F5F5F5F5F5F5F5F5F5F5F5F5F5F5F5F5F5F5F5F5F5F5F5F5F5F5F5F5F5F5F5F5F5F5E2F5F5F5F5F5F5F5F5F5F5F5F5F5F5F5F5E2F5F5F5F5E2E2F5F5F5F5E2F5F5F5F5F5F5F5F5F5F5F5F5F5F5F5F5E2F5F5F5F5F5F5F5F5F5F5F5E2F5F5F5F5F5F5F5F5F5F5F5F5F5F5F5F5F5F5F5F5F5F5F5F5F5F5F5F5F5F5F5
310
F5F5F5F5F5F5F5F5F5F5F5F5F5F5F5F5F5F5F5F5F5F5F5F5F5F5F5F5F5F5F5F5F5F5F5F5F5F5F5F5F5F5F5F5F5F5F5F5F5F5F5F5F5F5F5F5F5F5F5F5F5F5F5F5F5F5F5F5F5F5F5F5F5F5F5F5F5F5F5F5F5F5F5F5F5F5F5F5F5F5F5E2F5F5F5F5F5F5F5F5F5F5F5F5F5F5F5F5E2F5F5F5F5E2E2F5F5F5F5E2F5F5F5F5F5F5F5
310
F5F5F5F5F5F5F5F5F5E2E2E2E2E2E2E2E2E2E2E2E2E2F5F5F5F5F5F5F5F5F5F5F5F5F5F5F5F5F5F5F5F5F5F5F5F5F5F5F5F5F5F5F5F5F5F5F5F5F5F5F5F5F5F5F5F5F5F5F5F5F5F5F5F5F5F5F5F5F5F5F5F5F5F5F5F5F5F5F5F5F5F5F5F5F5F5F5F5F5F5F5F5F5F5F5F5F5F5F5F5F5F5F5F5F5F5F5F5F5F5F5F5F5F5F5F5F5
310
F5F5F5F5F5F5F5F5F5F5F5F5F5F5F5F5F5E2F5F5F5F5F5F5F5F5F5F5F5F5F5F5F5F5E2F5F5F5F5E2E2F5F5F5F5E2F5F5F5F5F5F5F5F5F5F5F5F5F5F5F5F5E2E2E2F5F5F5F5F5F5F5F5F5F5F5F5F5F5F5F5F5F5F5F5F5F5F5F5F5F5F5F5F5F5F5F5F5F5F5F5F5F5F5F5F5F5F5F5F5F5F5F5F5F5F5F5F5F5F5F5F5F5F5F5F5F5
310
F5F5F5F5F5F5F5F5F5F5F5F5F5F5F5F5F5F5F5F5F5F5F5F5F5F5F5F5F5F5F5F5F5F5F5F5F5F5F5F5F5F5F5F5F5F5F5F5F5F5F5F5F5F5F5F5F5F5F5F5F5F5F5F5F5F5F5F5F5F5E2F5F5F5F5F5F5F5F5F5F5F5F5F5F5F5F5E2F5F5F5F5E2E2F5F5F5F5E2F5F5F5F5F5F5F5F5F5F5F5F5F5F5F5F5E2E2E2F5F5F5F5F5F5F5F5F5
310
F5F5F5F5F5F5F5F5F5F5F5F5F5F5F5F5F5F5F5F5F5F5F5F5F5F5F5F5F5F5F5F5F5F5F5F5F5F5F5F5F5F5F5F5F5F5F5F5F5F5F5F5F5F5F5F5F5F5F5F5F5F5F5F5F5F5F5F5F5F5F5F5F5F5F5F5F5F5F5F5F5F5F5F5F5F5F5F5F5F5F5F5F5F5F5F5F5F5F5F5F5F5F5F5F5F5F5F5F5F5F5F5F5F5F5F5F5F5F5F5F5F5F5E2F5F5F5
310
F5F5F5F5F5F5F5F5F5F5F5F5F5E2F5F5F5F5E2E2F5F5F5F5E2F5F5F5F5F5F5F5F5F5F5F5F5F5F5F5F5E2F5F5F5F5F5F5F5F5F5F5F5F5F5F5F5F5F5F5F5F5F5F5F5F5F5F5F5F5F5F5F5F5F5F5F5F5F5F5F5F5F5F5F5F5F5F5F5F5F5F5F5F5F5F5F5F5F5F5F5F5F5F5F5F5F5F5F5F5F5F5F5F5F5F5F5F5F5F5F5F5F5F5F5F5F5
310
F5F5F5F5F5F5F5F5F5F5F5F5F5F5F5F5F5F5F5F5F5F5F5F5F5F5F5F5F5F5F5F5F5F5F5F5F5F5F5F5F5F5F5F5F5F5F5F5F5E2F5F5F5F5F5F5F5F5F5F5F5F5F5F5F5F5E2F5F5F5F5E2E2F5F5F5F5E2F5F5F5F5F5F5F5F5F5F5F5F5F5F5F5F5E2F5F5F5F5F5F5F5F5F5F5F5F5F5F5F5F5F5F5F5F5F5F5F5F5F5F5F5F5F5F5F5F5
310
F5F5F5F5F5F5F5F5F5F5F5F5F5F5F5F5F5F5F5F5F5F5F5F5F5F5F5F5F5F5F5F5F5F5F5F5F5F5F5F5F5F5F5F5F5F5F5F5F5F5F5F5F5F5F5F5F5F5F5F5F5F5F5F5F5F5F5F5F5F5F5F5F5F5F5F5F5F5F5F5F5F5F5F5F5F5F5F5F5F5F5F5F5F5F5F5F5F5F5F5F5F5E2F5F5F5F5F5F5F5F5F5F5F5F5F5F5F5F5E2F5F5F5F5E2E2F5
310
F5F5F5E2F5F5F5F5F5F5F5F5F5F5F5F5F5F5F5F5E20F0F0F0F0F0F0F0F0F0F0FF5F5F5F5F5F5F5F5F5F5F5F5F5F5F5F5F5F5F5F5F5F5F5F5F5F5F5F5F5F5F5F5F5F5F5F5F5F5F5F5F5F5F5F5F5F5F5F5F5F5F5F5F5F5F5F5F5F5F5F5F5F5F5F5F5F5F5F5F5F5F5F5F5F5F5F5F5F5F5F5F5F5F5F5F5F5F5F5F5F5F5F5F5F5F5
310
F5F5F5F5F5F5F5F5F5F5F5F5F5F5F5F5F5F5F5F5F5F5F5F5F5F5F5F5E2F5F5F5F5F5F5F5F5F5F5F5F5F5F5F5F5E2F5F5F5F5E2E2F5F5F5F5E2F5F5F5F5F5F5F5F5F5F5F5F5F5F5F5F5E20F0F0F0F0F0F0F0F0F0F0FF5F5F5F5F5F5F5F5F5F5F5F5F5F5F5F5F5F5F5F5F5F5F5F5F5F5F5F5F5F5F5F5F5F5F5F5F5F5F5F5F5F5
310
F5F5F5F5F5F5F5F5F5F5F5F5F5F5F5F5F5F5F5F5F5F5F5F5F5F5F5F5F5F5F5F5F5F5F5F5F5F5F5F5F5F5F5F5F5F5F5F5F5F5F5F5F5F5F5F5F5F5F5F5F5F5F5F5F5F5F5F5F5F5F5F5F5F5F5F5F5F5F5F5F5E2F5F5F5F5F5F5F5F5F5F5F5F5F5F5F5F5E2F5F5F5F5E2E2F5F5F5F5E2F5F5F5F5F5F5F5F5F5F5F5F5F5F5F5F5E2
310
0F0F0F0F0F0F0F0F0F0FF5F5F5F5F5F5F5F5F5F5F5F5F5F5F5F5F5F5F5F5F5F5F5F5F5F5F5F5F5F5F5F5F5F5F5F5F5F5F5F5F5F5F5F5F5F5F5F5F5F5F5F5F5F5F5F5F5F5F5F5F5F5F5F5F5F5F5F5F5F5F5F5F5F5F5F5F5F5F5F5F5F5F5F5F5F5F5F5F5F5F5F5F5F5F5F5F5F5F5F5F5F5F5F5F5F5F5F5F5F5F5F5F5F5F5F5F5
310
F5F5F5F5F5F5F5E2F5F5F5F5F5F5F5F5F5F5F5F5F5F5F5F5E2F5F5F5F5E2E2F5F5F5F5E2F5F5F5F5F5F5F5F5F5F5F5F5F5F5F5F5E2F5F5F5F5F5F5F5F5F5F5F5F5F5F5F5F5F5F5F5F5F5F5F5F5F5F5F5F5F5F5F5F5F5F5F5F5F5F5F5F5F5F5F5F5F5F5F5F5F5F5F5F5F5F5F5F5F5F5F5F5F5F5F5F5F5F5F5F5F5F5F5F5F5F5
310
F5F5F5F5F5F5F5F5F5F5F5F5F5F5F5F5F5F5F5F5F5F5F5F5F5F5F5F5F5F5F5F5F5F5F5F5F5F5F5F5F5F5F5F5F5F5F5F5F5F5F5F5F5F5F5F5F5F5F5F5E2F5F5F5F5F5F5F5F5F5F5F5F5F5F5F5F5E2F5F5F5F5E2E2F5F5F5F5F5F5F5F5F5F5F5F5F5F5F5F5F5F5F5F5F5E2F5F5F5F5F5F5F5F5F5F5F5F5F5F5F5F5F5F5F5F5F5
310
F5F5F5F5F5F5F5F5F5F5F5F5F5F5F5F5F5F5F5F5F5F5F5F5F5F5F5F5F5F5F5F5F5F5F5F5F5F5F5F5F5F5F5F5F5F5F5F5F5F5F5F5F5F5F5F5F5F5F5F5F5F5F5F5F5F5F5F5F5F5F5F5F5F5F5F5F5F5F5F5F5F5F5F5F5F5F5F5F5F5F5F5F5F5F5F5F5F5F5F5F5F5F5F5F5F5F5F5F5F5F5F5F5E2F5F5F5F5F5F5F5F5F5F5F5F5F5
310
F5F5F5F5F5F5F5F5E2E2F5F5F5F5F5F5F5F5F5F5F5F5F5F5F5F5F5F5F5F5F5E2F5F5F5F5F5F5F5F5F5F5F5F5F5F5F5F5F5F5F5F5F5F5F5F5F5F5F5F5F5F5F5F5F5F5F5F5F5F5F5F5F5F5F5F5F5F5F5F5F5F5F5F5F5F5F5F5F5F5F5F5F5F5F5F5F5F5F5F5F5F5F5F5F5F5F5F5F5F5F5F5F5F5F5F5F5F5F5F5F5F5F5F5F5F5F5
310
F5F5F5F5F5F5F5F5F5F5F5F5F5F5F5F5F5F5F5F5F5F5F5F5F5F5F5F5F5F5F5F5F5F5F5F5F5F5F5E2F5F5F5F5F5F5F5F5F5F5F5F5F5F5F5F5F5F5F5F5F5E2E2F5F5F5F5F5F5F5F5F5F5F5F5F5F5F5F5F5F5F5F5F5E2F5F5F5F5F5F5F5F5F5F5F5F5F5F5F5F5F5F5F5F5F5F5F5F5F5F5F5F5F5F5F5F5F5F5F5F5F5F5F5F5F5F5
310
F5F5F5F5F5F5F5F5F5F5F5F5F5F5F5F5F5F5F5F5F5F5F5F5F5F5F5F5F5F5F5F5F5F5F5F5F5F5F5F5F5F5F5F5F5F5F5F5F5F5F5F5F5F5F5F5F5F5F5F5F5F5F5F5F5F5F5F5F5F5F5F5F5F5F5F5F5F5F5F5F5F5F5F5F5F5F5F5F5F5F5F5E2F5F5F5F5F5F5F5F5F5F5F5F5F5F5F5F5F5F5F5F5F5E2E2F5F5F5F5F5F5F5F5F5F5F5
310
F5F5F5F5F5F5F5F5F5F5E2F5F5F5F5F5F5F5F5F5F5F5F5F5F5F5F5F5F5F5F5F5F5F5F5F5F5F5F5F5F5F5F5F5F5F5F5F5F5F5F5F5F5F5F5F5F5F5F5F5F5F5F5F5F5F5F5F5F5F5F5F5F5F5F5F5F5F5F5F5F5F5F5F5F5F5F5F5F5F5F5F5F5F5F5F5F5F5F5F5F5F5F5F5F5F5F5F5F5F5F5F5F5F5F5F5F5F5F5F5F5F5F5F5F5F5F5
310
F5F5F5F5F5F5F5F5F5F5F5F5F5F5F5F5F5F5E2F5F5F5F5F5F5F5F5F5F5F5F5F5F5F5F5F5F5F5F5F5E2E2F5F5F5F5F5F5F5F5F5F5F5F5F5F5F5F5F5F5F5F5F5E2F5F5F5F5F5F5F5F5F5F5F5F5F5F5F5F5F5F5F5F5F5F5F5F5F5F5F5F5F5F5F5F5F5F5F5F5F5F5F5F5F5F5F5F5F5F5F5F5F5F5F5F5F5F5F5F5F5F5F5F5F5F5F5
310
F5F5F5F5F5F5F5F5F5F5F5F5F5F5F5F5F5F5F5F5F5F5F5F5F5F5F5F5F5F5F5F5F5F5F5F5F5F5F5F5F5F5F5F5F5F5F5F5F5F5F5F5F5F5F5F5F5F5F5F5F5F5F5F5F5F5F5F5F5F5F5E2F5F5F5F5F5F5F5F5F5F5F5F5F5F5F5F5F5F5F5F5F5E2E2F5F5F5F5F5F5F5F5F5F5F5F5F5F5F5F5F5F5F5F5F5E2F5F5F5F5F5F5F5F5F5F5
310
F5F5F5F5F5F5F5F5F5F5F5F5F5F5F5F5F5F5F5F5F5F5F5F5F5F5F5F5F5F5F5F5F5F5F5F5F5F5F5F5F5F5F5F5F5F5F5F5F5F5F5F5F5F5F5F5F5F5F5F5F5F5F5F5F5F5F5F5F5F5F5F5F5F5F5F5F5F5F5F5F5F5F5F5F5F5F5F5F5F5F5F5F5F5F5F5F5F5F5F5F5F5F5F5F5F5F5F5F5F5F5F5F5F5F5F5F5F5F5F5F5F5F5F5E2F5F5
310
F5F5F5F5F5F5F5F5F5F5F5F5F5F5F5F5F5F5F5E2E2F5F5F5F5F5F5F5F5F5F5F5F5F5F5F5F5F5F5F5F5F5E2F5F5F5F5F5F5F5F5F5F5F5F5F5F5F5F5F5F5F5F5F5F5F5F5F5F5F5F5F5F5F5F5F5F5F5F5F5F5F5F5F5F5F5F5F5F5F5F5F5F5F5F5F5F5F5F5F5F5F5F5F5F5F5F5F5F5F5F5F5F5F5F5F5F5F5F5F5F5F5F5F5F5F5F5
310
F5F5F5F5F5F5F5F5F5F5F5F5F5F5F5F5F5F5F5F5F5F5F5F5F5F5F5F5F5F5F5F5F5F5F5F5F5F5F5F5F5F5F5F5F5F5F5F5F5F5E2F5F5F5F5F5F5F5F5F5F5F5F5F5F5F5F5F5F5F5F5F5E2E2F5F5F5F5F5F5F5F5F5F5F5F5F5F5F5F5F5F5F5F5F5E2F5F5F5F5F5F5F5F5F5F5F5F5F5F5F5F5F5F5F5F5F5F5F5F5F5F5F5F5F5F5F5
310
F5F5F5F5F5F5F5F5F5F5F5F5F5F5F5F5F5F5F5F5F5F5F5F5F5F5F5F5F5F5F5F5F5F5F5F5F5F5F5F5F5F5F5F5F5F5F5F5F5F5F5F5F5F5F5F5F5F5F5F5F5F5F5F5F5F5F5F5F5F5F5F5F5F5F5F5F5F5F5F5F5F5F5F5F5F5F5F5F5F5F5F5F5F5F5F5F5F5F5F5F5F5F5E2F5F5F5F5F5F5F5F5F5F5F5F5F5F5F5F5F5F5F5F5F5E2E2
310
F5F5F5F5F5F5F5F5F5F5F5F5F5F5F5F5F5F5F5F5F5E2F5F5F5F5F5F5F5F5F5F5F5F5F5F5F5F5F5F5F5F5F5F5F5F5F5F5F5F5F5F5F5F5F5F5F5F5F5F5F5F5F5F5F5F5F5F5F5F5F5F5F5F5F5F5F5F5F5F5F5F5F5F5F5F5F5F5F5F5F5F5F5F5F5F5F5F5F5F5F5F5F5F5F5F5F5F5F5F5F5F5F5F5F5F5F5F5F5F5F5F5F5F5F5F5F5
310
F5F5F5F5F5F5F5F5F5F5F5F5F5F5F5F5F5F5F5F5F5F5F5F5F5F5F5F5F5E2F5F5F5F5F5F5F5F5F5F5F5F5F5F5F5F5F5F5F5F5F5E2E2F5F5F5F5E2F5F5F5F5F5F5F5F5F5F5F5F5F5F5F5F5E2F5F5F5F5F5F5F5F5F5F5F5F5F5F5F5F5F5F5F5F5F5F5F5F5F5F5F5F5F5F5F5F5F5F5F5F5F5F5F5F5F5F5F5F5F5F5F5F5F5F5F5F5
310
F5F5F5F5F5F5F5F5F5F5F5F5F5F5F5F5F5F5F5F5F5F5F5F5F5F5F5F5F5F5F5F5F5F5F5F5F5F5F5F5F5F5F5F5F5F5F5F5F5E2F0E2E2F5F5F5F5F5F5E2F0E2E2F5DCF5F5F5F5F5F5F0F0E2F5F5F5F5F5F5F5F5E2F5F5F5F5F5F5F5F5F5F5F5F5F5F5F5F5E2F5F5F5F5E2E2F5F5F5F5E2F5F5F5F5F5F5F5F5F5F5F5F5F5F5F5F5
310
E2F5F5F5F5F5F5F5F5F5F5F5F5F5F5F5F5F5F5F5F5F5F5F5F5F5F5F5F5F5F5F5F5F5F5F5F5F5F5F5F5F5F5F5F5F5F5F5F5F5F5F5F5F5F5F5F5F5F5F5F5F5F5F5F5F5F5F5F5F5F5F5F5F5F5F5F5F5F5F5F5F5F5F5F5F5F5F5F5F5F5F5F5F5F5F5F5F5F5F5F5E2DCDCF0F5E2F5F5F5F5F5E2F5F0E2E2DCF5F5F5F5F5E2F0F0F5
310
E2F5F5F5E2E2E2F5E2F5F5F5F5F5F5F5F5F5F5F5F5F5F5F5F5E2F5F5F5F5E2E2F5F5F5F5E2F5F5F5F5F5F5F5F5F5F5F5F5F5F5F5F5E2F5F5F5F5F5F5F5F5F5F5F5F5F5F5F5F5F5F5F5F5F5F5F5F5F5F5F5F5F5F5F5F5F5F5F5F5F5F5F5F5F5F5F5F5F5F5F5F5F5F5F5F5F5F5F5F5F5F5F5F5F5F5F5F5F5F5F5F5F5F5F5F5F5
310
F5F5F5F5F5F5F5F5F5F5F5F5F5F5F5F5F5F5F5F5F5F5F5F5F5F5E2F0DCF0DCE2E2E2F5F5F5E2E2F0F0F0E2DCF5F5F5F5E2F0F0F0E2E2F0E2E2E2E2E2E2E2F5F5F5F5F5F5F5F5F5F5F5F5F5F5F5F5E2F5F5F5F5E2E2F5F5F5F5E2F5F5F5F5F5F5F5F5F5F5F5F5F5F5F5F5E2F5F5F5F5F5F5F5F5F5F5F5F5F5F5F5F5F5F5F5F5
310
F5F5F5F5F5F5F5F5F5F5F5F5F5F5F5F5F5F5F5F5F5F5F5F5F5F5F5F5F5F5F5F5F5F5F5F5F5F5F5F5F5F5F5F5F5F5F5F5F5F5F5F5F5F5F5F5F5F5F5F5F5F5F5F5F5F5F5F5F5F5F5F5F5F5F5F5F5F5F5E2F0DCF0DCF0F0E2F5F5F5E2F0DCE2E2E2DCF5F5F5F5F0F0F0F0E2E2F0E2F5E2E2E2E2E2F5F5F5F5F5F5F5F5F5F5F5F5
310
F5F5F5F5E2F5F5F5F5E2E2F5F5F5F5E2F5F5F5F5F5F5F5F5F5F5F5F5F5F5F5F5E2F5F5F5F5F5F5F5F5F5F5F5F5F5F5F5F5F5F5F5F5F5F5F5F5F5F5F5F5F5F5F5F5F5F5F5F5F5F5F5F5F5F5F5F5F5F5F5F5F5F5F5F5F5F5F5F5F5F5F5F5F5F5F5F5F5F5F5F5F5F5F5F5F5F5F5F5F5F5F5F5F5F5F5F5F5F5F5F5F5F5F5F5F5F5
310
F5F5F5F5F5F5E2DCDCDCF0E2F5F5F5F5F5F0DCDCE2E2DCF5F5F5F5F5F0F0F0DCE2F0F5E2E2E2E2F5E2F5F5F5F5F5F5F5F5F5F5F5F5F5F5F5F5E2F5F5F5F5E2E2F5F5F5F5E2F5F5F5F5F5F5F5F5F5F5F5F5F5F5F5F5E2F5F5F5F5F5F5F5F5F5F5F5F5F5F5F5F5F5F5F5F5F5F5F5F5F5F5F5F5F5F5F5F5F5F5F5F5F5F5F5F5F5
310
F5F5F5F5F5F5F5F5F5F5F5F5F5F5F5F5F5F5F5F5F5F5F5F5F5F5F5F5F5F5F5F5F5F5F5F5F5F5F5F5F5F5F5F5F5F5F5F5F5F5F5F5F5F5F5F5F5F5F5E2F0F0F0E2F5F5F5F5F5E2F0E2E2E2E2DCF5F5F5F5F5F0F0E2E2F5F5F5F5E2E2E2F5E2F5F5F5F5F5F5F5F5F5F5F5F5F5F5F5F5E2F5F5F5F5E2E2F5F5F5F5E2F5F5F5F5F5
310
F5F5F5F5F5F5F5F5F5F5F5E2F5F5F5F5F5F5F5F5F5F5F5F5F5F5F5F5F5F5F5F5F5F5F5F5F5F5F5F5F5F5F5F5F5F5F5F5F5F5F5F5F5F5F5F5F5F5F5F5F5F5F5F5F5F5F5F5F5F5F5F5F5F5F5F5F5F5F5F5F5F5F5F5F5F5F5F5F5F5F5F5F5F5F5F5F5F5F5F5F5F5F5F5F5F5F5F5F5F5F5F5F5F5E2E2F5F5F5F5F5F5F5F5E2E2F5
310
F5DCF5F5F5F5F5F5F5F0E2F5F5F5F5F5E2F5F5E2F5F5F5F5F5F5F5F5F5F5F5F5F5F5F5F5E2F5F5F5F5E2E2F5F5F5F5E2F5F5F5F5F5F5F5F5F5F5F5F5F5F5F5F5E2F5F5F5F5F5F5F5F5F5F5F5F5F5F5F5F5F5F5F5F5F5F5F5F5F5F5F5F5F5F5F5F5F5F5F5F5F5F5F5F5F5F5F5F5F5F5F5F5F5F5F5F5F5F5F5F5F5F5F5F5F5F5
310
F5F5F5F5F5F5F5F5F5F5F5F5F5F5F5F5F5F5F5F5F5F5F5F5F5F5F5F5F5F5F5F5F5F5F5F5F5F5F5F5F5F5F5F5F5F5F5F5F5F5F5F5F5F5DCF5F5F5F5F5F5F5F5F5F5F5F5F5F5F5F5F5E2F5F5F5F5F5F5F5F5F5F5F5F5F5F5F5F5E2F5F5F5F5E2E2F5F5F5F5E2F5F5F5F5F5F5F5F5F5F5F5F5F5F5F5F5E2F5F5F5F5F5F5F5F5F5
310
F5F5F5F5F5F5F5F5F5F5F5F5F5F5F5F5F5F5F5F5F5F5F5F5F5F5F5F5F5F5F5F5F5F5F5F5F5F5F5F5F5F5F5F5F5F5F5F5F5F5F5F5F5F5F5F5F5F5F5F5F5F5F5F5F5F5F5F5F5F5F5F5F5F5F5F5F5F5F5F5F5F5F5F5F5F5F5F5F5F5F5F5F5F5F5F5F5F5F5F5F5F5F5F5F5F5F5DCF5F5F5F5F5F5F5F5F5F5F5F5F5F5F5F5F5E2F5
310
F5F5F5F5F5F5F5F5F5F5F5F5F5F5F5E2F5F5F5F5E2E2F5F5F5F5E2F5F5F5F5F5F5F5F5F5F5F5F5F5F5F5F5E2F5F5F5F5F5F5F5F5F5F5F5F5F5F5F5F5F5F5F5F5F5F5F5F5F5F5F5F5F5F5F5F5F5F5F5F5F5F5F5F5F5F5F5F5F5F5F5F5F5F5F5F5F5F5F5F5F5F5F5F5F5F5F5F5F5F5F5F5F5F5F5F5F5F5F5F5F5F5F5F5F5F5F5
310
F5F5F5F5F5F5F5F5F5F5F5F5F5F5F5F5F5F5F5F5F5F5F5F5F5F5F5F5F5F5F5F5F5DCF5F5F5F5F5F5F5F5F5F5F5F5F5F5F5F5F5E2F5F5F5F5F5F5F5F5F5F5F5F5F5F5F5F5E2F5F5F5F5E2E2F5F5F5F5E2F5F5F5F5F5F5F5F5F5F5F5F5F5F5F5F5E2F5F5F5F5F5F5F5F5F5F5F5F5F5F5F5F5F5F5F5F5F5F5F5F5F5F5F5F5F5F5
310
F5F5F5F5F5F5F5F5F5F5F5F5F5F5F5F5F5F5F5F5F5F5F5F5F5F5F5F5F5F5F5F5F5F5F5F5F5F5F5F5F5F5F5F5F5F5F5F5F5F5F5F5F5F5F5F5F5F5F5F5F5F5F5F5F5F5F5F5F5F5F5F5F5F5F5F5F5F5F5F5F5F5F5F5F5F5DCF5F5F5F5F5F5F5F5F5F5F5F5F5F5F5F5F5E2F5F5F5F5F5F5F5F5F5F5F5F5F5F5F5F5E2F5F5F5F5E2
310
E2F5F5F5F5E2F5F5F5F5F5F5F5F5F5F5F5F5F5F5F5F5E2F5F5F5F5F5F5F5F5F5F5F5F5F5F5F5F5F5F5F5F5F5F5F5F5F5F5F5F5F5F5F5F5F5F5F5F5F5F5F5F5F5F5F5F5F5F5F5F5F5F5F5F5F5F5F5F5F5F5F5F5F5F5F5F5F5F5F5F5F5F5F5F5F5F5F5F5F5F5F5F5F5F5F5F5F5F5F5F5F5F5F5F5F5F5F5F5F5F5F5F5F5F5F5F5
310
F5F5F5F5F5F5F5F5F5F5F5F5DCF5F5F5F5F5F5F5F5F5F5F5F5F5F5F5F5F5E2F5F5F5F5F5F5F5F5F5F5F5F5F5F5F5F5E2F5F5F5F5E2E2F5F5F5F5E2F5F5F5F5F5F5F5F5F5F5F5F5F5F5F5F5E2F5F5F5F5F5F5F5F5F5F5F5F5F5F5F5F5F5F5F5F5F5F5F5F5F5F5F5F5F5F5F5F5F5F5F5F5F5F5F5F5F5F5F5F5F5F5F5F5F5F5F5
310
F5F5F5F5F5F5F5F5F5F5F5F5F5F5F5F5F5F5F5F5F5F5F5F5F5F5F5F5F5F5F5F5F5F5F5F5F5F5F5F5F5F5F5F5F5F5F5F5F5F5F5F5F5F5F5F5F5F5F5F5F5F5F5F5F5DCF5F5F5F5F5F5F5F5F5F5F5F5F5F5F5F5F5E2F5F5F5F5F5F5F5F5F5F5F5F5F5F5F5F5E2F5F5F5F5E2E2F5F5F5F5E2F5F5F5F5F5F5F5F5F5F5F5F5F5F5F5
310
F5E2F5F5F5F5F5F5F5F5F5F5F5F5F5F5F5F5F5F5F5F5F5F5F5F5F5F5F5F5F5F5F5F5F5F5F5F5F5F5F5F5F5F5F5F5F5F5F5F5F5F5F5F5F5F5F5F5F5F5F5F5F5F5F5F5F5F5F5F5F5F5F5F5F5F5F5F5F5F5F5F5F5F5F5F5F5F5F5F5F5F5F5F5F5F5F5F5F5F5F5F5F5F5F5F5F5F5F5F5F5F5F5F5F5F5F5F5DCF5F5F5F5F5F5F5F5
310
F5F5F5F5F5F5F5F5F5E2F5F5F5F5F5F5F5F5F5F5F5F5F5F5F5F5E2F5F5F5F5E2E2F5F5F5F5E2F5F5F5F5F5F5F5F5F5F5F5F5F5F5F5F5E2F5F5F5F5F5F5F5F5F5F5F5F5F5F5F5F5F5F5F5F5F5F5F5F5F5F5F5F5F5F5F5F5F5F5F5F5F5F5F5F5F5F5F5F5F5F5F5F5F5F5F5F5F5F5F5F5F5F5F5F5F5F5F5F5F5F5F5F5F5F5F5F5
310
F5F5F5F5F5F5F5F5F5F5F5F5F5F5F5F5F5F5F5F5F5F5F5F5F5F5F5F5F5F5F5F5F5F5F5F5F5F5F5F5F5F5E2E2DCE2F5F5F5F5F5F5F5F5F5F5F5F5F5F5F5F5E2F5F5F5F5F5F5F5F5F5F5F5F5F5F5F5F5E2F5F5F5F5E2E2F5F5F5F5E2F5F5F5F5F5F5F5F5F5F5F5F5F5F5F5F5E2F5F5F5F5F5F5F5F5F5F5F5F5F5F5F5F5F5F5F5
310
F5F5F5F5F5F5F5F5F5F5F5F5F5F5F5F5F5F5F5F5F5F5F5F5F5F5F5F5F5F5F5F5F5F5F5F5F5F5F5F5F5F5F5F5F5F5F5F5F5F5F5F5F5F5F5F5F5F5F5F5F5F5F5F5F5F5F5F5F5F5F5F5F5F5F5F5F5F5F5F5F5F5F5F5F5F5F5F5F5F5F5F5F5F5F5F5F5DCF5F5F5F5F5F5F5F5F5F5F5F5F5F5F5F5F5E2F5F5F5F5F5F5F5F5F5F5F5
310
F5F5F5F5F5E2F5F5F5F5E2E2F5F5F5F5E2F5F5F5F5F5F5F5F5F5F5F5F5F5F5F5F5E2F5F5F5F5F5F5F5F5F5F5F5F5F5F5F5F5F5F5F5F5F5F5F5F5F5F5F5F5F5F5F5F5F5F5F5F5F5F5F5F5F5F5F5F5F5F5F5F5F5F5F5F5F5F5F5F5F5F5F5F5F5F5F5F5F5F5F5F5F5F5F5F5F5F5F5F5F5F5F5F5F5F5F5F5F5F5F5F5F5F5F5F5F5
310
F5F5F5F5F5F5F5F5F5F5F5F5F5F5F5F5F5F5F5F5F5F5F5DCF5F5F5F5F5F5F5F5F5F5F5F5F5F5F5F5F5E2F5F5F5F5F5F5F5F5F5F5F5F5F5F5F5F5E2F5F5F5F5E2E2F5F5F5F5F5F5F5F5F5F5F5F5F5F5F5F5F5F5F5F5F5E2F5F5F5F5F5F5F5F5F5F5F5F5F5F5F5F5F5F5F5F5F5F5F5F5F5F5F5F5F5F5F5F5F5F5F5F5F5F5F5F5
310
F5F5F5F5F5F5F5F5F5F5F5F5F5F5F5F5F5F5F5F5F5F5F5F5F5F5F5F5F5F5F5F5F5F5F5F5F5F5F5F5F5F5F5F5F5F5F5F5F5F5F5F5F5F5F5F5F5F5F5F5F5F5F5F5F5F5F5F5F5F5F5F5F5F5F5F5DCF5F5F5F5F5F5F5F5F5F5F5F5F5F5F5F5F5E2F5F5F5F5F5F5F5F5F5F5F5F5F5F5F5F5F5F5F5F5F5E2E2F5F5F5F5F5F5F5F5F5
310
F5F5F5F5F5F5F5F5F5F5F5F5E2F5F5F5F5F5F5F5F5F5F5F5F5F5F5F5F5F5F5F5F5F5F5F5F5F5F5F5F5F5F5F5F5F5F5F5F5F5F5F5F5F5F5F5F5F5F5F5F5F5F5F5F5F5F5F5F5F5F5F5F5F5F5F5F5F5F5F5F5F5F5F5F5F5F5F5F5F5F5F5F5F5F5F5F5F5F5F5F5F5F5F5F5F5F5F5F5F5F5F5F5F5F5F5F5F5F5F5F5F5F5F5F5F5F5
310
F5F5F5F5F5F5F5F5F5F5F5F5F5F5F5F5F5F5F5F5E2F5F5F5F5F5F5F5F5F5F5F5F5F5F5F5F5F5F5F5F5F5E2E2F5F5F5F5F5F5F5F5F5F5F5F5F5F5F5F5F5F5F5F5F5E2F5F5F5F5F5F5F5F5F5F5F5F5F5F5F5F5F5F5F5F5F5F5F5F5F5F5F5F5F5F5F5F5F5F5F5F5F5F5F5F5F5F5F5F5F5F5F5F5F5F5F5F5F5F5F5F5F5F5F5F5F5
310
F5F5F5F5F5F5F5F5F5F5F5F5F5F5F5F5F5F5F5F5F5F5F5F5F5F5F5F5F5F5F5F5F5F5F5F5F5F5F5F5F5F5F5F5F5F5F5F5F5F5F5F5F5F5F5F5F5F5F5F5F5F5F5F5F5F5F5F5F5F5F5F5F5E2F5F5F5F5F5F5F5F5F5F5F5F5F5F5F5F5F5F5F5F5F5E2E2F5F5F5F5F5F5F5F5F5F5F5F5F5F5F5F5F5F5F5F5F5E2F5F5F5F5F5F5F5F5
310
F5F5F5F5F5F5F5F5F5F5F5F5F5F5F5F5F5F5F5F5F5F5F5F5F5F5F5F5F5F5F5F5F5F5F5F5F5F5F5F5F5F5F5F5F5F5F5F5F5F5F5F5F5F5F5F5F5F5F5F5F5F5F5F5F5F5F5F5F5F5F5F5F5F5F5F5F5F5F5F5F5F5F5F5F5F5F5F5F5F5F5F5F5F5F5F5F5F5F5F5F5F5F5F5F5F5F5F5F5F5F5F5F5F5F5F5F5F5F5F5F5F5F5F5F5F5E2
310
F5F5F5F5F5F5F5F5F5F5F5F5F5F5F5F5F5F5F5F5F5E2E2F5F5F5F5F5F5F5F5F5F5F5F5F5F5F5F5F5F5F5F5F5E2F5F5F5F5F5F5F5F5F5F5F5F5F5F5F5F5F5F5F5F5F5F5F5F5F5F5F5F5F5F5F5F5F5F5F5F5F5F5F5F5F5F5F5F5F5F5F5F5F5F5F5F5F5F5F5F5F5F5F5F5F5F5F5F5F5F5F5F5F5F5F5F5F5F5F5F5F5F5F5F5F5F5
310
F5F5F5F5F5F5F5F5F5F5F5F5F5F5F5F5F5F5F5F5F5F5F5F5F5F5F5F5F5F5F5F5F5F5F5F5F5F5F5F5F5F5F5F5F5F5F5F5F5F5F5F5E2F5F5F5F5F5F5F5F5F5F5F5F5F5F5F5F5F5F5F5F5F5E2E2F5F5F5F5F5F5F5F5F5F5F5F5F5F5F5F5F5F5F5F5F5E2F5F5F5F5F5F5F5F5F5F5F5F5F5F5F5F5F5F5F5F5F5F5F5F5F5F5F5F5F5
310
F5F5F5F5F5F5F5F5F5F5F5F5F5F5F5F5F5F5F5F5F5F5F5F5F5F5F5F5F5F5F5F5F5F5F5F5F5F5F5F5F5F5F5F5F5F5F5F5F5F5F5F5F5F5F5F5F5F5F5F5F5F5F5F5F5F5F5F5F5F5F5F5F5F5F5F5F5F5F5F5F5F5F5F5F5F5F5F5F5F5F5F5F5F5F5F5F5F5F5F5F5F5F5F5F5E2F5F5F5F5F5F5F5F5F5F5F5F5F5F5F5F5F5F5F5F5F5
310
E2E2F5F5F5F5F5F5F5F5F5F5F5F5F5F5F5F5F5F5F5F5F5E2F5F5F5F5F5F5F5F5F5F5F5F5F5F5F5F5F5F5F5F5F5F5F5F5F5F5F5F5F5F5F5F5F5F5F5F5F5F5F5F5F5F5F5F5F5F5F5F5F5F5F5F5F5F5F5F5F5F5F5F5F5F5F5F5F5F5F5F5F5F5F5F5F5F5F5F5F5F5F5F5F5F5F5F5F5F5F5F5F5F5F5F5F5F5F5F5F5F5F5F5F5F5F5
310
F5F5F5F5F5F5F5F5F5F5F5F5F5F5F5F5F5F5F5F5F5F5F5F5F5F5F5F5F5F5F5E2F5F5F5F5F5F5F5F5F5F5F5F5F5F5F5F5F5F5F5F5F5E2E2F5F5F5F5F5F5F5F5F5F5F5F5F5F5F5F5F5F5F5F5F5E2F5F5F5F5F5F5F5F5F5F5F5F5F5F5F5F5F5F5F5F5F5F5F5F5F5F5F5F5F5F5F5F5F5F5F5F5F5F5F5F5F5F5F5F5F5F5F5F5F5F5
310
F5F5F5F5F5F5F5F5F5F5F5F5F5F5F5F5F5F5F5F5F5F5F5F5F5F5F5F5F5F5F5F5F5F5F5F5F5F5F5F5F5F5F5F5F5F5F5F5F5F5F5F5F5F5F5F5F5F5F5F5F5F5F5F5F5F5F5F5F5F5F5F5F5F5F5F5F5F5F5F5F5F5F5F5E2F5F5F5F5F5F5F5F5F5F5F5F5F5F5F5F5F5F5F5F5F5E2E2F5F5F5F5F5F5F5F5F5F5F5F5F5F5F5F5F5F5F5
310
F5F5E2F5F5F5F5F5F5F5F5F5F5F5F5F5F5F5F5F5F5F5F5F5F5F5F5F5F5F5F5F5F5F5F5F5F5F5F5F5F5F5F5F5F5F5F5F5F5F5F5F5F5F5F5F5F5F5F5F5F5F5F5F5F5F5F5F5F5F5F5F5F5F5F5F5F5F5F5F5F5F5F5F5F5F5F5F5F5F5F5F5F5F5F5F5F5F5F5F5F5F5F5F5F5F5F5F5F5F5F5F5F5F5F5F5F5F5F5F5F5F5F5F5F5F5F5
310
F5F5F5F5F5F5F5F5F5F5E2F5F5F5F5F5F5F5F5F5F5F5F5F5F5F5F5F5F5F5F5F5E2E2F5F5F5F5E2F5F5F5F5F5F5F5F5F5F5F5F5F5F5F5F5E2F5F5F5F5F5F5F5F5F5F5F5F5F5F5F5F5F5F5F5F5F5F5F5F5F5F5F5F5F5F5F5F5F5F5F5F5F5F5F5F5F5F5F5F5F5F5F5F5F5F5F5F5F5F5F5F5F5F5F5F5F5F5F5F5F5F5F5F5F5F5F5
310
F5F5F5F5F5F5F5F5F5F5F5F5F5F5F5F5F5F5F5F5F5F5F5F5F5F5F5F5F5F5F5F5F5F5F5F5F5F5F5F5F5F5F5F5F5F5F5F5F5F5F5F5F5F5F5F5F5F5F5F5F5F5F5E2F5F5F5F5F5F5F5F5F5F5F5F5F5F5F5F5E2F5F5F5F5E2E2F5F5F5F5E2F5F5F5F5F5F5F5F5F5F5F5F5F5F5F5F5E2F5F5F5F5F5F5F5F5F5F5F5F5F5F5F5F5F5F5
310
F5F5F5F5F5F5F5F5F5F5F5F5F5F5F5F5F5F5F5F5F5F5F5F5F5F5F5F5F5F5F5F5F5F5F5F5F5F5F5F5F5F5F5F5F5F5F5F5F5F5F5F5F5F5F5F5F5F5F5F5F5F5F5F5F5F5F5F5F5F5F5F5F5F5F5F5F5F5F5F5F5F5F5F5F5F5F5F5F5F5F5F5F5F5F5F5F5F5F5F5F5F5F5F5F5F5F5F5F5F5F5F5F5F5F5F5E2F5F5F5F5F5F5F5F5F5F5
310
F5F5F5F5F5F5E2F5F5F5F5E2E2F5F5F5F5E2F5F5F5F5F5F5F5F5F5F5F5F5F5F5F5F5E2F5F5F5F5F5F5F5F5F5F5F5F5F5F5F5F5F5F5F5F5F5F5F5F5F5F5F5F5F5F5F5F5F5F5F5F5F5F5F5F5F5F5F5F5F5F5F5F5F5F5F5F5F5F5F5F5F5F5F5F5F5F5F5F5F5F5F5F5F5F5F5F5F5F5F5F5F5F5F5F5F5F5F5F5F5F5F5F5F5F5F5F5
310
F5F5F5F5F5F5F5F5F5F5F5F5F5F5F5F5F5F5F5F5F5F5F5F5F5F5F5F5F5F5F5F5F5F5F5F5F5F5F5F5F5F5E2F5F5F5F5F5F5F5F5F5F5F5F5F5F5F5F5E2F5F5F5F5E2E2F5F5F5F5E2F5F5F5F5F5F5F5F5F5F5F5F5F5F5F5F5E2F5F5F5F5F5F5F5F5F5F5F5F5F5F5F5F5F5F5F5F5F5F5F5F5F5F5F5F5F5F5F5F5F5F5F5F5F5F5F5
310
F5F5F5F5F5F5F5F5F5F5F5F5F5F5F5F5F5F5F5F5F5F5F5F5F5F5F5F5F5F5F5F5F5F5F5F5F5F5F5F5F5F5F5F5F5F5F5F5F5F5F5F5F5F5F5F5F5F5F5F5F5F5F5F5F5F5F5F5F5F5F5F5F5F5F5F5F5F5F5F5F5F5F5F5F5F5F5F5F5F5F5F5F5F5F5E2F5F5F5F5F5F5F5F5F5F5F5F5F5F5F5F5E2F5F5F5F5E2E2F5F5F5F5E2F5F5F5
310
F5F5F5F5F5F5F5F5F5F5F5F5F5E2F5F5F5F5F5F5F5F5F5F5F5F5F5F5F5F5F5F5F5F5F5F5F5F5F5F5F5F5F5F5F5F5F5F5F5F5F5F5F5F5F5F5F5F5F5F5F5F5F5F5F5F5F5F5F5F5F5F5F5F5F5F5F5F5F5F5F5F5F5F5F5F5F5F5F5F5F5F5F5F5F5F5F5F5F5F5F5F5F5F5F5F5F5F5F5F5F5F5F5F5F5F5F5F5F5F5F5F5F5F5F5F5F5
310
F5F5F5F5F5F5F5F5F5F5F5F5F5F5F5F5F5F5F5F5F5E2F5F5F5F5F5F5F5F5F5F5F5F5F5F5F5F5E2F5F5F5F5E2E2F5F5F5F5E2F5F5F5F5F5F5F5F5F5F5F5F5F5F5F5F5E2F5F5F5F5F5F5F5F5F5F5F5F5F5F5F5F5F5F5F5F5F5F5F5F5F5F5F5F5F5F5F5F5F5F5F5F5F5F5F5F5F5F5F5F5F5F5F5F5F5F5F5F5F5F5F5F5F5F5F5F5
310
F5F5F5F5F5F5F5F5F5F5F5F5F5F5F5F5F5F5F5F5F5F5F5F5F5F5F5F5F5F5F5F5F5F5F5F5F5F5F5F5F5F5F5F5F5F5F5F5F5F5F5F5F5F5F5F5F5F5F5F5F5F5F5F5F5F5F5F5F5F5F5F5F5F5E2F5F5F5F5F5F5F5F5F5F5F5F5F5F5F5F5E2F5F5F5F5E2E2F5F5F5F5E2F5F5F5F5F5F5F5F5F5F5F5F5F5F5F5F5E2F5F5F5F5F5F5F5
310
F5F5F5F5F5F5F5F5F5F5F5F5F5F5F5F5F5F5F5F5F5F5F5F5F5F5F5F5F5F5F5F5F5F5F5F5F5F5F5F5F5F5F5F5F5F5F5F5F5F5F5F5F5F5F5F5F5F5F5F5F5F5F5F5F5F5F5F5F5F5F5F5F5F5F5F5F5F5F5F5F5F5F5F5F5F5F5F5F5F5F5F5F5F5F5F5F5F5F5F5F5F5F5F5F5F5F5F5F5F5F5F5F5F5F5F5F5F5F5F5F5F5F5F5F5F5F5
310
E2F5F5F5F5F5F5F5F5F5F5F5F5F5F5F5F5E2F5F5F5F5E2E2F5F5F5F5E2F5F5F5F5F5F5F5F5F5F5F5F5F5F5F5F5E2F5F5F5F5F5F5F5F5F5F5F5F5F5F5F5F5F5F5F5F5F5F5F5F5F5F5F5F5F5F5F5F5F5F5F5F5F5F5F5F5F5F5F5F5F5F5F5F5F5F5F5F5F5F5F5F5F5F5F5F5F5F5F5F5F5F5F5F5F5F5F5F5F5F5F5F5F5F5F5F5F5
310
F5F5F5F5F5F5F5F5F5F5F5F5F5F5F5F5F5F5F5F5F5F5F5F5F5F5F5F5F5F5F5F5F5F5F5F5F5F5F5F5F5F5F5F5F5F5F5F5F5F5F5F5F5E2F5F5F5F5F5F5F5F5F5F5F5F5F5F5F5F5E2F5F5F5F5E2E2F5F5F5F5E2F5F5F5F5F5F5F5F5F5F5F5F5F5F5F5F5E2F5F5F5F5F5F5F5F5F5F5F5F5F5F5F5F5F5F5F5F5F5F5F5F5F5F5F5F5
310
F5F5F5F5F5F5F5F5F5F5F5F5F5F5F5F5F5F5F5F5F5F5F5F5F5F5F5F5F5F5F5F5F5F5F5F5F5F5F5F5F5F5F5F5F5F5F5F5F5F5F5F5F5F5F5F5F5F5F5F5F5F5F5F5F5F5F5F5F5F5F5F5F5F5F5F5F5F5F5F5F5F5F5F5F5F5F5F5F5F5F5F5F5F5F5F5F5F5F5F5F5F5F5F5F5F5E2F5F5F5F5F5F5F5F5F5F5F5F5F5F5F5F5E2F5F5F5
310
F5E2E2F5F5F5F5E2F5F5F5F5F5F5F5F5F5F5F5F5F5F5F5F5E2F5F5F5F5F5F5F5F5F5F5F5F5F5F5F5F5F5F5F5F5F5F5F5F5F5F5F5F5F5F5F5F5F5F5F5F5F5F5F5F5F5F5F5F5F5F5F5F5F5F5F5F5F5F5F5F5F5F5F5F5F5F5F5F5F5F5F5F5F5F5F5F5F5F5F5F5F5F5F5F5F5F5F5F5F5F5F5F5F5F5F5F5F5F5F5F5F5F5F5F5F5F5
310
F5F5F5F5F5F5F5F5F5F5F5F5F5F5F5F5F5F5F5F5F5F5F5F5F5F5F5F5F5F5F5F5E2F5F5F5F5F5F5F5F5F5F5F5F5F5F5F5F5E2F5F5F5F5E2E2F5F5F5F5E2F5F5F5F5F5F5F5F5F5F5F5F5F5F5F5F5E2F5F5F5F5F5F5F5F5F5F5F5F5F5F5F5F5F5F5F5F5F5F5F5F5F5F5F5F5F5F5F5F5F5F5F5F5F5F5F5F5F5F5F5F5F5F5F5F5F5
310
F5F5F5F5F5F5F5F5F5F5F5F5F5F5F5F5F5F5F5F5F5F5F5F5F5F5F5F5F5F5F5F5F5F5F5F5F5F5F5F5F5F5F5F5F5F5F5F5F5F5F5F5F5F5F5F5F5F5F5F5F5F5F5F5F5F5F5F5F5F5F5F5F5F5F5F5F5F5F5F5F5F5F5F5F5E2F5F5F5F5F5F5F5F5F5F5F5F5F5F5F5F5E2F5F5F5F5E2E2F5F5F5F5E2F5F5F5F5F5F5F5F5F5F5F5F5F5
310
F5F5F5E2F5F5F5F5F5F5F5F5F5F5F5F5F5F5F5F5F5F5F5F5F5F5F5F5F5F5F5F5F5F5F5F5F5F5F5F5F5F5F5F5F5F5F5F5F5F5F5F5F5F5F5F5F5F5F5F5F5F5F5F5F5F5F5F5F5F5F5F5F5F5F5F5F5F5F5F5F5F5F5F5F5F5F5F5F5F5F5F5F5F5F5F5F5F5F5F5F5F5F5F5F5F5F5F5F5F5F5F5F5F5F5F5F5F5F5F5F5F5F5F5F5F5F5
310
F5F5F5F5F5F5F5F5F5F5F5E2F5F5F5F5F5F5F5F5F5F5F5F5F5F5F5F5E2F5F5F5F5E2E2F5F5F5F5E2F5F5F5F5F5F5F5F5F5F5F5F5F5F5F5F5E2F5F5F5F5F5F5F5F5F5F5F5F5F5F5F5F5F5F5F5F5F5F5F5F5F5F5F5F5F5F5F5F5F5F5F5F5F5F5F5F5F5F5F5F5F5F5F5F5F5F5F5F5F5F5F5F5F5F5F5F5F5F5F5F5F5F5F5F5F5F5
310
F5F5F5F5F5F5F5F5F5F5F5F5F5F5F5F5F5F5F5F5F5F5F5F5F5F5F5F5F5F5F5F5F5F5F5F5F5F5F5F5F5F5F5F5F5F5F5F5F5F5F5F5F5F5F5F5F5F5F5F5F5F5F5F5E2F5F5F5F5F5F5F5F5F5F5F5F5F5F5F5F5E2F5F5F5F5E2E2F5F5F5F5E2F5F5F5F5F5F5F5F5F5F5F5F5F5F5F5F5E2F5F5F5F5F5F5F5F5F5F5F5F5F5F5F5F5F5
310
F5F5F5F5F5F5F5F5F5F5F5F5F5F5F5F5F5F5F5F5F5F5F5F5F5F5F5F5F5F5F5F5F5F5F5F5F5F5F5F5F5F5F5F5F5F5F5F5F5F5F5F5F5F5F5F5F5F5F5F5F5F5F5F5F5F5F5F5F5F5F5F5F5F5F5F5F5F5F5F5F5F5F5F5F5F5F5F5F5F5F5F5F5F5F5F5F5F5F5F5F5F5F5F5F5F5F5F5F5F5F5F5F5F5F5F5F5E2F5F5F5F5F5F5F5F5F5
310
F5F5F5F5F5F5F5E2F5F5F5F5E2E2F5F5F5F5E2F5F5F5F5F5F5F5F5F5F5F5F5F5F5F5F5E2F5F5F5F5F5F5F5F5F5F5F5F5F5F5F5F5F5F5F5F5F5F5F5F5F5F5F5F5F5F5F5F5F5F5F5F5F5F5F5F5F5F5F5F5F5F5F5F5F5F5F5F5F5F5F5F5F5F5F5F5F5F5F5F5F5F5F5F5F5F5F5F5F5F5F5F5F5F5F5F5F5F5F5F5F5F5F5F5F5F5F5
310
F5F5F5F5F5F5F5F5F5F5F5F5F5F5F5F5F5F5F5F5F5F5F5F5F5F5F5F5F5F5F5F5F5F5F5F5F5F5F5F5F5F5F5E2F5F5F5F5F5F5F5F5F5F5F5F5F5F5F5F5E2F5F5F5F5E2E2F5F5F5F5E2F5F5F5F5F5F5F5F5F5F5F5F5F5F5F5F5E2F5F5F5F5F5F5F5F5F5F5F5F5F5F5F5F5F5F5F5F5F5F5F5F5F5F5F5F5F5F5F5F5F5F5F5F5F5F5
310
F5F5F5F5F5F5F5F5F5F5F5F5F5F5F5F5F5F5F5F5F5F5F5F5F5F5F5F5F5F5F5F5F5F5F5F5F5F5F5F5F5F5F5F5F5F5F5F5F5F5F5F5F5F5F5F5F5F5F5F5F5F5F5F5F5F5F5F5F5F5F5F5F5F5F5F5F5F5F5F5F5F5F5F5F5F5F5F5F5F5F5F5F5F5F5F5E2F5F5F5F5F5F5F5F5F5F5F5F5F5F5F5F5E2F5F5F5F5E2E2F5F5F5F5E2F5F5
310
F5F5F5F5F5F5F5F5F5F5F5F5F5F5E2F5F5F5F5F5F5F5F5F5F5F5F5F5F5F5F5F5F5F5F5F5F5F5F5F5F5F5F5F5F5F5F5F5F5F5F5F5F5F5F5F5F5F5F5F5F5F5F5F5F5F5F5F5F5F5F5F5F5F5F5F5F5F5F5F5F5F5F5F5F5F5F5F5F5F5F5F5F5F5F5F5F5F5F5F5F5F5F5F5F5F5F5F5F5F5F5F5F5F5F5F5F5F5F5F5F5F5F5F5F5F5F5
310
F5F5F5F5F5F5F5F5F5F5F5F5F5F5F5F5F5F5F5F5F5F5E2F5F5F5F5F5F5F5F5F5F5F5F5F5F5F5F5E2F5F5F5F5E2E2F5F5F5F5F5F5F5F5F5F5F5F5F5F5F5F5F5F5F5F5F5E2F5F5F5F5F5F5F5F5F5F5F5F5F5F5F5F5F5F5F5F5F5F5F5F5F5F5F5F5F5F5F5F5F5F5F5F5F5F5F5F5F5F5F5F5F5F5F5F5F5F5F5F5F5F5F5F5F5F5F5
310
F5F5F5F5F5F5F5F5F5F5F5F5F5F5F5F5F5F5F5F5F5F5F5F5F5F5F5F5F5F5F5F5F5F5F5F5F5F5F5F5F5F5F5F5F5F5F5F5F5F5F5F5F5F5F5F5F5F5F5F5F5F5F5F5F5F5F5F5F5F5F5F5F5F5F5E2F5F5F5F5F5F5F5F5F5F5F5F5F5F5F5F5F5F5F5F5F5E2E2F5F5F5F5F5F5F5F5F5F5F5F5F5F5F5F5F5F5F5F5F5E2F5F5F5F5F5F5
310
F5F5F5F5F5F5F5F5F5F5F5F5F5F5F5F5F5F5F5F5F5F5F5F5F5F5F5F5F5F5F5F5F5F5F5F5F5F5F5F5F5F5F5F5F5F5F5F5F5F5F5F5F5F5F5F5F5F5F5F5F5F5F5F5F5F5F5F5F5F5F5F5F5F5F5F5F5F5F5F5F5F5F5F5F5F5F5F5F5F5F5F5F5F5F5F5F5F5F5F5F5F5F5F5F5F5F5F5F5F5F5F5F5F5F5F5F5F5F5F5F5F5F5F5F5F5F5
310
F5E2F5F5F5F5F5F5F5F5F5F5F5F5F5F5F5F5F5F5F5F5F5E2E2F5F5F5F5F5F5F5F5F5F5F5F5F5F5F5F5F5F5F5F5F5E2F5F5F5F5F5F5F5F5F5F5F5F5F5F5F5F5F5F5F5F5F5F5F5F5F5F5F5F5F5F5F5F5F5F5F5F5F5F5F5F5F5F5F5F5F5F5F5F5F5F5F5F5F5F5F5F5F5F5F5F5F5F5F5F5F5F5F5F5F5F5F5F5F5F5F5F5F5F5F5F5
310
F5F5F5F5F5F5F5F5F5F5F5F5F5F5F5F5F5F5F5F5F5F5F5F5F5F5F5F5F5F5F5F5F5F5F5F5F5F5F5F5F5F5F5F5F5F5F5F5F5F5F5F5F5F5E2F5F5F5F5F5F5F5F5F5F5F5F5F5F5F5F5F5F5F5F5F5E2E2F5F5F5F5F5F5F5F5F5F5F5F5F5F5F5F5F5F5F5F5F5E2F5F5F5F5F5F5F5F5F5F5F5F5F5F5F5F5F5F5F5F5F5F5F5F5F5F5F5
310
F5F5F5F5F5F5F5F5F5F5F5F5F5F5F5F5F5F5F5F5F5F5F5F5F5F5F5F5F5F5F5F5F5F5F5F5F5F5F5F5F5F5F5F5F5F5F5F5F5F5F5F5F5F5F5F5F5F5F5F5F5F5F5F5F5F5F5F5F5F5F5F5F5F5F5F5F5F5F5F5F5F5F5F5F5F5F5F5F5F5F5F5F5F5F5F5F5F5F5F5F5F5F5F5F5F5F5E2F5F5F5F5F5F5F5F5F5F5F5F5F5F5F5F5F5F5F5
310
F5F5E2E2F5F5F5F5F5F5F5F5F5F5F5F5F5F5F5F5F5F5F5F5F5E2F5F5F5F5F5F5F5F5F5F5F5F5F5F5F5F5F5F5F5F5F5F5F5F5F5F5F5F5F5F5F5F5F5F5F5F5F5F5F5F5F5F5F5F5F5F5F5F5F5F5F5F5F5F5F5F5F5F5F5F5F5F5F5F5F5F5F5F5F5F5F5F5F5F5F5F5F5F5F5F5F5F5F5F5F5F5F5F5F5F5F5F5F5F5F5F5F5F5F5F5F5
310
F5F5F5F5F5F5F5F5F5F5F5F5F5F5F5F5F5F5F5F5F5F5F5F5F5F5F5F5F5F5F5F5F5E2F5F5F5F5F5F5F5F5F5F5F5F5F5F5F5F5F5F5F5F5F5E2E2F5F5F5F5F5F5F5F5F5F5F5F5F5F5F5F5F5F5F5F5F5E2F5F5F5F5F5F5F5F5F5F5F5F5F5F5F5F5F5F5F5F5F5F5F5F5F5F5F5F5F5F5F5F5F5F5F5F5F5F5F5F5F5F5F5F5F5F5F5F5
310
F5F5F5F5F5F5F5F5F5F5F5F5F5F5F5F5F5F5F5F5F5F5F5F5F5F5F5F5F5F5F5F5F5F5F5F5F5F5F5F5F5F5F5F5F5F5F5F5F5F5F5F5F5F5F5F5F5F5F5F5F5F5F5F5F5F5F5F5F5F5F5F5F5F5F5F5F5F5F5F5F5F5F5F5F5F5E2F5F5F5F5F5F5F5F5F5F5F5F5F5F5F5F5F5F5F5F5F5E2E2F5F5F5F5F5F5F5F5F5F5F5F5F5F5F5F5F5
310
F5F5F5F5E2F5F5F5F5F5F5F5F5F5F5F5F5F5F5F5F5F5F5F5F5F5F5F5F5F5F5F5F5F5F5F5F5F5F5F5F5F5F5F5F5F5F5F5F5F5F5F5F5F5F5F5F5F5F5F5F5F5F5F5F5F5F5F5F5F5F5F5F5F5F5F5F5F5F5F5F5F5F5F5F5F5F5F5F5F5F5F5F5F5F5F5F5F5F5F5F5F5F5F5F5F5F5F5F5F5F5F5F5F5F5F5F5F5F5F5F5F5F5F5F5F5F5
310
F5F5F5F5F5F5F5F5F5F5F5F5E2F5F5F5F5F5F5F5F5F5F5F5F5F5F5F5F5F5F5F5F5F5E2E2F5F5F5F5F5F5F5F5F5F5F5F5F5F5F5F5F5F5F5F5F5E2F5F5F5F5F5F5F5F5F5F5F5F5F5F5F5F5F5F5F5F5F5F5F5F5F5F5F5F5F5F5F5F5F5F5F5F5F5F5F5F5F5F5F5F5F5F5F5F5F5F5F5F5F5F5F5F5F5F5F5F5F5F5F5F5F5F5F5F5F5
310
F5F5F5F5F5F5F5F5F5F5F5F5F5F5F5F5F5F5F5F5F5F5F5F5F5F5F5F5F5F5F5F5F5F5F5F5F5F5F5F5F5F5F5F5F5F5F5F5F5F5F5F5F5F5F5F5F5F5F5F5F5F5F5F5F5E2F5F5F5F5F5F5F5F5F5F5F5F5F5F5F5F5F5F5F5F5F5E2E2F5F5F5F5F5F5F5F5F5F5F5F5F5F5F5F5F5F5F5F5F5E2F5F5F5F5F5F5F5F5F5F5F5F5F5F5F5F5
310
F5F5F5F5F5F5F5F5F5F5F5F5F5F5F5F5F5F5F5F5F5F5F5F5F5F5F5F5F5F5F5F5F5F5F5F5F5F5F5F5F5F5F5F5F5F5F5F5F5F5F5F5F5F5F5F5F5F5F5F5F5F5F5F5F5F5F5F5F5F5F5F5F5F5F5F5F5F5F5F5F5F5F5F5F5F5F5F5F5F5F5F5F5F5F5F5F5F5F5F5F5F5F5F5F5F5F5F5F5F5F5F5F5F5F5F5F5F5E2F5F5F5F5F5F5F5F5
310
F5F5F5F5F5F5F5F5F5F5F5F5F5E2E2F5F5F5F5E2F5F5F5F5F5F5F5F5F5F5F5F5F5F5F5F5E2F5F5F5F5F5F5F5F5F5F5F5F5F5F5F5F5F5F5F5F5F5F5F5F5F5F5F5F5F5F5F5F5F5F5F5F5F5F5F5F5F5F5F5F5F5F5F5F5F5F5F5F5F5F5F5F5F5F5F5F5F5F5F5F5F5F5F5F5F5F5F5F5F5F5F5F5F5F5F5F5F5F5F5F5F5F5F5F5F5F5
310
F5F5F5F5F5F5F5F5F5F5F5F5F5F5F5F5F5F5F5F5F5F5F5F5F5F5F5F5F5F5F5F5F5F5F5F5F5F5F5F5F5F5F5F5E2F5F5F5F5F5F5F5F5F5F5F5F5F5F5F5F5E2F5F5F5F5E2E2F5F5F5F5E2F5F5F5F5F5F5F5F5F5F5F5F5F5F5F5F5E2F5F5F5F5F5F5F5F5F5F5F5F5F5F5F5F5F5F5F5F5F5F5F5F5F5F5F5F5F5F5F5F5F5F5F5F5F5
310
F5F5F5F5F5F5F5F5F5F5F5F5F5F5F5F5F5F5F5F5F5F5F5F5F5F5F5F5F5F5F5F5F5F5F5F5F5F5F5F5F5F5F5F5F5F5F5F5F5F5F5F5F5F5F5F5F5F5F5F5F5F5F5F5F5F5F5F5F5F5F5F5F5F5F5F5F5F5F5F5F5F5F5F5F5F5F5F5F5F5F5F5F5F5F5F5F5E2F5F5F5F5F5F5F5F5F5F5F5F5F5F5F5F5E2F5F5F5F5E2E2F5F5F5F5E2F5
310
F5F5F5F5F5F5F5F5F5F5F5F5F5F5F5E2F5F5F5F5F5F5F5F5F5F5F5F5F5F5F5F5F5F5F5F5F5F5F5F5F5F5F5F5F5F5F5F5F5F5F5F5F5F5F5F5F5F5F5F5F5F5F5F5F5F5F5F5F5F5F5F5F5F5F5F5F5F5F5F5F5F5F5F5F5F5F5F5F5F5F5F5F5F5F5F5F5F5F5F5F5F5F5F5F5F5F5F5F5F5F5F5F5F5F5F5F5F5F5F5F5F5F5F5F5F5F5
310
F5F5F5F5F5F5F5F5F5F5F5F5F5F5F5F5F5F5F5F5F5F5F5E2F5F5F5F5F5F5F5F5F5F5F5F5F5F5F5F5E2F5F5F5F5E2E2F5F5F5F5E2F5F5F5F5F5F5F5F5F5F5F5F5F5F5F5F5E2F5F5F5F5F5F5F5F5F5F5F5F5F5F5F5F5F5F5F5F5F5F5F5F5F5F5F5F5F5F5F5F5F5F5F5F5F5F5F5F5F5F5F5F5F5F5F5F5F5F5F5F5F5F5F5F5F5F5
310
F5F5F5F5F5F5F5F5F5F5F5F5F5F5F5F5F5F5F5F5F5F5F5F5F5F5F5F5F5F5F5F5F5F5F5F5F5F5F5F5F5F5F5F5F5F5F5F5F5F5F5F5F5F5F5F5F5F5F5F5F5F5F5F5F5F5F5F5F5F5F5F5F5F5F5F5E2F5F5F5F5F5F5F5F5F5F5F5F5F5F5F5F5E2F5F5F5F5E2E2F5F5F5F5E2F5F5F5F5F5F5F5F5F5F5F5F5F5F5F5F5E2F5F5F5F5F5
310
F5F5F5F5F5F5F5F5F5F5F5F5F5F5F5F5F5F5F5F5F5F5F5F5F5F5F5F5F5F5F5F5F5F5F5F5F5F5F5F5F5F5F5F5F5F5F5F5F5F5F5F5F5F5F5F5F5F5F5F5F5F5F5F5F5F5F5F5F5F5F5F5F5F5F5F5F5F5F5F5F5F5F5F5F5F5F5F5F5F5F5F5F5F5F5F5F5F5F5F5F5F5F5F5F5F5F5F5F5F5F5F5F5F5F5F5F5F5F5F5F5F5F5F5F5F5F5
310
F5F5E2F5F5F5F5F5F5F5F5F5F5F5F5F5F5F5F5E2F5F5F5F5E2E2F5F5F5F5E2F5F5F5F5F5F5F5F5F5F5F5F5F5F5F5F5E2F5F5F5F5F5F5F5F5F5F5F5F5F5F5F5F5F5F5F5F5F5F5F5F5F5F5F5F5F5F5F5F5F5F5F5F5F5F5F5F5F5F5F5F5F5F5F5F5F5F5F5F5F5F5F5F5F5F5F5F5F5F5F5F5F5F5F5F5F5F5F5F5F5F5F5F5F5F5F5
310
F5F5F5F5F5F5F5F5F5F5F5F5F5F5F5F5F5F5F5F5F5F5F5F5F5F5F5F5F5F5F5F5F5F5F5F5F5F5F5F5F5F5F5F5F5F5F5F5F5F5F5F5F5F5F5E2F5F5F5F5F5F5F5F5F5F5F5F5F5F5F5F5E2F5F5F5F5E2E2F5F5F5F5E2F5F5F5F5F5F5F5F5F5F5F5F5F5F5F5F5E2F5F5F5F5F5F5F5F5F5F5F5F5F5F5F5F5F5F5F5F5F5F5F5F5F5F5
310
F5F5F5F5F5F5F5F5F5F5F5F5F5F5F5F5F5F5F5F5F5F5F5F5F5F5F5F5F5F5F5F5F5F5F5F5F5F5F5F5F5F5F5F5F5F5F5F5F5F5F5F5F5F5F5F5F5F5F5F5F5F5F5F5F5F5F5F5F5F5F5F5F5F5F5F5F5F5F5F5F5F5F5F5F5F5F5F5F5F5F5F5F5F5F5F5F5F5F5F5F5F5F5F5F5F5F5F5E2F5F5F5F5F5F5F5F5F5F5F5F5F5F5F5F5E2F5
310
F5F5F5E2E2F5F5F5F5E2F5F5F5F5F5F5F5F5F5F5F5F5F5F5F5F5E2F5F5F5F5F5F5F5F5F5F5F5F5F5F5F5F5F5F5F5F5F5F5F5F5F5F5F5F5F5F5F5F5F5F5F5F5F5F5F5F5F5F5F5F5F5F5F5F5F5F5F5F5F5F5F5F5F5F5F5F5F5F5F5F5F5F5F5F5F5F5F5F5F5F5F5F5F5F5F5F5F5F5F5F5F5F5F5F5F5F5F5F5F5F5F5F5F5F5F5F5
310
F5F5F5F5F5F5F5F5F5F5F5F5F5F5F5F5F5F5F5F5F5F5F5F5F5F5F5F5F5F5F5F5F5F5E2F5F5F5F5F5F5F5F5F5F5F5F5F5F5F5F5E2F5F5F5F5E2E2F5F5F5F5E2F5F5F5F5F5F5F5F5F5F5F5F5F5F5F5F5E2F5F5F5F5F5F5F5F5F5F5F5F5F5F5F5F5F5F5F5F5F5F5F5F5F5F5F5F5F5F5F5F5F5F5F5F5F5F5F5F5F5F5F5F5F5F5F5
310
F5F5F5F5F5F5F5F5F5F5F5F5F5F5F5F5F5F5F5F5F5F5F5F5F5F5F5F5F5F5F5F5F5F5F5F5F5F5F5F5F5F5F5F5F5F5F5F5F5F5F5F5F5F5F5F5F5F5F5F5F5F5F5F5F5F5F5F5F5F5F5F5F5F5F5F5F5F5F5F5F5F5F5F5F5F5F5E2F5F5F5F5F5F5F5F5F5F5F5F5F5F5F5F5E2F5F5F5F5E2E2F5F5F5F5E2F5F5F5F5F5F5F5F5F5F5F5
310
F5F5F5F5F5E2F5F5F5F5F5F5F5F5F5F5F5F5F5F5F5F5F5F5F5F5F5F5F5F5F5F5F5F5F5F5F5F5F5F5F5F5F5F5F5F5F5F5F5F5F5F5F5F5F5F5F5F5F5F5F5F5F5F5F5F5F5F5F5F5F5F5F5F5F5F5F5F5F5F5F5F5F5F5F5F5F5F5F5F5F5F5F5F5F5F5F5F5F5F5F5F5F5F5F5F5F5F5F5F5F5F5F5F5F5F5F5F5F5F5F5F5F5F5F5F5F5
310
F5F5F5F5F5F5F5F5F5F5F5F5F5E2F5F5F5F5F5F5F5F5F5F5F5F5F5F5F5F5E2F5F5F5F5E2E2F5F5F5F5E2F5F5F5F5F5F5F5F5F5F5F5F5F5F5F5F5E2F5F5F5F5F5F5F5F5F5F5F5F5F5F5F5F5F5F5F5F5F5F5F5F5F5F5F5F5F5F5F5F5F5F5F5F5F5F5F5F5F5F5F5F5F5F5F5F5F5F5F5F5F5F5F5F5F5F5F5F5F5F5F5F5F5F5F5F5
310
F5F5F5F5F5F5F5F5F5F5F5F5F5F5F5F5F5F5F5F5F5F5F5F5F5F5F5F5F5F5F5F5F5F5F5F5F5F5F5F5F5F5F5F5F5F5F5F5F5F5F5F5F5F5F5F5F5F5F5F5F5F5F5F5F5F5E2F5F5F5F5F5F5F5F5F5F5F5F5F5F5F5F5E2F5F5F5F5E2E2F5F5F5F5E2F5F5F5F5F5F5F5F5F5F5F5F5F5F5F5F5E2F5F5F5F5F5F5F5F5F5F5F5F5F5F5F5
310
F5F5F5F5F5F5F5F5F5F5F5F5F5F5F5F5F5F5F5F5F5F5F5F5F5F5F5F5F5F5F5F5F5F5F5F5F5F5F5F5F5F5F5F5F5F5F5F5F5F5F5F5F5F5F5F5F5F5F5F5F5F5F5F5F5F5F5F5F5F5F5F5F5F5F5F5F5F5F5F5F5F5F5F5F5F5F5F5F5F5F5F5F5F5F5F5F5F5F5F5F5F5F5F5F5F5F5F5F5F5F5F5F5F5F5F5F5F5F5E2F5F5F5F5F5F5F5
310
F5F5F5F5F5F5F5F5F5E2F5F5F5F5E2E2F5F5F5F5E2F5F5F5F5F5F5F5F5F5F5F5F5F5F5F5F5E2F5F5F5F5F5F5F5F5F5F5F5F5F5F5F5F5F5F5F5F5F5F5F5F5F5F5F5F5F5F5F5F5F5F5F5F5F5F5F5F5F5F5F5F5F5F5F5F5F5F5F5F5F5F5F5F5F5F5F5F5F5F5F5F5F5F5F5F5F5F5F5F5F5F5F5F5F5F5F5F5F5F5F5F5F5F5F5F5F5
310
F5F5F5F5F5F5F5F5F5F5F5F5F5F5F5F5F5F5F5F5F5F5F5F5F5F5F5F5F5F5F5F5F5F5F5F5F5F5F5F5F5F5F5F5F5E2F5F5F5F5F5F5F5F5F5F5F5F5F5F5F5F5E2F5F5F5F5E2E2F5F5F5F5E2F5F5F5F5F5F5F5F5F5F5F5F5F5F5F5F5E2F5F5F5F5F5F5F5F5F5F5F5F5F5F5F5F5F5F5F5F5F5F5F5F5F5F5F5F5F5F5F5F5F5F5F5F5
310
F5F5F5F5F5F5F5F5F5F5F5F5F5F5F5F5F5F5F5F5F5F5F5F5F5F5F5F5F5F5F5F5F5F5F5F5F5F5F5F5F5F5F5F5F5F5F5F5F5F5F5F5F5F5F5F5F5F5F5F5F5F5F5F5F5F5F5F5F5F5F5F5F5F5F5F5F5F5F5F5F5F5F5F5F5F5F5F5F5F5F5F5F5F5F5F5F5F5E2F5F5F5F5F5F5F5F5F5F5F5F5F5F5F5F5E2F5F5F5F5E2E2F5F5F5F5E2
310
F5F5F5F5F5F5F5F5F5F5F5F5F5F5F5F5E2F5F5F5F5F5F5F5F5F5F5F5F5F5F5F5F5F5F5F5F5F5F5F5F5F5F5F5F5F5F5F5F5F5F5F5F5F5F5F5F5F5F5F5F5F5F5F5F5F5F5F5F5F5F5F5F5F5F5F5F5F5F5F5F5F5F5F5F5F5F5F5F5F5F5F5F5F5F5F5F5F5F5F5F5F5F5F5F5F5F5F5F5F5F5F5F5F5F5F5F5F5F5F5F5F5F5F5F5F5F5
310
F5F5F5F5F5F5F5F5F5F5F5F5F5F5F5F5F5F5F5F5F5F5F5F5E2F5F5F5F5F5F5F5F5F5F5F5F5F5F5F5F5E2F5F5F5F5E2E2F5F5F5F5E2F5F5F5F5F5F5F5F5F5F5F5F5F5F5F5F5E2F5F5F5F5F5F5F5F5F5F5F5F5F5F5F5F5F5F5F5F5F5F5F5F5F5F5F5F5F5F5F5F5F5F5F5F5F5F5F5F5F5F5F5F5F5F5F5F5F5F5F5F5F5F5F5F5F5
310
F5F5F5F5F5F5F5F5F5F5F5F5F5F5F5F5F5F5F5F5F5F5F5F5F5F5F5F5F5F5F5F5F5F5F5F5F5F5F5F5F5F5F5F5F5F5F5F5F5F5F5F5F5F5F5F5F5F5F5F5F5F5F5F5F5F5F5F5F5F5F5F5F5F5F5F5F5E2F5F5F5F5F5F5F5F5F5F5F5F5F5F5F5F5E2F5F5F5F5E2E2F5F5F5F5E2F5F5F5F5F5F5F5F5F5F5F5F5F5F5F5F5E2F5F5F5F5
310
F5F5F5F5F5F5F5F5F5F5F5F5F5F5F5F5F5F5F5F5F5F5F5F5F5F5F5F5F5F5F5F5F5F5F5F5F5F5F5F5F5F5F5F5F5F5F5F5F5F5F5F5F5F5F5F5F5F5F5F5F5F5F5F5F5F5F5F5F5F5F5F5F5F5F5F5F5F5F5F5F5F5F5F5F5F5F5F5F5F5F5F5F5F5F5F5F5F5F5F5F5F5F5F5F5F5F5F5F5F5F5F5F5F5F5F5F5F5F5F5F5F5F5F5F5F5F5
310
F5F5F5E2F5F5F5F5F5F5F5F5F5F5F5F5F5F5F5F5E2F5F5F5F5E2E2F5F5F5F5F5F5F5F5F5F5F5F5F5F5F5F5F5F5F5F5F5E2F5F5F5F5F5F5F5F5F5F5F5F5F5F5F5F5F5F5F5F5F5F5F5F5F5F5F5F5F5F5F5F5F5F5F5F5F5F5F5F5F5F5F5F5F5F5F5F5F5F5F5F5F5F5F5F5F5F5F5F5F5F5F5F5F5F5F5F5F5F5F5F5F5F5F5F5F5F5
310
F5F5F5F5F5F5F5F5F5F5F5F5F5F5F5F5F5F5F5F5F5F5F5F5F5F5F5F5F5F5F5F5F5F5F5F5F5F5F5F5F5F5F5F5F5F5F5F5F5F5F5F5F5F5F5F5E2F5F5F5F5F5F5F5F5F5F5F5F5F5F5F5F5F5F5F5F5F5E2E2F5F5F5F5F5F5F5F5F5F5F5F5F5F5F5F5F5F5F5F5F5E2F5F5F5F5F5F5F5F5F5F5F5F5F5F5F5F5F5F5F5F5F5F5F5F5F5
310
F5F5F5F5F5F5F5F5F5F5F5F5F5F5F5F5F5F5F5F5F5F5F5F5F5F5F5F5F5F5F5F5F5F5F5F5F5F5F5F5F5F5F5F5F5F5F5F5F5F5F5F5F5F5F5F5F5F5F5F5F5F5F5F5F5F5F5F5F5F5F5F5F5F5F5F5F5F5F5F5F5F5F5F5F5F5F5F5F5F5F5F5F5F5F5F5F5F5F5F5F5F5F5F5F5F5F5F5F5E2F5F5F5F5F5F5F5F5F5F5F5F5F5F5F5F5F5
310
F5F5F5F5E2E2F5F5F5F5F5F5F5F5F5F5F5F5F5F5F5F5F5F5F5F5F5E2F5F5F5F5F5F5F5F5F5F5F5F5F5F5F5F5F5F5F5F5F5F5F5F5F5F5F5F5F5F5F5F5F5F5F5F5F5F5F5F5F5F5F5F5F5F5F5F5F5F5F5F5F5F5F5F5F5F5F5F5F5F5F5F5F5F5F5F5F5F5F5F5F5F5F5F5F5F5F5F5F5F5F5F5F5F5F5F5F5F5F5F5F5F5F5F5F5F5F5
310
F5F5F5F5F5F5F5F5F5F5F5F5F5F5F5F5F5F5F5F5F5F5F5F5F5F5F5F5F5F5F5F5F5F5F5E2F5F5F5F5F5F5F5F5F5F5F5F5F5F5F5F5F5F5F5F5F5E2E2F5F5F5F5F5F5F5F5F5F5F5F5F5F5F5F5F5F5F5F5F5E2F5F5F5F5F5F5F5F5F5F5F5F5F5F5F5F5F5F5F5F5F5F5F5F5F5F5F5F5F5F5F5F5F5F5F5F5F5F5F5F5F5F5F5F5F5F5
310
F5F5F5F5F5F5F5F5F5F5F5F5F5F5F5F5F5F5F5F5F5F5F5F5F5F5F5F5F5F5F5F5F5F5F5F5F5F5F5F5F5F5F5F5F5F5F5F5F5F5F5F5F5F5F5F5F5F5F5F5F5F5F5F5F5F5F5F5F5F5F5F5F5F5F5F5F5F5F5F5F5F5F5F5F5F5F5F5E2F5F5F5F5F5F5F5F5F5F5F5F5F5F5F5F5F5F5F5F5F5E2E2F5F5F5F5F5F5F5F5F5F5F5F5F5F5F5
310
F5F5F5F5F5F5E2E2E2E2E2E2E2E2E2E2E2E2E2E2E2E2E2E2E2E2E2E2E2E2E2E2E2E2E2E2E2E2E2E2E2E2E2E2E2E2E2E2E2E2E2E2E2E2E2E2E2E2E2E2E2E2E2E2E2E2E2E2E2E2E2E2E2E2E2E2E2E2E2E2E2E2E2E2E2E2E2E2E2E2E2E2E2E2E2E2E2E2E2E2E2E2E2E2E2E2E2E2E2E2E2E2E2E2E2E2E2E2E2E2E2E2E2E2E2E2E2
310
E2E2E2E2E2E2E2E2E2E2E2E2E2E2E2F5F5F5F5F5F5F5F5F5F5F5F5F5F5F5F5F5F5F5F5F5E2E2F5F5F5F5F5F5F5F5F5F5F5F5F5F5F5F5F5F5F5F5F5F5F5F5F5F5F5F5F5F5F5F5F5F5F5F5F5F5F5F5F5F5F5F5F5F5F5F5F5F5F5F5F5F5F5F5F5F5F5F5F5F5F5F5F5F5F5F5F5F5F5F5F5F5F5F5F5F5F5F5F5F5F5F5F5F5F5F5F5
310
F5F5F5F5F5F5F5F5F5F5F5F5F5F5F5F5F5F5F5F5F5F5F5F5F5F5F5F5F5F5F5F5F5F5F5F5F5F5F5F5F5F5F5F5F5F5F5F5F5F5F5F5F5F5F5F5F5F5F5F5F5F5F5F5F5F5F5F5F5F5F5F5F5F5F5F5F5F5F5F5F5F5F5F5F5F5F5F5F5E2E2F5F5F5F5F5F5F5F5F5F5F5F5F5F5F5F5F5F5F5F5F5F5F5F5F5F5F5F5F5F5F5F5F5F5F5F5
310
F5F5F5F5F5F5F5F5F5F5F5F5F5F5F5F5F5F5F5F5F5F5F5F5F5F5F5F5F5F5F5F5F5F5F5F5F5F5F5F5F5F5F5F5F5F5F5F5F5F5F5F5F5F5F5F5F5F5F5F5F5F5F5F5F5F5F5F5F5F5F5F5F5F5F5F5F5F5F5F5F5F5F5F5F5F5F5F5F5F5F5F5F5F5F5F5F5F5F5F5F5F5F5F5F5F5F5F5F5F5F5F5F5F5F5F5F5F5F5F5F5F5F5F5F5F5F5
310
F5F5F5F5F5F5F5F5F5F5F5F5F5F5F5E2E2F5F5F5F5F5F5F5F5F5F5F5F5F5F5F5F5F5F5F5F5F5F5F5F5F5F5F5F5F5F5F5F5F5F5F5F5F5F5F5F5F5F5F5F5F5F5F5F5F5F5F5F5F5F5F5F5F5F5F5F5F5F5F5F5F5F5F5F5F5F5F5F5F5F5F5F5F5F5F5F5F5F5F5F5F5F5F5F5F5F5F5F5F5F5F5F5F5F5F5F5F5F5F5F5F5F5F5F5F5F5
310
F5F5F5F5F5F5F5F5F5F5F5F5F5F5F5F5F5F5F5F5F5F5F5F5F5F5F5F5F5F5F5F5F5F5F5F5F5F5F5F5F5F5F5F5F5F5F5F5F5F5F5F5F5F5F5F5F5F5F5F5F5F5F5F5F5F5F5F5E2E2F5F5F5F5F5F5F5F5F5F5F5F5F5F5F5F5F5F5F5F5F5F5F5F5F5F5F5F5F5F5F5F5F5F5F5F5F5F5F5F5F5F5F5F5F5F5F5F5F5F5F5F5F5F5F5F5F5
310
F5F5F5F5F5F5F5F5F5F5F5F5F5F5F5F5F5F5F5F5F5F5F5F5F5F5F5F5F5F5F5F5F5F5F5F5F5F5F5F5F5F5F5F5F5F5F5F5F5F5F5F5F5F5F5F5F5F5F5F5F5F5F5F5F5F5F5F5F5F5F5F5F5F5F5F5F5F5F5F5F5F5F5F5F5F5F5F5F5F5F5F5F5F5F5F5F5F5F5F5F5F5F5F5F5F5F5F5F5F5F5F5F5F5F5F5F5F5F5F5F5E2E2F5F5F5F5
310
E2F5F5F5F5F5F5F5F5F5F5F5F5F5F5F5F5F5F5F5F5F5F5F5F5F5F5F5F5F5F5F5F5F5F5F5F5F5F5F5F5F5F5F5F5F5F5F5F5F5F5F5F5F5F5F5F5F5F5F5F5F5F5F5F5F5F5F5F5F5F5F5F5F5F5F5F5F5F5F5F5F5F5F5F5F5F5F5F5F5F5F5F5F5F5F5F5F5F5F5F5F5F5F5F5F5F5F5F5F5F5F5F5F5F5F5F5F5F5F5F5F5F5F5F5F5F5
310
F5F5F5F5F5F5F5F5F5F5F5F5F5F5F5F5F5F5F5F5F5F5F5F5F5F5F5F5F5F5F5F5F5F5F5F5F5F5F5F5F5F5E2F5F5F5F5E2E2F5F5F5F5E2F5F5F5F5F5F5F5F5F5F5F5F5F5F5F5F5F5F5F5F5F5F5F5F5F5F5F5F5F5F5F5F5F5F5F5F5F5F5F5F5F5F5F5F5F5F5F5F5F5F5F5F5F5F5F5F5F5F5F5F5F5F5F5F5F5F5F5F5F5F5F5F5F5
310
F5F5F5F5F5F5F5F5F5F5F5F5F5F5F5F5F5F5F5F5F5F5F5F5F5F5F5F5F5F5F5F5F5F5F5F5F5F5F5F5F5F5F5F5F5F5F5F5F5F5F5F5F5F5F5F5F5F5F5F5F5F5F5F5F5F5F5F5F5F5F5F5F5F5F5F5F5F5F5F5F5F5F5F5F5F5F5F5F5F5F5F5F5F5F5E2F5F5F5F5E2E2F5F5F5F5E2F5F5F5F5F5F5F5F5F5F5F5F5F5F5F5F5F5F5F5F5
310
F5F5F5F5F5F5F5F5F5F5F5F5F5F5F5F5F5F5F5F5F5F5F5F5F5F5F5F5F5F5F5F5F5F5F5F5F5F5F5F5F5F5F5F5F5F5F5F5F5F5F5F5F5F5F5F5F5F5F5F5F5F5F5F5F5F5F5F5F5F5F5F5F5F5F5F5F5F5F5F5F5F5F5F5F5F5F5F5F5F5F5F5F5F5F5F5F5F5F5F5F5F5F5F5F5F5F5F5F5F5F5F5F5F5F5F5F5F5F5F5F5F5F5F5F5F5F5
310
F5F5F5F5F5F5F5F5F5F5F5F5F5F5F5F5F5F5F5F5F5E2F5F5F5F5E2E2F5F5F5F5E2F5F5F5F5F5F5F5F5F5F5F5F5F5F5F5F5F5F5F5F5F5F5F5F5F5F5F5F5F5F5F5F5F5F5F5F5F5F5F5F5F5F5F5F5F5F5F5F5F5F5F5F5F5F5F5F5F5F5F5F5F5F5F5F5F5F5F5F5F5F5F5F5F5F5F5F5F5F5F5F5F5F5F5F5F5F5F5F5F5F5F5F5F5F5
310
F5F5F5F5F5F5F5F5F5F5F5F5F5F5F5F5F5F5F5F5F5F5F5F5F5F5F5F5F5F5F5F5F5F5F5F5F5F5F5F5F5F5F5F5F5F5F5F5F5F5F5F5F5F5F5F5F5F5F5F5F5F5F5F5F5F5F5F5F5F5F5F5F5F5E2F5F5F5F5E2E2F5F5F5F5E2F5F5F5F5F5F5F5F5F5F5F5F5F5F5F5F5F5F5F5F5F5F5F5F5F5F5F5F5F5F5F5F5F5F5F5F5F5F5F5F5F5
310
F5F5F5F5F5F5F5F5F5F5F5F5F5F5F5F5F5F5F5F5F5F5F5F5F5F5F5F5F5F5F5F5F5F5F5F5F5F5F5F5F5F5F5F5F5F5F5F5F5F5F5F5F5F5F5F5F5F5F5F5F5F5F5F5F5F5F5F5F5F5F5F5F5F5F5F5F5F5F5F5F5F5F5F5F5F5F5F5F5F5F5F5F5F5F5F5F5F5F5F5F5F5F5F5F5F5F5F5F5F5F5F5F5F5F5F5F5F5F5F5F5F5F5F5F5F5F5
310
E2F5F5F5F5E2E2F5F5F5F5E2F5F5F5F5F5F5F5F5F5F5F5F5F5F5F5F5F5F5F5F5F5F5F5F5F5F5F5F5F5F5F5F5F5F5F5F5F5F5F5F5F5F5F5F5F5F5F5F5F5F5F5F5F5F5F5F5F5F5F5F5F5F5F5F5F5F5F5F5F5F5F5F5F5F5F5F5F5F5F5F5F5F5F5F5F5F5F5F5F5F5F5F5F5F5F5F5F5F5F5F5F5F5F5F5F5F5F5F5F5F5F5F5F5F5F5
310
F5F5F5F5F5F5F5F5F5F5F5F5F5F5F5F5F5F5F5F5F5F5F5F5F5F5F5F5F5F5F5F5F5F5F5F5F5F5F5F5F5F5F5F5F5F5F5F5F5F5F5F5F5E2F5F5F5F5E2E2F5F5F5F5E2F5F5F5F5F5F5F5F5F5F5F5F5F5F5F5F5F5F5F5F5F5F5F5F5F5F5F5F5F5F5F5F5F5F5F5F5F5F5F5F5F5F5F5F5F5F5F5F5F5F5F5F5F5F5F5F5F5F5F5F5F5F5
310
F5F5F5F5F5F5F5F5F5F5F5F5F5F5F5F5F5F5F5F5F5F5F5F5F5F5F5F5F5F5F5F5F5F5F5F5F5F5F5F5F5F5F5F5F5F5F5F5F5F5F5F5F5F5F5F5F5F5F5F5F5F5F5F5F5F5F5F5F5F5F5F5F5F5F5F5F5F5F5F5F5F5F5F5F5F5F5F5F5F5F5F5F5F5F5F5F5F5F5F5F5F5F5F5F5F5E2F5F5F5F5E2E2F5F5F5F5E2F5F5F5F5F5F5F5F5F5
310
F5F5F5F5F5F5F5F5F5F5F5F5F5F5F5F5F5F5F5F5F5F5F5F5F5F5F5F5F5F5F5F5F5F5F5F5F5F5F5F5F5F5F5F5F5F5F5F5F5F5F5F5F5F5F5F5F5F5F5F5F5F5F5F5F5F5F5F5F5F5F5F5F5F5F5F5F5F5F5F5F5F5F5F5F5F5F5F5F5F5F5F5F5F5F5F5F5F5F5F5F5F5F5F5F5F5F5F5F5F5F5F5F5F5F5F5F5F5F5F5F5F5F5F5F5F5F5
310
F5F5F5F5F5F5F5F5F5F5F5F5F5F5F5F5F5F5F5F5F5F5F5F5F5F5F5F5F5F5F5F5E2F5F5F5F5E2E2F5F5F5F5E2E2E2E2E2E2E2E2F5F5F5F5F5F5F5F5F5E2E2E2E2E2E2E2E2E2E2E2E2E2E2E2F5F5F5F5F5F5F5F5F5E2E2E2E2E2E2E2E2E2E2E2E2E2E2E2E2F5F5F5F5F5F5F5F5E2E2E2E2E2E2E2E2E2E2E2E2E2E2E2E2F5F5F5
310
F5F5F5F5F5E2E2E2E2E2E2E2E2E2E2E2E2E2E2E2E2F5F5F5F5F5F5F5F5E2E2E2E2E2E2E2E2E2E2E2E2E2E2E2E2F5F5F5F5F5F5F5F5F5E2E2E2E2E2E2E2E2E2E2E2E2E2E2E2F5F5F5F5F5F5F5F5F5E2E2E2E2E2E2E2E2F5F5F5F5E2E2F5F5F5F5F5F5F5F5F5F5F5F5F5F5F5F5F5F5F5F5F5F5F5F5F5F5F5F5F5F5F5F5F5F5F5
310
F5F5F5F5F5F5F5F5F5F5F5F5F5F5F5F5F5F5F5F5F5F5F5F5F5F5F5F5F5F5F5F5F5F5F5F5F5F5F5F5F5F5F5F5F5F5F5F5F5F5F5F5F5F5F5F5F5F5F5F5F5F5F5F5F5F5F5F5F5F5F5F5F5F5F5F5F5F5F5F5F5F5F5F5F5F5F5F5F5F5F5F5F5F5F5F5F5F5F5F5F5F5F5F5F5F5F5F5F5F5F5F5F5F5F5F5F5F5F5F5F5F5F5F5F5F5F5
310
F5F5F5F5F5F5F5F5F5F5F5F5F5F5F5F5E2E2F5F5F5F5F5F5F5F5F5F5F5F5F5F5F5F5F5F5F5F5F5F5F5F5F5F5F5F5F5F5F5F5F5F5F5F5F5F5F5F5F5F5F5F5F5F5F5F5F5F5F5F5F5F5F5F5F5F5F5F5F5F5F5F5F5F5F5F5F5F5F5F5F5F5F5F5F5F5F5F5F5F5F5F5F5F5F5F5F5F5F5F5F5F5F5F5F5F5F5F5F5F5F5F5F5F5F5F5F5
310
F5F5F5F5F5F5F5F5F5F5F5F5F5F5F5F5F5F5F5F5F5F5F5F5F5F5F5F5F5F5F5F5F5F5F5F5F5F5F5F5F5F5F5F5F5F5F5F5F5F5F5F5F5F5F5F5F5F5F5F5F5F5F5F5F5F5F5F5F5E2E2F5F5F5F5F5F5F5F5F5F5F5F5F5F5F5F5F5F5F5F5F5F5F5F5F5F5F5F5F5F5F5F5F5F5F5F5F5F5F5F5F5F5F5F5F5F5F5F5F5F5F5F5F5F5F5F5
310
F5F5F5F5F5F5F5F5F5F5F5F5F5F5F5F5F5F5F5F5F5F5F5F5F5F5F5F5F5F5F5F5F5F5F5F5F5F5F5F5F5F5F5F5F5F5F5F5F5F5F5F5F5F5F5F5F5F5F5F5F5F5F5F5F5F5F5F5F5F5F5F5F5F5F5F5F5F5F5F5F5F5F5F5F5F5F5F5F5F5F5F5F5F5F5F5F5F5F5F5F5F5F5F5F5F5F5F5F5F5F5F5F5F5F5F5F5F5F5F5F5F5E2E2E2E2E2
310
E2E2E2E2E2E2E2E2E2E2E2E2E2E2E2E2E2E2E2E2E2E2E2E2E2E2E2E2E2E2E2E2E2E2E2E2E2E2E2E2E2E2E2E2E2E2E2E2E2E2E2E2E2E2E2E2E2E2E2E2E2E2E2E2E2E2E2E2E2E2E2E2E2E2E2E2E2E2E2E2E2E2E2E2E2E2E2E2E2E2E2E2E2E2E2E2E2E2E2E2E2E2E2E2E2E2E2E2E2E2E2E2E2E2E2E2E2E2E2E2E2E2E2E2E2E2E2
310
E2E2E2E2E2E2E2E2E2E2E2E2E2E2E2E2E2E2E2E2E2E2E2E2E2E2E2E2E2E2E2E2E2E2E2E2E2E2E2E2E2E2E2E2E2E2E2E2E2
  0
XRECORD
  5
564B0
102
{ACAD_REACTORS
330
B5
102
}
330
B5
100
AcDbXrecord
280
     1
102
SHADEPLOT
 70
     0
102
SHADEPLOTRESLEVEL
 70
     2
102
SHADEPLOTCUSTOMDPI
 70
   300
  0
XRECORD
  5
B6
102
{ACAD_REACTORS
330
B5
102
}
330
B5
100
AcDbXrecord
280
     1
310
28000000B40000008B0000000100080000000000BC610000000000000000000000010000000000000000000000000000FFFFFF000000000000000000000000000000000000000000000000000000000000000000330000006600000099000000CC000000FF00000000330000333300006633000099330000CC330000FF3300
310
0000660000336600006666000099660000CC660000FF66000000990000339900006699000099990000CC990000FF99000000CC000033CC000066CC000099CC0000CCCC0000FFCC000000FF000033FF000066FF000099FF0000CCFF0000FFFF000000003300330033006600330099003300CC003300FF003300003333003333
310
33006633330099333300CC333300FF33330000663300336633006666330099663300CC663300FF66330000993300339933006699330099993300CC993300FF99330000CC330033CC330066CC330099CC3300CCCC3300FFCC330000FF330033FF330066FF330099FF3300CCFF3300FFFF330000006600330066006600660099
310
006600CC006600FF00660000336600333366006633660099336600CC336600FF33660000666600336666006666660099666600CC666600FF66660000996600339966006699660099996600CC996600FF99660000CC660033CC660066CC660099CC6600CCCC6600FFCC660000FF660033FF660066FF660099FF6600CCFF6600
310
FFFF660000009900330099006600990099009900CC009900FF00990000339900333399006633990099339900CC339900FF33990000669900336699006666990099669900CC669900FF66990000999900339999006699990099999900CC999900FF99990000CC990033CC990066CC990099CC9900CCCC9900FFCC990000FF99
310
0033FF990066FF990099FF9900CCFF9900FFFF99000000CC003300CC006600CC009900CC00CC00CC00FF00CC000033CC003333CC006633CC009933CC00CC33CC00FF33CC000066CC003366CC006666CC009966CC00CC66CC00FF66CC000099CC003399CC006699CC009999CC00CC99CC00FF99CC0000CCCC0033CCCC0066CC
310
CC0099CCCC00CCCCCC00FFCCCC0000FFCC0033FFCC0066FFCC0099FFCC00CCFFCC00FFFFCC000000FF003300FF006600FF009900FF00CC00FF00FF00FF000033FF003333FF006633FF009933FF00CC33FF00FF33FF000066FF003366FF006666FF009966FF00CC66FF00FF66FF000099FF003399FF006699FF009999FF00CC
310
99FF00FF99FF0000CCFF0033CCFF0066CCFF0099CCFF00CCCCFF00FFCCFF0000FFFF0033FFFF0066FFFF0099FFFF00CCFFFF00FFFFFF00000000000D0D0D001A1A1A00282828003535350043434300505050005D5D5D006B6B6B00787878008686860093939300A1A1A100AEAEAE00BBBBBB00C9C9C900D6D6D600E4E4E400
310
F1F1F100FFFFFF0000000000000000000000000000000000000000000000000000000000000000000000000000000000F5F5F5F5F5F5F5F5F5F5F5F5F5F5F5F5F5F5F5F5F5F5F5F5F5F5F5F5F5F5F5F5F5F5F5F5F5F5F5F5F5F5F5F5F5F5F5F5F5F5F5F5F5F5F5F5F5F5F5F5F5F5F5F5F5F5F5F5F5F5F5F5F5F5F5F5F5F5F5
310
F5F5F5F5F5F5F5F5F5F5F5F5F5F5F5F5F5F5F5F5F5F5F5F5F5F5F5F5F5F5F5F5F5F5F5F5F5F5F5F5F5F5F5F5F5F5F5F5F5F5F5F5F5F5F5F5F5F5F5F5F5F5F5F5F5F5F5F5F5F5F5F5F5F5F5F5F5F5F5F5F5F5F5F5F5F5F5F5F5F5F5F5F5F5F5F5F5F5F5F5F5F5E2E2E2E2E2E2E2E2E2E2E2E2E2E2E2E2E2E2E2E2E2E2E2E2E2
310
E2E2E2E2E2E2E2E2E2E2E2E2E2E2E2E2E2E2E2E2E2E2E2E2E2E2E2E2E2E2E2E2E2E2E2E2E2E2E2E2E2E2E2E2E2E2E2E2E2E2E2E2E2E2E2E2E2E2E2E2E2E2E2E2E2E2E2E2E2E2E2E2E2E2E2E2E2E2E2E2E2E2E2E2E2E2E2E2E2E2E2E2E2E2E2E2E2E2E2E2E2E2E2E2E2E2E2E2E2E2E2E2E2E2E2E2E2E2E2E2E2E2E2E2E2E2E2
310
E2E2E2E2E2E2E2E2E2E2E2E2E2E2E2E2E2E2E2E2E2E2E2E2E2E2F5F5E2E2E2E2E2E2E2E2E2E2E2E2E2E2E2E2E2E2E2E2E2E2E2E2E2E2E2E2E2E2E2E2E2E2E2E2E2E2E2E2E2E2E2E2E2E2E2E2E2E2E2E2E2E2E2E2E2E2E2E2E2E2E2E2E2E2E2E2E2E2E2E2E2E2E2E2E2E2E2E2E2E2E2E2E2E2E2E2E2E2E2E2E2E2E2E2E2E2E2
310
E2E2E2E2E2E2E2E2E2E2E2E2E2E2E2E2E2E2E2E2E2E2E2E2E2E2E2E2E2E2E2E2E2E2E2E2E2E2E2E2E2E2E2E2E2E2E2E2E2E2E2E2E2E2E2E2E2E2E2E2E2E2E2E2E2E2E2E2E2E2E2E2E2E2E2E2E2E2E2F5F5E2E2E2E2E2E2E2E2E2E2E2E2E2E2E2E2E2E2E2E2E2E2E2E2E2E2E2E2E2E2E2E2E2E2E2E2E2E2E2E2E2E2E2E2E2E2
310
E2E2E2E2E2E2E2E2E2E2E2E2E2E2E2E2E2E2E2E2E2E2E2E2E2E2E2E2E2E2E2E2E2E2E2E2E2E2E2E2E2E2E2E2E2E2E2E2E2E2E2E2E2E2E2E2E2E2E2E2E2E2E2E2E2E2E2E2E2E2E2E2E2E2E2E2E2E2E2E2E2E2E2E2E2E2E2E2E2E2E2E2E2E2E2E2E2E2E2E2E2E2E2E2E2E2E2E2E2E2E2E2E2E2E2E2E2E2E2E2E2E2E2E2E2E2E2
310
E2E2E2E2E2F5F5E2E2E2E2E2E2E2E2E2E2E2E2E2E2E2E2E2E2E2E2E2E2E2E2E2E2E2E2E2E2E2E2E2E2E2E2E2E2E2E2E2E2E2E2E2E2E2E2E2E2E2E2E2E2E2E2E2E2E2E2E2E2E2E2E2E2E2E2E2E2E2E2E2E2E2E2E2E2E2E2E2E2E2E2E2E2E2E2E2E2E2E2E2E2E2E2E2E2E2E2E2E2E2E2E2E2E2E2E2E2E2E2E2E2E2E2E2E2E2E2
310
E2E2E2E2E2E2E2E2E2E2E2E2E2E2E2E2E2E2E2E2E2E2E2E2E2E2E2E2E2E2E2E2E2E2E2E2E2E2E2E2E2E2E2E2E2E2E2E2E2E2E2E2E2E2E2E2E2E2F5F5E2E2E2F5F5F5F5F5F5F5F5E2E2E2E2E2E2E2E2E2F5F5F5F5F5F5F5F5F5F5F5F5F5F5F5F5E2E2E2E2E2E2E2E2E2F5F5F5F5F5F5F5F5F5F5F5F5F5F5F5E2E2E2E2E2E2E2
310
E2E2F5F5F5F5F5F5F5F5F5F5F5F5F5F5F5F5E2E2E2E2E2E2E2E2F5F5F5F5F5F5F5F5F5F5F5F5F5F5F5F5E2E2E2E2E2E2E2E2E2F5F5F5F5F5F5F5F5F5F5F5F5F5F5F5E2E2E2E2E2E2E2E2E2F5F5F5F5F5F5F5F5F5F5F5F5F5F5F5F5E2E2E2E2E2E2E2E2E2F5F5F5F5F5F5F5F5E2E2E2F5F5E2E2E2F5E2E2E2E2E2E2E2E2E2E2
310
E2E2E2E2E2E2E2E2E2E2E2E2E2E2E2E2E2E2E2E2E2E2E2E2E2E2E2E2E2E2E2E2E2E2E2E2E2E2E2E2E2E2E2E2E2E2E2E2E2E2E2E2E2E2E2E2E2E2E2E2E2E2E2E2E2E2E2E2E2E2E2E2E2E2E2E2E2E2E2E2E2E2E2E2E2E2E2E2E2E2E2E2E2E2E2E2E2E2E2E2E2E2E2E2E2E2E2E2E2E2E2E2E2E2E2E2E2E2E2E2E2E2E2E2E2E2E2
310
E2E2E2E2E2E2E2E2E2E2E2E2E2E2E2E2E2E2E2E2E2E2E2E2E2E2E2E2E2E2E2E2E2F5E2E2E2F5F5E2E2E2F5E2E2E2E2E2E2E2E2E2E2E2E2E2E2E2E2E2E2E2E2E2E2E2E2E2E2E2E2E2E2E2E2E2E2E2E2E2E2E2E2E2E2E2E2E2E2E2E2E2E2E2E2E2E2E2E2E2E2E2E2E2E2E2E2E2E2E2E2E2E2E2E2E2E2E2E2E2E2E2E2E2E2E2E2
310
E2E2E2E2E2E2E2E2E2E2E2E2E2E2E2E2E2E2E2E2E2E2E2E2E2E2E2E2E2E2E2E2E2E2E2E2E2E2E2E2E2E2E2E2E2E2E2E2E2E2E2E2E2E2E2E2E2E2E2E2E2E2E2E2E2E2E2E2E2E2E2E2E2E2E2E2E2E2E2E2E2E2E2E2E2E2F5E2E2E2F5F5E2E2E2F5E2E2E2E2E2E2E2E2E2E2E2E2E2E2E2E2E2E2E2E2E2E2E2E2E2E2E2E2E2E2E2
310
E2E2E2E2E2E2E2E2E2E2E2E2E2E2E2E2E2E2E2E2E2E2E2E2E2E2E2E2E2E2E2E2E2E2E2E2E2E2E2E2E2E2E2E2E2E2E2E2E2E2E2E2E2E2E2E2E2E2E2E2E2E2E2E2E2E2E2E2E2E2E2E2E2E2E2E2E2E2E2E2E2E2E2E2E2E2E2E2E2E2E2E2E2E2E2E2E2E2E2E2E2E2E2E2E2E2E2E2E2E2E2E2E2E2E2E2E2E2E2E2E2E2E2E2E2E2E2
310
E2E2E2E2E2E2E2E2E2E2E2E2F5E2E2E2F5F5E2E2E2F5E2E2E2E2E2E2E2E2E2E2E2E2E2E2E2E2E2E2E2E2E2E2E2E2E2E2E2E2E2E2E2E2E2E2E2E2E2E2E2E2E2E2E2E2E2E2E2E2E2E2E2E2E2E2E2E2E2E2E2E2E2E2E2E2E2E2E2E2E2E2E2E2E2E2E2E2E2E2E2E2E2E2E2E2E2E2E2E2E2E2E2E2E2E2E2E2E2E2E2E2E2E2E2E2E2
310
E2E2E2E2E2E2E2E2E2E2E2E2E2E2E2E2E2E2E2E2E2E2E2E2E2E2E2E2E2E2E2E2E2E2E2E2E2E2E2E2E2E2E2E2E2E2E2E2E2E2E2E2E2E2E2E2E2E2E2E2E2E2E2E2E2F5E2E2E2F5F5E2E2E2F5E2E2E2E2E2E2E2E2E2E2E2E2E2E2E2E2E2E2E2E2E2E2E2E2E2E2E2E2E2E2E2E2E2E2E2E2E2E2E2E2E2E2E2E2E2E2E2E2E2E2E2E2
310
E2E2E2E2E2E2E2E2E2E2E2E2E2E2E2E2E2E2E2E2E2E2E2E2E2E2E2E2E2E2E2E2E2E2E2E2E2E2E2E2E2E2E2E2E2E2E2E2E2E2E2E2E2E2E2E2E2E2E2E2E2E2E2E2E2E2E2E2E2E2E2E2E2E2E2E2E2E2E2E2E2E2E2E2E2E2E2E2E2E2E2E2E2E2E2E2E2E2E2E2E2E2E2E2E2E2E2E2E2E2E2E2E2E2E2E2E2E2F5E2E2E2F5F5E2E2E2
310
F5E2E2E2E2E2E2E2E2E2E2E2E2E2E2E2E2E2E2E2E2E2E2E2E2E2E2E2E2E2E2E2E2E2E2E2E2E2E2E2E2E2E2E2E2E2E2E2E2E2E2E2E2E2E2E2E2E2E2E2E2E2E2E2E2E2E2E2E2E2E2E2E2E2E2E2E2E2E2E2E2E2E2E2E2E2E2E2E2E2E2E2E2E2E2E2E2E2E2E2E2E2E2E2E2E2E2E2E2E2E2E2E2E2E2E2E2E2E2E2E2E2E2E2E2E2E2
310
E2E2E2E2E2E2E2E2E2E2E2E2E2E2E2E2E2E2E2E2E2E2E2E2E2E2E2E2E2E2E2E2E2E2E2E2E2E2E2E2E2E2E2E2F5E2E2E2F5F5E2E2E2F5E2E2E2E2E2E2E2E2E2E2E2E2E2E2E2E2E2E2E2E2E2E2E2E2E2E2E2E2E2E2E2E2E2E2E2E2E2E2E2E2E2E2E2E2E2E2E2E2E2E2E2E2E2E2E2E2E2E2E2E2E2E2E2E2E2E2E2E2E2E2E2E2E2
310
E2E2E2E2E2E2E2E2E2E2E2E2E2E2E2E2E2E2E2E2E2E2E2E2E2E2E2E2E2E2E2E2E2E2E2E2E2E2E2E2E2E2E2E2E2E2E2E2E2E2E2E2E2E2E2E2E2E2E2E2E2E2E2E2E2E2E2E2E2E2E2E2E2E2E2E2E2E2E2E2E2E2E2E2E2E2E2E2E2E2E2E2E2E2E2E2E2F5E2E2E2F5F5E2E2E2F5E2E2E2E2E2E2E2E2E2E2E2E2E2E2E2E2E2E2E2E2
310
E2E2E2E2E2E2E2E2E2E2E2E2E2E2E2E2E2E2E2E2E2E2E2E2E2E2E2E2E2E2E2E2E2E2E2E2E2E2E2E2E2E2E2E2E2E2E2E2E2E2E2E2E2E2E2E2E2E2E2E2E2E2E2E2E2E2E2E2E2E2E2E2E2E2E2E2E2E2E2E2E2E2E2E2E2E2E2E2E2E2E2E2E2E2E2E2E2E2E2E2E2E2E2E2E2E2E2E2E2E2E2E2E2E2E2E2E2E2E2E2E2E2E2E2E2E2E2
310
E2E2E2E2E2E2E2E2E2E2E2E2E2E2E2E2E2E2E2E2E2E2E2F5E2E2E2F5F5E2E2E2E2E2E2E2E2E2E2E2E2E2E2E2E2E2E2E2E2E2E2E2E2E2E2E2E2E2E2E2E2E2E2E2E2E2E2E2E2E2E2E2E2E2E2E2E2E2E2E2E2E2E2E2E2E2E2E2E2E2E2E2E2E2E2E2E2E2E2E2E2E2E2E2E2E2E2E2E2E2E2E2E2E2E2E2E2E2E2E2E2E2E2E2E2E2E2
310
E2E2E2E2E2E2E2E2E2E2E2E2E2E2E2E2E2E2E2E2E2E2E2E2E2E2E2E2E2E2E2E2E2E2E2E2E2E2E2E2E2E2E2E2E2E2E2E2E2E2E2E2E2E2E2E2E2E2E2E2E2E2E2E2E2E2E2E2E2E2E2E2E2E2E2E2E2E2E2E2F5F5E2E2E2E2E2E2E2E2E2E2E2E2E2E2E2E2E2E2E2E2E2E2E2E2E2E2E2E2E2E2E2E2E2E2E2E2E2E2E2E2E2E2E2E2E2
310
E2E2E2E2E2E2E2E2E2E2E2E2E2E2E2E2E2E2E2E2E2E2E2E2E2E2E2E2E2E2E2E2E2E2E2E2E2E2E2E2E2E2E2E2E2E2E2E2E2E2E2E2E2E2E2E2E2E2E2E2E2E2E2E2E2E2E2E2E2E2E2E2E2E2E2E2E2E2E2E2E2E2E2E2E2E2E2E2E2E2E2E2E2E2E2E2E2E2E2E2E2E2E2E2E2E2E2E2E2E2E2E2E2E2E2E2E2E2E2E2E2E2E2E2E2E2E2
310
E2E2E2E2E2E2F5F5E2E2E2E2E2E2E2E2E2E2E2E2E2E2E2E2E2E2E2E2E2E2E2E2E2E2E2E2E2E2E2E2E2E2E2E2E2E2E2E2E2E2E2E2E2E2E2E2E2E2E2E2E2E2E2E2E2E2E2E2E2E2E2E2E2E2E2E2E2E2E2E2E2E2E2E2E2E2E2E2E2E2E2E2E2E2E2E2E2E2E2E2E2E2E2E2E2E2E2E2E2E2E2E2E2E2E2E2E2E2E2E2E2E2E2E2E2E2E2
310
E2E2E2E2E2E2E2E2E2E2E2E2E2E2E2E2E2E2E2E2E2E2E2E2E2E2E2E2E2E2E2E2E2E2E2E2E2E2E2E2E2E2E2E2E2E2E2E2E2E2E2E2E2E2E2E2E2E2E2F5F5E2E2E2E2E2E2E2E2E2E2E2E2E2E2E2E2E2E2E2E2E2E2E2E2E2E2E2E2E2E2E2E2E2E2E2E2E2E2E2E2E2E2E2E2E2E2E2E2E2E2E2E2E2E2E2E2E2E2E2E2E2E2E2E2E2E2
310
E2E2E2E2E2E2E2E2E2E2E2E2E2E2E2E2E2E2E2E2E2E2E2E2E2E2E2E2E2E2E2E2E2E2E2E2E2E2E2E2E2E2E2E2E2E2E2E2E2E2E2E2E2E2E2E2E2E2E2E2E2E2E2E2E2E2E2E2E2E2E2E2E2E2E2E2E2E2E2E2E2E2E2E2E2E2E2E2E2E2E2E2E2E2E2E2E2E2E2E2E2E2E2E2E2E2E2E2E2E2E2E2F5F5E2E2E2E2E2E2E2E2E2E2E2E2E2
310
E2E2E2E2E2E2E2F5F5F5F5F5F5F5F5F5F5F5F5F5F5F5F5F5F5F5F5F5F5F5F5F5F5F5F5F5F5F5F5F5F5F5F5F5F5F5F5F5F5F5F5F5F5F5F5F5F5F5F5F5F5F5F5F5F5F5F5F5F5F5F5F5F5F5F5F5F5F5F5F5F5F5F5F5F5F5F5F5F5F5F5F5F5F5F5F5F5F5F5F5F5F5F5F5F5F5F5F5F5F5F5F5F5F5F5F5F5F5F5F5F5F5F5F5F5F5F5
310
F5F5F5F5F5F5F5F5F5F5F5F5F5F5F5F5F5F5E2E2E2E2E2E2E2E2E2E2E2E2E2E2E2E2E2E2E2E2F5F5E2E2E2E2E2E2E2E2E2E2E2E2E2E2E2E2E2E2E2E2F5E2E2E2E2E2E2E2E2E2E2E2E2E2E2E2E2E2E2E2E2E2E2E2E2E2E2E2E2E2E2E2E2E2E2E2E2E2E2E2E2E2E2E2E2E2E2E2E2E2E2E2E2E2E2E2E2E2E2E2E2E2E2E2E2E2E2
310
E2E2E2E2E2E2E2E2E2E2E2E2E2E2E2E2E2E2E2E2E2E2E2E2E2E2E2E2E2E2E2E2E2E2E2E2E2E2E2E2E2E2E2E2E2E2E2E2E2E2E2E2E2E2E2E2E2E2E2E2E2E2E2E2E2E2E2E2E2E2F5E2E2E2E2E2E2E2E2E2E2E2E2E2E2E2E2E2E2E2E2F5F5E2E2E2E2E2E2E2E2E2E2E2E2E2E2E2E2E2E2E2E2F5E2E2E2E2E2E2E2E2E2E2E2E2E2
310
E2E2E2E2E2E2E2E2E2E2E2E2E2E2E2E2E2E2E2E2E2E2E2E2E2E2E2E2E2E2E2E2E2E2E2E2E2E2E2E2E2E2E2E2E2E2E2E2E2E2E2E2E2E2E2E2E2E2E2E2E2E2E2E2E2E2E2E2E2E2E2E2E2E2E2E2E2E2E2E2E2E2E2E2E2E2E2E2E2E2E2E2E2E2E2E2E2E2E2E2E2E2E2E2E2E2E2E2E2E2E2E2E2E2E2E2E2E2E2E2E2E2E2F5E2E2E2
310
E2E2E2E2E2E2E2E2E2E2E2E2E2E2E2E2E2F5F5E2E2E2E2E2E2E2E2E2E2E2E2E2E2E2E2E2E2E2E2F5E2E2E2E2E2E2E2E2E2E2E2E2E2E2E2E2E2E2E2E2E2E2E2E2E2E2E2E2E2E2E2E2E2E2E2E2E2E2E2E2E2E2E2E2E2E2E2E2E2E2E2E2E2E2E2E2E2E2E2E2E2E2E2E2E2E2E2E2E2E2E2E2E2E2E2E2E2E2E2E2E2E2E2E2E2E2E2
310
E2E2E2E2E2E2E2E2E2E2E2E2E2E2E2E2E2E2E2E2E2E2E2E2E2E2E2E2E2E2E2E2E2E2E2E2E2E2E2E2E2E2E2E2E2E2E2E2E2F5E2E2E2E2E2E2E2E2E2E2E2E2E2E2E2E2E2E2E2E2F5F5E2E2E2E2E2E2E2E2E2E2E2E2E2E2E2E2E2E2E2E2F5E2E2E2E2E2E2E2E2E2E2E2E2E2E2E2E2E2E2E2E2E2E2E2E2E2E2E2E2E2E2E2E2E2E2
310
E2E2E2E2E2E2E2E2E2E2E2E2E2E2E2E2E2E2E2E2E2E2E2E2E2E2E2E2E2E2E2E2E2E2E2E2E2E2E2E2E2E2E2E2E2E2E2E2E2E2E2E2E2E2E2E2E2E2E2E2E2E2E2E2E2E2E2E2E2E2E2E2E2E2E2E2E2E2E2E2E2E2E2E2E2E2E2E2E2E2E2E2E2E2E2E2E2E2E2E2E2E2F5E2E2E2E2E2E2E2E2E2E2E2E2E2E2E2E2E2E2E2E2F5F5E2E2
310
E2F5E2E2E2E2E2E2E2E2E2E2E2E2E2E2E2E2F5E2E2E2E2E2E2E2E2E2E2E2E2E2E2E2E2E2E2E2E2E2E2E2E2E2E2E2E2E2E2E2E2E2E2E2E2E2E2E2E2E2E2E2E2E2E2E2E2E2E2E2E2E2E2E2E2E2E2E2E2E2E2E2E2E2E2E2E2E2E2E2E2E2E2E2E2E2E2E2E2E2E2E2E2E2E2E2E2E2E2E2E2E2E2E2E2E2E2E2E2E2E2E2E2E2E2E2E2
310
E2E2E2E2E2E2E2E2E2E2E2E2E2E2E2E2E2E2E2E2E2E2E2E2E2E2E2E2F5E2E2E2E2E2E2E2E2E2E2E2E2E2E2E2E2F5E2E2E2F5F5E2E2E2F5E2E2E2E2E2E2E2E2E2E2E2E2E2E2E2E2F5E2E2E2E2E2E2E2E2E2E2E2E2E2E2E2E2E2E2E2E2E2E2E2E2E2E2E2E2E2E2E2E2E2E2E2E2E2E2E2E2E2E2E2E2E2E2E2E2E2E2E2E2E2E2E2
310
E2E2E2E2E2E2E2E2E2E2E2E2E2E2E2E2E2E2E2E2E2E2E2E2E2E2E2E2E2E2E2E2E2E2E2E2E2E2E2E2E2E2E2E2E2E2E2E2E2E2E2E2E2E2E2E2E2E2E2E2E2E2E2E2E2E2E2E2E2E2E2E2E2E2E2E2E2E2E2E2E2F5E2E2E2E2E2E2E2E2E2E2E2E2E2E2E2E2F5E2E2E2F5F5E2E2E2F5E2E2E2E2E2E2E2E2E2E2E2E2E2E2E2E2F5E2E2
310
E2E2E2E2E2E2E2E2E2E2E2E2E2E2E2E2E2E2E2E2E2E2E2E2E2E2E2E2E2E2E2E2E2E2E2E2E2E2E2E2E2E2E2E2E2E2E2E2E2E2E2E2E2E2E2E2E2E2E2E2E2E2E2E2E2E2E2E2E2E2E2E2E2E2E2E2E2E2E2E2E2E2E2E2E2E2E2E2E2E2E2E2E2E2E2E2E2E2E2E2E2E2E2E2E2E2E2E2E2E2E2E2E2E2E2E2E2E2E2E2E2E2E2E2E2E2E2
310
E2E2E2E2E2E2E2F5E2E2E2E2E2E2E2E2E2E2E2E2E2E2E2E2F5E2E2E2F5F5E2E2E2F5E2E2E2E2E2E2E2E2E2E2E2E2E2E2E2E2F5E2E2E2E2E2E2E2E2E2E2E2E2E2E2E2E2E2E2E2E2E2E2E2E2E2E2E2E2E2E2E2E2E2E2E2E2E2E2E2E2E2E2E2E2E2E2E2E2E2E2E2E2E2E2E2E2E2E2E2E2E2E2E2E2E2E2E2E2E2E2E2E2E2E2E2E2
310
E2E2E2E2E2E2E2E2E2E2E2E2E2E2E2E2E2E2E2E2E2E2E2E2E2E2E2E2E2E2E2E2E2E2E2E2E2E2E2E2E2E2E2E2E2E2E2E2E2E2E2E2E2E2E2E2E2E2E2E2F5E2E2E2E2E2E2E2E2E2E2E2E2E2E2E2E2F5E2E2E2F5F5E2E2E2F5E2E2E2E2E2E2E2E2E2E2E2E2E2E2E2E2F5E2E2E2E2E2E2E2E2E2E2E2E2E2E2E2E2E2E2E2E2E2E2E2
310
E2E2E2E2E2E2E2E2E2E2E2E2E2E2E2E2E2E2E2E2E2E2E2E2E2E2E2E2E2E2E2E2E2E2E2E2E2E2E2E2E2E2E2E2E2E2E2E2E2E2E2E2E2E2E2E2E2E2E2E2E2E2E2E2E2E2E2E2E2E2E2E2E2E2E2E2E2E2E2E2E2E2E2E2E2E2E2E2E2E2E2E2E2E2E2E2E2E2E2E2E2E2E2E2E2E2E2E2E2E2E2E2E2F5E2E2E2E2E2E2E2E2E2E2E2E2E2
310
E2E2E2F5E2E2E2F5F5E2E2E2F5E2E2E2E2E2E2E2E2E2E2E2E2E2E2E2E2F5E2E2E2E2E2E2E2E2E2E2E2E2E2E2E2E2E2E2E2E2E2E2E2E2E2E2E2E2E2E2E2E2E2E2E2E2E2E2E2E2E2E2E2E2E2E2E2E2E2E2E2E2E2E2E2E2E2E2E2E2E2E2E2E2E2E2E2E2E2E2E2E2E2E2E2E2E2E2E2E2E2E2E2E2E2E2E2E2E2E2E2E2E2E2E2E2E2
310
E2E2E2E2E2E2E2E2E2E2E2E2E2E2E2E2E2E2E2E2E2E2E2E2E2E2E2E2E2E2E2E2E2E2E2E2E2E2E2F5E2E2E2E2E2E2E2E2E2E2E2E2E2E2E2E2F5E2E2E2F5F5E2E2E2F5E2E2E2E2E2E2E2E2E2E2E2E2E2E2E2E2F5E2E2E2E2E2E2E2E2E2E2E2E2E2E2E2E2E2E2E2E2E2E2E2E2E2E2E2E2E2E2E2E2E2E2E2E2E2E2E2E2E2E2E2E2
310
E2E2E2E2E2E2E2E2E2E2E2E2E2E2E2E2E2E2E2E2E2E2E2E2E2E2E2E2E2E2E2E2E2E2E2E2E2E2E2E2E2E2E2E2E2E2E2E2E2E2E2E2E2E2E2E2E2E2E2E2E2E2E2E2E2E2E2E2E2E2E2E2E2E2E2E2E2E2E2E2E2E2E2E2E2E2E2E2E2E2E2E2F5E2E2E2E2E2E2E2E2E2E2E2E2E2E2E2E2F5E2E2E2F5F5E2E2E2F5E2E2E2E2E2E2E2E2
310
E2E2E2E2E2E2E2E2F5E2E2E2E2E2E2E2E2E2E2E2E2E2E2E2E2E2E2E2E2E2E2E2E2E2E2E2E2E2E2E2E2E2E2E2E2E2E2E2E2E2E2E2E2E2E2E2E2E2E2E2E2E2E2E2E2E2E2E2E2E2E2E2E2E2E2E2E2E2E2E2E2E2E2E2E2E2E2E2E2E2E2E2E2E2E2E2E2E2E2E2E2E2E2E2E2E2E2E2E2E2E2E2E2E2E2E2E2E2E2E2E2E2E2E2E2E2E2
310
E2E2E2E2E2E2E2E2E2E2E2E2E2E2E2E2E2E2F5E2E2E2E2E2E2E2E2E2E2E2E2E2E2E2E2F5E2E2E2F5F5E2E2E2F5E2E2E2E2E2E2E2E2E2E2E2E2E2E2E2E2F5E2E2E2E2E2E2E2E2E2E2E2E2E2E2E2E2E2E2E2E2E2E2E2E2E2E2E2E2E2E2E2E2E2E2E2E2E2E2E2E2E2E2E2E2E2E2E2E2E2E2E2E2E2E2E2E2E2E2E2E2E2E2E2E2E2
310
E2E2E2E2E2E2E2E2E2E2E2E2E2E2E2E2E2E2E2E2E2E2E2E2E2E2E2E2E2E2E2E2E2E2E2E2E2E2E2E2E2E2E2E2E2E2E2E2E2E2E2E2E2E2E2E2E2E2E2E2E2E2E2E2E2E2E2E2E2E2E2F5E2E2E2E2E2E2E2E2E2E2E2E2E2E2E2E2F5E2E2E2F5F5E2E2E2F5E2E2E2E2E2E2E2E2E2E2E2E2E2E2E2E2F5E2E2E2E2E2E2E2E2E2E2E2E2
310
E2E2E2E2E2E2E2E2E2E2E2E2E2E2E2E2E2E2E2E2E2E2E2E2E2E2E2E2E2E2E2E2E2E2E2E2E2E2E2E2E2E2E2E2E2E2E2E2E2E2E2E2E2E2E2E2E2E2E2E2E2E2E2E2E2E2E2E2E2E2E2E2E2E2E2E2E2E2E2E2E2E2E2E2E2E2E2E2E2E2E2E2E2E2E2E2E2E2E2E2E2E2E2E2E2E2E2E2E2E2E2E2E2E2E2E2E2E2E2E2E2E2E2E2F5E2E2
310
E2E2E2E2E2E2E2E2E2E2E2E2E2E2F5E2E2E2F5F5E2E2E2F5E2E2E2E2E2E2E2E2E2E2E2E2E2E2E2E2F5E2E2E2E2E2E2E2E2E2E2E2E2E2E2E2E2E2E2E2E2E2E2E2E2E2E2E2E2E2E2E2E2E2E2E2E2E2E2E2E2E2E2E2E2E2E2E2E2E2E2E2E2E2E2E2E2E2E2E2E2E2E2E2E2E2E2E2E2E2E2E2E2E2E2E2E2E2E2E2E2E2E2E2E2E2E2
310
E2E2E2E2E2E2E2E2E2E2E2E2E2E2E2E2E2E2E2E2E2E2E2E2E2E2E2E2E2E2E2E2E2E2E2E2E2E2E2E2E2E2E2E2E2E2E2E2E2E2F5E2E2E2E2E2E2E2E2E2E2E2E2E2E2E2E2F5E2E2E2F5F5E2E2E2F5E2E2E2E2E2E2E2E2E2E2E2E2E2E2E2E2F5E2E2E2E2E2E2E2E2E2E2E2E2E2E2E2E2E2E2E2E2E2E2E2E2E2E2E2E2E2E2E2E2E2
310
E2E2E2E2E2E2E2E2E2E2E2E2E2E2E2E2E2E2E2E2E2E2E2E2E2E2E2E2E2E2E2E2E2E2E2E2E2E2E2E2E2E2E2E2E2E2E2E2E2E2E2E2E2E2E2E2E2E2E2E2E2E2E2E2E2E2E2E2E2E2E2E2E2E2E2E2E2E2E2E2E2E2E2E2E2E2E2E2E2E2E2E2E2E2E2E2E2E2E2E2E2E2E2F5E2E2E2E2E2E2E2E2E2E2E2E2E2E2E2E2F5E2E2E2F5F5E2
310
E2E2F5E2E2E2E2E2E2E2E2E2E2E2E2E2E2E2E2F5E2E2E2E2E2E2E2E2E2E2E2E2E2E2E2E2E2E2E2E2E2E2E2E2E2E2E2E2E2E2E2E2E2E2E2E2E2E2E2E2E2E2E2E2E2E2E2E2E2E2E2E2E2E2E2E2E2E2E2E2E2E2E2E2E2E2E2E2E2E2E2E2E2E2E2E2E2E2E2E2E2E2E2E2E2E2E2E2E2E2E2E2E2E2E2E2E2E2E2E2E2E2E2E2E2E2E2
310
E2E2E2E2E2E2E2E2E2E2E2E2E2E2E2E2E2E2E2E2E2E2E2E2E2E2E2E2E2F5E2E2E2E2E2E2E2E2E2E2E2E2E2E2E2E2F5E2E2E2F5F5E2E2E2F5E2E2E2E2E2E2E2E2E2E2E2E2E2E2E2E2F5E2E2E2E2E2E2E2E2E2E2E2E2E2E2E2E2E2E2E2E2E2E2E2E2E2E2E2E2E2E2E2E2E2E2E2E2E2E2E2E2E2E2E2E2E2E2E2E2E2E2E2E2E2E2
310
E2E2E2E2E2E2E2E2E2E2E2E2E2E2E2E2E2E2E2E2E2E2E2E2E2E2E2E2E2E2E2E2E2E2E2E2E2E2E2E2E2E2E2E2E2E2E2E2E2E2E2E2E2E2E2E2E2E2E2E2E2E2E2E2E2E2E2E2E2E2E2E2E2E2E2E2E2E2E2E2E2E2F5E2E2E2E2E2E2E2E2E2E2E2E2E2E2E2E2F5E2E2E2F5F5E2E2E2F5E2E2E2E2E2E2E2E2E2E2E2E2E2E2E2E2F5E2
310
E2E2E2E2E2E2E2E2E2E2E2E2E2E2E2E2E2E2E2E2E2E2E2E2E2E2E2E2E2E2E2E2E2E2E2E2E2E2E2E2E2E2E2E2E2E2E2E2E2E2E2E2E2E2E2E2E2E2E2E2E2E2E2E2E2E2E2E2E2E2E2E2E2E2E2E2E2E2E2E2E2E2E2E2E2E2E2E2E2E2E2E2E2E2E2E2E2E2E2E2E2E2E2E2E2E2E2E2E2E2E2E2E2E2E2E2E2E2E2E2E2E2E2E2E2E2E2
310
E2E2E2E2E2E2E2E2F5E2E2E2E2E2E2E2E2E2E2E2E2E2E2E2E2F5E2E2E2F5F5E2E2E2F5E2E2E2E2E2E2E2E2E2E2E2E2E2E2E2E2F5E2E2E2E2E2E2E2E2E2E2E2E2E2E2E2E2E2E2E2E2E2E2E2E2E2E2E2E2E2E2E2E2E2E2E2E2E2E2E2E2E2E2E2E2E2E2E2E2E2E2E2E2E2E2E2E2E2E2E2E2E2E2E2E2E2E2E2E2E2E2E2E2E2E2E2
310
E2E2E2E2E2E2E2E2E2E2E2E2E2E2E2E2E2E2E2E2E2E2E2E2E2E2E2E2E2E2E2E2E2E2E2E2E2E2E2E2E2E2E2E2E2E2E2E2E2E2E2E2E2E2E2E2E2E2E2E2E2F5E2E2E2E2E2E2E2E2E2E2E2E2E2E2E2E2F5E2E2E2F5F5E2E2E2F5E2E2E2E2E2E2E2E2E2E2E2E2E2E2E2E2F5E2E2E2E2E2E2E2E2E2E2E2E2E2E2E2E2E2E2E2E2E2E2
310
E2E2E2E2E2E2E2E2E2E2E2E2E2E2E2E2E2E2E2E2E2E2E2E2E2E2E2E2E2E2E2E2E2E2E2E2E2E2E2E2E2E2E2E2E2E2E2E2E2E2E2E2E2E2E2E2E2E2E2E2E2E2E2E2E2E2E2E2E2E2E2E2E2E2E2E2E2E2E2E2E2E2E2E2E2E2E2E2E2E2E2E2E2E2E2E2E2E2E2E2E2E2E2E2E2E2E2E2E2E2E2E2E2E2F5E2E2E2E2E2E2E2E2E2E2E2E2
310
E2E2E2E2F5E2E2E2F5F5E2E2E2E2E2E2E2E2E2E2E2E2E2E2E2E2E2E2E2E2F5E2E2E2E2E2E2E2E2E2E2E2E2E2E2E2E2E2E2E2E2E2E2E2E2E2E2E2E2E2E2E2E2E2E2E2E2E2E2E2E2E2E2E2E2E2E2E2E2E2E2E2E2E2E2E2E2E2E2E2E2E2E2E2E2E2E2E2E2E2E2E2E2E2E2E2E2E2E2E2E2E2E2E2E2E2E2E2E2E2E2E2E2E2E2E2E2
310
E2E2E2E2E2E2E2E2E2E2E2E2E2E2E2E2E2E2E2E2E2E2E2E2E2E2E2E2E2E2E2E2E2E2E2E2E2E2E2E2F5E2E2E2E2E2E2E2E2E2E2E2E2E2E2E2E2E2E2E2E2F5F5E2E2E2E2E2E2E2E2E2E2E2E2E2E2E2E2E2E2E2E2F5E2E2E2E2E2E2E2E2E2E2E2E2E2E2E2E2E2E2E2E2E2E2E2E2E2E2E2E2E2E2E2E2E2E2E2E2E2E2E2E2E2E2E2
310
E2E2E2E2E2E2E2E2E2E2E2E2E2E2E2E2E2E2E2E2E2E2E2E2E2E2E2E2E2E2E2E2E2E2E2E2E2E2E2E2E2E2E2E2E2E2E2E2E2E2E2E2E2E2E2E2E2E2E2E2E2E2E2E2E2E2E2E2E2E2E2E2E2E2E2E2E2E2E2E2E2E2E2E2E2E2E2E2E2E2E2E2E2F5E2E2E2E2E2E2E2E2E2E2E2E2E2E2E2E2E2E2E2E2F5F5E2E2E2E2E2E2E2E2E2E2E2
310
E2E2E2E2E2E2E2E2E2F5E2E2E2E2E2E2E2E2E2E2E2E2E2E2E2E2E2E2E2E2E2E2E2E2E2E2E2E2E2E2E2E2E2E2E2E2E2E2E2E2E2E2E2E2E2E2E2E2E2E2E2E2E2E2E2E2E2E2E2E2E2E2E2E2E2E2E2E2E2E2E2E2E2E2E2E2E2E2E2E2E2E2E2E2E2E2E2E2E2E2E2E2E2E2E2E2E2E2E2E2E2E2E2E2E2E2E2E2E2E2E2E2E2E2E2E2E2
310
E2E2E2E2E2E2E2E2E2E2E2E2E2E2E2E2E2E2E2F5E2E2E2E2E2E2E2E2E2E2E2E2E2E2E2E2E2E2E2E2F5F5E2E2E2E2E2E2E2E2E2E2E2E2E2E2E2E2E2E2E2E2F5E2E2E2E2E2E2E2E2E2E2E2E2E2E2E2E2E2E2E2E2E2E2E2E2E2E2E2E2E2E2E2E2E2E2E2E2E2E2E2E2E2E2E2E2E2E2E2E2E2E2E2E2E2E2E2E2E2E2E2E2E2E2E2E2
310
E2E2E2E2E2E2E2E2E2E2E2E2E2E2E2E2E2E2E2E2E2E2E2E2E2E2E2E2E2E2E2E2E2E2E2E2E2E2E2E2E2E2E2E2E2E2E2E2E2E2E2E2E2E2E2E2E2E2E2E2E2E2E2E2E2E2E2E2E2E2E2E2F5E2E2E2E2E2E2E2E2E2E2E2E2E2E2E2E2E2E2E2E2F5F5E2E2E2E2E2E2E2E2E2E2E2E2E2E2E2E2E2E2E2E2F5E2E2E2E2E2E2E2E2E2E2E2
310
E2E2E2E2E2E2E2E2E2E2E2E2E2E2E2E2E2E2E2E2E2E2E2E2E2E2E2E2E2E2E2E2E2E2E2E2E2E2E2E2E2E2E2E2E2E2E2E2E2E2E2E2E2E2E2E2E2E2E2E2E2E2E2E2E2E2E2E2E2E2E2E2E2E2E2E2E2E2E2E2E2E2E2E2E2E2E2E2E2E2E2E2E2E2E2E2E2E2E2E2E2E2E2E2E2E2E2E2E2E2E2E2E2E2E2E2E2E2E2E2E2E2E2E2E2F5E2
310
E2E2E2E2E2E2E2E2E2E2E2E2E2E2E2E2E2E2E2F5F5E2E2E2E2E2E2E2E2E2E2E2E2E2E2E2E2E2E2E2E2F5E2E2E2E2E2E2E2E2E2E2E2E2E2E2E2E2E2E2E2E2E2E2E2E2E2E2E2E2E2E2E2E2E2E2E2E2E2E2E2E2E2E2E2E2E2E2E2E2E2E2E2E2E2E2E2E2E2E2E2E2E2E2E2E2E2E2E2E2E2E2E2E2E2E2E2E2E2E2E2E2E2E2E2E2E2
310
E2E2E2E2E2E2E2E2E2E2E2E2E2E2E2E2E2E2E2E2E2E2E2E2E2E2E2E2E2E2E2E2E2E2E2E2E2E2E2E2E2E2E2E2E2E2E2E2E2E2E2F5E2E2E2E2E2E2E2E2E2E2E2E2E2E2E2E2E2E2E2E2F5F5E2E2E2E2E2E2E2E2E2E2E2E2E2E2E2E2E2E2E2E2F5E2E2E2E2E2E2E2E2E2E2E2E2E2E2E2E2E2E2E2E2E2E2E2E2E2E2E2E2E2E2E2E2
310
E2E2E2E2E2E2E2E2E2E2E2E2E2E2E2E2E2E2E2E2E2E2E2E2E2E2E2E2E2E2E2E2E2E2E2E2E2E2E2E2E2E2E2E2E2E2E2E2E2E2E2E2E2E2E2E2E2E2E2E2E2E2E2E2E2E2E2E2E2E2E2E2E2E2E2E2E2E2E2E2E2E2E2E2E2E2E2E2E2E2E2E2E2E2E2E2E2E2E2E2E2E2E2E2F5E2E2E2E2E2E2E2E2E2E2E2E2E2E2E2E2E2E2E2E2F5F5
310
E2E2E2E2E2E2E2E2E2E2E2E2E2E2E2E2E2E2E2E2F5E2E2E2E2E2E2E2E2E2E2E2E2E2E2E2E2E2E2E2E2E2E2E2E2E2E2E2E2E2E2E2E2E2E2E2E2E2E2E2E2E2E2E2E2E2E2E2E2E2E2E2E2E2E2E2E2E2E2E2E2E2E2E2E2E2E2E2E2E2E2E2E2E2E2E2E2E2E2E2E2E2E2E2E2E2E2E2E2E2E2E2E2E2E2E2E2E2E2E2E2E2E2E2E2E2E2
310
E2E2E2E2E2E2E2E2E2E2E2E2E2E2E2E2E2E2E2E2E2E2E2E2E2E2E2E2E2E2F5E2E2E2E2E2E2E2E2E2E2E2E2E2E2E2E2E2E2E2E2F5F5E2E2E2E2E2E2E2E2E2E2E2E2E2E2E2E2E2E2E2E2F5E2E2E2E2E2E2E2E2E2E2E2E2E2E2E2E2E2E2E2E2E2E2E2E2E2E2E2E2E2E2E2E2E2E2E2E2E2E2E2E2E2E2E2E2E2E2E2E2E2E2E2E2E2
310
E2E2E2E2E2E2E2E2E2E2E2E2E2E2E2E2E2E2E2E2E2E2E2E2E2E2E2E2E2E2E2E2E2E2E2E2E2E2E2E2E2E2E2E2E2E2E2E2E2E2E2E2E2E2E2E2E2E2E2E2E2E2E2E2E2E2E2E2E2E2E2E2E2E2E2E2E2E2E2E2E2E2E2F5E2E2E2E2E2E2E2E2E2E2E2E2E2E2E2E2E2E2E2E2F5F5E2E2E2F5E2E2E2E2E2E2E2E2E2E2E2E2E2E2E2E2F5
310
E2E2E2E2E2E2E2E2E2E2E2E2E2E2E2E2E2E2E2E2E2E2E2E2E2E2E2E2E2E2E2E2E2E2E2E2E2E2E2E2E2E2E2E2E2E2E2E2E2E2E2E2E2E2E2E2E2E2E2E2E2E2E2E2E2E2E2E2E2E2E2E2E2E2E2E2E2E2E2E2E2E2E2E2E2E2E2E2E2E2E2E2E2E2E2E2E2E2E2E2E2E2E2E2E2E2E2E2E2E2E2E2E2E2E2E2E2E2E2E2E2E2E2E2E2E2E2
310
E2E2E2E2E2E2E2E2E2F5E2E2E2E2E2E2E2E2E2E2E2E2E2E2E2E2F5E2E2E2F5F5E2E2E2F5E2E2E2E2E2E2E2E2E2E2E2E2E2E2E2E2F5E2E2E2E2E2E2E2E2E2E2E2E2E2E2E2E2E2E2E2E2E2E2E2E2E2E2E2E2E2E2E2E2E2E2E2E2E2E2E2E2E2E2E2E2E2E2E2E2E2E2E2E2E2E2E2E2E2E2E2E2E2E2E2E2E2E2E2E2E2E2E2E2E2E2
310
E2E2E2E2E2E2E2E2E2E2E2E2E2E2E2E2E2E2E2E2E2E2E2E2E2E2E2E2E2E2E2E2E2E2E2E2E2E2E2E2E2E2E2E2E2E2E2E2E2E2E2E2E2E2E2E2E2E2E2E2E2E2F5E2E2E2E2E2E2E2E2E2E2E2E2E2E2E2E2F5E2E2E2F5F5E2E2E2F5E2E2E2E2E2E2E2E2E2E2E2E2E2E2E2E2F5E2E2E2E2E2E2E2E2E2E2E2E2E2E2E2E2E2E2E2E2E2
310
E2E2E2E2E2E2E2E2E2E2E2E2E2E2E2E2E2E2E2E2E2E2E2E2E2E2E2E2E2E2E2E2E2E2E2E2E2E2E2E2E2E2E2E2E2E2E2E2E2E2E2E2E2E2E2E2E2E2E2E2E2E2E2E2E2E2E2E2E2E2E2E2E2E2E2E2E2E2E2E2E2E2E2E2E2E2E2E2E2E2E2E2E2E2E2E2E2E2E2E2E2E2E2E2E2E2E2E2E2E2E2E2E2E2E2F5E2E2E2E2E2E2E2E2E2E2E2
310
E2E2E2E2E2F5E2E2E2F5F5E2E2E2F5E2E2E2E2E2E2E2E2E2E2E2E2E2E2E2E2F5E2E2E2E2E2E2E2E2E2E2E2E2E2E2E2E2E2E2E2E2E2E2E2E2E2E2E2E2E2E2E2E2E2E2E2E2E2E2E2E2E2E2E2E2E2E2E2E2E2E2E2E2E2E2E2E2E2E2E2E2E2E2E2E2E2E2E2E2E2E2E2E2E2E2E2E2E2E2E2E2E2E2E2E2E2E2E2E2E2E2E2E2E2E2E2
310
E2E2E2E2E2E2E2E2E2E2E2E2E2E2E2E2E2E2E2E2E2E2E2E2E2E2E2E2E2E2E2E2E2E2E2E2E2E2E2E2E2F5E2E2E2E2E2E2E2E2E2E2E2E2E2E2E2E2F5E2E2E2F5F5E2E2E2F5E2E2E2E2E2E2E2E2E2E2E2E2E2E2E2E2F5E2E2E2E2E2E2E2E2E2E2E2E2E2E2E2E2E2E2E2E2E2E2E2E2E2E2E2E2E2E2E2E2E2E2E2E2E2E2E2E2E2E2
310
E2E2E2E2E2E2E2E2E2E2E2E2E2E2E2E2E2E2E2E2E2E2E2E2E2E2E2E2E2E2E2E2E2E2E2E2E2E2E2E2E2E2E2E2E2E2E2E2E2E2E2E2E2E2E2E2E2E2E2E2E2E2E2E2E2E2E2E2E2E2E2E2E2E2E2E2E2E2E2E2E2E2E2E2E2E2E2E2E2E2E2E2E2E2F5E2E2E2E2E2E2E2E2E2E2E2E2E2E2E2E2F5E2E2E2F5F5E2E2E2F5E2E2E2E2E2E2
310
E2E2E2E2E2E2E2E2E2E2F5E2E2E2E2E2E2E2E2E2E2E2E2E2E2E2E2E2E2E2E2E2E2E2E2E2E2E2E2E2E2E2E2E2E2E2E2E2E2E2E2E2E2E2E2E2E2E2E2E2E2E2E2E2E2E2E2E2E2E2E2E2E2E2E2E2E2E2E2E2E2E2E2E2E2E2E2E2E2E2E2E2E2E2E2E2E2E2E2E2E2E2E2E2E2E2E2E2E2E2E2E2E2E2E2E2E2E2E2E2E2E2E2E2E2E2E2
310
E2E2E2E2E2E2E2E2E2E2E2E2E2E2E2E2E2E2E2E2F5E2E2E2E2E2E2E2E2E2E2E2E2E2E2E2E2F5E2E2E2F5F5E2E2E2F5E2E2E2E2E2E2E2E2E2E2E2E2E2E2E2E2F5E2E2E2E2E2E2E2E2E2E2E2E2E2E2E2E2E2E2E2E2E2E2E2E2E2E2E2E2E2E2E2E2E2E2E2E2E2E2E2E2E2E2E2E2E2E2E2E2E2E2E2E2E2E2E2E2E2E2E2E2E2E2E2
310
E2E2E2E2E2E2E2E2E2E2E2E2E2E2E2E2E2E2E2E2E2E2E2E2E2E2E2E2E2E2E2E2E2E2E2E2E2E2E2E2E2E2E2E2E2E2E2E2E2E2E2E2E2E2E2E2E2E2E2E2E2E2E2E2E2E2E2E2E2E2E2E2E2F5E2E2E2E2E2E2E2E2E2E2E2E2E2E2E2E2F5E2E2E2F5F5E2E2E2F5E2E2E2E2E2E2E2E2E2E2E2E2E2E2E2E2F5E2E2E2E2E2E2E2E2E2E2
310
E2E2E2E2E2E2E2E2E2E2E2E2E2E2E2E2E2E2E2E2E2E2E2E2E2E2E2E2E2E2E2E2E2E2E2E2E2E2E2E2E2E2E2E2E2E2E2E2E2E2E2E2E2E2E2E2E2E2E2E2E2E2E2E2E2E2E2E2E2E2E2E2E2E2E2E2E2E2E2E2E2E2E2E2E2E2E2E2E2E2E2E2E2E2E2E2E2E2E2E2E2E2E2E2E2E2E2E2E2E2E2E2E2E2E2E2E2E2E2E2E2E2E2E2E2E2F5
310
E2E2E2E2E2E2E2E2E2E2E2E2E2E2E2E2F5E2E2E2F5F5E2E2E2F5E2E2E2E2E2E2E2E2E2E2E2E2E2E2E2E2F5E2E2E2E2E2E2E2E2E2E2E2E2E2E2E2E2E2E2E2E2E2E2E2E2E2E2E2E2E2E2E2E2E2E2E2E2E2E2E2E2E2E2E2E2E2E2E2E2E2E2E2E2E2E2E2E2E2E2E2E2E2E2E2E2E2E2E2E2E2E2E2E2E2E2E2E2E2E2E2E2E2E2E2E2
310
E2E2E2E2E2E2E2E2E2E2E2E2E2E2E2E2E2E2E2E2E2E2E2E2E2E2E2E2E2E2E2E2E2E2E2E2E2E2E2E2E2E2E2E2E2E2E2E2E2E2E2E2F5E2E2E2E2E2E2E2E2E2E2E2E2E2E2E2E2F5E2E2E2F5F5E2E2E2F5E2E2E2E2E2E2E2E2E2E2E2E2E2E2E2E2F5E2E2E2E2E2E2E2E2E2E2E2E2E2E2E2E2E2E2E2E2E2E2E2E2E2E2E2E2E2E2E2
310
E2E2E2E2E2E2E2E2E2E2E2E2E2E2E2E2E2E2E2E2E2E2E2E2E2E2E2E2E2E2E2E2E2E2E2E2E2E2E2E2E2E2E2E2E2E2E2E2E2E2E2E2E2E2E2E2E2E2E2E2E2E2E2E2E2E2E2E2E2E2E2E2E2E2E2E2E2E2E2E2E2E2E2E2E2E2E2E2E2E2E2E2E2E2E2E2E2E2E2E2E2E2E2E2E2F5E2E2E2E2E2E2E2E2E2E2E2E2E2E2E2E2F5E2E2E2F5
310
F5E2E2E2F5E2E2E2E2E2E2E2E2E2E2E2E2E2E2E2E2F5E2E2E2E2E2E2E2E2E2E2E2E2E2E2E2E2E2E2E2E2E2E2E2E2E2E2E2E2E2E2E2E2E2E2E2E2E2E2E2E2E2E2E2E2E2E2E2E2E2E2E2E2E2E2E2E2E2E2E2E2E2E2E2E2E2E2E2E2E2E2E2E2E2E2E2E2E2E2E2E2E2E2E2E2E2E2E2E2E2E2E2E2E2E2E2E2E2E2E2E2E2E2E2E2E2
310
E2E2E2E2E2E2E2E2E2E2E2E2E2E2E2E2E2E2E2E2E2E2E2E2E2E2E2E2E2E2E2F5E2E2E2E2E2E2E2E2E2E2E2E2E2E2E2E2F5E2E2E2F5F5E2E2E2F5E2E2E2E2E2E2E2E2E2E2E2E2E2E2E2E2F5E2E2E2E2E2E2E2E2E2E2E2E2E2E2E2E2E2E2E2E2E2E2E2E2E2E2E2E2E2E2E2E2E2E2E2E2E2E2E2E2E2E2E2E2E2E2E2E2E2E2E2E2
310
E2E2E2E2E2E2E2E2E2E2E2E2E2E2E2E2E2E2E2E2E2E2E2E2E2E2E2E2E2E2E2E2E2E2E2E2E2E2E2E2E2E2E2E2E2E2E2E2E2E2E2E2E2E2E2E2E2E2E2E2E2E2E2E2E2E2E2E2E2E2E2E2E2E2E2E2E2E2E2E2E2E2E2E2F5E2E2E2E2E2E2E2E2E2E2E2E2E2E2E2E2F5E2E2E2F5F5E2E2E2F5E2E2E2E2E2E2E2E2E2E2E2E2E2E2E2E2
310
F5E2E2E2E2E2E2E2E2E2E2E2E2E2E2E2E2E2E2E2E2E2E2E2E2E2E2E2E2E2E2E2E2E2E2E2E2E2E2E2E2E2E2E2E2E2E2E2E2E2E2E2E2E2E2E2E2E2E2E2E2E2E2E2E2E2E2E2E2E2E2E2E2E2E2E2E2E2E2E2E2E2E2E2E2E2E2E2E2E2E2E2E2E2E2E2E2E2E2E2E2E2E2E2E2E2E2E2E2E2E2E2E2E2E2E2E2E2E2E2E2E2E2E2E2E2E2
310
E2E2E2E2E2E2E2E2E2E2F5E2E2E2E2E2E2E2E2E2E2E2E2E2E2E2E2F5E2E2E2F5F5E2E2E2F5E2E2E2E2E2E2E2E2E2E2E2E2E2E2E2E2F5E2E2E2E2E2E2E2E2E2E2E2E2E2E2E2E2E2E2E2E2E2E2E2E2E2E2E2E2E2E2E2E2E2E2E2E2E2E2E2E2E2E2E2E2E2E2E2E2E2E2E2E2E2E2E2E2E2E2E2E2E2E2E2E2E2E2E2E2E2E2E2E2E2
310
E2E2E2E2E2E2E2E2E2E2E2E2E2E2E2E2E2E2E2E2E2E2E2E2E2E2E2E2E2E2E2E2E2E2E2E2E2E2E2E2E2E2E2E2E2E2E2E2E2E2E2E2E2E2E2E2E2E2E2E2E2E2E2F5E2E2E2E2E2E2E2E2E2E2E2E2E2E2E2E2F5E2E2E2F5F5E2E2E2F5E2E2E2E2E2E2E2E2E2E2E2E2E2E2E2E2F5E2E2E2E2E2E2E2E2E2E2E2E2E2E2E2E2E2E2E2E2
310
E2E2E2E2E2E2E2E2E2E2E2E2E2E2E2E2E2E2E2E2E2E2E2E2E2E2E2E2E2E2E2E2E2E2E2E2E2E2E2E2E2E2E2E2E2E2E2E2E2E2E2E2E2E2E2E2E2E2E2E2E2E2E2E2E2E2E2E2E2E2E2E2E2E2E2E2E2E2E2E2E2E2E2E2E2E2E2E2E2E2E2E2E2E2E2E2E2E2E2E2E2E2E2E2E2E2E2E2E2E2E2E2E2E2E2E2F5E2E2E2E2E2E2E2E2E2E2
310
E2E2E2E2E2E2F5E2E2E2F5F5E2E2E2F5E2E2E2E2E2E2E2E2E2E2E2E2E2E2E2E2F5E2E2E2E2E2E2E2E2E2E2E2E2E2E2E2E2E2E2E2E2E2E2E2E2E2E2E2E2E2E2E2E2E2E2E2E2E2E2E2E2E2E2E2E2E2E2E2E2E2E2E2E2E2E2E2E2E2E2E2E2E2E2E2E2E2E2E2E2E2E2E2E2E2E2E2E2E2E2E2E2E2E2E2E2E2E2E2E2E2E2E2E2E2E2
310
E2E2E2E2E2E2E2E2E2E2E2E2E2E2E2E2E2E2E2E2E2E2E2E2E2E2E2E2E2E2E2E2E2E2E2E2E2E2E2E2E2E2F5E2E2E2E2E2E2E2E2E2E2E2E2E2E2E2E2F5E2E2E2F5F5E2E2E2E2E2E2E2E2E2E2E2E2E2E2E2E2E2E2E2E2F5E2E2E2E2E2E2E2E2E2E2E2E2E2E2E2E2E2E2E2E2E2E2E2E2E2E2E2E2E2E2E2E2E2E2E2E2E2E2E2E2E2
310
E2E2E2E2E2E2E2E2E2E2E2E2E2E2E2E2E2E2E2E2E2E2E2E2E2E2E2E2E2E2E2E2E2E2E2E2E2E2E2E2E2E2E2E2E2E2E2E2E2E2E2E2E2E2E2E2E2E2E2E2E2E2E2E2E2E2E2E2E2E2E2E2E2E2E2E2E2E2E2E2E2E2E2E2E2E2E2E2E2E2E2E2E2E2E2F5E2E2E2E2E2E2E2E2E2E2E2E2E2E2E2E2E2E2E2E2F5F5E2E2E2E2E2E2E2E2E2
310
E2E2E2E2E2E2E2E2E2E2E2F5E2E2E2E2E2E2E2E2E2E2E2E2E2E2E2E2E2E2E2E2E2E2E2E2E2E2E2E2E2E2E2E2E2E2E2E2E2E2E2E2E2E2E2E2E2E2E2E2E2E2E2E2E2E2E2E2E2E2E2E2E2E2E2E2E2E2E2E2E2E2E2E2E2E2E2E2E2E2E2E2E2E2E2E2E2E2E2E2E2E2E2E2E2E2E2E2E2E2E2E2E2E2E2E2E2E2E2E2E2E2E2E2E2E2E2
310
E2E2E2E2E2E2E2E2E2E2E2E2E2E2E2E2E2E2E2E2E2F5E2E2E2E2E2E2E2E2E2E2E2E2E2E2E2E2E2E2E2E2F5F5E2E2E2E2E2E2E2E2E2E2E2E2E2E2E2E2E2E2E2E2F5E2E2E2E2E2E2E2E2E2E2E2E2E2E2E2E2E2E2E2E2E2E2E2E2E2E2E2E2E2E2E2E2E2E2E2E2E2E2E2E2E2E2E2E2E2E2E2E2E2E2E2E2E2E2E2E2E2E2E2E2E2E2
310
E2E2E2E2E2E2E2E2E2E2E2E2E2E2E2E2E2E2E2E2E2E2E2E2E2E2E2E2E2E2E2E2E2E2E2E2E2E2E2E2E2E2E2E2E2E2E2E2E2E2E2E2E2E2E2E2E2E2E2E2E2E2E2E2E2E2E2E2E2E2E2E2E2E2F5E2E2E2E2E2E2E2E2E2E2E2E2E2E2E2E2E2E2E2E2F5F5E2E2E2E2E2E2E2E2E2E2E2E2E2E2E2E2E2E2E2E2F5E2E2E2E2E2E2E2E2E2
310
E2E2E2E2E2E2E2E2E2E2E2E2E2E2E2E2E2E2E2E2E2E2E2E2E2E2E2E2E2E2E2E2E2E2E2E2E2E2E2E2E2E2E2E2E2E2E2E2E2E2E2E2E2E2E2E2E2E2E2E2E2E2E2E2E2E2E2E2E2E2E2E2E2E2E2E2E2E2E2E2E2E2E2E2E2E2E2E2E2E2E2E2E2E2E2E2E2E2E2E2E2E2E2E2E2E2E2E2E2E2E2E2E2E2E2E2E2E2E2E2E2E2E2E2E2E2E2
310
F5E2E2E2E2E2E2E2E2E2E2E2E2E2E2E2E2E2E2E2E2F5F5E2E2E2E2E2E2E2E2E2E2E2E2E2E2E2E2E2E2E2E2F5E2E2E2E2E2E2E2E2E2E2E2E2E2E2E2E2E2E2E2E2E2E2E2E2E2E2E2E2E2E2E2E2E2E2E2E2E2E2E2E2E2E2E2E2E2E2E2E2E2E2E2E2E2E2E2E2E2E2E2E2E2E2E2E2E2E2E2E2E2E2E2E2E2E2E2E2E2E2E2E2E2E2E2
310
E2E2E2E2E2E2E2E2E2E2E2E2E2E2E2E2E2E2E2E2E2E2E2E2E2E2E2E2E2E2E2E2E2E2E2E2E2E2E2E2E2E2E2E2E2E2E2E2E2E2E2E2E2F5E2E2E2E2E2E2E2E2E2E2E2E2E2E2E2E2E2E2E2E2F5F5E2E2E2E2E2E2E2E2E2E2E2E2E2E2E2E2E2E2E2E2F5E2E2E2E2E2E2E2E2E2E2E2E2E2E2E2E2E2E2E2E2E2E2E2E2E2E2E2E2E2E2
310
E2E2E2E2E2E2E2E2E2E2E2E2E2E2E2E2E2E2E2E2E2E2E2E2E2E2E2E2E2E2E2E2E2E2E2E2E2E2E2E2E2E2E2E2E2E2E2E2E2E2E2E2E2E2E2E2E2E2E2E2E2E2E2E2E2E2E2E2E2E2E2E2E2E2E2E2E2E2E2E2E2E2E2E2E2E2E2E2E2E2E2E2E2E2E2E2E2E2E2E2E2E2E2E2E2E2F5E2E2E2E2E2E2E2E2E2E2E2E2E2E2E2E2E2E2E2E2
310
F5F5E2E2E2E2E2E2E2E2E2E2E2E2E2E2E2E2E2E2E2E2F5E2E2E2E2E2E2E2E2E2E2E2E2E2E2E2E2E2E2E2E2E2E2E2E2E2E2E2E2E2E2E2E2E2E2E2E2E2E2E2E2E2E2E2E2E2E2E2E2E2E2E2E2E2E2E2E2E2E2E2E2E2E2E2E2E2E2E2E2E2E2E2E2E2E2E2E2E2E2E2E2E2E2E2E2E2E2E2E2E2E2E2E2E2E2E2E2E2E2E2E2E2E2E2E2
310
E2E2E2E2E2E2E2E2E2E2E2E2E2E2E2E2E2E2E2E2E2E2E2E2E2E2E2E2E2E2E2E2F5E2E2E2E2E2E2E2E2E2E2E2E2E2E2E2E2E2E2E2E2F5F5E2E2E2E2E2E2E2E2E2E2E2E2E2E2E2E2E2E2E2E2F5E2E2E2E2E2E2E2E2E2E2E2E2E2E2E2E2E2E2E2E2E2E2E2E2E2E2E2E2E2E2E2E2E2E2E2E2E2E2E2E2E2E2E2E2E2E2E2E2E2E2E2
310
E2E2E2E2E2E2E2E2E2E2E2E2E2E2E2E2E2E2E2E2E2E2E2E2E2E2E2E2E2E2E2E2E2E2E2E2E2E2E2E2E2E2E2E2E2E2E2E2E2E2E2E2E2E2E2E2E2E2E2E2E2E2E2E2E2E2E2E2E2E2E2E2E2E2E2E2E2E2E2E2E2E2E2E2E2F5E2E2E2E2E2E2E2E2E2E2E2E2E2E2E2E2E2E2E2E2F5F5E2E2E2E2E2E2E2E2E2E2E2E2E2E2E2E2E2E2E2
310
E2F5E2E2E2E2E2E2E2E2E2E2E2E2E2E2E2E2E2E2E2E2E2E2E2E2E2E2E2E2E2E2E2E2E2E2E2E2E2E2E2E2E2E2E2E2E2E2E2E2E2E2E2E2E2E2E2E2E2E2E2E2E2E2E2E2E2E2E2E2E2E2E2E2E2E2E2E2E2E2E2E2E2E2E2E2E2E2E2E2E2E2E2E2E2E2E2E2E2E2E2E2E2E2E2E2E2E2E2E2E2E2E2E2E2E2E2E2E2E2E2E2E2E2E2E2E2
310
E2E2E2E2E2E2E2E2E2E2E2F5E2E2E2E2E2E2E2E2E2E2E2E2E2E2E2E2E2E2E2E2F5F5E2E2E2E2E2E2E2E2E2E2E2E2E2E2E2E2E2E2E2E2F5E2E2E2E2E2E2E2E2E2E2E2E2E2E2E2E2E2E2E2E2E2E2E2E2E2E2E2E2E2E2E2E2E2E2E2E2E2E2E2E2E2E2E2E2E2E2E2E2E2E2E2E2E2E2E2E2E2E2E2E2E2E2E2E2E2E2E2E2E2E2E2E2
310
E2E2E2E2E2E2E2E2E2E2E2E2E2E2E2E2E2E2E2E2E2E2E2E2E2E2E2E2E2E2E2E2E2E2E2E2E2E2E2E2E2E2E2E2E2E2E2E2E2E2E2E2E2E2E2E2E2E2E2E2E2E2E2E2F5E2E2E2E2E2E2E2E2E2E2E2E2E2E2E2E2E2E2E2E2F5F5E2E2E2F5E2E2E2E2E2E2E2E2E2E2E2E2E2E2E2E2F5E2E2E2E2E2E2E2E2E2E2E2E2E2E2E2E2E2E2E2
310
E2E2E2E2E2E2E2E2E2E2E2E2E2E2E2E2E2E2E2E2E2E2E2E2E2E2E2E2E2E2E2E2E2E2E2E2E2E2E2E2E2E2E2E2E2E2E2E2E2E2E2E2E2E2E2E2E2E2E2E2E2E2E2E2E2E2E2E2E2E2E2E2E2E2E2E2E2E2E2E2E2E2E2E2E2E2E2E2E2E2E2E2E2E2E2E2E2E2E2E2E2E2E2E2E2E2E2E2E2E2E2E2E2E2E2E2E2F5E2E2E2E2E2E2E2E2E2
310
E2E2E2E2E2E2E2F5E2E2E2F5F5E2E2E2F5E2E2E2E2E2E2E2E2E2E2E2E2E2E2E2E2F5E2E2E2E2E2E2E2E2E2E2E2E2E2E2E2E2E2E2E2E2E2E2E2E2E2E2E2E2E2E2E2E2E2E2E2E2E2E2E2E2E2E2E2E2E2E2E2E2E2E2E2E2E2E2E2E2E2E2E2E2E2E2E2E2E2E2E2E2E2E2E2E2E2E2E2E2E2E2E2E2E2E2E2E2E2E2E2E2E2E2E2E2E2
310
E2E2E2E2E2E2E2E2E2E2E2E2E2E2E2E2E2E2E2E2E2E2E2E2E2E2E2E2E2E2E2E2E2E2E2E2E2E2E2E2E2E2E2F5E2E2E2E2E2E2E2E2E2E2E2E2E2E2E2E2F5E2E2E2F5F5E2E2E2F5E2E2E2E2E2E2E2E2E2E2E2E2E2E2E2E2F5E2E2E2E2E2E2E2E2E2E2E2E2E2E2E2E2E2E2E2E2E2E2E2E2E2E2E2E2E2E2E2E2E2E2E2E2E2E2E2E2
310
E2E2E2E2E2E2E2E2E2E2E2E2E2E2E2E2E2E2E2E2E2E2E2E2E2E2E2E2E2E2E2E2E2E2E2E2E2E2E2E2E2E2E2E2E2E2E2E2E2E2E2E2E2E2E2E2E2E2E2E2E2E2E2E2E2E2E2E2E2E2E2E2E2E2E2E2E2E2E2E2E2E2E2E2E2E2E2E2E2E2E2E2E2E2E2E2F5E2E2E2E2E2E2E2E2E2E2E2E2E2E2E2E2F5E2E2E2F5F5E2E2E2F5E2E2E2E2
310
E2E2E2E2E2E2E2E2E2E2E2E2F5E2E2E2E2E2E2E2E2E2E2E2E2E2E2E2E2E2E2E2E2E2E2E2E2E2E2E2E2E2E2E2E2E2E2E2E2E2E2E2E2E2E2E2E2E2E2E2E2E2E2E2E2E2E2E2E2E2E2E2E2E2E2E2E2E2E2E2E2E2E2E2E2E2E2E2E2E2E2E2E2E2E2E2E2E2E2E2E2E2E2E2E2E2E2E2E2E2E2E2E2E2E2E2E2E2E2E2E2E2E2E2E2E2E2
310
E2E2E2E2E2E2E2E2E2E2E2E2E2E2E2E2E2E2E2E2E2E2F5E2E2E2E2E2E2E2E2E2E2E2E2E2E2E2E2F5E2E2E2F5F5E2E2E2F5E2E2E2E2E2E2E2E2E2E2E2E2E2E2E2E2F5E2E2E2E2E2E2E2E2E2E2E2E2E2E2E2E2E2E2E2E2E2E2E2E2E2E2E2E2E2E2E2E2E2E2E2E2E2E2E2E2E2E2E2E2E2E2E2E2E2E2E2E2E2E2E2E2E2E2E2E2E2
310
E2E2E2E2E2E2E2E2E2E2E2E2E2E2E2E2E2E2E2E2E2E2E2E2E2E2E2E2E2E2E2E2E2E2E2E2E2E2E2E2E2E2E2E2E2E2E2E2E2E2E2E2E2E2E2E2E2E2E2E2E2E2E2E2E2E2E2E2E2E2E2E2E2E2E2F5E2E2E2E2E2E2E2E2E2E2E2E2E2E2E2E2F5E2E2E2F5F5E2E2E2F5E2E2E2E2E2E2E2E2E2E2E2E2E2E2E2E2F5E2E2E2E2E2E2E2E2
310
E2E2E2E2E2E2E2E2E2E2E2E2E2E2E2E2E2E2E2E2E2E2E2E2E2E2E2E2E2E2E2E2E2E2E2E2E2E2E2E2E2E2E2E2E2E2E2E2E2E2E2E2E2E2E2E2E2E2E2E2E2E2E2E2E2E2E2E2E2E2E2E2E2E2E2E2E2E2E2E2E2E2E2E2E2E2E2E2E2E2E2E2E2E2E2E2E2E2E2E2E2E2E2E2E2E2E2E2E2E2E2E2E2E2E2E2E2E2E2E2E2E2E2E2E2E2E2
310
E2F5E2E2E2E2E2E2E2E2E2E2E2E2E2E2E2E2F5E2E2E2F5F5E2E2E2F5E2E2E2E2E2E2E2E2E2E2E2E2E2E2E2E2F5E2E2E2E2E2E2E2E2E2E2E2E2E2E2E2E2E2E2E2E2E2E2E2E2E2E2E2E2E2E2E2E2E2E2E2E2E2E2E2E2E2E2E2E2E2E2E2E2E2E2E2E2E2E2E2E2E2E2E2E2E2E2E2E2E2E2E2E2E2E2E2E2E2E2E2E2E2E2E2E2E2E2
310
E2E2E2E2E2E2E2E2E2E2E2E2E2E2E2E2E2E2E2E2E2E2E2E2E2E2E2E2E2E2E2E2E2E2E2E2E2E2E2E2E2E2E2E2E2E2E2E2E2E2E2E2E2E2F5E2E2E2E2E2E2E2E2E2E2E2E2E2E2E2E2F5E2E2E2F5F5E2E2E2F5E2E2E2E2E2E2E2E2E2E2E2E2E2E2E2E2F5E2E2E2E2E2E2E2E2E2E2E2E2E2E2E2E2E2E2E2E2E2E2E2E2E2E2E2E2E2
310
E2E2E2E2E2E2E2E2E2E2E2E2E2E2E2E2E2E2E2E2E2E2E2E2E2E2E2E2E2E2E2E2E2E2E2E2E2E2E2E2E2E2E2E2E2E2E2E2E2E2E2E2E2E2E2E2E2E2E2E2E2E2E2E2E2E2E2E2E2E2E2E2E2E2E2E2E2E2E2E2E2E2E2E2E2E2E2E2E2E2E2E2E2E2E2E2E2E2E2E2E2E2E2E2E2E2E2F5E2E2E2E2E2E2E2E2E2E2E2E2E2E2E2E2F5E2E2
310
E2F5F5E2E2E2F5E2E2E2E2E2E2E2E2E2E2E2E2E2E2E2E2F5E2E2E2E2E2E2E2E2E2E2E2E2E2E2E2E2E2E2E2E2E2E2E2E2E2E2E2E2E2E2E2E2E2E2E2E2E2E2E2E2E2E2E2E2E2E2E2E2E2E2E2E2E2E2E2E2E2E2E2E2E2E2E2E2E2E2E2E2E2E2E2E2E2E2E2E2E2E2E2E2E2E2E2E2E2E2E2E2E2E2E2E2E2E2E2E2E2E2E2E2E2E2E2
310
E2E2E2E2E2E2E2E2E2E2E2E2E2E2E2E2E2E2E2E2E2E2E2E2E2E2E2E2E2E2E2E2E2F5E2E2E2E2E2E2E2E2E2E2E2E2E2E2E2E2F5E2E2E2F5F5E2E2E2F5E2E2E2E2E2E2E2E2E2E2E2E2E2E2E2E2F5E2E2E2E2E2E2E2E2E2E2E2E2E2E2E2E2E2E2E2E2E2E2E2E2E2E2E2E2E2E2E2E2E2E2E2E2E2E2E2E2E2E2E2E2E2E2E2E2E2E2
310
E2E2E2E2E2E2E2E2E2E2E2E2E2E2E2E2E2E2E2E2E2E2E2E2E2E2E2E2E2E2E2E2E2E2E2E2E2E2E2E2E2E2E2E2E2E2E2E2E2E2E2E2E2E2E2E2E2E2E2E2E2E2E2E2E2E2E2E2E2E2E2E2E2E2E2E2E2E2E2E2E2E2E2E2E2E2F5E2E2E2E2E2E2E2E2E2E2E2E2E2E2E2E2F5E2E2E2F5F5E2E2E2F5E2E2E2E2E2E2E2E2E2E2E2E2E2E2
310
E2E2F5E2E2E2E2E2E2E2E2E2E2E2E2E2E2E2E2E2E2E2E2E2E2E2E2E2E2E2E2E2E2E2E2E2E2E2E2E2E2E2E2E2E2E2E2E2E2E2E2E2E2E2E2E2E2E2E2E2E2E2E2E2E2E2E2E2E2E2E2E2E2E2E2E2E2E2E2E2E2E2E2E2E2E2E2E2E2E2E2E2E2E2E2E2E2E2E2E2E2E2E2E2E2E2E2E2E2E2E2E2E2E2E2E2E2E2E2E2E2E2E2E2E2E2E2
310
E2E2E2E2E2E2E2E2E2E2E2E2F5E2E2E2E2E2E2E2E2E2E2E2E2E2E2E2E2F5E2E2E2F5F5E2E2E2F5E2E2E2E2E2E2E2E2E2E2E2E2E2E2E2E2F5E2E2E2E2E2E2E2E2E2E2E2E2E2E2E2E2E2E2E2E2E2E2E2E2E2E2E2E2E2E2E2E2E2E2E2E2E2E2E2E2E2E2E2E2E2E2E2E2E2E2E2E2E2E2E2E2E2E2E2E2E2E2E2E2E2E2E2E2E2E2E2
310
E2E2E2E2E2E2E2E2E2E2E2E2E2E2E2E2E2E2E2E2E2E2E2E2E2E2E2E2E2E2E2E2E2E2E2E2E2E2E2E2E2E2E2E2E2E2E2E2E2E2E2E2E2E2E2E2E2E2E2E2E2E2E2E2E2F5E2E2E2E2E2E2E2E2E2E2E2E2E2E2E2E2F5E2E2E2F5F5E2E2E2F5E2E2E2E2E2E2E2E2E2E2E2E2E2E2E2E2F5E2E2E2E2E2E2E2E2E2E2E2E2E2E2E2E2E2E2
310
E2E2E2E2E2E2E2E2E2E2E2E2E2E2E2E2E2E2E2E2E2E2E2E2E2E2E2E2E2E2E2E2E2E2E2E2E2E2E2E2E2E2E2E2E2E2E2E2E2E2E2E2E2E2E2E2E2E2E2E2E2E2E2E2E2E2E2E2E2E2E2E2E2E2E2E2E2E2E2E2E2E2E2E2E2E2E2E2E2E2E2E2E2E2E2E2E2E2E2E2E2E2E2E2E2E2E2E2E2E2E2E2E2E2E2E2E2E2F5E2E2E2E2E2E2E2E2
310
E2E2E2E2E2E2E2E2F5E2E2E2F5F5E2E2E2F5E2E2E2E2E2E2E2E2E2E2E2E2E2E2E2E2F5E2E2E2E2E2E2E2E2E2E2E2E2E2E2E2E2E2E2E2E2E2E2E2E2E2E2E2E2E2E2E2E2E2E2E2E2E2E2E2E2E2E2E2E2E2E2E2E2E2E2E2E2E2E2E2E2E2E2E2E2E2E2E2E2E2E2E2E2E2E2E2E2E2E2E2E2E2E2E2E2E2E2E2E2E2E2E2E2E2E2E2E2
310
E2E2E2E2E2E2E2E2E2E2E2E2E2E2E2E2E2E2E2E2E2E2E2E2E2E2E2E2E2E2E2E2E2E2E2E2E2E2E2E2E2E2E2E2F5E2E2E2E2E2E2E2E2E2E2E2E2E2E2E2E2F5E2E2E2F5F5E2E2E2F5E2E2E2E2E2E2E2E2E2E2E2E2E2E2E2E2F5E2E2E2E2E2E2E2E2E2E2E2E2E2E2E2E2E2E2E2E2E2E2E2E2E2E2E2E2E2E2E2E2E2E2E2E2E2E2E2
310
E2E2E2E2E2E2E2E2E2E2E2E2E2E2E2E2E2E2E2E2E2E2E2E2E2E2E2E2E2E2E2E2E2E2E2E2E2E2E2E2E2E2E2E2E2E2E2E2E2E2E2E2E2E2E2E2E2E2E2E2E2E2E2E2E2E2E2E2E2E2E2E2E2E2E2E2E2E2E2E2E2E2E2E2E2E2E2E2E2E2E2E2E2E2E2E2E2F5E2E2E2E2E2E2E2E2E2E2E2E2E2E2E2E2F5E2E2E2F5F5E2E2E2F5E2E2E2
310
E2E2E2E2E2E2E2E2E2E2E2E2E2F5E2E2E2E2E2E2E2E2E2E2E2E2E2E2E2E2E2E2E2E2E2E2E2E2E2E2E2E2E2E2E2E2E2E2E2E2E2E2E2E2E2E2E2E2E2E2E2E2E2E2E2E2E2E2E2E2E2E2E2E2E2E2E2E2E2E2E2E2E2E2E2E2E2E2E2E2E2E2E2E2E2E2E2E2E2E2E2E2E2E2E2E2E2E2E2E2E2E2E2E2E2E2E2E2E2E2E2E2E2E2E2E2E2
310
E2E2E2E2E2E2E2E2E2E2E2E2E2E2E2E2E2E2E2E2E2E2E2F5E2E2E2E2E2E2E2E2E2E2E2E2E2E2E2E2F5E2E2E2F5F5E2E2E2E2E2E2E2E2E2E2E2E2E2E2E2E2E2E2E2E2F5E2E2E2E2E2E2E2E2E2E2E2E2E2E2E2E2E2E2E2E2E2E2E2E2E2E2E2E2E2E2E2E2E2E2E2E2E2E2E2E2E2E2E2E2E2E2E2E2E2E2E2E2E2E2E2E2E2E2E2E2
310
E2E2E2E2E2E2E2E2E2E2E2E2E2E2E2E2E2E2E2E2E2E2E2E2E2E2E2E2E2E2E2E2E2E2E2E2E2E2E2E2E2E2E2E2E2E2E2E2E2E2E2E2E2E2E2E2E2E2E2E2E2E2E2E2E2E2E2E2E2E2E2E2E2E2E2E2F5E2E2E2E2E2E2E2E2E2E2E2E2E2E2E2E2E2E2E2E2F5F5E2E2E2E2E2E2E2E2E2E2E2E2E2E2E2E2E2E2E2E2F5E2E2E2E2E2E2E2
310
E2E2E2E2E2E2E2E2E2E2E2E2E2E2E2E2E2E2E2E2E2E2E2E2E2E2E2E2E2E2E2E2E2E2E2E2E2E2E2E2E2E2E2E2E2E2E2E2E2E2E2E2E2E2E2E2E2E2E2E2E2E2E2E2E2E2E2E2E2E2E2E2E2E2E2E2E2E2E2E2E2E2E2E2E2E2E2E2E2E2E2E2E2E2E2E2E2E2E2E2E2E2E2E2E2E2E2E2E2E2E2E2E2E2E2E2E2E2E2E2E2E2E2E2E2E2E2
310
E2E2F5E2E2E2E2E2E2E2E2E2E2E2E2E2E2E2E2E2E2E2E2F5F5E2E2E2E2E2E2E2E2E2E2E2E2E2E2E2E2E2E2E2E2F5E2E2E2E2E2E2E2E2E2E2E2E2E2E2E2E2E2E2E2E2E2E2E2E2E2E2E2E2E2E2E2E2E2E2E2E2E2E2E2E2E2E2E2E2E2E2E2E2E2E2E2E2E2E2E2E2E2E2E2E2E2E2E2E2E2E2E2E2E2E2E2E2E2E2E2E2E2E2E2E2E2
310
E2E2E2E2E2E2E2E2E2E2E2E2E2E2E2E2E2E2E2E2E2E2E2E2E2E2E2E2E2E2E2E2E2E2E2E2E2E2E2E2E2E2E2E2E2E2E2E2E2E2E2E2E2E2E2F5E2E2E2E2E2E2E2E2E2E2E2E2E2E2E2E2E2E2E2E2F5F5E2E2E2E2E2E2E2E2E2E2E2E2E2E2E2E2E2E2E2E2F5E2E2E2E2E2E2E2E2E2E2E2E2E2E2E2E2E2E2E2E2E2E2E2E2E2E2E2E2
310
E2E2E2E2E2E2E2E2E2E2E2E2E2E2E2E2E2E2E2E2E2E2E2E2E2E2E2E2E2E2E2E2E2E2E2E2E2E2E2E2E2E2E2E2E2E2E2E2E2E2E2E2E2E2E2E2E2E2E2E2E2E2E2E2E2E2E2E2E2E2E2E2E2E2E2E2E2E2E2E2E2E2E2E2E2E2E2E2E2E2E2E2E2E2E2E2E2E2E2E2E2E2E2E2E2E2E2E2F5E2E2E2E2E2E2E2E2E2E2E2E2E2E2E2E2E2E2
310
E2E2F5F5E2E2E2E2E2E2E2E2E2E2E2E2E2E2E2E2E2E2E2E2F5E2E2E2E2E2E2E2E2E2E2E2E2E2E2E2E2E2E2E2E2E2E2E2E2E2E2E2E2E2E2E2E2E2E2E2E2E2E2E2E2E2E2E2E2E2E2E2E2E2E2E2E2E2E2E2E2E2E2E2E2E2E2E2E2E2E2E2E2E2E2E2E2E2E2E2E2E2E2E2E2E2E2E2E2E2E2E2E2E2E2E2E2E2E2E2E2E2E2E2E2E2E2
310
E2E2E2E2E2E2E2E2E2E2E2E2E2E2E2E2E2E2E2E2E2E2E2E2E2E2E2E2E2E2E2E2E2E2F5E2E2E2E2E2E2E2E2E2E2E2E2E2E2E2E2E2E2E2E2F5F5E2E2E2E2E2E2E2E2E2E2E2E2E2E2E2E2E2E2E2E2F5E2E2E2E2E2E2E2E2E2E2E2E2E2E2E2E2E2E2E2E2E2E2E2E2E2E2E2E2E2E2E2E2E2E2E2E2E2E2E2E2E2E2E2E2E2E2E2E2E2
310
E2E2E2E2E2E2E2E2E2E2E2E2E2E2E2E2E2E2E2E2E2E2E2E2E2E2E2E2E2E2E2E2E2E2E2E2E2E2E2E2E2E2E2E2E2E2E2E2E2E2E2E2E2E2E2E2E2E2E2E2E2E2E2E2E2E2E2E2E2E2E2E2E2E2E2E2E2E2E2E2E2E2E2E2E2E2E2F5E2E2E2E2E2E2E2E2E2E2E2E2E2E2E2E2E2E2E2E2F5F5E2E2E2E2E2E2E2E2E2E2E2E2E2E2E2E2E2
310
E2E2E2F5E2E2E2E2E2E2E2E2E2E2E2E2E2E2E2E2E2E2E2E2E2E2E2E2E2E2E2E2E2E2E2E2E2E2E2E2E2E2E2E2E2E2E2E2E2E2E2E2E2E2E2E2E2E2E2E2E2E2E2E2E2E2E2E2E2E2E2E2E2E2E2E2E2E2E2E2E2E2E2E2E2E2E2E2E2E2E2E2E2E2E2E2E2E2E2E2E2E2E2E2E2E2E2E2E2E2E2E2E2E2E2E2E2E2E2E2E2E2E2E2E2E2E2
310
E2E2E2E2E2E2E2E2E2E2E2E2E2F5E2E2E2E2E2E2E2E2E2E2E2E2E2E2E2E2E2E2E2E2F5F5E2E2E2E2E2E2E2E2E2E2E2E2E2E2E2E2E2E2E2E2F5E2E2E2E2E2E2E2E2E2E2E2E2E2E2E2E2E2E2E2E2E2E2E2E2E2E2E2E2E2E2E2E2E2E2E2E2E2E2E2E2E2E2E2E2E2E2E2E2E2E2E2E2E2E2E2E2E2E2E2E2E2E2E2E2E2E2E2E2E2E2
310
E2E2E2E2E2E2E2E2E2E2E2E2E2E2E2E2E2E2E2E2E2E2E2E2E2E2E2E2E2E2E2E2E2E2E2E2E2E2E2E2E2E2E2E2E2E2E2E2E2E2E2E2E2E2E2E2E2E2E2E2E2E2E2E2E2E2F5E2E2E2E2E2E2E2E2E2E2E2E2E2E2E2E2E2E2E2E2F5F5E2E2E2E2E2E2E2E2E2E2E2E2E2E2E2E2E2E2E2E2F5E2E2E2E2E2E2E2E2E2E2E2E2E2E2E2E2E2
310
E2E2E2E2E2E2E2E2E2E2E2E2E2E2E2E2E2E2E2E2E2E2E2E2E2E2E2E2E2E2E2E2E2E2E2E2E2E2E2E2E2E2E2E2E2E2E2E2E2E2E2E2E2E2E2E2E2E2E2E2E2E2E2E2E2E2E2E2E2E2E2E2E2E2E2E2E2E2E2E2E2E2E2E2E2E2E2E2E2E2E2E2E2E2E2E2E2E2E2E2E2E2E2E2E2E2E2E2E2E2E2E2E2E2E2E2E2E2E2F5E2E2E2E2E2E2E2
310
E2E2E2E2E2E2E2E2E2E2E2E2E2F5F5E2E2E2F5E2E2E2E2E2E2E2E2E2E2E2E2E2E2E2E2F5E2E2E2E2E2E2E2E2E2E2E2E2E2E2E2E2E2E2E2E2E2E2E2E2E2E2E2E2E2E2E2E2E2E2E2E2E2E2E2E2E2E2E2E2E2E2E2E2E2E2E2E2E2E2E2E2E2E2E2E2E2E2E2E2E2E2E2E2E2E2E2E2E2E2E2E2E2E2E2E2E2E2E2E2E2E2E2E2E2E2E2
310
E2E2E2E2E2E2E2E2E2E2E2E2E2E2E2E2E2E2E2E2E2E2E2E2E2E2E2E2E2E2E2E2E2E2E2E2E2E2E2E2E2E2E2E2E2F5E2E2E2E2E2E2E2E2E2E2E2E2E2E2E2E2F5E2E2E2F5F5E2E2E2F5E2E2E2E2E2E2E2E2E2E2E2E2E2E2E2E2F5E2E2E2E2E2E2E2E2E2E2E2E2E2E2E2E2E2E2E2E2E2E2E2E2E2E2E2E2E2E2E2E2E2E2E2E2E2E2
310
E2E2E2E2E2E2E2E2E2E2E2E2E2E2E2E2E2E2E2E2E2E2E2E2E2E2E2E2E2E2E2E2E2E2E2E2E2E2E2E2E2E2E2E2E2E2E2E2E2E2E2E2E2E2E2E2E2E2E2E2E2E2E2E2E2E2E2E2E2E2E2E2E2E2E2E2E2E2E2E2E2E2E2E2E2E2E2E2E2E2E2E2E2E2E2E2E2E2F5E2E2E2E2E2E2E2E2E2E2E2E2E2E2E2E2F5E2E2E2F5F5E2E2E2F5E2E2
310
E2E2E2E2E2E2E2E2E2E2E2E2E2E2F5E2E2E2E2E2E2E2E2E2E2E2E2E2E2E2E2E2E2E2E2E2E2E2E2E2E2E2E2E2E2E2E2E2E2E2E2E2E2E2E2E2E2E2E2E2E2E2E2E2E2E2E2E2E2E2E2E2E2E2E2E2E2E2E2E2E2E2E2E2E2E2E2E2E2E2E2E2E2E2E2E2E2E2E2E2E2E2E2E2E2E2E2E2E2E2E2E2E2E2E2E2E2E2E2E2E2E2E2E2E2E2E2
310
E2E2E2E2E2E2E2E2E2E2E2E2E2E2E2E2E2E2E2E2E2E2E2E2F5E2E2E2E2E2E2E2E2E2E2E2E2E2E2E2E2F5E2E2E2F5F5E2E2E2F5E2E2E2E2E2E2E2E2E2E2E2E2E2E2E2E2F5E2E2E2E2E2E2E2E2E2E2E2E2E2E2E2E2E2E2E2E2E2E2E2E2E2E2E2E2E2E2E2E2E2E2E2E2E2E2E2E2E2E2E2E2E2E2E2E2E2E2E2E2E2E2E2E2E2E2E2
310
E2E2E2E2E2E2E2E2E2E2E2E2E2E2E2E2E2E2E2E2E2E2E2E2E2E2E2E2E2E2E2E2E2E2E2E2E2E2E2E2E2E2E2E2E2E2E2E2E2E2E2E2E2E2E2E2E2E2E2E2E2E2E2E2E2E2E2E2E2E2E2E2E2E2E2E2E2F5E2E2E2E2E2E2E2E2E2E2E2E2E2E2E2E2F5E2E2E2F5F5E2E2E2F5E2E2E2E2E2E2E2E2E2E2E2E2E2E2E2E2F5E2E2E2E2E2E2
310
E2E2E2E2E2E2E2E2E2E2E2E2E2E2E2E2E2E2E2E2E2E2E2E2E2E2E2E2E2E2E2E2E2E2E2E2E2E2E2E2E2E2E2E2E2E2E2E2E2E2E2E2E2E2E2E2E2E2E2E2E2E2E2E2E2E2E2E2E2E2E2E2E2E2E2E2E2E2E2E2E2E2E2E2E2E2E2E2E2E2E2E2E2E2E2E2E2E2E2E2E2E2E2E2E2E2E2E2E2E2E2E2E2E2E2E2E2E2E2E2E2E2E2E2E2E2E2
310
E2E2E2F5E2E2E2E2E2E2E2E2E2E2E2E2E2E2E2E2F5E2E2E2F5F5E2E2E2F5E2E2E2E2E2E2E2E2E2E2E2E2E2E2E2E2F5E2E2E2E2E2E2E2E2E2E2E2E2E2E2E2E2E2E2E2E2E2E2E2E2E2E2E2E2E2E2E2E2E2E2E2E2E2E2E2E2E2E2E2E2E2E2E2E2E2E2E2E2E2E2E2E2E2E2E2E2E2E2E2E2E2E2E2E2E2E2E2E2E2E2E2E2E2E2E2E2
310
E2E2E2E2E2E2E2E2E2E2E2E2E2E2E2E2E2E2E2E2E2E2E2E2E2E2E2E2E2E2E2E2E2E2E2E2E2E2E2E2E2E2E2E2E2E2E2E2E2E2E2E2E2E2E2E2F5E2E2E2E2E2E2E2E2E2E2E2E2E2E2E2E2F5E2E2E2F5F5E2E2E2F5E2E2E2E2E2E2E2E2E2E2E2E2E2E2E2E2F5E2E2E2E2E2E2E2E2E2E2E2E2E2E2E2E2E2E2E2E2E2E2E2E2E2E2E2
310
E2E2E2E2E2E2E2E2E2E2E2E2E2E2E2E2E2E2E2E2E2E2E2E2E2E2E2E2E2E2E2E2E2E2E2E2E2E2E2E2E2E2E2E2E2E2E2E2E2E2E2E2E2E2E2E2E2E2E2E2E2E2E2E2E2E2E2E2E2E2E2E2E2E2E2E2E2E2E2E2E2E2E2E2E2E2E2E2E2E2E2E2E2E2E2E2E2E2E2E2E2E2E2E2E2E2E2E2E2F5E2E2E2E2E2E2E2E2E2E2E2E2E2E2E2E2F5
310
E2E2E2F5F5E2E2E2F5E2E2E2E2E2E2E2E2E2E2E2E2E2E2E2E2F5E2E2E2E2E2E2E2E2E2E2E2E2E2E2E2E2E2E2E2E2E2E2E2E2E2E2E2E2E2E2E2E2E2E2E2E2E2E2E2E2E2E2E2E2E2E2E2E2E2E2E2E2E2E2E2E2E2E2E2E2E2E2E2E2E2E2E2E2E2E2E2E2E2E2E2E2E2E2E2E2E2E2E2E2E2E2E2E2E2E2E2E2E2E2E2E2E2E2E2E2E2
310
E2E2E2E2E2E2E2E2E2E2E2E2E2E2E2E2E2E2E2E2E2E2E2E2E2E2E2E2E2E2E2E2E2E2E2F5E2E2E2E2E2E2E2E2E2E2E2E2E2E2E2E2F5E2E2E2F5F5E2E2E2F5E2E2E2E2E2E2E2E2E2E2E2E2E2E2E2E2F5E2E2E2E2E2E2E2E2E2E2E2E2E2E2E2E2E2E2E2E2E2E2E2E2E2E2E2E2E2E2E2E2E2E2E2E2E2E2E2E2E2E2E2E2E2E2E2E2
310
E2E2E2E2E2E2E2E2E2E2E2E2E2E2E2E2E2E2E2E2E2E2E2E2E2E2E2E2E2E2E2E2E2E2E2E2E2E2E2E2E2E2E2E2E2E2E2E2E2E2E2E2E2E2E2E2E2E2E2E2E2E2E2E2E2E2E2E2E2E2E2E2E2E2E2E2E2E2E2E2E2E2E2E2E2E2E2E2F5E2E2E2E2E2E2E2E2E2E2E2E2E2E2E2E2F5E2E2E2F5F5E2E2E2F5E2E2E2E2E2E2E2E2E2E2E2E2
310
E2E2E2E2F5E2E2E2E2E2E2E2E2E2E2E2E2E2E2E2E2E2E2E2E2E2E2E2E2E2E2E2E2E2E2E2E2E2E2E2E2E2E2E2E2E2E2E2E2E2E2E2E2E2E2E2E2E2E2E2E2E2E2E2E2E2E2E2E2E2E2E2E2E2E2E2E2E2E2E2E2E2E2E2E2E2E2E2E2E2E2E2E2E2E2E2E2E2E2E2E2E2E2E2E2E2E2E2E2E2E2E2E2E2E2E2E2E2E2E2E2E2E2E2E2E2E2
310
E2E2E2E2E2E2E2E2E2E2E2E2E2E2F5E2E2E2E2E2E2E2E2E2E2E2E2E2E2E2E2F5E2E2E2F5F5E2E2E2F5E2E2E2E2E2E2E2E2E2E2E2E2E2E2E2E2F5E2E2E2E2E2E2E2E2E2E2E2E2E2E2E2E2E2E2E2E2E2E2E2E2E2E2E2E2E2E2E2E2E2E2E2E2E2E2E2E2E2E2E2E2E2E2E2E2E2E2E2E2E2E2E2E2E2E2E2E2E2E2E2E2E2E2E2E2E2
310
E2E2E2E2E2E2E2E2E2E2E2E2E2E2E2E2E2E2E2E2E2E2E2E2E2E2E2E2E2E2E2E2E2E2E2E2E2E2E2E2E2E2E2E2E2E2E2E2E2E2E2E2E2E2E2E2E2E2E2E2E2E2E2E2E2E2E2F5E2E2E2E2E2E2E2E2E2E2E2E2E2E2E2E2F5E2E2E2F5F5E2E2E2F5E2E2E2E2E2E2E2E2E2E2E2E2E2E2E2E2F5E2E2E2E2E2E2E2E2E2E2E2E2E2E2E2E2
310
E2E2E2E2E2E2E2E2E2E2E2E2E2E2E2E2E2E2E2E2E2E2E2E2E2E2E2E2E2E2E2E2E2E2E2E2E2E2E2E2E2E2E2E2E2E2E2E2E2E2E2E2E2E2E2E2E2E2E2E2E2E2E2E2E2E2E2E2E2E2E2E2E2E2E2E2E2E2E2E2E2E2E2E2E2E2E2E2E2E2E2E2E2E2E2E2E2E2E2E2E2E2E2E2E2E2E2E2E2E2E2E2E2E2E2E2E2E2E2E2F5E2E2E2E2E2E2
310
E2E2E2E2E2E2E2E2E2E2F5E2E2E2F5F5E2E2E2F5E2E2E2E2E2E2E2E2E2E2E2E2E2E2E2E2F5E2E2E2E2E2E2E2E2E2E2E2E2E2E2E2E2E2E2E2E2E2E2E2E2E2E2E2E2E2E2E2E2E2E2E2E2E2E2E2E2E2E2E2E2E2E2E2E2E2E2E2E2E2E2E2E2E2E2E2E2E2E2E2E2E2E2E2E2E2E2E2E2E2E2E2E2E2E2E2E2E2E2E2E2E2E2E2E2E2E2
310
E2E2E2E2E2E2E2E2E2E2E2E2E2E2E2E2E2E2E2E2E2E2E2E2E2E2E2E2E2E2E2E2E2E2E2E2E2E2E2E2E2E2E2E2E2E2F5E2E2E2E2E2E2E2E2E2E2E2E2E2E2E2E2F5E2E2E2F5F5E2E2E2F5E2E2E2E2E2E2E2E2E2E2E2E2E2E2E2E2F5E2E2E2E2E2E2E2E2E2E2E2E2E2E2E2E2E2E2E2E2E2E2E2E2E2E2E2E2E2E2E2E2E2E2E2E2E2
310
E2E2E2E2E2E2E2E2E2E2E2E2E2E2E2E2E2E2E2E2E2E2E2E2E2E2E2E2E2E2E2E2E2E2E2E2E2E2E2E2E2E2E2E2E2E2E2E2E2E2E2E2E2E2E2E2E2E2E2E2E2E2E2E2E2E2E2E2E2E2E2E2E2E2E2E2E2E2E2E2E2E2E2E2E2E2E2E2E2E2E2E2E2E2E2E2E2E2E2F5E2E2E2E2E2E2E2E2E2E2E2E2E2E2E2E2F5E2E2E2F5F5E2E2E2F5E2
310
E2E2E2E2E2E2E2E2E2E2E2E2E2E2E2F5E2E2E2E2E2E2E2E2E2E2E2E2E2E2E2E2E2E2E2E2E2E2E2E2E2E2E2E2E2E2E2E2E2E2E2E2E2E2E2E2E2E2E2E2E2E2E2E2E2E2E2E2E2E2E2E2E2E2E2E2E2E2E2E2E2E2E2E2E2E2E2E2E2E2E2E2E2E2E2E2E2E2E2E2E2E2E2E2E2E2E2E2E2E2E2E2E2E2E2E2E2E2E2E2E2E2E2E2E2E2E2
310
E2E2E2E2E2E2E2E2E2E2E2E2E2E2E2E2E2E2E2E2E2E2E2E2E2F5E2E2E2E2E2E2E2E2E2E2E2E2E2E2E2E2F5E2E2E2F5F5E2E2E2F5E2E2E2E2E2E2E2E2E2E2E2E2E2E2E2E2F5E2E2E2E2E2E2E2E2E2E2E2E2E2E2E2E2E2E2E2E2E2E2E2E2E2E2E2E2E2E2E2E2E2E2E2E2E2E2E2E2E2E2E2E2E2E2E2E2E2E2E2E2E2E2E2E2E2E2
310
E2E2E2E2E2E2E2E2E2E2E2E2E2E2E2E2E2E2E2E2E2E2E2E2E2E2E2E2E2E2E2E2E2E2E2E2E2E2E2E2E2E2E2E2E2E2E2E2E2E2E2E2E2E2E2E2E2E2E2E2E2E2E2E2E2E2E2E2E2E2E2E2E2E2E2E2E2E2F5E2E2E2E2E2E2E2E2E2E2E2E2E2E2E2E2F5E2E2E2F5F5E2E2E2F5E2E2E2E2E2E2E2E2E2E2E2E2E2E2E2E2F5E2E2E2E2E2
310
E2E2E2E2E2E2E2E2E2E2E2E2E2E2E2E2E2E2E2E2E2E2E2E2E2E2E2E2E2E2E2E2E2E2E2E2E2E2E2E2E2E2E2E2E2E2E2E2E2E2E2E2E2E2E2E2E2E2E2E2E2E2E2E2E2E2E2E2E2E2E2E2E2E2E2E2E2E2E2E2E2E2E2E2E2E2E2E2E2E2E2E2E2E2E2E2E2E2E2E2E2E2E2E2E2E2E2E2E2E2E2E2E2E2E2E2E2E2E2E2E2E2E2E2E2E2E2
310
E2E2E2E2F5E2E2E2E2E2E2E2E2E2E2E2E2E2E2E2E2F5E2E2E2F5F5E2E2E2E2E2E2E2E2E2E2E2E2E2E2E2E2E2E2E2E2F5E2E2E2E2E2E2E2E2E2E2E2E2E2E2E2E2E2E2E2E2E2E2E2E2E2E2E2E2E2E2E2E2E2E2E2E2E2E2E2E2E2E2E2E2E2E2E2E2E2E2E2E2E2E2E2E2E2E2E2E2E2E2E2E2E2E2E2E2E2E2E2E2E2E2E2E2E2E2E2
310
E2E2E2E2E2E2E2E2E2E2E2E2E2E2E2E2E2E2E2E2E2E2E2E2E2E2E2E2E2E2E2E2E2E2E2E2E2E2E2E2E2E2E2E2E2E2E2E2E2E2E2E2E2E2E2E2E2F5E2E2E2E2E2E2E2E2E2E2E2E2E2E2E2E2E2E2E2E2F5F5E2E2E2E2E2E2E2E2E2E2E2E2E2E2E2E2E2E2E2E2F5E2E2E2E2E2E2E2E2E2E2E2E2E2E2E2E2E2E2E2E2E2E2E2E2E2E2
310
E2E2E2E2E2E2E2E2E2E2E2E2E2E2E2E2E2E2E2E2E2E2E2E2E2E2E2E2E2E2E2E2E2E2E2E2E2E2E2E2E2E2E2E2E2E2E2E2E2E2E2E2E2E2E2E2E2E2E2E2E2E2E2E2E2E2E2E2E2E2E2E2E2E2E2E2E2E2E2E2E2E2E2E2E2E2E2E2E2E2E2E2E2E2E2E2E2E2E2E2E2E2E2E2E2E2E2E2E2E2F5E2E2E2E2E2E2E2E2E2E2E2E2E2E2E2E2
310
E2E2E2E2F5F5E2E2E2E2E2E2E2E2E2E2E2E2E2E2E2E2E2E2E2E2F5E2E2E2E2E2E2E2E2E2E2E2E2E2E2E2E2E2E2E2E2E2E2E2E2E2E2E2E2E2E2E2E2E2E2E2E2E2E2E2E2E2E2E2E2E2E2E2E2E2E2E2E2E2E2E2E2E2E2E2E2E2E2E2E2E2E2E2E2E2E2E2E2E2E2E2E2E2E2E2E2E2E2E2E2E2E2E2E2E2E2E2E2E2E2E2E2E2E2E2E2
310
E2E2E2E2E2E2E2E2E2E2E2E2E2E2E2E2E2E2E2E2E2E2E2E2E2E2E2E2E2E2E2E2E2E2E2E2F5E2E2E2E2E2E2E2E2E2E2E2E2E2E2E2E2E2E2E2E2F5F5E2E2E2E2E2E2E2E2E2E2E2E2E2E2E2E2E2E2E2E2F5E2E2E2E2E2E2E2E2E2E2E2E2E2E2E2E2E2E2E2E2E2E2E2E2E2E2E2E2E2E2E2E2E2E2E2E2E2E2E2E2E2E2E2E2E2E2E2
310
E2E2E2E2E2E2E2E2E2E2E2E2E2E2E2E2E2E2E2E2E2E2E2E2E2E2E2E2E2E2E2E2E2E2E2E2E2E2E2E2E2E2E2E2E2E2E2E2E2E2E2E2E2E2E2E2E2E2E2E2E2E2E2E2E2E2E2E2E2E2E2E2E2E2E2E2E2E2E2E2E2E2E2E2E2E2E2E2E2F5E2E2E2E2E2E2E2E2E2E2E2E2E2E2E2E2E2E2E2E2F5F5E2E2E2E2E2E2E2E2E2E2E2E2E2E2E2
310
E2E2E2E2E2F5F5F5F5F5F5F5F5F5F5F5F5F5F5F5F5F5F5F5F5F5F5F5F5F5F5F5F5F5F5F5F5F5F5F5F5F5F5F5F5F5F5F5F5F5F5F5F5F5F5F5F5F5F5F5F5F5F5F5F5F5F5F5F5F5F5F5F5F5F5F5F5F5F5F5F5F5F5F5F5F5F5F5F5F5F5F5F5F5F5F5F5F5F5F5F5F5F5F5F5F5F5F5F5F5F5F5F5F5F5F5F5F5F5F5F5F5F5F5F5F5F5
310
F5F5F5F5F5F5F5F5F5F5F5F5F5F5F5F5E2E2E2E2E2E2E2E2E2E2E2E2E2E2E2E2E2E2E2E2F5F5E2E2E2E2E2E2E2E2E2E2E2E2E2E2E2E2E2E2E2E2E2E2E2E2E2E2E2E2E2E2E2E2E2E2E2E2E2E2E2E2E2E2E2E2E2E2E2E2E2E2E2E2E2E2E2E2E2E2E2E2E2E2E2E2E2E2E2E2E2E2E2E2E2E2E2E2E2E2E2E2E2E2E2E2E2E2E2E2E2
310
E2E2E2E2E2E2E2E2E2E2E2E2E2E2E2E2E2E2E2E2E2E2E2E2E2E2E2E2E2E2E2E2E2E2E2E2E2E2E2E2E2E2E2E2E2E2E2E2E2E2E2E2E2E2E2E2E2E2E2E2E2E2E2E2E2E2E2E2E2E2E2E2E2E2E2E2E2E2E2E2E2E2E2E2E2E2E2E2E2F5F5E2E2E2E2E2E2E2E2E2E2E2E2E2E2E2E2E2E2E2E2E2E2E2E2E2E2E2E2E2E2E2E2E2E2E2E2
310
E2E2E2E2E2E2E2E2E2E2E2E2E2E2E2E2E2E2E2E2E2E2E2E2E2E2E2E2E2E2E2E2E2E2E2E2E2E2E2E2E2E2E2E2E2E2E2E2E2E2E2E2E2E2E2E2E2E2E2E2E2E2E2E2E2E2E2E2E2E2E2E2E2E2E2E2E2E2E2E2E2E2E2E2E2E2E2E2E2E2E2E2E2E2E2E2E2E2E2E2E2E2E2E2E2E2E2E2E2E2E2E2E2E2E2E2E2E2E2E2E2E2E2E2E2E2E2
310
E2E2E2E2E2E2E2E2E2E2E2E2E2E2E2F5F5E2E2E2E2E2E2E2E2E2E2E2E2E2E2E2E2E2E2E2E2E2E2E2E2E2E2E2E2E2E2E2E2E2E2E2E2E2E2E2E2E2E2E2E2E2E2E2E2E2E2E2E2E2E2E2E2E2E2E2E2E2E2E2E2E2E2E2E2E2E2E2E2E2E2E2E2E2E2E2E2E2E2E2E2E2E2E2E2E2E2E2E2E2E2E2E2E2E2E2E2E2E2E2E2E2E2E2E2E2E2
310
E2E2E2E2E2E2E2E2E2E2E2E2E2E2E2E2E2E2E2E2E2E2E2E2E2E2E2E2E2E2E2E2E2E2E2E2E2E2E2E2E2E2E2E2E2E2E2E2E2E2E2E2E2E2E2E2E2E2E2E2E2E2E2E2E2E2E2E2F5F5E2E2E2E2E2E2E2E2E2E2E2E2E2E2E2E2E2E2E2E2E2E2E2E2E2E2E2E2E2E2E2E2E2E2E2E2E2E2E2E2E2E2E2E2E2E2E2E2E2E2E2E2E2E2E2E2E2
310
E2E2E2E2E2E2E2E2E2E2E2E2E2E2E2E2E2E2E2E2E2E2E2E2E2E2E2E2E2E2E2E2E2E2E2E2E2E2E2E2E2E2E2E2E2E2E2E2E2E2E2E2E2E2E2E2E2E2E2E2E2E2E2E2E2E2E2E2E2E2E2E2E2E2E2E2E2E2E2E2E2E2E2E2E2E2E2E2E2E2E2E2E2E2E2E2E2E2E2E2E2E2E2E2E2E2E2E2E2E2E2E2E2E2E2E2E2E2E2E2E2F5F5E2E2E2F5
310
E2E2E2E2E2E2E2E2E2E2E2E2E2E2E2E2E2E2E2E2E2E2E2E2E2E2E2E2E2E2E2E2E2E2E2E2E2E2E2E2E2E2E2E2E2E2E2E2E2E2E2E2E2E2E2E2E2E2E2E2E2E2E2E2E2E2E2E2E2E2E2E2E2E2E2E2E2E2E2E2E2E2E2E2E2E2E2E2E2E2E2E2E2E2E2E2E2E2E2E2E2E2E2E2E2E2E2E2E2E2E2E2E2E2E2E2E2E2E2E2E2E2E2E2E2E2E2
310
E2E2E2E2E2E2E2E2E2E2E2E2E2E2E2E2E2E2E2E2E2E2E2E2E2E2E2E2E2E2E2E2E2E2E2E2E2E2E2E2E2E2E2F5E2E2E2F5F5E2E2E2F5E2E2E2E2E2E2E2E2E2E2E2E2E2E2E2E2E2E2E2E2E2E2E2E2E2E2E2E2E2E2E2E2E2E2E2E2E2E2E2E2E2E2E2E2E2E2E2E2E2E2E2E2E2E2E2E2E2E2E2E2E2E2E2E2E2E2E2E2E2E2E2E2E2E2
310
E2E2E2E2E2E2E2E2E2E2E2E2E2E2E2E2E2E2E2E2E2E2E2E2E2E2E2E2E2E2E2E2E2E2E2E2E2E2E2E2E2E2E2E2E2E2E2E2E2E2E2E2E2E2E2E2E2E2E2E2E2E2E2E2E2E2E2E2E2E2E2E2E2E2E2E2E2E2E2E2E2E2E2E2E2E2E2E2E2E2E2E2E2E2E2E2F5E2E2E2F5F5E2E2E2F5E2E2E2E2E2E2E2E2E2E2E2E2E2E2E2E2E2E2E2E2E2
310
E2E2E2E2E2E2E2E2E2E2E2E2E2E2E2E2E2E2E2E2E2E2E2E2E2E2E2E2E2E2E2E2E2E2E2E2E2E2E2E2E2E2E2E2E2E2E2E2E2E2E2E2E2E2E2E2E2E2E2E2E2E2E2E2E2E2E2E2E2E2E2E2E2E2E2E2E2E2E2E2E2E2E2E2E2E2E2E2E2E2E2E2E2E2E2E2E2E2E2E2E2E2E2E2E2E2E2E2E2E2E2E2E2E2E2E2E2E2E2E2E2E2E2E2E2E2E2
310
E2E2E2E2E2E2E2E2E2E2E2E2E2E2E2E2E2E2E2E2E2E2F5E2E2E2F5F5E2E2E2F5E2E2E2E2E2E2E2E2E2E2E2E2E2E2E2E2E2E2E2E2E2E2E2E2E2E2E2E2E2E2E2E2E2E2E2E2E2E2E2E2E2E2E2E2E2E2E2E2E2E2E2E2E2E2E2E2E2E2E2E2E2E2E2E2E2E2E2E2E2E2E2E2E2E2E2E2E2E2E2E2E2E2E2E2E2E2E2E2E2E2E2E2E2E2E2
310
E2E2E2E2E2E2E2E2E2E2E2E2E2E2E2E2E2E2E2E2E2E2E2E2E2E2E2E2E2E2E2E2E2E2E2E2E2E2E2E2E2E2E2E2E2E2E2E2E2E2E2E2E2E2E2E2E2E2E2E2E2E2E2E2E2E2E2E2E2E2E2E2E2E2E2F5E2E2E2F5F5E2E2E2F5E2E2E2E2E2E2E2E2E2E2E2E2E2E2E2E2E2E2E2E2E2E2E2E2E2E2E2E2E2E2E2E2E2E2E2E2E2E2E2E2E2E2
310
E2E2E2E2E2E2E2E2E2E2E2E2E2E2E2E2E2E2E2E2E2E2E2E2E2E2E2E2E2E2E2E2E2E2E2E2E2E2E2E2E2E2E2E2E2E2E2E2E2E2E2E2E2E2E2E2E2E2E2E2E2E2E2E2E2E2E2E2E2E2E2E2E2E2E2E2E2E2E2E2E2E2E2E2E2E2E2E2E2E2E2E2E2E2E2E2E2E2E2E2E2E2E2E2E2E2E2E2E2E2E2E2E2E2E2E2E2E2E2E2E2E2E2E2E2E2E2
310
E2F5E2E2E2F5F5E2E2E2F5E2E2E2E2E2E2E2E2E2E2E2E2E2E2E2E2E2E2E2E2E2E2E2E2E2E2E2E2E2E2E2E2E2E2E2E2E2E2E2E2E2E2E2E2E2E2E2E2E2E2E2E2E2E2E2E2E2E2E2E2E2E2E2E2E2E2E2E2E2E2E2E2E2E2E2E2E2E2E2E2E2E2E2E2E2E2E2E2E2E2E2E2E2E2E2E2E2E2E2E2E2E2E2E2E2E2E2E2E2E2E2E2E2E2E2E2
310
E2E2E2E2E2E2E2E2E2E2E2E2E2E2E2E2E2E2E2E2E2E2E2E2E2E2E2E2E2E2E2E2E2E2E2E2E2E2E2E2E2E2E2E2E2E2E2E2E2E2E2E2E2E2F5E2E2E2F5F5E2E2E2F5E2E2E2E2E2E2E2E2E2E2E2E2E2E2E2E2E2E2E2E2E2E2E2E2E2E2E2E2E2E2E2E2E2E2E2E2E2E2E2E2E2E2E2E2E2E2E2E2E2E2E2E2E2E2E2E2E2E2E2E2E2E2E2
310
E2E2E2E2E2E2E2E2E2E2E2E2E2E2E2E2E2E2E2E2E2E2E2E2E2E2E2E2E2E2E2E2E2E2E2E2E2E2E2E2E2E2E2E2E2E2E2E2E2E2E2E2E2E2E2E2E2E2E2E2E2E2E2E2E2E2E2E2E2E2E2E2E2E2E2E2E2E2E2E2E2E2E2E2E2E2E2E2E2E2E2E2E2E2E2E2E2E2E2E2E2E2E2E2E2E2E2F5E2E2E2F5F5E2E2E2F5E2E2E2E2E2E2E2E2E2E2
310
E2E2E2E2E2E2E2E2E2E2E2E2E2E2E2E2E2E2E2E2E2E2E2E2E2E2E2E2E2E2E2E2E2E2E2E2E2E2E2E2E2E2E2E2E2E2E2E2E2E2E2E2E2E2E2E2E2E2E2E2E2E2E2E2E2E2E2E2E2E2E2E2E2E2E2E2E2E2E2E2E2E2E2E2E2E2E2E2E2E2E2E2E2E2E2E2E2E2E2E2E2E2E2E2E2E2E2E2E2E2E2E2E2E2E2E2E2E2E2E2E2E2E2E2E2E2E2
310
E2E2E2E2E2E2E2E2E2E2E2E2E2E2E2E2E2E2E2E2E2E2E2E2E2E2E2E2E2E2E2E2E2F5E2E2E2F5F5E2E2E2F5F5F5F5F5F5F5F5E2E2E2E2E2E2E2E2E2F5F5F5F5F5F5F5F5F5F5F5F5F5F5F5F5E2E2E2E2E2E2E2E2E2F5F5F5F5F5F5F5F5F5F5F5F5F5F5F5E2E2E2E2E2E2E2E2E2F5F5F5F5F5F5F5F5F5F5F5F5F5F5F5F5E2E2E2
310
E2E2E2E2E2F5F5F5F5F5F5F5F5F5F5F5F5F5F5F5F5E2E2E2E2E2E2E2E2E2F5F5F5F5F5F5F5F5F5F5F5F5F5F5F5E2E2E2E2E2E2E2E2E2F5F5F5F5F5F5F5F5F5F5F5F5F5F5F5F5E2E2E2E2E2E2E2E2E2F5F5F5F5F5F5F5F5E2E2E2F5F5E2E2E2E2E2E2E2E2E2E2E2E2E2E2E2E2E2E2E2E2E2E2E2E2E2E2E2E2E2E2E2E2E2E2E2
310
E2E2E2E2E2E2E2E2E2E2E2E2E2E2E2E2E2E2E2E2E2E2E2E2E2E2E2E2E2E2E2E2E2E2E2E2E2E2E2E2E2E2E2E2E2E2E2E2E2E2E2E2E2E2E2E2E2E2E2E2E2E2E2E2E2E2E2E2E2E2E2E2E2E2E2E2E2E2E2E2E2E2E2E2E2E2E2E2E2E2E2E2E2E2E2E2E2E2E2E2E2E2E2E2E2E2E2E2E2E2E2E2E2E2E2E2E2E2E2E2E2E2E2E2E2E2E2
310
E2E2E2E2E2E2E2E2E2E2E2E2E2E2E2E2F5F5E2E2E2E2E2E2E2E2E2E2E2E2E2E2E2E2E2E2E2E2E2E2E2E2E2E2E2E2E2E2E2E2E2E2E2E2E2E2E2E2E2E2E2E2E2E2E2E2E2E2E2E2E2E2E2E2E2E2E2E2E2E2E2E2E2E2E2E2E2E2E2E2E2E2E2E2E2E2E2E2E2E2E2E2E2E2E2E2E2E2E2E2E2E2E2E2E2E2E2E2E2E2E2E2E2E2E2E2E2
310
E2E2E2E2E2E2E2E2E2E2E2E2E2E2E2E2E2E2E2E2E2E2E2E2E2E2E2E2E2E2E2E2E2E2E2E2E2E2E2E2E2E2E2E2E2E2E2E2E2E2E2E2E2E2E2E2E2E2E2E2E2E2E2E2E2E2E2E2E2F5F5E2E2E2E2E2E2E2E2E2E2E2E2E2E2E2E2E2E2E2E2E2E2E2E2E2E2E2E2E2E2E2E2E2E2E2E2E2E2E2E2E2E2E2E2E2E2E2E2E2E2E2E2E2E2E2E2
310
E2E2E2E2E2E2E2E2E2E2E2E2E2E2E2E2E2E2E2E2E2E2E2E2E2E2E2E2E2E2E2E2E2E2E2E2E2E2E2E2E2E2E2E2E2E2E2E2E2E2E2E2E2E2E2E2E2E2E2E2E2E2E2E2E2E2E2E2E2E2E2E2E2E2E2E2E2E2E2E2E2E2E2E2E2E2E2E2E2E2E2E2E2E2E2E2E2E2E2E2E2E2E2E2E2E2E2E2E2E2E2E2E2E2E2E2E2E2E2E2E2E2F5F5E2E2E2
310
E2E2E2E2E2E2E2E2E2E2E2E2E2E2E2E2E2E2E2E2E2E2E2E2E2E2E2E2E2E2E2E2E2E2E2E2E2E2E2E2E2E2E2E2E2E2E2E2E2E2E2E2E2E2E2E2E2E2E2E2E2E2E2E2E2E2E2E2E2E2E2E2E2E2E2E2E2E2E2E2E2E2E2E2E2E2E2E2E2E2E2E2E2E2E2E2E2E2E2E2E2E2E2E2E2E2E2E2E2E2E2E2E2E2E2E2E2E2E2E2E2E2E2E2E2E2E2
310
E2E2E2E2E2E2E2E2E2E2E2E2E2E2E2E2E2E2E2E2E2E2E2E2E2E2E2E2E2E2E2E2E2E2E2E2E2E2E2E2E2E2E2E2E2E2E2E2F5
  0
XRECORD
  5
564AE
102
{ACAD_REACTORS
330
564AD
102
}
330
564AD
100
AcDbXrecord
280
     1
102
SHADEPLOT
 70
     0
102
SHADEPLOTRESLEVEL
 70
     2
102
SHADEPLOTCUSTOMDPI
 70
   300
  0
ENDSEC
  0
EOF
