  0
SECTION
  2
HEADER
  9
$ACADVER
  1
AC1015
  9
$ACADMAINTVER
 70
    20
  9
$DWGCODEPAGE
  3
ANSI_936
  9
$INSBASE
 10
0.0
 20
0.0
 30
0.0
  9
$EXTMIN
 10
-33.93309193849997
 20
-79.21471082265947
 30
0.0
  9
$EXTMAX
 10
276.9458867547824
 20
123.7680991397948
 30
0.0
  9
$LIMMIN
 10
0.0
 20
0.0
  9
$LIMMAX
 10
420.0
 20
297.0
  9
$ORTHOMODE
 70
     0
  9
$REGENMODE
 70
     1
  9
$FILLMODE
 70
     1
  9
$QTEXTMODE
 70
     0
  9
$MIRRTEXT
 70
     1
  9
$LTSCALE
 40
1.0
  9
$ATTMODE
 70
     1
  9
$TEXTSIZE
 40
3.5
  9
$TRACEWID
 40
1.0
  9
$TEXTSTYLE
  7
simplex
  9
$CLAYER
  8
0
  9
$CELTYPE
  6
ByLayer
  9
$CECOLOR
 62
   256
  9
$CELTSCALE
 40
1.0
  9
$DISPSILH
 70
     0
  9
$DIMSCALE
 40
0.0
  9
$DIMASZ
 40
3.5
  9
$DIMEXO
 40
0.0
  9
$DIMDLI
 40
0.38
  9
$DIMRND
 40
0.0
  9
$DIMDLE
 40
0.0
  9
$DIMEXE
 40
1.5
  9
$DIMTP
 40
0.0
  9
$DIMTM
 40
0.0
  9
$DIMTXT
 40
3.5
  9
$DIMCEN
 40
0.09
  9
$DIMTSZ
 40
0.0
  9
$DIMTOL
 70
     0
  9
$DIMLIM
 70
     0
  9
$DIMTIH
 70
     0
  9
$DIMTOH
 70
     0
  9
$DIMSE1
 70
     0
  9
$DIMSE2
 70
     0
  9
$DIMTAD
 70
     1
  9
$DIMZIN
 70
     8
  9
$DIMBLK
  1

  9
$DIMASO
 70
     1
  9
$DIMSHO
 70
     1
  9
$DIMPOST
  1

  9
$DIMAPOST
  1

  9
$DIMALT
 70
     0
  9
$DIMALTD
 70
     2
  9
$DIMALTF
 40
25.4
  9
$DIMLFAC
 40
1.0
  9
$DIMTOFL
 70
     0
  9
$DIMTVP
 40
0.0
  9
$DIMTIX
 70
     0
  9
$DIMSOXD
 70
     0
  9
$DIMSAH
 70
     0
  9
$DIMBLK1
  1

  9
$DIMBLK2
  1

  9
$DIMSTYLE
  2
\M+18352\M+18373\M+1815B - ISO-25
  9
$DIMCLRD
 70
   256
  9
$DIMCLRE
 70
   256
  9
$DIMCLRT
 70
   256
  9
$DIMTFAC
 40
1.0
  9
$DIMGAP
 40
2.299999999999998
  9
$DIMJUST
 70
     0
  9
$DIMSD1
 70
     0
  9
$DIMSD2
 70
     0
  9
$DIMTOLJ
 70
     1
  9
$DIMTZIN
 70
     8
  9
$DIMALTZ
 70
     0
  9
$DIMALTTZ
 70
     0
  9
$DIMUPT
 70
     0
  9
$DIMDEC
 70
     2
  9
$DIMTDEC
 70
     2
  9
$DIMALTU
 70
     2
  9
$DIMALTTD
 70
     2
  9
$DIMTXSTY
  7
simplex
  9
$DIMAUNIT
 70
     0
  9
$DIMADEC
 70
     0
  9
$DIMALTRND
 40
0.0
  9
$DIMAZIN
 70
     0
  9
$DIMDSEP
 70
    46
  9
$DIMATFIT
 70
     3
  9
$DIMFRAC
 70
     0
  9
$DIMLDRBLK
  1

  9
$DIMLUNIT
 70
     2
  9
$DIMLWD
 70
    -1
  9
$DIMLWE
 70
    -1
  9
$DIMTMOVE
 70
     0
  9
$LUNITS
 70
     2
  9
$LUPREC
 70
     4
  9
$SKETCHINC
 40
1.0
  9
$FILLETRAD
 40
0.8
  9
$AUNITS
 70
     0
  9
$AUPREC
 70
     0
  9
$MENU
  1
.
  9
$ELEVATION
 40
0.0
  9
$PELEVATION
 40
0.0
  9
$THICKNESS
 40
0.0
  9
$LIMCHECK
 70
     0
  9
$CHAMFERA
 40
10.0
  9
$CHAMFERB
 40
10.0
  9
$CHAMFERC
 40
20.0
  9
$CHAMFERD
 40
0.0
  9
$SKPOLY
 70
     0
  9
$TDCREATE
 40
2455489.391063368
  9
$TDUCREATE
 40
2455489.057730035
  9
$TDUPDATE
 40
2458518.451060150
  9
$TDUUPDATE
 40
2458518.117726817
  9
$TDINDWG
 40
2.2345863079
  9
$TDUSRTIMER
 40
2.2345320949
  9
$USRTIMER
 70
     1
  9
$ANGBASE
 50
0.0
  9
$ANGDIR
 70
     0
  9
$PDMODE
 70
     0
  9
$PDSIZE
 40
0.0
  9
$PLINEWID
 40
0.0
  9
$SPLFRAME
 70
     0
  9
$SPLINETYPE
 70
     6
  9
$SPLINESEGS
 70
     8
  9
$HANDSEED
  5
557EC
  9
$SURFTAB1
 70
     6
  9
$SURFTAB2
 70
     6
  9
$SURFTYPE
 70
     6
  9
$SURFU
 70
     6
  9
$SURFV
 70
     6
  9
$UCSBASE
  2

  9
$UCSNAME
  2

  9
$UCSORG
 10
0.0
 20
0.0
 30
0.0
  9
$UCSXDIR
 10
1.0
 20
0.0
 30
0.0
  9
$UCSYDIR
 10
0.0
 20
1.0
 30
0.0
  9
$UCSORTHOREF
  2

  9
$UCSORTHOVIEW
 70
     0
  9
$UCSORGTOP
 10
0.0
 20
0.0
 30
0.0
  9
$UCSORGBOTTOM
 10
0.0
 20
0.0
 30
0.0
  9
$UCSORGLEFT
 10
0.0
 20
0.0
 30
0.0
  9
$UCSORGRIGHT
 10
0.0
 20
0.0
 30
0.0
  9
$UCSORGFRONT
 10
0.0
 20
0.0
 30
0.0
  9
$UCSORGBACK
 10
0.0
 20
0.0
 30
0.0
  9
$PUCSBASE
  2

  9
$PUCSNAME
  2

  9
$PUCSORG
 10
0.0
 20
0.0
 30
0.0
  9
$PUCSXDIR
 10
1.0
 20
0.0
 30
0.0
  9
$PUCSYDIR
 10
0.0
 20
1.0
 30
0.0
  9
$PUCSORTHOREF
  2

  9
$PUCSORTHOVIEW
 70
     0
  9
$PUCSORGTOP
 10
0.0
 20
0.0
 30
0.0
  9
$PUCSORGBOTTOM
 10
0.0
 20
0.0
 30
0.0
  9
$PUCSORGLEFT
 10
0.0
 20
0.0
 30
0.0
  9
$PUCSORGRIGHT
 10
0.0
 20
0.0
 30
0.0
  9
$PUCSORGFRONT
 10
0.0
 20
0.0
 30
0.0
  9
$PUCSORGBACK
 10
0.0
 20
0.0
 30
0.0
  9
$USERI1
 70
     0
  9
$USERI2
 70
     0
  9
$USERI3
 70
     0
  9
$USERI4
 70
     0
  9
$USERI5
 70
     0
  9
$USERR1
 40
0.0
  9
$USERR2
 40
0.0
  9
$USERR3
 40
0.0
  9
$USERR4
 40
0.0
  9
$USERR5
 40
0.0
  9
$WORLDVIEW
 70
     1
  9
$SHADEDGE
 70
     3
  9
$SHADEDIF
 70
    70
  9
$TILEMODE
 70
     1
  9
$MAXACTVP
 70
    64
  9
$PINSBASE
 10
0.0
 20
0.0
 30
0.0
  9
$PLIMCHECK
 70
     0
  9
$PEXTMIN
 10
26.66999878883364
 20
20.31999878883365
 30
0.0
  9
$PEXTMAX
 10
240.0299890995025
 20
182.8799890995025
 30
0.0
  9
$PLIMMIN
 10
-6.350006103515625
 20
-6.349999904632567
  9
$PLIMMAX
 10
273.0499877929688
 20
209.5499939918518
  9
$UNITMODE
 70
     0
  9
$VISRETAIN
 70
     1
  9
$PLINEGEN
 70
     0
  9
$PSLTSCALE
 70
     1
  9
$TREEDEPTH
 70
  3020
  9
$CMLSTYLE
  2
Standard
  9
$CMLJUST
 70
     0
  9
$CMLSCALE
 40
20.0
  9
$PROXYGRAPHICS
 70
     1
  9
$MEASUREMENT
 70
     1
  9
$CELWEIGHT
370
    -1
  9
$ENDCAPS
280
     0
  9
$JOINSTYLE
280
     0
  9
$LWDISPLAY
290
     0
  9
$INSUNITS
 70
     4
  9
$HYPERLINKBASE
  1

  9
$STYLESHEET
  1

  9
$XEDIT
290
     1
  9
$CEPSNTYPE
380
     0
  9
$PSTYLEMODE
290
     1
  9
$FINGERPRINTGUID
  2
{601DDA01-5B13-4A4C-8F56-1333B78D855B}
  9
$VERSIONGUID
  2
{D1636796-777F-4DA1-A658-3462CD6DEDD4}
  9
$EXTNAMES
290
     1
  9
$PSVPSCALE
 40
0.0
  9
$OLESTARTUP
290
     0
  0
ENDSEC
  0
SECTION
  2
CLASSES
  0
CLASS
  1
ACDBDICTIONARYWDFLT
  2
AcDbDictionaryWithDefault
  3
ObjectDBX Classes
 90
        0
280
     0
281
     0
  0
CLASS
  1
ACDBPLACEHOLDER
  2
AcDbPlaceHolder
  3
ObjectDBX Classes
 90
        0
280
     0
281
     0
  0
CLASS
  1
LAYOUT
  2
AcDbLayout
  3
ObjectDBX Classes
 90
        0
280
     0
281
     0
  0
CLASS
  1
DICTIONARYVAR
  2
AcDbDictionaryVar
  3
ObjectDBX Classes
 90
        0
280
     0
281
     0
  0
CLASS
  1
TABLESTYLE
  2
AcDbTableStyle
  3
ObjectDBX Classes
 90
     2047
280
     0
281
     0
  0
CLASS
  1
SORTENTSTABLE
  2
AcDbSortentsTable
  3
ObjectDBX Classes
 90
        0
280
     0
281
     0
  0
CLASS
  1
DIMASSOC
  2
AcDbDimAssoc
  3
"AcDbDimAssoc|Product Desc:     AcDim ARX App For Dimension|Company:          Autodesk, Inc.|WEB Address:      www.autodesk.com"
 90
        0
280
     0
281
     0
  0
CLASS
  1
ACAD_EVALUATION_GRAPH
  2
AcDbEvalGraph
  3
ObjectDBX Classes
 90
    33921
280
     0
281
     0
  0
CLASS
  1
ACAECUSTOBJ
  2
AcAeEditorObj
  3
AcAeEditorObj
 90
    33792
280
     0
281
     0
  0
CLASS
  1
ACDB_DYNAMICBLOCKPURGEPREVENTER_VERSION
  2
AcDbDynamicBlockPurgePreventer
  3
ObjectDBX Classes
 90
    33921
280
     0
281
     0
  0
ENDSEC
  0
SECTION
  2
TABLES
  0
TABLE
  2
VPORT
  5
8
330
0
100
AcDbSymbolTable
 70
     7
  0
VPORT
  5
557DD
330
8
100
AcDbSymbolTableRecord
100
AcDbViewportTableRecord
  2
*Active
 70
     0
 10
0.0
 20
0.0
 11
1.0
 21
1.0
 12
26.58232341173223
 22
15.03332370605489
 13
0.0
 23
0.0
 14
10.0
 24
10.0
 15
10.0
 25
10.0
 16
0.0
 26
0.0
 36
1.0
 17
0.0
 27
0.0
 37
0.0
 40
234.2477953894121
 41
1.386206896551724
 42
50.0
 43
0.0
 44
0.0
 50
0.0
 51
0.0
 71
     0
 72
  1000
 73
     1
 74
     1
 75
     0
 76
     0
 77
     0
 78
     0
281
     0
 65
     1
110
0.0
120
0.0
130
0.0
111
1.0
121
0.0
131
0.0
112
0.0
122
1.0
132
0.0
 79
     0
146
0.0
  0
ENDTAB
  0
TABLE
  2
LTYPE
  5
5
330
0
100
AcDbSymbolTable
 70
     4
  0
LTYPE
  5
14
330
5
100
AcDbSymbolTableRecord
100
AcDbLinetypeTableRecord
  2
ByBlock
 70
     0
  3

 72
    65
 73
     0
 40
0.0
  0
LTYPE
  5
15
330
5
100
AcDbSymbolTableRecord
100
AcDbLinetypeTableRecord
  2
ByLayer
 70
     0
  3

 72
    65
 73
     0
 40
0.0
  0
LTYPE
  5
16
330
5
100
AcDbSymbolTableRecord
100
AcDbLinetypeTableRecord
  2
Continuous
 70
     0
  3
Solid line
 72
    65
 73
     0
 40
0.0
  0
LTYPE
  5
D7
330
5
100
AcDbSymbolTableRecord
100
AcDbLinetypeTableRecord
  2
HIDDEN
 70
     0
  3
Hidden __ __ __ __ __ __ __ __ __ __ __ __ __ _
 72
    65
 73
     2
 40
9.524999999999996
 49
6.349999999999997
 74
     0
 49
-3.174999999999998
 74
     0
  0
LTYPE
  5
D9
330
5
100
AcDbSymbolTableRecord
100
AcDbLinetypeTableRecord
  2
CENTER
 70
     0
  3
Center ____ _ ____ _ ____ _ ____ _ ____ _ ____
 72
    65
 73
     4
 40
50.8
 49
31.75
 74
     0
 49
-6.349999999999997
 74
     0
 49
6.349999999999997
 74
     0
 49
-6.349999999999997
 74
     0
  0
LTYPE
  5
35815
330
5
100
AcDbSymbolTableRecord
100
AcDbLinetypeTableRecord
  2
PHANTOM
 70
     0
  3
_____ _ _ _____ _ _ _____ _ _ _____
 72
    65
 73
     6
 40
0.8
 49
0.45
 74
     0
 49
-0.05
 74
     0
 49
0.1
 74
     0
 49
-0.05
 74
     0
 49
0.1
 74
     0
 49
-0.05
 74
     0
  0
ENDTAB
  0
TABLE
  2
LAYER
  5
2
102
{ACAD_XDICTIONARY
360
E2
102
}
330
0
100
AcDbSymbolTable
 70
    15
  0
LAYER
  5
10
330
2
100
AcDbSymbolTableRecord
100
AcDbLayerTableRecord
  2
0
 70
     0
 62
     7
  6
Continuous
370
    -3
390
F
  0
LAYER
  5
D1
330
2
100
AcDbSymbolTableRecord
100
AcDbLayerTableRecord
  2
1
 70
     0
 62
     4
  6
Continuous
370
    50
390
F
1001
AcAecLayerStandard
1000

1000

  0
LAYER
  5
D3
330
2
100
AcDbSymbolTableRecord
100
AcDbLayerTableRecord
  2
2
 70
     0
 62
     7
  6
Continuous
370
    25
390
F
1001
AcAecLayerStandard
1000

1000

  0
LAYER
  5
D4
330
2
100
AcDbSymbolTableRecord
100
AcDbLayerTableRecord
  2
3
 70
     0
 62
     1
  6
HIDDEN
370
    35
390
F
1001
AcAecLayerStandard
1000

1000

  0
LAYER
  5
D8
330
2
100
AcDbSymbolTableRecord
100
AcDbLayerTableRecord
  2
4
 70
     0
 62
     2
  6
CENTER
370
    25
390
F
1001
AcAecLayerStandard
1000

1000

  0
LAYER
  5
DA
330
2
100
AcDbSymbolTableRecord
100
AcDbLayerTableRecord
  2
6
 70
     0
 62
     5
  6
Continuous
370
    35
390
F
1001
AcAecLayerStandard
1000

1000

  0
LAYER
  5
DB
330
2
100
AcDbSymbolTableRecord
100
AcDbLayerTableRecord
  2
cut
 70
     0
 62
     1
  6
Continuous
370
    25
390
F
1001
AcAecLayerStandard
1000

1000

  0
LAYER
  5
DC
330
2
100
AcDbSymbolTableRecord
100
AcDbLayerTableRecord
  2
nocut
 70
     0
 62
     7
  6
Continuous
370
    25
390
F
1001
AcAecLayerStandard
1000

1000

  0
LAYER
  5
DD
330
2
100
AcDbSymbolTableRecord
100
AcDbLayerTableRecord
  2
sk1
 70
     0
 62
     4
  6
Continuous
370
    50
390
F
1001
AcAecLayerStandard
1000

1000

  0
LAYER
  5
DE
330
2
100
AcDbSymbolTableRecord
100
AcDbLayerTableRecord
  2
sk2
 70
     0
 62
     7
  6
Continuous
370
    25
390
F
1001
AcAecLayerStandard
1000

1000

  0
LAYER
  5
DF
330
2
100
AcDbSymbolTableRecord
100
AcDbLayerTableRecord
  2
sk3
 70
     0
 62
     1
  6
HIDDEN
370
    35
390
F
1001
AcAecLayerStandard
1000

1000

  0
LAYER
  5
E0
330
2
100
AcDbSymbolTableRecord
100
AcDbLayerTableRecord
  2
sk4
 70
     0
 62
     2
  6
CENTER
370
    25
390
F
1001
AcAecLayerStandard
1000

1000

  0
LAYER
  5
E1
330
2
100
AcDbSymbolTableRecord
100
AcDbLayerTableRecord
  2
sk6
 70
     0
 62
     5
  6
Continuous
370
    35
390
F
1001
AcAecLayerStandard
1000

1000

  0
LAYER
  5
31B6
330
2
100
AcDbSymbolTableRecord
100
AcDbLayerTableRecord
  2
Defpoints
 70
     0
 62
     7
  6
Continuous
290
     0
370
    -3
390
F
  0
ENDTAB
  0
TABLE
  2
STYLE
  5
3
330
0
100
AcDbSymbolTable
 70
    11
  0
STYLE
  5
11
330
3
100
AcDbSymbolTableRecord
100
AcDbTextStyleTableRecord
  2
Standard
 70
     0
 40
0.0
 41
1.0
 50
0.0
 71
     0
 42
2.5
  3
txt.shx
  4
@extfont2.shx
  0
STYLE
  5
D6
330
3
100
AcDbSymbolTableRecord
100
AcDbTextStyleTableRecord
  2

 70
     1
 40
0.0
 41
1.0
 50
0.0
 71
     0
 42
2.5
  3
ltypeshp.shx
  4

  0
STYLE
  5
24A
330
3
100
AcDbSymbolTableRecord
100
AcDbTextStyleTableRecord
  2
simplex
 70
     0
 40
3.5
 41
1.0
 50
0.0
 71
     0
 42
3.5
  3
txt.shx
  4

  0
STYLE
  5
69E
330
3
100
AcDbSymbolTableRecord
100
AcDbTextStyleTableRecord
  2
MX_NOTE_STANDARD
 70
     0
 40
0.0
 41
1.0
 50
0.0
 71
     0
 42
4.2
  3
txt.shx
  4
extfont.shx
  0
STYLE
  5
3524
330
3
100
AcDbSymbolTableRecord
100
AcDbTextStyleTableRecord
  2
TEXTSTYLE_2
 70
     0
 40
0.0
 41
0.775
 50
0.0
 71
     0
 42
0.2
  3
gdt
  4

  0
STYLE
  5
3525
330
3
100
AcDbSymbolTableRecord
100
AcDbTextStyleTableRecord
  2
TEXTSTYLE_3
 70
     0
 40
0.0
 41
0.75
 50
0.0
 71
     0
 42
0.2
  3
txt
  4

  0
STYLE
  5
3526
330
3
100
AcDbSymbolTableRecord
100
AcDbTextStyleTableRecord
  2
TEXTSTYLE_13
 70
     0
 40
0.0
 41
1.0
 50
0.0
 71
     0
 42
0.2
  3
txt
  4

  0
STYLE
  5
519A
330
3
100
AcDbSymbolTableRecord
100
AcDbTextStyleTableRecord
  2
TEXTSTYLE_14
 70
     0
 40
0.0
 41
1.0
 50
0.0
 71
     0
 42
0.2
  3
txt
  4

  0
STYLE
  5
6F72
330
3
100
AcDbSymbolTableRecord
100
AcDbTextStyleTableRecord
  2
TEXTSTYLE_4
 70
     0
 40
0.0
 41
0.75
 50
0.0
 71
     0
 42
0.2
  3
txt
  4

  0
STYLE
  5
6F73
330
3
100
AcDbSymbolTableRecord
100
AcDbTextStyleTableRecord
  2
TEXTSTYLE_17
 70
     0
 40
0.0
 41
1.0
 50
0.0
 71
     0
 42
0.2
  3
txt
  4

  0
STYLE
  5
FE12
330
3
100
AcDbSymbolTableRecord
100
AcDbTextStyleTableRecord
  2
TEXTSTYLE_12
 70
     0
 40
0.0
 41
1.0
 50
0.0
 71
     0
 42
0.2
  3
txt
  4

  0
ENDTAB
  0
TABLE
  2
VIEW
  5
6
330
0
100
AcDbSymbolTable
 70
     0
  0
ENDTAB
  0
TABLE
  2
UCS
  5
7
330
0
100
AcDbSymbolTable
 70
     0
  0
ENDTAB
  0
TABLE
  2
APPID
  5
9
330
0
100
AcDbSymbolTable
 70
    11
  0
APPID
  5
12
330
9
100
AcDbSymbolTableRecord
100
AcDbRegAppTableRecord
  2
ACAD
 70
     0
  0
APPID
  5
D2
330
9
100
AcDbSymbolTableRecord
100
AcDbRegAppTableRecord
  2
AcAecLayerStandard
 70
     0
  0
APPID
  5
E6
330
9
100
AcDbSymbolTableRecord
100
AcDbRegAppTableRecord
  2
ACAD_DSTYLE_DIMTEXT_FILL
 70
     0
  0
APPID
  5
4C84
330
9
100
AcDbSymbolTableRecord
100
AcDbRegAppTableRecord
  2
ACAD_EXEMPT_FROM_CAD_STANDARDS
 70
     0
  0
APPID
  5
3493E
330
9
100
AcDbSymbolTableRecord
100
AcDbRegAppTableRecord
  2
DCO15
 70
     0
  0
APPID
  5
4366A
330
9
100
AcDbSymbolTableRecord
100
AcDbRegAppTableRecord
  2
ACAUTHENVIRON
 70
     0
  0
APPID
  5
4366D
330
9
100
AcDbSymbolTableRecord
100
AcDbRegAppTableRecord
  2
AcDbDynamicBlockTrueName
 70
     0
  0
APPID
  5
4366E
330
9
100
AcDbSymbolTableRecord
100
AcDbRegAppTableRecord
  2
AcDbDynamicBlockGUID
 70
     0
  0
APPID
  5
43670
330
9
100
AcDbSymbolTableRecord
100
AcDbRegAppTableRecord
  2
AcDbBlockRepETag
 70
     0
  0
APPID
  5
45C9F
330
9
100
AcDbSymbolTableRecord
100
AcDbRegAppTableRecord
  2
ACAD_DSTYLE_DIMEXT_ENABLED
 70
     0
  0
APPID
  5
45CA0
330
9
100
AcDbSymbolTableRecord
100
AcDbRegAppTableRecord
  2
ACAD_DSTYLE_DIMEXT_LENGTH
 70
     0
  0
ENDTAB
  0
TABLE
  2
DIMSTYLE
  5
A
330
0
100
AcDbSymbolTable
 70
     9
100
AcDbDimStyleTable
 71
     2
340
1BF
340
27
  0
DIMSTYLE
105
27
330
A
100
AcDbSymbolTableRecord
100
AcDbDimStyleTableRecord
  2
ISO-25
 70
     0
 41
2.5
 42
0.625
 43
3.75
 44
1.25
 73
     0
 74
     0
 77
     1
 78
     8
140
2.5
141
2.5
143
0.03937007874016
147
0.625
171
     3
172
     1
271
     2
272
     2
274
     3
278
    44
283
     0
284
     8
340
11
  0
DIMSTYLE
105
1BF
102
{ACAD_REACTORS
330
55353
330
55354
330
553B4
330
553B5
330
553E0
330
55352
102
}
330
A
100
AcDbSymbolTableRecord
100
AcDbDimStyleTableRecord
  2
\M+18352\M+18373\M+1815B - ISO-25
 70
     0
 40
0.0
 41
3.5
 42
0.0
 44
1.5
 73
     0
 74
     0
 77
     1
 78
     8
140
3.5
147
2.299999999999998
176
   256
177
   256
178
   256
271
     2
272
     2
284
     8
340
24A
371
    -1
372
    -1
  0
DIMSTYLE
105
69F
330
A
100
AcDbSymbolTableRecord
100
AcDbDimStyleTableRecord
  2
MXDIMSTYLE
 70
     0
 41
2.5
 42
0.5
 43
3.75
 44
1.5
 73
     0
 74
     0
 77
     1
 78
     8
140
4.2
141
2.5
143
0.03937
147
1.0
171
     4
172
     1
173
     1
271
     2
272
     2
274
     4
283
     0
288
     1
340
69E
341
697
343
697
344
697
  0
DIMSTYLE
105
3527
330
A
100
AcDbSymbolTableRecord
100
AcDbDimStyleTableRecord
  2
STANDARD
 70
     0
 41
3.0
 47
0.001
 48
0.001
 71
     1
 73
     0
 74
     0
 77
     1
 78
     8
140
4.0
271
     3
272
     3
284
     8
340
11
341
34B1
342
34B1
343
34B1
344
34B1
  0
DIMSTYLE
105
3528
330
A
100
AcDbSymbolTableRecord
100
AcDbDimStyleTableRecord
  2
DIMSTYLE_1
 70
     0
 41
3.0
 73
     0
 74
     0
 77
     1
 78
     8
140
4.0
271
     3
272
     3
284
     8
340
11
341
34B1
342
34B1
343
34B1
344
34B1
  0
DIMSTYLE
105
3529
330
A
100
AcDbSymbolTableRecord
100
AcDbDimStyleTableRecord
  2
DIMSTYLE_2
 70
     0
 41
3.0
 47
0.001
 48
0.001
 73
     0
 74
     0
 77
     1
 78
     8
140
4.0
271
     3
272
     3
284
     8
340
11
341
34B1
342
34B1
343
34B1
344
34B1
  0
DIMSTYLE
105
352A
330
A
100
AcDbSymbolTableRecord
100
AcDbDimStyleTableRecord
  2
DIMSTYLE_3
 70
     0
 41
3.0
 47
-0.1
 48
0.3
 71
     1
 73
     0
 74
     0
 77
     1
 78
     8
140
4.0
146
0.5
271
     3
272
     3
284
     8
340
11
341
34B1
342
34B1
343
34B1
344
34B1
  0
DIMSTYLE
105
352B
330
A
100
AcDbSymbolTableRecord
100
AcDbDimStyleTableRecord
  2
DIMSTYLE_4
 70
     0
 41
3.0
 47
0.1
 48
0.1
 71
     1
 73
     0
 74
     0
 77
     1
 78
     8
140
4.0
271
     3
272
     3
284
     8
340
11
341
34B1
342
34B1
343
34B1
344
34B1
  0
DIMSTYLE
105
27245
330
A
100
AcDbSymbolTableRecord
100
AcDbDimStyleTableRecord
  2
DIMSTYLE_5
 70
     0
 41
3.0
 47
0.001
 48
0.001
 73
     0
 74
     0
 77
     1
 78
     8
140
4.0
271
     3
272
     3
284
     8
340
11
341
34B1
342
34B1
343
34B1
344
34B1
  0
ENDTAB
  0
TABLE
  2
BLOCK_RECORD
  5
1
330
0
100
AcDbSymbolTable
 70
    82
  0
BLOCK_RECORD
  5
1F
102
{ACAD_XDICTIONARY
360
31EE
102
}
330
1
100
AcDbSymbolTableRecord
100
AcDbBlockTableRecord
  2
*Model_Space
340
22
  0
BLOCK_RECORD
  5
50
330
1
100
AcDbSymbolTableRecord
100
AcDbBlockTableRecord
  2
*Paper_Space
340
51
  0
BLOCK_RECORD
  5
55
330
1
100
AcDbSymbolTableRecord
100
AcDbBlockTableRecord
  2
*Paper_Space0
340
56
  0
BLOCK_RECORD
  5
680
102
{ACAD_XDICTIONARY
360
43668
102
}
330
1
100
AcDbSymbolTableRecord
100
AcDbBlockTableRecord
  2
zero block
340
0
102
{BLKREFS
331
68C
102
}
1001
ACAD
1000
DesignCenter Data
1002
{
1070
     1
1070
     4
1002
}
1001
AcDbDynamicBlockGUID
1000
{A89DF4EB-B2CB-439E-AC69-1EAC9F242D1C}
1001
AcDbBlockRepETag
1070
     1
1071
        7
  0
BLOCK_RECORD
  5
697
330
1
100
AcDbSymbolTableRecord
100
AcDbBlockTableRecord
  2
_OPEN30
340
0
  0
BLOCK_RECORD
  5
32F1
330
1
100
AcDbSymbolTableRecord
100
AcDbBlockTableRecord
  2
_None
340
0
  0
BLOCK_RECORD
  5
34B1
330
1
100
AcDbSymbolTableRecord
100
AcDbBlockTableRecord
  2
_OPEN
340
0
  0
BLOCK_RECORD
  5
5456E
330
1
100
AcDbSymbolTableRecord
100
AcDbBlockTableRecord
  2
*D10
340
0
  0
BLOCK_RECORD
  5
55458
330
1
100
AcDbSymbolTableRecord
100
AcDbBlockTableRecord
  2
*D76
340
0
  0
BLOCK_RECORD
  5
55464
330
1
100
AcDbSymbolTableRecord
100
AcDbBlockTableRecord
  2
*D77
340
0
  0
BLOCK_RECORD
  5
55470
330
1
100
AcDbSymbolTableRecord
100
AcDbBlockTableRecord
  2
*D78
340
0
  0
BLOCK_RECORD
  5
5547C
330
1
100
AcDbSymbolTableRecord
100
AcDbBlockTableRecord
  2
*D79
340
0
  0
BLOCK_RECORD
  5
55488
330
1
100
AcDbSymbolTableRecord
100
AcDbBlockTableRecord
  2
*D80
340
0
  0
BLOCK_RECORD
  5
55494
330
1
100
AcDbSymbolTableRecord
100
AcDbBlockTableRecord
  2
*D81
340
0
  0
ENDTAB
  0
ENDSEC
  0
SECTION
  2
BLOCKS
  0
BLOCK
  5
20
330
1F
100
AcDbEntity
  8
0
100
AcDbBlockBegin
  2
*Model_Space
 70
     0
 10
0.0
 20
0.0
 30
0.0
  3
*Model_Space
  1

  0
ENDBLK
  5
21
330
1F
100
AcDbEntity
  8
0
100
AcDbBlockEnd
  0
BLOCK
  5
52
330
50
100
AcDbEntity
 67
     1
  8
0
100
AcDbBlockBegin
  2
*Paper_Space
 70
     0
 10
0.0
 20
0.0
 30
0.0
  3
*Paper_Space
  1

  0
ENDBLK
  5
53
330
50
100
AcDbEntity
 67
     1
  8
0
100
AcDbBlockEnd
  0
BLOCK
  5
57
330
55
100
AcDbEntity
 67
     1
  8
0
100
AcDbBlockBegin
  2
*Paper_Space0
 70
     0
 10
0.0
 20
0.0
 30
0.0
  3
*Paper_Space0
  1

  0
VIEWPORT
  5
71
102
{ACAD_XDICTIONARY
360
557E8
102
}
330
55
100
AcDbEntity
 67
     1
  8
0
100
AcDbViewport
 10
150.1652135264906
 20
101.599997546291
 30
0.0
 40
339.1973820494347
 41
164.5360435314421
 68
     0
 69
     0
 12
150.1652135264906
 22
101.599997546291
 13
0.0
 23
0.0
 14
10.0
 24
10.0
 15
10.0
 25
10.0
 16
0.0
 26
0.0
 36
1.0
 17
0.0
 27
0.0
 37
0.0
 42
50.0
 43
0.0
 44
0.0
 45
164.5360435314421
 50
0.0
 51
0.0
 72
  1000
 90
    32864
  1

281
     0
 71
     1
 74
     0
110
0.0
120
0.0
130
0.0
111
1.0
121
0.0
131
0.0
112
0.0
122
1.0
132
0.0
 79
     0
146
0.0
  0
VIEWPORT
  5
73
102
{ACAD_XDICTIONARY
360
557EA
102
}
330
55
100
AcDbEntity
 67
     1
  8
0
100
AcDbViewport
 10
133.3499939441681
 20
101.5999939441681
 30
0.0
 40
213.3599903106689
 41
162.5599903106689
 68
     0
 69
     0
 12
210.0
 22
148.5
 13
0.0
 23
0.0
 14
10.0
 24
10.0
 15
10.0
 25
10.0
 16
0.0
 26
0.0
 36
1.0
 17
0.0
 27
0.0
 37
0.0
 42
50.0
 43
0.0
 44
0.0
 45
324.0677920111345
 50
0.0
 51
0.0
 72
   100
 90
    32864
  1

281
     0
 71
     1
 74
     0
110
0.0
120
0.0
130
0.0
111
1.0
121
0.0
131
0.0
112
0.0
122
1.0
132
0.0
 79
     0
146
0.0
  0
ENDBLK
  5
58
330
55
100
AcDbEntity
 67
     1
  8
0
100
AcDbBlockEnd
  0
BLOCK
  5
68A
330
680
100
AcDbEntity
  8
0
100
AcDbBlockBegin
  2
zero block
 70
     0
 10
0.0
 20
0.0
 30
0.0
  3
zero block
  1

  0
HATCH
  5
43661
330
680
100
AcDbEntity
  8
0
 62
     7
100
AcDbHatch
 10
0.0
 20
0.0
 30
0.0
210
0.0
220
0.0
230
1.0
  2
SOLID
 70
     1
 71
     0
 91
        2
 92
        7
 72
     1
 73
     1
 93
        3
 10
0.0
 20
0.9999999999999875
 42
0.4142135623730915
 10
-1.0
 20
0.0
 42
0.0
 10
0.0
 20
0.0
 42
0.0
 97
        0
 92
        7
 72
     1
 73
     1
 93
        3
 10
1.000000000000007
 20
0.0
 42
0.0
 10
0.0
 20
0.0
 42
0.0
 10
0.0
 20
-1.0
 42
0.4142135623730974
 97
        0
 75
     0
 76
     1
 47
0.0090601366782909
 98
        2
 10
-0.380591363650975
 20
0.4885804701532896
 10
0.4350764810977559
 20
-0.4536738423704725
1001
AcDbBlockRepETag
1070
     1
1071
        0
1005
43661
  0
LINE
  5
43662
330
680
100
AcDbEntity
  8
0
 62
     7
 48
0.2
100
AcDbLine
 10
-1.0
 20
0.0
 30
0.0
 11
1.000000000000007
 21
0.0
 31
0.0
1001
AcDbBlockRepETag
1070
     1
1071
        1
1005
43662
  0
LINE
  5
43663
330
680
100
AcDbEntity
  8
0
 62
     7
 48
0.2
100
AcDbLine
 10
0.0
 20
-1.0
 30
0.0
 11
0.0
 21
0.9999999999999875
 31
0.0
1001
AcDbBlockRepETag
1070
     1
1071
        2
1005
43663
  0
ARC
  5
43664
330
680
100
AcDbEntity
  8
0
 62
     7
 48
0.2
100
AcDbCircle
 10
0.0
 20
0.0
 30
0.0
 40
1.0
100
AcDbArc
 50
270.0
 51
0.0
1001
AcDbBlockRepETag
1070
     1
1071
        3
1005
43664
  0
ARC
  5
43665
330
680
100
AcDbEntity
  8
0
 62
     7
 48
0.2
100
AcDbCircle
 10
0.0
 20
0.0
 30
0.0
 40
1.0
100
AcDbArc
 50
0.0
 51
90.0
1001
AcDbBlockRepETag
1070
     1
1071
        4
1005
43665
  0
ARC
  5
43666
330
680
100
AcDbEntity
  8
0
 62
     7
 48
0.2
100
AcDbCircle
 10
0.0
 20
0.0
 30
0.0
 40
1.0
100
AcDbArc
 50
180.0
 51
270.0
1001
AcDbBlockRepETag
1070
     1
1071
        5
1005
43666
  0
ARC
  5
43667
330
680
100
AcDbEntity
  8
0
 62
     7
 48
0.2
100
AcDbCircle
 10
0.0
 20
0.0
 30
0.0
 40
1.0
100
AcDbArc
 50
90.0
 51
180.0
1001
AcDbBlockRepETag
1070
     1
1071
        6
1005
43667
  0
ENDBLK
  5
68B
330
680
100
AcDbEntity
  8
0
100
AcDbBlockEnd
  0
BLOCK
  5
698
330
697
100
AcDbEntity
  8
0
  6
ByBlock
 62
     0
370
    -2
100
AcDbBlockBegin
  2
_OPEN30
 70
     2
 10
0.0
 20
0.0
 30
0.0
  3
_OPEN30
  1

  0
LINE
  5
699
330
697
100
AcDbEntity
  8
0
  6
ByBlock
 62
     0
370
    -2
100
AcDbLine
 10
-1.0
 20
0.267949
 30
0.0
 11
0.0
 21
0.0
 31
0.0
  0
LINE
  5
69A
330
697
100
AcDbEntity
  8
0
  6
ByBlock
 62
     0
370
    -2
100
AcDbLine
 10
0.0
 20
0.0
 30
0.0
 11
-1.0
 21
-0.267949
 31
0.0
  0
LINE
  5
69B
330
697
100
AcDbEntity
  8
0
  6
ByBlock
 62
     0
370
    -2
100
AcDbLine
 10
0.0
 20
0.0
 30
0.0
 11
-1.0
 21
0.0
 31
0.0
  0
ENDBLK
  5
69C
330
697
100
AcDbEntity
  8
0
  6
ByBlock
 62
     0
370
    -2
100
AcDbBlockEnd
  0
BLOCK
  5
32F2
330
32F1
100
AcDbEntity
  8
0
100
AcDbBlockBegin
  2
_None
 70
     0
 10
0.0
 20
0.0
 30
0.0
  3
_None
  1

  0
ENDBLK
  5
32F3
330
32F1
100
AcDbEntity
  8
0
100
AcDbBlockEnd
  0
BLOCK
  5
34B2
330
34B1
100
AcDbEntity
  8
0
100
AcDbBlockBegin
  2
_OPEN
 70
     0
 10
0.0
 20
0.0
 30
0.0
  3
_OPEN
  1

  0
LINE
  5
34B3
330
34B1
100
AcDbEntity
  8
0
  6
ByBlock
 62
     0
100
AcDbLine
 10
0.0
 20
0.0
 30
0.0
 11
-1.0
 21
0.1766666667
 31
0.0
  0
LINE
  5
34B4
330
34B1
100
AcDbEntity
  8
0
  6
ByBlock
 62
     0
100
AcDbLine
 10
-1.0
 20
-0.1766666667
 30
0.0
 11
0.0
 21
0.0
 31
0.0
  0
LINE
  5
34B5
330
34B1
100
AcDbEntity
  8
0
  6
ByBlock
 62
     0
100
AcDbLine
 10
-1.0
 20
0.0
 30
0.0
 11
0.0
 21
0.0
 31
0.0
  0
ENDBLK
  5
34B6
330
34B1
100
AcDbEntity
  8
0
  6
ByBlock
 62
     0
100
AcDbBlockEnd
  0
BLOCK
  5
54578
330
5456E
100
AcDbEntity
  8
0
100
AcDbBlockBegin
  2
*D10
 70
     1
 10
0.0
 20
0.0
 30
0.0
  3
*D10
  1

  0
LINE
  5
54625
330
5456E
100
AcDbEntity
  8
sk2
100
AcDbLine
 10
3.999999999999971
 20
12.70000000199991
 30
0.0
 11
-14.90629649230001
 21
12.70000000199991
 31
0.0
  0
LINE
  5
54626
330
5456E
100
AcDbEntity
  8
sk2
100
AcDbLine
 10
3.999999999999971
 20
-12.69999999800018
 30
0.0
 11
-14.90629649230002
 21
-12.69999999800017
 31
0.0
  0
LINE
  5
54627
330
5456E
100
AcDbEntity
  8
sk2
100
AcDbLine
 10
-13.40629649230001
 20
9.200000001999915
 30
0.0
 11
-13.40629649230002
 21
-9.199999998000173
 31
0.0
  0
SOLID
  5
54628
330
5456E
100
AcDbEntity
  8
sk2
100
AcDbTrace
 10
-13.98962982563334
 20
9.200000001999915
 30
0.0
 11
-12.82296315896668
 21
9.200000001999915
 31
0.0
 12
-13.40629649230001
 22
12.70000000199991
 32
0.0
 13
-13.40629649230001
 23
12.70000000199991
 33
0.0
  0
SOLID
  5
54629
330
5456E
100
AcDbEntity
  8
sk2
100
AcDbTrace
 10
-13.98962982563335
 20
-9.199999998000173
 30
0.0
 11
-12.82296315896668
 21
-9.199999998000173
 31
0.0
 12
-13.40629649230002
 22
-12.69999999800017
 32
0.0
 13
-13.40629649230002
 23
-12.69999999800017
 33
0.0
  0
MTEXT
  5
5462A
330
5456E
100
AcDbEntity
  8
sk2
100
AcDbMText
 10
-19.20629649230001
 20
0.0000000019998657
 30
0.0
 40
3.5
 41
0.0
 71
     2
 72
     1
  1
\A1;%%c25.4
  7
simplex
 11
0.0000000000000001
 21
1.0
 31
0.0
 73
     1
 44
1.0
1001
ACAD
1000
MTEXTBEGIN
1070
    73
1070
     1
1070
    44
1040
1.0
1070
    74
1070
     0
1000
MTEXTEND
  0
POINT
  5
5462B
330
5456E
100
AcDbEntity
  8
Defpoints
 62
     0
100
AcDbPoint
 10
3.999999999999971
 20
12.70000000199991
 30
0.0
  0
POINT
  5
5462C
330
5456E
100
AcDbEntity
  8
Defpoints
 62
     0
100
AcDbPoint
 10
3.999999999999971
 20
-12.69999999800018
 30
0.0
  0
POINT
  5
5462D
330
5456E
100
AcDbEntity
  8
Defpoints
 62
     0
100
AcDbPoint
 10
-13.40629649230002
 20
-12.69999999800017
 30
0.0
  0
ENDBLK
  5
54579
330
5456E
100
AcDbEntity
  8
0
100
AcDbBlockEnd
  0
BLOCK
  5
55462
330
55458
100
AcDbEntity
  8
0
100
AcDbBlockBegin
  2
*D76
 70
     1
 10
0.0
 20
0.0
 30
0.0
  3
*D76
  1

  0
LINE
  5
557D3
330
55458
100
AcDbEntity
  8
2
100
AcDbLine
 10
63.49999999999972
 20
33.5340571206414
 30
0.0
 11
63.49999999999972
 21
56.32070349499747
 31
0.0
  0
LINE
  5
557D4
330
55458
100
AcDbEntity
  8
2
100
AcDbLine
 10
43.09999999999973
 20
38.12786380535158
 30
0.0
 11
43.09999999999973
 21
56.32070349499747
 31
0.0
  0
LINE
  5
557D5
330
55458
100
AcDbEntity
  8
2
100
AcDbLine
 10
59.99999999999971
 20
54.82070349499747
 30
0.0
 11
46.59999999999974
 21
54.82070349499747
 31
0.0
  0
LINE
  5
557D6
330
55458
100
AcDbEntity
  8
2
100
AcDbLine
 10
43.09999999999973
 20
54.82070349499747
 30
0.0
 11
-13.47645369918883
 21
54.82070349499747
 31
0.0
  0
SOLID
  5
557D7
330
55458
100
AcDbEntity
  8
2
100
AcDbTrace
 10
59.99999999999971
 20
55.40403682833081
 30
0.0
 11
59.99999999999971
 21
54.23737016166414
 31
0.0
 12
63.49999999999972
 22
54.82070349499747
 32
0.0
 13
63.49999999999972
 23
54.82070349499747
 33
0.0
  0
SOLID
  5
557D8
330
55458
100
AcDbEntity
  8
2
100
AcDbTrace
 10
46.59999999999974
 20
55.40403682833081
 30
0.0
 11
46.59999999999974
 21
54.23737016166414
 31
0.0
 12
43.09999999999973
 22
54.82070349499747
 32
0.0
 13
43.09999999999973
 23
54.82070349499747
 33
0.0
  0
MTEXT
  5
557D9
330
55458
100
AcDbEntity
  8
2
100
AcDbMText
 10
12.1568796341445
 20
58.87070349499747
 30
0.0
 40
3.5
 41
0.0
 71
     5
 72
     1
  1
\A1;20.4 [.803"](MAX)
  7
simplex
 73
     1
 44
1.0
1001
ACAD
1000
MTEXTBEGIN
1070
    73
1070
     1
1070
    44
1040
1.0
1070
    74
1070
     0
1000
MTEXTEND
  0
POINT
  5
557DA
330
55458
100
AcDbEntity
  8
Defpoints
 62
     0
100
AcDbPoint
 10
63.49999999999972
 20
33.5340571206414
 30
0.0
  0
POINT
  5
557DB
330
55458
100
AcDbEntity
  8
Defpoints
 62
     0
100
AcDbPoint
 10
43.09999999999973
 20
38.12786380535158
 30
0.0
  0
POINT
  5
557DC
330
55458
100
AcDbEntity
  8
Defpoints
 62
     0
100
AcDbPoint
 10
43.09999999999973
 20
54.82070349499747
 30
0.0
  0
ENDBLK
  5
55463
330
55458
100
AcDbEntity
  8
0
100
AcDbBlockEnd
  0
BLOCK
  5
5546E
330
55464
100
AcDbEntity
  8
0
100
AcDbBlockBegin
  2
*D77
 70
     1
 10
0.0
 20
0.0
 30
0.0
  3
*D77
  1

  0
LINE
  5
554DB
330
55464
100
AcDbEntity
  8
2
100
AcDbLine
 10
-0.0000000000002842
 20
33.42500000000001
 30
0.0
 11
-0.0000000000002821
 21
67.9532126275065
 31
0.0
  0
LINE
  5
554DC
330
55464
100
AcDbEntity
  8
2
100
AcDbLine
 10
63.49999999999972
 20
33.79403582730001
 30
0.0
 11
63.49999999999972
 21
67.9532126275065
 31
0.0
  0
LINE
  5
554DD
330
55464
100
AcDbEntity
  8
2
100
AcDbLine
 10
3.499999999999718
 20
66.4532126275065
 30
0.0
 11
59.99999999999971
 21
66.4532126275065
 31
0.0
  0
SOLID
  5
554DE
330
55464
100
AcDbEntity
  8
2
100
AcDbTrace
 10
3.499999999999718
 20
67.03654596083983
 30
0.0
 11
3.499999999999718
 21
65.86987929417317
 31
0.0
 12
-0.0000000000002822
 22
66.4532126275065
 32
0.0
 13
-0.0000000000002822
 23
66.4532126275065
 33
0.0
  0
SOLID
  5
554DF
330
55464
100
AcDbEntity
  8
2
100
AcDbTrace
 10
59.99999999999971
 20
67.03654596083983
 30
0.0
 11
59.99999999999971
 21
65.86987929417317
 31
0.0
 12
63.49999999999972
 22
66.4532126275065
 32
0.0
 13
63.49999999999972
 23
66.4532126275065
 33
0.0
  0
MTEXT
  5
554E0
330
55464
100
AcDbEntity
  8
2
100
AcDbMText
 10
31.74999999999972
 20
70.50321262750649
 30
0.0
 40
3.5
 41
0.0
 71
     5
 72
     1
  1
\A1;63.5 [2.500"]
  7
simplex
 73
     1
 44
1.0
1001
ACAD
1000
MTEXTBEGIN
1070
    73
1070
     1
1070
    44
1040
1.0
1070
    74
1070
     0
1000
MTEXTEND
  0
POINT
  5
554E1
330
55464
100
AcDbEntity
  8
Defpoints
 62
     0
100
AcDbPoint
 10
-0.0000000000002842
 20
33.42500000000001
 30
0.0
  0
POINT
  5
554E2
330
55464
100
AcDbEntity
  8
Defpoints
 62
     0
100
AcDbPoint
 10
63.49999999999972
 20
33.79403582730001
 30
0.0
  0
POINT
  5
554E3
330
55464
100
AcDbEntity
  8
Defpoints
 62
     0
100
AcDbPoint
 10
63.49999999999972
 20
66.4532126275065
 30
0.0
  0
ENDBLK
  5
5546F
330
55464
100
AcDbEntity
  8
0
100
AcDbBlockEnd
  0
BLOCK
  5
5547A
330
55470
100
AcDbEntity
  8
0
100
AcDbBlockBegin
  2
*D78
 70
     1
 10
0.0
 20
0.0
 30
0.0
  3
*D78
  1

  0
LINE
  5
554E4
330
55470
100
AcDbEntity
  8
sk2
100
AcDbLine
 10
31.99999999999972
 20
-16.09999999999988
 30
0.0
 11
31.99999999999971
 21
-52.98862841305732
 31
0.0
  0
LINE
  5
554E5
330
55470
100
AcDbEntity
  8
sk2
100
AcDbLine
 10
-0.0000000000002842
 20
-33.42499999999998
 30
0.0
 11
-0.0000000000002854
 21
-52.98862841305732
 31
0.0
  0
LINE
  5
554E6
330
55470
100
AcDbEntity
  8
sk2
100
AcDbLine
 10
28.49999999999971
 20
-51.48862841305732
 30
0.0
 11
3.499999999999714
 21
-51.48862841305732
 31
0.0
  0
SOLID
  5
554E7
330
55470
100
AcDbEntity
  8
sk2
100
AcDbTrace
 10
28.49999999999971
 20
-50.90529507972398
 30
0.0
 11
28.49999999999971
 21
-52.07196174639065
 31
0.0
 12
31.99999999999971
 22
-51.48862841305732
 32
0.0
 13
31.99999999999971
 23
-51.48862841305732
 33
0.0
  0
SOLID
  5
554E8
330
55470
100
AcDbEntity
  8
sk2
100
AcDbTrace
 10
3.499999999999714
 20
-50.90529507972398
 30
0.0
 11
3.499999999999714
 21
-52.07196174639065
 31
0.0
 12
-0.0000000000002853
 22
-51.48862841305732
 32
0.0
 13
-0.0000000000002853
 23
-51.48862841305732
 33
0.0
  0
MTEXT
  5
554E9
330
55470
100
AcDbEntity
  8
sk2
100
AcDbMText
 10
15.99999999999971
 20
-47.43862841305732
 30
0.0
 40
3.5
 41
0.0
 71
     5
 72
     1
  1
\A1;32 [1.260"]
  7
simplex
 73
     1
 44
1.0
1001
ACAD
1000
MTEXTBEGIN
1070
    73
1070
     1
1070
    44
1040
1.0
1070
    74
1070
     0
1000
MTEXTEND
  0
POINT
  5
554EA
330
55470
100
AcDbEntity
  8
Defpoints
 62
     0
100
AcDbPoint
 10
31.99999999999972
 20
-16.09999999999988
 30
0.0
  0
POINT
  5
554EB
330
55470
100
AcDbEntity
  8
Defpoints
 62
     0
100
AcDbPoint
 10
-0.0000000000002842
 20
-33.42499999999998
 30
0.0
  0
POINT
  5
554EC
330
55470
100
AcDbEntity
  8
Defpoints
 62
     0
100
AcDbPoint
 10
-0.0000000000002853
 20
-51.48862841305732
 30
0.0
  0
ENDBLK
  5
5547B
330
55470
100
AcDbEntity
  8
0
100
AcDbBlockEnd
  0
BLOCK
  5
55486
330
5547C
100
AcDbEntity
  8
0
100
AcDbBlockBegin
  2
*D79
 70
     1
 10
0.0
 20
0.0
 30
0.0
  3
*D79
  1

  0
LINE
  5
554ED
330
5547C
100
AcDbEntity
  8
sk2
100
AcDbLine
 10
1.499999999999715
 20
-34.92499999999998
 30
0.0
 11
-28.77765155884391
 21
-34.92499999999998
 31
0.0
  0
LINE
  5
554EE
330
5547C
100
AcDbEntity
  8
sk2
100
AcDbLine
 10
1.499999999999715
 20
34.92500000000001
 30
0.0
 11
-28.77765155884389
 21
34.92500000000002
 31
0.0
  0
LINE
  5
554EF
330
5547C
100
AcDbEntity
  8
sk2
100
AcDbLine
 10
-27.27765155884391
 20
-31.42499999999998
 30
0.0
 11
-27.2776515588439
 21
31.42500000000002
 31
0.0
  0
SOLID
  5
554F0
330
5547C
100
AcDbEntity
  8
sk2
100
AcDbTrace
 10
-27.86098489217724
 20
-31.42499999999998
 30
0.0
 11
-26.69431822551058
 21
-31.42499999999998
 31
0.0
 12
-27.27765155884391
 22
-34.92499999999998
 32
0.0
 13
-27.27765155884391
 23
-34.92499999999998
 33
0.0
  0
SOLID
  5
554F1
330
5547C
100
AcDbEntity
  8
sk2
100
AcDbTrace
 10
-27.86098489217723
 20
31.42500000000002
 30
0.0
 11
-26.69431822551056
 21
31.42500000000002
 31
0.0
 12
-27.2776515588439
 22
34.92500000000002
 32
0.0
 13
-27.2776515588439
 23
34.92500000000002
 33
0.0
  0
MTEXT
  5
554F2
330
5547C
100
AcDbEntity
  8
sk2
100
AcDbMText
 10
-31.3276515588439
 20
0.0000000000000147
 30
0.0
 40
3.5
 41
0.0
 71
     5
 72
     1
  1
\A1;%%c69.85 [%%C2.750"]
  7
simplex
 11
0.0000000000000001
 21
1.0
 31
0.0
 73
     1
 44
1.0
1001
ACAD
1000
MTEXTBEGIN
1070
    73
1070
     1
1070
    44
1040
1.0
1070
    74
1070
     0
1000
MTEXTEND
  0
POINT
  5
554F3
330
5547C
100
AcDbEntity
  8
Defpoints
 62
     0
100
AcDbPoint
 10
1.499999999999715
 20
-34.92499999999998
 30
0.0
  0
POINT
  5
554F4
330
5547C
100
AcDbEntity
  8
Defpoints
 62
     0
100
AcDbPoint
 10
1.499999999999715
 20
34.92500000000001
 30
0.0
  0
POINT
  5
554F5
330
5547C
100
AcDbEntity
  8
Defpoints
 62
     0
100
AcDbPoint
 10
-27.2776515588439
 20
34.92500000000002
 30
0.0
  0
ENDBLK
  5
55487
330
5547C
100
AcDbEntity
  8
0
100
AcDbBlockEnd
  0
BLOCK
  5
55492
330
55488
100
AcDbEntity
  8
0
100
AcDbBlockBegin
  2
*D80
 70
     1
 10
0.0
 20
0.0
 30
0.0
  3
*D80
  1

  0
LINE
  5
554F6
330
55488
100
AcDbEntity
  8
sk2
100
AcDbLine
 10
1.199999999999704
 20
-15.875
 30
0.0
 11
-15.4585198329155
 21
-15.87499999999999
 31
0.0
  0
LINE
  5
554F7
330
55488
100
AcDbEntity
  8
sk2
100
AcDbLine
 10
1.199999999999704
 20
15.87500000000003
 30
0.0
 11
-15.45851983291549
 21
15.87500000000003
 31
0.0
  0
LINE
  5
554F8
330
55488
100
AcDbEntity
  8
sk2
100
AcDbLine
 10
-13.9585198329155
 20
-12.37499999999999
 30
0.0
 11
-13.95851983291549
 21
12.37500000000003
 31
0.0
  0
SOLID
  5
554F9
330
55488
100
AcDbEntity
  8
sk2
100
AcDbTrace
 10
-14.54185316624883
 20
-12.37499999999999
 30
0.0
 11
-13.37518649958217
 21
-12.37499999999999
 31
0.0
 12
-13.9585198329155
 22
-15.87499999999999
 32
0.0
 13
-13.9585198329155
 23
-15.87499999999999
 33
0.0
  0
SOLID
  5
554FA
330
55488
100
AcDbEntity
  8
sk2
100
AcDbTrace
 10
-14.54185316624883
 20
12.37500000000003
 30
0.0
 11
-13.37518649958216
 21
12.37500000000003
 31
0.0
 12
-13.95851983291549
 22
15.87500000000003
 32
0.0
 13
-13.95851983291549
 23
15.87500000000003
 33
0.0
  0
MTEXT
  5
554FB
330
55488
100
AcDbEntity
  8
sk2
100
AcDbMText
 10
-18.00851983291549
 20
0.0000000000000173
 30
0.0
 40
3.5
 41
0.0
 71
     5
 72
     1
  1
\A1;%%c31.75 [%%C1.250"]
  7
simplex
 11
0.0000000000000001
 21
1.0
 31
0.0
 73
     1
 44
1.0
1001
ACAD
1000
MTEXTBEGIN
1070
    73
1070
     1
1070
    44
1040
1.0
1070
    74
1070
     0
1000
MTEXTEND
  0
POINT
  5
554FC
330
55488
100
AcDbEntity
  8
Defpoints
 62
     0
100
AcDbPoint
 10
1.199999999999704
 20
-15.875
 30
0.0
  0
POINT
  5
554FD
330
55488
100
AcDbEntity
  8
Defpoints
 62
     0
100
AcDbPoint
 10
1.199999999999704
 20
15.87500000000003
 30
0.0
  0
POINT
  5
554FE
330
55488
100
AcDbEntity
  8
Defpoints
 62
     0
100
AcDbPoint
 10
-13.95851983291549
 20
15.87500000000003
 30
0.0
  0
ENDBLK
  5
55493
330
55488
100
AcDbEntity
  8
0
100
AcDbBlockEnd
  0
BLOCK
  5
5549C
330
55494
100
AcDbEntity
  8
0
100
AcDbBlockBegin
  2
*D81
 70
     1
 10
0.0
 20
0.0
 30
0.0
  3
*D81
  1

  0
LINE
  5
554FF
330
55494
100
AcDbEntity
  8
2
100
AcDbLine
 10
59.40708109848594
 20
38.1
 30
0.0
 11
86.67494055829845
 21
38.09999999999999
 31
0.0
  0
LINE
  5
55500
330
55494
100
AcDbEntity
  8
2
100
AcDbLine
 10
85.17494055829844
 20
34.59999999999999
 30
0.0
 11
85.17494055829841
 21
-38.10000000000002
 31
0.0
  0
SOLID
  5
55501
330
55494
100
AcDbEntity
  8
2
100
AcDbTrace
 10
84.59160722496511
 20
34.59999999999999
 30
0.0
 11
85.75827389163178
 21
34.59999999999999
 31
0.0
 12
85.17494055829844
 22
38.09999999999999
 32
0.0
 13
85.17494055829844
 23
38.09999999999999
 33
0.0
  0
MTEXT
  5
55502
330
55494
100
AcDbEntity
  8
2
100
AcDbMText
 10
81.12494055829843
 20
-1.750000000000006
 30
0.0
 40
3.5
 41
0.0
 71
     5
 72
     1
  1
\A1;%%c76.2 [%%C3.000"]
  7
simplex
 11
0.0000000000000001
 21
1.0
 31
0.0
 73
     1
 44
1.0
1001
ACAD
1000
MTEXTBEGIN
1070
    73
1070
     1
1070
    44
1040
1.0
1070
    74
1070
     0
1000
MTEXTEND
  0
POINT
  5
55503
330
55494
100
AcDbEntity
  8
Defpoints
 62
     0
100
AcDbPoint
 10
59.40708109848594
 20
38.1
 30
0.0
  0
POINT
  5
55504
330
55494
100
AcDbEntity
  8
Defpoints
 62
     0
100
AcDbPoint
 10
62.25931731049962
 20
-38.10000000000001
 30
0.0
  0
POINT
  5
55505
330
55494
100
AcDbEntity
  8
Defpoints
 62
     0
100
AcDbPoint
 10
85.17494055829841
 20
-38.10000000000002
 30
0.0
  0
ENDBLK
  5
5549D
330
55494
100
AcDbEntity
  8
0
100
AcDbBlockEnd
  0
ENDSEC
  0
SECTION
  2
ENTITIES
  0
INSERT
  5
68C
330
1F
100
AcDbEntity
  8
0
100
AcDbBlockReference
  2
zero block
 10
0.0000000000000072
 20
0.0
 30
0.0
 50
180.0
  0
TEXT
  5
55351
330
1F
100
AcDbEntity
  8
6
100
AcDbText
 10
-3.401769890105697
 20
83.0397148219937
 30
0.0
 40
5.0
  1
AXD7000UR0303DB
  7
simplex
100
AcDbText
  0
DIMENSION
  5
55352
330
1F
100
AcDbEntity
  8
2
100
AcDbDimension
  2
*D76
 10
43.09999999999973
 20
54.82070349499747
 30
0.0
 11
12.1568796341445
 21
54.82070349499747
 31
0.0
 70
   160
  1
<>(MAX)
 71
     5
 42
20.39999999999998
  3
\M+18352\M+18373\M+1815B - ISO-25
100
AcDbAlignedDimension
 13
63.49999999999972
 23
33.5340571206414
 33
0.0
 14
43.09999999999973
 24
38.12786380535158
 34
0.0
 50
180.0
100
AcDbRotatedDimension
1001
ACAD
1000
DSTYLE
1002
{
1070
     4
1000
"
1070
    40
1040
1.0
1070
   143
1040
0.03937
1070
   170
1070
     1
1070
   171
1070
     3
1070
   271
1070
     8
1070
   285
1070
     4
1002
}
  0
DIMENSION
  5
55353
330
1F
100
AcDbEntity
  8
2
100
AcDbDimension
  2
*D77
 10
63.49999999999972
 20
66.4532126275065
 30
0.0
 11
31.74999999999972
 21
66.4532126275065
 31
0.0
 70
   160
 71
     5
 42
63.5
  3
\M+18352\M+18373\M+1815B - ISO-25
100
AcDbAlignedDimension
 13
-0.0000000000002842
 23
33.42500000000001
 33
0.0
 14
63.49999999999972
 24
33.79403582730001
 34
0.0
 50
180.0
100
AcDbRotatedDimension
1001
ACAD
1000
DSTYLE
1002
{
1070
     4
1000
"
1070
    40
1040
1.0
1070
   143
1040
0.03937
1070
   170
1070
     1
1070
   171
1070
     3
1070
   271
1070
     8
1070
   285
1070
     4
1002
}
  0
DIMENSION
  5
55354
330
1F
100
AcDbEntity
  8
sk2
100
AcDbDimension
  2
*D78
 10
-0.0000000000002853
 20
-51.48862841305732
 30
0.0
 11
15.99999999999971
 21
-51.48862841305732
 31
0.0
 70
   160
 71
     5
 42
32.0
  3
\M+18352\M+18373\M+1815B - ISO-25
100
AcDbAlignedDimension
 13
31.99999999999972
 23
-16.09999999999988
 33
0.0
 14
-0.0000000000002842
 24
-33.42499999999998
 34
0.0
 50
180.0
100
AcDbRotatedDimension
1001
ACAD
1000
DSTYLE
1002
{
1070
     4
1000
[]"
1070
    40
1040
1.0
1070
   143
1040
0.03937
1070
   170
1070
     1
1070
   171
1070
     3
1070
   271
1070
     8
1070
   285
1070
     4
1002
}
  0
LWPOLYLINE
  5
55355
330
1F
100
AcDbEntity
  8
1
100
AcDbPolyline
 90
        3
 70
     0
 43
0.0
 10
22.27699197749956
 20
35.61723338800002
 10
22.19463191464956
 20
35.59219499065
 10
22.11227185179959
 20
35.56715659330001
  0
LWPOLYLINE
  5
55356
330
1F
100
AcDbEntity
  8
1
100
AcDbPolyline
 90
       18
 70
     0
 43
0.0
 10
24.3559666691996
 20
13.72607848250001
 42
-0.00654952694239
 10
24.02954468004262
 20
14.25104010786137
 42
-0.0065984047768993
 10
23.71705485618083
 20
14.7844245756085
 42
-0.0063724252345106
 10
23.41851420321461
 20
15.32573968013977
 42
-0.0061838081609769
 10
23.13364484272643
 20
15.87437331125598
 42
-0.0060275793015019
 10
22.86225910736442
 20
16.4298014541869
 42
-0.0058550494695393
 10
22.60414817016652
 20
16.9915225869629
 42
-0.0056879790198873
 10
22.35907093266744
 20
17.55905222692618
 42
-0.0055261200122484
 10
22.12678207557204
 20
18.13193583507811
 42
-0.005366700510517
 10
21.90702727489918
 20
18.7097441751076
 42
-0.0052117716622846
 10
21.69954374786943
 20
19.2920725243182
 42
-0.0050618833421098
 10
21.50406778624691
 20
19.87854133574618
 42
-0.0049159668585545
 10
21.3203326349666
 20
20.46879406455878
 42
-0.0047773283126119
 10
21.14807074567261
 20
21.06249814111621
 42
-0.0046565940877407
 10
20.98704028949288
 20
21.6593462879419
 42
-0.0045155163106757
 10
20.83699180120283
 20
22.25904765308837
 42
-0.0043845159861682
 10
20.69762598280101
 20
22.8613281571916
 42
-0.0044220950159922
 10
20.56888151079968
 20
23.46596839930001
  0
LWPOLYLINE
  5
55357
330
1F
100
AcDbEntity
  8
1
100
AcDbPolyline
 90
       40
 70
     0
 43
0.0
 10
35.35561624819962
 20
23.1943170804
 42
-0.0079571225906898
 10
34.81435632106721
 20
23.20605527494607
 42
-0.0079677191975364
 10
34.2737320972667
 20
23.23502522394263
 42
-0.0079648214926678
 10
33.73430668727645
 20
23.28120344819962
 42
-0.0079635992298981
 10
33.1966258820903
 20
23.34453953607121
 42
-0.0079653156873782
 10
32.66123500676781
 20
23.42496980700579
 42
-0.0079646083469858
 10
32.12867775997583
 20
23.5224126012152
 42
-0.0079639172700871
 10
31.59949453715043
 20
23.63676920651278
 42
-0.0079650117834
 10
31.07422228537243
 20
23.7679232704956
 42
-0.0079644084207241
 10
30.55339395094484
 20
23.91574131122488
 42
-0.0079637907655166
 10
30.03753817718314
 20
24.08007375571671
 42
-0.0079648290591963
 10
29.52717832020451
 20
24.2607534127242
 42
-0.0079641606068036
 10
29.0228320924609
 20
24.45759652728188
 42
-0.0079635801228407
 10
28.52501142875519
 20
24.6704037652903
 42
-0.0079646073972585
 10
28.03422128620491
 20
24.89895870180411
 42
-0.0079638652717448
 10
27.55095944430753
 20
25.143029026531
 42
-0.0079633228222841
 10
27.07571643957735
 20
25.4023674573603
 42
-0.0079643422930041
 10
26.6089742102466
 20
25.67671033767331
 42
-0.0079635310756655
 10
26.15120606372869
 20
25.96577894122439
 42
-0.007963031000279
 10
25.70287665799469
 20
26.26928030998203
 42
-0.0079640429200973
 10
25.26444050951031
 20
26.58690598613438
 42
-0.0079631690333957
 10
24.83634214151934
 20
26.91833338888438
 42
-0.0079627162300832
 10
24.41901609549962
 20
27.26322657518227
 42
-0.0079637206770655
 10
24.01288531994538
 20
27.62123512478411
 42
-0.0079627910167138
 10
23.61836150972732
 20
27.99199556183538
 42
-0.0079623906530761
 10
23.23584513176121
 20
28.37513204007251
 42
-0.0079633879260587
 10
22.8657237147315
 20
28.77025539721652
 42
-0.0079624092333162
 10
22.50837238524369
 20
29.17696459121819
 42
-0.0079620673792505
 10
22.16415389353904
 20
29.59484731480521
 42
-0.007963058567793
 10
21.83341682474983
 20
30.0234792399614
 42
-0.0079620310704431
 10
21.51649633216883
 20
30.4624254177831
 42
-0.0079617650393779
 10
21.21371416364693
 20
30.91124083527279
 42
-0.0079627629978865
 10
20.92537679077401
 20
31.36946997331452
 42
-0.0079616072800753
 10
20.65177632110021
 20
31.83664784590502
 42
-0.0079615612063456
 10
20.39319069893003
 20
32.31230053160921
 42
-0.0079627220670989
 10
20.14988142493638
 20
32.7959467109452
 42
-0.007960476689355
 10
19.92209447550232
 20
33.28709438845887
 42
-0.0079621446845664
 10
19.71006286837791
 20
33.78524090509231
 42
-0.0079652067126965
 10
19.5139997419096
 20
34.2899004567457
 42
-0.0079518160300403
 10
19.3340991253996
 20
34.80054071590001
  0
LWPOLYLINE
  5
55358
330
1F
100
AcDbEntity
  8
1
100
AcDbPolyline
 90
       37
 70
     0
 43
0.0
 10
20.01033249479963
 20
32.74873519630001
 42
0.0076310682452104
 10
20.2522478395509
 20
32.27839967290939
 42
0.0076382172979526
 10
20.50841446287319
 20
31.81565977382061
 42
0.0076573018397141
 10
20.77861248197542
 20
31.36097345765179
 42
0.0076671328459873
 10
21.06261801223138
 20
30.9147807871787
 42
0.0076755780452246
 10
21.36018012415883
 20
30.47751166527289
 42
0.0076828118600762
 10
21.67103038095263
 20
30.0495869853612
 42
0.007686769154188
 10
21.99488565759461
 20
29.63141808959202
 42
0.0076914311856961
 10
22.3314475811855
 20
29.22340646490568
 42
0.007695419139094
 10
22.68040339896288
 20
28.82594289503371
 42
0.0076973215898092
 10
23.04142790223981
 20
28.43940858181529
 42
0.0077005932365979
 10
23.414183294916
 20
28.06417416982839
 42
0.0077033109121001
 10
23.79831934406121
 20
27.70059892402051
 42
0.0077045881816555
 10
24.19347506847802
 20
27.34903183292488
 42
0.007707547473396
 10
24.59927831294519
 20
27.00981038461939
 42
0.0077097389504314
 10
25.01534601325059
 20
26.68326003993451
 42
0.0077110384798239
 10
25.44128564966761
 20
26.36969523436488
 42
0.0077141189281203
 10
25.87669462782651
 20
26.06941794840279
 42
0.0077161546466569
 10
26.32116087850602
 20
25.78271748490079
 42
0.0077177563226071
 10
26.77426395928572
 20
25.50987137586503
 42
0.0077211285247393
 10
27.23557450229669
 20
25.25114375453052
 42
0.0077231855963903
 10
27.70465492347253
 20
25.00678551905128
 42
0.0077252112547034
 10
28.18106035683067
 20
24.77703506492551
 42
0.007728906073781
 10
28.66433810574961
 20
24.56211653465639
 42
0.007731083429273
 10
29.15402862536371
 20
24.36224028778588
 42
0.0077335321365046
 10
29.64966613596534
 20
24.17760346785589
 42
0.007737527677863
 10
30.1507783793198
 20
24.0083881828984
 42
0.0077398356698788
 10
30.65688742563353
 20
23.85476228331098
 42
0.0077426874965649
 10
31.16751028230442
 20
23.71687978038151
 42
0.0077469287360522
 10
31.68215882058104
 20
23.5948790093866
 42
0.0077492473349982
 10
32.20034044969941
 20
23.48888349871939
 42
0.007752581888511
 10
32.72155851776285
 20
23.39900246077929
 42
0.0077571645604414
 10
33.245314250738
 20
23.3253292946936
 42
0.0077582411263489
 10
33.77110336080022
 20
23.2679406790152
 42
0.0077638398364811
 10
34.298415629613
 20
23.22689960428778
 42
0.0077709604525879
 10
34.82676104977361
 20
23.20225902285151
 42
0.0077573333107483
 10
35.3556128722997
 20
23.19403582730001
  0
ARC
  5
55359
330
1F
100
AcDbEntity
  8
1
100
AcDbCircle
 10
23.66504809809985
 20
-32.42221435249999
 30
0.0
 40
4.0
100
AcDbArc
 50
240.0
 51
270.0
  0
LINE
  5
5535A
330
1F
100
AcDbEntity
  8
sk3
100
AcDbLine
 10
17.99999999999971
 20
16.50000000000003
 30
0.0
 11
31.59999999999971
 21
16.50000000000001
 31
0.0
  0
LINE
  5
5535B
330
1F
100
AcDbEntity
  8
sk3
100
AcDbLine
 10
17.99999999999971
 20
-16.5
 30
0.0
 11
31.59999999999971
 21
-16.5
 31
0.0
  0
LINE
  5
5535C
330
1F
100
AcDbEntity
  8
4
100
AcDbLine
 10
65.1708370171876
 20
-0.0000000000000071
 30
0.0
 11
-5.043826569170903
 21
0.0
 31
0.0
  0
LINE
  5
5535D
330
1F
100
AcDbEntity
  8
1
100
AcDbLine
 10
60.18439156699961
 20
-34.54296352916402
 30
0.0
 11
60.18439156699961
 21
-0.0000000000000071
 31
0.0
  0
LINE
  5
5535E
330
1F
100
AcDbEntity
  8
sk3
100
AcDbLine
 10
55.77172889239969
 20
0.0
 30
0.0
 11
55.77172889239969
 21
-24.81685729220002
 31
0.0
  0
LINE
  5
5535F
330
1F
100
AcDbEntity
  8
sk3
100
AcDbLine
 10
54.7717288923997
 20
-13.0
 30
0.0
 11
54.7717288923997
 21
0.0
 31
0.0
  0
LINE
  5
55360
330
1F
100
AcDbEntity
  8
sk3
100
AcDbLine
 10
31.99999999999972
 20
-16.09999999999988
 30
0.0
 11
31.99999999999972
 21
0.0
 31
0.0
  0
LINE
  5
55361
330
1F
100
AcDbEntity
  8
sk3
100
AcDbLine
 10
40.99999999999972
 20
0.0
 30
0.0
 11
40.99999999999972
 21
-12.59999999999988
 31
0.0
  0
LINE
  5
55362
330
1F
100
AcDbEntity
  8
1
100
AcDbLine
 10
42.15386858229971
 20
-36.42221435249908
 30
0.0
 11
58.71876048566969
 21
-36.04256973661641
 31
0.0
  0
LINE
  5
55363
330
1F
100
AcDbEntity
  8
sk3
100
AcDbLine
 10
41.39999999999957
 20
-13.0
 30
0.0
 11
54.7717288923997
 21
-13.0
 31
0.0
  0
LINE
  5
55364
330
1F
100
AcDbEntity
  8
sk3
100
AcDbLine
 10
56.17954093952301
 20
-26.3297979742614
 30
0.0
 11
60.11642283247076
 21
-33.08747965587203
 31
0.0
  0
ARC
  5
55365
330
1F
100
AcDbEntity
  8
1
100
AcDbCircle
 10
58.6843915669996
 20
-34.54296352916402
 30
0.0
 40
1.5
100
AcDbArc
 50
271.3129108849387
 51
0.0
  0
ARC
  5
55366
330
1F
100
AcDbEntity
  8
sk3
100
AcDbCircle
 10
59.68439156699961
 20
-33.33917189980372
 30
0.0
 40
0.5
100
AcDbArc
 50
0.0
 51
30.22416967268008
  0
LINE
  5
55367
330
1F
100
AcDbEntity
  8
sk3
100
AcDbLine
 10
55.77172889239969
 20
-23.20286698219988
 30
0.0
 11
55.77172889239969
 21
-21.1174350798
 31
0.0
  0
ARC
  5
55368
330
1F
100
AcDbEntity
  8
sk3
100
AcDbCircle
 10
58.77172889239969
 20
-24.81964512869629
 30
0.0
 40
3.0
100
AcDbArc
 50
180.0
 51
210.2241696726828
  0
LINE
  5
55369
330
1F
100
AcDbEntity
  8
sk3
100
AcDbLine
 10
54.77172896029941
 20
-12.9999999322001
 30
0.0
 11
55.77172896549942
 21
-13.99999992700019
 31
0.0
  0
LINE
  5
5536A
330
1F
100
AcDbEntity
  8
1
100
AcDbLine
 10
23.66504809809985
 20
-36.42221435249999
 30
0.0
 11
42.15386858229971
 21
-36.42221435250005
 31
0.0
  0
ARC
  5
5536B
330
1F
100
AcDbEntity
  8
sk3
100
AcDbCircle
 10
41.39999999999957
 20
-12.59999999999999
 30
0.0
 40
0.4
100
AcDbArc
 50
180.0
 51
270.0
  0
ARC
  5
5536C
330
1F
100
AcDbEntity
  8
sk3
100
AcDbCircle
 10
31.59999999999971
 20
-16.09999999999999
 30
0.0
 40
0.4
100
AcDbArc
 50
270.0
 51
0.0
  0
LWPOLYLINE
  5
5536D
330
1F
100
AcDbEntity
  8
1
100
AcDbPolyline
 90
       27
 70
     0
 43
0.0
 10
32.86672234179957
 20
26.44509017680004
 42
0.0105322198459271
 10
32.91271175789953
 20
26.31682709364188
 42
0.0105322943212615
 10
32.96406202162632
 20
26.19060643387385
 42
0.0106690518037561
 10
33.02071419434992
 20
26.0666768571356
 42
0.0107927345717383
 10
33.0826333780692
 20
25.94529398679589
 42
0.0109082507914631
 10
33.14976051443242
 20
25.82671139502603
 42
0.0110292028144466
 10
33.22202331929501
 20
25.7111869638463
 42
0.011149827998715
 10
33.2993381020672
 20
25.5989812541203
 42
0.0112641981293764
 10
33.38153727420533
 20
25.49043952672831
 42
0.0113862555800625
 10
33.4686364526344
 20
25.38564760388388
 42
0.0114993534798591
 10
33.56043972218731
 20
25.2849515937892
 42
0.0116082748027561
 10
33.65679624152841
 20
25.1886037282903
 42
0.011699443808459
 10
33.75753785803312
 20
25.09685086433929
 42
0.0117909954718858
 10
33.86247768802019
 20
25.00993104807353
 42
0.0118625098896012
 10
33.97140972084481
 20
24.92807024720088
 42
0.0119182954691608
 10
34.0841114172442
 20
24.85148238595308
 42
0.0119684717120078
 10
34.20034178614861
 20
24.78036384013288
 42
0.0119867849300981
 10
34.31984446767683
 20
24.7148929414727
 42
0.0119944654697954
 10
34.4423496640469
 20
24.65522855063511
 42
0.0119869769896293
 10
34.56757418592034
 20
24.60150550930621
 42
0.011948987410793
 10
34.695226181284
 20
24.55383647555001
 42
0.0119017470330527
 10
34.82500650689611
 20
24.51231019432109
 42
0.0118366190541107
 10
34.9566116530107
 20
24.4769889057354
 42
0.0117556801614459
 10
35.08973662225802
 20
24.4479141432567
 42
0.0116565322923062
 10
35.22407452324231
 20
24.42510561870711
 42
0.0115328895192085
 10
35.35933146346821
 20
24.408547240806
 42
0.0115315689036437
 10
35.49531531239973
 20
24.39823220580001
  0
LWPOLYLINE
  5
5536E
330
1F
100
AcDbEntity
  8
1
100
AcDbPolyline
 90
       51
 70
     0
 43
0.0
 10
36.20498082979973
 20
30.37378111274765
 42
0.1242020600258267
 10
34.84442380234003
 20
29.84043683653851
 42
0.0121691985872305
 10
34.72871237860494
 20
29.7533682693059
 42
0.0121414780190166
 10
34.6173702376756
 20
29.66077982596511
 42
0.012121875799568
 10
34.5106504601257
 20
29.5628999515437
 42
0.0121171206184427
 10
34.40879840456432
 20
29.45996374586201
 42
0.0120993879795364
 10
34.31204874676951
 20
29.35221774150369
 42
0.0120860252074524
 10
34.22062246857701
 20
29.23991933981509
 42
0.0120771727099321
 10
34.13472699336271
 20
29.12333599556652
 42
0.012060791163615
 10
34.05455696599691
 20
29.00274375947038
 42
0.0120499821853166
 10
33.98029354022461
 20
28.87842694981561
 42
0.0120415171157531
 10
33.91210296391381
 20
28.75067806519289
 42
0.012027031366447
 10
33.85013801001969
 20
28.61979610446898
 42
0.0120192324684989
 10
33.79453714350103
 20
28.48608638135178
 42
0.0120121531935463
 10
33.74542334880593
 20
28.3498601455218
 42
0.0120006104907713
 10
33.70290577074644
 20
28.21143321078802
 42
0.0119964686914259
 10
33.66707853002782
 20
28.07112579676402
 42
0.0119913601931902
 10
33.63802006503792
 20
27.92926187728389
 42
0.0119835941578377
 10
33.6157947676341
 20
27.78616817350138
 42
0.0119835091176208
 10
33.60045146167451
 20
27.64217389165489
 42
0.0119807696732746
 10
33.5920233490308
 20
27.49760992718939
 42
0.0119773113224718
 10
33.59052946119283
 20
27.3528081859632
 42
0.0119813639689541
 10
33.5959728902034
 20
27.20810110004121
 42
0.0119812068218918
 10
33.60834135426282
 20
27.06382083954068
 42
0.0119822572739204
 10
33.62760832401582
 20
26.92029886767278
 42
0.0119901910208392
 10
33.65373114980858
 20
26.77786515106078
 42
0.0119926373699339
 10
33.68665219293757
 20
26.6368475282265
 42
0.0119980620507121
 10
33.7262995375205
 20
26.4975713644248
 42
0.012009286942851
 10
33.77258519980532
 20
26.36035842690529
 42
0.012070887130371
 10
33.82567122419968
 20
26.22489654950002
 42
0.0120235232855812
 10
33.88494185881993
 20
26.09277260729331
 42
0.012037190879781
 10
33.95049857230961
 20
25.96365231089701
 42
0.0120441770770669
 10
34.02219499651721
 20
25.83783755083269
 42
0.0120566264069287
 10
34.0998707871376
 20
25.71562383061502
 42
0.0120716091546226
 10
34.18335056077561
 20
25.59729869716877
 42
0.0120800754909794
 10
34.27244583281541
 20
25.48314205249361
 42
0.0120947148323196
 10
34.36695464577122
 20
25.3734252338822
 42
0.0121098216788175
 10
34.4666610675952
 20
25.2684094586111
 42
0.0121189808004116
 10
34.57133708025853
 20
25.1683464120691
 42
0.0121346646748801
 10
34.68074208016111
 20
25.07347694972831
 42
0.0121486903776878
 10
34.7946229583535
 20
24.98402974325362
 42
0.0121576271221959
 10
34.91271583638783
 20
24.900222066879
 42
0.0121731350153361
 10
35.03474561111361
 20
24.82225811247019
 42
0.0121849528523309
 10
35.16042654084691
 20
24.75032803630869
 42
0.0121926740619389
 10
35.2894637815167
 20
24.68460882402428
 42
0.0122068069333577
 10
35.4215532223937
 20
24.62526221564087
 42
0.0122158190198433
 10
35.55638218870001
 20
24.57243461897869
 42
0.0122205079775711
 10
35.6936308501991
 20
24.52625752444069
 42
0.0122318398487662
 10
35.83297378802342
 20
24.48684434973799
 42
0.0122444876384219
 10
35.97407918126155
 20
24.4542953247722
 42
0.0121635160626978
 10
36.11593553909969
 20
24.42879385960001
  0
LWPOLYLINE
  5
5536F
330
1F
100
AcDbEntity
  8
1
100
AcDbPolyline
 90
       63
 70
     0
 43
0.0
 10
43.88676616839958
 20
0.7880738260000158
 42
-0.004915505144879
 10
43.90852420837009
 20
0.9315317670804859
 42
-0.0048785506998991
 10
43.93307236777007
 20
1.074534504717483
 42
-0.0050345990968553
 10
43.96045140132733
 20
1.217026782595894
 42
-0.0051935192168493
 10
43.99073944405827
 20
1.358930185482982
 42
-0.0053665062455044
 10
44.02401678286568
 20
1.50016448712261
 42
-0.0055532020580732
 10
44.06036980184942
 20
1.640636556119282
 42
-0.00574320133262
 10
44.09988649749851
 20
1.780250884234412
 42
-0.0059820426666387
 10
44.14266423947964
 20
1.918901480799682
 42
-0.0062388480136945
 10
44.1888171759127
 20
2.056464090092902
 42
-0.0065168110371784
 10
44.23846194865697
 20
2.192806023450003
 42
-0.0068445679660444
 10
44.2917313441747
 20
2.327772050607585
 42
-0.0071831873548765
 10
44.34876472040627
 20
2.461190692426605
 42
-0.0075941753757097
 10
44.40971425632111
 20
2.592866032057791
 42
-0.0080230417557078
 10
44.47474502023161
 20
2.722573017362712
 42
-0.0085360007306711
 10
44.54403234551489
 20
2.850056630677492
 42
-0.0090808621194225
 10
44.61776574464582
 20
2.975019910885606
 42
-0.0097314405266613
 10
44.69614456146405
 20
3.097121951779286
 42
-0.0104325034485962
 10
44.7793788550916
 20
3.21596601828881
 42
-0.0112598591438991
 10
44.86768640773653
 20
3.331087534989109
 42
-0.0121840801879811
 10
44.96128549389019
 20
3.441947886243298
 42
-0.0132269575187637
 10
45.06039123388037
 20
3.547910220281885
 42
-0.0144353824426766
 10
45.16519905755981
 20
3.648230824494497
 42
-0.0157960113470224
 10
45.27586846229982
 20
3.742039820973296
 42
-0.0173207106988623
 10
45.39249494790403
 20
3.82832256921651
 42
-0.0190207737581568
 10
45.51507071866811
 20
3.905910457191396
 42
-0.0208794806865945
 10
45.64343238903143
 20
3.973481707322605
 42
-0.0228466765859218
 10
45.7771959204565
 20
4.029584159443203
 42
-0.0248302324591321
 10
45.91568423479711
 20
4.072694002197202
 42
-0.026689036534939
 10
46.0578643492496
 20
4.101322633768084
 42
-0.0282447242182364
 10
46.20231935156581
 20
4.114173865939982
 42
-0.0293014421945662
 10
46.34728799863552
 20
4.110333722209304
 42
-0.0296808637465957
 10
46.49079249604151
 20
4.089441734199198
 42
-0.0293119719282114
 10
46.63083658502401
 20
4.051782170621997
 42
-0.0282733430324312
 10
46.7656224082597
 20
3.998256676761478
 42
-0.0267197078568119
 10
46.89371980573992
 20
3.930244532347614
 42
-0.0248394428957023
 10
47.01414184676349
 20
3.8494000680842
 42
-0.0228215794804848
 10
47.12633160412503
 20
3.757457615209595
 42
-0.0208154280043286
 10
47.23009052817531
 20
3.656084591663976
 42
-0.0188819138642293
 10
47.3253103788175
 20
3.547009517624495
 42
-0.0171778184970648
 10
47.41259792285956
 20
3.431133742038973
 42
-0.0156195012729969
 10
47.49211011920059
 20
3.309784727769475
 42
-0.0142396810754769
 10
47.56424791249878
 20
3.183908035124005
 42
-0.0130090840620461
 10
47.62943078285892
 20
3.05428967572049
 42
-0.0119336866196024
 10
47.68807243900138
 20
2.921579807704283
 42
-0.0110070901066365
 10
47.74057189557132
 20
2.786320974750388
 42
-0.0101650693205922
 10
47.78730351194801
 20
2.648960780463106
 42
-0.0094534770452982
 10
47.82861260455343
 20
2.509871905186194
 42
-0.0088072081428754
 10
47.86482160173352
 20
2.369368616281398
 42
-0.0082472830961215
 10
47.89621888254299
 20
2.227710621479609
 42
-0.0077442192678279
 10
47.92307562446481
 20
2.085122083713478
 42
-0.0073082797459979
 10
47.94562875243511
 20
1.941788339148409
 42
-0.0069031718070115
 10
47.9641026677381
 20
1.7978724924317
 42
-0.006559475736725
 10
47.97869570063361
 20
1.65351088176029
 42
-0.0062250980042515
 10
47.98959414930147
 20
1.508821684526388
 42
-0.0059725548468886
 10
47.99696203438441
 20
1.363909469305802
 42
-0.005736398900815
 10
48.00093485640869
 20
1.21886382838911
 42
-0.0054992010601717
 10
48.00164712956112
 20
1.073769189274202
 42
-0.0052523419839632
 10
47.99923956188249
 20
0.9286938783500033
 42
-0.0050070104324708
 10
47.99385591447418
 20
0.7836948403206066
 42
-0.0049076109766892
 10
47.98561264969061
 20
0.6388198130044885
 42
-0.0049771206473858
 10
47.97450725776147
 20
0.4941364605736283
 42
-0.0050590923118665
 10
47.96047483399959
 20
0.3494425975999889
  0
LWPOLYLINE
  5
55370
330
1F
100
AcDbEntity
  8
1
100
AcDbPolyline
 90
        6
 70
     0
 43
0.0
 10
56.6976574354997
 20
7.968490079500007
 42
-0.0000060544722504
 10
53.78890184799451
 20
7.923129477676781
 42
-0.0000060873749769
 10
50.8801451595761
 20
7.877839522969871
 42
-0.0000060042875715
 10
47.97138737559172
 20
7.832619987128794
 42
-0.0000059239215484
 10
45.06262851487202
 20
7.78746976166078
 42
-0.0000059569246222
 10
42.15386858229971
 20
7.7423886439
  0
LWPOLYLINE
  5
55371
330
1F
100
AcDbEntity
  8
1
100
AcDbPolyline
 90
       63
 70
     0
 43
0.0
 10
43.8867661683997
 20
0.7880738260000158
 42
-0.00491550514147
 10
43.90852420837009
 20
0.9315317670801164
 42
-0.0048785506977321
 10
43.93307236777007
 20
1.074534504716808
 42
-0.0050345990959847
 10
43.9604514013271
 20
1.217026782594778
 42
-0.0051935192269102
 10
43.99073944405813
 20
1.358930185481483
 42
-0.0053665062494174
 10
44.02401678286534
 20
1.500164487120706
 42
-0.0055532020599781
 10
44.06036980184888
 20
1.640636556117094
 42
-0.0057432013385592
 10
44.09988649749783
 20
1.780250884231918
 42
-0.0059820426699643
 10
44.14266423947893
 20
1.918901480796904
 42
-0.0062388480123185
 10
44.18881717591168
 20
2.056464090089804
 42
-0.0065168110427667
 10
44.2384619486557
 20
2.1928060234465
 42
-0.0068445679657308
 10
44.2917313441732
 20
2.327772050603776
 42
-0.0071831873521931
 10
44.3487647204046
 20
2.461190692422597
 42
-0.0075941753823784
 10
44.40971425631909
 20
2.592866032053471
 42
-0.0080230417553276
 10
44.4747450202293
 20
2.722573017358108
 42
-0.0085360007218007
 10
44.54403234551222
 20
2.850056630672696
 42
-0.0090808621183201
 10
44.61776574464283
 20
2.975019910880483
 42
-0.0097314405281708
 10
44.6961445614607
 20
3.097121951774113
 42
-0.0104325034550342
 10
44.77937885508771
 20
3.215966018283609
 42
-0.0112598591513112
 10
44.8676864077322
 20
3.331087534983673
 42
-0.0121840801785425
 10
44.9612854938856
 20
3.441947886237493
 42
-0.0132269575246401
 10
45.06039123387449
 20
3.547910220277081
 42
-0.0144353824624942
 10
45.16519905755441
 20
3.648230824488706
 42
-0.0157960113046886
 10
45.2758684622942
 20
3.742039820966198
 42
-0.0173207107581862
 10
45.39249494789038
 20
3.828322569221711
 42
-0.0190207739160435
 10
45.51507071869685
 20
3.90591045712528
 42
-0.0208794802642951
 10
45.64343238904569
 20
3.973481707287895
 42
-0.0228466768891099
 10
45.77719592044752
 20
4.029584159461506
 42
-0.0248302325718404
 10
45.91568423481942
 20
4.072694002107283
 42
-0.0266890362140083
 10
46.05786434925653
 20
4.101322633768198
 42
-0.028244724352669
 10
46.20231935157119
 20
4.114173865937488
 42
-0.0293014422049954
 10
46.34728799864046
 20
4.110333722209496
 42
-0.0296808637284582
 10
46.49079249604611
 20
4.089441734198203
 42
-0.0293119719246352
 10
46.6308365850281
 20
4.051782170620697
 42
-0.0282733430290312
 10
46.76562240826334
 20
3.998256676759808
 42
-0.0267197078596596
 10
46.89371980574293
 20
3.930244532345703
 42
-0.0248394428956661
 10
47.0141418467661
 20
3.849400068082182
 42
-0.0228215794500775
 10
47.12633160412721
 20
3.757457615207606
 42
-0.0208154280170966
 10
47.2300905281771
 20
3.6560845916621
 42
-0.0188819138553228
 10
47.32531037881742
 20
3.547009517624616
 42
-0.0171778185066067
 10
47.41259792285913
 20
3.431133742039293
 42
-0.015619501273199
 10
47.49211011920019
 20
3.309784727770278
 42
-0.0142396810851689
 10
47.5642479124987
 20
3.183908035125192
 42
-0.0130090840735587
 10
47.62943078285599
 20
3.0542896757212
 42
-0.0119336866023427
 10
47.68807243900383
 20
2.921579807707495
 42
-0.011007090151886
 10
47.74057189557947
 20
2.786320974755277
 42
-0.0101650694479381
 10
47.7873035119106
 20
2.648960780454494
 42
-0.0094534769606352
 10
47.82861260446182
 20
2.509871905162178
 42
-0.0088072079955638
 10
47.86482160166932
 20
2.369368616262896
 42
-0.0082472831092439
 10
47.89621888254089
 20
2.227710621474891
 42
-0.0077442193592314
 10
47.92307562448081
 20
2.085122083714196
 42
-0.0073082797653161
 10
47.94562875243832
 20
1.941788339147706
 42
-0.0069031717775381
 10
47.96410266773347
 20
1.797872492429597
 42
-0.0065594757275635
 10
47.97869570063133
 20
1.653510881758613
 42
-0.0062250980028985
 10
47.9895941493026
 20
1.508821684525486
 42
-0.0059725548507414
 10
47.99696203438583
 20
1.363909469305404
 42
-0.0057363988990761
 10
48.000934856409
 20
1.21886382838911
 42
-0.0054992010545043
 10
48.00164712956069
 20
1.073769189274486
 42
-0.0052523419879739
 10
47.99923956188218
 20
0.9286938783506002
 42
-0.0050070104333934
 10
47.99385591447432
 20
0.7836948403216013
 42
-0.0049076109775996
 10
47.98561264969092
 20
0.6388198130057959
 42
-0.0049771206484612
 10
47.97450725776184
 20
0.4941364605753052
 42
-0.0050590923144205
 10
47.96047483399971
 20
0.3494425975999889
  0
LINE
  5
55372
330
1F
100
AcDbEntity
  8
1
100
AcDbLine
 10
55.77172889239969
 20
23.19403582730001
 30
0.0
 11
35.3556128722997
 21
23.19403582730001
 31
0.0
  0
LINE
  5
55373
330
1F
100
AcDbEntity
  8
1
100
AcDbLine
 10
50.4202872467996
 20
24.63222692620011
 30
0.0
 11
37.0580604353996
 21
24.72506372470011
 31
0.0
  0
LINE
  5
55374
330
1F
100
AcDbEntity
  8
sk3
100
AcDbLine
 10
41.39999999999957
 20
13.00000000000001
 30
0.0
 11
54.7717288923997
 21
13.00000000000001
 31
0.0
  0
LINE
  5
55375
330
1F
100
AcDbEntity
  8
sk3
100
AcDbLine
 10
32.00044577569969
 20
10.99534738459976
 30
0.0
 11
52.97118416009971
 21
23.19373375819978
 31
0.0
  0
LWPOLYLINE
  5
55376
330
1F
100
AcDbEntity
  8
1
100
AcDbPolyline
 90
       19
 70
     0
 43
0.0
 10
56.6976574354997
 20
15.28820373309999
 42
0.0020752084494243
 10
56.82090927151634
 20
14.43093467938617
 42
0.0020924587485405
 10
56.95135255124461
 20
13.57472962947751
 42
0.0018802501856611
 10
57.0885982512022
 20
12.71958799904367
 42
0.001746908289825
 10
57.23202452647419
 20
11.86546102435729
 42
0.0016374966940722
 10
57.38122872174111
 20
11.01232428286151
 42
0.001529349077136
 10
57.5358327590242
 20
10.16014924107917
 42
0.0014395315707888
 10
57.69549098064093
 20
9.308906523675091
 42
0.0013575131449847
 10
57.85990560013281
 20
8.458569565366616
 42
0.0012842929846563
 10
58.02881068107542
 20
7.609113003858986
 42
0.0012191779602139
 10
58.20196405938202
 20
6.760512173210678
 42
0.0011586191041153
 10
58.3791503850492
 20
5.912744129574996
 42
0.0011061909163145
 10
58.56017427618843
 20
5.065787153215374
 42
0.0010563081994405
 10
58.74485820780802
 20
4.219620703928711
 42
0.001011301266088
 10
58.93303958551141
 20
3.374225109591286
 42
0.0009709735517284
 10
59.12456818179942
 20
2.529581412428903
 42
0.0009367917203966
 10
59.3193181323744
 20
1.685674650117469
 42
0.0008974878610833
 10
59.51716527074783
 20
0.8424889215782727
 42
0.0008538283996975
 10
59.71796461136898
 20
0.0000010388609937
  0
LWPOLYLINE
  5
55377
330
1F
100
AcDbEntity
  8
1
100
AcDbPolyline
 90
       10
 70
     0
 43
0.0
 10
56.6976574354997
 20
7.968490079500007
 42
0.0009501260954172
 10
56.91084290678339
 20
7.19963117170019
 42
0.0009540702400958
 10
57.12695701741302
 20
6.431589961515584
 42
0.0009365641456538
 10
57.3459750869631
 20
5.664371845827581
 42
0.0009225461612949
 10
57.56784191066848
 20
4.897972702472792
 42
0.0009129444483098
 10
57.79252060452001
 20
4.132393121949995
 42
0.0009040814887777
 10
58.01997992154131
 20
3.367635076031483
 42
0.0008951277686119
 10
58.25018971973202
 20
2.603700588811896
 42
0.0008872284825265
 10
58.48312044252981
 20
1.840591035193988
 42
0.0008893604048226
 10
58.71876048559968
 20
1.078313788600006
  0
LINE
  5
55378
330
1F
100
AcDbEntity
  8
sk3
100
AcDbLine
 10
55.77172889239969
 20
19.23237780330012
 30
0.0
 11
55.77172889239969
 21
0.0
 31
0.0
  0
LINE
  5
55379
330
1F
100
AcDbEntity
  8
sk3
100
AcDbLine
 10
54.7717288923997
 20
0.0
 30
0.0
 11
54.7717288923997
 21
13.00000000000001
 31
0.0
  0
LWPOLYLINE
  5
5537A
330
1F
100
AcDbEntity
  8
1
100
AcDbPolyline
 90
       24
 70
     0
 43
0.0
 10
47.92537173229971
 20
0.0658336446999783
 10
47.9249586851867
 20
0.0629266717749033
 10
47.92454462357897
 20
0.060019844234489
 10
47.9241295470247
 20
0.0571131624153054
 10
47.92371345507251
 20
0.054206626653496
 10
47.92329634727082
 20
0.0513002372857727
 10
47.92287822316843
 20
0.0483939946487055
 10
47.92245908231393
 20
0.0454878990790064
 10
47.92203892425621
 20
0.0425819509135863
 10
47.92161774854412
 20
0.0396761504894983
 10
47.92119555472669
 20
0.0367704981437953
 10
47.92077234235302
 20
0.0338649942137011
 10
47.92034811097233
 20
0.0309596390366096
 10
47.9199228601336
 20
0.0280544329499151
 10
47.9194965893865
 20
0.0251493762912958
 10
47.91906929828019
 20
0.0222444693984016
 10
47.91864098636432
 20
0.01933971260911
 10
47.91821165318842
 20
0.016435106261298
 10
47.9177812983022
 20
0.0135306506930988
 10
47.91734992125543
 20
0.0106263462427023
 10
47.91691752159784
 20
0.0077221932481848
 10
47.91648409887961
 20
0.0048181920483046
 10
47.9160496526506
 20
0.001914342981479
 10
47.91561418246101
 20
-0.0009893536137042
  0
LWPOLYLINE
  5
5537B
330
1F
100
AcDbEntity
  8
1
100
AcDbPolyline
 90
        3
 70
     0
 43
0.0
 10
47.96047483399959
 20
0.3494425975999889
 10
47.94292328314961
 20
0.2076381211499836
 10
47.92537173229971
 20
0.0658336446999783
  0
LWPOLYLINE
  5
5537C
330
1F
100
AcDbEntity
  8
1
100
AcDbPolyline
 90
       64
 70
     0
 43
0.0
 10
53.98089045003252
 20
-0.0000009773247029
 42
-0.0042504107521534
 10
54.0022718907077
 20
0.1355645034844031
 42
-0.0043141265448525
 10
54.02596338178151
 20
0.2707444868755999
 42
-0.0044478051978014
 10
54.05202047606801
 20
0.4054915298852962
 42
-0.0045832764607302
 10
54.08050708465793
 20
0.539746691801895
 42
-0.0047325406088035
 10
54.111489426052
 20
0.6734493507849777
 42
-0.0048909881381985
 10
54.14503878624291
 20
0.8065294556002129
 42
-0.0050511481618138
 10
54.18122728870151
 20
0.9389155785271157
 42
-0.00524683343051
 10
54.2201325777502
 20
1.07052966118811
 42
-0.0054640988929858
 10
54.26184778286932
 20
1.201279459240303
 42
-0.0056856920774147
 10
54.306467647803
 20
1.331066587635682
 42
-0.0059554825584556
 10
54.35409577570266
 20
1.459780771939783
 42
-0.0062381044090122
 10
54.40484771458452
 20
1.587293969602704
 42
-0.0065484774281258
 10
54.45884106550332
 20
1.713469468469888
 42
-0.0069111816594609
 10
54.51621030194011
 20
1.838145116197203
 42
-0.0072874318872824
 10
54.57709503587051
 20
1.961141987096503
 42
-0.0077425231406501
 10
54.64164763549582
 20
2.082253428465001
 42
-0.0082162643250323
 10
54.71003094257813
 20
2.201242866964967
 42
-0.0087855368381571
 10
54.78241767601568
 20
2.317839483812285
 42
-0.0094603297118991
 10
54.85956173970632
 20
2.432542181657503
 42
-0.0101153599877711
 10
54.94054768137766
 20
2.543335655099689
 42
-0.0108987159500622
 10
55.02611249819094
 20
2.650631146832203
 42
-0.0118086345772959
 10
55.11645736823766
 20
2.753930274603099
 42
-0.0128425539122965
 10
55.2117765952664
 20
2.852655631216997
 42
-0.0139974249193449
 10
55.31224954644802
 20
2.946126824524291
 42
-0.0153184567219237
 10
55.41802195535044
 20
3.033549862027989
 42
-0.0168082914400207
 10
55.52918222970871
 20
3.114003459695389
 42
-0.0184569580539133
 10
55.64572728462221
 20
3.186427482322095
 42
-0.0202516927701687
 10
55.76751593201172
 20
3.249623779207404
 42
-0.0221511644494998
 10
55.89421180066136
 20
3.302277123136285
 42
-0.0240726596284924
 10
56.02521980655609
 20
3.343006291362392
 42
-0.0258865321482778
 10
56.15963008673412
 20
3.370457123109297
 42
-0.0274197712492265
 10
56.29619160914768
 20
3.383440173662897
 42
-0.0284750300325891
 10
56.43334333622451
 20
3.381096445109982
 42
-0.0288872630139427
 10
56.5693206378101
 20
3.363050885010487
 42
-0.0286034201858902
 10
56.70232545878071
 20
3.329501238377098
 42
-0.0276736285579334
 10
56.8307179206511
 20
3.281205286797778
 42
-0.0262244753985826
 10
56.95317107847961
 20
3.219364257541791
 42
-0.0244358523998256
 10
57.06874706084133
 20
3.145448519597088
 42
-0.0224947740283259
 10
57.17689471769762
 20
3.061022925542602
 42
-0.020548378456373
 10
57.27739208686461
 20
2.967610095204484
 42
-0.0186915456416468
 10
57.37026563049659
 20
2.86660518674568
 42
-0.0169782200890838
 10
57.4557110708422
 20
2.759236057704093
 42
-0.0154375905617965
 10
57.5340276414141
 20
2.646555565552482
 42
-0.0140713818399272
 10
57.60556987430192
 20
2.529453056687479
 42
-0.0128504949214096
 10
57.67071484466851
 20
2.408671578607787
 42
-0.0117740297413384
 10
57.72983806463642
 20
2.284827558223263
 42
-0.0108508175807761
 10
57.78330381241861
 20
2.158436550722676
 42
-0.0100080913827955
 10
57.83145697449242
 20
2.029925968453987
 42
-0.0092945342638863
 10
57.87461581839031
 20
1.899651225465781
 42
-0.0086428837310983
 10
57.91308001012561
 20
1.767913398846779
 42
-0.0080838012639522
 10
57.94711722034413
 20
1.634961386532118
 42
-0.0075692082810683
 10
57.97698072433551
 20
1.501009741070099
 42
-0.0071322303064919
 10
58.00289377665404
 20
1.36623727826511
 42
-0.0067159335822662
 10
58.02506690592071
 20
1.230798779511893
 42
-0.0063749055989682
 10
58.04368741468542
 20
1.094826272307379
 42
-0.00604157218284
 10
58.05892633673386
 20
0.9584323812104003
 42
-0.005759874233009
 10
58.07094421638601
 20
0.8217180560123935
 42
-0.0054978251696116
 10
58.07988134469352
 20
0.6847664797905964
 42
-0.0052504804619923
 10
58.08587439040931
 20
0.5476534817806851
 42
-0.0050631154100769
 10
58.0890385305949
 20
0.4104459421094191
 42
-0.0048801911366254
 10
58.0894737328991
 20
0.273202393097101
 42
-0.0046962485636837
 10
58.08728013062221
 20
0.135977310054777
 42
-0.0045065438271961
 10
58.08256139658261
 20
-0.0011834398259012
  0
LWPOLYLINE
  5
5537D
330
1F
100
AcDbEntity
  8
1
100
AcDbPolyline
 90
       42
 70
     0
 43
0.0
 10
58.71876048559968
 20
1.078313788600006
 10
58.72696510125172
 20
1.051940656049502
 10
58.73518127329882
 20
1.025571112579477
 10
58.74340897746271
 20
0.999205156601107
 10
58.75164818946791
 20
0.9728427865179867
 10
58.75989888504171
 20
0.9464840007269046
 10
58.76816103991441
 20
0.9201287976173091
 10
58.77643462981883
 20
0.8937771755714081
 10
58.7847196304906
 20
0.8674291329646095
 10
58.79301601766844
 20
0.8410846681646759
 10
58.80132376709361
 20
0.8147437795326979
 10
58.80964285451049
 20
0.7884064654224972
 10
58.81797325566592
 20
0.762072724180797
 10
58.82631494631002
 20
0.7357425541472935
 10
58.83466790219543
 20
0.7094159536545988
 10
58.84303209907781
 20
0.6830929210285035
 10
58.8514075127157
 20
0.6567734545874942
 10
58.85979411887053
 20
0.6304575526432075
 10
58.8681918933066
 20
0.6041452135004022
 10
58.8766008142004
 20
0.5778364285029057
 10
58.88502089348958
 20
0.5515311873423059
 10
58.8934521940115
 20
0.5252295436204975
 10
58.90189479505761
 20
0.4989315283509086
 10
58.91034877591071
 20
0.4726371725732009
 10
58.91881421584492
 20
0.4463465073538089
 10
58.92729119412547
 20
0.4200595637861895
 10
58.93577979000878
 20
0.3937763729904802
 10
58.9442800827421
 20
0.3674969661139968
 10
58.95279215156353
 20
0.3412213743310986
 10
58.9613160757018
 20
0.3149496288437987
 10
58.96985193437643
 20
0.2886817608810972
 10
58.97839980679719
 20
0.2624178016999892
 10
58.98695977216442
 20
0.2361577825848755
 10
58.99553190966841
 20
0.2099017348481809
 10
59.00411629848992
 20
0.1836496898300979
 10
59.01271301779934
 20
0.1574016788990988
 10
59.0213221449103
 20
0.131157739815194
 10
59.0299437623899
 20
0.1049179003026026
 10
59.0385779522625
 20
0.0786821926701791
 10
59.04722479593221
 20
0.0524506511389902
 10
59.05588437479321
 20
0.0262233099609759
 10
59.06455677022981
 20
0.000000203418999
  0
LWPOLYLINE
  5
5537E
330
1F
100
AcDbEntity
  8
1
100
AcDbPolyline
 90
       64
 70
     0
 43
0.0
 10
53.9726471287997
 20
-0.056748341499997
 42
-0.0043381799470546
 10
53.9932007382489
 20
0.0798620415305038
 42
-0.004288730655324
 10
54.01609582988204
 20
0.216095815534004
 42
-0.0044228761994931
 10
54.04136145621283
 20
0.351913580183691
 42
-0.0045594560066595
 10
54.06906295000661
 20
0.4872567229488994
 42
-0.0047025881584229
 10
54.09926628424509
 20
0.6220650630202727
 42
-0.004862190880722
 10
54.13204247984061
 20
0.7562703855730888
 42
-0.0050238341415784
 10
54.16746520088008
 20
0.889800215779104
 42
-0.005201967823272
 10
54.20560945493119
 20
1.022578641631774
 42
-0.0054207084803157
 10
54.2465656157822
 20
1.154516789466377
 42
-0.0056425139861918
 10
54.29043047244784
 20
1.285515756203686
 42
-0.0058964136719003
 10
54.33730424338182
 20
1.41546937619497
 42
-0.0061816215885969
 10
54.38730259494889
 20
1.5442518298752
 42
-0.0064696859330314
 10
54.44049045973821
 20
1.671604424989304
 42
-0.0068356790311735
 10
54.49710202697852
 20
1.797619656711582
 42
-0.0072074212199721
 10
54.55722926262168
 20
1.921994323743199
 42
-0.0076456572806462
 10
54.6210211185901
 20
2.044530285827271
 42
-0.008118592803607
 10
54.68864284527683
 20
2.16499304484278
 42
-0.0086640912298463
 10
54.76026489150533
 20
2.283121509658478
 42
-0.0092635748253597
 10
54.83607394300591
 20
2.398605170470794
 42
-0.0099610008902368
 10
54.91626148078433
 20
2.511092422864486
 42
-0.0107229079206422
 10
55.0010298207371
 20
2.620166826105382
 42
-0.0116232122799903
 10
55.09058276405892
 20
2.725345808410388
 42
-0.0126196907450885
 10
55.18512150124502
 20
2.826064828839285
 42
-0.0137553713345322
 10
55.28483503751861
 20
2.921658775677194
 42
-0.0150593809555934
 10
55.38988290628961
 20
3.011352352974192
 42
-0.0165196322213961
 10
55.500373905543
 20
3.094241733902691
 42
-0.0181441805830513
 10
55.61633278424881
 20
3.169281771903591
 42
-0.0199290942275393
 10
55.73765591438086
 20
3.235284913815
 42
-0.0218365402283633
 10
55.8640547120342
 20
3.290935842340694
 42
-0.0237885346879954
 10
55.99499069258434
 20
3.334835260049793
 42
-0.025660820236267
 10
56.12961416951481
 20
3.365585034279767
 42
-0.0272883589635804
 10
56.26672732270833
 20
3.381919894852295
 42
-0.0284818642137119
 10
56.40480054984434
 20
3.382875585411191
 42
-0.0290584440496437
 10
56.54206540617884
 20
3.367955225091691
 42
-0.0289106451873612
 10
56.67667954219121
 20
3.337238753172208
 42
-0.0280768980191835
 10
56.8069240014446
 20
3.291391223768009
 42
-0.0266909122387258
 10
56.93137527373005
 20
3.231563217751293
 42
-0.0249305266105816
 10
57.04900161086368
 20
3.159217688432697
 42
-0.0229815951080022
 10
57.15917342673211
 20
3.07594499518688
 42
-0.0210021892672328
 10
57.26161204066852
 20
2.983312921036905
 42
-0.0191012796092524
 10
57.3563082095871
 20
2.882769564449596
 42
-0.0173432775437405
 10
57.44343872786993
 20
2.775595606286508
 42
-0.015759176419789
 10
57.52329614362321
 20
2.662892161389599
 42
-0.0143462962833994
 10
57.59623685820233
 20
2.54558940589478
 42
-0.0130835262233857
 10
57.66264315769561
 20
2.42446403556061
 42
-0.011984324915199
 10
57.72289905484772
 20
2.300160869907095
 42
-0.0110285737391896
 10
57.77737893637894
 20
2.173218745825174
 42
-0.0101599660191718
 10
57.82643592047731
 20
2.044081805949495
 42
-0.0094314295656356
 10
57.87039877432121
 20
1.913121468675988
 42
-0.0087567004896835
 10
57.9095744953751
 20
1.780649284014479
 42
-0.0081893936923511
 10
57.94423973111133
 20
1.646924614947373
 42
-0.0076576111929455
 10
57.97465366703071
 20
1.512168722185684
 42
-0.007214278359353
 10
58.00104718230321
 20
1.376567464021398
 42
-0.0067874253768761
 10
58.02363513462509
 20
1.24027987859349
 42
-0.006439312328014
 10
58.0426113355455
 20
1.103442784954602
 42
-0.0061016412340497
 10
58.05815015507159
 20
0.9661717114132883
 42
-0.0058117234513754
 10
58.07041681539101
 20
0.8285706631727052
 42
-0.0055466284245583
 10
58.0795549438022
 20
0.6907252557325024
 42
-0.0052933996376338
 10
58.08570406139793
 20
0.5527131167392838
 42
-0.0051023712692105
 10
58.08898320319634
 20
0.4146028374196078
 42
-0.0049172515642623
 10
58.08949434901251
 20
0.2764543161677864
 42
-0.0047314262216064
 10
58.08733940802369
 20
0.1383232293211947
 42
-0.0045394054913957
 10
58.08262386536751
 20
0.0002566507846993
  0
LWPOLYLINE
  5
5537F
330
1F
100
AcDbEntity
  8
1
100
AcDbPolyline
 90
        3
 70
     0
 43
0.0
 10
47.96047483399971
 20
0.3494425975999889
 10
47.94292322904968
 20
0.2076377769500084
 10
47.92537162409971
 20
0.0658329562998858
  0
LINE
  5
55380
330
1F
100
AcDbEntity
  8
1
100
AcDbLine
 10
58.71876048559968
 20
-0.0000000000000071
 30
0.0
 11
58.71876048559968
 21
1.078313788600006
 31
0.0
  0
LINE
  5
55381
330
1F
100
AcDbEntity
  8
1
100
AcDbLine
 10
47.92537162410019
 20
0.0658329562997153
 30
0.0
 11
47.90495916439039
 21
-0.0000000000003126
 31
0.0
  0
LWPOLYLINE
  5
55382
330
1F
100
AcDbEntity
  8
1
100
AcDbPolyline
 90
        6
 70
     0
 43
0.0
 10
56.17954129959961
 20
16.3955820073
 42
0.0034200971270992
 10
56.27717559670393
 20
16.17135639399188
 42
0.0034901354827433
 10
56.37790187550192
 20
15.9485011879275
 42
0.0033141962905186
 10
56.48166309922342
 20
15.72704320549259
 42
0.0031472631928699
 10
56.58826502699984
 20
15.50693620702759
 42
0.0032156073553674
 10
56.6976574354997
 20
15.28820373309999
  0
LINE
  5
55383
330
1F
100
AcDbEntity
  8
1
100
AcDbLine
 10
56.6976574354997
 20
7.968490079500007
 30
0.0
 11
56.6976574354997
 21
15.28820373309999
 31
0.0
  0
LINE
  5
55384
330
1F
100
AcDbEntity
  8
sk3
100
AcDbLine
 10
54.77172896029981
 20
12.9999999321998
 30
0.0
 11
55.77172896549971
 21
13.99999992699989
 31
0.0
  0
LWPOLYLINE
  5
55385
330
1F
100
AcDbEntity
  8
1
100
AcDbPolyline
 90
       16
 70
     0
 43
0.0
 10
55.77172889239969
 20
19.23237780330001
 42
0.0024153242145185
 10
55.77236604112266
 20
19.0400072034918
 42
0.0022260299246093
 10
55.77477408360318
 20
18.8476492326468
 42
0.0028848488566576
 10
55.77913020303544
 20
18.6553262849616
 42
0.0035671793931359
 10
55.78597823324571
 20
18.46307692406401
 42
0.0041469970326512
 10
55.79579081643334
 20
18.27095628675327
 42
0.004831768268112
 10
55.80904651062661
 20
18.07904315669381
 42
0.0055603476420282
 10
55.82628512404352
 20
17.88744777853611
 42
0.0063249376381684
 10
55.84807172768782
 20
17.69631773314127
 42
0.0071361204848034
 10
55.87499388371066
 20
17.50584480404171
 42
0.0080126414366271
 10
55.90766746689419
 20
17.31627539687888
 42
0.008916944021436
 10
55.94674169778523
 20
17.12792446831601
 42
0.0097558389022382
 10
55.99282046728609
 20
16.94116504086039
 42
0.0109074464119676
 10
56.0465447799292
 20
16.75646121649301
 42
0.0120899267792019
 10
56.10873911483921
 20
16.57443353674917
 42
0.0117030020611177
 10
56.17954129959961
 20
16.3955820073
  0
LWPOLYLINE
  5
55386
330
1F
100
AcDbEntity
  8
1
100
AcDbPolyline
 90
       13
 70
     0
 43
0.0
 10
50.42028724679972
 20
24.63222692620002
 42
0.0005991560393512
 10
50.86627989765702
 20
24.62963016962027
 42
0.0005896688428053
 10
51.31168641565659
 20
24.62809391845838
 42
0.0006254093457811
 10
51.75768646782668
 20
24.62763752751512
 42
0.0006610740131245
 10
52.20368618453051
 20
24.62832976351689
 42
0.0006938884711632
 10
52.649682388727
 20
24.6302302756996
 42
0.0007342254119099
 10
53.09567132863111
 20
24.63340431822911
 42
0.000780101909109
 10
53.54164860605502
 20
24.6379276777505
 42
0.0008305828357648
 10
53.98760896102221
 20
24.64388771104661
 42
0.0008801188260198
 10
54.43354629087792
 20
24.6513735561577
 42
0.0009549089531857
 10
54.87945325669222
 20
24.66048846254051
 42
0.0010437832319163
 10
55.32535036543052
 20
24.6713914408615
 42
0.0010227266378408
 10
55.77172889239969
 20
24.68415734710001
  0
LWPOLYLINE
  5
55387
330
1F
100
AcDbEntity
  8
1
100
AcDbPolyline
 90
       21
 70
     0
 43
0.0
 10
48.15188740379966
 20
23.19403582730001
 10
48.28530598169101
 20
23.19423859526103
 10
48.418723987524
 20
23.1946728797146
 10
48.55214132431041
 20
23.19528371815602
 10
48.68555844800869
 20
23.19594175924826
 10
48.81897564862661
 20
23.19658235418978
 10
48.95239314405341
 20
23.1971581251388
 10
49.08581105219892
 20
23.19762811563169
 10
49.21920564599048
 20
23.1979663827691
 10
49.35262424376941
 20
23.19815665822698
 10
49.48604297235693
 20
23.1981905200231
 10
49.61946165028485
 20
23.19806865390629
 10
49.75288011317534
 20
23.1977991445103
 10
49.88629824649803
 20
23.19739805765388
 10
50.0197160154816
 20
23.19688939221709
 10
50.15313347728022
 20
23.19630519005051
 10
50.28655078860078
 20
23.19568834376878
 10
50.41996816301232
 20
23.19508524782319
 10
50.5533858558509
 20
23.1945553029762
 10
50.6868040909122
 20
23.19419437486289
 10
50.8202464385997
 20
23.19403582730001
  0
LINE
  5
55388
330
1F
100
AcDbEntity
  8
1
100
AcDbLine
 10
56.17954129959961
 20
25.20913297359999
 30
0.0
 11
56.17954129959961
 21
16.3955820073
 31
0.0
  0
LINE
  5
55389
330
1F
100
AcDbEntity
  8
1
100
AcDbLine
 10
55.77172889239969
 20
19.23237780330001
 30
0.0
 11
55.77172889239969
 21
25.1982391945439
 31
0.0
  0
LINE
  5
5538A
330
1F
100
AcDbEntity
  8
1
100
AcDbLine
 10
42.15386858229971
 20
7.7423886439
 30
0.0
 11
42.15386858229971
 21
0.0
 31
0.0
  0
LINE
  5
5538B
330
1F
100
AcDbEntity
  8
1
100
AcDbLine
 10
25.5194378092996
 20
12.2196964812
 30
0.0
 11
25.5194378092996
 21
0.0
 31
0.0
  0
LINE
  5
5538C
330
1F
100
AcDbEntity
  8
1
100
AcDbLine
 10
24.3559666691996
 20
0.0
 30
0.0
 11
24.3559666691996
 21
13.72607848250001
 31
0.0
  0
LINE
  5
5538D
330
1F
100
AcDbEntity
  8
1
100
AcDbLine
 10
42.15386858229971
 20
7.742388643900106
 30
0.0
 11
42.15386858229971
 21
0.0
 31
0.0
  0
LINE
  5
5538E
330
1F
100
AcDbEntity
  8
sk3
100
AcDbLine
 10
40.99999999999972
 20
12.60000000000002
 30
0.0
 11
40.99999999999972
 21
0.0
 31
0.0
  0
LINE
  5
5538F
330
1F
100
AcDbEntity
  8
sk3
100
AcDbLine
 10
31.99999999999972
 20
0.0
 30
0.0
 11
31.99999999999972
 21
16.10000000000001
 31
0.0
  0
LINE
  5
55390
330
1F
100
AcDbEntity
  8
sk3
100
AcDbLine
 10
40.49999999999971
 20
0.0
 30
0.0
 11
40.49999999999971
 21
8.500000000000021
 31
0.0
  0
LINE
  5
55391
330
1F
100
AcDbEntity
  8
sk3
100
AcDbLine
 10
32.3999998650639
 20
-8.5
 30
0.0
 11
40.49999999999971
 21
-8.5
 31
0.0
  0
LINE
  5
55392
330
1F
100
AcDbEntity
  8
sk3
100
AcDbLine
 10
40.49999999999971
 20
-8.5
 30
0.0
 11
40.49999999999971
 21
0.0
 31
0.0
  0
LINE
  5
55393
330
1F
100
AcDbEntity
  8
sk3
100
AcDbLine
 10
40.49999988620038
 20
-8.500000113799302
 30
0.0
 11
40.99999987950051
 21
-9.000000120499407
 31
0.0
  0
LWPOLYLINE
  5
55394
330
1F
100
AcDbEntity
  8
1
100
AcDbPolyline
 90
       69
 70
     0
 43
0.0
 10
43.81492269034544
 20
-0.0002863447693073
 10
43.81524241164709
 20
0.0072214923577008
 10
43.81556899233902
 20
0.0147290363796913
 10
43.81590243607584
 20
0.0222362811209109
 10
43.81624274651151
 20
0.0297432204024233
 10
43.81658992729891
 20
0.0372498480429897
 10
43.81694398209069
 20
0.0447561578586999
 10
43.81730491453862
 20
0.0522621436629152
 10
43.8176727282935
 20
0.0597677992662114
 10
43.81804742700552
 20
0.0672731184766917
 10
43.8184290143242
 20
0.0747780950997878
 10
43.81881749389833
 20
0.0822827229380039
 10
43.81921286937543
 20
0.0897869957913997
 10
43.81961514440272
 20
0.0972909074574204
 10
43.8200243226264
 20
0.1047944517304984
 10
43.8204404076917
 20
0.112297622402906
 10
43.82086340324335
 20
0.1198004132637038
 10
43.8212933144643
 20
0.1273028448570983
 10
43.82173014919311
 20
0.1348050082063992
 10
43.82217389930372
 20
0.1423067820896904
 10
43.82262456264252
 20
0.1498081595031806
 10
43.82308213705766
 20
0.1573091334441017
 10
43.82354662039867
 20
0.164809696910595
 10
43.82401801051659
 20
0.1723098429021093
 10
43.82449630526409
 20
0.1798095644190027
 10
43.82498150249529
 20
0.1873088544624011
 10
43.82547360006592
 20
0.1948077060349078
 10
43.82597259583309
 20
0.2023061121398086
 10
43.82647848765583
 20
0.2098040657814124
 10
43.82699127339432
 20
0.2173015599649943
 10
43.82751095091049
 20
0.2247985876968812
 10
43.8280375180679
 20
0.2322951419843946
 10
43.82857097273151
 20
0.2397912158357087
 10
43.82911131276791
 20
0.2472868022599073
 10
43.82965853604531
 20
0.2547818942670972
 10
43.83021264043342
 20
0.2622764848684085
 10
43.83077362380359
 20
0.2697705670757102
 10
43.83134148402882
 20
0.2772641339017809
 10
43.83191621898345
 20
0.2847571783605076
 10
43.83249782654383
 20
0.2922496934664878
 10
43.83308630458734
 20
0.2997416722351147
 10
43.83368165099333
 20
0.3072331076829755
 10
43.83428386364267
 20
0.3147239928271972
 10
43.83489294041805
 20
0.3222143206859869
 10
43.8355088792033
 20
0.3297040842782906
 10
43.83613167788411
 20
0.337193276623907
 10
43.83676133434801
 20
0.3446818907434022
 10
43.83739784648381
 20
0.3521699196584223
 10
43.83804121218202
 20
0.3596573563910965
 10
43.83869142933469
 20
0.3671441939644922
 10
43.83934849583593
 20
0.3746304254026143
 10
43.84001240958082
 20
0.3821160437299795
 10
43.84068316846651
 20
0.3896010419719857
 10
43.84136077039181
 20
0.3970854131550823
 10
43.84204521325691
 20
0.4045691503060028
 10
43.8427364949637
 20
0.4120522464525039
 10
43.84343461341595
 20
0.4195346946229961
 10
43.84413956651892
 20
0.4270164878467995
 10
43.84485135217929
 20
0.4344976191537171
 10
43.84556996830582
 20
0.4419780815742911
 10
43.84629541280861
 20
0.4494578681400015
 10
43.84702768359952
 20
0.4569369718828114
 10
43.84776677859202
 20
0.4644153858352809
 10
43.84851269570143
 20
0.4718931030309932
 10
43.84926543284438
 20
0.4793701165039011
 10
43.85002498793968
 20
0.4868464192886961
 10
43.85079135890729
 20
0.4943220044207806
 10
43.85156454366909
 20
0.5017968649360967
 10
43.85234345289958
 20
0.5092606213000011
  0
LWPOLYLINE
  5
55395
330
1F
100
AcDbEntity
  8
1
100
AcDbPolyline
 90
        3
 70
     0
 43
0.0
 10
43.85234345289958
 20
0.5092606213000011
 10
43.86955481064961
 20
0.6486672236499942
 10
43.88676616839958
 20
0.7880738260000158
  0
LWPOLYLINE
  5
55396
330
1F
100
AcDbEntity
  8
1
100
AcDbPolyline
 90
       69
 70
     0
 43
0.0
 10
43.81493472611469
 20
-0.0000018148697052
 10
43.81525451849188
 20
0.0075018278973857
 10
43.8155811624432
 20
0.0150051776286091
 10
43.81591466162868
 20
0.0225082281569939
 10
43.81625501970768
 20
0.0300109733128977
 10
43.81660224033891
 20
0.0375134069238925
 10
43.81695632718034
 20
0.0450155228151061
 10
43.81731728388902
 20
0.0525173148086822
 10
43.81768511412153
 20
0.0600187767244904
 10
43.81805982153361
 20
0.067519902379388
 10
43.81844140978009
 20
0.0750206855877025
 10
43.81882988251535
 20
0.0825211201610046
 10
43.81922524339239
 20
0.0900211999084206
 10
43.81962749606413
 20
0.0975209186362065
 10
43.82003664418198
 20
0.1050202701478895
 10
43.82045269139704
 20
0.1125192482444106
 10
43.82087564135917
 20
0.120017846724096
 10
43.8212703488997
 20
0.1269074484000043
 10
43.8217065620025
 20
0.1344054491760005
 10
43.82214968353451
 20
0.1419030613253938
 10
43.82259971134189
 20
0.1494002778553067
 10
43.82305664327231
 20
0.1568970917738
 10
43.82352047717501
 20
0.1643934960900992
 10
43.82399121090069
 20
0.171889483814283
 10
43.82446884230168
 20
0.1793850479577088
 10
43.82495336923193
 20
0.1868801815325014
 10
43.82544478954651
 20
0.1943748775519793
 10
43.82594310110261
 20
0.2018691290302854
 10
43.82644830175843
 20
0.2093629289827845
 10
43.8269603893741
 20
0.2168562704256942
 10
43.82747936181118
 20
0.2243491463761131
 10
43.82800521693269
 20
0.2318415498521915
 10
43.82853795260351
 20
0.2393334738731028
 10
43.82907756668958
 20
0.2468249114589014
 10
43.82962405705891
 20
0.2543158556306082
 10
43.83017742158083
 20
0.2618062994100114
 10
43.83073765812634
 20
0.2692962358199793
 10
43.83130476456781
 20
0.2767856578844885
 10
43.83187873877949
 20
0.2842745586279136
 10
43.83245957863709
 20
0.2917629310759935
 10
43.8330472820179
 20
0.2992507682550922
 10
43.83364184680082
 20
0.3067380631925118
 10
43.8342432708661
 20
0.314224808916407
 10
43.83485155209609
 20
0.3217109984558988
 10
43.83546668837451
 20
0.3291966248409039
 10
43.8360886775863
 20
0.3366816811018793
 10
43.83671751761869
 20
0.3441661602707882
 10
43.83735320636009
 20
0.3516500553797073
 10
43.83799574170061
 20
0.3591333594619925
 10
43.83864512153204
 20
0.3666160655515966
 10
43.83930134374759
 20
0.3740981666832965
 10
43.83996440624239
 20
0.3815796558926934
 10
43.84063430691313
 20
0.3890605262162126
 10
43.8413110436578
 20
0.3965407706909048
 10
43.84199461437646
 20
0.4040203823547018
 10
43.84268501697067
 20
0.4114993542461889
 10
43.84338224934362
 20
0.4189776794048044
 10
43.84408630939993
 20
0.4264553508706968
 10
43.84479719504603
 20
0.4339323616846969
 10
43.8455149041902
 20
0.4414087048882891
 10
43.8462394347421
 20
0.4488843735238959
 10
43.84697078461321
 20
0.4563593606342807
 10
43.8477089517165
 20
0.4638336592632868
 10
43.84845393396659
 20
0.4713072624551842
 10
43.8492057292801
 20
0.4787801632548963
 10
43.84996433557481
 20
0.4862523547081992
 10
43.85072975077068
 20
0.4937238298612954
 10
43.85150197278901
 20
0.5011945817612116
 10
43.8523434528997
 20
0.5092606213000011
  0
LWPOLYLINE
  5
55397
330
1F
100
AcDbEntity
  8
1
100
AcDbPolyline
 90
        3
 70
     0
 43
0.0
 10
43.8523434528997
 20
0.5092606213000011
 10
43.8695548106497
 20
0.6486672236499942
 10
43.8867661683997
 20
0.7880738260000158
  0
ARC
  5
55398
330
1F
100
AcDbEntity
  8
sk3
100
AcDbCircle
 10
32.3999999999997
 20
-8.900000000000005
 30
0.0
 40
0.4
100
AcDbArc
 50
90.0
 51
180.0
  0
LWPOLYLINE
  5
55399
330
1F
100
AcDbEntity
  8
1
100
AcDbPolyline
 90
       27
 70
     0
 43
0.0
 10
35.49999999999972
 20
7.7423886439
 42
-0.0083859380050283
 10
35.06739373010893
 20
7.749662856622109
 42
-0.008403880399001
 10
34.63526017242643
 20
7.771458042253811
 42
-0.0083881131799374
 10
34.2041047976507
 20
7.807751181838312
 42
-0.0083701868638115
 10
33.7744086718898
 20
7.858472354176797
 42
-0.008353449876224
 10
33.34664805991312
 20
7.923534771853098
 42
-0.0083262336722254
 10
32.92129537199492
 20
8.002827358220514
 42
-0.0082944763109261
 10
32.49881320307043
 20
8.096214338074901
 42
-0.0082602069452398
 10
32.07965385870702
 20
8.203535907537798
 42
-0.008217413653551
 10
31.66425779681544
 20
8.324609360992781
 42
-0.0081690964108507
 10
31.25305233389511
 20
8.459230633236785
 42
-0.0081179805528707
 10
30.84644929848611
 20
8.607173201211395
 42
-0.0080583688838042
 10
30.44484387406541
 20
8.768190028187767
 42
-0.0079929438220317
 10
30.04861395472702
 20
8.942015752794503
 42
-0.0079246651045592
 10
29.65811751825422
 20
9.128365747574001
 42
-0.0078476885978039
 10
29.27369195274133
 20
9.326938554009103
 42
-0.0077654477140543
 10
28.89565401874211
 20
9.537418322744677
 42
-0.0076803256514556
 10
28.52429718844269
 20
9.759474195248117
 42
-0.0075861521416761
 10
28.15989166286732
 20
9.992763201125882
 42
-0.0074887266497321
 10
27.8026847607776
 20
10.2369327799995
 42
-0.0073883476375878
 10
27.4528996244982
 20
10.49162093314901
 42
-0.0072762103553617
 10
27.11073334187944
 20
10.756457290979
 42
-0.0071679381445721
 10
26.77635746124162
 20
11.03106689518951
 42
-0.0070644552570775
 10
26.44993350788363
 20
11.31508063776431
 42
-0.0069107720900143
 10
26.13158059958113
 20
11.60810895648725
 42
-0.00678120024088
 10
25.82134922743052
 20
11.90974182266129
 42
-0.0068213284486999
 10
25.5194378092996
 20
12.2196964812
  0
LINE
  5
5539A
330
1F
100
AcDbEntity
  8
sk3
100
AcDbLine
 10
32.3999998650639
 20
8.500000000000021
 30
0.0
 11
40.49999999999971
 21
8.500000000000021
 31
0.0
  0
LINE
  5
5539B
330
1F
100
AcDbEntity
  8
sk3
100
AcDbLine
 10
31.99955422439984
 20
14.5811398309
 30
0.0
 11
46.80678318959968
 21
23.19429863960002
 31
0.0
  0
LINE
  5
5539C
330
1F
100
AcDbEntity
  8
1
100
AcDbLine
 10
35.49999999999972
 20
23.19403582730001
 30
0.0
 11
35.49999999999972
 21
7.7423886439
 31
0.0
  0
ARC
  5
5539D
330
1F
100
AcDbEntity
  8
sk3
100
AcDbCircle
 10
41.39999999999957
 20
12.59999999999988
 30
0.0
 40
0.4
100
AcDbArc
 50
90.0
 51
180.0
  0
LINE
  5
5539E
330
1F
100
AcDbEntity
  8
1
100
AcDbLine
 10
35.49999999999972
 20
7.7423886439
 30
0.0
 11
42.15386858229971
 21
7.7423886439
 31
0.0
  0
LINE
  5
5539F
330
1F
100
AcDbEntity
  8
sk3
100
AcDbLine
 10
40.4999998861995
 20
8.500000113800012
 30
0.0
 11
40.99999987949959
 21
9.00000012049989
 31
0.0
  0
LWPOLYLINE
  5
553A0
330
1F
100
AcDbEntity
  8
1
100
AcDbPolyline
 90
       13
 70
     0
 43
0.0
 10
35.65435921919968
 20
24.39403593900002
 42
0.0099447767026088
 10
35.77555668644621
 20
24.39644817072718
 42
0.0098344357704334
 10
35.8965702465687
 20
24.40365159300109
 42
0.0097352740689559
 10
36.01720935025384
 20
24.41558435058161
 42
0.0096455638347457
 10
36.13729448637483
 20
24.43218261409501
 42
0.0095646555051922
 10
36.25665411573488
 20
24.4533807652399
 42
0.0094978266759118
 10
36.37511894381032
 20
24.47911241748059
 42
0.0094440474084775
 10
36.49252470954605
 20
24.5093120159159
 42
0.0094003813704543
 10
36.60870967089335
 20
24.54391366949878
 42
0.0093729875895102
 10
36.72351245655801
 20
24.58285080394788
 42
0.0093737095459852
 10
36.83677517549421
 20
24.62606340044678
 42
0.0093674955183998
 10
36.94834658669492
 20
24.6734948310417
 42
0.0093420458681834
 10
37.0580604353996
 20
24.72506372470002
  0
LWPOLYLINE
  5
553A1
330
1F
100
AcDbEntity
  8
1
100
AcDbPolyline
 90
       19
 70
     0
 43
0.0
 10
37.22173029849969
 20
24.72506372470002
 42
0.0624872926945433
 10
37.27958712655161
 20
24.7398375884182
 42
0.014252512478771
 10
37.3355703859591
 20
24.76107373350061
 42
0.007969220940862
 10
37.39063131924755
 20
24.78462621305718
 42
0.0066525698227253
 10
37.4449832519027
 20
24.8097666856261
 42
0.0057897858167344
 10
37.49869673348951
 20
24.83624769147588
 10
37.55180180857184
 20
24.86392848034581
 10
37.60430459199833
 20
24.89273439283201
 10
37.65620221162962
 20
24.92261784474431
 10
37.70748694896611
 20
24.9535408648124
 10
37.75814643410723
 20
24.98547830302062
 10
37.808338030448
 20
25.01852480362251
 10
37.85769891524052
 20
25.05243415739571
 10
37.90638628527785
 20
25.0873042673706
 10
37.95438238249216
 20
25.12312093713021
 10
38.00166722120258
 20
25.15987200817278
 10
38.04821944438592
 20
25.19754603412011
 10
38.09402030560952
 20
25.23613235266919
 10
38.5865334439674
 20
25.66791014711177
  0
LWPOLYLINE
  5
553A2
330
1F
100
AcDbEntity
  8
1
100
AcDbPolyline
 90
        3
 70
     0
 43
0.0
 10
35.49531531239973
 20
24.39823220580001
 10
35.57483726579969
 20
24.39613407239999
 10
35.65435921919968
 20
24.39403593900002
  0
LWPOLYLINE
  5
553A3
330
1F
100
AcDbEntity
  8
1
100
AcDbPolyline
 90
       21
 70
     0
 43
0.0
 10
35.45337470919961
 20
23.19403582730001
 42
0.0771338505183111
 10
35.46355321668921
 20
23.25297976716919
 42
0.0127521406311605
 10
35.46798928450508
 20
23.3130847664543
 10
35.47119006635504
 20
23.373321940544
 10
35.47388854560151
 20
23.4335636219603
 10
35.4761842851014
 20
23.49382974974508
 10
35.47824446366983
 20
23.55410316940939
 10
35.48010443363251
 20
23.61438200449618
 10
35.48179995959393
 20
23.67466639235539
 10
35.48336472787935
 20
23.73495451508603
 10
35.48481717418395
 20
23.7952452525567
 10
35.48617169672628
 20
23.85553820512251
 10
35.48743954743841
 20
23.9158331061239
 10
35.48863085287653
 20
23.97612959278426
 10
35.48975274543986
 20
24.03642739575222
 10
35.49081100233903
 20
24.0967263408229
 10
35.49181124740511
 20
24.15702627309321
 10
35.49275889956843
 20
24.21732706109712
 10
35.49365882622266
 20
24.27762858861729
 10
35.49451151828984
 20
24.33793080158671
 10
35.49531531239973
 20
24.39823220580001
  0
LWPOLYLINE
  5
553A4
330
1F
100
AcDbEntity
  8
1
100
AcDbPolyline
 90
       13
 70
     0
 43
0.0
 10
25.5194378092996
 20
12.2196964812
 42
-0.0046132670593255
 10
25.41125486719233
 20
12.33600831910809
 42
-0.0046770276948212
 10
25.30525352037381
 20
12.4543138405192
 42
-0.0044483418123656
 10
25.20143285542511
 20
12.57453762631161
 42
-0.004243089905275
 10
25.09971255851693
 20
12.69654395735406
 42
-0.0041022894638594
 10
25.00004270600434
 20
12.82023111421779
 42
-0.0039552471550879
 10
24.90232294569969
 20
12.94558036650002
 42
-0.0038118775350554
 10
24.80661619578768
 20
13.07235920741328
 42
-0.0036825838656948
 10
24.71281994078092
 20
13.20055816807819
 42
-0.0035735927240861
 10
24.62089371879884
 20
13.33010466235021
 42
-0.0034427803946786
 10
24.530796288289
 20
13.46092924925239
 42
-0.0033192788202032
 10
24.44247249436268
 20
13.5929591115156
 42
-0.0033528430291661
 10
24.3559666691996
 20
13.72607848250001
  0
ARC
  5
553A5
330
1F
100
AcDbEntity
  8
sk3
100
AcDbCircle
 10
32.3999999999997
 20
8.900000000000005
 30
0.0
 40
0.4
100
AcDbArc
 50
180.0
 51
270.0
  0
ARC
  5
553A6
330
1F
100
AcDbEntity
  8
sk3
100
AcDbCircle
 10
31.59999999999971
 20
16.09999999999988
 30
0.0
 40
0.4
100
AcDbArc
 50
0.0
 51
90.0
  0
LWPOLYLINE
  5
553A7
330
1F
100
AcDbEntity
  8
1
100
AcDbPolyline
 90
        6
 70
     0
 43
0.0
 10
38.66140427709962
 20
36.41377569000002
 42
0.0001898172265826
 10
37.77216520007963
 20
36.4168137609858
 42
0.0001898296543901
 10
36.88292403338812
 20
36.419176637628
 42
0.0001898206855052
 10
35.99368129945623
 20
36.42086429802998
 42
0.0001897840650131
 10
35.10443755649973
 20
36.42187683648939
 42
0.000189774516036
 10
34.2151933019997
 20
36.42221435410002
  0
LWPOLYLINE
  5
553A8
330
1F
100
AcDbEntity
  8
1
100
AcDbPolyline
 90
       18
 70
     0
 43
0.0
 10
34.95900261329968
 20
30.283346607
 42
0.0106477944668872
 10
34.82996397420464
 20
30.2453645231577
 42
0.0106733237762318
 10
34.70265209219801
 20
30.20191401986421
 42
0.0106982020936691
 10
34.57731427297341
 20
30.15306387380778
 42
0.0107273537939784
 10
34.45418524444162
 20
30.09888969056178
 42
0.0107604312040615
 10
34.33349643680021
 20
30.03947612705079
 42
0.0107922451998483
 10
34.21548004175452
 20
29.97491707429018
 42
0.0108305896899525
 10
34.10036511207872
 20
29.90531643768111
 42
0.0108677779172676
 10
33.9883776374769
 20
29.83078802583829
 42
0.0109058782823534
 10
33.87974099372622
 20
29.7514548853722
 42
0.0109497764692468
 10
33.77467463095911
 20
29.6674506816793
 42
0.0109891504480288
 10
33.67339370534669
 20
29.57891938224802
 42
0.0110319776108977
 10
33.57610919511902
 20
29.4860146287115
 42
0.0110791395500993
 10
33.48302645265829
 20
29.38890000375078
 42
0.0111124610836872
 10
33.3943438328657
 20
29.28775157959959
 42
0.011166244121557
 10
33.31025532273961
 20
29.18275591305718
 42
0.0111825344682115
 10
33.23125377221092
 20
29.07453278103839
 42
0.0112208876411382
 10
33.15659037289973
 20
28.96199174130001
  0
LWPOLYLINE
  5
553A9
330
1F
100
AcDbEntity
  8
1
100
AcDbPolyline
 90
        6
 70
     0
 43
0.0
 10
38.66140427709962
 20
36.41377569000002
 42
0.0019157494452709
 10
38.35979533290743
 20
35.94225508216462
 42
0.0019645883430056
 10
38.06185961378231
 20
35.4684042574066
 42
0.0018276162307138
 10
37.76754044054951
 20
34.99229884771013
 42
0.0017175968573062
 10
37.47657855347458
 20
34.51413222144521
 42
0.0017673217124346
 10
37.18895580489968
 20
34.0339507672
  0
LINE
  5
553AA
330
1F
100
AcDbEntity
  8
1
100
AcDbLine
 10
37.18895580490002
 20
34.0339507671998
 30
0.0
 11
34.95900261330002
 21
30.2833466069998
 31
0.0
  0
LWPOLYLINE
  5
553AB
330
1F
100
AcDbEntity
  8
1
100
AcDbPolyline
 90
       10
 70
     0
 43
0.0
 10
38.66140427709962
 20
36.41377569000002
 10
38.70654186864042
 20
36.41129592803586
 10
38.75168545660134
 20
36.40892789002686
 10
38.79683418483347
 20
36.40665978199209
 10
38.84198696700304
 20
36.4044738090106
 10
38.8871433455399
 20
36.40236348861006
 10
38.93230299129749
 20
36.40032430391062
 10
38.97746562213533
 20
36.39835220584601
 10
39.02263100066904
 20
36.39644395160502
 10
40.16670428950781
 20
36.34967272121639
  0
LWPOLYLINE
  5
553AC
330
1F
100
AcDbEntity
  8
1
100
AcDbPolyline
 90
       33
 70
     0
 43
0.0
 10
32.86672234179957
 20
26.44509017680004
 42
-0.008178822994075
 10
32.41795536149502
 20
26.53890322239951
 42
-0.0081939731142257
 10
31.97248318868151
 20
26.64736176894459
 42
-0.0081907366040841
 10
31.53080623277242
 20
26.77035698819978
 42
-0.0081885589778457
 10
31.0933961632914
 20
26.90775162653438
 42
-0.0081908020893304
 10
30.6607193502316
 20
27.05939842222961
 42
-0.0081893186566169
 10
30.23324177240281
 20
27.22513542161488
 42
-0.008189432728113
 10
29.81142201076171
 20
27.40478453412328
 42
-0.0081902331484708
 10
29.39571216231011
 20
27.59815234382902
 42
-0.0081888687909796
 10
28.98655841566512
 20
27.80503153833829
 42
-0.0081893765485862
 10
28.58439982933183
 20
28.02520021529088
 42
-0.0081898165797349
 10
28.18966748241681
 20
28.25842146636038
 42
-0.0081885018604627
 10
27.80278494793723
 20
28.50444522933051
 42
-0.0081892010169816
 10
27.42416731027771
 20
28.7630075311111
 42
-0.008189361466244
 10
27.05422031120912
 20
29.0338303463771
 42
-0.0081881347073631
 10
26.69334094688859
 20
29.3166233327209
 42
-0.0081889887884361
 10
26.34191628336509
 20
29.61108298411222
 42
-0.0081888708171266
 10
26.00032282070149
 20
29.91689287333012
 42
-0.008187771323003
 10
25.66892716802363
 20
30.2337251814667
 42
-0.0081887545461409
 10
25.3480846231376
 20
30.56123982679068
 42
-0.0081883626179554
 10
25.03813884142918
 20
30.89908505356681
 42
-0.0081874257266678
 10
24.73942251922921
 20
31.24689872372329
 42
-0.0081885081943854
 10
24.45225575317719
 20
31.60430750090271
 42
-0.0081878499435692
 10
24.1769460716373
 20
31.9709276949375
 42
-0.008187121069126
 10
23.91378906519264
 20
32.346366324916
 42
-0.0081882740804669
 10
23.66306653853769
 20
32.73022051974769
 42
-0.0081872785117199
 10
23.42504693248699
 20
33.12207823169078
 42
-0.008186960728048
 10
23.19998599892614
 20
33.52151922339988
 42
-0.0081882713632429
 10
22.98812445197541
 20
33.92811616019202
 42
-0.0081858912307498
 10
22.78968869356484
 20
34.34143125415881
 42
-0.0081877742516333
 10
22.60489350747903
 20
34.76101754464352
 42
-0.0081910092914696
 10
22.43393519563702
 20
35.18644303614678
 42
-0.0081761913918003
 10
22.27699197749956
 20
35.61723338800002
  0
LINE
  5
553AD
330
1F
100
AcDbEntity
  8
1
100
AcDbLine
 10
33.15659037289973
 20
36.42173605080001
 30
0.0
 11
33.15659037289973
 21
28.96199174130001
 31
0.0
  0
LWPOLYLINE
  5
553AE
330
1F
100
AcDbEntity
  8
1
100
AcDbPolyline
 90
       19
 70
     0
 43
0.0
 10
33.15659037289973
 20
28.96199174130001
 42
0.0121020470476919
 10
33.08336151191182
 20
28.8364560463514
 42
0.0121862114513805
 10
33.01609627919123
 20
28.7070945518484
 42
0.0121705038114855
 10
32.95528152459963
 20
28.5747668146
 42
0.0121476823508122
 10
32.90108081463461
 20
28.43990950124763
 42
0.0121738438581252
 10
32.85345015598702
 20
28.30243063628401
 42
0.012165027221307
 10
32.81259839209963
 20
28.16291233340002
 42
0.0121664033380375
 10
32.77859026439271
 20
28.02160480347609
 42
0.0121691455261823
 10
32.75150794800618
 20
27.87887081448079
 42
0.0121624809601955
 10
32.7314097525996
 20
27.73505825230001
 42
0.0121756853409733
 10
32.7183217185387
 20
27.59030648136451
 42
0.0121660154976085
 10
32.7122998543517
 20
27.44526479221401
 42
0.0121609590386194
 10
32.71333821639962
 20
27.30011771470001
 42
0.0121768995421766
 10
32.72144905769491
 20
27.15500212177091
 42
0.0121647693018691
 10
32.73659281930008
 20
27.01063059321351
 42
0.0121582765114777
 10
32.75874415899972
 20
26.86712740070002
 42
0.0121721869551661
 10
32.78787684189808
 20
26.72473760597469
 42
0.012172598921164
 10
32.82389004041093
 20
26.58399370072888
 42
0.0121333126261107
 10
32.86672234179957
 20
26.44509017680004
  0
LWPOLYLINE
  5
553AF
330
1F
100
AcDbEntity
  8
1
100
AcDbPolyline
 90
        9
 70
     0
 43
0.0
 10
24.3559666691996
 20
36.24925232390001
 42
-0.0092055201938969
 10
24.49790696107121
 20
36.28955525714068
 42
-0.0092285852138072
 10
24.64124419431204
 20
36.32460145861268
 42
-0.009225726488382
 10
24.78577610979252
 20
36.35433389744078
 42
-0.0092220401598198
 10
24.9313059777524
 20
36.3787146947115
 42
-0.0092220287739745
 10
25.07763585277326
 20
36.39771242579951
 42
-0.009225563031937
 10
25.22456524823383
 20
36.4112994683496
 42
-0.0092287306853039
 10
25.3719022339761
 20
36.41945536339128
 42
-0.0092060650638717
 10
25.5194378092996
 20
36.42217527770004
  0
LWPOLYLINE
  5
553B0
330
1F
100
AcDbEntity
  8
1
100
AcDbPolyline
 90
        4
 70
     0
 43
0.0
 10
25.5194378092996
 20
36.42217527770004
 42
-0.0000053239550053
 10
28.06515533338603
 20
36.42208308187553
 42
-0.000005323992637
 10
30.61089084932641
 20
36.42193667168229
 42
-0.0000053239173659
 10
33.15659037289973
 20
36.42173605080001
  0
LWPOLYLINE
  5
553B1
330
1F
100
AcDbEntity
  8
1
100
AcDbPolyline
 90
        3
 70
     0
 43
0.0
 10
34.2151933019997
 20
36.42221435410002
 10
33.6858918374497
 20
36.42197520245
 10
33.15659037289973
 20
36.42173605080001
  0
LWPOLYLINE
  5
553B2
330
1F
100
AcDbEntity
  8
1
100
AcDbPolyline
 90
        6
 70
     0
 43
0.0
 10
24.3559666691996
 20
36.24925232390001
 10
23.97743308779431
 20
36.13417885792669
 10
23.5988998360458
 20
36.01910430755403
 10
23.22036691401735
 20
35.90402867258538
 10
22.84183432640086
 20
35.78895193759888
 10
22.46330207559976
 20
35.67387409470001
  0
LINE
  5
553B3
330
1F
100
AcDbEntity
  8
1
100
AcDbLine
 10
22.46330207549963
 20
35.6738740949001
 30
0.0
 11
22.27699197749956
 21
35.6172333880001
 31
0.0
  0
DIMENSION
  5
553B4
330
1F
100
AcDbEntity
  8
sk2
100
AcDbDimension
  2
*D79
 10
-27.2776515588439
 20
34.92500000000002
 30
0.0
 11
-27.2776515588439
 21
0.0000000000000142
 31
0.0
 70
   160
  1
%%c<>
 71
     5
 42
69.84999999999999
  3
\M+18352\M+18373\M+1815B - ISO-25
100
AcDbAlignedDimension
 13
1.499999999999715
 23
-34.92499999999998
 33
0.0
 14
1.499999999999715
 24
34.92500000000001
 34
0.0
 50
90.0
100
AcDbRotatedDimension
1001
ACAD
1000
DSTYLE
1002
{
1070
     4
1000
%%C[]"
1070
    40
1040
1.0
1070
   143
1040
0.03937
1070
   170
1070
     1
1070
   171
1070
     3
1070
   271
1070
     8
1070
   285
1070
     4
1002
}
  0
DIMENSION
  5
553B5
330
1F
100
AcDbEntity
  8
sk2
100
AcDbDimension
  2
*D80
 10
-13.95851983291549
 20
15.87500000000003
 30
0.0
 11
-13.9585198329155
 21
0.0000000000000168
 31
0.0
 70
   160
  1
%%c<>
 71
     5
 42
31.75000000000003
  3
\M+18352\M+18373\M+1815B - ISO-25
100
AcDbAlignedDimension
 13
1.199999999999704
 23
-15.875
 33
0.0
 14
1.199999999999704
 24
15.87500000000003
 34
0.0
 50
90.0
100
AcDbRotatedDimension
1001
ACAD
1000
DSTYLE
1002
{
1070
     4
1000
%%C[]"
1070
    40
1040
1.0
1070
   143
1040
0.03937
1070
   170
1070
     1
1070
   171
1070
     3
1070
   271
1070
     8
1070
   285
1070
     4
1002
}
  0
LINE
  5
553B6
330
1F
100
AcDbEntity
  8
1
100
AcDbLine
 10
-0.0000000000002842
 20
-33.42499999999998
 30
0.0
 11
-0.0000000000002842
 21
-7.349999999999994
 31
0.0
  0
LINE
  5
553B7
330
1F
100
AcDbEntity
  8
sk3
100
AcDbLine
 10
17.37499999999971
 20
-15.875
 30
0.0
 11
17.37499999999971
 21
0.0
 31
0.0
  0
LINE
  5
553B8
330
1F
100
AcDbEntity
  8
sk3
100
AcDbLine
 10
1.199999999999704
 20
-15.8749999999998
 30
0.0
 11
1.199999791399704
 21
-6.349999999999795
 31
0.0
  0
LINE
  5
553B9
330
1F
100
AcDbEntity
  8
sk3
100
AcDbLine
 10
18.00000032289961
 20
-16.5
 30
0.0
 11
18.00000032289961
 21
0.0
 31
0.0
  0
LINE
  5
553BA
330
1F
100
AcDbEntity
  8
1
100
AcDbLine
 10
1.499999999999715
 20
-34.92499999999998
 30
0.0
 11
18.92820323029969
 21
-34.92499999999998
 31
0.0
  0
ARC
  5
553BB
330
1F
100
AcDbEntity
  8
1
100
AcDbCircle
 10
18.92820323029969
 20
-38.92499999999998
 30
0.0
 40
4.0
100
AcDbArc
 50
60.00000000000002
 51
90.0
  0
LINE
  5
553BC
330
1F
100
AcDbEntity
  8
1
100
AcDbLine
 10
20.9282032302998
 20
-35.4608983848
 30
0.0
 11
21.66504809809985
 21
-35.88631596759999
 31
0.0
  0
ARC
  5
553BD
330
1F
100
AcDbEntity
  8
1
100
AcDbCircle
 10
1.499999999999715
 20
-33.42499999999998
 30
0.0
 40
1.5
100
AcDbArc
 50
180.0
 51
270.0
  0
LINE
  5
553BE
330
1F
100
AcDbEntity
  8
sk3
100
AcDbLine
 10
1.199999999999704
 20
-15.875
 30
0.0
 11
17.37499999999971
 21
-15.875
 31
0.0
  0
LINE
  5
553BF
330
1F
100
AcDbEntity
  8
sk3
100
AcDbLine
 10
17.37500015529863
 20
-15.87499984470122
 30
0.0
 11
18.0000001614986
 21
-16.49999983860121
 31
0.0
  0
LINE
  5
553C0
330
1F
100
AcDbEntity
  8
sk3
100
AcDbLine
 10
1.199999895699932
 20
-15.87499989570008
 30
0.0
 11
-0.0000000000001705
 21
-17.0749997756001
 31
0.0
  0
LWPOLYLINE
  5
553C1
330
1F
100
AcDbEntity
  8
1
100
AcDbPolyline
 90
       21
 70
     0
 43
0.0
 10
20.56888151079968
 20
23.46596839930001
 42
-0.0028855592608354
 10
20.47800075206664
 20
23.92437455395938
 42
-0.0028697835688632
 10
20.39240131583119
 20
24.38380208495261
 42
-0.0028739895582192
 10
20.31207652995963
 20
24.84418351395881
 42
-0.0029288925013504
 10
20.23710009336133
 20
25.3054642186132
 42
-0.0029832424288372
 10
20.16758375109612
 20
25.7675986346386
 42
-0.0030334086014592
 10
20.10363326475368
 20
26.23053618422361
 42
-0.003095804442543
 10
20.04535749989952
 20
26.69422248308152
 42
-0.0031827205061781
 10
19.99290863258477
 20
27.15860342947136
 42
-0.0032964004577956
 10
19.94647428171441
 20
27.62362416618561
 42
-0.003434546599024
 10
19.9063026579287
 20
28.08922735823851
 42
-0.0036349645974217
 10
19.87271241129434
 20
28.55535109912537
 42
-0.0038816959747054
 10
19.84611912374754
 20
29.0219257851428
 42
-0.0042095559908856
 10
19.82707747316195
 20
29.48886868846631
 42
-0.0046690974639268
 10
19.8163134810741
 20
29.9560745384733
 42
-0.0052539636184029
 10
19.81479070082002
 20
30.42339941449978
 42
-0.006026072669784
 10
19.82378559472519
 20
30.89063905645421
 42
-0.0071561972027927
 10
19.84508113835278
 20
31.35747264573288
 42
-0.0084458387790726
 10
19.88091281115484
 20
31.82341007453639
 42
-0.0110741126991047
 10
19.93462029949933
 20
32.28761465547129
 42
-0.0119439789799115
 10
20.01033249479963
 20
32.74873519630001
  0
LINE
  5
553C2
330
1F
100
AcDbEntity
  8
1
100
AcDbLine
 10
19.40541037079964
 20
34.45578692380002
 30
0.0
 11
19.40541037079964
 21
0.0
 31
0.0
  0
LINE
  5
553C3
330
1F
100
AcDbEntity
  8
1
100
AcDbLine
 10
-0.0000000000002842
 20
7.350000000000022
 30
0.0
 11
-0.0000000000002842
 21
33.42500000000001
 31
0.0
  0
LINE
  5
553C4
330
1F
100
AcDbEntity
  8
1
100
AcDbLine
 10
-0.0000000000001705
 20
7.350000000000108
 30
0.0
 11
0.9999999999998294
 21
6.350000000000108
 31
0.0
  0
LINE
  5
553C5
330
1F
100
AcDbEntity
  8
1
100
AcDbLine
 10
20.56888151079968
 20
23.46596839930001
 30
0.0
 11
20.56888151079968
 21
0.0
 31
0.0
  0
LINE
  5
553C6
330
1F
100
AcDbEntity
  8
1
100
AcDbLine
 10
-0.0000000000001705
 20
7.350000000000108
 30
0.0
 11
0.9999999999998294
 21
6.350000000000108
 31
0.0
  0
LINE
  5
553C7
330
1F
100
AcDbEntity
  8
sk3
100
AcDbLine
 10
18.00000032289961
 20
0.0
 30
0.0
 11
18.00000032289961
 21
16.50000000000003
 31
0.0
  0
LINE
  5
553C8
330
1F
100
AcDbEntity
  8
1
100
AcDbLine
 10
0.0000000000008242
 20
7.350000000001102
 30
0.0
 11
1.000000000000937
 21
6.350000000001017
 31
0.0
  0
LINE
  5
553C9
330
1F
100
AcDbEntity
  8
sk3
100
AcDbLine
 10
1.199999791399704
 20
6.350000000000278
 30
0.0
 11
1.199999999999704
 21
15.87500000000025
 31
0.0
  0
LINE
  5
553CA
330
1F
100
AcDbEntity
  8
sk3
100
AcDbLine
 10
17.37499999999971
 20
0.0
 30
0.0
 11
17.37499999999971
 21
15.87500000000003
 31
0.0
  0
ARC
  5
553CB
330
1F
100
AcDbEntity
  8
1
100
AcDbCircle
 10
14.49999999999971
 20
0.0
 30
0.0
 40
3.0
100
AcDbArc
 50
0.0000000000016284
 51
179.9999999999984
  0
LINE
  5
553CC
330
1F
100
AcDbEntity
  8
1
100
AcDbLine
 10
7.139999999999702
 20
5.600000000000022
 30
0.0
 11
7.139999999999702
 21
-5.59999999999988
 31
0.0
  0
LINE
  5
553CD
330
1F
100
AcDbEntity
  8
1
100
AcDbLine
 10
1.0
 20
-6.350000000000306
 30
0.0
 11
0.0
 21
-7.350000000000221
 31
0.0
  0
LINE
  5
553CE
330
1F
100
AcDbEntity
  8
1
100
AcDbLine
 10
7.139999999999588
 20
-5.600000000000108
 30
0.0
 11
6.389999999999588
 21
-6.349999999999994
 31
0.0
  0
LINE
  5
553CF
330
1F
100
AcDbEntity
  8
1
100
AcDbLine
 10
6.389999999999702
 20
-6.349999999999994
 30
0.0
 11
0.9999999999997157
 21
-6.349999999999994
 31
0.0
  0
LINE
  5
553D0
330
1F
100
AcDbEntity
  8
1
100
AcDbLine
 10
0.9999999999997157
 20
-6.349999999999795
 30
0.0
 11
-0.0000000000002842
 21
-7.349999999999795
 31
0.0
  0
LINE
  5
553D1
330
1F
100
AcDbEntity
  8
1
100
AcDbLine
 10
7.139999999999105
 20
5.599999999999397
 30
0.0
 11
6.389999999999105
 21
6.349999999999397
 31
0.0
  0
LINE
  5
553D2
330
1F
100
AcDbEntity
  8
1
100
AcDbLine
 10
0.9999999999997157
 20
6.34999999999988
 30
0.0
 11
6.389999999999702
 21
6.34999999999988
 31
0.0
  0
LINE
  5
553D3
330
1F
100
AcDbEntity
  8
sk3
100
AcDbLine
 10
1.199999999999704
 20
15.87500000000003
 30
0.0
 11
17.37499999999971
 21
15.87500000000003
 31
0.0
  0
LINE
  5
553D4
330
1F
100
AcDbEntity
  8
sk3
100
AcDbLine
 10
17.3750001552998
 20
15.87499984469988
 30
0.0
 11
18.00000016149983
 21
16.49999983859979
 31
0.0
  0
LINE
  5
553D5
330
1F
100
AcDbEntity
  8
sk3
100
AcDbLine
 10
1.199999895698113
 20
15.87499989569849
 30
0.0
 11
-0.0000000000019043
 21
17.07499977559851
 31
0.0
  0
LINE
  5
553D6
330
1F
100
AcDbEntity
  8
1
100
AcDbLine
 10
1.499999999999715
 20
34.92500000000001
 30
0.0
 11
19.40541037079964
 21
34.92500000000001
 31
0.0
  0
LWPOLYLINE
  5
553D7
330
1F
100
AcDbEntity
  8
1
100
AcDbPolyline
 90
        6
 70
     0
 43
0.0
 10
19.40541037079964
 20
34.45578692380002
 42
-0.0044868249993983
 10
19.38846892394034
 20
34.5241617477071
 10
19.3726403476486
 20
34.5928056716335
 42
-0.0047773159871969
 10
19.3578734344849
 20
34.6616906055268
 42
-0.0079927652556473
 10
19.3448782600816
 20
34.73092495476971
 42
-0.007483710642564
 10
19.3340991253996
 20
34.80054071590001
  0
LWPOLYLINE
  5
553D8
330
1F
100
AcDbEntity
  8
1
100
AcDbPolyline
 90
       10
 70
     0
 43
0.0
 10
20.01033249479963
 20
32.74873519630001
 42
-0.0037100894071733
 10
19.93090298650105
 20
32.93384508775472
 42
-0.003659445140175
 10
19.85420904613519
 20
33.12010850368938
 42
-0.0037197115694967
 10
19.78025727487031
 20
33.30747900085729
 42
-0.0039038904338733
 10
19.70917133066101
 20
33.4959537290373
 42
-0.004139473117677
 10
19.64112219571493
 20
33.6855461558894
 42
-0.0044125459524918
 10
19.57632374146465
 20
33.87627319525439
 42
-0.0047604946633425
 10
19.51503310229284
 20
34.06815606752838
 42
-0.0058979567221646
 10
19.4577880827008
 20
34.26128327552311
 42
-0.0063080261999512
 10
19.40541037079964
 20
34.45578692380002
  0
LWPOLYLINE
  5
553D9
330
1F
100
AcDbEntity
  8
1
100
AcDbPolyline
 90
        7
 70
     0
 43
0.0
 10
19.3340991253996
 20
34.80054071590001
 42
-0.1335762959165137
 10
19.33790294489293
 20
34.81528369234653
 42
-0.1031342915652521
 10
19.34878849054783
 20
34.82588878144239
 10
19.36214204035161
 20
34.83373651809961
 10
19.37617184062418
 20
34.8400601580131
 10
19.39060392231829
 20
34.84542695800289
 10
19.40541037079964
 20
34.8497104921
  0
LWPOLYLINE
  5
553DA
330
1F
100
AcDbEntity
  8
1
100
AcDbPolyline
 90
       18
 70
     0
 43
0.0
 10
19.40541037079964
 20
34.8497104921
 42
-0.0167108081914807
 10
19.47359759662191
 20
34.86549549022979
 42
-0.0071991916450435
 10
19.54252996640031
 20
34.87769209847201
 10
19.61166706532108
 20
34.88867469030529
 10
19.68137530999959
 20
34.8992947479
 10
19.75057121810434
 20
34.90990502279021
 10
19.81971268600819
 20
34.92086210547351
 10
19.88876835504553
 20
34.93234730000802
 10
19.95771055556599
 20
34.94449430884329
 10
20.02651552482243
 20
34.95739559088278
 10
20.09516021791592
 20
34.9711237484656
 10
20.16362278191201
 20
34.98573286993027
 10
20.23188130837522
 20
35.0012673923022
 10
20.29991493796533
 20
35.0177586433274
 10
20.36770173946331
 20
35.03523598311569
 10
20.43521892703893
 20
35.0537282829608
 10
20.50244577426463
 20
35.07325361201419
 10
20.56888151079968
 20
35.093647578
  0
LWPOLYLINE
  5
553DB
330
1F
100
AcDbEntity
  8
1
100
AcDbPolyline
 90
       15
 70
     0
 43
0.0
 10
22.11227185179959
 20
35.56715659330001
 10
22.00203180197792
 20
35.53364179612868
 10
21.89179263625832
 20
35.50012409108311
 10
21.78155555714235
 20
35.46659952434962
 10
21.67132234640303
 20
35.4330622402891
 10
21.56109521659218
 20
35.39950497551288
 10
21.45087716666782
 20
35.36591790200259
 10
21.34067175540784
 20
35.3322893856417
 10
21.23048337916242
 20
35.29860509144621
 10
21.12031755181403
 20
35.26484712627038
 10
21.01018102610632
 20
35.23099370972261
 10
20.90008100480321
 20
35.19702175899252
 10
20.79002720308281
 20
35.16290036042688
 10
20.68048885766592
 20
35.12871980016402
 10
20.5701132910996
 20
35.09403642060002
  0
ARC
  5
553DC
330
1F
100
AcDbEntity
  8
1
100
AcDbCircle
 10
19.40541037079964
 20
38.92500000000001
 30
0.0
 40
4.0
100
AcDbArc
 50
270.0
 51
286.9099161830999
  0
LINE
  5
553DD
330
1F
100
AcDbEntity
  8
1
100
AcDbLine
 10
20.56888151079968
 20
35.0979469685
 30
0.0
 11
20.56888151079968
 21
35.093647578
 31
0.0
  0
LINE
  5
553DE
330
1F
100
AcDbEntity
  8
1
100
AcDbLine
 10
19.40541037079964
 20
34.92500000000001
 30
0.0
 11
19.40541037079964
 21
34.8497104921
 31
0.0
  0
ARC
  5
553DF
330
1F
100
AcDbEntity
  8
1
100
AcDbCircle
 10
1.499999999999715
 20
33.42500000000001
 30
0.0
 40
1.5
100
AcDbArc
 50
90.0
 51
180.0
  0
DIMENSION
  5
553E0
330
1F
100
AcDbEntity
  8
2
100
AcDbDimension
  2
*D81
 10
85.17494055829841
 20
-38.10000000000002
 30
0.0
 11
85.17494055829843
 21
-1.750000000000007
 31
0.0
 70
   160
  1
%%c<>
 71
     5
 42
76.2
  3
\M+18352\M+18373\M+1815B - ISO-25
100
AcDbAlignedDimension
 13
59.40708109848594
 23
38.1
 33
0.0
 14
62.25931731049962
 24
-38.10000000000001
 34
0.0
 50
90.0
100
AcDbRotatedDimension
1001
ACAD
1000
DSTYLE
1002
{
1070
     4
1000
%%C[]"
1070
    40
1040
1.0
1070
    76
1070
     1
1070
   143
1040
0.03937
1070
   170
1070
     1
1070
   171
1070
     3
1070
   173
1070
     1
1070
   271
1070
     8
1070
   285
1070
     4
1070
   344
1005
32F1
1002
}
  0
LINE
  5
553E1
330
1F
100
AcDbEntity
  8
1
100
AcDbLine
 10
42.85333217636602
 20
38.1
 30
0.0
 11
59.49999999999971
 21
38.1
 31
0.0
  0
LINE
  5
553E2
330
1F
100
AcDbEntity
  8
1
100
AcDbLine
 10
59.51382496109951
 20
26.55307795828321
 30
0.0
 11
58.45036839779954
 21
25.9667334349833
 31
0.0
  0
LINE
  5
553E3
330
1F
100
AcDbEntity
  8
1
100
AcDbLine
 10
63.49999999999941
 20
32.96811424128299
 30
0.0
 11
61.70336009509952
 21
29.96811424128299
 31
0.0
  0
LINE
  5
553E4
330
1F
100
AcDbEntity
  8
1
100
AcDbLine
 10
61.70336009509933
 20
29.96811424128308
 30
0.0
 11
59.51382496109943
 21
26.55307795828307
 31
0.0
  0
ARC
  5
553E5
330
1F
100
AcDbEntity
  8
1
100
AcDbCircle
 10
59.49999999999971
 20
34.1
 30
0.0
 40
4.0
100
AcDbArc
 50
0.0
 51
90.0
  0
LINE
  5
553E6
330
1F
100
AcDbEntity
  8
1
100
AcDbLine
 10
63.49999999999972
 20
32.96811424128279
 30
0.0
 11
63.49999999999972
 21
34.1
 31
0.0
  0
LWPOLYLINE
  5
553E7
330
1F
100
AcDbEntity
  8
1
100
AcDbPolyline
 90
       13
 70
     0
 43
0.0
 10
44.60396259889972
 20
29.9633676990828
 42
0.0267070120058302
 10
44.58163392038048
 20
30.03322345877772
 42
0.0272765501544204
 10
44.55190233250601
 20
30.1002985945828
 42
0.0272524950008459
 10
44.51504329709652
 20
30.1637331562927
 42
0.0272424566718809
 10
44.47150592214413
 20
30.222780860136
 42
0.027346943628247
 10
44.42179896942085
 20
30.27673912295481
 42
0.027389728043023
 10
44.36649183764262
 20
30.32494039563119
 42
0.0275026184379873
 10
44.30623811493084
 20
30.36679457792548
 42
0.0275110473140259
 10
44.2417558392136
 20
30.40178505385299
 42
0.0275776558271523
 10
44.17381978143942
 20
30.42946684757408
 42
0.027660610962627
 10
44.10323941736061
 20
30.44949815715739
 42
0.0276261336492007
 10
44.03087217831944
 20
30.46162300101929
 42
0.0276367336151903
 10
43.95761344409968
 20
30.46568163318279
  0
LWPOLYLINE
  5
553E8
330
1F
100
AcDbEntity
  8
1
100
AcDbPolyline
 90
       13
 70
     0
 43
0.0
 10
43.95761344399969
 20
32.3533466167828
 42
0.0276289889810458
 10
44.0308518760967
 20
32.3574029922178
 42
0.0276186597947885
 10
44.10320003843042
 20
32.3695212372063
 42
0.0276602248906036
 10
44.17378051391438
 20
32.3895478749823
 42
0.0275792531122978
 10
44.24172220792144
 20
32.41722727796048
 42
0.0275105595443647
 10
44.30620514906332
 20
32.4522133644148
 42
0.0275024599051514
 10
44.36646095861002
 20
32.49406378777258
 42
0.0273897574610409
 10
44.4217709478124
 20
32.5422618681646
 42
0.0273474066899207
 10
44.4714816209476
 20
32.5962179358724
 42
0.0272426116307038
 10
44.51502260016749
 20
32.65526356417439
 42
0.0272495541457244
 10
44.55188163702684
 20
32.7186891027647
 42
0.0272817667061446
 10
44.581622483991
 20
32.78577467630248
 42
0.026718822069454
 10
44.60396259889972
 20
32.85566055088279
  0
LWPOLYLINE
  5
553E9
330
1F
100
AcDbEntity
  8
1
100
AcDbPolyline
 90
       58
 70
     0
 43
0.0
 10
41.3652359630997
 20
31.34694803768281
 42
0.0135816295218068
 10
41.37798522819941
 20
31.14131805244389
 42
0.0136475760252425
 10
41.40190914803253
 20
30.93666694362581
 42
0.01359501153278
 10
41.43683233369972
 20
30.73426099768281
 42
0.0136356060148147
 10
41.48286476282481
 20
30.53342890093072
 42
0.0136543849550236
 10
41.53978327415581
 20
30.33540533212741
 42
0.0136580165017342
 10
41.60742696182583
 20
30.14078440822007
 42
0.0136686391839468
 10
41.68560200936409
 20
29.9501497157689
 42
0.0136864781699043
 10
41.77408283254081
 20
29.76407431744642
 42
0.0136948593706295
 10
41.8726144382783
 20
29.58312013057631
 42
0.0137098664248741
 10
41.98091217634678
 20
29.40783619365897
 42
0.0137303183517289
 10
42.0986600618661
 20
29.2387555441052
 42
0.0137411661362952
 10
42.22551408407063
 20
29.07639520577021
 42
0.0137583549680675
 10
42.36110245439149
 20
28.92125465652558
 42
0.0137802341597377
 10
42.50502413478779
 20
28.77381210548131
 42
0.0137917880553367
 10
42.65685239443553
 20
28.63452490533021
 42
0.0138092387947668
 10
42.81613527927592
 20
28.50382802057879
 42
0.0138308137057039
 10
42.98239487153551
 20
28.38212993908907
 42
0.0138412370179638
 10
43.15513083910952
 20
28.26981363318387
 42
0.0138570237479913
 10
43.33382128420788
 20
28.1672350570035
 42
0.0138765076680705
 10
43.51792278160781
 20
28.07471888082239
 42
0.0138840553230466
 10
43.70687389547652
 20
27.9925600286386
 42
0.0138963976414352
 10
43.90009641087636
 20
27.92102236786508
 42
0.0139121913767664
 10
44.09699619684943
 20
27.86033445875671
 42
0.0139154129255122
 10
44.29696656661434
 20
27.8106917107919
 42
0.0139228898800307
 10
44.49938985648171
 20
27.77225543266871
 42
0.0139337842409177
 10
44.70363907758093
 20
27.74514879298707
 42
0.013979450982141
 10
44.90978589929969
 20
27.7294255589828
 42
0.0139334126179179
 10
45.11578357725372
 20
27.72524513611006
 42
0.0139387765882717
 10
45.3216942219808
 20
27.7325466931465
 42
0.0139310798065889
 10
45.5268785168532
 20
27.75130653253197
 42
0.0139267954269084
 10
45.73069950943318
 20
27.78146499341922
 42
0.013926573345727
 10
45.93252550514399
 20
27.82292332269239
 42
0.0139135226901503
 10
46.13173206170091
 20
27.8755474804702
 42
0.0139037937409801
 10
46.3277037140759
 20
27.93916884147572
 42
0.0138986140462191
 10
46.51983725727371
 20
28.01358168539758
 42
0.0138811184037369
 10
46.70754300491282
 20
28.09854731094129
 42
0.0138670680747051
 10
46.89024622524408
 20
28.1937951804764
 42
0.0138581248065681
 10
47.06739065471484
 20
28.29902105357522
 42
0.0138375794299643
 10
47.23843895024811
 20
28.41389121558072
 42
0.0138208072282774
 10
47.40287375157831
 20
28.53804391481381
 42
0.0138097008155285
 10
47.56020128649359
 20
28.67108810614229
 42
0.0137878094439851
 10
47.70995101912342
 20
28.8126076063484
 42
0.0137701821362745
 10
47.85167632642099
 20
28.96216264794748
 42
0.0137587193649973
 10
47.98495810965909
 20
29.1192891998522
 42
0.0137372870048446
 10
48.10940369155429
 20
29.28350285919009
 42
0.0137207260902925
 10
48.22464715694582
 20
29.4543003942717
 42
0.0137107185962295
 10
48.33035290781421
 20
29.6311595612527
 42
0.0136914138420158
 10
48.42621391325284
 20
29.81354259588952
 42
0.0136777439468021
 10
48.51195183106767
 20
30.0008976516574
 42
0.0136708500914049
 10
48.58732040544168
 20
30.1926592404787
 42
0.0136547153970511
 10
48.65210349514294
 20
30.38825094439758
 42
0.0136459812468864
 10
48.7061146416284
 20
30.58708663258398
 42
0.0135784912254329
 10
48.74901806534729
 20
30.78759376088939
 42
0.0136276272415476
 10
48.78111014951333
 20
30.99112106452907
 42
0.0136317484803936
 10
48.80206411847041
 20
31.19608935154949
 42
0.0136453418838962
 10
48.81181122085834
 20
31.40190915845949
 42
0.0136416291566286
 10
48.81031157219971
 20
31.60888826968281
  0
LWPOLYLINE
  5
553EA
330
1F
100
AcDbEntity
  8
1
100
AcDbPolyline
 90
       58
 70
     0
 43
0.0
 10
48.81031157219971
 20
31.60888826968281
 42
0.0135816294157913
 10
48.797562307005
 20
31.81451825491371
 42
0.0136475758540453
 10
48.77363838720083
 20
32.0191693637353
 42
0.0135950116328703
 10
48.73871520159969
 20
32.22157530968284
 42
0.0136356061392361
 10
48.69268277240493
 20
32.42240740641499
 42
0.0136543848457996
 10
48.63576426099803
 20
32.62043097519549
 42
0.0136580163734198
 10
48.5681205733486
 20
32.8150518991084
 42
0.013668639154281
 10
48.48994552589989
 20
33.0056865915962
 42
0.0136864783246258
 10
48.4014647027505
 20
33.19176198992759
 42
0.0136948593660283
 10
48.30293309697302
 20
33.3727161767732
 42
0.0137098663842499
 10
48.19463535890353
 20
33.54800011369079
 42
0.0137303184619312
 10
48.07688747335632
 20
33.71708076322071
 42
0.0137411660594932
 10
47.9500334511091
 20
33.8794411015194
 42
0.0137583548861219
 10
47.81444508082159
 20
34.03458165079428
 42
0.0137802342935571
 10
47.6705234004375
 20
34.18202420184619
 42
0.0137917880732162
 10
47.51869514074932
 20
34.32131140195031
 42
0.013809238712564
 10
47.35941225589383
 20
34.45200828668053
 42
0.0138308135781965
 10
47.19315266367419
 20
34.57370636822421
 42
0.0138412370971289
 10
47.0204166961507
 20
34.68602267420448
 42
0.0138570238668632
 10
46.84172625104468
 20
34.78860125036471
 42
0.0138765075981869
 10
46.65762475362939
 20
34.8811174265129
 42
0.0138840552926983
 10
46.46867363976773
 20
34.96327627870849
 42
0.0138963976728589
 10
46.2754511243749
 20
35.0348139394994
 42
0.0139121914880869
 10
46.07855133839018
 20
35.0955018485584
 42
0.0139154128061214
 10
45.87858096861393
 20
35.14514459646722
 42
0.0139228897948777
 10
45.67615767875842
 20
35.1835808746624
 42
0.0139337844478515
 10
45.47190845766522
 20
35.21068751435797
 42
0.0139794509863416
 10
45.26576163589965
 20
35.22641074828282
 42
0.0139334125073594
 10
45.05976395794568
 20
35.23059117113769
 42
0.013938776537707
 10
44.85385331321859
 20
35.22328961414781
 42
0.0139310798204898
 10
44.64866901834262
 20
35.20452977482174
 42
0.0139267954825229
 10
44.44484802576133
 20
35.17437131395587
 42
0.0139265734172039
 10
44.24302203005971
 20
35.13291298464722
 42
0.0139135226823716
 10
44.04381547352238
 20
35.08028882680103
 42
0.013903793666291
 10
43.84784382116333
 20
35.01666746575438
 42
0.013898613906416
 10
43.6557102779455
 20
34.94225462188409
 42
0.0138811184837998
 10
43.46800453027268
 20
34.85728899641859
 42
0.0138670681898849
 10
43.28530130995651
 20
34.76204112686171
 42
0.0138581247478088
 10
43.10815688050939
 20
34.6568152537254
 42
0.013837579359493
 10
42.93710858497147
 20
34.54194509172959
 42
0.0138208072270224
 10
42.77267378361301
 20
34.41779239253529
 42
0.0138097009323374
 10
42.61534624870711
 20
34.2847482012003
 42
0.0137878094148194
 10
42.4655965161163
 20
34.14322870095572
 42
0.0137701820724285
 10
42.32387120882072
 20
33.99367365935589
 42
0.0137587193827919
 10
42.19058942557501
 20
33.83654710745978
 42
0.0137372870656299
 10
42.06614384369919
 20
33.67233344810907
 42
0.0137207260728515
 10
41.95090037835399
 20
33.5015359130004
 42
0.0137107184356081
 10
41.84519462746201
 20
33.32467674603257
 42
0.0136914139311648
 10
41.74933362197052
 20
33.14229371142491
 42
0.0136777440106452
 10
41.66359570419641
 20
32.95493865564407
 42
0.0136708499086222
 10
41.5882271298035
 20
32.76317706682859
 42
0.0136547154936299
 10
41.52344404004501
 20
32.56758536292969
 42
0.0136459813470195
 10
41.46943289362923
 20
32.36874967472991
 42
0.0135784910321632
 10
41.42652946994099
 20
32.16824254647739
 42
0.0136276272376649
 10
41.39443738570133
 20
31.96471524285039
 42
0.0136317485620587
 10
41.37348341672293
 20
31.7597469558354
 42
0.0136453419416689
 10
41.3637363143672
 20
31.5539271489254
 42
0.013641629208744
 10
41.3652359630997
 20
31.34694803768281
  0
LWPOLYLINE
  5
553EB
330
1F
100
AcDbEntity
  8
1
100
AcDbPolyline
 90
       39
 70
     0
 43
0.0
 10
46.5238348771997
 20
34.4201344756828
 42
0.0135413042123028
 10
46.36432760220919
 20
34.49074753671837
 42
0.0135765909715495
 10
46.20122038725884
 20
34.552609399115
 42
0.0135830102973549
 10
46.03499409444061
 20
34.60552715005358
 42
0.0135864652714472
 10
45.86613928631382
 20
34.6493389713861
 42
0.0135987948530944
 10
45.69515327647784
 20
34.6839091618553
 42
0.0136045164482734
 10
45.5225405506948
 20
34.70913216723758
 42
0.0136034529210069
 10
45.34881142097868
 20
34.7249292549964
 42
0.0136109060284991
 10
45.17448022981471
 20
34.73125162996487
 42
0.0136098988824185
 10
45.00006323511371
 20
34.72808058623758
 42
0.0136044833036177
 10
44.8260770717311
 20
34.7154248619799
 42
0.0136071555233916
 10
44.65303691895241
 20
34.69332398948239
 42
0.013599217458557
 10
44.48145443784639
 20
34.66184686834799
 42
0.0135898434670683
 10
44.31183662567318
 20
34.6210894784862
 42
0.0135877381850763
 10
44.14468337858892
 20
34.57117799154691
 42
0.0135736500461041
 10
43.98048602205463
 20
34.51226607180809
 42
0.0135612093439165
 10
43.81972643448759
 20
34.44453312336458
 42
0.0135547765637058
 10
43.6628741342277
 20
34.3681868294008
 42
0.0135840989487534
 10
43.50985217169972
 20
34.28314382508279
 42
0.0135216864610747
 10
43.36218832677809
 20
34.19026310299941
 42
0.0135117747645468
 10
43.21975864952392
 20
34.08953953870608
 42
0.0134902827435685
 10
43.08297265110101
 20
33.9812756534632
 42
0.0134757629543596
 10
42.95222234182804
 20
33.8657947177359
 42
0.0134634138306889
 10
42.82787935165794
 20
33.74344144089571
 42
0.0134413956128953
 10
42.71029633675732
 20
33.6145780823438
 42
0.0134282340128133
 10
42.5998053782234
 20
33.47958442871098
 42
0.0134147315096717
 10
42.4967157309756
 20
33.33885744621338
 42
0.013394359235262
 10
42.40131589422321
 20
33.19280795210747
 42
0.0133840323241977
 10
42.31387134875385
 20
33.041860787573
 42
0.0133706723360705
 10
42.23462334580051
 20
32.88645370528222
 42
0.013354009183857
 10
42.16379115972102
 20
32.72703470205242
 42
0.0133475922339023
 10
42.10156925529432
 20
32.56406210703156
 42
0.0133353587423875
 10
42.04812706600811
 20
32.3980031799633
 42
0.0133247435356948
 10
42.00361150084129
 20
32.2293321130982
 42
0.0133234378928584
 10
41.9681437663421
 20
32.05852830962729
 42
0.0133087126615417
 10
41.94181800932921
 20
31.8860791438683
 42
0.0133132388970402
 10
41.92470704007982
 20
31.7124776282597
 42
0.0133245228153096
 10
41.91686473520848
 20
31.53819849624158
 42
0.0132137309968715
 10
41.9182726093997
 20
31.36437387178283
  0
LWPOLYLINE
  5
553EC
330
1F
100
AcDbEntity
  8
1
100
AcDbPolyline
 90
       37
 70
     0
 43
0.0
 10
41.9182726093997
 20
31.36437387178283
 42
0.0135207021176554
 10
41.92925466755468
 20
31.18689868370478
 42
0.0136001689697292
 10
41.94986413129669
 20
31.01008167681229
 42
0.0135768934152655
 10
41.9800179378501
 20
30.83482747353139
 42
0.0135747245767588
 10
42.01963871804568
 20
30.66146960892706
 42
0.0135930677323646
 10
42.06861466974632
 20
30.4905178136989
 42
0.0135965939821724
 10
42.12680866561538
 20
30.32248043251602
 42
0.0136075325399178
 10
42.19405549027832
 20
30.15785683562569
 42
0.0136248346644514
 10
42.27016275855279
 20
29.99713739523921
 42
0.0136328737053985
 10
42.35491321715421
 20
29.84080312452395
 42
0.0136484462040448
 10
42.44806419805809
 20
29.6893240464378
 42
0.0136681341611917
 10
42.54934632102501
 20
29.54315658331021
 42
0.0136785715947833
 10
42.65846651499368
 20
29.40274371227841
 42
0.0136966108877824
 10
42.7751078004866
 20
29.26851338429489
 42
0.0137174622345887
 10
42.89892829432647
 20
29.14087551265408
 42
0.0137286150076226
 10
43.02956439885718
 20
29.02022252925311
 42
0.013747241439925
 10
43.16663071102985
 20
28.9069276261443
 42
0.0137675444472564
 10
43.30971973029102
 20
28.80134157616462
 42
0.0137776053354559
 10
43.45840499467871
 20
28.70379379593359
 42
0.0137949375429341
 10
43.61224130113789
 20
28.61459040387689
 42
0.0138129346936709
 10
43.77076511234782
 20
28.53401106026249
 42
0.0138201737384975
 10
43.93349760927788
 20
28.46231055273879
 42
0.0138344610180655
 10
44.09994528674434
 20
28.39971679428752
 42
0.0138485903397666
 10
44.26960104806778
 20
28.34642785785368
 42
0.0138515480006613
 10
44.44194706023767
 20
28.30261411483298
 42
0.0138613829473692
 10
44.61645576169058
 20
28.26841631755872
 42
0.0138704723422096
 10
44.79259156138363
 20
28.24394299262158
 42
0.013868137001493
 10
44.96981336678152
 20
28.22927312469257
 42
0.0138726521948058
 10
45.14757596389194
 20
28.22445446362824
 42
0.0138761213136911
 10
45.3253322277545
 20
28.2295014573709
 42
0.0138678789713291
 10
45.50253512177071
 20
28.24439830357722
 42
0.0138670516041199
 10
45.67863926516031
 20
28.26909762067894
 42
0.0138656218949641
 10
45.85310403790209
 20
28.30351966229441
 42
0.0138491336476289
 10
46.02539425167461
 20
28.34755393353771
 42
0.0138459301953745
 10
46.1949801116805
 20
28.40105837858379
 42
0.0138484420917863
 10
46.3613515915479
 20
28.46387038073698
 42
0.0137781880715062
 10
46.5238353025997
 20
28.53570183118279
  0
LWPOLYLINE
  5
553ED
330
1F
100
AcDbEntity
  8
1
100
AcDbPolyline
 90
       10
 70
     0
 43
0.0
 10
53.62630635489972
 20
25.1933675674828
 42
-0.0007223734206111
 10
52.13160388035811
 20
25.19566011362972
 42
-0.0007251709919761
 10
50.63691410873602
 20
25.2022930073513
 42
-0.0006718037558368
 10
49.14224879185013
 20
25.21310238470757
 42
-0.0006347655505932
 10
47.64761689289469
 20
25.22781516122581
 42
-0.0006013157769689
 10
46.1530256469152
 20
25.24622273858601
 42
-0.0005634928302744
 10
44.65848146836691
 20
25.2681180664128
 42
-0.0005147736728526
 10
43.16398795814888
 20
25.29323653521698
 42
-0.0004916239239126
 10
41.66954698566883
 20
25.32133262863581
 42
-0.0005077673580423
 10
40.1751654364997
 20
25.35241564228281
  0
LWPOLYLINE
  5
553EE
330
1F
100
AcDbEntity
  8
1
100
AcDbPolyline
 90
       33
 70
     0
 43
0.0
 10
42.70068517669971
 20
31.40951412498279
 42
0.0239976579614286
 10
42.71115242119541
 20
31.19472824318338
 42
0.0243841160223373
 10
42.74231987882347
 20
30.98189227317121
 42
0.0243257295988949
 10
42.79404267477358
 20
30.7731063678205
 42
0.0243040027817597
 10
42.86579087536861
 20
30.57033320129722
 42
0.02439797975
 10
42.95690798049702
 20
30.37549087373259
 42
0.0244061406087413
 10
43.06657454631294
 20
30.19045305658746
 42
0.0244629827608686
 10
43.19377856733661
 20
30.01700395283507
 42
0.0245370385860928
 10
43.33733201868883
 20
29.85682396014439
 42
0.0245572375531726
 10
43.49589390889301
 20
29.71148508243388
 42
0.0246288222145685
 10
43.6679664073724
 20
29.58242679686421
 42
0.0246921293253715
 10
43.85190395491633
 20
29.4709291271883
 42
0.02470454411144
 10
44.0459414160002
 20
29.37811593612007
 42
0.0247675266877728
 10
44.24819915855747
 20
29.3049287862809
 42
0.024804614010466
 10
44.45670368285701
 20
29.2521055841051
 42
0.0247943797237872
 10
44.66941497560566
 20
29.22019225437009
 42
0.024833596221495
 10
44.88424137989773
 20
29.2095171956652
 42
0.0248335701856514
 10
45.09906828950067
 20
29.2201832720481
 42
0.0247943871805199
 10
45.3117809027471
 20
29.25208771674054
 42
0.0248046558349791
 10
45.5202876196945
 20
29.30490220640439
 42
0.0247675164757924
 10
45.72254850366772
 20
29.37808095590907
 42
0.0247045645119758
 10
45.9165897948232
 20
29.4708860642958
 42
0.0246921800333239
 10
46.10053199206831
 20
29.58237610261539
 42
0.0246288213148656
 10
46.27260992211853
 20
29.71142732475758
 42
0.0245572636025117
 10
46.43117777066382
 20
29.85675961412307
 42
0.0245370936071902
 10
46.57473788345322
 20
30.0169337497868
 42
0.0244629931535926
 10
46.7019491348305
 20
30.1903777751903
 42
0.0244060849986026
 10
46.8116229211516
 20
30.37541043313908
 42
0.0243981747200394
 10
46.90274857732186
 20
30.57025026207393
 42
0.0243044191892238
 10
46.97450605430134
 20
30.77302407459124
 42
0.0243238349812237
 10
47.02623376313201
 20
30.98179171011648
 42
0.0243867502888847
 10
47.05741325440132
 20
31.1946484808519
 42
0.0240066530195174
 10
47.06788824389971
 20
31.40951412498279
  0
LWPOLYLINE
  5
553EF
330
1F
100
AcDbEntity
  8
1
100
AcDbPolyline
 90
       33
 70
     0
 43
0.0
 10
42.70068517669971
 20
31.40951412498279
 42
-0.0239976579681956
 10
42.71115242119541
 20
31.62430000678238
 42
-0.0243841160176329
 10
42.74231987882362
 20
31.8371359767948
 42
-0.0243257295951794
 10
42.79404267477383
 20
32.04592188214571
 42
-0.0243040027714873
 10
42.8657908753689
 20
32.24869504866919
 42
-0.0243979797576643
 10
42.9569079804975
 20
32.44353737623388
 42
-0.0244061406162074
 10
43.06657454631363
 20
32.62857519337908
 42
-0.0244629827824764
 10
43.1937785673374
 20
32.80202429713157
 42
-0.0245370385845833
 10
43.33733201869003
 20
32.96220428982238
 42
-0.0245572375456749
 10
43.49589390889443
 20
33.1075431675329
 42
-0.024628822202538
 10
43.66796640737399
 20
33.23660145310248
 42
-0.0246921293463775
 10
43.8519039549183
 20
33.34809912277831
 42
-0.0247045441137175
 10
44.04594141600242
 20
33.44091231384651
 42
-0.0247675266929522
 10
44.24819915856002
 20
33.51409946368548
 42
-0.0248046140042241
 10
44.45670368285971
 20
33.566922665861
 42
-0.0247943797125389
 10
44.6694149756087
 20
33.59883599559581
 42
-0.0248335962139752
 10
44.88424137990088
 20
33.60951105430042
 42
-0.024833570198263
 10
45.09906828950408
 20
33.59884497791723
 42
-0.0247943871859913
 10
45.31178090275068
 20
33.5669405332244
 42
-0.0248046558475382
 10
45.5202876196981
 20
33.51412604356009
 42
-0.0247675164881778
 10
45.72254850367153
 20
33.44094729405489
 42
-0.0247045645064924
 10
45.91658979482704
 20
33.34814218566788
 42
-0.0246921800296995
 10
46.1005319920716
 20
33.23665214734757
 42
-0.0246288213062471
 10
46.27260992212211
 20
33.1076009252053
 42
-0.0245572636224563
 10
46.4311777706684
 20
32.96226863583971
 42
-0.0245370936270415
 10
46.57473788345237
 20
32.80209450017222
 42
-0.0244629931069184
 10
46.7019491348357
 20
32.62865047477272
 42
-0.0244060850085815
 10
46.81162292118679
 20
32.44361781683958
 42
-0.0243981748150709
 10
46.9027485773513
 20
32.24877798790408
 42
-0.0243044191917741
 10
46.9745060542997
 20
32.04600417537557
 42
-0.0243238349558344
 10
47.02623376312863
 20
31.83723653984848
 42
-0.0243867503090091
 10
47.05741325440249
 20
31.62437976911397
 42
-0.0240066530207431
 10
47.06788824389971
 20
31.40951412498279
  0
LWPOLYLINE
  5
553F0
330
1F
100
AcDbEntity
  8
1
100
AcDbPolyline
 90
       19
 70
     0
 43
0.0
 10
42.09121141089968
 20
31.40951412498279
 42
-0.0213680959074543
 10
42.10211275994942
 20
31.66127369894507
 42
-0.0216512811957988
 10
42.13460501844383
 20
31.9112337616821
 42
-0.0216172161384093
 10
42.18858474619392
 20
32.15744032939222
 42
-0.0215993365011353
 10
42.26361219319133
 20
32.39806322248259
 42
-0.0216583926674943
 10
42.3591400106923
 20
32.63131100192189
 42
-0.0216695471304486
 10
42.47449770278359
 20
32.85541503163839
 42
-0.0217222657035967
 10
42.60884478487193
 20
33.06867645399271
 42
-0.0217570567341858
 10
42.76119550099809
 20
33.26947179223558
 42
-0.0217853930750757
 10
42.93043686535281
 20
33.45625192842499
 42
-0.0218542675966734
 10
43.11531147362439
 20
33.62757196069049
 42
-0.0218760360292831
 10
43.31443729184482
 20
33.7820972193829
 42
-0.021914409715155
 10
43.52631972163908
 20
33.9186055621515
 42
-0.0219767595526421
 10
43.74935025771748
 20
34.03602153825278
 42
-0.0219803374770411
 10
43.98182646839439
 20
34.13340872204998
 42
-0.0220203529690616
 10
44.22195551963844
 20
34.20997774793182
 42
-0.0220562953710013
 10
44.46790573984171
 20
34.26512336482898
 42
-0.0220465796964915
 10
44.7177735094753
 20
34.2983947798507
 42
-0.0220489320176256
 10
44.9695952507997
 20
34.30951131678279
  0
LWPOLYLINE
  5
553F1
330
1F
100
AcDbEntity
  8
1
100
AcDbPolyline
 90
       19
 70
     0
 43
0.0
 10
42.09121141089968
 20
31.40951412498279
 42
0.0213680959079627
 10
42.10211275994843
 20
31.15775455103218
 42
0.0216512811983941
 10
42.13460501843971
 20
30.90779448830672
 42
0.021617216143082
 10
42.18858474618483
 20
30.6615879206075
 42
0.0215993365003403
 10
42.26361219317536
 20
30.4209650275273
 42
0.0216583926629451
 10
42.35914001066769
 20
30.18771724809707
 42
0.0216695471381746
 10
42.47449770274861
 20
29.96361321838847
 42
0.0217222657075076
 10
42.60884478482501
 20
29.75035179604058
 42
0.0217570567462339
 10
42.76119550093802
 20
29.5495564578024
 42
0.0217853930673715
 10
42.93043686527844
 20
29.3627763216158
 42
0.021854267583035
 10
43.11531147353486
 20
29.19145628935138
 42
0.0218760360579426
 10
43.31443729173912
 20
29.03693103065755
 42
0.0219144097164017
 10
43.52631972151701
 20
28.90042268788409
 42
0.0219767595558055
 10
43.74935025758003
 20
28.7830067117805
 42
0.0219803374679775
 10
43.98182646823951
 20
28.68561952797421
 42
0.0220203529731901
 10
44.2219555194651
 20
28.60905050206381
 42
0.0220562954718515
 10
44.467905739661
 20
28.5539048851968
 42
0.0220465796168171
 10
44.71777350928968
 20
28.52063347023469
 42
0.0220489318226895
 10
44.9695952505997
 20
28.50951693318279
  0
LWPOLYLINE
  5
553F2
330
1F
100
AcDbEntity
  8
1
100
AcDbPolyline
 90
       21
 70
     0
 43
0.0
 10
46.52383540339966
 20
34.42013447838281
 42
-0.0137449648563257
 10
46.68203786819771
 20
34.3394637889524
 42
-0.0138239435480968
 10
46.835571259624
 20
34.25018880614428
 42
-0.0137879427849464
 10
46.98394006002792
 20
34.15257579454831
 42
-0.0137565938037233
 10
47.12670830981818
 20
34.04694313904298
 42
-0.0137498295136997
 10
47.26345457956369
 20
33.93362090234649
 42
-0.0137236805622442
 10
47.3937711850939
 20
33.81296007655141
 42
-0.0137058310062147
 10
47.51727513050545
 20
33.68533483646158
 42
-0.0136895201505383
 10
47.63360629199204
 20
33.5511389524452
 42
-0.0136648877387758
 10
47.7424256161336
 20
33.41078277781281
 42
-0.0136505761385905
 10
47.84341828289541
 20
33.2646937921278
 42
-0.0136332736700009
 10
47.93629477830799
 20
33.11331515539931
 42
-0.0136121008819883
 10
48.02078860402741
 20
32.95710264840392
 42
-0.0136017638877309
 10
48.0966593486217
 20
32.79652489546498
 42
-0.0135854198769314
 10
48.1636929619153
 20
32.6320618927015
 42
-0.0135706298951751
 10
48.22169920673172
 20
32.46420247327981
 42
-0.0135656398360076
 10
48.27051508863582
 20
32.29344276994789
 42
-0.0135471932891924
 10
48.31000606048601
 20
32.12028919594158
 42
-0.0135485046594302
 10
48.3400599081402
 20
31.94525540142021
 42
-0.0135566428784878
 10
48.3605865143576
 20
31.76883642221131
 42
-0.0134901306456416
 10
48.3715463106997
 20
31.59156843238279
  0
LWPOLYLINE
  5
553F3
330
1F
100
AcDbEntity
  8
1
100
AcDbPolyline
 90
       16
 70
     0
 43
0.0
 10
53.7430672740997
 20
32.61697524028281
 42
0.0388696990571186
 10
53.6974465842155
 20
32.61332707233157
 42
0.0401933775516044
 10
53.65295464676311
 20
32.6025255329497
 42
0.0397342551901969
 10
53.61074382768157
 20
32.58478927123969
 42
0.0394846354566258
 10
53.57185889756744
 20
32.5606151178061
 42
0.0395665877683777
 10
53.53726427438101
 20
32.53062312555079
 42
0.0393283027284338
 10
53.50780180096319
 20
32.49557490972168
 42
0.0391398733248578
 10
53.48418351535972
 20
32.45634938213971
 42
0.039169428948539
 10
53.46696786312771
 20
32.41392253438139
 42
0.0389901829623725
 10
53.45655562163421
 20
32.36933478775589
 42
0.0389298792391178
 10
53.45319517876368
 20
32.3236704634073
 42
0.0390803613680246
 10
53.45696501694863
 20
32.27803897230137
 42
0.0388813222282089
 10
53.46776534888864
 20
32.23354332181907
 42
0.0391695809241485
 10
53.48534653947052
 20
32.19127111706999
 42
0.0390223588230098
 10
53.50890091717201
 20
32.152902718804
 42
0.038727566511693
 10
53.53911900539967
 20
32.11745686388281
  0
LWPOLYLINE
  5
553F4
330
1F
100
AcDbEntity
  8
1
100
AcDbPolyline
 90
       19
 70
     0
 43
0.0
 10
44.9695952507997
 20
34.30951131678279
 42
-0.022045101227531
 10
45.22137355833137
 20
34.2983986232284
 42
-0.0220432174868933
 10
45.47120387479885
 20
34.26513778670099
 42
-0.022056222823722
 10
45.71715467341923
 20
34.20999951049239
 42
-0.0220209941911768
 10
45.9572929413787
 20
34.13343489103781
 42
-0.021980105337206
 10
46.18976911977617
 20
34.03605507676481
 42
-0.021976732448156
 10
46.41280245930198
 20
33.91864545393147
 42
-0.02191446680436
 10
46.62468919120735
 20
33.78214255151559
 42
-0.0218760430201921
 10
46.82381902161489
 20
33.62762287905898
 42
-0.0218542702840709
 10
47.00869828816684
 20
33.45630790330472
 42
-0.0217854024627353
 10
47.1779447549155
 20
33.26953234672658
 42
-0.0217570971494812
 10
47.33030097960122
 20
33.06874106560647
 42
-0.0217222670049473
 10
47.46465386674493
 20
32.85548322660208
 42
-0.0216694796033801
 10
47.58001723643153
 20
32.63138311828479
 42
-0.0216585958267071
 10
47.67555209433647
 20
32.39813606134797
 42
-0.0215995733104418
 10
47.75058664627738
 20
32.15751243357781
 42
-0.0216156976576764
 10
47.8045696598765
 20
31.91132452437348
 42
-0.0216534816312173
 10
47.8370719549211
 20
31.66134075109777
 42
-0.0213738274694407
 10
47.8479790904997
 20
31.40951412498279
  0
LWPOLYLINE
  5
553F5
330
1F
100
AcDbEntity
  8
1
100
AcDbPolyline
 90
       15
 70
     0
 43
0.0
 10
46.26751311209972
 20
31.8879963923828
 42
0.0343223210908543
 10
46.29462676357383
 20
31.91924556621899
 42
0.0357233948594602
 10
46.31713686061462
 20
31.95399281233981
 42
0.035523999050469
 10
46.33446837443381
 20
31.9915896583008
 42
0.0352313764192348
 10
46.34632906920399
 20
32.0312527655783
 42
0.0351842743834151
 10
46.35251400195082
 20
32.07218718367022
 42
0.0352367588456795
 10
46.3528834882247
 20
32.11358400629891
 42
0.0352784383870558
 10
46.3474395006101
 20
32.15462309091939
 42
0.0352168570927245
 10
46.3362821108887
 20
32.19448990832356
 42
0.0354337170598118
 10
46.31962399450299
 20
32.23238957751431
 42
0.0353874230321169
 10
46.2977888635132
 20
32.26756259440688
 42
0.0355544667506787
 10
46.27119999928234
 20
32.29928613983239
 42
0.035729918473286
 10
46.24037323891161
 20
32.32692164459158
 42
0.0356875004009365
 10
46.2059093860816
 20
32.34989698090141
 42
0.0359743104987039
 10
46.16853608939971
 20
32.36770583378279
  0
LWPOLYLINE
  5
553F6
330
1F
100
AcDbEntity
  8
1
100
AcDbPolyline
 90
       21
 70
     0
 43
0.0
 10
56.4432505968997
 20
34.76912944538282
 42
-0.0137449648343898
 10
56.601453061673
 20
34.68845875592157
 42
-0.0138239435089795
 10
56.75498645308531
 20
34.5991837731047
 42
-0.0137879427840521
 10
56.90335525348183
 20
34.5015707615112
 42
-0.0137565937911681
 10
57.04612350325743
 20
34.3959381060013
 42
-0.0137498294299575
 10
57.18286977301324
 20
34.28261586932831
 42
-0.0137236806047842
 10
57.31318637857043
 20
34.16195504357339
 42
-0.0137058311119624
 10
57.43669032395442
 20
34.03432980346949
 42
-0.0136895201238549
 10
57.55302148539238
 20
33.90013391942131
 42
-0.0136648876185439
 10
57.66184080952953
 20
33.75977774479603
 42
-0.0136505760449844
 10
57.76283347636402
 20
33.61368875916898
 42
-0.0136332738635996
 10
57.85570997182117
 20
33.4623101224783
 42
-0.0136121009750769
 10
57.94020379747786
 20
33.3060976154589
 42
-0.0136017638036309
 10
58.01607454200641
 20
33.14551986249771
 42
-0.0135854197382505
 10
58.08310815530842
 20
32.98105685974578
 42
-0.0135706299161247
 10
58.14111440019638
 20
32.81319744035571
 42
-0.0135656400413707
 10
58.18993028208601
 20
32.64243773703038
 42
-0.01354719323853
 10
58.2294212538672
 20
32.4692841630164
 42
-0.0135485045880675
 10
58.25947510152071
 20
32.29425036850147
 42
-0.0135566428990565
 10
58.28000170775303
 20
32.11783138930305
 42
-0.0134901306447513
 10
58.2909615040997
 20
31.94056339948281
  0
LWPOLYLINE
  5
553F7
330
1F
100
AcDbEntity
  8
1
100
AcDbPolyline
 90
       19
 70
     0
 43
0.0
 10
55.00765394769968
 20
34.53897178838278
 42
-0.0220451011019099
 10
55.25943225523031
 20
34.52785909471507
 42
-0.0220432174054755
 10
55.50926257170203
 20
34.494598258189
 42
-0.0220562228421893
 10
55.7552133703307
 20
34.43945998200849
 42
-0.0220209942121385
 10
55.99535163829762
 20
34.3628953625678
 42
-0.0219801053297415
 10
56.22782781669972
 20
34.26551554829908
 42
-0.0219767324316455
 10
56.45086115623562
 20
34.14810592547849
 42
-0.021914466821423
 10
56.6627478881557
 20
34.01160302308071
 42
-0.0218760430558467
 10
56.86187771856888
 20
33.85708335062648
 42
-0.0218542703195634
 10
57.04675698510093
 20
33.6857683748477
 42
-0.0217854024599864
 10
57.21600345181503
 20
33.498992818235
 42
-0.0217570971097273
 10
57.36835967649358
 20
33.29820153710489
 42
-0.0217222670020627
 10
57.50271256364704
 20
33.08494369810347
 42
-0.0216694796184955
 10
57.61807593333554
 20
32.86084358978352
 42
-0.0216585958325871
 10
57.71361079122783
 20
32.62759653283999
 42
-0.0215995732444825
 10
57.7886453431866
 20
32.38697290507207
 42
-0.0216156976575389
 10
57.8426283568572
 20
32.14078499587908
 42
-0.0216534817555975
 10
57.87513065191109
 20
31.89080122260339
 42
-0.0213738275414005
 10
57.88603778739974
 20
31.6389745964828
  0
LWPOLYLINE
  5
553F8
330
1F
100
AcDbEntity
  8
1
100
AcDbPolyline
 90
       15
 70
     0
 43
0.0
 10
56.30557180909969
 20
32.11745686388281
 42
0.034322320928781
 10
56.33268546054893
 20
32.14870603773849
 42
0.0357233946214383
 10
56.35519555756281
 20
32.18345328387429
 42
0.0355239993467477
 10
56.3725270713552
 20
32.22105012984489
 42
0.0352313762267844
 10
56.3843877661127
 20
32.2607132371254
 42
0.0351842742342267
 10
56.39057269885459
 20
32.30164765521681
 42
0.0352367592128775
 10
56.3909421851171
 20
32.34304447784089
 42
0.0352784383074723
 10
56.38549819750841
 20
32.3840835624616
 42
0.0352168577767324
 10
56.37434080780995
 20
32.42395037987382
 42
0.0354337172319924
 10
56.3576826914101
 20
32.4618500490509
 42
0.0353874227926472
 10
56.3358475603982
 20
32.49702306592539
 42
0.0355544664778407
 10
56.30925869619819
 20
32.52874661138341
 42
0.0357299193525117
 10
56.27843193584664
 20
32.55638211615758
 42
0.0356875003418141
 10
56.24396808298968
 20
32.57935745241778
 42
0.0359743097214978
 10
56.20659478629969
 20
32.5971663052828
  0
LWPOLYLINE
  5
553F9
330
1F
100
AcDbEntity
  8
1
100
AcDbPolyline
 90
       58
 70
     0
 43
0.0
 10
58.72972676559971
 20
31.95788323668279
 42
0.0135816295277089
 10
58.71697750050009
 20
32.16351322192132
 42
0.01364757602017
 10
58.69305358066703
 20
32.36816433073898
 42
0.0135950115250497
 10
58.65813039499966
 20
32.57057027668279
 42
0.0136356060052435
 10
58.61209796587471
 20
32.77140237343449
 42
0.0136543849540752
 10
58.55517945454406
 20
32.9694259422376
 42
0.0136580164986572
 10
58.487535766874
 20
33.16404686614446
 42
0.0136686391834771
 10
58.40936071933481
 20
33.35468155859472
 42
0.0136864781549513
 10
58.3208798961624
 20
33.54075695691899
 42
0.013694859396962
 10
58.2223482904227
 20
33.72171114378748
 42
0.0137098664509973
 10
58.11405055232501
 20
33.89699508068607
 42
0.0137303183391478
 10
57.99630266677334
 20
34.06607573021671
 42
0.0137411660734304
 10
57.86944864456618
 20
34.22843606854909
 42
0.0137583549310351
 10
57.73386027428401
 20
34.38357661782828
 42
0.0137802342256463
 10
57.58993859391233
 20
34.531019168895
 42
0.0137917880791037
 10
57.43811033425959
 20
34.67030636903956
 42
0.0138092387848553
 10
57.27882744941772
 20
34.80100325378939
 42
0.0138308137122758
 10
57.1125678571596
 20
34.92270133528007
 42
0.0138412370123298
 10
56.93983188958561
 20
35.0350176411844
 42
0.0138570237464205
 10
56.76114144448741
 20
35.1375962173654
 42
0.0138765076826345
 10
56.5770399470868
 20
35.2301123935429
 42
0.0138840552997091
 10
56.38808883321948
 20
35.31227124572808
 42
0.0138963976599303
 10
56.19486631782322
 20
35.38380890651538
 42
0.013912191493073
 10
55.99796653183734
 20
35.44449681557319
 42
0.0139154128010838
 10
55.797996162059
 20
35.49413956347919
 42
0.0139228898032735
 10
55.59557287220153
 20
35.53257584167488
 42
0.0139337844752505
 10
55.39132365110603
 20
35.55968248135574
 42
0.0139794508990108
 10
55.18517682939972
 20
35.57540571528278
 42
0.0139334124907936
 10
54.97917915144412
 20
35.57958613821521
 42
0.0139387767013807
 10
54.77326850671687
 20
35.57228458123481
 42
0.0139310798393325
 10
54.56808421184661
 20
35.55352474183349
 42
0.0139267953804806
 10
54.36426321926882
 20
35.52336628093681
 42
0.0139265732922873
 10
54.16243722355059
 20
35.4819079516945
 42
0.0139135228171641
 10
53.96323066699233
 20
35.42928379392169
 42
0.0139037937755018
 10
53.76725901465121
 20
35.3656624328236
 42
0.0138986137864243
 10
53.57512547144643
 20
35.29124958891183
 42
0.0138811184727524
 10
53.38741972376411
 20
35.20628396346339
 42
0.0138670682265869
 10
53.20471650344382
 20
35.11103609391307
 42
0.0138581247523374
 10
53.0275720739946
 20
35.00581022077748
 42
0.013837579365623
 10
52.85652377845185
 20
34.89094005878693
 42
0.013820807236869
 10
52.69208897708717
 20
34.76678735959769
 42
0.0138097009562146
 10
52.53476144218303
 20
34.6337431682598
 42
0.0137878093585917
 10
52.38501170958244
 20
34.49222366802381
 42
0.0137701820717328
 10
52.24328640224308
 20
34.34266862646149
 42
0.013758719522512
 10
52.11000461899735
 20
34.18554207456609
 42
0.0137372870350647
 10
51.9855590371564
 20
34.0213284151879
 42
0.0137207260098476
 10
51.87031557180318
 20
33.85053088008039
 42
0.0137107185155746
 10
51.76460982092411
 20
33.67367171310559
 42
0.0136914138727768
 10
51.66874881545144
 20
33.491288678487
 42
0.0136777439859219
 10
51.58301089763321
 20
33.3039336227217
 42
0.0136708500752526
 10
51.50764232326378
 20
33.1121720338987
 42
0.0136547153869415
 10
51.44285923356034
 20
32.91658032998089
 42
0.0136459812547785
 10
51.38884808707399
 20
32.71774464179529
 42
0.0135784912360777
 10
51.34594466335229
 20
32.51723751347629
 42
0.0136276272419304
 10
51.3138525791862
 20
32.31371020983698
 42
0.0136317484720087
 10
51.29289861022911
 20
32.10874192281699
 42
0.0136453418823189
 10
51.28315150784121
 20
31.90292211590739
 42
0.0136416291580134
 10
51.2846511564997
 20
31.69594300468282
  0
LWPOLYLINE
  5
553FA
330
1F
100
AcDbEntity
  8
1
100
AcDbPolyline
 90
       39
 70
     0
 43
0.0
 10
56.44325007059967
 20
34.76912944268281
 42
0.0135413042942605
 10
56.28374279562331
 20
34.8397425037532
 42
0.0135765910452855
 10
56.1206355806633
 20
34.90160436612157
 42
0.0135830101252884
 10
55.95440928784535
 20
34.95452211706857
 42
0.0135864653025523
 10
55.78555447973508
 20
34.99833393847499
 42
0.0135987950413064
 10
55.61456846989599
 20
35.0329041289184
 42
0.013604516379193
 10
55.4419557441023
 20
35.0581271342412
 42
0.013603452884826
 10
55.26822661438405
 20
35.07392422200059
 42
0.0136109060654762
 10
55.0938954232202
 20
35.08024659695872
 42
0.0136098987724352
 10
54.91947842851761
 20
35.0770755532424
 42
0.0136044832711118
 10
54.74549226512795
 20
35.06441982905708
 42
0.0136071556319652
 10
54.57245211234393
 20
35.0423189566005
 42
0.0135992175360617
 10
54.40086963124182
 20
35.01084183544037
 42
0.0135898434809752
 10
54.23125181908281
 20
34.97008444551409
 42
0.0135877381069658
 10
54.06409857201061
 20
34.92017295853239
 42
0.0135736498996889
 10
53.89990121546682
 20
34.86126103881739
 42
0.013561209372838
 10
53.73914162786613
 20
34.79352809044579
 42
0.013554776821282
 10
53.58228932762182
 20
34.71718179645379
 42
0.0135840988526729
 10
53.4292673651997
 20
34.6321387920828
 42
0.0135216862701501
 10
53.28160352025685
 20
34.5392580700273
 42
0.0135117748148036
 10
53.13917384295592
 20
34.43853450579928
 42
0.0134902828388216
 10
53.00238784451559
 20
34.33027062057699
 42
0.0134757630231427
 10
52.87163753527133
 20
34.21478968481719
 42
0.0134634137165688
 10
52.74729454512248
 20
34.09243640795271
 42
0.0134413955829371
 10
52.62971153021263
 20
33.96357304940707
 42
0.0134282340329166
 10
52.51922057167971
 20
33.82857939577409
 42
0.0134147314350009
 10
52.41613092441261
 20
33.68785241328848
 42
0.0133943593057994
 10
52.32073108762242
 20
33.54180291920509
 42
0.0133840324510258
 10
52.23328654218562
 20
33.39085575465257
 42
0.0133706722762298
 10
52.15403853928723
 20
33.23544867233221
 42
0.0133540091003267
 10
52.08320635320973
 20
33.07602966909991
 42
0.0133475921893156
 10
52.02098444874653
 20
32.91305707409188
 42
0.0133353587756583
 10
51.96754225942567
 20
32.74699814703379
 42
0.013324743568603
 10
51.92302669425473
 20
32.5783270801692
 42
0.0133234378699894
 10
51.88755895975754
 20
32.40752327669671
 42
0.0133087126597126
 10
51.86123320273734
 20
32.2350741109379
 42
0.0133132389143225
 10
51.84412223347781
 20
32.06147259532921
 42
0.0133245228815032
 10
51.83627992863205
 20
31.8871934633094
 42
0.0132137310656236
 10
51.8376878028997
 20
31.7133688387828
  0
LWPOLYLINE
  5
553FB
330
1F
100
AcDbEntity
  8
1
100
AcDbPolyline
 90
       33
 70
     0
 43
0.0
 10
52.7387438735997
 20
31.6389745964828
 42
-0.0239976579643588
 10
52.74921111809618
 20
31.8537604782864
 42
-0.0243841160107499
 10
52.78037857572408
 20
32.0665964483035
 42
-0.0243257296070236
 10
52.8321013716772
 20
32.27538235365847
 42
-0.0243040027694731
 10
52.90384957228252
 20
32.47815552018088
 42
-0.0243979796914049
 10
52.99496667739191
 20
32.67299784776131
 42
-0.0244061406777325
 10
53.10463324317971
 20
32.85803566492982
 42
-0.0244629828121435
 10
53.23183726423511
 20
33.03148476865931
 42
-0.0245370384555397
 10
53.37539071560152
 20
33.19166476134689
 42
-0.0245572375263675
 10
53.5339526057707
 20
33.33700363910458
 42
-0.024628822288659
 10
53.70602510424157
 20
33.46606192468738
 42
-0.0246921292973242
 10
53.88996265179068
 20
33.5775595943658
 42
-0.0247045441526964
 10
54.0840001128771
 20
33.670372785442
 42
-0.0247675267468852
 10
54.2862578554542
 20
33.7435599352318
 42
-0.0248046139439189
 10
54.4947623797729
 20
33.79638313735411
 42
-0.024794379680646
 10
54.7074736725271
 20
33.82829646708689
 42
-0.0248335962222046
 10
54.92230007682343
 20
33.8389715258009
 42
-0.0248335702226292
 10
55.13712698643013
 20
33.82830544941157
 42
-0.0247943871488201
 10
55.34983959967809
 20
33.79640100471059
 42
-0.0248046557547618
 10
55.55834631664584
 20
33.74358651509439
 42
-0.0247675165626744
 10
55.7606072006375
 20
33.67040776563107
 42
-0.0247045645207714
 10
55.95464849178634
 20
33.57760265722971
 42
-0.0246921799463374
 10
56.13859068906032
 20
33.4661126189375
 42
-0.0246288214796536
 10
56.31066861911509
 20
33.3370613967964
 42
-0.0245572635967338
 10
56.46923646758171
 20
33.19172910734778
 42
-0.0245370933361928
 10
56.61279658040109
 20
33.03155497169419
 42
-0.0244629932830414
 10
56.74000783185585
 20
32.85811094634278
 42
-0.0244060851262408
 10
56.84968161812292
 20
32.67307828836229
 42
-0.0243981746354667
 10
56.94080727423813
 20
32.47823845939431
 42
-0.0243044191191167
 10
57.01256475123381
 20
32.27546464687748
 42
-0.0243238349900539
 10
57.06429246011811
 20
32.0666970113607
 42
-0.0243867504121875
 10
57.09547195138751
 20
31.85384024062179
 42
-0.0240066531044628
 10
57.10594694079969
 20
31.6389745964828
  0
LWPOLYLINE
  5
553FC
330
1F
100
AcDbEntity
  8
1
100
AcDbPolyline
 90
       19
 70
     0
 43
0.0
 10
52.12927010789968
 20
31.6389745964828
 42
-0.0213680958732959
 10
52.14017145696351
 20
31.89073417044497
 42
-0.0216512811242515
 10
52.17266371542033
 20
32.14069423318858
 42
-0.021617216151958
 10
52.22664344310641
 20
32.38690080091388
 42
-0.0215993365625426
 10
52.30167089008884
 20
32.6275236940088
 42
-0.0216583926718724
 10
52.39719870760734
 20
32.8607714734417
 42
-0.0216695470961163
 10
52.51255639970259
 20
33.08487550315581
 42
-0.0217222656754309
 10
52.64690348175619
 20
33.2981369255362
 42
-0.0217570568392451
 10
52.79925419786682
 20
33.49893226379098
 42
-0.0217853930843235
 10
52.96849556225947
 20
33.68571239994148
 42
-0.0218542674615145
 10
53.15337017052119
 20
33.85703243222619
 42
-0.0218760361267853
 10
53.35249598871212
 20
34.01155769095931
 42
-0.0219144097882651
 10
53.56437841853486
 20
34.1480660336735
 42
-0.0219767593954439
 10
53.78740895461934
 20
34.2654820097745
 42
-0.0219803375103033
 10
54.01988516527061
 20
34.36286919363889
 42
-0.0220203530878861
 10
54.26001421652301
 20
34.4394382194838
 42
-0.0220562953204158
 10
54.50596443674417
 20
34.49458383630997
 42
-0.0220465795965801
 10
54.75583220637881
 20
34.52785525133558
 42
-0.0220489319189122
 10
55.00765394769968
 20
34.53897178838278
  0
LWPOLYLINE
  5
553FD
330
1F
100
AcDbEntity
  8
1
100
AcDbPolyline
 90
       58
 70
     0
 43
0.0
 10
51.2846511564997
 20
31.69594300468282
 42
0.0135816295256313
 10
51.29740042159844
 20
31.49031301944429
 42
0.0136475760260475
 10
51.32132434143532
 20
31.28566191062819
 42
0.0135950115012125
 10
51.35624752709969
 20
31.08325596468278
 42
0.0136356060379038
 10
51.40227995620819
 20
30.88242386792578
 42
0.0136543851087042
 10
51.45919846760043
 20
30.68440029914331
 42
0.0136580163635194
 10
51.52684215534702
 20
30.48977937526408
 42
0.0136686390356217
 10
51.6050172028155
 20
30.29914468278182
 42
0.0136864783013645
 10
51.6934980259256
 20
30.1130692844304
 42
0.0136948594351807
 10
51.7920296316802
 20
29.9321150975712
 42
0.0137098664228232
 10
51.90032736978344
 20
29.75683116067571
 42
0.0137303183328048
 10
52.01807525532569
 20
29.58775051113889
 42
0.0137411661161142
 10
52.14492927753719
 20
29.4253901728104
 42
0.0137583549536368
 10
52.28051764785641
 20
29.27024962356538
 42
0.0137802341461273
 10
52.42443932824833
 20
29.12280707251779
 42
0.0137917880730902
 10
52.57626758789413
 20
28.9835198723658
 42
0.0138092387769478
 10
52.73555047273532
 20
28.85282298761706
 42
0.0138308136574525
 10
52.90181006498105
 20
28.7311249061093
 42
0.0138412370261522
 10
53.07454603253233
 20
28.61880860017081
 42
0.013857023804028
 10
53.25323647762534
 20
28.51623002398208
 42
0.0138765077173507
 10
53.43733797503702
 20
28.4237138478284
 42
0.0138840552525586
 10
53.62628908891284
 20
28.34155499566447
 42
0.013896397636438
 10
53.81951160430123
 20
28.2700173348538
 42
0.0139121915626118
 10
54.0164113902837
 20
28.20932942578941
 42
0.0139154127865403
 10
54.21638176006601
 20
28.15968667790258
 42
0.0139228897614731
 10
54.41880504992184
 20
28.1212503996961
 42
0.0139337845039564
 10
54.62305427101501
 20
28.09414376000447
 42
0.0139794509030589
 10
54.82920109269969
 20
28.07842052608279
 42
0.013933412480627
 10
55.03519877065508
 20
28.074240103151
 42
0.0139387767099913
 10
55.24110941538186
 20
28.08154166013057
 42
0.0139310798391176
 10
55.44629371025161
 20
28.10030149953198
 42
0.0139267953825571
 10
55.650114702829
 20
28.13045996042857
 42
0.0139265732931961
 10
55.85194069854683
 20
28.17191828967072
 42
0.0139135228086939
 10
56.05114725510467
 20
28.22454244744319
 42
0.0139037937835521
 10
56.24711890744541
 20
28.2881638085411
 42
0.0138986137874006
 10
56.43925245065003
 20
28.36257665245231
 42
0.0138811184726675
 10
56.626958198332
 20
28.44754227790057
 42
0.0138670682115112
 10
56.80966141865136
 20
28.54279014745096
 42
0.0138581247455792
 10
56.98680584810233
 20
28.64801602058381
 42
0.0138375793864964
 10
57.15785414364359
 20
28.7628861825763
 42
0.0138208072156803
 10
57.32228894500003
 20
28.88703888177289
 42
0.0138097008582365
 10
57.47961647993552
 20
29.02008307307631
 42
0.0137878095052871
 10
57.62936621256
 20
29.1616025732867
 42
0.0137701821567672
 10
57.77109151982665
 20
29.31115761491307
 42
0.0137587193119907
 10
57.90437330304894
 20
29.46828416683099
 42
0.0137372870214614
 10
58.02881888494002
 20
29.63249782617122
 42
0.0137207260967825
 10
58.14406235030251
 20
29.80329536127058
 42
0.0137107185411918
 10
58.24976810115271
 20
29.98015452826189
 42
0.0136914138104003
 10
58.34562910660491
 20
30.1625375628908
 42
0.0136777439444527
 10
58.43136702444991
 20
30.3498926186443
 42
0.0136708501337474
 10
58.50673559883816
 20
30.54165420745848
 42
0.0136547153943652
 10
58.57151868853683
 20
30.73724591137719
 42
0.0136459812499426
 10
58.62552983502581
 20
30.9360815995627
 42
0.0135784912564482
 10
58.66843325873944
 20
31.1365887278898
 42
0.0136276271600636
 10
58.70052534291281
 20
31.34011603152732
 42
0.0136317484469219
 10
58.72147931194394
 20
31.54508431854058
 42
0.013645342050151
 10
58.73122641435168
 20
31.75090412544782
 42
0.0136416292687562
 10
58.72972676559971
 20
31.95788323668279
  0
LINE
  5
553FE
330
1F
100
AcDbEntity
  8
1
100
AcDbLine
 10
58.45036839780004
 20
25.9667334349825
 30
0.0
 11
57.14382172150004
 21
25.20673343498248
 31
0.0
  0
LWPOLYLINE
  5
553FF
330
1F
100
AcDbEntity
  8
1
100
AcDbPolyline
 90
        4
 70
     0
 43
0.0
 10
57.14382172179973
 20
25.20673340288281
 42
-0.0006533183334562
 10
55.97132978865031
 20
25.1992140551468
 42
-0.0006533125958754
 10
54.79882158505898
 20
25.19475876506559
 42
-0.0006533053241641
 10
53.62630635489972
 20
25.19336752418281
  0
LWPOLYLINE
  5
55400
330
1F
100
AcDbEntity
  8
1
100
AcDbPolyline
 90
       16
 70
     0
 43
0.0
 10
53.53911900539967
 20
31.1604923291828
 42
0.0380326526592998
 10
53.50938268859701
 20
31.12570798216049
 42
0.0404014965574209
 10
53.48499036169361
 20
31.08597909253481
 42
0.0399508970165857
 10
53.4672391373997
 20
31.0427801591828
 42
0.0388747949565312
 10
53.45669696706512
 20
30.998222682044
 42
0.0399302071238011
 10
53.45319580769512
 20
30.95157841314691
 42
0.0389398484737172
 10
53.4569750427984
 20
30.90594717799249
 42
0.0389782940958574
 10
53.46779646602451
 20
30.86145676252157
 42
0.0391823221920165
 10
53.48540250494662
 20
30.81919041912089
 42
0.0391561260580679
 10
53.50938152163809
 20
30.7801846208892
 42
0.0393194214369974
 10
53.53916768269343
 20
30.74541063494379
 42
0.039584749396163
 10
53.57404008190503
 20
30.71574213009507
 42
0.0394936848555092
 10
53.6131474943904
 20
30.69193129364256
 42
0.0397405003204298
 10
53.65552242014755
 20
30.6745909213438
 42
0.0402088775572878
 10
53.70012589783963
 20
30.6642081415593
 42
0.0365179763531914
 10
53.7430672740997
 20
30.6609739527828
  0
LWPOLYLINE
  5
55401
330
1F
100
AcDbEntity
  8
1
100
AcDbPolyline
 90
       15
 70
     0
 43
0.0
 10
53.53911900539967
 20
31.1604923291828
 42
0.0277271116471664
 10
53.58969787277661
 20
31.21702707512
 42
0.0283783998765584
 10
53.63365096471042
 20
31.2788909416891
 42
0.0281799577845497
 10
53.67033418158872
 20
31.34532017380621
 42
0.0280285647338928
 10
53.69933578208935
 20
31.415442782545
 42
0.0280690377123557
 10
53.7203120294966
 20
31.48837025557089
 42
0.0279881237893799
 10
53.73299791939411
 20
31.5631868376513
 42
0.0279987849505963
 10
53.73724335255758
 20
31.63895230439673
 42
0.0279987105408494
 10
53.73300290069934
 20
31.7147180496155
 42
0.0279880578254032
 10
53.72032196178344
 20
31.7895353234162
 42
0.028069295059271
 10
53.69935035738842
 20
31.86246469173929
 42
0.0280288468932608
 10
53.67035291996541
 20
31.93259005137337
 42
0.028177219963487
 10
53.63367769596471
 20
31.99901570282147
 42
0.0283830151013939
 10
53.5897219205712
 20
32.0608920257331
 42
0.0277413139735761
 10
53.53911900539967
 20
32.11745686388281
  0
LWPOLYLINE
  5
55402
330
1F
100
AcDbEntity
  8
1
100
AcDbPolyline
 90
        4
 70
     0
 43
0.0
 10
53.7430672740997
 20
30.6609739527828
 10
53.768784893612
 20
30.6621440871181
 10
53.79432789695534
 20
30.66561504366871
 10
53.8194431167997
 20
30.6713104380828
  0
LWPOLYLINE
  5
55403
330
1F
100
AcDbEntity
  8
1
100
AcDbPolyline
 90
       22
 70
     0
 43
0.0
 10
58.2909615040997
 20
31.94056339948281
 42
-0.0136660872836224
 10
58.29225560866942
 20
31.76061613903357
 42
-0.0137810498252573
 10
58.28364616510021
 20
31.58024185078898
 42
-0.0137665133244233
 10
58.26512039679966
 20
31.40064925198279
 42
-0.0137182586884897
 10
58.23684718002971
 20
31.22291837115998
 42
-0.0137777918415035
 10
58.19873412829693
 20
31.0464763750212
 42
-0.0137760550154355
 10
58.15097899459971
 20
30.8724632059828
 42
-0.0137495155508044
 10
58.09387301602118
 20
30.70179734766458
 42
-0.0137977575074586
 10
58.02731257895411
 20
30.5341703361456
 42
-0.0137991813060778
 10
57.95165040729973
 20
30.37056219738277
 42
-0.0137926163586718
 10
57.86721459983272
 20
30.21163299656948
 42
-0.0138267178737125
 10
57.77405423348151
 20
30.05747451027358
 42
-0.0138299828005127
 10
57.6725853977997
 20
29.90880442148279
 42
-0.0138465473881143
 10
57.56306429529169
 20
29.76600051202121
 42
-0.0138613965135642
 10
57.44588786697812
 20
29.62957974949558
 42
-0.0138638394058399
 10
57.32143505609968
 20
29.49996906098281
 42
-0.0139062490324694
 10
57.18977461592553
 20
29.37727759360307
 42
-0.0138989693396586
 10
57.05183575943371
 20
29.26237302009298
 42
-0.0138930006912146
 10
56.9078544551997
 20
29.1554024028828
 42
-0.0139697851466761
 10
56.75764496400944
 20
29.05629018379858
 42
-0.0139519903594121
 10
56.60276065812311
 20
28.9660800722688
 42
-0.0138624284653449
 10
56.4432505966997
 20
28.88469679588281
  0
LWPOLYLINE
  5
55404
330
1F
100
AcDbEntity
  8
1
100
AcDbPolyline
 90
        4
 70
     0
 43
0.0
 10
56.02524769769968
 20
30.6713104380828
 10
56.05035408783553
 20
30.6656166430474
 10
56.07589852167683
 20
30.66214475978707
 10
56.10162354039968
 20
30.6609739527828
  0
LWPOLYLINE
  5
55405
330
1F
100
AcDbEntity
  8
1
100
AcDbPolyline
 90
        4
 70
     0
 43
0.0
 10
56.02524769769968
 20
30.6713104380828
 42
0.0220729938662146
 10
55.96731093657098
 20
30.68449022874748
 42
0.0224227932521536
 10
55.90840811884834
 20
30.69247882757878
 42
0.0223735996874241
 10
55.84901867349969
 20
30.6951421047828
  0
LWPOLYLINE
  5
55406
330
1F
100
AcDbEntity
  8
1
100
AcDbPolyline
 90
       19
 70
     0
 43
0.0
 10
55.00765394749968
 20
28.7389774046828
 42
0.0220451010994965
 10
55.25943225503709
 20
28.7500900983334
 42
0.0220432174112832
 10
55.5092625715169
 20
28.78335093484358
 42
0.0220562228429094
 10
55.75521337015491
 20
28.83848921100949
 42
0.0220209942140528
 10
55.99535163813232
 20
28.91505383043691
 42
0.021980105324171
 10
56.22782781654581
 20
29.01243364469389
 42
0.0219767324274673
 10
56.45086115609351
 20
29.12984326750447
 42
0.0219144668113772
 10
56.66274788802636
 20
29.26634616989331
 42
0.0218760430524667
 10
56.86187771845414
 20
29.4208658423394
 42
0.0218542703372446
 10
57.04675698499523
 20
29.59218081811622
 42
0.0217854024234376
 10
57.21600345172234
 20
29.77895637472419
 42
0.0217570970864751
 10
57.3683596764447
 20
29.97974765583101
 42
0.0217222670712149
 10
57.5027125636231
 20
30.19300549482248
 42
0.0216694796272244
 10
57.61807593328942
 20
30.4171056031592
 42
0.0216585957871328
 10
57.71361079117958
 20
30.65035266011157
 42
0.0215995732490803
 10
57.78864534315736
 20
30.8909762878798
 42
0.0216156976678121
 10
57.8426283568389
 20
31.137164197076
 42
0.0216534817529842
 10
57.87513065190168
 20
31.38714797035671
 42
0.021373827544568
 10
57.88603778739974
 20
31.6389745964828
  0
LWPOLYLINE
  5
55407
330
1F
100
AcDbEntity
  8
1
100
AcDbPolyline
 90
       10
 70
     0
 43
0.0
 10
54.6420212958997
 20
30.19282817068282
 42
0.0351402218575577
 10
54.65567065310233
 20
30.15270496032125
 42
0.036518387608289
 10
54.67491380704752
 20
30.11491062078671
 42
0.0364673584012438
 10
54.69945709546303
 20
30.08032602146432
 42
0.0364179800896607
 10
54.72876091487595
 20
30.0496716004923
 42
0.0365694754763637
 10
54.76220497351784
 20
30.02359722741399
 42
0.0366810371145988
 10
54.79909704671641
 20
30.00269385652101
 42
0.0368778966284794
 10
54.83866192754783
 20
29.9874137821204
 42
0.0368144112810502
 10
54.88004581442703
 20
29.97810100052991
 42
0.036791593110328
 10
54.92234540719971
 20
29.97497721688278
  0
LWPOLYLINE
  5
55408
330
1F
100
AcDbEntity
  8
1
100
AcDbPolyline
 90
       13
 70
     0
 43
0.0
 10
54.6420212958997
 20
30.19282817068282
 42
0.0267070118928142
 10
54.61969261727901
 20
30.26268393034138
 42
0.0272765499225854
 10
54.58996102938664
 20
30.32975906613748
 42
0.0272524949590045
 10
54.55310199401154
 20
30.39319362786589
 42
0.0272424569145713
 10
54.50956461904644
 20
30.4522413316916
 42
0.0273469437200136
 10
54.45985766629099
 20
30.50619959447758
 42
0.0273897279370509
 10
54.40455053451135
 20
30.55440086714937
 42
0.027502618516511
 10
54.34429681180524
 20
30.5962550494462
 42
0.0275110472052088
 10
54.27981453608703
 20
30.63124552536598
 42
0.027577655802123
 10
54.21187847831152
 20
30.65892731907137
 42
0.0276606106877819
 10
54.14129811424231
 20
30.67895862868258
 42
0.0276261336141204
 10
54.06893087521442
 20
30.69108347261039
 42
0.0276367336099956
 10
53.99567214099971
 20
30.6951421047828
  0
LWPOLYLINE
  5
55409
330
1F
100
AcDbEntity
  8
1
100
AcDbPolyline
 90
       15
 70
     0
 43
0.0
 10
56.30557180909969
 20
32.11745686388281
 42
0.0277271116616145
 10
56.25499294172283
 20
32.06092211794558
 42
0.0283783998322701
 10
56.21103984978901
 20
31.99905825137648
 42
0.0281799575965586
 10
56.17435663291084
 20
31.93262901925939
 42
0.0280285647448899
 10
56.14535503241021
 20
31.86250641052058
 42
0.0280690377701985
 10
56.12437878500291
 20
31.78957893749473
 42
0.0279881237017281
 10
56.11169289510542
 20
31.71476235541428
 42
0.0279987850104101
 10
56.10744746194183
 20
31.63899688866889
 42
0.0279987105071797
 10
56.11168791380013
 20
31.56323114345023
 42
0.0279880579812092
 10
56.12436885271603
 20
31.48841386964938
 42
0.0280692952054874
 10
56.14534045711113
 20
31.41548450132629
 42
0.0280288468470123
 10
56.17433789453412
 20
31.34535914169223
 42
0.0281772201178002
 10
56.21101311853485
 20
31.27893349024406
 42
0.0283830150870241
 10
56.2549688939282
 20
31.21705716733249
 42
0.0277413138578503
 10
56.30557180909969
 20
31.1604923291828
  0
LWPOLYLINE
  5
5540A
330
1F
100
AcDbEntity
  8
1
100
AcDbPolyline
 90
       15
 70
     0
 43
0.0
 10
56.20659478629969
 20
30.68078288778281
 42
0.0359566132314539
 10
56.24395037409437
 20
30.69858168241498
 42
0.0356639930646197
 10
56.27839424048733
 20
30.7215378652034
 42
0.0357327082101609
 10
56.30922746692852
 20
30.7491702920538
 42
0.0355590104529128
 10
56.3358244080984
 20
30.78089413864598
 42
0.0353859449577005
 10
56.35766333437039
 20
30.81606240791058
 42
0.0354331842962304
 10
56.37432664361137
 20
30.85395920050721
 42
0.0352170568163566
 10
56.38548977553051
 20
30.8938246172394
 42
0.0352787919077293
 10
56.39093961832421
 20
30.93486304483273
 42
0.0352368182961437
 10
56.3905759782551
 20
30.9762603343994
 42
0.0351844378994897
 10
56.3843968255756
 20
31.01719547371909
 42
0.0352302697742163
 10
56.3725420694692
 20
31.0568593388189
 42
0.0355190478154778
 10
56.35521848933144
 20
31.09445423919658
 42
0.0357383480152066
 10
56.3327045671572
 20
31.12921779371399
 42
0.0343490053462405
 10
56.30557180909969
 20
31.1604923291828
  0
LWPOLYLINE
  5
5540B
330
1F
100
AcDbEntity
  8
1
100
AcDbPolyline
 90
        4
 70
     0
 43
0.0
 10
56.10162354039968
 20
30.6609739527828
 42
0.0303935157948822
 10
56.13732800950964
 20
30.66321005814621
 42
0.0314454253681378
 10
56.17250990282491
 20
30.66983110967181
 42
0.0307296801138967
 10
56.20659478629969
 20
30.68078288778281
  0
LWPOLYLINE
  5
5540C
330
1F
100
AcDbEntity
  8
1
100
AcDbPolyline
 90
       13
 70
     0
 43
0.0
 10
55.84901867349969
 20
30.6951421047828
 42
0.0276289892397281
 10
55.77578024141536
 20
30.69108572932908
 42
0.0276186596263504
 10
55.70343207910534
 20
30.67896748426782
 42
0.0276602247387446
 10
55.63285160364333
 20
30.65894084645038
 42
0.0275792529819812
 10
55.5649099096409
 20
30.63126144348891
 42
0.0275105593323133
 10
55.50042696848533
 20
30.59627535707658
 42
0.0275024601466417
 10
55.440171158953
 20
30.55442493372181
 42
0.0273897571627171
 10
55.38486116978899
 20
30.5062268533049
 42
0.0273474065366342
 10
55.33515049663566
 20
30.4522707856209
 42
0.0272426120245643
 10
55.29160951740223
 20
30.39322515734421
 42
0.0272495543868475
 10
55.25475048058533
 20
30.32979961874449
 42
0.0272817663461396
 10
55.22500963360844
 20
30.2627140452212
 42
0.0267188217606575
 10
55.20266951859969
 20
30.19282817068282
  0
LWPOLYLINE
  5
5540D
330
1F
100
AcDbEntity
  8
1
100
AcDbPolyline
 90
       10
 70
     0
 43
0.0
 10
54.92234540719971
 20
29.97497721688278
 42
0.0367734783576987
 10
54.96462462679232
 20
29.9780979720837
 42
0.0367960994360765
 10
55.00598876013461
 20
29.9874015971975
 42
0.0368752918997543
 10
55.04555303859593
 20
30.00267457739031
 42
0.0366853189929538
 10
55.08245257580253
 20
30.02357501089023
 42
0.0365691350591311
 10
55.11589950000535
 20
30.04964411542358
 42
0.0364169428459664
 10
55.14520696614102
 20
30.08029361426557
 42
0.0364621283182051
 10
55.16975224132849
 20
30.1148697009337
 42
0.0365325553543971
 10
55.1890074290975
 20
30.15267472243408
 42
0.0351677600073256
 10
55.20266951859969
 20
30.19282817068282
  0
LWPOLYLINE
  5
5540E
330
1F
100
AcDbEntity
  8
1
100
AcDbPolyline
 90
       37
 70
     0
 43
0.0
 10
51.8376878028997
 20
31.7133688387828
 42
0.0135207021239453
 10
51.84866986105231
 20
31.53589365070707
 42
0.0136001689799567
 10
51.86927932480301
 20
31.3590766438152
 42
0.0135768933429053
 10
51.89943313134953
 20
31.18382244053609
 42
0.0135747245343154
 10
51.93905391148053
 20
31.01046457591849
 42
0.0135930678414719
 10
51.9880298631401
 20
30.8395127806829
 42
0.0135965939959918
 10
52.04622385901831
 20
30.67147539950671
 42
0.0136075325641295
 10
52.11347068369651
 20
30.5068518026238
 42
0.0136248347669683
 10
52.18957795202903
 20
30.34613236226987
 42
0.0136328735363711
 10
52.27432841067852
 20
30.1897980915848
 42
0.0136484460715183
 10
52.36747939150652
 20
30.03831901345098
 42
0.0136681344062995
 10
52.46876151443283
 20
29.89215155030198
 42
0.0136785716004533
 10
52.57788170844611
 20
29.75173867931031
 42
0.0136966107949561
 10
52.69452299394259
 20
29.61750835132921
 42
0.0137174623712787
 10
52.81834348780072
 20
29.48987047971289
 42
0.0137286148867672
 10
52.94897959236232
 20
29.3692174963513
 42
0.0137472412849667
 10
53.08604590448033
 20
29.25592259317557
 42
0.0137675446458779
 10
53.22913492370119
 20
29.15033654314931
 42
0.0137776054056468
 10
53.37782018811498
 20
29.05278876296481
 42
0.0137949374752018
 10
53.53165649459405
 20
28.96358537094612
 42
0.0138129346191211
 10
53.69018030579892
 20
28.88300602732781
 42
0.0138201737330104
 10
53.8529128027111
 20
28.81130551977029
 42
0.0138344610480124
 10
54.01936048016361
 20
28.74871176129079
 42
0.0138485903862271
 10
54.18901624148131
 20
28.69542282484858
 42
0.0138515480507055
 10
54.36136225365311
 20
28.65160908184689
 42
0.0138613829899363
 10
54.53587095511309
 20
28.6174112846227
 42
0.0138704722968946
 10
54.71200675480941
 20
28.59293795973284
 42
0.0138681368903464
 10
54.88922856020352
 20
28.5782680917983
 42
0.013872652158715
 10
55.06699115731144
 20
28.57344943065296
 42
0.0138761215617416
 10
55.24474742116911
 20
28.57849642438939
 42
0.0138678789146876
 10
55.42195031517451
 20
28.59339327067459
 42
0.0138670514112824
 10
55.59805445857063
 20
28.61809258773221
 42
0.0138656220244351
 10
55.77251923132042
 20
28.65251462928538
 42
0.0138491336893188
 10
55.94480944508652
 20
28.69654890053889
 42
0.0138459301602625
 10
56.11439530508892
 20
28.75005334558989
 42
0.013848442104372
 10
56.2807667849546
 20
28.81286534773898
 42
0.0137781880695692
 10
56.4432504959997
 20
28.8846967981828
  0
LWPOLYLINE
  5
5540F
330
1F
100
AcDbEntity
  8
1
100
AcDbPolyline
 90
       33
 70
     0
 43
0.0
 10
52.7387438735997
 20
31.6389745964828
 42
0.0239976579525041
 10
52.74921111811034
 20
31.42418871468449
 42
0.0243841159770585
 10
52.78037857573162
 20
31.21135274467
 42
0.0243257296376497
 10
52.83210137167393
 20
31.00256683931642
 42
0.0243040028089189
 10
52.90384957230021
 20
30.79979367280723
 42
0.0243979796583971
 10
52.99496667742991
 20
30.6049513452403
 42
0.024406140669925
 10
53.10463324321901
 20
30.41991352807719
 42
0.0244629828419705
 10
53.23183726427592
 20
30.24646442435449
 42
0.024537038460778
 10
53.37539071564521
 20
30.0862844316753
 42
0.0245572375287141
 10
53.53395260581502
 20
29.94094555392472
 42
0.0246288222846499
 10
53.70602510428461
 20
29.81188726834597
 42
0.0246921293259088
 10
53.8899626518357
 20
29.7003895986802
 42
0.0247045441033607
 10
54.08400011292042
 20
29.60757640761253
 42
0.0247675266855748
 10
54.2862578554776
 20
29.53438925777309
 42
0.0248046139983311
 10
54.49476237977845
 20
29.48156605560239
 42
0.0247943797083084
 10
54.70747367252835
 20
29.4496527258751
 42
0.0248335962020278
 10
54.9223000768211
 20
29.4389776671695
 42
0.0248335702116867
 10
55.13712698642411
 20
29.44964374354999
 42
0.0247943871789582
 10
55.34983959966973
 20
29.4815481882452
 42
0.0248046558334066
 10
55.55834631661852
 20
29.53436267790929
 42
0.0247675164952859
 10
55.76060720058902
 20
29.60754142742099
 42
0.0247045644741279
 10
55.95464849173831
 20
29.7003465358147
 42
0.024692179971186
 10
56.13859068901414
 20
29.81183657409369
 42
0.0246288214839864
 10
56.31066861906734
 20
29.9408877962299
 42
0.0245572635958469
 10
56.46923646753521
 20
30.08622008567122
 42
0.0245370933434908
 10
56.61279658035699
 20
30.24639422131679
 42
0.0244629932787443
 10
56.74000783181472
 20
30.41983824666071
 42
0.0244060851314024
 10
56.84968161808612
 20
30.6048709046338
 42
0.0243981746339646
 10
56.94080727420661
 20
30.79971073359459
 42
0.0243044191252238
 10
57.01256475120871
 20
31.00248454610457
 42
0.0243238349906107
 10
57.06429246010043
 20
31.21125218161521
 42
0.0243867504148534
 10
57.09547195137822
 20
31.42410895234849
 42
0.0240066530951218
 10
57.10594694079969
 20
31.6389745964828
  0
LWPOLYLINE
  5
55410
330
1F
100
AcDbEntity
  8
1
100
AcDbPolyline
 90
        4
 70
     0
 43
0.0
 10
53.99567214099971
 20
30.6951421047828
 42
0.0223655755521771
 10
53.93630359893982
 20
30.69248070878581
 42
0.0224256375057687
 10
53.87739355025752
 20
30.684492709154
 42
0.0220781716645648
 10
53.8194431167997
 20
30.6713104380828
  0
LWPOLYLINE
  5
55411
330
1F
100
AcDbEntity
  8
1
100
AcDbPolyline
 90
       19
 70
     0
 43
0.0
 10
52.12927010789968
 20
31.6389745964828
 42
0.02136809586384
 10
52.14017145697113
 20
31.38721502253688
 42
0.0216512811162878
 10
52.1726637154311
 20
31.13725495980921
 42
0.0216172161616173
 10
52.2266434431192
 20
30.89104839209989
 42
0.0215993365498441
 10
52.30167089010802
 20
30.6504254990252
 42
0.0216583926122629
 10
52.39719870760666
 20
30.41717771959998
 42
0.0216695471243038
 10
52.51255639966143
 20
30.19307368988048
 42
0.0217222657479416
 10
52.64690348172559
 20
29.97981226752973
 42
0.021757056747607
 10
52.79925419784271
 20
29.77901692929859
 42
0.0217853930628549
 10
52.96849556218254
 20
29.592236793117
 42
0.0218542675793096
 10
53.15337017042873
 20
29.42091676084357
 42
0.021876036107488
 10
53.3524959886376
 20
29.26639150216008
 42
0.0219144097294929
 10
53.5643784184478
 20
29.12988315945109
 42
0.0219767593976394
 10
53.78740895450841
 20
29.01246718334049
 42
0.0219803375122069
 10
54.0198851651416
 20
28.91507999947391
 42
0.0220203530806634
 10
54.26001421637568
 20
28.83851097362234
 42
0.0220562953178694
 10
54.50596443657833
 20
28.78336535678509
 42
0.0220465795931659
 10
54.75583220619521
 20
28.7500939417462
 42
0.0220489319144925
 10
55.00765394749968
 20
28.7389774046828
  0
LWPOLYLINE
  5
55412
330
1F
100
AcDbEntity
  8
1
100
AcDbPolyline
 90
       22
 70
     0
 43
0.0
 10
48.3715463106997
 20
31.59156843238279
 42
-0.0136660872798927
 10
48.37284041526493
 20
31.41162117193457
 42
-0.0137810497963179
 10
48.3642309717057
 20
31.23124688378869
 42
-0.0137665133839308
 10
48.34570520339969
 20
31.05165428498279
 42
-0.0137182587323642
 10
48.31743198657832
 20
30.87392340416972
 42
-0.0137777917698385
 10
48.27931893478418
 20
30.69748140792422
 42
-0.0137760549600256
 10
48.2315638010997
 20
30.5234682388828
 42
-0.013749515541091
 10
48.17445782256019
 20
30.35280238055229
 42
-0.0137977575560346
 10
48.10789738556144
 20
30.18517536914307
 42
-0.0137991813415966
 10
48.03223521389972
 20
30.0215672303828
 42
-0.0137926163385003
 10
47.94779940642513
 20
29.86263802957538
 42
-0.0138267177855466
 10
47.85463904010168
 20
29.70847954326021
 42
-0.0138299828930675
 10
47.75317020439968
 20
29.55980945438279
 42
-0.0138465474330216
 10
47.64364910185401
 20
29.4170055449541
 42
-0.0138613963335326
 10
47.5264726735906
 20
29.28058478248309
 42
-0.0138638394780587
 10
47.40201986269968
 20
29.15097409388281
 42
-0.0139062491544326
 10
47.2703594225006
 20
29.02828262653299
 42
-0.0138989693096525
 10
47.13242056601359
 20
28.9133780531183
 42
-0.013893000593773
 10
46.98843926169971
 20
28.80640743588279
 42
-0.0139697850970028
 10
46.83822977052881
 20
28.7072952167693
 42
-0.0139519904470437
 10
46.68334546472368
 20
28.6170851052691
 42
-0.0138624285094653
 10
46.52383540319968
 20
28.5357018288828
  0
LWPOLYLINE
  5
55413
330
1F
100
AcDbEntity
  8
1
100
AcDbPolyline
 90
        4
 70
     0
 43
0.0
 10
45.9871890007997
 20
30.44184996648278
 10
46.01229539097443
 20
30.4361561716677
 10
46.0378398247986
 20
30.43268428841398
 10
46.06356484349968
 20
30.43151348118281
  0
LWPOLYLINE
  5
55414
330
1F
100
AcDbEntity
  8
1
100
AcDbPolyline
 90
        4
 70
     0
 43
0.0
 10
45.9871890007997
 20
30.44184996648278
 42
0.0220729941516394
 10
45.92925223968603
 20
30.4550297572344
 42
0.0224227934846785
 10
45.87034942195794
 20
30.46301835606758
 42
0.022373600165528
 10
45.81095997659969
 20
30.46568163318279
  0
LWPOLYLINE
  5
55415
330
1F
100
AcDbEntity
  8
1
100
AcDbPolyline
 90
       19
 70
     0
 43
0.0
 10
44.9695952505997
 20
28.50951693318279
 42
0.0220451010083997
 10
45.22137355813891
 20
28.52062962682108
 42
0.022043217429289
 10
45.47120387463292
 20
28.55389046325271
 42
0.0220562230187422
 10
45.71715467325541
 20
28.6090287394602
 42
0.0220209941046376
 10
45.95729294120835
 20
28.68559335896597
 42
0.021980105249361
 10
46.1897691196471
 20
28.7829731731762
 42
0.0219767325462035
 10
46.4128024592035
 20
28.9003827959624
 42
0.0219144668214634
 10
46.62468919111435
 20
29.03688569838397
 42
0.0218760430069374
 10
46.82381902154093
 20
29.1914053708357
 42
0.0218542703421035
 10
47.00869828808731
 20
29.3627203466057
 42
0.0217854024321373
 10
47.17794475481404
 20
29.5494959032138
 42
0.0217570970783855
 10
47.33030097953767
 20
29.75028718432048
 42
0.0217222670821178
 10
47.46465386671604
 20
29.96354502331181
 42
0.021669479620105
 10
47.58001723638199
 20
30.18764513164787
 42
0.0216585957738872
 10
47.67555209428394
 20
30.4208921885971
 42
0.0215995733078145
 10
47.75058664624802
 20
30.6615158163693
 42
0.0216156976675066
 10
47.80456965986866
 20
30.90770372557748
 42
0.0216534816536028
 10
47.8370719549238
 20
31.1576874988607
 42
0.0213738274742064
 10
47.8479790904997
 20
31.40951412498279
  0
LWPOLYLINE
  5
55416
330
1F
100
AcDbEntity
  8
1
100
AcDbPolyline
 90
       10
 70
     0
 43
0.0
 10
44.60396259889972
 20
29.9633676990828
 42
0.0351402219715417
 10
44.61761195615719
 20
29.92324448873953
 42
0.0365183870670517
 10
44.63685511014398
 20
29.88545014922488
 42
0.036467358209653
 10
44.6613983985892
 20
29.8508655499214
 42
0.0364179804099142
 10
44.69070221802192
 20
29.82021112897049
 42
0.0365694754867388
 10
44.72414627665734
 20
29.79413675588208
 42
0.0366810375859565
 10
44.76103834982097
 20
29.7732333849213
 42
0.0368778970284872
 10
44.8006032306331
 20
29.75795331047459
 42
0.0368144120231956
 10
44.84198711751901
 20
29.7486405289159
 42
0.036791594493445
 10
44.88428671029971
 20
29.74551674538282
  0
LWPOLYLINE
  5
55417
330
1F
100
AcDbEntity
  8
1
100
AcDbPolyline
 90
       15
 70
     0
 43
0.0
 10
46.26751311209972
 20
31.8879963923828
 42
0.0277271116199944
 10
46.2169342447664
 20
31.83146164641139
 42
0.0283783997956977
 10
46.17298115287249
 20
31.76959777981898
 42
0.0281799575779329
 10
46.13629793602328
 20
31.7031685476903
 42
0.0280285645709358
 10
46.1072963355266
 20
31.63304593895339
 42
0.0280690376881699
 10
46.0863200881092
 20
31.56011846593472
 42
0.027988123742377
 10
46.07363419820219
 20
31.48530188385999
 42
0.0279987851049461
 10
46.069388765035
 20
31.40953641711889
 42
0.0279987106276837
 10
46.07362921689693
 20
31.33377067190429
 42
0.0279880579661899
 10
46.08631015582253
 20
31.25895339810899
 42
0.0280692951970364
 10
46.10728176022758
 20
31.1860240297932
 42
0.0280288469009772
 10
46.13627919764653
 20
31.1158986701615
 42
0.0281772199572998
 10
46.17295442161853
 20
31.04947301870141
 42
0.0283830149655627
 10
46.21691019697201
 20
30.98759669576649
 42
0.027741313885436
 10
46.26751311209972
 20
30.93103185758281
  0
LWPOLYLINE
  5
55418
330
1F
100
AcDbEntity
  8
1
100
AcDbPolyline
 90
       15
 70
     0
 43
0.0
 10
46.16853608939971
 20
30.45132241628281
 42
0.035956615048552
 10
46.2058916772296
 20
30.46912121082157
 42
0.0356639936163449
 10
46.24033554357199
 20
30.49207739367409
 42
0.0357327074041859
 10
46.27116877002353
 20
30.51970982052811
 42
0.0355590100304569
 10
46.29776571123085
 20
30.55143366708731
 42
0.0353859450016139
 10
46.3196046374747
 20
30.58660193636089
 42
0.0354331845001694
 10
46.33626794668981
 20
30.6244987289713
 42
0.0352170567430434
 10
46.34743107861962
 20
30.66436414570109
 42
0.0352787916142178
 10
46.35288092142531
 20
30.70540257329057
 42
0.0352368181776376
 10
46.35251728135822
 20
30.74679986285639
 42
0.0351844380153486
 10
46.34633812867011
 20
30.7877350021742
 42
0.0352302701403628
 10
46.33448337254492
 20
30.82739886726708
 42
0.0355190482599555
 10
46.31715979238203
 20
30.86499376763228
 42
0.0357383480503949
 10
46.29464587018287
 20
30.8997573221329
 42
0.0343490049380274
 10
46.26751311209972
 20
30.93103185758281
  0
LWPOLYLINE
  5
55419
330
1F
100
AcDbEntity
  8
1
100
AcDbPolyline
 90
        4
 70
     0
 43
0.0
 10
46.06356484349968
 20
30.43151348118281
 42
0.0303935162106539
 10
46.0992693126206
 20
30.43374958653081
 42
0.0314454256896989
 10
46.13445120594014
 20
30.44037063809032
 42
0.0307296802761453
 10
46.16853608939971
 20
30.45132241628281
  0
LWPOLYLINE
  5
5541A
330
1F
100
AcDbEntity
  8
1
100
AcDbPolyline
 90
       13
 70
     0
 43
0.0
 10
45.81095997659969
 20
30.46568163318279
 42
0.0276289889921008
 10
45.73772154450469
 20
30.4616252577402
 42
0.0276186595890291
 10
45.66537338216988
 20
30.4495070127615
 42
0.0276602251387039
 10
45.59479290669469
 20
30.42948037496831
 42
0.0275792532062833
 10
45.52685121269883
 20
30.40180097196779
 42
0.0275105592403908
 10
45.462368271547
 20
30.36681488553347
 42
0.0275024597859924
 10
45.40211246198381
 20
30.32496446220282
 42
0.0273897575460449
 10
45.34680247278489
 20
30.27676638180853
 42
0.0273474067182463
 10
45.2970917996956
 20
30.22281031406489
 42
0.0272426112144595
 10
45.25355082049793
 20
30.16376468574731
 42
0.0272495543628305
 10
45.21669178358917
 20
30.10033914718508
 42
0.0272817671306407
 10
45.18695093659448
 20
30.03325357366498
 42
0.0267188222957018
 10
45.1646108216997
 20
29.9633676990828
  0
LWPOLYLINE
  5
5541B
330
1F
100
AcDbEntity
  8
1
100
AcDbPolyline
 90
       10
 70
     0
 43
0.0
 10
44.88428671029971
 20
29.74551674538282
 42
0.0367734792236212
 10
44.9265659298934
 20
29.74863750047058
 42
0.0367961004230517
 10
44.96793006323352
 20
29.75794112557108
 42
0.0368752918655529
 10
45.00749434165967
 20
29.77321410583022
 42
0.0366853179749495
 10
45.04439387881993
 20
29.79411453939881
 42
0.0365691342990995
 10
45.07784080303451
 20
29.82018364391581
 42
0.0364169429831681
 10
45.10714826921184
 20
29.8508331427085
 42
0.0364621285727698
 10
45.13169354442737
 20
29.8854092293482
 42
0.0365325557167341
 10
45.15094873220684
 20
29.92321425083711
 42
0.0351677604463463
 10
45.1646108216997
 20
29.9633676990828
  0
LWPOLYLINE
  5
5541C
330
1F
100
AcDbEntity
  8
1
100
AcDbPolyline
 90
        4
 70
     0
 43
0.0
 10
53.8194431167997
 20
32.60663875498278
 10
53.794336726664
 20
32.61233255001821
 10
53.76879229282261
 20
32.61580443327847
 10
53.7430672740997
 20
32.61697524028281
  0
LWPOLYLINE
  5
5541D
330
1F
100
AcDbEntity
  8
1
100
AcDbPolyline
 90
       13
 70
     0
 43
0.0
 10
53.99567214089967
 20
32.58280708828281
 42
0.0276289891769115
 10
54.0689105729935
 20
32.5868634637263
 42
0.0276186596409191
 10
54.14125873531389
 20
32.59898170877909
 42
0.0276602247653299
 10
54.21183921078531
 20
32.6190083465934
 42
0.0275792529886528
 10
54.27978090479974
 20
32.64668774954839
 42
0.027510559353182
 10
54.34426384597571
 20
32.6816738359434
 42
0.0275024602337661
 10
54.4045196555189
 20
32.72352425929609
 42
0.0273897572844008
 10
54.4598296446805
 20
32.77172233972809
 42
0.027347406378862
 10
54.50954031783948
 20
32.82567840741999
 42
0.0272426119830932
 10
54.5530812970836
 20
32.88472403569958
 42
0.0272495544346192
 10
54.58994033390664
 20
32.94814957430541
 42
0.0272817664248729
 10
54.6196811808879
 20
33.01523514783631
 42
0.0267188217769342
 10
54.6420212958997
 20
33.08512102238279
  0
LWPOLYLINE
  5
5541E
330
1F
100
AcDbEntity
  8
1
100
AcDbPolyline
 90
       10
 70
     0
 43
0.0
 10
54.92234540719971
 20
33.30297197618279
 42
0.03677347828139
 10
54.88006618761471
 20
33.29985122096841
 42
0.0367960998229813
 10
54.83870205428047
 20
33.29054759584409
 42
0.0368752916253891
 10
54.799137775833
 20
33.27527461563682
 42
0.0366853182802669
 10
54.76223823863652
 20
33.25437418213281
 42
0.0365691346775962
 10
54.7287913144182
 20
33.2283050776268
 42
0.0364169430072507
 10
54.69948384826171
 20
33.19765557881479
 42
0.0364621283016334
 10
54.67493857307502
 20
33.16307949215491
 42
0.0365325556602162
 10
54.65568338533734
 20
33.12527447064608
 42
0.0351677604220766
 10
54.6420212958997
 20
33.08512102238279
  0
LWPOLYLINE
  5
5541F
330
1F
100
AcDbEntity
  8
1
100
AcDbPolyline
 90
        4
 70
     0
 43
0.0
 10
55.84901867349969
 20
32.58280708828281
 42
0.0223655755057992
 10
55.90838721555968
 20
32.5854684842798
 42
0.022425637476578
 10
55.96729726424195
 20
32.59345648391158
 42
0.022078171795157
 10
56.02524769769968
 20
32.60663875498278
  0
LWPOLYLINE
  5
55420
330
1F
100
AcDbEntity
  8
1
100
AcDbPolyline
 90
        4
 70
     0
 43
0.0
 10
56.10162354039968
 20
32.61697524028281
 10
56.07590592088752
 20
32.61580510594749
 10
56.0503629175441
 20
32.61233414939699
 10
56.02524769769968
 20
32.60663875498278
  0
LWPOLYLINE
  5
55421
330
1F
100
AcDbEntity
  8
1
100
AcDbPolyline
 90
       10
 70
     0
 43
0.0
 10
55.20266951859969
 20
33.08512102238279
 42
0.0351402218839771
 10
55.18902016133242
 20
33.12524423273007
 42
0.0365183872302405
 10
55.16977700735592
 20
33.16303857225609
 42
0.0364673579432878
 10
55.14523371894012
 20
33.19762317158597
 42
0.0364179800447844
 10
55.11592989954761
 20
33.22827759258848
 42
0.0365694761864264
 10
55.08248584091984
 20
33.25435196569521
 42
0.0366810376918912
 10
55.04559376771294
 20
33.27525533658298
 42
0.0368778969886399
 10
55.00602888686803
 20
33.290535410969
 42
0.0368144115730241
 10
54.96464499997981
 20
33.29984819254921
 42
0.0367915931256012
 10
54.92234540719971
 20
33.30297197618279
  0
LWPOLYLINE
  5
55422
330
1F
100
AcDbEntity
  8
1
100
AcDbPolyline
 90
       13
 70
     0
 43
0.0
 10
55.20266951859969
 20
33.08512102238279
 42
0.0267070117554835
 10
55.22499819722193
 20
33.01526526272321
 42
0.027276549783181
 10
55.25472978511292
 20
32.94819012692329
 42
0.02725249508114
 10
55.2915888204896
 20
32.88475556519171
 42
0.0272424569256664
 10
55.33512619547019
 20
32.8257078613799
 42
0.0273469433025443
 10
55.38483314820559
 20
32.77174959857101
 42
0.0273897279820806
 10
55.44014027992182
 20
32.72354832581499
 42
0.0275026191713174
 10
55.50039400263154
 20
32.68169414353139
 42
0.0275110472035801
 10
55.56487627840002
 20
32.64670366770298
 42
0.0275776554636931
 10
55.63281233618813
 20
32.61902187400929
 42
0.0276606106555081
 10
55.70339270025272
 20
32.59899056437991
 42
0.0276261336418036
 10
55.77575993928241
 20
32.58686572045448
 42
0.0276367338238247
 10
55.84901867349969
 20
32.58280708828281
  0
LWPOLYLINE
  5
55423
330
1F
100
AcDbEntity
  8
1
100
AcDbPolyline
 90
        4
 70
     0
 43
0.0
 10
56.20659478629969
 20
32.5971663052828
 42
0.0307093258870844
 10
56.17253241764811
 20
32.60811235664491
 42
0.031448902822123
 10
56.13734785909034
 20
32.6147366689585
 42
0.0304106948151588
 10
56.10162354039968
 20
32.61697524028281
  0
LWPOLYLINE
  5
55424
330
1F
100
AcDbEntity
  8
1
100
AcDbPolyline
 90
        4
 70
     0
 43
0.0
 10
53.8194431167997
 20
32.60663875498278
 42
0.0220729940189349
 10
53.8773798778956
 20
32.59345896432402
 42
0.0224227932096295
 10
53.93628269558482
 20
32.5854703654928
 42
0.0223735997154051
 10
53.99567214089967
 20
32.58280708828281
  0
LWPOLYLINE
  5
55425
330
1F
100
AcDbEntity
  8
1
100
AcDbPolyline
 90
       10
 70
     0
 43
0.0
 10
44.88428671029971
 20
33.07351150458281
 42
0.0367734787267428
 10
44.84200749070521
 20
33.07039074948259
 42
0.036796100400469
 10
44.80064335735988
 20
33.06108712438998
 42
0.0368752926410675
 10
44.76107907893544
 20
33.04581414412908
 42
0.0366853181559902
 10
44.7241795417747
 20
33.02491371056091
 42
0.0365691344474337
 10
44.69073261752749
 20
32.99884460607589
 42
0.036416942788463
 10
44.66142515133793
 20
32.9681951072962
 42
0.0364621292369909
 10
44.63687987616134
 20
32.93361902063006
 42
0.0365325556778695
 10
44.6176246884035
 20
32.89581399912601
 42
0.0351677599432837
 10
44.60396259889972
 20
32.85566055088279
  0
LWPOLYLINE
  5
55426
330
1F
100
AcDbEntity
  8
1
100
AcDbPolyline
 90
        4
 70
     0
 43
0.0
 10
45.81095997659969
 20
32.3533466167828
 42
0.02236557579254
 10
45.87032851866871
 20
32.35600801269098
 42
0.0224256379626692
 10
45.92923856735652
 20
32.36399601232458
 42
0.0220781719569397
 10
45.9871890007997
 20
32.37717828348284
  0
LWPOLYLINE
  5
55427
330
1F
100
AcDbEntity
  8
1
100
AcDbPolyline
 90
        4
 70
     0
 43
0.0
 10
46.06356484349968
 20
32.38751476878281
 10
46.03784722398683
 20
32.38634463445422
 10
46.01230422064299
 20
32.38287367790349
 10
45.9871890007997
 20
32.37717828348284
  0
LWPOLYLINE
  5
55428
330
1F
100
AcDbEntity
  8
1
100
AcDbPolyline
 90
       10
 70
     0
 43
0.0
 10
45.1646108216997
 20
32.85566055088279
 42
0.0351402215954921
 10
45.15096146443153
 20
32.8957837612233
 42
0.0365183872652799
 10
45.13171831046633
 20
32.9335781007529
 42
0.0364673580380973
 10
45.10717502205667
 20
32.9681627000868
 42
0.036417980792575
 10
45.077871202613
 20
32.99881712102408
 42
0.0365694755967408
 10
45.0444271439473
 20
33.024891494077
 42
0.0366810376054635
 10
45.0075350707776
 20
33.04579486503607
 42
0.0368778973490234
 10
44.96797018996943
 20
33.06107493949657
 42
0.0368144118009316
 10
44.92658630308341
 20
33.07038772106219
 42
0.0367915939116883
 10
44.88428671029971
 20
33.07351150458281
  0
LWPOLYLINE
  5
55429
330
1F
100
AcDbEntity
  8
1
100
AcDbPolyline
 90
       13
 70
     0
 43
0.0
 10
45.1646108216997
 20
32.85566055088279
 42
0.0267070121583305
 10
45.18693950020849
 20
32.7858047911767
 42
0.0272765506128141
 10
45.2166710881184
 20
32.71872965538222
 42
0.0272524947792249
 10
45.25353012358141
 20
32.6552950936977
 42
0.0272424564244434
 10
45.29706749852039
 20
32.59624738983197
 42
0.0273469439606993
 10
45.34677445120808
 20
32.54228912697249
 42
0.0273897282492367
 10
45.4020815829912
 20
32.49408785429347
 42
0.0275026184596448
 10
45.46233530572934
 20
32.45223367202658
 42
0.0275110471227982
 10
45.52681758146587
 20
32.4172431961218
 42
0.0275776558182359
 10
45.59475363924159
 20
32.38956140238179
 42
0.027660610976282
 10
45.6653340033227
 20
32.36953009278739
 42
0.0276261337077541
 10
45.73770124237293
 20
32.35740524894379
 42
0.0276367333100939
 10
45.81095997659969
 20
32.3533466167828
  0
LWPOLYLINE
  5
5542A
330
1F
100
AcDbEntity
  8
1
100
AcDbPolyline
 90
        4
 70
     0
 43
0.0
 10
46.16853608939971
 20
32.36770583378279
 42
0.0307093258757866
 10
46.13447372074808
 20
32.3786518851449
 42
0.0314489033881612
 10
46.09928916219033
 20
32.38527619745851
 42
0.0304106944154405
 10
46.06356484349968
 20
32.38751476878281
  0
LINE
  5
5542B
330
1F
100
AcDbEntity
  8
1
100
AcDbLine
 10
36.20498082979987
 20
30.33671703308272
 30
0.0
 11
38.06559385059981
 21
33.33671703308272
 31
0.0
  0
LWPOLYLINE
  5
5542C
330
1F
100
AcDbEntity
  8
1
100
AcDbPolyline
 90
       16
 70
     0
 43
0.0
 10
43.70500857719963
 20
32.38751476878281
 42
0.0388696987758269
 10
43.65938788731577
 20
32.3838666008244
 42
0.0401933776534321
 10
43.61489594984479
 20
32.37306506147871
 42
0.0397342563377965
 10
43.57268513076269
 20
32.35532879976791
 42
0.0394846355508145
 10
43.53380020070935
 20
32.33115464625198
 42
0.0395665863281846
 10
43.49920557747421
 20
32.30116265402498
 42
0.0393283041664793
 10
43.46974310398752
 20
32.2661144382524
 42
0.0391398738319394
 10
43.44612481847434
 20
32.22688891062981
 42
0.0391694278925585
 10
43.42890916621851
 20
32.18446206286288
 42
0.0389901838101419
 10
43.41849692463251
 20
32.1398743162564
 42
0.038929879547983
 10
43.41513648182621
 20
32.09420999190957
 42
0.0390803606402675
 10
43.4189063200684
 20
32.0485785008008
 42
0.0388813219073537
 10
43.42970665198992
 20
32.00408285031048
 42
0.039169580208692
 10
43.44728784253618
 20
31.96181064554441
 42
0.0390223590005913
 10
43.47084222028195
 20
31.92344224720921
 42
0.0387275663966189
 10
43.50106030849969
 20
31.8879963923828
  0
LWPOLYLINE
  5
5542D
330
1F
100
AcDbEntity
  8
1
100
AcDbPolyline
 90
       30
 70
     0
 43
0.0
 10
36.20498082979973
 20
29.35241563718282
 42
0.0129431032880558
 10
36.21041038431233
 20
29.14328903092798
 42
0.0130490887501473
 10
36.226763056685
 20
28.93388414616757
 42
0.0130014120882109
 10
36.2538910778255
 20
28.72643721345921
 42
0.0129860468957209
 10
36.29176256979884
 20
28.52068214111806
 42
0.0129669656976208
 10
36.3402558019784
 20
28.31716692260639
 42
0.0129978684628306
 10
36.39924465465899
 20
28.1164427919993
 42
0.0130634941648628
 10
36.46860883603392
 20
27.919063635307
 42
0.0131456490971057
 10
36.54822012600908
 20
27.7255913271847
 42
0.0130599225760839
 10
36.63785980871501
 20
27.53655569820831
 42
0.0129891964231799
 10
36.73721969565131
 20
27.35244286705557
 42
0.0129555519380901
 10
36.84599281193641
 20
27.17372995364679
 42
0.0129688544149644
 10
36.96387934617485
 20
27.00089295372931
 42
0.0130275928633402
 10
37.09058538954304
 20
26.83441411339007
 42
0.013131993540475
 10
37.2258225535179
 20
26.67478774837781
 42
0.0132453434681584
 10
37.36928746307001
 20
26.52251339982849
 42
0.013283942662012
 10
37.5206365242129
 20
26.37807431278556
 42
0.0131664131943224
 10
37.67941061495094
 20
26.2418371460839
 42
0.0131004740171198
 10
37.8451174148945
 20
26.11412243686931
 42
0.0130757195712621
 10
38.01727859454132
 20
25.9952516975203
 42
0.0130908145709184
 10
38.1954207663126
 20
25.88554716761399
 42
0.013159537826963
 10
38.37907232961442
 20
25.7853387265579
 42
0.0132568913889669
 10
38.56775971943171
 20
25.69496893049447
 42
0.0133298992566389
 10
38.76098213096
 20
25.61475346252698
 42
0.0133024870615723
 10
38.95820429213043
 20
25.54494961041888
 42
0.0132354725932746
 10
39.15885264026591
 20
25.4857031675518
 42
0.0132261829623612
 10
39.36235280875911
 20
25.43715106741948
 42
0.0132612109726682
 10
39.56813269223071
 20
25.39944017235669
 42
0.013313186666145
 10
39.77564052322768
 20
25.3727145504582
 42
0.0131861132563712
 10
39.98344523179969
 20
25.3570801177828
  0
LWPOLYLINE
  5
5542E
330
1F
100
AcDbEntity
  8
1
100
AcDbPolyline
 90
        4
 70
     0
 43
0.0
 10
40.19544092578974
 20
25.35241563718282
 10
40.13154417748393
 20
25.3540097077622
 10
40.06764645023986
 20
25.3555640987415
 10
40.00374777028972
 20
25.3570788094828
  0
LWPOLYLINE
  5
5542F
330
1F
100
AcDbEntity
  8
1
100
AcDbPolyline
 90
       16
 70
     0
 43
0.0
 10
43.50106030849969
 20
30.93103185758281
 42
0.0380326525039093
 10
43.47132399166333
 20
30.89624751059506
 42
0.0404014966462276
 10
43.44693166479863
 20
30.85651862103457
 42
0.0399508966413839
 10
43.42918044049969
 20
30.81331968758281
 42
0.0388747943651144
 10
43.41863827017704
 20
30.76876221044822
 42
0.0399302064683718
 10
43.4151371107516
 20
30.72211794164588
 42
0.0389398494511862
 10
43.41891634579861
 20
30.67648670648859
 42
0.0389782944301345
 10
43.42973776909332
 20
30.63199629105252
 42
0.0391823213112038
 10
43.44734380799801
 20
30.58972994763621
 42
0.0391561274522656
 10
43.4713228245967
 20
30.55072414934639
 42
0.0393194225140454
 10
43.50110898569901
 20
30.51595016346912
 42
0.039584747829246
 10
43.53598138492762
 20
30.48628165863019
 42
0.0394936851643805
 10
43.57508879734848
 20
30.46247082207148
 42
0.0397405013727167
 10
43.61746372308738
 20
30.44513044976338
 42
0.0402088774208799
 10
43.66206720078082
 20
30.43474766999072
 42
0.0365179765184067
 10
43.7050085770997
 20
30.43151348118281
  0
LWPOLYLINE
  5
55430
330
1F
100
AcDbEntity
  8
1
100
AcDbPolyline
 90
       15
 70
     0
 43
0.0
 10
43.50106030849969
 20
30.93103185758281
 42
0.0277271118483112
 10
43.55163917589121
 20
30.98756660350839
 42
0.0283784000874862
 10
43.59559226778134
 20
31.04943047010769
 42
0.0281799574979683
 10
43.63227548457951
 20
31.11585970226958
 42
0.0280285643339563
 10
43.66127708505683
 20
31.18598231102078
 42
0.0280690375056373
 10
43.68225333251061
 20
31.2589097840347
 42
0.0279881237558
 10
43.69493922248517
 20
31.33372636610298
 42
0.0279987852394328
 10
43.69918465568258
 20
31.40949183284674
 42
0.0279987108305639
 10
43.6949442037905
 20
31.485257578064
 42
0.0279880579054921
 10
43.68226326479748
 20
31.56007485185251
 42
0.0280692949188378
 10
43.66129166035591
 20
31.63300422016332
 42
0.028028846588359
 10
43.63229422295683
 20
31.7031295798088
 42
0.0281772199518513
 10
43.59561899903522
 20
31.76955523130337
 42
0.0283830153566547
 10
43.55166322368541
 20
31.8314315542452
 42
0.0277413141715703
 10
43.50106030849969
 20
31.8879963923828
  0
LWPOLYLINE
  5
55431
330
1F
100
AcDbEntity
  8
1
100
AcDbPolyline
 90
        4
 70
     0
 43
0.0
 10
43.95761344409968
 20
30.46568163318279
 42
0.0223655760826548
 10
43.89824490202991
 20
30.4630202372836
 42
0.022425637859169
 10
43.83933485334151
 20
30.45503223764991
 42
0.0220781720495533
 10
43.78138441989967
 20
30.44184996648278
  0
LWPOLYLINE
  5
55432
330
1F
100
AcDbEntity
  8
1
100
AcDbPolyline
 90
        4
 70
     0
 43
0.0
 10
43.7050085770997
 20
30.43151348118281
 10
43.7307261966244
 20
30.43268361574572
 10
43.7562691999845
 20
30.43615457228981
 10
43.78138441989967
 20
30.44184996648278
  0
LINE
  5
55433
330
1F
100
AcDbEntity
  8
1
100
AcDbLine
 10
36.20498082979973
 20
30.33671703308281
 30
0.0
 11
36.20498082979973
 21
29.35241563718282
 31
0.0
  0
LINE
  5
55434
330
1F
100
AcDbEntity
  8
1
100
AcDbLine
 10
40.44709863399998
 20
36.7517533160823
 30
0.0
 11
41.54351541890003
 21
37.33809783928232
 31
0.0
  0
LINE
  5
55435
330
1F
100
AcDbEntity
  8
1
100
AcDbLine
 10
38.06559385059944
 20
33.33671703308298
 30
0.0
 11
40.4470986339995
 21
36.75175331608298
 31
0.0
  0
LWPOLYLINE
  5
55436
330
1F
100
AcDbEntity
  8
1
100
AcDbPolyline
 90
        4
 70
     0
 43
0.0
 10
43.78138441989967
 20
32.37717828348284
 10
43.75627802976402
 20
32.38287207851821
 10
43.73073359592263
 20
32.38634396177849
 10
43.70500857719963
 20
32.38751476878281
  0
LWPOLYLINE
  5
55437
330
1F
100
AcDbEntity
  8
1
100
AcDbPolyline
 90
        4
 70
     0
 43
0.0
 10
43.78138441989967
 20
32.37717828348284
 42
0.0220729944012581
 10
43.83932118097908
 20
32.3639984927282
 42
0.0224227935868283
 10
43.89822399867409
 20
32.35600989389491
 42
0.0223735999934713
 10
43.95761344399969
 20
32.3533466167828
  0
LINE
  5
55438
330
1F
100
AcDbEntity
  8
1
100
AcDbLine
 10
41.5435154188996
 20
37.33809783928299
 30
0.0
 11
42.8500620950997
 21
38.09809783928299
 31
0.0
  0
LWPOLYLINE
  5
55439
330
1F
100
AcDbEntity
  8
1
100
AcDbPolyline
 90
       16
 70
     0
 43
0.0
 10
56.91666228519972
 20
13.79709220260001
 42
-0.0020312735943058
 10
57.02555074281332
 20
14.6601399367505
 42
-0.002039661547553
 10
57.14144976149771
 20
15.5222743321456
 42
-0.0020668498381066
 10
57.2644257992855
 20
16.383428263772
 42
-0.0020913115988126
 10
57.39455931723401
 20
17.24352953348565
 42
-0.0021174393357669
 10
57.5319267851232
 20
18.10250501183599
 42
-0.0021463083205261
 10
57.6766139745726
 20
18.96027785470551
 42
-0.0021773367902689
 10
57.82871260516538
 20
19.81676750201117
 42
-0.0022098729442016
 10
57.98831974702733
 20
20.67188965965781
 42
-0.002245037242458
 10
58.15553932882392
 20
21.52555574487971
 42
-0.0022827985607679
 10
58.33048148642558
 20
22.37767268102329
 42
-0.002322440559968
 10
58.51326408056571
 20
23.2281421596769
 42
-0.0023651564878017
 10
58.7040115981712
 20
24.0768606113113
 42
-0.0024111611942013
 10
58.90285600302656
 20
24.92371857152787
 42
-0.0024605076292297
 10
59.10994198094304
 20
25.76859868160361
 42
-0.0019447455226709
 10
59.27623141116129
 20
26.42207902369077
 42
-0.0025660728688293
  0
LINE
  5
5543A
330
1F
100
AcDbEntity
  8
4
100
AcDbLine
 10
14.49999999999983
 20
-8.0163071388246
 30
0.0
 11
14.49999999999983
 21
8.0163071388246
 31
0.0
  0
ARC
  5
5543B
330
1F
100
AcDbEntity
  8
nocut
100
AcDbCircle
 10
23.66504809810013
 20
32.42221435250002
 30
0.0
 40
3.999999999999998
100
AcDbArc
 50
90.0
 51
120.0
  0
LINE
  5
5543C
330
1F
100
AcDbEntity
  8
nocut
100
AcDbLine
 10
60.18439156699989
 20
34.54296352916407
 30
0.0
 11
60.18439156699989
 21
0.0000000000000497
 31
0.0
  0
LINE
  5
5543D
330
1F
100
AcDbEntity
  8
nocut
100
AcDbLine
 10
42.15386858229999
 20
36.42221435249911
 30
0.0
 11
58.71876048566995
 21
36.04256973661647
 31
0.0
  0
ARC
  5
5543E
330
1F
100
AcDbEntity
  8
nocut
100
AcDbCircle
 10
58.68439156699989
 20
34.54296352916407
 30
0.0
 40
1.499999999999999
100
AcDbArc
 50
0.0
 51
88.68708911506123
  0
LINE
  5
5543F
330
1F
100
AcDbEntity
  8
nocut
100
AcDbLine
 10
23.66504809810013
 20
36.42221435250002
 30
0.0
 11
42.15386858229999
 21
36.42221435250002
 31
0.0
  0
LWPOLYLINE
  5
55440
330
1F
100
AcDbEntity
  8
nocut
100
AcDbPolyline
 90
       24
 70
     0
 43
0.0
 10
47.92537173229999
 20
-0.0658336446999215
 10
47.92495868518699
 20
-0.0629266717748465
 10
47.92454462357929
 20
-0.0600198442344322
 10
47.92412954702496
 20
-0.0571131624152486
 10
47.92371345507279
 20
-0.0542066266534391
 10
47.9232963472711
 20
-0.0513002372857159
 10
47.92287822316871
 20
-0.0483939946486487
 10
47.92245908231421
 20
-0.0454878990789496
 10
47.92203892425649
 20
-0.0425819509135295
 10
47.92161774854441
 20
-0.0396761504894414
 10
47.92119555472697
 20
-0.0367704981437385
 10
47.92077234235327
 20
-0.0338649942136442
 10
47.92034811097261
 20
-0.0309596390365528
 10
47.91992286013388
 20
-0.0280544329498582
 10
47.91949658938676
 20
-0.0251493762912389
 10
47.91906929828042
 20
-0.0222444693983448
 10
47.91864098636461
 20
-0.0193397126090531
 10
47.91821165318871
 20
-0.0164351062612411
 10
47.91778129830248
 20
-0.0135306506930419
 10
47.91734992125571
 20
-0.0106263462426455
 10
47.91691752159812
 20
-0.007722193248128
 10
47.91648409887989
 20
-0.0048181920482477
 10
47.91604965265091
 20
-0.0019143429814221
 10
47.91561418246129
 20
0.0009893536137611
  0
LINE
  5
55441
330
1F
100
AcDbEntity
  8
nocut
100
AcDbLine
 10
47.92537162410048
 20
-0.0658329562996585
 30
0.0
 11
47.9049591643907
 21
0.0000000000003695
 31
0.0
  0
LINE
  5
55442
330
1F
100
AcDbEntity
  8
nocut
100
AcDbLine
 10
0.0
 20
33.42500000000001
 30
0.0
 11
0.0
 21
0.0
 31
0.0
  0
LINE
  5
55443
330
1F
100
AcDbEntity
  8
nocut
100
AcDbLine
 10
1.5
 20
34.92500000000001
 30
0.0
 11
18.92820323029997
 21
34.92500000000001
 31
0.0
  0
ARC
  5
55444
330
1F
100
AcDbEntity
  8
nocut
100
AcDbCircle
 10
18.92820323029997
 20
38.92500000000001
 30
0.0
 40
3.999999999999998
100
AcDbArc
 50
270.0
 51
300.0
  0
LINE
  5
55445
330
1F
100
AcDbEntity
  8
nocut
100
AcDbLine
 10
20.92820323030009
 20
35.46089838480003
 30
0.0
 11
21.66504809810013
 21
35.88631596760007
 31
0.0
  0
ARC
  5
55446
330
1F
100
AcDbEntity
  8
nocut
100
AcDbCircle
 10
1.5
 20
33.42500000000001
 30
0.0
 40
1.499999999999999
100
AcDbArc
 50
90.0
 51
180.0
  0
LINE
  5
55447
330
1F
100
AcDbEntity
  8
nocut
100
AcDbLine
 10
60.18439156699989
 20
-0.0000000000000071
 30
0.0
 11
0.0
 21
0.0
 31
0.0
  0
LINE
  5
55448
330
1F
100
AcDbEntity
  8
cut
  6
Continuous
 62
     1
100
AcDbLine
 10
35.99999999883974
 20
30.33861919309997
 30
0.0
 11
35.99999999883974
 21
29.35431779619992
 31
0.0
  0
LINE
  5
55449
330
1F
100
AcDbEntity
  8
cut
  6
Continuous
 62
     1
100
AcDbLine
 10
35.99999999883974
 20
30.33861919309997
 30
0.0
 11
37.84235912843974
 21
33.33861919257997
 31
0.0
  0
LINE
  5
5544A
330
1F
100
AcDbEntity
  8
cut
  6
Continuous
 62
     1
100
AcDbLine
 10
37.84235912843974
 20
33.33861919257997
 30
0.0
 11
40.14504294317973
 21
36.75365547653993
 31
0.0
  0
LINE
  5
5544B
330
1F
100
AcDbEntity
  8
cut
  6
Continuous
 62
     1
100
AcDbLine
 10
41.23308975361971
 20
37.33999999853999
 30
0.0
 11
42.54944836803971
 21
38.1
 31
0.0
  0
LINE
  5
5544C
330
1F
100
AcDbEntity
  8
cut
  6
Continuous
 62
     1
100
AcDbLine
 10
40.14504294317973
 20
36.75365547653993
 30
0.0
 11
41.23308975361971
 21
37.33999999853999
 31
0.0
  0
LINE
  5
5544D
330
1F
100
AcDbEntity
  8
cut
  6
Continuous
 62
     1
100
AcDbLine
 10
63.49999999999972
 20
32.97001640171997
 30
0.0
 11
63.49999999999972
 21
33.95431779607996
 31
0.0
  0
LINE
  5
5544E
330
1F
100
AcDbEntity
  8
cut
  6
Continuous
 62
     1
100
AcDbLine
 10
63.49999999999972
 20
32.97001640171997
 30
0.0
 11
61.65764087293976
 21
29.97001640223997
 31
0.0
  0
LINE
  5
5544F
330
1F
100
AcDbEntity
  8
cut
  6
Continuous
 62
     1
100
AcDbLine
 10
61.65764087293976
 20
29.97001640223997
 30
0.0
 11
59.35495705819971
 21
26.55498011827994
 31
0.0
  0
LINE
  5
55450
330
1F
100
AcDbEntity
  8
cut
  6
Continuous
 62
     1
100
AcDbLine
 10
58.26691024775974
 20
25.96863559627994
 30
0.0
 11
56.95055163333972
 21
25.20863559481998
 31
0.0
  0
LINE
  5
55451
330
1F
100
AcDbEntity
  8
cut
  6
Continuous
 62
     1
100
AcDbLine
 10
59.35495705819971
 20
26.55498011827994
 30
0.0
 11
58.26691024775974
 21
25.96863559627994
 31
0.0
  0
LINE
  5
55452
330
1F
100
AcDbEntity
  8
cut
 62
     1
100
AcDbLine
 10
63.49999999999972
 20
32.97001640171997
 30
0.0
 11
63.49999999999972
 21
34.1
 31
0.0
  0
LINE
  5
55453
330
1F
100
AcDbEntity
  8
cut
 62
     1
100
AcDbLine
 10
35.99999999883974
 20
30.33861919309997
 30
0.0
 11
35.99999999883974
 21
29.20863559481998
 31
0.0
  0
LINE
  5
55454
330
1F
100
AcDbEntity
  8
cut
 62
     1
100
AcDbLine
 10
42.54944836803971
 20
38.1
 30
0.0
 11
59.49999999999971
 21
38.1
 31
0.0
  0
LINE
  5
55455
330
1F
100
AcDbEntity
  8
cut
 62
     1
100
AcDbLine
 10
56.95055163333972
 20
25.20863559481998
 30
0.0
 11
39.99999999883974
 21
25.20863559481998
 31
0.0
  0
ARC
  5
55456
330
1F
100
AcDbEntity
  8
cut
 62
     1
100
AcDbCircle
 10
59.49999999999971
 20
34.1
 30
0.0
 40
4.0
100
AcDbArc
 50
0.0
 51
90.0
  0
ARC
  5
55457
330
1F
100
AcDbEntity
  8
cut
 62
     1
100
AcDbCircle
 10
39.99999999883974
 20
29.20863559481998
 30
0.0
 40
4.0
100
AcDbArc
 50
180.0
 51
270.0
  0
VIEWPORT
  5
6B
102
{ACAD_XDICTIONARY
360
557E4
102
}
330
50
100
AcDbEntity
 67
     1
  8
0
100
AcDbViewport
 10
155.3592437148233
 20
160.4455827878762
 30
0.0
 40
349.5854424261001
 41
282.2272140146125
 68
     1
 69
     1
 12
155.3592437148233
 22
160.4455827878762
 13
0.0
 23
0.0
 14
10.0
 24
10.0
 15
10.0
 25
10.0
 16
0.0
 26
0.0
 36
1.0
 17
0.0
 27
0.0
 37
0.0
 42
50.0
 43
0.0
 44
0.0
 45
282.2272140146125
 50
0.0
 51
0.0
 72
  1000
 90
    32864
  1

281
     0
 71
     1
 74
     0
110
0.0
120
0.0
130
0.0
111
1.0
121
0.0
131
0.0
112
0.0
122
1.0
132
0.0
 79
     0
146
0.0
  0
VIEWPORT
  5
6D
102
{ACAD_XDICTIONARY
360
557E6
102
}
330
50
100
AcDbEntity
 67
     1
  8
0
100
AcDbViewport
 10
133.3499939441681
 20
101.5999939441681
 30
0.0
 40
213.3599903106689
 41
162.5599903106689
 68
     2
 69
     2
 12
210.0
 22
148.5
 13
0.0
 23
0.0
 14
10.0
 24
10.0
 15
10.0
 25
10.0
 16
0.0
 26
0.0
 36
1.0
 17
0.0
 27
0.0
 37
0.0
 42
50.0
 43
0.0
 44
0.0
 45
324.0677920111345
 50
0.0
 51
0.0
 72
   100
 90
    32864
  1

281
     0
 71
     1
 74
     0
110
0.0
120
0.0
130
0.0
111
1.0
121
0.0
131
0.0
112
0.0
122
1.0
132
0.0
 79
     0
146
0.0
  0
ENDSEC
  0
SECTION
  2
OBJECTS
  0
DICTIONARY
  5
C
330
0
100
AcDbDictionary
281
     1
  3
ACAD_COLOR
350
85
  3
ACAD_GROUP
350
D
  3
ACAD_LAYOUT
350
1A
  3
ACAD_MATERIAL
350
84
  3
ACAD_MLINESTYLE
350
17
  3
ACAD_PLOTSETTINGS
350
19
  3
ACAD_PLOTSTYLENAME
350
E
  3
ACAD_TABLESTYLE
350
A1
  3
ACDBHEADERROUNDTRIPXREC
350
557DF
  3
AcDbVariableDictionary
350
5E
  3
ASE_INDEX_DICTIONARY
350
349E9
  3
DWGPROPS
350
557DE
  0
DICTIONARY
  5
E2
330
2
100
AcDbDictionary
280
     1
281
     1
  3
ACAD_LAYERFILTERS
360
54C81
  3
ACAD_LAYERSTATES
360
3759A
  3
ACLYDICTIONARY
360
54C80
  0
DICTIONARY
  5
31EE
330
1F
100
AcDbDictionary
280
     1
281
     1
  3
ACAD_SORTENTS
360
31EF
  0
DICTIONARY
  5
43668
330
680
100
AcDbDictionary
280
     1
281
     1
  3
ACAD_SORTENTS
360
43669
  0
DICTIONARY
  5
557E8
330
71
100
AcDbDictionary
280
     1
281
     1
  3
ACAD_XREC_ROUNDTRIP
360
557E9
  0
DICTIONARY
  5
557EA
330
73
100
AcDbDictionary
280
     1
281
     1
  3
ACAD_XREC_ROUNDTRIP
360
557EB
  0
DICTIONARY
  5
557E4
330
6B
100
AcDbDictionary
280
     1
281
     1
  3
ACAD_XREC_ROUNDTRIP
360
557E5
  0
DICTIONARY
  5
557E6
330
6D
100
AcDbDictionary
280
     1
281
     1
  3
ACAD_XREC_ROUNDTRIP
360
557E7
  0
DICTIONARY
  5
85
102
{ACAD_REACTORS
330
C
102
}
330
C
100
AcDbDictionary
281
     1
  0
DICTIONARY
  5
D
102
{ACAD_REACTORS
330
C
102
}
330
C
100
AcDbDictionary
281
     1
  0
DICTIONARY
  5
1A
102
{ACAD_REACTORS
330
C
102
}
330
C
100
AcDbDictionary
281
     1
  3
\M+1838C\M+18343\M+18341\M+18345\M+183671
350
51
  3
\M+1838C\M+18343\M+18341\M+18345\M+183672
350
56
  3
Model
350
22
  0
DICTIONARY
  5
84
102
{ACAD_REACTORS
330
C
102
}
330
C
100
AcDbDictionary
281
     1
  0
DICTIONARY
  5
17
102
{ACAD_REACTORS
330
C
102
}
330
C
100
AcDbDictionary
281
     1
  3
Standard
350
18
  0
DICTIONARY
  5
19
102
{ACAD_REACTORS
330
C
102
}
330
C
100
AcDbDictionary
281
     1
  0
ACDBDICTIONARYWDFLT
  5
E
102
{ACAD_REACTORS
330
C
102
}
330
C
100
AcDbDictionary
281
     1
  3
Normal
350
F
100
AcDbDictionaryWithDefault
340
F
  0
DICTIONARY
  5
A1
102
{ACAD_REACTORS
330
C
102
}
330
C
100
AcDbDictionary
281
     1
  3
Standard
350
A2
  0
DICTIONARY
  5
557DF
102
{ACAD_REACTORS
330
C
102
}
330
C
100
AcDbDictionary
281
     1
  0
DICTIONARY
  5
5E
102
{ACAD_REACTORS
330
C
102
}
330
C
100
AcDbDictionary
281
     1
  3
CTABLESTYLE
350
B8
  3
DIMASSOC
350
5F
  3
HIDETEXT
350
63
  3
PROJECTNAME
350
31CE
  0
DICTIONARY
  5
349E9
102
{ACAD_REACTORS
330
C
102
}
330
C
100
AcDbDictionary
281
     1
  3
ASEBlockHierarchyIndexRecord
350
349EA
1001
DCO15
1040
1842496176.844
  0
XRECORD
  5
557DE
102
{ACAD_REACTORS
330
C
102
}
330
C
100
AcDbXrecord
280
     1
  1
DWGPROPS COOKIE
  2

  3

  4

  6

  7

  8

  9

300
=
301
=
302
=
303
=
304
=
305
=
306
=
307
=
308
=
309
=
 40
2.234585763888889
 41
2455489.391063368
 42
2458518.45106015
  1

 90
        0
  0
DICTIONARY
  5
54C81
102
{ACAD_REACTORS
330
E2
102
}
330
E2
100
AcDbDictionary
281
     1
  0
DICTIONARY
  5
3759A
102
{ACAD_REACTORS
330
E2
102
}
330
E2
100
AcDbDictionary
281
     1
  0
DICTIONARY
  5
54C80
102
{ACAD_REACTORS
330
E2
102
}
330
E2
100
AcDbDictionary
281
     1
1001
ACAD
1000
<All
  0
SORTENTSTABLE
  5
31EF
102
{ACAD_REACTORS
330
31EE
102
}
330
31EE
100
AcDbSortentsTable
330
1F
331
68C
  5
435D5
  0
SORTENTSTABLE
  5
43669
102
{ACAD_REACTORS
330
43668
102
}
330
43668
100
AcDbSortentsTable
330
680
  0
XRECORD
  5
557E9
102
{ACAD_REACTORS
330
557E8
102
}
330
557E8
100
AcDbXrecord
280
     1
102
SHADEPLOT
 70
     0
  0
XRECORD
  5
557EB
102
{ACAD_REACTORS
330
557EA
102
}
330
557EA
100
AcDbXrecord
280
     1
102
SHADEPLOT
 70
     0
  0
XRECORD
  5
557E5
102
{ACAD_REACTORS
330
557E4
102
}
330
557E4
100
AcDbXrecord
280
     1
102
SHADEPLOT
 70
     0
  0
XRECORD
  5
557E7
102
{ACAD_REACTORS
330
557E6
102
}
330
557E6
100
AcDbXrecord
280
     1
102
SHADEPLOT
 70
     0
  0
LAYOUT
  5
51
102
{ACAD_XDICTIONARY
360
B2
102
}
102
{ACAD_REACTORS
330
1A
102
}
330
1A
100
AcDbPlotSettings
  1

  2
none_device
  4
Letter_(8.50_x_11.00_Inches)
  6

 40
6.349999904632567
 41
6.349999904632567
 42
6.350006103515625
 43
6.350006103515625
 44
215.8999938964844
 45
279.3999938964844
 46
0.0
 47
0.0
 48
0.0
 49
0.0
140
0.0
141
0.0
142
1.0
143
1.0
 70
   688
 72
     1
 73
     1
 74
     5
  7

 75
    16
147
1.0
148
0.0
149
0.0
100
AcDbLayout
  1
\M+1838C\M+18343\M+18341\M+18345\M+183671
 70
     1
 71
     1
 10
-6.350006103515625
 20
-6.349999904632567
 11
273.0499877929688
 21
209.5499939918518
 12
0.0
 22
0.0
 32
0.0
 14
26.66999878883364
 24
20.31999878883365
 34
0.0
 15
240.0299890995025
 25
182.8799890995025
 35
0.0
146
0.0
 13
0.0
 23
0.0
 33
0.0
 16
1.0
 26
0.0
 36
0.0
 17
0.0
 27
1.0
 37
0.0
 76
     0
330
50
331
6B
  0
LAYOUT
  5
56
102
{ACAD_XDICTIONARY
360
B5
102
}
102
{ACAD_REACTORS
330
1A
102
}
330
1A
100
AcDbPlotSettings
  1

  2
none_device
  4
Letter_(8.50_x_11.00_Inches)
  6

 40
6.349999904632567
 41
6.349999904632567
 42
6.350006103515625
 43
6.350006103515625
 44
215.8999938964844
 45
279.3999938964844
 46
0.0
 47
0.0
 48
0.0
 49
0.0
140
0.0
141
0.0
142
1.0
143
1.0
 70
   688
 72
     1
 73
     1
 74
     5
  7

 75
    16
147
1.0
148
0.0
149
0.0
100
AcDbLayout
  1
\M+1838C\M+18343\M+18341\M+18345\M+183672
 70
     1
 71
     2
 10
-6.350006103515625
 20
-6.349999904632567
 11
273.0499877929688
 21
209.5499939918518
 12
0.0
 22
0.0
 32
0.0
 14
26.66999878883363
 24
20.31999878883363
 34
0.0
 15
240.0299890995026
 25
182.8799890995025
 35
0.0
146
0.0
 13
0.0
 23
0.0
 33
0.0
 16
1.0
 26
0.0
 36
0.0
 17
0.0
 27
1.0
 37
0.0
 76
     0
330
55
331
71
  0
LAYOUT
  5
22
102
{ACAD_XDICTIONARY
360
557E0
102
}
102
{ACAD_REACTORS
330
1A
102
}
330
1A
100
AcDbPlotSettings
  1

  2
none_device
  4
ANSI_A_(8.50_x_11.00_Inches)
  6

 40
6.349999904632567
 41
19.04999923706055
 42
6.350006103515625
 43
19.04998779296875
 44
215.8999938964844
 45
279.3999938964844
 46
0.0
 47
0.0
 48
0.0
 49
0.0
140
0.0
141
0.0
142
1.0
143
78.436453180766
 70
 11952
 72
     0
 73
     1
 74
     0
  7

 75
     0
147
0.0127491741332998
148
0.0
149
0.0
100
AcDbLayout
  1
Model
 70
     1
 71
     0
 10
0.0
 20
0.0
 11
12.0
 21
9.0
 12
0.0
 22
0.0
 32
0.0
 14
0.0
 24
0.0
 34
0.0
 15
0.0
 25
0.0
 35
0.0
146
0.0
 13
0.0
 23
0.0
 33
0.0
 16
1.0
 26
0.0
 36
0.0
 17
0.0
 27
1.0
 37
0.0
 76
     0
330
1F
  0
MLINESTYLE
  5
18
102
{ACAD_REACTORS
330
17
102
}
330
17
100
AcDbMlineStyle
  2
STANDARD
 70
     0
  3

 62
   256
 51
90.0
 52
90.0
 71
     2
 49
0.5
 62
   256
  6
BYLAYER
 49
-0.5
 62
   256
  6
BYLAYER
  0
ACDBPLACEHOLDER
  5
F
102
{ACAD_REACTORS
330
E
102
}
330
E
  0
TABLESTYLE
  5
A2
102
{ACAD_REACTORS
330
A1
102
}
330
A1
100
AcDbTableStyle
  3
Standard
 70
     0
 71
     0
 40
1.5
 41
1.5
280
     0
281
     0
  7
Standard
140
4.5
170
     2
 62
     0
 63
     7
283
     0
274
    -2
284
     1
 64
     0
275
    -2
285
     1
 65
     0
276
    -2
286
     1
 66
     0
277
    -2
287
     1
 67
     0
278
    -2
288
     1
 68
     0
279
    -2
289
     1
 69
     0
  7
Standard
140
6.0
170
     5
 62
     0
 63
     7
283
     0
274
    -2
284
     1
 64
     0
275
    -2
285
     1
 65
     0
276
    -2
286
     1
 66
     0
277
    -2
287
     1
 67
     0
278
    -2
288
     1
 68
     0
279
    -2
289
     1
 69
     0
  7
Standard
140
4.5
170
     5
 62
     0
 63
     7
283
     0
274
    -2
284
     1
 64
     0
275
    -2
285
     1
 65
     0
276
    -2
286
     1
 66
     0
277
    -2
287
     1
 67
     0
278
    -2
288
     1
 68
     0
279
    -2
289
     1
 69
     0
  0
DICTIONARYVAR
  5
B8
102
{ACAD_REACTORS
330
5E
102
}
330
5E
100
DictionaryVariables
280
     0
  1
STANDARD
  0
DICTIONARYVAR
  5
5F
102
{ACAD_REACTORS
330
5E
102
}
330
5E
100
DictionaryVariables
280
     0
  1
2
  0
DICTIONARYVAR
  5
63
102
{ACAD_REACTORS
330
5E
102
}
330
5E
100
DictionaryVariables
280
     0
  1
1
  0
DICTIONARYVAR
  5
31CE
102
{ACAD_REACTORS
330
5E
102
}
330
5E
100
DictionaryVariables
280
     0
  1

  0
XRECORD
  5
349EA
102
{ACAD_REACTORS
330
349E9
102
}
330
349E9
100
AcDbXrecord
280
     1
330
68C
330
431D
330
431E
330
4329
330
4334
330
4335
330
4B09
330
4B0A
330
5153
330
5154
330
515D
330
515E
330
516A
330
516B
330
5177
330
5178
330
85B4
330
85B5
330
8620
330
8621
330
862A
330
862B
330
8637
330
8638
330
8644
330
8645
330
9773
330
9774
330
977D
330
977E
330
978A
330
978B
330
9797
330
9798
330
BD86
330
BD87
330
BD8F
330
BD90
330
BD98
330
BDA0
330
BDA1
330
BDDD
330
BDDE
330
BDE7
330
BDE8
330
BDF4
330
BDF5
330
BE01
330
BE02
330
E473
330
E474
330
E48D
330
E48E
330
E485
330
E47C
330
E47D
330
E4CC
330
E4CD
330
E4D7
330
E4D8
330
1C63B
330
1C63C
330
1C705
330
1C706
330
1C719
330
1C71A
330
1C72E
330
1C72F
330
1C738
330
1C739
330
27043
330
27044
330
2703A
330
2703B
330
2CF2C
330
2CF2D
330
2CF38
330
2CF39
330
2CF42
330
2CF43
330
2CF4F
330
2CF50
330
2CF59
330
2CF5A
330
2FA31
330
2FA32
330
2FA3D
330
2FA3E
330
2FA4A
330
2FA4B
330
2FA54
330
2FA55
330
329D8
330
329D9
330
329E1
330
329E2
330
329EA
330
329EB
330
329F3
330
329F4
330
32E63
330
32E64
330
32E6F
330
32E70
330
32E79
330
32E7A
330
32E88
330
32E89
330
32E92
330
32E93
  0
DICTIONARY
  5
B2
330
51
100
AcDbDictionary
280
     1
281
     1
  3
ACAD_XREC_ROUNDTRIP
360
557E2
  3
ADSK_XREC_LAYOUTTHUMBNAIL
360
B3
  0
DICTIONARY
  5
B5
330
56
100
AcDbDictionary
280
     1
281
     1
  3
ACAD_XREC_ROUNDTRIP
360
557E3
  3
ADSK_XREC_LAYOUTTHUMBNAIL
360
B6
  0
DICTIONARY
  5
557E0
330
22
100
AcDbDictionary
280
     1
281
     1
  3
ACAD_XREC_ROUNDTRIP
360
557E1
  0
XRECORD
  5
557E2
102
{ACAD_REACTORS
330
B2
102
}
330
B2
100
AcDbXrecord
280
     1
102
SHADEPLOT
 70
     0
102
SHADEPLOTRESLEVEL
 70
     2
102
SHADEPLOTCUSTOMDPI
 70
   300
  0
XRECORD
  5
B3
102
{ACAD_REACTORS
330
B2
102
}
330
B2
100
AcDbXrecord
280
     1
310
28000000B40000008B0000000100080000000000BC61000000000000000000000001000000000000FFFFFF0000000000FFFFFF000000000000000000000000000000000000000000000000000000000000000000330000006600000099000000CC000000FF00000000330000333300006633000099330000CC330000FF3300
310
0000660000336600006666000099660000CC660000FF66000000990000339900006699000099990000CC990000FF99000000CC000033CC000066CC000099CC0000CCCC0000FFCC000000FF000033FF000066FF000099FF0000CCFF0000FFFF000000003300330033006600330099003300CC003300FF003300003333003333
310
33006633330099333300CC333300FF33330000663300336633006666330099663300CC663300FF66330000993300339933006699330099993300CC993300FF99330000CC330033CC330066CC330099CC3300CCCC3300FFCC330000FF330033FF330066FF330099FF3300CCFF3300FFFF330000006600330066006600660099
310
006600CC006600FF00660000336600333366006633660099336600CC336600FF33660000666600336666006666660099666600CC666600FF66660000996600339966006699660099996600CC996600FF99660000CC660033CC660066CC660099CC6600CCCC6600FFCC660000FF660033FF660066FF660099FF6600CCFF6600
310
FFFF660000009900330099006600990099009900CC009900FF00990000339900333399006633990099339900CC339900FF33990000669900336699006666990099669900CC669900FF66990000999900339999006699990099999900CC999900FF99990000CC990033CC990066CC990099CC9900CCCC9900FFCC990000FF99
310
0033FF990066FF990099FF9900CCFF9900FFFF99000000CC003300CC006600CC009900CC00CC00CC00FF00CC000033CC003333CC006633CC009933CC00CC33CC00FF33CC000066CC003366CC006666CC009966CC00CC66CC00FF66CC000099CC003399CC006699CC009999CC00CC99CC00FF99CC0000CCCC0033CCCC0066CC
310
CC0099CCCC00CCCCCC00FFCCCC0000FFCC0033FFCC0066FFCC0099FFCC00CCFFCC00FFFFCC000000FF003300FF006600FF009900FF00CC00FF00FF00FF000033FF003333FF006633FF009933FF00CC33FF00FF33FF000066FF003366FF006666FF009966FF00CC66FF00FF66FF000099FF003399FF006699FF009999FF00CC
310
99FF00FF99FF0000CCFF0033CCFF0066CCFF0099CCFF00CCCCFF00FFCCFF0000FFFF0033FFFF0066FFFF0099FFFF00CCFFFF00FFFFFF00000000000D0D0D001A1A1A00282828003535350043434300505050005D5D5D006B6B6B00787878008686860093939300A1A1A100AEAEAE00BBBBBB00C9C9C900D6D6D600E4E4E400
310
F1F1F100FFFFFF0000000000000000000000000000000000000000000000000000000000000000000000000000000000EFEFEFE2E2E2E2E2E2E2E2E2E2E2E2E2E2E2E2E2E2E2E2E2E2E2E2E2E2E2E2E2E2E2E2E2E2E2E2E2E2E2E2E2E2E2E2E2E2E2E2E2E2E2E2E2E2E2E2E2E2E2E2E2E2E2E2E2E2E2E2E2E2E2E2E2E2E2E2
310
E2E2E2E2E2E2E2E2E2E2E2E2E2E2E2E2E2E2E2E2E2E2E2E2E2E2E2E2E2E2E2E2E2E2E2E2E2E2E2E2E2E2E2E2E2E2E2E2E2E2E2E2E2E2E2E2E2E2E2E2E2E2E2E2E2E2E2E2E2E2E2E2E2E2E2E2E2E2E2E2E2E2E2E2E2E2E2E2E2E2E2E2E2E2E2E2E2E2E2E2E2E2E2E2E2E2E2E2E2E2E2E2E2E2E2E2E2E2E2E2E2E2E2E2E2E2E2
310
E2E2E2E2E2E2E2E2E2E2E2E2E2E2E2E2E2E2E2E2E2E2E2E2E2E2E2E2E2E2E2E2E2E2E2E2E2E2E2E2E2E2E2E2E2E2E2E2E2E2E2E2E2E2E2E2E2E2E2E2E2E2E2E2E2E2E2E2E2E2E2E2E2E2E2E2E2E2E2E2E2E2E2E2E2E2E2E2E2E2E2E2E2E2E2E2E2E2E2E2E2E2E2E2E2E2E2E2E2E2E2E2E2E2E2E2E2E2E2E2E2E2E2E2E2E2E2
310
E2E2E2E2E2E2E2E2E2E2E2E2E2E2E2E2E2E2E2E2E2E2E2E2E2E2E2E2F5F5F5F5F5F5F5F5F5F5F5F5F5F5F5F5F5F5F5F5F5F5F5F5F5F5F5F5F5F5F5F5F5F5F5F5F5F5F5F5F5F5F5F5F5F5F5F5F5F5F5F5F5F5F5F5F5F5F5F5F5F5F5F5F5F5F5F5F5F5F5F5F5F5F5F5F5F5F5F5F5F5F5F5F5F5F5F5F5F5F5F5F5F5F5F5F5F5F5
310
F5F5F5F5F5F5F5F5F5F5F5F5F5F5F5F5F5F5F5F5F5F5F5F5F5F5F5F5F5F5F5F5F5F5F5F5F5F5F5F5F5F5F5F5F5F5F5F5F5F5F5F5F5F5F5F5F5F5F5F5F5F5F5F5F5F5F5F5F5F5F5F5F5F5F5F5F5F5F5E2E2F5F5F5F5F5F5F5F5F5F5F5F5F5F5F5F5F5F5F5F5F5F5F5F5F5F5F5F5F5F5F5F5F5F5F5F5F5F5F5F5F5F5F5F5F5F5
310
F5F5F5F5F5F5F5F5F5F5F5F5F5F5F5F5F5F5F5F5F5F5F5F5F5F5F5F5F5F5F5F5F5F5F5F5F5F5F5F5F5F5F5F5F5F5F5F5F5F5F5F5F5F5F5F5F5F5F5F5F5F5F5F5F5F5F5F5F5F5F5F5F5F5F5F5F5F5F5F5F5F5F5F5F5F5F5F5F5F5F5F5F5F5F5F5F5F5F5F5F5F5F5F5F5F5F5F5F5F5F5F5F5F5F5F5F5F5F5F5F5F5F5F5F5F5F5
310
F5F5F5F5F5E2E2F5F5F5F5F5F5F5F5F5F5F5F5F5F5F5F5F5F5F5F5F5F5F5F5F5F5F5F5F5F5F5F5F5F5F5F5F5F5F5F5F5F5F5F5F5F5F5F5F5F5F5F5F5F5F5F5F5F5F5F5F5F5F5F5F5F5F5F5F5F5F5F5F5F5F5F5F5F5F5F5F5F5F5F5F5F5F5F5F5F5F5F5F5F5F5F5F5F5F5F5F5F5F5F5F5F5F5F5F5F5F5F5F5F5F5F5F5F5F5F5
310
F5F5F5F5F5F5F5F5F5F5F5F5F5F5F5F5F5F5F5F5F5F5F5F5F5F5F5F5F5F5F5F5F5F5F5F5F5F5F5F5F5F5F5F5F5F5F5F5F5F5F5F5F5F5F5F5F5F5E2E2F5F5F5F5E2E2E2E2E2E2E2E2F5F5F5F5F5F5F5F5F5E2E2E2E2E2E2E2E2E2E2E2E2E2E2E2F5F5F5F5F5F5F5F5F5E2E2E2E2E2E2E2E2E2E2E2E2E2E2E2E2F5F5F5F5F5F5
310
F5F5E2E2E2E2E2E2E2E2E2E2E2E2E2E2E2E2F5F5F5F5F5F5F5F5E2E2E2E2E2E2E2E2E2E2E2E2E2E2E2E2F5F5F5F5F5F5F5F5E2E2E2E2E2E2E2E2E2E2E2E2E2E2E2E2F5F5F5F5F5F5F5F5F5E2E2E2E2E2E2E2E2E2E2E2E2E2E2E2F5F5F5F5F5F5F5F5F5E2E2E2E2E2E2E2E2F5F5F5F5E2E2F5F5F5F5E2F5F5F5F5F5F5F5F5F5
310
F5F5F5F5F5F5F5F5F5F5F5F5F5F5F5F5F5F5F5F5F5F5F5F5F5F5F5F5F5F5F5F5F5F5F5F5F5F5F5F5F5F5F5F5F5F5F5F5F5F5F5F5F5F5F5F5F5F5F5F5F5F5F5F5F5F5F5F5F5F5F5F5F5F5F5F5F5F5F5F5F5F5F5F5F5F5F5F5F5F5F5F5F5F5F5F5F5F5F5F5F5F5F5F5F5F5F5F5F5F5F5F5F5F5F5F5F5F5F5F5F5F5F5F5F5F5F5
310
F5F5F5F5F5F5F5F5F5F5F5F5F5F5F5F5F5F5F5F5F5F5F5F5F5F5F5F5F5F5F5F5E2F5F5F5F5E2E2F5F5F5F5E2F5F5F5F5F5F5F5F5F5F5F5F5F5F5F5F5F5F5F5F5F5F5F5F5F5F5F5F5F5F5F5F5F5F5F5F5F5F5F5F5F5F5F5F5F5F5F5F5F5F5F5F5F5F5F5F5F5F5F5F5F5F5F5F5F5F5F5F5F5F5F5F5F5F5F5F5F5F5F5F5F5F5F5
310
F5F5F5F5F5F5F5F5F5F5F5F5F5F5F5F5F5F5F5F5F5F5F5F5F5F5F5F5F5F5F5F5F5F5F5F5F5F5F5F5F5F5F5F5F5F5F5F5F5F5F5F5F5F5F5F5F5F5F5F5F5F5F5F5F5F5F5F5F5F5F5F5F5F5F5F5F5F5F5F5F5F5F5F5F5E2F5F5F5F5E2E2F5F5F5F5E2F5F5F5F5F5F5F5F5F5F5F5F5F5F5F5F5F5F5F5F5F5F5F5F5F5F5F5F5F5F5
310
F5F5F5F5F5F5F5F5F5F5F5F5F5F5F5F5F5F5F5F5F5F5F5F5F5F5F5F5F5F5F5F5F5F5F5F5F5F5F5F5F5F5F5F5F5F5F5F5F5F5F5F5F5F5F5F5F5F5F5F5F5F5F5F5F5F5F5F5F5F5F5F5F5F5F5F5F5F5F5F5F5F5F5F5F5F5F5F5F5F5F5F5F5F5F5F5F5F5F5F5F5F5F5F5F5F5F5F5F5F5F5F5F5F5F5F5F5F5F5F5F5F5F5F5F5F5F5
310
F5F5F5F5F5F5F5F5F5F5F5E2F5F5F5F5E2E2F5F5F5F5E2F5F5F5F5F5F5F5F5F5F5F5F5F5F5F5F5F5F5F5F5F5F5F5F5F5F5F5F5F5F5F5F5F5F5F5F5F5F5F5F5F5F5F5F5F5F5F5F5F5F5F5F5F5F5F5F5F5F5F5F5F5F5F5F5F5F5F5F5F5F5F5F5F5F5F5F5F5F5F5F5F5F5F5F5F5F5F5F5F5F5F5F5F5F5F5F5F5F5F5F5F5F5F5F5
310
F5F5F5F5F5F5F5F5F5F5F5F5F5F5F5F5F5F5F5F5F5F5F5F5F5F5F5F5F5F5F5F5F5F5F5F5F5F5F5F5F5F5F5F5F5F5F5F5F5F5F5F5F5F5F5F5F5F5F5F5F5F5F5F5E2F5F5F5F5E2E2F5F5F5F5E2F5F5F5F5F5F5F5F5F5F5F5F5F5F5F5F5F5F5F5F5F5F5F5F5F5F5F5F5F5F5F5F5F5F5F5F5F5F5F5F5F5F5F5F5F5F5F5F5F5F5F5
310
F5F5F5F5F5F5F5F5F5F5F5F5F5F5F5F5F5F5F5F5F5F5F5F5F5F5F5F5F5F5F5F5F5F5F5F5F5F5F5F5F5F5F5F5F5F5F5F5F5F5F5F5F5F5F5F5F5F5F5F5F5F5F5F5F5F5F5F5F5F5F5F5F5F5F5F5F5F5F5F5F5F5F5F5F5F5F5F5F5F5F5F5F5F5F5F5F5F5F5F5F5F5F5F5F5F5F5F5F5F5F5F5F5F5F5F5F5E2F5F5F5F5E2E2F5F5F5
310
F5E2F5F5F5F5F5F5F5F5F5F5F5F5F5F5F5F5F5F5F5F5F5F5F5F5F5F5F5F5F5F5F5F5F5F5F5F5F5F5F5F5F5F5F5F5F5F5F5F5F5F5F5F5F5F5F5F5F5F5F5F5F5F5F5F5F5F5F5F5F5F5F5F5F5F5F5F5F5F5F5F5F5F5F5F5F5F5F5F5F5F5F5F5F5F5F5F5F5F5F5F5F5F5F5F5F5F5F5F5F5F5F5F5F5F5F5F5F5F5F5F5F5F5F5F5F5
310
F5F5F5F5F5F5F5F5F5F5F5F5F5F5F5F5F5F5F5F5F5F5F5F5F5F5F5F5F5F5F5F5F5F5F5F5F5F5F5F5F5F5F5E2F5F5F5F5E2E2F5F5F5F5E2F5F5F5F5F5F5F5F5F5F5F5F5F5F5F5F5F5F5F5F5F5F5F5F5F5F5F5F5F5F5F5F5F5F5F5F5F5F5F5F5F5F5F5F5F5F5F5F5F5F5F5F5F5F5F5F5F5F5F5F5F5F5F5F5F5F5F5F5F5F5F5F5
310
F5F5F5F5F5F5F5F5F5F5F5F5F5F5F5F5F5F5F5F5F5F5F5F5F5F5F5F5F5F5F5F5F5F5F5F5F5F5F5F5F5F5F5F5F5F5F5F5F5F5F5F5F5F5F5F5F5F5F5F5F5F5F5F5F5F5F5F5F5F5F5F5F5F5F5F5F5F5F5F5F5F5F5F5F5F5F5F5F5F5F5F5F5F5F5F5E2F5F5F5F5E2E2F5F5F5F5E2F5F5F5F5F5F5F5F5F5F5F5F5F5F5F5F5F5F5F5
310
F5F5F5F5F5F5F5F5F5F5F5F5F5F5F5F5F5F5F5F5F5F5F5F5F5F5F5F5F5F5F5F5F5F5F5F5F5F5F5F5F5F5F5F5F5F5F5F5F5F5F5F5F5F5F5F5F5F5F5F5F5F5F5F5F5F5F5F5F5F5F5F5F5F5F5F5F5F5F5F5F5F5F5F5F5F5F5F5F5F5F5F5F5F5F5F5F5F5F5F5F5F5F5F5F5F5F5F5F5F5F5F5F5F5F5F5F5F5F5F5F5F5F5F5F5F5F5
310
F5F5F5F5F5F5F5F5F5F5F5F5F5F5F5F5F5F5F5F5F5F5E2F5F5F5F5E2E2F5F5F5F5F5F5F5F5F5F5F5F5F5F5F5F5F5F5F5F5F5F5F5F5F5F5F5F5F5F5F5F5F5F5F5F5F5F5F5F5F5F5F5F5F5F5F5F5F5F5F5F5F5F5F5F5F5F5F5F5F5F5F5F5F5F5F5F5F5F5F5F5F5F5F5F5F5F5F5F5F5F5F5F5F5F5F5F5F5F5F5F5F5F5F5F5F5F5
310
F5F5F5F5F5F5F5F5F5F5F5F5F5F5F5F5F5F5F5F5F5F5F5F5F5F5F5F5F5F5F5F5F5F5F5F5F5F5F5F5F5F5F5F5F5F5F5F5F5F5F5F5F5F5F5F5F5F5F5F5F5F5F5F5F5F5F5F5F5F5F5F5F5F5F5F5F5F5F5F5E2E2F5F5F5F5F5F5F5F5F5F5F5F5F5F5F5F5F5F5F5F5F5F5F5F5F5F5F5F5F5F5F5F5F5F5F5F5F5F5F5F5F5F5F5F5F5
310
F5F5F5F5F5F5F5F5F5F5F5F5F5F5F5F5F5F5F5F5F5F5F5F5F5F5F5F5F5F5F5F5F5F5F5F5F5F5F5F5F5F5F5F5F5F5F5F5F5F5F5F5F5F5F5F5F5F5F5F5F5F5F5F5F5F5F5F5F5F5F5F5F5F5F5F5F5F5F5F5F5F5F5F5F5F5F5F5F5F5F5F5F5F5F5F5F5F5F5F5F5F5F5F5F5F5F5F5F5F5F5F5F5F5F5F5F5F5F5F5F5F5F5F5F5F5F5
310
F5F5F5F5F5F5E2E2F5F5F5F5F5F5F5F5F5F5F5F5F5F5F5F5F5F5F5F5F5F5F5F5F5F5F5F5F5F5F5F5F5F5F5F5F5F5F5F5F5F5F5F5F5F5F5F5F5F5F5F5F5F5F5F5F5F5F5F5F5F5F5F5F5F5F5F5F5F5F5F5F5F5F5F5F5F5F5F5F5F5F5F5F5F5F5F5F5F5F5F5F5F5F5F5F5F5F5F5F5F5F5F5F5F5F5F5F5F5F5F5F5F5F5F5F5F5F5
310
F5F5F5F5F5F5F5F5F5F5F5F5F5F5F5F5F5F5F5F5F5F5F5F5F5F5F5F5F5F5F5F5F5F5F5F5F5F5F5F5F5F5F5F5F5F5F5F5F5F5F5F5F5F5F5F5F5F5F5E2E2F5F5F5F5F5F5F5F5F5F5F5F5F5F5F5F5F5F5F5F5F5F5F5F5F5F5F5F5F5F5F5F5F5F5F5F5F5F5F5F5F5F5F5F5F5F5F5F5F5F5F5F5F5F5F5F5F5F5F5F5F5F5F5F5F5F5
310
F5F5F5F5F5F5F5F5F5F5F5F5F5F5F5F5F5F5F5F5F5F5F5F5F5F5F5F5F5F5F5F5F5F5F5F5F5F5F5F5F5F5F5F5F5F5F5F5F5F5F5F5F5F5F5F5F5F5F5F5F5F5F5F5F5F5F5F5F5F5F5F5F5F5F5F5F5F5F5F5F5F5F5F5F5F5F5F5F5F5F5F5F5F5F5F5F5F5F5F5F5F5F5F5F5F5F5F5F5F5F5F5E2E2F5F5F5F5F5F5F5F5F5F5F5F5F5
310
F5F5F5F5F5F5F5F5E2E2E2E2E2E2E2E2E2E2E2E2E2E2E2E2E2E2E2E2E2E2E2E2E2E2E2E2E2E2E2E2E2E2E2E2E2E2E2E2E2E2E2E2E2E2E2E2E2E2E2E2E2E2E2E2E2E2E2E2E2E2E2E2E2E2E2E2E2E2E2E2E2E2E2E2E2E2E2E2E2E2E2E2E2E2E2E2E2E2E2E2E2E2E2E2E2E2E2E2E2E2E2E2E2E2E2E2E2E2E2E2E2E2E2E2E2E2E2
310
E2E2E2E2E2E2E2E2E2E2E2E2E2E2E2E2E2F5F5F5F5F5F5F5F5F5F5F5F5F5F5F5F5F5F5F5F5F5E2E2F5F5F5F5F5F5F5F5F5F5F5F5F5F5F5F5F5F5F5F5F5E22D2D2D2DF5F5F5F5E2F5F5F5F5F5F5F52DF5F5F5F5F5F5F5F5F5F5F5F5F5F5F5F5F5F5E2F5F5F5F5F5F5F5F5F5F5F5F5F5F5F5F5F5F5F5F5F5F5F5F5F5F5F5F5F5
310
F5F5F5F5F5F5F5F5F5F5F5F5F5F5F5F5F5F5F5F5F5F5F5F5F5F5F5F5F5F5F5F5F5F5F5F5F5F5F5F5F5F5F5F5F5F5F5F5F5F5F5F5F5F5F5F5F5F5F5F5F5F5F5F5F5F5F5F5F5E2F5F5F5F5F5F5F5F5F5F5F5F5F5F5F5F5F5F5F5F5F5E2E2F5F5F5F5F5F5F5F5F5F5F5F5F5F5F5F5F5F5F5F5F5E2DCF5F52DF5F5F5F5E2F5F5F5
310
F5F5F5F52DF5F5F5F5F5F5F5F5F5F5F5F5F5F5F5F5F5F5E2F5F5F5F5F5F5F5F5F5F5F5F5F5F5F5F5F5F5F5F5F5F5F5F5F5F5F5F5F5F5F5F5F5F5F5F5F5F5F5F5F5F5F5F5F5F5F5F5F5F5F5F5F5F5F5F5F5F5F5F5F5F5F5F5F5F5F5F5F5F5F5F5F5F5F5F5F5F5F5F5F5F5F5F5F5F5F5F5F5F5F5F5F5F5F5F5F5F5E2F5F5F5F5
310
F5F5F5F5F5F5F5F5F5F5F5F5F5F5F5F5F5E2E2F5F5F5F5F5F5F5F5F5F5F5F5F5F5F5F5F5F5F5F5F5E2DCF5F52DF5F5F5F5E2F5F5F5F5F5F5F52DF5F5F5F5F5F5F5F5F5F5F5F5F5F5F5F5F5F5E2E2F5F5F5F5F5F5F5F5F5F5F5F5F5F5F5F5F5F5F5F5F5F5F5F5F5F5F5F5F5F5F5F5F5F5F5F5F5F5F5F5F5F5F5F5F5F5F5F5F5
310
F5F5F5F5F5F5F5F5F5F5F5F5F5F5F5F5F5F5F5F5F5F5F5F5F5F5F5F5F5F5F5F5F5F5F5F5F5F5F5F5F5F5F5F5F5F5F5F5E2F5F5F5F5F5F5F5F5F5F5F5F5F5F5F5F5F5F5F5F5F5E2E2F5F5F5F5F5F5F5F5F5F5F5F5F5F5F5F5F5F5F5F5F5E2BEF5F52D2D2D2D2D2D2D2D2D2D2D2D2D2DE2E2E2E2E2E2E2E2E2E2E2E2E2E2E2E2
310
E2E2E2E2F5F5F5F5F5F5F5F5F5F5F5F5F5F5F5F5F5F5F5F5F5F5F5F5F5F5F5F5F5F5F5F5F5F5F5F5F5F5F5F5F5F5F5F5F5F5F5F5F5F5F5F5F5F5F5F5F5F5F5F5F5F5F5F5F5F5F5F5F5F5F5F5F5F5F5F5F5F5F5F5F5F5F5F5F5F5F5F5F5F5F5F5F5F5F5F5F5E2F5F5F5F5F5F5F5F5F5F5F5F5F5F5F5F5F5F5F5F5F5E2E2F5F5
310
F5F5E2F5F5F5F5F5F5F5F5F5F5F5F5F5F5F5F5E2DCF5F5F5F5F5F5F5E2F5F5F5F5F5F5F5E2F5F5F5F5F5F5F5F5F5F5F5F5F5F5F5F5F5F5F5F5F5F5F5F5F5F5F5F5F5F5F5F5F5F5F5F5F5F5F5F5F5F5F5F5F5F5F5F5F5F5F5F5F5F5F5F5F5F5F5F5F5F5F5F5F5F5F5F5F5F5F5F5F5F5F5F5F5F5F5F5F5F5F5F5F5F5F5F5F5F5
310
F5F5F5F5F5F5F5F5F5F5F5F5F5F5F5F5F5F5F5F5F5F5F5F5F5F5F5E2F5F5F5F5F5F5F5F5F5F5F5F5F5F5F5F5E2F5F5F5F5E2E2F5F5F5F5E2F5F5F5F5F5F5F5F5F5F5F5F5F5F5F5F5E2F5F5F5F5F5F5F5F5E2F5F5F5F5F5F5F5E2F5F5F5F5F5F5F5F5F5F5F5F5F5F5F5F5F5F5F5F5F5F5F5F5F5F5F5F5F5F5F5F5F5F5F5F5F5
310
F5F5F5F5F5F5F5F5F5F5F5F5F5F5F5F5F5F5F5F5F5F5F5F5F5F5F5F5F5F5F5F5F5F5F5F5F5F5F5F5F5F5F5F5F5F5F5F5F5F5F5F5F5F5F5F5F5F5F5F5F5F5F5F5F5F5F5F5F5F5F5F5F5F5F5F5F5F5F5F5E2F5F5F5F5F5F5F5F5F5F5F5F5F5F5F5F5E2F5F5F5F5E2E2F5F5F5F5E2F5F5F5F5F5F5F5F5F5F5F5F5F5F5F5F5E2E2
310
E2E2E2E2E2E2E2E2F5F5F5F5F5F5F5E2F5F5F5F5F5F5F5F5F5F5F5F5F5F5F5F5F5F5F5F5F5F5F5F5F5F5F5F5F5F5F5F5F5F5F5F5F5F5F5F5F5F5F5F5F5F5F5F5F5F5F5F5F5F5F5F5F5F5F5F5F5F5F5F5F5F5F5F5F5F5F5F5F5F5F5F5F5F5F5F5F5F5F5F5F5F5F5F5F5F5F5F5F5F5F5F5F5F5F5F5F5F5F5F5F5F5F5F5F5F5F5
310
F5F5F5F5F5F5E2F5F5F5F5F5F5F5F5F5F5F5F5F5F5F5F5E2F5F5F5F5E2E2F5F5F5F5E2F5F5F5F5F5F5F5F5F5F5F5F5F5F5F5F5E2E2E2E2F5F5F5F5F5F5F5F5F5F5F5F5F5E2F5F5F5F5F5F5F5F5F5F5F5F5F5F5F5F5F5F5F5F5F5F5F5F5F5F5F5F5F5F5F5F5F5F5F5F5F5F5F5F5F5F5F5F5F5F5F5F5F5F5F5F5F5F5F5F5F5F5
310
F5F5F5F5F5F5F5F5F5F5F5F5F5F5F5F5F5F5F5F5F5F5F5F5F5F5F5F5F5F5F5F5F5F5F5F5F5F5F5F5F5F5F5F5F5F5F5F5F5F5F5F5F5F5F5F5F5F5F5E2F5F5F5F5F5F5F5F5F5F5F5F5F5F5F5F5E2F5F5F5F5E2E2F5F5F5F5E2F5F5F5F5F5F5F5F5F5F5F5F5F5F5F5F5E2E2E2E2F5F5F5F5F5F5F5F5F5F5F5F5F5E2F5F5F5F5F5
310
F5F5F5F5F5F5F5F5F5F5F5F5F5F5F5F5F5F5F5F5F5F5F5F5F5F5F5F5F5F5F5F5F5F5F5F5F5F5F5F5F5F5F5F5F5F5F5F5F5F5F5F5F5F5F5F5F5F5F5F5F5F5F5F5F5F5F5F5F5F5F5F5F5F5F5F5F5F5F5F5F5F5F5F5F5F5F5F5F5F5F5F5F5F5F5F5F5F5F5F5F5F5F5F5F5F5F5F5F5F5F5F5E2F5F5F5F5F5F5F5F5F5F5F5F5F5F5
310
F5F5E2F5F5F5F5E2E2F5F5F5F5E2F5F5F5F5F5F5F5F5F5F5F5F5F5F5F5F5E2F5F5F5F5F5F5F5F5F5F5F5F5F5F5F5F5E2F5F5F5F5F5F5F5F5F5F5F5F5F5F5F5F5F5F5F5F5F5F5F5F5F5F5F5F5F5F5F5F5F5F5F5F5F5F5F5F5F5F5F5F5F5F5F5F5F5F5F5F5F5F5F5F5F5F5F5F5F5F5F5F5F5F5F5F5F5F5F5F5F5F5F5F5F5F5F5
310
F5F5F5F5F5F5F5F5F5F5F5F5F5F5F5F5F5F5F5F5F5F5F5F5F5F5F5F5F5F5F5F5F5F5F5F5F5F5E2F5F5F5F5F5F5F5F5F5F5F5F5F5F5F5F5E2F5F5F5F5E2E2F5F5F5F5E2F5F5F5F5F5F5F5F5F5F5F5F5F5F5F5F5E2E2E2E2E2E2E2E2E2E2E2E2E2E2E2E2E2E2F5F5F5F5F5F5F5F5F5F5F5F5F5F5F5F5F5F5F5F5F5F5F5F5F5F5
310
F5F5F5F5F5F5F5F5F5F5F5F5F5F5F5F5F5F5F5F5F5F5F5F5F5F5F5F5F5F5F5F5F5F5F5F5F5F5F5F5F5F5F5F5F5F5F5F5F5F5F5F5F5F5F5F5F5F5F5F5F5F5F5F5F5F5F5F5F5F5F5F5F5F5F5F5F5F5F5F5F5F5F5F5F5F5F5F5F5F5F5E2F5F5F5F5F5F5F5F5F5F5F5F5F5F5F5F5E2F5F5F5F5E2E2F5F5F5F5E2F5F5F5F5F5F5F5
310
F5F5F5F5F5F5F5F5F5E2E2E2F5F5F5F5F5F5F5F5F5F5F5F5F5F5F5F5F5F5F5F5F5F5F5F5F5F5F5F5F5F5F5F5F5F5F5F5F5F5F5F5F5F5F5F5F5F5F5F5F5F5F5F5F5F5F5F5F5F5F5F5F5F5F5F5F5F5F5F5F5F5F5F5F5F5F5F5F5F5F5F5F5F5F5F5F5F5F5F5F5F5F5F5F5F5F5F5F5F5F5F5F5F5F5F5F5F5F5F5F5F5F5F5F5F5F5
310
F5F5F5F5F5F5F5F5F5F5F5F5F5F5F5F5F5E2F5F5F5F5F5F5F5F5F5F5F5F5F5F5F5F5E2F5F5F5F5E2E2F5F5F5F5E2F5F5F5F5F5F5F5F5F5F5F5F5F5F5F5F5E2E2E2F5F5F5F5F5F5F5F5F5F5F5F5F5F5F5F5F5F5F5F5F5F5F5F5F5F5F5F5F5F5F5F5F5F5F5F5F5F5F5F5F5F5F5F5F5F5F5F5F5F5F5F5F5F5F5F5F5F5F5F5F5F5
310
F5F5F5F5F5F5F5F5F5F5F5F5F5F5F5F5F5F5F5F5F5F5F5F5F5F5F5F5F5F5F5F5F5F5F5F5F5F5F5F5F5F5F5F5F5F5F5F5F5F5F5F5F5F5F5F5F5F5F5F5F5F5F5F5F5F5F5F5F5F5E2F5F5F5F5F5F5F5F5F5F5F5F5F5F5F5F5E2F5F5F5F5E2E2F5F5F5F5E2F5F5F5F5F5F5F5F5F5F5F5F5F5F5F5F5E2F5F5F5F5F5F5F5F5F5F5F5
310
F5F5F5F5F5F5F5F5F5F5F5F5F5F5F5F5F5F5F5F5F5F5F5F5F5F5F5F5F5F5F5F5F5F5F5F5F5F5F5F5F5F5F5F5F5F5F5F5F5F5F5F5F5F5F5F5F5F5F5F5F5F5F5F5F5F5F5F5F5F5F5F5F5F5F5F5F5F5F5F5F5F5F5F5F5F5F5F5F5F5F5F5F5F5F5F5F5F5F5F5F5F5F5F5F5F5F5F5F5F5F5F5F5F5F5F5F5F5F5F5F5F5F5E2F5F5F5
310
F5F5F5F5F5F5F5F5F5F5F5F5F5E2F5F5F5F5E2E2F5F5F5F5E2F5F5F5F5F5F5F5F5F5F5F5F5F5F5F5F5E20F0F0F0F0F0F0F0F0F0F0FF5F5F5F5F5F5F5F5F5F5F5F5F5F5F5F5F5F5F5F5F5F5F5F5F5F5F5F5F5F5F5F5F5F5F5F5F5F5F5F5F5F5F5F5F5F5F5F5F5F5F5F5F5F5F5F5F5F5F5F5F5F5F5F5F5F5F5F5F5F5F5F5F5F5
310
F5F5F5F5F5F5F5F5F5F5F5F5F5F5F5F5F5F5F5F5F5F5F5F5F5F5F5F5F5F5F5F5F5F5F5F5F5F5F5F5F5F5F5F5F5F5F5F5F5E2F5F5F5F5F5F5F5F5F5F5F5F5F5F5F5F5E2F5F5F5F5E2E2F5F5F5F5E2F5F5F5F5F5F5F5F5F5F5F5F5F5F5F5F5E20F0F0F0F0F0F0F0F0F0FF5F5F5F5F5F5F5F5F5F5F5F5F5F5F5F5F5F5F5F5F5F5
310
F5F5F5F5F5F5F5F5F5F5F5F5F5F5F5F5F5F5F5F5F5F5F5F5F5F5F5F5F5F5F5F5F5F5F5F5F5F5F5F5F5F5F5F5F5F5F5F5F5F5F5F5F5F5F5F5F5F5F5F5F5F5F5F5F5F5F5F5F5F5F5F5F5F5F5F5F5F5F5F5F5F5F5F5F5F5F5F5F5F5F5F5F5F5F5F5F5F5F5F5F5F5E2F5F5F5F5F5F5F5F5F5F5F5F5F5F5F5F5E2F5F5F5F5E2E2F5
310
F5F5F5E2F5F5F5F5F5F5F5F5F5F5F5F5F5F5F5F5E2F5F5F5F5F5F5F5F5F5F5F5F5F5F5F5F5F5F5F5F5F5F5F5F5F5F5F5F5F5F5F5F5F5F5F5F5F5F5F5F5F5F5F5F5F5F5F5F5F5F5F5F5F5F5F5F5F5F5F5F5F5F5F5F5F5F5F5F5F5F5F5F5F5F5F5F5F5F5F5F5F5F5F5F5F5F5F5F5F5F5F5F5F5F5F5F5F5F5F5F5F5F5F5F5F5F5
310
F5F5F5F5F5F5F5F5F5F5F5F5F5F5F5F5F5F5F5F5F5F5F5F5F5F5F5F5E2F5F5F5F5F5F5F5F5F5F5F5F5F5F5F5F5E2F5F5F5F5E2E2F5F5F5F5E2F5F5F5F5F5F5F5F5F5F5F5F5F5F5F5F5E2F5F5F5F5F5F5F5F5F5F5F5F5F5F5F5F5F5F5F5F5F5F5F5F5F5F5F5F5F5F5F5F5F5F5F5F5F5F5F5F5F5F5F5F5F5F5F5F5F5F5F5F5F5
310
F5F5F5F5F5F5F5F5F5F5F5F5F5F5F5F5F5F5F5F5F5F5F5F5F5F5F5F5F5F5F5F5F5F5F5F5F5F5F5F5F5F5F5F5F5F5F5F5F5F5F5F5F5F5F5F5F5F5F5F5F5F5F5F5F5F5F5F5F5F5F5F5F5F5F5F5F5F5F5F5F5E2F5F5F5F5F5F5F5F5F5F5F5F5F5F5F5F5E2F5F5F5F5E2E2F5F5F5F5E2F5F5F5F5F5F5F5F5F5F5F5F5F5F5F5F5E2
310
F5F5F5F5F5F5F5F5F5F5F5F5F5F5F5F5F5F5F5F5F5F5F5F5F5F5F5F5F5F5F5F5F5F5F5F5F5F5F5F5F5F5F5F5F5F5F5F5F5F5F5F5F5F5F5F5F5F5F5F5F5F5F5F5F5F5F5F5F5F5F5F5F5F5F5F5F5F5F5F5F5F5F5F5F5F5F5F5F5F5F5F5F5F5F5F5F5F5F5F5F5F5F5F5F5F5F5F5F5F5F5F5F5F5F5F5F5F5F5F5F5F5F5F5F5F5F5
310
F5F5F5F5F5F5F5E2F5F5F5F5F5F5F5F5F5F5F5F5F5F5F5F5E2F5F5F5F5E2E2F5F5F5F5E2F5F5F5F5F5F5F5F5F5F5F5F5F5F5F5F5E2F5F5F5F5F5F5F5F5F5F5F5F5F5F5F5F5F5F5F5F5F5F5F5F5F5F5F5F5F5F5F5F5F5F5F5F5F5F5F5F5F5F5F5F5F5F5F5F5F5F5F5F5F5F5F5F5F5F5F5F5F5F5F5F5F5F5F5F5F5F5F5F5F5F5
310
F5F5F5F5F5F5F5F5F5F5F5F5F5F5F5F5F5F5F5F5F5F5F5F5F5F5F5F5F5F5F5F5F5F5F5F5F5F5F5F5F5F5F5F5F5F5F5F5F5F5F5F5F5F5F5F5F5F5F5F5E2F5F5F5F5F5F5F5F5F5F5F5F5F5F5F5F5E2F5F5F5F5E2E2F5F5F5F5F5F5F5F5F5F5F5F5F5F5F5F5F5F5F5F5F5E2F5F5F5F5F5F5F5F5F5F5F5F5F5F5F5F5F5F5F5F5F5
310
F5F5F5F5F5F5F5F5F5F5F5F5F5F5F5F5F5F5F5F5F5F5F5F5F5F5F5F5F5F5F5F5F5F5F5F5F5F5F5F5F5F5F5F5F5F5F5F5F5F5F5F5F5F5F5F5F5F5F5F5F5F5F5F5F5F5F5F5F5F5F5F5F5F5F5F5F5F5F5F5F5F5F5F5F5F5F5F5F5F5F5F5F5F5F5F5F5F5F5F5F5F5F5F5F5F5F5F5F5F5F5F5F5E2F5F5F5F5F5F5F5F5F5F5F5F5F5
310
F5F5F5F5F5F5F5F5E2E2F5F5F5F5F5F5F5F5F5F5F5F5F5F5F5F5F5F5F5F5F5E2F5F5F5F5F5F5F5F5F5F5F5F5F5F5F5F5F5F5F5F5F5F5F5F5F5F5F5F5F5F5F5F5F5F5F5F5F5F5F5F5F5F5F5F5F5F5F5F5F5F5F5F5F5F5F5F5F5F5F5F5F5F5F5F5F5F5F5F5F5F5F5F5F5F5F5F5F5F5F5F5F5F5F5F5F5F5F5F5F5F5F5F5F5F5F5
310
F5F5F5F5F5F5F5F5F5F5F5F5F5F5F5F5F5F5F5F5F5F5F5F5F5F5F5F5F5F5F5F5F5F5F5F5F5F5F5E2F5F5F5F5F5F5F5F5F5F5F5F5F5F5F5F5F5F5F5F5F5E2E2F5F5F5F5F5F5F5F5F5F5F5F5F5F5F5F5F5F5F5F5F5E2F5F5F5F5F5F5F5F5F5F5F5F5F5F5F5F5F5F5F5F5F5F5F5F5F5F5F5F5F5F5F5F5F5F5F5F5F5F5F5F5F5F5
310
F5F5F5F5F5F5F5F5F5F5F5F5F5F5F5F5F5F5F5F5F5F5F5F5F5F5F5F5F5F5F5F5F5F5F5F5F5F5F5F5F5F5F5F5F5F5F5F5F5F5F5F5F5F5F5F5F5F5F5F5F5F5F5F5F5F5F5F5F5F5F5F5F5F5F5F5F5F5F5F5F5F5F5F5F5F5F5F5F5F5F5F5E2F5F5F5F5F5F5F5F5F5F5F5F5F5F5F5F5F5F5F5F5F5E2E2F5F5F5F5F5F5F5F5F5F5F5
310
F5F5F5F5F5F5F5F5F5F5E2F5F5F5F5F5F5F5F5F5F5F5F5F5F5F5F5F5F5F5F5F5F5F5F5F5F5F5F5F5F5F5F5F5F5F5F5F5F5F5F5F5F5F5F5F5F5F5F5F5F5F5F5F5F5F5F5F5F5F5F5F5F5F5F5F5F5F5F5F5F5F5F5F5F5F5F5F5F5F5F5F5F5F5F5F5F5F5F5F5F5F5F5F5F5F5F5F5F5F5F5F5F5F5F5F5F5F5F5F5F5F5F5F5F5F5F5
310
F5F5F5F5F5F5F5F5F5F5F5F5F5F5F5F5F5F5E2F5F5F5F5F5F5F5F5F5F5F5F5F5F5F5F5F5F5F5F5F5E2E2F5F5F5F5F5F5F5F5F5F5F5F5F5F5F5F5F5F5F5F5F5E2F5F5F5F5F5F5F5F5F5F5F5F5F5F5F5F5F5F5F5F5F5F5F5F5F5F5F5F5F5F5F5F5F5F5F5F5F5F5F5F5F5F5F5F5F5F5F5F5F5F5F5F5F5F5F5F5F5F5F5F5F5F5F5
310
F5F5F5F5F5F5F5F5F5F5F5F5F5F5F5F5F5F5F5F5F5F5F5F5F5F5F5F5F5F5F5F5F5F5F5F5F5F5F5F5F5F5F5F5F5F5F5F5F5F5F5F5F5F5F5F5F5F5F5F5F5F5F5F5F5F5F5F5F5F5F5E2F5F5F5F5F5F5F5F5F5F5F5F5F5F5F5F5F5F5F5F5F5E2E2F5F5F5F5F5F5F5F5F5F5F5F5F5F5F5F5F5F5F5F5F5E2F5F5F5F5F5F5F5F5F5F5
310
F5F5F5F5F5F5F5F5F5F5F5F5F5F5F5F5F5F5F5F5F5F5F5F5F5F5F5F5F5F5F5F5F5F5F5F5F5F5F5F5F5F5F5F5F5F5F5F5F5F5F5F5F5F5F5F5F5F5F5F5F5F5F5F5F5F5F5F5F5F5F5F5F5F5F5F5F5F5F5F5F5F5F5F5F5F5F5F5F5F5F5F5F5F5F5F5F5F5F5F5F5F5F5F5F5F5F5F5F5F5F5F5F5F5F5F5F5F5F5F5F5F5F5F5E2F5F5
310
F5F5F5F5F5F5F5F5F5F5F5F5F5F5F5F5F5F5F5E2E2F5F5F5F5F5F5F5F5F5F5F5F5F5F5F5F5F5F5F5F5F5E2F5F5F5F5F5F5F5F5F5F5F5F5F5F5F5F5F5F5F5F5F5F5F5F5F5F5F5F5F5F5F5F5F5F5F5F5F5F5F5F5F5F5F5F5F5F5F5F5F5F5F5F5F5F5F5F5F5F5F5F5F5F5F5F5F5F5F5F5F5F5F5F5F5F5F5F5F5F5F5F5F5F5F5F5
310
F5F5F5F5F5F5F5F5F5F5F5F5F5F5F5F5F5F5F5F5F5F5F5F5F5F5F5F5F5F5F5F5F5F5F5F5F5F5F5F5F5F5F5F5F5F5F5F5F5F5E2F5F5F5F5F5F5F5F5F5F5F5F5F5F5F5F5F5F5F5F5F5E2E2F5F5F5F5F5F5F5F5F5F5F5F5F5F5F5F5F5F5F5F5F5E2F5F5F5F5F5F5F5F5F5F5F5F5F5F5F5F5F5F5F5F5F5F5F5F5F5F5F5F5F5F5F5
310
F5F5F5F5F5F5F5F5F5F5F5F5F5F5F5F5F5F5F5F5F5F5F5F5F5F5F5F5F5F5F5F5F5F5F5F5F5F5F5F5F5F5F5F5F5F5F5F5F5F5F5F5F5F5F5F5F5F5F5F5F5F5F5F5F5F5F5F5F5F5F5F5F5F5F5F5F5F5F5F5F5F5F5F5F5F5F5F5F5F5F5F5F5F5F5F5F5F5F5F5F5F5F5E2F5F5F5F5F5F5F5F5F5F5F5F5F5F5F5F5F5F5F5F5F5E2E2
310
F5F5F5F5F5F5F5F5F5F5F5F5F5F5F5F5F5F5F5F5F5E2F5F5F5F5F5F5F5F5F5F5F5F5F5F5F5F5F5F5F5F5F5F5F5F5F5F5F5F5F5F5F5F5F5F5F5F5F5F5F5F5F5F5F5F5F5F5F5F5F5F5F5F5F5F5F5F5F5F5F5F5F5F5F5F5F5F5F5F5F5F5F5F5F5F5F5F5F5F5F5F5F5F5F5F5F5F5F5F5F5F5F5F5F5F5F5F5F5F5F5F5F5F5F5F5F5
310
F5F5F5F5F5F5F5F5F5F5F5F5F5F5F5F5F5F5F5F5F5F5F5F5F5F5F5F5F5E2F5F5F5F5F5F5F5F5F5F5F5F5F5F5F5F5F5F5F5F5F5E2E2F5F5F5F5F5F5F5F5F5F5F5F5F5F5F5F5F5F5F5F5F5E2F5F5F5F5F5F5F5F5F5F5F5F5F5F5F5F5F5F5F5F5F5F5F5F5F5F5F5F5F5F5F5F5F5F5F5F5F5F5F5F5F5F5F5F5F5F5F5F5F5F5F5F5
310
F5F5F5F5F5F5F5F5F5F5F5F5F5F5F5F5F5F5F5F5F5F5F5F5F5F5F5F5F5F5F5F5F5F5F5F5F5F5F5F5F5F5F5F5F5F5F5F5F5F5F5F5F5F5F5F5F5F5F5F5F5F5F5F5F5F5F5F5F5F5F5F5F5F5F5F5F5F5F5F5F5F5E2F5F5F5F5F5F5F5F5F5F5F5F5F5F5F5F5F5F5F5F5F5E2E2F5F5F5F5E2F5F5F5F5F5F5F5F5F5F5F5F5F5F5F5F5
310
E2F5F5F5F5F5F5F5F5F5F5F5F5F5F5F5F5F5F5F5F5F5F5F5F5F5F5F5F5F5F5F5F5F5F5F5F5F5F5F5F5F5F5F5F5F5F5F5F5F5F5F5F5F5F5F5F5F5F5F5F5F5F5F5F5F5F5F5F5F5F5F5F5F5F5F5F5F5F5F5F5F5F5F5F5F5F5F5F5F5F5F5F5F5F5F5F5F5F5F5F5F5F5F5F5F5F5F5F5F5F5F5F5F5F5F5F5F5F5F5F5F5F5F5F5F5F5
310
F5F5F5F5F5F5F5F5E2F5F5F5F5F5F5F5F5F5F5F5F5F5F5F5F5E2F5F5F5F5E2E2F5F5F5F5E2F5F5F5F5F5F5F5F5F5F5F5F5F5F5F5F5E2F5F5F5F5F5F5F5F5F5F5F5F5F5F5F5F5F5F5F5F5F5F5F5F5F5F5F5F5F5F5F5F5F5F5F5F5F5F5F5F5F5F5F5F5F5F5F5F5F5F5F5F5F5F5F5F5F5F5F5F5F5F5F5F5F5F5F5F5F5F5F5F5F5
310
F5F5F5F5F5F5F5F5F5F5F5F5F5F5F5F5F5F5F5F5F5F5F5F5F5F5F5F5F5F5F5F5F5F5F5F5F5F5F5F5F5F5F5F5F5F5F5F5F5F5F5F5F5F5F5F5F5F5F5F5F5E2F5F5F5F5F5F5F5F5F5F5F5F5F5F5F5F5E2F5F5F5F5E2E2F5F5F5F5E2F5F5F5F5F5F5F5F5F5F5F5F5F5F5F5F5E2F5F5F5F5F5F5F5F5F5F5F5F5F5F5F5F5F5F5F5F5
310
F5F5F5F5F5F5F5F5F5F5F5F5F5F5F5F5F5F5F5F5F5F5F5F5F5F5F5F5F5F5F5F5F5F5F5F5F5F5F5F5F5F5F5F5F5F5F5F5F5F5F5F5F5F5F5F5F5F5F5F5F5F5F5F5F5F5F5F5F5F5F5F5F5F5F5F5F5F5F5F5F5F5F5F5F5F5F5F5F5F5F5F5F5F5F5F5F5F5F5F5F5F5F5F5F5F5F5F5F5F5F5F5F5F5E2F5F5F5F5F5F5F5F5F5F5F5F5
310
F5F5F5F5E2F5F5F5F5E2E2F5F5F5F5E2F5F5F5F5F5F5F5F5F5F5F5F5F5F5F5F5E2F5F5F5F5F5F5F5F5F5F5F5F5F5F5F5F5F5F5F5F5F5F5F5F5F5F5F5F5F5F5F5F5F5F5F5F5F5F5F5F5F5F5F5F5F5F5F5F5F5F5F5F5F5F5F5F5F5F5F5F5F5F5F5F5F5F5F5F5F5F5F5F5F5F5F5F5F5F5F5F5F5F5F5F5F5F5F5F5F5F5F5F5F5F5
310
F5F5F5F5F5F5F5F5F5F5F5F5F5F5F5F5F5F5F5F5F5F5F5F5F5F5F5F5F5F5F5F5F5F5F5F5F5F5F5F5E2F5F5F5F5F5F5F5F5F5F5F5F5F5F5F5F5E2F5F5F5F5E2E2F5F5F5F5E2F5F5F5F5F5F5F5F5F5F5F5F5F5F5F5F5E2F5F5F5F5F5F5F5F5F5F5F5F5F5F5F5F5F5F5F5F5F5F5F5F5F5F5F5F5F5F5F5F5F5F5F5F5F5F5F5F5F5
310
F5F5F5F5F5F5F5F5F5F5F5F5F5F5F5F5F5F5F5F5F5F5F5F5F5F5F5F5F5F5F5F5F5F5F5F5F5F5F5F5F5F5F5F5F5F5F5F5F5F5F5F5F5F5F5F5F5F5F5F5F5F5F5F5F5F5F5F5F5F5F5F5F5F5F5F5F5F5F5F5F5F5F5F5F5F5F5F5F5F5F5F5F5E2F5F5F5F5F5F5F5F5F5F5F5F5F5F5F5F5E2F5F5F5F5E2E2F5F5F5F5E2F5F5F5F5F5
310
F5F5F5F5F5F5F5F5F5F5F5E2F5F5F5F5F5F5F5F5F5F5F5F5F5F5F5F5F5F5F5F5F5F5F5F5F5F5F5F5F5F5F5F5F5F5F5F5F5F5F5F5F5F5F5F5F5F5F5F5F5F5F5F5F5F5F5F5F5F5F5F5F5F5F5F5F5F5F5F5F5F5F5F5F5F5F5F5F5F5F5F5F5F5F5F5F5F5F5F5F5F5F5F5F5F5F5F5F5F5F5F5F5F5F5F5F5F5F5F5F5F5F5F5F5F5F5
310
F5F5F5F5F5F5F5F5F5F5F5F5F5F5F5F5F5F5F5E2F5F5F5F5F5F5F5F5F5F5F5F5F5F5F5F5E2F5F5F5F5E2E2F5F5F5F5E2F5F5F5F5F5F5F5F5F5F5F5F5F5F5F5F5E2F5F5F5F5F5F5F5F5F5F5F5F5F5F5F5F5F5F5F5F5F5F5F5F5F5F5F5F5F5F5F5F5F5F5F5F5F5F5F5F5F5F5F5F5F5F5F5F5F5F5F5F5F5F5F5F5F5F5F5F5F5F5
310
F5F5F5F5F5F5F5F5F5F5F5F5F5F5F5F5F5F5F5F5F5F5F5F5F5F5F5F5F5F5F5F5F5F5F5F5F5F5F5F5F5F5F5F5F5F5F5F5F5F5F5F5F5F5F5F5F5F5F5F5F5F5F5F5F5F5F5F5F5F5F5F5E2F5F5F5F5F5F5F5F5F5F5F5F5F5F5F5F5E2F5F5F5F5E2E2F5F5F5F5E2F5F5F5F5F5F5F5F5F5F5F5F5F5F5F5F5E2F5F5F5F5F5F5F5F5F5
310
F5F5F5F5F5F5F5F5F5F5F5F5F5F5F5F5F5F5F5F5F5F5F5F5F5F5F5F5F5F5F5F5F5F5F5F5F5F5F5F5F5F5F5F5F5F5F5F5F5F5F5F5F5F5F5F5F5F5F5F5F5F5F5F5F5F5F5F5F5F5F5F5F5F5F5F5F5F5F5F5F5F5F5F5F5F5F5F5F5F5F5F5F5F5F5F5F5F5F5F5F5F5F5F5F5F5F5F5F5F5F5F5F5F5F5F5F5F5F5F5F5F5F5F5F5E2F5
310
F5F5F5F5F5F5F5F5F5F5F5F5F5F5F5E2F5F5F5F5E2E2F5F5F5F5E2F5F5F5F5F5F5F5F5F5F5F5F5F5F5F5F5E2F5F5F5F5F5F5F5F5F5F5F5F5F5F5F5F5F5F5F5F5F5F5F5F5F5F5F5F5F5F5F5F5F5F5F5F5F5F5F5F5F5F5F5F5F5F5F5F5F5F5F5F5F5F5F5F5F5F5F5F5F5F5F5F5F5F5F5F5F5F5F5F5F5F5F5F5F5F5F5F5F5F5F5
310
F5F5F5F5F5F5F5F5F5F5F5F5F5F5F5F5F5F5F5F5F5F5F5F5F5F5F5F5F5F5F5F5F5F5F5F5F5F5F5F5F5F5F5F5F5F5F5F5F5F5F5E2F5F5F5F5F5F5F5F5F5F5F5F5F5F5F5F5E2F5F5F5F5E2E2F5F5F5F5E2F5F5F5F5F5F5F5F5F5F5F5F5F5F5F5F5E2F5F5F5F5F5F5F5F5F5F5F5F5F5F5F5F5F5F5F5F5F5F5F5F5F5F5F5F5F5F5
310
F5F5F5F5F5F5F5F5F5F5F5F5F5F5F5F5F5F5F5F5F5F5F5F5F5F5F5F5F5F5F5F5F5F5F5F5F5F5F5F5F5F5F5F5F5F5F5F5F5F5F5F5F5F5F5F5F5F5F5F5F5F5F5F5F5F5F5F5F5F5F5F5F5F5F5F5F5F5F5F5F5F5F5F5F5F5F5F5F5F5F5F5F5F5F5F5F5F5F5F5F5F5F5F5E2F5F5F5F5F5F5F5F5F5F5F5F5F5F5F5F5E2F5F5F5F5E2
310
E2F5F5F5F5E2F5F5F5F5F5F5F5F5F5F5F5F5F5F5F5F5E2F5F5F5F5F5F5F5F5F5F5F5F5F5F5F5F5F5F5F5F5F5F5F5F5F5F5F5F5F5F5F5F5F5F5F5F5F5F5F5F5F5F5F5F5F5F5F5F5F5F5F5F5F5F5F5F5F5F5F5F5F5F5F5F5F5F5F5F5F5F5F5F5F5F5F5F5F5F5F5F5F5F5F5F5F5F5F5F5F5F5F5F5F5F5F5F5F5F5F5F5F5F5F5F5
310
F5F5F5F5F5F5F5F5F5F5F5F5F5F5F5F5F5F5F5F5F5F5F5F5F5F5F5F5F5F5E2F5F5F5F5F5F5F5F5F5F5F5F5F5F5F5F5E2F5F5F5F5E2E2F5F5F5F5E2F5F5F5F5F5F5F5F5F5F5F5F5F5F5F5F5E2F5F5F5F5F5F5F5F5F5F5F5F5F5F5F5F5F5F5F5F5F5F5F5F5F5F5F5F5F5F5F5F5F5F5F5F5F5F5F5F5F5F5F5F5F5F5F5F5F5F5F5
310
F5F5F5F5F5F5F5F5F5F5F5F5F5F5F5F5F5F5F5F5F5F5F5F5F5F5F5F5F5F5F5F5F5F5F5F5F5F5F5F5F5F5F5F5F5F5F5F5F5F5F5F5F5F5F5F5F5F5F5F5F5F5F5F5F5F5F5F5F5F5F5F5F5F5F5F5F5F5F5F5F5F5F5E2F5F5F5F5F5F5F5F5F5F5F5F5F5F5F5F5E2F5F5F5F5E2E2F5F5F5F5E2F5F5F5F5F5F5F5F5F5F5F5F5F5F5F5
310
F5E2F5F5F5F5F5F5F5F5F5F5F5F5F5F5F5F5F5F5F5F5F5F5F5F5F5F5F5F5F5F5F5F5F5F5F5F5F5F5F5F5F5F5F5F5F5F5F5F5F5F5F5F5F5F5F5F5F5F5F5F5F5F5F5F5F5F5F5F5F5F5F5F5F5F5F5F5F5F5F5F5F5F5F5F5F5F5F5F5F5F5F5F5F5F5F5F5F5F5F5F5F5F5F5F5F5F5F5F5F5F5F5F5F5F5F5F5F5F5F5F5F5F5F5F5F5
310
F5F5F5F5F5F5F5F5F5E2F5F5F5F5F5F5F5F5F5F5F5F5F5F5F5F5E2F5F5F5F5E2E2F5F5F5F5E2F5F5F5F5F5F5F5F5F5F5F5F5F5F5F5F5E2F5F5F5F5F5F5F5F5F5F5F5F5F5F5F5F5F5F5F5F5F5F5F5F5F5F5F5F5F5F5F5F5F5F5F5F5F5F5F5F5F5F5F5F5F5F5F5F5F5F5F5F5F5F5F5F5F5F5F5F5F5F5F5F5F5F5F5F5F5F5F5F5
310
F5F5F5F5F5F5F5F5F5F5F5F5F5F5F5F5F5F5F5F5F5F5F5F5F5F5F5F5F5F5F5F5F5F5F5F5F5F5F5F5F5F5F5F5F5F5F5F5F5F5F5F5F5F5F5F5F5F5F5F5F5F5E2F5F5F5F5F5F5F5F5F5F5F5F5F5F5F5F5E2F5F5F5F5E2E2F5F5F5F5E2F5F5F5F5F5F5F5F5F5F5F5F5F5F5F5F5E2F5F5F5F5F5F5F5F5F5F5F5F5F5F5F5F5F5F5F5
310
F5F5F5F5F5F5F5F5F5F5F5F5F5F5F5F5F5F5F5F5F5F5F5F5F5F5F5F5F5F5F5F5F5F5F5F5F5F5F5F5F5F5F5F5F5F5F5F5F5F5F5F5F5F5F5F5F5F5F5F5F5F5F5F5F5F5F5F5F5F5F5F5F5F5F5F5F5F5F5F5F5F5F5F5F5F5F5F5F5F5F5F5F5F5F5F5F5F5F5F5F5F5F5F5F5F5F5F5F5F5F5F5F5F5F5E2F5F5F5F5F5F5F5F5F5F5F5
310
F5F5F5F5F5E2F5F5F5F5E2E2F5F5F5F5E2F5F5F5F5F5F5F5F5F5F5F5F5F5F5F5F5E2F5F5F5F5F5F5F5F5F5F5F5F5F5F5F5F5F5F5F5F5F5F5F5F5F5F5F5F5F5F5F5F5F5F5F5F5F5F5F5F5F5F5F5F5F5F5F5F5F5F5F5F5F5F5F5F5F5F5F5F5F5F5F5F5F5F5F5F5F5F5F5F5F5F5F5F5F5F5F5F5F5F5F5F5F5F5F5F5F5F5F5F5F5
310
F5F5F5F5F5F5F5F5F5F5F5F5F5F5F5F5F5F5F5F5F5F5F5F5F5F5F5F5F5F5F5F5F5F5F5F5F5F5F5F5F5E2F5F5F5F5F5F5F5F5F5F5F5F5F5F5F5F5E2F5F5F5F5E2E2F5F5F5F5F5F5F5F5F5F5F5F5F5F5F5F5F5F5F5F5F5E2F5F5F5F5F5F5F5F5F5F5F5F5F5F5F5F5F5F5F5F5F5F5F5F5F5F5F5F5F5F5F5F5F5F5F5F5F5F5F5F5
310
F5F5F5F5F5F5F5F5F5F5F5F5F5F5F5F5F5F5F5F5F5F5F5F5F5F5F5F5F5F5F5F5F5F5F5F5F5F5F5F5F5F5F5F5F5F5F5F5F5F5F5F5F5F5F5F5F5F5F5F5F5F5F5F5F5F5F5F5F5F5F5F5F5F5F5F5F5F5F5F5F5F5F5F5F5F5F5F5F5F5F5F5F5F5E2F5F5F5F5F5F5F5F5F5F5F5F5F5F5F5F5F5F5F5F5F5E2E2F5F5F5F5F5F5F5F5F5
310
F5F5F5F5F5F5F5F5F5F5F5F5E2F5F5F5F5F5F5F5F5F5F5F5F5F5F5F5F5F5F5F5F5F5F5F5F5F5F5F5F5F5F5F5F5F5F5F5F5F5F5F5F5F5F5F5F5F5F5F5F5F5F5F5F5F5F5F5F5F5F5F5F5F5F5F5F5F5F5F5F5F5F5F5F5F5F5F5F5F5F5F5F5F5F5F5F5F5F5F5F5F5F5F5F5F5F5F5F5F5F5F5F5F5F5F5F5F5F5F5F5F5F5F5F5F5F5
310
F5F5F5F5F5F5F5F5F5F5F5F5F5F5F5F5F5F5F5F5E2F5F5F5F5F5F5F5F5F5F5F5F5F5F5F5F5F5F5F5F5F5E2E2F5F5F5F5F5F5F5F5F5F5F5F5F5F5F5F5F5F5F5F5F5E2F5F5F5F5F5F5F5F5F5F5F5F5F5F5F5F5F5F5F5F5F5F5F5F5F5F5F5F5F5F5F5F5F5F5F5F5F5F5F5F5F5F5F5F5F5F5F5F5F5F5F5F5F5F5F5F5F5F5F5F5F5
310
F5F5F5F5F5F5F5F5F5F5F5F5F5F5F5F5F5F5F5F5F5F5F5F5F5F5F5F5F5F5F5F5F5F5F5F5F5F5F5F5F5F5F5F5F5F5F5F5F5F5F5F5F5F5F5F5F5F5F5F5F5F5F5F5F5F5F5F5F5F5F5F5F5E2F5F5F5F5F5F5F5F5F5F5F5F5F5F5F5F5F5F5F5F5F5E2E2F5F5F5F5F5F5F5F5F5F5F5F5F5F5F5F5F5F5F5F5F5E2F5F5F5F5F5F5F5F5
310
F5F5F5F5F5F5F5F5F5F5F5F5F5F5F5F5F5F5F5F5F5F5F5F5F5F5F5F5F5F5F5F5F5F5F5F5F5F5F5F5F5F5F5F5F5F5F5F5F5F5F5F5F5F5F5F5F5F5F5F5F5F5F5F5F5F5F5F5F5F5F5F5F5F5F5F5F5F5F5F5F5F5F5F5F5F5F5F5F5F5F5F5F5F5F5F5F5F5DCF5F5F5F5F5F5F5F5F5F5F5F5F5F5F5F5F5F5F5F5F5F5F5F5F5F5F5E2
310
F5F5F5F5F5F5F5F5F5F5F5F5F5F5F5F5F5F5F5F5F5E2E2F5F5F5F5F5F5F5F5F5F5F5F5F5F5F5F5F5F5F5F5F5E2F5F5F5F5F5F5F5F5F5F5F5F5F5F5F5F5F5F5F5F5F5F5F5F5F5F5F5F5F5F5F5F5F5F5F5F5F5F5F5F5F5F5F5F5F5F5F5F5F5F5F5F5F5F5F5F5F5F5F5F5F5F5F5F5F5F5F5F5F5F5F5F5F5F5F5F5F5F5F5F5F5E2
310
ECE2E2E2E2E2E2E2E2E2E2E2E2E2E2E2E2E2E2E2E2E2E2E2DCE2E2E2E2E2E2E2E2E2E2E2E2E2E2E2E2E2E2E2E2E2E2E2ECE2F5F5E2F5F5F5F5F5F5F5F5F5F5F5F5F5F5F5F5F5F5F5F5F5E2E2F5F5F5F5F5F5F5F5F5F5F5F5F5F5F5F5F5F5F5F5F5E2F5F5F5F5F5F5F5F5F5F5F5F5F5F5F5F5F5F5F5F5F5F5F5F5F5F5F5F5F5
310
F5F5F5F5F5F5F5F5F5F5F5F5F5F5F5F5F5F5F5F5F5F5F5F5F5F5F5F5F5F5F5F5F5F5F5F5F5F5F5F5F5F5F5F5F5F5F5F5F5F5F5E2F5F5ECF5F5F5F5F5F5F5F5F5F5F5F5F5F5F5F5F5F5F5F5F5F5DCF5F5F5F5F5F5F5F5F5F5F5F5F5F5F5F5F5F5F5F5F5F5ECF5F5E2F5E2F5F5F5F5F5F5F5F5F5F5F5F5F5F5F5F5F5F5F5F5F5
310
E2E2F5F5F5F5F5F5F5F5F5F5F5F5F5F5F5F5F5F5F5F5F5E2F5F5F5F5F5F5F5F5F5F5F5F5F5F5F5F5F5F5F5F5F5F5F5F5F5F5F5F5F5F5F5F5F5F5F5F5F5F5F5F5F5F5F5F5F5F5F5F5F5F5F5F5F5F5F5F5F5F5F5F5F5F5F5F5F5F5F5F5F5F5F5F5F5F5F5F5F5F5F5E2F5F5F5F5ECF5F5F5F5F5F5F5F5F5F5F5F5F5F5F5F5F5F5
310
F5F5F5DCF5F5F5F5F5F5F5F5F5F5F5F5F5F5F5F5F5F5F5F5F5ECF5F5F5F5E2E2F5F5F5F5F5F5F5F5F5F5F5F5F5F5F5F5F5F5F5F5F5E2E2F5F5F5F5F5F5F5F5F5F5F5F5F5F5F5F5F5F5F5F5F5E2F5F5F5F5F5F5F5F5F5F5F5F5F5F5F5F5F5F5F5F5F5F5F5F5F5F5F5F5F5F5F5F5F5F5F5F5F5F5F5F5F5F5F5F5F5F5F5F5F5F5
310
F5F5F5F5F5F5F5F5F5F5F5F5F5F5F5F5F5F5F5F5F5F5F5F5F5F5F5F5E2E2E2E2E2E2ECE2E2E2E2E2E2E2E2E2ECECECECECECE2ECECECECECDCECECECECECE2ECECECECECECE2E2E2E2E2E2E2E2ECE2E2E2E2E2E2E2F5F5F5F5F5F5F5F5F5F5F5F5F5F5F5F5F5F5F5F5F5E2E2F5F5F5F5F5F5F5F5F5F5F5F5F5F5F5F5F5F5F5
310
F5F5E2F5F5F5F5F5F5F5F5F5F5F5F5F5F5F5F5F5F5F5F5F5F5F5F5F5F5F5F5F5F5F5F5F5F5F5F5F5F5F5F5F5F5F5F5F5F5F5F5F5F5F5F5F5F5F5F5F5F5F5F5F5F5F5F5F5F5F5F5F5F5F5F5F5F5F5F5F5F5E2F5F5F5F5F5F5F5F5F5F5F5F5F5F5F5ECF5F5F5F5F5F5F5F5F5F5F5DCF5F5F5F5F5F5F5F5F5F5ECF5F5F5F5F5F5
310
F5F5F5F5F5F5F5F5F5E2E2F5F5F5F5F5F5F5F5F5F5F5F5F5F5F5F5F5F5F5F5F5E2E2F5F5F5F5E2F5F5F5F5F5F5F5F5F5F5F5F5F5F5F5F5E2F5F5F5F5F5F5F5F5F5F5F5F5F5F5F5F5F5F5F5F5F5F5F5F5F5F5F5F5F5F5F5F5F5F5F5F5F5F5F5F5F5F5F5F5F5F5F5F5F5F5F5F5F5F5F5F5F5F5F5F5F5F5F5F5F5F5F5F5F5F5F5
310
F5F5F5F5F5F5F5E2F5F5F5F5F5F5F5F5F5F5F5F5F5F5F5ECECECECECECECECECECECECECECECECECECECECECECECECF5F5F5F5F5F5F5F5F5F5F5F5F5F5F5E2E2F5F5F5F5F5F5F5F5F5F5F5F5F5F5F5F5E2F5F5F5F5E2E2F5F5F5F5E2F5F5F5F5F5F5F5F5F5F5F5F5F5F5F5F5E2F5F5F5F5F5F5F5F5F5F5F5F5F5F5F5F5F5F5
310
F5F5F5F5F5F5F5F5F5F5F5F5F5F5F5F5F5F5F5F5F5F5F5F5F5F5F5F5F5F5F5F5F5F5F5F5F5F5F5F5F5F5F5F5F5F5F5F5F5F5F5F5F5F5F5F5F5F5F5F5F5E2F5F5F5F5F5F5F5F5F5F5F5F5F5F5F5F5F5F5F5ECF5F5F5F5F5F5DCF5F5F5F5F5ECF5F5F5F5F5F5F5F5F5F5F5F5F5F5F5F5F5F5F5F5E2E2F5F5F5F5F5F5F5F5F5F5
310
F5F5F5F5F5F5E2F5F5F5F5E2E2F5F5F5F5E2F5F5F5F5F5F5F5F5F5F5F5F5F5F5F5F5E2F5F5F5F5F5F5F5F5F5F5F5F5F5F5F5F5F5F5F5F5F5F5F5F5F5F5F5F5F5F5F5F5F5F5F5F5F5F5F5F5F5F5F5F5F5F5F5F5F5F5F5F5F5F5F5F5F5F5F5F5F5F5F5F5F5F5F5F5F5F5F5F5F5F5F5F5F5F5F5F5E2F5F5F5F5F5F5F5F5F5F5F5
310
F5F5F5F5F5ECECECECECECF5ECECECECECF5ECECECECECF5F5F5F5F5F5F5F5F5F5F5F5F5F5F5F5F5E2F5E2F5F5F5F5F5F5F5F5F5F5F5F5F5F5F5F5E2F5F5F5F5E2E2F5F5F5F5E2F5F5F5F5F5F5F5F5F5F5F5F5F5F5F5F5E2F5F5F5F5F5F5F5F5F5F5F5F5F5F5F5F5F5F5F5F5F5F5F5F5F5F5F5F5F5F5F5F5F5F5F5F5F5F5F5
310
F5F5F5F5F5F5F5F5F5F5F5F5F5F5F5F5F5F5F5F5F5F5F5F5F5F5F5F5F5F5F5F5F5F5F5F5F5F5F5F5F5F5E2E2F5F5F5F5F5F5F5F5F5F5F5F5F5F5ECF5F5F5F5F5F5F5F5DCF5F5F5F5F5F5F5ECF5F5F5F5F5F5F5F5F5F5F5F5F5F5F5E2E2F5F5E2F5F5F5F5F5F5F5F5F5F5F5F5F5F5F5F5E2F5F5F5F5E2E2F5F5F5F5E2F5F5F5
310
F5F5F5F5F5F5F5F5F5F5F5F5F5E2F5F5F5F5F5F5F5F5F5F5F5F5F5F5F5F5F5F5F5F5F5F5F5F5F5F5F5F5F5F5F5F5F5F5F5F5F5F5F5F5F5F5F5F5F5F5F5F5F5F5F5F5F5F5F5F5F5F5F5F5F5F5F5F5F5F5F5F5F5F5F5F5F5F5F5F5F5F5F5F5F5F5F5E2F5F5F5F5F5F5F5F5F5F5F5F5F5ECF5F5F5F5F5F5F5F5DCF5F5F5F5F5F5
310
F5ECF5F5F5F5F5F5F5F5F5F5F5F5F5E2E2F5F5F5F5E2F5F5F5F5F5F5F5F5F5F5F5F5F5F5F5F5E2F5F5F5F5E2E2F5F5F5F5E2F5F5F5F5F5F5F5F5F5F5F5F5F5F5F5F5E2F5F5F5F5F5F5F5F5F5F5F5F5F5F5F5F5F5F5F5F5F5F5F5F5F5F5F5F5F5F5F5F5F5F5F5F5F5F5F5F5F5F5F5F5F5F5F5F5F5F5F5F5F5F5F5F5F5F5F5F5
310
F5F5F5F5F5F5F5F5F5F5F5F5F5F5F5F5F5F5F5F5F5F5F5F5E2E2F5F5F5F5F5F5F5F5F5F5F5ECF5F5F5F5F5F5F5F5DCF5F5F5F5F5F5F5ECF5F5F5F5F5F5F5F5F5F5F5F5E2F5F5F5F5F5F5E2F5F5F5F5F5F5F5F5F5F5F5F5F5F5F5F5E2F5F5F5F5E2E2F5F5F5F5E2F5F5F5F5F5F5F5F5F5F5F5F5F5F5F5F5E2F5F5F5F5F5F5F5
310
F5F5F5F5F5F5F5F5F5F5F5F5F5F5F5F5F5F5F5F5F5F5F5F5F5F5F5F5F5F5F5F5F5F5F5F5F5F5F5F5F5F5F5F5F5F5F5F5F5F5F5F5F5F5F5F5F5F5F5F5F5F5F5F5F5F5F5F5F5F5F5F5F5F5F5F5F5F5F5E2F5F5F5F5F5F5F5F5F5F5ECF5F5F5F5F5F5F5F5DCF5F5F5F5F5F5F5ECF5F5F5F5F5F5F5F5F5F5E2E2F5F5F5F5F5F5F5
310
E2F5F5F5F5F5F5F5F5F5F5F5F5F5F5F5F5E2F5F5F5F5E2E2F5F5F5F5E2F5F5F5F5F5F5F5F5F5F5F5F5F5F5F5F5E2F5F5F5F5F5F5F5F5F5F5F5F5F5F5F5F5F5F5F5F5F5F5F5F5F5F5F5F5F5F5F5F5F5F5F5F5F5F5F5F5F5F5F5F5F5F5F5F5F5F5F5F5F5F5F5F5F5F5F5F5F5F5F5F5F5F5F5F5F5F5F5F5F5F5F5F5F5F5F5F5F5
310
F5F5F5F5F5F5E2E2F5F5F5F5F5F5F5F5F5ECECECECECF5ECECECECECF5ECECECECECF5F5F5F5F5F5F5F5E2E2F5F5F5F5F5F5F5F5F5E2F5F5F5F5F5F5F5F5F5F5F5F5F5F5F5F5E2F5F5F5F5E2E2F5F5F5F5E2F5F5F5F5F5F5F5F5F5F5F5F5F5F5F5F5E2F5F5F5F5F5F5F5F5F5F5F5F5F5F5F5F5F5F5F5F5F5F5F5F5F5F5F5F5
310
F5F5F5F5F5F5F5F5F5F5F5F5F5F5F5F5F5F5F5F5F5F5F5F5F5F5F5F5F5F5F5F5F5F5F5F5F5F5F5F5F5F5F5F5F5F5F5F5F5F5F5F5F5F5F5F5F5F5F5F5F5E2E2F5F5F5F5F5F5F5ECF5F5F5F5F5F5F5DCF5F5F5F5F5F5F5ECF5F5F5F5F5F5F5E2F5F5F5F5F5F5F5F5F5F5F5E2F5F5F5F5F5F5F5F5F5F5F5F5F5F5F5F5E2F5F5F5
310
F5E2E2F5F5F5F5E2F5F5F5F5F5F5F5F5F5F5F5F5F5F5F5F5E2F5F5F5F5F5F5F5F5F5F5F5F5F5F5F5F5F5F5F5F5F5F5F5F5F5F5F5F5F5F5F5F5F5F5F5F5F5F5F5F5F5F5F5F5F5F5F5F5F5F5F5F5F5F5F5F5F5F5F5F5F5F5F5F5F5F5F5F5F5F5F5F5F5F5F5F5F5F5F5F5F5F5F5F5F5F5F5F5F5F5E2F5F5F5F5F5F5F5ECF5F5F5
310
F5F5F5F5DCF5F5F5F5F5F5F5ECF5F5F5F5F5F5F5E2F5F5F5F5F5F5F5F5F5F5F5E2F5F5F5F5F5F5F5F5F5F5F5F5F5F5F5F5E2F5F5F5F5E2E2F5F5F5F5E2F5F5F5F5F5F5F5F5F5F5F5F5F5F5F5F5E2F5F5F5F5F5F5F5F5F5F5F5F5F5F5F5F5F5F5F5F5F5F5F5F5F5F5F5F5F5F5F5F5F5F5F5F5F5F5F5F5F5F5F5F5F5F5F5F5F5
310
F5F5F5F5F5F5F5F5F5F5F5F5F5F5F5F5F5F5F5F5F5F5F5F5F5F5F5F5F5F5F5F5F5F5F5F5F5F5F5F5F5E2F5F5F5F5F5F5F5ECF5F5F5F5F5F5F5DCF5F5F5F5F5F5F5ECF5F5F5F5F5F5F5E2F5F5F5F5F5F5F5F5F5F5F5E2F5F5F5F5F5F5F5F5F5F5F5F5F5F5F5F5E2F5F5F5F5E2E2F5F5F5F5E2F5F5F5F5F5F5F5F5F5F5F5F5F5
310
F5F5F5E2F5F5F5F5F5F5F5F5F5F5F5F5F5F5F5F5F5F5F5F5F5F5F5F5F5F5F5F5F5F5F5F5F5F5F5F5F5F5F5F5F5F5F5F5F5F5F5F5F5F5F5F5F5F5F5F5F5F5F5F5F5F5F5F5F5F5F5F5F5F5F5F5F5F5F5F5F5F5F5F5F5F5F5F5F5F5F5F5F5F5E2F5F5F5F5F5F5F5ECF5F5F5F5E2E2E2E2E2E2E2F5F5F5F5ECF5F5F5F5F5F5F5E2
310
F5F5F5F5F5F5F5F5F5F5F5E2F5F5F5F5F5F5F5F5F5F5F5F5F5F5F5F5E2F5F5F5F5E2E2F5F5F5F5E2F5F5F5F5F5F5F5F5F5F5F5F5F5F5F5F5E2F5F5F5F5F5F5F5F5F5F5F5F5F5F5F5F5F5F5F5F5F5F5F5F5F5F5F5F5F5F5F5F5F5F5F5F5F5F5F5F5F5F5F5F5F5F5F5F5F5F5F5F5F5F5F5F5F5F5F5F5F5F5F5F5F5F5F5F5F5F5
310
F5F5F5F5F5F5F5F5F5F5F5F5F5F5F5F5F5F5F5F5E2F5F5F5F5F5F5F5ECECECECECECF5F5DCF5F5ECECECECECECF5F5F5F5F5F5F5E2F5F5F5F5F5F5F5F5F5F5F5E2F5F5F5F5F5F5F5F5F5F5F5F5F5F5F5F5E2F5F5F5F5E2E2F5F5F5F5E2F5F5F5F5F5F5F5F5F5F5F5F5F5F5F5F5E2F5F5F5F5F5F5F5F5F5F5F5F5F5F5F5F5F5
310
F5F5F5F5F5F5F5F5F5F5F5F5F5F5F5F5F5F5F5F5F5F5F5F5F5F5F5F5F5F5F5F5F5F5F5F5F5F5F5F5F5F5F5F5F5F5F5F5F5F5F5F5F5F5F5F5F5F5F5F5F5F5F5F5F5F5F5F5F5F5F5F5F5E2F5F5F5F5F5F5F5ECF5F5F5F5E2F5F5DCF5F5E2F5F5F5F5ECF5F5F5F5F5F5F5E2F5F5F5F5F5F5F5F5F5F5F5E2F5F5F5F5F5F5F5F5F5
310
F5F5F5F5F5F5F5E2F5F5F5F5E2E2F5F5F5F5E2F5F5F5F5F5F5F5F5F5F5F5F5F5F5F5F5E2F5F5F5F5F5F5F5F5F5F5F5F5F5F5F5F5F5F5F5F5F5F5F5F5F5F5F5F5F5F5F5F5F5F5F5F5F5F5F5F5F5F5F5F5F5F5F5F5F5F5F5F5F5F5F5F5F5F5F5F5F5F5F5F5F5F5F5F5F5F5F5F5F5F5F5F5F5F5F5F5F5F5F5F5F5F5F5F5F5F5E2
310
E2E2E2E2E2E2E2E2E2E2E2E2ECF5F5DCF5F5E2E2E2E2E2E2E2E2E2E2E2E2E2E2F5F5F5F5F5F5F5F5F5F5F5E2F5F5F5F5F5F5F5F5F5F5F5F5F5F5F5F5E2F5F5F5F5E2E2F5F5F5F5E2F5F5F5F5F5F5F5F5F5F5F5F5F5F5F5F5E2F5F5F5F5F5F5F5F5F5F5F5F5F5F5F5F5F5F5F5F5F5F5F5F5F5F5F5F5F5F5F5F5F5F5F5F5F5F5
310
F5F5F5F5F5F5F5F5F5F5F5F5F5F5F5F5F5F5F5F5F5F5F5F5F5F5F5F5F5F5F5F5F5F5F5F5F5F5F5F5F5F5F5F5F5F5F5F5F5F5F5F5F5F5F5F5F5F5F5F5F5F5F5F5F5F5F5F5DCF5F5F5F5F5F5F5F5F5F5F5F5F5F5F5F5F5F5F5F5F5F5F5F5F5F5F5E2F5F5F5F5F5F5F5F5F5F5F5F5F5F5F5F5E2F5F5F5F5E2E2F5F5F5F5F5F5F5
310
F5F5F5F5F5F5F5F5F5F5F5F5F5F5E2F5F5F5F5F5F5F5F5F5F5F5F5F5F5F5F5F5F5F5F5F5F5F5F5F5F5F5F5F5F5F5F5F5F5F5F5F5F5F5F5F5F5F5F5F5F5F5F5F5F5F5F5F5F5F5F5F5F5F5F5F5F5F5F5F5F5F5F5F5F5F5F5F5F5F5F5F5F5F5F5F5F5F5F5F5F5F5F5F5F5F5F5F5F5F5F5F5F5F5F5F5F5F5F5F5F5F5F5F5F5F5F5
310
F5F5F5F5F5F5F5F5F5F5F5F5F5F5F5F5F5F5F5F5F5F5E2F5F5F5F5F5F5F5F5F5F5F5F5F5F5F5F5F5F5F5F5F5E2E2F5F5F5F5F5F5F5F5F5F5F5F5F5F5F5F5F5F5F5F5F5E2F5F5F5F5F5F5F5F5F5F5F5F5F5F5F5F5F5F5F5F5F5F5F5F5F5F5F5F5F5F5F5F5F5F5F5F5F5F5F5F5F5F5F5F5F5F5F5F5F5F5F5F5F5F5F5F5F5F5F5
310
F5F5F5F5F5F5F5F5F5F5F5F5F5F5F5F5F5F5F5F5F5F5F5F5F5F5F5F5F5F5F5F5F5F5F5F5F5F5F5F5F5F5F5F5F5F5F5F5F5F5F5F5F5F5F5F5F5F5F5F5F5F5F5F5F5F5F5F5F5F5F5F5F5F5F5E2F5F5F5F5F5F5F5F5F5F5F5F5F5F5F5F5F5F5F5F5F5E2E2F5F5F5F5F5F5F5F5F5F5F5F5F5F5F5F5F5F5F5F5F5E2F5F5F5F5F5F5
310
F5F5F5F5F5F5F5F5F5F5F5F5F5F5F5F5F5F5F5F5F5F5F5F5F5F5F5F5F5F5F5F5F5F5F5F5F5F5F5F5F5F5F5F5F5F5F5F5F5F5F5F5F5F5F5F5F5F5F5F5F5F5F5F5F5F5F5F5F5F5F5F5F5F5F5F5F5F5F5F5F5F5F5F5F5F5F5F5F5F5F5F5F5F5F5F5F5F5F5F5F5F5F5F5F5F5F5F5F5F5F5F5F5F5F5F5F5F5F5F5F5F5F5F5F5F5F5
310
F5E2F5F5F5F5F5F5F5F5F5F5F5F5F5F5F5F5F5F5F5F5F5E2E2F5F5F5F5F5F5F5F5F5F5F5F5F5F5F5F5F5F5F5F5F5E2F5F5F5F5F5F5F5F5F5F5F5F5F5F5F5F5F5F5F5F5F5F5F5F5F5F5F5F5F5F5F5F5F5F5F5F5F5F5F5F5F5F5F5F5F5F5F5F5F5F5F5F5F5F5F5F5F5F5F5F5F5F5F5F5F5F5F5F5F5F5F5F5F5F5F5F5F5F5F5F5
310
F5F5F5F5F5F5F5F5F5F5F5F5F5F5F5F5F5F5F5F5F5F5F5F5F5F5F5F5F5F5F5F5F5F5F5F5F5F5F5F5F5F5F5F5F5F5F5F5F5F5F5F5F5F5E2F5F5F5F5F5F5F5F5F5F5F5F5F5F5F5F5F5F5F5F5F5E2E2F5F5F5F5F5F5F5F5F5F5F5F5F5F5F5F5F5F5F5F5F5E2F5F5F5F5F5F5F5F5F5F5F5F5F5F5F5F5F5F5F5F5F5F5F5F5F5F5F5
310
F5F5F5F5F5F5F5F5F5F5F5F5F5F5F5F5F5F5F5F5F5F5F5F5F5F5F5F5F5F5F5F5F5F5F5F5F5F5F5F5F5F5F5F5F5F5F5F5F5F5F5F5F5F5F5F5F5F5F5F5F5F5F5F5F5F5F5F5F5F5F5F5F5F5F5F5F5F5F5F5F5F5F5F5F5F5F5F5F5F5F5F5F5F5F5F5F5F5F5F5F5F5F5F5F5F5F5E2F5F5F5F5F5F5F5F5F5F5F5F5F5F5F5F5F5F5F5
310
F5F5E2E2F5F5F5F5F5F5F5F5F5F5F5F5F5F5F5F5F5F5F5F5F5E2F5F5F5F5F5F5F5F5F5F5F5F5F5F5F5F5F5F5F5F5F5F5F5F5F5F5F5F5F5F5F5F5F5F5F5F5F5F5F5F5F5F5F5F5F5F5F5F5F5F5F5F5F5F5F5F5F5F5F5F5F5F5F5F5F5F5F5F5F5F5F5F5F5F5F5F5F5F5F5F5F5F5F5F5F5F5F5F5F5F5F5F5F5F5F5F5F5F5F5F5F5
310
F5F5F5F5F5F5F5F5F5F5F5F5F5F5F5F5F5F5F5F5F5F5F5F5F5F5F5F5F5F5F5F5F5E2F5F5F5F5F5F5F5F5F5F5F5F5F5F5F5F5F5F5F5F5F5E2E2F5F5F5F5F5F5F5F5F5F5F5F5F5F5F5F5F5F5F5F5F5E2F5F5F5F5F5F5F5F5F5F5F5F5F5F5F5F5F5F5F5F5F5F5F5F5F5F5F5F5F5F5F5F5F5F5F5F5F5F5F5F5F5F5F5F5F5F5F5F5
310
F5F5F5F5F5F5F5F5F5F5F5F5F5F5F5F5F5F5F5F5F5F5F5F5F5F5F5F5F5F5F5F5F5F5F5F5F5F5F5F5F5F5F5F5F5F5F5F5F5F5F5F5F5F5F5F5F5F5F5F5F5F5F5F5F5F5F5F5F5F5F5F5F5F5F5F5F5F5F5F5F5F5F5F5F5F5E2F5F5F5F5F5F5F5F5F5F5F5F5F5F5F5F5F5F5F5F5F5E2E2F5F5F5F5F5F5F5F5F5F5F5F5F5F5F5F5F5
310
F5F5F5F5E2F5F5F5F5F5F5F5F5F5F5F5F5F5F5F5F5F5F5F5F5F5F5F5F5F5F5F5F5F5F5F5F5F5F5F5F5F5F5F5F5F5F5F5F5F5F5F5F5F5F5F5F5F5F5F5F5F5F5F5F5F5F5F5F5F5F5F5F5F5F5F5F5F5F5F5F5F5F5F5F5F5F5F5F5F5F5F5F5F5F5F5F5F5F5F5F5F5F5F5F5F5F5F5F5F5F5F5F5F5F5F5F5F5F5F5F5F5F5F5F5F5F5
310
F5F5F5F5F5F5F5F5F5F5F5F5E2F5F5F5F5F5F5F5F5F5F5F5F5F5F5F5F5F5F5F5F5F5E2E2F5F5F5F5F5F5F5F5F5F5F5F5F5F5F5F5F5F5F5F5F5E2F5F5F5F5F5F5F5F5F5F5F5F5F5F5F5F5F5F5F5F5F5F5F5F5F5F5F5F5F5F5F5F5F5F5F5F5F5F5F5F5F5F5F5F5F5F5F5F5F5F5F5F5F5F5F5F5F5F5F5F5F5F5F5F5F5F5F5F5F5
310
F5F5F5F5F5F5F5F5F5F5F5F5F5F5F5F5F5F5F5F5F5F5F5F5F5F5F5F5F5F5F5F5F5F5F5F5F5F5F5F5F5F5F5F5F5F5F5F5F5F5F5F5F5F5F5F5F5F5F5F5F5F5F5F5F5E2F5F5F5F5F5F5F5F5F5F5F5F5F5F5F5F5F5F5F5F5F5E2E2F5F5F5F5F5F5F5F5F5F5F5F5F5F5F5F5F5F5F5F5F5E2F5F5F5F5F5F5F5F5F5F5F5F5F5F5F5F5
310
F5F5F5F5F5F5F5F5F5F5F5F5F5F5F5F5F5F5F5F5F5F5F5F5F5F5F5F5F5F5F5F5F5F5F5F5F5F5F5F5F5F5F5F5F5F5F5F5F5F5F5F5F5F5F5F5F5F5F5F5F5F5F5F5F5F5F5F5F5F5F5F5F5F5F5F5F5F5F5F5F5F5F5F5F5F5F5F5F5F5F5F5F5F5F5F5F5F5F5F5F5F5F5F5F5F5F5F5F5F5F5F5F5F5F5F5F5F5E2F5F5F5F5F5F5F5F5
310
F5F5F5F5F5F5F5F5F5F5F5F5F5E2E2F5F5F5F5E2F5F5F5F5F5F5F5F5F5F5F5F5F5F5F5F5E2F5F5F5F5F5F5F5F5F5F5F5F5F5F5F5F5F5F5F5F5F5F5F5F5F5F5F5F5F5F5F5F5F5F5F5F5F5F5F5F5F5F5F5F5F5F5F5F5F5F5F5F5F5F5F5F5F5F5F5F5F5F5F5F5F5F5F5F5F5F5F5F5F5F5F5F5F5F5F5F5F5F5F5F5F5F5F5F5F5F5
310
F5F5F5F5F5F5F5F5F5F5F5F5F5F5F5F5F5F5F5F5F5F5F5F5F5F5F5F5F5F5F5F5F5F5F5F5F5F5F5F5F5F5F5F5E2F5F5F5F5F5F5F5F5F5F5F5F5F5F5F5F5E2F5F5F5F5E2E2F5F5F5F5E2F5F5F5F5F5F5F5F5F5F5F5F5F5F5F5F5E2F5F5F5F5F5F5F5F5F5F5F5F5F5F5F5F5F5F5F5F5F5F5F5F5F5F5F5F5F5F5F5F5F5F5F5F5F5
310
F5F5F5F5F5F5F5F5F5F5F5F5F5F5F5F5F5F5F5F5F5F5F5F5F5F5F5F5F5F5F5F5F5F5F5F5F5F5F5F5F5F5F5F5F5F5F5F5F5F5F5F5F5F5F5F5F5F5F5F5F5F5F5F5F5F5F5F5F5F5F5F5F5F5F5F5F5F5F5F5F5F5F5F5F5F5F5F5F5F5F5F5F5F5F5F5F5E2F5F5F5F5F5F5F5F5F5F5F5F5F5F5F5F5E2F5F5F5F5E2E2F5F5F5F5E2F5
310
F5F5F5F5F5F5F5F5F5F5F5F5F5F5F5E2F5F5F5F5F5F5F5F5F5F5F5F5F5F5F5F5F5F5F5F5F5F5F5F5F5F5F5F5F5F5F5F5F5F5F5F5F5F5F5F5F5F5F5F5F5F5F5F5F5F5F5F5F5F5F5F5F5F5F5F5F5F5F5F5F5F5F5F5F5F5F5F5F5F5F5F5F5F5F5F5F5F5F5F5F5F5F5F5F5F5F5F5F5F5F5F5F5F5F5F5F5F5F5F5F5F5F5F5F5F5F5
310
F5F5F5F5F5F5F5F5F5F5F5F5F5F5F5F5F5F5F5F5F5F5F5E2F5F5F5F5F5F5F5F5F5F5F5F5F5F5F5F5E2F5F5F5F5E2E2F5F5F5F5E2F5F5F5F5F5F5F5F5F5F5F5F5F5F5F5F5E2F5F5F5F5F5F5F5F5F5F5F5F5F5F5F5F5F5F5F5F5F5F5F5F5F5F5F5F5F5F5F5F5F5F5F5F5F5F5F5F5F5F5F5F5F5F5F5F5F5F5F5F5F5F5F5F5F5F5
310
F5F5F5F5F5F5F5F5F5F5F5F5F5F5F5F5F5F5F5F5F5F5F5F5F5F5F5F5F5F5F5F5F5F5F5F5F5F5F5F5F5F5F5F5F5F5F5F5F5F5F5F5F5F5F5F5F5F5F5F5F5F5F5F5F5F5F5F5F5F5F5F5F5F5F5F5E2F5F5F5F5F5F5F5F5F5F5F5F5F5F5F5F5E2F5F5F5F5E2E2F5F5F5F5E2F5F5F5F5F5F5F5F5F5F5F5F5F5F5F5F5E2F5F5F5F5F5
310
F5F5F5F5F5F5F5F5F5F5F5F5F5F5F5F5F5F5F5F5F5F5F5F5F5F5F5F5F5F5F5F5F5F5F5F5F5F5F5F5F5F5F5F5F5F5F5F5F5F5F5F5F5F5F5F5F5F5F5F5F5F5F5F5F5F5F5F5F5F5F5F5F5F5F5F5F5F5F5F5F5F5F5F5F5F5F5F5F5F5F5F5F5F5F5F5F5F5F5F5F5F5F5F5F5F5F5F5F5F5F5F5F5F5F5F5F5F5F5F5F5F5F5F5F5F5F5
310
F5F5E2F5F5F5F5F5F5F5F5F5F5F5F5F5F5F5F5E2F5F5F5F5E2E2F5F5F5F5E2F5F5F5F5F5F5F5F5F5F5F5F5F5F5F5F5E2F5F5F5F5F5F5F5F5F5F5F5F5F5F5F5F5F5F5F5F5F5F5F5F5F5F5F5F5F5F5F5F5F5F5F5F5F5F5F5F5F5F5F5F5F5F5F5F5F5F5F5F5F5F5F5F5F5F5F5F5F5F5F5F5F5F5F5F5F5F5F5F5F5F5F5F5F5F5F5
310
F5F5F5F5F5F5F5F5F5F5F5F5F5F5F5F5F5F5F5F5F5F5F5F5F5F5F5F5F5F5F5F5F5F5F5F5F5F5F5F5F5F5F5F5F5F5F5F5F5F5F5F5F5F5F5E2F5F5F5F5F5F5F5F5F5F5F5F5F5F5F5F5E2F5F5F5F5E2E2F5F5F5F5E2F5F5F5F5F5F5F5F5F5F5F5F5F5F5F5F5E2F5F5F5F5F5F5F5F5F5F5F5F5F5F5F5F5F5F5F5F5F5F5F5F5F5F5
310
F5F5F5F5F5F5F5F5F5F5F5F5F5F5F5F5F5F5F5F5F5F5F5F5F5F5F5F5F5F5F5F5F5F5F5F5F5F5F5F5F5F5F5F5F5F5F5F5F5F5F5F5F5F5F5F5F5F5F5F5F5F5F5F5F5F5F5F5F5F5F5F5F5F5F5F5F5F5F5F5F5F5F5F5F5F5F5F5F5F5F5F5F5F5F5F5F5F5F5F5F5F5F5F5F5F5F5F5E2F5F5F5F5F5F5F5F5F5F5F5F5F5F5F5F5E2F5
310
F5F5F5E2E2F5F5F5F5E2F5F5F5F5F5F5F5F5F5F5F5F5F5F5F5F5E2F5F5F5F5F5F5F5F5F5F5F5F5F5F5F5F5F5F5F5F5F5F5F5F5F5F5F5F5F5F5F5F5F5F5F5F5F5F5F5F5F5F5F5F5F5F5F5F5F5F5F5F5F5F5F5F5F5F5F5F5F5F5F5F5F5F5F5F5F5F5F5F5F5F5F5F5F5F5F5F5F5F5F5F5F5F5F5F5F5F5F5F5F5F5F5F5F5F5F5F5
310
F5F5F5F5F5F5F5F5F5F5F5F5F5F5F5F5F5F5F5F5F5F5F5F5F5F5F5F5F5F5F5F5F5F5E2F5F5F5F5F5F5F5F5F5F5F5F5F5F5F5F5E2F5F5F5F5E2E2F5F5F5F5E2F5F5F5F5F5F5F5F5F5F5F5F5F5F5F5F5E2F5F5F5F5F5F5F5F5F5F5F5F5F5F5F5F5F5F5F5F5F5F5F5F5F5F5F5F5F5F5F5F5F5F5F5F5F5F5F5F5F5F5F5F5F5F5F5
310
F5F5F5F5F5F5F5F5F5F5F5F5F5F5F5F5F5F5F5F5F5F5F5F5F5F5F5F5F5F5F5F5F5F5F5F5F5F5F5F5F5F5F5F5F5F5F5F5F5F5F5F5F5F5F5F5F5F5F5F5F5F5F5F5F5F5F5F5F5F5F5F5F5F5F5F5F5F5F5F5F5F5F5F5F5F5F5E2F5F5F5F5F5F5F5F5F5F5F5F5F5F5F5F5E2F5F5F5F5E2E2F5F5F5F5E2F5F5F5F5F5F5F5F5F5F5F5
310
F5F5F5F5F5E2F5F5F5F5F5F5F5F5F5F5F5F5F5F5F5F5F5F5F5F5F5F5F5F5F5F5F5F5F5F5F5F5F5F5F5F5F5F5F5F5F5F5F5F5F5F5F5F5F5F5F5F5F5F5F5F5F5F5F5F5F5F5F5F5F5F5F5F5F5F5F5F5F5F5F5F5F5F5F5F5F5F5F5F5F5F5F5F5F5F5F5F5F5F5F5F5F5F5F5F5F5F5F5F5F5F5F5F5F5F5F5F5F5F5F5F5F5F5F5F5F5
310
F5F5F5F5F5F5F5F5F5F5F5F5F5E2F5F5F5F5F5F5F5F5F5F5F5F5F5F5F5F5E2F5F5F5F5E2E2F5F5F5F5E2F5F5F5F5F5F5F5F5F5F5F5F5F5F5F5F5E2F5F5F5F5F5F5F5F5F5F5F5F5F5F5F5F5F5F5F5F5F5F5F5F5F5F5F5F5F5F5F5F5F5F5F5F5F5F5F5F5F5F5F5F5F5F5F5F5F5F5F5F5F5F5F5F5F5F5F5F5F5F5F5F5F5F5F5F5
310
F5F5F5F5F5F5F5F5F5F5F5F5F5F5F5F5F5F5F5F5F5F5F5F5F5F5F5F5F5F5F5F5F5F5F5F5F5F5F5F5F5F5F5F5F5F5F5F5F5F5F5F5F5F5F5F5F5F5F5F5F5F5F5F5F5F5E2F5F5F5F5F5F5F5F5F5F5F5F5F5F5F5F5E2F5F5F5F5E2E2F5F5F5F5E2F5F5F5F5F5F5F5F5F5F5F5F5F5F5F5F5E2F5F5F5F5F5F5F5F5F5F5F5F5F5F5F5
310
F5F5F5F5F5F5F5F5F5F5F5F5F5F5F5F5F5F5F5F5F5F5F5F5F5F5F5F5F5F5F5F5F5F5F5F5F5F5F5F5F5F5F5F5F5F5F5F5F5F5F5F5F5F5F5F5F5F5F5F5F5F5F5F5F5F5F5F5F5F5F5F5F5F5F5F5F5F5F5F5F5F5F5F5F5F5F5F5F5F5F5F5F5F5F5F5F5F5F5F5F5F5F5F5F5F5F5F5F5F5F5F5F5F5F5F5F5F5F5E2F5F5F5F5F5F5F5
310
F5F5F5F5F5F5F5F5F5E2F5F5F5F5E2E2F5F5F5F5E2F5F5F5F5F5F5F5F5F5F5F5F5F5F5F5F5E2F5F5F5F5F5F5F5F5F5F5F5F5F5F5F5F5F5F5F5F5F5F5F5F5F5F5F5F5F5F5F5F5F5F5F5F5F5F5F5F5F5F5F5F5F5F5F5F5F5F5F5F5F5F5F5F5F5F5F5F5F5F5F5F5F5F5F5F5F5F5F5F5F5F5F5F5F5F5F5F5F5F5F5F5F5F5F5F5F5
310
F5F5F5F5F5F5F5F5F5F5F5F5F5F5F5F5F5F5F5F5F5F5F5F5F5F5F5F5F5F5F5F5F5F5F5F5F5F5F5F5F5F5F5F5F5E2F5F5F5F5F5F5F5F5F5F5F5F5F5F5F5F5E2F5F5F5F5E2E2F5F5F5F5E2F5F5F5F5F5F5F5F5F5F5F5F5F5F5F5F5E2F5F5F5F5F5F5F5F5F5F5F5F5F5F5F5F5F5F5F5F5F5F5F5F5F5F5F5F5F5F5F5F5F5F5F5F5
310
F5F5F5F5F5F5F5F5F5F5F5F5F5F5F5F5F5F5F5F5F5F5F5F5F5F5F5F5F5F5F5F5F5F5F5F5F5F5F5F5F5F5F5F5F5F5F5F5F5F5F5F5F5F5F5F5F5F5F5F5F5F5F5F5F5F5F5F5F5F5F5F5F5F5F5F5F5F5F5F5F5F5F5F5F5F5F5F5F5F5F5F5F5F5F5F5F5F5E2F5F5F5F5F5F5F5F5F5F5F5F5F5F5F5F5E2F5F5F5F5E2E2F5F5F5F5E2
310
F5F5F5F5F5F5F5F5F5F5F5F5F5F5F5F5E2F5F5F5F5F5F5F5F5F5F5F5F5F5F5F5F5F5F5F5F5F5F5F5F5F5F5F5F5F5F5F5F5F5F5F5F5F5F5F5F5F5F5F5F5F5F5F5F5F5F5F5F5F5F5F5F5F5F5F5F5F5F5F5F5F5F5F5F5F5F5F5F5F5F5F5F5F5F5F5F5F5F5F5F5F5F5F5F5F5F5F5F5F5F5F5F5F5F5F5F5F5F5F5F5F5F5F5F5F5F5
310
F5F5F5F5F5F5F5F5F5F5F5F5F5F5F5F5F5F5F5F5F5F5F5F5E2F5F5F5F5F5F5F5F5F5F5F5F5F5F5F5F5E2F5F5F5F5E2E2F5F5F5F5E2F5F5F5F5F5F5F5F5F5F5F5F5F5F5F5F5E2F5F5F5F5F5F5F5F5F5F5F5F5F5F5F5F5F5F5F5F5F5F5F5F5F5F5F5F5F5F5F5F5F5F5F5F5F5F5F5F5F5F5F5F5F5F5F5F5F5F5F5F5F5F5F5F5F5
310
F5F5F5F5F5F5F5F5F5F5F5F5F5F5F5F5F5F5F5F5F5F5F5F5F5F5F5F5F5F5F5F5F5F5F5F5F5F5F5F5F5F5F5F5F5F5F5F5F5F5F5F5F5F5F5F5F5F5F5F5F5F5F5F5F5F5F5F5F5F5F5F5F5F5F5F5F5E2F5F5F5F5F5F5F5F5F5F5F5F5F5F5F5F5E2F5F5F5F5E2E2F5F5F5F5F5F5F5F5F5F5F5F5F5F5F5F5F5F5F5F5F5E2F5F5F5F5
310
F5F5F5F5F5F5F5F5F5F5F5F5F5F5F5F5F5F5F5F5F5F5F5F5F5F5F5F5F5F5F5F5F5F5F5F5F5F5F5F5F5F5F5F5F5F5F5F5F5F5F5F5F5F5F5F5F5F5F5F5F5F5F5F5F5F5F5F5F5F5F5F5F5F5F5F5F5F5F5F5F5F5F5F5F5F5F5F5F5F5F5F5F5F5F5F5F5F5F5F5F5F5F5F5F5F5F5F5F5F5F5F5F5F5F5F5F5F5F5F5F5F5F5F5F5F5F5
310
F5F5F5E2F5F5F5F5F5F5F5F5F5F5F5F5F5F5F5F5F5F5F5F5F5E2E2F5F5F5F5F5F5F5F5F5F5F5F5F5F5F5F5F5F5F5F5F5E2F5F5F5F5F5F5F5F5F5F5F5F5F5F5F5F5F5F5F5F5F5F5F5F5F5F5F5F5F5F5F5F5F5F5F5F5F5F5F5F5F5F5F5F5F5F5F5F5F5F5F5F5F5F5F5F5F5F5F5F5F5F5F5F5F5F5F5F5F5F5F5F5F5F5F5F5F5F5
310
F5F5F5F5F5F5F5F5F5F5F5F5F5F5F5F5F5F5F5F5F5F5F5F5F5F5F5F5F5F5F5F5F5F5F5F5F5F5F5F5F5F5F5F5F5F5F5F5F5F5F5F5F5F5F5F5E2F5F5F5F5F5F5F5F5F5F5F5F5F5F5F5F5F5F5F5F5F5E2E2F5F5F5F5F5F5F5F5F5F5F5F5F5F5F5F5F5F5F5F5F5E2F5F5F5F5F5F5F5F5F5F5F5F5F5F5F5F5F5F5F5F5F5F5F5F5F5
310
F5F5F5F5F5F5F5F5F5F5F5F5F5F5F5F5F5F5F5F5F5F5F5F5F5F5F5F5F5F5F5F5F5F5F5F5F5F5F5F5F5F5F5F5F5F5F5F5F5F5F5F5F5F5F5F5F5F5F5F5F5F5F5F5F5F5F5F5F5F5F5F5F5F5F5F5F5F5F5F5F5F5F5F5F5F5F5F5F5F5F5F5F5F5F5F5F5F5F5F5F5F5F5F5F5F5F5F5F5E2F5F5F5F5F5F5F5F5F5F5F5F5F5F5F5F5F5
310
F5F5F5F5E2E2F5F5F5F5F5F5F5F5F5F5F5F5F5F5F5F5F5F5F5F5F5E2F5F5F5F5F5F5F5F5F5F5F5F5F5F5F5F5F5F5F5F5F5F5F5F5F5F5F5F5F5F5F5F5F5F5F5F5F5F5F5F5F5F5F5F5F5F5F5F5F5F5F5F5F5F5F5F5F5F5F5F5F5F5F5F5F5F5F5F5F5F5F5F5F5F5F5F5F5F5F5F5F5F5F5F5F5F5F5F5F5F5F5F5F5F5F5F5F5F5F5
310
F5F5F5F5F5F5F5F5F5F5F5F5F5F5F5F5F5F5F5F5F5F5F5F5F5F5F5F5F5F5F5F5F5F5F5E2F5F5F5F5F5F5F5F5F5F5F5F5F5F5F5F5F5F5F5F5F5E2E2F5F5F5F5F5F5F5F5F5F5F5F5F5F5F5F5F5F5F5F5F5E2E2E2E2E2E2E2E2E2E2E2E2E2E2E2E2E2E2E2E2E2E2E2E2E2E2E2E2E2E2E2E2E2E2E2E2E2E2E2E2E2E2E2E2E2E2E2
310
E2E2E2E2E2E2E2E2E2E2E2E2E2E2E2E2E2E2E2E2E2E2E2E2E2E2E2E2E2E2E2E2E2E2E2E2E2E2E2E2E2E2E2E2E2E2E2E2E2E2E2E2E2E2E2E2E2E2E2E2E2E2E2E2E2E2E2E2E2E2E2E2E2E2E2E2E2E2E2E2E2E2E2E2E2E2E2E2E2F5F5F5F5F5F5F5F5F5F5F5F5F5F5F5F5F5F5F5F5F5E2E2F5F5F5F5F5F5F5F5F5F5F5F5F5F5F5
310
F5F5F5F5F5F5F5F5F5F5F5F5F5F5F5F5F5F5F5F5F5F5F5F5F5F5F5F5F5F5F5F5F5F5F5F5F5F5F5F5F5F5F5F5F5F5F5F5F5F5F5F5F5F5F5F5F5F5F5F5F5F5F5F5F5F5F5F5F5F5F5F5F5F5F5F5F5F5F5F5F5F5F5F5F5F5F5F5F5F5F5F5F5F5F5F5F5F5F5F5F5F5F5F5F5F5F5F5F5F5F5F5F5F5F5F5F5F5F5F5F5F5F5F5F5F5F5
310
F5F5F5F5F5F5F5F5F5F5F5F5F5F5F5F5F5F5F5F5F5F5F5F5F5F5F5F5F5F5F5F5F5F5F5F5E2E2F5F5F5F5F5F5F5F5F5F5F5F5F5F5F5F5F5F5F5F5F5F5F5F5F5F5F5F5F5F5F5F5F5F5F5F5F5F5F5F5F5F5F5F5F5F5F5F5F5F5F5F5F5F5F5F5F5F5F5F5F5F5F5F5F5F5F5F5F5F5F5F5F5F5F5F5F5F5F5F5F5F5F5F5F5F5F5F5F5
310
F5F5F5F5F5F5F5F5F5F5F5F5F5F5F5F5F5F5F5F5F5F5F5F5F5F5F5F5F5F5F5F5F5F5F5F5F5F5F5F5F5F5F5F5F5F5F5F5F5F5F5F5F5F5F5F5F5F5F5F5F5F5F5F5F5F5F5F5F5F5F5F5F5F5F5F5F5F5F5F5F5F5F5F5F5F5F5F5F5E2E2F5F5F5F5F5F5F5F5F5F5F5F5F5F5F5F5F5F5F5F5F5F5F5F5F5F5F5F5F5F5F5F5F5F5F5F5
310
F5F5F5F5F5F5F5F5F5F5F5F5F5F5F5F5F5F5F5F5F5F5F5F5F5F5F5F5F5F5F5F5F5F5F5F5F5F5F5F5F5F5F5F5F5F5F5F5F5F5F5F5F5F5F5F5F5F5F5F5F5F5F5F5F5F5F5F5F5F5F5F5F5F5F5F5F5F5F5F5F5F5F5F5F5F5F5F5F5F5F5F5F5F5F5F5F5F5F5F5F5F5F5F5F5F5F5F5F5F5F5F5F5F5F5F5F5F5F5F5F5F5F5F5F5F5F5
310
F5F5F5F5F5F5F5F5F5F5F5F5F5F5F5E2E2F5F5F5F5F5F5F5F5F5F5F5F5F5F5F5F5F5F5F5F5F5F5F5F5F5F5F5F5F5F5F5F5F5F5F5F5F5F5F5F5F5F5F5F5F5F5F5F5F5F5F5F5F5F5F5F5F5F5F5F5F5F5F5F5F5F5F5F5F5F5F5F5F5F5F5F5F5F5F5F5F5F5F5F5F5F5F5F5F5F5F5F5F5F5F5F5F5F5F5F5F5F5F5F5F5F5F5F5F5F5
310
F5F5F5F5F5F5F5F5F5F5F5F5F5F5F5F5F5F5F5F5F5F5F5F5F5F5F5F5F5F5F5F5F5F5F5F5F5F5F5F5F5F5F5F5F5F5F5F5F5F5F5F5F5F5F5F5F5F5F5F5F5F5F5F5F5F5F5F5E2E2F5F5F5F5E2F5F5F5F5F5F5F5F5F5F5F5F5F5F5F5F5F5F5F5F5F5F5F5F5F5F5F5F5F5F5F5F5F5F5F5F5F5F5F5F5F5F5F5F5F5F5F5F5F5F5F5F5
310
F5F5F5F5F5F5F5F5F5F5F5F5F5F5F5F5F5F5F5F5F5F5F5F5F5F5F5F5F5F5F5F5F5F5F5F5F5F5F5F5F5F5F5F5F5F5F5F5F5F5F5F5F5F5F5F5F5F5F5F5F5F5F5F5F5F5F5F5F5F5F5F5F5F5F5F5F5F5F5F5F5F5F5F5F5F5F5F5F5F5F5F5F5F5F5F5F5F5F5F5F5F5F5F5F5F5F5F5F5F5F5F5F5F5F5F5E2F5F5F5F5E2E2F5F5F5F5
310
E2F5F5F5F5F5F5F5F5F5F5F5F5F5F5F5F5F5F5F5F5F5F5F5F5F5F5F5F5F5F5F5F5F5F5F5F5F5F5F5F5F5F5F5F5F5F5F5F5F5F5F5F5F5F5F5F5F5F5F5F5F5F5F5F5F5F5F5F5F5F5F5F5F5F5F5F5F5F5F5F5F5F5F5F5F5F5F5F5F5F5F5F5F5F5F5F5F5F5F5F5F5F5F5F5F5F5F5F5F5F5F5F5F5F5F5F5F5F5F5F5F5F5F5F5F5F5
310
F5F5F5F5F5F5F5F5F5F5F5F5F5F5F5F5F5F5F5F5F5F5F5F5F5F5F5F5F5F5F5F5F5F5F5F5F5F5F5F5F5F5E2F5F5F5F5E2E2F5F5F5F5E2F5F5F5F5F5F5F5F5F5F5F5F5F5F5F5F5F5F5F5F5F5F5F5F5F5F5F5F5F5F5F5F5F5F5F5F5F5F5F5F5F5F5F5F5F5F5F5F5F5F5F5F5F5F5F5F5F5F5F5F5F5F5F5F5F5F5F5F5F5F5F5F5F5
310
F5F5F5F5F5F5F5F5F5F5F5F5F5F5F5F5F5F5F5F5F5F5F5F5F5F5F5F5F5F5F5F5F5F5F5F5F5F5F5F5F5F5F5F5F5F5F5F5F5F5F5F5F5F5F5F5F5F5F5F5F5F5F5F5F5F5F5F5F5F5F5F5F5F5F5F5F5F5F5F5F5F5F5F5F5F5F5F5F5F5F5F5F5F5F5E2F5F5F5F5E2E2F5F5F5F5E2F5F5F5F5F5F5F5F5F5F5F5F5F5F5F5F5F5F5F5F5
310
F5F5F5F5F5F5F5F5F5F5F5F5F5F5F5F5F5F5F5F5F5F5F5F5F5F5F5F5F5F5F5F5F5F5F5F5F5F5F5F5F5F5F5F5F5F5F5F5F5F5F5F5F5F5F5F5F5F5F5F5F5F5F5F5F5F5F5F5F5F5F5F5F5F5F5F5F5F5F5F5F5F5F5F5F5F5F5F5F5F5F5F5F5F5F5F5F5F5F5F5F5F5F5F5F5F5F5F5F5F5F5F5F5F5F5F5F5F5F5F5F5F5F5F5F5F5F5
310
F5F5F5F5F5F5F5F5F5F5F5F5F5F5F5F5F5F5F5F5F5E2F5F5F5F5E2E2F5F5F5F5E2F5F5F5F5F5F5F5F5F5F5F5F5F5F5F5F5F5F5F5F5F5F5F5F5F5F5F5F5F5F5F5F5F5F5F5F5F5F5F5F5F5F5F5F5F5F5F5F5F5F5F5F5F5F5F5F5F5F5F5F5F5F5F5F5F5F5F5F5F5F5F5F5F5F5F5F5F5F5F5F5F5F5F5F5F5F5F5F5F5F5F5F5F5F5
310
F5F5F5F5F5F5F5F5F5F5F5F5F5F5F5F5F5F5F5F5F5F5F5F5F5F5F5F5F5F5F5F5F5F5F5F5F5F5F5F5F5F5F5F5F5F5F5F5F5F5F5F5F5F5F5F5F5F5F5F5F5F5F5F5F5F5F5F5F5F5F5F5F5F5E2F5F5F5F5E2E2F5F5F5F5E2F5F5F5F5F5F5F5F5F5F5F5F5F5F5F5F5F5F5F5F5F5F5F5F5F5F5F5F5F5F5F5F5F5F5F5F5F5F5F5F5F5
310
F5F5F5F5F5F5F5F5F5F5F5F5F5F5F5F5F5F5F5F5F5F5F5F5F5F5F5F5F5F5F5F5F5F5F5F5F5F5F5F5F5F5F5F5F5F5F5F5F5F5F5F5F5F5F5F5F5F5F5F5F5F5F5F5F5F5F5F5F5F5F5F5F5F5F5F5F5F5F5F5F5F5F5F5F5F5F5F5F5F5F5F5F5F5F5F5F5F5F5F5F5F5F5F5F5F5F5F5F5F5F5F5F5F5F5F5F5F5F5F5F5F5F5F5F5F5F5
310
E2F5F5F5F5E2E2F5F5F5F5E2F5F5F5F5F5F5F5F5F5F5F5F5F5F5F5F5F5F5F5F5F5F5F5F5F5F5F5F5F5F5F5F5F5F5F5F5F5F5F5F5F5F5F5F5F5F5F5F5F5F5F5F5F5F5F5F5F5F5F5F5F5F5F5F5F5F5F5F5F5F5F5F5F5F5F5F5F5F5F5F5F5F5F5F5F5F5F5F5F5F5F5F5F5F5F5F5F5F5F5F5F5F5F5F5F5F5F5F5F5F5F5F5F5F5F5
310
F5F5F5F5F5F5F5F5F5F5F5F5F5F5F5F5F5F5F5F5F5F5F5F5F5F5F5F5F5F5F5F5F5F5F5F5F5F5F5F5F5F5F5F5F5F5F5F5F5F5F5F5F5E2F5F5F5F5E2E2F5F5F5F5E2F5F5F5F5F5F5F5F5F5F5F5F5F5F5F5F5F5F5F5F5F5F5F5F5F5F5F5F5F5F5F5F5F5F5F5F5F5F5F5F5F5F5F5F5F5F5F5F5F5F5F5F5F5F5F5F5F5F5F5F5F5F5
310
F5F5F5F5F5F5F5F5F5F5F5F5F5F5F5F5F5F5F5F5F5F5F5F5F5F5F5F5F5F5F5F5F5F5F5F5F5F5F5F5F5F5F5F5F5F5F5F5F5F5F5F5F5F5F5F5F5F5F5F5F5F5F5F5F5F5F5F5F5F5F5F5F5F5F5F5F5F5F5F5F5F5F5F5F5F5F5F5F5F5F5F5F5F5F5F5F5F5F5F5F5F5F5F5F5F5E2F5F5F5F5E2E2F5F5F5F5E2E2E2E2E2E2E2E2F5F5
310
F5F5F5F5F5F5F5E2E2E2E2E2E2E2E2E2E2E2E2E2E2E2F5F5F5F5F5F5F5F5F5E2E2E2E2E2E2E2E2E2E2E2E2E2E2E2E2F5F5F5F5F5F5F5F5E2E2E2E2E2E2E2E2E2E2E2E2E2E2E2E2F5F5F5F5F5F5F5F5E2E2E2E2E2E2E2E2E2E2E2E2E2E2E2E2F5F5F5F5F5F5F5F5E2E2E2E2E2E2E2E2E2E2E2E2E2E2E2E2F5F5F5F5F5F5F5F5
310
F5E2E2E2E2E2E2E2E2E2E2E2E2E2E2E2F5F5F5F5F5F5F5F5F5E2E2E2E2E2E2E2E2F5F5F5F5E2E2F5F5F5F5F5F5F5F5F5F5F5F5F5F5F5F5F5F5F5F5F5F5F5F5F5F5F5F5F5F5F5F5F5F5F5F5F5F5F5F5F5F5F5F5F5F5F5F5F5F5F5F5F5F5F5F5F5F5F5F5F5F5F5F5F5F5F5F5F5F5F5F5F5F5F5F5F5F5F5F5F5F5F5F5F5F5F5F5
310
F5F5F5F5F5F5F5F5F5F5F5F5F5F5F5F5F5F5F5F5F5F5F5F5F5F5F5F5F5F5F5F5F5F5F5F5F5F5F5F5F5F5F5F5F5F5F5F5F5F5F5F5F5F5F5F5F5F5F5F5F5F5F5F5F5F5F5F5F5F5F5F5F5F5F5F5F5F5F5F5F5F5F5F5F5F5F5F5F5F5E2E2F5F5F5F5F5F5F5F5F5F5F5F5F5F5F5F5F5F5F5F5F5F5F5F5F5F5F5F5F5F5F5F5F5F5F5
310
F5F5F5F5F5F5F5F5F5F5F5F5F5F5F5F5F5F5F5F5F5F5F5F5F5F5F5F5F5F5F5F5F5F5F5F5F5F5F5F5F5F5F5F5F5F5F5F5F5F5F5F5F5F5F5F5F5F5F5F5F5F5F5F5F5F5F5F5F5F5F5F5F5F5F5F5F5F5F5F5F5F5F5F5F5F5F5F5F5F5F5F5F5F5F5F5F5F5F5F5F5F5F5F5F5F5F5F5F5F5F5F5F5F5F5F5F5F5F5F5F5F5F5F5F5F5F5
310
F5F5F5F5F5F5F5F5F5F5F5F5F5F5F5F5E2E2F5F5F5F5F5F5F5F5F5F5F5F5F5F5F5F5F5F5F5F5F5F5F5F5F5F5F5F5F5F5F5F5F5F5F5F5F5F5F5F5F5F5F5F5F5F5F5F5F5F5F5F5F5F5F5F5F5F5F5F5F5F5F5F5F5F5F5F5F5F5F5F5F5F5F5F5F5F5F5F5F5F5F5F5F5F5F5F5F5F5F5F5F5F5F5F5F5F5F5F5F5F5F5F5F5F5F5F5F5
310
F5F5F5F5F5F5F5F5F5F5F5F5F5F5F5F5F5F5F5F5F5F5F5F5F5F5F5F5F5F5F5F5F5F5F5F5F5F5F5F5F5F5F5F5F5F5F5F5F5F5F5F5F5F5F5F5F5F5F5F5F5F5F5F5F5F5F5F5F5E2E2E2E2E2E2E2E2E2E2E2E2E2E2E2E2E2E2E2E2E2E2E2E2E2E2E2E2E2E2E2E2E2E2E2E2E2E2E2E2E2E2E2E2E2E2E2E2E2E2E2E2E2E2E2E2E2E2
310
E2E2E2E2E2E2E2E2E2E2E2E2E2E2E2E2E2E2E2E2E2E2E2E2E2E2E2E2E2E2E2E2E2E2E2E2E2E2E2E2E2E2E2E2E2E2E2E2E2E2E2E2E2E2E2E2E2E2E2E2E2E2E2E2E2E2E2E2E2E2E2E2E2E2E2E2E2E2E2E2E2E2E2E2E2E2E2E2E2E2E2E2E2E2E2E2E2E2E2E2E2E2E2E2E2E2E2E2E2E2E2E2E2E2E2E2E2E2E2E2E2E2E2EFEFEFEF
310
EFEFEFEFEFEFEFEFEFEFEFEFEFEFEFEFEFEFEFEFEFEFEFEFEFEFEFEFEFEFEFEFEFEFEFEFEFEFEFEFEFEFEFEFEFEFEFEFEFEFEFEFEFEFEFEFEFEFEFEFEFEFEFEFEFEFEFEFEFEFEFEFEFEFEFEFEFEFEFEFEFEFEFEFEFEFEFEFEFEFEFEFEFEFEFEFEFEFEFEFEFEFEFEFEFEFEFEFEFEFEFEFEFEFEFEFEFEFEFEFEFEFEFEFEFEFEF
310
EFEFEFEFEFEFEFEFEFEFEFEFEFEFEFEFEFEFEFEFEFEFEFEFEFEFEFEFEFEFEFEFEFEFEFEFEFEFEFEFEFEFEFEFEFEFEFEFEF
  0
XRECORD
  5
557E3
102
{ACAD_REACTORS
330
B5
102
}
330
B5
100
AcDbXrecord
280
     1
102
SHADEPLOT
 70
     0
102
SHADEPLOTRESLEVEL
 70
     2
102
SHADEPLOTCUSTOMDPI
 70
   300
  0
XRECORD
  5
B6
102
{ACAD_REACTORS
330
B5
102
}
330
B5
100
AcDbXrecord
280
     1
310
28000000B40000008B0000000100080000000000BC610000000000000000000000010000000000000000000000000000FFFFFF000000000000000000000000000000000000000000000000000000000000000000330000006600000099000000CC000000FF00000000330000333300006633000099330000CC330000FF3300
310
0000660000336600006666000099660000CC660000FF66000000990000339900006699000099990000CC990000FF99000000CC000033CC000066CC000099CC0000CCCC0000FFCC000000FF000033FF000066FF000099FF0000CCFF0000FFFF000000003300330033006600330099003300CC003300FF003300003333003333
310
33006633330099333300CC333300FF33330000663300336633006666330099663300CC663300FF66330000993300339933006699330099993300CC993300FF99330000CC330033CC330066CC330099CC3300CCCC3300FFCC330000FF330033FF330066FF330099FF3300CCFF3300FFFF330000006600330066006600660099
310
006600CC006600FF00660000336600333366006633660099336600CC336600FF33660000666600336666006666660099666600CC666600FF66660000996600339966006699660099996600CC996600FF99660000CC660033CC660066CC660099CC6600CCCC6600FFCC660000FF660033FF660066FF660099FF6600CCFF6600
310
FFFF660000009900330099006600990099009900CC009900FF00990000339900333399006633990099339900CC339900FF33990000669900336699006666990099669900CC669900FF66990000999900339999006699990099999900CC999900FF99990000CC990033CC990066CC990099CC9900CCCC9900FFCC990000FF99
310
0033FF990066FF990099FF9900CCFF9900FFFF99000000CC003300CC006600CC009900CC00CC00CC00FF00CC000033CC003333CC006633CC009933CC00CC33CC00FF33CC000066CC003366CC006666CC009966CC00CC66CC00FF66CC000099CC003399CC006699CC009999CC00CC99CC00FF99CC0000CCCC0033CCCC0066CC
310
CC0099CCCC00CCCCCC00FFCCCC0000FFCC0033FFCC0066FFCC0099FFCC00CCFFCC00FFFFCC000000FF003300FF006600FF009900FF00CC00FF00FF00FF000033FF003333FF006633FF009933FF00CC33FF00FF33FF000066FF003366FF006666FF009966FF00CC66FF00FF66FF000099FF003399FF006699FF009999FF00CC
310
99FF00FF99FF0000CCFF0033CCFF0066CCFF0099CCFF00CCCCFF00FFCCFF0000FFFF0033FFFF0066FFFF0099FFFF00CCFFFF00FFFFFF00000000000D0D0D001A1A1A00282828003535350043434300505050005D5D5D006B6B6B00787878008686860093939300A1A1A100AEAEAE00BBBBBB00C9C9C900D6D6D600E4E4E400
310
F1F1F100FFFFFF0000000000000000000000000000000000000000000000000000000000000000000000000000000000F5F5F5F5F5F5F5F5F5F5F5F5F5F5F5F5F5F5F5F5F5F5F5F5F5F5F5F5F5F5F5F5F5F5F5F5F5F5F5F5F5F5F5F5F5F5F5F5F5F5F5F5F5F5F5F5F5F5F5F5F5F5F5F5F5F5F5F5F5F5F5F5F5F5F5F5F5F5F5
310
F5F5F5F5F5F5F5F5F5F5F5F5F5F5F5F5F5F5F5F5F5F5F5F5F5F5F5F5F5F5F5F5F5F5F5F5F5F5F5F5F5F5F5F5F5F5F5F5F5F5F5F5F5F5F5F5F5F5F5F5F5F5F5F5F5F5F5F5F5F5F5F5F5F5F5F5F5F5F5F5F5F5F5F5F5F5F5F5F5F5F5F5F5F5F5F5F5F5F5F5F5F5E2E2E2E2E2E2E2E2E2E2E2E2E2E2E2E2E2E2E2E2E2E2E2E2E2
310
E2E2E2E2E2E2E2E2E2E2E2E2E2E2E2E2E2E2E2E2E2E2E2E2E2E2E2E2E2E2E2E2E2E2E2E2E2E2E2E2E2E2E2E2E2E2E2E2E2E2E2E2E2E2E2E2E2E2E2E2E2E2E2E2E2E2E2E2E2E2E2E2E2E2E2E2E2E2E2E2E2E2E2E2E2E2E2E2E2E2E2E2E2E2E2E2E2E2E2E2E2E2E2E2E2E2E2E2E2E2E2E2E2E2E2E2E2E2E2E2E2E2E2E2E2E2E2
310
E2E2E2E2E2E2E2E2E2E2E2E2E2E2E2E2E2E2E2E2E2E2E2E2E2E2F5F5E2E2E2E2E2E2E2E2E2E2E2E2E2E2E2E2E2E2E2E2E2E2E2E2E2E2E2E2E2E2E2E2E2E2E2E2E2E2E2E2E2E2E2E2E2E2E2E2E2E2E2E2E2E2E2E2E2E2E2E2E2E2E2E2E2E2E2E2E2E2E2E2E2E2E2E2E2E2E2E2E2E2E2E2E2E2E2E2E2E2E2E2E2E2E2E2E2E2E2
310
E2E2E2E2E2E2E2E2E2E2E2E2E2E2E2E2E2E2E2E2E2E2E2E2E2E2E2E2E2E2E2E2E2E2E2E2E2E2E2E2E2E2E2E2E2E2E2E2E2E2E2E2E2E2E2E2E2E2E2E2E2E2E2E2E2E2E2E2E2E2E2E2E2E2E2E2E2E2E2F5F5E2E2E2E2E2E2E2E2E2E2E2E2E2E2E2E2E2E2E2E2E2E2E2E2E2E2E2E2E2E2E2E2E2E2E2E2E2E2E2E2E2E2E2E2E2E2
310
E2E2E2E2E2E2E2E2E2E2E2E2E2E2E2E2E2E2E2E2E2E2E2E2E2E2E2E2E2E2E2E2E2E2E2E2E2E2E2E2E2E2E2E2E2E2E2E2E2E2E2E2E2E2E2E2E2E2E2E2E2E2E2E2E2E2E2E2E2E2E2E2E2E2E2E2E2E2E2E2E2E2E2E2E2E2E2E2E2E2E2E2E2E2E2E2E2E2E2E2E2E2E2E2E2E2E2E2E2E2E2E2E2E2E2E2E2E2E2E2E2E2E2E2E2E2E2
310
E2E2E2E2E2F5F5E2E2E2E2E2E2E2E2E2E2E2E2E2E2E2E2E2E2E2E2E2E2E2E2E2E2E2E2E2E2E2E2E2E2E2E2E2E2E2E2E2E2E2E2E2E2E2E2E2E2E2E2E2E2E2E2E2E2E2E2E2E2E2E2E2E2E2E2E2E2E2E2E2E2E2E2E2E2E2E2E2E2E2E2E2E2E2E2E2E2E2E2E2E2E2E2E2E2E2E2E2E2E2E2E2E2E2E2E2E2E2E2E2E2E2E2E2E2E2E2
310
E2E2E2E2E2E2E2E2E2E2E2E2E2E2E2E2E2E2E2E2E2E2E2E2E2E2E2E2E2E2E2E2E2E2E2E2E2E2E2E2E2E2E2E2E2E2E2E2E2E2E2E2E2E2E2E2E2E2F5F5E2E2E2F5F5F5F5F5F5F5F5E2E2E2E2E2E2E2E2E2F5F5F5F5F5F5F5F5F5F5F5F5F5F5F5F5E2E2E2E2E2E2E2E2E2F5F5F5F5F5F5F5F5F5F5F5F5F5F5F5E2E2E2E2E2E2E2
310
E2E2F5F5F5F5F5F5F5F5F5F5F5F5F5F5F5F5E2E2E2E2E2E2E2E2F5F5F5F5F5F5F5F5F5F5F5F5F5F5F5F5E2E2E2E2E2E2E2E2E2F5F5F5F5F5F5F5F5F5F5F5F5F5F5F5E2E2E2E2E2E2E2E2E2F5F5F5F5F5F5F5F5F5F5F5F5F5F5F5F5E2E2E2E2E2E2E2E2E2F5F5F5F5F5F5F5F5E2E2E2F5F5E2E2E2F5E2E2E2E2E2E2E2E2E2E2
310
E2E2E2E2E2E2E2E2E2E2E2E2E2E2E2E2E2E2E2E2E2E2E2E2E2E2E2E2E2E2E2E2E2E2E2E2E2E2E2E2E2E2E2E2E2E2E2E2E2E2E2E2E2E2E2E2E2E2E2E2E2E2E2E2E2E2E2E2E2E2E2E2E2E2E2E2E2E2E2E2E2E2E2E2E2E2E2E2E2E2E2E2E2E2E2E2E2E2E2E2E2E2E2E2E2E2E2E2E2E2E2E2E2E2E2E2E2E2E2E2E2E2E2E2E2E2E2
310
E2E2E2E2E2E2E2E2E2E2E2E2E2E2E2E2E2E2E2E2E2E2E2E2E2E2E2E2E2E2E2E2E2F5E2E2E2F5F5E2E2E2F5E2E2E2E2E2E2E2E2E2E2E2E2E2E2E2E2E2E2E2E2E2E2E2E2E2E2E2E2E2E2E2E2E2E2E2E2E2E2E2E2E2E2E2E2E2E2E2E2E2E2E2E2E2E2E2E2E2E2E2E2E2E2E2E2E2E2E2E2E2E2E2E2E2E2E2E2E2E2E2E2E2E2E2E2
310
E2E2E2E2E2E2E2E2E2E2E2E2E2E2E2E2E2E2E2E2E2E2E2E2E2E2E2E2E2E2E2E2E2E2E2E2E2E2E2E2E2E2E2E2E2E2E2E2E2E2E2E2E2E2E2E2E2E2E2E2E2E2E2E2E2E2E2E2E2E2E2E2E2E2E2E2E2E2E2E2E2E2E2E2E2E2F5E2E2E2F5F5E2E2E2F5E2E2E2E2E2E2E2E2E2E2E2E2E2E2E2E2E2E2E2E2E2E2E2E2E2E2E2E2E2E2E2
310
E2E2E2E2E2E2E2E2E2E2E2E2E2E2E2E2E2E2E2E2E2E2E2E2E2E2E2E2E2E2E2E2E2E2E2E2E2E2E2E2E2E2E2E2E2E2E2E2E2E2E2E2E2E2E2E2E2E2E2E2E2E2E2E2E2E2E2E2E2E2E2E2E2E2E2E2E2E2E2E2E2E2E2E2E2E2E2E2E2E2E2E2E2E2E2E2E2E2E2E2E2E2E2E2E2E2E2E2E2E2E2E2E2E2E2E2E2E2E2E2E2E2E2E2E2E2E2
310
E2E2E2E2E2E2E2E2E2E2E2E2F5E2E2E2F5F5E2E2E2F5E2E2E2E2E2E2E2E2E2E2E2E2E2E2E2E2E2E2E2E2E2E2E2E2E2E2E2E2E2E2E2E2E2E2E2E2E2E2E2E2E2E2E2E2E2E2E2E2E2E2E2E2E2E2E2E2E2E2E2E2E2E2E2E2E2E2E2E2E2E2E2E2E2E2E2E2E2E2E2E2E2E2E2E2E2E2E2E2E2E2E2E2E2E2E2E2E2E2E2E2E2E2E2E2E2
310
E2E2E2E2E2E2E2E2E2E2E2E2E2E2E2E2E2E2E2E2E2E2E2E2E2E2E2E2E2E2E2E2E2E2E2E2E2E2E2E2E2E2E2E2E2E2E2E2E2E2E2E2E2E2E2E2E2E2E2E2E2E2E2E2E2F5E2E2E2F5F5E2E2E2F5E2E2E2E2E2E2E2E2E2E2E2E2E2E2E2E2E2E2E2E2E2E2E2E2E2E2E2E2E2E2E2E2E2E2E2E2E2E2E2E2E2E2E2E2E2E2E2E2E2E2E2E2
310
E2E2E2E2E2E2E2E2E2E2E2E2E2E2E2E2E2E2E2E2E2E2E2E2E2E2E2E2E2E2E2E2E2E2E2E2E2E2E2E2E2E2E2E2E2E2E2E2E2E2E2E2E2E2E2E2E2E2E2E2E2E2E2E2E2E2E2E2E2E2E2E2E2E2E2E2E2E2E2E2E2E2E2E2E2E2E2E2E2E2E2E2E2E2E2E2E2E2E2E2E2E2E2E2E2E2E2E2E2E2E2E2E2E2E2E2E2E2F5E2E2E2F5F5E2E2E2
310
F5E2E2E2E2E2E2E2E2E2E2E2E2E2E2E2E2E2E2E2E2E2E2E2E2E2E2E2E2E2E2E2E2E2E2E2E2E2E2E2E2E2E2E2E2E2E2E2E2E2E2E2E2E2E2E2E2E2E2E2E2E2E2E2E2E2E2E2E2E2E2E2E2E2E2E2E2E2E2E2E2E2E2E2E2E2E2E2E2E2E2E2E2E2E2E2E2E2E2E2E2E2E2E2E2E2E2E2E2E2E2E2E2E2E2E2E2E2E2E2E2E2E2E2E2E2E2
310
E2E2E2E2E2E2E2E2E2E2E2E2E2E2E2E2E2E2E2E2E2E2E2E2E2E2E2E2E2E2E2E2E2E2E2E2E2E2E2E2E2E2E2E2F5E2E2E2F5F5E2E2E2F5E2E2E2E2E2E2E2E2E2E2E2E2E2E2E2E2E2E2E2E2E2E2E2E2E2E2E2E2E2E2E2E2E2E2E2E2E2E2E2E2E2E2E2E2E2E2E2E2E2E2E2E2E2E2E2E2E2E2E2E2E2E2E2E2E2E2E2E2E2E2E2E2E2
310
E2E2E2E2E2E2E2E2E2E2E2E2E2E2E2E2E2E2E2E2E2E2E2E2E2E2E2E2E2E2E2E2E2E2E2E2E2E2E2E2E2E2E2E2E2E2E2E2E2E2E2E2E2E2E2E2E2E2E2E2E2E2E2E2E2E2E2E2E2E2E2E2E2E2E2E2E2E2E2E2E2E2E2E2E2E2E2E2E2E2E2E2E2E2E2E2E2F5E2E2E2F5F5E2E2E2F5E2E2E2E2E2E2E2E2E2E2E2E2E2E2E2E2E2E2E2E2
310
E2E2E2E2E2E2E2E2E2E2E2E2E2E2E2E2E2E2E2E2E2E2E2E2E2E2E2E2E2E2E2E2E2E2E2E2E2E2E2E2E2E2E2E2E2E2E2E2E2E2E2E2E2E2E2E2E2E2E2E2E2E2E2E2E2E2E2E2E2E2E2E2E2E2E2E2E2E2E2E2E2E2E2E2E2E2E2E2E2E2E2E2E2E2E2E2E2E2E2E2E2E2E2E2E2E2E2E2E2E2E2E2E2E2E2E2E2E2E2E2E2E2E2E2E2E2E2
310
E2E2E2E2E2E2E2E2E2E2E2E2E2E2E2E2E2E2E2E2E2E2E2F5E2E2E2F5F5E2E2E2E2E2E2E2E2E2E2E2E2E2E2E2E2E2E2E2E2E2E2E2E2E2E2E2E2E2E2E2E2E2E2E2E2E2E2E2E2E2E2E2E2E2E2E2E2E2E2E2E2E2E2E2E2E2E2E2E2E2E2E2E2E2E2E2E2E2E2E2E2E2E2E2E2E2E2E2E2E2E2E2E2E2E2E2E2E2E2E2E2E2E2E2E2E2E2
310
E2E2E2E2E2E2E2E2E2E2E2E2E2E2E2E2E2E2E2E2E2E2E2E2E2E2E2E2E2E2E2E2E2E2E2E2E2E2E2E2E2E2E2E2E2E2E2E2E2E2E2E2E2E2E2E2E2E2E2E2E2E2E2E2E2E2E2E2E2E2E2E2E2E2E2E2E2E2E2E2F5F5E2E2E2E2E2E2E2E2E2E2E2E2E2E2E2E2E2E2E2E2E2E2E2E2E2E2E2E2E2E2E2E2E2E2E2E2E2E2E2E2E2E2E2E2E2
310
E2E2E2E2E2E2E2E2E2E2E2E2E2E2E2E2E2E2E2E2E2E2E2E2E2E2E2E2E2E2E2E2E2E2E2E2E2E2E2E2E2E2E2E2E2E2E2E2E2E2E2E2E2E2E2E2E2E2E2E2E2E2E2E2E2E2E2E2E2E2E2E2E2E2E2E2E2E2E2E2E2E2E2E2E2E2E2E2E2E2E2E2E2E2E2E2E2E2E2E2E2E2E2E2E2E2E2E2E2E2E2E2E2E2E2E2E2E2E2E2E2E2E2E2E2E2E2
310
E2E2E2E2E2E2F5F5E2E2E2E2E2E2E2E2E2E2E2E2E2E2E2E2E2E2E2E2E2E2E2E2E2E2E2E2E2E2E2E2E2E2E2E2E2E2E2E2E2E2E2E2E2E2E2E2E2E2E2E2E2E2E2E2E2E2E2E2E2E2E2E2E2E2E2E2E2E2E2E2E2E2E2E2E2E2E2E2E2E2E2E2E2E2E2E2E2E2E2E2E2E2E2E2E2E2E2E2E2E2E2E2E2E2E2E2E2E2E2E2E2E2E2E2E2E2E2
310
E2E2E2E2E2E2E2E2E2E2E2E2E2E2E2E2E2E2E2E2E2E2E2E2E2E2E2E2E2E2E2E2E2E2E2E2E2E2E2E2E2E2E2E2E2E2E2E2E2E2E2E2E2E2E2E2E2E2E2F5F5E2E2E2E2E2E2E2E2E2E2E2E2E2E2E2E2E2E2E2E2E2E2E2E2E2E2E2E2E2E2E2E2E2E2E2E2E2E2E2E2E2E2E2E2E2E2E2E2E2E2E2E2E2E2E2E2E2E2E2E2E2E2E2E2E2E2
310
E2E2E2E2E2E2E2E2E2E2E2E2E2E2E2E2E2E2E2E2E2E2E2E2E2E2E2E2E2E2E2E2E2E2E2E2E2E2E2E2E2E2E2E2E2E2E2E2E2E2E2E2E2E2E2E2E2E2E2E2E2E2E2E2E2E2E2E2E2E2E2E2E2E2E2E2E2E2E2E2E2E2E2E2E2E2E2E2E2E2E2E2E2E2E2E2E2E2E2E2E2E2E2E2E2E2E2E2E2E2E2E2F5F5E2E2E2E2E2E2E2E2E2E2E2E2E2
310
E2E2E2E2E2E2E2F5F5F5F5F5F5F5F5F5F5F5F5F5F5F5F5F5F5F5F5F5F5F5F5F5F5F5F5F5F5F5F5F5F5F5F5F5F5F5F5F5F5F5F5F5F5F5F5F5F5F5F5F5F5F5F5F5F5F5F5F5F5F5F5F5F5F5F5F5F5F5F5F5F5F5F5F5F5F5F5F5F5F5F5F5F5F5F5F5F5F5F5F5F5F5F5F5F5F5F5F5F5F5F5F5F5F5F5F5F5F5F5F5F5F5F5F5F5F5F5
310
F5F5F5F5F5F5F5F5F5F5F5F5F5F5F5F5F5F5E2E2E2E2E2E2E2E2E2E2E2E2E2E2E2E2E2E2E2E2F5F5E2E2E2E2E2E2E2E2E2E2E2E2E2E2E2E2E2E2E2E2F5E2E2E2E2E2E2E2E2E2E2E2E2E2E2E2E2E2E2E2E2E2E2E2E2E2E2E2E2E2E2E2E2E2E2E2E2E2E2E2E2E2E2E2E2E2E2E2E2E2E2E2E2E2E2E2E2E2E2E2E2E2E2E2E2E2E2
310
E2E2E2E2E2E2E2E2E2E2E2E2E2E2E2E2E2E2E2E2E2E2E2E2E2E2E2E2E2E2E2E2E2E2E2E2E2E2E2E2E2E2E2E2E2E2E2E2E2E2E2E2E2E2E2E2E2E2E2E2E2E2E2E2E2E2E2E2E2E2F5E2E2E2E2E2E2E2E2E2E2E2E2E2E2E2E2E2E2E2E2F5F5E2E2E2E2E2E2E2E2E2E2E2E2E2E2E2E2E2E2E2E2F5E2E2E2E2E2E2E2E2E2E2E2E2E2
310
E2E2E2E2E2E2E2E2E2E2E2E2E2E2E2E2E2E2E2E2E2E2E2E2E2E2E2E2E2E2E2E2E2E2E2E2E2E2E2E2E2E2E2E2E2E2E2E2E2E2E2E2E2E2E2E2E2E2E2E2E2E2E2E2E2E2E2E2E2E2E2E2E2E2E2E2E2E2E2E2E2E2E2E2E2E2E2E2E2E2E2E2E2E2E2E2E2E2E2E2E2E2E2E2E2E2E2E2E2E2E2E2E2E2E2E2E2E2E2E2E2E2E2F5E2E2E2
310
E2E2E2E2E2E2E2E2E2E2E2E2E2E2E2E2E2F5F5E2E2E2E2E2E2E2E2E2E2E2E2E2E2E2E2E2E2E2E2F5E2E2E2E2E2E2E2E2E2E2E2E2E2E2E2E2E2E2E2E2E2E2E2E2E2E2E2E2E2E2E2E2E2E2E2E2E2E2E2E2E2E2E2E2E2E2E2E2E2E2E2E2E2E2E2E2E2E2E2E2E2E2E2E2E2E2E2E2E2E2E2E2E2E2E2E2E2E2E2E2E2E2E2E2E2E2E2
310
E2E2E2E2E2E2E2E2E2E2E2E2E2E2E2E2E2E2E2E2E2E2E2E2E2E2E2E2E2E2E2E2E2E2E2E2E2E2E2E2E2E2E2E2E2E2E2E2E2F5E2E2E2E2E2E2E2E2E2E2E2E2E2E2E2E2E2E2E2E2F5F5E2E2E2E2E2E2E2E2E2E2E2E2E2E2E2E2E2E2E2E2F5E2E2E2E2E2E2E2E2E2E2E2E2E2E2E2E2E2E2E2E2E2E2E2E2E2E2E2E2E2E2E2E2E2E2
310
E2E2E2E2E2E2E2E2E2E2E2E2E2E2E2E2E2E2E2E2E2E2E2E2E2E2E2E2E2E2E2E2E2E2E2E2E2E2E2E2E2E2E2E2E2E2E2E2E2E2E2E2E2E2E2E2E2E2E2E2E2E2E2E2E2E2E2E2E2E2E2E2E2E2E2E2E2E2E2E2E2E2E2E2E2E2E2E2E2E2E2E2E2E2E2E2E2E2E2E2E2E2F5E2E2E2E2E2E2E2E2E2E2E2E2E2E2E2E2E2E2E2E2F5F5E2E2
310
E2F5E2E2E2E2E2E2E2E2E2E2E2E2E2E2E2E2F5E2E2E2E2E2E2E2E2E2E2E2E2E2E2E2E2E2E2E2E2E2E2E2E2E2E2E2E2E2E2E2E2E2E2E2E2E2E2E2E2E2E2E2E2E2E2E2E2E2E2E2E2E2E2E2E2E2E2E2E2E2E2E2E2E2E2E2E2E2E2E2E2E2E2E2E2E2E2E2E2E2E2E2E2E2E2E2E2E2E2E2E2E2E2E2E2E2E2E2E2E2E2E2E2E2E2E2E2
310
E2E2E2E2E2E2E2E2E2E2E2E2E2E2E2E2E2E2E2E2E2E2E2E2E2E2E2E2F5E2E2E2E2E2E2E2E2E2E2E2E2E2E2E2E2F5E2E2E2F5F5E2E2E2F5E2E2E2E2E2E2E2E2E2E2E2E2E2E2E2E2F5E2E2E2E2E2E2E2E2E2E2E2E2E2E2E2E2E2E2E2E2E2E2E2E2E2E2E2E2E2E2E2E2E2E2E2E2E2E2E2E2E2E2E2E2E2E2E2E2E2E2E2E2E2E2E2
310
E2E2E2E2E2E2E2E2E2E2E2E2E2E2E2E2E2E2E2E2E2E2E2E2E2E2E2E2E2E2E2E2E2E2E2E2E2E2E2E2E2E2E2E2E2E2E2E2E2E2E2E2E2E2E2E2E2E2E2E2E2E2E2E2E2E2E2E2E2E2E2E2E2E2E2E2E2E2E2E2E2F5E2E2E2E2E2E2E2E2E2E2E2E2E2E2E2E2F5E2E2E2F5F5E2E2E2F5E2E2E2E2E2E2E2E2E2E2E2E2E2E2E2E2F5E2E2
310
E2E2E2E2E2E2E2E2E2E2E2E2E2E2E2E2E2E2E2E2E2E2E2E2E2E2E2E2E2E2E2E2E2E2E2E2E2E2E2E2E2E2E2E2E2E2E2E2E2E2E2E2E2E2E2E2E2E2E2E2E2E2E2E2E2E2E2E2E2E2E2E2E2E2E2E2E2E2E2E2E2E2E2E2E2E2E2E2E2E2E2E2E2E2E2E2E2E2E2E2E2E2E2E2E2E2E2E2E2E2E2E2E2E2E2E2E2E2E2E2E2E2E2E2E2E2E2
310
E2E2E2E2E2E2E2F5E2E2E2E2E2E2E2E2E2E2E2E2E2E2E2E2F5E2E2E2F5F5E2E2E2F5E2E2E2E2E2E2E2E2E2E2E2E2E2E2E2E2F5E2E2E2E2E2E2E2E2E2E2E2E2E2E2E2E2E2E2E2E2E2E2E2E2E2E2E2E2E2E2E2E2E2E2E2E2E2E2E2E2E2E2E2E2E2E2E2E2E2E2E2E2E2E2E2E2E2E2E2E2E2E2E2E2E2E2E2E2E2E2E2E2E2E2E2E2
310
E2E2E2E2E2E2E2E2E2E2E2E2E2E2E2E2E2E2E2E2E2E2E2E2E2E2E2E2E2E2E2E2E2E2E2E2E2E2E2E2E2E2E2E2E2E2E2E2E2E2E2E2E2E2E2E2E2E2E2E2F5E2E2E2E2E2E2E2E2E2E2E2E2E2E2E2E2F5E2E2E2F5F5E2E2E2F5E2E2E2E2E2E2E2E2E2E2E2E2E2E2E2E2F5E2E2E2E2E2E2E2E2E2E2E2E2E2E2E2E2E2E2E2E2E2E2E2
310
E2E2E2E2E2E2E2E2E2E2E2E2E2E2E2E2E2E2E2E2E2E2E2E2E2E2E2E2E2E2E2E2E2E2E2E2E2E2E2E2E2E2E2E2E2E2E2E2E2E2E2E2E2E2E2E2E2E2E2E2E2E2E2E2E2E2E2E2E2E2E2E2E2E2E2E2E2E2E2E2E2E2E2E2E2E2E2E2E2E2E2E2E2E2E2E2E2E2E2E2E2E2E2E2E2E2E2E2E2E2E2E2E2F5E2E2E2E2E2E2E2E2E2E2E2E2E2
310
E2E2E2F5E2E2E2F5F5E2E2E2F5E2E2E2E2E2E2E2E2E2E2E2E2E2E2E2E2F5E2E2E2E2E2E2E2E2E2E2E2E2E2E2E2E2E2E2E2E2E2E2E2E2E2E2E2E2E2E2E2E2E2E2E2E2E2E2E2E2E2E2E2E2E2E2E2E2E2E2E2E2E2E2E2E2E2E2E2E2E2E2E2E2E2E2E2E2E2E2E2E2E2E2E2E2E2E2E2E2E2E2E2E2E2E2E2E2E2E2E2E2E2E2E2E2E2
310
E2E2E2E2E2E2E2E2E2E2E2E2E2E2E2E2E2E2E2E2E2E2E2E2E2E2E2E2E2E2E2E2E2E2E2E2E2E2E2F5E2E2E2E2E2E2E2E2E2E2E2E2E2E2E2E2F5E2E2E2F5F5E2E2E2F5E2E2E2E2E2E2E2E2E2E2E2E2E2E2E2E2F5E2E2E2E2E2E2E2E2E2E2E2E2E2E2E2E2E2E2E2E2E2E2E2E2E2E2E2E2E2E2E2E2E2E2E2E2E2E2E2E2E2E2E2E2
310
E2E2E2E2E2E2E2E2E2E2E2E2E2E2E2E2E2E2E2E2E2E2E2E2E2E2E2E2E2E2E2E2E2E2E2E2E2E2E2E2E2E2E2E2E2E2E2E2E2E2E2E2E2E2E2E2E2E2E2E2E2E2E2E2E2E2E2E2E2E2E2E2E2E2E2E2E2E2E2E2E2E2E2E2E2E2E2E2E2E2E2E2F5E2E2E2E2E2E2E2E2E2E2E2E2E2E2E2E2F5E2E2E2F5F5E2E2E2F5E2E2E2E2E2E2E2E2
310
E2E2E2E2E2E2E2E2F5E2E2E2E2E2E2E2E2E2E2E2E2E2E2E2E2E2E2E2E2E2E2E2E2E2E2E2E2E2E2E2E2E2E2E2E2E2E2E2E2E2E2E2E2E2E2E2E2E2E2E2E2E2E2E2E2E2E2E2E2E2E2E2E2E2E2E2E2E2E2E2E2E2E2E2E2E2E2E2E2E2E2E2E2E2E2E2E2E2E2E2E2E2E2E2E2E2E2E2E2E2E2E2E2E2E2E2E2E2E2E2E2E2E2E2E2E2E2
310
E2E2E2E2E2E2E2E2E2E2E2E2E2E2E2E2E2E2F5E2E2E2E2E2E2E2E2E2E2E2E2E2E2E2E2F5E2E2E2F5F5E2E2E2F5E2E2E2E2E2E2E2E2E2E2E2E2E2E2E2E2F5E2E2E2E2E2E2E2E2E2E2E2E2E2E2E2E2E2E2E2E2E2E2E2E2E2E2E2E2E2E2E2E2E2E2E2E2E2E2E2E2E2E2E2E2E2E2E2E2E2E2E2E2E2E2E2E2E2E2E2E2E2E2E2E2E2
310
E2E2E2E2E2E2E2E2E2E2E2E2E2E2E2E2E2E2E2E2E2E2E2E2E2E2E2E2E2E2E2E2E2E2E2E2E2E2E2E2E2E2E2E2E2E2E2E2E2E2E2E2E2E2E2E2E2E2E2E2E2E2E2E2E2E2E2E2E2E2E2F5E2E2E2E2E2E2E2E2E2E2E2E2E2E2E2E2F5E2E2E2F5F5E2E2E2F5E2E2E2E2E2E2E2E2E2E2E2E2E2E2E2E2F5E2E2E2E2E2E2E2E2E2E2E2E2
310
E2E2E2E2E2E2E2E2E2E2E2E2E2E2E2E2E2E2E2E2E2E2E2E2E2E2E2E2E2E2E2E2E2E2E2E2E2E2E2E2E2E2E2E2E2E2E2E2E2E2E2E2E2E2E2E2E2E2E2E2E2E2E2E2E2E2E2E2E2E2E2E2E2E2E2E2E2E2E2E2E2E2E2E2E2E2E2E2E2E2E2E2E2E2E2E2E2E2E2E2E2E2E2E2E2E2E2E2E2E2E2E2E2E2E2E2E2E2E2E2E2E2E2E2F5E2E2
310
E2E2E2E2E2E2E2E2E2E2E2E2E2E2F5E2E2E2F5F5E2E2E2F5E2E2E2E2E2E2E2E2E2E2E2E2E2E2E2E2F5E2E2E2E2E2E2E2E2E2E2E2E2E2E2E2E2E2E2E2E2E2E2E2E2E2E2E2E2E2E2E2E2E2E2E2E2E2E2E2E2E2E2E2E2E2E2E2E2E2E2E2E2E2E2E2E2E2E2E2E2E2E2E2E2E2E2E2E2E2E2E2E2E2E2E2E2E2E2E2E2E2E2E2E2E2E2
310
E2E2E2E2E2E2E2E2E2E2E2E2E2E2E2E2E2E2E2E2E2E2E2E2E2E2E2E2E2E2E2E2E2E2E2E2E2E2E2E2E2E2E2E2E2E2E2E2E2E2F5E2E2E2E2E2E2E2E2E2E2E2E2E2E2E2E2F5E2E2E2F5F5E2E2E2F5E2E2E2E2E2E2E2E2E2E2E2E2E2E2E2E2F5E2E2E2E2E2E2E2E2E2E2E2E2E2E2E2E2E2E2E2E2E2E2E2E2E2E2E2E2E2E2E2E2E2
310
E2E2E2E2E2E2E2E2E2E2E2E2E2E2E2E2E2E2E2E2E2E2E2E2E2E2E2E2E2E2E2E2E2E2E2E2E2E2E2E2E2E2E2E2E2E2E2E2E2E2E2E2E2E2E2E2E2E2E2E2E2E2E2E2E2E2E2E2E2E2E2E2E2E2E2E2E2E2E2E2E2E2E2E2E2E2E2E2E2E2E2E2E2E2E2E2E2E2E2E2E2E2E2F5E2E2E2E2E2E2E2E2E2E2E2E2E2E2E2E2F5E2E2E2F5F5E2
310
E2E2F5E2E2E2E2E2E2E2E2E2E2E2E2E2E2E2E2F5E2E2E2E2E2E2E2E2E2E2E2E2E2E2E2E2E2E2E2E2E2E2E2E2E2E2E2E2E2E2E2E2E2E2E2E2E2E2E2E2E2E2E2E2E2E2E2E2E2E2E2E2E2E2E2E2E2E2E2E2E2E2E2E2E2E2E2E2E2E2E2E2E2E2E2E2E2E2E2E2E2E2E2E2E2E2E2E2E2E2E2E2E2E2E2E2E2E2E2E2E2E2E2E2E2E2E2
310
E2E2E2E2E2E2E2E2E2E2E2E2E2E2E2E2E2E2E2E2E2E2E2E2E2E2E2E2E2F5E2E2E2E2E2E2E2E2E2E2E2E2E2E2E2E2F5E2E2E2F5F5E2E2E2F5E2E2E2E2E2E2E2E2E2E2E2E2E2E2E2E2F5E2E2E2E2E2E2E2E2E2E2E2E2E2E2E2E2E2E2E2E2E2E2E2E2E2E2E2E2E2E2E2E2E2E2E2E2E2E2E2E2E2E2E2E2E2E2E2E2E2E2E2E2E2E2
310
E2E2E2E2E2E2E2E2E2E2E2E2E2E2E2E2E2E2E2E2E2E2E2E2E2E2E2E2E2E2E2E2E2E2E2E2E2E2E2E2E2E2E2E2E2E2E2E2E2E2E2E2E2E2E2E2E2E2E2E2E2E2E2E2E2E2E2E2E2E2E2E2E2E2E2E2E2E2E2E2E2E2F5E2E2E2E2E2E2E2E2E2E2E2E2E2E2E2E2F5E2E2E2F5F5E2E2E2F5E2E2E2E2E2E2E2E2E2E2E2E2E2E2E2E2F5E2
310
E2E2E2E2E2E2E2E2E2E2E2E2E2E2E2E2E2E2E2E2E2E2E2E2E2E2E2E2E2E2E2E2E2E2E2E2E2E2E2E2E2E2E2E2E2E2E2E2E2E2E2E2E2E2E2E2E2E2E2E2E2E2E2E2E2E2E2E2E2E2E2E2E2E2E2E2E2E2E2E2E2E2E2E2E2E2E2E2E2E2E2E2E2E2E2E2E2E2E2E2E2E2E2E2E2E2E2E2E2E2E2E2E2E2E2E2E2E2E2E2E2E2E2E2E2E2E2
310
E2E2E2E2E2E2E2E2F5E2E2E2E2E2E2E2E2E2E2E2E2E2E2E2E2F5E2E2E2F5F5E2E2E2F5E2E2E2E2E2E2E2E2E2E2E2E2E2E2E2E2F5E2E2E2E2E2E2E2E2E2E2E2E2E2E2E2E2E2E2E2E2E2E2E2E2E2E2E2E2E2E2E2E2E2E2E2E2E2E2E2E2E2E2E2E2E2E2E2E2E2E2E2E2E2E2E2E2E2E2E2E2E2E2E2E2E2E2E2E2E2E2E2E2E2E2E2
310
E2E2E2E2E2E2E2E2E2E2E2E2E2E2E2E2E2E2E2E2E2E2E2E2E2E2E2E2E2E2E2E2E2E2E2E2E2E2E2E2E2E2E2E2E2E2E2E2E2E2E2E2E2E2E2E2E2E2E2E2E2F5E2E2E2E2E2E2E2E2E2E2E2E2E2E2E2E2F5E2E2E2F5F5E2E2E2F5E2E2E2E2E2E2E2E2E2E2E2E2E2E2E2E2F5E2E2E2E2E2E2E2E2E2E2E2E2E2E2E2E2E2E2E2E2E2E2
310
E2E2E2E2E2E2E2E2E2E2E2E2E2E2E2E2E2E2E2E2E2E2E2E2E2E2E2E2E2E2E2E2E2E2E2E2E2E2E2E2E2E2E2E2E2E2E2E2E2E2E2E2E2E2E2E2E2E2E2E2E2E2E2E2E2E2E2E2E2E2E2E2E2E2E2E2E2E2E2E2E2E2E2E2E2E2E2E2E2E2E2E2E2E2E2E2E2E2E2E2E2E2E2E2E2E2E2E2E2E2E2E2E2E2F5E2E2E2E2E2E2E2E2E2E2E2E2
310
E2E2E2E2F5E2E2E2F5F5E2E2E2E2E2E2E2E2E2E2E2E2E2E2E2E2E2E2E2E2F5E2E2E2E2E2E2E2E2E2E2E2E2E2E2E2E2E2E2E2E2E2E2E2E2E2E2E2E2E2E2E2E2E2E2E2E2E2E2E2E2E2E2E2E2E2E2E2E2E2E2E2E2E2E2E2E2E2E2E2E2E2E2E2E2E2E2E2E2E2E2E2E2E2E2E2E2E2E2E2E2E2E2E2E2E2E2E2E2E2E2E2E2E2E2E2E2
310
E2E2E2E2E2E2E2E2E2E2E2E2E2E2E2E2E2E2E2E2E2E2E2E2E2E2E2E2E2E2E2E2E2E2E2E2E2E2E2E2F5E2E2E2E2E2E2E2E2E2E2E2E2E2E2E2E2E2E2E2E2F5F5E2E2E2E2E2E2E2E2E2E2E2E2E2E2E2E2E2E2E2E2F5E2E2E2E2E2E2E2E2E2E2E2E2E2E2E2E2E2E2E2E2E2E2E2E2E2E2E2E2E2E2E2E2E2E2E2E2E2E2E2E2E2E2E2
310
E2E2E2E2E2E2E2E2E2E2E2E2E2E2E2E2E2E2E2E2E2E2E2E2E2E2E2E2E2E2E2E2E2E2E2E2E2E2E2E2E2E2E2E2E2E2E2E2E2E2E2E2E2E2E2E2E2E2E2E2E2E2E2E2E2E2E2E2E2E2E2E2E2E2E2E2E2E2E2E2E2E2E2E2E2E2E2E2E2E2E2E2E2F5E2E2E2E2E2E2E2E2E2E2E2E2E2E2E2E2E2E2E2E2F5F5E2E2E2E2E2E2E2E2E2E2E2
310
E2E2E2E2E2E2E2E2E2F5E2E2E2E2E2E2E2E2E2E2E2E2E2E2E2E2E2E2E2E2E2E2E2E2E2E2E2E2E2E2E2E2E2E2E2E2E2E2E2E2E2E2E2E2E2E2E2E2E2E2E2E2E2E2E2E2E2E2E2E2E2E2E2E2E2E2E2E2E2E2E2E2E2E2E2E2E2E2E2E2E2E2E2E2E2E2E2E2E2E2E2E2E2E2E2E2E2E2E2E2E2E2E2E2E2E2E2E2E2E2E2E2E2E2E2E2E2
310
E2E2E2E2E2E2E2E2E2E2E2E2E2E2E2E2E2E2E2F5E2E2E2E2E2E2E2E2E2E2E2E2E2E2E2E2E2E2E2E2F5F5E2E2E2E2E2E2E2E2E2E2E2E2E2E2E2E2E2E2E2E2F5E2E2E2E2E2E2E2E2E2E2E2E2E2E2E2E2E2E2E2E2E2E2E2E2E2E2E2E2E2E2E2E2E2E2E2E2E2E2E2E2E2E2E2E2E2E2E2E2E2E2E2E2E2E2E2E2E2E2E2E2E2E2E2E2
310
E2E2E2E2E2E2E2E2E2E2E2E2E2E2E2E2E2E2E2E2E2E2E2E2E2E2E2E2E2E2E2E2E2E2E2E2E2E2E2E2E2E2E2E2E2E2E2E2E2E2E2E2E2E2E2E2E2E2E2E2E2E2E2E2E2E2E2E2E2E2E2E2F5E2E2E2E2E2E2E2E2E2E2E2E2E2E2E2E2E2E2E2E2F5F5E2E2E2E2E2E2E2E2E2E2E2E2E2E2E2E2E2E2E2E2F5E2E2E2E2E2E2E2E2E2E2E2
310
E2E2E2E2E2E2E2E2E2E2E2E2E2E2E2E2E2E2E2E2E2E2E2E2E2E2E2E2E2E2E2E2E2E2E2E2E2E2E2E2E2E2E2E2E2E2E2E2E2E2E2E2E2E2E2E2E2E2E2E2E2E2E2E2E2E2E2E2E2E2E2E2E2E2E2E2E2E2E2E2E2E2E2E2E2E2E2E2E2E2E2E2E2E2E2E2E2E2E2E2E2E2E2E2E2E2E2E2E2E2E2E2E2E2E2E2E2E2E2E2E2E2E2E2E2F5E2
310
E2E2E2E2E2E2E2E2E2E2E2E2E2E2E2E2E2E2E2F5F5E2E2E2E2E2E2E2E2E2E2E2E2E2E2E2E2E2E2E2E2F5E2E2E2E2E2E2E2E2E2E2E2E2E2E2E2E2E2E2E2E2E2E2E2E2E2E2E2E2E2E2E2E2E2E2E2E2E2E2E2E2E2E2E2E2E2E2E2E2E2E2E2E2E2E2E2E2E2E2E2E2E2E2E2E2E2E2E2E2E2E2E2E2E2E2E2E2E2E2E2E2E2E2E2E2E2
310
E2E2E2E2E2E2E2E2E2E2E2E2E2E2E2E2E2E2E2E2E2E2E2E2E2E2E2E2E2E2E2E2E2E2E2E2E2E2E2E2E2E2E2E2E2E2E2E2E2E2E2F5E2E2E2E2E2E2E2E2E2E2E2E2E2E2E2E2E2E2E2E2F5F5E2E2E2E2E2E2E2E2E2E2E2E2E2E2E2E2E2E2E2E2F5E2E2E2E2E2E2E2E2E2E2E2E2E2E2E2E2E2E2E2E2E2E2E2E2E2E2E2E2E2E2E2E2
310
E2E2E2E2E2E2E2E2E2E2E2E2E2E2E2E2E2E2E2E2E2E2E2E2E2E2E2E2E2E2E2E2E2E2E2E2E2E2E2E2E2E2E2E2E2E2E2E2E2E2E2E2E2E2E2E2E2E2E2E2E2E2E2E2E2E2E2E2E2E2E2E2E2E2E2E2E2E2E2E2E2E2E2E2E2E2E2E2E2E2E2E2E2E2E2E2E2E2E2E2E2E2E2E2F5E2E2E2E2E2E2E2E2E2E2E2E2E2E2E2E2E2E2E2E2F5F5
310
E2E2E2E2E2E2E2E2E2E2E2E2E2E2E2E2E2E2E2E2F5E2E2E2E2E2E2E2E2E2E2E2E2E2E2E2E2E2E2E2E2E2E2E2E2E2E2E2E2E2E2E2E2E2E2E2E2E2E2E2E2E2E2E2E2E2E2E2E2E2E2E2E2E2E2E2E2E2E2E2E2E2E2E2E2E2E2E2E2E2E2E2E2E2E2E2E2E2E2E2E2E2E2E2E2E2E2E2E2E2E2E2E2E2E2E2E2E2E2E2E2E2E2E2E2E2E2
310
E2E2E2E2E2E2E2E2E2E2E2E2E2E2E2E2E2E2E2E2E2E2E2E2E2E2E2E2E2E2F5E2E2E2E2E2E2E2E2E2E2E2E2E2E2E2E2E2E2E2E2F5F5E2E2E2E2E2E2E2E2E2E2E2E2E2E2E2E2E2E2E2E2F5E2E2E2E2E2E2E2E2E2E2E2E2E2E2E2E2E2E2E2E2E2E2E2E2E2E2E2E2E2E2E2E2E2E2E2E2E2E2E2E2E2E2E2E2E2E2E2E2E2E2E2E2E2
310
E2E2E2E2E2E2E2E2E2E2E2E2E2E2E2E2E2E2E2E2E2E2E2E2E2E2E2E2E2E2E2E2E2E2E2E2E2E2E2E2E2E2E2E2E2E2E2E2E2E2E2E2E2E2E2E2E2E2E2E2E2E2E2E2E2E2E2E2E2E2E2E2E2E2E2E2E2E2E2E2E2E2E2F5E2E2E2E2E2E2E2E2E2E2E2E2E2E2E2E2E2E2E2E2F5F5E2E2E2F5E2E2E2E2E2E2E2E2E2E2E2E2E2E2E2E2F5
310
E2E2E2E2E2E2E2E2E2E2E2E2E2E2E2E2E2E2E2E2E2E2E2E2E2E2E2E2E2E2E2E2E2E2E2E2E2E2E2E2E2E2E2E2E2E2E2E2E2E2E2E2E2E2E2E2E2E2E2E2E2E2E2E2E2E2E2E2E2E2E2E2E2E2E2E2E2E2E2E2E2E2E2E2E2E2E2E2E2E2E2E2E2E2E2E2E2E2E2E2E2E2E2E2E2E2E2E2E2E2E2E2E2E2E2E2E2E2E2E2E2E2E2E2E2E2E2
310
E2E2E2E2E2E2E2E2E2F5E2E2E2E2E2E2E2E2E2E2E2E2E2E2E2E2F5E2E2E2F5F5E2E2E2F5E2E2E2E2E2E2E2E2E2E2E2E2E2E2E2E2F5E2E2E2E2E2E2E2E2E2E2E2E2E2E2E2E2E2E2E2E2E2E2E2E2E2E2E2E2E2E2E2E2E2E2E2E2E2E2E2E2E2E2E2E2E2E2E2E2E2E2E2E2E2E2E2E2E2E2E2E2E2E2E2E2E2E2E2E2E2E2E2E2E2E2
310
E2E2E2E2E2E2E2E2E2E2E2E2E2E2E2E2E2E2E2E2E2E2E2E2E2E2E2E2E2E2E2E2E2E2E2E2E2E2E2E2E2E2E2E2E2E2E2E2E2E2E2E2E2E2E2E2E2E2E2E2E2E2F5E2E2E2E2E2E2E2E2E2E2E2E2E2E2E2E2F5E2E2E2F5F5E2E2E2F5E2E2E2E2E2E2E2E2E2E2E2E2E2E2E2E2F5E2E2E2E2E2E2E2E2E2E2E2E2E2E2E2E2E2E2E2E2E2
310
E2E2E2E2E2E2E2E2E2E2E2E2E2E2E2E2E2E2E2E2E2E2E2E2E2E2E2E2E2E2E2E2E2E2E2E2E2E2E2E2E2E2E2E2E2E2E2E2E2E2E2E2E2E2E2E2E2E2E2E2E2E2E2E2E2E2E2E2E2E2E2E2E2E2E2E2E2E2E2E2E2E2E2E2E2E2E2E2E2E2E2E2E2E2E2E2E2E2E2E2E2E2E2E2E2E2E2E2E2E2E2E2E2E2E2F5E2E2E2E2E2E2E2E2E2E2E2
310
E2E2E2E2E2F5E2E2E2F5F5E2E2E2F5E2E2E2E2E2E2E2E2E2E2E2E2E2E2E2E2F5E2E2E2E2E2E2E2E2E2E2E2E2E2E2E2E2E2E2E2E2E2E2E2E2E2E2E2E2E2E2E2E2E2E2E2E2E2E2E2E2E2E2E2E2E2E2E2E2E2E2E2E2E2E2E2E2E2E2E2E2E2E2E2E2E2E2E2E2E2E2E2E2E2E2E2E2E2E2E2E2E2E2E2E2E2E2E2E2E2E2E2E2E2E2E2
310
E2E2E2E2E2E2E2E2E2E2E2E2E2E2E2E2E2E2E2E2E2E2E2E2E2E2E2E2E2E2E2E2E2E2E2E2E2E2E2E2E2F5E2E2E2E2E2E2E2E2E2E2E2E2E2E2E2E2F5E2E2E2F5F5E2E2E2F5E2E2E2E2E2E2E2E2E2E2E2E2E2E2E2E2F5E2E2E2E2E2E2E2E2E2E2E2E2E2E2E2E2E2E2E2E2E2E2E2E2E2E2E2E2E2E2E2E2E2E2E2E2E2E2E2E2E2E2
310
E2E2E2E2E2E2E2E2E2E2E2E2E2E2E2E2E2E2E2E2E2E2E2E2E2E2E2E2E2E2E2E2E2E2E2E2E2E2E2E2E2E2E2E2E2E2E2E2E2E2E2E2E2E2E2E2E2E2E2E2E2E2E2E2E2E2E2E2E2E2E2E2E2E2E2E2E2E2E2E2E2E2E2E2E2E2E2E2E2E2E2E2E2E2F5E2E2E2E2E2E2E2E2E2E2E2E2E2E2E2E2F5E2E2E2F5F5E2E2E2F5E2E2E2E2E2E2
310
E2E2E2E2E2E2E2E2E2E2F5E2E2E2E2E2E2E2E2E2E2E2E2E2E2E2E2E2E2E2E2E2E2E2E2E2E2E2E2E2E2E2E2E2E2E2E2E2E2E2E2E2E2E2E2E2E2E2E2E2E2E2E2E2E2E2E2E2E2E2E2E2E2E2E2E2E2E2E2E2E2E2E2E2E2E2E2E2E2E2E2E2E2E2E2E2E2E2E2E2E2E2E2E2E2E2E2E2E2E2E2E2E2E2E2E2E2E2E2E2E2E2E2E2E2E2E2
310
E2E2E2E2E2E2E2E2E2E2E2E2E2E2E2E2E2E2E2E2F5E2E2E2E2E2E2E2E2E2E2E2E2E2E2E2E2F5E2E2E2F5F5E2E2E2F5E2E2E2E2E2E2E2E2E2E2E2E2E2E2E2E2F5E2E2E2E2E2E2E2E2E2E2E2E2E2E2E2E2E2E2E2E2E2E2E2E2E2E2E2E2E2E2E2E2E2E2E2E2E2E2E2E2E2E2E2E2E2E2E2E2E2E2E2E2E2E2E2E2E2E2E2E2E2E2E2
310
E2E2E2E2E2E2E2E2E2E2E2E2E2E2E2E2E2E2E2E2E2E2E2E2E2E2E2E2E2E2E2E2E2E2E2E2E2E2E2E2E2E2E2E2E2E2E2E2E2E2E2E2E2E2E2E2E2E2E2E2E2E2E2E2E2E2E2E2E2E2E2E2E2F5E2E2E2E2E2E2E2E2E2E2E2E2E2E2E2E2F5E2E2E2F5F5E2E2E2F5E2E2E2E2E2E2E2E2E2E2E2E2E2E2E2E2F5E2E2E2E2E2E2E2E2E2E2
310
E2E2E2E2E2E2E2E2E2E2E2E2E2E2E2E2E2E2E2E2E2E2E2E2E2E2E2E2E2E2E2E2E2E2E2E2E2E2E2E2E2E2E2E2E2E2E2E2E2E2E2E2E2E2E2E2E2E2E2E2E2E2E2E2E2E2E2E2E2E2E2E2E2E2E2E2E2E2E2E2E2E2E2E2E2E2E2E2E2E2E2E2E2E2E2E2E2E2E2E2E2E2E2E2E2E2E2E2E2E2E2E2E2E2E2E2E2E2E2E2E2E2E2E2E2E2F5
310
E2E2E2E2E2E2E2E2E2E2E2E2E2E2E2E2F5E2E2E2F5F5E2E2E2F5E2E2E2E2E2E2E2E2E2E2E2E2E2E2E2E2F5E2E2E2E2E2E2E2E2E2E2E2E2E2E2E2E2E2E2E2E2E2E2E2E2E2E2E2E2E2E2E2E2E2E2E2E2E2E2E2E2E2E2E2E2E2E2E2E2E2E2E2E2E2E2E2E2E2E2E2E2E2E2E2E2E2E2E2E2E2E2E2E2E2E2E2E2E2E2E2E2E2E2E2E2
310
E2E2E2E2E2E2E2E2E2E2E2E2E2E2E2E2E2E2E2E2E2E2E2E2E2E2E2E2E2E2E2E2E2E2E2E2E2E2E2E2E2E2E2E2E2E2E2E2E2E2E2E2F5E2E2E2E2E2E2E2E2E2E2E2E2E2E2E2E2F5E2E2E2F5F5E2E2E2F5E2E2E2E2E2E2E2E2E2E2E2E2E2E2E2E2F5E2E2E2E2E2E2E2E2E2E2E2E2E2E2E2E2E2E2E2E2E2E2E2E2E2E2E2E2E2E2E2
310
E2E2E2E2E2E2E2E2E2E2E2E2E2E2E2E2E2E2E2E2E2E2E2E2E2E2E2E2E2E2E2E2E2E2E2E2E2E2E2E2E2E2E2E2E2E2E2E2E2E2E2E2E2E2E2E2E2E2E2E2E2E2E2E2E2E2E2E2E2E2E2E2E2E2E2E2E2E2E2E2E2E2E2E2E2E2E2E2E2E2E2E2E2E2E2E2E2E2E2E2E2E2E2E2E2F5E2E2E2E2E2E2E2E2E2E2E2E2E2E2E2E2F5E2E2E2F5
310
F5E2E2E2F5E2E2E2E2E2E2E2E2E2E2E2E2E2E2E2E2F5E2E2E2E2E2E2E2E2E2E2E2E2E2E2E2E2E2E2E2E2E2E2E2E2E2E2E2E2E2E2E2E2E2E2E2E2E2E2E2E2E2E2E2E2E2E2E2E2E2E2E2E2E2E2E2E2E2E2E2E2E2E2E2E2E2E2E2E2E2E2E2E2E2E2E2E2E2E2E2E2E2E2E2E2E2E2E2E2E2E2E2E2E2E2E2E2E2E2E2E2E2E2E2E2E2
310
E2E2E2E2E2E2E2E2E2E2E2E2E2E2E2E2E2E2E2E2E2E2E2E2E2E2E2E2E2E2E2F5E2E2E2E2E2E2E2E2E2E2E2E2E2E2E2E2F5E2E2E2F5F5E2E2E2F5E2E2E2E2E2E2E2E2E2E2E2E2E2E2E2E2F5E2E2E2E2E2E2E2E2E2E2E2E2E2E2E2E2E2E2E2E2E2E2E2E2E2E2E2E2E2E2E2E2E2E2E2E2E2E2E2E2E2E2E2E2E2E2E2E2E2E2E2E2
310
E2E2E2E2E2E2E2E2E2E2E2E2E2E2E2E2E2E2E2E2E2E2E2E2E2E2E2E2E2E2E2E2E2E2E2E2E2E2E2E2E2E2E2E2E2E2E2E2E2E2E2E2E2E2E2E2E2E2E2E2E2E2E2E2E2E2E2E2E2E2E2E2E2E2E2E2E2E2E2E2E2E2E2E2F5E2E2E2E2E2E2E2E2E2E2E2E2E2E2E2E2F5E2E2E2F5F5E2E2E2F5E2E2E2E2E2E2E2E2E2E2E2E2E2E2E2E2
310
F5E2E2E2E2E2E2E2E2E2E2E2E2E2E2E2E2E2E2E2E2E2E2E2E2E2E2E2E2E2E2E2E2E2E2E2E2E2E2E2E2E2E2E2E2E2E2E2E2E2E2E2E2E2E2E2E2E2E2E2E2E2E2E2E2E2E2E2E2E2E2E2E2E2E2E2E2E2E2E2E2E2E2E2E2E2E2E2E2E2E2E2E2E2E2E2E2E2E2E2E2E2E2E2E2E2E2E2E2E2E2E2E2E2E2E2E2E2E2E2E2E2E2E2E2E2E2
310
E2E2E2E2E2E2E2E2E2E2F5E2E2E2E2E2E2E2E2E2E2E2E2E2E2E2E2F5E2E2E2F5F5E2E2E2F5E2E2E2E2E2E2E2E2E2E2E2E2E2E2E2E2F5E2E2E2E2E2E2E2E2E2E2E2E2E2E2E2E2E2E2E2E2E2E2E2E2E2E2E2E2E2E2E2E2E2E2E2E2E2E2E2E2E2E2E2E2E2E2E2E2E2E2E2E2E2E2E2E2E2E2E2E2E2E2E2E2E2E2E2E2E2E2E2E2E2
310
E2E2E2E2E2E2E2E2E2E2E2E2E2E2E2E2E2E2E2E2E2E2E2E2E2E2E2E2E2E2E2E2E2E2E2E2E2E2E2E2E2E2E2E2E2E2E2E2E2E2E2E2E2E2E2E2E2E2E2E2E2E2E2F5E2E2E2E2E2E2E2E2E2E2E2E2E2E2E2E2F5E2E2E2F5F5E2E2E2F5E2E2E2E2E2E2E2E2E2E2E2E2E2E2E2E2F5E2E2E2E2E2E2E2E2E2E2E2E2E2E2E2E2E2E2E2E2
310
E2E2E2E2E2E2E2E2E2E2E2E2E2E2E2E2E2E2E2E2E2E2E2E2E2E2E2E2E2E2E2E2E2E2E2E2E2E2E2E2E2E2E2E2E2E2E2E2E2E2E2E2E2E2E2E2E2E2E2E2E2E2E2E2E2E2E2E2E2E2E2E2E2E2E2E2E2E2E2E2E2E2E2E2E2E2E2E2E2E2E2E2E2E2E2E2E2E2E2E2E2E2E2E2E2E2E2E2E2E2E2E2E2E2E2E2F5E2E2E2E2E2E2E2E2E2E2
310
E2E2E2E2E2E2F5E2E2E2F5F5E2E2E2F5E2E2E2E2E2E2E2E2E2E2E2E2E2E2E2E2F5E2E2E2E2E2E2E2E2E2E2E2E2E2E2E2E2E2E2E2E2E2E2E2E2E2E2E2E2E2E2E2E2E2E2E2E2E2E2E2E2E2E2E2E2E2E2E2E2E2E2E2E2E2E2E2E2E2E2E2E2E2E2E2E2E2E2E2E2E2E2E2E2E2E2E2E2E2E2E2E2E2E2E2E2E2E2E2E2E2E2E2E2E2E2
310
E2E2E2E2E2E2E2E2E2E2E2E2E2E2E2E2E2E2E2E2E2E2E2E2E2E2E2E2E2E2E2E2E2E2E2E2E2E2E2E2E2E2F5E2E2E2E2E2E2E2E2E2E2E2E2E2E2E2E2F5E2E2E2F5F5E2E2E2E2E2E2E2E2E2E2E2E2E2E2E2E2E2E2E2E2F5E2E2E2E2E2E2E2E2E2E2E2E2E2E2E2E2E2E2E2E2E2E2E2E2E2E2E2E2E2E2E2E2E2E2E2E2E2E2E2E2E2
310
E2E2E2E2E2E2E2E2E2E2E2E2E2E2E2E2E2E2E2E2E2E2E2E2E2E2E2E2E2E2E2E2E2E2E2E2E2E2E2E2E2E2E2E2E2E2E2E2E2E2E2E2E2E2E2E2E2E2E2E2E2E2E2E2E2E2E2E2E2E2E2E2E2E2E2E2E2E2E2E2E2E2E2E2E2E2E2E2E2E2E2E2E2E2E2F5E2E2E2E2E2E2E2E2E2E2E2E2E2E2E2E2E2E2E2E2F5F5E2E2E2E2E2E2E2E2E2
310
E2E2E2E2E2E2E2E2E2E2E2F5E2E2E2E2E2E2E2E2E2E2E2E2E2E2E2E2E2E2E2E2E2E2E2E2E2E2E2E2E2E2E2E2E2E2E2E2E2E2E2E2E2E2E2E2E2E2E2E2E2E2E2E2E2E2E2E2E2E2E2E2E2E2E2E2E2E2E2E2E2E2E2E2E2E2E2E2E2E2E2E2E2E2E2E2E2E2E2E2E2E2E2E2E2E2E2E2E2E2E2E2E2E2E2E2E2E2E2E2E2E2E2E2E2E2E2
310
E2E2E2E2E2E2E2E2E2E2E2E2E2E2E2E2E2E2E2E2E2F5E2E2E2E2E2E2E2E2E2E2E2E2E2E2E2E2E2E2E2E2F5F5E2E2E2E2E2E2E2E2E2E2E2E2E2E2E2E2E2E2E2E2F5E2E2E2E2E2E2E2E2E2E2E2E2E2E2E2E2E2E2E2E2E2E2E2E2E2E2E2E2E2E2E2E2E2E2E2E2E2E2E2E2E2E2E2E2E2E2E2E2E2E2E2E2E2E2E2E2E2E2E2E2E2E2
310
E2E2E2E2E2E2E2E2E2E2E2E2E2E2E2E2E2E2E2E2E2E2E2E2E2E2E2E2E2E2E2E2E2E2E2E2E2E2E2E2E2E2E2E2E2E2E2E2E2E2E2E2E2E2E2E2E2E2E2E2E2E2E2E2E2E2E2E2E2E2E2E2E2E2F5E2E2E2E2E2E2E2E2E2E2E2E2E2E2E2E2E2E2E2E2F5F5E2E2E2E2E2E2E2E2E2E2E2E2E2E2E2E2E2E2E2E2F5E2E2E2E2E2E2E2E2E2
310
E2E2E2E2E2E2E2E2E2E2E2E2E2E2E2E2E2E2E2E2E2E2E2E2E2E2E2E2E2E2E2E2E2E2E2E2E2E2E2E2E2E2E2E2E2E2E2E2E2E2E2E2E2E2E2E2E2E2E2E2E2E2E2E2E2E2E2E2E2E2E2E2E2E2E2E2E2E2E2E2E2E2E2E2E2E2E2E2E2E2E2E2E2E2E2E2E2E2E2E2E2E2E2E2E2E2E2E2E2E2E2E2E2E2E2E2E2E2E2E2E2E2E2E2E2E2E2
310
F5E2E2E2E2E2E2E2E2E2E2E2E2E2E2E2E2E2E2E2E2F5F5E2E2E2E2E2E2E2E2E2E2E2E2E2E2E2E2E2E2E2E2F5E2E2E2E2E2E2E2E2E2E2E2E2E2E2E2E2E2E2E2E2E2E2E2E2E2E2E2E2E2E2E2E2E2E2E2E2E2E2E2E2E2E2E2E2E2E2E2E2E2E2E2E2E2E2E2E2E2E2E2E2E2E2E2E2E2E2E2E2E2E2E2E2E2E2E2E2E2E2E2E2E2E2E2
310
E2E2E2E2E2E2E2E2E2E2E2E2E2E2E2E2E2E2E2E2E2E2E2E2E2E2E2E2E2E2E2E2E2E2E2E2E2E2E2E2E2E2E2E2E2E2E2E2E2E2E2E2E2F5E2E2E2E2E2E2E2E2E2E2E2E2E2E2E2E2E2E2E2E2F5F5E2E2E2E2E2E2E2E2E2E2E2E2E2E2E2E2E2E2E2E2F5E2E2E2E2E2E2E2E2E2E2E2E2E2E2E2E2E2E2E2E2E2E2E2E2E2E2E2E2E2E2
310
E2E2E2E2E2E2E2E2E2E2E2E2E2E2E2E2E2E2E2E2E2E2E2E2E2E2E2E2E2E2E2E2E2E2E2E2E2E2E2E2E2E2E2E2E2E2E2E2E2E2E2E2E2E2E2E2E2E2E2E2E2E2E2E2E2E2E2E2E2E2E2E2E2E2E2E2E2E2E2E2E2E2E2E2E2E2E2E2E2E2E2E2E2E2E2E2E2E2E2E2E2E2E2E2E2E2F5E2E2E2E2E2E2E2E2E2E2E2E2E2E2E2E2E2E2E2E2
310
F5F5E2E2E2E2E2E2E2E2E2E2E2E2E2E2E2E2E2E2E2E2F5E2E2E2E2E2E2E2E2E2E2E2E2E2E2E2E2E2E2E2E2E2E2E2E2E2E2E2E2E2E2E2E2E2E2E2E2E2E2E2E2E2E2E2E2E2E2E2E2E2E2E2E2E2E2E2E2E2E2E2E2E2E2E2E2E2E2E2E2E2E2E2E2E2E2E2E2E2E2E2E2E2E2E2E2E2E2E2E2E2E2E2E2E2E2E2E2E2E2E2E2E2E2E2E2
310
E2E2E2E2E2E2E2E2E2E2E2E2E2E2E2E2E2E2E2E2E2E2E2E2E2E2E2E2E2E2E2E2F5E2E2E2E2E2E2E2E2E2E2E2E2E2E2E2E2E2E2E2E2F5F5E2E2E2E2E2E2E2E2E2E2E2E2E2E2E2E2E2E2E2E2F5E2E2E2E2E2E2E2E2E2E2E2E2E2E2E2E2E2E2E2E2E2E2E2E2E2E2E2E2E2E2E2E2E2E2E2E2E2E2E2E2E2E2E2E2E2E2E2E2E2E2E2
310
E2E2E2E2E2E2E2E2E2E2E2E2E2E2E2E2E2E2E2E2E2E2E2E2E2E2E2E2E2E2E2E2E2E2E2E2E2E2E2E2E2E2E2E2E2E2E2E2E2E2E2E2E2E2E2E2E2E2E2E2E2E2E2E2E2E2E2E2E2E2E2E2E2E2E2E2E2E2E2E2E2E2E2E2E2F5E2E2E2E2E2E2E2E2E2E2E2E2E2E2E2E2E2E2E2E2F5F5E2E2E2E2E2E2E2E2E2E2E2E2E2E2E2E2E2E2E2
310
E2F5E2E2E2E2E2E2E2E2E2E2E2E2E2E2E2E2E2E2E2E2E2E2E2E2E2E2E2E2E2E2E2E2E2E2E2E2E2E2E2E2E2E2E2E2E2E2E2E2E2E2E2E2E2E2E2E2E2E2E2E2E2E2E2E2E2E2E2E2E2E2E2E2E2E2E2E2E2E2E2E2E2E2E2E2E2E2E2E2E2E2E2E2E2E2E2E2E2E2E2E2E2E2E2E2E2E2E2E2E2E2E2E2E2E2E2E2E2E2E2E2E2E2E2E2E2
310
E2E2E2E2E2E2E2E2E2E2E2F5E2E2E2E2E2E2E2E2E2E2E2E2E2E2E2E2E2E2E2E2F5F5E2E2E2E2E2E2E2E2E2E2E2E2E2E2E2E2E2E2E2E2F5E2E2E2E2E2E2E2E2E2E2E2E2E2E2E2E2E2E2E2E2E2E2E2E2E2E2E2E2E2E2E2E2E2E2E2E2E2E2E2E2E2E2E2E2E2E2E2E2E2E2E2E2E2E2E2E2E2E2E2E2E2E2E2E2E2E2E2E2E2E2E2E2
310
E2E2E2E2E2E2E2E2E2E2E2E2E2E2E2E2E2E2E2E2E2E2E2E2E2E2E2E2E2E2E2E2E2E2E2E2E2E2E2E2E2E2E2E2E2E2E2E2E2E2E2E2E2E2E2E2E2E2E2E2E2E2E2E2F5E2E2E2E2E2E2E2E2E2E2E2E2E2E2E2E2E2E2E2E2F5F5E2E2E2F5E2E2E2E2E2E2E2E2E2E2E2E2E2E2E2E2F5E2E2E2E2E2E2E2E2E2E2E2E2E2E2E2E2E2E2E2
310
E2E2E2E2E2E2E2E2E2E2E2E2E2E2E2E2E2E2E2E2E2E2E2E2E2E2E2E2E2E2E2E2E2E2E2E2E2E2E2E2E2E2E2E2E2E2E2E2E2E2E2E2E2E2E2E2E2E2E2E2E2E2E2E2E2E2E2E2E2E2E2E2E2E2E2E2E2E2E2E2E2E2E2E2E2E2E2E2E2E2E2E2E2E2E2E2E2E2E2E2E2E2E2E2E2E2E2E2E2E2E2E2E2E2E2E2E2F5E2E2E2E2E2E2E2E2E2
310
E2E2E2E2E2E2E2F5E2E2E2F5F5E2E2E2F5E2E2E2E2E2E2E2E2E2E2E2E2E2E2E2E2F5E2E2E2E2E2E2E2E2E2E2E2E2E2E2E2E2E2E2E2E2E2E2E2E2E2E2E2E2E2E2E2E2E2E2E2E2E2E2E2E2E2E2E2E2E2E2E2E2E2E2E2E2E2E2E2E2E2E2E2E2E2E2E2E2E2E2E2E2E2E2E2E2E2E2E2E2E2E2E2E2E2E2E2E2E2E2E2E2E2E2E2E2E2
310
E2E2E2E2E2E2E2E2E2E2E2E2E2E2E2E2E2E2E2E2E2E2E2E2E2E2E2E2E2E2E2E2E2E2E2E2E2E2E2E2E2E2E2F5E2E2E2E2E2E2E2E2E2E2E2E2E2E2E2E2F5E2E2E2F5F5E2E2E2F5E2E2E2E2E2E2E2E2E2E2E2E2E2E2E2E2F5E2E2E2E2E2E2E2E2E2E2E2E2E2E2E2E2E2E2E2E2E2E2E2E2E2E2E2E2E2E2E2E2E2E2E2E2E2E2E2E2
310
E2E2E2E2E2E2E2E2E2E2E2E2E2E2E2E2E2E2E2E2E2E2E2E2E2E2E2E2E2E2E2E2E2E2E2E2E2E2E2E2E2E2E2E2E2E2E2E2E2E2E2E2E2E2E2E2E2E2E2E2E2E2E2E2E2E2E2E2E2E2E2E2E2E2E2E2E2E2E2E2E2E2E2E2E2E2E2E2E2E2E2E2E2E2E2E2F5E2E2E2E2E2E2E2E2E2E2E2E2E2E2E2E2F5E2E2E2F5F5E2E2E2F5E2E2E2E2
310
E2E2E2E2E2E2E2E2E2E2E2E2F5E2E2E2E2E2E2E2E2E2E2E2E2E2E2E2E2E2E2E2E2E2E2E2E2E2E2E2E2E2E2E2E2E2E2E2E2E2E2E2E2E2E2E2E2E2E2E2E2E2E2E2E2E2E2E2E2E2E2E2E2E2E2E2E2E2E2E2E2E2E2E2E2E2E2E2E2E2E2E2E2E2E2E2E2E2E2E2E2E2E2E2E2E2E2E2E2E2E2E2E2E2E2E2E2E2E2E2E2E2E2E2E2E2E2
310
E2E2E2E2E2E2E2E2E2E2E2E2E2E2E2E2E2E2E2E2E2E2F5E2E2E2E2E2E2E2E2E2E2E2E2E2E2E2E2F5E2E2E2F5F5E2E2E2F5E2E2E2E2E2E2E2E2E2E2E2E2E2E2E2E2F5E2E2E2E2E2E2E2E2E2E2E2E2E2E2E2E2E2E2E2E2E2E2E2E2E2E2E2E2E2E2E2E2E2E2E2E2E2E2E2E2E2E2E2E2E2E2E2E2E2E2E2E2E2E2E2E2E2E2E2E2E2
310
E2E2E2E2E2E2E2E2E2E2E2E2E2E2E2E2E2E2E2E2E2E2E2E2E2E2E2E2E2E2E2E2E2E2E2E2E2E2E2E2E2E2E2E2E2E2E2E2E2E2E2E2E2E2E2E2E2E2E2E2E2E2E2E2E2E2E2E2E2E2E2E2E2E2E2F5E2E2E2E2E2E2E2E2E2E2E2E2E2E2E2E2F5E2E2E2F5F5E2E2E2F5E2E2E2E2E2E2E2E2E2E2E2E2E2E2E2E2F5E2E2E2E2E2E2E2E2
310
E2E2E2E2E2E2E2E2E2E2E2E2E2E2E2E2E2E2E2E2E2E2E2E2E2E2E2E2E2E2E2E2E2E2E2E2E2E2E2E2E2E2E2E2E2E2E2E2E2E2E2E2E2E2E2E2E2E2E2E2E2E2E2E2E2E2E2E2E2E2E2E2E2E2E2E2E2E2E2E2E2E2E2E2E2E2E2E2E2E2E2E2E2E2E2E2E2E2E2E2E2E2E2E2E2E2E2E2E2E2E2E2E2E2E2E2E2E2E2E2E2E2E2E2E2E2E2
310
E2F5E2E2E2E2E2E2E2E2E2E2E2E2E2E2E2E2F5E2E2E2F5F5E2E2E2F5E2E2E2E2E2E2E2E2E2E2E2E2E2E2E2E2F5E2E2E2E2E2E2E2E2E2E2E2E2E2E2E2E2E2E2E2E2E2E2E2E2E2E2E2E2E2E2E2E2E2E2E2E2E2E2E2E2E2E2E2E2E2E2E2E2E2E2E2E2E2E2E2E2E2E2E2E2E2E2E2E2E2E2E2E2E2E2E2E2E2E2E2E2E2E2E2E2E2E2
310
E2E2E2E2E2E2E2E2E2E2E2E2E2E2E2E2E2E2E2E2E2E2E2E2E2E2E2E2E2E2E2E2E2E2E2E2E2E2E2E2E2E2E2E2E2E2E2E2E2E2E2E2E2E2F5E2E2E2E2E2E2E2E2E2E2E2E2E2E2E2E2F5E2E2E2F5F5E2E2E2F5E2E2E2E2E2E2E2E2E2E2E2E2E2E2E2E2F5E2E2E2E2E2E2E2E2E2E2E2E2E2E2E2E2E2E2E2E2E2E2E2E2E2E2E2E2E2
310
E2E2E2E2E2E2E2E2E2E2E2E2E2E2E2E2E2E2E2E2E2E2E2E2E2E2E2E2E2E2E2E2E2E2E2E2E2E2E2E2E2E2E2E2E2E2E2E2E2E2E2E2E2E2E2E2E2E2E2E2E2E2E2E2E2E2E2E2E2E2E2E2E2E2E2E2E2E2E2E2E2E2E2E2E2E2E2E2E2E2E2E2E2E2E2E2E2E2E2E2E2E2E2E2E2E2E2F5E2E2E2E2E2E2E2E2E2E2E2E2E2E2E2E2F5E2E2
310
E2F5F5E2E2E2F5E2E2E2E2E2E2E2E2E2E2E2E2E2E2E2E2F5E2E2E2E2E2E2E2E2E2E2E2E2E2E2E2E2E2E2E2E2E2E2E2E2E2E2E2E2E2E2E2E2E2E2E2E2E2E2E2E2E2E2E2E2E2E2E2E2E2E2E2E2E2E2E2E2E2E2E2E2E2E2E2E2E2E2E2E2E2E2E2E2E2E2E2E2E2E2E2E2E2E2E2E2E2E2E2E2E2E2E2E2E2E2E2E2E2E2E2E2E2E2E2
310
E2E2E2E2E2E2E2E2E2E2E2E2E2E2E2E2E2E2E2E2E2E2E2E2E2E2E2E2E2E2E2E2E2F5E2E2E2E2E2E2E2E2E2E2E2E2E2E2E2E2F5E2E2E2F5F5E2E2E2F5E2E2E2E2E2E2E2E2E2E2E2E2E2E2E2E2F5E2E2E2E2E2E2E2E2E2E2E2E2E2E2E2E2E2E2E2E2E2E2E2E2E2E2E2E2E2E2E2E2E2E2E2E2E2E2E2E2E2E2E2E2E2E2E2E2E2E2
310
E2E2E2E2E2E2E2E2E2E2E2E2E2E2E2E2E2E2E2E2E2E2E2E2E2E2E2E2E2E2E2E2E2E2E2E2E2E2E2E2E2E2E2E2E2E2E2E2E2E2E2E2E2E2E2E2E2E2E2E2E2E2E2E2E2E2E2E2E2E2E2E2E2E2E2E2E2E2E2E2E2E2E2E2E2E2F5E2E2E2E2E2E2E2E2E2E2E2E2E2E2E2E2F5E2E2E2F5F5E2E2E2F5E2E2E2E2E2E2E2E2E2E2E2E2E2E2
310
E2E2F5E2E2E2E2E2E2E2E2E2E2E2E2E2E2E2E2E2E2E2E2E2E2E2E2E2E2E2E2E2E2E2E2E2E2E2E2E2E2E2E2E2E2E2E2E2E2E2E2E2E2E2E2E2E2E2E2E2E2E2E2E2E2E2E2E2E2E2E2E2E2E2E2E2E2E2E2E2E2E2E2E2E2E2E2E2E2E2E2E2E2E2E2E2E2E2E2E2E2E2E2E2E2E2E2E2E2E2E2E2E2E2E2E2E2E2E2E2E2E2E2E2E2E2E2
310
E2E2E2E2E2E2E2E2E2E2E2E2F5E2E2E2E2E2E2E2E2E2E2E2E2E2E2E2E2F5E2E2E2F5F5E2E2E2F5E2E2E2E2E2E2E2E2E2E2E2E2E2E2E2E2F5E2E2E2E2E2E2E2E2E2E2E2E2E2E2E2E2E2E2E2E2E2E2E2E2E2E2E2E2E2E2E2E2E2E2E2E2E2E2E2E2E2E2E2E2E2E2E2E2E2E2E2E2E2E2E2E2E2E2E2E2E2E2E2E2E2E2E2E2E2E2E2
310
E2E2E2E2E2E2E2E2E2E2E2E2E2E2E2E2E2E2E2E2E2E2E2E2E2E2E2E2E2E2E2E2E2E2E2E2E2E2E2E2E2E2E2E2E2E2E2E2E2E2E2E2E2E2E2E2E2E2E2E2E2E2E2E2E2F5E2E2E2E2E2E2E2E2E2E2E2E2E2E2E2E2F5E2E2E2F5F5E2E2E2F5E2E2E2E2E2E2E2E2E2E2E2E2E2E2E2E2F5E2E2E2E2E2E2E2E2E2E2E2E2E2E2E2E2E2E2
310
E2E2E2E2E2E2E2E2E2E2E2E2E2E2E2E2E2E2E2E2E2E2E2E2E2E2E2E2E2E2E2E2E2E2E2E2E2E2E2E2E2E2E2E2E2E2E2E2E2E2E2E2E2E2E2E2E2E2E2E2E2E2E2E2E2E2E2E2E2E2E2E2E2E2E2E2E2E2E2E2E2E2E2E2E2E2E2E2E2E2E2E2E2E2E2E2E2E2E2E2E2E2E2E2E2E2E2E2E2E2E2E2E2E2E2E2E2E2F5E2E2E2E2E2E2E2E2
310
E2E2E2E2E2E2E2E2F5E2E2E2F5F5E2E2E2F5E2E2E2E2E2E2E2E2E2E2E2E2E2E2E2E2F5E2E2E2E2E2E2E2E2E2E2E2E2E2E2E2E2E2E2E2E2E2E2E2E2E2E2E2E2E2E2E2E2E2E2E2E2E2E2E2E2E2E2E2E2E2E2E2E2E2E2E2E2E2E2E2E2E2E2E2E2E2E2E2E2E2E2E2E2E2E2E2E2E2E2E2E2E2E2E2E2E2E2E2E2E2E2E2E2E2E2E2E2
310
E2E2E2E2E2E2E2E2E2E2E2E2E2E2E2E2E2E2E2E2E2E2E2E2E2E2E2E2E2E2E2E2E2E2E2E2E2E2E2E2E2E2E2E2F5E2E2E2E2E2E2E2E2E2E2E2E2E2E2E2E2F5E2E2E2F5F5E2E2E2F5E2E2E2E2E2E2E2E2E2E2E2E2E2E2E2E2F5E2E2E2E2E2E2E2E2E2E2E2E2E2E2E2E2E2E2E2E2E2E2E2E2E2E2E2E2E2E2E2E2E2E2E2E2E2E2E2
310
E2E2E2E2E2E2E2E2E2E2E2E2E2E2E2E2E2E2E2E2E2E2E2E2E2E2E2E2E2E2E2E2E2E2E2E2E2E2E2E2E2E2E2E2E2E2E2E2E2E2E2E2E2E2E2E2E2E2E2E2E2E2E2E2E2E2E2E2E2E2E2E2E2E2E2E2E2E2E2E2E2E2E2E2E2E2E2E2E2E2E2E2E2E2E2E2E2F5E2E2E2E2E2E2E2E2E2E2E2E2E2E2E2E2F5E2E2E2F5F5E2E2E2F5E2E2E2
310
E2E2E2E2E2E2E2E2E2E2E2E2E2F5E2E2E2E2E2E2E2E2E2E2E2E2E2E2E2E2E2E2E2E2E2E2E2E2E2E2E2E2E2E2E2E2E2E2E2E2E2E2E2E2E2E2E2E2E2E2E2E2E2E2E2E2E2E2E2E2E2E2E2E2E2E2E2E2E2E2E2E2E2E2E2E2E2E2E2E2E2E2E2E2E2E2E2E2E2E2E2E2E2E2E2E2E2E2E2E2E2E2E2E2E2E2E2E2E2E2E2E2E2E2E2E2E2
310
E2E2E2E2E2E2E2E2E2E2E2E2E2E2E2E2E2E2E2E2E2E2E2F5E2E2E2E2E2E2E2E2E2E2E2E2E2E2E2E2F5E2E2E2F5F5E2E2E2E2E2E2E2E2E2E2E2E2E2E2E2E2E2E2E2E2F5E2E2E2E2E2E2E2E2E2E2E2E2E2E2E2E2E2E2E2E2E2E2E2E2E2E2E2E2E2E2E2E2E2E2E2E2E2E2E2E2E2E2E2E2E2E2E2E2E2E2E2E2E2E2E2E2E2E2E2E2
310
E2E2E2E2E2E2E2E2E2E2E2E2E2E2E2E2E2E2E2E2E2E2E2E2E2E2E2E2E2E2E2E2E2E2E2E2E2E2E2E2E2E2E2E2E2E2E2E2E2E2E2E2E2E2E2E2E2E2E2E2E2E2E2E2E2E2E2E2E2E2E2E2E2E2E2E2F5E2E2E2E2E2E2E2E2E2E2E2E2E2E2E2E2E2E2E2E2F5F5E2E2E2E2E2E2E2E2E2E2E2E2E2E2E2E2E2E2E2E2F5E2E2E2E2E2E2E2
310
E2E2E2E2E2E2E2E2E2E2E2E2E2E2E2E2E2E2E2E2E2E2E2E2E2E2E2E2E2E2E2E2E2E2E2E2E2E2E2E2E2E2E2E2E2E2E2E2E2E2E2E2E2E2E2E2E2E2E2E2E2E2E2E2E2E2E2E2E2E2E2E2E2E2E2E2E2E2E2E2E2E2E2E2E2E2E2E2E2E2E2E2E2E2E2E2E2E2E2E2E2E2E2E2E2E2E2E2E2E2E2E2E2E2E2E2E2E2E2E2E2E2E2E2E2E2E2
310
E2E2F5E2E2E2E2E2E2E2E2E2E2E2E2E2E2E2E2E2E2E2E2F5F5E2E2E2E2E2E2E2E2E2E2E2E2E2E2E2E2E2E2E2E2F5E2E2E2E2E2E2E2E2E2E2E2E2E2E2E2E2E2E2E2E2E2E2E2E2E2E2E2E2E2E2E2E2E2E2E2E2E2E2E2E2E2E2E2E2E2E2E2E2E2E2E2E2E2E2E2E2E2E2E2E2E2E2E2E2E2E2E2E2E2E2E2E2E2E2E2E2E2E2E2E2E2
310
E2E2E2E2E2E2E2E2E2E2E2E2E2E2E2E2E2E2E2E2E2E2E2E2E2E2E2E2E2E2E2E2E2E2E2E2E2E2E2E2E2E2E2E2E2E2E2E2E2E2E2E2E2E2E2F5E2E2E2E2E2E2E2E2E2E2E2E2E2E2E2E2E2E2E2E2F5F5E2E2E2E2E2E2E2E2E2E2E2E2E2E2E2E2E2E2E2E2F5E2E2E2E2E2E2E2E2E2E2E2E2E2E2E2E2E2E2E2E2E2E2E2E2E2E2E2E2
310
E2E2E2E2E2E2E2E2E2E2E2E2E2E2E2E2E2E2E2E2E2E2E2E2E2E2E2E2E2E2E2E2E2E2E2E2E2E2E2E2E2E2E2E2E2E2E2E2E2E2E2E2E2E2E2E2E2E2E2E2E2E2E2E2E2E2E2E2E2E2E2E2E2E2E2E2E2E2E2E2E2E2E2E2E2E2E2E2E2E2E2E2E2E2E2E2E2E2E2E2E2E2E2E2E2E2E2E2F5E2E2E2E2E2E2E2E2E2E2E2E2E2E2E2E2E2E2
310
E2E2F5F5E2E2E2E2E2E2E2E2E2E2E2E2E2E2E2E2E2E2E2E2F5E2E2E2E2E2E2E2E2E2E2E2E2E2E2E2E2E2E2E2E2E2E2E2E2E2E2E2E2E2E2E2E2E2E2E2E2E2E2E2E2E2E2E2E2E2E2E2E2E2E2E2E2E2E2E2E2E2E2E2E2E2E2E2E2E2E2E2E2E2E2E2E2E2E2E2E2E2E2E2E2E2E2E2E2E2E2E2E2E2E2E2E2E2E2E2E2E2E2E2E2E2E2
310
E2E2E2E2E2E2E2E2E2E2E2E2E2E2E2E2E2E2E2E2E2E2E2E2E2E2E2E2E2E2E2E2E2E2F5E2E2E2E2E2E2E2E2E2E2E2E2E2E2E2E2E2E2E2E2F5F5E2E2E2E2E2E2E2E2E2E2E2E2E2E2E2E2E2E2E2E2F5E2E2E2E2E2E2E2E2E2E2E2E2E2E2E2E2E2E2E2E2E2E2E2E2E2E2E2E2E2E2E2E2E2E2E2E2E2E2E2E2E2E2E2E2E2E2E2E2E2
310
E2E2E2E2E2E2E2E2E2E2E2E2E2E2E2E2E2E2E2E2E2E2E2E2E2E2E2E2E2E2E2E2E2E2E2E2E2E2E2E2E2E2E2E2E2E2E2E2E2E2E2E2E2E2E2E2E2E2E2E2E2E2E2E2E2E2E2E2E2E2E2E2E2E2E2E2E2E2E2E2E2E2E2E2E2E2E2F5E2E2E2E2E2E2E2E2E2E2E2E2E2E2E2E2E2E2E2E2F5F5E2E2E2E2E2E2E2E2E2E2E2E2E2E2E2E2E2
310
E2E2E2F5E2E2E2E2E2E2E2E2E2E2E2E2E2E2E2E2E2E2E2E2E2E2E2E2E2E2E2E2E2E2E2E2E2E2E2E2E2E2E2E2E2E2E2E2E2E2E2E2E2E2E2E2E2E2E2E2E2E2E2E2E2E2E2E2E2E2E2E2E2E2E2E2E2E2E2E2E2E2E2E2E2E2E2E2E2E2E2E2E2E2E2E2E2E2E2E2E2E2E2E2E2E2E2E2E2E2E2E2E2E2E2E2E2E2E2E2E2E2E2E2E2E2E2
310
E2E2E2E2E2E2E2E2E2E2E2E2E2F5E2E2E2E2E2E2E2E2E2E2E2E2E2E2E2E2E2E2E2E2F5F5E2E2E2E2E2E2E2E2E2E2E2E2E2E2E2E2E2E2E2E2F5E2E2E2E2E2E2E2E2E2E2E2E2E2E2E2E2E2E2E2E2E2E2E2E2E2E2E2E2E2E2E2E2E2E2E2E2E2E2E2E2E2E2E2E2E2E2E2E2E2E2E2E2E2E2E2E2E2E2E2E2E2E2E2E2E2E2E2E2E2E2
310
E2E2E2E2E2E2E2E2E2E2E2E2E2E2E2E2E2E2E2E2E2E2E2E2E2E2E2E2E2E2E2E2E2E2E2E2E2E2E2E2E2E2E2E2E2E2E2E2E2E2E2E2E2E2E2E2E2E2E2E2E2E2E2E2E2E2F5E2E2E2E2E2E2E2E2E2E2E2E2E2E2E2E2E2E2E2E2F5F5E2E2E2E2E2E2E2E2E2E2E2E2E2E2E2E2E2E2E2E2F5E2E2E2E2E2E2E2E2E2E2E2E2E2E2E2E2E2
310
E2E2E2E2E2E2E2E2E2E2E2E2E2E2E2E2E2E2E2E2E2E2E2E2E2E2E2E2E2E2E2E2E2E2E2E2E2E2E2E2E2E2E2E2E2E2E2E2E2E2E2E2E2E2E2E2E2E2E2E2E2E2E2E2E2E2E2E2E2E2E2E2E2E2E2E2E2E2E2E2E2E2E2E2E2E2E2E2E2E2E2E2E2E2E2E2E2E2E2E2E2E2E2E2E2E2E2E2E2E2E2E2E2E2E2E2E2E2E2F5E2E2E2E2E2E2E2
310
E2E2E2E2E2E2E2E2E2E2E2E2E2F5F5E2E2E2F5E2E2E2E2E2E2E2E2E2E2E2E2E2E2E2E2F5E2E2E2E2E2E2E2E2E2E2E2E2E2E2E2E2E2E2E2E2E2E2E2E2E2E2E2E2E2E2E2E2E2E2E2E2E2E2E2E2E2E2E2E2E2E2E2E2E2E2E2E2E2E2E2E2E2E2E2E2E2E2E2E2E2E2E2E2E2E2E2E2E2E2E2E2E2E2E2E2E2E2E2E2E2E2E2E2E2E2E2
310
E2E2E2E2E2E2E2E2E2E2E2E2E2E2E2E2E2E2E2E2E2E2E2E2E2E2E2E2E2E2E2E2E2E2E2E2E2E2E2E2E2E2E2E2E2F5E2E2E2E2E2E2E2E2E2E2E2E2E2E2E2E2F5E2E2E2F5F5E2E2E2F5E2E2E2E2E2E2E2E2E2E2E2E2E2E2E2E2F5E2E2E2E2E2E2E2E2E2E2E2E2E2E2E2E2E2E2E2E2E2E2E2E2E2E2E2E2E2E2E2E2E2E2E2E2E2E2
310
E2E2E2E2E2E2E2E2E2E2E2E2E2E2E2E2E2E2E2E2E2E2E2E2E2E2E2E2E2E2E2E2E2E2E2E2E2E2E2E2E2E2E2E2E2E2E2E2E2E2E2E2E2E2E2E2E2E2E2E2E2E2E2E2E2E2E2E2E2E2E2E2E2E2E2E2E2E2E2E2E2E2E2E2E2E2E2E2E2E2E2E2E2E2E2E2E2E2F5E2E2E2E2E2E2E2E2E2E2E2E2E2E2E2E2F5E2E2E2F5F5E2E2E2F5E2E2
310
E2E2E2E2E2E2E2E2E2E2E2E2E2E2F5E2E2E2E2E2E2E2E2E2E2E2E2E2E2E2E2E2E2E2E2E2E2E2E2E2E2E2E2E2E2E2E2E2E2E2E2E2E2E2E2E2E2E2E2E2E2E2E2E2E2E2E2E2E2E2E2E2E2E2E2E2E2E2E2E2E2E2E2E2E2E2E2E2E2E2E2E2E2E2E2E2E2E2E2E2E2E2E2E2E2E2E2E2E2E2E2E2E2E2E2E2E2E2E2E2E2E2E2E2E2E2E2
310
E2E2E2E2E2E2E2E2E2E2E2E2E2E2E2E2E2E2E2E2E2E2E2E2F5E2E2E2E2E2E2E2E2E2E2E2E2E2E2E2E2F5E2E2E2F5F5E2E2E2F5E2E2E2E2E2E2E2E2E2E2E2E2E2E2E2E2F5E2E2E2E2E2E2E2E2E2E2E2E2E2E2E2E2E2E2E2E2E2E2E2E2E2E2E2E2E2E2E2E2E2E2E2E2E2E2E2E2E2E2E2E2E2E2E2E2E2E2E2E2E2E2E2E2E2E2E2
310
E2E2E2E2E2E2E2E2E2E2E2E2E2E2E2E2E2E2E2E2E2E2E2E2E2E2E2E2E2E2E2E2E2E2E2E2E2E2E2E2E2E2E2E2E2E2E2E2E2E2E2E2E2E2E2E2E2E2E2E2E2E2E2E2E2E2E2E2E2E2E2E2E2E2E2E2E2F5E2E2E2E2E2E2E2E2E2E2E2E2E2E2E2E2F5E2E2E2F5F5E2E2E2F5E2E2E2E2E2E2E2E2E2E2E2E2E2E2E2E2F5E2E2E2E2E2E2
310
E2E2E2E2E2E2E2E2E2E2E2E2E2E2E2E2E2E2E2E2E2E2E2E2E2E2E2E2E2E2E2E2E2E2E2E2E2E2E2E2E2E2E2E2E2E2E2E2E2E2E2E2E2E2E2E2E2E2E2E2E2E2E2E2E2E2E2E2E2E2E2E2E2E2E2E2E2E2E2E2E2E2E2E2E2E2E2E2E2E2E2E2E2E2E2E2E2E2E2E2E2E2E2E2E2E2E2E2E2E2E2E2E2E2E2E2E2E2E2E2E2E2E2E2E2E2E2
310
E2E2E2F5E2E2E2E2E2E2E2E2E2E2E2E2E2E2E2E2F5E2E2E2F5F5E2E2E2F5E2E2E2E2E2E2E2E2E2E2E2E2E2E2E2E2F5E2E2E2E2E2E2E2E2E2E2E2E2E2E2E2E2E2E2E2E2E2E2E2E2E2E2E2E2E2E2E2E2E2E2E2E2E2E2E2E2E2E2E2E2E2E2E2E2E2E2E2E2E2E2E2E2E2E2E2E2E2E2E2E2E2E2E2E2E2E2E2E2E2E2E2E2E2E2E2E2
310
E2E2E2E2E2E2E2E2E2E2E2E2E2E2E2E2E2E2E2E2E2E2E2E2E2E2E2E2E2E2E2E2E2E2E2E2E2E2E2E2E2E2E2E2E2E2E2E2E2E2E2E2E2E2E2E2F5E2E2E2E2E2E2E2E2E2E2E2E2E2E2E2E2F5E2E2E2F5F5E2E2E2F5E2E2E2E2E2E2E2E2E2E2E2E2E2E2E2E2F5E2E2E2E2E2E2E2E2E2E2E2E2E2E2E2E2E2E2E2E2E2E2E2E2E2E2E2
310
E2E2E2E2E2E2E2E2E2E2E2E2E2E2E2E2E2E2E2E2E2E2E2E2E2E2E2E2E2E2E2E2E2E2E2E2E2E2E2E2E2E2E2E2E2E2E2E2E2E2E2E2E2E2E2E2E2E2E2E2E2E2E2E2E2E2E2E2E2E2E2E2E2E2E2E2E2E2E2E2E2E2E2E2E2E2E2E2E2E2E2E2E2E2E2E2E2E2E2E2E2E2E2E2E2E2E2E2E2F5E2E2E2E2E2E2E2E2E2E2E2E2E2E2E2E2F5
310
E2E2E2F5F5E2E2E2F5E2E2E2E2E2E2E2E2E2E2E2E2E2E2E2E2F5E2E2E2E2E2E2E2E2E2E2E2E2E2E2E2E2E2E2E2E2E2E2E2E2E2E2E2E2E2E2E2E2E2E2E2E2E2E2E2E2E2E2E2E2E2E2E2E2E2E2E2E2E2E2E2E2E2E2E2E2E2E2E2E2E2E2E2E2E2E2E2E2E2E2E2E2E2E2E2E2E2E2E2E2E2E2E2E2E2E2E2E2E2E2E2E2E2E2E2E2E2
310
E2E2E2E2E2E2E2E2E2E2E2E2E2E2E2E2E2E2E2E2E2E2E2E2E2E2E2E2E2E2E2E2E2E2E2F5E2E2E2E2E2E2E2E2E2E2E2E2E2E2E2E2F5E2E2E2F5F5E2E2E2F5E2E2E2E2E2E2E2E2E2E2E2E2E2E2E2E2F5E2E2E2E2E2E2E2E2E2E2E2E2E2E2E2E2E2E2E2E2E2E2E2E2E2E2E2E2E2E2E2E2E2E2E2E2E2E2E2E2E2E2E2E2E2E2E2E2
310
E2E2E2E2E2E2E2E2E2E2E2E2E2E2E2E2E2E2E2E2E2E2E2E2E2E2E2E2E2E2E2E2E2E2E2E2E2E2E2E2E2E2E2E2E2E2E2E2E2E2E2E2E2E2E2E2E2E2E2E2E2E2E2E2E2E2E2E2E2E2E2E2E2E2E2E2E2E2E2E2E2E2E2E2E2E2E2E2F5E2E2E2E2E2E2E2E2E2E2E2E2E2E2E2E2F5E2E2E2F5F5E2E2E2F5E2E2E2E2E2E2E2E2E2E2E2E2
310
E2E2E2E2F5E2E2E2E2E2E2E2E2E2E2E2E2E2E2E2E2E2E2E2E2E2E2E2E2E2E2E2E2E2E2E2E2E2E2E2E2E2E2E2E2E2E2E2E2E2E2E2E2E2E2E2E2E2E2E2E2E2E2E2E2E2E2E2E2E2E2E2E2E2E2E2E2E2E2E2E2E2E2E2E2E2E2E2E2E2E2E2E2E2E2E2E2E2E2E2E2E2E2E2E2E2E2E2E2E2E2E2E2E2E2E2E2E2E2E2E2E2E2E2E2E2E2
310
E2E2E2E2E2E2E2E2E2E2E2E2E2E2F5E2E2E2E2E2E2E2E2E2E2E2E2E2E2E2E2F5E2E2E2F5F5E2E2E2F5E2E2E2E2E2E2E2E2E2E2E2E2E2E2E2E2F5E2E2E2E2E2E2E2E2E2E2E2E2E2E2E2E2E2E2E2E2E2E2E2E2E2E2E2E2E2E2E2E2E2E2E2E2E2E2E2E2E2E2E2E2E2E2E2E2E2E2E2E2E2E2E2E2E2E2E2E2E2E2E2E2E2E2E2E2E2
310
E2E2E2E2E2E2E2E2E2E2E2E2E2E2E2E2E2E2E2E2E2E2E2E2E2E2E2E2E2E2E2E2E2E2E2E2E2E2E2E2E2E2E2E2E2E2E2E2E2E2E2E2E2E2E2E2E2E2E2E2E2E2E2E2E2E2E2F5E2E2E2E2E2E2E2E2E2E2E2E2E2E2E2E2F5E2E2E2F5F5E2E2E2F5E2E2E2E2E2E2E2E2E2E2E2E2E2E2E2E2F5E2E2E2E2E2E2E2E2E2E2E2E2E2E2E2E2
310
E2E2E2E2E2E2E2E2E2E2E2E2E2E2E2E2E2E2E2E2E2E2E2E2E2E2E2E2E2E2E2E2E2E2E2E2E2E2E2E2E2E2E2E2E2E2E2E2E2E2E2E2E2E2E2E2E2E2E2E2E2E2E2E2E2E2E2E2E2E2E2E2E2E2E2E2E2E2E2E2E2E2E2E2E2E2E2E2E2E2E2E2E2E2E2E2E2E2E2E2E2E2E2E2E2E2E2E2E2E2E2E2E2E2E2E2E2E2E2E2F5E2E2E2E2E2E2
310
E2E2E2E2E2E2E2E2E2E2F5E2E2E2F5F5E2E2E2F5E2E2E2E2E2E2E2E2E2E2E2E2E2E2E2E2F5E2E2E2E2E2E2E2E2E2E2E2E2E2E2E2E2E2E2E2E2E2E2E2E2E2E2E2E2E2E2E2E2E2E2E2E2E2E2E2E2E2E2E2E2E2E2E2E2E2E2E2E2E2E2E2E2E2E2E2E2E2E2E2E2E2E2E2E2E2E2E2E2E2E2E2E2E2E2E2E2E2E2E2E2E2E2E2E2E2E2
310
E2E2E2E2E2E2E2E2E2E2E2E2E2E2E2E2E2E2E2E2E2E2E2E2E2E2E2E2E2E2E2E2E2E2E2E2E2E2E2E2E2E2E2E2E2E2F5E2E2E2E2E2E2E2E2E2E2E2E2E2E2E2E2F5E2E2E2F5F5E2E2E2F5E2E2E2E2E2E2E2E2E2E2E2E2E2E2E2E2F5E2E2E2E2E2E2E2E2E2E2E2E2E2E2E2E2E2E2E2E2E2E2E2E2E2E2E2E2E2E2E2E2E2E2E2E2E2
310
E2E2E2E2E2E2E2E2E2E2E2E2E2E2E2E2E2E2E2E2E2E2E2E2E2E2E2E2E2E2E2E2E2E2E2E2E2E2E2E2E2E2E2E2E2E2E2E2E2E2E2E2E2E2E2E2E2E2E2E2E2E2E2E2E2E2E2E2E2E2E2E2E2E2E2E2E2E2E2E2E2E2E2E2E2E2E2E2E2E2E2E2E2E2E2E2E2E2E2F5E2E2E2E2E2E2E2E2E2E2E2E2E2E2E2E2F5E2E2E2F5F5E2E2E2F5E2
310
E2E2E2E2E2E2E2E2E2E2E2E2E2E2E2F5E2E2E2E2E2E2E2E2E2E2E2E2E2E2E2E2E2E2E2E2E2E2E2E2E2E2E2E2E2E2E2E2E2E2E2E2E2E2E2E2E2E2E2E2E2E2E2E2E2E2E2E2E2E2E2E2E2E2E2E2E2E2E2E2E2E2E2E2E2E2E2E2E2E2E2E2E2E2E2E2E2E2E2E2E2E2E2E2E2E2E2E2E2E2E2E2E2E2E2E2E2E2E2E2E2E2E2E2E2E2E2
310
E2E2E2E2E2E2E2E2E2E2E2E2E2E2E2E2E2E2E2E2E2E2E2E2E2F5E2E2E2E2E2E2E2E2E2E2E2E2E2E2E2E2F5E2E2E2F5F5E2E2E2F5E2E2E2E2E2E2E2E2E2E2E2E2E2E2E2E2F5E2E2E2E2E2E2E2E2E2E2E2E2E2E2E2E2E2E2E2E2E2E2E2E2E2E2E2E2E2E2E2E2E2E2E2E2E2E2E2E2E2E2E2E2E2E2E2E2E2E2E2E2E2E2E2E2E2E2
310
E2E2E2E2E2E2E2E2E2E2E2E2E2E2E2E2E2E2E2E2E2E2E2E2E2E2E2E2E2E2E2E2E2E2E2E2E2E2E2E2E2E2E2E2E2E2E2E2E2E2E2E2E2E2E2E2E2E2E2E2E2E2E2E2E2E2E2E2E2E2E2E2E2E2E2E2E2E2F5E2E2E2E2E2E2E2E2E2E2E2E2E2E2E2E2F5E2E2E2F5F5E2E2E2F5E2E2E2E2E2E2E2E2E2E2E2E2E2E2E2E2F5E2E2E2E2E2
310
E2E2E2E2E2E2E2E2E2E2E2E2E2E2E2E2E2E2E2E2E2E2E2E2E2E2E2E2E2E2E2E2E2E2E2E2E2E2E2E2E2E2E2E2E2E2E2E2E2E2E2E2E2E2E2E2E2E2E2E2E2E2E2E2E2E2E2E2E2E2E2E2E2E2E2E2E2E2E2E2E2E2E2E2E2E2E2E2E2E2E2E2E2E2E2E2E2E2E2E2E2E2E2E2E2E2E2E2E2E2E2E2E2E2E2E2E2E2E2E2E2E2E2E2E2E2E2
310
E2E2E2E2F5E2E2E2E2E2E2E2E2E2E2E2E2E2E2E2E2F5E2E2E2F5F5E2E2E2E2E2E2E2E2E2E2E2E2E2E2E2E2E2E2E2E2F5E2E2E2E2E2E2E2E2E2E2E2E2E2E2E2E2E2E2E2E2E2E2E2E2E2E2E2E2E2E2E2E2E2E2E2E2E2E2E2E2E2E2E2E2E2E2E2E2E2E2E2E2E2E2E2E2E2E2E2E2E2E2E2E2E2E2E2E2E2E2E2E2E2E2E2E2E2E2E2
310
E2E2E2E2E2E2E2E2E2E2E2E2E2E2E2E2E2E2E2E2E2E2E2E2E2E2E2E2E2E2E2E2E2E2E2E2E2E2E2E2E2E2E2E2E2E2E2E2E2E2E2E2E2E2E2E2E2F5E2E2E2E2E2E2E2E2E2E2E2E2E2E2E2E2E2E2E2E2F5F5E2E2E2E2E2E2E2E2E2E2E2E2E2E2E2E2E2E2E2E2F5E2E2E2E2E2E2E2E2E2E2E2E2E2E2E2E2E2E2E2E2E2E2E2E2E2E2
310
E2E2E2E2E2E2E2E2E2E2E2E2E2E2E2E2E2E2E2E2E2E2E2E2E2E2E2E2E2E2E2E2E2E2E2E2E2E2E2E2E2E2E2E2E2E2E2E2E2E2E2E2E2E2E2E2E2E2E2E2E2E2E2E2E2E2E2E2E2E2E2E2E2E2E2E2E2E2E2E2E2E2E2E2E2E2E2E2E2E2E2E2E2E2E2E2E2E2E2E2E2E2E2E2E2E2E2E2E2E2F5E2E2E2E2E2E2E2E2E2E2E2E2E2E2E2E2
310
E2E2E2E2F5F5E2E2E2E2E2E2E2E2E2E2E2E2E2E2E2E2E2E2E2E2F5E2E2E2E2E2E2E2E2E2E2E2E2E2E2E2E2E2E2E2E2E2E2E2E2E2E2E2E2E2E2E2E2E2E2E2E2E2E2E2E2E2E2E2E2E2E2E2E2E2E2E2E2E2E2E2E2E2E2E2E2E2E2E2E2E2E2E2E2E2E2E2E2E2E2E2E2E2E2E2E2E2E2E2E2E2E2E2E2E2E2E2E2E2E2E2E2E2E2E2E2
310
E2E2E2E2E2E2E2E2E2E2E2E2E2E2E2E2E2E2E2E2E2E2E2E2E2E2E2E2E2E2E2E2E2E2E2E2F5E2E2E2E2E2E2E2E2E2E2E2E2E2E2E2E2E2E2E2E2F5F5E2E2E2E2E2E2E2E2E2E2E2E2E2E2E2E2E2E2E2E2F5E2E2E2E2E2E2E2E2E2E2E2E2E2E2E2E2E2E2E2E2E2E2E2E2E2E2E2E2E2E2E2E2E2E2E2E2E2E2E2E2E2E2E2E2E2E2E2
310
E2E2E2E2E2E2E2E2E2E2E2E2E2E2E2E2E2E2E2E2E2E2E2E2E2E2E2E2E2E2E2E2E2E2E2E2E2E2E2E2E2E2E2E2E2E2E2E2E2E2E2E2E2E2E2E2E2E2E2E2E2E2E2E2E2E2E2E2E2E2E2E2E2E2E2E2E2E2E2E2E2E2E2E2E2E2E2E2E2F5E2E2E2E2E2E2E2E2E2E2E2E2E2E2E2E2E2E2E2E2F5F5E2E2E2E2E2E2E2E2E2E2E2E2E2E2E2
310
E2E2E2E2E2F5F5F5F5F5F5F5F5F5F5F5F5F5F5F5F5F5F5F5F5F5F5F5F5F5F5F5F5F5F5F5F5F5F5F5F5F5F5F5F5F5F5F5F5F5F5F5F5F5F5F5F5F5F5F5F5F5F5F5F5F5F5F5F5F5F5F5F5F5F5F5F5F5F5F5F5F5F5F5F5F5F5F5F5F5F5F5F5F5F5F5F5F5F5F5F5F5F5F5F5F5F5F5F5F5F5F5F5F5F5F5F5F5F5F5F5F5F5F5F5F5F5
310
F5F5F5F5F5F5F5F5F5F5F5F5F5F5F5F5E2E2E2E2E2E2E2E2E2E2E2E2E2E2E2E2E2E2E2E2F5F5E2E2E2E2E2E2E2E2E2E2E2E2E2E2E2E2E2E2E2E2E2E2E2E2E2E2E2E2E2E2E2E2E2E2E2E2E2E2E2E2E2E2E2E2E2E2E2E2E2E2E2E2E2E2E2E2E2E2E2E2E2E2E2E2E2E2E2E2E2E2E2E2E2E2E2E2E2E2E2E2E2E2E2E2E2E2E2E2E2
310
E2E2E2E2E2E2E2E2E2E2E2E2E2E2E2E2E2E2E2E2E2E2E2E2E2E2E2E2E2E2E2E2E2E2E2E2E2E2E2E2E2E2E2E2E2E2E2E2E2E2E2E2E2E2E2E2E2E2E2E2E2E2E2E2E2E2E2E2E2E2E2E2E2E2E2E2E2E2E2E2E2E2E2E2E2E2E2E2E2F5F5E2E2E2E2E2E2E2E2E2E2E2E2E2E2E2E2E2E2E2E2E2E2E2E2E2E2E2E2E2E2E2E2E2E2E2E2
310
E2E2E2E2E2E2E2E2E2E2E2E2E2E2E2E2E2E2E2E2E2E2E2E2E2E2E2E2E2E2E2E2E2E2E2E2E2E2E2E2E2E2E2E2E2E2E2E2E2E2E2E2E2E2E2E2E2E2E2E2E2E2E2E2E2E2E2E2E2E2E2E2E2E2E2E2E2E2E2E2E2E2E2E2E2E2E2E2E2E2E2E2E2E2E2E2E2E2E2E2E2E2E2E2E2E2E2E2E2E2E2E2E2E2E2E2E2E2E2E2E2E2E2E2E2E2E2
310
E2E2E2E2E2E2E2E2E2E2E2E2E2E2E2F5F5E2E2E2E2E2E2E2E2E2E2E2E2E2E2E2E2E2E2E2E2E2E2E2E2E2E2E2E2E2E2E2E2E2E2E2E2E2E2E2E2E2E2E2E2E2E2E2E2E2E2E2E2E2E2E2E2E2E2E2E2E2E2E2E2E2E2E2E2E2E2E2E2E2E2E2E2E2E2E2E2E2E2E2E2E2E2E2E2E2E2E2E2E2E2E2E2E2E2E2E2E2E2E2E2E2E2E2E2E2E2
310
E2E2E2E2E2E2E2E2E2E2E2E2E2E2E2E2E2E2E2E2E2E2E2E2E2E2E2E2E2E2E2E2E2E2E2E2E2E2E2E2E2E2E2E2E2E2E2E2E2E2E2E2E2E2E2E2E2E2E2E2E2E2E2E2E2E2E2E2F5F5E2E2E2E2E2E2E2E2E2E2E2E2E2E2E2E2E2E2E2E2E2E2E2E2E2E2E2E2E2E2E2E2E2E2E2E2E2E2E2E2E2E2E2E2E2E2E2E2E2E2E2E2E2E2E2E2E2
310
E2E2E2E2E2E2E2E2E2E2E2E2E2E2E2E2E2E2E2E2E2E2E2E2E2E2E2E2E2E2E2E2E2E2E2E2E2E2E2E2E2E2E2E2E2E2E2E2E2E2E2E2E2E2E2E2E2E2E2E2E2E2E2E2E2E2E2E2E2E2E2E2E2E2E2E2E2E2E2E2E2E2E2E2E2E2E2E2E2E2E2E2E2E2E2E2E2E2E2E2E2E2E2E2E2E2E2E2E2E2E2E2E2E2E2E2E2E2E2E2E2F5F5E2E2E2F5
310
E2E2E2E2E2E2E2E2E2E2E2E2E2E2E2E2E2E2E2E2E2E2E2E2E2E2E2E2E2E2E2E2E2E2E2E2E2E2E2E2E2E2E2E2E2E2E2E2E2E2E2E2E2E2E2E2E2E2E2E2E2E2E2E2E2E2E2E2E2E2E2E2E2E2E2E2E2E2E2E2E2E2E2E2E2E2E2E2E2E2E2E2E2E2E2E2E2E2E2E2E2E2E2E2E2E2E2E2E2E2E2E2E2E2E2E2E2E2E2E2E2E2E2E2E2E2E2
310
E2E2E2E2E2E2E2E2E2E2E2E2E2E2E2E2E2E2E2E2E2E2E2E2E2E2E2E2E2E2E2E2E2E2E2E2E2E2E2E2E2E2E2F5E2E2E2F5F5E2E2E2F5E2E2E2E2E2E2E2E2E2E2E2E2E2E2E2E2E2E2E2E2E2E2E2E2E2E2E2E2E2E2E2E2E2E2E2E2E2E2E2E2E2E2E2E2E2E2E2E2E2E2E2E2E2E2E2E2E2E2E2E2E2E2E2E2E2E2E2E2E2E2E2E2E2E2
310
E2E2E2E2E2E2E2E2E2E2E2E2E2E2E2E2E2E2E2E2E2E2E2E2E2E2E2E2E2E2E2E2E2E2E2E2E2E2E2E2E2E2E2E2E2E2E2E2E2E2E2E2E2E2E2E2E2E2E2E2E2E2E2E2E2E2E2E2E2E2E2E2E2E2E2E2E2E2E2E2E2E2E2E2E2E2E2E2E2E2E2E2E2E2E2E2F5E2E2E2F5F5E2E2E2F5E2E2E2E2E2E2E2E2E2E2E2E2E2E2E2E2E2E2E2E2E2
310
E2E2E2E2E2E2E2E2E2E2E2E2E2E2E2E2E2E2E2E2E2E2E2E2E2E2E2E2E2E2E2E2E2E2E2E2E2E2E2E2E2E2E2E2E2E2E2E2E2E2E2E2E2E2E2E2E2E2E2E2E2E2E2E2E2E2E2E2E2E2E2E2E2E2E2E2E2E2E2E2E2E2E2E2E2E2E2E2E2E2E2E2E2E2E2E2E2E2E2E2E2E2E2E2E2E2E2E2E2E2E2E2E2E2E2E2E2E2E2E2E2E2E2E2E2E2E2
310
E2E2E2E2E2E2E2E2E2E2E2E2E2E2E2E2E2E2E2E2E2E2F5E2E2E2F5F5E2E2E2F5E2E2E2E2E2E2E2E2E2E2E2E2E2E2E2E2E2E2E2E2E2E2E2E2E2E2E2E2E2E2E2E2E2E2E2E2E2E2E2E2E2E2E2E2E2E2E2E2E2E2E2E2E2E2E2E2E2E2E2E2E2E2E2E2E2E2E2E2E2E2E2E2E2E2E2E2E2E2E2E2E2E2E2E2E2E2E2E2E2E2E2E2E2E2E2
310
E2E2E2E2E2E2E2E2E2E2E2E2E2E2E2E2E2E2E2E2E2E2E2E2E2E2E2E2E2E2E2E2E2E2E2E2E2E2E2E2E2E2E2E2E2E2E2E2E2E2E2E2E2E2E2E2E2E2E2E2E2E2E2E2E2E2E2E2E2E2E2E2E2E2E2F5E2E2E2F5F5E2E2E2F5E2E2E2E2E2E2E2E2E2E2E2E2E2E2E2E2E2E2E2E2E2E2E2E2E2E2E2E2E2E2E2E2E2E2E2E2E2E2E2E2E2E2
310
E2E2E2E2E2E2E2E2E2E2E2E2E2E2E2E2E2E2E2E2E2E2E2E2E2E2E2E2E2E2E2E2E2E2E2E2E2E2E2E2E2E2E2E2E2E2E2E2E2E2E2E2E2E2E2E2E2E2E2E2E2E2E2E2E2E2E2E2E2E2E2E2E2E2E2E2E2E2E2E2E2E2E2E2E2E2E2E2E2E2E2E2E2E2E2E2E2E2E2E2E2E2E2E2E2E2E2E2E2E2E2E2E2E2E2E2E2E2E2E2E2E2E2E2E2E2E2
310
E2F5E2E2E2F5F5E2E2E2F5E2E2E2E2E2E2E2E2E2E2E2E2E2E2E2E2E2E2E2E2E2E2E2E2E2E2E2E2E2E2E2E2E2E2E2E2E2E2E2E2E2E2E2E2E2E2E2E2E2E2E2E2E2E2E2E2E2E2E2E2E2E2E2E2E2E2E2E2E2E2E2E2E2E2E2E2E2E2E2E2E2E2E2E2E2E2E2E2E2E2E2E2E2E2E2E2E2E2E2E2E2E2E2E2E2E2E2E2E2E2E2E2E2E2E2E2
310
E2E2E2E2E2E2E2E2E2E2E2E2E2E2E2E2E2E2E2E2E2E2E2E2E2E2E2E2E2E2E2E2E2E2E2E2E2E2E2E2E2E2E2E2E2E2E2E2E2E2E2E2E2E2F5E2E2E2F5F5E2E2E2F5E2E2E2E2E2E2E2E2E2E2E2E2E2E2E2E2E2E2E2E2E2E2E2E2E2E2E2E2E2E2E2E2E2E2E2E2E2E2E2E2E2E2E2E2E2E2E2E2E2E2E2E2E2E2E2E2E2E2E2E2E2E2E2
310
E2E2E2E2E2E2E2E2E2E2E2E2E2E2E2E2E2E2E2E2E2E2E2E2E2E2E2E2E2E2E2E2E2E2E2E2E2E2E2E2E2E2E2E2E2E2E2E2E2E2E2E2E2E2E2E2E2E2E2E2E2E2E2E2E2E2E2E2E2E2E2E2E2E2E2E2E2E2E2E2E2E2E2E2E2E2E2E2E2E2E2E2E2E2E2E2E2E2E2E2E2E2E2E2E2E2E2F5E2E2E2F5F5E2E2E2F5E2E2E2E2E2E2E2E2E2E2
310
E2E2E2E2E2E2E2E2E2E2E2E2E2E2E2E2E2E2E2E2E2E2E2E2E2E2E2E2E2E2E2E2E2E2E2E2E2E2E2E2E2E2E2E2E2E2E2E2E2E2E2E2E2E2E2E2E2E2E2E2E2E2E2E2E2E2E2E2E2E2E2E2E2E2E2E2E2E2E2E2E2E2E2E2E2E2E2E2E2E2E2E2E2E2E2E2E2E2E2E2E2E2E2E2E2E2E2E2E2E2E2E2E2E2E2E2E2E2E2E2E2E2E2E2E2E2E2
310
E2E2E2E2E2E2E2E2E2E2E2E2E2E2E2E2E2E2E2E2E2E2E2E2E2E2E2E2E2E2E2E2E2F5E2E2E2F5F5E2E2E2F5F5F5F5F5F5F5F5E2E2E2E2E2E2E2E2E2F5F5F5F5F5F5F5F5F5F5F5F5F5F5F5F5E2E2E2E2E2E2E2E2E2F5F5F5F5F5F5F5F5F5F5F5F5F5F5F5E2E2E2E2E2E2E2E2E2F5F5F5F5F5F5F5F5F5F5F5F5F5F5F5F5E2E2E2
310
E2E2E2E2E2F5F5F5F5F5F5F5F5F5F5F5F5F5F5F5F5E2E2E2E2E2E2E2E2E2F5F5F5F5F5F5F5F5F5F5F5F5F5F5F5E2E2E2E2E2E2E2E2E2F5F5F5F5F5F5F5F5F5F5F5F5F5F5F5F5E2E2E2E2E2E2E2E2E2F5F5F5F5F5F5F5F5E2E2E2F5F5E2E2E2E2E2E2E2E2E2E2E2E2E2E2E2E2E2E2E2E2E2E2E2E2E2E2E2E2E2E2E2E2E2E2E2
310
E2E2E2E2E2E2E2E2E2E2E2E2E2E2E2E2E2E2E2E2E2E2E2E2E2E2E2E2E2E2E2E2E2E2E2E2E2E2E2E2E2E2E2E2E2E2E2E2E2E2E2E2E2E2E2E2E2E2E2E2E2E2E2E2E2E2E2E2E2E2E2E2E2E2E2E2E2E2E2E2E2E2E2E2E2E2E2E2E2E2E2E2E2E2E2E2E2E2E2E2E2E2E2E2E2E2E2E2E2E2E2E2E2E2E2E2E2E2E2E2E2E2E2E2E2E2E2
310
E2E2E2E2E2E2E2E2E2E2E2E2E2E2E2E2F5F5E2E2E2E2E2E2E2E2E2E2E2E2E2E2E2E2E2E2E2E2E2E2E2E2E2E2E2E2E2E2E2E2E2E2E2E2E2E2E2E2E2E2E2E2E2E2E2E2E2E2E2E2E2E2E2E2E2E2E2E2E2E2E2E2E2E2E2E2E2E2E2E2E2E2E2E2E2E2E2E2E2E2E2E2E2E2E2E2E2E2E2E2E2E2E2E2E2E2E2E2E2E2E2E2E2E2E2E2E2
310
E2E2E2E2E2E2E2E2E2E2E2E2E2E2E2E2E2E2E2E2E2E2E2E2E2E2E2E2E2E2E2E2E2E2E2E2E2E2E2E2E2E2E2E2E2E2E2E2E2E2E2E2E2E2E2E2E2E2E2E2E2E2E2E2E2E2E2E2E2F5F5E2E2E2E2E2E2E2E2E2E2E2E2E2E2E2E2E2E2E2E2E2E2E2E2E2E2E2E2E2E2E2E2E2E2E2E2E2E2E2E2E2E2E2E2E2E2E2E2E2E2E2E2E2E2E2E2
310
E2E2E2E2E2E2E2E2E2E2E2E2E2E2E2E2E2E2E2E2E2E2E2E2E2E2E2E2E2E2E2E2E2E2E2E2E2E2E2E2E2E2E2E2E2E2E2E2E2E2E2E2E2E2E2E2E2E2E2E2E2E2E2E2E2E2E2E2E2E2E2E2E2E2E2E2E2E2E2E2E2E2E2E2E2E2E2E2E2E2E2E2E2E2E2E2E2E2E2E2E2E2E2E2E2E2E2E2E2E2E2E2E2E2E2E2E2E2E2E2E2E2F5F5E2E2E2
310
E2E2E2E2E2E2E2E2E2E2E2E2E2E2E2E2E2E2E2E2E2E2E2E2E2E2E2E2E2E2E2E2E2E2E2E2E2E2E2E2E2E2E2E2E2E2E2E2E2E2E2E2E2E2E2E2E2E2E2E2E2E2E2E2E2E2E2E2E2E2E2E2E2E2E2E2E2E2E2E2E2E2E2E2E2E2E2E2E2E2E2E2E2E2E2E2E2E2E2E2E2E2E2E2E2E2E2E2E2E2E2E2E2E2E2E2E2E2E2E2E2E2E2E2E2E2E2
310
E2E2E2E2E2E2E2E2E2E2E2E2E2E2E2E2E2E2E2E2E2E2E2E2E2E2E2E2E2E2E2E2E2E2E2E2E2E2E2E2E2E2E2E2E2E2E2E2F5
  0
XRECORD
  5
557E1
102
{ACAD_REACTORS
330
557E0
102
}
330
557E0
100
AcDbXrecord
280
     1
102
SHADEPLOT
 70
     0
102
SHADEPLOTRESLEVEL
 70
     2
102
SHADEPLOTCUSTOMDPI
 70
   300
  0
ENDSEC
  0
EOF
