  0
SECTION
  2
HEADER
  9
$ACADVER
  1
AC1015
  9
$ACADMAINTVER
 70
    20
  9
$DWGCODEPAGE
  3
ANSI_936
  9
$INSBASE
 10
0.0
 20
0.0
 30
0.0
  9
$EXTMIN
 10
-31.72137360576375
 20
-45.09172627716725
 30
0.0
  9
$EXTMAX
 10
74.37148302724597
 20
79.01290213494208
 30
0.0
  9
$LIMMIN
 10
0.0
 20
0.0
  9
$LIMMAX
 10
420.0
 20
297.0
  9
$ORTHOMODE
 70
     0
  9
$REGENMODE
 70
     1
  9
$FILLMODE
 70
     1
  9
$QTEXTMODE
 70
     0
  9
$MIRRTEXT
 70
     1
  9
$LTSCALE
 40
1.0
  9
$ATTMODE
 70
     1
  9
$TEXTSIZE
 40
3.5
  9
$TRACEWID
 40
1.0
  9
$TEXTSTYLE
  7
simplex
  9
$CLAYER
  8
0
  9
$CELTYPE
  6
ByLayer
  9
$CECOLOR
 62
   256
  9
$CELTSCALE
 40
1.0
  9
$DISPSILH
 70
     0
  9
$DIMSCALE
 40
0.0
  9
$DIMASZ
 40
3.5
  9
$DIMEXO
 40
0.0
  9
$DIMDLI
 40
0.38
  9
$DIMRND
 40
0.0
  9
$DIMDLE
 40
0.0
  9
$DIMEXE
 40
1.5
  9
$DIMTP
 40
0.0
  9
$DIMTM
 40
0.0
  9
$DIMTXT
 40
3.5
  9
$DIMCEN
 40
0.09
  9
$DIMTSZ
 40
0.0
  9
$DIMTOL
 70
     0
  9
$DIMLIM
 70
     0
  9
$DIMTIH
 70
     0
  9
$DIMTOH
 70
     0
  9
$DIMSE1
 70
     0
  9
$DIMSE2
 70
     0
  9
$DIMTAD
 70
     1
  9
$DIMZIN
 70
     8
  9
$DIMBLK
  1

  9
$DIMASO
 70
     1
  9
$DIMSHO
 70
     1
  9
$DIMPOST
  1

  9
$DIMAPOST
  1

  9
$DIMALT
 70
     0
  9
$DIMALTD
 70
     2
  9
$DIMALTF
 40
25.4
  9
$DIMLFAC
 40
1.0
  9
$DIMTOFL
 70
     0
  9
$DIMTVP
 40
0.0
  9
$DIMTIX
 70
     0
  9
$DIMSOXD
 70
     0
  9
$DIMSAH
 70
     0
  9
$DIMBLK1
  1

  9
$DIMBLK2
  1

  9
$DIMSTYLE
  2
\M+18352\M+18373\M+1815B - ISO-25
  9
$DIMCLRD
 70
   256
  9
$DIMCLRE
 70
   256
  9
$DIMCLRT
 70
   256
  9
$DIMTFAC
 40
1.0
  9
$DIMGAP
 40
2.299999999999998
  9
$DIMJUST
 70
     0
  9
$DIMSD1
 70
     0
  9
$DIMSD2
 70
     0
  9
$DIMTOLJ
 70
     1
  9
$DIMTZIN
 70
     8
  9
$DIMALTZ
 70
     0
  9
$DIMALTTZ
 70
     0
  9
$DIMUPT
 70
     0
  9
$DIMDEC
 70
     2
  9
$DIMTDEC
 70
     2
  9
$DIMALTU
 70
     2
  9
$DIMALTTD
 70
     2
  9
$DIMTXSTY
  7
simplex
  9
$DIMAUNIT
 70
     0
  9
$DIMADEC
 70
     0
  9
$DIMALTRND
 40
0.0
  9
$DIMAZIN
 70
     0
  9
$DIMDSEP
 70
    46
  9
$DIMATFIT
 70
     3
  9
$DIMFRAC
 70
     0
  9
$DIMLDRBLK
  1

  9
$DIMLUNIT
 70
     2
  9
$DIMLWD
 70
    -1
  9
$DIMLWE
 70
    -1
  9
$DIMTMOVE
 70
     0
  9
$LUNITS
 70
     2
  9
$LUPREC
 70
     4
  9
$SKETCHINC
 40
1.0
  9
$FILLETRAD
 40
0.8
  9
$AUNITS
 70
     0
  9
$AUPREC
 70
     0
  9
$MENU
  1
.
  9
$ELEVATION
 40
0.0
  9
$PELEVATION
 40
0.0
  9
$THICKNESS
 40
0.0
  9
$LIMCHECK
 70
     0
  9
$CHAMFERA
 40
10.0
  9
$CHAMFERB
 40
10.0
  9
$CHAMFERC
 40
20.0
  9
$CHAMFERD
 40
0.0
  9
$SKPOLY
 70
     0
  9
$TDCREATE
 40
2455489.391063368
  9
$TDUCREATE
 40
2455489.057730035
  9
$TDUPDATE
 40
2458518.455743229
  9
$TDUUPDATE
 40
2458518.122409896
  9
$TDINDWG
 40
2.2382503356
  9
$TDUSRTIMER
 40
2.2381957639
  9
$USRTIMER
 70
     1
  9
$ANGBASE
 50
0.0
  9
$ANGDIR
 70
     0
  9
$PDMODE
 70
     0
  9
$PDSIZE
 40
0.0
  9
$PLINEWID
 40
0.0
  9
$SPLFRAME
 70
     0
  9
$SPLINETYPE
 70
     6
  9
$SPLINESEGS
 70
     8
  9
$HANDSEED
  5
55E83
  9
$SURFTAB1
 70
     6
  9
$SURFTAB2
 70
     6
  9
$SURFTYPE
 70
     6
  9
$SURFU
 70
     6
  9
$SURFV
 70
     6
  9
$UCSBASE
  2

  9
$UCSNAME
  2

  9
$UCSORG
 10
0.0
 20
0.0
 30
0.0
  9
$UCSXDIR
 10
1.0
 20
0.0
 30
0.0
  9
$UCSYDIR
 10
0.0
 20
1.0
 30
0.0
  9
$UCSORTHOREF
  2

  9
$UCSORTHOVIEW
 70
     0
  9
$UCSORGTOP
 10
0.0
 20
0.0
 30
0.0
  9
$UCSORGBOTTOM
 10
0.0
 20
0.0
 30
0.0
  9
$UCSORGLEFT
 10
0.0
 20
0.0
 30
0.0
  9
$UCSORGRIGHT
 10
0.0
 20
0.0
 30
0.0
  9
$UCSORGFRONT
 10
0.0
 20
0.0
 30
0.0
  9
$UCSORGBACK
 10
0.0
 20
0.0
 30
0.0
  9
$PUCSBASE
  2

  9
$PUCSNAME
  2

  9
$PUCSORG
 10
0.0
 20
0.0
 30
0.0
  9
$PUCSXDIR
 10
1.0
 20
0.0
 30
0.0
  9
$PUCSYDIR
 10
0.0
 20
1.0
 30
0.0
  9
$PUCSORTHOREF
  2

  9
$PUCSORTHOVIEW
 70
     0
  9
$PUCSORGTOP
 10
0.0
 20
0.0
 30
0.0
  9
$PUCSORGBOTTOM
 10
0.0
 20
0.0
 30
0.0
  9
$PUCSORGLEFT
 10
0.0
 20
0.0
 30
0.0
  9
$PUCSORGRIGHT
 10
0.0
 20
0.0
 30
0.0
  9
$PUCSORGFRONT
 10
0.0
 20
0.0
 30
0.0
  9
$PUCSORGBACK
 10
0.0
 20
0.0
 30
0.0
  9
$USERI1
 70
     0
  9
$USERI2
 70
     0
  9
$USERI3
 70
     0
  9
$USERI4
 70
     0
  9
$USERI5
 70
     0
  9
$USERR1
 40
0.0
  9
$USERR2
 40
0.0
  9
$USERR3
 40
0.0
  9
$USERR4
 40
0.0
  9
$USERR5
 40
0.0
  9
$WORLDVIEW
 70
     1
  9
$SHADEDGE
 70
     3
  9
$SHADEDIF
 70
    70
  9
$TILEMODE
 70
     1
  9
$MAXACTVP
 70
    64
  9
$PINSBASE
 10
0.0
 20
0.0
 30
0.0
  9
$PLIMCHECK
 70
     0
  9
$PEXTMIN
 10
26.66999878883364
 20
20.31999878883365
 30
0.0
  9
$PEXTMAX
 10
240.0299890995025
 20
182.8799890995025
 30
0.0
  9
$PLIMMIN
 10
-6.350006103515625
 20
-6.349999904632567
  9
$PLIMMAX
 10
273.0499877929688
 20
209.5499939918518
  9
$UNITMODE
 70
     0
  9
$VISRETAIN
 70
     1
  9
$PLINEGEN
 70
     0
  9
$PSLTSCALE
 70
     1
  9
$TREEDEPTH
 70
  3020
  9
$CMLSTYLE
  2
Standard
  9
$CMLJUST
 70
     0
  9
$CMLSCALE
 40
20.0
  9
$PROXYGRAPHICS
 70
     1
  9
$MEASUREMENT
 70
     1
  9
$CELWEIGHT
370
    -1
  9
$ENDCAPS
280
     0
  9
$JOINSTYLE
280
     0
  9
$LWDISPLAY
290
     0
  9
$INSUNITS
 70
     4
  9
$HYPERLINKBASE
  1

  9
$STYLESHEET
  1

  9
$XEDIT
290
     1
  9
$CEPSNTYPE
380
     0
  9
$PSTYLEMODE
290
     1
  9
$FINGERPRINTGUID
  2
{601DDA01-5B13-4A4C-8F56-1333B78D855B}
  9
$VERSIONGUID
  2
{E0A6F38B-DB08-4D85-8975-BE91F9B5F3F1}
  9
$EXTNAMES
290
     1
  9
$PSVPSCALE
 40
0.0
  9
$OLESTARTUP
290
     0
  0
ENDSEC
  0
SECTION
  2
CLASSES
  0
CLASS
  1
ACDBDICTIONARYWDFLT
  2
AcDbDictionaryWithDefault
  3
ObjectDBX Classes
 90
        0
280
     0
281
     0
  0
CLASS
  1
ACDBPLACEHOLDER
  2
AcDbPlaceHolder
  3
ObjectDBX Classes
 90
        0
280
     0
281
     0
  0
CLASS
  1
LAYOUT
  2
AcDbLayout
  3
ObjectDBX Classes
 90
        0
280
     0
281
     0
  0
CLASS
  1
DICTIONARYVAR
  2
AcDbDictionaryVar
  3
ObjectDBX Classes
 90
        0
280
     0
281
     0
  0
CLASS
  1
TABLESTYLE
  2
AcDbTableStyle
  3
ObjectDBX Classes
 90
     2047
280
     0
281
     0
  0
CLASS
  1
SORTENTSTABLE
  2
AcDbSortentsTable
  3
ObjectDBX Classes
 90
        0
280
     0
281
     0
  0
CLASS
  1
DIMASSOC
  2
AcDbDimAssoc
  3
"AcDbDimAssoc|Product Desc:     AcDim ARX App For Dimension|Company:          Autodesk, Inc.|WEB Address:      www.autodesk.com"
 90
    32768
280
     0
281
     0
  0
CLASS
  1
ACAD_EVALUATION_GRAPH
  2
AcDbEvalGraph
  3
ObjectDBX Classes
 90
    33921
280
     0
281
     0
  0
CLASS
  1
ACAECUSTOBJ
  2
AcAeEditorObj
  3
AcAeEditorObj
 90
    33792
280
     0
281
     0
  0
CLASS
  1
ACDB_DYNAMICBLOCKPURGEPREVENTER_VERSION
  2
AcDbDynamicBlockPurgePreventer
  3
ObjectDBX Classes
 90
    33921
280
     0
281
     0
  0
ENDSEC
  0
SECTION
  2
TABLES
  0
TABLE
  2
VPORT
  5
8
330
0
100
AcDbSymbolTable
 70
     2
  0
VPORT
  5
55E74
330
8
100
AcDbSymbolTableRecord
100
AcDbViewportTableRecord
  2
*Active
 70
     0
 10
0.0
 20
0.0
 11
1.0
 21
1.0
 12
28.97279647927709
 22
13.79203226114947
 13
0.0
 23
0.0
 14
10.0
 24
10.0
 15
10.0
 25
10.0
 16
0.0
 26
0.0
 36
1.0
 17
0.0
 27
0.0
 37
0.0
 40
195.5220711345263
 41
1.386206896551724
 42
50.0
 43
0.0
 44
0.0
 50
0.0
 51
0.0
 71
     0
 72
  1000
 73
     1
 74
     1
 75
     0
 76
     0
 77
     0
 78
     0
281
     0
 65
     1
110
0.0
120
0.0
130
0.0
111
1.0
121
0.0
131
0.0
112
0.0
122
1.0
132
0.0
 79
     0
146
0.0
  0
ENDTAB
  0
TABLE
  2
LTYPE
  5
5
330
0
100
AcDbSymbolTable
 70
     4
  0
LTYPE
  5
14
330
5
100
AcDbSymbolTableRecord
100
AcDbLinetypeTableRecord
  2
ByBlock
 70
     0
  3

 72
    65
 73
     0
 40
0.0
  0
LTYPE
  5
15
330
5
100
AcDbSymbolTableRecord
100
AcDbLinetypeTableRecord
  2
ByLayer
 70
     0
  3

 72
    65
 73
     0
 40
0.0
  0
LTYPE
  5
16
330
5
100
AcDbSymbolTableRecord
100
AcDbLinetypeTableRecord
  2
Continuous
 70
     0
  3
Solid line
 72
    65
 73
     0
 40
0.0
  0
LTYPE
  5
D7
330
5
100
AcDbSymbolTableRecord
100
AcDbLinetypeTableRecord
  2
HIDDEN
 70
     0
  3
Hidden __ __ __ __ __ __ __ __ __ __ __ __ __ _
 72
    65
 73
     2
 40
9.524999999999996
 49
6.349999999999997
 74
     0
 49
-3.174999999999998
 74
     0
  0
LTYPE
  5
D9
330
5
100
AcDbSymbolTableRecord
100
AcDbLinetypeTableRecord
  2
CENTER
 70
     0
  3
Center ____ _ ____ _ ____ _ ____ _ ____ _ ____
 72
    65
 73
     4
 40
50.8
 49
31.75
 74
     0
 49
-6.349999999999997
 74
     0
 49
6.349999999999997
 74
     0
 49
-6.349999999999997
 74
     0
  0
LTYPE
  5
35815
330
5
100
AcDbSymbolTableRecord
100
AcDbLinetypeTableRecord
  2
PHANTOM
 70
     0
  3
_____ _ _ _____ _ _ _____ _ _ _____
 72
    65
 73
     6
 40
0.8
 49
0.45
 74
     0
 49
-0.05
 74
     0
 49
0.1
 74
     0
 49
-0.05
 74
     0
 49
0.1
 74
     0
 49
-0.05
 74
     0
  0
ENDTAB
  0
TABLE
  2
LAYER
  5
2
102
{ACAD_XDICTIONARY
360
E2
102
}
330
0
100
AcDbSymbolTable
 70
    14
  0
LAYER
  5
10
330
2
100
AcDbSymbolTableRecord
100
AcDbLayerTableRecord
  2
0
 70
     0
 62
     7
  6
Continuous
370
    -3
390
F
  0
LAYER
  5
D1
330
2
100
AcDbSymbolTableRecord
100
AcDbLayerTableRecord
  2
1
 70
     0
 62
     4
  6
Continuous
370
    50
390
F
1001
AcAecLayerStandard
1000

1000

  0
LAYER
  5
D3
330
2
100
AcDbSymbolTableRecord
100
AcDbLayerTableRecord
  2
2
 70
     0
 62
     7
  6
Continuous
370
    25
390
F
1001
AcAecLayerStandard
1000

1000

  0
LAYER
  5
D4
330
2
100
AcDbSymbolTableRecord
100
AcDbLayerTableRecord
  2
3
 70
     0
 62
     1
  6
HIDDEN
370
    35
390
F
1001
AcAecLayerStandard
1000

1000

  0
LAYER
  5
D8
330
2
100
AcDbSymbolTableRecord
100
AcDbLayerTableRecord
  2
4
 70
     0
 62
     2
  6
CENTER
370
    25
390
F
1001
AcAecLayerStandard
1000

1000

  0
LAYER
  5
DA
330
2
100
AcDbSymbolTableRecord
100
AcDbLayerTableRecord
  2
6
 70
     0
 62
     5
  6
Continuous
370
    35
390
F
1001
AcAecLayerStandard
1000

1000

  0
LAYER
  5
DB
330
2
100
AcDbSymbolTableRecord
100
AcDbLayerTableRecord
  2
cut
 70
     0
 62
     1
  6
Continuous
370
    25
390
F
1001
AcAecLayerStandard
1000

1000

  0
LAYER
  5
DC
330
2
100
AcDbSymbolTableRecord
100
AcDbLayerTableRecord
  2
nocut
 70
     0
 62
     7
  6
Continuous
370
    25
390
F
1001
AcAecLayerStandard
1000

1000

  0
LAYER
  5
DD
330
2
100
AcDbSymbolTableRecord
100
AcDbLayerTableRecord
  2
sk1
 70
     0
 62
     4
  6
Continuous
370
    50
390
F
1001
AcAecLayerStandard
1000

1000

  0
LAYER
  5
DE
330
2
100
AcDbSymbolTableRecord
100
AcDbLayerTableRecord
  2
sk2
 70
     0
 62
     7
  6
Continuous
370
    25
390
F
1001
AcAecLayerStandard
1000

1000

  0
LAYER
  5
DF
330
2
100
AcDbSymbolTableRecord
100
AcDbLayerTableRecord
  2
sk3
 70
     0
 62
     1
  6
HIDDEN
370
    35
390
F
1001
AcAecLayerStandard
1000

1000

  0
LAYER
  5
E0
330
2
100
AcDbSymbolTableRecord
100
AcDbLayerTableRecord
  2
sk4
 70
     0
 62
     2
  6
CENTER
370
    25
390
F
1001
AcAecLayerStandard
1000

1000

  0
LAYER
  5
E1
330
2
100
AcDbSymbolTableRecord
100
AcDbLayerTableRecord
  2
sk6
 70
     0
 62
     5
  6
Continuous
370
    35
390
F
1001
AcAecLayerStandard
1000

1000

  0
LAYER
  5
31B6
330
2
100
AcDbSymbolTableRecord
100
AcDbLayerTableRecord
  2
Defpoints
 70
     0
 62
     7
  6
Continuous
290
     0
370
    -3
390
F
  0
ENDTAB
  0
TABLE
  2
STYLE
  5
3
330
0
100
AcDbSymbolTable
 70
    11
  0
STYLE
  5
11
330
3
100
AcDbSymbolTableRecord
100
AcDbTextStyleTableRecord
  2
Standard
 70
     0
 40
0.0
 41
1.0
 50
0.0
 71
     0
 42
2.5
  3
txt.shx
  4
@extfont2.shx
  0
STYLE
  5
D6
330
3
100
AcDbSymbolTableRecord
100
AcDbTextStyleTableRecord
  2

 70
     1
 40
0.0
 41
1.0
 50
0.0
 71
     0
 42
2.5
  3
ltypeshp.shx
  4

  0
STYLE
  5
24A
330
3
100
AcDbSymbolTableRecord
100
AcDbTextStyleTableRecord
  2
simplex
 70
     0
 40
3.5
 41
1.0
 50
0.0
 71
     0
 42
3.5
  3
txt.shx
  4

  0
STYLE
  5
69E
330
3
100
AcDbSymbolTableRecord
100
AcDbTextStyleTableRecord
  2
MX_NOTE_STANDARD
 70
     0
 40
0.0
 41
1.0
 50
0.0
 71
     0
 42
4.2
  3
txt.shx
  4
extfont.shx
  0
STYLE
  5
3524
330
3
100
AcDbSymbolTableRecord
100
AcDbTextStyleTableRecord
  2
TEXTSTYLE_2
 70
     0
 40
0.0
 41
0.775
 50
0.0
 71
     0
 42
0.2
  3
gdt
  4

  0
STYLE
  5
3525
330
3
100
AcDbSymbolTableRecord
100
AcDbTextStyleTableRecord
  2
TEXTSTYLE_3
 70
     0
 40
0.0
 41
0.75
 50
0.0
 71
     0
 42
0.2
  3
txt
  4

  0
STYLE
  5
3526
330
3
100
AcDbSymbolTableRecord
100
AcDbTextStyleTableRecord
  2
TEXTSTYLE_13
 70
     0
 40
0.0
 41
1.0
 50
0.0
 71
     0
 42
0.2
  3
txt
  4

  0
STYLE
  5
519A
330
3
100
AcDbSymbolTableRecord
100
AcDbTextStyleTableRecord
  2
TEXTSTYLE_14
 70
     0
 40
0.0
 41
1.0
 50
0.0
 71
     0
 42
0.2
  3
txt
  4

  0
STYLE
  5
6F72
330
3
100
AcDbSymbolTableRecord
100
AcDbTextStyleTableRecord
  2
TEXTSTYLE_4
 70
     0
 40
0.0
 41
0.75
 50
0.0
 71
     0
 42
0.2
  3
txt
  4

  0
STYLE
  5
6F73
330
3
100
AcDbSymbolTableRecord
100
AcDbTextStyleTableRecord
  2
TEXTSTYLE_17
 70
     0
 40
0.0
 41
1.0
 50
0.0
 71
     0
 42
0.2
  3
txt
  4

  0
STYLE
  5
FE12
330
3
100
AcDbSymbolTableRecord
100
AcDbTextStyleTableRecord
  2
TEXTSTYLE_12
 70
     0
 40
0.0
 41
1.0
 50
0.0
 71
     0
 42
0.2
  3
txt
  4

  0
ENDTAB
  0
TABLE
  2
VIEW
  5
6
330
0
100
AcDbSymbolTable
 70
     0
  0
ENDTAB
  0
TABLE
  2
UCS
  5
7
330
0
100
AcDbSymbolTable
 70
     0
  0
ENDTAB
  0
TABLE
  2
APPID
  5
9
330
0
100
AcDbSymbolTable
 70
    11
  0
APPID
  5
12
330
9
100
AcDbSymbolTableRecord
100
AcDbRegAppTableRecord
  2
ACAD
 70
     0
  0
APPID
  5
D2
330
9
100
AcDbSymbolTableRecord
100
AcDbRegAppTableRecord
  2
AcAecLayerStandard
 70
     0
  0
APPID
  5
E6
330
9
100
AcDbSymbolTableRecord
100
AcDbRegAppTableRecord
  2
ACAD_DSTYLE_DIMTEXT_FILL
 70
     0
  0
APPID
  5
4C84
330
9
100
AcDbSymbolTableRecord
100
AcDbRegAppTableRecord
  2
ACAD_EXEMPT_FROM_CAD_STANDARDS
 70
     0
  0
APPID
  5
3493E
330
9
100
AcDbSymbolTableRecord
100
AcDbRegAppTableRecord
  2
DCO15
 70
     0
  0
APPID
  5
4366A
330
9
100
AcDbSymbolTableRecord
100
AcDbRegAppTableRecord
  2
ACAUTHENVIRON
 70
     0
  0
APPID
  5
4366D
330
9
100
AcDbSymbolTableRecord
100
AcDbRegAppTableRecord
  2
AcDbDynamicBlockTrueName
 70
     0
  0
APPID
  5
4366E
330
9
100
AcDbSymbolTableRecord
100
AcDbRegAppTableRecord
  2
AcDbDynamicBlockGUID
 70
     0
  0
APPID
  5
43670
330
9
100
AcDbSymbolTableRecord
100
AcDbRegAppTableRecord
  2
AcDbBlockRepETag
 70
     0
  0
APPID
  5
45C9F
330
9
100
AcDbSymbolTableRecord
100
AcDbRegAppTableRecord
  2
ACAD_DSTYLE_DIMEXT_ENABLED
 70
     0
  0
APPID
  5
45CA0
330
9
100
AcDbSymbolTableRecord
100
AcDbRegAppTableRecord
  2
ACAD_DSTYLE_DIMEXT_LENGTH
 70
     0
  0
ENDTAB
  0
TABLE
  2
DIMSTYLE
  5
A
330
0
100
AcDbSymbolTable
 70
     9
100
AcDbDimStyleTable
 71
     2
340
1BF
340
27
  0
DIMSTYLE
105
27
330
A
100
AcDbSymbolTableRecord
100
AcDbDimStyleTableRecord
  2
ISO-25
 70
     0
 41
2.5
 42
0.625
 43
3.75
 44
1.25
 73
     0
 74
     0
 77
     1
 78
     8
140
2.5
141
2.5
143
0.03937007874016
147
0.625
171
     3
172
     1
271
     2
272
     2
274
     3
278
    44
283
     0
284
     8
340
11
  0
DIMSTYLE
105
1BF
102
{ACAD_REACTORS
330
55C60
330
55CB6
330
55CB7
330
55D52
330
55D4F
330
55C5F
102
}
330
A
100
AcDbSymbolTableRecord
100
AcDbDimStyleTableRecord
  2
\M+18352\M+18373\M+1815B - ISO-25
 70
     0
 40
0.0
 41
3.5
 42
0.0
 44
1.5
 73
     0
 74
     0
 77
     1
 78
     8
140
3.5
147
2.299999999999998
176
   256
177
   256
178
   256
271
     2
272
     2
284
     8
340
24A
371
    -1
372
    -1
  0
DIMSTYLE
105
69F
330
A
100
AcDbSymbolTableRecord
100
AcDbDimStyleTableRecord
  2
MXDIMSTYLE
 70
     0
 41
2.5
 42
0.5
 43
3.75
 44
1.5
 73
     0
 74
     0
 77
     1
 78
     8
140
4.2
141
2.5
143
0.03937
147
1.0
171
     4
172
     1
173
     1
271
     2
272
     2
274
     4
283
     0
288
     1
340
69E
341
697
343
697
344
697
  0
DIMSTYLE
105
3527
330
A
100
AcDbSymbolTableRecord
100
AcDbDimStyleTableRecord
  2
STANDARD
 70
     0
 41
3.0
 47
0.001
 48
0.001
 71
     1
 73
     0
 74
     0
 77
     1
 78
     8
140
4.0
271
     3
272
     3
284
     8
340
11
341
34B1
342
34B1
343
34B1
344
34B1
  0
DIMSTYLE
105
3528
330
A
100
AcDbSymbolTableRecord
100
AcDbDimStyleTableRecord
  2
DIMSTYLE_1
 70
     0
 41
3.0
 73
     0
 74
     0
 77
     1
 78
     8
140
4.0
271
     3
272
     3
284
     8
340
11
341
34B1
342
34B1
343
34B1
344
34B1
  0
DIMSTYLE
105
3529
330
A
100
AcDbSymbolTableRecord
100
AcDbDimStyleTableRecord
  2
DIMSTYLE_2
 70
     0
 41
3.0
 47
0.001
 48
0.001
 73
     0
 74
     0
 77
     1
 78
     8
140
4.0
271
     3
272
     3
284
     8
340
11
341
34B1
342
34B1
343
34B1
344
34B1
  0
DIMSTYLE
105
352A
330
A
100
AcDbSymbolTableRecord
100
AcDbDimStyleTableRecord
  2
DIMSTYLE_3
 70
     0
 41
3.0
 47
-0.1
 48
0.3
 71
     1
 73
     0
 74
     0
 77
     1
 78
     8
140
4.0
146
0.5
271
     3
272
     3
284
     8
340
11
341
34B1
342
34B1
343
34B1
344
34B1
  0
DIMSTYLE
105
352B
330
A
100
AcDbSymbolTableRecord
100
AcDbDimStyleTableRecord
  2
DIMSTYLE_4
 70
     0
 41
3.0
 47
0.1
 48
0.1
 71
     1
 73
     0
 74
     0
 77
     1
 78
     8
140
4.0
271
     3
272
     3
284
     8
340
11
341
34B1
342
34B1
343
34B1
344
34B1
  0
DIMSTYLE
105
27245
330
A
100
AcDbSymbolTableRecord
100
AcDbDimStyleTableRecord
  2
DIMSTYLE_5
 70
     0
 41
3.0
 47
0.001
 48
0.001
 73
     0
 74
     0
 77
     1
 78
     8
140
4.0
271
     3
272
     3
284
     8
340
11
341
34B1
342
34B1
343
34B1
344
34B1
  0
ENDTAB
  0
TABLE
  2
BLOCK_RECORD
  5
1
330
0
100
AcDbSymbolTable
 70
    12
  0
BLOCK_RECORD
  5
1F
102
{ACAD_XDICTIONARY
360
31EE
102
}
330
1
100
AcDbSymbolTableRecord
100
AcDbBlockTableRecord
  2
*Model_Space
340
22
  0
BLOCK_RECORD
  5
50
330
1
100
AcDbSymbolTableRecord
100
AcDbBlockTableRecord
  2
*Paper_Space
340
51
  0
BLOCK_RECORD
  5
55
330
1
100
AcDbSymbolTableRecord
100
AcDbBlockTableRecord
  2
*Paper_Space0
340
56
  0
BLOCK_RECORD
  5
680
102
{ACAD_XDICTIONARY
360
43668
102
}
330
1
100
AcDbSymbolTableRecord
100
AcDbBlockTableRecord
  2
zero block
340
0
102
{BLKREFS
331
68C
102
}
1001
ACAD
1000
DesignCenter Data
1002
{
1070
     1
1070
     4
1002
}
1001
AcDbDynamicBlockGUID
1000
{A89DF4EB-B2CB-439E-AC69-1EAC9F242D1C}
1001
AcDbBlockRepETag
1070
     1
1071
        7
  0
BLOCK_RECORD
  5
697
330
1
100
AcDbSymbolTableRecord
100
AcDbBlockTableRecord
  2
_OPEN30
340
0
  0
BLOCK_RECORD
  5
32F1
330
1
100
AcDbSymbolTableRecord
100
AcDbBlockTableRecord
  2
_None
340
0
  0
BLOCK_RECORD
  5
34B1
330
1
100
AcDbSymbolTableRecord
100
AcDbBlockTableRecord
  2
_OPEN
340
0
  0
BLOCK_RECORD
  5
5456E
330
1
100
AcDbSymbolTableRecord
100
AcDbBlockTableRecord
  2
*D5
340
0
  0
BLOCK_RECORD
  5
55D73
330
1
100
AcDbSymbolTableRecord
100
AcDbBlockTableRecord
  2
*D6
340
0
  0
BLOCK_RECORD
  5
55D7F
330
1
100
AcDbSymbolTableRecord
100
AcDbBlockTableRecord
  2
*D7
340
0
  0
BLOCK_RECORD
  5
55D8B
330
1
100
AcDbSymbolTableRecord
100
AcDbBlockTableRecord
  2
*D8
340
0
  0
BLOCK_RECORD
  5
55D97
330
1
100
AcDbSymbolTableRecord
100
AcDbBlockTableRecord
  2
*D9
340
0
  0
BLOCK_RECORD
  5
55DA3
330
1
100
AcDbSymbolTableRecord
100
AcDbBlockTableRecord
  2
*D10
340
0
  0
BLOCK_RECORD
  5
55DAF
330
1
100
AcDbSymbolTableRecord
100
AcDbBlockTableRecord
  2
*D11
340
0
  0
ENDTAB
  0
ENDSEC
  0
SECTION
  2
BLOCKS
  0
BLOCK
  5
20
330
1F
100
AcDbEntity
  8
0
100
AcDbBlockBegin
  2
*Model_Space
 70
     0
 10
0.0
 20
0.0
 30
0.0
  3
*Model_Space
  1

  0
ENDBLK
  5
21
330
1F
100
AcDbEntity
  8
0
100
AcDbBlockEnd
  0
BLOCK
  5
52
330
50
100
AcDbEntity
 67
     1
  8
0
100
AcDbBlockBegin
  2
*Paper_Space
 70
     0
 10
0.0
 20
0.0
 30
0.0
  3
*Paper_Space
  1

  0
ENDBLK
  5
53
330
50
100
AcDbEntity
 67
     1
  8
0
100
AcDbBlockEnd
  0
BLOCK
  5
57
330
55
100
AcDbEntity
 67
     1
  8
0
100
AcDbBlockBegin
  2
*Paper_Space0
 70
     0
 10
0.0
 20
0.0
 30
0.0
  3
*Paper_Space0
  1

  0
VIEWPORT
  5
71
102
{ACAD_XDICTIONARY
360
55E7F
102
}
330
55
100
AcDbEntity
 67
     1
  8
0
100
AcDbViewport
 10
150.1652135264906
 20
101.599997546291
 30
0.0
 40
339.1973820494347
 41
164.5360435314421
 68
     0
 69
     0
 12
150.1652135264906
 22
101.599997546291
 13
0.0
 23
0.0
 14
10.0
 24
10.0
 15
10.0
 25
10.0
 16
0.0
 26
0.0
 36
1.0
 17
0.0
 27
0.0
 37
0.0
 42
50.0
 43
0.0
 44
0.0
 45
164.5360435314421
 50
0.0
 51
0.0
 72
  1000
 90
    32864
  1

281
     0
 71
     1
 74
     0
110
0.0
120
0.0
130
0.0
111
1.0
121
0.0
131
0.0
112
0.0
122
1.0
132
0.0
 79
     0
146
0.0
  0
VIEWPORT
  5
73
102
{ACAD_XDICTIONARY
360
55E81
102
}
330
55
100
AcDbEntity
 67
     1
  8
0
100
AcDbViewport
 10
133.3499939441681
 20
101.5999939441681
 30
0.0
 40
213.3599903106689
 41
162.5599903106689
 68
     0
 69
     0
 12
210.0
 22
148.5
 13
0.0
 23
0.0
 14
10.0
 24
10.0
 15
10.0
 25
10.0
 16
0.0
 26
0.0
 36
1.0
 17
0.0
 27
0.0
 37
0.0
 42
50.0
 43
0.0
 44
0.0
 45
324.0677920111345
 50
0.0
 51
0.0
 72
   100
 90
    32864
  1

281
     0
 71
     1
 74
     0
110
0.0
120
0.0
130
0.0
111
1.0
121
0.0
131
0.0
112
0.0
122
1.0
132
0.0
 79
     0
146
0.0
  0
ENDBLK
  5
58
330
55
100
AcDbEntity
 67
     1
  8
0
100
AcDbBlockEnd
  0
BLOCK
  5
68A
330
680
100
AcDbEntity
  8
0
100
AcDbBlockBegin
  2
zero block
 70
     0
 10
0.0
 20
0.0
 30
0.0
  3
zero block
  1

  0
HATCH
  5
43661
330
680
100
AcDbEntity
  8
0
 62
     7
100
AcDbHatch
 10
0.0
 20
0.0
 30
0.0
210
0.0
220
0.0
230
1.0
  2
SOLID
 70
     1
 71
     0
 91
        2
 92
        7
 72
     1
 73
     1
 93
        3
 10
0.0
 20
0.9999999999999875
 42
0.4142135623730915
 10
-1.0
 20
0.0
 42
0.0
 10
0.0
 20
0.0
 42
0.0
 97
        0
 92
        7
 72
     1
 73
     1
 93
        3
 10
1.000000000000007
 20
0.0
 42
0.0
 10
0.0
 20
0.0
 42
0.0
 10
0.0
 20
-1.0
 42
0.4142135623730974
 97
        0
 75
     0
 76
     1
 47
0.0090601366782909
 98
        2
 10
-0.380591363650975
 20
0.4885804701532896
 10
0.4350764810977559
 20
-0.4536738423704725
1001
AcDbBlockRepETag
1070
     1
1071
        0
1005
43661
  0
LINE
  5
43662
330
680
100
AcDbEntity
  8
0
 62
     7
 48
0.2
100
AcDbLine
 10
-1.0
 20
0.0
 30
0.0
 11
1.000000000000007
 21
0.0
 31
0.0
1001
AcDbBlockRepETag
1070
     1
1071
        1
1005
43662
  0
LINE
  5
43663
330
680
100
AcDbEntity
  8
0
 62
     7
 48
0.2
100
AcDbLine
 10
0.0
 20
-1.0
 30
0.0
 11
0.0
 21
0.9999999999999875
 31
0.0
1001
AcDbBlockRepETag
1070
     1
1071
        2
1005
43663
  0
ARC
  5
43664
330
680
100
AcDbEntity
  8
0
 62
     7
 48
0.2
100
AcDbCircle
 10
0.0
 20
0.0
 30
0.0
 40
1.0
100
AcDbArc
 50
270.0
 51
0.0
1001
AcDbBlockRepETag
1070
     1
1071
        3
1005
43664
  0
ARC
  5
43665
330
680
100
AcDbEntity
  8
0
 62
     7
 48
0.2
100
AcDbCircle
 10
0.0
 20
0.0
 30
0.0
 40
1.0
100
AcDbArc
 50
0.0
 51
90.0
1001
AcDbBlockRepETag
1070
     1
1071
        4
1005
43665
  0
ARC
  5
43666
330
680
100
AcDbEntity
  8
0
 62
     7
 48
0.2
100
AcDbCircle
 10
0.0
 20
0.0
 30
0.0
 40
1.0
100
AcDbArc
 50
180.0
 51
270.0
1001
AcDbBlockRepETag
1070
     1
1071
        5
1005
43666
  0
ARC
  5
43667
330
680
100
AcDbEntity
  8
0
 62
     7
 48
0.2
100
AcDbCircle
 10
0.0
 20
0.0
 30
0.0
 40
1.0
100
AcDbArc
 50
90.0
 51
180.0
1001
AcDbBlockRepETag
1070
     1
1071
        6
1005
43667
  0
ENDBLK
  5
68B
330
680
100
AcDbEntity
  8
0
100
AcDbBlockEnd
  0
BLOCK
  5
698
330
697
100
AcDbEntity
  8
0
  6
ByBlock
 62
     0
370
    -2
100
AcDbBlockBegin
  2
_OPEN30
 70
     2
 10
0.0
 20
0.0
 30
0.0
  3
_OPEN30
  1

  0
LINE
  5
699
330
697
100
AcDbEntity
  8
0
  6
ByBlock
 62
     0
370
    -2
100
AcDbLine
 10
-1.0
 20
0.267949
 30
0.0
 11
0.0
 21
0.0
 31
0.0
  0
LINE
  5
69A
330
697
100
AcDbEntity
  8
0
  6
ByBlock
 62
     0
370
    -2
100
AcDbLine
 10
0.0
 20
0.0
 30
0.0
 11
-1.0
 21
-0.267949
 31
0.0
  0
LINE
  5
69B
330
697
100
AcDbEntity
  8
0
  6
ByBlock
 62
     0
370
    -2
100
AcDbLine
 10
0.0
 20
0.0
 30
0.0
 11
-1.0
 21
0.0
 31
0.0
  0
ENDBLK
  5
69C
330
697
100
AcDbEntity
  8
0
  6
ByBlock
 62
     0
370
    -2
100
AcDbBlockEnd
  0
BLOCK
  5
32F2
330
32F1
100
AcDbEntity
  8
0
100
AcDbBlockBegin
  2
_None
 70
     0
 10
0.0
 20
0.0
 30
0.0
  3
_None
  1

  0
ENDBLK
  5
32F3
330
32F1
100
AcDbEntity
  8
0
100
AcDbBlockEnd
  0
BLOCK
  5
34B2
330
34B1
100
AcDbEntity
  8
0
100
AcDbBlockBegin
  2
_OPEN
 70
     0
 10
0.0
 20
0.0
 30
0.0
  3
_OPEN
  1

  0
LINE
  5
34B3
330
34B1
100
AcDbEntity
  8
0
  6
ByBlock
 62
     0
100
AcDbLine
 10
0.0
 20
0.0
 30
0.0
 11
-1.0
 21
0.1766666667
 31
0.0
  0
LINE
  5
34B4
330
34B1
100
AcDbEntity
  8
0
  6
ByBlock
 62
     0
100
AcDbLine
 10
-1.0
 20
-0.1766666667
 30
0.0
 11
0.0
 21
0.0
 31
0.0
  0
LINE
  5
34B5
330
34B1
100
AcDbEntity
  8
0
  6
ByBlock
 62
     0
100
AcDbLine
 10
-1.0
 20
0.0
 30
0.0
 11
0.0
 21
0.0
 31
0.0
  0
ENDBLK
  5
34B6
330
34B1
100
AcDbEntity
  8
0
  6
ByBlock
 62
     0
100
AcDbBlockEnd
  0
BLOCK
  5
54578
330
5456E
100
AcDbEntity
  8
0
100
AcDbBlockBegin
  2
*D5
 70
     1
 10
0.0
 20
0.0
 30
0.0
  3
*D5
  1

  0
LINE
  5
54625
330
5456E
100
AcDbEntity
  8
sk2
100
AcDbLine
 10
3.999999999999971
 20
12.70000000199991
 30
0.0
 11
-14.90629649230001
 21
12.70000000199991
 31
0.0
  0
LINE
  5
54626
330
5456E
100
AcDbEntity
  8
sk2
100
AcDbLine
 10
3.999999999999971
 20
-12.69999999800018
 30
0.0
 11
-14.90629649230002
 21
-12.69999999800017
 31
0.0
  0
LINE
  5
54627
330
5456E
100
AcDbEntity
  8
sk2
100
AcDbLine
 10
-13.40629649230001
 20
9.200000001999915
 30
0.0
 11
-13.40629649230002
 21
-9.199999998000173
 31
0.0
  0
SOLID
  5
54628
330
5456E
100
AcDbEntity
  8
sk2
100
AcDbTrace
 10
-13.98962982563334
 20
9.200000001999915
 30
0.0
 11
-12.82296315896668
 21
9.200000001999915
 31
0.0
 12
-13.40629649230001
 22
12.70000000199991
 32
0.0
 13
-13.40629649230001
 23
12.70000000199991
 33
0.0
  0
SOLID
  5
54629
330
5456E
100
AcDbEntity
  8
sk2
100
AcDbTrace
 10
-13.98962982563335
 20
-9.199999998000173
 30
0.0
 11
-12.82296315896668
 21
-9.199999998000173
 31
0.0
 12
-13.40629649230002
 22
-12.69999999800017
 32
0.0
 13
-13.40629649230002
 23
-12.69999999800017
 33
0.0
  0
MTEXT
  5
5462A
330
5456E
100
AcDbEntity
  8
sk2
100
AcDbMText
 10
-19.20629649230001
 20
0.0000000019998657
 30
0.0
 40
3.5
 41
0.0
 71
     2
 72
     1
  1
\A1;%%c25.4
  7
simplex
 11
0.0000000000000001
 21
1.0
 31
0.0
 73
     1
 44
1.0
1001
ACAD
1000
MTEXTBEGIN
1070
    73
1070
     1
1070
    44
1040
1.0
1070
    74
1070
     0
1000
MTEXTEND
  0
POINT
  5
5462B
330
5456E
100
AcDbEntity
  8
Defpoints
 62
     0
100
AcDbPoint
 10
3.999999999999971
 20
12.70000000199991
 30
0.0
  0
POINT
  5
5462C
330
5456E
100
AcDbEntity
  8
Defpoints
 62
     0
100
AcDbPoint
 10
3.999999999999971
 20
-12.69999999800018
 30
0.0
  0
POINT
  5
5462D
330
5456E
100
AcDbEntity
  8
Defpoints
 62
     0
100
AcDbPoint
 10
-13.40629649230002
 20
-12.69999999800017
 30
0.0
  0
ENDBLK
  5
54579
330
5456E
100
AcDbEntity
  8
0
100
AcDbBlockEnd
  0
BLOCK
  5
55D7D
330
55D73
100
AcDbEntity
  8
0
100
AcDbBlockBegin
  2
*D6
 70
     1
 10
0.0
 20
0.0
 30
0.0
  3
*D6
  1

  0
LINE
  5
55E6A
330
55D73
100
AcDbEntity
  8
2
100
AcDbLine
 10
50.79999999999998
 20
21.40000000000001
 30
0.0
 11
50.79999999999998
 21
45.27020700849994
 31
0.0
  0
LINE
  5
55E6B
330
55D73
100
AcDbEntity
  8
2
100
AcDbLine
 10
30.40000000000001
 20
25.40534767889005
 30
0.0
 11
30.40000000000001
 21
45.27020700849994
 31
0.0
  0
LINE
  5
55E6C
330
55D73
100
AcDbEntity
  8
2
100
AcDbLine
 10
47.29999999999998
 20
43.77020700849993
 30
0.0
 11
33.90000000000001
 21
43.77020700849993
 31
0.0
  0
LINE
  5
55E6D
330
55D73
100
AcDbEntity
  8
2
100
AcDbLine
 10
30.40000000000001
 20
43.77020700849993
 30
0.0
 11
-24.36666666666666
 21
43.77020700849993
 31
0.0
  0
SOLID
  5
55E6E
330
55D73
100
AcDbEntity
  8
2
100
AcDbTrace
 10
47.29999999999998
 20
44.35354034183327
 30
0.0
 11
47.29999999999998
 21
43.1868736751666
 31
0.0
 12
50.79999999999998
 22
43.77020700849993
 32
0.0
 13
50.79999999999998
 23
43.77020700849993
 33
0.0
  0
SOLID
  5
55E6F
330
55D73
100
AcDbEntity
  8
2
100
AcDbTrace
 10
33.90000000000001
 20
44.35354034183327
 30
0.0
 11
33.90000000000001
 21
43.1868736751666
 31
0.0
 12
30.40000000000001
 22
43.77020700849993
 32
0.0
 13
30.40000000000001
 23
43.77020700849993
 33
0.0
  0
MTEXT
  5
55E70
330
55D73
100
AcDbEntity
  8
2
100
AcDbMText
 10
1.266666666666673
 20
47.82020700849993
 30
0.0
 40
3.5
 41
0.0
 71
     5
 72
     1
  1
\A1;20.4 [.803"](MAX)
  7
simplex
 73
     1
 44
1.0
1001
ACAD
1000
MTEXTBEGIN
1070
    73
1070
     1
1070
    44
1040
1.0
1070
    74
1070
     0
1000
MTEXTEND
  0
POINT
  5
55E71
330
55D73
100
AcDbEntity
  8
Defpoints
 62
     0
100
AcDbPoint
 10
50.79999999999998
 20
21.40000000000001
 30
0.0
  0
POINT
  5
55E72
330
55D73
100
AcDbEntity
  8
Defpoints
 62
     0
100
AcDbPoint
 10
30.40000000000001
 20
25.40534767889005
 30
0.0
  0
POINT
  5
55E73
330
55D73
100
AcDbEntity
  8
Defpoints
 62
     0
100
AcDbPoint
 10
30.40000000000001
 20
43.77020700849993
 30
0.0
  0
ENDBLK
  5
55D7E
330
55D73
100
AcDbEntity
  8
0
100
AcDbBlockEnd
  0
BLOCK
  5
55D89
330
55D7F
100
AcDbEntity
  8
0
100
AcDbBlockBegin
  2
*D7
 70
     1
 10
0.0
 20
0.0
 30
0.0
  3
*D7
  1

  0
LINE
  5
55DFF
330
55D7F
100
AcDbEntity
  8
2
100
AcDbLine
 10
50.79999999999998
 20
20.83405712064139
 30
0.0
 11
50.79999999999998
 21
57.56940020724286
 31
0.0
  0
LINE
  5
55E00
330
55D7F
100
AcDbEntity
  8
2
100
AcDbLine
 10
0.0
 20
22.315
 30
0.0
 11
0.0000000000000022
 21
57.56940020724286
 31
0.0
  0
LINE
  5
55E01
330
55D7F
100
AcDbEntity
  8
2
100
AcDbLine
 10
47.29999999999998
 20
56.06940020724286
 30
0.0
 11
3.500000000000001
 21
56.06940020724286
 31
0.0
  0
SOLID
  5
55E02
330
55D7F
100
AcDbEntity
  8
2
100
AcDbTrace
 10
47.29999999999998
 20
56.6527335405762
 30
0.0
 11
47.29999999999998
 21
55.48606687390953
 31
0.0
 12
50.79999999999998
 22
56.06940020724286
 32
0.0
 13
50.79999999999998
 23
56.06940020724286
 33
0.0
  0
SOLID
  5
55E03
330
55D7F
100
AcDbEntity
  8
2
100
AcDbTrace
 10
3.500000000000001
 20
56.6527335405762
 30
0.0
 11
3.500000000000001
 21
55.48606687390953
 31
0.0
 12
0.0000000000000021
 22
56.06940020724286
 32
0.0
 13
0.0000000000000021
 23
56.06940020724286
 33
0.0
  0
MTEXT
  5
55E04
330
55D7F
100
AcDbEntity
  8
2
100
AcDbMText
 10
25.40000000000001
 20
60.11940020724286
 30
0.0
 40
3.5
 41
0.0
 71
     5
 72
     1
  1
\A1;50.8 [2.000"]
  7
simplex
 73
     1
 44
1.0
1001
ACAD
1000
MTEXTBEGIN
1070
    73
1070
     1
1070
    44
1040
1.0
1070
    74
1070
     0
1000
MTEXTEND
  0
POINT
  5
55E05
330
55D7F
100
AcDbEntity
  8
Defpoints
 62
     0
100
AcDbPoint
 10
50.79999999999998
 20
20.83405712064139
 30
0.0
  0
POINT
  5
55E06
330
55D7F
100
AcDbEntity
  8
Defpoints
 62
     0
100
AcDbPoint
 10
0.0
 20
22.315
 30
0.0
  0
POINT
  5
55E07
330
55D7F
100
AcDbEntity
  8
Defpoints
 62
     0
100
AcDbPoint
 10
0.0000000000000021
 20
56.06940020724286
 30
0.0
  0
ENDBLK
  5
55D8A
330
55D7F
100
AcDbEntity
  8
0
100
AcDbBlockEnd
  0
BLOCK
  5
55D95
330
55D8B
100
AcDbEntity
  8
0
100
AcDbBlockBegin
  2
*D8
 70
     1
 10
0.0
 20
0.0
 30
0.0
  3
*D8
  1

  0
LINE
  5
55E08
330
55D8B
100
AcDbEntity
  8
sk2
100
AcDbLine
 10
1.5
 20
-23.81500000009999
 30
0.0
 11
-27.42137360576374
 21
-23.81500000009998
 31
0.0
  0
LINE
  5
55E09
330
55D8B
100
AcDbEntity
  8
sk2
100
AcDbLine
 10
1.5
 20
23.815
 30
0.0
 11
-27.42137360576373
 21
23.815
 31
0.0
  0
LINE
  5
55E0A
330
55D8B
100
AcDbEntity
  8
sk2
100
AcDbLine
 10
-25.92137360576374
 20
-20.31500000009998
 30
0.0
 11
-25.92137360576373
 21
20.31500000000001
 31
0.0
  0
SOLID
  5
55E0B
330
55D8B
100
AcDbEntity
  8
sk2
100
AcDbTrace
 10
-26.50470693909707
 20
-20.31500000009998
 30
0.0
 11
-25.33804027243041
 21
-20.31500000009998
 31
0.0
 12
-25.92137360576374
 22
-23.81500000009998
 32
0.0
 13
-25.92137360576374
 23
-23.81500000009998
 33
0.0
  0
SOLID
  5
55E0C
330
55D8B
100
AcDbEntity
  8
sk2
100
AcDbTrace
 10
-26.50470693909706
 20
20.31500000000001
 30
0.0
 11
-25.3380402724304
 21
20.31500000000001
 31
0.0
 12
-25.92137360576373
 22
23.815
 32
0.0
 13
-25.92137360576373
 23
23.815
 33
0.0
  0
MTEXT
  5
55E0D
330
55D8B
100
AcDbEntity
  8
sk2
100
AcDbMText
 10
-29.97137360576373
 20
-0.0000000000499917
 30
0.0
 40
3.5
 41
0.0
 71
     5
 72
     1
  1
\A1;%%c47.63 [%%C1.875"]
  7
simplex
 11
0.0000000000000001
 21
1.0
 31
0.0
 73
     1
 44
1.0
1001
ACAD
1000
MTEXTBEGIN
1070
    73
1070
     1
1070
    44
1040
1.0
1070
    74
1070
     0
1000
MTEXTEND
  0
POINT
  5
55E0E
330
55D8B
100
AcDbEntity
  8
Defpoints
 62
     0
100
AcDbPoint
 10
1.5
 20
-23.81500000009999
 30
0.0
  0
POINT
  5
55E0F
330
55D8B
100
AcDbEntity
  8
Defpoints
 62
     0
100
AcDbPoint
 10
1.5
 20
23.815
 30
0.0
  0
POINT
  5
55E10
330
55D8B
100
AcDbEntity
  8
Defpoints
 62
     0
100
AcDbPoint
 10
-25.92137360576373
 20
23.815
 30
0.0
  0
ENDBLK
  5
55D96
330
55D8B
100
AcDbEntity
  8
0
100
AcDbBlockEnd
  0
BLOCK
  5
55DA1
330
55D97
100
AcDbEntity
  8
0
100
AcDbBlockBegin
  2
*D9
 70
     1
 10
0.0
 20
0.0
 30
0.0
  3
*D9
  1

  0
LINE
  5
55E11
330
55D97
100
AcDbEntity
  8
sk2
100
AcDbLine
 10
1.199999999999988
 20
-9.525000000000003
 30
0.0
 11
-12.87322644166682
 21
-9.525000000000002
 31
0.0
  0
LINE
  5
55E12
330
55D97
100
AcDbEntity
  8
sk2
100
AcDbLine
 10
1.199999999999988
 20
9.525000000000003
 30
0.0
 11
-12.87322644166681
 21
9.525000000000007
 31
0.0
  0
LINE
  5
55E13
330
55D97
100
AcDbEntity
  8
sk2
100
AcDbLine
 10
-11.37322644166681
 20
-6.025000000000002
 30
0.0
 11
-11.37322644166681
 21
6.025000000000008
 31
0.0
  0
SOLID
  5
55E14
330
55D97
100
AcDbEntity
  8
sk2
100
AcDbTrace
 10
-11.95655977500015
 20
-6.025000000000002
 30
0.0
 11
-10.78989310833348
 21
-6.025000000000002
 31
0.0
 12
-11.37322644166681
 22
-9.525000000000003
 32
0.0
 13
-11.37322644166681
 23
-9.525000000000003
 33
0.0
  0
SOLID
  5
55E15
330
55D97
100
AcDbEntity
  8
sk2
100
AcDbTrace
 10
-11.95655977500015
 20
6.025000000000008
 30
0.0
 11
-10.78989310833348
 21
6.025000000000008
 31
0.0
 12
-11.37322644166681
 22
9.525000000000007
 32
0.0
 13
-11.37322644166681
 23
9.525000000000007
 33
0.0
  0
MTEXT
  5
55E16
330
55D97
100
AcDbEntity
  8
sk2
100
AcDbMText
 10
-15.42322644166681
 20
0.0000000000000012
 30
0.0
 40
3.5
 41
0.0
 71
     5
 72
     1
  1
\A1;%%c19.05 [%%C.750"]
  7
simplex
 11
0.0000000000000001
 21
1.0
 31
0.0
 73
     1
 44
1.0
1001
ACAD
1000
MTEXTBEGIN
1070
    73
1070
     1
1070
    44
1040
1.0
1070
    74
1070
     0
1000
MTEXTEND
  0
POINT
  5
55E17
330
55D97
100
AcDbEntity
  8
Defpoints
 62
     0
100
AcDbPoint
 10
1.199999999999988
 20
-9.525000000000003
 30
0.0
  0
POINT
  5
55E18
330
55D97
100
AcDbEntity
  8
Defpoints
 62
     0
100
AcDbPoint
 10
1.199999999999988
 20
9.525000000000003
 30
0.0
  0
POINT
  5
55E19
330
55D97
100
AcDbEntity
  8
Defpoints
 62
     0
100
AcDbPoint
 10
-11.37322644166681
 20
9.525000000000007
 30
0.0
  0
ENDBLK
  5
55DA2
330
55D97
100
AcDbEntity
  8
0
100
AcDbBlockEnd
  0
BLOCK
  5
55DAD
330
55DA3
100
AcDbEntity
  8
0
100
AcDbBlockBegin
  2
*D10
 70
     1
 10
0.0
 20
0.0
 30
0.0
  3
*D10
  1

  0
LINE
  5
55E3D
330
55DA3
100
AcDbEntity
  8
sk2
100
AcDbLine
 10
19.0
 20
-9.599999999999994
 30
0.0
 11
19.0
 21
-45.09172627716725
 31
0.0
  0
LINE
  5
55E3E
330
55DA3
100
AcDbEntity
  8
sk2
100
AcDbLine
 10
0.0
 20
-20.9999970826
 30
0.0
 11
-0.0000000000000015
 21
-45.09172627716725
 31
0.0
  0
LINE
  5
55E3F
330
55DA3
100
AcDbEntity
  8
sk2
100
AcDbLine
 10
3.499999999999998
 20
-43.59172627716725
 30
0.0
 11
15.5
 21
-43.59172627716725
 31
0.0
  0
LINE
  5
55E40
330
55DA3
100
AcDbEntity
  8
sk2
100
AcDbLine
 10
19.0
 20
-43.59172627716725
 30
0.0
 11
55.68333333333332
 21
-43.59172627716725
 31
0.0
  0
SOLID
  5
55E41
330
55DA3
100
AcDbEntity
  8
sk2
100
AcDbTrace
 10
3.499999999999998
 20
-43.00839294383393
 30
0.0
 11
3.499999999999998
 21
-44.17505961050059
 31
0.0
 12
-0.0000000000000014
 22
-43.59172627716725
 32
0.0
 13
-0.0000000000000014
 23
-43.59172627716725
 33
0.0
  0
SOLID
  5
55E42
330
55DA3
100
AcDbEntity
  8
sk2
100
AcDbTrace
 10
15.5
 20
-43.00839294383393
 30
0.0
 11
15.5
 21
-44.17505961050059
 31
0.0
 12
19.0
 22
-43.59172627716725
 32
0.0
 13
19.0
 23
-43.59172627716725
 33
0.0
  0
MTEXT
  5
55E43
330
55DA3
100
AcDbEntity
  8
sk2
100
AcDbMText
 10
39.96666666666666
 20
-39.54172627716726
 30
0.0
 40
3.5
 41
0.0
 71
     5
 72
     1
  1
\A1;19 [.748"]
  7
simplex
 73
     1
 44
1.0
1001
ACAD
1000
MTEXTBEGIN
1070
    73
1070
     1
1070
    44
1040
1.0
1070
    74
1070
     0
1000
MTEXTEND
  0
POINT
  5
55E44
330
55DA3
100
AcDbEntity
  8
Defpoints
 62
     0
100
AcDbPoint
 10
19.0
 20
-9.599999999999994
 30
0.0
  0
POINT
  5
55E45
330
55DA3
100
AcDbEntity
  8
Defpoints
 62
     0
100
AcDbPoint
 10
0.0
 20
-20.9999970826
 30
0.0
  0
POINT
  5
55E46
330
55DA3
100
AcDbEntity
  8
Defpoints
 62
     0
100
AcDbPoint
 10
-0.0000000000000014
 20
-43.59172627716725
 30
0.0
  0
ENDBLK
  5
55DAE
330
55DA3
100
AcDbEntity
  8
0
100
AcDbBlockEnd
  0
BLOCK
  5
55DB7
330
55DAF
100
AcDbEntity
  8
0
100
AcDbBlockBegin
  2
*D11
 70
     1
 10
0.0
 20
0.0
 30
0.0
  3
*D11
  1

  0
LINE
  5
55E23
330
55DAF
100
AcDbEntity
  8
2
100
AcDbLine
 10
46.71851137848256
 20
25.40000000000001
 30
0.0
 11
74.37148302724597
 21
25.4
 31
0.0
  0
LINE
  5
55E24
330
55DAF
100
AcDbEntity
  8
2
100
AcDbLine
 10
72.87148302724597
 20
21.9
 30
0.0
 11
72.87148302724597
 21
-25.40000000000001
 31
0.0
  0
SOLID
  5
55E25
330
55DAF
100
AcDbEntity
  8
2
100
AcDbTrace
 10
72.28814969391264
 20
21.9
 30
0.0
 11
73.4548163605793
 21
21.9
 31
0.0
 12
72.87148302724597
 22
25.4
 32
0.0
 13
72.87148302724597
 23
25.4
 33
0.0
  0
MTEXT
  5
55E26
330
55DAF
100
AcDbEntity
  8
2
100
AcDbMText
 10
68.82148302724598
 20
-1.750000000000006
 30
0.0
 40
3.5
 41
0.0
 71
     5
 72
     1
  1
\A1;%%c50.8 [%%C2.000"]
  7
simplex
 11
0.0000000000000001
 21
1.0
 31
0.0
 73
     1
 44
1.0
1001
ACAD
1000
MTEXTBEGIN
1070
    73
1070
     1
1070
    44
1040
1.0
1070
    74
1070
     0
1000
MTEXTEND
  0
POINT
  5
55E27
330
55DAF
100
AcDbEntity
  8
Defpoints
 62
     0
100
AcDbPoint
 10
46.71851137848256
 20
25.40000000000001
 30
0.0
  0
POINT
  5
55E28
330
55DAF
100
AcDbEntity
  8
Defpoints
 62
     0
100
AcDbPoint
 10
49.5593173105
 20
-25.40000000000001
 30
0.0
  0
POINT
  5
55E29
330
55DAF
100
AcDbEntity
  8
Defpoints
 62
     0
100
AcDbPoint
 10
72.87148302724597
 20
-25.40000000000001
 30
0.0
  0
ENDBLK
  5
55DB8
330
55DAF
100
AcDbEntity
  8
0
100
AcDbBlockEnd
  0
ENDSEC
  0
SECTION
  2
ENTITIES
  0
INSERT
  5
68C
330
1F
100
AcDbEntity
  8
0
100
AcDbBlockReference
  2
zero block
 10
0.0000000000000072
 20
0.0
 30
0.0
 50
180.0
  0
TEXT
  5
55C5E
330
1F
100
AcDbEntity
  8
6
100
AcDbText
 10
-8.618861757377089
 20
74.01290213494206
 30
0.0
 40
5.0
  1
AXD7000UR0203B
  7
simplex
100
AcDbText
  0
DIMENSION
  5
55C5F
330
1F
100
AcDbEntity
  8
2
100
AcDbDimension
  2
*D6
 10
30.40000000000001
 20
43.77020700849993
 30
0.0
 11
1.266666666666672
 21
43.77020700849993
 31
0.0
 70
   160
  1
<>(MAX)
 71
     5
 42
20.39999999999997
  3
\M+18352\M+18373\M+1815B - ISO-25
100
AcDbAlignedDimension
 13
50.79999999999998
 23
21.40000000000001
 33
0.0
 14
30.40000000000001
 24
25.40534767889005
 34
0.0
 50
180.0
100
AcDbRotatedDimension
1001
ACAD
1000
DSTYLE
1002
{
1070
     4
1000
"
1070
    40
1040
1.0
1070
   143
1040
0.03937
1070
   170
1070
     1
1070
   171
1070
     3
1070
   271
1070
     8
1070
   285
1070
     4
1002
}
  0
DIMENSION
  5
55C60
330
1F
100
AcDbEntity
  8
2
100
AcDbDimension
  2
*D7
 10
0.0000000000000021
 20
56.06940020724286
 30
0.0
 11
25.40000000000001
 21
56.06940020724286
 31
0.0
 70
   160
 71
     5
 42
50.79999999999998
  3
\M+18352\M+18373\M+1815B - ISO-25
100
AcDbAlignedDimension
 13
50.79999999999998
 23
20.83405712064139
 33
0.0
 14
0.0
 24
22.315
 34
0.0
 50
180.0
100
AcDbRotatedDimension
1001
ACAD
1000
DSTYLE
1002
{
1070
     4
1000
"
1070
    40
1040
1.0
1070
   143
1040
0.03937
1070
   170
1070
     1
1070
   171
1070
     3
1070
   271
1070
     8
1070
   285
1070
     4
1002
}
  0
LWPOLYLINE
  5
55C61
330
1F
100
AcDbEntity
  8
1
100
AcDbPolyline
 90
       19
 70
     0
 43
0.0
 10
29.39121141089998
 20
18.70951412498277
 42
0.0213680959079627
 10
29.40211275994869
 20
18.45775455103217
 42
0.0216512811983941
 10
29.43460501843998
 20
18.20779448830671
 42
0.021617216143082
 10
29.4885847461851
 20
17.96158792060747
 42
0.0215993365003403
 10
29.56361219317563
 20
17.7209650275273
 42
0.0216583926629451
 10
29.65914001066801
 20
17.48771724809704
 42
0.0216695471381746
 10
29.77449770274887
 20
17.26361321838846
 42
0.0217222657075076
 10
29.90884478482531
 20
17.05035179604059
 42
0.0217570567462339
 10
30.06119550093831
 20
16.84955645780241
 42
0.0217853930673715
 10
30.2304368652787
 20
16.6627763216158
 42
0.021854267583035
 10
30.41531147353516
 20
16.49145628935137
 42
0.0218760360579426
 10
30.61443729173942
 20
16.33693103065757
 42
0.0219144097164017
 10
30.82631972151729
 20
16.20042268788408
 42
0.0219767595558055
 10
31.0493502575803
 20
16.0830067117805
 42
0.0219803374679775
 10
31.28182646823979
 20
15.98561952797422
 42
0.0220203529731901
 10
31.52195551946539
 20
15.90905050206379
 42
0.0220562954718515
 10
31.76790573966127
 20
15.85390488519681
 42
0.0220465796168171
 10
32.01777350928995
 20
15.8206334702347
 42
0.0220489318226895
 10
32.26959525059996
 20
15.8095169331828
  0
LWPOLYLINE
  5
55C62
330
1F
100
AcDbEntity
  8
1
100
AcDbPolyline
 90
       19
 70
     0
 43
0.0
 10
29.39121141089998
 20
18.70951412498277
 42
-0.0213680959074543
 10
29.40211275994972
 20
18.96127369894509
 42
-0.0216512811957988
 10
29.43460501844413
 20
19.2112337616821
 42
-0.0216172161384093
 10
29.48858474619419
 20
19.45744032939223
 42
-0.0215993365011353
 10
29.5636121931916
 20
19.69806322248256
 42
-0.0216583926674943
 10
29.65914001069263
 20
19.93131100192189
 42
-0.0216695471304486
 10
29.77449770278389
 20
20.1554150316384
 42
-0.0217222657035967
 10
29.9088447848722
 20
20.36867645399269
 42
-0.0217570567341858
 10
30.06119550099839
 20
20.56947179223556
 42
-0.0217853930750757
 10
30.23043686535312
 20
20.75625192842499
 42
-0.0218542675966734
 10
30.41531147362468
 20
20.9275719606905
 42
-0.0218760360292831
 10
30.61443729184509
 20
21.08209721938289
 42
-0.021914409715155
 10
30.82631972163938
 20
21.21860556215151
 42
-0.0219767595526421
 10
31.04935025771778
 20
21.33602153825279
 42
-0.0219803374770411
 10
31.28182646839468
 20
21.43340872204998
 42
-0.0220203529690616
 10
31.52195551963874
 20
21.50997774793182
 42
-0.0220562953710013
 10
31.76790573984198
 20
21.56512336482899
 42
-0.0220465796964915
 10
32.01777350947557
 20
21.59839477985071
 42
-0.0220489320176256
 10
32.26959525079998
 20
21.6095113167828
  0
LWPOLYLINE
  5
55C63
330
1F
100
AcDbEntity
  8
1
100
AcDbPolyline
 90
       33
 70
     0
 43
0.0
 10
30.00068517670002
 20
18.70951412498277
 42
-0.0239976579681956
 10
30.01115242119567
 20
18.92430000678239
 42
-0.0243841160176329
 10
30.04231987882389
 20
19.1371359767948
 42
-0.0243257295951794
 10
30.09404267477413
 20
19.34592188214572
 42
-0.0243040027714873
 10
30.16579087536917
 20
19.54869504866916
 42
-0.0243979797576643
 10
30.25690798049777
 20
19.74353737623385
 42
-0.0244061406162074
 10
30.36657454631393
 20
19.92857519337905
 42
-0.0244629827824764
 10
30.4937785673377
 20
20.10202429713157
 42
-0.0245370385845833
 10
30.6373320186903
 20
20.26220428982236
 42
-0.0245572375456749
 10
30.7958939088947
 20
20.40754316753288
 42
-0.024628822202538
 10
30.96796640737432
 20
20.53660145310248
 42
-0.0246921293463775
 10
31.15190395491862
 20
20.64809912277832
 42
-0.0247045441137175
 10
31.34594141600269
 20
20.74091231384651
 42
-0.0247675266929522
 10
31.54819915856029
 20
20.81409946368546
 42
-0.0248046140042241
 10
31.75670368286001
 20
20.86692266586101
 42
-0.0247943797125389
 10
31.96941497560897
 20
20.89883599559579
 42
-0.0248335962139752
 10
32.18424137990118
 20
20.90951105430042
 42
-0.024833570198263
 10
32.39906828950438
 20
20.89884497791723
 42
-0.0247943871859913
 10
32.61178090275098
 20
20.86694053322441
 42
-0.0248046558475382
 10
32.82028761969838
 20
20.81412604356007
 42
-0.0247675164881778
 10
33.02254850367183
 20
20.74094729405487
 42
-0.0247045645064924
 10
33.21658979482732
 20
20.64814218566789
 42
-0.0246921800296995
 10
33.40053199207188
 20
20.53665214734758
 42
-0.0246288213062471
 10
33.57260992212241
 20
20.40760092520532
 42
-0.0245572636224563
 10
33.7311777706687
 20
20.26226863583972
 42
-0.0245370936270415
 10
33.87473788345268
 20
20.1020945001722
 42
-0.0244629931069184
 10
34.00194913483597
 20
19.92865047477271
 42
-0.0244060850085815
 10
34.11162292118712
 20
19.74361781683955
 42
-0.0243981748150709
 10
34.20274857735163
 20
19.54877798790409
 42
-0.0243044191917741
 10
34.27450605429996
 20
19.34600417537557
 42
-0.0243238349558344
 10
34.32623376312893
 20
19.13723653984848
 42
-0.0243867503090091
 10
34.35741325440279
 20
18.92437976911394
 42
-0.0240066530207431
 10
34.36788824389998
 20
18.70951412498277
  0
LWPOLYLINE
  5
55C64
330
1F
100
AcDbEntity
  8
1
100
AcDbPolyline
 90
       33
 70
     0
 43
0.0
 10
30.00068517670002
 20
18.70951412498277
 42
0.0239976579614286
 10
30.01115242119567
 20
18.49472824318336
 42
0.0243841160223373
 10
30.04231987882377
 20
18.28189227317119
 42
0.0243257295988949
 10
30.09404267477385
 20
18.07310636782051
 42
0.0243040027817597
 10
30.16579087536888
 20
17.87033320129723
 42
0.02439797975
 10
30.25690798049732
 20
17.6754908737326
 42
0.0244061406087413
 10
30.36657454631324
 20
17.49045305658744
 42
0.0244629827608686
 10
30.4937785673369
 20
17.31700395283507
 42
0.0245370385860928
 10
30.63733201868911
 20
17.15682396014441
 42
0.0245572375531726
 10
30.79589390889328
 20
17.01148508243386
 42
0.0246288222145685
 10
30.96796640737273
 20
16.88242679686419
 42
0.0246921293253715
 10
31.15190395491663
 20
16.77092912718831
 42
0.02470454411144
 10
31.34594141600047
 20
16.67811593612008
 42
0.0247675266877728
 10
31.54819915855779
 20
16.6049287862809
 42
0.024804614010466
 10
31.75670368285728
 20
16.55210558410511
 42
0.0247943797237872
 10
31.96941497560596
 20
16.5201922543701
 42
0.024833596221495
 10
32.18424137989803
 20
16.50951719566517
 42
0.0248335701856514
 10
32.39906828950097
 20
16.52018327204809
 42
0.0247943871805199
 10
32.61178090274737
 20
16.5520877167405
 42
0.0248046558349791
 10
32.8202876196948
 20
16.60490220640439
 42
0.0247675164757924
 10
33.02254850366799
 20
16.67808095590908
 42
0.0247045645119758
 10
33.21658979482351
 20
16.77088606429576
 42
0.0246921800333239
 10
33.40053199206861
 20
16.88237610261541
 42
0.0246288213148656
 10
33.57260992211883
 20
17.01142732475756
 42
0.0245572636025117
 10
33.73117777066409
 20
17.15675961412307
 42
0.0245370936071902
 10
33.87473788345352
 20
17.3169337497868
 42
0.0244629931535926
 10
34.0019491348308
 20
17.4903777751903
 42
0.0244060849986026
 10
34.11162292115188
 20
17.67541043313906
 42
0.0243981747200394
 10
34.20274857732215
 20
17.87025026207389
 42
0.0243044191892238
 10
34.27450605430164
 20
18.07302407459122
 42
0.0243238349812237
 10
34.32623376313228
 20
18.28179171011646
 42
0.0243867502888847
 10
34.35741325440158
 20
18.49464848085187
 42
0.0240066530195174
 10
34.36788824389998
 20
18.70951412498277
  0
LWPOLYLINE
  5
55C65
330
1F
100
AcDbEntity
  8
1
100
AcDbPolyline
 90
       10
 70
     0
 43
0.0
 10
40.92630635489999
 20
12.4933675674828
 42
-0.0007223734206111
 10
39.43160388035838
 20
12.4956601136297
 42
-0.0007251709919761
 10
37.93691410873632
 20
12.50229300735127
 42
-0.0006718037558368
 10
36.44224879185043
 20
12.51310238470756
 42
-0.0006347655505932
 10
34.94761689289496
 20
12.52781516122581
 42
-0.0006013157769689
 10
33.45302564691548
 20
12.54622273858598
 42
-0.0005634928302744
 10
31.95848146836719
 20
12.56811806641281
 42
-0.0005147736728526
 10
30.46398795814918
 20
12.59323653521699
 42
-0.0004916239239126
 10
28.96954698566913
 20
12.6213326286358
 42
-0.0005077673580423
 10
27.47516543649999
 20
12.65241564228279
  0
LWPOLYLINE
  5
55C66
330
1F
100
AcDbEntity
  8
1
100
AcDbPolyline
 90
       37
 70
     0
 43
0.0
 10
29.21827260939998
 20
18.6643738717828
 42
0.0135207021176554
 10
29.22925466755499
 20
18.48689868370478
 42
0.0136001689697292
 10
29.24986413129699
 20
18.31008167681227
 42
0.0135768934152655
 10
29.2800179378504
 20
18.13482747353139
 42
0.0135747245767588
 10
29.31963871804595
 20
17.96146960892707
 42
0.0135930677323646
 10
29.36861466974659
 20
17.79051781369889
 42
0.0135965939821724
 10
29.42680866561568
 20
17.62248043251598
 42
0.0136075325399178
 10
29.49405549027858
 20
17.45785683562568
 42
0.0136248346644514
 10
29.57016275855307
 20
17.29713739523921
 42
0.0136328737053985
 10
29.65491321715447
 20
17.14080312452393
 42
0.0136484462040448
 10
29.74806419805839
 20
16.98932404643778
 42
0.0136681341611917
 10
29.84934632102528
 20
16.84315658331022
 42
0.0136785715947833
 10
29.95846651499397
 20
16.70274371227838
 42
0.0136966108877824
 10
30.07510780048688
 20
16.56851338429486
 42
0.0137174622345887
 10
30.19892829432679
 20
16.44087551265408
 42
0.0137286150076226
 10
30.32956439885749
 20
16.32022252925309
 42
0.013747241439925
 10
30.46663071103012
 20
16.20692762614431
 42
0.0137675444472564
 10
30.60971973029132
 20
16.1013415761646
 42
0.0137776053354559
 10
30.75840499467898
 20
16.00379379593357
 42
0.0137949375429341
 10
30.91224130113821
 20
15.9145904038769
 42
0.0138129346936709
 10
31.07076511234811
 20
15.83401106026247
 42
0.0138201737384975
 10
31.2334976092782
 20
15.76231055273877
 42
0.0138344610180655
 10
31.39994528674464
 20
15.69971679428749
 42
0.0138485903397666
 10
31.56960104806811
 20
15.64642785785366
 42
0.0138515480006613
 10
31.74194706023798
 20
15.60261411483299
 42
0.0138613829473692
 10
31.91645576169089
 20
15.56841631755873
 42
0.0138704723422096
 10
32.09259156138393
 20
15.54394299262155
 42
0.013868137001493
 10
32.26981336678182
 20
15.52927312469256
 42
0.0138726521948058
 10
32.44757596389224
 20
15.52445446362822
 42
0.0138761213136911
 10
32.62533222775477
 20
15.52950145737088
 42
0.0138678789713291
 10
32.80253512177097
 20
15.54439830357722
 42
0.0138670516041199
 10
32.97863926516061
 20
15.56909762067892
 42
0.0138656218949641
 10
33.15310403790238
 20
15.60351966229439
 42
0.0138491336476289
 10
33.32539425167488
 20
15.64755393353772
 42
0.0138459301953745
 10
33.49498011168078
 20
15.70105837858381
 42
0.0138484420917863
 10
33.66135159154822
 20
15.76387038073699
 42
0.0137781880715062
 10
33.82383530259998
 20
15.8357018311828
  0
LWPOLYLINE
  5
55C67
330
1F
100
AcDbEntity
  8
1
100
AcDbPolyline
 90
       39
 70
     0
 43
0.0
 10
33.82383487719997
 20
21.7201344756828
 42
0.0135413042123028
 10
33.66432760220948
 20
21.79074753671836
 42
0.0135765909715495
 10
33.50122038725914
 20
21.85260939911501
 42
0.0135830102973549
 10
33.33499409444087
 20
21.90552715005356
 42
0.0135864652714472
 10
33.16613928631412
 20
21.94933897138611
 42
0.0135987948530944
 10
32.99515327647811
 20
21.9839091618553
 42
0.0136045164482734
 10
32.82254055069512
 20
22.00913216723757
 42
0.0136034529210069
 10
32.64881142097897
 20
22.0249292549964
 42
0.0136109060284991
 10
32.47448022981501
 20
22.03125162996486
 42
0.0136098988824185
 10
32.30006323511401
 20
22.02808058623759
 42
0.0136044833036177
 10
32.12607707173138
 20
22.01542486197991
 42
0.0136071555233916
 10
31.95303691895271
 20
21.99332398948241
 42
0.013599217458557
 10
31.78145443784667
 20
21.96184686834801
 42
0.0135898434670683
 10
31.61183662567351
 20
21.92108947848618
 42
0.0135877381850763
 10
31.44468337858922
 20
21.87117799154691
 42
0.0135736500461041
 10
31.2804860220549
 20
21.81226607180807
 42
0.0135612093439165
 10
31.11972643448786
 20
21.74453312336459
 42
0.0135547765637058
 10
30.96287413422798
 20
21.6681868294008
 42
0.0135840989487534
 10
30.80985217170002
 20
21.5831438250828
 42
0.0135216864610747
 10
30.66218832677837
 20
21.49026310299939
 42
0.0135117747645468
 10
30.51975864952422
 20
21.38953953870606
 42
0.0134902827435685
 10
30.38297265110128
 20
21.28127565346318
 42
0.0134757629543596
 10
30.25222234182832
 20
21.16579471773591
 42
0.0134634138306889
 10
30.12787935165824
 20
21.04344144089572
 42
0.0134413956128953
 10
30.01029633675762
 20
20.9145780823438
 42
0.0134282340128133
 10
29.89980537822368
 20
20.77958442871096
 42
0.0134147315096717
 10
29.7967157309759
 20
20.63885744621337
 42
0.013394359235262
 10
29.70131589422349
 20
20.49280795210746
 42
0.0133840323241977
 10
29.61387134875412
 20
20.34186078757301
 42
0.0133706723360705
 10
29.53462334580081
 20
20.18645370528222
 42
0.013354009183857
 10
29.46379115972133
 20
20.02703470205242
 42
0.0133475922339023
 10
29.40156925529463
 20
19.86406210703153
 42
0.0133353587423875
 10
29.34812706600837
 20
19.6980031799633
 42
0.0133247435356948
 10
29.30361150084161
 20
19.52933211309821
 42
0.0133234378928584
 10
29.2681437663424
 20
19.35852830962726
 42
0.0133087126615417
 10
29.24181800932951
 20
19.1860791438683
 42
0.0133132388970402
 10
29.22470704008009
 20
19.01247762825971
 42
0.0133245228153096
 10
29.21686473520879
 20
18.83819849624159
 42
0.0132137309968715
 10
29.21827260939998
 20
18.6643738717828
  0
LWPOLYLINE
  5
55C68
330
1F
100
AcDbEntity
  8
1
100
AcDbPolyline
 90
       58
 70
     0
 43
0.0
 10
36.11031157219998
 20
18.90888826968278
 42
0.0135816294157913
 10
36.09756230700529
 20
19.11451825491371
 42
0.0136475758540453
 10
36.0736383872011
 20
19.31916936373528
 42
0.0135950116328703
 10
36.03871520159998
 20
19.52157530968282
 42
0.0136356061392361
 10
35.99268277240521
 20
19.72240740641498
 42
0.0136543848457996
 10
35.93576426099833
 20
19.92043097519546
 42
0.0136580163734198
 10
35.86812057334888
 20
20.11505189910838
 42
0.013668639154281
 10
35.78994552590018
 20
20.30568659159621
 42
0.0136864783246258
 10
35.7014647027508
 20
20.49176198992757
 42
0.0136948593660283
 10
35.60293309697332
 20
20.67271617677321
 42
0.0137098663842499
 10
35.49463535890379
 20
20.84800011369077
 42
0.0137303184619312
 10
35.37688747335662
 20
21.01708076322072
 42
0.0137411660594932
 10
35.25003345110937
 20
21.17944110151939
 42
0.0137583548861219
 10
35.11444508082187
 20
21.33458165079428
 42
0.0137802342935571
 10
34.97052340043777
 20
21.48202420184617
 42
0.0137917880732162
 10
34.8186951407496
 20
21.62131140195032
 42
0.013809238712564
 10
34.65941225589411
 20
21.75200828668051
 42
0.0138308135781965
 10
34.49315266367449
 20
21.87370636822421
 42
0.0138412370971289
 10
34.320416696151
 20
21.98602267420449
 42
0.0138570238668632
 10
34.14172625104499
 20
22.08860125036471
 42
0.0138765075981869
 10
33.95762475362972
 20
22.18111742651291
 42
0.0138840552926983
 10
33.768673639768
 20
22.26327627870848
 42
0.0138963976728589
 10
33.57545112437521
 20
22.33481393949937
 42
0.0139121914880869
 10
33.37855133839048
 20
22.39550184855841
 42
0.0139154128061214
 10
33.1785809686142
 20
22.44514459646723
 42
0.0139228897948777
 10
32.97615767875868
 20
22.48358087466238
 42
0.0139337844478515
 10
32.77190845766552
 20
22.51068751435798
 42
0.0139794509863416
 10
32.56576163589995
 20
22.52641074828279
 42
0.0139334125073594
 10
32.359763957946
 20
22.5305911711377
 42
0.013938776537707
 10
32.15385331321889
 20
22.52328961414781
 42
0.0139310798204898
 10
31.94866901834291
 20
22.50452977482172
 42
0.0139267954825229
 10
31.74484802576163
 20
22.47437131395589
 42
0.0139265734172039
 10
31.54302203005997
 20
22.4329129846472
 42
0.0139135226823716
 10
31.34381547352271
 20
22.38028882680101
 42
0.013903793666291
 10
31.1478438211636
 20
22.31666746575438
 42
0.013898613906416
 10
30.9557102779458
 20
22.24225462188408
 42
0.0138811184837998
 10
30.768004530273
 20
22.15728899641857
 42
0.0138670681898849
 10
30.58530130995678
 20
22.06204112686169
 42
0.0138581247478088
 10
30.40815688050969
 20
21.95681525372538
 42
0.013837579359493
 10
30.23710858497179
 20
21.8419450917296
 42
0.0138208072270224
 10
30.07267378361329
 20
21.71779239253528
 42
0.0138097009323374
 10
29.91534624870741
 20
21.58474820120028
 42
0.0137878094148194
 10
29.7655965161166
 20
21.44322870095573
 42
0.0137701820724285
 10
29.62387120882102
 20
21.29367365935587
 42
0.0137587193827919
 10
29.49058942557531
 20
21.13654710745976
 42
0.0137372870656299
 10
29.36614384369952
 20
20.97233344810906
 42
0.0137207260728515
 10
29.25090037835429
 20
20.80153591300041
 42
0.0137107184356081
 10
29.14519462746227
 20
20.62467674603258
 42
0.0136914139311648
 10
29.04933362197079
 20
20.4422937114249
 42
0.0136777440106452
 10
28.96359570419674
 20
20.25493865564408
 42
0.0136708499086222
 10
28.8882271298038
 20
20.06317706682859
 42
0.0136547154936299
 10
28.82344404004527
 20
19.86758536292967
 42
0.0136459813470195
 10
28.76943289362953
 20
19.66874967472989
 42
0.0135784910321632
 10
28.72652946994128
 20
19.4682425464774
 42
0.0136276272376649
 10
28.69443738570165
 20
19.2647152428504
 42
0.0136317485620587
 10
28.67348341672323
 20
19.05974695583541
 42
0.0136453419416689
 10
28.6637363143675
 20
18.85392714892538
 42
0.013641629208744
 10
28.66523596309998
 20
18.64694803768282
  0
LWPOLYLINE
  5
55C69
330
1F
100
AcDbEntity
  8
1
100
AcDbPolyline
 90
       58
 70
     0
 43
0.0
 10
28.66523596309998
 20
18.64694803768282
 42
0.0135816295218068
 10
28.67798522819967
 20
18.44131805244387
 42
0.0136475760252425
 10
28.70190914803283
 20
18.2366669436258
 42
0.01359501153278
 10
28.73683233370002
 20
18.03426099768279
 42
0.0136356060148147
 10
28.78286476282509
 20
17.83342890093073
 42
0.0136543849550236
 10
28.8397832741561
 20
17.63540533212739
 42
0.0136580165017342
 10
28.90742696182611
 20
17.44078440822005
 42
0.0136686391839468
 10
28.98560200936442
 20
17.25014971576888
 42
0.0136864781699043
 10
29.07408283254111
 20
17.06407431744641
 42
0.0136948593706295
 10
29.17261443827861
 20
16.8831201305763
 42
0.0137098664248741
 10
29.28091217634707
 20
16.70783619365898
 42
0.0137303183517289
 10
29.39866006186639
 20
16.53875554410516
 42
0.0137411661362952
 10
29.52551408407092
 20
16.37639520577021
 42
0.0137583549680675
 10
29.66110245439177
 20
16.22125465652558
 42
0.0137802341597377
 10
29.80502413478808
 20
16.07381210548127
 42
0.0137917880553367
 10
29.9568523944358
 20
15.93452490533018
 42
0.0138092387947668
 10
30.11613527927619
 20
15.8038280205788
 42
0.0138308137057039
 10
30.28239487153582
 20
15.68212993908906
 42
0.0138412370179638
 10
30.45513083910979
 20
15.56981363318384
 42
0.0138570237479913
 10
30.63382128420818
 20
15.4672350570035
 42
0.0138765076680705
 10
30.8179227816081
 20
15.3747188808224
 42
0.0138840553230466
 10
31.00687389547679
 20
15.29256002863859
 42
0.0138963976414352
 10
31.20009641087666
 20
15.22102236786509
 42
0.0139121913767664
 10
31.39699619684973
 20
15.16033445875672
 42
0.0139154129255122
 10
31.59696656661465
 20
15.1106917107919
 42
0.0139228898800307
 10
31.79938985648198
 20
15.07225543266872
 42
0.0139337842409177
 10
32.00363907758123
 20
15.04514879298708
 42
0.013979450982141
 10
32.20978589929996
 20
15.02942555898281
 42
0.0139334126179179
 10
32.41578357725399
 20
15.02524513611007
 42
0.0139387765882717
 10
32.6216942219811
 20
15.03254669314651
 42
0.0139310798065889
 10
32.8268785168535
 20
15.05130653253194
 42
0.0139267954269084
 10
33.03069950943348
 20
15.08146499341922
 42
0.013926573345727
 10
33.23252550514428
 20
15.12292332269235
 42
0.0139135226901503
 10
33.43173206170118
 20
15.17554748047018
 42
0.0139037937409801
 10
33.62770371407619
 20
15.2391688414757
 42
0.0138986140462191
 10
33.81983725727398
 20
15.31358168539759
 42
0.0138811184037369
 10
34.00754300491309
 20
15.3985473109413
 42
0.0138670680747051
 10
34.19024622524438
 20
15.49379518047641
 42
0.0138581248065681
 10
34.36739065471511
 20
15.59902105357518
 42
0.0138375794299643
 10
34.53843895024841
 20
15.7138912155807
 42
0.0138208072282774
 10
34.70287375157858
 20
15.83804391481378
 42
0.0138097008155285
 10
34.86020128649386
 20
15.9710881061423
 42
0.0137878094439851
 10
35.00995101912372
 20
16.11260760634836
 42
0.0137701821362745
 10
35.1516763264213
 20
16.26216264794749
 42
0.0137587193649973
 10
35.28495810965939
 20
16.41928919985218
 42
0.0137372870048446
 10
35.40940369155459
 20
16.58350285919009
 42
0.0137207260902925
 10
35.52464715694612
 20
16.75430039427167
 42
0.0137107185962295
 10
35.63035290781448
 20
16.93115956125267
 42
0.0136914138420158
 10
35.72621391325311
 20
17.11354259588949
 42
0.0136777439468021
 10
35.81195183106796
 20
17.3008976516574
 42
0.0136708500914049
 10
35.88732040544198
 20
17.49265924047868
 42
0.0136547153970511
 10
35.95210349514321
 20
17.68825094439755
 42
0.0136459812468864
 10
36.00611464162871
 20
17.88708663258398
 42
0.0135784912254329
 10
36.04901806534761
 20
18.08759376088936
 42
0.0136276272415476
 10
36.08111014951362
 20
18.29112106452907
 42
0.0136317484803936
 10
36.10206411847072
 20
18.49608935154946
 42
0.0136453418838962
 10
36.11181122085864
 20
18.7019091584595
 42
0.0136416291566286
 10
36.11031157219998
 20
18.90888826968278
  0
LINE
  5
55C6A
330
1F
100
AcDbEntity
  8
1
100
AcDbLine
 10
43.70019156219996
 20
11.27918661419999
 30
0.0
 11
23.79999999999999
 21
11.2791866142
 31
0.0
  0
LINE
  5
55C6B
330
1F
100
AcDbEntity
  8
1
100
AcDbLine
 10
43.07172889240002
 20
11.87956852270019
 30
0.0
 11
24.27802261990013
 21
12.01021451160019
 31
0.0
  0
LINE
  5
55C6C
330
1F
100
AcDbEntity
  8
1
100
AcDbLine
 10
49.0033600950996
 20
17.26811424128309
 30
0.0
 11
46.8138249610997
 21
13.85307795828303
 31
0.0
  0
LWPOLYLINE
  5
55C6D
330
1F
100
AcDbEntity
  8
1
100
AcDbPolyline
 90
        4
 70
     0
 43
0.0
 10
44.44382172179996
 20
12.50673340288281
 42
-0.0006533183334562
 10
43.27132978865058
 20
12.49921405514681
 42
-0.0006533125958754
 10
42.09882158505928
 20
12.49475876506557
 42
-0.0006533053241641
 10
40.92630635489999
 20
12.49336752418281
  0
LINE
  5
55C6E
330
1F
100
AcDbEntity
  8
sk3
100
AcDbLine
 10
43.07172889240002
 20
11.2791866142
 30
0.0
 11
43.07172889240002
 21
-12.8392950482
 31
0.0
  0
LWPOLYLINE
  5
55C6F
330
1F
100
AcDbEntity
  8
1
100
AcDbPolyline
 90
        7
 70
     0
 43
0.0
 10
43.70019156219996
 20
11.27918661419999
 42
-0.0110196570786486
 10
43.94859484864798
 20
10.96827027052676
 42
-0.0106852490016193
 10
44.18330933199782
 20
10.64683414344376
 42
-0.0115266023474953
 10
44.40363727031551
 20
10.31538095543125
 42
-0.0127644802018345
 10
44.6076028185291
 20
9.973620445940175
 42
-0.0139466145488777
 10
44.79302981181141
 20
9.621465174439002
 42
-0.0141630329520078
 10
44.9581376422
 20
9.259332792200003
  0
LINE
  5
55C70
330
1F
100
AcDbEntity
  8
1
100
AcDbLine
 10
43.3572227339
 20
12.4996608693358
 30
0.0
 11
43.3572227339
 21
11.2791866142
 31
0.0
  0
LINE
  5
55C71
330
1F
100
AcDbEntity
  8
1
100
AcDbLine
 10
43.07172889240002
 20
11.2791866142
 30
0.0
 11
43.07172889240002
 21
12.49823919454388
 31
0.0
  0
LINE
  5
55C72
330
1F
100
AcDbEntity
  8
1
100
AcDbLine
 10
45.75036839780028
 20
13.26673343498248
 30
0.0
 11
44.44382172150028
 21
12.50673343498248
 31
0.0
  0
LINE
  5
55C73
330
1F
100
AcDbEntity
  8
1
100
AcDbLine
 10
46.81382496109978
 20
13.85307795828322
 30
0.0
 11
45.75036839779982
 21
13.2667334349833
 31
0.0
  0
LWPOLYLINE
  5
55C74
330
1F
100
AcDbEntity
  8
1
100
AcDbPolyline
 90
       19
 70
     0
 43
0.0
 10
39.42927010789995
 20
18.9389745964828
 42
0.02136809586384
 10
39.44017145697143
 20
18.68721502253684
 42
0.0216512811162878
 10
39.4726637154314
 20
18.43725495980919
 42
0.0216172161616173
 10
39.52664344311947
 20
18.19104839209989
 42
0.0215993365498441
 10
39.6016708901083
 20
17.95042549902517
 42
0.0216583926122629
 10
39.69719870760696
 20
17.71717771959998
 42
0.0216695471243038
 10
39.81255639966173
 20
17.49307368988047
 42
0.0217222657479416
 10
39.94690348172588
 20
17.27981226752973
 42
0.021757056747607
 10
40.09925419784297
 20
17.07901692929857
 42
0.0217853930628549
 10
40.26849556218279
 20
16.89223679311701
 42
0.0218542675793096
 10
40.45337017042895
 20
16.72091676084356
 42
0.021876036107488
 10
40.65249598863789
 20
16.56639150216008
 42
0.0219144097294929
 10
40.86437841844809
 20
16.42988315945108
 42
0.0219767593976394
 10
41.0874089545087
 20
16.31246718334049
 42
0.0219803375122069
 10
41.3198851651419
 20
16.21507999947391
 42
0.0220203530806634
 10
41.56001421637596
 20
16.1385109736223
 42
0.0220562953178694
 10
41.80596443657861
 20
16.08336535678506
 42
0.0220465795931659
 10
42.05583220619547
 20
16.05009394174618
 42
0.0220489319144925
 10
42.30765394749997
 20
16.03897740468277
  0
LWPOLYLINE
  5
55C75
330
1F
100
AcDbEntity
  8
1
100
AcDbPolyline
 90
        4
 70
     0
 43
0.0
 10
41.11944311679997
 20
19.90663875498279
 42
0.0220729940189349
 10
41.17737987789586
 20
19.893458964324
 42
0.0224227932096295
 10
41.23628269558508
 20
19.8854703654928
 42
0.0223735997154051
 10
41.29567214089997
 20
19.88280708828282
  0
LWPOLYLINE
  5
55C76
330
1F
100
AcDbEntity
  8
1
100
AcDbPolyline
 90
       19
 70
     0
 43
0.0
 10
39.42927010789995
 20
18.9389745964828
 42
-0.0213680958732959
 10
39.44017145696385
 20
19.19073417044494
 42
-0.0216512811242515
 10
39.4726637154206
 20
19.44069423318859
 42
-0.021617216151958
 10
39.52664344310671
 20
19.68690080091384
 42
-0.0215993365625426
 10
39.60167089008911
 20
19.9275236940088
 42
-0.0216583926718724
 10
39.69719870760761
 20
20.16077147344168
 42
-0.0216695470961163
 10
39.81255639970289
 20
20.3848755031558
 42
-0.0217222656754309
 10
39.94690348175647
 20
20.59813692553621
 42
-0.0217570568392451
 10
40.09925419786707
 20
20.79893226379098
 42
-0.0217853930843235
 10
40.26849556225971
 20
20.98571239994146
 42
-0.0218542674615145
 10
40.45337017052145
 20
21.15703243222617
 42
-0.0218760361267853
 10
40.65249598871239
 20
21.31155769095931
 42
-0.0219144097882651
 10
40.86437841853512
 20
21.44806603367351
 42
-0.0219767593954439
 10
41.0874089546196
 20
21.56548200977448
 42
-0.0219803375103033
 10
41.31988516527086
 20
21.66286919363887
 42
-0.0220203530878861
 10
41.56001421652327
 20
21.73943821948382
 42
-0.0220562953204158
 10
41.80596443674446
 20
21.79458383630998
 42
-0.0220465795965801
 10
42.05583220637907
 20
21.82785525133557
 42
-0.0220489319189122
 10
42.30765394769995
 20
21.83897178838277
  0
LWPOLYLINE
  5
55C77
330
1F
100
AcDbEntity
  8
1
100
AcDbPolyline
 90
        4
 70
     0
 43
0.0
 10
41.29567214099995
 20
17.9951421047828
 42
0.0223655755521771
 10
41.2363035989401
 20
17.9924807087858
 42
0.0224256375057687
 10
41.17739355025778
 20
17.98449270915397
 42
0.0220781716645648
 10
41.11944311679997
 20
17.97131043808279
  0
LWPOLYLINE
  5
55C78
330
1F
100
AcDbEntity
  8
1
100
AcDbPolyline
 90
       33
 70
     0
 43
0.0
 10
40.03874387359997
 20
18.9389745964828
 42
-0.0239976579643588
 10
40.04921111809645
 20
19.15376047828639
 42
-0.0243841160107499
 10
40.08037857572435
 20
19.36659644830347
 42
-0.0243257296070236
 10
40.13210137167749
 20
19.57538235365847
 42
-0.0243040027694731
 10
40.20384957228279
 20
19.77815552018086
 42
-0.0243979796914049
 10
40.29496667739217
 20
19.97299784776129
 42
-0.0244061406777325
 10
40.40463324317999
 20
20.1580356649298
 42
-0.0244629828121435
 10
40.53183726423537
 20
20.33148476865932
 42
-0.0245370384555397
 10
40.67539071560179
 20
20.49166476134689
 42
-0.0245572375263675
 10
40.83395260577098
 20
20.63700363910459
 42
-0.024628822288659
 10
41.00602510424184
 20
20.76606192468739
 42
-0.0246921292973242
 10
41.18996265179092
 20
20.87755959436578
 42
-0.0247045441526964
 10
41.38400011287736
 20
20.97037278544201
 42
-0.0247675267468852
 10
41.58625785545448
 20
21.04355993523177
 42
-0.0248046139439189
 10
41.79476237977318
 20
21.09638313735411
 42
-0.024794379680646
 10
42.0074736725274
 20
21.12829646708689
 42
-0.0248335962222046
 10
42.22230007682372
 20
21.1389715258009
 42
-0.0248335702226292
 10
42.43712698643039
 20
21.12830544941159
 42
-0.0247943871488201
 10
42.64983959967838
 20
21.09640100471056
 42
-0.0248046557547618
 10
42.8583463166461
 20
21.04358651509437
 42
-0.0247675165626744
 10
43.06060720063777
 20
20.97040776563106
 42
-0.0247045645207714
 10
43.2546484917866
 20
20.87760265722971
 42
-0.0246921799463374
 10
43.43859068906062
 20
20.76611261893749
 42
-0.0246288214796536
 10
43.61066861911536
 20
20.63706139679641
 42
-0.0245572635967338
 10
43.76923646758195
 20
20.4917291073478
 42
-0.0245370933361928
 10
43.91279658040136
 20
20.33155497169417
 42
-0.0244629932830414
 10
44.04000783185614
 20
20.15811094634279
 42
-0.0244060851262408
 10
44.14968161812321
 20
19.97307828836227
 42
-0.0243981746354667
 10
44.24080727423838
 20
19.7782384593943
 42
-0.0243044191191167
 10
44.31256475123411
 20
19.57546464687748
 42
-0.0243238349900539
 10
44.36429246011839
 20
19.36669701136071
 42
-0.0243867504121875
 10
44.39547195138778
 20
19.15384024062176
 42
-0.0240066531044628
 10
44.40594694079996
 20
18.9389745964828
  0
LWPOLYLINE
  5
55C79
330
1F
100
AcDbEntity
  8
1
100
AcDbPolyline
 90
       33
 70
     0
 43
0.0
 10
40.03874387359997
 20
18.9389745964828
 42
0.0239976579525041
 10
40.04921111811063
 20
18.72418871468448
 42
0.0243841159770585
 10
40.08037857573188
 20
18.51135274466997
 42
0.0243257296376497
 10
40.13210137167418
 20
18.30256683931639
 42
0.0243040028089189
 10
40.20384957230047
 20
18.09979367280723
 42
0.0243979796583971
 10
40.29496667743018
 20
17.90495134524029
 42
0.024406140669925
 10
40.40463324321928
 20
17.71991352807719
 42
0.0244629828419705
 10
40.53183726427619
 20
17.5464644243545
 42
0.024537038460778
 10
40.67539071564548
 20
17.38628443167529
 42
0.0245572375287141
 10
40.83395260581528
 20
17.24094555392472
 42
0.0246288222846499
 10
41.00602510428489
 20
17.11188726834597
 42
0.0246921293259088
 10
41.18996265183596
 20
17.0003895986802
 42
0.0247045441033607
 10
41.38400011292072
 20
16.90757640761249
 42
0.0247675266855748
 10
41.58625785547786
 20
16.83438925777307
 42
0.0248046139983311
 10
41.79476237977872
 20
16.78156605560241
 42
0.0247943797083084
 10
42.00747367252865
 20
16.74965272587506
 42
0.0248335962020278
 10
42.22230007682139
 20
16.7389776671695
 42
0.0248335702116867
 10
42.43712698642436
 20
16.74964374354999
 42
0.0247943871789582
 10
42.64983959966996
 20
16.78154818824521
 42
0.0248046558334066
 10
42.85834631661879
 20
16.8343626779093
 42
0.0247675164952859
 10
43.06060720058929
 20
16.90754142742099
 42
0.0247045644741279
 10
43.25464849173856
 20
17.00034653581466
 42
0.024692179971186
 10
43.4385906890144
 20
17.11183657409367
 42
0.0246288214839864
 10
43.61066861906761
 20
17.2408877962299
 42
0.0245572635958469
 10
43.76923646753549
 20
17.38622008567121
 42
0.0245370933434908
 10
43.91279658035728
 20
17.54639422131679
 42
0.0244629932787443
 10
44.040007831815
 20
17.71983824666068
 42
0.0244060851314024
 10
44.1496816180864
 20
17.90487090463379
 42
0.0243981746339646
 10
44.24080727420686
 20
18.09971073359457
 42
0.0243044191252238
 10
44.31256475120897
 20
18.30248454610455
 42
0.0243238349906107
 10
44.3642924601007
 20
18.51125218161521
 42
0.0243867504148534
 10
44.39547195137848
 20
18.72410895234849
 42
0.0240066530951218
 10
44.40594694079996
 20
18.9389745964828
  0
LWPOLYLINE
  5
55C7A
330
1F
100
AcDbEntity
  8
1
100
AcDbPolyline
 90
       39
 70
     0
 43
0.0
 10
43.74325007059995
 20
22.06912944268282
 42
0.0135413042942605
 10
43.58374279562361
 20
22.1397425037532
 42
0.0135765910452855
 10
43.42063558066359
 20
22.20160436612156
 42
0.0135830101252884
 10
43.25440928784565
 20
22.25452211706858
 42
0.0135864653025523
 10
43.08555447973538
 20
22.29833393847499
 42
0.0135987950413064
 10
42.91456846989627
 20
22.3329041289184
 42
0.013604516379193
 10
42.74195574410259
 20
22.35812713424122
 42
0.013603452884826
 10
42.56822661438431
 20
22.3739242220006
 42
0.0136109060654762
 10
42.39389542322046
 20
22.38024659695873
 42
0.0136098987724352
 10
42.21947842851786
 20
22.37707555324238
 42
0.0136044832711118
 10
42.04549226512821
 20
22.36441982905706
 42
0.0136071556319652
 10
41.8724521123442
 20
22.34231895660048
 42
0.0135992175360617
 10
41.70086963124211
 20
22.31084183544039
 42
0.0135898434809752
 10
41.53125181908308
 20
22.2700844455141
 42
0.0135877381069658
 10
41.3640985720109
 20
22.22017295853238
 42
0.0135736498996889
 10
41.19990121546709
 20
22.16126103881737
 42
0.013561209372838
 10
41.03914162786639
 20
22.09352809044577
 42
0.013554776821282
 10
40.88228932762208
 20
22.0171817964538
 42
0.0135840988526729
 10
40.72926736519995
 20
21.93213879208281
 42
0.0135216862701501
 10
40.58160352025715
 20
21.83925807002731
 42
0.0135117748148036
 10
40.43917384295618
 20
21.73853450579931
 42
0.0134902828388216
 10
40.30238784451586
 20
21.63027062057699
 42
0.0134757630231427
 10
40.17163753527159
 20
21.51478968481717
 42
0.0134634137165688
 10
40.04729454512278
 20
21.39243640795271
 42
0.0134413955829371
 10
39.9297115302129
 20
21.26357304940706
 42
0.0134282340329166
 10
39.81922057167998
 20
21.1285793957741
 42
0.0134147314350009
 10
39.71613092441289
 20
20.98785241328847
 42
0.0133943593057994
 10
39.62073108762269
 20
20.84180291920507
 42
0.0133840324510258
 10
39.53328654218592
 20
20.69085575465255
 42
0.0133706722762298
 10
39.4540385392875
 20
20.53544867233222
 42
0.0133540091003267
 10
39.38320635321003
 20
20.37602966909992
 42
0.0133475921893156
 10
39.3209844487468
 20
20.21305707409187
 42
0.0133353587756583
 10
39.26754225942597
 20
20.04699814703378
 42
0.013324743568603
 10
39.223026694255
 20
19.87832708016917
 42
0.0133234378699894
 10
39.18755895975785
 20
19.70752327669671
 42
0.0133087126597126
 10
39.16123320273761
 20
19.53507411093789
 42
0.0133132389143225
 10
39.14412223347807
 20
19.36147259532921
 42
0.0133245228815032
 10
39.13627992863232
 20
19.18719346330939
 42
0.0132137310656236
 10
39.13768780289996
 20
19.01336883878281
  0
LWPOLYLINE
  5
55C7B
330
1F
100
AcDbEntity
  8
1
100
AcDbPolyline
 90
       37
 70
     0
 43
0.0
 10
39.13768780289996
 20
19.01336883878281
 42
0.0135207021239453
 10
39.14866986105261
 20
18.83589365070707
 42
0.0136001689799567
 10
39.16927932480331
 20
18.65907664381517
 42
0.0135768933429053
 10
39.19943313134979
 20
18.48382244053606
 42
0.0135747245343154
 10
39.2390539114808
 20
18.3104645759185
 42
0.0135930678414719
 10
39.28802986314037
 20
18.13951278068287
 42
0.0135965939959918
 10
39.34622385901861
 20
17.97147539950669
 42
0.0136075325641295
 10
39.41347068369677
 20
17.80685180262378
 42
0.0136248347669683
 10
39.48957795202932
 20
17.64613236226989
 42
0.0136328735363711
 10
39.57432841067879
 20
17.48979809158482
 42
0.0136484460715183
 10
39.66747939150679
 20
17.33831901345098
 42
0.0136681344062995
 10
39.7687615144331
 20
17.19215155030196
 42
0.0136785716004533
 10
39.87788170844638
 20
17.05173867931031
 42
0.0136966107949561
 10
39.9945229939429
 20
16.91750835132921
 42
0.0137174623712787
 10
40.11834348780097
 20
16.78987047971286
 42
0.0137286148867672
 10
40.24897959236262
 20
16.66921749635131
 42
0.0137472412849667
 10
40.38604590448062
 20
16.55592259317558
 42
0.0137675446458779
 10
40.52913492370146
 20
16.45033654314931
 42
0.0137776054056468
 10
40.67782018811526
 20
16.35278876296478
 42
0.0137949374752018
 10
40.83165649459431
 20
16.26358537094608
 42
0.0138129346191211
 10
40.99018030579919
 20
16.18300602732778
 42
0.0138201737330104
 10
41.15291280271139
 20
16.11130551977025
 42
0.0138344610480124
 10
41.31936048016386
 20
16.04871176129079
 42
0.0138485903862271
 10
41.48901624148158
 20
15.99542282484856
 42
0.0138515480507055
 10
41.66136225365336
 20
15.9516090818469
 42
0.0138613829899363
 10
41.83587095511339
 20
15.91741128462268
 42
0.0138704722968946
 10
42.01200675480968
 20
15.89293795973282
 42
0.0138681368903464
 10
42.18922856020379
 20
15.8782680917983
 42
0.013872652158715
 10
42.3669911573117
 20
15.87344943065295
 42
0.0138761215617416
 10
42.54474742116939
 20
15.87849642438937
 42
0.0138678789146876
 10
42.72195031517478
 20
15.89339327067461
 42
0.0138670514112824
 10
42.89805445857092
 20
15.91809258773222
 42
0.0138656220244351
 10
43.07251923132071
 20
15.95251462928534
 42
0.0138491336893188
 10
43.24480944508678
 20
15.9965489005389
 42
0.0138459301602625
 10
43.41439530508916
 20
16.0500533455899
 42
0.013848442104372
 10
43.58076678495486
 20
16.11286534773899
 42
0.0137781880695692
 10
43.74325049599996
 20
16.18469679818281
  0
LWPOLYLINE
  5
55C7C
330
1F
100
AcDbEntity
  8
1
100
AcDbPolyline
 90
       58
 70
     0
 43
0.0
 10
46.0297267656
 20
19.2578832366828
 42
0.0135816295277089
 10
46.01697750050035
 20
19.46351322192128
 42
0.01364757602017
 10
45.99305358066732
 20
19.66816433073898
 42
0.0135950115250497
 10
45.95813039499995
 20
19.87057027668275
 42
0.0136356060052435
 10
45.912097965875
 20
20.07140237343449
 42
0.0136543849540752
 10
45.85517945454435
 20
20.26942594223759
 42
0.0136580164986572
 10
45.78753576687428
 20
20.46404686614449
 42
0.0136686391834771
 10
45.70936071933511
 20
20.65468155859472
 42
0.0136864781549513
 10
45.62087989616268
 20
20.84075695691899
 42
0.013694859396962
 10
45.52234829042296
 20
21.02171114378748
 42
0.0137098664509973
 10
45.41405055232528
 20
21.19699508068606
 42
0.0137303183391478
 10
45.29630266677361
 20
21.36607573021672
 42
0.0137411660734304
 10
45.16944864456644
 20
21.52843606854911
 42
0.0137583549310351
 10
45.03386027428428
 20
21.68357661782828
 42
0.0137802342256463
 10
44.8899385939126
 20
21.83101916889501
 42
0.0137917880791037
 10
44.73811033425985
 20
21.97030636903958
 42
0.0138092387848553
 10
44.57882744941797
 20
22.10100325378937
 42
0.0138308137122758
 10
44.41256785715986
 20
22.22270133528008
 42
0.0138412370123298
 10
44.23983188958588
 20
22.33501764118438
 42
0.0138570237464205
 10
44.06114144448767
 20
22.4375962173654
 42
0.0138765076826345
 10
43.8770399470871
 20
22.53011239354291
 42
0.0138840552997091
 10
43.68808883321977
 20
22.6122712457281
 42
0.0138963976599303
 10
43.49486631782349
 20
22.68380890651537
 42
0.013912191493073
 10
43.29796653183759
 20
22.7444968155732
 42
0.0139154128010838
 10
43.09799616205927
 20
22.79413956347918
 42
0.0139228898032735
 10
42.89557287220183
 20
22.8325758416749
 42
0.0139337844752505
 10
42.69132365110629
 20
22.85968248135572
 42
0.0139794508990108
 10
42.48517682940001
 20
22.8754057152828
 42
0.0139334124907936
 10
42.27917915144439
 20
22.87958613821519
 42
0.0139387767013807
 10
42.07326850671717
 20
22.87228458123479
 42
0.0139310798393325
 10
41.86808421184688
 20
22.85352474183348
 42
0.0139267953804806
 10
41.66426321926912
 20
22.8233662809368
 42
0.0139265732922873
 10
41.46243722355086
 20
22.78190795169451
 42
0.0139135228171641
 10
41.26323066699259
 20
22.72928379392169
 42
0.0139037937755018
 10
41.06725901465147
 20
22.66566243282361
 42
0.0138986137864243
 10
40.87512547144672
 20
22.59124958891181
 42
0.0138811184727524
 10
40.68741972376438
 20
22.50628396346337
 42
0.0138670682265869
 10
40.50471650344412
 20
22.41103609391307
 42
0.0138581247523374
 10
40.32757207399487
 20
22.30581022077746
 42
0.013837579365623
 10
40.15652377845214
 20
22.19094005878691
 42
0.013820807236869
 10
39.99208897708746
 20
22.0667873595977
 42
0.0138097009562146
 10
39.83476144218329
 20
21.9337431682598
 42
0.0137878093585917
 10
39.68501170958271
 20
21.79222366802381
 42
0.0137701820717328
 10
39.54328640224338
 20
21.6426686264615
 42
0.013758719522512
 10
39.41000461899762
 20
21.48554207456607
 42
0.0137372870350647
 10
39.28555903715667
 20
21.32132841518791
 42
0.0137207260098476
 10
39.17031557180349
 20
21.1505308800804
 42
0.0137107185155746
 10
39.06460982092438
 20
20.9736717131056
 42
0.0136914138727768
 10
38.96874881545171
 20
20.79128867848698
 42
0.0136777439859219
 10
38.88301089763348
 20
20.60393362272169
 42
0.0136708500752526
 10
38.80764232326408
 20
20.41217203389869
 42
0.0136547153869415
 10
38.74285923356064
 20
20.21658032998089
 42
0.0136459812547785
 10
38.68884808707429
 20
20.01774464179527
 42
0.0135784912360777
 10
38.64594466335257
 20
19.8172375134763
 42
0.0136276272419304
 10
38.61385257918647
 20
19.61371020983698
 42
0.0136317484720087
 10
38.59289861022939
 20
19.408741922817
 42
0.0136453418823189
 10
38.58315150784148
 20
19.20292211590739
 42
0.0136416291580134
 10
38.58465115649997
 20
18.9959430046828
  0
LWPOLYLINE
  5
55C7D
330
1F
100
AcDbEntity
  8
1
100
AcDbPolyline
 90
       58
 70
     0
 43
0.0
 10
38.58465115649997
 20
18.9959430046828
 42
0.0135816295256313
 10
38.59740042159872
 20
18.79031301944428
 42
0.0136475760260475
 10
38.62132434143558
 20
18.58566191062817
 42
0.0135950115012125
 10
38.65624752709999
 20
18.38325596468279
 42
0.0136356060379038
 10
38.70227995620849
 20
18.18242386792575
 42
0.0136543851087042
 10
38.75919846760071
 20
17.98440029914331
 42
0.0136580163635194
 10
38.82684215534729
 20
17.78977937526405
 42
0.0136686390356217
 10
38.90501720281579
 20
17.5991446827818
 42
0.0136864783013645
 10
38.99349802592587
 20
17.4130692844304
 42
0.0136948594351807
 10
39.09202963168048
 20
17.23211509757117
 42
0.0137098664228232
 10
39.20032736978374
 20
17.05683116067573
 42
0.0137303183328048
 10
39.31807525532597
 20
16.88775051113889
 42
0.0137411661161142
 10
39.44492927753746
 20
16.72539017281042
 42
0.0137583549536368
 10
39.58051764785671
 20
16.57024962356539
 42
0.0137802341461273
 10
39.72443932824859
 20
16.42280707251777
 42
0.0137917880730902
 10
39.87626758789441
 20
16.28351987236579
 42
0.0138092387769478
 10
40.03555047273559
 20
16.15282298761707
 42
0.0138308136574525
 10
40.2018100649813
 20
16.03112490610931
 42
0.0138412370261522
 10
40.3745460325326
 20
15.91880860017077
 42
0.013857023804028
 10
40.5532364776256
 20
15.81623002398209
 42
0.0138765077173507
 10
40.73733797503729
 20
15.72371384782838
 42
0.0138840552525586
 10
40.92628908891311
 20
15.64155499566448
 42
0.013896397636438
 10
41.11951160430149
 20
15.57001733485378
 42
0.0139121915626118
 10
41.31641139028396
 20
15.50932942578941
 42
0.0139154127865403
 10
41.51638176006628
 20
15.45968667790259
 42
0.0139228897614731
 10
41.71880504992211
 20
15.4212503996961
 42
0.0139337845039564
 10
41.92305427101527
 20
15.39414376000445
 42
0.0139794509030589
 10
42.12920109269997
 20
15.37842052608278
 42
0.013933412480627
 10
42.33519877065535
 20
15.37424010315101
 42
0.0139387767099913
 10
42.54110941538211
 20
15.38154166013055
 42
0.0139310798391176
 10
42.74629371025191
 20
15.40030149953196
 42
0.0139267953825571
 10
42.95011470282928
 20
15.43045996042855
 42
0.0139265732931961
 10
43.15194069854709
 20
15.47191828967072
 42
0.0139135228086939
 10
43.35114725510496
 20
15.52454244744319
 42
0.0139037937835521
 10
43.54711890744565
 20
15.58816380854108
 42
0.0138986137874006
 10
43.73925245065032
 20
15.66257665245229
 42
0.0138811184726675
 10
43.92695819833227
 20
15.74754227790053
 42
0.0138670682115112
 10
44.10966141865162
 20
15.84279014745094
 42
0.0138581247455792
 10
44.28680584810259
 20
15.94801602058378
 42
0.0138375793864964
 10
44.45785414364388
 20
16.06288618257631
 42
0.0138208072156803
 10
44.62228894500031
 20
16.18703888177288
 42
0.0138097008582365
 10
44.77961647993578
 20
16.32008307307631
 42
0.0137878095052871
 10
44.92936621256029
 20
16.46160257328671
 42
0.0137701821567672
 10
45.07109151982695
 20
16.61115761491305
 42
0.0137587193119907
 10
45.20437330304921
 20
16.76828416683099
 42
0.0137372870214614
 10
45.32881888494029
 20
16.93249782617117
 42
0.0137207260967825
 10
45.4440623503028
 20
17.10329536127057
 42
0.0137107185411918
 10
45.549768101153
 20
17.28015452826189
 42
0.0136914138104003
 10
45.64562910660519
 20
17.46253756289081
 42
0.0136777439444527
 10
45.73136702445018
 20
17.64989261864428
 42
0.0136708501337474
 10
45.80673559883845
 20
17.84165420745846
 42
0.0136547153943652
 10
45.87151868853709
 20
18.03724591137719
 42
0.0136459812499426
 10
45.92552983502607
 20
18.23608159956268
 42
0.0135784912564482
 10
45.96843325873971
 20
18.43658872788978
 42
0.0136276271600636
 10
46.00052534291307
 20
18.64011603152732
 42
0.0136317484469219
 10
46.02147931194422
 20
18.84508431854055
 42
0.013645342050151
 10
46.03122641435198
 20
19.0509041254478
 42
0.0136416292687562
 10
46.0297267656
 20
19.2578832366828
  0
LWPOLYLINE
  5
55C7E
330
1F
100
AcDbEntity
  8
1
100
AcDbPolyline
 90
       10
 70
     0
 43
0.0
 10
42.22234540719995
 20
17.27497721688279
 42
0.0367734783576987
 10
42.26462462679259
 20
17.27809797208368
 42
0.0367960994360765
 10
42.30598876013488
 20
17.2874015971975
 42
0.0368752918997543
 10
42.34555303859618
 20
17.30267457739028
 42
0.0366853189929538
 10
42.3824525758028
 20
17.32357501089024
 42
0.0365691350591311
 10
42.41589950000559
 20
17.34964411542359
 42
0.0364169428459664
 10
42.44520696614126
 20
17.38029361426554
 42
0.0364621283182051
 10
42.46975224132875
 20
17.41486970093371
 42
0.0365325553543971
 10
42.48900742909778
 20
17.4526747224341
 42
0.0351677600073256
 10
42.50266951859996
 20
17.49282817068278
  0
LWPOLYLINE
  5
55C7F
330
1F
100
AcDbEntity
  8
1
100
AcDbPolyline
 90
       13
 70
     0
 43
0.0
 10
43.14901867349997
 20
17.9951421047828
 42
0.0276289892397281
 10
43.07578024141561
 20
17.99108572932907
 42
0.0276186596263504
 10
43.00343207910564
 20
17.97896748426781
 42
0.0276602247387446
 10
42.9328516036436
 20
17.95894084645039
 42
0.0275792529819812
 10
42.86490990964117
 20
17.93126144348889
 42
0.0275105593323133
 10
42.8004269684856
 20
17.8962753570766
 42
0.0275024601466417
 10
42.74017115895327
 20
17.8544249337218
 42
0.0273897571627171
 10
42.68486116978926
 20
17.80622685330489
 42
0.0273474065366342
 10
42.63515049663593
 20
17.75227078562091
 42
0.0272426120245643
 10
42.5916095174025
 20
17.6932251573442
 42
0.0272495543868475
 10
42.55475048058559
 20
17.62979961874445
 42
0.0272817663461396
 10
42.5250096336087
 20
17.56271404522117
 42
0.0267188217606575
 10
42.50266951859996
 20
17.49282817068278
  0
LWPOLYLINE
  5
55C80
330
1F
100
AcDbEntity
  8
1
100
AcDbPolyline
 90
        4
 70
     0
 43
0.0
 10
43.40162354039995
 20
17.9609739527828
 42
0.0303935157948822
 10
43.43732800950987
 20
17.96321005814621
 42
0.0314454253681378
 10
43.4725099028252
 20
17.9698311096718
 42
0.0307296801138967
 10
43.50659478629995
 20
17.98078288778281
  0
LWPOLYLINE
  5
55C81
330
1F
100
AcDbEntity
  8
1
100
AcDbPolyline
 90
       15
 70
     0
 43
0.0
 10
43.50659478629995
 20
17.98078288778281
 42
0.0359566132314539
 10
43.54395037409463
 20
17.99858168241495
 42
0.0356639930646197
 10
43.57839424048761
 20
18.02153786520339
 42
0.0357327082101609
 10
43.60922746692881
 20
18.0491702920538
 42
0.0355590104529128
 10
43.63582440809864
 20
18.08089413864598
 42
0.0353859449577005
 10
43.65766333437067
 20
18.11606240791059
 42
0.0354331842962304
 10
43.67432664361159
 20
18.15395920050718
 42
0.0352170568163566
 10
43.68548977553078
 20
18.19382461723937
 42
0.0352787919077293
 10
43.69093961832446
 20
18.23486304483271
 42
0.0352368182961437
 10
43.69057597825539
 20
18.27626033439941
 42
0.0351844378994897
 10
43.68439682557589
 20
18.31719547371908
 42
0.0352302697742163
 10
43.67254206946947
 20
18.35685933881887
 42
0.0355190478154778
 10
43.65521848933172
 20
18.39445423919658
 42
0.0357383480152066
 10
43.63270456715746
 20
18.42921779371396
 42
0.0343490053462405
 10
43.60557180909995
 20
18.46049232918278
  0
LWPOLYLINE
  5
55C82
330
1F
100
AcDbEntity
  8
1
100
AcDbPolyline
 90
       15
 70
     0
 43
0.0
 10
43.60557180909995
 20
19.4174568638828
 42
0.0277271116616145
 10
43.5549929417231
 20
19.36092211794555
 42
0.0283783998322701
 10
43.51103984978928
 20
19.29905825137648
 42
0.0281799575965586
 10
43.4743566329111
 20
19.23262901925937
 42
0.0280285647448899
 10
43.44535503241046
 20
19.16250641052053
 42
0.0280690377701985
 10
43.42437878500319
 20
19.08957893749471
 42
0.0279881237017281
 10
43.41169289510571
 20
19.01476235541428
 42
0.0279987850104101
 10
43.4074474619421
 20
18.93899688866888
 42
0.0279987105071797
 10
43.41168791380039
 20
18.86323114345021
 42
0.0279880579812092
 10
43.42436885271633
 20
18.78841386964939
 42
0.0280692952054874
 10
43.4453404571114
 20
18.71548450132626
 42
0.0280288468470123
 10
43.47433789453439
 20
18.64535914169221
 42
0.0281772201178002
 10
43.51101311853514
 20
18.57893349024407
 42
0.0283830150870241
 10
43.55496889392846
 20
18.51705716733248
 42
0.0277413138578503
 10
43.60557180909995
 20
18.46049232918278
  0
LWPOLYLINE
  5
55C83
330
1F
100
AcDbEntity
  8
1
100
AcDbPolyline
 90
       15
 70
     0
 43
0.0
 10
43.60557180909995
 20
19.4174568638828
 42
0.034322320928781
 10
43.6326854605492
 20
19.44870603773846
 42
0.0357233946214383
 10
43.6551955575631
 20
19.4834532838743
 42
0.0355239993467477
 10
43.67252707135546
 20
19.52105012984485
 42
0.0352313762267844
 10
43.68438776611295
 20
19.56071323712541
 42
0.0351842742342267
 10
43.69057269885484
 20
19.60164765521681
 42
0.0352367592128775
 10
43.69094218511736
 20
19.64304447784087
 42
0.0352784383074723
 10
43.68549819750865
 20
19.6840835624616
 42
0.0352168577767324
 10
43.67434080781021
 20
19.72395037987381
 42
0.0354337172319924
 10
43.65768269141037
 20
19.76185004905089
 42
0.0353874227926472
 10
43.63584756039847
 20
19.79702306592537
 42
0.0355544664778407
 10
43.60925869619847
 20
19.82874661138339
 42
0.0357299193525117
 10
43.57843193584693
 20
19.85638211615759
 42
0.0356875003418141
 10
43.54396808298997
 20
19.87935745241776
 42
0.0359743097214978
 10
43.50659478629995
 20
19.89716630528278
  0
LWPOLYLINE
  5
55C84
330
1F
100
AcDbEntity
  8
1
100
AcDbPolyline
 90
        4
 70
     0
 43
0.0
 10
43.50659478629995
 20
19.89716630528278
 42
0.0307093258870844
 10
43.47253241764838
 20
19.90811235664487
 42
0.031448902822123
 10
43.4373478590906
 20
19.91473666895847
 42
0.0304106948151588
 10
43.40162354039995
 20
19.91697524028278
  0
LWPOLYLINE
  5
55C85
330
1F
100
AcDbEntity
  8
1
100
AcDbPolyline
 90
       13
 70
     0
 43
0.0
 10
42.50266951859996
 20
20.3851210223828
 42
0.0267070117554835
 10
42.5249981972222
 20
20.31526526272319
 42
0.027276549783181
 10
42.55472978511318
 20
20.24819012692331
 42
0.02725249508114
 10
42.59158882048986
 20
20.18475556519172
 42
0.0272424569256664
 10
42.63512619547046
 20
20.1257078613799
 42
0.0273469433025443
 10
42.68483314820588
 20
20.07174959857099
 42
0.0273897279820806
 10
42.74014027992211
 20
20.023548325815
 42
0.0275026191713174
 10
42.8003940026318
 20
19.98169414353139
 42
0.0275110472035801
 10
42.86487627840029
 20
19.94670366770298
 42
0.0275776554636931
 10
42.93281233618839
 20
19.91902187400927
 42
0.0276606106555081
 10
43.003392700253
 20
19.8989905643799
 42
0.0276261336418036
 10
43.0757599392827
 20
19.88686572045446
 42
0.0276367338238247
 10
43.14901867349997
 20
19.88280708828282
  0
LWPOLYLINE
  5
55C86
330
1F
100
AcDbEntity
  8
1
100
AcDbPolyline
 90
       10
 70
     0
 43
0.0
 10
42.50266951859996
 20
20.3851210223828
 42
0.0351402218839771
 10
42.48902016133269
 20
20.42524423273005
 42
0.0365183872302405
 10
42.46977700735619
 20
20.4630385722561
 42
0.0364673579432878
 10
42.44523371894039
 20
20.49762317158599
 42
0.0364179800447844
 10
42.41592989954788
 20
20.5282775925885
 42
0.0365694761864264
 10
42.38248584092011
 20
20.55435196569522
 42
0.0366810376918912
 10
42.34559376771321
 20
20.57525533658298
 42
0.0368778969886399
 10
42.30602888686829
 20
20.59053541096898
 42
0.0368144115730241
 10
42.26464499998008
 20
20.59984819254922
 42
0.0367915931256012
 10
42.22234540719995
 20
20.6029719761828
  0
LWPOLYLINE
  5
55C87
330
1F
100
AcDbEntity
  8
1
100
AcDbPolyline
 90
        4
 70
     0
 43
0.0
 10
43.40162354039995
 20
19.91697524028278
 10
43.37590592088778
 20
19.91580510594745
 10
43.35036291754437
 20
19.91233414939699
 10
43.32524769769995
 20
19.90663875498279
  0
LWPOLYLINE
  5
55C88
330
1F
100
AcDbEntity
  8
1
100
AcDbPolyline
 90
        4
 70
     0
 43
0.0
 10
43.14901867349997
 20
19.88280708828282
 42
0.0223655755057992
 10
43.20838721555995
 20
19.88546848427978
 42
0.022425637476578
 10
43.26729726424225
 20
19.89345648391156
 42
0.022078171795157
 10
43.32524769769995
 20
19.90663875498279
  0
LWPOLYLINE
  5
55C89
330
1F
100
AcDbEntity
  8
1
100
AcDbPolyline
 90
       10
 70
     0
 43
0.0
 10
42.22234540719995
 20
20.6029719761828
 42
0.03677347828139
 10
42.18006618761495
 20
20.59985122096842
 42
0.0367960998229813
 10
42.13870205428077
 20
20.5905475958441
 42
0.0368752916253891
 10
42.09913777583324
 20
20.57527461563683
 42
0.0366853182802669
 10
42.06223823863678
 20
20.55437418213279
 42
0.0365691346775962
 10
42.02879131441846
 20
20.52830507762678
 42
0.0364169430072507
 10
41.99948384826194
 20
20.49765557881476
 42
0.0364621283016334
 10
41.97493857307529
 20
20.46307949215492
 42
0.0365325556602162
 10
41.95568338533758
 20
20.42527447064609
 42
0.0351677604220766
 10
41.94202129589995
 20
20.3851210223828
  0
LWPOLYLINE
  5
55C8A
330
1F
100
AcDbEntity
  8
1
100
AcDbPolyline
 90
       13
 70
     0
 43
0.0
 10
41.29567214089997
 20
19.88280708828282
 42
0.0276289891769115
 10
41.36891057299378
 20
19.88686346372628
 42
0.0276186596409191
 10
41.44125873531415
 20
19.8989817087791
 42
0.0276602247653299
 10
41.51183921078557
 20
19.91900834659339
 42
0.0275792529886528
 10
41.57978090480002
 20
19.94668774954839
 42
0.027510559353182
 10
41.64426384597597
 20
19.9816738359434
 42
0.0275024602337661
 10
41.70451965551915
 20
20.02352425929609
 42
0.0273897572844008
 10
41.75982964468079
 20
20.0717223397281
 42
0.027347406378862
 10
41.80954031783977
 20
20.12567840741997
 42
0.0272426119830932
 10
41.85308129708388
 20
20.18472403569956
 42
0.0272495544346192
 10
41.88994033390691
 20
20.24814957430539
 42
0.0272817664248729
 10
41.9196811808882
 20
20.31523514783629
 42
0.0267188217769342
 10
41.94202129589995
 20
20.3851210223828
  0
LWPOLYLINE
  5
55C8B
330
1F
100
AcDbEntity
  8
1
100
AcDbPolyline
 90
       19
 70
     0
 43
0.0
 10
42.30765394769995
 20
21.83897178838277
 42
-0.0220451011019099
 10
42.5594322552306
 20
21.82785909471505
 42
-0.0220432174054755
 10
42.8092625717023
 20
21.79459825818901
 42
-0.0220562228421893
 10
43.05521337033098
 20
21.7394599820085
 42
-0.0220209942121385
 10
43.29535163829787
 20
21.6628953625678
 42
-0.0219801053297415
 10
43.52782781669997
 20
21.56551554829906
 42
-0.0219767324316455
 10
43.75086115623588
 20
21.4481059254785
 42
-0.021914466821423
 10
43.96274788815595
 20
21.31160302308069
 42
-0.0218760430558467
 10
44.16187771856917
 20
21.15708335062647
 42
-0.0218542703195634
 10
44.34675698510122
 20
20.98576837484768
 42
-0.0217854024599864
 10
44.51600345181532
 20
20.79899281823501
 42
-0.0217570971097273
 10
44.66835967649386
 20
20.59820153710489
 42
-0.0217222670020627
 10
44.80271256364733
 20
20.38494369810349
 42
-0.0216694796184955
 10
44.91807593333581
 20
20.1608435897835
 42
-0.0216585958325871
 10
45.0136107912281
 20
19.92759653283996
 42
-0.0215995732444825
 10
45.08864534318688
 20
19.68697290507207
 42
-0.0216156976575389
 10
45.14262835685747
 20
19.44078499587907
 42
-0.0216534817555975
 10
45.17513065191137
 20
19.19080122260339
 42
-0.0213738275414005
 10
45.18603778739997
 20
18.9389745964828
  0
LWPOLYLINE
  5
55C8C
330
1F
100
AcDbEntity
  8
1
100
AcDbPolyline
 90
       13
 70
     0
 43
0.0
 10
41.94202129589995
 20
17.49282817068278
 42
0.0267070118928142
 10
41.91969261727928
 20
17.56268393034139
 42
0.0272765499225854
 10
41.88996102938694
 20
17.62975906613745
 42
0.0272524949590045
 10
41.85310199401182
 20
17.69319362786587
 42
0.0272424569145713
 10
41.80956461904671
 20
17.7522413316916
 42
0.0273469437200136
 10
41.75985766629128
 20
17.80619959447754
 42
0.0273897279370509
 10
41.70455053451163
 20
17.85440086714935
 42
0.027502618516511
 10
41.64429681180553
 20
17.89625504944621
 42
0.0275110472052088
 10
41.57981453608733
 20
17.93124552536595
 42
0.027577655802123
 10
41.51187847831177
 20
17.95892731907138
 42
0.0276606106877819
 10
41.44129811424257
 20
17.97895862868255
 42
0.0276261336141204
 10
41.3689308752147
 20
17.99108347261039
 42
0.0276367336099956
 10
41.29567214099995
 20
17.9951421047828
  0
LWPOLYLINE
  5
55C8D
330
1F
100
AcDbEntity
  8
1
100
AcDbPolyline
 90
       10
 70
     0
 43
0.0
 10
41.94202129589995
 20
17.49282817068278
 42
0.0351402218575577
 10
41.95567065310259
 20
17.45270496032123
 42
0.036518387608289
 10
41.97491380704781
 20
17.4149106207867
 42
0.0364673584012438
 10
41.99945709546329
 20
17.38032602146432
 42
0.0364179800896607
 10
42.02876091487621
 20
17.34967160049227
 42
0.0365694754763637
 10
42.06220497351814
 20
17.32359722741398
 42
0.0366810371145988
 10
42.09909704671668
 20
17.30269385652102
 42
0.0368778966284794
 10
42.13866192754809
 20
17.28741378212038
 42
0.0368144112810502
 10
42.1800458144273
 20
17.27810100052989
 42
0.036791593110328
 10
42.22234540719995
 20
17.27497721688279
  0
LWPOLYLINE
  5
55C8E
330
1F
100
AcDbEntity
  8
1
100
AcDbPolyline
 90
       19
 70
     0
 43
0.0
 10
42.30765394749997
 20
16.03897740468277
 42
0.0220451010994965
 10
42.55943225503734
 20
16.05009009833338
 42
0.0220432174112832
 10
42.80926257151715
 20
16.08335093484356
 42
0.0220562228429094
 10
43.05521337015517
 20
16.13848921100947
 42
0.0220209942140528
 10
43.2953516381326
 20
16.21505383043689
 42
0.021980105324171
 10
43.52782781654609
 20
16.3124336446939
 42
0.0219767324274673
 10
43.75086115609376
 20
16.42984326750443
 42
0.0219144668113772
 10
43.96274788802663
 20
16.56634616989331
 42
0.0218760430524667
 10
44.16187771845438
 20
16.72086584233939
 42
0.0218542703372446
 10
44.34675698499549
 20
16.89218081811621
 42
0.0217854024234376
 10
44.51600345172261
 20
17.07895637472421
 42
0.0217570970864751
 10
44.66835967644495
 20
17.279747655831
 42
0.0217222670712149
 10
44.80271256362337
 20
17.49300549482244
 42
0.0216694796272244
 10
44.91807593328967
 20
17.71710560315921
 42
0.0216585957871328
 10
45.01361079117986
 20
17.95035266011156
 42
0.0215995732490803
 10
45.08864534315764
 20
18.19097628787979
 42
0.0216156976678121
 10
45.14262835683917
 20
18.437164197076
 42
0.0216534817529842
 10
45.17513065190195
 20
18.68714797035669
 42
0.021373827544568
 10
45.18603778739997
 20
18.9389745964828
  0
LWPOLYLINE
  5
55C8F
330
1F
100
AcDbEntity
  8
1
100
AcDbPolyline
 90
        4
 70
     0
 43
0.0
 10
43.32524769769995
 20
17.97131043808279
 42
0.0220729938662146
 10
43.26731093657127
 20
17.98449022874746
 42
0.0224227932521536
 10
43.20840811884861
 20
17.99247882757878
 42
0.0223735996874241
 10
43.14901867349997
 20
17.9951421047828
  0
LWPOLYLINE
  5
55C90
330
1F
100
AcDbEntity
  8
1
100
AcDbPolyline
 90
        4
 70
     0
 43
0.0
 10
43.32524769769995
 20
17.97131043808279
 10
43.35035408783578
 20
17.96561664304737
 10
43.3758985216771
 20
17.96214475978705
 10
43.40162354039995
 20
17.9609739527828
  0
LWPOLYLINE
  5
55C91
330
1F
100
AcDbEntity
  8
1
100
AcDbPolyline
 90
       21
 70
     0
 43
0.0
 10
43.74325059689994
 20
22.06912944538283
 42
-0.0137449648343898
 10
43.90145306167329
 20
21.98845875592156
 42
-0.0138239435089795
 10
44.0549864530856
 20
21.89918377310471
 42
-0.0137879427840521
 10
44.20335525348209
 20
21.80157076151119
 42
-0.0137565937911681
 10
44.3461235032577
 20
21.69593810600131
 42
-0.0137498294299575
 10
44.48286977301353
 20
21.58261586932832
 42
-0.0137236806047842
 10
44.6131863785707
 20
21.46195504357339
 42
-0.0137058311119624
 10
44.73669032395469
 20
21.33432980346947
 42
-0.0136895201238549
 10
44.85302148539267
 20
21.20013391942132
 42
-0.0136648876185439
 10
44.9618408095298
 20
21.05977774479601
 42
-0.0136505760449844
 10
45.06283347636426
 20
20.91368875916896
 42
-0.0136332738635996
 10
45.15570997182146
 20
20.76231012247831
 42
-0.0136121009750769
 10
45.2402037974781
 20
20.60609761545891
 42
-0.0136017638036309
 10
45.3160745420067
 20
20.44551986249771
 42
-0.0135854197382505
 10
45.38310815530866
 20
20.28105685974578
 42
-0.0135706299161247
 10
45.44111440019667
 20
20.11319744035572
 42
-0.0135656400413707
 10
45.48993028208627
 20
19.94243773703039
 42
-0.01354719323853
 10
45.52942125386748
 20
19.76928416301637
 42
-0.0135485045880675
 10
45.55947510152099
 20
19.59425036850148
 42
-0.0135566428990565
 10
45.58000170775332
 20
19.41783138930303
 42
-0.0134901306447513
 10
45.59096150409998
 20
19.24056339948282
  0
LWPOLYLINE
  5
55C92
330
1F
100
AcDbEntity
  8
1
100
AcDbPolyline
 90
       22
 70
     0
 43
0.0
 10
45.59096150409998
 20
19.24056339948282
 42
-0.0136660872836224
 10
45.59225560866969
 20
19.06061613903355
 42
-0.0137810498252573
 10
45.5836461651005
 20
18.88024185078896
 42
-0.0137665133244233
 10
45.56512039679995
 20
18.70064925198278
 42
-0.0137182586884897
 10
45.53684718002995
 20
18.52291837115998
 42
-0.0137777918415035
 10
45.49873412829721
 20
18.3464763750212
 42
-0.0137760550154355
 10
45.45097899459999
 20
18.1724632059828
 42
-0.0137495155508044
 10
45.39387301602147
 20
18.00179734766458
 42
-0.0137977575074586
 10
45.32731257895436
 20
17.83417033614556
 42
-0.0137991813060778
 10
45.2516504073
 20
17.67056219738275
 42
-0.0137926163586718
 10
45.16721459983297
 20
17.51163299656948
 42
-0.0138267178737125
 10
45.07405423348177
 20
17.35747451027356
 42
-0.0138299828005127
 10
44.97258539779998
 20
17.20880442148278
 42
-0.0138465473881143
 10
44.86306429529196
 20
17.06600051202121
 42
-0.0138613965135642
 10
44.74588786697839
 20
16.92957974949559
 42
-0.0138638394058399
 10
44.62143505609994
 20
16.79996906098281
 42
-0.0139062490324694
 10
44.48977461592579
 20
16.67727759360309
 42
-0.0138989693396586
 10
44.35183575943397
 20
16.56237302009299
 42
-0.0138930006912146
 10
44.20785445519999
 20
16.45540240288277
 42
-0.0139697851466761
 10
44.05764496400971
 20
16.35629018379858
 42
-0.0139519903594121
 10
43.90276065812337
 20
16.26608007226879
 42
-0.0138624284653449
 10
43.74325059669996
 20
16.18469679588281
  0
LINE
  5
55C93
330
1F
100
AcDbEntity
  8
1
100
AcDbLine
 10
50.79999999999998
 20
20.26811424128277
 30
0.0
 11
50.79999999999998
 21
21.40000000000001
 31
0.0
  0
LINE
  5
55C94
330
1F
100
AcDbEntity
  8
1
100
AcDbLine
 10
50.79999999999972
 20
20.26811424128299
 30
0.0
 11
49.00336009509979
 21
17.26811424128299
 31
0.0
  0
LWPOLYLINE
  5
55C95
330
1F
100
AcDbEntity
  8
1
100
AcDbPolyline
 90
       10
 70
     0
 43
0.0
 10
32.18428671029997
 20
17.04551674538281
 42
0.0367734792236212
 10
32.2265659298937
 20
17.04863750047057
 42
0.0367961004230517
 10
32.26793006323382
 20
17.05794112557105
 42
0.0368752918655529
 10
32.30749434165995
 20
17.07321410583023
 42
0.0366853179749495
 10
32.34439387882023
 20
17.0941145393988
 42
0.0365691342990995
 10
32.37784080303482
 20
17.12018364391581
 42
0.0364169429831681
 10
32.40714826921212
 20
17.15083314270851
 42
0.0364621285727698
 10
32.43169354442767
 20
17.18540922934818
 42
0.0365325557167341
 10
32.45094873220711
 20
17.22321425083708
 42
0.0351677604463463
 10
32.46461082169999
 20
17.2633676990828
  0
LWPOLYLINE
  5
55C96
330
1F
100
AcDbEntity
  8
1
100
AcDbPolyline
 90
       13
 70
     0
 43
0.0
 10
33.11095997659999
 20
17.76568163318278
 42
0.0276289889921008
 10
33.03772154450499
 20
17.76162525774021
 42
0.0276186595890291
 10
32.96537338217019
 20
17.74950701276151
 42
0.0276602251387039
 10
32.89479290669499
 20
17.72948037496832
 42
0.0275792532062833
 10
32.82685121269913
 20
17.70180097196776
 42
0.0275105592403908
 10
32.76236827154729
 20
17.66681488553347
 42
0.0275024597859924
 10
32.70211246198409
 20
17.6249644622028
 42
0.0273897575460449
 10
32.64680247278518
 20
17.57676638180851
 42
0.0273474067182463
 10
32.59709179969588
 20
17.52281031406488
 42
0.0272426112144595
 10
32.5535508204982
 20
17.46376468574732
 42
0.0272495543628305
 10
32.51669178358947
 20
17.40033914718508
 42
0.0272817671306407
 10
32.48695093659481
 20
17.33325357366499
 42
0.0267188222957018
 10
32.46461082169999
 20
17.2633676990828
  0
LWPOLYLINE
  5
55C97
330
1F
100
AcDbEntity
  8
1
100
AcDbPolyline
 90
        4
 70
     0
 43
0.0
 10
33.36356484349997
 20
17.7315134811828
 42
0.0303935162106539
 10
33.3992693126209
 20
17.73374958653078
 42
0.0314454256896989
 10
33.43445120594044
 20
17.7403706380903
 42
0.0307296802761453
 10
33.46853608939998
 20
17.75132241628277
  0
LWPOLYLINE
  5
55C98
330
1F
100
AcDbEntity
  8
1
100
AcDbPolyline
 90
       15
 70
     0
 43
0.0
 10
33.46853608939998
 20
17.75132241628277
 42
0.035956615048552
 10
33.5058916772299
 20
17.76912121082158
 42
0.0356639936163449
 10
33.54033554357227
 20
17.7920773936741
 42
0.0357327074041859
 10
33.5711687700238
 20
17.81970982052807
 42
0.0355590100304569
 10
33.59776571123112
 20
17.85143366708728
 42
0.0353859450016139
 10
33.61960463747497
 20
17.88660193636087
 42
0.0354331845001694
 10
33.63626794669011
 20
17.92449872897128
 42
0.0352170567430434
 10
33.64743107861989
 20
17.96436414570109
 42
0.0352787916142178
 10
33.65288092142562
 20
18.00540257329054
 42
0.0352368181776376
 10
33.65251728135849
 20
18.04679986285637
 42
0.0351844380153486
 10
33.64633812867038
 20
18.0877350021742
 42
0.0352302701403628
 10
33.63448337254522
 20
18.12739886726705
 42
0.0355190482599555
 10
33.61715979238232
 20
18.16499376763227
 42
0.0357383480503949
 10
33.5946458701832
 20
18.19975732213286
 42
0.0343490049380274
 10
33.56751311210002
 20
18.23103185758282
  0
LWPOLYLINE
  5
55C99
330
1F
100
AcDbEntity
  8
1
100
AcDbPolyline
 90
       15
 70
     0
 43
0.0
 10
33.56751311210002
 20
19.18799639238278
 42
0.0277271116199944
 10
33.5169342447667
 20
19.13146164641139
 42
0.0283783997956977
 10
33.47298115287279
 20
19.06959777981898
 42
0.0281799575779329
 10
33.43629793602358
 20
19.0031685476903
 42
0.0280285645709358
 10
33.40729633552689
 20
18.93304593895339
 42
0.0280690376881699
 10
33.38632008810947
 20
18.86011846593469
 42
0.027988123742377
 10
33.37363419820247
 20
18.78530188385996
 42
0.0279987851049461
 10
33.36938876503531
 20
18.70953641711889
 42
0.0279987106276837
 10
33.37362921689723
 20
18.6337706719043
 42
0.0279880579661899
 10
33.38631015582283
 20
18.55895339810898
 42
0.0280692951970364
 10
33.40728176022788
 20
18.4860240297932
 42
0.0280288469009772
 10
33.4362791976468
 20
18.41589867016148
 42
0.0281772199572998
 10
33.47295442161879
 20
18.34947301870142
 42
0.0283830149655627
 10
33.51691019697228
 20
18.28759669576648
 42
0.027741313885436
 10
33.56751311210002
 20
18.23103185758282
  0
LWPOLYLINE
  5
55C9A
330
1F
100
AcDbEntity
  8
1
100
AcDbPolyline
 90
       15
 70
     0
 43
0.0
 10
33.56751311210002
 20
19.18799639238278
 42
0.0343223210908543
 10
33.59462676357413
 20
19.219245566219
 42
0.0357233948594602
 10
33.61713686061492
 20
19.25399281233978
 42
0.035523999050469
 10
33.63446837443411
 20
19.2915896583008
 42
0.0352313764192348
 10
33.64632906920429
 20
19.3312527655783
 42
0.0351842743834151
 10
33.65251400195113
 20
19.37218718367023
 42
0.0352367588456795
 10
33.65288348822498
 20
19.41358400629889
 42
0.0352784383870558
 10
33.64743950061038
 20
19.45462309091939
 42
0.0352168570927245
 10
33.636282110889
 20
19.49448990832353
 42
0.0354337170598118
 10
33.61962399450329
 20
19.53238957751431
 42
0.0353874230321169
 10
33.59778886351347
 20
19.56756259440685
 42
0.0355544667506787
 10
33.5711999992827
 20
19.59928613983236
 42
0.035729918473286
 10
33.54037323891188
 20
19.62692164459155
 42
0.0356875004009365
 10
33.50590938608188
 20
19.64989698090142
 42
0.0359743104987039
 10
33.46853608939998
 20
19.6677058337828
  0
LWPOLYLINE
  5
55C9B
330
1F
100
AcDbEntity
  8
1
100
AcDbPolyline
 90
        4
 70
     0
 43
0.0
 10
33.46853608939998
 20
19.6677058337828
 42
0.0307093258757866
 10
33.4344737207484
 20
19.67865188514491
 42
0.0314489033881612
 10
33.3992891621906
 20
19.68527619745849
 42
0.0304106944154405
 10
33.36356484349997
 20
19.68751476878282
  0
LWPOLYLINE
  5
55C9C
330
1F
100
AcDbEntity
  8
1
100
AcDbPolyline
 90
       13
 70
     0
 43
0.0
 10
32.46461082169999
 20
20.15566055088276
 42
0.0267070121583305
 10
32.48693950020879
 20
20.08580479117672
 42
0.0272765506128141
 10
32.5166710881187
 20
20.01872965538223
 42
0.0272524947792249
 10
32.55353012358168
 20
19.9552950936977
 42
0.0272424564244434
 10
32.5970674985207
 20
19.89624738983194
 42
0.0273469439606993
 10
32.6467744512084
 20
19.84228912697249
 42
0.0273897282492367
 10
32.70208158299147
 20
19.79408785429346
 42
0.0275026184596448
 10
32.76233530572961
 20
19.75223367202658
 42
0.0275110471227982
 10
32.82681758146619
 20
19.71724319612178
 42
0.0275776558182359
 10
32.89475363924186
 20
19.6895614023818
 42
0.027660610976282
 10
32.96533400332299
 20
19.66953009278739
 42
0.0276261337077541
 10
33.0377012423732
 20
19.65740524894379
 42
0.0276367333100939
 10
33.11095997659999
 20
19.6533466167828
  0
LWPOLYLINE
  5
55C9D
330
1F
100
AcDbEntity
  8
1
100
AcDbPolyline
 90
       10
 70
     0
 43
0.0
 10
32.46461082169999
 20
20.15566055088276
 42
0.0351402215954921
 10
32.45096146443183
 20
20.19578376122331
 42
0.0365183872652799
 10
32.43171831046665
 20
20.23357810075288
 42
0.0364673580380973
 10
32.40717502205696
 20
20.2681627000868
 42
0.036417980792575
 10
32.37787120261329
 20
20.29881712102405
 42
0.0365694755967408
 10
32.34442714394763
 20
20.32489149407701
 42
0.0366810376054635
 10
32.30753507077788
 20
20.34579486503606
 42
0.0368778973490234
 10
32.26797018996973
 20
20.36107493949657
 42
0.0368144118009316
 10
32.22658630308372
 20
20.37038772106217
 42
0.0367915939116883
 10
32.18428671029997
 20
20.37351150458281
  0
LWPOLYLINE
  5
55C9E
330
1F
100
AcDbEntity
  8
1
100
AcDbPolyline
 90
        4
 70
     0
 43
0.0
 10
31.08138441989996
 20
19.67717828348282
 42
0.0220729944012581
 10
31.13932118097941
 20
19.66399849272817
 42
0.0224227935868283
 10
31.1982239986744
 20
19.65600989389492
 42
0.0223735999934713
 10
31.25761344399996
 20
19.6533466167828
  0
LWPOLYLINE
  5
55C9F
330
1F
100
AcDbEntity
  8
1
100
AcDbPolyline
 90
        4
 70
     0
 43
0.0
 10
31.08138441989996
 20
19.67717828348282
 10
31.05627802976432
 20
19.68287207851821
 10
31.03073359592293
 20
19.6863439617785
 10
31.00500857719999
 20
19.68751476878282
  0
LWPOLYLINE
  5
55CA0
330
1F
100
AcDbEntity
  8
1
100
AcDbPolyline
 90
        4
 70
     0
 43
0.0
 10
31.0050085771
 20
17.7315134811828
 10
31.0307261966247
 20
17.73268361574571
 10
31.0562691999848
 20
17.7361545722898
 10
31.08138441989996
 20
17.74184996648278
  0
LWPOLYLINE
  5
55CA1
330
1F
100
AcDbEntity
  8
1
100
AcDbPolyline
 90
        4
 70
     0
 43
0.0
 10
31.25761344409994
 20
17.76568163318278
 42
0.0223655760826548
 10
31.19824490203018
 20
17.76302023728355
 42
0.022425637859169
 10
31.13933485334178
 20
17.75503223764991
 42
0.0220781720495533
 10
31.08138441989996
 20
17.74184996648278
  0
LWPOLYLINE
  5
55CA2
330
1F
100
AcDbEntity
  8
1
100
AcDbPolyline
 90
        4
 70
     0
 43
0.0
 10
33.36356484349997
 20
19.68751476878282
 10
33.33784722398713
 20
19.6863446344542
 10
33.31230422064328
 20
19.6828736779035
 10
33.28718900079997
 20
19.67717828348282
  0
LWPOLYLINE
  5
55CA3
330
1F
100
AcDbEntity
  8
1
100
AcDbPolyline
 90
        4
 70
     0
 43
0.0
 10
33.11095997659999
 20
19.6533466167828
 42
0.02236557579254
 10
33.17032851866902
 20
19.65600801269095
 42
0.0224256379626692
 10
33.22923856735679
 20
19.66399601232456
 42
0.0220781719569397
 10
33.28718900079997
 20
19.67717828348282
  0
LWPOLYLINE
  5
55CA4
330
1F
100
AcDbEntity
  8
1
100
AcDbPolyline
 90
       10
 70
     0
 43
0.0
 10
32.18428671029997
 20
20.37351150458281
 42
0.0367734787267428
 10
32.14200749070548
 20
20.37039074948257
 42
0.036796100400469
 10
32.10064335736019
 20
20.36108712439
 42
0.0368752926410675
 10
32.06107907893573
 20
20.34581414412905
 42
0.0366853181559902
 10
32.02417954177497
 20
20.32491371056091
 42
0.0365691344474337
 10
31.99073261752776
 20
20.29884460607588
 42
0.036416942788463
 10
31.9614251513382
 20
20.26819510729621
 42
0.0364621292369909
 10
31.93687987616164
 20
20.23361902063005
 42
0.0365325556778695
 10
31.9176246884038
 20
20.19581399912602
 42
0.0351677599432837
 10
31.90396259890003
 20
20.15566055088276
  0
LWPOLYLINE
  5
55CA5
330
1F
100
AcDbEntity
  8
1
100
AcDbPolyline
 90
       13
 70
     0
 43
0.0
 10
31.25761344399996
 20
19.6533466167828
 42
0.0276289889810458
 10
31.33085187609703
 20
19.65740299221778
 42
0.0276186597947885
 10
31.40320003843072
 20
19.6695212372063
 42
0.0276602248906036
 10
31.47378051391468
 20
19.68954787498228
 42
0.0275792531122978
 10
31.54172220792174
 20
19.71722727796048
 42
0.0275105595443647
 10
31.60620514906361
 20
19.75221336441477
 42
0.0275024599051514
 10
31.66646095861029
 20
19.79406378777257
 42
0.0273897574610409
 10
31.72177094781267
 20
19.8422618681646
 42
0.0273474066899207
 10
31.7714816209479
 20
19.89621793587241
 42
0.0272426116307038
 10
31.8150226001678
 20
19.95526356417439
 42
0.0272495541457244
 10
31.85188163702708
 20
20.01868910276471
 42
0.0272817667061446
 10
31.88162248399129
 20
20.08577467630249
 42
0.026718822069454
 10
31.90396259890003
 20
20.15566055088276
  0
LWPOLYLINE
  5
55CA6
330
1F
100
AcDbEntity
  8
1
100
AcDbPolyline
 90
       16
 70
     0
 43
0.0
 10
31.00500857719999
 20
19.68751476878282
 42
0.0388696987758269
 10
30.9593878873161
 20
19.68386660082439
 42
0.0401933776534321
 10
30.91489594984512
 20
19.67306506147872
 42
0.0397342563377965
 10
30.87268513076299
 20
19.6553287997679
 42
0.0394846355508145
 10
30.83380020070965
 20
19.63115464625198
 42
0.0395665863281846
 10
30.79920557747448
 20
19.60116265402495
 42
0.0393283041664793
 10
30.76974310398779
 20
19.56611443825238
 42
0.0391398738319394
 10
30.74612481847464
 20
19.52688891062978
 42
0.0391694278925585
 10
30.72890916621878
 20
19.48446206286286
 42
0.0389901838101419
 10
30.7184969246328
 20
19.43987431625641
 42
0.038929879547983
 10
30.71513648182651
 20
19.39420999190956
 42
0.0390803606402675
 10
30.7189063200687
 20
19.34857850080078
 42
0.0388813219073537
 10
30.72970665199023
 20
19.30408285031045
 42
0.039169580208692
 10
30.74728784253645
 20
19.26181064554441
 42
0.0390223590005913
 10
30.77084222028225
 20
19.2234422472092
 42
0.0387275663966189
 10
30.80106030850001
 20
19.18799639238278
  0
LWPOLYLINE
  5
55CA7
330
1F
100
AcDbEntity
  8
1
100
AcDbPolyline
 90
       15
 70
     0
 43
0.0
 10
30.80106030850001
 20
18.23103185758282
 42
0.0277271118483112
 10
30.85163917589148
 20
18.28756660350837
 42
0.0283784000874862
 10
30.89559226778164
 20
18.34943047010767
 42
0.0281799574979683
 10
30.9322754845798
 20
18.41585970226957
 42
0.0280285643339563
 10
30.96127708505711
 20
18.48598231102078
 42
0.0280690375056373
 10
30.98225333251091
 20
18.5589097840347
 42
0.0279881237558
 10
30.99493922248547
 20
18.63372636610295
 42
0.0279987852394328
 10
30.99918465568285
 20
18.70949183284671
 42
0.0279987108305639
 10
30.99494420379079
 20
18.78525757806398
 42
0.0279880579054921
 10
30.98226326479781
 20
18.86007485185252
 42
0.0280692949188378
 10
30.96129166035622
 20
18.93300422016332
 42
0.028028846588359
 10
30.93229422295713
 20
19.00312957980878
 42
0.0281772199518513
 10
30.89561899903552
 20
19.06955523130335
 42
0.0283830153566547
 10
30.85166322368571
 20
19.13143155424517
 42
0.0277413141715703
 10
30.80106030850001
 20
19.18799639238278
  0
LWPOLYLINE
  5
55CA8
330
1F
100
AcDbEntity
  8
1
100
AcDbPolyline
 90
       16
 70
     0
 43
0.0
 10
30.80106030850001
 20
18.23103185758282
 42
0.0380326525039093
 10
30.77132399166362
 20
18.19624751059507
 42
0.0404014966462276
 10
30.74693166479892
 20
18.15651862103458
 42
0.0399508966413839
 10
30.72918044050002
 20
18.1133196875828
 42
0.0388747943651144
 10
30.71863827017734
 20
18.06876221044823
 42
0.0399302064683718
 10
30.71513711075188
 20
18.02211794164589
 42
0.0389398494511862
 10
30.7189163457989
 20
17.97648670648857
 42
0.0389782944301345
 10
30.72973776909363
 20
17.93199629105248
 42
0.0391823213112038
 10
30.74734380799828
 20
17.88972994763621
 42
0.0391561274522656
 10
30.77132282459698
 20
17.85072414934637
 42
0.0393194225140454
 10
30.80110898569927
 20
17.8159501634691
 42
0.039584747829246
 10
30.83598138492793
 20
17.78628165863016
 42
0.0394936851643805
 10
30.87508879734878
 20
17.76247082207145
 42
0.0397405013727167
 10
30.91746372308768
 20
17.74513044976339
 42
0.0402088774208799
 10
30.96206720078112
 20
17.73474766999071
 42
0.0365179765184067
 10
31.0050085771
 20
17.7315134811828
  0
LWPOLYLINE
  5
55CA9
330
1F
100
AcDbEntity
  8
1
100
AcDbPolyline
 90
       19
 70
     0
 43
0.0
 10
32.26959525079998
 20
21.6095113167828
 42
-0.022045101227531
 10
32.52137355833168
 20
21.5983986232284
 42
-0.0220432174868933
 10
32.77120387479911
 20
21.56513778670097
 42
-0.022056222823722
 10
33.0171546734195
 20
21.50999951049238
 42
-0.0220209941911768
 10
33.25729294137898
 20
21.43343489103779
 42
-0.021980105337206
 10
33.48976911977647
 20
21.33605507676481
 42
-0.021976732448156
 10
33.71280245930231
 20
21.21864545393146
 42
-0.02191446680436
 10
33.92468919120762
 20
21.08214255151557
 42
-0.0218760430201921
 10
34.12381902161519
 20
20.92762287905898
 42
-0.0218542702840709
 10
34.30869828816714
 20
20.75630790330473
 42
-0.0217854024627353
 10
34.4779447549158
 20
20.56953234672659
 42
-0.0217570971494812
 10
34.63030097960149
 20
20.36874106560646
 42
-0.0217222670049473
 10
34.76465386674519
 20
20.15548322660209
 42
-0.0216694796033801
 10
34.8800172364318
 20
19.93138311828477
 42
-0.0216585958267071
 10
34.97555209433679
 20
19.69813606134794
 42
-0.0215995733104418
 10
35.05058664627771
 20
19.45751243357777
 42
-0.0216156976576764
 10
35.10456965987677
 20
19.21132452437348
 42
-0.0216534816312173
 10
35.1370719549214
 20
18.96134075109779
 42
-0.0213738274694407
 10
35.14797909049998
 20
18.70951412498277
  0
LWPOLYLINE
  5
55CAA
330
1F
100
AcDbEntity
  8
1
100
AcDbPolyline
 90
       13
 70
     0
 43
0.0
 10
31.90396259890003
 20
17.2633676990828
 42
0.0267070120058302
 10
31.88163392038081
 20
17.33322345877769
 42
0.0272765501544204
 10
31.85190233250628
 20
17.40029859458281
 42
0.0272524950008459
 10
31.81504329709679
 20
17.46373315629266
 42
0.0272424566718809
 10
31.77150592214446
 20
17.522780860136
 42
0.027346943628247
 10
31.72179896942111
 20
17.57673912295477
 42
0.027389728043023
 10
31.6664918376429
 20
17.62494039563119
 42
0.0275026184379873
 10
31.6062381149311
 20
17.66679457792547
 42
0.0275110473140259
 10
31.54175583921386
 20
17.70178505385296
 42
0.0275776558271523
 10
31.47381978143972
 20
17.72946684757409
 42
0.027660610962627
 10
31.40323941736091
 20
17.74949815715739
 42
0.0276261336492007
 10
31.33087217831974
 20
17.7616230010193
 42
0.0276367336151903
 10
31.25761344409994
 20
17.76568163318278
  0
LWPOLYLINE
  5
55CAB
330
1F
100
AcDbEntity
  8
1
100
AcDbPolyline
 90
       10
 70
     0
 43
0.0
 10
31.90396259890003
 20
17.2633676990828
 42
0.0351402219715417
 10
31.91761195615749
 20
17.22324448873951
 42
0.0365183870670517
 10
31.93685511014428
 20
17.18545014922488
 42
0.036467358209653
 10
31.9613983985895
 20
17.15086554992138
 42
0.0364179804099142
 10
31.99070221802222
 20
17.12021112897048
 42
0.0365694754867388
 10
32.02414627665763
 20
17.09413675588206
 42
0.0366810375859565
 10
32.06103834982128
 20
17.0732333849213
 42
0.0368778970284872
 10
32.1006032306334
 20
17.0579533104746
 42
0.0368144120231956
 10
32.14198711751931
 20
17.04864052891587
 42
0.036791594493445
 10
32.18428671029997
 20
17.04551674538281
  0
LWPOLYLINE
  5
55CAC
330
1F
100
AcDbEntity
  8
1
100
AcDbPolyline
 90
       19
 70
     0
 43
0.0
 10
32.26959525059996
 20
15.8095169331828
 42
0.0220451010083997
 10
32.52137355813918
 20
15.82062962682107
 42
0.022043217429289
 10
32.77120387463322
 20
15.8538904632527
 42
0.0220562230187422
 10
33.01715467325568
 20
15.90902873946021
 42
0.0220209941046376
 10
33.25729294120865
 20
15.98559335896595
 42
0.021980105249361
 10
33.48976911964741
 20
16.08297317317617
 42
0.0219767325462035
 10
33.7128024592038
 20
16.2003827959624
 42
0.0219144668214634
 10
33.92468919111462
 20
16.33688569838398
 42
0.0218760430069374
 10
34.12381902154121
 20
16.49140537083571
 42
0.0218542703421035
 10
34.30869828808764
 20
16.66272034660568
 42
0.0217854024321373
 10
34.4779447548143
 20
16.84949590321377
 42
0.0217570970783855
 10
34.63030097953796
 20
17.05028718432048
 42
0.0217222670821178
 10
34.76465386671632
 20
17.26354502331178
 42
0.021669479620105
 10
34.88001723638229
 20
17.48764513164785
 42
0.0216585957738872
 10
34.97555209428424
 20
17.72089218859706
 42
0.0215995733078145
 10
35.05058664624829
 20
17.96151581636928
 42
0.0216156976675066
 10
35.10456965986896
 20
18.20770372557748
 42
0.0216534816536028
 10
35.13707195492413
 20
18.45768749886071
 42
0.0213738274742064
 10
35.14797909049998
 20
18.70951412498277
  0
LWPOLYLINE
  5
55CAD
330
1F
100
AcDbEntity
  8
1
100
AcDbPolyline
 90
        4
 70
     0
 43
0.0
 10
33.28718900079997
 20
17.74184996648278
 42
0.0220729941516394
 10
33.22925223968628
 20
17.75502975723441
 42
0.0224227934846785
 10
33.17034942195824
 20
17.76301835606755
 42
0.022373600165528
 10
33.11095997659999
 20
17.76568163318278
  0
LWPOLYLINE
  5
55CAE
330
1F
100
AcDbEntity
  8
1
100
AcDbPolyline
 90
        4
 70
     0
 43
0.0
 10
33.28718900079997
 20
17.74184996648278
 10
33.31229539097473
 20
17.73615617166768
 10
33.33783982479889
 20
17.73268428841396
 10
33.36356484349997
 20
17.7315134811828
  0
LWPOLYLINE
  5
55CAF
330
1F
100
AcDbEntity
  8
1
100
AcDbPolyline
 90
        4
 70
     0
 43
0.0
 10
41.11944311679997
 20
19.90663875498279
 10
41.09433672666425
 20
19.9123325500182
 10
41.06879229282286
 20
19.91580443327848
 10
41.04306727409997
 20
19.91697524028278
  0
LWPOLYLINE
  5
55CB0
330
1F
100
AcDbEntity
  8
1
100
AcDbPolyline
 90
        4
 70
     0
 43
0.0
 10
41.04306727409997
 20
17.9609739527828
 10
41.06878489361228
 20
17.96214408711806
 10
41.09432789695563
 20
17.96561504366871
 10
41.11944311679997
 20
17.97131043808279
  0
LWPOLYLINE
  5
55CB1
330
1F
100
AcDbEntity
  8
1
100
AcDbPolyline
 90
       16
 70
     0
 43
0.0
 10
41.04306727409997
 20
19.91697524028278
 42
0.0388696990571186
 10
40.99744658421577
 20
19.91332707233157
 42
0.0401933775516044
 10
40.95295464676336
 20
19.90252553294969
 42
0.0397342551901969
 10
40.91074382768186
 20
19.8847892712397
 42
0.0394846354566258
 10
40.87185889756772
 20
19.8606151178061
 42
0.0395665877683777
 10
40.83726427438128
 20
19.8306231255508
 42
0.0393283027284338
 10
40.80780180096346
 20
19.79557490972166
 42
0.0391398733248578
 10
40.78418351535997
 20
19.75634938213971
 42
0.039169428948539
 10
40.76696786312797
 20
19.71392253438137
 42
0.0389901829623725
 10
40.7565556216345
 20
19.66933478775587
 42
0.0389298792391178
 10
40.75319517876397
 20
19.6236704634073
 42
0.0390803613680246
 10
40.75696501694888
 20
19.57803897230137
 42
0.0388813222282089
 10
40.76776534888892
 20
19.53354332181907
 42
0.0391695809241485
 10
40.78534653947079
 20
19.49127111706997
 42
0.0390223588230098
 10
40.80890091717228
 20
19.45290271880401
 42
0.038727566511693
 10
40.83911900539995
 20
19.4174568638828
  0
LWPOLYLINE
  5
55CB2
330
1F
100
AcDbEntity
  8
1
100
AcDbPolyline
 90
       15
 70
     0
 43
0.0
 10
40.83911900539995
 20
18.46049232918278
 42
0.0277271116471664
 10
40.88969787277688
 20
18.51702707511998
 42
0.0283783998765584
 10
40.93365096471068
 20
18.57889094168911
 42
0.0281799577845497
 10
40.970334181589
 20
18.64532017380621
 42
0.0280285647338928
 10
40.99933578208964
 20
18.71544278254497
 42
0.0280690377123557
 10
41.02031202949689
 20
18.78837025557088
 42
0.0279881237893799
 10
41.0329979193944
 20
18.8631868376513
 42
0.0279987849505963
 10
41.03724335255785
 20
18.93895230439671
 42
0.0279987105408494
 10
41.03300290069961
 20
19.01471804961549
 42
0.0279880578254032
 10
41.02032196178373
 20
19.08953532341621
 42
0.028069295059271
 10
40.99935035738869
 20
19.16246469173927
 42
0.0280288468932608
 10
40.9703529199657
 20
19.23259005137339
 42
0.028177219963487
 10
40.933677695965
 20
19.29901570282146
 42
0.0283830151013939
 10
40.88972192057148
 20
19.3608920257331
 42
0.0277413139735761
 10
40.83911900539995
 20
19.4174568638828
  0
LWPOLYLINE
  5
55CB3
330
1F
100
AcDbEntity
  8
1
100
AcDbPolyline
 90
       16
 70
     0
 43
0.0
 10
40.83911900539995
 20
18.46049232918278
 42
0.0380326526592998
 10
40.80938268859727
 20
18.42570798216046
 42
0.0404014965574209
 10
40.7849903616939
 20
18.38597909253478
 42
0.0399508970165857
 10
40.76723913739993
 20
18.3427801591828
 42
0.0388747949565312
 10
40.7566969670654
 20
18.29822268204401
 42
0.0399302071238011
 10
40.75319580769539
 20
18.25157841314689
 42
0.0389398484737172
 10
40.75697504279867
 20
18.20594717799245
 42
0.0389782940958574
 10
40.76779646602477
 20
18.16145676252158
 42
0.0391823221920165
 10
40.78540250494689
 20
18.11919041912091
 42
0.0391561260580679
 10
40.80938152163838
 20
18.0801846208892
 42
0.0393194214369974
 10
40.8391676826937
 20
18.04541063494378
 42
0.039584749396163
 10
40.87404008190532
 20
18.01574213009507
 42
0.0394936848555092
 10
40.91314749439066
 20
17.99193129364257
 42
0.0397405003204298
 10
40.95552242014782
 20
17.9745909213438
 42
0.0402088775572878
 10
41.00012589783989
 20
17.96420814155929
 42
0.0365179763531914
 10
41.04306727409997
 20
17.9609739527828
  0
LWPOLYLINE
  5
55CB4
330
1F
100
AcDbEntity
  8
1
100
AcDbPolyline
 90
       21
 70
     0
 43
0.0
 10
33.82383540339998
 20
21.72013447838282
 42
-0.0137449648563257
 10
33.98203786819801
 20
21.63946378895241
 42
-0.0138239435480968
 10
34.1355712596243
 20
21.55018880614426
 42
-0.0137879427849464
 10
34.28394006002822
 20
21.45257579454828
 42
-0.0137565938037233
 10
34.42670830981845
 20
21.34694313904299
 42
-0.0137498295136997
 10
34.56345457956401
 20
21.2336209023465
 42
-0.0137236805622442
 10
34.69377118509419
 20
21.11296007655142
 42
-0.0137058310062147
 10
34.81727513050579
 20
20.98533483646155
 42
-0.0136895201505383
 10
34.9336062919923
 20
20.85113895244518
 42
-0.0136648877387758
 10
35.04242561613387
 20
20.71078277781282
 42
-0.0136505761385905
 10
35.14341828289572
 20
20.5646937921278
 42
-0.0136332736700009
 10
35.23629477830832
 20
20.41331515539928
 42
-0.0136121008819883
 10
35.32078860402771
 20
20.25710264840393
 42
-0.0136017638877309
 10
35.39665934862199
 20
20.096524895465
 42
-0.0135854198769314
 10
35.4636929619156
 20
19.93206189270147
 42
-0.0135706298951751
 10
35.521699206732
 20
19.76420247327978
 42
-0.0135656398360076
 10
35.57051508863612
 20
19.59344276994789
 42
-0.0135471932891924
 10
35.61000606048629
 20
19.42028919594155
 42
-0.0135485046594302
 10
35.64005990814048
 20
19.24525540142019
 42
-0.0135566428784878
 10
35.66058651435787
 20
19.06883642221129
 42
-0.0134901306456416
 10
35.67154631069997
 20
18.8915684323828
  0
LWPOLYLINE
  5
55CB5
330
1F
100
AcDbEntity
  8
1
100
AcDbPolyline
 90
       22
 70
     0
 43
0.0
 10
35.67154631069997
 20
18.8915684323828
 42
-0.0136660872798927
 10
35.67284041526523
 20
18.71162117193454
 42
-0.0137810497963179
 10
35.66423097170599
 20
18.53124688378868
 42
-0.0137665133839308
 10
35.64570520339998
 20
18.35165428498276
 42
-0.0137182587323642
 10
35.6174319865786
 20
18.17392340416972
 42
-0.0137777917698385
 10
35.57931893478445
 20
17.99748140792423
 42
-0.0137760549600256
 10
35.53156380109999
 20
17.82346823888279
 42
-0.013749515541091
 10
35.47445782256045
 20
17.65280238055228
 42
-0.0137977575560346
 10
35.40789738556171
 20
17.48517536914306
 42
-0.0137991813415966
 10
35.33223521389999
 20
17.32156723038279
 42
-0.0137926163385003
 10
35.24779940642543
 20
17.16263802957534
 42
-0.0138267177855466
 10
35.15463904010196
 20
17.00847954326018
 42
-0.0138299828930675
 10
35.05317020439998
 20
16.8598094543828
 42
-0.0138465474330216
 10
34.94364910185431
 20
16.71700554495408
 42
-0.0138613963335326
 10
34.8264726735909
 20
16.58058478248306
 42
-0.0138638394780587
 10
34.70201986269997
 20
16.45097409388277
 42
-0.0139062491544326
 10
34.5703594225009
 20
16.32828262653299
 42
-0.0138989693096525
 10
34.43242056601389
 20
16.21337805311826
 42
-0.013893000593773
 10
34.28843926169999
 20
16.10640743588276
 42
-0.0139697850970028
 10
34.13822977052908
 20
16.00729521676931
 42
-0.0139519904470437
 10
33.98334546472395
 20
15.91708510526911
 42
-0.0138624285094653
 10
33.82383540319995
 20
15.8357018288828
  0
DIMENSION
  5
55CB6
330
1F
100
AcDbEntity
  8
sk2
100
AcDbDimension
  2
*D8
 10
-25.92137360576373
 20
23.815
 30
0.0
 11
-25.92137360576373
 21
-0.0000000000499922
 31
0.0
 70
   160
  1
%%c<>
 71
     5
 42
47.63000000009998
  3
\M+18352\M+18373\M+1815B - ISO-25
100
AcDbAlignedDimension
 13
1.5
 23
-23.81500000009999
 33
0.0
 14
1.5
 24
23.815
 34
0.0
 50
90.0
100
AcDbRotatedDimension
1001
ACAD
1000
DSTYLE
1002
{
1070
     4
1000
%%C[]"
1070
    40
1040
1.0
1070
   143
1040
0.03937
1070
   170
1070
     1
1070
   171
1070
     3
1070
   271
1070
     8
1070
   285
1070
     4
1002
}
  0
DIMENSION
  5
55CB7
330
1F
100
AcDbEntity
  8
sk2
100
AcDbDimension
  2
*D9
 10
-11.37322644166681
 20
9.525000000000007
 30
0.0
 11
-11.37322644166681
 21
0.0000000000000007
 31
0.0
 70
   160
  1
%%c<>
 71
     5
 42
19.05000000000001
  3
\M+18352\M+18373\M+1815B - ISO-25
100
AcDbAlignedDimension
 13
1.199999999999988
 23
-9.525000000000003
 33
0.0
 14
1.199999999999988
 24
9.525000000000003
 34
0.0
 50
90.0
100
AcDbRotatedDimension
1001
ACAD
1000
DSTYLE
1002
{
1070
     4
1000
%%C[]"
1070
    40
1040
1.0
1070
   143
1040
0.03937
1070
   170
1070
     1
1070
   171
1070
     3
1070
   271
1070
     8
1070
   285
1070
     4
1002
}
  0
LINE
  5
55CB8
330
1F
100
AcDbEntity
  8
1
100
AcDbLine
 10
1.5
 20
23.815
 30
0.0
 11
14.73205080760002
 21
23.815
 31
0.0
  0
LWPOLYLINE
  5
55CB9
330
1F
100
AcDbEntity
  8
1
100
AcDbPolyline
 90
       30
 70
     0
 43
0.0
 10
23.50498082979999
 20
16.6524156371828
 42
0.0129431032880558
 10
23.51041038431259
 20
16.44328903092798
 42
0.0130490887501473
 10
23.5267630566853
 20
16.23388414616755
 42
0.0130014120882109
 10
23.55389107782577
 20
16.02643721345922
 42
0.0129860468957209
 10
23.59176256979913
 20
15.82068214111808
 42
0.0129669656976208
 10
23.6402558019787
 20
15.61716692260636
 42
0.0129978684628306
 10
23.69924465465925
 20
15.41644279199931
 42
0.0130634941648628
 10
23.76860883603419
 20
15.21906363530701
 42
0.0131456490971057
 10
23.84822012600935
 20
15.02559132718471
 42
0.0130599225760839
 10
23.93785980871527
 20
14.83655569820831
 42
0.0129891964231799
 10
24.03721969565157
 20
14.65244286705558
 42
0.0129555519380901
 10
24.14599281193671
 20
14.47372995364679
 42
0.0129688544149644
 10
24.26387934617515
 20
14.30089295372932
 42
0.0130275928633402
 10
24.39058538954331
 20
14.13441411339008
 42
0.013131993540475
 10
24.5258225535182
 20
13.97478774837782
 42
0.0132453434681584
 10
24.66928746307031
 20
13.82251339982849
 42
0.013283942662012
 10
24.82063652421317
 20
13.67807431278555
 42
0.0131664131943224
 10
24.97941061495124
 20
13.54183714608391
 42
0.0131004740171198
 10
25.1451174148948
 20
13.41412243686932
 42
0.0130757195712621
 10
25.31727859454162
 20
13.29525169752031
 42
0.0130908145709184
 10
25.49542076631286
 20
13.185547167614
 42
0.013159537826963
 10
25.67907232961469
 20
13.08533872655789
 42
0.0132568913889669
 10
25.867759719432
 20
12.99496893049445
 42
0.0133298992566389
 10
26.06098213096027
 20
12.91475346252696
 42
0.0133024870615723
 10
26.2582042921307
 20
12.84494961041889
 42
0.0132354725932746
 10
26.45885264026617
 20
12.78570316755178
 42
0.0132261829623612
 10
26.66235280875941
 20
12.73715106741946
 42
0.0132612109726682
 10
26.86813269223097
 20
12.69944017235667
 42
0.013313186666145
 10
27.07564052322795
 20
12.67271455045817
 42
0.0131861132563712
 10
27.28344523179999
 20
12.65708011778281
  0
LWPOLYLINE
  5
55CBA
330
1F
100
AcDbEntity
  8
1
100
AcDbPolyline
 90
       48
 70
     0
 43
0.0
 10
13.9410355302
 20
18.46192582090001
 42
-0.0015535094961325
 10
14.03658079422629
 20
18.20458898271917
 42
0.0034416030494206
 10
14.1336155279896
 20
17.94781186500449
 42
0.0049924285428297
 10
14.23506732961451
 20
17.69275018777378
 42
0.0056744146130899
 10
14.34196644567771
 20
17.43992471541759
 42
0.0060407883251601
 10
14.4547711597414
 20
17.1896792185895
 42
0.0062589093030603
 10
14.57370211642779
 20
16.942287218947
 42
0.0063997722464449
 10
14.6988603118117
 20
16.6979871274855
 42
0.0064962753776287
 10
14.83027834711467
 20
16.45699710309029
 42
0.0065644645549792
 10
14.96794598191314
 20
16.219522068233
 42
0.0065967371864999
 10
15.11146912049997
 20
15.98631775699999
 42
0.0066504947812015
 10
15.26148317589769
 20
15.75644340988066
 42
0.0066811233897232
 10
15.41757239778471
 20
15.530649853369
 42
0.0067018779542822
 10
15.57964871496321
 20
15.30911458254524
 42
0.006721656193288
 10
15.74761361220049
 20
15.09201056490457
 42
0.006735155952931
 10
15.92136009885001
 20
14.87950446070118
 42
0.0067479325734411
 10
16.1007733264129
 20
14.67176128807978
 42
0.0067574973411757
 10
16.2857319003987
 20
14.46893857454097
 42
0.0067663357838183
 10
16.47610821717799
 20
14.27119294071619
 42
0.0067731006398212
 10
16.67176885206402
 20
14.07867367081451
 42
0.006779867465207
 10
16.87257561238363
 20
13.89152865281841
 42
0.0067845090962847
 10
17.07838476934051
 20
13.70989894709867
 42
0.0067902358947448
 10
17.28904880061492
 20
13.5339235583761
 42
0.0067932316924812
 10
17.5044150645713
 20
13.36373504715908
 42
0.006798495504332
 10
17.7243275656929
 20
13.19946334139199
 42
0.006800221502153
 10
17.94862578470932
 20
13.0412323168855
 42
0.0068052438790049
 10
18.17714601373214
 20
12.88916246611359
 42
0.0068060758883454
 10
18.40972067269092
 20
12.74336881359409
 42
0.006810773097011
 10
18.64617895492972
 20
12.60396207735059
 42
0.0068112262607101
 10
18.88634695401598
 20
12.47104823638401
 42
0.0068153064073896
 10
19.1300474425492
 20
12.34472789542018
 42
0.0068159101393289
 10
19.37710082233772
 20
12.22509768746261
 42
0.0068191598725921
 10
19.62732409810158
 20
12.11224788111042
 42
0.0068203329084436
 10
19.8805324771354
 20
12.00626546762817
 42
0.006822623597834
 10
20.13653791992547
 20
11.90723022921617
 42
0.0068245959096371
 10
20.39515092088771
 20
11.81521906724441
 42
0.0068259898042209
 10
20.6561791411751
 20
11.73030129945141
 42
0.0068287715582114
 10
20.91942895899433
 20
11.65254324669199
 42
0.0068291355018296
 10
21.18470422137079
 20
11.58200374735179
 42
0.0068325746566824
 10
21.45180738194998
 20
11.5187380210705
 42
0.0068327711074146
 10
21.72053953879461
 20
11.46279475769667
 42
0.0068550586201698
 10
21.99142840467849
 20
11.41409755110426
 42
0.0068350077333518
 10
22.26282068721801
 20
11.37294487758818
 42
0.0068374080021046
 10
22.53523464132721
 20
11.33922763881209
 42
0.0068408350576444
 10
22.80846578081221
 20
11.3129745137181
 42
0.0068476213667681
 10
23.08231814280469
 20
11.2942098016731
 42
0.0068388180491256
 10
23.35659641100747
 20
11.28294858033899
 42
0.0068251227999237
 10
23.63098770299996
 20
11.2791866142
  0
LWPOLYLINE
  5
55CBB
330
1F
100
AcDbEntity
  8
1
100
AcDbPolyline
 90
       37
 70
     0
 43
0.0
 10
22.17097695609999
 20
11.40519367430002
 42
-0.009788699530414
 10
21.7850911944351
 20
11.47484070994966
 42
-0.0098132142248627
 10
21.40224119994582
 20
11.55955537804959
 42
-0.0098069734794654
 10
21.02303013709997
 20
11.6592188845
 42
-0.009804667640473
 10
20.6479739244609
 20
11.7736891498905
 42
-0.0098076389077012
 10
20.27773164753481
 20
11.90276502587789
 42
-0.0098053137016474
 10
19.9128340199
 20
12.04626056289999
 42
-0.009805855423034
 10
19.5538089372283
 20
12.20397047650761
 42
-0.0098069393310658
 10
19.2012751210124
 20
12.37562225910878
 42
-0.0098049771875288
 10
18.85573942170001
 20
12.56096703680001
 42
-0.0098055639393533
 10
18.51771126563062
 20
12.7597343608729
 42
-0.0098066623123301
 10
18.1877588202378
 20
12.97158931246008
 42
-0.0098047290481724
 10
17.86636291850001
 20
13.19622139719999
 42
-0.0098050890235458
 10
17.55400564434862
 20
13.4332961158926
 42
-0.0098064026585494
 10
17.2511966993498
 20
13.6824257205281
 42
-0.009804471095908
 10
16.9583847401
 20
13.94323990430001
 42
-0.0098045705788125
 10
16.6760167236099
 20
14.21534244845779
 42
-0.0098061380773093
 10
16.40453846444663
 20
14.49830276487199
 42
-0.0098042080999665
 10
16.14435961159998
 20
14.79169344209998
 42
-0.0098040466794459
 10
15.89588407686997
 20
15.09506022015768
 42
-0.009805879872384
 10
15.65949074607391
 20
15.40793940149319
 42
-0.0098039536849288
 10
15.43554315769998
 20
15.72985034000001
 42
-0.0098035471747141
 10
15.22439434799571
 20
16.06028592447899
 42
-0.009805642475059
 10
15.0263552705548
 20
16.39875822447328
 42
-0.0098037210134275
 10
14.84173627019998
 20
16.74473858799996
 42
-0.0098031002766408
 10
14.67083214229021
 20
17.0976738159593
 42
-0.009805441862808
 10
14.51388643622798
 20
17.45705934757589
 42
-0.009803513421187
 10
14.37114958929999
 20
17.82232520240001
 42
-0.0098027400505909
 10
14.2428516626702
 20
18.19288035795469
 42
-0.0098053252833255
 10
14.12917028267722
 20
18.5682098335036
 42
-0.0098032297829415
 10
14.03028997459998
 20
18.94771026149999
 42
-0.0098025958348165
 10
13.94637081338331
 20
19.3307622314864
 42
-0.0098057098782571
 10
13.87752667207189
 20
19.71684647213411
 42
-0.0098016213739534
 10
13.8238705334
 20
20.10533292869999
 42
-0.0098038966417266
 10
13.78548844860114
 20
20.49558212106041
 42
-0.0098109283112536
 10
13.76243805505163
 20
20.88709487163908
 42
-0.0097856301360576
 10
13.75474545280002
 20
21.2791866142
  0
LWPOLYLINE
  5
55CBC
330
1F
100
AcDbEntity
  8
1
100
AcDbPolyline
 90
       40
 70
     0
 43
0.0
 10
20.08785637959997
 20
15.34839216769998
 42
0.0101650866682813
 10
20.06012414754662
 20
15.2155509235194
 42
0.010183665959043
 10
20.03781745208721
 20
15.08168419724029
 42
0.0102774528582907
 10
20.02090357659998
 20
14.94620116430002
 42
0.0102564863493038
 10
20.00963457591399
 20
14.81095942263658
 42
0.0103093490916691
 10
20.0039355415901
 20
14.67536820006059
 42
0.0103691313045878
 10
20.0038468120556
 20
14.5396574449084
 42
0.01043972568099
 10
20.00940426118152
 20
14.40406085912379
 42
0.0105199285088798
 10
20.02063848314063
 20
14.2688162574949
 42
0.0106064060903268
 10
20.03757502640809
 20
14.1341670352476
 42
0.0107048222263925
 10
20.06023307272619
 20
14.00036193446141
 42
0.0108080555040873
 10
20.0886246159514
 20
13.86765509694319
 42
0.0109201784554232
 10
20.12275446513374
 20
13.73630739870478
 42
0.0110414802554613
 10
20.16261786390069
 20
13.60658489540778
 42
0.0111646141237693
 10
20.20820101695091
 20
13.4787602836474
 42
0.0113003671737473
 10
20.25947882490919
 20
13.3531120856351
 42
0.0114336882136775
 10
20.316413799066
 20
13.22992426382089
 42
0.0115769713431647
 10
20.37895590071912
 20
13.10948660918251
 42
0.0117203210153745
 10
20.44703874476019
 20
12.99209236457915
 42
0.0118635855027691
 10
20.52058159975482
 20
12.87803942115226
 42
0.0120132821520056
 10
20.59948390650351
 20
12.76762679534776
 42
0.0121486956975238
 10
20.68362768542213
 20
12.66115464897218
 42
0.0122936766271858
 10
20.77287335898743
 20
12.5589214755949
 42
0.0124142860072419
 10
20.86705913139161
 20
12.4612210426767
 42
0.0125348222932873
 10
20.96600201031581
 20
12.36834111944409
 42
0.0126354035935143
 10
21.06949195786771
 20
12.2805567913376
 42
0.0127081932090438
 10
21.17729828848923
 20
12.19813008781477
 42
0.0127715523880677
 10
21.28916300973799
 20
12.12130181566569
 42
0.012750097475772
 10
21.4045101369
 20
12.05045962119999
 42
0.0127652878902038
 10
21.5236227178745
 20
11.98543230381457
 42
0.0127136933791905
 10
21.64589273730738
 20
11.9265569490274
 42
0.0126059843280816
 10
21.77098599987552
 20
11.87394550820118
 42
0.0124531588085506
 10
21.89855871694064
 20
11.82766869285628
 42
0.0122644490464621
 10
22.02826357241542
 20
11.78775467812042
 42
0.0120428190562461
 10
22.15975529272379
 20
11.75419149027439
 42
0.0117951601659648
 10
22.29269748341849
 20
11.7269325289671
 42
0.0115299992381415
 10
22.42676649579599
 20
11.70590209777198
 42
0.0112801195600844
 10
22.56165549471751
 20
11.69100681336177
 42
0.0110109268321865
 10
22.69707638179628
 20
11.68213990185569
 42
0.0108195354818466
 10
22.83227442190002
 20
11.67918680380001
  0
LWPOLYLINE
  5
55CBD
330
1F
100
AcDbEntity
  8
1
100
AcDbPolyline
 90
        6
 70
     0
 43
0.0
 10
15.23205080759999
 20
13.60609008910001
 42
-0.002923888998937
 10
15.12571886387241
 20
13.85802556615677
 42
-0.0027604544473223
 10
15.02223307742523
 20
14.11114603076089
 42
-0.0033531792581364
 10
14.9218351335995
 20
14.36550568808667
 42
-0.0036924744864114
 10
14.8250965577156
 20
14.62128012403477
 42
-0.0035063265595524
 10
14.73205080760002
 20
14.8784203184
  0
LINE
  5
55CBE
330
1F
100
AcDbEntity
  8
1
100
AcDbLine
 10
14.73205080760002
 20
14.8784203184
 30
0.0
 11
14.73205080760002
 21
0.0
 31
0.0
  0
LWPOLYLINE
  5
55CBF
330
1F
100
AcDbEntity
  8
1
100
AcDbPolyline
 90
       30
 70
     0
 43
0.0
 10
23.79999999999999
 20
7.757146809399984
 42
-0.0098381691375253
 10
23.45377786540712
 20
7.763979938729412
 42
-0.0098654498517263
 10
23.1080767566992
 20
7.784448804297085
 42
-0.0098480773199243
 10
22.76345403900072
 20
7.818528211655768
 42
-0.0098297440995282
 10
22.42044002829692
 20
7.866140566747191
 42
-0.0098154151997518
 10
22.07955986900629
 20
7.927189744275602
 42
-0.0097885215807993
 10
21.74133450232279
 20
8.001552634405499
 42
-0.0097573583287896
 10
21.40627403946863
 20
8.089078571178902
 42
-0.0097246695858191
 10
21.07487722208118
 20
8.189590117542508
 42
-0.0096820351647552
 10
20.74762958234351
 20
8.302884217691506
 42
-0.0096333095506116
 10
20.42500197060931
 20
8.428733870403981
 42
-0.0095824042075856
 10
20.10744789638022
 20
8.566886941140097
 42
-0.0095215032864248
 10
19.79540198433329
 20
8.717068237735787
 42
-0.0094533621455268
 10
19.48927915223189
 20
8.878981954909988
 42
-0.0093827146937144
 10
19.18947170196472
 20
9.05231094323139
 42
-0.0093018836731557
 10
18.89634819272012
 20
9.2367190541959
 42
-0.0092134785706955
 10
18.6102533982191
 20
9.431854146560503
 42
-0.0091224876198191
 10
18.33150531718363
 20
9.637347891259167
 42
-0.0090210809064092
 10
18.06039473536688
 20
9.852818589658484
 42
-0.0089130383334471
 10
17.79718613442111
 20
10.07787427288207
 42
-0.0088025073640604
 10
17.54211475238969
 20
10.31211284742591
 42
-0.0086810809561942
 10
17.29538728275611
 20
10.55512534564499
 42
-0.008556033185852
 10
17.0571831389278
 20
10.806498899562
 42
-0.0084283294509302
 10
16.82765323064637
 20
11.06581724499389
 42
-0.0082864276219294
 10
16.60691833913739
 20
11.33266266003727
 42
-0.0081505133239502
 10
16.39507148338214
 20
11.60662005109259
 42
-0.0080207739314225
 10
16.19219497538501
 20
11.8872830244704
 42
-0.0078284419968889
 10
15.99832167859696
 20
12.17423600737342
 42
-0.0076704916864048
 10
15.81341309659359
 20
12.4670630553806
 42
-0.0077189237858076
 10
15.63760270959997
 20
12.7654364017
  0
LWPOLYLINE
  5
55CC0
330
1F
100
AcDbEntity
  8
1
100
AcDbPolyline
 90
        4
 70
     0
 43
0.0
 10
27.49544092579001
 20
12.65241563718283
 10
27.43154417748423
 20
12.65400970776221
 10
27.36764645024016
 20
12.6555640987415
 10
27.30374777028999
 20
12.65707880948281
  0
LWPOLYLINE
  5
55CC1
330
1F
100
AcDbEntity
  8
1
100
AcDbPolyline
 90
        9
 70
     0
 43
0.0
 10
22.83227442190002
 20
11.67918680380001
 42
0.0093974276704271
 10
22.95282441058489
 20
11.68141922732519
 42
0.009300836153875
 10
23.0732079096268
 20
11.68816375177891
 42
0.0091705967881484
 10
23.19326308602882
 20
11.69934852927527
 42
0.0090837758713495
 10
23.3128295509389
 20
11.7149073394647
 42
0.0090110010365699
 10
23.4317506540072
 20
11.73478074295718
 42
0.0089507257884497
 10
23.54988467983748
 20
11.75891276490029
 42
0.0089181941586576
 10
23.66709203102157
 20
11.78725124862258
 42
0.0089152747211291
 10
23.78320378589998
 20
11.81974755279998
  0
LWPOLYLINE
  5
55CC2
330
1F
100
AcDbEntity
  8
1
100
AcDbPolyline
 90
        3
 70
     0
 43
0.0
 10
23.73151079549999
 20
11.2791866142
 10
23.68125223784998
 20
11.2794422348
 10
23.63099368019999
 20
11.2796978554
  0
LWPOLYLINE
  5
55CC3
330
1F
100
AcDbEntity
  8
1
100
AcDbPolyline
 90
       19
 70
     0
 43
0.0
 10
23.63099368019999
 20
11.2796978554
 10
23.54951128347
 20
11.2808631331396
 10
23.46804121693629
 20
11.28270210736717
 10
23.386589097681
 20
11.28521477731158
 10
23.3051604044367
 20
11.28840205988076
 10
23.22376083482871
 20
11.2922649340469
 10
23.1423962293833
 20
11.29680442389617
 10
23.06107235598847
 20
11.30202158602117
 10
22.9797947807638
 20
11.30791760198069
 10
22.8985694960636
 20
11.31449410287149
 10
22.8174023117264
 20
11.32175291303747
 10
22.73629932191552
 20
11.32969652588591
 10
22.65526665905372
 20
11.33832803865939
 10
22.57431076946722
 20
11.34765184492359
 10
22.49343837398431
 20
11.35767415401058
 10
22.41265696822001
 20
11.3684050102666
 10
22.33197521952348
 20
11.37986098428228
 10
22.25140567419172
 20
11.39208071223339
 42
-0.0033216173043083
 10
22.17097695609999
 20
11.40519367430002
  0
LWPOLYLINE
  5
55CC4
330
1F
100
AcDbEntity
  8
1
100
AcDbPolyline
 90
       18
 70
     0
 43
0.0
 10
24.52173029850002
 20
12.0102145116
 42
0.0637065791006169
 10
24.58290396701662
 20
12.02616528158458
 42
0.0141040006023033
 10
24.64208525132429
 20
12.04887933547729
 42
0.0079059759248569
 10
24.7002547350024
 20
12.07410616214278
 42
0.0067924690204198
 10
24.75765844008473
 20
12.1010223708962
 42
0.0060723115203407
 10
24.81435266226763
 20
12.12940593959499
 42
0.0056674673470948
 10
24.87036981458911
 20
12.15910416297578
 42
0.0054638298486919
 10
24.925711848101
 20
12.19004177065176
 42
0.0053493041433103
 10
24.9803725147552
 20
12.22216721740278
 42
0.0052658619111987
 10
25.03433944402337
 20
12.25544608729729
 42
0.0052158524296034
 10
25.08759713167049
 20
12.28984752638919
 42
0.0051948518369595
 10
25.1401273842811
 20
12.3253505045871
 42
0.0051771913744314
 10
25.1919101213249
 20
12.36193546098491
 42
0.0051864077830539
 10
25.24292365393072
 20
12.39958548827192
 42
0.0052027016755871
 10
25.29314407804851
 20
12.43828733525569
 42
0.0052189884048385
 10
25.34254810200613
 20
12.47802850345701
 42
0.005207590505134
 10
25.39111380105288
 20
12.51879232901598
 42
0.0533182494660584
 10
25.8360294558681
 20
12.99107878317264
  0
LWPOLYLINE
  5
55CC5
330
1F
100
AcDbEntity
  8
1
100
AcDbPolyline
 90
        7
 70
     0
 43
0.0
 10
22.17097695609999
 20
11.40519367430002
 10
22.16594252445521
 20
11.40599453024839
 10
22.16106275535532
 20
11.407297271684
 10
22.15588530268263
 20
11.40862240041099
 10
22.1509014988479
 20
11.41085913156868
 10
22.15043355139994
 20
11.41554805570001
 10
22.1548458664
 20
11.4187700959
  0
LWPOLYLINE
  5
55CC6
330
1F
100
AcDbEntity
  8
1
100
AcDbPolyline
 90
        6
 70
     0
 43
0.0
 10
23.78320378589998
 20
11.81974755279998
 42
0.0076626294896325
 10
23.88441084186411
 20
11.85172590035691
 42
0.0076711820095745
 10
23.98459305236412
 20
11.88679327616029
 42
0.0076827256273996
 10
24.0836504567483
 20
11.92491955640377
 42
0.0076878923471079
 10
24.1814925099502
 20
11.96607479964589
 42
0.0076713336260118
 10
24.27802261990001
 20
12.0102145116
  0
LWPOLYLINE
  5
55CC7
330
1F
100
AcDbEntity
  8
1
100
AcDbPolyline
 90
       30
 70
     0
 43
0.0
 10
23.77578279479999
 20
11.5719783888
 42
-0.002155136237552
 10
23.95861511391971
 20
11.58874198410041
 42
-0.0021200456478969
 10
24.14158582834409
 20
11.60394186063359
 42
-0.0020891036138669
 10
24.32467894482883
 20
11.61760171969399
 42
-0.0021638056771774
 10
24.50788152589621
 20
11.62970793558457
 42
-0.00226195757951
 10
24.69118339968111
 20
11.64019204554728
 42
-0.0023598830149382
 10
24.87457414754181
 20
11.6489812828203
 42
-0.0024554146608167
 10
25.0580411717886
 20
11.65600396436976
 42
-0.0025510297229905
 10
25.2415692098171
 20
11.66118930190759
 42
-0.0026541228522057
 10
25.42514152130141
 20
11.6644650184314
 42
-0.0027749076100671
 10
25.60873840819238
 20
11.66574739323809
 42
-0.0028962240662811
 10
25.79233774584139
 20
11.6649473520367
 42
-0.0030225136165681
 10
25.97591498383699
 20
11.66197441775119
 42
-0.0031513291590104
 10
26.15944115537536
 20
11.65673505334206
 42
-0.0032792858422269
 10
26.34288493678062
 20
11.64913563032309
 42
-0.0034051639324259
 10
26.52621049411772
 20
11.63908456901578
 42
-0.0035273068640209
 10
26.70937903137599
 20
11.6264920149494
 42
-0.003629564373191
 10
26.89234843087451
 20
11.61127892158816
 42
-0.0037210730683273
 10
27.075074205466
 20
11.59337584421727
 42
-0.0037700635167601
 10
27.25751106221873
 20
11.57273705990758
 42
-0.0037775680343278
 10
27.4396149895193
 20
11.54934114989589
 42
-0.0037246144658172
 10
27.62134718210163
 20
11.52321467254143
 42
-0.0035621082377886
 10
27.80350185530003
 20
11.49430748590001
 42
-0.0032189043207963
 10
27.98442423558149
 20
11.46305962497661
 42
-0.0026595315997384
 10
28.16496378362622
 20
11.4296689004214
 42
-0.0016918802356954
 10
28.34520203133448
 20
11.39468619925168
 10
28.52531405965891
 20
11.35905701504259
 42
0.0032289177366543
 10
28.70563427125751
 20
11.32450514099628
 42
0.0105186648444253
 10
28.88677201644739
 20
11.29461986491489
 42
0.0336618815219638
 10
29.06875454479999
 20
11.2791866142
  0
LWPOLYLINE
  5
55CC8
330
1F
100
AcDbEntity
  8
1
100
AcDbPolyline
 90
        6
 70
     0
 43
0.0
 10
23.77578279479999
 20
11.5719783888
 10
23.77750730867782
 20
11.62152469076128
 10
23.77911075323209
 20
11.67153996892207
 10
23.7805739322788
 20
11.721094676326
 10
23.78194158131214
 20
11.77065213858
 10
23.78320378709998
 20
11.81974755319999
  0
LWPOLYLINE
  5
55CC9
330
1F
100
AcDbEntity
  8
1
100
AcDbPolyline
 90
       21
 70
     0
 43
0.0
 10
22.17094495449999
 20
11.42368514769998
 42
-0.0253934480434151
 10
22.25034420835322
 20
11.43735178677249
 42
-0.0063634182595731
 10
22.33036826216423
 20
11.44696472007648
 10
22.41055044071163
 20
11.45517804208751
 10
22.49080318740531
 20
11.46267031758765
 10
22.57109551567697
 20
11.46972843292149
 10
22.65141120719832
 20
11.4765153912341
 10
22.73174099597079
 20
11.48313353556368
 10
22.81207886395998
 20
11.48965312301018
 10
22.89242051508239
 20
11.49612585269068
 10
22.97276274165023
 20
11.50259144601892
 10
23.05310296954562
 20
11.50908181524467
 10
23.13343904421993
 20
11.5156233188236
 10
23.2137690752349
 20
11.522238552846
 10
23.2940915889825
 20
11.5289444484915
 10
23.3744050790877
 20
11.5357576466354
 10
23.45470781822212
 20
11.54269642054709
 10
23.5349979189555
 20
11.54977982384247
 10
23.6152737757555
 20
11.55702299035439
 10
23.69553522470611
 20
11.56442445483475
 10
23.77578279619996
 20
11.57197838889999
  0
LWPOLYLINE
  5
55CCA
330
1F
100
AcDbEntity
  8
1
100
AcDbPolyline
 90
        4
 70
     0
 43
0.0
 10
22.1548458664
 20
11.4187700959
 10
22.16014206610783
 20
11.4203495430838
 10
22.16550867815294
 20
11.4219874038485
 10
22.17094495449999
 20
11.42368514769998
  0
LINE
  5
55CCB
330
1F
100
AcDbEntity
  8
1
100
AcDbLine
 10
23.79999999999999
 20
11.2791866142
 30
0.0
 11
23.79999999999999
 21
7.757146809399984
 31
0.0
  0
LINE
  5
55CCC
330
1F
100
AcDbEntity
  8
1
100
AcDbLine
 10
23.63098770299996
 20
11.2791866142
 30
0.0
 11
23.79999999999999
 21
11.2791866142
 31
0.0
  0
LINE
  5
55CCD
330
1F
100
AcDbEntity
  8
sk3
100
AcDbLine
 10
19.0006012114998
 20
6.511454833199991
 30
0.0
 11
29.14833286699979
 21
11.2789560481
 31
0.0
  0
LINE
  5
55CCE
330
1F
100
AcDbEntity
  8
sk3
100
AcDbLine
 10
18.8839544187544
 20
9.881726619384599
 30
0.0
 11
22.15547871109976
 21
11.41871996610041
 31
0.0
  0
LINE
  5
55CCF
330
1F
100
AcDbEntity
  8
1
100
AcDbLine
 10
15.63760270959997
 20
12.7654364017
 30
0.0
 11
15.63760270954822
 21
0.0
 31
0.0
  0
LWPOLYLINE
  5
55CD0
330
1F
100
AcDbEntity
  8
1
100
AcDbPolyline
 90
        6
 70
     0
 43
0.0
 10
15.38760270959997
 20
13.2545471082
 10
15.3557631621064
 20
13.324530704902
 10
15.3242882805429
 20
13.3946791557442
 10
15.29317853153773
 20
13.46499027431642
 10
15.26243255675098
 20
13.53546130290641
 10
15.23205080759999
 20
13.60609008910001
  0
LWPOLYLINE
  5
55CD1
330
1F
100
AcDbEntity
  8
1
100
AcDbPolyline
 90
       13
 70
     0
 43
0.0
 10
15.63760270959997
 20
12.7654364017
 10
15.61511104099279
 20
12.805320975619
 10
15.59293285936547
 20
12.84538083077706
 10
15.5710669874787
 20
12.8856119965784
 10
15.54950537289295
 20
12.92600704694169
 10
15.52824327609491
 20
12.96656055442537
 10
15.50727745604931
 20
13.00726802649176
 10
15.48660489225082
 20
13.04812520656909
 10
15.46622362721831
 20
13.08912847890528
 10
15.44613252730249
 20
13.13027470814728
 10
15.42633129412709
 20
13.17156119248466
 10
15.40682096635421
 20
13.2129859945029
 10
15.38760270959997
 20
13.2545471082
  0
LINE
  5
55CD2
330
1F
100
AcDbEntity
  8
1
100
AcDbLine
 10
15.38760270959921
 20
13.06085612437989
 30
0.0
 11
15.38760270959997
 21
13.2545471082
 31
0.0
  0
LINE
  5
55CD3
330
1F
100
AcDbEntity
  8
1
100
AcDbLine
 10
15.23205080759999
 20
13.60609008910001
 30
0.0
 11
15.23205080759999
 21
13.42848941411048
 31
0.0
  0
LWPOLYLINE
  5
55CD4
330
1F
100
AcDbEntity
  8
1
100
AcDbPolyline
 90
        6
 70
     0
 43
0.0
 10
16.80664575749998
 20
24.10175594170002
 10
17.5366346765332
 20
24.10198512911188
 10
18.26662359765348
 20
24.10220757816569
 10
18.99661252079539
 20
24.10242328892028
 10
19.72660144589923
 20
24.10263226167891
 10
20.4565903729
 20
24.10283449650001
  0
LWPOLYLINE
  5
55CD5
330
1F
100
AcDbEntity
  8
1
100
AcDbPolyline
 90
       25
 70
     0
 43
0.0
 10
20.08785637959997
 20
15.34839216769998
 42
-0.0105078334429695
 10
19.84147833297962
 20
15.51021266842609
 42
-0.0105386692272238
 10
19.60212401943351
 20
15.68225925156841
 42
-0.0105308363662486
 10
19.37024434940002
 20
15.8642251837
 42
-0.0105274115025355
 10
19.1462108343876
 20
16.05581029274728
 42
-0.0105315665950112
 10
18.9304557016639
 20
16.25664500602329
 42
-0.0105286682314334
 10
18.723346101
 20
16.46638775799999
 42
-0.010528705448425
 10
18.52524000076761
 20
16.68467741367391
 42
-0.0105306295909333
 10
18.33650808641772
 20
16.91110462230941
 42
-0.0105282043292197
 10
18.15747386099997
 20
17.1452802668
 42
-0.0105282812100397
 10
17.98845321752969
 20
17.3867931217963
 42
-0.0105303036519691
 10
17.82975252910273
 20
17.63520430328628
 42
-0.0105279358574177
 10
17.68164853669998
 20
17.89008027209999
 42
-0.010527757749994
 10
17.54440675394664
 20
18.1509655591594
 42
-0.0105300919363818
 10
17.41826788041931
 20
18.41740129359306
 42
-0.0105277307106717
 10
17.303456017
 20
18.688914912
 42
-0.0105273203550892
 10
17.20017982942832
 20
18.9650135536591
 42
-0.0105300094001006
 10
17.108614665559
 20
19.24522690966426
 42
-0.0105274558375884
 10
17.02892630280001
 20
19.5290500559
 42
-0.0105271441996655
 10
16.96126110999398
 20
19.81596066196101
 42
-0.0105305639614437
 10
16.9057308950712
 20
20.10548536326769
 42
-0.0105254652813201
 10
16.8624378252
 20
20.39709011939999
 42
-0.0105287541242987
 10
16.8314606205854
 20
20.69023571007341
 42
-0.0105369136028053
 10
16.8128558120425
 20
20.9844611779971
 42
-0.0105055233698638
 10
16.80664575759999
 20
21.2791866142
  0
LWPOLYLINE
  5
55CD6
330
1F
100
AcDbEntity
  8
1
100
AcDbPolyline
 90
        6
 70
     0
 43
0.0
 10
26.1999704202
 20
24.06572515900001
 42
0.00228791029066
 10
25.84800894102233
 20
23.52254470397418
 42
0.0023587497962231
 10
25.50111925170529
 20
22.97611044465651
 42
0.0021584029878907
 10
25.15920323166202
 20
22.42655051383108
 42
0.0019997396140597
 10
24.82182533985747
 20
21.87418932347018
 42
0.0020720280064896
 10
24.48895580479999
 20
21.3191015541
  0
LINE
  5
55CD7
330
1F
100
AcDbEntity
  8
1
100
AcDbLine
 10
20.4565903729
 20
24.10283449650001
 30
0.0
 11
20.4565903729
 21
16.2471425283
 31
0.0
  0
LINE
  5
55CD8
330
1F
100
AcDbEntity
  8
1
100
AcDbLine
 10
25.36559385059974
 20
20.63671703308299
 30
0.0
 11
27.7470986339998
 21
24.05175331608297
 31
0.0
  0
LWPOLYLINE
  5
55CD9
330
1F
100
AcDbEntity
  8
1
100
AcDbPolyline
 90
       16
 70
     0
 43
0.0
 10
22.2590026133
 20
17.5684973939
 42
0.0120662299017233
 10
22.11288631643939
 20
17.52503688698678
 42
0.012103732718813
 10
21.96902794048472
 20
17.4745639328203
 42
0.0121358352695628
 10
21.82778615496531
 20
17.41718012127691
 42
0.0121730704889857
 10
21.6895013430269
 20
17.353000286557
 42
0.0122194058388264
 10
21.5545095625086
 20
17.28215398850329
 42
0.0122611255813188
 10
21.42314674251281
 20
17.2047865509686
 42
0.0123104535432407
 10
21.29574345204389
 20
17.1210592836926
 42
0.0123639675431712
 10
21.17262476709723
 20
17.0311503581594
 42
0.0124120454511958
 10
21.0541102712267
 20
16.93525402503059
 42
0.0124681576929933
 10
20.9405128081772
 20
16.83358140253017
 42
0.0125280577935033
 10
20.83213705571933
 20
16.72635983064489
 42
0.012570705863099
 10
20.72927745491128
 20
16.61383563480299
 42
0.0126377780670529
 10
20.63222007221549
 20
16.49627427670609
 42
0.0127200344372132
 10
20.54124326709947
 20
16.37393735315149
 42
0.0126542179619766
 10
20.4565903729
 20
16.2471425283
  0
LWPOLYLINE
  5
55CDA
330
1F
100
AcDbEntity
  8
1
100
AcDbPolyline
 90
        9
 70
     0
 43
0.0
 10
20.4565903729
 20
16.2471425283
 42
0.0101591074094274
 10
20.39472945263861
 20
16.14204000982198
 42
0.0101880832566889
 10
20.33719107452183
 20
16.03450084269008
 42
0.010190384759733
 10
20.28408306188331
 20
15.92470731205299
 42
0.0101917794912666
 10
20.2354938471754
 20
15.81284106696529
 42
0.0101954798828753
 10
20.19150439741662
 20
15.69908745451177
 42
0.0102052649680756
 10
20.1521920343549
 20
15.58363580025877
 42
0.0102140907890912
 10
20.11762492849749
 20
15.46666917465659
 42
0.0101818935680393
 10
20.08785637959997
 20
15.34839216769998
  0
LINE
  5
55CDB
330
1F
100
AcDbEntity
  8
1
100
AcDbLine
 10
23.50498082979999
 20
17.63671703308282
 30
0.0
 11
23.50498082979999
 21
16.6524156371828
 31
0.0
  0
LINE
  5
55CDC
330
1F
100
AcDbEntity
  8
1
100
AcDbLine
 10
24.48895580480013
 20
21.31910155409991
 30
0.0
 11
22.25900261330011
 21
17.56849739389991
 31
0.0
  0
LINE
  5
55CDD
330
1F
100
AcDbEntity
  8
1
100
AcDbLine
 10
23.5049808298001
 20
17.63671703308273
 30
0.0
 11
25.36559385060008
 21
20.63671703308273
 31
0.0
  0
LWPOLYLINE
  5
55CDE
330
1F
100
AcDbEntity
  8
1
100
AcDbPolyline
 90
        4
 70
     0
 43
0.0
 10
26.1999704202
 20
24.06572515900001
 42
0.0006185905288619
 10
24.2855433621254
 20
24.08283202628059
 42
0.0006185985422678
 10
22.37107919469079
 20
24.0952018329217
 42
0.0006185906957947
 10
20.4565903729
 20
24.10283449650001
  0
LINE
  5
55CDF
330
1F
100
AcDbEntity
  8
1
100
AcDbLine
 10
28.84351541889987
 20
24.63809783928298
 30
0.0
 11
30.1500620951
 21
25.398097839283
 31
0.0
  0
LINE
  5
55CE0
330
1F
100
AcDbEntity
  8
1
100
AcDbLine
 10
27.74709863400031
 20
24.05175331608229
 30
0.0
 11
28.84351541890032
 21
24.63809783928232
 31
0.0
  0
LWPOLYLINE
  5
55CE1
330
1F
100
AcDbEntity
  8
1
100
AcDbPolyline
 90
       13
 70
     0
 43
0.0
 10
13.75474545280002
 20
23.68264493469999
 42
0.011973317774903
 10
13.72927417508799
 20
23.48357847472539
 42
0.0053264967951574
 10
13.71123464565349
 20
23.28368221373259
 42
0.003036851926739
 10
13.6962641110575
 20
23.08353229211929
 42
0.0021384625537326
 10
13.68336664566038
 20
22.88323777867228
 42
0.0014417520511011
 10
13.67186867598462
 20
22.68285660446642
 42
0.0011430607201699
 10
13.66140625790629
 20
22.48241916271101
 42
0.0009349067354097
 10
13.65177029701769
 20
22.28194028026309
 42
0.0007653666290213
 10
13.64281580754562
 20
22.0814296360295
 42
0.0006343425833816
 10
13.63442108141891
 20
21.88089483099
 42
0.0005140170825926
 10
13.6264864184281
 20
21.68034120850277
 42
0.0005141320736501
 10
13.61895739251687
 20
21.47977186962791
 42
0.000549938351237
 10
13.6118552106
 20
21.2791866142
  0
LINE
  5
55CE2
330
1F
100
AcDbEntity
  8
1
100
AcDbLine
 10
16.80664575759999
 20
21.2791866142
 30
0.0
 11
16.80664575750009
 21
24.10175594170002
 31
0.0
  0
LINE
  5
55CE3
330
1F
100
AcDbEntity
  8
1
100
AcDbLine
 10
13.75474545280002
 20
21.2791866142
 30
0.0
 11
13.75474545280002
 21
23.68264493469999
 31
0.0
  0
LWPOLYLINE
  5
55CE4
330
1F
100
AcDbEntity
  8
1
100
AcDbPolyline
 90
       10
 70
     0
 43
0.0
 10
13.9410355302
 20
18.46192582090001
 42
-0.0082601569728971
 10
13.86299321173999
 20
18.76846774228909
 42
-0.0082706726674362
 10
13.79512243730829
 20
19.07743423707609
 42
-0.0082862473903301
 10
13.73751782370422
 20
19.38847639950168
 42
-0.0083059097600508
 10
13.69026474490764
 20
19.7012571504236
 42
-0.0083303428529785
 10
13.65344197984763
 20
20.01543777151542
 42
-0.0083517901889357
 10
13.62711985415541
 20
20.3306718056819
 42
-0.0083940182437475
 10
13.61136399691
 20
20.64660761558741
 42
-0.0084587176377802
 10
13.60626490884729
 20
20.96290093873279
 42
-0.0084324982999356
 10
13.6118552106
 20
21.2791866142
  0
LWPOLYLINE
  5
55CE5
330
1F
100
AcDbEntity
  8
1
100
AcDbPolyline
 90
       10
 70
     0
 43
0.0
 10
14.73205080760002
 20
14.8784203184
 42
-0.0071595150060186
 10
14.60190067322932
 20
15.26577134193698
 42
-0.0072386992790282
 10
14.4829726886484
 20
15.65672291444071
 42
-0.0069243279212757
 10
14.37517716500372
 20
16.05088941139158
 42
-0.00663723983149
 10
14.27809722216849
 20
16.4478315518335
 42
-0.0063986348918865
 10
14.19139747208183
 20
16.84717134994039
 42
-0.0061562191637661
 10
14.1147509015521
 20
17.24856259591078
 42
-0.0058363038586639
 10
14.0477730366234
 20
17.6516777191292
 42
-0.005493698611545
 10
13.98992622335913
 20
18.05621207867719
 42
-0.0055797816301474
 10
13.9410355302
 20
18.46192582090001
  0
LINE
  5
55CE6
330
1F
100
AcDbEntity
  8
1
100
AcDbLine
 10
13.6118552106
 20
21.2791866142
 30
0.0
 11
16.80664575759999
 21
21.2791866142
 31
0.0
  0
LWPOLYLINE
  5
55CE7
330
1F
100
AcDbEntity
  8
1
100
AcDbPolyline
 90
       10
 70
     0
 43
0.0
 10
15.63760270959997
 20
24.10472192809999
 10
15.76749593082522
 20
24.10421582163099
 10
15.897389147838
 20
24.10370857525339
 10
16.02728241803962
 20
24.10321529688881
 10
16.15717585815326
 20
24.1027692749707
 10
16.28706950650363
 20
24.10238877602592
 10
16.41696336237021
 20
24.10208766080618
 10
16.54685739636531
 20
24.10187758899161
 10
16.67675155384722
 20
24.10176629493392
 10
16.80664575749998
 20
24.10175594170002
  0
LWPOLYLINE
  5
55CE8
330
1F
100
AcDbEntity
  8
1
100
AcDbPolyline
 90
        6
 70
     0
 43
0.0
 10
15.23205080759999
 20
23.9489610711
 10
15.26315153626879
 20
23.96689090610167
 10
15.29425740068251
 20
23.98481182987152
 10
15.32536824926464
 20
24.00272409966459
 10
15.35648339244113
 20
24.020628908682
 10
15.38760270959997
 20
24.03852646199999
  0
LWPOLYLINE
  5
55CE9
330
1F
100
AcDbEntity
  8
1
100
AcDbPolyline
 90
        9
 70
     0
 43
0.0
 10
15.38760270959997
 20
24.03852646199999
 10
15.41646486595221
 20
24.053879176854
 10
15.44627679136599
 20
24.0673086762894
 10
15.47690764191179
 20
24.0787458922035
 10
15.50822365560523
 20
24.08814518866149
 10
15.5400889564664
 20
24.09546905560103
 10
15.57236519085279
 20
24.1006852759281
 10
15.60491846192178
 20
24.10377124265941
 10
15.63760270959997
 20
24.10472192809999
  0
LWPOLYLINE
  5
55CEA
330
1F
100
AcDbEntity
  8
1
100
AcDbPolyline
 90
        3
 70
     0
 43
0.0
 10
15.19074470789999
 20
23.92640598319997
 10
15.21139775775
 20
23.93768352715
 10
15.23205080759999
 20
23.9489610711
  0
LWPOLYLINE
  5
55CEB
330
1F
100
AcDbEntity
  8
1
100
AcDbPolyline
 90
       18
 70
     0
 43
0.0
 10
13.75474545280002
 20
23.68264493469999
 42
-0.229156164377673
 10
13.79463775819999
 20
23.72492979949999
 42
-0.0450686519802832
 10
13.84979455910928
 20
23.74624919102149
 42
-0.021666672177691
 10
13.9072532848495
 20
23.76024162478336
 42
-0.0120287841741204
 10
13.96551246829921
 20
23.77057817508342
 42
-0.0080551683764312
 10
14.02411856196539
 20
23.77860747235087
 10
14.0829334879981
 20
23.7850279765197
 10
14.14186381087918
 20
23.79028183257108
 10
14.2008665776539
 20
23.79462865640727
 10
14.25991834287691
 20
23.79825653401168
 10
14.31842107957388
 20
23.80127319166388
 10
14.37752906455461
 20
23.80384001599521
 10
14.43665336062824
 20
23.80599564582778
 10
14.4957890646788
 20
23.80780658685359
 10
14.5549329790135
 20
23.80933230900788
 10
14.61408268128622
 20
23.81062632772398
 10
14.6732368217832
 20
23.81169596404817
 10
14.73205080760002
 20
23.81252000309999
  0
LWPOLYLINE
  5
55CEC
330
1F
100
AcDbEntity
  8
1
100
AcDbPolyline
 90
       10
 70
     0
 43
0.0
 10
14.73205080760002
 20
23.81252000309999
 42
0.012662399512446
 10
14.7849862737668
 20
23.81455599050699
 42
0.0127032600987445
 10
14.8377574285642
 20
23.819273453281
 42
0.0127577645234984
 10
14.8902198072148
 20
23.82667076144802
 42
0.0128224474825201
 10
14.94223427183061
 20
23.83674090260638
 42
0.0128732267340381
 10
14.9936630952867
 20
23.84946924288161
 42
0.0129313211100887
 10
15.0443660486859
 20
23.86483386331511
 42
0.0129858253096256
 10
15.09420604170699
 20
23.88280471589653
 42
0.0130350498095928
 10
15.14304551617312
 20
23.90334439578743
 42
0.013072002012222
 10
15.19074470789999
 20
23.92640598319997
  0
LINE
  5
55CED
330
1F
100
AcDbEntity
  8
1
100
AcDbLine
 10
14.73205080760002
 20
23.815
 30
0.0
 11
14.73205080760002
 21
23.81252000309999
 31
0.0
  0
LINE
  5
55CEE
330
1F
100
AcDbEntity
  8
1
100
AcDbLine
 10
0.0
 20
4.469999999900012
 30
0.0
 11
0.0
 21
22.315
 31
0.0
  0
LINE
  5
55CEF
330
1F
100
AcDbEntity
  8
1
100
AcDbLine
 10
0.0
 20
4.469999999900012
 30
0.0
 11
0.0
 21
22.31499999990001
 31
0.0
  0
LINE
  5
55CF0
330
1F
100
AcDbEntity
  8
sk3
100
AcDbLine
 10
1.200000160799504
 20
9.525000160799692
 30
0.0
 11
-0.0000000000003979
 21
10.7250003620997
 31
0.0
  0
ARC
  5
55CF1
330
1F
100
AcDbEntity
  8
1
100
AcDbCircle
 10
1.5
 20
22.315
 30
0.0
 40
1.5
100
AcDbArc
 50
90.0
 51
180.0
  0
LINE
  5
55CF2
330
1F
100
AcDbEntity
  8
1
100
AcDbLine
 10
23.79999999999999
 20
7.757146809399984
 30
0.0
 11
29.45386858229998
 21
7.757146809399984
 31
0.0
  0
LINE
  5
55CF3
330
1F
100
AcDbEntity
  8
sk3
100
AcDbLine
 10
19.39999999999997
 20
5.270000000000009
 30
0.0
 11
33.0
 21
5.270000000000009
 31
0.0
  0
LINE
  5
55CF4
330
1F
100
AcDbEntity
  8
sk3
100
AcDbLine
 10
19.39999999999997
 20
-5.269999999999981
 30
0.0
 11
33.0
 21
-5.269999999999981
 31
0.0
  0
LINE
  5
55CF5
330
1F
100
AcDbEntity
  8
1
100
AcDbLine
 10
15.63760270949998
 20
-24.10576982679998
 30
0.0
 11
29.45386858230015
 21
-24.10576982679998
 31
0.0
  0
LINE
  5
55CF6
330
1F
100
AcDbEntity
  8
4
100
AcDbLine
 10
-3.335501531441508
 20
0.0
 30
0.0
 11
52.32997738813875
 21
0.0
 31
0.0
  0
LINE
  5
55CF7
330
1F
100
AcDbEntity
  8
1
100
AcDbLine
 10
47.48439156699999
 20
-22.04227269736362
 30
0.0
 11
47.48439156699999
 21
2.5849736268
 31
0.0
  0
LINE
  5
55CF8
330
1F
100
AcDbEntity
  8
1
100
AcDbLine
 10
29.4538685823002
 20
-24.10576982679851
 30
0.0
 11
46.03541562933759
 21
-23.54140462786961
 31
0.0
  0
ARC
  5
55CF9
330
1F
100
AcDbEntity
  8
1
100
AcDbCircle
 10
45.98439156699998
 20
-22.04227269736362
 30
0.0
 40
1.5
100
AcDbArc
 50
271.9493516699265
 51
0.0
  0
LINE
  5
55CFA
330
1F
100
AcDbEntity
  8
sk3
100
AcDbLine
 10
33.89999999999999
 20
-7.620000000000003
 30
0.0
 11
42.57172889240002
 21
-7.620000000000003
 31
0.0
  0
ARC
  5
55CFB
330
1F
100
AcDbEntity
  8
sk3
100
AcDbCircle
 10
45.07172889240002
 20
-12.8392950482
 30
0.0
 40
2.0
100
AcDbArc
 50
180.0
 51
210.9904561776006
  0
ARC
  5
55CFC
330
1F
100
AcDbEntity
  8
sk3
100
AcDbCircle
 10
46.98439156699999
 20
-20.87905781248981
 30
0.0
 40
0.5
100
AcDbArc
 50
0.0
 51
30.99045617638042
  0
LINE
  5
55CFD
330
1F
100
AcDbEntity
  8
sk3
100
AcDbLine
 10
43.35722273389989
 20
-13.8690856251001
 30
0.0
 11
47.41301810664618
 21
-20.6216101682765
 31
0.0
  0
LINE
  5
55CFE
330
1F
100
AcDbEntity
  8
sk3
100
AcDbLine
 10
42.57172887609931
 20
-7.620000016300706
 30
0.0
 11
43.07172887499929
 21
-8.120000017400712
 31
0.0
  0
ARC
  5
55CFF
330
1F
100
AcDbEntity
  8
sk3
100
AcDbCircle
 10
33.89999999999999
 20
-7.219999999999997
 30
0.0
 40
0.4
100
AcDbArc
 50
180.0
 51
270.0
  0
LINE
  5
55D00
330
1F
100
AcDbEntity
  8
sk3
100
AcDbLine
 10
33.00000000350113
 20
-5.26999999649891
 30
0.0
 11
33.50000000390114
 21
-5.769999996198919
 31
0.0
  0
LWPOLYLINE
  5
55D01
330
1F
100
AcDbEntity
  8
1
100
AcDbPolyline
 90
        6
 70
     0
 43
0.0
 10
45.34601988249995
 20
7.926433789300005
 42
-0.0000056777733808
 10
42.16759114961692
 20
7.892433187479261
 42
-0.000005737648323
 10
38.98916164096491
 20
7.858505178080406
 42
-0.0000055835881511
 10
35.81073136339899
 20
7.824649279888802
 42
-0.000005439492787
 10
32.63230034195939
 20
7.790863283271902
 42
-0.0000054997393443
 10
29.45386858229998
 20
7.757146809399984
  0
LINE
  5
55D02
330
1F
100
AcDbEntity
  8
sk3
100
AcDbLine
 10
33.89999999999999
 20
7.619999999999997
 30
0.0
 11
42.57172889240002
 21
7.619999999999997
 31
0.0
  0
LWPOLYLINE
  5
55D03
330
1F
100
AcDbEntity
  8
1
100
AcDbPolyline
 90
       12
 70
     0
 43
0.0
 10
45.72006285369996
 20
7.446426077399991
 42
-0.0028604824885456
 10
45.89111282957128
 20
7.032712748359491
 42
-0.0025541684519798
 10
46.05766817919589
 20
6.617166798873995
 42
-0.0022964932805293
 10
46.22019528314933
 20
6.200028408008981
 42
-0.002072302861632
 10
46.37907297326373
 20
5.781486637555097
 42
-0.0018799778941527
 10
46.5346385801167
 20
5.361702242588669
 42
-0.0017062228315284
 10
46.6871954677101
 20
4.940814581663906
 42
-0.0015704541097758
 10
46.83699103826086
 20
4.518936247136785
 42
-0.0014225725641133
 10
46.98425455200447
 20
4.096167856801486
 42
-0.0012594295359373
 10
47.12924838324499
 20
3.672615184647916
 42
-0.001208028876817
 10
47.27218080266439
 20
3.248361272032781
 42
-0.0012590201889014
 10
47.41301810670001
 20
2.8234075254
  0
LWPOLYLINE
  5
55D04
330
1F
100
AcDbEntity
  8
1
100
AcDbPolyline
 90
       58
 70
     0
 43
0.0
 10
40.79387106429999
 20
3.411189563300013
 42
-0.0067594762355392
 10
40.81515257697569
 20
3.548349582176988
 42
-0.0068885680337684
 10
40.84015640194431
 20
3.684880890655016
 42
-0.0071230260503411
 10
40.86897641171839
 20
3.820661724145671
 42
-0.0073739172739602
 10
40.90171986425326
 20
3.955552071188407
 42
-0.0076407508283592
 10
40.93849765114677
 20
4.089396129778086
 42
-0.0079242643488185
 10
40.9794218275791
 20
4.222031047913694
 42
-0.0082600240788407
 10
41.02461630735172
 20
4.353271970251276
 42
-0.0086087557883821
 10
41.07421112096091
 20
4.482913585444578
 42
-0.0090070446537289
 10
41.1283403278737
 20
4.61072810438619
 42
-0.009424455725178
 10
41.18714207305439
 20
4.736459893003391
 42
-0.0098953611557381
 10
41.25075509112344
 20
4.859826954820184
 42
-0.0103932273030922
 10
41.31931872798491
 20
4.980511296793281
 42
-0.0109481545795856
 10
41.39296745791492
 20
5.098160320616699
 42
-0.0115363751561446
 10
41.47182844814913
 20
5.212379843529666
 42
-0.0121840110263033
 10
41.5560149374509
 20
5.322730430109281
 42
-0.012874509064733
 10
41.64562110068411
 20
5.428726212837688
 42
-0.0136187685584562
 10
41.74071233251845
 20
5.52982689210841
 42
-0.0144147059835635
 10
41.841316396443
 20
5.625440580111273
 42
-0.0152567044581519
 10
41.94741126441082
 20
5.714919530839402
 42
-0.0161476648838073
 10
42.05890982672849
 20
5.797562810727497
 42
-0.0170718359128681
 10
42.17564477273501
 20
5.872622216299902
 42
-0.0180153518610919
 10
42.29735220245049
 20
5.939311621765901
 42
-0.0189669561171218
 10
42.42365253146064
 20
5.996822376343602
 42
-0.0199049174997893
 10
42.55403543115486
 20
6.044347434018192
 42
-0.0207964943679237
 10
42.68784785638286
 20
6.081111632742704
 42
-0.0216034695925651
 10
42.82429009304578
 20
6.106409546879908
 42
-0.0222867321614288
 10
42.96242201622351
 20
6.119648656094199
 42
-0.0228067862083965
 10
43.1011826603235
 20
6.120393319331177
 42
-0.0231296589369533
 10
43.2394249214021
 20
6.108404168618895
 42
-0.0232306941802842
 10
43.37596277168279
 20
6.083666385374499
 42
-0.0230981991842579
 10
43.50962631944597
 20
6.046400757479204
 42
-0.0227373947750861
 10
43.63931841219093
 20
5.997054800312781
 42
-0.022168458271803
 10
43.76406417706331
 20
5.936274780194785
 42
-0.0214230454702913
 10
43.88304682238635
 20
5.864862804237759
 42
-0.020541360708583
 10
43.99562716920963
 20
5.783726216761492
 42
-0.0195662695421115
 10
44.10134641436942
 20
5.693826576583994
 42
-0.0185419746785051
 10
44.19991458228872
 20
5.596134313489301
 42
-0.0175066887380542
 10
44.29119083483388
 20
5.491592373498406
 42
-0.0164834897815134
 10
44.3751584265783
 20
5.381090528388589
 42
-0.0154859756180872
 10
44.45189821441156
 20
5.265448081080669
 42
-0.0145375707041051
 10
44.5215628175207
 20
5.145407612213594
 42
-0.0136469103839145
 10
44.58435743086726
 20
5.021632827909677
 42
-0.0128098502311163
 10
44.64052090944561
 20
4.894708379650488
 42
-0.012045793881148
 10
44.69031060705947
 20
4.765149408812789
 42
-0.0113311527329576
 10
44.73399411507062
 20
4.633404831656085
 42
-0.0106849663393094
 10
44.77183766481089
 20
4.499863498069252
 42
-0.010089980956212
 10
44.80410551871465
 20
4.364866133490409
 42
-0.0095518735028272
 10
44.83104770085788
 20
4.22870382385409
 42
-0.0090572391793975
 10
44.85290799399249
 20
4.091634346677493
 42
-0.0086067732388881
 10
44.86991396193301
 20
3.9538764695832
 42
-0.0081989999819934
 10
44.8822853573277
 20
3.815623320704411
 42
-0.0078647523386612
 10
44.89020984508618
 20
3.677043614993258
 42
-0.0075338884709698
 10
44.8938629478753
 20
3.538287869175995
 42
-0.00717002671639
 10
44.89343437231281
 20
3.399486270097668
 42
-0.0068139742860368
 10
44.88912533523969
 20
3.260744536981995
 42
-0.0068064677051222
 10
44.88105339053428
 20
3.122162917032787
 42
-0.0069192439530361
 10
44.8691820231
 20
2.983866508900007
  0
LWPOLYLINE
  5
55D05
330
1F
100
AcDbEntity
  8
1
100
AcDbPolyline
 90
       37
 70
     0
 43
0.0
 10
46.03541562929999
 20
6.014637176399978
 10
46.0729133495971
 20
5.909504365518891
 10
46.11046049432878
 20
5.80438919085759
 10
46.14805530836512
 20
5.699291050215008
 10
46.18569603678781
 20
5.59420934080191
 10
46.22338136629521
 20
5.489143608887494
 10
46.26111466153639
 20
5.38409509404309
 10
46.29890211987211
 20
5.279066057618194
 10
46.3367499783694
 20
5.174058774608681
 10
46.37466429266896
 20
5.069075471690574
 10
46.41265019092779
 20
4.964118045625177
 10
46.45071249086639
 20
4.859188302785091
 10
46.4888560645885
 20
4.754288075167514
 10
46.52708684004713
 20
4.649419596078104
 10
46.56541168261123
 20
4.5445854619879
 10
46.60383751889271
 20
4.439788304063199
 10
46.64237209013282
 20
4.335031078956396
 10
46.68102399725799
 20
4.230317093975989
 10
46.7198019930812
 20
4.1256497352812
 10
46.75871651232039
 20
4.021033058457675
 10
46.79777924859107
 20
3.916471638816993
 10
46.83700259565452
 20
3.811970359569976
 10
46.87640204251818
 20
3.707535353736679
 10
46.91599416784821
 20
3.603173240677271
 10
46.9557993400405
 20
3.498892206236596
 10
46.9958412681425
 20
3.394701858854404
 10
47.03614889328346
 20
3.29061402204698
 10
47.07675770961299
 20
3.186643323715791
 10
47.11771343103999
 20
3.082808809855399
 10
47.15907422402873
 20
2.979135030753774
 10
47.20092112887312
 20
2.875656492549089
 42
0.0016271964336056
 10
47.24336848038322
 20
2.772422959761428
 42
0.0021721001438478
 10
47.28659131434088
 20
2.669511861354173
 42
0.0031241389992098
 10
47.330884492713
 20
2.567057583580599
 42
0.0052410976605806
 10
47.37684061159021
 20
2.465336221204779
 42
0.0124690539247277
 10
47.42608399923134
 20
2.36516300997308
 42
0.4218359819880634
 10
47.48439156699999
 20
2.309064104499974
  0
LWPOLYLINE
  5
55D06
330
1F
100
AcDbEntity
  8
1
100
AcDbPolyline
 90
       58
 70
     0
 43
0.0
 10
40.79386816039995
 20
3.411169017899993
 42
-0.0067588302612132
 10
40.81514917579863
 20
3.548329465437007
 42
-0.0068887031712288
 10
40.8401524918107
 20
3.684861251094779
 42
-0.0071230301720341
 10
40.86897204338979
 20
3.820642564300698
 42
-0.0073738980930917
 10
40.90171503934672
 20
3.955533386650181
 42
-0.0076406841570035
 10
40.93849236254486
 20
4.089377944026096
 42
-0.0079242818969746
 10
40.97941606466513
 20
4.222013391277406
 42
-0.0082600109454989
 10
41.02461009233784
 20
4.353254850504292
 42
-0.0086087137539704
 10
41.07420445568647
 20
4.482897035885192
 42
-0.0090070239782329
 10
41.1283332217655
 20
4.610712133087665
 42
-0.0094244016700811
 10
41.18713452875538
 20
4.736444533245381
 42
-0.009895338386309
 10
41.25074711903389
 20
4.859812221007494
 42
-0.0103931786812439
 10
41.31931033679521
 20
4.980497225235089
 42
-0.0109481199125709
 10
41.39295865874399
 20
5.098146929395596
 42
-0.0115363407421504
 10
41.47181925378797
 20
5.212367169928398
 42
-0.0121839625225333
 10
41.55600536515645
 20
5.322718501864898
 42
-0.0128744741658373
 10
41.6456111688145
 20
5.428715065647586
 42
-0.0136187151248172
 10
41.74070206653499
 20
5.52981656201819
 42
-0.0144146629214843
 10
41.84130582259022
 20
5.625431100699407
 42
-0.015256655231271
 10
41.9474004170907
 20
5.714910940245082
 42
-0.0161476121235932
 10
42.05889874757429
 20
5.797555145172424
 42
-0.0170717997080492
 10
42.17563350914389
 20
5.872615510196503
 42
-0.018015317466533
 10
42.29734081038697
 20
5.939305907587191
 42
-0.018966915509865
 10
42.42364107560578
 20
5.99681768055791
 42
-0.0199048779619671
 10
42.55402398480621
 20
6.044343774997003
 42
-0.0207964678544377
 10
42.6878365003927
 20
6.081109018633263
 42
-0.021603460720581
 10
42.82427891425863
 20
6.106407972720766
 42
-0.0222867431037505
 10
42.96241110514887
 20
6.119648101100267
 42
-0.0228068160177557
 10
43.10117210760036
 20
6.120393745187584
 42
-0.023129708290364
 10
43.23941481368064
 20
6.10840551866149
 42
-0.0232307616053467
 10
43.37595318723811
 20
6.083668585368002
 42
-0.0230982822586999
 10
43.50961732413938
 20
6.046403718009088
 42
-0.0227374894182119
 10
43.63931005644838
 20
5.997058420446677
 42
-0.0221685556895431
 10
43.76405649451947
 20
5.936278952049767
 42
-0.0214231380949473
 10
43.88303982903789
 20
5.864867417722102
 42
-0.0205414453476063
 10
43.99562086465421
 20
5.783731163958003
 42
-0.0195663522800709
 10
44.10134078351072
 20
5.693831755284258
 42
-0.0185420739811641
 10
44.19990959888719
 20
5.596139628868988
 42
-0.0175068035718154
 10
44.29118646446578
 20
5.491597742932981
 42
-0.0164835897245431
 10
44.37515463071536
 20
5.381095877893407
 42
-0.0154860504455748
 10
44.45189494977348
 20
5.265453344118775
 42
-0.0145376568964502
 10
44.52156003678108
 20
5.145412737195492
 42
-0.0136469737542469
 10
44.5843550906954
 20
5.021637768887778
 42
-0.0128099179307087
 10
44.64051896390921
 20
4.894713092996596
 42
-0.0120458618202198
 10
44.69030901435863
 20
4.765153872056565
 42
-0.0113311718068747
 10
44.73399283217472
 20
4.633409011712785
 42
-0.0106850460390633
 10
44.77183665332003
 20
4.499867379098191
 42
-0.0100899722426426
 10
44.80410474155696
 20
4.364869696763776
 42
-0.0095519473968284
 10
44.8310471270947
 20
4.22870705712949
 42
-0.0090572349313551
 10
44.8529075910402
 20
4.091637233651994
 42
-0.0086068823766417
 10
44.8699136870332
 20
3.953879008946586
 42
-0.0081988926888244
 10
44.88228517305009
 20
3.81562550214749
 42
-0.007864687745002
 10
44.8902097900332
 20
3.677045438931763
 42
-0.0075339960977952
 10
44.89386301568749
 20
3.538289305733592
 42
-0.0071703690821817
 10
44.89343441853145
 20
3.399487332588669
 42
-0.0068143086477936
 10
44.88912513824998
 20
3.260745277864791
 42
-0.0068058309506063
 10
44.88105313148588
 20
3.122163318122773
 42
-0.0069186748125143
 10
44.8691820231
 20
2.983866508900007
  0
LINE
  5
55D07
330
1F
100
AcDbEntity
  8
1
100
AcDbLine
 10
46.03541562929999
 20
0.0
 30
0.0
 11
46.03541562929999
 21
6.014637176500003
 31
0.0
  0
LINE
  5
55D08
330
1F
100
AcDbEntity
  8
sk3
100
AcDbLine
 10
42.57172889240002
 20
-7.620000000000003
 30
0.0
 11
42.57172889240002
 21
7.619999999999997
 31
0.0
  0
LWPOLYLINE
  5
55D09
330
1F
100
AcDbEntity
  8
1
100
AcDbPolyline
 90
       58
 70
     0
 43
0.0
 10
41.44141870090686
 20
0.0000003039267824
 10
41.4087575685671
 20
0.048089347577502
 10
41.37717180090596
 20
0.0968901167989032
 10
41.34662825457263
 20
0.1463506345681935
 10
41.3170929671771
 20
0.196420931920187
 10
41.28853159687702
 20
0.247052893796905
 10
41.26091494989871
 20
0.2982051715420937
 10
41.23421660016099
 20
0.3498431639750947
 10
41.20840966802659
 20
0.4019333626005164
 10
41.18346694853523
 20
0.4544430435365996
 10
41.1593635917512
 20
0.5073426015727877
 10
41.13607985911371
 20
0.5606075908075923
 10
41.11359591190886
 20
0.6142156634143987
 10
41.09189179682696
 20
0.6681447488413994
 10
41.07094739302001
 20
0.7223734336601808
 10
41.05074521527931
 20
0.776882417233793
 10
41.03127145512988
 20
0.8316555674984158
 10
41.01251223623521
 20
0.8866778971457732
 10
40.9944536261714
 20
0.9419345836489867
 10
40.97723716229999
 20
0.9969036104999986
 10
40.96053241761109
 20
1.052584543116886
 10
40.9444915601361
 20
1.1084598327636
 10
40.92910554434138
 20
1.164519028672998
 10
40.91436529570631
 20
1.220751775723491
 10
40.90026171676597
 20
1.277147814065017
 10
40.88678567423214
 20
1.33369709407099
 10
40.87392919190813
 20
1.390390249760393
 10
40.86168676572
 20
1.44721890365428
 10
40.85005306836132
 20
1.504175337640788
 10
40.83902276037088
 20
1.561251886182894
 10
40.8285904930994
 20
1.618440936005413
 10
40.81875090770989
 20
1.675734951803768
 10
40.80949933319597
 20
1.733126779278186
 10
40.8008332518917
 20
1.790609741512489
 10
40.79275048586796
 20
1.848177602081591
 10
40.78524885290588
 20
1.905824147054764
 10
40.77832616769636
 20
1.963543184727789
 10
40.77198024300185
 20
2.021328545315185
 10
40.76620899336623
 20
2.079174117644405
 10
40.76101144793182
 20
2.137074000607299
 10
40.7563873032345
 20
2.195022478148693
 10
40.75233626333369
 20
2.253013851525111
 10
40.74885803175428
 20
2.311042427075271
 10
40.74595231175339
 20
2.369102515903989
 10
40.7436188083098
 20
2.427188399798771
 10
40.74185814000862
 20
2.485294092037
 10
40.74067366000329
 20
2.543414225341897
 10
40.74006925512271
 20
2.601543112765085
 10
40.74004880980448
 20
2.659675038521092
 10
40.74061620458681
 20
2.717804257573894
 10
40.74177531454052
 20
2.775924995268261
 10
40.74352994144629
 20
2.834032512049788
 10
40.74588112649689
 20
2.892121463207096
 10
40.74882682493182
 20
2.950184209547266
 10
40.75236488001658
 20
3.008214060053774
 10
40.75649315145461
 20
3.066204335324491
 10
40.76120951587438
 20
3.124148366525901
 10
40.76656186490001
 20
3.182556349799988
  0
LWPOLYLINE
  5
55D0A
330
1F
100
AcDbEntity
  8
1
100
AcDbPolyline
 90
       15
 70
     0
 43
0.0
 10
47.48439156699999
 20
2.577168238900006
 10
47.48171609004582
 20
2.595280456364483
 10
47.47749685646112
 20
2.61312168495769
 10
47.47281833040881
 20
2.630845215407099
 10
47.46786447460749
 20
2.648495537142899
 10
47.46274254625585
 20
2.666097349592766
 10
47.45749134752623
 20
2.683660980807978
 10
47.45214035127881
 20
2.701194643618683
 10
47.44671072701288
 20
2.71870410657427
 10
47.44121423768985
 20
2.736192658401384
 10
47.43566119236078
 20
2.7536633186724
 10
47.4300604984999
 20
2.771118787978984
 10
47.42441985761709
 20
2.788561421173199
 10
47.41873985579982
 20
2.80599126851549
 10
47.41301810670001
 20
2.8234075254
  0
LWPOLYLINE
  5
55D0B
330
1F
100
AcDbEntity
  8
1
100
AcDbPolyline
 90
       58
 70
     0
 43
0.0
 10
44.84089382139996
 20
2.748321729699988
 10
44.83318912698982
 20
2.695774532104671
 10
44.82500839339181
 20
2.643298967942911
 10
44.81634839559278
 20
2.590901476645079
 10
44.80720878183189
 20
2.538588331272499
 10
44.79759266969364
 20
2.486359189115994
 10
44.7875042757986
 20
2.434217898599278
 10
44.77694780682861
 20
2.382168286446102
 10
44.76592745872561
 20
2.330214158365484
 10
44.75444741593711
 20
2.278359299756394
 10
44.7425118507063
 20
2.226607476426494
 10
44.73012414703561
 20
2.174960473081199
 10
44.71728702996363
 20
2.12342382738592
 10
44.70400232223397
 20
2.072001252495397
 10
44.69027180569528
 20
2.020696279394393
 10
44.67609726286513
 20
1.969512433545418
 10
44.6614804767397
 20
1.918453235074074
 10
44.64642323061621
 20
1.867522198957516
 10
44.63092732510768
 20
1.816722980361581
 10
44.61499381642162
 20
1.766059369834684
 10
44.59862292290011
 20
1.71553532607077
 10
44.58181487460968
 20
1.665155003069799
 10
44.56456990379678
 20
1.614922561687499
 10
44.54688824525013
 20
1.564842169720407
 10
44.52877013667228
 20
1.514918001978401
 10
44.5102158126779
 20
1.465154224811698
 10
44.49122499216048
 20
1.415555089459694
 10
44.47179619138596
 20
1.366125860493099
 10
44.45192766341508
 20
1.316871859413274
 10
44.4316176705395
 20
1.267798430298086
 10
44.41086448543899
 20
1.218910939699887
 10
44.3896663923683
 20
1.170214776500188
 10
44.36763005629996
 20
1.120848788099997
 10
44.3455286412549
 20
1.072555563428004
 10
44.3229747903188
 20
1.024471756753079
 10
44.29996451716589
 20
0.9766047917784137
 10
44.27649385630559
 20
0.9289621367904031
 10
44.2525588655842
 20
0.8815513043309977
 10
44.22815562878589
 20
0.8343798507414135
 10
44.20328028171096
 20
0.7874554359243007
 10
44.17792801350571
 20
0.7407864912984225
 10
44.15209218404169
 20
0.6943833173233998
 10
44.12576610971496
 20
0.6482567934318979
 10
44.09894315163636
 20
0.6024178774353004
 10
44.07161672085447
 20
0.5568776045869015
 10
44.0437802838507
 20
0.5116470862941755
 10
44.0154269491297
 20
0.4667382793400067
 10
43.98654711122512
 20
0.4221657507641794
 10
43.9571308895415
 20
0.3779457363850724
 10
43.92716849810319
 20
0.33409461775301
 10
43.89665024831571
 20
0.2906289068939998
 10
43.86556662767982
 20
0.2475653610282791
 10
43.83390675073689
 20
0.2049226959128987
 10
43.80165716703561
 20
0.1627241161067729
 10
43.76880462042922
 20
0.1209940907366729
 10
43.73533603061287
 20
0.0797573055976955
 10
43.70123858313132
 20
0.0390387419905096
 10
43.6664984683573
 20
-0.0011341360328174
  0
LWPOLYLINE
  5
55D0C
330
1F
100
AcDbEntity
  8
1
100
AcDbPolyline
 90
        3
 70
     0
 43
0.0
 10
40.76656186490001
 20
3.182556349799988
 10
40.78021646459996
 20
3.296872956549997
 10
40.79387106429999
 20
3.411189563300013
  0
LWPOLYLINE
  5
55D0D
330
1F
100
AcDbEntity
  8
1
100
AcDbPolyline
 90
       33
 70
     0
 43
0.0
 10
40.9387961958
 20
1.129761837099998
 42
-0.0145254212876558
 10
41.03566189258541
 20
1.17072202407069
 42
-0.0144238535968118
 10
41.13476959785063
 20
1.205915633592886
 42
-0.0122110472151301
 10
41.23561461308912
 20
1.235794527582291
 42
-0.0110949914595873
 10
41.33774000820102
 20
1.260955127477018
 42
-0.0101598946765057
 10
41.4408424867787
 20
1.281756217266291
 42
-0.0093087226166083
 10
41.54467771093211
 20
1.298532584564405
 42
-0.0086885775118759
 10
41.64904979107328
 20
1.311563123350758
 42
-0.008169321326986
 10
41.75380181702478
 20
1.321073222142095
 42
-0.0077306957928019
 10
41.8588038426889
 20
1.327249097951579
 42
-0.0074002662348681
 10
41.96394487344264
 20
1.330246665651905
 42
-0.0071191481754524
 10
42.0691289077954
 20
1.33019315751067
 42
-0.0069052086461174
 10
42.17427032757899
 20
1.327190018694004
 42
-0.0067464996795513
 10
42.27929079892414
 20
1.321320144975764
 42
-0.0066234670000964
 10
42.38411699914061
 20
1.312645087024918
 42
-0.0065601767725815
 10
42.48867815998042
 20
1.301210241548915
 42
-0.0065249939642462
 10
42.59290459933821
 20
1.287044975007596
 42
-0.0065391540965486
 10
42.6967253846876
 20
1.270161811860184
 42
-0.0065935328860789
 10
42.80006737398397
 20
1.250560203747674
 42
-0.0066828022690455
 10
42.90285250001793
 20
1.228222215740196
 42
-0.0068323153987315
 10
43.0049965410117
 20
1.20311583809839
 42
-0.0070152719244014
 10
43.1064065402337
 20
1.17519235291428
 42
-0.0072680382625625
 10
43.20697740802123
 20
1.144384194233274
 42
-0.0075814381315278
 10
43.30659000749522
 20
1.110606881534089
 42
-0.0079563656884448
 10
43.40510496120066
 20
1.073751819706501
 42
-0.0084509794747072
 10
43.50235806201911
 20
1.033686801158403
 42
-0.0090287440516941
 10
43.59815273013682
 20
0.9902522032105023
 42
-0.0097317434892461
 10
43.6922505468352
 20
0.943256078468778
 42
-0.0106882536413275
 10
43.78435356772549
 20
0.8924638280090846
 42
-0.0117550497398698
 10
43.87408333801172
 20
0.8375945901144064
 42
-0.0130099617088909
 10
43.96099443471288
 20
0.7783602049567833
 42
-0.0155539470557186
 10
44.04438656458022
 20
0.7142756338022025
 42
-0.0156978316589574
 10
44.12353885329998
 20
0.6450200074999941
  0
LWPOLYLINE
  5
55D0E
330
1F
100
AcDbEntity
  8
1
100
AcDbPolyline
 90
        3
 70
     0
 43
0.0
 10
44.8691820231
 20
2.983866508900007
 10
44.85503792224998
 20
2.866094119300015
 10
44.84089382139996
 20
2.748321729699988
  0
LWPOLYLINE
  5
55D0F
330
1F
100
AcDbEntity
  8
1
100
AcDbPolyline
 90
       31
 70
     0
 43
0.0
 10
44.14144712409995
 20
0.6760080898000071
 42
0.0158260409413413
 10
44.05489134839439
 20
0.7484043710491905
 42
0.0153931841664118
 10
43.96390145540368
 20
0.8151440499024147
 42
0.012951298031158
 10
43.8692831508055
 20
0.876649507303682
 42
0.0117312849839758
 10
43.7717481485583
 20
0.9334175740945056
 42
0.0106678240587406
 10
43.6717692345758
 20
0.9857647473750999
 42
0.0097458722032398
 10
43.56973942329012
 20
1.033997456989985
 42
0.0090556158147358
 10
43.4659680880896
 20
1.078361578248689
 42
0.0085053503364543
 10
43.3607040440697
 20
1.119058787309676
 42
0.0080366706552507
 10
43.25415203260796
 20
1.156255715107582
 42
0.0076805941388358
 10
43.14648332531982
 20
1.190086021649904
 42
0.0073985428102976
 10
43.03784430715047
 20
1.220658127401684
 42
0.0071689690360459
 10
42.92836072202828
 20
1.248053530242771
 42
0.0070171374881723
 10
42.81814416451777
 20
1.272333128673998
 42
0.0069030270859273
 10
42.7072947945098
 20
1.293537806691887
 42
0.0068443843753414
 10
42.59590436118481
 20
1.311687316421
 42
0.0068362986398728
 10
42.48405943587338
 20
1.326785141663769
 42
0.0068631914044014
 10
42.37184296125514
 20
1.338813986759106
 42
0.0069549426856233
 10
42.25933717093481
 20
1.347738385327992
 42
0.0070834667833032
 10
42.1466253965996
 20
1.353503496386784
 42
0.0072731358784718
 10
42.0337948735152
 20
1.356030644311488
 42
0.0075298015468937
 10
41.92093921261888
 20
1.355220121449995
 42
0.0078385662864268
 10
41.8081619713129
 20
1.350943325931488
 42
0.0082576767167989
 10
41.69558132043071
 20
1.343040148968185
 42
0.0087580550816276
 10
41.58333501490901
 20
1.331316738475095
 42
0.009361483358641
 10
41.47158731655037
 20
1.315536052740412
 42
0.0101986517292504
 10
41.36054257815271
 20
1.29540181695676
 42
0.0111209271177122
 10
41.25045947653489
 20
1.2705565225626
 42
0.0122304216111177
 10
41.14165121564091
 20
1.240612961567697
 42
0.0144554167387368
 10
41.03459656368289
 20
1.204919551849165
 42
0.0145423380092918
 10
40.92982811779998
 20
1.162982948999988
  0
LWPOLYLINE
  5
55D10
330
1F
100
AcDbEntity
  8
1
100
AcDbPolyline
 90
       58
 70
     0
 43
0.0
 10
44.8409413722
 20
2.748657482099986
 10
44.83324036049832
 20
2.69611377707119
 10
44.82506340791537
 20
2.64364166344088
 10
44.81640727096785
 20
2.5912476008585
 10
44.8072715835317
 20
2.53893791913699
 10
44.79765943818438
 20
2.486712189024665
 10
44.78757504370082
 20
2.434574257923394
 10
44.77702259894579
 20
2.382527951577393
 10
44.76600629207545
 20
2.330577074758274
 10
44.75453029978377
 20
2.278725411966255
 10
44.74259878659372
 20
2.226976728148506
 10
44.73021519578483
 20
2.175332890905585
 10
44.7173822649426
 20
2.123799253916985
 10
44.70410182748432
 20
2.072379646462508
 10
44.69037564879999
 20
2.021077603629882
 10
44.67620549496239
 20
1.969896655101905
 10
44.66159313254271
 20
1.918840325340076
 10
44.646540328436
 20
1.867912133771901
 10
44.63104886722208
 20
1.817115688261388
 10
44.61511993447088
 20
1.76645478533149
 10
44.5987537459072
 20
1.71593337229001
 10
44.58195049769389
 20
1.665555617117909
 10
44.56471038821137
 20
1.615325694898891
 10
44.54703361843098
 20
1.565247787903274
 10
44.52892039229634
 20
1.515326085658493
 10
44.51037091711509
 20
1.465564785007265
 10
44.49138502580889
 20
1.415968017351183
 10
44.4719613469051
 20
1.366541010041905
 10
44.452098091621
 20
1.317289123307594
 10
44.43179347656209
 20
1.268217730294274
 10
44.41104572874146
 20
1.219332227020402
 10
44.38985308678399
 20
1.17063803223229
 10
44.36821380215996
 20
1.122140587213685
 10
44.34612594000188
 20
1.073845580990471
 10
44.32358595195512
 20
1.025759669083774
 10
44.30058979363749
 20
0.9778902979066971
 10
44.27713344817121
 20
0.9302449800414079
 10
44.2532129219322
 20
0.8828312729040135
 10
44.22882424717181
 20
0.8356567783024216
 10
44.2039634976295
 20
0.7887291667401826
 10
44.17862613470528
 20
0.7420567506910061
 10
44.1528055729472
 20
0.6956496429644119
 10
44.1264950771187
 20
0.6495187775347802
 10
44.09968795651979
 20
0.6036751674946858
 10
44.0723775702321
 20
0.5581299041485864
 10
44.04455733263971
 20
0.5128941557539976
 10
44.01622047588471
 20
0.4679797621325008
 10
43.98735758610111
 20
0.4234010329271884
 10
43.95795871366352
 20
0.3791742279985897
 10
43.92801402361371
 20
0.3353157953146706
 10
43.89751377804088
 20
0.2918423143779023
 10
43.86644839858417
 20
0.2487705687584878
 10
43.83480728448329
 20
0.2061190458132671
 10
43.80257698975122
 20
0.1639107126550812
 10
43.76974421004431
 20
0.1221701236120793
 10
43.73629581616799
 20
0.080922051297506
 10
43.70221890769761
 20
0.0401915168854998
 10
43.66749994703162
 20
0.000005737103919
  0
LWPOLYLINE
  5
55D11
330
1F
100
AcDbEntity
  8
1
100
AcDbPolyline
 90
        3
 70
     0
 43
0.0
 10
40.76656186490001
 20
3.182556349799988
 10
40.78021501264998
 20
3.296862683850001
 10
40.79386816039995
 20
3.411169017899993
  0
LWPOLYLINE
  5
55D12
330
1F
100
AcDbEntity
  8
1
100
AcDbPolyline
 90
        3
 70
     0
 43
0.0
 10
44.8691820231
 20
2.983866508900007
 10
44.85506169764996
 20
2.866261995499988
 10
44.8409413722
 20
2.748657482099986
  0
LWPOLYLINE
  5
55D13
330
1F
100
AcDbEntity
  8
1
100
AcDbPolyline
 90
       31
 70
     0
 43
0.0
 10
44.14147688089999
 20
0.6759813504999955
 42
0.0158263423371568
 10
44.05492156831527
 20
0.7483806928042897
 42
0.0153944735216663
 10
43.9639317522174
 20
0.8151231990520102
 42
0.012951936449284
 10
43.86931311261228
 20
0.8766310942411053
 42
0.0117318012419436
 10
43.77177753149846
 20
0.9334013693904807
 42
0.0106682816673705
 10
43.67179783898158
 20
0.9857505277759059
 42
0.0097462070615861
 10
43.5697670899998
 20
1.03398502370041
 42
0.0090559173174685
 10
43.46599469409738
 20
1.078350762788993
 42
0.008505597691891
 10
43.36072948979039
 20
1.119049438938182
 42
0.008036873696145
 10
43.25417623577749
 20
1.156247696655263
 42
0.0076807799893601
 10
43.14650621867423
 20
1.190079210122909
 42
0.0073986974140548
 10
43.03786583425778
 20
1.220652409937392
 42
0.0071691078577997
 10
42.9283808352627
 20
1.248048801549913
 42
0.0070172625267946
 10
42.8181628238715
 20
1.272329291084894
 42
0.0069031364993642
 10
42.70731196565191
 20
1.293534766797185
 42
0.0068444899570975
 10
42.59592001496979
 20
1.31168498516009
 42
0.0068363936366766
 10
42.4840735474834
 20
1.326783433023507
 42
0.0068632828242184
 10
42.3718555097127
 20
1.338812816032998
 42
0.006955031509965
 10
42.25934813878671
 20
1.3477376691431
 42
0.0070835518027976
 10
42.14663476969412
 20
1.353503150621001
 42
0.0072732245909697
 10
42.03380264100099
 20
1.356030583872771
 42
0.0075298908511205
 10
41.92094536705382
 20
1.355220259017187
 42
0.0078386610667885
 10
41.80816650899012
 20
1.350943570022899
 42
0.0082577805459492
 10
41.69558424189569
 20
1.34304040312918
 42
0.0087581690130513
 10
41.58333632588091
 20
1.331316898956991
 42
0.0093616134163308
 10
41.47158702922506
 20
1.315536006801685
 42
0.010198808064043
 10
41.36054071337309
 20
1.295401438980086
 42
0.0111211075375569
 10
41.25045606673839
 20
1.270555671065998
 42
0.0122306544764417
 10
41.14164630854007
 20
1.240611479363586
 42
0.014455773217357
 10
41.03459023848938
 20
1.204917231035089
 42
0.01454256994323
 10
40.92982047089996
 20
1.162979591599984
  0
LWPOLYLINE
  5
55D14
330
1F
100
AcDbEntity
  8
1
100
AcDbPolyline
 90
       33
 70
     0
 43
0.0
 10
40.93881233830001
 20
1.129769297500011
 42
-0.0145253072821988
 10
41.03567796676327
 20
1.170728275795589
 42
-0.0144233472021939
 10
41.13478549770809
 20
1.205920777843281
 42
-0.0122107393680259
 10
41.2356302282254
 20
1.235798751175906
 42
-0.0110947898348904
 10
41.33775527343863
 20
1.260958536081574
 42
-0.01015970755968
 10
41.4408573516057
 20
1.281758907560089
 42
-0.0093085780603221
 10
41.54469213606981
 20
1.298534643756475
 42
-0.0086884515609777
 10
41.64906374728428
 20
1.311564622738416
 42
-0.0081692202684969
 10
41.75381528126331
 20
1.321074225066972
 42
-0.0077306074623846
 10
41.8588167969861
 20
1.32724966071759
 42
-0.0074001907742258
 10
41.96395730383102
 20
1.330246837365784
 42
-0.0071190861781793
 10
42.0691408031295
 20
1.330192983015898
 42
-0.0069051506059102
 10
42.17428167910449
 20
1.32718953834088
 42
-0.0067464516678276
 10
42.27930159967761
 20
1.321319395536583
 42
-0.0066234235602689
 10
42.38412724372746
 20
1.312644102787082
 42
-0.0065601383320303
 10
42.48868784424598
 20
1.301209053976086
 42
-0.0065249613773537
 10
42.5929137202005
 20
1.287043613958893
 42
-0.006539122101569
 10
42.69673393997883
 20
1.270160305451774
 42
-0.0065935059896136
 10
42.8000753623662
 20
1.250558578934281
 42
-0.0066827764760735
 10
42.90285992094427
 20
1.228220498573499
 42
-0.0068322921868115
 10
43.00500339454361
 20
1.20311405358759
 42
-0.0070152513224341
 10
43.10641282728099
 20
1.17519052603017
 42
-0.0072680168198733
 10
43.20698313013047
 20
1.144382349518672
 42
-0.0075814195612976
 10
43.30659516708545
 20
1.11060504360978
 42
-0.0079563454937072
 10
43.4051095617232
 20
1.073750013870004
 42
-0.0084509594968298
 10
43.50236210782949
 20
1.033685053120592
 42
-0.0090287251476885
 10
43.59815622708588
 20
0.9902505400098959
 42
-0.0097317201915512
 10
43.69225350260882
 20
0.9432545286879021
 42
-0.0106882294315979
 10
43.78435599178096
 20
0.8924624217205803
 42
-0.01175501680448
 10
43.8740852436289
 20
0.8375933612735193
 42
-0.0130099291804946
 10
43.9609958399038
 20
0.7783591913356817
 42
-0.0155539069698977
 10
44.04438749043109
 20
0.7142748741205766
 42
-0.0156977507551872
 10
44.12353933629995
 20
0.6450195534999921
  0
LWPOLYLINE
  5
55D15
330
1F
100
AcDbEntity
  8
1
100
AcDbPolyline
 90
       58
 70
     0
 43
0.0
 10
41.4414187366587
 20
0.0000002900512754
 10
41.40875758024843
 20
0.0480892885725837
 10
41.37717182729963
 20
0.096890057516589
 10
41.34662830114034
 20
0.146350609539013
 10
41.31709300761071
 20
0.1964209083681112
 10
41.2885315915444
 20
0.2470528373649188
 10
41.26091495574022
 20
0.2982051236170093
 10
41.23421663277023
 20
0.3498431570974105
 10
41.20840970768012
 20
0.4019333758695895
 10
41.18346693267222
 20
0.4544430385305988
 10
41.1593635663001
 20
0.5073425849530793
 10
41.1360798655501
 20
0.5606076129051019
 10
41.11359595129171
 20
0.6142157299880751
 10
41.09189182994099
 20
0.6681448218726871
 10
41.07094734810099
 20
0.7223734701316005
 10
41.05074516675531
 20
0.7768824293884791
 10
41.0312714564636
 20
0.8316556097767032
 10
41.0125122923406
 20
0.8866779830875939
 10
40.99445369354639
 20
0.9419346866032752
 10
40.97708161863531
 20
0.997411076309504
 10
40.96038291904045
 20
1.053093744090773
 10
40.94434811300359
 20
1.108970745917389
 10
40.9289681045326
 20
1.165031597943283
 10
40.91423376884175
 20
1.221265912564682
 10
40.90013595841563
 20
1.277663398023406
 10
40.88666549652788
 20
1.334213999935194
 10
40.87381459815246
 20
1.390908349787416
 10
40.8615777815174
 20
1.447738176125
 10
40.84994967757171
 20
1.504695741546889
 10
40.83892490521669
 20
1.561773361627579
 10
40.82849807428863
 20
1.618963404594609
 10
40.81866378508272
 20
1.676258329555899
 10
40.80941749796389
 20
1.733650950697779
 10
40.80075675140238
 20
1.791134680296003
 10
40.79267934171321
 20
1.848703273430593
 10
40.78518306097919
 20
1.906350507894579
 10
40.77826569826109
 20
1.964070183922274
 10
40.77192504076768
 20
2.021856123878073
 10
40.766159003171
 20
2.079702211618695
 10
40.76096667124727
 20
2.137602557555908
 10
40.75634774491475
 20
2.195551449069504
 10
40.75230192828121
 20
2.253543186766393
 10
40.74882892493359
 20
2.311572076333582
 10
40.74592843820489
 20
2.369632428221499
 10
40.74360017306088
 20
2.427718528508193
 10
40.7418447551116
 20
2.485824447738679
 10
40.74066554085701
 20
2.543944757407892
 10
40.74006641020213
 20
2.602073763703913
 10
40.74005124078134
 20
2.660205744017581
 10
40.74062390645361
 20
2.718334946525999
 10
40.74178827573888
 20
2.776455589819669
 10
40.74354815545513
 20
2.834562902717209
 10
40.7459046683212
 20
2.892651628075178
 10
40.74885577218887
 20
2.950714072105419
 10
40.7523992970963
 20
3.008743550515902
 10
40.75653308938342
 20
3.066733390741397
 10
40.76125501218569
 20
3.124676930901777
 10
40.76656186490001
 20
3.182556349799988
  0
LWPOLYLINE
  5
55D16
330
1F
100
AcDbEntity
  8
1
100
AcDbPolyline
 90
        4
 70
     0
 43
0.0
 10
46.03541562929999
 20
6.014637176399978
 42
0.0006362170475705
 10
45.8072391156283
 20
6.6524866975815
 42
0.0006362258228053
 10
45.57744000692433
 20
7.289753696197692
 42
0.0006362173496037
 10
45.34601988249995
 20
7.926433789300005
  0
LWPOLYLINE
  5
55D17
330
1F
100
AcDbEntity
  8
1
100
AcDbPolyline
 90
        6
 70
     0
 43
0.0
 10
44.9581376422
 20
9.259332792200003
 42
-0.0111036329372255
 10
45.06034577604943
 20
9.000539463955988
 42
-0.011370591406163
 10
45.150919947018
 20
8.737450688827003
 42
-0.0120756329281207
 10
45.2290688715428
 20
8.470391762158101
 42
-0.0121816380780683
 10
45.29409469394578
 20
8.199796311479587
 42
-0.0118862026762952
 10
45.34601988249995
 20
7.926433789300005
  0
LINE
  5
55D18
330
1F
100
AcDbEntity
  8
1
100
AcDbLine
 10
44.95724292589993
 20
9.261467067600023
 30
0.0
 11
45.72115530149988
 21
7.443825235199994
 31
0.0
  0
LINE
  5
55D19
330
1F
100
AcDbEntity
  8
sk3
100
AcDbLine
 10
42.57172887610018
 20
7.620000016400176
 30
0.0
 11
43.07172887500022
 21
8.120000017400201
 31
0.0
  0
LWPOLYLINE
  5
55D1A
330
1F
100
AcDbEntity
  8
1
100
AcDbPolyline
 90
       57
 70
     0
 43
0.0
 10
30.70571421510002
 20
4.239959571899979
 42
-0.0073386541875058
 10
30.72698964836821
 20
4.376039341004428
 42
-0.0074654119684614
 10
30.75227008060365
 20
4.511432987202283
 42
-0.0077076567240996
 10
30.7816474138578
 20
4.646001435701086
 42
-0.0079664506503235
 10
30.815227534543
 20
4.779585031977688
 42
-0.0082403564111631
 10
30.85311807792312
 20
4.912007677497398
 42
-0.0085353704964959
 10
30.8954274171993
 20
5.043085353509667
 42
-0.0088791837223964
 10
30.94227471033788
 20
5.172609898572175
 42
-0.009239276066777
 10
30.99378270037988
 20
5.300352526408913
 42
-0.0096454963468643
 10
31.05007631348323
 20
5.426058674736082
 42
-0.0100717904957907
 10
31.1112806578195
 20
5.549447531135768
 42
-0.0105481891454382
 10
31.17751843848362
 20
5.670207845139002
 42
-0.0110508912181693
 10
31.24890776858951
 20
5.787995224119411
 42
-0.0116027066018998
 10
31.32555662227912
 20
5.902427788404764
 42
-0.0121873876645017
 10
31.4075594036392
 20
6.01308605644067
 42
-0.0128182991536245
 10
31.49498892599693
 20
6.119505722914482
 42
-0.0134872246165223
 10
31.58789157630437
 20
6.221181339672199
 42
-0.0141976989637194
 10
31.68627629985321
 20
6.317559503456002
 42
-0.0149456668144183
 10
31.790104917322
 20
6.408042832762902
 42
-0.0157227601515076
 10
31.89928266245272
 20
6.491991372055395
 42
-0.0165321943769907
 10
32.01364270661483
 20
6.568726460888399
 42
-0.0173589321790494
 10
32.13293352674296
 20
6.637540629446505
 42
-0.0181813717394514
 10
32.2568068847045
 20
6.697709695886516
 42
-0.0189893030173615
 10
32.38480505663401
 20
6.748510099004698
 42
-0.0197680154590573
 10
32.51635110020115
 20
6.7892420357675
 42
-0.0204920610377366
 10
32.65074504572794
 20
6.819257877953276
 42
-0.0211303713866811
 10
32.78716710226181
 20
6.837993505500577
 42
-0.0216528595625362
 10
32.9246891405738
 20
6.845001870135916
 42
-0.0220311365271738
 10
33.06229656651922
 20
6.839984804275103
 42
-0.0222428555952845
 10
33.19892041284763
 20
6.822819473761001
 42
-0.0222720446655104
 10
33.33347689099415
 20
6.793575006627995
 42
-0.0221129503094018
 10
33.46491125389324
 20
6.752516002844167
 42
-0.0217702549188308
 10
33.5922412851977
 20
6.700092048434782
 42
-0.0212589758855297
 10
33.71459431220049
 20
6.636913694931394
 42
-0.0206050778612476
 10
33.83123431084491
 20
6.563718460753506
 42
-0.0198404780447237
 10
33.94157715279224
 20
6.481331344743773
 42
-0.0189999476397718
 10
34.04519345191312
 20
6.390624970449692
 42
-0.0181100245442594
 10
34.14180093324548
 20
6.292483386288012
 42
-0.0171896339815301
 10
34.23124915703161
 20
6.1877710699234
 42
-0.0162651426137037
 10
34.3134990641563
 20
6.077310978751682
 42
-0.015368309924256
 10
34.38860216150249
 20
5.961870173911902
 42
-0.0145039842622502
 10
34.45668173052431
 20
5.842150147328396
 42
-0.0136786997085356
 10
34.51791160635679
 20
5.718783272306013
 42
-0.012907629850744
 10
34.57250104667997
 20
5.592336575343408
 42
-0.0121800104771005
 10
34.62068254590147
 20
5.463309631258474
 42
-0.0115157139476526
 10
34.6626994357398
 20
5.332144469604599
 42
-0.0108916115690521
 10
34.69880082416319
 20
5.199228221824512
 42
-0.0103326735985743
 10
34.72923058123672
 20
5.064898384197674
 42
-0.0098073222550608
 10
34.75422885725382
 20
4.929452492809665
 42
-0.0093344640471847
 10
34.77402555099212
 20
4.793147817743686
 42
-0.0088937404286294
 10
34.7888442668035
 20
4.656210187093677
 42
-0.0085378974519172
 10
34.79888167172572
 20
4.518838510366086
 42
-0.0081913696032674
 10
34.80431799966491
 20
4.381209933218598
 42
-0.0078079647862739
 10
34.80534782616189
 20
4.243480205852279
 42
-0.0074284203563494
 10
34.8021814803987
 20
4.105776418051902
 42
-0.0073991598737592
 10
34.79495031501989
 20
3.968216668107004
 42
-0.007515423248131
 10
34.78362115690001
 20
3.830946370399992
  0
LWPOLYLINE
  5
55D1B
330
1F
100
AcDbEntity
  8
1
100
AcDbPolyline
 90
       57
 70
     0
 43
0.0
 10
30.7057111643
 20
4.239937992899996
 42
-0.0073380145515212
 10
30.7269860306314
 20
4.376018225887293
 42
-0.0074655476141678
 10
30.7522658837284
 20
4.511412390620421
 42
-0.0077076645919064
 10
30.78164269182878
 20
4.645981363122188
 42
-0.007966425630847
 10
30.81522229088714
 20
4.779565480336401
 42
-0.0082402895261904
 10
30.8531123076412
 20
4.911988676515412
 42
-0.0085353922930162
 10
30.89542111652838
 20
5.043066934705506
 42
-0.0088791639886326
 10
30.94226790154991
 20
5.172592074101771
 42
-0.0092392532945039
 10
30.9937753893629
 20
5.300335329578188
 42
-0.0096454675031082
 10
31.05006851246847
 20
5.426042119607892
 42
-0.0100717584849875
 10
31.11127237422031
 20
5.549431652394184
 42
-0.0105481579596553
 10
31.17750968709183
 20
5.670192662414192
 42
-0.0110508603772548
 10
31.24889856300223
 20
5.7879807738164
 42
-0.0116026673201638
 10
31.32554698024279
 20
5.902414096055585
 42
-0.0121873564950137
 10
31.40754934495345
 20
6.013073158651422
 42
-0.0128182537920858
 10
31.49497847458548
 20
6.119493651156602
 42
-0.0134871877790071
 10
31.58788075803574
 20
6.221170128282921
 42
-0.0141976513801468
 10
31.6862651492348
 20
6.317549189180597
 42
-0.0149456326866044
 10
31.7900934708334
 20
6.408033448724012
 42
-0.0157227208764323
 10
31.8992709634619
 20
6.491982953494889
 42
-0.0165321450065076
 10
32.01363080752711
 20
6.568719039611771
 42
-0.0173589025761438
 10
32.13292148610122
 20
6.637534233623
 42
-0.0181813552047932
 10
32.25679476678121
 20
6.69770434860942
 42
-0.0189892840743985
 10
32.38479293443592
 20
6.748505816921182
 42
-0.0197679945068051
 10
32.51633905352091
 20
6.789238825105798
 42
-0.0204920503266077
 10
32.65073315958148
 20
6.819255733120677
 42
-0.0211303770915748
 10
32.78715546486373
 20
6.837992407718267
 42
-0.0216528853270176
 10
32.92467784084997
 20
6.845001785318999
 42
-0.0220311780712917
 10
33.06228569083009
 20
6.839985682218297
 42
-0.0222429099845631
 10
33.19891004143511
 20
6.822821248415182
 42
-0.0222721074950035
 10
33.3334670945529
 20
6.79357759711641
 42
-0.0221130179490636
 10
33.4649020903303
 20
6.752519316080395
 42
-0.0217703252628206
 10
33.59223279748221
 20
6.700095982537077
 42
-0.0212590490817097
 10
33.7145865270196
 20
6.636918142747417
 42
-0.0206051622469736
 10
33.831227238579
 20
6.563723314207607
 42
-0.0198405866559933
 10
33.9415707888095
 20
6.481336498086669
 42
-0.0190000785829596
 10
34.04518777978214
 20
6.390630325263393
 42
-0.0181101451363367
 10
34.14179592682021
 20
6.2924888513744
 42
-0.01718971401621
 10
34.23124478202522
 20
6.187776560860888
 42
-0.0162652228722353
 10
34.31349527548633
 20
6.077316424480577
 42
-0.015368406111806
 10
34.38859891575649
 20
5.961875511142692
 42
-0.0145040559270104
 10
34.45667898354591
 20
5.84215531916908
 42
-0.013678777795999
 10
34.51790930751491
 20
5.718788235627782
 42
-0.0129076929123127
 10
34.57249915346029
 20
5.592341290949007
 42
-0.0121800682110953
 10
34.62068101183849
 20
5.463314059856762
 42
-0.0115157791149566
 10
34.66269821820188
 20
5.332148596492166
 42
-0.0108916272477441
 10
34.69879987858593
 20
5.199232018109788
 42
-0.010332731658133
 10
34.72922987536663
 20
5.064901841699763
 42
-0.0098073283284551
 10
34.7542283516444
 20
4.929455585834289
 42
-0.0093345560036433
 10
34.77402520521761
 20
4.793150546332006
 42
-0.0088936828009157
 10
34.78884403002962
 20
4.656212536368683
 42
-0.00853782989385
 10
34.79888157395431
 20
4.518840480046776
 42
-0.008191436643188
 10
34.80431804160423
 20
4.381211485321094
 42
-0.007808303058481
 10
34.80534787008102
 20
4.243481355049681
 42
-0.0074288041117888
 10
34.80218129873663
 20
4.105777219593903
 42
-0.0073985201335518
 10
34.79495006615083
 20
3.968217107248982
 42
-0.0075148561777845
 10
34.78362115690001
 20
3.830946370499987
  0
LINE
  5
55D1C
330
1F
100
AcDbEntity
  8
1
100
AcDbLine
 10
29.45386858229998
 20
7.757146809399984
 30
0.0
 11
29.45386858229998
 21
0.0
 31
0.0
  0
LINE
  5
55D1D
330
1F
100
AcDbEntity
  8
sk3
100
AcDbLine
 10
33.5
 20
-7.219999999999997
 30
0.0
 11
33.5
 21
7.219999999999997
 31
0.0
  0
LINE
  5
55D1E
330
1F
100
AcDbEntity
  8
1
100
AcDbLine
 10
29.45386858229998
 20
7.757146809399984
 30
0.0
 11
29.45386858229998
 21
0.0
 31
0.0
  0
LINE
  5
55D1F
330
1F
100
AcDbEntity
  8
sk3
100
AcDbLine
 10
33.0
 20
-5.269999999999981
 30
0.0
 11
33.0
 21
5.270000000000009
 31
0.0
  0
LWPOLYLINE
  5
55D20
330
1F
100
AcDbEntity
  8
1
100
AcDbPolyline
 90
       18
 70
     0
 43
0.0
 10
31.43965008649999
 20
0.9393924085999856
 42
-0.0163684198392125
 10
31.5442689144715
 20
0.9645990617107711
 42
-0.0153594426635208
 10
31.65029816370711
 20
0.9829968607822934
 42
-0.0132814183494616
 10
31.75721765041931
 20
0.9953232784104956
 42
-0.0122780428213821
 10
31.8646253627629
 20
1.002174917274401
 42
-0.0114855555945714
 10
31.97223705938899
 20
1.003926607592092
 42
-0.0108534551153311
 10
32.07982239178648
 20
1.000872370007783
 42
-0.0105178449445085
 10
32.18717934933631
 20
0.9932302518419078
 42
-0.0103009238561028
 10
32.29412622767112
 20
0.9811314050015765
 42
-0.0102956707965188
 10
32.40048420327702
 20
0.9646398778601792
 42
-0.0104168740254236
 10
32.50606912435802
 20
0.9437666806119864
 42
-0.0106900302892608
 10
32.6106793195828
 20
0.9184571835220936
 42
-0.0112560615744888
 10
32.71408164816188
 20
0.8885927289781816
 42
-0.0119663621967683
 10
32.81598257198789
 20
0.8539632196790876
 42
-0.0128002017417409
 10
32.91604306262924
 20
0.8143329794091016
 42
-0.0145505491262409
 10
33.01381956212791
 20
0.7693541032356848
 42
-0.017210038305172
 10
33.1085260436785
 20
0.7182439356652992
 42
-0.0165445720199946
 10
33.19954536879999
 20
0.6608172679999882
  0
LWPOLYLINE
  5
55D21
330
1F
100
AcDbEntity
  8
1
100
AcDbPolyline
 90
       58
 70
     0
 43
0.0
 10
34.75712935030003
 20
3.608077750199981
 42
-0.0072228755550899
 10
34.73367266211281
 20
3.458042727864891
 42
-0.0071745795221218
 10
34.70589355965382
 20
3.308750692060698
 42
-0.0070354671298863
 10
34.6738820638364
 20
3.160300456819491
 42
-0.0069329684742496
 10
34.63773956031847
 20
3.012798085216587
 42
-0.0068969000582648
 10
34.59753243529798
 20
2.866353913161276
 42
-0.0068675832859113
 10
34.55331028179597
 20
2.721072407957271
 42
-0.0068987247684895
 10
34.50510746730274
 20
2.577062588664879
 42
-0.0069482882507399
 10
34.45293571543829
 20
2.434442737506401
 42
-0.0070414896111573
 10
34.39679854975771
 20
2.293335761466579
 42
-0.007192988076405
 10
34.33666823657433
 20
2.153884854204676
 42
-0.0073662886990724
 10
34.27250577255576
 20
2.016242400000996
 42
-0.0076379483995386
 10
34.20424365017794
 20
1.880587140407584
 42
-0.0079278681346896
 10
34.13179350785512
 20
1.74712214265039
 42
-0.008347490042599
 10
34.05504145748623
 20
1.616084274757696
 42
-0.0088026919867758
 10
33.97384253062862
 20
1.487755945488885
 42
-0.0094267452640999
 10
33.88802521821799
 20
1.362469811725077
 42
-0.0101154124521504
 10
33.79738115152493
 20
1.24063193279408
 42
-0.0110401450490215
 10
33.70167039747832
 20
1.122735218701393
 42
-0.0120912108715479
 10
33.60061961765638
 20
1.009384059359689
 42
-0.013427960506723
 10
33.49392300936481
 20
0.9013372220965152
 42
-0.0150669184337087
 10
33.38126147043965
 20
0.7995310608571061
 42
-0.0170229417405648
 10
33.2623200119335
 20
0.7051480621851738
 42
-0.019400385096292
 10
33.1368393581277
 20
0.6196664805715102
 42
-0.0222340435024994
 10
33.00470059203347
 20
0.5449121230686842
 42
-0.0254743887188804
 10
32.86606094824661
 20
0.4830808824212057
 42
-0.0289397692903792
 10
32.72154627938065
 20
0.4366733501297803
 42
-0.0322386382205977
 10
32.57246530239931
 20
0.4082683153852999
 42
-0.0347888514723807
 10
32.42094042526228
 20
0.4000840921924011
 42
-0.0357460628823158
 10
32.2706322428775
 20
0.4132613532119933
 42
-0.0352875717761762
 10
32.12310201310002
 20
0.4477838470999984
 42
-0.0331949619455902
 10
31.981459910128
 20
0.5022572804512038
 42
-0.0300907021414721
 10
31.84781909725643
 20
0.5742013629729286
 42
-0.0266462159125958
 10
31.72316525476038
 20
0.6608224762775877
 42
-0.0233297966449044
 10
31.6077547998614
 20
0.7594494858186068
 42
-0.0203782755662002
 10
31.5013752517882
 20
0.8677736344124014
 42
-0.0178656471801825
 10
31.4035688002804
 20
0.9839100637715032
 42
-0.0157974429070693
 10
31.31378395110337
 20
1.106363011647403
 42
-0.0141050696503504
 10
31.23145922688391
 20
1.233956054121499
 42
-0.0126775831901681
 10
31.15606960783899
 20
1.365770381978498
 42
-0.0115496921298266
 10
31.08714933860563
 20
1.501083891140495
 42
-0.0106277793969195
 10
31.02428290893192
 20
1.639315166382004
 42
-0.009842631230095
 10
30.9671240814003
 20
1.78000545488799
 42
-0.0092483812943248
 10
30.9153714094362
 20
1.922773136532008
 42
-0.0087153396820241
 10
30.86877766012219
 20
2.067308520741271
 42
-0.0083313373659296
 10
30.82713467455074
 20
2.213347330576595
 42
-0.0079800508413609
 10
30.79027557708381
 20
2.360667490190897
 42
-0.0077391314208563
 10
30.75806271052673
 20
2.509072509493499
 42
-0.0075227164850589
 10
30.73039331195983
 20
2.65839250343859
 42
-0.0073865260910422
 10
30.70718397808003
 20
2.808469958380925
 42
-0.0072845140506932
 10
30.68838718191321
 20
2.959164421792898
 42
-0.0072151960027164
 10
30.6739643710543
 20
3.110340420204011
 42
-0.0071875073805245
 10
30.66390132297022
 20
3.261869135971578
 42
-0.0071789496860703
 10
30.6581933970563
 20
3.413624199749278
 42
-0.0072801381452955
 10
30.65687420636314
 20
3.565479769304168
 42
-0.0073942706134743
 10
30.66001161604442
 20
3.717310653486094
 42
-0.0073893895692417
 10
30.66764404618422
 20
3.868991334360686
 42
-0.0073353329322772
 10
30.67973842013831
 20
4.020375099283683
  0
LWPOLYLINE
  5
55D22
330
1F
100
AcDbEntity
  8
1
100
AcDbPolyline
 90
        3
 70
     0
 43
0.0
 10
30.67984011830001
 20
4.021448277100006
 10
30.69277716670001
 20
4.130703924499974
 10
30.70571421510002
 20
4.239959571899979
  0
LWPOLYLINE
  5
55D23
330
1F
100
AcDbEntity
  8
1
100
AcDbPolyline
 90
        4
 70
     0
 43
0.0
 10
32.4215403101
 20
0.3999788479999893
 42
-0.0046630147385397
 10
32.34685981769499
 20
0.4077328031191884
 42
-0.0046664952043099
 10
32.27233551733731
 20
0.4168789043575886
 42
-0.0046648694153736
 10
32.19799468240001
 20
0.427414395800014
  0
LWPOLYLINE
  5
55D24
330
1F
100
AcDbEntity
  8
1
100
AcDbPolyline
 90
       36
 70
     0
 43
0.0
 10
30.83126835659999
 20
2.197954469599999
 42
-0.0163040731489825
 10
30.9210719887854
 20
2.240524853515693
 42
-0.0144412327940893
 10
31.01334857203872
 20
2.277454080067761
 42
-0.0127087339254066
 10
31.1074880267272
 20
2.309350660676074
 42
-0.0114171659063499
 10
31.2030546502503
 20
2.336675418539265
 42
-0.0103482602226772
 10
31.29972200865862
 20
2.359817373706903
 42
-0.0095002592676886
 10
31.39723088258989
 20
2.379112859303774
 42
-0.0087828817649586
 10
31.49538023833998
 20
2.39483416469249
 42
-0.0082262403326191
 10
31.59404683740002
 20
2.407213989399983
 42
-0.0077490446186704
 10
31.69301968919862
 20
2.416436939401193
 42
-0.007354702475507
 10
31.79222640331264
 20
2.422666901879999
 42
-0.0070482623570561
 10
31.89157145913549
 20
2.426039160462408
 42
-0.0067798504536716
 10
31.99097209015273
 20
2.426664262855581
 42
-0.006584014772427
 10
32.09035407198741
 20
2.424633229135793
 42
-0.0064188824968364
 10
32.18964988927814
 20
2.420020713539003
 42
-0.0063031345908605
 10
32.28879632016953
 20
2.412883627330983
 42
-0.0062234853523933
 10
32.38773310836021
 20
2.403267163422298
 42
-0.0061755258443581
 10
32.48640110637399
 20
2.391200636136687
 42
-0.0061712829807626
 10
32.58474128538538
 20
2.376703055387508
 42
-0.0061889892059506
 10
32.68269314178642
 20
2.359779541321785
 42
-0.0062571593728257
 10
32.78019350559347
 20
2.340424099812594
 42
-0.0063464465430578
 10
32.87717526293602
 20
2.318618464738412
 42
-0.0064898352708266
 10
32.97356522812064
 20
2.294330902086577
 42
-0.0066655316819807
 10
33.06928341362422
 20
2.267518193349701
 42
-0.0068933398263148
 10
33.16423916714474
 20
2.238120263992499
 42
-0.0071812744552904
 10
33.25833069965961
 20
2.206064342693423
 42
-0.0075163519989282
 10
33.35143927176789
 20
2.171257591696977
 42
-0.0079541706552584
 10
33.44342680450615
 20
2.133589101375406
 42
-0.0084562508398381
 10
33.53412996725321
 20
2.092926022307409
 42
-0.0090875728494686
 10
33.62335016643296
 20
2.049107050996688
 42
-0.0098649237334133
 10
33.71084803521541
 20
2.001945071127771
 42
-0.0107802586370599
 10
33.79632671397065
 20
1.951215790093783
 42
-0.0119814442935873
 10
33.87940729491413
 20
1.896652629346668
 42
-0.0134266365447254
 10
33.9596116690312
 20
1.837951692804011
 42
-0.0152667135859442
 10
34.03633716575129
 20
1.774761044449518
 42
-0.0175679752221793
 10
34.10869393799996
 20
1.706686182099985
  0
LWPOLYLINE
  5
55D25
330
1F
100
AcDbEntity
  8
1
100
AcDbPolyline
 90
        3
 70
     0
 43
0.0
 10
34.78362115690001
 20
3.830946370399992
 10
34.77037525359998
 20
3.71951206029999
 10
34.75712935030003
 20
3.608077750199981
  0
LWPOLYLINE
  5
55D26
330
1F
100
AcDbEntity
  8
1
100
AcDbPolyline
 90
       34
 70
     0
 43
0.0
 10
34.12692506690002
 20
1.738997844000003
 42
0.0174056700617481
 10
34.04794390503952
 20
1.809639091545668
 42
0.0150111645517491
 10
33.96453441279013
 20
1.875020015484409
 42
0.0132052488548923
 10
33.87791373920001
 20
1.935370294699993
 42
0.0118449012258099
 10
33.78803773634692
 20
1.99153647287698
 42
0.0106739936733334
 10
33.69572366024346
 20
2.043604523198183
 42
0.009789826874219
 10
33.60135688830264
 20
2.091854773985595
 42
0.0090492192485212
 10
33.50524214768853
 20
2.136523838289285
 42
0.008436475219645
 10
33.40762383921624
 20
2.177806375836488
 42
0.0079640994002966
 10
33.30870486561511
 20
2.215868061678008
 42
0.0075527763218175
 10
33.20865307263361
 20
2.250845201835517
 42
0.0072376617169777
 10
33.10761036405843
 20
2.28284831966377
 42
0.0069785694062891
 10
33.00569940975589
 20
2.311969415317179
 42
0.0067706376212688
 10
32.90302610858234
 20
2.338277818736678
 42
0.0066243394240011
 10
32.7996853337385
 20
2.361828427386598
 42
0.0064862305859005
 10
32.69608781213199
 20
2.382597148727788
 42
0.0064480594669385
 10
32.59166110213232
 20
2.400736767728091
 42
0.0064134983701713
 10
32.48680254306063
 20
2.416186079715997
 42
0.0064298244396125
 10
32.38158186233019
 20
2.428937365756098
 42
0.0064785428563789
 10
32.27606731510582
 20
2.438970567638668
 42
0.006567883730796
 10
32.17032706805424
 20
2.446247653765766
 42
0.0067071907208624
 10
32.06443109076548
 20
2.450717438924101
 42
0.0068793653852888
 10
31.95845296755241
 20
2.452308931846999
 42
0.0071248500631586
 10
31.85247207749782
 20
2.450933403611911
 42
0.007408503959618
 10
31.74657608033041
 20
2.446480658950775
 42
0.0077813011781546
 10
31.6408646406241
 20
2.43881394561842
 42
0.0082315877739846
 10
31.5354527034919
 20
2.427771500256767
 42
0.0087688788873088
 10
31.43047788893031
 20
2.413153016358904
 42
0.0094620349900622
 10
31.32610608012598
 20
2.394721492156576
 42
0.0102815604844018
 10
31.2225415504484
 20
2.372192083426114
 42
0.0113251320200183
 10
31.12004975312812
 20
2.345211837533013
 42
0.01259524620539
 10
31.01896667199594
 20
2.313369213937106
 42
0.0142747778480554
 10
30.91972336837938
 20
2.276168389454503
 42
0.0163121832817961
 10
30.82228854330003
 20
2.232633185399997
  0
LWPOLYLINE
  5
55D27
330
1F
100
AcDbEntity
  8
1
100
AcDbPolyline
 90
       18
 70
     0
 43
0.0
 10
31.43967062780002
 20
0.9393981347000137
 42
-0.0163680929289221
 10
31.54428776908571
 20
0.9646029436719912
 42
-0.015358667540061
 10
31.6503151742686
 20
0.9829992863009238
 42
-0.0132810049964015
 10
31.75723270375613
 20
0.9953246180180883
 42
-0.0122776861862971
 10
31.86463839485023
 20
1.002175431814605
 42
-0.0114852540503661
 10
31.9722480313672
 20
1.003926536059196
 42
-0.0108531982821301
 10
32.07983128267989
 20
1.000871925893505
 42
-0.0105176239661665
 10
32.1871861521669
 20
0.9932296242456002
 42
-0.0103007212615263
 10
32.29413094696151
 20
0.981130772324292
 42
-0.0102954723955334
 10
32.4004868537387
 20
0.964639410787498
 42
-0.0104166778885857
 10
32.5060697310567
 20
0.9437665476665133
 42
-0.0106898253733425
 10
32.6106779187094
 20
0.9184575544500999
 42
-0.0112558265470922
 10
32.71407828996161
 20
0.8885937816587841
 42
-0.011966092733049
 10
32.81597732537242
 20
0.8539651469902763
 42
-0.0127999234468691
 10
32.91603601618547
 20
0.814335983918596
 42
-0.0145500240736641
 10
33.01381084672232
 20
0.7693584269156021
 42
-0.0172094517844848
 10
33.10851586727839
 20
0.7182499093972014
 42
-0.0165441886831031
 10
33.19953394519999
 20
0.6608251419000056
  0
LWPOLYLINE
  5
55D28
330
1F
100
AcDbEntity
  8
1
100
AcDbPolyline
 90
       58
 70
     0
 43
0.0
 10
34.75728758859998
 20
3.609198917699983
 42
-0.0072394248062169
 10
34.73386102000811
 20
3.459140143382589
 42
-0.0071739845438513
 10
34.70610793427798
 20
3.309822595558975
 42
-0.0070342052505835
 10
34.67412236032297
 20
3.161346375274397
 42
-0.0069371093685758
 10
34.6380045926868
 20
3.013817479213003
 42
-0.0068985501501962
 10
34.59781975600439
 20
2.867346729428183
 42
-0.0068675403177487
 10
34.5536187790481
 20
2.72203794184019
 42
-0.0068997946643035
 10
34.50543575378063
 20
2.578000433926568
 42
-0.0069479760377805
 10
34.45328282846799
 20
2.435352513347794
 42
-0.0070424275433556
 10
34.39716357567522
 20
2.294216894342895
 42
-0.0071926779112714
 10
34.33705021523213
 20
2.154737021151589
 42
-0.0073663141935647
 10
34.2729041254084
 20
2.017064956606503
 42
-0.0076371803452165
 10
34.2046576091698
 20
1.881379606333915
 42
-0.0079266880668434
 10
34.13222277676138
 20
1.747883637689682
 42
-0.0083461884852162
 10
34.05548543356278
 20
1.616814204062585
 42
-0.0088002204096834
 10
33.97430120811549
 20
1.488453010981508
 42
-0.0094246215929
 10
33.8884981571604
 20
1.36313316190879
 42
-0.0101122483308217
 10
33.79786854009032
 20
1.241259639837998
 42
-0.011036214805106
 10
33.70217200459734
 20
1.123325899380083
 42
-0.0120883631730827
 10
33.60113572591564
 20
1.009935137846582
 42
-0.0134209230784062
 10
33.4944536294768
 20
0.9018460157887771
 42
-0.0150605614055878
 10
33.38180655975742
 20
0.7999942452410096
 42
-0.017016224214928
 10
33.26287940344383
 20
0.705561250056917
 42
-0.0193914933143089
 10
33.13741229162488
 20
0.620024479328265
 42
-0.0222233789448188
 10
33.00528536465521
 20
0.5452088140692695
 42
-0.0254629662575058
 10
32.86665433381239
 20
0.4833094238601065
 42
-0.0289288098310402
 10
32.72214284767731
 20
0.4368269030950957
 42
-0.0322305566455142
 10
32.57305693327931
 20
0.4083415184872763
 42
-0.034786496969758
 10
32.4215166213593
 20
0.4000749499432743
 42
-0.0359524129319218
 10
32.27033774530321
 20
0.413308539924401
 42
-0.0353401704168555
 10
32.12258202606842
 20
0.4479447687189976
 42
-0.0331898885450779
 10
31.980947769235
 20
0.5024939476932673
 42
-0.0300826850840288
 10
31.8473221286672
 20
0.5745081896714055
 42
-0.0266366498672725
 10
31.7226880168565
 20
0.6611925960677924
 42
-0.0233206748362619
 10
31.60729962919882
 20
0.7598760617096048
 42
-0.020370243693662
 10
31.5009429967061
 20
0.8682505840025099
 42
-0.0178579096501226
 10
31.40315948240331
 20
0.9844322463816011
 42
-0.0157896771230866
 10
31.31339714260662
 20
1.106926395003284
 42
-0.0140999966045992
 10
31.23109456916009
 20
1.234557437380999
 42
-0.0126748727775055
 10
31.15572644873683
 20
1.366406882492924
 42
-0.0115445386875736
 10
31.08682728505178
 20
1.501753494672925
 42
-0.010625946783232
 10
31.02398184390111
 20
1.64001607949978
 42
-0.0098394493265936
 10
30.96684367164951
 20
1.7807361434688
 42
-0.0092469786663662
 10
30.91511186627363
 20
1.923532500429779
 42
-0.0087136498228742
 10
30.8685389588037
 20
2.068095415239099
 42
-0.0083306192017583
 10
30.82691721216941
 20
2.214160903665487
 42
-0.0079791713811555
 10
30.79007972586811
 20
2.361506914911075
 42
-0.0077389426914592
 10
30.75788895969143
 20
2.509936980694895
 42
-0.0075230438055306
 10
30.73024247102731
 20
2.659281429901767
 42
-0.0073862702205294
 10
30.70705658202963
 20
2.809382671163681
 42
-0.0072855915061925
 10
30.68828417198313
 20
2.960100207767473
 42
-0.0072152521959714
 10
30.67388683596701
 20
3.111298784418913
 42
-0.0071894239490655
 10
30.66385050198233
 20
3.262849243873688
 42
-0.0072200605655547
 10
30.65815163564463
 20
3.415476409233775
 42
-0.0072797169905281
 10
30.65688588577311
 20
3.567352523847488
 42
-0.0073951013872119
 10
30.66007738873282
 20
3.71920194902168
 42
-0.0073941909784728
 10
30.66776657762247
 20
3.870899303054187
 42
-0.0072980642282426
 10
30.67984011830001
 20
4.021448277100006
  0
LWPOLYLINE
  5
55D29
330
1F
100
AcDbEntity
  8
1
100
AcDbPolyline
 90
        3
 70
     0
 43
0.0
 10
30.67984011830001
 20
4.021448277100006
 10
30.69277564129999
 20
4.130693135000001
 10
30.7057111643
 20
4.239937992899996
  0
LWPOLYLINE
  5
55D2A
330
1F
100
AcDbEntity
  8
1
100
AcDbPolyline
 90
        4
 70
     0
 43
0.0
 10
32.42154346549998
 20
0.3999785505000091
 42
-0.0046633000274895
 10
32.34685840096029
 20
0.4077329638166988
 42
-0.0046667812202402
 10
32.2723295480113
 20
0.416879693659496
 42
-0.0046651546391782
 10
32.19798418510001
 20
0.4274159834999979
  0
LWPOLYLINE
  5
55D2B
330
1F
100
AcDbEntity
  8
1
100
AcDbPolyline
 90
       36
 70
     0
 43
0.0
 10
30.83126966329999
 20
2.197955143900003
 42
-0.01630383511671
 10
30.92107205397212
 20
2.240524881496773
 42
-0.0144410425740642
 10
31.0133473251565
 20
2.277453621358595
 42
-0.0127085839992545
 10
31.10748542201799
 20
2.309349850086498
 42
-0.0114170431373883
 10
31.20305065746772
 20
2.336674373313505
 42
-0.0103481643140705
 10
31.29971660862683
 20
2.359816196678679
 42
-0.0095001728676076
 10
31.39722406408788
 20
2.379111642485773
 42
-0.0087828049278893
 10
31.49537199585413
 20
2.394832990968779
 42
-0.0082269608981936
 10
31.59404683740002
 20
2.407213989399983
 42
-0.0077489381280751
 10
31.69301829397932
 20
2.4164368310254
 42
-0.0073546068431275
 10
31.79222360770282
 20
2.422666767359288
 42
-0.0070481732403214
 10
31.89156726169111
 20
2.426039076915081
 42
-0.0067797659857477
 10
31.99096649260039
 20
2.42666430322518
 42
-0.0065839338978204
 10
32.0903470787955
 20
2.424633463759413
 42
-0.0064188012787926
 10
32.1896415074549
 20
2.420021210503583
 42
-0.0063030564079281
 10
32.28878655908264
 20
2.412884453511273
 42
-0.0062234032510315
 10
32.38772197980083
 20
2.403268384950471
 42
-0.0061754435882246
 10
32.48638862449852
 20
2.391202319143096
 42
-0.0061711942007
 10
32.5847274670264
 20
2.376705267128186
 42
-0.0061888963202267
 10
32.68267800649463
 20
2.359782349936779
 42
-0.0062570589076314
 10
32.78017707624144
 20
2.340427576060498
 42
-0.0063463351599047
 10
32.87715756581821
 20
2.318622681355883
 42
-0.0064897157100313
 10
32.9735462939519
 20
2.294335936146999
 42
-0.0066653922125481
 10
33.06926327804578
 20
2.267524125962089
 42
-0.006893192301767
 10
33.1642178718862
 20
2.238127181890178
 42
-0.0071810973758377
 10
33.2583082938765
 20
2.206072339697186
 42
-0.0075161546312368
 10
33.3514158132852
 20
2.171266768871184
 42
-0.0079539392175438
 10
33.44340236354322
 20
2.133599571186485
 42
-0.0084559660182775
 10
33.5341046274483
 20
2.092937907211897
 42
-0.0090872572831439
 10
33.62332403107882
 20
2.049120488996408
 42
-0.0098645251594807
 10
33.71082123220091
 20
2.001960218374498
 42
-0.01077976419634
 10
33.79629940112133
 20
1.951232819438018
 42
-0.011980846075178
 10
33.87937968103995
 20
1.896671744774288
 42
-0.0134259353522067
 10
33.95958401546665
 20
1.837973122967298
 42
-0.015265623153196
 10
34.03630981013183
 20
1.774785034566917
 42
-0.017565328731267
 10
34.10866053069999
 20
1.7067199624
  0
LWPOLYLINE
  5
55D2C
330
1F
100
AcDbEntity
  8
1
100
AcDbPolyline
 90
       34
 70
     0
 43
0.0
 10
34.12694067850001
 20
1.738982848299996
 42
0.0174062094892555
 10
34.04796010510489
 20
1.809625573916605
 42
0.0150116630728896
 10
33.96455095250181
 20
1.875007814803922
 42
0.0132080183142451
 10
33.87791373920001
 20
1.935370294800009
 42
0.0118449661279566
 10
33.78803726641448
 20
1.991536752069407
 42
0.0106740390083952
 10
33.69572269691389
 20
2.043605040037781
 42
0.0097898658439278
 10
33.60135541414073
 20
2.091855492197274
 42
0.0090492550279482
 10
33.50524014879332
 20
2.136524724156593
 42
0.0084365054413581
 10
33.40762130464373
 20
2.177807398164269
 42
0.0079641278265625
 10
33.30870178661371
 20
2.215869191038904
 42
0.0075528042655034
 10
33.2086494423059
 20
2.250846410282996
 42
0.0072376870435438
 10
33.1076061768415
 20
2.282849580052499
 42
0.0069785961335093
 10
33.00569466141562
 20
2.311970701215776
 42
0.0067706631439437
 10
32.90302079587963
 20
2.338279104054578
 42
0.0066243668224895
 10
32.79967945434561
 20
2.361829685840767
 42
0.0064858761136627
 10
32.69608754348914
 20
2.382597198958584
 42
0.0064480923496448
 10
32.5916602925914
 20
2.400736897623005
 42
0.0064135314453608
 10
32.486801188724
 20
2.416186261573379
 42
0.0064298579538112
 10
32.3815799603438
 20
2.428937571553603
 42
0.0064785781833688
 10
32.27606486366264
 20
2.438970768775504
 42
0.0065679201805898
 10
32.17032406642062
 20
2.44624782074117
 42
0.0067072304463851
 10
32.06442753936568
 20
2.450717540942996
 42
0.0068794077539038
 10
31.95844886808038
 20
2.452308936712511
 42
0.0071248975368621
 10
31.85246743316699
 20
2.450933276799389
 42
0.00740855855164
 10
31.74657089609079
 20
2.446480363435
 42
0.0077813608463848
 10
31.64085892359248
 20
2.438813440811173
 42
0.0082316601364667
 10
31.53544646359222
 20
2.427770741531269
 42
0.0087689601952764
 10
31.43047113952997
 20
2.4131519541327
 42
0.0094621331132971
 10
31.32609883942099
 20
2.394720069881287
 42
0.0102816858686716
 10
31.22253384280162
 20
2.372190237038267
 42
0.0113252733957156
 10
31.12004161200549
 20
2.345209492817502
 42
0.0125954254780664
 10
31.01895814202723
 20
2.313366284695
 42
0.0142750481061121
 10
30.91971451351748
 20
2.276164769778168
 42
0.0163101794948337
 10
30.82229178749998
 20
2.232634767799993
  0
LWPOLYLINE
  5
55D2D
330
1F
100
AcDbEntity
  8
1
100
AcDbPolyline
 90
        3
 70
     0
 43
0.0
 10
34.78362115690001
 20
3.830946370499987
 10
34.77045437275001
 20
3.720072644100013
 10
34.75728758859998
 20
3.609198917699983
  0
ARC
  5
55D2E
330
1F
100
AcDbEntity
  8
sk3
100
AcDbCircle
 10
33.89999999999999
 20
7.219999999999997
 30
0.0
 40
0.4
100
AcDbArc
 50
90.0
 51
180.0
  0
LINE
  5
55D2F
330
1F
100
AcDbEntity
  8
sk3
100
AcDbLine
 10
33.00000000350002
 20
5.26999999649999
 30
0.0
 11
33.50000000389997
 21
5.769999996199999
 31
0.0
  0
LINE
  5
55D30
330
1F
100
AcDbEntity
  8
1
100
AcDbLine
 10
4.009999999999904
 20
-3.970000000000084
 30
0.0
 11
4.759999999999905
 21
-3.220000000000084
 31
0.0
  0
LINE
  5
55D31
330
1F
100
AcDbEntity
  8
1
100
AcDbLine
 10
1.5
 20
-23.81500000009999
 30
0.0
 11
14.73205080749997
 21
-23.81500000009999
 31
0.0
  0
LINE
  5
55D32
330
1F
100
AcDbEntity
  8
sk3
100
AcDbLine
 10
1.199999999999988
 20
-9.525000000000003
 30
0.0
 11
11.52499999999998
 21
-9.525000000000003
 31
0.0
  0
ARC
  5
55D33
330
1F
100
AcDbEntity
  8
1
100
AcDbCircle
 10
15.63760270949998
 20
-23.60576982679999
 30
0.0
 40
0.5
100
AcDbArc
 50
240.0
 51
270.0
  0
ARC
  5
55D34
330
1F
100
AcDbEntity
  8
1
100
AcDbCircle
 10
14.73205080749997
 20
-24.815
 30
0.0
 40
1.0
100
AcDbArc
 50
60.00000000000184
 51
90.0
  0
LINE
  5
55D35
330
1F
100
AcDbEntity
  8
1
100
AcDbLine
 10
15.23205080750011
 20
-23.94897459620002
 30
0.0
 11
15.3876027095001
 21
-24.03878252869998
 31
0.0
  0
LINE
  5
55D36
330
1F
100
AcDbEntity
  8
1
100
AcDbLine
 10
12.25
 20
-23.815
 30
0.0
 11
14.73205080749997
 21
-23.815
 31
0.0
  0
LINE
  5
55D37
330
1F
100
AcDbEntity
  8
sk3
100
AcDbLine
 10
12.0
 20
-10.0
 30
0.0
 11
18.59999999999999
 21
-10.0
 31
0.0
  0
ARC
  5
55D38
330
1F
100
AcDbEntity
  8
sk3
100
AcDbCircle
 10
18.59999999999999
 20
-9.599999999999994
 30
0.0
 40
0.4
100
AcDbArc
 50
270.0
 51
0.0
  0
ARC
  5
55D39
330
1F
100
AcDbEntity
  8
sk3
100
AcDbCircle
 10
19.39999999999997
 20
-5.670000000000101
 30
0.0
 40
0.4
100
AcDbArc
 50
90.0
 51
180.0
  0
LINE
  5
55D3A
330
1F
100
AcDbEntity
  8
sk3
100
AcDbLine
 10
11.52499988840012
 20
-9.525000111599807
 30
0.0
 11
11.99999988290011
 21
-10.0000001170998
 31
0.0
  0
LINE
  5
55D3B
330
1F
100
AcDbEntity
  8
1
100
AcDbLine
 10
0.0
 20
-22.31500000009999
 30
0.0
 11
0.0
 21
-4.470000000099986
 31
0.0
  0
ARC
  5
55D3C
330
1F
100
AcDbEntity
  8
1
100
AcDbCircle
 10
1.5
 20
-22.31500000009999
 30
0.0
 40
1.5
100
AcDbArc
 50
180.0
 51
270.0
  0
LINE
  5
55D3D
330
1F
100
AcDbEntity
  8
1
100
AcDbLine
 10
4.010000000000103
 20
-3.969999999999998
 30
0.0
 11
0.5
 21
-3.969999999999998
 31
0.0
  0
LINE
  5
55D3E
330
1F
100
AcDbEntity
  8
sk3
100
AcDbLine
 10
1.200000160799817
 20
-9.525000160800203
 30
0.0
 11
-0.0000000000000853
 21
-10.72500036210016
 31
0.0
  0
LINE
  5
55D3F
330
1F
100
AcDbEntity
  8
1
100
AcDbLine
 10
0.4999999999999149
 20
-3.969999999999998
 30
0.0
 11
-0.0000000000000853
 21
-4.469999999999997
 31
0.0
  0
LINE
  5
55D40
330
1F
100
AcDbEntity
  8
sk3
100
AcDbLine
 10
1.200000000001125
 20
-9.525000000000318
 30
0.0
 11
1.200000321601123
 21
-3.970000000000225
 31
0.0
  0
LINE
  5
55D41
330
1F
100
AcDbEntity
  8
sk3
100
AcDbLine
 10
1.199999999999988
 20
9.525000000000003
 30
0.0
 11
11.52499999999998
 21
9.525000000000003
 31
0.0
  0
LINE
  5
55D42
330
1F
100
AcDbEntity
  8
sk3
100
AcDbLine
 10
12.0
 20
10.0
 30
0.0
 11
18.59999999999999
 21
10.0
 31
0.0
  0
LINE
  5
55D43
330
1F
100
AcDbEntity
  8
sk3
100
AcDbLine
 10
19.0
 20
9.599999999999994
 30
0.0
 11
19.0
 21
-9.599999999999994
 31
0.0
  0
ARC
  5
55D44
330
1F
100
AcDbEntity
  8
sk3
100
AcDbCircle
 10
18.59999999999999
 20
9.599999999999994
 30
0.0
 40
0.4
100
AcDbArc
 50
0.0
 51
90.0
  0
ARC
  5
55D45
330
1F
100
AcDbEntity
  8
sk3
100
AcDbCircle
 10
19.39999999999997
 20
5.670000000000014
 30
0.0
 40
0.4
100
AcDbArc
 50
180.0
 51
270.0
  0
LINE
  5
55D46
330
1F
100
AcDbEntity
  8
sk3
100
AcDbLine
 10
11.52499999999998
 20
-9.525000000000003
 30
0.0
 11
11.52499999999998
 21
9.525000000000003
 31
0.0
  0
LINE
  5
55D47
330
1F
100
AcDbEntity
  8
sk3
100
AcDbLine
 10
12.0
 20
-10.0
 30
0.0
 11
12.0
 21
10.0
 31
0.0
  0
ARC
  5
55D48
330
1F
100
AcDbEntity
  8
1
100
AcDbCircle
 10
10.5
 20
0.0
 30
0.0
 40
1.75
100
AcDbArc
 50
0.0
 51
180.0
  0
LINE
  5
55D49
330
1F
100
AcDbEntity
  8
sk3
100
AcDbLine
 10
11.52499988839997
 20
9.525000111600007
 30
0.0
 11
11.9999998829
 21
10.00000011719999
 31
0.0
  0
LINE
  5
55D4A
330
1F
100
AcDbEntity
  8
sk3
100
AcDbLine
 10
1.200000321601208
 20
3.969999999999771
 30
0.0
 11
1.200000000001209
 21
9.524999999999776
 31
0.0
  0
LINE
  5
55D4B
330
1F
100
AcDbEntity
  8
1
100
AcDbLine
 10
0.0
 20
4.469999999900096
 30
0.0
 11
0.5
 21
3.970000000000112
 31
0.0
  0
LINE
  5
55D4C
330
1F
100
AcDbEntity
  8
1
100
AcDbLine
 10
4.759999999999308
 20
3.219999999999288
 30
0.0
 11
4.009999999999307
 21
3.969999999999288
 31
0.0
  0
LINE
  5
55D4D
330
1F
100
AcDbEntity
  8
1
100
AcDbLine
 10
0.5
 20
3.969999999999998
 30
0.0
 11
4.009999999999904
 21
3.969999999999998
 31
0.0
  0
LINE
  5
55D4E
330
1F
100
AcDbEntity
  8
1
100
AcDbLine
 10
4.75999999999999
 20
3.219999999999998
 30
0.0
 11
4.75999999999999
 21
-3.219999999999998
 31
0.0
  0
DIMENSION
  5
55D4F
330
1F
100
AcDbEntity
  8
sk2
100
AcDbDimension
  2
*D10
 10
-0.0000000000000014
 20
-43.59172627716725
 30
0.0
 11
39.96666666666666
 21
-43.59172627716725
 31
0.0
 70
   160
 71
     5
 42
19.0
  3
\M+18352\M+18373\M+1815B - ISO-25
100
AcDbAlignedDimension
 13
19.0
 23
-9.599999999999994
 33
0.0
 14
0.0
 24
-20.9999970826
 34
0.0
 50
180.0
100
AcDbRotatedDimension
1001
ACAD
1000
DSTYLE
1002
{
1070
     4
1000
[]"
1070
    40
1040
1.0
1070
   143
1040
0.03937
1070
   170
1070
     1
1070
   171
1070
     3
1070
   271
1070
     8
1070
   285
1070
     4
1002
}
  0
LINE
  5
55D50
330
1F
100
AcDbEntity
  8
4
100
AcDbLine
 10
10.5
 20
-3.398221188239858
 30
0.0
 11
10.5
 21
3.483793866817421
 31
0.0
  0
LINE
  5
55D51
330
1F
100
AcDbEntity
  8
1
100
AcDbLine
 10
30.15333217636629
 20
25.40000000000001
 30
0.0
 11
46.79999999999998
 21
25.40000000000001
 31
0.0
  0
DIMENSION
  5
55D52
330
1F
100
AcDbEntity
  8
2
100
AcDbDimension
  2
*D11
 10
72.87148302724597
 20
-25.40000000000001
 30
0.0
 11
72.87148302724597
 21
-1.750000000000006
 31
0.0
 70
   160
  1
%%c<>
 71
     5
 42
50.80000000000001
  3
\M+18352\M+18373\M+1815B - ISO-25
100
AcDbAlignedDimension
 13
46.71851137848256
 23
25.40000000000001
 33
0.0
 14
49.5593173105
 24
-25.40000000000001
 34
0.0
 50
90.0
100
AcDbRotatedDimension
1001
ACAD
1000
DSTYLE
1002
{
1070
     4
1000
%%C[]"
1070
    40
1040
1.0
1070
    76
1070
     1
1070
   143
1040
0.03937
1070
   170
1070
     1
1070
   171
1070
     3
1070
   173
1070
     1
1070
   271
1070
     8
1070
   285
1070
     4
1070
   344
1005
32F1
1002
}
  0
LWPOLYLINE
  5
55D53
330
1F
100
AcDbEntity
  8
1
100
AcDbPolyline
 90
        9
 70
     0
 43
0.0
 10
45.2591094551
 20
8.543173549599991
 42
-0.0005434879302016
 10
45.42948172441339
 20
9.190325503735287
 42
-0.0005377711364596
 10
45.60125001726111
 20
9.837108441618902
 42
-0.0005652636521374
 10
45.77444328599463
 20
10.48351122234208
 42
-0.0005951614194537
 10
45.94913621922922
 20
11.12951029911475
 42
-0.0006263232919957
 10
46.12540605655089
 20
11.77508086981725
 42
-0.0006656358975923
 10
46.30334302672614
 20
12.42019389658278
 42
-0.0007114800444862
 10
46.48305379334168
 20
13.06481502138807
 42
-0.0008491180418802
 10
46.68550072564102
 20
13.7823254562399
 42
-0.0008123100056893
  0
LWPOLYLINE
  5
55D54
330
1F
100
AcDbEntity
  8
1
100
AcDbPolyline
 90
        6
 70
     0
 43
0.0
 10
26.1999704202
 20
24.06572515900001
 10
27.50206552774188
 20
24.05758239169649
 10
27.56358041328088
 20
24.05025408996488
 10
27.6251656499262
 20
24.043538669046
 10
27.6868000292813
 20
24.03729089999129
 10
27.73390252510186
 20
24.03283032630151
  0
LWPOLYLINE
  5
55D55
330
1F
100
AcDbEntity
  8
1
100
AcDbPolyline
 90
       46
 70
     0
 43
0.0
 10
23.52006941926629
 20
17.66104544951992
 42
0.1266848041208631
 10
22.1323243362668
 20
17.11688794004018
 42
0.0134219853045625
 10
22.00543834018048
 20
17.01991340161209
 42
0.0133867363551949
 10
21.88393275796039
 20
16.91627975479028
 42
0.0133624379717988
 10
21.76814250776999
 20
16.80629781753319
 42
0.0133573703275913
 10
21.65839116858714
 20
16.69028824277629
 42
0.0133359786896585
 10
21.55498556864348
 20
16.56858840837211
 42
0.0133189291938031
 10
21.45821225955641
 20
16.44155102275277
 42
0.0133093553478436
 10
21.36833759215011
 20
16.30954294955867
 42
0.0132902691927958
 10
21.28560827771329
 20
16.17294328996888
 42
0.0132762407665113
 10
21.21025106834514
 20
16.0321423397601
 42
0.0132268192630574
 10
21.14267065099651
 20
15.88799990783127
 42
0.0132519642740493
 10
21.08262564789391
 20
15.74001937458725
 42
0.0132418737950108
 10
21.03050325303479
 20
15.58906605810608
 42
0.0132371500706438
 10
20.9864430478759
 20
15.4355657343539
 42
0.0132245507948226
 10
20.9505634161101
 20
15.2799498053559
 42
0.0132193211011252
 10
20.92296113153097
 20
15.12265459929668
 42
0.0132186060265588
 10
20.90370917292972
 20
14.96412059693691
 42
0.0132106299732651
 10
20.89285913536651
 20
14.804790893235
 42
0.0132108482565443
 10
20.8904405491889
 20
14.64511050641448
 42
0.013214498803367
 10
20.89645902782081
 20
14.48552526558649
 42
0.0132115012917133
 10
20.91089883542213
 20
14.3264807155023
 42
0.0132172823113611
 10
20.93372193123031
 20
14.16842130905439
 42
0.0132252076351462
 10
20.9648665324687
 20
14.01178901746678
 42
0.013227065776685
 10
21.00424972428573
 20
13.85702265426727
 42
0.0132380410223287
 10
21.0517662769129
 20
13.70455682798359
 42
0.0132497108594181
 10
21.10728769114539
 20
13.55482035680876
 42
0.0132558314331351
 10
21.17066476592569
 20
13.40823596614339
 42
0.0132711750563868
 10
21.2417262846908
 20
13.26521889869427
 42
0.0132856587514961
 10
21.320278591201
 20
13.12617523496317
 42
0.0132950243745709
 10
21.40610806145671
 20
12.9915019114695
 42
0.013313514682216
 10
21.4989797939889
 20
12.86158492274001
 42
0.0133295500155067
 10
21.59863773746562
 20
12.73679766528968
 42
0.0133408034897293
 10
21.70480704215998
 20
12.6175012297559
 42
0.0133609226211908
 10
21.81719291161829
 20
12.50404217999627
 42
0.0133770229270389
 10
21.9354812704259
 20
12.39675105065188
 42
0.0133885832456647
 10
22.05934098843901
 20
12.29594287910998
 42
0.0134086524827682
 10
22.18842305548492
 20
12.20191460024677
 42
0.0134232825324344
 10
22.32236173721924
 20
12.11494386108217
 42
0.0134334008422908
 10
22.46077665960581
 20
12.03528972799168
 42
0.0134517507042477
 10
22.6032724926734
 20
11.96318973417598
 42
0.0134641114699784
 10
22.74944044951098
 20
11.89885960003761
 42
0.0134695352696859
 10
22.8988600912453
 20
11.8424933296227
 42
0.0134846480758558
 10
23.05110022123662
 20
11.79425927813098
 42
0.0135043484100988
 10
23.20572274693993
 20
11.7543066740904
 42
0.0135093614225119
 10
23.36277123990001
 20
11.72266652920001
  0
ARC
  5
55D56
330
1F
100
AcDbEntity
  8
1
100
AcDbCircle
 10
46.79999999999998
 20
21.40000000000001
 30
0.0
 40
4.0
100
AcDbArc
 50
0.0
 51
90.0
  0
LINE
  5
55D57
330
1F
100
AcDbEntity
  8
nocut
100
AcDbLine
 10
15.63760270949998
 20
24.10576982679998
 30
0.0
 11
29.45386858230015
 21
24.10576982679998
 31
0.0
  0
LINE
  5
55D58
330
1F
100
AcDbEntity
  8
nocut
100
AcDbLine
 10
47.48439156699999
 20
22.04227269736362
 30
0.0
 11
47.48439156699999
 21
0.0
 31
0.0
  0
LINE
  5
55D59
330
1F
100
AcDbEntity
  8
nocut
100
AcDbLine
 10
29.4538685823002
 20
24.10576982679851
 30
0.0
 11
46.03541562933759
 21
23.54140462786961
 31
0.0
  0
ARC
  5
55D5A
330
1F
100
AcDbEntity
  8
nocut
100
AcDbCircle
 10
45.98439156699998
 20
22.04227269736362
 30
0.0
 40
1.5
100
AcDbArc
 50
0.0
 51
88.05064833007197
  0
LINE
  5
55D5B
330
1F
100
AcDbEntity
  8
nocut
100
AcDbLine
 10
1.5
 20
23.81500000009999
 30
0.0
 11
14.73205080749997
 21
23.81500000009999
 31
0.0
  0
ARC
  5
55D5C
330
1F
100
AcDbEntity
  8
nocut
100
AcDbCircle
 10
15.63760270949998
 20
23.60576982679999
 30
0.0
 40
0.5000000000000002
100
AcDbArc
 50
89.99999999999836
 51
120.0
  0
ARC
  5
55D5D
330
1F
100
AcDbEntity
  8
nocut
100
AcDbCircle
 10
14.73205080749997
 20
24.815
 30
0.0
 40
1.0
100
AcDbArc
 50
270.0
 51
300.0
  0
LINE
  5
55D5E
330
1F
100
AcDbEntity
  8
nocut
100
AcDbLine
 10
15.23205080750011
 20
23.94897459620002
 30
0.0
 11
15.3876027095001
 21
24.03878252869998
 31
0.0
  0
LINE
  5
55D5F
330
1F
100
AcDbEntity
  8
nocut
100
AcDbLine
 10
12.25
 20
23.815
 30
0.0
 11
14.73205080749997
 21
23.815
 31
0.0
  0
LINE
  5
55D60
330
1F
100
AcDbEntity
  8
nocut
100
AcDbLine
 10
0.0
 20
22.31500000009999
 30
0.0
 11
0.0
 21
0.0
 31
0.0
  0
ARC
  5
55D61
330
1F
100
AcDbEntity
  8
nocut
100
AcDbCircle
 10
1.5
 20
22.31500000009999
 30
0.0
 40
1.5
100
AcDbArc
 50
89.99999999999836
 51
180.0
  0
LINE
  5
55D62
330
1F
100
AcDbEntity
  8
nocut
100
AcDbLine
 10
47.48439156699999
 20
0.0000000000000284
 30
0.0
 11
0.0
 21
0.0
 31
0.0
  0
LINE
  5
55D63
330
1F
100
AcDbEntity
  8
cut
  6
Continuous
 62
     1
100
AcDbLine
 10
23.29999999884001
 20
17.63861919309998
 30
0.0
 11
23.29999999884001
 21
16.65431779619994
 31
0.0
  0
LINE
  5
55D64
330
1F
100
AcDbEntity
  8
cut
  6
Continuous
 62
     1
100
AcDbLine
 10
23.29999999884001
 20
17.63861919309998
 30
0.0
 11
25.14235912844001
 21
20.63861919257997
 31
0.0
  0
LINE
  5
55D65
330
1F
100
AcDbEntity
  8
cut
  6
Continuous
 62
     1
100
AcDbLine
 10
25.14235912844001
 20
20.63861919257997
 30
0.0
 11
27.44504294318
 21
24.05365547653995
 31
0.0
  0
LINE
  5
55D66
330
1F
100
AcDbEntity
  8
cut
  6
Continuous
 62
     1
100
AcDbLine
 10
28.53308975361997
 20
24.63999999854001
 30
0.0
 11
29.84944836803999
 21
25.40000000000001
 31
0.0
  0
LINE
  5
55D67
330
1F
100
AcDbEntity
  8
cut
  6
Continuous
 62
     1
100
AcDbLine
 10
27.44504294318
 20
24.05365547653995
 30
0.0
 11
28.53308975361997
 21
24.63999999854001
 31
0.0
  0
LINE
  5
55D68
330
1F
100
AcDbEntity
  8
cut
  6
Continuous
 62
     1
100
AcDbLine
 10
50.79999999999998
 20
20.27001640171999
 30
0.0
 11
50.79999999999998
 21
21.25431779607998
 31
0.0
  0
LINE
  5
55D69
330
1F
100
AcDbEntity
  8
cut
  6
Continuous
 62
     1
100
AcDbLine
 10
50.79999999999998
 20
20.27001640171999
 30
0.0
 11
48.95764087294003
 21
17.27001640223997
 31
0.0
  0
LINE
  5
55D6A
330
1F
100
AcDbEntity
  8
cut
  6
Continuous
 62
     1
100
AcDbLine
 10
48.95764087294003
 20
17.27001640223997
 30
0.0
 11
46.65495705819997
 21
13.85498011827994
 31
0.0
  0
LINE
  5
55D6B
330
1F
100
AcDbEntity
  8
cut
  6
Continuous
 62
     1
100
AcDbLine
 10
45.56691024775999
 20
13.26863559627996
 30
0.0
 11
44.25055163334
 21
12.50863559482
 31
0.0
  0
LINE
  5
55D6C
330
1F
100
AcDbEntity
  8
cut
  6
Continuous
 62
     1
100
AcDbLine
 10
46.65495705819997
 20
13.85498011827994
 30
0.0
 11
45.56691024775999
 21
13.26863559627996
 31
0.0
  0
LINE
  5
55D6D
330
1F
100
AcDbEntity
  8
cut
 62
     1
100
AcDbLine
 10
50.79999999999998
 20
20.27001640171999
 30
0.0
 11
50.79999999999998
 21
21.40000000000001
 31
0.0
  0
LINE
  5
55D6E
330
1F
100
AcDbEntity
  8
cut
 62
     1
100
AcDbLine
 10
23.29999999884001
 20
17.63861919309998
 30
0.0
 11
23.29999999884001
 21
16.50863559482
 31
0.0
  0
LINE
  5
55D6F
330
1F
100
AcDbEntity
  8
cut
 62
     1
100
AcDbLine
 10
29.84944836803999
 20
25.40000000000001
 30
0.0
 11
46.79999999999998
 21
25.40000000000001
 31
0.0
  0
LINE
  5
55D70
330
1F
100
AcDbEntity
  8
cut
 62
     1
100
AcDbLine
 10
44.25055163334
 20
12.50863559482
 30
0.0
 11
27.29999999884001
 21
12.50863559482
 31
0.0
  0
ARC
  5
55D71
330
1F
100
AcDbEntity
  8
cut
 62
     1
100
AcDbCircle
 10
46.79999999999998
 20
21.40000000000001
 30
0.0
 40
4.0
100
AcDbArc
 50
0.0
 51
90.0
  0
ARC
  5
55D72
330
1F
100
AcDbEntity
  8
cut
 62
     1
100
AcDbCircle
 10
27.29999999884001
 20
16.50863559482
 30
0.0
 40
4.0
100
AcDbArc
 50
180.0
 51
270.0
  0
VIEWPORT
  5
6B
102
{ACAD_XDICTIONARY
360
55E7B
102
}
330
50
100
AcDbEntity
 67
     1
  8
0
100
AcDbViewport
 10
155.3592437148233
 20
160.4455827878762
 30
0.0
 40
349.5854424261001
 41
282.2272140146125
 68
     1
 69
     1
 12
155.3592437148233
 22
160.4455827878762
 13
0.0
 23
0.0
 14
10.0
 24
10.0
 15
10.0
 25
10.0
 16
0.0
 26
0.0
 36
1.0
 17
0.0
 27
0.0
 37
0.0
 42
50.0
 43
0.0
 44
0.0
 45
282.2272140146125
 50
0.0
 51
0.0
 72
  1000
 90
    32864
  1

281
     0
 71
     1
 74
     0
110
0.0
120
0.0
130
0.0
111
1.0
121
0.0
131
0.0
112
0.0
122
1.0
132
0.0
 79
     0
146
0.0
  0
VIEWPORT
  5
6D
102
{ACAD_XDICTIONARY
360
55E7D
102
}
330
50
100
AcDbEntity
 67
     1
  8
0
100
AcDbViewport
 10
133.3499939441681
 20
101.5999939441681
 30
0.0
 40
213.3599903106689
 41
162.5599903106689
 68
     2
 69
     2
 12
210.0
 22
148.5
 13
0.0
 23
0.0
 14
10.0
 24
10.0
 15
10.0
 25
10.0
 16
0.0
 26
0.0
 36
1.0
 17
0.0
 27
0.0
 37
0.0
 42
50.0
 43
0.0
 44
0.0
 45
324.0677920111345
 50
0.0
 51
0.0
 72
   100
 90
    32864
  1

281
     0
 71
     1
 74
     0
110
0.0
120
0.0
130
0.0
111
1.0
121
0.0
131
0.0
112
0.0
122
1.0
132
0.0
 79
     0
146
0.0
  0
ENDSEC
  0
SECTION
  2
OBJECTS
  0
DICTIONARY
  5
C
330
0
100
AcDbDictionary
281
     1
  3
ACAD_COLOR
350
85
  3
ACAD_GROUP
350
D
  3
ACAD_LAYOUT
350
1A
  3
ACAD_MATERIAL
350
84
  3
ACAD_MLINESTYLE
350
17
  3
ACAD_PLOTSETTINGS
350
19
  3
ACAD_PLOTSTYLENAME
350
E
  3
ACAD_TABLESTYLE
350
A1
  3
ACDBHEADERROUNDTRIPXREC
350
55E76
  3
AcDbVariableDictionary
350
5E
  3
ASE_INDEX_DICTIONARY
350
349E9
  3
DWGPROPS
350
55E75
  0
DICTIONARY
  5
E2
330
2
100
AcDbDictionary
280
     1
281
     1
  3
ACAD_LAYERFILTERS
360
54C81
  3
ACAD_LAYERSTATES
360
3759A
  3
ACLYDICTIONARY
360
54C80
  0
DICTIONARY
  5
31EE
330
1F
100
AcDbDictionary
280
     1
281
     1
  3
ACAD_SORTENTS
360
31EF
  0
DICTIONARY
  5
43668
330
680
100
AcDbDictionary
280
     1
281
     1
  3
ACAD_SORTENTS
360
43669
  0
DICTIONARY
  5
55E7F
330
71
100
AcDbDictionary
280
     1
281
     1
  3
ACAD_XREC_ROUNDTRIP
360
55E80
  0
DICTIONARY
  5
55E81
330
73
100
AcDbDictionary
280
     1
281
     1
  3
ACAD_XREC_ROUNDTRIP
360
55E82
  0
DICTIONARY
  5
55E7B
330
6B
100
AcDbDictionary
280
     1
281
     1
  3
ACAD_XREC_ROUNDTRIP
360
55E7C
  0
DICTIONARY
  5
55E7D
330
6D
100
AcDbDictionary
280
     1
281
     1
  3
ACAD_XREC_ROUNDTRIP
360
55E7E
  0
DICTIONARY
  5
85
102
{ACAD_REACTORS
330
C
102
}
330
C
100
AcDbDictionary
281
     1
  0
DICTIONARY
  5
D
102
{ACAD_REACTORS
330
C
102
}
330
C
100
AcDbDictionary
281
     1
  0
DICTIONARY
  5
1A
102
{ACAD_REACTORS
330
C
102
}
330
C
100
AcDbDictionary
281
     1
  3
\M+1838C\M+18343\M+18341\M+18345\M+183671
350
51
  3
\M+1838C\M+18343\M+18341\M+18345\M+183672
350
56
  3
Model
350
22
  0
DICTIONARY
  5
84
102
{ACAD_REACTORS
330
C
102
}
330
C
100
AcDbDictionary
281
     1
  0
DICTIONARY
  5
17
102
{ACAD_REACTORS
330
C
102
}
330
C
100
AcDbDictionary
281
     1
  3
Standard
350
18
  0
DICTIONARY
  5
19
102
{ACAD_REACTORS
330
C
102
}
330
C
100
AcDbDictionary
281
     1
  0
ACDBDICTIONARYWDFLT
  5
E
102
{ACAD_REACTORS
330
C
102
}
330
C
100
AcDbDictionary
281
     1
  3
Normal
350
F
100
AcDbDictionaryWithDefault
340
F
  0
DICTIONARY
  5
A1
102
{ACAD_REACTORS
330
C
102
}
330
C
100
AcDbDictionary
281
     1
  3
Standard
350
A2
  0
DICTIONARY
  5
55E76
102
{ACAD_REACTORS
330
C
102
}
330
C
100
AcDbDictionary
281
     1
  0
DICTIONARY
  5
5E
102
{ACAD_REACTORS
330
C
102
}
330
C
100
AcDbDictionary
281
     1
  3
CTABLESTYLE
350
B8
  3
DIMASSOC
350
5F
  3
HIDETEXT
350
63
  3
PROJECTNAME
350
31CE
  0
DICTIONARY
  5
349E9
102
{ACAD_REACTORS
330
C
102
}
330
C
100
AcDbDictionary
281
     1
  3
ASEBlockHierarchyIndexRecord
350
349EA
1001
DCO15
1040
1842496176.844
  0
XRECORD
  5
55E75
102
{ACAD_REACTORS
330
C
102
}
330
C
100
AcDbXrecord
280
     1
  1
DWGPROPS COOKIE
  2

  3

  4

  6

  7

  8

  9

300
=
301
=
302
=
303
=
304
=
305
=
306
=
307
=
308
=
309
=
 40
2.238250335648148
 41
2455489.391063368
 42
2458518.455743229
  1

 90
        0
  0
DICTIONARY
  5
54C81
102
{ACAD_REACTORS
330
E2
102
}
330
E2
100
AcDbDictionary
281
     1
  0
DICTIONARY
  5
3759A
102
{ACAD_REACTORS
330
E2
102
}
330
E2
100
AcDbDictionary
281
     1
  0
DICTIONARY
  5
54C80
102
{ACAD_REACTORS
330
E2
102
}
330
E2
100
AcDbDictionary
281
     1
1001
ACAD
1000
<All
  0
SORTENTSTABLE
  5
31EF
102
{ACAD_REACTORS
330
31EE
102
}
330
31EE
100
AcDbSortentsTable
330
1F
331
68C
  5
435D5
  0
SORTENTSTABLE
  5
43669
102
{ACAD_REACTORS
330
43668
102
}
330
43668
100
AcDbSortentsTable
330
680
  0
XRECORD
  5
55E80
102
{ACAD_REACTORS
330
55E7F
102
}
330
55E7F
100
AcDbXrecord
280
     1
102
SHADEPLOT
 70
     0
  0
XRECORD
  5
55E82
102
{ACAD_REACTORS
330
55E81
102
}
330
55E81
100
AcDbXrecord
280
     1
102
SHADEPLOT
 70
     0
  0
XRECORD
  5
55E7C
102
{ACAD_REACTORS
330
55E7B
102
}
330
55E7B
100
AcDbXrecord
280
     1
102
SHADEPLOT
 70
     0
  0
XRECORD
  5
55E7E
102
{ACAD_REACTORS
330
55E7D
102
}
330
55E7D
100
AcDbXrecord
280
     1
102
SHADEPLOT
 70
     0
  0
LAYOUT
  5
51
102
{ACAD_XDICTIONARY
360
B2
102
}
102
{ACAD_REACTORS
330
1A
102
}
330
1A
100
AcDbPlotSettings
  1

  2
none_device
  4
Letter_(8.50_x_11.00_Inches)
  6

 40
6.349999904632567
 41
6.349999904632567
 42
6.350006103515625
 43
6.350006103515625
 44
215.8999938964844
 45
279.3999938964844
 46
0.0
 47
0.0
 48
0.0
 49
0.0
140
0.0
141
0.0
142
1.0
143
1.0
 70
   688
 72
     1
 73
     1
 74
     5
  7

 75
    16
147
1.0
148
0.0
149
0.0
100
AcDbLayout
  1
\M+1838C\M+18343\M+18341\M+18345\M+183671
 70
     1
 71
     1
 10
-6.350006103515625
 20
-6.349999904632567
 11
273.0499877929688
 21
209.5499939918518
 12
0.0
 22
0.0
 32
0.0
 14
26.66999878883364
 24
20.31999878883365
 34
0.0
 15
240.0299890995025
 25
182.8799890995025
 35
0.0
146
0.0
 13
0.0
 23
0.0
 33
0.0
 16
1.0
 26
0.0
 36
0.0
 17
0.0
 27
1.0
 37
0.0
 76
     0
330
50
331
6B
  0
LAYOUT
  5
56
102
{ACAD_XDICTIONARY
360
B5
102
}
102
{ACAD_REACTORS
330
1A
102
}
330
1A
100
AcDbPlotSettings
  1

  2
none_device
  4
Letter_(8.50_x_11.00_Inches)
  6

 40
6.349999904632567
 41
6.349999904632567
 42
6.350006103515625
 43
6.350006103515625
 44
215.8999938964844
 45
279.3999938964844
 46
0.0
 47
0.0
 48
0.0
 49
0.0
140
0.0
141
0.0
142
1.0
143
1.0
 70
   688
 72
     1
 73
     1
 74
     5
  7

 75
    16
147
1.0
148
0.0
149
0.0
100
AcDbLayout
  1
\M+1838C\M+18343\M+18341\M+18345\M+183672
 70
     1
 71
     2
 10
-6.350006103515625
 20
-6.349999904632567
 11
273.0499877929688
 21
209.5499939918518
 12
0.0
 22
0.0
 32
0.0
 14
26.66999878883363
 24
20.31999878883363
 34
0.0
 15
240.0299890995026
 25
182.8799890995025
 35
0.0
146
0.0
 13
0.0
 23
0.0
 33
0.0
 16
1.0
 26
0.0
 36
0.0
 17
0.0
 27
1.0
 37
0.0
 76
     0
330
55
331
71
  0
LAYOUT
  5
22
102
{ACAD_XDICTIONARY
360
55E77
102
}
102
{ACAD_REACTORS
330
1A
102
}
330
1A
100
AcDbPlotSettings
  1

  2
none_device
  4
ANSI_A_(8.50_x_11.00_Inches)
  6

 40
6.349999904632567
 41
19.04999923706055
 42
6.350006103515625
 43
19.04998779296875
 44
215.8999938964844
 45
279.3999938964844
 46
0.0
 47
0.0
 48
0.0
 49
0.0
140
0.0
141
0.0
142
1.0
143
78.436453180766
 70
 11952
 72
     0
 73
     1
 74
     0
  7

 75
     0
147
0.0127491741332998
148
0.0
149
0.0
100
AcDbLayout
  1
Model
 70
     1
 71
     0
 10
0.0
 20
0.0
 11
12.0
 21
9.0
 12
0.0
 22
0.0
 32
0.0
 14
0.0
 24
0.0
 34
0.0
 15
0.0
 25
0.0
 35
0.0
146
0.0
 13
0.0
 23
0.0
 33
0.0
 16
1.0
 26
0.0
 36
0.0
 17
0.0
 27
1.0
 37
0.0
 76
     0
330
1F
  0
MLINESTYLE
  5
18
102
{ACAD_REACTORS
330
17
102
}
330
17
100
AcDbMlineStyle
  2
STANDARD
 70
     0
  3

 62
   256
 51
90.0
 52
90.0
 71
     2
 49
0.5
 62
   256
  6
BYLAYER
 49
-0.5
 62
   256
  6
BYLAYER
  0
ACDBPLACEHOLDER
  5
F
102
{ACAD_REACTORS
330
E
102
}
330
E
  0
TABLESTYLE
  5
A2
102
{ACAD_REACTORS
330
A1
102
}
330
A1
100
AcDbTableStyle
  3
Standard
 70
     0
 71
     0
 40
1.5
 41
1.5
280
     0
281
     0
  7
Standard
140
4.5
170
     2
 62
     0
 63
     7
283
     0
274
    -2
284
     1
 64
     0
275
    -2
285
     1
 65
     0
276
    -2
286
     1
 66
     0
277
    -2
287
     1
 67
     0
278
    -2
288
     1
 68
     0
279
    -2
289
     1
 69
     0
  7
Standard
140
6.0
170
     5
 62
     0
 63
     7
283
     0
274
    -2
284
     1
 64
     0
275
    -2
285
     1
 65
     0
276
    -2
286
     1
 66
     0
277
    -2
287
     1
 67
     0
278
    -2
288
     1
 68
     0
279
    -2
289
     1
 69
     0
  7
Standard
140
4.5
170
     5
 62
     0
 63
     7
283
     0
274
    -2
284
     1
 64
     0
275
    -2
285
     1
 65
     0
276
    -2
286
     1
 66
     0
277
    -2
287
     1
 67
     0
278
    -2
288
     1
 68
     0
279
    -2
289
     1
 69
     0
  0
DICTIONARYVAR
  5
B8
102
{ACAD_REACTORS
330
5E
102
}
330
5E
100
DictionaryVariables
280
     0
  1
STANDARD
  0
DICTIONARYVAR
  5
5F
102
{ACAD_REACTORS
330
5E
102
}
330
5E
100
DictionaryVariables
280
     0
  1
2
  0
DICTIONARYVAR
  5
63
102
{ACAD_REACTORS
330
5E
102
}
330
5E
100
DictionaryVariables
280
     0
  1
1
  0
DICTIONARYVAR
  5
31CE
102
{ACAD_REACTORS
330
5E
102
}
330
5E
100
DictionaryVariables
280
     0
  1

  0
XRECORD
  5
349EA
102
{ACAD_REACTORS
330
349E9
102
}
330
349E9
100
AcDbXrecord
280
     1
330
68C
330
431D
330
431E
330
4329
330
4334
330
4335
330
4B09
330
4B0A
330
5153
330
5154
330
515D
330
515E
330
516A
330
516B
330
5177
330
5178
330
85B4
330
85B5
330
8620
330
8621
330
862A
330
862B
330
8637
330
8638
330
8644
330
8645
330
9773
330
9774
330
977D
330
977E
330
978A
330
978B
330
9797
330
9798
330
BD86
330
BD87
330
BD8F
330
BD90
330
BD98
330
BDA0
330
BDA1
330
BDDD
330
BDDE
330
BDE7
330
BDE8
330
BDF4
330
BDF5
330
BE01
330
BE02
330
E473
330
E474
330
E48D
330
E48E
330
E485
330
E47C
330
E47D
330
E4CC
330
E4CD
330
E4D7
330
E4D8
330
1C63B
330
1C63C
330
1C705
330
1C706
330
1C719
330
1C71A
330
1C72E
330
1C72F
330
1C738
330
1C739
330
27043
330
27044
330
2703A
330
2703B
330
2CF2C
330
2CF2D
330
2CF38
330
2CF39
330
2CF42
330
2CF43
330
2CF4F
330
2CF50
330
2CF59
330
2CF5A
330
2FA31
330
2FA32
330
2FA3D
330
2FA3E
330
2FA4A
330
2FA4B
330
2FA54
330
2FA55
330
329D8
330
329D9
330
329E1
330
329E2
330
329EA
330
329EB
330
329F3
330
329F4
330
32E63
330
32E64
330
32E6F
330
32E70
330
32E79
330
32E7A
330
32E88
330
32E89
330
32E92
330
32E93
  0
DICTIONARY
  5
B2
330
51
100
AcDbDictionary
280
     1
281
     1
  3
ACAD_XREC_ROUNDTRIP
360
55E79
  3
ADSK_XREC_LAYOUTTHUMBNAIL
360
B3
  0
DICTIONARY
  5
B5
330
56
100
AcDbDictionary
280
     1
281
     1
  3
ACAD_XREC_ROUNDTRIP
360
55E7A
  3
ADSK_XREC_LAYOUTTHUMBNAIL
360
B6
  0
DICTIONARY
  5
55E77
330
22
100
AcDbDictionary
280
     1
281
     1
  3
ACAD_XREC_ROUNDTRIP
360
55E78
  0
XRECORD
  5
55E79
102
{ACAD_REACTORS
330
B2
102
}
330
B2
100
AcDbXrecord
280
     1
102
SHADEPLOT
 70
     0
102
SHADEPLOTRESLEVEL
 70
     2
102
SHADEPLOTCUSTOMDPI
 70
   300
  0
XRECORD
  5
B3
102
{ACAD_REACTORS
330
B2
102
}
330
B2
100
AcDbXrecord
280
     1
310
28000000B40000008B0000000100080000000000BC61000000000000000000000001000000000000FFFFFF0000000000FFFFFF000000000000000000000000000000000000000000000000000000000000000000330000006600000099000000CC000000FF00000000330000333300006633000099330000CC330000FF3300
310
0000660000336600006666000099660000CC660000FF66000000990000339900006699000099990000CC990000FF99000000CC000033CC000066CC000099CC0000CCCC0000FFCC000000FF000033FF000066FF000099FF0000CCFF0000FFFF000000003300330033006600330099003300CC003300FF003300003333003333
310
33006633330099333300CC333300FF33330000663300336633006666330099663300CC663300FF66330000993300339933006699330099993300CC993300FF99330000CC330033CC330066CC330099CC3300CCCC3300FFCC330000FF330033FF330066FF330099FF3300CCFF3300FFFF330000006600330066006600660099
310
006600CC006600FF00660000336600333366006633660099336600CC336600FF33660000666600336666006666660099666600CC666600FF66660000996600339966006699660099996600CC996600FF99660000CC660033CC660066CC660099CC6600CCCC6600FFCC660000FF660033FF660066FF660099FF6600CCFF6600
310
FFFF660000009900330099006600990099009900CC009900FF00990000339900333399006633990099339900CC339900FF33990000669900336699006666990099669900CC669900FF66990000999900339999006699990099999900CC999900FF99990000CC990033CC990066CC990099CC9900CCCC9900FFCC990000FF99
310
0033FF990066FF990099FF9900CCFF9900FFFF99000000CC003300CC006600CC009900CC00CC00CC00FF00CC000033CC003333CC006633CC009933CC00CC33CC00FF33CC000066CC003366CC006666CC009966CC00CC66CC00FF66CC000099CC003399CC006699CC009999CC00CC99CC00FF99CC0000CCCC0033CCCC0066CC
310
CC0099CCCC00CCCCCC00FFCCCC0000FFCC0033FFCC0066FFCC0099FFCC00CCFFCC00FFFFCC000000FF003300FF006600FF009900FF00CC00FF00FF00FF000033FF003333FF006633FF009933FF00CC33FF00FF33FF000066FF003366FF006666FF009966FF00CC66FF00FF66FF000099FF003399FF006699FF009999FF00CC
310
99FF00FF99FF0000CCFF0033CCFF0066CCFF0099CCFF00CCCCFF00FFCCFF0000FFFF0033FFFF0066FFFF0099FFFF00CCFFFF00FFFFFF00000000000D0D0D001A1A1A00282828003535350043434300505050005D5D5D006B6B6B00787878008686860093939300A1A1A100AEAEAE00BBBBBB00C9C9C900D6D6D600E4E4E400
310
F1F1F100FFFFFF0000000000000000000000000000000000000000000000000000000000000000000000000000000000EFEFEFE2E2E2E2E2E2E2E2E2E2E2E2E2E2E2E2E2E2E2E2E2E2E2E2E2E2E2E2E2E2E2E2E2E2E2E2E2E2E2E2E2E2E2E2E2E2E2E2E2E2E2E2E2E2E2E2E2E2E2E2E2E2E2E2E2E2E2E2E2E2E2E2E2E2E2E2
310
E2E2E2E2E2E2E2E2E2E2E2E2E2E2E2E2E2E2E2E2E2E2E2E2E2E2E2E2E2E2E2E2E2E2E2E2E2E2E2E2E2E2E2E2E2E2E2E2E2E2E2E2E2E2E2E2E2E2E2E2E2E2E2E2E2E2E2E2E2E2E2E2E2E2E2E2E2E2E2E2E2E2E2E2E2E2E2E2E2E2E2E2E2E2E2E2E2E2E2E2E2E2E2E2E2E2E2E2E2E2E2E2E2E2E2E2E2E2E2E2E2E2E2E2E2E2E2
310
E2E2E2E2E2E2E2E2E2E2E2E2E2E2E2E2E2E2E2E2E2E2E2E2E2E2E2E2E2E2E2E2E2E2E2E2E2E2E2E2E2E2E2E2E2E2E2E2E2E2E2E2E2E2E2E2E2E2E2E2E2E2E2E2E2E2E2E2E2E2E2E2E2E2E2E2E2E2E2E2E2E2E2E2E2E2E2E2E2E2E2E2E2E2E2E2E2E2E2E2E2E2E2E2E2E2E2E2E2E2E2E2E2E2E2E2E2E2E2E2E2E2E2E2E2E2E2
310
E2E2E2E2E2E2E2E2E2E2E2E2E2E2E2E2E2E2E2E2E2E2E2E2E2E2E2E2F5F5F5F5F5F5F5F5F5F5F5F5F5F5F5F5F5F5F5F5F5F5F5F5F5F5F5F5F5F5F5F5F5F5F5F5F5F5F5F5F5F5F5F5F5F5F5F5F5F5F5F5F5F5F5F5F5F5F5F5F5F5F5F5F5F5F5F5F5F5F5F5F5F5F5F5F5F5F5F5F5F5F5F5F5F5F5F5F5F5F5F5F5F5F5F5F5F5F5
310
F5F5F5F5F5F5F5F5F5F5F5F5F5F5F5F5F5F5F5F5F5F5F5F5F5F5F5F5F5F5F5F5F5F5F5F5F5F5F5F5F5F5F5F5F5F5F5F5F5F5F5F5F5F5F5F5F5F5F5F5F5F5F5F5F5F5F5F5F5F5F5F5F5F5F5F5F5F5F5E2E2F5F5F5F5F5F5F5F5F5F5F5F5F5F5F5F5F5F5F5F5F5F5F5F5F5F5F5F5F5F5F5F5F5F5F5F5F5F5F5F5F5F5F5F5F5F5
310
F5F5F5F5F5F5F5F5F5F5F5F5F5F5F5F5F5F5F5F5F5F5F5F5F5F5F5F5F5F5F5F5F5F5F5F5F5F5F5F5F5F5F5F5F5F5F5F5F5F5F5F5F5F5F5F5F5F5F5F5F5F5F5F5F5F5F5F5F5F5F5F5F5F5F5F5F5F5F5F5F5F5F5F5F5F5F5F5F5F5F5F5F5F5F5F5F5F5F5F5F5F5F5F5F5F5F5F5F5F5F5F5F5F5F5F5F5F5F5F5F5F5F5F5F5F5F5
310
F5F5F5F5F5E2E2F5F5F5F5F5F5F5F5F5F5F5F5F5F5F5F5F5F5F5F5F5F5F5F5F5F5F5F5F5F5F5F5F5F5F5F5F5F5F5F5F5F5F5F5F5F5F5F5F5F5F5F5F5F5F5F5F5F5F5F5F5F5F5F5F5F5F5F5F5F5F5F5F5F5F5F5F5F5F5F5F5F5F5F5F5F5F5F5F5F5F5F5F5F5F5F5F5F5F5F5F5F5F5F5F5F5F5F5F5F5F5F5F5F5F5F5F5F5F5F5
310
F5F5F5F5F5F5F5F5F5F5F5F5F5F5F5F5F5F5F5F5F5F5F5F5F5F5F5F5F5F5F5F5F5F5F5F5F5F5F5F5F5F5F5F5F5F5F5F5F5F5F5F5F5F5F5F5F5F5E2E2F5F5F5F5E2E2E2E2E2E2E2E2F5F5F5F5F5F5F5F5F5E2E2E2E2E2E2E2E2E2E2E2E2E2E2E2F5F5F5F5F5F5F5F5F5E2E2E2E2E2E2E2E2E2E2E2E2E2E2E2E2F5F5F5F5F5F5
310
F5F5E2E2E2E2E2E2E2E2E2E2E2E2E2E2E2E2F5F5F5F5F5F5F5F5E2E2E2E2E2E2E2E2E2E2E2E2E2E2E2E2F5F5F5F5F5F5F5F5E2E2E2E2E2E2E2E2E2E2E2E2E2E2E2E2F5F5F5F5F5F5F5F5F5E2E2E2E2E2E2E2E2E2E2E2E2E2E2E2F5F5F5F5F5F5F5F5F5E2E2E2E2E2E2E2E2F5F5F5F5E2E2F5F5F5F5E2F5F5F5F5F5F5F5F5F5
310
F5F5F5F5F5F5F5F5F5F5F5F5F5F5F5F5F5F5F5F5F5F5F5F5F5F5F5F5F5F5F5F5F5F5F5F5F5F5F5F5F5F5F5F5F5F5F5F5F5F5F5F5F5F5F5F5F5F5F5F5F5F5F5F5F5F5F5F5F5F5F5F5F5F5F5F5F5F5F5F5F5F5F5F5F5F5F5F5F5F5F5F5F5F5F5F5F5F5F5F5F5F5F5F5F5F5F5F5F5F5F5F5F5F5F5F5F5F5F5F5F5F5F5F5F5F5F5
310
F5F5F5F5F5F5F5F5F5F5F5F5F5F5F5F5F5F5F5F5F5F5F5F5F5F5F5F5F5F5F5F5E2F5F5F5F5E2E2F5F5F5F5E2F5F5F5F5F5F5F5F5F5F5F5F5F5F5F5F5F5F5F5F5F5F5F5F5F5F5F5F5F5F5F5F5F5F5F5F5F5F5F5F5F5F5F5F5F5F5F5F5F5F5F5F5F5F5F5F5F5F5F5F5F5F5F5F5F5F5F5F5F5F5F5F5F5F5F5F5F5F5F5F5F5F5F5
310
F5F5F5F5F5F5F5F5F5F5F5F5F5F5F5F5F5F5F5F5F5F5F5F5F5F5F5F5F5F5F5F5F5F5F5F5F5F5F5F5F5F5F5F5F5F5F5F5F5F5F5F5F5F5F5F5F5F5F5F5F5F5F5F5F5F5F5F5F5F5F5F5F5F5F5F5F5F5F5F5F5F5F5F5F5E2F5F5F5F5E2E2F5F5F5F5E2F5F5F5F5F5F5F5F5F5F5F5F5F5F5F5F5F5F5F5F5F5F5F5F5F5F5F5F5F5F5
310
F5F5F5F5F5F5F5F5F5F5F5F5F5F5F5F5F5F5F5F5F5F5F5F5F5F5F5F5F5F5F5F5F5F5F5F5F5F5F5F5F5F5F5F5F5F5F5F5F5F5F5F5F5F5F5F5F5F5F5F5F5F5F5F5F5F5F5F5F5F5F5F5F5F5F5F5F5F5F5F5F5F5F5F5F5F5F5F5F5F5F5F5F5F5F5F5F5F5F5F5F5F5F5F5F5F5F5F5F5F5F5F5F5F5F5F5F5F5F5F5F5F5F5F5F5F5F5
310
F5F5F5F5F5F5F5F5F5F5F5E2F5F5F5F5E2E2F5F5F5F5E2F5F5F5F5F5F5F5F5F5F5F5F5F5F5F5F5F5F5F5F5F5F5F5F5F5F5F5F5F5F5F5F5F5F5F5F5F5F5F5F5F5F5F5F5F5F5F5F5F5F5F5F5F5F5F5F5F5F5F5F5F5F5F5F5F5F5F5F5F5F5F5F5F5F5F5F5F5F5F5F5F5F5F5F5F5F5F5F5F5F5F5F5F5F5F5F5F5F5F5F5F5F5F5F5
310
F5F5F5F5F5F5F5F5F5F5F5F5F5F5F5F5F5F5F5F5F5F5F5F5F5F5F5F5F5F5F5F5F5F5F5F5F5F5F5F5F5F5F5F5F5F5F5F5F5F5F5F5F5F5F5F5F5F5F5F5F5F5F5F5E2F5F5F5F5E2E2F5F5F5F5E2F5F5F5F5F5F5F5F5F5F5F5F5F5F5F5F5F5F5F5F5F5F5F5F5F5F5F5F5F5F5F5F5F5F5F5F5F5F5F5F5F5F5F5F5F5F5F5F5F5F5F5
310
F5F5F5F5F5F5F5F5F5F5F5F5F5F5F5F5F5F5F5F5F5F5F5F5F5F5F5F5F5F5F5F5F5F5F5F5F5F5F5F5F5F5F5F5F5F5F5F5F5F5F5F5F5F5F5F5F5F5F5F5F5F5F5F5F5F5F5F5F5F5F5F5F5F5F5F5F5F5F5F5F5F5F5F5F5F5F5F5F5F5F5F5F5F5F5F5F5F5F5F5F5F5F5F5F5F5F5F5F5F5F5F5F5F5F5F5F5E2F5F5F5F5E2E2F5F5F5
310
F5E2F5F5F5F5F5F5F5F5F5F5F5F5F5F5F5F5F5F5F5F5F5F5F5F5F5F5F5F5F5F5F5F5F5F5F5F5F5F5F5F5F5F5F5F5F5F5F5F5F5F5F5F5F5F5F5F5F5F5F5F5F5F5F5F5F5F5F5F5F5F5F5F5F5F5F5F5F5F5F5F5F5F5F5F5F5F5F5F5F5F5F5F5F5F5F5F5F5F5F5F5F5F5F5F5F5F5F5F5F5F5F5F5F5F5F5F5F5F5F5F5F5F5F5F5F5
310
F5F5F5F5F5F5F5F5F5F5F5F5F5F5F5F5F5F5F5F5F5F5F5F5F5F5F5F5F5F5F5F5F5F5F5F5F5F5F5F5F5F5F5E2F5F5F5F5E2E2F5F5F5F5E2F5F5F5F5F5F5F5F5F5F5F5F5F5F5F5F5F5F5F5F5F5F5F5F5F5F5F5F5F5F5F5F5F5F5F5F5F5F5F5F5F5F5F5F5F5F5F5F5F5F5F5F5F5F5F5F5F5F5F5F5F5F5F5F5F5F5F5F5F5F5F5F5
310
F5F5F5F5F5F5F5F5F5F5F5F5F5F5F5F5F5F5F5F5F5F5F5F5F5F5F5F5F5F5F5F5F5F5F5F5F5F5F5F5F5F5F5F5F5F5F5F5F5F5F5F5F5F5F5F5F5F5F5F5F5F5F5F5F5F5F5F5F5F5F5F5F5F5F5F5F5F5F5F5F5F5F5F5F5F5F5F5F5F5F5F5F5F5F5F5E2F5F5F5F5E2E2F5F5F5F5E2F5F5F5F5F5F5F5F5F5F5F5F5F5F5F5F5F5F5F5
310
F5F5F5F5F5F5F5F5F5F5F5F5F5F5F5F5F5F5F5F5F5F5F5F5F5F5F5F5F5F5F5F5F5F5F5F5F5F5F5F5F5F5F5F5F5F5F5F5F5F5F5F5F5F5F5F5F5F5F5F5F5F5F5F5F5F5F5F5F5F5F5F5F5F5F5F5F5F5F5F5F5F5F5F5F5F5F5F5F5F5F5F5F5F5F5F5F5F5F5F5F5F5F5F5F5F5F5F5F5F5F5F5F5F5F5F5F5F5F5F5F5F5F5F5F5F5F5
310
F5F5F5F5F5F5F5F5F5F5F5F5F5F5F5F5F5F5F5F5F5F5E2F5F5F5F5E2E2F5F5F5F5F5F5F5F5F5F5F5F5F5F5F5F5F5F5F5F5F5F5F5F5F5F5F5F5F5F5F5F5F5F5F5F5F5F5F5F5F5F5F5F5F5F5F5F5F5F5F5F5F5F5F5F5F5F5F5F5F5F5F5F5F5F5F5F5F5F5F5F5F5F5F5F5F5F5F5F5F5F5F5F5F5F5F5F5F5F5F5F5F5F5F5F5F5F5
310
F5F5F5F5F5F5F5F5F5F5F5F5F5F5F5F5F5F5F5F5F5F5F5F5F5F5F5F5F5F5F5F5F5F5F5F5F5F5F5F5F5F5F5F5F5F5F5F5F5F5F5F5F5F5F5F5F5F5F5F5F5F5F5F5F5F5F5F5F5F5F5F5F5F5F5F5F5F5F5F5E2E2F5F5F5F5F5F5F5F5F5F5F5F5F5F5F5F5F5F5F5F5F5F5F5F5F5F5F5F5F5F5F5F5F5F5F5F5F5F5F5F5F5F5F5F5F5
310
F5F5F5F5F5F5F5F5F5F5F5F5F5F5F5F5F5F5F5F5F5F5F5F5F5F5F5F5F5F5F5F5F5F5F5F5F5F5F5F5F5F5F5F5F5F5F5F5F5F5F5F5F5F5F5F5F5F5F5F5F5F5F5F5F5F5F5F5F5F5F5F5F5F5F5F5F5F5F5F5F5F5F5F5F5F5F5F5F5F5F5F5F5F5F5F5F5F5F5F5F5F5F5F5F5F5F5F5F5F5F5F5F5F5F5F5F5F5F5F5F5F5F5F5F5F5F5
310
F5F5F5F5F5F5E2E2F5F5F5F5F5F5F5F5F5F5F5F5F5F5F5F5F5F5F5F5F5F5F5F5F5F5F5F5F5F5F5F5F5F5F5F5F5F5F5F5F5F5F5F5F5F5F5F5F5F5F5F5F5F5F5F5F5F5F5F5F5F5F5F5F5F5F5F5F5F5F5F5F5F5F5F5F5F5F5F5F5F5F5F5F5F5F5F5F5F5F5F5F5F5F5F5F5F5F5F5F5F5F5F5F5F5F5F5F5F5F5F5F5F5F5F5F5F5F5
310
F5F5F5F5F5F5F5F5F5F5F5F5F5F5F5F5F5F5F5F5F5F5F5F5F5F5F5F5F5F5F5F5F5F5F5F5F5F5F5F5F5F5F5F5F5F5F5F5F5F5F5F5F5F5F5F5F5F5F5E2E2F5F5F5F5F5F5F5F5F5F5F5F5F5F5F5F5F5F5F5F5F5F5F5F5F5F5F5F5F5F5F5F5F5F5F5F5F5F5F5F5F5F5F5F5F5F5F5F5F5F5F5F5F5F5F5F5F5F5F5F5F5F5F5F5F5F5
310
F5F5F5F5F5F5F5F5F5F5F5F5F5F5F5F5F5F5F5F5F5F5F5F5F5F5F5F5F5F5F5F5F5F5F5F5F5F5F5F5F5F5F5F5F5F5F5F5F5F5F5F5F5F5F5F5F5F5F5F5F5F5F5F5F5F5F5F5F5F5F5F5F5F5F5F5F5F5F5F5F5F5F5F5F5F5F5F5F5F5F5F5F5F5F5F5F5F5F5F5F5F5F5F5F5F5F5F5F5F5F5F5E2E2F5F5F5F5F5F5F5F5F5F5F5F5F5
310
F5F5F5F5F5F5F5F5E2E2E2E2E2E2E2E2E2E2E2E2E2E2E2E2E2E2E2E2E2E2E2E2E2E2E2E2E2E2E2E2E2E2E2E2E2E2E2E2E2E2E2E2E2E2E2E2E2E2E2E2E2E2E2E2E2E2E2E2E2E2E2E2E2E2E2E2E2E2E2E2E2E2E2E2E2E2E2E2E2E2E2E2E2E2E2E2E2E2E2E2E2E2E2E2E2E2E2E2E2E2E2E2E2E2E2E2E2E2E2E2E2E2E2E2E2E2E2
310
E2E2E2E2E2E2E2E2E2E2E2E2E2E2E2E2E2F5F5F5F5F5F5F5F5F5F5F5F5F5F5F5F5F5F5F5F5F5E2E2F5F5F5F5F5F5F5F5F5F5F5F5F5F5F5F5F5F5F5F5F5E22D2D2D2DF5F5F5F5E2F5F5F5F5F5F5F52DF5F5F5F5F5F5F5F5F5F5F5F5F5F5F5F5F5F5E2F5F5F5F5F5F5F5F5F5F5F5F5F5F5F5F5F5F5F5F5F5F5F5F5F5F5F5F5F5
310
F5F5F5F5F5F5F5F5F5F5F5F5F5F5F5F5F5F5F5F5F5F5F5F5F5F5F5F5F5F5F5F5F5F5F5F5F5F5F5F5F5F5F5F5F5F5F5F5F5F5F5F5F5F5F5F5F5F5F5F5F5F5F5F5F5F5F5F5F5E2F5F5F5F5F5F5F5F5F5F5F5F5F5F5F5F5F5F5F5F5F5E2E2F5F5F5F5F5F5F5F5F5F5F5F5F5F5F5F5F5F5F5F5F5E2DCF5F52DF5F5F5F5E2F5F5F5
310
F5F5F5F52DF5F5F5F5F5F5F5F5F5F5F5F5F5F5F5F5F5F5E2F5F5F5F5F5F5F5F5F5F5F5F5F5F5F5F5F5F5F5F5F5F5F5F5F5F5F5F5F5F5F5F5F5F5F5F5F5F5F5F5F5F5F5F5F5F5F5F5F5F5F5F5F5F5F5F5F5F5F5F5F5F5F5F5F5F5F5F5F5F5F5F5F5F5F5F5F5F5F5F5F5F5F5F5F5F5F5F5F5F5F5F5F5F5F5F5F5F5E2F5F5F5F5
310
F5F5F5F5F5F5F5F5F5F5F5F5F5F5F5F5F5E2E2F5F5F5F5F5F5F5F5F5F5F5F5F5F5F5F5F5F5F5F5F5E2DCF5F52DF5F5F5F5E2F5F5F5F5F5F5F52DF5F5F5F5F5F5F5F5F5F5F5F5F5F5F5F5F5F5E2E2F5F5F5F5F5F5F5F5F5F5F5F5F5F5F5F5F5F5F5F5F5F5F5F5F5F5F5F5F5F5F5F5F5F5F5F5F5F5F5F5F5F5F5F5F5F5F5F5F5
310
F5F5F5F5F5F5F5F5F5F5F5F5F5F5F5F5F5F5F5F5F5F5F5F5F5F5F5F5F5F5F5F5F5F5F5F5F5F5F5F5F5F5F5F5F5F5F5F5E2F5F5F5F5F5F5F5F5F5F5F5F5F5F5F5F5F5F5F5F5F5E2E2F5F5F5F5F5F5F5F5F5F5F5F5F5F5F5F5F5F5F5F5F5E2BEF5F52D2D2D2D2D2D2D2D2D2D2D2D2D2DE2E2E2E2E2E2E2E2E2E2E2E2E2E2E2E2
310
E2E2E2E2F5F5F5F5F5F5F5F5F5F5F5F5F5F5F5F5F5F5F5F5F5F5F5F5F5F5F5F5F5F5F5F5F5F5F5F5F5F5F5F5F5F5F5F5F5F5F5F5F5F5F5F5F5F5F5F5F5F5F5F5F5F5F5F5F5F5F5F5F5F5F5F5F5F5F5F5F5F5F5F5F5F5F5F5F5F5F5F5F5F5F5F5F5F5F5F5F5E2F5F5F5F5F5F5F5F5F5F5F5F5F5F5F5F5F5F5F5F5F5E2E2F5F5
310
F5F5E2F5F5F5F5F5F5F5F5F5F5F5F5F5F5F5F5E2DCF5F5F5F5F5F5F5E2F5F5F5F5F5F5F5E2F5F5F5F5F5F5F5F5F5F5F5F5F5F5F5F5F5F5F5F5F5F5F5F5F5F5F5F5F5F5F5F5F5F5F5F5F5F5F5F5F5F5F5F5F5F5F5F5F5F5F5F5F5F5F5F5F5F5F5F5F5F5F5F5F5F5F5F5F5F5F5F5F5F5F5F5F5F5F5F5F5F5F5F5F5F5F5F5F5F5
310
F5F5F5F5F5F5F5F5F5F5F5F5F5F5F5F5F5F5F5F5F5F5F5F5F5F5F5E2F5F5F5F5F5F5F5F5F5F5F5F5F5F5F5F5E2F5F5F5F5E2E2F5F5F5F5E2F5F5F5F5F5F5F5F5F5F5F5F5F5F5F5F5E2F5F5F5F5F5F5F5F5E2F5F5F5F5F5F5F5E2F5F5F5F5F5F5F5F5F5F5F5F5F5F5F5F5F5F5F5F5F5F5F5F5F5F5F5F5F5F5F5F5F5F5F5F5F5
310
F5F5F5F5F5F5F5F5F5F5F5F5F5F5F5F5F5F5F5F5F5F5F5F5F5F5F5F5F5F5F5F5F5F5F5F5F5F5F5F5F5F5F5F5F5F5F5F5F5F5F5F5F5F5F5F5F5F5F5F5F5F5F5F5F5F5F5F5F5F5F5F5F5F5F5F5F5F5F5F5E2F5F5F5F5F5F5F5F5F5F5F5F5F5F5F5F5E2F5F5F5F5E2E2F5F5F5F5E2F5F5F5F5F5F5F5F5F5F5F5F5F5F5F5F5E2E2
310
E2E2E2E2E2E2E2E2F5F5F5F5F5F5F5E2F5F5F5F5F5F5F5F5F5F5F5F5F5F5F5F5F5F5F5F5F5F5F5F5F5F5F5F5F5F5F5F5F5F5F5F5F5F5F5F5F5F5F5F5F5F5F5F5F5F5F5F5F5F5F5F5F5F5F5F5F5F5F5F5F5F5F5F5F5F5F5F5F5F5F5F5F5F5F5F5F5F5F5F5F5F5F5F5F5F5F5F5F5F5F5F5F5F5F5F5F5F5F5F5F5F5F5F5F5F5F5
310
F5F5F5F5F5F5E2F5F5F5F5F5F5F5F5F5F5F5F5F5F5F5F5E2F5F5F5F5E2E2F5F5F5F5E2F5F5F5F5F5F5F5F5F5F5F5F5F5F5F5F5E2E2E2E2F5F5F5F5F5F5F5F5F5F5F5F5F5E2F5F5F5F5F5F5F5F5F5F5F5F5F5F5F5F5F5F5F5F5F5F5F5F5F5F5F5F5F5F5F5F5F5F5F5F5F5F5F5F5F5F5F5F5F5F5F5F5F5F5F5F5F5F5F5F5F5F5
310
F5F5F5F5F5F5F5F5F5F5F5F5F5F5F5F5F5F5F5F5F5F5F5F5F5F5F5F5F5F5F5F5F5F5F5F5F5F5F5F5F5F5F5F5F5F5F5F5F5F5F5F5F5F5F5F5F5F5F5E2F5F5F5F5F5F5F5F5F5F5F5F5F5F5F5F5E2F5F5F5F5E2E2F5F5F5F5E2F5F5F5F5F5F5F5F5F5F5F5F5F5F5F5F5E2E2E2E2F5F5F5F5F5F5F5F5F5F5F5F5F5E2F5F5F5F5F5
310
F5F5F5F5F5F5F5F5F5F5F5F5F5F5F5F5F5F5F5F5F5F5F5F5F5F5F5F5F5F5F5F5F5F5F5F5F5F5F5F5F5F5F5F5F5F5F5F5F5F5F5F5F5F5F5F5F5F5F5F5F5F5F5F5F5F5F5F5F5F5F5F5F5F5F5F5F5F5F5F5F5F5F5F5F5F5F5F5F5F5F5F5F5F5F5F5F5F5F5F5F5F5F5F5F5F5F5F5F5F5F5F5E2F5F5F5F5F5F5F5F5F5F5F5F5F5F5
310
F5F5E2F5F5F5F5E2E2F5F5F5F5E2F5F5F5F5F5F5F5F5F5F5F5F5F5F5F5F5E2F5F5F5F5F5F5F5F5F5F5F5F5F5F5F5F5E2F5F5F5F5F5F5F5F5F5F5F5F5F5F5F5F5F5F5F5F5F5F5F5F5F5F5F5F5F5F5F5F5F5F5F5F5F5F5F5F5F5F5F5F5F5F5F5F5F5F5F5F5F5F5F5F5F5F5F5F5F5F5F5F5F5F5F5F5F5F5F5F5F5F5F5F5F5F5F5
310
F5F5F5F5F5F5F5F5F5F5F5F5F5F5F5F5F5F5F5F5F5F5F5F5F5F5F5F5F5F5F5F5F5F5F5F5F5F5E2F5F5F5F5F5F5F5F5F5F5F5F5F5F5F5F5E2F5F5F5F5E2E2F5F5F5F5E2F5F5F5F5F5F5F5F5F5F5F5F5F5F5F5F5E2E2E2E2E2E2E2E2E2E2E2E2E2E2E2E2E2E2F5F5F5F5F5F5F5F5F5F5F5F5F5F5F5F5F5F5F5F5F5F5F5F5F5F5
310
F5F5F5F5F5F5F5F5F5F5F5F5F5F5F5F5F5F5F5F5F5F5F5F5F5F5F5F5F5F5F5F5F5F5F5F5F5F5F5F5F5F5F5F5F5F5F5F5F5F5F5F5F5F5F5F5F5F5F5F5F5F5F5F5F5F5F5F5F5F5F5F5F5F5F5F5F5F5F5F5F5F5F5F5F5F5F5F5F5F5F5E2F5F5F5F5F5F5F5F5F5F5F5F5F5F5F5F5E2F5F5F5F5E2E2F5F5F5F5E2F5F5F5F5F5F5F5
310
F5F5F5F5F5F5F5F5F5E2E2E2F5F5F5F5F5F5F5F5F5F5F5F5F5F5F5F5F5F5F5F5F5F5F5F5F5F5F5F5F5F5F5F5F5F5F5F5F5F5F5F5F5F5F5F5F5F5F5F5F5F5F5F5F5F5F5F5F5F5F5F5F5F5F5F5F5F5F5F5F5F5F5F5F5F5F5F5F5F5F5F5F5F5F5F5F5F5F5F5F5F5F5F5F5F5F5F5F5F5F5F5F5F5F5F5F5F5F5F5F5F5F5F5F5F5F5
310
F5F5F5F5F5F5F5F5F5F5F5F5F5F5F5F5F5E2F5F5F5F5F5F5F5F5F5F5F5F5F5F5F5F5E2F5F5F5F5E2E2F5F5F5F5E2F5F5F5F5F5F5F5F5F5F5F5F5F5F5F5F5E2E2E2F5F5F5F5F5F5F5F5F5F5F5F5F5F5F5F5F5F5F5F5F5F5F5F5F5F5F5F5F5F5F5F5F5F5F5F5F5F5F5F5F5F5F5F5F5F5F5F5F5F5F5F5F5F5F5F5F5F5F5F5F5F5
310
F5F5F5F5F5F5F5F5F5F5F5F5F5F5F5F5F5F5F5F5F5F5F5F5F5F5F5F5F5F5F5F5F5F5F5F5F5F5F5F5F5F5F5F5F5F5F5F5F5F5F5F5F5F5F5F5F5F5F5F5F5F5F5F5F5F5F5F5F5F5E2F5F5F5F5F5F5F5F5F5F5F5F5F5F5F5F5E2F5F5F5F5E2E2F5F5F5F5E2F5F5F5F5F5F5F5F5F5F5F5F5F5F5F5F5E2F5F5F5F5F5F5F5F5F5F5F5
310
F5F5F5F5F5F5F5F5F5F5F5F5F5F5F5F5F5F5F5F5F5F5F5F5F5F5F5F5F5F5F5F5F5F5F5F5F5F5F5F5F5F5F5F5F5F5F5F5F5F5F5F5F5F5F5F5F5F5F5F5F5F5F5F5F5F5F5F5F5F5F5F5F5F5F5F5F5F5F5F5F5F5F5F5F5F5F5F5F5F5F5F5F5F5F5F5F5F5F5F5F5F5F5F5F5F5F5F5F5F5F5F5F5F5F5F5F5F5F5F5F5F5F5E2F5F5F5
310
F5F5F5F5F5F5F5F5F5F5F5F5F5E2F5F5F5F5E2E2F5F5F5F5E2F5F5F5F5F5F5F5F5F5F5F5F5F5F5F5F5E20F0F0F0F0F0F0F0F0F0F0FF5F5F5F5F5F5F5F5F5F5F5F5F5F5F5F5F5F5F5F5F5F5F5F5F5F5F5F5F5F5F5F5F5F5F5F5F5F5F5F5F5F5F5F5F5F5F5F5F5F5F5F5F5F5F5F5F5F5F5F5F5F5F5F5F5F5F5F5F5F5F5F5F5F5
310
F5F5F5F5F5F5F5F5F5F5F5F5F5F5F5F5F5F5F5F5F5F5F5F5F5F5F5F5F5F5F5F5F5F5F5F5F5F5F5F5F5F5F5F5F5F5F5F5F5E2F5F5F5F5F5F5F5F5F5F5F5F5F5F5F5F5E2F5F5F5F5E2E2F5F5F5F5E2F5F5F5F5F5F5F5F5F5F5F5F5F5F5F5F5E20F0F0F0F0F0F0F0F0F0FF5F5F5F5F5F5F5F5F5F5F5F5F5F5F5F5F5F5F5F5F5F5
310
F5F5F5F5F5F5F5F5F5F5F5F5F5F5F5F5F5F5F5F5F5F5F5F5F5F5F5F5F5F5F5F5F5F5F5F5F5F5F5F5F5F5F5F5F5F5F5F5F5F5F5F5F5F5F5F5F5F5F5F5F5F5F5F5F5F5F5F5F5F5F5F5F5F5F5F5F5F5F5F5F5F5F5F5F5F5F5F5F5F5F5F5F5F5F5F5F5F5F5F5F5F5E2F5F5F5F5F5F5F5F5F5F5F5F5F5F5F5F5E2F5F5F5F5E2E2F5
310
F5F5F5E2F5F5F5F5F5F5F5F5F5F5F5F5F5F5F5F5E2F5F5F5F5F5F5F5F5F5F5F5F5F5F5F5F5F5F5F5F5F5F5F5F5F5F5F5F5F5F5F5F5F5F5F5F5F5F5F5F5F5F5F5F5F5F5F5F5F5F5F5F5F5F5F5F5F5F5F5F5F5F5F5F5F5F5F5F5F5F5F5F5F5F5F5F5F5F5F5F5F5F5F5F5F5F5F5F5F5F5F5F5F5F5F5F5F5F5F5F5F5F5F5F5F5F5
310
F5F5F5F5F5F5F5F5F5F5F5F5F5F5F5F5F5F5F5F5F5F5F5F5F5F5F5F5E2F5F5F5F5F5F5F5F5F5F5F5F5F5F5F5F5E2F5F5F5F5E2E2F5F5F5F5E2F5F5F5F5F5F5F5F5F5F5F5F5F5F5F5F5E2F5F5F5F5F5F5F5F5F5F5F5F5F5F5F5F5F5F5F5F5F5F5F5F5F5F5F5F5F5F5F5F5F5F5F5F5F5F5F5F5F5F5F5F5F5F5F5F5F5F5F5F5F5
310
F5F5F5F5F5F5F5F5F5F5F5F5F5F5F5F5F5F5F5F5F5F5F5F5F5F5F5F5F5F5F5F5F5F5F5F5F5F5F5F5F5F5F5F5F5F5F5F5F5F5F5F5F5F5F5F5F5F5F5F5F5F5F5F5F5F5F5F5F5F5F5F5F5F5F5F5F5F5F5F5F5E2F5F5F5F5F5F5F5F5F5F5F5F5F5F5F5F5E2F5F5F5F5E2E2F5F5F5F5E2F5F5F5F5F5F5F5F5F5F5F5F5F5F5F5F5E2
310
F5F5F5F5F5F5F5F5F5F5F5F5F5F5F5F5F5F5F5F5F5F5F5F5F5F5F5F5F5F5F5F5F5F5F5F5F5F5F5F5F5F5F5F5F5F5F5F5F5F5F5F5F5F5F5F5F5F5F5F5F5F5F5F5F5F5F5F5F5F5F5F5F5F5F5F5F5F5F5F5F5F5F5F5F5F5F5F5F5F5F5F5F5F5F5F5F5F5F5F5F5F5F5F5F5F5F5F5F5F5F5F5F5F5F5F5F5F5F5F5F5F5F5F5F5F5F5
310
F5F5F5F5F5F5F5E2F5F5F5F5F5F5F5F5F5F5F5F5F5F5F5F5E2F5F5F5F5E2E2F5F5F5F5E2F5F5F5F5F5F5F5F5F5F5F5F5F5F5F5F5E2F5F5F5F5F5F5F5F5F5F5F5F5F5F5F5F5F5F5F5F5F5F5F5F5F5F5F5F5F5F5F5F5F5F5F5F5F5F5F5F5F5F5F5F5F5F5F5F5F5F5F5F5F5F5F5F5F5F5F5F5F5F5F5F5F5F5F5F5F5F5F5F5F5F5
310
F5F5F5F5F5F5F5F5F5F5F5F5F5F5F5F5F5F5F5F5F5F5F5F5F5F5F5F5F5F5F5F5F5F5F5F5F5F5F5F5F5F5F5F5F5F5F5F5F5F5F5F5F5F5F5F5F5F5F5F5E2F5F5F5F5F5F5F5F5F5F5F5F5F5F5F5F5E2F5F5F5F5E2E2F5F5F5F5F5F5F5F5F5F5F5F5F5F5F5F5F5F5F5F5F5E2F5F5F5F5F5F5F5F5F5F5F5F5F5F5F5F5F5F5F5F5F5
310
F5F5F5F5F5F5F5F5F5F5F5F5F5F5F5F5F5F5F5F5F5F5F5F5F5F5F5F5F5F5F5F5F5F5F5F5F5F5F5F5F5F5F5F5F5F5F5F5F5F5F5F5F5F5F5F5F5F5F5F5F5F5F5F5F5F5F5F5F5F5F5F5F5F5F5F5F5F5F5F5F5F5F5F5F5F5F5F5F5F5F5F5F5F5F5F5F5F5F5F5F5F5F5F5F5F5F5F5F5F5F5F5F5E2F5F5F5F5F5F5F5F5F5F5F5F5F5
310
F5F5F5F5F5F5F5F5E2E2F5F5F5F5F5F5F5F5F5F5F5F5F5F5F5F5F5F5F5F5F5E2F5F5F5F5F5F5F5F5F5F5F5F5F5F5F5F5F5F5F5F5F5F5F5F5F5F5F5F5F5F5F5F5F5F5F5F5F5F5F5F5F5F5F5F5F5F5F5F5F5F5F5F5F5F5F5F5F5F5F5F5F5F5F5F5F5F5F5F5F5F5F5F5F5F5F5F5F5F5F5F5F5F5F5F5F5F5F5F5F5F5F5F5F5F5F5
310
F5F5F5F5F5F5F5F5F5F5F5F5F5F5F5F5F5F5F5F5F5F5F5F5F5F5F5F5F5F5F5F5F5F5F5F5F5F5F5E2F5F5F5F5F5F5F5F5F5F5F5F5F5F5F5F5F5F5F5F5F5E2E2F5F5F5F5F5F5F5F5F5F5F5F5F5F5F5F5F5F5F5F5F5E2F5F5F5F5F5F5F5F5F5F5F5F5F5F5F5F5F5F5F5F5F5F5F5F5F5F5F5F5F5F5F5F5F5F5F5F5F5F5F5F5F5F5
310
F5F5F5F5F5F5F5F5F5F5F5F5F5F5F5F5F5F5F5F5F5F5F5F5F5F5F5F5F5F5F5F5F5F5F5F5F5F5F5F5F5F5F5F5F5F5F5F5F5F5F5F5F5F5F5F5F5F5F5F5F5F5F5F5F5F5F5F5F5F5F5F5F5F5F5F5F5F5F5F5F5F5F5F5F5F5F5F5F5F5F5F5E2F5F5F5F5F5F5F5F5F5F5F5F5F5F5F5F5F5F5F5F5F5E2E2F5F5F5F5F5F5F5F5F5F5F5
310
F5F5F5F5F5F5F5F5F5F5E2F5F5F5F5F5F5F5F5F5F5F5F5F5F5F5F5F5F5F5F5F5F5F5F5F5F5F5F5F5F5F5F5F5F5F5F5F5F5F5F5F5F5F5F5F5F5F5F5F5F5F5F5F5F5F5F5F5F5F5F5F5F5F5F5F5F5F5F5F5F5F5F5F5F5F5F5F5F5F5F5F5F5F5F5F5F5F5F5F5F5F5F5F5F5F5F5F5F5F5F5F5F5F5F5F5F5F5F5F5F5F5F5F5F5F5F5
310
F5F5F5F5F5F5F5F5F5F5F5F5F5F5F5F5F5F5E2F5F5F5F5F5F5F5F5F5F5F5F5F5F5F5F5F5F5F5F5F5E2E2F5F5F5F5F5F5F5F5F5F5F5F5F5F5F5F5F5F5F5F5F5E2F5F5F5F5F5F5F5F5F5F5F5F5F5F5F5F5F5F5F5F5F5F5F5F5F5F5F5F5F5F5F5F5F5F5F5F5F5F5F5F5F5F5F5F5F5F5F5F5F5F5F5F5F5F5F5F5F5F5F5F5F5F5F5
310
F5F5F5F5F5F5F5F5F5F5F5F5F5F5F5F5F5F5F5F5F5F5F5F5F5F5F5F5F5F5F5F5F5F5F5F5F5F5F5F5F5F5F5F5F5F5F5F5F5F5F5F5F5F5F5F5F5F5F5F5F5F5F5F5F5F5F5F5F5F5F5E2F5F5F5F5F5F5F5F5F5F5F5F5F5F5F5F5F5F5F5F5F5E2E2F5F5F5F5F5F5F5F5F5F5F5F5F5F5F5F5F5F5F5F5F5E2F5F5F5F5F5F5F5F5F5F5
310
F5F5F5F5F5F5F5F5F5F5F5F5F5F5F5F5F5F5F5F5F5F5F5F5F5F5F5F5F5F5F5F5F5F5F5F5F5F5F5F5F5F5F5F5F5F5F5F5F5F5F5F5F5F5F5F5F5F5F5F5F5F5F5F5F5F5F5F5F5F5F5F5F5F5F5F5F5F5F5F5F5F5F5F5F5F5F5F5F5F5F5F5F5F5F5F5F5F5F5F5F5F5F5F5F5F5F5F5F5F5F5F5F5F5F5F5F5F5F5F5F5F5F5F5E2F5F5
310
F5F5F5F5F5F5F5F5F5F5F5F5F5F5F5F5F5F5F5E2E2F5F5F5F5F5F5F5F5F5F5F5F5F5F5F5F5F5F5F5F5F5E2F5F5F5F5F5F5F5F5F5F5F5F5F5F5F5F5F5F5F5F5F5F5F5F5F5F5F5F5F5F5F5F5F5F5F5F5F5F5F5F5F5F5F5F5F5F5F5F5F5F5F5F5F5F5F5F5F5F5F5F5F5F5F5F5F5F5F5F5F5F5F5F5F5F5F5F5F5F5F5F5F5F5F5F5
310
F5F5F5F5F5F5F5F5F5F5F5F5F5F5F5F5F5F5F5F5F5F5F5F5F5F5F5F5F5F5F5F5F5F5F5F5F5F5F5F5F5F5F5F5F5F5F5F5F5F5E2F5F5F5F5F5F5F5F5F5F5F5F5F5F5F5F5F5F5F5F5F5E2E2F5F5F5F5F5F5F5F5F5F5F5F5F5F5F5F5F5F5F5F5F5E2F5F5F5F5F5F5F5F5F5F5F5F5F5F5F5F5F5F5F5F5F5F5F5F5F5F5F5F5F5F5F5
310
F5F5F5F5F5F5F5F5F5F5F5F5F5F5F5F5F5F5F5F5F5F5F5F5F5F5F5F5F5F5F5F5F5F5F5F5F5F5F5F5F5F5F5F5F5F5F5F5F5F5F5F5F5F5F5F5F5F5F5F5F5F5F5F5F5F5F5F5F5F5F5F5F5F5F5F5F5F5F5F5F5F5F5F5F5F5F5F5F5F5F5F5F5F5F5F5F5F5F5F5F5F5F5E2F5F5F5F5F5F5F5F5F5F5F5F5F5F5F5F5F5F5F5F5F5E2E2
310
F5F5F5F5F5F5F5F5F5F5F5F5F5F5F5F5F5F5F5F5F5E2F5F5F5F5F5F5F5F5F5F5F5F5F5F5F5F5F5F5F5F5F5F5F5F5F5F5F5F5F5F5F5F5F5F5F5F5F5F5F5F5F5F5F5F5F5F5F5F5F5F5F5F5F5F5F5F5F5F5F5F5F5F5F5F5F5F5F5F5F5F5F5F5F5F5F5F5F5F5F5F5F5F5F5F5F5F5F5F5F5F5F5F5F5F5F5F5F5F5F5F5F5F5F5F5F5
310
F5F5F5F5F5F5F5F5F5F5F5F5F5F5F5F5F5F5F5F5F5F5F5F5F5F5F5F5F5E2F5F5F5F5F5F5F5F5F5F5F5F5F5F5F5F5F5F5F5F5F5E2E2F5F5F5F5F5F5F5F5F5F5F5F5F5F5F5F5F5F5F5F5F5E2F5F5F5F5F5F5F5F5F5F5F5F5F5F5F5F5F5F5F5F5F5F5F5F5F5F5F5F5F5F5F5F5F5F5F5F5F5F5F5F5F5F5F5F5F5F5F5F5F5F5F5F5
310
F5F5F5F5F5F5F5F5F5F5F5F5F5F5F5F5F5F5F5F5F5F5F5F5F5F5F5F5F5F5F5F5F5F5F5F5F5F5F5F5F5F5F5F5F5F5F5F5F5F5F5F5F5F5F5F5F5F5F5F5F5F5F5F5F5F5F5F5F5F5F5F5F5F5F5F5F5F5F5F5F5F5E2F5F5F5F5F5F5F5F5F5F5F5F5F5F5F5F5F5F5F5F5F5E2E2F5F5F5F5E2F5F5F5F5F5F5F5F5F5F5F5F5F5F5F5F5
310
E2F5F5F5F5F5F5F5F5F5F5F5F5F5F5F5F5F5F5F5F5F5F5F5F5F5F5F5F5F5F5F5F5F5F5F5F5F5F5F5F5F5F5F5F5F5F5F5F5F5F5F5F5F5F5F5F5F5F5F5F5F5F5F5F5F5F5F5F5F5F5F5F5F5F5F5F5F5F5F5F5F5F5F5F5F5F5F5F5F5F5F5F5F5F5F5F5F5F5F5F5F5F5F5F5F5F5F5F5F5F5F5F5F5F5F5F5F5F5F5F5F5F5F5F5F5F5
310
F5F5F5F5F5F5F5F5E2F5F5F5F5F5F5F5F5F5F5F5F5F5F5F5F5E2F5F5F5F5E2E2F5F5F5F5E2F5F5F5F5F5F5F5F5F5F5F5F5F5F5F5F5E2F5F5F5F5F5F5F5F5F5F5F5F5F5F5F5F5F5F5F5F5F5F5F5F5F5F5F5F5F5F5F5F5F5F5F5F5F5F5F5F5F5F5F5F5F5F5F5F5F5F5F5F5F5F5F5F5F5F5F5F5F5F5F5F5F5F5F5F5F5F5F5F5F5
310
F5F5F5F5F5F5F5F5F5F5F5F5F5F5F5F5F5F5F5F5F5F5F5F5F5F5F5F5F5F5F5F5F5F5F5F5F5F5F5F5F5F5F5F5F5F5F5F5F5F5F5F5F5F5F5F5F5F5F5F5F5E2F5F5F5F5F5F5F5F5F5F5F5F5F5F5F5F5E2F5F5F5F5E2E2F5F5F5F5E2F5F5F5F5F5F5F5F5F5F5F5F5F5F5F5F5E2F5F5F5F5F5F5F5F5F5F5F5F5F5F5F5F5F5F5F5F5
310
F5F5F5F5F5F5F5F5F5F5F5F5F5F5F5F5F5F5F5F5F5F5F5F5F5F5F5F5F5F5F5F5F5F5F5F5F5F5F5F5F5F5F5F5F5F5F5F5F5F5F5F5F5F5F5F5F5F5F5F5F5F5F5F5F5F5F5F5F5F5F5F5F5F5F5F5F5F5F5F5F5F5F5F5F5F5F5F5F5F5F5F5F5F5F5F5F5F5F5F5F5F5F5F5F5F5F5F5F5F5F5F5F5F5E2F5F5F5F5F5F5F5F5F5F5F5F5
310
F5F5F5F5E2F5F5F5F5E2E2F5F5F5F5E2F5F5F5F5F5F5F5F5F5F5F5F5F5F5F5F5E2F5F5F5F5F5F5F5F5F5F5F5F5F5F5F5F5F5F5F5F5F5F5F5F5F5F5F5F5F5F5F5F5F5F5F5F5F5F5F5F5F5F5F5F5F5F5F5F5F5F5F5F5F5F5F5F5F5F5F5F5F5F5F5F5F5F5F5F5F5F5F5F5F5F5F5F5F5F5F5F5F5F5F5F5F5F5F5F5F5F5F5F5F5F5
310
F5F5F5F5F5F5F5F5F5F5F5F5F5F5F5F5F5F5F5F5F5F5F5F5F5F5F5F5F5F5F5F5F5F5F5F5F5F5F5F5E2F5F5F5F5F5F5F5F5F5F5F5F5F5F5F5F5E2F5F5F5F5E2E2F5F5F5F5E2F5F5F5F5F5F5F5F5F5F5F5F5F5F5F5F5E2F5F5F5F5F5F5F5F5F5F5F5F5F5F5F5F5F5F5F5F5F5F5F5F5F5F5F5F5F5F5F5F5F5F5F5F5F5F5F5F5F5
310
F5F5F5F5F5F5F5F5F5F5F5F5F5F5F5F5F5F5F5F5F5F5F5F5F5F5F5F5F5F5F5F5F5F5F5F5F5F5F5F5F5F5F5F5F5F5F5F5F5F5F5F5F5F5F5F5F5F5F5F5F5F5F5F5F5F5F5F5F5F5F5F5F5F5F5F5F5F5F5F5F5F5F5F5F5F5F5F5F5F5F5F5F5E2F5F5F5F5F5F5F5F5F5F5F5F5F5F5F5F5E2F5F5F5F5E2E2F5F5F5F5E2F5F5F5F5F5
310
F5F5F5F5F5F5F5F5F5F5F5E2F5F5F5F5F5F5F5F5F5F5F5F5F5F5F5F5F5F5F5F5F5F5F5F5F5F5F5F5F5F5F5F5F5F5F5F5F5F5F5F5F5F5F5F5F5F5F5F5F5F5F5F5F5F5F5F5F5F5F5F5F5F5F5F5F5F5F5F5F5F5F5F5F5F5F5F5F5F5F5F5F5F5F5F5F5F5F5F5F5F5F5F5F5F5F5F5F5F5F5F5F5F5F5F5F5F5F5F5F5F5F5F5F5F5F5
310
F5F5F5F5F5F5F5F5F5F5F5F5F5F5F5F5F5F5F5E2F5F5F5F5F5F5F5F5F5F5F5F5F5F5F5F5E2F5F5F5F5E2E2F5F5F5F5E2F5F5F5F5F5F5F5F5F5F5F5F5F5F5F5F5E2F5F5F5F5F5F5F5F5F5F5F5F5F5F5F5F5F5F5F5F5F5F5F5F5F5F5F5F5F5F5F5F5F5F5F5F5F5F5F5F5F5F5F5F5F5F5F5F5F5F5F5F5F5F5F5F5F5F5F5F5F5F5
310
F5F5F5F5F5F5F5F5F5F5F5F5F5F5F5F5F5F5F5F5F5F5F5F5F5F5F5F5F5F5F5F5F5F5F5F5F5F5F5F5F5F5F5F5F5F5F5F5F5F5F5F5F5F5F5F5F5F5F5F5F5F5F5F5F5F5F5F5F5F5F5F5E2F5F5F5F5F5F5F5F5F5F5F5F5F5F5F5F5E2F5F5F5F5E2E2F5F5F5F5E2F5F5F5F5F5F5F5F5F5F5F5F5F5F5F5F5E2F5F5F5F5F5F5F5F5F5
310
F5F5F5F5F5F5F5F5F5F5F5F5F5F5F5F5F5F5F5F5F5F5F5F5F5F5F5F5F5F5F5F5F5F5F5F5F5F5F5F5F5F5F5F5F5F5F5F5F5F5F5F5F5F5F5F5F5F5F5F5F5F5F5F5F5F5F5F5F5F5F5F5F5F5F5F5F5F5F5F5F5F5F5F5F5F5F5F5F5F5F5F5F5F5F5F5F5F5F5F5F5F5F5F5F5F5F5F5F5F5F5F5F5F5F5F5F5F5F5F5F5F5F5F5F5E2F5
310
F5F5F5F5F5F5F5F5F5F5F5F5F5F5F5E2F5F5F5F5E2E2F5F5F5F5E2F5F5F5F5F5F5F5F5F5F5F5F5F5F5F5F5E2F5F5F5F5F5F5F5F5F5F5F5F5F5F5F5F5F5F5F5F5F5F5F5F5F5F5F5F5F5F5F5F5F5F5F5F5F5F5F5F5F5F5F5F5F5F5F5F5F5F5F5F5F5F5F5F5F5F5F5F5F5F5F5F5F5F5F5F5F5F5F5F5F5F5F5F5F5F5F5F5F5F5F5
310
F5F5F5F5F5F5F5F5F5F5F5F5F5F5F5F5F5F5F5F5F5F5F5F5F5F5F5F5F5F5F5F5F5F5F5F5F5F5F5F5F5F5F5F5F5F5F5F5F5F5F5E2F5F5F5F5F5F5F5F5F5F5F5F5F5F5F5F5E2F5F5F5F5E2E2F5F5F5F5E2F5F5F5F5F5F5F5F5F5F5F5F5F5F5F5F5E2F5F5F5F5F5F5F5F5F5F5F5F5F5F5F5F5F5F5F5F5F5F5F5F5F5F5F5F5F5F5
310
F5F5F5F5F5F5F5F5F5F5F5F5F5F5F5F5F5F5F5F5F5F5F5F5F5F5F5F5F5F5F5F5F5F5F5F5F5F5F5F5F5F5F5F5F5F5F5F5F5F5F5F5F5F5F5F5F5F5F5F5F5F5F5F5F5F5F5F5F5F5F5F5F5F5F5F5F5F5F5F5F5F5F5F5F5F5F5F5F5F5F5F5F5F5F5F5F5F5F5F5F5F5F5F5E2F5F5F5F5F5F5F5F5F5F5F5F5F5F5F5F5E2F5F5F5F5E2
310
E2F5F5F5F5E2F5F5F5F5F5F5F5F5F5F5F5F5F5F5F5F5E2F5F5F5F5F5F5F5F5F5F5F5F5F5F5F5F5F5F5F5F5F5F5F5F5F5F5F5F5F5F5F5F5F5F5F5F5F5F5F5F5F5F5F5F5F5F5F5F5F5F5F5F5F5F5F5F5F5F5F5F5F5F5F5F5F5F5F5F5F5F5F5F5F5F5F5F5F5F5F5F5F5F5F5F5F5F5F5F5F5F5F5F5F5F5F5F5F5F5F5F5F5F5F5F5
310
F5F5F5F5F5F5F5F5F5F5F5F5F5F5F5F5F5F5F5F5F5F5F5F5F5F5F5F5F5F5E2F5F5F5F5F5F5F5F5F5F5F5F5F5F5F5F5E2F5F5F5F5E2E2F5F5F5F5E2F5F5F5F5F5F5F5F5F5F5F5F5F5F5F5F5E2F5F5F5F5F5F5F5F5F5F5F5F5F5F5F5F5F5F5F5F5F5F5F5F5F5F5F5F5F5F5F5F5F5F5F5F5F5F5F5F5F5F5F5F5F5F5F5F5F5F5F5
310
F5F5F5F5F5F5F5F5F5F5F5F5F5F5F5F5F5F5F5F5F5F5F5F5F5F5F5F5F5F5F5F5F5F5F5F5F5F5F5F5F5F5F5F5F5F5F5F5F5F5F5F5F5F5F5F5F5F5F5F5F5F5F5F5F5F5F5F5F5F5F5F5F5F5F5F5F5F5F5F5F5F5F5E2F5F5F5F5F5F5F5F5F5F5F5F5F5F5F5F5E2F5F5F5F5E2E2F5F5F5F5E2F5F5F5F5F5F5F5F5F5F5F5F5F5F5F5
310
F5E2F5F5F5F5F5F5F5F5F5F5F5F5F5F5F5F5F5F5F5F5F5F5F5F5F5F5F5F5F5F5F5F5F5F5F5F5F5F5F5F5F5F5F5F5F5F5F5F5F5F5F5F5F5F5F5F5F5F5F5F5F5F5F5F5F5F5F5F5F5F5F5F5F5F5F5F5F5F5F5F5F5F5F5F5F5F5F5F5F5F5F5F5F5F5F5F5F5F5F5F5F5F5F5F5F5F5F5F5F5F5F5F5F5F5F5F5F5F5F5F5F5F5F5F5F5
310
F5F5F5F5F5F5F5F5F5E2F5F5F5F5F5F5F5F5F5F5F5F5F5F5F5F5E2F5F5F5F5E2E2F5F5F5F5E2F5F5F5F5F5F5F5F5F5F5F5F5F5F5F5F5E2F5F5F5F5F5F5F5F5F5F5F5F5F5F5F5F5F5F5F5F5F5F5F5F5F5F5F5F5F5F5F5F5F5F5F5F5F5F5F5F5F5F5F5F5F5F5F5F5F5F5F5F5F5F5F5F5F5F5F5F5F5F5F5F5F5F5F5F5F5F5F5F5
310
F5F5F5F5F5F5F5F5F5F5F5F5F5F5F5F5F5F5F5F5F5F5F5F5F5F5F5F5F5F5F5F5F5F5F5F5F5F5F5F5F5F5F5F5F5F5F5F5F5F5F5F5F5F5F5F5F5F5F5F5F5F5E2F5F5F5F5F5F5F5F5F5F5F5F5F5F5F5F5E2F5F5F5F5E2E2F5F5F5F5E2F5F5F5F5F5F5F5F5F5F5F5F5F5F5F5F5E2F5F5F5F5F5F5F5F5F5F5F5F5F5F5F5F5F5F5F5
310
F5F5F5F5F5F5F5F5F5F5F5F5F5F5F5F5F5F5F5F5F5F5F5F5F5F5F5F5F5F5F5F5F5F5F5F5F5F5F5F5F5F5F5F5F5F5F5F5F5F5F5F5F5F5F5F5F5F5F5F5F5F5F5F5F5F5F5F5F5F5F5F5F5F5F5F5F5F5F5F5F5F5F5F5F5F5F5F5F5F5F5F5F5F5F5F5F5F5F5F5F5F5F5F5F5F5F5F5F5F5F5F5F5F5F5E2F5F5F5F5F5F5F5F5F5F5F5
310
F5F5F5F5F5E2F5F5F5F5E2E2F5F5F5F5E2F5F5F5F5F5F5F5F5F5F5F5F5F5F5F5F5E2F5F5F5F5F5F5F5F5F5F5F5F5F5F5F5F5F5F5F5F5F5F5F5F5F5F5F5F5F5F5F5F5F5F5F5F5F5F5F5F5F5F5F5F5F5F5F5F5F5F5F5F5F5F5F5F5F5F5F5F5F5F5F5F5F5F5F5F5F5F5F5F5F5F5F5F5F5F5F5F5F5F5F5F5F5F5F5F5F5F5F5F5F5
310
F5F5F5F5F5F5F5F5F5F5F5F5F5F5F5F5F5F5F5F5F5F5F5F5F5F5F5F5F5F5F5F5F5F5F5F5F5F5F5F5F5E2F5F5F5F5F5F5F5F5F5F5F5F5F5F5F5F5E2F5F5F5F5E2E2F5F5F5F5F5F5F5F5F5F5F5F5F5F5F5F5F5F5F5F5F5E2F5F5F5F5F5F5F5F5F5F5F5F5F5F5F5F5F5F5F5F5F5F5F5F5F5F5F5F5F5F5F5F5F5F5F5F5F5F5F5F5
310
F5F5F5F5F5F5F5F5F5F5F5F5F5F5F5F5F5F5F5F5F5F5F5F5F5F5F5F5F5F5F5F5F5F5F5F5F5F5F5F5F5F5F5F5F5F5F5F5F5F5F5F5F5F5F5F5F5F5F5F5F5F5F5F5F5F5F5F5F5F5F5F5F5F5F5F5F5F5F5F5F5F5F5F5F5F5F5F5F5F5F5F5F5F5E2F5F5F5F5F5F5F5F5F5F5F5F5F5F5F5F5F5F5F5F5F5E2E2F5F5F5F5F5F5F5F5F5
310
F5F5F5F5F5F5F5F5F5F5F5F5E2F5F5F5F5F5F5F5F5F5F5F5F5F5F5F5F5F5F5F5F5F5F5F5F5F5F5F5F5F5F5F5F5F5F5F5F5F5F5F5F5F5F5F5F5F5F5F5F5F5F5F5F5F5F5F5F5F5F5F5F5F5F5F5F5F5F5F5F5F5F5F5F5F5F5F5F5F5F5F5F5F5F5F5F5F5F5F5F5F5F5F5F5F5F5F5F5F5F5F5F5F5F5F5F5F5F5F5F5F5F5F5F5F5F5
310
F5F5F5F5F5F5F5F5F5F5F5F5F5F5F5F5F5F5F5F5E2F5F5F5F5F5F5F5F5F5F5F5F5F5F5F5F5F5F5F5F5F5E2E2F5F5F5F5F5F5F5F5F5F5F5F5F5F5F5F5F5F5F5F5F5E2F5F5F5F5F5F5F5F5F5F5F5F5F5F5F5F5F5F5F5F5F5F5F5F5F5F5F5F5F5F5F5F5F5F5F5F5F5F5F5F5F5F5F5F5F5F5F5F5F5F5F5F5F5F5F5F5F5F5F5F5F5
310
F5F5F5F5F5F5F5F5F5F5F5F5F5F5F5F5F5F5F5F5F5F5F5F5F5F5F5F5F5F5F5F5F5F5F5F5F5F5F5F5F5F5F5F5F5F5F5F5F5F5F5F5F5F5F5F5F5F5F5F5F5F5F5F5F5F5F5F5F5F5F5F5F5E2F5F5F5F5F5F5F5F5F5F5F5F5F5F5F5F5F5F5F5F5F5E2E2F5F5F5F5F5F5F5F5F5F5F5F5F5F5F5F5F5F5F5F5F5E2F5F5F5F5F5F5F5F5
310
F5F5F5F5F5F5F5F5F5F5F5F5F5F5F5F5F5F5F5F5F5F5F5F5F5F5F5F5F5F5F5F5F5F5F5F5F5F5F5F5F5F5F5F5F5F5F5F5F5F5F5F5F5F5F5F5F5F5F5F5F5F5F5F5F5F5F5F5F5F5F5F5F5F5F5F5F5F5F5F5F5F5F5F5F5F5F5F5F5F5F5F5F5F5F5F5F5F5DCF5F5F5F5F5F5F5F5F5F5F5F5F5F5F5F5F5F5F5F5F5F5F5F5F5F5F5E2
310
F5F5F5F5F5F5F5F5F5F5F5F5F5F5F5F5F5F5F5F5F5E2E2F5F5F5F5F5F5F5F5F5F5F5F5F5F5F5F5F5F5F5F5F5E2F5F5F5F5F5F5F5F5F5F5F5F5F5F5F5F5F5F5F5F5F5F5F5F5F5F5F5F5F5F5F5F5F5F5F5F5F5F5F5F5F5F5F5F5F5F5F5F5F5F5F5F5F5F5F5F5F5F5F5F5F5F5F5F5F5F5F5F5F5F5F5F5F5F5F5F5F5F5F5F5F5E2
310
ECE2E2E2E2E2E2E2E2E2E2E2E2E2E2E2E2E2E2E2E2E2E2E2DCE2E2E2E2E2E2E2E2E2E2E2E2E2E2E2E2E2E2E2E2E2E2E2ECE2F5F5E2F5F5F5F5F5F5F5F5F5F5F5F5F5F5F5F5F5F5F5F5F5E2E2F5F5F5F5F5F5F5F5F5F5F5F5F5F5F5F5F5F5F5F5F5E2F5F5F5F5F5F5F5F5F5F5F5F5F5F5F5F5F5F5F5F5F5F5F5F5F5F5F5F5F5
310
F5F5F5F5F5F5F5F5F5F5F5F5F5F5F5F5F5F5F5F5F5F5F5F5F5F5F5F5F5F5F5F5F5F5F5F5F5F5F5F5F5F5F5F5F5F5F5F5F5F5F5E2F5F5ECF5F5F5F5F5F5F5F5F5F5F5F5F5F5F5F5F5F5F5F5F5F5DCF5F5F5F5F5F5F5F5F5F5F5F5F5F5F5F5F5F5F5F5F5F5ECF5F5E2F5E2F5F5F5F5F5F5F5F5F5F5F5F5F5F5F5F5F5F5F5F5F5
310
E2E2F5F5F5F5F5F5F5F5F5F5F5F5F5F5F5F5F5F5F5F5F5E2F5F5F5F5F5F5F5F5F5F5F5F5F5F5F5F5F5F5F5F5F5F5F5F5F5F5F5F5F5F5F5F5F5F5F5F5F5F5F5F5F5F5F5F5F5F5F5F5F5F5F5F5F5F5F5F5F5F5F5F5F5F5F5F5F5F5F5F5F5F5F5F5F5F5F5F5F5F5F5E2F5F5F5F5ECF5F5F5F5F5F5F5F5F5F5F5F5F5F5F5F5F5F5
310
F5F5F5DCF5F5F5F5F5F5F5F5F5F5F5F5F5F5F5F5F5F5F5F5F5ECF5F5F5F5E2E2F5F5F5F5F5F5F5F5F5F5F5F5F5F5F5F5F5F5F5F5F5E2E2F5F5F5F5F5F5F5F5F5F5F5F5F5F5F5F5F5F5F5F5F5E2F5F5F5F5F5F5F5F5F5F5F5F5F5F5F5F5F5F5F5F5F5F5F5F5F5F5F5F5F5F5F5F5F5F5F5F5F5F5F5F5F5F5F5F5F5F5F5F5F5F5
310
F5F5F5F5F5F5F5F5F5F5F5F5F5F5F5F5F5F5F5F5F5F5F5F5F5F5F5F5E2E2E2E2E2E2ECE2E2E2E2E2E2E2E2E2ECECECECECECE2ECECECECECDCECECECECECE2ECECECECECECE2E2E2E2E2E2E2E2ECE2E2E2E2E2E2E2F5F5F5F5F5F5F5F5F5F5F5F5F5F5F5F5F5F5F5F5F5E2E2F5F5F5F5F5F5F5F5F5F5F5F5F5F5F5F5F5F5F5
310
F5F5E2F5F5F5F5F5F5F5F5F5F5F5F5F5F5F5F5F5F5F5F5F5F5F5F5F5F5F5F5F5F5F5F5F5F5F5F5F5F5F5F5F5F5F5F5F5F5F5F5F5F5F5F5F5F5F5F5F5F5F5F5F5F5F5F5F5F5F5F5F5F5F5F5F5F5F5F5F5F5E2F5F5F5F5F5F5F5F5F5F5F5F5F5F5F5ECF5F5F5F5F5F5F5F5F5F5F5DCF5F5F5F5F5F5F5F5F5F5ECF5F5F5F5F5F5
310
F5F5F5F5F5F5F5F5F5E2E2F5F5F5F5F5F5F5F5F5F5F5F5F5F5F5F5F5F5F5F5F5E2E2F5F5F5F5E2F5F5F5F5F5F5F5F5F5F5F5F5F5F5F5F5E2F5F5F5F5F5F5F5F5F5F5F5F5F5F5F5F5F5F5F5F5F5F5F5F5F5F5F5F5F5F5F5F5F5F5F5F5F5F5F5F5F5F5F5F5F5F5F5F5F5F5F5F5F5F5F5F5F5F5F5F5F5F5F5F5F5F5F5F5F5F5F5
310
F5F5F5F5F5F5F5E2F5F5F5F5F5F5F5F5F5F5F5F5F5F5F5ECECECECECECECECECECECECECECECECECECECECECECECECF5F5F5F5F5F5F5F5F5F5F5F5F5F5F5E2E2F5F5F5F5F5F5F5F5F5F5F5F5F5F5F5F5E2F5F5F5F5E2E2F5F5F5F5E2F5F5F5F5F5F5F5F5F5F5F5F5F5F5F5F5E2F5F5F5F5F5F5F5F5F5F5F5F5F5F5F5F5F5F5
310
F5F5F5F5F5F5F5F5F5F5F5F5F5F5F5F5F5F5F5F5F5F5F5F5F5F5F5F5F5F5F5F5F5F5F5F5F5F5F5F5F5F5F5F5F5F5F5F5F5F5F5F5F5F5F5F5F5F5F5F5F5E2F5F5F5F5F5F5F5F5F5F5F5F5F5F5F5F5F5F5F5ECF5F5F5F5F5F5DCF5F5F5F5F5ECF5F5F5F5F5F5F5F5F5F5F5F5F5F5F5F5F5F5F5F5E2E2F5F5F5F5F5F5F5F5F5F5
310
F5F5F5F5F5F5E2F5F5F5F5E2E2F5F5F5F5E2F5F5F5F5F5F5F5F5F5F5F5F5F5F5F5F5E2F5F5F5F5F5F5F5F5F5F5F5F5F5F5F5F5F5F5F5F5F5F5F5F5F5F5F5F5F5F5F5F5F5F5F5F5F5F5F5F5F5F5F5F5F5F5F5F5F5F5F5F5F5F5F5F5F5F5F5F5F5F5F5F5F5F5F5F5F5F5F5F5F5F5F5F5F5F5F5F5E2F5F5F5F5F5F5F5F5F5F5F5
310
F5F5F5F5F5ECECECECECECF5ECECECECECF5ECECECECECF5F5F5F5F5F5F5F5F5F5F5F5F5F5F5F5F5E2F5E2F5F5F5F5F5F5F5F5F5F5F5F5F5F5F5F5E2F5F5F5F5E2E2F5F5F5F5E2F5F5F5F5F5F5F5F5F5F5F5F5F5F5F5F5E2F5F5F5F5F5F5F5F5F5F5F5F5F5F5F5F5F5F5F5F5F5F5F5F5F5F5F5F5F5F5F5F5F5F5F5F5F5F5F5
310
F5F5F5F5F5F5F5F5F5F5F5F5F5F5F5F5F5F5F5F5F5F5F5F5F5F5F5F5F5F5F5F5F5F5F5F5F5F5F5F5F5F5E2E2F5F5F5F5F5F5F5F5F5F5F5F5F5F5ECF5F5F5F5F5F5F5F5DCF5F5F5F5F5F5F5ECF5F5F5F5F5F5F5F5F5F5F5F5F5F5F5E2E2F5F5E2F5F5F5F5F5F5F5F5F5F5F5F5F5F5F5F5E2F5F5F5F5E2E2F5F5F5F5E2F5F5F5
310
F5F5F5F5F5F5F5F5F5F5F5F5F5E2F5F5F5F5F5F5F5F5F5F5F5F5F5F5F5F5F5F5F5F5F5F5F5F5F5F5F5F5F5F5F5F5F5F5F5F5F5F5F5F5F5F5F5F5F5F5F5F5F5F5F5F5F5F5F5F5F5F5F5F5F5F5F5F5F5F5F5F5F5F5F5F5F5F5F5F5F5F5F5F5F5F5F5E2F5F5F5F5F5F5F5F5F5F5F5F5F5ECF5F5F5F5F5F5F5F5DCF5F5F5F5F5F5
310
F5ECF5F5F5F5F5F5F5F5F5F5F5F5F5E2E2F5F5F5F5E2F5F5F5F5F5F5F5F5F5F5F5F5F5F5F5F5E2F5F5F5F5E2E2F5F5F5F5E2F5F5F5F5F5F5F5F5F5F5F5F5F5F5F5F5E2F5F5F5F5F5F5F5F5F5F5F5F5F5F5F5F5F5F5F5F5F5F5F5F5F5F5F5F5F5F5F5F5F5F5F5F5F5F5F5F5F5F5F5F5F5F5F5F5F5F5F5F5F5F5F5F5F5F5F5F5
310
F5F5F5F5F5F5F5F5F5F5F5F5F5F5F5F5F5F5F5F5F5F5F5F5E2E2F5F5F5F5F5F5F5F5F5F5F5ECF5F5F5F5F5F5F5F5DCF5F5F5F5F5F5F5ECF5F5F5F5F5F5F5F5F5F5F5F5E2F5F5F5F5F5F5E2F5F5F5F5F5F5F5F5F5F5F5F5F5F5F5F5E2F5F5F5F5E2E2F5F5F5F5E2F5F5F5F5F5F5F5F5F5F5F5F5F5F5F5F5E2F5F5F5F5F5F5F5
310
F5F5F5F5F5F5F5F5F5F5F5F5F5F5F5F5F5F5F5F5F5F5F5F5F5F5F5F5F5F5F5F5F5F5F5F5F5F5F5F5F5F5F5F5F5F5F5F5F5F5F5F5F5F5F5F5F5F5F5F5F5F5F5F5F5F5F5F5F5F5F5F5F5F5F5F5F5F5F5E2F5F5F5F5F5F5F5F5F5F5ECF5F5F5F5F5F5F5F5DCF5F5F5F5F5F5F5ECF5F5F5F5F5F5F5F5F5F5E2E2F5F5F5F5F5F5F5
310
E2F5F5F5F5F5F5F5F5F5F5F5F5F5F5F5F5E2F5F5F5F5E2E2F5F5F5F5E2F5F5F5F5F5F5F5F5F5F5F5F5F5F5F5F5E2F5F5F5F5F5F5F5F5F5F5F5F5F5F5F5F5F5F5F5F5F5F5F5F5F5F5F5F5F5F5F5F5F5F5F5F5F5F5F5F5F5F5F5F5F5F5F5F5F5F5F5F5F5F5F5F5F5F5F5F5F5F5F5F5F5F5F5F5F5F5F5F5F5F5F5F5F5F5F5F5F5
310
F5F5F5F5F5F5E2E2F5F5F5F5F5F5F5F5F5ECECECECECF5ECECECECECF5ECECECECECF5F5F5F5F5F5F5F5E2E2F5F5F5F5F5F5F5F5F5E2F5F5F5F5F5F5F5F5F5F5F5F5F5F5F5F5E2F5F5F5F5E2E2F5F5F5F5E2F5F5F5F5F5F5F5F5F5F5F5F5F5F5F5F5E2F5F5F5F5F5F5F5F5F5F5F5F5F5F5F5F5F5F5F5F5F5F5F5F5F5F5F5F5
310
F5F5F5F5F5F5F5F5F5F5F5F5F5F5F5F5F5F5F5F5F5F5F5F5F5F5F5F5F5F5F5F5F5F5F5F5F5F5F5F5F5F5F5F5F5F5F5F5F5F5F5F5F5F5F5F5F5F5F5F5F5E2E2F5F5F5F5F5F5F5ECF5F5F5F5F5F5F5DCF5F5F5F5F5F5F5ECF5F5F5F5F5F5F5E2F5F5F5F5F5F5F5F5F5F5F5E2F5F5F5F5F5F5F5F5F5F5F5F5F5F5F5F5E2F5F5F5
310
F5E2E2F5F5F5F5E2F5F5F5F5F5F5F5F5F5F5F5F5F5F5F5F5E2F5F5F5F5F5F5F5F5F5F5F5F5F5F5F5F5F5F5F5F5F5F5F5F5F5F5F5F5F5F5F5F5F5F5F5F5F5F5F5F5F5F5F5F5F5F5F5F5F5F5F5F5F5F5F5F5F5F5F5F5F5F5F5F5F5F5F5F5F5F5F5F5F5F5F5F5F5F5F5F5F5F5F5F5F5F5F5F5F5F5E2F5F5F5F5F5F5F5ECF5F5F5
310
F5F5F5F5DCF5F5F5F5F5F5F5ECF5F5F5F5F5F5F5E2F5F5F5F5F5F5F5F5F5F5F5E2F5F5F5F5F5F5F5F5F5F5F5F5F5F5F5F5E2F5F5F5F5E2E2F5F5F5F5E2F5F5F5F5F5F5F5F5F5F5F5F5F5F5F5F5E2F5F5F5F5F5F5F5F5F5F5F5F5F5F5F5F5F5F5F5F5F5F5F5F5F5F5F5F5F5F5F5F5F5F5F5F5F5F5F5F5F5F5F5F5F5F5F5F5F5
310
F5F5F5F5F5F5F5F5F5F5F5F5F5F5F5F5F5F5F5F5F5F5F5F5F5F5F5F5F5F5F5F5F5F5F5F5F5F5F5F5F5E2F5F5F5F5F5F5F5ECF5F5F5F5F5F5F5DCF5F5F5F5F5F5F5ECF5F5F5F5F5F5F5E2F5F5F5F5F5F5F5F5F5F5F5E2F5F5F5F5F5F5F5F5F5F5F5F5F5F5F5F5E2F5F5F5F5E2E2F5F5F5F5E2F5F5F5F5F5F5F5F5F5F5F5F5F5
310
F5F5F5E2F5F5F5F5F5F5F5F5F5F5F5F5F5F5F5F5F5F5F5F5F5F5F5F5F5F5F5F5F5F5F5F5F5F5F5F5F5F5F5F5F5F5F5F5F5F5F5F5F5F5F5F5F5F5F5F5F5F5F5F5F5F5F5F5F5F5F5F5F5F5F5F5F5F5F5F5F5F5F5F5F5F5F5F5F5F5F5F5F5F5E2F5F5F5F5F5F5F5ECF5F5F5F5E2E2E2E2E2E2E2F5F5F5F5ECF5F5F5F5F5F5F5E2
310
F5F5F5F5F5F5F5F5F5F5F5E2F5F5F5F5F5F5F5F5F5F5F5F5F5F5F5F5E2F5F5F5F5E2E2F5F5F5F5E2F5F5F5F5F5F5F5F5F5F5F5F5F5F5F5F5E2F5F5F5F5F5F5F5F5F5F5F5F5F5F5F5F5F5F5F5F5F5F5F5F5F5F5F5F5F5F5F5F5F5F5F5F5F5F5F5F5F5F5F5F5F5F5F5F5F5F5F5F5F5F5F5F5F5F5F5F5F5F5F5F5F5F5F5F5F5F5
310
F5F5F5F5F5F5F5F5F5F5F5F5F5F5F5F5F5F5F5F5E2F5F5F5F5F5F5F5ECECECECECECF5F5DCF5F5ECECECECECECF5F5F5F5F5F5F5E2F5F5F5F5F5F5F5F5F5F5F5E2F5F5F5F5F5F5F5F5F5F5F5F5F5F5F5F5E2F5F5F5F5E2E2F5F5F5F5E2F5F5F5F5F5F5F5F5F5F5F5F5F5F5F5F5E2F5F5F5F5F5F5F5F5F5F5F5F5F5F5F5F5F5
310
F5F5F5F5F5F5F5F5F5F5F5F5F5F5F5F5F5F5F5F5F5F5F5F5F5F5F5F5F5F5F5F5F5F5F5F5F5F5F5F5F5F5F5F5F5F5F5F5F5F5F5F5F5F5F5F5F5F5F5F5F5F5F5F5F5F5F5F5F5F5F5F5F5E2F5F5F5F5F5F5F5ECF5F5F5F5E2F5F5DCF5F5E2F5F5F5F5ECF5F5F5F5F5F5F5E2F5F5F5F5F5F5F5F5F5F5F5E2F5F5F5F5F5F5F5F5F5
310
F5F5F5F5F5F5F5E2F5F5F5F5E2E2F5F5F5F5E2F5F5F5F5F5F5F5F5F5F5F5F5F5F5F5F5E2F5F5F5F5F5F5F5F5F5F5F5F5F5F5F5F5F5F5F5F5F5F5F5F5F5F5F5F5F5F5F5F5F5F5F5F5F5F5F5F5F5F5F5F5F5F5F5F5F5F5F5F5F5F5F5F5F5F5F5F5F5F5F5F5F5F5F5F5F5F5F5F5F5F5F5F5F5F5F5F5F5F5F5F5F5F5F5F5F5F5E2
310
E2E2E2E2E2E2E2E2E2E2E2E2ECF5F5DCF5F5E2E2E2E2E2E2E2E2E2E2E2E2E2E2F5F5F5F5F5F5F5F5F5F5F5E2F5F5F5F5F5F5F5F5F5F5F5F5F5F5F5F5E2F5F5F5F5E2E2F5F5F5F5E2F5F5F5F5F5F5F5F5F5F5F5F5F5F5F5F5E2F5F5F5F5F5F5F5F5F5F5F5F5F5F5F5F5F5F5F5F5F5F5F5F5F5F5F5F5F5F5F5F5F5F5F5F5F5F5
310
F5F5F5F5F5F5F5F5F5F5F5F5F5F5F5F5F5F5F5F5F5F5F5F5F5F5F5F5F5F5F5F5F5F5F5F5F5F5F5F5F5F5F5F5F5F5F5F5F5F5F5F5F5F5F5F5F5F5F5F5F5F5F5F5F5F5F5F5DCF5F5F5F5F5F5F5F5F5F5F5F5F5F5F5F5F5F5F5F5F5F5F5F5F5F5F5E2F5F5F5F5F5F5F5F5F5F5F5F5F5F5F5F5E2F5F5F5F5E2E2F5F5F5F5F5F5F5
310
F5F5F5F5F5F5F5F5F5F5F5F5F5F5E2F5F5F5F5F5F5F5F5F5F5F5F5F5F5F5F5F5F5F5F5F5F5F5F5F5F5F5F5F5F5F5F5F5F5F5F5F5F5F5F5F5F5F5F5F5F5F5F5F5F5F5F5F5F5F5F5F5F5F5F5F5F5F5F5F5F5F5F5F5F5F5F5F5F5F5F5F5F5F5F5F5F5F5F5F5F5F5F5F5F5F5F5F5F5F5F5F5F5F5F5F5F5F5F5F5F5F5F5F5F5F5F5
310
F5F5F5F5F5F5F5F5F5F5F5F5F5F5F5F5F5F5F5F5F5F5E2F5F5F5F5F5F5F5F5F5F5F5F5F5F5F5F5F5F5F5F5F5E2E2F5F5F5F5F5F5F5F5F5F5F5F5F5F5F5F5F5F5F5F5F5E2F5F5F5F5F5F5F5F5F5F5F5F5F5F5F5F5F5F5F5F5F5F5F5F5F5F5F5F5F5F5F5F5F5F5F5F5F5F5F5F5F5F5F5F5F5F5F5F5F5F5F5F5F5F5F5F5F5F5F5
310
F5F5F5F5F5F5F5F5F5F5F5F5F5F5F5F5F5F5F5F5F5F5F5F5F5F5F5F5F5F5F5F5F5F5F5F5F5F5F5F5F5F5F5F5F5F5F5F5F5F5F5F5F5F5F5F5F5F5F5F5F5F5F5F5F5F5F5F5F5F5F5F5F5F5F5E2F5F5F5F5F5F5F5F5F5F5F5F5F5F5F5F5F5F5F5F5F5E2E2F5F5F5F5F5F5F5F5F5F5F5F5F5F5F5F5F5F5F5F5F5E2F5F5F5F5F5F5
310
F5F5F5F5F5F5F5F5F5F5F5F5F5F5F5F5F5F5F5F5F5F5F5F5F5F5F5F5F5F5F5F5F5F5F5F5F5F5F5F5F5F5F5F5F5F5F5F5F5F5F5F5F5F5F5F5F5F5F5F5F5F5F5F5F5F5F5F5F5F5F5F5F5F5F5F5F5F5F5F5F5F5F5F5F5F5F5F5F5F5F5F5F5F5F5F5F5F5F5F5F5F5F5F5F5F5F5F5F5F5F5F5F5F5F5F5F5F5F5F5F5F5F5F5F5F5F5
310
F5E2F5F5F5F5F5F5F5F5F5F5F5F5F5F5F5F5F5F5F5F5F5E2E2F5F5F5F5F5F5F5F5F5F5F5F5F5F5F5F5F5F5F5F5F5E2F5F5F5F5F5F5F5F5F5F5F5F5F5F5F5F5F5F5F5F5F5F5F5F5F5F5F5F5F5F5F5F5F5F5F5F5F5F5F5F5F5F5F5F5F5F5F5F5F5F5F5F5F5F5F5F5F5F5F5F5F5F5F5F5F5F5F5F5F5F5F5F5F5F5F5F5F5F5F5F5
310
F5F5F5F5F5F5F5F5F5F5F5F5F5F5F5F5F5F5F5F5F5F5F5F5F5F5F5F5F5F5F5F5F5F5F5F5F5F5F5F5F5F5F5F5F5F5F5F5F5F5F5F5F5F5E2F5F5F5F5F5F5F5F5F5F5F5F5F5F5F5F5F5F5F5F5F5E2E2F5F5F5F5F5F5F5F5F5F5F5F5F5F5F5F5F5F5F5F5F5E2F5F5F5F5F5F5F5F5F5F5F5F5F5F5F5F5F5F5F5F5F5F5F5F5F5F5F5
310
F5F5F5F5F5F5F5F5F5F5F5F5F5F5F5F5F5F5F5F5F5F5F5F5F5F5F5F5F5F5F5F5F5F5F5F5F5F5F5F5F5F5F5F5F5F5F5F5F5F5F5F5F5F5F5F5F5F5F5F5F5F5F5F5F5F5F5F5F5F5F5F5F5F5F5F5F5F5F5F5F5F5F5F5F5F5F5F5F5F5F5F5F5F5F5F5F5F5F5F5F5F5F5F5F5F5F5E2F5F5F5F5F5F5F5F5F5F5F5F5F5F5F5F5F5F5F5
310
F5F5E2E2F5F5F5F5F5F5F5F5F5F5F5F5F5F5F5F5F5F5F5F5F5E2F5F5F5F5F5F5F5F5F5F5F5F5F5F5F5F5F5F5F5F5F5F5F5F5F5F5F5F5F5F5F5F5F5F5F5F5F5F5F5F5F5F5F5F5F5F5F5F5F5F5F5F5F5F5F5F5F5F5F5F5F5F5F5F5F5F5F5F5F5F5F5F5F5F5F5F5F5F5F5F5F5F5F5F5F5F5F5F5F5F5F5F5F5F5F5F5F5F5F5F5F5
310
F5F5F5F5F5F5F5F5F5F5F5F5F5F5F5F5F5F5F5F5F5F5F5F5F5F5F5F5F5F5F5F5F5E2F5F5F5F5F5F5F5F5F5F5F5F5F5F5F5F5F5F5F5F5F5E2E2F5F5F5F5F5F5F5F5F5F5F5F5F5F5F5F5F5F5F5F5F5E2F5F5F5F5F5F5F5F5F5F5F5F5F5F5F5F5F5F5F5F5F5F5F5F5F5F5F5F5F5F5F5F5F5F5F5F5F5F5F5F5F5F5F5F5F5F5F5F5
310
F5F5F5F5F5F5F5F5F5F5F5F5F5F5F5F5F5F5F5F5F5F5F5F5F5F5F5F5F5F5F5F5F5F5F5F5F5F5F5F5F5F5F5F5F5F5F5F5F5F5F5F5F5F5F5F5F5F5F5F5F5F5F5F5F5F5F5F5F5F5F5F5F5F5F5F5F5F5F5F5F5F5F5F5F5F5E2F5F5F5F5F5F5F5F5F5F5F5F5F5F5F5F5F5F5F5F5F5E2E2F5F5F5F5F5F5F5F5F5F5F5F5F5F5F5F5F5
310
F5F5F5F5E2F5F5F5F5F5F5F5F5F5F5F5F5F5F5F5F5F5F5F5F5F5F5F5F5F5F5F5F5F5F5F5F5F5F5F5F5F5F5F5F5F5F5F5F5F5F5F5F5F5F5F5F5F5F5F5F5F5F5F5F5F5F5F5F5F5F5F5F5F5F5F5F5F5F5F5F5F5F5F5F5F5F5F5F5F5F5F5F5F5F5F5F5F5F5F5F5F5F5F5F5F5F5F5F5F5F5F5F5F5F5F5F5F5F5F5F5F5F5F5F5F5F5
310
F5F5F5F5F5F5F5F5F5F5F5F5E2F5F5F5F5F5F5F5F5F5F5F5F5F5F5F5F5F5F5F5F5F5E2E2F5F5F5F5F5F5F5F5F5F5F5F5F5F5F5F5F5F5F5F5F5E2F5F5F5F5F5F5F5F5F5F5F5F5F5F5F5F5F5F5F5F5F5F5F5F5F5F5F5F5F5F5F5F5F5F5F5F5F5F5F5F5F5F5F5F5F5F5F5F5F5F5F5F5F5F5F5F5F5F5F5F5F5F5F5F5F5F5F5F5F5
310
F5F5F5F5F5F5F5F5F5F5F5F5F5F5F5F5F5F5F5F5F5F5F5F5F5F5F5F5F5F5F5F5F5F5F5F5F5F5F5F5F5F5F5F5F5F5F5F5F5F5F5F5F5F5F5F5F5F5F5F5F5F5F5F5F5E2F5F5F5F5F5F5F5F5F5F5F5F5F5F5F5F5F5F5F5F5F5E2E2F5F5F5F5F5F5F5F5F5F5F5F5F5F5F5F5F5F5F5F5F5E2F5F5F5F5F5F5F5F5F5F5F5F5F5F5F5F5
310
F5F5F5F5F5F5F5F5F5F5F5F5F5F5F5F5F5F5F5F5F5F5F5F5F5F5F5F5F5F5F5F5F5F5F5F5F5F5F5F5F5F5F5F5F5F5F5F5F5F5F5F5F5F5F5F5F5F5F5F5F5F5F5F5F5F5F5F5F5F5F5F5F5F5F5F5F5F5F5F5F5F5F5F5F5F5F5F5F5F5F5F5F5F5F5F5F5F5F5F5F5F5F5F5F5F5F5F5F5F5F5F5F5F5F5F5F5F5E2F5F5F5F5F5F5F5F5
310
F5F5F5F5F5F5F5F5F5F5F5F5F5E2E2F5F5F5F5E2F5F5F5F5F5F5F5F5F5F5F5F5F5F5F5F5E2F5F5F5F5F5F5F5F5F5F5F5F5F5F5F5F5F5F5F5F5F5F5F5F5F5F5F5F5F5F5F5F5F5F5F5F5F5F5F5F5F5F5F5F5F5F5F5F5F5F5F5F5F5F5F5F5F5F5F5F5F5F5F5F5F5F5F5F5F5F5F5F5F5F5F5F5F5F5F5F5F5F5F5F5F5F5F5F5F5F5
310
F5F5F5F5F5F5F5F5F5F5F5F5F5F5F5F5F5F5F5F5F5F5F5F5F5F5F5F5F5F5F5F5F5F5F5F5F5F5F5F5F5F5F5F5E2F5F5F5F5F5F5F5F5F5F5F5F5F5F5F5F5E2F5F5F5F5E2E2F5F5F5F5E2F5F5F5F5F5F5F5F5F5F5F5F5F5F5F5F5E2F5F5F5F5F5F5F5F5F5F5F5F5F5F5F5F5F5F5F5F5F5F5F5F5F5F5F5F5F5F5F5F5F5F5F5F5F5
310
F5F5F5F5F5F5F5F5F5F5F5F5F5F5F5F5F5F5F5F5F5F5F5F5F5F5F5F5F5F5F5F5F5F5F5F5F5F5F5F5F5F5F5F5F5F5F5F5F5F5F5F5F5F5F5F5F5F5F5F5F5F5F5F5F5F5F5F5F5F5F5F5F5F5F5F5F5F5F5F5F5F5F5F5F5F5F5F5F5F5F5F5F5F5F5F5F5E2F5F5F5F5F5F5F5F5F5F5F5F5F5F5F5F5E2F5F5F5F5E2E2F5F5F5F5E2F5
310
F5F5F5F5F5F5F5F5F5F5F5F5F5F5F5E2F5F5F5F5F5F5F5F5F5F5F5F5F5F5F5F5F5F5F5F5F5F5F5F5F5F5F5F5F5F5F5F5F5F5F5F5F5F5F5F5F5F5F5F5F5F5F5F5F5F5F5F5F5F5F5F5F5F5F5F5F5F5F5F5F5F5F5F5F5F5F5F5F5F5F5F5F5F5F5F5F5F5F5F5F5F5F5F5F5F5F5F5F5F5F5F5F5F5F5F5F5F5F5F5F5F5F5F5F5F5F5
310
F5F5F5F5F5F5F5F5F5F5F5F5F5F5F5F5F5F5F5F5F5F5F5E2F5F5F5F5F5F5F5F5F5F5F5F5F5F5F5F5E2F5F5F5F5E2E2F5F5F5F5E2F5F5F5F5F5F5F5F5F5F5F5F5F5F5F5F5E2F5F5F5F5F5F5F5F5F5F5F5F5F5F5F5F5F5F5F5F5F5F5F5F5F5F5F5F5F5F5F5F5F5F5F5F5F5F5F5F5F5F5F5F5F5F5F5F5F5F5F5F5F5F5F5F5F5F5
310
F5F5F5F5F5F5F5F5F5F5F5F5F5F5F5F5F5F5F5F5F5F5F5F5F5F5F5F5F5F5F5F5F5F5F5F5F5F5F5F5F5F5F5F5F5F5F5F5F5F5F5F5F5F5F5F5F5F5F5F5F5F5F5F5F5F5F5F5F5F5F5F5F5F5F5F5E2F5F5F5F5F5F5F5F5F5F5F5F5F5F5F5F5E2F5F5F5F5E2E2F5F5F5F5E2F5F5F5F5F5F5F5F5F5F5F5F5F5F5F5F5E2F5F5F5F5F5
310
F5F5F5F5F5F5F5F5F5F5F5F5F5F5F5F5F5F5F5F5F5F5F5F5F5F5F5F5F5F5F5F5F5F5F5F5F5F5F5F5F5F5F5F5F5F5F5F5F5F5F5F5F5F5F5F5F5F5F5F5F5F5F5F5F5F5F5F5F5F5F5F5F5F5F5F5F5F5F5F5F5F5F5F5F5F5F5F5F5F5F5F5F5F5F5F5F5F5F5F5F5F5F5F5F5F5F5F5F5F5F5F5F5F5F5F5F5F5F5F5F5F5F5F5F5F5F5
310
F5F5E2F5F5F5F5F5F5F5F5F5F5F5F5F5F5F5F5E2F5F5F5F5E2E2F5F5F5F5E2F5F5F5F5F5F5F5F5F5F5F5F5F5F5F5F5E2F5F5F5F5F5F5F5F5F5F5F5F5F5F5F5F5F5F5F5F5F5F5F5F5F5F5F5F5F5F5F5F5F5F5F5F5F5F5F5F5F5F5F5F5F5F5F5F5F5F5F5F5F5F5F5F5F5F5F5F5F5F5F5F5F5F5F5F5F5F5F5F5F5F5F5F5F5F5F5
310
F5F5F5F5F5F5F5F5F5F5F5F5F5F5F5F5F5F5F5F5F5F5F5F5F5F5F5F5F5F5F5F5F5F5F5F5F5F5F5F5F5F5F5F5F5F5F5F5F5F5F5F5F5F5F5E2F5F5F5F5F5F5F5F5F5F5F5F5F5F5F5F5E2F5F5F5F5E2E2F5F5F5F5E2F5F5F5F5F5F5F5F5F5F5F5F5F5F5F5F5E2F5F5F5F5F5F5F5F5F5F5F5F5F5F5F5F5F5F5F5F5F5F5F5F5F5F5
310
F5F5F5F5F5F5F5F5F5F5F5F5F5F5F5F5F5F5F5F5F5F5F5F5F5F5F5F5F5F5F5F5F5F5F5F5F5F5F5F5F5F5F5F5F5F5F5F5F5F5F5F5F5F5F5F5F5F5F5F5F5F5F5F5F5F5F5F5F5F5F5F5F5F5F5F5F5F5F5F5F5F5F5F5F5F5F5F5F5F5F5F5F5F5F5F5F5F5F5F5F5F5F5F5F5F5F5F5E2F5F5F5F5F5F5F5F5F5F5F5F5F5F5F5F5E2F5
310
F5F5F5E2E2F5F5F5F5E2F5F5F5F5F5F5F5F5F5F5F5F5F5F5F5F5E2F5F5F5F5F5F5F5F5F5F5F5F5F5F5F5F5F5F5F5F5F5F5F5F5F5F5F5F5F5F5F5F5F5F5F5F5F5F5F5F5F5F5F5F5F5F5F5F5F5F5F5F5F5F5F5F5F5F5F5F5F5F5F5F5F5F5F5F5F5F5F5F5F5F5F5F5F5F5F5F5F5F5F5F5F5F5F5F5F5F5F5F5F5F5F5F5F5F5F5F5
310
F5F5F5F5F5F5F5F5F5F5F5F5F5F5F5F5F5F5F5F5F5F5F5F5F5F5F5F5F5F5F5F5F5F5E2F5F5F5F5F5F5F5F5F5F5F5F5F5F5F5F5E2F5F5F5F5E2E2F5F5F5F5E2F5F5F5F5F5F5F5F5F5F5F5F5F5F5F5F5E2F5F5F5F5F5F5F5F5F5F5F5F5F5F5F5F5F5F5F5F5F5F5F5F5F5F5F5F5F5F5F5F5F5F5F5F5F5F5F5F5F5F5F5F5F5F5F5
310
F5F5F5F5F5F5F5F5F5F5F5F5F5F5F5F5F5F5F5F5F5F5F5F5F5F5F5F5F5F5F5F5F5F5F5F5F5F5F5F5F5F5F5F5F5F5F5F5F5F5F5F5F5F5F5F5F5F5F5F5F5F5F5F5F5F5F5F5F5F5F5F5F5F5F5F5F5F5F5F5F5F5F5F5F5F5F5E2F5F5F5F5F5F5F5F5F5F5F5F5F5F5F5F5E2F5F5F5F5E2E2F5F5F5F5E2F5F5F5F5F5F5F5F5F5F5F5
310
F5F5F5F5F5E2F5F5F5F5F5F5F5F5F5F5F5F5F5F5F5F5F5F5F5F5F5F5F5F5F5F5F5F5F5F5F5F5F5F5F5F5F5F5F5F5F5F5F5F5F5F5F5F5F5F5F5F5F5F5F5F5F5F5F5F5F5F5F5F5F5F5F5F5F5F5F5F5F5F5F5F5F5F5F5F5F5F5F5F5F5F5F5F5F5F5F5F5F5F5F5F5F5F5F5F5F5F5F5F5F5F5F5F5F5F5F5F5F5F5F5F5F5F5F5F5F5
310
F5F5F5F5F5F5F5F5F5F5F5F5F5E2F5F5F5F5F5F5F5F5F5F5F5F5F5F5F5F5E2F5F5F5F5E2E2F5F5F5F5E2F5F5F5F5F5F5F5F5F5F5F5F5F5F5F5F5E2F5F5F5F5F5F5F5F5F5F5F5F5F5F5F5F5F5F5F5F5F5F5F5F5F5F5F5F5F5F5F5F5F5F5F5F5F5F5F5F5F5F5F5F5F5F5F5F5F5F5F5F5F5F5F5F5F5F5F5F5F5F5F5F5F5F5F5F5
310
F5F5F5F5F5F5F5F5F5F5F5F5F5F5F5F5F5F5F5F5F5F5F5F5F5F5F5F5F5F5F5F5F5F5F5F5F5F5F5F5F5F5F5F5F5F5F5F5F5F5F5F5F5F5F5F5F5F5F5F5F5F5F5F5F5F5E2F5F5F5F5F5F5F5F5F5F5F5F5F5F5F5F5E2F5F5F5F5E2E2F5F5F5F5E2F5F5F5F5F5F5F5F5F5F5F5F5F5F5F5F5E2F5F5F5F5F5F5F5F5F5F5F5F5F5F5F5
310
F5F5F5F5F5F5F5F5F5F5F5F5F5F5F5F5F5F5F5F5F5F5F5F5F5F5F5F5F5F5F5F5F5F5F5F5F5F5F5F5F5F5F5F5F5F5F5F5F5F5F5F5F5F5F5F5F5F5F5F5F5F5F5F5F5F5F5F5F5F5F5F5F5F5F5F5F5F5F5F5F5F5F5F5F5F5F5F5F5F5F5F5F5F5F5F5F5F5F5F5F5F5F5F5F5F5F5F5F5F5F5F5F5F5F5F5F5F5F5E2F5F5F5F5F5F5F5
310
F5F5F5F5F5F5F5F5F5E2F5F5F5F5E2E2F5F5F5F5E2F5F5F5F5F5F5F5F5F5F5F5F5F5F5F5F5E2F5F5F5F5F5F5F5F5F5F5F5F5F5F5F5F5F5F5F5F5F5F5F5F5F5F5F5F5F5F5F5F5F5F5F5F5F5F5F5F5F5F5F5F5F5F5F5F5F5F5F5F5F5F5F5F5F5F5F5F5F5F5F5F5F5F5F5F5F5F5F5F5F5F5F5F5F5F5F5F5F5F5F5F5F5F5F5F5F5
310
F5F5F5F5F5F5F5F5F5F5F5F5F5F5F5F5F5F5F5F5F5F5F5F5F5F5F5F5F5F5F5F5F5F5F5F5F5F5F5F5F5F5F5F5F5E2F5F5F5F5F5F5F5F5F5F5F5F5F5F5F5F5E2F5F5F5F5E2E2F5F5F5F5E2F5F5F5F5F5F5F5F5F5F5F5F5F5F5F5F5E2F5F5F5F5F5F5F5F5F5F5F5F5F5F5F5F5F5F5F5F5F5F5F5F5F5F5F5F5F5F5F5F5F5F5F5F5
310
F5F5F5F5F5F5F5F5F5F5F5F5F5F5F5F5F5F5F5F5F5F5F5F5F5F5F5F5F5F5F5F5F5F5F5F5F5F5F5F5F5F5F5F5F5F5F5F5F5F5F5F5F5F5F5F5F5F5F5F5F5F5F5F5F5F5F5F5F5F5F5F5F5F5F5F5F5F5F5F5F5F5F5F5F5F5F5F5F5F5F5F5F5F5F5F5F5F5E2F5F5F5F5F5F5F5F5F5F5F5F5F5F5F5F5E2F5F5F5F5E2E2F5F5F5F5E2
310
F5F5F5F5F5F5F5F5F5F5F5F5F5F5F5F5E2F5F5F5F5F5F5F5F5F5F5F5F5F5F5F5F5F5F5F5F5F5F5F5F5F5F5F5F5F5F5F5F5F5F5F5F5F5F5F5F5F5F5F5F5F5F5F5F5F5F5F5F5F5F5F5F5F5F5F5F5F5F5F5F5F5F5F5F5F5F5F5F5F5F5F5F5F5F5F5F5F5F5F5F5F5F5F5F5F5F5F5F5F5F5F5F5F5F5F5F5F5F5F5F5F5F5F5F5F5F5
310
F5F5F5F5F5F5F5F5F5F5F5F5F5F5F5F5F5F5F5F5F5F5F5F5E2F5F5F5F5F5F5F5F5F5F5F5F5F5F5F5F5E2F5F5F5F5E2E2F5F5F5F5E2F5F5F5F5F5F5F5F5F5F5F5F5F5F5F5F5E2F5F5F5F5F5F5F5F5F5F5F5F5F5F5F5F5F5F5F5F5F5F5F5F5F5F5F5F5F5F5F5F5F5F5F5F5F5F5F5F5F5F5F5F5F5F5F5F5F5F5F5F5F5F5F5F5F5
310
F5F5F5F5F5F5F5F5F5F5F5F5F5F5F5F5F5F5F5F5F5F5F5F5F5F5F5F5F5F5F5F5F5F5F5F5F5F5F5F5F5F5F5F5F5F5F5F5F5F5F5F5F5F5F5F5F5F5F5F5F5F5F5F5F5F5F5F5F5F5F5F5F5F5F5F5F5E2F5F5F5F5F5F5F5F5F5F5F5F5F5F5F5F5E2F5F5F5F5E2E2F5F5F5F5F5F5F5F5F5F5F5F5F5F5F5F5F5F5F5F5F5E2F5F5F5F5
310
F5F5F5F5F5F5F5F5F5F5F5F5F5F5F5F5F5F5F5F5F5F5F5F5F5F5F5F5F5F5F5F5F5F5F5F5F5F5F5F5F5F5F5F5F5F5F5F5F5F5F5F5F5F5F5F5F5F5F5F5F5F5F5F5F5F5F5F5F5F5F5F5F5F5F5F5F5F5F5F5F5F5F5F5F5F5F5F5F5F5F5F5F5F5F5F5F5F5F5F5F5F5F5F5F5F5F5F5F5F5F5F5F5F5F5F5F5F5F5F5F5F5F5F5F5F5F5
310
F5F5F5E2F5F5F5F5F5F5F5F5F5F5F5F5F5F5F5F5F5F5F5F5F5E2E2F5F5F5F5F5F5F5F5F5F5F5F5F5F5F5F5F5F5F5F5F5E2F5F5F5F5F5F5F5F5F5F5F5F5F5F5F5F5F5F5F5F5F5F5F5F5F5F5F5F5F5F5F5F5F5F5F5F5F5F5F5F5F5F5F5F5F5F5F5F5F5F5F5F5F5F5F5F5F5F5F5F5F5F5F5F5F5F5F5F5F5F5F5F5F5F5F5F5F5F5
310
F5F5F5F5F5F5F5F5F5F5F5F5F5F5F5F5F5F5F5F5F5F5F5F5F5F5F5F5F5F5F5F5F5F5F5F5F5F5F5F5F5F5F5F5F5F5F5F5F5F5F5F5F5F5F5F5E2F5F5F5F5F5F5F5F5F5F5F5F5F5F5F5F5F5F5F5F5F5E2E2F5F5F5F5F5F5F5F5F5F5F5F5F5F5F5F5F5F5F5F5F5E2F5F5F5F5F5F5F5F5F5F5F5F5F5F5F5F5F5F5F5F5F5F5F5F5F5
310
F5F5F5F5F5F5F5F5F5F5F5F5F5F5F5F5F5F5F5F5F5F5F5F5F5F5F5F5F5F5F5F5F5F5F5F5F5F5F5F5F5F5F5F5F5F5F5F5F5F5F5F5F5F5F5F5F5F5F5F5F5F5F5F5F5F5F5F5F5F5F5F5F5F5F5F5F5F5F5F5F5F5F5F5F5F5F5F5F5F5F5F5F5F5F5F5F5F5F5F5F5F5F5F5F5F5F5F5F5E2F5F5F5F5F5F5F5F5F5F5F5F5F5F5F5F5F5
310
F5F5F5F5E2E2F5F5F5F5F5F5F5F5F5F5F5F5F5F5F5F5F5F5F5F5F5E2F5F5F5F5F5F5F5F5F5F5F5F5F5F5F5F5F5F5F5F5F5F5F5F5F5F5F5F5F5F5F5F5F5F5F5F5F5F5F5F5F5F5F5F5F5F5F5F5F5F5F5F5F5F5F5F5F5F5F5F5F5F5F5F5F5F5F5F5F5F5F5F5F5F5F5F5F5F5F5F5F5F5F5F5F5F5F5F5F5F5F5F5F5F5F5F5F5F5F5
310
F5F5F5F5F5F5F5F5F5F5F5F5F5F5F5F5F5F5F5F5F5F5F5F5F5F5F5F5F5F5F5F5F5F5F5E2F5F5F5F5F5F5F5F5F5F5F5F5F5F5F5F5F5F5F5F5F5E2E2F5F5F5F5F5F5F5F5F5F5F5F5F5F5F5F5F5F5F5F5F5E2E2E2E2E2E2E2E2E2E2E2E2E2E2E2E2E2E2E2E2E2E2E2E2E2E2E2E2E2E2E2E2E2E2E2E2E2E2E2E2E2E2E2E2E2E2E2
310
E2E2E2E2E2E2E2E2E2E2E2E2E2E2E2E2E2E2E2E2E2E2E2E2E2E2E2E2E2E2E2E2E2E2E2E2E2E2E2E2E2E2E2E2E2E2E2E2E2E2E2E2E2E2E2E2E2E2E2E2E2E2E2E2E2E2E2E2E2E2E2E2E2E2E2E2E2E2E2E2E2E2E2E2E2E2E2E2E2F5F5F5F5F5F5F5F5F5F5F5F5F5F5F5F5F5F5F5F5F5E2E2F5F5F5F5F5F5F5F5F5F5F5F5F5F5F5
310
F5F5F5F5F5F5F5F5F5F5F5F5F5F5F5F5F5F5F5F5F5F5F5F5F5F5F5F5F5F5F5F5F5F5F5F5F5F5F5F5F5F5F5F5F5F5F5F5F5F5F5F5F5F5F5F5F5F5F5F5F5F5F5F5F5F5F5F5F5F5F5F5F5F5F5F5F5F5F5F5F5F5F5F5F5F5F5F5F5F5F5F5F5F5F5F5F5F5F5F5F5F5F5F5F5F5F5F5F5F5F5F5F5F5F5F5F5F5F5F5F5F5F5F5F5F5F5
310
F5F5F5F5F5F5F5F5F5F5F5F5F5F5F5F5F5F5F5F5F5F5F5F5F5F5F5F5F5F5F5F5F5F5F5F5E2E2F5F5F5F5F5F5F5F5F5F5F5F5F5F5F5F5F5F5F5F5F5F5F5F5F5F5F5F5F5F5F5F5F5F5F5F5F5F5F5F5F5F5F5F5F5F5F5F5F5F5F5F5F5F5F5F5F5F5F5F5F5F5F5F5F5F5F5F5F5F5F5F5F5F5F5F5F5F5F5F5F5F5F5F5F5F5F5F5F5
310
F5F5F5F5F5F5F5F5F5F5F5F5F5F5F5F5F5F5F5F5F5F5F5F5F5F5F5F5F5F5F5F5F5F5F5F5F5F5F5F5F5F5F5F5F5F5F5F5F5F5F5F5F5F5F5F5F5F5F5F5F5F5F5F5F5F5F5F5F5F5F5F5F5F5F5F5F5F5F5F5F5F5F5F5F5F5F5F5F5E2E2F5F5F5F5F5F5F5F5F5F5F5F5F5F5F5F5F5F5F5F5F5F5F5F5F5F5F5F5F5F5F5F5F5F5F5F5
310
F5F5F5F5F5F5F5F5F5F5F5F5F5F5F5F5F5F5F5F5F5F5F5F5F5F5F5F5F5F5F5F5F5F5F5F5F5F5F5F5F5F5F5F5F5F5F5F5F5F5F5F5F5F5F5F5F5F5F5F5F5F5F5F5F5F5F5F5F5F5F5F5F5F5F5F5F5F5F5F5F5F5F5F5F5F5F5F5F5F5F5F5F5F5F5F5F5F5F5F5F5F5F5F5F5F5F5F5F5F5F5F5F5F5F5F5F5F5F5F5F5F5F5F5F5F5F5
310
F5F5F5F5F5F5F5F5F5F5F5F5F5F5F5E2E2F5F5F5F5F5F5F5F5F5F5F5F5F5F5F5F5F5F5F5F5F5F5F5F5F5F5F5F5F5F5F5F5F5F5F5F5F5F5F5F5F5F5F5F5F5F5F5F5F5F5F5F5F5F5F5F5F5F5F5F5F5F5F5F5F5F5F5F5F5F5F5F5F5F5F5F5F5F5F5F5F5F5F5F5F5F5F5F5F5F5F5F5F5F5F5F5F5F5F5F5F5F5F5F5F5F5F5F5F5F5
310
F5F5F5F5F5F5F5F5F5F5F5F5F5F5F5F5F5F5F5F5F5F5F5F5F5F5F5F5F5F5F5F5F5F5F5F5F5F5F5F5F5F5F5F5F5F5F5F5F5F5F5F5F5F5F5F5F5F5F5F5F5F5F5F5F5F5F5F5E2E2F5F5F5F5E2F5F5F5F5F5F5F5F5F5F5F5F5F5F5F5F5F5F5F5F5F5F5F5F5F5F5F5F5F5F5F5F5F5F5F5F5F5F5F5F5F5F5F5F5F5F5F5F5F5F5F5F5
310
F5F5F5F5F5F5F5F5F5F5F5F5F5F5F5F5F5F5F5F5F5F5F5F5F5F5F5F5F5F5F5F5F5F5F5F5F5F5F5F5F5F5F5F5F5F5F5F5F5F5F5F5F5F5F5F5F5F5F5F5F5F5F5F5F5F5F5F5F5F5F5F5F5F5F5F5F5F5F5F5F5F5F5F5F5F5F5F5F5F5F5F5F5F5F5F5F5F5F5F5F5F5F5F5F5F5F5F5F5F5F5F5F5F5F5F5E2F5F5F5F5E2E2F5F5F5F5
310
E2F5F5F5F5F5F5F5F5F5F5F5F5F5F5F5F5F5F5F5F5F5F5F5F5F5F5F5F5F5F5F5F5F5F5F5F5F5F5F5F5F5F5F5F5F5F5F5F5F5F5F5F5F5F5F5F5F5F5F5F5F5F5F5F5F5F5F5F5F5F5F5F5F5F5F5F5F5F5F5F5F5F5F5F5F5F5F5F5F5F5F5F5F5F5F5F5F5F5F5F5F5F5F5F5F5F5F5F5F5F5F5F5F5F5F5F5F5F5F5F5F5F5F5F5F5F5
310
F5F5F5F5F5F5F5F5F5F5F5F5F5F5F5F5F5F5F5F5F5F5F5F5F5F5F5F5F5F5F5F5F5F5F5F5F5F5F5F5F5F5E2F5F5F5F5E2E2F5F5F5F5E2F5F5F5F5F5F5F5F5F5F5F5F5F5F5F5F5F5F5F5F5F5F5F5F5F5F5F5F5F5F5F5F5F5F5F5F5F5F5F5F5F5F5F5F5F5F5F5F5F5F5F5F5F5F5F5F5F5F5F5F5F5F5F5F5F5F5F5F5F5F5F5F5F5
310
F5F5F5F5F5F5F5F5F5F5F5F5F5F5F5F5F5F5F5F5F5F5F5F5F5F5F5F5F5F5F5F5F5F5F5F5F5F5F5F5F5F5F5F5F5F5F5F5F5F5F5F5F5F5F5F5F5F5F5F5F5F5F5F5F5F5F5F5F5F5F5F5F5F5F5F5F5F5F5F5F5F5F5F5F5F5F5F5F5F5F5F5F5F5F5E2F5F5F5F5E2E2F5F5F5F5E2F5F5F5F5F5F5F5F5F5F5F5F5F5F5F5F5F5F5F5F5
310
F5F5F5F5F5F5F5F5F5F5F5F5F5F5F5F5F5F5F5F5F5F5F5F5F5F5F5F5F5F5F5F5F5F5F5F5F5F5F5F5F5F5F5F5F5F5F5F5F5F5F5F5F5F5F5F5F5F5F5F5F5F5F5F5F5F5F5F5F5F5F5F5F5F5F5F5F5F5F5F5F5F5F5F5F5F5F5F5F5F5F5F5F5F5F5F5F5F5F5F5F5F5F5F5F5F5F5F5F5F5F5F5F5F5F5F5F5F5F5F5F5F5F5F5F5F5F5
310
F5F5F5F5F5F5F5F5F5F5F5F5F5F5F5F5F5F5F5F5F5E2F5F5F5F5E2E2F5F5F5F5E2F5F5F5F5F5F5F5F5F5F5F5F5F5F5F5F5F5F5F5F5F5F5F5F5F5F5F5F5F5F5F5F5F5F5F5F5F5F5F5F5F5F5F5F5F5F5F5F5F5F5F5F5F5F5F5F5F5F5F5F5F5F5F5F5F5F5F5F5F5F5F5F5F5F5F5F5F5F5F5F5F5F5F5F5F5F5F5F5F5F5F5F5F5F5
310
F5F5F5F5F5F5F5F5F5F5F5F5F5F5F5F5F5F5F5F5F5F5F5F5F5F5F5F5F5F5F5F5F5F5F5F5F5F5F5F5F5F5F5F5F5F5F5F5F5F5F5F5F5F5F5F5F5F5F5F5F5F5F5F5F5F5F5F5F5F5F5F5F5F5E2F5F5F5F5E2E2F5F5F5F5E2F5F5F5F5F5F5F5F5F5F5F5F5F5F5F5F5F5F5F5F5F5F5F5F5F5F5F5F5F5F5F5F5F5F5F5F5F5F5F5F5F5
310
F5F5F5F5F5F5F5F5F5F5F5F5F5F5F5F5F5F5F5F5F5F5F5F5F5F5F5F5F5F5F5F5F5F5F5F5F5F5F5F5F5F5F5F5F5F5F5F5F5F5F5F5F5F5F5F5F5F5F5F5F5F5F5F5F5F5F5F5F5F5F5F5F5F5F5F5F5F5F5F5F5F5F5F5F5F5F5F5F5F5F5F5F5F5F5F5F5F5F5F5F5F5F5F5F5F5F5F5F5F5F5F5F5F5F5F5F5F5F5F5F5F5F5F5F5F5F5
310
E2F5F5F5F5E2E2F5F5F5F5E2F5F5F5F5F5F5F5F5F5F5F5F5F5F5F5F5F5F5F5F5F5F5F5F5F5F5F5F5F5F5F5F5F5F5F5F5F5F5F5F5F5F5F5F5F5F5F5F5F5F5F5F5F5F5F5F5F5F5F5F5F5F5F5F5F5F5F5F5F5F5F5F5F5F5F5F5F5F5F5F5F5F5F5F5F5F5F5F5F5F5F5F5F5F5F5F5F5F5F5F5F5F5F5F5F5F5F5F5F5F5F5F5F5F5F5
310
F5F5F5F5F5F5F5F5F5F5F5F5F5F5F5F5F5F5F5F5F5F5F5F5F5F5F5F5F5F5F5F5F5F5F5F5F5F5F5F5F5F5F5F5F5F5F5F5F5F5F5F5F5E2F5F5F5F5E2E2F5F5F5F5E2F5F5F5F5F5F5F5F5F5F5F5F5F5F5F5F5F5F5F5F5F5F5F5F5F5F5F5F5F5F5F5F5F5F5F5F5F5F5F5F5F5F5F5F5F5F5F5F5F5F5F5F5F5F5F5F5F5F5F5F5F5F5
310
F5F5F5F5F5F5F5F5F5F5F5F5F5F5F5F5F5F5F5F5F5F5F5F5F5F5F5F5F5F5F5F5F5F5F5F5F5F5F5F5F5F5F5F5F5F5F5F5F5F5F5F5F5F5F5F5F5F5F5F5F5F5F5F5F5F5F5F5F5F5F5F5F5F5F5F5F5F5F5F5F5F5F5F5F5F5F5F5F5F5F5F5F5F5F5F5F5F5F5F5F5F5F5F5F5F5E2F5F5F5F5E2E2F5F5F5F5E2E2E2E2E2E2E2E2F5F5
310
F5F5F5F5F5F5F5E2E2E2E2E2E2E2E2E2E2E2E2E2E2E2F5F5F5F5F5F5F5F5F5E2E2E2E2E2E2E2E2E2E2E2E2E2E2E2E2F5F5F5F5F5F5F5F5E2E2E2E2E2E2E2E2E2E2E2E2E2E2E2E2F5F5F5F5F5F5F5F5E2E2E2E2E2E2E2E2E2E2E2E2E2E2E2E2F5F5F5F5F5F5F5F5E2E2E2E2E2E2E2E2E2E2E2E2E2E2E2E2F5F5F5F5F5F5F5F5
310
F5E2E2E2E2E2E2E2E2E2E2E2E2E2E2E2F5F5F5F5F5F5F5F5F5E2E2E2E2E2E2E2E2F5F5F5F5E2E2F5F5F5F5F5F5F5F5F5F5F5F5F5F5F5F5F5F5F5F5F5F5F5F5F5F5F5F5F5F5F5F5F5F5F5F5F5F5F5F5F5F5F5F5F5F5F5F5F5F5F5F5F5F5F5F5F5F5F5F5F5F5F5F5F5F5F5F5F5F5F5F5F5F5F5F5F5F5F5F5F5F5F5F5F5F5F5F5
310
F5F5F5F5F5F5F5F5F5F5F5F5F5F5F5F5F5F5F5F5F5F5F5F5F5F5F5F5F5F5F5F5F5F5F5F5F5F5F5F5F5F5F5F5F5F5F5F5F5F5F5F5F5F5F5F5F5F5F5F5F5F5F5F5F5F5F5F5F5F5F5F5F5F5F5F5F5F5F5F5F5F5F5F5F5F5F5F5F5F5E2E2F5F5F5F5F5F5F5F5F5F5F5F5F5F5F5F5F5F5F5F5F5F5F5F5F5F5F5F5F5F5F5F5F5F5F5
310
F5F5F5F5F5F5F5F5F5F5F5F5F5F5F5F5F5F5F5F5F5F5F5F5F5F5F5F5F5F5F5F5F5F5F5F5F5F5F5F5F5F5F5F5F5F5F5F5F5F5F5F5F5F5F5F5F5F5F5F5F5F5F5F5F5F5F5F5F5F5F5F5F5F5F5F5F5F5F5F5F5F5F5F5F5F5F5F5F5F5F5F5F5F5F5F5F5F5F5F5F5F5F5F5F5F5F5F5F5F5F5F5F5F5F5F5F5F5F5F5F5F5F5F5F5F5F5
310
F5F5F5F5F5F5F5F5F5F5F5F5F5F5F5F5E2E2F5F5F5F5F5F5F5F5F5F5F5F5F5F5F5F5F5F5F5F5F5F5F5F5F5F5F5F5F5F5F5F5F5F5F5F5F5F5F5F5F5F5F5F5F5F5F5F5F5F5F5F5F5F5F5F5F5F5F5F5F5F5F5F5F5F5F5F5F5F5F5F5F5F5F5F5F5F5F5F5F5F5F5F5F5F5F5F5F5F5F5F5F5F5F5F5F5F5F5F5F5F5F5F5F5F5F5F5F5
310
F5F5F5F5F5F5F5F5F5F5F5F5F5F5F5F5F5F5F5F5F5F5F5F5F5F5F5F5F5F5F5F5F5F5F5F5F5F5F5F5F5F5F5F5F5F5F5F5F5F5F5F5F5F5F5F5F5F5F5F5F5F5F5F5F5F5F5F5F5E2E2E2E2E2E2E2E2E2E2E2E2E2E2E2E2E2E2E2E2E2E2E2E2E2E2E2E2E2E2E2E2E2E2E2E2E2E2E2E2E2E2E2E2E2E2E2E2E2E2E2E2E2E2E2E2E2E2
310
E2E2E2E2E2E2E2E2E2E2E2E2E2E2E2E2E2E2E2E2E2E2E2E2E2E2E2E2E2E2E2E2E2E2E2E2E2E2E2E2E2E2E2E2E2E2E2E2E2E2E2E2E2E2E2E2E2E2E2E2E2E2E2E2E2E2E2E2E2E2E2E2E2E2E2E2E2E2E2E2E2E2E2E2E2E2E2E2E2E2E2E2E2E2E2E2E2E2E2E2E2E2E2E2E2E2E2E2E2E2E2E2E2E2E2E2E2E2E2E2E2E2E2EFEFEFEF
310
EFEFEFEFEFEFEFEFEFEFEFEFEFEFEFEFEFEFEFEFEFEFEFEFEFEFEFEFEFEFEFEFEFEFEFEFEFEFEFEFEFEFEFEFEFEFEFEFEFEFEFEFEFEFEFEFEFEFEFEFEFEFEFEFEFEFEFEFEFEFEFEFEFEFEFEFEFEFEFEFEFEFEFEFEFEFEFEFEFEFEFEFEFEFEFEFEFEFEFEFEFEFEFEFEFEFEFEFEFEFEFEFEFEFEFEFEFEFEFEFEFEFEFEFEFEFEF
310
EFEFEFEFEFEFEFEFEFEFEFEFEFEFEFEFEFEFEFEFEFEFEFEFEFEFEFEFEFEFEFEFEFEFEFEFEFEFEFEFEFEFEFEFEFEFEFEFEF
  0
XRECORD
  5
55E7A
102
{ACAD_REACTORS
330
B5
102
}
330
B5
100
AcDbXrecord
280
     1
102
SHADEPLOT
 70
     0
102
SHADEPLOTRESLEVEL
 70
     2
102
SHADEPLOTCUSTOMDPI
 70
   300
  0
XRECORD
  5
B6
102
{ACAD_REACTORS
330
B5
102
}
330
B5
100
AcDbXrecord
280
     1
310
28000000B40000008B0000000100080000000000BC610000000000000000000000010000000000000000000000000000FFFFFF000000000000000000000000000000000000000000000000000000000000000000330000006600000099000000CC000000FF00000000330000333300006633000099330000CC330000FF3300
310
0000660000336600006666000099660000CC660000FF66000000990000339900006699000099990000CC990000FF99000000CC000033CC000066CC000099CC0000CCCC0000FFCC000000FF000033FF000066FF000099FF0000CCFF0000FFFF000000003300330033006600330099003300CC003300FF003300003333003333
310
33006633330099333300CC333300FF33330000663300336633006666330099663300CC663300FF66330000993300339933006699330099993300CC993300FF99330000CC330033CC330066CC330099CC3300CCCC3300FFCC330000FF330033FF330066FF330099FF3300CCFF3300FFFF330000006600330066006600660099
310
006600CC006600FF00660000336600333366006633660099336600CC336600FF33660000666600336666006666660099666600CC666600FF66660000996600339966006699660099996600CC996600FF99660000CC660033CC660066CC660099CC6600CCCC6600FFCC660000FF660033FF660066FF660099FF6600CCFF6600
310
FFFF660000009900330099006600990099009900CC009900FF00990000339900333399006633990099339900CC339900FF33990000669900336699006666990099669900CC669900FF66990000999900339999006699990099999900CC999900FF99990000CC990033CC990066CC990099CC9900CCCC9900FFCC990000FF99
310
0033FF990066FF990099FF9900CCFF9900FFFF99000000CC003300CC006600CC009900CC00CC00CC00FF00CC000033CC003333CC006633CC009933CC00CC33CC00FF33CC000066CC003366CC006666CC009966CC00CC66CC00FF66CC000099CC003399CC006699CC009999CC00CC99CC00FF99CC0000CCCC0033CCCC0066CC
310
CC0099CCCC00CCCCCC00FFCCCC0000FFCC0033FFCC0066FFCC0099FFCC00CCFFCC00FFFFCC000000FF003300FF006600FF009900FF00CC00FF00FF00FF000033FF003333FF006633FF009933FF00CC33FF00FF33FF000066FF003366FF006666FF009966FF00CC66FF00FF66FF000099FF003399FF006699FF009999FF00CC
310
99FF00FF99FF0000CCFF0033CCFF0066CCFF0099CCFF00CCCCFF00FFCCFF0000FFFF0033FFFF0066FFFF0099FFFF00CCFFFF00FFFFFF00000000000D0D0D001A1A1A00282828003535350043434300505050005D5D5D006B6B6B00787878008686860093939300A1A1A100AEAEAE00BBBBBB00C9C9C900D6D6D600E4E4E400
310
F1F1F100FFFFFF0000000000000000000000000000000000000000000000000000000000000000000000000000000000F5F5F5F5F5F5F5F5F5F5F5F5F5F5F5F5F5F5F5F5F5F5F5F5F5F5F5F5F5F5F5F5F5F5F5F5F5F5F5F5F5F5F5F5F5F5F5F5F5F5F5F5F5F5F5F5F5F5F5F5F5F5F5F5F5F5F5F5F5F5F5F5F5F5F5F5F5F5F5
310
F5F5F5F5F5F5F5F5F5F5F5F5F5F5F5F5F5F5F5F5F5F5F5F5F5F5F5F5F5F5F5F5F5F5F5F5F5F5F5F5F5F5F5F5F5F5F5F5F5F5F5F5F5F5F5F5F5F5F5F5F5F5F5F5F5F5F5F5F5F5F5F5F5F5F5F5F5F5F5F5F5F5F5F5F5F5F5F5F5F5F5F5F5F5F5F5F5F5F5F5F5F5E2E2E2E2E2E2E2E2E2E2E2E2E2E2E2E2E2E2E2E2E2E2E2E2E2
310
E2E2E2E2E2E2E2E2E2E2E2E2E2E2E2E2E2E2E2E2E2E2E2E2E2E2E2E2E2E2E2E2E2E2E2E2E2E2E2E2E2E2E2E2E2E2E2E2E2E2E2E2E2E2E2E2E2E2E2E2E2E2E2E2E2E2E2E2E2E2E2E2E2E2E2E2E2E2E2E2E2E2E2E2E2E2E2E2E2E2E2E2E2E2E2E2E2E2E2E2E2E2E2E2E2E2E2E2E2E2E2E2E2E2E2E2E2E2E2E2E2E2E2E2E2E2E2
310
E2E2E2E2E2E2E2E2E2E2E2E2E2E2E2E2E2E2E2E2E2E2E2E2E2E2F5F5E2E2E2E2E2E2E2E2E2E2E2E2E2E2E2E2E2E2E2E2E2E2E2E2E2E2E2E2E2E2E2E2E2E2E2E2E2E2E2E2E2E2E2E2E2E2E2E2E2E2E2E2E2E2E2E2E2E2E2E2E2E2E2E2E2E2E2E2E2E2E2E2E2E2E2E2E2E2E2E2E2E2E2E2E2E2E2E2E2E2E2E2E2E2E2E2E2E2E2
310
E2E2E2E2E2E2E2E2E2E2E2E2E2E2E2E2E2E2E2E2E2E2E2E2E2E2E2E2E2E2E2E2E2E2E2E2E2E2E2E2E2E2E2E2E2E2E2E2E2E2E2E2E2E2E2E2E2E2E2E2E2E2E2E2E2E2E2E2E2E2E2E2E2E2E2E2E2E2E2F5F5E2E2E2E2E2E2E2E2E2E2E2E2E2E2E2E2E2E2E2E2E2E2E2E2E2E2E2E2E2E2E2E2E2E2E2E2E2E2E2E2E2E2E2E2E2E2
310
E2E2E2E2E2E2E2E2E2E2E2E2E2E2E2E2E2E2E2E2E2E2E2E2E2E2E2E2E2E2E2E2E2E2E2E2E2E2E2E2E2E2E2E2E2E2E2E2E2E2E2E2E2E2E2E2E2E2E2E2E2E2E2E2E2E2E2E2E2E2E2E2E2E2E2E2E2E2E2E2E2E2E2E2E2E2E2E2E2E2E2E2E2E2E2E2E2E2E2E2E2E2E2E2E2E2E2E2E2E2E2E2E2E2E2E2E2E2E2E2E2E2E2E2E2E2E2
310
E2E2E2E2E2F5F5E2E2E2E2E2E2E2E2E2E2E2E2E2E2E2E2E2E2E2E2E2E2E2E2E2E2E2E2E2E2E2E2E2E2E2E2E2E2E2E2E2E2E2E2E2E2E2E2E2E2E2E2E2E2E2E2E2E2E2E2E2E2E2E2E2E2E2E2E2E2E2E2E2E2E2E2E2E2E2E2E2E2E2E2E2E2E2E2E2E2E2E2E2E2E2E2E2E2E2E2E2E2E2E2E2E2E2E2E2E2E2E2E2E2E2E2E2E2E2E2
310
E2E2E2E2E2E2E2E2E2E2E2E2E2E2E2E2E2E2E2E2E2E2E2E2E2E2E2E2E2E2E2E2E2E2E2E2E2E2E2E2E2E2E2E2E2E2E2E2E2E2E2E2E2E2E2E2E2E2F5F5E2E2E2F5F5F5F5F5F5F5F5E2E2E2E2E2E2E2E2E2F5F5F5F5F5F5F5F5F5F5F5F5F5F5F5F5E2E2E2E2E2E2E2E2E2F5F5F5F5F5F5F5F5F5F5F5F5F5F5F5E2E2E2E2E2E2E2
310
E2E2F5F5F5F5F5F5F5F5F5F5F5F5F5F5F5F5E2E2E2E2E2E2E2E2F5F5F5F5F5F5F5F5F5F5F5F5F5F5F5F5E2E2E2E2E2E2E2E2E2F5F5F5F5F5F5F5F5F5F5F5F5F5F5F5E2E2E2E2E2E2E2E2E2F5F5F5F5F5F5F5F5F5F5F5F5F5F5F5F5E2E2E2E2E2E2E2E2E2F5F5F5F5F5F5F5F5E2E2E2F5F5E2E2E2F5E2E2E2E2E2E2E2E2E2E2
310
E2E2E2E2E2E2E2E2E2E2E2E2E2E2E2E2E2E2E2E2E2E2E2E2E2E2E2E2E2E2E2E2E2E2E2E2E2E2E2E2E2E2E2E2E2E2E2E2E2E2E2E2E2E2E2E2E2E2E2E2E2E2E2E2E2E2E2E2E2E2E2E2E2E2E2E2E2E2E2E2E2E2E2E2E2E2E2E2E2E2E2E2E2E2E2E2E2E2E2E2E2E2E2E2E2E2E2E2E2E2E2E2E2E2E2E2E2E2E2E2E2E2E2E2E2E2E2
310
E2E2E2E2E2E2E2E2E2E2E2E2E2E2E2E2E2E2E2E2E2E2E2E2E2E2E2E2E2E2E2E2E2F5E2E2E2F5F5E2E2E2F5E2E2E2E2E2E2E2E2E2E2E2E2E2E2E2E2E2E2E2E2E2E2E2E2E2E2E2E2E2E2E2E2E2E2E2E2E2E2E2E2E2E2E2E2E2E2E2E2E2E2E2E2E2E2E2E2E2E2E2E2E2E2E2E2E2E2E2E2E2E2E2E2E2E2E2E2E2E2E2E2E2E2E2E2
310
E2E2E2E2E2E2E2E2E2E2E2E2E2E2E2E2E2E2E2E2E2E2E2E2E2E2E2E2E2E2E2E2E2E2E2E2E2E2E2E2E2E2E2E2E2E2E2E2E2E2E2E2E2E2E2E2E2E2E2E2E2E2E2E2E2E2E2E2E2E2E2E2E2E2E2E2E2E2E2E2E2E2E2E2E2E2F5E2E2E2F5F5E2E2E2F5E2E2E2E2E2E2E2E2E2E2E2E2E2E2E2E2E2E2E2E2E2E2E2E2E2E2E2E2E2E2E2
310
E2E2E2E2E2E2E2E2E2E2E2E2E2E2E2E2E2E2E2E2E2E2E2E2E2E2E2E2E2E2E2E2E2E2E2E2E2E2E2E2E2E2E2E2E2E2E2E2E2E2E2E2E2E2E2E2E2E2E2E2E2E2E2E2E2E2E2E2E2E2E2E2E2E2E2E2E2E2E2E2E2E2E2E2E2E2E2E2E2E2E2E2E2E2E2E2E2E2E2E2E2E2E2E2E2E2E2E2E2E2E2E2E2E2E2E2E2E2E2E2E2E2E2E2E2E2E2
310
E2E2E2E2E2E2E2E2E2E2E2E2F5E2E2E2F5F5E2E2E2F5E2E2E2E2E2E2E2E2E2E2E2E2E2E2E2E2E2E2E2E2E2E2E2E2E2E2E2E2E2E2E2E2E2E2E2E2E2E2E2E2E2E2E2E2E2E2E2E2E2E2E2E2E2E2E2E2E2E2E2E2E2E2E2E2E2E2E2E2E2E2E2E2E2E2E2E2E2E2E2E2E2E2E2E2E2E2E2E2E2E2E2E2E2E2E2E2E2E2E2E2E2E2E2E2E2
310
E2E2E2E2E2E2E2E2E2E2E2E2E2E2E2E2E2E2E2E2E2E2E2E2E2E2E2E2E2E2E2E2E2E2E2E2E2E2E2E2E2E2E2E2E2E2E2E2E2E2E2E2E2E2E2E2E2E2E2E2E2E2E2E2E2F5E2E2E2F5F5E2E2E2F5E2E2E2E2E2E2E2E2E2E2E2E2E2E2E2E2E2E2E2E2E2E2E2E2E2E2E2E2E2E2E2E2E2E2E2E2E2E2E2E2E2E2E2E2E2E2E2E2E2E2E2E2
310
E2E2E2E2E2E2E2E2E2E2E2E2E2E2E2E2E2E2E2E2E2E2E2E2E2E2E2E2E2E2E2E2E2E2E2E2E2E2E2E2E2E2E2E2E2E2E2E2E2E2E2E2E2E2E2E2E2E2E2E2E2E2E2E2E2E2E2E2E2E2E2E2E2E2E2E2E2E2E2E2E2E2E2E2E2E2E2E2E2E2E2E2E2E2E2E2E2E2E2E2E2E2E2E2E2E2E2E2E2E2E2E2E2E2E2E2E2E2F5E2E2E2F5F5E2E2E2
310
F5E2E2E2E2E2E2E2E2E2E2E2E2E2E2E2E2E2E2E2E2E2E2E2E2E2E2E2E2E2E2E2E2E2E2E2E2E2E2E2E2E2E2E2E2E2E2E2E2E2E2E2E2E2E2E2E2E2E2E2E2E2E2E2E2E2E2E2E2E2E2E2E2E2E2E2E2E2E2E2E2E2E2E2E2E2E2E2E2E2E2E2E2E2E2E2E2E2E2E2E2E2E2E2E2E2E2E2E2E2E2E2E2E2E2E2E2E2E2E2E2E2E2E2E2E2E2
310
E2E2E2E2E2E2E2E2E2E2E2E2E2E2E2E2E2E2E2E2E2E2E2E2E2E2E2E2E2E2E2E2E2E2E2E2E2E2E2E2E2E2E2E2F5E2E2E2F5F5E2E2E2F5E2E2E2E2E2E2E2E2E2E2E2E2E2E2E2E2E2E2E2E2E2E2E2E2E2E2E2E2E2E2E2E2E2E2E2E2E2E2E2E2E2E2E2E2E2E2E2E2E2E2E2E2E2E2E2E2E2E2E2E2E2E2E2E2E2E2E2E2E2E2E2E2E2
310
E2E2E2E2E2E2E2E2E2E2E2E2E2E2E2E2E2E2E2E2E2E2E2E2E2E2E2E2E2E2E2E2E2E2E2E2E2E2E2E2E2E2E2E2E2E2E2E2E2E2E2E2E2E2E2E2E2E2E2E2E2E2E2E2E2E2E2E2E2E2E2E2E2E2E2E2E2E2E2E2E2E2E2E2E2E2E2E2E2E2E2E2E2E2E2E2E2F5E2E2E2F5F5E2E2E2F5E2E2E2E2E2E2E2E2E2E2E2E2E2E2E2E2E2E2E2E2
310
E2E2E2E2E2E2E2E2E2E2E2E2E2E2E2E2E2E2E2E2E2E2E2E2E2E2E2E2E2E2E2E2E2E2E2E2E2E2E2E2E2E2E2E2E2E2E2E2E2E2E2E2E2E2E2E2E2E2E2E2E2E2E2E2E2E2E2E2E2E2E2E2E2E2E2E2E2E2E2E2E2E2E2E2E2E2E2E2E2E2E2E2E2E2E2E2E2E2E2E2E2E2E2E2E2E2E2E2E2E2E2E2E2E2E2E2E2E2E2E2E2E2E2E2E2E2E2
310
E2E2E2E2E2E2E2E2E2E2E2E2E2E2E2E2E2E2E2E2E2E2E2F5E2E2E2F5F5E2E2E2E2E2E2E2E2E2E2E2E2E2E2E2E2E2E2E2E2E2E2E2E2E2E2E2E2E2E2E2E2E2E2E2E2E2E2E2E2E2E2E2E2E2E2E2E2E2E2E2E2E2E2E2E2E2E2E2E2E2E2E2E2E2E2E2E2E2E2E2E2E2E2E2E2E2E2E2E2E2E2E2E2E2E2E2E2E2E2E2E2E2E2E2E2E2E2
310
E2E2E2E2E2E2E2E2E2E2E2E2E2E2E2E2E2E2E2E2E2E2E2E2E2E2E2E2E2E2E2E2E2E2E2E2E2E2E2E2E2E2E2E2E2E2E2E2E2E2E2E2E2E2E2E2E2E2E2E2E2E2E2E2E2E2E2E2E2E2E2E2E2E2E2E2E2E2E2E2F5F5E2E2E2E2E2E2E2E2E2E2E2E2E2E2E2E2E2E2E2E2E2E2E2E2E2E2E2E2E2E2E2E2E2E2E2E2E2E2E2E2E2E2E2E2E2
310
E2E2E2E2E2E2E2E2E2E2E2E2E2E2E2E2E2E2E2E2E2E2E2E2E2E2E2E2E2E2E2E2E2E2E2E2E2E2E2E2E2E2E2E2E2E2E2E2E2E2E2E2E2E2E2E2E2E2E2E2E2E2E2E2E2E2E2E2E2E2E2E2E2E2E2E2E2E2E2E2E2E2E2E2E2E2E2E2E2E2E2E2E2E2E2E2E2E2E2E2E2E2E2E2E2E2E2E2E2E2E2E2E2E2E2E2E2E2E2E2E2E2E2E2E2E2E2
310
E2E2E2E2E2E2F5F5E2E2E2E2E2E2E2E2E2E2E2E2E2E2E2E2E2E2E2E2E2E2E2E2E2E2E2E2E2E2E2E2E2E2E2E2E2E2E2E2E2E2E2E2E2E2E2E2E2E2E2E2E2E2E2E2E2E2E2E2E2E2E2E2E2E2E2E2E2E2E2E2E2E2E2E2E2E2E2E2E2E2E2E2E2E2E2E2E2E2E2E2E2E2E2E2E2E2E2E2E2E2E2E2E2E2E2E2E2E2E2E2E2E2E2E2E2E2E2
310
E2E2E2E2E2E2E2E2E2E2E2E2E2E2E2E2E2E2E2E2E2E2E2E2E2E2E2E2E2E2E2E2E2E2E2E2E2E2E2E2E2E2E2E2E2E2E2E2E2E2E2E2E2E2E2E2E2E2E2F5F5E2E2E2E2E2E2E2E2E2E2E2E2E2E2E2E2E2E2E2E2E2E2E2E2E2E2E2E2E2E2E2E2E2E2E2E2E2E2E2E2E2E2E2E2E2E2E2E2E2E2E2E2E2E2E2E2E2E2E2E2E2E2E2E2E2E2
310
E2E2E2E2E2E2E2E2E2E2E2E2E2E2E2E2E2E2E2E2E2E2E2E2E2E2E2E2E2E2E2E2E2E2E2E2E2E2E2E2E2E2E2E2E2E2E2E2E2E2E2E2E2E2E2E2E2E2E2E2E2E2E2E2E2E2E2E2E2E2E2E2E2E2E2E2E2E2E2E2E2E2E2E2E2E2E2E2E2E2E2E2E2E2E2E2E2E2E2E2E2E2E2E2E2E2E2E2E2E2E2E2F5F5E2E2E2E2E2E2E2E2E2E2E2E2E2
310
E2E2E2E2E2E2E2F5F5F5F5F5F5F5F5F5F5F5F5F5F5F5F5F5F5F5F5F5F5F5F5F5F5F5F5F5F5F5F5F5F5F5F5F5F5F5F5F5F5F5F5F5F5F5F5F5F5F5F5F5F5F5F5F5F5F5F5F5F5F5F5F5F5F5F5F5F5F5F5F5F5F5F5F5F5F5F5F5F5F5F5F5F5F5F5F5F5F5F5F5F5F5F5F5F5F5F5F5F5F5F5F5F5F5F5F5F5F5F5F5F5F5F5F5F5F5F5
310
F5F5F5F5F5F5F5F5F5F5F5F5F5F5F5F5F5F5E2E2E2E2E2E2E2E2E2E2E2E2E2E2E2E2E2E2E2E2F5F5E2E2E2E2E2E2E2E2E2E2E2E2E2E2E2E2E2E2E2E2F5E2E2E2E2E2E2E2E2E2E2E2E2E2E2E2E2E2E2E2E2E2E2E2E2E2E2E2E2E2E2E2E2E2E2E2E2E2E2E2E2E2E2E2E2E2E2E2E2E2E2E2E2E2E2E2E2E2E2E2E2E2E2E2E2E2E2
310
E2E2E2E2E2E2E2E2E2E2E2E2E2E2E2E2E2E2E2E2E2E2E2E2E2E2E2E2E2E2E2E2E2E2E2E2E2E2E2E2E2E2E2E2E2E2E2E2E2E2E2E2E2E2E2E2E2E2E2E2E2E2E2E2E2E2E2E2E2E2F5E2E2E2E2E2E2E2E2E2E2E2E2E2E2E2E2E2E2E2E2F5F5E2E2E2E2E2E2E2E2E2E2E2E2E2E2E2E2E2E2E2E2F5E2E2E2E2E2E2E2E2E2E2E2E2E2
310
E2E2E2E2E2E2E2E2E2E2E2E2E2E2E2E2E2E2E2E2E2E2E2E2E2E2E2E2E2E2E2E2E2E2E2E2E2E2E2E2E2E2E2E2E2E2E2E2E2E2E2E2E2E2E2E2E2E2E2E2E2E2E2E2E2E2E2E2E2E2E2E2E2E2E2E2E2E2E2E2E2E2E2E2E2E2E2E2E2E2E2E2E2E2E2E2E2E2E2E2E2E2E2E2E2E2E2E2E2E2E2E2E2E2E2E2E2E2E2E2E2E2E2F5E2E2E2
310
E2E2E2E2E2E2E2E2E2E2E2E2E2E2E2E2E2F5F5E2E2E2E2E2E2E2E2E2E2E2E2E2E2E2E2E2E2E2E2F5E2E2E2E2E2E2E2E2E2E2E2E2E2E2E2E2E2E2E2E2E2E2E2E2E2E2E2E2E2E2E2E2E2E2E2E2E2E2E2E2E2E2E2E2E2E2E2E2E2E2E2E2E2E2E2E2E2E2E2E2E2E2E2E2E2E2E2E2E2E2E2E2E2E2E2E2E2E2E2E2E2E2E2E2E2E2E2
310
E2E2E2E2E2E2E2E2E2E2E2E2E2E2E2E2E2E2E2E2E2E2E2E2E2E2E2E2E2E2E2E2E2E2E2E2E2E2E2E2E2E2E2E2E2E2E2E2E2F5E2E2E2E2E2E2E2E2E2E2E2E2E2E2E2E2E2E2E2E2F5F5E2E2E2E2E2E2E2E2E2E2E2E2E2E2E2E2E2E2E2E2F5E2E2E2E2E2E2E2E2E2E2E2E2E2E2E2E2E2E2E2E2E2E2E2E2E2E2E2E2E2E2E2E2E2E2
310
E2E2E2E2E2E2E2E2E2E2E2E2E2E2E2E2E2E2E2E2E2E2E2E2E2E2E2E2E2E2E2E2E2E2E2E2E2E2E2E2E2E2E2E2E2E2E2E2E2E2E2E2E2E2E2E2E2E2E2E2E2E2E2E2E2E2E2E2E2E2E2E2E2E2E2E2E2E2E2E2E2E2E2E2E2E2E2E2E2E2E2E2E2E2E2E2E2E2E2E2E2E2F5E2E2E2E2E2E2E2E2E2E2E2E2E2E2E2E2E2E2E2E2F5F5E2E2
310
E2F5E2E2E2E2E2E2E2E2E2E2E2E2E2E2E2E2F5E2E2E2E2E2E2E2E2E2E2E2E2E2E2E2E2E2E2E2E2E2E2E2E2E2E2E2E2E2E2E2E2E2E2E2E2E2E2E2E2E2E2E2E2E2E2E2E2E2E2E2E2E2E2E2E2E2E2E2E2E2E2E2E2E2E2E2E2E2E2E2E2E2E2E2E2E2E2E2E2E2E2E2E2E2E2E2E2E2E2E2E2E2E2E2E2E2E2E2E2E2E2E2E2E2E2E2E2
310
E2E2E2E2E2E2E2E2E2E2E2E2E2E2E2E2E2E2E2E2E2E2E2E2E2E2E2E2F5E2E2E2E2E2E2E2E2E2E2E2E2E2E2E2E2F5E2E2E2F5F5E2E2E2F5E2E2E2E2E2E2E2E2E2E2E2E2E2E2E2E2F5E2E2E2E2E2E2E2E2E2E2E2E2E2E2E2E2E2E2E2E2E2E2E2E2E2E2E2E2E2E2E2E2E2E2E2E2E2E2E2E2E2E2E2E2E2E2E2E2E2E2E2E2E2E2E2
310
E2E2E2E2E2E2E2E2E2E2E2E2E2E2E2E2E2E2E2E2E2E2E2E2E2E2E2E2E2E2E2E2E2E2E2E2E2E2E2E2E2E2E2E2E2E2E2E2E2E2E2E2E2E2E2E2E2E2E2E2E2E2E2E2E2E2E2E2E2E2E2E2E2E2E2E2E2E2E2E2E2F5E2E2E2E2E2E2E2E2E2E2E2E2E2E2E2E2F5E2E2E2F5F5E2E2E2F5E2E2E2E2E2E2E2E2E2E2E2E2E2E2E2E2F5E2E2
310
E2E2E2E2E2E2E2E2E2E2E2E2E2E2E2E2E2E2E2E2E2E2E2E2E2E2E2E2E2E2E2E2E2E2E2E2E2E2E2E2E2E2E2E2E2E2E2E2E2E2E2E2E2E2E2E2E2E2E2E2E2E2E2E2E2E2E2E2E2E2E2E2E2E2E2E2E2E2E2E2E2E2E2E2E2E2E2E2E2E2E2E2E2E2E2E2E2E2E2E2E2E2E2E2E2E2E2E2E2E2E2E2E2E2E2E2E2E2E2E2E2E2E2E2E2E2E2
310
E2E2E2E2E2E2E2F5E2E2E2E2E2E2E2E2E2E2E2E2E2E2E2E2F5E2E2E2F5F5E2E2E2F5E2E2E2E2E2E2E2E2E2E2E2E2E2E2E2E2F5E2E2E2E2E2E2E2E2E2E2E2E2E2E2E2E2E2E2E2E2E2E2E2E2E2E2E2E2E2E2E2E2E2E2E2E2E2E2E2E2E2E2E2E2E2E2E2E2E2E2E2E2E2E2E2E2E2E2E2E2E2E2E2E2E2E2E2E2E2E2E2E2E2E2E2E2
310
E2E2E2E2E2E2E2E2E2E2E2E2E2E2E2E2E2E2E2E2E2E2E2E2E2E2E2E2E2E2E2E2E2E2E2E2E2E2E2E2E2E2E2E2E2E2E2E2E2E2E2E2E2E2E2E2E2E2E2E2F5E2E2E2E2E2E2E2E2E2E2E2E2E2E2E2E2F5E2E2E2F5F5E2E2E2F5E2E2E2E2E2E2E2E2E2E2E2E2E2E2E2E2F5E2E2E2E2E2E2E2E2E2E2E2E2E2E2E2E2E2E2E2E2E2E2E2
310
E2E2E2E2E2E2E2E2E2E2E2E2E2E2E2E2E2E2E2E2E2E2E2E2E2E2E2E2E2E2E2E2E2E2E2E2E2E2E2E2E2E2E2E2E2E2E2E2E2E2E2E2E2E2E2E2E2E2E2E2E2E2E2E2E2E2E2E2E2E2E2E2E2E2E2E2E2E2E2E2E2E2E2E2E2E2E2E2E2E2E2E2E2E2E2E2E2E2E2E2E2E2E2E2E2E2E2E2E2E2E2E2E2F5E2E2E2E2E2E2E2E2E2E2E2E2E2
310
E2E2E2F5E2E2E2F5F5E2E2E2F5E2E2E2E2E2E2E2E2E2E2E2E2E2E2E2E2F5E2E2E2E2E2E2E2E2E2E2E2E2E2E2E2E2E2E2E2E2E2E2E2E2E2E2E2E2E2E2E2E2E2E2E2E2E2E2E2E2E2E2E2E2E2E2E2E2E2E2E2E2E2E2E2E2E2E2E2E2E2E2E2E2E2E2E2E2E2E2E2E2E2E2E2E2E2E2E2E2E2E2E2E2E2E2E2E2E2E2E2E2E2E2E2E2E2
310
E2E2E2E2E2E2E2E2E2E2E2E2E2E2E2E2E2E2E2E2E2E2E2E2E2E2E2E2E2E2E2E2E2E2E2E2E2E2E2F5E2E2E2E2E2E2E2E2E2E2E2E2E2E2E2E2F5E2E2E2F5F5E2E2E2F5E2E2E2E2E2E2E2E2E2E2E2E2E2E2E2E2F5E2E2E2E2E2E2E2E2E2E2E2E2E2E2E2E2E2E2E2E2E2E2E2E2E2E2E2E2E2E2E2E2E2E2E2E2E2E2E2E2E2E2E2E2
310
E2E2E2E2E2E2E2E2E2E2E2E2E2E2E2E2E2E2E2E2E2E2E2E2E2E2E2E2E2E2E2E2E2E2E2E2E2E2E2E2E2E2E2E2E2E2E2E2E2E2E2E2E2E2E2E2E2E2E2E2E2E2E2E2E2E2E2E2E2E2E2E2E2E2E2E2E2E2E2E2E2E2E2E2E2E2E2E2E2E2E2E2F5E2E2E2E2E2E2E2E2E2E2E2E2E2E2E2E2F5E2E2E2F5F5E2E2E2F5E2E2E2E2E2E2E2E2
310
E2E2E2E2E2E2E2E2F5E2E2E2E2E2E2E2E2E2E2E2E2E2E2E2E2E2E2E2E2E2E2E2E2E2E2E2E2E2E2E2E2E2E2E2E2E2E2E2E2E2E2E2E2E2E2E2E2E2E2E2E2E2E2E2E2E2E2E2E2E2E2E2E2E2E2E2E2E2E2E2E2E2E2E2E2E2E2E2E2E2E2E2E2E2E2E2E2E2E2E2E2E2E2E2E2E2E2E2E2E2E2E2E2E2E2E2E2E2E2E2E2E2E2E2E2E2E2
310
E2E2E2E2E2E2E2E2E2E2E2E2E2E2E2E2E2E2F5E2E2E2E2E2E2E2E2E2E2E2E2E2E2E2E2F5E2E2E2F5F5E2E2E2F5E2E2E2E2E2E2E2E2E2E2E2E2E2E2E2E2F5E2E2E2E2E2E2E2E2E2E2E2E2E2E2E2E2E2E2E2E2E2E2E2E2E2E2E2E2E2E2E2E2E2E2E2E2E2E2E2E2E2E2E2E2E2E2E2E2E2E2E2E2E2E2E2E2E2E2E2E2E2E2E2E2E2
310
E2E2E2E2E2E2E2E2E2E2E2E2E2E2E2E2E2E2E2E2E2E2E2E2E2E2E2E2E2E2E2E2E2E2E2E2E2E2E2E2E2E2E2E2E2E2E2E2E2E2E2E2E2E2E2E2E2E2E2E2E2E2E2E2E2E2E2E2E2E2E2F5E2E2E2E2E2E2E2E2E2E2E2E2E2E2E2E2F5E2E2E2F5F5E2E2E2F5E2E2E2E2E2E2E2E2E2E2E2E2E2E2E2E2F5E2E2E2E2E2E2E2E2E2E2E2E2
310
E2E2E2E2E2E2E2E2E2E2E2E2E2E2E2E2E2E2E2E2E2E2E2E2E2E2E2E2E2E2E2E2E2E2E2E2E2E2E2E2E2E2E2E2E2E2E2E2E2E2E2E2E2E2E2E2E2E2E2E2E2E2E2E2E2E2E2E2E2E2E2E2E2E2E2E2E2E2E2E2E2E2E2E2E2E2E2E2E2E2E2E2E2E2E2E2E2E2E2E2E2E2E2E2E2E2E2E2E2E2E2E2E2E2E2E2E2E2E2E2E2E2E2E2F5E2E2
310
E2E2E2E2E2E2E2E2E2E2E2E2E2E2F5E2E2E2F5F5E2E2E2F5E2E2E2E2E2E2E2E2E2E2E2E2E2E2E2E2F5E2E2E2E2E2E2E2E2E2E2E2E2E2E2E2E2E2E2E2E2E2E2E2E2E2E2E2E2E2E2E2E2E2E2E2E2E2E2E2E2E2E2E2E2E2E2E2E2E2E2E2E2E2E2E2E2E2E2E2E2E2E2E2E2E2E2E2E2E2E2E2E2E2E2E2E2E2E2E2E2E2E2E2E2E2E2
310
E2E2E2E2E2E2E2E2E2E2E2E2E2E2E2E2E2E2E2E2E2E2E2E2E2E2E2E2E2E2E2E2E2E2E2E2E2E2E2E2E2E2E2E2E2E2E2E2E2E2F5E2E2E2E2E2E2E2E2E2E2E2E2E2E2E2E2F5E2E2E2F5F5E2E2E2F5E2E2E2E2E2E2E2E2E2E2E2E2E2E2E2E2F5E2E2E2E2E2E2E2E2E2E2E2E2E2E2E2E2E2E2E2E2E2E2E2E2E2E2E2E2E2E2E2E2E2
310
E2E2E2E2E2E2E2E2E2E2E2E2E2E2E2E2E2E2E2E2E2E2E2E2E2E2E2E2E2E2E2E2E2E2E2E2E2E2E2E2E2E2E2E2E2E2E2E2E2E2E2E2E2E2E2E2E2E2E2E2E2E2E2E2E2E2E2E2E2E2E2E2E2E2E2E2E2E2E2E2E2E2E2E2E2E2E2E2E2E2E2E2E2E2E2E2E2E2E2E2E2E2E2F5E2E2E2E2E2E2E2E2E2E2E2E2E2E2E2E2F5E2E2E2F5F5E2
310
E2E2F5E2E2E2E2E2E2E2E2E2E2E2E2E2E2E2E2F5E2E2E2E2E2E2E2E2E2E2E2E2E2E2E2E2E2E2E2E2E2E2E2E2E2E2E2E2E2E2E2E2E2E2E2E2E2E2E2E2E2E2E2E2E2E2E2E2E2E2E2E2E2E2E2E2E2E2E2E2E2E2E2E2E2E2E2E2E2E2E2E2E2E2E2E2E2E2E2E2E2E2E2E2E2E2E2E2E2E2E2E2E2E2E2E2E2E2E2E2E2E2E2E2E2E2E2
310
E2E2E2E2E2E2E2E2E2E2E2E2E2E2E2E2E2E2E2E2E2E2E2E2E2E2E2E2E2F5E2E2E2E2E2E2E2E2E2E2E2E2E2E2E2E2F5E2E2E2F5F5E2E2E2F5E2E2E2E2E2E2E2E2E2E2E2E2E2E2E2E2F5E2E2E2E2E2E2E2E2E2E2E2E2E2E2E2E2E2E2E2E2E2E2E2E2E2E2E2E2E2E2E2E2E2E2E2E2E2E2E2E2E2E2E2E2E2E2E2E2E2E2E2E2E2E2
310
E2E2E2E2E2E2E2E2E2E2E2E2E2E2E2E2E2E2E2E2E2E2E2E2E2E2E2E2E2E2E2E2E2E2E2E2E2E2E2E2E2E2E2E2E2E2E2E2E2E2E2E2E2E2E2E2E2E2E2E2E2E2E2E2E2E2E2E2E2E2E2E2E2E2E2E2E2E2E2E2E2E2F5E2E2E2E2E2E2E2E2E2E2E2E2E2E2E2E2F5E2E2E2F5F5E2E2E2F5E2E2E2E2E2E2E2E2E2E2E2E2E2E2E2E2F5E2
310
E2E2E2E2E2E2E2E2E2E2E2E2E2E2E2E2E2E2E2E2E2E2E2E2E2E2E2E2E2E2E2E2E2E2E2E2E2E2E2E2E2E2E2E2E2E2E2E2E2E2E2E2E2E2E2E2E2E2E2E2E2E2E2E2E2E2E2E2E2E2E2E2E2E2E2E2E2E2E2E2E2E2E2E2E2E2E2E2E2E2E2E2E2E2E2E2E2E2E2E2E2E2E2E2E2E2E2E2E2E2E2E2E2E2E2E2E2E2E2E2E2E2E2E2E2E2E2
310
E2E2E2E2E2E2E2E2F5E2E2E2E2E2E2E2E2E2E2E2E2E2E2E2E2F5E2E2E2F5F5E2E2E2F5E2E2E2E2E2E2E2E2E2E2E2E2E2E2E2E2F5E2E2E2E2E2E2E2E2E2E2E2E2E2E2E2E2E2E2E2E2E2E2E2E2E2E2E2E2E2E2E2E2E2E2E2E2E2E2E2E2E2E2E2E2E2E2E2E2E2E2E2E2E2E2E2E2E2E2E2E2E2E2E2E2E2E2E2E2E2E2E2E2E2E2E2
310
E2E2E2E2E2E2E2E2E2E2E2E2E2E2E2E2E2E2E2E2E2E2E2E2E2E2E2E2E2E2E2E2E2E2E2E2E2E2E2E2E2E2E2E2E2E2E2E2E2E2E2E2E2E2E2E2E2E2E2E2E2F5E2E2E2E2E2E2E2E2E2E2E2E2E2E2E2E2F5E2E2E2F5F5E2E2E2F5E2E2E2E2E2E2E2E2E2E2E2E2E2E2E2E2F5E2E2E2E2E2E2E2E2E2E2E2E2E2E2E2E2E2E2E2E2E2E2
310
E2E2E2E2E2E2E2E2E2E2E2E2E2E2E2E2E2E2E2E2E2E2E2E2E2E2E2E2E2E2E2E2E2E2E2E2E2E2E2E2E2E2E2E2E2E2E2E2E2E2E2E2E2E2E2E2E2E2E2E2E2E2E2E2E2E2E2E2E2E2E2E2E2E2E2E2E2E2E2E2E2E2E2E2E2E2E2E2E2E2E2E2E2E2E2E2E2E2E2E2E2E2E2E2E2E2E2E2E2E2E2E2E2E2F5E2E2E2E2E2E2E2E2E2E2E2E2
310
E2E2E2E2F5E2E2E2F5F5E2E2E2E2E2E2E2E2E2E2E2E2E2E2E2E2E2E2E2E2F5E2E2E2E2E2E2E2E2E2E2E2E2E2E2E2E2E2E2E2E2E2E2E2E2E2E2E2E2E2E2E2E2E2E2E2E2E2E2E2E2E2E2E2E2E2E2E2E2E2E2E2E2E2E2E2E2E2E2E2E2E2E2E2E2E2E2E2E2E2E2E2E2E2E2E2E2E2E2E2E2E2E2E2E2E2E2E2E2E2E2E2E2E2E2E2E2
310
E2E2E2E2E2E2E2E2E2E2E2E2E2E2E2E2E2E2E2E2E2E2E2E2E2E2E2E2E2E2E2E2E2E2E2E2E2E2E2E2F5E2E2E2E2E2E2E2E2E2E2E2E2E2E2E2E2E2E2E2E2F5F5E2E2E2E2E2E2E2E2E2E2E2E2E2E2E2E2E2E2E2E2F5E2E2E2E2E2E2E2E2E2E2E2E2E2E2E2E2E2E2E2E2E2E2E2E2E2E2E2E2E2E2E2E2E2E2E2E2E2E2E2E2E2E2E2
310
E2E2E2E2E2E2E2E2E2E2E2E2E2E2E2E2E2E2E2E2E2E2E2E2E2E2E2E2E2E2E2E2E2E2E2E2E2E2E2E2E2E2E2E2E2E2E2E2E2E2E2E2E2E2E2E2E2E2E2E2E2E2E2E2E2E2E2E2E2E2E2E2E2E2E2E2E2E2E2E2E2E2E2E2E2E2E2E2E2E2E2E2E2F5E2E2E2E2E2E2E2E2E2E2E2E2E2E2E2E2E2E2E2E2F5F5E2E2E2E2E2E2E2E2E2E2E2
310
E2E2E2E2E2E2E2E2E2F5E2E2E2E2E2E2E2E2E2E2E2E2E2E2E2E2E2E2E2E2E2E2E2E2E2E2E2E2E2E2E2E2E2E2E2E2E2E2E2E2E2E2E2E2E2E2E2E2E2E2E2E2E2E2E2E2E2E2E2E2E2E2E2E2E2E2E2E2E2E2E2E2E2E2E2E2E2E2E2E2E2E2E2E2E2E2E2E2E2E2E2E2E2E2E2E2E2E2E2E2E2E2E2E2E2E2E2E2E2E2E2E2E2E2E2E2E2
310
E2E2E2E2E2E2E2E2E2E2E2E2E2E2E2E2E2E2E2F5E2E2E2E2E2E2E2E2E2E2E2E2E2E2E2E2E2E2E2E2F5F5E2E2E2E2E2E2E2E2E2E2E2E2E2E2E2E2E2E2E2E2F5E2E2E2E2E2E2E2E2E2E2E2E2E2E2E2E2E2E2E2E2E2E2E2E2E2E2E2E2E2E2E2E2E2E2E2E2E2E2E2E2E2E2E2E2E2E2E2E2E2E2E2E2E2E2E2E2E2E2E2E2E2E2E2E2
310
E2E2E2E2E2E2E2E2E2E2E2E2E2E2E2E2E2E2E2E2E2E2E2E2E2E2E2E2E2E2E2E2E2E2E2E2E2E2E2E2E2E2E2E2E2E2E2E2E2E2E2E2E2E2E2E2E2E2E2E2E2E2E2E2E2E2E2E2E2E2E2E2F5E2E2E2E2E2E2E2E2E2E2E2E2E2E2E2E2E2E2E2E2F5F5E2E2E2E2E2E2E2E2E2E2E2E2E2E2E2E2E2E2E2E2F5E2E2E2E2E2E2E2E2E2E2E2
310
E2E2E2E2E2E2E2E2E2E2E2E2E2E2E2E2E2E2E2E2E2E2E2E2E2E2E2E2E2E2E2E2E2E2E2E2E2E2E2E2E2E2E2E2E2E2E2E2E2E2E2E2E2E2E2E2E2E2E2E2E2E2E2E2E2E2E2E2E2E2E2E2E2E2E2E2E2E2E2E2E2E2E2E2E2E2E2E2E2E2E2E2E2E2E2E2E2E2E2E2E2E2E2E2E2E2E2E2E2E2E2E2E2E2E2E2E2E2E2E2E2E2E2E2E2F5E2
310
E2E2E2E2E2E2E2E2E2E2E2E2E2E2E2E2E2E2E2F5F5E2E2E2E2E2E2E2E2E2E2E2E2E2E2E2E2E2E2E2E2F5E2E2E2E2E2E2E2E2E2E2E2E2E2E2E2E2E2E2E2E2E2E2E2E2E2E2E2E2E2E2E2E2E2E2E2E2E2E2E2E2E2E2E2E2E2E2E2E2E2E2E2E2E2E2E2E2E2E2E2E2E2E2E2E2E2E2E2E2E2E2E2E2E2E2E2E2E2E2E2E2E2E2E2E2E2
310
E2E2E2E2E2E2E2E2E2E2E2E2E2E2E2E2E2E2E2E2E2E2E2E2E2E2E2E2E2E2E2E2E2E2E2E2E2E2E2E2E2E2E2E2E2E2E2E2E2E2E2F5E2E2E2E2E2E2E2E2E2E2E2E2E2E2E2E2E2E2E2E2F5F5E2E2E2E2E2E2E2E2E2E2E2E2E2E2E2E2E2E2E2E2F5E2E2E2E2E2E2E2E2E2E2E2E2E2E2E2E2E2E2E2E2E2E2E2E2E2E2E2E2E2E2E2E2
310
E2E2E2E2E2E2E2E2E2E2E2E2E2E2E2E2E2E2E2E2E2E2E2E2E2E2E2E2E2E2E2E2E2E2E2E2E2E2E2E2E2E2E2E2E2E2E2E2E2E2E2E2E2E2E2E2E2E2E2E2E2E2E2E2E2E2E2E2E2E2E2E2E2E2E2E2E2E2E2E2E2E2E2E2E2E2E2E2E2E2E2E2E2E2E2E2E2E2E2E2E2E2E2E2F5E2E2E2E2E2E2E2E2E2E2E2E2E2E2E2E2E2E2E2E2F5F5
310
E2E2E2E2E2E2E2E2E2E2E2E2E2E2E2E2E2E2E2E2F5E2E2E2E2E2E2E2E2E2E2E2E2E2E2E2E2E2E2E2E2E2E2E2E2E2E2E2E2E2E2E2E2E2E2E2E2E2E2E2E2E2E2E2E2E2E2E2E2E2E2E2E2E2E2E2E2E2E2E2E2E2E2E2E2E2E2E2E2E2E2E2E2E2E2E2E2E2E2E2E2E2E2E2E2E2E2E2E2E2E2E2E2E2E2E2E2E2E2E2E2E2E2E2E2E2E2
310
E2E2E2E2E2E2E2E2E2E2E2E2E2E2E2E2E2E2E2E2E2E2E2E2E2E2E2E2E2E2F5E2E2E2E2E2E2E2E2E2E2E2E2E2E2E2E2E2E2E2E2F5F5E2E2E2E2E2E2E2E2E2E2E2E2E2E2E2E2E2E2E2E2F5E2E2E2E2E2E2E2E2E2E2E2E2E2E2E2E2E2E2E2E2E2E2E2E2E2E2E2E2E2E2E2E2E2E2E2E2E2E2E2E2E2E2E2E2E2E2E2E2E2E2E2E2E2
310
E2E2E2E2E2E2E2E2E2E2E2E2E2E2E2E2E2E2E2E2E2E2E2E2E2E2E2E2E2E2E2E2E2E2E2E2E2E2E2E2E2E2E2E2E2E2E2E2E2E2E2E2E2E2E2E2E2E2E2E2E2E2E2E2E2E2E2E2E2E2E2E2E2E2E2E2E2E2E2E2E2E2E2F5E2E2E2E2E2E2E2E2E2E2E2E2E2E2E2E2E2E2E2E2F5F5E2E2E2F5E2E2E2E2E2E2E2E2E2E2E2E2E2E2E2E2F5
310
E2E2E2E2E2E2E2E2E2E2E2E2E2E2E2E2E2E2E2E2E2E2E2E2E2E2E2E2E2E2E2E2E2E2E2E2E2E2E2E2E2E2E2E2E2E2E2E2E2E2E2E2E2E2E2E2E2E2E2E2E2E2E2E2E2E2E2E2E2E2E2E2E2E2E2E2E2E2E2E2E2E2E2E2E2E2E2E2E2E2E2E2E2E2E2E2E2E2E2E2E2E2E2E2E2E2E2E2E2E2E2E2E2E2E2E2E2E2E2E2E2E2E2E2E2E2E2
310
E2E2E2E2E2E2E2E2E2F5E2E2E2E2E2E2E2E2E2E2E2E2E2E2E2E2F5E2E2E2F5F5E2E2E2F5E2E2E2E2E2E2E2E2E2E2E2E2E2E2E2E2F5E2E2E2E2E2E2E2E2E2E2E2E2E2E2E2E2E2E2E2E2E2E2E2E2E2E2E2E2E2E2E2E2E2E2E2E2E2E2E2E2E2E2E2E2E2E2E2E2E2E2E2E2E2E2E2E2E2E2E2E2E2E2E2E2E2E2E2E2E2E2E2E2E2E2
310
E2E2E2E2E2E2E2E2E2E2E2E2E2E2E2E2E2E2E2E2E2E2E2E2E2E2E2E2E2E2E2E2E2E2E2E2E2E2E2E2E2E2E2E2E2E2E2E2E2E2E2E2E2E2E2E2E2E2E2E2E2E2F5E2E2E2E2E2E2E2E2E2E2E2E2E2E2E2E2F5E2E2E2F5F5E2E2E2F5E2E2E2E2E2E2E2E2E2E2E2E2E2E2E2E2F5E2E2E2E2E2E2E2E2E2E2E2E2E2E2E2E2E2E2E2E2E2
310
E2E2E2E2E2E2E2E2E2E2E2E2E2E2E2E2E2E2E2E2E2E2E2E2E2E2E2E2E2E2E2E2E2E2E2E2E2E2E2E2E2E2E2E2E2E2E2E2E2E2E2E2E2E2E2E2E2E2E2E2E2E2E2E2E2E2E2E2E2E2E2E2E2E2E2E2E2E2E2E2E2E2E2E2E2E2E2E2E2E2E2E2E2E2E2E2E2E2E2E2E2E2E2E2E2E2E2E2E2E2E2E2E2E2E2F5E2E2E2E2E2E2E2E2E2E2E2
310
E2E2E2E2E2F5E2E2E2F5F5E2E2E2F5E2E2E2E2E2E2E2E2E2E2E2E2E2E2E2E2F5E2E2E2E2E2E2E2E2E2E2E2E2E2E2E2E2E2E2E2E2E2E2E2E2E2E2E2E2E2E2E2E2E2E2E2E2E2E2E2E2E2E2E2E2E2E2E2E2E2E2E2E2E2E2E2E2E2E2E2E2E2E2E2E2E2E2E2E2E2E2E2E2E2E2E2E2E2E2E2E2E2E2E2E2E2E2E2E2E2E2E2E2E2E2E2
310
E2E2E2E2E2E2E2E2E2E2E2E2E2E2E2E2E2E2E2E2E2E2E2E2E2E2E2E2E2E2E2E2E2E2E2E2E2E2E2E2E2F5E2E2E2E2E2E2E2E2E2E2E2E2E2E2E2E2F5E2E2E2F5F5E2E2E2F5E2E2E2E2E2E2E2E2E2E2E2E2E2E2E2E2F5E2E2E2E2E2E2E2E2E2E2E2E2E2E2E2E2E2E2E2E2E2E2E2E2E2E2E2E2E2E2E2E2E2E2E2E2E2E2E2E2E2E2
310
E2E2E2E2E2E2E2E2E2E2E2E2E2E2E2E2E2E2E2E2E2E2E2E2E2E2E2E2E2E2E2E2E2E2E2E2E2E2E2E2E2E2E2E2E2E2E2E2E2E2E2E2E2E2E2E2E2E2E2E2E2E2E2E2E2E2E2E2E2E2E2E2E2E2E2E2E2E2E2E2E2E2E2E2E2E2E2E2E2E2E2E2E2E2F5E2E2E2E2E2E2E2E2E2E2E2E2E2E2E2E2F5E2E2E2F5F5E2E2E2F5E2E2E2E2E2E2
310
E2E2E2E2E2E2E2E2E2E2F5E2E2E2E2E2E2E2E2E2E2E2E2E2E2E2E2E2E2E2E2E2E2E2E2E2E2E2E2E2E2E2E2E2E2E2E2E2E2E2E2E2E2E2E2E2E2E2E2E2E2E2E2E2E2E2E2E2E2E2E2E2E2E2E2E2E2E2E2E2E2E2E2E2E2E2E2E2E2E2E2E2E2E2E2E2E2E2E2E2E2E2E2E2E2E2E2E2E2E2E2E2E2E2E2E2E2E2E2E2E2E2E2E2E2E2E2
310
E2E2E2E2E2E2E2E2E2E2E2E2E2E2E2E2E2E2E2E2F5E2E2E2E2E2E2E2E2E2E2E2E2E2E2E2E2F5E2E2E2F5F5E2E2E2F5E2E2E2E2E2E2E2E2E2E2E2E2E2E2E2E2F5E2E2E2E2E2E2E2E2E2E2E2E2E2E2E2E2E2E2E2E2E2E2E2E2E2E2E2E2E2E2E2E2E2E2E2E2E2E2E2E2E2E2E2E2E2E2E2E2E2E2E2E2E2E2E2E2E2E2E2E2E2E2E2
310
E2E2E2E2E2E2E2E2E2E2E2E2E2E2E2E2E2E2E2E2E2E2E2E2E2E2E2E2E2E2E2E2E2E2E2E2E2E2E2E2E2E2E2E2E2E2E2E2E2E2E2E2E2E2E2E2E2E2E2E2E2E2E2E2E2E2E2E2E2E2E2E2E2F5E2E2E2E2E2E2E2E2E2E2E2E2E2E2E2E2F5E2E2E2F5F5E2E2E2F5E2E2E2E2E2E2E2E2E2E2E2E2E2E2E2E2F5E2E2E2E2E2E2E2E2E2E2
310
E2E2E2E2E2E2E2E2E2E2E2E2E2E2E2E2E2E2E2E2E2E2E2E2E2E2E2E2E2E2E2E2E2E2E2E2E2E2E2E2E2E2E2E2E2E2E2E2E2E2E2E2E2E2E2E2E2E2E2E2E2E2E2E2E2E2E2E2E2E2E2E2E2E2E2E2E2E2E2E2E2E2E2E2E2E2E2E2E2E2E2E2E2E2E2E2E2E2E2E2E2E2E2E2E2E2E2E2E2E2E2E2E2E2E2E2E2E2E2E2E2E2E2E2E2E2F5
310
E2E2E2E2E2E2E2E2E2E2E2E2E2E2E2E2F5E2E2E2F5F5E2E2E2F5E2E2E2E2E2E2E2E2E2E2E2E2E2E2E2E2F5E2E2E2E2E2E2E2E2E2E2E2E2E2E2E2E2E2E2E2E2E2E2E2E2E2E2E2E2E2E2E2E2E2E2E2E2E2E2E2E2E2E2E2E2E2E2E2E2E2E2E2E2E2E2E2E2E2E2E2E2E2E2E2E2E2E2E2E2E2E2E2E2E2E2E2E2E2E2E2E2E2E2E2E2
310
E2E2E2E2E2E2E2E2E2E2E2E2E2E2E2E2E2E2E2E2E2E2E2E2E2E2E2E2E2E2E2E2E2E2E2E2E2E2E2E2E2E2E2E2E2E2E2E2E2E2E2E2F5E2E2E2E2E2E2E2E2E2E2E2E2E2E2E2E2F5E2E2E2F5F5E2E2E2F5E2E2E2E2E2E2E2E2E2E2E2E2E2E2E2E2F5E2E2E2E2E2E2E2E2E2E2E2E2E2E2E2E2E2E2E2E2E2E2E2E2E2E2E2E2E2E2E2
310
E2E2E2E2E2E2E2E2E2E2E2E2E2E2E2E2E2E2E2E2E2E2E2E2E2E2E2E2E2E2E2E2E2E2E2E2E2E2E2E2E2E2E2E2E2E2E2E2E2E2E2E2E2E2E2E2E2E2E2E2E2E2E2E2E2E2E2E2E2E2E2E2E2E2E2E2E2E2E2E2E2E2E2E2E2E2E2E2E2E2E2E2E2E2E2E2E2E2E2E2E2E2E2E2E2F5E2E2E2E2E2E2E2E2E2E2E2E2E2E2E2E2F5E2E2E2F5
310
F5E2E2E2F5E2E2E2E2E2E2E2E2E2E2E2E2E2E2E2E2F5E2E2E2E2E2E2E2E2E2E2E2E2E2E2E2E2E2E2E2E2E2E2E2E2E2E2E2E2E2E2E2E2E2E2E2E2E2E2E2E2E2E2E2E2E2E2E2E2E2E2E2E2E2E2E2E2E2E2E2E2E2E2E2E2E2E2E2E2E2E2E2E2E2E2E2E2E2E2E2E2E2E2E2E2E2E2E2E2E2E2E2E2E2E2E2E2E2E2E2E2E2E2E2E2E2
310
E2E2E2E2E2E2E2E2E2E2E2E2E2E2E2E2E2E2E2E2E2E2E2E2E2E2E2E2E2E2E2F5E2E2E2E2E2E2E2E2E2E2E2E2E2E2E2E2F5E2E2E2F5F5E2E2E2F5E2E2E2E2E2E2E2E2E2E2E2E2E2E2E2E2F5E2E2E2E2E2E2E2E2E2E2E2E2E2E2E2E2E2E2E2E2E2E2E2E2E2E2E2E2E2E2E2E2E2E2E2E2E2E2E2E2E2E2E2E2E2E2E2E2E2E2E2E2
310
E2E2E2E2E2E2E2E2E2E2E2E2E2E2E2E2E2E2E2E2E2E2E2E2E2E2E2E2E2E2E2E2E2E2E2E2E2E2E2E2E2E2E2E2E2E2E2E2E2E2E2E2E2E2E2E2E2E2E2E2E2E2E2E2E2E2E2E2E2E2E2E2E2E2E2E2E2E2E2E2E2E2E2E2F5E2E2E2E2E2E2E2E2E2E2E2E2E2E2E2E2F5E2E2E2F5F5E2E2E2F5E2E2E2E2E2E2E2E2E2E2E2E2E2E2E2E2
310
F5E2E2E2E2E2E2E2E2E2E2E2E2E2E2E2E2E2E2E2E2E2E2E2E2E2E2E2E2E2E2E2E2E2E2E2E2E2E2E2E2E2E2E2E2E2E2E2E2E2E2E2E2E2E2E2E2E2E2E2E2E2E2E2E2E2E2E2E2E2E2E2E2E2E2E2E2E2E2E2E2E2E2E2E2E2E2E2E2E2E2E2E2E2E2E2E2E2E2E2E2E2E2E2E2E2E2E2E2E2E2E2E2E2E2E2E2E2E2E2E2E2E2E2E2E2E2
310
E2E2E2E2E2E2E2E2E2E2F5E2E2E2E2E2E2E2E2E2E2E2E2E2E2E2E2F5E2E2E2F5F5E2E2E2F5E2E2E2E2E2E2E2E2E2E2E2E2E2E2E2E2F5E2E2E2E2E2E2E2E2E2E2E2E2E2E2E2E2E2E2E2E2E2E2E2E2E2E2E2E2E2E2E2E2E2E2E2E2E2E2E2E2E2E2E2E2E2E2E2E2E2E2E2E2E2E2E2E2E2E2E2E2E2E2E2E2E2E2E2E2E2E2E2E2E2
310
E2E2E2E2E2E2E2E2E2E2E2E2E2E2E2E2E2E2E2E2E2E2E2E2E2E2E2E2E2E2E2E2E2E2E2E2E2E2E2E2E2E2E2E2E2E2E2E2E2E2E2E2E2E2E2E2E2E2E2E2E2E2E2F5E2E2E2E2E2E2E2E2E2E2E2E2E2E2E2E2F5E2E2E2F5F5E2E2E2F5E2E2E2E2E2E2E2E2E2E2E2E2E2E2E2E2F5E2E2E2E2E2E2E2E2E2E2E2E2E2E2E2E2E2E2E2E2
310
E2E2E2E2E2E2E2E2E2E2E2E2E2E2E2E2E2E2E2E2E2E2E2E2E2E2E2E2E2E2E2E2E2E2E2E2E2E2E2E2E2E2E2E2E2E2E2E2E2E2E2E2E2E2E2E2E2E2E2E2E2E2E2E2E2E2E2E2E2E2E2E2E2E2E2E2E2E2E2E2E2E2E2E2E2E2E2E2E2E2E2E2E2E2E2E2E2E2E2E2E2E2E2E2E2E2E2E2E2E2E2E2E2E2E2E2F5E2E2E2E2E2E2E2E2E2E2
310
E2E2E2E2E2E2F5E2E2E2F5F5E2E2E2F5E2E2E2E2E2E2E2E2E2E2E2E2E2E2E2E2F5E2E2E2E2E2E2E2E2E2E2E2E2E2E2E2E2E2E2E2E2E2E2E2E2E2E2E2E2E2E2E2E2E2E2E2E2E2E2E2E2E2E2E2E2E2E2E2E2E2E2E2E2E2E2E2E2E2E2E2E2E2E2E2E2E2E2E2E2E2E2E2E2E2E2E2E2E2E2E2E2E2E2E2E2E2E2E2E2E2E2E2E2E2E2
310
E2E2E2E2E2E2E2E2E2E2E2E2E2E2E2E2E2E2E2E2E2E2E2E2E2E2E2E2E2E2E2E2E2E2E2E2E2E2E2E2E2E2F5E2E2E2E2E2E2E2E2E2E2E2E2E2E2E2E2F5E2E2E2F5F5E2E2E2E2E2E2E2E2E2E2E2E2E2E2E2E2E2E2E2E2F5E2E2E2E2E2E2E2E2E2E2E2E2E2E2E2E2E2E2E2E2E2E2E2E2E2E2E2E2E2E2E2E2E2E2E2E2E2E2E2E2E2
310
E2E2E2E2E2E2E2E2E2E2E2E2E2E2E2E2E2E2E2E2E2E2E2E2E2E2E2E2E2E2E2E2E2E2E2E2E2E2E2E2E2E2E2E2E2E2E2E2E2E2E2E2E2E2E2E2E2E2E2E2E2E2E2E2E2E2E2E2E2E2E2E2E2E2E2E2E2E2E2E2E2E2E2E2E2E2E2E2E2E2E2E2E2E2E2F5E2E2E2E2E2E2E2E2E2E2E2E2E2E2E2E2E2E2E2E2F5F5E2E2E2E2E2E2E2E2E2
310
E2E2E2E2E2E2E2E2E2E2E2F5E2E2E2E2E2E2E2E2E2E2E2E2E2E2E2E2E2E2E2E2E2E2E2E2E2E2E2E2E2E2E2E2E2E2E2E2E2E2E2E2E2E2E2E2E2E2E2E2E2E2E2E2E2E2E2E2E2E2E2E2E2E2E2E2E2E2E2E2E2E2E2E2E2E2E2E2E2E2E2E2E2E2E2E2E2E2E2E2E2E2E2E2E2E2E2E2E2E2E2E2E2E2E2E2E2E2E2E2E2E2E2E2E2E2E2
310
E2E2E2E2E2E2E2E2E2E2E2E2E2E2E2E2E2E2E2E2E2F5E2E2E2E2E2E2E2E2E2E2E2E2E2E2E2E2E2E2E2E2F5F5E2E2E2E2E2E2E2E2E2E2E2E2E2E2E2E2E2E2E2E2F5E2E2E2E2E2E2E2E2E2E2E2E2E2E2E2E2E2E2E2E2E2E2E2E2E2E2E2E2E2E2E2E2E2E2E2E2E2E2E2E2E2E2E2E2E2E2E2E2E2E2E2E2E2E2E2E2E2E2E2E2E2E2
310
E2E2E2E2E2E2E2E2E2E2E2E2E2E2E2E2E2E2E2E2E2E2E2E2E2E2E2E2E2E2E2E2E2E2E2E2E2E2E2E2E2E2E2E2E2E2E2E2E2E2E2E2E2E2E2E2E2E2E2E2E2E2E2E2E2E2E2E2E2E2E2E2E2E2F5E2E2E2E2E2E2E2E2E2E2E2E2E2E2E2E2E2E2E2E2F5F5E2E2E2E2E2E2E2E2E2E2E2E2E2E2E2E2E2E2E2E2F5E2E2E2E2E2E2E2E2E2
310
E2E2E2E2E2E2E2E2E2E2E2E2E2E2E2E2E2E2E2E2E2E2E2E2E2E2E2E2E2E2E2E2E2E2E2E2E2E2E2E2E2E2E2E2E2E2E2E2E2E2E2E2E2E2E2E2E2E2E2E2E2E2E2E2E2E2E2E2E2E2E2E2E2E2E2E2E2E2E2E2E2E2E2E2E2E2E2E2E2E2E2E2E2E2E2E2E2E2E2E2E2E2E2E2E2E2E2E2E2E2E2E2E2E2E2E2E2E2E2E2E2E2E2E2E2E2E2
310
F5E2E2E2E2E2E2E2E2E2E2E2E2E2E2E2E2E2E2E2E2F5F5E2E2E2E2E2E2E2E2E2E2E2E2E2E2E2E2E2E2E2E2F5E2E2E2E2E2E2E2E2E2E2E2E2E2E2E2E2E2E2E2E2E2E2E2E2E2E2E2E2E2E2E2E2E2E2E2E2E2E2E2E2E2E2E2E2E2E2E2E2E2E2E2E2E2E2E2E2E2E2E2E2E2E2E2E2E2E2E2E2E2E2E2E2E2E2E2E2E2E2E2E2E2E2E2
310
E2E2E2E2E2E2E2E2E2E2E2E2E2E2E2E2E2E2E2E2E2E2E2E2E2E2E2E2E2E2E2E2E2E2E2E2E2E2E2E2E2E2E2E2E2E2E2E2E2E2E2E2E2F5E2E2E2E2E2E2E2E2E2E2E2E2E2E2E2E2E2E2E2E2F5F5E2E2E2E2E2E2E2E2E2E2E2E2E2E2E2E2E2E2E2E2F5E2E2E2E2E2E2E2E2E2E2E2E2E2E2E2E2E2E2E2E2E2E2E2E2E2E2E2E2E2E2
310
E2E2E2E2E2E2E2E2E2E2E2E2E2E2E2E2E2E2E2E2E2E2E2E2E2E2E2E2E2E2E2E2E2E2E2E2E2E2E2E2E2E2E2E2E2E2E2E2E2E2E2E2E2E2E2E2E2E2E2E2E2E2E2E2E2E2E2E2E2E2E2E2E2E2E2E2E2E2E2E2E2E2E2E2E2E2E2E2E2E2E2E2E2E2E2E2E2E2E2E2E2E2E2E2E2E2F5E2E2E2E2E2E2E2E2E2E2E2E2E2E2E2E2E2E2E2E2
310
F5F5E2E2E2E2E2E2E2E2E2E2E2E2E2E2E2E2E2E2E2E2F5E2E2E2E2E2E2E2E2E2E2E2E2E2E2E2E2E2E2E2E2E2E2E2E2E2E2E2E2E2E2E2E2E2E2E2E2E2E2E2E2E2E2E2E2E2E2E2E2E2E2E2E2E2E2E2E2E2E2E2E2E2E2E2E2E2E2E2E2E2E2E2E2E2E2E2E2E2E2E2E2E2E2E2E2E2E2E2E2E2E2E2E2E2E2E2E2E2E2E2E2E2E2E2E2
310
E2E2E2E2E2E2E2E2E2E2E2E2E2E2E2E2E2E2E2E2E2E2E2E2E2E2E2E2E2E2E2E2F5E2E2E2E2E2E2E2E2E2E2E2E2E2E2E2E2E2E2E2E2F5F5E2E2E2E2E2E2E2E2E2E2E2E2E2E2E2E2E2E2E2E2F5E2E2E2E2E2E2E2E2E2E2E2E2E2E2E2E2E2E2E2E2E2E2E2E2E2E2E2E2E2E2E2E2E2E2E2E2E2E2E2E2E2E2E2E2E2E2E2E2E2E2E2
310
E2E2E2E2E2E2E2E2E2E2E2E2E2E2E2E2E2E2E2E2E2E2E2E2E2E2E2E2E2E2E2E2E2E2E2E2E2E2E2E2E2E2E2E2E2E2E2E2E2E2E2E2E2E2E2E2E2E2E2E2E2E2E2E2E2E2E2E2E2E2E2E2E2E2E2E2E2E2E2E2E2E2E2E2E2F5E2E2E2E2E2E2E2E2E2E2E2E2E2E2E2E2E2E2E2E2F5F5E2E2E2E2E2E2E2E2E2E2E2E2E2E2E2E2E2E2E2
310
E2F5E2E2E2E2E2E2E2E2E2E2E2E2E2E2E2E2E2E2E2E2E2E2E2E2E2E2E2E2E2E2E2E2E2E2E2E2E2E2E2E2E2E2E2E2E2E2E2E2E2E2E2E2E2E2E2E2E2E2E2E2E2E2E2E2E2E2E2E2E2E2E2E2E2E2E2E2E2E2E2E2E2E2E2E2E2E2E2E2E2E2E2E2E2E2E2E2E2E2E2E2E2E2E2E2E2E2E2E2E2E2E2E2E2E2E2E2E2E2E2E2E2E2E2E2E2
310
E2E2E2E2E2E2E2E2E2E2E2F5E2E2E2E2E2E2E2E2E2E2E2E2E2E2E2E2E2E2E2E2F5F5E2E2E2E2E2E2E2E2E2E2E2E2E2E2E2E2E2E2E2E2F5E2E2E2E2E2E2E2E2E2E2E2E2E2E2E2E2E2E2E2E2E2E2E2E2E2E2E2E2E2E2E2E2E2E2E2E2E2E2E2E2E2E2E2E2E2E2E2E2E2E2E2E2E2E2E2E2E2E2E2E2E2E2E2E2E2E2E2E2E2E2E2E2
310
E2E2E2E2E2E2E2E2E2E2E2E2E2E2E2E2E2E2E2E2E2E2E2E2E2E2E2E2E2E2E2E2E2E2E2E2E2E2E2E2E2E2E2E2E2E2E2E2E2E2E2E2E2E2E2E2E2E2E2E2E2E2E2E2F5E2E2E2E2E2E2E2E2E2E2E2E2E2E2E2E2E2E2E2E2F5F5E2E2E2F5E2E2E2E2E2E2E2E2E2E2E2E2E2E2E2E2F5E2E2E2E2E2E2E2E2E2E2E2E2E2E2E2E2E2E2E2
310
E2E2E2E2E2E2E2E2E2E2E2E2E2E2E2E2E2E2E2E2E2E2E2E2E2E2E2E2E2E2E2E2E2E2E2E2E2E2E2E2E2E2E2E2E2E2E2E2E2E2E2E2E2E2E2E2E2E2E2E2E2E2E2E2E2E2E2E2E2E2E2E2E2E2E2E2E2E2E2E2E2E2E2E2E2E2E2E2E2E2E2E2E2E2E2E2E2E2E2E2E2E2E2E2E2E2E2E2E2E2E2E2E2E2E2E2E2F5E2E2E2E2E2E2E2E2E2
310
E2E2E2E2E2E2E2F5E2E2E2F5F5E2E2E2F5E2E2E2E2E2E2E2E2E2E2E2E2E2E2E2E2F5E2E2E2E2E2E2E2E2E2E2E2E2E2E2E2E2E2E2E2E2E2E2E2E2E2E2E2E2E2E2E2E2E2E2E2E2E2E2E2E2E2E2E2E2E2E2E2E2E2E2E2E2E2E2E2E2E2E2E2E2E2E2E2E2E2E2E2E2E2E2E2E2E2E2E2E2E2E2E2E2E2E2E2E2E2E2E2E2E2E2E2E2E2
310
E2E2E2E2E2E2E2E2E2E2E2E2E2E2E2E2E2E2E2E2E2E2E2E2E2E2E2E2E2E2E2E2E2E2E2E2E2E2E2E2E2E2E2F5E2E2E2E2E2E2E2E2E2E2E2E2E2E2E2E2F5E2E2E2F5F5E2E2E2F5E2E2E2E2E2E2E2E2E2E2E2E2E2E2E2E2F5E2E2E2E2E2E2E2E2E2E2E2E2E2E2E2E2E2E2E2E2E2E2E2E2E2E2E2E2E2E2E2E2E2E2E2E2E2E2E2E2
310
E2E2E2E2E2E2E2E2E2E2E2E2E2E2E2E2E2E2E2E2E2E2E2E2E2E2E2E2E2E2E2E2E2E2E2E2E2E2E2E2E2E2E2E2E2E2E2E2E2E2E2E2E2E2E2E2E2E2E2E2E2E2E2E2E2E2E2E2E2E2E2E2E2E2E2E2E2E2E2E2E2E2E2E2E2E2E2E2E2E2E2E2E2E2E2E2F5E2E2E2E2E2E2E2E2E2E2E2E2E2E2E2E2F5E2E2E2F5F5E2E2E2F5E2E2E2E2
310
E2E2E2E2E2E2E2E2E2E2E2E2F5E2E2E2E2E2E2E2E2E2E2E2E2E2E2E2E2E2E2E2E2E2E2E2E2E2E2E2E2E2E2E2E2E2E2E2E2E2E2E2E2E2E2E2E2E2E2E2E2E2E2E2E2E2E2E2E2E2E2E2E2E2E2E2E2E2E2E2E2E2E2E2E2E2E2E2E2E2E2E2E2E2E2E2E2E2E2E2E2E2E2E2E2E2E2E2E2E2E2E2E2E2E2E2E2E2E2E2E2E2E2E2E2E2E2
310
E2E2E2E2E2E2E2E2E2E2E2E2E2E2E2E2E2E2E2E2E2E2F5E2E2E2E2E2E2E2E2E2E2E2E2E2E2E2E2F5E2E2E2F5F5E2E2E2F5E2E2E2E2E2E2E2E2E2E2E2E2E2E2E2E2F5E2E2E2E2E2E2E2E2E2E2E2E2E2E2E2E2E2E2E2E2E2E2E2E2E2E2E2E2E2E2E2E2E2E2E2E2E2E2E2E2E2E2E2E2E2E2E2E2E2E2E2E2E2E2E2E2E2E2E2E2E2
310
E2E2E2E2E2E2E2E2E2E2E2E2E2E2E2E2E2E2E2E2E2E2E2E2E2E2E2E2E2E2E2E2E2E2E2E2E2E2E2E2E2E2E2E2E2E2E2E2E2E2E2E2E2E2E2E2E2E2E2E2E2E2E2E2E2E2E2E2E2E2E2E2E2E2E2F5E2E2E2E2E2E2E2E2E2E2E2E2E2E2E2E2F5E2E2E2F5F5E2E2E2F5E2E2E2E2E2E2E2E2E2E2E2E2E2E2E2E2F5E2E2E2E2E2E2E2E2
310
E2E2E2E2E2E2E2E2E2E2E2E2E2E2E2E2E2E2E2E2E2E2E2E2E2E2E2E2E2E2E2E2E2E2E2E2E2E2E2E2E2E2E2E2E2E2E2E2E2E2E2E2E2E2E2E2E2E2E2E2E2E2E2E2E2E2E2E2E2E2E2E2E2E2E2E2E2E2E2E2E2E2E2E2E2E2E2E2E2E2E2E2E2E2E2E2E2E2E2E2E2E2E2E2E2E2E2E2E2E2E2E2E2E2E2E2E2E2E2E2E2E2E2E2E2E2E2
310
E2F5E2E2E2E2E2E2E2E2E2E2E2E2E2E2E2E2F5E2E2E2F5F5E2E2E2F5E2E2E2E2E2E2E2E2E2E2E2E2E2E2E2E2F5E2E2E2E2E2E2E2E2E2E2E2E2E2E2E2E2E2E2E2E2E2E2E2E2E2E2E2E2E2E2E2E2E2E2E2E2E2E2E2E2E2E2E2E2E2E2E2E2E2E2E2E2E2E2E2E2E2E2E2E2E2E2E2E2E2E2E2E2E2E2E2E2E2E2E2E2E2E2E2E2E2E2
310
E2E2E2E2E2E2E2E2E2E2E2E2E2E2E2E2E2E2E2E2E2E2E2E2E2E2E2E2E2E2E2E2E2E2E2E2E2E2E2E2E2E2E2E2E2E2E2E2E2E2E2E2E2E2F5E2E2E2E2E2E2E2E2E2E2E2E2E2E2E2E2F5E2E2E2F5F5E2E2E2F5E2E2E2E2E2E2E2E2E2E2E2E2E2E2E2E2F5E2E2E2E2E2E2E2E2E2E2E2E2E2E2E2E2E2E2E2E2E2E2E2E2E2E2E2E2E2
310
E2E2E2E2E2E2E2E2E2E2E2E2E2E2E2E2E2E2E2E2E2E2E2E2E2E2E2E2E2E2E2E2E2E2E2E2E2E2E2E2E2E2E2E2E2E2E2E2E2E2E2E2E2E2E2E2E2E2E2E2E2E2E2E2E2E2E2E2E2E2E2E2E2E2E2E2E2E2E2E2E2E2E2E2E2E2E2E2E2E2E2E2E2E2E2E2E2E2E2E2E2E2E2E2E2E2E2F5E2E2E2E2E2E2E2E2E2E2E2E2E2E2E2E2F5E2E2
310
E2F5F5E2E2E2F5E2E2E2E2E2E2E2E2E2E2E2E2E2E2E2E2F5E2E2E2E2E2E2E2E2E2E2E2E2E2E2E2E2E2E2E2E2E2E2E2E2E2E2E2E2E2E2E2E2E2E2E2E2E2E2E2E2E2E2E2E2E2E2E2E2E2E2E2E2E2E2E2E2E2E2E2E2E2E2E2E2E2E2E2E2E2E2E2E2E2E2E2E2E2E2E2E2E2E2E2E2E2E2E2E2E2E2E2E2E2E2E2E2E2E2E2E2E2E2E2
310
E2E2E2E2E2E2E2E2E2E2E2E2E2E2E2E2E2E2E2E2E2E2E2E2E2E2E2E2E2E2E2E2E2F5E2E2E2E2E2E2E2E2E2E2E2E2E2E2E2E2F5E2E2E2F5F5E2E2E2F5E2E2E2E2E2E2E2E2E2E2E2E2E2E2E2E2F5E2E2E2E2E2E2E2E2E2E2E2E2E2E2E2E2E2E2E2E2E2E2E2E2E2E2E2E2E2E2E2E2E2E2E2E2E2E2E2E2E2E2E2E2E2E2E2E2E2E2
310
E2E2E2E2E2E2E2E2E2E2E2E2E2E2E2E2E2E2E2E2E2E2E2E2E2E2E2E2E2E2E2E2E2E2E2E2E2E2E2E2E2E2E2E2E2E2E2E2E2E2E2E2E2E2E2E2E2E2E2E2E2E2E2E2E2E2E2E2E2E2E2E2E2E2E2E2E2E2E2E2E2E2E2E2E2E2F5E2E2E2E2E2E2E2E2E2E2E2E2E2E2E2E2F5E2E2E2F5F5E2E2E2F5E2E2E2E2E2E2E2E2E2E2E2E2E2E2
310
E2E2F5E2E2E2E2E2E2E2E2E2E2E2E2E2E2E2E2E2E2E2E2E2E2E2E2E2E2E2E2E2E2E2E2E2E2E2E2E2E2E2E2E2E2E2E2E2E2E2E2E2E2E2E2E2E2E2E2E2E2E2E2E2E2E2E2E2E2E2E2E2E2E2E2E2E2E2E2E2E2E2E2E2E2E2E2E2E2E2E2E2E2E2E2E2E2E2E2E2E2E2E2E2E2E2E2E2E2E2E2E2E2E2E2E2E2E2E2E2E2E2E2E2E2E2E2
310
E2E2E2E2E2E2E2E2E2E2E2E2F5E2E2E2E2E2E2E2E2E2E2E2E2E2E2E2E2F5E2E2E2F5F5E2E2E2F5E2E2E2E2E2E2E2E2E2E2E2E2E2E2E2E2F5E2E2E2E2E2E2E2E2E2E2E2E2E2E2E2E2E2E2E2E2E2E2E2E2E2E2E2E2E2E2E2E2E2E2E2E2E2E2E2E2E2E2E2E2E2E2E2E2E2E2E2E2E2E2E2E2E2E2E2E2E2E2E2E2E2E2E2E2E2E2E2
310
E2E2E2E2E2E2E2E2E2E2E2E2E2E2E2E2E2E2E2E2E2E2E2E2E2E2E2E2E2E2E2E2E2E2E2E2E2E2E2E2E2E2E2E2E2E2E2E2E2E2E2E2E2E2E2E2E2E2E2E2E2E2E2E2E2F5E2E2E2E2E2E2E2E2E2E2E2E2E2E2E2E2F5E2E2E2F5F5E2E2E2F5E2E2E2E2E2E2E2E2E2E2E2E2E2E2E2E2F5E2E2E2E2E2E2E2E2E2E2E2E2E2E2E2E2E2E2
310
E2E2E2E2E2E2E2E2E2E2E2E2E2E2E2E2E2E2E2E2E2E2E2E2E2E2E2E2E2E2E2E2E2E2E2E2E2E2E2E2E2E2E2E2E2E2E2E2E2E2E2E2E2E2E2E2E2E2E2E2E2E2E2E2E2E2E2E2E2E2E2E2E2E2E2E2E2E2E2E2E2E2E2E2E2E2E2E2E2E2E2E2E2E2E2E2E2E2E2E2E2E2E2E2E2E2E2E2E2E2E2E2E2E2E2E2E2E2F5E2E2E2E2E2E2E2E2
310
E2E2E2E2E2E2E2E2F5E2E2E2F5F5E2E2E2F5E2E2E2E2E2E2E2E2E2E2E2E2E2E2E2E2F5E2E2E2E2E2E2E2E2E2E2E2E2E2E2E2E2E2E2E2E2E2E2E2E2E2E2E2E2E2E2E2E2E2E2E2E2E2E2E2E2E2E2E2E2E2E2E2E2E2E2E2E2E2E2E2E2E2E2E2E2E2E2E2E2E2E2E2E2E2E2E2E2E2E2E2E2E2E2E2E2E2E2E2E2E2E2E2E2E2E2E2E2
310
E2E2E2E2E2E2E2E2E2E2E2E2E2E2E2E2E2E2E2E2E2E2E2E2E2E2E2E2E2E2E2E2E2E2E2E2E2E2E2E2E2E2E2E2F5E2E2E2E2E2E2E2E2E2E2E2E2E2E2E2E2F5E2E2E2F5F5E2E2E2F5E2E2E2E2E2E2E2E2E2E2E2E2E2E2E2E2F5E2E2E2E2E2E2E2E2E2E2E2E2E2E2E2E2E2E2E2E2E2E2E2E2E2E2E2E2E2E2E2E2E2E2E2E2E2E2E2
310
E2E2E2E2E2E2E2E2E2E2E2E2E2E2E2E2E2E2E2E2E2E2E2E2E2E2E2E2E2E2E2E2E2E2E2E2E2E2E2E2E2E2E2E2E2E2E2E2E2E2E2E2E2E2E2E2E2E2E2E2E2E2E2E2E2E2E2E2E2E2E2E2E2E2E2E2E2E2E2E2E2E2E2E2E2E2E2E2E2E2E2E2E2E2E2E2E2F5E2E2E2E2E2E2E2E2E2E2E2E2E2E2E2E2F5E2E2E2F5F5E2E2E2F5E2E2E2
310
E2E2E2E2E2E2E2E2E2E2E2E2E2F5E2E2E2E2E2E2E2E2E2E2E2E2E2E2E2E2E2E2E2E2E2E2E2E2E2E2E2E2E2E2E2E2E2E2E2E2E2E2E2E2E2E2E2E2E2E2E2E2E2E2E2E2E2E2E2E2E2E2E2E2E2E2E2E2E2E2E2E2E2E2E2E2E2E2E2E2E2E2E2E2E2E2E2E2E2E2E2E2E2E2E2E2E2E2E2E2E2E2E2E2E2E2E2E2E2E2E2E2E2E2E2E2E2
310
E2E2E2E2E2E2E2E2E2E2E2E2E2E2E2E2E2E2E2E2E2E2E2F5E2E2E2E2E2E2E2E2E2E2E2E2E2E2E2E2F5E2E2E2F5F5E2E2E2E2E2E2E2E2E2E2E2E2E2E2E2E2E2E2E2E2F5E2E2E2E2E2E2E2E2E2E2E2E2E2E2E2E2E2E2E2E2E2E2E2E2E2E2E2E2E2E2E2E2E2E2E2E2E2E2E2E2E2E2E2E2E2E2E2E2E2E2E2E2E2E2E2E2E2E2E2E2
310
E2E2E2E2E2E2E2E2E2E2E2E2E2E2E2E2E2E2E2E2E2E2E2E2E2E2E2E2E2E2E2E2E2E2E2E2E2E2E2E2E2E2E2E2E2E2E2E2E2E2E2E2E2E2E2E2E2E2E2E2E2E2E2E2E2E2E2E2E2E2E2E2E2E2E2E2F5E2E2E2E2E2E2E2E2E2E2E2E2E2E2E2E2E2E2E2E2F5F5E2E2E2E2E2E2E2E2E2E2E2E2E2E2E2E2E2E2E2E2F5E2E2E2E2E2E2E2
310
E2E2E2E2E2E2E2E2E2E2E2E2E2E2E2E2E2E2E2E2E2E2E2E2E2E2E2E2E2E2E2E2E2E2E2E2E2E2E2E2E2E2E2E2E2E2E2E2E2E2E2E2E2E2E2E2E2E2E2E2E2E2E2E2E2E2E2E2E2E2E2E2E2E2E2E2E2E2E2E2E2E2E2E2E2E2E2E2E2E2E2E2E2E2E2E2E2E2E2E2E2E2E2E2E2E2E2E2E2E2E2E2E2E2E2E2E2E2E2E2E2E2E2E2E2E2E2
310
E2E2F5E2E2E2E2E2E2E2E2E2E2E2E2E2E2E2E2E2E2E2E2F5F5E2E2E2E2E2E2E2E2E2E2E2E2E2E2E2E2E2E2E2E2F5E2E2E2E2E2E2E2E2E2E2E2E2E2E2E2E2E2E2E2E2E2E2E2E2E2E2E2E2E2E2E2E2E2E2E2E2E2E2E2E2E2E2E2E2E2E2E2E2E2E2E2E2E2E2E2E2E2E2E2E2E2E2E2E2E2E2E2E2E2E2E2E2E2E2E2E2E2E2E2E2E2
310
E2E2E2E2E2E2E2E2E2E2E2E2E2E2E2E2E2E2E2E2E2E2E2E2E2E2E2E2E2E2E2E2E2E2E2E2E2E2E2E2E2E2E2E2E2E2E2E2E2E2E2E2E2E2E2F5E2E2E2E2E2E2E2E2E2E2E2E2E2E2E2E2E2E2E2E2F5F5E2E2E2E2E2E2E2E2E2E2E2E2E2E2E2E2E2E2E2E2F5E2E2E2E2E2E2E2E2E2E2E2E2E2E2E2E2E2E2E2E2E2E2E2E2E2E2E2E2
310
E2E2E2E2E2E2E2E2E2E2E2E2E2E2E2E2E2E2E2E2E2E2E2E2E2E2E2E2E2E2E2E2E2E2E2E2E2E2E2E2E2E2E2E2E2E2E2E2E2E2E2E2E2E2E2E2E2E2E2E2E2E2E2E2E2E2E2E2E2E2E2E2E2E2E2E2E2E2E2E2E2E2E2E2E2E2E2E2E2E2E2E2E2E2E2E2E2E2E2E2E2E2E2E2E2E2E2E2F5E2E2E2E2E2E2E2E2E2E2E2E2E2E2E2E2E2E2
310
E2E2F5F5E2E2E2E2E2E2E2E2E2E2E2E2E2E2E2E2E2E2E2E2F5E2E2E2E2E2E2E2E2E2E2E2E2E2E2E2E2E2E2E2E2E2E2E2E2E2E2E2E2E2E2E2E2E2E2E2E2E2E2E2E2E2E2E2E2E2E2E2E2E2E2E2E2E2E2E2E2E2E2E2E2E2E2E2E2E2E2E2E2E2E2E2E2E2E2E2E2E2E2E2E2E2E2E2E2E2E2E2E2E2E2E2E2E2E2E2E2E2E2E2E2E2E2
310
E2E2E2E2E2E2E2E2E2E2E2E2E2E2E2E2E2E2E2E2E2E2E2E2E2E2E2E2E2E2E2E2E2E2F5E2E2E2E2E2E2E2E2E2E2E2E2E2E2E2E2E2E2E2E2F5F5E2E2E2E2E2E2E2E2E2E2E2E2E2E2E2E2E2E2E2E2F5E2E2E2E2E2E2E2E2E2E2E2E2E2E2E2E2E2E2E2E2E2E2E2E2E2E2E2E2E2E2E2E2E2E2E2E2E2E2E2E2E2E2E2E2E2E2E2E2E2
310
E2E2E2E2E2E2E2E2E2E2E2E2E2E2E2E2E2E2E2E2E2E2E2E2E2E2E2E2E2E2E2E2E2E2E2E2E2E2E2E2E2E2E2E2E2E2E2E2E2E2E2E2E2E2E2E2E2E2E2E2E2E2E2E2E2E2E2E2E2E2E2E2E2E2E2E2E2E2E2E2E2E2E2E2E2E2E2F5E2E2E2E2E2E2E2E2E2E2E2E2E2E2E2E2E2E2E2E2F5F5E2E2E2E2E2E2E2E2E2E2E2E2E2E2E2E2E2
310
E2E2E2F5E2E2E2E2E2E2E2E2E2E2E2E2E2E2E2E2E2E2E2E2E2E2E2E2E2E2E2E2E2E2E2E2E2E2E2E2E2E2E2E2E2E2E2E2E2E2E2E2E2E2E2E2E2E2E2E2E2E2E2E2E2E2E2E2E2E2E2E2E2E2E2E2E2E2E2E2E2E2E2E2E2E2E2E2E2E2E2E2E2E2E2E2E2E2E2E2E2E2E2E2E2E2E2E2E2E2E2E2E2E2E2E2E2E2E2E2E2E2E2E2E2E2E2
310
E2E2E2E2E2E2E2E2E2E2E2E2E2F5E2E2E2E2E2E2E2E2E2E2E2E2E2E2E2E2E2E2E2E2F5F5E2E2E2E2E2E2E2E2E2E2E2E2E2E2E2E2E2E2E2E2F5E2E2E2E2E2E2E2E2E2E2E2E2E2E2E2E2E2E2E2E2E2E2E2E2E2E2E2E2E2E2E2E2E2E2E2E2E2E2E2E2E2E2E2E2E2E2E2E2E2E2E2E2E2E2E2E2E2E2E2E2E2E2E2E2E2E2E2E2E2E2
310
E2E2E2E2E2E2E2E2E2E2E2E2E2E2E2E2E2E2E2E2E2E2E2E2E2E2E2E2E2E2E2E2E2E2E2E2E2E2E2E2E2E2E2E2E2E2E2E2E2E2E2E2E2E2E2E2E2E2E2E2E2E2E2E2E2E2F5E2E2E2E2E2E2E2E2E2E2E2E2E2E2E2E2E2E2E2E2F5F5E2E2E2E2E2E2E2E2E2E2E2E2E2E2E2E2E2E2E2E2F5E2E2E2E2E2E2E2E2E2E2E2E2E2E2E2E2E2
310
E2E2E2E2E2E2E2E2E2E2E2E2E2E2E2E2E2E2E2E2E2E2E2E2E2E2E2E2E2E2E2E2E2E2E2E2E2E2E2E2E2E2E2E2E2E2E2E2E2E2E2E2E2E2E2E2E2E2E2E2E2E2E2E2E2E2E2E2E2E2E2E2E2E2E2E2E2E2E2E2E2E2E2E2E2E2E2E2E2E2E2E2E2E2E2E2E2E2E2E2E2E2E2E2E2E2E2E2E2E2E2E2E2E2E2E2E2E2E2F5E2E2E2E2E2E2E2
310
E2E2E2E2E2E2E2E2E2E2E2E2E2F5F5E2E2E2F5E2E2E2E2E2E2E2E2E2E2E2E2E2E2E2E2F5E2E2E2E2E2E2E2E2E2E2E2E2E2E2E2E2E2E2E2E2E2E2E2E2E2E2E2E2E2E2E2E2E2E2E2E2E2E2E2E2E2E2E2E2E2E2E2E2E2E2E2E2E2E2E2E2E2E2E2E2E2E2E2E2E2E2E2E2E2E2E2E2E2E2E2E2E2E2E2E2E2E2E2E2E2E2E2E2E2E2E2
310
E2E2E2E2E2E2E2E2E2E2E2E2E2E2E2E2E2E2E2E2E2E2E2E2E2E2E2E2E2E2E2E2E2E2E2E2E2E2E2E2E2E2E2E2E2F5E2E2E2E2E2E2E2E2E2E2E2E2E2E2E2E2F5E2E2E2F5F5E2E2E2F5E2E2E2E2E2E2E2E2E2E2E2E2E2E2E2E2F5E2E2E2E2E2E2E2E2E2E2E2E2E2E2E2E2E2E2E2E2E2E2E2E2E2E2E2E2E2E2E2E2E2E2E2E2E2E2
310
E2E2E2E2E2E2E2E2E2E2E2E2E2E2E2E2E2E2E2E2E2E2E2E2E2E2E2E2E2E2E2E2E2E2E2E2E2E2E2E2E2E2E2E2E2E2E2E2E2E2E2E2E2E2E2E2E2E2E2E2E2E2E2E2E2E2E2E2E2E2E2E2E2E2E2E2E2E2E2E2E2E2E2E2E2E2E2E2E2E2E2E2E2E2E2E2E2E2F5E2E2E2E2E2E2E2E2E2E2E2E2E2E2E2E2F5E2E2E2F5F5E2E2E2F5E2E2
310
E2E2E2E2E2E2E2E2E2E2E2E2E2E2F5E2E2E2E2E2E2E2E2E2E2E2E2E2E2E2E2E2E2E2E2E2E2E2E2E2E2E2E2E2E2E2E2E2E2E2E2E2E2E2E2E2E2E2E2E2E2E2E2E2E2E2E2E2E2E2E2E2E2E2E2E2E2E2E2E2E2E2E2E2E2E2E2E2E2E2E2E2E2E2E2E2E2E2E2E2E2E2E2E2E2E2E2E2E2E2E2E2E2E2E2E2E2E2E2E2E2E2E2E2E2E2E2
310
E2E2E2E2E2E2E2E2E2E2E2E2E2E2E2E2E2E2E2E2E2E2E2E2F5E2E2E2E2E2E2E2E2E2E2E2E2E2E2E2E2F5E2E2E2F5F5E2E2E2F5E2E2E2E2E2E2E2E2E2E2E2E2E2E2E2E2F5E2E2E2E2E2E2E2E2E2E2E2E2E2E2E2E2E2E2E2E2E2E2E2E2E2E2E2E2E2E2E2E2E2E2E2E2E2E2E2E2E2E2E2E2E2E2E2E2E2E2E2E2E2E2E2E2E2E2E2
310
E2E2E2E2E2E2E2E2E2E2E2E2E2E2E2E2E2E2E2E2E2E2E2E2E2E2E2E2E2E2E2E2E2E2E2E2E2E2E2E2E2E2E2E2E2E2E2E2E2E2E2E2E2E2E2E2E2E2E2E2E2E2E2E2E2E2E2E2E2E2E2E2E2E2E2E2E2F5E2E2E2E2E2E2E2E2E2E2E2E2E2E2E2E2F5E2E2E2F5F5E2E2E2F5E2E2E2E2E2E2E2E2E2E2E2E2E2E2E2E2F5E2E2E2E2E2E2
310
E2E2E2E2E2E2E2E2E2E2E2E2E2E2E2E2E2E2E2E2E2E2E2E2E2E2E2E2E2E2E2E2E2E2E2E2E2E2E2E2E2E2E2E2E2E2E2E2E2E2E2E2E2E2E2E2E2E2E2E2E2E2E2E2E2E2E2E2E2E2E2E2E2E2E2E2E2E2E2E2E2E2E2E2E2E2E2E2E2E2E2E2E2E2E2E2E2E2E2E2E2E2E2E2E2E2E2E2E2E2E2E2E2E2E2E2E2E2E2E2E2E2E2E2E2E2E2
310
E2E2E2F5E2E2E2E2E2E2E2E2E2E2E2E2E2E2E2E2F5E2E2E2F5F5E2E2E2F5E2E2E2E2E2E2E2E2E2E2E2E2E2E2E2E2F5E2E2E2E2E2E2E2E2E2E2E2E2E2E2E2E2E2E2E2E2E2E2E2E2E2E2E2E2E2E2E2E2E2E2E2E2E2E2E2E2E2E2E2E2E2E2E2E2E2E2E2E2E2E2E2E2E2E2E2E2E2E2E2E2E2E2E2E2E2E2E2E2E2E2E2E2E2E2E2E2
310
E2E2E2E2E2E2E2E2E2E2E2E2E2E2E2E2E2E2E2E2E2E2E2E2E2E2E2E2E2E2E2E2E2E2E2E2E2E2E2E2E2E2E2E2E2E2E2E2E2E2E2E2E2E2E2E2F5E2E2E2E2E2E2E2E2E2E2E2E2E2E2E2E2F5E2E2E2F5F5E2E2E2F5E2E2E2E2E2E2E2E2E2E2E2E2E2E2E2E2F5E2E2E2E2E2E2E2E2E2E2E2E2E2E2E2E2E2E2E2E2E2E2E2E2E2E2E2
310
E2E2E2E2E2E2E2E2E2E2E2E2E2E2E2E2E2E2E2E2E2E2E2E2E2E2E2E2E2E2E2E2E2E2E2E2E2E2E2E2E2E2E2E2E2E2E2E2E2E2E2E2E2E2E2E2E2E2E2E2E2E2E2E2E2E2E2E2E2E2E2E2E2E2E2E2E2E2E2E2E2E2E2E2E2E2E2E2E2E2E2E2E2E2E2E2E2E2E2E2E2E2E2E2E2E2E2E2E2F5E2E2E2E2E2E2E2E2E2E2E2E2E2E2E2E2F5
310
E2E2E2F5F5E2E2E2F5E2E2E2E2E2E2E2E2E2E2E2E2E2E2E2E2F5E2E2E2E2E2E2E2E2E2E2E2E2E2E2E2E2E2E2E2E2E2E2E2E2E2E2E2E2E2E2E2E2E2E2E2E2E2E2E2E2E2E2E2E2E2E2E2E2E2E2E2E2E2E2E2E2E2E2E2E2E2E2E2E2E2E2E2E2E2E2E2E2E2E2E2E2E2E2E2E2E2E2E2E2E2E2E2E2E2E2E2E2E2E2E2E2E2E2E2E2E2
310
E2E2E2E2E2E2E2E2E2E2E2E2E2E2E2E2E2E2E2E2E2E2E2E2E2E2E2E2E2E2E2E2E2E2E2F5E2E2E2E2E2E2E2E2E2E2E2E2E2E2E2E2F5E2E2E2F5F5E2E2E2F5E2E2E2E2E2E2E2E2E2E2E2E2E2E2E2E2F5E2E2E2E2E2E2E2E2E2E2E2E2E2E2E2E2E2E2E2E2E2E2E2E2E2E2E2E2E2E2E2E2E2E2E2E2E2E2E2E2E2E2E2E2E2E2E2E2
310
E2E2E2E2E2E2E2E2E2E2E2E2E2E2E2E2E2E2E2E2E2E2E2E2E2E2E2E2E2E2E2E2E2E2E2E2E2E2E2E2E2E2E2E2E2E2E2E2E2E2E2E2E2E2E2E2E2E2E2E2E2E2E2E2E2E2E2E2E2E2E2E2E2E2E2E2E2E2E2E2E2E2E2E2E2E2E2E2F5E2E2E2E2E2E2E2E2E2E2E2E2E2E2E2E2F5E2E2E2F5F5E2E2E2F5E2E2E2E2E2E2E2E2E2E2E2E2
310
E2E2E2E2F5E2E2E2E2E2E2E2E2E2E2E2E2E2E2E2E2E2E2E2E2E2E2E2E2E2E2E2E2E2E2E2E2E2E2E2E2E2E2E2E2E2E2E2E2E2E2E2E2E2E2E2E2E2E2E2E2E2E2E2E2E2E2E2E2E2E2E2E2E2E2E2E2E2E2E2E2E2E2E2E2E2E2E2E2E2E2E2E2E2E2E2E2E2E2E2E2E2E2E2E2E2E2E2E2E2E2E2E2E2E2E2E2E2E2E2E2E2E2E2E2E2E2
310
E2E2E2E2E2E2E2E2E2E2E2E2E2E2F5E2E2E2E2E2E2E2E2E2E2E2E2E2E2E2E2F5E2E2E2F5F5E2E2E2F5E2E2E2E2E2E2E2E2E2E2E2E2E2E2E2E2F5E2E2E2E2E2E2E2E2E2E2E2E2E2E2E2E2E2E2E2E2E2E2E2E2E2E2E2E2E2E2E2E2E2E2E2E2E2E2E2E2E2E2E2E2E2E2E2E2E2E2E2E2E2E2E2E2E2E2E2E2E2E2E2E2E2E2E2E2E2
310
E2E2E2E2E2E2E2E2E2E2E2E2E2E2E2E2E2E2E2E2E2E2E2E2E2E2E2E2E2E2E2E2E2E2E2E2E2E2E2E2E2E2E2E2E2E2E2E2E2E2E2E2E2E2E2E2E2E2E2E2E2E2E2E2E2E2E2F5E2E2E2E2E2E2E2E2E2E2E2E2E2E2E2E2F5E2E2E2F5F5E2E2E2F5E2E2E2E2E2E2E2E2E2E2E2E2E2E2E2E2F5E2E2E2E2E2E2E2E2E2E2E2E2E2E2E2E2
310
E2E2E2E2E2E2E2E2E2E2E2E2E2E2E2E2E2E2E2E2E2E2E2E2E2E2E2E2E2E2E2E2E2E2E2E2E2E2E2E2E2E2E2E2E2E2E2E2E2E2E2E2E2E2E2E2E2E2E2E2E2E2E2E2E2E2E2E2E2E2E2E2E2E2E2E2E2E2E2E2E2E2E2E2E2E2E2E2E2E2E2E2E2E2E2E2E2E2E2E2E2E2E2E2E2E2E2E2E2E2E2E2E2E2E2E2E2E2E2E2F5E2E2E2E2E2E2
310
E2E2E2E2E2E2E2E2E2E2F5E2E2E2F5F5E2E2E2F5E2E2E2E2E2E2E2E2E2E2E2E2E2E2E2E2F5E2E2E2E2E2E2E2E2E2E2E2E2E2E2E2E2E2E2E2E2E2E2E2E2E2E2E2E2E2E2E2E2E2E2E2E2E2E2E2E2E2E2E2E2E2E2E2E2E2E2E2E2E2E2E2E2E2E2E2E2E2E2E2E2E2E2E2E2E2E2E2E2E2E2E2E2E2E2E2E2E2E2E2E2E2E2E2E2E2E2
310
E2E2E2E2E2E2E2E2E2E2E2E2E2E2E2E2E2E2E2E2E2E2E2E2E2E2E2E2E2E2E2E2E2E2E2E2E2E2E2E2E2E2E2E2E2E2F5E2E2E2E2E2E2E2E2E2E2E2E2E2E2E2E2F5E2E2E2F5F5E2E2E2F5E2E2E2E2E2E2E2E2E2E2E2E2E2E2E2E2F5E2E2E2E2E2E2E2E2E2E2E2E2E2E2E2E2E2E2E2E2E2E2E2E2E2E2E2E2E2E2E2E2E2E2E2E2E2
310
E2E2E2E2E2E2E2E2E2E2E2E2E2E2E2E2E2E2E2E2E2E2E2E2E2E2E2E2E2E2E2E2E2E2E2E2E2E2E2E2E2E2E2E2E2E2E2E2E2E2E2E2E2E2E2E2E2E2E2E2E2E2E2E2E2E2E2E2E2E2E2E2E2E2E2E2E2E2E2E2E2E2E2E2E2E2E2E2E2E2E2E2E2E2E2E2E2E2E2F5E2E2E2E2E2E2E2E2E2E2E2E2E2E2E2E2F5E2E2E2F5F5E2E2E2F5E2
310
E2E2E2E2E2E2E2E2E2E2E2E2E2E2E2F5E2E2E2E2E2E2E2E2E2E2E2E2E2E2E2E2E2E2E2E2E2E2E2E2E2E2E2E2E2E2E2E2E2E2E2E2E2E2E2E2E2E2E2E2E2E2E2E2E2E2E2E2E2E2E2E2E2E2E2E2E2E2E2E2E2E2E2E2E2E2E2E2E2E2E2E2E2E2E2E2E2E2E2E2E2E2E2E2E2E2E2E2E2E2E2E2E2E2E2E2E2E2E2E2E2E2E2E2E2E2E2
310
E2E2E2E2E2E2E2E2E2E2E2E2E2E2E2E2E2E2E2E2E2E2E2E2E2F5E2E2E2E2E2E2E2E2E2E2E2E2E2E2E2E2F5E2E2E2F5F5E2E2E2F5E2E2E2E2E2E2E2E2E2E2E2E2E2E2E2E2F5E2E2E2E2E2E2E2E2E2E2E2E2E2E2E2E2E2E2E2E2E2E2E2E2E2E2E2E2E2E2E2E2E2E2E2E2E2E2E2E2E2E2E2E2E2E2E2E2E2E2E2E2E2E2E2E2E2E2
310
E2E2E2E2E2E2E2E2E2E2E2E2E2E2E2E2E2E2E2E2E2E2E2E2E2E2E2E2E2E2E2E2E2E2E2E2E2E2E2E2E2E2E2E2E2E2E2E2E2E2E2E2E2E2E2E2E2E2E2E2E2E2E2E2E2E2E2E2E2E2E2E2E2E2E2E2E2E2F5E2E2E2E2E2E2E2E2E2E2E2E2E2E2E2E2F5E2E2E2F5F5E2E2E2F5E2E2E2E2E2E2E2E2E2E2E2E2E2E2E2E2F5E2E2E2E2E2
310
E2E2E2E2E2E2E2E2E2E2E2E2E2E2E2E2E2E2E2E2E2E2E2E2E2E2E2E2E2E2E2E2E2E2E2E2E2E2E2E2E2E2E2E2E2E2E2E2E2E2E2E2E2E2E2E2E2E2E2E2E2E2E2E2E2E2E2E2E2E2E2E2E2E2E2E2E2E2E2E2E2E2E2E2E2E2E2E2E2E2E2E2E2E2E2E2E2E2E2E2E2E2E2E2E2E2E2E2E2E2E2E2E2E2E2E2E2E2E2E2E2E2E2E2E2E2E2
310
E2E2E2E2F5E2E2E2E2E2E2E2E2E2E2E2E2E2E2E2E2F5E2E2E2F5F5E2E2E2E2E2E2E2E2E2E2E2E2E2E2E2E2E2E2E2E2F5E2E2E2E2E2E2E2E2E2E2E2E2E2E2E2E2E2E2E2E2E2E2E2E2E2E2E2E2E2E2E2E2E2E2E2E2E2E2E2E2E2E2E2E2E2E2E2E2E2E2E2E2E2E2E2E2E2E2E2E2E2E2E2E2E2E2E2E2E2E2E2E2E2E2E2E2E2E2E2
310
E2E2E2E2E2E2E2E2E2E2E2E2E2E2E2E2E2E2E2E2E2E2E2E2E2E2E2E2E2E2E2E2E2E2E2E2E2E2E2E2E2E2E2E2E2E2E2E2E2E2E2E2E2E2E2E2E2F5E2E2E2E2E2E2E2E2E2E2E2E2E2E2E2E2E2E2E2E2F5F5E2E2E2E2E2E2E2E2E2E2E2E2E2E2E2E2E2E2E2E2F5E2E2E2E2E2E2E2E2E2E2E2E2E2E2E2E2E2E2E2E2E2E2E2E2E2E2
310
E2E2E2E2E2E2E2E2E2E2E2E2E2E2E2E2E2E2E2E2E2E2E2E2E2E2E2E2E2E2E2E2E2E2E2E2E2E2E2E2E2E2E2E2E2E2E2E2E2E2E2E2E2E2E2E2E2E2E2E2E2E2E2E2E2E2E2E2E2E2E2E2E2E2E2E2E2E2E2E2E2E2E2E2E2E2E2E2E2E2E2E2E2E2E2E2E2E2E2E2E2E2E2E2E2E2E2E2E2E2F5E2E2E2E2E2E2E2E2E2E2E2E2E2E2E2E2
310
E2E2E2E2F5F5E2E2E2E2E2E2E2E2E2E2E2E2E2E2E2E2E2E2E2E2F5E2E2E2E2E2E2E2E2E2E2E2E2E2E2E2E2E2E2E2E2E2E2E2E2E2E2E2E2E2E2E2E2E2E2E2E2E2E2E2E2E2E2E2E2E2E2E2E2E2E2E2E2E2E2E2E2E2E2E2E2E2E2E2E2E2E2E2E2E2E2E2E2E2E2E2E2E2E2E2E2E2E2E2E2E2E2E2E2E2E2E2E2E2E2E2E2E2E2E2E2
310
E2E2E2E2E2E2E2E2E2E2E2E2E2E2E2E2E2E2E2E2E2E2E2E2E2E2E2E2E2E2E2E2E2E2E2E2F5E2E2E2E2E2E2E2E2E2E2E2E2E2E2E2E2E2E2E2E2F5F5E2E2E2E2E2E2E2E2E2E2E2E2E2E2E2E2E2E2E2E2F5E2E2E2E2E2E2E2E2E2E2E2E2E2E2E2E2E2E2E2E2E2E2E2E2E2E2E2E2E2E2E2E2E2E2E2E2E2E2E2E2E2E2E2E2E2E2E2
310
E2E2E2E2E2E2E2E2E2E2E2E2E2E2E2E2E2E2E2E2E2E2E2E2E2E2E2E2E2E2E2E2E2E2E2E2E2E2E2E2E2E2E2E2E2E2E2E2E2E2E2E2E2E2E2E2E2E2E2E2E2E2E2E2E2E2E2E2E2E2E2E2E2E2E2E2E2E2E2E2E2E2E2E2E2E2E2E2E2F5E2E2E2E2E2E2E2E2E2E2E2E2E2E2E2E2E2E2E2E2F5F5E2E2E2E2E2E2E2E2E2E2E2E2E2E2E2
310
E2E2E2E2E2F5F5F5F5F5F5F5F5F5F5F5F5F5F5F5F5F5F5F5F5F5F5F5F5F5F5F5F5F5F5F5F5F5F5F5F5F5F5F5F5F5F5F5F5F5F5F5F5F5F5F5F5F5F5F5F5F5F5F5F5F5F5F5F5F5F5F5F5F5F5F5F5F5F5F5F5F5F5F5F5F5F5F5F5F5F5F5F5F5F5F5F5F5F5F5F5F5F5F5F5F5F5F5F5F5F5F5F5F5F5F5F5F5F5F5F5F5F5F5F5F5F5
310
F5F5F5F5F5F5F5F5F5F5F5F5F5F5F5F5E2E2E2E2E2E2E2E2E2E2E2E2E2E2E2E2E2E2E2E2F5F5E2E2E2E2E2E2E2E2E2E2E2E2E2E2E2E2E2E2E2E2E2E2E2E2E2E2E2E2E2E2E2E2E2E2E2E2E2E2E2E2E2E2E2E2E2E2E2E2E2E2E2E2E2E2E2E2E2E2E2E2E2E2E2E2E2E2E2E2E2E2E2E2E2E2E2E2E2E2E2E2E2E2E2E2E2E2E2E2E2
310
E2E2E2E2E2E2E2E2E2E2E2E2E2E2E2E2E2E2E2E2E2E2E2E2E2E2E2E2E2E2E2E2E2E2E2E2E2E2E2E2E2E2E2E2E2E2E2E2E2E2E2E2E2E2E2E2E2E2E2E2E2E2E2E2E2E2E2E2E2E2E2E2E2E2E2E2E2E2E2E2E2E2E2E2E2E2E2E2E2F5F5E2E2E2E2E2E2E2E2E2E2E2E2E2E2E2E2E2E2E2E2E2E2E2E2E2E2E2E2E2E2E2E2E2E2E2E2
310
E2E2E2E2E2E2E2E2E2E2E2E2E2E2E2E2E2E2E2E2E2E2E2E2E2E2E2E2E2E2E2E2E2E2E2E2E2E2E2E2E2E2E2E2E2E2E2E2E2E2E2E2E2E2E2E2E2E2E2E2E2E2E2E2E2E2E2E2E2E2E2E2E2E2E2E2E2E2E2E2E2E2E2E2E2E2E2E2E2E2E2E2E2E2E2E2E2E2E2E2E2E2E2E2E2E2E2E2E2E2E2E2E2E2E2E2E2E2E2E2E2E2E2E2E2E2E2
310
E2E2E2E2E2E2E2E2E2E2E2E2E2E2E2F5F5E2E2E2E2E2E2E2E2E2E2E2E2E2E2E2E2E2E2E2E2E2E2E2E2E2E2E2E2E2E2E2E2E2E2E2E2E2E2E2E2E2E2E2E2E2E2E2E2E2E2E2E2E2E2E2E2E2E2E2E2E2E2E2E2E2E2E2E2E2E2E2E2E2E2E2E2E2E2E2E2E2E2E2E2E2E2E2E2E2E2E2E2E2E2E2E2E2E2E2E2E2E2E2E2E2E2E2E2E2E2
310
E2E2E2E2E2E2E2E2E2E2E2E2E2E2E2E2E2E2E2E2E2E2E2E2E2E2E2E2E2E2E2E2E2E2E2E2E2E2E2E2E2E2E2E2E2E2E2E2E2E2E2E2E2E2E2E2E2E2E2E2E2E2E2E2E2E2E2E2F5F5E2E2E2E2E2E2E2E2E2E2E2E2E2E2E2E2E2E2E2E2E2E2E2E2E2E2E2E2E2E2E2E2E2E2E2E2E2E2E2E2E2E2E2E2E2E2E2E2E2E2E2E2E2E2E2E2E2
310
E2E2E2E2E2E2E2E2E2E2E2E2E2E2E2E2E2E2E2E2E2E2E2E2E2E2E2E2E2E2E2E2E2E2E2E2E2E2E2E2E2E2E2E2E2E2E2E2E2E2E2E2E2E2E2E2E2E2E2E2E2E2E2E2E2E2E2E2E2E2E2E2E2E2E2E2E2E2E2E2E2E2E2E2E2E2E2E2E2E2E2E2E2E2E2E2E2E2E2E2E2E2E2E2E2E2E2E2E2E2E2E2E2E2E2E2E2E2E2E2E2F5F5E2E2E2F5
310
E2E2E2E2E2E2E2E2E2E2E2E2E2E2E2E2E2E2E2E2E2E2E2E2E2E2E2E2E2E2E2E2E2E2E2E2E2E2E2E2E2E2E2E2E2E2E2E2E2E2E2E2E2E2E2E2E2E2E2E2E2E2E2E2E2E2E2E2E2E2E2E2E2E2E2E2E2E2E2E2E2E2E2E2E2E2E2E2E2E2E2E2E2E2E2E2E2E2E2E2E2E2E2E2E2E2E2E2E2E2E2E2E2E2E2E2E2E2E2E2E2E2E2E2E2E2E2
310
E2E2E2E2E2E2E2E2E2E2E2E2E2E2E2E2E2E2E2E2E2E2E2E2E2E2E2E2E2E2E2E2E2E2E2E2E2E2E2E2E2E2E2F5E2E2E2F5F5E2E2E2F5E2E2E2E2E2E2E2E2E2E2E2E2E2E2E2E2E2E2E2E2E2E2E2E2E2E2E2E2E2E2E2E2E2E2E2E2E2E2E2E2E2E2E2E2E2E2E2E2E2E2E2E2E2E2E2E2E2E2E2E2E2E2E2E2E2E2E2E2E2E2E2E2E2E2
310
E2E2E2E2E2E2E2E2E2E2E2E2E2E2E2E2E2E2E2E2E2E2E2E2E2E2E2E2E2E2E2E2E2E2E2E2E2E2E2E2E2E2E2E2E2E2E2E2E2E2E2E2E2E2E2E2E2E2E2E2E2E2E2E2E2E2E2E2E2E2E2E2E2E2E2E2E2E2E2E2E2E2E2E2E2E2E2E2E2E2E2E2E2E2E2E2F5E2E2E2F5F5E2E2E2F5E2E2E2E2E2E2E2E2E2E2E2E2E2E2E2E2E2E2E2E2E2
310
E2E2E2E2E2E2E2E2E2E2E2E2E2E2E2E2E2E2E2E2E2E2E2E2E2E2E2E2E2E2E2E2E2E2E2E2E2E2E2E2E2E2E2E2E2E2E2E2E2E2E2E2E2E2E2E2E2E2E2E2E2E2E2E2E2E2E2E2E2E2E2E2E2E2E2E2E2E2E2E2E2E2E2E2E2E2E2E2E2E2E2E2E2E2E2E2E2E2E2E2E2E2E2E2E2E2E2E2E2E2E2E2E2E2E2E2E2E2E2E2E2E2E2E2E2E2E2
310
E2E2E2E2E2E2E2E2E2E2E2E2E2E2E2E2E2E2E2E2E2E2F5E2E2E2F5F5E2E2E2F5E2E2E2E2E2E2E2E2E2E2E2E2E2E2E2E2E2E2E2E2E2E2E2E2E2E2E2E2E2E2E2E2E2E2E2E2E2E2E2E2E2E2E2E2E2E2E2E2E2E2E2E2E2E2E2E2E2E2E2E2E2E2E2E2E2E2E2E2E2E2E2E2E2E2E2E2E2E2E2E2E2E2E2E2E2E2E2E2E2E2E2E2E2E2E2
310
E2E2E2E2E2E2E2E2E2E2E2E2E2E2E2E2E2E2E2E2E2E2E2E2E2E2E2E2E2E2E2E2E2E2E2E2E2E2E2E2E2E2E2E2E2E2E2E2E2E2E2E2E2E2E2E2E2E2E2E2E2E2E2E2E2E2E2E2E2E2E2E2E2E2E2F5E2E2E2F5F5E2E2E2F5E2E2E2E2E2E2E2E2E2E2E2E2E2E2E2E2E2E2E2E2E2E2E2E2E2E2E2E2E2E2E2E2E2E2E2E2E2E2E2E2E2E2
310
E2E2E2E2E2E2E2E2E2E2E2E2E2E2E2E2E2E2E2E2E2E2E2E2E2E2E2E2E2E2E2E2E2E2E2E2E2E2E2E2E2E2E2E2E2E2E2E2E2E2E2E2E2E2E2E2E2E2E2E2E2E2E2E2E2E2E2E2E2E2E2E2E2E2E2E2E2E2E2E2E2E2E2E2E2E2E2E2E2E2E2E2E2E2E2E2E2E2E2E2E2E2E2E2E2E2E2E2E2E2E2E2E2E2E2E2E2E2E2E2E2E2E2E2E2E2E2
310
E2F5E2E2E2F5F5E2E2E2F5E2E2E2E2E2E2E2E2E2E2E2E2E2E2E2E2E2E2E2E2E2E2E2E2E2E2E2E2E2E2E2E2E2E2E2E2E2E2E2E2E2E2E2E2E2E2E2E2E2E2E2E2E2E2E2E2E2E2E2E2E2E2E2E2E2E2E2E2E2E2E2E2E2E2E2E2E2E2E2E2E2E2E2E2E2E2E2E2E2E2E2E2E2E2E2E2E2E2E2E2E2E2E2E2E2E2E2E2E2E2E2E2E2E2E2E2
310
E2E2E2E2E2E2E2E2E2E2E2E2E2E2E2E2E2E2E2E2E2E2E2E2E2E2E2E2E2E2E2E2E2E2E2E2E2E2E2E2E2E2E2E2E2E2E2E2E2E2E2E2E2E2F5E2E2E2F5F5E2E2E2F5E2E2E2E2E2E2E2E2E2E2E2E2E2E2E2E2E2E2E2E2E2E2E2E2E2E2E2E2E2E2E2E2E2E2E2E2E2E2E2E2E2E2E2E2E2E2E2E2E2E2E2E2E2E2E2E2E2E2E2E2E2E2E2
310
E2E2E2E2E2E2E2E2E2E2E2E2E2E2E2E2E2E2E2E2E2E2E2E2E2E2E2E2E2E2E2E2E2E2E2E2E2E2E2E2E2E2E2E2E2E2E2E2E2E2E2E2E2E2E2E2E2E2E2E2E2E2E2E2E2E2E2E2E2E2E2E2E2E2E2E2E2E2E2E2E2E2E2E2E2E2E2E2E2E2E2E2E2E2E2E2E2E2E2E2E2E2E2E2E2E2E2F5E2E2E2F5F5E2E2E2F5E2E2E2E2E2E2E2E2E2E2
310
E2E2E2E2E2E2E2E2E2E2E2E2E2E2E2E2E2E2E2E2E2E2E2E2E2E2E2E2E2E2E2E2E2E2E2E2E2E2E2E2E2E2E2E2E2E2E2E2E2E2E2E2E2E2E2E2E2E2E2E2E2E2E2E2E2E2E2E2E2E2E2E2E2E2E2E2E2E2E2E2E2E2E2E2E2E2E2E2E2E2E2E2E2E2E2E2E2E2E2E2E2E2E2E2E2E2E2E2E2E2E2E2E2E2E2E2E2E2E2E2E2E2E2E2E2E2E2
310
E2E2E2E2E2E2E2E2E2E2E2E2E2E2E2E2E2E2E2E2E2E2E2E2E2E2E2E2E2E2E2E2E2F5E2E2E2F5F5E2E2E2F5F5F5F5F5F5F5F5E2E2E2E2E2E2E2E2E2F5F5F5F5F5F5F5F5F5F5F5F5F5F5F5F5E2E2E2E2E2E2E2E2E2F5F5F5F5F5F5F5F5F5F5F5F5F5F5F5E2E2E2E2E2E2E2E2E2F5F5F5F5F5F5F5F5F5F5F5F5F5F5F5F5E2E2E2
310
E2E2E2E2E2F5F5F5F5F5F5F5F5F5F5F5F5F5F5F5F5E2E2E2E2E2E2E2E2E2F5F5F5F5F5F5F5F5F5F5F5F5F5F5F5E2E2E2E2E2E2E2E2E2F5F5F5F5F5F5F5F5F5F5F5F5F5F5F5F5E2E2E2E2E2E2E2E2E2F5F5F5F5F5F5F5F5E2E2E2F5F5E2E2E2E2E2E2E2E2E2E2E2E2E2E2E2E2E2E2E2E2E2E2E2E2E2E2E2E2E2E2E2E2E2E2E2
310
E2E2E2E2E2E2E2E2E2E2E2E2E2E2E2E2E2E2E2E2E2E2E2E2E2E2E2E2E2E2E2E2E2E2E2E2E2E2E2E2E2E2E2E2E2E2E2E2E2E2E2E2E2E2E2E2E2E2E2E2E2E2E2E2E2E2E2E2E2E2E2E2E2E2E2E2E2E2E2E2E2E2E2E2E2E2E2E2E2E2E2E2E2E2E2E2E2E2E2E2E2E2E2E2E2E2E2E2E2E2E2E2E2E2E2E2E2E2E2E2E2E2E2E2E2E2E2
310
E2E2E2E2E2E2E2E2E2E2E2E2E2E2E2E2F5F5E2E2E2E2E2E2E2E2E2E2E2E2E2E2E2E2E2E2E2E2E2E2E2E2E2E2E2E2E2E2E2E2E2E2E2E2E2E2E2E2E2E2E2E2E2E2E2E2E2E2E2E2E2E2E2E2E2E2E2E2E2E2E2E2E2E2E2E2E2E2E2E2E2E2E2E2E2E2E2E2E2E2E2E2E2E2E2E2E2E2E2E2E2E2E2E2E2E2E2E2E2E2E2E2E2E2E2E2E2
310
E2E2E2E2E2E2E2E2E2E2E2E2E2E2E2E2E2E2E2E2E2E2E2E2E2E2E2E2E2E2E2E2E2E2E2E2E2E2E2E2E2E2E2E2E2E2E2E2E2E2E2E2E2E2E2E2E2E2E2E2E2E2E2E2E2E2E2E2E2F5F5E2E2E2E2E2E2E2E2E2E2E2E2E2E2E2E2E2E2E2E2E2E2E2E2E2E2E2E2E2E2E2E2E2E2E2E2E2E2E2E2E2E2E2E2E2E2E2E2E2E2E2E2E2E2E2E2
310
E2E2E2E2E2E2E2E2E2E2E2E2E2E2E2E2E2E2E2E2E2E2E2E2E2E2E2E2E2E2E2E2E2E2E2E2E2E2E2E2E2E2E2E2E2E2E2E2E2E2E2E2E2E2E2E2E2E2E2E2E2E2E2E2E2E2E2E2E2E2E2E2E2E2E2E2E2E2E2E2E2E2E2E2E2E2E2E2E2E2E2E2E2E2E2E2E2E2E2E2E2E2E2E2E2E2E2E2E2E2E2E2E2E2E2E2E2E2E2E2E2E2F5F5E2E2E2
310
E2E2E2E2E2E2E2E2E2E2E2E2E2E2E2E2E2E2E2E2E2E2E2E2E2E2E2E2E2E2E2E2E2E2E2E2E2E2E2E2E2E2E2E2E2E2E2E2E2E2E2E2E2E2E2E2E2E2E2E2E2E2E2E2E2E2E2E2E2E2E2E2E2E2E2E2E2E2E2E2E2E2E2E2E2E2E2E2E2E2E2E2E2E2E2E2E2E2E2E2E2E2E2E2E2E2E2E2E2E2E2E2E2E2E2E2E2E2E2E2E2E2E2E2E2E2E2
310
E2E2E2E2E2E2E2E2E2E2E2E2E2E2E2E2E2E2E2E2E2E2E2E2E2E2E2E2E2E2E2E2E2E2E2E2E2E2E2E2E2E2E2E2E2E2E2E2F5
  0
XRECORD
  5
55E78
102
{ACAD_REACTORS
330
55E77
102
}
330
55E77
100
AcDbXrecord
280
     1
102
SHADEPLOT
 70
     0
102
SHADEPLOTRESLEVEL
 70
     2
102
SHADEPLOTCUSTOMDPI
 70
   300
  0
ENDSEC
  0
EOF
