  0
SECTION
  2
HEADER
  9
$ACADVER
  1
AC1015
  9
$ACADMAINTVER
 70
    20
  9
$DWGCODEPAGE
  3
ANSI_936
  9
$INSBASE
 10
0.0
 20
0.0
 30
0.0
  9
$EXTMIN
 10
-33.93309193849997
 20
-79.21471082265947
 30
0.0
  9
$EXTMAX
 10
276.9458867547824
 20
123.7680991397948
 30
0.0
  9
$LIMMIN
 10
0.0
 20
0.0
  9
$LIMMAX
 10
420.0
 20
297.0
  9
$ORTHOMODE
 70
     0
  9
$REGENMODE
 70
     1
  9
$FILLMODE
 70
     1
  9
$QTEXTMODE
 70
     0
  9
$MIRRTEXT
 70
     1
  9
$LTSCALE
 40
1.0
  9
$ATTMODE
 70
     1
  9
$TEXTSIZE
 40
3.5
  9
$TRACEWID
 40
1.0
  9
$TEXTSTYLE
  7
simplex
  9
$CLAYER
  8
0
  9
$CELTYPE
  6
ByLayer
  9
$CECOLOR
 62
   256
  9
$CELTSCALE
 40
1.0
  9
$DISPSILH
 70
     0
  9
$DIMSCALE
 40
0.0
  9
$DIMASZ
 40
3.5
  9
$DIMEXO
 40
0.0
  9
$DIMDLI
 40
0.38
  9
$DIMRND
 40
0.0
  9
$DIMDLE
 40
0.0
  9
$DIMEXE
 40
1.5
  9
$DIMTP
 40
0.0
  9
$DIMTM
 40
0.0
  9
$DIMTXT
 40
3.5
  9
$DIMCEN
 40
0.09
  9
$DIMTSZ
 40
0.0
  9
$DIMTOL
 70
     0
  9
$DIMLIM
 70
     0
  9
$DIMTIH
 70
     0
  9
$DIMTOH
 70
     0
  9
$DIMSE1
 70
     0
  9
$DIMSE2
 70
     0
  9
$DIMTAD
 70
     1
  9
$DIMZIN
 70
     8
  9
$DIMBLK
  1

  9
$DIMASO
 70
     1
  9
$DIMSHO
 70
     1
  9
$DIMPOST
  1

  9
$DIMAPOST
  1

  9
$DIMALT
 70
     0
  9
$DIMALTD
 70
     2
  9
$DIMALTF
 40
25.4
  9
$DIMLFAC
 40
1.0
  9
$DIMTOFL
 70
     0
  9
$DIMTVP
 40
0.0
  9
$DIMTIX
 70
     0
  9
$DIMSOXD
 70
     0
  9
$DIMSAH
 70
     0
  9
$DIMBLK1
  1

  9
$DIMBLK2
  1

  9
$DIMSTYLE
  2
\M+18352\M+18373\M+1815B - ISO-25
  9
$DIMCLRD
 70
   256
  9
$DIMCLRE
 70
   256
  9
$DIMCLRT
 70
   256
  9
$DIMTFAC
 40
1.0
  9
$DIMGAP
 40
2.299999999999998
  9
$DIMJUST
 70
     0
  9
$DIMSD1
 70
     0
  9
$DIMSD2
 70
     0
  9
$DIMTOLJ
 70
     1
  9
$DIMTZIN
 70
     8
  9
$DIMALTZ
 70
     0
  9
$DIMALTTZ
 70
     0
  9
$DIMUPT
 70
     0
  9
$DIMDEC
 70
     2
  9
$DIMTDEC
 70
     2
  9
$DIMALTU
 70
     2
  9
$DIMALTTD
 70
     2
  9
$DIMTXSTY
  7
simplex
  9
$DIMAUNIT
 70
     0
  9
$DIMADEC
 70
     0
  9
$DIMALTRND
 40
0.0
  9
$DIMAZIN
 70
     0
  9
$DIMDSEP
 70
    46
  9
$DIMATFIT
 70
     3
  9
$DIMFRAC
 70
     0
  9
$DIMLDRBLK
  1

  9
$DIMLUNIT
 70
     2
  9
$DIMLWD
 70
    -1
  9
$DIMLWE
 70
    -1
  9
$DIMTMOVE
 70
     0
  9
$LUNITS
 70
     2
  9
$LUPREC
 70
     4
  9
$SKETCHINC
 40
1.0
  9
$FILLETRAD
 40
0.8
  9
$AUNITS
 70
     0
  9
$AUPREC
 70
     0
  9
$MENU
  1
.
  9
$ELEVATION
 40
0.0
  9
$PELEVATION
 40
0.0
  9
$THICKNESS
 40
0.0
  9
$LIMCHECK
 70
     0
  9
$CHAMFERA
 40
10.0
  9
$CHAMFERB
 40
10.0
  9
$CHAMFERC
 40
20.0
  9
$CHAMFERD
 40
0.0
  9
$SKPOLY
 70
     0
  9
$TDCREATE
 40
2455489.391063368
  9
$TDUCREATE
 40
2455489.057730035
  9
$TDUPDATE
 40
2458518.453369282
  9
$TDUUPDATE
 40
2458518.120035949
  9
$TDINDWG
 40
2.2368959838
  9
$TDUSRTIMER
 40
2.2368417708
  9
$USRTIMER
 70
     1
  9
$ANGBASE
 50
0.0
  9
$ANGDIR
 70
     0
  9
$PDMODE
 70
     0
  9
$PDSIZE
 40
0.0
  9
$PLINEWID
 40
0.0
  9
$SPLFRAME
 70
     0
  9
$SPLINETYPE
 70
     6
  9
$SPLINESEGS
 70
     8
  9
$HANDSEED
  5
56199
  9
$SURFTAB1
 70
     6
  9
$SURFTAB2
 70
     6
  9
$SURFTYPE
 70
     6
  9
$SURFU
 70
     6
  9
$SURFV
 70
     6
  9
$UCSBASE
  2

  9
$UCSNAME
  2

  9
$UCSORG
 10
0.0
 20
0.0
 30
0.0
  9
$UCSXDIR
 10
1.0
 20
0.0
 30
0.0
  9
$UCSYDIR
 10
0.0
 20
1.0
 30
0.0
  9
$UCSORTHOREF
  2

  9
$UCSORTHOVIEW
 70
     0
  9
$UCSORGTOP
 10
0.0
 20
0.0
 30
0.0
  9
$UCSORGBOTTOM
 10
0.0
 20
0.0
 30
0.0
  9
$UCSORGLEFT
 10
0.0
 20
0.0
 30
0.0
  9
$UCSORGRIGHT
 10
0.0
 20
0.0
 30
0.0
  9
$UCSORGFRONT
 10
0.0
 20
0.0
 30
0.0
  9
$UCSORGBACK
 10
0.0
 20
0.0
 30
0.0
  9
$PUCSBASE
  2

  9
$PUCSNAME
  2

  9
$PUCSORG
 10
0.0
 20
0.0
 30
0.0
  9
$PUCSXDIR
 10
1.0
 20
0.0
 30
0.0
  9
$PUCSYDIR
 10
0.0
 20
1.0
 30
0.0
  9
$PUCSORTHOREF
  2

  9
$PUCSORTHOVIEW
 70
     0
  9
$PUCSORGTOP
 10
0.0
 20
0.0
 30
0.0
  9
$PUCSORGBOTTOM
 10
0.0
 20
0.0
 30
0.0
  9
$PUCSORGLEFT
 10
0.0
 20
0.0
 30
0.0
  9
$PUCSORGRIGHT
 10
0.0
 20
0.0
 30
0.0
  9
$PUCSORGFRONT
 10
0.0
 20
0.0
 30
0.0
  9
$PUCSORGBACK
 10
0.0
 20
0.0
 30
0.0
  9
$USERI1
 70
     0
  9
$USERI2
 70
     0
  9
$USERI3
 70
     0
  9
$USERI4
 70
     0
  9
$USERI5
 70
     0
  9
$USERR1
 40
0.0
  9
$USERR2
 40
0.0
  9
$USERR3
 40
0.0
  9
$USERR4
 40
0.0
  9
$USERR5
 40
0.0
  9
$WORLDVIEW
 70
     1
  9
$SHADEDGE
 70
     3
  9
$SHADEDIF
 70
    70
  9
$TILEMODE
 70
     1
  9
$MAXACTVP
 70
    64
  9
$PINSBASE
 10
0.0
 20
0.0
 30
0.0
  9
$PLIMCHECK
 70
     0
  9
$PEXTMIN
 10
26.66999878883364
 20
20.31999878883365
 30
0.0
  9
$PEXTMAX
 10
240.0299890995025
 20
182.8799890995025
 30
0.0
  9
$PLIMMIN
 10
-6.350006103515625
 20
-6.349999904632567
  9
$PLIMMAX
 10
273.0499877929688
 20
209.5499939918518
  9
$UNITMODE
 70
     0
  9
$VISRETAIN
 70
     1
  9
$PLINEGEN
 70
     0
  9
$PSLTSCALE
 70
     1
  9
$TREEDEPTH
 70
  3020
  9
$CMLSTYLE
  2
Standard
  9
$CMLJUST
 70
     0
  9
$CMLSCALE
 40
20.0
  9
$PROXYGRAPHICS
 70
     1
  9
$MEASUREMENT
 70
     1
  9
$CELWEIGHT
370
    -1
  9
$ENDCAPS
280
     0
  9
$JOINSTYLE
280
     0
  9
$LWDISPLAY
290
     0
  9
$INSUNITS
 70
     4
  9
$HYPERLINKBASE
  1

  9
$STYLESHEET
  1

  9
$XEDIT
290
     1
  9
$CEPSNTYPE
380
     0
  9
$PSTYLEMODE
290
     1
  9
$FINGERPRINTGUID
  2
{601DDA01-5B13-4A4C-8F56-1333B78D855B}
  9
$VERSIONGUID
  2
{6467BCF4-BAA1-41B6-A290-8C34C37E8900}
  9
$EXTNAMES
290
     1
  9
$PSVPSCALE
 40
0.0
  9
$OLESTARTUP
290
     0
  0
ENDSEC
  0
SECTION
  2
CLASSES
  0
CLASS
  1
ACDBDICTIONARYWDFLT
  2
AcDbDictionaryWithDefault
  3
ObjectDBX Classes
 90
        0
280
     0
281
     0
  0
CLASS
  1
ACDBPLACEHOLDER
  2
AcDbPlaceHolder
  3
ObjectDBX Classes
 90
        0
280
     0
281
     0
  0
CLASS
  1
LAYOUT
  2
AcDbLayout
  3
ObjectDBX Classes
 90
        0
280
     0
281
     0
  0
CLASS
  1
DICTIONARYVAR
  2
AcDbDictionaryVar
  3
ObjectDBX Classes
 90
        0
280
     0
281
     0
  0
CLASS
  1
TABLESTYLE
  2
AcDbTableStyle
  3
ObjectDBX Classes
 90
     2047
280
     0
281
     0
  0
CLASS
  1
SORTENTSTABLE
  2
AcDbSortentsTable
  3
ObjectDBX Classes
 90
        0
280
     0
281
     0
  0
CLASS
  1
DIMASSOC
  2
AcDbDimAssoc
  3
"AcDbDimAssoc|Product Desc:     AcDim ARX App For Dimension|Company:          Autodesk, Inc.|WEB Address:      www.autodesk.com"
 90
        0
280
     0
281
     0
  0
CLASS
  1
ACAD_EVALUATION_GRAPH
  2
AcDbEvalGraph
  3
ObjectDBX Classes
 90
    33921
280
     0
281
     0
  0
CLASS
  1
ACAECUSTOBJ
  2
AcAeEditorObj
  3
AcAeEditorObj
 90
    33792
280
     0
281
     0
  0
CLASS
  1
ACDB_DYNAMICBLOCKPURGEPREVENTER_VERSION
  2
AcDbDynamicBlockPurgePreventer
  3
ObjectDBX Classes
 90
    33921
280
     0
281
     0
  0
ENDSEC
  0
SECTION
  2
TABLES
  0
TABLE
  2
VPORT
  5
8
330
0
100
AcDbSymbolTable
 70
    11
  0
VPORT
  5
5618A
330
8
100
AcDbSymbolTableRecord
100
AcDbViewportTableRecord
  2
*Active
 70
     0
 10
0.0
 20
0.0
 11
1.0
 21
1.0
 12
11.44356202250806
 22
15.66482822280173
 13
0.0
 23
0.0
 14
10.0
 24
10.0
 15
10.0
 25
10.0
 16
0.0
 26
0.0
 36
1.0
 17
0.0
 27
0.0
 37
0.0
 40
165.8516466529128
 41
1.386206896551724
 42
50.0
 43
0.0
 44
0.0
 50
0.0
 51
0.0
 71
     0
 72
  1000
 73
     1
 74
     1
 75
     0
 76
     0
 77
     0
 78
     0
281
     0
 65
     1
110
0.0
120
0.0
130
0.0
111
1.0
121
0.0
131
0.0
112
0.0
122
1.0
132
0.0
 79
     0
146
0.0
  0
ENDTAB
  0
TABLE
  2
LTYPE
  5
5
330
0
100
AcDbSymbolTable
 70
     4
  0
LTYPE
  5
14
330
5
100
AcDbSymbolTableRecord
100
AcDbLinetypeTableRecord
  2
ByBlock
 70
     0
  3

 72
    65
 73
     0
 40
0.0
  0
LTYPE
  5
15
330
5
100
AcDbSymbolTableRecord
100
AcDbLinetypeTableRecord
  2
ByLayer
 70
     0
  3

 72
    65
 73
     0
 40
0.0
  0
LTYPE
  5
16
330
5
100
AcDbSymbolTableRecord
100
AcDbLinetypeTableRecord
  2
Continuous
 70
     0
  3
Solid line
 72
    65
 73
     0
 40
0.0
  0
LTYPE
  5
D7
330
5
100
AcDbSymbolTableRecord
100
AcDbLinetypeTableRecord
  2
HIDDEN
 70
     0
  3
Hidden __ __ __ __ __ __ __ __ __ __ __ __ __ _
 72
    65
 73
     2
 40
9.524999999999996
 49
6.349999999999997
 74
     0
 49
-3.174999999999998
 74
     0
  0
LTYPE
  5
D9
330
5
100
AcDbSymbolTableRecord
100
AcDbLinetypeTableRecord
  2
CENTER
 70
     0
  3
Center ____ _ ____ _ ____ _ ____ _ ____ _ ____
 72
    65
 73
     4
 40
50.8
 49
31.75
 74
     0
 49
-6.349999999999997
 74
     0
 49
6.349999999999997
 74
     0
 49
-6.349999999999997
 74
     0
  0
LTYPE
  5
35815
330
5
100
AcDbSymbolTableRecord
100
AcDbLinetypeTableRecord
  2
PHANTOM
 70
     0
  3
_____ _ _ _____ _ _ _____ _ _ _____
 72
    65
 73
     6
 40
0.8
 49
0.45
 74
     0
 49
-0.05
 74
     0
 49
0.1
 74
     0
 49
-0.05
 74
     0
 49
0.1
 74
     0
 49
-0.05
 74
     0
  0
ENDTAB
  0
TABLE
  2
LAYER
  5
2
102
{ACAD_XDICTIONARY
360
E2
102
}
330
0
100
AcDbSymbolTable
 70
    15
  0
LAYER
  5
10
330
2
100
AcDbSymbolTableRecord
100
AcDbLayerTableRecord
  2
0
 70
     0
 62
     7
  6
Continuous
370
    -3
390
F
  0
LAYER
  5
D1
330
2
100
AcDbSymbolTableRecord
100
AcDbLayerTableRecord
  2
1
 70
     0
 62
     4
  6
Continuous
370
    50
390
F
1001
AcAecLayerStandard
1000

1000

  0
LAYER
  5
D3
330
2
100
AcDbSymbolTableRecord
100
AcDbLayerTableRecord
  2
2
 70
     0
 62
     7
  6
Continuous
370
    25
390
F
1001
AcAecLayerStandard
1000

1000

  0
LAYER
  5
D4
330
2
100
AcDbSymbolTableRecord
100
AcDbLayerTableRecord
  2
3
 70
     0
 62
     1
  6
HIDDEN
370
    35
390
F
1001
AcAecLayerStandard
1000

1000

  0
LAYER
  5
D8
330
2
100
AcDbSymbolTableRecord
100
AcDbLayerTableRecord
  2
4
 70
     0
 62
     2
  6
CENTER
370
    25
390
F
1001
AcAecLayerStandard
1000

1000

  0
LAYER
  5
DA
330
2
100
AcDbSymbolTableRecord
100
AcDbLayerTableRecord
  2
6
 70
     0
 62
     5
  6
Continuous
370
    35
390
F
1001
AcAecLayerStandard
1000

1000

  0
LAYER
  5
DB
330
2
100
AcDbSymbolTableRecord
100
AcDbLayerTableRecord
  2
cut
 70
     0
 62
     1
  6
Continuous
370
    25
390
F
1001
AcAecLayerStandard
1000

1000

  0
LAYER
  5
DC
330
2
100
AcDbSymbolTableRecord
100
AcDbLayerTableRecord
  2
nocut
 70
     0
 62
     7
  6
Continuous
370
    25
390
F
1001
AcAecLayerStandard
1000

1000

  0
LAYER
  5
DD
330
2
100
AcDbSymbolTableRecord
100
AcDbLayerTableRecord
  2
sk1
 70
     0
 62
     4
  6
Continuous
370
    50
390
F
1001
AcAecLayerStandard
1000

1000

  0
LAYER
  5
DE
330
2
100
AcDbSymbolTableRecord
100
AcDbLayerTableRecord
  2
sk2
 70
     0
 62
     7
  6
Continuous
370
    25
390
F
1001
AcAecLayerStandard
1000

1000

  0
LAYER
  5
DF
330
2
100
AcDbSymbolTableRecord
100
AcDbLayerTableRecord
  2
sk3
 70
     0
 62
     1
  6
HIDDEN
370
    35
390
F
1001
AcAecLayerStandard
1000

1000

  0
LAYER
  5
E0
330
2
100
AcDbSymbolTableRecord
100
AcDbLayerTableRecord
  2
sk4
 70
     0
 62
     2
  6
CENTER
370
    25
390
F
1001
AcAecLayerStandard
1000

1000

  0
LAYER
  5
E1
330
2
100
AcDbSymbolTableRecord
100
AcDbLayerTableRecord
  2
sk6
 70
     0
 62
     5
  6
Continuous
370
    35
390
F
1001
AcAecLayerStandard
1000

1000

  0
LAYER
  5
31B6
330
2
100
AcDbSymbolTableRecord
100
AcDbLayerTableRecord
  2
Defpoints
 70
     0
 62
     7
  6
Continuous
290
     0
370
    -3
390
F
  0
ENDTAB
  0
TABLE
  2
STYLE
  5
3
330
0
100
AcDbSymbolTable
 70
    11
  0
STYLE
  5
11
330
3
100
AcDbSymbolTableRecord
100
AcDbTextStyleTableRecord
  2
Standard
 70
     0
 40
0.0
 41
1.0
 50
0.0
 71
     0
 42
2.5
  3
txt.shx
  4
@extfont2.shx
  0
STYLE
  5
D6
330
3
100
AcDbSymbolTableRecord
100
AcDbTextStyleTableRecord
  2

 70
     1
 40
0.0
 41
1.0
 50
0.0
 71
     0
 42
2.5
  3
ltypeshp.shx
  4

  0
STYLE
  5
24A
330
3
100
AcDbSymbolTableRecord
100
AcDbTextStyleTableRecord
  2
simplex
 70
     0
 40
3.5
 41
1.0
 50
0.0
 71
     0
 42
3.5
  3
txt.shx
  4

  0
STYLE
  5
69E
330
3
100
AcDbSymbolTableRecord
100
AcDbTextStyleTableRecord
  2
MX_NOTE_STANDARD
 70
     0
 40
0.0
 41
1.0
 50
0.0
 71
     0
 42
4.2
  3
txt.shx
  4
extfont.shx
  0
STYLE
  5
3524
330
3
100
AcDbSymbolTableRecord
100
AcDbTextStyleTableRecord
  2
TEXTSTYLE_2
 70
     0
 40
0.0
 41
0.775
 50
0.0
 71
     0
 42
0.2
  3
gdt
  4

  0
STYLE
  5
3525
330
3
100
AcDbSymbolTableRecord
100
AcDbTextStyleTableRecord
  2
TEXTSTYLE_3
 70
     0
 40
0.0
 41
0.75
 50
0.0
 71
     0
 42
0.2
  3
txt
  4

  0
STYLE
  5
3526
330
3
100
AcDbSymbolTableRecord
100
AcDbTextStyleTableRecord
  2
TEXTSTYLE_13
 70
     0
 40
0.0
 41
1.0
 50
0.0
 71
     0
 42
0.2
  3
txt
  4

  0
STYLE
  5
519A
330
3
100
AcDbSymbolTableRecord
100
AcDbTextStyleTableRecord
  2
TEXTSTYLE_14
 70
     0
 40
0.0
 41
1.0
 50
0.0
 71
     0
 42
0.2
  3
txt
  4

  0
STYLE
  5
6F72
330
3
100
AcDbSymbolTableRecord
100
AcDbTextStyleTableRecord
  2
TEXTSTYLE_4
 70
     0
 40
0.0
 41
0.75
 50
0.0
 71
     0
 42
0.2
  3
txt
  4

  0
STYLE
  5
6F73
330
3
100
AcDbSymbolTableRecord
100
AcDbTextStyleTableRecord
  2
TEXTSTYLE_17
 70
     0
 40
0.0
 41
1.0
 50
0.0
 71
     0
 42
0.2
  3
txt
  4

  0
STYLE
  5
FE12
330
3
100
AcDbSymbolTableRecord
100
AcDbTextStyleTableRecord
  2
TEXTSTYLE_12
 70
     0
 40
0.0
 41
1.0
 50
0.0
 71
     0
 42
0.2
  3
txt
  4

  0
ENDTAB
  0
TABLE
  2
VIEW
  5
6
330
0
100
AcDbSymbolTable
 70
     0
  0
ENDTAB
  0
TABLE
  2
UCS
  5
7
330
0
100
AcDbSymbolTable
 70
     0
  0
ENDTAB
  0
TABLE
  2
APPID
  5
9
330
0
100
AcDbSymbolTable
 70
    11
  0
APPID
  5
12
330
9
100
AcDbSymbolTableRecord
100
AcDbRegAppTableRecord
  2
ACAD
 70
     0
  0
APPID
  5
D2
330
9
100
AcDbSymbolTableRecord
100
AcDbRegAppTableRecord
  2
AcAecLayerStandard
 70
     0
  0
APPID
  5
E6
330
9
100
AcDbSymbolTableRecord
100
AcDbRegAppTableRecord
  2
ACAD_DSTYLE_DIMTEXT_FILL
 70
     0
  0
APPID
  5
4C84
330
9
100
AcDbSymbolTableRecord
100
AcDbRegAppTableRecord
  2
ACAD_EXEMPT_FROM_CAD_STANDARDS
 70
     0
  0
APPID
  5
3493E
330
9
100
AcDbSymbolTableRecord
100
AcDbRegAppTableRecord
  2
DCO15
 70
     0
  0
APPID
  5
4366A
330
9
100
AcDbSymbolTableRecord
100
AcDbRegAppTableRecord
  2
ACAUTHENVIRON
 70
     0
  0
APPID
  5
4366D
330
9
100
AcDbSymbolTableRecord
100
AcDbRegAppTableRecord
  2
AcDbDynamicBlockTrueName
 70
     0
  0
APPID
  5
4366E
330
9
100
AcDbSymbolTableRecord
100
AcDbRegAppTableRecord
  2
AcDbDynamicBlockGUID
 70
     0
  0
APPID
  5
43670
330
9
100
AcDbSymbolTableRecord
100
AcDbRegAppTableRecord
  2
AcDbBlockRepETag
 70
     0
  0
APPID
  5
45C9F
330
9
100
AcDbSymbolTableRecord
100
AcDbRegAppTableRecord
  2
ACAD_DSTYLE_DIMEXT_ENABLED
 70
     0
  0
APPID
  5
45CA0
330
9
100
AcDbSymbolTableRecord
100
AcDbRegAppTableRecord
  2
ACAD_DSTYLE_DIMEXT_LENGTH
 70
     0
  0
ENDTAB
  0
TABLE
  2
DIMSTYLE
  5
A
330
0
100
AcDbSymbolTable
 70
     9
100
AcDbDimStyleTable
 71
     2
340
1BF
340
27
  0
DIMSTYLE
105
27
330
A
100
AcDbSymbolTableRecord
100
AcDbDimStyleTableRecord
  2
ISO-25
 70
     0
 41
2.5
 42
0.625
 43
3.75
 44
1.25
 73
     0
 74
     0
 77
     1
 78
     8
140
2.5
141
2.5
143
0.03937007874016
147
0.625
171
     3
172
     1
271
     2
272
     2
274
     3
278
    44
283
     0
284
     8
340
11
  0
DIMSTYLE
105
1BF
102
{ACAD_REACTORS
330
55FB1
330
55FB4
330
55FB6
330
56098
330
55FB2
330
55FB3
102
}
330
A
100
AcDbSymbolTableRecord
100
AcDbDimStyleTableRecord
  2
\M+18352\M+18373\M+1815B - ISO-25
 70
     0
 40
0.0
 41
3.5
 42
0.0
 44
1.5
 73
     0
 74
     0
 77
     1
 78
     8
140
3.5
147
2.299999999999998
176
   256
177
   256
178
   256
271
     2
272
     2
284
     8
340
24A
371
    -1
372
    -1
  0
DIMSTYLE
105
69F
330
A
100
AcDbSymbolTableRecord
100
AcDbDimStyleTableRecord
  2
MXDIMSTYLE
 70
     0
 41
2.5
 42
0.5
 43
3.75
 44
1.5
 73
     0
 74
     0
 77
     1
 78
     8
140
4.2
141
2.5
143
0.03937
147
1.0
171
     4
172
     1
173
     1
271
     2
272
     2
274
     4
283
     0
288
     1
340
69E
341
697
343
697
344
697
  0
DIMSTYLE
105
3527
330
A
100
AcDbSymbolTableRecord
100
AcDbDimStyleTableRecord
  2
STANDARD
 70
     0
 41
3.0
 47
0.001
 48
0.001
 71
     1
 73
     0
 74
     0
 77
     1
 78
     8
140
4.0
271
     3
272
     3
284
     8
340
11
341
34B1
342
34B1
343
34B1
344
34B1
  0
DIMSTYLE
105
3528
330
A
100
AcDbSymbolTableRecord
100
AcDbDimStyleTableRecord
  2
DIMSTYLE_1
 70
     0
 41
3.0
 73
     0
 74
     0
 77
     1
 78
     8
140
4.0
271
     3
272
     3
284
     8
340
11
341
34B1
342
34B1
343
34B1
344
34B1
  0
DIMSTYLE
105
3529
330
A
100
AcDbSymbolTableRecord
100
AcDbDimStyleTableRecord
  2
DIMSTYLE_2
 70
     0
 41
3.0
 47
0.001
 48
0.001
 73
     0
 74
     0
 77
     1
 78
     8
140
4.0
271
     3
272
     3
284
     8
340
11
341
34B1
342
34B1
343
34B1
344
34B1
  0
DIMSTYLE
105
352A
330
A
100
AcDbSymbolTableRecord
100
AcDbDimStyleTableRecord
  2
DIMSTYLE_3
 70
     0
 41
3.0
 47
-0.1
 48
0.3
 71
     1
 73
     0
 74
     0
 77
     1
 78
     8
140
4.0
146
0.5
271
     3
272
     3
284
     8
340
11
341
34B1
342
34B1
343
34B1
344
34B1
  0
DIMSTYLE
105
352B
330
A
100
AcDbSymbolTableRecord
100
AcDbDimStyleTableRecord
  2
DIMSTYLE_4
 70
     0
 41
3.0
 47
0.1
 48
0.1
 71
     1
 73
     0
 74
     0
 77
     1
 78
     8
140
4.0
271
     3
272
     3
284
     8
340
11
341
34B1
342
34B1
343
34B1
344
34B1
  0
DIMSTYLE
105
27245
330
A
100
AcDbSymbolTableRecord
100
AcDbDimStyleTableRecord
  2
DIMSTYLE_5
 70
     0
 41
3.0
 47
0.001
 48
0.001
 73
     0
 74
     0
 77
     1
 78
     8
140
4.0
271
     3
272
     3
284
     8
340
11
341
34B1
342
34B1
343
34B1
344
34B1
  0
ENDTAB
  0
TABLE
  2
BLOCK_RECORD
  5
1
330
0
100
AcDbSymbolTable
 70
   121
  0
BLOCK_RECORD
  5
1F
102
{ACAD_XDICTIONARY
360
31EE
102
}
330
1
100
AcDbSymbolTableRecord
100
AcDbBlockTableRecord
  2
*Model_Space
340
22
  0
BLOCK_RECORD
  5
50
330
1
100
AcDbSymbolTableRecord
100
AcDbBlockTableRecord
  2
*Paper_Space
340
51
  0
BLOCK_RECORD
  5
55
330
1
100
AcDbSymbolTableRecord
100
AcDbBlockTableRecord
  2
*Paper_Space0
340
56
  0
BLOCK_RECORD
  5
680
102
{ACAD_XDICTIONARY
360
43668
102
}
330
1
100
AcDbSymbolTableRecord
100
AcDbBlockTableRecord
  2
zero block
340
0
102
{BLKREFS
331
68C
331
55F9E
102
}
1001
ACAD
1000
DesignCenter Data
1002
{
1070
     1
1070
     4
1002
}
1001
AcDbDynamicBlockGUID
1000
{A89DF4EB-B2CB-439E-AC69-1EAC9F242D1C}
1001
AcDbBlockRepETag
1070
     1
1071
        7
  0
BLOCK_RECORD
  5
697
330
1
100
AcDbSymbolTableRecord
100
AcDbBlockTableRecord
  2
_OPEN30
340
0
  0
BLOCK_RECORD
  5
32F1
330
1
100
AcDbSymbolTableRecord
100
AcDbBlockTableRecord
  2
_None
340
0
  0
BLOCK_RECORD
  5
34B1
330
1
100
AcDbSymbolTableRecord
100
AcDbBlockTableRecord
  2
_OPEN
340
0
  0
BLOCK_RECORD
  5
5456E
330
1
100
AcDbSymbolTableRecord
100
AcDbBlockTableRecord
  2
*D10
340
0
  0
BLOCK_RECORD
  5
560B1
330
1
100
AcDbSymbolTableRecord
100
AcDbBlockTableRecord
  2
*D115
340
0
  0
BLOCK_RECORD
  5
560BD
330
1
100
AcDbSymbolTableRecord
100
AcDbBlockTableRecord
  2
*D116
340
0
  0
BLOCK_RECORD
  5
560CA
330
1
100
AcDbSymbolTableRecord
100
AcDbBlockTableRecord
  2
*D117
340
0
  0
BLOCK_RECORD
  5
560D6
330
1
100
AcDbSymbolTableRecord
100
AcDbBlockTableRecord
  2
*D118
340
0
  0
BLOCK_RECORD
  5
560E2
330
1
100
AcDbSymbolTableRecord
100
AcDbBlockTableRecord
  2
*D119
340
0
  0
BLOCK_RECORD
  5
560EE
330
1
100
AcDbSymbolTableRecord
100
AcDbBlockTableRecord
  2
*D120
340
0
  0
ENDTAB
  0
ENDSEC
  0
SECTION
  2
BLOCKS
  0
BLOCK
  5
20
330
1F
100
AcDbEntity
  8
0
100
AcDbBlockBegin
  2
*Model_Space
 70
     0
 10
0.0
 20
0.0
 30
0.0
  3
*Model_Space
  1

  0
ENDBLK
  5
21
330
1F
100
AcDbEntity
  8
0
100
AcDbBlockEnd
  0
BLOCK
  5
52
330
50
100
AcDbEntity
 67
     1
  8
0
100
AcDbBlockBegin
  2
*Paper_Space
 70
     0
 10
0.0
 20
0.0
 30
0.0
  3
*Paper_Space
  1

  0
ENDBLK
  5
53
330
50
100
AcDbEntity
 67
     1
  8
0
100
AcDbBlockEnd
  0
BLOCK
  5
57
330
55
100
AcDbEntity
 67
     1
  8
0
100
AcDbBlockBegin
  2
*Paper_Space0
 70
     0
 10
0.0
 20
0.0
 30
0.0
  3
*Paper_Space0
  1

  0
VIEWPORT
  5
71
102
{ACAD_XDICTIONARY
360
56195
102
}
330
55
100
AcDbEntity
 67
     1
  8
0
100
AcDbViewport
 10
150.1652135264906
 20
101.599997546291
 30
0.0
 40
339.1973820494347
 41
164.5360435314421
 68
     0
 69
     0
 12
150.1652135264906
 22
101.599997546291
 13
0.0
 23
0.0
 14
10.0
 24
10.0
 15
10.0
 25
10.0
 16
0.0
 26
0.0
 36
1.0
 17
0.0
 27
0.0
 37
0.0
 42
50.0
 43
0.0
 44
0.0
 45
164.5360435314421
 50
0.0
 51
0.0
 72
  1000
 90
    32864
  1

281
     0
 71
     1
 74
     0
110
0.0
120
0.0
130
0.0
111
1.0
121
0.0
131
0.0
112
0.0
122
1.0
132
0.0
 79
     0
146
0.0
  0
VIEWPORT
  5
73
102
{ACAD_XDICTIONARY
360
56197
102
}
330
55
100
AcDbEntity
 67
     1
  8
0
100
AcDbViewport
 10
133.3499939441681
 20
101.5999939441681
 30
0.0
 40
213.3599903106689
 41
162.5599903106689
 68
     0
 69
     0
 12
210.0
 22
148.5
 13
0.0
 23
0.0
 14
10.0
 24
10.0
 15
10.0
 25
10.0
 16
0.0
 26
0.0
 36
1.0
 17
0.0
 27
0.0
 37
0.0
 42
50.0
 43
0.0
 44
0.0
 45
324.0677920111345
 50
0.0
 51
0.0
 72
   100
 90
    32864
  1

281
     0
 71
     1
 74
     0
110
0.0
120
0.0
130
0.0
111
1.0
121
0.0
131
0.0
112
0.0
122
1.0
132
0.0
 79
     0
146
0.0
  0
ENDBLK
  5
58
330
55
100
AcDbEntity
 67
     1
  8
0
100
AcDbBlockEnd
  0
BLOCK
  5
68A
330
680
100
AcDbEntity
  8
0
100
AcDbBlockBegin
  2
zero block
 70
     0
 10
0.0
 20
0.0
 30
0.0
  3
zero block
  1

  0
HATCH
  5
43661
330
680
100
AcDbEntity
  8
0
 62
     7
100
AcDbHatch
 10
0.0
 20
0.0
 30
0.0
210
0.0
220
0.0
230
1.0
  2
SOLID
 70
     1
 71
     0
 91
        2
 92
        7
 72
     1
 73
     1
 93
        3
 10
0.0
 20
0.9999999999999875
 42
0.4142135623730915
 10
-1.0
 20
0.0
 42
0.0
 10
0.0
 20
0.0
 42
0.0
 97
        0
 92
        7
 72
     1
 73
     1
 93
        3
 10
1.000000000000007
 20
0.0
 42
0.0
 10
0.0
 20
0.0
 42
0.0
 10
0.0
 20
-1.0
 42
0.4142135623730974
 97
        0
 75
     0
 76
     1
 47
0.0090601366782909
 98
        2
 10
-0.380591363650975
 20
0.4885804701532896
 10
0.4350764810977559
 20
-0.4536738423704725
1001
AcDbBlockRepETag
1070
     1
1071
        0
1005
43661
  0
LINE
  5
43662
330
680
100
AcDbEntity
  8
0
 62
     7
 48
0.2
100
AcDbLine
 10
-1.0
 20
0.0
 30
0.0
 11
1.000000000000007
 21
0.0
 31
0.0
1001
AcDbBlockRepETag
1070
     1
1071
        1
1005
43662
  0
LINE
  5
43663
330
680
100
AcDbEntity
  8
0
 62
     7
 48
0.2
100
AcDbLine
 10
0.0
 20
-1.0
 30
0.0
 11
0.0
 21
0.9999999999999875
 31
0.0
1001
AcDbBlockRepETag
1070
     1
1071
        2
1005
43663
  0
ARC
  5
43664
330
680
100
AcDbEntity
  8
0
 62
     7
 48
0.2
100
AcDbCircle
 10
0.0
 20
0.0
 30
0.0
 40
1.0
100
AcDbArc
 50
270.0
 51
0.0
1001
AcDbBlockRepETag
1070
     1
1071
        3
1005
43664
  0
ARC
  5
43665
330
680
100
AcDbEntity
  8
0
 62
     7
 48
0.2
100
AcDbCircle
 10
0.0
 20
0.0
 30
0.0
 40
1.0
100
AcDbArc
 50
0.0
 51
90.0
1001
AcDbBlockRepETag
1070
     1
1071
        4
1005
43665
  0
ARC
  5
43666
330
680
100
AcDbEntity
  8
0
 62
     7
 48
0.2
100
AcDbCircle
 10
0.0
 20
0.0
 30
0.0
 40
1.0
100
AcDbArc
 50
180.0
 51
270.0
1001
AcDbBlockRepETag
1070
     1
1071
        5
1005
43666
  0
ARC
  5
43667
330
680
100
AcDbEntity
  8
0
 62
     7
 48
0.2
100
AcDbCircle
 10
0.0
 20
0.0
 30
0.0
 40
1.0
100
AcDbArc
 50
90.0
 51
180.0
1001
AcDbBlockRepETag
1070
     1
1071
        6
1005
43667
  0
ENDBLK
  5
68B
330
680
100
AcDbEntity
  8
0
100
AcDbBlockEnd
  0
BLOCK
  5
698
330
697
100
AcDbEntity
  8
0
  6
ByBlock
 62
     0
370
    -2
100
AcDbBlockBegin
  2
_OPEN30
 70
     2
 10
0.0
 20
0.0
 30
0.0
  3
_OPEN30
  1

  0
LINE
  5
699
330
697
100
AcDbEntity
  8
0
  6
ByBlock
 62
     0
370
    -2
100
AcDbLine
 10
-1.0
 20
0.267949
 30
0.0
 11
0.0
 21
0.0
 31
0.0
  0
LINE
  5
69A
330
697
100
AcDbEntity
  8
0
  6
ByBlock
 62
     0
370
    -2
100
AcDbLine
 10
0.0
 20
0.0
 30
0.0
 11
-1.0
 21
-0.267949
 31
0.0
  0
LINE
  5
69B
330
697
100
AcDbEntity
  8
0
  6
ByBlock
 62
     0
370
    -2
100
AcDbLine
 10
0.0
 20
0.0
 30
0.0
 11
-1.0
 21
0.0
 31
0.0
  0
ENDBLK
  5
69C
330
697
100
AcDbEntity
  8
0
  6
ByBlock
 62
     0
370
    -2
100
AcDbBlockEnd
  0
BLOCK
  5
32F2
330
32F1
100
AcDbEntity
  8
0
100
AcDbBlockBegin
  2
_None
 70
     0
 10
0.0
 20
0.0
 30
0.0
  3
_None
  1

  0
ENDBLK
  5
32F3
330
32F1
100
AcDbEntity
  8
0
100
AcDbBlockEnd
  0
BLOCK
  5
34B2
330
34B1
100
AcDbEntity
  8
0
100
AcDbBlockBegin
  2
_OPEN
 70
     0
 10
0.0
 20
0.0
 30
0.0
  3
_OPEN
  1

  0
LINE
  5
34B3
330
34B1
100
AcDbEntity
  8
0
  6
ByBlock
 62
     0
100
AcDbLine
 10
0.0
 20
0.0
 30
0.0
 11
-1.0
 21
0.1766666667
 31
0.0
  0
LINE
  5
34B4
330
34B1
100
AcDbEntity
  8
0
  6
ByBlock
 62
     0
100
AcDbLine
 10
-1.0
 20
-0.1766666667
 30
0.0
 11
0.0
 21
0.0
 31
0.0
  0
LINE
  5
34B5
330
34B1
100
AcDbEntity
  8
0
  6
ByBlock
 62
     0
100
AcDbLine
 10
-1.0
 20
0.0
 30
0.0
 11
0.0
 21
0.0
 31
0.0
  0
ENDBLK
  5
34B6
330
34B1
100
AcDbEntity
  8
0
  6
ByBlock
 62
     0
100
AcDbBlockEnd
  0
BLOCK
  5
54578
330
5456E
100
AcDbEntity
  8
0
100
AcDbBlockBegin
  2
*D10
 70
     1
 10
0.0
 20
0.0
 30
0.0
  3
*D10
  1

  0
LINE
  5
54625
330
5456E
100
AcDbEntity
  8
sk2
100
AcDbLine
 10
3.999999999999971
 20
12.70000000199991
 30
0.0
 11
-14.90629649230001
 21
12.70000000199991
 31
0.0
  0
LINE
  5
54626
330
5456E
100
AcDbEntity
  8
sk2
100
AcDbLine
 10
3.999999999999971
 20
-12.69999999800018
 30
0.0
 11
-14.90629649230002
 21
-12.69999999800017
 31
0.0
  0
LINE
  5
54627
330
5456E
100
AcDbEntity
  8
sk2
100
AcDbLine
 10
-13.40629649230001
 20
9.200000001999915
 30
0.0
 11
-13.40629649230002
 21
-9.199999998000173
 31
0.0
  0
SOLID
  5
54628
330
5456E
100
AcDbEntity
  8
sk2
100
AcDbTrace
 10
-13.98962982563334
 20
9.200000001999915
 30
0.0
 11
-12.82296315896668
 21
9.200000001999915
 31
0.0
 12
-13.40629649230001
 22
12.70000000199991
 32
0.0
 13
-13.40629649230001
 23
12.70000000199991
 33
0.0
  0
SOLID
  5
54629
330
5456E
100
AcDbEntity
  8
sk2
100
AcDbTrace
 10
-13.98962982563335
 20
-9.199999998000173
 30
0.0
 11
-12.82296315896668
 21
-9.199999998000173
 31
0.0
 12
-13.40629649230002
 22
-12.69999999800017
 32
0.0
 13
-13.40629649230002
 23
-12.69999999800017
 33
0.0
  0
MTEXT
  5
5462A
330
5456E
100
AcDbEntity
  8
sk2
100
AcDbMText
 10
-19.20629649230001
 20
0.0000000019998657
 30
0.0
 40
3.5
 41
0.0
 71
     2
 72
     1
  1
\A1;%%c25.4
  7
simplex
 11
0.0000000000000001
 21
1.0
 31
0.0
 73
     1
 44
1.0
1001
ACAD
1000
MTEXTBEGIN
1070
    73
1070
     1
1070
    44
1040
1.0
1070
    74
1070
     0
1000
MTEXTEND
  0
POINT
  5
5462B
330
5456E
100
AcDbEntity
  8
Defpoints
 62
     0
100
AcDbPoint
 10
3.999999999999971
 20
12.70000000199991
 30
0.0
  0
POINT
  5
5462C
330
5456E
100
AcDbEntity
  8
Defpoints
 62
     0
100
AcDbPoint
 10
3.999999999999971
 20
-12.69999999800018
 30
0.0
  0
POINT
  5
5462D
330
5456E
100
AcDbEntity
  8
Defpoints
 62
     0
100
AcDbPoint
 10
-13.40629649230002
 20
-12.69999999800017
 30
0.0
  0
ENDBLK
  5
54579
330
5456E
100
AcDbEntity
  8
0
100
AcDbBlockEnd
  0
BLOCK
  5
560BB
330
560B1
100
AcDbEntity
  8
0
100
AcDbBlockBegin
  2
*D115
 70
     1
 10
0.0
 20
0.0
 30
0.0
  3
*D115
  1

  0
LINE
  5
56154
330
560B1
100
AcDbEntity
  8
sk2
100
AcDbLine
 10
1.5
 20
-23.81500000009999
 30
0.0
 11
-24.118964295747
 21
-23.81500000009998
 31
0.0
  0
LINE
  5
56155
330
560B1
100
AcDbEntity
  8
sk2
100
AcDbLine
 10
0.0
 20
23.81499999990001
 30
0.0
 11
-24.11896429574699
 21
23.81499999990002
 31
0.0
  0
LINE
  5
56156
330
560B1
100
AcDbEntity
  8
sk2
100
AcDbLine
 10
-22.61896429574699
 20
-20.31500000009998
 30
0.0
 11
-22.61896429574699
 21
20.31499999990002
 31
0.0
  0
SOLID
  5
56157
330
560B1
100
AcDbEntity
  8
sk2
100
AcDbTrace
 10
-23.20229762908033
 20
-20.31500000009998
 30
0.0
 11
-22.03563096241366
 21
-20.31500000009998
 31
0.0
 12
-22.61896429574699
 22
-23.81500000009999
 32
0.0
 13
-22.61896429574699
 23
-23.81500000009999
 33
0.0
  0
SOLID
  5
56158
330
560B1
100
AcDbEntity
  8
sk2
100
AcDbTrace
 10
-23.20229762908032
 20
20.31499999990002
 30
0.0
 11
-22.03563096241365
 21
20.31499999990002
 31
0.0
 12
-22.61896429574699
 22
23.81499999990001
 32
0.0
 13
-22.61896429574699
 23
23.81499999990001
 33
0.0
  0
MTEXT
  5
56159
330
560B1
100
AcDbEntity
  8
sk2
100
AcDbMText
 10
-26.66896429574699
 20
-0.0000000000999875
 30
0.0
 40
3.5
 41
0.0
 71
     5
 72
     1
  1
\A1;%%c47.63 [%%C1.875"]
  7
simplex
 11
0.0000000000000001
 21
1.0
 31
0.0
 73
     1
 44
1.0
1001
ACAD
1000
MTEXTBEGIN
1070
    73
1070
     1
1070
    44
1040
1.0
1070
    74
1070
     0
1000
MTEXTEND
  0
POINT
  5
5615A
330
560B1
100
AcDbEntity
  8
Defpoints
 62
     0
100
AcDbPoint
 10
1.5
 20
-23.81500000009999
 30
0.0
  0
POINT
  5
5615B
330
560B1
100
AcDbEntity
  8
Defpoints
 62
     0
100
AcDbPoint
 10
0.0
 20
23.81499999990001
 30
0.0
  0
POINT
  5
5615C
330
560B1
100
AcDbEntity
  8
Defpoints
 62
     0
100
AcDbPoint
 10
-22.61896429574699
 20
23.81499999990001
 30
0.0
  0
ENDBLK
  5
560BC
330
560B1
100
AcDbEntity
  8
0
100
AcDbBlockEnd
  0
BLOCK
  5
560C8
330
560BD
100
AcDbEntity
  8
0
100
AcDbBlockBegin
  2
*D116
 70
     1
 10
0.0
 20
0.0
 30
0.0
  3
*D116
  1

  0
LINE
  5
5615D
330
560BD
100
AcDbEntity
  8
sk2
100
AcDbLine
 10
19.0
 20
-9.600000000000022
 30
0.0
 11
19.0
 21
-44.01852195950448
 31
0.0
  0
LINE
  5
5615E
330
560BD
100
AcDbEntity
  8
sk2
100
AcDbLine
 10
0.0
 20
-20.99999708259998
 30
0.0
 11
-0.0000000000000014
 21
-44.01852195950448
 31
0.0
  0
LINE
  5
5615F
330
560BD
100
AcDbEntity
  8
sk2
100
AcDbLine
 10
3.499999999999998
 20
-42.51852195950448
 30
0.0
 11
15.5
 21
-42.51852195950448
 31
0.0
  0
LINE
  5
56160
330
560BD
100
AcDbEntity
  8
sk2
100
AcDbLine
 10
19.0
 20
-42.51852195950448
 30
0.0
 11
53.93333333333334
 21
-42.51852195950448
 31
0.0
  0
SOLID
  5
56161
330
560BD
100
AcDbEntity
  8
sk2
100
AcDbTrace
 10
3.499999999999998
 20
-41.93518862617114
 30
0.0
 11
3.499999999999998
 21
-43.10185529283781
 31
0.0
 12
-0.0000000000000013
 22
-42.51852195950448
 32
0.0
 13
-0.0000000000000013
 23
-42.51852195950448
 33
0.0
  0
SOLID
  5
56162
330
560BD
100
AcDbEntity
  8
sk2
100
AcDbTrace
 10
15.5
 20
-41.93518862617114
 30
0.0
 11
15.5
 21
-43.10185529283781
 31
0.0
 12
19.0
 22
-42.51852195950448
 32
0.0
 13
19.0
 23
-42.51852195950448
 33
0.0
  0
MTEXT
  5
56163
330
560BD
100
AcDbEntity
  8
sk2
100
AcDbMText
 10
38.21666666666667
 20
-38.46852195950449
 30
0.0
 40
3.5
 41
0.0
 71
     5
 72
     1
  1
\A1;19 [.748"]
  7
simplex
 73
     1
 44
1.0
1001
ACAD
1000
MTEXTBEGIN
1070
    73
1070
     1
1070
    44
1040
1.0
1070
    74
1070
     0
1000
MTEXTEND
  0
POINT
  5
56164
330
560BD
100
AcDbEntity
  8
Defpoints
 62
     0
100
AcDbPoint
 10
19.0
 20
-9.600000000000022
 30
0.0
  0
POINT
  5
56165
330
560BD
100
AcDbEntity
  8
Defpoints
 62
     0
100
AcDbPoint
 10
0.0
 20
-20.99999708259998
 30
0.0
  0
POINT
  5
56166
330
560BD
100
AcDbEntity
  8
Defpoints
 62
     0
100
AcDbPoint
 10
-0.0000000000000013
 20
-42.51852195950448
 30
0.0
  0
ENDBLK
  5
560C9
330
560BD
100
AcDbEntity
  8
0
100
AcDbBlockEnd
  0
BLOCK
  5
560D4
330
560CA
100
AcDbEntity
  8
0
100
AcDbBlockBegin
  2
*D117
 70
     1
 10
0.0
 20
0.0
 30
0.0
  3
*D117
  1

  0
LINE
  5
56167
330
560CA
100
AcDbEntity
  8
2
100
AcDbLine
 10
50.80000000000004
 20
24.27918661429999
 30
0.0
 11
50.80000000000004
 21
44.97673342023733
 31
0.0
  0
LINE
  5
56168
330
560CA
100
AcDbEntity
  8
2
100
AcDbLine
 10
29.80000000000535
 20
25.40000000000001
 30
0.0
 11
29.80000000000535
 21
44.97673342023733
 31
0.0
  0
LINE
  5
56169
330
560CA
100
AcDbEntity
  8
2
100
AcDbLine
 10
47.30000000000003
 20
43.47673342023734
 30
0.0
 11
33.30000000000536
 21
43.47673342023734
 31
0.0
  0
LINE
  5
5616A
330
560CA
100
AcDbEntity
  8
2
100
AcDbLine
 10
29.80000000000535
 20
43.47673342023734
 30
0.0
 11
-20.29999999999466
 21
43.47673342023734
 31
0.0
  0
SOLID
  5
5616B
330
560CA
100
AcDbEntity
  8
2
100
AcDbTrace
 10
47.30000000000003
 20
44.06006675357067
 30
0.0
 11
47.30000000000003
 21
42.893400086904
 31
0.0
 12
50.80000000000004
 22
43.47673342023734
 32
0.0
 13
50.80000000000004
 23
43.47673342023734
 33
0.0
  0
SOLID
  5
5616C
330
560CA
100
AcDbEntity
  8
2
100
AcDbTrace
 10
33.30000000000536
 20
44.06006675357067
 30
0.0
 11
33.30000000000536
 21
42.893400086904
 31
0.0
 12
29.80000000000535
 22
43.47673342023734
 32
0.0
 13
29.80000000000535
 23
43.47673342023734
 33
0.0
  0
MTEXT
  5
5616D
330
560CA
100
AcDbEntity
  8
2
100
AcDbMText
 10
3.000000000005343
 20
47.52673342023733
 30
0.0
 40
3.5
 41
0.0
 71
     5
 72
     1
  1
\A1;21 [.827"](MAX)
  7
simplex
 73
     1
 44
1.0
1001
ACAD
1000
MTEXTBEGIN
1070
    73
1070
     1
1070
    44
1040
1.0
1070
    74
1070
     0
1000
MTEXTEND
  0
POINT
  5
5616E
330
560CA
100
AcDbEntity
  8
Defpoints
 62
     0
100
AcDbPoint
 10
50.80000000000004
 20
24.27918661429999
 30
0.0
  0
POINT
  5
5616F
330
560CA
100
AcDbEntity
  8
Defpoints
 62
     0
100
AcDbPoint
 10
29.80000000000535
 20
25.40000000000001
 30
0.0
  0
POINT
  5
56170
330
560CA
100
AcDbEntity
  8
Defpoints
 62
     0
100
AcDbPoint
 10
29.80000000000535
 20
43.47673342023734
 30
0.0
  0
ENDBLK
  5
560D5
330
560CA
100
AcDbEntity
  8
0
100
AcDbBlockEnd
  0
BLOCK
  5
560E0
330
560D6
100
AcDbEntity
  8
0
100
AcDbBlockBegin
  2
*D118
 70
     1
 10
0.0
 20
0.0
 30
0.0
  3
*D118
  1

  0
LINE
  5
56171
330
560D6
100
AcDbEntity
  8
sk2
100
AcDbLine
 10
1.200000000000017
 20
-9.525000000000034
 30
0.0
 11
-13.0318893888458
 21
-9.52500000000003
 31
0.0
  0
LINE
  5
56172
330
560D6
100
AcDbEntity
  8
sk2
100
AcDbLine
 10
1.200000000000017
 20
9.524999999999977
 30
0.0
 11
-13.03188938884579
 21
9.52499999999998
 31
0.0
  0
LINE
  5
56173
330
560D6
100
AcDbEntity
  8
sk2
100
AcDbLine
 10
-11.5318893888458
 20
-6.025000000000031
 30
0.0
 11
-11.53188938884579
 21
6.024999999999979
 31
0.0
  0
SOLID
  5
56174
330
560D6
100
AcDbEntity
  8
sk2
100
AcDbTrace
 10
-12.11522272217913
 20
-6.025000000000031
 30
0.0
 11
-10.94855605551246
 21
-6.025000000000031
 31
0.0
 12
-11.5318893888458
 22
-9.525000000000032
 32
0.0
 13
-11.5318893888458
 23
-9.525000000000032
 33
0.0
  0
SOLID
  5
56175
330
560D6
100
AcDbEntity
  8
sk2
100
AcDbTrace
 10
-12.11522272217913
 20
6.024999999999979
 30
0.0
 11
-10.94855605551246
 21
6.024999999999979
 31
0.0
 12
-11.53188938884579
 22
9.524999999999979
 32
0.0
 13
-11.53188938884579
 23
9.524999999999979
 33
0.0
  0
MTEXT
  5
56176
330
560D6
100
AcDbEntity
  8
sk2
100
AcDbMText
 10
-15.58188938884579
 20
-0.0000000000000272
 30
0.0
 40
3.5
 41
0.0
 71
     5
 72
     1
  1
\A1;%%c19.05 [%%C.750"]
  7
simplex
 11
0.0000000000000001
 21
1.0
 31
0.0
 73
     1
 44
1.0
1001
ACAD
1000
MTEXTBEGIN
1070
    73
1070
     1
1070
    44
1040
1.0
1070
    74
1070
     0
1000
MTEXTEND
  0
POINT
  5
56177
330
560D6
100
AcDbEntity
  8
Defpoints
 62
     0
100
AcDbPoint
 10
1.200000000000017
 20
-9.525000000000034
 30
0.0
  0
POINT
  5
56178
330
560D6
100
AcDbEntity
  8
Defpoints
 62
     0
100
AcDbPoint
 10
1.200000000000017
 20
9.524999999999977
 30
0.0
  0
POINT
  5
56179
330
560D6
100
AcDbEntity
  8
Defpoints
 62
     0
100
AcDbPoint
 10
-11.53188938884579
 20
9.524999999999979
 30
0.0
  0
ENDBLK
  5
560E1
330
560D6
100
AcDbEntity
  8
0
100
AcDbBlockEnd
  0
BLOCK
  5
560EC
330
560E2
100
AcDbEntity
  8
0
100
AcDbBlockBegin
  2
*D119
 70
     1
 10
0.0
 20
0.0
 30
0.0
  3
*D119
  1

  0
LINE
  5
5617A
330
560E2
100
AcDbEntity
  8
2
100
AcDbLine
 10
50.80000000000004
 20
24.27918661429999
 30
0.0
 11
50.80000000000004
 21
56.79172627879996
 31
0.0
  0
LINE
  5
5617B
330
560E2
100
AcDbEntity
  8
2
100
AcDbLine
 10
0.0
 20
20.99999708259998
 30
0.0
 11
0.0000000000000022
 21
56.79172627879996
 31
0.0
  0
LINE
  5
5617C
330
560E2
100
AcDbEntity
  8
2
100
AcDbLine
 10
47.30000000000003
 20
55.29172627879995
 30
0.0
 11
3.500000000000002
 21
55.29172627879995
 31
0.0
  0
SOLID
  5
5617D
330
560E2
100
AcDbEntity
  8
2
100
AcDbTrace
 10
47.30000000000003
 20
55.87505961213329
 30
0.0
 11
47.30000000000003
 21
54.70839294546662
 31
0.0
 12
50.80000000000004
 22
55.29172627879995
 32
0.0
 13
50.80000000000004
 23
55.29172627879995
 33
0.0
  0
SOLID
  5
5617E
330
560E2
100
AcDbEntity
  8
2
100
AcDbTrace
 10
3.500000000000002
 20
55.87505961213329
 30
0.0
 11
3.500000000000002
 21
54.70839294546662
 31
0.0
 12
0.0000000000000021
 22
55.29172627879995
 32
0.0
 13
0.0000000000000021
 23
55.29172627879995
 33
0.0
  0
MTEXT
  5
5617F
330
560E2
100
AcDbEntity
  8
2
100
AcDbMText
 10
25.40000000000002
 20
59.34172627879995
 30
0.0
 40
3.5
 41
0.0
 71
     5
 72
     1
  1
\A1;50.8 [2.000"]
  7
simplex
 73
     1
 44
1.0
1001
ACAD
1000
MTEXTBEGIN
1070
    73
1070
     1
1070
    44
1040
1.0
1070
    74
1070
     0
1000
MTEXTEND
  0
POINT
  5
56180
330
560E2
100
AcDbEntity
  8
Defpoints
 62
     0
100
AcDbPoint
 10
50.80000000000004
 20
24.27918661429999
 30
0.0
  0
POINT
  5
56181
330
560E2
100
AcDbEntity
  8
Defpoints
 62
     0
100
AcDbPoint
 10
0.0
 20
20.99999708259998
 30
0.0
  0
POINT
  5
56182
330
560E2
100
AcDbEntity
  8
Defpoints
 62
     0
100
AcDbPoint
 10
0.0000000000000021
 20
55.29172627879995
 30
0.0
  0
ENDBLK
  5
560ED
330
560E2
100
AcDbEntity
  8
0
100
AcDbBlockEnd
  0
BLOCK
  5
560F6
330
560EE
100
AcDbEntity
  8
0
100
AcDbBlockBegin
  2
*D120
 70
     1
 10
0.0
 20
0.0
 30
0.0
  3
*D120
  1

  0
LINE
  5
56183
330
560EE
100
AcDbEntity
  8
2
100
AcDbLine
 10
50.00000000000003
 20
25.40000000000001
 30
0.0
 11
78.72306359966995
 21
25.4
 31
0.0
  0
LINE
  5
56184
330
560EE
100
AcDbEntity
  8
2
100
AcDbLine
 10
77.22306359966996
 20
21.9
 30
0.0
 11
77.22306359966996
 21
-25.40000000000002
 31
0.0
  0
SOLID
  5
56185
330
560EE
100
AcDbEntity
  8
2
100
AcDbTrace
 10
76.63973026633662
 20
21.9
 30
0.0
 11
77.80639693300329
 21
21.9
 31
0.0
 12
77.22306359966996
 22
25.4
 32
0.0
 13
77.22306359966996
 23
25.4
 33
0.0
  0
MTEXT
  5
56186
330
560EE
100
AcDbEntity
  8
2
100
AcDbMText
 10
73.17306359966996
 20
-1.750000000000006
 30
0.0
 40
3.5
 41
0.0
 71
     5
 72
     1
  1
\A1;%%c50.8 [%%C2.000"]
  7
simplex
 11
0.0000000000000001
 21
1.0
 31
0.0
 73
     1
 44
1.0
1001
ACAD
1000
MTEXTBEGIN
1070
    73
1070
     1
1070
    44
1040
1.0
1070
    74
1070
     0
1000
MTEXTEND
  0
POINT
  5
56187
330
560EE
100
AcDbEntity
  8
Defpoints
 62
     0
100
AcDbPoint
 10
50.00000000000003
 20
25.40000000000001
 30
0.0
  0
POINT
  5
56188
330
560EE
100
AcDbEntity
  8
Defpoints
 62
     0
100
AcDbPoint
 10
50.00000000000003
 20
-25.40000000000001
 30
0.0
  0
POINT
  5
56189
330
560EE
100
AcDbEntity
  8
Defpoints
 62
     0
100
AcDbPoint
 10
77.22306359966996
 20
-25.40000000000002
 30
0.0
  0
ENDBLK
  5
560F7
330
560EE
100
AcDbEntity
  8
0
100
AcDbBlockEnd
  0
ENDSEC
  0
SECTION
  2
ENTITIES
  0
INSERT
  5
68C
330
1F
100
AcDbEntity
  8
0
100
AcDbBlockReference
  2
zero block
 10
0.0000000000000072
 20
0.0
 30
0.0
 50
180.0
  0
TEXT
  5
55FB0
330
1F
100
AcDbEntity
  8
6
100
AcDbText
 10
-7.266473655993877
 20
72.59864205995808
 30
0.0
 40
5.0
  1
AXD7000UR0203A
  7
simplex
100
AcDbText
  0
DIMENSION
  5
55FB1
330
1F
100
AcDbEntity
  8
sk2
100
AcDbDimension
  2
*D115
 10
-22.61896429574699
 20
23.81499999990001
 30
0.0
 11
-22.61896429574699
 21
-0.000000000099988
 31
0.0
 70
   160
  1
%%c<>
 71
     5
 42
47.62999999999999
  3
\M+18352\M+18373\M+1815B - ISO-25
100
AcDbAlignedDimension
 13
1.5
 23
-23.81500000009999
 33
0.0
 14
0.0
 24
23.81499999990001
 34
0.0
 50
90.0
100
AcDbRotatedDimension
1001
ACAD
1000
DSTYLE
1002
{
1070
     4
1000
%%C[]"
1070
    40
1040
1.0
1070
   143
1040
0.03937
1070
   170
1070
     1
1070
   171
1070
     3
1070
   271
1070
     8
1070
   285
1070
     4
1002
}
  0
DIMENSION
  5
55FB2
330
1F
100
AcDbEntity
  8
sk2
100
AcDbDimension
  2
*D116
 10
-0.0000000000000013
 20
-42.51852195950448
 30
0.0
 11
38.21666666666667
 21
-42.51852195950448
 31
0.0
 70
   160
 71
     5
 42
19.0
  3
\M+18352\M+18373\M+1815B - ISO-25
100
AcDbAlignedDimension
 13
19.0
 23
-9.600000000000022
 33
0.0
 14
0.0
 24
-20.99999708259998
 34
0.0
 50
180.0
100
AcDbRotatedDimension
1001
ACAD
1000
DSTYLE
1002
{
1070
     4
1000
[]"
1070
    40
1040
1.0
1070
   143
1040
0.03937
1070
   170
1070
     1
1070
   171
1070
     3
1070
   271
1070
     8
1070
   285
1070
     4
1002
}
  0
DIMENSION
  5
55FB3
330
1F
100
AcDbEntity
  8
2
100
AcDbDimension
  2
*D117
 10
29.80000000000535
 20
43.47673342023734
 30
0.0
 11
3.000000000005343
 21
43.47673342023734
 31
0.0
 70
   160
  1
<>(MAX)
 71
     5
 42
20.99999999999468
  3
\M+18352\M+18373\M+1815B - ISO-25
100
AcDbAlignedDimension
 13
50.80000000000004
 23
24.27918661429999
 33
0.0
 14
29.80000000000535
 24
25.40000000000001
 34
0.0
 50
180.0
100
AcDbRotatedDimension
1001
ACAD
1000
DSTYLE
1002
{
1070
     4
1000
"
1070
    40
1040
1.0
1070
   143
1040
0.03937
1070
   170
1070
     1
1070
   171
1070
     3
1070
   271
1070
     8
1070
   285
1070
     4
1002
}
  0
DIMENSION
  5
55FB4
330
1F
100
AcDbEntity
  8
sk2
100
AcDbDimension
  2
*D118
 10
-11.53188938884579
 20
9.524999999999979
 30
0.0
 11
-11.53188938884579
 21
-0.0000000000000277
 31
0.0
 70
   160
  1
%%c<>
 71
     5
 42
19.05000000000001
  3
\M+18352\M+18373\M+1815B - ISO-25
100
AcDbAlignedDimension
 13
1.200000000000017
 23
-9.525000000000034
 33
0.0
 14
1.200000000000017
 24
9.524999999999977
 34
0.0
 50
90.0
100
AcDbRotatedDimension
1001
ACAD
1000
DSTYLE
1002
{
1070
     4
1000
%%C[]"
1070
    40
1040
1.0
1070
   143
1040
0.03937
1070
   170
1070
     1
1070
   171
1070
     3
1070
   271
1070
     8
1070
   285
1070
     4
1002
}
  0
LINE
  5
55FB5
330
1F
100
AcDbEntity
  8
4
100
AcDbLine
 10
-3.335501531441479
 20
0.0
 30
0.0
 11
52.32997738813861
 21
0.0
 31
0.0
  0
DIMENSION
  5
55FB6
330
1F
100
AcDbEntity
  8
2
100
AcDbDimension
  2
*D119
 10
0.0000000000000021
 20
55.29172627879995
 30
0.0
 11
25.40000000000002
 21
59.34172627879995
 31
0.0
 70
    32
 71
     5
 42
50.80000000000004
  3
\M+18352\M+18373\M+1815B - ISO-25
100
AcDbAlignedDimension
 13
50.80000000000004
 23
24.27918661429999
 33
0.0
 14
0.0
 24
20.99999708259998
 34
0.0
 50
180.0
100
AcDbRotatedDimension
1001
ACAD
1000
DSTYLE
1002
{
1070
     4
1000
"
1070
    40
1040
1.0
1070
   143
1040
0.03937
1070
   170
1070
     1
1070
   171
1070
     3
1070
   271
1070
     8
1070
   285
1070
     4
1002
}
  0
LWPOLYLINE
  5
55FB7
330
1F
100
AcDbEntity
  8
1
100
AcDbPolyline
 90
       58
 70
     0
 43
0.0
 10
34.75728758860001
 20
3.609198917699984
 42
-0.0072394247932475
 10
34.73386102000802
 20
3.459140143382569
 42
-0.0071739845295569
 10
34.70610793427804
 20
3.309822595558891
 42
-0.007034205256329
 10
34.67412236032302
 20
3.161346375274376
 42
-0.0069371093719135
 10
34.63800459268674
 20
3.013817479212946
 42
-0.006898550144036
 10
34.59781975600441
 20
2.867346729428163
 42
-0.0068675403183682
 10
34.55361877904812
 20
2.722037941840142
 42
-0.0068997946769819
 10
34.5054357537806
 20
2.57800043392654
 42
-0.0069479760436328
 10
34.45328282846802
 20
2.435352513347702
 42
-0.0070424275521685
 10
34.39716357567511
 20
2.294216894342859
 42
-0.0071926779133028
 10
34.33705021523213
 20
2.154737021151497
 42
-0.0073663141987517
 10
34.27290412540842
 20
2.017064956606354
 42
-0.0076371803241457
 10
34.20465760916986
 20
1.881379606333723
 42
-0.0079266880658903
 10
34.13222277676132
 20
1.747883637689646
 42
-0.008346188483157
 10
34.05548543356284
 20
1.616814204062563
 42
-0.0088002204257229
 10
33.97430120811552
 20
1.488453010981338
 42
-0.0094246215796737
 10
33.88849815716034
 20
1.363133161908649
 42
-0.0101122483396533
 10
33.79786854009035
 20
1.241259639837942
 42
-0.0110362147803021
 10
33.70217200459734
 20
1.123325899380056
 42
-0.0120883631675
 10
33.60113572591561
 20
1.009935137846518
 42
-0.0134209231190552
 10
33.49445362947682
 20
0.9018460157887489
 42
-0.0150605614198244
 10
33.38180655975731
 20
0.7999942452408391
 42
-0.0170162242208944
 10
33.26287940344383
 20
0.7055612500567463
 42
-0.0193914933573774
 10
33.13741229162491
 20
0.6200244793282082
 42
-0.0222233790050635
 10
33.00528536465524
 20
0.5452088140692127
 42
-0.02546296630999
 10
32.86665433381239
 20
0.4833094238600211
 42
-0.0289288098365127
 10
32.72214284767736
 20
0.4368269030950387
 42
-0.0322305565849175
 10
32.57305693327936
 20
0.4083415184872479
 42
-0.0347864969491376
 10
32.42151662135933
 20
0.4000749499431891
 42
-0.0359524129083353
 10
32.27033774530324
 20
0.4133085399243442
 42
-0.0353401704090313
 10
32.12258202606844
 20
0.4479447687188554
 42
-0.0331898885905379
 10
31.98094776923495
 20
0.5024939476932105
 42
-0.0300826850853995
 10
31.84732212866723
 20
0.5745081896713487
 42
-0.0266366498056299
 10
31.7226880168565
 20
0.6611925960677354
 42
-0.023320674763054
 10
31.60729962919885
 20
0.7598760617095195
 42
-0.0203702436285469
 10
31.50094299670602
 20
0.8682505840025669
 42
-0.0178579096440789
 10
31.40315948240323
 20
0.9844322463815728
 42
-0.0157896771348195
 10
31.31339714260662
 20
1.106926395003199
 42
-0.01409999663587
 10
31.23109456916012
 20
1.234557437380829
 42
-0.0126748728257199
 10
31.15572644873686
 20
1.36640688249286
 42
-0.0115445386593807
 10
31.08682728505187
 20
1.501753494672861
 42
-0.0106259467747064
 10
31.02398184390111
 20
1.640016079499723
 42
-0.0098394493326508
 10
30.96684367164951
 20
1.780736143468679
 42
-0.0092469786601154
 10
30.91511186627352
 20
1.923532500429644
 42
-0.008713649832021
 10
30.86853895880376
 20
2.068095415239035
 42
-0.0083306191963546
 10
30.82691721216944
 20
2.214160903665337
 42
-0.0079791713791831
 10
30.79007972586811
 20
2.361506914911046
 42
-0.0077389427002595
 10
30.75788895969143
 20
2.509936980694867
 42
-0.0075230438054763
 10
30.73024247102734
 20
2.659281429901739
 42
-0.0073862702333507
 10
30.70705658202951
 20
2.809382671163625
 42
-0.0072855914922947
 10
30.68828417198313
 20
2.960100207767474
 42
-0.0072152521855906
 10
30.67388683596704
 20
3.111298784418856
 42
-0.0071894239516923
 10
30.66385050198224
 20
3.262849243873624
 42
-0.0072200605633328
 10
30.65815163564463
 20
3.41547640923369
 42
-0.007279716988945
 10
30.65688588577314
 20
3.567352523847489
 42
-0.0073951013958671
 10
30.66007738873285
 20
3.71920194902168
 42
-0.0073941909833391
 10
30.66776657762253
 20
3.870899303054152
 42
-0.0072980642225583
 10
30.67984011830004
 20
4.021448277099977
  0
LWPOLYLINE
  5
55FB8
330
1F
100
AcDbEntity
  8
1
100
AcDbPolyline
 90
       16
 70
     0
 43
0.0
 10
45.72006185300003
 20
7.446431061499986
 42
-0.0032884885494952
 10
45.92046580630809
 20
6.960400622220383
 42
-0.0029258301992761
 10
46.11477110065402
 20
6.471897898940987
 42
-0.002572565421785
 10
46.30371874631777
 20
5.981296861908845
 42
-0.0022932016413883
 10
46.48788678640812
 20
5.48888171303502
 42
-0.0020495773156803
 10
46.66777198511304
 20
4.994885313338322
 42
-0.0018380217482425
 10
46.84381921273723
 20
4.499507887387203
 42
-0.0016503829663997
 10
47.01640726235703
 20
4.002914460986509
 42
-0.0014926635884556
 10
47.1858722483094
 20
3.505246456811839
 42
-0.0013451713720076
 10
47.35251289511632
 20
3.006625501428736
 42
-0.0012159145414418
 10
47.51659752321802
 20
2.50715746550906
 42
-0.0011019469472164
 10
47.67837055940384
 20
2.006935723768144
 42
-0.0010064409471552
 10
47.83803284422208
 20
1.506036268733673
 42
-0.0008976429635551
 10
47.99578255526944
 20
1.00453143246699
 42
-0.0007786940209972
 10
48.15185014297654
 20
0.5025002436727278
 42
-0.0007528338917803
 10
48.30640428137252
 20
0.0000005616970498
  0
LWPOLYLINE
  5
55FB9
330
1F
100
AcDbEntity
  8
1
100
AcDbPolyline
 90
       12
 70
     0
 43
0.0
 10
48.04185620080002
 20
0.3171902816000056
 42
-0.0001185126329152
 10
47.7982609286519
 20
1.009467651898994
 42
-0.000151232115801
 10
47.55504400875412
 20
1.70187802134523
 42
-0.0000541033438915
 10
47.31212676895609
 20
2.394393594075893
 42
0.0000536945510482
 10
47.06920306358575
 20
3.086906902229195
 42
0.0001365690616332
 10
46.82601585956493
 20
3.77932771129587
 42
0.0002350743730441
 10
46.58231799525353
 20
4.471568951129484
 42
0.0003379295525951
 10
46.33782567746533
 20
5.163529917545872
 42
0.0004319540229681
 10
46.09226798952974
 20
5.855113508570006
 42
0.000567369464063
 10
45.84534448495602
 20
6.546210641968052
 42
0.0007106450342848
 10
45.59664005080953
 20
7.236668745146346
 42
0.0006697619919674
 10
45.3460198825
 20
7.926433789300006
  0
LWPOLYLINE
  5
55FBA
330
1F
100
AcDbEntity
  8
1
100
AcDbPolyline
 90
        3
 70
     0
 43
0.0
 10
44.86918202310002
 20
2.983866508899943
 10
44.85506169765002
 20
2.866261995499989
 10
44.84094137220004
 20
2.748657482099986
  0
LWPOLYLINE
  5
55FBB
330
1F
100
AcDbEntity
  8
1
100
AcDbPolyline
 90
       58
 70
     0
 43
0.0
 10
41.44141873665875
 20
0.0000002900512186
 10
41.40875758024853
 20
0.0480892885725552
 10
41.37717182729952
 20
0.0968900575165321
 10
41.34662830114024
 20
0.1463506095389562
 10
41.31709300761071
 20
0.1964209083680544
 10
41.28853159154431
 20
0.2470528373648904
 10
41.26091495574025
 20
0.2982051236169809
 10
41.23421663277014
 20
0.3498431570973253
 10
41.20840970768009
 20
0.4019333758695325
 10
41.18346693267213
 20
0.454443038530485
 10
41.15936356629998
 20
0.5073425849530509
 10
41.1360798655501
 20
0.5606076129050166
 10
41.11359595129161
 20
0.6142157299880182
 10
41.09189182994103
 20
0.668144821872545
 10
41.07094734810092
 20
0.7223734701315721
 10
41.05074516675535
 20
0.7768824293884791
 10
41.03127145646363
 20
0.8316556097766465
 10
41.01251229234049
 20
0.8866779830875657
 10
40.99445369354643
 20
0.9419346866031901
 10
40.97708161863522
 20
0.9974110763093335
 10
40.96038291904053
 20
1.053093744090688
 10
40.94434811300362
 20
1.108970745917353
 10
40.92896810453265
 20
1.16503159794319
 10
40.91423376884174
 20
1.221265912564653
 10
40.90013595841554
 20
1.277663398023371
 10
40.88666549652794
 20
1.334213999935165
 10
40.87381459815242
 20
1.390908349787359
 10
40.86157778151735
 20
1.447738176124964
 10
40.84994967757171
 20
1.504695741546811
 10
40.83892490521677
 20
1.561773361627551
 10
40.8284980742886
 20
1.618963404594573
 10
40.81866378508275
 20
1.676258329555821
 10
40.80941749796392
 20
1.733650950697715
 10
40.80075675140244
 20
1.79113468029589
 10
40.79267934171309
 20
1.848703273430537
 10
40.78518306097925
 20
1.906350507894551
 10
40.77826569826109
 20
1.964070183922217
 10
40.77192504076776
 20
2.021856123878016
 10
40.76615900317102
 20
2.079702211618659
 10
40.76096667124732
 20
2.137602557555844
 10
40.75634774491482
 20
2.195551449069448
 10
40.75230192828127
 20
2.253543186766357
 10
40.74882892493363
 20
2.311572076333497
 10
40.74592843820489
 20
2.3696324282215
 10
40.74360017306088
 20
2.427718528508194
 10
40.7418447551116
 20
2.485824447738536
 10
40.74066554085695
 20
2.543944757407871
 10
40.7400664102021
 20
2.602073763703849
 10
40.74005124078138
 20
2.660205744017552
 10
40.74062390645361
 20
2.718334946525999
 10
40.74178827573891
 20
2.776455589819647
 10
40.74354815545499
 20
2.834562902717145
 10
40.74590466832112
 20
2.892651628075036
 10
40.74885577218893
 20
2.950714072105363
 10
40.75239929709633
 20
3.008743550515809
 10
40.75653308938345
 20
3.066733390741376
 10
40.76125501218576
 20
3.124676930901728
 10
40.76656186490001
 20
3.182556349799988
  0
LINE
  5
55FBC
330
1F
100
AcDbEntity
  8
1
100
AcDbLine
 10
14.7320508075
 20
14.87842031829984
 30
0.0
 11
14.7320508075
 21
0.0
 31
0.0
  0
LINE
  5
55FBD
330
1F
100
AcDbEntity
  8
1
100
AcDbLine
 10
15.63760270950001
 20
12.76543640169984
 30
0.0
 11
15.63760270950001
 21
0.0
 31
0.0
  0
LINE
  5
55FBE
330
1F
100
AcDbEntity
  8
sk3
100
AcDbLine
 10
43.07172889240002
 20
11.27918661419993
 30
0.0
 11
43.07172889240002
 21
-12.83929504820003
 31
0.0
  0
LINE
  5
55FBF
330
1F
100
AcDbEntity
  8
sk3
100
AcDbLine
 10
33.5
 20
-7.220000000000027
 30
0.0
 11
33.5
 21
7.21999999999997
 31
0.0
  0
LINE
  5
55FC0
330
1F
100
AcDbEntity
  8
sk3
100
AcDbLine
 10
42.57172889240002
 20
-7.620000000000004
 30
0.0
 11
42.57172889240002
 21
7.619999999999997
 31
0.0
  0
LINE
  5
55FC1
330
1F
100
AcDbEntity
  8
1
100
AcDbLine
 10
29.4538685823
 20
7.757146809399955
 30
0.0
 11
29.4538685823
 21
0.0
 31
0.0
  0
LINE
  5
55FC2
330
1F
100
AcDbEntity
  8
sk3
100
AcDbLine
 10
19.0
 20
9.599999999999958
 30
0.0
 11
19.0
 21
-9.600000000000022
 31
0.0
  0
LINE
  5
55FC3
330
1F
100
AcDbEntity
  8
1
100
AcDbLine
 10
4.760000000000019
 20
3.21999999999997
 30
0.0
 11
4.760000000000019
 21
-3.220000000000027
 31
0.0
  0
LINE
  5
55FC4
330
1F
100
AcDbEntity
  8
1
100
AcDbLine
 10
4.760000000000019
 20
3.21999999999997
 30
0.0
 11
4.760000000000019
 21
-3.220000000000027
 31
0.0
  0
LINE
  5
55FC5
330
1F
100
AcDbEntity
  8
sk3
100
AcDbLine
 10
11.525
 20
-9.525000000000034
 30
0.0
 11
11.525
 21
9.524999999999977
 31
0.0
  0
LINE
  5
55FC6
330
1F
100
AcDbEntity
  8
sk3
100
AcDbLine
 10
12.0
 20
-10.0
 30
0.0
 11
12.0
 21
10.0
 31
0.0
  0
LINE
  5
55FC7
330
1F
100
AcDbEntity
  8
sk3
100
AcDbLine
 10
33.0
 20
-5.270000000000152
 30
0.0
 11
33.0
 21
5.269999999999981
 31
0.0
  0
LWPOLYLINE
  5
55FC8
330
1F
100
AcDbEntity
  8
1
100
AcDbPolyline
 90
       18
 70
     0
 43
0.0
 10
31.43967062780004
 20
0.939398134699843
 42
-0.0163680929055352
 10
31.54428776908574
 20
0.9646029436719913
 42
-0.0153586675664899
 10
31.65031517426854
 20
0.9829992863008669
 42
-0.0132810049726767
 10
31.7572327037561
 20
0.995324618018003
 42
-0.0122776861854566
 10
31.86463839485023
 20
1.002175431814464
 42
-0.0114852540264753
 10
31.9722480313672
 20
1.003926536059168
 42
-0.0108531982454061
 10
32.07983128267995
 20
1.000871925893356
 42
-0.0105176239606555
 10
32.18718615216696
 20
0.9932296242454867
 42
-0.0103007212161567
 10
32.29413094696153
 20
0.9811307723241498
 42
-0.0102954723968569
 10
32.40048685373876
 20
0.9646394107874698
 42
-0.0104166778482658
 10
32.50606973105661
 20
0.9437665476664847
 42
-0.010689825356196
 10
32.61067791870943
 20
0.9184575544500717
 42
-0.0112558265637443
 10
32.71407828996164
 20
0.8885937816586988
 42
-0.0119660927325429
 10
32.81597732537245
 20
0.8539651469902196
 42
-0.0127999235063333
 10
32.91603601618553
 20
0.8143359839185677
 42
-0.0145500241038639
 10
33.01381084672235
 20
0.7693584269155167
 42
-0.0172094517791708
 10
33.10851586727841
 20
0.7182499093971729
 42
-0.016544188589806
 10
33.19953394520002
 20
0.6608251418999771
  0
LWPOLYLINE
  5
55FC9
330
1F
100
AcDbEntity
  8
1
100
AcDbPolyline
 90
       36
 70
     0
 43
0.0
 10
30.83126966330002
 20
2.197955143899946
 42
-0.0163038351975006
 10
30.9210720539721
 20
2.240524881496689
 42
-0.0144410425705735
 10
31.01334732515653
 20
2.27745362135851
 42
-0.0127085840445106
 10
31.10748542201802
 20
2.309349850086441
 42
-0.01141704315365
 10
31.20305065746774
 20
2.336674373313478
 42
-0.010348164297796
 10
31.29971660862683
 20
2.359816196678643
 42
-0.0095001728572438
 10
31.39722406408785
 20
2.379111642485725
 42
-0.008782804926494
 10
31.49537199585413
 20
2.394832990968723
 42
-0.0082269609055668
 10
31.59404683740002
 20
2.407213989399842
 42
-0.0077489381399937
 10
31.69301829397924
 20
2.416436831025229
 42
-0.0073546068409618
 10
31.79222360770282
 20
2.422666767359203
 42
-0.0070481732606554
 10
31.89156726169102
 20
2.426039076915003
 42
-0.0067797659934745
 10
31.99096649260034
 20
2.426664303225145
 42
-0.0065839338697117
 10
32.09034707879545
 20
2.424633463759391
 42
-0.0064188012758297
 10
32.18964150745492
 20
2.420021210503527
 42
-0.0063030564367928
 10
32.28878655908261
 20
2.412884453511189
 42
-0.0062234032499883
 10
32.38772197980086
 20
2.403268384950472
 42
-0.0061754436316949
 10
32.48638862449852
 20
2.391202319143012
 42
-0.0061711941951636
 10
32.58472746702643
 20
2.376705267128038
 42
-0.0061888963018938
 10
32.68267800649454
 20
2.359782349936715
 42
-0.0062570588722574
 10
32.78017707624144
 20
2.340427576060449
 42
-0.0063463351520864
 10
32.87715756581824
 20
2.318622681355748
 42
-0.0064897157061098
 10
32.97354629395193
 20
2.294335936146971
 42
-0.0066653922438819
 10
33.06926327804575
 20
2.26752412596204
 42
-0.0068931922883902
 10
33.16421787188622
 20
2.238127181890035
 42
-0.0071810974225409
 10
33.2583082938765
 20
2.206072339697186
 42
-0.0075161546948319
 10
33.35141581328523
 20
2.171266768871184
 42
-0.0079539392186723
 10
33.44340236354322
 20
2.133599571186323
 42
-0.008455966095732
 10
33.53410462744833
 20
2.092937907211869
 42
-0.0090872573258769
 10
33.62332403107885
 20
2.049120488996379
 42
-0.0098645251161571
 10
33.71082123220094
 20
2.001960218374449
 42
-0.0107797641720966
 10
33.79629940112122
 20
1.951232819437954
 42
-0.0119808460739742
 10
33.87937968104001
 20
1.896671744774202
 42
-0.0134259353595357
 10
33.95958401546662
 20
1.837973122967241
 42
-0.0152656230983049
 10
34.03630981013185
 20
1.774785034566711
 42
-0.0175653287149619
 10
34.10866053070004
 20
1.706719962399965
  0
LWPOLYLINE
  5
55FCA
330
1F
100
AcDbEntity
  8
1
100
AcDbPolyline
 90
       34
 70
     0
 43
0.0
 10
34.12694067850003
 20
1.738982848299933
 42
0.0174062095752887
 10
34.04796010510489
 20
1.809625573916548
 42
0.0150116631028621
 10
33.96455095250184
 20
1.875007814803886
 42
0.0132080183498928
 10
33.87791373920004
 20
1.935370294799838
 42
0.0118449661602475
 10
33.78803726641442
 20
1.991536752069464
 42
0.010674039038116
 10
33.69572269691392
 20
2.043605040037668
 42
0.0097898657980639
 10
33.60135541414076
 20
2.091855492197218
 42
0.0090492550057339
 10
33.50524014879335
 20
2.136524724156572
 42
0.0084365054184141
 10
33.40762130464375
 20
2.17780739816424
 42
0.0079641277936898
 10
33.30870178661371
 20
2.215869191038727
 42
0.0075528042646321
 10
33.20864944230593
 20
2.250846410282967
 42
0.0072376870243777
 10
33.10760617684153
 20
2.282849580052463
 42
0.0069785961539313
 10
33.00569466141559
 20
2.31197070121572
 42
0.0067706631410095
 10
32.9030207958796
 20
2.338279104054542
 42
0.0066243668073527
 10
32.79967945434564
 20
2.361829685840746
 42
0.0064858761184775
 10
32.69608754348912
 20
2.382597198958528
 42
0.0064480923601247
 10
32.59166029259134
 20
2.400736897622941
 42
0.006413531468316
 10
32.48680118872403
 20
2.416186261573329
 42
0.0064298579546108
 10
32.38157996034383
 20
2.428937571553539
 42
0.0064785781777761
 10
32.27606486366253
 20
2.438970768775334
 42
0.0065679201702865
 10
32.17032406642059
 20
2.44624782074117
 42
0.0067072304579363
 10
32.06442753936574
 20
2.450717540942939
 42
0.0068794077628067
 10
31.95844886808041
 20
2.452308936712483
 42
0.0071248975464714
 10
31.85246743316702
 20
2.450933276799332
 42
0.0074085585253648
 10
31.74657089609082
 20
2.446480363434822
 42
0.0077813608351333
 10
31.64085892359253
 20
2.438813440811195
 42
0.0082316601380246
 10
31.53544646359222
 20
2.427770741531219
 42
0.0087689601839389
 10
31.43047113953003
 20
2.413151954132672
 42
0.0094621330910008
 10
31.32609883942101
 20
2.394720069881202
 42
0.0102816858505593
 10
31.2225338428016
 20
2.372190237038182
 42
0.0113252733964824
 10
31.12004161200551
 20
2.345209492817389
 42
0.0125954254177739
 10
31.01895814202726
 20
2.313366284694829
 42
0.0142750480706521
 10
30.91971451351753
 20
2.276164769778169
 42
0.0163101795529204
 10
30.82229178750001
 20
2.232634767799993
  0
LINE
  5
55FCB
330
1F
100
AcDbEntity
  8
sk3
100
AcDbLine
 10
19.4
 20
-5.270000000000152
 30
0.0
 11
33.0
 21
-5.270000000000152
 31
0.0
  0
LINE
  5
55FCC
330
1F
100
AcDbEntity
  8
1
100
AcDbLine
 10
29.45386858230023
 20
-24.10576982679845
 30
0.0
 11
48.04185848016721
 21
-23.47311386371854
 31
0.0
  0
ARC
  5
55FCD
330
1F
100
AcDbEntity
  8
sk3
100
AcDbCircle
 10
45.07172889240002
 20
-12.83929504820003
 30
0.0
 40
2.0
100
AcDbArc
 50
180.0
 51
210.9904561776006
  0
LINE
  5
55FCE
330
1F
100
AcDbEntity
  8
1
100
AcDbLine
 10
48.52484818010004
 20
-22.97340329780003
 30
0.0
 11
48.52484818010004
 21
0.0
 31
0.0
  0
LINE
  5
55FCF
330
1F
100
AcDbEntity
  8
sk3
100
AcDbLine
 10
43.3572227338999
 20
-13.86908562510029
 30
0.0
 11
48.45347471974602
 21
-22.35387429167833
 31
0.0
  0
ARC
  5
55FD0
330
1F
100
AcDbEntity
  8
sk3
100
AcDbCircle
 10
48.02484818010004
 20
-22.61132193589145
 30
0.0
 40
0.5
100
AcDbArc
 50
0.0
 51
30.99045617637692
  0
ARC
  5
55FD1
330
1F
100
AcDbEntity
  8
1
100
AcDbCircle
 10
48.02484818010004
 20
-22.97340329780003
 30
0.0
 40
0.5
100
AcDbArc
 50
271.9493516697993
 51
0.0
  0
LINE
  5
55FD2
330
1F
100
AcDbEntity
  8
sk3
100
AcDbLine
 10
33.0000000035011
 20
-5.269999996498995
 30
0.0
 11
33.50000000390111
 21
-5.769999996198919
 31
0.0
  0
LINE
  5
55FD3
330
1F
100
AcDbEntity
  8
sk3
100
AcDbLine
 10
33.90000000000001
 20
-7.620000000000004
 30
0.0
 11
42.57172889240002
 21
-7.620000000000004
 31
0.0
  0
LINE
  5
55FD4
330
1F
100
AcDbEntity
  8
sk3
100
AcDbLine
 10
42.57172887609934
 20
-7.620000016300821
 30
0.0
 11
43.07172887499925
 21
-8.120000017400855
 31
0.0
  0
ARC
  5
55FD5
330
1F
100
AcDbEntity
  8
sk3
100
AcDbCircle
 10
33.90000000000001
 20
-7.220000000000027
 30
0.0
 40
0.4
100
AcDbArc
 50
180.0
 51
270.0
  0
LWPOLYLINE
  5
55FD6
330
1F
100
AcDbEntity
  8
1
100
AcDbPolyline
 90
       58
 70
     0
 43
0.0
 10
44.84094137220004
 20
2.748657482099986
 10
44.83324036049822
 20
2.696113777071161
 10
44.82506340791537
 20
2.643641663440853
 10
44.81640727096788
 20
2.591247600858473
 10
44.80727158353158
 20
2.538937919136962
 10
44.79765943818444
 20
2.486712189024665
 10
44.78757504370082
 20
2.434574257923308
 10
44.77702259894582
 20
2.382527951577337
 10
44.7660062920755
 20
2.330577074758245
 10
44.75453029978382
 20
2.278725411966206
 10
44.74259878659359
 20
2.226976728148478
 10
44.73021519578483
 20
2.175332890905558
 10
44.71738226494264
 20
2.123799253916835
 10
44.70410182748432
 20
2.072379646462358
 10
44.69037564880003
 20
2.021077603629855
 10
44.67620549496243
 20
1.969896655101869
 10
44.6615931325426
 20
1.918840325339992
 10
44.64654032843603
 20
1.867912133771817
 10
44.63104886722212
 20
1.817115688261367
 10
44.61511993447089
 20
1.76645478533134
 10
44.59875374590725
 20
1.715933372289946
 10
44.58195049769381
 20
1.665555617117888
 10
44.56471038821141
 20
1.615325694898835
 10
44.54703361843098
 20
1.56524778790321
 10
44.52892039229635
 20
1.515326085658493
 10
44.51037091711509
 20
1.465564785007238
 10
44.49138502580882
 20
1.415968017351183
 10
44.47196134690512
 20
1.366541010041878
 10
44.45209809162102
 20
1.317289123307482
 10
44.43179347656212
 20
1.268217730294217
 10
44.4110457287415
 20
1.219332227020338
 10
44.38985308678403
 20
1.17063803223214
 10
44.36821380215991
 20
1.12214058721355
 10
44.34612594000188
 20
1.073845580990443
 10
44.32358595195512
 20
1.025759669083747
 10
44.30058979363752
 20
0.9778902979066401
 10
44.27713344817113
 20
0.9302449800413796
 10
44.25321292193223
 20
0.8828312729040135
 10
44.22882424717184
 20
0.8356567783022228
 10
44.20396349762953
 20
0.7887291667401542
 10
44.17862613470532
 20
0.7420567506908356
 10
44.15280557294724
 20
0.6956496429643267
 10
44.12649507711873
 20
0.6495187775347518
 10
44.09968795651983
 20
0.6036751674945436
 10
44.07237757023202
 20
0.5581299041485295
 10
44.04455733263964
 20
0.5128941557539975
 10
44.01622047588458
 20
0.4679797621323587
 10
43.9873575861011
 20
0.4234010329271314
 10
43.95795871366352
 20
0.3791742279985328
 10
43.92801402361363
 20
0.3353157953146706
 10
43.89751377804095
 20
0.2918423143778455
 10
43.86644839858425
 20
0.2487705687583457
 10
43.83480728448335
 20
0.2061190458132387
 10
43.80257698975109
 20
0.1639107126549675
 10
43.76974421004431
 20
0.1221701236119657
 10
43.73629581616802
 20
0.0809220512974776
 10
43.70221890769761
 20
0.040191516885443
 10
43.66749994703162
 20
0.0000057371038338
  0
LWPOLYLINE
  5
55FD7
330
1F
100
AcDbEntity
  8
1
100
AcDbPolyline
 90
       33
 70
     0
 43
0.0
 10
48.15510671341399
 20
0.000549200137641
 10
48.15151998969162
 20
0.0104271068295248
 10
48.14793660000862
 20
0.0203062235536891
 10
48.14435651483723
 20
0.0301865382945152
 10
48.14077970464689
 20
0.0400680390444563
 10
48.13720613990452
 20
0.0499507138027298
 10
48.13363579109495
 20
0.0598345505234761
 10
48.13006862903342
 20
0.0697195370213422
 10
48.12650462482082
 20
0.0796056620288823
 10
48.12294374966302
 20
0.0894929142138494
 10
48.11938597476341
 20
0.0993812822512155
 10
48.11583127132308
 20
0.1092707548223757
 10
48.11227961054033
 20
0.1191613206153761
 10
48.10873096361143
 20
0.1290529683251975
 10
48.1051853017301
 20
0.1389456866529599
 10
48.10164259608774
 20
0.1488394643067181
 10
48.09810281787335
 20
0.1587342900007229
 10
48.09456593827383
 20
0.1686301524559894
 10
48.09103192847363
 20
0.1785270403993309
 10
48.0875007596357
 20
0.18842494352117
 10
48.08397241765462
 20
0.1983238568270167
 10
48.08044691087991
 20
0.2082237806147305
 10
48.07692424886434
 20
0.2181247172347298
 10
48.07340444116144
 20
0.2280266690354438
 10
48.06988749732525
 20
0.2379296383633687
 10
48.06637342691101
 20
0.2478336275624429
 10
48.06286223947435
 20
0.2577386389755247
 10
48.05935394457174
 20
0.2676446749427441
 10
48.05584855176062
 20
0.2775517378025256
 10
48.05234607059905
 20
0.2874598298913611
 10
48.04884651064577
 20
0.297368953543355
 10
48.04534988146034
 20
0.3072791110909634
 10
48.04185620080002
 20
0.3171902816000056
  0
LWPOLYLINE
  5
55FD8
330
1F
100
AcDbEntity
  8
1
100
AcDbPolyline
 90
       31
 70
     0
 43
0.0
 10
44.14147688089999
 20
0.675981350499967
 42
0.0158263423071914
 10
44.05492156831525
 20
0.7483806928042327
 42
0.0153944735224863
 10
43.96393175221734
 20
0.8151231990519818
 42
0.0129519364746728
 10
43.86931311261236
 20
0.87663109424102
 42
0.0117318012593494
 10
43.77177753149854
 20
0.9334013693904807
 42
0.010668281682926
 10
43.67179783898158
 20
0.9857505277758491
 42
0.0097462070718611
 10
43.56976708999982
 20
1.033985023700317
 42
0.0090559173192479
 10
43.46599469409738
 20
1.078350762788993
 42
0.0085055976964748
 10
43.36072948979043
 20
1.119049438938127
 42
0.0080368736992114
 10
43.25417623577743
 20
1.156247696655206
 42
0.0076807800084919
 10
43.14650621867426
 20
1.190079210122739
 42
0.0073986974057979
 10
43.03786583425782
 20
1.220652409937308
 42
0.0071691078683249
 10
42.92838083526271
 20
1.248048801549821
 42
0.0070172625189513
 10
42.81816282387151
 20
1.272329291084702
 42
0.0069031365011225
 10
42.70731196565193
 20
1.293534766797165
 42
0.0068444899413405
 10
42.5959200149698
 20
1.31168498516007
 42
0.0068363936455057
 10
42.4840735474834
 20
1.326783433023472
 42
0.0068632828398963
 10
42.3718555097127
 20
1.338812816032934
 42
0.0069550315363343
 10
42.25934813878675
 20
1.347737669143036
 42
0.0070835518065541
 10
42.14663476969412
 20
1.353503150620831
 42
0.0072732245845591
 10
42.03380264100101
 20
1.356030583872716
 42
0.0075298908180533
 10
41.92094536705383
 20
1.355220259017187
 42
0.0078386610595891
 10
41.8081665089901
 20
1.35094357002287
 42
0.0082577805276419
 10
41.69558424189577
 20
1.34304040312918
 42
0.0087581690276498
 10
41.58333632588082
 20
1.331316898956849
 42
0.00936161342031
 10
41.47158702922502
 20
1.315536006801657
 42
0.0101988080782535
 10
41.36054071337304
 20
1.295401438980029
 42
0.0111211075250448
 10
41.25045606673833
 20
1.270555671065942
 42
0.0122306544674638
 10
41.14164630854012
 20
1.240611479363508
 42
0.0144557732329891
 10
41.03459023848938
 20
1.20491723103504
 42
0.014542569939516
 10
40.92982047090001
 20
1.162979591599984
  0
LWPOLYLINE
  5
55FD9
330
1F
100
AcDbEntity
  8
1
100
AcDbPolyline
 90
       33
 70
     0
 43
0.0
 10
40.93881233830003
 20
1.129769297499983
 42
-0.0145253073056262
 10
41.03567796676336
 20
1.170728275795504
 42
-0.0144233472325735
 10
41.13478549770809
 20
1.205920777843225
 42
-0.0122107393254522
 10
41.2356302282254
 20
1.23579875117587
 42
-0.0110947898761757
 10
41.3377552734386
 20
1.260958536081538
 42
-0.0101597075799348
 10
41.4408573516057
 20
1.281758907559996
 42
-0.009308578049847
 10
41.54469213606984
 20
1.298534643756333
 42
-0.0086884515597761
 10
41.64906374728428
 20
1.31156462273838
 42
-0.0081692203038307
 10
41.75381528126331
 20
1.321074225066972
 42
-0.0077306074876861
 10
41.85881679698613
 20
1.327249660717541
 42
-0.0074001907633274
 10
41.96395730383102
 20
1.330246837365727
 42
-0.0071190861677218
 10
42.0691408031295
 20
1.33019298301582
 42
-0.006905150593768
 10
42.17428167910449
 20
1.327189538340739
 42
-0.0067464516630901
 10
42.27930159967752
 20
1.321319395536526
 42
-0.0066234235610405
 10
42.38412724372753
 20
1.312644102787025
 42
-0.0065601383423112
 10
42.48868784424604
 20
1.30120905397603
 42
-0.0065249613538799
 10
42.5929137202005
 20
1.287043613958807
 42
-0.0065391220916745
 10
42.69673393997871
 20
1.270160305451717
 42
-0.006593505990622
 10
42.80007536236621
 20
1.250558578934196
 42
-0.0066827764857264
 10
42.90285992094434
 20
1.22822049857347
 42
-0.006832292152426
 10
43.00500339454351
 20
1.203114053587562
 42
-0.0070152512860379
 10
43.10641282728099
 20
1.175190526030171
 42
-0.007268016807684
 10
43.20698313013042
 20
1.144382349518707
 42
-0.0075814195885139
 10
43.30659516708553
 20
1.110605043609716
 42
-0.0079563455144592
 10
43.40510956172326
 20
1.073750013869805
 42
-0.0084509594944271
 10
43.50236210782952
 20
1.033685053120564
 42
-0.0090287251408228
 10
43.59815622708592
 20
0.9902505400098675
 42
-0.009731720182425
 10
43.69225350260871
 20
0.9432545286878166
 42
-0.0106882294627201
 10
43.78435599178092
 20
0.892462421720495
 42
-0.0117550168162886
 10
43.87408524362894
 20
0.8375933612734911
 42
-0.0130099292104304
 10
43.96099583990383
 20
0.7783591913355395
 42
-0.0155539069470362
 10
44.04438749043109
 20
0.7142748741205196
 42
-0.0156977507904397
 10
44.12353933630001
 20
0.6450195534999921
  0
LINE
  5
55FDA
330
1F
100
AcDbEntity
  8
1
100
AcDbLine
 10
48.04185620080002
 20
0.0
 30
0.0
 11
48.04185620080002
 21
0.3171902816000056
 31
0.0
  0
LWPOLYLINE
  5
55FDB
330
1F
100
AcDbEntity
  8
1
100
AcDbPolyline
 90
        4
 70
     0
 43
0.0
 10
32.42154346550004
 20
0.3999785504998385
 42
-0.0046632999951661
 10
32.34685840096032
 20
0.4077329638166703
 42
-0.0046667812152552
 10
32.27232954801133
 20
0.4168796936594959
 42
-0.0046651546598421
 10
32.19798418510004
 20
0.427415983499941
  0
LINE
  5
55FDC
330
1F
100
AcDbEntity
  8
1
100
AcDbLine
 10
0.0
 20
-22.31500000009999
 30
0.0
 11
0.0
 21
-4.470000000100014
 31
0.0
  0
LINE
  5
55FDD
330
1F
100
AcDbEntity
  8
1
100
AcDbLine
 10
12.25
 20
-23.815
 30
0.0
 11
14.7320508075
 21
-23.815
 31
0.0
  0
LINE
  5
55FDE
330
1F
100
AcDbEntity
  8
1
100
AcDbLine
 10
1.5
 20
-23.81500000009999
 30
0.0
 11
14.7320508075
 21
-23.81500000009999
 31
0.0
  0
LINE
  5
55FDF
330
1F
100
AcDbEntity
  8
1
100
AcDbLine
 10
15.63760270950001
 20
-24.10576982680004
 30
0.0
 11
29.45386858230012
 21
-24.10576982680005
 31
0.0
  0
ARC
  5
55FE0
330
1F
100
AcDbEntity
  8
1
100
AcDbCircle
 10
15.63760270950001
 20
-23.60576982680004
 30
0.0
 40
0.5
100
AcDbArc
 50
239.9999999999998
 51
270.0
  0
ARC
  5
55FE1
330
1F
100
AcDbEntity
  8
1
100
AcDbCircle
 10
14.7320508075
 20
-24.815
 30
0.0
 40
1.0
100
AcDbArc
 50
60.00000000000002
 51
90.0
  0
LINE
  5
55FE2
330
1F
100
AcDbEntity
  8
1
100
AcDbLine
 10
15.23205080750011
 20
-23.94897459620001
 30
0.0
 11
15.38760270950001
 21
-24.03878252869998
 31
0.0
  0
ARC
  5
55FE3
330
1F
100
AcDbEntity
  8
1
100
AcDbCircle
 10
1.5
 20
-22.31500000009999
 30
0.0
 40
1.5
100
AcDbArc
 50
180.0
 51
270.0
  0
LINE
  5
55FE4
330
1F
100
AcDbEntity
  8
sk3
100
AcDbLine
 10
12.0
 20
-10.0
 30
0.0
 11
18.60000000000002
 21
-10.0
 31
0.0
  0
ARC
  5
55FE5
330
1F
100
AcDbEntity
  8
sk3
100
AcDbCircle
 10
19.4
 20
-5.670000000000129
 30
0.0
 40
0.4
100
AcDbArc
 50
90.0
 51
180.0
  0
ARC
  5
55FE6
330
1F
100
AcDbEntity
  8
sk3
100
AcDbCircle
 10
18.60000000000002
 20
-9.600000000000022
 30
0.0
 40
0.4
100
AcDbArc
 50
270.0
 51
0.0
  0
LINE
  5
55FE7
330
1F
100
AcDbEntity
  8
sk3
100
AcDbLine
 10
1.200000000001125
 20
-9.525000000000261
 30
0.0
 11
1.200000321601123
 21
-3.97000000000014
 31
0.0
  0
LINE
  5
55FE8
330
1F
100
AcDbEntity
  8
sk3
100
AcDbLine
 10
1.200000000000017
 20
-9.525000000000034
 30
0.0
 11
11.525
 21
-9.525000000000034
 31
0.0
  0
LINE
  5
55FE9
330
1F
100
AcDbEntity
  8
sk3
100
AcDbLine
 10
11.52499988840012
 20
-9.525000111599808
 30
0.0
 11
11.99999988290014
 21
-10.00000011709983
 31
0.0
  0
LINE
  5
55FEA
330
1F
100
AcDbEntity
  8
sk3
100
AcDbLine
 10
1.200000160799845
 20
-9.525000160800345
 30
0.0
 11
-0.0000000000000568
 21
-10.72500036210033
 31
0.0
  0
ARC
  5
55FEB
330
1F
100
AcDbEntity
  8
1
100
AcDbCircle
 10
10.5
 20
0.0
 30
0.0
 40
1.75
100
AcDbArc
 50
0.0
 51
180.0
  0
LINE
  5
55FEC
330
1F
100
AcDbEntity
  8
1
100
AcDbLine
 10
4.00999999999982
 20
-3.970000000000311
 30
0.0
 11
4.75999999999982
 21
-3.220000000000311
 31
0.0
  0
LINE
  5
55FED
330
1F
100
AcDbEntity
  8
1
100
AcDbLine
 10
4.010000000000019
 20
-3.970000000000027
 30
0.0
 11
0.5
 21
-3.970000000000027
 31
0.0
  0
LINE
  5
55FEE
330
1F
100
AcDbEntity
  8
1
100
AcDbLine
 10
0.4999999999999432
 20
-3.970000000000027
 30
0.0
 11
-0.0000000000000568
 21
-4.470000000000027
 31
0.0
  0
LWPOLYLINE
  5
55FEF
330
1F
100
AcDbEntity
  8
1
100
AcDbPolyline
 90
       28
 70
     0
 43
0.0
 10
37.55663155990004
 20
12.57350287347984
 42
-0.0002961209801184
 10
36.97363901072453
 20
12.57385453671998
 42
-0.0002955605490347
 10
36.39064727777344
 20
12.57489720309189
 42
-0.0002873977092292
 10
35.80765715615823
 20
12.5766188006595
 42
-0.0002811774701977
 10
35.22466936793572
 20
12.57900346866887
 42
-0.0002754776412441
 10
34.64168462335312
 20
12.5820371395402
 42
-0.0002697972681549
 10
34.05870352796308
 20
12.58570658539472
 42
-0.0002635926628256
 10
33.47572667170999
 20
12.58999806159016
 42
-0.0002571545397662
 10
32.89275454679404
 20
12.59489670285757
 42
-0.0002507227980414
 10
32.3097877078595
 20
12.60038749453235
 42
-0.0002463678763559
 10
31.72682661384261
 20
12.60645728737016
 42
-0.0002423344563682
 10
31.1438717645022
 20
12.61309735848288
 42
-0.0002341442487409
 10
30.56092349750253
 20
12.62029305401131
 42
-0.0002283004590773
 10
29.9779821170788
 20
12.62802720642403
 42
-0.0002237130230059
 10
29.39504797448103
 20
12.63628847020692
 42
-0.000218497311617
 10
28.81212136673025
 20
12.64506512588917
 42
-0.0002130465558727
 10
28.22920255396872
 20
12.65434514718305
 42
-0.0002073382768785
 10
27.64629174331131
 20
12.66411512179303
 42
-0.0002021172824116
 10
27.06338913052034
 20
12.674362516762
 42
-0.0001954352530374
 10
26.4804948502636
 20
12.68507347367028
 42
-0.0001917497497176
 10
25.8976090221384
 20
12.69623483778088
 42
-0.0001888592186987
 10
25.31473192111474
 20
12.70784063307178
 42
-0.0001807960461631
 10
24.73186356351795
 20
12.71987744221888
 42
-0.000172578652223
 10
24.14900382213529
 20
12.73232619094369
 42
-0.0001656448748413
 10
23.56615256262148
 20
12.74516846635032
 42
-0.0001673539965937
 10
22.9833099432725
 20
12.75839859116217
 42
-0.0001696227381269
 10
22.40047639057795
 20
12.77202152130735
 42
-0.0001718915776092
 10
21.81765237210004
 20
12.78604253797982
  0
LWPOLYLINE
  5
55FF0
330
1F
100
AcDbEntity
  8
1
100
AcDbPolyline
 90
       37
 70
     0
 43
0.0
 10
27.97758991990003
 20
18.79800077257982
 42
0.0135207021352606
 10
27.98857197806189
 20
18.62052558450466
 42
0.0136001689629073
 10
28.00918144179991
 20
18.4437085777115
 42
0.0135768933642822
 10
28.03933524834963
 20
18.2684543744329
 42
0.0135747245946985
 10
28.07895602852011
 20
18.09509650982431
 42
0.0135930678129451
 10
28.12793198022882
 20
17.92414471460267
 42
0.0135965938860239
 10
28.18612597611121
 20
17.75610733342787
 42
0.0136075324759792
 10
28.25337280071062
 20
17.5914837365118
 42
0.013624834867818
 10
28.32948006897323
 20
17.43076429612483
 42
0.0136328736867911
 10
28.41423052763605
 20
17.2744300254468
 42
0.0136484461211494
 10
28.50738150854852
 20
17.12295094736706
 42
0.0136681341929328
 10
28.60866363150171
 20
16.97678348423397
 42
0.0136785716128432
 10
28.71778382546927
 20
16.83637061320508
 42
0.013696610879256
 10
28.83442511095962
 20
16.7021402852225
 42
0.013717462243221
 10
28.95824560479553
 20
16.57450241358168
 42
0.0137286150156583
 10
29.08888170932243
 20
16.45384943018085
 42
0.0137472414260933
 10
29.22594802149033
 20
16.34055452706984
 42
0.0137675444529528
 10
29.36903704075064
 20
16.23496847709434
 42
0.0137776052897706
 10
29.51772230513345
 20
16.13742069686167
 42
0.0137949375139155
 10
29.67155861157113
 20
16.0482173047697
 42
0.0138129348261066
 10
29.83008242277734
 20
15.96763796115741
 42
0.0138201736542175
 10
29.99281491971624
 20
15.89593745366329
 42
0.013834460901705
 10
30.15926259715872
 20
15.83334369514673
 42
0.0138485905728009
 10
30.32891835847002
 20
15.78005475869052
 42
0.0138515480061812
 10
30.50126437065424
 20
15.73624101574216
 42
0.0138613828266078
 10
30.67577307210906
 20
15.70204321847683
 42
0.013870472385975
 10
30.8519088717967
 20
15.67756989353165
 42
0.0138681368964958
 10
31.02913067719084
 20
15.66290002559951
 42
0.0138726521238184
 10
31.20689327429875
 20
15.65808136445588
 42
0.0138761215416265
 10
31.3846495381577
 20
15.66312835817257
 42
0.0138678790064005
 10
31.56185243216436
 20
15.67802520445338
 42
0.0138670514727328
 10
31.73795657554843
 20
15.70272452157996
 42
0.0138656218004537
 10
31.91242134829884
 20
15.73714656314098
 42
0.0138491336944329
 10
32.08471156208702
 20
15.78118083431332
 42
0.0138459302956545
 10
32.25429742208672
 20
15.83468527936554
 42
0.0138484420042227
 10
32.4206689019471
 20
15.8974972815314
 42
0.0137781880214909
 10
32.58315261310003
 20
15.96932873197985
  0
LWPOLYLINE
  5
55FF1
330
1F
100
AcDbEntity
  8
1
100
AcDbPolyline
 90
       39
 70
     0
 43
0.0
 10
32.58315218760003
 20
21.85376137647986
 42
0.0135413042873505
 10
32.42364491262322
 20
21.92437443755043
 42
0.0135765910340793
 10
32.26053769766264
 20
21.9862362999188
 42
0.013583010128802
 10
32.0943114048444
 20
22.03915405086656
 42
0.013586465275861
 10
31.92545659673732
 20
22.08296587228586
 42
0.0135987950015196
 10
31.75447058690662
 20
22.117536062775
 42
0.0136045164085283
 10
31.58185786111949
 20
22.14275906814507
 42
0.0136034529626302
 10
31.40812873140084
 20
22.15855615590752
 42
0.0136109061386356
 10
31.23379754023551
 20
22.16487853080707
 42
0.0136098986967211
 10
31.05938054553315
 20
22.16170748703418
 42
0.0136044832051055
 10
30.8853943821419
 20
22.14905176285123
 42
0.0136071556456846
 10
30.71235422935735
 20
22.1269508904013
 42
0.0135992175376992
 10
30.54077174825483
 20
22.09547376924036
 42
0.01358984348524
 10
30.37115393609426
 20
22.0547163793176
 42
0.0135877381506869
 10
30.20400068902671
 20
22.00480489232004
 42
0.0135736498796925
 10
30.03980333248981
 20
21.94589297258386
 42
0.013561209308047
 10
29.87904374488332
 20
21.87816002422517
 42
0.0135547767611511
 10
29.72219144461153
 20
21.80181373028716
 42
0.0135840989664714
 10
29.56916948219998
 20
21.71677072597981
 42
0.0135216863915032
 10
29.42150563727924
 20
21.6238900038898
 42
0.0135117747937079
 10
29.2790759600199
 20
21.52316643960217
 42
0.0134902827665042
 10
29.14228996159733
 20
21.41490255435702
 42
0.0134757629775179
 10
29.01153965232203
 20
21.29942161862929
 42
0.0134634138233065
 10
28.88719666215536
 20
21.17706834178409
 42
0.013441395566033
 10
28.76961364725412
 20
21.04820498323122
 42
0.0134282339396093
 10
28.65912268868311
 20
20.91321132962617
 42
0.0134147315417534
 10
28.55603304139492
 20
20.77248434715685
 42
0.0133943593253432
 10
28.46063320464134
 20
20.62643485304969
 42
0.0133840323720924
 10
28.37318865921822
 20
20.47548768848785
 42
0.0133706722610847
 10
28.29394065630464
 20
20.32008060617465
 42
0.0133540091345608
 10
28.2231084702209
 20
20.16066160294423
 42
0.013347592266766
 10
28.160886565797
 20
19.99768900792208
 42
0.0133353586749816
 10
28.10744437650141
 20
19.83163008085501
 42
0.0133247435286564
 10
28.062928811283
 20
19.66295901400116
 42
0.0133234379610021
 10
28.02746107675086
 20
19.49215521053656
 42
0.0133087126590607
 10
28.00113531973039
 20
19.31970604477738
 42
0.0133132389134531
 10
27.98402435047433
 20
19.1461045291677
 42
0.013324522879551
 10
27.97618204563042
 20
18.97182539714731
 42
0.0132137310604694
 10
27.97758991990003
 20
18.79800077257982
  0
LWPOLYLINE
  5
55FF2
330
1F
100
AcDbEntity
  8
1
100
AcDbPolyline
 90
       58
 70
     0
 43
0.0
 10
34.86962888270003
 20
19.04251517047979
 42
0.0135816294840857
 10
34.85687961753252
 20
19.24814515571339
 42
0.0136475759731695
 10
34.83295569767012
 20
19.45279626452694
 42
0.0135950115062948
 10
34.79803251200002
 20
19.65520221047978
 42
0.0136356060075992
 10
34.7520000828772
 20
19.85603430723139
 42
0.0136543849762687
 10
34.69508157154053
 20
20.05405787603118
 42
0.013658016462608
 10
34.62743788387502
 20
20.24867879993835
 42
0.0136686391697422
 10
34.54926283637133
 20
20.43931349240404
 42
0.0136864782462378
 10
34.46078201318824
 20
20.62538889072022
 42
0.0136948592839701
 10
34.36225040742721
 20
20.80634307757537
 42
0.0137098663682635
 10
34.25395266941001
 20
20.98162701452602
 42
0.0137303185309495
 10
34.13620478390039
 20
21.15070766408237
 42
0.0137411661255895
 10
34.00935076164501
 20
21.31306800237529
 42
0.0137583548879514
 10
33.87376239131743
 20
21.46820855161437
 42
0.0137802341506039
 10
33.72984071093231
 20
21.61565110266721
 42
0.0137917880842759
 10
33.57801245128403
 20
21.75493830281558
 42
0.0138092387788887
 10
33.41872956644093
 20
21.88563518756104
 42
0.0138308136347649
 10
33.25246997419785
 20
22.00733326907235
 42
0.013841237060974
 10
33.07973400664426
 20
22.11964957500652
 42
0.01385702381076
 10
32.90104356153449
 20
22.22222815116368
 42
0.0138765076468407
 10
32.71694206411911
 20
22.3147443273107
 42
0.0138840552347836
 10
32.52799095025819
 20
22.3969031795086
 42
0.0138963976235144
 10
32.33476843488552
 20
22.46844084035706
 42
0.0139121915564028
 10
32.13786864891648
 20
22.52912874946769
 42
0.0139154129154592
 10
31.9378982791356
 20
22.57877149736032
 42
0.0139228898001491
 10
31.73547498926661
 20
22.61720777547635
 42
0.0139337842494264
 10
31.53122576817131
 20
22.64431441517546
 42
0.0139794510209862
 10
31.32507894640003
 20
22.66003764917982
 42
0.0139334125844205
 10
31.11908126844813
 20
22.66421807204
 42
0.0139387764767449
 10
30.91317062371903
 20
22.6569165150504
 42
0.0139310799088632
 10
30.70798632884274
 20
22.63815667571818
 42
0.0139267954957284
 10
30.50416533627509
 20
22.60799821477533
 42
0.0139265732148855
 10
30.30233934057054
 20
22.56653988546711
 42
0.0139135227297412
 10
30.10313278401253
 20
22.51391572769597
 42
0.0139037937594972
 10
29.90716113165283
 20
22.45029436665604
 42
0.0138986138776005
 10
29.71502758843764
 20
22.37588152277584
 42
0.0138811185097541
 10
29.52732184076402
 20
22.29091589731087
 42
0.0138670682238458
 10
29.34461862045734
 20
22.19566802773602
 42
0.0138581247490007
 10
29.16747419102705
 20
22.0904421545703
 42
0.0138375793670616
 10
28.99642589550536
 20
21.97557199254962
 42
0.0138208071856852
 10
28.83199109415114
 20
21.85141929334935
 42
0.0138097008615393
 10
28.67466355922045
 20
21.71837510204216
 42
0.0137878094442954
 10
28.52491382659542
 20
21.57685560183299
 42
0.0137701821413208
 10
28.38318851929825
 20
21.42730056023524
 42
0.013758719370643
 10
28.24990673605936
 20
21.27017400833256
 42
0.0137372870540165
 10
28.12546115418229
 20
21.10596034898236
 42
0.0137207260700167
 10
28.01021768883513
 20
20.93516281387389
 42
0.0137107184722524
 10
27.90451193795553
 20
20.75830364689932
 42
0.0136914138706042
 10
27.80865093245649
 20
20.57592061229531
 42
0.0136777440074954
 10
27.72291301461584
 20
20.38856555654252
 42
0.0136708500665363
 10
27.64754444022452
 20
20.19680396772799
 42
0.0136547154903786
 10
27.58276135053953
 20
20.0012122638048
 42
0.013645981281761
 10
27.52875020414803
 20
19.80237657559667
 42
0.0135784910241069
 10
27.48584678043659
 20
19.60186944727536
 42
0.0136276272687608
 10
27.45375469618892
 20
19.3983421436493
 42
0.0136317485863637
 10
27.43280072721453
 20
19.19337385663357
 42
0.0136453419275298
 10
27.42305362486593
 20
18.9875540497228
 42
0.0136416291963455
 10
27.42455327360003
 20
18.78057493857986
  0
LWPOLYLINE
  5
55FF3
330
1F
100
AcDbEntity
  8
1
100
AcDbPolyline
 90
       58
 70
     0
 43
0.0
 10
27.42455327360003
 20
18.78057493857986
 42
0.0135816295203044
 10
27.437302538692
 20
18.57494495334086
 42
0.0136475760202032
 10
27.4612264585167
 20
18.37029384452199
 42
0.0135950115559073
 10
27.49614964420002
 20
18.16788789847985
 42
0.0136356060281499
 10
27.54218207334134
 20
17.96705580173153
 42
0.0136543849481264
 10
27.59910058469149
 20
17.76903223293453
 42
0.0136580164403727
 10
27.66674427236052
 20
17.5744113090274
 42
0.0136686391812989
 10
27.74491931986913
 20
17.38377661656256
 42
0.0136864782745243
 10
27.83340014305873
 20
17.19770121824848
 42
0.0136948592970483
 10
27.93193174882464
 20
17.01674703139502
 42
0.0137098663562331
 10
28.04022948684525
 20
16.8414630944448
 42
0.0137303185438803
 10
28.1579773723667
 20
16.67238244489607
 42
0.0137411660680652
 10
28.28483139462321
 20
16.51002210660317
 42
0.0137583548792003
 10
28.42041976491544
 20
16.35488155732997
 42
0.0137802343050251
 10
28.56434144530112
 20
16.20743900627801
 42
0.0137917880767234
 10
28.71616970499261
 20
16.0681518061757
 42
0.0138092387102779
 10
28.87545258985097
 20
15.93745492144615
 42
0.0138308135753433
 10
29.04171218207494
 20
15.81575683990684
 42
0.0138412370740077
 10
29.21444814960023
 20
15.70344053392715
 42
0.0138570238846988
 10
29.39313859470383
 20
15.60086195775733
 42
0.0138765077037455
 10
29.57724009214093
 20
15.50834578165322
 42
0.013884055185634
 10
29.76619120602874
 20
15.42618692951515
 42
0.0138963975675564
 10
29.95941372140703
 20
15.35464926867388
 42
0.0139121916029673
 10
30.15631350737829
 20
15.29396135957222
 42
0.0139154128436204
 10
30.35628387715951
 20
15.24431861167897
 42
0.0139228897750536
 10
30.55870716701844
 20
15.20588233349001
 42
0.0139337844452781
 10
30.76295638811286
 20
15.17877569379558
 42
0.0139794509829463
 10
30.96910320979998
 20
15.16305245987967
 42
0.0139334125260478
 10
31.1751008877556
 20
15.15887203702488
 42
0.013938776518725
 10
31.38101153248391
 20
15.16617359401507
 42
0.0139310798142891
 10
31.58619582736122
 20
15.18493343334131
 42
0.0139267954792384
 10
31.79001681994441
 20
15.21509189420634
 42
0.0139265734348161
 10
31.99184281564584
 20
15.25655022352057
 42
0.0139135226534395
 10
32.19104937218526
 20
15.3091743813635
 42
0.0139037936665756
 10
32.38702102455602
 20
15.37279574238224
 42
0.0138986139788226
 10
32.57915456777113
 20
15.44720858625967
 42
0.0138811184155576
 10
32.76686031543505
 20
15.53217421174781
 42
0.0138670681373974
 10
32.94956353576981
 20
15.62742208127454
 42
0.0138581248475879
 10
33.1267079652236
 20
15.73264795440121
 42
0.0138375794335977
 10
33.29775626073422
 20
15.8475181164398
 42
0.0138208071862943
 10
33.46219106205385
 20
15.9716708156869
 42
0.0138097007948461
 10
33.61951859696694
 20
16.10471500701736
 42
0.0137878094456911
 10
33.76926832959902
 20
16.24623450722058
 42
0.0137701821544294
 10
33.91099363690035
 20
16.39578954881633
 42
0.0137587194017346
 10
34.04427542012963
 20
16.5529161007273
 42
0.0137372869708296
 10
34.1687210020155
 20
16.71712976007183
 42
0.0137207260742201
 10
34.28396446742173
 20
16.88792729514398
 42
0.0137107186334509
 10
34.38967021829836
 20
17.06478646211916
 42
0.0136914138299381
 10
34.4855312237379
 20
17.24716949675508
 42
0.0136777439239728
 10
34.57126914157493
 20
17.43452455251249
 42
0.0136708501179051
 10
34.64663771597401
 20
17.62628614132419
 42
0.0136547154786173
 10
34.71142080565869
 20
17.82187784524835
 42
0.0136459812661988
 10
34.76543195206602
 20
18.0207135334537
 42
0.0135784910366404
 10
34.80833537576345
 20
18.22122066168435
 42
0.0136276272377912
 10
34.84042745999864
 20
18.42474796531336
 42
0.0136317485442597
 10
34.8613814289696
 20
18.6297162523306
 42
0.0136453418754516
 10
34.87112853135324
 20
18.83553605924101
 42
0.0136416291570819
 10
34.86962888270003
 20
19.04251517047979
  0
LWPOLYLINE
  5
55FF4
330
1F
100
AcDbEntity
  8
1
100
AcDbPolyline
 90
       57
 70
     0
 43
0.0
 10
30.7057111643
 20
4.23993799289996
 42
-0.0073380145581363
 10
30.72698603063142
 20
4.376018225887264
 42
-0.0074655476107718
 10
30.75226588372843
 20
4.511412390620364
 42
-0.007707664608771
 10
30.78164269182887
 20
4.645981363122125
 42
-0.0079664256341135
 10
30.81522229088705
 20
4.779565480336373
 42
-0.0082402895300628
 10
30.85311230764123
 20
4.911988676515363
 42
-0.0085353922921603
 10
30.89542111652832
 20
5.043066934705507
 42
-0.0088791639946499
 10
30.94226790154991
 20
5.172592074101714
 42
-0.0092392532997026
 10
30.99377538936292
 20
5.300335329578047
 42
-0.0096454675255226
 10
31.05006851246856
 20
5.42604211960787
 42
-0.0100717584943128
 10
31.11127237422034
 20
5.549431652394162
 42
-0.0105481579479185
 10
31.17750968709183
 20
5.67019266241413
 42
-0.0110508603606022
 10
31.24889856300226
 20
5.787980773816343
 42
-0.0116026673463001
 10
31.32554698024285
 20
5.902414096055558
 42
-0.0121873564595966
 10
31.40754934495351
 20
6.013073158651366
 42
-0.0128182538031767
 10
31.49497847458554
 20
6.119493651156574
 42
-0.0134871877739824
 10
31.58788075803574
 20
6.221170128282892
 42
-0.0141976513812854
 10
31.68626514923474
 20
6.31754918918056
 42
-0.0149456326650725
 10
31.79009347083346
 20
6.408033448723983
 42
-0.0157227208957814
 10
31.8992709634619
 20
6.491982953494861
 42
-0.0165321449937689
 10
32.01363080752714
 20
6.568719039611721
 42
-0.0173589026009329
 10
32.13292148610122
 20
6.637534233622993
 42
-0.0181813552434677
 10
32.25679476678113
 20
6.697704348609363
 42
-0.018989284118384
 10
32.38479293443587
 20
6.748505816921181
 42
-0.0197679945216416
 10
32.51633905352083
 20
6.789238825105712
 42
-0.0204920503373078
 10
32.65073315958142
 20
6.819255733120542
 42
-0.0211303771108979
 10
32.78715546486376
 20
6.837992407718211
 42
-0.0216528853175457
 10
32.92467784085005
 20
6.845001785318963
 42
-0.0220311780877512
 10
33.06228569083013
 20
6.839985682218234
 42
-0.0222429100134441
 10
33.19891004143503
 20
6.822821248415152
 42
-0.0222721075226398
 10
33.33346709455293
 20
6.793577597116325
 42
-0.0221130179495825
 10
33.46490209033033
 20
6.752519316080338
 42
-0.0217703252606731
 10
33.59223279748213
 20
6.700095982536986
 42
-0.0212590491030338
 10
33.71458652701952
 20
6.636918142747219
 42
-0.0206051622440689
 10
33.83122723857904
 20
6.563723314207486
 42
-0.019840586668319
 10
33.94157078880951
 20
6.481336498086704
 42
-0.0190000786060843
 10
34.04518777978211
 20
6.390630325263373
 42
-0.0181101451642149
 10
34.14179592682024
 20
6.29248885137423
 42
-0.0171897140061417
 10
34.23124478202524
 20
6.187776560860861
 42
-0.0162652228708272
 10
34.31349527548633
 20
6.0773164244805
 42
-0.0153684060829198
 10
34.38859891575652
 20
5.961875511142572
 42
-0.0145040559315735
 10
34.45667898354586
 20
5.842155319169016
 42
-0.0136787777966066
 10
34.51790930751491
 20
5.718788235627641
 42
-0.0129076929020421
 10
34.57249915346031
 20
5.592341290948979
 42
-0.0121800681975155
 10
34.62068101183854
 20
5.463314059856713
 42
-0.0115157791428416
 10
34.66269821820183
 20
5.332148596492167
 42
-0.0108916272817352
 10
34.69879987858593
 20
5.199232018109739
 42
-0.0103327316210937
 10
34.72922987536657
 20
5.064901841699729
 42
-0.0098073283080419
 10
34.75422835164437
 20
4.929455585834205
 42
-0.0093345560090759
 10
34.77402520521753
 20
4.793150546332007
 42
-0.0088936828220561
 10
34.78884403002954
 20
4.656212536368514
 42
-0.0085378298876143
 10
34.79888157395433
 20
4.518840480046712
 42
-0.0081914366243245
 10
34.80431804160423
 20
4.381211485321045
 42
-0.0078083030399605
 10
34.80534787008102
 20
4.243481355049652
 42
-0.0074288041344632
 10
34.80218129873663
 20
4.105777219593846
 42
-0.0073985201439713
 10
34.79495006615082
 20
3.96821710724884
 42
-0.0075148561906223
 10
34.78362115690004
 20
3.830946370499979
  0
LWPOLYLINE
  5
55FF5
330
1F
100
AcDbEntity
  8
1
100
AcDbPolyline
 90
        6
 70
     0
 43
0.0
 10
45.3460198825
 20
7.926433789300006
 42
-0.00000567776781
 10
42.16759114961596
 20
7.892433187567853
 42
-0.0000057376399621
 10
38.98916164096394
 20
7.858505178167654
 42
-0.0000055835868993
 10
35.81073136339882
 20
7.824649279906736
 42
-0.000005439498197
 10
32.63230034195951
 20
7.790863283255021
 42
-0.0000054997419822
 10
29.4538685823
 20
7.757146809399955
  0
LWPOLYLINE
  5
55FF6
330
1F
100
AcDbEntity
  8
1
100
AcDbPolyline
 90
       19
 70
     0
 43
0.0
 10
31.02891256130002
 20
21.74313821767981
 42
-0.0220451011171289
 10
31.28069086882346
 20
21.73202552401088
 42
-0.0220432174198963
 10
31.53052118528609
 20
21.69876468747265
 42
-0.0220562228188869
 10
31.77647198390676
 20
21.64362641128505
 42
-0.0220209942052953
 10
32.01661025186479
 20
21.56706179183954
 42
-0.0219801053217005
 10
32.24908643025549
 20
21.46968197756383
 42
-0.0219767323861865
 10
32.47211976979424
 20
21.35227235476159
 42
-0.0219144668345448
 10
32.6840065017276
 20
21.21576945239704
 42
-0.0218760430806529
 10
32.88313633214102
 20
21.06124977995489
 42
-0.0218542703163436
 10
33.06801559866304
 20
20.88993480417608
 42
-0.021785402411623
 10
33.23726206537646
 20
20.70315924757304
 42
-0.0217570970703142
 10
33.38961829008662
 20
20.502367966473
 42
-0.0217222670785118
 10
33.52397117725173
 20
20.28911012748857
 42
-0.0216694796353633
 10
33.63933454690709
 20
20.06501001916138
 42
-0.0216585957754447
 10
33.73486940479813
 20
19.83176296222205
 42
-0.0215995732819155
 10
33.80990395675764
 20
19.59113933446207
 42
-0.0216156976746629
 10
33.8638869703787
 20
19.34495142526705
 42
-0.0216534816933319
 10
33.89638926540113
 20
19.09496765199321
 42
-0.0213738275213276
 10
33.90729640090001
 20
18.84314102587967
  0
LWPOLYLINE
  5
55FF7
330
1F
100
AcDbEntity
  8
1
100
AcDbPolyline
 90
       33
 70
     0
 43
0.0
 10
28.76000248719999
 20
18.84314102587967
 42
-0.0239976579687449
 10
28.77046973169672
 20
19.05792690767856
 42
-0.024384116008658
 10
28.80163718932073
 20
19.27076287769154
 42
-0.0243257296176348
 10
28.85335998527276
 20
19.47954878304187
 42
-0.024304002821386
 10
28.92510818589597
 20
19.68232194955402
 42
-0.02439797969722
 10
29.01622529103651
 20
19.8771642771133
 42
-0.0244061405674654
 10
29.12589185682179
 20
20.06220209427604
 42
-0.0244629827501285
 10
29.25309587779589
 20
20.23565119806669
 42
-0.0245370387127488
 10
29.39664932914113
 20
20.39583119076104
 42
-0.0245572375464103
 10
29.55521121938253
 20
20.54117006842873
 42
-0.0246288221508864
 10
29.72728371787196
 20
20.67022835398887
 42
-0.0246921293354671
 10
29.91122126541041
 20
20.78172602367187
 42
-0.0247045441187855
 10
30.10525872649401
 20
20.87453921473837
 42
-0.0247675266550893
 10
30.30751646904713
 20
20.94772636459287
 42
-0.0248046140629428
 10
30.51602099334372
 20
21.00054956677599
 42
-0.0247943797264307
 10
30.72873228609385
 20
21.03246289649434
 42
-0.0248335962303463
 10
30.94355869038725
 20
21.04313795519738
 42
-0.0248335702186206
 10
31.15838559998952
 20
21.03247187881255
 42
-0.0247943871599879
 10
31.37109821323236
 20
21.00056743410396
 42
-0.0248046558190597
 10
31.57960493018283
 20
20.94775294444755
 42
-0.0247675164946411
 10
31.78186581416094
 20
20.87457419495789
 42
-0.0247045645220563
 10
31.97590710531443
 20
20.7817690865707
 42
-0.0246921800353387
 10
32.1598493025661
 20
20.67027904825828
 42
-0.0246288213785243
 10
32.3319272326072
 20
20.54122782610519
 42
-0.0245572635762352
 10
32.49049508111182
 20
20.3958955366992
 42
-0.0245370934671022
 10
32.63405519391384
 20
20.2357214010425
 42
-0.0244629931635195
 10
32.76126644533551
 20
20.06227737567209
 42
-0.0244060850576275
 10
32.87094023165674
 20
19.87724471772585
 42
-0.0243981747301522
 10
32.96206588782002
 20
19.682404888787
 42
-0.0243044191932147
 10
33.03382336480201
 20
19.47963107627057
 42
-0.0243238349701121
 10
33.08555107363276
 20
19.27086344074589
 42
-0.0243867503013686
 10
33.1167305649015
 20
19.05800667001051
 42
-0.0240066530387304
 10
33.12720555440001
 20
18.84314102587967
  0
LWPOLYLINE
  5
55FF8
330
1F
100
AcDbEntity
  8
1
100
AcDbPolyline
 90
       33
 70
     0
 43
0.0
 10
28.76000248719999
 20
18.84314102587967
 42
0.0239976579672374
 10
28.7704697316961
 20
18.62835514407825
 42
0.0243841160061024
 10
28.80163718932386
 20
18.41551917406352
 42
0.0243257295762597
 10
28.85335998527563
 20
18.20673326871059
 42
0.0243040027656942
 10
28.92510818587732
 20
18.00396010218804
 42
0.0243979797031834
 10
29.01622529099183
 20
17.80911777461368
 42
0.0244061406380918
 10
29.12589185677552
 20
17.62407995744655
 42
0.0244629828145668
 10
29.2530958777852
 20
17.45063085368166
 42
0.0245370386230008
 10
29.3966493291382
 20
17.2904508609889
 42
0.0245572375276235
 10
29.55521121934174
 20
17.14511198327522
 42
0.0246288222079575
 10
29.72728371781381
 20
17.01605369768889
 42
0.024692129419148
 10
29.91122126536911
 20
16.90455602803033
 42
0.024704544088215
 10
30.10525872648055
 20
16.81174283701755
 42
0.0247675266021092
 10
30.30751646904275
 20
16.73855568717634
 42
0.0248046140511585
 10
30.51602099333883
 20
16.68573248498271
 42
0.0247943797182746
 10
30.72873228609109
 20
16.65381915526467
 42
0.0248335961699625
 10
30.94355869038725
 20
16.64314409656332
 42
0.0248335702300325
 10
31.15838559999202
 20
16.65381017294652
 42
0.0247943872039539
 10
31.37109821323793
 20
16.68571461765479
 42
0.0248046558124774
 10
31.57960493018732
 20
16.73852910732182
 42
0.0247675164313359
 10
31.7818658141735
 20
16.81170785679793
 42
0.0247045645073282
 10
31.97590710535604
 20
16.90451296513156
 42
0.0246921801160444
 10
32.1598493026246
 20
17.01600300341982
 42
0.0246288214828289
 10
32.33192723264875
 20
17.14505422559906
 42
0.0245572635609676
 10
32.49049508111395
 20
17.29038651504969
 42
0.0245370933347402
 10
32.63405519392421
 20
17.45056065070557
 42
0.0244629931870991
 10
32.76126644538272
 20
17.6240046760518
 42
0.0244060851032813
 10
32.87094023170133
 20
17.80903733400104
 42
0.0243981747222367
 10
32.96206588783872
 20
18.00387716295501
 42
0.0243044191907359
 10
33.03382336479899
 20
18.20665097548168
 42
0.024323834967765
 10
33.08555107362963
 20
18.41541861100937
 42
0.0243867503042314
 10
33.11673056490202
 20
18.62827538174655
 42
0.0240066530297382
 10
33.12720555440001
 20
18.84314102587967
  0
LWPOLYLINE
  5
55FF9
330
1F
100
AcDbEntity
  8
1
100
AcDbPolyline
 90
       19
 70
     0
 43
0.0
 10
31.02891256110002
 20
15.94314383407985
 42
0.022045101248916
 10
31.28069086864332
 20
15.95425652761997
 42
0.0220432174991402
 10
31.53052118512102
 20
15.98751736414905
 42
0.0220562228071244
 10
31.77647198375874
 20
16.04265564033919
 42
0.0220209942134472
 10
32.01661025173689
 20
16.11922025977283
 42
0.0219801053155277
 10
32.24908643014425
 20
16.21660007404523
 42
0.0219767323660089
 10
32.47211976970661
 20
16.33400969683901
 42
0.02191446686997
 10
32.68400650165512
 20
16.47051259921004
 42
0.0218760430935204
 10
32.88313633204712
 20
16.62503227169917
 42
0.0218542702148542
 10
33.06801559858434
 20
16.7963472474887
 42
0.0217854024501618
 10
33.23726206535383
 20
16.98312280406428
 42
0.0217570971579395
 10
33.3896182900553
 20
17.18391408518504
 42
0.0217222670217196
 10
33.52397117720852
 20
17.39717192419707
 42
0.0216694795993623
 10
33.6393345469061
 20
17.62127203252185
 42
0.0216585958285343
 10
33.73486940481831
 20
17.85451908946733
 42
0.0215995732741077
 10
33.80990395676872
 20
18.0951427172464
 42
0.0216156976747733
 10
33.86388697037836
 20
18.34133062646035
 42
0.0216534817030174
 10
33.89638926539646
 20
18.59131439975035
 42
0.021373827507373
 10
33.90729640090001
 20
18.84314102587967
  0
LWPOLYLINE
  5
55FFA
330
1F
100
AcDbEntity
  8
1
100
AcDbPolyline
 90
        4
 70
     0
 43
0.0
 10
32.04650631120001
 20
17.8754768673798
 42
0.0220729942682728
 10
31.9885695501205
 20
17.88865665813431
 42
0.0224227934046543
 10
31.92966673242552
 20
17.89664525696759
 42
0.0223736001679488
 10
31.87027728710004
 20
17.8993085340798
  0
LWPOLYLINE
  5
55FFB
330
1F
100
AcDbEntity
  8
1
100
AcDbPolyline
 90
        4
 70
     0
 43
0.0
 10
31.87027728700002
 20
19.78697351757982
 42
0.0223655754471476
 10
31.92964582906632
 20
19.78963491357699
 42
0.0224256376395321
 10
31.98855587775063
 20
19.79762291324286
 42
0.0220781718039452
 10
32.04650631120001
 20
19.81080518437985
  0
LINE
  5
55FFC
330
1F
100
AcDbEntity
  8
1
100
AcDbLine
 10
43.0717288923999
 20
11.87956852280024
 30
0.0
 11
24.2780226198999
 21
12.01021451160022
 31
0.0
  0
LINE
  5
55FFD
330
1F
100
AcDbEntity
  8
1
100
AcDbLine
 10
43.70019156220002
 20
11.27918661419993
 30
0.0
 11
23.80000000000001
 21
11.27918661419993
 31
0.0
  0
LINE
  5
55FFE
330
1F
100
AcDbEntity
  8
sk3
100
AcDbLine
 10
19.4
 20
5.269999999999981
 30
0.0
 11
33.0
 21
5.269999999999981
 31
0.0
  0
LWPOLYLINE
  5
55FFF
330
1F
100
AcDbEntity
  8
1
100
AcDbPolyline
 90
       19
 70
     0
 43
0.0
 10
41.0669712582
 20
21.97259868917985
 42
-0.0220451012404711
 10
41.31874956573159
 20
21.96148599562537
 42
-0.0220432174689729
 10
41.56857988219911
 20
21.92822515909802
 42
-0.0220562228288275
 10
41.81453068081942
 20
21.87308688288937
 42
-0.0220209941898261
 10
42.05466894877903
 20
21.79652226343472
 42
-0.0219801053131723
 10
42.28714512717653
 20
21.6991424491618
 42
-0.0219767324340665
 10
42.51017846670229
 20
21.58173282632851
 42
-0.0219144668196496
 10
42.72206519860759
 20
21.44522992391256
 42
-0.0218760430379535
 10
42.92119502901525
 20
21.290710251456
 42
-0.021854270284792
 10
43.10607429556703
 20
21.11939527570157
 42
-0.0217854024660482
 10
43.27532076231574
 20
20.93261971912358
 42
-0.0217570971635499
 10
43.42767698700152
 20
20.73182843800351
 42
-0.021722266998981
 10
43.56202987414525
 20
20.51857059899905
 42
-0.0216694796051842
 10
43.67739324383182
 20
20.29447049068182
 42
-0.0216585958118049
 10
43.77292810173685
 20
20.06122343374503
 42
-0.0215995733140884
 10
43.84796265367777
 20
19.82059980597482
 42
-0.0216156976773385
 10
43.9019456672768
 20
19.57441189677053
 42
-0.0216534816403565
 10
43.93444796232143
 20
19.32442812349473
 42
-0.0213738274593542
 10
43.94535509789998
 20
19.07260149737982
  0
LWPOLYLINE
  5
56000
330
1F
100
AcDbEntity
  8
1
100
AcDbPolyline
 90
       33
 70
     0
 43
0.0
 10
38.79806118409999
 20
19.07260149737982
 42
-0.0239976579543495
 10
38.8085284285961
 20
19.28738737917955
 42
-0.0243841160469853
 10
38.83969588622293
 20
19.50022334919307
 42
-0.0243257296032333
 10
38.89141868217425
 20
19.70900925454451
 42
-0.0243040027806675
 10
38.96316688277662
 20
19.91178242106433
 42
-0.0243979797056364
 10
39.05428398788444
 20
20.10662474864103
 42
-0.0244061406583938
 10
39.16395055366792
 20
20.29166256580709
 42
-0.0244629828375636
 10
39.29115457471272
 20
20.4651116695415
 42
-0.0245370385256588
 10
39.4347080260915
 20
20.6252916622112
 42
-0.0245572374997539
 10
39.59326991629303
 20
20.77063053992656
 42
-0.0246288222288987
 10
39.76534241477032
 20
20.89968882549886
 42
-0.0246921293106044
 10
39.94927996231604
 20
21.01118649517337
 42
-0.02470454408487
 10
40.1433174234005
 20
21.10399968624221
 42
-0.0247675266790905
 10
40.34557516595799
 20
21.17718683608285
 42
-0.0248046140101531
 10
40.5540796902587
 20
21.23001003825629
 42
-0.0247943797128971
 10
40.76679098300886
 20
21.26192336798556
 42
-0.0248335961872797
 10
40.98161738730181
 20
21.27259842669289
 42
-0.0248335701874728
 10
41.19644429690561
 20
21.26193235031468
 42
-0.0247943871944501
 10
41.40915691015243
 20
21.23002790562151
 42
-0.0248046558581514
 10
41.61766362710034
 20
21.17721341595632
 42
-0.0247675164652423
 10
41.81992451107402
 20
21.10403466645085
 42
-0.0247045644986787
 10
42.0139658022295
 20
21.01122955806321
 42
-0.0246921800361086
 10
42.19790799947602
 20
20.89973951974386
 42
-0.0246288213190491
 10
42.36998592952471
 20
20.77068829759856
 42
-0.0245572635858684
 10
42.52855377806656
 20
20.62535600822943
 42
-0.024537093546213
 10
42.67211389087743
 20
20.46518187258235
 42
-0.0244629931644388
 10
42.79932514228304
 20
20.29173784719887
 42
-0.0244060850626978
 10
42.90899892859994
 20
20.10670518924752
 42
-0.0243981747466571
 10
43.00012458474393
 20
19.91186536029998
 42
-0.0243044191679042
 10
43.0718820617001
 20
19.70909154777358
 42
-0.0243238349637814
 10
43.12360977052984
 20
19.5003239122468
 42
-0.0243867502909339
 10
43.1547892618023
 20
19.28746714151133
 42
-0.0240066530192485
 10
43.16526425129999
 20
19.07260149737982
  0
LWPOLYLINE
  5
56001
330
1F
100
AcDbEntity
  8
1
100
AcDbPolyline
 90
       21
 70
     0
 43
0.0
 10
32.58315271390001
 20
21.85376137917984
 42
-0.0137449648693498
 10
32.74135517870042
 20
21.773090689761
 42
-0.0138239436361503
 10
32.89488857010435
 20
21.6838157069244
 42
-0.0137879426421037
 10
33.04325737048589
 20
21.58620269530254
 42
-0.0137565936769325
 10
33.18602562032282
 20
21.48057003986253
 42
-0.0137498296697704
 10
33.32277189011163
 20
21.36724780322628
 42
-0.0137236806417087
 10
33.45308849562832
 20
21.24658697742301
 42
-0.0137058310184112
 10
33.57659244100336
 20
21.11896173730245
 42
-0.0136895201002875
 10
33.69292360246215
 20
20.98476585326711
 42
-0.0136648876728286
 10
33.8017429266049
 20
20.84440967864038
 42
-0.0136505761045012
 10
33.90273559339443
 20
20.69832069297863
 42
-0.0136332737151377
 10
33.99561208882895
 20
20.5469420562683
 42
-0.0136121009057615
 10
34.08010591454309
 20
20.39072954927494
 42
-0.0136017639044114
 10
34.15597665913145
 20
20.23015179633703
 42
-0.0135854198833616
 10
34.22301027242383
 20
20.06568879357709
 42
-0.0135706299257841
 10
34.28101651723782
 20
19.89782937415867
 42
-0.013565639826169
 10
34.32983239913972
 20
19.72706967083007
 42
-0.0135471933102436
 10
34.36932337098852
 20
19.55391609682732
 42
-0.0135485046837694
 10
34.39937721864164
 20
19.37888230230953
 42
-0.0135566428825784
 10
34.41990382485812
 20
19.20246332310448
 42
-0.0134901306416967
 10
34.43086362120005
 20
19.02519533327987
  0
LWPOLYLINE
  5
56002
330
1F
100
AcDbEntity
  8
1
100
AcDbPolyline
 90
       21
 70
     0
 43
0.0
 10
42.50256790740002
 20
22.20275634627984
 42
-0.0137449648113539
 10
42.66077037217676
 20
22.12208565681735
 42
-0.0138239434963652
 10
42.81430376359071
 20
22.03281067399665
 42
-0.0137879427862754
 10
42.96267256399011
 20
21.93519766240166
 42
-0.0137565938214807
 10
43.10544081377492
 20
21.82956500689659
 42
-0.013749829520619
 10
43.24218708351404
 20
21.71624277019938
 42
-0.0137236805613212
 10
43.37250368903875
 20
21.59558194440484
 42
-0.0137058309924267
 10
43.49600763444493
 20
21.46795670431604
 42
-0.0136895201599992
 10
43.61233879592606
 20
21.33376082030087
 42
-0.0136648877359528
 10
43.72115812006279
 20
21.19340464567029
 42
-0.0136505761205649
 10
43.82215078681992
 20
21.04731565998753
 42
-0.0136332736648596
 10
43.91502728222824
 20
20.89593702326153
 42
-0.0136121008729192
 10
43.9995211079437
 20
20.73972451626906
 42
-0.0136017639034797
 10
44.07539185253449
 20
20.57914676333348
 42
-0.0135854198938594
 10
44.14242546582491
 20
20.41468376057338
 42
-0.013570629899906
 10
44.20043171063864
 20
20.24682434115559
 42
-0.0135656398398586
 10
44.24924759254046
 20
20.07606463782753
 42
-0.0135471933105374
 10
44.28873856438892
 20
19.90291106382551
 42
-0.0135485046707183
 10
44.31879241204183
 20
19.72787726930841
 42
-0.0135566428788576
 10
44.33931901825824
 20
19.55145829010388
 42
-0.0134901306551724
 10
44.35027881460004
 20
19.37419030027987
  0
LWPOLYLINE
  5
56003
330
1F
100
AcDbEntity
  8
1
100
AcDbPolyline
 90
       39
 70
     0
 43
0.0
 10
42.50256738109999
 20
22.20275634357982
 42
0.0135413041978988
 10
42.34306010610947
 20
22.27336940461538
 42
0.0135765909572496
 10
42.17995289115902
 20
22.33523126701195
 42
0.0135830102910002
 10
42.01372659834084
 20
22.38814901795061
 42
0.0135864652797888
 10
41.844871790214
 20
22.43196083928331
 42
0.0135987948798362
 10
41.67388578037798
 20
22.46653102975159
 42
0.0136045164517873
 10
41.50127305459512
 20
22.49175403513553
 42
0.0136034529031301
 10
41.32754392487917
 20
22.50755112289828
 42
0.0136109060189006
 10
41.15321273371532
 20
22.51387349786302
 42
0.0136098988635581
 10
40.97879573901446
 20
22.5107024541308
 42
0.0136044832819684
 10
40.80480957563142
 20
22.49804672987568
 42
0.0136071555123331
 10
40.63176942285261
 20
22.47594585737989
 42
0.0135992174600169
 10
40.46018694174676
 20
22.44446873624486
 42
0.0135898434718309
 10
40.29056912957338
 20
22.40371134638298
 42
0.013587738165215
 10
40.1234158824891
 20
22.35379985944387
 42
0.0135736500152797
 10
39.95921852595484
 20
22.29488793970507
 42
0.0135612093521689
 10
39.79845893838774
 20
22.22715499126155
 42
0.0135547765645853
 10
39.64160663812783
 20
22.15080869729781
 42
0.0135840989183419
 10
39.48858467560001
 20
22.06576569297983
 42
0.013521686441068
 10
39.34092083067838
 20
21.97288497089636
 42
0.0135117747701093
 10
39.19849115342424
 20
21.87216140660309
 42
0.0134902827409119
 10
39.06170515500122
 20
21.76389752136021
 42
0.0134757629675577
 10
38.93095484572823
 20
21.6484165856329
 42
0.01346341383185
 10
38.80661185555812
 20
21.52606330879257
 42
0.013441395618757
 10
38.6890288406575
 20
21.39719995024071
 42
0.0134282340197742
 10
38.57853788212361
 20
21.26220629660787
 42
0.0134147315044979
 10
38.47544823487584
 20
21.12147931411032
 42
0.0133943592533831
 10
38.38004839812345
 20
20.97542982000437
 42
0.013384032312721
 10
38.29260385265394
 20
20.82448265546986
 42
0.0133706723291506
 10
38.21335584970063
 20
20.66907557317913
 42
0.0133540091804316
 10
38.14252366362121
 20
20.5096565699493
 42
0.0133475922155282
 10
38.08030175919459
 20
20.34668397492854
 42
0.0133353587464591
 10
38.0268595699082
 20
20.18062504786008
 42
0.0133247435458394
 10
37.9823440047411
 20
20.01195398099506
 42
0.0133234378823392
 10
37.94687627024371
 20
19.84115017752383
 42
0.0133087126622283
 10
37.92055051322893
 20
19.66870101176521
 42
0.0133132388918144
 10
37.90343954397332
 20
19.49509949615696
 42
0.0133245228875659
 10
37.89559723913104
 20
19.320820364138
 42
0.0132137310665848
 10
37.89700511339999
 20
19.14699573967982
  0
LWPOLYLINE
  5
56004
330
1F
100
AcDbEntity
  8
1
100
AcDbPolyline
 90
       58
 70
     0
 43
0.0
 10
44.78904407610002
 20
19.3915101375798
 42
0.0135816295207281
 10
44.77629481100061
 20
19.59714012281732
 42
0.0136475760162917
 10
44.75237089116703
 20
19.80179123163335
 42
0.0135950115105928
 10
44.71744770550003
 20
20.00419717757984
 42
0.0136356060439893
 10
44.67141527637082
 20
20.2050292743309
 42
0.013654385054926
 10
44.61449676497671
 20
20.40305284311234
 42
0.0136580163627403
 10
44.54685307725242
 20
20.59767376699852
 42
0.0136686390804447
 10
44.46867802979352
 20
20.7883084594844
 42
0.0136864783595811
 10
44.38019720665661
 20
20.97438385782107
 42
0.0136948593575213
 10
44.28166560087632
 20
21.15533804466505
 42
0.013709866385805
 10
44.17336786280626
 20
21.33062198158268
 42
0.0137303184633912
 10
44.05561997725999
 20
21.49970263111339
 42
0.0137411660587616
 10
43.9287659550128
 20
21.66206296941219
 42
0.0137583548820091
 10
43.79317758472555
 20
21.81720351868734
 42
0.0137802343039119
 10
43.6492559043416
 20
21.96464606973949
 42
0.013791788086014
 10
43.49742764465353
 20
22.10393326984386
 42
0.0138092387095969
 10
43.33814475979801
 20
22.23463015457452
 42
0.0138308135653936
 10
43.17188516757852
 20
22.35632823611819
 42
0.0138412370995805
 10
42.99914920005514
 20
22.46864454209884
 42
0.01385702386898
 10
42.82045875494958
 20
22.57122311826052
 42
0.0138765076001133
 10
42.63635725753289
 20
22.6637392944055
 42
0.0138840552618439
 10
42.44740614367219
 20
22.74589814660338
 42
0.0138963976695025
 10
42.25418362828702
 20
22.81743580741721
 42
0.0139121915424013
 10
42.05728384230292
 20
22.87812371647556
 42
0.0139154127909748
 10
41.85731347252124
 20
22.92776646436282
 42
0.0139228897556421
 10
41.65489018266632
 20
22.9662027425652
 42
0.0139337844865725
 10
41.45064096157432
 20
22.9933093822678
 42
0.0139794509879473
 10
41.24449413989998
 20
23.00903261617984
 42
0.0139334125063586
 10
41.03849646194561
 20
23.01321303903305
 42
0.0139387765210366
 10
40.83258581721833
 20
23.00591148204822
 42
0.013931079823886
 10
40.62740152234141
 20
22.98715164273054
 42
0.0139267954791829
 10
40.42358052975922
 20
22.95699318187036
 42
0.0139265734224052
 10
40.22175453405651
 20
22.9155348525667
 42
0.0139135226877095
 10
40.0225479775176
 20
22.86291069472587
 42
0.0139037936816991
 10
39.82657632515674
 20
22.79928933368456
 42
0.013898613908291
 10
39.63444278193691
 20
22.72487648981937
 42
0.0138811184799712
 10
39.44673703426179
 20
22.63991086435868
 42
0.0138670681815379
 10
39.26403381394303
 20
22.54466299480669
 42
0.0138581247589353
 10
39.08688938449305
 20
22.43943712167503
 42
0.0138375793909674
 10
38.91584108895205
 20
22.32456695968381
 42
0.0138208072200678
 10
38.7514062875901
 20
22.20041426049382
 42
0.0138097009415843
 10
38.59407875268076
 20
22.06737006916279
 42
0.0137878094382343
 10
38.444329020086
 20
21.92585056892204
 42
0.0137701820798915
 10
38.30260371278641
 20
21.77629552732589
 42
0.0137587193848528
 10
38.16932192953675
 20
21.6191689754331
 42
0.0137372870450589
 10
38.04487634765639
 20
21.45495531608577
 42
0.0137207260632648
 10
37.92963288230584
 20
21.2841577809802
 42
0.0137107184598948
 10
37.82392713141252
 20
21.1072986140138
 42
0.0136914139128265
 10
37.72806612591376
 20
20.92491557941003
 42
0.0136777440286805
 10
37.64232820812186
 20
20.73756052363544
 42
0.0136708500157651
 10
37.56695963377473
 20
20.54579893480417
 42
0.0136547153585505
 10
37.5021765440641
 20
20.35020723088996
 42
0.0136459812724344
 10
37.44816539757184
 20
20.15137154270684
 42
0.0135784912732421
 10
37.40526197386552
 20
19.95086441437199
 42
0.0136276271516154
 10
37.37316988969979
 20
19.74733711073405
 42
0.0136317484176631
 10
37.35221592066421
 20
19.54236882372185
 42
0.0136453420572394
 10
37.34246881825044
 20
19.33654901681583
 42
0.0136416292725437
 10
37.34396846700003
 20
19.12956990557983
  0
LWPOLYLINE
  5
56005
330
1F
100
AcDbEntity
  8
1
100
AcDbPolyline
 90
       15
 70
     0
 43
0.0
 10
32.32683042260004
 20
19.32162329327982
 42
0.034322320716104
 10
32.35394407407227
 20
19.35287246711299
 42
0.035723393975176
 10
32.37645417111082
 20
19.38761971323051
 42
0.0355239992134627
 10
32.39378568492879
 20
19.42521655918749
 42
0.0352313762467848
 10
32.40564637970613
 20
19.46487966646017
 42
0.0351842737541665
 10
32.41183131245731
 20
19.50581408454818
 42
0.0352367590514932
 10
32.41220079871732
 20
19.54721090717032
 42
0.0352784372903795
 10
32.40675681110193
 20
19.58824999178821
 42
0.0352168569341439
 10
32.3955994213996
 20
19.62811680919655
 42
0.0354337183224711
 10
32.37894130500024
 20
19.66601647837401
 42
0.035387422966156
 10
32.35710617398374
 20
19.70118949524521
 42
0.0355544671524581
 10
32.33051730977144
 20
19.73291304068273
 42
0.0357299190065499
 10
32.29969054944161
 20
19.76054854548189
 42
0.035687500610434
 10
32.2652266966274
 20
19.78352388181057
 42
0.0359743119857619
 10
32.22785339990003
 20
19.80133273457976
  0
LWPOLYLINE
  5
56006
330
1F
100
AcDbEntity
  8
1
100
AcDbPolyline
 90
       19
 70
     0
 43
0.0
 10
38.18858741830002
 20
19.07260149737982
 42
-0.0213680959106352
 10
38.19948876734975
 20
19.32436107134332
 42
-0.021651281192676
 10
38.23198102584484
 20
19.57432113408134
 42
-0.0216172161196523
 10
38.28596075359525
 20
19.82052770179233
 42
-0.0215993364948583
 10
38.3609882005913
 20
20.06115059488521
 42
-0.0216583926780582
 10
38.45651601809786
 20
20.29439837432303
 42
-0.0216695471026557
 10
38.57187371019262
 20
20.5185024040378
 42
-0.021722265679416
 10
38.70622079224884
 20
20.73176382641657
 42
-0.0217570568168198
 10
38.85857150835443
 20
20.93255916467581
 42
-0.0217853931157505
 10
39.02781287274127
 20
21.11933930083427
 42
-0.0218542675091121
 10
39.21268748103143
 20
21.29065933308536
 42
-0.0218760360625405
 10
39.41181329924993
 20
21.44518459178305
 42
-0.0219144097016547
 10
39.62369572904874
 20
21.58169293454102
 42
-0.0219767594584556
 10
39.84672626511161
 20
21.69910891068031
 42
-0.0219803375474232
 10
40.07920247576658
 20
21.79649609453605
 42
-0.022020353067973
 10
40.31933152702203
 20
21.8730651203727
 42
-0.0220562952914951
 10
40.56528174724042
 20
21.92821073721535
 42
-0.0220465796648543
 10
40.81514951687512
 20
21.96148215224503
 42
-0.0220489320360228
 10
41.0669712582
 20
21.97259868917985
  0
LWPOLYLINE
  5
56007
330
1F
100
AcDbEntity
  8
1
100
AcDbPolyline
 90
       15
 70
     0
 43
0.0
 10
39.59843631590002
 20
18.59411922997979
 42
0.0277271117806345
 10
39.64901518329162
 20
18.65065397590536
 42
0.0283784000974862
 10
39.69296827518162
 20
18.71251784250469
 42
0.028179957495131
 10
39.72965149197975
 20
18.77894707466656
 42
0.0280285640256878
 10
39.758653092457
 20
18.8490696834178
 42
0.0280690374718637
 10
39.77962933991083
 20
18.92199715643169
 42
0.0279881238341174
 10
39.79231522988542
 20
18.99681373850005
 42
0.0279987852062373
 10
39.79656066308292
 20
19.07257920524369
 42
0.0279987106751802
 10
39.79232021119072
 20
19.14834495046096
 42
0.0279880580455847
 10
39.77963927219773
 20
19.22316222424949
 42
0.0280692949860745
 10
39.75866766775613
 20
19.29609159256028
 42
0.0280288466242547
 10
39.72967023035699
 20
19.36621695220566
 42
0.0281772200575257
 10
39.69299500643553
 20
19.43264260370042
 42
0.0283830152410453
 10
39.64903923108571
 20
19.49451892664217
 42
0.0277413140827299
 10
39.59843631590002
 20
19.55108376477976
  0
LWPOLYLINE
  5
56008
330
1F
100
AcDbEntity
  8
1
100
AcDbPolyline
 90
       15
 70
     0
 43
0.0
 10
42.36488911949999
 20
19.55108376477976
 42
0.0277271116264476
 10
42.31431025216673
 20
19.49454901880841
 42
0.0283783996940811
 10
42.27035716027282
 20
19.43268515221603
 42
0.028179957238217
 10
42.23367394342361
 20
19.36625592008732
 42
0.0280285645049003
 10
42.20467234292681
 20
19.29613331135039
 42
0.0280690376751363
 10
42.1836960955095
 20
19.22320583833169
 42
0.0279881235464223
 10
42.17101020560252
 20
19.14838925625701
 42
0.0279987850250158
 10
42.16676477243521
 20
19.0726237895159
 42
0.0279987104829608
 10
42.1710052242972
 20
18.99685804430134
 42
0.0279880578010598
 10
42.18368616322272
 20
18.92204077050601
 42
0.0280692950770227
 10
42.20465776762785
 20
18.84911140219019
 42
0.0280288467534133
 10
42.23365520504683
 20
18.77898604255855
 42
0.0281772200229642
 10
42.27033042901871
 20
18.71256039109841
 42
0.0283830149931516
 10
42.31428620437234
 20
18.65068406816351
 42
0.0277413141082736
 10
42.36488911949999
 20
18.59411922997979
  0
LINE
  5
56009
330
1F
100
AcDbEntity
  8
1
100
AcDbLine
 10
50.80000000000032
 20
22.56680465157967
 30
0.0
 11
47.80560015850034
 21
17.56680465157966
 31
0.0
  0
LWPOLYLINE
  5
5600A
330
1F
100
AcDbEntity
  8
1
100
AcDbPolyline
 90
       15
 70
     0
 43
0.0
 10
45.25909835320002
 20
8.543132257499841
 42
-0.0004990255911969
 10
45.41843571789883
 20
9.148515851922461
 42
-0.0005050727104281
 10
45.57898159225061
 20
9.75358007280721
 42
-0.0005256949126556
 10
45.7407744056054
 20
10.35831208602518
 42
-0.0005499005459313
 10
45.90386728533283
 20
10.96269475886396
 42
-0.0005762368722278
 10
46.06832016410161
 20
11.56670877741184
 42
-0.0006097897299706
 10
46.23420512378809
 20
12.17033104554064
 42
-0.0006464912138157
 10
46.40160479281249
 20
12.77353497070674
 42
-0.0006880494435888
 10
46.57061384460962
 20
13.37628992913449
 42
-0.000735799044975
 10
46.74133676681011
 20
13.97856170226833
 42
-0.0007876596556751
 10
46.91389385352704
 20
14.58031042939835
 42
-0.0008432553971574
 10
47.0884123089267
 20
15.18149315277286
 42
-0.0009037611773092
 10
47.26502788409894
 20
15.78206337144517
 42
-0.0009876684569553
 10
47.44391330249203
 20
16.38196134634387
 42
-0.0010183202949287
 10
47.62523143140003
 20
16.98112823289999
  0
LWPOLYLINE
  5
5600B
330
1F
100
AcDbEntity
  8
1
100
AcDbPolyline
 90
        7
 70
     0
 43
0.0
 10
43.70019156220002
 20
11.27918661419993
 42
-0.0110196571005375
 10
43.94859484868042
 20
10.96827027056996
 42
-0.0106852490467084
 10
44.18330933202199
 20
10.64683414349854
 42
-0.0115266023453514
 10
44.4036372702975
 20
10.31538095547568
 42
-0.0127644801543119
 10
44.60760281850855
 20
9.973620445997646
 42
-0.0139466145559123
 10
44.79302981181763
 20
9.621465174525951
 42
-0.0141630329752043
 10
44.95813764220002
 20
9.259332792299964
  0
LINE
  5
5600C
330
1F
100
AcDbEntity
  8
sk3
100
AcDbLine
 10
33.90000000000001
 20
7.619999999999997
 30
0.0
 11
42.57172889240002
 21
7.619999999999997
 31
0.0
  0
LWPOLYLINE
  5
5600D
330
1F
100
AcDbEntity
  8
1
100
AcDbPolyline
 90
        3
 70
     0
 43
0.0
 10
40.76656186490001
 20
3.182556349799988
 10
40.78021501265005
 20
3.296862683849944
 10
40.79386816040002
 20
3.411169017899965
  0
LWPOLYLINE
  5
5600E
330
1F
100
AcDbEntity
  8
1
100
AcDbPolyline
 90
       58
 70
     0
 43
0.0
 10
40.79386816040002
 20
3.411169017899965
 42
-0.006758830267659
 10
40.81514917579855
 20
3.548329465436829
 42
-0.0068887031577012
 10
40.84015249181073
 20
3.684861251094723
 42
-0.0071230301507922
 10
40.86897204338979
 20
3.820642564300662
 42
-0.0073738980836871
 10
40.90171503934664
 20
3.955533386650181
 42
-0.0076406841443764
 10
40.93849236254482
 20
4.089377944026068
 42
-0.0079242818830179
 10
40.97941606466512
 20
4.22201339127735
 42
-0.0082600109337903
 10
41.0246100923377
 20
4.353254850504235
 42
-0.0086087137494855
 10
41.07420445568652
 20
4.482897035885166
 42
-0.0090070239529993
 10
41.12833322176553
 20
4.610712133087531
 42
-0.009424401669031
 10
41.18713452875542
 20
4.736444533245382
 42
-0.0098953384021792
 10
41.25074711903391
 20
4.859812221007466
 42
-0.010393178718662
 10
41.31931033679521
 20
4.980497225234948
 42
-0.0109481199059861
 10
41.39295865874402
 20
5.098146929395568
 42
-0.0115363407500719
 10
41.47181925378805
 20
5.212367169928306
 42
-0.0121839625233797
 10
41.55600536515652
 20
5.322718501864869
 42
-0.0128744741959252
 10
41.64561116881452
 20
5.428715065647502
 42
-0.0136187151393299
 10
41.74070206653493
 20
5.52981656201819
 42
-0.0144146629356552
 10
41.84130582259022
 20
5.625431100699181
 42
-0.0152566552309827
 10
41.9474004170907
 20
5.714910940245026
 42
-0.0161476121424831
 10
42.05889874757429
 20
5.797555145172331
 42
-0.0170717997320698
 10
42.17563350914389
 20
5.872615510196446
 42
-0.0180153175000415
 10
42.29734081038697
 20
5.93930590758719
 42
-0.018966915543928
 10
42.42364107560582
 20
5.996817680557846
 42
-0.0199048780339533
 10
42.55402398480623
 20
6.044343774996946
 42
-0.0207964678187984
 10
42.68783650039273
 20
6.081109018633178
 42
-0.0216034607263121
 10
42.82427891425863
 20
6.10640797272071
 42
-0.0222867430285092
 10
42.96241110514893
 20
6.119648101100203
 42
-0.0228068159532317
 10
43.1011721076004
 20
6.12039374518752
 42
-0.0231297082616069
 10
43.23941481368049
 20
6.108405518661463
 42
-0.0232307615821028
 10
43.37595318723811
 20
6.083668585367995
 42
-0.0230982822628883
 10
43.50961732413938
 20
6.046403718009052
 42
-0.0227374894463739
 10
43.63931005644841
 20
5.997058420446705
 42
-0.0221685556771362
 10
43.76405649451942
 20
5.936278952049626
 42
-0.0214231380636275
 10
43.88303982903795
 20
5.864867417722052
 42
-0.0205414453312076
 10
43.99562086465425
 20
5.783731163958002
 42
-0.0195663522441046
 10
44.10134078351075
 20
5.693831755284229
 42
-0.0185420740151275
 10
44.19990959888721
 20
5.596139628868961
 42
-0.0175068035903567
 10
44.29118646446579
 20
5.491597742932981
 42
-0.0164835897508587
 10
44.37515463071543
 20
5.381095877893237
 42
-0.0154860504606561
 10
44.45189494977353
 20
5.265453344118718
 42
-0.0145376569052517
 10
44.521560036781
 20
5.145412737195492
 42
-0.0136469737380686
 10
44.5843550906954
 20
5.021637768887728
 42
-0.0128099179726956
 10
44.64051896390924
 20
4.894713092996475
 42
-0.0120458618479883
 10
44.6903090143586
 20
4.765153872056544
 42
-0.0113311717912952
 10
44.73399283217472
 20
4.633409011712728
 42
-0.0106850460342726
 10
44.77183665332001
 20
4.499867379098127
 42
-0.0100899722459303
 10
44.80410474155698
 20
4.364869696763655
 42
-0.0095519473876332
 10
44.8310471270947
 20
4.22870705712949
 42
-0.0090572349181883
 10
44.85290759104009
 20
4.091637233651958
 42
-0.0086068823886359
 10
44.8699136870332
 20
3.95387900894655
 42
-0.0081988926915588
 10
44.88228517305009
 20
3.815625502147327
 42
-0.0078646877240222
 10
44.8902097900332
 20
3.677045438931713
 42
-0.0075339960845217
 10
44.89386301568754
 20
3.538289305733478
 42
-0.0071703690896299
 10
44.89343441853153
 20
3.399487332588535
 42
-0.0068143086520391
 10
44.88912513825002
 20
3.260745277864707
 42
-0.0068058309385591
 10
44.88105313148594
 20
3.122163318122716
 42
-0.0069186748273369
 10
44.86918202310002
 20
2.983866508899943
  0
LWPOLYLINE
  5
5600F
330
1F
100
AcDbEntity
  8
1
100
AcDbPolyline
 90
        6
 70
     0
 43
0.0
 10
44.95813764220002
 20
9.259332792299964
 42
-0.0111036329380494
 10
45.06034577605641
 20
9.000539464037665
 42
-0.0113705914148789
 10
45.15091994703084
 20
8.737450688889957
 42
-0.0120756329347868
 10
45.22906887155762
 20
8.470391762201181
 42
-0.0121816380877831
 10
45.29409469395605
 20
8.199796311501472
 42
-0.0118862026769714
 10
45.3460198825
 20
7.926433789300006
  0
LINE
  5
56010
330
1F
100
AcDbEntity
  8
1
100
AcDbLine
 10
44.9572429257999
 20
9.261467067699975
 30
0.0
 11
45.72201148019994
 21
7.441788056199868
 31
0.0
  0
LINE
  5
56011
330
1F
100
AcDbEntity
  8
sk3
100
AcDbLine
 10
42.57172887610025
 20
7.620000016400176
 30
0.0
 11
43.07172887500025
 21
8.120000017400172
 31
0.0
  0
LWPOLYLINE
  5
56012
330
1F
100
AcDbEntity
  8
1
100
AcDbPolyline
 90
        3
 70
     0
 43
0.0
 10
34.78362115690004
 20
3.830946370499979
 10
34.77045437275004
 20
3.72007264409995
 10
34.75728758860001
 20
3.609198917699984
  0
LINE
  5
56013
330
1F
100
AcDbEntity
  8
sk3
100
AcDbLine
 10
33.00000000350002
 20
5.269999996500018
 30
0.0
 11
33.50000000390006
 21
5.769999996200056
 31
0.0
  0
ARC
  5
56014
330
1F
100
AcDbEntity
  8
sk3
100
AcDbCircle
 10
33.90000000000001
 20
7.21999999999997
 30
0.0
 40
0.4
100
AcDbArc
 50
90.0
 51
180.0
  0
LWPOLYLINE
  5
56015
330
1F
100
AcDbEntity
  8
1
100
AcDbPolyline
 90
       33
 70
     0
 43
0.0
 10
38.79806118409999
 20
19.07260149737982
 42
0.0239976579446696
 10
38.80852842859685
 20
18.8578156155811
 42
0.0243841160060841
 10
38.83969588622034
 20
18.6449796455678
 42
0.0243257296481152
 10
38.89141868217263
 20
18.4361937402175
 42
0.0243040028035217
 10
38.96316688279825
 20
18.23342057370705
 42
0.0243979797046818
 10
39.0542839879318
 20
18.03857824614367
 42
0.0244061406203392
 10
39.16395055371891
 20
17.85354042898099
 42
0.024462982815763
 10
39.29115457473583
 20
17.68009132522583
 42
0.0245370386003062
 10
39.43470802609312
 20
17.51991133253923
 42
0.0245572374956184
 10
39.59326991629692
 20
17.37457245482817
 42
0.0246288222099909
 10
39.76534241477572
 20
17.24551416925859
 42
0.0246921293425183
 10
39.94927996232002
 20
17.13401649958372
 42
0.0247045441121108
 10
40.14331742340383
 20
17.04120330851592
 42
0.0247675266998366
 10
40.34557516596075
 20
16.96801615867586
 42
0.0248046139844664
 10
40.55407969026049
 20
16.91519295650283
 42
0.0247943797087112
 10
40.76679098300973
 20
16.88327962677384
 42
0.0248335961877215
 10
40.98161738730181
 20
16.87260456806674
 42
0.0248335702192754
 10
41.19644429690459
 20
16.88327064444471
 42
0.0247943871712652
 10
41.40915691015059
 20
16.91517508913766
 42
0.02480465582411
 10
41.61766362709752
 20
16.96798957880251
 42
0.0247675164957074
 10
41.81992451107061
 20
17.04116832830717
 42
0.0247045645275344
 10
42.0139658022257
 20
17.133973436694
 42
0.0246921800343337
 10
42.19790799947051
 20
17.24546347501367
 42
0.0246288213302184
 10
42.36998592952033
 20
17.37451469715589
 42
0.024557263592912
 10
42.52855377806542
 20
17.51984698652136
 42
0.0245370936149245
 10
42.67211389085452
 20
17.68002112218505
 42
0.0244629931339823
 10
42.79932514223154
 20
17.85346514758838
 42
0.0244060849936021
 10
42.90899892855242
 20
18.03849780553708
 42
0.0243981747649393
 10
43.00012458472241
 20
18.23333763447161
 42
0.0243044192038247
 10
43.07188206170178
 20
18.43611144698886
 42
0.0243238349886364
 10
43.1236097705324
 20
18.64487908251385
 42
0.0243867502760916
 10
43.15478926180159
 20
18.85773585324897
 42
0.0240066530070595
 10
43.16526425129999
 20
19.07260149737982
  0
LWPOLYLINE
  5
56016
330
1F
100
AcDbEntity
  8
1
100
AcDbPolyline
 90
       10
 70
     0
 43
0.0
 10
40.70133860640004
 20
17.62645507147982
 42
0.0351402226082176
 10
40.71498796359304
 20
17.58633186111848
 42
0.0365183882656984
 10
40.73423111755334
 20
17.54853752159585
 42
0.0364673577696793
 10
40.75877440600175
 20
17.51395292230006
 42
0.0364179796954323
 10
40.78807822543743
 20
17.48329850135603
 42
0.0365694757488592
 10
40.82152228407022
 20
17.45722412827051
 42
0.0366810372116964
 10
40.85841435723131
 20
17.43632075731317
 42
0.0368778974285632
 10
40.89797923804062
 20
17.4210406828695
 42
0.0368144116900898
 10
40.93936312492303
 20
17.41172790131229
 42
0.0367915942328981
 10
40.9816627177
 20
17.40860411777982
  0
LWPOLYLINE
  5
56017
330
1F
100
AcDbEntity
  8
1
100
AcDbPolyline
 90
        4
 70
     0
 43
0.0
 10
43.02386978590002
 20
12.60668193437982
 42
-0.0010418919502357
 10
41.20150947426338
 20
12.58802708111582
 42
-0.0010419298218858
 10
39.37908550495644
 20
12.57696731087088
 42
-0.0010418919311806
 10
37.55663155990004
 20
12.57350283027983
  0
LWPOLYLINE
  5
56018
330
1F
100
AcDbEntity
  8
1
100
AcDbPolyline
 90
       37
 70
     0
 43
0.0
 10
37.89700511339999
 20
19.14699573967982
 42
0.0135207022543042
 10
37.90798717146021
 20
18.9695205515963
 42
0.0136001691794033
 10
37.92859663522762
 20
18.79270354471497
 42
0.0135768933143737
 10
37.95875044184664
 20
18.61744934144667
 42
0.0135747244567951
 10
37.99837122198614
 20
18.44409147682755
 42
0.0135930678866817
 10
38.04734717363522
 20
18.27313968158722
 42
0.0135965940017046
 10
38.10554116951625
 20
18.10510230040969
 42
0.0136075325104518
 10
38.17278799418233
 20
17.94047870352066
 42
0.0136248346835191
 10
38.24889526245332
 20
17.77975926313364
 42
0.0136328736935255
 10
38.33364572105512
 20
17.62342499241959
 42
0.0136484461975901
 10
38.42679670195892
 20
17.47194591433418
 42
0.0136681341765075
 10
38.52807882492533
 20
17.32577845120715
 42
0.0136785715823865
 10
38.63719901889345
 20
17.1853655801761
 42
0.013696610885484
 10
38.75384030438551
 20
17.05113525219269
 42
0.013717462254969
 10
38.87766079822575
 20
16.92349738055355
 42
0.0137286149956164
 10
39.00829690275526
 20
16.80284439715291
 42
0.0137472414535104
 10
39.14536321492284
 20
16.68954949403797
 42
0.0137675445073154
 10
39.28845223419575
 20
16.58396344407686
 42
0.0137776052906094
 10
39.43713749860234
 20
16.48641566387673
 42
0.0137949374620644
 10
39.59097380504841
 20
16.39721227179635
 42
0.0138129347511955
 10
39.74949761624288
 20
16.31663292815472
 42
0.0138201737717063
 10
39.91223011317408
 20
16.24493242063642
 42
0.0138344609872135
 10
40.07867779064082
 20
16.18233866218803
 42
0.0138485903359352
 10
40.24833355196264
 20
16.12904972575072
 42
0.0138515480531784
 10
40.42067956413641
 20
16.08523598274631
 42
0.0138613829706291
 10
40.59518826559934
 20
16.05103818553617
 42
0.0138704721749994
 10
40.7713240652935
 20
16.02656486060234
 42
0.013868136997481
 10
40.94854587068513
 20
16.01189499259609
 42
0.0138726523200242
 10
41.12630846779242
 20
16.00707633151476
 42
0.013876121295112
 10
41.30406473165442
 20
16.01212332527085
 42
0.013867878951591
 10
41.48126762567033
 20
16.02702017147463
 42
0.0138670515896497
 10
41.65737176905892
 20
16.05171948857493
 42
0.0138656218962871
 10
41.83183654180001
 20
16.086141530191
 42
0.0138491336563499
 10
42.00412675557172
 20
16.13017580143382
 42
0.0138459302258992
 10
42.17371261557701
 20
16.18368024647951
 42
0.0138484420930293
 10
42.34008409544372
 20
16.24649224863218
 42
0.013778188071682
 10
42.50256780650002
 20
16.31832369907982
  0
LWPOLYLINE
  5
56019
330
1F
100
AcDbEntity
  8
1
100
AcDbPolyline
 90
       58
 70
     0
 43
0.0
 10
37.34396846700003
 20
19.12956990557983
 42
0.0135816295209539
 10
37.3567177320997
 20
18.92393992034067
 42
0.0136475760297225
 10
37.38064165193285
 20
18.71928881152252
 42
0.0135950115292092
 10
37.41556483760002
 20
18.51688286557982
 42
0.0136356060136468
 10
37.46159726672502
 20
18.31605076882748
 42
0.0136543849425111
 10
37.51851577805624
 20
18.11802720002417
 42
0.013658016509619
 10
37.58615946572621
 20
17.92340627611678
 42
0.0136686391759059
 10
37.66433451326401
 20
17.73277158366488
 42
0.0136864781727199
 10
37.75281533644284
 20
17.54669618534369
 42
0.0136948593428104
 10
37.85134694217902
 20
17.36574199847303
 42
0.0137098664428366
 10
37.95964468023922
 20
17.19045806154905
 42
0.0137303184534221
 10
38.07739256578884
 20
17.0213774120179
 42
0.0137411660765208
 10
38.20424658803225
 20
16.85901707371368
 42
0.0137583548874985
 10
38.33983495832024
 20
16.70387652443752
 42
0.0137802342573172
 10
38.4837566386866
 20
16.55643397336539
 42
0.0137917880690945
 10
38.63558489834102
 20
16.41714677322203
 42
0.0138092387933237
 10
38.7948677831838
 20
16.28644988847234
 42
0.0138308137058326
 10
38.961127375442
 20
16.16475180698088
 42
0.0138412370147097
 10
39.13386334301674
 20
16.05243550107658
 42
0.0138570237425359
 10
39.31255378811551
 20
15.94985692489655
 42
0.0138765076691071
 10
39.49665528551572
 20
15.85734074871577
 42
0.0138840553336023
 10
39.68560639938474
 20
15.77518189653241
 42
0.0138963976417792
 10
39.87882891478483
 20
15.70364423575933
 42
0.0139121913724462
 10
40.07572870075825
 20
15.6429563266513
 42
0.0139154129170762
 10
40.27569907052336
 20
15.593313578687
 42
0.0139228898876708
 10
40.4781223603909
 20
15.55487730056418
 42
0.013933784247224
 10
40.68237158149037
 20
15.52777066088308
 42
0.0139794510111438
 10
40.88851840320001
 20
15.5120474268798
 42
0.0139334126250341
 10
41.09451608115404
 20
15.50786700400741
 42
0.0139387765870801
 10
41.30042672588143
 20
15.51516856104267
 42
0.0139310798293987
 10
41.50561102075392
 20
15.53392840042898
 42
0.0139267954277636
 10
41.70943201333293
 20
15.56408686132033
 42
0.0139265733180805
 10
41.91125800904782
 20
15.6055451905778
 42
0.0139135227287338
 10
42.1104645656091
 20
15.65816934834038
 42
0.0139037937606103
 10
42.30643621797585
 20
15.72179070936783
 42
0.0138986139502478
 10
42.49856976117792
 20
15.796203553282
 42
0.0138811184460402
 10
42.68627550882991
 20
15.88116917879785
 42
0.01386706814312
 10
42.86897872914908
 20
15.97641704835484
 42
0.0138581247781273
 10
43.04612315860402
 20
16.08164292148043
 42
0.0138375793622667
 10
43.21717145414544
 20
16.19651308347396
 42
0.013820807228008
 10
43.38160625551037
 20
16.32066578266385
 42
0.0138097009605188
 10
43.53893379041551
 20
16.45370997400134
 42
0.0137878093676242
 10
43.68868352301632
 20
16.59522947423777
 42
0.013770182079855
 10
43.83040883035602
 20
16.74478451580051
 42
0.0137587195084031
 10
43.96369061360212
 20
16.90191106769617
 42
0.013737287019193
 10
44.08813619544344
 20
17.06612472707483
 42
0.0137207260155038
 10
44.20337966079694
 20
17.2369222621828
 42
0.0137107185189814
 10
44.30908541167622
 20
17.41378142915801
 42
0.0136914138584604
 10
44.404946417149
 20
17.59616446377696
 42
0.0136777439867081
 10
44.4906843349674
 20
17.78351951954282
 42
0.013670850075106
 10
44.56605290933691
 20
17.97528110836642
 42
0.013654715380567
 10
44.63083599904035
 20
18.17087281228469
 42
0.0136459812511232
 10
44.68484714552647
 20
18.3697085004708
 42
0.0135784912269899
 10
44.72775056924752
 20
18.57021562878651
 42
0.013627627232387
 10
44.75984265341361
 20
18.77374293242635
 42
0.0136317484816894
 10
44.7807966223707
 20
18.97871121944682
 42
0.0136453419076065
 10
44.79054372475855
 20
19.18453102635685
 42
0.0136416291598773
 10
44.78904407610002
 20
19.3915101375798
  0
LWPOLYLINE
  5
5601A
330
1F
100
AcDbEntity
  8
1
100
AcDbPolyline
 90
       19
 70
     0
 43
0.0
 10
38.18858741830002
 20
19.07260149737982
 42
0.0213680959121087
 10
38.19948876734526
 20
18.82084192342954
 42
0.0216512812074998
 10
38.23198102584525
 20
18.57088186070581
 42
0.0216172161394619
 10
38.28596075360827
 20
18.32467529301078
 42
0.0215993364933714
 10
38.36098820061426
 20
18.08405239993651
 42
0.0216583926436881
 10
38.45651601810101
 20
17.85080462050405
 42
0.0216695471165455
 10
38.57187371015726
 20
17.62670059078265
 42
0.0217222657316113
 10
38.70622079222483
 20
17.41343916843075
 42
0.0217570567521848
 10
38.85857150834175
 20
17.21264383019614
 42
0.021785393074411
 10
39.02781287268232
 20
17.02586369401
 42
0.0218542675851923
 10
39.21268748093792
 20
16.85454366174565
 42
0.0218760360587792
 10
39.41181329914213
 20
16.70001840305258
 42
0.0219144097020162
 10
39.62369572891984
 20
16.56351006027955
 42
0.0219767595488037
 10
39.84672626498244
 20
16.44609408417634
 42
0.0219803374763651
 10
40.07920247564152
 20
16.34870690037055
 42
0.022020352988909
 10
40.31933152686682
 20
16.27213787446037
 42
0.0220562954690757
 10
40.56528174706222
 20
16.21699225759356
 42
0.0220465796053105
 10
40.81514951669038
 20
16.18372084263151
 42
0.0220489318246265
 10
41.06697125800002
 20
16.17260430557967
  0
LINE
  5
5601B
330
1F
100
AcDbEntity
  8
1
100
AcDbLine
 10
47.80560015849988
 20
17.56680465158001
 30
0.0
 11
45.50881390639989
 21
14.01378108117994
 31
0.0
  0
LWPOLYLINE
  5
5601C
330
1F
100
AcDbEntity
  8
1
100
AcDbPolyline
 90
       10
 70
     0
 43
0.0
 10
43.13671188129996
 20
12.67238194967982
 10
43.12546957729603
 20
12.64349787171665
 10
43.11501538118398
 20
12.61431997959107
 10
43.1053977502114
 20
12.58485503433365
 10
43.0966866291543
 20
12.55510809437702
 10
43.08898083818326
 20
12.52508595633804
 10
43.08239704475454
 20
12.49480037247971
 10
43.07706396226509
 20
12.46426881462355
 10
43.07329919118069
 20
12.43350515764564
 10
43.07172889239999
 20
12.40255625967982
  0
LINE
  5
5601D
330
1F
100
AcDbEntity
  8
1
100
AcDbLine
 10
43.35722273390004
 20
12.80058875798651
 30
0.0
 11
43.35722273390004
 21
11.27918661419993
 31
0.0
  0
LINE
  5
5601E
330
1F
100
AcDbEntity
  8
1
100
AcDbLine
 10
43.07172889240002
 20
12.40255625968053
 30
0.0
 11
43.07172889240002
 21
11.27918661419993
 31
0.0
  0
LINE
  5
5601F
330
1F
100
AcDbEntity
  8
1
100
AcDbLine
 10
44.33041646140043
 20
13.36668199167908
 30
0.0
 11
43.02386978520042
 21
12.60668199167907
 31
0.0
  0
LINE
  5
56020
330
1F
100
AcDbEntity
  8
1
100
AcDbLine
 10
45.50881390640012
 20
14.01378108118005
 30
0.0
 11
44.33041646140009
 21
13.36668199168018
 31
0.0
  0
LWPOLYLINE
  5
56021
330
1F
100
AcDbEntity
  8
1
100
AcDbPolyline
 90
       19
 70
     0
 43
0.0
 10
41.06697125800002
 20
16.17260430557967
 42
0.0220451010040019
 10
41.31874956553907
 20
16.18371699921801
 42
0.0220432174284085
 10
41.56857988203324
 20
16.21697783564978
 42
0.0220562230144713
 10
41.81453068065573
 20
16.27211611185714
 42
0.0220209941073977
 10
42.05466894860859
 20
16.34868073136299
 42
0.0219801052608261
 10
42.28714512704732
 20
16.44606054557305
 42
0.0219767325412711
 10
42.51017846660372
 20
16.56347016835933
 42
0.0219144668102922
 10
42.7220651985146
 20
16.69997307078102
 42
0.0218760430064101
 10
42.92119502894109
 20
16.85449274323269
 42
0.0218542703568516
 10
43.10607429548753
 20
17.02580771900265
 42
0.021785402439846
 10
43.27532076221425
 20
17.21258327561065
 42
0.0217570970837424
 10
43.42767698693799
 20
17.41337455671748
 42
0.0217222670704634
 10
43.56202987411632
 20
17.62663239570867
 42
0.0216694796161708
 10
43.6773932437822
 20
17.85073250404485
 42
0.0216585957879241
 10
43.77292810168421
 20
18.08397956099407
 42
0.0215995733055474
 10
43.84796265364821
 20
18.32460318876632
 42
0.0216156976649699
 10
43.90194566726899
 20
18.57079109797451
 42
0.0216534816468473
 10
43.9344479623241
 20
18.82077487125755
 42
0.0213738274743348
 10
43.94535509789998
 20
19.07260149737982
  0
LWPOLYLINE
  5
56022
330
1F
100
AcDbEntity
  8
1
100
AcDbPolyline
 90
        4
 70
     0
 43
0.0
 10
42.0845650082
 20
18.1049373388798
 42
0.0220729939844588
 10
42.02662824707831
 20
18.11811712960135
 42
0.0224227934969955
 10
41.96772542935423
 20
18.12610572846653
 42
0.0223735995217444
 10
41.90833598400002
 20
18.12876900567982
  0
LWPOLYLINE
  5
56023
330
1F
100
AcDbEntity
  8
1
100
AcDbPolyline
 90
        4
 70
     0
 43
0.0
 10
42.0845650082
 20
18.1049373388798
 10
42.1096713983417
 20
18.09924354389453
 10
42.13521583218164
 20
18.0957716606683
 10
42.16094085089998
 20
18.09460085367982
  0
LWPOLYLINE
  5
56024
330
1F
100
AcDbEntity
  8
1
100
AcDbPolyline
 90
       22
 70
     0
 43
0.0
 10
44.35027881460004
 20
19.37419030027987
 42
-0.0136660872798412
 10
44.3515729191647
 20
19.19424303983146
 42
-0.0137810497756034
 10
44.3429634756074
 20
19.01386875168523
 42
-0.0137665133956061
 10
44.32443770729998
 20
18.83427615287967
 42
-0.0137182587123449
 10
44.29616449046995
 20
18.6565452720688
 42
-0.0137777916872467
 10
44.25805143870874
 20
18.48010327581437
 42
-0.0137760550292278
 10
44.21029630510003
 20
18.30609010687982
 42
-0.0137495156171168
 10
44.15319032652831
 20
18.13542424856148
 42
-0.0137977574895098
 10
44.08662988945309
 20
17.96779723704269
 42
-0.0137991813251548
 10
44.01096771780004
 20
17.80418909827982
 42
-0.0137926163714747
 10
43.92653191032684
 20
17.64525989747187
 42
-0.0138267177863766
 10
43.83337154400132
 20
17.49110141115735
 42
-0.0138299828896043
 10
43.7319027083
 20
17.34243132227982
 42
-0.0138465474472317
 10
43.62238160575424
 20
17.19962741285081
 42
-0.0138613963413534
 10
43.50520517749075
 20
17.06320665037997
 42
-0.0138638394762692
 10
43.3807523666
 20
16.9335959617798
 42
-0.0139062491735006
 10
43.2490919264007
 20
16.81090449442978
 42
-0.0138989693116151
 10
43.11115306991382
 20
16.69599992101506
 42
-0.0138930005845961
 10
42.96717176560003
 20
16.58902930377968
 42
-0.0139697851234818
 10
42.81696227442887
 20
16.48991708466622
 42
-0.013951990436632
 10
42.66207796862389
 20
16.39970697316605
 42
-0.0138624285265679
 10
42.50256790710003
 20
16.31832369677984
  0
LWPOLYLINE
  5
56025
330
1F
100
AcDbEntity
  8
1
100
AcDbPolyline
 90
       15
 70
     0
 43
0.0
 10
42.26591209680001
 20
18.11440978867982
 42
0.0359566153144959
 10
42.30326768462981
 20
18.13220858321857
 42
0.0356639947766541
 10
42.33771155097224
 20
18.15516476607123
 42
0.0357327075741034
 10
42.36854477742375
 20
18.18279719292511
 42
0.0355590103386544
 10
42.39514171863109
 20
18.21452103948437
 42
0.0353859448022892
 10
42.41698064487502
 20
18.2496893087578
 42
0.0354331839767072
 10
42.43364395409
 20
18.2875861013682
 42
0.0352170581205844
 10
42.4448070860198
 20
18.32745151809805
 42
0.035278791344448
 10
42.45025692882561
 20
18.36848994568747
 42
0.0352368184709268
 10
42.44989328875843
 20
18.40988723525332
 42
0.0351844385841706
 10
42.44371413607033
 20
18.45082237457113
 42
0.0352302698339577
 10
42.43185937994522
 20
18.49048623966416
 42
0.0355190484566037
 10
42.41453579978236
 20
18.5280811400293
 42
0.0357383474140785
 10
42.3920218775832
 20
18.5628446945298
 42
0.0343490062554164
 10
42.36488911949999
 20
18.59411922997979
  0
LWPOLYLINE
  5
56026
330
1F
100
AcDbEntity
  8
1
100
AcDbPolyline
 90
       13
 70
     0
 43
0.0
 10
41.90833598400002
 20
18.12876900567982
 42
0.0276289886442919
 10
41.83509755190942
 20
18.12471263012404
 42
0.0276186594202703
 10
41.76274938957152
 20
18.11259438514904
 42
0.0276602252741283
 10
41.69216891409383
 20
18.09256774737074
 42
0.0275792531479063
 10
41.62422722010009
 20
18.06488834436503
 42
0.0275105592991667
 10
41.55974427894782
 20
18.02990225792967
 42
0.0275024596899479
 10
41.49948846938395
 20
17.98805183460009
 42
0.0273897577000938
 10
41.44417848018508
 20
17.93985375420555
 42
0.0273474068705935
 10
41.39446780709585
 20
17.88589768646169
 42
0.0272426114506992
 10
41.35092682789792
 20
17.82685205814396
 42
0.027249554164023
 10
41.31406779098921
 20
17.76342651958168
 42
0.0272817671351902
 10
41.28432694399452
 20
17.6963409460613
 42
0.0267188222864941
 10
41.26198682910001
 20
17.62645507147982
  0
LWPOLYLINE
  5
56027
330
1F
100
AcDbEntity
  8
1
100
AcDbPolyline
 90
        4
 70
     0
 43
0.0
 10
42.16094085089998
 20
18.09460085367982
 42
0.0303935158123728
 10
42.19664532000985
 20
18.09683695904316
 42
0.0314454249177155
 10
42.23182721332512
 20
18.10345801056886
 42
0.0307296793160872
 10
42.26591209680001
 20
18.11440978867982
  0
LWPOLYLINE
  5
56028
330
1F
100
AcDbEntity
  8
1
100
AcDbPolyline
 90
       10
 70
     0
 43
0.0
 10
40.9816627177
 20
17.40860411777982
 42
0.0367734786498092
 10
41.02394193729361
 20
17.41172487286758
 42
0.036796100083876
 10
41.06530607063371
 20
17.42102849796805
 42
0.0368752924051029
 10
41.10487034905992
 20
17.43630147822716
 42
0.0366853186015394
 10
41.14176988622006
 20
17.45720191179566
 42
0.0365691336674832
 10
41.17521681043473
 20
17.48327101631281
 42
0.0364169419639929
 10
41.20452427661206
 20
17.51392051510537
 42
0.0364621285074061
 10
41.22906955182759
 20
17.54849660174508
 42
0.0365325560849966
 10
41.24832473960714
 20
17.58630162323401
 42
0.0351677604022464
 10
41.26198682910001
 20
17.62645507147982
  0
LWPOLYLINE
  5
56029
330
1F
100
AcDbEntity
  8
1
100
AcDbPolyline
 90
       16
 70
     0
 43
0.0
 10
39.59843631590002
 20
18.59411922997979
 42
0.0380326525988426
 10
39.56869999905962
 20
18.55933488298671
 42
0.040401496904424
 10
39.54430767219742
 20
18.5196059934286
 42
0.0399508971394806
 10
39.52655644790002
 20
18.4764070599798
 42
0.0388747936366928
 10
39.51601427757635
 20
18.43184958283871
 42
0.0399302066818492
 10
39.51251311815193
 20
18.38520531403948
 42
0.0389398492665751
 10
39.51629235320053
 20
18.33957407887574
 42
0.0389782949676702
 10
39.52711377649876
 20
18.29508366343355
 42
0.0391823213714807
 10
39.54471981540894
 20
18.25281732001235
 42
0.0391561276705542
 10
39.56869883201475
 20
18.21381152171909
 42
0.0393194225040355
 10
39.59848499312534
 20
18.17903753584016
 42
0.0395847473854108
 10
39.63335739236303
 20
18.1493690310018
 42
0.0394936849706753
 10
39.67246480479352
 20
18.12555819444603
 42
0.0397405013298607
 10
39.71483973054166
 20
18.10821782214323
 42
0.0402088770868151
 10
39.75944320824374
 20
18.09783504237838
 42
0.0365179771402749
 10
39.80238458460005
 20
18.09460085357982
  0
LWPOLYLINE
  5
5602A
330
1F
100
AcDbEntity
  8
1
100
AcDbPolyline
 90
       13
 70
     0
 43
0.0
 10
40.70133860640004
 20
17.62645507147982
 42
0.0267070118899464
 10
40.67900992781381
 20
17.69631083115615
 42
0.0272765499309711
 10
40.64927833991299
 20
17.76338596695319
 42
0.0272524948329028
 10
40.61241930450802
 20
17.82682052866937
 42
0.0272424565530526
 10
40.56888192955907
 20
17.88586823251771
 42
0.0273469438316036
 10
40.51917497683411
 20
17.93982649533871
 42
0.0273897279310548
 10
40.46386784505512
 20
17.98802776801835
 42
0.027502618517242
 10
40.40361412234242
 20
18.02988195031582
 42
0.0275110474335129
 10
40.33913184662336
 20
18.06487242624546
 42
0.0275776558254957
 10
40.27119578884702
 20
18.09255421996837
 42
0.0276606108121065
 10
40.20061542476603
 20
18.1125855295532
 42
0.0276261337324865
 10
40.12824818572221
 20
18.12471037341602
 42
0.0276367335772395
 10
40.05498945150003
 20
18.12876900557983
  0
LWPOLYLINE
  5
5602B
330
1F
100
AcDbEntity
  8
1
100
AcDbPolyline
 90
       22
 70
     0
 43
0.0
 10
34.43086362120005
 20
19.02519533327987
 42
-0.0136660872610514
 10
34.43215772576304
 20
18.84524807282921
 42
-0.0137810497958131
 10
34.42354828221093
 20
18.664873784684
 42
-0.0137665134110249
 10
34.40502251390004
 20
18.48528118577968
 42
-0.0137182587317913
 10
34.37674929706458
 20
18.30755030496679
 42
-0.0137777917503708
 10
34.33863624528326
 20
18.13110830881987
 42
-0.0137760549586269
 10
34.29088111160002
 20
17.95709513977981
 42
-0.0137495155488738
 10
34.23377513305605
 20
17.78642928144846
 42
-0.0137977574914462
 10
34.16721469607225
 20
17.61880227003405
 42
-0.0137991813457296
 10
34.09155252440001
 20
17.45519413117984
 42
-0.0137926163770895
 10
34.00711671693187
 20
17.2962649303663
 42
-0.0138267178501486
 10
33.91395635058604
 20
17.14210644406589
 42
-0.0138299828668006
 10
33.8124875149
 20
16.99343635527981
 42
-0.0138465474015097
 10
33.7029664123474
 20
16.85063244585348
 42
-0.0138613963292181
 10
33.58578998409661
 20
16.71421168337217
 42
-0.0138638395602702
 10
33.46133717319998
 20
16.5846009947798
 42
-0.0139062491366759
 10
33.32967673295736
 20
16.46190952747768
 42
-0.0138989690579946
 10
33.19173787644042
 20
16.34700495397639
 42
-0.0138930007829167
 10
33.0477565722
 20
16.24003433667968
 42
-0.013969785267086
 10
32.89754708097991
 20
16.14092211764334
 42
-0.0139519901747765
 10
32.74266277512391
 20
16.05071200616105
 42
-0.0138624283692081
 10
32.58315271370003
 20
15.96932872967983
  0
LWPOLYLINE
  5
5602C
330
1F
100
AcDbEntity
  8
1
100
AcDbPolyline
 90
       15
 70
     0
 43
0.0
 10
32.22785339990003
 20
17.8849493170798
 42
0.0359566137725377
 10
32.26520898769712
 20
17.90274811171337
 42
0.0356639935683861
 10
32.29965285409207
 20
17.92570429450401
 42
0.0357327082479829
 10
32.33048608053494
 20
17.953336721357
 42
0.0355590101032935
 10
32.35708302170554
 20
17.98506056795235
 42
0.0353859451796846
 10
32.37892194797735
 20
18.02022883722037
 42
0.0354331843659081
 10
32.39558525721776
 20
18.05812562982055
 42
0.0352170573083223
 10
32.40674838913532
 20
18.0979910465567
 42
0.0352787925069443
 10
32.41219823192392
 20
18.13902947415255
 42
0.0352368182977753
 10
32.41183459185374
 20
18.18042676372198
 42
0.0351844378875218
 10
32.40565543917825
 20
18.22136190304728
 42
0.0352302691901816
 10
32.39380068304411
 20
18.26102576814005
 42
0.0355190480565922
 10
32.37647710284952
 20
18.29862066849347
 42
0.035738347772002
 10
32.35396318064915
 20
18.33338422299952
 42
0.0343490056635418
 10
32.32683042260004
 20
18.36465875847983
  0
LWPOLYLINE
  5
5602D
330
1F
100
AcDbEntity
  8
1
100
AcDbPolyline
 90
        4
 70
     0
 43
0.0
 10
39.80238458460005
 20
18.09460085357982
 10
39.82810220409101
 20
18.09577098814883
 10
39.8536452074176
 20
18.09924194469282
 10
39.87876042729999
 20
18.1049373388798
  0
LWPOLYLINE
  5
5602E
330
1F
100
AcDbEntity
  8
1
100
AcDbPolyline
 90
        4
 70
     0
 43
0.0
 10
32.04650631120001
 20
17.8754768673798
 10
32.07161270133574
 20
17.86978307234437
 10
32.09715713517699
 20
17.86631118908409
 10
32.12288215390004
 20
17.86514038207982
  0
LWPOLYLINE
  5
5602F
330
1F
100
AcDbEntity
  8
1
100
AcDbPolyline
 90
        4
 70
     0
 43
0.0
 10
40.05498945150003
 20
18.12876900557983
 42
0.0223655760589535
 10
39.9956209094301
 20
18.12610760968054
 42
0.0224256379504473
 10
39.93671086074187
 20
18.11811961004685
 42
0.022078172115306
 10
39.87876042729999
 20
18.1049373388798
  0
LWPOLYLINE
  5
56030
330
1F
100
AcDbEntity
  8
1
100
AcDbPolyline
 90
        4
 70
     0
 43
0.0
 10
32.12288215390004
 20
17.86514038207982
 42
0.0303935156622439
 10
32.15858662304359
 20
17.86737648743496
 42
0.0314454243262745
 10
32.19376851639282
 20
17.87399753896055
 42
0.0307296803371383
 10
32.22785339990003
 20
17.8849493170798
  0
LWPOLYLINE
  5
56031
330
1F
100
AcDbEntity
  8
1
100
AcDbPolyline
 90
       15
 70
     0
 43
0.0
 10
32.32683042260004
 20
19.32162329327982
 42
0.0277271120075894
 10
32.27625155520852
 20
19.26508854735429
 42
0.0283784000494685
 10
32.23229846331861
 20
19.20322468075503
 42
0.0281799577376348
 10
32.1956152465205
 20
19.13679544859332
 42
0.0280285644609071
 10
32.16661364604204
 20
19.06667283984253
 42
0.0280690372965903
 10
32.14563739859125
 20
18.99374536682811
 42
0.0279881235037222
 10
32.13295150862297
 20
18.91892878475885
 42
0.0279987854152665
 10
32.12870607542226
 20
18.84316331801505
 42
0.0279987109108769
 10
32.13294652730861
 20
18.76739757279768
 42
0.0279880579081201
 10
32.14562746630185
 20
18.69258029900959
 42
0.0280692947778333
 10
32.16659907074427
 20
18.61965093069889
 42
0.0280288468624488
 10
32.19559650814313
 20
18.54952557105348
 42
0.0281772201919523
 10
32.23227173206459
 20
18.48309991955898
 42
0.0283830152463644
 10
32.27622750741443
 20
18.42122359661732
 42
0.0277413141704618
 10
32.32683042260004
 20
18.36465875847983
  0
LINE
  5
56032
330
1F
100
AcDbEntity
  8
1
100
AcDbLine
 10
50.80000000000004
 20
22.56680465157979
 30
0.0
 11
50.80000000000001
 21
24.59999999999999
 31
0.0
  0
LWPOLYLINE
  5
56033
330
1F
100
AcDbEntity
  8
1
100
AcDbPolyline
 90
       10
 70
     0
 43
0.0
 10
40.9816627177
 20
20.73659887697985
 42
0.0367734782413619
 10
40.93938349810372
 20
20.73347812187768
 42
0.0367960991372668
 10
40.89801936476095
 20
20.72417449677718
 42
0.036875291784738
 10
40.85845508631604
 20
20.70890151655118
 42
0.0366853188465178
 10
40.82155554912751
 20
20.68800108302491
 42
0.0365691350502182
 10
40.78810862490721
 20
20.66193197851189
 42
0.0364169430488071
 10
40.75880115875011
 20
20.63128247969502
 42
0.0364621277135223
 10
40.73425588356721
 20
20.596706393028
 42
0.0365325559802792
 10
40.71500069580292
 20
20.55890137152636
 42
0.035167760058974
 10
40.7013386063
 20
20.51874792327982
  0
LWPOLYLINE
  5
56034
330
1F
100
AcDbEntity
  8
1
100
AcDbPolyline
 90
        4
 70
     0
 43
0.0
 10
42.16094085089998
 20
20.05060214117984
 10
42.13522323138704
 20
20.04943200685108
 10
42.10968022804325
 20
20.0459610503004
 10
42.0845650082
 20
20.0402656558798
  0
LWPOLYLINE
  5
56035
330
1F
100
AcDbEntity
  8
1
100
AcDbPolyline
 90
       10
 70
     0
 43
0.0
 10
41.26198682910001
 20
20.51874792327982
 42
0.0351402219299696
 10
41.24833747183243
 20
20.55887113362417
 42
0.0365183877746405
 10
41.22909431786058
 20
20.59666547315139
 42
0.0364673584841
 10
41.20455102944748
 20
20.63125007248253
 42
0.036417980536739
 10
41.17524721003451
 20
20.66190449345929
 42
0.0365694759867221
 10
41.14180315139089
 20
20.68797886654357
 42
0.0366810381046761
 10
41.10491107819922
 20
20.70888223745737
 42
0.0368778970659524
 10
41.06534619737192
 20
20.72416231188288
 42
0.0368144112908531
 10
41.02396231048459
 20
20.73347509345751
 42
0.0367915927865499
 10
40.9816627177
 20
20.73659887697985
  0
LWPOLYLINE
  5
56036
330
1F
100
AcDbEntity
  8
1
100
AcDbPolyline
 90
        4
 70
     0
 43
0.0
 10
41.90833598400002
 20
20.0164339891798
 42
0.0223655757383837
 10
41.96770452606904
 20
20.01909538508801
 42
0.0224256376232329
 10
42.02661457475673
 20
20.02708338472158
 42
0.0220781721999938
 10
42.0845650082
 20
20.0402656558798
  0
LWPOLYLINE
  5
56037
330
1F
100
AcDbEntity
  8
1
100
AcDbPolyline
 90
        4
 70
     0
 43
0.0
 10
42.26591209680001
 20
20.03079320617968
 42
0.0307093271913181
 10
42.23184972814843
 20
20.04173925754187
 42
0.031448904245881
 10
42.19666516959054
 20
20.04836356985538
 42
0.0304106940638751
 10
42.16094085089998
 20
20.05060214117984
  0
LWPOLYLINE
  5
56038
330
1F
100
AcDbEntity
  8
1
100
AcDbPolyline
 90
       15
 70
     0
 43
0.0
 10
42.36488911949999
 20
19.55108376477976
 42
0.0343223204165761
 10
42.39200277093977
 20
19.58233293864565
 42
0.0357233951419934
 10
42.41451286797962
 20
19.61708018476889
 42
0.0355239996159035
 10
42.43184438183021
 20
19.65467703071738
 42
0.0352313773533263
 10
42.44370507661392
 20
19.69434013798917
 42
0.0351842742236837
 10
42.4498900093526
 20
19.73527455608251
 42
0.0352367588270366
 10
42.45025949562221
 20
19.77667137871184
 42
0.0352784392990537
 10
42.44481550800799
 20
19.81771046333292
 42
0.0352168580714758
 10
42.43365811828522
 20
19.85757728073837
 42
0.0354337163097614
 10
42.41700000188925
 20
19.89547694992253
 42
0.0353874226793073
 10
42.39516487090142
 20
19.93064996681534
 42
0.0355544671368127
 10
42.36857600670683
 20
19.96237351227821
 42
0.0357299199457286
 10
42.33774924635031
 20
19.99000901705088
 42
0.0356875004260492
 10
42.30328539349182
 20
20.01298435331321
 42
0.0359743108174267
 10
42.26591209680001
 20
20.03079320617968
  0
LWPOLYLINE
  5
56039
330
1F
100
AcDbEntity
  8
1
100
AcDbPolyline
 90
       13
 70
     0
 43
0.0
 10
41.26198682910001
 20
20.51874792327982
 42
0.0267070122280699
 10
41.28431550760871
 20
20.44889216357365
 42
0.0272765505374839
 10
41.31404709551861
 20
20.38181702777916
 42
0.0272524948713094
 10
41.35090613098173
 20
20.31838246609471
 42
0.0272424562892574
 10
41.39444350592071
 20
20.25933476222899
 42
0.0273469436184731
 10
41.44415045860845
 20
20.2053764993694
 42
0.02738972823568
 10
41.49945759039144
 20
20.1571752266904
 42
0.0275026184400692
 10
41.55971131312949
 20
20.11532104442352
 42
0.027511046966554
 10
41.6241935888662
 20
20.08033056851882
 42
0.0275776554917921
 10
41.69212964664192
 20
20.05264877477879
 42
0.0276606111609352
 10
41.76271001072288
 20
20.03261746518441
 42
0.0276261336360982
 10
41.83507724977324
 20
20.02049262134079
 42
0.0276367333295125
 10
41.90833598400002
 20
20.0164339891798
  0
LWPOLYLINE
  5
5603A
330
1F
100
AcDbEntity
  8
1
100
AcDbPolyline
 90
        4
 70
     0
 43
0.0
 10
39.87876042729999
 20
20.0402656558798
 42
0.0220729943474853
 10
39.93669718837941
 20
20.02708586512529
 42
0.022422793792101
 10
39.99560000607443
 20
20.01909726629197
 42
0.0223736000774654
 10
40.05498945140004
 20
20.0164339891798
  0
LWPOLYLINE
  5
5603B
330
1F
100
AcDbEntity
  8
1
100
AcDbPolyline
 90
        4
 70
     0
 43
0.0
 10
32.22785339990003
 20
19.80133273457976
 42
0.0307093258400984
 10
32.19379103124845
 20
19.81227878594188
 42
0.0314489030844132
 10
32.15860647269051
 20
19.81890309825546
 42
0.030410694384964
 10
32.12288215400003
 20
19.82114166957978
  0
LWPOLYLINE
  5
5603C
330
1F
100
AcDbEntity
  8
1
100
AcDbPolyline
 90
        4
 70
     0
 43
0.0
 10
39.87876042729999
 20
20.0402656558798
 10
39.85365403716424
 20
20.04595945091505
 10
39.82810960332293
 20
20.04943133417538
 10
39.80238458460005
 20
20.05060214117984
  0
LWPOLYLINE
  5
5603D
330
1F
100
AcDbEntity
  8
1
100
AcDbPolyline
 90
       13
 70
     0
 43
0.0
 10
40.05498945140004
 20
20.0164339891798
 42
0.02762898899618
 10
40.12822788349692
 20
20.02049036461485
 42
0.0276186595420274
 10
40.2005760458307
 20
20.03260860960339
 42
0.0276602248980608
 10
40.2711565213147
 20
20.05263524737936
 42
0.0275792532406574
 10
40.33909821532171
 20
20.08031465035751
 42
0.0275105594316738
 10
40.40358115646364
 20
20.11530073681186
 42
0.027502459836229
 10
40.46383696601032
 20
20.15715116016952
 42
0.0273897570728738
 10
40.51914695521259
 20
20.20534924056153
 42
0.0273474067958162
 10
40.56885762834792
 20
20.25930530826935
 42
0.0272426117894644
 10
40.6123986075678
 20
20.3183509365713
 42
0.0272495542629579
 10
40.64925764442711
 20
20.3817764751617
 42
0.0272817669078085
 10
40.67899849139121
 20
20.44886204869953
 42
0.0267188219654534
 10
40.7013386063
 20
20.51874792327982
  0
LWPOLYLINE
  5
5603E
330
1F
100
AcDbEntity
  8
1
100
AcDbPolyline
 90
       16
 70
     0
 43
0.0
 10
39.80238458460005
 20
20.05060214117984
 42
0.0388696988613365
 10
39.75676389471459
 20
20.04695397322269
 42
0.0401933780323169
 10
39.71227195724834
 20
20.03615243386803
 42
0.0397342552592768
 10
39.67006113815933
 20
20.01841617217086
 42
0.039484635499247
 10
39.63117620806989
 20
19.99424201870482
 42
0.0395665874285633
 10
39.5965815848476
 20
19.96425002647119
 42
0.0393283045295223
 10
39.56711911140241
 20
19.92920181066283
 42
0.0391398741430094
 10
39.5435008258861
 20
19.88997628303823
 42
0.0391694277506614
 10
39.52628517362109
 20
19.84754943527632
 42
0.0389901835015462
 10
39.51587293203551
 20
19.80296168866939
 42
0.0389298800762131
 10
39.51251248922824
 20
19.75729736432288
 42
0.0390803597997493
 10
39.51628232746174
 20
19.71166587321198
 42
0.0388813221269621
 10
39.52708265938642
 20
19.66717022272201
 42
0.0391695816349215
 10
39.54466384996613
 20
19.62489801797156
 42
0.0390223596276444
 10
39.56821822767409
 20
19.58652961969971
 42
0.0387275666059191
 10
39.59843631590002
 20
19.55108376477976
  0
LWPOLYLINE
  5
5603F
330
1F
100
AcDbEntity
  8
1
100
AcDbPolyline
 90
        4
 70
     0
 43
0.0
 10
32.12288215400003
 20
19.82114166957978
 10
32.09716453445924
 20
19.81997153525957
 10
32.07162153108402
 20
19.8165005787431
 10
32.04650631120001
 20
19.81080518437985
  0
LWPOLYLINE
  5
56040
330
1F
100
AcDbEntity
  8
1
100
AcDbPolyline
 90
       10
 70
     0
 43
0.0
 10
13.94103553010004
 20
18.46192582089996
 42
-0.008260157001773
 10
13.8629932116259
 20
18.76846774227397
 42
-0.0082706727347859
 10
13.79512243724744
 20
19.07743423705983
 42
-0.0082862473272157
 10
13.73751782370701
 20
19.38847639948517
 42
-0.0083059096789394
 10
13.69026474484909
 20
19.70125715038767
 42
-0.0083303429358057
 10
13.65344197973132
 20
20.01543777146014
 42
-0.0083517902103503
 10
13.62711985405775
 20
20.33067180561619
 42
-0.0083940182188804
 10
13.61136399681595
 20
20.64660761551073
 42
-0.0084587176427251
 10
13.60626490874691
 20
20.96290093864434
 42
-0.0084324983047455
 10
13.61185521050004
 20
21.27918661409996
  0
LWPOLYLINE
  5
56041
330
1F
100
AcDbEntity
  8
1
100
AcDbPolyline
 90
       37
 70
     0
 43
0.0
 10
22.17097695600003
 20
11.40519367429999
 42
-0.0097886995310395
 10
21.78509119433812
 20
11.47484070994981
 42
-0.0098132142194749
 10
21.40224119984643
 20
11.55955537804715
 42
-0.0098069734901861
 10
21.02303013700003
 20
11.65921888449998
 42
-0.0098046676326105
 10
20.6479739243681
 20
11.7736891499012
 42
-0.0098076388526333
 10
20.27773164742345
 20
11.90276502584487
 42
-0.0098053137493966
 10
19.91283401980001
 20
12.04626056279994
 42
-0.009805855475315
 10
19.55380893715483
 20
12.20397047645684
 42
-0.0098069392760468
 10
19.20127512091852
 20
12.37562225911955
 42
-0.009804977181869
 10
18.85573942160002
 20
12.56096703679998
 42
-0.0098055639499324
 10
18.51771126553243
 20
12.75973436086923
 42
-0.0098066623100523
 10
18.18775882013901
 20
12.97158931245985
 42
-0.0098047290497751
 10
17.8663629184
 20
13.19622139720002
 42
-0.0098050890254127
 10
17.55400564425253
 20
13.43329611589223
 42
-0.0098064026519074
 10
17.25119669924675
 20
13.68242572052287
 42
-0.0098044711278557
 10
16.95838474000001
 20
13.94323990429984
 42
-0.0098045705873738
 10
16.67601672355039
 20
14.21534244849476
 42
-0.009806138012131
 10
16.40453846444143
 20
14.49830276486533
 42
-0.009804208070707
 10
16.14435961150002
 20
14.79169344209998
 42
-0.0098040467147314
 10
15.89588407672013
 20
15.09506022011447
 42
-0.0098058799735265
 10
15.65949074601113
 20
15.40793940141752
 42
-0.0098039536306651
 10
15.43554315770001
 20
15.72985033999998
 42
-0.0098035471066795
 10
15.2243943479551
 20
16.06028592445222
 42
-0.0098056425378894
 10
15.02635527044384
 20
16.39875822446447
 42
-0.0098037210315156
 10
14.8417362701
 20
16.74473858799996
 42
-0.0098031002617261
 10
14.67083214219661
 20
17.09767381595969
 42
-0.0098054418507456
 10
14.51388643611784
 20
17.45705934757006
 42
-0.009803513429851
 10
14.37114958920003
 20
17.82232520229996
 42
-0.0098027400650176
 10
14.2428516625676
 20
18.19288035785087
 42
-0.0098053252808336
 10
14.12917028258121
 20
18.56820983340299
 42
-0.0098032297689656
 10
14.03028997450002
 20
18.94771026139995
 42
-0.0098025958494954
 10
13.94637081326914
 20
19.33076223138164
 42
-0.0098057099467414
 10
13.87752667201303
 20
19.71684647203852
 42
-0.0098016213202589
 10
13.8238705334
 20
20.10533292869997
 42
-0.0098038965780265
 10
13.78548844854171
 20
20.49558212105347
 42
-0.0098109283705264
 10
13.76243805493473
 20
20.88709487163624
 42
-0.009785630162184
 10
13.75474545270001
 20
21.27918661409996
  0
LWPOLYLINE
  5
56042
330
1F
100
AcDbEntity
  8
1
100
AcDbPolyline
 90
       25
 70
     0
 43
0.0
 10
20.08785637950001
 20
15.34839216770001
 42
-0.0105078334432308
 10
19.84147833287991
 20
15.51021266842593
 42
-0.0105386692218289
 10
19.60212401933313
 20
15.68225925156786
 42
-0.0105308363646222
 10
19.37024434930001
 20
15.86422518369993
 42
-0.0105274115001164
 10
19.1462108342904
 20
16.05581029274924
 42
-0.0105315665671704
 10
18.93045570155775
 20
16.25664500601755
 42
-0.0105286682879927
 10
18.72334610090002
 20
16.46638775799999
 42
-0.0105287054520344
 10
18.52524000072051
 20
16.68467741371876
 42
-0.0105306294362608
 10
18.33650808638654
 20
16.91110462228585
 42
-0.0105282043880863
 10
18.15747386090001
 20
17.14528026669984
 42
-0.0105282813021845
 10
17.98845321745264
 20
17.38679312170916
 42
-0.0105303035921173
 10
17.82975252901144
 20
17.63520430329265
 42
-0.0105279358450663
 10
17.68164853659999
 20
17.89008027209996
 42
-0.0105277577606428
 10
17.54440675384524
 20
18.15096555915767
 42
-0.0105300919368938
 10
17.41826788032009
 20
18.41740129359334
 42
-0.0105277307112727
 10
17.30345601690004
 20
18.68891491199997
 42
-0.0105273203571177
 10
17.20017982932751
 20
18.96501355365854
 42
-0.0105300094057048
 10
17.10861466546123
 20
19.24522690966466
 42
-0.0105274558186572
 10
17.0289263027
 20
19.52905005589997
 42
-0.0105271442098425
 10
16.96126110988251
 20
19.81596066195908
 42
-0.0105305640363086
 10
16.90573089500344
 20
20.10548536327252
 42
-0.0105254652124938
 10
16.8624378252
 20
20.3970901193
 42
-0.0105287540533933
 10
16.83146062052822
 20
20.69023570996853
 42
-0.010536913668973
 10
16.8128558119281
 20
20.98446117799568
 42
-0.0105055234072199
 10
16.8066457575
 20
21.27918661419994
  0
LWPOLYLINE
  5
56043
330
1F
100
AcDbEntity
  8
1
100
AcDbPolyline
 90
       16
 70
     0
 43
0.0
 10
29.76432588760003
 20
19.82114166957978
 42
0.0388696990772558
 10
29.71870519772745
 20
19.81749350159828
 42
0.040193378156811
 10
29.67421326025601
 20
19.80669196228657
 42
0.0397342567602241
 10
29.63200244116553
 20
19.78895570062183
 42
0.0394846353146067
 10
29.59311751112585
 20
19.76478154710201
 42
0.0395665865578554
 10
29.5585228879379
 20
19.73478955483853
 42
0.0393283041767179
 10
29.52906041448682
 20
19.69974133904769
 42
0.0391398736839433
 10
29.50544212895025
 20
19.66051581144585
 42
0.0391694278792233
 10
29.48822647669698
 20
19.61808896369199
 42
0.0389901834283567
 10
29.47781423513982
 20
19.57350121708849
 42
0.0389298787932159
 10
29.47445379233057
 20
19.52783689275007
 42
0.039080360531145
 10
29.47822363055536
 20
19.4822054016493
 42
0.0388813221356353
 10
29.48902396247144
 20
19.43770975116753
 42
0.039169580123308
 10
29.50660515303582
 20
19.39543754642028
 42
0.0390223592588977
 10
29.5301595307833
 20
19.3570691481123
 42
0.0387275670340289
 10
29.56037761900004
 20
19.32162329327982
  0
LWPOLYLINE
  5
56044
330
1F
100
AcDbEntity
  8
1
100
AcDbPolyline
 90
       19
 70
     0
 43
0.0
 10
28.15052872140001
 20
18.84314102587967
 42
-0.0213680958865121
 10
28.16143007047521
 20
19.09490059983884
 42
-0.0216512810930664
 10
28.1939223289296
 20
19.34486066258279
 42
-0.0216172162078712
 10
28.24790205662504
 20
19.59106723030641
 42
-0.0215993365984378
 10
28.32292950368634
 20
19.83169012336884
 42
-0.0216583924925937
 10
28.4184573212151
 20
20.06493790279975
 42
-0.0216695471269506
 10
28.53381501322011
 20
20.2890419325642
 42
-0.0217222658717716
 10
28.66816209530913
 20
20.50230335491057
 42
-0.0217570567184227
 10
28.82051281149012
 20
20.70309869311182
 42
-0.0217853930357206
 10
28.98975417584558
 20
20.88987882930184
 42
-0.0218542676043918
 10
29.17462878410325
 20
21.0611988615812
 42
-0.021876036091508
 10
29.37375460232812
 20
21.21572412026687
 42
-0.0219144097152116
 10
29.58563703214025
 20
21.3522324630016
 42
-0.0219767594373165
 10
29.80866756820942
 20
21.46964843912494
 42
-0.0219803375527252
 10
30.04114377886552
 20
21.56703562297253
 42
-0.0220203530763916
 10
30.28127283012475
 20
21.64360464879255
 42
-0.0220562953103562
 10
30.52722305034758
 20
21.69875026560533
 42
-0.0220465796002475
 10
30.77709081998051
 20
21.73202168063221
 42
-0.0220489319157019
 10
31.02891256130002
 20
21.74313821767981
  0
LINE
  5
56045
330
1F
100
AcDbEntity
  8
1
100
AcDbLine
 10
0.0
 20
4.469999999899982
 30
0.0
 11
0.0
 21
22.31499999990001
 31
0.0
  0
LINE
  5
56046
330
1F
100
AcDbEntity
  8
1
100
AcDbLine
 10
20.45659037290002
 20
24.10283449649984
 30
0.0
 11
20.45659037290002
 21
16.24714252829994
 31
0.0
  0
LINE
  5
56047
330
1F
100
AcDbEntity
  8
1
100
AcDbLine
 10
24.48895580480002
 20
21.31910155410026
 30
0.0
 11
22.25900261330003
 21
17.56849739400024
 31
0.0
  0
LINE
  5
56048
330
1F
100
AcDbEntity
  8
1
100
AcDbLine
 10
21.02361545080009
 20
15.6052804244797
 30
0.0
 11
24.12463715200011
 21
20.6052804244797
 31
0.0
  0
LWPOLYLINE
  5
56049
330
1F
100
AcDbEntity
  8
1
100
AcDbPolyline
 90
       10
 70
     0
 43
0.0
 10
14.7320508075
 20
14.87842031829984
 42
-0.0071595150165599
 10
14.60190067314085
 20
15.26577134185101
 42
-0.0072386992917343
 10
14.48297268859193
 20
15.65672291437471
 42
-0.0069243279195686
 10
14.37517716499141
 20
16.05088941134795
 42
-0.0066372398019628
 10
14.27809722218242
 20
16.44783155180607
 42
-0.0063986348409725
 10
14.19139747205412
 20
16.8471713499145
 42
-0.0061562191853714
 10
14.11475090145592
 20
17.24856259588199
 42
-0.0058363038910885
 10
14.04777303651963
 20
17.65167771910853
 42
-0.0054936986001793
 10
13.98992622326261
 20
18.05621207866767
 42
-0.0055797816302052
 10
13.94103553010004
 20
18.46192582089996
  0
LWPOLYLINE
  5
5604A
330
1F
100
AcDbEntity
  8
1
100
AcDbPolyline
 90
       48
 70
     0
 43
0.0
 10
13.94103553010004
 20
18.46192582089996
 42
-0.0015535094869998
 10
14.03658079412813
 20
18.20458898271948
 42
0.0034416032100494
 10
14.13361552791494
 20
17.94781186501365
 42
0.0049924278953134
 10
14.23506732948792
 20
17.69275018776068
 42
0.0056744148479796
 10
14.34196644560612
 20
17.43992471542799
 42
0.0060407881490102
 10
14.4547711596621
 20
17.18967921859547
 42
0.0062589094108436
 10
14.57370211632843
 20
16.94228721894347
 42
0.0063997721690075
 10
14.69886031168781
 20
16.69798712746865
 42
0.0064962754413717
 10
14.83027834696392
 20
16.45699710305853
 42
0.0065644645921237
 10
14.96794598178303
 20
16.21952206821299
 42
0.0065967371704481
 10
15.11146912040002
 20
15.98631775699999
 42
0.0066504947603708
 10
15.26148317580026
 20
15.75644340988134
 42
0.0066811234096257
 10
15.41757239768691
 20
15.53064985336948
 42
0.0067018779383793
 10
15.57964871486752
 20
15.30911458254735
 42
0.0067216561616892
 10
15.74761361207925
 20
15.09201056488547
 42
0.0067351559867915
 10
15.92136009870182
 20
14.87950446065935
 42
0.0067479326275028
 10
16.10077332627958
 20
14.67176128805187
 42
0.0067574973293261
 10
16.28573190029633
 20
14.46893857454097
 42
0.0067663357483832
 10
16.47610821708432
 20
14.27119294072298
 42
0.0067731006364769
 10
16.6717688519646
 20
14.07867367081485
 42
0.0067798674780739
 10
16.87257561228193
 20
13.89152865281636
 42
0.0067845090948866
 10
17.07838476924053
 20
13.70989894709817
 42
0.0067902358910674
 10
17.28904880051601
 20
13.53392355837615
 42
0.0067932316876815
 10
17.50441506447231
 20
13.36373504715851
 42
0.0067984955030259
 10
17.72432756559391
 20
13.19946334139087
 42
0.0068002215044558
 10
17.94862578461061
 20
13.04123231688419
 42
0.0068052438844416
 10
18.17714601363411
 20
12.88916246611274
 42
0.0068060758858464
 10
18.40972067259312
 20
12.74336881359323
 42
0.0068107730962651
 10
18.64617895483153
 20
12.60396207734823
 42
0.0068112262669471
 10
18.88634695391792
 20
12.47104823638023
 42
0.0068153064144105
 10
19.1300474424533
 20
12.34472789542065
 42
0.0068159101301988
 10
19.37710082224441
 20
12.22509768746937
 42
0.0068191598454815
 10
19.62732409800344
 20
12.11224788110518
 42
0.0068203329046158
 10
19.8805324770245
 20
12.00626546758803
 42
0.0068226236359499
 10
20.13653791980875
 20
11.90723022915932
 42
0.0068245959375018
 10
20.39515092078023
 20
11.81521906721883
 42
0.0068259897634658
 10
20.65617914107614
 20
11.73030129945249
 42
0.0068287714976257
 10
20.91942895888684
 20
11.65254324665574
 42
0.0068291355318011
 10
21.18470422125023
 20
11.58200374726236
 42
0.00683257474218
 10
21.45180738183163
 20
11.51873802099646
 42
0.0068327711141623
 10
21.72053953868942
 20
11.46279475768887
 42
0.0068550585616025
 10
21.99142840468153
 20
11.41409755111452
 42
0.0068350077100139
 10
22.26282068722051
 20
11.37294487758697
 42
0.0068374080273621
 10
22.53523464132795
 20
11.33922763879883
 42
0.0068408350667626
 10
22.80846578081338
 20
11.31297451371205
 42
0.0068476213413232
 10
23.08231814280626
 20
11.29420980166452
 42
0.006838818026472
 10
23.35659641100824
 20
11.28294858029682
 42
0.0068251227828285
 10
23.63098770290003
 20
11.27918661409994
  0
LINE
  5
5604B
330
1F
100
AcDbEntity
  8
sk3
100
AcDbLine
 10
12.0
 20
10.0
 30
0.0
 11
18.60000000000002
 21
10.0
 31
0.0
  0
LWPOLYLINE
  5
5604C
330
1F
100
AcDbEntity
  8
1
100
AcDbPolyline
 90
       30
 70
     0
 43
0.0
 10
23.79999999990003
 20
7.75714680929996
 42
-0.0098381691006574
 10
23.45377786530844
 20
7.763979938715003
 42
-0.0098654498062109
 10
23.10807675660135
 20
7.784448804307707
 42
-0.0098480773167005
 10
22.76345403890141
 20
7.818528211655177
 42
-0.0098297441110008
 10
22.42044002819776
 20
7.86614056674648
 42
-0.0098154151933664
 10
22.07955986890627
 20
7.927189744273562
 42
-0.0097885215970108
 10
21.74133450222325
 20
8.001552634407005
 42
-0.0097573583117823
 10
21.40627403937211
 20
8.089078571189872
 42
-0.0097246695261994
 10
21.07487722196603
 20
8.18959011749763
 42
-0.0096820352475227
 10
20.74762958221382
 20
8.302884217604344
 42
-0.0096333095918175
 10
20.42500197050623
 20
8.428733870381734
 42
-0.0095824041354717
 10
20.10744789628805
 20
8.566886941147572
 42
-0.0095215033004885
 10
19.79540198423689
 20
8.717068237734451
 42
-0.0094533621307206
 10
19.48927915213932
 20
8.878981954914536
 42
-0.0093827146425315
 10
19.18947170184532
 20
9.052310943192651
 42
-0.0093018837403481
 10
18.89634819257949
 20
9.23671905412322
 42
-0.0092134786163557
 10
18.61025339811192
 20
9.43185414653567
 42
-0.0091224875877275
 10
18.33150531711163
 20
9.637347891283866
 42
-0.0090210808945606
 10
18.06039473531322
 20
9.852818589706537
 42
-0.0089130383138899
 10
17.79718613437302
 20
10.07787427293652
 42
-0.0088025073362487
 10
17.54211475231761
 20
10.31211284745535
 42
-0.0086810809805317
 10
17.2953872826545
 20
10.55512534564496
 42
-0.0085560332070906
 10
17.05718313882934
 20
10.80649889956424
 42
-0.0084283294336598
 10
16.82765323055142
 20
11.06581724500023
 42
-0.0082864276300389
 10
16.6069183390361
 20
11.33266266003897
 42
-0.0081505133261394
 10
16.39507148328485
 20
11.60662005109696
 42
-0.0080207739021675
 10
16.19219497527655
 20
11.88728302446748
 42
-0.0078284419978824
 10
15.99832167845685
 20
12.17423600734952
 42
-0.0076704917265844
 10
15.81341309645234
 20
12.46706305535599
 42
-0.0077189238164964
 10
15.63760270950001
 20
12.76543640169984
  0
LINE
  5
5604D
330
1F
100
AcDbEntity
  8
1
100
AcDbLine
 10
23.80000000000001
 20
11.27918661419993
 30
0.0
 11
23.80000000000001
 21
7.757146809399955
 31
0.0
  0
LINE
  5
5604E
330
1F
100
AcDbEntity
  8
sk3
100
AcDbLine
 10
19.00060121149983
 20
6.511454833199991
 30
0.0
 11
29.14833286699983
 21
11.27895604809998
 31
0.0
  0
LINE
  5
5604F
330
1F
100
AcDbEntity
  8
sk3
100
AcDbLine
 10
18.88395441875431
 20
9.881726619384664
 30
0.0
 11
22.15547871109982
 21
11.41871996610035
 31
0.0
  0
LWPOLYLINE
  5
56050
330
1F
100
AcDbEntity
  8
1
100
AcDbPolyline
 90
        3
 70
     0
 43
0.0
 10
30.67984011830004
 20
4.021448277099977
 10
30.69277564130002
 20
4.130693135000001
 10
30.7057111643
 20
4.23993799289996
  0
LINE
  5
56051
330
1F
100
AcDbEntity
  8
1
100
AcDbLine
 10
23.80000000000001
 20
7.757146809399955
 30
0.0
 11
29.4538685823
 21
7.757146809399955
 31
0.0
  0
ARC
  5
56052
330
1F
100
AcDbEntity
  8
sk3
100
AcDbCircle
 10
19.4
 20
5.669999999999845
 30
0.0
 40
0.4
100
AcDbArc
 50
180.0
 51
270.0
  0
ARC
  5
56053
330
1F
100
AcDbEntity
  8
sk3
100
AcDbCircle
 10
18.60000000000002
 20
9.599999999999958
 30
0.0
 40
0.4
100
AcDbArc
 50
0.0
 51
90.0
  0
LWPOLYLINE
  5
56054
330
1F
100
AcDbEntity
  8
1
100
AcDbPolyline
 90
       19
 70
     0
 43
0.0
 10
23.6309936687
 20
11.27969785559997
 10
23.54951127081637
 20
11.28086313538256
 10
23.46804120629852
 20
11.28270210799769
 10
23.38658908744003
 20
11.28521477702281
 10
23.30516039492852
 20
11.28840205968816
 10
23.22376082527262
 20
11.29226493437919
 10
23.14239622133394
 20
11.29680442467218
 10
23.06107234888285
 20
11.30202158657651
 10
22.97979477389924
 20
11.30791760242221
 10
22.89856949008532
 20
11.31449410349671
 10
22.81740230581403
 20
11.32175291346499
 10
22.73629931682652
 20
11.32969652657168
 10
22.65526665438912
 20
11.33832803920317
 10
22.57431076534809
 20
11.34765184533154
 10
22.49343837060911
 20
11.35767415471673
 10
22.41265696544602
 20
11.36840501087238
 10
22.33197521730892
 20
11.37986098453223
 10
22.25140567246441
 20
11.392080711557
 42
-0.0033216007479548
 10
22.17097695600003
 20
11.40519367429999
  0
LWPOLYLINE
  5
56055
330
1F
100
AcDbEntity
  8
1
100
AcDbPolyline
 90
        9
 70
     0
 43
0.0
 10
22.83227442180001
 20
11.67918680389999
 42
0.0093974274489994
 10
22.95282441049923
 20
11.68141922740398
 42
0.0093008362426608
 10
23.07320790955959
 20
11.68816375178249
 42
0.0091705970368035
 10
23.19326308597152
 20
11.69934852929401
 42
0.0090837758385724
 10
23.31282955088551
 20
11.71490733955482
 42
0.0090110009126813
 10
23.43175065396605
 20
11.73478074306456
 42
0.0089507257865511
 10
23.54988467981275
 20
11.75891276499396
 42
0.0089181941905879
 10
23.6670920310099
 20
11.78725124871619
 42
0.0089152747287037
 10
23.78320378590002
 20
11.81974755289997
  0
LWPOLYLINE
  5
56056
330
1F
100
AcDbEntity
  8
1
100
AcDbPolyline
 90
       13
 70
     0
 43
0.0
 10
21.55249796386732
 20
12.79279899325348
 42
0.0478853401693271
 10
21.95134273867376
 20
12.38321957773337
 42
0.0120250219533279
 10
22.06286884258043
 20
12.29322845982722
 42
0.0120325146875932
 10
22.17859395260882
 20
12.20870696332872
 42
0.0120418556009066
 10
22.29825142440785
 20
12.12985386973167
 42
0.0120510973509833
 10
22.42156802331093
 20
12.05685451754863
 42
0.0120653896019094
 10
22.54826126845074
 20
11.98988669246715
 42
0.012077135950723
 10
22.67803870898104
 20
11.92911073075453
 42
0.0120813469963825
 10
22.8106010510632
 20
11.87467383808835
 42
0.012014804208098
 10
22.94471994787526
 20
11.82700938786473
 42
0.012100338706199
 10
23.08190326547574
 20
11.78558726389946
 42
0.0121086867801051
 10
23.22094455714353
 20
11.75085070248194
 42
0.0121954120854868
 10
23.36244687030003
 20
11.72272266159996
  0
LWPOLYLINE
  5
56057
330
1F
100
AcDbEntity
  8
1
100
AcDbPolyline
 90
       21
 70
     0
 43
0.0
 10
22.17094495450002
 20
11.42368514769998
 42
-0.0253955919860491
 10
22.25034421470335
 20
11.43735175299696
 42
-0.0063624379105165
 10
22.33036825746842
 20
11.44696477282764
 10
22.41055044374252
 20
11.45517803337464
 10
22.49080318749802
 20
11.46267033466819
 10
22.57109551743332
 20
11.46972843170249
 10
22.65141120945802
 20
11.47651538432933
 10
22.73174099687185
 20
11.48313354276598
 10
22.81207886575163
 20
11.48965311781654
 10
22.89242051599661
 20
11.49612585780517
 10
22.97276274304292
 20
11.50259144400775
 10
23.05310297054476
 20
11.50908181741948
 10
23.13343904610599
 20
11.51562331003717
 10
23.21376907687193
 20
11.52223854647513
 10
23.29409158895993
 20
11.52894446049419
 10
23.37440507768423
 20
11.53575767331273
 10
23.45470781791874
 20
11.54269643430438
 10
23.53499792305502
 20
11.54977978656051
 10
23.61527378384892
 20
11.55702290704702
 10
23.69553523142102
 20
11.56442438425552
 10
23.7757827961
 20
11.57197838899998
  0
LWPOLYLINE
  5
56058
330
1F
100
AcDbEntity
  8
1
100
AcDbPolyline
 90
        3
 70
     0
 43
0.0
 10
23.73151079550004
 20
11.27918661419993
 10
23.68125223210004
 20
11.27944223489999
 10
23.6309936687
 20
11.27969785559997
  0
LWPOLYLINE
  5
56059
330
1F
100
AcDbEntity
  8
1
100
AcDbPolyline
 90
       16
 70
     0
 43
0.0
 10
24.52173029850005
 20
12.0102145116
 42
0.0645728313436897
 10
24.57519236805345
 20
12.02349632948665
 42
0.0130661248367102
 10
24.62697089184334
 20
12.04272683051221
 42
0.0079182455814612
 10
24.67789165137953
 20
12.06415069582721
 10
24.72820074652864
 20
12.08697212193152
 10
24.77795140498583
 20
12.11098326127683
 10
24.82717532119006
 20
12.13606045662317
 10
24.87588753925712
 20
12.16211745907901
 10
24.92408690868535
 20
12.18911075554138
 10
24.97176905775944
 20
12.21700619453997
 10
25.01892635573682
 20
12.24578126641018
 10
25.06554983840661
 20
12.27541484972124
 10
25.11162767642892
 20
12.30589113615917
 10
25.15714566423162
 20
12.33719689597598
 10
25.20209092475244
 20
12.36932017377131
 10
25.64894610843174
 20
12.70105364557059
  0
LWPOLYLINE
  5
5605A
330
1F
100
AcDbEntity
  8
1
100
AcDbPolyline
 90
        6
 70
     0
 43
0.0
 10
23.78320378590002
 20
11.81974755289997
 42
0.0076626296421972
 10
23.88441084188298
 20
11.85172590037335
 42
0.0076711822640594
 10
23.98459305237324
 20
11.88679327618104
 42
0.0076827255864594
 10
24.08365045672662
 20
11.92491955648387
 42
0.007687892120705
 10
24.18149250992241
 20
11.96607479972351
 42
0.007671333476256
 10
24.27802261990001
 20
12.0102145116
  0
LWPOLYLINE
  5
5605B
330
1F
100
AcDbEntity
  8
1
100
AcDbPolyline
 90
       30
 70
     0
 43
0.0
 10
23.77578279479999
 20
11.57197838889999
 42
-0.0021551362418574
 10
23.95861511391942
 20
11.58874198420324
 42
-0.0021200456498536
 10
24.14158582834364
 20
11.60394186073807
 42
-0.0020891036001629
 10
24.32467894482812
 20
11.61760171980398
 42
-0.0021638056807823
 10
24.50788152589544
 20
11.62970793570132
 42
-0.0022619576048581
 10
24.69118339968094
 20
11.64019204565818
 42
-0.0023598830564549
 10
24.87457414754292
 20
11.64898128289894
 42
-0.0024554146599611
 10
25.05804117179124
 20
11.656003964401
 42
-0.0025510296767664
 10
25.2415692098206
 20
11.66118930190845
 42
-0.0026541227922639
 10
25.42514152130503
 20
11.66446501844784
 42
-0.002774907595823
 10
25.60873840819593
 20
11.66574739330139
 42
-0.0028962240920282
 10
25.79233774584503
 20
11.66494735214371
 42
-0.00302251365864
 10
25.97591498384102
 20
11.66197441787415
 42
-0.0031513292058003
 10
26.15944115537923
 20
11.65673505344853
 42
-0.0032792858734299
 10
26.34288493678213
 20
11.64913563038249
 42
-0.0034051639095184
 10
26.52621049411653
 20
11.63908456902624
 42
-0.0035273068066918
 10
26.70937903137434
 20
11.62649201494548
 42
-0.0036295643799228
 10
26.89234843087362
 20
11.61127892159021
 42
-0.003721073107614
 10
27.07507420546312
 20
11.59337584420296
 42
-0.0037700634329794
 10
27.25751106221563
 20
11.57273705989257
 42
-0.0037775679695959
 10
27.43961498952635
 20
11.54934114995353
 42
-0.0037246145933847
 10
27.62134718211502
 20
11.52321467264556
 42
-0.0035621082181736
 10
27.8035018553
 20
11.49430748599997
 42
-0.003218904388496
 10
27.98442423558436
 20
11.46305962509035
 42
-0.0026595316860768
 10
28.16496378360975
 20
11.42966890043197
 42
-0.0016918798909338
 10
28.34520203133294
 20
11.39468619933848
 10
28.52531405964186
 20
11.35905701504885
 42
0.0032289176944643
 10
28.70563427125672
 20
11.32450514108835
 42
0.0105186658179775
 10
28.88677201644362
 20
11.29461986500352
 42
0.0336618817223335
 10
29.06875454480001
 20
11.27918661419993
  0
LWPOLYLINE
  5
5605C
330
1F
100
AcDbEntity
  8
1
100
AcDbPolyline
 90
        6
 70
     0
 43
0.0
 10
23.77578279479999
 20
11.57197838889999
 10
23.77750730868036
 20
11.62152469086112
 10
23.77911075323243
 20
11.67153996892205
 10
23.78057393227894
 20
11.72109467632593
 10
23.78194158131123
 20
11.77065213857997
 10
23.78320378710004
 20
11.81974755329997
  0
LINE
  5
5605D
330
1F
100
AcDbEntity
  8
1
100
AcDbLine
 10
23.63098770290003
 20
11.27918661419993
 30
0.0
 11
23.80000000000001
 21
11.27918661419993
 31
0.0
  0
LWPOLYLINE
  5
5605E
330
1F
100
AcDbEntity
  8
1
100
AcDbPolyline
 90
       19
 70
     0
 43
0.0
 10
28.15052872140001
 20
18.84314102587967
 42
0.0213680958821406
 10
28.16143007046503
 20
18.59138145192702
 42
0.0216512811045208
 10
28.19392232891244
 20
18.3414213891902
 42
0.0216172161932392
 10
28.24790205659571
 20
18.09521482147249
 42
0.0215993365849035
 10
28.32292950362569
 20
17.85459192840386
 42
0.0216583926255995
 10
28.41845732118202
 20
17.62134414899486
 42
0.0216695470567142
 10
28.53381501326365
 20
17.39724011928234
 42
0.0217222656735504
 10
28.66816209530077
 20
17.18397869690301
 42
0.021757056837991
 10
28.8205128114011
 20
16.98318335865127
 42
0.0217853930825373
 10
28.98975417578055
 20
16.79640322249986
 42
0.0218542674777877
 10
29.17462878403154
 20
16.62508319021733
 42
0.0218760361095715
 10
29.37375460220636
 20
16.47055793147783
 42
0.0219144097839598
 10
29.58563703199911
 20
16.334049588732
 42
0.0219767594245155
 10
29.80866756806063
 20
16.21663361260697
 42
0.0219803375585536
 10
30.04114377870422
 20
16.11924642874616
 42
0.0220203530975286
 10
30.28127282995152
 20
16.04267740291868
 42
0.0220562952798952
 10
30.52722305016181
 20
15.98753178607899
 42
0.0220465796524472
 10
30.7770908197852
 20
15.95426037103186
 42
0.022048932050193
 10
31.02891256110002
 20
15.94314383407985
  0
LWPOLYLINE
  5
5605F
330
1F
100
AcDbEntity
  8
1
100
AcDbPolyline
 90
       10
 70
     0
 43
0.0
 10
30.94360402080003
 20
17.17914364627984
 42
0.0367734779547026
 10
30.98588324039628
 20
17.18226440138186
 42
0.0367960999800854
 10
31.0272473737391
 20
17.19156802648227
 42
0.036875292195493
 10
31.0668116521839
 20
17.2068410067083
 42
0.0366853192808118
 10
31.10371118937241
 20
17.22774144023469
 42
0.0365691355215611
 10
31.1371581135927
 20
17.25381054474769
 42
0.0364169433605589
 10
31.16646557974986
 20
17.28446004356452
 42
0.036462127937974
 10
31.19101085493284
 20
17.31903613023154
 42
0.0365325553686991
 10
31.21026604269713
 20
17.35684115173311
 42
0.0351677605514128
 10
31.2239281322
 20
17.39699459997969
  0
LWPOLYLINE
  5
56060
330
1F
100
AcDbEntity
  8
1
100
AcDbPolyline
 90
       13
 70
     0
 43
0.0
 10
31.87027728710004
 20
17.8993085340798
 42
0.0276289889732949
 10
31.797038855003
 20
17.89525215864484
 42
0.0276186595289814
 10
31.72469069266924
 20
17.88313391365619
 42
0.027660224839575
 10
31.65411021718535
 20
17.86310727588028
 42
0.0275792531872141
 10
31.58616852317823
 20
17.83542787290201
 42
0.0275105594923448
 10
31.52168558203633
 20
17.8004417864477
 42
0.027502460078997
 10
31.46142977248962
 20
17.75859136308996
 42
0.0273897571299063
 10
31.4061197832873
 20
17.710393282698
 42
0.0273474066488337
 10
31.35640911015201
 20
17.65643721499008
 42
0.0272426117526066
 10
31.31286813093212
 20
17.59739158668816
 42
0.0272495544847534
 10
31.27600909407292
 20
17.53396604809784
 42
0.0272817669467604
 10
31.24626824710873
 20
17.46688047456
 42
0.0267188221264044
 10
31.2239281322
 20
17.39699459997969
  0
LWPOLYLINE
  5
56061
330
1F
100
AcDbEntity
  8
1
100
AcDbPolyline
 90
       16
 70
     0
 43
0.0
 10
29.56037761900004
 20
18.36465875847983
 42
0.0380326524128178
 10
29.53064130219991
 20
18.32987441146007
 42
0.0404014972952003
 10
29.50624897529227
 20
18.29014552183297
 42
0.0399508969816721
 10
29.48849775100001
 20
18.24694658847985
 42
0.0388747947356392
 10
29.47795558067975
 20
18.20238911134589
 42
0.0399302073086058
 10
29.47445442125746
 20
18.15574484244171
 42
0.0389398498120574
 10
29.47823365629949
 20
18.11011360728332
 42
0.0389782945008005
 10
29.48905507958654
 20
18.06562319184165
 42
0.0391823220190816
 10
29.50666111851902
 20
18.02335684843949
 42
0.0391561267767406
 10
29.53064013515109
 20
17.98435105017096
 42
0.0393194229046924
 10
29.56042629622786
 20
17.94957706426156
 42
0.039584749241176
 10
29.59529869545401
 20
17.91990855942581
 42
0.0394936850483431
 10
29.63440610791293
 20
17.89609772293141
 42
0.0397405005033752
 10
29.67678103366575
 20
17.87875735064348
 42
0.04020887658272
 10
29.72138451135987
 20
17.86837457087423
 42
0.0365179764321158
 10
29.76432588760003
 20
17.86514038207982
  0
LWPOLYLINE
  5
56062
330
1F
100
AcDbEntity
  8
1
100
AcDbPolyline
 90
       10
 70
     0
 43
0.0
 10
30.66327990940005
 20
17.39699459997969
 42
0.0351402216466211
 10
30.6769292666676
 20
17.35687138963526
 42
0.0365183881132263
 10
30.69617242063941
 20
17.31907705010803
 42
0.036467359562406
 10
30.72071570905243
 20
17.28449245077704
 42
0.0364179800062165
 10
30.75001952846552
 20
17.25383802980018
 42
0.0365694759202415
 10
30.78346358710906
 20
17.22776365671601
 42
0.0366810370785635
 10
30.82035566030078
 20
17.20686028580206
 42
0.0368778961958778
 10
30.85992054112813
 20
17.19158021137658
 42
0.0368144113844928
 10
30.90130442801541
 20
17.18226742980208
 42
0.0367915941360087
 10
30.94360402080003
 20
17.17914364627984
  0
LWPOLYLINE
  5
56063
330
1F
100
AcDbEntity
  8
1
100
AcDbPolyline
 90
       13
 70
     0
 43
0.0
 10
30.66327990940005
 20
17.39699459997969
 42
0.0267070119600421
 10
30.64095123087842
 20
17.46685035968032
 42
0.0272765503883763
 10
30.61121964300091
 20
17.53392549549142
 42
0.0272524951576573
 10
30.57436060758653
 20
17.59736005720657
 42
0.0272424565156364
 10
30.53082323262578
 20
17.6564077610493
 42
0.0273469437738223
 10
30.48111627990102
 20
17.71036602387607
 42
0.0273897279945063
 10
30.42580914812134
 20
17.7585672965661
 42
0.0275026190879441
 10
30.36555542536559
 20
17.8004214787991
 42
0.0275110471951257
 10
30.30107314960372
 20
17.835411954655
 42
0.0275776556251953
 10
30.23313709184129
 20
17.86309374844097
 42
0.0276606111941338
 10
30.16255672777743
 20
17.88312505808794
 42
0.0276261336558678
 10
30.09018948872802
 20
17.89524990193001
 42
0.0276367335968883
 10
30.01693075449998
 20
17.8993085340798
  0
LWPOLYLINE
  5
56064
330
1F
100
AcDbEntity
  8
1
100
AcDbPolyline
 90
        4
 70
     0
 43
0.0
 10
30.01693075449998
 20
17.8993085340798
 42
0.0223655753622594
 10
29.95756221244091
 20
17.89664713807369
 42
0.0224256374378744
 10
29.89865216375921
 20
17.88865913844205
 42
0.0220781714343902
 10
29.84070173030003
 20
17.8754768673798
  0
LWPOLYLINE
  5
56065
330
1F
100
AcDbEntity
  8
1
100
AcDbPolyline
 90
       15
 70
     0
 43
0.0
 10
29.56037761900004
 20
18.36465875847983
 42
0.0277271117206533
 10
29.61095648633324
 20
18.42119350445101
 42
0.028378399889288
 10
29.65490957822712
 20
18.48305737104342
 42
0.0281799575169798
 10
29.69159279507622
 20
18.54948660317187
 42
0.028028564358492
 10
29.72059439557273
 20
18.61960921190881
 42
0.0280690376561963
 10
29.74157064299084
 20
18.69253668492729
 42
0.0279881237466502
 10
29.75425653289824
 20
18.76735326700201
 42
0.0279987851067469
 10
29.75850196605961
 20
18.84311873374289
 42
0.0279987106454366
 10
29.75426151419453
 20
18.91888447895744
 42
0.0279880579072359
 10
29.74158057527512
 20
18.99370175275391
 42
0.0280692951496204
 10
29.72060897087312
 20
19.06663112107018
 42
0.028028847039355
 10
29.691611533453
 20
19.13675648070119
 42
0.0281772198812344
 10
29.65493630948095
 20
19.20318213216132
 42
0.0283830148737746
 10
29.61098053412764
 20
19.26505845509623
 42
0.0277413138975753
 10
29.56037761900004
 20
19.32162329327982
  0
LWPOLYLINE
  5
56066
330
1F
100
AcDbEntity
  8
1
100
AcDbPolyline
 90
        4
 70
     0
 43
0.0
 10
29.76432588760003
 20
17.86514038207982
 10
29.79004350711301
 20
17.86631051640836
 10
29.81558651045674
 20
17.86978147295904
 10
29.84070173030003
 20
17.8754768673798
  0
LWPOLYLINE
  5
56067
330
1F
100
AcDbEntity
  8
1
100
AcDbPolyline
 90
       40
 70
     0
 43
0.0
 10
20.08785637960003
 20
15.34839216779993
 42
0.0101650866888419
 10
20.06012414754412
 20
15.21555092362047
 42
0.0101836659979909
 10
20.03781745209574
 20
15.08168419734119
 42
0.0102774527378163
 10
20.02090357660001
 20
14.94620116439984
 42
0.010256486280123
 10
20.00963457583984
 20
14.81095942274197
 42
0.0103093493590771
 10
20.00393554150904
 20
14.67536820016874
 42
0.0103691313293549
 10
20.00384681204903
 20
14.53965744501817
 42
0.0104397255121088
 10
20.00940426118899
 20
14.40406085923382
 42
0.0105199285169903
 10
20.02063848312494
 20
14.26881625760421
 42
0.0106064061236504
 10
20.03757502638712
 20
14.13416703535705
 42
0.0107048222267094
 10
20.0602330727161
 20
14.00036193457452
 42
0.010808055407177
 10
20.08862461592622
 20
13.86765509705446
 42
0.0109201784313988
 10
20.12275446503574
 20
13.73630739879615
 42
0.0110414804737173
 10
20.16261786378084
 20
13.60658489549456
 42
0.0111646142138111
 10
20.20820101690674
 20
13.47876028376367
 42
0.011300366993606
 10
20.25947882491601
 20
13.353112085772
 42
0.0114336881392917
 10
20.31641379905824
 20
13.22992426395205
 42
0.0115769713180368
 10
20.3789559006741
 20
13.10948660929534
 42
0.0117203210967239
 10
20.44703874469744
 20
12.992092364683
 42
0.0118635855794195
 10
20.52058159971384
 20
12.87803942127249
 42
0.0120132820620543
 10
20.59948390648245
 20
12.76762679548284
 42
0.0121486956749409
 10
20.68362768539723
 20
12.6611546491045
 42
0.0122936766745515
 10
20.77287335896111
 20
12.55892147572825
 42
0.0124142859761357
 10
20.86705913136293
 20
12.46122104280954
 42
0.0125348222361231
 10
20.96600201025911
 20
12.36834111954766
 42
0.0126354036155633
 10
21.06949195777753
 20
12.28055679140344
 42
0.0127081933130898
 10
21.17729828838944
 20
12.19813008786934
 42
0.0127715524592567
 10
21.28916300965892
 20
12.12130181575344
 42
0.0127500973943101
 10
21.40451013690003
 20
12.05045962129998
 42
0.0127652878345361
 10
21.52362271787533
 20
11.98543230391556
 42
0.0127136934434475
 10
21.64589273730911
 20
11.92655694913514
 42
0.0126059841442934
 10
21.77098599986803
 20
11.87394550828799
 42
0.0124531588854746
 10
21.89855871690594
 20
11.82766869286933
 42
0.0122644491593202
 10
22.02826357237762
 20
11.78775467813153
 42
0.0120428189773051
 10
22.15975529268002
 20
11.75419149026106
 42
0.0117951604546191
 10
22.29269748338163
 20
11.72693252899899
 42
0.0115299990376384
 10
22.4267664957726
 20
11.70590209789247
 42
0.0112801193060157
 10
22.5616554946896
 20
11.69100681344842
 42
0.0110109269587891
 10
22.69707638176203
 20
11.68213990185648
 42
0.0108195358968678
 10
22.83227442180001
 20
11.67918680389999
  0
LINE
  5
56068
330
1F
100
AcDbEntity
  8
1
100
AcDbLine
 10
21.02361545080004
 20
15.60528042447981
 30
0.0
 11
21.02361545080004
 21
13.5860425379798
 31
0.0
  0
LWPOLYLINE
  5
56069
330
1F
100
AcDbEntity
  8
1
100
AcDbPolyline
 90
        6
 70
     0
 43
0.0
 10
15.2320508075
 20
13.60609008899985
 42
-0.0029238889838201
 10
15.12571886380024
 20
13.85802556606807
 42
-0.0027604544277038
 10
15.02223307736392
 20
14.11114603067636
 42
-0.0033531792483851
 10
14.92183513353424
 20
14.36550568800004
 42
-0.0036924744785963
 10
14.82509655763735
 20
14.62128012394282
 42
-0.0035063265518682
 10
14.7320508075
 20
14.87842031829984
  0
LWPOLYLINE
  5
5606A
330
1F
100
AcDbEntity
  8
1
100
AcDbPolyline
 90
        6
 70
     0
 43
0.0
 10
15.38760270950001
 20
13.25454710819997
 10
15.35576316200013
 20
13.32453070487866
 10
15.32428828047599
 20
13.39467915571822
 10
15.29317853153642
 20
13.46499027429917
 10
15.26243255674472
 20
13.53546130286673
 10
15.2320508075
 20
13.60609008899985
  0
LWPOLYLINE
  5
5606B
330
1F
100
AcDbEntity
  8
1
100
AcDbPolyline
 90
       13
 70
     0
 43
0.0
 10
15.63760270950001
 20
12.76543640169984
 10
15.615111040924
 20
12.80532097563644
 10
15.59293285929354
 20
12.84538083079268
 10
15.5710669873813
 20
12.88561199658017
 10
15.5495053727885
 20
12.9260070469395
 10
15.52824327599725
 20
12.96656055442668
 10
15.50727745595131
 20
13.00726802649268
 10
15.48660489213833
 20
13.04812520656287
 10
15.46622362714342
 20
13.08912847891747
 10
15.44613252728433
 20
13.13027470818696
 10
15.42633129403444
 20
13.17156119248898
 10
15.40682096620372
 20
13.21298599447954
 10
15.38760270950001
 20
13.25454710819997
  0
LWPOLYLINE
  5
5606C
330
1F
100
AcDbEntity
  8
1
100
AcDbPolyline
 90
        4
 70
     0
 43
0.0
 10
21.81765237210004
 20
12.78604253797982
 10
21.80407010857061
 20
12.78639939524049
 10
21.79049529163126
 20
12.78675023051249
 10
21.77690512819999
 20
12.78709562797968
  0
LWPOLYLINE
  5
5606D
330
1F
100
AcDbEntity
  8
1
100
AcDbPolyline
 90
       10
 70
     0
 43
0.0
 10
21.02361545080004
 20
13.5860425379798
 42
0.0404557103653344
 10
21.03489920356844
 20
13.45219294005881
 42
0.0426609838341012
 10
21.06816109635111
 20
13.32197149069299
 42
0.0417051892778322
 10
21.1228525991192
 20
13.19920600201749
 42
0.041524786033968
 10
21.197074787997
 20
13.08712082053955
 42
0.0430038377179694
 10
21.28903456644463
 20
12.98913063521297
 42
0.0422001047939871
 10
21.39631503300023
 20
12.90819771705071
 42
0.0419581524396916
 10
21.51564584033409
 20
12.846293154899
 42
0.0432826976962795
 10
21.64372227131258
 20
12.80548824103329
 42
0.0418840226529806
 10
21.77690512819999
 20
12.78709562797968
  0
LWPOLYLINE
  5
5606E
330
1F
100
AcDbEntity
  8
1
100
AcDbPolyline
 90
        7
 70
     0
 43
0.0
 10
22.17097695610002
 20
11.40519367439998
 10
22.16594252446541
 20
11.40599453034684
 10
22.16106275537743
 20
11.40729727177955
 10
22.15588530271282
 20
11.40862240050267
 10
22.15090149886305
 20
11.41085913164255
 10
22.15043355140003
 20
11.41554805569984
 10
22.15484586640005
 20
11.41877009599993
  0
LWPOLYLINE
  5
5606F
330
1F
100
AcDbEntity
  8
1
100
AcDbPolyline
 90
        4
 70
     0
 43
0.0
 10
22.15484586640005
 20
11.41877009599993
 10
22.16014206610481
 20
11.42034954317637
 10
22.16550867814973
 20
11.42198740390802
 10
22.17094495450002
 20
11.42368514769998
  0
LINE
  5
56070
330
1F
100
AcDbEntity
  8
1
100
AcDbLine
 10
15.2320508075
 20
13.60609008899985
 30
0.0
 11
15.2320508075
 21
13.33205448956687
 31
0.0
  0
LINE
  5
56071
330
1F
100
AcDbEntity
  8
1
100
AcDbLine
 10
15.38760270950001
 20
12.96306149487987
 30
0.0
 11
15.38760270950001
 21
13.25454710819997
 31
0.0
  0
LWPOLYLINE
  5
56072
330
1F
100
AcDbEntity
  8
1
100
AcDbPolyline
 90
       16
 70
     0
 43
0.0
 10
22.25900261330003
 20
17.56849739399985
 42
0.0120662297399029
 10
22.11288631646181
 20
17.52503688699517
 42
0.0121037325010454
 10
21.96902794049023
 20
17.47456393285847
 42
0.0121358353656635
 10
21.82778615492992
 20
17.41718012140154
 42
0.0121730706538913
 10
21.68950134299192
 20
17.35300028667274
 42
0.0122194057886542
 10
21.55450956249012
 20
17.28215398857702
 42
0.012261125477631
 10
21.42314674248661
 20
17.20478655104648
 42
0.0123104535195196
 10
21.29574345197978
 20
17.12105928381606
 42
0.0123639678088294
 10
21.17262476704835
 20
17.03115035825738
 42
0.0124120453380307
 10
21.05411027123964
 20
16.93525402504656
 42
0.0124681574511098
 10
20.94051280815862
 20
16.83358140256854
 42
0.0125280580056388
 10
20.83213705568451
 20
16.72635983069602
 42
0.0125707058183673
 10
20.72927745491711
 20
16.61383563481172
 42
0.0126377779260752
 10
20.63222007219093
 20
16.49627427673084
 42
0.0127200346082363
 10
20.54124326705343
 20
16.37393735318767
 42
0.012654218040111
 10
20.45659037290002
 20
16.24714252829994
  0
LWPOLYLINE
  5
56073
330
1F
100
AcDbEntity
  8
1
100
AcDbPolyline
 90
        9
 70
     0
 43
0.0
 10
20.45659037290002
 20
16.24714252829994
 42
0.0101591074450261
 10
20.39472945258745
 20
16.14204000986422
 42
0.0101880833212596
 10
20.33719107444702
 20
16.0345008427567
 42
0.0101903848510402
 10
20.28408306181325
 20
15.92470731212887
 42
0.0101917795043366
 10
20.23549384713482
 20
15.81284106703953
 42
0.0101954798251536
 10
20.19150439741253
 20
15.69908745458304
 42
0.0102052649361139
 10
20.15219203437431
 20
15.58363580033273
 42
0.0102140907415342
 10
20.11762492851904
 20
15.46666917474067
 42
0.0101818934942132
 10
20.08785637960003
 20
15.34839216779993
  0
LINE
  5
56074
330
1F
100
AcDbEntity
  8
sk3
100
AcDbLine
 10
1.200000000000017
 20
9.524999999999977
 30
0.0
 11
11.525
 21
9.524999999999977
 31
0.0
  0
LINE
  5
56075
330
1F
100
AcDbEntity
  8
sk3
100
AcDbLine
 10
11.5249998884
 20
9.525000111599979
 30
0.0
 11
11.99999988289994
 21
10.00000011719982
 31
0.0
  0
LINE
  5
56076
330
1F
100
AcDbEntity
  8
sk3
100
AcDbLine
 10
1.200000321601237
 20
3.969999999999856
 30
0.0
 11
1.200000000001239
 21
9.524999999999693
 31
0.0
  0
LINE
  5
56077
330
1F
100
AcDbEntity
  8
1
100
AcDbLine
 10
4.759999999999308
 20
3.219999999999174
 30
0.0
 11
4.009999999999308
 21
3.969999999999174
 31
0.0
  0
LINE
  5
56078
330
1F
100
AcDbEntity
  8
1
100
AcDbLine
 10
0.5
 20
3.96999999999997
 30
0.0
 11
4.009999999999934
 21
3.96999999999997
 31
0.0
  0
LINE
  5
56079
330
1F
100
AcDbEntity
  8
1
100
AcDbLine
 10
0.0000000000008527
 20
4.470000000000993
 30
0.0
 11
0.5000000000008527
 21
3.970000000000879
 31
0.0
  0
LINE
  5
5607A
330
1F
100
AcDbEntity
  8
sk3
100
AcDbLine
 10
1.200000160799618
 20
9.52500016079955
 30
0.0
 11
-0.0000000000003695
 21
10.72500036209953
 31
0.0
  0
LWPOLYLINE
  5
5607B
330
1F
100
AcDbEntity
  8
1
100
AcDbPolyline
 90
       18
 70
     0
 43
0.0
 10
13.75474545270001
 20
23.68264493469997
 42
-0.2291561657366759
 10
13.79463775810001
 20
23.72492979949999
 42
-0.0450686513203715
 10
13.84979455902135
 20
23.74624919099296
 42
-0.0216666719465827
 10
13.90725328475335
 20
23.76024162478797
 42
-0.0120287845049031
 10
13.96551246820274
 20
23.77057817508518
 42
-0.008055168296513
 10
14.02411856186964
 20
23.77860747234934
 10
14.08293348790173
 20
23.78502797652068
 10
14.14186381078252
 20
23.79028183257174
 10
14.20086657755703
 20
23.79462865640721
 10
14.25991834277982
 20
23.79825653401173
 10
14.31842107947372
 20
23.80127319166399
 10
14.37752906445425
 20
23.80384001599515
 10
14.43665336052763
 20
23.80599564582775
 10
14.49578906457802
 20
23.80780658685353
 10
14.55493297891243
 20
23.80933230900786
 10
14.61408268118492
 20
23.81062632772398
 10
14.67323682168177
 20
23.81169596404817
 10
14.7320508075
 20
23.81252000309985
  0
LINE
  5
5607C
330
1F
100
AcDbEntity
  8
1
100
AcDbLine
 10
13.61185521050004
 20
21.27918661409996
 30
0.0
 11
16.8066457575
 21
21.27918661409996
 31
0.0
  0
LINE
  5
5607D
330
1F
100
AcDbEntity
  8
1
100
AcDbLine
 10
1.5
 20
23.81499999990001
 30
0.0
 11
14.7320508075
 21
23.81499999990001
 31
0.0
  0
LWPOLYLINE
  5
5607E
330
1F
100
AcDbEntity
  8
1
100
AcDbPolyline
 90
        6
 70
     0
 43
0.0
 10
26.1999704202
 20
24.0657251591
 42
0.00037142635901
 10
25.05131908599674
 20
24.07655899775767
 42
0.0003716075459341
 10
23.90265281433153
 20
24.08568582965404
 42
0.0003711613298408
 10
22.75397427828955
 20
24.09310609554405
 42
0.0003707160984362
 10
21.60528591610574
 20
24.09882216696815
 42
0.0003708944953847
 10
20.45659037290002
 20
24.10283449649984
  0
LWPOLYLINE
  5
5607F
330
1F
100
AcDbEntity
  8
1
100
AcDbPolyline
 90
        6
 70
     0
 43
0.0
 10
26.1999704202
 20
24.0657251591
 42
0.0022879103000374
 10
25.84800894099021
 20
23.52254470407422
 42
0.0023587498075914
 10
25.50111925166374
 20
22.97611044474235
 42
0.0021584029930266
 10
25.15920323162959
 20
22.42655051389085
 42
0.0019997396146857
 10
24.82182533983945
 20
21.87418932350102
 42
0.0020720280091728
 10
24.48895580480002
 20
21.31910155409997
  0
LINE
  5
56080
330
1F
100
AcDbEntity
  8
1
100
AcDbLine
 10
24.12463715199982
 20
20.60528042447982
 30
0.0
 11
26.63665294629982
 21
24.15830399487982
 31
0.0
  0
LWPOLYLINE
  5
56081
330
1F
100
AcDbEntity
  8
1
100
AcDbPolyline
 90
       10
 70
     0
 43
0.0
 10
31.2239281322
 20
20.28928745177978
 42
0.0351402216112211
 10
31.21027877494248
 20
20.32941066212305
 42
0.0365183870105336
 10
31.19103562095574
 20
20.36720500163756
 42
0.0364673582876
 10
31.16649233251053
 20
20.40178960094106
 42
0.0364179812917601
 10
31.13718851307772
 20
20.43244402189202
 42
0.0365694759875928
 10
31.10374445444242
 20
20.45851839498042
 42
0.0366810374254552
 10
31.0668523812787
 20
20.4794217659413
 42
0.0368778974918535
 10
31.02728750046663
 20
20.49470184038804
 42
0.0368144125913324
 10
30.98590361358077
 20
20.50401462194668
 42
0.0367915938653438
 10
30.94360402080003
 20
20.50713840547968
  0
LWPOLYLINE
  5
56082
330
1F
100
AcDbEntity
  8
1
100
AcDbPolyline
 90
       13
 70
     0
 43
0.0
 10
31.2239281322
 20
20.28928745177978
 42
0.0267070118927862
 10
31.24625681071922
 20
20.2194316920848
 42
0.0272765501632517
 10
31.27598839859388
 20
20.15235655627956
 42
0.0272524948916491
 10
31.31284743400352
 20
20.08892199456951
 42
0.0272424565548744
 10
31.35638480895603
 20
20.02987429072607
 42
0.0273469438390926
 10
31.40609176167942
 20
19.97591602790719
 42
0.0273897280640747
 10
31.46139889345784
 20
19.92771475523039
 42
0.0275026184928955
 10
31.52165261617012
 20
19.88586057293735
 42
0.0275110468886845
 10
31.5861348918869
 20
19.85087009700935
 42
0.0275776560436119
 10
31.65407094966085
 20
19.82318830328255
 42
0.0276606111176239
 10
31.72465131374281
 20
19.80315699371401
 42
0.0276261335091613
 10
31.79701855278444
 20
19.79103214985655
 42
0.0276367331168978
 10
31.87027728700002
 20
19.78697351757982
  0
LWPOLYLINE
  5
56083
330
1F
100
AcDbEntity
  8
1
100
AcDbPolyline
 90
       10
 70
     0
 43
0.0
 10
30.94360402080003
 20
20.50713840547968
 42
0.0367734793492152
 10
30.90132480120633
 20
20.50401765039197
 42
0.0367961000445959
 10
30.85996066786635
 20
20.4947140252915
 42
0.0368752929044591
 10
30.82039638944002
 20
20.47944104503228
 42
0.0366853191246752
 10
30.78349685227994
 20
20.45854061146378
 42
0.036569134795747
 10
30.75004992806532
 20
20.43247150694668
 42
0.0364169421473764
 10
30.72074246188794
 20
20.40182200815408
 42
0.0364621291972832
 10
30.6961971866723
 20
20.36724592151438
 42
0.0365325546768045
 10
30.6769419988928
 20
20.32944090002556
 42
0.0351677607927288
 10
30.66327990940005
 20
20.28928745177978
  0
LWPOLYLINE
  5
56084
330
1F
100
AcDbEntity
  8
1
100
AcDbPolyline
 90
       13
 70
     0
 43
0.0
 10
30.01693075449998
 20
19.78697351757982
 42
0.0276289888461167
 10
30.09016918659222
 20
19.79102989312687
 42
0.0276186594103974
 10
30.16251734893007
 20
19.80314813810803
 42
0.02766022523178
 10
30.23309782440759
 20
19.82317477589132
 42
0.0275792531556341
 10
30.30103951840309
 20
19.85085417889587
 42
0.0275105592748617
 10
30.36552245955858
 20
19.88584026533026
 42
0.0275024597519157
 10
30.42577826911713
 20
19.92769068866772
 42
0.0273897574427441
 10
30.48108825831543
 20
19.97588876906256
 42
0.0273474065728719
 10
30.53079893144883
 20
20.0298448367727
 42
0.0272426113719143
 10
30.57433991066941
 20
20.08889046507341
 42
0.0272495545892863
 10
30.61119894752812
 20
20.15231600366332
 42
0.0272817667796143
 10
30.64093979449172
 20
20.21940157720099
 42
0.0267188222042222
 10
30.66327990940005
 20
20.28928745177978
  0
LWPOLYLINE
  5
56085
330
1F
100
AcDbEntity
  8
1
100
AcDbPolyline
 90
        4
 70
     0
 43
0.0
 10
29.84070173030003
 20
19.81080518437985
 42
0.0220729939274894
 10
29.89863849142159
 20
19.79762539365821
 42
0.0224227932372624
 10
29.95754130914582
 20
19.78963679479304
 42
0.0223735999383213
 10
30.01693075449998
 20
19.78697351757982
  0
LWPOLYLINE
  5
56086
330
1F
100
AcDbEntity
  8
1
100
AcDbPolyline
 90
        4
 70
     0
 43
0.0
 10
29.84070173030003
 20
19.81080518437985
 10
29.81559534015833
 20
19.81649897936501
 10
29.7900509063183
 20
19.81997086259132
 10
29.76432588760003
 20
19.82114166957978
  0
LINE
  5
56087
330
1F
100
AcDbEntity
  8
1
100
AcDbLine
 10
27.85424935460009
 20
24.8054030843798
 30
0.0
 11
28.87644491228682
 21
25.40000000000001
 31
0.0
  0
LINE
  5
56088
330
1F
100
AcDbEntity
  8
1
100
AcDbLine
 10
26.63665294630022
 20
24.1583039948797
 30
0.0
 11
27.8542493546002
 21
24.8054030843798
 31
0.0
  0
LINE
  5
56089
330
1F
100
AcDbEntity
  8
1
100
AcDbLine
 10
16.8066457505096
 20
21.27918661419983
 30
0.0
 11
16.8066457505096
 21
24.1017559416
 31
0.0
  0
LWPOLYLINE
  5
5608A
330
1F
100
AcDbEntity
  8
1
100
AcDbPolyline
 90
       10
 70
     0
 43
0.0
 10
14.7320508075
 20
23.81252000309985
 42
0.0126623994775896
 10
14.78498627366761
 20
23.81455599050673
 42
0.0127032602086086
 10
14.83775742846552
 20
23.81927345328148
 42
0.0127577644603954
 10
14.89021980711644
 20
23.82667076144935
 42
0.0128224472876018
 10
14.94223427173423
 20
23.83674090260399
 42
0.0128732267328214
 10
14.99366309519092
 20
23.84946924288152
 42
0.0129313209481937
 10
15.04436604858404
 20
23.86483386333168
 42
0.0129858248845172
 10
15.09420604161985
 20
23.88280471587706
 42
0.0130350500535585
 10
15.14304551611562
 20
23.90334439570154
 42
0.0130720031428896
 10
15.19074470780003
 20
23.92640598319997
  0
LWPOLYLINE
  5
5608B
330
1F
100
AcDbEntity
  8
1
100
AcDbPolyline
 90
        3
 70
     0
 43
0.0
 10
15.19074470780003
 20
23.92640598319997
 10
15.21139775765005
 20
23.93768352715
 10
15.2320508075
 20
23.94896107109997
  0
LWPOLYLINE
  5
5608C
330
1F
100
AcDbEntity
  8
1
100
AcDbPolyline
 90
        6
 70
     0
 43
0.0
 10
16.80664575740002
 20
24.1017559416
 10
17.53663467643324
 20
24.10198512908522
 10
18.26662359755352
 20
24.10220757817103
 10
18.99661252069543
 20
24.10242328892298
 10
19.72660144579922
 20
24.10263226167734
 10
20.45659037280004
 20
24.10283449650001
  0
LWPOLYLINE
  5
5608D
330
1F
100
AcDbEntity
  8
1
100
AcDbPolyline
 90
        9
 70
     0
 43
0.0
 10
15.38760270950001
 20
24.03852646199999
 10
15.41646486585071
 20
24.05387917685323
 10
15.44627679126276
 20
24.06730867628772
 10
15.4769076418066
 20
24.07874589220137
 10
15.50822365549902
 20
24.08814518865899
 10
15.54008895636457
 20
24.09546905557022
 10
15.57236519075783
 20
24.10068527583968
 10
15.60491846182572
 20
24.10377124257298
 10
15.63760270950001
 20
24.10472192809999
  0
LWPOLYLINE
  5
5608E
330
1F
100
AcDbEntity
  8
1
100
AcDbPolyline
 90
        6
 70
     0
 43
0.0
 10
15.2320508075
 20
23.94896107109997
 10
15.26315153616193
 20
23.96689090611352
 10
15.29425740059162
 20
23.98481182985557
 10
15.32536824920333
 20
24.00272409959752
 10
15.35648339237912
 20
24.02062890861572
 10
15.38760270950001
 20
24.03852646199999
  0
LWPOLYLINE
  5
5608F
330
1F
100
AcDbEntity
  8
1
100
AcDbPolyline
 90
       10
 70
     0
 43
0.0
 10
15.63760270950001
 20
24.10472192809999
 10
15.76749593072509
 20
24.10421582163105
 10
15.89738914773801
 20
24.10370857525322
 10
16.0272824179396
 20
24.10321529688872
 10
16.15717585805333
 20
24.10276927497103
 10
16.28706950640361
 20
24.1023887760245
 10
16.41696336227025
 20
24.10208766080666
 10
16.54685739626535
 20
24.10187758899815
 10
16.67675155374723
 20
24.10176629491184
 10
16.80664575740002
 20
24.1017559416
  0
LINE
  5
56090
330
1F
100
AcDbEntity
  8
1
100
AcDbLine
 10
14.7320508075
 20
23.81499999990001
 30
0.0
 11
14.7320508075
 21
23.81252000309985
 31
0.0
  0
LWPOLYLINE
  5
56091
330
1F
100
AcDbEntity
  8
1
100
AcDbPolyline
 90
       13
 70
     0
 43
0.0
 10
13.75474545270001
 20
23.68264493469997
 42
0.0119733180440965
 10
13.72927417502126
 20
23.48357847471397
 42
0.0053264964727077
 10
13.71123464564041
 20
23.28368221370749
 42
0.0030368519821019
 10
13.69626411094822
 20
23.08353229209338
 42
0.0021384626426912
 10
13.68336664555426
 20
22.88323777863815
 42
0.001441752018107
 10
13.67186867589223
 20
22.68285660442314
 42
0.0011430606996187
 10
13.66140625780582
 20
22.48241916266016
 42
0.0009349067541199
 10
13.65177029690633
 20
22.28194028020465
 42
0.0007653666941385
 10
13.64281580745725
 20
22.08142963596197
 42
0.0006343425921136
 10
13.63442108138704
 20
21.88089483091204
 42
0.0005140170138856
 10
13.62648641842824
 20
21.68034120841548
 42
0.0005141320049375
 10
13.61895739248976
 20
21.47977186953347
 42
0.0005499383058837
 10
13.61185521050004
 20
21.27918661409996
  0
LINE
  5
56092
330
1F
100
AcDbEntity
  8
1
100
AcDbLine
 10
13.75474545270001
 20
21.27918661409996
 30
0.0
 11
13.75474545270001
 21
23.68264493469997
 31
0.0
  0
ARC
  5
56093
330
1F
100
AcDbEntity
  8
1
100
AcDbCircle
 10
1.5
 20
22.31499999990001
 30
0.0
 40
1.5
100
AcDbArc
 50
90.0
 51
180.0
  0
LINE
  5
56094
330
1F
100
AcDbEntity
  8
1
100
AcDbLine
 10
28.87644491228682
 20
25.40000000000001
 30
0.0
 11
50.00000000000003
 21
25.40000000000001
 31
0.0
  0
LWPOLYLINE
  5
56095
330
1F
100
AcDbEntity
  8
1
100
AcDbPolyline
 90
        7
 70
     0
 43
0.0
 10
26.1999704202
 20
24.0657251591
 10
26.25946172607033
 20
24.05782433780525
 10
26.31904992741772
 20
24.05069154850622
 10
26.37870606620484
 20
24.04414737565418
 10
26.43840934475492
 20
24.03804869409072
 10
26.49815104390635
 20
24.0323387466932
 10
26.54464187756039
 20
24.02816249787546
  0
LWPOLYLINE
  5
56096
330
1F
100
AcDbEntity
  8
1
100
AcDbPolyline
 90
       22
 70
     0
 43
0.0
 10
21.76906419820284
 20
16.80722097703096
 42
0.0092563063629335
 10
21.69229485379643
 20
16.72746445077223
 42
0.013168388411459
 10
21.58819353187832
 20
16.60912112175907
 42
0.0131543909752373
 10
21.49046220829291
 20
16.48546464545256
 42
0.0131346296896568
 10
21.39936452903925
 20
16.35684287214002
 42
0.0131250429949285
 10
21.31514455209503
 20
16.22361624627319
 42
0.0131100076957539
 10
21.23802612279923
 20
16.08615676233501
 42
0.0130942177110256
 10
21.16821484937623
 20
15.94484589756001
 42
0.0130879920283849
 10
21.10589491789651
 20
15.80007503788668
 42
0.0130733064476171
 10
21.05123016664194
 20
15.65224352044703
 42
0.0130632645746485
 10
21.00436507140634
 20
15.50175743283068
 42
0.0130601180365547
 10
20.96542150594075
 20
15.34902957444694
 42
0.0130480758517262
 10
20.93450127651601
 20
15.19447746952272
 42
0.0130447485601709
 10
20.91168566245054
 20
15.03852277421447
 42
0.0130438741445839
 10
20.89703305438363
 20
14.88159058698653
 42
0.0130366795871299
 10
20.89058208851495
 20
14.72410790812824
 42
0.0130401820972227
 10
20.8923497207615
 20
14.56650286672538
 42
0.0130413963662265
 10
20.90233062093074
 20
14.40920450505553
 42
0.0130396159509874
 10
20.92049961766645
 20
14.25264118423898
 42
0.0130484744894771
 10
20.94680884828125
 20
14.09723576614021
 42
0.0130594314534319
 10
20.98119143600422
 20
13.94341455302646
 42
0.0130371793053883
 10
21.02355651780005
 20
13.79159646609997
  0
ARC
  5
56097
330
1F
100
AcDbEntity
  8
1
100
AcDbCircle
 10
50.00000000000003
 20
24.59999999999999
 30
0.0
 40
0.8
100
AcDbArc
 50
0.0
 51
90.0
  0
DIMENSION
  5
56098
330
1F
100
AcDbEntity
  8
2
100
AcDbDimension
  2
*D120
 10
77.22306359966996
 20
-25.40000000000002
 30
0.0
 11
77.22306359966996
 21
-1.750000000000007
 31
0.0
 70
   160
  1
%%c<>
 71
     5
 42
50.80000000000001
  3
\M+18352\M+18373\M+1815B - ISO-25
100
AcDbAlignedDimension
 13
50.00000000000003
 23
25.40000000000001
 33
0.0
 14
50.00000000000003
 24
-25.40000000000001
 34
0.0
 50
90.0
100
AcDbRotatedDimension
1001
ACAD
1000
DSTYLE
1002
{
1070
    76
1070
     1
1070
   343
1005
0
1070
   173
1070
     1
1070
   344
1005
32F1
1070
     4
1000
%%C[]"
1070
    40
1040
1.0
1070
   143
1040
0.03937
1070
   170
1070
     1
1070
   171
1070
     3
1070
   271
1070
     8
1070
   285
1070
     4
1002
}
  0
LINE
  5
56099
330
1F
100
AcDbEntity
  8
4
100
AcDbLine
 10
10.5
 20
-2.848336084788229
 30
0.0
 11
10.5
 21
3.114216688239139
 31
0.0
  0
LINE
  5
5609A
330
1F
100
AcDbEntity
  8
nocut
100
AcDbLine
 10
29.45386858230023
 20
24.10576982679842
 30
0.0
 11
48.04185848016721
 21
23.47311386371851
 31
0.0
  0
LINE
  5
5609B
330
1F
100
AcDbEntity
  8
nocut
100
AcDbLine
 10
48.52484818010004
 20
22.97340329779999
 30
0.0
 11
48.52484818010004
 21
-0.0000000000000284
 31
0.0
  0
ARC
  5
5609C
330
1F
100
AcDbEntity
  8
nocut
100
AcDbCircle
 10
48.02484818010004
 20
22.97340329779999
 30
0.0
 40
0.5
100
AcDbArc
 50
0.0
 51
88.05064833020066
  0
LINE
  5
5609D
330
1F
100
AcDbEntity
  8
nocut
100
AcDbLine
 10
0.0
 20
22.31500000009996
 30
0.0
 11
0.0
 21
0.0
 31
0.0
  0
LINE
  5
5609E
330
1F
100
AcDbEntity
  8
nocut
100
AcDbLine
 10
12.25
 20
23.81499999999997
 30
0.0
 11
14.7320508075
 21
23.81499999999997
 31
0.0
  0
LINE
  5
5609F
330
1F
100
AcDbEntity
  8
nocut
100
AcDbLine
 10
1.5
 20
23.81500000009996
 30
0.0
 11
14.7320508075
 21
23.81500000009996
 31
0.0
  0
LINE
  5
560A0
330
1F
100
AcDbEntity
  8
nocut
100
AcDbLine
 10
15.63760270950001
 20
24.10576982680002
 30
0.0
 11
29.45386858230012
 21
24.10576982680002
 31
0.0
  0
ARC
  5
560A1
330
1F
100
AcDbEntity
  8
nocut
100
AcDbCircle
 10
15.63760270950001
 20
23.60576982680001
 30
0.0
 40
0.5
100
AcDbArc
 50
90.0
 51
120.0
  0
ARC
  5
560A2
330
1F
100
AcDbEntity
  8
nocut
100
AcDbCircle
 10
14.7320508075
 20
24.81499999999997
 30
0.0
 40
1.0
100
AcDbArc
 50
270.0
 51
299.9999999999999
  0
LINE
  5
560A3
330
1F
100
AcDbEntity
  8
nocut
100
AcDbLine
 10
15.23205080750011
 20
23.94897459619997
 30
0.0
 11
15.38760270950001
 21
24.03878252869996
 31
0.0
  0
ARC
  5
560A4
330
1F
100
AcDbEntity
  8
nocut
100
AcDbCircle
 10
1.5
 20
22.31500000009996
 30
0.0
 40
1.5
100
AcDbArc
 50
90.0
 51
180.0
  0
LINE
  5
560A5
330
1F
100
AcDbEntity
  8
nocut
100
AcDbLine
 10
0.0
 20
0.0
 30
0.0
 11
48.52484818010004
 21
0.0
 31
0.0
  0
LINE
  5
560A7
330
1F
100
AcDbEntity
  8
cut
100
AcDbLine
 10
50.80000000000004
 20
22.56680465157919
 30
0.0
 11
50.80000000000004
 21
24.58604253807917
 31
0.0
  0
LINE
  5
560A8
330
1F
100
AcDbEntity
  8
cut
100
AcDbLine
 10
45.82294837410003
 20
13.88155986617916
 30
0.0
 11
50.80000000000004
 21
22.56680465157919
 31
0.0
  0
LINE
  5
560A9
330
1F
100
AcDbEntity
  8
cut
100
AcDbLine
 10
43.93960031650002
 20
12.78604253807918
 30
0.0
 11
45.82294837410003
 21
13.88155986617916
 31
0.0
  0
LINE
  5
560AA
330
1F
100
AcDbEntity
  8
cut
100
AcDbLine
 10
21.02361545070005
 20
13.58604253807917
 30
0.0
 11
21.02361545070005
 21
15.60528042447916
 31
0.0
  0
LINE
  5
560AB
330
1F
100
AcDbEntity
  8
cut
100
AcDbLine
 10
43.93960031650002
 20
12.78604253807918
 30
0.0
 11
21.81765237200003
 21
12.78604253807918
 31
0.0
  0
LINE
  5
560AC
330
1F
100
AcDbEntity
  8
cut
100
AcDbLine
 10
26.00066707660005
 20
24.29052520997919
 30
0.0
 11
21.02361545070005
 21
15.60528042447916
 31
0.0
  0
LINE
  5
560AD
330
1F
100
AcDbEntity
  8
cut
100
AcDbLine
 10
27.88401513420004
 20
25.38604253807918
 30
0.0
 11
26.00066707660005
 21
24.29052520997919
 31
0.0
  0
LINE
  5
560AE
330
1F
100
AcDbEntity
  8
cut
100
AcDbLine
 10
27.88401513420004
 20
25.38604253807918
 30
0.0
 11
50.00596307870003
 21
25.38604253807918
 31
0.0
  0
SPLINE
  5
560AF
330
1F
100
AcDbEntity
  8
cut
100
AcDbSpline
210
0.0
220
0.0
230
1.0
 70
     8
 71
     3
 72
    15
 73
    11
 74
     0
 42
0.0000000001
 43
0.0000000001
 40
0.0
 40
0.0
 40
0.0
 40
0.0
 40
0.1254634762
 40
0.2508470992
 40
0.3761053336
 40
0.5011985871000002
 40
0.6261087806
 40
0.7508479593999999
 40
0.8754536876999999
 40
1.0
 40
1.0
 40
1.0
 40
1.0
 10
21.02361545070005
 20
13.58604253807917
 30
0.0
 10
21.02361545070005
 20
13.53376993777919
 30
0.0
 10
21.03394307670004
 20
13.42898897427919
 30
0.0
 10
21.07925454320005
 20
13.27798804237916
 30
0.0
 10
21.15320488060001
 20
13.13886544497918
 30
0.0
 10
21.25244737930001
 20
13.01675833087921
 30
0.0
 10
21.37363090440004
 20
12.91672274917917
 30
0.0
 10
21.5117416786
 20
12.84216022357915
 30
0.0
 10
21.66168135280003
 20
12.79646129727918
 30
0.0
 10
21.76576189530004
 20
12.78604253807918
 30
0.0
 10
21.81765237200003
 20
12.78604253807918
 30
0.0
  0
SPLINE
  5
560B0
330
1F
100
AcDbEntity
  8
cut
100
AcDbSpline
210
0.0
220
0.0
230
1.0
 70
     8
 71
     3
 72
    15
 73
    11
 74
     0
 42
0.0000000001
 43
0.0000000001
 40
0.0
 40
0.0
 40
0.0
 40
0.0
 40
0.1254634762
 40
0.2508470992
 40
0.3761053336
 40
0.5011985871000002
 40
0.6261087806
 40
0.7508479593999999
 40
0.8754536876999999
 40
1.0
 40
1.0
 40
1.0
 40
1.0
 10
50.80000000000004
 20
24.58604253807917
 30
0.0
 10
50.80000000000004
 20
24.63831513827918
 30
0.0
 10
50.78967237400002
 20
24.7430961017792
 30
0.0
 10
50.74436090750004
 20
24.89409703367921
 30
0.0
 10
50.67041057010001
 20
25.03321963107918
 30
0.0
 10
50.57116807140005
 20
25.1553267451792
 30
0.0
 10
50.44998454630001
 20
25.25536232687918
 30
0.0
 10
50.31187377210002
 20
25.3299248524792
 30
0.0
 10
50.16193409790003
 20
25.37562377877915
 30
0.0
 10
50.05785355540002
 20
25.38604253807918
 30
0.0
 10
50.00596307870003
 20
25.38604253807918
 30
0.0
  0
VIEWPORT
  5
6B
102
{ACAD_XDICTIONARY
360
56191
102
}
330
50
100
AcDbEntity
 67
     1
  8
0
100
AcDbViewport
 10
155.3592437148233
 20
160.4455827878762
 30
0.0
 40
349.5854424261001
 41
282.2272140146125
 68
     1
 69
     1
 12
155.3592437148233
 22
160.4455827878762
 13
0.0
 23
0.0
 14
10.0
 24
10.0
 15
10.0
 25
10.0
 16
0.0
 26
0.0
 36
1.0
 17
0.0
 27
0.0
 37
0.0
 42
50.0
 43
0.0
 44
0.0
 45
282.2272140146125
 50
0.0
 51
0.0
 72
  1000
 90
    32864
  1

281
     0
 71
     1
 74
     0
110
0.0
120
0.0
130
0.0
111
1.0
121
0.0
131
0.0
112
0.0
122
1.0
132
0.0
 79
     0
146
0.0
  0
VIEWPORT
  5
6D
102
{ACAD_XDICTIONARY
360
56193
102
}
330
50
100
AcDbEntity
 67
     1
  8
0
100
AcDbViewport
 10
133.3499939441681
 20
101.5999939441681
 30
0.0
 40
213.3599903106689
 41
162.5599903106689
 68
     2
 69
     2
 12
210.0
 22
148.5
 13
0.0
 23
0.0
 14
10.0
 24
10.0
 15
10.0
 25
10.0
 16
0.0
 26
0.0
 36
1.0
 17
0.0
 27
0.0
 37
0.0
 42
50.0
 43
0.0
 44
0.0
 45
324.0677920111345
 50
0.0
 51
0.0
 72
   100
 90
    32864
  1

281
     0
 71
     1
 74
     0
110
0.0
120
0.0
130
0.0
111
1.0
121
0.0
131
0.0
112
0.0
122
1.0
132
0.0
 79
     0
146
0.0
  0
ENDSEC
  0
SECTION
  2
OBJECTS
  0
DICTIONARY
  5
C
330
0
100
AcDbDictionary
281
     1
  3
ACAD_COLOR
350
85
  3
ACAD_GROUP
350
D
  3
ACAD_LAYOUT
350
1A
  3
ACAD_MATERIAL
350
84
  3
ACAD_MLINESTYLE
350
17
  3
ACAD_PLOTSETTINGS
350
19
  3
ACAD_PLOTSTYLENAME
350
E
  3
ACAD_TABLESTYLE
350
A1
  3
ACDBHEADERROUNDTRIPXREC
350
5618C
  3
AcDbVariableDictionary
350
5E
  3
ASE_INDEX_DICTIONARY
350
349E9
  3
DWGPROPS
350
5618B
  0
DICTIONARY
  5
E2
330
2
100
AcDbDictionary
280
     1
281
     1
  3
ACAD_LAYERFILTERS
360
54C81
  3
ACAD_LAYERSTATES
360
3759A
  3
ACLYDICTIONARY
360
54C80
  0
DICTIONARY
  5
31EE
330
1F
100
AcDbDictionary
280
     1
281
     1
  3
ACAD_SORTENTS
360
31EF
  0
DICTIONARY
  5
43668
330
680
100
AcDbDictionary
280
     1
281
     1
  3
ACAD_SORTENTS
360
55FAA
  0
DICTIONARY
  5
56195
330
71
100
AcDbDictionary
280
     1
281
     1
  3
ACAD_XREC_ROUNDTRIP
360
56196
  0
DICTIONARY
  5
56197
330
73
100
AcDbDictionary
280
     1
281
     1
  3
ACAD_XREC_ROUNDTRIP
360
56198
  0
DICTIONARY
  5
56191
330
6B
100
AcDbDictionary
280
     1
281
     1
  3
ACAD_XREC_ROUNDTRIP
360
56192
  0
DICTIONARY
  5
56193
330
6D
100
AcDbDictionary
280
     1
281
     1
  3
ACAD_XREC_ROUNDTRIP
360
56194
  0
DICTIONARY
  5
85
102
{ACAD_REACTORS
330
C
102
}
330
C
100
AcDbDictionary
281
     1
  0
DICTIONARY
  5
D
102
{ACAD_REACTORS
330
C
102
}
330
C
100
AcDbDictionary
281
     1
  0
DICTIONARY
  5
1A
102
{ACAD_REACTORS
330
C
102
}
330
C
100
AcDbDictionary
281
     1
  3
\M+1838C\M+18343\M+18341\M+18345\M+183671
350
51
  3
\M+1838C\M+18343\M+18341\M+18345\M+183672
350
56
  3
Model
350
22
  0
DICTIONARY
  5
84
102
{ACAD_REACTORS
330
C
102
}
330
C
100
AcDbDictionary
281
     1
  0
DICTIONARY
  5
17
102
{ACAD_REACTORS
330
C
102
}
330
C
100
AcDbDictionary
281
     1
  3
Standard
350
18
  0
DICTIONARY
  5
19
102
{ACAD_REACTORS
330
C
102
}
330
C
100
AcDbDictionary
281
     1
  0
ACDBDICTIONARYWDFLT
  5
E
102
{ACAD_REACTORS
330
C
102
}
330
C
100
AcDbDictionary
281
     1
  3
Normal
350
F
100
AcDbDictionaryWithDefault
340
F
  0
DICTIONARY
  5
A1
102
{ACAD_REACTORS
330
C
102
}
330
C
100
AcDbDictionary
281
     1
  3
Standard
350
A2
  0
DICTIONARY
  5
5618C
102
{ACAD_REACTORS
330
C
102
}
330
C
100
AcDbDictionary
281
     1
  0
DICTIONARY
  5
5E
102
{ACAD_REACTORS
330
C
102
}
330
C
100
AcDbDictionary
281
     1
  3
CTABLESTYLE
350
B8
  3
DIMASSOC
350
5F
  3
HIDETEXT
350
63
  3
PROJECTNAME
350
31CE
  0
DICTIONARY
  5
349E9
102
{ACAD_REACTORS
330
C
102
}
330
C
100
AcDbDictionary
281
     1
  3
ASEBlockHierarchyIndexRecord
350
349EA
1001
DCO15
1040
1842496176.844
  0
XRECORD
  5
5618B
102
{ACAD_REACTORS
330
C
102
}
330
C
100
AcDbXrecord
280
     1
  1
DWGPROPS COOKIE
  2

  3

  4

  6

  7

  8

  9

300
=
301
=
302
=
303
=
304
=
305
=
306
=
307
=
308
=
309
=
 40
2.236895254629629
 41
2455489.391063368
 42
2458518.453369282
  1

 90
        0
  0
DICTIONARY
  5
54C81
102
{ACAD_REACTORS
330
E2
102
}
330
E2
100
AcDbDictionary
281
     1
  0
DICTIONARY
  5
3759A
102
{ACAD_REACTORS
330
E2
102
}
330
E2
100
AcDbDictionary
281
     1
  0
DICTIONARY
  5
54C80
102
{ACAD_REACTORS
330
E2
102
}
330
E2
100
AcDbDictionary
281
     1
1001
ACAD
1000
<All
  0
SORTENTSTABLE
  5
31EF
102
{ACAD_REACTORS
330
31EE
102
}
330
31EE
100
AcDbSortentsTable
330
1F
331
68C
  5
435D5
  0
SORTENTSTABLE
  5
55FAA
102
{ACAD_REACTORS
330
43668
102
}
330
43668
100
AcDbSortentsTable
330
680
  0
XRECORD
  5
56196
102
{ACAD_REACTORS
330
56195
102
}
330
56195
100
AcDbXrecord
280
     1
102
SHADEPLOT
 70
     0
  0
XRECORD
  5
56198
102
{ACAD_REACTORS
330
56197
102
}
330
56197
100
AcDbXrecord
280
     1
102
SHADEPLOT
 70
     0
  0
XRECORD
  5
56192
102
{ACAD_REACTORS
330
56191
102
}
330
56191
100
AcDbXrecord
280
     1
102
SHADEPLOT
 70
     0
  0
XRECORD
  5
56194
102
{ACAD_REACTORS
330
56193
102
}
330
56193
100
AcDbXrecord
280
     1
102
SHADEPLOT
 70
     0
  0
LAYOUT
  5
51
102
{ACAD_XDICTIONARY
360
B2
102
}
102
{ACAD_REACTORS
330
1A
102
}
330
1A
100
AcDbPlotSettings
  1

  2
none_device
  4
Letter_(8.50_x_11.00_Inches)
  6

 40
6.349999904632567
 41
6.349999904632567
 42
6.350006103515625
 43
6.350006103515625
 44
215.8999938964844
 45
279.3999938964844
 46
0.0
 47
0.0
 48
0.0
 49
0.0
140
0.0
141
0.0
142
1.0
143
1.0
 70
   688
 72
     1
 73
     1
 74
     5
  7

 75
    16
147
1.0
148
0.0
149
0.0
100
AcDbLayout
  1
\M+1838C\M+18343\M+18341\M+18345\M+183671
 70
     1
 71
     1
 10
-6.350006103515625
 20
-6.349999904632567
 11
273.0499877929688
 21
209.5499939918518
 12
0.0
 22
0.0
 32
0.0
 14
26.66999878883364
 24
20.31999878883365
 34
0.0
 15
240.0299890995025
 25
182.8799890995025
 35
0.0
146
0.0
 13
0.0
 23
0.0
 33
0.0
 16
1.0
 26
0.0
 36
0.0
 17
0.0
 27
1.0
 37
0.0
 76
     0
330
50
331
6B
  0
LAYOUT
  5
56
102
{ACAD_XDICTIONARY
360
B5
102
}
102
{ACAD_REACTORS
330
1A
102
}
330
1A
100
AcDbPlotSettings
  1

  2
none_device
  4
Letter_(8.50_x_11.00_Inches)
  6

 40
6.349999904632567
 41
6.349999904632567
 42
6.350006103515625
 43
6.350006103515625
 44
215.8999938964844
 45
279.3999938964844
 46
0.0
 47
0.0
 48
0.0
 49
0.0
140
0.0
141
0.0
142
1.0
143
1.0
 70
   688
 72
     1
 73
     1
 74
     5
  7

 75
    16
147
1.0
148
0.0
149
0.0
100
AcDbLayout
  1
\M+1838C\M+18343\M+18341\M+18345\M+183672
 70
     1
 71
     2
 10
-6.350006103515625
 20
-6.349999904632567
 11
273.0499877929688
 21
209.5499939918518
 12
0.0
 22
0.0
 32
0.0
 14
26.66999878883363
 24
20.31999878883363
 34
0.0
 15
240.0299890995026
 25
182.8799890995025
 35
0.0
146
0.0
 13
0.0
 23
0.0
 33
0.0
 16
1.0
 26
0.0
 36
0.0
 17
0.0
 27
1.0
 37
0.0
 76
     0
330
55
331
71
  0
LAYOUT
  5
22
102
{ACAD_XDICTIONARY
360
5618D
102
}
102
{ACAD_REACTORS
330
1A
102
}
330
1A
100
AcDbPlotSettings
  1

  2
none_device
  4
ANSI_A_(8.50_x_11.00_Inches)
  6

 40
6.349999904632567
 41
19.04999923706055
 42
6.350006103515625
 43
19.04998779296875
 44
215.8999938964844
 45
279.3999938964844
 46
0.0
 47
0.0
 48
0.0
 49
0.0
140
0.0
141
0.0
142
1.0
143
78.436453180766
 70
 11952
 72
     0
 73
     1
 74
     0
  7

 75
     0
147
0.0127491741332998
148
0.0
149
0.0
100
AcDbLayout
  1
Model
 70
     1
 71
     0
 10
0.0
 20
0.0
 11
12.0
 21
9.0
 12
0.0
 22
0.0
 32
0.0
 14
0.0
 24
0.0
 34
0.0
 15
0.0
 25
0.0
 35
0.0
146
0.0
 13
0.0
 23
0.0
 33
0.0
 16
1.0
 26
0.0
 36
0.0
 17
0.0
 27
1.0
 37
0.0
 76
     0
330
1F
  0
MLINESTYLE
  5
18
102
{ACAD_REACTORS
330
17
102
}
330
17
100
AcDbMlineStyle
  2
STANDARD
 70
     0
  3

 62
   256
 51
90.0
 52
90.0
 71
     2
 49
0.5
 62
   256
  6
BYLAYER
 49
-0.5
 62
   256
  6
BYLAYER
  0
ACDBPLACEHOLDER
  5
F
102
{ACAD_REACTORS
330
E
102
}
330
E
  0
TABLESTYLE
  5
A2
102
{ACAD_REACTORS
330
A1
102
}
330
A1
100
AcDbTableStyle
  3
Standard
 70
     0
 71
     0
 40
1.5
 41
1.5
280
     0
281
     0
  7
Standard
140
4.5
170
     2
 62
     0
 63
     7
283
     0
274
    -2
284
     1
 64
     0
275
    -2
285
     1
 65
     0
276
    -2
286
     1
 66
     0
277
    -2
287
     1
 67
     0
278
    -2
288
     1
 68
     0
279
    -2
289
     1
 69
     0
  7
Standard
140
6.0
170
     5
 62
     0
 63
     7
283
     0
274
    -2
284
     1
 64
     0
275
    -2
285
     1
 65
     0
276
    -2
286
     1
 66
     0
277
    -2
287
     1
 67
     0
278
    -2
288
     1
 68
     0
279
    -2
289
     1
 69
     0
  7
Standard
140
4.5
170
     5
 62
     0
 63
     7
283
     0
274
    -2
284
     1
 64
     0
275
    -2
285
     1
 65
     0
276
    -2
286
     1
 66
     0
277
    -2
287
     1
 67
     0
278
    -2
288
     1
 68
     0
279
    -2
289
     1
 69
     0
  0
DICTIONARYVAR
  5
B8
102
{ACAD_REACTORS
330
5E
102
}
330
5E
100
DictionaryVariables
280
     0
  1
STANDARD
  0
DICTIONARYVAR
  5
5F
102
{ACAD_REACTORS
330
5E
102
}
330
5E
100
DictionaryVariables
280
     0
  1
2
  0
DICTIONARYVAR
  5
63
102
{ACAD_REACTORS
330
5E
102
}
330
5E
100
DictionaryVariables
280
     0
  1
1
  0
DICTIONARYVAR
  5
31CE
102
{ACAD_REACTORS
330
5E
102
}
330
5E
100
DictionaryVariables
280
     0
  1

  0
XRECORD
  5
349EA
102
{ACAD_REACTORS
330
349E9
102
}
330
349E9
100
AcDbXrecord
280
     1
330
68C
330
431D
330
431E
330
4329
330
4334
330
4335
330
4B09
330
4B0A
330
5153
330
5154
330
515D
330
515E
330
516A
330
516B
330
5177
330
5178
330
85B4
330
85B5
330
8620
330
8621
330
862A
330
862B
330
8637
330
8638
330
8644
330
8645
330
9773
330
9774
330
977D
330
977E
330
978A
330
978B
330
9797
330
9798
330
BD86
330
BD87
330
BD8F
330
BD90
330
BD98
330
BDA0
330
BDA1
330
BDDD
330
BDDE
330
BDE7
330
BDE8
330
BDF4
330
BDF5
330
BE01
330
BE02
330
E473
330
E474
330
E48D
330
E48E
330
E485
330
E47C
330
E47D
330
E4CC
330
E4CD
330
E4D7
330
E4D8
330
1C63B
330
1C63C
330
1C705
330
1C706
330
1C719
330
1C71A
330
1C72E
330
1C72F
330
1C738
330
1C739
330
27043
330
27044
330
2703A
330
2703B
330
2CF2C
330
2CF2D
330
2CF38
330
2CF39
330
2CF42
330
2CF43
330
2CF4F
330
2CF50
330
2CF59
330
2CF5A
330
2FA31
330
2FA32
330
2FA3D
330
2FA3E
330
2FA4A
330
2FA4B
330
2FA54
330
2FA55
330
329D8
330
329D9
330
329E1
330
329E2
330
329EA
330
329EB
330
329F3
330
329F4
330
32E63
330
32E64
330
32E6F
330
32E70
330
32E79
330
32E7A
330
32E88
330
32E89
330
32E92
330
32E93
  0
DICTIONARY
  5
B2
330
51
100
AcDbDictionary
280
     1
281
     1
  3
ACAD_XREC_ROUNDTRIP
360
5618F
  3
ADSK_XREC_LAYOUTTHUMBNAIL
360
B3
  0
DICTIONARY
  5
B5
330
56
100
AcDbDictionary
280
     1
281
     1
  3
ACAD_XREC_ROUNDTRIP
360
56190
  3
ADSK_XREC_LAYOUTTHUMBNAIL
360
B6
  0
DICTIONARY
  5
5618D
330
22
100
AcDbDictionary
280
     1
281
     1
  3
ACAD_XREC_ROUNDTRIP
360
5618E
  0
XRECORD
  5
5618F
102
{ACAD_REACTORS
330
B2
102
}
330
B2
100
AcDbXrecord
280
     1
102
SHADEPLOT
 70
     0
102
SHADEPLOTRESLEVEL
 70
     2
102
SHADEPLOTCUSTOMDPI
 70
   300
  0
XRECORD
  5
B3
102
{ACAD_REACTORS
330
B2
102
}
330
B2
100
AcDbXrecord
280
     1
310
28000000B40000008B0000000100080000000000BC61000000000000000000000001000000000000FFFFFF0000000000FFFFFF000000000000000000000000000000000000000000000000000000000000000000330000006600000099000000CC000000FF00000000330000333300006633000099330000CC330000FF3300
310
0000660000336600006666000099660000CC660000FF66000000990000339900006699000099990000CC990000FF99000000CC000033CC000066CC000099CC0000CCCC0000FFCC000000FF000033FF000066FF000099FF0000CCFF0000FFFF000000003300330033006600330099003300CC003300FF003300003333003333
310
33006633330099333300CC333300FF33330000663300336633006666330099663300CC663300FF66330000993300339933006699330099993300CC993300FF99330000CC330033CC330066CC330099CC3300CCCC3300FFCC330000FF330033FF330066FF330099FF3300CCFF3300FFFF330000006600330066006600660099
310
006600CC006600FF00660000336600333366006633660099336600CC336600FF33660000666600336666006666660099666600CC666600FF66660000996600339966006699660099996600CC996600FF99660000CC660033CC660066CC660099CC6600CCCC6600FFCC660000FF660033FF660066FF660099FF6600CCFF6600
310
FFFF660000009900330099006600990099009900CC009900FF00990000339900333399006633990099339900CC339900FF33990000669900336699006666990099669900CC669900FF66990000999900339999006699990099999900CC999900FF99990000CC990033CC990066CC990099CC9900CCCC9900FFCC990000FF99
310
0033FF990066FF990099FF9900CCFF9900FFFF99000000CC003300CC006600CC009900CC00CC00CC00FF00CC000033CC003333CC006633CC009933CC00CC33CC00FF33CC000066CC003366CC006666CC009966CC00CC66CC00FF66CC000099CC003399CC006699CC009999CC00CC99CC00FF99CC0000CCCC0033CCCC0066CC
310
CC0099CCCC00CCCCCC00FFCCCC0000FFCC0033FFCC0066FFCC0099FFCC00CCFFCC00FFFFCC000000FF003300FF006600FF009900FF00CC00FF00FF00FF000033FF003333FF006633FF009933FF00CC33FF00FF33FF000066FF003366FF006666FF009966FF00CC66FF00FF66FF000099FF003399FF006699FF009999FF00CC
310
99FF00FF99FF0000CCFF0033CCFF0066CCFF0099CCFF00CCCCFF00FFCCFF0000FFFF0033FFFF0066FFFF0099FFFF00CCFFFF00FFFFFF00000000000D0D0D001A1A1A00282828003535350043434300505050005D5D5D006B6B6B00787878008686860093939300A1A1A100AEAEAE00BBBBBB00C9C9C900D6D6D600E4E4E400
310
F1F1F100FFFFFF0000000000000000000000000000000000000000000000000000000000000000000000000000000000EFEFEFE2E2E2E2E2E2E2E2E2E2E2E2E2E2E2E2E2E2E2E2E2E2E2E2E2E2E2E2E2E2E2E2E2E2E2E2E2E2E2E2E2E2E2E2E2E2E2E2E2E2E2E2E2E2E2E2E2E2E2E2E2E2E2E2E2E2E2E2E2E2E2E2E2E2E2E2
310
E2E2E2E2E2E2E2E2E2E2E2E2E2E2E2E2E2E2E2E2E2E2E2E2E2E2E2E2E2E2E2E2E2E2E2E2E2E2E2E2E2E2E2E2E2E2E2E2E2E2E2E2E2E2E2E2E2E2E2E2E2E2E2E2E2E2E2E2E2E2E2E2E2E2E2E2E2E2E2E2E2E2E2E2E2E2E2E2E2E2E2E2E2E2E2E2E2E2E2E2E2E2E2E2E2E2E2E2E2E2E2E2E2E2E2E2E2E2E2E2E2E2E2E2E2E2E2
310
E2E2E2E2E2E2E2E2E2E2E2E2E2E2E2E2E2E2E2E2E2E2E2E2E2E2E2E2E2E2E2E2E2E2E2E2E2E2E2E2E2E2E2E2E2E2E2E2E2E2E2E2E2E2E2E2E2E2E2E2E2E2E2E2E2E2E2E2E2E2E2E2E2E2E2E2E2E2E2E2E2E2E2E2E2E2E2E2E2E2E2E2E2E2E2E2E2E2E2E2E2E2E2E2E2E2E2E2E2E2E2E2E2E2E2E2E2E2E2E2E2E2E2E2E2E2E2
310
E2E2E2E2E2E2E2E2E2E2E2E2E2E2E2E2E2E2E2E2E2E2E2E2E2E2E2E2F5F5F5F5F5F5F5F5F5F5F5F5F5F5F5F5F5F5F5F5F5F5F5F5F5F5F5F5F5F5F5F5F5F5F5F5F5F5F5F5F5F5F5F5F5F5F5F5F5F5F5F5F5F5F5F5F5F5F5F5F5F5F5F5F5F5F5F5F5F5F5F5F5F5F5F5F5F5F5F5F5F5F5F5F5F5F5F5F5F5F5F5F5F5F5F5F5F5F5
310
F5F5F5F5F5F5F5F5F5F5F5F5F5F5F5F5F5F5F5F5F5F5F5F5F5F5F5F5F5F5F5F5F5F5F5F5F5F5F5F5F5F5F5F5F5F5F5F5F5F5F5F5F5F5F5F5F5F5F5F5F5F5F5F5F5F5F5F5F5F5F5F5F5F5F5F5F5F5F5E2E2F5F5F5F5F5F5F5F5F5F5F5F5F5F5F5F5F5F5F5F5F5F5F5F5F5F5F5F5F5F5F5F5F5F5F5F5F5F5F5F5F5F5F5F5F5F5
310
F5F5F5F5F5F5F5F5F5F5F5F5F5F5F5F5F5F5F5F5F5F5F5F5F5F5F5F5F5F5F5F5F5F5F5F5F5F5F5F5F5F5F5F5F5F5F5F5F5F5F5F5F5F5F5F5F5F5F5F5F5F5F5F5F5F5F5F5F5F5F5F5F5F5F5F5F5F5F5F5F5F5F5F5F5F5F5F5F5F5F5F5F5F5F5F5F5F5F5F5F5F5F5F5F5F5F5F5F5F5F5F5F5F5F5F5F5F5F5F5F5F5F5F5F5F5F5
310
F5F5F5F5F5E2E2F5F5F5F5F5F5F5F5F5F5F5F5F5F5F5F5F5F5F5F5F5F5F5F5F5F5F5F5F5F5F5F5F5F5F5F5F5F5F5F5F5F5F5F5F5F5F5F5F5F5F5F5F5F5F5F5F5F5F5F5F5F5F5F5F5F5F5F5F5F5F5F5F5F5F5F5F5F5F5F5F5F5F5F5F5F5F5F5F5F5F5F5F5F5F5F5F5F5F5F5F5F5F5F5F5F5F5F5F5F5F5F5F5F5F5F5F5F5F5F5
310
F5F5F5F5F5F5F5F5F5F5F5F5F5F5F5F5F5F5F5F5F5F5F5F5F5F5F5F5F5F5F5F5F5F5F5F5F5F5F5F5F5F5F5F5F5F5F5F5F5F5F5F5F5F5F5F5F5F5E2E2F5F5F5F5E2E2E2E2E2E2E2E2F5F5F5F5F5F5F5F5F5E2E2E2E2E2E2E2E2E2E2E2E2E2E2E2F5F5F5F5F5F5F5F5F5E2E2E2E2E2E2E2E2E2E2E2E2E2E2E2E2F5F5F5F5F5F5
310
F5F5E2E2E2E2E2E2E2E2E2E2E2E2E2E2E2E2F5F5F5F5F5F5F5F5E2E2E2E2E2E2E2E2E2E2E2E2E2E2E2E2F5F5F5F5F5F5F5F5E2E2E2E2E2E2E2E2E2E2E2E2E2E2E2E2F5F5F5F5F5F5F5F5F5E2E2E2E2E2E2E2E2E2E2E2E2E2E2E2F5F5F5F5F5F5F5F5F5E2E2E2E2E2E2E2E2F5F5F5F5E2E2F5F5F5F5E2F5F5F5F5F5F5F5F5F5
310
F5F5F5F5F5F5F5F5F5F5F5F5F5F5F5F5F5F5F5F5F5F5F5F5F5F5F5F5F5F5F5F5F5F5F5F5F5F5F5F5F5F5F5F5F5F5F5F5F5F5F5F5F5F5F5F5F5F5F5F5F5F5F5F5F5F5F5F5F5F5F5F5F5F5F5F5F5F5F5F5F5F5F5F5F5F5F5F5F5F5F5F5F5F5F5F5F5F5F5F5F5F5F5F5F5F5F5F5F5F5F5F5F5F5F5F5F5F5F5F5F5F5F5F5F5F5F5
310
F5F5F5F5F5F5F5F5F5F5F5F5F5F5F5F5F5F5F5F5F5F5F5F5F5F5F5F5F5F5F5F5E2F5F5F5F5E2E2F5F5F5F5E2F5F5F5F5F5F5F5F5F5F5F5F5F5F5F5F5F5F5F5F5F5F5F5F5F5F5F5F5F5F5F5F5F5F5F5F5F5F5F5F5F5F5F5F5F5F5F5F5F5F5F5F5F5F5F5F5F5F5F5F5F5F5F5F5F5F5F5F5F5F5F5F5F5F5F5F5F5F5F5F5F5F5F5
310
F5F5F5F5F5F5F5F5F5F5F5F5F5F5F5F5F5F5F5F5F5F5F5F5F5F5F5F5F5F5F5F5F5F5F5F5F5F5F5F5F5F5F5F5F5F5F5F5F5F5F5F5F5F5F5F5F5F5F5F5F5F5F5F5F5F5F5F5F5F5F5F5F5F5F5F5F5F5F5F5F5F5F5F5F5E2F5F5F5F5E2E2F5F5F5F5E2F5F5F5F5F5F5F5F5F5F5F5F5F5F5F5F5F5F5F5F5F5F5F5F5F5F5F5F5F5F5
310
F5F5F5F5F5F5F5F5F5F5F5F5F5F5F5F5F5F5F5F5F5F5F5F5F5F5F5F5F5F5F5F5F5F5F5F5F5F5F5F5F5F5F5F5F5F5F5F5F5F5F5F5F5F5F5F5F5F5F5F5F5F5F5F5F5F5F5F5F5F5F5F5F5F5F5F5F5F5F5F5F5F5F5F5F5F5F5F5F5F5F5F5F5F5F5F5F5F5F5F5F5F5F5F5F5F5F5F5F5F5F5F5F5F5F5F5F5F5F5F5F5F5F5F5F5F5F5
310
F5F5F5F5F5F5F5F5F5F5F5E2F5F5F5F5E2E2F5F5F5F5E2F5F5F5F5F5F5F5F5F5F5F5F5F5F5F5F5F5F5F5F5F5F5F5F5F5F5F5F5F5F5F5F5F5F5F5F5F5F5F5F5F5F5F5F5F5F5F5F5F5F5F5F5F5F5F5F5F5F5F5F5F5F5F5F5F5F5F5F5F5F5F5F5F5F5F5F5F5F5F5F5F5F5F5F5F5F5F5F5F5F5F5F5F5F5F5F5F5F5F5F5F5F5F5F5
310
F5F5F5F5F5F5F5F5F5F5F5F5F5F5F5F5F5F5F5F5F5F5F5F5F5F5F5F5F5F5F5F5F5F5F5F5F5F5F5F5F5F5F5F5F5F5F5F5F5F5F5F5F5F5F5F5F5F5F5F5F5F5F5F5E2F5F5F5F5E2E2F5F5F5F5E2F5F5F5F5F5F5F5F5F5F5F5F5F5F5F5F5F5F5F5F5F5F5F5F5F5F5F5F5F5F5F5F5F5F5F5F5F5F5F5F5F5F5F5F5F5F5F5F5F5F5F5
310
F5F5F5F5F5F5F5F5F5F5F5F5F5F5F5F5F5F5F5F5F5F5F5F5F5F5F5F5F5F5F5F5F5F5F5F5F5F5F5F5F5F5F5F5F5F5F5F5F5F5F5F5F5F5F5F5F5F5F5F5F5F5F5F5F5F5F5F5F5F5F5F5F5F5F5F5F5F5F5F5F5F5F5F5F5F5F5F5F5F5F5F5F5F5F5F5F5F5F5F5F5F5F5F5F5F5F5F5F5F5F5F5F5F5F5F5F5E2F5F5F5F5E2E2F5F5F5
310
F5E2F5F5F5F5F5F5F5F5F5F5F5F5F5F5F5F5F5F5F5F5F5F5F5F5F5F5F5F5F5F5F5F5F5F5F5F5F5F5F5F5F5F5F5F5F5F5F5F5F5F5F5F5F5F5F5F5F5F5F5F5F5F5F5F5F5F5F5F5F5F5F5F5F5F5F5F5F5F5F5F5F5F5F5F5F5F5F5F5F5F5F5F5F5F5F5F5F5F5F5F5F5F5F5F5F5F5F5F5F5F5F5F5F5F5F5F5F5F5F5F5F5F5F5F5F5
310
F5F5F5F5F5F5F5F5F5F5F5F5F5F5F5F5F5F5F5F5F5F5F5F5F5F5F5F5F5F5F5F5F5F5F5F5F5F5F5F5F5F5F5E2F5F5F5F5E2E2F5F5F5F5E2F5F5F5F5F5F5F5F5F5F5F5F5F5F5F5F5F5F5F5F5F5F5F5F5F5F5F5F5F5F5F5F5F5F5F5F5F5F5F5F5F5F5F5F5F5F5F5F5F5F5F5F5F5F5F5F5F5F5F5F5F5F5F5F5F5F5F5F5F5F5F5F5
310
F5F5F5F5F5F5F5F5F5F5F5F5F5F5F5F5F5F5F5F5F5F5F5F5F5F5F5F5F5F5F5F5F5F5F5F5F5F5F5F5F5F5F5F5F5F5F5F5F5F5F5F5F5F5F5F5F5F5F5F5F5F5F5F5F5F5F5F5F5F5F5F5F5F5F5F5F5F5F5F5F5F5F5F5F5F5F5F5F5F5F5F5F5F5F5F5E2F5F5F5F5E2E2F5F5F5F5E2F5F5F5F5F5F5F5F5F5F5F5F5F5F5F5F5F5F5F5
310
F5F5F5F5F5F5F5F5F5F5F5F5F5F5F5F5F5F5F5F5F5F5F5F5F5F5F5F5F5F5F5F5F5F5F5F5F5F5F5F5F5F5F5F5F5F5F5F5F5F5F5F5F5F5F5F5F5F5F5F5F5F5F5F5F5F5F5F5F5F5F5F5F5F5F5F5F5F5F5F5F5F5F5F5F5F5F5F5F5F5F5F5F5F5F5F5F5F5F5F5F5F5F5F5F5F5F5F5F5F5F5F5F5F5F5F5F5F5F5F5F5F5F5F5F5F5F5
310
F5F5F5F5F5F5F5F5F5F5F5F5F5F5F5F5F5F5F5F5F5F5E2F5F5F5F5E2E2F5F5F5F5F5F5F5F5F5F5F5F5F5F5F5F5F5F5F5F5F5F5F5F5F5F5F5F5F5F5F5F5F5F5F5F5F5F5F5F5F5F5F5F5F5F5F5F5F5F5F5F5F5F5F5F5F5F5F5F5F5F5F5F5F5F5F5F5F5F5F5F5F5F5F5F5F5F5F5F5F5F5F5F5F5F5F5F5F5F5F5F5F5F5F5F5F5F5
310
F5F5F5F5F5F5F5F5F5F5F5F5F5F5F5F5F5F5F5F5F5F5F5F5F5F5F5F5F5F5F5F5F5F5F5F5F5F5F5F5F5F5F5F5F5F5F5F5F5F5F5F5F5F5F5F5F5F5F5F5F5F5F5F5F5F5F5F5F5F5F5F5F5F5F5F5F5F5F5F5E2E2F5F5F5F5F5F5F5F5F5F5F5F5F5F5F5F5F5F5F5F5F5F5F5F5F5F5F5F5F5F5F5F5F5F5F5F5F5F5F5F5F5F5F5F5F5
310
F5F5F5F5F5F5F5F5F5F5F5F5F5F5F5F5F5F5F5F5F5F5F5F5F5F5F5F5F5F5F5F5F5F5F5F5F5F5F5F5F5F5F5F5F5F5F5F5F5F5F5F5F5F5F5F5F5F5F5F5F5F5F5F5F5F5F5F5F5F5F5F5F5F5F5F5F5F5F5F5F5F5F5F5F5F5F5F5F5F5F5F5F5F5F5F5F5F5F5F5F5F5F5F5F5F5F5F5F5F5F5F5F5F5F5F5F5F5F5F5F5F5F5F5F5F5F5
310
F5F5F5F5F5F5E2E2F5F5F5F5F5F5F5F5F5F5F5F5F5F5F5F5F5F5F5F5F5F5F5F5F5F5F5F5F5F5F5F5F5F5F5F5F5F5F5F5F5F5F5F5F5F5F5F5F5F5F5F5F5F5F5F5F5F5F5F5F5F5F5F5F5F5F5F5F5F5F5F5F5F5F5F5F5F5F5F5F5F5F5F5F5F5F5F5F5F5F5F5F5F5F5F5F5F5F5F5F5F5F5F5F5F5F5F5F5F5F5F5F5F5F5F5F5F5F5
310
F5F5F5F5F5F5F5F5F5F5F5F5F5F5F5F5F5F5F5F5F5F5F5F5F5F5F5F5F5F5F5F5F5F5F5F5F5F5F5F5F5F5F5F5F5F5F5F5F5F5F5F5F5F5F5F5F5F5F5E2E2F5F5F5F5F5F5F5F5F5F5F5F5F5F5F5F5F5F5F5F5F5F5F5F5F5F5F5F5F5F5F5F5F5F5F5F5F5F5F5F5F5F5F5F5F5F5F5F5F5F5F5F5F5F5F5F5F5F5F5F5F5F5F5F5F5F5
310
F5F5F5F5F5F5F5F5F5F5F5F5F5F5F5F5F5F5F5F5F5F5F5F5F5F5F5F5F5F5F5F5F5F5F5F5F5F5F5F5F5F5F5F5F5F5F5F5F5F5F5F5F5F5F5F5F5F5F5F5F5F5F5F5F5F5F5F5F5F5F5F5F5F5F5F5F5F5F5F5F5F5F5F5F5F5F5F5F5F5F5F5F5F5F5F5F5F5F5F5F5F5F5F5F5F5F5F5F5F5F5F5E2E2F5F5F5F5F5F5F5F5F5F5F5F5F5
310
F5F5F5F5F5F5F5F5E2E2E2E2E2E2E2E2E2E2E2E2E2E2E2E2E2E2E2E2E2E2E2E2E2E2E2E2E2E2E2E2E2E2E2E2E2E2E2E2E2E2E2E2E2E2E2E2E2E2E2E2E2E2E2E2E2E2E2E2E2E2E2E2E2E2E2E2E2E2E2E2E2E2E2E2E2E2E2E2E2E2E2E2E2E2E2E2E2E2E2E2E2E2E2E2E2E2E2E2E2E2E2E2E2E2E2E2E2E2E2E2E2E2E2E2E2E2E2
310
E2E2E2E2E2E2E2E2E2E2E2E2E2E2E2E2E2F5F5F5F5F5F5F5F5F5F5F5F5F5F5F5F5F5F5F5F5F5E2E2F5F5F5F5F5F5F5F5F5F5F5F5F5F5F5F5F5F5F5F5F5E22D2D2D2DF5F5F5F5E2F5F5F5F5F5F5F52DF5F5F5F5F5F5F5F5F5F5F5F5F5F5F5F5F5F5E2F5F5F5F5F5F5F5F5F5F5F5F5F5F5F5F5F5F5F5F5F5F5F5F5F5F5F5F5F5
310
F5F5F5F5F5F5F5F5F5F5F5F5F5F5F5F5F5F5F5F5F5F5F5F5F5F5F5F5F5F5F5F5F5F5F5F5F5F5F5F5F5F5F5F5F5F5F5F5F5F5F5F5F5F5F5F5F5F5F5F5F5F5F5F5F5F5F5F5F5E2F5F5F5F5F5F5F5F5F5F5F5F5F5F5F5F5F5F5F5F5F5E2E2F5F5F5F5F5F5F5F5F5F5F5F5F5F5F5F5F5F5F5F5F5E2DCF5F52DF5F5F5F5E2F5F5F5
310
F5F5F5F52DF5F5F5F5F5F5F5F5F5F5F5F5F5F5F5F5F5F5E2F5F5F5F5F5F5F5F5F5F5F5F5F5F5F5F5F5F5F5F5F5F5F5F5F5F5F5F5F5F5F5F5F5F5F5F5F5F5F5F5F5F5F5F5F5F5F5F5F5F5F5F5F5F5F5F5F5F5F5F5F5F5F5F5F5F5F5F5F5F5F5F5F5F5F5F5F5F5F5F5F5F5F5F5F5F5F5F5F5F5F5F5F5F5F5F5F5F5E2F5F5F5F5
310
F5F5F5F5F5F5F5F5F5F5F5F5F5F5F5F5F5E2E2F5F5F5F5F5F5F5F5F5F5F5F5F5F5F5F5F5F5F5F5F5E2DCF5F52DF5F5F5F5E2F5F5F5F5F5F5F52DF5F5F5F5F5F5F5F5F5F5F5F5F5F5F5F5F5F5E2E2F5F5F5F5F5F5F5F5F5F5F5F5F5F5F5F5F5F5F5F5F5F5F5F5F5F5F5F5F5F5F5F5F5F5F5F5F5F5F5F5F5F5F5F5F5F5F5F5F5
310
F5F5F5F5F5F5F5F5F5F5F5F5F5F5F5F5F5F5F5F5F5F5F5F5F5F5F5F5F5F5F5F5F5F5F5F5F5F5F5F5F5F5F5F5F5F5F5F5E2F5F5F5F5F5F5F5F5F5F5F5F5F5F5F5F5F5F5F5F5F5E2E2F5F5F5F5F5F5F5F5F5F5F5F5F5F5F5F5F5F5F5F5F5E2BEF5F52D2D2D2D2D2D2D2D2D2D2D2D2D2DE2E2E2E2E2E2E2E2E2E2E2E2E2E2E2E2
310
E2E2E2E2F5F5F5F5F5F5F5F5F5F5F5F5F5F5F5F5F5F5F5F5F5F5F5F5F5F5F5F5F5F5F5F5F5F5F5F5F5F5F5F5F5F5F5F5F5F5F5F5F5F5F5F5F5F5F5F5F5F5F5F5F5F5F5F5F5F5F5F5F5F5F5F5F5F5F5F5F5F5F5F5F5F5F5F5F5F5F5F5F5F5F5F5F5F5F5F5F5E2F5F5F5F5F5F5F5F5F5F5F5F5F5F5F5F5F5F5F5F5F5E2E2F5F5
310
F5F5E2F5F5F5F5F5F5F5F5F5F5F5F5F5F5F5F5E2DCF5F5F5F5F5F5F5E2F5F5F5F5F5F5F5E2F5F5F5F5F5F5F5F5F5F5F5F5F5F5F5F5F5F5F5F5F5F5F5F5F5F5F5F5F5F5F5F5F5F5F5F5F5F5F5F5F5F5F5F5F5F5F5F5F5F5F5F5F5F5F5F5F5F5F5F5F5F5F5F5F5F5F5F5F5F5F5F5F5F5F5F5F5F5F5F5F5F5F5F5F5F5F5F5F5F5
310
F5F5F5F5F5F5F5F5F5F5F5F5F5F5F5F5F5F5F5F5F5F5F5F5F5F5F5E2F5F5F5F5F5F5F5F5F5F5F5F5F5F5F5F5E2F5F5F5F5E2E2F5F5F5F5E2F5F5F5F5F5F5F5F5F5F5F5F5F5F5F5F5E2F5F5F5F5F5F5F5F5E2F5F5F5F5F5F5F5E2F5F5F5F5F5F5F5F5F5F5F5F5F5F5F5F5F5F5F5F5F5F5F5F5F5F5F5F5F5F5F5F5F5F5F5F5F5
310
F5F5F5F5F5F5F5F5F5F5F5F5F5F5F5F5F5F5F5F5F5F5F5F5F5F5F5F5F5F5F5F5F5F5F5F5F5F5F5F5F5F5F5F5F5F5F5F5F5F5F5F5F5F5F5F5F5F5F5F5F5F5F5F5F5F5F5F5F5F5F5F5F5F5F5F5F5F5F5F5E2F5F5F5F5F5F5F5F5F5F5F5F5F5F5F5F5E2F5F5F5F5E2E2F5F5F5F5E2F5F5F5F5F5F5F5F5F5F5F5F5F5F5F5F5E2E2
310
E2E2E2E2E2E2E2E2F5F5F5F5F5F5F5E2F5F5F5F5F5F5F5F5F5F5F5F5F5F5F5F5F5F5F5F5F5F5F5F5F5F5F5F5F5F5F5F5F5F5F5F5F5F5F5F5F5F5F5F5F5F5F5F5F5F5F5F5F5F5F5F5F5F5F5F5F5F5F5F5F5F5F5F5F5F5F5F5F5F5F5F5F5F5F5F5F5F5F5F5F5F5F5F5F5F5F5F5F5F5F5F5F5F5F5F5F5F5F5F5F5F5F5F5F5F5F5
310
F5F5F5F5F5F5E2F5F5F5F5F5F5F5F5F5F5F5F5F5F5F5F5E2F5F5F5F5E2E2F5F5F5F5E2F5F5F5F5F5F5F5F5F5F5F5F5F5F5F5F5E2E2E2E2F5F5F5F5F5F5F5F5F5F5F5F5F5E2F5F5F5F5F5F5F5F5F5F5F5F5F5F5F5F5F5F5F5F5F5F5F5F5F5F5F5F5F5F5F5F5F5F5F5F5F5F5F5F5F5F5F5F5F5F5F5F5F5F5F5F5F5F5F5F5F5F5
310
F5F5F5F5F5F5F5F5F5F5F5F5F5F5F5F5F5F5F5F5F5F5F5F5F5F5F5F5F5F5F5F5F5F5F5F5F5F5F5F5F5F5F5F5F5F5F5F5F5F5F5F5F5F5F5F5F5F5F5E2F5F5F5F5F5F5F5F5F5F5F5F5F5F5F5F5E2F5F5F5F5E2E2F5F5F5F5E2F5F5F5F5F5F5F5F5F5F5F5F5F5F5F5F5E2E2E2E2F5F5F5F5F5F5F5F5F5F5F5F5F5E2F5F5F5F5F5
310
F5F5F5F5F5F5F5F5F5F5F5F5F5F5F5F5F5F5F5F5F5F5F5F5F5F5F5F5F5F5F5F5F5F5F5F5F5F5F5F5F5F5F5F5F5F5F5F5F5F5F5F5F5F5F5F5F5F5F5F5F5F5F5F5F5F5F5F5F5F5F5F5F5F5F5F5F5F5F5F5F5F5F5F5F5F5F5F5F5F5F5F5F5F5F5F5F5F5F5F5F5F5F5F5F5F5F5F5F5F5F5F5E2F5F5F5F5F5F5F5F5F5F5F5F5F5F5
310
F5F5E2F5F5F5F5E2E2F5F5F5F5E2F5F5F5F5F5F5F5F5F5F5F5F5F5F5F5F5E2F5F5F5F5F5F5F5F5F5F5F5F5F5F5F5F5E2F5F5F5F5F5F5F5F5F5F5F5F5F5F5F5F5F5F5F5F5F5F5F5F5F5F5F5F5F5F5F5F5F5F5F5F5F5F5F5F5F5F5F5F5F5F5F5F5F5F5F5F5F5F5F5F5F5F5F5F5F5F5F5F5F5F5F5F5F5F5F5F5F5F5F5F5F5F5F5
310
F5F5F5F5F5F5F5F5F5F5F5F5F5F5F5F5F5F5F5F5F5F5F5F5F5F5F5F5F5F5F5F5F5F5F5F5F5F5E2F5F5F5F5F5F5F5F5F5F5F5F5F5F5F5F5E2F5F5F5F5E2E2F5F5F5F5E2F5F5F5F5F5F5F5F5F5F5F5F5F5F5F5F5E2E2E2E2E2E2E2E2E2E2E2E2E2E2E2E2E2E2F5F5F5F5F5F5F5F5F5F5F5F5F5F5F5F5F5F5F5F5F5F5F5F5F5F5
310
F5F5F5F5F5F5F5F5F5F5F5F5F5F5F5F5F5F5F5F5F5F5F5F5F5F5F5F5F5F5F5F5F5F5F5F5F5F5F5F5F5F5F5F5F5F5F5F5F5F5F5F5F5F5F5F5F5F5F5F5F5F5F5F5F5F5F5F5F5F5F5F5F5F5F5F5F5F5F5F5F5F5F5F5F5F5F5F5F5F5F5E2F5F5F5F5F5F5F5F5F5F5F5F5F5F5F5F5E2F5F5F5F5E2E2F5F5F5F5E2F5F5F5F5F5F5F5
310
F5F5F5F5F5F5F5F5F5E2E2E2F5F5F5F5F5F5F5F5F5F5F5F5F5F5F5F5F5F5F5F5F5F5F5F5F5F5F5F5F5F5F5F5F5F5F5F5F5F5F5F5F5F5F5F5F5F5F5F5F5F5F5F5F5F5F5F5F5F5F5F5F5F5F5F5F5F5F5F5F5F5F5F5F5F5F5F5F5F5F5F5F5F5F5F5F5F5F5F5F5F5F5F5F5F5F5F5F5F5F5F5F5F5F5F5F5F5F5F5F5F5F5F5F5F5F5
310
F5F5F5F5F5F5F5F5F5F5F5F5F5F5F5F5F5E2F5F5F5F5F5F5F5F5F5F5F5F5F5F5F5F5E2F5F5F5F5E2E2F5F5F5F5E2F5F5F5F5F5F5F5F5F5F5F5F5F5F5F5F5E2E2E2F5F5F5F5F5F5F5F5F5F5F5F5F5F5F5F5F5F5F5F5F5F5F5F5F5F5F5F5F5F5F5F5F5F5F5F5F5F5F5F5F5F5F5F5F5F5F5F5F5F5F5F5F5F5F5F5F5F5F5F5F5F5
310
F5F5F5F5F5F5F5F5F5F5F5F5F5F5F5F5F5F5F5F5F5F5F5F5F5F5F5F5F5F5F5F5F5F5F5F5F5F5F5F5F5F5F5F5F5F5F5F5F5F5F5F5F5F5F5F5F5F5F5F5F5F5F5F5F5F5F5F5F5F5E2F5F5F5F5F5F5F5F5F5F5F5F5F5F5F5F5E2F5F5F5F5E2E2F5F5F5F5E2F5F5F5F5F5F5F5F5F5F5F5F5F5F5F5F5E2F5F5F5F5F5F5F5F5F5F5F5
310
F5F5F5F5F5F5F5F5F5F5F5F5F5F5F5F5F5F5F5F5F5F5F5F5F5F5F5F5F5F5F5F5F5F5F5F5F5F5F5F5F5F5F5F5F5F5F5F5F5F5F5F5F5F5F5F5F5F5F5F5F5F5F5F5F5F5F5F5F5F5F5F5F5F5F5F5F5F5F5F5F5F5F5F5F5F5F5F5F5F5F5F5F5F5F5F5F5F5F5F5F5F5F5F5F5F5F5F5F5F5F5F5F5F5F5F5F5F5F5F5F5F5F5E2F5F5F5
310
F5F5F5F5F5F5F5F5F5F5F5F5F5E2F5F5F5F5E2E2F5F5F5F5E2F5F5F5F5F5F5F5F5F5F5F5F5F5F5F5F5E20F0F0F0F0F0F0F0F0F0F0FF5F5F5F5F5F5F5F5F5F5F5F5F5F5F5F5F5F5F5F5F5F5F5F5F5F5F5F5F5F5F5F5F5F5F5F5F5F5F5F5F5F5F5F5F5F5F5F5F5F5F5F5F5F5F5F5F5F5F5F5F5F5F5F5F5F5F5F5F5F5F5F5F5F5
310
F5F5F5F5F5F5F5F5F5F5F5F5F5F5F5F5F5F5F5F5F5F5F5F5F5F5F5F5F5F5F5F5F5F5F5F5F5F5F5F5F5F5F5F5F5F5F5F5F5E2F5F5F5F5F5F5F5F5F5F5F5F5F5F5F5F5E2F5F5F5F5E2E2F5F5F5F5E2F5F5F5F5F5F5F5F5F5F5F5F5F5F5F5F5E20F0F0F0F0F0F0F0F0F0FF5F5F5F5F5F5F5F5F5F5F5F5F5F5F5F5F5F5F5F5F5F5
310
F5F5F5F5F5F5F5F5F5F5F5F5F5F5F5F5F5F5F5F5F5F5F5F5F5F5F5F5F5F5F5F5F5F5F5F5F5F5F5F5F5F5F5F5F5F5F5F5F5F5F5F5F5F5F5F5F5F5F5F5F5F5F5F5F5F5F5F5F5F5F5F5F5F5F5F5F5F5F5F5F5F5F5F5F5F5F5F5F5F5F5F5F5F5F5F5F5F5F5F5F5F5E2F5F5F5F5F5F5F5F5F5F5F5F5F5F5F5F5E2F5F5F5F5E2E2F5
310
F5F5F5E2F5F5F5F5F5F5F5F5F5F5F5F5F5F5F5F5E2F5F5F5F5F5F5F5F5F5F5F5F5F5F5F5F5F5F5F5F5F5F5F5F5F5F5F5F5F5F5F5F5F5F5F5F5F5F5F5F5F5F5F5F5F5F5F5F5F5F5F5F5F5F5F5F5F5F5F5F5F5F5F5F5F5F5F5F5F5F5F5F5F5F5F5F5F5F5F5F5F5F5F5F5F5F5F5F5F5F5F5F5F5F5F5F5F5F5F5F5F5F5F5F5F5F5
310
F5F5F5F5F5F5F5F5F5F5F5F5F5F5F5F5F5F5F5F5F5F5F5F5F5F5F5F5E2F5F5F5F5F5F5F5F5F5F5F5F5F5F5F5F5E2F5F5F5F5E2E2F5F5F5F5E2F5F5F5F5F5F5F5F5F5F5F5F5F5F5F5F5E2F5F5F5F5F5F5F5F5F5F5F5F5F5F5F5F5F5F5F5F5F5F5F5F5F5F5F5F5F5F5F5F5F5F5F5F5F5F5F5F5F5F5F5F5F5F5F5F5F5F5F5F5F5
310
F5F5F5F5F5F5F5F5F5F5F5F5F5F5F5F5F5F5F5F5F5F5F5F5F5F5F5F5F5F5F5F5F5F5F5F5F5F5F5F5F5F5F5F5F5F5F5F5F5F5F5F5F5F5F5F5F5F5F5F5F5F5F5F5F5F5F5F5F5F5F5F5F5F5F5F5F5F5F5F5F5E2F5F5F5F5F5F5F5F5F5F5F5F5F5F5F5F5E2F5F5F5F5E2E2F5F5F5F5E2F5F5F5F5F5F5F5F5F5F5F5F5F5F5F5F5E2
310
F5F5F5F5F5F5F5F5F5F5F5F5F5F5F5F5F5F5F5F5F5F5F5F5F5F5F5F5F5F5F5F5F5F5F5F5F5F5F5F5F5F5F5F5F5F5F5F5F5F5F5F5F5F5F5F5F5F5F5F5F5F5F5F5F5F5F5F5F5F5F5F5F5F5F5F5F5F5F5F5F5F5F5F5F5F5F5F5F5F5F5F5F5F5F5F5F5F5F5F5F5F5F5F5F5F5F5F5F5F5F5F5F5F5F5F5F5F5F5F5F5F5F5F5F5F5F5
310
F5F5F5F5F5F5F5E2F5F5F5F5F5F5F5F5F5F5F5F5F5F5F5F5E2F5F5F5F5E2E2F5F5F5F5E2F5F5F5F5F5F5F5F5F5F5F5F5F5F5F5F5E2F5F5F5F5F5F5F5F5F5F5F5F5F5F5F5F5F5F5F5F5F5F5F5F5F5F5F5F5F5F5F5F5F5F5F5F5F5F5F5F5F5F5F5F5F5F5F5F5F5F5F5F5F5F5F5F5F5F5F5F5F5F5F5F5F5F5F5F5F5F5F5F5F5F5
310
F5F5F5F5F5F5F5F5F5F5F5F5F5F5F5F5F5F5F5F5F5F5F5F5F5F5F5F5F5F5F5F5F5F5F5F5F5F5F5F5F5F5F5F5F5F5F5F5F5F5F5F5F5F5F5F5F5F5F5F5E2F5F5F5F5F5F5F5F5F5F5F5F5F5F5F5F5E2F5F5F5F5E2E2F5F5F5F5F5F5F5F5F5F5F5F5F5F5F5F5F5F5F5F5F5E2F5F5F5F5F5F5F5F5F5F5F5F5F5F5F5F5F5F5F5F5F5
310
F5F5F5F5F5F5F5F5F5F5F5F5F5F5F5F5F5F5F5F5F5F5F5F5F5F5F5F5F5F5F5F5F5F5F5F5F5F5F5F5F5F5F5F5F5F5F5F5F5F5F5F5F5F5F5F5F5F5F5F5F5F5F5F5F5F5F5F5F5F5F5F5F5F5F5F5F5F5F5F5F5F5F5F5F5F5F5F5F5F5F5F5F5F5F5F5F5F5F5F5F5F5F5F5F5F5F5F5F5F5F5F5F5E2F5F5F5F5F5F5F5F5F5F5F5F5F5
310
F5F5F5F5F5F5F5F5E2E2F5F5F5F5F5F5F5F5F5F5F5F5F5F5F5F5F5F5F5F5F5E2F5F5F5F5F5F5F5F5F5F5F5F5F5F5F5F5F5F5F5F5F5F5F5F5F5F5F5F5F5F5F5F5F5F5F5F5F5F5F5F5F5F5F5F5F5F5F5F5F5F5F5F5F5F5F5F5F5F5F5F5F5F5F5F5F5F5F5F5F5F5F5F5F5F5F5F5F5F5F5F5F5F5F5F5F5F5F5F5F5F5F5F5F5F5F5
310
F5F5F5F5F5F5F5F5F5F5F5F5F5F5F5F5F5F5F5F5F5F5F5F5F5F5F5F5F5F5F5F5F5F5F5F5F5F5F5E2F5F5F5F5F5F5F5F5F5F5F5F5F5F5F5F5F5F5F5F5F5E2E2F5F5F5F5F5F5F5F5F5F5F5F5F5F5F5F5F5F5F5F5F5E2F5F5F5F5F5F5F5F5F5F5F5F5F5F5F5F5F5F5F5F5F5F5F5F5F5F5F5F5F5F5F5F5F5F5F5F5F5F5F5F5F5F5
310
F5F5F5F5F5F5F5F5F5F5F5F5F5F5F5F5F5F5F5F5F5F5F5F5F5F5F5F5F5F5F5F5F5F5F5F5F5F5F5F5F5F5F5F5F5F5F5F5F5F5F5F5F5F5F5F5F5F5F5F5F5F5F5F5F5F5F5F5F5F5F5F5F5F5F5F5F5F5F5F5F5F5F5F5F5F5F5F5F5F5F5F5E2F5F5F5F5F5F5F5F5F5F5F5F5F5F5F5F5F5F5F5F5F5E2E2F5F5F5F5F5F5F5F5F5F5F5
310
F5F5F5F5F5F5F5F5F5F5E2F5F5F5F5F5F5F5F5F5F5F5F5F5F5F5F5F5F5F5F5F5F5F5F5F5F5F5F5F5F5F5F5F5F5F5F5F5F5F5F5F5F5F5F5F5F5F5F5F5F5F5F5F5F5F5F5F5F5F5F5F5F5F5F5F5F5F5F5F5F5F5F5F5F5F5F5F5F5F5F5F5F5F5F5F5F5F5F5F5F5F5F5F5F5F5F5F5F5F5F5F5F5F5F5F5F5F5F5F5F5F5F5F5F5F5F5
310
F5F5F5F5F5F5F5F5F5F5F5F5F5F5F5F5F5F5E2F5F5F5F5F5F5F5F5F5F5F5F5F5F5F5F5F5F5F5F5F5E2E2F5F5F5F5F5F5F5F5F5F5F5F5F5F5F5F5F5F5F5F5F5E2F5F5F5F5F5F5F5F5F5F5F5F5F5F5F5F5F5F5F5F5F5F5F5F5F5F5F5F5F5F5F5F5F5F5F5F5F5F5F5F5F5F5F5F5F5F5F5F5F5F5F5F5F5F5F5F5F5F5F5F5F5F5F5
310
F5F5F5F5F5F5F5F5F5F5F5F5F5F5F5F5F5F5F5F5F5F5F5F5F5F5F5F5F5F5F5F5F5F5F5F5F5F5F5F5F5F5F5F5F5F5F5F5F5F5F5F5F5F5F5F5F5F5F5F5F5F5F5F5F5F5F5F5F5F5F5E2F5F5F5F5F5F5F5F5F5F5F5F5F5F5F5F5F5F5F5F5F5E2E2F5F5F5F5F5F5F5F5F5F5F5F5F5F5F5F5F5F5F5F5F5E2F5F5F5F5F5F5F5F5F5F5
310
F5F5F5F5F5F5F5F5F5F5F5F5F5F5F5F5F5F5F5F5F5F5F5F5F5F5F5F5F5F5F5F5F5F5F5F5F5F5F5F5F5F5F5F5F5F5F5F5F5F5F5F5F5F5F5F5F5F5F5F5F5F5F5F5F5F5F5F5F5F5F5F5F5F5F5F5F5F5F5F5F5F5F5F5F5F5F5F5F5F5F5F5F5F5F5F5F5F5F5F5F5F5F5F5F5F5F5F5F5F5F5F5F5F5F5F5F5F5F5F5F5F5F5F5E2F5F5
310
F5F5F5F5F5F5F5F5F5F5F5F5F5F5F5F5F5F5F5E2E2F5F5F5F5F5F5F5F5F5F5F5F5F5F5F5F5F5F5F5F5F5E2F5F5F5F5F5F5F5F5F5F5F5F5F5F5F5F5F5F5F5F5F5F5F5F5F5F5F5F5F5F5F5F5F5F5F5F5F5F5F5F5F5F5F5F5F5F5F5F5F5F5F5F5F5F5F5F5F5F5F5F5F5F5F5F5F5F5F5F5F5F5F5F5F5F5F5F5F5F5F5F5F5F5F5F5
310
F5F5F5F5F5F5F5F5F5F5F5F5F5F5F5F5F5F5F5F5F5F5F5F5F5F5F5F5F5F5F5F5F5F5F5F5F5F5F5F5F5F5F5F5F5F5F5F5F5F5E2F5F5F5F5F5F5F5F5F5F5F5F5F5F5F5F5F5F5F5F5F5E2E2F5F5F5F5F5F5F5F5F5F5F5F5F5F5F5F5F5F5F5F5F5E2F5F5F5F5F5F5F5F5F5F5F5F5F5F5F5F5F5F5F5F5F5F5F5F5F5F5F5F5F5F5F5
310
F5F5F5F5F5F5F5F5F5F5F5F5F5F5F5F5F5F5F5F5F5F5F5F5F5F5F5F5F5F5F5F5F5F5F5F5F5F5F5F5F5F5F5F5F5F5F5F5F5F5F5F5F5F5F5F5F5F5F5F5F5F5F5F5F5F5F5F5F5F5F5F5F5F5F5F5F5F5F5F5F5F5F5F5F5F5F5F5F5F5F5F5F5F5F5F5F5F5F5F5F5F5F5E2F5F5F5F5F5F5F5F5F5F5F5F5F5F5F5F5F5F5F5F5F5E2E2
310
F5F5F5F5F5F5F5F5F5F5F5F5F5F5F5F5F5F5F5F5F5E2F5F5F5F5F5F5F5F5F5F5F5F5F5F5F5F5F5F5F5F5F5F5F5F5F5F5F5F5F5F5F5F5F5F5F5F5F5F5F5F5F5F5F5F5F5F5F5F5F5F5F5F5F5F5F5F5F5F5F5F5F5F5F5F5F5F5F5F5F5F5F5F5F5F5F5F5F5F5F5F5F5F5F5F5F5F5F5F5F5F5F5F5F5F5F5F5F5F5F5F5F5F5F5F5F5
310
F5F5F5F5F5F5F5F5F5F5F5F5F5F5F5F5F5F5F5F5F5F5F5F5F5F5F5F5F5E2F5F5F5F5F5F5F5F5F5F5F5F5F5F5F5F5F5F5F5F5F5E2E2F5F5F5F5F5F5F5F5F5F5F5F5F5F5F5F5F5F5F5F5F5E2F5F5F5F5F5F5F5F5F5F5F5F5F5F5F5F5F5F5F5F5F5F5F5F5F5F5F5F5F5F5F5F5F5F5F5F5F5F5F5F5F5F5F5F5F5F5F5F5F5F5F5F5
310
F5F5F5F5F5F5F5F5F5F5F5F5F5F5F5F5F5F5F5F5F5F5F5F5F5F5F5F5F5F5F5F5F5F5F5F5F5F5F5F5F5F5F5F5F5F5F5F5F5F5F5F5F5F5F5F5F5F5F5F5F5F5F5F5F5F5F5F5F5F5F5F5F5F5F5F5F5F5F5F5F5F5E2F5F5F5F5F5F5F5F5F5F5F5F5F5F5F5F5F5F5F5F5F5E2E2F5F5F5F5E2F5F5F5F5F5F5F5F5F5F5F5F5F5F5F5F5
310
E2F5F5F5F5F5F5F5F5F5F5F5F5F5F5F5F5F5F5F5F5F5F5F5F5F5F5F5F5F5F5F5F5F5F5F5F5F5F5F5F5F5F5F5F5F5F5F5F5F5F5F5F5F5F5F5F5F5F5F5F5F5F5F5F5F5F5F5F5F5F5F5F5F5F5F5F5F5F5F5F5F5F5F5F5F5F5F5F5F5F5F5F5F5F5F5F5F5F5F5F5F5F5F5F5F5F5F5F5F5F5F5F5F5F5F5F5F5F5F5F5F5F5F5F5F5F5
310
F5F5F5F5F5F5F5F5E2F5F5F5F5F5F5F5F5F5F5F5F5F5F5F5F5E2F5F5F5F5E2E2F5F5F5F5E2F5F5F5F5F5F5F5F5F5F5F5F5F5F5F5F5E2F5F5F5F5F5F5F5F5F5F5F5F5F5F5F5F5F5F5F5F5F5F5F5F5F5F5F5F5F5F5F5F5F5F5F5F5F5F5F5F5F5F5F5F5F5F5F5F5F5F5F5F5F5F5F5F5F5F5F5F5F5F5F5F5F5F5F5F5F5F5F5F5F5
310
F5F5F5F5F5F5F5F5F5F5F5F5F5F5F5F5F5F5F5F5F5F5F5F5F5F5F5F5F5F5F5F5F5F5F5F5F5F5F5F5F5F5F5F5F5F5F5F5F5F5F5F5F5F5F5F5F5F5F5F5F5E2F5F5F5F5F5F5F5F5F5F5F5F5F5F5F5F5E2F5F5F5F5E2E2F5F5F5F5E2F5F5F5F5F5F5F5F5F5F5F5F5F5F5F5F5E2F5F5F5F5F5F5F5F5F5F5F5F5F5F5F5F5F5F5F5F5
310
F5F5F5F5F5F5F5F5F5F5F5F5F5F5F5F5F5F5F5F5F5F5F5F5F5F5F5F5F5F5F5F5F5F5F5F5F5F5F5F5F5F5F5F5F5F5F5F5F5F5F5F5F5F5F5F5F5F5F5F5F5F5F5F5F5F5F5F5F5F5F5F5F5F5F5F5F5F5F5F5F5F5F5F5F5F5F5F5F5F5F5F5F5F5F5F5F5F5F5F5F5F5F5F5F5F5F5F5F5F5F5F5F5F5E2F5F5F5F5F5F5F5F5F5F5F5F5
310
F5F5F5F5E2F5F5F5F5E2E2F5F5F5F5E2F5F5F5F5F5F5F5F5F5F5F5F5F5F5F5F5E2F5F5F5F5F5F5F5F5F5F5F5F5F5F5F5F5F5F5F5F5F5F5F5F5F5F5F5F5F5F5F5F5F5F5F5F5F5F5F5F5F5F5F5F5F5F5F5F5F5F5F5F5F5F5F5F5F5F5F5F5F5F5F5F5F5F5F5F5F5F5F5F5F5F5F5F5F5F5F5F5F5F5F5F5F5F5F5F5F5F5F5F5F5F5
310
F5F5F5F5F5F5F5F5F5F5F5F5F5F5F5F5F5F5F5F5F5F5F5F5F5F5F5F5F5F5F5F5F5F5F5F5F5F5F5F5E2F5F5F5F5F5F5F5F5F5F5F5F5F5F5F5F5E2F5F5F5F5E2E2F5F5F5F5E2F5F5F5F5F5F5F5F5F5F5F5F5F5F5F5F5E2F5F5F5F5F5F5F5F5F5F5F5F5F5F5F5F5F5F5F5F5F5F5F5F5F5F5F5F5F5F5F5F5F5F5F5F5F5F5F5F5F5
310
F5F5F5F5F5F5F5F5F5F5F5F5F5F5F5F5F5F5F5F5F5F5F5F5F5F5F5F5F5F5F5F5F5F5F5F5F5F5F5F5F5F5F5F5F5F5F5F5F5F5F5F5F5F5F5F5F5F5F5F5F5F5F5F5F5F5F5F5F5F5F5F5F5F5F5F5F5F5F5F5F5F5F5F5F5F5F5F5F5F5F5F5F5E2F5F5F5F5F5F5F5F5F5F5F5F5F5F5F5F5E2F5F5F5F5E2E2F5F5F5F5E2F5F5F5F5F5
310
F5F5F5F5F5F5F5F5F5F5F5E2F5F5F5F5F5F5F5F5F5F5F5F5F5F5F5F5F5F5F5F5F5F5F5F5F5F5F5F5F5F5F5F5F5F5F5F5F5F5F5F5F5F5F5F5F5F5F5F5F5F5F5F5F5F5F5F5F5F5F5F5F5F5F5F5F5F5F5F5F5F5F5F5F5F5F5F5F5F5F5F5F5F5F5F5F5F5F5F5F5F5F5F5F5F5F5F5F5F5F5F5F5F5F5F5F5F5F5F5F5F5F5F5F5F5F5
310
F5F5F5F5F5F5F5F5F5F5F5F5F5F5F5F5F5F5F5E2F5F5F5F5F5F5F5F5F5F5F5F5F5F5F5F5E2F5F5F5F5E2E2F5F5F5F5E2F5F5F5F5F5F5F5F5F5F5F5F5F5F5F5F5E2F5F5F5F5F5F5F5F5F5F5F5F5F5F5F5F5F5F5F5F5F5F5F5F5F5F5F5F5F5F5F5F5F5F5F5F5F5F5F5F5F5F5F5F5F5F5F5F5F5F5F5F5F5F5F5F5F5F5F5F5F5F5
310
F5F5F5F5F5F5F5F5F5F5F5F5F5F5F5F5F5F5F5F5F5F5F5F5F5F5F5F5F5F5F5F5F5F5F5F5F5F5F5F5F5F5F5F5F5F5F5F5F5F5F5F5F5F5F5F5F5F5F5F5F5F5F5F5F5F5F5F5F5F5F5F5E2F5F5F5F5F5F5F5F5F5F5F5F5F5F5F5F5E2F5F5F5F5E2E2F5F5F5F5E2F5F5F5F5F5F5F5F5F5F5F5F5F5F5F5F5E2F5F5F5F5F5F5F5F5F5
310
F5F5F5F5F5F5F5F5F5F5F5F5F5F5F5F5F5F5F5F5F5F5F5F5F5F5F5F5F5F5F5F5F5F5F5F5F5F5F5F5F5F5F5F5F5F5F5F5F5F5F5F5F5F5F5F5F5F5F5F5F5F5F5F5F5F5F5F5F5F5F5F5F5F5F5F5F5F5F5F5F5F5F5F5F5F5F5F5F5F5F5F5F5F5F5F5F5F5F5F5F5F5F5F5F5F5F5F5F5F5F5F5F5F5F5F5F5F5F5F5F5F5F5F5F5E2F5
310
F5F5F5F5F5F5F5F5F5F5F5F5F5F5F5E2F5F5F5F5E2E2F5F5F5F5E2F5F5F5F5F5F5F5F5F5F5F5F5F5F5F5F5E2F5F5F5F5F5F5F5F5F5F5F5F5F5F5F5F5F5F5F5F5F5F5F5F5F5F5F5F5F5F5F5F5F5F5F5F5F5F5F5F5F5F5F5F5F5F5F5F5F5F5F5F5F5F5F5F5F5F5F5F5F5F5F5F5F5F5F5F5F5F5F5F5F5F5F5F5F5F5F5F5F5F5F5
310
F5F5F5F5F5F5F5F5F5F5F5F5F5F5F5F5F5F5F5F5F5F5F5F5F5F5F5F5F5F5F5F5F5F5F5F5F5F5F5F5F5F5F5F5F5F5F5F5F5F5F5E2F5F5F5F5F5F5F5F5F5F5F5F5F5F5F5F5E2F5F5F5F5E2E2F5F5F5F5E2F5F5F5F5F5F5F5F5F5F5F5F5F5F5F5F5E2F5F5F5F5F5F5F5F5F5F5F5F5F5F5F5F5F5F5F5F5F5F5F5F5F5F5F5F5F5F5
310
F5F5F5F5F5F5F5F5F5F5F5F5F5F5F5F5F5F5F5F5F5F5F5F5F5F5F5F5F5F5F5F5F5F5F5F5F5F5F5F5F5F5F5F5F5F5F5F5F5F5F5F5F5F5F5F5F5F5F5F5F5F5F5F5F5F5F5F5F5F5F5F5F5F5F5F5F5F5F5F5F5F5F5F5F5F5F5F5F5F5F5F5F5F5F5F5F5F5F5F5F5F5F5F5E2F5F5F5F5F5F5F5F5F5F5F5F5F5F5F5F5E2F5F5F5F5E2
310
E2F5F5F5F5E2F5F5F5F5F5F5F5F5F5F5F5F5F5F5F5F5E2F5F5F5F5F5F5F5F5F5F5F5F5F5F5F5F5F5F5F5F5F5F5F5F5F5F5F5F5F5F5F5F5F5F5F5F5F5F5F5F5F5F5F5F5F5F5F5F5F5F5F5F5F5F5F5F5F5F5F5F5F5F5F5F5F5F5F5F5F5F5F5F5F5F5F5F5F5F5F5F5F5F5F5F5F5F5F5F5F5F5F5F5F5F5F5F5F5F5F5F5F5F5F5F5
310
F5F5F5F5F5F5F5F5F5F5F5F5F5F5F5F5F5F5F5F5F5F5F5F5F5F5F5F5F5F5E2F5F5F5F5F5F5F5F5F5F5F5F5F5F5F5F5E2F5F5F5F5E2E2F5F5F5F5E2F5F5F5F5F5F5F5F5F5F5F5F5F5F5F5F5E2F5F5F5F5F5F5F5F5F5F5F5F5F5F5F5F5F5F5F5F5F5F5F5F5F5F5F5F5F5F5F5F5F5F5F5F5F5F5F5F5F5F5F5F5F5F5F5F5F5F5F5
310
F5F5F5F5F5F5F5F5F5F5F5F5F5F5F5F5F5F5F5F5F5F5F5F5F5F5F5F5F5F5F5F5F5F5F5F5F5F5F5F5F5F5F5F5F5F5F5F5F5F5F5F5F5F5F5F5F5F5F5F5F5F5F5F5F5F5F5F5F5F5F5F5F5F5F5F5F5F5F5F5F5F5F5E2F5F5F5F5F5F5F5F5F5F5F5F5F5F5F5F5E2F5F5F5F5E2E2F5F5F5F5E2F5F5F5F5F5F5F5F5F5F5F5F5F5F5F5
310
F5E2F5F5F5F5F5F5F5F5F5F5F5F5F5F5F5F5F5F5F5F5F5F5F5F5F5F5F5F5F5F5F5F5F5F5F5F5F5F5F5F5F5F5F5F5F5F5F5F5F5F5F5F5F5F5F5F5F5F5F5F5F5F5F5F5F5F5F5F5F5F5F5F5F5F5F5F5F5F5F5F5F5F5F5F5F5F5F5F5F5F5F5F5F5F5F5F5F5F5F5F5F5F5F5F5F5F5F5F5F5F5F5F5F5F5F5F5F5F5F5F5F5F5F5F5F5
310
F5F5F5F5F5F5F5F5F5E2F5F5F5F5F5F5F5F5F5F5F5F5F5F5F5F5E2F5F5F5F5E2E2F5F5F5F5E2F5F5F5F5F5F5F5F5F5F5F5F5F5F5F5F5E2F5F5F5F5F5F5F5F5F5F5F5F5F5F5F5F5F5F5F5F5F5F5F5F5F5F5F5F5F5F5F5F5F5F5F5F5F5F5F5F5F5F5F5F5F5F5F5F5F5F5F5F5F5F5F5F5F5F5F5F5F5F5F5F5F5F5F5F5F5F5F5F5
310
F5F5F5F5F5F5F5F5F5F5F5F5F5F5F5F5F5F5F5F5F5F5F5F5F5F5F5F5F5F5F5F5F5F5F5F5F5F5F5F5F5F5F5F5F5F5F5F5F5F5F5F5F5F5F5F5F5F5F5F5F5F5E2F5F5F5F5F5F5F5F5F5F5F5F5F5F5F5F5E2F5F5F5F5E2E2F5F5F5F5E2F5F5F5F5F5F5F5F5F5F5F5F5F5F5F5F5E2F5F5F5F5F5F5F5F5F5F5F5F5F5F5F5F5F5F5F5
310
F5F5F5F5F5F5F5F5F5F5F5F5F5F5F5F5F5F5F5F5F5F5F5F5F5F5F5F5F5F5F5F5F5F5F5F5F5F5F5F5F5F5F5F5F5F5F5F5F5F5F5F5F5F5F5F5F5F5F5F5F5F5F5F5F5F5F5F5F5F5F5F5F5F5F5F5F5F5F5F5F5F5F5F5F5F5F5F5F5F5F5F5F5F5F5F5F5F5F5F5F5F5F5F5F5F5F5F5F5F5F5F5F5F5F5E2F5F5F5F5F5F5F5F5F5F5F5
310
F5F5F5F5F5E2F5F5F5F5E2E2F5F5F5F5E2F5F5F5F5F5F5F5F5F5F5F5F5F5F5F5F5E2F5F5F5F5F5F5F5F5F5F5F5F5F5F5F5F5F5F5F5F5F5F5F5F5F5F5F5F5F5F5F5F5F5F5F5F5F5F5F5F5F5F5F5F5F5F5F5F5F5F5F5F5F5F5F5F5F5F5F5F5F5F5F5F5F5F5F5F5F5F5F5F5F5F5F5F5F5F5F5F5F5F5F5F5F5F5F5F5F5F5F5F5F5
310
F5F5F5F5F5F5F5F5F5F5F5F5F5F5F5F5F5F5F5F5F5F5F5F5F5F5F5F5F5F5F5F5F5F5F5F5F5F5F5F5F5E2F5F5F5F5F5F5F5F5F5F5F5F5F5F5F5F5E2F5F5F5F5E2E2F5F5F5F5F5F5F5F5F5F5F5F5F5F5F5F5F5F5F5F5F5E2F5F5F5F5F5F5F5F5F5F5F5F5F5F5F5F5F5F5F5F5F5F5F5F5F5F5F5F5F5F5F5F5F5F5F5F5F5F5F5F5
310
F5F5F5F5F5F5F5F5F5F5F5F5F5F5F5F5F5F5F5F5F5F5F5F5F5F5F5F5F5F5F5F5F5F5F5F5F5F5F5F5F5F5F5F5F5F5F5F5F5F5F5F5F5F5F5F5F5F5F5F5F5F5F5F5F5F5F5F5F5F5F5F5F5F5F5F5F5F5F5F5F5F5F5F5F5F5F5F5F5F5F5F5F5F5E2F5F5F5F5F5F5F5F5F5F5F5F5F5F5F5F5F5F5F5F5F5E2E2F5F5F5F5F5F5F5F5F5
310
F5F5F5F5F5F5F5F5F5F5F5F5E2F5F5F5F5F5F5F5F5F5F5F5F5F5F5F5F5F5F5F5F5F5F5F5F5F5F5F5F5F5F5F5F5F5F5F5F5F5F5F5F5F5F5F5F5F5F5F5F5F5F5F5F5F5F5F5F5F5F5F5F5F5F5F5F5F5F5F5F5F5F5F5F5F5F5F5F5F5F5F5F5F5F5F5F5F5F5F5F5F5F5F5F5F5F5F5F5F5F5F5F5F5F5F5F5F5F5F5F5F5F5F5F5F5F5
310
F5F5F5F5F5F5F5F5F5F5F5F5F5F5F5F5F5F5F5F5E2F5F5F5F5F5F5F5F5F5F5F5F5F5F5F5F5F5F5F5F5F5E2E2F5F5F5F5F5F5F5F5F5F5F5F5F5F5F5F5F5F5F5F5F5E2F5F5F5F5F5F5F5F5F5F5F5F5F5F5F5F5F5F5F5F5F5F5F5F5F5F5F5F5F5F5F5F5F5F5F5F5F5F5F5F5F5F5F5F5F5F5F5F5F5F5F5F5F5F5F5F5F5F5F5F5F5
310
F5F5F5F5F5F5F5F5F5F5F5F5F5F5F5F5F5F5F5F5F5F5F5F5F5F5F5F5F5F5F5F5F5F5F5F5F5F5F5F5F5F5F5F5F5F5F5F5F5F5F5F5F5F5F5F5F5F5F5F5F5F5F5F5F5F5F5F5F5F5F5F5F5E2F5F5F5F5F5F5F5F5F5F5F5F5F5F5F5F5F5F5F5F5F5E2E2F5F5F5F5F5F5F5F5F5F5F5F5F5F5F5F5F5F5F5F5F5E2F5F5F5F5F5F5F5F5
310
F5F5F5F5F5F5F5F5F5F5F5F5F5F5F5F5F5F5F5F5F5F5F5F5F5F5F5F5F5F5F5F5F5F5F5F5F5F5F5F5F5F5F5F5F5F5F5F5F5F5F5F5F5F5F5F5F5F5F5F5F5F5F5F5F5F5F5F5F5F5F5F5F5F5F5F5F5F5F5F5F5F5F5F5F5F5F5F5F5F5F5F5F5F5F5F5F5F5DCF5F5F5F5F5F5F5F5F5F5F5F5F5F5F5F5F5F5F5F5F5F5F5F5F5F5F5E2
310
F5F5F5F5F5F5F5F5F5F5F5F5F5F5F5F5F5F5F5F5F5E2E2F5F5F5F5F5F5F5F5F5F5F5F5F5F5F5F5F5F5F5F5F5E2F5F5F5F5F5F5F5F5F5F5F5F5F5F5F5F5F5F5F5F5F5F5F5F5F5F5F5F5F5F5F5F5F5F5F5F5F5F5F5F5F5F5F5F5F5F5F5F5F5F5F5F5F5F5F5F5F5F5F5F5F5F5F5F5F5F5F5F5F5F5F5F5F5F5F5F5F5F5F5F5F5E2
310
ECE2E2E2E2E2E2E2E2E2E2E2E2E2E2E2E2E2E2E2E2E2E2E2DCE2E2E2E2E2E2E2E2E2E2E2E2E2E2E2E2E2E2E2E2E2E2E2ECE2F5F5E2F5F5F5F5F5F5F5F5F5F5F5F5F5F5F5F5F5F5F5F5F5E2E2F5F5F5F5F5F5F5F5F5F5F5F5F5F5F5F5F5F5F5F5F5E2F5F5F5F5F5F5F5F5F5F5F5F5F5F5F5F5F5F5F5F5F5F5F5F5F5F5F5F5F5
310
F5F5F5F5F5F5F5F5F5F5F5F5F5F5F5F5F5F5F5F5F5F5F5F5F5F5F5F5F5F5F5F5F5F5F5F5F5F5F5F5F5F5F5F5F5F5F5F5F5F5F5E2F5F5ECF5F5F5F5F5F5F5F5F5F5F5F5F5F5F5F5F5F5F5F5F5F5DCF5F5F5F5F5F5F5F5F5F5F5F5F5F5F5F5F5F5F5F5F5F5ECF5F5E2F5E2F5F5F5F5F5F5F5F5F5F5F5F5F5F5F5F5F5F5F5F5F5
310
E2E2F5F5F5F5F5F5F5F5F5F5F5F5F5F5F5F5F5F5F5F5F5E2F5F5F5F5F5F5F5F5F5F5F5F5F5F5F5F5F5F5F5F5F5F5F5F5F5F5F5F5F5F5F5F5F5F5F5F5F5F5F5F5F5F5F5F5F5F5F5F5F5F5F5F5F5F5F5F5F5F5F5F5F5F5F5F5F5F5F5F5F5F5F5F5F5F5F5F5F5F5F5E2F5F5F5F5ECF5F5F5F5F5F5F5F5F5F5F5F5F5F5F5F5F5F5
310
F5F5F5DCF5F5F5F5F5F5F5F5F5F5F5F5F5F5F5F5F5F5F5F5F5ECF5F5F5F5E2E2F5F5F5F5F5F5F5F5F5F5F5F5F5F5F5F5F5F5F5F5F5E2E2F5F5F5F5F5F5F5F5F5F5F5F5F5F5F5F5F5F5F5F5F5E2F5F5F5F5F5F5F5F5F5F5F5F5F5F5F5F5F5F5F5F5F5F5F5F5F5F5F5F5F5F5F5F5F5F5F5F5F5F5F5F5F5F5F5F5F5F5F5F5F5F5
310
F5F5F5F5F5F5F5F5F5F5F5F5F5F5F5F5F5F5F5F5F5F5F5F5F5F5F5F5E2E2E2E2E2E2ECE2E2E2E2E2E2E2E2E2ECECECECECECE2ECECECECECDCECECECECECE2ECECECECECECE2E2E2E2E2E2E2E2ECE2E2E2E2E2E2E2F5F5F5F5F5F5F5F5F5F5F5F5F5F5F5F5F5F5F5F5F5E2E2F5F5F5F5F5F5F5F5F5F5F5F5F5F5F5F5F5F5F5
310
F5F5E2F5F5F5F5F5F5F5F5F5F5F5F5F5F5F5F5F5F5F5F5F5F5F5F5F5F5F5F5F5F5F5F5F5F5F5F5F5F5F5F5F5F5F5F5F5F5F5F5F5F5F5F5F5F5F5F5F5F5F5F5F5F5F5F5F5F5F5F5F5F5F5F5F5F5F5F5F5F5E2F5F5F5F5F5F5F5F5F5F5F5F5F5F5F5ECF5F5F5F5F5F5F5F5F5F5F5DCF5F5F5F5F5F5F5F5F5F5ECF5F5F5F5F5F5
310
F5F5F5F5F5F5F5F5F5E2E2F5F5F5F5F5F5F5F5F5F5F5F5F5F5F5F5F5F5F5F5F5E2E2F5F5F5F5E2F5F5F5F5F5F5F5F5F5F5F5F5F5F5F5F5E2F5F5F5F5F5F5F5F5F5F5F5F5F5F5F5F5F5F5F5F5F5F5F5F5F5F5F5F5F5F5F5F5F5F5F5F5F5F5F5F5F5F5F5F5F5F5F5F5F5F5F5F5F5F5F5F5F5F5F5F5F5F5F5F5F5F5F5F5F5F5F5
310
F5F5F5F5F5F5F5E2F5F5F5F5F5F5F5F5F5F5F5F5F5F5F5ECECECECECECECECECECECECECECECECECECECECECECECECF5F5F5F5F5F5F5F5F5F5F5F5F5F5F5E2E2F5F5F5F5F5F5F5F5F5F5F5F5F5F5F5F5E2F5F5F5F5E2E2F5F5F5F5E2F5F5F5F5F5F5F5F5F5F5F5F5F5F5F5F5E2F5F5F5F5F5F5F5F5F5F5F5F5F5F5F5F5F5F5
310
F5F5F5F5F5F5F5F5F5F5F5F5F5F5F5F5F5F5F5F5F5F5F5F5F5F5F5F5F5F5F5F5F5F5F5F5F5F5F5F5F5F5F5F5F5F5F5F5F5F5F5F5F5F5F5F5F5F5F5F5F5E2F5F5F5F5F5F5F5F5F5F5F5F5F5F5F5F5F5F5F5ECF5F5F5F5F5F5DCF5F5F5F5F5ECF5F5F5F5F5F5F5F5F5F5F5F5F5F5F5F5F5F5F5F5E2E2F5F5F5F5F5F5F5F5F5F5
310
F5F5F5F5F5F5E2F5F5F5F5E2E2F5F5F5F5E2F5F5F5F5F5F5F5F5F5F5F5F5F5F5F5F5E2F5F5F5F5F5F5F5F5F5F5F5F5F5F5F5F5F5F5F5F5F5F5F5F5F5F5F5F5F5F5F5F5F5F5F5F5F5F5F5F5F5F5F5F5F5F5F5F5F5F5F5F5F5F5F5F5F5F5F5F5F5F5F5F5F5F5F5F5F5F5F5F5F5F5F5F5F5F5F5F5E2F5F5F5F5F5F5F5F5F5F5F5
310
F5F5F5F5F5ECECECECECECF5ECECECECECF5ECECECECECF5F5F5F5F5F5F5F5F5F5F5F5F5F5F5F5F5E2F5E2F5F5F5F5F5F5F5F5F5F5F5F5F5F5F5F5E2F5F5F5F5E2E2F5F5F5F5E2F5F5F5F5F5F5F5F5F5F5F5F5F5F5F5F5E2F5F5F5F5F5F5F5F5F5F5F5F5F5F5F5F5F5F5F5F5F5F5F5F5F5F5F5F5F5F5F5F5F5F5F5F5F5F5F5
310
F5F5F5F5F5F5F5F5F5F5F5F5F5F5F5F5F5F5F5F5F5F5F5F5F5F5F5F5F5F5F5F5F5F5F5F5F5F5F5F5F5F5E2E2F5F5F5F5F5F5F5F5F5F5F5F5F5F5ECF5F5F5F5F5F5F5F5DCF5F5F5F5F5F5F5ECF5F5F5F5F5F5F5F5F5F5F5F5F5F5F5E2E2F5F5E2F5F5F5F5F5F5F5F5F5F5F5F5F5F5F5F5E2F5F5F5F5E2E2F5F5F5F5E2F5F5F5
310
F5F5F5F5F5F5F5F5F5F5F5F5F5E2F5F5F5F5F5F5F5F5F5F5F5F5F5F5F5F5F5F5F5F5F5F5F5F5F5F5F5F5F5F5F5F5F5F5F5F5F5F5F5F5F5F5F5F5F5F5F5F5F5F5F5F5F5F5F5F5F5F5F5F5F5F5F5F5F5F5F5F5F5F5F5F5F5F5F5F5F5F5F5F5F5F5F5E2F5F5F5F5F5F5F5F5F5F5F5F5F5ECF5F5F5F5F5F5F5F5DCF5F5F5F5F5F5
310
F5ECF5F5F5F5F5F5F5F5F5F5F5F5F5E2E2F5F5F5F5E2F5F5F5F5F5F5F5F5F5F5F5F5F5F5F5F5E2F5F5F5F5E2E2F5F5F5F5E2F5F5F5F5F5F5F5F5F5F5F5F5F5F5F5F5E2F5F5F5F5F5F5F5F5F5F5F5F5F5F5F5F5F5F5F5F5F5F5F5F5F5F5F5F5F5F5F5F5F5F5F5F5F5F5F5F5F5F5F5F5F5F5F5F5F5F5F5F5F5F5F5F5F5F5F5F5
310
F5F5F5F5F5F5F5F5F5F5F5F5F5F5F5F5F5F5F5F5F5F5F5F5E2E2F5F5F5F5F5F5F5F5F5F5F5ECF5F5F5F5F5F5F5F5DCF5F5F5F5F5F5F5ECF5F5F5F5F5F5F5F5F5F5F5F5E2F5F5F5F5F5F5E2F5F5F5F5F5F5F5F5F5F5F5F5F5F5F5F5E2F5F5F5F5E2E2F5F5F5F5E2F5F5F5F5F5F5F5F5F5F5F5F5F5F5F5F5E2F5F5F5F5F5F5F5
310
F5F5F5F5F5F5F5F5F5F5F5F5F5F5F5F5F5F5F5F5F5F5F5F5F5F5F5F5F5F5F5F5F5F5F5F5F5F5F5F5F5F5F5F5F5F5F5F5F5F5F5F5F5F5F5F5F5F5F5F5F5F5F5F5F5F5F5F5F5F5F5F5F5F5F5F5F5F5F5E2F5F5F5F5F5F5F5F5F5F5ECF5F5F5F5F5F5F5F5DCF5F5F5F5F5F5F5ECF5F5F5F5F5F5F5F5F5F5E2E2F5F5F5F5F5F5F5
310
E2F5F5F5F5F5F5F5F5F5F5F5F5F5F5F5F5E2F5F5F5F5E2E2F5F5F5F5E2F5F5F5F5F5F5F5F5F5F5F5F5F5F5F5F5E2F5F5F5F5F5F5F5F5F5F5F5F5F5F5F5F5F5F5F5F5F5F5F5F5F5F5F5F5F5F5F5F5F5F5F5F5F5F5F5F5F5F5F5F5F5F5F5F5F5F5F5F5F5F5F5F5F5F5F5F5F5F5F5F5F5F5F5F5F5F5F5F5F5F5F5F5F5F5F5F5F5
310
F5F5F5F5F5F5E2E2F5F5F5F5F5F5F5F5F5ECECECECECF5ECECECECECF5ECECECECECF5F5F5F5F5F5F5F5E2E2F5F5F5F5F5F5F5F5F5E2F5F5F5F5F5F5F5F5F5F5F5F5F5F5F5F5E2F5F5F5F5E2E2F5F5F5F5E2F5F5F5F5F5F5F5F5F5F5F5F5F5F5F5F5E2F5F5F5F5F5F5F5F5F5F5F5F5F5F5F5F5F5F5F5F5F5F5F5F5F5F5F5F5
310
F5F5F5F5F5F5F5F5F5F5F5F5F5F5F5F5F5F5F5F5F5F5F5F5F5F5F5F5F5F5F5F5F5F5F5F5F5F5F5F5F5F5F5F5F5F5F5F5F5F5F5F5F5F5F5F5F5F5F5F5F5E2E2F5F5F5F5F5F5F5ECF5F5F5F5F5F5F5DCF5F5F5F5F5F5F5ECF5F5F5F5F5F5F5E2F5F5F5F5F5F5F5F5F5F5F5E2F5F5F5F5F5F5F5F5F5F5F5F5F5F5F5F5E2F5F5F5
310
F5E2E2F5F5F5F5E2F5F5F5F5F5F5F5F5F5F5F5F5F5F5F5F5E2F5F5F5F5F5F5F5F5F5F5F5F5F5F5F5F5F5F5F5F5F5F5F5F5F5F5F5F5F5F5F5F5F5F5F5F5F5F5F5F5F5F5F5F5F5F5F5F5F5F5F5F5F5F5F5F5F5F5F5F5F5F5F5F5F5F5F5F5F5F5F5F5F5F5F5F5F5F5F5F5F5F5F5F5F5F5F5F5F5F5E2F5F5F5F5F5F5F5ECF5F5F5
310
F5F5F5F5DCF5F5F5F5F5F5F5ECF5F5F5F5F5F5F5E2F5F5F5F5F5F5F5F5F5F5F5E2F5F5F5F5F5F5F5F5F5F5F5F5F5F5F5F5E2F5F5F5F5E2E2F5F5F5F5E2F5F5F5F5F5F5F5F5F5F5F5F5F5F5F5F5E2F5F5F5F5F5F5F5F5F5F5F5F5F5F5F5F5F5F5F5F5F5F5F5F5F5F5F5F5F5F5F5F5F5F5F5F5F5F5F5F5F5F5F5F5F5F5F5F5F5
310
F5F5F5F5F5F5F5F5F5F5F5F5F5F5F5F5F5F5F5F5F5F5F5F5F5F5F5F5F5F5F5F5F5F5F5F5F5F5F5F5F5E2F5F5F5F5F5F5F5ECF5F5F5F5F5F5F5DCF5F5F5F5F5F5F5ECF5F5F5F5F5F5F5E2F5F5F5F5F5F5F5F5F5F5F5E2F5F5F5F5F5F5F5F5F5F5F5F5F5F5F5F5E2F5F5F5F5E2E2F5F5F5F5E2F5F5F5F5F5F5F5F5F5F5F5F5F5
310
F5F5F5E2F5F5F5F5F5F5F5F5F5F5F5F5F5F5F5F5F5F5F5F5F5F5F5F5F5F5F5F5F5F5F5F5F5F5F5F5F5F5F5F5F5F5F5F5F5F5F5F5F5F5F5F5F5F5F5F5F5F5F5F5F5F5F5F5F5F5F5F5F5F5F5F5F5F5F5F5F5F5F5F5F5F5F5F5F5F5F5F5F5F5E2F5F5F5F5F5F5F5ECF5F5F5F5E2E2E2E2E2E2E2F5F5F5F5ECF5F5F5F5F5F5F5E2
310
F5F5F5F5F5F5F5F5F5F5F5E2F5F5F5F5F5F5F5F5F5F5F5F5F5F5F5F5E2F5F5F5F5E2E2F5F5F5F5E2F5F5F5F5F5F5F5F5F5F5F5F5F5F5F5F5E2F5F5F5F5F5F5F5F5F5F5F5F5F5F5F5F5F5F5F5F5F5F5F5F5F5F5F5F5F5F5F5F5F5F5F5F5F5F5F5F5F5F5F5F5F5F5F5F5F5F5F5F5F5F5F5F5F5F5F5F5F5F5F5F5F5F5F5F5F5F5
310
F5F5F5F5F5F5F5F5F5F5F5F5F5F5F5F5F5F5F5F5E2F5F5F5F5F5F5F5ECECECECECECF5F5DCF5F5ECECECECECECF5F5F5F5F5F5F5E2F5F5F5F5F5F5F5F5F5F5F5E2F5F5F5F5F5F5F5F5F5F5F5F5F5F5F5F5E2F5F5F5F5E2E2F5F5F5F5E2F5F5F5F5F5F5F5F5F5F5F5F5F5F5F5F5E2F5F5F5F5F5F5F5F5F5F5F5F5F5F5F5F5F5
310
F5F5F5F5F5F5F5F5F5F5F5F5F5F5F5F5F5F5F5F5F5F5F5F5F5F5F5F5F5F5F5F5F5F5F5F5F5F5F5F5F5F5F5F5F5F5F5F5F5F5F5F5F5F5F5F5F5F5F5F5F5F5F5F5F5F5F5F5F5F5F5F5F5E2F5F5F5F5F5F5F5ECF5F5F5F5E2F5F5DCF5F5E2F5F5F5F5ECF5F5F5F5F5F5F5E2F5F5F5F5F5F5F5F5F5F5F5E2F5F5F5F5F5F5F5F5F5
310
F5F5F5F5F5F5F5E2F5F5F5F5E2E2F5F5F5F5E2F5F5F5F5F5F5F5F5F5F5F5F5F5F5F5F5E2F5F5F5F5F5F5F5F5F5F5F5F5F5F5F5F5F5F5F5F5F5F5F5F5F5F5F5F5F5F5F5F5F5F5F5F5F5F5F5F5F5F5F5F5F5F5F5F5F5F5F5F5F5F5F5F5F5F5F5F5F5F5F5F5F5F5F5F5F5F5F5F5F5F5F5F5F5F5F5F5F5F5F5F5F5F5F5F5F5F5E2
310
E2E2E2E2E2E2E2E2E2E2E2E2ECF5F5DCF5F5E2E2E2E2E2E2E2E2E2E2E2E2E2E2F5F5F5F5F5F5F5F5F5F5F5E2F5F5F5F5F5F5F5F5F5F5F5F5F5F5F5F5E2F5F5F5F5E2E2F5F5F5F5E2F5F5F5F5F5F5F5F5F5F5F5F5F5F5F5F5E2F5F5F5F5F5F5F5F5F5F5F5F5F5F5F5F5F5F5F5F5F5F5F5F5F5F5F5F5F5F5F5F5F5F5F5F5F5F5
310
F5F5F5F5F5F5F5F5F5F5F5F5F5F5F5F5F5F5F5F5F5F5F5F5F5F5F5F5F5F5F5F5F5F5F5F5F5F5F5F5F5F5F5F5F5F5F5F5F5F5F5F5F5F5F5F5F5F5F5F5F5F5F5F5F5F5F5F5DCF5F5F5F5F5F5F5F5F5F5F5F5F5F5F5F5F5F5F5F5F5F5F5F5F5F5F5E2F5F5F5F5F5F5F5F5F5F5F5F5F5F5F5F5E2F5F5F5F5E2E2F5F5F5F5F5F5F5
310
F5F5F5F5F5F5F5F5F5F5F5F5F5F5E2F5F5F5F5F5F5F5F5F5F5F5F5F5F5F5F5F5F5F5F5F5F5F5F5F5F5F5F5F5F5F5F5F5F5F5F5F5F5F5F5F5F5F5F5F5F5F5F5F5F5F5F5F5F5F5F5F5F5F5F5F5F5F5F5F5F5F5F5F5F5F5F5F5F5F5F5F5F5F5F5F5F5F5F5F5F5F5F5F5F5F5F5F5F5F5F5F5F5F5F5F5F5F5F5F5F5F5F5F5F5F5F5
310
F5F5F5F5F5F5F5F5F5F5F5F5F5F5F5F5F5F5F5F5F5F5E2F5F5F5F5F5F5F5F5F5F5F5F5F5F5F5F5F5F5F5F5F5E2E2F5F5F5F5F5F5F5F5F5F5F5F5F5F5F5F5F5F5F5F5F5E2F5F5F5F5F5F5F5F5F5F5F5F5F5F5F5F5F5F5F5F5F5F5F5F5F5F5F5F5F5F5F5F5F5F5F5F5F5F5F5F5F5F5F5F5F5F5F5F5F5F5F5F5F5F5F5F5F5F5F5
310
F5F5F5F5F5F5F5F5F5F5F5F5F5F5F5F5F5F5F5F5F5F5F5F5F5F5F5F5F5F5F5F5F5F5F5F5F5F5F5F5F5F5F5F5F5F5F5F5F5F5F5F5F5F5F5F5F5F5F5F5F5F5F5F5F5F5F5F5F5F5F5F5F5F5F5E2F5F5F5F5F5F5F5F5F5F5F5F5F5F5F5F5F5F5F5F5F5E2E2F5F5F5F5F5F5F5F5F5F5F5F5F5F5F5F5F5F5F5F5F5E2F5F5F5F5F5F5
310
F5F5F5F5F5F5F5F5F5F5F5F5F5F5F5F5F5F5F5F5F5F5F5F5F5F5F5F5F5F5F5F5F5F5F5F5F5F5F5F5F5F5F5F5F5F5F5F5F5F5F5F5F5F5F5F5F5F5F5F5F5F5F5F5F5F5F5F5F5F5F5F5F5F5F5F5F5F5F5F5F5F5F5F5F5F5F5F5F5F5F5F5F5F5F5F5F5F5F5F5F5F5F5F5F5F5F5F5F5F5F5F5F5F5F5F5F5F5F5F5F5F5F5F5F5F5F5
310
F5E2F5F5F5F5F5F5F5F5F5F5F5F5F5F5F5F5F5F5F5F5F5E2E2F5F5F5F5F5F5F5F5F5F5F5F5F5F5F5F5F5F5F5F5F5E2F5F5F5F5F5F5F5F5F5F5F5F5F5F5F5F5F5F5F5F5F5F5F5F5F5F5F5F5F5F5F5F5F5F5F5F5F5F5F5F5F5F5F5F5F5F5F5F5F5F5F5F5F5F5F5F5F5F5F5F5F5F5F5F5F5F5F5F5F5F5F5F5F5F5F5F5F5F5F5F5
310
F5F5F5F5F5F5F5F5F5F5F5F5F5F5F5F5F5F5F5F5F5F5F5F5F5F5F5F5F5F5F5F5F5F5F5F5F5F5F5F5F5F5F5F5F5F5F5F5F5F5F5F5F5F5E2F5F5F5F5F5F5F5F5F5F5F5F5F5F5F5F5F5F5F5F5F5E2E2F5F5F5F5F5F5F5F5F5F5F5F5F5F5F5F5F5F5F5F5F5E2F5F5F5F5F5F5F5F5F5F5F5F5F5F5F5F5F5F5F5F5F5F5F5F5F5F5F5
310
F5F5F5F5F5F5F5F5F5F5F5F5F5F5F5F5F5F5F5F5F5F5F5F5F5F5F5F5F5F5F5F5F5F5F5F5F5F5F5F5F5F5F5F5F5F5F5F5F5F5F5F5F5F5F5F5F5F5F5F5F5F5F5F5F5F5F5F5F5F5F5F5F5F5F5F5F5F5F5F5F5F5F5F5F5F5F5F5F5F5F5F5F5F5F5F5F5F5F5F5F5F5F5F5F5F5F5E2F5F5F5F5F5F5F5F5F5F5F5F5F5F5F5F5F5F5F5
310
F5F5E2E2F5F5F5F5F5F5F5F5F5F5F5F5F5F5F5F5F5F5F5F5F5E2F5F5F5F5F5F5F5F5F5F5F5F5F5F5F5F5F5F5F5F5F5F5F5F5F5F5F5F5F5F5F5F5F5F5F5F5F5F5F5F5F5F5F5F5F5F5F5F5F5F5F5F5F5F5F5F5F5F5F5F5F5F5F5F5F5F5F5F5F5F5F5F5F5F5F5F5F5F5F5F5F5F5F5F5F5F5F5F5F5F5F5F5F5F5F5F5F5F5F5F5F5
310
F5F5F5F5F5F5F5F5F5F5F5F5F5F5F5F5F5F5F5F5F5F5F5F5F5F5F5F5F5F5F5F5F5E2F5F5F5F5F5F5F5F5F5F5F5F5F5F5F5F5F5F5F5F5F5E2E2F5F5F5F5F5F5F5F5F5F5F5F5F5F5F5F5F5F5F5F5F5E2F5F5F5F5F5F5F5F5F5F5F5F5F5F5F5F5F5F5F5F5F5F5F5F5F5F5F5F5F5F5F5F5F5F5F5F5F5F5F5F5F5F5F5F5F5F5F5F5
310
F5F5F5F5F5F5F5F5F5F5F5F5F5F5F5F5F5F5F5F5F5F5F5F5F5F5F5F5F5F5F5F5F5F5F5F5F5F5F5F5F5F5F5F5F5F5F5F5F5F5F5F5F5F5F5F5F5F5F5F5F5F5F5F5F5F5F5F5F5F5F5F5F5F5F5F5F5F5F5F5F5F5F5F5F5F5E2F5F5F5F5F5F5F5F5F5F5F5F5F5F5F5F5F5F5F5F5F5E2E2F5F5F5F5F5F5F5F5F5F5F5F5F5F5F5F5F5
310
F5F5F5F5E2F5F5F5F5F5F5F5F5F5F5F5F5F5F5F5F5F5F5F5F5F5F5F5F5F5F5F5F5F5F5F5F5F5F5F5F5F5F5F5F5F5F5F5F5F5F5F5F5F5F5F5F5F5F5F5F5F5F5F5F5F5F5F5F5F5F5F5F5F5F5F5F5F5F5F5F5F5F5F5F5F5F5F5F5F5F5F5F5F5F5F5F5F5F5F5F5F5F5F5F5F5F5F5F5F5F5F5F5F5F5F5F5F5F5F5F5F5F5F5F5F5F5
310
F5F5F5F5F5F5F5F5F5F5F5F5E2F5F5F5F5F5F5F5F5F5F5F5F5F5F5F5F5F5F5F5F5F5E2E2F5F5F5F5F5F5F5F5F5F5F5F5F5F5F5F5F5F5F5F5F5E2F5F5F5F5F5F5F5F5F5F5F5F5F5F5F5F5F5F5F5F5F5F5F5F5F5F5F5F5F5F5F5F5F5F5F5F5F5F5F5F5F5F5F5F5F5F5F5F5F5F5F5F5F5F5F5F5F5F5F5F5F5F5F5F5F5F5F5F5F5
310
F5F5F5F5F5F5F5F5F5F5F5F5F5F5F5F5F5F5F5F5F5F5F5F5F5F5F5F5F5F5F5F5F5F5F5F5F5F5F5F5F5F5F5F5F5F5F5F5F5F5F5F5F5F5F5F5F5F5F5F5F5F5F5F5F5E2F5F5F5F5F5F5F5F5F5F5F5F5F5F5F5F5F5F5F5F5F5E2E2F5F5F5F5F5F5F5F5F5F5F5F5F5F5F5F5F5F5F5F5F5E2F5F5F5F5F5F5F5F5F5F5F5F5F5F5F5F5
310
F5F5F5F5F5F5F5F5F5F5F5F5F5F5F5F5F5F5F5F5F5F5F5F5F5F5F5F5F5F5F5F5F5F5F5F5F5F5F5F5F5F5F5F5F5F5F5F5F5F5F5F5F5F5F5F5F5F5F5F5F5F5F5F5F5F5F5F5F5F5F5F5F5F5F5F5F5F5F5F5F5F5F5F5F5F5F5F5F5F5F5F5F5F5F5F5F5F5F5F5F5F5F5F5F5F5F5F5F5F5F5F5F5F5F5F5F5F5E2F5F5F5F5F5F5F5F5
310
F5F5F5F5F5F5F5F5F5F5F5F5F5E2E2F5F5F5F5E2F5F5F5F5F5F5F5F5F5F5F5F5F5F5F5F5E2F5F5F5F5F5F5F5F5F5F5F5F5F5F5F5F5F5F5F5F5F5F5F5F5F5F5F5F5F5F5F5F5F5F5F5F5F5F5F5F5F5F5F5F5F5F5F5F5F5F5F5F5F5F5F5F5F5F5F5F5F5F5F5F5F5F5F5F5F5F5F5F5F5F5F5F5F5F5F5F5F5F5F5F5F5F5F5F5F5F5
310
F5F5F5F5F5F5F5F5F5F5F5F5F5F5F5F5F5F5F5F5F5F5F5F5F5F5F5F5F5F5F5F5F5F5F5F5F5F5F5F5F5F5F5F5E2F5F5F5F5F5F5F5F5F5F5F5F5F5F5F5F5E2F5F5F5F5E2E2F5F5F5F5E2F5F5F5F5F5F5F5F5F5F5F5F5F5F5F5F5E2F5F5F5F5F5F5F5F5F5F5F5F5F5F5F5F5F5F5F5F5F5F5F5F5F5F5F5F5F5F5F5F5F5F5F5F5F5
310
F5F5F5F5F5F5F5F5F5F5F5F5F5F5F5F5F5F5F5F5F5F5F5F5F5F5F5F5F5F5F5F5F5F5F5F5F5F5F5F5F5F5F5F5F5F5F5F5F5F5F5F5F5F5F5F5F5F5F5F5F5F5F5F5F5F5F5F5F5F5F5F5F5F5F5F5F5F5F5F5F5F5F5F5F5F5F5F5F5F5F5F5F5F5F5F5F5E2F5F5F5F5F5F5F5F5F5F5F5F5F5F5F5F5E2F5F5F5F5E2E2F5F5F5F5E2F5
310
F5F5F5F5F5F5F5F5F5F5F5F5F5F5F5E2F5F5F5F5F5F5F5F5F5F5F5F5F5F5F5F5F5F5F5F5F5F5F5F5F5F5F5F5F5F5F5F5F5F5F5F5F5F5F5F5F5F5F5F5F5F5F5F5F5F5F5F5F5F5F5F5F5F5F5F5F5F5F5F5F5F5F5F5F5F5F5F5F5F5F5F5F5F5F5F5F5F5F5F5F5F5F5F5F5F5F5F5F5F5F5F5F5F5F5F5F5F5F5F5F5F5F5F5F5F5F5
310
F5F5F5F5F5F5F5F5F5F5F5F5F5F5F5F5F5F5F5F5F5F5F5E2F5F5F5F5F5F5F5F5F5F5F5F5F5F5F5F5E2F5F5F5F5E2E2F5F5F5F5E2F5F5F5F5F5F5F5F5F5F5F5F5F5F5F5F5E2F5F5F5F5F5F5F5F5F5F5F5F5F5F5F5F5F5F5F5F5F5F5F5F5F5F5F5F5F5F5F5F5F5F5F5F5F5F5F5F5F5F5F5F5F5F5F5F5F5F5F5F5F5F5F5F5F5F5
310
F5F5F5F5F5F5F5F5F5F5F5F5F5F5F5F5F5F5F5F5F5F5F5F5F5F5F5F5F5F5F5F5F5F5F5F5F5F5F5F5F5F5F5F5F5F5F5F5F5F5F5F5F5F5F5F5F5F5F5F5F5F5F5F5F5F5F5F5F5F5F5F5F5F5F5F5E2F5F5F5F5F5F5F5F5F5F5F5F5F5F5F5F5E2F5F5F5F5E2E2F5F5F5F5E2F5F5F5F5F5F5F5F5F5F5F5F5F5F5F5F5E2F5F5F5F5F5
310
F5F5F5F5F5F5F5F5F5F5F5F5F5F5F5F5F5F5F5F5F5F5F5F5F5F5F5F5F5F5F5F5F5F5F5F5F5F5F5F5F5F5F5F5F5F5F5F5F5F5F5F5F5F5F5F5F5F5F5F5F5F5F5F5F5F5F5F5F5F5F5F5F5F5F5F5F5F5F5F5F5F5F5F5F5F5F5F5F5F5F5F5F5F5F5F5F5F5F5F5F5F5F5F5F5F5F5F5F5F5F5F5F5F5F5F5F5F5F5F5F5F5F5F5F5F5F5
310
F5F5E2F5F5F5F5F5F5F5F5F5F5F5F5F5F5F5F5E2F5F5F5F5E2E2F5F5F5F5E2F5F5F5F5F5F5F5F5F5F5F5F5F5F5F5F5E2F5F5F5F5F5F5F5F5F5F5F5F5F5F5F5F5F5F5F5F5F5F5F5F5F5F5F5F5F5F5F5F5F5F5F5F5F5F5F5F5F5F5F5F5F5F5F5F5F5F5F5F5F5F5F5F5F5F5F5F5F5F5F5F5F5F5F5F5F5F5F5F5F5F5F5F5F5F5F5
310
F5F5F5F5F5F5F5F5F5F5F5F5F5F5F5F5F5F5F5F5F5F5F5F5F5F5F5F5F5F5F5F5F5F5F5F5F5F5F5F5F5F5F5F5F5F5F5F5F5F5F5F5F5F5F5E2F5F5F5F5F5F5F5F5F5F5F5F5F5F5F5F5E2F5F5F5F5E2E2F5F5F5F5E2F5F5F5F5F5F5F5F5F5F5F5F5F5F5F5F5E2F5F5F5F5F5F5F5F5F5F5F5F5F5F5F5F5F5F5F5F5F5F5F5F5F5F5
310
F5F5F5F5F5F5F5F5F5F5F5F5F5F5F5F5F5F5F5F5F5F5F5F5F5F5F5F5F5F5F5F5F5F5F5F5F5F5F5F5F5F5F5F5F5F5F5F5F5F5F5F5F5F5F5F5F5F5F5F5F5F5F5F5F5F5F5F5F5F5F5F5F5F5F5F5F5F5F5F5F5F5F5F5F5F5F5F5F5F5F5F5F5F5F5F5F5F5F5F5F5F5F5F5F5F5F5F5E2F5F5F5F5F5F5F5F5F5F5F5F5F5F5F5F5E2F5
310
F5F5F5E2E2F5F5F5F5E2F5F5F5F5F5F5F5F5F5F5F5F5F5F5F5F5E2F5F5F5F5F5F5F5F5F5F5F5F5F5F5F5F5F5F5F5F5F5F5F5F5F5F5F5F5F5F5F5F5F5F5F5F5F5F5F5F5F5F5F5F5F5F5F5F5F5F5F5F5F5F5F5F5F5F5F5F5F5F5F5F5F5F5F5F5F5F5F5F5F5F5F5F5F5F5F5F5F5F5F5F5F5F5F5F5F5F5F5F5F5F5F5F5F5F5F5F5
310
F5F5F5F5F5F5F5F5F5F5F5F5F5F5F5F5F5F5F5F5F5F5F5F5F5F5F5F5F5F5F5F5F5F5E2F5F5F5F5F5F5F5F5F5F5F5F5F5F5F5F5E2F5F5F5F5E2E2F5F5F5F5E2F5F5F5F5F5F5F5F5F5F5F5F5F5F5F5F5E2F5F5F5F5F5F5F5F5F5F5F5F5F5F5F5F5F5F5F5F5F5F5F5F5F5F5F5F5F5F5F5F5F5F5F5F5F5F5F5F5F5F5F5F5F5F5F5
310
F5F5F5F5F5F5F5F5F5F5F5F5F5F5F5F5F5F5F5F5F5F5F5F5F5F5F5F5F5F5F5F5F5F5F5F5F5F5F5F5F5F5F5F5F5F5F5F5F5F5F5F5F5F5F5F5F5F5F5F5F5F5F5F5F5F5F5F5F5F5F5F5F5F5F5F5F5F5F5F5F5F5F5F5F5F5F5E2F5F5F5F5F5F5F5F5F5F5F5F5F5F5F5F5E2F5F5F5F5E2E2F5F5F5F5E2F5F5F5F5F5F5F5F5F5F5F5
310
F5F5F5F5F5E2F5F5F5F5F5F5F5F5F5F5F5F5F5F5F5F5F5F5F5F5F5F5F5F5F5F5F5F5F5F5F5F5F5F5F5F5F5F5F5F5F5F5F5F5F5F5F5F5F5F5F5F5F5F5F5F5F5F5F5F5F5F5F5F5F5F5F5F5F5F5F5F5F5F5F5F5F5F5F5F5F5F5F5F5F5F5F5F5F5F5F5F5F5F5F5F5F5F5F5F5F5F5F5F5F5F5F5F5F5F5F5F5F5F5F5F5F5F5F5F5F5
310
F5F5F5F5F5F5F5F5F5F5F5F5F5E2F5F5F5F5F5F5F5F5F5F5F5F5F5F5F5F5E2F5F5F5F5E2E2F5F5F5F5E2F5F5F5F5F5F5F5F5F5F5F5F5F5F5F5F5E2F5F5F5F5F5F5F5F5F5F5F5F5F5F5F5F5F5F5F5F5F5F5F5F5F5F5F5F5F5F5F5F5F5F5F5F5F5F5F5F5F5F5F5F5F5F5F5F5F5F5F5F5F5F5F5F5F5F5F5F5F5F5F5F5F5F5F5F5
310
F5F5F5F5F5F5F5F5F5F5F5F5F5F5F5F5F5F5F5F5F5F5F5F5F5F5F5F5F5F5F5F5F5F5F5F5F5F5F5F5F5F5F5F5F5F5F5F5F5F5F5F5F5F5F5F5F5F5F5F5F5F5F5F5F5F5E2F5F5F5F5F5F5F5F5F5F5F5F5F5F5F5F5E2F5F5F5F5E2E2F5F5F5F5E2F5F5F5F5F5F5F5F5F5F5F5F5F5F5F5F5E2F5F5F5F5F5F5F5F5F5F5F5F5F5F5F5
310
F5F5F5F5F5F5F5F5F5F5F5F5F5F5F5F5F5F5F5F5F5F5F5F5F5F5F5F5F5F5F5F5F5F5F5F5F5F5F5F5F5F5F5F5F5F5F5F5F5F5F5F5F5F5F5F5F5F5F5F5F5F5F5F5F5F5F5F5F5F5F5F5F5F5F5F5F5F5F5F5F5F5F5F5F5F5F5F5F5F5F5F5F5F5F5F5F5F5F5F5F5F5F5F5F5F5F5F5F5F5F5F5F5F5F5F5F5F5F5E2F5F5F5F5F5F5F5
310
F5F5F5F5F5F5F5F5F5E2F5F5F5F5E2E2F5F5F5F5E2F5F5F5F5F5F5F5F5F5F5F5F5F5F5F5F5E2F5F5F5F5F5F5F5F5F5F5F5F5F5F5F5F5F5F5F5F5F5F5F5F5F5F5F5F5F5F5F5F5F5F5F5F5F5F5F5F5F5F5F5F5F5F5F5F5F5F5F5F5F5F5F5F5F5F5F5F5F5F5F5F5F5F5F5F5F5F5F5F5F5F5F5F5F5F5F5F5F5F5F5F5F5F5F5F5F5
310
F5F5F5F5F5F5F5F5F5F5F5F5F5F5F5F5F5F5F5F5F5F5F5F5F5F5F5F5F5F5F5F5F5F5F5F5F5F5F5F5F5F5F5F5F5E2F5F5F5F5F5F5F5F5F5F5F5F5F5F5F5F5E2F5F5F5F5E2E2F5F5F5F5E2F5F5F5F5F5F5F5F5F5F5F5F5F5F5F5F5E2F5F5F5F5F5F5F5F5F5F5F5F5F5F5F5F5F5F5F5F5F5F5F5F5F5F5F5F5F5F5F5F5F5F5F5F5
310
F5F5F5F5F5F5F5F5F5F5F5F5F5F5F5F5F5F5F5F5F5F5F5F5F5F5F5F5F5F5F5F5F5F5F5F5F5F5F5F5F5F5F5F5F5F5F5F5F5F5F5F5F5F5F5F5F5F5F5F5F5F5F5F5F5F5F5F5F5F5F5F5F5F5F5F5F5F5F5F5F5F5F5F5F5F5F5F5F5F5F5F5F5F5F5F5F5F5E2F5F5F5F5F5F5F5F5F5F5F5F5F5F5F5F5E2F5F5F5F5E2E2F5F5F5F5E2
310
F5F5F5F5F5F5F5F5F5F5F5F5F5F5F5F5E2F5F5F5F5F5F5F5F5F5F5F5F5F5F5F5F5F5F5F5F5F5F5F5F5F5F5F5F5F5F5F5F5F5F5F5F5F5F5F5F5F5F5F5F5F5F5F5F5F5F5F5F5F5F5F5F5F5F5F5F5F5F5F5F5F5F5F5F5F5F5F5F5F5F5F5F5F5F5F5F5F5F5F5F5F5F5F5F5F5F5F5F5F5F5F5F5F5F5F5F5F5F5F5F5F5F5F5F5F5F5
310
F5F5F5F5F5F5F5F5F5F5F5F5F5F5F5F5F5F5F5F5F5F5F5F5E2F5F5F5F5F5F5F5F5F5F5F5F5F5F5F5F5E2F5F5F5F5E2E2F5F5F5F5E2F5F5F5F5F5F5F5F5F5F5F5F5F5F5F5F5E2F5F5F5F5F5F5F5F5F5F5F5F5F5F5F5F5F5F5F5F5F5F5F5F5F5F5F5F5F5F5F5F5F5F5F5F5F5F5F5F5F5F5F5F5F5F5F5F5F5F5F5F5F5F5F5F5F5
310
F5F5F5F5F5F5F5F5F5F5F5F5F5F5F5F5F5F5F5F5F5F5F5F5F5F5F5F5F5F5F5F5F5F5F5F5F5F5F5F5F5F5F5F5F5F5F5F5F5F5F5F5F5F5F5F5F5F5F5F5F5F5F5F5F5F5F5F5F5F5F5F5F5F5F5F5F5E2F5F5F5F5F5F5F5F5F5F5F5F5F5F5F5F5E2F5F5F5F5E2E2F5F5F5F5F5F5F5F5F5F5F5F5F5F5F5F5F5F5F5F5F5E2F5F5F5F5
310
F5F5F5F5F5F5F5F5F5F5F5F5F5F5F5F5F5F5F5F5F5F5F5F5F5F5F5F5F5F5F5F5F5F5F5F5F5F5F5F5F5F5F5F5F5F5F5F5F5F5F5F5F5F5F5F5F5F5F5F5F5F5F5F5F5F5F5F5F5F5F5F5F5F5F5F5F5F5F5F5F5F5F5F5F5F5F5F5F5F5F5F5F5F5F5F5F5F5F5F5F5F5F5F5F5F5F5F5F5F5F5F5F5F5F5F5F5F5F5F5F5F5F5F5F5F5F5
310
F5F5F5E2F5F5F5F5F5F5F5F5F5F5F5F5F5F5F5F5F5F5F5F5F5E2E2F5F5F5F5F5F5F5F5F5F5F5F5F5F5F5F5F5F5F5F5F5E2F5F5F5F5F5F5F5F5F5F5F5F5F5F5F5F5F5F5F5F5F5F5F5F5F5F5F5F5F5F5F5F5F5F5F5F5F5F5F5F5F5F5F5F5F5F5F5F5F5F5F5F5F5F5F5F5F5F5F5F5F5F5F5F5F5F5F5F5F5F5F5F5F5F5F5F5F5F5
310
F5F5F5F5F5F5F5F5F5F5F5F5F5F5F5F5F5F5F5F5F5F5F5F5F5F5F5F5F5F5F5F5F5F5F5F5F5F5F5F5F5F5F5F5F5F5F5F5F5F5F5F5F5F5F5F5E2F5F5F5F5F5F5F5F5F5F5F5F5F5F5F5F5F5F5F5F5F5E2E2F5F5F5F5F5F5F5F5F5F5F5F5F5F5F5F5F5F5F5F5F5E2F5F5F5F5F5F5F5F5F5F5F5F5F5F5F5F5F5F5F5F5F5F5F5F5F5
310
F5F5F5F5F5F5F5F5F5F5F5F5F5F5F5F5F5F5F5F5F5F5F5F5F5F5F5F5F5F5F5F5F5F5F5F5F5F5F5F5F5F5F5F5F5F5F5F5F5F5F5F5F5F5F5F5F5F5F5F5F5F5F5F5F5F5F5F5F5F5F5F5F5F5F5F5F5F5F5F5F5F5F5F5F5F5F5F5F5F5F5F5F5F5F5F5F5F5F5F5F5F5F5F5F5F5F5F5F5E2F5F5F5F5F5F5F5F5F5F5F5F5F5F5F5F5F5
310
F5F5F5F5E2E2F5F5F5F5F5F5F5F5F5F5F5F5F5F5F5F5F5F5F5F5F5E2F5F5F5F5F5F5F5F5F5F5F5F5F5F5F5F5F5F5F5F5F5F5F5F5F5F5F5F5F5F5F5F5F5F5F5F5F5F5F5F5F5F5F5F5F5F5F5F5F5F5F5F5F5F5F5F5F5F5F5F5F5F5F5F5F5F5F5F5F5F5F5F5F5F5F5F5F5F5F5F5F5F5F5F5F5F5F5F5F5F5F5F5F5F5F5F5F5F5F5
310
F5F5F5F5F5F5F5F5F5F5F5F5F5F5F5F5F5F5F5F5F5F5F5F5F5F5F5F5F5F5F5F5F5F5F5E2F5F5F5F5F5F5F5F5F5F5F5F5F5F5F5F5F5F5F5F5F5E2E2F5F5F5F5F5F5F5F5F5F5F5F5F5F5F5F5F5F5F5F5F5E2E2E2E2E2E2E2E2E2E2E2E2E2E2E2E2E2E2E2E2E2E2E2E2E2E2E2E2E2E2E2E2E2E2E2E2E2E2E2E2E2E2E2E2E2E2E2
310
E2E2E2E2E2E2E2E2E2E2E2E2E2E2E2E2E2E2E2E2E2E2E2E2E2E2E2E2E2E2E2E2E2E2E2E2E2E2E2E2E2E2E2E2E2E2E2E2E2E2E2E2E2E2E2E2E2E2E2E2E2E2E2E2E2E2E2E2E2E2E2E2E2E2E2E2E2E2E2E2E2E2E2E2E2E2E2E2E2F5F5F5F5F5F5F5F5F5F5F5F5F5F5F5F5F5F5F5F5F5E2E2F5F5F5F5F5F5F5F5F5F5F5F5F5F5F5
310
F5F5F5F5F5F5F5F5F5F5F5F5F5F5F5F5F5F5F5F5F5F5F5F5F5F5F5F5F5F5F5F5F5F5F5F5F5F5F5F5F5F5F5F5F5F5F5F5F5F5F5F5F5F5F5F5F5F5F5F5F5F5F5F5F5F5F5F5F5F5F5F5F5F5F5F5F5F5F5F5F5F5F5F5F5F5F5F5F5F5F5F5F5F5F5F5F5F5F5F5F5F5F5F5F5F5F5F5F5F5F5F5F5F5F5F5F5F5F5F5F5F5F5F5F5F5F5
310
F5F5F5F5F5F5F5F5F5F5F5F5F5F5F5F5F5F5F5F5F5F5F5F5F5F5F5F5F5F5F5F5F5F5F5F5E2E2F5F5F5F5F5F5F5F5F5F5F5F5F5F5F5F5F5F5F5F5F5F5F5F5F5F5F5F5F5F5F5F5F5F5F5F5F5F5F5F5F5F5F5F5F5F5F5F5F5F5F5F5F5F5F5F5F5F5F5F5F5F5F5F5F5F5F5F5F5F5F5F5F5F5F5F5F5F5F5F5F5F5F5F5F5F5F5F5F5
310
F5F5F5F5F5F5F5F5F5F5F5F5F5F5F5F5F5F5F5F5F5F5F5F5F5F5F5F5F5F5F5F5F5F5F5F5F5F5F5F5F5F5F5F5F5F5F5F5F5F5F5F5F5F5F5F5F5F5F5F5F5F5F5F5F5F5F5F5F5F5F5F5F5F5F5F5F5F5F5F5F5F5F5F5F5F5F5F5F5E2E2F5F5F5F5F5F5F5F5F5F5F5F5F5F5F5F5F5F5F5F5F5F5F5F5F5F5F5F5F5F5F5F5F5F5F5F5
310
F5F5F5F5F5F5F5F5F5F5F5F5F5F5F5F5F5F5F5F5F5F5F5F5F5F5F5F5F5F5F5F5F5F5F5F5F5F5F5F5F5F5F5F5F5F5F5F5F5F5F5F5F5F5F5F5F5F5F5F5F5F5F5F5F5F5F5F5F5F5F5F5F5F5F5F5F5F5F5F5F5F5F5F5F5F5F5F5F5F5F5F5F5F5F5F5F5F5F5F5F5F5F5F5F5F5F5F5F5F5F5F5F5F5F5F5F5F5F5F5F5F5F5F5F5F5F5
310
F5F5F5F5F5F5F5F5F5F5F5F5F5F5F5E2E2F5F5F5F5F5F5F5F5F5F5F5F5F5F5F5F5F5F5F5F5F5F5F5F5F5F5F5F5F5F5F5F5F5F5F5F5F5F5F5F5F5F5F5F5F5F5F5F5F5F5F5F5F5F5F5F5F5F5F5F5F5F5F5F5F5F5F5F5F5F5F5F5F5F5F5F5F5F5F5F5F5F5F5F5F5F5F5F5F5F5F5F5F5F5F5F5F5F5F5F5F5F5F5F5F5F5F5F5F5F5
310
F5F5F5F5F5F5F5F5F5F5F5F5F5F5F5F5F5F5F5F5F5F5F5F5F5F5F5F5F5F5F5F5F5F5F5F5F5F5F5F5F5F5F5F5F5F5F5F5F5F5F5F5F5F5F5F5F5F5F5F5F5F5F5F5F5F5F5F5E2E2F5F5F5F5E2F5F5F5F5F5F5F5F5F5F5F5F5F5F5F5F5F5F5F5F5F5F5F5F5F5F5F5F5F5F5F5F5F5F5F5F5F5F5F5F5F5F5F5F5F5F5F5F5F5F5F5F5
310
F5F5F5F5F5F5F5F5F5F5F5F5F5F5F5F5F5F5F5F5F5F5F5F5F5F5F5F5F5F5F5F5F5F5F5F5F5F5F5F5F5F5F5F5F5F5F5F5F5F5F5F5F5F5F5F5F5F5F5F5F5F5F5F5F5F5F5F5F5F5F5F5F5F5F5F5F5F5F5F5F5F5F5F5F5F5F5F5F5F5F5F5F5F5F5F5F5F5F5F5F5F5F5F5F5F5F5F5F5F5F5F5F5F5F5F5E2F5F5F5F5E2E2F5F5F5F5
310
E2F5F5F5F5F5F5F5F5F5F5F5F5F5F5F5F5F5F5F5F5F5F5F5F5F5F5F5F5F5F5F5F5F5F5F5F5F5F5F5F5F5F5F5F5F5F5F5F5F5F5F5F5F5F5F5F5F5F5F5F5F5F5F5F5F5F5F5F5F5F5F5F5F5F5F5F5F5F5F5F5F5F5F5F5F5F5F5F5F5F5F5F5F5F5F5F5F5F5F5F5F5F5F5F5F5F5F5F5F5F5F5F5F5F5F5F5F5F5F5F5F5F5F5F5F5F5
310
F5F5F5F5F5F5F5F5F5F5F5F5F5F5F5F5F5F5F5F5F5F5F5F5F5F5F5F5F5F5F5F5F5F5F5F5F5F5F5F5F5F5E2F5F5F5F5E2E2F5F5F5F5E2F5F5F5F5F5F5F5F5F5F5F5F5F5F5F5F5F5F5F5F5F5F5F5F5F5F5F5F5F5F5F5F5F5F5F5F5F5F5F5F5F5F5F5F5F5F5F5F5F5F5F5F5F5F5F5F5F5F5F5F5F5F5F5F5F5F5F5F5F5F5F5F5F5
310
F5F5F5F5F5F5F5F5F5F5F5F5F5F5F5F5F5F5F5F5F5F5F5F5F5F5F5F5F5F5F5F5F5F5F5F5F5F5F5F5F5F5F5F5F5F5F5F5F5F5F5F5F5F5F5F5F5F5F5F5F5F5F5F5F5F5F5F5F5F5F5F5F5F5F5F5F5F5F5F5F5F5F5F5F5F5F5F5F5F5F5F5F5F5F5E2F5F5F5F5E2E2F5F5F5F5E2F5F5F5F5F5F5F5F5F5F5F5F5F5F5F5F5F5F5F5F5
310
F5F5F5F5F5F5F5F5F5F5F5F5F5F5F5F5F5F5F5F5F5F5F5F5F5F5F5F5F5F5F5F5F5F5F5F5F5F5F5F5F5F5F5F5F5F5F5F5F5F5F5F5F5F5F5F5F5F5F5F5F5F5F5F5F5F5F5F5F5F5F5F5F5F5F5F5F5F5F5F5F5F5F5F5F5F5F5F5F5F5F5F5F5F5F5F5F5F5F5F5F5F5F5F5F5F5F5F5F5F5F5F5F5F5F5F5F5F5F5F5F5F5F5F5F5F5F5
310
F5F5F5F5F5F5F5F5F5F5F5F5F5F5F5F5F5F5F5F5F5E2F5F5F5F5E2E2F5F5F5F5E2F5F5F5F5F5F5F5F5F5F5F5F5F5F5F5F5F5F5F5F5F5F5F5F5F5F5F5F5F5F5F5F5F5F5F5F5F5F5F5F5F5F5F5F5F5F5F5F5F5F5F5F5F5F5F5F5F5F5F5F5F5F5F5F5F5F5F5F5F5F5F5F5F5F5F5F5F5F5F5F5F5F5F5F5F5F5F5F5F5F5F5F5F5F5
310
F5F5F5F5F5F5F5F5F5F5F5F5F5F5F5F5F5F5F5F5F5F5F5F5F5F5F5F5F5F5F5F5F5F5F5F5F5F5F5F5F5F5F5F5F5F5F5F5F5F5F5F5F5F5F5F5F5F5F5F5F5F5F5F5F5F5F5F5F5F5F5F5F5F5E2F5F5F5F5E2E2F5F5F5F5E2F5F5F5F5F5F5F5F5F5F5F5F5F5F5F5F5F5F5F5F5F5F5F5F5F5F5F5F5F5F5F5F5F5F5F5F5F5F5F5F5F5
310
F5F5F5F5F5F5F5F5F5F5F5F5F5F5F5F5F5F5F5F5F5F5F5F5F5F5F5F5F5F5F5F5F5F5F5F5F5F5F5F5F5F5F5F5F5F5F5F5F5F5F5F5F5F5F5F5F5F5F5F5F5F5F5F5F5F5F5F5F5F5F5F5F5F5F5F5F5F5F5F5F5F5F5F5F5F5F5F5F5F5F5F5F5F5F5F5F5F5F5F5F5F5F5F5F5F5F5F5F5F5F5F5F5F5F5F5F5F5F5F5F5F5F5F5F5F5F5
310
E2F5F5F5F5E2E2F5F5F5F5E2F5F5F5F5F5F5F5F5F5F5F5F5F5F5F5F5F5F5F5F5F5F5F5F5F5F5F5F5F5F5F5F5F5F5F5F5F5F5F5F5F5F5F5F5F5F5F5F5F5F5F5F5F5F5F5F5F5F5F5F5F5F5F5F5F5F5F5F5F5F5F5F5F5F5F5F5F5F5F5F5F5F5F5F5F5F5F5F5F5F5F5F5F5F5F5F5F5F5F5F5F5F5F5F5F5F5F5F5F5F5F5F5F5F5F5
310
F5F5F5F5F5F5F5F5F5F5F5F5F5F5F5F5F5F5F5F5F5F5F5F5F5F5F5F5F5F5F5F5F5F5F5F5F5F5F5F5F5F5F5F5F5F5F5F5F5F5F5F5F5E2F5F5F5F5E2E2F5F5F5F5E2F5F5F5F5F5F5F5F5F5F5F5F5F5F5F5F5F5F5F5F5F5F5F5F5F5F5F5F5F5F5F5F5F5F5F5F5F5F5F5F5F5F5F5F5F5F5F5F5F5F5F5F5F5F5F5F5F5F5F5F5F5F5
310
F5F5F5F5F5F5F5F5F5F5F5F5F5F5F5F5F5F5F5F5F5F5F5F5F5F5F5F5F5F5F5F5F5F5F5F5F5F5F5F5F5F5F5F5F5F5F5F5F5F5F5F5F5F5F5F5F5F5F5F5F5F5F5F5F5F5F5F5F5F5F5F5F5F5F5F5F5F5F5F5F5F5F5F5F5F5F5F5F5F5F5F5F5F5F5F5F5F5F5F5F5F5F5F5F5F5E2F5F5F5F5E2E2F5F5F5F5E2E2E2E2E2E2E2E2F5F5
310
F5F5F5F5F5F5F5E2E2E2E2E2E2E2E2E2E2E2E2E2E2E2F5F5F5F5F5F5F5F5F5E2E2E2E2E2E2E2E2E2E2E2E2E2E2E2E2F5F5F5F5F5F5F5F5E2E2E2E2E2E2E2E2E2E2E2E2E2E2E2E2F5F5F5F5F5F5F5F5E2E2E2E2E2E2E2E2E2E2E2E2E2E2E2E2F5F5F5F5F5F5F5F5E2E2E2E2E2E2E2E2E2E2E2E2E2E2E2E2F5F5F5F5F5F5F5F5
310
F5E2E2E2E2E2E2E2E2E2E2E2E2E2E2E2F5F5F5F5F5F5F5F5F5E2E2E2E2E2E2E2E2F5F5F5F5E2E2F5F5F5F5F5F5F5F5F5F5F5F5F5F5F5F5F5F5F5F5F5F5F5F5F5F5F5F5F5F5F5F5F5F5F5F5F5F5F5F5F5F5F5F5F5F5F5F5F5F5F5F5F5F5F5F5F5F5F5F5F5F5F5F5F5F5F5F5F5F5F5F5F5F5F5F5F5F5F5F5F5F5F5F5F5F5F5F5
310
F5F5F5F5F5F5F5F5F5F5F5F5F5F5F5F5F5F5F5F5F5F5F5F5F5F5F5F5F5F5F5F5F5F5F5F5F5F5F5F5F5F5F5F5F5F5F5F5F5F5F5F5F5F5F5F5F5F5F5F5F5F5F5F5F5F5F5F5F5F5F5F5F5F5F5F5F5F5F5F5F5F5F5F5F5F5F5F5F5F5E2E2F5F5F5F5F5F5F5F5F5F5F5F5F5F5F5F5F5F5F5F5F5F5F5F5F5F5F5F5F5F5F5F5F5F5F5
310
F5F5F5F5F5F5F5F5F5F5F5F5F5F5F5F5F5F5F5F5F5F5F5F5F5F5F5F5F5F5F5F5F5F5F5F5F5F5F5F5F5F5F5F5F5F5F5F5F5F5F5F5F5F5F5F5F5F5F5F5F5F5F5F5F5F5F5F5F5F5F5F5F5F5F5F5F5F5F5F5F5F5F5F5F5F5F5F5F5F5F5F5F5F5F5F5F5F5F5F5F5F5F5F5F5F5F5F5F5F5F5F5F5F5F5F5F5F5F5F5F5F5F5F5F5F5F5
310
F5F5F5F5F5F5F5F5F5F5F5F5F5F5F5F5E2E2F5F5F5F5F5F5F5F5F5F5F5F5F5F5F5F5F5F5F5F5F5F5F5F5F5F5F5F5F5F5F5F5F5F5F5F5F5F5F5F5F5F5F5F5F5F5F5F5F5F5F5F5F5F5F5F5F5F5F5F5F5F5F5F5F5F5F5F5F5F5F5F5F5F5F5F5F5F5F5F5F5F5F5F5F5F5F5F5F5F5F5F5F5F5F5F5F5F5F5F5F5F5F5F5F5F5F5F5F5
310
F5F5F5F5F5F5F5F5F5F5F5F5F5F5F5F5F5F5F5F5F5F5F5F5F5F5F5F5F5F5F5F5F5F5F5F5F5F5F5F5F5F5F5F5F5F5F5F5F5F5F5F5F5F5F5F5F5F5F5F5F5F5F5F5F5F5F5F5F5E2E2E2E2E2E2E2E2E2E2E2E2E2E2E2E2E2E2E2E2E2E2E2E2E2E2E2E2E2E2E2E2E2E2E2E2E2E2E2E2E2E2E2E2E2E2E2E2E2E2E2E2E2E2E2E2E2E2
310
E2E2E2E2E2E2E2E2E2E2E2E2E2E2E2E2E2E2E2E2E2E2E2E2E2E2E2E2E2E2E2E2E2E2E2E2E2E2E2E2E2E2E2E2E2E2E2E2E2E2E2E2E2E2E2E2E2E2E2E2E2E2E2E2E2E2E2E2E2E2E2E2E2E2E2E2E2E2E2E2E2E2E2E2E2E2E2E2E2E2E2E2E2E2E2E2E2E2E2E2E2E2E2E2E2E2E2E2E2E2E2E2E2E2E2E2E2E2E2E2E2E2E2EFEFEFEF
310
EFEFEFEFEFEFEFEFEFEFEFEFEFEFEFEFEFEFEFEFEFEFEFEFEFEFEFEFEFEFEFEFEFEFEFEFEFEFEFEFEFEFEFEFEFEFEFEFEFEFEFEFEFEFEFEFEFEFEFEFEFEFEFEFEFEFEFEFEFEFEFEFEFEFEFEFEFEFEFEFEFEFEFEFEFEFEFEFEFEFEFEFEFEFEFEFEFEFEFEFEFEFEFEFEFEFEFEFEFEFEFEFEFEFEFEFEFEFEFEFEFEFEFEFEFEFEF
310
EFEFEFEFEFEFEFEFEFEFEFEFEFEFEFEFEFEFEFEFEFEFEFEFEFEFEFEFEFEFEFEFEFEFEFEFEFEFEFEFEFEFEFEFEFEFEFEFEF
  0
XRECORD
  5
56190
102
{ACAD_REACTORS
330
B5
102
}
330
B5
100
AcDbXrecord
280
     1
102
SHADEPLOT
 70
     0
102
SHADEPLOTRESLEVEL
 70
     2
102
SHADEPLOTCUSTOMDPI
 70
   300
  0
XRECORD
  5
B6
102
{ACAD_REACTORS
330
B5
102
}
330
B5
100
AcDbXrecord
280
     1
310
28000000B40000008B0000000100080000000000BC610000000000000000000000010000000000000000000000000000FFFFFF000000000000000000000000000000000000000000000000000000000000000000330000006600000099000000CC000000FF00000000330000333300006633000099330000CC330000FF3300
310
0000660000336600006666000099660000CC660000FF66000000990000339900006699000099990000CC990000FF99000000CC000033CC000066CC000099CC0000CCCC0000FFCC000000FF000033FF000066FF000099FF0000CCFF0000FFFF000000003300330033006600330099003300CC003300FF003300003333003333
310
33006633330099333300CC333300FF33330000663300336633006666330099663300CC663300FF66330000993300339933006699330099993300CC993300FF99330000CC330033CC330066CC330099CC3300CCCC3300FFCC330000FF330033FF330066FF330099FF3300CCFF3300FFFF330000006600330066006600660099
310
006600CC006600FF00660000336600333366006633660099336600CC336600FF33660000666600336666006666660099666600CC666600FF66660000996600339966006699660099996600CC996600FF99660000CC660033CC660066CC660099CC6600CCCC6600FFCC660000FF660033FF660066FF660099FF6600CCFF6600
310
FFFF660000009900330099006600990099009900CC009900FF00990000339900333399006633990099339900CC339900FF33990000669900336699006666990099669900CC669900FF66990000999900339999006699990099999900CC999900FF99990000CC990033CC990066CC990099CC9900CCCC9900FFCC990000FF99
310
0033FF990066FF990099FF9900CCFF9900FFFF99000000CC003300CC006600CC009900CC00CC00CC00FF00CC000033CC003333CC006633CC009933CC00CC33CC00FF33CC000066CC003366CC006666CC009966CC00CC66CC00FF66CC000099CC003399CC006699CC009999CC00CC99CC00FF99CC0000CCCC0033CCCC0066CC
310
CC0099CCCC00CCCCCC00FFCCCC0000FFCC0033FFCC0066FFCC0099FFCC00CCFFCC00FFFFCC000000FF003300FF006600FF009900FF00CC00FF00FF00FF000033FF003333FF006633FF009933FF00CC33FF00FF33FF000066FF003366FF006666FF009966FF00CC66FF00FF66FF000099FF003399FF006699FF009999FF00CC
310
99FF00FF99FF0000CCFF0033CCFF0066CCFF0099CCFF00CCCCFF00FFCCFF0000FFFF0033FFFF0066FFFF0099FFFF00CCFFFF00FFFFFF00000000000D0D0D001A1A1A00282828003535350043434300505050005D5D5D006B6B6B00787878008686860093939300A1A1A100AEAEAE00BBBBBB00C9C9C900D6D6D600E4E4E400
310
F1F1F100FFFFFF0000000000000000000000000000000000000000000000000000000000000000000000000000000000F5F5F5F5F5F5F5F5F5F5F5F5F5F5F5F5F5F5F5F5F5F5F5F5F5F5F5F5F5F5F5F5F5F5F5F5F5F5F5F5F5F5F5F5F5F5F5F5F5F5F5F5F5F5F5F5F5F5F5F5F5F5F5F5F5F5F5F5F5F5F5F5F5F5F5F5F5F5F5
310
F5F5F5F5F5F5F5F5F5F5F5F5F5F5F5F5F5F5F5F5F5F5F5F5F5F5F5F5F5F5F5F5F5F5F5F5F5F5F5F5F5F5F5F5F5F5F5F5F5F5F5F5F5F5F5F5F5F5F5F5F5F5F5F5F5F5F5F5F5F5F5F5F5F5F5F5F5F5F5F5F5F5F5F5F5F5F5F5F5F5F5F5F5F5F5F5F5F5F5F5F5F5E2E2E2E2E2E2E2E2E2E2E2E2E2E2E2E2E2E2E2E2E2E2E2E2E2
310
E2E2E2E2E2E2E2E2E2E2E2E2E2E2E2E2E2E2E2E2E2E2E2E2E2E2E2E2E2E2E2E2E2E2E2E2E2E2E2E2E2E2E2E2E2E2E2E2E2E2E2E2E2E2E2E2E2E2E2E2E2E2E2E2E2E2E2E2E2E2E2E2E2E2E2E2E2E2E2E2E2E2E2E2E2E2E2E2E2E2E2E2E2E2E2E2E2E2E2E2E2E2E2E2E2E2E2E2E2E2E2E2E2E2E2E2E2E2E2E2E2E2E2E2E2E2E2
310
E2E2E2E2E2E2E2E2E2E2E2E2E2E2E2E2E2E2E2E2E2E2E2E2E2E2F5F5E2E2E2E2E2E2E2E2E2E2E2E2E2E2E2E2E2E2E2E2E2E2E2E2E2E2E2E2E2E2E2E2E2E2E2E2E2E2E2E2E2E2E2E2E2E2E2E2E2E2E2E2E2E2E2E2E2E2E2E2E2E2E2E2E2E2E2E2E2E2E2E2E2E2E2E2E2E2E2E2E2E2E2E2E2E2E2E2E2E2E2E2E2E2E2E2E2E2E2
310
E2E2E2E2E2E2E2E2E2E2E2E2E2E2E2E2E2E2E2E2E2E2E2E2E2E2E2E2E2E2E2E2E2E2E2E2E2E2E2E2E2E2E2E2E2E2E2E2E2E2E2E2E2E2E2E2E2E2E2E2E2E2E2E2E2E2E2E2E2E2E2E2E2E2E2E2E2E2E2F5F5E2E2E2E2E2E2E2E2E2E2E2E2E2E2E2E2E2E2E2E2E2E2E2E2E2E2E2E2E2E2E2E2E2E2E2E2E2E2E2E2E2E2E2E2E2E2
310
E2E2E2E2E2E2E2E2E2E2E2E2E2E2E2E2E2E2E2E2E2E2E2E2E2E2E2E2E2E2E2E2E2E2E2E2E2E2E2E2E2E2E2E2E2E2E2E2E2E2E2E2E2E2E2E2E2E2E2E2E2E2E2E2E2E2E2E2E2E2E2E2E2E2E2E2E2E2E2E2E2E2E2E2E2E2E2E2E2E2E2E2E2E2E2E2E2E2E2E2E2E2E2E2E2E2E2E2E2E2E2E2E2E2E2E2E2E2E2E2E2E2E2E2E2E2E2
310
E2E2E2E2E2F5F5E2E2E2E2E2E2E2E2E2E2E2E2E2E2E2E2E2E2E2E2E2E2E2E2E2E2E2E2E2E2E2E2E2E2E2E2E2E2E2E2E2E2E2E2E2E2E2E2E2E2E2E2E2E2E2E2E2E2E2E2E2E2E2E2E2E2E2E2E2E2E2E2E2E2E2E2E2E2E2E2E2E2E2E2E2E2E2E2E2E2E2E2E2E2E2E2E2E2E2E2E2E2E2E2E2E2E2E2E2E2E2E2E2E2E2E2E2E2E2E2
310
E2E2E2E2E2E2E2E2E2E2E2E2E2E2E2E2E2E2E2E2E2E2E2E2E2E2E2E2E2E2E2E2E2E2E2E2E2E2E2E2E2E2E2E2E2E2E2E2E2E2E2E2E2E2E2E2E2E2F5F5E2E2E2F5F5F5F5F5F5F5F5E2E2E2E2E2E2E2E2E2F5F5F5F5F5F5F5F5F5F5F5F5F5F5F5F5E2E2E2E2E2E2E2E2E2F5F5F5F5F5F5F5F5F5F5F5F5F5F5F5E2E2E2E2E2E2E2
310
E2E2F5F5F5F5F5F5F5F5F5F5F5F5F5F5F5F5E2E2E2E2E2E2E2E2F5F5F5F5F5F5F5F5F5F5F5F5F5F5F5F5E2E2E2E2E2E2E2E2E2F5F5F5F5F5F5F5F5F5F5F5F5F5F5F5E2E2E2E2E2E2E2E2E2F5F5F5F5F5F5F5F5F5F5F5F5F5F5F5F5E2E2E2E2E2E2E2E2E2F5F5F5F5F5F5F5F5E2E2E2F5F5E2E2E2F5E2E2E2E2E2E2E2E2E2E2
310
E2E2E2E2E2E2E2E2E2E2E2E2E2E2E2E2E2E2E2E2E2E2E2E2E2E2E2E2E2E2E2E2E2E2E2E2E2E2E2E2E2E2E2E2E2E2E2E2E2E2E2E2E2E2E2E2E2E2E2E2E2E2E2E2E2E2E2E2E2E2E2E2E2E2E2E2E2E2E2E2E2E2E2E2E2E2E2E2E2E2E2E2E2E2E2E2E2E2E2E2E2E2E2E2E2E2E2E2E2E2E2E2E2E2E2E2E2E2E2E2E2E2E2E2E2E2E2
310
E2E2E2E2E2E2E2E2E2E2E2E2E2E2E2E2E2E2E2E2E2E2E2E2E2E2E2E2E2E2E2E2E2F5E2E2E2F5F5E2E2E2F5E2E2E2E2E2E2E2E2E2E2E2E2E2E2E2E2E2E2E2E2E2E2E2E2E2E2E2E2E2E2E2E2E2E2E2E2E2E2E2E2E2E2E2E2E2E2E2E2E2E2E2E2E2E2E2E2E2E2E2E2E2E2E2E2E2E2E2E2E2E2E2E2E2E2E2E2E2E2E2E2E2E2E2E2
310
E2E2E2E2E2E2E2E2E2E2E2E2E2E2E2E2E2E2E2E2E2E2E2E2E2E2E2E2E2E2E2E2E2E2E2E2E2E2E2E2E2E2E2E2E2E2E2E2E2E2E2E2E2E2E2E2E2E2E2E2E2E2E2E2E2E2E2E2E2E2E2E2E2E2E2E2E2E2E2E2E2E2E2E2E2E2F5E2E2E2F5F5E2E2E2F5E2E2E2E2E2E2E2E2E2E2E2E2E2E2E2E2E2E2E2E2E2E2E2E2E2E2E2E2E2E2E2
310
E2E2E2E2E2E2E2E2E2E2E2E2E2E2E2E2E2E2E2E2E2E2E2E2E2E2E2E2E2E2E2E2E2E2E2E2E2E2E2E2E2E2E2E2E2E2E2E2E2E2E2E2E2E2E2E2E2E2E2E2E2E2E2E2E2E2E2E2E2E2E2E2E2E2E2E2E2E2E2E2E2E2E2E2E2E2E2E2E2E2E2E2E2E2E2E2E2E2E2E2E2E2E2E2E2E2E2E2E2E2E2E2E2E2E2E2E2E2E2E2E2E2E2E2E2E2E2
310
E2E2E2E2E2E2E2E2E2E2E2E2F5E2E2E2F5F5E2E2E2F5E2E2E2E2E2E2E2E2E2E2E2E2E2E2E2E2E2E2E2E2E2E2E2E2E2E2E2E2E2E2E2E2E2E2E2E2E2E2E2E2E2E2E2E2E2E2E2E2E2E2E2E2E2E2E2E2E2E2E2E2E2E2E2E2E2E2E2E2E2E2E2E2E2E2E2E2E2E2E2E2E2E2E2E2E2E2E2E2E2E2E2E2E2E2E2E2E2E2E2E2E2E2E2E2E2
310
E2E2E2E2E2E2E2E2E2E2E2E2E2E2E2E2E2E2E2E2E2E2E2E2E2E2E2E2E2E2E2E2E2E2E2E2E2E2E2E2E2E2E2E2E2E2E2E2E2E2E2E2E2E2E2E2E2E2E2E2E2E2E2E2E2F5E2E2E2F5F5E2E2E2F5E2E2E2E2E2E2E2E2E2E2E2E2E2E2E2E2E2E2E2E2E2E2E2E2E2E2E2E2E2E2E2E2E2E2E2E2E2E2E2E2E2E2E2E2E2E2E2E2E2E2E2E2
310
E2E2E2E2E2E2E2E2E2E2E2E2E2E2E2E2E2E2E2E2E2E2E2E2E2E2E2E2E2E2E2E2E2E2E2E2E2E2E2E2E2E2E2E2E2E2E2E2E2E2E2E2E2E2E2E2E2E2E2E2E2E2E2E2E2E2E2E2E2E2E2E2E2E2E2E2E2E2E2E2E2E2E2E2E2E2E2E2E2E2E2E2E2E2E2E2E2E2E2E2E2E2E2E2E2E2E2E2E2E2E2E2E2E2E2E2E2E2F5E2E2E2F5F5E2E2E2
310
F5E2E2E2E2E2E2E2E2E2E2E2E2E2E2E2E2E2E2E2E2E2E2E2E2E2E2E2E2E2E2E2E2E2E2E2E2E2E2E2E2E2E2E2E2E2E2E2E2E2E2E2E2E2E2E2E2E2E2E2E2E2E2E2E2E2E2E2E2E2E2E2E2E2E2E2E2E2E2E2E2E2E2E2E2E2E2E2E2E2E2E2E2E2E2E2E2E2E2E2E2E2E2E2E2E2E2E2E2E2E2E2E2E2E2E2E2E2E2E2E2E2E2E2E2E2E2
310
E2E2E2E2E2E2E2E2E2E2E2E2E2E2E2E2E2E2E2E2E2E2E2E2E2E2E2E2E2E2E2E2E2E2E2E2E2E2E2E2E2E2E2E2F5E2E2E2F5F5E2E2E2F5E2E2E2E2E2E2E2E2E2E2E2E2E2E2E2E2E2E2E2E2E2E2E2E2E2E2E2E2E2E2E2E2E2E2E2E2E2E2E2E2E2E2E2E2E2E2E2E2E2E2E2E2E2E2E2E2E2E2E2E2E2E2E2E2E2E2E2E2E2E2E2E2E2
310
E2E2E2E2E2E2E2E2E2E2E2E2E2E2E2E2E2E2E2E2E2E2E2E2E2E2E2E2E2E2E2E2E2E2E2E2E2E2E2E2E2E2E2E2E2E2E2E2E2E2E2E2E2E2E2E2E2E2E2E2E2E2E2E2E2E2E2E2E2E2E2E2E2E2E2E2E2E2E2E2E2E2E2E2E2E2E2E2E2E2E2E2E2E2E2E2E2F5E2E2E2F5F5E2E2E2F5E2E2E2E2E2E2E2E2E2E2E2E2E2E2E2E2E2E2E2E2
310
E2E2E2E2E2E2E2E2E2E2E2E2E2E2E2E2E2E2E2E2E2E2E2E2E2E2E2E2E2E2E2E2E2E2E2E2E2E2E2E2E2E2E2E2E2E2E2E2E2E2E2E2E2E2E2E2E2E2E2E2E2E2E2E2E2E2E2E2E2E2E2E2E2E2E2E2E2E2E2E2E2E2E2E2E2E2E2E2E2E2E2E2E2E2E2E2E2E2E2E2E2E2E2E2E2E2E2E2E2E2E2E2E2E2E2E2E2E2E2E2E2E2E2E2E2E2E2
310
E2E2E2E2E2E2E2E2E2E2E2E2E2E2E2E2E2E2E2E2E2E2E2F5E2E2E2F5F5E2E2E2E2E2E2E2E2E2E2E2E2E2E2E2E2E2E2E2E2E2E2E2E2E2E2E2E2E2E2E2E2E2E2E2E2E2E2E2E2E2E2E2E2E2E2E2E2E2E2E2E2E2E2E2E2E2E2E2E2E2E2E2E2E2E2E2E2E2E2E2E2E2E2E2E2E2E2E2E2E2E2E2E2E2E2E2E2E2E2E2E2E2E2E2E2E2E2
310
E2E2E2E2E2E2E2E2E2E2E2E2E2E2E2E2E2E2E2E2E2E2E2E2E2E2E2E2E2E2E2E2E2E2E2E2E2E2E2E2E2E2E2E2E2E2E2E2E2E2E2E2E2E2E2E2E2E2E2E2E2E2E2E2E2E2E2E2E2E2E2E2E2E2E2E2E2E2E2E2F5F5E2E2E2E2E2E2E2E2E2E2E2E2E2E2E2E2E2E2E2E2E2E2E2E2E2E2E2E2E2E2E2E2E2E2E2E2E2E2E2E2E2E2E2E2E2
310
E2E2E2E2E2E2E2E2E2E2E2E2E2E2E2E2E2E2E2E2E2E2E2E2E2E2E2E2E2E2E2E2E2E2E2E2E2E2E2E2E2E2E2E2E2E2E2E2E2E2E2E2E2E2E2E2E2E2E2E2E2E2E2E2E2E2E2E2E2E2E2E2E2E2E2E2E2E2E2E2E2E2E2E2E2E2E2E2E2E2E2E2E2E2E2E2E2E2E2E2E2E2E2E2E2E2E2E2E2E2E2E2E2E2E2E2E2E2E2E2E2E2E2E2E2E2E2
310
E2E2E2E2E2E2F5F5E2E2E2E2E2E2E2E2E2E2E2E2E2E2E2E2E2E2E2E2E2E2E2E2E2E2E2E2E2E2E2E2E2E2E2E2E2E2E2E2E2E2E2E2E2E2E2E2E2E2E2E2E2E2E2E2E2E2E2E2E2E2E2E2E2E2E2E2E2E2E2E2E2E2E2E2E2E2E2E2E2E2E2E2E2E2E2E2E2E2E2E2E2E2E2E2E2E2E2E2E2E2E2E2E2E2E2E2E2E2E2E2E2E2E2E2E2E2E2
310
E2E2E2E2E2E2E2E2E2E2E2E2E2E2E2E2E2E2E2E2E2E2E2E2E2E2E2E2E2E2E2E2E2E2E2E2E2E2E2E2E2E2E2E2E2E2E2E2E2E2E2E2E2E2E2E2E2E2E2F5F5E2E2E2E2E2E2E2E2E2E2E2E2E2E2E2E2E2E2E2E2E2E2E2E2E2E2E2E2E2E2E2E2E2E2E2E2E2E2E2E2E2E2E2E2E2E2E2E2E2E2E2E2E2E2E2E2E2E2E2E2E2E2E2E2E2E2
310
E2E2E2E2E2E2E2E2E2E2E2E2E2E2E2E2E2E2E2E2E2E2E2E2E2E2E2E2E2E2E2E2E2E2E2E2E2E2E2E2E2E2E2E2E2E2E2E2E2E2E2E2E2E2E2E2E2E2E2E2E2E2E2E2E2E2E2E2E2E2E2E2E2E2E2E2E2E2E2E2E2E2E2E2E2E2E2E2E2E2E2E2E2E2E2E2E2E2E2E2E2E2E2E2E2E2E2E2E2E2E2E2F5F5E2E2E2E2E2E2E2E2E2E2E2E2E2
310
E2E2E2E2E2E2E2F5F5F5F5F5F5F5F5F5F5F5F5F5F5F5F5F5F5F5F5F5F5F5F5F5F5F5F5F5F5F5F5F5F5F5F5F5F5F5F5F5F5F5F5F5F5F5F5F5F5F5F5F5F5F5F5F5F5F5F5F5F5F5F5F5F5F5F5F5F5F5F5F5F5F5F5F5F5F5F5F5F5F5F5F5F5F5F5F5F5F5F5F5F5F5F5F5F5F5F5F5F5F5F5F5F5F5F5F5F5F5F5F5F5F5F5F5F5F5F5
310
F5F5F5F5F5F5F5F5F5F5F5F5F5F5F5F5F5F5E2E2E2E2E2E2E2E2E2E2E2E2E2E2E2E2E2E2E2E2F5F5E2E2E2E2E2E2E2E2E2E2E2E2E2E2E2E2E2E2E2E2F5E2E2E2E2E2E2E2E2E2E2E2E2E2E2E2E2E2E2E2E2E2E2E2E2E2E2E2E2E2E2E2E2E2E2E2E2E2E2E2E2E2E2E2E2E2E2E2E2E2E2E2E2E2E2E2E2E2E2E2E2E2E2E2E2E2E2
310
E2E2E2E2E2E2E2E2E2E2E2E2E2E2E2E2E2E2E2E2E2E2E2E2E2E2E2E2E2E2E2E2E2E2E2E2E2E2E2E2E2E2E2E2E2E2E2E2E2E2E2E2E2E2E2E2E2E2E2E2E2E2E2E2E2E2E2E2E2E2F5E2E2E2E2E2E2E2E2E2E2E2E2E2E2E2E2E2E2E2E2F5F5E2E2E2E2E2E2E2E2E2E2E2E2E2E2E2E2E2E2E2E2F5E2E2E2E2E2E2E2E2E2E2E2E2E2
310
E2E2E2E2E2E2E2E2E2E2E2E2E2E2E2E2E2E2E2E2E2E2E2E2E2E2E2E2E2E2E2E2E2E2E2E2E2E2E2E2E2E2E2E2E2E2E2E2E2E2E2E2E2E2E2E2E2E2E2E2E2E2E2E2E2E2E2E2E2E2E2E2E2E2E2E2E2E2E2E2E2E2E2E2E2E2E2E2E2E2E2E2E2E2E2E2E2E2E2E2E2E2E2E2E2E2E2E2E2E2E2E2E2E2E2E2E2E2E2E2E2E2E2F5E2E2E2
310
E2E2E2E2E2E2E2E2E2E2E2E2E2E2E2E2E2F5F5E2E2E2E2E2E2E2E2E2E2E2E2E2E2E2E2E2E2E2E2F5E2E2E2E2E2E2E2E2E2E2E2E2E2E2E2E2E2E2E2E2E2E2E2E2E2E2E2E2E2E2E2E2E2E2E2E2E2E2E2E2E2E2E2E2E2E2E2E2E2E2E2E2E2E2E2E2E2E2E2E2E2E2E2E2E2E2E2E2E2E2E2E2E2E2E2E2E2E2E2E2E2E2E2E2E2E2E2
310
E2E2E2E2E2E2E2E2E2E2E2E2E2E2E2E2E2E2E2E2E2E2E2E2E2E2E2E2E2E2E2E2E2E2E2E2E2E2E2E2E2E2E2E2E2E2E2E2E2F5E2E2E2E2E2E2E2E2E2E2E2E2E2E2E2E2E2E2E2E2F5F5E2E2E2E2E2E2E2E2E2E2E2E2E2E2E2E2E2E2E2E2F5E2E2E2E2E2E2E2E2E2E2E2E2E2E2E2E2E2E2E2E2E2E2E2E2E2E2E2E2E2E2E2E2E2E2
310
E2E2E2E2E2E2E2E2E2E2E2E2E2E2E2E2E2E2E2E2E2E2E2E2E2E2E2E2E2E2E2E2E2E2E2E2E2E2E2E2E2E2E2E2E2E2E2E2E2E2E2E2E2E2E2E2E2E2E2E2E2E2E2E2E2E2E2E2E2E2E2E2E2E2E2E2E2E2E2E2E2E2E2E2E2E2E2E2E2E2E2E2E2E2E2E2E2E2E2E2E2E2F5E2E2E2E2E2E2E2E2E2E2E2E2E2E2E2E2E2E2E2E2F5F5E2E2
310
E2F5E2E2E2E2E2E2E2E2E2E2E2E2E2E2E2E2F5E2E2E2E2E2E2E2E2E2E2E2E2E2E2E2E2E2E2E2E2E2E2E2E2E2E2E2E2E2E2E2E2E2E2E2E2E2E2E2E2E2E2E2E2E2E2E2E2E2E2E2E2E2E2E2E2E2E2E2E2E2E2E2E2E2E2E2E2E2E2E2E2E2E2E2E2E2E2E2E2E2E2E2E2E2E2E2E2E2E2E2E2E2E2E2E2E2E2E2E2E2E2E2E2E2E2E2E2
310
E2E2E2E2E2E2E2E2E2E2E2E2E2E2E2E2E2E2E2E2E2E2E2E2E2E2E2E2F5E2E2E2E2E2E2E2E2E2E2E2E2E2E2E2E2F5E2E2E2F5F5E2E2E2F5E2E2E2E2E2E2E2E2E2E2E2E2E2E2E2E2F5E2E2E2E2E2E2E2E2E2E2E2E2E2E2E2E2E2E2E2E2E2E2E2E2E2E2E2E2E2E2E2E2E2E2E2E2E2E2E2E2E2E2E2E2E2E2E2E2E2E2E2E2E2E2E2
310
E2E2E2E2E2E2E2E2E2E2E2E2E2E2E2E2E2E2E2E2E2E2E2E2E2E2E2E2E2E2E2E2E2E2E2E2E2E2E2E2E2E2E2E2E2E2E2E2E2E2E2E2E2E2E2E2E2E2E2E2E2E2E2E2E2E2E2E2E2E2E2E2E2E2E2E2E2E2E2E2E2F5E2E2E2E2E2E2E2E2E2E2E2E2E2E2E2E2F5E2E2E2F5F5E2E2E2F5E2E2E2E2E2E2E2E2E2E2E2E2E2E2E2E2F5E2E2
310
E2E2E2E2E2E2E2E2E2E2E2E2E2E2E2E2E2E2E2E2E2E2E2E2E2E2E2E2E2E2E2E2E2E2E2E2E2E2E2E2E2E2E2E2E2E2E2E2E2E2E2E2E2E2E2E2E2E2E2E2E2E2E2E2E2E2E2E2E2E2E2E2E2E2E2E2E2E2E2E2E2E2E2E2E2E2E2E2E2E2E2E2E2E2E2E2E2E2E2E2E2E2E2E2E2E2E2E2E2E2E2E2E2E2E2E2E2E2E2E2E2E2E2E2E2E2E2
310
E2E2E2E2E2E2E2F5E2E2E2E2E2E2E2E2E2E2E2E2E2E2E2E2F5E2E2E2F5F5E2E2E2F5E2E2E2E2E2E2E2E2E2E2E2E2E2E2E2E2F5E2E2E2E2E2E2E2E2E2E2E2E2E2E2E2E2E2E2E2E2E2E2E2E2E2E2E2E2E2E2E2E2E2E2E2E2E2E2E2E2E2E2E2E2E2E2E2E2E2E2E2E2E2E2E2E2E2E2E2E2E2E2E2E2E2E2E2E2E2E2E2E2E2E2E2E2
310
E2E2E2E2E2E2E2E2E2E2E2E2E2E2E2E2E2E2E2E2E2E2E2E2E2E2E2E2E2E2E2E2E2E2E2E2E2E2E2E2E2E2E2E2E2E2E2E2E2E2E2E2E2E2E2E2E2E2E2E2F5E2E2E2E2E2E2E2E2E2E2E2E2E2E2E2E2F5E2E2E2F5F5E2E2E2F5E2E2E2E2E2E2E2E2E2E2E2E2E2E2E2E2F5E2E2E2E2E2E2E2E2E2E2E2E2E2E2E2E2E2E2E2E2E2E2E2
310
E2E2E2E2E2E2E2E2E2E2E2E2E2E2E2E2E2E2E2E2E2E2E2E2E2E2E2E2E2E2E2E2E2E2E2E2E2E2E2E2E2E2E2E2E2E2E2E2E2E2E2E2E2E2E2E2E2E2E2E2E2E2E2E2E2E2E2E2E2E2E2E2E2E2E2E2E2E2E2E2E2E2E2E2E2E2E2E2E2E2E2E2E2E2E2E2E2E2E2E2E2E2E2E2E2E2E2E2E2E2E2E2E2F5E2E2E2E2E2E2E2E2E2E2E2E2E2
310
E2E2E2F5E2E2E2F5F5E2E2E2F5E2E2E2E2E2E2E2E2E2E2E2E2E2E2E2E2F5E2E2E2E2E2E2E2E2E2E2E2E2E2E2E2E2E2E2E2E2E2E2E2E2E2E2E2E2E2E2E2E2E2E2E2E2E2E2E2E2E2E2E2E2E2E2E2E2E2E2E2E2E2E2E2E2E2E2E2E2E2E2E2E2E2E2E2E2E2E2E2E2E2E2E2E2E2E2E2E2E2E2E2E2E2E2E2E2E2E2E2E2E2E2E2E2E2
310
E2E2E2E2E2E2E2E2E2E2E2E2E2E2E2E2E2E2E2E2E2E2E2E2E2E2E2E2E2E2E2E2E2E2E2E2E2E2E2F5E2E2E2E2E2E2E2E2E2E2E2E2E2E2E2E2F5E2E2E2F5F5E2E2E2F5E2E2E2E2E2E2E2E2E2E2E2E2E2E2E2E2F5E2E2E2E2E2E2E2E2E2E2E2E2E2E2E2E2E2E2E2E2E2E2E2E2E2E2E2E2E2E2E2E2E2E2E2E2E2E2E2E2E2E2E2E2
310
E2E2E2E2E2E2E2E2E2E2E2E2E2E2E2E2E2E2E2E2E2E2E2E2E2E2E2E2E2E2E2E2E2E2E2E2E2E2E2E2E2E2E2E2E2E2E2E2E2E2E2E2E2E2E2E2E2E2E2E2E2E2E2E2E2E2E2E2E2E2E2E2E2E2E2E2E2E2E2E2E2E2E2E2E2E2E2E2E2E2E2E2F5E2E2E2E2E2E2E2E2E2E2E2E2E2E2E2E2F5E2E2E2F5F5E2E2E2F5E2E2E2E2E2E2E2E2
310
E2E2E2E2E2E2E2E2F5E2E2E2E2E2E2E2E2E2E2E2E2E2E2E2E2E2E2E2E2E2E2E2E2E2E2E2E2E2E2E2E2E2E2E2E2E2E2E2E2E2E2E2E2E2E2E2E2E2E2E2E2E2E2E2E2E2E2E2E2E2E2E2E2E2E2E2E2E2E2E2E2E2E2E2E2E2E2E2E2E2E2E2E2E2E2E2E2E2E2E2E2E2E2E2E2E2E2E2E2E2E2E2E2E2E2E2E2E2E2E2E2E2E2E2E2E2E2
310
E2E2E2E2E2E2E2E2E2E2E2E2E2E2E2E2E2E2F5E2E2E2E2E2E2E2E2E2E2E2E2E2E2E2E2F5E2E2E2F5F5E2E2E2F5E2E2E2E2E2E2E2E2E2E2E2E2E2E2E2E2F5E2E2E2E2E2E2E2E2E2E2E2E2E2E2E2E2E2E2E2E2E2E2E2E2E2E2E2E2E2E2E2E2E2E2E2E2E2E2E2E2E2E2E2E2E2E2E2E2E2E2E2E2E2E2E2E2E2E2E2E2E2E2E2E2E2
310
E2E2E2E2E2E2E2E2E2E2E2E2E2E2E2E2E2E2E2E2E2E2E2E2E2E2E2E2E2E2E2E2E2E2E2E2E2E2E2E2E2E2E2E2E2E2E2E2E2E2E2E2E2E2E2E2E2E2E2E2E2E2E2E2E2E2E2E2E2E2E2F5E2E2E2E2E2E2E2E2E2E2E2E2E2E2E2E2F5E2E2E2F5F5E2E2E2F5E2E2E2E2E2E2E2E2E2E2E2E2E2E2E2E2F5E2E2E2E2E2E2E2E2E2E2E2E2
310
E2E2E2E2E2E2E2E2E2E2E2E2E2E2E2E2E2E2E2E2E2E2E2E2E2E2E2E2E2E2E2E2E2E2E2E2E2E2E2E2E2E2E2E2E2E2E2E2E2E2E2E2E2E2E2E2E2E2E2E2E2E2E2E2E2E2E2E2E2E2E2E2E2E2E2E2E2E2E2E2E2E2E2E2E2E2E2E2E2E2E2E2E2E2E2E2E2E2E2E2E2E2E2E2E2E2E2E2E2E2E2E2E2E2E2E2E2E2E2E2E2E2E2E2F5E2E2
310
E2E2E2E2E2E2E2E2E2E2E2E2E2E2F5E2E2E2F5F5E2E2E2F5E2E2E2E2E2E2E2E2E2E2E2E2E2E2E2E2F5E2E2E2E2E2E2E2E2E2E2E2E2E2E2E2E2E2E2E2E2E2E2E2E2E2E2E2E2E2E2E2E2E2E2E2E2E2E2E2E2E2E2E2E2E2E2E2E2E2E2E2E2E2E2E2E2E2E2E2E2E2E2E2E2E2E2E2E2E2E2E2E2E2E2E2E2E2E2E2E2E2E2E2E2E2E2
310
E2E2E2E2E2E2E2E2E2E2E2E2E2E2E2E2E2E2E2E2E2E2E2E2E2E2E2E2E2E2E2E2E2E2E2E2E2E2E2E2E2E2E2E2E2E2E2E2E2E2F5E2E2E2E2E2E2E2E2E2E2E2E2E2E2E2E2F5E2E2E2F5F5E2E2E2F5E2E2E2E2E2E2E2E2E2E2E2E2E2E2E2E2F5E2E2E2E2E2E2E2E2E2E2E2E2E2E2E2E2E2E2E2E2E2E2E2E2E2E2E2E2E2E2E2E2E2
310
E2E2E2E2E2E2E2E2E2E2E2E2E2E2E2E2E2E2E2E2E2E2E2E2E2E2E2E2E2E2E2E2E2E2E2E2E2E2E2E2E2E2E2E2E2E2E2E2E2E2E2E2E2E2E2E2E2E2E2E2E2E2E2E2E2E2E2E2E2E2E2E2E2E2E2E2E2E2E2E2E2E2E2E2E2E2E2E2E2E2E2E2E2E2E2E2E2E2E2E2E2E2E2F5E2E2E2E2E2E2E2E2E2E2E2E2E2E2E2E2F5E2E2E2F5F5E2
310
E2E2F5E2E2E2E2E2E2E2E2E2E2E2E2E2E2E2E2F5E2E2E2E2E2E2E2E2E2E2E2E2E2E2E2E2E2E2E2E2E2E2E2E2E2E2E2E2E2E2E2E2E2E2E2E2E2E2E2E2E2E2E2E2E2E2E2E2E2E2E2E2E2E2E2E2E2E2E2E2E2E2E2E2E2E2E2E2E2E2E2E2E2E2E2E2E2E2E2E2E2E2E2E2E2E2E2E2E2E2E2E2E2E2E2E2E2E2E2E2E2E2E2E2E2E2E2
310
E2E2E2E2E2E2E2E2E2E2E2E2E2E2E2E2E2E2E2E2E2E2E2E2E2E2E2E2E2F5E2E2E2E2E2E2E2E2E2E2E2E2E2E2E2E2F5E2E2E2F5F5E2E2E2F5E2E2E2E2E2E2E2E2E2E2E2E2E2E2E2E2F5E2E2E2E2E2E2E2E2E2E2E2E2E2E2E2E2E2E2E2E2E2E2E2E2E2E2E2E2E2E2E2E2E2E2E2E2E2E2E2E2E2E2E2E2E2E2E2E2E2E2E2E2E2E2
310
E2E2E2E2E2E2E2E2E2E2E2E2E2E2E2E2E2E2E2E2E2E2E2E2E2E2E2E2E2E2E2E2E2E2E2E2E2E2E2E2E2E2E2E2E2E2E2E2E2E2E2E2E2E2E2E2E2E2E2E2E2E2E2E2E2E2E2E2E2E2E2E2E2E2E2E2E2E2E2E2E2E2F5E2E2E2E2E2E2E2E2E2E2E2E2E2E2E2E2F5E2E2E2F5F5E2E2E2F5E2E2E2E2E2E2E2E2E2E2E2E2E2E2E2E2F5E2
310
E2E2E2E2E2E2E2E2E2E2E2E2E2E2E2E2E2E2E2E2E2E2E2E2E2E2E2E2E2E2E2E2E2E2E2E2E2E2E2E2E2E2E2E2E2E2E2E2E2E2E2E2E2E2E2E2E2E2E2E2E2E2E2E2E2E2E2E2E2E2E2E2E2E2E2E2E2E2E2E2E2E2E2E2E2E2E2E2E2E2E2E2E2E2E2E2E2E2E2E2E2E2E2E2E2E2E2E2E2E2E2E2E2E2E2E2E2E2E2E2E2E2E2E2E2E2E2
310
E2E2E2E2E2E2E2E2F5E2E2E2E2E2E2E2E2E2E2E2E2E2E2E2E2F5E2E2E2F5F5E2E2E2F5E2E2E2E2E2E2E2E2E2E2E2E2E2E2E2E2F5E2E2E2E2E2E2E2E2E2E2E2E2E2E2E2E2E2E2E2E2E2E2E2E2E2E2E2E2E2E2E2E2E2E2E2E2E2E2E2E2E2E2E2E2E2E2E2E2E2E2E2E2E2E2E2E2E2E2E2E2E2E2E2E2E2E2E2E2E2E2E2E2E2E2E2
310
E2E2E2E2E2E2E2E2E2E2E2E2E2E2E2E2E2E2E2E2E2E2E2E2E2E2E2E2E2E2E2E2E2E2E2E2E2E2E2E2E2E2E2E2E2E2E2E2E2E2E2E2E2E2E2E2E2E2E2E2E2F5E2E2E2E2E2E2E2E2E2E2E2E2E2E2E2E2F5E2E2E2F5F5E2E2E2F5E2E2E2E2E2E2E2E2E2E2E2E2E2E2E2E2F5E2E2E2E2E2E2E2E2E2E2E2E2E2E2E2E2E2E2E2E2E2E2
310
E2E2E2E2E2E2E2E2E2E2E2E2E2E2E2E2E2E2E2E2E2E2E2E2E2E2E2E2E2E2E2E2E2E2E2E2E2E2E2E2E2E2E2E2E2E2E2E2E2E2E2E2E2E2E2E2E2E2E2E2E2E2E2E2E2E2E2E2E2E2E2E2E2E2E2E2E2E2E2E2E2E2E2E2E2E2E2E2E2E2E2E2E2E2E2E2E2E2E2E2E2E2E2E2E2E2E2E2E2E2E2E2E2E2F5E2E2E2E2E2E2E2E2E2E2E2E2
310
E2E2E2E2F5E2E2E2F5F5E2E2E2E2E2E2E2E2E2E2E2E2E2E2E2E2E2E2E2E2F5E2E2E2E2E2E2E2E2E2E2E2E2E2E2E2E2E2E2E2E2E2E2E2E2E2E2E2E2E2E2E2E2E2E2E2E2E2E2E2E2E2E2E2E2E2E2E2E2E2E2E2E2E2E2E2E2E2E2E2E2E2E2E2E2E2E2E2E2E2E2E2E2E2E2E2E2E2E2E2E2E2E2E2E2E2E2E2E2E2E2E2E2E2E2E2E2
310
E2E2E2E2E2E2E2E2E2E2E2E2E2E2E2E2E2E2E2E2E2E2E2E2E2E2E2E2E2E2E2E2E2E2E2E2E2E2E2E2F5E2E2E2E2E2E2E2E2E2E2E2E2E2E2E2E2E2E2E2E2F5F5E2E2E2E2E2E2E2E2E2E2E2E2E2E2E2E2E2E2E2E2F5E2E2E2E2E2E2E2E2E2E2E2E2E2E2E2E2E2E2E2E2E2E2E2E2E2E2E2E2E2E2E2E2E2E2E2E2E2E2E2E2E2E2E2
310
E2E2E2E2E2E2E2E2E2E2E2E2E2E2E2E2E2E2E2E2E2E2E2E2E2E2E2E2E2E2E2E2E2E2E2E2E2E2E2E2E2E2E2E2E2E2E2E2E2E2E2E2E2E2E2E2E2E2E2E2E2E2E2E2E2E2E2E2E2E2E2E2E2E2E2E2E2E2E2E2E2E2E2E2E2E2E2E2E2E2E2E2E2F5E2E2E2E2E2E2E2E2E2E2E2E2E2E2E2E2E2E2E2E2F5F5E2E2E2E2E2E2E2E2E2E2E2
310
E2E2E2E2E2E2E2E2E2F5E2E2E2E2E2E2E2E2E2E2E2E2E2E2E2E2E2E2E2E2E2E2E2E2E2E2E2E2E2E2E2E2E2E2E2E2E2E2E2E2E2E2E2E2E2E2E2E2E2E2E2E2E2E2E2E2E2E2E2E2E2E2E2E2E2E2E2E2E2E2E2E2E2E2E2E2E2E2E2E2E2E2E2E2E2E2E2E2E2E2E2E2E2E2E2E2E2E2E2E2E2E2E2E2E2E2E2E2E2E2E2E2E2E2E2E2E2
310
E2E2E2E2E2E2E2E2E2E2E2E2E2E2E2E2E2E2E2F5E2E2E2E2E2E2E2E2E2E2E2E2E2E2E2E2E2E2E2E2F5F5E2E2E2E2E2E2E2E2E2E2E2E2E2E2E2E2E2E2E2E2F5E2E2E2E2E2E2E2E2E2E2E2E2E2E2E2E2E2E2E2E2E2E2E2E2E2E2E2E2E2E2E2E2E2E2E2E2E2E2E2E2E2E2E2E2E2E2E2E2E2E2E2E2E2E2E2E2E2E2E2E2E2E2E2E2
310
E2E2E2E2E2E2E2E2E2E2E2E2E2E2E2E2E2E2E2E2E2E2E2E2E2E2E2E2E2E2E2E2E2E2E2E2E2E2E2E2E2E2E2E2E2E2E2E2E2E2E2E2E2E2E2E2E2E2E2E2E2E2E2E2E2E2E2E2E2E2E2E2F5E2E2E2E2E2E2E2E2E2E2E2E2E2E2E2E2E2E2E2E2F5F5E2E2E2E2E2E2E2E2E2E2E2E2E2E2E2E2E2E2E2E2F5E2E2E2E2E2E2E2E2E2E2E2
310
E2E2E2E2E2E2E2E2E2E2E2E2E2E2E2E2E2E2E2E2E2E2E2E2E2E2E2E2E2E2E2E2E2E2E2E2E2E2E2E2E2E2E2E2E2E2E2E2E2E2E2E2E2E2E2E2E2E2E2E2E2E2E2E2E2E2E2E2E2E2E2E2E2E2E2E2E2E2E2E2E2E2E2E2E2E2E2E2E2E2E2E2E2E2E2E2E2E2E2E2E2E2E2E2E2E2E2E2E2E2E2E2E2E2E2E2E2E2E2E2E2E2E2E2E2F5E2
310
E2E2E2E2E2E2E2E2E2E2E2E2E2E2E2E2E2E2E2F5F5E2E2E2E2E2E2E2E2E2E2E2E2E2E2E2E2E2E2E2E2F5E2E2E2E2E2E2E2E2E2E2E2E2E2E2E2E2E2E2E2E2E2E2E2E2E2E2E2E2E2E2E2E2E2E2E2E2E2E2E2E2E2E2E2E2E2E2E2E2E2E2E2E2E2E2E2E2E2E2E2E2E2E2E2E2E2E2E2E2E2E2E2E2E2E2E2E2E2E2E2E2E2E2E2E2E2
310
E2E2E2E2E2E2E2E2E2E2E2E2E2E2E2E2E2E2E2E2E2E2E2E2E2E2E2E2E2E2E2E2E2E2E2E2E2E2E2E2E2E2E2E2E2E2E2E2E2E2E2F5E2E2E2E2E2E2E2E2E2E2E2E2E2E2E2E2E2E2E2E2F5F5E2E2E2E2E2E2E2E2E2E2E2E2E2E2E2E2E2E2E2E2F5E2E2E2E2E2E2E2E2E2E2E2E2E2E2E2E2E2E2E2E2E2E2E2E2E2E2E2E2E2E2E2E2
310
E2E2E2E2E2E2E2E2E2E2E2E2E2E2E2E2E2E2E2E2E2E2E2E2E2E2E2E2E2E2E2E2E2E2E2E2E2E2E2E2E2E2E2E2E2E2E2E2E2E2E2E2E2E2E2E2E2E2E2E2E2E2E2E2E2E2E2E2E2E2E2E2E2E2E2E2E2E2E2E2E2E2E2E2E2E2E2E2E2E2E2E2E2E2E2E2E2E2E2E2E2E2E2E2F5E2E2E2E2E2E2E2E2E2E2E2E2E2E2E2E2E2E2E2E2F5F5
310
E2E2E2E2E2E2E2E2E2E2E2E2E2E2E2E2E2E2E2E2F5E2E2E2E2E2E2E2E2E2E2E2E2E2E2E2E2E2E2E2E2E2E2E2E2E2E2E2E2E2E2E2E2E2E2E2E2E2E2E2E2E2E2E2E2E2E2E2E2E2E2E2E2E2E2E2E2E2E2E2E2E2E2E2E2E2E2E2E2E2E2E2E2E2E2E2E2E2E2E2E2E2E2E2E2E2E2E2E2E2E2E2E2E2E2E2E2E2E2E2E2E2E2E2E2E2E2
310
E2E2E2E2E2E2E2E2E2E2E2E2E2E2E2E2E2E2E2E2E2E2E2E2E2E2E2E2E2E2F5E2E2E2E2E2E2E2E2E2E2E2E2E2E2E2E2E2E2E2E2F5F5E2E2E2E2E2E2E2E2E2E2E2E2E2E2E2E2E2E2E2E2F5E2E2E2E2E2E2E2E2E2E2E2E2E2E2E2E2E2E2E2E2E2E2E2E2E2E2E2E2E2E2E2E2E2E2E2E2E2E2E2E2E2E2E2E2E2E2E2E2E2E2E2E2E2
310
E2E2E2E2E2E2E2E2E2E2E2E2E2E2E2E2E2E2E2E2E2E2E2E2E2E2E2E2E2E2E2E2E2E2E2E2E2E2E2E2E2E2E2E2E2E2E2E2E2E2E2E2E2E2E2E2E2E2E2E2E2E2E2E2E2E2E2E2E2E2E2E2E2E2E2E2E2E2E2E2E2E2E2F5E2E2E2E2E2E2E2E2E2E2E2E2E2E2E2E2E2E2E2E2F5F5E2E2E2F5E2E2E2E2E2E2E2E2E2E2E2E2E2E2E2E2F5
310
E2E2E2E2E2E2E2E2E2E2E2E2E2E2E2E2E2E2E2E2E2E2E2E2E2E2E2E2E2E2E2E2E2E2E2E2E2E2E2E2E2E2E2E2E2E2E2E2E2E2E2E2E2E2E2E2E2E2E2E2E2E2E2E2E2E2E2E2E2E2E2E2E2E2E2E2E2E2E2E2E2E2E2E2E2E2E2E2E2E2E2E2E2E2E2E2E2E2E2E2E2E2E2E2E2E2E2E2E2E2E2E2E2E2E2E2E2E2E2E2E2E2E2E2E2E2E2
310
E2E2E2E2E2E2E2E2E2F5E2E2E2E2E2E2E2E2E2E2E2E2E2E2E2E2F5E2E2E2F5F5E2E2E2F5E2E2E2E2E2E2E2E2E2E2E2E2E2E2E2E2F5E2E2E2E2E2E2E2E2E2E2E2E2E2E2E2E2E2E2E2E2E2E2E2E2E2E2E2E2E2E2E2E2E2E2E2E2E2E2E2E2E2E2E2E2E2E2E2E2E2E2E2E2E2E2E2E2E2E2E2E2E2E2E2E2E2E2E2E2E2E2E2E2E2E2
310
E2E2E2E2E2E2E2E2E2E2E2E2E2E2E2E2E2E2E2E2E2E2E2E2E2E2E2E2E2E2E2E2E2E2E2E2E2E2E2E2E2E2E2E2E2E2E2E2E2E2E2E2E2E2E2E2E2E2E2E2E2E2F5E2E2E2E2E2E2E2E2E2E2E2E2E2E2E2E2F5E2E2E2F5F5E2E2E2F5E2E2E2E2E2E2E2E2E2E2E2E2E2E2E2E2F5E2E2E2E2E2E2E2E2E2E2E2E2E2E2E2E2E2E2E2E2E2
310
E2E2E2E2E2E2E2E2E2E2E2E2E2E2E2E2E2E2E2E2E2E2E2E2E2E2E2E2E2E2E2E2E2E2E2E2E2E2E2E2E2E2E2E2E2E2E2E2E2E2E2E2E2E2E2E2E2E2E2E2E2E2E2E2E2E2E2E2E2E2E2E2E2E2E2E2E2E2E2E2E2E2E2E2E2E2E2E2E2E2E2E2E2E2E2E2E2E2E2E2E2E2E2E2E2E2E2E2E2E2E2E2E2E2E2F5E2E2E2E2E2E2E2E2E2E2E2
310
E2E2E2E2E2F5E2E2E2F5F5E2E2E2F5E2E2E2E2E2E2E2E2E2E2E2E2E2E2E2E2F5E2E2E2E2E2E2E2E2E2E2E2E2E2E2E2E2E2E2E2E2E2E2E2E2E2E2E2E2E2E2E2E2E2E2E2E2E2E2E2E2E2E2E2E2E2E2E2E2E2E2E2E2E2E2E2E2E2E2E2E2E2E2E2E2E2E2E2E2E2E2E2E2E2E2E2E2E2E2E2E2E2E2E2E2E2E2E2E2E2E2E2E2E2E2E2
310
E2E2E2E2E2E2E2E2E2E2E2E2E2E2E2E2E2E2E2E2E2E2E2E2E2E2E2E2E2E2E2E2E2E2E2E2E2E2E2E2E2F5E2E2E2E2E2E2E2E2E2E2E2E2E2E2E2E2F5E2E2E2F5F5E2E2E2F5E2E2E2E2E2E2E2E2E2E2E2E2E2E2E2E2F5E2E2E2E2E2E2E2E2E2E2E2E2E2E2E2E2E2E2E2E2E2E2E2E2E2E2E2E2E2E2E2E2E2E2E2E2E2E2E2E2E2E2
310
E2E2E2E2E2E2E2E2E2E2E2E2E2E2E2E2E2E2E2E2E2E2E2E2E2E2E2E2E2E2E2E2E2E2E2E2E2E2E2E2E2E2E2E2E2E2E2E2E2E2E2E2E2E2E2E2E2E2E2E2E2E2E2E2E2E2E2E2E2E2E2E2E2E2E2E2E2E2E2E2E2E2E2E2E2E2E2E2E2E2E2E2E2E2F5E2E2E2E2E2E2E2E2E2E2E2E2E2E2E2E2F5E2E2E2F5F5E2E2E2F5E2E2E2E2E2E2
310
E2E2E2E2E2E2E2E2E2E2F5E2E2E2E2E2E2E2E2E2E2E2E2E2E2E2E2E2E2E2E2E2E2E2E2E2E2E2E2E2E2E2E2E2E2E2E2E2E2E2E2E2E2E2E2E2E2E2E2E2E2E2E2E2E2E2E2E2E2E2E2E2E2E2E2E2E2E2E2E2E2E2E2E2E2E2E2E2E2E2E2E2E2E2E2E2E2E2E2E2E2E2E2E2E2E2E2E2E2E2E2E2E2E2E2E2E2E2E2E2E2E2E2E2E2E2E2
310
E2E2E2E2E2E2E2E2E2E2E2E2E2E2E2E2E2E2E2E2F5E2E2E2E2E2E2E2E2E2E2E2E2E2E2E2E2F5E2E2E2F5F5E2E2E2F5E2E2E2E2E2E2E2E2E2E2E2E2E2E2E2E2F5E2E2E2E2E2E2E2E2E2E2E2E2E2E2E2E2E2E2E2E2E2E2E2E2E2E2E2E2E2E2E2E2E2E2E2E2E2E2E2E2E2E2E2E2E2E2E2E2E2E2E2E2E2E2E2E2E2E2E2E2E2E2E2
310
E2E2E2E2E2E2E2E2E2E2E2E2E2E2E2E2E2E2E2E2E2E2E2E2E2E2E2E2E2E2E2E2E2E2E2E2E2E2E2E2E2E2E2E2E2E2E2E2E2E2E2E2E2E2E2E2E2E2E2E2E2E2E2E2E2E2E2E2E2E2E2E2E2F5E2E2E2E2E2E2E2E2E2E2E2E2E2E2E2E2F5E2E2E2F5F5E2E2E2F5E2E2E2E2E2E2E2E2E2E2E2E2E2E2E2E2F5E2E2E2E2E2E2E2E2E2E2
310
E2E2E2E2E2E2E2E2E2E2E2E2E2E2E2E2E2E2E2E2E2E2E2E2E2E2E2E2E2E2E2E2E2E2E2E2E2E2E2E2E2E2E2E2E2E2E2E2E2E2E2E2E2E2E2E2E2E2E2E2E2E2E2E2E2E2E2E2E2E2E2E2E2E2E2E2E2E2E2E2E2E2E2E2E2E2E2E2E2E2E2E2E2E2E2E2E2E2E2E2E2E2E2E2E2E2E2E2E2E2E2E2E2E2E2E2E2E2E2E2E2E2E2E2E2E2F5
310
E2E2E2E2E2E2E2E2E2E2E2E2E2E2E2E2F5E2E2E2F5F5E2E2E2F5E2E2E2E2E2E2E2E2E2E2E2E2E2E2E2E2F5E2E2E2E2E2E2E2E2E2E2E2E2E2E2E2E2E2E2E2E2E2E2E2E2E2E2E2E2E2E2E2E2E2E2E2E2E2E2E2E2E2E2E2E2E2E2E2E2E2E2E2E2E2E2E2E2E2E2E2E2E2E2E2E2E2E2E2E2E2E2E2E2E2E2E2E2E2E2E2E2E2E2E2E2
310
E2E2E2E2E2E2E2E2E2E2E2E2E2E2E2E2E2E2E2E2E2E2E2E2E2E2E2E2E2E2E2E2E2E2E2E2E2E2E2E2E2E2E2E2E2E2E2E2E2E2E2E2F5E2E2E2E2E2E2E2E2E2E2E2E2E2E2E2E2F5E2E2E2F5F5E2E2E2F5E2E2E2E2E2E2E2E2E2E2E2E2E2E2E2E2F5E2E2E2E2E2E2E2E2E2E2E2E2E2E2E2E2E2E2E2E2E2E2E2E2E2E2E2E2E2E2E2
310
E2E2E2E2E2E2E2E2E2E2E2E2E2E2E2E2E2E2E2E2E2E2E2E2E2E2E2E2E2E2E2E2E2E2E2E2E2E2E2E2E2E2E2E2E2E2E2E2E2E2E2E2E2E2E2E2E2E2E2E2E2E2E2E2E2E2E2E2E2E2E2E2E2E2E2E2E2E2E2E2E2E2E2E2E2E2E2E2E2E2E2E2E2E2E2E2E2E2E2E2E2E2E2E2E2F5E2E2E2E2E2E2E2E2E2E2E2E2E2E2E2E2F5E2E2E2F5
310
F5E2E2E2F5E2E2E2E2E2E2E2E2E2E2E2E2E2E2E2E2F5E2E2E2E2E2E2E2E2E2E2E2E2E2E2E2E2E2E2E2E2E2E2E2E2E2E2E2E2E2E2E2E2E2E2E2E2E2E2E2E2E2E2E2E2E2E2E2E2E2E2E2E2E2E2E2E2E2E2E2E2E2E2E2E2E2E2E2E2E2E2E2E2E2E2E2E2E2E2E2E2E2E2E2E2E2E2E2E2E2E2E2E2E2E2E2E2E2E2E2E2E2E2E2E2E2
310
E2E2E2E2E2E2E2E2E2E2E2E2E2E2E2E2E2E2E2E2E2E2E2E2E2E2E2E2E2E2E2F5E2E2E2E2E2E2E2E2E2E2E2E2E2E2E2E2F5E2E2E2F5F5E2E2E2F5E2E2E2E2E2E2E2E2E2E2E2E2E2E2E2E2F5E2E2E2E2E2E2E2E2E2E2E2E2E2E2E2E2E2E2E2E2E2E2E2E2E2E2E2E2E2E2E2E2E2E2E2E2E2E2E2E2E2E2E2E2E2E2E2E2E2E2E2E2
310
E2E2E2E2E2E2E2E2E2E2E2E2E2E2E2E2E2E2E2E2E2E2E2E2E2E2E2E2E2E2E2E2E2E2E2E2E2E2E2E2E2E2E2E2E2E2E2E2E2E2E2E2E2E2E2E2E2E2E2E2E2E2E2E2E2E2E2E2E2E2E2E2E2E2E2E2E2E2E2E2E2E2E2E2F5E2E2E2E2E2E2E2E2E2E2E2E2E2E2E2E2F5E2E2E2F5F5E2E2E2F5E2E2E2E2E2E2E2E2E2E2E2E2E2E2E2E2
310
F5E2E2E2E2E2E2E2E2E2E2E2E2E2E2E2E2E2E2E2E2E2E2E2E2E2E2E2E2E2E2E2E2E2E2E2E2E2E2E2E2E2E2E2E2E2E2E2E2E2E2E2E2E2E2E2E2E2E2E2E2E2E2E2E2E2E2E2E2E2E2E2E2E2E2E2E2E2E2E2E2E2E2E2E2E2E2E2E2E2E2E2E2E2E2E2E2E2E2E2E2E2E2E2E2E2E2E2E2E2E2E2E2E2E2E2E2E2E2E2E2E2E2E2E2E2E2
310
E2E2E2E2E2E2E2E2E2E2F5E2E2E2E2E2E2E2E2E2E2E2E2E2E2E2E2F5E2E2E2F5F5E2E2E2F5E2E2E2E2E2E2E2E2E2E2E2E2E2E2E2E2F5E2E2E2E2E2E2E2E2E2E2E2E2E2E2E2E2E2E2E2E2E2E2E2E2E2E2E2E2E2E2E2E2E2E2E2E2E2E2E2E2E2E2E2E2E2E2E2E2E2E2E2E2E2E2E2E2E2E2E2E2E2E2E2E2E2E2E2E2E2E2E2E2E2
310
E2E2E2E2E2E2E2E2E2E2E2E2E2E2E2E2E2E2E2E2E2E2E2E2E2E2E2E2E2E2E2E2E2E2E2E2E2E2E2E2E2E2E2E2E2E2E2E2E2E2E2E2E2E2E2E2E2E2E2E2E2E2E2F5E2E2E2E2E2E2E2E2E2E2E2E2E2E2E2E2F5E2E2E2F5F5E2E2E2F5E2E2E2E2E2E2E2E2E2E2E2E2E2E2E2E2F5E2E2E2E2E2E2E2E2E2E2E2E2E2E2E2E2E2E2E2E2
310
E2E2E2E2E2E2E2E2E2E2E2E2E2E2E2E2E2E2E2E2E2E2E2E2E2E2E2E2E2E2E2E2E2E2E2E2E2E2E2E2E2E2E2E2E2E2E2E2E2E2E2E2E2E2E2E2E2E2E2E2E2E2E2E2E2E2E2E2E2E2E2E2E2E2E2E2E2E2E2E2E2E2E2E2E2E2E2E2E2E2E2E2E2E2E2E2E2E2E2E2E2E2E2E2E2E2E2E2E2E2E2E2E2E2E2E2F5E2E2E2E2E2E2E2E2E2E2
310
E2E2E2E2E2E2F5E2E2E2F5F5E2E2E2F5E2E2E2E2E2E2E2E2E2E2E2E2E2E2E2E2F5E2E2E2E2E2E2E2E2E2E2E2E2E2E2E2E2E2E2E2E2E2E2E2E2E2E2E2E2E2E2E2E2E2E2E2E2E2E2E2E2E2E2E2E2E2E2E2E2E2E2E2E2E2E2E2E2E2E2E2E2E2E2E2E2E2E2E2E2E2E2E2E2E2E2E2E2E2E2E2E2E2E2E2E2E2E2E2E2E2E2E2E2E2E2
310
E2E2E2E2E2E2E2E2E2E2E2E2E2E2E2E2E2E2E2E2E2E2E2E2E2E2E2E2E2E2E2E2E2E2E2E2E2E2E2E2E2E2F5E2E2E2E2E2E2E2E2E2E2E2E2E2E2E2E2F5E2E2E2F5F5E2E2E2E2E2E2E2E2E2E2E2E2E2E2E2E2E2E2E2E2F5E2E2E2E2E2E2E2E2E2E2E2E2E2E2E2E2E2E2E2E2E2E2E2E2E2E2E2E2E2E2E2E2E2E2E2E2E2E2E2E2E2
310
E2E2E2E2E2E2E2E2E2E2E2E2E2E2E2E2E2E2E2E2E2E2E2E2E2E2E2E2E2E2E2E2E2E2E2E2E2E2E2E2E2E2E2E2E2E2E2E2E2E2E2E2E2E2E2E2E2E2E2E2E2E2E2E2E2E2E2E2E2E2E2E2E2E2E2E2E2E2E2E2E2E2E2E2E2E2E2E2E2E2E2E2E2E2E2F5E2E2E2E2E2E2E2E2E2E2E2E2E2E2E2E2E2E2E2E2F5F5E2E2E2E2E2E2E2E2E2
310
E2E2E2E2E2E2E2E2E2E2E2F5E2E2E2E2E2E2E2E2E2E2E2E2E2E2E2E2E2E2E2E2E2E2E2E2E2E2E2E2E2E2E2E2E2E2E2E2E2E2E2E2E2E2E2E2E2E2E2E2E2E2E2E2E2E2E2E2E2E2E2E2E2E2E2E2E2E2E2E2E2E2E2E2E2E2E2E2E2E2E2E2E2E2E2E2E2E2E2E2E2E2E2E2E2E2E2E2E2E2E2E2E2E2E2E2E2E2E2E2E2E2E2E2E2E2E2
310
E2E2E2E2E2E2E2E2E2E2E2E2E2E2E2E2E2E2E2E2E2F5E2E2E2E2E2E2E2E2E2E2E2E2E2E2E2E2E2E2E2E2F5F5E2E2E2E2E2E2E2E2E2E2E2E2E2E2E2E2E2E2E2E2F5E2E2E2E2E2E2E2E2E2E2E2E2E2E2E2E2E2E2E2E2E2E2E2E2E2E2E2E2E2E2E2E2E2E2E2E2E2E2E2E2E2E2E2E2E2E2E2E2E2E2E2E2E2E2E2E2E2E2E2E2E2E2
310
E2E2E2E2E2E2E2E2E2E2E2E2E2E2E2E2E2E2E2E2E2E2E2E2E2E2E2E2E2E2E2E2E2E2E2E2E2E2E2E2E2E2E2E2E2E2E2E2E2E2E2E2E2E2E2E2E2E2E2E2E2E2E2E2E2E2E2E2E2E2E2E2E2E2F5E2E2E2E2E2E2E2E2E2E2E2E2E2E2E2E2E2E2E2E2F5F5E2E2E2E2E2E2E2E2E2E2E2E2E2E2E2E2E2E2E2E2F5E2E2E2E2E2E2E2E2E2
310
E2E2E2E2E2E2E2E2E2E2E2E2E2E2E2E2E2E2E2E2E2E2E2E2E2E2E2E2E2E2E2E2E2E2E2E2E2E2E2E2E2E2E2E2E2E2E2E2E2E2E2E2E2E2E2E2E2E2E2E2E2E2E2E2E2E2E2E2E2E2E2E2E2E2E2E2E2E2E2E2E2E2E2E2E2E2E2E2E2E2E2E2E2E2E2E2E2E2E2E2E2E2E2E2E2E2E2E2E2E2E2E2E2E2E2E2E2E2E2E2E2E2E2E2E2E2E2
310
F5E2E2E2E2E2E2E2E2E2E2E2E2E2E2E2E2E2E2E2E2F5F5E2E2E2E2E2E2E2E2E2E2E2E2E2E2E2E2E2E2E2E2F5E2E2E2E2E2E2E2E2E2E2E2E2E2E2E2E2E2E2E2E2E2E2E2E2E2E2E2E2E2E2E2E2E2E2E2E2E2E2E2E2E2E2E2E2E2E2E2E2E2E2E2E2E2E2E2E2E2E2E2E2E2E2E2E2E2E2E2E2E2E2E2E2E2E2E2E2E2E2E2E2E2E2E2
310
E2E2E2E2E2E2E2E2E2E2E2E2E2E2E2E2E2E2E2E2E2E2E2E2E2E2E2E2E2E2E2E2E2E2E2E2E2E2E2E2E2E2E2E2E2E2E2E2E2E2E2E2E2F5E2E2E2E2E2E2E2E2E2E2E2E2E2E2E2E2E2E2E2E2F5F5E2E2E2E2E2E2E2E2E2E2E2E2E2E2E2E2E2E2E2E2F5E2E2E2E2E2E2E2E2E2E2E2E2E2E2E2E2E2E2E2E2E2E2E2E2E2E2E2E2E2E2
310
E2E2E2E2E2E2E2E2E2E2E2E2E2E2E2E2E2E2E2E2E2E2E2E2E2E2E2E2E2E2E2E2E2E2E2E2E2E2E2E2E2E2E2E2E2E2E2E2E2E2E2E2E2E2E2E2E2E2E2E2E2E2E2E2E2E2E2E2E2E2E2E2E2E2E2E2E2E2E2E2E2E2E2E2E2E2E2E2E2E2E2E2E2E2E2E2E2E2E2E2E2E2E2E2E2E2F5E2E2E2E2E2E2E2E2E2E2E2E2E2E2E2E2E2E2E2E2
310
F5F5E2E2E2E2E2E2E2E2E2E2E2E2E2E2E2E2E2E2E2E2F5E2E2E2E2E2E2E2E2E2E2E2E2E2E2E2E2E2E2E2E2E2E2E2E2E2E2E2E2E2E2E2E2E2E2E2E2E2E2E2E2E2E2E2E2E2E2E2E2E2E2E2E2E2E2E2E2E2E2E2E2E2E2E2E2E2E2E2E2E2E2E2E2E2E2E2E2E2E2E2E2E2E2E2E2E2E2E2E2E2E2E2E2E2E2E2E2E2E2E2E2E2E2E2E2
310
E2E2E2E2E2E2E2E2E2E2E2E2E2E2E2E2E2E2E2E2E2E2E2E2E2E2E2E2E2E2E2E2F5E2E2E2E2E2E2E2E2E2E2E2E2E2E2E2E2E2E2E2E2F5F5E2E2E2E2E2E2E2E2E2E2E2E2E2E2E2E2E2E2E2E2F5E2E2E2E2E2E2E2E2E2E2E2E2E2E2E2E2E2E2E2E2E2E2E2E2E2E2E2E2E2E2E2E2E2E2E2E2E2E2E2E2E2E2E2E2E2E2E2E2E2E2E2
310
E2E2E2E2E2E2E2E2E2E2E2E2E2E2E2E2E2E2E2E2E2E2E2E2E2E2E2E2E2E2E2E2E2E2E2E2E2E2E2E2E2E2E2E2E2E2E2E2E2E2E2E2E2E2E2E2E2E2E2E2E2E2E2E2E2E2E2E2E2E2E2E2E2E2E2E2E2E2E2E2E2E2E2E2E2F5E2E2E2E2E2E2E2E2E2E2E2E2E2E2E2E2E2E2E2E2F5F5E2E2E2E2E2E2E2E2E2E2E2E2E2E2E2E2E2E2E2
310
E2F5E2E2E2E2E2E2E2E2E2E2E2E2E2E2E2E2E2E2E2E2E2E2E2E2E2E2E2E2E2E2E2E2E2E2E2E2E2E2E2E2E2E2E2E2E2E2E2E2E2E2E2E2E2E2E2E2E2E2E2E2E2E2E2E2E2E2E2E2E2E2E2E2E2E2E2E2E2E2E2E2E2E2E2E2E2E2E2E2E2E2E2E2E2E2E2E2E2E2E2E2E2E2E2E2E2E2E2E2E2E2E2E2E2E2E2E2E2E2E2E2E2E2E2E2E2
310
E2E2E2E2E2E2E2E2E2E2E2F5E2E2E2E2E2E2E2E2E2E2E2E2E2E2E2E2E2E2E2E2F5F5E2E2E2E2E2E2E2E2E2E2E2E2E2E2E2E2E2E2E2E2F5E2E2E2E2E2E2E2E2E2E2E2E2E2E2E2E2E2E2E2E2E2E2E2E2E2E2E2E2E2E2E2E2E2E2E2E2E2E2E2E2E2E2E2E2E2E2E2E2E2E2E2E2E2E2E2E2E2E2E2E2E2E2E2E2E2E2E2E2E2E2E2E2
310
E2E2E2E2E2E2E2E2E2E2E2E2E2E2E2E2E2E2E2E2E2E2E2E2E2E2E2E2E2E2E2E2E2E2E2E2E2E2E2E2E2E2E2E2E2E2E2E2E2E2E2E2E2E2E2E2E2E2E2E2E2E2E2E2F5E2E2E2E2E2E2E2E2E2E2E2E2E2E2E2E2E2E2E2E2F5F5E2E2E2F5E2E2E2E2E2E2E2E2E2E2E2E2E2E2E2E2F5E2E2E2E2E2E2E2E2E2E2E2E2E2E2E2E2E2E2E2
310
E2E2E2E2E2E2E2E2E2E2E2E2E2E2E2E2E2E2E2E2E2E2E2E2E2E2E2E2E2E2E2E2E2E2E2E2E2E2E2E2E2E2E2E2E2E2E2E2E2E2E2E2E2E2E2E2E2E2E2E2E2E2E2E2E2E2E2E2E2E2E2E2E2E2E2E2E2E2E2E2E2E2E2E2E2E2E2E2E2E2E2E2E2E2E2E2E2E2E2E2E2E2E2E2E2E2E2E2E2E2E2E2E2E2E2E2E2F5E2E2E2E2E2E2E2E2E2
310
E2E2E2E2E2E2E2F5E2E2E2F5F5E2E2E2F5E2E2E2E2E2E2E2E2E2E2E2E2E2E2E2E2F5E2E2E2E2E2E2E2E2E2E2E2E2E2E2E2E2E2E2E2E2E2E2E2E2E2E2E2E2E2E2E2E2E2E2E2E2E2E2E2E2E2E2E2E2E2E2E2E2E2E2E2E2E2E2E2E2E2E2E2E2E2E2E2E2E2E2E2E2E2E2E2E2E2E2E2E2E2E2E2E2E2E2E2E2E2E2E2E2E2E2E2E2E2
310
E2E2E2E2E2E2E2E2E2E2E2E2E2E2E2E2E2E2E2E2E2E2E2E2E2E2E2E2E2E2E2E2E2E2E2E2E2E2E2E2E2E2E2F5E2E2E2E2E2E2E2E2E2E2E2E2E2E2E2E2F5E2E2E2F5F5E2E2E2F5E2E2E2E2E2E2E2E2E2E2E2E2E2E2E2E2F5E2E2E2E2E2E2E2E2E2E2E2E2E2E2E2E2E2E2E2E2E2E2E2E2E2E2E2E2E2E2E2E2E2E2E2E2E2E2E2E2
310
E2E2E2E2E2E2E2E2E2E2E2E2E2E2E2E2E2E2E2E2E2E2E2E2E2E2E2E2E2E2E2E2E2E2E2E2E2E2E2E2E2E2E2E2E2E2E2E2E2E2E2E2E2E2E2E2E2E2E2E2E2E2E2E2E2E2E2E2E2E2E2E2E2E2E2E2E2E2E2E2E2E2E2E2E2E2E2E2E2E2E2E2E2E2E2E2F5E2E2E2E2E2E2E2E2E2E2E2E2E2E2E2E2F5E2E2E2F5F5E2E2E2F5E2E2E2E2
310
E2E2E2E2E2E2E2E2E2E2E2E2F5E2E2E2E2E2E2E2E2E2E2E2E2E2E2E2E2E2E2E2E2E2E2E2E2E2E2E2E2E2E2E2E2E2E2E2E2E2E2E2E2E2E2E2E2E2E2E2E2E2E2E2E2E2E2E2E2E2E2E2E2E2E2E2E2E2E2E2E2E2E2E2E2E2E2E2E2E2E2E2E2E2E2E2E2E2E2E2E2E2E2E2E2E2E2E2E2E2E2E2E2E2E2E2E2E2E2E2E2E2E2E2E2E2E2
310
E2E2E2E2E2E2E2E2E2E2E2E2E2E2E2E2E2E2E2E2E2E2F5E2E2E2E2E2E2E2E2E2E2E2E2E2E2E2E2F5E2E2E2F5F5E2E2E2F5E2E2E2E2E2E2E2E2E2E2E2E2E2E2E2E2F5E2E2E2E2E2E2E2E2E2E2E2E2E2E2E2E2E2E2E2E2E2E2E2E2E2E2E2E2E2E2E2E2E2E2E2E2E2E2E2E2E2E2E2E2E2E2E2E2E2E2E2E2E2E2E2E2E2E2E2E2E2
310
E2E2E2E2E2E2E2E2E2E2E2E2E2E2E2E2E2E2E2E2E2E2E2E2E2E2E2E2E2E2E2E2E2E2E2E2E2E2E2E2E2E2E2E2E2E2E2E2E2E2E2E2E2E2E2E2E2E2E2E2E2E2E2E2E2E2E2E2E2E2E2E2E2E2E2F5E2E2E2E2E2E2E2E2E2E2E2E2E2E2E2E2F5E2E2E2F5F5E2E2E2F5E2E2E2E2E2E2E2E2E2E2E2E2E2E2E2E2F5E2E2E2E2E2E2E2E2
310
E2E2E2E2E2E2E2E2E2E2E2E2E2E2E2E2E2E2E2E2E2E2E2E2E2E2E2E2E2E2E2E2E2E2E2E2E2E2E2E2E2E2E2E2E2E2E2E2E2E2E2E2E2E2E2E2E2E2E2E2E2E2E2E2E2E2E2E2E2E2E2E2E2E2E2E2E2E2E2E2E2E2E2E2E2E2E2E2E2E2E2E2E2E2E2E2E2E2E2E2E2E2E2E2E2E2E2E2E2E2E2E2E2E2E2E2E2E2E2E2E2E2E2E2E2E2E2
310
E2F5E2E2E2E2E2E2E2E2E2E2E2E2E2E2E2E2F5E2E2E2F5F5E2E2E2F5E2E2E2E2E2E2E2E2E2E2E2E2E2E2E2E2F5E2E2E2E2E2E2E2E2E2E2E2E2E2E2E2E2E2E2E2E2E2E2E2E2E2E2E2E2E2E2E2E2E2E2E2E2E2E2E2E2E2E2E2E2E2E2E2E2E2E2E2E2E2E2E2E2E2E2E2E2E2E2E2E2E2E2E2E2E2E2E2E2E2E2E2E2E2E2E2E2E2E2
310
E2E2E2E2E2E2E2E2E2E2E2E2E2E2E2E2E2E2E2E2E2E2E2E2E2E2E2E2E2E2E2E2E2E2E2E2E2E2E2E2E2E2E2E2E2E2E2E2E2E2E2E2E2E2F5E2E2E2E2E2E2E2E2E2E2E2E2E2E2E2E2F5E2E2E2F5F5E2E2E2F5E2E2E2E2E2E2E2E2E2E2E2E2E2E2E2E2F5E2E2E2E2E2E2E2E2E2E2E2E2E2E2E2E2E2E2E2E2E2E2E2E2E2E2E2E2E2
310
E2E2E2E2E2E2E2E2E2E2E2E2E2E2E2E2E2E2E2E2E2E2E2E2E2E2E2E2E2E2E2E2E2E2E2E2E2E2E2E2E2E2E2E2E2E2E2E2E2E2E2E2E2E2E2E2E2E2E2E2E2E2E2E2E2E2E2E2E2E2E2E2E2E2E2E2E2E2E2E2E2E2E2E2E2E2E2E2E2E2E2E2E2E2E2E2E2E2E2E2E2E2E2E2E2E2E2F5E2E2E2E2E2E2E2E2E2E2E2E2E2E2E2E2F5E2E2
310
E2F5F5E2E2E2F5E2E2E2E2E2E2E2E2E2E2E2E2E2E2E2E2F5E2E2E2E2E2E2E2E2E2E2E2E2E2E2E2E2E2E2E2E2E2E2E2E2E2E2E2E2E2E2E2E2E2E2E2E2E2E2E2E2E2E2E2E2E2E2E2E2E2E2E2E2E2E2E2E2E2E2E2E2E2E2E2E2E2E2E2E2E2E2E2E2E2E2E2E2E2E2E2E2E2E2E2E2E2E2E2E2E2E2E2E2E2E2E2E2E2E2E2E2E2E2E2
310
E2E2E2E2E2E2E2E2E2E2E2E2E2E2E2E2E2E2E2E2E2E2E2E2E2E2E2E2E2E2E2E2E2F5E2E2E2E2E2E2E2E2E2E2E2E2E2E2E2E2F5E2E2E2F5F5E2E2E2F5E2E2E2E2E2E2E2E2E2E2E2E2E2E2E2E2F5E2E2E2E2E2E2E2E2E2E2E2E2E2E2E2E2E2E2E2E2E2E2E2E2E2E2E2E2E2E2E2E2E2E2E2E2E2E2E2E2E2E2E2E2E2E2E2E2E2E2
310
E2E2E2E2E2E2E2E2E2E2E2E2E2E2E2E2E2E2E2E2E2E2E2E2E2E2E2E2E2E2E2E2E2E2E2E2E2E2E2E2E2E2E2E2E2E2E2E2E2E2E2E2E2E2E2E2E2E2E2E2E2E2E2E2E2E2E2E2E2E2E2E2E2E2E2E2E2E2E2E2E2E2E2E2E2E2F5E2E2E2E2E2E2E2E2E2E2E2E2E2E2E2E2F5E2E2E2F5F5E2E2E2F5E2E2E2E2E2E2E2E2E2E2E2E2E2E2
310
E2E2F5E2E2E2E2E2E2E2E2E2E2E2E2E2E2E2E2E2E2E2E2E2E2E2E2E2E2E2E2E2E2E2E2E2E2E2E2E2E2E2E2E2E2E2E2E2E2E2E2E2E2E2E2E2E2E2E2E2E2E2E2E2E2E2E2E2E2E2E2E2E2E2E2E2E2E2E2E2E2E2E2E2E2E2E2E2E2E2E2E2E2E2E2E2E2E2E2E2E2E2E2E2E2E2E2E2E2E2E2E2E2E2E2E2E2E2E2E2E2E2E2E2E2E2E2
310
E2E2E2E2E2E2E2E2E2E2E2E2F5E2E2E2E2E2E2E2E2E2E2E2E2E2E2E2E2F5E2E2E2F5F5E2E2E2F5E2E2E2E2E2E2E2E2E2E2E2E2E2E2E2E2F5E2E2E2E2E2E2E2E2E2E2E2E2E2E2E2E2E2E2E2E2E2E2E2E2E2E2E2E2E2E2E2E2E2E2E2E2E2E2E2E2E2E2E2E2E2E2E2E2E2E2E2E2E2E2E2E2E2E2E2E2E2E2E2E2E2E2E2E2E2E2E2
310
E2E2E2E2E2E2E2E2E2E2E2E2E2E2E2E2E2E2E2E2E2E2E2E2E2E2E2E2E2E2E2E2E2E2E2E2E2E2E2E2E2E2E2E2E2E2E2E2E2E2E2E2E2E2E2E2E2E2E2E2E2E2E2E2E2F5E2E2E2E2E2E2E2E2E2E2E2E2E2E2E2E2F5E2E2E2F5F5E2E2E2F5E2E2E2E2E2E2E2E2E2E2E2E2E2E2E2E2F5E2E2E2E2E2E2E2E2E2E2E2E2E2E2E2E2E2E2
310
E2E2E2E2E2E2E2E2E2E2E2E2E2E2E2E2E2E2E2E2E2E2E2E2E2E2E2E2E2E2E2E2E2E2E2E2E2E2E2E2E2E2E2E2E2E2E2E2E2E2E2E2E2E2E2E2E2E2E2E2E2E2E2E2E2E2E2E2E2E2E2E2E2E2E2E2E2E2E2E2E2E2E2E2E2E2E2E2E2E2E2E2E2E2E2E2E2E2E2E2E2E2E2E2E2E2E2E2E2E2E2E2E2E2E2E2E2E2F5E2E2E2E2E2E2E2E2
310
E2E2E2E2E2E2E2E2F5E2E2E2F5F5E2E2E2F5E2E2E2E2E2E2E2E2E2E2E2E2E2E2E2E2F5E2E2E2E2E2E2E2E2E2E2E2E2E2E2E2E2E2E2E2E2E2E2E2E2E2E2E2E2E2E2E2E2E2E2E2E2E2E2E2E2E2E2E2E2E2E2E2E2E2E2E2E2E2E2E2E2E2E2E2E2E2E2E2E2E2E2E2E2E2E2E2E2E2E2E2E2E2E2E2E2E2E2E2E2E2E2E2E2E2E2E2E2
310
E2E2E2E2E2E2E2E2E2E2E2E2E2E2E2E2E2E2E2E2E2E2E2E2E2E2E2E2E2E2E2E2E2E2E2E2E2E2E2E2E2E2E2E2F5E2E2E2E2E2E2E2E2E2E2E2E2E2E2E2E2F5E2E2E2F5F5E2E2E2F5E2E2E2E2E2E2E2E2E2E2E2E2E2E2E2E2F5E2E2E2E2E2E2E2E2E2E2E2E2E2E2E2E2E2E2E2E2E2E2E2E2E2E2E2E2E2E2E2E2E2E2E2E2E2E2E2
310
E2E2E2E2E2E2E2E2E2E2E2E2E2E2E2E2E2E2E2E2E2E2E2E2E2E2E2E2E2E2E2E2E2E2E2E2E2E2E2E2E2E2E2E2E2E2E2E2E2E2E2E2E2E2E2E2E2E2E2E2E2E2E2E2E2E2E2E2E2E2E2E2E2E2E2E2E2E2E2E2E2E2E2E2E2E2E2E2E2E2E2E2E2E2E2E2E2F5E2E2E2E2E2E2E2E2E2E2E2E2E2E2E2E2F5E2E2E2F5F5E2E2E2F5E2E2E2
310
E2E2E2E2E2E2E2E2E2E2E2E2E2F5E2E2E2E2E2E2E2E2E2E2E2E2E2E2E2E2E2E2E2E2E2E2E2E2E2E2E2E2E2E2E2E2E2E2E2E2E2E2E2E2E2E2E2E2E2E2E2E2E2E2E2E2E2E2E2E2E2E2E2E2E2E2E2E2E2E2E2E2E2E2E2E2E2E2E2E2E2E2E2E2E2E2E2E2E2E2E2E2E2E2E2E2E2E2E2E2E2E2E2E2E2E2E2E2E2E2E2E2E2E2E2E2E2
310
E2E2E2E2E2E2E2E2E2E2E2E2E2E2E2E2E2E2E2E2E2E2E2F5E2E2E2E2E2E2E2E2E2E2E2E2E2E2E2E2F5E2E2E2F5F5E2E2E2E2E2E2E2E2E2E2E2E2E2E2E2E2E2E2E2E2F5E2E2E2E2E2E2E2E2E2E2E2E2E2E2E2E2E2E2E2E2E2E2E2E2E2E2E2E2E2E2E2E2E2E2E2E2E2E2E2E2E2E2E2E2E2E2E2E2E2E2E2E2E2E2E2E2E2E2E2E2
310
E2E2E2E2E2E2E2E2E2E2E2E2E2E2E2E2E2E2E2E2E2E2E2E2E2E2E2E2E2E2E2E2E2E2E2E2E2E2E2E2E2E2E2E2E2E2E2E2E2E2E2E2E2E2E2E2E2E2E2E2E2E2E2E2E2E2E2E2E2E2E2E2E2E2E2E2F5E2E2E2E2E2E2E2E2E2E2E2E2E2E2E2E2E2E2E2E2F5F5E2E2E2E2E2E2E2E2E2E2E2E2E2E2E2E2E2E2E2E2F5E2E2E2E2E2E2E2
310
E2E2E2E2E2E2E2E2E2E2E2E2E2E2E2E2E2E2E2E2E2E2E2E2E2E2E2E2E2E2E2E2E2E2E2E2E2E2E2E2E2E2E2E2E2E2E2E2E2E2E2E2E2E2E2E2E2E2E2E2E2E2E2E2E2E2E2E2E2E2E2E2E2E2E2E2E2E2E2E2E2E2E2E2E2E2E2E2E2E2E2E2E2E2E2E2E2E2E2E2E2E2E2E2E2E2E2E2E2E2E2E2E2E2E2E2E2E2E2E2E2E2E2E2E2E2E2
310
E2E2F5E2E2E2E2E2E2E2E2E2E2E2E2E2E2E2E2E2E2E2E2F5F5E2E2E2E2E2E2E2E2E2E2E2E2E2E2E2E2E2E2E2E2F5E2E2E2E2E2E2E2E2E2E2E2E2E2E2E2E2E2E2E2E2E2E2E2E2E2E2E2E2E2E2E2E2E2E2E2E2E2E2E2E2E2E2E2E2E2E2E2E2E2E2E2E2E2E2E2E2E2E2E2E2E2E2E2E2E2E2E2E2E2E2E2E2E2E2E2E2E2E2E2E2E2
310
E2E2E2E2E2E2E2E2E2E2E2E2E2E2E2E2E2E2E2E2E2E2E2E2E2E2E2E2E2E2E2E2E2E2E2E2E2E2E2E2E2E2E2E2E2E2E2E2E2E2E2E2E2E2E2F5E2E2E2E2E2E2E2E2E2E2E2E2E2E2E2E2E2E2E2E2F5F5E2E2E2E2E2E2E2E2E2E2E2E2E2E2E2E2E2E2E2E2F5E2E2E2E2E2E2E2E2E2E2E2E2E2E2E2E2E2E2E2E2E2E2E2E2E2E2E2E2
310
E2E2E2E2E2E2E2E2E2E2E2E2E2E2E2E2E2E2E2E2E2E2E2E2E2E2E2E2E2E2E2E2E2E2E2E2E2E2E2E2E2E2E2E2E2E2E2E2E2E2E2E2E2E2E2E2E2E2E2E2E2E2E2E2E2E2E2E2E2E2E2E2E2E2E2E2E2E2E2E2E2E2E2E2E2E2E2E2E2E2E2E2E2E2E2E2E2E2E2E2E2E2E2E2E2E2E2E2F5E2E2E2E2E2E2E2E2E2E2E2E2E2E2E2E2E2E2
310
E2E2F5F5E2E2E2E2E2E2E2E2E2E2E2E2E2E2E2E2E2E2E2E2F5E2E2E2E2E2E2E2E2E2E2E2E2E2E2E2E2E2E2E2E2E2E2E2E2E2E2E2E2E2E2E2E2E2E2E2E2E2E2E2E2E2E2E2E2E2E2E2E2E2E2E2E2E2E2E2E2E2E2E2E2E2E2E2E2E2E2E2E2E2E2E2E2E2E2E2E2E2E2E2E2E2E2E2E2E2E2E2E2E2E2E2E2E2E2E2E2E2E2E2E2E2E2
310
E2E2E2E2E2E2E2E2E2E2E2E2E2E2E2E2E2E2E2E2E2E2E2E2E2E2E2E2E2E2E2E2E2E2F5E2E2E2E2E2E2E2E2E2E2E2E2E2E2E2E2E2E2E2E2F5F5E2E2E2E2E2E2E2E2E2E2E2E2E2E2E2E2E2E2E2E2F5E2E2E2E2E2E2E2E2E2E2E2E2E2E2E2E2E2E2E2E2E2E2E2E2E2E2E2E2E2E2E2E2E2E2E2E2E2E2E2E2E2E2E2E2E2E2E2E2E2
310
E2E2E2E2E2E2E2E2E2E2E2E2E2E2E2E2E2E2E2E2E2E2E2E2E2E2E2E2E2E2E2E2E2E2E2E2E2E2E2E2E2E2E2E2E2E2E2E2E2E2E2E2E2E2E2E2E2E2E2E2E2E2E2E2E2E2E2E2E2E2E2E2E2E2E2E2E2E2E2E2E2E2E2E2E2E2E2F5E2E2E2E2E2E2E2E2E2E2E2E2E2E2E2E2E2E2E2E2F5F5E2E2E2E2E2E2E2E2E2E2E2E2E2E2E2E2E2
310
E2E2E2F5E2E2E2E2E2E2E2E2E2E2E2E2E2E2E2E2E2E2E2E2E2E2E2E2E2E2E2E2E2E2E2E2E2E2E2E2E2E2E2E2E2E2E2E2E2E2E2E2E2E2E2E2E2E2E2E2E2E2E2E2E2E2E2E2E2E2E2E2E2E2E2E2E2E2E2E2E2E2E2E2E2E2E2E2E2E2E2E2E2E2E2E2E2E2E2E2E2E2E2E2E2E2E2E2E2E2E2E2E2E2E2E2E2E2E2E2E2E2E2E2E2E2E2
310
E2E2E2E2E2E2E2E2E2E2E2E2E2F5E2E2E2E2E2E2E2E2E2E2E2E2E2E2E2E2E2E2E2E2F5F5E2E2E2E2E2E2E2E2E2E2E2E2E2E2E2E2E2E2E2E2F5E2E2E2E2E2E2E2E2E2E2E2E2E2E2E2E2E2E2E2E2E2E2E2E2E2E2E2E2E2E2E2E2E2E2E2E2E2E2E2E2E2E2E2E2E2E2E2E2E2E2E2E2E2E2E2E2E2E2E2E2E2E2E2E2E2E2E2E2E2E2
310
E2E2E2E2E2E2E2E2E2E2E2E2E2E2E2E2E2E2E2E2E2E2E2E2E2E2E2E2E2E2E2E2E2E2E2E2E2E2E2E2E2E2E2E2E2E2E2E2E2E2E2E2E2E2E2E2E2E2E2E2E2E2E2E2E2E2F5E2E2E2E2E2E2E2E2E2E2E2E2E2E2E2E2E2E2E2E2F5F5E2E2E2E2E2E2E2E2E2E2E2E2E2E2E2E2E2E2E2E2F5E2E2E2E2E2E2E2E2E2E2E2E2E2E2E2E2E2
310
E2E2E2E2E2E2E2E2E2E2E2E2E2E2E2E2E2E2E2E2E2E2E2E2E2E2E2E2E2E2E2E2E2E2E2E2E2E2E2E2E2E2E2E2E2E2E2E2E2E2E2E2E2E2E2E2E2E2E2E2E2E2E2E2E2E2E2E2E2E2E2E2E2E2E2E2E2E2E2E2E2E2E2E2E2E2E2E2E2E2E2E2E2E2E2E2E2E2E2E2E2E2E2E2E2E2E2E2E2E2E2E2E2E2E2E2E2E2E2F5E2E2E2E2E2E2E2
310
E2E2E2E2E2E2E2E2E2E2E2E2E2F5F5E2E2E2F5E2E2E2E2E2E2E2E2E2E2E2E2E2E2E2E2F5E2E2E2E2E2E2E2E2E2E2E2E2E2E2E2E2E2E2E2E2E2E2E2E2E2E2E2E2E2E2E2E2E2E2E2E2E2E2E2E2E2E2E2E2E2E2E2E2E2E2E2E2E2E2E2E2E2E2E2E2E2E2E2E2E2E2E2E2E2E2E2E2E2E2E2E2E2E2E2E2E2E2E2E2E2E2E2E2E2E2E2
310
E2E2E2E2E2E2E2E2E2E2E2E2E2E2E2E2E2E2E2E2E2E2E2E2E2E2E2E2E2E2E2E2E2E2E2E2E2E2E2E2E2E2E2E2E2F5E2E2E2E2E2E2E2E2E2E2E2E2E2E2E2E2F5E2E2E2F5F5E2E2E2F5E2E2E2E2E2E2E2E2E2E2E2E2E2E2E2E2F5E2E2E2E2E2E2E2E2E2E2E2E2E2E2E2E2E2E2E2E2E2E2E2E2E2E2E2E2E2E2E2E2E2E2E2E2E2E2
310
E2E2E2E2E2E2E2E2E2E2E2E2E2E2E2E2E2E2E2E2E2E2E2E2E2E2E2E2E2E2E2E2E2E2E2E2E2E2E2E2E2E2E2E2E2E2E2E2E2E2E2E2E2E2E2E2E2E2E2E2E2E2E2E2E2E2E2E2E2E2E2E2E2E2E2E2E2E2E2E2E2E2E2E2E2E2E2E2E2E2E2E2E2E2E2E2E2E2F5E2E2E2E2E2E2E2E2E2E2E2E2E2E2E2E2F5E2E2E2F5F5E2E2E2F5E2E2
310
E2E2E2E2E2E2E2E2E2E2E2E2E2E2F5E2E2E2E2E2E2E2E2E2E2E2E2E2E2E2E2E2E2E2E2E2E2E2E2E2E2E2E2E2E2E2E2E2E2E2E2E2E2E2E2E2E2E2E2E2E2E2E2E2E2E2E2E2E2E2E2E2E2E2E2E2E2E2E2E2E2E2E2E2E2E2E2E2E2E2E2E2E2E2E2E2E2E2E2E2E2E2E2E2E2E2E2E2E2E2E2E2E2E2E2E2E2E2E2E2E2E2E2E2E2E2E2
310
E2E2E2E2E2E2E2E2E2E2E2E2E2E2E2E2E2E2E2E2E2E2E2E2F5E2E2E2E2E2E2E2E2E2E2E2E2E2E2E2E2F5E2E2E2F5F5E2E2E2F5E2E2E2E2E2E2E2E2E2E2E2E2E2E2E2E2F5E2E2E2E2E2E2E2E2E2E2E2E2E2E2E2E2E2E2E2E2E2E2E2E2E2E2E2E2E2E2E2E2E2E2E2E2E2E2E2E2E2E2E2E2E2E2E2E2E2E2E2E2E2E2E2E2E2E2E2
310
E2E2E2E2E2E2E2E2E2E2E2E2E2E2E2E2E2E2E2E2E2E2E2E2E2E2E2E2E2E2E2E2E2E2E2E2E2E2E2E2E2E2E2E2E2E2E2E2E2E2E2E2E2E2E2E2E2E2E2E2E2E2E2E2E2E2E2E2E2E2E2E2E2E2E2E2E2F5E2E2E2E2E2E2E2E2E2E2E2E2E2E2E2E2F5E2E2E2F5F5E2E2E2F5E2E2E2E2E2E2E2E2E2E2E2E2E2E2E2E2F5E2E2E2E2E2E2
310
E2E2E2E2E2E2E2E2E2E2E2E2E2E2E2E2E2E2E2E2E2E2E2E2E2E2E2E2E2E2E2E2E2E2E2E2E2E2E2E2E2E2E2E2E2E2E2E2E2E2E2E2E2E2E2E2E2E2E2E2E2E2E2E2E2E2E2E2E2E2E2E2E2E2E2E2E2E2E2E2E2E2E2E2E2E2E2E2E2E2E2E2E2E2E2E2E2E2E2E2E2E2E2E2E2E2E2E2E2E2E2E2E2E2E2E2E2E2E2E2E2E2E2E2E2E2E2
310
E2E2E2F5E2E2E2E2E2E2E2E2E2E2E2E2E2E2E2E2F5E2E2E2F5F5E2E2E2F5E2E2E2E2E2E2E2E2E2E2E2E2E2E2E2E2F5E2E2E2E2E2E2E2E2E2E2E2E2E2E2E2E2E2E2E2E2E2E2E2E2E2E2E2E2E2E2E2E2E2E2E2E2E2E2E2E2E2E2E2E2E2E2E2E2E2E2E2E2E2E2E2E2E2E2E2E2E2E2E2E2E2E2E2E2E2E2E2E2E2E2E2E2E2E2E2E2
310
E2E2E2E2E2E2E2E2E2E2E2E2E2E2E2E2E2E2E2E2E2E2E2E2E2E2E2E2E2E2E2E2E2E2E2E2E2E2E2E2E2E2E2E2E2E2E2E2E2E2E2E2E2E2E2E2F5E2E2E2E2E2E2E2E2E2E2E2E2E2E2E2E2F5E2E2E2F5F5E2E2E2F5E2E2E2E2E2E2E2E2E2E2E2E2E2E2E2E2F5E2E2E2E2E2E2E2E2E2E2E2E2E2E2E2E2E2E2E2E2E2E2E2E2E2E2E2
310
E2E2E2E2E2E2E2E2E2E2E2E2E2E2E2E2E2E2E2E2E2E2E2E2E2E2E2E2E2E2E2E2E2E2E2E2E2E2E2E2E2E2E2E2E2E2E2E2E2E2E2E2E2E2E2E2E2E2E2E2E2E2E2E2E2E2E2E2E2E2E2E2E2E2E2E2E2E2E2E2E2E2E2E2E2E2E2E2E2E2E2E2E2E2E2E2E2E2E2E2E2E2E2E2E2E2E2E2E2F5E2E2E2E2E2E2E2E2E2E2E2E2E2E2E2E2F5
310
E2E2E2F5F5E2E2E2F5E2E2E2E2E2E2E2E2E2E2E2E2E2E2E2E2F5E2E2E2E2E2E2E2E2E2E2E2E2E2E2E2E2E2E2E2E2E2E2E2E2E2E2E2E2E2E2E2E2E2E2E2E2E2E2E2E2E2E2E2E2E2E2E2E2E2E2E2E2E2E2E2E2E2E2E2E2E2E2E2E2E2E2E2E2E2E2E2E2E2E2E2E2E2E2E2E2E2E2E2E2E2E2E2E2E2E2E2E2E2E2E2E2E2E2E2E2E2
310
E2E2E2E2E2E2E2E2E2E2E2E2E2E2E2E2E2E2E2E2E2E2E2E2E2E2E2E2E2E2E2E2E2E2E2F5E2E2E2E2E2E2E2E2E2E2E2E2E2E2E2E2F5E2E2E2F5F5E2E2E2F5E2E2E2E2E2E2E2E2E2E2E2E2E2E2E2E2F5E2E2E2E2E2E2E2E2E2E2E2E2E2E2E2E2E2E2E2E2E2E2E2E2E2E2E2E2E2E2E2E2E2E2E2E2E2E2E2E2E2E2E2E2E2E2E2E2
310
E2E2E2E2E2E2E2E2E2E2E2E2E2E2E2E2E2E2E2E2E2E2E2E2E2E2E2E2E2E2E2E2E2E2E2E2E2E2E2E2E2E2E2E2E2E2E2E2E2E2E2E2E2E2E2E2E2E2E2E2E2E2E2E2E2E2E2E2E2E2E2E2E2E2E2E2E2E2E2E2E2E2E2E2E2E2E2E2F5E2E2E2E2E2E2E2E2E2E2E2E2E2E2E2E2F5E2E2E2F5F5E2E2E2F5E2E2E2E2E2E2E2E2E2E2E2E2
310
E2E2E2E2F5E2E2E2E2E2E2E2E2E2E2E2E2E2E2E2E2E2E2E2E2E2E2E2E2E2E2E2E2E2E2E2E2E2E2E2E2E2E2E2E2E2E2E2E2E2E2E2E2E2E2E2E2E2E2E2E2E2E2E2E2E2E2E2E2E2E2E2E2E2E2E2E2E2E2E2E2E2E2E2E2E2E2E2E2E2E2E2E2E2E2E2E2E2E2E2E2E2E2E2E2E2E2E2E2E2E2E2E2E2E2E2E2E2E2E2E2E2E2E2E2E2E2
310
E2E2E2E2E2E2E2E2E2E2E2E2E2E2F5E2E2E2E2E2E2E2E2E2E2E2E2E2E2E2E2F5E2E2E2F5F5E2E2E2F5E2E2E2E2E2E2E2E2E2E2E2E2E2E2E2E2F5E2E2E2E2E2E2E2E2E2E2E2E2E2E2E2E2E2E2E2E2E2E2E2E2E2E2E2E2E2E2E2E2E2E2E2E2E2E2E2E2E2E2E2E2E2E2E2E2E2E2E2E2E2E2E2E2E2E2E2E2E2E2E2E2E2E2E2E2E2
310
E2E2E2E2E2E2E2E2E2E2E2E2E2E2E2E2E2E2E2E2E2E2E2E2E2E2E2E2E2E2E2E2E2E2E2E2E2E2E2E2E2E2E2E2E2E2E2E2E2E2E2E2E2E2E2E2E2E2E2E2E2E2E2E2E2E2E2F5E2E2E2E2E2E2E2E2E2E2E2E2E2E2E2E2F5E2E2E2F5F5E2E2E2F5E2E2E2E2E2E2E2E2E2E2E2E2E2E2E2E2F5E2E2E2E2E2E2E2E2E2E2E2E2E2E2E2E2
310
E2E2E2E2E2E2E2E2E2E2E2E2E2E2E2E2E2E2E2E2E2E2E2E2E2E2E2E2E2E2E2E2E2E2E2E2E2E2E2E2E2E2E2E2E2E2E2E2E2E2E2E2E2E2E2E2E2E2E2E2E2E2E2E2E2E2E2E2E2E2E2E2E2E2E2E2E2E2E2E2E2E2E2E2E2E2E2E2E2E2E2E2E2E2E2E2E2E2E2E2E2E2E2E2E2E2E2E2E2E2E2E2E2E2E2E2E2E2E2E2F5E2E2E2E2E2E2
310
E2E2E2E2E2E2E2E2E2E2F5E2E2E2F5F5E2E2E2F5E2E2E2E2E2E2E2E2E2E2E2E2E2E2E2E2F5E2E2E2E2E2E2E2E2E2E2E2E2E2E2E2E2E2E2E2E2E2E2E2E2E2E2E2E2E2E2E2E2E2E2E2E2E2E2E2E2E2E2E2E2E2E2E2E2E2E2E2E2E2E2E2E2E2E2E2E2E2E2E2E2E2E2E2E2E2E2E2E2E2E2E2E2E2E2E2E2E2E2E2E2E2E2E2E2E2E2
310
E2E2E2E2E2E2E2E2E2E2E2E2E2E2E2E2E2E2E2E2E2E2E2E2E2E2E2E2E2E2E2E2E2E2E2E2E2E2E2E2E2E2E2E2E2E2F5E2E2E2E2E2E2E2E2E2E2E2E2E2E2E2E2F5E2E2E2F5F5E2E2E2F5E2E2E2E2E2E2E2E2E2E2E2E2E2E2E2E2F5E2E2E2E2E2E2E2E2E2E2E2E2E2E2E2E2E2E2E2E2E2E2E2E2E2E2E2E2E2E2E2E2E2E2E2E2E2
310
E2E2E2E2E2E2E2E2E2E2E2E2E2E2E2E2E2E2E2E2E2E2E2E2E2E2E2E2E2E2E2E2E2E2E2E2E2E2E2E2E2E2E2E2E2E2E2E2E2E2E2E2E2E2E2E2E2E2E2E2E2E2E2E2E2E2E2E2E2E2E2E2E2E2E2E2E2E2E2E2E2E2E2E2E2E2E2E2E2E2E2E2E2E2E2E2E2E2E2F5E2E2E2E2E2E2E2E2E2E2E2E2E2E2E2E2F5E2E2E2F5F5E2E2E2F5E2
310
E2E2E2E2E2E2E2E2E2E2E2E2E2E2E2F5E2E2E2E2E2E2E2E2E2E2E2E2E2E2E2E2E2E2E2E2E2E2E2E2E2E2E2E2E2E2E2E2E2E2E2E2E2E2E2E2E2E2E2E2E2E2E2E2E2E2E2E2E2E2E2E2E2E2E2E2E2E2E2E2E2E2E2E2E2E2E2E2E2E2E2E2E2E2E2E2E2E2E2E2E2E2E2E2E2E2E2E2E2E2E2E2E2E2E2E2E2E2E2E2E2E2E2E2E2E2E2
310
E2E2E2E2E2E2E2E2E2E2E2E2E2E2E2E2E2E2E2E2E2E2E2E2E2F5E2E2E2E2E2E2E2E2E2E2E2E2E2E2E2E2F5E2E2E2F5F5E2E2E2F5E2E2E2E2E2E2E2E2E2E2E2E2E2E2E2E2F5E2E2E2E2E2E2E2E2E2E2E2E2E2E2E2E2E2E2E2E2E2E2E2E2E2E2E2E2E2E2E2E2E2E2E2E2E2E2E2E2E2E2E2E2E2E2E2E2E2E2E2E2E2E2E2E2E2E2
310
E2E2E2E2E2E2E2E2E2E2E2E2E2E2E2E2E2E2E2E2E2E2E2E2E2E2E2E2E2E2E2E2E2E2E2E2E2E2E2E2E2E2E2E2E2E2E2E2E2E2E2E2E2E2E2E2E2E2E2E2E2E2E2E2E2E2E2E2E2E2E2E2E2E2E2E2E2E2F5E2E2E2E2E2E2E2E2E2E2E2E2E2E2E2E2F5E2E2E2F5F5E2E2E2F5E2E2E2E2E2E2E2E2E2E2E2E2E2E2E2E2F5E2E2E2E2E2
310
E2E2E2E2E2E2E2E2E2E2E2E2E2E2E2E2E2E2E2E2E2E2E2E2E2E2E2E2E2E2E2E2E2E2E2E2E2E2E2E2E2E2E2E2E2E2E2E2E2E2E2E2E2E2E2E2E2E2E2E2E2E2E2E2E2E2E2E2E2E2E2E2E2E2E2E2E2E2E2E2E2E2E2E2E2E2E2E2E2E2E2E2E2E2E2E2E2E2E2E2E2E2E2E2E2E2E2E2E2E2E2E2E2E2E2E2E2E2E2E2E2E2E2E2E2E2E2
310
E2E2E2E2F5E2E2E2E2E2E2E2E2E2E2E2E2E2E2E2E2F5E2E2E2F5F5E2E2E2E2E2E2E2E2E2E2E2E2E2E2E2E2E2E2E2E2F5E2E2E2E2E2E2E2E2E2E2E2E2E2E2E2E2E2E2E2E2E2E2E2E2E2E2E2E2E2E2E2E2E2E2E2E2E2E2E2E2E2E2E2E2E2E2E2E2E2E2E2E2E2E2E2E2E2E2E2E2E2E2E2E2E2E2E2E2E2E2E2E2E2E2E2E2E2E2E2
310
E2E2E2E2E2E2E2E2E2E2E2E2E2E2E2E2E2E2E2E2E2E2E2E2E2E2E2E2E2E2E2E2E2E2E2E2E2E2E2E2E2E2E2E2E2E2E2E2E2E2E2E2E2E2E2E2E2F5E2E2E2E2E2E2E2E2E2E2E2E2E2E2E2E2E2E2E2E2F5F5E2E2E2E2E2E2E2E2E2E2E2E2E2E2E2E2E2E2E2E2F5E2E2E2E2E2E2E2E2E2E2E2E2E2E2E2E2E2E2E2E2E2E2E2E2E2E2
310
E2E2E2E2E2E2E2E2E2E2E2E2E2E2E2E2E2E2E2E2E2E2E2E2E2E2E2E2E2E2E2E2E2E2E2E2E2E2E2E2E2E2E2E2E2E2E2E2E2E2E2E2E2E2E2E2E2E2E2E2E2E2E2E2E2E2E2E2E2E2E2E2E2E2E2E2E2E2E2E2E2E2E2E2E2E2E2E2E2E2E2E2E2E2E2E2E2E2E2E2E2E2E2E2E2E2E2E2E2E2F5E2E2E2E2E2E2E2E2E2E2E2E2E2E2E2E2
310
E2E2E2E2F5F5E2E2E2E2E2E2E2E2E2E2E2E2E2E2E2E2E2E2E2E2F5E2E2E2E2E2E2E2E2E2E2E2E2E2E2E2E2E2E2E2E2E2E2E2E2E2E2E2E2E2E2E2E2E2E2E2E2E2E2E2E2E2E2E2E2E2E2E2E2E2E2E2E2E2E2E2E2E2E2E2E2E2E2E2E2E2E2E2E2E2E2E2E2E2E2E2E2E2E2E2E2E2E2E2E2E2E2E2E2E2E2E2E2E2E2E2E2E2E2E2E2
310
E2E2E2E2E2E2E2E2E2E2E2E2E2E2E2E2E2E2E2E2E2E2E2E2E2E2E2E2E2E2E2E2E2E2E2E2F5E2E2E2E2E2E2E2E2E2E2E2E2E2E2E2E2E2E2E2E2F5F5E2E2E2E2E2E2E2E2E2E2E2E2E2E2E2E2E2E2E2E2F5E2E2E2E2E2E2E2E2E2E2E2E2E2E2E2E2E2E2E2E2E2E2E2E2E2E2E2E2E2E2E2E2E2E2E2E2E2E2E2E2E2E2E2E2E2E2E2
310
E2E2E2E2E2E2E2E2E2E2E2E2E2E2E2E2E2E2E2E2E2E2E2E2E2E2E2E2E2E2E2E2E2E2E2E2E2E2E2E2E2E2E2E2E2E2E2E2E2E2E2E2E2E2E2E2E2E2E2E2E2E2E2E2E2E2E2E2E2E2E2E2E2E2E2E2E2E2E2E2E2E2E2E2E2E2E2E2E2F5E2E2E2E2E2E2E2E2E2E2E2E2E2E2E2E2E2E2E2E2F5F5E2E2E2E2E2E2E2E2E2E2E2E2E2E2E2
310
E2E2E2E2E2F5F5F5F5F5F5F5F5F5F5F5F5F5F5F5F5F5F5F5F5F5F5F5F5F5F5F5F5F5F5F5F5F5F5F5F5F5F5F5F5F5F5F5F5F5F5F5F5F5F5F5F5F5F5F5F5F5F5F5F5F5F5F5F5F5F5F5F5F5F5F5F5F5F5F5F5F5F5F5F5F5F5F5F5F5F5F5F5F5F5F5F5F5F5F5F5F5F5F5F5F5F5F5F5F5F5F5F5F5F5F5F5F5F5F5F5F5F5F5F5F5F5
310
F5F5F5F5F5F5F5F5F5F5F5F5F5F5F5F5E2E2E2E2E2E2E2E2E2E2E2E2E2E2E2E2E2E2E2E2F5F5E2E2E2E2E2E2E2E2E2E2E2E2E2E2E2E2E2E2E2E2E2E2E2E2E2E2E2E2E2E2E2E2E2E2E2E2E2E2E2E2E2E2E2E2E2E2E2E2E2E2E2E2E2E2E2E2E2E2E2E2E2E2E2E2E2E2E2E2E2E2E2E2E2E2E2E2E2E2E2E2E2E2E2E2E2E2E2E2E2
310
E2E2E2E2E2E2E2E2E2E2E2E2E2E2E2E2E2E2E2E2E2E2E2E2E2E2E2E2E2E2E2E2E2E2E2E2E2E2E2E2E2E2E2E2E2E2E2E2E2E2E2E2E2E2E2E2E2E2E2E2E2E2E2E2E2E2E2E2E2E2E2E2E2E2E2E2E2E2E2E2E2E2E2E2E2E2E2E2E2F5F5E2E2E2E2E2E2E2E2E2E2E2E2E2E2E2E2E2E2E2E2E2E2E2E2E2E2E2E2E2E2E2E2E2E2E2E2
310
E2E2E2E2E2E2E2E2E2E2E2E2E2E2E2E2E2E2E2E2E2E2E2E2E2E2E2E2E2E2E2E2E2E2E2E2E2E2E2E2E2E2E2E2E2E2E2E2E2E2E2E2E2E2E2E2E2E2E2E2E2E2E2E2E2E2E2E2E2E2E2E2E2E2E2E2E2E2E2E2E2E2E2E2E2E2E2E2E2E2E2E2E2E2E2E2E2E2E2E2E2E2E2E2E2E2E2E2E2E2E2E2E2E2E2E2E2E2E2E2E2E2E2E2E2E2E2
310
E2E2E2E2E2E2E2E2E2E2E2E2E2E2E2F5F5E2E2E2E2E2E2E2E2E2E2E2E2E2E2E2E2E2E2E2E2E2E2E2E2E2E2E2E2E2E2E2E2E2E2E2E2E2E2E2E2E2E2E2E2E2E2E2E2E2E2E2E2E2E2E2E2E2E2E2E2E2E2E2E2E2E2E2E2E2E2E2E2E2E2E2E2E2E2E2E2E2E2E2E2E2E2E2E2E2E2E2E2E2E2E2E2E2E2E2E2E2E2E2E2E2E2E2E2E2E2
310
E2E2E2E2E2E2E2E2E2E2E2E2E2E2E2E2E2E2E2E2E2E2E2E2E2E2E2E2E2E2E2E2E2E2E2E2E2E2E2E2E2E2E2E2E2E2E2E2E2E2E2E2E2E2E2E2E2E2E2E2E2E2E2E2E2E2E2E2F5F5E2E2E2E2E2E2E2E2E2E2E2E2E2E2E2E2E2E2E2E2E2E2E2E2E2E2E2E2E2E2E2E2E2E2E2E2E2E2E2E2E2E2E2E2E2E2E2E2E2E2E2E2E2E2E2E2E2
310
E2E2E2E2E2E2E2E2E2E2E2E2E2E2E2E2E2E2E2E2E2E2E2E2E2E2E2E2E2E2E2E2E2E2E2E2E2E2E2E2E2E2E2E2E2E2E2E2E2E2E2E2E2E2E2E2E2E2E2E2E2E2E2E2E2E2E2E2E2E2E2E2E2E2E2E2E2E2E2E2E2E2E2E2E2E2E2E2E2E2E2E2E2E2E2E2E2E2E2E2E2E2E2E2E2E2E2E2E2E2E2E2E2E2E2E2E2E2E2E2E2F5F5E2E2E2F5
310
E2E2E2E2E2E2E2E2E2E2E2E2E2E2E2E2E2E2E2E2E2E2E2E2E2E2E2E2E2E2E2E2E2E2E2E2E2E2E2E2E2E2E2E2E2E2E2E2E2E2E2E2E2E2E2E2E2E2E2E2E2E2E2E2E2E2E2E2E2E2E2E2E2E2E2E2E2E2E2E2E2E2E2E2E2E2E2E2E2E2E2E2E2E2E2E2E2E2E2E2E2E2E2E2E2E2E2E2E2E2E2E2E2E2E2E2E2E2E2E2E2E2E2E2E2E2E2
310
E2E2E2E2E2E2E2E2E2E2E2E2E2E2E2E2E2E2E2E2E2E2E2E2E2E2E2E2E2E2E2E2E2E2E2E2E2E2E2E2E2E2E2F5E2E2E2F5F5E2E2E2F5E2E2E2E2E2E2E2E2E2E2E2E2E2E2E2E2E2E2E2E2E2E2E2E2E2E2E2E2E2E2E2E2E2E2E2E2E2E2E2E2E2E2E2E2E2E2E2E2E2E2E2E2E2E2E2E2E2E2E2E2E2E2E2E2E2E2E2E2E2E2E2E2E2E2
310
E2E2E2E2E2E2E2E2E2E2E2E2E2E2E2E2E2E2E2E2E2E2E2E2E2E2E2E2E2E2E2E2E2E2E2E2E2E2E2E2E2E2E2E2E2E2E2E2E2E2E2E2E2E2E2E2E2E2E2E2E2E2E2E2E2E2E2E2E2E2E2E2E2E2E2E2E2E2E2E2E2E2E2E2E2E2E2E2E2E2E2E2E2E2E2E2F5E2E2E2F5F5E2E2E2F5E2E2E2E2E2E2E2E2E2E2E2E2E2E2E2E2E2E2E2E2E2
310
E2E2E2E2E2E2E2E2E2E2E2E2E2E2E2E2E2E2E2E2E2E2E2E2E2E2E2E2E2E2E2E2E2E2E2E2E2E2E2E2E2E2E2E2E2E2E2E2E2E2E2E2E2E2E2E2E2E2E2E2E2E2E2E2E2E2E2E2E2E2E2E2E2E2E2E2E2E2E2E2E2E2E2E2E2E2E2E2E2E2E2E2E2E2E2E2E2E2E2E2E2E2E2E2E2E2E2E2E2E2E2E2E2E2E2E2E2E2E2E2E2E2E2E2E2E2E2
310
E2E2E2E2E2E2E2E2E2E2E2E2E2E2E2E2E2E2E2E2E2E2F5E2E2E2F5F5E2E2E2F5E2E2E2E2E2E2E2E2E2E2E2E2E2E2E2E2E2E2E2E2E2E2E2E2E2E2E2E2E2E2E2E2E2E2E2E2E2E2E2E2E2E2E2E2E2E2E2E2E2E2E2E2E2E2E2E2E2E2E2E2E2E2E2E2E2E2E2E2E2E2E2E2E2E2E2E2E2E2E2E2E2E2E2E2E2E2E2E2E2E2E2E2E2E2E2
310
E2E2E2E2E2E2E2E2E2E2E2E2E2E2E2E2E2E2E2E2E2E2E2E2E2E2E2E2E2E2E2E2E2E2E2E2E2E2E2E2E2E2E2E2E2E2E2E2E2E2E2E2E2E2E2E2E2E2E2E2E2E2E2E2E2E2E2E2E2E2E2E2E2E2E2F5E2E2E2F5F5E2E2E2F5E2E2E2E2E2E2E2E2E2E2E2E2E2E2E2E2E2E2E2E2E2E2E2E2E2E2E2E2E2E2E2E2E2E2E2E2E2E2E2E2E2E2
310
E2E2E2E2E2E2E2E2E2E2E2E2E2E2E2E2E2E2E2E2E2E2E2E2E2E2E2E2E2E2E2E2E2E2E2E2E2E2E2E2E2E2E2E2E2E2E2E2E2E2E2E2E2E2E2E2E2E2E2E2E2E2E2E2E2E2E2E2E2E2E2E2E2E2E2E2E2E2E2E2E2E2E2E2E2E2E2E2E2E2E2E2E2E2E2E2E2E2E2E2E2E2E2E2E2E2E2E2E2E2E2E2E2E2E2E2E2E2E2E2E2E2E2E2E2E2E2
310
E2F5E2E2E2F5F5E2E2E2F5E2E2E2E2E2E2E2E2E2E2E2E2E2E2E2E2E2E2E2E2E2E2E2E2E2E2E2E2E2E2E2E2E2E2E2E2E2E2E2E2E2E2E2E2E2E2E2E2E2E2E2E2E2E2E2E2E2E2E2E2E2E2E2E2E2E2E2E2E2E2E2E2E2E2E2E2E2E2E2E2E2E2E2E2E2E2E2E2E2E2E2E2E2E2E2E2E2E2E2E2E2E2E2E2E2E2E2E2E2E2E2E2E2E2E2E2
310
E2E2E2E2E2E2E2E2E2E2E2E2E2E2E2E2E2E2E2E2E2E2E2E2E2E2E2E2E2E2E2E2E2E2E2E2E2E2E2E2E2E2E2E2E2E2E2E2E2E2E2E2E2E2F5E2E2E2F5F5E2E2E2F5E2E2E2E2E2E2E2E2E2E2E2E2E2E2E2E2E2E2E2E2E2E2E2E2E2E2E2E2E2E2E2E2E2E2E2E2E2E2E2E2E2E2E2E2E2E2E2E2E2E2E2E2E2E2E2E2E2E2E2E2E2E2E2
310
E2E2E2E2E2E2E2E2E2E2E2E2E2E2E2E2E2E2E2E2E2E2E2E2E2E2E2E2E2E2E2E2E2E2E2E2E2E2E2E2E2E2E2E2E2E2E2E2E2E2E2E2E2E2E2E2E2E2E2E2E2E2E2E2E2E2E2E2E2E2E2E2E2E2E2E2E2E2E2E2E2E2E2E2E2E2E2E2E2E2E2E2E2E2E2E2E2E2E2E2E2E2E2E2E2E2E2F5E2E2E2F5F5E2E2E2F5E2E2E2E2E2E2E2E2E2E2
310
E2E2E2E2E2E2E2E2E2E2E2E2E2E2E2E2E2E2E2E2E2E2E2E2E2E2E2E2E2E2E2E2E2E2E2E2E2E2E2E2E2E2E2E2E2E2E2E2E2E2E2E2E2E2E2E2E2E2E2E2E2E2E2E2E2E2E2E2E2E2E2E2E2E2E2E2E2E2E2E2E2E2E2E2E2E2E2E2E2E2E2E2E2E2E2E2E2E2E2E2E2E2E2E2E2E2E2E2E2E2E2E2E2E2E2E2E2E2E2E2E2E2E2E2E2E2E2
310
E2E2E2E2E2E2E2E2E2E2E2E2E2E2E2E2E2E2E2E2E2E2E2E2E2E2E2E2E2E2E2E2E2F5E2E2E2F5F5E2E2E2F5F5F5F5F5F5F5F5E2E2E2E2E2E2E2E2E2F5F5F5F5F5F5F5F5F5F5F5F5F5F5F5F5E2E2E2E2E2E2E2E2E2F5F5F5F5F5F5F5F5F5F5F5F5F5F5F5E2E2E2E2E2E2E2E2E2F5F5F5F5F5F5F5F5F5F5F5F5F5F5F5F5E2E2E2
310
E2E2E2E2E2F5F5F5F5F5F5F5F5F5F5F5F5F5F5F5F5E2E2E2E2E2E2E2E2E2F5F5F5F5F5F5F5F5F5F5F5F5F5F5F5E2E2E2E2E2E2E2E2E2F5F5F5F5F5F5F5F5F5F5F5F5F5F5F5F5E2E2E2E2E2E2E2E2E2F5F5F5F5F5F5F5F5E2E2E2F5F5E2E2E2E2E2E2E2E2E2E2E2E2E2E2E2E2E2E2E2E2E2E2E2E2E2E2E2E2E2E2E2E2E2E2E2
310
E2E2E2E2E2E2E2E2E2E2E2E2E2E2E2E2E2E2E2E2E2E2E2E2E2E2E2E2E2E2E2E2E2E2E2E2E2E2E2E2E2E2E2E2E2E2E2E2E2E2E2E2E2E2E2E2E2E2E2E2E2E2E2E2E2E2E2E2E2E2E2E2E2E2E2E2E2E2E2E2E2E2E2E2E2E2E2E2E2E2E2E2E2E2E2E2E2E2E2E2E2E2E2E2E2E2E2E2E2E2E2E2E2E2E2E2E2E2E2E2E2E2E2E2E2E2E2
310
E2E2E2E2E2E2E2E2E2E2E2E2E2E2E2E2F5F5E2E2E2E2E2E2E2E2E2E2E2E2E2E2E2E2E2E2E2E2E2E2E2E2E2E2E2E2E2E2E2E2E2E2E2E2E2E2E2E2E2E2E2E2E2E2E2E2E2E2E2E2E2E2E2E2E2E2E2E2E2E2E2E2E2E2E2E2E2E2E2E2E2E2E2E2E2E2E2E2E2E2E2E2E2E2E2E2E2E2E2E2E2E2E2E2E2E2E2E2E2E2E2E2E2E2E2E2E2
310
E2E2E2E2E2E2E2E2E2E2E2E2E2E2E2E2E2E2E2E2E2E2E2E2E2E2E2E2E2E2E2E2E2E2E2E2E2E2E2E2E2E2E2E2E2E2E2E2E2E2E2E2E2E2E2E2E2E2E2E2E2E2E2E2E2E2E2E2E2F5F5E2E2E2E2E2E2E2E2E2E2E2E2E2E2E2E2E2E2E2E2E2E2E2E2E2E2E2E2E2E2E2E2E2E2E2E2E2E2E2E2E2E2E2E2E2E2E2E2E2E2E2E2E2E2E2E2
310
E2E2E2E2E2E2E2E2E2E2E2E2E2E2E2E2E2E2E2E2E2E2E2E2E2E2E2E2E2E2E2E2E2E2E2E2E2E2E2E2E2E2E2E2E2E2E2E2E2E2E2E2E2E2E2E2E2E2E2E2E2E2E2E2E2E2E2E2E2E2E2E2E2E2E2E2E2E2E2E2E2E2E2E2E2E2E2E2E2E2E2E2E2E2E2E2E2E2E2E2E2E2E2E2E2E2E2E2E2E2E2E2E2E2E2E2E2E2E2E2E2E2F5F5E2E2E2
310
E2E2E2E2E2E2E2E2E2E2E2E2E2E2E2E2E2E2E2E2E2E2E2E2E2E2E2E2E2E2E2E2E2E2E2E2E2E2E2E2E2E2E2E2E2E2E2E2E2E2E2E2E2E2E2E2E2E2E2E2E2E2E2E2E2E2E2E2E2E2E2E2E2E2E2E2E2E2E2E2E2E2E2E2E2E2E2E2E2E2E2E2E2E2E2E2E2E2E2E2E2E2E2E2E2E2E2E2E2E2E2E2E2E2E2E2E2E2E2E2E2E2E2E2E2E2E2
310
E2E2E2E2E2E2E2E2E2E2E2E2E2E2E2E2E2E2E2E2E2E2E2E2E2E2E2E2E2E2E2E2E2E2E2E2E2E2E2E2E2E2E2E2E2E2E2E2F5
  0
XRECORD
  5
5618E
102
{ACAD_REACTORS
330
5618D
102
}
330
5618D
100
AcDbXrecord
280
     1
102
SHADEPLOT
 70
     0
102
SHADEPLOTRESLEVEL
 70
     2
102
SHADEPLOTCUSTOMDPI
 70
   300
  0
ENDSEC
  0
EOF
