  0
SECTION
  2
HEADER
  9
$ACADVER
  1
AC1015
  9
$ACADMAINTVER
 70
    20
  9
$DWGCODEPAGE
  3
ANSI_936
  9
$INSBASE
 10
0.0
 20
0.0
 30
0.0
  9
$EXTMIN
 10
-95.30303134861808
 20
-61.53750000000002
 30
0.0
  9
$EXTMAX
 10
123.7324097460978
 20
87.14196211799572
 30
0.0
  9
$LIMMIN
 10
0.0
 20
0.0
  9
$LIMMAX
 10
420.0
 20
297.0
  9
$ORTHOMODE
 70
     0
  9
$REGENMODE
 70
     1
  9
$FILLMODE
 70
     1
  9
$QTEXTMODE
 70
     0
  9
$MIRRTEXT
 70
     1
  9
$LTSCALE
 40
1.0
  9
$ATTMODE
 70
     1
  9
$TEXTSIZE
 40
3.5
  9
$TRACEWID
 40
1.0
  9
$TEXTSTYLE
  7
simplex
  9
$CLAYER
  8
0
  9
$CELTYPE
  6
ByLayer
  9
$CECOLOR
 62
   256
  9
$CELTSCALE
 40
1.0
  9
$DISPSILH
 70
     0
  9
$DIMSCALE
 40
0.0
  9
$DIMASZ
 40
3.5
  9
$DIMEXO
 40
0.0
  9
$DIMDLI
 40
0.38
  9
$DIMRND
 40
0.0
  9
$DIMDLE
 40
0.0
  9
$DIMEXE
 40
1.5
  9
$DIMTP
 40
0.0
  9
$DIMTM
 40
0.0
  9
$DIMTXT
 40
3.5
  9
$DIMCEN
 40
0.09
  9
$DIMTSZ
 40
0.0
  9
$DIMTOL
 70
     0
  9
$DIMLIM
 70
     0
  9
$DIMTIH
 70
     0
  9
$DIMTOH
 70
     0
  9
$DIMSE1
 70
     0
  9
$DIMSE2
 70
     0
  9
$DIMTAD
 70
     1
  9
$DIMZIN
 70
     8
  9
$DIMBLK
  1

  9
$DIMASO
 70
     1
  9
$DIMSHO
 70
     1
  9
$DIMPOST
  1

  9
$DIMAPOST
  1

  9
$DIMALT
 70
     0
  9
$DIMALTD
 70
     2
  9
$DIMALTF
 40
25.4
  9
$DIMLFAC
 40
1.0
  9
$DIMTOFL
 70
     0
  9
$DIMTVP
 40
0.0
  9
$DIMTIX
 70
     0
  9
$DIMSOXD
 70
     0
  9
$DIMSAH
 70
     0
  9
$DIMBLK1
  1

  9
$DIMBLK2
  1

  9
$DIMSTYLE
  2
\M+18352\M+18373\M+1815B - ISO-25
  9
$DIMCLRD
 70
   256
  9
$DIMCLRE
 70
   256
  9
$DIMCLRT
 70
   256
  9
$DIMTFAC
 40
1.0
  9
$DIMGAP
 40
2.299999999999998
  9
$DIMJUST
 70
     0
  9
$DIMSD1
 70
     0
  9
$DIMSD2
 70
     0
  9
$DIMTOLJ
 70
     1
  9
$DIMTZIN
 70
     8
  9
$DIMALTZ
 70
     0
  9
$DIMALTTZ
 70
     0
  9
$DIMUPT
 70
     0
  9
$DIMDEC
 70
     2
  9
$DIMTDEC
 70
     2
  9
$DIMALTU
 70
     2
  9
$DIMALTTD
 70
     2
  9
$DIMTXSTY
  7
simplex
  9
$DIMAUNIT
 70
     0
  9
$DIMADEC
 70
     0
  9
$DIMALTRND
 40
0.0
  9
$DIMAZIN
 70
     0
  9
$DIMDSEP
 70
    46
  9
$DIMATFIT
 70
     3
  9
$DIMFRAC
 70
     0
  9
$DIMLDRBLK
  1

  9
$DIMLUNIT
 70
     2
  9
$DIMLWD
 70
    -1
  9
$DIMLWE
 70
    -1
  9
$DIMTMOVE
 70
     0
  9
$LUNITS
 70
     2
  9
$LUPREC
 70
     4
  9
$SKETCHINC
 40
1.0
  9
$FILLETRAD
 40
0.8
  9
$AUNITS
 70
     0
  9
$AUPREC
 70
     0
  9
$MENU
  1
.
  9
$ELEVATION
 40
0.0
  9
$PELEVATION
 40
0.0
  9
$THICKNESS
 40
0.0
  9
$LIMCHECK
 70
     0
  9
$CHAMFERA
 40
10.0
  9
$CHAMFERB
 40
10.0
  9
$CHAMFERC
 40
20.0
  9
$CHAMFERD
 40
0.0
  9
$SKPOLY
 70
     0
  9
$TDCREATE
 40
2455489.391063368
  9
$TDUCREATE
 40
2455489.057730035
  9
$TDUPDATE
 40
2458508.384105011
  9
$TDUUPDATE
 40
2458508.050771678
  9
$TDINDWG
 40
2.2351836458
  9
$TDUSRTIMER
 40
2.2351307292
  9
$USRTIMER
 70
     1
  9
$ANGBASE
 50
0.0
  9
$ANGDIR
 70
     0
  9
$PDMODE
 70
     0
  9
$PDSIZE
 40
0.0
  9
$PLINEWID
 40
0.0
  9
$SPLFRAME
 70
     0
  9
$SPLINETYPE
 70
     6
  9
$SPLINESEGS
 70
     8
  9
$HANDSEED
  5
59D8F
  9
$SURFTAB1
 70
     6
  9
$SURFTAB2
 70
     6
  9
$SURFTYPE
 70
     6
  9
$SURFU
 70
     6
  9
$SURFV
 70
     6
  9
$UCSBASE
  2

  9
$UCSNAME
  2

  9
$UCSORG
 10
0.0
 20
0.0
 30
0.0
  9
$UCSXDIR
 10
1.0
 20
0.0
 30
0.0
  9
$UCSYDIR
 10
0.0
 20
1.0
 30
0.0
  9
$UCSORTHOREF
  2

  9
$UCSORTHOVIEW
 70
     0
  9
$UCSORGTOP
 10
0.0
 20
0.0
 30
0.0
  9
$UCSORGBOTTOM
 10
0.0
 20
0.0
 30
0.0
  9
$UCSORGLEFT
 10
0.0
 20
0.0
 30
0.0
  9
$UCSORGRIGHT
 10
0.0
 20
0.0
 30
0.0
  9
$UCSORGFRONT
 10
0.0
 20
0.0
 30
0.0
  9
$UCSORGBACK
 10
0.0
 20
0.0
 30
0.0
  9
$PUCSBASE
  2

  9
$PUCSNAME
  2

  9
$PUCSORG
 10
0.0
 20
0.0
 30
0.0
  9
$PUCSXDIR
 10
1.0
 20
0.0
 30
0.0
  9
$PUCSYDIR
 10
0.0
 20
1.0
 30
0.0
  9
$PUCSORTHOREF
  2

  9
$PUCSORTHOVIEW
 70
     0
  9
$PUCSORGTOP
 10
0.0
 20
0.0
 30
0.0
  9
$PUCSORGBOTTOM
 10
0.0
 20
0.0
 30
0.0
  9
$PUCSORGLEFT
 10
0.0
 20
0.0
 30
0.0
  9
$PUCSORGRIGHT
 10
0.0
 20
0.0
 30
0.0
  9
$PUCSORGFRONT
 10
0.0
 20
0.0
 30
0.0
  9
$PUCSORGBACK
 10
0.0
 20
0.0
 30
0.0
  9
$USERI1
 70
     0
  9
$USERI2
 70
     0
  9
$USERI3
 70
     0
  9
$USERI4
 70
     0
  9
$USERI5
 70
     0
  9
$USERR1
 40
0.0
  9
$USERR2
 40
0.0
  9
$USERR3
 40
0.0
  9
$USERR4
 40
0.0
  9
$USERR5
 40
0.0
  9
$WORLDVIEW
 70
     1
  9
$SHADEDGE
 70
     3
  9
$SHADEDIF
 70
    70
  9
$TILEMODE
 70
     1
  9
$MAXACTVP
 70
    64
  9
$PINSBASE
 10
0.0
 20
0.0
 30
0.0
  9
$PLIMCHECK
 70
     0
  9
$PEXTMIN
 10
26.66999878883364
 20
20.31999878883365
 30
0.0
  9
$PEXTMAX
 10
240.0299890995025
 20
182.8799890995025
 30
0.0
  9
$PLIMMIN
 10
-6.350006103515625
 20
-6.349999904632567
  9
$PLIMMAX
 10
273.0499877929688
 20
209.5499939918518
  9
$UNITMODE
 70
     0
  9
$VISRETAIN
 70
     1
  9
$PLINEGEN
 70
     0
  9
$PSLTSCALE
 70
     1
  9
$TREEDEPTH
 70
  3020
  9
$CMLSTYLE
  2
Standard
  9
$CMLJUST
 70
     0
  9
$CMLSCALE
 40
20.0
  9
$PROXYGRAPHICS
 70
     1
  9
$MEASUREMENT
 70
     1
  9
$CELWEIGHT
370
    -1
  9
$ENDCAPS
280
     0
  9
$JOINSTYLE
280
     0
  9
$LWDISPLAY
290
     0
  9
$INSUNITS
 70
     4
  9
$HYPERLINKBASE
  1

  9
$STYLESHEET
  1

  9
$XEDIT
290
     1
  9
$CEPSNTYPE
380
     0
  9
$PSTYLEMODE
290
     1
  9
$FINGERPRINTGUID
  2
{601DDA01-5B13-4A4C-8F56-1333B78D855B}
  9
$VERSIONGUID
  2
{D0359307-5DF7-4C9D-9F08-8AE6C5EB2DF7}
  9
$EXTNAMES
290
     1
  9
$PSVPSCALE
 40
0.0
  9
$OLESTARTUP
290
     0
  0
ENDSEC
  0
SECTION
  2
CLASSES
  0
CLASS
  1
ACDBDICTIONARYWDFLT
  2
AcDbDictionaryWithDefault
  3
ObjectDBX Classes
 90
        0
280
     0
281
     0
  0
CLASS
  1
ACDBPLACEHOLDER
  2
AcDbPlaceHolder
  3
ObjectDBX Classes
 90
        0
280
     0
281
     0
  0
CLASS
  1
LAYOUT
  2
AcDbLayout
  3
ObjectDBX Classes
 90
        0
280
     0
281
     0
  0
CLASS
  1
DICTIONARYVAR
  2
AcDbDictionaryVar
  3
ObjectDBX Classes
 90
        0
280
     0
281
     0
  0
CLASS
  1
TABLESTYLE
  2
AcDbTableStyle
  3
ObjectDBX Classes
 90
     2047
280
     0
281
     0
  0
CLASS
  1
SORTENTSTABLE
  2
AcDbSortentsTable
  3
ObjectDBX Classes
 90
        0
280
     0
281
     0
  0
CLASS
  1
DIMASSOC
  2
AcDbDimAssoc
  3
"AcDbDimAssoc|Product Desc:     AcDim ARX App For Dimension|Company:          Autodesk, Inc.|WEB Address:      www.autodesk.com"
 90
        0
280
     0
281
     0
  0
CLASS
  1
ACAD_EVALUATION_GRAPH
  2
AcDbEvalGraph
  3
ObjectDBX Classes
 90
    33921
280
     0
281
     0
  0
CLASS
  1
ACAECUSTOBJ
  2
AcAeEditorObj
  3
AcAeEditorObj
 90
    33792
280
     0
281
     0
  0
CLASS
  1
ACDB_DYNAMICBLOCKPURGEPREVENTER_VERSION
  2
AcDbDynamicBlockPurgePreventer
  3
ObjectDBX Classes
 90
    33921
280
     0
281
     0
  0
ENDSEC
  0
SECTION
  2
TABLES
  0
TABLE
  2
VPORT
  5
8
330
0
100
AcDbSymbolTable
 70
     2
  0
VPORT
  5
59D80
330
8
100
AcDbSymbolTableRecord
100
AcDbViewportTableRecord
  2
*Active
 70
     0
 10
0.0
 20
0.0
 11
1.0
 21
1.0
 12
33.39701320153131
 22
9.757307936120469
 13
0.0
 23
0.0
 14
10.0
 24
10.0
 15
10.0
 25
10.0
 16
0.0
 26
0.0
 36
1.0
 17
0.0
 27
0.0
 37
0.0
 40
249.7823980914542
 41
1.381443298969072
 42
50.0
 43
0.0
 44
0.0
 50
0.0
 51
0.0
 71
     0
 72
  1000
 73
     1
 74
     1
 75
     0
 76
     0
 77
     0
 78
     0
281
     0
 65
     1
110
0.0
120
0.0
130
0.0
111
1.0
121
0.0
131
0.0
112
0.0
122
1.0
132
0.0
 79
     0
146
0.0
  0
ENDTAB
  0
TABLE
  2
LTYPE
  5
5
330
0
100
AcDbSymbolTable
 70
     4
  0
LTYPE
  5
14
330
5
100
AcDbSymbolTableRecord
100
AcDbLinetypeTableRecord
  2
ByBlock
 70
     0
  3

 72
    65
 73
     0
 40
0.0
  0
LTYPE
  5
15
330
5
100
AcDbSymbolTableRecord
100
AcDbLinetypeTableRecord
  2
ByLayer
 70
     0
  3

 72
    65
 73
     0
 40
0.0
  0
LTYPE
  5
16
330
5
100
AcDbSymbolTableRecord
100
AcDbLinetypeTableRecord
  2
Continuous
 70
     0
  3
Solid line
 72
    65
 73
     0
 40
0.0
  0
LTYPE
  5
D7
330
5
100
AcDbSymbolTableRecord
100
AcDbLinetypeTableRecord
  2
HIDDEN
 70
     0
  3
Hidden __ __ __ __ __ __ __ __ __ __ __ __ __ _
 72
    65
 73
     2
 40
9.524999999999996
 49
6.349999999999997
 74
     0
 49
-3.174999999999998
 74
     0
  0
LTYPE
  5
D9
330
5
100
AcDbSymbolTableRecord
100
AcDbLinetypeTableRecord
  2
CENTER
 70
     0
  3
Center ____ _ ____ _ ____ _ ____ _ ____ _ ____
 72
    65
 73
     4
 40
50.8
 49
31.75
 74
     0
 49
-6.349999999999997
 74
     0
 49
6.349999999999997
 74
     0
 49
-6.349999999999997
 74
     0
  0
LTYPE
  5
35815
330
5
100
AcDbSymbolTableRecord
100
AcDbLinetypeTableRecord
  2
PHANTOM
 70
     0
  3
_____ _ _ _____ _ _ _____ _ _ _____
 72
    65
 73
     6
 40
0.8
 49
0.45
 74
     0
 49
-0.05
 74
     0
 49
0.1
 74
     0
 49
-0.05
 74
     0
 49
0.1
 74
     0
 49
-0.05
 74
     0
  0
ENDTAB
  0
TABLE
  2
LAYER
  5
2
102
{ACAD_XDICTIONARY
360
E2
102
}
330
0
100
AcDbSymbolTable
 70
    14
  0
LAYER
  5
10
330
2
100
AcDbSymbolTableRecord
100
AcDbLayerTableRecord
  2
0
 70
     0
 62
     7
  6
Continuous
370
    -3
390
F
  0
LAYER
  5
D1
330
2
100
AcDbSymbolTableRecord
100
AcDbLayerTableRecord
  2
1
 70
     0
 62
     4
  6
Continuous
370
    50
390
F
1001
AcAecLayerStandard
1000

1000

  0
LAYER
  5
D3
330
2
100
AcDbSymbolTableRecord
100
AcDbLayerTableRecord
  2
2
 70
     0
 62
     7
  6
Continuous
370
    25
390
F
1001
AcAecLayerStandard
1000

1000

  0
LAYER
  5
D4
330
2
100
AcDbSymbolTableRecord
100
AcDbLayerTableRecord
  2
3
 70
     0
 62
     1
  6
HIDDEN
370
    35
390
F
1001
AcAecLayerStandard
1000

1000

  0
LAYER
  5
D8
330
2
100
AcDbSymbolTableRecord
100
AcDbLayerTableRecord
  2
4
 70
     0
 62
     2
  6
CENTER
370
    25
390
F
1001
AcAecLayerStandard
1000

1000

  0
LAYER
  5
DA
330
2
100
AcDbSymbolTableRecord
100
AcDbLayerTableRecord
  2
6
 70
     0
 62
     5
  6
Continuous
370
    35
390
F
1001
AcAecLayerStandard
1000

1000

  0
LAYER
  5
DB
330
2
100
AcDbSymbolTableRecord
100
AcDbLayerTableRecord
  2
cut
 70
     0
 62
     1
  6
Continuous
370
    25
390
F
1001
AcAecLayerStandard
1000

1000

  0
LAYER
  5
DC
330
2
100
AcDbSymbolTableRecord
100
AcDbLayerTableRecord
  2
nocut
 70
     0
 62
     7
  6
Continuous
370
    25
390
F
1001
AcAecLayerStandard
1000

1000

  0
LAYER
  5
DD
330
2
100
AcDbSymbolTableRecord
100
AcDbLayerTableRecord
  2
sk1
 70
     0
 62
     4
  6
Continuous
370
    50
390
F
1001
AcAecLayerStandard
1000

1000

  0
LAYER
  5
DE
330
2
100
AcDbSymbolTableRecord
100
AcDbLayerTableRecord
  2
sk2
 70
     0
 62
     7
  6
Continuous
370
    25
390
F
1001
AcAecLayerStandard
1000

1000

  0
LAYER
  5
DF
330
2
100
AcDbSymbolTableRecord
100
AcDbLayerTableRecord
  2
sk3
 70
     0
 62
     1
  6
HIDDEN
370
    35
390
F
1001
AcAecLayerStandard
1000

1000

  0
LAYER
  5
E0
330
2
100
AcDbSymbolTableRecord
100
AcDbLayerTableRecord
  2
sk4
 70
     0
 62
     2
  6
CENTER
370
    25
390
F
1001
AcAecLayerStandard
1000

1000

  0
LAYER
  5
E1
330
2
100
AcDbSymbolTableRecord
100
AcDbLayerTableRecord
  2
sk6
 70
     0
 62
     5
  6
Continuous
370
    35
390
F
1001
AcAecLayerStandard
1000

1000

  0
LAYER
  5
31B6
330
2
100
AcDbSymbolTableRecord
100
AcDbLayerTableRecord
  2
Defpoints
 70
     0
 62
     7
  6
Continuous
290
     0
370
    -3
390
F
  0
ENDTAB
  0
TABLE
  2
STYLE
  5
3
330
0
100
AcDbSymbolTable
 70
    12
  0
STYLE
  5
11
330
3
100
AcDbSymbolTableRecord
100
AcDbTextStyleTableRecord
  2
Standard
 70
     0
 40
0.0
 41
1.0
 50
0.0
 71
     0
 42
2.5
  3
txt.shx
  4
@extfont2.shx
  0
STYLE
  5
D6
330
3
100
AcDbSymbolTableRecord
100
AcDbTextStyleTableRecord
  2

 70
     1
 40
0.0
 41
1.0
 50
0.0
 71
     0
 42
2.5
  3
ltypeshp.shx
  4

  0
STYLE
  5
24A
330
3
100
AcDbSymbolTableRecord
100
AcDbTextStyleTableRecord
  2
simplex
 70
     0
 40
3.5
 41
1.0
 50
0.0
 71
     0
 42
3.5
  3
txt.shx
  4

  0
STYLE
  5
69E
330
3
100
AcDbSymbolTableRecord
100
AcDbTextStyleTableRecord
  2
MX_NOTE_STANDARD
 70
     0
 40
0.0
 41
1.0
 50
0.0
 71
     0
 42
4.2
  3
txt.shx
  4
extfont.shx
  0
STYLE
  5
3524
330
3
100
AcDbSymbolTableRecord
100
AcDbTextStyleTableRecord
  2
TEXTSTYLE_2
 70
     0
 40
0.0
 41
0.775
 50
0.0
 71
     0
 42
0.2
  3
gdt
  4

  0
STYLE
  5
3525
330
3
100
AcDbSymbolTableRecord
100
AcDbTextStyleTableRecord
  2
TEXTSTYLE_3
 70
     0
 40
0.0
 41
0.75
 50
0.0
 71
     0
 42
0.2
  3
txt
  4

  0
STYLE
  5
3526
330
3
100
AcDbSymbolTableRecord
100
AcDbTextStyleTableRecord
  2
TEXTSTYLE_13
 70
     0
 40
0.0
 41
1.0
 50
0.0
 71
     0
 42
0.2
  3
txt
  4

  0
STYLE
  5
519A
330
3
100
AcDbSymbolTableRecord
100
AcDbTextStyleTableRecord
  2
TEXTSTYLE_14
 70
     0
 40
0.0
 41
1.0
 50
0.0
 71
     0
 42
0.2
  3
txt
  4

  0
STYLE
  5
6F72
330
3
100
AcDbSymbolTableRecord
100
AcDbTextStyleTableRecord
  2
TEXTSTYLE_4
 70
     0
 40
0.0
 41
0.75
 50
0.0
 71
     0
 42
0.2
  3
txt
  4

  0
STYLE
  5
6F73
330
3
100
AcDbSymbolTableRecord
100
AcDbTextStyleTableRecord
  2
TEXTSTYLE_17
 70
     0
 40
0.0
 41
1.0
 50
0.0
 71
     0
 42
0.2
  3
txt
  4

  0
STYLE
  5
FE12
330
3
100
AcDbSymbolTableRecord
100
AcDbTextStyleTableRecord
  2
TEXTSTYLE_12
 70
     0
 40
0.0
 41
1.0
 50
0.0
 71
     0
 42
0.2
  3
txt
  4

  0
STYLE
  5
3AAB8
330
3
100
AcDbSymbolTableRecord
100
AcDbTextStyleTableRecord
  2
TEXTSTYLE_20
 70
     0
 40
0.0
 41
0.6
 50
0.0
 71
     0
 42
0.2
  3
txt
  4

  0
ENDTAB
  0
TABLE
  2
VIEW
  5
6
330
0
100
AcDbSymbolTable
 70
     0
  0
ENDTAB
  0
TABLE
  2
UCS
  5
7
330
0
100
AcDbSymbolTable
 70
     0
  0
ENDTAB
  0
TABLE
  2
APPID
  5
9
330
0
100
AcDbSymbolTable
 70
    11
  0
APPID
  5
12
330
9
100
AcDbSymbolTableRecord
100
AcDbRegAppTableRecord
  2
ACAD
 70
     0
  0
APPID
  5
D2
330
9
100
AcDbSymbolTableRecord
100
AcDbRegAppTableRecord
  2
AcAecLayerStandard
 70
     0
  0
APPID
  5
E6
330
9
100
AcDbSymbolTableRecord
100
AcDbRegAppTableRecord
  2
ACAD_DSTYLE_DIMTEXT_FILL
 70
     0
  0
APPID
  5
4C84
330
9
100
AcDbSymbolTableRecord
100
AcDbRegAppTableRecord
  2
ACAD_EXEMPT_FROM_CAD_STANDARDS
 70
     0
  0
APPID
  5
3493E
330
9
100
AcDbSymbolTableRecord
100
AcDbRegAppTableRecord
  2
DCO15
 70
     0
  0
APPID
  5
3BAB0
330
9
100
AcDbSymbolTableRecord
100
AcDbRegAppTableRecord
  2
ACAD_DSTYLE_DIMEXT_ENABLED
 70
     0
  0
APPID
  5
3BAB1
330
9
100
AcDbSymbolTableRecord
100
AcDbRegAppTableRecord
  2
ACAD_DSTYLE_DIMEXT_LENGTH
 70
     0
  0
APPID
  5
3BEB4
330
9
100
AcDbSymbolTableRecord
100
AcDbRegAppTableRecord
  2
ACAUTHENVIRON
 70
     0
  0
APPID
  5
3BEB7
330
9
100
AcDbSymbolTableRecord
100
AcDbRegAppTableRecord
  2
AcDbDynamicBlockTrueName
 70
     0
  0
APPID
  5
3BEB8
330
9
100
AcDbSymbolTableRecord
100
AcDbRegAppTableRecord
  2
AcDbDynamicBlockGUID
 70
     0
  0
APPID
  5
3BEBA
330
9
100
AcDbSymbolTableRecord
100
AcDbRegAppTableRecord
  2
AcDbBlockRepETag
 70
     0
  0
ENDTAB
  0
TABLE
  2
DIMSTYLE
  5
A
330
0
100
AcDbSymbolTable
 70
    12
100
AcDbDimStyleTable
 71
     5
340
1BF
340
27
340
352A
340
3527
340
69F
  0
DIMSTYLE
105
27
330
A
100
AcDbSymbolTableRecord
100
AcDbDimStyleTableRecord
  2
ISO-25
 70
     0
 41
2.5
 42
0.625
 43
3.75
 44
1.25
 73
     0
 74
     0
 77
     1
 78
     8
140
2.5
141
2.5
143
0.03937007874016
147
0.625
171
     3
172
     1
271
     2
272
     2
274
     3
278
    44
283
     0
284
     8
340
11
  0
DIMSTYLE
105
1BF
102
{ACAD_REACTORS
330
59B1B
330
59B21
330
59B22
330
59B23
330
59BB7
330
59BBA
330
59C39
102
}
330
A
100
AcDbSymbolTableRecord
100
AcDbDimStyleTableRecord
  2
\M+18352\M+18373\M+1815B - ISO-25
 70
     0
 40
0.0
 41
3.5
 42
0.0
 44
1.5
 73
     0
 74
     0
 77
     1
 78
     8
140
3.5
147
2.299999999999998
176
   256
177
   256
178
   256
271
     2
272
     2
284
     8
340
24A
371
    -1
372
    -1
  0
DIMSTYLE
105
69F
330
A
100
AcDbSymbolTableRecord
100
AcDbDimStyleTableRecord
  2
MXDIMSTYLE
 70
     0
 41
2.5
 42
0.5
 43
3.75
 44
1.5
 73
     0
 74
     0
 77
     1
 78
     8
140
4.2
141
2.5
143
0.03937
147
1.0
171
     4
172
     1
173
     1
271
     2
272
     2
274
     4
283
     0
288
     1
340
69E
341
697
343
697
344
697
  0
DIMSTYLE
105
3527
330
A
100
AcDbSymbolTableRecord
100
AcDbDimStyleTableRecord
  2
STANDARD
 70
     0
 41
3.0
 47
0.001
 48
0.001
 71
     1
 73
     0
 74
     0
 77
     1
 78
     8
140
4.0
271
     3
272
     3
284
     8
340
11
341
34B1
342
34B1
343
34B1
344
34B1
  0
DIMSTYLE
105
3528
330
A
100
AcDbSymbolTableRecord
100
AcDbDimStyleTableRecord
  2
DIMSTYLE_1
 70
     0
 41
3.0
 73
     0
 74
     0
 77
     1
 78
     8
140
4.0
271
     3
272
     3
284
     8
340
11
341
34B1
342
34B1
343
34B1
344
34B1
  0
DIMSTYLE
105
3529
330
A
100
AcDbSymbolTableRecord
100
AcDbDimStyleTableRecord
  2
DIMSTYLE_2
 70
     0
 41
3.0
 47
0.001
 48
0.001
 73
     0
 74
     0
 77
     1
 78
     8
140
4.0
271
     3
272
     3
284
     8
340
11
341
34B1
342
34B1
343
34B1
344
34B1
  0
DIMSTYLE
105
352A
330
A
100
AcDbSymbolTableRecord
100
AcDbDimStyleTableRecord
  2
DIMSTYLE_3
 70
     0
 41
3.0
 47
-0.1
 48
0.3
 71
     1
 73
     0
 74
     0
 77
     1
 78
     8
140
4.0
146
0.5
271
     3
272
     3
284
     8
340
11
341
34B1
342
34B1
343
34B1
344
34B1
  0
DIMSTYLE
105
352B
330
A
100
AcDbSymbolTableRecord
100
AcDbDimStyleTableRecord
  2
DIMSTYLE_4
 70
     0
 41
3.0
 47
0.1
 48
0.1
 71
     1
 73
     0
 74
     0
 77
     1
 78
     8
140
4.0
271
     3
272
     3
284
     8
340
11
341
34B1
342
34B1
343
34B1
344
34B1
  0
DIMSTYLE
105
27245
330
A
100
AcDbSymbolTableRecord
100
AcDbDimStyleTableRecord
  2
DIMSTYLE_5
 70
     0
 41
3.0
 47
0.001
 48
0.001
 73
     0
 74
     0
 77
     1
 78
     8
140
4.0
271
     3
272
     3
284
     8
340
11
341
34B1
342
34B1
343
34B1
344
34B1
  0
DIMSTYLE
105
3AAB9
330
A
100
AcDbSymbolTableRecord
100
AcDbDimStyleTableRecord
  2
DIMSTYLE_6
 70
     0
 41
3.0
 42
0.0
 44
1.0
 47
0.05
 48
0.05
 71
     1
 73
     0
 74
     0
 77
     1
 78
     8
140
4.0
147
1.0
271
     3
272
     3
284
     8
340
11
341
34B1
342
34B1
343
34B1
344
34B1
  0
DIMSTYLE
105
49C0A
330
A
100
AcDbSymbolTableRecord
100
AcDbDimStyleTableRecord
  2
DIMSTYLE
 70
     0
 41
1.0
 42
2.539999961853026
 44
2.54
 73
     0
 74
     0
140
3.200000047683716
147
1.600000023841858
173
     1
340
11
  0
DIMSTYLE
105
4A42E
330
A
100
AcDbSymbolTableRecord
100
AcDbDimStyleTableRecord
  2
NEW-DIMSTYLE
 70
     0
 40
0.0
 41
4.57
 42
0.0
 44
5.0
 73
     0
 74
     0
 77
     1
 78
     8
140
4.57
147
2.299999999999998
271
     2
340
24A
  0
ENDTAB
  0
TABLE
  2
BLOCK_RECORD
  5
1
330
0
100
AcDbSymbolTable
 70
    16
  0
BLOCK_RECORD
  5
1F
102
{ACAD_XDICTIONARY
360
31EE
102
}
330
1
100
AcDbSymbolTableRecord
100
AcDbBlockTableRecord
  2
*Model_Space
340
22
  0
BLOCK_RECORD
  5
50
330
1
100
AcDbSymbolTableRecord
100
AcDbBlockTableRecord
  2
*Paper_Space
340
51
  0
BLOCK_RECORD
  5
55
330
1
100
AcDbSymbolTableRecord
100
AcDbBlockTableRecord
  2
*Paper_Space0
340
56
  0
BLOCK_RECORD
  5
680
102
{ACAD_XDICTIONARY
360
3BEB2
102
}
330
1
100
AcDbSymbolTableRecord
100
AcDbBlockTableRecord
  2
zero block
340
0
102
{BLKREFS
331
68C
102
}
1001
ACAD
1000
DesignCenter Data
1002
{
1070
     1
1070
     4
1002
}
1001
AcDbDynamicBlockGUID
1000
{C2E8894D-A8DA-456D-ABB6-198B00672C1A}
1001
AcDbBlockRepETag
1070
     1
1071
        7
  0
BLOCK_RECORD
  5
697
330
1
100
AcDbSymbolTableRecord
100
AcDbBlockTableRecord
  2
_OPEN30
340
0
  0
BLOCK_RECORD
  5
32F1
330
1
100
AcDbSymbolTableRecord
100
AcDbBlockTableRecord
  2
_None
340
0
  0
BLOCK_RECORD
  5
34B1
330
1
100
AcDbSymbolTableRecord
100
AcDbBlockTableRecord
  2
_OPEN
340
0
  0
BLOCK_RECORD
  5
564FE
330
1
100
AcDbSymbolTableRecord
100
AcDbBlockTableRecord
  2
*D5
340
0
  0
BLOCK_RECORD
  5
56508
330
1
100
AcDbSymbolTableRecord
100
AcDbBlockTableRecord
  2
*D6
340
0
  0
BLOCK_RECORD
  5
59C46
330
1
100
AcDbSymbolTableRecord
100
AcDbBlockTableRecord
  2
*D7
340
0
  0
BLOCK_RECORD
  5
59C52
330
1
100
AcDbSymbolTableRecord
100
AcDbBlockTableRecord
  2
*D8
340
0
  0
BLOCK_RECORD
  5
59C5F
330
1
100
AcDbSymbolTableRecord
100
AcDbBlockTableRecord
  2
*D9
340
0
  0
BLOCK_RECORD
  5
59C69
330
1
100
AcDbSymbolTableRecord
100
AcDbBlockTableRecord
  2
*D10
340
0
  0
BLOCK_RECORD
  5
59C75
330
1
100
AcDbSymbolTableRecord
100
AcDbBlockTableRecord
  2
*D11
340
0
  0
BLOCK_RECORD
  5
59CA2
330
1
100
AcDbSymbolTableRecord
100
AcDbBlockTableRecord
  2
*D12
340
0
  0
BLOCK_RECORD
  5
59CAE
330
1
100
AcDbSymbolTableRecord
100
AcDbBlockTableRecord
  2
*D13
340
0
  0
ENDTAB
  0
ENDSEC
  0
SECTION
  2
BLOCKS
  0
BLOCK
  5
20
330
1F
100
AcDbEntity
  8
0
100
AcDbBlockBegin
  2
*Model_Space
 70
     0
 10
0.0
 20
0.0
 30
0.0
  3
*Model_Space
  1

  0
ENDBLK
  5
21
330
1F
100
AcDbEntity
  8
0
100
AcDbBlockEnd
  0
BLOCK
  5
52
330
50
100
AcDbEntity
 67
     1
  8
0
100
AcDbBlockBegin
  2
*Paper_Space
 70
     0
 10
0.0
 20
0.0
 30
0.0
  3
*Paper_Space
  1

  0
ENDBLK
  5
53
330
50
100
AcDbEntity
 67
     1
  8
0
100
AcDbBlockEnd
  0
BLOCK
  5
57
330
55
100
AcDbEntity
 67
     1
  8
0
100
AcDbBlockBegin
  2
*Paper_Space0
 70
     0
 10
0.0
 20
0.0
 30
0.0
  3
*Paper_Space0
  1

  0
VIEWPORT
  5
71
102
{ACAD_XDICTIONARY
360
59D8B
102
}
330
55
100
AcDbEntity
 67
     1
  8
0
100
AcDbViewport
 10
150.1652135264906
 20
101.599997546291
 30
0.0
 40
339.1973820494347
 41
164.5360435314421
 68
     0
 69
     0
 12
150.1652135264906
 22
101.599997546291
 13
0.0
 23
0.0
 14
10.0
 24
10.0
 15
10.0
 25
10.0
 16
0.0
 26
0.0
 36
1.0
 17
0.0
 27
0.0
 37
0.0
 42
50.0
 43
0.0
 44
0.0
 45
164.5360435314421
 50
0.0
 51
0.0
 72
  1000
 90
    32864
  1

281
     0
 71
     1
 74
     0
110
0.0
120
0.0
130
0.0
111
1.0
121
0.0
131
0.0
112
0.0
122
1.0
132
0.0
 79
     0
146
0.0
  0
VIEWPORT
  5
73
102
{ACAD_XDICTIONARY
360
59D8D
102
}
330
55
100
AcDbEntity
 67
     1
  8
0
100
AcDbViewport
 10
133.3499939441681
 20
101.5999939441681
 30
0.0
 40
213.3599903106689
 41
162.5599903106689
 68
     0
 69
     0
 12
210.0
 22
148.5
 13
0.0
 23
0.0
 14
10.0
 24
10.0
 15
10.0
 25
10.0
 16
0.0
 26
0.0
 36
1.0
 17
0.0
 27
0.0
 37
0.0
 42
50.0
 43
0.0
 44
0.0
 45
324.0677920111345
 50
0.0
 51
0.0
 72
   100
 90
    32864
  1

281
     0
 71
     1
 74
     0
110
0.0
120
0.0
130
0.0
111
1.0
121
0.0
131
0.0
112
0.0
122
1.0
132
0.0
 79
     0
146
0.0
  0
ENDBLK
  5
58
330
55
100
AcDbEntity
 67
     1
  8
0
100
AcDbBlockEnd
  0
BLOCK
  5
68A
330
680
100
AcDbEntity
  8
0
100
AcDbBlockBegin
  2
zero block
 70
     0
 10
0.0
 20
0.0
 30
0.0
  3
zero block
  1

  0
HATCH
  5
3BEAB
330
680
100
AcDbEntity
  8
0
 62
     7
100
AcDbHatch
 10
0.0
 20
0.0
 30
0.0
210
0.0
220
0.0
230
1.0
  2
SOLID
 70
     1
 71
     0
 91
        2
 92
        7
 72
     1
 73
     1
 93
        3
 10
0.0
 20
0.9999999999999875
 42
0.4142135623730915
 10
-1.0
 20
0.0
 42
0.0
 10
0.0
 20
0.0
 42
0.0
 97
        0
 92
        7
 72
     1
 73
     1
 93
        3
 10
1.000000000000007
 20
0.0
 42
0.0
 10
0.0
 20
0.0
 42
0.0
 10
0.0
 20
-1.0
 42
0.4142135623730974
 97
        0
 75
     0
 76
     1
 47
0.0090601366782909
 98
        2
 10
-0.380591363650975
 20
0.4885804701532896
 10
0.4350764810977559
 20
-0.4536738423704725
1001
AcDbBlockRepETag
1070
     1
1071
        0
1005
3BEAB
  0
LINE
  5
3BEAC
330
680
100
AcDbEntity
  8
0
 62
     7
 48
0.2
100
AcDbLine
 10
-1.0
 20
0.0
 30
0.0
 11
1.000000000000007
 21
0.0
 31
0.0
1001
AcDbBlockRepETag
1070
     1
1071
        1
1005
3BEAC
  0
LINE
  5
3BEAD
330
680
100
AcDbEntity
  8
0
 62
     7
 48
0.2
100
AcDbLine
 10
0.0
 20
-1.0
 30
0.0
 11
0.0
 21
0.9999999999999875
 31
0.0
1001
AcDbBlockRepETag
1070
     1
1071
        2
1005
3BEAD
  0
ARC
  5
3BEAE
330
680
100
AcDbEntity
  8
0
 62
     7
 48
0.2
100
AcDbCircle
 10
0.0
 20
0.0
 30
0.0
 40
1.0
100
AcDbArc
 50
270.0
 51
0.0
1001
AcDbBlockRepETag
1070
     1
1071
        3
1005
3BEAE
  0
ARC
  5
3BEAF
330
680
100
AcDbEntity
  8
0
 62
     7
 48
0.2
100
AcDbCircle
 10
0.0
 20
0.0
 30
0.0
 40
1.0
100
AcDbArc
 50
0.0
 51
90.0
1001
AcDbBlockRepETag
1070
     1
1071
        4
1005
3BEAF
  0
ARC
  5
3BEB0
330
680
100
AcDbEntity
  8
0
 62
     7
 48
0.2
100
AcDbCircle
 10
0.0
 20
0.0
 30
0.0
 40
1.0
100
AcDbArc
 50
180.0
 51
270.0
1001
AcDbBlockRepETag
1070
     1
1071
        5
1005
3BEB0
  0
ARC
  5
3BEB1
330
680
100
AcDbEntity
  8
0
 62
     7
 48
0.2
100
AcDbCircle
 10
0.0
 20
0.0
 30
0.0
 40
1.0
100
AcDbArc
 50
90.0
 51
180.0
1001
AcDbBlockRepETag
1070
     1
1071
        6
1005
3BEB1
  0
ENDBLK
  5
68B
330
680
100
AcDbEntity
  8
0
100
AcDbBlockEnd
  0
BLOCK
  5
698
330
697
100
AcDbEntity
  8
0
  6
ByBlock
 62
     0
370
    -2
100
AcDbBlockBegin
  2
_OPEN30
 70
     2
 10
0.0
 20
0.0
 30
0.0
  3
_OPEN30
  1

  0
LINE
  5
699
330
697
100
AcDbEntity
  8
0
  6
ByBlock
 62
     0
370
    -2
100
AcDbLine
 10
-1.0
 20
0.267949
 30
0.0
 11
0.0
 21
0.0
 31
0.0
  0
LINE
  5
69A
330
697
100
AcDbEntity
  8
0
  6
ByBlock
 62
     0
370
    -2
100
AcDbLine
 10
0.0
 20
0.0
 30
0.0
 11
-1.0
 21
-0.267949
 31
0.0
  0
LINE
  5
69B
330
697
100
AcDbEntity
  8
0
  6
ByBlock
 62
     0
370
    -2
100
AcDbLine
 10
0.0
 20
0.0
 30
0.0
 11
-1.0
 21
0.0
 31
0.0
  0
ENDBLK
  5
69C
330
697
100
AcDbEntity
  8
0
  6
ByBlock
 62
     0
370
    -2
100
AcDbBlockEnd
  0
BLOCK
  5
32F2
330
32F1
100
AcDbEntity
  8
0
100
AcDbBlockBegin
  2
_None
 70
     0
 10
0.0
 20
0.0
 30
0.0
  3
_None
  1

  0
ENDBLK
  5
32F3
330
32F1
100
AcDbEntity
  8
0
100
AcDbBlockEnd
  0
BLOCK
  5
34B2
330
34B1
100
AcDbEntity
  8
0
100
AcDbBlockBegin
  2
_OPEN
 70
     0
 10
0.0
 20
0.0
 30
0.0
  3
_OPEN
  1

  0
LINE
  5
34B3
330
34B1
100
AcDbEntity
  8
0
  6
ByBlock
 62
     0
100
AcDbLine
 10
0.0
 20
0.0
 30
0.0
 11
-1.0
 21
0.1766666667
 31
0.0
  0
LINE
  5
34B4
330
34B1
100
AcDbEntity
  8
0
  6
ByBlock
 62
     0
100
AcDbLine
 10
-1.0
 20
-0.1766666667
 30
0.0
 11
0.0
 21
0.0
 31
0.0
  0
LINE
  5
34B5
330
34B1
100
AcDbEntity
  8
0
  6
ByBlock
 62
     0
100
AcDbLine
 10
-1.0
 20
0.0
 30
0.0
 11
0.0
 21
0.0
 31
0.0
  0
ENDBLK
  5
34B6
330
34B1
100
AcDbEntity
  8
0
  6
ByBlock
 62
     0
100
AcDbBlockEnd
  0
BLOCK
  5
56506
330
564FE
100
AcDbEntity
  8
0
100
AcDbBlockBegin
  2
*D5
 70
     1
 10
0.0
 20
0.0
 30
0.0
  3
*D5
  1

  0
LINE
  5
565C1
330
564FE
100
AcDbEntity
  8
2
100
AcDbLine
 10
88.95499334836733
 20
12.69999999999999
 30
0.0
 11
125.1822315475813
 21
12.69999999999998
 31
0.0
  0
LINE
  5
565C2
330
564FE
100
AcDbEntity
  8
2
100
AcDbLine
 10
123.6822315475813
 20
-12.70000000000002
 30
0.0
 11
123.6822315475813
 21
9.199999999999981
 31
0.0
  0
SOLID
  5
565C3
330
564FE
100
AcDbEntity
  8
2
100
AcDbTrace
 10
123.0988982142479
 20
9.199999999999981
 30
0.0
 11
124.2655648809146
 21
9.199999999999976
 31
0.0
 12
123.6822315475813
 22
12.69999999999998
 32
0.0
 13
123.6822315475813
 23
12.69999999999998
 33
0.0
  0
MTEXT
  5
565C4
330
564FE
100
AcDbEntity
  8
2
100
AcDbMText
 10
119.6322315475813
 20
-10.05672126589934
 30
0.0
 40
3.5
 41
0.0
 71
     5
 72
     1
  1
\A1;%%c25.4 [%%C1.000"]
  7
simplex
 11
0.0000000000000001
 21
1.0
 31
0.0
 73
     1
 44
1.0
1001
ACAD
1000
MTEXTBEGIN
1070
    73
1070
     1
1070
    44
1040
1.0
1070
    74
1070
     0
1000
MTEXTEND
  0
POINT
  5
565C5
330
564FE
100
AcDbEntity
  8
Defpoints
 62
     0
100
AcDbPoint
 10
88.95331645347175
 20
-12.70000000000001
 30
0.0
  0
POINT
  5
565C6
330
564FE
100
AcDbEntity
  8
Defpoints
 62
     0
100
AcDbPoint
 10
88.95499334836733
 20
12.69999999999999
 30
0.0
  0
POINT
  5
565C7
330
564FE
100
AcDbEntity
  8
Defpoints
 62
     0
100
AcDbPoint
 10
123.6822315475813
 20
12.69999999999998
 30
0.0
  0
ENDBLK
  5
56507
330
564FE
100
AcDbEntity
  8
0
100
AcDbBlockEnd
  0
BLOCK
  5
56512
330
56508
100
AcDbEntity
  8
0
100
AcDbBlockBegin
  2
*D6
 70
     1
 10
0.0
 20
0.0
 30
0.0
  3
*D6
  1

  0
LINE
  5
565C8
330
56508
100
AcDbEntity
  8
2
100
AcDbLine
 10
64.60000000000002
 20
12.69999999999999
 30
0.0
 11
64.60000000000002
 21
35.66663365502563
 31
0.0
  0
LINE
  5
565C9
330
56508
100
AcDbEntity
  8
2
100
AcDbLine
 10
101.6
 20
0.000000000050008
 30
0.0
 11
101.6
 21
35.66663365502563
 31
0.0
  0
LINE
  5
565CA
330
56508
100
AcDbEntity
  8
2
100
AcDbLine
 10
68.10000000000002
 20
34.16663365502563
 30
0.0
 11
98.10000000000002
 21
34.16663365502563
 31
0.0
  0
SOLID
  5
565CB
330
56508
100
AcDbEntity
  8
2
100
AcDbTrace
 10
68.10000000000002
 20
34.74996698835897
 30
0.0
 11
68.10000000000002
 21
33.5833003216923
 31
0.0
 12
64.60000000000002
 22
34.16663365502563
 32
0.0
 13
64.60000000000002
 23
34.16663365502563
 33
0.0
  0
SOLID
  5
565CC
330
56508
100
AcDbEntity
  8
2
100
AcDbTrace
 10
98.10000000000002
 20
34.74996698835897
 30
0.0
 11
98.10000000000002
 21
33.5833003216923
 31
0.0
 12
101.6
 22
34.16663365502563
 32
0.0
 13
101.6
 23
34.16663365502563
 33
0.0
  0
MTEXT
  5
565CD
330
56508
100
AcDbEntity
  8
2
100
AcDbMText
 10
83.10000000000002
 20
38.21663365502563
 30
0.0
 40
3.5
 41
0.0
 71
     5
 72
     1
  1
\A1;37 [1.457"](MAX)
  7
simplex
 73
     1
 44
1.0
1001
ACAD
1000
MTEXTBEGIN
1070
    73
1070
     1
1070
    44
1040
1.0
1070
    74
1070
     0
1000
MTEXTEND
  0
POINT
  5
565CE
330
56508
100
AcDbEntity
  8
Defpoints
 62
     0
100
AcDbPoint
 10
64.60000000000002
 20
12.69999999999999
 30
0.0
  0
POINT
  5
565CF
330
56508
100
AcDbEntity
  8
Defpoints
 62
     0
100
AcDbPoint
 10
101.6
 20
0.000000000050008
 30
0.0
  0
POINT
  5
565D0
330
56508
100
AcDbEntity
  8
Defpoints
 62
     0
100
AcDbPoint
 10
101.6
 20
34.16663365502563
 30
0.0
  0
ENDBLK
  5
56513
330
56508
100
AcDbEntity
  8
0
100
AcDbBlockEnd
  0
BLOCK
  5
59C50
330
59C46
100
AcDbEntity
  8
0
100
AcDbBlockBegin
  2
*D7
 70
     1
 10
0.0
 20
0.0
 30
0.0
  3
*D7
  1

  0
LINE
  5
59CE4
330
59C46
100
AcDbEntity
  8
sk2
100
AcDbLine
 10
63.5
 20
-0.0000000000000071
 30
0.0
 11
63.50000000000001
 21
69.27293525337153
 31
0.0
  0
LINE
  5
59CE5
330
59C46
100
AcDbEntity
  8
sk2
100
AcDbLine
 10
-63.5
 20
8.524999999999977
 30
0.0
 11
-63.49999999999999
 21
69.27293525337153
 31
0.0
  0
LINE
  5
59CE6
330
59C46
100
AcDbEntity
  8
sk2
100
AcDbLine
 10
60.0
 20
67.77293525337153
 30
0.0
 11
-60.0
 21
67.77293525337153
 31
0.0
  0
SOLID
  5
59CE7
330
59C46
100
AcDbEntity
  8
sk2
100
AcDbTrace
 10
60.0
 20
68.35626858670487
 30
0.0
 11
60.0
 21
67.18960192003821
 31
0.0
 12
63.50000000000001
 22
67.77293525337153
 32
0.0
 13
63.50000000000001
 23
67.77293525337153
 33
0.0
  0
SOLID
  5
59CE8
330
59C46
100
AcDbEntity
  8
sk2
100
AcDbTrace
 10
-60.0
 20
68.35626858670487
 30
0.0
 11
-60.0
 21
67.18960192003821
 31
0.0
 12
-63.49999999999999
 22
67.77293525337153
 32
0.0
 13
-63.49999999999999
 23
67.77293525337153
 33
0.0
  0
MTEXT
  5
59CE9
330
59C46
100
AcDbEntity
  8
sk2
100
AcDbMText
 10
-1.206346422170212
 20
71.82293525337154
 30
0.0
 40
3.5
 41
0.0
 71
     5
 72
     1
  1
\A1;127 [5.000"]
  7
simplex
 73
     1
 44
1.0
1001
ACAD
1000
MTEXTBEGIN
1070
    73
1070
     1
1070
    44
1040
1.0
1070
    74
1070
     0
1000
MTEXTEND
  0
POINT
  5
59CEA
330
59C46
100
AcDbEntity
  8
Defpoints
 62
     0
100
AcDbPoint
 10
63.5
 20
-0.0000000000000071
 30
0.0
  0
POINT
  5
59CEB
330
59C46
100
AcDbEntity
  8
Defpoints
 62
     0
100
AcDbPoint
 10
-63.5
 20
8.524999999999977
 30
0.0
  0
POINT
  5
59CEC
330
59C46
100
AcDbEntity
  8
Defpoints
 62
     0
100
AcDbPoint
 10
-63.49999999999999
 20
67.77293525337153
 30
0.0
  0
ENDBLK
  5
59C51
330
59C46
100
AcDbEntity
  8
0
100
AcDbBlockEnd
  0
BLOCK
  5
59C5D
330
59C52
100
AcDbEntity
  8
0
100
AcDbBlockBegin
  2
*D8
 70
     1
 10
0.0
 20
0.0
 30
0.0
  3
*D8
  1

  0
LINE
  5
59CED
330
59C52
100
AcDbEntity
  8
2
100
AcDbLine
 10
63.5
 20
-0.0000000000000071
 30
0.0
 11
63.5
 21
28.7300975056778
 31
0.0
  0
LINE
  5
59CEE
330
59C52
100
AcDbEntity
  8
2
100
AcDbLine
 10
47.625
 20
7.934275343206253
 30
0.0
 11
47.625
 21
28.7300975056778
 31
0.0
  0
LINE
  5
59CEF
330
59C52
100
AcDbEntity
  8
2
100
AcDbLine
 10
60.0
 20
27.23009750567781
 30
0.0
 11
51.125
 21
27.23009750567781
 31
0.0
  0
LINE
  5
59CF0
330
59C52
100
AcDbEntity
  8
2
100
AcDbLine
 10
47.625
 20
27.23009750567781
 30
0.0
 11
-18.43200613748809
 21
27.23009750567781
 31
0.0
  0
SOLID
  5
59CF1
330
59C52
100
AcDbEntity
  8
2
100
AcDbTrace
 10
60.0
 20
27.81343083901114
 30
0.0
 11
60.0
 21
26.64676417234447
 31
0.0
 12
63.5
 22
27.23009750567781
 32
0.0
 13
63.5
 23
27.23009750567781
 33
0.0
  0
SOLID
  5
59CF2
330
59C52
100
AcDbEntity
  8
2
100
AcDbTrace
 10
51.125
 20
27.81343083901114
 30
0.0
 11
51.125
 21
26.64676417234447
 31
0.0
 12
47.625
 22
27.23009750567781
 32
0.0
 13
47.625
 23
27.23009750567781
 33
0.0
  0
MTEXT
  5
59CF3
330
59C52
100
AcDbEntity
  8
2
100
AcDbMText
 10
10.70132719584524
 20
31.2800975056778
 30
0.0
 40
3.5
 41
0.0
 71
     5
 72
     1
  1
\A1;15.875 [.625"](MAX)
  7
simplex
 73
     1
 44
1.0
1001
ACAD
1000
MTEXTBEGIN
1070
    73
1070
     1
1070
    44
1040
1.0
1070
    74
1070
     0
1000
MTEXTEND
  0
POINT
  5
59CF4
330
59C52
100
AcDbEntity
  8
Defpoints
 62
     0
100
AcDbPoint
 10
63.5
 20
-0.0000000000000071
 30
0.0
  0
POINT
  5
59CF5
330
59C52
100
AcDbEntity
  8
Defpoints
 62
     0
100
AcDbPoint
 10
47.625
 20
7.934275343206253
 30
0.0
  0
POINT
  5
59CF6
330
59C52
100
AcDbEntity
  8
Defpoints
 62
     0
100
AcDbPoint
 10
47.625
 20
27.23009750567781
 30
0.0
  0
ENDBLK
  5
59C5E
330
59C52
100
AcDbEntity
  8
0
100
AcDbBlockEnd
  0
BLOCK
  5
59C67
330
59C5F
100
AcDbEntity
  8
0
100
AcDbBlockBegin
  2
*D9
 70
     1
 10
0.0
 20
0.0
 30
0.0
  3
*D9
  1

  0
LINE
  5
59CF7
330
59C5F
100
AcDbEntity
  8
2
100
AcDbLine
 10
55.61249999999995
 20
7.9375
 30
0.0
 11
86.33989196554272
 21
7.937499999999992
 31
0.0
  0
LINE
  5
59CF8
330
59C5F
100
AcDbEntity
  8
2
100
AcDbLine
 10
84.83989196554274
 20
4.437499999999992
 30
0.0
 11
84.83989196554274
 21
-7.937500000000014
 31
0.0
  0
LINE
  5
59CF9
330
59C5F
100
AcDbEntity
  8
2
100
AcDbLine
 10
84.83989196554274
 20
-7.937500000000014
 30
0.0
 11
84.83989196554272
 21
-61.53750000000002
 31
0.0
  0
SOLID
  5
59CFA
330
59C5F
100
AcDbEntity
  8
2
100
AcDbTrace
 10
84.2565586322094
 20
4.437499999999992
 30
0.0
 11
85.42322529887606
 21
4.437499999999992
 31
0.0
 12
84.83989196554274
 22
7.937499999999992
 32
0.0
 13
84.83989196554274
 23
7.937499999999992
 33
0.0
  0
MTEXT
  5
59CFB
330
59C5F
100
AcDbEntity
  8
2
100
AcDbMText
 10
80.78989196554273
 20
-36.48750000000001
 30
0.0
 40
3.5
 41
0.0
 71
     5
 72
     1
  1
\A1;%%c15.875 [%%C.625"]
  7
simplex
 11
0.0000000000000001
 21
1.0
 31
0.0
 73
     1
 44
1.0
1001
ACAD
1000
MTEXTBEGIN
1070
    73
1070
     1
1070
    44
1040
1.0
1070
    74
1070
     0
1000
MTEXTEND
  0
POINT
  5
59CFC
330
59C5F
100
AcDbEntity
  8
Defpoints
 62
     0
100
AcDbPoint
 10
55.61249999999995
 20
-7.937500000000007
 30
0.0
  0
POINT
  5
59CFD
330
59C5F
100
AcDbEntity
  8
Defpoints
 62
     0
100
AcDbPoint
 10
55.61249999999995
 20
7.9375
 30
0.0
  0
POINT
  5
59CFE
330
59C5F
100
AcDbEntity
  8
Defpoints
 62
     0
100
AcDbPoint
 10
84.83989196554274
 20
7.937499999999992
 30
0.0
  0
ENDBLK
  5
59C68
330
59C5F
100
AcDbEntity
  8
0
100
AcDbBlockEnd
  0
BLOCK
  5
59C73
330
59C69
100
AcDbEntity
  8
0
100
AcDbBlockBegin
  2
*D10
 70
     1
 10
0.0
 20
0.0
 30
0.0
  3
*D10
  1

  0
LINE
  5
59CFF
330
59C69
100
AcDbEntity
  8
2
100
AcDbLine
 10
0.0
 20
9.524999999999975
 30
0.0
 11
0.0000000000000028
 21
55.71630617430741
 31
0.0
  0
LINE
  5
59D00
330
59C69
100
AcDbEntity
  8
2
100
AcDbLine
 10
63.5
 20
-0.0000000000000071
 30
0.0
 11
63.5
 21
55.71630617430741
 31
0.0
  0
LINE
  5
59D01
330
59C69
100
AcDbEntity
  8
2
100
AcDbLine
 10
3.500000000000001
 20
54.21630617430742
 30
0.0
 11
60.0
 21
54.21630617430742
 31
0.0
  0
SOLID
  5
59D02
330
59C69
100
AcDbEntity
  8
2
100
AcDbTrace
 10
3.500000000000001
 20
54.79963950764076
 30
0.0
 11
3.500000000000001
 21
53.63297284097408
 31
0.0
 12
0.0000000000000027
 22
54.21630617430742
 32
0.0
 13
0.0000000000000027
 23
54.21630617430742
 33
0.0
  0
SOLID
  5
59D03
330
59C69
100
AcDbEntity
  8
2
100
AcDbTrace
 10
60.0
 20
54.79963950764076
 30
0.0
 11
60.0
 21
53.63297284097408
 31
0.0
 12
63.5
 22
54.21630617430742
 32
0.0
 13
63.5
 23
54.21630617430742
 33
0.0
  0
MTEXT
  5
59D04
330
59C69
100
AcDbEntity
  8
2
100
AcDbMText
 10
31.75
 20
58.2663061743074
 30
0.0
 40
3.5
 41
0.0
 71
     5
 72
     1
  1
\A1;63.5 [2.500"]
  7
simplex
 73
     1
 44
1.0
1001
ACAD
1000
MTEXTBEGIN
1070
    73
1070
     1
1070
    44
1040
1.0
1070
    74
1070
     0
1000
MTEXTEND
  0
POINT
  5
59D05
330
59C69
100
AcDbEntity
  8
Defpoints
 62
     0
100
AcDbPoint
 10
0.0
 20
9.524999999999975
 30
0.0
  0
POINT
  5
59D06
330
59C69
100
AcDbEntity
  8
Defpoints
 62
     0
100
AcDbPoint
 10
63.5
 20
-0.0000000000000071
 30
0.0
  0
POINT
  5
59D07
330
59C69
100
AcDbEntity
  8
Defpoints
 62
     0
100
AcDbPoint
 10
63.5
 20
54.21630617430742
 30
0.0
  0
ENDBLK
  5
59C74
330
59C69
100
AcDbEntity
  8
0
100
AcDbBlockEnd
  0
BLOCK
  5
59C7D
330
59C75
100
AcDbEntity
  8
0
100
AcDbBlockBegin
  2
*D11
 70
     1
 10
0.0
 20
0.0
 30
0.0
  3
*D11
  1

  0
LINE
  5
59D1B
330
59C75
100
AcDbEntity
  8
2
100
AcDbLine
 10
103.9756712758458
 20
39.02246025564468
 30
0.0
 11
64.46769838549037
 21
7.177380513175257
 31
0.0
  0
MTEXT
  5
59D1C
330
59C75
100
AcDbEntity
  8
2
100
AcDbMText
 10
84.65589686379749
 20
28.65176516478589
 30
0.0
 40
3.5
 41
0.0
 71
     5
 72
     1
  1
\A1;R7.94 [R.313"]
  7
simplex
 11
0.7785689072735594
 21
0.6275591260007746
 31
0.0
 73
     1
 44
1.0
1001
ACAD
1000
MTEXTBEGIN
1070
    73
1070
     1
1070
    44
1040
1.0
1070
    74
1070
     0
1000
MTEXTEND
  0
SOLID
  5
59D1D
330
59C75
100
AcDbEntity
  8
2
100
AcDbTrace
 10
64.10162222865658
 20
7.631545709084836
 30
0.0
 11
64.83377454232415
 21
6.72321531726568
 31
0.0
 12
61.7427072100329
 22
4.980923572172549
 32
0.0
 13
61.7427072100329
 23
4.980923572172549
 33
0.0
  0
LINE
  5
59D1E
330
59C75
100
AcDbEntity
  8
2
100
AcDbLine
 10
55.47087008628082
 20
-0.0018958882736193
 30
0.0
 11
55.65087008628085
 21
-0.0018958882736229
 31
0.0
  0
LINE
  5
59D1F
330
59C75
100
AcDbEntity
  8
2
100
AcDbLine
 10
55.56087008628082
 20
-0.0918958882736227
 30
0.0
 11
55.56087008628082
 21
0.088104111726377
 31
0.0
  0
POINT
  5
59D20
330
59C75
100
AcDbEntity
  8
Defpoints
 62
     0
100
AcDbPoint
 10
61.7427072100329
 20
4.980923572172549
 30
0.0
  0
POINT
  5
59D21
330
59C75
100
AcDbEntity
  8
Defpoints
 62
     0
100
AcDbPoint
 10
55.56087008628082
 20
-0.0018958882736229
 30
0.0
  0
ENDBLK
  5
59C7E
330
59C75
100
AcDbEntity
  8
0
100
AcDbBlockEnd
  0
BLOCK
  5
59CAC
330
59CA2
100
AcDbEntity
  8
0
100
AcDbBlockBegin
  2
*D12
 70
     1
 10
0.0
 20
0.0
 30
0.0
  3
*D12
  1

  0
LINE
  5
59D08
330
59CA2
100
AcDbEntity
  8
sk2
100
AcDbLine
 10
-62.5
 20
-9.52499999999997
 30
0.0
 11
-91.00303134861807
 21
-9.524999999999963
 31
0.0
  0
LINE
  5
59D09
330
59CA2
100
AcDbEntity
  8
sk2
100
AcDbLine
 10
-62.5
 20
9.524999999999238
 30
0.0
 11
-91.00303134861807
 21
9.524999999999243
 31
0.0
  0
LINE
  5
59D0A
330
59CA2
100
AcDbEntity
  8
sk2
100
AcDbLine
 10
-89.5030313486181
 20
-6.024999999999963
 30
0.0
 11
-89.5030313486181
 21
6.024999999999245
 31
0.0
  0
SOLID
  5
59D0B
330
59CA2
100
AcDbEntity
  8
sk2
100
AcDbTrace
 10
-90.08636468195142
 20
-6.024999999999963
 30
0.0
 11
-88.91969801528476
 21
-6.024999999999963
 31
0.0
 12
-89.5030313486181
 22
-9.524999999999963
 32
0.0
 13
-89.5030313486181
 23
-9.524999999999963
 33
0.0
  0
SOLID
  5
59D0C
330
59CA2
100
AcDbEntity
  8
sk2
100
AcDbTrace
 10
-90.08636468195142
 20
6.024999999999246
 30
0.0
 11
-88.91969801528476
 21
6.024999999999245
 31
0.0
 12
-89.5030313486181
 22
9.524999999999243
 32
0.0
 13
-89.5030313486181
 23
9.524999999999243
 33
0.0
  0
MTEXT
  5
59D0D
330
59CA2
100
AcDbEntity
  8
sk2
100
AcDbMText
 10
-93.55303134861806
 20
-0.0000000000003724
 30
0.0
 40
3.5
 41
0.0
 71
     5
 72
     1
  1
\A1;%%C19.05 [%%C.750"]
  7
simplex
 11
0.0000000000000001
 21
1.0
 31
0.0
 73
     1
 44
1.0
1001
ACAD
1000
MTEXTBEGIN
1070
    73
1070
     1
1070
    44
1040
1.0
1070
    74
1070
     0
1000
MTEXTEND
  0
POINT
  5
59D0E
330
59CA2
100
AcDbEntity
  8
Defpoints
 62
     0
100
AcDbPoint
 10
-62.5
 20
-9.52499999999997
 30
0.0
  0
POINT
  5
59D0F
330
59CA2
100
AcDbEntity
  8
Defpoints
 62
     0
100
AcDbPoint
 10
-62.5
 20
9.524999999999238
 30
0.0
  0
POINT
  5
59D10
330
59CA2
100
AcDbEntity
  8
Defpoints
 62
     0
100
AcDbPoint
 10
-89.5030313486181
 20
9.524999999999243
 30
0.0
  0
ENDBLK
  5
59CAD
330
59CA2
100
AcDbEntity
  8
0
100
AcDbBlockEnd
  0
BLOCK
  5
59CB9
330
59CAE
100
AcDbEntity
  8
0
100
AcDbBlockBegin
  2
*D13
 70
     1
 10
0.0
 20
0.0
 30
0.0
  3
*D13
  1

  0
LINE
  5
59D11
330
59CAE
100
AcDbEntity
  8
2
100
AcDbLine
 10
63.5
 20
-0.0000000000000071
 30
0.0
 11
63.5
 21
41.91981308849175
 31
0.0
  0
LINE
  5
59D12
330
59CAE
100
AcDbEntity
  8
2
100
AcDbLine
 10
38.10000000000002
 20
7.200000000000045
 30
0.0
 11
38.10000000000002
 21
41.91981308849175
 31
0.0
  0
LINE
  5
59D13
330
59CAE
100
AcDbEntity
  8
2
100
AcDbLine
 10
60.0
 20
40.41981308849176
 30
0.0
 11
41.60000000000002
 21
40.41981308849176
 31
0.0
  0
LINE
  5
59D14
330
59CAE
100
AcDbEntity
  8
2
100
AcDbLine
 10
38.10000000000002
 20
40.41981308849176
 30
0.0
 11
-14.74405595160753
 21
40.41981308849176
 31
0.0
  0
SOLID
  5
59D15
330
59CAE
100
AcDbEntity
  8
2
100
AcDbTrace
 10
60.0
 20
41.00314642182509
 30
0.0
 11
60.0
 21
39.83647975515843
 31
0.0
 12
63.5
 22
40.41981308849176
 32
0.0
 13
63.5
 23
40.41981308849176
 33
0.0
  0
SOLID
  5
59D16
330
59CAE
100
AcDbEntity
  8
2
100
AcDbTrace
 10
41.60000000000002
 20
41.00314642182509
 30
0.0
 11
41.60000000000002
 21
39.83647975515843
 31
0.0
 12
38.10000000000002
 22
40.41981308849176
 32
0.0
 13
38.10000000000002
 23
40.41981308849176
 33
0.0
  0
MTEXT
  5
59D17
330
59CAE
100
AcDbEntity
  8
2
100
AcDbMText
 10
4.180944048392461
 20
44.46981308849175
 30
0.0
 40
3.5
 41
0.0
 71
     5
 72
     1
  1
\A1;25.4 [1.000"]
  7
simplex
 73
     1
 44
1.0
1001
ACAD
1000
MTEXTBEGIN
1070
    73
1070
     1
1070
    44
1040
1.0
1070
    74
1070
     0
1000
MTEXTEND
  0
POINT
  5
59D18
330
59CAE
100
AcDbEntity
  8
Defpoints
 62
     0
100
AcDbPoint
 10
63.5
 20
-0.0000000000000071
 30
0.0
  0
POINT
  5
59D19
330
59CAE
100
AcDbEntity
  8
Defpoints
 62
     0
100
AcDbPoint
 10
38.10000000000002
 20
7.200000000000045
 30
0.0
  0
POINT
  5
59D1A
330
59CAE
100
AcDbEntity
  8
Defpoints
 62
     0
100
AcDbPoint
 10
38.10000000000002
 20
40.41981308849176
 30
0.0
  0
ENDBLK
  5
59CBA
330
59CAE
100
AcDbEntity
  8
0
100
AcDbBlockEnd
  0
ENDSEC
  0
SECTION
  2
ENTITIES
  0
INSERT
  5
68C
330
1F
100
AcDbEntity
  8
0
100
AcDbBlockReference
  2
zero block
 10
0.0
 20
0.0
 30
0.0
  0
DIMENSION
  5
59B1B
330
1F
100
AcDbEntity
  8
sk2
100
AcDbDimension
  2
*D7
 10
-63.49999999999999
 20
67.77293525337153
 30
0.0
 11
-1.206346422170212
 21
67.77293525337153
 31
0.0
 70
   160
 71
     5
 42
127.0
  3
\M+18352\M+18373\M+1815B - ISO-25
100
AcDbAlignedDimension
 13
63.5
 23
-0.0000000000000071
 33
0.0
 14
-63.5
 24
8.524999999999977
 34
0.0
 50
180.0
100
AcDbRotatedDimension
1001
ACAD
1000
DSTYLE
1002
{
1070
   285
1070
     4
1070
    78
1070
     8
1070
     4
1000
"
1070
    40
1040
1.0
1070
   143
1040
0.03937
1070
   170
1070
     1
1070
   171
1070
     3
1070
   271
1070
     8
1002
}
  0
LINE
  5
59B1C
330
1F
100
AcDbEntity
  8
sk1
100
AcDbLine
 10
-62.5
 20
9.524999999999975
 30
0.0
 11
0.0
 21
9.524999999999975
 31
0.0
  0
LINE
  5
59B1D
330
1F
100
AcDbEntity
  8
sk1
100
AcDbLine
 10
-62.5
 20
-9.52499999999997
 30
0.0
 11
0.0
 21
-9.524999999999975
 31
0.0
  0
LINE
  5
59B1E
330
1F
100
AcDbEntity
  8
sk3
100
AcDbLine
 10
-61.76794919243102
 20
1.500000000000006
 30
0.0
 11
46.0
 21
1.499999999999992
 31
0.0
  0
LINE
  5
59B1F
330
1F
100
AcDbEntity
  8
sk3
100
AcDbLine
 10
-61.76794919243102
 20
-1.499999999999992
 30
0.0
 11
46.0
 21
-1.500000000000006
 31
0.0
  0
LINE
  5
59B20
330
1F
100
AcDbEntity
  8
4
100
AcDbLine
 10
0.0
 20
0.0
 30
0.0
 11
64.28374959750806
 21
-0.0000000000000071
 31
0.0
  0
DIMENSION
  5
59B21
330
1F
100
AcDbEntity
  8
2
100
AcDbDimension
  2
*D8
 10
47.625
 20
27.23009750567781
 30
0.0
 11
10.70132719584524
 21
27.23009750567781
 31
0.0
 70
   160
  1
<>(MAX)
 71
     5
 42
15.875
  3
\M+18352\M+18373\M+1815B - ISO-25
100
AcDbAlignedDimension
 13
63.5
 23
-0.0000000000000071
 33
0.0
 14
47.625
 24
7.934275343206253
 34
0.0
 50
180.0
100
AcDbRotatedDimension
1001
ACAD
1000
DSTYLE
1002
{
1070
   285
1070
     4
1070
    78
1070
     8
1070
     4
1000
"
1070
    40
1040
1.0
1070
   143
1040
0.03937
1070
   170
1070
     1
1070
   171
1070
     3
1070
   271
1070
     8
1002
}
  0
DIMENSION
  5
59B22
330
1F
100
AcDbEntity
  8
2
100
AcDbDimension
  2
*D9
 10
84.83989196554274
 20
7.937499999999992
 30
0.0
 11
84.83989196554274
 21
-36.48750000000001
 31
0.0
 70
   160
  1
%%c<>
 71
     5
 42
15.87500000000001
  3
\M+18352\M+18373\M+1815B - ISO-25
100
AcDbAlignedDimension
 13
55.61249999999995
 23
-7.937500000000007
 33
0.0
 14
55.61249999999995
 24
7.9375
 34
0.0
 50
270.0
100
AcDbRotatedDimension
1001
ACAD
1000
DSTYLE
1002
{
1070
   285
1070
     4
1070
    78
1070
     8
1070
    75
1070
     1
1070
   343
1005
32F1
1070
   173
1070
     1
1070
   344
1005
0
1070
     4
1000
%%C[]"
1070
    40
1040
1.0
1070
   143
1040
0.03937
1070
   170
1070
     1
1070
   171
1070
     3
1070
   271
1070
     8
1002
}
  0
DIMENSION
  5
59B23
330
1F
100
AcDbEntity
  8
2
100
AcDbDimension
  2
*D10
 10
63.5
 20
54.21630617430742
 30
0.0
 11
31.75
 21
54.21630617430742
 31
0.0
 70
   160
 71
     5
 42
63.5
  3
\M+18352\M+18373\M+1815B - ISO-25
100
AcDbAlignedDimension
 13
0.0
 23
9.524999999999975
 33
0.0
 14
63.5
 24
-0.0000000000000071
 34
0.0
 50
180.0
100
AcDbRotatedDimension
1001
ACAD
1000
DSTYLE
1002
{
1070
   285
1070
     4
1070
    78
1070
     8
1070
     4
1000
"
1070
    40
1040
1.0
1070
   143
1040
0.03937
1070
   170
1070
     1
1070
   171
1070
     3
1070
   271
1070
     8
1002
}
  0
LWPOLYLINE
  5
59B24
330
1F
100
AcDbEntity
  8
1
100
AcDbPolyline
 90
       28
 70
     0
 43
0.0
 10
61.84196456189994
 20
-0.6336200122999644
 42
-0.0132019341265031
 10
61.79951752486601
 20
-0.9291546002192559
 42
-0.013223186154539
 10
61.74147821824657
 20
-1.222040049666367
 42
-0.012891072661915
 10
61.66823351616789
 20
-1.511496014581446
 42
-0.012665839681672
 10
61.58029958633131
 20
-1.796834713559753
 42
-0.0124415431201559
 10
61.47815471255069
 20
-2.077401038463341
 42
-0.012249480034679
 10
61.36228862734403
 20
-2.352585606790916
 42
-0.012094633846004
 10
61.23316987038265
 20
-2.621806911524919
 42
-0.0119733209585667
 10
61.09124920283591
 20
-2.884505425162223
 42
-0.0118852503931383
 10
60.93696180080633
 20
-3.140137132244496
 42
-0.0118248848923608
 10
60.77073226949289
 20
-3.388169626297446
 42
-0.0117867992484855
 10
60.59298148970845
 20
-3.628079145788213
 42
-0.0117689523932909
 10
60.40413116003207
 20
-3.859352337718923
 42
-0.0117639704063808
 10
60.20461005101958
 20
-4.081486675352386
 42
-0.011768559135565
 10
59.9948598249847
 20
-4.293987280453285
 42
-0.0117867615604814
 10
59.77533553540036
 20
-4.496376541643606
 42
-0.0118016041581391
 10
59.54651166335167
 20
-4.688189204058978
 42
-0.0118296063875303
 10
59.30888116623669
 20
-4.868976994507426
 42
-0.0118518525127205
 10
59.0629588624315
 20
-5.038313529048487
 42
-0.0118799312582341
 10
58.80927825514652
 20
-5.195789752335322
 42
-0.0119075743652125
 10
58.54839695021053
 20
-5.341025771762026
 42
-0.0119327336845094
 10
58.28088956783837
 20
-5.473660921265611
 42
-0.011966258347598
 10
58.00735062104138
 20
-5.593365424159522
 42
-0.0119792729482423
 10
57.72839337238771
 20
-5.699837778949593
 42
-0.0120076177794248
 10
57.44465801156088
 20
-5.792810144337074
 42
-0.0120470414267232
 10
57.15678214940021
 20
-5.872031472258989
 42
-0.0120615461195539
 10
56.86538908065222
 20
-5.937282339658517
 42
-0.0119953108888224
 10
56.57121767589996
 20
-5.988443172499954
  0
LWPOLYLINE
  5
59B25
330
1F
100
AcDbEntity
  8
1
100
AcDbPolyline
 90
       13
 70
     0
 43
0.0
 10
55.39999999999999
 20
-6.918092131899988
 42
0.0117569730954324
 10
55.75321064217495
 20
-6.909758380354623
 42
0.0117999538480616
 10
56.10566236608235
 20
-6.88479858363781
 42
0.011791129276238
 10
56.4565407471955
 20
-6.843243745871524
 42
0.0117870813719806
 10
56.80506844749141
 20
-6.78519599934669
 42
0.011796238333812
 10
57.15047376632252
 20
-6.710781381705038
 42
0.0117948654017272
 10
57.49198508825862
 20
-6.620160532084135
 42
0.0117983918976438
 10
57.828840987356
 20
-6.513531091955321
 42
0.0118068605297019
 10
58.16029078106726
 20
-6.391124161347766
 42
0.0118043799662127
 10
58.48559321553387
 20
-6.253209851314642
 42
0.0118187333449328
 10
58.80401262430688
 20
-6.100090723164902
 42
0.0118375993199089
 10
59.11485250774717
 20
-5.932070876627
 42
0.0117892379477721
 10
59.41740539269996
 20
-5.749560408300006
  0
LWPOLYLINE
  5
59B26
330
1F
100
AcDbEntity
  8
1
100
AcDbPolyline
 90
       57
 70
     0
 43
0.0
 10
55.61249999999995
 20
-7.062253327500008
 10
55.67443584228886
 20
-7.061981726751701
 10
55.7372023603957
 20
-7.061152272792932
 10
55.79996060830001
 20
-7.0597649097
 10
55.86186754465876
 20
-7.057849380176499
 10
55.92459078875163
 20
-7.055354094513297
 10
55.987291895
 20
-7.052301262399971
 10
56.04912617998774
 20
-7.048743124263417
 10
56.11176099116949
 20
-7.044583771768208
 10
56.1743588068
 20
-7.039867665099968
 10
56.23607685567788
 20
-7.034669427875548
 10
56.29857863214795
 20
-7.02884899288086
 10
56.36102839709997
 20
-7.022473018700003
 10
56.42258671612689
 20
-7.015638357631651
 10
56.48491205363677
 20
-7.008160904368317
 10
56.5471700682
 20
-7.000129564699995
 10
56.6085252765796
 20
-6.991663299971271
 10
56.67063134051204
 20
-6.982533932455118
 10
56.73265401009996
 20
-6.972852863199995
 10
56.79376286853869
 20
-6.962760952864762
 10
56.85560594430501
 20
-6.951986022899014
 10
56.9173490938
 20
-6.940662137000011
 10
56.97816853661345
 20
-6.928951688261128
 10
57.03970380721955
 20
-6.916538971396454
 10
57.10112385389994
 20
-6.903580308699991
 10
57.16161102151488
 20
-6.890259580959996
 10
57.2227947777086
 20
-6.876217912359159
 10
57.28384922600003
 20
-6.861633465900019
 10
57.34396149259771
 20
-6.846711849436026
 10
57.40475101120546
 20
-6.831051043722487
 10
57.46539768970001
 20
-6.814850857199991
 10
57.52509269085123
 20
-6.798338859413489
 10
57.58544505904978
 20
-6.781069962979366
 10
57.6456411803
 20
-6.763265409200021
 10
57.70487684525938
 20
-6.74517465934651
 10
57.76474864524288
 20
-6.726310119027976
 10
57.82445093859997
 20
-6.706913977400013
 10
57.88318552482929
 20
-6.687257232655731
 10
57.94253458226297
 20
-6.666810398808202
 10
58.00170097980004
 20
-6.64583634560001
 10
58.05989309850213
 20
-6.624627466457816
 10
58.11867859158486
 20
-6.602612431064024
 10
58.17726783479997
 20
-6.580075076100007
 10
58.23487647519494
 20
-6.55732900421993
 10
58.29305752601271
 20
-6.533761045363582
 10
58.35102791979999
 20
-6.509676404200042
 10
58.40801248135915
 20
-6.485409163221
 10
58.46554764121754
 20
-6.460305039629196
 10
58.52285739909996
 20
-6.434690502600012
 10
58.57917772668873
 20
-6.408919200110523
 10
58.63602603332846
 20
-6.382296794825728
 10
58.69263496630003
 20
-6.355170386700031
 10
58.74825138189066
 20
-6.327913187317398
 10
58.804373275197
 20
-6.299791034160199
 10
58.86024253580001
 20
-6.271171380000004
 10
58.91511595645045
 20
-6.242447417196338
 10
58.9431962205
 20
-6.227510316599995
  0
LWPOLYLINE
  5
59B27
330
1F
100
AcDbEntity
  8
1
100
AcDbPolyline
 90
      100
 70
     0
 43
0.0
 10
61.61073111609994
 20
-4.895797873300018
 10
61.56666411345351
 20
-4.949297216610893
 10
61.52211985683357
 20
-5.002400076596926
 10
61.47710202504164
 20
-5.055102018853921
 10
61.43161422145249
 20
-5.107398848948612
 10
61.38566007802205
 20
-5.159286389284325
 10
61.33924328500427
 20
-5.210760470732224
 10
61.2923675604394
 20
-5.261816970404999
 10
61.24503666039561
 20
-5.312451797307637
 10
61.19725437905879
 20
-5.362660893619596
 10
61.14902454480295
 20
-5.412440235233708
 10
61.10035102253369
 20
-5.461785832788732
 10
61.05123771370211
 20
-5.510693732585713
 10
61.00168855365495
 20
-5.559160014747368
 10
60.95170751273325
 20
-5.607180794785455
 10
60.90129859719406
 20
-5.654752225291821
 10
60.85046584650422
 20
-5.701870493775011
 10
60.79921333361244
 20
-5.748531823469767
 10
60.74754516658458
 20
-5.794732475871918
 10
60.69546548609286
 20
-5.840468748649705
 10
60.64297846489456
 20
-5.885736975618223
 10
60.59008830977962
 20
-5.930533529701797
 10
60.53679925962092
 20
-5.974854821431342
 10
60.48311558413114
 20
-6.018697298024227
 10
60.42904158569297
 20
-6.062057446306887
 10
60.37458159823763
 20
-6.104931792169232
 10
60.31973998542287
 20
-6.147316898890102
 10
60.26452114212202
 20
-6.189209369698637
 10
60.20892949420056
 20
-6.230605848383341
 10
60.15296949621642
 20
-6.271503016911772
 10
60.09664563230069
 20
-6.311897597255899
 10
60.03996241692505
 20
-6.351786353326652
 10
59.98292439237594
 20
-6.391166088257142
 10
59.92553612899428
 20
-6.430033645328427
 10
59.86780222650121
 20
-6.468385910817468
 10
59.80972731158114
 20
-6.506219811277906
 10
59.75131603751901
 20
-6.54353231362075
 10
59.69257308589964
 20
-6.580320428580427
 10
59.63350316451772
 20
-6.616581208422423
 10
59.57411100641422
 20
-6.652311746106767
 10
59.51440137149848
 20
-6.68750917873718
 10
59.45437904520872
 20
-6.72217068638634
 10
59.39404883704947
 20
-6.756293490355978
 10
59.3334155818028
 20
-6.789874856120497
 10
59.27248413906125
 20
-6.822912093487508
 10
59.21125939135198
 20
-6.855402554178005
 10
59.14974624489673
 20
-6.887343633979646
 10
59.08794962983915
 20
-6.918732774337747
 10
59.02587449823045
 20
-6.949567459392709
 10
58.96352582421219
 20
-6.979845217170299
 10
58.90093073927483
 20
-7.00955323847092
 10
58.83805008475963
 20
-7.038710108254811
 10
58.77491093980473
 20
-7.067302907032177
 10
58.71151836471107
 20
-7.095329344334294
 10
58.64787743980548
 20
-7.122787174599984
 10
58.58399326465922
 20
-7.149674196230654
 10
58.51987095902313
 20
-7.175988254980616
 10
58.45551566188373
 20
-7.201727242886994
 10
58.3909325301721
 20
-7.226889096301086
 10
58.32612673948996
 20
-7.251471798750124
 10
58.26110348362021
 20
-7.275473381217928
 10
58.19586797310718
 20
-7.298891919477576
 10
58.13042543567711
 20
-7.321725536387822
 10
58.06478111618014
 20
-7.343972403260186
 10
57.99894027507161
 20
-7.365630736781504
 10
57.93290818846013
 20
-7.386698800441087
 10
57.8666901484804
 20
-7.407174907152016
 10
57.8002914616486
 20
-7.427057415874976
 10
57.73371744867205
 20
-7.446344731947653
 10
57.66697344500165
 20
-7.465035310886384
 10
57.60006479948946
 20
-7.483127655231903
 10
57.53299687371702
 20
-7.500620313773089
 10
57.46577504260972
 20
-7.517511885318191
 10
57.39840469336252
 20
-7.533801016889249
 10
57.33089122462843
 20
-7.549486401954262
 10
57.26324004688866
 20
-7.564566783778338
 10
57.19545658179595
 20
-7.579040954823319
 10
57.12754626118613
 20
-7.592907754157812
 10
57.05951452722
 20
-7.606166070157775
 10
56.99136683213096
 20
-7.618814841660771
 10
56.92310863702221
 20
-7.630853054463508
 10
56.85474541181793
 20
-7.64227974281585
 10
56.78628263526468
 20
-7.653093992358611
 10
56.7186902505
 20
-7.663155777299954
 10
56.65004604512262
 20
-7.672751236413488
 10
56.58131869262081
 20
-7.681731814614642
 10
56.51251370069797
 20
-7.69009679239992
 10
56.44363658311259
 20
-7.697845498131818
 10
56.37469285967973
 20
-7.70497731168411
 10
56.30568805545954
 20
-7.71149166215634
 10
56.23662770022725
 20
-7.717388026267492
 10
56.16751732867396
 20
-7.722665931776083
 10
56.09836247869748
 20
-7.727324956640877
 10
56.02916869198327
 20
-7.731364726629301
 10
55.95994151751972
 20
-7.734784917843632
 10
55.89068649341903
 20
-7.737585256404947
 10
55.82140917143981
 20
-7.739765519018823
 10
55.7521151568152
 20
-7.741325531564321
 10
55.68280984251953
 20
-7.742265156748779
 10
55.61249999999995
 20
-7.742584409499953
  0
LINE
  5
59B28
330
1F
100
AcDbEntity
  8
1
100
AcDbLine
 10
62.59999999999998
 20
-0.6336200122999644
 30
0.0
 11
55.19507939909994
 21
-0.6336200122999644
 31
0.0
  0
LWPOLYLINE
  5
59B29
330
1F
100
AcDbEntity
  8
1
100
AcDbPolyline
 90
       30
 70
     0
 43
0.0
 10
62.09287317429994
 20
-2.71565443340001
 42
-0.025768609772482
 10
62.08959625369995
 20
-2.671898261299993
 42
-0.0223803484168263
 10
62.09079520084276
 20
-2.628129577745091
 42
-0.013391964881348
 10
62.09500311594922
 20
-2.584527289752037
 42
-0.0112133284610759
 10
62.10134783244472
 20
-2.541188657416234
 10
62.10944972916047
 20
-2.498141920227915
 10
62.11896230357059
 20
-2.455382667393798
 10
62.12966619365693
 20
-2.412906293929899
 10
62.14141023978368
 20
-2.370705631737003
 10
62.15409946066149
 20
-2.328779020328858
 10
62.16766017898294
 20
-2.287126097950816
 10
62.18204043781621
 20
-2.245748904176713
 10
62.19719465075518
 20
-2.20464893892501
 10
62.21308402799832
 20
-2.163827330288718
 10
62.22968166681823
 20
-2.123288558254337
 10
62.2469839908406
 20
-2.083045538214384
 10
62.26499493209451
 20
-2.043114558312715
 10
62.28373321281651
 20
-2.003519824521851
 10
62.3032209674792
 20
-1.964288759119888
 10
62.32348426023315
 20
-1.925452649081313
 10
62.34455489532706
 20
-1.887048425499308
 10
62.3664994784216
 20
-1.849137329185289
 10
62.38940501985735
 20
-1.811799157861635
 10
62.41363322630002
 20
-1.774827590999968
 10
62.43892011859419
 20
-1.739059669199384
 42
-0.0118557067046511
 10
62.46571615880053
 20
-1.704412533351166
 42
-0.0157725048775396
 10
62.49437522393748
 20
-1.671292409269319
 42
-0.024561516194526
 10
62.52553954126267
 20
-1.640531717993332
 42
-0.0393591871778638
 10
62.56029350008396
 20
-1.613934395352663
 42
-0.08758246232414
 10
62.59999999999998
 20
-1.597179162300001
  0
LWPOLYLINE
  5
59B2A
330
1F
100
AcDbEntity
  8
1
100
AcDbPolyline
 90
       45
 70
     0
 43
0.0
 10
61.58421546249996
 20
-3.844082160200008
 10
61.61564579576918
 20
-3.804280873586726
 10
61.64657098792122
 20
-3.764381413605753
 10
61.67717679500004
 20
-3.724147985800023
 10
61.70751505924818
 20
-3.683507994963072
 10
61.73742802367087
 20
-3.642671834268419
 10
61.76701390300002
 20
-3.601506525699966
 10
61.79623834112056
 20
-3.560058338793857
 10
61.8251150688577
 20
-3.518306826441238
 10
61.85365600559999
 20
-3.476232444299973
 10
61.88174584677245
 20
-3.434007085223703
 10
61.90956252555702
 20
-3.39136220664222
 10
61.93703402209997
 20
-3.348402086199946
 10
61.9639694045361
 20
-3.305431103007498
 10
61.99070243427645
 20
-3.261915590591576
 10
62.01708087780002
 20
-3.218092925499951
 10
62.04284284313565
 20
-3.174408357731414
 10
62.06846849865929
 20
-3.130046328686326
 10
62.09373076110001
 20
-3.085384690699988
 10
62.11830126291693
 20
-3.041019041185683
 10
62.14279574288571
 20
-2.995836143471712
 10
62.16691841639999
 20
-2.950360908499994
 10
62.19028034149153
 20
-2.905347122042606
 10
62.21361996006533
 20
-2.859370461623036
 10
62.23657977790002
 20
-2.813108348199996
 10
62.25871696141564
 20
-2.767479785640269
 10
62.28044783082601
 20
-2.721656320385996
 10
62.30177107140367
 20
-2.675641756367731
 10
62.32268540556821
 20
-2.629439902064524
 10
62.34318959604741
 20
-2.583054571110331
 10
62.3632824416677
 20
-2.536489580562893
 10
62.38296277823906
 20
-2.489748750797395
 10
62.40222948121448
 20
-2.44283590593472
 10
62.42108146130135
 20
-2.395754872230674
 10
62.43951766611406
 20
-2.348509478053138
 10
62.45753708183315
 20
-2.301103554255412
 10
62.47513872933747
 20
-2.253540932620814
 10
62.49232166686624
 20
-2.205825445286683
 10
62.50908498745627
 20
-2.157960927129586
 10
62.52542782121953
 20
-2.109951213142274
 10
62.54134934396279
 20
-2.061800128289185
 10
62.55684872966162
 20
-2.013511517421767
 10
62.57192521874992
 20
-1.965089236733213
 10
62.58657822860675
 20
-1.916537001710884
 10
62.59935011359994
 20
-1.872915491500015
  0
LWPOLYLINE
  5
59B2B
330
1F
100
AcDbEntity
  8
1
100
AcDbPolyline
 90
       61
 70
     0
 43
0.0
 10
62.12169904559994
 20
-4.227905269200056
 10
62.14792513159999
 20
-4.190902661599984
 10
62.17377406870003
 20
-4.153878959099991
 10
62.19939495772928
 20
-4.116623490167291
 10
62.22473573801186
 20
-4.079211679140207
 10
62.24981168085321
 20
-4.041621842322121
 10
62.27462168886745
 20
-4.003855956188373
 10
62.29916467952214
 20
-3.965916000614193
 10
62.32343958912703
 20
-3.927803964301978
 10
62.34744536875189
 20
-3.889521840712411
 10
62.37118098974509
 20
-3.851071629385508
 10
62.39464543542453
 20
-3.812455337451986
 10
62.41783770710872
 20
-3.773674979512981
 10
62.44075683099424
 20
-3.734732563273843
 10
62.46340183766927
 20
-3.695630119887943
 10
62.4857717895793
 20
-3.656369662027323
 10
62.50786575337986
 20
-3.616953227443396
 10
62.52968281788175
 20
-3.577382850558484
 10
62.55122208422836
 20
-3.537660576990794
 10
62.57244416635182
 20
-3.497861280416833
 10
62.59342572709964
 20
-3.457841621493463
 10
62.61412690485371
 20
-3.417676210414818
 10
62.63454687105241
 20
-3.377367104761113
 10
62.65468481333107
 20
-3.336916365463203
 10
62.67453993672393
 20
-3.29632605731593
 10
62.69411146188407
 20
-3.25559824797552
 10
62.71339862728922
 20
-3.214735008829741
 10
62.73240068658026
 20
-3.173738413661459
 10
62.75111691153757
 20
-3.132610539793808
 10
62.76954658859313
 20
-3.091353466478728
 10
62.78768902255399
 20
-3.049969276281508
 10
62.80554353237914
 20
-3.008460053258552
 10
62.82310945582731
 20
-2.966827884632272
 10
62.84038614444465
 20
-2.925074858754506
 10
62.85737296860885
 20
-2.883203066831818
 10
62.87406931196564
 20
-2.841214600791096
 10
62.89047457737888
 20
-2.799111555252465
 10
62.90658818067242
 20
-2.756896025249381
 10
62.92240955686736
 20
-2.714570108187224
 10
62.93793815350352
 20
-2.672135901541658
 10
62.95317343759665
 20
-2.62959550495919
 10
62.96811488839535
 20
-2.58695101788539
 10
62.98276200456815
 20
-2.544204541616132
 10
62.99711429664546
 20
-2.50135817695213
 10
63.01117129468411
 20
-2.458414026304133
 10
63.02493254034265
 20
-2.415374191358985
 10
63.03839759488646
 20
-2.372240775116444
 10
63.05156603091223
 20
-2.329015879574292
 10
63.06443744035277
 20
-2.285701607843641
 10
63.07701142619464
 20
-2.242300061955126
 10
63.0892876113453
 20
-2.198813344371963
 10
63.10126562956372
 20
-2.155243555753493
 10
63.11294513241159
 20
-2.111592798565659
 10
63.12432578223365
 20
-2.067863175206703
 10
63.13540726651343
 20
-2.024056783198723
 10
63.1461892822204
 20
-1.980175712785643
 10
63.15667152346622
 20
-1.93622207360665
 10
63.16685369981518
 20
-1.892197993451651
 10
63.17686111489996
 20
-1.847536394200012
 10
63.18643870188902
 20
-1.803376674024326
 10
63.1955809287
 20
-1.759804430200013
  0
LWPOLYLINE
  5
59B2C
330
1F
100
AcDbEntity
  8
1
100
AcDbPolyline
 90
        9
 70
     0
 43
0.0
 10
62.86734518280002
 20
-1.666377068399988
 10
62.83409954358877
 20
-1.692521721131136
 10
62.80078172020751
 20
-1.718574346159932
 10
62.76739182338554
 20
-1.744534532126415
 10
62.73392944392572
 20
-1.770401219101137
 10
62.70039433635485
 20
-1.796173547370706
 10
62.66678627167387
 20
-1.821850659578508
 10
62.63310483112842
 20
-1.847431462495315
 10
62.59935011359994
 20
-1.872915491500015
  0
LINE
  5
59B2D
330
1F
100
AcDbEntity
  8
1
100
AcDbLine
 10
62.60000000000001
 20
-1.3100164964003
 30
0.0
 11
62.86600975840007
 21
-1.321710622500297
 31
0.0
  0
LWPOLYLINE
  5
59B2E
330
1F
100
AcDbEntity
  8
1
100
AcDbPolyline
 90
        6
 70
     0
 43
0.0
 10
62.86734518280002
 20
-1.666377068399988
 10
62.93271580726122
 20
-1.667723445251346
 10
62.99808706856658
 20
-1.669038561501686
 10
63.06345894623961
 20
-1.670322666852604
 10
63.12883140442022
 20
-1.671576903763599
 10
63.19420442490002
 20
-1.672801466800031
  0
ARC
  5
59B2F
330
1F
100
AcDbEntity
  8
1
100
AcDbCircle
 10
63.03721770189998
 20
0.011363380099958
 30
0.0
 40
0.2
100
AcDbArc
 50
272.5171743586101
 51
315.9955430425045
  0
ARC
  5
59B30
330
1F
100
AcDbEntity
  8
1
100
AcDbCircle
 10
62.85722598799997
 20
-1.521517642799956
 30
0.0
 40
0.2
100
AcDbArc
 50
35.75612585169912
 51
87.48282564139159
  0
ARC
  5
59B31
330
1F
100
AcDbEntity
  8
1
100
AcDbCircle
 10
62.99970658339997
 20
-1.719391054299996
 30
0.0
 40
0.2
100
AcDbArc
 50
348.342138558904
 51
35.75612585149846
  0
LINE
  5
59B32
330
1F
100
AcDbEntity
  8
1
100
AcDbLine
 10
63.16200888619994
 20
-1.602523768299881
 30
0.0
 11
63.0195282899
 21
-1.404650355800021
 31
0.0
  0
LINE
  5
59B33
330
1F
100
AcDbEntity
  8
1
100
AcDbLine
 10
63.43893655200003
 20
0.139402555199915
 30
0.0
 11
63.18107485380004
 21
-0.1275794854001404
 31
0.0
  0
LINE
  5
59B34
330
1F
100
AcDbEntity
  8
1
100
AcDbLine
 10
62.95668932759986
 20
-1.348003827600002
 30
0.0
 11
62.8673451827999
 21
-1.666377068399988
 31
0.0
  0
LINE
  5
59B35
330
1F
100
AcDbEntity
  8
1
100
AcDbLine
 10
62.59935011359994
 20
-1.872915491500015
 30
0.0
 11
62.35266010199996
 21
-1.872915491500015
 31
0.0
  0
LINE
  5
59B36
330
1F
100
AcDbEntity
  8
1
100
AcDbLine
 10
62.59999999999998
 20
-1.646039191099994
 30
0.0
 11
62.51953437989993
 21
-1.646039191099994
 31
0.0
  0
LINE
  5
59B37
330
1F
100
AcDbEntity
  8
1
100
AcDbLine
 10
62.59999999999998
 20
-0.2475537958999965
 30
0.0
 11
61.70140521389999
 21
-0.2475537958999965
 31
0.0
  0
LINE
  5
59B38
330
1F
100
AcDbEntity
  8
1
100
AcDbLine
 10
62.59999999999998
 20
-0.2080504301999966
 30
0.0
 11
62.59999999999998
 21
-1.310016496399554
 31
0.0
  0
LINE
  5
59B39
330
1F
100
AcDbEntity
  8
1
100
AcDbLine
 10
62.59999999999998
 20
-1.310016496399554
 30
0.0
 11
62.59999999999998
 21
-1.597179162300001
 31
0.0
  0
LINE
  5
59B3A
330
1F
100
AcDbEntity
  8
1
100
AcDbLine
 10
62.59999999999998
 20
-1.597179162300001
 30
0.0
 11
62.59999999999998
 21
-1.646039191099994
 31
0.0
  0
LWPOLYLINE
  5
59B3B
330
1F
100
AcDbEntity
  8
1
100
AcDbPolyline
 90
       10
 70
     0
 43
0.0
 10
60.57562668799993
 20
-5.119696679500008
 42
-0.0044854539201194
 10
60.4725510425726
 20
-5.211510651022428
 42
-0.0044886741711242
 10
60.36784244565332
 20
-5.301461527198177
 42
-0.0044878807439086
 10
60.26153581460062
 20
-5.389517964159161
 42
-0.0044860367081566
 10
60.15366632853545
 20
-5.475652130709597
 42
-0.0044855616654314
 10
60.04426873867533
 20
-5.559837120122446
 42
-0.0044847445131921
 10
59.93337841282414
 20
-5.642046017494812
 42
-0.004484127877982
 10
59.82103168377477
 20
-5.722252484172719
 42
-0.0044839118576989
 10
59.70726403187604
 20
-5.800431473211695
 42
-0.0044820814720052
 10
59.59211251249996
 20
-5.876558147700003
  0
LWPOLYLINE
  5
59B3C
330
1F
100
AcDbEntity
  8
1
100
AcDbPolyline
 90
        4
 70
     0
 43
0.0
 10
59.4504130061
 20
-5.936755885899978
 10
59.49793008686629
 20
-5.917363610509831
 10
59.54504036104106
 20
-5.897350972264923
 10
59.59211251249996
 20
-5.876558147700003
  0
LWPOLYLINE
  5
59B3D
330
1F
100
AcDbEntity
  8
1
100
AcDbPolyline
 90
        4
 70
     0
 43
0.0
 10
62.097603831
 20
-2.750415783100044
 10
62.0961197943965
 20
-2.738816182611919
 10
62.09454444854593
 20
-2.727240042218404
 10
62.09287317429994
 20
-2.71565443340001
  0
LWPOLYLINE
  5
59B3E
330
1F
100
AcDbEntity
  8
1
100
AcDbPolyline
 90
       13
 70
     0
 43
0.0
 10
60.66358194399993
 20
-4.754700150999958
 42
0.0069711662494767
 10
60.80806057454913
 20
-4.6073837574528
 42
0.0069765822813128
 10
60.94838297028712
 20
-4.456086179936511
 42
0.006989275310291
 10
61.08442833112302
 20
-4.30092540803531
 42
0.0070300428135694
 10
61.21655105460002
 20
-4.141431721699979
 42
0.0070210969282474
 10
61.34367328747362
 20
-3.978885331800377
 42
0.0070406962836435
 10
61.4661749018328
 20
-3.812828622360263
 42
0.0070628451819027
 10
61.58394457002202
 20
-3.643383152127121
 42
0.0070893741803228
 10
61.69687188606985
 20
-3.470672871808126
 42
0.0071209651935911
 10
61.80484592514597
 20
-3.294823650868245
 42
0.0071537464828231
 10
61.90775631763243
 20
-3.115964173965501
 42
0.0072065613114193
 10
62.00548963262225
 20
-2.934224620029233
 42
0.0071979970701775
 10
62.097603831
 20
-2.750415783100044
  0
LWPOLYLINE
  5
59B3F
330
1F
100
AcDbEntity
  8
1
100
AcDbPolyline
 90
        4
 70
     0
 43
0.0
 10
60.57562668799993
 20
-5.119696679500008
 10
60.61813938085492
 20
-5.069686554224809
 10
60.65981790810964
 20
-5.019349060010775
 10
60.70119756450004
 20
-4.968028936000003
  0
LWPOLYLINE
  5
59B40
330
1F
100
AcDbEntity
  8
1
100
AcDbPolyline
 90
        7
 70
     0
 43
0.0
 10
61.23896499110003
 20
-4.274658751199986
 10
61.29681342986311
 20
-4.203142448482147
 10
61.35454687271852
 20
-4.131533267388711
 10
61.4116941963
 20
-4.060412299000013
 10
61.46918361816915
 20
-3.988607074088356
 10
61.52653702657675
 20
-3.916693158123286
 10
61.58421546249996
 20
-3.844082160200008
  0
LWPOLYLINE
  5
59B41
330
1F
100
AcDbEntity
  8
1
100
AcDbPolyline
 90
        6
 70
     0
 43
0.0
 10
59.18326139029995
 20
-6.149294928899968
 10
59.13547596517765
 20
-6.165627854812334
 10
59.08757419142592
 20
-6.181616678226425
 10
59.03955867502531
 20
-6.197260517817432
 10
58.99143181421345
 20
-6.212558661600218
 10
58.9431962205
 20
-6.227510316599995
  0
LWPOLYLINE
  5
59B42
330
1F
100
AcDbEntity
  8
1
100
AcDbPolyline
 90
       84
 70
     0
 43
0.0
 10
59.49293644930003
 20
-6.177918316300014
 10
59.48969391437811
 20
-6.1799490391627
 10
59.4864459627297
 20
-6.181971093639737
 10
59.48301579881172
 20
-6.184093568001522
 10
59.47975680581419
 20
-6.186097780144684
 10
59.47637375639999
 20
-6.188165557499991
 10
59.47310382565115
 20
-6.190151872742609
 10
59.46982852131236
 20
-6.192129315197696
 10
59.46649513049192
 20
-6.194129361801749
 10
59.46320899189505
 20
-6.196088747130325
 10
59.45993682439996
 20
-6.198027649100032
 10
59.45663994983953
 20
-6.19996891549261
 10
59.45333767976899
 20
-6.201900989313124
 10
59.45013038343495
 20
-6.203765627476804
 10
59.44681745708021
 20
-6.205679371415164
 10
59.44368514639997
 20
-6.207477252899996
 10
59.44036165274053
 20
-6.209372585715647
 10
59.43703269913203
 20
-6.211258312098273
 10
59.43397904298445
 20
-6.212976860261798
 10
59.43063957644165
 20
-6.214843905862386
 10
59.42767373130005
 20
-6.216491200900017
 10
59.4243238317224
 20
-6.218339461845522
 10
59.42096836515952
 20
-6.220177596562286
 10
59.41809366221367
 20
-6.221741807065092
 10
59.41472779086712
 20
-6.223560819173151
 10
59.41195319650001
 20
-6.225050124599995
 10
59.40857699240121
 20
-6.226849885803523
 10
59.40519506868724
 20
-6.22863887594412
 10
59.40252270726682
 20
-6.23004266435101
 10
59.39913045165042
 20
-6.231811984938197
 10
59.3948693978417
 20
-6.234014252012919
 10
59.39146392105907
 20
-6.235757989519988
 10
59.38731063053557
 20
-6.237864761881617
 10
59.38389189161319
 20
-6.239582351976771
 10
59.37985265301723
 20
-6.241592139761912
 10
59.37642059723817
 20
-6.243282963076132
 10
59.37249834433817
 20
-6.245196056243121
 10
59.36905289705703
 20
-6.246859420893655
 10
59.3652544284605
 20
-6.248674316372215
 10
59.36179550188239
 20
-6.250309465972697
 10
59.35812298491271
 20
-6.252027002324787
 10
59.35465046925708
 20
-6.253633090857539
 10
59.35111023805768
 20
-6.255252244266393
 10
59.34762400917384
 20
-6.256828344281423
 10
59.34421870748463
 20
-6.258349923598196
 10
59.34071861928156
 20
-6.259895000614
 10
59.33745307237267
 20
-6.261318938664665
 10
59.33393896100035
 20
-6.262831849265693
 10
59.33081740426462
 20
-6.264158492061603
 10
59.32728908659147
 20
-6.265637967590243
 10
59.32431387861345
 20
-6.266868589500012
 10
59.320771148199
 20
-6.26831321058563
 10
59.317947266752
 20
-6.269448139026286
 10
59.31350102949999
 20
-6.271204360600003
 10
59.30993309758253
 20
-6.272585563540934
 10
59.30563258506959
 20
-6.27421576137511
 10
59.30149436159997
 20
-6.275747239000003
 10
59.29789627240575
 20
-6.277047853062986
 10
59.29391077828825
 20
-6.278453314589576
 10
59.29009052369997
 20
-6.279764125099981
 10
59.28646117684639
 20
-6.280974768694711
 10
59.28279846860561
 20
-6.28216048233532
 10
59.27930901820002
 20
-6.283254572799997
 10
59.2756472386601
 20
-6.284363240686111
 10
59.27232170951379
 20
-6.285332970747795
 10
59.26917556809995
 20
-6.28621582380004
 10
59.26548026339651
 20
-6.287206997294454
 10
59.26250451896635
 20
-6.287966726940574
 10
59.25785039030921
 20
-6.289080214669759
 10
59.25337023633852
 20
-6.290057132613986
 10
59.24906620366447
 20
-6.290896884091701
 10
59.24494256202375
 20
-6.291598355531512
 10
59.24100093793459
 20
-6.292160783349977
 10
59.23724579316967
 20
-6.292582806707009
 10
59.23367946057829
 20
-6.29286317295601
 10
59.23030587401421
 20
-6.293000222052293
 10
59.22712900931742
 20
-6.292992075247865
 10
59.22328133189996
 20
-6.292758951599985
 10
59.21832927079993
 20
-6.291961096799987
 10
59.2142085795
 20
-6.290620550299997
 10
59.21093963829997
 20
-6.288738308399963
 10
59.20853967250002
 20
-6.286315758500002
 10
59.20702452529997
 20
-6.283354922200039
 10
59.20660330040004
 20
-6.281673479300031
  0
LWPOLYLINE
  5
59B43
330
1F
100
AcDbEntity
  8
1
100
AcDbPolyline
 90
       25
 70
     0
 43
0.0
 10
60.66680479669997
 20
-5.261032672099993
 10
60.62178812063564
 20
-5.303913101094507
 10
60.57640770815346
 20
-5.346408332093353
 10
60.53066617859997
 20
-5.388515861999969
 10
60.48456798452992
 20
-5.430231606059243
 10
60.43811651899204
 20
-5.471552518789514
 10
60.39131314759992
 20
-5.512477361200018
 10
60.34416363802859
 20
-5.553001077509178
 10
60.2966714478021
 20
-5.593120738849853
 10
60.24883705509996
 20
-5.632835917200003
 10
60.20066705228861
 20
-5.672141117110817
 10
60.15216498103495
 20
-5.711033497669865
 10
60.10333172629997
 20
-5.749512341399969
 10
60.05417271894248
 20
-5.787573343888659
 10
60.00469150616543
 20
-5.825213775195726
 10
59.95489139990002
 20
-5.862431124500012
 10
59.90477551634342
 20
-5.899223054428325
 10
59.85434702164535
 20
-5.935587215978621
 10
59.80361224399995
 20
-5.971519062900036
 10
59.75257223493041
 20
-6.007017866410193
 10
59.70123009387396
 20
-6.042081426600425
 10
59.6495934308
 20
-6.076704566800009
 10
59.59766268016721
 20
-6.110887022898288
 10
59.54544148800358
 20
-6.144626344740919
 10
59.49293644930003
 20
-6.177918316300014
  0
LWPOLYLINE
  5
59B44
330
1F
100
AcDbEntity
  8
1
100
AcDbPolyline
 90
       64
 70
     0
 43
0.0
 10
60.90725521609994
 20
-4.955931222900004
 10
60.90491684241793
 20
-4.961671220633782
 10
60.90261388002637
 20
-4.966857384257429
 10
60.89968505290006
 20
-4.973008588699946
 10
60.89725950569992
 20
-4.977827764599971
 10
60.89461262830003
 20
-4.982869624700014
 10
60.89174141659999
 20
-4.988133397100006
 10
60.88864251970004
 20
-4.993619014200028
 10
60.88531308389996
 20
-4.9993255229
 10
60.88175113819993
 20
-5.005250539599963
 10
60.87849637278657
 20
-5.010525547682796
 10
60.8751888661883
 20
-5.015767652108941
 10
60.87224068685509
 20
-5.020350771747422
 10
60.86884477225043
 20
-5.025536048418081
 10
60.86514671349994
 20
-5.031079419300006
 10
60.8616658456001
 20
-5.036208058164396
 10
60.8586437064407
 20
-5.040596531033428
 10
60.85542880039998
 20
-5.045204164900049
 10
60.85184991305435
 20
-5.050264894750973
 10
60.84841154407309
 20
-5.055063454929275
 10
60.84478317779996
 20
-5.060064134500016
 10
60.84111376185967
 20
-5.065059616180916
 10
60.83726790531398
 20
-5.07023260580491
 10
60.83323790409997
 20
-5.075588426299994
 10
60.8294840710954
 20
-5.080520789698717
 10
60.82524589734726
 20
-5.086027596327773
 10
60.82083605909996
 20
-5.091691269600011
 10
60.81700284487851
 20
-5.096562199086072
 10
60.81314693336128
 20
-5.101415181325029
 10
60.80926893386147
 20
-5.106250531542521
 10
60.80568655187573
 20
-5.110678304322511
 10
60.80176769330944
 20
-5.115480600115127
 10
60.79782825934159
 20
-5.120266032116497
 10
60.79371458969997
 20
-5.125219598300019
 10
60.78973454183278
 20
-5.129971305582792
 10
60.78573516365731
 20
-5.134706754874919
 10
60.78171680881735
 20
-5.139426111884289
 10
60.77711227076804
 20
-5.144787754702753
 10
60.77305436365668
 20
-5.149473146816497
 10
60.7695865107396
 20
-5.153448477877417
 10
60.76549542951322
 20
-5.158104932079488
 10
60.76193469168902
 20
-5.162129019022592
 10
60.75781099214292
 20
-5.166756611811486
 10
60.75416517477106
 20
-5.170819253110613
 10
60.75000935474986
 20
-5.175418021891354
 10
60.74628924301389
 20
-5.179506080344488
 10
60.74210175835753
 20
-5.184076035239519
 10
60.73832235264212
 20
-5.188172286393018
 10
60.73410363578375
 20
-5.192713425503491
 10
60.7302803347801
 20
-5.196800879546351
 10
60.72603079675571
 20
-5.201313189771106
 10
60.72217163721824
 20
-5.205383246479987
 10
60.71789164153767
 20
-5.209866677580983
 10
60.71400659116125
 20
-5.213908997742584
 10
60.70969646355752
 20
-5.218363469399101
 10
60.70579955411766
 20
-5.222363903123208
 10
60.70145959944056
 20
-5.22678931964367
 10
60.69756504252746
 20
-5.230734067874215
 10
60.69319554690037
 20
-5.235130319113075
 10
60.68931233496061
 20
-5.239011299483087
 10
60.68491354671767
 20
-5.243378241460738
 10
60.68105314392926
 20
-5.247185234123328
 10
60.67662529084963
 20
-5.251522701450433
 10
60.67280107068096
 20
-5.255243931414391
  0
LWPOLYLINE
  5
59B45
330
1F
100
AcDbEntity
  8
1
100
AcDbPolyline
 90
        7
 70
     0
 43
0.0
 10
61.04119748449996
 20
-4.592756107500007
 10
61.01963294901032
 20
-4.653562346872384
 10
60.99776270303492
 20
-4.714259360438751
 10
60.97558785235128
 20
-4.774845745471913
 10
60.95311045922938
 20
-4.835320519625162
 10
60.93033255477417
 20
-4.895682797107504
 10
60.90725521609994
 20
-4.955931222900004
  0
LWPOLYLINE
  5
59B46
330
1F
100
AcDbEntity
  8
1
100
AcDbPolyline
 90
        6
 70
     0
 43
0.0
 10
61.10854011510003
 20
-4.485906092299962
 10
61.09520332668921
 20
-4.507358829917285
 10
61.08180053183254
 20
-4.528770403204029
 10
61.06833186699202
 20
-4.550140600113998
 10
61.05479747181357
 20
-4.571469237805614
 10
61.04119748449996
 20
-4.592756107500007
  0
LWPOLYLINE
  5
59B47
330
1F
100
AcDbEntity
  8
1
100
AcDbPolyline
 90
        9
 70
     0
 43
0.0
 10
61.23896499110003
 20
-4.274658751199986
 10
61.22269929453103
 20
-4.301087746065383
 10
61.20642257342638
 20
-4.327509952930434
 10
61.19013490842212
 20
-4.353925414944804
 10
61.17383655585945
 20
-4.380334284092676
 10
61.15752770319125
 20
-4.406736670162337
 10
61.14120854258089
 20
-4.433132686152481
 10
61.12487932502403
 20
-4.459522482053792
 10
61.10854011510003
 20
-4.485906092299962
  0
LWPOLYLINE
  5
59B48
330
1F
100
AcDbEntity
  8
1
100
AcDbPolyline
 90
       25
 70
     0
 43
0.0
 10
62.12169904589996
 20
-4.227905269699994
 10
62.10129153487436
 20
-4.256395230536333
 10
62.08073751964878
 20
-4.284916088206904
 10
62.06007051029995
 20
-4.313420794799988
 10
62.03941915167785
 20
-4.341734507249846
 10
62.01857005576481
 20
-4.370150827725986
 10
61.99763237339992
 20
-4.398520671700004
 10
61.97674393251418
 20
-4.426659933016829
 10
61.95564447749639
 20
-4.454920300271233
 10
61.93446719559996
 20
-4.483122936799992
 10
61.91334799331992
 20
-4.511089422409674
 10
61.89203101072997
 20
-4.539159708557924
 10
61.87066244689993
 20
-4.5671411299
 10
61.84931833930239
 20
-4.594936347454797
 10
61.82783130074903
 20
-4.622764500664692
 10
61.80630799829994
 20
-4.65048788779996
 10
61.78474440073125
 20
-4.678113172028594
 10
61.76312050283399
 20
-4.705667129177128
 10
61.74148088879997
 20
-4.73309427799996
 10
61.71970275162346
 20
-4.760550749326178
 10
61.69798288960486
 20
-4.78778959508282
 10
61.67625948509999
 20
-4.814890753199967
 10
61.65427131237264
 20
-4.842179308035163
 10
61.63248914084545
 20
-4.869072278606275
 10
61.61073111609994
 20
-4.895797873300018
  0
LINE
  5
59B49
330
1F
100
AcDbEntity
  8
1
100
AcDbLine
 10
61.61073111609994
 20
-4.895797873199966
 30
0.0
 11
61.10854011510003
 21
-4.485906092299962
 31
0.0
  0
LINE
  5
59B4A
330
1F
100
AcDbEntity
  8
1
100
AcDbLine
 10
62.12169880639999
 20
-4.227905604200151
 30
0.0
 11
61.58421546249996
 21
-3.844082160200123
 31
0.0
  0
LINE
  5
59B4B
330
1F
100
AcDbEntity
  8
1
100
AcDbLine
 10
58.94319622049988
 20
-6.22751031660011
 30
0.0
 11
58.9108539427
 21
-6.044088144600102
 31
0.0
  0
LINE
  5
59B4C
330
1F
100
AcDbEntity
  8
1
100
AcDbLine
 10
59.20660330040015
 20
-6.281673479300144
 30
0.0
 11
59.14208115510018
 21
-5.915750209799973
 31
0.0
  0
LINE
  5
59B4D
330
1F
100
AcDbEntity
  8
1
100
AcDbLine
 10
59.45041300610012
 20
-5.936755885899978
 30
0.0
 11
59.41740539270006
 21
-5.749560408300006
 31
0.0
  0
LINE
  5
59B4E
330
1F
100
AcDbEntity
  8
1
100
AcDbLine
 10
59.49293644930003
 20
-6.177918316300014
 30
0.0
 11
59.45041300610012
 21
-5.936755885899978
 31
0.0
  0
LINE
  5
59B4F
330
1F
100
AcDbEntity
  8
1
100
AcDbLine
 10
60.66680479669992
 20
-5.261032672099993
 30
0.0
 11
60.63045909269987
 21
-5.05490594150013
 31
0.0
  0
LINE
  5
59B50
330
1F
100
AcDbEntity
  8
1
100
AcDbLine
 10
60.66358194399993
 20
-4.754700150999958
 30
0.0
 11
60.70119756450004
 21
-4.968028936000003
 31
0.0
  0
LINE
  5
59B51
330
1F
100
AcDbEntity
  8
1
100
AcDbLine
 10
60.90725521610011
 20
-4.955931222899898
 30
0.0
 11
60.83973392680002
 21
-4.572998962499929
 31
0.0
  0
LINE
  5
59B52
330
1F
100
AcDbEntity
  8
1
100
AcDbLine
 10
61.04119748449996
 20
-4.592756107500007
 30
0.0
 11
61.00569288169992
 21
-4.391399498900007
 31
0.0
  0
LINE
  5
59B53
330
1F
100
AcDbEntity
  8
1
100
AcDbLine
 10
61.23896499110003
 20
-4.274658751199986
 30
0.0
 11
61.21566421459998
 21
-4.142513481300007
 31
0.0
  0
LINE
  5
59B54
330
1F
100
AcDbEntity
  8
1
100
AcDbLine
 10
1.856215682572581
 20
8.818789651222289
 30
0.0
 11
31.74927754355213
 21
8.036012277867937
 31
0.0
  0
LINE
  5
59B55
330
1F
100
AcDbEntity
  8
1
100
AcDbLine
 10
1.856215269761064
 20
-8.818789662032143
 30
0.0
 11
31.74927754355224
 21
-8.036012277867826
 31
0.0
  0
LWPOLYLINE
  5
59B56
330
1F
100
AcDbEntity
  8
1
100
AcDbPolyline
 90
       31
 70
     0
 43
0.0
 10
40.78716827179993
 20
7.108184448499969
 42
-1.359808032035594
 10
40.79386730396118
 20
7.146939810057459
 42
-0.0323823921596863
 10
40.86301366657472
 20
7.159927415939478
 42
-0.0099834230458339
 10
40.93293565255902
 20
7.167508840018513
 42
-0.0056937869596632
 10
41.00311019977811
 20
7.172963438251372
 10
41.07335262605943
 20
7.17715500581488
 10
41.14364555344979
 20
7.180521156527376
 10
41.21396461189192
 20
7.1832855824275
 10
41.2842991916325
 20
7.185592850954377
 10
41.3546451715665
 20
7.187540168117378
 10
41.42499860100611
 20
7.18919661557112
 10
41.49535719810262
 20
7.190613236546028
 10
41.56571958796347
 20
7.19182924753555
 10
41.6360847129432
 20
7.192875962192715
 10
41.70645183836348
 20
7.193777856886298
 10
41.77682044501704
 20
7.194555662746778
 10
41.84719016422275
 20
7.195225999628007
 10
41.91756070689865
 20
7.195803367910682
 10
41.98793187187789
 20
7.196299398296559
 10
42.05830349913338
 20
7.19672479729911
 10
42.12867547591748
 20
7.197087967853917
 10
42.20002122600067
 20
7.197400672292175
 10
42.27039365988003
 20
7.19766090379197
 10
42.34076623964972
 20
7.197878327841394
 10
42.41113892559837
 20
7.198057858204093
 10
42.4815116882671
 20
7.198203578866525
 10
42.55188450828165
 20
7.198319008678707
 10
42.62225736981474
 20
7.198407570164192
 10
42.69263026047565
 20
7.19847055845416
 10
42.76300316872232
 20
7.198507047572661
 10
42.83281288989996
 20
7.19851604759998
  0
ARC
  5
59B57
330
1F
100
AcDbEntity
  8
1
100
AcDbCircle
 10
33.49507939909995
 20
-9.348590444299986
 30
0.0
 40
18.0
100
AcDbArc
 50
43.66962317140108
 51
66.10160046080122
  0
LINE
  5
59B58
330
1F
100
AcDbEntity
  8
1
100
AcDbLine
 10
38.0999999999998
 20
-7.199999999999986
 30
0.0
 11
49.70032989935424
 21
-7.199999999999994
 31
0.0
  0
LINE
  5
59B59
330
1F
100
AcDbEntity
  8
1
100
AcDbLine
 10
49.70032989935424
 20
-7.199999999999994
 30
0.0
 11
49.7176859443
 21
-7.199999999999994
 31
0.0
  0
LINE
  5
59B5A
330
1F
100
AcDbEntity
  8
1
100
AcDbLine
 10
38.10000000000025
 20
7.200000000000045
 30
0.0
 11
47.00514012681877
 21
7.200000000000045
 31
0.0
  0
CIRCLE
  5
59B5B
330
1F
100
AcDbEntity
  8
1
100
AcDbCircle
 10
55.49507939909995
 20
3.716379987700001
 30
0.0
 40
2.242200692599999
  0
CIRCLE
  5
59B5C
330
1F
100
AcDbEntity
  8
1
100
AcDbCircle
 10
55.49507939909995
 20
3.716379987700001
 30
0.0
 40
2.0
  0
CIRCLE
  5
59B5D
330
1F
100
AcDbEntity
  8
1
100
AcDbCircle
 10
55.49507939909995
 20
3.716379987700001
 30
0.0
 40
1.55
  0
ARC
  5
59B5E
330
1F
100
AcDbEntity
  8
1
100
AcDbCircle
 10
49.44788735904251
 20
2.616379987700035
 30
0.0
 40
1.25
100
AcDbArc
 50
147.3575384089005
 51
295.4112861544997
  0
LINE
  5
59B5F
330
1F
100
AcDbEntity
  8
1
100
AcDbLine
 10
42.83281288989996
 20
7.19851604759998
 30
0.0
 11
47.00528626532769
 21
7.19851604759998
 31
0.0
  0
LWPOLYLINE
  5
59B60
330
1F
100
AcDbEntity
  8
1
100
AcDbPolyline
 90
        3
 70
     0
 43
0.0
 10
47.00528626524248
 20
7.19851604759998
 10
47.01809358929245
 20
7.199251034999973
 10
47.03090091334252
 20
7.199986022400024
  0
LWPOLYLINE
  5
59B61
330
1F
100
AcDbEntity
  8
1
100
AcDbPolyline
 90
        6
 70
     0
 43
0.0
 10
47.03090091334252
 20
7.199986022400024
 42
-0.0310246958228619
 10
47.06149142323835
 20
7.197973653424184
 42
-0.0310581231288158
 10
47.09154218942273
 20
7.192086567481055
 42
-0.0254247854948358
 10
47.12077530629493
 20
7.182842287414017
 42
-0.023153764396937
 10
47.14903638918586
 20
7.17085216929432
 42
-0.0245654934498611
 10
47.17600734254244
 20
7.156236037499965
  0
ARC
  5
59B62
330
1F
100
AcDbEntity
  8
1
100
AcDbCircle
 10
47.63378376984245
 20
7.734468322840712
 30
0.0
 40
0.2
100
AcDbArc
 50
92.51717435869151
 51
135.9955430425046
  0
ARC
  5
59B63
330
1F
100
AcDbEntity
  8
1
100
AcDbCircle
 10
55.31779328354253
 20
8.017874617400025
 30
0.0
 40
8.352791233699999
100
AcDbArc
 50
185.6294241392007
 51
206.7528421022001
  0
ARC
  5
59B64
330
1F
100
AcDbEntity
  8
1
100
AcDbCircle
 10
47.63378376984245
 20
7.734468322840712
 30
0.0
 40
0.2
100
AcDbArc
 50
92.51717435869151
 51
135.9955430425046
  0
LWPOLYLINE
  5
59B65
330
1F
100
AcDbEntity
  8
1
100
AcDbPolyline
 90
       36
 70
     0
 43
0.0
 10
44.3125230296
 20
-0.0000000000000071
 42
0.0428820451709703
 10
44.34533857959706
 20
-0.3788970563307501
 42
0.0398060402811018
 10
44.44046620375963
 20
-0.7471915048466899
 42
0.034831342010192
 10
44.58944681740746
 20
-1.097285075897339
 42
0.0294133264702019
 10
44.78207180143647
 20
-1.425498008741675
 42
0.0244945125237203
 10
45.00887060526661
 20
-1.731179892367321
 42
0.0203831515867789
 10
45.26212610264996
 20
-2.015391479087618
 42
0.0170659435678936
 10
45.53593067441021
 20
-2.279913255062644
 42
0.0144668211997308
 10
45.82586015295499
 20
-2.526690676659319
 42
0.0124135397593226
 10
46.12860510462735
 20
-2.757586232178716
 42
0.0107373811593643
 10
46.44168743052011
 20
-2.974276098249339
 42
0.0093741557428611
 10
46.76322834076723
 20
-3.178216749923997
 42
0.0083049296871805
 10
47.09177629439351
 20
-3.370674710010241
 42
0.007403454005521
 10
47.42619518144056
 20
-3.552747378942405
 42
0.0066349745266765
 10
47.76559389227212
 20
-3.725366483176408
 42
0.0060226936466892
 10
48.10925160313172
 20
-3.889346483584694
 42
0.0054750467166739
 10
48.45658436834174
 20
-4.045395294309976
 42
0.0050209219559031
 10
48.80711727669427
 20
-4.194120092142276
 42
0.0046254073768258
 10
49.16044994303945
 20
-4.336066940951474
 42
0.0042760425156354
 10
49.51625453827522
 20
-4.471702048550419
 42
0.0039804653070319
 10
49.8742477278979
 20
-4.601450757587834
 42
0.0037086126878052
 10
50.23419471142062
 20
-4.725679748908993
 42
0.0034788768196953
 10
50.59588849839838
 20
-4.844726824507127
 42
0.0032647318085193
 10
50.9591556608991
 20
-4.958885363575696
 42
0.0030812241381106
 10
51.32384099452725
 20
-5.068428802548516
 42
0.0029115063193551
 10
51.6897158439
 20
-5.173565693699969
 42
0.0027588524647908
 10
52.05685630386813
 20
-5.274577258721484
 42
0.0026206855260647
 10
52.4250626225811
 20
-5.371633086740309
 42
0.0024910790377169
 10
52.79424178414672
 20
-5.464922621736157
 42
0.0023905197810103
 10
53.16431425295888
 20
-5.554603717193919
 42
0.002290604849398
 10
53.53520970718477
 20
-5.640816060236892
 42
0.0021758953239552
 10
53.90685938975867
 20
-5.723709774385219
 42
0.0020563490476231
 10
54.2791984603134
 20
-5.803454973398409
 42
0.0019720801562811
 10
54.65216865828813
 20
-5.880210819385474
 42
0.0020059878198425
 10
55.02573835855059
 20
-5.95399800618071
 42
0.0020432400292772
 10
55.39999999999999
 20
-6.024777660899984
  0
ARC
  5
59B66
330
1F
100
AcDbEntity
  8
1
100
AcDbCircle
 10
55.19507939909994
 20
11.36637998769997
 30
0.0
 40
12.0
100
AcDbArc
 50
223.6696231713984
 51
270.0
  0
LINE
  5
59B67
330
1F
100
AcDbEntity
  8
sk3
100
AcDbLine
 10
46.00000000000004
 20
0.6733621713412889
 30
0.0
 11
52.22686290770003
 21
-1.70966419200011
 31
0.0
  0
LINE
  5
59B68
330
1F
100
AcDbEntity
  8
1
100
AcDbLine
 10
50.03340339700002
 20
-7.613458196000131
 30
0.0
 11
52.51868589290006
 21
-7.722714364200107
 31
0.0
  0
LINE
  5
59B69
330
1F
100
AcDbEntity
  8
1
100
AcDbLine
 10
50.30006305359996
 20
-7.062253327500008
 30
0.0
 11
52.08394031319993
 21
-7.062253327500008
 31
0.0
  0
LINE
  5
59B6A
330
1F
100
AcDbEntity
  8
1
100
AcDbLine
 10
49.99356421039998
 20
-6.918092131899988
 30
0.0
 11
52.71854810259992
 21
-6.918092131899988
 31
0.0
  0
LINE
  5
59B6B
330
1F
100
AcDbEntity
  8
1
100
AcDbLine
 10
55.76120481680003
 20
-0.6336200122999644
 30
0.0
 11
55.76120498210014
 21
-2.983841751300026
 31
0.0
  0
LINE
  5
59B6C
330
1F
100
AcDbEntity
  8
1
100
AcDbLine
 10
55.19507939909994
 20
-0.3814784814000021
 30
0.0
 11
55.19507939909994
 21
-0.6336200122999644
 31
0.0
  0
ARC
  5
59B6D
330
1F
100
AcDbEntity
  8
1
100
AcDbCircle
 10
52.37592207264242
 20
1.116379987700034
 30
0.0
 40
1.05
100
AcDbArc
 50
220.5408613837004
 51
273.4390519219009
  0
LINE
  5
59B6E
330
1F
100
AcDbEntity
  8
1
100
AcDbLine
 10
55.61249999999995
 20
-7.742584409499953
 30
0.0
 11
53.42673334099993
 21
-7.742584409499953
 31
0.0
  0
LINE
  5
59B6F
330
1F
100
AcDbEntity
  8
1
100
AcDbLine
 10
54.72404950409998
 20
-7.062253327499894
 30
0.0
 11
54.4787614743999
 21
-7.110848404799759
 31
0.0
  0
LINE
  5
59B70
330
1F
100
AcDbEntity
  8
1
100
AcDbLine
 10
54.44477334279998
 20
-6.918092131899988
 30
0.0
 11
55.39999999999999
 21
-6.918092131899988
 31
0.0
  0
LWPOLYLINE
  5
59B71
330
1F
100
AcDbEntity
  8
1
100
AcDbPolyline
 90
       18
 70
     0
 43
0.0
 10
54.80355107369996
 20
-4.475127102499987
 42
0.0106166293780967
 10
54.80539209943742
 20
-4.591399506117006
 42
0.010002936188087
 10
54.81202484005951
 20
-4.707514592999308
 42
0.0109991364397963
 10
54.82343911250461
 20
-4.823262372912616
 42
0.0129371081364793
 10
54.84037724109964
 20
-4.938317722566985
 42
0.0146597959111778
 10
54.86364306513316
 20
-5.052260060664146
 42
0.0163670783761288
 10
54.89392674888915
 20
-5.16453989250261
 42
0.0183425129756354
 10
54.93191664346954
 20
-5.274446506547866
 42
0.0203500555854068
 10
54.97829272270735
 20
-5.381078464281933
 42
0.0222211904534459
 10
55.03356037504966
 20
-5.483376607253268
 42
0.0237044653675155
 10
55.09799426850634
 20
-5.580160564890327
 42
0.0249078016823739
 10
55.17152762051104
 20
-5.670219422720101
 42
0.0253425816989259
 10
55.25372086148276
 20
-5.752448283279028
 42
0.0251248015687828
 10
55.34380126663802
 20
-5.825952687361798
 42
0.0244967359046047
 10
55.44073506034361
 20
-5.890159408165352
 42
0.0234808787895693
 10
55.54337207295043
 20
-5.944778802176138
 42
0.021805604215203
 10
55.65054180569996
 20
-5.989896700232923
 42
0.0216422818850796
 10
55.76120504219995
 20
-6.025599325000037
  0
LWPOLYLINE
  5
59B72
330
1F
100
AcDbEntity
  8
1
100
AcDbPolyline
 90
       19
 70
     0
 43
0.0
 10
56.57121767589996
 20
-5.988443172499954
 42
0.0250270038977378
 10
56.71348833958018
 20
-5.929717649380457
 42
0.0247912030578618
 10
56.84918077620364
 20
-5.857050654719954
 42
0.0239409321239446
 10
56.97717180310462
 20
-5.771540271296493
 42
0.0232320689693579
 10
57.09653459177843
 20
-5.67434285356024
 42
0.0223864324627098
 10
57.20654589367574
 20
-5.566670625817443
 42
0.0214561469787567
 10
57.30670930097097
 20
-5.449776619830011
 42
0.0203896857262658
 10
57.39675698182225
 20
-5.324916708027565
 42
0.01921542975195
 10
57.47663984863982
 20
-5.193316445994134
 42
0.0180135013893558
 10
57.54651075323841
 20
-5.056134309975617
 42
0.0167489066002217
 10
57.60668960189059
 20
-4.914424565971791
 42
0.0154696486417139
 10
57.65761445612236
 20
-4.76913378342892
 42
0.0141923018124104
 10
57.69984219067328
 20
-4.621068524920822
 42
0.0130669247974706
 10
57.7339458443904
 20
-4.470919527243957
 42
0.0120036628847613
 10
57.76048291343268
 20
-4.319249575187206
 42
0.0107326134737656
 10
57.78008407819236
 20
-4.16653816389283
 42
0.0093739618619792
 10
57.7935322323047
 20
-4.013147754996288
 42
0.00907307288446
 10
57.80140156227719
 20
-3.859348485607603
 42
0.0095106208078425
 10
57.80355107369996
 20
-3.705377145099994
  0
LWPOLYLINE
  5
59B73
330
1F
100
AcDbEntity
  8
1
100
AcDbPolyline
 90
        4
 70
     0
 43
0.0
 10
55.76120504219995
 20
-6.025599325000037
 10
55.80005104581506
 20
-6.035703014468829
 10
55.83913128837753
 20
-6.044514096900122
 10
55.87863499209993
 20
-6.052071136499995
  0
LWPOLYLINE
  5
59B74
330
1F
100
AcDbEntity
  8
1
100
AcDbPolyline
 90
        6
 70
     0
 43
0.0
 10
55.76120504219995
 20
-6.055085984099945
 42
-0.0099684455624617
 10
55.68859880628576
 20
-6.054810258278742
 42
-0.0099965283718263
 10
55.61605706256443
 20
-6.051636632596688
 42
-0.0099991205621488
 10
55.54370145269468
 20
-6.045565030136977
 42
-0.0099922674861226
 10
55.47164237136211
 20
-6.036605074081485
 42
-0.0099649787152585
 10
55.39999999999999
 20
-6.024777660899984
  0
LWPOLYLINE
  5
59B75
330
1F
100
AcDbEntity
  8
1
100
AcDbPolyline
 90
        4
 70
     0
 43
0.0
 10
55.87863499209993
 20
-6.052071136499995
 10
55.83949837931863
 20
-6.053324848273183
 10
55.80034253354564
 20
-6.054330081311269
 10
55.76120504219995
 20
-6.055085984099945
  0
LWPOLYLINE
  5
59B76
330
1F
100
AcDbEntity
  8
1
100
AcDbPolyline
 90
        9
 70
     0
 43
0.0
 10
56.57121767589996
 20
-5.988443172499954
 42
-0.0120305630016308
 10
56.48674871267189
 20
-6.011302089701536
 42
-0.0120348503277183
 10
56.4012686489026
 20
-6.030074070622397
 42
-0.0121593857826476
 10
56.31498206953586
 20
-6.044691711185804
 42
-0.0123249195091879
 10
56.22808510610093
 20
-6.055068508059327
 42
-0.0125124758160414
 10
56.14078000213556
 20
-6.061118648991972
 42
-0.0129285020171823
 10
56.05328177942443
 20
-6.062730211926812
 42
-0.0134044208752952
 10
55.96581610347243
 20
-6.059725953159507
 42
-0.0132003336968091
 10
55.87863499209993
 20
-6.052071136499995
  0
CIRCLE
  5
59B77
330
1F
100
AcDbEntity
  8
1
100
AcDbCircle
 10
56.44970658340003
 20
-4.467584409499982
 30
0.0
 40
0.75
  0
ARC
  5
59B78
330
1F
100
AcDbEntity
  8
1
100
AcDbCircle
 10
56.30355107369997
 20
-4.433841751300015
 30
0.0
 40
1.25
100
AcDbArc
 50
270.0
 51
260.3785311561009
  0
ARC
  5
59B79
330
1F
100
AcDbEntity
  8
1
100
AcDbCircle
 10
56.44970658340003
 20
-4.467584409499982
 30
0.0
 40
1.25
100
AcDbArc
 50
80.44742349400072
 51
270.2235231124991
  0
LINE
  5
59B7A
330
1F
100
AcDbEntity
  8
1
100
AcDbLine
 10
54.72404950409998
 20
-7.062253327500008
 30
0.0
 11
55.61249999999995
 21
-7.062253327500008
 31
0.0
  0
LINE
  5
59B7B
330
1F
100
AcDbEntity
  8
1
100
AcDbLine
 10
57.80355107369996
 20
-2.983841751300026
 30
0.0
 11
54.80355107369996
 21
-2.983841751300026
 31
0.0
  0
LINE
  5
59B7C
330
1F
100
AcDbEntity
  8
1
100
AcDbLine
 10
54.72404950409998
 20
-7.062253327500008
 30
0.0
 11
54.69862999579993
 21
-6.918092131899988
 31
0.0
  0
LINE
  5
59B7D
330
1F
100
AcDbEntity
  8
1
100
AcDbLine
 10
54.80355107369996
 20
-4.475127102499987
 30
0.0
 11
54.80355107369996
 21
-2.983841751300026
 31
0.0
  0
LINE
  5
59B7E
330
1F
100
AcDbEntity
  8
1
100
AcDbLine
 10
55.39999999999999
 20
-6.024777660899984
 30
0.0
 11
55.39999999999999
 21
-6.918092131899988
 31
0.0
  0
LINE
  5
59B7F
330
1F
100
AcDbEntity
  8
1
100
AcDbLine
 10
55.61249999999995
 20
-7.742584409499953
 30
0.0
 11
55.61249999999995
 21
-7.062253327500008
 31
0.0
  0
LINE
  5
59B80
330
1F
100
AcDbEntity
  8
1
100
AcDbLine
 10
55.76120504219995
 20
-6.025599325000037
 30
0.0
 11
55.76120504219995
 21
-6.055085984099945
 31
0.0
  0
LINE
  5
59B81
330
1F
100
AcDbEntity
  8
1
100
AcDbLine
 10
57.80355107369996
 20
-3.705377145099994
 30
0.0
 11
57.80355107369996
 21
-2.983841751300026
 31
0.0
  0
LWPOLYLINE
  5
59B82
330
1F
100
AcDbEntity
  8
1
100
AcDbPolyline
 90
        3
 70
     0
 43
0.0
 10
54.47010843090004
 20
-7.109710339599992
 10
54.47421684824997
 20
-7.109042440749996
 10
54.47540529517619
 20
-7.108849236830401
  0
LWPOLYLINE
  5
59B83
330
1F
100
AcDbEntity
  8
1
100
AcDbPolyline
 90
        2
 70
     0
 43
0.0
 10
54.47540529517619
 20
-7.108849236830401
 10
54.4783252656
 20
-7.108374541899941
  0
LWPOLYLINE
  5
59B84
330
1F
100
AcDbEntity
  8
1
100
AcDbPolyline
 90
        4
 70
     0
 43
0.0
 10
54.42894226829992
 20
-7.116248171099988
 10
54.44266873819049
 20
-7.114096773447392
 10
54.45639081220747
 20
-7.111917493177436
 10
54.47010843090004
 20
-7.109710339599992
  0
LWPOLYLINE
  5
59B85
330
1F
100
AcDbEntity
  8
1
100
AcDbPolyline
 90
        4
 70
     0
 43
0.0
 10
52.74913226619992
 20
-7.091543542699987
 10
52.80130110929656
 20
-7.100121225443565
 10
52.85357364967683
 20
-7.108363693916324
 10
52.90580235049993
 20
-7.116248171099981
  0
LWPOLYLINE
  5
59B86
330
1F
100
AcDbEntity
  8
1
100
AcDbPolyline
 90
       67
 70
     0
 43
0.0
 10
52.87115423449995
 20
-7.29550969849999
 10
52.86649905921843
 20
-7.295502890089331
 10
52.86223280239994
 20
-7.295484710099977
 10
52.85757773507486
 20
-7.295451844343459
 10
52.85329914840001
 20
-7.295409642699956
 10
52.84864433936697
 20
-7.295350675247513
 10
52.8443609364
 20
-7.295284374599994
 10
52.83970653250458
 20
-7.295199224261408
 10
52.835425922
 20
-7.295108827899987
 10
52.83077207387815
 20
-7.294997368811613
 10
52.82650193869995
 20
-7.294882970199985
 10
52.82184880012653
 20
-7.29474503272923
 10
52.81759689809995
 20
-7.294606815799973
 10
52.81294462750611
 20
-7.29444218516449
 10
52.8087187809
 20
-7.294280427599978
 10
52.80406754241153
 20
-7.294088842133823
 10
52.79987562140002
 20
-7.293903917499967
 10
52.79522558607812
 20
-7.293685067314753
 10
52.79107550489992
 20
-7.293477448799997
 10
52.7864268520791
 20
-7.293230973315651
 10
52.78232655629995
 20
-7.293001236599997
 10
52.77767947504049
 20
-7.292726722179969
 10
52.77363692319999
 20
-7.292475549000022
 10
52.76899161389714
 20
-7.292172526033033
 10
52.76501477099998
 20
-7.291900708299984
 10
52.76037144717968
 20
-7.29156864774081
 10
52.75646826870001
 20
-7.291277091600028
 10
52.75182715904714
 20
-7.290915400871084
 10
52.74800557279997
 20
-7.290605131100001
 10
52.74336692339228
 20
-7.290213150070718
 10
52.7396348182
 20
-7.289885315600037
 10
52.73499889513242
 20
-7.289462310915105
 10
52.73036462051561
 20
-7.289021615127133
 10
52.72573210085703
 20
-7.288562839682986
 10
52.72088643616222
 20
-7.288062939889421
 10
52.71625787484135
 20
-7.287565818092621
 10
52.71163144538036
 20
-7.287049234069407
 10
52.70723231939996
 20
-7.286539247400021
 10
52.7026104758844
 20
-7.285983129388462
 10
52.6971324666557
 20
-7.285296129033731
 10
52.69179015559995
 20
-7.284595929300002
 10
52.68717773438095
 20
-7.283966432443213
 10
52.68198193223804
 20
-7.283228452089423
 10
52.67693603539999
 20
-7.282481223600028
 10
52.67233512870824
 20
-7.281772463710132
 10
52.66745030441462
 20
-7.280989965355621
 10
52.66272879139997
 20
-7.280202811700013
 10
52.65814203739967
 20
-7.279407606181627
 10
52.65359543966747
 20
-7.27858806981539
 10
52.64922458119997
 20
-7.27776919489998
 10
52.6446553684949
 20
-7.276878728344633
 10
52.64047241477124
 20
-7.276030781500827
 10
52.63647645479999
 20
-7.275189643899985
 10
52.63192922272775
 20
-7.274193014076111
 10
52.62813316445839
 20
-7.273326611654858
 10
52.62453395479997
 20
-7.272474138000005
 10
52.62001464590094
 20
-7.271357731040778
 10
52.6155085638576
 20
-7.270189098424687
 10
52.61119897208322
 20
-7.269014356327382
 10
52.60599636400389
 20
-7.267513160414643
 10
52.60102340151195
 20
-7.265981922225427
 10
52.59628490061141
 20
-7.264421712909778
 10
52.59178547358509
 20
-7.262833558887684
 10
52.58752954328896
 20
-7.261218437013218
 10
52.58352139449721
 20
-7.259577224425988
 10
52.57976515160543
 20
-7.257910803849653
 10
52.57626507998907
 20
-7.256219630037898
  0
LWPOLYLINE
  5
59B87
330
1F
100
AcDbEntity
  8
1
100
AcDbPolyline
 90
       82
 70
     0
 43
0.0
 10
54.50103989489992
 20
-7.237195605699987
 10
54.50111584630001
 20
-7.240636438300048
 10
54.50013377979995
 20
-7.244056777200007
 10
54.49810493129996
 20
-7.247444969000021
 10
54.49504386280001
 20
-7.25078972699999
 10
54.49096818229997
 20
-7.254080154900016
 10
54.48692389189705
 20
-7.256706210469879
 10
54.48422424720911
 20
-7.258239013036706
 10
54.48128915613892
 20
-7.259759857810657
 10
54.47812016626254
 20
-7.261266799619143
 10
54.47471930911331
 20
-7.262757950779594
 10
54.4710890138857
 20
-7.264231506227594
 10
54.46723203789553
 20
-7.265685753015539
 10
54.46315141196158
 20
-7.267119070239409
 10
54.45885039929986
 20
-7.268529924338799
 10
54.45433246622929
 20
-7.269916861536223
 10
54.45144583529998
 20
-7.270757901500026
 10
54.44775346649158
 20
-7.271787597853807
 10
54.44466056549618
 20
-7.272613530867949
 10
54.44137416470005
 20
-7.273457488699988
 10
54.4376522161183
 20
-7.274374564038743
 10
54.43416665665722
 20
-7.275198793693396
 10
54.43049334609998
 20
-7.276033768300017
 10
54.42674838964332
 20
-7.276851857064633
 10
54.42288382074104
 20
-7.277663236225812
 10
54.41883833520001
 20
-7.27847912749997
 10
54.41507522240056
 20
-7.279209178751904
 10
54.41084701486545
 20
-7.279998164567992
 10
54.40644560049997
 20
-7.280786284599976
 10
54.40266798689401
 20
-7.281437164111147
 10
54.39809293095618
 20
-7.282195492093941
 10
54.39335311479999
 20
-7.282948279399994
 10
54.3895638075145
 20
-7.283527217728995
 10
54.3865567478
 20
-7.283972751700054
 10
54.38276244788561
 20
-7.284518014402473
 10
54.37960037569997
 20
-7.28495846549999
 10
54.37580156925105
 20
-7.285471394453516
 10
54.37248918009992
 20
-7.285904638499977
 10
54.36868630162144
 20
-7.286386452352139
 10
54.36522844349997
 20
-7.286810508300058
 10
54.36142188297139
 20
-7.287262314206379
 10
54.35782355169999
 20
-7.287675332099985
 10
54.35401366059624
 20
-7.288098136289312
 10
54.35027999679993
 20
-7.288498387199985
 10
54.34646709318371
 20
-7.288893103919129
 10
54.34260337589996
 20
-7.2892789714
 10
54.33878774881702
 20
-7.289646431146478
 10
54.33479939659997
 20
-7.290016403600018
 10
54.33098130982511
 20
-7.290357360054492
 10
54.32687387930002
 20
-7.290710023999969
 10
54.32305357456614
 20
-7.291025160022178
 10
54.31883275799997
 20
-7.291359194799958
 10
54.31501045784273
 20
-7.291649128211709
 10
54.31068208059992
 20
-7.291963301699986
 10
54.30685799079049
 20
-7.292228589807797
 10
54.30242801409996
 20
-7.292521753900024
 10
54.29860232579868
 20
-7.292762897721907
 10
54.29407684670002
 20
-7.293033985299992
 10
54.29024973835272
 20
-7.293251433216878
 10
54.28563498380004
 20
-7.293499455799981
 10
54.28180662282239
 20
-7.293693606826542
 10
54.27710895319996
 20
-7.293917652300031
 10
54.27327949747246
 20
-7.294088858753865
 10
54.26850540569994
 20
-7.294288089699988
 10
54.26467500491913
 20
-7.294436659716217
 10
54.26084423180896
 20
-7.294575298810919
 10
54.257915555154
 20
-7.294674635855137
 10
54.25408419423003
 20
-7.294795949278189
 10
54.25109297739993
 20
-7.294883895699974
 10
54.24726110886251
 20
-7.294987950252113
 10
54.2434289915344
 20
-7.295082399977679
 10
54.24038182941973
 20
-7.295150683205753
 10
54.23654932884279
 20
-7.295228032761322
 10
54.23345333659995
 20
-7.295283608100026
 10
54.22962052944052
 20
-7.295343895395838
 10
54.22578758621455
 20
-7.295394800118748
 10
54.22264969409947
 20
-7.295429512787117
 10
54.2188165637027
 20
-7.295463443065222
 10
54.21564403959997
 20
-7.295484501200013
 10
54.21181079410366
 20
-7.295501479725777
 10
54.20797751925546
 20
-7.295509190017013
 10
54.20669425919993
 20
-7.29550969849999
  0
LWPOLYLINE
  5
59B88
330
1F
100
AcDbEntity
  8
1
100
AcDbPolyline
 90
       24
 70
     0
 43
0.0
 10
52.51868589289995
 20
-7.722714364199993
 10
52.55814239022686
 20
-7.724410082462219
 10
52.59760212807019
 20
-7.726028772441394
 10
52.63706494410747
 20
-7.727570577452019
 10
52.67653067204286
 20
-7.729035943589686
 10
52.71599915372917
 20
-7.730425175065428
 10
52.75547023315505
 20
-7.731738529180127
 10
52.7949437563492
 20
-7.732976259890512
 10
52.83441957199181
 20
-7.73413858283471
 10
52.87389753074046
 20
-7.735225684373175
 10
52.91337748508851
 20
-7.736237723637599
 10
52.95285928916053
 20
-7.737174829601889
 10
52.99234279841107
 20
-7.738037104749087
 10
53.0318278694899
 20
-7.738824622584393
 10
53.07131435997177
 20
-7.739537428191177
 10
53.11080212814022
 20
-7.740175540522222
 10
53.15029103284429
 20
-7.740738948880909
 10
53.18978093315092
 20
-7.741227615886947
 10
53.2292716881916
 20
-7.741641477041702
 10
53.26876315742367
 20
-7.741980433794089
 10
53.30825519918072
 20
-7.742244373858405
 10
53.34774767041688
 20
-7.742433150616988
 10
53.38665466760143
 20
-7.742545394600886
 10
53.42673334099993
 20
-7.742584409499953
  0
LINE
  5
59B89
330
1F
100
AcDbEntity
  8
1
100
AcDbLine
 10
54.20669425919993
 20
-7.29550969849999
 30
0.0
 11
52.87115423449995
 21
-7.29550969849999
 31
0.0
  0
LINE
  5
59B8A
330
1F
100
AcDbEntity
  8
1
100
AcDbLine
 10
52.90580235049993
 20
-7.116248171099981
 30
0.0
 11
54.42894226829992
 21
-7.116248171099988
 31
0.0
  0
LINE
  5
59B8B
330
1F
100
AcDbEntity
  8
1
100
AcDbLine
 10
52.34636558950001
 20
-7.110848404799759
 30
0.0
 11
52.08394031319993
 21
-7.062253327499724
 31
0.0
  0
LINE
  5
59B8C
330
1F
100
AcDbEntity
  8
1
100
AcDbLine
 10
52.56928511730007
 20
-7.252288403500195
 30
0.0
 11
52.34636558950011
 21
-7.110848404800101
 31
0.0
  0
LINE
  5
59B8D
330
1F
100
AcDbEntity
  8
1
100
AcDbLine
 10
52.08394031320007
 20
-7.062253327500008
 30
0.0
 11
52.05852080490013
 21
-6.918092131899988
 31
0.0
  0
LINE
  5
59B8E
330
1F
100
AcDbEntity
  8
1
100
AcDbLine
 10
52.31237745779992
 20
-6.918092131899988
 30
0.0
 11
52.34636558950001
 21
-7.110848404799987
 31
0.0
  0
LINE
  5
59B8F
330
1F
100
AcDbEntity
  8
1
100
AcDbLine
 10
52.51035729780017
 20
-6.918092131899932
 30
0.0
 11
52.56928511730017
 21
-7.252288403499959
 31
0.0
  0
LINE
  5
59B90
330
1F
100
AcDbEntity
  8
1
100
AcDbLine
 10
52.71854810260014
 20
-6.918092131899932
 30
0.0
 11
52.74913226620014
 21
-7.091543542699987
 31
0.0
  0
LINE
  5
59B91
330
1F
100
AcDbEntity
  8
1
100
AcDbLine
 10
52.83771925500024
 20
-7.105890506899988
 30
0.0
 11
52.87115423450018
 21
-7.29550969849999
 31
0.0
  0
LINE
  5
59B92
330
1F
100
AcDbEntity
  8
1
100
AcDbLine
 10
54.17508561529995
 20
-7.116248171099981
 30
0.0
 11
54.20669425919993
 21
-7.29550969850016
 31
0.0
  0
LINE
  5
59B93
330
1F
100
AcDbEntity
  8
1
100
AcDbLine
 10
54.45660513060011
 20
-6.985193534700107
 30
0.0
 11
54.47832526567247
 21
-7.108374541888173
 31
0.0
  0
LINE
  5
59B94
330
1F
100
AcDbEntity
  8
1
100
AcDbLine
 10
54.47832526567247
 20
-7.108374541888173
 30
0.0
 11
54.50103989490004
 21
-7.237195605699987
 31
0.0
  0
LINE
  5
59B95
330
1F
100
AcDbEntity
  8
1
100
AcDbLine
 10
54.44477334279986
 20
-6.918092131899932
 30
0.0
 11
54.45660513059988
 21
-6.985193534699881
 31
0.0
  0
LINE
  5
59B96
330
1F
100
AcDbEntity
  8
sk3
100
AcDbLine
 10
46.0
 20
-1.46809529382267
 30
0.0
 11
49.83002881399989
 21
-2.933850967400196
 31
0.0
  0
LWPOLYLINE
  5
59B97
330
1F
100
AcDbEntity
  8
1
100
AcDbPolyline
 90
       18
 70
     0
 43
0.0
 10
46.54945373509996
 20
3.044531822900005
 42
0.007132947542698
 10
46.35599932829387
 20
2.91733135710114
 42
0.0068461978274309
 10
46.16615998172017
 20
2.784761868821185
 42
0.0068357032972316
 10
45.97997110937103
 20
2.647086756485848
 42
0.0077672556500978
 10
45.79788698226172
 20
2.504044338145596
 42
0.0087175768126323
 10
45.62062377131496
 20
2.355081395803714
 42
0.0096173018668009
 10
45.44894152249276
 20
2.199720472204083
 42
0.0105483360773561
 10
45.28365834753413
 20
2.037567257746665
 42
0.0117997511430538
 10
45.12577973425321
 20
1.868201954316184
 42
0.0131483236654269
 10
44.97654127795646
 20
1.691182834331803
 42
0.0147325398956559
 10
44.83740028684644
 20
1.506132074571034
 42
0.016464821566242
 10
44.71005558365663
 20
1.312780820004995
 42
0.0183789264702482
 10
44.59648392451753
 20
1.111044452464163
 42
0.0203970097900149
 10
44.49888019132299
 20
0.9011316619643068
 42
0.0223956254864379
 10
44.41958017631884
 20
0.6836563716476505
 42
0.0241472669879455
 10
44.36087027446484
 20
0.4597557035246993
 42
0.0256555605156846
 10
44.32473197840351
 20
0.2311398038741501
 42
0.0259794485913422
 10
44.3125230296
 20
-0.0000000000000071
  0
LINE
  5
59B98
330
1F
100
AcDbEntity
  8
sk3
100
AcDbLine
 10
45.95976040077311
 20
1.50000000000022
 30
0.0
 11
47.55727581289988
 21
2.111370669200248
 31
0.0
  0
LINE
  5
59B99
330
1F
100
AcDbEntity
  8
sk3
100
AcDbLine
 10
45.99999999999988
 20
-0.6260577322257248
 30
0.0
 11
49.59838480279973
 21
0.7510475578001703
 31
0.0
  0
LINE
  5
59B9A
330
1F
100
AcDbEntity
  8
sk3
100
AcDbLine
 10
46.0
 20
1.499999999999992
 30
0.0
 11
46.0
 21
-1.500000000000006
 31
0.0
  0
LWPOLYLINE
  5
59B9B
330
1F
100
AcDbEntity
  8
1
100
AcDbPolyline
 90
        6
 70
     0
 43
0.0
 10
49.71693059339997
 20
-7.199989718100034
 42
0.0366820044752526
 10
49.76057064288693
 20
-7.196303563384161
 42
0.0342168936488983
 10
49.80311682386946
 20
-7.186203861266114
 42
0.023104707571435
 10
49.84433965487061
 20
-7.171277438452995
 42
0.0215210180602313
 10
49.88417685673504
 20
-7.152860365482418
 42
0.0240890495150335
 10
49.92212767429997
 20
-7.130917671899973
  0
LWPOLYLINE
  5
59B9C
330
1F
100
AcDbEntity
  8
1
100
AcDbPolyline
 90
        4
 70
     0
 43
0.0
 10
50.34369430209999
 20
-6.918087540399993
 10
50.32873527408003
 20
-6.966016343678353
 10
50.31419113920652
 20
-7.014072891829194
 10
50.30006305359996
 20
-7.062253327500008
  0
LWPOLYLINE
  5
59B9D
330
1F
100
AcDbEntity
  8
1
100
AcDbPolyline
 90
        9
 70
     0
 43
0.0
 10
50.30006305359996
 20
-7.062253327500008
 10
50.26630834830267
 20
-7.087737346845423
 10
50.23262691161852
 20
-7.113318146742706
 10
50.19901884453043
 20
-7.138995260936787
 10
50.16548373670253
 20
-7.164767589360393
 10
50.13202135713186
 20
-7.190634276250769
 10
50.09863146366047
 20
-7.216594459499511
 10
50.06531363594342
 20
-7.242647087877918
 10
50.03206798409997
 20
-7.268791750600037
  0
LWPOLYLINE
  5
59B9E
330
1F
100
AcDbEntity
  8
1
100
AcDbPolyline
 90
        7
 70
     0
 43
0.0
 10
50.03206798409997
 20
-7.268791750600037
 10
49.97759251028321
 20
-7.267667495871941
 10
49.92311658918636
 20
-7.26656511361029
 10
49.86864023385861
 20
-7.265484403861818
 10
49.81416346350863
 20
-7.264424825727138
 10
49.7596862958344
 20
-7.263385862979824
 10
49.70520874199997
 20
-7.262367352199986
  0
ARC
  5
59B9F
330
1F
100
AcDbEntity
  8
1
100
AcDbCircle
 10
50.04218717889996
 20
-7.413651176099968
 30
0.0
 40
0.2
100
AcDbArc
 50
215.756125851908
 51
267.482825641504
  0
ARC
  5
59BA0
330
1F
100
AcDbEntity
  8
1
100
AcDbCircle
 10
49.89970658339996
 20
-7.215777764699971
 30
0.0
 40
0.2
100
AcDbArc
 50
175.475029115698
 51
215.7561258514985
  0
ARC
  5
59BA1
330
1F
100
AcDbEntity
  8
1
100
AcDbCircle
 10
57.59706691270004
 20
-9.588668414099977
 30
0.0
 40
8.0588604048
100
AcDbArc
 50
160.6472081992001
 51
162.2433417119002
  0
LINE
  5
59BA2
330
1F
100
AcDbEntity
  8
1
100
AcDbLine
 10
49.7374042807001
 20
-7.332645050600043
 30
0.0
 11
49.87988487690007
 21
-7.530518463200002
 31
0.0
  0
LINE
  5
59BA3
330
1F
100
AcDbEntity
  8
1
100
AcDbLine
 10
50.03206798409997
 20
-7.268791750600151
 30
0.0
 11
49.94272383930002
 21
-7.587164991300035
 31
0.0
  0
LINE
  5
59BA4
330
1F
100
AcDbEntity
  8
1
100
AcDbLine
 10
31.75
 20
-8.03599335967999
 30
0.0
 11
31.75
 21
8.03599335967999
 31
0.0
  0
LINE
  5
59BA5
102
{ACAD_REACTORS
330
59BBC
102
}
330
1F
100
AcDbEntity
  8
1
100
AcDbLine
 10
38.10000000000002
 20
-7.199999999999986
 30
0.0
 11
38.10000000000002
 21
7.200000000000045
 31
0.0
  0
LINE
  5
59BA6
330
1F
100
AcDbEntity
  8
1
100
AcDbLine
 10
31.75
 20
8.035993359680105
 30
0.0
 11
38.10000000000014
 21
7.200000000000045
 31
0.0
  0
LINE
  5
59BA7
330
1F
100
AcDbEntity
  8
1
100
AcDbLine
 10
31.75
 20
-8.035993359679821
 30
0.0
 11
38.09999999999968
 21
-7.199999999999938
 31
0.0
  0
LINE
  5
59BA8
330
1F
100
AcDbEntity
  8
1
100
AcDbLine
 10
0.0
 20
-9.524999999999975
 30
0.0
 11
0.0
 21
9.524999999999975
 31
0.0
  0
LINE
  5
59BA9
330
1F
100
AcDbEntity
  8
1
100
AcDbLine
 10
1.856215269761064
 20
-7.524999999999977
 30
0.0
 11
1.856215269761064
 21
7.524999999999977
 31
0.0
  0
ARC
  5
59BAA
330
1F
100
AcDbEntity
  8
1
100
AcDbCircle
 10
1.934746527496258
 20
11.81776162614898
 30
0.0
 40
3.0
100
AcDbArc
 50
229.8406590671685
 51
268.5000000000006
  0
ARC
  5
59BAB
330
1F
100
AcDbEntity
  8
1
100
AcDbCircle
 10
1.934746527496258
 20
-11.81776162614898
 30
0.0
 40
3.0
100
AcDbArc
 50
91.49999211317712
 51
130.1593409328316
  0
LINE
  5
59BAC
102
{ACAD_REACTORS
330
59BB9
102
}
330
1F
100
AcDbEntity
  8
sk1
100
AcDbLine
 10
-62.5
 20
-9.52499999999997
 30
0.0
 11
-62.5
 21
9.524999999999975
 31
0.0
  0
LINE
  5
59BAD
330
1F
100
AcDbEntity
  8
sk1
100
AcDbLine
 10
-63.5
 20
-8.52499999999997
 30
0.0
 11
-63.5
 21
8.524999999999977
 31
0.0
  0
LINE
  5
59BAE
102
{ACAD_REACTORS
330
59BB9
102
}
330
1F
100
AcDbEntity
  8
sk1
100
AcDbLine
 10
-62.49999999999983
 20
9.524999999999408
 30
0.0
 11
-63.49999999999974
 21
8.524999999999522
 31
0.0
  0
LINE
  5
59BAF
330
1F
100
AcDbEntity
  8
sk3
100
AcDbLine
 10
-61.76794919243125
 20
1.500000000000226
 30
0.0
 11
-63.50000000000012
 21
2.500000000000234
 31
0.0
  0
LINE
  5
59BB0
330
1F
100
AcDbEntity
  8
sk3
100
AcDbLine
 10
-61.76794919243102
 20
-1.499999999999992
 30
0.0
 11
-61.76794919243102
 21
1.499999999999892
 31
0.0
  0
LINE
  5
59BB1
330
1F
100
AcDbEntity
  8
sk3
100
AcDbLine
 10
-61.76794919243132
 20
-1.499999999999474
 30
0.0
 11
-63.50000000000034
 21
-2.499999999999594
 31
0.0
  0
LINE
  5
59BB2
330
1F
100
AcDbEntity
  8
sk1
100
AcDbLine
 10
-62.5000000000001
 20
-9.52499999999997
 30
0.0
 11
-63.50000000000012
 21
-8.524999999999911
 31
0.0
  0
LINE
  5
59BB3
330
1F
100
AcDbEntity
  8
sk4
100
AcDbLine
 10
-64.68989914868783
 20
0.0000000000000071
 30
0.0
 11
0.0
 21
0.0
 31
0.0
  0
LWPOLYLINE
  5
59BB4
330
1F
100
AcDbEntity
  8
1
100
AcDbPolyline
 90
        4
 70
     0
 43
0.0
 10
63.43893655143393
 20
0.1394025545433166
 42
0.1959626825759822
 10
63.49507577573473
 20
0.2795493019601096
 42
0.395667818542281
 10
55.78873224392031
 20
7.934275343206253
 10
47.625
 20
7.934275343206253
  0
LWPOLYLINE
  5
59BB5
330
1F
100
AcDbEntity
  8
1
100
AcDbPolyline
 90
      119
 70
     0
 43
0.0
 10
63.04600147240001
 20
-0.1884436402997451
 10
59.05825641219997
 20
-0.3637499669999968
 10
59.01504198192264
 20
-0.3656031477621084
 10
58.97180863391588
 20
-0.3673645678587221
 10
58.92845398129997
 20
-0.3690381902000084
 10
58.88522857818225
 20
-0.370614972334927
 10
58.84178009525125
 20
-0.3721078778903646
 10
58.79827185919999
 20
-0.3735107533999624
 10
58.75503733990182
 20
-0.3748138650306672
 10
58.71149718588504
 20
-0.3760348589606863
 10
58.66795824249994
 20
-0.3771644137999672
 10
58.62471639217797
 20
-0.3781959905223928
 10
58.58120664112822
 20
-0.3791433136964386
 10
58.53775808800003
 20
-0.379998684899995
 10
58.49451063944947
 20
-0.3807602405194146
 10
58.45115121349511
 20
-0.3814337980773033
 10
58.40791163219996
 20
-0.3820157681000253
 10
58.36466028228585
 20
-0.382508204800736
 10
58.32156823831365
 20
-0.3829095161104376
 10
58.27865300589998
 20
-0.3832204563000303
 10
58.23539943233038
 20
-0.3834440829875874
 10
58.19268829979103
 20
-0.3835761829168476
 10
58.15020896399993
 20
-0.3836200122999642
 10
55.0585014717425
 20
-0.3836200123000211
 42
-0.2116481404323747
 10
49.26802086216263
 20
2.182414232240765
 10
49.24355904176763
 20
2.20947885897248
 10
49.21993905895181
 20
2.235777306356219
 10
49.19602392085483
 20
2.262571672700281
 10
49.1721931913907
 20
2.289441143683113
 10
49.14844732989104
 20
2.31638564607396
 10
49.12478681795801
 20
2.343405125404038
 10
49.10121217539519
 20
2.370499558882207
 10
49.07772395284462
 20
2.397668944121043
 10
49.054322730095
 20
2.424913298628204
 10
49.03100911883462
 20
2.452232661740359
 10
49.0077837627212
 20
2.479627093554704
 10
48.98464734069046
 20
2.507096677143515
 10
48.96160057185715
 20
2.534641522102269
 10
48.93864419412614
 20
2.56226174561265
 10
48.91577897953152
 20
2.589957484807193
 10
48.89300575513948
 20
2.617728913424108
 10
48.87032537214246
 20
2.645576214972372
 10
48.84773871646633
 20
2.67349959134838
 10
48.82524673278999
 20
2.701499281101681
 10
48.80285035070915
 20
2.729575497777481
 10
48.78055057746064
 20
2.757728509192922
 10
48.75834869439167
 20
2.785958784751692
 10
48.73624530994242
 20
2.814266228200033
 10
48.695355732876
 20
2.867325257998564
 10
48.65380668945102
 20
2.922292447762679
 10
48.61334626970711
 20
2.976877108647491
 10
48.57339588929216
 20
3.031836233084098
 10
48.53395869322081
 20
3.087164758122859
 10
48.49503774567995
 20
3.142857637176852
 10
48.45663602080573
 20
3.198909800665084
 10
48.41875645107712
 20
3.25531614538368
 10
48.38140191021444
 20
3.312071548455029
 10
48.34457521396337
 20
3.369170865695529
 10
48.30827911888309
 20
3.426608928956504
 10
48.2725163242045
 20
3.484380550017241
 10
48.2372894734782
 20
3.54248052182401
 10
48.20260114997143
 20
3.600903616516396
 10
48.16845387960597
 20
3.659644588329562
 10
48.13485013298225
 20
3.71869817508206
 10
48.10179232048506
 20
3.778059096350368
 10
48.0692827951375
 20
3.837722056103181
 10
48.03732385500529
 20
3.897681744266996
 10
48.00591773835993
 20
3.957932835065427
 10
47.97506662624591
 20
4.018469989371958
 10
47.9447726451434
 20
4.079287856277281
 10
47.91503786216146
 20
4.140381071563631
 10
47.88586428746429
 20
4.20174425986618
 10
47.85725387721345
 20
4.263372036240006
 10
47.8292085288499
 20
4.325259004809473
 10
47.80173008321151
 20
4.387399760651297
 10
47.77482032770421
 20
4.449788891323342
 10
47.74848099171942
 20
4.512420975720138
 10
47.72271374861428
 20
4.575290585769599
 10
47.69752021900194
 20
4.638392287862181
 10
47.67290196619671
 20
4.701720641848162
 10
47.64886049823188
 20
4.765270202648813
 10
47.62539727116541
 20
4.829035521532367
 10
47.60251368444325
 20
4.893011145199231
 10
47.58021108301074
 20
4.957191617345293
 10
47.55849076072411
 20
5.021571479822788
 10
47.53735395579225
 20
5.086145271859884
 10
47.51680185274522
 20
5.150907531484214
 10
47.49683558588161
 20
5.2158527965638
 10
47.47745623481114
 20
5.280975604157497
 10
47.45866482640098
 20
5.346270491832675
 10
47.44046233817414
 20
5.41173199858388
 10
47.42284969390357
 20
5.47735466428741
 10
47.4058277657765
 20
5.543133030975916
 10
47.38939737765146
 20
5.609061643610964
 10
47.3735593005682
 20
5.675135049614985
 10
47.35831425503159
 20
5.741347800062945
 10
47.34366291417905
 20
5.807694450331887
 10
47.32960589938875
 20
5.874169559768112
 10
47.31614378279471
 20
5.940767692805585
 10
47.30327709015647
 20
6.007483419454209
 10
47.29100629631784
 20
6.074311315041875
 10
47.2793318282446
 20
6.141245961314772
 10
47.26825406758513
 20
6.208281946794045
 10
47.25777334597563
 20
6.275413866573656
 10
47.2478899485007
 20
6.342636323362285
 10
47.23860411597081
 20
6.409943927768836
 10
47.22991604024342
 20
6.477331298148782
 10
47.22182586796793
 20
6.544793061471523
 10
47.2143337023234
 20
6.612323853846362
 10
47.20743959820596
 20
6.679918320052196
 10
47.20114356849235
 20
6.747571113516399
 10
47.19544558216171
 20
6.815276900893877
 10
47.19034555318796
 20
6.883030356311394
 10
47.18584338053562
 20
6.950826149941463
 10
47.1819389062649
 20
7.018659008975646
 10
47.17863180146742
 20
7.086523643623991
 10
47.16423437013497
 20
7.447244210371934
 42
-0.2047707840589065
 10
47.22021810331876
 20
7.594163319802062
 10
47.4899266180422
 20
7.873411188340924
  0
TEXT
  5
59BB6
330
1F
100
AcDbEntity
  8
sk6
100
AcDbText
 10
-24.31193223359912
 20
82.14196211799572
 30
0.0
 40
5.0
  1
SRM210SAM2
  7
simplex
100
AcDbText
  0
DIMENSION
  5
59BB7
102
{ACAD_XDICTIONARY
360
59BB8
102
}
102
{ACAD_REACTORS
330
59BB9
102
}
330
1F
100
AcDbEntity
  8
sk2
100
AcDbDimension
  2
*D12
 10
-89.5030313486181
 20
9.524999999999243
 30
0.0
 11
-89.5030313486181
 21
-0.0000000000003729
 31
0.0
 70
   160
  1
%%C<>
 71
     5
 42
19.04999999999921
  3
\M+18352\M+18373\M+1815B - ISO-25
100
AcDbAlignedDimension
 13
-62.5
 23
-9.52499999999997
 33
0.0
 14
-62.5
 24
9.524999999999238
 34
0.0
 50
270.0
100
AcDbRotatedDimension
1001
ACAD
1000
DSTYLE
1002
{
1070
   285
1070
     4
1070
    78
1070
     8
1070
     4
1000
%%C[]"
1070
   143
1040
0.03937
1070
   171
1070
     3
1070
   170
1070
     1
1070
   271
1070
     8
1070
    40
1040
1.0
1002
}
  0
DIMENSION
  5
59BBA
102
{ACAD_XDICTIONARY
360
59BBB
102
}
102
{ACAD_REACTORS
330
59BBC
102
}
330
1F
100
AcDbEntity
  8
2
100
AcDbDimension
  2
*D13
 10
38.10000000000002
 20
40.41981308849176
 30
0.0
 11
4.180944048392461
 21
40.41981308849176
 31
0.0
 70
   160
 71
     5
 42
25.39999999999998
  3
\M+18352\M+18373\M+1815B - ISO-25
100
AcDbAlignedDimension
 13
63.5
 23
-0.0000000000000071
 33
0.0
 14
38.10000000000002
 24
7.200000000000045
 34
0.0
 50
180.0
100
AcDbRotatedDimension
1001
ACAD
1000
DSTYLE
1002
{
1070
   285
1070
     4
1070
    78
1070
     8
1070
     4
1000
"
1070
    40
1040
1.0
1070
   143
1040
0.03937
1070
   170
1070
     1
1070
   171
1070
     3
1070
   271
1070
     8
1002
}
  0
SPLINE
  5
59BBD
330
1F
100
AcDbEntity
  8
1
100
AcDbSpline
210
0.0
220
0.0
230
1.0
 70
     8
 71
     3
 72
    25
 73
    21
 74
    19
 42
0.0000000001
 43
0.0000000001
 44
0.000001
 12
-0.0038374147123714
 22
-0.9999926370970566
 32
0.0
 13
-0.2658072896568483
 23
-0.9640261846886112
 33
0.0
 40
0.0
 40
0.0
 40
0.0
 40
0.0
 40
0.362118030776291
 40
0.7158113168930012
 40
1.060832246108594
 40
1.397241319936958
 40
1.729660365311782
 40
2.062166899559681
 40
2.396293003922521
 40
2.733654993976887
 40
3.077306452060648
 40
3.426919344216262
 40
3.776233604990161
 40
4.111000690334497
 40
4.417578463262184
 40
4.688572466135354
 40
4.919722500279716
 40
5.109014540384263
 40
5.255894803049862
 40
5.359781998202205
 40
5.359781998202205
 40
5.359781998202205
 40
5.359781998202205
 10
109.7553773428553
 20
-0.633619684210558
 30
0.0
 10
109.7549141438356
 20
-0.7543248057226835
 30
0.0
 10
109.7539072832177
 20
-0.992926511121372
 30
0.0
 10
109.7520084981057
 20
-1.346532190477815
 30
0.0
 10
109.7501530847616
 20
-1.691568293150302
 30
0.0
 10
109.7485452145693
 20
-2.02951419757542
 30
0.0
 10
109.7473413184251
 20
-2.363290341661467
 30
0.0
 10
109.746617676441
 20
-2.696306907640007
 30
0.0
 10
109.7463856070956
 20
-3.030971815816501
 30
0.0
 10
109.7465709925013
 20
-3.369351663612535
 30
0.0
 10
109.7469899618625
 20
-3.71289354475281
 30
0.0
 10
109.7472934452632
 20
-4.060419541550565
 30
0.0
 10
109.7469126745625
 20
-4.404984966793399
 30
0.0
 10
109.7450735431175
 20
-4.735200042797512
 30
0.0
 10
109.7410203977908
 20
-5.039295183391922
 30
0.0
 10
109.7339822875935
 20
-5.308774816257241
 30
0.0
 10
109.7238155079788
 20
-5.539083511649311
 30
0.0
 10
109.7092628064333
 20
-5.727592887502845
 30
0.0
 10
109.6928469359685
 20
-5.873585653923073
 30
0.0
 10
109.6734622117798
 20
-5.955059518950288
 30
0.0
 10
109.6642575538553
 20
-5.988442844410526
 30
0.0
 11
109.7553773428553
 21
-0.633619684210558
 31
0.0
 11
109.7538242264552
 21
-0.9957342450104675
 31
0.0
 11
109.7519915283553
 21
-1.349422782910535
 31
0.0
 11
109.7501727411552
 21
-1.694438917210546
 31
0.0
 11
109.7486028082552
 21
-2.030844326410529
 31
0.0
 11
109.7474198660552
 21
-2.363261265310518
 31
0.0
 11
109.7466996548553
 21
-2.695767017610464
 31
0.0
 11
109.7464541586553
 21
-3.029893029510546
 31
0.0
 11
109.7466062745554
 21
-3.367254982610559
 31
0.0
 11
109.7469668876553
 21
-3.710906248310536
 31
0.0
 11
109.7471772202553
 21
-4.060519073310543
 31
0.0
 11
109.7466408932553
 21
-4.409832917510541
 31
0.0
 11
109.7445683260553
 21
-4.744593581010504
 31
0.0
 11
109.7401680602553
 21
-5.051139766410513
 31
0.0
 11
109.7327569019553
 21
-5.322032399810538
 31
0.0
 11
109.7218078070554
 21
-5.552922956310466
 31
0.0
 11
109.7069319358553
 21
-5.741629544910536
 31
0.0
 11
109.6878011123553
 21
-5.887258551810545
 31
0.0
 11
109.6642575538553
 21
-5.988442844410526
 31
0.0
  0
SPLINE
  5
59BBE
330
1F
100
AcDbEntity
  8
1
100
AcDbSpline
210
0.0
220
0.0
230
1.0
 70
     8
 71
     3
 72
     9
 73
     5
 74
     3
 42
0.0000000001
 43
0.0000000001
 44
0.000001
 12
-0.8556997856419458
 22
-0.5174725856046172
 32
0.0
 13
-0.9648131961358368
 23
-0.2629362975364025
 33
0.0
 40
0.0
 40
0.0
 40
0.0
 40
0.0
 40
0.0039222166505656
 40
0.0076698791949339
 40
0.0076698791949339
 40
0.0076698791949339
 40
0.0076698791949339
 10
109.6268895873553
 20
-6.052070808410532
 30
0.0
 10
109.6257708407062
 20
-6.052747354941022
 30
0.0
 10
109.6234863891566
 20
-6.053917007900909
 30
0.0
 10
109.6210625044144
 20
-6.054757190505907
 30
0.0
 10
109.6198572396553
 20
-6.055085656010517
 30
0.0
 11
109.6268895873553
 21
-6.052070808410532
 31
0.0
 11
109.6233982800554
 21
-6.053858406810532
 31
0.0
 11
109.6198572396553
 21
-6.055085656010517
 31
0.0
  0
SPLINE
  5
59BBF
330
1F
100
AcDbEntity
  8
1
100
AcDbSpline
210
0.0
220
0.0
230
1.0
 70
     8
 71
     3
 72
    10
 73
     6
 74
     4
 42
0.0000000001
 43
0.0000000001
 44
0.000001
 12
-0.9972510533908629
 22
0.0740968049973441
 32
0.0
 13
-0.8194509092445853
 23
0.5731493761125652
 33
0.0
 40
0.0
 40
0.0
 40
0.0
 40
0.0
 40
0.0116612363343877
 40
0.034603682112158
 40
0.0698301581001011
 40
0.0698301581001011
 40
0.0698301581001011
 40
0.0698301581001011
 10
109.6198572396553
 20
-6.055085656010517
 30
0.0
 10
109.6159808462492
 20
-6.054797635892285
 30
0.0
 10
109.6044182097882
 20
-6.053077149165114
 30
0.0
 10
109.5841028723624
 20
-6.040950396021904
 30
0.0
 10
109.5672806999479
 20
-6.031507343722239
 30
0.0
 10
109.5576585773553
 20
-6.024777332810527
 30
0.0
 11
109.6198572396553
 21
-6.055085656010517
 31
0.0
 11
109.6083566128553
 21
-6.053150905610536
 31
0.0
 11
109.5876924227553
 21
-6.043185115210532
 31
0.0
 11
109.5576585773553
 21
-6.024777332810527
 31
0.0
  0
SPLINE
  5
59BC0
330
1F
100
AcDbEntity
  8
1
100
AcDbSpline
210
0.0
220
0.0
230
1.0
 70
     8
 71
     3
 72
     9
 73
     5
 74
     3
 42
0.0000000001
 43
0.0000000001
 44
0.000001
 12
0.8095298299821966
 22
-0.5870787463100639
 32
0.0
 13
0.8572130507783375
 23
-0.5149619263356229
 33
0.0
 40
0.0
 40
0.0
 40
0.0
 40
0.0
 40
0.0258046528270551
 40
0.0480074667254471
 40
0.0480074667254471
 40
0.0480074667254471
 40
0.0480074667254471
 10
109.5868534856553
 20
-6.025598996910517
 30
0.0
 10
109.5938166977272
 20
-6.030648784654075
 30
0.0
 10
109.6069916885078
 20
-6.039743638283193
 30
0.0
 10
109.6205454067427
 20
-6.048259607138803
 30
0.0
 10
109.6268895873553
 20
-6.052070808410532
 30
0.0
 11
109.5868534856553
 21
-6.025598996910517
 31
0.0
 11
109.6080895607552
 21
-6.040259157610464
 31
0.0
 11
109.6268895873553
 21
-6.052070808410532
 31
0.0
  0
SPLINE
  5
59BC1
330
1F
100
AcDbEntity
  8
1
100
AcDbSpline
210
0.0
220
0.0
230
1.0
 70
    24
 71
     3
 72
     9
 73
     5
 74
     3
 42
0.0000000001
 43
0.0000000001
 44
0.000001
 12
0.8086333715344501
 22
-0.5883129018140162
 32
0.0
 13
0.8086333715344501
 23
-0.5883129018140162
 33
0.0
 40
0.0
 40
0.0
 40
0.0
 40
0.0
 40
0.0118795248727275
 40
0.0237590497452842
 40
0.0237590497452842
 40
0.0237590497452842
 40
0.0237590497452842
 10
109.5676411251553
 20
-6.011621241410536
 30
0.0
 10
109.5708431852386
 20
-6.013950867327218
 30
0.0
 10
109.5772473054053
 20
-6.018610119160557
 30
0.0
 10
109.583651425572
 20
-6.023269370993868
 30
0.0
 10
109.5868534856553
 20
-6.025598996910517
 30
0.0
 11
109.5676411251553
 21
-6.011621241410536
 31
0.0
 11
109.5772473054054
 21
-6.018610119160526
 31
0.0
 11
109.5868534856553
 21
-6.025598996910517
 31
0.0
  0
SPLINE
  5
59BC2
330
1F
100
AcDbEntity
  8
1
100
AcDbSpline
210
0.0
220
0.0
230
1.0
 70
     8
 71
     3
 72
    18
 73
    14
 74
    12
 42
0.0000000001
 43
0.0000000001
 44
0.000001
 12
0.5489413538159959
 22
-0.8358608676512268
 32
0.0
 13
0.8026177377034732
 23
-0.5964937276482953
 33
0.0
 40
0.0
 40
0.0
 40
0.0
 40
0.0
 40
0.2625731028869091
 40
0.5331079882468295
 40
0.798030199165618
 40
1.04387968624477
 40
1.267250759480168
 40
1.47120379623946
 40
1.648898998165027
 40
1.797916998465028
 40
1.920433754295911
 40
2.0193182408338
 40
2.073768030949113
 40
2.073768030949113
 40
2.073768030949113
 40
2.073768030949113
 10
108.1883325590554
 20
-4.475126774410526
 30
0.0
 10
108.2363783039135
 20
-4.548284968277501
 30
0.0
 10
108.3365752625094
 20
-4.695098579016461
 30
0.0
 10
108.4943428367989
 20
-4.909344520613067
 30
0.0
 10
108.6564366834193
 20
-5.113265118474291
 30
0.0
 10
108.8155441218734
 20
-5.299261393281078
 30
0.0
 10
108.967186760966
 20
-5.464713651317543
 30
0.0
 10
109.1082541265657
 20
-5.60888774064957
 30
0.0
 10
109.2358663138896
 20
-5.7314202888444
 30
0.0
 10
109.3468939500812
 20
-5.831931124624906
 30
0.0
 10
109.4407763677573
 20
-5.91215067983893
 30
0.0
 10
109.512332117983
 20
-5.969924858388592
 30
0.0
 10
109.5530736693683
 20
-6.000794921985352
 30
0.0
 10
109.5676411251553
 20
-6.011621241410536
 30
0.0
 11
108.1883325590554
 21
-4.475126774410526
 31
0.0
 11
108.3363400477554
 21
-4.692009780410542
 31
0.0
 11
108.4967882753553
 21
-4.909829625810559
 31
0.0
 11
108.6616666238553
 21
-5.117191402410539
 31
0.0
 11
108.8215163810553
 21
-5.30398011891053
 31
0.0
 11
108.9724835380553
 21
-5.468611687110509
 31
0.0
 11
109.1151741535553
 21
-5.614338241910515
 31
0.0
 11
109.2434082124553
 21
-5.737348851410516
 31
0.0
 11
109.3539593851553
 21
-5.837272829610512
 31
0.0
 11
109.4471699541554
 21
-5.916784736510535
 31
0.0
 11
109.5242610236553
 21
-5.978712939710548
 31
0.0
 11
109.5676411251553
 21
-6.011621241410536
 31
0.0
  0
SPLINE
  5
59BC3
330
1F
100
AcDbEntity
  8
1
100
AcDbSpline
210
0.0
220
0.0
230
1.0
 70
     8
 71
     3
 72
     9
 73
     5
 74
     3
 42
0.0000000001
 43
0.0000000001
 44
0.000001
 12
-0.714724077452646
 22
0.6994065292156373
 32
0.0
 13
-0.691461450802274
 23
0.722413359548683
 33
0.0
 40
0.0
 40
0.0
 40
0.0
 40
0.0
 40
0.106352691820143
 40
0.2133217029195679
 40
0.2133217029195679
 40
0.2133217029195679
 40
0.2133217029195679
 10
112.4050057283554
 20
-5.119696351410496
 30
0.0
 10
112.3796681185068
 20
-5.09490176239094
 30
0.0
 10
112.329250908417
 20
-5.044753509602336
 30
0.0
 10
112.2796607108906
 20
-4.993787222135852
 30
0.0
 10
112.2550057283554
 20
-4.96802860791054
 30
0.0
 11
112.4050057283554
 21
-5.119696351410496
 31
0.0
 11
112.3296020730554
 21
-5.044695132210549
 31
0.0
 11
112.2550057283554
 21
-4.96802860791054
 31
0.0
  0
SPLINE
  5
59BC4
330
1F
100
AcDbEntity
  8
1
100
AcDbSpline
210
0.0
220
0.0
230
1.0
 70
     8
 71
     3
 72
     9
 73
     5
 74
     3
 42
0.0000000001
 43
0.0000000001
 44
0.000001
 12
0.9058924924160287
 22
-0.4235077238779425
 32
0.0
 13
0.8530714801401963
 23
-0.5217940683559127
 33
0.0
 40
0.0
 40
0.0
 40
0.0
 40
0.0
 40
0.0733472476922731
 40
0.1015010202182738
 40
0.1015010202182738
 40
0.1015010202182738
 40
0.1015010202182738
 10
112.3538262103553
 20
2.004485822089534
 30
0.0
 10
112.3759744506965
 20
1.994131446781912
 30
0.0
 10
112.4060671687376
 20
1.978558591359903
 30
0.0
 10
112.4352019651553
 20
1.961351743024756
 30
0.0
 10
112.4432076919554
 20
1.956454919189454
 30
0.0
 11
112.3538262103553
 21
2.004485822089534
 31
0.0
 11
112.4189667708554
 21
1.970771371789466
 31
0.0
 11
112.4432076919554
 21
1.956454919189454
 31
0.0
  0
SPLINE
  5
59BC5
330
1F
100
AcDbEntity
  8
1
100
AcDbSpline
210
0.0
220
0.0
230
1.0
 70
     8
 71
     3
 72
    24
 73
    20
 74
    18
 42
0.0000000001
 43
0.0000000001
 44
0.000001
 12
-0.3266794781194304
 22
0.9451351853442007
 32
0.0
 13
-0.1632061220132575
 23
-0.9865919935502182
 33
0.0
 40
0.0
 40
0.0
 40
0.0
 40
0.0
 40
0.3919949061790985
 40
0.7763060580468327
 40
1.139097425952127
 40
1.47091827760196
 40
1.763422635204777
 40
2.013311568035556
 40
2.223686478580735
 40
2.400047056490898
 40
2.546701167471404
 40
2.666636576047354
 40
2.763629712281563
 40
2.838318121791271
 40
2.891368072263719
 40
2.925906755666165
 40
2.945112316175884
 40
2.952379431062852
 40
2.955090010687302
 40
2.955090010687302
 40
2.955090010687302
 40
2.955090010687302
 10
119.7496836459554
 20
2.68046543728947
 30
0.0
 10
119.7069980821634
 20
2.803961496724658
 30
0.0
 10
119.6163330692612
 20
3.046462191704708
 30
0.0
 10
119.4659504843929
 20
3.395270891933726
 30
0.0
 10
119.3076724525328
 20
3.71836372248887
 30
0.0
 10
119.14943889023
 20
4.006981192551984
 30
0.0
 10
118.9985814959644
 20
4.25639120089869
 30
0.0
 10
118.860564576355
 20
4.466012099935246
 30
0.0
 10
118.7378702705372
 20
4.639199393626819
 30
0.0
 10
118.630661338682
 20
4.781069997994289
 30
0.0
 10
118.5383585727836
 20
4.896331242740226
 30
0.0
 10
118.4600035551486
 20
4.988823551599445
 30
0.0
 10
118.395327550018
 20
5.061360887086987
 30
0.0
 10
118.3433628142317
 20
5.11547687513833
 30
0.0
 10
118.3054108500265
 20
5.153685558736222
 30
0.0
 10
118.2769836908337
 20
5.176238507492541
 30
0.0
 10
118.2628836273967
 20
5.189404194609527
 30
0.0
 10
118.250443443783
 20
5.191081883042802
 30
0.0
 10
118.2493274062181
 20
5.187512218041314
 30
0.0
 10
118.2491799451552
 20
5.186620805989527
 30
0.0
 11
119.7496836459554
 21
2.68046543728947
 31
0.0
 11
119.6124216345554
 21
3.047641640089451
 31
0.0
 11
119.4602074870554
 21
3.400523935789451
 31
0.0
 11
119.3005526341553
 21
3.726296716089463
 31
0.0
 11
119.1409738281552
 21
4.017225714289466
 31
0.0
 11
118.9895270871553
 21
4.267470960989456
 31
0.0
 11
118.8520474891553
 21
4.476142565289464
 31
0.0
 11
118.7303688081553
 21
4.647758127089459
 31
0.0
 11
118.6239795613553
 21
4.788415089189456
 31
0.0
 11
118.5322162847553
 21
4.90281320368946
 31
0.0
 11
118.4546434844554
 21
4.994284302989469
 31
0.0
 11
118.3898634388553
 21
5.066473035289462
 31
0.0
 11
118.3382443800553
 21
5.120452937989468
 31
0.0
 11
118.3000436970554
 21
5.15726330768946
 31
0.0
 11
118.2736813737554
 21
5.179578015589483
 31
0.0
 11
118.2574058816554
 21
5.189774003589504
 31
0.0
 11
118.2501662804553
 21
5.189145687089464
 31
0.0
 11
118.2491799451552
 21
5.186620805989527
 31
0.0
  0
SPLINE
  5
59BC6
330
1F
100
AcDbEntity
  8
1
100
AcDbSpline
210
0.0
220
0.0
230
1.0
 70
     8
 71
     3
 72
     9
 73
     5
 74
     3
 42
0.0000000001
 43
0.0000000001
 44
0.000001
 12
-0.3313724251169327
 22
-0.9435000349083846
 32
0.0
 13
0.2068970067423292
 23
-0.9783627285424689
 33
0.0
 40
0.0
 40
0.0
 40
0.0
 40
0.0
 40
0.0213276289757179
 40
0.0334988998933626
 40
0.0334988998933626
 40
0.0334988998933626
 40
0.0334988998933626
 10
112.5049431594554
 20
-1.646049895610544
 30
0.0
 10
112.5025873634102
 20
-1.652757435171579
 30
0.0
 10
112.5005837945666
 20
-1.664039733506804
 30
0.0
 10
112.5018656720149
 20
-1.67520400596889
 30
0.0
 10
112.5027050718553
 20
-1.679173311910495
 30
0.0
 11
112.5049431594554
 21
-1.646049895610544
 31
0.0
 11
112.5013669169554
 21
-1.667075949410515
 31
0.0
 11
112.5027050718553
 21
-1.679173311910495
 31
0.0
  0
SPLINE
  5
59BC7
330
1F
100
AcDbEntity
  8
1
100
AcDbSpline
210
0.0
220
0.0
230
1.0
 70
     8
 71
     3
 72
    10
 73
     6
 74
     4
 42
0.0000000001
 43
0.0000000001
 44
0.000001
 12
0.9972510544403279
 22
-0.0740967908728454
 32
0.0
 13
0.8194509089275332
 23
-0.5731493765658652
 33
0.0
 40
0.0
 40
0.0
 40
0.0
 40
0.0
 40
0.0116612364165235
 40
0.0346036821041239
 40
0.0698301582295698
 40
0.0698301582295698
 40
0.0698301582295698
 40
0.0698301582295698
 10
117.3801423149553
 20
6.055086312089471
 30
0.0
 10
117.3840187083927
 20
6.054798292024114
 30
0.0
 10
117.3955813448851
 20
6.053077805422754
 30
0.0
 10
117.4158966822987
 20
6.040951052114802
 30
0.0
 10
117.4327188547288
 20
6.031507999832759
 30
0.0
 10
117.4423409773553
 20
6.024777988889455
 30
0.0
 11
117.3801423149553
 21
6.055086312089471
 31
0.0
 11
117.3916429418554
 21
6.053151561789504
 31
0.0
 11
117.4123071318553
 21
6.043185771389473
 31
0.0
 11
117.4423409773553
 21
6.024777988889455
 31
0.0
  0
SPLINE
  5
59BC8
330
1F
100
AcDbEntity
  8
1
100
AcDbSpline
210
0.0
220
0.0
230
1.0
 70
     8
 71
     3
 72
    25
 73
    21
 74
    19
 42
0.0000000001
 43
0.0000000001
 44
0.000001
 12
-0.6510792537046663
 22
0.7590097531622205
 32
0.0
 13
0.9970348073077431
 23
-0.0769518876754299
 33
0.0
 40
0.0
 40
0.0
 40
0.0
 40
0.0
 40
0.0643682161763288
 40
0.1498923372595625
 40
0.2388751843909489
 40
0.332754176550229
 40
0.4318321913560582
 40
0.535196879146433
 40
0.6433249690538815
 40
0.7569015766292193
 40
0.8756533471978077
 40
0.9992253425859052
 40
1.128176258345632
 40
1.261248564029553
 40
1.3970075603791
 40
1.531843489529743
 40
1.664056472614438
 40
1.793703110575985
 40
1.922331463831051
 40
2.050553405332983
 40
2.050553405332983
 40
2.050553405332983
 40
2.050553405332983
 10
110.6720987124553
 20
1.001593702289468
 30
0.0
 10
110.6581291090718
 20
1.01787907024663
 30
0.0
 10
110.6285075496234
 20
1.058374310130448
 30
0.0
 10
110.5934458609344
 20
1.130563489412777
 30
0.0
 10
110.5735537389497
 20
1.218631417395831
 30
0.0
 10
110.5744218207849
 20
1.313400980696341
 30
0.0
 10
110.596357828299
 20
1.410382212031785
 30
0.0
 10
110.6374311123737
 20
1.505938785471675
 30
0.0
 10
110.6952691197074
 20
1.598001710489093
 30
0.0
 10
110.7680199247261
 20
1.685478277475792
 30
0.0
 10
110.8541331397369
 20
1.767423711156232
 30
0.0
 10
110.9523594938939
 20
1.843044798222628
 30
0.0
 10
111.0614436360111
 20
1.911377918543306
 30
0.0
 10
111.1799075281614
 20
1.971328703332854
 30
0.0
 10
111.3049674035948
 20
2.021431352473213
 30
0.0
 10
111.4335227564111
 20
2.060716524964637
 30
0.0
 10
111.562862557455
 20
2.088912108388554
 30
0.0
 10
111.6920039111595
 20
2.106277939802302
 30
0.0
 10
111.8208059072548
 20
2.113023773446963
 30
0.0
 10
111.9064972439426
 20
2.110035338269451
 30
0.0
 10
111.9491111568553
 20
2.106746364789457
 30
0.0
 11
110.6720987124553
 21
1.001593702289468
 31
0.0
 11
110.6340935198554
 21
1.053545477489464
 31
0.0
 11
110.5969990202553
 21
1.130606277689465
 31
0.0
 11
110.5772593534554
 21
1.21737197488953
 31
0.0
 11
110.5776466206553
 21
1.311250144289501
 31
0.0
 11
110.5988641087555
 21
1.408029629989456
 31
0.0
 11
110.6391089932553
 21
1.503237861389449
 31
0.0
 11
110.6961861023554
 21
1.595074063389559
 31
0.0
 11
110.7684844639553
 21
1.682667408189458
 31
0.0
 11
110.8542830750554
 21
1.764768463289455
 31
0.0
 11
110.9520457017554
 21
1.840349606089503
 31
0.0
 11
111.0612248201553
 21
1.908966377889484
 31
0.0
 11
111.1798985057552
 21
1.969172670589485
 31
0.0
 11
111.3058902236553
 21
2.019735453389458
 31
0.0
 11
111.4348300675554
 21
2.059172076389458
 31
0.0
 11
111.5640121734554
 21
2.087319170789456
 31
0.0
 11
111.6925065995554
 21
2.104565477889464
 31
0.0
 11
111.8209659153553
 21
2.111157669589529
 31
0.0
 11
111.9491111568553
 21
2.106746364789457
 31
0.0
  0
SPLINE
  5
59BC9
330
1F
100
AcDbEntity
  8
1
100
AcDbSpline
210
0.0
220
0.0
230
1.0
 70
     8
 71
     3
 72
     9
 73
     5
 74
     3
 42
0.0000000001
 43
0.0000000001
 44
0.000001
 12
0.7235292705590756
 22
-0.6902937017272085
 32
0.0
 13
0.7009841650067458
 23
-0.7131768367030686
 33
0.0
 40
0.0
 40
0.0
 40
0.0
 40
0.0
 40
0.1054805235181014
 40
0.2105778473884403
 40
0.2105778473884403
 40
0.2105778473884403
 40
0.2105778473884403
 10
115.0431837398554
 20
5.39929726838956
 30
0.0
 10
115.0686231552685
 20
5.375026421376415
 30
0.0
 10
115.1190204968511
 20
5.326163446905544
 30
0.0
 10
115.1686265532495
 20
5.276497393550759
 30
0.0
 10
115.1931837398554
 20
5.25151306788949
 30
0.0
 11
115.0431837398554
 21
5.39929726838956
 31
0.0
 11
115.1189137252554
 21
5.325873083389481
 31
0.0
 11
115.1931837398554
 21
5.25151306788949
 31
0.0
  0
SPLINE
  5
59BCA
330
1F
100
AcDbEntity
  8
1
100
AcDbSpline
210
0.0
220
0.0
230
1.0
 70
     8
 71
     3
 72
    11
 73
     7
 74
     5
 42
0.0000000001
 43
0.0000000001
 44
0.000001
 12
-0.1104441805051823
 22
-0.9938823285442492
 32
0.0
 13
-0.8796868902016109
 23
0.4755533358177811
 33
0.0
 40
0.0
 40
0.0
 40
0.0
 40
0.0
 40
0.0017964792036406
 40
0.0165050464765465
 40
0.0370757467826397
 40
0.0716583673041095
 40
0.0716583673041095
 40
0.0716583673041095
 40
0.0716583673041095
 10
109.6885453051553
 20
-6.046333216110539
 30
0.0
 10
109.6884791682641
 20
-6.046928379088571
 30
0.0
 10
109.6876549644811
 20
-6.05233612958645
 30
0.0
 10
109.6805842181169
 20
-6.065096959649705
 30
0.0
 10
109.6542565343121
 20
-6.06128142043629
 30
0.0
 10
109.6370302133224
 20
-6.057552768593968
 30
0.0
 10
109.6268895873553
 20
-6.052070808410532
 30
0.0
 11
109.6885453051553
 21
-6.046333216110539
 31
0.0
 11
109.6882720379553
 21
-6.048109801210514
 31
0.0
 11
109.6805602784554
 21
-6.060634677410532
 31
0.0
 11
109.6600309835554
 21
-6.061946908010511
 31
0.0
 11
109.6268895873553
 21
-6.052070808410532
 31
0.0
  0
SPLINE
  5
59BCB
330
1F
100
AcDbEntity
  8
1
100
AcDbSpline
210
0.0
220
0.0
230
1.0
 70
     8
 71
     3
 72
    10
 73
     6
 74
     4
 42
0.0000000001
 43
0.0000000001
 44
0.000001
 12
0.9417554448758613
 22
-0.336298501404137
 32
0.0
 13
0.977761734759936
 23
-0.2097188356806335
 33
0.0
 40
0.0
 40
0.0
 40
0.0
 40
0.0
 40
0.2600705983510128
 40
0.5201632009716937
 40
0.7802508012700362
 40
0.7802508012700362
 40
0.7802508012700362
 40
0.7802508012700362
 10
111.5050057283553
 20
-4.754699822910466
 30
0.0
 10
111.586646695705
 20
-4.78385360707204
 30
0.0
 10
111.7512384843675
 20
-4.838589776819131
 30
0.0
 10
112.0014733283057
 20
-4.90976008346141
 30
0.0
 10
112.1702378272696
 20
-4.949846851674027
 30
0.0
 10
112.2550057283554
 20
-4.96802860791054
 30
0.0
 11
111.5050057283553
 21
-4.754699822910466
 31
0.0
 11
111.7517892126554
 21
-4.836766179710465
 31
0.0
 11
112.0019584924553
 21
-4.90792087151054
 31
0.0
 11
112.2550057283554
 21
-4.96802860791054
 31
0.0
  0
SPLINE
  5
59BCC
330
1F
100
AcDbEntity
  8
1
100
AcDbSpline
210
0.0
220
0.0
230
1.0
 70
     8
 71
     3
 72
    10
 73
     6
 74
     4
 42
0.0000000001
 43
0.0000000001
 44
0.000001
 12
0.2101126015328359
 22
0.977677193493386
 32
0.0
 13
-0.0413124750232944
 23
0.9991462752807768
 33
0.0
 40
0.0
 40
0.0
 40
0.0
 40
0.0
 40
0.0227549569335976
 40
0.0878520423974007
 40
0.163874424110656
 40
0.163874424110656
 40
0.163874424110656
 40
0.163874424110656
 10
114.9432505512554
 20
0.0698468781894661
 30
0.0
 10
114.9448442523217
 20
0.0772625456671003
 30
0.0
 10
114.9500924801373
 20
0.1061822468304758
 30
0.0
 10
114.9461022397797
 20
0.161118681565801
 30
0.0
 10
114.9461219567706
 20
0.2080526686472097
 30
0.0
 10
114.9450750658554
 20
0.2333718284894672
 30
0.0
 11
114.9432505512554
 21
0.0698468781894661
 31
0.0
 11
114.9470680510553
 21
0.0922801819894659
 31
0.0
 11
114.9471026480554
 21
0.1573766504894678
 31
0.0
 11
114.9450750658554
 21
0.2333718284894672
 31
0.0
  0
SPLINE
  5
59BCD
330
1F
100
AcDbEntity
  8
1
100
AcDbSpline
210
0.0
220
0.0
230
1.0
 70
     8
 71
     3
 72
    10
 73
     6
 74
     4
 42
0.0000000001
 43
0.0000000001
 44
0.000001
 12
-0.9203919710771351
 22
0.3909969559686442
 32
0.0
 13
-0.9626591019372215
 23
0.2707165555658206
 33
0.0
 40
0.0
 40
0.0
 40
0.0
 40
0.0
 40
0.2651117532659371
 40
0.5302648751046784
 40
0.7954339534880525
 40
0.7954339534880525
 40
0.7954339534880525
 40
0.7954339534880525
 10
115.9431837398555
 20
4.98797491578945
 30
0.0
 10
115.8618481634741
 20
5.022527545295615
 30
0.0
 10
115.6976733129047
 20
5.08819003043468
 30
0.0
 10
115.4474524206968
 20
5.176107181133866
 30
0.0
 10
115.2782728821414
 20
5.227584514708653
 30
0.0
 10
115.1931837398554
 20
5.25151306788949
 30
0.0
 11
115.9431837398555
 21
4.98797491578945
 31
0.0
 11
115.6970282305554
 21
5.086422734589532
 31
0.0
 11
115.4468694410553
 21
5.174321715489448
 31
0.0
 11
115.1931837398554
 21
5.25151306788949
 31
0.0
  0
SPLINE
  5
59BCE
330
1F
100
AcDbEntity
  8
1
100
AcDbSpline
210
0.0
220
0.0
230
1.0
 70
     8
 71
     3
 72
    24
 73
    20
 74
    18
 42
0.0000000001
 43
0.0000000001
 44
0.000001
 12
0.6521312117983921
 22
-0.7581061156581979
 32
0.0
 13
-0.9974421698466533
 23
0.0714780932286253
 33
0.0
 40
0.0
 40
0.0
 40
0.0
 40
0.0
 40
0.0429232841110693
 40
0.1209830079549361
 40
0.2015023548758393
 40
0.2892091430690495
 40
0.3881152829097958
 40
0.5005467448451969
 40
0.6245354734318298
 40
0.7578289266498495
 40
0.8974928069984253
 40
1.041791872243932
 40
1.189268927339055
 40
1.336459480899326
 40
1.480363722191383
 40
1.620192203813645
 40
1.754392660305216
 40
1.882715862259095
 40
2.003717953762701
 40
2.003717953762701
 40
2.003717953762701
 40
2.003717953762701
 10
116.7330566451553
 20
-1.926873812510464
 30
0.0
 10
116.7423871829158
 20
-1.937720613906709
 30
0.0
 10
116.7666070952221
 20
-1.970099222131219
 30
0.0
 10
116.7964041953153
 20
-2.031204993636928
 30
0.0
 10
116.8108371541664
 20
-2.113103606277826
 30
0.0
 10
116.8021523353752
 20
-2.202705091825988
 30
0.0
 10
116.7691328163615
 20
-2.297591802278271
 30
0.0
 10
116.7120807541454
 20
-2.394402350020663
 30
0.0
 10
116.6329966867502
 20
-2.489486402470997
 30
0.0
 10
116.5353827793688
 20
-2.57929878173434
 30
0.0
 10
116.4228310039417
 20
-2.66145020280052
 30
0.0
 10
116.2986164492515
 20
-2.734354587161338
 30
0.0
 10
116.1660427156698
 20
-2.796722316067724
 30
0.0
 10
116.028793327691
 20
-2.847548035013572
 30
0.0
 10
115.8903685224702
 20
-2.886459589637638
 30
0.0
 10
115.7535975918966
 20
-2.913660152306499
 30
0.0
 10
115.620315039386
 20
-2.929709671522251
 30
0.0
 10
115.4924738101512
 20
-2.935372237699323
 30
0.0
 10
115.4093209808571
 20
-2.932491089602968
 30
0.0
 10
115.3690901179553
 20
-2.929608090010517
 30
0.0
 11
116.7330566451553
 21
-1.926873812510464
 31
0.0
 11
116.7587762305553
 21
-1.961239143310464
 31
0.0
 11
116.7926100362554
 21
-2.031585307810515
 31
0.0
 11
116.8069041005554
 21
-2.110825655310506
 31
0.0
 11
116.7993045458554
 21
-2.198202525710526
 31
0.0
 11
116.7678611901554
 21
-2.291977428410532
 31
0.0
 11
116.7117062505554
 21
-2.389380976310533
 31
0.0
 11
116.6330738248555
 21
-2.485246210910517
 31
0.0
 11
116.5353973941553
 21
-2.575946033610549
 31
0.0
 11
116.4228327142553
 21
-2.658621251710556
 31
0.0
 11
116.2985238685553
 21
-2.731898337110506
 31
0.0
 11
116.1651483366554
 21
-2.794830442910537
 31
0.0
 11
116.0271475734554
 21
-2.846024675410531
 31
0.0
 11
115.8886184709554
 21
-2.884987730310526
 31
0.0
 11
115.7514692572553
 21
-2.912229219710538
 31
0.0
 11
115.6182250051554
 21
-2.928220870510513
 31
0.0
 11
115.4900206491553
 21
-2.933742371810538
 31
0.0
 11
115.3690901179553
 21
-2.929608090010517
 31
0.0
  0
SPLINE
  5
59BCF
330
1F
100
AcDbEntity
  8
1
100
AcDbSpline
210
0.0
220
0.0
230
1.0
 70
     8
 71
     3
 72
    31
 73
    27
 74
    25
 42
0.0000000001
 43
0.0000000001
 44
0.000001
 12
-0.0049347786304082
 22
0.9999878239058059
 32
0.0
 13
0.7884107362479426
 23
0.6151491778170377
 33
0.0
 40
0.0
 40
0.0
 40
0.0
 40
0.0
 40
0.3454450003325692
 40
0.6961198064184999
 40
1.049316518216354
 40
1.40143135985195
 40
1.749179995619358
 40
2.090742828113651
 40
2.426028587244536
 40
2.756490593645577
 40
3.084578143801669
 40
3.413257535790603
 40
3.745865789300199
 40
4.085661159003715
 40
4.436410702775526
 40
4.797200801020649
 40
5.160311624025508
 40
5.516335184137575
 40
5.847229184771145
 40
6.139976202069462
 40
6.392031378197484
 40
6.602100776958835
 40
6.769202458396952
 40
6.892928784093806
 40
6.973966984343483
 40
7.017442852472253
 40
7.017442852472253
 40
7.017442852472253
 40
7.017442852472253
 10
117.2459200022554
 20
-0.9425840814105155
 30
0.0
 10
117.2453517707202
 20
-0.8274371500232803
 30
0.0
 10
117.2444017162593
 20
-0.5953990613754666
 30
0.0
 10
117.2434896385138
 20
-0.2456278917333906
 30
0.0
 10
117.243337134119
 20
0.106367839170146
 30
0.0
 10
117.2439551777318
 20
0.4573876111674824
 30
0.0
 10
117.2452227330852
 20
0.8045275497296888
 30
0.0
 10
117.2469024357144
 20
1.146055868439882
 30
0.0
 10
117.2487274975864
 20
1.481821104083313
 30
0.0
 10
117.2504579667657
 20
1.813095035590621
 30
0.0
 10
117.251907569375
 20
2.142168219817256
 30
0.0
 10
117.2529485447881
 20
2.471958413949138
 30
0.0
 10
117.2535115744601
 20
2.805652407380178
 30
0.0
 10
117.2535941303808
 20
3.146703534926809
 30
0.0
 10
117.253286888897
 20
3.497148512852943
 30
0.0
 10
117.2528400905561
 20
3.855364754247836
 30
0.0
 10
117.2527367672692
 20
4.215340803631733
 30
0.0
 10
117.2537167469207
 20
4.565346130802827
 30
0.0
 10
117.2566076973486
 20
4.891904196212826
 30
0.0
 10
117.2622399605138
 20
5.183717229131299
 30
0.0
 10
117.2708557315741
 20
5.43532238725295
 30
0.0
 10
117.2836351297081
 20
5.644392741556061
 30
0.0
 10
117.2985292135724
 20
5.811540061891749
 30
0.0
 10
117.3210048668782
 20
5.931916373350987
 30
0.0
 10
117.3381168233715
 20
6.016168066377431
 30
0.0
 10
117.3687167012218
 20
6.046171597244707
 30
0.0
 10
117.3801423149553
 20
6.055086312089471
 30
0.0
 11
117.2459200022554
 21
-0.9425840814105155
 31
0.0
 11
117.2444946983554
 21
-0.5971424797105414
 31
0.0
 11
117.2436193491553
 21
-0.2464687662105263
 31
0.0
 11
117.2434672170554
 21
0.1067279132895322
 31
0.0
 11
117.2440702805553
 21
0.4588422388894601
 31
0.0
 11
117.2453052295554
 21
0.8065886819894814
 31
0.0
 11
117.2469433396553
 21
1.148147586189465
 31
0.0
 11
117.2487252046552
 21
1.483428609989559
 31
0.0
 11
117.2504177461553
 21
1.813886281189454
 31
0.0
 11
117.2518393766554
 21
2.141970750189485
 31
0.0
 11
117.2528652956553
 21
2.470648539589531
 31
0.0
 11
117.2534291626553
 21
2.803256313289451
 31
0.0
 11
117.2535317791554
 21
3.143051665189502
 31
0.0
 11
117.2532693516552
 21
3.493801107889467
 31
0.0
 11
117.2528994956553
 21
3.854591012889486
 31
0.0
 11
117.2529256255553
 21
4.217701830289469
 31
0.0
 11
117.2541133865552
 21
4.573723403089488
 31
0.0
 11
117.2573322542553
 21
4.904601739389462
 31
0.0
 11
117.2632862175553
 21
5.197288193789525
 31
0.0
 11
117.2725588201554
 21
5.449172738389463
 31
0.0
 11
117.2856113797553
 21
5.658836218189533
 31
0.0
 11
117.3027678834553
 21
5.82505479718948
 31
0.0
 11
117.3242206623553
 21
5.946907034789532
 31
0.0
 11
117.3500327672553
 21
6.02372431388953
 31
0.0
 11
117.3801423149553
 21
6.055086312089471
 31
0.0
  0
SPLINE
  5
59BD0
330
1F
100
AcDbEntity
  8
1
100
AcDbSpline
210
0.0
220
0.0
230
1.0
 70
     8
 71
     3
 72
     9
 73
     5
 74
     3
 42
0.0000000001
 43
0.0000000001
 44
0.000001
 12
0.4271760631332551
 22
0.9041684638860026
 32
0.0
 13
0.4238525030078594
 23
0.9057312270723432
 33
0.0
 40
0.0
 40
0.0
 40
0.0
 40
0.0
 40
0.0163409166918379
 40
0.0326679539916807
 40
0.0326679539916807
 40
0.0326679539916807
 40
0.0326679539916807
 10
119.4679323999554
 20
-4.027875068710513
 30
0.0
 10
119.4702592161088
 20
-4.022950088195931
 30
0.0
 10
119.4749018292252
 20
-4.013100035403635
 30
0.0
 10
119.47952634668
 20
-4.003241473919865
 30
0.0
 10
119.4818330985554
 20
-3.998312171410518
 30
0.0
 11
119.4679323999554
 21
-4.027875068710513
 31
0.0
 11
119.4748992739554
 21
-4.013093721510543
 31
0.0
 11
119.4818330985554
 21
-3.998312171410518
 31
0.0
  0
SPLINE
  5
59BD1
330
1F
100
AcDbEntity
  8
1
100
AcDbSpline
210
0.0
220
0.0
230
1.0
 70
     8
 71
     3
 72
    10
 73
     6
 74
     4
 42
0.0000000001
 43
0.0000000001
 44
0.000001
 12
-0.9974328665323961
 22
0.071607798185445
 32
0.0
 13
-0.9590491327643816
 23
0.2832397587625855
 33
0.0
 40
0.0
 40
0.0
 40
0.0
 40
0.0
 40
0.0975430113955505
 40
0.1910669937221541
 40
0.2795371543582581
 40
0.2795371543582581
 40
0.2795371543582581
 40
0.2795371543582581
 10
115.3690901179553
 20
-2.929608090010517
 30
0.0
 10
115.3366592494665
 20
-2.927279809919046
 30
0.0
 10
115.2732815002091
 20
-2.920407360222125
 30
0.0
 10
115.1814575671606
 20
-2.904142774167687
 30
0.0
 10
115.122645668133
 20
-2.888995298362617
 30
0.0
 10
115.0943632578552
 20
-2.880642542710532
 30
0.0
 11
115.3690901179553
 21
-2.929608090010517
 31
0.0
 11
115.2721089771554
 21
-2.919155595310527
 31
0.0
 11
115.1800538321553
 21
-2.902645968210535
 31
0.0
 11
115.0943632578552
 21
-2.880642542710532
 31
0.0
  0
SPLINE
  5
59BD2
330
1F
100
AcDbEntity
  8
1
100
AcDbSpline
210
0.0
220
0.0
230
1.0
 70
     8
 71
     3
 72
    20
 73
    16
 74
    14
 42
0.0000000001
 43
0.0000000001
 44
0.000001
 12
0.4242937615596601
 22
0.9055246014888576
 32
0.0
 13
-0.5395710160513244
 23
0.8419400920714856
 33
0.0
 40
0.0
 40
0.0
 40
0.0
 40
0.0
 40
0.4383251351752565
 40
0.853890020207636
 40
1.242354097605049
 40
1.601168244616107
 40
1.927710478528568
 40
2.213069574751891
 40
2.446958318419828
 40
2.63358246667072
 40
2.786180547416358
 40
2.91294725889903
 40
3.014655462236323
 40
3.090944712787032
 40
3.14307825430628
 40
3.14307825430628
 40
3.14307825430628
 40
3.14307825430628
 10
119.4818330985554
 20
-3.998312171410518
 30
0.0
 10
119.5438259720186
 20
-3.866007440293143
 30
0.0
 10
119.6568854500648
 20
-3.604577591617266
 30
0.0
 10
119.7990890584805
 20
-3.215412665663055
 30
0.0
 10
119.9112783433014
 20
-2.844173185633215
 30
0.0
 10
119.9958288877417
 20
-2.496180869745954
 30
0.0
 10
120.055221104354
 20
-2.177950259255671
 30
0.0
 10
120.0923466848027
 20
-1.898344212196933
 30
0.0
 10
120.1114629479741
 20
-1.663740592065181
 30
0.0
 10
120.1176841962657
 20
-1.47271463323156
 30
0.0
 10
120.1148757530203
 20
-1.317379924863824
 30
0.0
 10
120.1056804735251
 20
-1.190509556993228
 30
0.0
 10
120.0902424622094
 20
-1.090194325749364
 30
0.0
 10
120.0725701015046
 20
-1.014948649719603
 30
0.0
 10
120.0520051833112
 20
-0.9769829015594202
 30
0.0
 10
120.0426286006553
 20
-0.9623517953105109
 30
0.0
 11
119.4818330985554
 21
-3.998312171410518
 31
0.0
 11
119.6558610208553
 21
-3.596015512410544
 31
0.0
 11
119.7983273244554
 21
-3.205634260110556
 31
0.0
 11
119.9105555211553
 21
-2.833734853710509
 31
0.0
 11
119.9950713572554
 21
-2.485016252910533
 31
0.0
 11
120.0547270725553
 21
-2.163969492110495
 31
0.0
 11
120.0919684001553
 21
-1.881050964610508
 31
0.0
 11
120.1106311442554
 21
-1.647907999810527
 31
0.0
 11
120.1163193251554
 21
-1.461370569710466
 31
0.0
 11
120.1132101922552
 21
-1.308804182410469
 31
0.0
 11
120.1032092303552
 21
-1.182432612610553
 31
0.0
 11
120.0874349825554
 21
-1.081955136510557
 31
0.0
 11
120.0669372950554
 21
-1.008471277810528
 31
0.0
 11
120.0426286006553
 21
-0.9623517953105109
 31
0.0
  0
SPLINE
  5
59BD3
330
1F
100
AcDbEntity
  8
1
100
AcDbSpline
210
0.0
220
0.0
230
1.0
 70
     8
 71
     3
 72
    10
 73
     6
 74
     4
 42
0.0000000001
 43
0.0000000001
 44
0.000001
 12
-0.677166187814539
 22
0.7358301122410829
 32
0.0
 13
-0.999023695254198
 23
-0.0441775544892146
 33
0.0
 40
0.0
 40
0.0
 40
0.0
 40
0.0
 40
0.017605792339257
 40
0.0389012254439759
 40
0.0657445656373613
 40
0.0657445656373613
 40
0.0657445656373613
 40
0.0657445656373613
 10
120.0426286006553
 20
-0.9623517953105109
 30
0.0
 10
120.0386545848947
 20
-0.9580335045928146
 30
0.0
 10
120.0284111914432
 20
-0.9495084689953934
 30
0.0
 10
120.0068486879293
 20
-0.9437896972359746
 30
0.0
 10
119.9908035279597
 20
-0.9421887903691603
 30
0.0
 10
119.9818644836554
 20
-0.9425840814105155
 30
0.0
 11
120.0426286006553
 21
-0.9623517953105109
 31
0.0
 11
120.0288673659554
 21
-0.9513691127105373
 31
0.0
 11
120.0086170946553
 21
-0.9447788948105111
 31
0.0
 11
119.9818644836554
 21
-0.9425840814105155
 31
0.0
  0
SPLINE
  5
59BD4
330
1F
100
AcDbEntity
  8
1
100
AcDbSpline
210
0.0
220
0.0
230
1.0
 70
     8
 71
     3
 72
    11
 73
     7
 74
     5
 42
0.0000000001
 43
0.0000000001
 44
0.000001
 12
0.9970523160572028
 22
-0.076724696447546
 32
0.0
 13
0.9058996030163791
 23
-0.4234925138119525
 33
0.0
 40
0.0
 40
0.0
 40
0.0
 40
0.0
 40
0.1119540533676963
 40
0.219884369646431
 40
0.3227737255759323
 40
0.4195534781230473
 40
0.4195534781230473
 40
0.4195534781230473
 40
0.4195534781230473
 10
111.9491111568553
 20
2.106746364789457
 30
0.0
 10
111.9863191729227
 20
2.103883151202555
 30
0.0
 10
112.05918722014
 20
2.095062684919071
 30
0.0
 10
112.1646741560923
 20
2.073276507139976
 30
0.0
 10
112.262986784226
 20
2.043622487817553
 30
0.0
 10
112.3246019638844
 20
2.018147655653626
 30
0.0
 10
112.3538262103553
 20
2.004485822089534
 30
0.0
 11
111.9491111568553
 21
2.106746364789457
 31
0.0
 11
112.0602590501554
 21
2.093339639989479
 31
0.0
 11
112.1659226998553
 21
2.071339015789462
 31
0.0
 11
112.2643546594554
 21
2.041381306689444
 31
0.0
 11
112.3538262103553
 21
2.004485822089534
 31
0.0
  0
SPLINE
  5
59BD5
330
1F
100
AcDbEntity
  8
1
100
AcDbSpline
210
0.0
220
0.0
230
1.0
 70
     8
 71
     3
 72
     9
 73
     5
 74
     3
 42
0.0000000001
 43
0.0000000001
 44
0.000001
 12
-0.9592025366631009
 22
0.2827198147620227
 32
0.0
 13
-0.9356896029860855
 23
0.3528242719311438
 33
0.0
 40
0.0
 40
0.0
 40
0.0
 40
0.0
 40
0.0721914567338138
 40
0.0942672454285057
 40
0.0942672454285057
 40
0.0942672454285057
 40
0.0942672454285057
 10
115.0943632578552
 20
-2.880642542710532
 30
0.0
 10
115.0712811817137
 20
-2.87383922428547
 30
0.0
 10
115.0413820172326
 20
-2.864099080924945
 30
0.0
 10
115.0118849438418
 20
-2.853267722768368
 30
0.0
 10
115.0049995818554
 20
-2.850671431410532
 30
0.0
 11
115.0943632578552
 21
-2.880642542710532
 31
0.0
 11
115.0257214298554
 21
-2.858280801810464
 31
0.0
 11
115.0049995818554
 21
-2.850671431410532
 31
0.0
  0
SPLINE
  5
59BD6
330
1F
100
AcDbEntity
  8
1
100
AcDbSpline
210
0.0
220
0.0
230
1.0
 70
     8
 71
     3
 72
    19
 73
    15
 74
    13
 42
0.0000000001
 43
0.0000000001
 44
0.000001
 12
-0.309825070757808
 22
-0.9507935767189003
 32
0.0
 13
0.9145143461765201
 23
-0.4045534706776499
 33
0.0
 40
0.0
 40
0.0
 40
0.0
 40
0.0
 40
0.4847906049829164
 40
0.9565208909246161
 40
1.411796162643839
 40
1.845679124447344
 40
2.251702071247516
 40
2.622308694201993
 40
2.949739795422118
 40
3.227055742671534
 40
3.449124753471861
 40
3.613264352141491
 40
3.719156082559805
 40
3.775221920483707
 40
3.775221920483707
 40
3.775221920483707
 40
3.775221920483707
 10
106.9753675287553
 20
3.044532150989468
 30
0.0
 10
106.9253007675914
 20
2.890886886565659
 30
0.0
 10
106.8361634814359
 20
2.584495834910814
 30
0.0
 10
106.7331366796793
 20
2.12501618080847
 30
0.0
 10
106.6617117216654
 20
1.676739740636
 30
0.0
 10
106.6203092722119
 20
1.246733883416722
 30
0.0
 10
106.6063672784085
 20
0.8431939603786005
 30
0.0
 10
106.616224721494
 20
0.4751443790293082
 30
0.0
 10
106.6446414931229
 20
0.1508574782494932
 30
0.0
 10
106.6868502306278
 20
-0.121148721958828
 30
0.0
 10
106.7343330716882
 20
-0.3387755888325599
 30
0.0
 10
106.7882970279621
 20
-0.4910926326307071
 30
0.0
 10
106.829796864847
 20
-0.5972918940988982
 30
0.0
 10
106.8779689190846
 20
-0.6260591411043696
 30
0.0
 10
106.8950599234552
 20
-0.633619684210558
 30
0.0
 11
106.9753675287553
 21
3.044532150989468
 31
0.0
 11
106.8399136670552
 21
2.579050299089473
 31
0.0
 11
106.7368556543554
 21
2.118715088289533
 31
0.0
 11
106.6653726310553
 21
1.66908663258944
 31
0.0
 11
106.6240028245554
 21
1.237180438089481
 31
0.0
 11
106.6103001111553
 21
0.8313887855894819
 31
0.0
 11
106.6205868522554
 21
0.4609249588894643
 31
0.0
 11
106.6499874285552
 21
0.1348165024894712
 31
0.0
 11
106.6928300383553
 21
-0.1391700594105174
 31
0.0
 11
106.7433440785554
 21
-0.3554175204105405
 31
0.0
 11
106.7964413062554
 21
-0.510731630610465
 31
0.0
 11
106.8479201297554
 21
-0.6032677911104685
 31
0.0
 11
106.8950599234552
 21
-0.633619684210558
 31
0.0
  0
SPLINE
  5
59BD7
330
1F
100
AcDbEntity
  8
1
100
AcDbSpline
210
0.0
220
0.0
230
1.0
 70
     8
 71
     3
 72
    26
 73
    22
 74
    20
 42
0.0000000001
 43
0.0000000001
 44
0.000001
 12
-0.8653774020978945
 22
0.5011206959788223
 32
0.0
 13
0.9981173813310814
 23
0.0613326428974386
 33
0.0
 40
0.0
 40
0.0
 40
0.0
 40
0.0
 40
0.0786732390281443
 40
0.158039661926479
 40
0.2374427932160765
 40
0.3172945971064285
 40
0.3987178117682891
 40
0.4815899990035069
 40
0.5654164929048222
 40
0.6510950768766529
 40
0.7386677103039251
 40
0.8268100936238127
 40
0.9161661989696371
 40
1.006514635962575
 40
1.094289219993576
 40
1.177263136692819
 40
1.255070699009664
 40
1.327890510106175
 40
1.397410192764045
 40
1.465536057045028
 40
1.533323078660225
 40
1.533323078660225
 40
1.533323078660225
 40
1.533323078660225
 10
111.4447973045553
 20
-2.715654105310511
 30
0.0
 10
111.4221032901537
 20
-2.702512509211614
 30
0.0
 10
111.3781602110607
 20
-2.673137210088664
 30
0.0
 10
111.3185766121097
 20
-2.620708352025547
 30
0.0
 10
111.2660624231776
 20
-2.560656743912835
 30
0.0
 10
111.2216783640799
 20
-2.493534635391013
 30
0.0
 10
111.1862369163404
 20
-2.420000311495152
 30
0.0
 10
111.160625351376
 20
-2.341085807730499
 30
0.0
 10
111.1459740496051
 20
-2.257960029057878
 30
0.0
 10
111.1432737313028
 20
-2.17201775021867
 30
0.0
 10
111.1529906678606
 20
-2.08512494225829
 30
0.0
 10
111.1755957842121
 20
-1.999371077372862
 30
0.0
 10
111.211136033053
 20
-1.917105274648611
 30
0.0
 10
111.2583641346062
 20
-1.841091712724185
 30
0.0
 10
111.3149205719764
 20
-1.774521015919175
 30
0.0
 10
111.3772920584168
 20
-1.719579275016329
 30
0.0
 10
111.4421988934346
 20
-1.676180225306097
 30
0.0
 10
111.5079601616842
 20
-1.643208398215532
 30
0.0
 10
111.574149196405
 20
-1.619468709647017
 30
0.0
 10
111.6409677712608
 20
-1.603863443195139
 30
0.0
 10
111.686073224221
 20
-1.598564686607139
 30
0.0
 10
111.7086263590553
 20
-1.597178834210537
 30
0.0
 11
111.4447973045553
 21
-2.715654105310511
 31
0.0
 11
111.3794137760554
 21
-2.671897933210529
 31
0.0
 11
111.3198093811552
 21
-2.619492321410533
 31
0.0
 11
111.2675719657552
 21
-2.559691713610547
 31
0.0
 11
111.2235189074553
 21
-2.493091095210544
 31
0.0
 11
111.1881387499553
 21
-2.419756325310529
 31
0.0
 11
111.1625837580554
 21
-2.340922664110464
 31
0.0
 11
111.1480517509554
 21
-2.258365371810532
 31
0.0
 11
111.1453127848552
 21
-2.172730548910535
 31
0.0
 11
111.1550680610553
 21
-2.085702932210536
 31
0.0
 11
111.1775664041554
 21
-2.000480225410527
 31
0.0
 11
111.2129529945554
 21
-1.918429580510533
 31
0.0
 11
111.2606527131554
 21
-1.841698996510544
 31
0.0
 11
111.3175082669554
 21
-1.774827262910534
 31
0.0
 11
111.3797401698555
 21
-1.719946798610535
 31
0.0
 11
111.4444223265553
 21
-1.676700538610545
 31
0.0
 11
111.5095326907553
 21
-1.644091204610517
 31
0.0
 11
111.5749647596553
 21
-1.620604328510509
 31
0.0
 11
111.6413028959553
 21
-1.605099907810525
 31
0.0
 11
111.7086263590553
 21
-1.597178834210537
 31
0.0
  0
SPLINE
  5
59BD8
330
1F
100
AcDbEntity
  8
1
100
AcDbSpline
210
0.0
220
0.0
230
1.0
 70
     8
 71
     3
 72
     9
 73
     5
 74
     3
 42
0.0000000001
 43
0.0000000001
 44
0.000001
 12
0.5874160572362647
 22
-0.8092851016180896
 32
0.0
 13
0.1624064875349067
 23
-0.9867239395122499
 33
0.0
 40
0.0
 40
0.0
 40
0.0
 40
0.0
 40
0.0403813097528727
 40
0.0631831895959095
 40
0.0631831895959095
 40
0.0631831895959095
 40
0.0631831895959095
 10
109.6642575538553
 20
-5.988442844410526
 30
0.0
 10
109.6721644304423
 20
-5.999336175199467
 30
0.0
 10
109.6822040577452
 20
-6.01830617086876
 30
0.0
 10
109.6873109140838
 20
-6.038833495874871
 30
0.0
 10
109.6885453051553
 20
-6.046333216110539
 30
0.0
 11
109.6642575538553
 21
-5.988442844410526
 31
0.0
 11
109.6829835004553
 21
-6.024220267210536
 31
0.0
 11
109.6885453051553
 21
-6.046333216110539
 31
0.0
  0
SPLINE
  5
59BD9
330
1F
100
AcDbEntity
  8
1
100
AcDbSpline
210
0.0
220
0.0
230
1.0
 70
     8
 71
     3
 72
     9
 73
     5
 74
     3
 42
0.0000000001
 43
0.0000000001
 44
0.000001
 12
0.9349948497471029
 22
0.354661290453853
 32
0.0
 13
0.9207753937189984
 23
0.3900931610803032
 33
0.0
 40
0.0
 40
0.0
 40
0.0
 40
0.0
 40
0.0805630778957945
 40
0.1616358492717974
 40
0.1616358492717974
 40
0.1616358492717974
 40
0.1616358492717974
 10
112.2550057283554
 20
-5.936755557810514
 30
0.0
 10
112.2801144159928
 20
-5.927231356087362
 30
0.0
 10
112.33030992476
 20
-5.90764284914269
 30
0.0
 10
112.3801224573608
 20
-5.88709979749838
 30
0.0
 10
112.4050057283554
 20
-5.876557819610511
 30
0.0
 11
112.2550057283554
 21
-5.936755557810514
 31
0.0
 11
112.3300565337554
 21
-5.907467584910548
 31
0.0
 11
112.4050057283554
 21
-5.876557819610511
 31
0.0
  0
SPLINE
  5
59BDA
330
1F
100
AcDbEntity
  8
1
100
AcDbSpline
210
0.0
220
0.0
230
1.0
 70
     8
 71
     3
 72
    19
 73
    15
 74
    13
 42
0.0000000001
 43
0.0000000001
 44
0.000001
 12
-0.471237009546424
 22
0.8820066217629795
 32
0.0
 13
-0.4787188590879208
 23
0.8779682533859409
 33
0.0
 40
0.0
 40
0.0
 40
0.0
 40
0.0
 40
0.0657886936915253
 40
0.1538165630138298
 40
0.2659149614445865
 40
0.4021135789621212
 40
0.5656251261641177
 40
0.7623331642718254
 40
0.9976559506766022
 40
1.275519709669044
 40
1.604088988295806
 40
1.970771236302258
 40
2.351013767711655
 40
2.72028672555852
 40
2.72028672555852
 40
2.72028672555852
 40
2.72028672555852
 10
109.6642575538553
 20
-5.988442844410526
 30
0.0
 10
109.6539235314295
 20
-5.969100823252839
 30
0.0
 10
109.628909222284
 20
-5.924316079843851
 30
0.0
 10
109.5811444929162
 20
-5.84960873064273
 30
0.0
 10
109.518728514576
 20
-5.75648533841105
 30
0.0
 10
109.4404304350438
 20
-5.643728367695534
 30
0.0
 10
109.3450870695918
 20
-5.508486063480683
 30
0.0
 10
109.2304173618803
 20
-5.346440125092154
 30
0.0
 10
109.0944367149711
 20
-5.152779839845883
 30
0.0
 10
108.9352413362909
 20
-4.921720768342584
 30
0.0
 10
108.7550976858784
 20
-4.651950176537479
 30
0.0
 10
108.5621647646568
 20
-4.34975693690085
 30
0.0
 10
108.3699264843003
 20
-4.031145372476459
 30
0.0
 10
108.2472585354129
 20
-3.813446794951688
 30
0.0
 10
108.1883325590554
 20
-3.705376817010531
 30
0.0
 11
109.6642575538553
 21
-5.988442844410526
 31
0.0
 11
109.6320466213553
 21
-5.931078993310463
 31
0.0
 11
109.5852365619554
 21
-5.856528881110548
 31
0.0
 11
109.5229699650554
 21
-5.763314511710561
 31
0.0
 11
109.4455031680553
 21
-5.651292388810546
 31
0.0
 11
109.3514260890553
 21
-5.517555607610559
 31
0.0
 11
109.2379408758554
 21
-5.356884652110507
 31
0.0
 11
109.1028465557553
 21
-5.164202697610548
 31
0.0
 11
108.9453396417554
 21
-4.935292589810514
 31
0.0
 11
108.7630421671553
 21
-4.661933123110549
 31
0.0
 11
108.5658861213553
 21
-4.352764300410527
 31
0.0
 11
108.3696882394554
 21
-4.027048517910528
 31
0.0
 11
108.1883325590554
 21
-3.705376817010531
 31
0.0
  0
SPLINE
  5
59BDB
330
1F
100
AcDbEntity
  8
1
100
AcDbSpline
210
0.0
220
0.0
230
1.0
 70
     8
 71
     3
 72
     9
 73
     5
 74
     3
 42
0.0000000001
 43
0.0000000001
 44
0.000001
 12
-0.9689384594501367
 22
-0.2473019648090079
 32
0.0
 13
-0.9582789948914955
 23
-0.2858345114742882
 33
0.0
 40
0.0
 40
0.0
 40
0.0
 40
0.0
 40
0.0775793949781215
 40
0.155641512001119
 40
0.155641512001119
 40
0.155641512001119
 40
0.155641512001119
 10
115.1931837398554
 20
6.058051161689531
 30
0.0
 10
115.1681271867037
 20
6.051655982753937
 30
0.0
 10
115.1179848029757
 20
6.038324512631882
 30
0.0
 10
115.0681188355354
 20
6.02399347278411
 30
0.0
 10
115.0431837398554
 20
6.016555857089471
 30
0.0
 11
115.1931837398554
 21
6.058051161689531
 31
0.0
 11
115.1182089703553
 21
6.038117629389533
 31
0.0
 11
115.0431837398554
 21
6.016555857089471
 31
0.0
  0
SPLINE
  5
59BDC
330
1F
100
AcDbEntity
  8
1
100
AcDbSpline
210
0.0
220
0.0
230
1.0
 70
     8
 71
     3
 72
    24
 73
    20
 74
    18
 42
0.0000000001
 43
0.0000000001
 44
0.000001
 12
0.5464957964450871
 22
-0.8374618465744275
 32
0.0
 13
0.2768657484030572
 23
-0.9609086103065239
 33
0.0
 40
0.0
 40
0.0
 40
0.0
 40
0.0
 40
0.0640128159709427
 40
0.1396771434877195
 40
0.2243473216497301
 40
0.3156513856706915
 40
0.4136607189034473
 40
0.5216580259138874
 40
0.6435529877756911
 40
0.7835159808967142
 40
0.9460372634728578
 40
1.135792137365341
 40
1.356112404223432
 40
1.609041012684107
 40
1.889858327967503
 40
2.189648384030135
 40
2.503889557796447
 40
2.8312238220566
 40
3.170859690065539
 40
3.170859690065539
 40
3.170859690065539
 40
3.170859690065539
 10
118.3070931905554
 20
5.082378988189461
 30
0.0
 10
118.318754102171
 20
5.064509557833643
 30
0.0
 10
118.3441309227748
 20
5.025474074598445
 30
0.0
 10
118.3846913646956
 20
4.962646567706321
 30
0.0
 10
118.429812241528
 20
4.891936152233387
 30
0.0
 10
118.4784634751676
 20
4.814644782198944
 30
0.0
 10
118.5306615405197
 20
4.730400716455251
 30
0.0
 10
118.5874851477878
 20
4.63703063235986
 30
0.0
 10
118.6506051434718
 20
4.531127016534466
 30
0.0
 10
118.7217126722204
 20
4.408834372009922
 30
0.0
 10
118.8023629046204
 20
4.265937758171116
 30
0.0
 10
118.8936114718953
 20
4.09828706972474
 30
0.0
 10
118.9956673150281
 20
3.902244357192891
 30
0.0
 10
119.1068073853616
 20
3.676768237934484
 30
0.0
 10
119.223214031004
 20
3.42444484694766
 30
0.0
 10
119.3402747847348
 20
3.150041749115196
 30
0.0
 10
119.454159116392
 20
2.857586586419545
 30
0.0
 10
119.5623067397939
 20
2.548841900312194
 30
0.0
 10
119.6278877265283
 20
2.336343802402387
 30
0.0
 10
119.6592322394552
 20
2.227557459089481
 30
0.0
 11
118.3070931905554
 21
5.082378988189461
 31
0.0
 11
118.3419887216554
 21
5.028714072889485
 31
0.0
 11
118.3830109054554
 21
4.965135202689467
 31
0.0
 11
118.4285526564553
 21
4.893756033489451
 31
0.0
 11
118.4771853750553
 21
4.81648192608948
 31
0.0
 11
118.5288027258554
 21
4.73316641208946
 31
0.0
 11
118.5849438637553
 21
4.640908151189464
 31
0.0
 11
118.6473461487552
 21
4.536197447689501
 31
0.0
 11
118.7176930954553
 21
4.41519769458945
 31
0.0
 11
118.7975652846552
 21
4.273657619089462
 31
0.0
 11
118.8882644611553
 21
4.106982599189463
 31
0.0
 11
118.9899775503552
 21
3.911546018989483
 31
0.0
 11
119.1017705988553
 21
3.684664586689463
 31
0.0
 11
119.2193646463553
 21
3.429654791889461
 31
0.0
 11
119.3369448874552
 21
3.15388503178947
 31
0.0
 11
119.4509197159554
 21
2.861041626089487
 31
0.0
 11
119.5590411195553
 21
2.552079622989466
 31
0.0
 11
119.6592322394552
 21
2.227557459089481
 31
0.0
  0
SPLINE
  5
59BDD
330
1F
100
AcDbEntity
  8
1
100
AcDbSpline
210
0.0
220
0.0
230
1.0
 70
     8
 71
     3
 72
    23
 73
    19
 74
    17
 42
0.0000000001
 43
0.0000000001
 44
0.000001
 12
0.8652614560536198
 22
-0.5013208679757603
 32
0.0
 13
-0.9447509153207926
 23
-0.3277891212357801
 33
0.0
 40
0.0
 40
0.0
 40
0.0
 40
0.0
 40
0.0856925147624976
 40
0.1710833356715364
 40
0.2550445525273312
 40
0.3381922559609238
 40
0.4214778676771323
 40
0.5043835705944409
 40
0.5870157236682676
 40
0.6705704933658929
 40
0.754872257165446
 40
0.8393476786336005
 40
0.9253662540243103
 40
1.012808449001165
 40
1.100642548396669
 40
1.189824754830612
 40
1.280091193036779
 40
1.36985019865883
 40
1.36985019865883
 40
1.36985019865883
 40
1.36985019865883
 10
116.0033921636553
 20
1.139450339789461
 30
0.0
 10
116.028107640354
 20
1.125130524496208
 30
0.0
 10
116.0755229318425
 20
1.093037292915853
 30
0.0
 10
116.1386057543104
 20
1.035640839964013
 30
0.0
 10
116.1925562058228
 20
0.9706760043276517
 30
0.0
 10
116.2364343006061
 20
0.8993537877480356
 30
0.0
 10
116.2699008092645
 20
0.8229913220487377
 30
0.0
 10
116.292583218862
 20
0.7429375862606814
 30
0.0
 10
116.3039325257013
 20
0.6604135722074688
 30
0.0
 10
116.303711969388
 20
0.5766505861568126
 30
0.0
 10
116.2918663362427
 20
0.4931019614438243
 30
0.0
 10
116.2681376207673
 20
0.4112518093488378
 30
0.0
 10
116.2324984979343
 20
0.3326838367902159
 30
0.0
 10
116.185428409615
 20
0.2590405110656233
 30
0.0
 10
116.1274256433164
 20
0.1922295118744422
 30
0.0
 10
116.0593901909104
 20
0.1341947018811233
 30
0.0
 10
115.9830306432708
 20
0.0864483518156297
 30
0.0
 10
115.9276862317953
 20
0.0625762805480703
 30
0.0
 10
115.8994195975554
 20
0.0527689386894537
 30
0.0
 11
116.0033921636553
 21
1.139450339789461
 31
0.0
 11
116.0743281710553
 21
1.09137311208947
 31
0.0
 11
116.1375104431553
 21
1.033930997789454
 31
0.0
 11
116.1911098745554
 21
0.9693044501894831
 31
0.0
 11
116.2347073980553
 21
0.8985033131894653
 31
0.0
 11
116.2681554682553
 21
0.8222293053894842
 31
0.0
 11
116.2907159453554
 21
0.7424522098894358
 31
0.0
 11
116.3019832932554
 21
0.6605918148894574
 31
0.0
 11
116.3017977481554
 21
0.5770372221895315
 31
0.0
 11
116.2899307994554
 21
0.4935748483894855
 31
0.0
 11
116.2663970727554
 21
0.4124436864894819
 31
0.0
 11
116.2309058421554
 21
0.3340882607894429
 31
0.0
 11
116.1837906109552
 21
0.2604248543894556
 31
0.0
 11
116.1261873842553
 21
0.1941172218894707
 31
0.0
 11
116.0583773511553
 21
0.1361925343894512
 31
0.0
 11
115.9818113766554
 21
0.0883836883894702
 31
0.0
 11
115.8994195975554
 21
0.0527689386894537
 31
0.0
  0
SPLINE
  5
59BDE
330
1F
100
AcDbEntity
  8
1
100
AcDbSpline
210
0.0
220
0.0
230
1.0
 70
     8
 71
     3
 72
    10
 73
     6
 74
     4
 42
0.0000000001
 43
0.0000000001
 44
0.000001
 12
-0.9826000017620618
 22
0.1857343170692922
 32
0.0
 13
-0.9546252138177848
 23
0.2978098405750699
 33
0.0
 40
0.0
 40
0.0
 40
0.0
 40
0.0
 40
0.2578112540638178
 40
0.5156155545091
 40
0.7733912203955816
 40
0.7733912203955816
 40
0.7733912203955816
 40
0.7733912203955816
 10
112.2550057283554
 20
-5.936755557810514
 30
0.0
 10
112.1705639487896
 20
-5.920794092075073
 30
0.0
 10
112.0022784392069
 20
-5.885616902321721
 30
0.0
 10
111.7520979418074
 20
-5.823177353587489
 30
0.0
 10
111.5870321117433
 20
-5.775149456864471
 30
0.0
 10
111.5050057283553
 20
-5.749560080210542
 30
0.0
 11
112.2550057283554
 21
-5.936755557810514
 31
0.0
 11
112.0026483280553
 21
-5.884004321710547
 31
0.0
 11
111.7525181526553
 21
-5.82157515481053
 31
0.0
 11
111.5050057283553
 21
-5.749560080210542
 31
0.0
  0
SPLINE
  5
59BDF
330
1F
100
AcDbEntity
  8
1
100
AcDbSpline
210
0.0
220
0.0
230
1.0
 70
     8
 71
     3
 72
    10
 73
     6
 74
     4
 42
0.0000000001
 43
0.0000000001
 44
0.000001
 12
0.969049654705967
 22
-0.246865888113863
 32
0.0
 13
0.9342911076981607
 23
-0.3565110462189687
 33
0.0
 40
0.0
 40
0.0
 40
0.0
 40
0.0
 40
0.2624182018160534
 40
0.5248140636402246
 40
0.7871661689851864
 40
0.7871661689851864
 40
0.7871661689851864
 40
0.7871661689851864
 10
115.1931837398554
 20
6.058051161689531
 30
0.0
 10
115.2779491624748
 20
6.03645712754001
 30
0.0
 10
115.4466636217885
 20
5.990016524897
 30
0.0
 10
115.6968429960291
 20
5.91071599412571
 30
0.0
 10
115.8614793268189
 20
5.851483303174265
 30
0.0
 10
115.9431837398555
 20
5.820306161989504
 30
0.0
 11
115.1931837398554
 21
6.058051161689531
 31
0.0
 11
115.4461924157553
 21
5.988407489789537
 31
0.0
 11
115.6963214613553
 21
5.909120137089458
 31
0.0
 11
115.9431837398555
 21
5.820306161989504
 31
0.0
  0
SPLINE
  5
59BE0
330
1F
100
AcDbEntity
  8
1
100
AcDbSpline
210
0.0
220
0.0
230
1.0
 70
     8
 71
     3
 72
    15
 73
    11
 74
     9
 42
0.0000000001
 43
0.0000000001
 44
0.000001
 12
0.998457932922745
 22
-0.0555135675636087
 32
0.0
 13
0.6526536274952023
 23
-0.7576564145556705
 33
0.0
 40
0.0
 40
0.0
 40
0.0
 40
0.0
 40
0.098114426341357
 40
0.19143480042104
 40
0.280180902507827
 40
0.3659286786981716
 40
0.4487766598113104
 40
0.5289879477471953
 40
0.6076928502230913
 40
0.6426512705792069
 40
0.6426512705792069
 40
0.6426512705792069
 40
0.6426512705792069
 10
116.1433124527553
 20
-1.713156711110528
 30
0.0
 10
116.1759668285268
 20
-1.714972271722416
 30
0.0
 10
116.2395787947693
 20
-1.720565984044592
 30
0.0
 10
116.3320377536259
 20
-1.734145170465033
 30
0.0
 10
116.4193278398274
 20
-1.753245552775486
 30
0.0
 10
116.5014843878039
 20
-1.778285707982548
 30
0.0
 10
116.5782375519518
 20
-1.810152477521017
 30
0.0
 10
116.6485435528484
 20
-1.849989735230233
 30
0.0
 10
116.6995453908447
 20
-1.8903244554669
 30
0.0
 10
116.7254513985363
 20
-1.918044988701949
 30
0.0
 10
116.7330566451553
 20
-1.926873812510464
 30
0.0
 11
116.1433124527553
 21
-1.713156711110528
 31
0.0
 11
116.2410556407553
 21
-1.721674368310559
 31
0.0
 11
116.3333520408553
 21
-1.735460440010526
 31
0.0
 11
116.4200024563553
 21
-1.754632535010543
 31
0.0
 11
116.5019396779554
 21
-1.779910308810528
 31
0.0
 11
116.5783057091554
 21
-1.812035200610536
 31
0.0
 11
116.6478576264553
 21
-1.851989785510496
 31
0.0
 11
116.7091371824554
 21
-1.901378494710526
 31
0.0
 11
116.7330566451553
 21
-1.926873812510464
 31
0.0
  0
SPLINE
  5
59BE1
330
1F
100
AcDbEntity
  8
1
100
AcDbSpline
210
0.0
220
0.0
230
1.0
 70
     8
 71
     3
 72
    16
 73
    12
 74
    10
 42
0.0000000001
 43
0.0000000001
 44
0.000001
 12
0.8995671604806256
 22
0.4367824673505388
 32
0.0
 13
0.9983893877360102
 23
-0.056732975033174
 33
0.0
 40
0.0
 40
0.0
 40
0.0
 40
0.0
 40
0.1190946025401323
 40
0.2522508170059627
 40
0.3923868525602596
 40
0.5302631610110791
 40
0.657455760855675
 40
0.773264043338886
 40
0.8800355830854895
 40
0.9810640872698973
 40
1.078632945621083
 40
1.078632945621083
 40
1.078632945621083
 40
1.078632945621083
 10
115.0943632578552
 20
-1.914320530310519
 30
0.0
 10
115.130074455667
 20
-1.896981052195315
 30
0.0
 10
115.2069409811766
 20
-1.862706028567043
 30
0.0
 10
115.3301115336518
 20
-1.818374365591243
 30
0.0
 10
115.4619315789316
 20
-1.780514942084926
 30
0.0
 10
115.5938864381756
 20
-1.751308183764675
 30
0.0
 10
115.7192366525555
 20
-1.730795658907771
 30
0.0
 10
115.8351474679438
 20
-1.717799701250286
 30
0.0
 10
115.9428347165335
 20
-1.710901086023456
 30
0.0
 10
116.0446472144527
 20
-1.709123540982514
 30
0.0
 10
116.1108418818382
 20
-1.711311587242243
 30
0.0
 10
116.1433124527553
 20
-1.713156711110528
 30
0.0
 11
115.0943632578552
 21
-1.914320530310519
 31
0.0
 11
115.2031727502554
 21
-1.865904948110468
 31
0.0
 11
115.3283555448554
 21
-1.820519900710493
 31
0.0
 11
115.4630132232553
 21
-1.781720451810528
 31
0.0
 11
115.5976140175554
 21
-1.751845951510524
 31
0.0
 11
115.7231353986553
 21
-1.731295357910467
 31
0.0
 11
115.8382255910552
 21
-1.718419210810465
 31
0.0
 11
115.9447810098553
 21
-1.71162981371053
 31
0.0
 11
116.0457958545554
 21
-1.709969789010543
 31
0.0
 11
116.1433124527553
 21
-1.713156711110528
 31
0.0
  0
SPLINE
  5
59BE2
330
1F
100
AcDbEntity
  8
1
100
AcDbSpline
210
0.0
220
0.0
230
1.0
 70
     8
 71
     3
 72
    15
 73
    11
 74
     9
 42
0.0000000001
 43
0.0000000001
 44
0.000001
 12
-0.9979004907886796
 22
0.0647658126152401
 32
0.0
 13
-0.6489526936413128
 23
0.7608287595876515
 33
0.0
 40
0.0
 40
0.0
 40
0.0
 40
0.0
 40
0.1062996029180488
 40
0.2078903341987664
 40
0.3047459377035464
 40
0.3981215052937648
 40
0.4878894076063451
 40
0.5751903030737664
 40
0.6610236879863625
 40
0.6816621160494332
 40
0.6816621160494332
 40
0.6816621160494332
 40
0.6816621160494332
 10
111.2897491842553
 20
0.7550087275894413
 30
0.0
 10
111.2543903756144
 20
0.7573035876439962
 30
0.0
 10
111.1853903657633
 20
0.7644551406161878
 30
0.0
 10
111.0852536283877
 20
0.7820571306644587
 30
0.0
 10
110.991029674288
 20
0.8067164343010594
 30
0.0
 10
110.9031465054591
 20
0.8385814636362264
 30
0.0
 10
110.8219709284328
 20
0.8782587344894167
 30
0.0
 10
110.7484862807676
 20
0.9264664144873323
 30
0.0
 10
110.7001360681811
 20
0.9698176343226151
 30
0.0
 10
110.67656316695
 20
0.9963595990817797
 30
0.0
 10
110.6720987124553
 20
1.001593702289468
 30
0.0
 11
111.2897491842553
 21
0.7550087275894413
 31
0.0
 11
111.1840085563553
 21
0.7658871793894521
 31
0.0
 11
111.0839955882553
 21
0.7837216723894615
 31
0.0
 11
110.9903514400553
 21
0.8084557323895323
 31
0.0
 11
110.9026680132554
 21
0.8405587864894954
 31
0.0
 11
110.8221708897553
 21
0.8802888911894655
 31
0.0
 11
110.7493973941553
 21
0.9285118475894622
 31
0.0
 11
110.6858152713553
 21
0.9861716744894836
 31
0.0
 11
110.6720987124553
 21
1.001593702289468
 31
0.0
  0
SPLINE
  5
59BE3
330
1F
100
AcDbEntity
  8
1
100
AcDbSpline
210
0.0
220
0.0
230
1.0
 70
     8
 71
     3
 72
    16
 73
    12
 74
    10
 42
0.0000000001
 43
0.0000000001
 44
0.000001
 12
-0.8428237547853909
 22
-0.5381896676539371
 32
0.0
 13
-0.9978198018604292
 23
0.0659972955143914
 33
0.0
 40
0.0
 40
0.0
 40
0.0
 40
0.0
 40
0.1351520867534569
 40
0.2706641485341143
 40
0.4044661880393058
 40
0.5349777819173536
 40
0.6615388418548767
 40
0.7836507996566042
 40
0.8998721159389285
 40
1.009880482139982
 40
1.111886789673165
 40
1.111886789673165
 40
1.111886789673165
 40
1.111886789673165
 10
112.3538262103553
 20
1.012651093789471
 30
0.0
 10
112.3158564139471
 20
0.988405274905279
 30
0.0
 10
112.2375626687387
 20
0.943243239659673
 30
0.0
 10
112.1146454228118
 20
0.8874338549444383
 30
0.0
 10
111.9892077219989
 20
0.8420430068457259
 30
0.0
 10
111.8637082159361
 20
0.8066453758346646
 30
0.0
 10
111.7399735355775
 20
0.7804321386902454
 30
0.0
 10
111.6195585825437
 20
0.7627278509309587
 30
0.0
 10
111.503793526236
 20
0.7528734202106233
 30
0.0
 10
111.3943486842552
 20
0.7501323424339791
 30
0.0
 10
111.3236771554457
 20
0.7527646807819082
 30
0.0
 10
111.2897491842553
 20
0.7550087275894413
 30
0.0
 11
112.3538262103553
 21
1.012651093789471
 31
0.0
 11
112.2366782987554
 21
0.9452523738894598
 31
0.0
 11
112.1134547570553
 21
0.8888662407894543
 31
0.0
 11
111.9876775076554
 21
0.8432258942894604
 31
0.0
 11
111.8620918324553
 21
0.8077083745894666
 31
0.0
 11
111.7382841320554
 21
0.7814531204894735
 31
0.0
 11
111.6174683695554
 21
0.7637086224894603
 31
0.0
 11
111.5016626737552
 21
0.7538890699894836
 31
0.0
 11
111.3916859324553
 21
0.7512518371894858
 31
0.0
 11
111.2897491842553
 21
0.7550087275894413
 31
0.0
  0
SPLINE
  5
59BE4
330
1F
100
AcDbEntity
  8
1
100
AcDbSpline
210
0.0
220
0.0
230
1.0
 70
     8
 71
     3
 72
    11
 73
     7
 74
     5
 42
0.0000000001
 43
0.0000000001
 44
0.000001
 12
0.2312815046008688
 22
-0.9728868719586868
 32
0.0
 13
0.5546820077790608
 23
-0.8320624196814744
 33
0.0
 40
0.0
 40
0.0
 40
0.0
 40
0.0
 40
0.0090727361117532
 40
0.0335404368450011
 40
0.071006903818414
 40
0.119637473131893
 40
0.119637473131893
 40
0.119637473131893
 40
0.119637473131893
 10
118.2491799451552
 20
5.186620805989527
 30
0.0
 10
118.2498793971748
 20
5.183678557370903
 30
0.0
 10
118.252865148357
 20
5.172870386638936
 30
0.0
 10
118.2640101401185
 20
5.151803418691959
 30
0.0
 10
118.2827274463019
 20
5.120139364047051
 30
0.0
 10
118.2981016899466
 20
5.095866877913947
 30
0.0
 10
118.3070931905554
 20
5.082378988189461
 30
0.0
 11
118.2491799451552
 21
5.186620805989527
 31
0.0
 11
118.2516624224553
 21
5.177893922189483
 31
0.0
 11
118.2620900701554
 21
5.155759859889441
 31
0.0
 11
118.2809897584554
 21
5.123409692889467
 31
0.0
 11
118.3070931905554
 21
5.082378988189461
 31
0.0
  0
SPLINE
  5
59BE5
330
1F
100
AcDbEntity
  8
1
100
AcDbSpline
210
0.0
220
0.0
230
1.0
 70
    24
 71
     3
 72
     9
 73
     5
 74
     3
 42
0.0000000001
 43
0.0000000001
 44
0.000001
 12
0.8693115980603824
 22
0.4942644489316466
 32
0.0
 13
0.8693115980603824
 23
0.4942644489316466
 33
0.0
 40
0.0
 40
0.0
 40
0.0
 40
0.0
 40
0.0514824141308189
 40
0.1029648282614908
 40
0.1029648282614908
 40
0.1029648282614908
 40
0.1029648282614908
 10
115.0048547384552
 20
-1.965212384410519
 30
0.0
 10
115.0197728250219
 20
-1.956730408727173
 30
0.0
 10
115.0496089981552
 20
-1.939766457360507
 30
0.0
 10
115.0794451712885
 20
-1.922802505993841
 30
0.0
 10
115.0943632578552
 20
-1.914320530310519
 30
0.0
 11
115.0048547384552
 21
-1.965212384410519
 31
0.0
 11
115.0496089981553
 21
-1.939766457360533
 31
0.0
 11
115.0943632578552
 21
-1.914320530310519
 31
0.0
  0
SPLINE
  5
59BE6
330
1F
100
AcDbEntity
  8
1
100
AcDbSpline
210
0.0
220
0.0
230
1.0
 70
     8
 71
     3
 72
     9
 73
     5
 74
     3
 42
0.0000000001
 43
0.0000000001
 44
0.000001
 12
-0.9496721877693417
 22
-0.3132454880399593
 32
0.0
 13
-0.9205393482252503
 23
0.3906498539216821
 33
0.0
 40
0.0
 40
0.0
 40
0.0
 40
0.0
 40
0.2428847686126614
 40
0.4436491119981348
 40
0.4436491119981348
 40
0.4436491119981348
 40
0.4436491119981348
 10
115.8994195975554
 20
0.0527689386894537
 30
0.0
 10
115.822532627694
 20
0.0274080860622718
 30
0.0
 10
115.6713915349391
 20
0.0056620232422766
 30
0.0
 10
115.5252955990909
 20
0.0436922436840679
 30
0.0
 10
115.4636917731553
 20
0.0698350974894737
 30
0.0
 11
115.8994195975554
 21
0.0527689386894537
 31
0.0
 11
115.6585541075553
 21
0.0215128191894536
 31
0.0
 11
115.4636917731553
 21
0.0698350974894737
 31
0.0
  0
SPLINE
  5
59BE7
330
1F
100
AcDbEntity
  8
1
100
AcDbSpline
210
0.0
220
0.0
230
1.0
 70
     8
 71
     3
 72
     9
 73
     5
 74
     3
 42
0.0000000001
 43
0.0000000001
 44
0.000001
 12
0.998196121133408
 22
0.0600375195541796
 32
0.0
 13
0.9189865313023027
 23
-0.3942889236143491
 33
0.0
 40
0.0
 40
0.0
 40
0.0
 40
0.0
 40
0.0810111341999378
 40
0.2817750453167359
 40
0.2817750453167359
 40
0.2817750453167359
 40
0.2817750453167359
 10
111.7086263590553
 20
-1.597178834210537
 30
0.0
 10
111.7355813590309
 20
-1.595557598359326
 30
0.0
 10
111.8297083565665
 20
-1.595968370987698
 30
0.0
 10
111.9229979182925
 20
-1.619652534205581
 30
0.0
 10
111.9844976950552
 20
-1.646038863010531
 30
0.0
 11
111.7086263590553
 21
-1.597178834210537
 31
0.0
 11
111.7896353606552
 21
-1.597716584710538
 31
0.0
 11
111.9844976950552
 21
-1.646038863010531
 31
0.0
  0
SPLINE
  5
59BE8
330
1F
100
AcDbEntity
  8
1
100
AcDbSpline
210
0.0
220
0.0
230
1.0
 70
    24
 71
     3
 72
     9
 73
     5
 74
     3
 42
0.0000000001
 43
0.0000000001
 44
0.000001
 12
-0.8003540357310649
 22
-0.5995276619881667
 32
0.0
 13
-0.8003540357310647
 23
-0.5995276619881669
 33
0.0
 40
0.0
 40
0.0
 40
0.0
 40
0.0
 40
0.0559237606131565
 40
0.1118475212263251
 40
0.1118475212263251
 40
0.1118475212263251
 40
0.1118475212263251
 10
112.4433438253553
 20
1.079706776689462
 30
0.0
 10
112.4284242228553
 20
1.068530829539464
 30
0.0
 10
112.3985850178553
 20
1.046178935239481
 30
0.0
 10
112.3687458128553
 20
1.023827040939471
 30
0.0
 10
112.3538262103553
 20
1.012651093789471
 30
0.0
 11
112.4433438253553
 21
1.079706776689462
 31
0.0
 11
112.3985850178553
 21
1.046178935239495
 31
0.0
 11
112.3538262103553
 21
1.012651093789471
 31
0.0
  0
SPLINE
  5
59BE9
330
1F
100
AcDbEntity
  8
1
100
AcDbSpline
210
0.0
220
0.0
230
1.0
 70
     8
 71
     3
 72
    62
 73
    58
 74
    56
 42
0.0000000001
 43
0.0000000001
 44
0.000001
 12
-0.001178026323373
 22
0.9999993061267499
 32
0.0
 13
0.9485397462469592
 23
-0.3166580960432787
 33
0.0
 40
0.0
 40
0.0
 40
0.0
 40
0.0
 40
0.0044424290440605
 40
0.0087794001962124
 40
0.0130233647873299
 40
0.0171907518415159
 40
0.0212954199371063
 40
0.0253539763455986
 40
0.0293821334613899
 40
0.0333948389509066
 40
0.0374090603964014
 40
0.0414383001744205
 40
0.0454980327669274
 40
0.0496017633820281
 40
0.0537613710294327
 40
0.0579903915451844
 40
0.0622981114740214
 40
0.0666954434391705
 40
0.0711915231778515
 40
0.075793119415452
 40
0.0805094472562052
 40
0.0853452657373164
 40
0.0903067449599578
 40
0.0953996485902873
 40
0.1006264056128048
 40
0.1059930256545755
 40
0.111501265487367
 40
0.1171536344474
 40
0.1229540534143957
 40
0.1289019548036848
 40
0.1350010861129111
 40
0.1412515411099262
 40
0.1476531089021325
 40
0.1542085967537708
 40
0.1609153991826725
 40
0.1677753803530983
 40
0.1747875811060144
 40
0.1819496496563735
 40
0.1892633453781199
 40
0.1967244431639869
 40
0.2043331302173585
 40
0.212087286628004
 40
0.2199827825927122
 40
0.2280201356465076
 40
0.2361935625193054
 40
0.2445015086875867
 40
0.2529384620753717
 40
0.261496979082378
 40
0.2701739780491215
 40
0.278959934340933
 40
0.2878513444964132
 40
0.2968419829216463
 40
0.3059256968018436
 40
0.3150990078248323
 40
0.3243525326234377
 40
0.3336830350798259
 40
0.3430829649293054
 40
0.3430829649293054
 40
0.3430829649293054
 40
0.3430829649293054
 10
114.7431837398553
 20
6.367376395889536
 30
0.0
 10
114.7431819954225
 20
6.368857204543395
 30
0.0
 10
114.7432677306472
 20
6.371784501902995
 30
0.0
 10
114.7436529333284
 20
6.376111044156518
 30
0.0
 10
114.7442942412702
 20
6.380314746965193
 30
0.0
 10
114.7451869538629
 20
6.384393104514622
 30
0.0
 10
114.7463278718896
 20
6.38834490667017
 30
0.0
 10
114.7477131905468
 20
6.392168505743168
 30
0.0
 10
114.7493392152745
 20
6.395862649374299
 30
0.0
 10
114.7512022391583
 20
6.399426417126637
 30
0.0
 10
114.7532983493745
 20
6.402858620138696
 30
0.0
 10
114.7556239396914
 20
6.406158755187572
 30
0.0
 10
114.7581751361788
 20
6.409326011494034
 30
0.0
 10
114.7609482422731
 20
6.412359860357872
 30
0.0
 10
114.7639397495243
 20
6.415260042641816
 30
0.0
 10
114.7671459059738
 20
6.418026027065083
 30
0.0
 10
114.7705635114052
 20
6.420657769300907
 30
0.0
 10
114.7741890699692
 20
6.423154955461951
 30
0.0
 10
114.7780192671058
 20
6.425517355596625
 30
0.0
 10
114.7820511572231
 20
6.427744954023984
 30
0.0
 10
114.7862813756725
 20
6.429837425944848
 30
0.0
 10
114.7907071705141
 20
6.431794717883764
 30
0.0
 10
114.7953254913356
 20
6.433616604878521
 30
0.0
 10
114.8001332698622
 20
6.43530279989442
 30
0.0
 10
114.8051280216083
 20
6.436853207099828
 30
0.0
 10
114.8103065866165
 20
6.438267456056554
 30
0.0
 10
114.8156663605775
 20
6.43954530244429
 30
0.0
 10
114.8212045429663
 20
6.440686437566654
 30
0.0
 10
114.8269180130608
 20
6.441690446002096
 30
0.0
 10
114.83280444184
 20
6.442557046074148
 30
0.0
 10
114.8388605924438
 20
6.443285782798767
 30
0.0
 10
114.8450836561066
 20
6.443876239383151
 30
0.0
 10
114.851470789005
 20
6.44432799770801
 30
0.0
 10
114.8580185000741
 20
6.444640569824277
 30
0.0
 10
114.8647242079009
 20
6.444813517140163
 30
0.0
 10
114.8715842741745
 20
6.444846359480827
 30
0.0
 10
114.8785953191379
 20
6.444738618421863
 30
0.0
 10
114.8857540834354
 20
6.444489832507477
 30
0.0
 10
114.8930563583757
 20
6.44409956677096
 30
0.0
 10
114.9004989024085
 20
6.443567354677782
 30
0.0
 10
114.9080772935959
 20
6.442892822177737
 30
0.0
 10
114.915787237921
 20
6.442075600644441
 30
0.0
 10
114.923624638093
 20
6.441115337116642
 30
0.0
 10
114.9315842601704
 20
6.440011828510367
 30
0.0
 10
114.9396617885629
 20
6.438764782435702
 30
0.0
 10
114.9478509832233
 20
6.437374243567621
 30
0.0
 10
114.9561451212209
 20
6.435840431546967
 30
0.0
 10
114.9645370462201
 20
6.434163787787202
 30
0.0
 10
114.9730183544594
 20
6.432345140273668
 30
0.0
 10
114.9815819907609
 20
6.430385185060785
 30
0.0
 10
114.9902199334452
 20
6.428284957429996
 30
0.0
 10
114.9989252985322
 20
6.426045311370426
 30
0.0
 10
115.0076912485908
 20
6.423667164616612
 30
0.0
 10
115.0165099517667
 20
6.42115174142429
 30
0.0
 10
115.0253745696975
 20
6.418500135965311
 30
0.0
 10
115.0342768839633
 20
6.415713654441269
 30
0.0
 10
115.0402116708307
 20
6.413774130552486
 30
0.0
 10
115.0431837398554
 20
6.41278194258946
 30
0.0
 11
114.7431837398553
 21
6.367376395889536
 31
0.0
 11
114.7433137771552
 21
6.371817812289477
 31
0.0
 11
114.7437016225554
 21
6.376137395489465
 31
0.0
 11
114.7443436462554
 21
6.380332499089531
 31
0.0
 11
114.7452365225553
 21
6.384403092989471
 31
0.0
 11
114.7463763177553
 21
6.388346317389463
 31
0.0
 11
114.7477595881554
 21
6.392161851589534
 31
0.0
 11
114.7493826604553
 21
6.395848523789467
 31
0.0
 11
114.7512414933554
 21
6.399404704289466
 31
0.0
 11
114.7533331359554
 21
6.402830910289466
 31
0.0
 11
114.7556531830554
 21
6.406125154589473
 31
0.0
 11
114.7581986414553
 21
6.409287743589472
 31
0.0
 11
114.7609659322553
 21
6.412318026289469
 31
0.0
 11
114.7639509344554
 21
6.415214923189481
 31
0.0
 11
114.7671514502554
 21
6.417979201389456
 31
0.0
 11
114.7705629275554
 21
6.42060944868946
 31
0.0
 11
114.7741828418553
 21
6.423105982689505
 31
0.0
 11
114.7780081369554
 21
6.425468563689534
 31
0.0
 11
114.7820345432553
 21
6.427696271889446
 31
0.0
 11
114.7862607452554
 21
6.429789812689462
 31
0.0
 11
114.7906822747553
 21
6.43174817158946
 31
0.0
 11
114.7952966329554
 21
6.43357133658948
 31
0.0
 11
114.8001016738553
 21
6.435259296589535
 31
0.0
 11
114.8050927328554
 21
6.436811160589472
 31
0.0
 11
114.8102691329554
 21
6.438227302689468
 31
0.0
 11
114.8156266607553
 21
6.439506978589477
 31
0.0
 11
114.8211622840553
 21
6.440649834889441
 31
0.0
 11
114.8268748002552
 21
6.441655813089496
 31
0.0
 11
114.8327589796553
 21
6.442524109789458
 31
0.0
 11
114.8388141986554
 21
6.443254659589469
 31
0.0
 11
114.8450365334554
 21
6.443846872889466
 31
0.0
 11
114.8514220251553
 21
6.444300245789449
 31
0.0
 11
114.8579699764554
 21
6.444614470889476
 31
0.0
 11
114.8646745079552
 21
6.44478894268947
 31
0.0
 11
114.8715344022553
 21
6.444823257789536
 31
0.0
 11
114.8785457955552
 21
6.444716907189487
 31
0.0
 11
114.8857035879554
 21
6.444469475889562
 31
0.0
 11
114.8930069267553
 21
6.444080403789469
 31
0.0
 11
114.9004491042553
 21
6.443549399989464
 31
0.0
 11
114.9080279280553
 21
6.442875945889467
 31
0.0
 11
114.9157389987554
 21
6.442059659589474
 31
0.0
 11
114.9235760098554
 21
6.44110043718949
 31
0.0
 11
114.9315373444554
 21
6.43999762688945
 31
0.0
 11
114.9396152056553
 21
6.438751408089487
 31
0.0
 11
114.9478060469554
 21
6.437361413389468
 31
0.0
 11
114.9561024717553
 21
6.435827948089483
 31
0.0
 11
114.9644952602554
 21
6.434151847489558
 31
0.0
 11
114.9729795357554
 21
6.432333227189487
 31
0.0
 11
114.9815441779553
 21
6.430373652689482
 31
0.0
 11
114.9901840068554
 21
6.428273525989467
 31
0.0
 11
114.9988912285553
 21
6.426033911889462
 31
0.0
 11
115.0076581650552
 21
6.423655953789491
 31
0.0
 11
115.0164797443554
 21
6.421140128489454
 31
0.0
 11
115.0253452415552
 21
6.418488584689511
 31
0.0
 11
115.0342498603552
 21
6.415701822189491
 31
0.0
 11
115.0431837398554
 21
6.41278194258946
 31
0.0
  0
SPLINE
  5
59BEA
330
1F
100
AcDbEntity
  8
1
100
AcDbSpline
210
0.0
220
0.0
230
1.0
 70
     8
 71
     3
 72
    10
 73
     6
 74
     4
 42
0.0000000001
 43
0.0000000001
 44
0.000001
 12
0.9485584906845588
 22
-0.3166019421138033
 32
0.0
 13
0.9482991418026321
 23
-0.3173779098431262
 33
0.0
 40
0.0
 40
0.0
 40
0.0
 40
0.0
 40
0.2320469433810693
 40
0.4604696690696274
 40
0.6853431189437767
 40
0.6853431189437767
 40
0.6853431189437767
 40
0.6853431189437767
 10
115.0431837398554
 20
6.41278194258946
 30
0.0
 10
115.1165537726492
 20
6.38829310494412
 30
0.0
 10
115.2621413622065
 20
6.339678285168299
 30
0.0
 10
115.4788079040303
 20
6.267263056522933
 30
0.0
 10
115.6221013066789
 20
6.219327410156219
 30
0.0
 10
115.6931837398555
 20
6.195537454989462
 30
0.0
 11
115.0431837398554
 21
6.41278194258946
 31
0.0
 11
115.2632838233553
 21
6.339285431289467
 31
0.0
 11
115.4799267056554
 21
6.266878228489459
 31
0.0
 11
115.6931837398555
 21
6.195537454989462
 31
0.0
  0
SPLINE
  5
59BEB
330
1F
100
AcDbEntity
  8
1
100
AcDbSpline
210
0.0
220
0.0
230
1.0
 70
     8
 71
     3
 72
    10
 73
     6
 74
     4
 42
0.0000000001
 43
0.0000000001
 44
0.000001
 12
-0.9942521442588873
 22
-0.1070638764318038
 32
0.0
 13
-0.9902166462277705
 23
-0.1395385019749976
 33
0.0
 40
0.0
 40
0.0
 40
0.0
 40
0.0
 40
0.0837732042738554
 40
0.167754619199494
 40
0.2519337057231203
 40
0.2519337057231203
 40
0.2519337057231203
 40
0.2519337057231203
 10
115.9431837398555
 20
6.226610871489483
 30
0.0
 10
115.9154198438619
 20
6.223621176825925
 30
0.0
 10
115.8598552927556
 20
6.217330265706289
 30
0.0
 10
115.7765170802997
 20
6.206972557776516
 30
0.0
 10
115.7209689174355
 20
6.199452862866506
 30
0.0
 10
115.6931837398555
 20
6.195537454989462
 30
0.0
 11
115.9431837398555
 21
6.226610871489483
 31
0.0
 11
115.8599421266554
 21
6.217187385989447
 31
0.0
 11
115.7766021361554
 21
6.206829152089468
 31
0.0
 11
115.6931837398555
 21
6.195537454989462
 31
0.0
  0
SPLINE
  5
59BEC
330
1F
100
AcDbEntity
  8
1
100
AcDbSpline
210
0.0
220
0.0
230
1.0
 70
     8
 71
     3
 72
    21
 73
    17
 74
    15
 42
0.0000000001
 43
0.0000000001
 44
0.000001
 12
-0.5938491264644444
 22
0.8045764196130884
 32
0.0
 13
-0.5973594454780095
 23
0.8019736235676367
 33
0.0
 40
0.0
 40
0.0
 40
0.0
 40
0.0
 40
0.0154725607432924
 40
0.0312424613073478
 40
0.0471978788396291
 40
0.0632291841922151
 40
0.0792057982078184
 40
0.0949953627776058
 40
0.1109483939283349
 40
0.1278685719726309
 40
0.1458671891714485
 40
0.1643220857409698
 40
0.1829993489507629
 40
0.2023738050716497
 40
0.2229721560513408
 40
0.2453352499990874
 40
0.2453352499990874
 40
0.2453352499990874
 40
0.2453352499990874
 10
115.9431837398555
 20
4.452816240789458
 30
0.0
 10
115.9401209509616
 20
4.456965859964486
 30
0.0
 10
115.9339353135287
 20
4.465343955915505
 30
0.0
 10
115.9245870466715
 20
4.477998024156551
 30
0.0
 10
115.915124385558
 20
4.490799141949677
 30
0.0
 10
115.9056170123546
 20
4.503652893865059
 30
0.0
 10
115.8961387922072
 20
4.516459444360195
 30
0.0
 10
115.8866724251893
 20
4.529242306578833
 30
0.0
 10
115.8770151588695
 20
4.542275173065613
 30
0.0
 10
115.8669154958712
 20
4.555896700411266
 30
0.0
 10
115.8563146971995
 20
4.570184841113198
 30
0.0
 10
115.8453601612674
 20
4.584939825055631
 30
0.0
 10
115.8341273127482
 20
4.600059370098732
 30
0.0
 10
115.8224631587552
 20
4.615748568380119
 30
0.0
 10
115.8100601976546
 20
4.632419446904544
 30
0.0
 10
115.8015079175884
 20
4.643905730560383
 30
0.0
 10
115.7970549824552
 20
4.649883934389535
 30
0.0
 11
115.9431837398555
 21
4.452816240789458
 31
0.0
 11
115.9339935907553
 21
4.465263782789534
 31
0.0
 11
115.9246231648554
 21
4.477947823789506
 31
0.0
 11
115.9151387856553
 21
4.490778331089487
 31
0.0
 11
115.9056055285553
 21
4.503667077289533
 31
0.0
 11
115.8961010403553
 21
4.516509075389492
 31
0.0
 11
115.8867042052553
 21
4.529198041089486
 31
0.0
 11
115.8772064281553
 21
4.54201566328946
 31
0.0
 11
115.8671288666553
 21
4.555607395289469
 31
0.0
 11
115.8564045477554
 21
4.570062124489466
 31
0.0
 11
115.8454035468552
 21
4.584879721089507
 31
0.0
 11
115.8342650599552
 21
4.599872194089456
 31
0.0
 11
115.8227056536554
 21
4.615420494589456
 31
0.0
 11
115.8104103324554
 21
4.631946749889451
 31
0.0
 11
115.7970549824552
 21
4.649883934389535
 31
0.0
  0
SPLINE
  5
59BED
330
1F
100
AcDbEntity
  8
1
100
AcDbSpline
210
0.0
220
0.0
230
1.0
 70
     8
 71
     3
 72
    47
 73
    43
 74
    41
 42
0.0000000001
 43
0.0000000001
 44
0.000001
 12
-0.8566194510433307
 22
0.51594875336047
 32
0.0
 13
-0.0007710427847976
 23
0.9999997027464678
 33
0.0
 40
0.0
 40
0.0
 40
0.0
 40
0.0
 40
0.0103118756666381
 40
0.0207453326197697
 40
0.0312923366755395
 40
0.0419467219250365
 40
0.0526988734464293
 40
0.0635421518789189
 40
0.0744651365870064
 40
0.0854567739122952
 40
0.0965007951731901
 40
0.1075892102483522
 40
0.118706887171115
 40
0.1298379202334298
 40
0.1409699218223821
 40
0.1520964023765186
 40
0.1631979253164536
 40
0.1742545195145068
 40
0.1852511952201244
 40
0.1961796716484726
 40
0.2070212089982778
 40
0.2177572742648686
 40
0.2283760226062858
 40
0.2388696067022444
 40
0.2492215028005557
 40
0.259416023476558
 40
0.2694460702235735
 40
0.2793051294659966
 40
0.2889804421859711
 40
0.2984604598224801
 40
0.3077438997546212
 40
0.3168291813532482
 40
0.3257106027413252
 40
0.3343836605421626
 40
0.3428501554971971
 40
0.3511079564064528
 40
0.3591577999894558
 40
0.3670024198220837
 40
0.3746462409090121
 40
0.38209440844383
 40
0.389351528481221
 40
0.3964186791993167
 40
0.3964186791993167
 40
0.3964186791993167
 40
0.3964186791993167
 10
114.9655380263554
 20
5.238589142989447
 30
0.0
 10
114.9625935752645
 20
5.24036260945445
 30
0.0
 10
114.9567034141308
 20
5.243986374058787
 30
0.0
 10
114.9479266345867
 20
5.249623948370015
 30
0.0
 10
114.939164603544
 20
5.255492213120257
 30
0.0
 10
114.9304300851162
 20
5.2615889218279
 30
0.0
 10
114.9217348398158
 20
5.267910966502765
 30
0.0
 10
114.9130921272006
 20
5.27445408372813
 30
0.0
 10
114.9045154377422
 20
5.281213269227934
 30
0.0
 10
114.8960206157224
 20
5.288181076885069
 30
0.0
 10
114.8876223522242
 20
5.295350215079623
 30
0.0
 10
114.8793361365897
 20
5.302712001995205
 30
0.0
 10
114.8711771101265
 20
5.31025731171529
 30
0.0
 10
114.8631611621883
 20
5.317975437740234
 30
0.0
 10
114.8553017898426
 20
5.325857116179477
 30
0.0
 10
114.8476131354251
 20
5.3338918372804
 30
0.0
 10
114.8401107816064
 20
5.342066729434692
 30
0.0
 10
114.8328116790737
 20
5.350366092612055
 30
0.0
 10
114.8257297429781
 20
5.358776281132293
 30
0.0
 10
114.8188782332567
 20
5.367283411314168
 30
0.0
 10
114.8122706984566
 20
5.37587208213706
 30
0.0
 10
114.8059207607821
 20
5.384525219614223
 30
0.0
 10
114.7998392653049
 20
5.393227992600531
 30
0.0
 10
114.7940362366261
 20
5.401965590719287
 30
0.0
 10
114.7885218749652
 20
5.410721547719401
 30
0.0
 10
114.7833055074345
 20
5.419478909245247
 30
0.0
 10
114.7783940966231
 20
5.428222971233236
 30
0.0
 10
114.7737936534601
 20
5.436939385122756
 30
0.0
 10
114.7695102679719
 20
5.445611926883227
 30
0.0
 10
114.7655484376499
 20
5.454225294343178
 30
0.0
 10
114.7619104714399
 20
5.462767055182569
 30
0.0
 10
114.7585975524789
 20
5.471226182816767
 30
0.0
 10
114.755610808955
 20
5.479590228361865
 30
0.0
 10
114.7529503489247
 20
5.487847324262892
 30
0.0
 10
114.7506153393761
 20
5.49598630572558
 30
0.0
 10
114.7486039315282
 20
5.503997282922899
 30
0.0
 10
114.7469135993057
 20
5.511870277191077
 30
0.0
 10
114.7455408790002
 20
5.519597097380727
 30
0.0
 10
114.7444813633099
 20
5.527170677306266
 30
0.0
 10
114.7437311235078
 20
5.5345843593921
 30
0.0
 10
114.7432824436795
 20
5.541829871862512
 30
0.0
 10
114.7431855562138
 20
5.546605187483675
 30
0.0
 10
114.7431837398553
 20
5.548960903689462
 30
0.0
 11
114.9655380263554
 21
5.238589142989447
 31
0.0
 11
114.9567566184554
 21
5.243993210989436
 31
0.0
 11
114.9479776567554
 21
5.249631193489462
 31
0.0
 11
114.9392143567554
 21
5.25550007768946
 31
0.0
 11
114.9304775836554
 21
5.261597998489534
 31
0.0
 11
114.9217809795553
 21
5.267920794389468
 31
0.0
 11
114.9131356937554
 21
5.274465687289462
 31
0.0
 11
114.9045566167554
 21
5.281226673189464
 31
0.0
 11
114.8960581556553
 21
5.288197479689486
 31
0.0
 11
114.8876584730554
 21
5.29536794878949
 31
0.0
 11
114.8793691521553
 21
5.30273272938946
 31
0.0
 11
114.8712069631554
 21
5.310281324789471
 31
0.0
 11
114.8631888404552
 21
5.318002042589441
 31
0.0
 11
114.8553288166554
 21
5.325885021689443
 31
0.0
 11
114.8476366426553
 21
5.333924231789481
 31
0.0
 11
114.8401308364554
 21
5.342103874289462
 31
0.0
 11
114.8328295762554
 21
5.350406869989469
 31
0.0
 11
114.8257471030553
 21
5.358819081889535
 31
0.0
 11
114.8188930221553
 21
5.367331016289469
 31
0.0
 11
114.8122831772554
 21
5.375924544889457
 31
0.0
 11
114.8059324728553
 21
5.384580843089494
 31
0.0
 11
114.7998511650554
 21
5.393285747189493
 31
0.0
 11
114.7940468975553
 21
5.402027922289462
 31
0.0
 11
114.7885316804553
 21
5.41078828578945
 31
0.0
 11
114.7833161549553
 21
5.419547645189466
 31
0.0
 11
114.7784058573553
 21
5.428293538089477
 31
0.0
 11
114.7738057300553
 21
5.437013612689511
 31
0.0
 11
114.7695230600553
 21
5.445689454589468
 31
0.0
 11
114.7655635825554
 21
5.454302995489469
 31
0.0
 11
114.7619280499553
 21
5.462844948989483
 31
0.0
 11
114.7586171810554
 21
5.471305462789452
 31
0.0
 11
114.7556327672553
 21
5.479670432589458
 31
0.0
 11
114.7529754014554
 21
5.487926347589464
 31
0.0
 11
114.7506431703553
 21
5.496065267789454
 31
0.0
 11
114.7486348354552
 21
5.504075114589467
 31
0.0
 11
114.7469477397553
 21
5.511946166489494
 31
0.0
 11
114.7455782728554
 21
5.51967030868947
 31
0.0
 11
114.7445221190553
 21
5.527240794989538
 31
0.0
 11
114.7437745158554
 21
5.534651324189538
 31
0.0
 11
114.7433303155552
 21
5.541894793689528
 31
0.0
 11
114.7431837398553
 21
5.548960903689462
 31
0.0
  0
SPLINE
  5
59BEE
330
1F
100
AcDbEntity
  8
1
100
AcDbSpline
210
0.0
220
0.0
230
1.0
 70
     8
 71
     3
 72
     8
 73
     4
 74
     0
 42
0.0000000001
 43
0.0000000001
 40
0.0
 40
0.0
 40
0.0
 40
0.0
 40
0.0907093091287405
 40
0.0907093091287405
 40
0.0907093091287405
 40
0.0907093091287405
 10
114.9655380263554
 20
5.238589142989447
 30
0.0
 10
114.991441312736
 20
5.222992289479236
 30
0.0
 10
115.0173231706268
 20
5.207359788589704
 30
0.0
 10
115.043183597508
 20
5.191691892136383
 30
0.0
  0
SPLINE
  5
59BEF
330
1F
100
AcDbEntity
  8
1
100
AcDbSpline
210
0.0
220
0.0
230
1.0
 70
     8
 71
     3
 72
    12
 73
     8
 74
     0
 42
0.0000000001
 43
0.0000000001
 40
0.0907093091287405
 40
0.0907093091287405
 40
0.0907093091287405
 40
0.0907093091287405
 40
0.1766378216605041
 40
0.3505434923145399
 40
0.5217649322498119
 40
0.6903469286300059
 40
0.8563367723658529
 40
0.8563367723658529
 40
0.8563367723658529
 40
0.8563367723658529
 10
115.043183597508
 20
5.191691892136383
 30
0.0
 10
115.0676810612929
 20
5.176849765681367
 30
0.0
 10
115.1416993504526
 20
5.131873485177243
 30
0.0
 10
115.2642012926226
 20
5.05678088162616
 30
0.0
 10
115.4097036019629
 20
4.966496495401023
 30
0.0
 10
115.5524753793344
 20
4.876820951543535
 30
0.0
 10
115.64657931074
 20
4.816969506429401
 30
0.0
 10
115.6931837398555
 20
4.787146187989534
 30
0.0
  0
SPLINE
  5
59BF0
330
1F
100
AcDbEntity
  8
1
100
AcDbSpline
210
0.0
220
0.0
230
1.0
 70
     8
 71
     3
 72
    10
 73
     6
 74
     4
 42
0.0000000001
 43
0.0000000001
 44
0.000001
 12
0.6094612037826312
 22
-0.7928158935615671
 32
0.0
 13
0.5973618315855607
 23
-0.8019718462419641
 33
0.0
 40
0.0
 40
0.0
 40
0.0
 40
0.0
 40
0.0575860452096432
 40
0.1149644724832378
 40
0.1721356053179556
 40
0.1721356053179556
 40
0.1721356053179556
 40
0.1721356053179556
 10
115.6931837398555
 20
4.787146187989534
 30
0.0
 10
115.7048825600003
 20
4.771927810693013
 30
0.0
 10
115.7281610730284
 20
4.741486677320955
 30
0.0
 10
115.7627845302158
 20
4.695731483420261
 30
0.0
 10
115.7856710315805
 20
4.66516714737327
 30
0.0
 10
115.7970549824552
 20
4.649883934389535
 30
0.0
 11
115.6931837398555
 21
4.787146187989534
 31
0.0
 11
115.7281643283553
 21
4.741402198889531
 31
0.0
 11
115.7627875948554
 21
4.695647306089468
 31
0.0
 11
115.7970549824552
 21
4.649883934389535
 31
0.0
  0
SPLINE
  5
59BF1
330
1F
100
AcDbEntity
  8
1
100
AcDbSpline
210
0.0
220
0.0
230
1.0
 70
     8
 71
     3
 72
    62
 73
    58
 74
    56
 42
0.0000000001
 43
0.0000000001
 44
0.000001
 12
0.0006142976937595
 22
-0.9999998113191541
 32
0.0
 13
-0.9799204956790051
 23
0.1993886209095526
 33
0.0
 40
0.0
 40
0.0
 40
0.0
 40
0.0
 40
0.0051707503324214
 40
0.0102645624838125
 40
0.0152911996580401
 40
0.0202628251925452
 40
0.0251899365411899
 40
0.0300854942785424
 40
0.0349599191444906
 40
0.0398261644406761
 40
0.0446942824754654
 40
0.0495762936880086
 40
0.0544819993866659
 40
0.0594215989532989
 40
0.0644047391707397
 40
0.0694392741035307
 40
0.0745345102961597
 40
0.0796962902758223
 40
0.0849329125598516
 40
0.0902488896982183
 40
0.0956507066913214
 40
0.1011424828270595
 40
0.1067280612908553
 40
0.1124122629656881
 40
0.1181970807161812
 40
0.1240878030165356
 40
0.1300840821206519
 40
0.1361848491534932
 40
0.1423935313730503
 40
0.1487126128523011
 40
0.1551431045706131
 40
0.1616832313307404
 40
0.1683352041291419
 40
0.175096689239902
 40
0.1819691583484597
 40
0.1889509691731145
 40
0.196040960607237
 40
0.2032393844350979
 40
0.2105428122229469
 40
0.2179523164289951
 40
0.2254637921329141
 40
0.2330772724020057
 40
0.2407898581866642
 40
0.2485988679657832
 40
0.2565035057968355
 40
0.2644987817165354
 40
0.2725841001710082
 40
0.2807528536243456
 40
0.2890028665280261
 40
0.2973289005114274
 40
0.3057263315812049
 40
0.3141929102661996
 40
0.322722720203773
 40
0.3313145765829646
 40
0.3399615625297883
 40
0.3486617390874768
 40
0.3574102854787527
 40
0.3574102854787527
 40
0.3574102854787527
 40
0.3574102854787527
 10
112.7050057283552
 20
-6.177917988210495
 30
0.0
 10
112.7050067871485
 20
-6.179641571329429
 30
0.0
 10
112.7049162028251
 20
-6.183063848222161
 30
0.0
 10
112.7045087193693
 20
-6.188146972430441
 30
0.0
 10
112.703831282666
 20
-6.193134479163322
 30
0.0
 10
112.7028880249167
 20
-6.198021998981473
 30
0.0
 10
112.7016823834103
 20
-6.202806477687182
 30
0.0
 10
112.700218389748
 20
-6.207484378427695
 30
0.0
 10
112.6984999840143
 20
-6.212053229161964
 30
0.0
 10
112.6965315511984
 20
-6.216510017835584
 30
0.0
 10
112.6943173103197
 20
-6.220852700244398
 30
0.0
 10
112.6918618833019
 20
-6.225078847177389
 30
0.0
 10
112.6891697310836
 20
-6.229186691621356
 30
0.0
 10
112.6862455072419
 20
-6.233174458892118
 30
0.0
 10
112.6830939295964
 20
-6.237040522863902
 30
0.0
 10
112.6797195285105
 20
-6.240783707470779
 30
0.0
 10
112.6761272223306
 20
-6.244402541584671
 30
0.0
 10
112.6723213516022
 20
-6.24789629739635
 30
0.0
 10
112.6683068904081
 20
-6.251263735786343
 30
0.0
 10
112.6640881247821
 20
-6.25450431012947
 30
0.0
 10
112.6596698851816
 20
-6.257617105791997
 30
0.0
 10
112.6550566488093
 20
-6.260601531953581
 30
0.0
 10
112.6502528278433
 20
-6.263457096635407
 30
0.0
 10
112.6452629119321
 20
-6.266183270549612
 30
0.0
 10
112.6400904604909
 20
-6.268780030125903
 30
0.0
 10
112.6347400664279
 20
-6.271246768052732
 30
0.0
 10
112.6292168353922
 20
-6.273582719869523
 30
0.0
 10
112.623526096152
 20
-6.275787230201054
 30
0.0
 10
112.6176719222116
 20
-6.277860202487137
 30
0.0
 10
112.6116573328437
 20
-6.279801807209042
 30
0.0
 10
112.6054866364476
 20
-6.281611706527245
 30
0.0
 10
112.5991639346978
 20
-6.283289661772794
 30
0.0
 10
112.5926941285463
 20
-6.284835239211857
 30
0.0
 10
112.586080816351
 20
-6.286248343294547
 30
0.0
 10
112.5793286129564
 20
-6.28752864633686
 30
0.0
 10
112.5724415376017
 20
-6.288675941454267
 30
0.0
 10
112.5654238171996
 20
-6.289689994832281
 30
0.0
 10
112.5582800907007
 20
-6.290570510386549
 30
0.0
 10
112.551014101394
 20
-6.291317319761055
 30
0.0
 10
112.5436308904805
 20
-6.291930108079166
 30
0.0
 10
112.5361342222228
 20
-6.292408686269036
 30
0.0
 10
112.5285290639401
 20
-6.292752780636256
 30
0.0
 10
112.5208198058147
 20
-6.292962156327586
 30
0.0
 10
112.5130110214338
 20
-6.293036584640521
 30
0.0
 10
112.5051078984388
 20
-6.292975834463807
 30
0.0
 10
112.4971148568322
 20
-6.292779694907996
 30
0.0
 10
112.4890381879905
 20
-6.292448021154045
 30
0.0
 10
112.4808831877167
 20
-6.29198070148463
 30
0.0
 10
112.4726566429767
 20
-6.291377776191119
 30
0.0
 10
112.464364632275
 20
-6.290639319781051
 30
0.0
 10
112.4560132146259
 20
-6.289765477393806
 30
0.0
 10
112.4476086375642
 20
-6.288756458243925
 30
0.0
 10
112.4391559792753
 20
-6.287612373254207
 30
0.0
 10
112.4306618450054
 20
-6.286333526977937
 30
0.0
 10
112.4221314851332
 20
-6.284920149165822
 30
0.0
 10
112.413571431311
 20
-6.283372354225827
 30
0.0
 10
112.4078633549941
 20
-6.282254604743819
 30
0.0
 10
112.4050057283554
 20
-6.281673151210513
 30
0.0
 11
112.7050057283552
 21
-6.177917988210495
 31
0.0
 11
112.7048687426553
 21
-6.183087867610467
 31
0.0
 11
112.7044597889552
 21
-6.188165229410527
 31
0.0
 11
112.7037821229553
 21
-6.193145966910504
 31
0.0
 11
112.7028390759554
 21
-6.198027321010512
 31
0.0
 11
112.7016345456553
 21
-6.20280491791054
 31
0.0
 11
112.7001721018553
 21
-6.207476924810534
 31
0.0
 11
112.6984561760554
 21
-6.212039328510527
 31
0.0
 11
112.6964904664554
 21
-6.216490872810467
 31
0.0
 11
112.6942797776554
 21
-6.220828078410518
 31
0.0
 11
112.6918280312553
 21
-6.225049796510531
 31
0.0
 11
112.6891400282552
 21
-6.229153517410465
 31
0.0
 11
112.6862201758553
 21
-6.233137742410534
 31
0.0
 11
112.6830728468553
 21
-6.237001154810527
 31
0.0
 11
112.6797031846553
 21
-6.240741726010512
 31
0.0
 11
112.6761149317554
 21
-6.244359160510512
 31
0.0
 11
112.6723137546554
 21
-6.247851293010526
 31
0.0
 11
112.6683030439553
 21
-6.251218247310518
 31
0.0
 11
112.6640885033554
 21
-6.254458190710535
 31
0.0
 11
112.6596737907552
 21
-6.257571053710491
 31
0.0
 11
112.6550639133553
 21
-6.260555784110536
 31
0.0
 11
112.6502636267554
 21
-6.263411641010506
 31
0.0
 11
112.6452763134552
 21
-6.266138698210497
 31
0.0
 11
112.6401073217553
 21
-6.268735933310537
 31
0.0
 11
112.6347585754553
 21
-6.271204032510539
 31
0.0
 11
112.6292366396553
 21
-6.273541463110532
 31
0.0
 11
112.6235484629553
 21
-6.27574691091054
 31
0.0
 11
112.6176964489554
 21
-6.277820956410535
 31
0.0
 11
112.6116834496553
 21
-6.279763797010544
 31
0.0
 11
112.6055133522553
 21
-6.281575184010548
 31
0.0
 11
112.5991924333554
 21
-6.283254244710532
 31
0.0
 11
112.5927228530554
 21
-6.284801266610528
 31
0.0
 11
112.5861109212553
 21
-6.286215495710492
 31
0.0
 11
112.5793590063552
 21
-6.287497089710554
 31
0.0
 11
112.5724723073554
 21
-6.28864559601051
 31
0.0
 11
112.5654553659554
 21
-6.289660741510558
 31
0.0
 11
112.5583111450554
 21
-6.290542457310535
 31
0.0
 11
112.5510460998554
 21
-6.291290244710537
 31
0.0
 11
112.5436620680553
 21
-6.291904116110528
 31
0.0
 11
112.5361659118554
 21
-6.292383617310534
 31
0.0
 11
112.5285602522553
 21
-6.292728634010543
 31
0.0
 11
112.5208505314553
 21
-6.292938867310496
 31
0.0
 11
112.5130418830553
 21
-6.293014086510467
 31
0.0
 11
112.5051374721553
 21
-6.292954067910542
 31
0.0
 11
112.4971445844553
 21
-6.292758623510464
 31
0.0
 11
112.4890660475553
 21
-6.292427516410512
 31
0.0
 11
112.4809106385554
 21
-6.291960768710468
 31
0.0
 11
112.4726826530554
 21
-6.291358286810535
 31
0.0
 11
112.4643893955553
 21
-6.290620222210533
 31
0.0
 11
112.4560375107552
 21
-6.289746788310465
 31
0.0
 11
112.4476312464552
 21
-6.288737980310527
 31
0.0
 11
112.4391784632553
 21
-6.287594244010549
 31
0.0
 11
112.4306823081554
 21
-6.286315430410539
 31
0.0
 11
112.4221515844554
 21
-6.28490222841053
 31
0.0
 11
112.4135901637554
 21
-6.283354594110519
 31
0.0
 11
112.4050057283554
 21
-6.281673151210513
 31
0.0
  0
SPLINE
  5
59BF2
330
1F
100
AcDbEntity
  8
1
100
AcDbSpline
210
0.0
220
0.0
230
1.0
 70
     8
 71
     3
 72
    10
 73
     6
 74
     4
 42
0.0000000001
 43
0.0000000001
 44
0.000001
 12
-0.9799301052694941
 22
0.1993413875403648
 32
0.0
 13
-0.9798394573704811
 23
0.1997864804733319
 33
0.0
 40
0.0
 40
0.0
 40
0.0
 40
0.0
 40
0.2232296895753032
 40
0.4443295422585503
 40
0.663343114331728
 40
0.663343114331728
 40
0.663343114331728
 40
0.663343114331728
 10
112.4050057283554
 20
-6.281673151210513
 30
0.0
 10
112.3320892306205
 20
-6.266840179190464
 30
0.0
 10
112.1869541512179
 20
-6.237304847297006
 30
0.0
 10
111.9702875090347
 20
-6.193178531334937
 30
0.0
 10
111.8265384415609
 20
-6.163879917723991
 30
0.0
 10
111.7550057283553
 20
-6.149294600810527
 30
0.0
 11
112.4050057283554
 21
-6.281673151210513
 31
0.0
 11
112.1862596032553
 21
-6.237157681210518
 31
0.0
 11
111.9696071812554
 21
-6.193034299010534
 31
0.0
 11
111.7550057283553
 21
-6.149294600810527
 31
0.0
  0
SPLINE
  5
59BF3
330
1F
100
AcDbEntity
  8
1
100
AcDbSpline
210
0.0
220
0.0
230
1.0
 70
     8
 71
     3
 72
    10
 73
     6
 74
     4
 42
0.0000000001
 43
0.0000000001
 44
0.000001
 12
-0.9493478811756721
 22
-0.3142269888269655
 32
0.0
 13
-0.9591708960072038
 23
-0.2828271420015022
 33
0.0
 40
0.0
 40
0.0
 40
0.0
 40
0.0
 40
0.0874271732508938
 40
0.1747460437186176
 40
0.2619602053885741
 40
0.2619602053885741
 40
0.2619602053885741
 40
0.2619602053885741
 10
111.7550057283553
 20
-6.149294600810527
 30
0.0
 10
111.7273394611276
 20
-6.158451926607955
 30
0.0
 10
111.6719406156942
 20
-6.176453024398767
 30
0.0
 10
111.5886024875687
 20
-6.202526494496927
 30
0.0
 10
111.5328901568864
 20
-6.219287811148113
 30
0.0
 10
111.5050057283553
 20
-6.227509988510504
 30
0.0
 11
111.7550057283553
 21
-6.149294600810527
 31
0.0
 11
111.6718576465554
 21
-6.176311657410463
 31
0.0
 11
111.5885224300553
 21
-6.202384496010508
 31
0.0
 11
111.5050057283553
 21
-6.227509988510504
 31
0.0
  0
SPLINE
  5
59BF4
330
1F
100
AcDbEntity
  8
1
100
AcDbSpline
210
0.0
220
0.0
230
1.0
 70
     8
 71
     3
 72
    12
 73
     8
 74
     6
 42
0.0000000001
 43
0.0000000001
 44
0.000001
 12
0.6147696069401785
 22
-0.788706745490755
 32
0.0
 13
0.6168862435472593
 23
-0.7870523251488122
 33
0.0
 40
0.0
 40
0.0
 40
0.0
 40
0.0
 40
0.0517285417851988
 40
0.1053587017632382
 40
0.1599356182825972
 40
0.2145092547824602
 40
0.268127067582925
 40
0.268127067582925
 40
0.268127067582925
 40
0.268127067582925
 10
111.5050057283553
 20
-4.274658423110466
 30
0.0
 10
111.5156061067889
 20
-4.288257973057262
 30
0.0
 10
111.5372041762513
 20
-4.315951068648696
 30
0.0
 10
111.5700133076541
 20
-4.357971503533187
 30
0.0
 10
111.6034295698626
 20
-4.400721089646869
 30
0.0
 10
111.6368663849623
 20
-4.443449375714729
 30
0.0
 10
111.6591065095467
 20
-4.471839089465881
 30
0.0
 10
111.6701318732553
 20
-4.485905764210548
 30
0.0
 11
111.5050057283553
 21
-4.274658423110466
 31
0.0
 11
111.5368179132552
 21
-4.315448459110527
 31
0.0
 11
111.5698228851554
 21
-4.357719796710546
 31
0.0
 11
111.6034341799553
 21
-4.400718874010536
 31
0.0
 11
111.6370666173553
 21
-4.443697250310505
 31
0.0
 11
111.6701318732553
 21
-4.485905764210548
 31
0.0
  0
SPLINE
  5
59BF5
330
1F
100
AcDbEntity
  8
1
100
AcDbSpline
210
0.0
220
0.0
230
1.0
 70
     8
 71
     3
 72
    10
 73
     6
 74
     4
 42
0.0000000001
 43
0.0000000001
 44
0.000001
 12
0.616883210038262
 22
-0.7870547027830338
 32
0.0
 13
0.6270533906669255
 23
-0.7789762802891448
 33
0.0
 40
0.0
 40
0.0
 40
0.0
 40
0.0
 40
0.0453660337969031
 40
0.0908522225807268
 40
0.1364577946071096
 40
0.1364577946071096
 40
0.1364577946071096
 40
0.1364577946071096
 10
111.6701318732553
 20
-4.485905764210548
 30
0.0
 10
111.679460388107
 20
-4.497807614292704
 30
0.0
 10
111.6981936510311
 20
-4.52160250565447
 30
0.0
 10
111.7264848248066
 20
-4.557219792022943
 30
0.0
 10
111.7454733521645
 20
-4.580913893124609
 30
0.0
 10
111.7550057283553
 20
-4.592755779410466
 30
0.0
 11
111.6701318732553
 21
-4.485905764210548
 31
0.0
 11
111.6981944802553
 21
-4.521550789610514
 31
0.0
 11
111.7264857323553
 21
-4.557168158810539
 31
0.0
 11
111.7550057283553
 21
-4.592755779410466
 31
0.0
  0
SPLINE
  5
59BF6
330
1F
100
AcDbEntity
  8
1
100
AcDbSpline
210
0.0
220
0.0
230
1.0
 70
     8
 71
     3
 72
    11
 73
     7
 74
     0
 42
0.0000000001
 43
0.0000000001
 40
0.0
 40
0.0
 40
0.0
 40
0.0
 40
0.1980361307912455
 40
0.3995097680189669
 40
0.6045521737308884
 40
0.7269514753957546
 40
0.7269514753957546
 40
0.7269514753957546
 40
0.7269514753957546
 10
111.7550057283553
 20
-4.592755779410466
 30
0.0
 10
111.8136902530492
 20
-4.622983522649413
 30
0.0
 10
111.9322704493179
 20
-4.683590820296344
 30
0.0
 10
112.1122918588554
 20
-4.774156157249905
 30
0.0
 10
112.2702834348895
 20
-4.852402762489318
 30
0.0
 10
112.3683249020648
 20
-4.900372408111735
 30
0.0
 10
112.4050055975079
 20
-4.918237263510461
 30
0.0
  0
SPLINE
  5
59BF7
330
1F
100
AcDbEntity
  8
1
100
AcDbSpline
210
0.0
220
0.0
230
1.0
 70
     8
 71
     3
 72
     8
 73
     4
 74
     0
 42
0.0000000001
 43
0.0000000001
 40
0.7269514753957546
 40
0.7269514753957546
 40
0.7269514753957546
 40
0.7269514753957546
 40
0.8132629898270955
 40
0.8132629898270955
 40
0.8132629898270955
 40
0.8132629898270955
 10
112.4050055975079
 20
-4.918237263510461
 30
0.0
 10
112.4308714834325
 20
-4.930834906663554
 30
0.0
 10
112.4567534399124
 20
-4.943399516497804
 30
0.0
 10
112.4826514418553
 20
-4.955930894810492
 30
0.0
  0
SPLINE
  5
59BF8
330
1F
100
AcDbEntity
  8
1
100
AcDbSpline
210
0.0
220
0.0
230
1.0
 70
     8
 71
     3
 72
    49
 73
    45
 74
    43
 42
0.0000000001
 43
0.0000000001
 44
0.000001
 12
0.9000919592100965
 22
-0.4356999712707476
 32
0.0
 13
0.0004468557548133
 23
-0.9999999001599622
 33
0.0
 40
0.0
 40
0.0
 40
0.0
 40
0.0
 40
0.0088538232760553
 40
0.0178113735478666
 40
0.0268700528149098
 40
0.0360311203774316
 40
0.0452903059394322
 40
0.0546477442596188
 40
0.0640987153707496
 40
0.0736402671092766
 40
0.0832682894414653
 40
0.0929767830042874
 40
0.1027617770875282
 40
0.1126150223402376
 40
0.122531755737985
 40
0.1325020718653167
 40
0.1425200228908352
 40
0.1525748383801323
 40
0.1626592003064815
 40
0.1727612483958609
 40
0.182872732123307
 40
0.1929825646493361
 40
0.2030810872790035
 40
0.2131530805570313
 40
0.2231892172553644
 40
0.2331799398559535
 40
0.2431130197563971
 40
0.2529768378052591
 40
0.2627682532152519
 40
0.2724789046904352
 40
0.2820959988531036
 40
0.2916076015963317
 40
0.3010109875475841
 40
0.3103006311798067
 40
0.3194671874500394
 40
0.3285022029424986
 40
0.3374064674394202
 40
0.3461792042112893
 40
0.3548160465405383
 40
0.3633133670462398
 40
0.3716736207518436
 40
0.37989726163629
 40
0.3879834051377062
 40
0.3959327820392931
 40
0.3959327820392931
 40
0.3959327820392931
 40
0.3959327820392931
 10
112.4826514418553
 20
-4.955930894810492
 30
0.0
 10
112.485307860235
 20
-4.95721676499283
 30
0.0
 10
112.4906247109864
 20
-4.959860035412161
 30
0.0
 10
112.4985574834556
 20
-4.96401998358489
 30
0.0
 10
112.5064890762907
 20
-4.96839831780708
 30
0.0
 10
112.5144116418975
 20
-4.972996684162622
 30
0.0
 10
112.5223183640314
 20
-4.977816476452644
 30
0.0
 10
112.5302005035614
 20
-4.982858079828611
 30
0.0
 10
112.5380496246755
 20
-4.988121882397097
 30
0.0
 10
112.5458560301135
 20
-4.993607278633284
 30
0.0
 10
112.553609620872
 20
-4.99931315566561
 30
0.0
 10
112.5612999934476
 20
-5.005237904194573
 30
0.0
 10
112.5689156390404
 20
-5.011378753213419
 30
0.0
 10
112.5764453948391
 20
-5.017732820979117
 30
0.0
 10
112.5838766282585
 20
-5.024295565944515
 30
0.0
 10
112.5911973768237
 20
-5.031062509534649
 30
0.0
 10
112.5983943172878
 20
-5.038027363491091
 30
0.0
 10
112.6054549112989
 20
-5.045183934320657
 30
0.0
 10
112.6123654213575
 20
-5.052524114157339
 30
0.0
 10
112.6191129372328
 20
-5.060039839412159
 30
0.0
 10
112.625683975897
 20
-5.067721548193544
 30
0.0
 10
112.6320658351991
 20
-5.075559651203373
 30
0.0
 10
112.63824470148
 20
-5.083542147327046
 30
0.0
 10
112.644207619801
 20
-5.091656792719486
 30
0.0
 10
112.6499421724846
 20
-5.099890684566356
 30
0.0
 10
112.6554369896648
 20
-5.108231103774619
 30
0.0
 10
112.6606808088513
 20
-5.116664047074531
 30
0.0
 10
112.6656640906763
 20
-5.125176666583371
 30
0.0
 10
112.6703783702082
 20
-5.133756695662364
 30
0.0
 10
112.6748153736438
 20
-5.142391022015415
 30
0.0
 10
112.6789661385716
 20
-5.151063294484539
 30
0.0
 10
112.6828234041165
 20
-5.15975814575549
 30
0.0
 10
112.6863815935305
 20
-5.168461848490096
 30
0.0
 10
112.6896360047267
 20
-5.177160988000476
 30
0.0
 10
112.6925820034645
 20
-5.185839826351628
 30
0.0
 10
112.6952165774362
 20
-5.194484055733235
 30
0.0
 10
112.6975382556044
 20
-5.203081668202487
 30
0.0
 10
112.6995463874731
 20
-5.211621631801682
 30
0.0
 10
112.7012406057946
 20
-5.220091126373385
 30
0.0
 10
112.7026215353694
 20
-5.228478032156996
 30
0.0
 10
112.7036909465341
 20
-5.236771515753154
 30
0.0
 10
112.7044506807061
 20
-5.244961480075608
 30
0.0
 10
112.704905575956
 20
-5.253036847386617
 30
0.0
 10
112.7050045442802
 20
-5.258382551974585
 30
0.0
 10
112.7050057283552
 20
-5.261032344010558
 30
0.0
 11
112.4826514418553
 21
-4.955930894810492
 31
0.0
 11
112.4905783120554
 21
-4.959872754510527
 31
0.0
 11
112.4985115756553
 21
-4.964032210510495
 31
0.0
 11
112.5064422930553
 21
-4.968409807410536
 31
0.0
 11
112.5143656337554
 21
-4.973008260610541
 31
0.0
 11
112.5222718332552
 21
-4.977827436510537
 31
0.0
 11
112.5301548035553
 21
-4.982869296610529
 31
0.0
 11
112.5380042284554
 21
-4.988133069010543
 31
0.0
 11
112.5458112205554
 21
-4.993618686110536
 31
0.0
 11
112.5535658629553
 21
-4.999325194810538
 31
0.0
 11
112.5612566968554
 21
-5.005250211510556
 31
0.0
 11
112.5688738634553
 21
-5.011392261610538
 31
0.0
 11
112.5764041768554
 21
-5.017746843810542
 31
0.0
 11
112.5838371886554
 21
-5.02431128021054
 31
0.0
 11
112.5911586517553
 21
-5.031079091210513
 31
0.0
 11
112.5983573811552
 21
-5.038045978410464
 31
0.0
 11
112.6054188436553
 21
-5.045203836810528
 31
0.0
 11
112.6123311603552
 21
-5.052546459210546
 31
0.0
 11
112.6190795477554
 21
-5.060063806410497
 31
0.0
 11
112.6256519557553
 21
-5.067747908010531
 31
0.0
 11
112.6320347441554
 21
-5.075588098210531
 31
0.0
 11
112.6382155372553
 21
-5.083574199110514
 31
0.0
 11
112.6441790419554
 21
-5.091690941510464
 31
0.0
 11
112.6499140816554
 21
-5.099927032910541
 31
0.0
 11
112.6554097264552
 21
-5.108270429310536
 31
0.0
 11
112.6606540946553
 21
-5.116706216810527
 31
0.0
 11
112.6656363286553
 21
-5.125219270210536
 31
0.0
 11
112.6703502911554
 21
-5.133801239410516
 31
0.0
 11
112.6747875036553
 21
-5.142438815110536
 31
0.0
 11
112.6789381706553
 21
-5.151114083110556
 31
0.0
 11
112.6827939210553
 21
-5.159809115110546
 31
0.0
 11
112.6863508600554
 21
-5.168513806510545
 31
0.0
 11
112.6896043586553
 21
-5.177215071910509
 31
0.0
 11
112.6925492145554
 21
-5.185895703510468
 31
0.0
 11
112.6951816330554
 21
-5.194538715610534
 31
0.0
 11
112.6975012793554
 21
-5.203135513810464
 31
0.0
 11
112.6995076405554
 21
-5.211675723810528
 31
0.0
 11
112.7011999955555
 21
-5.22014512331055
 31
0.0
 11
112.7025787530554
 21
-5.228529824310541
 31
0.0
 11
112.7036460465554
 21
-5.236821652610544
 31
0.0
 11
112.7044041769553
 21
-5.245010248910531
 31
0.0
 11
112.7048560892554
 21
-5.253083708010493
 31
0.0
 11
112.7050057283552
 21
-5.261032344010558
 31
0.0
  0
ARC
  5
59BF9
330
1F
100
AcDbEntity
  8
1
100
AcDbCircle
 10
115.094363597508
 20
-1.942583999999995
 30
0.0
 40
1.0
100
AcDbArc
 50
90.0
 51
142.1255119999994
  0
ARC
  5
59BFA
330
1F
100
AcDbEntity
  8
1
100
AcDbCircle
 10
112.353826597508
 20
0.3663799999999782
 30
0.0
 40
1.0
100
AcDbArc
 50
270.0
 51
322.1255119999994
  0
ARC
  5
59BFB
330
1F
100
AcDbEntity
  8
1
100
AcDbCircle
 10
113.499999597508
 20
-0.0000000000000142
 30
0.0
 40
2.399999999999999
100
AcDbArc
 50
195.3080360000003
 51
221.7200290000019
  0
ARC
  5
59BFC
330
1F
100
AcDbEntity
  8
1
100
AcDbCircle
 10
113.499999597508
 20
-0.0000000000000142
 30
0.0
 40
2.399999999999999
100
AcDbArc
 50
336.8746840000005
 51
1.2598589999997
  0
ARC
  5
59BFD
330
1F
100
AcDbEntity
  8
1
100
AcDbCircle
 10
113.499999597508
 20
-0.0000000000000142
 30
0.0
 40
7.2
100
AcDbArc
 50
98.44004699999928
 51
154.6699359999999
  0
ARC
  5
59BFE
330
1F
100
AcDbEntity
  8
1
100
AcDbCircle
 10
113.499999597508
 20
-0.0000000000000142
 30
0.0
 40
7.2
100
AcDbArc
 50
154.6699359999999
 51
236.8010840000014
  0
ARC
  5
59BFF
330
1F
100
AcDbEntity
  8
1
100
AcDbCircle
 10
113.499999597508
 20
-0.0000000000000142
 30
0.0
 40
7.2
100
AcDbArc
 50
282.7935879999986
 51
70.16387300000106
  0
ARC
  5
59C00
330
1F
100
AcDbEntity
  8
1
100
AcDbCircle
 10
113.499999597508
 20
-0.0000000000000142
 30
0.0
 40
7.2
100
AcDbArc
 50
237.000273999999
 51
253.9138439999995
  0
ARC
  5
59C01
330
1F
100
AcDbEntity
  8
1
100
AcDbCircle
 10
113.499999597508
 20
-0.0000000000000142
 30
0.0
 40
7.2
100
AcDbArc
 50
282.0654769999995
 51
282.7935879999986
  0
ARC
  5
59C02
330
1F
100
AcDbEntity
  8
1
100
AcDbCircle
 10
113.499999597508
 20
-0.0000000000000142
 30
0.0
 40
7.2
100
AcDbArc
 50
56.80108400000147
 51
70.16387300000106
  0
ARC
  5
59C03
330
1F
100
AcDbEntity
  8
1
100
AcDbCircle
 10
114.999999597508
 20
-0.0000000000000142
 30
0.0
 40
7.754264999999997
100
AcDbArc
 50
202.6313279999995
 51
208.5450880000013
  0
ARC
  5
59C04
330
1F
100
AcDbEntity
  8
1
100
AcDbCircle
 10
114.999999597508
 20
-0.0000000000000142
 30
0.0
 40
8.099999999999999
100
AcDbArc
 50
184.4865279999998
 51
201.6154670000005
  0
ARC
  5
59C05
330
1F
100
AcDbEntity
  8
1
100
AcDbCircle
 10
114.999999597508
 20
-0.0000000000000142
 30
0.0
 40
8.099999999999999
100
AcDbArc
 50
228.0648030000016
 51
228.377859999998
  0
ARC
  5
59C06
330
1F
100
AcDbEntity
  8
1
100
AcDbCircle
 10
111.999999597508
 20
-0.0000000000000142
 30
0.0
 40
8.099999999999999
100
AcDbArc
 50
353.1766340000003
 51
15.96243400000106
  0
ARC
  5
59C07
330
1F
100
AcDbEntity
  8
1
100
AcDbCircle
 10
111.999999597508
 20
-0.0000000000000142
 30
0.0
 40
8.099999999999999
100
AcDbArc
 50
38.86254300000121
 51
48.37785999999804
  0
ARC
  5
59C08
330
1F
100
AcDbEntity
  8
1
100
AcDbCircle
 10
114.999999597508
 20
-0.0000000000000142
 30
0.0
 40
8.150188999999999
100
AcDbArc
 50
201.4757299999996
 51
213.304102
  0
ARC
  5
59C09
330
1F
100
AcDbEntity
  8
1
100
AcDbCircle
 10
111.999999597508
 20
-0.0000000000000142
 30
0.0
 40
8.200152
100
AcDbArc
 50
15.76237199999959
 51
19.07950900000082
  0
LINE
  5
59C0A
330
1F
100
AcDbEntity
  8
1
100
AcDbLine
 10
115.005005597508
 20
-7.742583999999978
 30
0.0
 11
111.505005597508
 21
-7.062252999999983
 31
0.0
  0
LINE
  5
59C0B
330
1F
100
AcDbEntity
  8
1
100
AcDbLine
 10
108.188332597508
 20
-3.705377000000011
 30
0.0
 11
108.188332597508
 21
-4.475126999999999
 31
0.0
  0
LINE
  5
59C0C
330
1F
100
AcDbEntity
  8
1
100
AcDbLine
 10
111.505005597508
 20
-2.750414999999989
 30
0.0
 11
111.444797597508
 21
-2.715654000000014
 31
0.0
  0
LINE
  5
59C0D
330
1F
100
AcDbEntity
  8
1
100
AcDbLine
 10
107.842813597508
 20
-2.983841000000026
 30
0.0
 11
107.415656597508
 21
-2.983841000000026
 31
0.0
  0
LINE
  5
59C0E
330
1F
100
AcDbEntity
  8
1
100
AcDbLine
 10
111.505005597508
 20
-1.836029999999979
 30
0.0
 11
111.694764597508
 21
-1.836029999999979
 31
0.0
  0
LINE
  5
59C0F
330
1F
100
AcDbEntity
  8
1
100
AcDbLine
 10
112.505005597508
 20
-1.646039000000015
 30
0.0
 11
111.505209597508
 21
-1.646039000000015
 31
0.0
  0
LINE
  5
59C10
330
1F
100
AcDbEntity
  8
1
100
AcDbLine
 10
111.505005597508
 20
-1.646131000000011
 30
0.0
 11
111.505005597508
 21
-1.872914999999991
 31
0.0
  0
LINE
  5
59C11
330
1F
100
AcDbEntity
  8
1
100
AcDbLine
 10
111.505005597508
 20
-1.872914999999991
 30
0.0
 11
111.505005597508
 21
-4.274658423110466
 31
0.0
  0
LINE
  5
59C12
330
1F
100
AcDbEntity
  8
1
100
AcDbLine
 10
111.505005597508
 20
-4.274658423110466
 30
0.0
 11
111.505005597508
 21
-4.754699999999998
 31
0.0
  0
LINE
  5
59C13
330
1F
100
AcDbEntity
  8
1
100
AcDbLine
 10
111.505005597508
 20
-7.062252999999983
 30
0.0
 11
111.505005597508
 21
-5.749560000000016
 31
0.0
  0
LINE
  5
59C14
330
1F
100
AcDbEntity
  8
1
100
AcDbLine
 10
111.755005597508
 20
-6.149295000000036
 30
0.0
 11
111.755005597508
 21
-5.822229999999976
 31
0.0
  0
LINE
  5
59C15
330
1F
100
AcDbEntity
  8
1
100
AcDbLine
 10
115.707155597508
 20
-0.9425839999999963
 30
0.0
 11
115.094363597508
 21
-0.9425839999999963
 31
0.0
  0
LINE
  5
59C16
330
1F
100
AcDbEntity
  8
1
100
AcDbLine
 10
119.981864597508
 20
-0.9425839999999963
 30
0.0
 11
115.707155597508
 21
-0.9425839999999963
 31
0.0
  0
LINE
  5
59C17
330
1F
100
AcDbEntity
  8
1
100
AcDbLine
 10
112.505005597508
 20
-1.646039000000015
 30
0.0
 11
114.305005597508
 21
-1.328649999999995
 31
0.0
  0
LINE
  5
59C18
330
1F
100
AcDbEntity
  8
1
100
AcDbLine
 10
115.005005597508
 20
-1.192583999999995
 30
0.0
 11
111.505005597508
 21
-1.872914999999991
 31
0.0
  0
LINE
  5
59C19
330
1F
100
AcDbEntity
  8
1
100
AcDbLine
 10
112.255005597508
 20
-4.844706000000016
 30
0.0
 11
112.255005597508
 21
-4.968029000000014
 31
0.0
  0
LINE
  5
59C1A
330
1F
100
AcDbEntity
  8
4
100
AcDbLine
 10
113.499999597508
 20
-10.23241014858971
 30
0.0
 11
113.499999597508
 21
10.23241014858968
 31
0.0
  0
LINE
  5
59C1B
330
1F
100
AcDbEntity
  8
1
100
AcDbLine
 10
112.4050055975079
 20
-4.918219000000006
 30
0.0
 11
112.4050055975079
 21
-5.876558000000001
 31
0.0
  0
LINE
  5
59C1C
330
1F
100
AcDbEntity
  8
4
100
AcDbLine
 10
123.7324097460978
 20
-0.0000000000000142
 30
0.0
 11
103.2675894489183
 21
-0.0000000000000142
 31
0.0
  0
LINE
  5
59C1D
330
1F
100
AcDbEntity
  8
1
100
AcDbLine
 10
112.443183597508
 20
5.250345999999986
 30
0.0
 11
112.443183597508
 21
-0.3836200000000218
 31
0.0
  0
LINE
  5
59C1E
330
1F
100
AcDbEntity
  8
1
100
AcDbLine
 10
112.443183597508
 20
5.250345999999986
 30
0.0
 11
112.443183597508
 21
7.816379999999995
 31
0.0
  0
LINE
  5
59C1F
330
1F
100
AcDbEntity
  8
1
100
AcDbLine
 10
111.185150597508
 20
-0.633620000000022
 30
0.0
 11
106.895059597508
 21
-0.633620000000022
 31
0.0
  0
LINE
  5
59C20
330
1F
100
AcDbEntity
  8
1
100
AcDbLine
 10
111.185150597508
 20
-0.633620000000022
 30
0.0
 11
112.353826597508
 21
-0.633620000000022
 31
0.0
  0
LINE
  5
59C21
330
1F
100
AcDbEntity
  8
1
100
AcDbLine
 10
114.9431835975081
 20
0.0698349999999977
 30
0.0
 11
113.1431835975079
 21
-0.2475529999999964
 31
0.0
  0
LINE
  5
59C22
330
1F
100
AcDbEntity
  8
1
100
AcDbLine
 10
113.9431835975081
 20
-0.0920489999999887
 30
0.0
 11
112.443183597508
 21
-0.3836200000000218
 31
0.0
  0
LINE
  5
59C23
330
1F
100
AcDbEntity
  8
1
100
AcDbLine
 10
112.705005597508
 20
-5.261031999999985
 30
0.0
 11
112.705005597508
 21
-6.177918000000018
 31
0.0
  0
LINE
  5
59C24
330
1F
100
AcDbEntity
  8
1
100
AcDbLine
 10
115.942563597508
 20
0.0698349999999977
 30
0.0
 11
114.9431835975081
 21
0.0698349999999977
 31
0.0
  0
LINE
  5
59C25
330
1F
100
AcDbEntity
  8
1
100
AcDbLine
 10
115.943183597508
 20
0.272443999999993
 30
0.0
 11
115.064977597508
 21
0.272443999999993
 31
0.0
  0
LINE
  5
59C26
330
1F
100
AcDbEntity
  8
1
100
AcDbLine
 10
115.092709597508
 20
0.2814540000000107
 30
0.0
 11
115.943183597508
 21
0.2814540000000107
 31
0.0
  0
LINE
  5
59C27
330
1F
100
AcDbEntity
  8
1
100
AcDbLine
 10
115.943183597508
 20
0.5577899999999972
 30
0.0
 11
113.9431835975081
 21
-0.0920489999999887
 31
0.0
  0
LINE
  5
59C28
330
1F
100
AcDbEntity
  8
1
100
AcDbLine
 10
114.743183597508
 20
6.367375999999991
 30
0.0
 11
114.743183597508
 21
5.548961000000004
 31
0.0
  0
LINE
  5
59C29
330
1F
100
AcDbEntity
  8
1
100
AcDbLine
 10
115.005005597508
 20
-1.192583999999995
 30
0.0
 11
115.005005597508
 21
-7.742583999999978
 31
0.0
  0
LINE
  5
59C2A
330
1F
100
AcDbEntity
  8
1
100
AcDbLine
 10
115.043183597508
 20
6.412782000000007
 30
0.0
 11
115.043183597508
 21
6.016555999999994
 31
0.0
  0
LINE
  5
59C2B
330
1F
100
AcDbEntity
  8
1
100
AcDbLine
 10
115.043183597508
 20
5.191673999999991
 30
0.0
 11
115.043183597508
 21
5.920520640524713
 31
0.0
  0
LINE
  5
59C2C
330
1F
100
AcDbEntity
  8
1
100
AcDbLine
 10
115.043183597508
 20
5.920520640524713
 30
0.0
 11
115.043183597508
 21
6.016555999999994
 31
0.0
  0
LINE
  5
59C2D
330
1F
100
AcDbEntity
  8
1
100
AcDbLine
 10
115.193183597508
 20
5.100251999999996
 30
0.0
 11
115.193183597508
 21
5.251513000000001
 31
0.0
  0
LINE
  5
59C2E
330
1F
100
AcDbEntity
  8
1
100
AcDbLine
 10
115.943183597508
 20
1.174211999999996
 30
0.0
 11
116.003392597508
 21
1.139449999999995
 31
0.0
  0
LINE
  5
59C2F
330
1F
100
AcDbEntity
  8
1
100
AcDbLine
 10
119.659232597508
 20
2.227556999999976
 30
0.0
 11
119.891798597508
 21
2.227556999999976
 31
0.0
  0
LINE
  5
59C30
330
1F
100
AcDbEntity
  8
1
100
AcDbLine
 10
115.6931835975079
 20
6.195537000000014
 30
0.0
 11
115.6931835975079
 21
5.910159000000008
 31
0.0
  0
LINE
  5
59C31
330
1F
100
AcDbEntity
  8
1
100
AcDbLine
 10
115.943183597508
 20
4.98797499999999
 30
0.0
 11
115.943183597508
 21
4.452816240789458
 31
0.0
  0
LINE
  5
59C32
330
1F
100
AcDbEntity
  8
1
100
AcDbLine
 10
115.943183597508
 20
4.452816240789458
 30
0.0
 11
115.943183597508
 21
0.5577899999999972
 31
0.0
  0
LINE
  5
59C33
330
1F
100
AcDbEntity
  8
1
100
AcDbLine
 10
115.943183597508
 20
0.5577899999999972
 30
0.0
 11
115.943183597508
 21
0.0701030000000316
 31
0.0
  0
LINE
  5
59C34
330
1F
100
AcDbEntity
  8
1
100
AcDbLine
 10
115.943183597508
 20
6.874969999999976
 30
0.0
 11
115.943183597508
 21
5.820306000000002
 31
0.0
  0
LINE
  5
59C35
330
1F
100
AcDbEntity
  8
1
100
AcDbLine
 10
119.749683597508
 20
2.227556999999976
 30
0.0
 11
119.749683597508
 21
2.680464999999983
 31
0.0
  0
LINE
  5
59C36
330
1F
100
AcDbEntity
  8
1
100
AcDbLine
 10
113.9431835975081
 20
7.524810000000016
 30
0.0
 11
115.943183597508
 21
6.874969999999976
 31
0.0
  0
LINE
  5
59C37
330
1F
100
AcDbEntity
  8
1
100
AcDbLine
 10
112.443183597508
 20
7.816379999999995
 30
0.0
 11
113.9431835975081
 21
7.524810000000016
 31
0.0
  0
LINE
  5
59C38
330
1F
100
AcDbEntity
  8
1
100
AcDbLine
 10
112.443183597508
 20
7.816379999999995
 30
0.0
 11
113.9431835975081
 21
7.524810000000016
 31
0.0
  0
DIMENSION
  5
59C39
330
1F
100
AcDbEntity
  8
2
100
AcDbDimension
  2
*D11
 10
55.56087008628082
 20
-0.0018958882736229
 30
0.0
 11
87.19751132410063
 21
25.49856109032798
 31
0.0
 70
   164
 71
     5
 42
7.940000000000026
  3
\M+18352\M+18373\M+1815B - ISO-25
100
AcDbRadialDimension
 15
61.7427072100329
 25
4.980923572172549
 35
0.0
 40
0.0
1001
ACAD
1000
DSTYLE
1002
{
1070
     4
1000
"
1070
    40
1040
1.0
1070
   143
1040
0.03937
1070
   170
1070
     1
1070
   171
1070
     3
1070
   271
1070
     8
1070
   285
1070
     4
1002
}
  0
LINE
  5
59C3A
330
1F
100
AcDbEntity
  8
nocut
100
AcDbLine
 10
-0.0000000000000568
 20
9.5249999989
 30
0.0
 11
-0.0000000000000568
 21
0.0
 31
0.0
1001
ACAD
1000
RTMaterial
1005
0
  0
LINE
  5
59C3B
330
1F
100
AcDbEntity
  8
nocut
100
AcDbLine
 10
0.0
 20
0.0
 30
0.0
 11
62.5999999999999
 21
0.0
 31
0.0
1001
ACAD
1000
RTMaterial
1005
0
  0
LINE
  5
59C3D
330
1F
100
AcDbEntity
  8
nocut
100
AcDbLine
 10
38.0999999999999
 20
7.199999998900011
 30
0.0
 11
55.39999999999992
 21
7.199999998900011
 31
0.0
1001
ACAD
1000
RTMaterial
1005
0
  0
LINE
  5
59C3F
330
1F
100
AcDbEntity
  8
nocut
100
AcDbLine
 10
31.74999999999994
 20
8.035993358599965
 30
0.0
 11
1.856215682599895
 21
8.818789650099972
 31
0.0
1001
ACAD
1000
RTMaterial
1005
0
  0
LINE
  5
59C40
330
1F
100
AcDbEntity
  8
nocut
100
AcDbLine
 10
38.0999999999999
 20
7.199999998900011
 30
0.0
 11
31.74999999999994
 21
8.035993358599965
 31
0.0
1001
ACAD
1000
RTMaterial
1005
0
  0
LINE
  5
59C42
330
1F
100
AcDbEntity
  8
nocut
100
AcDbLine
 10
62.5999999999999
 20
2.399999998699996
 30
0.0
 11
62.5999999999999
 21
0.0
 31
0.0
1001
ACAD
1000
RTMaterial
1005
0
  0
ARC
  5
59C44
330
1F
100
AcDbEntity
  8
nocut
100
AcDbCircle
 10
55.39999999999992
 20
-0.6000000008999962
 30
0.0
 40
7.799999999799998
100
AcDbArc
 50
22.61986494569848
 51
90.0
1001
ACAD
1000
RTMaterial
1005
0
  0
ARC
  5
59C45
330
1F
100
AcDbEntity
  8
nocut
100
AcDbCircle
 10
1.934746527499896
 20
11.81776162509999
 30
0.0
 40
3.0
100
AcDbArc
 50
229.8406590672004
 51
268.5000000000006
1001
ACAD
1000
RTMaterial
1005
0
  0
LWPOLYLINE
  5
59D51
330
1F
100
AcDbEntity
  8
cut
100
AcDbPolyline
 90
       22
 70
     0
 43
0.0
 10
59.05825641220006
 20
-0.3637499669999684
 10
59.01504198192275
 20
-0.36560314776208
 10
58.971808633916
 20
-0.3673645678586652
 10
58.92845398129996
 20
-0.36903819019998
 10
58.8852285781823
 20
-0.3706149723349839
 10
58.8417800952514
 20
-0.372107877890393
 10
58.79827185920003
 20
-0.3735107534000193
 10
58.755037339902
 20
-0.3748138650306672
 10
58.71149718588509
 20
-0.3760348589608
 10
58.66795824250001
 20
-0.3771644137999672
 10
58.62471639217798
 20
-0.3781959905225065
 10
58.58120664112829
 20
-0.3791433136964954
 10
58.53775808800008
 20
-0.379998684899995
 10
58.4945106394495
 20
-0.3807602405194146
 10
58.45115121349518
 20
-0.3814337980773317
 10
58.40791163220007
 20
-0.3820157680999969
 10
58.36466028228603
 20
-0.3825082048007928
 10
58.32156823831379
 20
-0.3829095161104945
 10
58.27865300590007
 20
-0.3832204562999735
 10
58.23539943233043
 20
-0.3834440829876726
 10
58.19268829979108
 20
-0.3835761829167907
 10
58.15020896400007
 20
-0.3836200122999926
  0
LINE
  5
59D52
330
1F
100
AcDbEntity
  8
cut
100
AcDbLine
 10
59.05825641220006
 20
-0.3637499669995989
 30
0.0
 11
63.04600147239996
 21
-0.1884436402995746
 31
0.0
  0
ARC
  5
59D53
330
1F
100
AcDbEntity
  8
cut
100
AcDbCircle
 10
63.03721770190003
 20
0.0113633801000148
 30
0.0
 40
0.2
100
AcDbArc
 50
272.51717435861
 51
315.9955430425057
  0
LINE
  5
59D54
330
1F
100
AcDbEntity
  8
cut
100
AcDbLine
 10
63.43893655200014
 20
0.1394025551998013
 30
0.0
 11
63.18107485380017
 21
-0.1275794854001688
 31
0.0
  0
LINE
  5
59D55
330
1F
100
AcDbEntity
  8
cut
100
AcDbLine
 10
58.15020896400007
 20
-0.3836200122999926
 30
0.0
 11
55.05850147174249
 21
-0.3836200122999784
 31
0.0
  0
ARC
  5
59D56
330
1F
100
AcDbEntity
  8
cut
100
AcDbCircle
 10
47.63378376984251
 20
7.737692979634452
 30
0.0
 40
0.2
100
AcDbArc
 50
92.51717435869151
 51
135.9955430425057
  0
LWPOLYLINE
  5
59D57
330
1F
100
AcDbEntity
  8
cut
100
AcDbPolyline
 90
        2
 70
     0
 43
0.0
 10
63.43893655143398
 20
0.1394025545432882
 42
0.1959626825778945
 10
63.49507577573472
 20
0.2795493019613886
  0
LINE
  5
59D58
330
1F
100
AcDbEntity
  8
cut
100
AcDbLine
 10
47.62499999999994
 20
7.937499998900001
 30
0.0
 11
55.56249999999995
 21
7.937499998900001
 31
0.0
1001
ACAD
1000
RTMaterial
1005
0
  0
ARC
  5
59D59
330
1F
100
AcDbEntity
  8
cut
100
AcDbCircle
 10
55.56249999999995
 20
-0.0000000010999983
 30
0.0
 40
7.9375
100
AcDbArc
 50
2.018306539456819
 51
90.0
1001
ACAD
1000
RTMaterial
1005
0
  0
ARC
  5
59D5B
330
1F
100
AcDbEntity
  8
cut
100
AcDbCircle
 10
55.05850147174252
 20
7.556379987700019
 30
0.0
 40
7.94
100
AcDbArc
 50
181.0640938655848
 51
269.9999999999996
  0
ARC
  5
59D5C
330
1F
100
AcDbEntity
  8
cut
100
AcDbCircle
 10
47.31983626220939
 20
7.412641423765229
 30
0.0
 40
0.2
100
AcDbArc
 50
135.9955430419218
 51
181.0640938655856
  0
LINE
  5
59D5D
330
1F
100
AcDbEntity
  8
cut
100
AcDbLine
 10
47.48992661804225
 20
7.876635845134551
 30
0.0
 11
47.17597910987637
 21
7.551584288722885
 31
0.0
  0
VIEWPORT
  5
6B
102
{ACAD_XDICTIONARY
360
59D87
102
}
330
50
100
AcDbEntity
 67
     1
  8
0
100
AcDbViewport
 10
150.1652135264906
 20
160.4455827878762
 30
0.0
 40
339.1973820494346
 41
282.2272140146125
 68
     1
 69
     1
 12
150.1652135264906
 22
160.4455827878762
 13
0.0
 23
0.0
 14
10.0
 24
10.0
 15
10.0
 25
10.0
 16
0.0
 26
0.0
 36
1.0
 17
0.0
 27
0.0
 37
0.0
 42
50.0
 43
0.0
 44
0.0
 45
282.2272140146125
 50
0.0
 51
0.0
 72
  1000
 90
    32864
  1

281
     0
 71
     1
 74
     0
110
0.0
120
0.0
130
0.0
111
1.0
121
0.0
131
0.0
112
0.0
122
1.0
132
0.0
 79
     0
146
0.0
  0
VIEWPORT
  5
6D
102
{ACAD_XDICTIONARY
360
59D89
102
}
330
50
100
AcDbEntity
 67
     1
  8
0
100
AcDbViewport
 10
133.3499939441681
 20
101.5999939441681
 30
0.0
 40
213.3599903106689
 41
162.5599903106689
 68
     2
 69
     2
 12
210.0
 22
148.5
 13
0.0
 23
0.0
 14
10.0
 24
10.0
 15
10.0
 25
10.0
 16
0.0
 26
0.0
 36
1.0
 17
0.0
 27
0.0
 37
0.0
 42
50.0
 43
0.0
 44
0.0
 45
324.0677920111345
 50
0.0
 51
0.0
 72
   100
 90
    32864
  1

281
     0
 71
     1
 74
     0
110
0.0
120
0.0
130
0.0
111
1.0
121
0.0
131
0.0
112
0.0
122
1.0
132
0.0
 79
     0
146
0.0
  0
ENDSEC
  0
SECTION
  2
OBJECTS
  0
DICTIONARY
  5
C
330
0
100
AcDbDictionary
281
     1
  3
ACAD_COLOR
350
85
  3
ACAD_GROUP
350
D
  3
ACAD_LAYOUT
350
1A
  3
ACAD_MATERIAL
350
84
  3
ACAD_MLINESTYLE
350
17
  3
ACAD_PLOTSETTINGS
350
19
  3
ACAD_PLOTSTYLENAME
350
E
  3
ACAD_TABLESTYLE
350
A1
  3
ACDBHEADERROUNDTRIPXREC
350
59D82
  3
AcDbVariableDictionary
350
5E
  3
ASE_INDEX_DICTIONARY
350
349E9
  3
DWGPROPS
350
59D81
  0
DICTIONARY
  5
E2
330
2
100
AcDbDictionary
280
     1
281
     1
  3
ACAD_LAYERFILTERS
360
4BFF9
  3
ACAD_LAYERSTATES
360
3759A
  3
ACLYDICTIONARY
360
4BFF8
  0
DICTIONARY
  5
31EE
330
1F
100
AcDbDictionary
280
     1
281
     1
  3
ACAD_SORTENTS
360
31EF
  0
DICTIONARY
  5
3BEB2
330
680
100
AcDbDictionary
280
     1
281
     1
  3
ACAD_SORTENTS
360
51391
  0
DICTIONARY
  5
59D8B
330
71
100
AcDbDictionary
280
     1
281
     1
  3
ACAD_XREC_ROUNDTRIP
360
59D8C
  0
DICTIONARY
  5
59D8D
330
73
100
AcDbDictionary
280
     1
281
     1
  3
ACAD_XREC_ROUNDTRIP
360
59D8E
  0
DICTIONARY
  5
59BB8
330
59BB7
100
AcDbDictionary
280
     1
281
     1
  3
ACAD_DIMASSOC
360
59BB9
  0
DICTIONARY
  5
59BBB
330
59BBA
100
AcDbDictionary
280
     1
281
     1
  3
ACAD_DIMASSOC
360
59BBC
  0
DICTIONARY
  5
59D87
330
6B
100
AcDbDictionary
280
     1
281
     1
  3
ACAD_XREC_ROUNDTRIP
360
59D88
  0
DICTIONARY
  5
59D89
330
6D
100
AcDbDictionary
280
     1
281
     1
  3
ACAD_XREC_ROUNDTRIP
360
59D8A
  0
DICTIONARY
  5
85
102
{ACAD_REACTORS
330
C
102
}
330
C
100
AcDbDictionary
281
     1
  0
DICTIONARY
  5
D
102
{ACAD_REACTORS
330
C
102
}
330
C
100
AcDbDictionary
281
     1
  0
DICTIONARY
  5
1A
102
{ACAD_REACTORS
330
C
102
}
330
C
100
AcDbDictionary
281
     1
  3
\M+1838C\M+18343\M+18341\M+18345\M+183671
350
51
  3
\M+1838C\M+18343\M+18341\M+18345\M+183672
350
56
  3
Model
350
22
  0
DICTIONARY
  5
84
102
{ACAD_REACTORS
330
C
102
}
330
C
100
AcDbDictionary
281
     1
  0
DICTIONARY
  5
17
102
{ACAD_REACTORS
330
C
102
}
330
C
100
AcDbDictionary
281
     1
  3
Standard
350
18
  0
DICTIONARY
  5
19
102
{ACAD_REACTORS
330
C
102
}
330
C
100
AcDbDictionary
281
     1
  0
ACDBDICTIONARYWDFLT
  5
E
102
{ACAD_REACTORS
330
C
102
}
330
C
100
AcDbDictionary
281
     1
  3
Normal
350
F
100
AcDbDictionaryWithDefault
340
F
  0
DICTIONARY
  5
A1
102
{ACAD_REACTORS
330
C
102
}
330
C
100
AcDbDictionary
281
     1
  3
Standard
350
A2
  0
DICTIONARY
  5
59D82
102
{ACAD_REACTORS
330
C
102
}
330
C
100
AcDbDictionary
281
     1
  0
DICTIONARY
  5
5E
102
{ACAD_REACTORS
330
C
102
}
330
C
100
AcDbDictionary
281
     1
  3
CTABLESTYLE
350
B8
  3
DIMASSOC
350
5F
  3
HIDETEXT
350
63
  3
PROJECTNAME
350
31CE
  0
DICTIONARY
  5
349E9
102
{ACAD_REACTORS
330
C
102
}
330
C
100
AcDbDictionary
281
     1
  3
ASEBlockHierarchyIndexRecord
350
349EA
1001
DCO15
1040
1842496176.844
  0
XRECORD
  5
59D81
102
{ACAD_REACTORS
330
C
102
}
330
C
100
AcDbXrecord
280
     1
  1
DWGPROPS COOKIE
  2

  3

  4

  6

  7

  8

  9

300
=
301
=
302
=
303
=
304
=
305
=
306
=
307
=
308
=
309
=
 40
2.235183472222222
 41
2455489.391063368
 42
2458508.384105011
  1

 90
        0
  0
DICTIONARY
  5
4BFF9
102
{ACAD_REACTORS
330
E2
102
}
330
E2
100
AcDbDictionary
281
     1
  0
DICTIONARY
  5
3759A
102
{ACAD_REACTORS
330
E2
102
}
330
E2
100
AcDbDictionary
281
     1
  0
DICTIONARY
  5
4BFF8
102
{ACAD_REACTORS
330
E2
102
}
330
E2
100
AcDbDictionary
281
     1
1001
ACAD
1000
<All
  0
SORTENTSTABLE
  5
31EF
102
{ACAD_REACTORS
330
31EE
102
}
330
31EE
100
AcDbSortentsTable
330
1F
331
68C
  5
3C6B0
  0
SORTENTSTABLE
  5
51391
102
{ACAD_REACTORS
330
3BEB2
102
}
330
3BEB2
100
AcDbSortentsTable
330
680
  0
XRECORD
  5
59D8C
102
{ACAD_REACTORS
330
59D8B
102
}
330
59D8B
100
AcDbXrecord
280
     1
102
SHADEPLOT
 70
     0
  0
XRECORD
  5
59D8E
102
{ACAD_REACTORS
330
59D8D
102
}
330
59D8D
100
AcDbXrecord
280
     1
102
SHADEPLOT
 70
     0
  0
DIMASSOC
  5
59BB9
102
{ACAD_REACTORS
330
59BB8
102
}
330
59BB8
100
AcDbDimAssoc
330
59BB7
 90
        3
 70
     0
 71
     0
  1
AcDbOsnapPointRef
 72
    13
331
59BAC
 73
     2
 91
        0
 40
0.0
 10
0.0
 20
0.0
 30
2.000000000000000E+50
 75
     0
  1
AcDbOsnapPointRef
 72
     6
331
59BAE
 73
     2
 91
        0
 40
0.0
 10
0.0
 20
0.0
 30
0.0
332
59BAC
 74
     2
 92
        0
 75
     0
  0
DIMASSOC
  5
59BBC
102
{ACAD_REACTORS
330
59BBB
102
}
330
59BBB
100
AcDbDimAssoc
330
59BBA
 90
        2
 70
     0
 71
     0
  1
AcDbOsnapPointRef
 72
     1
331
59BA5
 73
     2
 91
        0
 40
1.0
 10
0.0
 20
0.0
 30
2.000000000000000E+50
 75
     0
  0
XRECORD
  5
59D88
102
{ACAD_REACTORS
330
59D87
102
}
330
59D87
100
AcDbXrecord
280
     1
102
SHADEPLOT
 70
     0
  0
XRECORD
  5
59D8A
102
{ACAD_REACTORS
330
59D89
102
}
330
59D89
100
AcDbXrecord
280
     1
102
SHADEPLOT
 70
     0
  0
LAYOUT
  5
51
102
{ACAD_XDICTIONARY
360
B2
102
}
102
{ACAD_REACTORS
330
1A
102
}
330
1A
100
AcDbPlotSettings
  1

  2
none_device
  4
Letter_(8.50_x_11.00_Inches)
  6

 40
6.349999904632567
 41
6.349999904632567
 42
6.350006103515625
 43
6.350006103515625
 44
215.8999938964844
 45
279.3999938964844
 46
0.0
 47
0.0
 48
0.0
 49
0.0
140
0.0
141
0.0
142
1.0
143
1.0
 70
   688
 72
     1
 73
     1
 74
     5
  7

 75
    16
147
1.0
148
0.0
149
0.0
100
AcDbLayout
  1
\M+1838C\M+18343\M+18341\M+18345\M+183671
 70
     1
 71
     1
 10
-6.350006103515625
 20
-6.349999904632567
 11
273.0499877929688
 21
209.5499939918518
 12
0.0
 22
0.0
 32
0.0
 14
26.66999878883364
 24
20.31999878883365
 34
0.0
 15
240.0299890995025
 25
182.8799890995025
 35
0.0
146
0.0
 13
0.0
 23
0.0
 33
0.0
 16
1.0
 26
0.0
 36
0.0
 17
0.0
 27
1.0
 37
0.0
 76
     0
330
50
331
6B
  0
LAYOUT
  5
56
102
{ACAD_XDICTIONARY
360
B5
102
}
102
{ACAD_REACTORS
330
1A
102
}
330
1A
100
AcDbPlotSettings
  1

  2
none_device
  4
Letter_(8.50_x_11.00_Inches)
  6

 40
6.349999904632567
 41
6.349999904632567
 42
6.350006103515625
 43
6.350006103515625
 44
215.8999938964844
 45
279.3999938964844
 46
0.0
 47
0.0
 48
0.0
 49
0.0
140
0.0
141
0.0
142
1.0
143
1.0
 70
   688
 72
     1
 73
     1
 74
     5
  7

 75
    16
147
1.0
148
0.0
149
0.0
100
AcDbLayout
  1
\M+1838C\M+18343\M+18341\M+18345\M+183672
 70
     1
 71
     2
 10
-6.350006103515625
 20
-6.349999904632567
 11
273.0499877929688
 21
209.5499939918518
 12
0.0
 22
0.0
 32
0.0
 14
26.66999878883363
 24
20.31999878883363
 34
0.0
 15
240.0299890995026
 25
182.8799890995025
 35
0.0
146
0.0
 13
0.0
 23
0.0
 33
0.0
 16
1.0
 26
0.0
 36
0.0
 17
0.0
 27
1.0
 37
0.0
 76
     0
330
55
331
71
  0
LAYOUT
  5
22
102
{ACAD_XDICTIONARY
360
59D83
102
}
102
{ACAD_REACTORS
330
1A
102
}
330
1A
100
AcDbPlotSettings
  1

  2
none_device
  4
ANSI_A_(8.50_x_11.00_Inches)
  6

 40
6.349999904632567
 41
19.04999923706055
 42
6.350006103515625
 43
19.04998779296875
 44
215.8999938964844
 45
279.3999938964844
 46
0.0
 47
0.0
 48
0.0
 49
0.0
140
0.0
141
0.0
142
1.0
143
78.436453180766
 70
 11952
 72
     0
 73
     1
 74
     0
  7

 75
     0
147
0.0127491741332998
148
0.0
149
0.0
100
AcDbLayout
  1
Model
 70
     1
 71
     0
 10
0.0
 20
0.0
 11
12.0
 21
9.0
 12
0.0
 22
0.0
 32
0.0
 14
0.0
 24
0.0
 34
0.0
 15
0.0
 25
0.0
 35
0.0
146
0.0
 13
0.0
 23
0.0
 33
0.0
 16
1.0
 26
0.0
 36
0.0
 17
0.0
 27
1.0
 37
0.0
 76
     0
330
1F
  0
MLINESTYLE
  5
18
102
{ACAD_REACTORS
330
17
102
}
330
17
100
AcDbMlineStyle
  2
STANDARD
 70
     0
  3

 62
   256
 51
90.0
 52
90.0
 71
     2
 49
0.5
 62
   256
  6
BYLAYER
 49
-0.5
 62
   256
  6
BYLAYER
  0
ACDBPLACEHOLDER
  5
F
102
{ACAD_REACTORS
330
E
102
}
330
E
  0
TABLESTYLE
  5
A2
102
{ACAD_REACTORS
330
A1
102
}
330
A1
100
AcDbTableStyle
  3
Standard
 70
     0
 71
     0
 40
1.5
 41
1.5
280
     0
281
     0
  7
Standard
140
4.5
170
     2
 62
     0
 63
     7
283
     0
274
    -2
284
     1
 64
     0
275
    -2
285
     1
 65
     0
276
    -2
286
     1
 66
     0
277
    -2
287
     1
 67
     0
278
    -2
288
     1
 68
     0
279
    -2
289
     1
 69
     0
  7
Standard
140
6.0
170
     5
 62
     0
 63
     7
283
     0
274
    -2
284
     1
 64
     0
275
    -2
285
     1
 65
     0
276
    -2
286
     1
 66
     0
277
    -2
287
     1
 67
     0
278
    -2
288
     1
 68
     0
279
    -2
289
     1
 69
     0
  7
Standard
140
4.5
170
     5
 62
     0
 63
     7
283
     0
274
    -2
284
     1
 64
     0
275
    -2
285
     1
 65
     0
276
    -2
286
     1
 66
     0
277
    -2
287
     1
 67
     0
278
    -2
288
     1
 68
     0
279
    -2
289
     1
 69
     0
  0
DICTIONARYVAR
  5
B8
102
{ACAD_REACTORS
330
5E
102
}
330
5E
100
DictionaryVariables
280
     0
  1
STANDARD
  0
DICTIONARYVAR
  5
5F
102
{ACAD_REACTORS
330
5E
102
}
330
5E
100
DictionaryVariables
280
     0
  1
2
  0
DICTIONARYVAR
  5
63
102
{ACAD_REACTORS
330
5E
102
}
330
5E
100
DictionaryVariables
280
     0
  1
1
  0
DICTIONARYVAR
  5
31CE
102
{ACAD_REACTORS
330
5E
102
}
330
5E
100
DictionaryVariables
280
     0
  1

  0
XRECORD
  5
349EA
102
{ACAD_REACTORS
330
349E9
102
}
330
349E9
100
AcDbXrecord
280
     1
330
68C
330
431D
330
431E
330
4329
330
4334
330
4335
330
4B09
330
4B0A
330
5153
330
5154
330
515D
330
515E
330
516A
330
516B
330
5177
330
5178
330
85B4
330
85B5
330
8620
330
8621
330
862A
330
862B
330
8637
330
8638
330
8644
330
8645
330
9773
330
9774
330
977D
330
977E
330
978A
330
978B
330
9797
330
9798
330
BD86
330
BD87
330
BD8F
330
BD90
330
BD98
330
BDA0
330
BDA1
330
BDDD
330
BDDE
330
BDE7
330
BDE8
330
BDF4
330
BDF5
330
BE01
330
BE02
330
E473
330
E474
330
E48D
330
E48E
330
E485
330
E47C
330
E47D
330
E4CC
330
E4CD
330
E4D7
330
E4D8
330
1C63B
330
1C63C
330
1C705
330
1C706
330
1C719
330
1C71A
330
1C72E
330
1C72F
330
1C738
330
1C739
330
27043
330
27044
330
2703A
330
2703B
330
2CF2C
330
2CF2D
330
2CF38
330
2CF39
330
2CF42
330
2CF43
330
2CF4F
330
2CF50
330
2CF59
330
2CF5A
330
2FA31
330
2FA32
330
2FA3D
330
2FA3E
330
2FA4A
330
2FA4B
330
2FA54
330
2FA55
330
329D8
330
329D9
330
329E1
330
329E2
330
329EA
330
329EB
330
329F3
330
329F4
330
32E63
330
32E64
330
32E6F
330
32E70
330
32E79
330
32E7A
330
32E88
330
32E89
330
32E92
330
32E93
  0
DICTIONARY
  5
B2
330
51
100
AcDbDictionary
280
     1
281
     1
  3
ACAD_XREC_ROUNDTRIP
360
59D85
  3
ADSK_XREC_LAYOUTTHUMBNAIL
360
B3
  0
DICTIONARY
  5
B5
330
56
100
AcDbDictionary
280
     1
281
     1
  3
ACAD_XREC_ROUNDTRIP
360
59D86
  3
ADSK_XREC_LAYOUTTHUMBNAIL
360
B6
  0
DICTIONARY
  5
59D83
330
22
100
AcDbDictionary
280
     1
281
     1
  3
ACAD_XREC_ROUNDTRIP
360
59D84
  0
XRECORD
  5
59D85
102
{ACAD_REACTORS
330
B2
102
}
330
B2
100
AcDbXrecord
280
     1
102
SHADEPLOT
 70
     0
102
SHADEPLOTRESLEVEL
 70
     2
102
SHADEPLOTCUSTOMDPI
 70
   300
  0
XRECORD
  5
B3
102
{ACAD_REACTORS
330
B2
102
}
330
B2
100
AcDbXrecord
280
     1
310
28000000B40000008B0000000100080000000000BC61000000000000000000000001000000000000FFFFFF0000000000FFFFFF000000000000000000000000000000000000000000000000000000000000000000330000006600000099000000CC000000FF00000000330000333300006633000099330000CC330000FF3300
310
0000660000336600006666000099660000CC660000FF66000000990000339900006699000099990000CC990000FF99000000CC000033CC000066CC000099CC0000CCCC0000FFCC000000FF000033FF000066FF000099FF0000CCFF0000FFFF000000003300330033006600330099003300CC003300FF003300003333003333
310
33006633330099333300CC333300FF33330000663300336633006666330099663300CC663300FF66330000993300339933006699330099993300CC993300FF99330000CC330033CC330066CC330099CC3300CCCC3300FFCC330000FF330033FF330066FF330099FF3300CCFF3300FFFF330000006600330066006600660099
310
006600CC006600FF00660000336600333366006633660099336600CC336600FF33660000666600336666006666660099666600CC666600FF66660000996600339966006699660099996600CC996600FF99660000CC660033CC660066CC660099CC6600CCCC6600FFCC660000FF660033FF660066FF660099FF6600CCFF6600
310
FFFF660000009900330099006600990099009900CC009900FF00990000339900333399006633990099339900CC339900FF33990000669900336699006666990099669900CC669900FF66990000999900339999006699990099999900CC999900FF99990000CC990033CC990066CC990099CC9900CCCC9900FFCC990000FF99
310
0033FF990066FF990099FF9900CCFF9900FFFF99000000CC003300CC006600CC009900CC00CC00CC00FF00CC000033CC003333CC006633CC009933CC00CC33CC00FF33CC000066CC003366CC006666CC009966CC00CC66CC00FF66CC000099CC003399CC006699CC009999CC00CC99CC00FF99CC0000CCCC0033CCCC0066CC
310
CC0099CCCC00CCCCCC00FFCCCC0000FFCC0033FFCC0066FFCC0099FFCC00CCFFCC00FFFFCC000000FF003300FF006600FF009900FF00CC00FF00FF00FF000033FF003333FF006633FF009933FF00CC33FF00FF33FF000066FF003366FF006666FF009966FF00CC66FF00FF66FF000099FF003399FF006699FF009999FF00CC
310
99FF00FF99FF0000CCFF0033CCFF0066CCFF0099CCFF00CCCCFF00FFCCFF0000FFFF0033FFFF0066FFFF0099FFFF00CCFFFF00FFFFFF00000000000D0D0D001A1A1A00282828003535350043434300505050005D5D5D006B6B6B00787878008686860093939300A1A1A100AEAEAE00BBBBBB00C9C9C900D6D6D600E4E4E400
310
F1F1F100FFFFFF0000000000000000000000000000000000000000000000000000000000000000000000000000000000E2E2E2E2E2E2E2E2E2E2E2E2E2E2E2E2E2E2E2E2E2E2E2E2E2E2E2E2E2E2E2E2E2E2E2E2E2E2E2E2E2E2E2E2E2E2E2E2E2E2E2E2E2E2E2E2E2E2E2E2E2E2E2E2E2E2E2E2E2E2E2E2E2E2E2E2E2E2E2
310
E2E2E2E2E2E2E2E2E2E2E2E2E2E2E2E2E2E2E2E2E2E2E2E2E2E2E2E2E2E2E2E2E2E2E2E2E2E2E2E2E2E2E2E2E2E2E2E2E2E2E2E2E2E2E2E2E2E2E2E2E2E2E2E2E2E2E2E2E2E2E2E2E2E2E2E2E2E2E2E2E2E2E2E2E2E2E2E2E2E2E2E2E2E2E2E2E2E2E2E2E2E2F5F5F5F5F5F5F5F5F5F5F5F5F5F5F5F5F5F5F5F5F5F5F5F5F5
310
F5F5F5F5F5F5F5F5F5F5F5F5F5F5F5F5F5F5F5F5F5F5F5F5F5F5F5F5F5F5F5F5F5F5F5F5F5F5F5F5F5F5F5F5F5F5F5F5F5F5F5F5F5F5F5F5F5F5F5F5F5F5F5F5F5F5F5F5F5F5F5F5F5F5F5F5F5F5F5F5F5F5F5F5F5F5F5F5F5F5F5F5F5F5F5F5F5F5F5F5F5F5F5F5F5F5F5F5F5F5F5F5F5F5F5F5F5F5F5F5F5F5F5F5F5F5F5
310
F5F5F5F5F5F5F5F5F5F5F5F5F5F5F5F5F5F5F5F5F5F5F5F5F5F5E2E2F5F5F5F5F5F5F5F5F5F5F5F5F5F5F5F5F5F5F5F5F5F5F5F5F5F5F5F5F5F5F5F5F5F5F5F5F5F5F5F5F5F5F5F5F5F5F5F5F5F5F5F5F5F5F5F5F5F5F5F5F5F5F5F5F5F5F5F5F5F5F5F5F5F5F5F5F5F5F5F5F5F5F5F5F5F5F5F5F5F5F5F5F5F5F5F5F5F5F5
310
F5F5F5F5F5F5F5F5F5F5F5F5F5F5F5F5F5F5F5F5F5F5F5F5F5F5F5F5F5F5F5F5F5F5F5F5F5F5F5F5F5F5F5F5F5F5F5F5F5F5F5F5F5F5F5F5F5F5F5F5F5F5F5F5F5F5F5F5F5F5F5F5F5F5F5F5F5F5F5E2E2F5F5F5F5F5F5F5F5F5F5F5F5F5F5F5F5F5F5F5F5F5F5F5F5F5F5F5F5F5F5F5F5F5F5F5F5F5F5F5F5F5F5F5F5F5F5
310
F5F5F5F5F5F5F5F5F5F5F5F5F5F5F5F5F5F5F5F5F5F5F5F5F5F5F5F5F5F5F5F5F5F5F5F5F5F5F5F5F5F5F5F5F5F5F5F5F5F5F5F5F5F5F5F5F5F5F5F5F5F5F5F5F5F5F5F5F5F5F5F5F5F5F5F5F5F5F5F5F5F5F5F5F5F5F5F5F5F5F5F5F5F5F5F5F5F5F5F5F5F5F5F5F5F5F5F5F5F5F5F5F5F5F5F5F5F5F5F5F5F5F5F5F5F5F5
310
F5F5F5F5F5E2E2F5F5F5F5E2E2E2E2E2E2E2E2F5F5F5F5F5F5F5F5F5E2E2E2E2E2E2E2E2E2E2E2E2E2E2E2F5F5F5F5F5F5F5F5F5E2E2E2E2E2E2E2E2E2E2E2E2E2E2E2E2F5F5F5F5F5F5F5F5E2E2E2E2E2E2E2E2E2E2E2E2E2E2E2E2F5F5F5F5F5F5F5F5E2E2E2E2E2E2E2E2E2E2E2E2E2E2E2E2F5F5F5F5F5F5F5F5E2E2E2
310
E2E2E2E2E2E2E2E2E2E2E2E2E2F5F5F5F5F5F5F5F5F5E2E2E2E2E2E2E2E2E2E2E2E2E2E2E2F5F5F5F5F5F5F5F5F5E2E2E2E2E2E2E2E2F5F5F5F5E2E2F5F5F5F5E2F5F5F5F5F5F5F5F5F5F5F5F5F5F5F5F5F5F5F5F5F5F5F5F5F5F5F5F5F5F5F5F5F5F5F5F5F5F5F5F5F5F5F5F5F5F5F5F5F5F5F5F5F5F5F5F5F5F5F5F5F5F5
310
F5F5F5F5F5F5F5F5F5F5F5F5F5F5F5F5F5F5F5F5F5F5F5F5F5F5F5F5F5F5F5F5F5F5F5F5F5F5F5F5F5F5F5F5F5F5F5F5F5F5F5F5F5F5F5F5F5F5F5F5F5F5F5F5F5F5F5F5F5F5F5F5F5F5F5F5F5F5F5F5F5F5F5F5F5F5F5F5F5F5F5F5F5F5F5F5F5F5F5F5F5F5F5F5F5F5E2F5F5F5F5E2E2F5F5F5F5E2F5F5F5F5F5F5F5F5F5
310
F5F5F5F5F5F5F5F5F5F5F5F5F5F5F5F5F5F5F5F5F5F5F5F5F5F5F5F5F5F5F5F5F5F5F5F5F5F5F5F5F5F5F5F5F5F5F5F5F5F5F5F5F5F5F5F5F5F5F5F5F5F5F5F5F5F5F5F5F5F5F5F5F5F5F5F5F5F5F5F5F5F5F5F5F5F5F5F5F5F5F5F5F5F5F5F5F5F5F5F5F5F5F5F5F5F5F5F5F5F5F5F5F5F5F5F5F5F5F5F5F5F5F5F5F5F5F5
310
F5F5F5F5F5F5F5F5F5F5F5F5F5F5F5F5F5F5F5F5F5F5F5F5F5F5F5F5F5F5F5F5E2F5F5F5F5E2E2F5F5F5F5E2F5F5F5F5F5F5F5F5F5F5F5F5F5F5F5F5F5F5F5F5F5F5F5F5F5F5F5F5F5F5F5F5F5F5F5F5F5F5F5F5F5F5F5F5F5F5F5F5F5F5F5F5F5F5F5F5F5F5F5F5F5F5F5F5F5F5F5F5F5F5F5F5F5F5F5F5F5F5F5F5F5F5F5
310
F5F5F5F5F5F5F5F5F5F5F5F5F5F5F5F5F5F5F5F5F5F5F5F5F5F5F5F5F5F5F5F5F5F5F5F5F5F5F5F5F5F5F5F5F5F5F5F5F5F5F5F5F5F5F5F5F5F5F5F5F5F5F5F5F5F5F5F5F5F5F5F5F5F5F5F5F5F5F5F5F5F5F5F5F5E2F5F5F5F5E2E2F5F5F5F5E2F5F5F5F5F5F5F5F5F5F5F5F5F5F5F5F5F5F5F5F5F5F5F5F5F5F5F5F5F5F5
310
F5F5F5F5F5F5F5F5F5F5F5F5F5F5F5F5F5F5F5F5F5F5F5F5F5F5F5F5F5F5F5F5F5F5F5F5F5F5F5F5F5F5F5F5F5F5F5F5F5F5F5F5F5F5F5F5F5F5F5F5F5F5F5F5F5F5F5F5F5F5F5F5F5F5F5F5F5F5F5F5F5F5F5F5F5F5F5F5F5F5F5F5F5F5F5F5F5F5F5F5F5F5F5F5F5F5F5F5F5F5F5F5F5F5F5F5F5F5F5F5F5F5F5F5F5F5F5
310
F5F5F5F5F5F5F5F5F5F5F5E2F5F5F5F5E2E2F5F5F5F5E2F5F5F5F5F5F5F5F5F5F5F5F5F5F5F5F5F5F5F5F5F5F5F5F5F5F5F5F5F5F5F5F5F5F5F5F5F5F5F5F5F5F5F5F5F5F5F5F5F5F5F5F5F5F5F5F5F5F5F5F5F5F5F5F5F5F5F5F5F5F5F5F5F5F5F5F5F5F5F5F5F5F5F5F5F5F5F5F5F5F5F5F5F5F5F5F5F5F5F5F5F5F5F5F5
310
F5F5F5F5F5F5F5F5F5F5F5F5F5F5F5F5F5F5F5F5F5F5F5F5F5F5F5F5F5F5F5F5F5F5F5F5F5F5F5F5F5F5F5F5F5F5F5F5F5F5F5F5F5F5F5F5F5F5F5F5F5F5F5F5E2F5F5F5F5E2E2F5F5F5F5E2F5F5F5F5F5F5F5F5F5F5F5F5F5F5F5F5F5F5F5F5F5F5F5F5F5F5F5F5F5F5F5F5F5F5F5F5F5F5F5F5F5F5F5F5F5F5F5F5F5F5F5
310
F5F5F5F5F5F5F5F5F5F5F5F5F5F5F5F5F5F5F5F5F5F5F5F5F5F5F5F5F5F5F5F5F5F5F5F5F5F5F5F5F5F5F5F5F5F5F5F5F5F5F5F5F5F5F5F5F5F5F5F5F5F5F5F5F5F5F5F5F5F5F5F5F5F5F5F5F5F5F5F5F5F5F5F5F5F5F5F5F5F5F5F5F5F5F5F5F5F5F5F5F5F5F5F5F5F5F5F5F5F5F5F5F5F5F5F5F5E2F5F5F5F5E2E2F5F5F5
310
F5E2F5F5F5F5F5F5F5F5F5F5F5F5F5F5F5F5F5F5F5F5F5F5F5F5F5F5F5F5F5F5F5F5F5F5F5F5F5F5F5F5F5F5F5F5F5F5F5F5F5F5F5F5F5F5F5F5F5F5F5F5F5F5F5F5F5F5F5F5F5F5F5F5F5F5F5F5F5F5F5F5F5F5F5F5F5F5F5F5F5F5F5F5F5F5F5F5F5F5F5F5F5F5F5F5F5F5F5F5F5F5F5F5F5F5F5F5F5F5F5F5F5F5F5F5F5
310
F5F5F5F5F5F5F5F5F5F5F5F5F5F5F5F5F5F5F5F5F5F5F5F5F5F5F5F5F5F5F5F5F5F5F5F5F5F5F5F5F5F5F5E2F5F5F5F5E2E2F5F5F5F5E2F5F5F5F5F5F5F5F5F5F5F5F5F5F5F5F5F5F5F5F5F5F5F5F5F5F5F5F5F5F5F5F5F5F5F5F5F5F5F5F5F5F5F5F5F5F5F5F5F5F5F5F5F5F5F5F5F5F5F5F5F5F5F5F5F5F5F5F5F5F5F5F5
310
F5F5F5F5F5F5F5F5F5F5F5F5F5F5F5F5F5F5F5F5F5F5F5F5F5F5F5F5F5F5F5F5F5F5F5F5F5F5F5F5F5F5F5F5F5F5F5F5F5F5F5F5F5F5F5F5F5F5F5F5F5F5F5F5F5F5F5F5F5F5F5F5F5F5F5F5F5F5F5F5F5F5F5F5F5F5F5F5F5F5F5F5F5F5F5F5E2F5F5F5F5E2E2F5F5F5F5F5F5F5F5F5F5F5F5F5F5F5F5F5F5F5F5F5F5F5F5
310
F5F5F5F5F5F5F5F5F5F5F5F5F5F5F5F5F5F5F5F5F5F5F5F5F5F5F5F5F5F5F5F5F5F5F5F5F5F5F5F5F5F5F5F5F5F5F5F5F5F5F5F5F5F5F5F5F5F5F5F5F5F5F5F5F5F5F5F5F5F5F5F5F5F5F5F5F5F5F5F5F5F5F5F5F5F5F5F5F5F5F5F5F5F5F5F5F5F5F5F5F5F5F5F5F5F5F5F5F5F5F5F5F5F5F5F5F5F5F5F5F5F5F5F5F5F5F5
310
F5F5F5F5F5F5F5F5F5F5F5F5F5F5F5F5F5F5F5F5F5F5F5F5F5F5F5E2E2F5F5F5F5F5F5F5F5F5F5F5F5F5F5F5F5F5F5F5F5F5F5F5F5F5F5F5F5F5F5F5F5F5F5F5F5F5F5F5F5F5F5F5F5F5F5F5F5F5F5F5F5F5F5F5F5F5F5F5F5F5F5F5F5F5F5F5F5F5F5F5F5F5F5F5F5F5F5F5F5F5F5F5F5F5F5F5F5F5F5F5F5F5F5F5F5F5F5
310
F5F5F5F5F5F5F5F5F5F5F5F5F5F5F5F5F5F5F5F5F5F5F5F5F5F5F5F5F5F5F5F5F5F5F5F5F5F5F5F5F5F5F5F5F5F5F5F5F5F5F5F5F5F5F5F5F5F5F5F5F5F5F5F5F5F5F5F5F5F5F5F5F5F5F5F5F5F5F5F5E2E2F5F5F5F5F5F5F5F5F5F5F5F5F5F5F5F5F5F5F5F5F5F5F5F5F5F5F5F5F5F5F5F5F5F5F5F5F5F5F5F5F5F5F5F5F5
310
F5F5F5F5F5F5F5F5F5F5F5F5F5F5F5F5F5F5F5F5F5F5F5F5F5F5F5F5F5F5F5F5F5F5F5F5F5F5F5F5F5F5F5F5F5F5F5F5F5F5F5F5F5F5F5F5F5F5F5F5F5F5F5F5F5F5F5F5F5F5F5F5F5F5F5F5F5F5F5F5F5F5F5F5F5F5F5F5F5F5F5F5F5F5F5F5F5F5F5F5F5F5F5F5F5F5F5F5F5F5F5F5F5F5F5F5F5F5F5F5F5F5F5F5F5F5F5
310
F5F5F5F5F5F5E2E2F5F5F5F5F5F5F5F5F5F5F5F5F5F5F5F5F5F5F5F5F5F5F5F5F5F5F5F5F5F5F5F5F5F5F5F5F5F5F5F5F5F5F5F5F5F5F5F5F5F5F5F5F5F5F5F5F5F5F5F5F5F5F5F5F5F5F5F5F5F5F5F5F5F5F5F5F5F5F5F5F5F5F5F5F5F5F5F5F5F5F5F5F5F5F5F5F5F5F5F5F5F5F5F5F5F5F5F5F5F5F5F5F5F5F5F5F5F5F5
310
F5F5F5F5F5F5F5F5F5F5F5F5F5F5F5F5F5F5F5F5F5F5F5F5F5F5F5F5F5F5F5F5F5F5F5F5F5F5F5F5F5F5F5F5F5F5F5F5F5F5F5F5F5F5F5F5F5F5F5E2E2F5F5F5F5F5F5F5F5F5F5F5F5F5F5F5F5F5F5F5F5F5E2E2E2E2E2E2E2E2E2E2E2E2E2E2E2E2E2E2E2E2E2E2E2E2E2E2E2E2E2E2E2E2E2E2E2E2E2E2E2E2E2E2E2E2E2
310
E2E2E2E2E2E2E2E2E2E2E2E2E2E2E2E2E2E2E2E2E2E2E2E2E2E2E2E2E2E2E2E2E2E2E2E2E2E2E2E2E2E2E2E2E2E2E2E2E2E2E2E2E2E2E2E2E2E2E2E2E2E2E2E2E2E2E2E2E2E2E2E2E2E2E2E2E2E2E2E2E2E2E2E2E2E2E2E2E2E2E2F5F5F5F5F5F5F5F5F5F5F5F5F5F5F5F5F5F5F5F5F5E2E2F5F5F5F5F5F5F5F5F5F5F5F5F5
310
F5F5F5F5F5F5F5F5E22D2D2D2D2D2D2D2D2D2D2D2DF5F5F5F5F5F5F5F5F5F5F5F5F5F5F5E2F5F5F5F5F5F5F5F5F5F5F5F5F5F5F5F5F5F5F5F5F5F5F5F5F5F5F5F5F5F5F5F5F5F5F5F5F5F5F5F5F5F5F5F5F5F5F5F5F5F5F5F5F5F5F5F5F5F5F5F5F5F5F5F5F5F5F5F5F5F5F5F5F5F5F5F5F5F5F5F5F5F5F5F5F5F5F5F5F5F5
310
F5F5F5F5F5F5F5F5F5F5F5F5F5F5F5F5E2F5F5F5F5F5F5F5F5F5F5F5F5F5F5F5F5F5F5F5F5F5E2E2F5F5F5F5F5F5F5F5F5F5F5F5F5F5F5F5F5F5F5F5F5E22D2D2DF5F5E2F5F5F5F5F52DF5F5F5F5F5F5F5F5F5F5F5F5F5F5F5E2F5F5F5F5F5F5F5F5F5F5F5F5F5F5F5F5F5F5F5F5F5F5F5F5F5F5F5F5F5F5F5F5F5F5F5F5F5
310
F5F5F5F5F5F5F5F5F5F5F5F5F5F5F5F5F5F5F5F5F5F5F5F5F5F5F5F5F5F5F5F5F5F5F5F5F5F5F5F5F5F5F5F5F5F5F5F5F5F5F5F5F5F5F5F5F5F5F5F5F5F5F5F5F5F5F5F5F5E2F5F5F5F5F5F5F5F5F5F5F5F5F5F5F5F5F5F5F5F5F5E2E2F5F5F5F5F5F5F5F5F5F5F5F5F5F5F5F5F5F5F5F5F5E2DCF52DF5F5E2F5F5F5F5F52D
310
F5F5F5F5F5F5F5F5F5F5F5F5F5F5F5E2F5F5F5F5F5F5F5F5F5F5F5F5F5F5F5F5F5F5F5F5F5F5F5F5F5F5F5F5F5F5F5F5F5F5F5F5F5F5F5F5F5F5F5F5F5F5F5F5F5F5F5F5F5F5F5F5F5F5F5F5F5F5F5F5F5F5F5F5F5F5F5F5F5F5F5F5F5F5F5F5F5F5F5F5F5F5F5F5F5F5F5F5F5F5F5F5F5F5F5F5F5F5F5F5F5F5E2F5F5F5F5
310
F5F5F5F5F5F5F5F5F5F5F5F5F5F5F5F5F5E2E2F5F5F5F5F5F5F5F5F5F5F5F5F5F5F5F5F5F5F5F5F5E2BEF52D2D2D2D2D2D2D2DE2E2E2E2E2E2E2E2E2E2E2E2E2E2E2E2E2E2F5F5F5F5F5F5F5F5F5F5F5F5F5F5F5F5F5F5F5F5F5F5F5F5F5F5F5F5F5F5F5F5F5F5F5F5F5F5F5F5F5F5F5F5F5F5F5F5F5F5F5F5F5F5F5F5F5F5
310
F5F5F5F5F5F5F5F5F5F5F5F5F5F5F5F5F5F5F5F5F5F5F5F5F5F5F5F5F5F5F5F5F5F5F5F5F5F5F5F5F5F5F5F5F5F5F5F5E2F5F5F5F5F5F5F5F5F5F5F5F5F5F5F5F5F5F5F5F5F5E2E2F5F5F5F5E2F5F5F5F5F5F5F5F5F5F5F5F5F5F5F5F5E2DCF5F5F5F5E2F5F5F5F5F5E2F5F5F5F5F5F5F5F5F5F5F5F5F5F5F5F5F5F5F5F5F5
310
F5F5F5F5F5F5F5F5F5F5F5F5F5F5F5F5F5F5F5F5F5F5F5F5F5F5F5F5F5F5F5F5F5F5F5F5F5F5F5F5F5F5F5F5F5F5F5F5F5F5F5F5F5F5F5F5F5F5F5F5F5F5F5F5F5F5F5F5F5F5F5F5F5F5F5F5F5F5F5F5F5F5F5F5F5F5F5F5F5F5F5F5F5F5F5F5F5F5F5F5F5E2F5F5F5F5F5F5F5F5F5F5F5F5F5F5F5F5E2F5F5F5F5E2E2F5F5
310
F5F5E2F5F5F5F5F5F5F5F5F5F5F5F5F5F5F5F5E2F5F5F5F5F5E2F5F5F5F5F5E2F5F5F5F5F5F5F5F5F5F5F5F5F5F5F5F5F5F5F5F5F5F5F5F5F5F5F5F5F5F5F5F5F5F5F5F5F5F5F5F5F5F5F5F5F5F5F5F5F5F5F5F5F5F5F5F5F5F5F5F5F5F5F5F5F5F5F5F5F5F5F5F5F5F5F5F5F5F5F5F5F5F5F5F5F5F5F5F5F5F5F5F5F5F5F5
310
F5F5F5F5F5F5F5F5F5F5F5F5F5F5F5F5F5F5F5F5F5F5F5F5F5F5F5E2F5F5F5F5F5F5F5F5F5F5F5F5F5F5F5F5E2F5F5F5F5E2E2F5F5F5F5E2F5F5F5F5F5F5F5F5F5F5F5F5F5F5F5F5E2F5F5F5F5F5E2F5F5F5F5F5E2F5F5F5F5F5F5F5F5F5F5F5F5F5F5F5F5F5F5F5F5F5F5F5F5F5F5F5F5F5F5F5F5F5F5F5F5F5F5F5F5F5F5
310
F5F5F5F5F5F5F5F5F5F5F5F5F5F5F5F5F5F5F5F5F5F5F5F5F5F5F5F5F5F5F5F5F5F5F5F5F5F5F5F5F5F5F5F5F5F5F5F5F5F5F5F5F5F5F5F5F5F5F5F5F5F5F5F5F5F5F5F5F5F5F5F5F5F5F5F5F5F5F5F5E2F5F5F5F5F5F5F5F5F5F5F5F5F5F5F5F5E2F5F5F5F5E2E2F5F5F5F5E2F5F5F5F5F5F5F5F5F5F5F5F5F5F5F5F5E2F5
310
F5F5F5F5E2F5F5F5F5F5E2F5F5F5F5F5F5F5F5F5F5F5F5F5F5F5F5F5F5F5F5F5F5F5F5F5F5F5F5F5F5F5F5F5F5F5F5F5F5F5F5F5F5F5F5F5F5F5F5F5F5F5F5F5F5F5F5F5F5F5F5F5F5F5F5F5F5F5F5F5F5F5F5F5F5F5F5F5F5F5F5F5F5F5F5F5F5F5F5F5F5F5F5F5F5F5F5F5F5F5F5F5F5F5F5F5F5F5F5F5F5F5F5F5F5F5F5
310
F5F5F5F5F5F5E2F5F5F5F5F5F5F5F5F5F5F5F5F5F5F5F5E2F5F5F5F5E2E2F5F5F5F5E2F5F5F5F5F5F5F5F5F5F5F5F5F5F5F5F5E2E2E2E2E2E2E2F5F5F5F5F5E2F5F5F5F5F5F5F5F5F5F5F5F5F5F5F5F5F5F5F5F5F5F5F5F5F5F5F5F5F5F5F5F5F5F5F5F5F5F5F5F5F5F5F5F5F5F5F5F5F5F5F5F5F5F5F5F5F5F5F5F5F5F5F5
310
F5F5F5F5F5F5F5F5F5F5F5F5F5F5F5F5F5F5F5F5F5F5F5F5F5F5F5F5F5F5F5F5F5F5F5F5F5F5F5F5F5F5F5F5F5F5F5F5F5F5F5F5F5F5F5F5F5F5F5E2F5F5F5F5F5F5F5F5F5F5F5F5F5F5F5F5E2F5F5F5F5E2E2F5F5F5F5E2F5F5F5F5F5F5F5F5F5F5F5F5F5F5F5F5E2E2E2E2F5E2E2F5F5F5F5F5E2F5F5F5F5F5F5F5F5F5F5
310
F5F5F5F5F5F5F5F5F5F5F5F5F5F5F5F5F5F5F5F5F5F5F5F5F5F5F5F5F5F5F5F5F5F5F5F5F5F5F5F5F5F5F5F5F5F5F5F5F5F5F5F5F5F5F5F5F5F5F5F5F5F5F5F5F5F5F5F5F5F5F5F5F5F5F5F5F5F5F5F5F5F5F5F5F5F5F5F5F5F5F5F5F5F5F5F5F5F5F5F5F5F5F5F5F5F5F5F5F5F5F5F5E2F5F5F5F5F5F5F5F5F5F5F5F5F5F5
310
F5F5E2F5F5F5F5E2E2F5F5F5F5E2F5F5F5F5F5F5F5F5F5F5F5F5F5F5F5F5E2E2E2E2F5F5F5F5F5F5F5F5E2F5F5F5F5F5F5F5F5F5F5F5F5F5F5F5F5F5F5F5F5F5F5F5F5F5F5F5F5F5F5F5F5F5F5F5F5F5F5F5F5F5F5F5F5F5F5F5F5F5F5F5F5F5F5F5F5F5F5F5F5F5F5F5F5F5F5F5F5F5F5F5F5F5F5F5F5F5F5F5F5F5F5F5F5
310
F5F5F5F5F5F5F5F5F5F5F5F5F5F5F5F5F5F5F5F5F5F5F5F5F5F5F5F5F5F5F5F5F5F5F5F5F5F5E2F5F5F5F5F5F5F5F5F5F5F5F5F5F5F5F5E2F5F5F5F5E2E2F5F5F5F5E2F5F5F5F5F5F5F5F5F5F5F5F5F5F5F5F5E2F5F5F5F5F5F5F5F5F5F5F5E2F5F5F5F5F5F5F5F5F5F5F5F5F5F5F5F5F5F5F5F5F5F5F5F5F5F5F5F5F5F5F5
310
F5F5F5F5F5F5F5F5F5F5F5F5F5F5F5F5F5F5F5F5F5F5F5F5F5F5F5F5F5F5F5F5F5F5F5F5F5F5F5F5F5F5F5F5F5F5F5F5F5F5F5F5F5F5F5F5F5F5F5F5F5F5F5F5F5F5F5F5F5F5F5F5F5F5F5F5F5F5F5F5F5F5F5F5F5F5F5F5F5F5F5E2F5F5F5F5F5F5F5F5F5F5F5F5F5F5F5F5E2F5F5F5F5E2E2F5F5F5F5E2F5F5F5F5F5F5F5
310
F5F5F5F5F5F5F5F5F5E2E2E2E2E2E2E2E2E2E2E2E2E2F5F5F5F5F5F5F5F5F5F5F5F5F5F5F5F5F5F5F5F5F5F5F5F5F5F5F5F5F5F5F5F5F5F5F5F5F5F5F5F5F5F5F5F5F5F5F5F5F5F5F5F5F5F5F5F5F5F5F5F5F5F5F5F5F5F5F5F5F5F5F5F5F5F5F5F5F5F5F5F5F5F5F5F5F5F5F5F5F5F5F5F5F5F5F5F5F5F5F5F5F5F5F5F5F5
310
F5F5F5F5F5F5F5F5F5F5F5F5F5F5F5F5F5E2F5F5F5F5F5F5F5F5F5F5F5F5F5F5F5F5E2F5F5F5F5E2E2F5F5F5F5E2F5F5F5F5F5F5F5F5F5F5F5F5F5F5F5F5E2E2E2F5F5F5F5F5F5F5F5F5F5F5F5F5F5F5F5F5F5F5F5F5F5F5F5F5F5F5F5F5F5F5F5F5F5F5F5F5F5F5F5F5F5F5F5F5F5F5F5F5F5F5F5F5F5F5F5F5F5F5F5F5F5
310
F5F5F5F5F5F5F5F5F5F5F5F5F5F5F5F5F5F5F5F5F5F5F5F5F5F5F5F5F5F5F5F5F5F5F5F5F5F5F5F5F5F5F5F5F5F5F5F5F5F5F5F5F5F5F5F5F5F5F5F5F5F5F5F5F5F5F5F5F5F5E2F5F5F5F5F5F5F5F5F5F5F5F5F5F5F5F5E2F5F5F5F5E2E2F5F5F5F5E2F5F5F5F5F5F5F5F5F5F5F5F5F5F5F5F5E2E2E2F5F5F5F5F5F5F5F5F5
310
F5F5F5F5F5F5F5F5F5F5F5F5F5F5F5F5F5F5F5F5F5F5F5F5F5F5F5F5F5F5F5F5F5F5F5F5F5F5F5F5F5F5F5F5F5F5F5F5F5F5F5F5F5F5F5F5F5F5F5F5F5F5F5F5F5F5F5F5F5F5F5F5F5F5F5F5F5F5F5F5F5F5F5F5F5F5F5F5F5F5F5F5F5F5F5F5F5F5F5F5F5F5F5F5F5F5F5F5F5F5F5F5F5F5F5F5F5F5F5F5F5F5F5E2F5F5F5
310
F5F5F5F5F5F5F5F5F5F5F5F5F5E2F5F5F5F5E2E2F5F5F5F5E2F5F5F5F5F5F5F5F5F5F5F5F5F5F5F5F5E2F5F5F5F5F5F5F5F5F5F5F5F5F5F5F5F5F5F5F5F5F5F5F5F5F5F5F5F5F5F5F5F5F5F5F5F5F5F5F5F5F5F5F5F5F5F5F5F5F5F5F5F5F5F5F5F5F5F5F5F5F5F5F5F5F5F5F5F5F5F5F5F5F5F5F5F5F5F5F5F5F5F5F5F5F5
310
F5F5F5F5F5F5F5F5F5F5F5F5F5F5F5F5F5F5F5F5F5F5F5F5F5F5F5F5F5F5F5F5F5F5F5F5F5F5F5F5F5F5F5F5F5F5F5F5F5E2F5F5F5F5F5F5F5F5F5F5F5F5F5F5F5F5E2F5F5F5F5E2E2F5F5F5F5E2F5F5F5F5F5F5F5F5F5F5F5F5F5F5F5F5E2F5F5F5F5F5F5F5F5F5F5F5F5F5F5F5F5F5F5F5F5F5F5F5F5F5F5F5F5F5F5F5F5
310
F5F5F5F5F5F5F5F5F5F5F5F5F5F5F5F5F5F5F5F5F5F5F5F5F5F5F5F5F5F5F5F5F5F5F5F5F5F5F5F5F5F5F5F5F5F5F5F5F5F5F5F5F5F5F5F5F5F5F5F5F5F5F5F5F5F5F5F5F5F5F5F5F5F5F5F5F5F5F5F5F5F5F5F5F5F5F5F5F5F5F5F5F5F5F5F5F5F5F5F5F5F5E2F5F5F5F5F5F5F5F5F5F5F5F5F5F5F5F5E2F5F5F5F5E2E2F5
310
F5F5F5E2F5F5F5F5F5F5F5F5F5F5F5F5F5F5F5F5E20F0F0F0F0F0F0F0F0F0F0FF5F5F5F5F5F5F5F5F5F5F5F5F5F5F5F5F5F5F5F5F5F5F5F5F5F5F5F5F5F5F5F5F5F5F5F5F5F5F5F5F5F5F5F5F5F5F5F5F5F5F5F5F5F5F5F5F5F5F5F5F5F5F5F5F5F5F5F5F5F5F5F5F5F5F5F5F5F5F5F5F5F5F5F5F5F5F5F5F5F5F5F5F5F5F5
310
F5F5F5F5F5F5F5F5F5F5F5F5F5F5F5F5F5F5F5F5F5F5F5F5F5F5F5F5E2F5F5F5F5F5F5F5F5F5F5F5F5F5F5F5F5E2F5F5F5F5E2E2F5F5F5F5E2F5F5F5F5F5F5F5F5F5F5F5F5F5F5F5F5E20F0F0F0F0F0F0F0F0F0F0FF5F5F5F5F5F5F5F5F5F5F5F5F5F5F5F5F5F5F5F5F5F5F5F5F5F5F5F5F5F5F5F5F5F5F5F5F5F5F5F5F5F5
310
F5F5F5F5F5F5F5F5F5F5F5F5F5F5F5F5F5F5F5F5F5F5F5F5F5F5F5F5F5F5F5F5F5F5F5F5F5F5F5F5F5F5F5F5F5F5F5F5F5F5F5F5F5F5F5F5F5F5F5F5F5F5F5F5F5F5F5F5F5F5F5F5F5F5F5F5F5F5F5F5F5E2F5F5F5F5F5F5F5F5F5F5F5F5F5F5F5F5E2F5F5F5F5E2E2F5F5F5F5E2F5F5F5F5F5F5F5F5F5F5F5F5F5F5F5F5E2
310
0F0F0F0F0F0F0F0F0F0FF5F5F5F5F5F5F5F5F5F5F5F5F5F5F5F5F5F5F5F5F5F5F5F5F5F5F5F5F5F5F5F5F5F5F5F5F5F5F5F5F5F5F5F5F5F5F5F5F5F5F5F5F5F5F5F5F5F5F5F5F5F5F5F5F5F5F5F5F5F5F5F5F5F5F5F5F5F5F5F5F5F5F5F5F5F5F5F5F5F5F5F5F5F5F5F5F5F5F5F5F5F5F5F5F5F5F5F5F5F5F5F5F5F5F5F5F5
310
F5F5F5F5F5F5F5E2F5F5F5F5F5F5F5F5F5F5F5F5F5F5F5F5E2F5F5F5F5E2E2F5F5F5F5E2F5F5F5F5F5F5F5F5F5F5F5F5F5F5F5F5E2F5F5F5F5F5F5F5F5F5F5F5F5F5F5F5F5F5F5F5F5F5F5F5F5F5F5F5F5F5F5F5F5F5F5F5F5F5F5F5F5F5F5F5F5F5F5F5F5F5F5F5F5F5F5F5F5F5F5F5F5F5F5F5F5F5F5F5F5F5F5F5F5F5F5
310
F5F5F5F5F5F5F5F5F5F5F5F5F5F5F5F5F5F5F5F5F5F5F5F5F5F5F5F5F5F5F5F5F5F5F5F5F5F5F5F5F5F5F5F5F5F5F5F5F5F5F5F5F5F5F5F5F5F5F5F5E2F5F5F5F5F5F5F5F5F5F5F5F5F5F5F5F5E2F5F5F5F5E2E2F5F5F5F5F5F5F5F5F5F5F5F5F5F5F5F5F5F5F5F5F5E2F5F5F5F5F5F5F5F5F5F5F5F5F5F5F5F5F5F5F5F5F5
310
F5F5F5F5F5F5F5F5F5F5F5F5F5F5F5F5F5F5F5F5F5F5F5F5F5F5F5F5F5F5F5F5F5F5F5F5F5F5F5F5F5F5F5F5F5F5F5F5F5F5F5F5F5F5F5F5F5F5F5F5F5F5F5F5F5F5F5F5F5F5F5F5F5F5F5F5F5F5F5F5F5F5F5F5F5F5F5F5F5F5F5F5F5F5F5F5F5F5F5F5F5F5F5F5F5F5F5F5F5F5F5F5F5E2F5F5F5F5F5F5F5F5F5F5F5F5F5
310
F5F5F5F5F5F5F5F5E2E2F5F5F5F5F5F5F5F5F5F5F5F5F5F5F5F5F5F5F5F5F5E2F5F5F5F5F5F5F5F5F5F5F5F5F5F5F5F5F5F5F5F5F5F5F5F5F5F5F5F5F5F5F5F5F5F5F5F5F5F5F5F5F5F5F5F5F5F5F5F5F5F5F5F5F5F5F5F5F5F5F5F5F5F5F5F5F5F5F5F5F5F5F5F5F5F5F5F5F5F5F5F5F5F5F5F5F5F5F5F5F5F5F5F5F5F5F5
310
F5F5F5F5F5F5F5F5F5F5F5F5F5F5F5F5F5F5F5F5F5F5F5F5F5F5F5F5F5F5F5F5F5F5F5F5F5F5F5E2F5F5F5F5F5F5F5F5F5F5F5F5F5F5F5F5F5F5F5F5F5E2E2F5F5F5F5F5F5F5F5F5F5F5F5F5F5F5F5F5F5F5F5F5E2F5F5F5F5F5F5F5F5F5F5F5F5F5F5F5F5F5F5F5F5F5F5F5F5F5F5F5F5F5F5F5F5F5F5F5F5F5F5F5F5F5F5
310
F5F5F5F5F5F5F5F5F5F5F5F5F5F5F5F5F5F5F5F5F5F5F5F5F5F5F5F5F5F5F5F5F5F5F5F5F5F5F5F5F5F5F5F5F5F5F5F5F5F5F5F5F5F5F5F5F5F5F5F5F5F5F5F5F5F5F5F5F5F5F5F5F5F5F5F5F5F5F5F5F5F5F5F5F5F5F5F5F5F5F5F5E2F5F5F5F5F5F5F5F5F5F5F5F5F5F5F5F5F5F5F5F5F5E2E2F5F5F5F5F5F5F5F5F5F5F5
310
F5F5F5F5F5F5F5F5F5F5E2F5F5F5F5F5F5F5F5F5F5F5F5F5F5F5F5F5F5F5F5F5F5F5F5F5F5F5F5F5F5F5F5F5F5F5F5F5F5F5F5F5F5F5F5F5F5F5F5F5F5F5F5F5F5F5F5F5F5F5F5F5F5F5F5F5F5F5F5F5F5F5F5F5F5F5F5F5F5F5F5F5F5F5F5F5F5F5F5F5F5F5F5F5F5F5F5F5F5F5F5F5F5F5F5F5F5F5F5F5F5F5F5F5F5F5F5
310
F5F5F5F5F5F5F5F5F5F5F5F5F5F5F5F5F5F5E2F5F5F5F5F5F5F5F5F5F5F5F5F5F5F5F5F5F5F5F5F5E2E2F5F5F5F5F5F5F5F5F5F5F5F5F5F5F5F5F5F5F5F5F5E2F5F5F5F5F5F5F5F5F5F5F5F5F5F5F5F5F5F5F5F5F5F5F5F5F5F5F5F5F5F5F5F5F5F5F5F5F5F5F5F5F5F5F5F5F5F5F5F5F5F5F5F5F5F5F5F5F5F5F5F5F5F5F5
310
F5F5F5F5F5F5F5F5F5F5F5F5F5F5F5F5F5F5F5F5F5F5F5F5F5F5F5F5F5F5F5F5F5F5F5F5F5F5F5F5F5F5F5F5F5F5F5F5F5F5F5F5F5F5F5F5F5F5F5F5F5F5F5F5F5F5F5F5F5F5F5E2F5F5F5F5F5F5F5F5F5F5F5F5F5F5F5F5F5F5F5F5F5E2E2F5F5F5F5F5F5F5F5F5F5F5F5F5F5F5F5F5F5F5F5F5E2F5F5F5F5F5F5F5F5F5F5
310
F5F5F5F5F5F5F5F5F5F5F5F5F5F5F5F5F5F5F5F5F5F5F5F5F5F5F5F5F5F5F5F5F5F5F5F5F5F5F5F5F5F5F5F5F5F5F5F5F5F5F5F5F5F5F5F5F5F5F5F5F5F5F5F5F5F5F5F5F5F5F5F5F5F5F5F5F5F5F5F5F5F5F5F5F5F5F5F5F5F5F5F5F5F5F5F5F5F5F5F5F5F5F5F5F5F5F5F5F5F5F5F5F5F5F5F5F5F5F5F5F5F5F5F5E2F5F5
310
F5F5F5F5F5F5F5F5F5F5F5F5F5F5F5F5F5F5F5E2E2F5F5F5F5F5F5F5F5F5F5F5F5F5F5F5F5F5F5F5F5F5E2F5F5F5F5F5F5F5F5F5F5F5F5F5F5F5F5F5F5F5F5F5F5F5F5F5F5F5F5F5F5F5F5F5F5F5F5F5F5F5F5F5F5F5F5F5F5F5F5F5F5F5F5F5F5F5F5F5F5F5F5F5F5F5F5F5F5F5F5F5F5F5F5F5F5F5F5F5F5F5F5F5F5F5F5
310
F5F5F5F5F5F5F5F5F5F5F5F5F5F5F5F5F5F5F5F5F5F5F5F5F5F5F5F5F5F5F5F5F5F5F5F5F5F5F5F5F5F5F5F5F5F5F5F5F5F5E2F5F5F5F5F5F5F5F5F5F5F5F5F5F5F5F5F5F5F5F5F5E2E2F5F5F5F5F5F5F5F5F5F5F5F5F5F5F5F5F5F5F5F5F5E2F5F5F5F5F5F5F5F5F5F5F5F5F5F5F5F5F5F5F5F5F5F5F5F5F5F5F5F5F5F5F5
310
F5F5F5F5F5F5F5F5F5F5F5F5F5F5F5F5F5F5F5F5F5F5F5F5F5F5F5F5F5F5F5F5F5F5F5F5F5F5F5F5F5F5F5F5F5F5F5F5F5F5F5F5F5F5F5F5F5F5F5F5F5F5F5F5F5F5F5F5F5F5F5F5F5F5F5F5F5F5F5F5F5F5F5F5F5F5F5F5F5F5F5F5F5F5F5F5F5F5F5F5F5F5F5E2F5F5F5F5F5F5F5F5F5F5F5F5F5F5F5F5F5F5F5F5F5E2E2
310
F5F5F5F5F5F5F5F5F5F5F5F5F5F5F5F5F5F5F5F5F5E2F5F5F5F5F5F5F5F5F5F5F5F5F5F5F5F5F5F5F5F5F5F5F5F5F5F5F5F5F5F5F5F5F5F5F5F5F5F5F5F5F5F5F5F5F5F5F5F5F5F5F5F5F5F5F5F5F5F5F5F5F5F5F5F5F5F5F5F5F5F5F5F5F5F5F5F5F5F5F5F5F5F5F5F5F5F5F5F5F5F5F5F5F5F5F5F5F5F5F5F5F5F5F5F5F5
310
F5F5F5F5F5F5F5F5F5F5F5F5F5F5F5F5F5F5F5F5F5F5F5F5F5F5F5F5F5E2F5F5F5F5F5F5F5F5F5F5F5F5F5F5F5F5F5F5F5F5F5E2E2F5F5F5F5E2F5F5F5F5F5F5F5F5F5F5F5F5F5F5F5F5E2F5F5F5F5F5F5F5F5F5F5F5F5F5F5F5F5F5F5F5F5F5F5F5F5F5F5F5F5F5F5F5F5F5F5F5F5F5F5F5F5F5F5F5F5F5F5F5F5F5F5F5F5
310
F5F5F5F5F5F5F5F5F5F5F5F5F5F5F5F5F5F5F5F5F5F5F5F5F5F5F5F5F5F5F5F5F5F5F5F5F5F5F5F5F5F5F5F5F5F5F5F5F5E2F0E2E2F5F5F5F5F5F5E2F0E2E2F5DCF5F5F5F5F5F5F0F0E2F5F5F5F5F5F5F5F5E2F5F5F5F5F5F5F5F5F5F5F5F5F5F5F5F5E2F5F5F5F5E2E2F5F5F5F5E2F5F5F5F5F5F5F5F5F5F5F5F5F5F5F5F5
310
E2F5F5F5F5F5F5F5F5F5F5F5F5F5F5F5F5F5F5F5F5F5F5F5F5F5F5F5F5F5F5F5F5F5F5F5F5F5F5F5F5F5F5F5F5F5F5F5F5F5F5F5F5F5F5F5F5F5F5F5F5F5F5F5F5F5F5F5F5F5F5F5F5F5F5F5F5F5F5F5F5F5F5F5F5F5F5F5F5F5F5F5F5F5F5F5F5F5F5F5F5E2DCDCF0F5E2F5F5F5F5F5E2F5F0E2E2DCF5F5F5F5F5E2F0F0F5
310
E2F5F5F5E2E2E2F5E2F5F5F5F5F5F5F5F5F5F5F5F5F5F5F5F5E2F5F5F5F5E2E2F5F5F5F5E2F5F5F5F5F5F5F5F5F5F5F5F5F5F5F5F5E2F5F5F5F5F5F5F5F5F5F5F5F5F5F5F5F5F5F5F5F5F5F5F5F5F5F5F5F5F5F5F5F5F5F5F5F5F5F5F5F5F5F5F5F5F5F5F5F5F5F5F5F5F5F5F5F5F5F5F5F5F5F5F5F5F5F5F5F5F5F5F5F5F5
310
F5F5F5F5F5F5F5F5F5F5F5F5F5F5F5F5F5F5F5F5F5F5F5F5F5F5E2F0DCF0DCE2E2E2F5F5F5E2E2F0F0F0E2DCF5F5F5F5E2F0F0F0E2E2F0E2E2E2E2E2E2E2F5F5F5F5F5F5F5F5F5F5F5F5F5F5F5F5E2F5F5F5F5E2E2F5F5F5F5E2F5F5F5F5F5F5F5F5F5F5F5F5F5F5F5F5E2F5F5F5F5F5F5F5F5F5F5F5F5F5F5F5F5F5F5F5F5
310
F5F5F5F5F5F5F5F5F5F5F5F5F5F5F5F5F5F5F5F5F5F5F5F5F5F5F5F5F5F5F5F5F5F5F5F5F5F5F5F5F5F5F5F5F5F5F5F5F5F5F5F5F5F5F5F5F5F5F5F5F5F5F5F5F5F5F5F5F5F5F5F5F5F5F5F5F5F5F5E2F0DCF0DCF0F0E2F5F5F5E2F0DCE2E2E2DCF5F5F5F5F0F0F0F0E2E2F0E2F5E2E2E2E2E2F5F5F5F5F5F5F5F5F5F5F5F5
310
F5F5F5F5E2F5F5F5F5E2E2F5F5F5F5E2F5F5F5F5F5F5F5F5F5F5F5F5F5F5F5F5E2F5F5F5F5F5F5F5F5F5F5F5F5F5F5F5F5F5F5F5F5F5F5F5F5F5F5F5F5F5F5F5F5F5F5F5F5F5F5F5F5F5F5F5F5F5F5F5F5F5F5F5F5F5F5F5F5F5F5F5F5F5F5F5F5F5F5F5F5F5F5F5F5F5F5F5F5F5F5F5F5F5F5F5F5F5F5F5F5F5F5F5F5F5F5
310
F5F5F5F5F5F5E2DCDCDCF0E2F5F5F5F5F5F0DCDCE2E2DCF5F5F5F5F5F0F0F0DCE2F0F5E2E2E2E2F5E2F5F5F5F5F5F5F5F5F5F5F5F5F5F5F5F5E2F5F5F5F5E2E2F5F5F5F5E2F5F5F5F5F5F5F5F5F5F5F5F5F5F5F5F5E2F5F5F5F5F5F5F5F5F5F5F5F5F5F5F5F5F5F5F5F5F5F5F5F5F5F5F5F5F5F5F5F5F5F5F5F5F5F5F5F5F5
310
F5F5F5F5F5F5F5F5F5F5F5F5F5F5F5F5F5F5F5F5F5F5F5F5F5F5F5F5F5F5F5F5F5F5F5F5F5F5F5F5F5F5F5F5F5F5F5F5F5F5F5F5F5F5F5F5F5F5F5E2F0F0F0E2F5F5F5F5F5E2F0E2E2E2E2DCF5F5F5F5F5F0F0E2E2F5F5F5F5E2E2E2F5E2F5F5F5F5F5F5F5F5F5F5F5F5F5F5F5F5E2F5F5F5F5E2E2F5F5F5F5E2F5F5F5F5F5
310
F5F5F5F5F5F5F5F5F5F5F5E2F5F5F5F5F5F5F5F5F5F5F5F5F5F5F5F5F5F5F5F5F5F5F5F5F5F5F5F5F5F5F5F5F5F5F5F5F5F5F5F5F5F5F5F5F5F5F5F5F5F5F5F5F5F5F5F5F5F5F5F5F5F5F5F5F5F5F5F5F5F5F5F5F5F5F5F5F5F5F5F5F5F5F5F5F5F5F5F5F5F5F5F5F5F5F5F5F5F5F5F5F5F5E2E2F5F5F5F5F5F5F5F5E2E2F5
310
F5DCF5F5F5F5F5F5F5F0E2F5F5F5F5F5E2F5F5E2F5F5F5F5F5F5F5F5F5F5F5F5F5F5F5F5E2F5F5F5F5E2E2F5F5F5F5E2F5F5F5F5F5F5F5F5F5F5F5F5F5F5F5F5E2F5F5F5F5F5F5F5F5F5F5F5F5F5F5F5F5F5F5F5F5F5F5F5F5F5F5F5F5F5F5F5F5F5F5F5F5F5F5F5F5F5F5F5F5F5F5F5F5F5F5F5F5F5F5F5F5F5F5F5F5F5F5
310
F5F5F5F5F5F5F5F5F5F5F5F5F5F5F5F5F5F5F5F5F5F5F5F5F5F5F5F5F5F5F5F5F5F5F5F5F5F5F5F5F5F5F5F5F5F5F5F5F5F5F5F5F5F5DCF5F5F5F5F5F5F5F5F5F5F5F5F5F5F5F5F5E2F5F5F5F5F5F5F5F5F5F5F5F5F5F5F5F5E2F5F5F5F5E2E2F5F5F5F5E2F5F5F5F5F5F5F5F5F5F5F5F5F5F5F5F5E2F5F5F5F5F5F5F5F5F5
310
F5F5F5F5F5F5F5F5F5F5F5F5F5F5F5F5F5F5F5F5F5F5F5F5F5F5F5F5F5F5F5F5F5F5F5F5F5F5F5F5F5F5F5F5F5F5F5F5F5F5F5F5F5F5F5F5F5F5F5F5F5F5F5F5F5F5F5F5F5F5F5F5F5F5F5F5F5F5F5F5F5F5F5F5F5F5F5F5F5F5F5F5F5F5F5F5F5F5F5F5F5F5F5F5F5F5F5DCF5F5F5F5F5F5F5F5F5F5F5F5F5F5F5F5F5E2F5
310
F5F5F5F5F5F5F5F5F5F5F5F5F5F5F5E2F5F5F5F5E2E2F5F5F5F5E2F5F5F5F5F5F5F5F5F5F5F5F5F5F5F5F5E2F5F5F5F5F5F5F5F5F5F5F5F5F5F5F5F5F5F5F5F5F5F5F5F5F5F5F5F5F5F5F5F5F5F5F5F5F5F5F5F5F5F5F5F5F5F5F5F5F5F5F5F5F5F5F5F5F5F5F5F5F5F5F5F5F5F5F5F5F5F5F5F5F5F5F5F5F5F5F5F5F5F5F5
310
F5F5F5F5F5F5F5F5F5F5F5F5F5F5F5F5F5F5F5F5F5F5F5F5F5F5F5F5F5F5F5F5F5DCF5F5F5F5F5F5F5F5F5F5F5F5F5F5F5F5F5E2F5F5F5F5F5F5F5F5F5F5F5F5F5F5F5F5E2F5F5F5F5E2E2F5F5F5F5E2F5F5F5F5F5F5F5F5F5F5F5F5F5F5F5F5E2F5F5F5F5F5F5F5F5F5F5F5F5F5F5F5F5F5F5F5F5F5F5F5F5F5F5F5F5F5F5
310
F5F5F5F5F5F5F5F5F5F5F5F5F5F5F5F5F5F5F5F5F5F5F5F5F5F5F5F5F5F5F5F5F5F5F5F5F5F5F5F5F5F5F5F5F5F5F5F5F5F5F5F5F5F5F5F5F5F5F5F5F5F5F5F5F5F5F5F5F5F5F5F5F5F5F5F5F5F5F5F5F5F5F5F5F5F5DCF5F5F5F5F5F5F5F5F5F5F5F5F5F5F5F5F5E2F5F5F5F5F5F5F5F5F5F5F5F5F5F5F5F5E2F5F5F5F5E2
310
E2F5F5F5F5E2F5F5F5F5F5F5F5F5F5F5F5F5F5F5F5F5E2F5F5F5F5F5F5F5F5F5F5F5F5F5F5F5F5F5F5F5F5F5F5F5F5F5F5F5F5F5F5F5F5F5F5F5F5F5F5F5F5F5F5F5F5F5F5F5F5F5F5F5F5F5F5F5F5F5F5F5F5F5F5F5F5F5F5F5F5F5F5F5F5F5F5F5F5F5F5F5F5F5F5F5F5F5F5F5F5F5F5F5F5F5F5F5F5F5F5F5F5F5F5F5F5
310
F5F5F5F5F5F5F5F5F5F5F5F5DCF5F5F5F5F5F5F5F5F5F5F5F5F5F5F5F5F5E2F5F5F5F5F5F5F5F5F5F5F5F5F5F5F5F5E2F5F5F5F5E2E2F5F5F5F5E2F5F5F5F5F5F5F5F5F5F5F5F5F5F5F5F5E2F5F5F5F5F5F5F5F5F5F5F5F5F5F5F5F5F5F5F5F5F5F5F5F5F5F5F5F5F5F5F5F5F5F5F5F5F5F5F5F5F5F5F5F5F5F5F5F5F5F5F5
310
F5F5F5F5F5F5F5F5F5F5F5F5F5F5F5F5F5F5F5F5F5F5F5F5F5F5F5F5F5F5F5F5F5F5F5F5F5F5F5F5F5F5F5F5F5F5F5F5F5F5F5F5F5F5F5F5F5F5F5F5F5F5F5F5F5DCF5F5F5F5F5F5F5F5F5F5F5F5F5F5F5F5F5E2F5F5F5F5F5F5F5F5F5F5F5F5F5F5F5F5E2F5F5F5F5E2E2F5F5F5F5E2F5F5F5F5F5F5F5F5F5F5F5F5F5F5F5
310
F5E2F5F5F5F5F5F5F5F5F5F5F5F5F5F5F5F5F5F5F5F5F5F5F5F5F5F5F5F5F5F5F5F5F5F5F5F5F5F5F5F5F5F5F5F5F5F5F5F5F5F5F5F5F5F5F5F5F5F5F5F5F5F5F5F5F5F5F5F5F5F5F5F5F5F5F5F5F5F5F5F5F5F5F5F5F5F5F5F5F5F5F5F5F5F5F5F5F5F5F5F5F5F5F5F5F5F5F5F5F5F5F5F5F5F5F5F5DCF5F5F5F5F5F5F5F5
310
F5F5F5F5F5F5F5F5F5E2F5F5F5F5F5F5F5F5F5F5F5F5F5F5F5F5E2F5F5F5F5E2E2F5F5F5F5E2F5F5F5F5F5F5F5F5F5F5F5F5F5F5F5F5E2F5F5F5F5F5F5F5F5F5F5F5F5F5F5F5F5F5F5F5F5F5F5F5F5F5F5F5F5F5F5F5F5F5F5F5F5F5F5F5F5F5F5F5F5F5F5F5F5F5F5F5F5F5F5F5F5F5F5F5F5F5F5F5F5F5F5F5F5F5F5F5F5
310
F5F5F5F5F5F5F5F5F5F5F5F5F5F5F5F5F5F5F5F5F5F5F5F5F5F5F5F5F5F5F5F5F5F5F5F5F5F5F5F5F5F5E2E2DCE2F5F5F5F5F5F5F5F5F5F5F5F5F5F5F5F5E2F5F5F5F5F5F5F5F5F5F5F5F5F5F5F5F5E2F5F5F5F5E2E2F5F5F5F5E2F5F5F5F5F5F5F5F5F5F5F5F5F5F5F5F5E2F5F5F5F5F5F5F5F5F5F5F5F5F5F5F5F5F5F5F5
310
F5F5F5F5F5F5F5F5F5F5F5F5F5F5F5F5F5F5F5F5F5F5F5F5F5F5F5F5F5F5F5F5F5F5F5F5F5F5F5F5F5F5F5F5F5F5F5F5F5F5F5F5F5F5F5F5F5F5F5F5F5F5F5F5F5F5F5F5F5F5F5F5F5F5F5F5F5F5F5F5F5F5F5F5F5F5F5F5F5F5F5F5F5F5F5F5F5DCF5F5F5F5F5F5F5F5F5F5F5F5F5F5F5F5F5E2F5F5F5F5F5F5F5F5F5F5F5
310
F5F5F5F5F5E2F5F5F5F5E2E2F5F5F5F5E2F5F5F5F5F5F5F5F5F5F5F5F5F5F5F5F5E2F5F5F5F5F5F5F5F5F5F5F5F5F5F5F5F5F5F5F5F5F5F5F5F5F5F5F5F5F5F5F5F5F5F5F5F5F5F5F5F5F5F5F5F5F5F5F5F5F5F5F5F5F5F5F5F5F5F5F5F5F5F5F5F5F5F5F5F5F5F5F5F5F5F5F5F5F5F5F5F5F5F5F5F5F5F5F5F5F5F5F5F5F5
310
F5F5F5F5F5F5F5F5F5F5F5F5F5F5F5F5F5F5F5F5F5F5F5DCF5F5F5F5F5F5F5F5F5F5F5F5F5F5F5F5F5E2F5F5F5F5F5F5F5F5F5F5F5F5F5F5F5F5E2F5F5F5F5E2E2F5F5F5F5F5F5F5F5F5F5F5F5F5F5F5F5F5F5F5F5F5E2F5F5F5F5F5F5F5F5F5F5F5F5F5F5F5F5F5F5F5F5F5F5F5F5F5F5F5F5F5F5F5F5F5F5F5F5F5F5F5F5
310
F5F5F5F5F5F5F5F5F5F5F5F5F5F5F5F5F5F5F5F5F5F5F5F5F5F5F5F5F5F5F5F5F5F5F5F5F5F5F5F5F5F5F5F5F5F5F5F5F5F5F5F5F5F5F5F5F5F5F5F5F5F5F5F5F5F5F5F5F5F5F5F5F5F5F5F5DCF5F5F5F5F5F5F5F5F5F5F5F5F5F5F5F5F5E2F5F5F5F5F5F5F5F5F5F5F5F5F5F5F5F5F5F5F5F5F5E2E2F5F5F5F5F5F5F5F5F5
310
F5F5F5F5F5F5F5F5F5F5F5F5E2F5F5F5F5F5F5F5F5F5F5F5F5F5F5F5F5F5F5F5F5F5F5F5F5F5F5F5F5F5F5F5F5F5F5F5F5F5F5F5F5F5F5F5F5F5F5F5F5F5F5F5F5F5F5F5F5F5F5F5F5F5F5F5F5F5F5F5F5F5F5F5F5F5F5F5F5F5F5F5F5F5F5F5F5F5F5F5F5F5F5F5F5F5F5F5F5F5F5F5F5F5F5F5F5F5F5F5F5F5F5F5F5F5F5
310
F5F5F5F5F5F5F5F5F5F5F5F5F5F5F5F5F5F5F5F5E2F5F5F5F5F5F5F5F5F5F5F5F5F5F5F5F5F5F5F5F5F5E2E2F5F5F5F5F5F5F5F5F5F5F5F5F5F5F5F5F5F5F5F5F5E2F5F5F5F5F5F5F5F5F5F5F5F5F5F5F5F5F5F5F5F5F5F5F5F5F5F5F5F5F5F5F5F5F5F5F5F5F5F5F5F5F5F5F5F5F5F5F5F5F5F5F5F5F5F5F5F5F5F5F5F5F5
310
F5F5F5F5F5F5F5F5F5F5F5F5F5F5F5F5F5F5F5F5F5F5F5F5F5F5F5F5F5F5F5F5F5F5F5F5F5F5F5F5F5F5F5F5F5F5F5F5F5F5F5F5F5F5F5F5F5F5F5F5F5F5F5F5F5F5F5F5F5F5F5F5F5E2F5F5F5F5F5F5F5F5F5F5F5F5F5F5F5F5F5F5F5F5F5E2E2F5F5F5F5F5F5F5F5F5F5F5F5F5F5F5F5F5F5F5F5F5E2F5F5F5F5F5F5F5F5
310
F5F5F5F5F5F5F5F5F5F5F5F5F5F5F5F5F5F5F5F5F5F5F5F5F5F5F5F5F5F5F5F5F5F5F5F5F5F5F5F5F5F5F5F5F5F5F5F5F5F5F5F5F5F5F5F5F5F5F5F5F5F5F5F5F5F5F5F5F5F5F5F5F5F5F5F5F5F5F5F5F5F5F5F5F5F5F5F5F5F5F5F5F5F5F5F5F5F5F5F5F5F5F5F5F5F5F5F5F5F5F5F5F5F5F5F5F5F5F5F5F5F5F5F5F5F5E2
310
F5F5F5F5F5F5F5F5F5F5F5F5F5F5F5F5F5F5F5F5F5E2E2F5F5F5F5F5F5F5F5F5F5F5F5F5F5F5F5F5F5F5F5F5E2F5F5F5F5F5F5F5F5F5F5F5F5F5F5F5F5F5F5F5F5F5F5F5F5F5F5F5F5F5F5F5F5F5F5F5F5F5F5F5F5F5F5F5F5F5F5F5F5F5F5F5F5F5F5F5F5F5F5F5F5F5F5F5F5F5F5F5F5F5F5F5F5F5F5F5F5F5F5F5F5F5F5
310
F5F5F5F5F5F5F5F5F5F5F5F5F5F5F5F5F5F5F5F5F5F5F5F5F5F5F5F5F5F5F5F5F5F5F5F5F5F5F5F5F5F5F5F5F5F5F5F5F5F5F5F5E2F5F5F5F5F5F5F5F5F5F5F5F5F5F5F5F5F5F5F5F5F5E2E2F5F5F5F5F5F5F5F5F5F5F5F5F5F5F5F5F5F5F5F5F5E2F5F5F5F5F5F5F5F5F5F5F5F5F5F5F5F5F5F5F5F5F5F5F5F5F5F5F5F5F5
310
F5F5F5F5F5F5F5F5F5F5F5F5F5F5F5F5F5F5F5F5F5F5F5F5F5F5F5F5F5F5F5F5F5F5F5F5F5F5F5F5F5F5F5F5F5F5F5F5F5F5F5F5F5F5F5F5F5F5F5F5F5F5F5F5F5F5F5F5F5F5F5F5F5F5F5F5F5F5F5F5F5F5F5F5F5F5F5F5F5F5F5F5F5F5F5F5F5F5F5F5F5F5F5F5F5E2F5F5F5F5F5F5F5F5F5F5F5F5F5F5F5F5F5F5F5F5F5
310
E2E2F5F5F5F5F5F5F5F5F5F5F5F5F5F5F5F5F5F5F5F5F5E2F5F5F5F5F5F5F5F5F5F5F5F5F5F5F5F5F5F5F5F5F5F5F5F5F5F5F5F5F5F5F5F5F5F5F5F5F5F5F5F5F5F5F5F5F5F5F5F5F5F5F5F5F5F5F5F5F5F5F5F5F5F5F5F5F5F5F5F5F5F5F5F5F5F5F5F5F5F5F5F5F5F5F5F5F5F5F5F5F5F5F5F5F5F5F5F5F5F5F5F5F5F5F5
310
F5F5F5F5F5F5F5F5F5F5F5F5F5F5F5F5F5F5F5F5F5F5F5F5F5F5F5F5F5F5F5E2F5F5F5F5F5F5F5F5F5F5F5F5F5F5F5F5F5F5F5F5F5E2E2F5F5F5F5F5F5F5F5F5F5F5F5F5F5F5F5F5F5F5F5F5E2F5F5F5F5F5F5F5F5F5F5F5F5F5F5F5F5F5F5F5F5F5F5F5F5F5F5F5F5F5F5F5F5F5F5F5F5F5F5F5F5F5F5F5F5F5F5F5F5F5F5
310
F5F5F5F5F5F5F5F5F5F5F5F5F5F5F5F5F5F5F5F5F5F5F5F5F5F5F5F5F5F5F5F5F5F5F5F5F5F5F5F5F5F5F5F5F5F5F5F5F5F5F5F5F5F5F5F5F5F5F5F5F5F5F5F5F5F5F5F5F5F5F5F5F5F5F5F5F5F5F5F5F5F5F5F5E2F5F5F5F5F5F5F5F5F5F5F5F5F5F5F5F5F5F5F5F5F5E2E2F5F5F5F5F5F5F5F5F5F5F5F5F5F5F5F5F5F5F5
310
F5F5E2F5F5F5F5F5F5F5F5F5F5F5F5F5F5F5F5F5F5F5F5F5F5F5F5F5F5F5F5F5F5F5F5F5F5F5F5F5F5F5F5F5F5F5F5F5F5F5F5F5F5F5F5F5F5F5F5F5F5F5F5F5F5F5F5F5F5F5F5F5F5F5F5F5F5F5F5F5F5F5F5F5F5F5F5F5F5F5F5F5F5F5F5F5F5F5F5F5F5F5F5F5F5F5F5F5F5F5F5F5F5F5F5F5F5F5F5F5F5F5F5F5F5F5F5
310
F5F5F5F5F5F5F5F5F5F5E2F5F5F5F5F5F5F5F5F5F5F5F5F5F5F5F5F5F5F5F5F5E2E2F5F5F5F5E2F5F5F5F5F5F5F5F5F5F5F5F5F5F5F5F5E2F5F5F5F5F5F5F5F5F5F5F5F5F5F5F5F5F5F5F5F5F5F5F5F5F5F5F5F5F5F5F5F5F5F5F5F5F5F5F5F5F5F5F5F5F5F5F5F5F5F5F5F5F5F5F5F5F5F5F5F5F5F5F5F5F5F5F5F5F5F5F5
310
F5F5F5F5F5F5F5F5F5F5F5F5F5F5F5F5F5F5F5F5F5F5F5F5F5F5F5F5F5F5F5F5F5F5F5F5F5F5F5F5F5F5F5F5F5F5F5F5F5F5F5F5F5F5F5F5F5F5F5F5F5F5F5E2F5F5F5F5F5F5F5F5F5F5F5F5F5F5F5F5E2F5F5F5F5E2E2F5F5F5F5E2F5F5F5F5F5F5F5F5F5F5F5F5F5F5F5F5E2F5F5F5F5F5F5F5F5F5F5F5F5F5F5F5F5F5F5
310
F5F5F5F5F5F5F5F5F5F5F5F5F5F5F5F5F5F5F5F5F5F5F5F5F5F5F5F5F5F5F5F5F5F5F5F5F5F5F5F5F5F5F5F5F5F5F5F5F5F5F5F5F5F5F5F5F5F5F5F5F5F5F5F5F5F5F5F5F5F5F5F5F5F5F5F5F5F5F5F5F5F5F5F5F5F5F5F5F5F5F5F5F5F5F5F5F5F5F5F5F5F5F5F5F5F5F5F5F5F5F5F5F5F5F5F5E2F5F5F5F5F5F5F5F5F5F5
310
F5F5F5F5F5F5E2F5F5F5F5E2E2F5F5F5F5E2F5F5F5F5F5F5F5F5F5F5F5F5F5F5F5F5E2F5F5F5F5F5F5F5F5F5F5F5F5F5F5F5F5F5F5F5F5F5F5F5F5F5F5F5F5F5F5F5F5F5F5F5F5F5F5F5F5F5F5F5F5F5F5F5F5F5F5F5F5F5F5F5F5F5F5F5F5F5F5F5F5F5F5F5F5F5F5F5F5F5F5F5F5F5F5F5F5F5F5F5F5F5F5F5F5F5F5F5F5
310
F5F5F5F5F5F5F5F5F5F5F5F5F5F5F5F5F5F5F5F5F5F5F5F5F5F5F5F5F5F5F5F5F5F5F5F5F5F5F5F5F5F5E2F5F5F5F5F5F5F5F5F5F5F5F5F5F5F5F5E2F5F5F5F5E2E2F5F5F5F5E2F5F5F5F5F5F5F5F5F5F5F5F5F5F5F5F5E2F5F5F5F5F5F5F5F5F5F5F5F5F5F5F5F5F5F5F5F5F5F5F5F5F5F5F5F5F5F5F5F5F5F5F5F5F5F5F5
310
F5F5F5F5F5F5F5F5F5F5F5F5F5F5F5F5F5F5F5F5F5F5F5F5F5F5F5F5F5F5F5F5F5F5F5F5F5F5F5F5F5F5F5F5F5F5F5F5F5F5F5F5F5F5F5F5F5F5F5F5F5F5F5F5F5F5F5F5F5F5F5F5F5F5F5F5F5F5F5F5F5F5F5F5F5F5F5F5F5F5F5F5F5F5F5E2F5F5F5F5F5F5F5F5F5F5F5F5F5F5F5F5E2F5F5F5F5E2E2F5F5F5F5E2F5F5F5
310
F5F5F5F5F5F5F5F5F5F5F5F5F5E2F5F5F5F5F5F5F5F5F5F5F5F5F5F5F5F5F5F5F5F5F5F5F5F5F5F5F5F5F5F5F5F5F5F5F5F5F5F5F5F5F5F5F5F5F5F5F5F5F5F5F5F5F5F5F5F5F5F5F5F5F5F5F5F5F5F5F5F5F5F5F5F5F5F5F5F5F5F5F5F5F5F5F5F5F5F5F5F5F5F5F5F5F5F5F5F5F5F5F5F5F5F5F5F5F5F5F5F5F5F5F5F5F5
310
F5F5F5F5F5F5F5F5F5F5F5F5F5F5F5F5F5F5F5F5F5E2F5F5F5F5F5F5F5F5F5F5F5F5F5F5F5F5E2F5F5F5F5E2E2F5F5F5F5E2F5F5F5F5F5F5F5F5F5F5F5F5F5F5F5F5E2F5F5F5F5F5F5F5F5F5F5F5F5F5F5F5F5F5F5F5F5F5F5F5F5F5F5F5F5F5F5F5F5F5F5F5F5F5F5F5F5F5F5F5F5F5F5F5F5F5F5F5F5F5F5F5F5F5F5F5F5
310
F5F5F5F5F5F5F5F5F5F5F5F5F5F5F5F5F5F5F5F5F5F5F5F5F5F5F5F5F5F5F5F5F5F5F5F5F5F5F5F5F5F5F5F5F5F5F5F5F5F5F5F5F5F5F5F5F5F5F5F5F5F5F5F5F5F5F5F5F5F5F5F5F5F5E2F5F5F5F5F5F5F5F5F5F5F5F5F5F5F5F5E2F5F5F5F5E2E2F5F5F5F5E2F5F5F5F5F5F5F5F5F5F5F5F5F5F5F5F5E2F5F5F5F5F5F5F5
310
F5F5F5F5F5F5F5F5F5F5F5F5F5F5F5F5F5F5F5F5F5F5F5F5F5F5F5F5F5F5F5F5F5F5F5F5F5F5F5F5F5F5F5F5F5F5F5F5F5F5F5F5F5F5F5F5F5F5F5F5F5F5F5F5F5F5F5F5F5F5F5F5F5F5F5F5F5F5F5F5F5F5F5F5F5F5F5F5F5F5F5F5F5F5F5F5F5F5F5F5F5F5F5F5F5F5F5F5F5F5F5F5F5F5F5F5F5F5F5F5F5F5F5F5F5F5F5
310
E2F5F5F5F5F5F5F5F5F5F5F5F5F5F5F5F5E2F5F5F5F5E2E2F5F5F5F5E2F5F5F5F5F5F5F5F5F5F5F5F5F5F5F5F5E2F5F5F5F5F5F5F5F5F5F5F5F5F5F5F5F5F5F5F5F5F5F5F5F5F5F5F5F5F5F5F5F5F5F5F5F5F5F5F5F5F5F5F5F5F5F5F5F5F5F5F5F5F5F5F5F5F5F5F5F5F5F5F5F5F5F5F5F5F5F5F5F5F5F5F5F5F5F5F5F5F5
310
F5F5F5F5F5F5F5F5F5F5F5F5F5F5F5F5F5F5F5F5F5F5F5F5F5F5F5F5F5F5F5F5F5F5F5F5F5F5F5F5F5F5F5F5F5F5F5F5F5F5F5F5F5E2F5F5F5F5F5F5F5F5F5F5F5F5F5F5F5F5E2F5F5F5F5E2E2F5F5F5F5E2F5F5F5F5F5F5F5F5F5F5F5F5F5F5F5F5E2F5F5F5F5F5F5F5F5F5F5F5F5F5F5F5F5F5F5F5F5F5F5F5F5F5F5F5F5
310
F5F5F5F5F5F5F5F5F5F5F5F5F5F5F5F5F5F5F5F5F5F5F5F5F5F5F5F5F5F5F5F5F5F5F5F5F5F5F5F5F5F5F5F5F5F5F5F5F5F5F5F5F5F5F5F5F5F5F5F5F5F5F5F5F5F5F5F5F5F5F5F5F5F5F5F5F5F5F5F5F5F5F5F5F5F5F5F5F5F5F5F5F5F5F5F5F5F5F5F5F5F5F5F5F5F5E2F5F5F5F5F5F5F5F5F5F5F5F5F5F5F5F5E2F5F5F5
310
F5E2E2F5F5F5F5E2F5F5F5F5F5F5F5F5F5F5F5F5F5F5F5F5E2F5F5F5F5F5F5F5F5F5F5F5F5F5F5F5F5F5F5F5F5F5F5F5F5F5F5F5F5F5F5F5F5F5F5F5F5F5F5F5F5F5F5F5F5F5F5F5F5F5F5F5F5F5F5F5F5F5F5F5F5F5F5F5F5F5F5F5F5F5F5F5F5F5F5F5F5F5F5F5F5F5F5F5F5F5F5F5F5F5F5F5F5F5F5F5F5F5F5F5F5F5F5
310
F5F5F5F5F5F5F5F5F5F5F5F5F5F5F5F5F5F5F5F5F5F5F5F5F5F5F5F5F5F5F5F5E2F5F5F5F5F5F5F5F5F5F5F5F5F5F5F5F5E2F5F5F5F5E2E2F5F5F5F5E2F5F5F5F5F5F5F5F5F5F5F5F5F5F5F5F5E2F5F5F5F5F5F5F5F5F5F5F5F5F5F5F5F5F5F5F5F5F5F5F5F5F5F5F5F5F5F5F5F5F5F5F5F5F5F5F5F5F5F5F5F5F5F5F5F5F5
310
F5F5F5F5F5F5F5F5F5F5F5F5F5F5F5F5F5F5F5F5F5F5F5F5F5F5F5F5F5F5F5F5F5F5F5F5F5F5F5F5F5F5F5F5F5F5F5F5F5F5F5F5F5F5F5F5F5F5F5F5F5F5F5F5F5F5F5F5F5F5F5F5F5F5F5F5F5F5F5F5F5F5F5F5F5E2F5F5F5F5F5F5F5F5F5F5F5F5F5F5F5F5E2F5F5F5F5E2E2F5F5F5F5E2F5F5F5F5F5F5F5F5F5F5F5F5F5
310
F5F5F5E2F5F5F5F5F5F5F5F5F5F5F5F5F5F5F5F5F5F5F5F5F5F5F5F5F5F5F5F5F5F5F5F5F5F5F5F5F5F5F5F5F5F5F5F5F5F5F5F5F5F5F5F5F5F5F5F5F5F5F5F5F5F5F5F5F5F5F5F5F5F5F5F5F5F5F5F5F5F5F5F5F5F5F5F5F5F5F5F5F5F5F5F5F5F5F5F5F5F5F5F5F5F5F5F5F5F5F5F5F5F5F5F5F5F5F5F5F5F5F5F5F5F5F5
310
F5F5F5F5F5F5F5F5F5F5F5E2F5F5F5F5F5F5F5F5F5F5F5F5F5F5F5F5E2F5F5F5F5E2E2F5F5F5F5E2F5F5F5F5F5F5F5F5F5F5F5F5F5F5F5F5E2F5F5F5F5F5F5F5F5F5F5F5F5F5F5F5F5F5F5F5F5F5F5F5F5F5F5F5F5F5F5F5F5F5F5F5F5F5F5F5F5F5F5F5F5F5F5F5F5F5F5F5F5F5F5F5F5F5F5F5F5F5F5F5F5F5F5F5F5F5F5
310
F5F5F5F5F5F5F5F5F5F5F5F5F5F5F5F5F5F5F5F5F5F5F5F5F5F5F5F5F5F5F5F5F5F5F5F5F5F5F5F5F5F5F5F5F5F5F5F5F5F5F5F5F5F5F5F5F5F5F5F5F5F5F5F5E2F5F5F5F5F5F5F5F5F5F5F5F5F5F5F5F5E2F5F5F5F5E2E2F5F5F5F5E2F5F5F5F5F5F5F5F5F5F5F5F5F5F5F5F5E2F5F5F5F5F5F5F5F5F5F5F5F5F5F5F5F5F5
310
F5F5F5F5F5F5F5F5F5F5F5F5F5F5F5F5F5F5F5F5F5F5F5F5F5F5F5F5F5F5F5F5F5F5F5F5F5F5F5F5F5F5F5F5F5F5F5F5F5F5F5F5F5F5F5F5F5F5F5F5F5F5F5F5F5F5F5F5F5F5F5F5F5F5F5F5F5F5F5F5F5F5F5F5F5F5F5F5F5F5F5F5F5F5F5F5F5F5F5F5F5F5F5F5F5F5F5F5F5F5F5F5F5F5F5F5F5E2F5F5F5F5F5F5F5F5F5
310
F5F5F5F5F5F5F5E2F5F5F5F5E2E2F5F5F5F5E2F5F5F5F5F5F5F5F5F5F5F5F5F5F5F5F5E2F5F5F5F5F5F5F5F5F5F5F5F5F5F5F5F5F5F5F5F5F5F5F5F5F5F5F5F5F5F5F5F5F5F5F5F5F5F5F5F5F5F5F5F5F5F5F5F5F5F5F5F5F5F5F5F5F5F5F5F5F5F5F5F5F5F5F5F5F5F5F5F5F5F5F5F5F5F5F5F5F5F5F5F5F5F5F5F5F5F5F5
310
F5F5F5F5F5F5F5F5F5F5F5F5F5F5F5F5F5F5F5F5F5F5F5F5F5F5F5F5F5F5F5F5F5F5F5F5F5F5F5F5F5F5F5E2F5F5F5F5F5F5F5F5F5F5F5F5F5F5F5F5E2F5F5F5F5E2E2F5F5F5F5E2F5F5F5F5F5F5F5F5F5F5F5F5F5F5F5F5E2F5F5F5F5F5F5F5F5F5F5F5F5F5F5F5F5F5F5F5F5F5F5F5F5F5F5F5F5F5F5F5F5F5F5F5F5F5F5
310
F5F5F5F5F5F5F5F5F5F5F5F5F5F5F5F5F5F5F5F5F5F5F5F5F5F5F5F5F5F5F5F5F5F5F5F5F5F5F5F5F5F5F5F5F5F5F5F5F5F5F5F5F5F5F5F5F5F5F5F5F5F5F5F5F5F5F5F5F5F5F5F5F5F5F5F5F5F5F5F5F5F5F5F5F5F5F5F5F5F5F5F5F5F5F5F5E2F5F5F5F5F5F5F5F5F5F5F5F5F5F5F5F5E2F5F5F5F5E2E2F5F5F5F5E2F5F5
310
F5F5F5F5F5F5F5F5F5F5F5F5F5F5E2F5F5F5F5F5F5F5F5F5F5F5F5F5F5F5F5F5F5F5F5F5F5F5F5F5F5F5F5F5F5F5F5F5F5F5F5F5F5F5F5F5F5F5F5F5F5F5F5F5F5F5F5F5F5F5F5F5F5F5F5F5F5F5F5F5F5F5F5F5F5F5F5F5F5F5F5F5F5F5F5F5F5F5F5F5F5F5F5F5F5F5F5F5F5F5F5F5F5F5F5F5F5F5F5F5F5F5F5F5F5F5F5
310
F5F5F5F5F5F5F5F5F5F5F5F5F5F5F5F5F5F5F5F5F5F5E2F5F5F5F5F5F5F5F5F5F5F5F5F5F5F5F5E2F5F5F5F5E2E2F5F5F5F5F5F5F5F5F5F5F5F5F5F5F5F5F5F5F5F5F5E2F5F5F5F5F5F5F5F5F5F5F5F5F5F5F5F5F5F5F5F5F5F5F5F5F5F5F5F5F5F5F5F5F5F5F5F5F5F5F5F5F5F5F5F5F5F5F5F5F5F5F5F5F5F5F5F5F5F5F5
310
F5F5F5F5F5F5F5F5F5F5F5F5F5F5F5F5F5F5F5F5F5F5F5F5F5F5F5F5F5F5F5F5F5F5F5F5F5F5F5F5F5F5F5F5F5F5F5F5F5F5F5F5F5F5F5F5F5F5F5F5F5F5F5F5F5F5F5F5F5F5F5F5F5F5F5E2F5F5F5F5F5F5F5F5F5F5F5F5F5F5F5F5F5F5F5F5F5E2E2F5F5F5F5F5F5F5F5F5F5F5F5F5F5F5F5F5F5F5F5F5E2F5F5F5F5F5F5
310
F5F5F5F5F5F5F5F5F5F5F5F5F5F5F5F5F5F5F5F5F5F5F5F5F5F5F5F5F5F5F5F5F5F5F5F5F5F5F5F5F5F5F5F5F5F5F5F5F5F5F5F5F5F5F5F5F5F5F5F5F5F5F5F5F5F5F5F5F5F5F5F5F5F5F5F5F5F5F5F5F5F5F5F5F5F5F5F5F5F5F5F5F5F5F5F5F5F5F5F5F5F5F5F5F5F5F5F5F5F5F5F5F5F5F5F5F5F5F5F5F5F5F5F5F5F5F5
310
F5E2F5F5F5F5F5F5F5F5F5F5F5F5F5F5F5F5F5F5F5F5F5E2E2F5F5F5F5F5F5F5F5F5F5F5F5F5F5F5F5F5F5F5F5F5E2F5F5F5F5F5F5F5F5F5F5F5F5F5F5F5F5F5F5F5F5F5F5F5F5F5F5F5F5F5F5F5F5F5F5F5F5F5F5F5F5F5F5F5F5F5F5F5F5F5F5F5F5F5F5F5F5F5F5F5F5F5F5F5F5F5F5F5F5F5F5F5F5F5F5F5F5F5F5F5F5
310
F5F5F5F5F5F5F5F5F5F5F5F5F5F5F5F5F5F5F5F5F5F5F5F5F5F5F5F5F5F5F5F5F5F5F5F5F5F5F5F5F5F5F5F5F5F5F5F5F5F5F5F5F5F5E2F5F5F5F5F5F5F5F5F5F5F5F5F5F5F5F5F5F5F5F5F5E2E2F5F5F5F5F5F5F5F5F5F5F5F5F5F5F5F5F5F5F5F5F5E2F5F5F5F5F5F5F5F5F5F5F5F5F5F5F5F5F5F5F5F5F5F5F5F5F5F5F5
310
F5F5F5F5F5F5F5F5F5F5F5F5F5F5F5F5F5F5F5F5F5F5F5F5F5F5F5F5F5F5F5F5F5F5F5F5F5F5F5F5F5F5F5F5F5F5F5F5F5F5F5F5F5F5F5F5F5F5F5F5F5F5F5F5F5F5F5F5F5F5F5F5F5F5F5F5F5F5F5F5F5F5F5F5F5F5F5F5F5F5F5F5F5F5F5F5F5F5F5F5F5F5F5F5F5F5F5E2F5F5F5F5F5F5F5F5F5F5F5F5F5F5F5F5F5F5F5
310
F5F5E2E2F5F5F5F5F5F5F5F5F5F5F5F5F5F5F5F5F5F5F5F5F5E2F5F5F5F5F5F5F5F5F5F5F5F5F5F5F5F5F5F5F5F5F5F5F5F5F5F5F5F5F5F5F5F5F5F5F5F5F5F5F5F5F5F5F5F5F5F5F5F5F5F5F5F5F5F5F5F5F5F5F5F5F5F5F5F5F5F5F5F5F5F5F5F5F5F5F5F5F5F5F5F5F5F5F5F5F5F5F5F5F5F5F5F5F5F5F5F5F5F5F5F5F5
310
F5F5F5F5F5F5F5F5F5F5F5F5F5F5F5F5F5F5F5F5F5F5F5F5F5F5F5F5F5F5F5F5F5E2F5F5F5F5F5F5F5F5F5F5F5F5F5F5F5F5F5F5F5F5F5E2E2F5F5F5F5F5F5F5F5F5F5F5F5F5F5F5F5F5F5F5F5F5E2F5F5F5F5F5F5F5F5F5F5F5F5F5F5F5F5F5F5F5F5F5F5F5F5F5F5F5F5F5F5F5F5F5F5F5F5F5F5F5F5F5F5F5F5F5F5F5F5
310
F5F5F5F5F5F5F5F5F5F5F5F5F5F5F5F5F5F5F5F5F5F5F5F5F5F5F5F5F5F5F5F5F5F5F5F5F5F5F5F5F5F5F5F5F5F5F5F5F5F5F5F5F5F5F5F5F5F5F5F5F5F5F5F5F5F5F5F5F5F5F5F5F5F5F5F5F5F5F5F5F5F5F5F5F5F5E2F5F5F5F5F5F5F5F5F5F5F5F5F5F5F5F5F5F5F5F5F5E2E2F5F5F5F5F5F5F5F5F5F5F5F5F5F5F5F5F5
310
F5F5F5F5E2F5F5F5F5F5F5F5F5F5F5F5F5F5F5F5F5F5F5F5F5F5F5F5F5F5F5F5F5F5F5F5F5F5F5F5F5F5F5F5F5F5F5F5F5F5F5F5F5F5F5F5F5F5F5F5F5F5F5F5F5F5F5F5F5F5F5F5F5F5F5F5F5F5F5F5F5F5F5F5F5F5F5F5F5F5F5F5F5F5F5F5F5F5F5F5F5F5F5F5F5F5F5F5F5F5F5F5F5F5F5F5F5F5F5F5F5F5F5F5F5F5F5
310
F5F5F5F5F5F5F5F5F5F5F5F5E2F5F5F5F5F5F5F5F5F5F5F5F5F5F5F5F5F5F5F5F5F5E2E2F5F5F5F5F5F5F5F5F5F5F5F5F5F5F5F5F5F5F5F5F5E2F5F5F5F5F5F5F5F5F5F5F5F5F5F5F5F5F5F5F5F5F5F5F5F5F5F5F5F5F5F5F5F5F5F5F5F5F5F5F5F5F5F5F5F5F5F5F5F5F5F5F5F5F5F5F5F5F5F5F5F5F5F5F5F5F5F5F5F5F5
310
F5F5F5F5F5F5F5F5F5F5F5F5F5F5F5F5F5F5F5F5F5F5F5F5F5F5F5F5F5F5F5F5F5F5F5F5F5F5F5F5F5F5F5F5F5F5F5F5F5F5F5F5F5F5F5F5F5F5F5F5F5F5F5F5F5E2F5F5F5F5F5F5F5F5F5F5F5F5F5F5F5F5F5F5F5F5F5E2E2F5F5F5F5F5F5F5F5F5F5F5F5F5F5F5F5F5F5F5F5F5E2F5F5F5F5F5F5F5F5F5F5F5F5F5F5F5F5
310
F5F5F5F5F5F5F5F5F5F5F5F5F5F5F5F5F5F5F5F5F5F5F5F5F5F5F5F5F5F5F5F5F5F5F5F5F5F5F5F5F5F5F5F5F5F5F5F5F5F5F5F5F5F5F5F5F5F5F5F5F5F5F5F5F5F5F5F5F5F5F5F5F5F5F5F5F5F5F5F5F5F5F5F5F5F5F5F5F5F5F5F5F5F5F5F5F5F5F5F5F5F5F5F5F5F5F5F5F5F5F5F5F5F5F5F5F5F5E2F5F5F5F5F5F5F5F5
310
F5F5F5F5F5F5F5F5F5F5F5F5F5E2E2F5F5F5F5E2F5F5F5F5F5F5F5F5F5F5F5F5F5F5F5F5E2F5F5F5F5F5F5F5F5F5F5F5F5F5F5F5F5F5F5F5F5F5F5F5F5F5F5F5F5F5F5F5F5F5F5F5F5F5F5F5F5F5F5F5F5F5F5F5F5F5F5F5F5F5F5F5F5F5F5F5F5F5F5F5F5F5F5F5F5F5F5F5F5F5F5F5F5F5F5F5F5F5F5F5F5F5F5F5F5F5F5
310
F5F5F5F5F5F5F5F5F5F5F5F5F5F5F5F5F5F5F5F5F5F5F5F5F5F5F5F5F5F5F5F5F5F5F5F5F5F5F5F5F5F5F5F5E2F5F5F5F5F5F5F5F5F5F5F5F5F5F5F5F5E2F5F5F5F5E2E2F5F5F5F5E2F5F5F5F5F5F5F5F5F5F5F5F5F5F5F5F5E2F5F5F5F5F5F5F5F5F5F5F5F5F5F5F5F5F5F5F5F5F5F5F5F5F5F5F5F5F5F5F5F5F5F5F5F5F5
310
F5F5F5F5F5F5F5F5F5F5F5F5F5F5F5F5F5F5F5F5F5F5F5F5F5F5F5F5F5F5F5F5F5F5F5F5F5F5F5F5F5F5F5F5F5F5F5F5F5F5F5F5F5F5F5F5F5F5F5F5F5F5F5F5F5F5F5F5F5F5F5F5F5F5F5F5F5F5F5F5F5F5F5F5F5F5F5F5F5F5F5F5F5F5F5F5F5E2F5F5F5F5F5F5F5F5F5F5F5F5F5F5F5F5E2F5F5F5F5E2E2F5F5F5F5E2F5
310
F5F5F5F5F5F5F5F5F5F5F5F5F5F5F5E2F5F5F5F5F5F5F5F5F5F5F5F5F5F5F5F5F5F5F5F5F5F5F5F5F5F5F5F5F5F5F5F5F5F5F5F5F5F5F5F5F5F5F5F5F5F5F5F5F5F5F5F5F5F5F5F5F5F5F5F5F5F5F5F5F5F5F5F5F5F5F5F5F5F5F5F5F5F5F5F5F5F5F5F5F5F5F5F5F5F5F5F5F5F5F5F5F5F5F5F5F5F5F5F5F5F5F5F5F5F5F5
310
F5F5F5F5F5F5F5F5F5F5F5F5F5F5F5F5F5F5F5F5F5F5F5E2F5F5F5F5F5F5F5F5F5F5F5F5F5F5F5F5E2F5F5F5F5E2E2F5F5F5F5E2F5F5F5F5F5F5F5F5F5F5F5F5F5F5F5F5E2F5F5F5F5F5F5F5F5F5F5F5F5F5F5F5F5F5F5F5F5F5F5F5F5F5F5F5F5F5F5F5F5F5F5F5F5F5F5F5F5F5F5F5F5F5F5F5F5F5F5F5F5F5F5F5F5F5F5
310
F5F5F5F5F5F5F5F5F5F5F5F5F5F5F5F5F5F5F5F5F5F5F5F5F5F5F5F5F5F5F5F5F5F5F5F5F5F5F5F5F5F5F5F5F5F5F5F5F5F5F5F5F5F5F5F5F5F5F5F5F5F5F5F5F5F5F5F5F5F5F5F5F5F5F5F5E2F5F5F5F5F5F5F5F5F5F5F5F5F5F5F5F5E2F5F5F5F5E2E2F5F5F5F5E2F5F5F5F5F5F5F5F5F5F5F5F5F5F5F5F5E2F5F5F5F5F5
310
F5F5F5F5F5F5F5F5F5F5F5F5F5F5F5F5F5F5F5F5F5F5F5F5F5F5F5F5F5F5F5F5F5F5F5F5F5F5F5F5F5F5F5F5F5F5F5F5F5F5F5F5F5F5F5F5F5F5F5F5F5F5F5F5F5F5F5F5F5F5F5F5F5F5F5F5F5F5F5F5F5F5F5F5F5F5F5F5F5F5F5F5F5F5F5F5F5F5F5F5F5F5F5F5F5F5F5F5F5F5F5F5F5F5F5F5F5F5F5F5F5F5F5F5F5F5F5
310
F5F5E2F5F5F5F5F5F5F5F5F5F5F5F5F5F5F5F5E2F5F5F5F5E2E2F5F5F5F5E2F5F5F5F5F5F5F5F5F5F5F5F5F5F5F5F5E2F5F5F5F5F5F5F5F5F5F5F5F5F5F5F5F5F5F5F5F5F5F5F5F5F5F5F5F5F5F5F5F5F5F5F5F5F5F5F5F5F5F5F5F5F5F5F5F5F5F5F5F5F5F5F5F5F5F5F5F5F5F5F5F5F5F5F5F5F5F5F5F5F5F5F5F5F5F5F5
310
F5F5F5F5F5F5F5F5F5F5F5F5F5F5F5F5F5F5F5F5F5F5F5F5F5F5F5F5F5F5F5F5F5F5F5F5F5F5F5F5F5F5F5F5F5F5F5F5F5F5F5F5F5F5F5E2F5F5F5F5F5F5F5F5F5F5F5F5F5F5F5F5E2F5F5F5F5E2E2F5F5F5F5E2F5F5F5F5F5F5F5F5F5F5F5F5F5F5F5F5E2F5F5F5F5F5F5F5F5F5F5F5F5F5F5F5F5F5F5F5F5F5F5F5F5F5F5
310
F5F5F5F5F5F5F5F5F5F5F5F5F5F5F5F5F5F5F5F5F5F5F5F5F5F5F5F5F5F5F5F5F5F5F5F5F5F5F5F5F5F5F5F5F5F5F5F5F5F5F5F5F5F5F5F5F5F5F5F5F5F5F5F5F5F5F5F5F5F5F5F5F5F5F5F5F5F5F5F5F5F5F5F5F5F5F5F5F5F5F5F5F5F5F5F5F5F5F5F5F5F5F5F5F5F5F5F5E2F5F5F5F5F5F5F5F5F5F5F5F5F5F5F5F5E2F5
310
F5F5F5E2E2F5F5F5F5E2F5F5F5F5F5F5F5F5F5F5F5F5F5F5F5F5E2F5F5F5F5F5F5F5F5F5F5F5F5F5F5F5F5F5F5F5F5F5F5F5F5F5F5F5F5F5F5F5F5F5F5F5F5F5F5F5F5F5F5F5F5F5F5F5F5F5F5F5F5F5F5F5F5F5F5F5F5F5F5F5F5F5F5F5F5F5F5F5F5F5F5F5F5F5F5F5F5F5F5F5F5F5F5F5F5F5F5F5F5F5F5F5F5F5F5F5F5
310
F5F5F5F5F5F5F5F5F5F5F5F5F5F5F5F5F5F5F5F5F5F5F5F5F5F5F5F5F5F5F5F5F5F5E2F5F5F5F5F5F5F5F5F5F5F5F5F5F5F5F5E2F5F5F5F5E2E2F5F5F5F5E2F5F5F5F5F5F5F5F5F5F5F5F5F5F5F5F5E2F5F5F5F5F5F5F5F5F5F5F5F5F5F5F5F5F5F5F5F5F5F5F5F5F5F5F5F5F5F5F5F5F5F5F5F5F5F5F5F5F5F5F5F5F5F5F5
310
F5F5F5F5F5F5F5F5F5F5F5F5F5F5F5F5F5F5F5F5F5F5F5F5F5F5F5F5F5F5F5F5F5F5F5F5F5F5F5F5F5F5F5F5F5F5F5F5F5F5F5F5F5F5F5F5F5F5F5F5F5F5F5F5F5F5F5F5F5F5F5F5F5F5F5F5F5F5F5F5F5F5F5F5F5F5F5E2F5F5F5F5F5F5F5F5F5F5F5F5F5F5F5F5E2F5F5F5F5E2E2F5F5F5F5E2F5F5F5F5F5F5F5F5F5F5F5
310
F5F5F5F5F5E2F5F5F5F5F5F5F5F5F5F5F5F5F5F5F5F5F5F5F5F5F5F5F5F5F5F5F5F5F5F5F5F5F5F5F5F5F5F5F5F5F5F5F5F5F5F5F5F5F5F5F5F5F5F5F5F5F5F5F5F5F5F5F5F5F5F5F5F5F5F5F5F5F5F5F5F5F5F5F5F5F5F5F5F5F5F5F5F5F5F5F5F5F5F5F5F5F5F5F5F5F5F5F5F5F5F5F5F5F5F5F5F5F5F5F5F5F5F5F5F5F5
310
F5F5F5F5F5F5F5F5F5F5F5F5F5E2F5F5F5F5F5F5F5F5F5F5F5F5F5F5F5F5E2F5F5F5F5E2E2F5F5F5F5E2F5F5F5F5F5F5F5F5F5F5F5F5F5F5F5F5E2F5F5F5F5F5F5F5F5F5F5F5F5F5F5F5F5F5F5F5F5F5F5F5F5F5F5F5F5F5F5F5F5F5F5F5F5F5F5F5F5F5F5F5F5F5F5F5F5F5F5F5F5F5F5F5F5F5F5F5F5F5F5F5F5F5F5F5F5
310
F5F5F5F5F5F5F5F5F5F5F5F5F5F5F5F5F5F5F5F5F5F5F5F5F5F5F5F5F5F5F5F5F5F5F5F5F5F5F5F5F5F5F5F5F5F5F5F5F5F5F5F5F5F5F5F5F5F5F5F5F5F5F5F5F5F5E2F5F5F5F5F5F5F5F5F5F5F5F5F5F5F5F5E2F5F5F5F5E2E2F5F5F5F5E2F5F5F5F5F5F5F5F5F5F5F5F5F5F5F5F5E2F5F5F5F5F5F5F5F5F5F5F5F5F5F5F5
310
F5F5F5F5F5F5F5F5F5F5F5F5F5F5F5F5F5F5F5F5F5F5F5F5F5F5F5F5F5F5F5F5F5F5F5F5F5F5F5F5F5F5F5F5F5F5F5F5F5F5F5F5F5F5F5F5F5F5F5F5F5F5F5F5F5F5F5F5F5F5F5F5F5F5F5F5F5F5F5F5F5F5F5F5F5F5F5F5F5F5F5F5F5F5F5F5F5F5F5F5F5F5F5F5F5F5F5F5F5F5F5F5F5F5F5F5F5F5F5E2F5F5F5F5F5F5F5
310
F5F5F5F5F5F5F5F5F5E2F5F5F5F5E2E2F5F5F5F5E2F5F5F5F5F5F5F5F5F5F5F5F5F5F5F5F5E2F5F5F5F5F5F5F5F5F5F5F5F5F5F5F5F5F5F5F5F5F5F5F5F5F5F5F5F5F5F5F5F5F5F5F5F5F5F5F5F5F5F5F5F5F5F5F5F5F5F5F5F5F5F5F5F5F5F5F5F5F5F5F5F5F5F5F5F5F5F5F5F5F5F5F5F5F5F5F5F5F5F5F5F5F5F5F5F5F5
310
F5F5F5F5F5F5F5F5F5F5F5F5F5F5F5F5F5F5F5F5F5F5F5F5F5F5F5F5F5F5F5F5F5F5F5F5F5F5F5F5F5F5F5F5F5E2F5F5F5F5F5F5F5F5F5F5F5F5F5F5F5F5E2F5F5F5F5E2E2F5F5F5F5E2F5F5F5F5F5F5F5F5F5F5F5F5F5F5F5F5E2F5F5F5F5F5F5F5F5F5F5F5F5F5F5F5F5F5F5F5F5F5F5F5F5F5F5F5F5F5F5F5F5F5F5F5F5
310
F5F5F5F5F5F5F5F5F5F5F5F5F5F5F5F5F5F5F5F5F5F5F5F5F5F5F5F5F5F5F5F5F5F5F5F5F5F5F5F5F5F5F5F5F5F5F5F5F5F5F5F5F5F5F5F5F5F5F5F5F5F5F5F5F5F5F5F5F5F5F5F5F5F5F5F5F5F5F5F5F5F5F5F5F5F5F5F5F5F5F5F5F5F5F5F5F5F5E2F5F5F5F5F5F5F5F5F5F5F5F5F5F5F5F5E2F5F5F5F5E2E2F5F5F5F5E2
310
F5F5F5F5F5F5F5F5F5F5F5F5F5F5F5F5E2F5F5F5F5F5F5F5F5F5F5F5F5F5F5F5F5F5F5F5F5F5F5F5F5F5F5F5F5F5F5F5F5F5F5F5F5F5F5F5F5F5F5F5F5F5F5F5F5F5F5F5F5F5F5F5F5F5F5F5F5F5F5F5F5F5F5F5F5F5F5F5F5F5F5F5F5F5F5F5F5F5F5F5F5F5F5F5F5F5F5F5F5F5F5F5F5F5F5F5F5F5F5F5F5F5F5F5F5F5F5
310
F5F5F5F5F5F5F5F5F5F5F5F5F5F5F5F5F5F5F5F5F5F5F5F5E2F5F5F5F5F5F5F5F5F5F5F5F5F5F5F5F5E2F5F5F5F5E2E2F5F5F5F5E2F5F5F5F5F5F5F5F5F5F5F5F5F5F5F5F5E2F5F5F5F5F5F5F5F5F5F5F5F5F5F5F5F5F5F5F5F5F5F5F5F5F5F5F5F5F5F5F5F5F5F5F5F5F5F5F5F5F5F5F5F5F5F5F5F5F5F5F5F5F5F5F5F5F5
310
F5F5F5F5F5F5F5F5F5F5F5F5F5F5F5F5F5F5F5F5F5F5F5F5F5F5F5F5F5F5F5F5F5F5F5F5F5F5F5F5F5F5F5F5F5F5F5F5F5F5F5F5F5F5F5F5F5F5F5F5F5F5F5F5F5F5F5F5F5F5F5F5F5F5F5F5F5E2F5F5F5F5F5F5F5F5F5F5F5F5F5F5F5F5E2F5F5F5F5E2E2F5F5F5F5E2F5F5F5F5F5F5F5F5F5F5F5F5F5F5F5F5E2F5F5F5F5
310
F5F5F5F5F5F5F5F5F5F5F5F5F5F5F5F5F5F5F5F5F5F5F5F5F5F5F5F5F5F5F5F5F5F5F5F5F5F5F5F5F5F5F5F5F5F5F5F5F5F5F5F5F5F5F5F5F5F5F5F5F5F5F5F5F5F5F5F5F5F5F5F5F5F5F5F5F5F5F5F5F5F5F5F5F5F5F5F5F5F5F5F5F5F5F5F5F5F5F5F5F5F5F5F5F5F5F5F5F5F5F5F5F5F5F5F5F5F5F5F5F5F5F5F5F5F5F5
310
F5F5F5E2F5F5F5F5F5F5F5F5F5F5F5F5F5F5F5F5E2F5F5F5F5E2E2F5F5F5F5F5F5F5F5F5F5F5F5F5F5F5F5F5F5F5F5F5E2F5F5F5F5F5F5F5F5F5F5F5F5F5F5F5F5F5F5F5F5F5F5F5F5F5F5F5F5F5F5F5F5F5F5F5F5F5F5F5F5F5F5F5F5F5F5F5F5F5F5F5F5F5F5F5F5F5F5F5F5F5F5F5F5F5F5F5F5F5F5F5F5F5F5F5F5F5F5
310
F5F5F5F5F5F5F5F5F5F5F5F5F5F5F5F5F5F5F5F5F5F5F5F5F5F5F5F5F5F5F5F5F5F5F5F5F5F5F5F5F5F5F5F5F5F5F5F5F5F5F5F5F5F5F5F5E2F5F5F5F5F5F5F5F5F5F5F5F5F5F5F5F5F5F5F5F5F5E2E2F5F5F5F5F5F5F5F5F5F5F5F5F5F5F5F5F5F5F5F5F5E2F5F5F5F5F5F5F5F5F5F5F5F5F5F5F5F5F5F5F5F5F5F5F5F5F5
310
F5F5F5F5F5F5F5F5F5F5F5F5F5F5F5F5F5F5F5F5F5F5F5F5F5F5F5F5F5F5F5F5F5F5F5F5F5F5F5F5F5F5F5F5F5F5F5F5F5F5F5F5F5F5F5F5F5F5F5F5F5F5F5F5F5F5F5F5F5F5F5F5F5F5F5F5F5F5F5F5F5F5F5F5F5F5F5F5F5F5F5F5F5F5F5F5F5F5F5F5F5F5F5F5F5F5F5F5F5E2F5F5F5F5F5F5F5F5F5F5F5F5F5F5F5F5F5
310
F5F5F5F5E2E2F5F5F5F5F5F5F5F5F5F5F5F5F5F5F5F5F5F5F5F5F5E2F5F5F5F5F5F5F5F5F5F5F5F5F5F5F5F5F5F5F5F5F5F5F5F5F5F5F5F5F5F5F5F5F5F5F5F5F5F5F5F5F5F5F5F5F5F5F5F5F5F5F5F5F5F5F5F5F5F5F5F5F5F5F5F5F5F5F5F5F5F5F5F5F5F5F5F5F5F5F5F5F5F5F5F5F5F5F5F5F5F5F5F5F5F5F5F5F5F5F5
310
F5F5F5F5F5F5F5F5F5F5F5F5F5F5F5F5F5F5F5F5F5F5F5F5F5F5F5F5F5F5F5F5F5F5F5E2F5F5F5F5F5F5F5F5F5F5F5F5F5F5F5F5F5F5F5F5F5E2E2F5F5F5F5F5F5F5F5F5F5F5F5F5F5F5F5F5F5F5F5F5E2F5F5F5F5F5F5F5F5F5F5F5F5F5F5F5F5F5F5F5F5F5F5F5F5F5F5F5F5F5F5F5F5F5F5F5F5F5F5F5F5F5F5F5F5F5F5
310
F5F5F5F5F5F5F5F5F5F5F5F5F5F5F5F5F5F5F5F5F5F5F5F5F5F5F5F5F5F5F5F5F5F5F5F5F5F5F5F5F5F5F5F5F5F5F5F5F5F5F5F5F5F5F5F5F5F5F5F5F5F5F5F5F5F5F5F5F5F5F5F5F5F5F5F5F5F5F5F5F5F5F5F5F5F5F5F5E2F5F5F5F5F5F5F5F5F5F5F5F5F5F5F5F5F5F5F5F5F5E2E2F5F5F5F5F5F5F5F5F5F5F5F5F5F5F5
310
F5F5F5F5F5F5E2E2E2E2E2E2E2E2E2E2E2E2E2E2E2E2E2E2E2E2E2E2E2E2E2E2E2E2E2E2E2E2E2E2E2E2E2E2E2E2E2E2E2E2E2E2E2E2E2E2E2E2E2E2E2E2E2E2E2E2E2E2E2E2E2E2E2E2E2E2E2E2E2E2E2E2E2E2E2E2E2E2E2E2E2E2E2E2E2E2E2E2E2E2E2E2E2E2E2E2E2E2E2E2E2E2E2E2E2E2E2E2E2E2E2E2E2E2E2E2E2
310
E2E2E2E2E2E2E2E2E2E2E2E2E2E2E2F5F5F5F5F5F5F5F5F5F5F5F5F5F5F5F5F5F5F5F5F5E2E2F5F5F5F5F5F5F5F5F5F5F5F5F5F5F5F5F5F5F5F5F5F5F5F5F5F5F5F5F5F5F5F5F5F5F5F5F5F5F5F5F5F5F5F5F5F5F5F5F5F5F5F5F5F5F5F5F5F5F5F5F5F5F5F5F5F5F5F5F5F5F5F5F5F5F5F5F5F5F5F5F5F5F5F5F5F5F5F5F5
310
F5F5F5F5F5F5F5F5F5F5F5F5F5F5F5F5F5F5F5F5F5F5F5F5F5F5F5F5F5F5F5F5F5F5F5F5F5F5F5F5F5F5F5F5F5F5F5F5F5F5F5F5F5F5F5F5F5F5F5F5F5F5F5F5F5F5F5F5F5F5F5F5F5F5F5F5F5F5F5F5F5F5F5F5F5F5F5F5F5E2E2F5F5F5F5F5F5F5F5F5F5F5F5F5F5F5F5F5F5F5F5F5F5F5F5F5F5F5F5F5F5F5F5F5F5F5F5
310
F5F5F5F5F5F5F5F5F5F5F5F5F5F5F5F5F5F5F5F5F5F5F5F5F5F5F5F5F5F5F5F5F5F5F5F5F5F5F5F5F5F5F5F5F5F5F5F5F5F5F5F5F5F5F5F5F5F5F5F5F5F5F5F5F5F5F5F5F5F5F5F5F5F5F5F5F5F5F5F5F5F5F5F5F5F5F5F5F5F5F5F5F5F5F5F5F5F5F5F5F5F5F5F5F5F5F5F5F5F5F5F5F5F5F5F5F5F5F5F5F5F5F5F5F5F5F5
310
F5F5F5F5F5F5F5F5F5F5F5F5F5F5F5E2E2F5F5F5F5F5F5F5F5F5F5F5F5F5F5F5F5F5F5F5F5F5F5F5F5F5F5F5F5F5F5F5F5F5F5F5F5F5F5F5F5F5F5F5F5F5F5F5F5F5F5F5F5F5F5F5F5F5F5F5F5F5F5F5F5F5F5F5F5F5F5F5F5F5F5F5F5F5F5F5F5F5F5F5F5F5F5F5F5F5F5F5F5F5F5F5F5F5F5F5F5F5F5F5F5F5F5F5F5F5F5
310
F5F5F5F5F5F5F5F5F5F5F5F5F5F5F5F5F5F5F5F5F5F5F5F5F5F5F5F5F5F5F5F5F5F5F5F5F5F5F5F5F5F5F5F5F5F5F5F5F5F5F5F5F5F5F5F5F5F5F5F5F5F5F5F5F5F5F5F5E2E2F5F5F5F5F5F5F5F5F5F5F5F5F5F5F5F5F5F5F5F5F5F5F5F5F5F5F5F5F5F5F5F5F5F5F5F5F5F5F5F5F5F5F5F5F5F5F5F5F5F5F5F5F5F5F5F5F5
310
F5F5F5F5F5F5F5F5F5F5F5F5F5F5F5F5F5F5F5F5F5F5F5F5F5F5F5F5F5F5F5F5F5F5F5F5F5F5F5F5F5F5F5F5F5F5F5F5F5F5F5F5F5F5F5F5F5F5F5F5F5F5F5F5F5F5F5F5F5F5F5F5F5F5F5F5F5F5F5F5F5F5F5F5F5F5F5F5F5F5F5F5F5F5F5F5F5F5F5F5F5F5F5F5F5F5F5F5F5F5F5F5F5F5F5F5F5F5F5F5F5E2E2F5F5F5F5
310
E2F5F5F5F5F5F5F5F5F5F5F5F5F5F5F5F5F5F5F5F5F5F5F5F5F5F5F5F5F5F5F5F5F5F5F5F5F5F5F5F5F5F5F5F5F5F5F5F5F5F5F5F5F5F5F5F5F5F5F5F5F5F5F5F5F5F5F5F5F5F5F5F5F5F5F5F5F5F5F5F5F5F5F5F5F5F5F5F5F5F5F5F5F5F5F5F5F5F5F5F5F5F5F5F5F5F5F5F5F5F5F5F5F5F5F5F5F5F5F5F5F5F5F5F5F5F5
310
F5F5F5F5F5F5F5F5F5F5F5F5F5F5F5F5F5F5F5F5F5F5F5F5F5F5F5F5F5F5F5F5F5F5F5F5F5F5F5F5F5F5E2F5F5F5F5E2E2F5F5F5F5E2F5F5F5F5F5F5F5F5F5F5F5F5F5F5F5F5F5F5F5F5F5F5F5F5F5F5F5F5F5F5F5F5F5F5F5F5F5F5F5F5F5F5F5F5F5F5F5F5F5F5F5F5F5F5F5F5F5F5F5F5F5F5F5F5F5F5F5F5F5F5F5F5F5
310
F5F5F5F5F5F5F5F5F5F5F5F5F5F5F5F5F5F5F5F5F5F5F5F5F5F5F5F5F5F5F5F5F5F5F5F5F5F5F5F5F5F5F5F5F5F5F5F5F5F5F5F5F5F5F5F5F5F5F5F5F5F5F5F5F5F5F5F5F5F5F5F5F5F5F5F5F5F5F5F5F5F5F5F5F5F5F5F5F5F5F5F5F5F5F5E2F5F5F5F5E2E2F5F5F5F5E2F5F5F5F5F5F5F5F5F5F5F5F5F5F5F5F5F5F5F5F5
310
F5F5F5F5F5F5F5F5F5F5F5F5F5F5F5F5F5F5F5F5F5F5F5F5F5F5F5F5F5F5F5F5F5F5F5F5F5F5F5F5F5F5F5F5F5F5F5F5F5F5F5F5F5F5F5F5F5F5F5F5F5F5F5F5F5F5F5F5F5F5F5F5F5F5F5F5F5F5F5F5F5F5F5F5F5F5F5F5F5F5F5F5F5F5F5F5F5F5F5F5F5F5F5F5F5F5F5F5F5F5F5F5F5F5F5F5F5F5F5F5F5F5F5F5F5F5F5
310
F5F5F5F5F5F5F5F5F5F5F5F5F5F5F5F5F5F5F5F5F5E2F5F5F5F5E2E2F5F5F5F5E2F5F5F5F5F5F5F5F5F5F5F5F5F5F5F5F5F5F5F5F5F5F5F5F5F5F5F5F5F5F5F5F5F5F5F5F5F5F5F5F5F5F5F5F5F5F5F5F5F5F5F5F5F5F5F5F5F5F5F5F5F5F5F5F5F5F5F5F5F5F5F5F5F5F5F5F5F5F5F5F5F5F5F5F5F5F5F5F5F5F5F5F5F5F5
310
F5F5F5F5F5F5F5F5F5F5F5F5F5F5F5F5F5F5F5F5F5F5F5F5F5F5F5F5F5F5F5F5F5F5F5F5F5F5F5F5F5F5F5F5F5F5F5F5F5F5F5F5F5F5F5F5F5F5F5F5F5F5F5F5F5F5F5F5F5F5F5F5F5F5E2F5F5F5F5E2E2F5F5F5F5E2F5F5F5F5F5F5F5F5F5F5F5F5F5F5F5F5F5F5F5F5F5F5F5F5F5F5F5F5F5F5F5F5F5F5F5F5F5F5F5F5F5
310
F5F5F5F5F5F5F5F5F5F5F5F5F5F5F5F5F5F5F5F5F5F5F5F5F5F5F5F5F5F5F5F5F5F5F5F5F5F5F5F5F5F5F5F5F5F5F5F5F5F5F5F5F5F5F5F5F5F5F5F5F5F5F5F5F5F5F5F5F5F5F5F5F5F5F5F5F5F5F5F5F5F5F5F5F5F5F5F5F5F5F5F5F5F5F5F5F5F5F5F5F5F5F5F5F5F5F5F5F5F5F5F5F5F5F5F5F5F5F5F5F5F5F5F5F5F5F5
310
E2F5F5F5F5E2E2F5F5F5F5E2F5F5F5F5F5F5F5F5F5F5F5F5F5F5F5F5F5F5F5F5F5F5F5F5F5F5F5F5F5F5F5F5F5F5F5F5F5F5F5F5F5F5F5F5F5F5F5F5F5F5F5F5F5F5F5F5F5F5F5F5F5F5F5F5F5F5F5F5F5F5F5F5F5F5F5F5F5F5F5F5F5F5F5F5F5F5F5F5F5F5F5F5F5F5F5F5F5F5F5F5F5F5F5F5F5F5F5F5F5F5F5F5F5F5F5
310
F5F5F5F5F5F5F5F5F5F5F5F5F5F5F5F5F5F5F5F5F5F5F5F5F5F5F5F5F5F5F5F5F5F5F5F5F5F5F5F5F5F5F5F5F5F5F5F5F5F5F5F5F5E2F5F5F5F5E2E2F5F5F5F5E2F5F5F5F5F5F5F5F5F5F5F5F5F5F5F5F5F5F5F5F5F5F5F5F5F5F5F5F5F5F5F5F5F5F5F5F5F5F5F5F5F5F5F5F5F5F5F5F5F5F5F5F5F5F5F5F5F5F5F5F5F5F5
310
F5F5F5F5F5F5F5F5F5F5F5F5F5F5F5F5F5F5F5F5F5F5F5F5F5F5F5F5F5F5F5F5F5F5F5F5F5F5F5F5F5F5F5F5F5F5F5F5F5F5F5F5F5F5F5F5F5F5F5F5F5F5F5F5F5F5F5F5F5F5F5F5F5F5F5F5F5F5F5F5F5F5F5F5F5F5F5F5F5F5F5F5F5F5F5F5F5F5F5F5F5F5F5F5F5F5E2F5F5F5F5E2E2F5F5F5F5E2F5F5F5F5F5F5F5F5F5
310
F5F5F5F5F5F5F5F5F5F5F5F5F5F5F5F5F5F5F5F5F5F5F5F5F5F5F5F5F5F5F5F5F5F5F5F5F5F5F5F5F5F5F5F5F5F5F5F5F5F5F5F5F5F5F5F5F5F5F5F5F5F5F5F5F5F5F5F5F5F5F5F5F5F5F5F5F5F5F5F5F5F5F5F5F5F5F5F5F5F5F5F5F5F5F5F5F5F5F5F5F5F5F5F5F5F5F5F5F5F5F5F5F5F5F5F5F5F5F5F5F5F5F5F5F5F5F5
310
F5F5F5F5F5F5F5F5F5F5F5F5F5F5F5F5F5F5F5F5F5F5F5F5F5F5F5F5F5F5F5F5E2F5F5F5F5E2E2F5F5F5F5E2E2E2E2E2E2E2E2F5F5F5F5F5F5F5F5F5E2E2E2E2E2E2E2E2E2E2E2E2E2E2E2F5F5F5F5F5F5F5F5F5E2E2E2E2E2E2E2E2E2E2E2E2E2E2E2E2F5F5F5F5F5F5F5F5E2E2E2E2E2E2E2E2E2E2E2E2E2E2E2E2F5F5F5
310
F5F5F5F5F5E2E2E2E2E2E2E2E2E2E2E2E2E2E2E2E2F5F5F5F5F5F5F5F5E2E2E2E2E2E2E2E2E2E2E2E2E2E2E2E2F5F5F5F5F5F5F5F5F5E2E2E2E2E2E2E2E2E2E2E2E2E2E2E2F5F5F5F5F5F5F5F5F5E2E2E2E2E2E2E2E2F5F5F5F5E2E2F5F5F5F5F5F5F5F5F5F5F5F5F5F5F5F5F5F5F5F5F5F5F5F5F5F5F5F5F5F5F5F5F5F5F5
310
F5F5F5F5F5F5F5F5F5F5F5F5F5F5F5F5F5F5F5F5F5F5F5F5F5F5F5F5F5F5F5F5F5F5F5F5F5F5F5F5F5F5F5F5F5F5F5F5F5F5F5F5F5F5F5F5F5F5F5F5F5F5F5F5F5F5F5F5F5F5F5F5F5F5F5F5F5F5F5F5F5F5F5F5F5F5F5F5F5F5F5F5F5F5F5F5F5F5F5F5F5F5F5F5F5F5F5F5F5F5F5F5F5F5F5F5F5F5F5F5F5F5F5F5F5F5F5
310
F5F5F5F5F5F5F5F5F5F5F5F5F5F5F5F5E2E2F5F5F5F5F5F5F5F5F5F5F5F5F5F5F5F5F5F5F5F5F5F5F5F5F5F5F5F5F5F5F5F5F5F5F5F5F5F5F5F5F5F5F5F5F5F5F5F5F5F5F5F5F5F5F5F5F5F5F5F5F5F5F5F5F5F5F5F5F5F5F5F5F5F5F5F5F5F5F5F5F5F5F5F5F5F5F5F5F5F5F5F5F5F5F5F5F5F5F5F5F5F5F5F5F5F5F5F5F5
310
F5F5F5F5F5F5F5F5F5F5F5F5F5F5F5F5F5F5F5F5F5F5F5F5F5F5F5F5F5F5F5F5F5F5F5F5F5F5F5F5F5F5F5F5F5F5F5F5F5F5F5F5F5F5F5F5F5F5F5F5F5F5F5F5F5F5F5F5F5E2E2F5F5F5F5F5F5F5F5F5F5F5F5F5F5F5F5F5F5F5F5F5F5F5F5F5F5F5F5F5F5F5F5F5F5F5F5F5F5F5F5F5F5F5F5F5F5F5F5F5F5F5F5F5F5F5F5
310
F5F5F5F5F5F5F5F5F5F5F5F5F5F5F5F5F5F5F5F5F5F5F5F5F5F5F5F5F5F5F5F5F5F5F5F5F5F5F5F5F5F5F5F5F5F5F5F5F5F5F5F5F5F5F5F5F5F5F5F5F5F5F5F5F5F5F5F5F5F5F5F5F5F5F5F5F5F5F5F5F5F5F5F5F5F5F5F5F5F5F5F5F5F5F5F5F5F5F5F5F5F5F5F5F5F5F5F5F5F5F5F5F5F5F5F5F5F5F5F5F5F5E2E2E2E2E2
310
E2E2E2E2E2E2E2E2E2E2E2E2E2E2E2E2E2E2E2E2E2E2E2E2E2E2E2E2E2E2E2E2E2E2E2E2E2E2E2E2E2E2E2E2E2E2E2E2E2E2E2E2E2E2E2E2E2E2E2E2E2E2E2E2E2E2E2E2E2E2E2E2E2E2E2E2E2E2E2E2E2E2E2E2E2E2E2E2E2E2E2E2E2E2E2E2E2E2E2E2E2E2E2E2E2E2E2E2E2E2E2E2E2E2E2E2E2E2E2E2E2E2E2E2E2E2E2
310
E2E2E2E2E2E2E2E2E2E2E2E2E2E2E2E2E2E2E2E2E2E2E2E2E2E2E2E2E2E2E2E2E2E2E2E2E2E2E2E2E2E2E2E2E2E2E2E2E2
  0
XRECORD
  5
59D86
102
{ACAD_REACTORS
330
B5
102
}
330
B5
100
AcDbXrecord
280
     1
102
SHADEPLOT
 70
     0
102
SHADEPLOTRESLEVEL
 70
     2
102
SHADEPLOTCUSTOMDPI
 70
   300
  0
XRECORD
  5
B6
102
{ACAD_REACTORS
330
B5
102
}
330
B5
100
AcDbXrecord
280
     1
310
28000000B40000008B0000000100080000000000BC610000000000000000000000010000000000000000000000000000FFFFFF000000000000000000000000000000000000000000000000000000000000000000330000006600000099000000CC000000FF00000000330000333300006633000099330000CC330000FF3300
310
0000660000336600006666000099660000CC660000FF66000000990000339900006699000099990000CC990000FF99000000CC000033CC000066CC000099CC0000CCCC0000FFCC000000FF000033FF000066FF000099FF0000CCFF0000FFFF000000003300330033006600330099003300CC003300FF003300003333003333
310
33006633330099333300CC333300FF33330000663300336633006666330099663300CC663300FF66330000993300339933006699330099993300CC993300FF99330000CC330033CC330066CC330099CC3300CCCC3300FFCC330000FF330033FF330066FF330099FF3300CCFF3300FFFF330000006600330066006600660099
310
006600CC006600FF00660000336600333366006633660099336600CC336600FF33660000666600336666006666660099666600CC666600FF66660000996600339966006699660099996600CC996600FF99660000CC660033CC660066CC660099CC6600CCCC6600FFCC660000FF660033FF660066FF660099FF6600CCFF6600
310
FFFF660000009900330099006600990099009900CC009900FF00990000339900333399006633990099339900CC339900FF33990000669900336699006666990099669900CC669900FF66990000999900339999006699990099999900CC999900FF99990000CC990033CC990066CC990099CC9900CCCC9900FFCC990000FF99
310
0033FF990066FF990099FF9900CCFF9900FFFF99000000CC003300CC006600CC009900CC00CC00CC00FF00CC000033CC003333CC006633CC009933CC00CC33CC00FF33CC000066CC003366CC006666CC009966CC00CC66CC00FF66CC000099CC003399CC006699CC009999CC00CC99CC00FF99CC0000CCCC0033CCCC0066CC
310
CC0099CCCC00CCCCCC00FFCCCC0000FFCC0033FFCC0066FFCC0099FFCC00CCFFCC00FFFFCC000000FF003300FF006600FF009900FF00CC00FF00FF00FF000033FF003333FF006633FF009933FF00CC33FF00FF33FF000066FF003366FF006666FF009966FF00CC66FF00FF66FF000099FF003399FF006699FF009999FF00CC
310
99FF00FF99FF0000CCFF0033CCFF0066CCFF0099CCFF00CCCCFF00FFCCFF0000FFFF0033FFFF0066FFFF0099FFFF00CCFFFF00FFFFFF00000000000D0D0D001A1A1A00282828003535350043434300505050005D5D5D006B6B6B00787878008686860093939300A1A1A100AEAEAE00BBBBBB00C9C9C900D6D6D600E4E4E400
310
F1F1F100FFFFFF0000000000000000000000000000000000000000000000000000000000000000000000000000000000F5F5F5F5F5F5F5F5F5F5F5F5F5F5F5F5F5F5F5F5F5F5F5F5F5F5F5F5F5F5F5F5F5F5F5F5F5F5F5F5F5F5F5F5F5F5F5F5F5F5F5F5F5F5F5F5F5F5F5F5F5F5F5F5F5F5F5F5F5F5F5F5F5F5F5F5F5F5F5
310
F5F5F5F5F5F5F5F5F5F5F5F5F5F5F5F5F5F5F5F5F5F5F5F5F5F5F5F5F5F5F5F5F5F5F5F5F5F5F5F5F5F5F5F5F5F5F5F5F5F5F5F5F5F5F5F5F5F5F5F5F5F5F5F5F5F5F5F5F5F5F5F5F5F5F5F5F5F5F5F5F5F5F5F5F5F5F5F5F5F5F5F5F5F5F5F5F5F5F5F5F5F5E2E2E2E2E2E2E2E2E2E2E2E2E2E2E2E2E2E2E2E2E2E2E2E2E2
310
E2E2E2E2E2E2E2E2E2E2E2E2E2E2E2E2E2E2E2E2E2E2E2E2E2E2E2E2E2E2E2E2E2E2E2E2E2E2E2E2E2E2E2E2E2E2E2E2E2E2E2E2E2E2E2E2E2E2E2E2E2E2E2E2E2E2E2E2E2E2E2E2E2E2E2E2E2E2E2E2E2E2E2E2E2E2E2E2E2E2E2E2E2E2E2E2E2E2E2E2E2E2E2E2E2E2E2E2E2E2E2E2E2E2E2E2E2E2E2E2E2E2E2E2E2E2E2
310
E2E2E2E2E2E2E2E2E2E2E2E2E2E2E2E2E2E2E2E2E2E2E2E2E2E2F5F5E2E2E2E2E2E2E2E2E2E2E2E2E2E2E2E2E2E2E2E2E2E2E2E2E2E2E2E2E2E2E2E2E2E2E2E2E2E2E2E2E2E2E2E2E2E2E2E2E2E2E2E2E2E2E2E2E2E2E2E2E2E2E2E2E2E2E2E2E2E2E2E2E2E2E2E2E2E2E2E2E2E2E2E2E2E2E2E2E2E2E2E2E2E2E2E2E2E2E2
310
E2E2E2E2E2E2E2E2E2E2E2E2E2E2E2E2E2E2E2E2E2E2E2E2E2E2E2E2E2E2E2E2E2E2E2E2E2E2E2E2E2E2E2E2E2E2E2E2E2E2E2E2E2E2E2E2E2E2E2E2E2E2E2E2E2E2E2E2E2E2E2E2E2E2E2E2E2E2E2F5F5E2E2E2E2E2E2E2E2E2E2E2E2E2E2E2E2E2E2E2E2E2E2E2E2E2E2E2E2E2E2E2E2E2E2E2E2E2E2E2E2E2E2E2E2E2E2
310
E2E2E2E2E2E2E2E2E2E2E2E2E2E2E2E2E2E2E2E2E2E2E2E2E2E2E2E2E2E2E2E2E2E2E2E2E2E2E2E2E2E2E2E2E2E2E2E2E2E2E2E2E2E2E2E2E2E2E2E2E2E2E2E2E2E2E2E2E2E2E2E2E2E2E2E2E2E2E2E2E2E2E2E2E2E2E2E2E2E2E2E2E2E2E2E2E2E2E2E2E2E2E2E2E2E2E2E2E2E2E2E2E2E2E2E2E2E2E2E2E2E2E2E2E2E2E2
310
E2E2E2E2E2F5F5E2E2E2E2E2E2E2E2E2E2E2E2E2E2E2E2E2E2E2E2E2E2E2E2E2E2E2E2E2E2E2E2E2E2E2E2E2E2E2E2E2E2E2E2E2E2E2E2E2E2E2E2E2E2E2E2E2E2E2E2E2E2E2E2E2E2E2E2E2E2E2E2E2E2E2E2E2E2E2E2E2E2E2E2E2E2E2E2E2E2E2E2E2E2E2E2E2E2E2E2E2E2E2E2E2E2E2E2E2E2E2E2E2E2E2E2E2E2E2E2
310
E2E2E2E2E2E2E2E2E2E2E2E2E2E2E2E2E2E2E2E2E2E2E2E2E2E2E2E2E2E2E2E2E2E2E2E2E2E2E2E2E2E2E2E2E2E2E2E2E2E2E2E2E2E2E2E2E2E2F5F5E2E2E2F5F5F5F5F5F5F5F5E2E2E2E2E2E2E2E2E2F5F5F5F5F5F5F5F5F5F5F5F5F5F5F5F5E2E2E2E2E2E2E2E2E2F5F5F5F5F5F5F5F5F5F5F5F5F5F5F5E2E2E2E2E2E2E2
310
E2E2F5F5F5F5F5F5F5F5F5F5F5F5F5F5F5F5E2E2E2E2E2E2E2E2F5F5F5F5F5F5F5F5F5F5F5F5F5F5F5F5E2E2E2E2E2E2E2E2E2F5F5F5F5F5F5F5F5F5F5F5F5F5F5F5E2E2E2E2E2E2E2E2E2F5F5F5F5F5F5F5F5F5F5F5F5F5F5F5F5E2E2E2E2E2E2E2E2E2F5F5F5F5F5F5F5F5E2E2E2F5F5E2E2E2F5E2E2E2E2E2E2E2E2E2E2
310
E2E2E2E2E2E2E2E2E2E2E2E2E2E2E2E2E2E2E2E2E2E2E2E2E2E2E2E2E2E2E2E2E2E2E2E2E2E2E2E2E2E2E2E2E2E2E2E2E2E2E2E2E2E2E2E2E2E2E2E2E2E2E2E2E2E2E2E2E2E2E2E2E2E2E2E2E2E2E2E2E2E2E2E2E2E2E2E2E2E2E2E2E2E2E2E2E2E2E2E2E2E2E2E2E2E2E2E2E2E2E2E2E2E2E2E2E2E2E2E2E2E2E2E2E2E2E2
310
E2E2E2E2E2E2E2E2E2E2E2E2E2E2E2E2E2E2E2E2E2E2E2E2E2E2E2E2E2E2E2E2E2F5E2E2E2F5F5E2E2E2F5E2E2E2E2E2E2E2E2E2E2E2E2E2E2E2E2E2E2E2E2E2E2E2E2E2E2E2E2E2E2E2E2E2E2E2E2E2E2E2E2E2E2E2E2E2E2E2E2E2E2E2E2E2E2E2E2E2E2E2E2E2E2E2E2E2E2E2E2E2E2E2E2E2E2E2E2E2E2E2E2E2E2E2E2
310
E2E2E2E2E2E2E2E2E2E2E2E2E2E2E2E2E2E2E2E2E2E2E2E2E2E2E2E2E2E2E2E2E2E2E2E2E2E2E2E2E2E2E2E2E2E2E2E2E2E2E2E2E2E2E2E2E2E2E2E2E2E2E2E2E2E2E2E2E2E2E2E2E2E2E2E2E2E2E2E2E2E2E2E2E2E2F5E2E2E2F5F5E2E2E2F5E2E2E2E2E2E2E2E2E2E2E2E2E2E2E2E2E2E2E2E2E2E2E2E2E2E2E2E2E2E2E2
310
E2E2E2E2E2E2E2E2E2E2E2E2E2E2E2E2E2E2E2E2E2E2E2E2E2E2E2E2E2E2E2E2E2E2E2E2E2E2E2E2E2E2E2E2E2E2E2E2E2E2E2E2E2E2E2E2E2E2E2E2E2E2E2E2E2E2E2E2E2E2E2E2E2E2E2E2E2E2E2E2E2E2E2E2E2E2E2E2E2E2E2E2E2E2E2E2E2E2E2E2E2E2E2E2E2E2E2E2E2E2E2E2E2E2E2E2E2E2E2E2E2E2E2E2E2E2E2
310
E2E2E2E2E2E2E2E2E2E2E2E2F5E2E2E2F5F5E2E2E2F5E2E2E2E2E2E2E2E2E2E2E2E2E2E2E2E2E2E2E2E2E2E2E2E2E2E2E2E2E2E2E2E2E2E2E2E2E2E2E2E2E2E2E2E2E2E2E2E2E2E2E2E2E2E2E2E2E2E2E2E2E2E2E2E2E2E2E2E2E2E2E2E2E2E2E2E2E2E2E2E2E2E2E2E2E2E2E2E2E2E2E2E2E2E2E2E2E2E2E2E2E2E2E2E2E2
310
E2E2E2E2E2E2E2E2E2E2E2E2E2E2E2E2E2E2E2E2E2E2E2E2E2E2E2E2E2E2E2E2E2E2E2E2E2E2E2E2E2E2E2E2E2E2E2E2E2E2E2E2E2E2E2E2E2E2E2E2E2E2E2E2E2F5E2E2E2F5F5E2E2E2F5E2E2E2E2E2E2E2E2E2E2E2E2E2E2E2E2E2E2E2E2E2E2E2E2E2E2E2E2E2E2E2E2E2E2E2E2E2E2E2E2E2E2E2E2E2E2E2E2E2E2E2E2
310
E2E2E2E2E2E2E2E2E2E2E2E2E2E2E2E2E2E2E2E2E2E2E2E2E2E2E2E2E2E2E2E2E2E2E2E2E2E2E2E2E2E2E2E2E2E2E2E2E2E2E2E2E2E2E2E2E2E2E2E2E2E2E2E2E2E2E2E2E2E2E2E2E2E2E2E2E2E2E2E2E2E2E2E2E2E2E2E2E2E2E2E2E2E2E2E2E2E2E2E2E2E2E2E2E2E2E2E2E2E2E2E2E2E2E2E2E2E2F5E2E2E2F5F5E2E2E2
310
F5E2E2E2E2E2E2E2E2E2E2E2E2E2E2E2E2E2E2E2E2E2E2E2E2E2E2E2E2E2E2E2E2E2E2E2E2E2E2E2E2E2E2E2E2E2E2E2E2E2E2E2E2E2E2E2E2E2E2E2E2E2E2E2E2E2E2E2E2E2E2E2E2E2E2E2E2E2E2E2E2E2E2E2E2E2E2E2E2E2E2E2E2E2E2E2E2E2E2E2E2E2E2E2E2E2E2E2E2E2E2E2E2E2E2E2E2E2E2E2E2E2E2E2E2E2E2
310
E2E2E2E2E2E2E2E2E2E2E2E2E2E2E2E2E2E2E2E2E2E2E2E2E2E2E2E2E2E2E2E2E2E2E2E2E2E2E2E2E2E2E2E2F5E2E2E2F5F5E2E2E2F5E2E2E2E2E2E2E2E2E2E2E2E2E2E2E2E2E2E2E2E2E2E2E2E2E2E2E2E2E2E2E2E2E2E2E2E2E2E2E2E2E2E2E2E2E2E2E2E2E2E2E2E2E2E2E2E2E2E2E2E2E2E2E2E2E2E2E2E2E2E2E2E2E2
310
E2E2E2E2E2E2E2E2E2E2E2E2E2E2E2E2E2E2E2E2E2E2E2E2E2E2E2E2E2E2E2E2E2E2E2E2E2E2E2E2E2E2E2E2E2E2E2E2E2E2E2E2E2E2E2E2E2E2E2E2E2E2E2E2E2E2E2E2E2E2E2E2E2E2E2E2E2E2E2E2E2E2E2E2E2E2E2E2E2E2E2E2E2E2E2E2E2F5E2E2E2F5F5E2E2E2F5E2E2E2E2E2E2E2E2E2E2E2E2E2E2E2E2E2E2E2E2
310
E2E2E2E2E2E2E2E2E2E2E2E2E2E2E2E2E2E2E2E2E2E2E2E2E2E2E2E2E2E2E2E2E2E2E2E2E2E2E2E2E2E2E2E2E2E2E2E2E2E2E2E2E2E2E2E2E2E2E2E2E2E2E2E2E2E2E2E2E2E2E2E2E2E2E2E2E2E2E2E2E2E2E2E2E2E2E2E2E2E2E2E2E2E2E2E2E2E2E2E2E2E2E2E2E2E2E2E2E2E2E2E2E2E2E2E2E2E2E2E2E2E2E2E2E2E2E2
310
E2E2E2E2E2E2E2E2E2E2E2E2E2E2E2E2E2E2E2E2E2E2E2F5E2E2E2F5F5E2E2E2E2E2E2E2E2E2E2E2E2E2E2E2E2E2E2E2E2E2E2E2E2E2E2E2E2E2E2E2E2E2E2E2E2E2E2E2E2E2E2E2E2E2E2E2E2E2E2E2E2E2E2E2E2E2E2E2E2E2E2E2E2E2E2E2E2E2E2E2E2E2E2E2E2E2E2E2E2E2E2E2E2E2E2E2E2E2E2E2E2E2E2E2E2E2E2
310
E2E2E2E2E2E2E2E2E2E2E2E2E2E2E2E2E2E2E2E2E2E2E2E2E2E2E2E2E2E2E2E2E2E2E2E2E2E2E2E2E2E2E2E2E2E2E2E2E2E2E2E2E2E2E2E2E2E2E2E2E2E2E2E2E2E2E2E2E2E2E2E2E2E2E2E2E2E2E2E2F5F5E2E2E2E2E2E2E2E2E2E2E2E2E2E2E2E2E2E2E2E2E2E2E2E2E2E2E2E2E2E2E2E2E2E2E2E2E2E2E2E2E2E2E2E2E2
310
E2E2E2E2E2E2E2E2E2E2E2E2E2E2E2E2E2E2E2E2E2E2E2E2E2E2E2E2E2E2E2E2E2E2E2E2E2E2E2E2E2E2E2E2E2E2E2E2E2E2E2E2E2E2E2E2E2E2E2E2E2E2E2E2E2E2E2E2E2E2E2E2E2E2E2E2E2E2E2E2E2E2E2E2E2E2E2E2E2E2E2E2E2E2E2E2E2E2E2E2E2E2E2E2E2E2E2E2E2E2E2E2E2E2E2E2E2E2E2E2E2E2E2E2E2E2E2
310
E2E2E2E2E2E2F5F5E2E2E2E2E2E2E2E2E2E2E2E2E2E2E2E2E2E2E2E2E2E2E2E2E2E2E2E2E2E2E2E2E2E2E2E2E2E2E2E2E2E2E2E2E2E2E2E2E2E2E2E2E2E2E2E2E2E2E2E2E2E2E2E2E2E2E2E2E2E2E2E2E2E2E2E2E2E2E2E2E2E2E2E2E2E2E2E2E2E2E2E2E2E2E2E2E2E2E2E2E2E2E2E2E2E2E2E2E2E2E2E2E2E2E2E2E2E2E2
310
E2E2E2E2E2E2E2E2E2E2E2E2E2E2E2E2E2E2E2E2E2E2E2E2E2E2E2E2E2E2E2E2E2E2E2E2E2E2E2E2E2E2E2E2E2E2E2E2E2E2E2E2E2E2E2E2E2E2E2F5F5E2E2E2E2E2E2E2E2E2E2E2E2E2E2E2E2E2E2E2E2E2E2E2E2E2E2E2E2E2E2E2E2E2E2E2E2E2E2E2E2E2E2E2E2E2E2E2E2E2E2E2E2E2E2E2E2E2E2E2E2E2E2E2E2E2E2
310
E2E2E2E2E2E2E2E2E2E2E2E2E2E2E2E2E2E2E2E2E2E2E2E2E2E2E2E2E2E2E2E2E2E2E2E2E2E2E2E2E2E2E2E2E2E2E2E2E2E2E2E2E2E2E2E2E2E2E2E2E2E2E2E2E2E2E2E2E2E2E2E2E2E2E2E2E2E2E2E2E2E2E2E2E2E2E2E2E2E2E2E2E2E2E2E2E2E2E2E2E2E2E2E2E2E2E2E2E2E2E2E2F5F5E2E2E2E2E2E2E2E2E2E2E2E2E2
310
E2E2E2E2E2E2E2F5F5F5F5F5F5F5F5F5F5F5F5F5F5F5F5F5F5F5F5F5F5F5F5F5F5F5F5F5F5F5F5F5F5F5F5F5F5F5F5F5F5F5F5F5F5F5F5F5F5F5F5F5F5F5F5F5F5F5F5F5F5F5F5F5F5F5F5F5F5F5F5F5F5F5F5F5F5F5F5F5F5F5F5F5F5F5F5F5F5F5F5F5F5F5F5F5F5F5F5F5F5F5F5F5F5F5F5F5F5F5F5F5F5F5F5F5F5F5F5
310
F5F5F5F5F5F5F5F5F5F5F5F5F5F5F5F5F5F5E2E2E2E2E2E2E2E2E2E2E2E2E2E2E2E2E2E2E2E2F5F5E2E2E2E2E2E2E2E2E2E2E2E2E2E2E2E2E2E2E2E2F5E2E2E2E2E2E2E2E2E2E2E2E2E2E2E2E2E2E2E2E2E2E2E2E2E2E2E2E2E2E2E2E2E2E2E2E2E2E2E2E2E2E2E2E2E2E2E2E2E2E2E2E2E2E2E2E2E2E2E2E2E2E2E2E2E2E2
310
E2E2E2E2E2E2E2E2E2E2E2E2E2E2E2E2E2E2E2E2E2E2E2E2E2E2E2E2E2E2E2E2E2E2E2E2E2E2E2E2E2E2E2E2E2E2E2E2E2E2E2E2E2E2E2E2E2E2E2E2E2E2E2E2E2E2E2E2E2E2F5E2E2E2E2E2E2E2E2E2E2E2E2E2E2E2E2E2E2E2E2F5F5E2E2E2E2E2E2E2E2E2E2E2E2E2E2E2E2E2E2E2E2F5E2E2E2E2E2E2E2E2E2E2E2E2E2
310
E2E2E2E2E2E2E2E2E2E2E2E2E2E2E2E2E2E2E2E2E2E2E2E2E2E2E2E2E2E2E2E2E2E2E2E2E2E2E2E2E2E2E2E2E2E2E2E2E2E2E2E2E2E2E2E2E2E2E2E2E2E2E2E2E2E2E2E2E2E2E2E2E2E2E2E2E2E2E2E2E2E2E2E2E2E2E2E2E2E2E2E2E2E2E2E2E2E2E2E2E2E2E2E2E2E2E2E2E2E2E2E2E2E2E2E2E2E2E2E2E2E2E2F5E2E2E2
310
E2E2E2E2E2E2E2E2E2E2E2E2E2E2E2E2E2F5F5E2E2E2E2E2E2E2E2E2E2E2E2E2E2E2E2E2E2E2E2F5E2E2E2E2E2E2E2E2E2E2E2E2E2E2E2E2E2E2E2E2E2E2E2E2E2E2E2E2E2E2E2E2E2E2E2E2E2E2E2E2E2E2E2E2E2E2E2E2E2E2E2E2E2E2E2E2E2E2E2E2E2E2E2E2E2E2E2E2E2E2E2E2E2E2E2E2E2E2E2E2E2E2E2E2E2E2E2
310
E2E2E2E2E2E2E2E2E2E2E2E2E2E2E2E2E2E2E2E2E2E2E2E2E2E2E2E2E2E2E2E2E2E2E2E2E2E2E2E2E2E2E2E2E2E2E2E2E2F5E2E2E2E2E2E2E2E2E2E2E2E2E2E2E2E2E2E2E2E2F5F5E2E2E2E2E2E2E2E2E2E2E2E2E2E2E2E2E2E2E2E2F5E2E2E2E2E2E2E2E2E2E2E2E2E2E2E2E2E2E2E2E2E2E2E2E2E2E2E2E2E2E2E2E2E2E2
310
E2E2E2E2E2E2E2E2E2E2E2E2E2E2E2E2E2E2E2E2E2E2E2E2E2E2E2E2E2E2E2E2E2E2E2E2E2E2E2E2E2E2E2E2E2E2E2E2E2E2E2E2E2E2E2E2E2E2E2E2E2E2E2E2E2E2E2E2E2E2E2E2E2E2E2E2E2E2E2E2E2E2E2E2E2E2E2E2E2E2E2E2E2E2E2E2E2E2E2E2E2E2F5E2E2E2E2E2E2E2E2E2E2E2E2E2E2E2E2E2E2E2E2F5F5E2E2
310
E2F5E2E2E2E2E2E2E2E2E2E2E2E2E2E2E2E2F5E2E2E2E2E2E2E2E2E2E2E2E2E2E2E2E2E2E2E2E2E2E2E2E2E2E2E2E2E2E2E2E2E2E2E2E2E2E2E2E2E2E2E2E2E2E2E2E2E2E2E2E2E2E2E2E2E2E2E2E2E2E2E2E2E2E2E2E2E2E2E2E2E2E2E2E2E2E2E2E2E2E2E2E2E2E2E2E2E2E2E2E2E2E2E2E2E2E2E2E2E2E2E2E2E2E2E2E2
310
E2E2E2E2E2E2E2E2E2E2E2E2E2E2E2E2E2E2E2E2E2E2E2E2E2E2E2E2F5E2E2E2E2E2E2E2E2E2E2E2E2E2E2E2E2F5E2E2E2F5F5E2E2E2F5E2E2E2E2E2E2E2E2E2E2E2E2E2E2E2E2F5E2E2E2E2E2E2E2E2E2E2E2E2E2E2E2E2E2E2E2E2E2E2E2E2E2E2E2E2E2E2E2E2E2E2E2E2E2E2E2E2E2E2E2E2E2E2E2E2E2E2E2E2E2E2E2
310
E2E2E2E2E2E2E2E2E2E2E2E2E2E2E2E2E2E2E2E2E2E2E2E2E2E2E2E2E2E2E2E2E2E2E2E2E2E2E2E2E2E2E2E2E2E2E2E2E2E2E2E2E2E2E2E2E2E2E2E2E2E2E2E2E2E2E2E2E2E2E2E2E2E2E2E2E2E2E2E2E2F5E2E2E2E2E2E2E2E2E2E2E2E2E2E2E2E2F5E2E2E2F5F5E2E2E2F5E2E2E2E2E2E2E2E2E2E2E2E2E2E2E2E2F5E2E2
310
E2E2E2E2E2E2E2E2E2E2E2E2E2E2E2E2E2E2E2E2E2E2E2E2E2E2E2E2E2E2E2E2E2E2E2E2E2E2E2E2E2E2E2E2E2E2E2E2E2E2E2E2E2E2E2E2E2E2E2E2E2E2E2E2E2E2E2E2E2E2E2E2E2E2E2E2E2E2E2E2E2E2E2E2E2E2E2E2E2E2E2E2E2E2E2E2E2E2E2E2E2E2E2E2E2E2E2E2E2E2E2E2E2E2E2E2E2E2E2E2E2E2E2E2E2E2E2
310
E2E2E2E2E2E2E2F5E2E2E2E2E2E2E2E2E2E2E2E2E2E2E2E2F5E2E2E2F5F5E2E2E2F5E2E2E2E2E2E2E2E2E2E2E2E2E2E2E2E2F5E2E2E2E2E2E2E2E2E2E2E2E2E2E2E2E2E2E2E2E2E2E2E2E2E2E2E2E2E2E2E2E2E2E2E2E2E2E2E2E2E2E2E2E2E2E2E2E2E2E2E2E2E2E2E2E2E2E2E2E2E2E2E2E2E2E2E2E2E2E2E2E2E2E2E2E2
310
E2E2E2E2E2E2E2E2E2E2E2E2E2E2E2E2E2E2E2E2E2E2E2E2E2E2E2E2E2E2E2E2E2E2E2E2E2E2E2E2E2E2E2E2E2E2E2E2E2E2E2E2E2E2E2E2E2E2E2E2F5E2E2E2E2E2E2E2E2E2E2E2E2E2E2E2E2F5E2E2E2F5F5E2E2E2F5E2E2E2E2E2E2E2E2E2E2E2E2E2E2E2E2F5E2E2E2E2E2E2E2E2E2E2E2E2E2E2E2E2E2E2E2E2E2E2E2
310
E2E2E2E2E2E2E2E2E2E2E2E2E2E2E2E2E2E2E2E2E2E2E2E2E2E2E2E2E2E2E2E2E2E2E2E2E2E2E2E2E2E2E2E2E2E2E2E2E2E2E2E2E2E2E2E2E2E2E2E2E2E2E2E2E2E2E2E2E2E2E2E2E2E2E2E2E2E2E2E2E2E2E2E2E2E2E2E2E2E2E2E2E2E2E2E2E2E2E2E2E2E2E2E2E2E2E2E2E2E2E2E2E2F5E2E2E2E2E2E2E2E2E2E2E2E2E2
310
E2E2E2F5E2E2E2F5F5E2E2E2F5E2E2E2E2E2E2E2E2E2E2E2E2E2E2E2E2F5E2E2E2E2E2E2E2E2E2E2E2E2E2E2E2E2E2E2E2E2E2E2E2E2E2E2E2E2E2E2E2E2E2E2E2E2E2E2E2E2E2E2E2E2E2E2E2E2E2E2E2E2E2E2E2E2E2E2E2E2E2E2E2E2E2E2E2E2E2E2E2E2E2E2E2E2E2E2E2E2E2E2E2E2E2E2E2E2E2E2E2E2E2E2E2E2E2
310
E2E2E2E2E2E2E2E2E2E2E2E2E2E2E2E2E2E2E2E2E2E2E2E2E2E2E2E2E2E2E2E2E2E2E2E2E2E2E2F5E2E2E2E2E2E2E2E2E2E2E2E2E2E2E2E2F5E2E2E2F5F5E2E2E2F5E2E2E2E2E2E2E2E2E2E2E2E2E2E2E2E2F5E2E2E2E2E2E2E2E2E2E2E2E2E2E2E2E2E2E2E2E2E2E2E2E2E2E2E2E2E2E2E2E2E2E2E2E2E2E2E2E2E2E2E2E2
310
E2E2E2E2E2E2E2E2E2E2E2E2E2E2E2E2E2E2E2E2E2E2E2E2E2E2E2E2E2E2E2E2E2E2E2E2E2E2E2E2E2E2E2E2E2E2E2E2E2E2E2E2E2E2E2E2E2E2E2E2E2E2E2E2E2E2E2E2E2E2E2E2E2E2E2E2E2E2E2E2E2E2E2E2E2E2E2E2E2E2E2E2F5E2E2E2E2E2E2E2E2E2E2E2E2E2E2E2E2F5E2E2E2F5F5E2E2E2F5E2E2E2E2E2E2E2E2
310
E2E2E2E2E2E2E2E2F5E2E2E2E2E2E2E2E2E2E2E2E2E2E2E2E2E2E2E2E2E2E2E2E2E2E2E2E2E2E2E2E2E2E2E2E2E2E2E2E2E2E2E2E2E2E2E2E2E2E2E2E2E2E2E2E2E2E2E2E2E2E2E2E2E2E2E2E2E2E2E2E2E2E2E2E2E2E2E2E2E2E2E2E2E2E2E2E2E2E2E2E2E2E2E2E2E2E2E2E2E2E2E2E2E2E2E2E2E2E2E2E2E2E2E2E2E2E2
310
E2E2E2E2E2E2E2E2E2E2E2E2E2E2E2E2E2E2F5E2E2E2E2E2E2E2E2E2E2E2E2E2E2E2E2F5E2E2E2F5F5E2E2E2F5E2E2E2E2E2E2E2E2E2E2E2E2E2E2E2E2F5E2E2E2E2E2E2E2E2E2E2E2E2E2E2E2E2E2E2E2E2E2E2E2E2E2E2E2E2E2E2E2E2E2E2E2E2E2E2E2E2E2E2E2E2E2E2E2E2E2E2E2E2E2E2E2E2E2E2E2E2E2E2E2E2E2
310
E2E2E2E2E2E2E2E2E2E2E2E2E2E2E2E2E2E2E2E2E2E2E2E2E2E2E2E2E2E2E2E2E2E2E2E2E2E2E2E2E2E2E2E2E2E2E2E2E2E2E2E2E2E2E2E2E2E2E2E2E2E2E2E2E2E2E2E2E2E2E2F5E2E2E2E2E2E2E2E2E2E2E2E2E2E2E2E2F5E2E2E2F5F5E2E2E2F5E2E2E2E2E2E2E2E2E2E2E2E2E2E2E2E2F5E2E2E2E2E2E2E2E2E2E2E2E2
310
E2E2E2E2E2E2E2E2E2E2E2E2E2E2E2E2E2E2E2E2E2E2E2E2E2E2E2E2E2E2E2E2E2E2E2E2E2E2E2E2E2E2E2E2E2E2E2E2E2E2E2E2E2E2E2E2E2E2E2E2E2E2E2E2E2E2E2E2E2E2E2E2E2E2E2E2E2E2E2E2E2E2E2E2E2E2E2E2E2E2E2E2E2E2E2E2E2E2E2E2E2E2E2E2E2E2E2E2E2E2E2E2E2E2E2E2E2E2E2E2E2E2E2E2F5E2E2
310
E2E2E2E2E2E2E2E2E2E2E2E2E2E2F5E2E2E2F5F5E2E2E2F5E2E2E2E2E2E2E2E2E2E2E2E2E2E2E2E2F5E2E2E2E2E2E2E2E2E2E2E2E2E2E2E2E2E2E2E2E2E2E2E2E2E2E2E2E2E2E2E2E2E2E2E2E2E2E2E2E2E2E2E2E2E2E2E2E2E2E2E2E2E2E2E2E2E2E2E2E2E2E2E2E2E2E2E2E2E2E2E2E2E2E2E2E2E2E2E2E2E2E2E2E2E2E2
310
E2E2E2E2E2E2E2E2E2E2E2E2E2E2E2E2E2E2E2E2E2E2E2E2E2E2E2E2E2E2E2E2E2E2E2E2E2E2E2E2E2E2E2E2E2E2E2E2E2E2F5E2E2E2E2E2E2E2E2E2E2E2E2E2E2E2E2F5E2E2E2F5F5E2E2E2F5E2E2E2E2E2E2E2E2E2E2E2E2E2E2E2E2F5E2E2E2E2E2E2E2E2E2E2E2E2E2E2E2E2E2E2E2E2E2E2E2E2E2E2E2E2E2E2E2E2E2
310
E2E2E2E2E2E2E2E2E2E2E2E2E2E2E2E2E2E2E2E2E2E2E2E2E2E2E2E2E2E2E2E2E2E2E2E2E2E2E2E2E2E2E2E2E2E2E2E2E2E2E2E2E2E2E2E2E2E2E2E2E2E2E2E2E2E2E2E2E2E2E2E2E2E2E2E2E2E2E2E2E2E2E2E2E2E2E2E2E2E2E2E2E2E2E2E2E2E2E2E2E2E2E2F5E2E2E2E2E2E2E2E2E2E2E2E2E2E2E2E2F5E2E2E2F5F5E2
310
E2E2F5E2E2E2E2E2E2E2E2E2E2E2E2E2E2E2E2F5E2E2E2E2E2E2E2E2E2E2E2E2E2E2E2E2E2E2E2E2E2E2E2E2E2E2E2E2E2E2E2E2E2E2E2E2E2E2E2E2E2E2E2E2E2E2E2E2E2E2E2E2E2E2E2E2E2E2E2E2E2E2E2E2E2E2E2E2E2E2E2E2E2E2E2E2E2E2E2E2E2E2E2E2E2E2E2E2E2E2E2E2E2E2E2E2E2E2E2E2E2E2E2E2E2E2E2
310
E2E2E2E2E2E2E2E2E2E2E2E2E2E2E2E2E2E2E2E2E2E2E2E2E2E2E2E2E2F5E2E2E2E2E2E2E2E2E2E2E2E2E2E2E2E2F5E2E2E2F5F5E2E2E2F5E2E2E2E2E2E2E2E2E2E2E2E2E2E2E2E2F5E2E2E2E2E2E2E2E2E2E2E2E2E2E2E2E2E2E2E2E2E2E2E2E2E2E2E2E2E2E2E2E2E2E2E2E2E2E2E2E2E2E2E2E2E2E2E2E2E2E2E2E2E2E2
310
E2E2E2E2E2E2E2E2E2E2E2E2E2E2E2E2E2E2E2E2E2E2E2E2E2E2E2E2E2E2E2E2E2E2E2E2E2E2E2E2E2E2E2E2E2E2E2E2E2E2E2E2E2E2E2E2E2E2E2E2E2E2E2E2E2E2E2E2E2E2E2E2E2E2E2E2E2E2E2E2E2E2F5E2E2E2E2E2E2E2E2E2E2E2E2E2E2E2E2F5E2E2E2F5F5E2E2E2F5E2E2E2E2E2E2E2E2E2E2E2E2E2E2E2E2F5E2
310
E2E2E2E2E2E2E2E2E2E2E2E2E2E2E2E2E2E2E2E2E2E2E2E2E2E2E2E2E2E2E2E2E2E2E2E2E2E2E2E2E2E2E2E2E2E2E2E2E2E2E2E2E2E2E2E2E2E2E2E2E2E2E2E2E2E2E2E2E2E2E2E2E2E2E2E2E2E2E2E2E2E2E2E2E2E2E2E2E2E2E2E2E2E2E2E2E2E2E2E2E2E2E2E2E2E2E2E2E2E2E2E2E2E2E2E2E2E2E2E2E2E2E2E2E2E2E2
310
E2E2E2E2E2E2E2E2F5E2E2E2E2E2E2E2E2E2E2E2E2E2E2E2E2F5E2E2E2F5F5E2E2E2F5E2E2E2E2E2E2E2E2E2E2E2E2E2E2E2E2F5E2E2E2E2E2E2E2E2E2E2E2E2E2E2E2E2E2E2E2E2E2E2E2E2E2E2E2E2E2E2E2E2E2E2E2E2E2E2E2E2E2E2E2E2E2E2E2E2E2E2E2E2E2E2E2E2E2E2E2E2E2E2E2E2E2E2E2E2E2E2E2E2E2E2E2
310
E2E2E2E2E2E2E2E2E2E2E2E2E2E2E2E2E2E2E2E2E2E2E2E2E2E2E2E2E2E2E2E2E2E2E2E2E2E2E2E2E2E2E2E2E2E2E2E2E2E2E2E2E2E2E2E2E2E2E2E2E2F5E2E2E2E2E2E2E2E2E2E2E2E2E2E2E2E2F5E2E2E2F5F5E2E2E2F5E2E2E2E2E2E2E2E2E2E2E2E2E2E2E2E2F5E2E2E2E2E2E2E2E2E2E2E2E2E2E2E2E2E2E2E2E2E2E2
310
E2E2E2E2E2E2E2E2E2E2E2E2E2E2E2E2E2E2E2E2E2E2E2E2E2E2E2E2E2E2E2E2E2E2E2E2E2E2E2E2E2E2E2E2E2E2E2E2E2E2E2E2E2E2E2E2E2E2E2E2E2E2E2E2E2E2E2E2E2E2E2E2E2E2E2E2E2E2E2E2E2E2E2E2E2E2E2E2E2E2E2E2E2E2E2E2E2E2E2E2E2E2E2E2E2E2E2E2E2E2E2E2E2E2F5E2E2E2E2E2E2E2E2E2E2E2E2
310
E2E2E2E2F5E2E2E2F5F5E2E2E2E2E2E2E2E2E2E2E2E2E2E2E2E2E2E2E2E2F5E2E2E2E2E2E2E2E2E2E2E2E2E2E2E2E2E2E2E2E2E2E2E2E2E2E2E2E2E2E2E2E2E2E2E2E2E2E2E2E2E2E2E2E2E2E2E2E2E2E2E2E2E2E2E2E2E2E2E2E2E2E2E2E2E2E2E2E2E2E2E2E2E2E2E2E2E2E2E2E2E2E2E2E2E2E2E2E2E2E2E2E2E2E2E2E2
310
E2E2E2E2E2E2E2E2E2E2E2E2E2E2E2E2E2E2E2E2E2E2E2E2E2E2E2E2E2E2E2E2E2E2E2E2E2E2E2E2F5E2E2E2E2E2E2E2E2E2E2E2E2E2E2E2E2E2E2E2E2F5F5E2E2E2E2E2E2E2E2E2E2E2E2E2E2E2E2E2E2E2E2F5E2E2E2E2E2E2E2E2E2E2E2E2E2E2E2E2E2E2E2E2E2E2E2E2E2E2E2E2E2E2E2E2E2E2E2E2E2E2E2E2E2E2E2
310
E2E2E2E2E2E2E2E2E2E2E2E2E2E2E2E2E2E2E2E2E2E2E2E2E2E2E2E2E2E2E2E2E2E2E2E2E2E2E2E2E2E2E2E2E2E2E2E2E2E2E2E2E2E2E2E2E2E2E2E2E2E2E2E2E2E2E2E2E2E2E2E2E2E2E2E2E2E2E2E2E2E2E2E2E2E2E2E2E2E2E2E2E2F5E2E2E2E2E2E2E2E2E2E2E2E2E2E2E2E2E2E2E2E2F5F5E2E2E2E2E2E2E2E2E2E2E2
310
E2E2E2E2E2E2E2E2E2F5E2E2E2E2E2E2E2E2E2E2E2E2E2E2E2E2E2E2E2E2E2E2E2E2E2E2E2E2E2E2E2E2E2E2E2E2E2E2E2E2E2E2E2E2E2E2E2E2E2E2E2E2E2E2E2E2E2E2E2E2E2E2E2E2E2E2E2E2E2E2E2E2E2E2E2E2E2E2E2E2E2E2E2E2E2E2E2E2E2E2E2E2E2E2E2E2E2E2E2E2E2E2E2E2E2E2E2E2E2E2E2E2E2E2E2E2E2
310
E2E2E2E2E2E2E2E2E2E2E2E2E2E2E2E2E2E2E2F5E2E2E2E2E2E2E2E2E2E2E2E2E2E2E2E2E2E2E2E2F5F5E2E2E2E2E2E2E2E2E2E2E2E2E2E2E2E2E2E2E2E2F5E2E2E2E2E2E2E2E2E2E2E2E2E2E2E2E2E2E2E2E2E2E2E2E2E2E2E2E2E2E2E2E2E2E2E2E2E2E2E2E2E2E2E2E2E2E2E2E2E2E2E2E2E2E2E2E2E2E2E2E2E2E2E2E2
310
E2E2E2E2E2E2E2E2E2E2E2E2E2E2E2E2E2E2E2E2E2E2E2E2E2E2E2E2E2E2E2E2E2E2E2E2E2E2E2E2E2E2E2E2E2E2E2E2E2E2E2E2E2E2E2E2E2E2E2E2E2E2E2E2E2E2E2E2E2E2E2E2F5E2E2E2E2E2E2E2E2E2E2E2E2E2E2E2E2E2E2E2E2F5F5E2E2E2E2E2E2E2E2E2E2E2E2E2E2E2E2E2E2E2E2F5E2E2E2E2E2E2E2E2E2E2E2
310
E2E2E2E2E2E2E2E2E2E2E2E2E2E2E2E2E2E2E2E2E2E2E2E2E2E2E2E2E2E2E2E2E2E2E2E2E2E2E2E2E2E2E2E2E2E2E2E2E2E2E2E2E2E2E2E2E2E2E2E2E2E2E2E2E2E2E2E2E2E2E2E2E2E2E2E2E2E2E2E2E2E2E2E2E2E2E2E2E2E2E2E2E2E2E2E2E2E2E2E2E2E2E2E2E2E2E2E2E2E2E2E2E2E2E2E2E2E2E2E2E2E2E2E2E2F5E2
310
E2E2E2E2E2E2E2E2E2E2E2E2E2E2E2E2E2E2E2F5F5E2E2E2E2E2E2E2E2E2E2E2E2E2E2E2E2E2E2E2E2F5E2E2E2E2E2E2E2E2E2E2E2E2E2E2E2E2E2E2E2E2E2E2E2E2E2E2E2E2E2E2E2E2E2E2E2E2E2E2E2E2E2E2E2E2E2E2E2E2E2E2E2E2E2E2E2E2E2E2E2E2E2E2E2E2E2E2E2E2E2E2E2E2E2E2E2E2E2E2E2E2E2E2E2E2E2
310
E2E2E2E2E2E2E2E2E2E2E2E2E2E2E2E2E2E2E2E2E2E2E2E2E2E2E2E2E2E2E2E2E2E2E2E2E2E2E2E2E2E2E2E2E2E2E2E2E2E2E2F5E2E2E2E2E2E2E2E2E2E2E2E2E2E2E2E2E2E2E2E2F5F5E2E2E2E2E2E2E2E2E2E2E2E2E2E2E2E2E2E2E2E2F5E2E2E2E2E2E2E2E2E2E2E2E2E2E2E2E2E2E2E2E2E2E2E2E2E2E2E2E2E2E2E2E2
310
E2E2E2E2E2E2E2E2E2E2E2E2E2E2E2E2E2E2E2E2E2E2E2E2E2E2E2E2E2E2E2E2E2E2E2E2E2E2E2E2E2E2E2E2E2E2E2E2E2E2E2E2E2E2E2E2E2E2E2E2E2E2E2E2E2E2E2E2E2E2E2E2E2E2E2E2E2E2E2E2E2E2E2E2E2E2E2E2E2E2E2E2E2E2E2E2E2E2E2E2E2E2E2E2F5E2E2E2E2E2E2E2E2E2E2E2E2E2E2E2E2E2E2E2E2F5F5
310
E2E2E2E2E2E2E2E2E2E2E2E2E2E2E2E2E2E2E2E2F5E2E2E2E2E2E2E2E2E2E2E2E2E2E2E2E2E2E2E2E2E2E2E2E2E2E2E2E2E2E2E2E2E2E2E2E2E2E2E2E2E2E2E2E2E2E2E2E2E2E2E2E2E2E2E2E2E2E2E2E2E2E2E2E2E2E2E2E2E2E2E2E2E2E2E2E2E2E2E2E2E2E2E2E2E2E2E2E2E2E2E2E2E2E2E2E2E2E2E2E2E2E2E2E2E2E2
310
E2E2E2E2E2E2E2E2E2E2E2E2E2E2E2E2E2E2E2E2E2E2E2E2E2E2E2E2E2E2F5E2E2E2E2E2E2E2E2E2E2E2E2E2E2E2E2E2E2E2E2F5F5E2E2E2E2E2E2E2E2E2E2E2E2E2E2E2E2E2E2E2E2F5E2E2E2E2E2E2E2E2E2E2E2E2E2E2E2E2E2E2E2E2E2E2E2E2E2E2E2E2E2E2E2E2E2E2E2E2E2E2E2E2E2E2E2E2E2E2E2E2E2E2E2E2E2
310
E2E2E2E2E2E2E2E2E2E2E2E2E2E2E2E2E2E2E2E2E2E2E2E2E2E2E2E2E2E2E2E2E2E2E2E2E2E2E2E2E2E2E2E2E2E2E2E2E2E2E2E2E2E2E2E2E2E2E2E2E2E2E2E2E2E2E2E2E2E2E2E2E2E2E2E2E2E2E2E2E2E2E2F5E2E2E2E2E2E2E2E2E2E2E2E2E2E2E2E2E2E2E2E2F5F5E2E2E2F5E2E2E2E2E2E2E2E2E2E2E2E2E2E2E2E2F5
310
E2E2E2E2E2E2E2E2E2E2E2E2E2E2E2E2E2E2E2E2E2E2E2E2E2E2E2E2E2E2E2E2E2E2E2E2E2E2E2E2E2E2E2E2E2E2E2E2E2E2E2E2E2E2E2E2E2E2E2E2E2E2E2E2E2E2E2E2E2E2E2E2E2E2E2E2E2E2E2E2E2E2E2E2E2E2E2E2E2E2E2E2E2E2E2E2E2E2E2E2E2E2E2E2E2E2E2E2E2E2E2E2E2E2E2E2E2E2E2E2E2E2E2E2E2E2E2
310
E2E2E2E2E2E2E2E2E2F5E2E2E2E2E2E2E2E2E2E2E2E2E2E2E2E2F5E2E2E2F5F5E2E2E2F5E2E2E2E2E2E2E2E2E2E2E2E2E2E2E2E2F5E2E2E2E2E2E2E2E2E2E2E2E2E2E2E2E2E2E2E2E2E2E2E2E2E2E2E2E2E2E2E2E2E2E2E2E2E2E2E2E2E2E2E2E2E2E2E2E2E2E2E2E2E2E2E2E2E2E2E2E2E2E2E2E2E2E2E2E2E2E2E2E2E2E2
310
E2E2E2E2E2E2E2E2E2E2E2E2E2E2E2E2E2E2E2E2E2E2E2E2E2E2E2E2E2E2E2E2E2E2E2E2E2E2E2E2E2E2E2E2E2E2E2E2E2E2E2E2E2E2E2E2E2E2E2E2E2E2F5E2E2E2E2E2E2E2E2E2E2E2E2E2E2E2E2F5E2E2E2F5F5E2E2E2F5E2E2E2E2E2E2E2E2E2E2E2E2E2E2E2E2F5E2E2E2E2E2E2E2E2E2E2E2E2E2E2E2E2E2E2E2E2E2
310
E2E2E2E2E2E2E2E2E2E2E2E2E2E2E2E2E2E2E2E2E2E2E2E2E2E2E2E2E2E2E2E2E2E2E2E2E2E2E2E2E2E2E2E2E2E2E2E2E2E2E2E2E2E2E2E2E2E2E2E2E2E2E2E2E2E2E2E2E2E2E2E2E2E2E2E2E2E2E2E2E2E2E2E2E2E2E2E2E2E2E2E2E2E2E2E2E2E2E2E2E2E2E2E2E2E2E2E2E2E2E2E2E2E2E2F5E2E2E2E2E2E2E2E2E2E2E2
310
E2E2E2E2E2F5E2E2E2F5F5E2E2E2F5E2E2E2E2E2E2E2E2E2E2E2E2E2E2E2E2F5E2E2E2E2E2E2E2E2E2E2E2E2E2E2E2E2E2E2E2E2E2E2E2E2E2E2E2E2E2E2E2E2E2E2E2E2E2E2E2E2E2E2E2E2E2E2E2E2E2E2E2E2E2E2E2E2E2E2E2E2E2E2E2E2E2E2E2E2E2E2E2E2E2E2E2E2E2E2E2E2E2E2E2E2E2E2E2E2E2E2E2E2E2E2E2
310
E2E2E2E2E2E2E2E2E2E2E2E2E2E2E2E2E2E2E2E2E2E2E2E2E2E2E2E2E2E2E2E2E2E2E2E2E2E2E2E2E2F5E2E2E2E2E2E2E2E2E2E2E2E2E2E2E2E2F5E2E2E2F5F5E2E2E2F5E2E2E2E2E2E2E2E2E2E2E2E2E2E2E2E2F5E2E2E2E2E2E2E2E2E2E2E2E2E2E2E2E2E2E2E2E2E2E2E2E2E2E2E2E2E2E2E2E2E2E2E2E2E2E2E2E2E2E2
310
E2E2E2E2E2E2E2E2E2E2E2E2E2E2E2E2E2E2E2E2E2E2E2E2E2E2E2E2E2E2E2E2E2E2E2E2E2E2E2E2E2E2E2E2E2E2E2E2E2E2E2E2E2E2E2E2E2E2E2E2E2E2E2E2E2E2E2E2E2E2E2E2E2E2E2E2E2E2E2E2E2E2E2E2E2E2E2E2E2E2E2E2E2E2F5E2E2E2E2E2E2E2E2E2E2E2E2E2E2E2E2F5E2E2E2F5F5E2E2E2F5E2E2E2E2E2E2
310
E2E2E2E2E2E2E2E2E2E2F5E2E2E2E2E2E2E2E2E2E2E2E2E2E2E2E2E2E2E2E2E2E2E2E2E2E2E2E2E2E2E2E2E2E2E2E2E2E2E2E2E2E2E2E2E2E2E2E2E2E2E2E2E2E2E2E2E2E2E2E2E2E2E2E2E2E2E2E2E2E2E2E2E2E2E2E2E2E2E2E2E2E2E2E2E2E2E2E2E2E2E2E2E2E2E2E2E2E2E2E2E2E2E2E2E2E2E2E2E2E2E2E2E2E2E2E2
310
E2E2E2E2E2E2E2E2E2E2E2E2E2E2E2E2E2E2E2E2F5E2E2E2E2E2E2E2E2E2E2E2E2E2E2E2E2F5E2E2E2F5F5E2E2E2F5E2E2E2E2E2E2E2E2E2E2E2E2E2E2E2E2F5E2E2E2E2E2E2E2E2E2E2E2E2E2E2E2E2E2E2E2E2E2E2E2E2E2E2E2E2E2E2E2E2E2E2E2E2E2E2E2E2E2E2E2E2E2E2E2E2E2E2E2E2E2E2E2E2E2E2E2E2E2E2E2
310
E2E2E2E2E2E2E2E2E2E2E2E2E2E2E2E2E2E2E2E2E2E2E2E2E2E2E2E2E2E2E2E2E2E2E2E2E2E2E2E2E2E2E2E2E2E2E2E2E2E2E2E2E2E2E2E2E2E2E2E2E2E2E2E2E2E2E2E2E2E2E2E2E2F5E2E2E2E2E2E2E2E2E2E2E2E2E2E2E2E2F5E2E2E2F5F5E2E2E2F5E2E2E2E2E2E2E2E2E2E2E2E2E2E2E2E2F5E2E2E2E2E2E2E2E2E2E2
310
E2E2E2E2E2E2E2E2E2E2E2E2E2E2E2E2E2E2E2E2E2E2E2E2E2E2E2E2E2E2E2E2E2E2E2E2E2E2E2E2E2E2E2E2E2E2E2E2E2E2E2E2E2E2E2E2E2E2E2E2E2E2E2E2E2E2E2E2E2E2E2E2E2E2E2E2E2E2E2E2E2E2E2E2E2E2E2E2E2E2E2E2E2E2E2E2E2E2E2E2E2E2E2E2E2E2E2E2E2E2E2E2E2E2E2E2E2E2E2E2E2E2E2E2E2E2F5
310
E2E2E2E2E2E2E2E2E2E2E2E2E2E2E2E2F5E2E2E2F5F5E2E2E2F5E2E2E2E2E2E2E2E2E2E2E2E2E2E2E2E2F5E2E2E2E2E2E2E2E2E2E2E2E2E2E2E2E2E2E2E2E2E2E2E2E2E2E2E2E2E2E2E2E2E2E2E2E2E2E2E2E2E2E2E2E2E2E2E2E2E2E2E2E2E2E2E2E2E2E2E2E2E2E2E2E2E2E2E2E2E2E2E2E2E2E2E2E2E2E2E2E2E2E2E2E2
310
E2E2E2E2E2E2E2E2E2E2E2E2E2E2E2E2E2E2E2E2E2E2E2E2E2E2E2E2E2E2E2E2E2E2E2E2E2E2E2E2E2E2E2E2E2E2E2E2E2E2E2E2F5E2E2E2E2E2E2E2E2E2E2E2E2E2E2E2E2F5E2E2E2F5F5E2E2E2F5E2E2E2E2E2E2E2E2E2E2E2E2E2E2E2E2F5E2E2E2E2E2E2E2E2E2E2E2E2E2E2E2E2E2E2E2E2E2E2E2E2E2E2E2E2E2E2E2
310
E2E2E2E2E2E2E2E2E2E2E2E2E2E2E2E2E2E2E2E2E2E2E2E2E2E2E2E2E2E2E2E2E2E2E2E2E2E2E2E2E2E2E2E2E2E2E2E2E2E2E2E2E2E2E2E2E2E2E2E2E2E2E2E2E2E2E2E2E2E2E2E2E2E2E2E2E2E2E2E2E2E2E2E2E2E2E2E2E2E2E2E2E2E2E2E2E2E2E2E2E2E2E2E2E2F5E2E2E2E2E2E2E2E2E2E2E2E2E2E2E2E2F5E2E2E2F5
310
F5E2E2E2F5E2E2E2E2E2E2E2E2E2E2E2E2E2E2E2E2F5E2E2E2E2E2E2E2E2E2E2E2E2E2E2E2E2E2E2E2E2E2E2E2E2E2E2E2E2E2E2E2E2E2E2E2E2E2E2E2E2E2E2E2E2E2E2E2E2E2E2E2E2E2E2E2E2E2E2E2E2E2E2E2E2E2E2E2E2E2E2E2E2E2E2E2E2E2E2E2E2E2E2E2E2E2E2E2E2E2E2E2E2E2E2E2E2E2E2E2E2E2E2E2E2E2
310
E2E2E2E2E2E2E2E2E2E2E2E2E2E2E2E2E2E2E2E2E2E2E2E2E2E2E2E2E2E2E2F5E2E2E2E2E2E2E2E2E2E2E2E2E2E2E2E2F5E2E2E2F5F5E2E2E2F5E2E2E2E2E2E2E2E2E2E2E2E2E2E2E2E2F5E2E2E2E2E2E2E2E2E2E2E2E2E2E2E2E2E2E2E2E2E2E2E2E2E2E2E2E2E2E2E2E2E2E2E2E2E2E2E2E2E2E2E2E2E2E2E2E2E2E2E2E2
310
E2E2E2E2E2E2E2E2E2E2E2E2E2E2E2E2E2E2E2E2E2E2E2E2E2E2E2E2E2E2E2E2E2E2E2E2E2E2E2E2E2E2E2E2E2E2E2E2E2E2E2E2E2E2E2E2E2E2E2E2E2E2E2E2E2E2E2E2E2E2E2E2E2E2E2E2E2E2E2E2E2E2E2E2F5E2E2E2E2E2E2E2E2E2E2E2E2E2E2E2E2F5E2E2E2F5F5E2E2E2F5E2E2E2E2E2E2E2E2E2E2E2E2E2E2E2E2
310
F5E2E2E2E2E2E2E2E2E2E2E2E2E2E2E2E2E2E2E2E2E2E2E2E2E2E2E2E2E2E2E2E2E2E2E2E2E2E2E2E2E2E2E2E2E2E2E2E2E2E2E2E2E2E2E2E2E2E2E2E2E2E2E2E2E2E2E2E2E2E2E2E2E2E2E2E2E2E2E2E2E2E2E2E2E2E2E2E2E2E2E2E2E2E2E2E2E2E2E2E2E2E2E2E2E2E2E2E2E2E2E2E2E2E2E2E2E2E2E2E2E2E2E2E2E2E2
310
E2E2E2E2E2E2E2E2E2E2F5E2E2E2E2E2E2E2E2E2E2E2E2E2E2E2E2F5E2E2E2F5F5E2E2E2F5E2E2E2E2E2E2E2E2E2E2E2E2E2E2E2E2F5E2E2E2E2E2E2E2E2E2E2E2E2E2E2E2E2E2E2E2E2E2E2E2E2E2E2E2E2E2E2E2E2E2E2E2E2E2E2E2E2E2E2E2E2E2E2E2E2E2E2E2E2E2E2E2E2E2E2E2E2E2E2E2E2E2E2E2E2E2E2E2E2E2
310
E2E2E2E2E2E2E2E2E2E2E2E2E2E2E2E2E2E2E2E2E2E2E2E2E2E2E2E2E2E2E2E2E2E2E2E2E2E2E2E2E2E2E2E2E2E2E2E2E2E2E2E2E2E2E2E2E2E2E2E2E2E2E2F5E2E2E2E2E2E2E2E2E2E2E2E2E2E2E2E2F5E2E2E2F5F5E2E2E2F5E2E2E2E2E2E2E2E2E2E2E2E2E2E2E2E2F5E2E2E2E2E2E2E2E2E2E2E2E2E2E2E2E2E2E2E2E2
310
E2E2E2E2E2E2E2E2E2E2E2E2E2E2E2E2E2E2E2E2E2E2E2E2E2E2E2E2E2E2E2E2E2E2E2E2E2E2E2E2E2E2E2E2E2E2E2E2E2E2E2E2E2E2E2E2E2E2E2E2E2E2E2E2E2E2E2E2E2E2E2E2E2E2E2E2E2E2E2E2E2E2E2E2E2E2E2E2E2E2E2E2E2E2E2E2E2E2E2E2E2E2E2E2E2E2E2E2E2E2E2E2E2E2E2E2F5E2E2E2E2E2E2E2E2E2E2
310
E2E2E2E2E2E2F5E2E2E2F5F5E2E2E2F5E2E2E2E2E2E2E2E2E2E2E2E2E2E2E2E2F5E2E2E2E2E2E2E2E2E2E2E2E2E2E2E2E2E2E2E2E2E2E2E2E2E2E2E2E2E2E2E2E2E2E2E2E2E2E2E2E2E2E2E2E2E2E2E2E2E2E2E2E2E2E2E2E2E2E2E2E2E2E2E2E2E2E2E2E2E2E2E2E2E2E2E2E2E2E2E2E2E2E2E2E2E2E2E2E2E2E2E2E2E2E2
310
E2E2E2E2E2E2E2E2E2E2E2E2E2E2E2E2E2E2E2E2E2E2E2E2E2E2E2E2E2E2E2E2E2E2E2E2E2E2E2E2E2E2F5E2E2E2E2E2E2E2E2E2E2E2E2E2E2E2E2F5E2E2E2F5F5E2E2E2E2E2E2E2E2E2E2E2E2E2E2E2E2E2E2E2E2F5E2E2E2E2E2E2E2E2E2E2E2E2E2E2E2E2E2E2E2E2E2E2E2E2E2E2E2E2E2E2E2E2E2E2E2E2E2E2E2E2E2
310
E2E2E2E2E2E2E2E2E2E2E2E2E2E2E2E2E2E2E2E2E2E2E2E2E2E2E2E2E2E2E2E2E2E2E2E2E2E2E2E2E2E2E2E2E2E2E2E2E2E2E2E2E2E2E2E2E2E2E2E2E2E2E2E2E2E2E2E2E2E2E2E2E2E2E2E2E2E2E2E2E2E2E2E2E2E2E2E2E2E2E2E2E2E2E2F5E2E2E2E2E2E2E2E2E2E2E2E2E2E2E2E2E2E2E2E2F5F5E2E2E2E2E2E2E2E2E2
310
E2E2E2E2E2E2E2E2E2E2E2F5E2E2E2E2E2E2E2E2E2E2E2E2E2E2E2E2E2E2E2E2E2E2E2E2E2E2E2E2E2E2E2E2E2E2E2E2E2E2E2E2E2E2E2E2E2E2E2E2E2E2E2E2E2E2E2E2E2E2E2E2E2E2E2E2E2E2E2E2E2E2E2E2E2E2E2E2E2E2E2E2E2E2E2E2E2E2E2E2E2E2E2E2E2E2E2E2E2E2E2E2E2E2E2E2E2E2E2E2E2E2E2E2E2E2E2
310
E2E2E2E2E2E2E2E2E2E2E2E2E2E2E2E2E2E2E2E2E2F5E2E2E2E2E2E2E2E2E2E2E2E2E2E2E2E2E2E2E2E2F5F5E2E2E2E2E2E2E2E2E2E2E2E2E2E2E2E2E2E2E2E2F5E2E2E2E2E2E2E2E2E2E2E2E2E2E2E2E2E2E2E2E2E2E2E2E2E2E2E2E2E2E2E2E2E2E2E2E2E2E2E2E2E2E2E2E2E2E2E2E2E2E2E2E2E2E2E2E2E2E2E2E2E2E2
310
E2E2E2E2E2E2E2E2E2E2E2E2E2E2E2E2E2E2E2E2E2E2E2E2E2E2E2E2E2E2E2E2E2E2E2E2E2E2E2E2E2E2E2E2E2E2E2E2E2E2E2E2E2E2E2E2E2E2E2E2E2E2E2E2E2E2E2E2E2E2E2E2E2E2F5E2E2E2E2E2E2E2E2E2E2E2E2E2E2E2E2E2E2E2E2F5F5E2E2E2E2E2E2E2E2E2E2E2E2E2E2E2E2E2E2E2E2F5E2E2E2E2E2E2E2E2E2
310
E2E2E2E2E2E2E2E2E2E2E2E2E2E2E2E2E2E2E2E2E2E2E2E2E2E2E2E2E2E2E2E2E2E2E2E2E2E2E2E2E2E2E2E2E2E2E2E2E2E2E2E2E2E2E2E2E2E2E2E2E2E2E2E2E2E2E2E2E2E2E2E2E2E2E2E2E2E2E2E2E2E2E2E2E2E2E2E2E2E2E2E2E2E2E2E2E2E2E2E2E2E2E2E2E2E2E2E2E2E2E2E2E2E2E2E2E2E2E2E2E2E2E2E2E2E2E2
310
F5E2E2E2E2E2E2E2E2E2E2E2E2E2E2E2E2E2E2E2E2F5F5E2E2E2E2E2E2E2E2E2E2E2E2E2E2E2E2E2E2E2E2F5E2E2E2E2E2E2E2E2E2E2E2E2E2E2E2E2E2E2E2E2E2E2E2E2E2E2E2E2E2E2E2E2E2E2E2E2E2E2E2E2E2E2E2E2E2E2E2E2E2E2E2E2E2E2E2E2E2E2E2E2E2E2E2E2E2E2E2E2E2E2E2E2E2E2E2E2E2E2E2E2E2E2E2
310
E2E2E2E2E2E2E2E2E2E2E2E2E2E2E2E2E2E2E2E2E2E2E2E2E2E2E2E2E2E2E2E2E2E2E2E2E2E2E2E2E2E2E2E2E2E2E2E2E2E2E2E2E2F5E2E2E2E2E2E2E2E2E2E2E2E2E2E2E2E2E2E2E2E2F5F5E2E2E2E2E2E2E2E2E2E2E2E2E2E2E2E2E2E2E2E2F5E2E2E2E2E2E2E2E2E2E2E2E2E2E2E2E2E2E2E2E2E2E2E2E2E2E2E2E2E2E2
310
E2E2E2E2E2E2E2E2E2E2E2E2E2E2E2E2E2E2E2E2E2E2E2E2E2E2E2E2E2E2E2E2E2E2E2E2E2E2E2E2E2E2E2E2E2E2E2E2E2E2E2E2E2E2E2E2E2E2E2E2E2E2E2E2E2E2E2E2E2E2E2E2E2E2E2E2E2E2E2E2E2E2E2E2E2E2E2E2E2E2E2E2E2E2E2E2E2E2E2E2E2E2E2E2E2E2F5E2E2E2E2E2E2E2E2E2E2E2E2E2E2E2E2E2E2E2E2
310
F5F5E2E2E2E2E2E2E2E2E2E2E2E2E2E2E2E2E2E2E2E2F5E2E2E2E2E2E2E2E2E2E2E2E2E2E2E2E2E2E2E2E2E2E2E2E2E2E2E2E2E2E2E2E2E2E2E2E2E2E2E2E2E2E2E2E2E2E2E2E2E2E2E2E2E2E2E2E2E2E2E2E2E2E2E2E2E2E2E2E2E2E2E2E2E2E2E2E2E2E2E2E2E2E2E2E2E2E2E2E2E2E2E2E2E2E2E2E2E2E2E2E2E2E2E2E2
310
E2E2E2E2E2E2E2E2E2E2E2E2E2E2E2E2E2E2E2E2E2E2E2E2E2E2E2E2E2E2E2E2F5E2E2E2E2E2E2E2E2E2E2E2E2E2E2E2E2E2E2E2E2F5F5E2E2E2E2E2E2E2E2E2E2E2E2E2E2E2E2E2E2E2E2F5E2E2E2E2E2E2E2E2E2E2E2E2E2E2E2E2E2E2E2E2E2E2E2E2E2E2E2E2E2E2E2E2E2E2E2E2E2E2E2E2E2E2E2E2E2E2E2E2E2E2E2
310
E2E2E2E2E2E2E2E2E2E2E2E2E2E2E2E2E2E2E2E2E2E2E2E2E2E2E2E2E2E2E2E2E2E2E2E2E2E2E2E2E2E2E2E2E2E2E2E2E2E2E2E2E2E2E2E2E2E2E2E2E2E2E2E2E2E2E2E2E2E2E2E2E2E2E2E2E2E2E2E2E2E2E2E2E2F5E2E2E2E2E2E2E2E2E2E2E2E2E2E2E2E2E2E2E2E2F5F5E2E2E2E2E2E2E2E2E2E2E2E2E2E2E2E2E2E2E2
310
E2F5E2E2E2E2E2E2E2E2E2E2E2E2E2E2E2E2E2E2E2E2E2E2E2E2E2E2E2E2E2E2E2E2E2E2E2E2E2E2E2E2E2E2E2E2E2E2E2E2E2E2E2E2E2E2E2E2E2E2E2E2E2E2E2E2E2E2E2E2E2E2E2E2E2E2E2E2E2E2E2E2E2E2E2E2E2E2E2E2E2E2E2E2E2E2E2E2E2E2E2E2E2E2E2E2E2E2E2E2E2E2E2E2E2E2E2E2E2E2E2E2E2E2E2E2E2
310
E2E2E2E2E2E2E2E2E2E2E2F5E2E2E2E2E2E2E2E2E2E2E2E2E2E2E2E2E2E2E2E2F5F5E2E2E2E2E2E2E2E2E2E2E2E2E2E2E2E2E2E2E2E2F5E2E2E2E2E2E2E2E2E2E2E2E2E2E2E2E2E2E2E2E2E2E2E2E2E2E2E2E2E2E2E2E2E2E2E2E2E2E2E2E2E2E2E2E2E2E2E2E2E2E2E2E2E2E2E2E2E2E2E2E2E2E2E2E2E2E2E2E2E2E2E2E2
310
E2E2E2E2E2E2E2E2E2E2E2E2E2E2E2E2E2E2E2E2E2E2E2E2E2E2E2E2E2E2E2E2E2E2E2E2E2E2E2E2E2E2E2E2E2E2E2E2E2E2E2E2E2E2E2E2E2E2E2E2E2E2E2E2F5E2E2E2E2E2E2E2E2E2E2E2E2E2E2E2E2E2E2E2E2F5F5E2E2E2F5E2E2E2E2E2E2E2E2E2E2E2E2E2E2E2E2F5E2E2E2E2E2E2E2E2E2E2E2E2E2E2E2E2E2E2E2
310
E2E2E2E2E2E2E2E2E2E2E2E2E2E2E2E2E2E2E2E2E2E2E2E2E2E2E2E2E2E2E2E2E2E2E2E2E2E2E2E2E2E2E2E2E2E2E2E2E2E2E2E2E2E2E2E2E2E2E2E2E2E2E2E2E2E2E2E2E2E2E2E2E2E2E2E2E2E2E2E2E2E2E2E2E2E2E2E2E2E2E2E2E2E2E2E2E2E2E2E2E2E2E2E2E2E2E2E2E2E2E2E2E2E2E2E2E2F5E2E2E2E2E2E2E2E2E2
310
E2E2E2E2E2E2E2F5E2E2E2F5F5E2E2E2F5E2E2E2E2E2E2E2E2E2E2E2E2E2E2E2E2F5E2E2E2E2E2E2E2E2E2E2E2E2E2E2E2E2E2E2E2E2E2E2E2E2E2E2E2E2E2E2E2E2E2E2E2E2E2E2E2E2E2E2E2E2E2E2E2E2E2E2E2E2E2E2E2E2E2E2E2E2E2E2E2E2E2E2E2E2E2E2E2E2E2E2E2E2E2E2E2E2E2E2E2E2E2E2E2E2E2E2E2E2E2
310
E2E2E2E2E2E2E2E2E2E2E2E2E2E2E2E2E2E2E2E2E2E2E2E2E2E2E2E2E2E2E2E2E2E2E2E2E2E2E2E2E2E2E2F5E2E2E2E2E2E2E2E2E2E2E2E2E2E2E2E2F5E2E2E2F5F5E2E2E2F5E2E2E2E2E2E2E2E2E2E2E2E2E2E2E2E2F5E2E2E2E2E2E2E2E2E2E2E2E2E2E2E2E2E2E2E2E2E2E2E2E2E2E2E2E2E2E2E2E2E2E2E2E2E2E2E2E2
310
E2E2E2E2E2E2E2E2E2E2E2E2E2E2E2E2E2E2E2E2E2E2E2E2E2E2E2E2E2E2E2E2E2E2E2E2E2E2E2E2E2E2E2E2E2E2E2E2E2E2E2E2E2E2E2E2E2E2E2E2E2E2E2E2E2E2E2E2E2E2E2E2E2E2E2E2E2E2E2E2E2E2E2E2E2E2E2E2E2E2E2E2E2E2E2E2F5E2E2E2E2E2E2E2E2E2E2E2E2E2E2E2E2F5E2E2E2F5F5E2E2E2F5E2E2E2E2
310
E2E2E2E2E2E2E2E2E2E2E2E2F5E2E2E2E2E2E2E2E2E2E2E2E2E2E2E2E2E2E2E2E2E2E2E2E2E2E2E2E2E2E2E2E2E2E2E2E2E2E2E2E2E2E2E2E2E2E2E2E2E2E2E2E2E2E2E2E2E2E2E2E2E2E2E2E2E2E2E2E2E2E2E2E2E2E2E2E2E2E2E2E2E2E2E2E2E2E2E2E2E2E2E2E2E2E2E2E2E2E2E2E2E2E2E2E2E2E2E2E2E2E2E2E2E2E2
310
E2E2E2E2E2E2E2E2E2E2E2E2E2E2E2E2E2E2E2E2E2E2F5E2E2E2E2E2E2E2E2E2E2E2E2E2E2E2E2F5E2E2E2F5F5E2E2E2F5E2E2E2E2E2E2E2E2E2E2E2E2E2E2E2E2F5E2E2E2E2E2E2E2E2E2E2E2E2E2E2E2E2E2E2E2E2E2E2E2E2E2E2E2E2E2E2E2E2E2E2E2E2E2E2E2E2E2E2E2E2E2E2E2E2E2E2E2E2E2E2E2E2E2E2E2E2E2
310
E2E2E2E2E2E2E2E2E2E2E2E2E2E2E2E2E2E2E2E2E2E2E2E2E2E2E2E2E2E2E2E2E2E2E2E2E2E2E2E2E2E2E2E2E2E2E2E2E2E2E2E2E2E2E2E2E2E2E2E2E2E2E2E2E2E2E2E2E2E2E2E2E2E2E2F5E2E2E2E2E2E2E2E2E2E2E2E2E2E2E2E2F5E2E2E2F5F5E2E2E2F5E2E2E2E2E2E2E2E2E2E2E2E2E2E2E2E2F5E2E2E2E2E2E2E2E2
310
E2E2E2E2E2E2E2E2E2E2E2E2E2E2E2E2E2E2E2E2E2E2E2E2E2E2E2E2E2E2E2E2E2E2E2E2E2E2E2E2E2E2E2E2E2E2E2E2E2E2E2E2E2E2E2E2E2E2E2E2E2E2E2E2E2E2E2E2E2E2E2E2E2E2E2E2E2E2E2E2E2E2E2E2E2E2E2E2E2E2E2E2E2E2E2E2E2E2E2E2E2E2E2E2E2E2E2E2E2E2E2E2E2E2E2E2E2E2E2E2E2E2E2E2E2E2E2
310
E2F5E2E2E2E2E2E2E2E2E2E2E2E2E2E2E2E2F5E2E2E2F5F5E2E2E2F5E2E2E2E2E2E2E2E2E2E2E2E2E2E2E2E2F5E2E2E2E2E2E2E2E2E2E2E2E2E2E2E2E2E2E2E2E2E2E2E2E2E2E2E2E2E2E2E2E2E2E2E2E2E2E2E2E2E2E2E2E2E2E2E2E2E2E2E2E2E2E2E2E2E2E2E2E2E2E2E2E2E2E2E2E2E2E2E2E2E2E2E2E2E2E2E2E2E2E2
310
E2E2E2E2E2E2E2E2E2E2E2E2E2E2E2E2E2E2E2E2E2E2E2E2E2E2E2E2E2E2E2E2E2E2E2E2E2E2E2E2E2E2E2E2E2E2E2E2E2E2E2E2E2E2F5E2E2E2E2E2E2E2E2E2E2E2E2E2E2E2E2F5E2E2E2F5F5E2E2E2F5E2E2E2E2E2E2E2E2E2E2E2E2E2E2E2E2F5E2E2E2E2E2E2E2E2E2E2E2E2E2E2E2E2E2E2E2E2E2E2E2E2E2E2E2E2E2
310
E2E2E2E2E2E2E2E2E2E2E2E2E2E2E2E2E2E2E2E2E2E2E2E2E2E2E2E2E2E2E2E2E2E2E2E2E2E2E2E2E2E2E2E2E2E2E2E2E2E2E2E2E2E2E2E2E2E2E2E2E2E2E2E2E2E2E2E2E2E2E2E2E2E2E2E2E2E2E2E2E2E2E2E2E2E2E2E2E2E2E2E2E2E2E2E2E2E2E2E2E2E2E2E2E2E2E2F5E2E2E2E2E2E2E2E2E2E2E2E2E2E2E2E2F5E2E2
310
E2F5F5E2E2E2F5E2E2E2E2E2E2E2E2E2E2E2E2E2E2E2E2F5E2E2E2E2E2E2E2E2E2E2E2E2E2E2E2E2E2E2E2E2E2E2E2E2E2E2E2E2E2E2E2E2E2E2E2E2E2E2E2E2E2E2E2E2E2E2E2E2E2E2E2E2E2E2E2E2E2E2E2E2E2E2E2E2E2E2E2E2E2E2E2E2E2E2E2E2E2E2E2E2E2E2E2E2E2E2E2E2E2E2E2E2E2E2E2E2E2E2E2E2E2E2E2
310
E2E2E2E2E2E2E2E2E2E2E2E2E2E2E2E2E2E2E2E2E2E2E2E2E2E2E2E2E2E2E2E2E2F5E2E2E2E2E2E2E2E2E2E2E2E2E2E2E2E2F5E2E2E2F5F5E2E2E2F5E2E2E2E2E2E2E2E2E2E2E2E2E2E2E2E2F5E2E2E2E2E2E2E2E2E2E2E2E2E2E2E2E2E2E2E2E2E2E2E2E2E2E2E2E2E2E2E2E2E2E2E2E2E2E2E2E2E2E2E2E2E2E2E2E2E2E2
310
E2E2E2E2E2E2E2E2E2E2E2E2E2E2E2E2E2E2E2E2E2E2E2E2E2E2E2E2E2E2E2E2E2E2E2E2E2E2E2E2E2E2E2E2E2E2E2E2E2E2E2E2E2E2E2E2E2E2E2E2E2E2E2E2E2E2E2E2E2E2E2E2E2E2E2E2E2E2E2E2E2E2E2E2E2E2F5E2E2E2E2E2E2E2E2E2E2E2E2E2E2E2E2F5E2E2E2F5F5E2E2E2F5E2E2E2E2E2E2E2E2E2E2E2E2E2E2
310
E2E2F5E2E2E2E2E2E2E2E2E2E2E2E2E2E2E2E2E2E2E2E2E2E2E2E2E2E2E2E2E2E2E2E2E2E2E2E2E2E2E2E2E2E2E2E2E2E2E2E2E2E2E2E2E2E2E2E2E2E2E2E2E2E2E2E2E2E2E2E2E2E2E2E2E2E2E2E2E2E2E2E2E2E2E2E2E2E2E2E2E2E2E2E2E2E2E2E2E2E2E2E2E2E2E2E2E2E2E2E2E2E2E2E2E2E2E2E2E2E2E2E2E2E2E2E2
310
E2E2E2E2E2E2E2E2E2E2E2E2F5E2E2E2E2E2E2E2E2E2E2E2E2E2E2E2E2F5E2E2E2F5F5E2E2E2F5E2E2E2E2E2E2E2E2E2E2E2E2E2E2E2E2F5E2E2E2E2E2E2E2E2E2E2E2E2E2E2E2E2E2E2E2E2E2E2E2E2E2E2E2E2E2E2E2E2E2E2E2E2E2E2E2E2E2E2E2E2E2E2E2E2E2E2E2E2E2E2E2E2E2E2E2E2E2E2E2E2E2E2E2E2E2E2E2
310
E2E2E2E2E2E2E2E2E2E2E2E2E2E2E2E2E2E2E2E2E2E2E2E2E2E2E2E2E2E2E2E2E2E2E2E2E2E2E2E2E2E2E2E2E2E2E2E2E2E2E2E2E2E2E2E2E2E2E2E2E2E2E2E2E2F5E2E2E2E2E2E2E2E2E2E2E2E2E2E2E2E2F5E2E2E2F5F5E2E2E2F5E2E2E2E2E2E2E2E2E2E2E2E2E2E2E2E2F5E2E2E2E2E2E2E2E2E2E2E2E2E2E2E2E2E2E2
310
E2E2E2E2E2E2E2E2E2E2E2E2E2E2E2E2E2E2E2E2E2E2E2E2E2E2E2E2E2E2E2E2E2E2E2E2E2E2E2E2E2E2E2E2E2E2E2E2E2E2E2E2E2E2E2E2E2E2E2E2E2E2E2E2E2E2E2E2E2E2E2E2E2E2E2E2E2E2E2E2E2E2E2E2E2E2E2E2E2E2E2E2E2E2E2E2E2E2E2E2E2E2E2E2E2E2E2E2E2E2E2E2E2E2E2E2E2E2F5E2E2E2E2E2E2E2E2
310
E2E2E2E2E2E2E2E2F5E2E2E2F5F5E2E2E2F5E2E2E2E2E2E2E2E2E2E2E2E2E2E2E2E2F5E2E2E2E2E2E2E2E2E2E2E2E2E2E2E2E2E2E2E2E2E2E2E2E2E2E2E2E2E2E2E2E2E2E2E2E2E2E2E2E2E2E2E2E2E2E2E2E2E2E2E2E2E2E2E2E2E2E2E2E2E2E2E2E2E2E2E2E2E2E2E2E2E2E2E2E2E2E2E2E2E2E2E2E2E2E2E2E2E2E2E2E2
310
E2E2E2E2E2E2E2E2E2E2E2E2E2E2E2E2E2E2E2E2E2E2E2E2E2E2E2E2E2E2E2E2E2E2E2E2E2E2E2E2E2E2E2E2F5E2E2E2E2E2E2E2E2E2E2E2E2E2E2E2E2F5E2E2E2F5F5E2E2E2F5E2E2E2E2E2E2E2E2E2E2E2E2E2E2E2E2F5E2E2E2E2E2E2E2E2E2E2E2E2E2E2E2E2E2E2E2E2E2E2E2E2E2E2E2E2E2E2E2E2E2E2E2E2E2E2E2
310
E2E2E2E2E2E2E2E2E2E2E2E2E2E2E2E2E2E2E2E2E2E2E2E2E2E2E2E2E2E2E2E2E2E2E2E2E2E2E2E2E2E2E2E2E2E2E2E2E2E2E2E2E2E2E2E2E2E2E2E2E2E2E2E2E2E2E2E2E2E2E2E2E2E2E2E2E2E2E2E2E2E2E2E2E2E2E2E2E2E2E2E2E2E2E2E2E2F5E2E2E2E2E2E2E2E2E2E2E2E2E2E2E2E2F5E2E2E2F5F5E2E2E2F5E2E2E2
310
E2E2E2E2E2E2E2E2E2E2E2E2E2F5E2E2E2E2E2E2E2E2E2E2E2E2E2E2E2E2E2E2E2E2E2E2E2E2E2E2E2E2E2E2E2E2E2E2E2E2E2E2E2E2E2E2E2E2E2E2E2E2E2E2E2E2E2E2E2E2E2E2E2E2E2E2E2E2E2E2E2E2E2E2E2E2E2E2E2E2E2E2E2E2E2E2E2E2E2E2E2E2E2E2E2E2E2E2E2E2E2E2E2E2E2E2E2E2E2E2E2E2E2E2E2E2E2
310
E2E2E2E2E2E2E2E2E2E2E2E2E2E2E2E2E2E2E2E2E2E2E2F5E2E2E2E2E2E2E2E2E2E2E2E2E2E2E2E2F5E2E2E2F5F5E2E2E2E2E2E2E2E2E2E2E2E2E2E2E2E2E2E2E2E2F5E2E2E2E2E2E2E2E2E2E2E2E2E2E2E2E2E2E2E2E2E2E2E2E2E2E2E2E2E2E2E2E2E2E2E2E2E2E2E2E2E2E2E2E2E2E2E2E2E2E2E2E2E2E2E2E2E2E2E2E2
310
E2E2E2E2E2E2E2E2E2E2E2E2E2E2E2E2E2E2E2E2E2E2E2E2E2E2E2E2E2E2E2E2E2E2E2E2E2E2E2E2E2E2E2E2E2E2E2E2E2E2E2E2E2E2E2E2E2E2E2E2E2E2E2E2E2E2E2E2E2E2E2E2E2E2E2E2F5E2E2E2E2E2E2E2E2E2E2E2E2E2E2E2E2E2E2E2E2F5F5E2E2E2E2E2E2E2E2E2E2E2E2E2E2E2E2E2E2E2E2F5E2E2E2E2E2E2E2
310
E2E2E2E2E2E2E2E2E2E2E2E2E2E2E2E2E2E2E2E2E2E2E2E2E2E2E2E2E2E2E2E2E2E2E2E2E2E2E2E2E2E2E2E2E2E2E2E2E2E2E2E2E2E2E2E2E2E2E2E2E2E2E2E2E2E2E2E2E2E2E2E2E2E2E2E2E2E2E2E2E2E2E2E2E2E2E2E2E2E2E2E2E2E2E2E2E2E2E2E2E2E2E2E2E2E2E2E2E2E2E2E2E2E2E2E2E2E2E2E2E2E2E2E2E2E2E2
310
E2E2F5E2E2E2E2E2E2E2E2E2E2E2E2E2E2E2E2E2E2E2E2F5F5E2E2E2E2E2E2E2E2E2E2E2E2E2E2E2E2E2E2E2E2F5E2E2E2E2E2E2E2E2E2E2E2E2E2E2E2E2E2E2E2E2E2E2E2E2E2E2E2E2E2E2E2E2E2E2E2E2E2E2E2E2E2E2E2E2E2E2E2E2E2E2E2E2E2E2E2E2E2E2E2E2E2E2E2E2E2E2E2E2E2E2E2E2E2E2E2E2E2E2E2E2E2
310
E2E2E2E2E2E2E2E2E2E2E2E2E2E2E2E2E2E2E2E2E2E2E2E2E2E2E2E2E2E2E2E2E2E2E2E2E2E2E2E2E2E2E2E2E2E2E2E2E2E2E2E2E2E2E2F5E2E2E2E2E2E2E2E2E2E2E2E2E2E2E2E2E2E2E2E2F5F5E2E2E2E2E2E2E2E2E2E2E2E2E2E2E2E2E2E2E2E2F5E2E2E2E2E2E2E2E2E2E2E2E2E2E2E2E2E2E2E2E2E2E2E2E2E2E2E2E2
310
E2E2E2E2E2E2E2E2E2E2E2E2E2E2E2E2E2E2E2E2E2E2E2E2E2E2E2E2E2E2E2E2E2E2E2E2E2E2E2E2E2E2E2E2E2E2E2E2E2E2E2E2E2E2E2E2E2E2E2E2E2E2E2E2E2E2E2E2E2E2E2E2E2E2E2E2E2E2E2E2E2E2E2E2E2E2E2E2E2E2E2E2E2E2E2E2E2E2E2E2E2E2E2E2E2E2E2E2F5E2E2E2E2E2E2E2E2E2E2E2E2E2E2E2E2E2E2
310
E2E2F5F5E2E2E2E2E2E2E2E2E2E2E2E2E2E2E2E2E2E2E2E2F5E2E2E2E2E2E2E2E2E2E2E2E2E2E2E2E2E2E2E2E2E2E2E2E2E2E2E2E2E2E2E2E2E2E2E2E2E2E2E2E2E2E2E2E2E2E2E2E2E2E2E2E2E2E2E2E2E2E2E2E2E2E2E2E2E2E2E2E2E2E2E2E2E2E2E2E2E2E2E2E2E2E2E2E2E2E2E2E2E2E2E2E2E2E2E2E2E2E2E2E2E2E2
310
E2E2E2E2E2E2E2E2E2E2E2E2E2E2E2E2E2E2E2E2E2E2E2E2E2E2E2E2E2E2E2E2E2E2F5E2E2E2E2E2E2E2E2E2E2E2E2E2E2E2E2E2E2E2E2F5F5E2E2E2E2E2E2E2E2E2E2E2E2E2E2E2E2E2E2E2E2F5E2E2E2E2E2E2E2E2E2E2E2E2E2E2E2E2E2E2E2E2E2E2E2E2E2E2E2E2E2E2E2E2E2E2E2E2E2E2E2E2E2E2E2E2E2E2E2E2E2
310
E2E2E2E2E2E2E2E2E2E2E2E2E2E2E2E2E2E2E2E2E2E2E2E2E2E2E2E2E2E2E2E2E2E2E2E2E2E2E2E2E2E2E2E2E2E2E2E2E2E2E2E2E2E2E2E2E2E2E2E2E2E2E2E2E2E2E2E2E2E2E2E2E2E2E2E2E2E2E2E2E2E2E2E2E2E2E2F5E2E2E2E2E2E2E2E2E2E2E2E2E2E2E2E2E2E2E2E2F5F5E2E2E2E2E2E2E2E2E2E2E2E2E2E2E2E2E2
310
E2E2E2F5E2E2E2E2E2E2E2E2E2E2E2E2E2E2E2E2E2E2E2E2E2E2E2E2E2E2E2E2E2E2E2E2E2E2E2E2E2E2E2E2E2E2E2E2E2E2E2E2E2E2E2E2E2E2E2E2E2E2E2E2E2E2E2E2E2E2E2E2E2E2E2E2E2E2E2E2E2E2E2E2E2E2E2E2E2E2E2E2E2E2E2E2E2E2E2E2E2E2E2E2E2E2E2E2E2E2E2E2E2E2E2E2E2E2E2E2E2E2E2E2E2E2E2
310
E2E2E2E2E2E2E2E2E2E2E2E2E2F5E2E2E2E2E2E2E2E2E2E2E2E2E2E2E2E2E2E2E2E2F5F5E2E2E2E2E2E2E2E2E2E2E2E2E2E2E2E2E2E2E2E2F5E2E2E2E2E2E2E2E2E2E2E2E2E2E2E2E2E2E2E2E2E2E2E2E2E2E2E2E2E2E2E2E2E2E2E2E2E2E2E2E2E2E2E2E2E2E2E2E2E2E2E2E2E2E2E2E2E2E2E2E2E2E2E2E2E2E2E2E2E2E2
310
E2E2E2E2E2E2E2E2E2E2E2E2E2E2E2E2E2E2E2E2E2E2E2E2E2E2E2E2E2E2E2E2E2E2E2E2E2E2E2E2E2E2E2E2E2E2E2E2E2E2E2E2E2E2E2E2E2E2E2E2E2E2E2E2E2E2F5E2E2E2E2E2E2E2E2E2E2E2E2E2E2E2E2E2E2E2E2F5F5E2E2E2E2E2E2E2E2E2E2E2E2E2E2E2E2E2E2E2E2F5E2E2E2E2E2E2E2E2E2E2E2E2E2E2E2E2E2
310
E2E2E2E2E2E2E2E2E2E2E2E2E2E2E2E2E2E2E2E2E2E2E2E2E2E2E2E2E2E2E2E2E2E2E2E2E2E2E2E2E2E2E2E2E2E2E2E2E2E2E2E2E2E2E2E2E2E2E2E2E2E2E2E2E2E2E2E2E2E2E2E2E2E2E2E2E2E2E2E2E2E2E2E2E2E2E2E2E2E2E2E2E2E2E2E2E2E2E2E2E2E2E2E2E2E2E2E2E2E2E2E2E2E2E2E2E2E2E2F5E2E2E2E2E2E2E2
310
E2E2E2E2E2E2E2E2E2E2E2E2E2F5F5E2E2E2F5E2E2E2E2E2E2E2E2E2E2E2E2E2E2E2E2F5E2E2E2E2E2E2E2E2E2E2E2E2E2E2E2E2E2E2E2E2E2E2E2E2E2E2E2E2E2E2E2E2E2E2E2E2E2E2E2E2E2E2E2E2E2E2E2E2E2E2E2E2E2E2E2E2E2E2E2E2E2E2E2E2E2E2E2E2E2E2E2E2E2E2E2E2E2E2E2E2E2E2E2E2E2E2E2E2E2E2E2
310
E2E2E2E2E2E2E2E2E2E2E2E2E2E2E2E2E2E2E2E2E2E2E2E2E2E2E2E2E2E2E2E2E2E2E2E2E2E2E2E2E2E2E2E2E2F5E2E2E2E2E2E2E2E2E2E2E2E2E2E2E2E2F5E2E2E2F5F5E2E2E2F5E2E2E2E2E2E2E2E2E2E2E2E2E2E2E2E2F5E2E2E2E2E2E2E2E2E2E2E2E2E2E2E2E2E2E2E2E2E2E2E2E2E2E2E2E2E2E2E2E2E2E2E2E2E2E2
310
E2E2E2E2E2E2E2E2E2E2E2E2E2E2E2E2E2E2E2E2E2E2E2E2E2E2E2E2E2E2E2E2E2E2E2E2E2E2E2E2E2E2E2E2E2E2E2E2E2E2E2E2E2E2E2E2E2E2E2E2E2E2E2E2E2E2E2E2E2E2E2E2E2E2E2E2E2E2E2E2E2E2E2E2E2E2E2E2E2E2E2E2E2E2E2E2E2E2F5E2E2E2E2E2E2E2E2E2E2E2E2E2E2E2E2F5E2E2E2F5F5E2E2E2F5E2E2
310
E2E2E2E2E2E2E2E2E2E2E2E2E2E2F5E2E2E2E2E2E2E2E2E2E2E2E2E2E2E2E2E2E2E2E2E2E2E2E2E2E2E2E2E2E2E2E2E2E2E2E2E2E2E2E2E2E2E2E2E2E2E2E2E2E2E2E2E2E2E2E2E2E2E2E2E2E2E2E2E2E2E2E2E2E2E2E2E2E2E2E2E2E2E2E2E2E2E2E2E2E2E2E2E2E2E2E2E2E2E2E2E2E2E2E2E2E2E2E2E2E2E2E2E2E2E2E2
310
E2E2E2E2E2E2E2E2E2E2E2E2E2E2E2E2E2E2E2E2E2E2E2E2F5E2E2E2E2E2E2E2E2E2E2E2E2E2E2E2E2F5E2E2E2F5F5E2E2E2F5E2E2E2E2E2E2E2E2E2E2E2E2E2E2E2E2F5E2E2E2E2E2E2E2E2E2E2E2E2E2E2E2E2E2E2E2E2E2E2E2E2E2E2E2E2E2E2E2E2E2E2E2E2E2E2E2E2E2E2E2E2E2E2E2E2E2E2E2E2E2E2E2E2E2E2E2
310
E2E2E2E2E2E2E2E2E2E2E2E2E2E2E2E2E2E2E2E2E2E2E2E2E2E2E2E2E2E2E2E2E2E2E2E2E2E2E2E2E2E2E2E2E2E2E2E2E2E2E2E2E2E2E2E2E2E2E2E2E2E2E2E2E2E2E2E2E2E2E2E2E2E2E2E2E2F5E2E2E2E2E2E2E2E2E2E2E2E2E2E2E2E2F5E2E2E2F5F5E2E2E2F5E2E2E2E2E2E2E2E2E2E2E2E2E2E2E2E2F5E2E2E2E2E2E2
310
E2E2E2E2E2E2E2E2E2E2E2E2E2E2E2E2E2E2E2E2E2E2E2E2E2E2E2E2E2E2E2E2E2E2E2E2E2E2E2E2E2E2E2E2E2E2E2E2E2E2E2E2E2E2E2E2E2E2E2E2E2E2E2E2E2E2E2E2E2E2E2E2E2E2E2E2E2E2E2E2E2E2E2E2E2E2E2E2E2E2E2E2E2E2E2E2E2E2E2E2E2E2E2E2E2E2E2E2E2E2E2E2E2E2E2E2E2E2E2E2E2E2E2E2E2E2E2
310
E2E2E2F5E2E2E2E2E2E2E2E2E2E2E2E2E2E2E2E2F5E2E2E2F5F5E2E2E2F5E2E2E2E2E2E2E2E2E2E2E2E2E2E2E2E2F5E2E2E2E2E2E2E2E2E2E2E2E2E2E2E2E2E2E2E2E2E2E2E2E2E2E2E2E2E2E2E2E2E2E2E2E2E2E2E2E2E2E2E2E2E2E2E2E2E2E2E2E2E2E2E2E2E2E2E2E2E2E2E2E2E2E2E2E2E2E2E2E2E2E2E2E2E2E2E2E2
310
E2E2E2E2E2E2E2E2E2E2E2E2E2E2E2E2E2E2E2E2E2E2E2E2E2E2E2E2E2E2E2E2E2E2E2E2E2E2E2E2E2E2E2E2E2E2E2E2E2E2E2E2E2E2E2E2F5E2E2E2E2E2E2E2E2E2E2E2E2E2E2E2E2F5E2E2E2F5F5E2E2E2F5E2E2E2E2E2E2E2E2E2E2E2E2E2E2E2E2F5E2E2E2E2E2E2E2E2E2E2E2E2E2E2E2E2E2E2E2E2E2E2E2E2E2E2E2
310
E2E2E2E2E2E2E2E2E2E2E2E2E2E2E2E2E2E2E2E2E2E2E2E2E2E2E2E2E2E2E2E2E2E2E2E2E2E2E2E2E2E2E2E2E2E2E2E2E2E2E2E2E2E2E2E2E2E2E2E2E2E2E2E2E2E2E2E2E2E2E2E2E2E2E2E2E2E2E2E2E2E2E2E2E2E2E2E2E2E2E2E2E2E2E2E2E2E2E2E2E2E2E2E2E2E2E2E2E2F5E2E2E2E2E2E2E2E2E2E2E2E2E2E2E2E2F5
310
E2E2E2F5F5E2E2E2F5E2E2E2E2E2E2E2E2E2E2E2E2E2E2E2E2F5E2E2E2E2E2E2E2E2E2E2E2E2E2E2E2E2E2E2E2E2E2E2E2E2E2E2E2E2E2E2E2E2E2E2E2E2E2E2E2E2E2E2E2E2E2E2E2E2E2E2E2E2E2E2E2E2E2E2E2E2E2E2E2E2E2E2E2E2E2E2E2E2E2E2E2E2E2E2E2E2E2E2E2E2E2E2E2E2E2E2E2E2E2E2E2E2E2E2E2E2E2
310
E2E2E2E2E2E2E2E2E2E2E2E2E2E2E2E2E2E2E2E2E2E2E2E2E2E2E2E2E2E2E2E2E2E2E2F5E2E2E2E2E2E2E2E2E2E2E2E2E2E2E2E2F5E2E2E2F5F5E2E2E2F5E2E2E2E2E2E2E2E2E2E2E2E2E2E2E2E2F5E2E2E2E2E2E2E2E2E2E2E2E2E2E2E2E2E2E2E2E2E2E2E2E2E2E2E2E2E2E2E2E2E2E2E2E2E2E2E2E2E2E2E2E2E2E2E2E2
310
E2E2E2E2E2E2E2E2E2E2E2E2E2E2E2E2E2E2E2E2E2E2E2E2E2E2E2E2E2E2E2E2E2E2E2E2E2E2E2E2E2E2E2E2E2E2E2E2E2E2E2E2E2E2E2E2E2E2E2E2E2E2E2E2E2E2E2E2E2E2E2E2E2E2E2E2E2E2E2E2E2E2E2E2E2E2E2E2F5E2E2E2E2E2E2E2E2E2E2E2E2E2E2E2E2F5E2E2E2F5F5E2E2E2F5E2E2E2E2E2E2E2E2E2E2E2E2
310
E2E2E2E2F5E2E2E2E2E2E2E2E2E2E2E2E2E2E2E2E2E2E2E2E2E2E2E2E2E2E2E2E2E2E2E2E2E2E2E2E2E2E2E2E2E2E2E2E2E2E2E2E2E2E2E2E2E2E2E2E2E2E2E2E2E2E2E2E2E2E2E2E2E2E2E2E2E2E2E2E2E2E2E2E2E2E2E2E2E2E2E2E2E2E2E2E2E2E2E2E2E2E2E2E2E2E2E2E2E2E2E2E2E2E2E2E2E2E2E2E2E2E2E2E2E2E2
310
E2E2E2E2E2E2E2E2E2E2E2E2E2E2F5E2E2E2E2E2E2E2E2E2E2E2E2E2E2E2E2F5E2E2E2F5F5E2E2E2F5E2E2E2E2E2E2E2E2E2E2E2E2E2E2E2E2F5E2E2E2E2E2E2E2E2E2E2E2E2E2E2E2E2E2E2E2E2E2E2E2E2E2E2E2E2E2E2E2E2E2E2E2E2E2E2E2E2E2E2E2E2E2E2E2E2E2E2E2E2E2E2E2E2E2E2E2E2E2E2E2E2E2E2E2E2E2
310
E2E2E2E2E2E2E2E2E2E2E2E2E2E2E2E2E2E2E2E2E2E2E2E2E2E2E2E2E2E2E2E2E2E2E2E2E2E2E2E2E2E2E2E2E2E2E2E2E2E2E2E2E2E2E2E2E2E2E2E2E2E2E2E2E2E2E2F5E2E2E2E2E2E2E2E2E2E2E2E2E2E2E2E2F5E2E2E2F5F5E2E2E2F5E2E2E2E2E2E2E2E2E2E2E2E2E2E2E2E2F5E2E2E2E2E2E2E2E2E2E2E2E2E2E2E2E2
310
E2E2E2E2E2E2E2E2E2E2E2E2E2E2E2E2E2E2E2E2E2E2E2E2E2E2E2E2E2E2E2E2E2E2E2E2E2E2E2E2E2E2E2E2E2E2E2E2E2E2E2E2E2E2E2E2E2E2E2E2E2E2E2E2E2E2E2E2E2E2E2E2E2E2E2E2E2E2E2E2E2E2E2E2E2E2E2E2E2E2E2E2E2E2E2E2E2E2E2E2E2E2E2E2E2E2E2E2E2E2E2E2E2E2E2E2E2E2E2E2F5E2E2E2E2E2E2
310
E2E2E2E2E2E2E2E2E2E2F5E2E2E2F5F5E2E2E2F5E2E2E2E2E2E2E2E2E2E2E2E2E2E2E2E2F5E2E2E2E2E2E2E2E2E2E2E2E2E2E2E2E2E2E2E2E2E2E2E2E2E2E2E2E2E2E2E2E2E2E2E2E2E2E2E2E2E2E2E2E2E2E2E2E2E2E2E2E2E2E2E2E2E2E2E2E2E2E2E2E2E2E2E2E2E2E2E2E2E2E2E2E2E2E2E2E2E2E2E2E2E2E2E2E2E2E2
310
E2E2E2E2E2E2E2E2E2E2E2E2E2E2E2E2E2E2E2E2E2E2E2E2E2E2E2E2E2E2E2E2E2E2E2E2E2E2E2E2E2E2E2E2E2E2F5E2E2E2E2E2E2E2E2E2E2E2E2E2E2E2E2F5E2E2E2F5F5E2E2E2F5E2E2E2E2E2E2E2E2E2E2E2E2E2E2E2E2F5E2E2E2E2E2E2E2E2E2E2E2E2E2E2E2E2E2E2E2E2E2E2E2E2E2E2E2E2E2E2E2E2E2E2E2E2E2
310
E2E2E2E2E2E2E2E2E2E2E2E2E2E2E2E2E2E2E2E2E2E2E2E2E2E2E2E2E2E2E2E2E2E2E2E2E2E2E2E2E2E2E2E2E2E2E2E2E2E2E2E2E2E2E2E2E2E2E2E2E2E2E2E2E2E2E2E2E2E2E2E2E2E2E2E2E2E2E2E2E2E2E2E2E2E2E2E2E2E2E2E2E2E2E2E2E2E2E2F5E2E2E2E2E2E2E2E2E2E2E2E2E2E2E2E2F5E2E2E2F5F5E2E2E2F5E2
310
E2E2E2E2E2E2E2E2E2E2E2E2E2E2E2F5E2E2E2E2E2E2E2E2E2E2E2E2E2E2E2E2E2E2E2E2E2E2E2E2E2E2E2E2E2E2E2E2E2E2E2E2E2E2E2E2E2E2E2E2E2E2E2E2E2E2E2E2E2E2E2E2E2E2E2E2E2E2E2E2E2E2E2E2E2E2E2E2E2E2E2E2E2E2E2E2E2E2E2E2E2E2E2E2E2E2E2E2E2E2E2E2E2E2E2E2E2E2E2E2E2E2E2E2E2E2E2
310
E2E2E2E2E2E2E2E2E2E2E2E2E2E2E2E2E2E2E2E2E2E2E2E2E2F5E2E2E2E2E2E2E2E2E2E2E2E2E2E2E2E2F5E2E2E2F5F5E2E2E2F5E2E2E2E2E2E2E2E2E2E2E2E2E2E2E2E2F5E2E2E2E2E2E2E2E2E2E2E2E2E2E2E2E2E2E2E2E2E2E2E2E2E2E2E2E2E2E2E2E2E2E2E2E2E2E2E2E2E2E2E2E2E2E2E2E2E2E2E2E2E2E2E2E2E2E2
310
E2E2E2E2E2E2E2E2E2E2E2E2E2E2E2E2E2E2E2E2E2E2E2E2E2E2E2E2E2E2E2E2E2E2E2E2E2E2E2E2E2E2E2E2E2E2E2E2E2E2E2E2E2E2E2E2E2E2E2E2E2E2E2E2E2E2E2E2E2E2E2E2E2E2E2E2E2E2F5E2E2E2E2E2E2E2E2E2E2E2E2E2E2E2E2F5E2E2E2F5F5E2E2E2F5E2E2E2E2E2E2E2E2E2E2E2E2E2E2E2E2F5E2E2E2E2E2
310
E2E2E2E2E2E2E2E2E2E2E2E2E2E2E2E2E2E2E2E2E2E2E2E2E2E2E2E2E2E2E2E2E2E2E2E2E2E2E2E2E2E2E2E2E2E2E2E2E2E2E2E2E2E2E2E2E2E2E2E2E2E2E2E2E2E2E2E2E2E2E2E2E2E2E2E2E2E2E2E2E2E2E2E2E2E2E2E2E2E2E2E2E2E2E2E2E2E2E2E2E2E2E2E2E2E2E2E2E2E2E2E2E2E2E2E2E2E2E2E2E2E2E2E2E2E2E2
310
E2E2E2E2F5E2E2E2E2E2E2E2E2E2E2E2E2E2E2E2E2F5E2E2E2F5F5E2E2E2E2E2E2E2E2E2E2E2E2E2E2E2E2E2E2E2E2F5E2E2E2E2E2E2E2E2E2E2E2E2E2E2E2E2E2E2E2E2E2E2E2E2E2E2E2E2E2E2E2E2E2E2E2E2E2E2E2E2E2E2E2E2E2E2E2E2E2E2E2E2E2E2E2E2E2E2E2E2E2E2E2E2E2E2E2E2E2E2E2E2E2E2E2E2E2E2E2
310
E2E2E2E2E2E2E2E2E2E2E2E2E2E2E2E2E2E2E2E2E2E2E2E2E2E2E2E2E2E2E2E2E2E2E2E2E2E2E2E2E2E2E2E2E2E2E2E2E2E2E2E2E2E2E2E2E2F5E2E2E2E2E2E2E2E2E2E2E2E2E2E2E2E2E2E2E2E2F5F5E2E2E2E2E2E2E2E2E2E2E2E2E2E2E2E2E2E2E2E2F5E2E2E2E2E2E2E2E2E2E2E2E2E2E2E2E2E2E2E2E2E2E2E2E2E2E2
310
E2E2E2E2E2E2E2E2E2E2E2E2E2E2E2E2E2E2E2E2E2E2E2E2E2E2E2E2E2E2E2E2E2E2E2E2E2E2E2E2E2E2E2E2E2E2E2E2E2E2E2E2E2E2E2E2E2E2E2E2E2E2E2E2E2E2E2E2E2E2E2E2E2E2E2E2E2E2E2E2E2E2E2E2E2E2E2E2E2E2E2E2E2E2E2E2E2E2E2E2E2E2E2E2E2E2E2E2E2E2F5E2E2E2E2E2E2E2E2E2E2E2E2E2E2E2E2
310
E2E2E2E2F5F5E2E2E2E2E2E2E2E2E2E2E2E2E2E2E2E2E2E2E2E2F5E2E2E2E2E2E2E2E2E2E2E2E2E2E2E2E2E2E2E2E2E2E2E2E2E2E2E2E2E2E2E2E2E2E2E2E2E2E2E2E2E2E2E2E2E2E2E2E2E2E2E2E2E2E2E2E2E2E2E2E2E2E2E2E2E2E2E2E2E2E2E2E2E2E2E2E2E2E2E2E2E2E2E2E2E2E2E2E2E2E2E2E2E2E2E2E2E2E2E2E2
310
E2E2E2E2E2E2E2E2E2E2E2E2E2E2E2E2E2E2E2E2E2E2E2E2E2E2E2E2E2E2E2E2E2E2E2E2F5E2E2E2E2E2E2E2E2E2E2E2E2E2E2E2E2E2E2E2E2F5F5E2E2E2E2E2E2E2E2E2E2E2E2E2E2E2E2E2E2E2E2F5E2E2E2E2E2E2E2E2E2E2E2E2E2E2E2E2E2E2E2E2E2E2E2E2E2E2E2E2E2E2E2E2E2E2E2E2E2E2E2E2E2E2E2E2E2E2E2
310
E2E2E2E2E2E2E2E2E2E2E2E2E2E2E2E2E2E2E2E2E2E2E2E2E2E2E2E2E2E2E2E2E2E2E2E2E2E2E2E2E2E2E2E2E2E2E2E2E2E2E2E2E2E2E2E2E2E2E2E2E2E2E2E2E2E2E2E2E2E2E2E2E2E2E2E2E2E2E2E2E2E2E2E2E2E2E2E2E2F5E2E2E2E2E2E2E2E2E2E2E2E2E2E2E2E2E2E2E2E2F5F5E2E2E2E2E2E2E2E2E2E2E2E2E2E2E2
310
E2E2E2E2E2F5F5F5F5F5F5F5F5F5F5F5F5F5F5F5F5F5F5F5F5F5F5F5F5F5F5F5F5F5F5F5F5F5F5F5F5F5F5F5F5F5F5F5F5F5F5F5F5F5F5F5F5F5F5F5F5F5F5F5F5F5F5F5F5F5F5F5F5F5F5F5F5F5F5F5F5F5F5F5F5F5F5F5F5F5F5F5F5F5F5F5F5F5F5F5F5F5F5F5F5F5F5F5F5F5F5F5F5F5F5F5F5F5F5F5F5F5F5F5F5F5F5
310
F5F5F5F5F5F5F5F5F5F5F5F5F5F5F5F5E2E2E2E2E2E2E2E2E2E2E2E2E2E2E2E2E2E2E2E2F5F5E2E2E2E2E2E2E2E2E2E2E2E2E2E2E2E2E2E2E2E2E2E2E2E2E2E2E2E2E2E2E2E2E2E2E2E2E2E2E2E2E2E2E2E2E2E2E2E2E2E2E2E2E2E2E2E2E2E2E2E2E2E2E2E2E2E2E2E2E2E2E2E2E2E2E2E2E2E2E2E2E2E2E2E2E2E2E2E2E2
310
E2E2E2E2E2E2E2E2E2E2E2E2E2E2E2E2E2E2E2E2E2E2E2E2E2E2E2E2E2E2E2E2E2E2E2E2E2E2E2E2E2E2E2E2E2E2E2E2E2E2E2E2E2E2E2E2E2E2E2E2E2E2E2E2E2E2E2E2E2E2E2E2E2E2E2E2E2E2E2E2E2E2E2E2E2E2E2E2E2F5F5E2E2E2E2E2E2E2E2E2E2E2E2E2E2E2E2E2E2E2E2E2E2E2E2E2E2E2E2E2E2E2E2E2E2E2E2
310
E2E2E2E2E2E2E2E2E2E2E2E2E2E2E2E2E2E2E2E2E2E2E2E2E2E2E2E2E2E2E2E2E2E2E2E2E2E2E2E2E2E2E2E2E2E2E2E2E2E2E2E2E2E2E2E2E2E2E2E2E2E2E2E2E2E2E2E2E2E2E2E2E2E2E2E2E2E2E2E2E2E2E2E2E2E2E2E2E2E2E2E2E2E2E2E2E2E2E2E2E2E2E2E2E2E2E2E2E2E2E2E2E2E2E2E2E2E2E2E2E2E2E2E2E2E2E2
310
E2E2E2E2E2E2E2E2E2E2E2E2E2E2E2F5F5E2E2E2E2E2E2E2E2E2E2E2E2E2E2E2E2E2E2E2E2E2E2E2E2E2E2E2E2E2E2E2E2E2E2E2E2E2E2E2E2E2E2E2E2E2E2E2E2E2E2E2E2E2E2E2E2E2E2E2E2E2E2E2E2E2E2E2E2E2E2E2E2E2E2E2E2E2E2E2E2E2E2E2E2E2E2E2E2E2E2E2E2E2E2E2E2E2E2E2E2E2E2E2E2E2E2E2E2E2E2
310
E2E2E2E2E2E2E2E2E2E2E2E2E2E2E2E2E2E2E2E2E2E2E2E2E2E2E2E2E2E2E2E2E2E2E2E2E2E2E2E2E2E2E2E2E2E2E2E2E2E2E2E2E2E2E2E2E2E2E2E2E2E2E2E2E2E2E2E2F5F5E2E2E2E2E2E2E2E2E2E2E2E2E2E2E2E2E2E2E2E2E2E2E2E2E2E2E2E2E2E2E2E2E2E2E2E2E2E2E2E2E2E2E2E2E2E2E2E2E2E2E2E2E2E2E2E2E2
310
E2E2E2E2E2E2E2E2E2E2E2E2E2E2E2E2E2E2E2E2E2E2E2E2E2E2E2E2E2E2E2E2E2E2E2E2E2E2E2E2E2E2E2E2E2E2E2E2E2E2E2E2E2E2E2E2E2E2E2E2E2E2E2E2E2E2E2E2E2E2E2E2E2E2E2E2E2E2E2E2E2E2E2E2E2E2E2E2E2E2E2E2E2E2E2E2E2E2E2E2E2E2E2E2E2E2E2E2E2E2E2E2E2E2E2E2E2E2E2E2E2F5F5E2E2E2F5
310
E2E2E2E2E2E2E2E2E2E2E2E2E2E2E2E2E2E2E2E2E2E2E2E2E2E2E2E2E2E2E2E2E2E2E2E2E2E2E2E2E2E2E2E2E2E2E2E2E2E2E2E2E2E2E2E2E2E2E2E2E2E2E2E2E2E2E2E2E2E2E2E2E2E2E2E2E2E2E2E2E2E2E2E2E2E2E2E2E2E2E2E2E2E2E2E2E2E2E2E2E2E2E2E2E2E2E2E2E2E2E2E2E2E2E2E2E2E2E2E2E2E2E2E2E2E2E2
310
E2E2E2E2E2E2E2E2E2E2E2E2E2E2E2E2E2E2E2E2E2E2E2E2E2E2E2E2E2E2E2E2E2E2E2E2E2E2E2E2E2E2E2F5E2E2E2F5F5E2E2E2F5E2E2E2E2E2E2E2E2E2E2E2E2E2E2E2E2E2E2E2E2E2E2E2E2E2E2E2E2E2E2E2E2E2E2E2E2E2E2E2E2E2E2E2E2E2E2E2E2E2E2E2E2E2E2E2E2E2E2E2E2E2E2E2E2E2E2E2E2E2E2E2E2E2E2
310
E2E2E2E2E2E2E2E2E2E2E2E2E2E2E2E2E2E2E2E2E2E2E2E2E2E2E2E2E2E2E2E2E2E2E2E2E2E2E2E2E2E2E2E2E2E2E2E2E2E2E2E2E2E2E2E2E2E2E2E2E2E2E2E2E2E2E2E2E2E2E2E2E2E2E2E2E2E2E2E2E2E2E2E2E2E2E2E2E2E2E2E2E2E2E2E2F5E2E2E2F5F5E2E2E2F5E2E2E2E2E2E2E2E2E2E2E2E2E2E2E2E2E2E2E2E2E2
310
E2E2E2E2E2E2E2E2E2E2E2E2E2E2E2E2E2E2E2E2E2E2E2E2E2E2E2E2E2E2E2E2E2E2E2E2E2E2E2E2E2E2E2E2E2E2E2E2E2E2E2E2E2E2E2E2E2E2E2E2E2E2E2E2E2E2E2E2E2E2E2E2E2E2E2E2E2E2E2E2E2E2E2E2E2E2E2E2E2E2E2E2E2E2E2E2E2E2E2E2E2E2E2E2E2E2E2E2E2E2E2E2E2E2E2E2E2E2E2E2E2E2E2E2E2E2E2
310
E2E2E2E2E2E2E2E2E2E2E2E2E2E2E2E2E2E2E2E2E2E2F5E2E2E2F5F5E2E2E2F5E2E2E2E2E2E2E2E2E2E2E2E2E2E2E2E2E2E2E2E2E2E2E2E2E2E2E2E2E2E2E2E2E2E2E2E2E2E2E2E2E2E2E2E2E2E2E2E2E2E2E2E2E2E2E2E2E2E2E2E2E2E2E2E2E2E2E2E2E2E2E2E2E2E2E2E2E2E2E2E2E2E2E2E2E2E2E2E2E2E2E2E2E2E2E2
310
E2E2E2E2E2E2E2E2E2E2E2E2E2E2E2E2E2E2E2E2E2E2E2E2E2E2E2E2E2E2E2E2E2E2E2E2E2E2E2E2E2E2E2E2E2E2E2E2E2E2E2E2E2E2E2E2E2E2E2E2E2E2E2E2E2E2E2E2E2E2E2E2E2E2E2F5E2E2E2F5F5E2E2E2F5E2E2E2E2E2E2E2E2E2E2E2E2E2E2E2E2E2E2E2E2E2E2E2E2E2E2E2E2E2E2E2E2E2E2E2E2E2E2E2E2E2E2
310
E2E2E2E2E2E2E2E2E2E2E2E2E2E2E2E2E2E2E2E2E2E2E2E2E2E2E2E2E2E2E2E2E2E2E2E2E2E2E2E2E2E2E2E2E2E2E2E2E2E2E2E2E2E2E2E2E2E2E2E2E2E2E2E2E2E2E2E2E2E2E2E2E2E2E2E2E2E2E2E2E2E2E2E2E2E2E2E2E2E2E2E2E2E2E2E2E2E2E2E2E2E2E2E2E2E2E2E2E2E2E2E2E2E2E2E2E2E2E2E2E2E2E2E2E2E2E2
310
E2F5E2E2E2F5F5E2E2E2F5E2E2E2E2E2E2E2E2E2E2E2E2E2E2E2E2E2E2E2E2E2E2E2E2E2E2E2E2E2E2E2E2E2E2E2E2E2E2E2E2E2E2E2E2E2E2E2E2E2E2E2E2E2E2E2E2E2E2E2E2E2E2E2E2E2E2E2E2E2E2E2E2E2E2E2E2E2E2E2E2E2E2E2E2E2E2E2E2E2E2E2E2E2E2E2E2E2E2E2E2E2E2E2E2E2E2E2E2E2E2E2E2E2E2E2E2
310
E2E2E2E2E2E2E2E2E2E2E2E2E2E2E2E2E2E2E2E2E2E2E2E2E2E2E2E2E2E2E2E2E2E2E2E2E2E2E2E2E2E2E2E2E2E2E2E2E2E2E2E2E2E2F5E2E2E2F5F5E2E2E2F5E2E2E2E2E2E2E2E2E2E2E2E2E2E2E2E2E2E2E2E2E2E2E2E2E2E2E2E2E2E2E2E2E2E2E2E2E2E2E2E2E2E2E2E2E2E2E2E2E2E2E2E2E2E2E2E2E2E2E2E2E2E2E2
310
E2E2E2E2E2E2E2E2E2E2E2E2E2E2E2E2E2E2E2E2E2E2E2E2E2E2E2E2E2E2E2E2E2E2E2E2E2E2E2E2E2E2E2E2E2E2E2E2E2E2E2E2E2E2E2E2E2E2E2E2E2E2E2E2E2E2E2E2E2E2E2E2E2E2E2E2E2E2E2E2E2E2E2E2E2E2E2E2E2E2E2E2E2E2E2E2E2E2E2E2E2E2E2E2E2E2E2F5E2E2E2F5F5E2E2E2F5E2E2E2E2E2E2E2E2E2E2
310
E2E2E2E2E2E2E2E2E2E2E2E2E2E2E2E2E2E2E2E2E2E2E2E2E2E2E2E2E2E2E2E2E2E2E2E2E2E2E2E2E2E2E2E2E2E2E2E2E2E2E2E2E2E2E2E2E2E2E2E2E2E2E2E2E2E2E2E2E2E2E2E2E2E2E2E2E2E2E2E2E2E2E2E2E2E2E2E2E2E2E2E2E2E2E2E2E2E2E2E2E2E2E2E2E2E2E2E2E2E2E2E2E2E2E2E2E2E2E2E2E2E2E2E2E2E2E2
310
E2E2E2E2E2E2E2E2E2E2E2E2E2E2E2E2E2E2E2E2E2E2E2E2E2E2E2E2E2E2E2E2E2F5E2E2E2F5F5E2E2E2F5F5F5F5F5F5F5F5E2E2E2E2E2E2E2E2E2F5F5F5F5F5F5F5F5F5F5F5F5F5F5F5F5E2E2E2E2E2E2E2E2E2F5F5F5F5F5F5F5F5F5F5F5F5F5F5F5E2E2E2E2E2E2E2E2E2F5F5F5F5F5F5F5F5F5F5F5F5F5F5F5F5E2E2E2
310
E2E2E2E2E2F5F5F5F5F5F5F5F5F5F5F5F5F5F5F5F5E2E2E2E2E2E2E2E2E2F5F5F5F5F5F5F5F5F5F5F5F5F5F5F5E2E2E2E2E2E2E2E2E2F5F5F5F5F5F5F5F5F5F5F5F5F5F5F5F5E2E2E2E2E2E2E2E2E2F5F5F5F5F5F5F5F5E2E2E2F5F5E2E2E2E2E2E2E2E2E2E2E2E2E2E2E2E2E2E2E2E2E2E2E2E2E2E2E2E2E2E2E2E2E2E2E2
310
E2E2E2E2E2E2E2E2E2E2E2E2E2E2E2E2E2E2E2E2E2E2E2E2E2E2E2E2E2E2E2E2E2E2E2E2E2E2E2E2E2E2E2E2E2E2E2E2E2E2E2E2E2E2E2E2E2E2E2E2E2E2E2E2E2E2E2E2E2E2E2E2E2E2E2E2E2E2E2E2E2E2E2E2E2E2E2E2E2E2E2E2E2E2E2E2E2E2E2E2E2E2E2E2E2E2E2E2E2E2E2E2E2E2E2E2E2E2E2E2E2E2E2E2E2E2E2
310
E2E2E2E2E2E2E2E2E2E2E2E2E2E2E2E2F5F5E2E2E2E2E2E2E2E2E2E2E2E2E2E2E2E2E2E2E2E2E2E2E2E2E2E2E2E2E2E2E2E2E2E2E2E2E2E2E2E2E2E2E2E2E2E2E2E2E2E2E2E2E2E2E2E2E2E2E2E2E2E2E2E2E2E2E2E2E2E2E2E2E2E2E2E2E2E2E2E2E2E2E2E2E2E2E2E2E2E2E2E2E2E2E2E2E2E2E2E2E2E2E2E2E2E2E2E2E2
310
E2E2E2E2E2E2E2E2E2E2E2E2E2E2E2E2E2E2E2E2E2E2E2E2E2E2E2E2E2E2E2E2E2E2E2E2E2E2E2E2E2E2E2E2E2E2E2E2E2E2E2E2E2E2E2E2E2E2E2E2E2E2E2E2E2E2E2E2E2F5F5E2E2E2E2E2E2E2E2E2E2E2E2E2E2E2E2E2E2E2E2E2E2E2E2E2E2E2E2E2E2E2E2E2E2E2E2E2E2E2E2E2E2E2E2E2E2E2E2E2E2E2E2E2E2E2E2
310
E2E2E2E2E2E2E2E2E2E2E2E2E2E2E2E2E2E2E2E2E2E2E2E2E2E2E2E2E2E2E2E2E2E2E2E2E2E2E2E2E2E2E2E2E2E2E2E2E2E2E2E2E2E2E2E2E2E2E2E2E2E2E2E2E2E2E2E2E2E2E2E2E2E2E2E2E2E2E2E2E2E2E2E2E2E2E2E2E2E2E2E2E2E2E2E2E2E2E2E2E2E2E2E2E2E2E2E2E2E2E2E2E2E2E2E2E2E2E2E2E2E2F5F5E2E2E2
310
E2E2E2E2E2E2E2E2E2E2E2E2E2E2E2E2E2E2E2E2E2E2E2E2E2E2E2E2E2E2E2E2E2E2E2E2E2E2E2E2E2E2E2E2E2E2E2E2E2E2E2E2E2E2E2E2E2E2E2E2E2E2E2E2E2E2E2E2E2E2E2E2E2E2E2E2E2E2E2E2E2E2E2E2E2E2E2E2E2E2E2E2E2E2E2E2E2E2E2E2E2E2E2E2E2E2E2E2E2E2E2E2E2E2E2E2E2E2E2E2E2E2E2E2E2E2E2
310
E2E2E2E2E2E2E2E2E2E2E2E2E2E2E2E2E2E2E2E2E2E2E2E2E2E2E2E2E2E2E2E2E2E2E2E2E2E2E2E2E2E2E2E2E2E2E2E2F5
  0
XRECORD
  5
59D84
102
{ACAD_REACTORS
330
59D83
102
}
330
59D83
100
AcDbXrecord
280
     1
102
SHADEPLOT
 70
     0
102
SHADEPLOTRESLEVEL
 70
     2
102
SHADEPLOTCUSTOMDPI
 70
   300
  0
ENDSEC
  0
EOF
