  0
SECTION
  2
HEADER
  9
$ACADVER
  1
AC1015
  9
$ACADMAINTVER
 70
    20
  9
$DWGCODEPAGE
  3
ANSI_936
  9
$INSBASE
 10
0.0
 20
0.0
 30
0.0
  9
$EXTMIN
 10
-93.56625540523594
 20
-61.53750000000001
 30
0.0
  9
$EXTMAX
 10
98.33240981471693
 20
80.56318280321098
 30
0.0
  9
$LIMMIN
 10
0.0
 20
0.0
  9
$LIMMAX
 10
420.0
 20
297.0
  9
$ORTHOMODE
 70
     0
  9
$REGENMODE
 70
     1
  9
$FILLMODE
 70
     1
  9
$QTEXTMODE
 70
     0
  9
$MIRRTEXT
 70
     1
  9
$LTSCALE
 40
1.0
  9
$ATTMODE
 70
     1
  9
$TEXTSIZE
 40
3.5
  9
$TRACEWID
 40
1.0
  9
$TEXTSTYLE
  7
simplex
  9
$CLAYER
  8
0
  9
$CELTYPE
  6
ByLayer
  9
$CECOLOR
 62
   256
  9
$CELTSCALE
 40
1.0
  9
$DISPSILH
 70
     0
  9
$DIMSCALE
 40
0.0
  9
$DIMASZ
 40
3.5
  9
$DIMEXO
 40
0.0
  9
$DIMDLI
 40
0.38
  9
$DIMRND
 40
0.0
  9
$DIMDLE
 40
0.0
  9
$DIMEXE
 40
1.5
  9
$DIMTP
 40
0.0
  9
$DIMTM
 40
0.0
  9
$DIMTXT
 40
3.5
  9
$DIMCEN
 40
0.09
  9
$DIMTSZ
 40
0.0
  9
$DIMTOL
 70
     0
  9
$DIMLIM
 70
     0
  9
$DIMTIH
 70
     0
  9
$DIMTOH
 70
     0
  9
$DIMSE1
 70
     0
  9
$DIMSE2
 70
     0
  9
$DIMTAD
 70
     1
  9
$DIMZIN
 70
     8
  9
$DIMBLK
  1

  9
$DIMASO
 70
     1
  9
$DIMSHO
 70
     1
  9
$DIMPOST
  1

  9
$DIMAPOST
  1

  9
$DIMALT
 70
     0
  9
$DIMALTD
 70
     2
  9
$DIMALTF
 40
25.4
  9
$DIMLFAC
 40
1.0
  9
$DIMTOFL
 70
     0
  9
$DIMTVP
 40
0.0
  9
$DIMTIX
 70
     0
  9
$DIMSOXD
 70
     0
  9
$DIMSAH
 70
     0
  9
$DIMBLK1
  1

  9
$DIMBLK2
  1

  9
$DIMSTYLE
  2
\M+18352\M+18373\M+1815B - ISO-25
  9
$DIMCLRD
 70
   256
  9
$DIMCLRE
 70
   256
  9
$DIMCLRT
 70
   256
  9
$DIMTFAC
 40
1.0
  9
$DIMGAP
 40
2.299999999999998
  9
$DIMJUST
 70
     0
  9
$DIMSD1
 70
     0
  9
$DIMSD2
 70
     0
  9
$DIMTOLJ
 70
     1
  9
$DIMTZIN
 70
     8
  9
$DIMALTZ
 70
     0
  9
$DIMALTTZ
 70
     0
  9
$DIMUPT
 70
     0
  9
$DIMDEC
 70
     2
  9
$DIMTDEC
 70
     2
  9
$DIMALTU
 70
     2
  9
$DIMALTTD
 70
     2
  9
$DIMTXSTY
  7
simplex
  9
$DIMAUNIT
 70
     0
  9
$DIMADEC
 70
     0
  9
$DIMALTRND
 40
0.0
  9
$DIMAZIN
 70
     0
  9
$DIMDSEP
 70
    46
  9
$DIMATFIT
 70
     3
  9
$DIMFRAC
 70
     0
  9
$DIMLDRBLK
  1

  9
$DIMLUNIT
 70
     2
  9
$DIMLWD
 70
    -1
  9
$DIMLWE
 70
    -1
  9
$DIMTMOVE
 70
     0
  9
$LUNITS
 70
     2
  9
$LUPREC
 70
     4
  9
$SKETCHINC
 40
1.0
  9
$FILLETRAD
 40
0.8
  9
$AUNITS
 70
     0
  9
$AUPREC
 70
     0
  9
$MENU
  1
.
  9
$ELEVATION
 40
0.0
  9
$PELEVATION
 40
0.0
  9
$THICKNESS
 40
0.0
  9
$LIMCHECK
 70
     0
  9
$CHAMFERA
 40
10.0
  9
$CHAMFERB
 40
10.0
  9
$CHAMFERC
 40
20.0
  9
$CHAMFERD
 40
0.0
  9
$SKPOLY
 70
     0
  9
$TDCREATE
 40
2455489.391063368
  9
$TDUCREATE
 40
2455489.057730035
  9
$TDUPDATE
 40
2458508.384838796
  9
$TDUUPDATE
 40
2458508.051505463
  9
$TDINDWG
 40
2.2338383218
  9
$TDUSRTIMER
 40
2.2337854051
  9
$USRTIMER
 70
     1
  9
$ANGBASE
 50
0.0
  9
$ANGDIR
 70
     0
  9
$PDMODE
 70
     0
  9
$PDSIZE
 40
0.0
  9
$PLINEWID
 40
0.0
  9
$SPLFRAME
 70
     0
  9
$SPLINETYPE
 70
     6
  9
$SPLINESEGS
 70
     8
  9
$HANDSEED
  5
599D3
  9
$SURFTAB1
 70
     6
  9
$SURFTAB2
 70
     6
  9
$SURFTYPE
 70
     6
  9
$SURFU
 70
     6
  9
$SURFV
 70
     6
  9
$UCSBASE
  2

  9
$UCSNAME
  2

  9
$UCSORG
 10
0.0
 20
0.0
 30
0.0
  9
$UCSXDIR
 10
1.0
 20
0.0
 30
0.0
  9
$UCSYDIR
 10
0.0
 20
1.0
 30
0.0
  9
$UCSORTHOREF
  2

  9
$UCSORTHOVIEW
 70
     0
  9
$UCSORGTOP
 10
0.0
 20
0.0
 30
0.0
  9
$UCSORGBOTTOM
 10
0.0
 20
0.0
 30
0.0
  9
$UCSORGLEFT
 10
0.0
 20
0.0
 30
0.0
  9
$UCSORGRIGHT
 10
0.0
 20
0.0
 30
0.0
  9
$UCSORGFRONT
 10
0.0
 20
0.0
 30
0.0
  9
$UCSORGBACK
 10
0.0
 20
0.0
 30
0.0
  9
$PUCSBASE
  2

  9
$PUCSNAME
  2

  9
$PUCSORG
 10
0.0
 20
0.0
 30
0.0
  9
$PUCSXDIR
 10
1.0
 20
0.0
 30
0.0
  9
$PUCSYDIR
 10
0.0
 20
1.0
 30
0.0
  9
$PUCSORTHOREF
  2

  9
$PUCSORTHOVIEW
 70
     0
  9
$PUCSORGTOP
 10
0.0
 20
0.0
 30
0.0
  9
$PUCSORGBOTTOM
 10
0.0
 20
0.0
 30
0.0
  9
$PUCSORGLEFT
 10
0.0
 20
0.0
 30
0.0
  9
$PUCSORGRIGHT
 10
0.0
 20
0.0
 30
0.0
  9
$PUCSORGFRONT
 10
0.0
 20
0.0
 30
0.0
  9
$PUCSORGBACK
 10
0.0
 20
0.0
 30
0.0
  9
$USERI1
 70
     0
  9
$USERI2
 70
     0
  9
$USERI3
 70
     0
  9
$USERI4
 70
     0
  9
$USERI5
 70
     0
  9
$USERR1
 40
0.0
  9
$USERR2
 40
0.0
  9
$USERR3
 40
0.0
  9
$USERR4
 40
0.0
  9
$USERR5
 40
0.0
  9
$WORLDVIEW
 70
     1
  9
$SHADEDGE
 70
     3
  9
$SHADEDIF
 70
    70
  9
$TILEMODE
 70
     1
  9
$MAXACTVP
 70
    64
  9
$PINSBASE
 10
0.0
 20
0.0
 30
0.0
  9
$PLIMCHECK
 70
     0
  9
$PEXTMIN
 10
26.66999878883364
 20
20.31999878883365
 30
0.0
  9
$PEXTMAX
 10
240.0299890995025
 20
182.8799890995025
 30
0.0
  9
$PLIMMIN
 10
-6.350006103515625
 20
-6.349999904632567
  9
$PLIMMAX
 10
273.0499877929688
 20
209.5499939918518
  9
$UNITMODE
 70
     0
  9
$VISRETAIN
 70
     1
  9
$PLINEGEN
 70
     0
  9
$PSLTSCALE
 70
     1
  9
$TREEDEPTH
 70
  3020
  9
$CMLSTYLE
  2
Standard
  9
$CMLJUST
 70
     0
  9
$CMLSCALE
 40
20.0
  9
$PROXYGRAPHICS
 70
     1
  9
$MEASUREMENT
 70
     1
  9
$CELWEIGHT
370
    -1
  9
$ENDCAPS
280
     0
  9
$JOINSTYLE
280
     0
  9
$LWDISPLAY
290
     0
  9
$INSUNITS
 70
     4
  9
$HYPERLINKBASE
  1

  9
$STYLESHEET
  1

  9
$XEDIT
290
     1
  9
$CEPSNTYPE
380
     0
  9
$PSTYLEMODE
290
     1
  9
$FINGERPRINTGUID
  2
{601DDA01-5B13-4A4C-8F56-1333B78D855B}
  9
$VERSIONGUID
  2
{72FEF5DC-BA95-4E7B-B0BF-1D9CD87AC744}
  9
$EXTNAMES
290
     1
  9
$PSVPSCALE
 40
0.0
  9
$OLESTARTUP
290
     0
  0
ENDSEC
  0
SECTION
  2
CLASSES
  0
CLASS
  1
ACDBDICTIONARYWDFLT
  2
AcDbDictionaryWithDefault
  3
ObjectDBX Classes
 90
        0
280
     0
281
     0
  0
CLASS
  1
ACDBPLACEHOLDER
  2
AcDbPlaceHolder
  3
ObjectDBX Classes
 90
        0
280
     0
281
     0
  0
CLASS
  1
LAYOUT
  2
AcDbLayout
  3
ObjectDBX Classes
 90
        0
280
     0
281
     0
  0
CLASS
  1
DICTIONARYVAR
  2
AcDbDictionaryVar
  3
ObjectDBX Classes
 90
        0
280
     0
281
     0
  0
CLASS
  1
TABLESTYLE
  2
AcDbTableStyle
  3
ObjectDBX Classes
 90
     2047
280
     0
281
     0
  0
CLASS
  1
SORTENTSTABLE
  2
AcDbSortentsTable
  3
ObjectDBX Classes
 90
        0
280
     0
281
     0
  0
CLASS
  1
DIMASSOC
  2
AcDbDimAssoc
  3
"AcDbDimAssoc|Product Desc:     AcDim ARX App For Dimension|Company:          Autodesk, Inc.|WEB Address:      www.autodesk.com"
 90
        0
280
     0
281
     0
  0
CLASS
  1
ACAD_EVALUATION_GRAPH
  2
AcDbEvalGraph
  3
ObjectDBX Classes
 90
    33921
280
     0
281
     0
  0
CLASS
  1
ACAECUSTOBJ
  2
AcAeEditorObj
  3
AcAeEditorObj
 90
    33792
280
     0
281
     0
  0
CLASS
  1
ACDB_DYNAMICBLOCKPURGEPREVENTER_VERSION
  2
AcDbDynamicBlockPurgePreventer
  3
ObjectDBX Classes
 90
    33921
280
     0
281
     0
  0
ENDSEC
  0
SECTION
  2
TABLES
  0
TABLE
  2
VPORT
  5
8
330
0
100
AcDbSymbolTable
 70
     2
  0
VPORT
  5
599C4
330
8
100
AcDbSymbolTableRecord
100
AcDbViewportTableRecord
  2
*Active
 70
     0
 10
0.0
 20
0.0
 11
1.0
 21
1.0
 12
24.75850701120413
 22
-4.151550006938734
 13
0.0
 23
0.0
 14
10.0
 24
10.0
 15
10.0
 25
10.0
 16
0.0
 26
0.0
 36
1.0
 17
0.0
 27
0.0
 37
0.0
 40
239.6480492292575
 41
1.381443298969072
 42
50.0
 43
0.0
 44
0.0
 50
0.0
 51
0.0
 71
     0
 72
  1000
 73
     1
 74
     1
 75
     0
 76
     0
 77
     0
 78
     0
281
     0
 65
     1
110
0.0
120
0.0
130
0.0
111
1.0
121
0.0
131
0.0
112
0.0
122
1.0
132
0.0
 79
     0
146
0.0
  0
ENDTAB
  0
TABLE
  2
LTYPE
  5
5
330
0
100
AcDbSymbolTable
 70
     4
  0
LTYPE
  5
14
330
5
100
AcDbSymbolTableRecord
100
AcDbLinetypeTableRecord
  2
ByBlock
 70
     0
  3

 72
    65
 73
     0
 40
0.0
  0
LTYPE
  5
15
330
5
100
AcDbSymbolTableRecord
100
AcDbLinetypeTableRecord
  2
ByLayer
 70
     0
  3

 72
    65
 73
     0
 40
0.0
  0
LTYPE
  5
16
330
5
100
AcDbSymbolTableRecord
100
AcDbLinetypeTableRecord
  2
Continuous
 70
     0
  3
Solid line
 72
    65
 73
     0
 40
0.0
  0
LTYPE
  5
D7
330
5
100
AcDbSymbolTableRecord
100
AcDbLinetypeTableRecord
  2
HIDDEN
 70
     0
  3
Hidden __ __ __ __ __ __ __ __ __ __ __ __ __ _
 72
    65
 73
     2
 40
9.524999999999996
 49
6.349999999999997
 74
     0
 49
-3.174999999999998
 74
     0
  0
LTYPE
  5
D9
330
5
100
AcDbSymbolTableRecord
100
AcDbLinetypeTableRecord
  2
CENTER
 70
     0
  3
Center ____ _ ____ _ ____ _ ____ _ ____ _ ____
 72
    65
 73
     4
 40
50.8
 49
31.75
 74
     0
 49
-6.349999999999997
 74
     0
 49
6.349999999999997
 74
     0
 49
-6.349999999999997
 74
     0
  0
LTYPE
  5
35815
330
5
100
AcDbSymbolTableRecord
100
AcDbLinetypeTableRecord
  2
PHANTOM
 70
     0
  3
_____ _ _ _____ _ _ _____ _ _ _____
 72
    65
 73
     6
 40
0.8
 49
0.45
 74
     0
 49
-0.05
 74
     0
 49
0.1
 74
     0
 49
-0.05
 74
     0
 49
0.1
 74
     0
 49
-0.05
 74
     0
  0
ENDTAB
  0
TABLE
  2
LAYER
  5
2
102
{ACAD_XDICTIONARY
360
E2
102
}
330
0
100
AcDbSymbolTable
 70
    14
  0
LAYER
  5
10
330
2
100
AcDbSymbolTableRecord
100
AcDbLayerTableRecord
  2
0
 70
     0
 62
     7
  6
Continuous
370
    -3
390
F
  0
LAYER
  5
D1
330
2
100
AcDbSymbolTableRecord
100
AcDbLayerTableRecord
  2
1
 70
     0
 62
     4
  6
Continuous
370
    50
390
F
1001
AcAecLayerStandard
1000

1000

  0
LAYER
  5
D3
330
2
100
AcDbSymbolTableRecord
100
AcDbLayerTableRecord
  2
2
 70
     0
 62
     7
  6
Continuous
370
    25
390
F
1001
AcAecLayerStandard
1000

1000

  0
LAYER
  5
D4
330
2
100
AcDbSymbolTableRecord
100
AcDbLayerTableRecord
  2
3
 70
     0
 62
     1
  6
HIDDEN
370
    35
390
F
1001
AcAecLayerStandard
1000

1000

  0
LAYER
  5
D8
330
2
100
AcDbSymbolTableRecord
100
AcDbLayerTableRecord
  2
4
 70
     0
 62
     2
  6
CENTER
370
    25
390
F
1001
AcAecLayerStandard
1000

1000

  0
LAYER
  5
DA
330
2
100
AcDbSymbolTableRecord
100
AcDbLayerTableRecord
  2
6
 70
     0
 62
     5
  6
Continuous
370
    35
390
F
1001
AcAecLayerStandard
1000

1000

  0
LAYER
  5
DB
330
2
100
AcDbSymbolTableRecord
100
AcDbLayerTableRecord
  2
cut
 70
     0
 62
     1
  6
Continuous
370
    25
390
F
1001
AcAecLayerStandard
1000

1000

  0
LAYER
  5
DC
330
2
100
AcDbSymbolTableRecord
100
AcDbLayerTableRecord
  2
nocut
 70
     0
 62
     7
  6
Continuous
370
    25
390
F
1001
AcAecLayerStandard
1000

1000

  0
LAYER
  5
DD
330
2
100
AcDbSymbolTableRecord
100
AcDbLayerTableRecord
  2
sk1
 70
     0
 62
     4
  6
Continuous
370
    50
390
F
1001
AcAecLayerStandard
1000

1000

  0
LAYER
  5
DE
330
2
100
AcDbSymbolTableRecord
100
AcDbLayerTableRecord
  2
sk2
 70
     0
 62
     7
  6
Continuous
370
    25
390
F
1001
AcAecLayerStandard
1000

1000

  0
LAYER
  5
DF
330
2
100
AcDbSymbolTableRecord
100
AcDbLayerTableRecord
  2
sk3
 70
     0
 62
     1
  6
HIDDEN
370
    35
390
F
1001
AcAecLayerStandard
1000

1000

  0
LAYER
  5
E0
330
2
100
AcDbSymbolTableRecord
100
AcDbLayerTableRecord
  2
sk4
 70
     0
 62
     2
  6
CENTER
370
    25
390
F
1001
AcAecLayerStandard
1000

1000

  0
LAYER
  5
E1
330
2
100
AcDbSymbolTableRecord
100
AcDbLayerTableRecord
  2
sk6
 70
     0
 62
     5
  6
Continuous
370
    35
390
F
1001
AcAecLayerStandard
1000

1000

  0
LAYER
  5
31B6
330
2
100
AcDbSymbolTableRecord
100
AcDbLayerTableRecord
  2
Defpoints
 70
     0
 62
     7
  6
Continuous
290
     0
370
    -3
390
F
  0
ENDTAB
  0
TABLE
  2
STYLE
  5
3
330
0
100
AcDbSymbolTable
 70
    12
  0
STYLE
  5
11
330
3
100
AcDbSymbolTableRecord
100
AcDbTextStyleTableRecord
  2
Standard
 70
     0
 40
0.0
 41
1.0
 50
0.0
 71
     0
 42
2.5
  3
txt.shx
  4
@extfont2.shx
  0
STYLE
  5
D6
330
3
100
AcDbSymbolTableRecord
100
AcDbTextStyleTableRecord
  2

 70
     1
 40
0.0
 41
1.0
 50
0.0
 71
     0
 42
2.5
  3
ltypeshp.shx
  4

  0
STYLE
  5
24A
330
3
100
AcDbSymbolTableRecord
100
AcDbTextStyleTableRecord
  2
simplex
 70
     0
 40
3.5
 41
1.0
 50
0.0
 71
     0
 42
3.5
  3
txt.shx
  4

  0
STYLE
  5
69E
330
3
100
AcDbSymbolTableRecord
100
AcDbTextStyleTableRecord
  2
MX_NOTE_STANDARD
 70
     0
 40
0.0
 41
1.0
 50
0.0
 71
     0
 42
4.2
  3
txt.shx
  4
extfont.shx
  0
STYLE
  5
3524
330
3
100
AcDbSymbolTableRecord
100
AcDbTextStyleTableRecord
  2
TEXTSTYLE_2
 70
     0
 40
0.0
 41
0.775
 50
0.0
 71
     0
 42
0.2
  3
gdt
  4

  0
STYLE
  5
3525
330
3
100
AcDbSymbolTableRecord
100
AcDbTextStyleTableRecord
  2
TEXTSTYLE_3
 70
     0
 40
0.0
 41
0.75
 50
0.0
 71
     0
 42
0.2
  3
txt
  4

  0
STYLE
  5
3526
330
3
100
AcDbSymbolTableRecord
100
AcDbTextStyleTableRecord
  2
TEXTSTYLE_13
 70
     0
 40
0.0
 41
1.0
 50
0.0
 71
     0
 42
0.2
  3
txt
  4

  0
STYLE
  5
519A
330
3
100
AcDbSymbolTableRecord
100
AcDbTextStyleTableRecord
  2
TEXTSTYLE_14
 70
     0
 40
0.0
 41
1.0
 50
0.0
 71
     0
 42
0.2
  3
txt
  4

  0
STYLE
  5
6F72
330
3
100
AcDbSymbolTableRecord
100
AcDbTextStyleTableRecord
  2
TEXTSTYLE_4
 70
     0
 40
0.0
 41
0.75
 50
0.0
 71
     0
 42
0.2
  3
txt
  4

  0
STYLE
  5
6F73
330
3
100
AcDbSymbolTableRecord
100
AcDbTextStyleTableRecord
  2
TEXTSTYLE_17
 70
     0
 40
0.0
 41
1.0
 50
0.0
 71
     0
 42
0.2
  3
txt
  4

  0
STYLE
  5
FE12
330
3
100
AcDbSymbolTableRecord
100
AcDbTextStyleTableRecord
  2
TEXTSTYLE_12
 70
     0
 40
0.0
 41
1.0
 50
0.0
 71
     0
 42
0.2
  3
txt
  4

  0
STYLE
  5
3AAB8
330
3
100
AcDbSymbolTableRecord
100
AcDbTextStyleTableRecord
  2
TEXTSTYLE_20
 70
     0
 40
0.0
 41
0.6
 50
0.0
 71
     0
 42
0.2
  3
txt
  4

  0
ENDTAB
  0
TABLE
  2
VIEW
  5
6
330
0
100
AcDbSymbolTable
 70
     0
  0
ENDTAB
  0
TABLE
  2
UCS
  5
7
330
0
100
AcDbSymbolTable
 70
     0
  0
ENDTAB
  0
TABLE
  2
APPID
  5
9
330
0
100
AcDbSymbolTable
 70
    11
  0
APPID
  5
12
330
9
100
AcDbSymbolTableRecord
100
AcDbRegAppTableRecord
  2
ACAD
 70
     0
  0
APPID
  5
D2
330
9
100
AcDbSymbolTableRecord
100
AcDbRegAppTableRecord
  2
AcAecLayerStandard
 70
     0
  0
APPID
  5
E6
330
9
100
AcDbSymbolTableRecord
100
AcDbRegAppTableRecord
  2
ACAD_DSTYLE_DIMTEXT_FILL
 70
     0
  0
APPID
  5
4C84
330
9
100
AcDbSymbolTableRecord
100
AcDbRegAppTableRecord
  2
ACAD_EXEMPT_FROM_CAD_STANDARDS
 70
     0
  0
APPID
  5
3493E
330
9
100
AcDbSymbolTableRecord
100
AcDbRegAppTableRecord
  2
DCO15
 70
     0
  0
APPID
  5
3BAB0
330
9
100
AcDbSymbolTableRecord
100
AcDbRegAppTableRecord
  2
ACAD_DSTYLE_DIMEXT_ENABLED
 70
     0
  0
APPID
  5
3BAB1
330
9
100
AcDbSymbolTableRecord
100
AcDbRegAppTableRecord
  2
ACAD_DSTYLE_DIMEXT_LENGTH
 70
     0
  0
APPID
  5
3BEB4
330
9
100
AcDbSymbolTableRecord
100
AcDbRegAppTableRecord
  2
ACAUTHENVIRON
 70
     0
  0
APPID
  5
3BEB7
330
9
100
AcDbSymbolTableRecord
100
AcDbRegAppTableRecord
  2
AcDbDynamicBlockTrueName
 70
     0
  0
APPID
  5
3BEB8
330
9
100
AcDbSymbolTableRecord
100
AcDbRegAppTableRecord
  2
AcDbDynamicBlockGUID
 70
     0
  0
APPID
  5
3BEBA
330
9
100
AcDbSymbolTableRecord
100
AcDbRegAppTableRecord
  2
AcDbBlockRepETag
 70
     0
  0
ENDTAB
  0
TABLE
  2
DIMSTYLE
  5
A
330
0
100
AcDbSymbolTable
 70
    12
100
AcDbDimStyleTable
 71
     5
340
1BF
340
27
340
352A
340
3527
340
69F
  0
DIMSTYLE
105
27
330
A
100
AcDbSymbolTableRecord
100
AcDbDimStyleTableRecord
  2
ISO-25
 70
     0
 41
2.5
 42
0.625
 43
3.75
 44
1.25
 73
     0
 74
     0
 77
     1
 78
     8
140
2.5
141
2.5
143
0.03937007874016
147
0.625
171
     3
172
     1
271
     2
272
     2
274
     3
278
    44
283
     0
284
     8
340
11
  0
DIMSTYLE
105
1BF
102
{ACAD_REACTORS
330
59764
330
5976A
330
5976B
330
5976C
330
597FB
330
597FE
330
5987D
102
}
330
A
100
AcDbSymbolTableRecord
100
AcDbDimStyleTableRecord
  2
\M+18352\M+18373\M+1815B - ISO-25
 70
     0
 40
0.0
 41
3.5
 42
0.0
 44
1.5
 73
     0
 74
     0
 77
     1
 78
     8
140
3.5
147
2.299999999999998
176
   256
177
   256
178
   256
271
     2
272
     2
284
     8
340
24A
371
    -1
372
    -1
  0
DIMSTYLE
105
69F
330
A
100
AcDbSymbolTableRecord
100
AcDbDimStyleTableRecord
  2
MXDIMSTYLE
 70
     0
 41
2.5
 42
0.5
 43
3.75
 44
1.5
 73
     0
 74
     0
 77
     1
 78
     8
140
4.2
141
2.5
143
0.03937
147
1.0
171
     4
172
     1
173
     1
271
     2
272
     2
274
     4
283
     0
288
     1
340
69E
341
697
343
697
344
697
  0
DIMSTYLE
105
3527
330
A
100
AcDbSymbolTableRecord
100
AcDbDimStyleTableRecord
  2
STANDARD
 70
     0
 41
3.0
 47
0.001
 48
0.001
 71
     1
 73
     0
 74
     0
 77
     1
 78
     8
140
4.0
271
     3
272
     3
284
     8
340
11
341
34B1
342
34B1
343
34B1
344
34B1
  0
DIMSTYLE
105
3528
330
A
100
AcDbSymbolTableRecord
100
AcDbDimStyleTableRecord
  2
DIMSTYLE_1
 70
     0
 41
3.0
 73
     0
 74
     0
 77
     1
 78
     8
140
4.0
271
     3
272
     3
284
     8
340
11
341
34B1
342
34B1
343
34B1
344
34B1
  0
DIMSTYLE
105
3529
330
A
100
AcDbSymbolTableRecord
100
AcDbDimStyleTableRecord
  2
DIMSTYLE_2
 70
     0
 41
3.0
 47
0.001
 48
0.001
 73
     0
 74
     0
 77
     1
 78
     8
140
4.0
271
     3
272
     3
284
     8
340
11
341
34B1
342
34B1
343
34B1
344
34B1
  0
DIMSTYLE
105
352A
330
A
100
AcDbSymbolTableRecord
100
AcDbDimStyleTableRecord
  2
DIMSTYLE_3
 70
     0
 41
3.0
 47
-0.1
 48
0.3
 71
     1
 73
     0
 74
     0
 77
     1
 78
     8
140
4.0
146
0.5
271
     3
272
     3
284
     8
340
11
341
34B1
342
34B1
343
34B1
344
34B1
  0
DIMSTYLE
105
352B
330
A
100
AcDbSymbolTableRecord
100
AcDbDimStyleTableRecord
  2
DIMSTYLE_4
 70
     0
 41
3.0
 47
0.1
 48
0.1
 71
     1
 73
     0
 74
     0
 77
     1
 78
     8
140
4.0
271
     3
272
     3
284
     8
340
11
341
34B1
342
34B1
343
34B1
344
34B1
  0
DIMSTYLE
105
27245
330
A
100
AcDbSymbolTableRecord
100
AcDbDimStyleTableRecord
  2
DIMSTYLE_5
 70
     0
 41
3.0
 47
0.001
 48
0.001
 73
     0
 74
     0
 77
     1
 78
     8
140
4.0
271
     3
272
     3
284
     8
340
11
341
34B1
342
34B1
343
34B1
344
34B1
  0
DIMSTYLE
105
3AAB9
330
A
100
AcDbSymbolTableRecord
100
AcDbDimStyleTableRecord
  2
DIMSTYLE_6
 70
     0
 41
3.0
 42
0.0
 44
1.0
 47
0.05
 48
0.05
 71
     1
 73
     0
 74
     0
 77
     1
 78
     8
140
4.0
147
1.0
271
     3
272
     3
284
     8
340
11
341
34B1
342
34B1
343
34B1
344
34B1
  0
DIMSTYLE
105
49C0A
330
A
100
AcDbSymbolTableRecord
100
AcDbDimStyleTableRecord
  2
DIMSTYLE
 70
     0
 41
1.0
 42
2.539999961853026
 44
2.54
 73
     0
 74
     0
140
3.200000047683716
147
1.600000023841858
173
     1
340
11
  0
DIMSTYLE
105
4A42E
330
A
100
AcDbSymbolTableRecord
100
AcDbDimStyleTableRecord
  2
NEW-DIMSTYLE
 70
     0
 40
0.0
 41
4.57
 42
0.0
 44
5.0
 73
     0
 74
     0
 77
     1
 78
     8
140
4.57
147
2.299999999999998
271
     2
340
24A
  0
ENDTAB
  0
TABLE
  2
BLOCK_RECORD
  5
1
330
0
100
AcDbSymbolTable
 70
    15
  0
BLOCK_RECORD
  5
1F
102
{ACAD_XDICTIONARY
360
31EE
102
}
330
1
100
AcDbSymbolTableRecord
100
AcDbBlockTableRecord
  2
*Model_Space
340
22
  0
BLOCK_RECORD
  5
50
330
1
100
AcDbSymbolTableRecord
100
AcDbBlockTableRecord
  2
*Paper_Space
340
51
  0
BLOCK_RECORD
  5
55
330
1
100
AcDbSymbolTableRecord
100
AcDbBlockTableRecord
  2
*Paper_Space0
340
56
  0
BLOCK_RECORD
  5
680
102
{ACAD_XDICTIONARY
360
3BEB2
102
}
330
1
100
AcDbSymbolTableRecord
100
AcDbBlockTableRecord
  2
zero block
340
0
102
{BLKREFS
331
68C
102
}
1001
ACAD
1000
DesignCenter Data
1002
{
1070
     1
1070
     4
1002
}
1001
AcDbDynamicBlockGUID
1000
{C2E8894D-A8DA-456D-ABB6-198B00672C1A}
1001
AcDbBlockRepETag
1070
     1
1071
        7
  0
BLOCK_RECORD
  5
697
330
1
100
AcDbSymbolTableRecord
100
AcDbBlockTableRecord
  2
_OPEN30
340
0
  0
BLOCK_RECORD
  5
32F1
330
1
100
AcDbSymbolTableRecord
100
AcDbBlockTableRecord
  2
_None
340
0
  0
BLOCK_RECORD
  5
34B1
330
1
100
AcDbSymbolTableRecord
100
AcDbBlockTableRecord
  2
_OPEN
340
0
  0
BLOCK_RECORD
  5
564FE
330
1
100
AcDbSymbolTableRecord
100
AcDbBlockTableRecord
  2
*D5
340
0
  0
BLOCK_RECORD
  5
56508
330
1
100
AcDbSymbolTableRecord
100
AcDbBlockTableRecord
  2
*D6
340
0
  0
BLOCK_RECORD
  5
5988A
330
1
100
AcDbSymbolTableRecord
100
AcDbBlockTableRecord
  2
*D7
340
0
  0
BLOCK_RECORD
  5
59896
330
1
100
AcDbSymbolTableRecord
100
AcDbBlockTableRecord
  2
*D8
340
0
  0
BLOCK_RECORD
  5
598A3
330
1
100
AcDbSymbolTableRecord
100
AcDbBlockTableRecord
  2
*D9
340
0
  0
BLOCK_RECORD
  5
598AD
330
1
100
AcDbSymbolTableRecord
100
AcDbBlockTableRecord
  2
*D10
340
0
  0
BLOCK_RECORD
  5
598B9
330
1
100
AcDbSymbolTableRecord
100
AcDbBlockTableRecord
  2
*D11
340
0
  0
BLOCK_RECORD
  5
598E6
330
1
100
AcDbSymbolTableRecord
100
AcDbBlockTableRecord
  2
*D12
340
0
  0
BLOCK_RECORD
  5
598F2
330
1
100
AcDbSymbolTableRecord
100
AcDbBlockTableRecord
  2
*D13
340
0
  0
ENDTAB
  0
ENDSEC
  0
SECTION
  2
BLOCKS
  0
BLOCK
  5
20
330
1F
100
AcDbEntity
  8
0
100
AcDbBlockBegin
  2
*Model_Space
 70
     0
 10
0.0
 20
0.0
 30
0.0
  3
*Model_Space
  1

  0
ENDBLK
  5
21
330
1F
100
AcDbEntity
  8
0
100
AcDbBlockEnd
  0
BLOCK
  5
52
330
50
100
AcDbEntity
 67
     1
  8
0
100
AcDbBlockBegin
  2
*Paper_Space
 70
     0
 10
0.0
 20
0.0
 30
0.0
  3
*Paper_Space
  1

  0
ENDBLK
  5
53
330
50
100
AcDbEntity
 67
     1
  8
0
100
AcDbBlockEnd
  0
BLOCK
  5
57
330
55
100
AcDbEntity
 67
     1
  8
0
100
AcDbBlockBegin
  2
*Paper_Space0
 70
     0
 10
0.0
 20
0.0
 30
0.0
  3
*Paper_Space0
  1

  0
VIEWPORT
  5
71
102
{ACAD_XDICTIONARY
360
599CF
102
}
330
55
100
AcDbEntity
 67
     1
  8
0
100
AcDbViewport
 10
150.1652135264906
 20
101.599997546291
 30
0.0
 40
339.1973820494347
 41
164.5360435314421
 68
     0
 69
     0
 12
150.1652135264906
 22
101.599997546291
 13
0.0
 23
0.0
 14
10.0
 24
10.0
 15
10.0
 25
10.0
 16
0.0
 26
0.0
 36
1.0
 17
0.0
 27
0.0
 37
0.0
 42
50.0
 43
0.0
 44
0.0
 45
164.5360435314421
 50
0.0
 51
0.0
 72
  1000
 90
    32864
  1

281
     0
 71
     1
 74
     0
110
0.0
120
0.0
130
0.0
111
1.0
121
0.0
131
0.0
112
0.0
122
1.0
132
0.0
 79
     0
146
0.0
  0
VIEWPORT
  5
73
102
{ACAD_XDICTIONARY
360
599D1
102
}
330
55
100
AcDbEntity
 67
     1
  8
0
100
AcDbViewport
 10
133.3499939441681
 20
101.5999939441681
 30
0.0
 40
213.3599903106689
 41
162.5599903106689
 68
     0
 69
     0
 12
210.0
 22
148.5
 13
0.0
 23
0.0
 14
10.0
 24
10.0
 15
10.0
 25
10.0
 16
0.0
 26
0.0
 36
1.0
 17
0.0
 27
0.0
 37
0.0
 42
50.0
 43
0.0
 44
0.0
 45
324.0677920111345
 50
0.0
 51
0.0
 72
   100
 90
    32864
  1

281
     0
 71
     1
 74
     0
110
0.0
120
0.0
130
0.0
111
1.0
121
0.0
131
0.0
112
0.0
122
1.0
132
0.0
 79
     0
146
0.0
  0
ENDBLK
  5
58
330
55
100
AcDbEntity
 67
     1
  8
0
100
AcDbBlockEnd
  0
BLOCK
  5
68A
330
680
100
AcDbEntity
  8
0
100
AcDbBlockBegin
  2
zero block
 70
     0
 10
0.0
 20
0.0
 30
0.0
  3
zero block
  1

  0
HATCH
  5
3BEAB
330
680
100
AcDbEntity
  8
0
 62
     7
100
AcDbHatch
 10
0.0
 20
0.0
 30
0.0
210
0.0
220
0.0
230
1.0
  2
SOLID
 70
     1
 71
     0
 91
        2
 92
        7
 72
     1
 73
     1
 93
        3
 10
0.0
 20
0.9999999999999875
 42
0.4142135623730915
 10
-1.0
 20
0.0
 42
0.0
 10
0.0
 20
0.0
 42
0.0
 97
        0
 92
        7
 72
     1
 73
     1
 93
        3
 10
1.000000000000007
 20
0.0
 42
0.0
 10
0.0
 20
0.0
 42
0.0
 10
0.0
 20
-1.0
 42
0.4142135623730974
 97
        0
 75
     0
 76
     1
 47
0.0090601366782909
 98
        2
 10
-0.380591363650975
 20
0.4885804701532896
 10
0.4350764810977559
 20
-0.4536738423704725
1001
AcDbBlockRepETag
1070
     1
1071
        0
1005
3BEAB
  0
LINE
  5
3BEAC
330
680
100
AcDbEntity
  8
0
 62
     7
 48
0.2
100
AcDbLine
 10
-1.0
 20
0.0
 30
0.0
 11
1.000000000000007
 21
0.0
 31
0.0
1001
AcDbBlockRepETag
1070
     1
1071
        1
1005
3BEAC
  0
LINE
  5
3BEAD
330
680
100
AcDbEntity
  8
0
 62
     7
 48
0.2
100
AcDbLine
 10
0.0
 20
-1.0
 30
0.0
 11
0.0
 21
0.9999999999999875
 31
0.0
1001
AcDbBlockRepETag
1070
     1
1071
        2
1005
3BEAD
  0
ARC
  5
3BEAE
330
680
100
AcDbEntity
  8
0
 62
     7
 48
0.2
100
AcDbCircle
 10
0.0
 20
0.0
 30
0.0
 40
1.0
100
AcDbArc
 50
270.0
 51
0.0
1001
AcDbBlockRepETag
1070
     1
1071
        3
1005
3BEAE
  0
ARC
  5
3BEAF
330
680
100
AcDbEntity
  8
0
 62
     7
 48
0.2
100
AcDbCircle
 10
0.0
 20
0.0
 30
0.0
 40
1.0
100
AcDbArc
 50
0.0
 51
90.0
1001
AcDbBlockRepETag
1070
     1
1071
        4
1005
3BEAF
  0
ARC
  5
3BEB0
330
680
100
AcDbEntity
  8
0
 62
     7
 48
0.2
100
AcDbCircle
 10
0.0
 20
0.0
 30
0.0
 40
1.0
100
AcDbArc
 50
180.0
 51
270.0
1001
AcDbBlockRepETag
1070
     1
1071
        5
1005
3BEB0
  0
ARC
  5
3BEB1
330
680
100
AcDbEntity
  8
0
 62
     7
 48
0.2
100
AcDbCircle
 10
0.0
 20
0.0
 30
0.0
 40
1.0
100
AcDbArc
 50
90.0
 51
180.0
1001
AcDbBlockRepETag
1070
     1
1071
        6
1005
3BEB1
  0
ENDBLK
  5
68B
330
680
100
AcDbEntity
  8
0
100
AcDbBlockEnd
  0
BLOCK
  5
698
330
697
100
AcDbEntity
  8
0
  6
ByBlock
 62
     0
370
    -2
100
AcDbBlockBegin
  2
_OPEN30
 70
     2
 10
0.0
 20
0.0
 30
0.0
  3
_OPEN30
  1

  0
LINE
  5
699
330
697
100
AcDbEntity
  8
0
  6
ByBlock
 62
     0
370
    -2
100
AcDbLine
 10
-1.0
 20
0.267949
 30
0.0
 11
0.0
 21
0.0
 31
0.0
  0
LINE
  5
69A
330
697
100
AcDbEntity
  8
0
  6
ByBlock
 62
     0
370
    -2
100
AcDbLine
 10
0.0
 20
0.0
 30
0.0
 11
-1.0
 21
-0.267949
 31
0.0
  0
LINE
  5
69B
330
697
100
AcDbEntity
  8
0
  6
ByBlock
 62
     0
370
    -2
100
AcDbLine
 10
0.0
 20
0.0
 30
0.0
 11
-1.0
 21
0.0
 31
0.0
  0
ENDBLK
  5
69C
330
697
100
AcDbEntity
  8
0
  6
ByBlock
 62
     0
370
    -2
100
AcDbBlockEnd
  0
BLOCK
  5
32F2
330
32F1
100
AcDbEntity
  8
0
100
AcDbBlockBegin
  2
_None
 70
     0
 10
0.0
 20
0.0
 30
0.0
  3
_None
  1

  0
ENDBLK
  5
32F3
330
32F1
100
AcDbEntity
  8
0
100
AcDbBlockEnd
  0
BLOCK
  5
34B2
330
34B1
100
AcDbEntity
  8
0
100
AcDbBlockBegin
  2
_OPEN
 70
     0
 10
0.0
 20
0.0
 30
0.0
  3
_OPEN
  1

  0
LINE
  5
34B3
330
34B1
100
AcDbEntity
  8
0
  6
ByBlock
 62
     0
100
AcDbLine
 10
0.0
 20
0.0
 30
0.0
 11
-1.0
 21
0.1766666667
 31
0.0
  0
LINE
  5
34B4
330
34B1
100
AcDbEntity
  8
0
  6
ByBlock
 62
     0
100
AcDbLine
 10
-1.0
 20
-0.1766666667
 30
0.0
 11
0.0
 21
0.0
 31
0.0
  0
LINE
  5
34B5
330
34B1
100
AcDbEntity
  8
0
  6
ByBlock
 62
     0
100
AcDbLine
 10
-1.0
 20
0.0
 30
0.0
 11
0.0
 21
0.0
 31
0.0
  0
ENDBLK
  5
34B6
330
34B1
100
AcDbEntity
  8
0
  6
ByBlock
 62
     0
100
AcDbBlockEnd
  0
BLOCK
  5
56506
330
564FE
100
AcDbEntity
  8
0
100
AcDbBlockBegin
  2
*D5
 70
     1
 10
0.0
 20
0.0
 30
0.0
  3
*D5
  1

  0
LINE
  5
565C1
330
564FE
100
AcDbEntity
  8
2
100
AcDbLine
 10
88.95499334836733
 20
12.69999999999999
 30
0.0
 11
125.1822315475813
 21
12.69999999999998
 31
0.0
  0
LINE
  5
565C2
330
564FE
100
AcDbEntity
  8
2
100
AcDbLine
 10
123.6822315475813
 20
-12.70000000000002
 30
0.0
 11
123.6822315475813
 21
9.199999999999981
 31
0.0
  0
SOLID
  5
565C3
330
564FE
100
AcDbEntity
  8
2
100
AcDbTrace
 10
123.0988982142479
 20
9.199999999999981
 30
0.0
 11
124.2655648809146
 21
9.199999999999976
 31
0.0
 12
123.6822315475813
 22
12.69999999999998
 32
0.0
 13
123.6822315475813
 23
12.69999999999998
 33
0.0
  0
MTEXT
  5
565C4
330
564FE
100
AcDbEntity
  8
2
100
AcDbMText
 10
119.6322315475813
 20
-10.05672126589934
 30
0.0
 40
3.5
 41
0.0
 71
     5
 72
     1
  1
\A1;%%c25.4 [%%C1.000"]
  7
simplex
 11
0.0000000000000001
 21
1.0
 31
0.0
 73
     1
 44
1.0
1001
ACAD
1000
MTEXTBEGIN
1070
    73
1070
     1
1070
    44
1040
1.0
1070
    74
1070
     0
1000
MTEXTEND
  0
POINT
  5
565C5
330
564FE
100
AcDbEntity
  8
Defpoints
 62
     0
100
AcDbPoint
 10
88.95331645347175
 20
-12.70000000000001
 30
0.0
  0
POINT
  5
565C6
330
564FE
100
AcDbEntity
  8
Defpoints
 62
     0
100
AcDbPoint
 10
88.95499334836733
 20
12.69999999999999
 30
0.0
  0
POINT
  5
565C7
330
564FE
100
AcDbEntity
  8
Defpoints
 62
     0
100
AcDbPoint
 10
123.6822315475813
 20
12.69999999999998
 30
0.0
  0
ENDBLK
  5
56507
330
564FE
100
AcDbEntity
  8
0
100
AcDbBlockEnd
  0
BLOCK
  5
56512
330
56508
100
AcDbEntity
  8
0
100
AcDbBlockBegin
  2
*D6
 70
     1
 10
0.0
 20
0.0
 30
0.0
  3
*D6
  1

  0
LINE
  5
565C8
330
56508
100
AcDbEntity
  8
2
100
AcDbLine
 10
64.60000000000002
 20
12.69999999999999
 30
0.0
 11
64.60000000000002
 21
35.66663365502563
 31
0.0
  0
LINE
  5
565C9
330
56508
100
AcDbEntity
  8
2
100
AcDbLine
 10
101.6
 20
0.000000000050008
 30
0.0
 11
101.6
 21
35.66663365502563
 31
0.0
  0
LINE
  5
565CA
330
56508
100
AcDbEntity
  8
2
100
AcDbLine
 10
68.10000000000002
 20
34.16663365502563
 30
0.0
 11
98.10000000000002
 21
34.16663365502563
 31
0.0
  0
SOLID
  5
565CB
330
56508
100
AcDbEntity
  8
2
100
AcDbTrace
 10
68.10000000000002
 20
34.74996698835897
 30
0.0
 11
68.10000000000002
 21
33.5833003216923
 31
0.0
 12
64.60000000000002
 22
34.16663365502563
 32
0.0
 13
64.60000000000002
 23
34.16663365502563
 33
0.0
  0
SOLID
  5
565CC
330
56508
100
AcDbEntity
  8
2
100
AcDbTrace
 10
98.10000000000002
 20
34.74996698835897
 30
0.0
 11
98.10000000000002
 21
33.5833003216923
 31
0.0
 12
101.6
 22
34.16663365502563
 32
0.0
 13
101.6
 23
34.16663365502563
 33
0.0
  0
MTEXT
  5
565CD
330
56508
100
AcDbEntity
  8
2
100
AcDbMText
 10
83.10000000000002
 20
38.21663365502563
 30
0.0
 40
3.5
 41
0.0
 71
     5
 72
     1
  1
\A1;37 [1.457"](MAX)
  7
simplex
 73
     1
 44
1.0
1001
ACAD
1000
MTEXTBEGIN
1070
    73
1070
     1
1070
    44
1040
1.0
1070
    74
1070
     0
1000
MTEXTEND
  0
POINT
  5
565CE
330
56508
100
AcDbEntity
  8
Defpoints
 62
     0
100
AcDbPoint
 10
64.60000000000002
 20
12.69999999999999
 30
0.0
  0
POINT
  5
565CF
330
56508
100
AcDbEntity
  8
Defpoints
 62
     0
100
AcDbPoint
 10
101.6
 20
0.000000000050008
 30
0.0
  0
POINT
  5
565D0
330
56508
100
AcDbEntity
  8
Defpoints
 62
     0
100
AcDbPoint
 10
101.6
 20
34.16663365502563
 30
0.0
  0
ENDBLK
  5
56513
330
56508
100
AcDbEntity
  8
0
100
AcDbBlockEnd
  0
BLOCK
  5
59894
330
5988A
100
AcDbEntity
  8
0
100
AcDbBlockBegin
  2
*D7
 70
     1
 10
0.0
 20
0.0
 30
0.0
  3
*D7
  1

  0
LINE
  5
59932
330
5988A
100
AcDbEntity
  8
sk2
100
AcDbLine
 10
-63.5
 20
8.524999999999586
 30
0.0
 11
-63.5
 21
63.20706332589033
 31
0.0
  0
LINE
  5
59933
330
5988A
100
AcDbEntity
  8
sk2
100
AcDbLine
 10
38.09999999999997
 20
-0.0000000000000071
 30
0.0
 11
38.09999999999997
 21
63.20706332589033
 31
0.0
  0
LINE
  5
59934
330
5988A
100
AcDbEntity
  8
sk2
100
AcDbLine
 10
-60.0
 20
61.70706332589031
 30
0.0
 11
34.59999999999997
 21
61.70706332589031
 31
0.0
  0
SOLID
  5
59935
330
5988A
100
AcDbEntity
  8
sk2
100
AcDbTrace
 10
-60.0
 20
62.29039665922365
 30
0.0
 11
-60.0
 21
61.12372999255697
 31
0.0
 12
-63.5
 22
61.70706332589031
 32
0.0
 13
-63.5
 23
61.70706332589031
 33
0.0
  0
SOLID
  5
59936
330
5988A
100
AcDbEntity
  8
sk2
100
AcDbTrace
 10
34.59999999999997
 20
62.29039665922365
 30
0.0
 11
34.59999999999997
 21
61.12372999255697
 31
0.0
 12
38.09999999999997
 22
61.70706332589031
 32
0.0
 13
38.09999999999997
 23
61.70706332589031
 33
0.0
  0
MTEXT
  5
59937
330
5988A
100
AcDbEntity
  8
sk2
100
AcDbMText
 10
-12.70000000000002
 20
65.75706332589033
 30
0.0
 40
3.5
 41
0.0
 71
     5
 72
     1
  1
\A1;101.6 [4.000"]
  7
simplex
 73
     1
 44
1.0
1001
ACAD
1000
MTEXTBEGIN
1070
    73
1070
     1
1070
    44
1040
1.0
1070
    74
1070
     0
1000
MTEXTEND
  0
POINT
  5
59938
330
5988A
100
AcDbEntity
  8
Defpoints
 62
     0
100
AcDbPoint
 10
-63.5
 20
8.524999999999586
 30
0.0
  0
POINT
  5
59939
330
5988A
100
AcDbEntity
  8
Defpoints
 62
     0
100
AcDbPoint
 10
38.09999999999997
 20
-0.0000000000000071
 30
0.0
  0
POINT
  5
5993A
330
5988A
100
AcDbEntity
  8
Defpoints
 62
     0
100
AcDbPoint
 10
38.09999999999997
 20
61.70706332589031
 30
0.0
  0
ENDBLK
  5
59895
330
5988A
100
AcDbEntity
  8
0
100
AcDbBlockEnd
  0
BLOCK
  5
598A1
330
59896
100
AcDbEntity
  8
0
100
AcDbBlockBegin
  2
*D8
 70
     1
 10
0.0
 20
0.0
 30
0.0
  3
*D8
  1

  0
LINE
  5
5993B
330
59896
100
AcDbEntity
  8
2
100
AcDbLine
 10
38.09999999999997
 20
-0.0000000000000071
 30
0.0
 11
38.09999999999997
 21
28.51787035061153
 31
0.0
  0
LINE
  5
5993C
330
59896
100
AcDbEntity
  8
2
100
AcDbLine
 10
22.22499999999997
 20
7.9375
 30
0.0
 11
22.22499999999997
 21
28.51787035061153
 31
0.0
  0
LINE
  5
5993D
330
59896
100
AcDbEntity
  8
2
100
AcDbLine
 10
34.59999999999997
 20
27.01787035061153
 30
0.0
 11
25.72499999999997
 21
27.01787035061153
 31
0.0
  0
LINE
  5
5993E
330
59896
100
AcDbEntity
  8
2
100
AcDbLine
 10
22.22499999999997
 20
27.01787035061153
 30
0.0
 11
-47.42482949072168
 21
27.01787035061153
 31
0.0
  0
SOLID
  5
5993F
330
59896
100
AcDbEntity
  8
2
100
AcDbTrace
 10
34.59999999999997
 20
27.60120368394487
 30
0.0
 11
34.59999999999997
 21
26.4345370172782
 31
0.0
 12
38.09999999999997
 22
27.01787035061153
 32
0.0
 13
38.09999999999997
 23
27.01787035061153
 33
0.0
  0
SOLID
  5
59940
330
59896
100
AcDbEntity
  8
2
100
AcDbTrace
 10
25.72499999999997
 20
27.60120368394487
 30
0.0
 11
25.72499999999997
 21
26.4345370172782
 31
0.0
 12
22.22499999999997
 22
27.01787035061153
 32
0.0
 13
22.22499999999997
 23
27.01787035061153
 33
0.0
  0
MTEXT
  5
59941
330
59896
100
AcDbEntity
  8
2
100
AcDbMText
 10
-18.29149615738834
 20
31.06787035061153
 30
0.0
 40
3.5
 41
0.0
 71
     5
 72
     1
  1
\A1;15.875 [.625"](MAX)
  7
simplex
 73
     1
 44
1.0
1001
ACAD
1000
MTEXTBEGIN
1070
    73
1070
     1
1070
    44
1040
1.0
1070
    74
1070
     0
1000
MTEXTEND
  0
POINT
  5
59942
330
59896
100
AcDbEntity
  8
Defpoints
 62
     0
100
AcDbPoint
 10
38.09999999999997
 20
-0.0000000000000071
 30
0.0
  0
POINT
  5
59943
330
59896
100
AcDbEntity
  8
Defpoints
 62
     0
100
AcDbPoint
 10
22.22499999999997
 20
7.9375
 30
0.0
  0
POINT
  5
59944
330
59896
100
AcDbEntity
  8
Defpoints
 62
     0
100
AcDbPoint
 10
22.22499999999997
 20
27.01787035061153
 30
0.0
  0
ENDBLK
  5
598A2
330
59896
100
AcDbEntity
  8
0
100
AcDbBlockEnd
  0
BLOCK
  5
598AB
330
598A3
100
AcDbEntity
  8
0
100
AcDbBlockBegin
  2
*D9
 70
     1
 10
0.0
 20
0.0
 30
0.0
  3
*D9
  1

  0
LINE
  5
59945
330
598A3
100
AcDbEntity
  8
2
100
AcDbLine
 10
30.21249999999998
 20
7.9375
 30
0.0
 11
57.2613160195781
 21
7.937499999999992
 31
0.0
  0
LINE
  5
59946
330
598A3
100
AcDbEntity
  8
2
100
AcDbLine
 10
55.76131601957809
 20
4.437499999999992
 30
0.0
 11
55.76131601957809
 21
-7.937500000000007
 31
0.0
  0
LINE
  5
59947
330
598A3
100
AcDbEntity
  8
2
100
AcDbLine
 10
55.76131601957809
 20
-7.937500000000007
 30
0.0
 11
55.76131601957808
 21
-61.53750000000001
 31
0.0
  0
SOLID
  5
59948
330
598A3
100
AcDbEntity
  8
2
100
AcDbTrace
 10
55.17798268624474
 20
4.437499999999992
 30
0.0
 11
56.34464935291142
 21
4.437499999999992
 31
0.0
 12
55.76131601957809
 22
7.937499999999992
 32
0.0
 13
55.76131601957809
 23
7.937499999999992
 33
0.0
  0
MTEXT
  5
59949
330
598A3
100
AcDbEntity
  8
2
100
AcDbMText
 10
51.71131601957809
 20
-36.4875
 30
0.0
 40
3.5
 41
0.0
 71
     5
 72
     1
  1
\A1;%%c15.875 [%%C.625"]
  7
simplex
 11
0.0000000000000001
 21
1.0
 31
0.0
 73
     1
 44
1.0
1001
ACAD
1000
MTEXTBEGIN
1070
    73
1070
     1
1070
    44
1040
1.0
1070
    74
1070
     0
1000
MTEXTEND
  0
POINT
  5
5994A
330
598A3
100
AcDbEntity
  8
Defpoints
 62
     0
100
AcDbPoint
 10
30.21249999999998
 20
-7.9375
 30
0.0
  0
POINT
  5
5994B
330
598A3
100
AcDbEntity
  8
Defpoints
 62
     0
100
AcDbPoint
 10
30.21249999999998
 20
7.9375
 30
0.0
  0
POINT
  5
5994C
330
598A3
100
AcDbEntity
  8
Defpoints
 62
     0
100
AcDbPoint
 10
55.76131601957809
 20
7.937499999999992
 30
0.0
  0
ENDBLK
  5
598AC
330
598A3
100
AcDbEntity
  8
0
100
AcDbBlockEnd
  0
BLOCK
  5
598B7
330
598AD
100
AcDbEntity
  8
0
100
AcDbBlockBegin
  2
*D10
 70
     1
 10
0.0
 20
0.0
 30
0.0
  3
*D10
  1

  0
LINE
  5
5994D
330
598AD
100
AcDbEntity
  8
2
100
AcDbLine
 10
0.0
 20
9.525000000000003
 30
0.0
 11
0.0000000000000026
 21
51.43114133264372
 31
0.0
  0
LINE
  5
5994E
330
598AD
100
AcDbEntity
  8
2
100
AcDbLine
 10
38.09999999999997
 20
-0.0000000000000071
 30
0.0
 11
38.09999999999997
 21
51.43114133264372
 31
0.0
  0
LINE
  5
5994F
330
598AD
100
AcDbEntity
  8
2
100
AcDbLine
 10
3.500000000000001
 20
49.93114133264374
 30
0.0
 11
34.59999999999997
 21
49.93114133264374
 31
0.0
  0
SOLID
  5
59950
330
598AD
100
AcDbEntity
  8
2
100
AcDbTrace
 10
3.500000000000001
 20
50.51447466597707
 30
0.0
 11
3.500000000000001
 21
49.3478079993104
 31
0.0
 12
0.0000000000000025
 22
49.93114133264374
 32
0.0
 13
0.0000000000000025
 23
49.93114133264374
 33
0.0
  0
SOLID
  5
59951
330
598AD
100
AcDbEntity
  8
2
100
AcDbTrace
 10
34.59999999999997
 20
50.51447466597707
 30
0.0
 11
34.59999999999997
 21
49.3478079993104
 31
0.0
 12
38.09999999999997
 22
49.93114133264374
 32
0.0
 13
38.09999999999997
 23
49.93114133264374
 33
0.0
  0
MTEXT
  5
59952
330
598AD
100
AcDbEntity
  8
2
100
AcDbMText
 10
18.79488076343315
 20
53.98114133264373
 30
0.0
 40
3.5
 41
0.0
 71
     5
 72
     1
  1
\A1;38.1 [1.500"]
  7
simplex
 73
     1
 44
1.0
1001
ACAD
1000
MTEXTBEGIN
1070
    73
1070
     1
1070
    44
1040
1.0
1070
    74
1070
     0
1000
MTEXTEND
  0
POINT
  5
59953
330
598AD
100
AcDbEntity
  8
Defpoints
 62
     0
100
AcDbPoint
 10
0.0
 20
9.525000000000003
 30
0.0
  0
POINT
  5
59954
330
598AD
100
AcDbEntity
  8
Defpoints
 62
     0
100
AcDbPoint
 10
38.09999999999997
 20
-0.0000000000000071
 30
0.0
  0
POINT
  5
59955
330
598AD
100
AcDbEntity
  8
Defpoints
 62
     0
100
AcDbPoint
 10
38.09999999999997
 20
49.93114133264374
 30
0.0
  0
ENDBLK
  5
598B8
330
598AD
100
AcDbEntity
  8
0
100
AcDbBlockEnd
  0
BLOCK
  5
598C1
330
598B9
100
AcDbEntity
  8
0
100
AcDbBlockBegin
  2
*D11
 70
     1
 10
0.0
 20
0.0
 30
0.0
  3
*D11
  1

  0
LINE
  5
59969
330
598B9
100
AcDbEntity
  8
2
100
AcDbLine
 10
76.84870313220534
 20
40.70817956786128
 30
0.0
 11
38.78274276312744
 21
7.516959910531533
 31
0.0
  0
MTEXT
  5
5996A
330
598B9
100
AcDbEntity
  8
2
100
AcDbMText
 10
57.94441692989396
 20
29.59814072089502
 30
0.0
 40
3.5
 41
0.0
 71
     5
 72
     1
  1
\A1;R7.94 [R.313"]
  7
simplex
 11
0.7537186808157089
 21
0.6571971927735448
 31
0.0
 73
     1
 44
1.0
1001
ACAD
1000
MTEXTBEGIN
1070
    73
1070
     1
1070
    44
1040
1.0
1070
    74
1070
     0
1000
MTEXTEND
  0
SOLID
  5
5996B
330
598B9
100
AcDbEntity
  8
2
100
AcDbTrace
 10
38.39937773400954
 20
7.956629141007362
 30
0.0
 11
39.16610779224535
 21
7.077290680055705
 31
0.0
 12
36.14472738027246
 22
5.216769735824128
 32
0.0
 13
36.14472738027246
 23
5.216769735824128
 33
0.0
  0
LINE
  5
5996C
330
598B9
100
AcDbEntity
  8
2
100
AcDbLine
 10
30.07020105459575
 20
-0.0013759747977957
 30
0.0
 11
30.25020105459575
 21
-0.0013759747977975
 31
0.0
  0
LINE
  5
5996D
330
598B9
100
AcDbEntity
  8
2
100
AcDbLine
 10
30.16020105459575
 20
-0.0913759747977974
 30
0.0
 11
30.16020105459574
 21
0.0886240252022006
 31
0.0
  0
POINT
  5
5996E
330
598B9
100
AcDbEntity
  8
Defpoints
 62
     0
100
AcDbPoint
 10
36.14472738027246
 20
5.216769735824128
 30
0.0
  0
POINT
  5
5996F
330
598B9
100
AcDbEntity
  8
Defpoints
 62
     0
100
AcDbPoint
 10
30.16020105459575
 20
-0.0013759747977993
 30
0.0
  0
ENDBLK
  5
598C2
330
598B9
100
AcDbEntity
  8
0
100
AcDbBlockEnd
  0
BLOCK
  5
598F0
330
598E6
100
AcDbEntity
  8
0
100
AcDbBlockBegin
  2
*D12
 70
     1
 10
0.0
 20
0.0
 30
0.0
  3
*D12
  1

  0
LINE
  5
59970
330
598E6
100
AcDbEntity
  8
sk2
100
AcDbLine
 10
-62.49999999999989
 20
-9.525000000000076
 30
0.0
 11
-89.26625540523593
 21
-9.525000000000067
 31
0.0
  0
LINE
  5
59971
330
598E6
100
AcDbEntity
  8
sk2
100
AcDbLine
 10
-62.49999999999945
 20
9.525000000000012
 30
0.0
 11
-89.26625540523593
 21
9.525000000000019
 31
0.0
  0
LINE
  5
59972
330
598E6
100
AcDbEntity
  8
sk2
100
AcDbLine
 10
-87.76625540523594
 20
-6.025000000000067
 30
0.0
 11
-87.76625540523594
 21
6.025000000000019
 31
0.0
  0
SOLID
  5
59973
330
598E6
100
AcDbEntity
  8
sk2
100
AcDbTrace
 10
-88.34958873856924
 20
-6.025000000000067
 30
0.0
 11
-87.18292207190263
 21
-6.025000000000067
 31
0.0
 12
-87.76625540523594
 22
-9.525000000000067
 32
0.0
 13
-87.76625540523594
 23
-9.525000000000067
 33
0.0
  0
SOLID
  5
59974
330
598E6
100
AcDbEntity
  8
sk2
100
AcDbTrace
 10
-88.34958873856924
 20
6.025000000000019
 30
0.0
 11
-87.18292207190263
 21
6.025000000000019
 31
0.0
 12
-87.76625540523594
 22
9.525000000000019
 32
0.0
 13
-87.76625540523594
 23
9.525000000000019
 33
0.0
  0
MTEXT
  5
59975
330
598E6
100
AcDbEntity
  8
sk2
100
AcDbMText
 10
-91.81625540523594
 20
-0.0000000000000385
 30
0.0
 40
3.5
 41
0.0
 71
     5
 72
     1
  1
\A1;%%C19.05 [%%C.750"]
  7
simplex
 11
0.0000000000000001
 21
1.0
 31
0.0
 73
     1
 44
1.0
1001
ACAD
1000
MTEXTBEGIN
1070
    73
1070
     1
1070
    44
1040
1.0
1070
    74
1070
     0
1000
MTEXTEND
  0
POINT
  5
59976
330
598E6
100
AcDbEntity
  8
Defpoints
 62
     0
100
AcDbPoint
 10
-62.49999999999989
 20
-9.525000000000076
 30
0.0
  0
POINT
  5
59977
330
598E6
100
AcDbEntity
  8
Defpoints
 62
     0
100
AcDbPoint
 10
-62.49999999999945
 20
9.525000000000012
 30
0.0
  0
POINT
  5
59978
330
598E6
100
AcDbEntity
  8
Defpoints
 62
     0
100
AcDbPoint
 10
-87.76625540523594
 20
9.525000000000019
 30
0.0
  0
ENDBLK
  5
598F1
330
598E6
100
AcDbEntity
  8
0
100
AcDbBlockEnd
  0
BLOCK
  5
598FD
330
598F2
100
AcDbEntity
  8
0
100
AcDbBlockBegin
  2
*D13
 70
     1
 10
0.0
 20
0.0
 30
0.0
  3
*D13
  1

  0
LINE
  5
5995F
330
598F2
100
AcDbEntity
  8
2
100
AcDbLine
 10
38.09999999999997
 20
-0.0000000000000071
 30
0.0
 11
38.09999999999997
 21
39.89227037036852
 31
0.0
  0
LINE
  5
59960
330
598F2
100
AcDbEntity
  8
2
100
AcDbLine
 10
12.69999999999999
 20
5.700000000000017
 30
0.0
 11
12.69999999999999
 21
39.89227037036852
 31
0.0
  0
LINE
  5
59961
330
598F2
100
AcDbEntity
  8
2
100
AcDbLine
 10
34.59999999999997
 20
38.39227037036852
 30
0.0
 11
16.19999999999999
 21
38.39227037036852
 31
0.0
  0
LINE
  5
59962
330
598F2
100
AcDbEntity
  8
2
100
AcDbLine
 10
12.69999999999999
 20
38.39227037036852
 30
0.0
 11
-31.89851943111425
 21
38.39227037036852
 31
0.0
  0
SOLID
  5
59963
330
598F2
100
AcDbEntity
  8
2
100
AcDbTrace
 10
34.59999999999997
 20
38.97560370370186
 30
0.0
 11
34.59999999999997
 21
37.80893703703519
 31
0.0
 12
38.09999999999997
 22
38.39227037036852
 32
0.0
 13
38.09999999999997
 23
38.39227037036852
 33
0.0
  0
SOLID
  5
59964
330
598F2
100
AcDbEntity
  8
2
100
AcDbTrace
 10
16.19999999999999
 20
38.97560370370186
 30
0.0
 11
16.19999999999999
 21
37.80893703703519
 31
0.0
 12
12.69999999999999
 22
38.39227037036852
 32
0.0
 13
12.69999999999999
 23
38.39227037036852
 33
0.0
  0
MTEXT
  5
59965
330
598F2
100
AcDbEntity
  8
2
100
AcDbMText
 10
-12.97351943111425
 20
42.44227037036853
 30
0.0
 40
3.5
 41
0.0
 71
     5
 72
     1
  1
\A1;25.4 [1.000"]
  7
simplex
 73
     1
 44
1.0
1001
ACAD
1000
MTEXTBEGIN
1070
    73
1070
     1
1070
    44
1040
1.0
1070
    74
1070
     0
1000
MTEXTEND
  0
POINT
  5
59966
330
598F2
100
AcDbEntity
  8
Defpoints
 62
     0
100
AcDbPoint
 10
38.09999999999997
 20
-0.0000000000000071
 30
0.0
  0
POINT
  5
59967
330
598F2
100
AcDbEntity
  8
Defpoints
 62
     0
100
AcDbPoint
 10
12.69999999999999
 20
5.700000000000017
 30
0.0
  0
POINT
  5
59968
330
598F2
100
AcDbEntity
  8
Defpoints
 62
     0
100
AcDbPoint
 10
12.69999999999999
 20
38.39227037036852
 30
0.0
  0
ENDBLK
  5
598FE
330
598F2
100
AcDbEntity
  8
0
100
AcDbBlockEnd
  0
ENDSEC
  0
SECTION
  2
ENTITIES
  0
INSERT
  5
68C
330
1F
100
AcDbEntity
  8
0
100
AcDbBlockReference
  2
zero block
 10
0.0
 20
0.0
 30
0.0
  0
DIMENSION
  5
59764
330
1F
100
AcDbEntity
  8
sk2
100
AcDbDimension
  2
*D7
 10
38.09999999999997
 20
61.70706332589031
 30
0.0
 11
-12.70000000000002
 21
61.70706332589031
 31
0.0
 70
   160
 71
     5
 42
101.5999999999999
  3
\M+18352\M+18373\M+1815B - ISO-25
100
AcDbAlignedDimension
 13
-63.5
 23
8.524999999999586
 33
0.0
 14
38.09999999999997
 24
-0.0000000000000071
 34
0.0
 50
180.0
100
AcDbRotatedDimension
1001
ACAD
1000
DSTYLE
1002
{
1070
     4
1000
"
1070
    40
1040
1.0
1070
   143
1040
0.03937
1070
   170
1070
     1
1070
   171
1070
     3
1070
   271
1070
     8
1070
   285
1070
     4
1002
}
  0
LINE
  5
59765
330
1F
100
AcDbEntity
  8
sk3
100
AcDbLine
 10
-61.76794919243102
 20
1.500000000000006
 30
0.0
 11
20.6
 21
1.5
 31
0.0
  0
LINE
  5
59766
330
1F
100
AcDbEntity
  8
sk1
100
AcDbLine
 10
-62.49999999999989
 20
9.525000000000012
 30
0.0
 11
0.0
 21
9.525000000000003
 31
0.0
  0
LINE
  5
59767
330
1F
100
AcDbEntity
  8
sk1
100
AcDbLine
 10
-62.49999999999989
 20
-9.52499999999997
 30
0.0
 11
0.0
 21
-9.524999999999975
 31
0.0
  0
LINE
  5
59768
330
1F
100
AcDbEntity
  8
sk3
100
AcDbLine
 10
-61.76794919243102
 20
-1.499999999999992
 30
0.0
 11
20.6
 21
-1.5
 31
0.0
  0
LINE
  5
59769
330
1F
100
AcDbEntity
  8
4
100
AcDbLine
 10
0.0
 20
0.0
 30
0.0
 11
38.70843666612717
 21
-0.0000000000000071
 31
0.0
  0
DIMENSION
  5
5976A
330
1F
100
AcDbEntity
  8
2
100
AcDbDimension
  2
*D8
 10
22.22499999999997
 20
27.01787035061153
 30
0.0
 11
-18.29149615738834
 21
27.01787035061153
 31
0.0
 70
   160
  1
<>(MAX)
 71
     5
 42
15.875
  3
\M+18352\M+18373\M+1815B - ISO-25
100
AcDbAlignedDimension
 13
38.09999999999997
 23
-0.0000000000000071
 33
0.0
 14
22.22499999999997
 24
7.9375
 34
0.0
 50
180.0
100
AcDbRotatedDimension
1001
ACAD
1000
DSTYLE
1002
{
1070
     4
1000
"
1070
    40
1040
1.0
1070
   143
1040
0.03937
1070
   170
1070
     1
1070
   171
1070
     3
1070
   271
1070
     8
1070
   285
1070
     4
1002
}
  0
DIMENSION
  5
5976B
330
1F
100
AcDbEntity
  8
2
100
AcDbDimension
  2
*D9
 10
55.76131601957809
 20
7.937499999999992
 30
0.0
 11
55.76131601957809
 21
-36.4875
 31
0.0
 70
   160
  1
%%c<>
 71
     5
 42
15.875
  3
\M+18352\M+18373\M+1815B - ISO-25
100
AcDbAlignedDimension
 13
30.21249999999998
 23
-7.9375
 33
0.0
 14
30.21249999999998
 24
7.9375
 34
0.0
 50
270.0
100
AcDbRotatedDimension
1001
ACAD
1000
DSTYLE
1002
{
1070
    75
1070
     1
1070
   343
1005
32F1
1070
   173
1070
     1
1070
   344
1005
0
1070
     4
1000
%%C[]"
1070
    40
1040
1.0
1070
   143
1040
0.03937
1070
   170
1070
     1
1070
   171
1070
     3
1070
   271
1070
     8
1070
   285
1070
     4
1002
}
  0
DIMENSION
  5
5976C
330
1F
100
AcDbEntity
  8
2
100
AcDbDimension
  2
*D10
 10
38.09999999999997
 20
49.93114133264374
 30
0.0
 11
18.79488076343315
 21
49.93114133264374
 31
0.0
 70
   160
 71
     5
 42
38.09999999999997
  3
\M+18352\M+18373\M+1815B - ISO-25
100
AcDbAlignedDimension
 13
0.0
 23
9.525000000000003
 33
0.0
 14
38.09999999999997
 24
-0.0000000000000071
 34
0.0
 50
180.0
100
AcDbRotatedDimension
1001
ACAD
1000
DSTYLE
1002
{
1070
     4
1000
"
1070
    40
1040
1.0
1070
   143
1040
0.03937
1070
   170
1070
     1
1070
   171
1070
     3
1070
   271
1070
     8
1070
   285
1070
     4
1002
}
  0
LWPOLYLINE
  5
5976D
330
1F
100
AcDbEntity
  8
1
100
AcDbPolyline
 90
       31
 70
     0
 43
0.0
 10
15.38716827179999
 20
7.108184448499996
 42
-1.359808038480206
 10
15.3938673039612
 20
7.146939810057432
 42
-0.0323823920042845
 10
15.46301366657491
 20
7.159927415939506
 42
-0.0099834229830392
 10
15.5329356525591
 20
7.167508840018513
 42
-0.0056937869265719
 10
15.6031101997782
 20
7.172963438251315
 10
15.67335262605951
 20
7.177155005814825
 10
15.74364555344988
 20
7.180521156527419
 10
15.81396461189212
 20
7.183285582427487
 10
15.88429919163249
 20
7.185592850954407
 10
15.95464517156668
 20
7.187540168117407
 10
16.02499860100619
 20
7.18919661557112
 10
16.09535719810281
 20
7.190613236545991
 10
16.16571958796359
 20
7.191829247535593
 10
16.23608471294332
 20
7.192875962192744
 10
16.3064518383635
 20
7.193777856886298
 10
16.37682044501699
 20
7.194555662746836
 10
16.44719016422283
 20
7.195225999627922
 10
16.51756070689882
 20
7.195803367910598
 10
16.58793187187791
 20
7.196299398296587
 10
16.65830349913352
 20
7.196724797299082
 10
16.72867547591761
 20
7.197087967853832
 10
16.80002122600069
 20
7.197400672292218
 10
16.87039365988002
 20
7.197660903791898
 10
16.94076623964992
 20
7.197878327841322
 10
17.0111389255984
 20
7.198057858204093
 10
17.08151168826708
 20
7.198203578866412
 10
17.15188450828168
 20
7.198319008678587
 10
17.22225736981488
 20
7.198407570164221
 10
17.29263026047567
 20
7.198470558454232
 10
17.36300316872251
 20
7.198507047572597
 10
17.43281288989999
 20
7.198516047600008
  0
ARC
  5
5976E
330
1F
100
AcDbEntity
  8
1
100
AcDbCircle
 10
8.095079399099972
 20
-9.348590444299986
 30
0.0
 40
18.0
100
AcDbArc
 50
43.66962317140074
 51
66.10160046079958
  0
LINE
  5
5976F
330
1F
100
AcDbEntity
  8
1
100
AcDbLine
 10
13.0496340597177
 20
-7.199999999999986
 30
0.0
 11
24.30032989935427
 21
-7.199999999999986
 31
0.0
  0
LINE
  5
59770
330
1F
100
AcDbEntity
  8
1
100
AcDbLine
 10
24.30032989935427
 20
-7.199999999999986
 30
0.0
 11
24.3176859443
 21
-7.199999999999986
 31
0.0
  0
LINE
  5
59771
330
1F
100
AcDbEntity
  8
1
100
AcDbLine
 10
13.0496340597177
 20
7.199999999999902
 30
0.0
 11
21.65367572556986
 21
7.199999999999902
 31
0.0
  0
LWPOLYLINE
  5
59772
330
1F
100
AcDbEntity
  8
1
100
AcDbPolyline
 90
       19
 70
     0
 43
0.0
 10
31.17121767589998
 20
-5.988443172499983
 42
0.0250270038735482
 10
31.31348833958032
 20
-5.929717649380477
 42
0.0247912030440342
 10
31.44918077620366
 20
-5.857050654719927
 42
0.0239409321545379
 10
31.57717180310482
 20
-5.771540271296601
 42
0.0232320690225965
 10
31.69653459177852
 20
-5.674342853560175
 42
0.0223864324816051
 10
31.80654589367583
 20
-5.566670625817521
 42
0.0214561469697827
 10
31.90670930097105
 20
-5.449776619830004
 42
0.0203896856766074
 10
31.99675698182233
 20
-5.324916708027672
 42
0.0192154297415802
 10
32.07663984863984
 20
-5.193316445994098
 42
0.018013501341374
 10
32.14651075323838
 20
-5.056134309975561
 42
0.0167489065696622
 10
32.20668960189062
 20
-4.914424565971898
 42
0.0154696486518554
 10
32.25761445612244
 20
-4.769133783428968
 42
0.014192301806124
 10
32.2998421906733
 20
-4.6210685249209
 42
0.0130669247882855
 10
32.33394584439037
 20
-4.47091952724392
 42
0.0120036628741839
 10
32.36048291343269
 20
-4.319249575187284
 42
0.0107326134671942
 10
32.3800840781924
 20
-4.166538163892766
 42
0.0093739618828959
 10
32.39353223230484
 20
-4.013147754996396
 42
0.0090730728626152
 10
32.40140156227733
 20
-3.859348485607596
 42
0.0095106208012851
 10
32.40355107369999
 20
-3.705377145100015
  0
LWPOLYLINE
  5
59773
330
1F
100
AcDbEntity
  8
1
100
AcDbPolyline
 90
       28
 70
     0
 43
0.0
 10
36.44196456190002
 20
-0.6336200122999927
 42
-0.0132019341266855
 10
36.39951752486604
 20
-0.9291546002193127
 42
-0.0132231861587402
 10
36.34147821824661
 20
-1.222040049666502
 42
-0.0128910726644786
 10
36.26823351616787
 20
-1.511496014581588
 42
-0.0126658396836439
 10
36.18029958633133
 20
-1.796834713559774
 42
-0.0124415431234933
 10
36.07815471255078
 20
-2.077401038463277
 42
-0.012249480027037
 10
35.96228862734398
 20
-2.352585606790909
 42
-0.0120946338454868
 10
35.83316987038268
 20
-2.621806911524998
 42
-0.0119733209563981
 10
35.69124920283594
 20
-2.884505425162187
 42
-0.0118852503911639
 10
35.53696180080641
 20
-3.140137132244496
 42
-0.0118248848981938
 10
35.37073226949292
 20
-3.388169626297475
 42
-0.0117867992460785
 10
35.19298148970854
 20
-3.628079145788298
 42
-0.0117689523956569
 10
35.00413116003216
 20
-3.859352337719009
 42
-0.0117639703976663
 10
34.80461005101955
 20
-4.081486675352492
 42
-0.0117685591329028
 10
34.59485982498467
 20
-4.293987280453278
 42
-0.0117867615634254
 10
34.37533553540045
 20
-4.496376541643606
 42
-0.0118016041486826
 10
34.14651166335183
 20
-4.68818920405897
 42
-0.0118296063823573
 10
33.90888116623666
 20
-4.868976994507391
 42
-0.0118518525029393
 10
33.66295886243154
 20
-5.038313529048592
 42
-0.011879931259034
 10
33.40927825514649
 20
-5.195789752335257
 42
-0.0119075743613813
 10
33.14839695021061
 20
-5.341025771762075
 42
-0.0119327336924435
 10
32.88088956783844
 20
-5.473660921265667
 42
-0.0119662583519161
 10
32.60735062104141
 20
-5.59336542415957
 42
-0.0119792729433156
 10
32.32839337238767
 20
-5.699837778949699
 42
-0.0120076177751877
 10
32.04465801156101
 20
-5.792810144337187
 42
-0.0120470414347877
 10
31.75678214940018
 20
-5.872031472259094
 42
-0.012061546122358
 10
31.46538908065219
 20
-5.937282339658565
 42
-0.0119953108948742
 10
31.17121767589998
 20
-5.988443172499983
  0
LWPOLYLINE
  5
59774
330
1F
100
AcDbEntity
  8
1
100
AcDbPolyline
 90
       13
 70
     0
 43
0.0
 10
30.0
 20
-6.918092131900009
 42
0.0117569731005769
 10
30.35321064217499
 20
-6.909758380354674
 42
0.011799953848539
 10
30.70566236608238
 20
-6.884798583637752
 42
0.011791129279848
 10
31.05654074719547
 20
-6.843243745871574
 42
0.0117870813749217
 10
31.40506844749143
 20
-6.785195999346682
 42
0.0117962383379485
 10
31.75047376632267
 20
-6.710781381705088
 42
0.0117948653961504
 10
32.09198508825881
 20
-6.620160532084071
 42
0.0117983918974047
 10
32.42884098735607
 20
-6.513531091955406
 42
0.0118068605310284
 10
32.76029078106728
 20
-6.391124161347675
 42
0.0118043799644796
 10
33.08559321553389
 20
-6.253209851314692
 42
0.011818733344344
 10
33.40401262430692
 20
-6.100090723164902
 42
0.0118375993163923
 10
33.7148525077472
 20
-5.932070876627115
 42
0.0117892379511499
 10
34.01740539269996
 20
-5.749560408299997
  0
LWPOLYLINE
  5
59775
330
1F
100
AcDbEntity
  8
1
100
AcDbPolyline
 90
       57
 70
     0
 43
0.0
 10
30.21249999999998
 20
-7.062253327500002
 10
30.27443584228894
 20
-7.061981726751781
 10
30.33720236039568
 20
-7.061152272792923
 10
30.39996060829998
 20
-7.059764909699992
 10
30.46186754465879
 20
-7.057849380176492
 10
30.52459078875159
 20
-7.055354094513262
 10
30.58729189499997
 20
-7.052301262399991
 10
30.64912617998783
 20
-7.048743124263495
 10
30.71176099116951
 20
-7.044583771768174
 10
30.77435880679997
 20
-7.039867665100017
 10
30.8360768556779
 20
-7.034669427875569
 10
30.89857863214803
 20
-7.028848992880767
 10
30.96102839710011
 20
-7.022473018700026
 10
31.02258671612702
 20
-7.015638357631593
 10
31.0849120536368
 20
-7.008160904368394
 10
31.14717006820001
 20
-7.000129564699988
 10
31.20852527657968
 20
-6.991663299971263
 10
31.27063134051212
 20
-6.982533932455169
 10
31.33265401009999
 20
-6.972852863199988
 10
31.39376286853872
 20
-6.962760952864897
 10
31.45560594430498
 20
-6.951986022899005
 10
31.51734909380002
 20
-6.940662137000003
 10
31.57816853661348
 20
-6.928951688261178
 10
31.63970380721963
 20
-6.916538971396504
 10
31.70112385390002
 20
-6.903580308700012
 10
31.76161102151497
 20
-6.890259580959991
 10
31.82279477770862
 20
-6.876217912359066
 10
31.88384922600011
 20
-6.861633465899983
 10
31.94396149259785
 20
-6.846711849435989
 10
32.00475101120549
 20
-6.831051043722594
 10
32.06539768969998
 20
-6.814850857200012
 10
32.12509269085132
 20
-6.798338859413489
 10
32.18544505904981
 20
-6.781069962979414
 10
32.24564118030003
 20
-6.763265409200016
 10
32.30487684525952
 20
-6.745174659346503
 10
32.36474864524292
 20
-6.726310119028084
 10
32.42445093859999
 20
-6.706913977400006
 10
32.48318552482937
 20
-6.687257232655667
 10
32.54253458226305
 20
-6.66681039880828
 10
32.60170097980012
 20
-6.645836345600002
 10
32.65989309850221
 20
-6.624627466457786
 10
32.71867859158493
 20
-6.602612431063986
 10
32.7772678348
 20
-6.580075076100007
 10
32.8348764751949
 20
-6.55732900421993
 10
32.89305752601269
 20
-6.533761045363603
 10
32.95102791980003
 20
-6.509676404200013
 10
33.00801248135917
 20
-6.485409163221076
 10
33.06554764121762
 20
-6.460305039629189
 10
33.12285739909999
 20
-6.434690502600004
 10
33.17917772668881
 20
-6.408919200110573
 10
33.23602603332854
 20
-6.38229679482569
 10
33.29263496630011
 20
-6.355170386699994
 10
33.3482513818908
 20
-6.327913187317419
 10
33.40437327519703
 20
-6.299791034160313
 10
33.46024253579998
 20
-6.271171379999997
 10
33.51511595645046
 20
-6.242447417196415
 10
33.54319622050002
 20
-6.227510316599987
  0
LWPOLYLINE
  5
59776
330
1F
100
AcDbEntity
  8
1
100
AcDbPolyline
 90
      100
 70
     0
 43
0.0
 10
36.21073111609997
 20
-4.895797873300018
 10
36.16666411345352
 20
-4.949297216610999
 10
36.12211985683365
 20
-5.002400076596898
 10
36.07710202504183
 20
-5.055102018854028
 10
36.03161422145257
 20
-5.107398848948584
 10
35.98566007802208
 20
-5.159286389284268
 10
35.93924328500441
 20
-5.210760470732167
 10
35.89236756043943
 20
-5.261816970404999
 10
35.84503666039565
 20
-5.312451797307573
 10
35.79725437905893
 20
-5.362660893619683
 10
35.74902454480298
 20
-5.412440235233681
 10
35.70035102253382
 20
-5.461785832788769
 10
35.65123771370219
 20
-5.510693732585798
 10
35.60168855365497
 20
-5.559160014747424
 10
35.55170751273335
 20
-5.607180794785428
 10
35.50129859719408
 20
-5.654752225291794
 10
35.45046584650441
 20
-5.701870493775011
 10
35.39921333361252
 20
-5.748531823469901
 10
35.34754516658467
 20
-5.794732475871909
 10
35.29546548609289
 20
-5.840468748649697
 10
35.24297846489458
 20
-5.885736975618185
 10
35.19008830977981
 20
-5.930533529701903
 10
35.13679925962094
 20
-5.974854821431428
 10
35.08311558413118
 20
-6.01869729802417
 10
35.02904158569299
 20
-6.062057446306916
 10
34.97458159823765
 20
-6.10493179216928
 10
34.91973998542301
 20
-6.147316898890102
 10
34.86452114212199
 20
-6.189209369698607
 10
34.80892949420058
 20
-6.230605848383283
 10
34.7529694962164
 20
-6.271503016911764
 10
34.69664563230072
 20
-6.311897597256005
 10
34.63996241692513
 20
-6.351786353326672
 10
34.58292439237601
 20
-6.391166088257079
 10
34.52553612899443
 20
-6.430033645328506
 10
34.46780222650119
 20
-6.468385910817608
 10
34.40972731158132
 20
-6.506219811277992
 10
34.35131603751911
 20
-6.543532313620666
 10
34.29257308589968
 20
-6.5803204285804
 10
34.2335031645178
 20
-6.616581208422508
 10
34.17411100641431
 20
-6.652311746106788
 10
34.1144013714985
 20
-6.68750917873718
 10
34.05437904520892
 20
-6.722170686386284
 10
33.99404883704949
 20
-6.756293490355999
 10
33.93341558180282
 20
-6.789874856120603
 10
33.87248413906133
 20
-6.822912093487595
 10
33.81125939135201
 20
-6.855402554178005
 10
33.7497462448967
 20
-6.887343633979667
 10
33.68794962983918
 20
-6.918732774337691
 10
33.62587449823048
 20
-6.949567459392688
 10
33.56352582421215
 20
-6.979845217170299
 10
33.50093073927479
 20
-7.009553238470977
 10
33.4380500847596
 20
-7.038710108254925
 10
33.3749109398047
 20
-7.067302907032207
 10
33.31151836471111
 20
-7.095329344334287
 10
33.24787743980551
 20
-7.12278717460009
 10
33.18399326465942
 20
-7.149674196230683
 10
33.11987095902322
 20
-7.175988254980608
 10
33.05551566188383
 20
-7.201727242886986
 10
32.99093253017213
 20
-7.226889096301113
 10
32.92612673948998
 20
-7.251471798750087
 10
32.86110348362041
 20
-7.275473381217985
 10
32.79586797310719
 20
-7.298891919477681
 10
32.73042543567715
 20
-7.321725536387901
 10
32.66478111618017
 20
-7.343972403260186
 10
32.59894027507181
 20
-7.365630736781496
 10
32.53290818846018
 20
-7.386698800441081
 10
32.46669014848038
 20
-7.407174907152011
 10
32.40029146164869
 20
-7.427057415874997
 10
32.33371744867208
 20
-7.44634473194771
 10
32.26697344500161
 20
-7.465035310886405
 10
32.20006479948955
 20
-7.483127655232009
 10
32.13299687371699
 20
-7.500620313773167
 10
32.0657750426098
 20
-7.517511885318298
 10
31.99840469336266
 20
-7.533801016889184
 10
31.9308912246284
 20
-7.549486401954396
 10
31.86324004688868
 20
-7.564566783778302
 10
31.79545658179598
 20
-7.579040954823284
 10
31.72754626118609
 20
-7.592907754157776
 10
31.6595145272201
 20
-7.606166070157684
 10
31.59136683213097
 20
-7.618814841660793
 10
31.52310863702218
 20
-7.630853054463499
 10
31.45474541181802
 20
-7.642279742815928
 10
31.38628263526482
 20
-7.653093992358577
 10
31.31869025050003
 20
-7.663155777299976
 10
31.2500460451227
 20
-7.672751236413488
 10
31.18131869262078
 20
-7.681731814614664
 10
31.112513700698
 20
-7.690096792399883
 10
31.04363658311257
 20
-7.697845498131897
 10
30.97469285967993
 20
-7.704977311684102
 10
30.90568805545956
 20
-7.711491662156284
 10
30.83662770022733
 20
-7.717388026267485
 10
30.76751732867399
 20
-7.722665931776076
 10
30.6983624786975
 20
-7.727324956640927
 10
30.6291686919833
 20
-7.731364726629293
 10
30.55994151751969
 20
-7.734784917843568
 10
30.49068649341911
 20
-7.737585256405081
 10
30.42140917143979
 20
-7.739765519018874
 10
30.35211515681516
 20
-7.741325531564284
 10
30.2828098425195
 20
-7.742265156748913
 10
30.21249999999998
 20
-7.742584409499982
  0
CIRCLE
  5
59777
330
1F
100
AcDbEntity
  8
1
100
AcDbCircle
 10
30.09507939909997
 20
3.716379987700001
 30
0.0
 40
2.242200692599999
  0
ARC
  5
59778
330
1F
100
AcDbEntity
  8
1
100
AcDbCircle
 10
31.04970658340012
 20
-4.467584409500005
 30
0.0
 40
1.25
100
AcDbArc
 50
80.44742349400072
 51
270.2235231124991
  0
LINE
  5
59779
330
1F
100
AcDbEntity
  8
1
100
AcDbLine
 10
32.40355107369999
 20
-2.983841751299998
 30
0.0
 11
29.40355107370002
 21
-2.983841751299991
 31
0.0
  0
LINE
  5
5977A
330
1F
100
AcDbEntity
  8
1
100
AcDbLine
 10
37.19999999999993
 20
-0.6336200122999927
 30
0.0
 11
29.79507939909996
 21
-0.6336200122999927
 31
0.0
  0
LINE
  5
5977B
330
1F
100
AcDbEntity
  8
1
100
AcDbLine
 10
32.75020896400003
 20
-0.3836200122999926
 30
0.0
 11
29.65850147174251
 21
-0.3836200122999997
 31
0.0
  0
LWPOLYLINE
  5
5977C
330
1F
100
AcDbEntity
  8
1
100
AcDbPolyline
 90
       13
 70
     0
 43
0.0
 10
35.26358194400007
 20
-4.754700151000007
 42
0.0069711662504304
 10
35.4080605745491
 20
-4.607383757452764
 42
0.0069765822804494
 10
35.54838297028709
 20
-4.456086179936504
 42
0.0069892752997105
 10
35.68442833112312
 20
-4.300925408035253
 42
0.0070300428135715
 10
35.81655105460004
 20
-4.1414317217
 42
0.007021096926941
 10
35.9436732874737
 20
-3.978885331800404
 42
0.0070406962807486
 10
36.06617490183282
 20
-3.812828622360284
 42
0.007062845190473
 10
36.18394457002216
 20
-3.643383152127121
 42
0.007089374177354
 10
36.29687188606989
 20
-3.470672871808098
 42
0.0071209651886363
 10
36.40484592514599
 20
-3.294823650868188
 42
0.0071537464782261
 10
36.50775631763242
 20
-3.115964173965615
 42
0.0072065613089194
 10
36.60548963262233
 20
-2.93422462002929
 42
0.0071979970736506
 10
36.69760383100004
 20
-2.750415783100017
  0
LWPOLYLINE
  5
5977D
330
1F
100
AcDbEntity
  8
1
100
AcDbPolyline
 90
       45
 70
     0
 43
0.0
 10
36.18421546250011
 20
-3.844082160200008
 10
36.21564579576921
 20
-3.804280873586812
 10
36.24657098792119
 20
-3.764381413605811
 10
36.27717679500012
 20
-3.724147985800015
 10
36.30751505924832
 20
-3.683507994963099
 10
36.33742802367101
 20
-3.642671834268468
 10
36.36701390300004
 20
-3.601506525699988
 10
36.39623834112058
 20
-3.560058338793914
 10
36.42511506885785
 20
-3.518306826441288
 10
36.45365600560001
 20
-3.476232444300001
 10
36.48174584677247
 20
-3.434007085223781
 10
36.509562525557
 20
-3.391362206642297
 10
36.53703402209999
 20
-3.348402086200024
 10
36.56396940453607
 20
-3.305431103007491
 10
36.59070243427647
 20
-3.261915590591597
 10
36.61708087780011
 20
-3.218092925499981
 10
36.64284284313561
 20
-3.174408357731379
 10
36.66846849865943
 20
-3.130046328686289
 10
36.69373076109997
 20
-3.085384690699988
 10
36.7183012629169
 20
-3.04101904118579
 10
36.74279574288568
 20
-2.995836143471676
 10
36.76691841640002
 20
-2.950360908500023
 10
36.79028034149161
 20
-2.905347122042598
 10
36.81361996006547
 20
-2.859370461623122
 10
36.83657977790011
 20
-2.813108348199996
 10
36.85871696141572
 20
-2.767479785640289
 10
36.88044783082603
 20
-2.721656320386073
 10
36.90177107140369
 20
-2.675641756367666
 10
36.92268540556819
 20
-2.629439902064496
 10
36.94318959604749
 20
-2.583054571110301
 10
36.96328244166767
 20
-2.536489580562885
 10
36.98296277823909
 20
-2.489748750797416
 10
37.00222948121461
 20
-2.44283590593472
 10
37.02108146130143
 20
-2.395754872230667
 10
37.03951766611408
 20
-2.348509478053073
 10
37.05753708183318
 20
-2.301103554255404
 10
37.07513872933748
 20
-2.253540932620921
 10
37.09232166686633
 20
-2.205825445286712
 10
37.1090849874563
 20
-2.157960927129578
 10
37.12542782121949
 20
-2.109951213142274
 10
37.14134934396283
 20
-2.061800128289185
 10
37.15684872966159
 20
-2.013511517421796
 10
37.17192521875001
 20
-1.96508923673327
 10
37.18657822860683
 20
-1.916537001710914
 10
37.19935011360008
 20
-1.872915491500015
  0
LWPOLYLINE
  5
5977E
330
1F
100
AcDbEntity
  8
1
100
AcDbPolyline
 90
       61
 70
     0
 43
0.0
 10
36.72169904560008
 20
-4.227905269200029
 10
36.74792513159997
 20
-4.190902661599976
 10
36.77377406870011
 20
-4.153878959099991
 10
36.79939495772931
 20
-4.116623490167426
 10
36.82473573801201
 20
-4.079211679140199
 10
36.84981168085318
 20
-4.041621842322178
 10
36.87462168886753
 20
-4.003855956188438
 10
36.89916467952219
 20
-3.965916000614278
 10
36.9234395891271
 20
-3.927803964302093
 10
36.94744536875203
 20
-3.889521840712432
 10
36.97118098974512
 20
-3.851071629385471
 10
36.99464543542462
 20
-3.812455337452071
 10
37.01783770710893
 20
-3.773674979513096
 10
37.04075683099433
 20
-3.734732563273758
 10
37.06340183766935
 20
-3.695630119887993
 10
37.08577178957933
 20
-3.656369662027379
 10
37.10786575337993
 20
-3.616953227443501
 10
37.12968281788182
 20
-3.577382850558571
 10
37.15122208422844
 20
-3.537660576990937
 10
37.17244416635197
 20
-3.497861280416883
 10
37.19342572709968
 20
-3.457841621493493
 10
37.2141269048538
 20
-3.417676210414923
 10
37.23454687105249
 20
-3.377367104761197
 10
37.25468481333121
 20
-3.336916365463166
 10
37.27453993672401
 20
-3.296326057315893
 10
37.2941114618841
 20
-3.255598247975597
 10
37.31339862728943
 20
-3.214735008829676
 10
37.33240068658029
 20
-3.173738413661488
 10
37.3511169115376
 20
-3.132610539793772
 10
37.36954658859332
 20
-3.091353466478699
 10
37.38768902255401
 20
-3.049969276281508
 10
37.40554353237918
 20
-3.008460053258495
 10
37.42310945582733
 20
-2.966827884632415
 10
37.44038614444469
 20
-2.925074858754611
 10
37.45737296860892
 20
-2.883203066831753
 10
37.47406931196582
 20
-2.841214600791203
 10
37.49047457737896
 20
-2.7991115552525
 10
37.50658818067251
 20
-2.75689602524941
 10
37.52240955686739
 20
-2.714570108187273
 10
37.53793815350365
 20
-2.672135901541601
 10
37.55317343759668
 20
-2.629595504959183
 10
37.56811488839543
 20
-2.586951017885382
 10
37.58276200456823
 20
-2.544204541616095
 10
37.59711429664549
 20
-2.501358176952102
 10
37.6111712946842
 20
-2.458414026304076
 10
37.62493254034268
 20
-2.415374191359005
 10
37.6383975948865
 20
-2.372240775116408
 10
37.65156603091231
 20
-2.329015879574426
 10
37.66443744035291
 20
-2.285701607843576
 10
37.67701142619467
 20
-2.24230006195509
 10
37.68928761134532
 20
-2.198813344372104
 10
37.70126562956381
 20
-2.155243555753578
 10
37.71294513241162
 20
-2.111592798565594
 10
37.72432578223368
 20
-2.067863175206666
 10
37.73540726651351
 20
-2.024056783198686
 10
37.74618928222043
 20
-1.980175712785673
 10
37.75667152346631
 20
-1.936222073606585
 10
37.76685369981521
 20
-1.892197993451596
 10
37.77686111489999
 20
-1.847536394200004
 10
37.7864387018891
 20
-1.803376674024413
 10
37.79558092870002
 20
-1.759804430200005
  0
LINE
  5
5977F
330
1F
100
AcDbEntity
  8
1
100
AcDbLine
 10
32.40355107369999
 20
-3.705377145100015
 30
0.0
 11
32.40355107369999
 21
-2.983841751299998
 31
0.0
  0
LINE
  5
59780
330
1F
100
AcDbEntity
  8
1
100
AcDbLine
 10
33.65825641219999
 20
-0.3637499669997695
 30
0.0
 11
37.64600147240003
 21
-0.188443640299802
 31
0.0
  0
LWPOLYLINE
  5
59781
330
1F
100
AcDbEntity
  8
1
100
AcDbPolyline
 90
       30
 70
     0
 43
0.0
 10
36.69287317429996
 20
-2.715654433399975
 42
-0.0257686109958534
 10
36.68959625370002
 20
-2.671898261299985
 42
-0.0223803485669901
 10
36.6907952008428
 20
-2.628129577745204
 42
-0.0133919649817341
 10
36.6950031159493
 20
-2.584527289752002
 42
-0.0112133282735412
 10
36.70134783244492
 20
-2.54118865741617
 10
36.70944972916061
 20
-2.498141920227999
 10
36.71896230357072
 20
-2.455382667393791
 10
36.72966619365701
 20
-2.412906293929892
 10
36.74141023978382
 20
-2.37070563173703
 10
36.75409946066162
 20
-2.328779020328879
 10
36.76766017898297
 20
-2.287126097950873
 10
36.78204043781642
 20
-2.245748904176713
 10
36.79719465075516
 20
-2.20464893892501
 10
36.81308402799829
 20
-2.163827330288774
 10
36.82968166681832
 20
-2.12328855825428
 10
36.84698399084073
 20
-2.083045538214491
 10
36.8649949320946
 20
-2.043114558312793
 10
36.88373321281671
 20
-2.003519824521795
 10
36.90322096747917
 20
-1.964288759119916
 10
36.92348426023318
 20
-1.925452649081428
 10
36.94455489532709
 20
-1.887048425499422
 10
36.96649947842156
 20
-1.849137329185289
 10
36.98940501985737
 20
-1.811799157861692
 10
37.0136332263
 20
-1.774827591000025
 10
37.03892011859422
 20
-1.739059669199405
 42
-0.0118557068315583
 10
37.06571615880051
 20
-1.704412533351073
 42
-0.0157725049781828
 10
37.09437522393751
 20
-1.671292409269291
 42
-0.0245615167522872
 10
37.12553954126281
 20
-1.64053171799341
 42
-0.0393591865592185
 10
37.16029350008398
 20
-1.613934395352693
 42
-0.0875824615588235
 10
37.19999999999993
 20
-1.597179162300001
  0
LWPOLYLINE
  5
59782
330
1F
100
AcDbEntity
  8
1
100
AcDbPolyline
 90
        4
 70
     0
 43
0.0
 10
36.69760383100004
 20
-2.750415783100017
 10
36.69611979439658
 20
-2.738816182611919
 10
36.6945444485459
 20
-2.727240042218404
 10
36.69287317429996
 20
-2.715654433399975
  0
LWPOLYLINE
  5
59783
330
1F
100
AcDbEntity
  8
1
100
AcDbPolyline
 90
        6
 70
     0
 43
0.0
 10
37.4673451828
 20
-1.666377068399988
 10
37.53271580726141
 20
-1.667723445251261
 10
37.59808706856661
 20
-1.669038561501678
 10
37.66345894623981
 20
-1.67032266685269
 10
37.72883140442031
 20
-1.671576903763599
 10
37.7942044249
 20
-1.672801466800001
  0
LWPOLYLINE
  5
59784
330
1F
100
AcDbEntity
  8
1
100
AcDbPolyline
 90
        9
 70
     0
 43
0.0
 10
37.4673451828
 20
-1.666377068399988
 10
37.43409954358885
 20
-1.692521721131071
 10
37.40078172020754
 20
-1.71857434616001
 10
37.36739182338562
 20
-1.744534532126415
 10
37.3339294439258
 20
-1.770401219101102
 10
37.30039433635488
 20
-1.796173547370678
 10
37.26678627167394
 20
-1.8218506595785
 10
37.23310483112863
 20
-1.847431462495315
 10
37.19935011360008
 20
-1.872915491500015
  0
ARC
  5
59785
330
1F
100
AcDbEntity
  8
1
100
AcDbCircle
 10
37.6372177019
 20
0.0113633800999864
 30
0.0
 40
0.2
100
AcDbArc
 50
272.5171743586101
 51
315.9955430425045
  0
ARC
  5
59786
330
1F
100
AcDbEntity
  8
1
100
AcDbCircle
 10
37.457225988
 20
-1.521517642800005
 30
0.0
 40
0.2
100
AcDbArc
 50
35.75612585169711
 51
87.48282564139159
  0
ARC
  5
59787
330
1F
100
AcDbEntity
  8
1
100
AcDbCircle
 10
37.59970658340001
 20
-1.719391054299989
 30
0.0
 40
0.2
100
AcDbArc
 50
348.3421385589033
 51
35.75612585149892
  0
LINE
  5
59788
330
1F
100
AcDbEntity
  8
1
100
AcDbLine
 10
37.19935011360008
 20
-1.872915491500015
 30
0.0
 11
36.95266010199997
 21
-1.872915491500015
 31
0.0
  0
LINE
  5
59789
330
1F
100
AcDbEntity
  8
1
100
AcDbLine
 10
37.19999999999993
 20
-1.646039191099986
 30
0.0
 11
37.11953437990003
 21
-1.646039191099986
 31
0.0
  0
LINE
  5
5978A
330
1F
100
AcDbEntity
  8
1
100
AcDbLine
 10
37.19999999999993
 20
-1.310016496400179
 30
0.0
 11
37.4660097584001
 21
-1.321710622500184
 31
0.0
  0
LINE
  5
5978B
330
1F
100
AcDbEntity
  8
1
100
AcDbLine
 10
37.19999999999993
 20
-0.2475537958999965
 30
0.0
 11
36.30140521390001
 21
-0.2475537958999965
 31
0.0
  0
LINE
  5
5978C
330
1F
100
AcDbEntity
  8
1
100
AcDbLine
 10
37.76200888620002
 20
-1.602523768300081
 30
0.0
 11
37.61952828990003
 21
-1.404650355800079
 31
0.0
  0
LINE
  5
5978D
330
1F
100
AcDbEntity
  8
1
100
AcDbLine
 10
38.03893655200011
 20
0.1394025551998865
 30
0.0
 11
37.78107485380014
 21
-0.1275794854000836
 31
0.0
  0
LINE
  5
5978E
330
1F
100
AcDbEntity
  8
1
100
AcDbLine
 10
37.55668932760001
 20
-1.348003827600002
 30
0.0
 11
37.4673451828
 21
-1.666377068399988
 31
0.0
  0
LINE
  5
5978F
330
1F
100
AcDbEntity
  8
1
100
AcDbLine
 10
37.19999999999993
 20
-0.2080504301999966
 30
0.0
 11
37.19999999999993
 21
-1.310016496399788
 31
0.0
  0
LINE
  5
59790
330
1F
100
AcDbEntity
  8
1
100
AcDbLine
 10
37.19999999999993
 20
-1.310016496399788
 30
0.0
 11
37.19999999999993
 21
-1.597179162300001
 31
0.0
  0
LINE
  5
59791
330
1F
100
AcDbEntity
  8
1
100
AcDbLine
 10
37.19999999999993
 20
-1.597179162300001
 30
0.0
 11
37.19999999999993
 21
-1.646039191099986
 31
0.0
  0
LWPOLYLINE
  5
59792
330
1F
100
AcDbEntity
  8
1
100
AcDbPolyline
 90
       22
 70
     0
 43
0.0
 10
33.65825641219999
 20
-0.3637499669999968
 10
33.61504198192273
 20
-0.3656031477621084
 10
33.57180863391602
 20
-0.3673645678586936
 10
33.5284539813
 20
-0.3690381902000084
 10
33.48522857818233
 20
-0.3706149723350123
 10
33.44178009525132
 20
-0.3721078778903929
 10
33.39827185920001
 20
-0.3735107533999908
 10
33.35503733990197
 20
-0.3748138650306956
 10
33.31149718588512
 20
-0.3760348589608
 10
33.26795824250002
 20
-0.3771644137999957
 10
33.22471639217798
 20
-0.3781959905225065
 10
33.18120664112831
 20
-0.3791433136965239
 10
33.13775808800011
 20
-0.3799986849000234
 10
33.09451063944948
 20
-0.3807602405194146
 10
33.05115121349508
 20
-0.3814337980772748
 10
33.00791163219998
 20
-0.3820157680999969
 10
32.96466028228593
 20
-0.3825082048007928
 10
32.92156823831368
 20
-0.3829095161104945
 10
32.87865300590012
 20
-0.3832204563000019
 10
32.83539943233052
 20
-0.383444082987701
 10
32.79268829979111
 20
-0.3835761829167907
 10
32.75020896400003
 20
-0.3836200122999926
  0
LWPOLYLINE
  5
59793
330
1F
100
AcDbEntity
  8
1
100
AcDbPolyline
 90
       25
 70
     0
 43
0.0
 10
36.72169904589998
 20
-4.227905269699994
 10
36.70129153487443
 20
-4.256395230536297
 10
36.68073751964892
 20
-4.284916088207011
 10
36.6600705103
 20
-4.313420794799988
 10
36.63941915167793
 20
-4.341734507249781
 10
36.61857005576496
 20
-4.370150827726013
 10
36.59763237339996
 20
-4.398520671699997
 10
36.57674393251432
 20
-4.426659933016764
 10
36.5556444774964
 20
-4.454920300271175
 10
36.53446719559998
 20
-4.483122936799992
 10
36.51334799331993
 20
-4.511089422409702
 10
36.49203101072999
 20
-4.53915970855801
 10
36.47066244690007
 20
-4.5671411299
 10
36.44931833930253
 20
-4.594936347454902
 10
36.42783130074906
 20
-4.622764500664692
 10
36.40630799830001
 20
-4.650487887800018
 10
36.38474440073128
 20
-4.678113172028615
 10
36.36312050283402
 20
-4.705667129177071
 10
36.34148088880011
 20
-4.733094277999987
 10
36.31970275162354
 20
-4.760550749326283
 10
36.2979828896049
 20
-4.787789595082933
 10
36.27625948510001
 20
-4.814890753199987
 10
36.25427131237268
 20
-4.842179308035269
 10
36.23248914084553
 20
-4.869072278606302
 10
36.21073111609997
 20
-4.895797873300018
  0
LINE
  5
59794
330
1F
100
AcDbEntity
  8
1
100
AcDbLine
 10
36.72169880640002
 20
-4.227905604200087
 30
0.0
 11
36.18421546250011
 21
-3.84408216020018
 31
0.0
  0
LWPOLYLINE
  5
59795
330
1F
100
AcDbEntity
  8
1
100
AcDbPolyline
 90
       10
 70
     0
 43
0.0
 10
35.17562668800002
 20
-5.119696679500008
 42
-0.0044854539232331
 10
35.07255104257268
 20
-5.2115106510224
 42
-0.0044886741514852
 10
34.96784244565333
 20
-5.301461527198084
 42
-0.0044878807412931
 10
34.86153581460059
 20
-5.389517964159181
 42
-0.0044860367195716
 10
34.75366632853547
 20
-5.475652130709675
 42
-0.00448556168835
 10
34.64426873867541
 20
-5.559837120122465
 42
-0.0044847445222555
 10
34.53337841282412
 20
-5.642046017494748
 42
-0.0044841278969246
 10
34.4210316837748
 20
-5.722252484172769
 42
-0.0044839118515453
 10
34.30726403187613
 20
-5.800431473211695
 42
-0.0044820814692266
 10
34.19211251249999
 20
-5.876558147699994
  0
LWPOLYLINE
  5
59796
330
1F
100
AcDbEntity
  8
1
100
AcDbPolyline
 90
        4
 70
     0
 43
0.0
 10
34.05041300609997
 20
-5.936755885899996
 10
34.09793008686631
 20
-5.917363610509916
 10
34.14504036104109
 20
-5.897350972264894
 10
34.19211251249999
 20
-5.876558147699994
  0
LWPOLYLINE
  5
59797
330
1F
100
AcDbEntity
  8
1
100
AcDbPolyline
 90
        4
 70
     0
 43
0.0
 10
35.17562668800002
 20
-5.119696679500008
 10
35.2181393808549
 20
-5.069686554224779
 10
35.25981790810983
 20
-5.019349060010802
 10
35.30119756450011
 20
-4.968028936000023
  0
LWPOLYLINE
  5
59798
330
1F
100
AcDbEntity
  8
1
100
AcDbPolyline
 90
        7
 70
     0
 43
0.0
 10
35.83896499110011
 20
-4.274658751200006
 10
35.89681342986319
 20
-4.203142448482195
 10
35.95454687271871
 20
-4.131533267388674
 10
36.01169419629997
 20
-4.060412299000013
 10
36.06918361816918
 20
-3.988607074088263
 10
36.12653702657684
 20
-3.916693158123279
 10
36.18421546250011
 20
-3.844082160200008
  0
LWPOLYLINE
  5
59799
330
1F
100
AcDbEntity
  8
1
100
AcDbPolyline
 90
        6
 70
     0
 43
0.0
 10
33.78326139030003
 20
-6.14929492889999
 10
33.73547596517767
 20
-6.165627854812277
 10
33.68757419142595
 20
-6.181616678226511
 10
33.63955867502534
 20
-6.197260517817396
 10
33.59143181421354
 20
-6.212558661600182
 10
33.54319622050002
 20
-6.227510316599987
  0
LWPOLYLINE
  5
5979A
330
1F
100
AcDbEntity
  8
1
100
AcDbPolyline
 90
       84
 70
     0
 43
0.0
 10
34.09293644930011
 20
-6.177918316300014
 10
34.08969391437819
 20
-6.179949039162691
 10
34.08644596272984
 20
-6.181971093639787
 10
34.08301579881169
 20
-6.18409356800157
 10
34.07975680581433
 20
-6.186097780144677
 10
34.07637375640002
 20
-6.188165557499991
 10
34.07310382565118
 20
-6.190151872742602
 10
34.06982852131239
 20
-6.192129315197773
 10
34.066495130492
 20
-6.19412936180177
 10
34.06320899189507
 20
-6.196088747130438
 10
34.05993682439998
 20
-6.198027649099997
 10
34.05663994983957
 20
-6.199968915492688
 10
34.05333767976902
 20
-6.201900989313209
 10
34.05013038343503
 20
-6.203765627476804
 10
34.04681745708018
 20
-6.205679371415107
 10
34.04368514640004
 20
-6.207477252899996
 10
34.04036165274056
 20
-6.209372585715583
 10
34.03703269913211
 20
-6.211258312098273
 10
34.03397904298447
 20
-6.212976860261902
 10
34.03063957644167
 20
-6.2148439058625
 10
34.02767373130013
 20
-6.216491200899979
 10
34.02432383172243
 20
-6.218339461845571
 10
34.02096836515961
 20
-6.22017759656225
 10
34.0180936622137
 20
-6.221741807065092
 10
34.01472779086708
 20
-6.223560819173207
 10
34.01195319649997
 20
-6.225050124599987
 10
34.00857699240118
 20
-6.226849885803487
 10
34.00519506868733
 20
-6.228638875944205
 10
34.00252270726691
 20
-6.230042664351002
 10
33.99913045165039
 20
-6.231811984938281
 10
33.99486939784191
 20
-6.234014252012996
 10
33.99146392105911
 20
-6.235757989520094
 10
33.98731063053566
 20
-6.237864761881694
 10
33.98389189161333
 20
-6.239582351976905
 10
33.97985265301719
 20
-6.241592139761997
 10
33.9764205972382
 20
-6.243282963076103
 10
33.97249834433831
 20
-6.245196056243208
 10
33.96905289705717
 20
-6.246859420893683
 10
33.96525442846047
 20
-6.248674316372272
 10
33.96179550188242
 20
-6.250309465972782
 10
33.95812298491274
 20
-6.252027002324893
 10
33.95465046925711
 20
-6.253633090857504
 10
33.95111023805771
 20
-6.255252244266507
 10
33.94762400917392
 20
-6.256828344281423
 10
33.94421870748472
 20
-6.258349923598187
 10
33.94071861928161
 20
-6.259895000614086
 10
33.93745307237271
 20
-6.261318938664572
 10
33.93393896100036
 20
-6.262831849265693
 10
33.9308174042647
 20
-6.264158492061603
 10
33.92728908659154
 20
-6.265637967590179
 10
33.92431387861349
 20
-6.266868589500012
 10
33.92077114819904
 20
-6.268313210585573
 10
33.91794726675198
 20
-6.269448139026393
 10
33.91350102949997
 20
-6.271204360599994
 10
33.90993309758261
 20
-6.272585563540906
 10
33.90563258506967
 20
-6.274215761375073
 10
33.90149436159999
 20
-6.275747239000003
 10
33.89789627240578
 20
-6.277047853063066
 10
33.89391077828833
 20
-6.278453314589603
 10
33.89009052370011
 20
-6.2797641251
 10
33.88646117684647
 20
-6.280974768694681
 10
33.88279846860559
 20
-6.282160482335434
 10
33.87930901820005
 20
-6.283254572800017
 10
33.87564723866018
 20
-6.284363240686102
 10
33.87232170951393
 20
-6.285332970747901
 10
33.86917556809999
 20
-6.286215823800013
 10
33.86548026339653
 20
-6.287206997294418
 10
33.86250451896638
 20
-6.287966726940594
 10
33.85785039030918
 20
-6.289080214669673
 10
33.85337023633866
 20
-6.290057132614093
 10
33.84906620366462
 20
-6.290896884091777
 10
33.84494256202379
 20
-6.291598355531482
 10
33.84100093793461
 20
-6.292160783350083
 10
33.83724579316981
 20
-6.292582806707009
 10
33.83367946057842
 20
-6.292863172956002
 10
33.8303058740143
 20
-6.293000222052293
 10
33.82712900931763
 20
-6.292992075247893
 10
33.82328133190004
 20
-6.292758951599976
 10
33.81832927080007
 20
-6.291961096799987
 10
33.81420857950002
 20
-6.290620550300018
 10
33.81093963830006
 20
-6.288738308399992
 10
33.80853967249999
 20
-6.286315758500022
 10
33.80702452530011
 20
-6.283354922200003
 10
33.80660330040001
 20
-6.281673479299995
  0
LWPOLYLINE
  5
5979B
330
1F
100
AcDbEntity
  8
1
100
AcDbPolyline
 90
       25
 70
     0
 43
0.0
 10
35.26680479670007
 20
-5.261032672099993
 10
35.22178812063572
 20
-5.303913101094507
 10
35.17640770815353
 20
-5.346408332093431
 10
35.13066617860011
 20
-5.388515861999998
 10
35.08456798452988
 20
-5.430231606059178
 10
35.03811651899213
 20
-5.471552518789514
 10
34.99131314760007
 20
-5.512477361200011
 10
34.94416363802861
 20
-5.553001077509299
 10
34.89667144780213
 20
-5.593120738849902
 10
34.84883705510004
 20
-5.632835917199996
 10
34.8006670522887
 20
-5.672141117110781
 10
34.75216498103498
 20
-5.711033497669887
 10
34.70333172630001
 20
-5.749512341399998
 10
34.65417271894251
 20
-5.787573343888772
 10
34.60469150616547
 20
-5.825213775195698
 10
34.55489139989999
 20
-5.862431124500004
 10
34.50477551634339
 20
-5.899223054428403
 10
34.45434702164539
 20
-5.935587215978585
 10
34.40361224399999
 20
-5.971519062899999
 10
34.35257223493039
 20
-6.007017866410278
 10
34.30123009387398
 20
-6.042081426600474
 10
34.24959343080002
 20
-6.076704566800002
 10
34.19766268016719
 20
-6.110887022898402
 10
34.14544148800361
 20
-6.144626344741006
 10
34.09293644930011
 20
-6.177918316300014
  0
LWPOLYLINE
  5
5979C
330
1F
100
AcDbEntity
  8
1
100
AcDbPolyline
 90
       64
 70
     0
 43
0.0
 10
35.50725521610003
 20
-4.955931222900004
 10
35.50491684241804
 20
-4.961671220633916
 10
35.50261388002645
 20
-4.966857384257422
 10
35.49968505290003
 20
-4.973008588700031
 10
35.49725950570003
 20
-4.977827764599964
 10
35.4946126283
 20
-4.982869624699993
 10
35.49174141660001
 20
-4.988133397099978
 10
35.48864251970002
 20
-4.993619014200028
 10
35.48531308390011
 20
-4.9993255229
 10
35.48175113820003
 20
-5.005250539599983
 10
35.47849637278659
 20
-5.010525547682796
 10
35.47518886618832
 20
-5.015767652108904
 10
35.47224068685512
 20
-5.020350771747501
 10
35.46884477225041
 20
-5.025536048418103
 10
35.46514671350003
 20
-5.031079419300006
 10
35.46166584560018
 20
-5.036208058164511
 10
35.45864370644068
 20
-5.040596531033408
 10
35.4554288004
 20
-5.045204164900012
 10
35.45184991305439
 20
-5.050264894751086
 10
35.44841154407322
 20
-5.055063454929275
 10
35.4447831778001
 20
-5.060064134500009
 10
35.44111376185981
 20
-5.065059616180973
 10
35.43726790531412
 20
-5.070232605804874
 10
35.43323790410011
 20
-5.075588426299994
 10
35.42948407109543
 20
-5.080520789698709
 10
35.42524589734735
 20
-5.086027596327766
 10
35.42083605910011
 20
-5.091691269599984
 10
35.4170028448786
 20
-5.096562199086092
 10
35.41314693336131
 20
-5.101415181325108
 10
35.40926893386148
 20
-5.106250531542491
 10
35.40568655187582
 20
-5.110678304322568
 10
35.40176769330952
 20
-5.11548060011509
 10
35.39782825934163
 20
-5.120266032116488
 10
35.39371458969998
 20
-5.125219598300019
 10
35.38973454183292
 20
-5.129971305582755
 10
35.38573516365733
 20
-5.134706754874911
 10
35.38171680881737
 20
-5.139426111884289
 10
35.37711227076812
 20
-5.144787754702668
 10
35.37305436365671
 20
-5.149473146816525
 10
35.36958651073957
 20
-5.153448477877502
 10
35.36549542951333
 20
-5.158104932079488
 10
35.36193469168904
 20
-5.162129019022585
 10
35.35781099214303
 20
-5.166756611811506
 10
35.35416517477108
 20
-5.1708192531107
 10
35.35000935474989
 20
-5.175418021891295
 10
35.34628924301393
 20
-5.179506080344593
 10
35.34210175835762
 20
-5.184076035239512
 10
35.33832235264208
 20
-5.188172286393018
 10
35.33410363578383
 20
-5.192713425503606
 10
35.33028033478013
 20
-5.196800879546429
 10
35.32603079675567
 20
-5.201313189771098
 10
35.32217163721834
 20
-5.205383246480009
 10
35.31789164153771
 20
-5.209866677581088
 10
35.31400659116133
 20
-5.213908997742613
 10
35.30969646355771
 20
-5.218363469399178
 10
35.30579955411781
 20
-5.222363903123208
 10
35.30145959944059
 20
-5.226789319643791
 10
35.29756504252747
 20
-5.230734067874293
 10
35.29319554690039
 20
-5.235130319113103
 10
35.28931233496058
 20
-5.239011299483108
 10
35.28491354671769
 20
-5.243378241460796
 10
35.28105314392934
 20
-5.247185234123405
 10
35.27662529084967
 20
-5.251522701450433
 10
35.272801070681
 20
-5.255243931414418
  0
LWPOLYLINE
  5
5979D
330
1F
100
AcDbEntity
  8
1
100
AcDbPolyline
 90
        7
 70
     0
 43
0.0
 10
35.64119748449997
 20
-4.592756107499987
 10
35.61963294901028
 20
-4.653562346872411
 10
35.59776270303502
 20
-4.714259360438687
 10
35.5755878523513
 20
-4.774845745471991
 10
35.55311045922952
 20
-4.835320519625183
 10
35.53033255477419
 20
-4.895682797107504
 10
35.50725521610003
 20
-4.955931222900004
  0
LWPOLYLINE
  5
5979E
330
1F
100
AcDbEntity
  8
1
100
AcDbPolyline
 90
        6
 70
     0
 43
0.0
 10
35.70854011510011
 20
-4.485906092299983
 10
35.6952033266894
 20
-4.507358829917277
 10
35.68180053183261
 20
-4.528770403204113
 10
35.66833186699205
 20
-4.550140600114083
 10
35.6547974718136
 20
-4.5714692378057
 10
35.64119748449997
 20
-4.592756107499987
  0
LWPOLYLINE
  5
5979F
330
1F
100
AcDbEntity
  8
1
100
AcDbPolyline
 90
        9
 70
     0
 43
0.0
 10
35.83896499110011
 20
-4.274658751200006
 10
35.82269929453111
 20
-4.301087746065518
 10
35.80642257342653
 20
-4.327509952930397
 10
35.7901349084222
 20
-4.353925414944804
 10
35.77383655585953
 20
-4.380334284092781
 10
35.75752770319133
 20
-4.406736670162415
 10
35.74120854258092
 20
-4.433132686152588
 10
35.72487932502412
 20
-4.459522482053905
 10
35.70854011510011
 20
-4.485906092299983
  0
LINE
  5
597A0
330
1F
100
AcDbEntity
  8
1
100
AcDbLine
 10
36.21073111609997
 20
-4.895797873199994
 30
0.0
 11
35.70854011509999
 21
-4.485906092299983
 31
0.0
  0
LINE
  5
597A1
330
1F
100
AcDbEntity
  8
1
100
AcDbLine
 10
33.54319622050008
 20
-6.227510316600102
 30
0.0
 11
33.51085394270012
 21
-6.044088144600094
 31
0.0
  0
LINE
  5
597A2
330
1F
100
AcDbEntity
  8
1
100
AcDbLine
 10
33.80660330040013
 20
-6.281673479300117
 30
0.0
 11
33.7420811551001
 21
-5.915750209800107
 31
0.0
  0
LINE
  5
597A3
330
1F
100
AcDbEntity
  8
1
100
AcDbLine
 10
34.05041300610009
 20
-5.936755885900119
 30
0.0
 11
34.01740539270008
 21
-5.749560408300091
 31
0.0
  0
LINE
  5
597A4
330
1F
100
AcDbEntity
  8
1
100
AcDbLine
 10
35.26358194400001
 20
-4.754700151000007
 30
0.0
 11
35.3011975645
 21
-4.968028936000087
 31
0.0
  0
LINE
  5
597A5
330
1F
100
AcDbEntity
  8
1
100
AcDbLine
 10
35.50725521610003
 20
-4.955931222900004
 30
0.0
 11
35.4397339268
 21
-4.572998962500093
 31
0.0
  0
LINE
  5
597A6
330
1F
100
AcDbEntity
  8
1
100
AcDbLine
 10
35.64119748449997
 20
-4.592756107499987
 30
0.0
 11
35.60569288170001
 21
-4.39139949889997
 31
0.0
  0
LINE
  5
597A7
330
1F
100
AcDbEntity
  8
1
100
AcDbLine
 10
35.83896499110011
 20
-4.274658751200091
 30
0.0
 11
35.81566421460003
 21
-4.142513481300091
 31
0.0
  0
LWPOLYLINE
  5
597A8
330
1F
100
AcDbEntity
  8
1
100
AcDbPolyline
 90
       18
 70
     0
 43
0.0
 10
21.1494537351
 20
3.044531822900005
 42
0.0071329475445053
 10
20.95599932829401
 20
2.917331357101225
 42
0.0068461978272179
 10
20.7661599817202
 20
2.78476186882107
 42
0.006835703298394
 10
20.57997110937109
 20
2.647086756485919
 42
0.0077672556420093
 10
20.39788698226193
 20
2.504044338145604
 42
0.0087175768112131
 10
20.22062377131499
 20
2.355081395803714
 42
0.0096173018610296
 10
20.04894152249281
 20
2.199720472204091
 42
0.0105483360797302
 10
19.88365834753421
 20
2.0375672577467
 42
0.0117997511377977
 10
19.7257797342533
 20
1.868201954316105
 42
0.013148323662761
 10
19.57654127795661
 20
1.691182834331718
 42
0.0147325399019806
 10
19.43740028684647
 20
1.506132074570899
 42
0.0164648215562802
 10
19.31005558365669
 20
1.312780820004995
 42
0.0183789264621721
 10
19.19648392451759
 20
1.111044452464227
 42
0.0203970097636977
 10
19.09888019132299
 20
0.9011316619643141
 42
0.0223956254718736
 10
19.01958017631892
 20
0.6836563716475155
 42
0.0241472669906221
 10
18.96087027446489
 20
0.4597557035247064
 42
0.025655560535005
 10
18.92473197840357
 20
0.2311398038742141
 42
0.0259794486041968
 10
18.91252302959998
 20
0.0
  0
CIRCLE
  5
597A9
330
1F
100
AcDbEntity
  8
1
100
AcDbCircle
 10
30.09507939909997
 20
3.716379987700001
 30
0.0
 40
2.0
  0
CIRCLE
  5
597AA
330
1F
100
AcDbEntity
  8
1
100
AcDbCircle
 10
30.09507939909997
 20
3.716379987700001
 30
0.0
 40
1.55
  0
ARC
  5
597AB
330
1F
100
AcDbEntity
  8
1
100
AcDbCircle
 10
24.04788735904257
 20
2.616379987700014
 30
0.0
 40
1.25
100
AcDbArc
 50
147.3575384089008
 51
295.4112861544998
  0
ARC
  5
597AC
330
1F
100
AcDbEntity
  8
1
100
AcDbCircle
 10
29.79507939909996
 20
11.36637998770001
 30
0.0
 40
12.0
100
AcDbArc
 50
223.6696231714003
 51
270.0
  0
LINE
  5
597AD
330
1F
100
AcDbEntity
  8
1
100
AcDbLine
 10
17.43281288989999
 20
7.198516047600008
 30
0.0
 11
21.66288307968892
 21
7.198516047600008
 31
0.0
  0
LWPOLYLINE
  5
597AE
330
1F
100
AcDbEntity
  8
1
100
AcDbPolyline
 90
        6
 70
     0
 43
0.0
 10
21.63090091334249
 20
7.199986022399996
 42
-0.0310246960362214
 10
21.66149142323837
 20
7.197973653424071
 42
-0.0310581223371271
 10
21.69154218942276
 20
7.192086567480906
 42
-0.0254247861706563
 10
21.72077530629497
 20
7.182842287413905
 42
-0.0231537632817842
 10
21.74903638918587
 20
7.170852169294327
 42
-0.0245654940808314
 10
21.77600734254247
 20
7.156236037500008
  0
ARC
  5
597AF
330
1F
100
AcDbEntity
  8
1
100
AcDbCircle
 10
29.91779328354247
 20
8.017874617399996
 30
0.0
 40
8.352791233699999
100
AcDbArc
 50
185.6294241391996
 51
206.7528421021996
  0
ARC
  5
597B0
330
1F
100
AcDbEntity
  8
1
100
AcDbCircle
 10
22.23378376984257
 20
7.737692979634451
 30
0.0
 40
0.2
100
AcDbArc
 50
92.51717435869966
 51
135.9955430424996
  0
LWPOLYLINE
  5
597B1
330
1F
100
AcDbEntity
  8
1
100
AcDbPolyline
 90
       36
 70
     0
 43
0.0
 10
18.91252302959998
 20
0.0
 42
0.0428820451717077
 10
18.9453385795972
 20
-0.3788970563308851
 42
0.0398060402623523
 10
19.04046620375968
 20
-0.7471915048467963
 42
0.0348313420150664
 10
19.18944681740751
 20
-1.097285075897389
 42
0.0294133264871059
 10
19.38207180143649
 20
-1.425498008741669
 42
0.0244945125322035
 10
19.60887060526667
 20
-1.731179892367264
 42
0.0203831515820258
 10
19.86212610265002
 20
-2.015391479087695
 42
0.0170659435639322
 10
20.1359306744103
 20
-2.279913255062695
 42
0.0144668211959772
 10
20.42586015295501
 20
-2.526690676659426
 42
0.0124135397507736
 10
20.7286051046274
 20
-2.757586232178681
 42
0.0107373811632668
 10
21.0416874305202
 20
-2.97427609824939
 42
0.009374155742075
 10
21.36322834076742
 20
-3.17821674992399
 42
0.0083049296860204
 10
21.6917762943936
 20
-3.370674710010177
 42
0.0074034540054801
 10
22.02619518144061
 20
-3.552747378942513
 42
0.0066349745262972
 10
22.36559389227216
 20
-3.725366483176486
 42
0.0060226936452646
 10
22.70925160313189
 20
-3.889346483584687
 42
0.0054750467165247
 10
23.05658436834182
 20
-4.045395294310111
 42
0.0050209219540392
 10
23.40711727669441
 20
-4.19412009214227
 42
0.0046254073771148
 10
23.7604499430395
 20
-4.336066940951496
 42
0.0042760425166673
 10
24.11625453827531
 20
-4.471702048550469
 42
0.0039804653071751
 10
24.47424772789782
 20
-4.601450757587912
 42
0.0037086126882253
 10
24.83419471142071
 20
-4.725679748909101
 42
0.0034788768212332
 10
25.19588849839843
 20
-4.84472682450709
 42
0.0032647318075343
 10
25.55915566089911
 20
-4.958885363575773
 42
0.003081224138995
 10
25.9238409945273
 20
-5.068428802548594
 42
0.0029115063185625
 10
26.28971584390001
 20
-5.173565693700027
 42
0.0027588524651224
 10
26.65685630386822
 20
-5.274577258721478
 42
0.0026206855253799
 10
27.02506262258109
 20
-5.371633086740303
 42
0.0024910790378151
 10
27.39424178414669
 20
-5.464922621736176
 42
0.0023905197802462
 10
27.76431425295897
 20
-5.554603717193997
 42
0.0022906048492407
 10
28.13520970718483
 20
-5.640816060236915
 42
0.0021758953233988
 10
28.50685938975871
 20
-5.723709774385183
 42
0.0020563490480225
 10
28.87919846031341
 20
-5.803454973398372
 42
0.0019720801567634
 10
29.25216865828833
 20
-5.880210819385467
 42
0.0020059878192595
 10
29.62573835855059
 20
-5.953998006180682
 42
0.0020432400286356
 10
30.0
 20
-6.024777660899984
  0
LINE
  5
597B2
330
1F
100
AcDbEntity
  8
sk3
100
AcDbLine
 10
20.60000000000011
 20
-1.468095293822698
 30
0.0
 11
24.43002881399997
 21
-2.933850967400188
 31
0.0
  0
LINE
  5
597B3
330
1F
100
AcDbEntity
  8
sk3
100
AcDbLine
 10
20.60000000000011
 20
0.673362171341296
 30
0.0
 11
26.82686290769999
 21
-1.709664192000075
 31
0.0
  0
LINE
  5
597B4
330
1F
100
AcDbEntity
  8
sk3
100
AcDbLine
 10
20.59999999999991
 20
-0.6260577322257747
 30
0.0
 11
24.19838480279989
 21
0.7510475578001206
 31
0.0
  0
LINE
  5
597B5
330
1F
100
AcDbEntity
  8
1
100
AcDbLine
 10
29.40355107370002
 20
-4.475127102499981
 30
0.0
 11
29.40355107370002
 21
-2.983841751299991
 31
0.0
  0
LINE
  5
597B6
330
1F
100
AcDbEntity
  8
1
100
AcDbLine
 10
29.79507939909996
 20
-0.3814784814000021
 30
0.0
 11
29.79507939909996
 21
-0.6336200122999927
 31
0.0
  0
LINE
  5
597B7
330
1F
100
AcDbEntity
  8
1
100
AcDbLine
 10
30.36120481680013
 20
-0.6336200122999927
 30
0.0
 11
30.3612049821001
 21
-2.983841751299991
 31
0.0
  0
ARC
  5
597B8
330
1F
100
AcDbEntity
  8
1
100
AcDbCircle
 10
26.97592207264245
 20
1.116379987700007
 30
0.0
 40
1.05
100
AcDbArc
 50
220.5408613837004
 51
273.4390519219009
  0
LINE
  5
597B9
330
1F
100
AcDbEntity
  8
1
100
AcDbLine
 10
30.21249999999998
 20
-7.742584409499982
 30
0.0
 11
28.0267333410001
 21
-7.742584409499982
 31
0.0
  0
LINE
  5
597BA
330
1F
100
AcDbEntity
  8
1
100
AcDbLine
 10
28.80669425920002
 20
-7.295509698500012
 30
0.0
 11
27.47115423450001
 21
-7.295509698500012
 31
0.0
  0
LINE
  5
597BB
330
1F
100
AcDbEntity
  8
1
100
AcDbLine
 10
27.50580235050009
 20
-7.116248171099981
 30
0.0
 11
29.02894226830009
 21
-7.116248171099981
 31
0.0
  0
LWPOLYLINE
  5
597BC
330
1F
100
AcDbEntity
  8
1
100
AcDbPolyline
 90
       18
 70
     0
 43
0.0
 10
29.40355107370002
 20
-4.475127102499981
 42
0.0106166293666442
 10
29.4053920994375
 20
-4.591399506116998
 42
0.0100029361818442
 10
29.4120248400595
 20
-4.707514592999416
 42
0.010999136451518
 10
29.42343911250468
 20
-4.823262372912693
 42
0.0129371081236776
 10
29.4403772410997
 20
-4.938317722567092
 42
0.0146597958988224
 10
29.46364306513331
 20
-5.052260060664195
 42
0.016367078383384
 10
29.49392674888918
 20
-5.164539892502695
 42
0.0183425130304292
 10
29.53191664346949
 20
-5.274446506548001
 42
0.0203500555774776
 10
29.5782927227074
 20
-5.381078464281983
 42
0.0222211904798435
 10
29.63356037504969
 20
-5.483376607253297
 42
0.0237044653499931
 10
29.69799426850642
 20
-5.580160564890262
 42
0.0249078016686261
 10
29.77152762051108
 20
-5.670219422720179
 42
0.0253425816745685
 10
29.85372086148277
 20
-5.752448283279107
 42
0.0251248014962668
 10
29.94380126663799
 20
-5.825952687361905
 42
0.0244967358469478
 10
30.04073506034359
 20
-5.890159408165486
 42
0.0234808786272533
 10
30.14337207295052
 20
-5.944778802176187
 42
0.0218056042003788
 10
30.25054180570004
 20
-5.989896700233003
 42
0.0216422818189033
 10
30.36120504220003
 20
-6.025599325
  0
LWPOLYLINE
  5
597BD
330
1F
100
AcDbEntity
  8
1
100
AcDbPolyline
 90
        4
 70
     0
 43
0.0
 10
30.36120504220003
 20
-6.025599325
 10
30.40005104581513
 20
-6.035703014468793
 10
30.43913128837761
 20
-6.044514096900087
 10
30.47863499210007
 20
-6.052071136499987
  0
LWPOLYLINE
  5
597BE
330
1F
100
AcDbEntity
  8
1
100
AcDbPolyline
 90
        6
 70
     0
 43
0.0
 10
30.36120504220003
 20
-6.055085984099973
 42
-0.0099684454792396
 10
30.28859880628579
 20
-6.054810258278677
 42
-0.0099965283052686
 10
30.21605706256452
 20
-6.051636632596681
 42
-0.0099991205744546
 10
30.14370145269481
 20
-6.045565030136996
 42
-0.0099922674825694
 10
30.0716423713622
 20
-6.036605074081478
 42
-0.0099649787450124
 10
30.0
 20
-6.024777660899984
  0
LWPOLYLINE
  5
597BF
330
1F
100
AcDbEntity
  8
1
100
AcDbPolyline
 90
        4
 70
     0
 43
0.0
 10
30.47863499210007
 20
-6.052071136499987
 10
30.43949837931882
 20
-6.053324848273176
 10
30.40034253354582
 20
-6.054330081311298
 10
30.36120504220003
 20
-6.055085984099973
  0
LWPOLYLINE
  5
597C0
330
1F
100
AcDbEntity
  8
1
100
AcDbPolyline
 90
        9
 70
     0
 43
0.0
 10
31.17121767589998
 20
-5.988443172499983
 42
-0.0120305629022841
 10
31.08674871267192
 20
-6.011302089701501
 42
-0.0120348503640191
 10
31.00126864890268
 20
-6.030074070622503
 42
-0.0121593858326557
 10
30.91498206953588
 20
-6.044691711185777
 42
-0.0123249195791584
 10
30.82808510610107
 20
-6.055068508059263
 42
-0.0125124757749348
 10
30.74078000213558
 20
-6.061118648992106
 42
-0.0129285020386578
 10
30.65328177942456
 20
-6.062730211926805
 42
-0.0134044208565535
 10
30.56581610347251
 20
-6.0597259531595
 42
-0.0132003337676418
 10
30.47863499210007
 20
-6.052071136499987
  0
LWPOLYLINE
  5
597C1
330
1F
100
AcDbEntity
  8
1
100
AcDbPolyline
 90
        3
 70
     0
 43
0.0
 10
29.07010843090009
 20
-7.109710339599985
 10
29.07421684824999
 20
-7.109042440749987
 10
29.0783252656
 20
-7.108374541900018
  0
LWPOLYLINE
  5
597C2
330
1F
100
AcDbEntity
  8
1
100
AcDbPolyline
 90
        4
 70
     0
 43
0.0
 10
29.02894226830009
 20
-7.116248171099981
 10
29.04266873819049
 20
-7.114096773447414
 10
29.05639081220753
 20
-7.111917493177401
 10
29.07010843090009
 20
-7.109710339599985
  0
LWPOLYLINE
  5
597C3
330
1F
100
AcDbEntity
  8
1
100
AcDbPolyline
 90
       82
 70
     0
 43
0.0
 10
29.10103989490009
 20
-7.23719560569998
 10
29.10111584629999
 20
-7.240636438300014
 10
29.10013377980002
 20
-7.244056777199999
 10
29.09810493129999
 20
-7.247444969000014
 10
29.09504386280003
 20
-7.250789726999983
 10
29.09096818230004
 20
-7.254080154900008
 10
29.08692389189699
 20
-7.256706210469984
 10
29.08422424720919
 20
-7.258239013036785
 10
29.08128915613901
 20
-7.259759857810593
 10
29.0781201662625
 20
-7.261266799619164
 10
29.07471930911331
 20
-7.262757950779672
 10
29.07108901388582
 20
-7.264231506227587
 10
29.06723203789562
 20
-7.265685753015502
 10
29.06315141196157
 20
-7.267119070239401
 10
29.0588503992999
 20
-7.268529924338792
 10
29.05433246622943
 20
-7.269916861536272
 10
29.0514458353
 20
-7.270757901499989
 10
29.0477534664916
 20
-7.271787597853772
 10
29.0446605654962
 20
-7.272613530867971
 10
29.04137416469996
 20
-7.273457488700017
 10
29.03765221611829
 20
-7.274374564038764
 10
29.03416665665734
 20
-7.275198793693418
 10
29.0304933461
 20
-7.27603376830001
 10
29.0267483896433
 20
-7.276851857064571
 10
29.02288382074099
 20
-7.277663236225918
 10
29.0188383352
 20
-7.278479127499991
 10
29.01507522240061
 20
-7.279209178751897
 10
29.01084701486551
 20
-7.279998164568012
 10
29.00644560050003
 20
-7.280786284599968
 10
29.00266798689418
 20
-7.281437164111082
 10
28.99809293095618
 20
-7.282195492093903
 10
28.99335311480001
 20
-7.282948279400017
 10
28.98956380751452
 20
-7.2835272177291
 10
28.98655674780002
 20
-7.283972751700019
 10
28.98276244788571
 20
-7.284518014402491
 10
28.97960037570002
 20
-7.284958465499983
 10
28.97580156925108
 20
-7.285471394453479
 10
28.9724891801001
 20
-7.285904638499999
 10
28.96868630162143
 20
-7.286386452352161
 10
28.96522844350008
 20
-7.286810508299992
 10
28.96142188297139
 20
-7.287262314206428
 10
28.95782355170002
 20
-7.287675332099978
 10
28.9540136605963
 20
-7.288098136289277
 10
28.95027999679999
 20
-7.288498387200007
 10
28.9464670931838
 20
-7.288893103919092
 10
28.94260337589998
 20
-7.289278971399993
 10
28.93878774881702
 20
-7.289646431146507
 10
28.93479939660011
 20
-7.290016403599992
 10
28.9309813098252
 20
-7.290357360054513
 10
28.92687387929999
 20
-7.290710023999998
 10
28.92305357456633
 20
-7.291025160022257
 10
28.91883275800001
 20
-7.291359194799979
 10
28.91501045784281
 20
-7.291649128211702
 10
28.91068208060011
 20
-7.291963301700008
 10
28.90685799079058
 20
-7.292228589807763
 10
28.90242801410011
 20
-7.29252175389999
 10
28.89860232579883
 20
-7.292762897721907
 10
28.89407684670002
 20
-7.293033985300012
 10
28.8902497383528
 20
-7.293251433216993
 10
28.88563498380012
 20
-7.293499455800002
 10
28.88180662282241
 20
-7.293693606826508
 10
28.87710895320001
 20
-7.293917652299995
 10
28.87327949747251
 20
-7.294088858753923
 10
28.86850540570004
 20
-7.294288089699988
 10
28.86467500491918
 20
-7.294436659716183
 10
28.8608442318091
 20
-7.294575298810997
 10
28.85791555515411
 20
-7.294674635855102
 10
28.85408419422999
 20
-7.294795949278181
 10
28.85109297740001
 20
-7.294883895699995
 10
28.84726110886268
 20
-7.294987950252107
 10
28.84342899153441
 20
-7.295082399977673
 10
28.84038182941992
 20
-7.295150683205775
 10
28.83654932884292
 20
-7.2952280327614
 10
28.83345333659998
 20
-7.295283608099992
 10
28.82962052944061
 20
-7.295343895395773
 10
28.82578758621458
 20
-7.295394800118713
 10
28.82264969409948
 20
-7.295429512787192
 10
28.81881656370291
 20
-7.295463443065301
 10
28.81564403960002
 20
-7.295484501200013
 10
28.81181079410368
 20
-7.295501479725799
 10
28.8079775192555
 20
-7.295509190017013
 10
28.80669425920002
 20
-7.295509698500012
  0
CIRCLE
  5
597C4
330
1F
100
AcDbEntity
  8
1
100
AcDbCircle
 10
31.04970658340012
 20
-4.467584409500005
 30
0.0
 40
0.75
  0
ARC
  5
597C5
330
1F
100
AcDbEntity
  8
1
100
AcDbCircle
 10
30.90355107369999
 20
-4.433841751300008
 30
0.0
 40
1.25
100
AcDbArc
 50
270.0
 51
260.3785311561009
  0
LINE
  5
597C6
330
1F
100
AcDbEntity
  8
1
100
AcDbLine
 10
29.32404950409998
 20
-7.062253327499923
 30
0.0
 11
29.0787614743999
 21
-7.110848404799893
 31
0.0
  0
LINE
  5
597C7
330
1F
100
AcDbEntity
  8
1
100
AcDbLine
 10
29.32404950409998
 20
-7.062253327500002
 30
0.0
 11
30.21249999999998
 21
-7.062253327500002
 31
0.0
  0
LINE
  5
597C8
330
1F
100
AcDbEntity
  8
1
100
AcDbLine
 10
29.0447733428
 20
-6.918092131900009
 30
0.0
 11
30.0
 21
-6.918092131900009
 31
0.0
  0
LINE
  5
597C9
330
1F
100
AcDbEntity
  8
1
100
AcDbLine
 10
29.05660513060011
 20
-6.985193534700071
 30
0.0
 11
29.07832526567233
 21
-7.108374541887272
 31
0.0
  0
LINE
  5
597CA
330
1F
100
AcDbEntity
  8
1
100
AcDbLine
 10
29.07832526567233
 20
-7.108374541887272
 30
0.0
 11
29.10103989490009
 21
-7.23719560569998
 31
0.0
  0
LINE
  5
597CB
330
1F
100
AcDbEntity
  8
1
100
AcDbLine
 10
29.0447733428
 20
-6.918092131900009
 30
0.0
 11
29.05660513059999
 21
-6.985193534699987
 31
0.0
  0
LINE
  5
597CC
330
1F
100
AcDbEntity
  8
1
100
AcDbLine
 10
29.32404950409998
 20
-7.062253327500116
 30
0.0
 11
29.29862999580001
 21
-6.918092131900094
 31
0.0
  0
LINE
  5
597CD
330
1F
100
AcDbEntity
  8
1
100
AcDbLine
 10
30.0
 20
-6.024777660899984
 30
0.0
 11
30.0
 21
-6.918092131900009
 31
0.0
  0
LINE
  5
597CE
330
1F
100
AcDbEntity
  8
1
100
AcDbLine
 10
30.21249999999998
 20
-7.742584409499982
 30
0.0
 11
30.21249999999998
 21
-7.062253327500002
 31
0.0
  0
LINE
  5
597CF
330
1F
100
AcDbEntity
  8
1
100
AcDbLine
 10
30.36120504220003
 20
-6.025599325
 30
0.0
 11
30.36120504220003
 21
-6.055085984099973
 31
0.0
  0
LWPOLYLINE
  5
597D0
330
1F
100
AcDbEntity
  8
1
100
AcDbPolyline
 90
        6
 70
     0
 43
0.0
 10
24.31693059340001
 20
-7.199989718099999
 42
0.0366820039747971
 10
24.3605706428871
 20
-7.196303563384192
 42
0.0342168928416842
 10
24.40311682386951
 20
-7.186203861266192
 42
0.0231047077144262
 10
24.4443396548707
 20
-7.171277438453102
 42
0.0215210182131265
 10
24.4841768567351
 20
-7.152860365482382
 42
0.0240890496581689
 10
24.52212767429998
 20
-7.130917671900022
  0
LWPOLYLINE
  5
597D1
330
1F
100
AcDbEntity
  8
1
100
AcDbPolyline
 90
        4
 70
     0
 43
0.0
 10
27.34913226620009
 20
-7.09154354269998
 10
27.40130110929658
 20
-7.100121225443587
 10
27.45357364967691
 20
-7.108363693916372
 10
27.50580235050009
 20
-7.116248171099981
  0
LWPOLYLINE
  5
597D2
330
1F
100
AcDbEntity
  8
1
100
AcDbPolyline
 90
        4
 70
     0
 43
0.0
 10
24.94369430210003
 20
-6.918087540399993
 10
24.92873527408
 20
-6.966016343678375
 10
24.9141911392066
 20
-7.014072891829299
 10
24.90006305359998
 20
-7.062253327500002
  0
LWPOLYLINE
  5
597D3
330
1F
100
AcDbEntity
  8
1
100
AcDbPolyline
 90
        9
 70
     0
 43
0.0
 10
24.90006305359998
 20
-7.062253327500002
 10
24.86630834830268
 20
-7.0877373468455
 10
24.83262691161869
 20
-7.113318146742783
 10
24.79901884453051
 20
-7.138995260936752
 10
24.76548373670266
 20
-7.164767589360478
 10
24.73202135713191
 20
-7.19063427625079
 10
24.69863146366049
 20
-7.216594459499503
 10
24.66531363594351
 20
-7.242647087877997
 10
24.63206798409999
 20
-7.268791750600001
  0
LWPOLYLINE
  5
597D4
330
1F
100
AcDbEntity
  8
1
100
AcDbPolyline
 90
       67
 70
     0
 43
0.0
 10
27.47115423450001
 20
-7.295509698500012
 10
27.46649905921851
 20
-7.295502890089409
 10
27.4622328024
 20
-7.295484710099997
 10
27.45757773507492
 20
-7.295451844343488
 10
27.45329914840011
 20
-7.295409642699977
 10
27.44864433936689
 20
-7.295350675247475
 10
27.44436093640002
 20
-7.295284374599987
 10
27.4397065325046
 20
-7.29519922426138
 10
27.43542592199998
 20
-7.295108827900008
 10
27.43077207387819
 20
-7.294997368811607
 10
27.42650193870003
 20
-7.294882970200005
 10
27.42184880012658
 20
-7.294745032729167
 10
27.41759689809999
 20
-7.294606815799994
 10
27.41294462750608
 20
-7.294442185164598
 10
27.40871878089999
 20
-7.294280427599999
 10
27.40406754241161
 20
-7.294088842133902
 10
27.39987562140001
 20
-7.293903917499988
 10
27.39522558607817
 20
-7.293685067314896
 10
27.39107550490003
 20
-7.29347744879999
 10
27.3864268520793
 20
-7.293230973315672
 10
27.3823265563
 20
-7.293001236599991
 10
27.37767947504051
 20
-7.292726722180019
 10
27.37363692320002
 20
-7.292475549000016
 10
27.3689916138971
 20
-7.292172526032998
 10
27.36501477100001
 20
-7.291900708300005
 10
27.36037144717989
 20
-7.291568647740887
 10
27.35646826870001
 20
-7.291277091599993
 10
27.35182715904719
 20
-7.290915400871084
 10
27.34800557280008
 20
-7.290605131099994
 10
27.34336692339232
 20
-7.290213150070798
 10
27.33963481820001
 20
-7.289885315600002
 10
27.33499889513252
 20
-7.289462310915098
 10
27.33036462051581
 20
-7.289021615127097
 10
27.32573210085713
 20
-7.288562839682981
 10
27.32088643616231
 20
-7.288062939889527
 10
27.3162578748414
 20
-7.287565818092672
 10
27.31163144538041
 20
-7.287049234069399
 10
27.30723231940002
 20
-7.286539247400012
 10
27.30261047588443
 20
-7.285983129388482
 10
27.29713246665568
 20
-7.285296129033696
 10
27.29179015560001
 20
-7.284595929299995
 10
27.28717773438103
 20
-7.283966432443178
 10
27.28198193223799
 20
-7.283228452089423
 10
27.27693603539999
 20
-7.282481223600001
 10
27.27233512870834
 20
-7.281772463710097
 10
27.26745030441458
 20
-7.280989965355594
 10
27.26272879140001
 20
-7.280202811700007
 10
27.25814203739969
 20
-7.279407606181677
 10
27.25359543966749
 20
-7.278588069815497
 10
27.24922458120008
 20
-7.277769194900002
 10
27.24465536849483
 20
-7.276878728344597
 10
27.24047241477132
 20
-7.276030781500764
 10
27.23647645480003
 20
-7.275189643899977
 10
27.23192922272782
 20
-7.274193014076103
 10
27.22813316445843
 20
-7.273326611654907
 10
27.22453395480011
 20
-7.272474137999978
 10
27.22001464590102
 20
-7.271357731040892
 10
27.21550856385767
 20
-7.27018909842468
 10
27.21119897208331
 20
-7.269014356327375
 10
27.20599636400388
 20
-7.267513160414693
 10
27.20102340151203
 20
-7.265981922225392
 10
27.1962849006114
 20
-7.264421712909921
 10
27.19178547358519
 20
-7.262833558887763
 10
27.18752954328903
 20
-7.261218437013184
 10
27.18352139449718
 20
-7.259577224426093
 10
27.17976515160541
 20
-7.257910803849653
 10
27.17626507998921
 20
-7.256219630037918
  0
LWPOLYLINE
  5
597D5
330
1F
100
AcDbEntity
  8
1
100
AcDbPolyline
 90
        7
 70
     0
 43
0.0
 10
24.63206798409999
 20
-7.268791750600001
 10
24.57759251028341
 20
-7.267667495871903
 10
24.52311658918643
 20
-7.266565113610282
 10
24.46864023385871
 20
-7.26548440386179
 10
24.41416346350872
 20
-7.264424825727188
 10
24.35968629583442
 20
-7.26338586297976
 10
24.30520874199999
 20
-7.262367352199986
  0
LWPOLYLINE
  5
597D6
330
1F
100
AcDbEntity
  8
1
100
AcDbPolyline
 90
       24
 70
     0
 43
0.0
 10
27.11868589290003
 20
-7.722714364200014
 10
27.15814239022691
 20
-7.724410082462184
 10
27.1976021280704
 20
-7.726028772441394
 10
27.23706494410749
 20
-7.727570577452012
 10
27.27653067204298
 20
-7.729035943589707
 10
27.3159991537292
 20
-7.730425175065419
 10
27.35547023315502
 20
-7.73173852918009
 10
27.39494375634939
 20
-7.732976259890506
 10
27.43441957199201
 20
-7.734138582834702
 10
27.47389753074049
 20
-7.735225684373205
 10
27.51337748508849
 20
-7.736237723637599
 10
27.55285928916061
 20
-7.737174829601997
 10
27.5923427984111
 20
-7.738037104749082
 10
27.63182786949001
 20
-7.738824622584424
 10
27.67131435997193
 20
-7.739537428191282
 10
27.71080212814033
 20
-7.740175540522301
 10
27.75029103284442
 20
-7.740738948880902
 10
27.78978093315101
 20
-7.741227615886969
 10
27.82927168819171
 20
-7.741641477041696
 10
27.86876315742381
 20
-7.741980433794082
 10
27.90825519918082
 20
-7.742244373858397
 10
27.94774767041702
 20
-7.742433150617102
 10
27.98665466760141
 20
-7.742545394600881
 10
28.0267333410001
 20
-7.742584409499982
  0
ARC
  5
597D7
330
1F
100
AcDbEntity
  8
1
100
AcDbCircle
 10
24.64218717890003
 20
-7.413651176099988
 30
0.0
 40
0.2
100
AcDbArc
 50
215.7561258519002
 51
267.4828256414959
  0
ARC
  5
597D8
330
1F
100
AcDbEntity
  8
1
100
AcDbCircle
 10
24.49970658339998
 20
-7.215777764699992
 30
0.0
 40
0.2
100
AcDbArc
 50
175.4750291156961
 51
215.7561258514989
  0
ARC
  5
597D9
330
1F
100
AcDbEntity
  8
1
100
AcDbCircle
 10
32.19706691270011
 20
-9.588668414099998
 30
0.0
 40
8.0588604048
100
AcDbArc
 50
160.6472081992009
 51
162.2433417119004
  0
LINE
  5
597DA
330
1F
100
AcDbEntity
  8
1
100
AcDbLine
 10
24.63340339700011
 20
-7.613458196000093
 30
0.0
 11
27.11868589290012
 21
-7.722714364200072
 31
0.0
  0
LINE
  5
597DB
330
1F
100
AcDbEntity
  8
1
100
AcDbLine
 10
24.90006305359998
 20
-7.062253327500002
 30
0.0
 11
26.68394031320003
 21
-7.062253327500002
 31
0.0
  0
LINE
  5
597DC
330
1F
100
AcDbEntity
  8
1
100
AcDbLine
 10
24.59356421039996
 20
-6.918092131900009
 30
0.0
 11
27.31854810260009
 21
-6.918092131900009
 31
0.0
  0
LINE
  5
597DD
330
1F
100
AcDbEntity
  8
1
100
AcDbLine
 10
26.9463655895
 20
-7.110848404799893
 30
0.0
 11
26.68394031320003
 21
-7.062253327499923
 31
0.0
  0
LINE
  5
597DE
330
1F
100
AcDbEntity
  8
1
100
AcDbLine
 10
27.16928511730009
 20
-7.252288403500187
 30
0.0
 11
26.94636558950012
 21
-7.110848404800178
 31
0.0
  0
LINE
  5
597DF
330
1F
100
AcDbEntity
  8
1
100
AcDbLine
 10
24.33740428070007
 20
-7.332645050600092
 30
0.0
 11
24.47988487690009
 21
-7.53051846320011
 31
0.0
  0
LINE
  5
597E0
330
1F
100
AcDbEntity
  8
1
100
AcDbLine
 10
26.68394031320011
 20
-7.062253327500002
 30
0.0
 11
26.65852080490009
 21
-6.918092131900009
 31
0.0
  0
LINE
  5
597E1
330
1F
100
AcDbEntity
  8
1
100
AcDbLine
 10
26.9123774578
 20
-6.918092131900094
 30
0.0
 11
26.9463655895
 21
-7.110848404800092
 31
0.0
  0
LINE
  5
597E2
330
1F
100
AcDbEntity
  8
1
100
AcDbLine
 10
27.11035729780008
 20
-6.918092131900009
 30
0.0
 11
27.16928511730009
 21
-7.252288403500022
 31
0.0
  0
LINE
  5
597E3
330
1F
100
AcDbEntity
  8
1
100
AcDbLine
 10
27.31854810260009
 20
-6.918092131900009
 30
0.0
 11
27.34913226620009
 21
-7.09154354269998
 31
0.0
  0
LINE
  5
597E4
330
1F
100
AcDbEntity
  8
1
100
AcDbLine
 10
24.63206798410011
 20
-7.268791750600088
 30
0.0
 11
24.5427238393001
 21
-7.587164991300084
 31
0.0
  0
LINE
  5
597E5
330
1F
100
AcDbEntity
  8
sk3
100
AcDbLine
 10
20.6
 20
1.5
 30
0.0
 11
20.6
 21
-1.5
 31
0.0
  0
LINE
  5
597E6
330
1F
100
AcDbEntity
  8
sk3
100
AcDbLine
 10
20.55976040077331
 20
1.50000000000022
 30
0.0
 11
22.1572758129
 21
2.111370669200218
 31
0.0
  0
ARC
  5
597E7
330
1F
100
AcDbEntity
  8
1
100
AcDbCircle
 10
2.036164763021615
 20
-11.72818702288958
 30
0.0
 40
3.0
100
AcDbArc
 50
98.00000000000077
 51
132.7438239870861
  0
LINE
  5
597E8
330
1F
100
AcDbEntity
  8
1
100
AcDbLine
 10
0.0
 20
-9.524999999999975
 30
0.0
 11
0.0
 21
9.524999999999891
 31
0.0
  0
LINE
  5
597E9
330
1F
100
AcDbEntity
  8
1
100
AcDbLine
 10
1.618645460141408
 20
-7.257382816664915
 30
0.0
 11
1.618645460141408
 21
7.257382816664828
 31
0.0
  0
LINE
  5
597EA
102
{ACAD_REACTORS
330
59800
102
}
330
1F
100
AcDbEntity
  8
1
100
AcDbLine
 10
12.69999999999999
 20
-5.700000000000102
 30
0.0
 11
12.69999999999999
 21
5.700000000000017
 31
0.0
  0
LINE
  5
597EB
330
1F
100
AcDbEntity
  8
1
100
AcDbLine
 10
1.618645460141408
 20
8.757382816664829
 30
0.0
 11
12.35376855491731
 21
7.24865965629209
 31
0.0
  0
ARC
  5
597EC
330
1F
100
AcDbEntity
  8
1
100
AcDbCircle
 10
13.0496340597177
 20
12.19999999999989
 30
0.0
 40
5.0
100
AcDbArc
 50
261.9999999999992
 51
270.0
  0
ARC
  5
597ED
330
1F
100
AcDbEntity
  8
1
100
AcDbCircle
 10
2.036164763021615
 20
11.7281870228895
 30
0.0
 40
3.0
100
AcDbArc
 50
227.2561760129139
 51
261.9999999999992
  0
LINE
  5
597EE
330
1F
100
AcDbEntity
  8
1
100
AcDbLine
 10
1.618645460141408
 20
-8.757382816664915
 30
0.0
 11
12.35376855491731
 21
-7.248659656292176
 31
0.0
  0
ARC
  5
597EF
330
1F
100
AcDbEntity
  8
1
100
AcDbCircle
 10
13.0496340597177
 20
-12.19999999999999
 30
0.0
 40
5.0
100
AcDbArc
 50
90.0
 51
98.00000000000077
  0
LINE
  5
597F0
102
{ACAD_REACTORS
330
597FD
102
}
330
1F
100
AcDbEntity
  8
sk1
100
AcDbLine
 10
-62.5
 20
-9.52499999999997
 30
0.0
 11
-63.5
 21
-8.52499999999997
 31
0.0
  0
LINE
  5
597F1
102
{ACAD_REACTORS
330
597FD
102
}
330
1F
100
AcDbEntity
  8
sk1
100
AcDbLine
 10
-62.49999999999989
 20
-9.52499999999997
 30
0.0
 11
-62.49999999999989
 21
9.524999999999899
 31
0.0
  0
LINE
  5
597F2
330
1F
100
AcDbEntity
  8
sk1
100
AcDbLine
 10
-63.49999999999988
 20
-8.52499999999997
 30
0.0
 11
-63.49999999999988
 21
8.525000000000003
 31
0.0
  0
LINE
  5
597F3
330
1F
100
AcDbEntity
  8
sk1
100
AcDbLine
 10
-62.49999999999989
 20
9.524999999999586
 30
0.0
 11
-63.49999999999969
 21
8.5249999999997
 31
0.0
  0
LINE
  5
597F4
330
1F
100
AcDbEntity
  8
sk3
100
AcDbLine
 10
-61.76794919243102
 20
1.500000000000091
 30
0.0
 11
-63.49999999999988
 21
2.500000000000091
 31
0.0
  0
LINE
  5
597F5
330
1F
100
AcDbEntity
  8
sk3
100
AcDbLine
 10
-61.76794919243118
 20
-1.49999999999968
 30
0.0
 11
-63.5000000000002
 21
-2.49999999999968
 31
0.0
  0
LINE
  5
597F6
330
1F
100
AcDbEntity
  8
sk3
100
AcDbLine
 10
-61.76794919243102
 20
-1.499999999999992
 30
0.0
 11
-61.76794919243102
 21
1.499999999999892
 31
0.0
  0
LINE
  5
597F7
330
1F
100
AcDbEntity
  8
sk4
100
AcDbLine
 10
-64.68989914868767
 20
0.0000000000000071
 30
0.0
 11
0.0
 21
0.0
 31
0.0
  0
LWPOLYLINE
  5
597F8
330
1F
100
AcDbEntity
  8
1
100
AcDbPolyline
 90
        4
 70
     0
 43
0.0
 10
38.03893655143389
 20
0.1394025545433166
 42
0.1959626825757433
 10
38.0950757757347
 20
0.2795493019599675
 42
0.4039333125245009
 10
30.16249999999832
 20
7.9375
 10
22.22500000000002
 20
7.9375
  0
LWPOLYLINE
  5
597F9
330
1F
100
AcDbEntity
  8
1
100
AcDbPolyline
 90
       96
 70
     0
 43
0.0
 10
22.08992661804237
 20
7.876635845134472
 10
21.82009450531501
 20
7.59726000703869
 42
0.2047707840590858
 10
21.76411077213129
 20
7.450340897608428
 10
21.77863180146747
 20
7.086523643623897
 10
21.78193890626497
 20
7.018659008975617
 10
21.78584338053565
 20
6.950826149941406
 10
21.79034555318793
 20
6.883030356311394
 10
21.79544558216179
 20
6.81527690089382
 10
21.80114356849248
 20
6.747571113516387
 10
21.80743959820606
 20
6.679918320052223
 10
21.81433370232347
 20
6.612323853846334
 10
21.82182586796796
 20
6.544793061471494
 10
21.82991604024346
 20
6.477331298148811
 10
21.83860411597087
 20
6.409943927768722
 10
21.84788994850078
 20
6.342636323362312
 10
21.85777334597566
 20
6.275413866573607
 10
21.86825406758515
 20
6.208281946793987
 10
21.87933182824463
 20
6.141245961314838
 10
21.89100629631787
 20
6.07431131504191
 10
21.90327709015645
 20
6.007483419454104
 10
21.91614378279488
 20
5.940767692805592
 10
21.92960589938877
 20
5.874169559768084
 10
21.94366291417904
 20
5.807694450331893
 10
21.95831425503155
 20
5.741347800062917
 10
21.97355930056835
 20
5.675135049614985
 10
21.98939737765144
 20
5.609061643610908
 10
22.00582776577645
 20
5.543133030975922
 10
22.02284969390354
 20
5.477354664287418
 10
22.04046233817415
 20
5.411731998583916
 10
22.05866482640096
 20
5.346270491832598
 10
22.07745623481114
 20
5.280975604157418
 10
22.09683558588154
 20
5.215852796563808
 10
22.11680185274537
 20
5.150907531484079
 10
22.13735395579226
 20
5.086145271859834
 10
22.15849076072425
 20
5.021571479822815
 10
22.18021108301079
 20
4.95719161734533
 10
22.20251368444312
 20
4.89301114519921
 10
22.22539727116546
 20
4.829035521532403
 10
22.24886049823187
 20
4.765270202648821
 10
22.2729019661968
 20
4.701720641848083
 10
22.29752021900197
 20
4.638392287862217
 10
22.32271374861435
 20
4.575290585769521
 10
22.34848099171947
 20
4.512420975720004
 10
22.37482032770436
 20
4.449788891323399
 10
22.40173008321165
 20
4.387399760651334
 10
22.42920852884984
 20
4.325259004809509
 10
22.45725387721345
 20
4.263372036240014
 10
22.48586428746427
 20
4.201744259866075
 10
22.51503786216145
 20
4.140381071563581
 10
22.54477264514347
 20
4.079287856277196
 10
22.57506662624593
 20
4.018469989371986
 10
22.60591773836006
 20
3.957932835065406
 10
22.63732385500526
 20
3.89768174426689
 10
22.66928279513755
 20
3.837722056103103
 10
22.70179232048503
 20
3.778059096350403
 10
22.73485013298225
 20
3.718698175081982
 10
22.76845387960606
 20
3.659644588329513
 10
22.80260114997137
 20
3.600903616516396
 10
22.83728947347828
 20
3.542480521823903
 10
22.87251632420441
 20
3.484380550017334
 10
22.90827911888306
 20
3.426608928956511
 10
22.94457521396336
 20
3.369170865695386
 10
22.98140191021454
 20
3.312071548454888
 10
23.01875645107717
 20
3.255316145383737
 10
23.05663602080574
 20
3.198909800664971
 10
23.09503774567998
 20
3.142857637176823
 10
23.13395869322087
 20
3.087164758122924
 10
23.17339588929215
 20
3.031836233083993
 10
23.21334626970716
 20
2.976877108647386
 10
23.25380668945107
 20
2.922292447762622
 10
23.29535573287606
 20
2.867325257998601
 10
23.33624530994248
 20
2.814266228200004
 10
23.35834869439162
 20
2.785958784751699
 10
23.38055057746055
 20
2.757728509192894
 10
23.40285035070914
 20
2.729575497777403
 10
23.42524673278996
 20
2.701499281101575
 10
23.44773871646637
 20
2.673499591348303
 10
23.47032537214245
 20
2.645576214972372
 10
23.49300575513948
 20
2.617728913424087
 10
23.51577897953155
 20
2.589957484807229
 10
23.53864419412614
 20
2.562261745612715
 10
23.56160057185716
 20
2.534641522102219
 10
23.58464734069045
 20
2.507096677143408
 10
23.60778376272134
 20
2.479627093554589
 10
23.63100911883453
 20
2.452232661740396
 10
23.65432273009515
 20
2.424913298628212
 10
23.67772395284456
 20
2.397668944120994
 10
23.70121217539518
 20
2.370499558882102
 10
23.72478681795806
 20
2.34340512540399
 10
23.74844732989107
 20
2.316385646073911
 10
23.77219319139076
 20
2.289441143682978
 10
23.79602392085485
 20
2.262571672700318
 10
23.81993905895178
 20
2.235777306356226
 10
23.84355904176766
 20
2.209478858972403
 10
23.86802086216267
 20
2.182414232240773
 42
0.2116481404323741
 10
29.65850147174251
 20
-0.3836200122999997
  0
TEXT
  5
597FA
330
1F
100
AcDbEntity
  8
sk6
100
AcDbText
 10
-36.07612374757901
 20
75.56318280321097
 30
0.0
 40
5.0
  1
SRM210SAS2
  7
simplex
100
AcDbText
  0
DIMENSION
  5
597FB
102
{ACAD_XDICTIONARY
360
597FC
102
}
102
{ACAD_REACTORS
330
597FD
102
}
330
1F
100
AcDbEntity
  8
sk2
100
AcDbDimension
  2
*D12
 10
-87.76625540523594
 20
9.525000000000019
 30
0.0
 11
-87.76625540523594
 21
-0.000000000000039
 31
0.0
 70
   160
  1
%%C<>
 71
     5
 42
19.05000000000009
  3
\M+18352\M+18373\M+1815B - ISO-25
100
AcDbAlignedDimension
 13
-62.49999999999989
 23
-9.525000000000076
 33
0.0
 14
-62.49999999999945
 24
9.525000000000012
 34
0.0
 50
270.0
100
AcDbRotatedDimension
1001
ACAD
1000
DSTYLE
1002
{
1070
     4
1000
%%C[]"
1070
   285
1070
     4
1070
   143
1040
0.03937
1070
   171
1070
     3
1070
   170
1070
     1
1070
   271
1070
     8
1070
    40
1040
1.0
1002
}
  0
DIMENSION
  5
597FE
102
{ACAD_XDICTIONARY
360
597FF
102
}
102
{ACAD_REACTORS
330
59800
102
}
330
1F
100
AcDbEntity
  8
2
100
AcDbDimension
  2
*D13
 10
12.69999999999999
 20
38.39227037036852
 30
0.0
 11
-12.97351943111425
 21
38.39227037036852
 31
0.0
 70
   160
 71
     5
 42
25.39999999999998
  3
\M+18352\M+18373\M+1815B - ISO-25
100
AcDbAlignedDimension
 13
38.09999999999997
 23
-0.0000000000000071
 33
0.0
 14
12.69999999999999
 24
5.700000000000017
 34
0.0
 50
180.0
100
AcDbRotatedDimension
1001
ACAD
1000
DSTYLE
1002
{
1070
     4
1000
"
1070
    40
1040
1.0
1070
   143
1040
0.03937
1070
   170
1070
     1
1070
   171
1070
     3
1070
   271
1070
     8
1070
   285
1070
     4
1002
}
  0
SPLINE
  5
59801
330
1F
100
AcDbEntity
  8
1
100
AcDbSpline
210
0.0
220
0.0
230
1.0
 70
     8
 71
     3
 72
    25
 73
    21
 74
    19
 42
0.0000000001
 43
0.0000000001
 44
0.000001
 12
-0.0038374147123714
 22
-0.9999926370970566
 32
0.0
 13
-0.2658072896568483
 23
-0.9640261846886112
 33
0.0
 40
0.0
 40
0.0
 40
0.0
 40
0.0
 40
0.3621180307762909
 40
0.7158113168930014
 40
1.060832246108601
 40
1.397241319936959
 40
1.729660365311788
 40
2.062166899559688
 40
2.39629300392252
 40
2.733654993976887
 40
3.077306452060647
 40
3.426919344216262
 40
3.776233604990168
 40
4.111000690334503
 40
4.417578463262183
 40
4.688572466135351
 40
4.919722500279724
 40
5.10901454038426
 40
5.255894803049854
 40
5.359781998202222
 40
5.359781998202222
 40
5.359781998202222
 40
5.359781998202222
 10
84.35537741147454
 20
-0.6336196842105509
 30
0.0
 10
84.35491421245492
 20
-0.7543248057226764
 30
0.0
 10
84.35390735183698
 20
-0.9929265111213645
 30
0.0
 10
84.35200856672496
 20
-1.346532190477811
 30
0.0
 10
84.3501531533808
 20
-1.691568293150297
 30
0.0
 10
84.34854528318851
 20
-2.029514197575418
 30
0.0
 10
84.34734138704465
 20
-2.363290341661465
 30
0.0
 10
84.3466177450602
 20
-2.696306907640004
 30
0.0
 10
84.34638567571496
 20
-3.030971815816496
 30
0.0
 10
84.34657106112046
 20
-3.369351663612528
 30
0.0
 10
84.34699003048171
 20
-3.712893544752803
 30
0.0
 10
84.34729351388254
 20
-4.06041954155056
 30
0.0
 10
84.34691274318177
 20
-4.404984966793397
 30
0.0
 10
84.34507361173672
 20
-4.73520004279751
 30
0.0
 10
84.34102046641003
 20
-5.039295183391917
 30
0.0
 10
84.33398235621275
 20
-5.30877481625724
 30
0.0
 10
84.323815576598
 20
-5.539083511649304
 30
0.0
 10
84.30926287505247
 20
-5.727592887502831
 30
0.0
 10
84.29284700458804
 20
-5.873585653923105
 30
0.0
 10
84.27346228039901
 20
-5.955059518950275
 30
0.0
 10
84.26425762247452
 20
-5.988442844410521
 30
0.0
 11
84.35537741147454
 21
-0.6336196842105509
 31
0.0
 11
84.35382429507447
 21
-0.9957342450104603
 31
0.0
 11
84.35199159697452
 21
-1.349422782910528
 31
0.0
 11
84.35017280977445
 21
-1.694438917210546
 31
0.0
 11
84.34860287687445
 21
-2.030844326410523
 31
0.0
 11
84.34741993467458
 21
-2.363261265310518
 31
0.0
 11
84.34669972347455
 21
-2.695767017610464
 31
0.0
 11
84.34645422727454
 21
-3.029893029510538
 31
0.0
 11
84.34660634317458
 21
-3.367254982610553
 31
0.0
 11
84.34696695627451
 21
-3.710906248310529
 31
0.0
 11
84.34717728887454
 21
-4.060519073310537
 31
0.0
 11
84.34664096187452
 21
-4.409832917510541
 31
0.0
 11
84.34456839467451
 21
-4.744593581010504
 31
0.0
 11
84.34016812887454
 21
-5.051139766410506
 31
0.0
 11
84.33275697057457
 21
-5.322032399810531
 31
0.0
 11
84.32180787567459
 21
-5.552922956310466
 31
0.0
 11
84.30693200447455
 21
-5.741629544910529
 31
0.0
 11
84.28780118097462
 21
-5.887258551810545
 31
0.0
 11
84.26425762247452
 21
-5.988442844410521
 31
0.0
  0
SPLINE
  5
59802
330
1F
100
AcDbEntity
  8
1
100
AcDbSpline
210
0.0
220
0.0
230
1.0
 70
     8
 71
     3
 72
     9
 73
     5
 74
     3
 42
0.0000000001
 43
0.0000000001
 44
0.000001
 12
-0.8556997856419458
 22
-0.5174725856046172
 32
0.0
 13
-0.9648131961358368
 23
-0.2629362975364025
 33
0.0
 40
0.0
 40
0.0
 40
0.0
 40
0.0
 40
0.0039222166506431
 40
0.00766987919497
 40
0.00766987919497
 40
0.00766987919497
 40
0.00766987919497
 10
84.22688965597457
 20
-6.052070808410526
 30
0.0
 10
84.22577090932549
 20
-6.052747354941029
 30
0.0
 10
84.22348645777585
 20
-6.053917007900872
 30
0.0
 10
84.22106257303367
 20
-6.054757190505904
 30
0.0
 10
84.21985730827453
 20
-6.055085656010511
 30
0.0
 11
84.22688965597457
 21
-6.052070808410526
 31
0.0
 11
84.22339834867461
 21
-6.053858406810526
 31
0.0
 11
84.21985730827453
 21
-6.055085656010511
 31
0.0
  0
SPLINE
  5
59803
330
1F
100
AcDbEntity
  8
1
100
AcDbSpline
210
0.0
220
0.0
230
1.0
 70
     8
 71
     3
 72
    10
 73
     6
 74
     4
 42
0.0000000001
 43
0.0000000001
 44
0.000001
 12
-0.9972510533908629
 22
0.0740968049973441
 32
0.0
 13
-0.8194509092445853
 23
0.5731493761125652
 33
0.0
 40
0.0
 40
0.0
 40
0.0
 40
0.0
 40
0.0116612363344006
 40
0.0346036821121353
 40
0.0698301581000267
 40
0.0698301581000267
 40
0.0698301581000267
 40
0.0698301581000267
 10
84.21985730827453
 20
-6.055085656010511
 30
0.0
 10
84.21598091486842
 20
-6.054797635892279
 30
0.0
 10
84.20441827840743
 20
-6.05307714916513
 30
0.0
 10
84.18410294098165
 20
-6.04095039602189
 30
0.0
 10
84.16728076856719
 20
-6.031507343722228
 30
0.0
 10
84.15765864597458
 20
-6.024777332810527
 30
0.0
 11
84.21985730827453
 21
-6.055085656010511
 31
0.0
 11
84.20835668147452
 21
-6.053150905610536
 31
0.0
 11
84.18769249137454
 21
-6.043185115210525
 31
0.0
 11
84.15765864597458
 21
-6.024777332810527
 31
0.0
  0
SPLINE
  5
59804
330
1F
100
AcDbEntity
  8
1
100
AcDbSpline
210
0.0
220
0.0
230
1.0
 70
     8
 71
     3
 72
     9
 73
     5
 74
     3
 42
0.0000000001
 43
0.0000000001
 44
0.000001
 12
0.8095298299821966
 22
-0.5870787463100639
 32
0.0
 13
0.8572130507783375
 23
-0.5149619263356229
 33
0.0
 40
0.0
 40
0.0
 40
0.0
 40
0.0
 40
0.0258046528271038
 40
0.0480074667254437
 40
0.0480074667254437
 40
0.0480074667254437
 40
0.0480074667254437
 10
84.18685355427454
 20
-6.025598996910517
 30
0.0
 10
84.1938167663465
 20
-6.030648784654085
 30
0.0
 10
84.2069917571271
 20
-6.039743638283199
 30
0.0
 10
84.220545475362
 20
-6.048259607138806
 30
0.0
 10
84.22688965597457
 20
-6.052070808410526
 30
0.0
 11
84.18685355427454
 21
-6.025598996910517
 31
0.0
 11
84.20808962937451
 21
-6.040259157610464
 31
0.0
 11
84.22688965597457
 21
-6.052070808410526
 31
0.0
  0
SPLINE
  5
59805
330
1F
100
AcDbEntity
  8
1
100
AcDbSpline
210
0.0
220
0.0
230
1.0
 70
    24
 71
     3
 72
     9
 73
     5
 74
     3
 42
0.0000000001
 43
0.0000000001
 44
0.000001
 12
0.8086333715344501
 22
-0.5883129018140162
 32
0.0
 13
0.8086333715344501
 23
-0.5883129018140162
 33
0.0
 40
0.0
 40
0.0
 40
0.0
 40
0.0
 40
0.0118795248727672
 40
0.0237590497453339
 40
0.0237590497453339
 40
0.0237590497453339
 40
0.0237590497453339
 10
84.1676411937745
 20
-6.01162124141053
 30
0.0
 10
84.17084325385786
 20
-6.01395086732722
 30
0.0
 10
84.17724737402455
 20
-6.018610119160552
 30
0.0
 10
84.18365149419123
 20
-6.023269370993866
 30
0.0
 10
84.18685355427454
 20
-6.025598996910517
 30
0.0
 11
84.1676411937745
 21
-6.01162124141053
 31
0.0
 11
84.17724737402465
 21
-6.018610119160519
 31
0.0
 11
84.18685355427454
 21
-6.025598996910517
 31
0.0
  0
SPLINE
  5
59806
330
1F
100
AcDbEntity
  8
1
100
AcDbSpline
210
0.0
220
0.0
230
1.0
 70
     8
 71
     3
 72
    18
 73
    14
 74
    12
 42
0.0000000001
 43
0.0000000001
 44
0.000001
 12
0.5489413538159959
 22
-0.8358608676512268
 32
0.0
 13
0.8026177377034732
 23
-0.5964937276482953
 33
0.0
 40
0.0
 40
0.0
 40
0.0
 40
0.0
 40
0.2625731028869018
 40
0.533107988246856
 40
0.7980301991656451
 40
1.043879686244793
 40
1.267250759480238
 40
1.471203796239496
 40
1.648898998165043
 40
1.797916998465054
 40
1.920433754295893
 40
2.019318240833825
 40
2.073768030949117
 40
2.073768030949117
 40
2.073768030949117
 40
2.073768030949117
 10
82.78833262767461
 20
-4.475126774410518
 30
0.0
 10
82.83637837253273
 20
-4.548284968277491
 30
0.0
 10
82.93657533112863
 20
-4.695098579016479
 30
0.0
 10
83.09434290541819
 20
-4.909344520613042
 30
0.0
 10
83.25643675203858
 20
-5.113265118474279
 30
0.0
 10
83.41554419049263
 20
-5.299261393281108
 30
0.0
 10
83.56718682958538
 20
-5.464713651317507
 30
0.0
 10
83.70825419518496
 20
-5.608887740649564
 30
0.0
 10
83.83586638250887
 20
-5.731420288844413
 30
0.0
 10
83.94689401870042
 20
-5.831931124624865
 30
0.0
 10
84.04077643637647
 20
-5.912150679838967
 30
0.0
 10
84.11233218660223
 20
-5.96992485838855
 30
0.0
 10
84.15307373798759
 20
-6.000794921985351
 30
0.0
 10
84.1676411937745
 20
-6.01162124141053
 30
0.0
 11
82.78833262767461
 21
-4.475126774410518
 31
0.0
 11
82.93634011637459
 21
-4.692009780410535
 31
0.0
 11
83.09678834397454
 21
-4.909829625810552
 31
0.0
 11
83.26166669247454
 21
-5.117191402410533
 31
0.0
 11
83.42151644967453
 21
-5.30398011891053
 31
0.0
 11
83.5724836066746
 21
-5.468611687110509
 31
0.0
 11
83.71517422217456
 21
-5.614338241910508
 31
0.0
 11
83.84340828107452
 21
-5.737348851410509
 31
0.0
 11
83.95395945377453
 21
-5.837272829610505
 31
0.0
 11
84.04717002277459
 21
-5.916784736510527
 31
0.0
 11
84.12426109227453
 21
-5.978712939710539
 31
0.0
 11
84.1676411937745
 21
-6.01162124141053
 31
0.0
  0
SPLINE
  5
59807
330
1F
100
AcDbEntity
  8
1
100
AcDbSpline
210
0.0
220
0.0
230
1.0
 70
     8
 71
     3
 72
     9
 73
     5
 74
     3
 42
0.0000000001
 43
0.0000000001
 44
0.000001
 12
-0.714724077452646
 22
0.6994065292156373
 32
0.0
 13
-0.691461450802274
 23
0.722413359548683
 33
0.0
 40
0.0
 40
0.0
 40
0.0
 40
0.0
 40
0.1063526918201776
 40
0.2133217029195878
 40
0.2133217029195878
 40
0.2133217029195878
 40
0.2133217029195878
 10
87.00500579697466
 20
-5.119696351410488
 30
0.0
 10
86.97966818712606
 20
-5.094901762390924
 30
0.0
 10
86.92925097703621
 20
-5.044753509602316
 30
0.0
 10
86.87966077950987
 20
-4.99378722213584
 30
0.0
 10
86.85500579697464
 20
-4.968028607910532
 30
0.0
 11
87.00500579697466
 21
-5.119696351410488
 31
0.0
 11
86.9296021416746
 21
-5.044695132210541
 31
0.0
 11
86.85500579697464
 21
-4.968028607910532
 31
0.0
  0
SPLINE
  5
59808
330
1F
100
AcDbEntity
  8
1
100
AcDbSpline
210
0.0
220
0.0
230
1.0
 70
     8
 71
     3
 72
     9
 73
     5
 74
     3
 42
0.0000000001
 43
0.0000000001
 44
0.000001
 12
0.9058924924160287
 22
-0.4235077238779425
 32
0.0
 13
0.8530714801401963
 23
-0.5217940683559127
 33
0.0
 40
0.0
 40
0.0
 40
0.0
 40
0.0
 40
0.0733472476922995
 40
0.1015010202182867
 40
0.1015010202182867
 40
0.1015010202182867
 40
0.1015010202182867
 10
86.95382627897453
 20
2.004485822089534
 30
0.0
 10
86.97597451931581
 20
1.994131446781908
 30
0.0
 10
87.00606723735683
 20
1.978558591359913
 30
0.0
 10
87.03520203377456
 20
1.961351743024754
 30
0.0
 10
87.04320776057466
 20
1.956454919189454
 30
0.0
 11
86.95382627897453
 21
2.004485822089534
 31
0.0
 11
87.01896683947467
 21
1.970771371789466
 31
0.0
 11
87.04320776057466
 21
1.956454919189454
 31
0.0
  0
SPLINE
  5
59809
330
1F
100
AcDbEntity
  8
1
100
AcDbSpline
210
0.0
220
0.0
230
1.0
 70
     8
 71
     3
 72
    24
 73
    20
 74
    18
 42
0.0000000001
 43
0.0000000001
 44
0.000001
 12
-0.3266794781194304
 22
0.9451351853442007
 32
0.0
 13
-0.1632061220132575
 23
-0.9865919935502182
 33
0.0
 40
0.0
 40
0.0
 40
0.0
 40
0.0
 40
0.3919949061791283
 40
0.7763060580468344
 40
1.139097425952122
 40
1.470918277601942
 40
1.763422635204803
 40
2.013311568035581
 40
2.223686478580752
 40
2.400047056490898
 40
2.546701167471413
 40
2.666636576047372
 40
2.763629712281581
 40
2.838318121791319
 40
2.891368072263777
 40
2.925906755666201
 40
2.94511231617592
 40
2.952379431062874
 40
2.95509001068728
 40
2.95509001068728
 40
2.95509001068728
 40
2.95509001068728
 10
94.34968371457468
 20
2.68046543728947
 30
0.0
 10
94.30699815078266
 20
2.803961496724667
 30
0.0
 10
94.21633313788039
 20
3.046462191704666
 30
0.0
 10
94.06595055301218
 20
3.395270891933746
 30
0.0
 10
93.90767252115207
 20
3.718363722488857
 30
0.0
 10
93.74943895884932
 20
4.006981192552022
 30
0.0
 10
93.59858156458363
 20
4.256391200898663
 30
0.0
 10
93.46056464497419
 20
4.466012099935246
 30
0.0
 10
93.33787033915646
 20
4.63919939362681
 30
0.0
 10
93.23066140730125
 20
4.781069997994302
 30
0.0
 10
93.13835864140287
 20
4.896331242740227
 30
0.0
 10
93.06000362376781
 20
4.988823551599438
 30
0.0
 10
92.99532761863723
 20
5.061360887087001
 30
0.0
 10
92.94336288285091
 20
5.115476875138335
 30
0.0
 10
92.90541091864579
 20
5.15368555873619
 30
0.0
 10
92.87698375945288
 20
5.17623850749258
 30
0.0
 10
92.86288369601601
 20
5.189404194609479
 30
0.0
 10
92.85044351240216
 20
5.191081883042844
 30
0.0
 10
92.84932747483749
 20
5.187512218041307
 30
0.0
 10
92.84918001377452
 20
5.186620805989534
 30
0.0
 11
94.34968371457468
 21
2.68046543728947
 31
0.0
 11
94.21242170317459
 21
3.047641640089451
 31
0.0
 11
94.06020755567466
 21
3.400523935789451
 31
0.0
 11
93.90055270277455
 21
3.726296716089463
 31
0.0
 11
93.7409738967745
 21
4.017225714289466
 31
0.0
 11
93.58952715577451
 21
4.267470960989456
 31
0.0
 11
93.4520475577745
 21
4.476142565289464
 31
0.0
 11
93.33036887677451
 21
4.647758127089459
 31
0.0
 11
93.22397962997454
 21
4.788415089189456
 31
0.0
 11
93.13221635337454
 21
4.90281320368946
 31
0.0
 11
93.05464355307464
 21
4.994284302989469
 31
0.0
 11
92.98986350747453
 21
5.066473035289462
 31
0.0
 11
92.93824444867448
 21
5.120452937989468
 31
0.0
 11
92.90004376567457
 21
5.15726330768946
 31
0.0
 11
92.8736814423746
 21
5.179578015589483
 31
0.0
 11
92.8574059502746
 21
5.189774003589504
 31
0.0
 11
92.85016634907451
 21
5.189145687089464
 31
0.0
 11
92.84918001377452
 21
5.186620805989534
 31
0.0
  0
SPLINE
  5
5980A
330
1F
100
AcDbEntity
  8
1
100
AcDbSpline
210
0.0
220
0.0
230
1.0
 70
     8
 71
     3
 72
     9
 73
     5
 74
     3
 42
0.0000000001
 43
0.0000000001
 44
0.000001
 12
-0.3313724251169327
 22
-0.9435000349083846
 32
0.0
 13
0.2068970067423292
 23
-0.9783627285424689
 33
0.0
 40
0.0
 40
0.0
 40
0.0
 40
0.0
 40
0.0213276289757184
 40
0.0334988998933757
 40
0.0334988998933757
 40
0.0334988998933757
 40
0.0334988998933757
 10
87.10494322807461
 20
-1.646049895610538
 30
0.0
 10
87.10258743202938
 20
-1.652757435171572
 30
0.0
 10
87.10058386318577
 20
-1.664039733506806
 30
0.0
 10
87.10186574063419
 20
-1.675204005968885
 30
0.0
 10
87.10270514047456
 20
-1.679173311910495
 30
0.0
 11
87.10494322807461
 21
-1.646049895610538
 31
0.0
 11
87.10136698557461
 21
-1.667075949410509
 31
0.0
 11
87.10270514047456
 21
-1.679173311910495
 31
0.0
  0
SPLINE
  5
5980B
330
1F
100
AcDbEntity
  8
1
100
AcDbSpline
210
0.0
220
0.0
230
1.0
 70
     8
 71
     3
 72
    10
 73
     6
 74
     4
 42
0.0000000001
 43
0.0000000001
 44
0.000001
 12
0.9972510544403279
 22
-0.0740967908728454
 32
0.0
 13
0.8194509089275332
 23
-0.5731493765658652
 33
0.0
 40
0.0
 40
0.0
 40
0.0
 40
0.0
 40
0.0116612364164394
 40
0.0346036821040142
 40
0.0698301582294844
 40
0.0698301582294844
 40
0.0698301582294844
 40
0.0698301582294844
 10
91.98014238357462
 20
6.055086312089471
 30
0.0
 10
91.98401877701206
 20
6.054798292024115
 30
0.0
 10
91.99558141350435
 20
6.053077805422733
 30
0.0
 10
92.01589675091799
 20
6.040951052114789
 30
0.0
 10
92.03271892334809
 20
6.031507999832763
 30
0.0
 10
92.04234104597452
 20
6.024777988889455
 30
0.0
 11
91.98014238357462
 21
6.055086312089471
 31
0.0
 11
91.99164301047465
 21
6.053151561789504
 31
0.0
 11
92.01230720047451
 21
6.043185771389473
 31
0.0
 11
92.04234104597452
 21
6.024777988889455
 31
0.0
  0
SPLINE
  5
5980C
330
1F
100
AcDbEntity
  8
1
100
AcDbSpline
210
0.0
220
0.0
230
1.0
 70
     8
 71
     3
 72
    25
 73
    21
 74
    19
 42
0.0000000001
 43
0.0000000001
 44
0.000001
 12
-0.6510792537046663
 22
0.7590097531622205
 32
0.0
 13
0.9970348073077431
 23
-0.0769518876754299
 33
0.0
 40
0.0
 40
0.0
 40
0.0
 40
0.0
 40
0.0643682161763624
 40
0.1498923372595591
 40
0.2388751843909711
 40
0.3327541765502445
 40
0.4318321913560707
 40
0.5351968791465125
 40
0.6433249690538727
 40
0.7569015766292197
 40
0.8756533471977874
 40
0.999225342585885
 40
1.128176258345636
 40
1.26124856402957
 40
1.397007560379104
 40
1.531843489529706
 40
1.664056472614442
 40
1.793703110575947
 40
1.922331463830984
 40
2.050553405333044
 40
2.050553405333044
 40
2.050553405333044
 40
2.050553405333044
 10
85.27209878107454
 20
1.001593702289468
 30
0.0
 10
85.25812917769107
 20
1.017879070246639
 30
0.0
 10
85.22850761824251
 20
1.0583743101304
 30
0.0
 10
85.19344592955377
 20
1.130563489412822
 30
0.0
 10
85.17355380756889
 20
1.218631417395816
 30
0.0
 10
85.17442188940417
 20
1.313400980696339
 30
0.0
 10
85.19635789691816
 20
1.410382212031832
 30
0.0
 10
85.2374311809932
 20
1.50593878547159
 30
0.0
 10
85.29526918832665
 20
1.598001710489156
 30
0.0
 10
85.36801999334533
 20
1.685478277475768
 30
0.0
 10
85.45413320835617
 20
1.767423711156245
 30
0.0
 10
85.55235956251316
 20
1.843044798222635
 30
0.0
 10
85.6614437046303
 20
1.911377918543302
 30
0.0
 10
85.77990759678071
 20
1.971328703332849
 30
0.0
 10
85.90496747221404
 20
2.021431352473205
 30
0.0
 10
86.03352282503038
 20
2.060716524964652
 30
0.0
 10
86.16286262607426
 20
2.088912108388542
 30
0.0
 10
86.29200397977866
 20
2.106277939802305
 30
0.0
 10
86.42080597587401
 20
2.113023773446962
 30
0.0
 10
86.50649731256187
 20
2.110035338269455
 30
0.0
 10
86.54911122547458
 20
2.106746364789457
 30
0.0
 11
85.27209878107454
 21
1.001593702289468
 31
0.0
 11
85.23409358847459
 21
1.053545477489464
 31
0.0
 11
85.19699908887458
 21
1.130606277689465
 31
0.0
 11
85.1772594220746
 21
1.217371974889537
 31
0.0
 11
85.17764668927453
 21
1.311250144289501
 31
0.0
 11
85.19886417737472
 21
1.408029629989456
 31
0.0
 11
85.23910906187467
 21
1.503237861389456
 31
0.0
 11
85.29618617097462
 21
1.595074063389559
 31
0.0
 11
85.36848453257453
 21
1.682667408189458
 31
0.0
 11
85.45428314367461
 21
1.764768463289455
 31
0.0
 11
85.55204577037462
 21
1.840349606089503
 31
0.0
 11
85.66122488877454
 21
1.908966377889484
 31
0.0
 11
85.77989857437444
 21
1.969172670589485
 31
0.0
 11
85.90589029227453
 21
2.019735453389458
 31
0.0
 11
86.03483013617461
 21
2.059172076389458
 31
0.0
 11
86.16401224207464
 21
2.087319170789456
 31
0.0
 11
86.2925066681746
 21
2.104565477889464
 31
0.0
 11
86.42096598397447
 21
2.111157669589529
 31
0.0
 11
86.54911122547458
 21
2.106746364789457
 31
0.0
  0
SPLINE
  5
5980D
330
1F
100
AcDbEntity
  8
1
100
AcDbSpline
210
0.0
220
0.0
230
1.0
 70
     8
 71
     3
 72
     9
 73
     5
 74
     3
 42
0.0000000001
 43
0.0000000001
 44
0.000001
 12
0.7235292705590756
 22
-0.6902937017272085
 32
0.0
 13
0.7009841650067458
 23
-0.7131768367030686
 33
0.0
 40
0.0
 40
0.0
 40
0.0
 40
0.0
 40
0.1054805235180921
 40
0.2105778473884405
 40
0.2105778473884405
 40
0.2105778473884405
 40
0.2105778473884405
 10
89.64318380847464
 20
5.39929726838956
 30
0.0
 10
89.6686232238877
 20
5.375026421376417
 30
0.0
 10
89.71902056547037
 20
5.326163446905561
 30
0.0
 10
89.76862662186873
 20
5.276497393550761
 30
0.0
 10
89.79318380847463
 20
5.25151306788949
 30
0.0
 11
89.64318380847464
 21
5.39929726838956
 31
0.0
 11
89.71891379387461
 21
5.325873083389481
 31
0.0
 11
89.79318380847463
 21
5.25151306788949
 31
0.0
  0
SPLINE
  5
5980E
330
1F
100
AcDbEntity
  8
1
100
AcDbSpline
210
0.0
220
0.0
230
1.0
 70
     8
 71
     3
 72
    11
 73
     7
 74
     5
 42
0.0000000001
 43
0.0000000001
 44
0.000001
 12
-0.1104441805051823
 22
-0.9938823285442492
 32
0.0
 13
-0.8796868902016109
 23
0.4755533358177811
 33
0.0
 40
0.0
 40
0.0
 40
0.0
 40
0.0
 40
0.0017964792036519
 40
0.0165050464765623
 40
0.037075746782655
 40
0.0716583673040973
 40
0.0716583673040973
 40
0.0716583673040973
 40
0.0716583673040973
 10
84.28854537377459
 20
-6.046333216110531
 30
0.0
 10
84.28847923688344
 20
-6.046928379088567
 30
0.0
 10
84.28765503310023
 20
-6.052336129586412
 30
0.0
 10
84.28058428673622
 20
-6.065096959649725
 30
0.0
 10
84.25425660293134
 20
-6.06128142043627
 30
0.0
 10
84.23703028194173
 20
-6.057552768593957
 30
0.0
 10
84.22688965597457
 20
-6.052070808410526
 30
0.0
 11
84.28854537377459
 21
-6.046333216110531
 31
0.0
 11
84.28827210657454
 21
-6.048109801210508
 31
0.0
 11
84.28056034707465
 21
-6.060634677410532
 31
0.0
 11
84.26003105217466
 21
-6.061946908010503
 31
0.0
 11
84.22688965597457
 21
-6.052070808410526
 31
0.0
  0
SPLINE
  5
5980F
330
1F
100
AcDbEntity
  8
1
100
AcDbSpline
210
0.0
220
0.0
230
1.0
 70
     8
 71
     3
 72
    10
 73
     6
 74
     4
 42
0.0000000001
 43
0.0000000001
 44
0.000001
 12
0.9417554448758613
 22
-0.336298501404137
 32
0.0
 13
0.977761734759936
 23
-0.2097188356806335
 33
0.0
 40
0.0
 40
0.0
 40
0.0
 40
0.0
 40
0.2600705983510394
 40
0.5201632009717208
 40
0.7802508012700475
 40
0.7802508012700475
 40
0.7802508012700475
 40
0.7802508012700475
 10
86.1050057969745
 20
-4.754699822910466
 30
0.0
 10
86.18664676432425
 20
-4.783853607072043
 30
0.0
 10
86.35123855298672
 20
-4.83858977681912
 30
0.0
 10
86.60147339692496
 20
-4.909760083461415
 30
0.0
 10
86.7702378958889
 20
-4.94984685167402
 30
0.0
 10
86.85500579697464
 20
-4.968028607910532
 30
0.0
 11
86.1050057969745
 21
-4.754699822910466
 31
0.0
 11
86.35178928127464
 21
-4.836766179710465
 31
0.0
 11
86.60195856107453
 21
-4.90792087151054
 31
0.0
 11
86.85500579697464
 21
-4.968028607910532
 31
0.0
  0
SPLINE
  5
59810
330
1F
100
AcDbEntity
  8
1
100
AcDbSpline
210
0.0
220
0.0
230
1.0
 70
     8
 71
     3
 72
    10
 73
     6
 74
     4
 42
0.0000000001
 43
0.0000000001
 44
0.000001
 12
0.2101126015328359
 22
0.977677193493386
 32
0.0
 13
-0.0413124750232944
 23
0.9991462752807768
 33
0.0
 40
0.0
 40
0.0
 40
0.0
 40
0.0
 40
0.0227549569336146
 40
0.0878520423974174
 40
0.1638744241106727
 40
0.1638744241106727
 40
0.1638744241106727
 40
0.1638744241106727
 10
89.54325061987459
 20
0.0698468781894661
 30
0.0
 10
89.54484432094096
 20
0.0772625456671058
 30
0.0
 10
89.55009254875676
 20
0.1061822468304477
 30
0.0
 10
89.54610230839882
 20
0.1611186815658117
 30
0.0
 10
89.5461220253899
 20
0.2080526686472097
 30
0.0
 10
89.54507513447465
 20
0.2333718284894672
 30
0.0
 11
89.54325061987459
 21
0.0698468781894661
 31
0.0
 11
89.5470681196746
 21
0.0922801819894659
 31
0.0
 11
89.54710271667465
 21
0.1573766504894678
 31
0.0
 11
89.54507513447465
 21
0.2333718284894672
 31
0.0
  0
SPLINE
  5
59811
330
1F
100
AcDbEntity
  8
1
100
AcDbSpline
210
0.0
220
0.0
230
1.0
 70
     8
 71
     3
 72
    10
 73
     6
 74
     4
 42
0.0000000001
 43
0.0000000001
 44
0.000001
 12
-0.9203919710771351
 22
0.3909969559686442
 32
0.0
 13
-0.9626591019372215
 23
0.2707165555658206
 33
0.0
 40
0.0
 40
0.0
 40
0.0
 40
0.0
 40
0.2651117532659767
 40
0.5302648751046802
 40
0.7954339534880657
 40
0.7954339534880657
 40
0.7954339534880657
 40
0.7954339534880657
 10
90.54318380847474
 20
4.98797491578945
 30
0.0
 10
90.46184823209335
 20
5.022527545295619
 30
0.0
 10
90.29767338152396
 20
5.088190030434657
 30
0.0
 10
90.04745248931605
 20
5.176107181133893
 30
0.0
 10
89.87827295076064
 20
5.227584514708652
 30
0.0
 10
89.79318380847463
 20
5.25151306788949
 30
0.0
 11
90.54318380847474
 21
4.98797491578945
 31
0.0
 11
90.29702829917459
 21
5.086422734589532
 31
0.0
 11
90.04686950967453
 21
5.174321715489455
 31
0.0
 11
89.79318380847463
 21
5.25151306788949
 31
0.0
  0
SPLINE
  5
59812
330
1F
100
AcDbEntity
  8
1
100
AcDbSpline
210
0.0
220
0.0
230
1.0
 70
     8
 71
     3
 72
    24
 73
    20
 74
    18
 42
0.0000000001
 43
0.0000000001
 44
0.000001
 12
0.6521312117983921
 22
-0.7581061156581979
 32
0.0
 13
-0.9974421698466533
 23
0.0714780932286253
 33
0.0
 40
0.0
 40
0.0
 40
0.0
 40
0.0
 40
0.0429232841110669
 40
0.1209830079549275
 40
0.2015023548758236
 40
0.2892091430690397
 40
0.3881152829097996
 40
0.5005467448452077
 40
0.6245354734318262
 40
0.757828926649835
 40
0.8974928069983308
 40
1.041791872243952
 40
1.189268927339034
 40
1.336459480899307
 40
1.480363722191364
 40
1.620192203813652
 40
1.754392660305196
 40
1.882715862259102
 40
2.003717953762708
 40
2.003717953762708
 40
2.003717953762708
 40
2.003717953762708
 10
91.33305671377456
 20
-1.926873812510456
 30
0.0
 10
91.34238725153513
 20
-1.937720613906701
 30
0.0
 10
91.3666071638414
 20
-1.970099222131225
 30
0.0
 10
91.39640426393452
 20
-2.031204993636928
 30
0.0
 10
91.41083722278562
 20
-2.113103606277823
 30
0.0
 10
91.40215240399447
 20
-2.202705091825995
 30
0.0
 10
91.36913288498069
 20
-2.297591802278266
 30
0.0
 10
91.31208082276456
 20
-2.394402350020654
 30
0.0
 10
91.23299675536944
 20
-2.489486402470995
 30
0.0
 10
91.13538284798803
 20
-2.579298781734298
 30
0.0
 10
91.02283107256104
 20
-2.661450202800585
 30
0.0
 10
90.89861651787078
 20
-2.734354587161287
 30
0.0
 10
90.76604278428911
 20
-2.796722316067732
 30
0.0
 10
90.62879339631022
 20
-2.847548035013567
 30
0.0
 10
90.49036859108957
 20
-2.886459589637647
 30
0.0
 10
90.35359766051577
 20
-2.91366015230648
 30
0.0
 10
90.22031510800529
 20
-2.92970967152226
 30
0.0
 10
90.09247387877044
 20
-2.935372237699312
 30
0.0
 10
90.00932104947629
 20
-2.932491089602962
 30
0.0
 10
89.96909018657452
 20
-2.929608090010511
 30
0.0
 11
91.33305671377456
 21
-1.926873812510456
 31
0.0
 11
91.35877629917455
 21
-1.961239143310464
 31
0.0
 11
91.39261010487464
 21
-2.031585307810515
 31
0.0
 11
91.40690416917463
 21
-2.110825655310498
 31
0.0
 11
91.39930461447466
 21
-2.198202525710526
 31
0.0
 11
91.36786125877462
 21
-2.291977428410532
 31
0.0
 11
91.31170631917459
 21
-2.389380976310533
 31
0.0
 11
91.23307389347472
 21
-2.48524621091051
 31
0.0
 11
91.13539746277451
 21
-2.575946033610541
 31
0.0
 11
91.02283278287462
 21
-2.658621251710548
 31
0.0
 11
90.89852393717448
 21
-2.731898337110506
 31
0.0
 11
90.76514840527464
 21
-2.79483044291053
 31
0.0
 11
90.62714764207465
 21
-2.846024675410531
 31
0.0
 11
90.48861853957465
 21
-2.884987730310526
 31
0.0
 11
90.35146932587451
 21
-2.912229219710532
 31
0.0
 11
90.21822507377464
 21
-2.928220870510513
 31
0.0
 11
90.0900207177745
 21
-2.93374237181053
 31
0.0
 11
89.96909018657452
 21
-2.929608090010511
 31
0.0
  0
SPLINE
  5
59813
330
1F
100
AcDbEntity
  8
1
100
AcDbSpline
210
0.0
220
0.0
230
1.0
 70
     8
 71
     3
 72
    31
 73
    27
 74
    25
 42
0.0000000001
 43
0.0000000001
 44
0.000001
 12
-0.0049347786304082
 22
0.9999878239058059
 32
0.0
 13
0.7884107362479426
 23
0.6151491778170377
 33
0.0
 40
0.0
 40
0.0
 40
0.0
 40
0.0
 40
0.3454450003325691
 40
0.6961198064184999
 40
1.049316518216354
 40
1.40143135985195
 40
1.749179995619358
 40
2.090742828113651
 40
2.426028587244536
 40
2.756490593645577
 40
3.08457814380167
 40
3.413257535790604
 40
3.745865789300199
 40
4.085661159003715
 40
4.436410702775527
 40
4.797200801020649
 40
5.160311624025509
 40
5.516335184137576
 40
5.847229184771144
 40
6.13997620206947
 40
6.392031378197481
 40
6.602100776958835
 40
6.769202458396948
 40
6.892928784093805
 40
6.973966984343478
 40
7.017442852472317
 40
7.017442852472317
 40
7.017442852472317
 40
7.017442852472317
 10
91.84592007087465
 20
-0.9425840814105155
 30
0.0
 10
91.84535183933943
 20
-0.8274371500232803
 30
0.0
 10
91.84440178487866
 20
-0.595399061375467
 30
0.0
 10
91.84348970713301
 20
-0.2456278917333906
 30
0.0
 10
91.84333720273823
 20
0.106367839170146
 30
0.0
 10
91.84395524635112
 20
0.4573876111674824
 30
0.0
 10
91.84522280170453
 20
0.8045275497296888
 30
0.0
 10
91.84690250433353
 20
1.146055868439882
 30
0.0
 10
91.84872756620572
 20
1.481821104083313
 30
0.0
 10
91.85045803538486
 20
1.813095035590621
 30
0.0
 10
91.85190763799431
 20
2.142168219817256
 30
0.0
 10
91.85294861340736
 20
2.471958413949139
 30
0.0
 10
91.85351164307952
 20
2.805652407380178
 30
0.0
 10
91.85359419899999
 20
3.146703534926808
 30
0.0
 10
91.85328695751636
 20
3.497148512852944
 30
0.0
 10
91.85284015917536
 20
3.855364754247836
 30
0.0
 10
91.85273683588844
 20
4.215340803631734
 30
0.0
 10
91.85371681554023
 20
4.565346130802825
 30
0.0
 10
91.85660776596774
 20
4.891904196212832
 30
0.0
 10
91.8622400291332
 20
5.183717229131296
 30
0.0
 10
91.87085580019331
 20
5.435322387252959
 30
0.0
 10
91.88363519832746
 20
5.644392741556052
 30
0.0
 10
91.89852928219158
 20
5.811540061891763
 30
0.0
 10
91.92100493549752
 20
5.931916373350961
 30
0.0
 10
91.93811689199065
 20
6.016168066377498
 30
0.0
 10
91.96871676984113
 20
6.046171597244692
 30
0.0
 10
91.98014238357462
 20
6.055086312089471
 30
0.0
 11
91.84592007087465
 21
-0.9425840814105155
 31
0.0
 11
91.84449476697466
 21
-0.5971424797105414
 31
0.0
 11
91.84361941777451
 21
-0.2464687662105263
 31
0.0
 11
91.84346728567465
 21
0.1067279132895322
 31
0.0
 11
91.84407034917455
 21
0.4588422388894601
 31
0.0
 11
91.84530529817465
 21
0.8065886819894814
 31
0.0
 11
91.84694340827451
 21
1.148147586189465
 31
0.0
 11
91.84872527327446
 21
1.483428609989559
 31
0.0
 11
91.85041781477451
 21
1.813886281189454
 31
0.0
 11
91.85183944527466
 21
2.141970750189485
 31
0.0
 11
91.85286536427453
 21
2.470648539589531
 31
0.0
 11
91.85342923127462
 21
2.803256313289451
 31
0.0
 11
91.85353184777468
 21
3.143051665189502
 31
0.0
 11
91.85326942027449
 21
3.493801107889467
 31
0.0
 11
91.85289956427451
 21
3.854591012889486
 31
0.0
 11
91.85292569417454
 21
4.217701830289469
 31
0.0
 11
91.85411345517456
 21
4.573723403089488
 31
0.0
 11
91.85733232287452
 21
4.904601739389462
 31
0.0
 11
91.86328628617458
 21
5.197288193789532
 31
0.0
 11
91.87255888877462
 21
5.449172738389463
 31
0.0
 11
91.88561144837455
 21
5.658836218189533
 31
0.0
 11
91.9027679520745
 21
5.82505479718948
 31
0.0
 11
91.92422073097452
 21
5.946907034789532
 31
0.0
 11
91.95003283587452
 21
6.02372431388953
 31
0.0
 11
91.98014238357462
 21
6.055086312089471
 31
0.0
  0
SPLINE
  5
59814
330
1F
100
AcDbEntity
  8
1
100
AcDbSpline
210
0.0
220
0.0
230
1.0
 70
     8
 71
     3
 72
     9
 73
     5
 74
     3
 42
0.0000000001
 43
0.0000000001
 44
0.000001
 12
0.4271760631332551
 22
0.9041684638860026
 32
0.0
 13
0.4238525030078594
 23
0.9057312270723432
 33
0.0
 40
0.0
 40
0.0
 40
0.0
 40
0.0
 40
0.0163409166918555
 40
0.0326679539916576
 40
0.0326679539916576
 40
0.0326679539916576
 40
0.0326679539916576
 10
94.06793246857466
 20
-4.027875068710513
 30
0.0
 10
94.07025928472812
 20
-4.022950088195925
 30
0.0
 10
94.07490189784439
 20
-4.013100035403617
 30
0.0
 10
94.07952641529918
 20
-4.003241473919845
 30
0.0
 10
94.0818331671746
 20
-3.99831217141051
 30
0.0
 11
94.06793246857466
 21
-4.027875068710513
 31
0.0
 11
94.07489934257469
 21
-4.013093721510543
 31
0.0
 11
94.0818331671746
 21
-3.99831217141051
 31
0.0
  0
SPLINE
  5
59815
330
1F
100
AcDbEntity
  8
1
100
AcDbSpline
210
0.0
220
0.0
230
1.0
 70
     8
 71
     3
 72
    10
 73
     6
 74
     4
 42
0.0000000001
 43
0.0000000001
 44
0.000001
 12
-0.9974328665323961
 22
0.071607798185445
 32
0.0
 13
-0.9590491327643816
 23
0.2832397587625855
 33
0.0
 40
0.0
 40
0.0
 40
0.0
 40
0.0
 40
0.0975430113955074
 40
0.191066993722111
 40
0.279537154358215
 40
0.279537154358215
 40
0.279537154358215
 40
0.279537154358215
 10
89.96909018657452
 20
-2.929608090010511
 30
0.0
 10
89.93665931808571
 20
-2.927279809919041
 30
0.0
 10
89.87328156882831
 20
-2.920407360222124
 30
0.0
 10
89.78145763577991
 20
-2.904142774167687
 30
0.0
 10
89.7226457367523
 20
-2.888995298362617
 30
0.0
 10
89.69436332647445
 20
-2.880642542710532
 30
0.0
 11
89.96909018657452
 21
-2.929608090010511
 31
0.0
 11
89.87210904577464
 21
-2.919155595310527
 31
0.0
 11
89.78005390077456
 21
-2.902645968210535
 31
0.0
 11
89.69436332647445
 21
-2.880642542710532
 31
0.0
  0
SPLINE
  5
59816
330
1F
100
AcDbEntity
  8
1
100
AcDbSpline
210
0.0
220
0.0
230
1.0
 70
     8
 71
     3
 72
    20
 73
    16
 74
    14
 42
0.0000000001
 43
0.0000000001
 44
0.000001
 12
0.4242937615596601
 22
0.9055246014888576
 32
0.0
 13
-0.5395710160513244
 23
0.8419400920714856
 33
0.0
 40
0.0
 40
0.0
 40
0.0
 40
0.0
 40
0.4383251351752831
 40
0.8538900202076423
 40
1.242354097605055
 40
1.60116824461611
 40
1.92771047852857
 40
2.21306957475191
 40
2.446958318419835
 40
2.633582466670727
 40
2.786180547416366
 40
2.912947258899035
 40
3.014655462236335
 40
3.090944712787048
 40
3.143078254306283
 40
3.143078254306283
 40
3.143078254306283
 40
3.143078254306283
 10
94.0818331671746
 20
-3.99831217141051
 30
0.0
 10
94.14382604063781
 20
-3.866007440293127
 30
0.0
 10
94.25688551868416
 20
-3.60457759161729
 30
0.0
 10
94.39908912709974
 20
-3.215412665663043
 30
0.0
 10
94.51127841192059
 20
-2.844173185633217
 30
0.0
 10
94.59582895636094
 20
-2.496180869745953
 30
0.0
 10
94.6552211729732
 20
-2.177950259255661
 30
0.0
 10
94.692346753422
 20
-1.89834421219694
 30
0.0
 10
94.71146301659331
 20
-1.663740592065175
 30
0.0
 10
94.717684264885
 20
-1.47271463323156
 30
0.0
 10
94.71487582163948
 20
-1.317379924863825
 30
0.0
 10
94.70568054214437
 20
-1.190509556993228
 30
0.0
 10
94.69024253082876
 20
-1.090194325749348
 30
0.0
 10
94.67257017012377
 20
-1.01494864971962
 30
0.0
 10
94.65200525193047
 20
-0.9769829015594165
 30
0.0
 10
94.64262866927452
 20
-0.9623517953105109
 30
0.0
 11
94.0818331671746
 21
-3.99831217141051
 31
0.0
 11
94.25586108947454
 21
-3.596015512410538
 31
0.0
 11
94.39832739307462
 21
-3.205634260110556
 31
0.0
 11
94.51055558977451
 21
-2.833734853710509
 31
0.0
 11
94.5950714258746
 21
-2.485016252910533
 31
0.0
 11
94.65472714117449
 21
-2.163969492110495
 31
0.0
 11
94.69196846877457
 21
-1.8810509646105
 31
0.0
 11
94.7106312128746
 21
-1.647907999810527
 31
0.0
 11
94.71631939377465
 21
-1.461370569710466
 31
0.0
 11
94.71321026087441
 21
-1.308804182410469
 31
0.0
 11
94.70320929897445
 21
-1.182432612610553
 31
0.0
 11
94.68743505117464
 21
-1.081955136510551
 31
0.0
 11
94.6669373636746
 21
-1.008471277810528
 31
0.0
 11
94.64262866927452
 21
-0.9623517953105109
 31
0.0
  0
SPLINE
  5
59817
330
1F
100
AcDbEntity
  8
1
100
AcDbSpline
210
0.0
220
0.0
230
1.0
 70
     8
 71
     3
 72
    10
 73
     6
 74
     4
 42
0.0000000001
 43
0.0000000001
 44
0.000001
 12
-0.677166187814539
 22
0.7358301122410829
 32
0.0
 13
-0.999023695254198
 23
-0.0441775544892146
 33
0.0
 40
0.0
 40
0.0
 40
0.0
 40
0.0
 40
0.0176057923392459
 40
0.0389012254439919
 40
0.0657445656373772
 40
0.0657445656373772
 40
0.0657445656373772
 40
0.0657445656373772
 10
94.64262866927452
 20
-0.9623517953105109
 30
0.0
 10
94.63865465351391
 20
-0.9580335045928173
 30
0.0
 10
94.62841126006241
 20
-0.9495084689953804
 30
0.0
 10
94.60684875654848
 20
-0.9437896972359823
 30
0.0
 10
94.59080359657894
 20
-0.9421887903691603
 30
0.0
 10
94.58186455227462
 20
-0.9425840814105155
 30
0.0
 11
94.64262866927452
 21
-0.9623517953105109
 31
0.0
 11
94.62886743457465
 21
-0.9513691127105373
 31
0.0
 11
94.60861716327451
 21
-0.9447788948105111
 31
0.0
 11
94.58186455227462
 21
-0.9425840814105155
 31
0.0
  0
SPLINE
  5
59818
330
1F
100
AcDbEntity
  8
1
100
AcDbSpline
210
0.0
220
0.0
230
1.0
 70
     8
 71
     3
 72
    11
 73
     7
 74
     5
 42
0.0000000001
 43
0.0000000001
 44
0.000001
 12
0.9970523160572028
 22
-0.076724696447546
 32
0.0
 13
0.9058996030163791
 23
-0.4234925138119525
 33
0.0
 40
0.0
 40
0.0
 40
0.0
 40
0.0
 40
0.1119540533675835
 40
0.2198843696463737
 40
0.322773725575875
 40
0.41955347812299
 40
0.41955347812299
 40
0.41955347812299
 40
0.41955347812299
 10
86.54911122547458
 20
2.106746364789457
 30
0.0
 10
86.58631924154198
 20
2.103883151202557
 30
0.0
 10
86.65918728875926
 20
2.09506268491905
 30
0.0
 10
86.76467422471153
 20
2.073276507139985
 30
0.0
 10
86.86298685284524
 20
2.043622487817552
 30
0.0
 10
86.92460203250371
 20
2.018147655653626
 30
0.0
 10
86.95382627897453
 20
2.004485822089534
 30
0.0
 11
86.54911122547458
 21
2.106746364789457
 31
0.0
 11
86.6602591187746
 21
2.093339639989479
 31
0.0
 11
86.76592276847452
 21
2.071339015789462
 31
0.0
 11
86.86435472807465
 21
2.041381306689444
 31
0.0
 11
86.95382627897453
 21
2.004485822089534
 31
0.0
  0
SPLINE
  5
59819
330
1F
100
AcDbEntity
  8
1
100
AcDbSpline
210
0.0
220
0.0
230
1.0
 70
     8
 71
     3
 72
     9
 73
     5
 74
     3
 42
0.0000000001
 43
0.0000000001
 44
0.000001
 12
-0.9592025366631009
 22
0.2827198147620227
 32
0.0
 13
-0.9356896029860855
 23
0.3528242719311438
 33
0.0
 40
0.0
 40
0.0
 40
0.0
 40
0.0
 40
0.0721914567338683
 40
0.0942672454285597
 40
0.0942672454285597
 40
0.0942672454285597
 40
0.0942672454285597
 10
89.69436332647445
 20
-2.880642542710532
 30
0.0
 10
89.67128125033296
 20
-2.873839224285465
 30
0.0
 10
89.64138208585183
 20
-2.864099080924951
 30
0.0
 10
89.61188501246105
 20
-2.853267722768368
 30
0.0
 10
89.60499965047461
 20
-2.850671431410532
 30
0.0
 11
89.69436332647445
 21
-2.880642542710532
 31
0.0
 11
89.6257214984746
 21
-2.858280801810464
 31
0.0
 11
89.60499965047461
 21
-2.850671431410532
 31
0.0
  0
SPLINE
  5
5981A
330
1F
100
AcDbEntity
  8
1
100
AcDbSpline
210
0.0
220
0.0
230
1.0
 70
     8
 71
     3
 72
    19
 73
    15
 74
    13
 42
0.0000000001
 43
0.0000000001
 44
0.000001
 12
-0.309825070757808
 22
-0.9507935767189003
 32
0.0
 13
0.9145143461765201
 23
-0.4045534706776499
 33
0.0
 40
0.0
 40
0.0
 40
0.0
 40
0.0
 40
0.4847906049829084
 40
0.9565208909246141
 40
1.411796162643839
 40
1.845679124447344
 40
2.251702071247512
 40
2.622308694201991
 40
2.949739795422122
 40
3.227055742671525
 40
3.449124753471846
 40
3.613264352141477
 40
3.719156082559797
 40
3.775221920483783
 40
3.775221920483783
 40
3.775221920483783
 40
3.775221920483783
 10
81.57536759737457
 20
3.044532150989468
 30
0.0
 10
81.52530083621071
 20
2.890886886565661
 30
0.0
 10
81.43616355005528
 20
2.5844958349108
 30
0.0
 10
81.33313674829855
 20
2.125016180808486
 30
0.0
 10
81.26171179028466
 20
1.676739740635998
 30
0.0
 10
81.22030934083118
 20
1.246733883416723
 30
0.0
 10
81.20636734702763
 20
0.8431939603786073
 30
0.0
 10
81.21622479011323
 20
0.4751443790293092
 30
0.0
 10
81.24464156174232
 20
0.1508574782495134
 30
0.0
 10
81.28685029924696
 20
-0.1211487219588218
 30
0.0
 10
81.33433314030744
 20
-0.3387755888325625
 30
0.0
 10
81.38829709658134
 20
-0.4910926326306863
 30
0.0
 10
81.42979693346626
 20
-0.5972918940989521
 30
0.0
 10
81.47796898770389
 20
-0.6260591411043512
 30
0.0
 10
81.49505999207452
 20
-0.6336196842105509
 30
0.0
 11
81.57536759737457
 21
3.044532150989468
 31
0.0
 11
81.4399137356745
 21
2.579050299089473
 31
0.0
 11
81.33685572297464
 21
2.11871508828954
 31
0.0
 11
81.26537269967455
 21
1.66908663258944
 31
0.0
 11
81.22400289317466
 21
1.237180438089481
 31
0.0
 11
81.21030017977448
 21
0.831388785589489
 31
0.0
 11
81.22058692087462
 21
0.4609249588894714
 31
0.0
 11
81.24998749717452
 21
0.1348165024894783
 31
0.0
 11
81.29283010697452
 21
-0.1391700594105103
 31
0.0
 11
81.34334414717461
 21
-0.3554175204105334
 31
0.0
 11
81.3964413748746
 21
-0.5107316306104579
 31
0.0
 11
81.44792019837462
 21
-0.6032677911104614
 31
0.0
 11
81.49505999207452
 21
-0.6336196842105509
 31
0.0
  0
SPLINE
  5
5981B
330
1F
100
AcDbEntity
  8
1
100
AcDbSpline
210
0.0
220
0.0
230
1.0
 70
     8
 71
     3
 72
    26
 73
    22
 74
    20
 42
0.0000000001
 43
0.0000000001
 44
0.000001
 12
-0.8653774020978945
 22
0.5011206959788223
 32
0.0
 13
0.9981173813310814
 23
0.0613326428974386
 33
0.0
 40
0.0
 40
0.0
 40
0.0
 40
0.0
 40
0.0786732390281834
 40
0.1580396619264549
 40
0.2374427932159717
 40
0.317294597106408
 40
0.3987178117682443
 40
0.4815899990034813
 40
0.5654164929047916
 40
0.6510950768766265
 40
0.7386677103038857
 40
0.8268100936237765
 40
0.9161661989696009
 40
1.006514635962546
 40
1.094289219993502
 40
1.177263136692786
 40
1.255070699009632
 40
1.327890510106127
 40
1.397410192764013
 40
1.465536057044982
 40
1.533323078660192
 40
1.533323078660192
 40
1.533323078660192
 40
1.533323078660192
 10
86.04479737317452
 20
-2.715654105310511
 30
0.0
 10
86.02210335877291
 20
-2.702512509211608
 30
0.0
 10
85.97816027967994
 20
-2.673137210088695
 30
0.0
 10
85.91857668072897
 20
-2.62070835202555
 30
0.0
 10
85.86606249179704
 20
-2.560656743912751
 30
0.0
 10
85.82167843269909
 20
-2.493534635391076
 30
0.0
 10
85.78623698495976
 20
-2.420000311495105
 30
0.0
 10
85.76062541999524
 20
-2.341085807730523
 30
0.0
 10
85.74597411822429
 20
-2.257960029057869
 30
0.0
 10
85.74327379992222
 20
-2.172017750218672
 30
0.0
 10
85.75299073647983
 20
-2.085124942258282
 30
0.0
 10
85.7755958528314
 20
-1.999371077372857
 30
0.0
 10
85.81113610167221
 20
-1.917105274648595
 30
0.0
 10
85.85836420322548
 20
-1.841091712724211
 30
0.0
 10
85.91492064059556
 20
-1.774521015919123
 30
0.0
 10
85.97729212703603
 20
-1.719579275016343
 30
0.0
 10
86.04219896205387
 20
-1.67618022530609
 30
0.0
 10
86.10796023030344
 20
-1.643208398215528
 30
0.0
 10
86.17414926502419
 20
-1.619468709647014
 30
0.0
 10
86.24096783988001
 20
-1.603863443195125
 30
0.0
 10
86.28607329284026
 20
-1.59856468660714
 30
0.0
 10
86.30862642767452
 20
-1.597178834210537
 30
0.0
 11
86.04479737317452
 21
-2.715654105310511
 31
0.0
 11
85.97941384467459
 21
-2.671897933210523
 31
0.0
 11
85.91980944977446
 21
-2.619492321410525
 31
0.0
 11
85.86757203437455
 21
-2.559691713610547
 31
0.0
 11
85.8235189760745
 21
-2.493091095210536
 31
0.0
 11
85.78813881857456
 21
-2.419756325310522
 31
0.0
 11
85.76258382667459
 21
-2.340922664110464
 31
0.0
 11
85.74805181957463
 21
-2.258365371810532
 31
0.0
 11
85.7453128534745
 21
-2.172730548910529
 31
0.0
 11
85.75506812967455
 21
-2.085702932210536
 31
0.0
 11
85.77756647277466
 21
-2.00048022541052
 31
0.0
 11
85.81295306317462
 21
-1.918429580510526
 31
0.0
 11
85.86065278177466
 21
-1.841698996510537
 31
0.0
 11
85.9175083355746
 21
-1.774827262910527
 31
0.0
 11
85.97974023847474
 21
-1.719946798610529
 31
0.0
 11
86.04442239517451
 21
-1.676700538610539
 31
0.0
 11
86.10953275937452
 21
-1.644091204610517
 31
0.0
 11
86.17496482827453
 21
-1.620604328510502
 31
0.0
 11
86.24130296457451
 21
-1.605099907810519
 31
0.0
 11
86.30862642767452
 21
-1.597178834210537
 31
0.0
  0
SPLINE
  5
5981C
330
1F
100
AcDbEntity
  8
1
100
AcDbSpline
210
0.0
220
0.0
230
1.0
 70
     8
 71
     3
 72
     9
 73
     5
 74
     3
 42
0.0000000001
 43
0.0000000001
 44
0.000001
 12
0.5874160572362647
 22
-0.8092851016180896
 32
0.0
 13
0.1624064875349067
 23
-0.9867239395122499
 33
0.0
 40
0.0
 40
0.0
 40
0.0
 40
0.0
 40
0.0403813097528704
 40
0.063183189595927
 40
0.063183189595927
 40
0.063183189595927
 40
0.063183189595927
 10
84.26425762247452
 20
-5.988442844410521
 30
0.0
 10
84.27216449906154
 20
-5.999336175199463
 30
0.0
 10
84.28220412636434
 20
-6.018306170868778
 30
0.0
 10
84.2873109827031
 20
-6.038833495874856
 30
0.0
 10
84.28854537377459
 20
-6.046333216110531
 30
0.0
 11
84.26425762247452
 21
-5.988442844410521
 31
0.0
 11
84.28298356907452
 21
-6.024220267210529
 31
0.0
 11
84.28854537377459
 21
-6.046333216110531
 31
0.0
  0
SPLINE
  5
5981D
330
1F
100
AcDbEntity
  8
1
100
AcDbSpline
210
0.0
220
0.0
230
1.0
 70
     8
 71
     3
 72
     9
 73
     5
 74
     3
 42
0.0000000001
 43
0.0000000001
 44
0.000001
 12
0.9349948497471029
 22
0.354661290453853
 32
0.0
 13
0.9207753937189984
 23
0.3900931610803032
 33
0.0
 40
0.0
 40
0.0
 40
0.0
 40
0.0
 40
0.080563077895809
 40
0.1616358492718241
 40
0.1616358492718241
 40
0.1616358492718241
 40
0.1616358492718241
 10
86.85500579697464
 20
-5.936755557810506
 30
0.0
 10
86.88011448461208
 20
-5.927231356087352
 30
0.0
 10
86.93030999337931
 20
-5.907642849142677
 30
0.0
 10
86.9801225259801
 20
-5.887099797498373
 30
0.0
 10
87.00500579697466
 20
-5.876557819610503
 30
0.0
 11
86.85500579697464
 21
-5.936755557810506
 31
0.0
 11
86.93005660237465
 21
-5.907467584910548
 31
0.0
 11
87.00500579697466
 21
-5.876557819610503
 31
0.0
  0
SPLINE
  5
5981E
330
1F
100
AcDbEntity
  8
1
100
AcDbSpline
210
0.0
220
0.0
230
1.0
 70
     8
 71
     3
 72
    19
 73
    15
 74
    13
 42
0.0000000001
 43
0.0000000001
 44
0.000001
 12
-0.471237009546424
 22
0.8820066217629795
 32
0.0
 13
-0.4787188590879208
 23
0.8779682533859409
 33
0.0
 40
0.0
 40
0.0
 40
0.0
 40
0.0
 40
0.0657886936915005
 40
0.1538165630138429
 40
0.2659149614445837
 40
0.4021135789621081
 40
0.5656251261641069
 40
0.7623331642717983
 40
0.9976559506765344
 40
1.275519709669062
 40
1.604088988295803
 40
1.970771236302261
 40
2.351013767711657
 40
2.720286725558532
 40
2.720286725558532
 40
2.720286725558532
 40
2.720286725558532
 10
84.26425762247452
 20
-5.988442844410521
 30
0.0
 10
84.25392360004881
 20
-5.969100823252841
 30
0.0
 10
84.22890929090334
 20
-5.924316079843814
 30
0.0
 10
84.18114456153537
 20
-5.849608730642767
 30
0.0
 10
84.11872858319517
 20
-5.756485338411041
 30
0.0
 10
84.04043050366306
 20
-5.643728367695519
 30
0.0
 10
83.94508713821101
 20
-5.508486063480693
 30
0.0
 10
83.83041743049963
 20
-5.346440125092168
 30
0.0
 10
83.69443678359045
 20
-5.152779839845815
 30
0.0
 10
83.53524140491009
 20
-4.921720768342644
 30
0.0
 10
83.35509775449759
 20
-4.651950176537457
 30
0.0
 10
83.16216483327613
 20
-4.349756936900849
 30
0.0
 10
82.96992655291949
 20
-4.031145372476447
 30
0.0
 10
82.84725860403209
 20
-3.813446794951683
 30
0.0
 10
82.78833262767461
 20
-3.705376817010523
 30
0.0
 11
84.26425762247452
 21
-5.988442844410521
 31
0.0
 11
84.23204668997454
 21
-5.931078993310463
 31
0.0
 11
84.1852366305746
 21
-5.856528881110548
 31
0.0
 11
84.12297003367461
 21
-5.763314511710561
 31
0.0
 11
84.04550323667455
 21
-5.651292388810539
 31
0.0
 11
83.95142615767452
 21
-5.517555607610559
 31
0.0
 11
83.83794094447464
 21
-5.356884652110507
 31
0.0
 11
83.70284662437461
 21
-5.164202697610548
 31
0.0
 11
83.5453397103746
 21
-4.935292589810507
 31
0.0
 11
83.36304223577451
 21
-4.661933123110549
 31
0.0
 11
83.16588618997451
 21
-4.35276430041052
 31
0.0
 11
82.96968830807463
 21
-4.027048517910522
 31
0.0
 11
82.78833262767461
 21
-3.705376817010523
 31
0.0
  0
SPLINE
  5
5981F
330
1F
100
AcDbEntity
  8
1
100
AcDbSpline
210
0.0
220
0.0
230
1.0
 70
     8
 71
     3
 72
     9
 73
     5
 74
     3
 42
0.0000000001
 43
0.0000000001
 44
0.000001
 12
-0.9689384594501367
 22
-0.2473019648090079
 32
0.0
 13
-0.9582789948914955
 23
-0.2858345114742882
 33
0.0
 40
0.0
 40
0.0
 40
0.0
 40
0.0
 40
0.077579394978195
 40
0.155641512001119
 40
0.155641512001119
 40
0.155641512001119
 40
0.155641512001119
 10
89.79318380847463
 20
6.058051161689531
 30
0.0
 10
89.76812725532289
 20
6.05165598275393
 30
0.0
 10
89.71798487159496
 20
6.038324512631878
 30
0.0
 10
89.66811890415458
 20
6.023993472784103
 30
0.0
 10
89.64318380847464
 20
6.016555857089471
 30
0.0
 11
89.79318380847463
 21
6.058051161689531
 31
0.0
 11
89.71820903897445
 21
6.038117629389533
 31
0.0
 11
89.64318380847464
 21
6.016555857089471
 31
0.0
  0
SPLINE
  5
59820
330
1F
100
AcDbEntity
  8
1
100
AcDbSpline
210
0.0
220
0.0
230
1.0
 70
     8
 71
     3
 72
    24
 73
    20
 74
    18
 42
0.0000000001
 43
0.0000000001
 44
0.000001
 12
0.5464957964450871
 22
-0.8374618465744275
 32
0.0
 13
0.2768657484030572
 23
-0.9609086103065239
 33
0.0
 40
0.0
 40
0.0
 40
0.0
 40
0.0
 40
0.0640128159709582
 40
0.1396771434877504
 40
0.2243473216497534
 40
0.3156513856706997
 40
0.4136607189034404
 40
0.5216580259139397
 40
0.6435529877757215
 40
0.7835159808967446
 40
0.9460372634728813
 40
1.135792137365331
 40
1.356112404223454
 40
1.609041012684117
 40
1.88985832796753
 40
2.18964838403019
 40
2.503889557796477
 40
2.831223822056615
 40
3.1708596900656
 40
3.1708596900656
 40
3.1708596900656
 40
3.1708596900656
 10
92.90709325917459
 20
5.082378988189461
 30
0.0
 10
92.91875417079017
 20
5.064509557833638
 30
0.0
 10
92.94413099139408
 20
5.025474074598448
 30
0.0
 10
92.98469143331486
 20
4.962646567706332
 30
0.0
 10
93.02981231014726
 20
4.891936152233387
 30
0.0
 10
93.0784635437868
 20
4.814644782198948
 30
0.0
 10
93.13066160913891
 20
4.730400716455209
 30
0.0
 10
93.18748521640713
 20
4.637030632359911
 30
0.0
 10
93.25060521209104
 20
4.531127016534444
 30
0.0
 10
93.32171274083966
 20
4.408834372009928
 30
0.0
 10
93.40236297323963
 20
4.26593775817113
 30
0.0
 10
93.49361154051448
 20
4.098287069724698
 30
0.0
 10
93.59566738364746
 20
3.902244357192926
 30
0.0
 10
93.70680745398084
 20
3.676768237934463
 30
0.0
 10
93.82321409962324
 20
3.424444846947656
 30
0.0
 10
93.94027485335413
 20
3.150041749115225
 30
0.0
 10
94.05415918501132
 20
2.85758658641954
 30
0.0
 10
94.16230680841303
 20
2.548841900312152
 30
0.0
 10
94.22788779514762
 20
2.336343802402402
 30
0.0
 10
94.25923230807457
 20
2.227557459089481
 30
0.0
 11
92.90709325917459
 21
5.082378988189461
 31
0.0
 11
92.94198879027463
 21
5.028714072889485
 31
0.0
 11
92.98301097407465
 21
4.965135202689467
 31
0.0
 11
93.02855272507452
 21
4.893756033489451
 31
0.0
 11
93.07718544367451
 21
4.81648192608948
 31
0.0
 11
93.1288027944746
 21
4.73316641208946
 31
0.0
 11
93.18494393237459
 21
4.640908151189464
 31
0.0
 11
93.24734621737446
 21
4.536197447689501
 31
0.0
 11
93.31769316407456
 21
4.41519769458945
 31
0.0
 11
93.39756535327444
 21
4.273657619089462
 31
0.0
 11
93.48826452977446
 21
4.106982599189463
 31
0.0
 11
93.58997761897445
 21
3.911546018989483
 31
0.0
 11
93.70177066747451
 21
3.684664586689463
 31
0.0
 11
93.81936471497455
 21
3.429654791889461
 31
0.0
 11
93.93694495607453
 21
3.15388503178947
 31
0.0
 11
94.05091978457466
 21
2.861041626089487
 31
0.0
 11
94.15904118817451
 21
2.552079622989466
 31
0.0
 11
94.25923230807457
 21
2.227557459089481
 31
0.0
  0
SPLINE
  5
59821
330
1F
100
AcDbEntity
  8
1
100
AcDbSpline
210
0.0
220
0.0
230
1.0
 70
     8
 71
     3
 72
    23
 73
    19
 74
    17
 42
0.0000000001
 43
0.0000000001
 44
0.000001
 12
0.8652614560536198
 22
-0.5013208679757603
 32
0.0
 13
-0.9447509153207926
 23
-0.3277891212357801
 33
0.0
 40
0.0
 40
0.0
 40
0.0
 40
0.0
 40
0.0856925147625329
 40
0.1710833356715506
 40
0.2550445525273636
 40
0.338192255960919
 40
0.4214778676771788
 40
0.5043835705944603
 40
0.5870157236682852
 40
0.6705704933659104
 40
0.7548722571654634
 40
0.8393476786336378
 40
0.925366254024324
 40
1.012808449001109
 40
1.100642548396669
 40
1.189824754830666
 40
1.280091193036809
 40
1.369850198658887
 40
1.369850198658887
 40
1.369850198658887
 40
1.369850198658887
 10
90.60339223227451
 20
1.139450339789461
 30
0.0
 10
90.62810770897328
 20
1.125130524496202
 30
0.0
 10
90.67552300046179
 20
1.093037292915882
 30
0.0
 10
90.7386058229296
 20
1.035640839963986
 30
0.0
 10
90.79255627444211
 20
0.9706760043276906
 30
0.0
 10
90.83643436922528
 20
0.8993537877479766
 30
0.0
 10
90.86990087788393
 20
0.8229913220487922
 30
0.0
 10
90.89258328748117
 20
0.7429375862606591
 30
0.0
 10
90.90393259432051
 20
0.6604135722074713
 30
0.0
 10
90.90371203800733
 20
0.5766505861568135
 30
0.0
 10
90.89186640486195
 20
0.4931019614438109
 30
0.0
 10
90.86813768938656
 20
0.4112518093488599
 30
0.0
 10
90.83249856655355
 20
0.3326838367902436
 30
0.0
 10
90.7854284782344
 20
0.2590405110655596
 30
0.0
 10
90.72742571193568
 20
0.1922295118744487
 30
0.0
 10
90.65939025952964
 20
0.1341947018811515
 30
0.0
 10
90.58303071189005
 20
0.0864483518156097
 30
0.0
 10
90.52768630041454
 20
0.0625762805480731
 30
0.0
 10
90.49941966617462
 20
0.0527689386894537
 30
0.0
 11
90.60339223227451
 21
1.139450339789461
 31
0.0
 11
90.67432823967456
 21
1.09137311208947
 31
0.0
 11
90.73751051177451
 21
1.033930997789454
 31
0.0
 11
90.79110994317465
 21
0.9693044501894831
 31
0.0
 11
90.83470746667449
 21
0.8985033131894653
 31
0.0
 11
90.86815553687459
 21
0.8222293053894842
 31
0.0
 11
90.89071601397462
 21
0.7424522098894358
 31
0.0
 11
90.9019833618746
 21
0.6605918148894574
 31
0.0
 11
90.90179781677466
 21
0.5770372221895315
 31
0.0
 11
90.88993086807468
 21
0.4935748483894855
 31
0.0
 11
90.8663971413746
 21
0.4124436864894819
 31
0.0
 11
90.83090591077462
 21
0.3340882607894429
 31
0.0
 11
90.78379067957456
 21
0.2604248543894556
 31
0.0
 11
90.72618745287456
 21
0.1941172218894707
 31
0.0
 11
90.65837741977452
 21
0.1361925343894512
 31
0.0
 11
90.58181144527464
 21
0.0883836883894702
 31
0.0
 11
90.49941966617462
 21
0.0527689386894537
 31
0.0
  0
SPLINE
  5
59822
330
1F
100
AcDbEntity
  8
1
100
AcDbSpline
210
0.0
220
0.0
230
1.0
 70
     8
 71
     3
 72
    10
 73
     6
 74
     4
 42
0.0000000001
 43
0.0000000001
 44
0.000001
 12
-0.9826000017620618
 22
0.1857343170692922
 32
0.0
 13
-0.9546252138177848
 23
0.2978098405750699
 33
0.0
 40
0.0
 40
0.0
 40
0.0
 40
0.0
 40
0.2578112540637896
 40
0.5156155545090567
 40
0.7733912203955949
 40
0.7733912203955949
 40
0.7733912203955949
 40
0.7733912203955949
 10
86.85500579697464
 20
-5.936755557810506
 30
0.0
 10
86.77056401740884
 20
-5.920794092075067
 30
0.0
 10
86.6022785078262
 20
-5.885616902321712
 30
0.0
 10
86.35209801042668
 20
-5.823177353587481
 30
0.0
 10
86.1870321803625
 20
-5.775149456864469
 30
0.0
 10
86.1050057969745
 20
-5.749560080210535
 30
0.0
 11
86.85500579697464
 21
-5.936755557810506
 31
0.0
 11
86.60264839667455
 21
-5.88400432171054
 31
0.0
 11
86.35251822127456
 21
-5.82157515481053
 31
0.0
 11
86.1050057969745
 21
-5.749560080210535
 31
0.0
  0
SPLINE
  5
59823
330
1F
100
AcDbEntity
  8
1
100
AcDbSpline
210
0.0
220
0.0
230
1.0
 70
     8
 71
     3
 72
    10
 73
     6
 74
     4
 42
0.0000000001
 43
0.0000000001
 44
0.000001
 12
0.969049654705967
 22
-0.246865888113863
 32
0.0
 13
0.9342911076981607
 23
-0.3565110462189687
 33
0.0
 40
0.0
 40
0.0
 40
0.0
 40
0.0
 40
0.2624182018161499
 40
0.5248140636402527
 40
0.787166168985201
 40
0.787166168985201
 40
0.787166168985201
 40
0.787166168985201
 10
89.79318380847463
 20
6.058051161689531
 30
0.0
 10
89.87794923109412
 20
6.036457127540002
 30
0.0
 10
90.04666369040782
 20
5.99001652489703
 30
0.0
 10
90.29684306464838
 20
5.910715994125695
 30
0.0
 10
90.46147939543818
 20
5.851483303174263
 30
0.0
 10
90.54318380847474
 20
5.820306161989504
 30
0.0
 11
89.79318380847463
 21
6.058051161689531
 31
0.0
 11
90.04619248437462
 21
5.988407489789537
 31
0.0
 11
90.29632152997455
 21
5.909120137089458
 31
0.0
 11
90.54318380847474
 21
5.820306161989504
 31
0.0
  0
SPLINE
  5
59824
330
1F
100
AcDbEntity
  8
1
100
AcDbSpline
210
0.0
220
0.0
230
1.0
 70
     8
 71
     3
 72
    15
 73
    11
 74
     9
 42
0.0000000001
 43
0.0000000001
 44
0.000001
 12
0.998457932922745
 22
-0.0555135675636087
 32
0.0
 13
0.6526536274952023
 23
-0.7576564145556705
 33
0.0
 40
0.0
 40
0.0
 40
0.0
 40
0.0
 40
0.0981144263413422
 40
0.1914348004210123
 40
0.2801809025077855
 40
0.3659286786981708
 40
0.4487766598113096
 40
0.5289879477472033
 40
0.6076928502230438
 40
0.6426512705792077
 40
0.6426512705792077
 40
0.6426512705792077
 40
0.6426512705792077
 10
90.74331252137454
 20
-1.713156711110528
 30
0.0
 10
90.7759668971461
 20
-1.714972271722416
 30
0.0
 10
90.83957886338854
 20
-1.720565984044577
 30
0.0
 10
90.93203782224506
 20
-1.734145170465034
 30
0.0
 10
91.01932790844672
 20
-1.753245552775497
 30
0.0
 10
91.10148445642314
 20
-1.778285707982536
 30
0.0
 10
91.17823762057103
 20
-1.810152477521031
 30
0.0
 10
91.24854362146768
 20
-1.849989735230182
 30
0.0
 10
91.29954545946386
 20
-1.890324455466961
 30
0.0
 10
91.32545146715559
 20
-1.918044988701929
 30
0.0
 10
91.33305671377456
 20
-1.926873812510456
 30
0.0
 11
90.74331252137454
 21
-1.713156711110528
 31
0.0
 11
90.84105570937452
 21
-1.721674368310551
 31
0.0
 11
90.93335210947451
 21
-1.735460440010526
 31
0.0
 11
91.02000252497452
 21
-1.754632535010543
 31
0.0
 11
91.10193974657464
 21
-1.779910308810528
 31
0.0
 11
91.17830577777466
 21
-1.812035200610536
 31
0.0
 11
91.24785769507456
 21
-1.851989785510489
 31
0.0
 11
91.30913725107459
 21
-1.901378494710519
 31
0.0
 11
91.33305671377456
 21
-1.926873812510456
 31
0.0
  0
SPLINE
  5
59825
330
1F
100
AcDbEntity
  8
1
100
AcDbSpline
210
0.0
220
0.0
230
1.0
 70
     8
 71
     3
 72
    16
 73
    12
 74
    10
 42
0.0000000001
 43
0.0000000001
 44
0.000001
 12
0.8995671604806256
 22
0.4367824673505388
 32
0.0
 13
0.9983893877360102
 23
-0.056732975033174
 33
0.0
 40
0.0
 40
0.0
 40
0.0
 40
0.0
 40
0.1190946025400511
 40
0.2522508170059617
 40
0.3923868525602586
 40
0.530263161011092
 40
0.6574557608555909
 40
0.7732640433390138
 40
0.8800355830855039
 40
0.9810640872698975
 40
1.078632945621084
 40
1.078632945621084
 40
1.078632945621084
 40
1.078632945621084
 10
89.69436332647445
 20
-1.914320530310511
 30
0.0
 10
89.7300745242863
 20
-1.896981052195319
 30
0.0
 10
89.80694104979585
 20
-1.862706028567001
 30
0.0
 10
89.93011160227103
 20
-1.818374365591267
 30
0.0
 10
90.06193164755091
 20
-1.780514942084916
 30
0.0
 10
90.19388650679488
 20
-1.751308183764697
 30
0.0
 10
90.31923672117484
 20
-1.730795658907731
 30
0.0
 10
90.43514753656307
 20
-1.717799701250301
 30
0.0
 10
90.54283478515282
 20
-1.710901086023444
 30
0.0
 10
90.64464728307198
 20
-1.709123540982504
 30
0.0
 10
90.71084195045743
 20
-1.711311587242243
 30
0.0
 10
90.74331252137454
 20
-1.713156711110528
 30
0.0
 11
89.69436332647445
 21
-1.914320530310511
 31
0.0
 11
89.80317281887458
 21
-1.865904948110468
 31
0.0
 11
89.92835561347465
 21
-1.820519900710493
 31
0.0
 11
90.06301329187454
 21
-1.781720451810528
 31
0.0
 11
90.19761408617467
 21
-1.751845951510524
 31
0.0
 11
90.32313546727447
 21
-1.73129535791046
 31
0.0
 11
90.43822565967458
 21
-1.718419210810458
 31
0.0
 11
90.54478107847456
 21
-1.711629813710523
 31
0.0
 11
90.64579592317464
 21
-1.709969789010535
 31
0.0
 11
90.74331252137454
 21
-1.713156711110528
 31
0.0
  0
SPLINE
  5
59826
330
1F
100
AcDbEntity
  8
1
100
AcDbSpline
210
0.0
220
0.0
230
1.0
 70
     8
 71
     3
 72
    15
 73
    11
 74
     9
 42
0.0000000001
 43
0.0000000001
 44
0.000001
 12
-0.9979004907886796
 22
0.0647658126152401
 32
0.0
 13
-0.6489526936413128
 23
0.7608287595876515
 33
0.0
 40
0.0
 40
0.0
 40
0.0
 40
0.0
 40
0.1062996029180206
 40
0.2078903341987521
 40
0.3047459377035597
 40
0.3981215052937888
 40
0.4878894076063851
 40
0.5751903030738182
 40
0.6610236879863934
 40
0.6816621160494397
 40
0.6816621160494397
 40
0.6816621160494397
 40
0.6816621160494397
 10
85.88974925287455
 20
0.7550087275894484
 30
0.0
 10
85.8543904442337
 20
0.7573035876440028
 30
0.0
 10
85.78539043438253
 20
0.7644551406161986
 30
0.0
 10
85.68525369700699
 20
0.7820571306644668
 30
0.0
 10
85.59102974290722
 20
0.8067164343010672
 30
0.0
 10
85.50314657407829
 20
0.8385814636362226
 30
0.0
 10
85.421970997052
 20
0.8782587344894258
 30
0.0
 10
85.34848634938688
 20
0.9264664144873329
 30
0.0
 10
85.30013613680024
 20
0.9698176343226009
 30
0.0
 10
85.27656323556923
 20
0.9963595990817859
 30
0.0
 10
85.27209878107454
 20
1.001593702289468
 30
0.0
 11
85.88974925287455
 21
0.7550087275894484
 31
0.0
 11
85.78400862497458
 21
0.7658871793894591
 31
0.0
 11
85.68399565687455
 21
0.7837216723894686
 31
0.0
 11
85.59035150867453
 21
0.8084557323895396
 31
0.0
 11
85.50266808187464
 21
0.8405587864894954
 31
0.0
 11
85.42217095837452
 21
0.8802888911894726
 31
0.0
 11
85.3493974627745
 21
0.9285118475894693
 31
0.0
 11
85.28581533997453
 21
0.9861716744894906
 31
0.0
 11
85.27209878107454
 21
1.001593702289468
 31
0.0
  0
SPLINE
  5
59827
330
1F
100
AcDbEntity
  8
1
100
AcDbSpline
210
0.0
220
0.0
230
1.0
 70
     8
 71
     3
 72
    16
 73
    12
 74
    10
 42
0.0000000001
 43
0.0000000001
 44
0.000001
 12
-0.8428237547853909
 22
-0.5381896676539371
 32
0.0
 13
-0.9978198018604292
 23
0.0659972955143914
 33
0.0
 40
0.0
 40
0.0
 40
0.0
 40
0.0
 40
0.1351520867534904
 40
0.2706641485340731
 40
0.4044661880393181
 40
0.5349777819173385
 40
0.66153884185486
 40
0.7836507996565875
 40
0.8998721159389685
 40
1.009880482139979
 40
1.111886789673148
 40
1.111886789673148
 40
1.111886789673148
 40
1.111886789673148
 10
86.95382627897453
 20
1.012651093789471
 30
0.0
 10
86.91585648256632
 20
0.9884052749052729
 30
0.0
 10
86.83756273735795
 20
0.9432432396597253
 30
0.0
 10
86.71464549143115
 20
0.8874338549443974
 30
0.0
 10
86.58920779061817
 20
0.8420430068457488
 30
0.0
 10
86.46370828455541
 20
0.8066453758346543
 30
0.0
 10
86.33997360419675
 20
0.7804321386902564
 30
0.0
 10
86.219558651163
 20
0.7627278509309605
 30
0.0
 10
86.10379359485531
 20
0.7528734202106345
 30
0.0
 10
85.99434875287442
 20
0.7501323424339854
 30
0.0
 10
85.92367722406498
 20
0.7527646807819157
 30
0.0
 10
85.88974925287455
 20
0.7550087275894484
 30
0.0
 11
86.95382627897453
 21
1.012651093789471
 31
0.0
 11
86.83667836737459
 21
0.9452523738894667
 31
0.0
 11
86.71345482567458
 21
0.8888662407894543
 31
0.0
 11
86.58767757627463
 21
0.8432258942894604
 31
0.0
 11
86.46209190107454
 21
0.8077083745894666
 31
0.0
 11
86.33828420067464
 21
0.7814531204894806
 31
0.0
 11
86.21746843817465
 21
0.7637086224894674
 31
0.0
 11
86.10166274237441
 21
0.7538890699894907
 31
0.0
 11
85.99168600107452
 21
0.7512518371894929
 31
0.0
 11
85.88974925287455
 21
0.7550087275894484
 31
0.0
  0
SPLINE
  5
59828
330
1F
100
AcDbEntity
  8
1
100
AcDbSpline
210
0.0
220
0.0
230
1.0
 70
     8
 71
     3
 72
    11
 73
     7
 74
     5
 42
0.0000000001
 43
0.0000000001
 44
0.000001
 12
0.2312815046008688
 22
-0.9728868719586868
 32
0.0
 13
0.5546820077790608
 23
-0.8320624196814744
 33
0.0
 40
0.0
 40
0.0
 40
0.0
 40
0.0
 40
0.0090727361117367
 40
0.0335404368449907
 40
0.0710069038184035
 40
0.1196374731318597
 40
0.1196374731318597
 40
0.1196374731318597
 40
0.1196374731318597
 10
92.84918001377452
 20
5.186620805989534
 30
0.0
 10
92.84987946579411
 20
5.183678557370916
 30
0.0
 10
92.85286521697615
 20
5.1728703866389
 30
0.0
 10
92.8640102087378
 20
5.151803418691979
 30
0.0
 10
92.88272751492117
 20
5.120139364047054
 30
0.0
 10
92.89810175856585
 20
5.095866877913941
 30
0.0
 10
92.90709325917459
 20
5.082378988189461
 30
0.0
 11
92.84918001377452
 21
5.186620805989534
 31
0.0
 11
92.85166249107453
 21
5.177893922189483
 31
0.0
 11
92.86209013877465
 21
5.155759859889441
 31
0.0
 11
92.88098982707465
 21
5.123409692889467
 31
0.0
 11
92.90709325917459
 21
5.082378988189461
 31
0.0
  0
SPLINE
  5
59829
330
1F
100
AcDbEntity
  8
1
100
AcDbSpline
210
0.0
220
0.0
230
1.0
 70
    24
 71
     3
 72
     9
 73
     5
 74
     3
 42
0.0000000001
 43
0.0000000001
 44
0.000001
 12
0.8693115980603824
 22
0.4942644489316466
 32
0.0
 13
0.8693115980603824
 23
0.4942644489316466
 33
0.0
 40
0.0
 40
0.0
 40
0.0
 40
0.0
 40
0.0514824141307454
 40
0.1029648282614419
 40
0.1029648282614419
 40
0.1029648282614419
 40
0.1029648282614419
 10
89.6048548070745
 20
-1.965212384410513
 30
0.0
 10
89.61977289364117
 20
-1.956730408727178
 30
0.0
 10
89.64960906677447
 20
-1.939766457360508
 30
0.0
 10
89.6794452399078
 20
-1.922802505993837
 30
0.0
 10
89.69436332647445
 20
-1.914320530310511
 30
0.0
 11
89.6048548070745
 21
-1.965212384410513
 31
0.0
 11
89.64960906677452
 21
-1.939766457360525
 31
0.0
 11
89.69436332647445
 21
-1.914320530310511
 31
0.0
  0
SPLINE
  5
5982A
330
1F
100
AcDbEntity
  8
1
100
AcDbSpline
210
0.0
220
0.0
230
1.0
 70
     8
 71
     3
 72
     9
 73
     5
 74
     3
 42
0.0000000001
 43
0.0000000001
 44
0.000001
 12
-0.9496721877693417
 22
-0.3132454880399593
 32
0.0
 13
-0.9205393482252503
 23
0.3906498539216821
 33
0.0
 40
0.0
 40
0.0
 40
0.0
 40
0.0
 40
0.2428847686126474
 40
0.4436491119980931
 40
0.4436491119980931
 40
0.4436491119980931
 40
0.4436491119980931
 10
90.49941966617462
 20
0.0527689386894537
 30
0.0
 10
90.42253269631322
 20
0.0274080860622733
 30
0.0
 10
90.27139160355842
 20
0.0056620232422729
 30
0.0
 10
90.12529566771018
 20
0.0436922436840715
 30
0.0
 10
90.06369184177454
 20
0.0698350974894737
 30
0.0
 11
90.49941966617462
 21
0.0527689386894537
 31
0.0
 11
90.25855417617451
 21
0.0215128191894536
 31
0.0
 11
90.06369184177454
 21
0.0698350974894737
 31
0.0
  0
SPLINE
  5
5982B
330
1F
100
AcDbEntity
  8
1
100
AcDbSpline
210
0.0
220
0.0
230
1.0
 70
     8
 71
     3
 72
     9
 73
     5
 74
     3
 42
0.0000000001
 43
0.0000000001
 44
0.000001
 12
0.998196121133408
 22
0.0600375195541796
 32
0.0
 13
0.9189865313023027
 23
-0.3942889236143491
 33
0.0
 40
0.0
 40
0.0
 40
0.0
 40
0.0
 40
0.0810111342000514
 40
0.281775045316753
 40
0.281775045316753
 40
0.281775045316753
 40
0.281775045316753
 10
86.30862642767452
 20
-1.597178834210537
 30
0.0
 10
86.33558142765023
 20
-1.595557598359324
 30
0.0
 10
86.42970842518584
 20
-1.595968370987671
 30
0.0
 10
86.52299798691185
 20
-1.619652534205587
 30
0.0
 10
86.58449776367445
 20
-1.646038863010524
 30
0.0
 11
86.30862642767452
 21
-1.597178834210537
 31
0.0
 11
86.38963542927456
 21
-1.597716584710532
 31
0.0
 11
86.58449776367445
 21
-1.646038863010524
 31
0.0
  0
SPLINE
  5
5982C
330
1F
100
AcDbEntity
  8
1
100
AcDbSpline
210
0.0
220
0.0
230
1.0
 70
    24
 71
     3
 72
     9
 73
     5
 74
     3
 42
0.0000000001
 43
0.0000000001
 44
0.000001
 12
-0.8003540357310649
 22
-0.5995276619881667
 32
0.0
 13
-0.8003540357310647
 23
-0.5995276619881669
 33
0.0
 40
0.0
 40
0.0
 40
0.0
 40
0.0
 40
0.0559237606130916
 40
0.1118475212262568
 40
0.1118475212262568
 40
0.1118475212262568
 40
0.1118475212262568
 10
87.04334389397445
 20
1.079706776689462
 30
0.0
 10
87.02842429147446
 20
1.068530829539477
 30
0.0
 10
86.9985850864745
 20
1.046178935239477
 30
0.0
 10
86.96874588147453
 20
1.02382704093947
 30
0.0
 10
86.95382627897453
 20
1.012651093789471
 30
0.0
 11
87.04334389397445
 21
1.079706776689462
 31
0.0
 11
86.99858508647452
 21
1.046178935239495
 31
0.0
 11
86.95382627897453
 21
1.012651093789471
 31
0.0
  0
SPLINE
  5
5982D
330
1F
100
AcDbEntity
  8
1
100
AcDbSpline
210
0.0
220
0.0
230
1.0
 70
     8
 71
     3
 72
    62
 73
    58
 74
    56
 42
0.0000000001
 43
0.0000000001
 44
0.000001
 12
-0.001178026323373
 22
0.9999993061267499
 32
0.0
 13
0.9485397462469592
 23
-0.3166580960432787
 33
0.0
 40
0.0
 40
0.0
 40
0.0
 40
0.0
 40
0.0044424290440609
 40
0.0087794001962077
 40
0.0130233647873253
 40
0.0171907518415234
 40
0.0212954199371236
 40
0.0253539763455869
 40
0.0293821334613953
 40
0.0333948389508989
 40
0.0374090603963714
 40
0.0414383001744314
 40
0.0454980327669384
 40
0.0496017633820103
 40
0.0537613710294455
 40
0.0579903915451542
 40
0.0622981114740474
 40
0.0666954434391848
 40
0.0711915231778175
 40
0.0757931194154802
 40
0.0805094472561951
 40
0.0853452657373193
 40
0.0903067449599872
 40
0.0953996485902765
 40
0.1006264056127804
 40
0.1059930256545922
 40
0.1115012654873975
 40
0.1171536344474166
 40
0.1229540534145243
 40
0.1289019548036868
 40
0.1350010861128849
 40
0.1412515411099283
 40
0.1476531089021771
 40
0.1542085967537444
 40
0.1609153991826888
 40
0.1677753803531146
 40
0.1747875811061017
 40
0.1819496496563757
 40
0.189263345378193
 40
0.1967244431640032
 40
0.2043331302173465
 40
0.2120872866280061
 40
0.2199827825927425
 40
0.2280201356464676
 40
0.2361935625193216
 40
0.2445015086875188
 40
0.2529384620753597
 40
0.261496979082352
 40
0.2701739780491233
 40
0.2789599343409626
 40
0.2878513444964428
 40
0.2968419829216605
 40
0.3059256968018458
 40
0.3150990078247934
 40
0.324352532623535
 40
0.3336830350798419
 40
0.3430829649293078
 40
0.3430829649293078
 40
0.3430829649293078
 40
0.3430829649293078
 10
89.34318380847452
 20
6.367376395889536
 30
0.0
 10
89.34318206404174
 20
6.368857204543395
 30
0.0
 10
89.34326779926653
 20
6.371784501902989
 30
0.0
 10
89.34365300194761
 20
6.376111044156523
 30
0.0
 10
89.34429430988945
 20
6.380314746965196
 30
0.0
 10
89.34518702248206
 20
6.384393104514632
 30
0.0
 10
89.34632794050902
 20
6.388344906670142
 30
0.0
 10
89.34771325916591
 20
6.392168505743198
 30
0.0
 10
89.3493392838938
 20
6.395862649374279
 30
0.0
 10
89.35120230777759
 20
6.399426417126634
 30
0.0
 10
89.35329841799362
 20
6.402858620138728
 30
0.0
 10
89.35562400831077
 20
6.406158755187552
 30
0.0
 10
89.35817520479806
 20
6.409326011494018
 30
0.0
 10
89.3609483108923
 20
6.412359860357907
 30
0.0
 10
89.36393981814351
 20
6.415260042641774
 30
0.0
 10
89.36714597459305
 20
6.41802602706513
 30
0.0
 10
89.37056358002447
 20
6.420657769300877
 30
0.0
 10
89.37418913858847
 20
6.423154955461939
 30
0.0
 10
89.37801933572504
 20
6.425517355596661
 30
0.0
 10
89.38205122584236
 20
6.42774495402395
 30
0.0
 10
89.38628144429179
 20
6.429837425944867
 30
0.0
 10
89.39070723913332
 20
6.431794717883764
 30
0.0
 10
89.39532555995493
 20
6.433616604878506
 30
0.0
 10
89.40013333848133
 20
6.435302799894424
 30
0.0
 10
89.40512809022754
 20
6.436853207099838
 30
0.0
 10
89.41030665523573
 20
6.438267456056546
 30
0.0
 10
89.41566642919672
 20
6.439545302444285
 30
0.0
 10
89.4212046115855
 20
6.440686437566668
 30
0.0
 10
89.42691808168012
 20
6.441690446002069
 30
0.0
 10
89.43280451045929
 20
6.442557046074162
 30
0.0
 10
89.43886066106307
 20
6.443285782798769
 30
0.0
 10
89.44508372472578
 20
6.443876239383149
 30
0.0
 10
89.45147085762426
 20
6.444327997708005
 30
0.0
 10
89.45801856869335
 20
6.444640569824281
 30
0.0
 10
89.46472427652009
 20
6.444813517140159
 30
0.0
 10
89.47158434279376
 20
6.444846359480825
 30
0.0
 10
89.4785953877572
 20
6.444738618421867
 30
0.0
 10
89.48575415205466
 20
6.44448983250747
 30
0.0
 10
89.49305642699503
 20
6.444099566770966
 30
0.0
 10
89.50049897102781
 20
6.44356735467778
 30
0.0
 10
89.50807736221516
 20
6.442892822177733
 30
0.0
 10
89.51578730654023
 20
6.442075600644439
 30
0.0
 10
89.52362470671227
 20
6.441115337116653
 30
0.0
 10
89.53158432878964
 20
6.440011828510349
 30
0.0
 10
89.53966185718215
 20
6.438764782435723
 30
0.0
 10
89.54785105184249
 20
6.437374243567601
 30
0.0
 10
89.55614518984017
 20
6.43584043154698
 30
0.0
 10
89.56453711483929
 20
6.434163787787197
 30
0.0
 10
89.5730184230787
 20
6.432345140273666
 30
0.0
 10
89.58158205938017
 20
6.43038518506079
 30
0.0
 10
89.59022000206443
 20
6.428284957429994
 30
0.0
 10
89.59892536715143
 20
6.426045311370436
 30
0.0
 10
89.60769131721006
 20
6.423667164616621
 30
0.0
 10
89.61651002038591
 20
6.421151741424253
 30
0.0
 10
89.62537463831681
 20
6.418500135965356
 30
0.0
 10
89.63427695258259
 20
6.415713654441253
 30
0.0
 10
89.6402117394499
 20
6.413774130552484
 30
0.0
 10
89.64318380847464
 20
6.41278194258946
 30
0.0
 11
89.34318380847452
 21
6.367376395889536
 31
0.0
 11
89.34331384577445
 21
6.371817812289477
 31
0.0
 11
89.3437016911746
 21
6.376137395489465
 31
0.0
 11
89.3443437148746
 21
6.380332499089531
 31
0.0
 11
89.3452365911745
 21
6.384403092989478
 31
0.0
 11
89.34637638637457
 21
6.388346317389463
 31
0.0
 11
89.34775965677459
 21
6.392161851589534
 31
0.0
 11
89.34938272907453
 21
6.395848523789467
 31
0.0
 11
89.35124156197462
 21
6.399404704289466
 31
0.0
 11
89.35333320457457
 21
6.402830910289466
 31
0.0
 11
89.35565325167464
 21
6.406125154589473
 31
0.0
 11
89.35819871007453
 21
6.409287743589472
 31
0.0
 11
89.3609660008745
 21
6.412318026289469
 31
0.0
 11
89.36395100307464
 21
6.415214923189481
 31
0.0
 11
89.3671515188746
 21
6.417979201389456
 31
0.0
 11
89.37056299617465
 21
6.42060944868946
 31
0.0
 11
89.37418291047453
 21
6.423105982689505
 31
0.0
 11
89.37800820557459
 21
6.425468563689534
 31
0.0
 11
89.38203461187454
 21
6.427696271889446
 31
0.0
 11
89.38626081387463
 21
6.429789812689462
 31
0.0
 11
89.39068234337453
 21
6.43174817158946
 31
0.0
 11
89.39529670157465
 21
6.43357133658948
 31
0.0
 11
89.40010174247452
 21
6.435259296589535
 31
0.0
 11
89.40509280147461
 21
6.436811160589472
 31
0.0
 11
89.41026920157463
 21
6.438227302689468
 31
0.0
 11
89.41562672937454
 21
6.439506978589477
 31
0.0
 11
89.42116235267453
 21
6.440649834889441
 31
0.0
 11
89.42687486887455
 21
6.441655813089496
 31
0.0
 11
89.43275904827453
 21
6.442524109789458
 31
0.0
 11
89.43881426727461
 21
6.443254659589469
 31
0.0
 11
89.44503660207464
 21
6.443846872889466
 31
0.0
 11
89.45142209377456
 21
6.444300245789449
 31
0.0
 11
89.45797004507459
 21
6.444614470889476
 31
0.0
 11
89.46467457657446
 21
6.44478894268947
 31
0.0
 11
89.47153447087455
 21
6.444823257789536
 31
0.0
 11
89.47854586417452
 21
6.444716907189487
 31
0.0
 11
89.48570365657463
 21
6.444469475889562
 31
0.0
 11
89.49300699537458
 21
6.444080403789469
 31
0.0
 11
89.50044917287454
 21
6.443549399989464
 31
0.0
 11
89.50802799667451
 21
6.442875945889467
 31
0.0
 11
89.51573906737463
 21
6.442059659589474
 31
0.0
 11
89.52357607847465
 21
6.44110043718949
 31
0.0
 11
89.53153741307458
 21
6.43999762688945
 31
0.0
 11
89.53961527427452
 21
6.438751408089487
 31
0.0
 11
89.54780611557458
 21
6.437361413389468
 31
0.0
 11
89.5561025403745
 21
6.435827948089483
 31
0.0
 11
89.56449532887461
 21
6.434151847489558
 31
0.0
 11
89.57297960437463
 21
6.432333227189487
 31
0.0
 11
89.58154424657456
 21
6.430373652689482
 31
0.0
 11
89.59018407547466
 21
6.428273525989467
 31
0.0
 11
89.59889129717453
 21
6.426033911889468
 31
0.0
 11
89.60765823367443
 21
6.423655953789491
 31
0.0
 11
89.61647981297458
 21
6.421140128489454
 31
0.0
 11
89.62534531017452
 21
6.418488584689511
 31
0.0
 11
89.63424992897444
 21
6.415701822189491
 31
0.0
 11
89.64318380847464
 21
6.41278194258946
 31
0.0
  0
SPLINE
  5
5982E
330
1F
100
AcDbEntity
  8
1
100
AcDbSpline
210
0.0
220
0.0
230
1.0
 70
     8
 71
     3
 72
    10
 73
     6
 74
     4
 42
0.0000000001
 43
0.0000000001
 44
0.000001
 12
0.9485584906845588
 22
-0.3166019421138033
 32
0.0
 13
0.9482991418026321
 23
-0.3173779098431262
 33
0.0
 40
0.0
 40
0.0
 40
0.0
 40
0.0
 40
0.2320469433811137
 40
0.4604696690696563
 40
0.6853431189437901
 40
0.6853431189437901
 40
0.6853431189437901
 40
0.6853431189437901
 10
89.64318380847464
 20
6.41278194258946
 30
0.0
 10
89.71655384126847
 20
6.388293104944116
 30
0.0
 10
89.86214143082579
 20
6.339678285168293
 30
0.0
 10
90.07880797264956
 20
6.267263056522929
 30
0.0
 10
90.22210137529812
 20
6.219327410156218
 30
0.0
 10
90.29318380847474
 20
6.195537454989462
 30
0.0
 11
89.64318380847464
 21
6.41278194258946
 31
0.0
 11
89.86328389197456
 21
6.339285431289467
 31
0.0
 11
90.07992677427465
 21
6.266878228489459
 31
0.0
 11
90.29318380847474
 21
6.195537454989462
 31
0.0
  0
SPLINE
  5
5982F
330
1F
100
AcDbEntity
  8
1
100
AcDbSpline
210
0.0
220
0.0
230
1.0
 70
     8
 71
     3
 72
    10
 73
     6
 74
     4
 42
0.0000000001
 43
0.0000000001
 44
0.000001
 12
-0.9942521442588873
 22
-0.1070638764318038
 32
0.0
 13
-0.9902166462277705
 23
-0.1395385019749976
 33
0.0
 40
0.0
 40
0.0
 40
0.0
 40
0.0
 40
0.0837732042738983
 40
0.1677546191995655
 40
0.2519337057231203
 40
0.2519337057231203
 40
0.2519337057231203
 40
0.2519337057231203
 10
90.54318380847474
 20
6.226610871489483
 30
0.0
 10
90.51541991248114
 20
6.223621176825924
 30
0.0
 10
90.45985536137484
 20
6.217330265706288
 30
0.0
 10
90.37651714891886
 20
6.206972557776509
 30
0.0
 10
90.3209689860547
 20
6.199452862866502
 30
0.0
 10
90.29318380847474
 20
6.195537454989462
 30
0.0
 11
90.54318380847474
 21
6.226610871489483
 31
0.0
 11
90.45994219527461
 21
6.217187385989447
 31
0.0
 11
90.37660220477459
 21
6.206829152089468
 31
0.0
 11
90.29318380847474
 21
6.195537454989462
 31
0.0
  0
SPLINE
  5
59830
330
1F
100
AcDbEntity
  8
1
100
AcDbSpline
210
0.0
220
0.0
230
1.0
 70
     8
 71
     3
 72
    21
 73
    17
 74
    15
 42
0.0000000001
 43
0.0000000001
 44
0.000001
 12
-0.5938491264644444
 22
0.8045764196130884
 32
0.0
 13
-0.5973594454780095
 23
0.8019736235676367
 33
0.0
 40
0.0
 40
0.0
 40
0.0
 40
0.0
 40
0.0154725607432732
 40
0.0312424613073741
 40
0.0471978788396242
 40
0.063229184192132
 40
0.0792057982078293
 40
0.0949953627775805
 40
0.1109483939283125
 40
0.127868571972612
 40
0.1458671891714879
 40
0.1643220857409687
 40
0.1829993489506944
 40
0.2023738050716515
 40
0.2229721560513583
 40
0.2453352499990367
 40
0.2453352499990367
 40
0.2453352499990367
 40
0.2453352499990367
 10
90.54318380847474
 20
4.452816240789458
 30
0.0
 10
90.54012101958088
 20
4.456965859964482
 30
0.0
 10
90.53393538214798
 20
4.465343955915512
 30
0.0
 10
90.52458711529078
 20
4.47799802415655
 30
0.0
 10
90.51512445417733
 20
4.490799141949675
 30
0.0
 10
90.50561708097388
 20
4.503652893865039
 30
0.0
 10
90.49613886082655
 20
4.516459444360187
 30
0.0
 10
90.48667249380853
 20
4.529242306578842
 30
0.0
 10
90.47701522748878
 20
4.542275173065616
 30
0.0
 10
90.4669155644906
 20
4.555896700411289
 30
0.0
 10
90.45631476581872
 20
4.570184841113231
 30
0.0
 10
90.44536022988669
 20
4.584939825055655
 30
0.0
 10
90.43412738136749
 20
4.600059370098743
 30
0.0
 10
90.42246322737451
 20
4.615748568380155
 30
0.0
 10
90.41006026627393
 20
4.632419446904571
 30
0.0
 10
90.40150798620777
 20
4.6439057305604
 30
0.0
 10
90.39705505107452
 20
4.649883934389535
 30
0.0
 11
90.54318380847474
 21
4.452816240789458
 31
0.0
 11
90.53399365937456
 21
4.465263782789534
 31
0.0
 11
90.52462323347461
 21
4.477947823789506
 31
0.0
 11
90.51513885427452
 21
4.490778331089487
 31
0.0
 11
90.50560559717467
 21
4.503667077289533
 31
0.0
 11
90.49610110897452
 21
4.516509075389492
 31
0.0
 11
90.48670427387456
 21
4.529198041089486
 31
0.0
 11
90.47720649677456
 21
4.54201566328946
 31
0.0
 11
90.46712893527455
 21
4.555607395289469
 31
0.0
 11
90.45640461637459
 21
4.570062124489466
 31
0.0
 11
90.44540361547444
 21
4.584879721089507
 31
0.0
 11
90.43426512857456
 21
4.599872194089464
 31
0.0
 11
90.42270572227463
 21
4.615420494589456
 31
0.0
 11
90.41041040107462
 21
4.631946749889451
 31
0.0
 11
90.39705505107452
 21
4.649883934389535
 31
0.0
  0
SPLINE
  5
59831
330
1F
100
AcDbEntity
  8
1
100
AcDbSpline
210
0.0
220
0.0
230
1.0
 70
     8
 71
     3
 72
    47
 73
    43
 74
    41
 42
0.0000000001
 43
0.0000000001
 44
0.000001
 12
-0.8566194510433307
 22
0.51594875336047
 32
0.0
 13
-0.0007710427847976
 23
0.9999997027464678
 33
0.0
 40
0.0
 40
0.0
 40
0.0
 40
0.0
 40
0.0103118756666134
 40
0.0207453326197895
 40
0.0312923366755475
 40
0.0419467219250561
 40
0.052698873446357
 40
0.063542151878892
 40
0.0744651365870241
 40
0.0854567739122798
 40
0.0965007951732072
 40
0.1075892102483587
 40
0.1187068871711215
 40
0.1298379202333954
 40
0.1409699218223677
 40
0.1520964023765238
 40
0.1631979253164589
 40
0.174254519514484
 40
0.185251195220129
 40
0.1961796716484683
 40
0.2070212089982735
 40
0.2177572742648979
 40
0.2283760226062907
 40
0.2388696067022336
 40
0.2492215028005373
 40
0.2594160234765468
 40
0.2694460702235484
 40
0.2793051294659848
 40
0.2889804421859845
 40
0.2984604598224756
 40
0.3077438997545834
 40
0.316829181353274
 40
0.3257106027413156
 40
0.3343836605421617
 40
0.3428501554972139
 40
0.351107956406435
 40
0.3591577999894499
 40
0.3670024198220852
 40
0.3746462409090039
 40
0.3820944084438275
 40
0.389351528481223
 40
0.3964186791993109
 40
0.3964186791993109
 40
0.3964186791993109
 40
0.3964186791993109
 10
89.56553809497462
 20
5.238589142989454
 30
0.0
 10
89.56259364388371
 20
5.240362609454453
 30
0.0
 10
89.5567034827501
 20
5.243986374058826
 30
0.0
 10
89.54792670320594
 20
5.249623948369986
 30
0.0
 10
89.53916467216329
 20
5.255492213120276
 30
0.0
 10
89.53043015373539
 20
5.261588921827853
 30
0.0
 10
89.52173490843511
 20
5.267910966502821
 30
0.0
 10
89.51309219581984
 20
5.274454083728127
 30
0.0
 10
89.50451550636143
 20
5.281213269227904
 30
0.0
 10
89.49602068434158
 20
5.288181076885098
 30
0.0
 10
89.48762242084347
 20
5.2953502150796
 30
0.0
 10
89.47933620520892
 20
5.302712001995217
 30
0.0
 10
89.47117717874567
 20
5.310257311715267
 30
0.0
 10
89.46316123080768
 20
5.317975437740266
 30
0.0
 10
89.45530185846182
 20
5.325857116179473
 30
0.0
 10
89.44761320404442
 20
5.333891837280394
 30
0.0
 10
89.44011085022564
 20
5.342066729434675
 30
0.0
 10
89.43281174769298
 20
5.350366092612084
 30
0.0
 10
89.42572981159736
 20
5.358776281132273
 30
0.0
 10
89.41887830187594
 20
5.367283411314172
 30
0.0
 10
89.41227076707589
 20
5.375872082137077
 30
0.0
 10
89.40592082940133
 20
5.384525219614192
 30
0.0
 10
89.39983933392408
 20
5.393227992600538
 30
0.0
 10
89.39403630524536
 20
5.401965590719289
 30
0.0
 10
89.38852194358451
 20
5.410721547719411
 30
0.0
 10
89.38330557605375
 20
5.419478909245232
 30
0.0
 10
89.37839416524246
 20
5.428222971233253
 30
0.0
 10
89.3737937220794
 20
5.436939385122764
 30
0.0
 10
89.36951033659111
 20
5.445611926883206
 30
0.0
 10
89.3655485062691
 20
5.454225294343163
 30
0.0
 10
89.36191054005931
 20
5.46276705518263
 30
0.0
 10
89.35859762109803
 20
5.471226182816713
 30
0.0
 10
89.35561087757431
 20
5.479590228361895
 30
0.0
 10
89.3529504175439
 20
5.487847324262897
 30
0.0
 10
89.35061540799518
 20
5.49598630572555
 30
0.0
 10
89.34860400014757
 20
5.50399728292294
 30
0.0
 10
89.34691366792494
 20
5.511870277191069
 30
0.0
 10
89.34554094761933
 20
5.519597097380716
 30
0.0
 10
89.34448143192927
 20
5.527170677306278
 30
0.0
 10
89.34373119212704
 20
5.534584359392096
 30
0.0
 10
89.34328251229883
 20
5.54182987186252
 30
0.0
 10
89.34318562483303
 20
5.546605187483677
 30
0.0
 10
89.34318380847452
 20
5.548960903689462
 30
0.0
 11
89.56553809497462
 21
5.238589142989454
 31
0.0
 11
89.55675668707467
 21
5.243993210989443
 31
0.0
 11
89.5479777253746
 21
5.249631193489462
 31
0.0
 11
89.53921442537462
 21
5.25550007768946
 31
0.0
 11
89.53047765227461
 21
5.261597998489534
 31
0.0
 11
89.52178104817461
 21
5.267920794389468
 31
0.0
 11
89.51313576237465
 21
5.274465687289462
 31
0.0
 11
89.50455668537461
 21
5.281226673189464
 31
0.0
 11
89.49605822427452
 21
5.288197479689486
 31
0.0
 11
89.4876585416746
 21
5.29536794878949
 31
0.0
 11
89.47936922077451
 21
5.30273272938946
 31
0.0
 11
89.47120703177461
 21
5.310281324789471
 31
0.0
 11
89.46318890907447
 21
5.318002042589441
 31
0.0
 11
89.45532888527464
 21
5.325885021689443
 31
0.0
 11
89.44763671127452
 21
5.333924231789481
 31
0.0
 11
89.44013090507461
 21
5.342103874289462
 31
0.0
 11
89.43282964487464
 21
5.350406869989469
 31
0.0
 11
89.42574717167451
 21
5.358819081889535
 31
0.0
 11
89.41889309077453
 21
5.367331016289469
 31
0.0
 11
89.41228324587461
 21
5.375924544889457
 31
0.0
 11
89.40593254147447
 21
5.384580843089494
 31
0.0
 11
89.39985123367462
 21
5.393285747189493
 31
0.0
 11
89.39404696617453
 21
5.402027922289462
 31
0.0
 11
89.38853174907455
 21
5.41078828578945
 31
0.0
 11
89.38331622357452
 21
5.419547645189466
 31
0.0
 11
89.37840592597456
 21
5.428293538089477
 31
0.0
 11
89.37380579867454
 21
5.437013612689511
 31
0.0
 11
89.36952312867447
 21
5.445689454589468
 31
0.0
 11
89.36556365117462
 21
5.454302995489469
 31
0.0
 11
89.36192811857459
 21
5.462844948989483
 31
0.0
 11
89.35861724967457
 21
5.471305462789459
 31
0.0
 11
89.35563283587454
 21
5.479670432589458
 31
0.0
 11
89.35297547007461
 21
5.487926347589464
 31
0.0
 11
89.35064323897448
 21
5.49606526778946
 31
0.0
 11
89.34863490407451
 21
5.504075114589474
 31
0.0
 11
89.34694780837451
 21
5.511946166489494
 31
0.0
 11
89.3455783414746
 21
5.51967030868947
 31
0.0
 11
89.34452218767454
 21
5.527240794989538
 31
0.0
 11
89.3437745844746
 21
5.534651324189538
 31
0.0
 11
89.34333038417447
 21
5.541894793689535
 31
0.0
 11
89.34318380847452
 21
5.548960903689462
 31
0.0
  0
SPLINE
  5
59832
330
1F
100
AcDbEntity
  8
1
100
AcDbSpline
210
0.0
220
0.0
230
1.0
 70
     8
 71
     3
 72
     8
 73
     4
 74
     0
 42
0.0000000001
 43
0.0000000001
 40
0.0
 40
0.0
 40
0.0
 40
0.0
 40
0.0907093091287405
 40
0.0907093091287405
 40
0.0907093091287405
 40
0.0907093091287405
 10
89.56553809497462
 20
5.238589142989454
 30
0.0
 10
89.59144138135526
 20
5.222992289479236
 30
0.0
 10
89.61732323924605
 20
5.207359788589704
 30
0.0
 10
89.64318366612724
 20
5.191691892136383
 30
0.0
  0
SPLINE
  5
59833
330
1F
100
AcDbEntity
  8
1
100
AcDbSpline
210
0.0
220
0.0
230
1.0
 70
     8
 71
     3
 72
    12
 73
     8
 74
     0
 42
0.0000000001
 43
0.0000000001
 40
0.0907093091287405
 40
0.0907093091287405
 40
0.0907093091287405
 40
0.0907093091287405
 40
0.1766378216605041
 40
0.3505434923145399
 40
0.5217649322498119
 40
0.6903469286300059
 40
0.8563367723658529
 40
0.8563367723658529
 40
0.8563367723658529
 40
0.8563367723658529
 10
89.64318366612724
 20
5.191691892136383
 30
0.0
 10
89.66768112991212
 20
5.176849765681367
 30
0.0
 10
89.74169941907183
 20
5.131873485177243
 30
0.0
 10
89.86420136124184
 20
5.05678088162616
 30
0.0
 10
90.00970367058208
 20
4.966496495401023
 30
0.0
 10
90.15247544795364
 20
4.876820951543535
 30
0.0
 10
90.24657937935923
 20
4.816969506429401
 30
0.0
 10
90.29318380847474
 20
4.787146187989534
 30
0.0
  0
SPLINE
  5
59834
330
1F
100
AcDbEntity
  8
1
100
AcDbSpline
210
0.0
220
0.0
230
1.0
 70
     8
 71
     3
 72
    10
 73
     6
 74
     4
 42
0.0000000001
 43
0.0000000001
 44
0.000001
 12
0.6094612037826312
 22
-0.7928158935615671
 32
0.0
 13
0.5973618315855607
 23
-0.8019718462419641
 33
0.0
 40
0.0
 40
0.0
 40
0.0
 40
0.0
 40
0.0575860452096242
 40
0.1149644724832252
 40
0.1721356053180071
 40
0.1721356053180071
 40
0.1721356053180071
 40
0.1721356053180071
 10
90.29318380847474
 20
4.787146187989534
 30
0.0
 10
90.30488262861958
 20
4.771927810693019
 30
0.0
 10
90.32816114164765
 20
4.741486677320969
 30
0.0
 10
90.36278459883511
 20
4.695731483420284
 30
0.0
 10
90.38567110019984
 20
4.665167147373287
 30
0.0
 10
90.39705505107452
 20
4.649883934389535
 30
0.0
 11
90.29318380847474
 21
4.787146187989534
 31
0.0
 11
90.3281643969745
 21
4.741402198889531
 31
0.0
 11
90.36278766347463
 21
4.695647306089468
 31
0.0
 11
90.39705505107452
 21
4.649883934389535
 31
0.0
  0
SPLINE
  5
59835
330
1F
100
AcDbEntity
  8
1
100
AcDbSpline
210
0.0
220
0.0
230
1.0
 70
     8
 71
     3
 72
    62
 73
    58
 74
    56
 42
0.0000000001
 43
0.0000000001
 44
0.000001
 12
0.0006142976937595
 22
-0.9999998113191541
 32
0.0
 13
-0.9799204956790051
 23
0.1993886209095526
 33
0.0
 40
0.0
 40
0.0
 40
0.0
 40
0.0
 40
0.0051707503324166
 40
0.0102645624838136
 40
0.0152911996580393
 40
0.0202628251925409
 40
0.0251899365411874
 40
0.0300854942785518
 40
0.0349599191445067
 40
0.0398261644406774
 40
0.0446942824754731
 40
0.0495762936880028
 40
0.0544819993865867
 40
0.059421598953305
 40
0.0644047391707126
 40
0.0694392741035397
 40
0.0745345102961794
 40
0.0796962902758153
 40
0.0849329125598297
 40
0.0902488896982066
 40
0.0956507066912295
 40
0.1011424828270784
 40
0.1067280612908338
 40
0.1124122629656202
 40
0.1181970807161736
 40
0.1240878030165537
 40
0.1300840821206439
 40
0.1361848491534878
 40
0.142393531373085
 40
0.1487126128523223
 40
0.1551431045706192
 40
0.161683231330774
 40
0.1683352041291198
 40
0.1750966892399092
 40
0.1819691583483817
 40
0.1889509691731218
 40
0.1960409606072996
 40
0.2032393844351331
 40
0.2105428122229532
 40
0.2179523164289448
 40
0.2254637921329062
 40
0.2330772724019837
 40
0.2407898581865571
 40
0.2485988679658039
 40
0.2565035057968279
 40
0.2644987817164992
 40
0.2725841001709865
 40
0.2807528536243807
 40
0.2890028665280044
 40
0.2973289005113207
 40
0.3057263315811824
 40
0.314192910266206
 40
0.3227227202037656
 40
0.3313145765829701
 40
0.3399615625298077
 40
0.3486617390874974
 40
0.3574102854787302
 40
0.3574102854787302
 40
0.3574102854787302
 40
0.3574102854787302
 10
87.30500579697451
 20
-6.177917988210495
 30
0.0
 10
87.30500685576783
 20
-6.179641571329427
 30
0.0
 10
87.30491627144429
 20
-6.183063848222155
 30
0.0
 10
87.30450878798855
 20
-6.188146972430439
 30
0.0
 10
87.30383135128532
 20
-6.193134479163322
 30
0.0
 10
87.30288809353602
 20
-6.198021998981468
 30
0.0
 10
87.30168245202959
 20
-6.202806477687175
 30
0.0
 10
87.30021845836722
 20
-6.207484378427697
 30
0.0
 10
87.29850005263344
 20
-6.212053229161937
 30
0.0
 10
87.29653161981763
 20
-6.216510017835592
 30
0.0
 10
87.29431737893891
 20
-6.220852700244386
 30
0.0
 10
87.29186195192111
 20
-6.225078847177339
 30
0.0
 10
87.28916979970309
 20
-6.229186691621455
 30
0.0
 10
87.28624557586107
 20
-6.233174458892031
 30
0.0
 10
87.28309399821567
 20
-6.237040522863941
 30
0.0
 10
87.27971959712968
 20
-6.240783707470753
 30
0.0
 10
87.27612729094985
 20
-6.244402541584648
 30
0.0
 10
87.27232142022145
 20
-6.247896297396358
 30
0.0
 10
87.26830695902734
 20
-6.251263735786347
 30
0.0
 10
87.26408819340143
 20
-6.254504310129423
 30
0.0
 10
87.25966995380089
 20
-6.257617105792061
 30
0.0
 10
87.25505671742858
 20
-6.260601531953527
 30
0.0
 10
87.25025289646255
 20
-6.263457096635397
 30
0.0
 10
87.24526298055137
 20
-6.266183270549648
 30
0.0
 10
87.24009052911016
 20
-6.268780030125882
 30
0.0
 10
87.23474013504707
 20
-6.271246768052715
 30
0.0
 10
87.22921690401147
 20
-6.27358271986952
 30
0.0
 10
87.22352616477122
 20
-6.275787230201062
 30
0.0
 10
87.21767199083089
 20
-6.277860202487129
 30
0.0
 10
87.21165740146298
 20
-6.279801807209045
 30
0.0
 10
87.20548670506678
 20
-6.281611706527245
 30
0.0
 10
87.19916400331708
 20
-6.283289661772777
 30
0.0
 10
87.19269419716546
 20
-6.284835239211858
 30
0.0
 10
87.18608088497028
 20
-6.286248343294538
 30
0.0
 10
87.1793286815757
 20
-6.287528646336868
 30
0.0
 10
87.17244160622099
 20
-6.288675941454267
 30
0.0
 10
87.16542388581883
 20
-6.289689994832264
 30
0.0
 10
87.15828015931988
 20
-6.290570510386554
 30
0.0
 10
87.15101417001328
 20
-6.291317319761043
 30
0.0
 10
87.14363095909979
 20
-6.291930108079167
 30
0.0
 10
87.13613429084203
 20
-6.292408686269024
 30
0.0
 10
87.12852913255948
 20
-6.292752780636249
 30
0.0
 10
87.12081987443401
 20
-6.292962156327593
 30
0.0
 10
87.11301109005303
 20
-6.293036584640511
 30
0.0
 10
87.10510796705808
 20
-6.292975834463796
 30
0.0
 10
87.09711492545146
 20
-6.292779694908003
 30
0.0
 10
87.08903825660975
 20
-6.292448021154033
 30
0.0
 10
87.08088325633594
 20
-6.291980701484626
 30
0.0
 10
87.07265671159603
 20
-6.291377776191112
 30
0.0
 10
87.06436470089434
 20
-6.290639319781033
 30
0.0
 10
87.05601328324521
 20
-6.289765477393817
 30
0.0
 10
87.04760870618347
 20
-6.288756458243919
 30
0.0
 10
87.0391560478945
 20
-6.287612373254194
 30
0.0
 10
87.0306619136247
 20
-6.286333526977939
 30
0.0
 10
87.02213155375245
 20
-6.284920149165825
 30
0.0
 10
87.01357149993032
 20
-6.283372354225823
 30
0.0
 10
87.00786342361338
 20
-6.282254604743816
 30
0.0
 10
87.00500579697466
 20
-6.281673151210513
 30
0.0
 11
87.30500579697451
 21
-6.177917988210495
 31
0.0
 11
87.3048688112745
 21
-6.18308786761046
 31
0.0
 11
87.30445985757445
 21
-6.188165229410527
 31
0.0
 11
87.30378219157456
 21
-6.193145966910504
 31
0.0
 11
87.30283914457464
 21
-6.198027321010505
 31
0.0
 11
87.30163461427451
 21
-6.202804917910532
 31
0.0
 11
87.30017217047452
 21
-6.207476924810534
 31
0.0
 11
87.29845624467458
 21
-6.212039328510519
 31
0.0
 11
87.29649053507461
 21
-6.21649087281046
 31
0.0
 11
87.29427984627461
 21
-6.220828078410511
 31
0.0
 11
87.29182809987452
 21
-6.225049796510526
 31
0.0
 11
87.28914009687455
 21
-6.229153517410465
 31
0.0
 11
87.28622024447451
 21
-6.233137742410526
 31
0.0
 11
87.28307291547457
 21
-6.237001154810521
 31
0.0
 11
87.27970325327452
 21
-6.240741726010504
 31
0.0
 11
87.27611500037459
 21
-6.244359160510505
 31
0.0
 11
87.27231382327465
 21
-6.247851293010526
 31
0.0
 11
87.26830311257455
 21
-6.251218247310512
 31
0.0
 11
87.26408857197464
 21
-6.254458190710527
 31
0.0
 11
87.25967385937453
 21
-6.257571053710485
 31
0.0
 11
87.25506398197451
 21
-6.260555784110536
 31
0.0
 11
87.25026369537465
 21
-6.263411641010499
 31
0.0
 11
87.24527638207451
 21
-6.266138698210497
 31
0.0
 11
87.24010739037453
 21
-6.26873593331053
 31
0.0
 11
87.23475864407452
 21
-6.271204032510532
 31
0.0
 11
87.22923670827453
 21
-6.273541463110525
 31
0.0
 11
87.22354853157453
 21
-6.27574691091054
 31
0.0
 11
87.2176965175746
 21
-6.277820956410535
 31
0.0
 11
87.21168351827451
 21
-6.279763797010544
 31
0.0
 11
87.20551342087452
 21
-6.281575184010542
 31
0.0
 11
87.19919250197461
 21
-6.283254244710526
 31
0.0
 11
87.19272292167465
 21
-6.284801266610521
 31
0.0
 11
87.18611098987452
 21
-6.286215495710492
 31
0.0
 11
87.17935907497452
 21
-6.287497089710547
 31
0.0
 11
87.17247237597462
 21
-6.28864559601051
 31
0.0
 11
87.16545543457458
 21
-6.289660741510552
 31
0.0
 11
87.15831121367461
 21
-6.290542457310535
 31
0.0
 11
87.15104616847462
 21
-6.29129024471053
 31
0.0
 11
87.14366213667458
 21
-6.291904116110522
 31
0.0
 11
87.13616598047464
 21
-6.292383617310527
 31
0.0
 11
87.12856032087456
 21
-6.292728634010536
 31
0.0
 11
87.12085060007462
 21
-6.292938867310496
 31
0.0
 11
87.11304195167452
 21
-6.29301408651046
 31
0.0
 11
87.10513754077453
 21
-6.292954067910534
 31
0.0
 11
87.09714465307456
 21
-6.292758623510464
 31
0.0
 11
87.08906611617456
 21
-6.292427516410504
 31
0.0
 11
87.08091070717461
 21
-6.291960768710459
 31
0.0
 11
87.07268272167466
 21
-6.291358286810527
 31
0.0
 11
87.06438946417463
 21
-6.290620222210527
 31
0.0
 11
87.05603757937444
 21
-6.289746788310465
 31
0.0
 11
87.04763131507444
 21
-6.288737980310521
 31
0.0
 11
87.03917853187453
 21
-6.287594244010541
 31
0.0
 11
87.03068237677461
 21
-6.286315430410539
 31
0.0
 11
87.02215165307462
 21
-6.28490222841053
 31
0.0
 11
87.01359023237461
 21
-6.283354594110512
 31
0.0
 11
87.00500579697466
 21
-6.281673151210513
 31
0.0
  0
SPLINE
  5
59836
330
1F
100
AcDbEntity
  8
1
100
AcDbSpline
210
0.0
220
0.0
230
1.0
 70
     8
 71
     3
 72
    10
 73
     6
 74
     4
 42
0.0000000001
 43
0.0000000001
 44
0.000001
 12
-0.9799301052694941
 22
0.1993413875403648
 32
0.0
 13
-0.9798394573704811
 23
0.1997864804733319
 33
0.0
 40
0.0
 40
0.0
 40
0.0
 40
0.0
 40
0.2232296895753321
 40
0.4443295422586076
 40
0.6633431143317559
 40
0.6633431143317559
 40
0.6633431143317559
 40
0.6633431143317559
 10
87.00500579697466
 20
-6.281673151210513
 30
0.0
 10
86.93208929923972
 20
-6.266840179190462
 30
0.0
 10
86.78695421983716
 20
-6.237304847297
 30
0.0
 10
86.57028757765386
 20
-6.193178531334933
 30
0.0
 10
86.42653851018016
 20
-6.163879917723989
 30
0.0
 10
86.35500579697453
 20
-6.149294600810527
 30
0.0
 11
87.00500579697466
 21
-6.281673151210513
 31
0.0
 11
86.78625967187452
 21
-6.237157681210511
 31
0.0
 11
86.5696072498746
 21
-6.193034299010534
 31
0.0
 11
86.35500579697453
 21
-6.149294600810527
 31
0.0
  0
SPLINE
  5
59837
330
1F
100
AcDbEntity
  8
1
100
AcDbSpline
210
0.0
220
0.0
230
1.0
 70
     8
 71
     3
 72
    10
 73
     6
 74
     4
 42
0.0000000001
 43
0.0000000001
 44
0.000001
 12
-0.9493478811756721
 22
-0.3142269888269655
 32
0.0
 13
-0.9591708960072038
 23
-0.2828271420015022
 33
0.0
 40
0.0
 40
0.0
 40
0.0
 40
0.0
 40
0.0874271732508935
 40
0.1747460437185272
 40
0.2619602053885877
 40
0.2619602053885877
 40
0.2619602053885877
 40
0.2619602053885877
 10
86.35500579697453
 20
-6.149294600810527
 30
0.0
 10
86.32733952974687
 20
-6.158451926607955
 30
0.0
 10
86.27194068431347
 20
-6.176453024398759
 30
0.0
 10
86.18860255618798
 20
-6.202526494496915
 30
0.0
 10
86.13289022550571
 20
-6.219287811148103
 30
0.0
 10
86.1050057969745
 20
-6.227509988510504
 30
0.0
 11
86.35500579697453
 21
-6.149294600810527
 31
0.0
 11
86.27185771517464
 21
-6.176311657410463
 31
0.0
 11
86.18852249867462
 21
-6.202384496010508
 31
0.0
 11
86.1050057969745
 21
-6.227509988510504
 31
0.0
  0
SPLINE
  5
59838
330
1F
100
AcDbEntity
  8
1
100
AcDbSpline
210
0.0
220
0.0
230
1.0
 70
     8
 71
     3
 72
    12
 73
     8
 74
     6
 42
0.0000000001
 43
0.0000000001
 44
0.000001
 12
0.6147696069401785
 22
-0.788706745490755
 32
0.0
 13
0.6168862435472593
 23
-0.7870523251488122
 33
0.0
 40
0.0
 40
0.0
 40
0.0
 40
0.0
 40
0.0517285417852727
 40
0.1053587017632533
 40
0.1599356182826095
 40
0.2145092547824805
 40
0.2681270675829426
 40
0.2681270675829426
 40
0.2681270675829426
 40
0.2681270675829426
 10
86.1050057969745
 20
-4.274658423110466
 30
0.0
 10
86.11560617540815
 20
-4.288257973057281
 30
0.0
 10
86.13720424487048
 20
-4.315951068648724
 30
0.0
 10
86.17001337627339
 20
-4.357971503533208
 30
0.0
 10
86.20342963848182
 20
-4.400721089646879
 30
0.0
 10
86.23686645358155
 20
-4.443449375714727
 30
0.0
 10
86.25910657816595
 20
-4.471839089465882
 30
0.0
 10
86.27013194187453
 20
-4.485905764210548
 30
0.0
 11
86.1050057969745
 21
-4.274658423110466
 31
0.0
 11
86.13681798187453
 21
-4.315448459110527
 31
0.0
 11
86.16982295377466
 21
-4.357719796710546
 31
0.0
 11
86.20343424857452
 21
-4.400718874010536
 31
0.0
 11
86.23706668597455
 21
-4.443697250310498
 31
0.0
 11
86.27013194187453
 21
-4.485905764210548
 31
0.0
  0
SPLINE
  5
59839
330
1F
100
AcDbEntity
  8
1
100
AcDbSpline
210
0.0
220
0.0
230
1.0
 70
     8
 71
     3
 72
    10
 73
     6
 74
     4
 42
0.0000000001
 43
0.0000000001
 44
0.000001
 12
0.616883210038262
 22
-0.7870547027830338
 32
0.0
 13
0.6270533906669255
 23
-0.7789762802891448
 33
0.0
 40
0.0
 40
0.0
 40
0.0
 40
0.0
 40
0.0453660337969115
 40
0.09085222258072
 40
0.1364577946070959
 40
0.1364577946070959
 40
0.1364577946070959
 40
0.1364577946070959
 10
86.27013194187453
 20
-4.485905764210548
 30
0.0
 10
86.27946045672631
 20
-4.497807614292706
 30
0.0
 10
86.29819371965039
 20
-4.521602505654474
 30
0.0
 10
86.32648489342583
 20
-4.55721979202295
 30
0.0
 10
86.3454734207837
 20
-4.580913893124605
 30
0.0
 10
86.35500579697453
 20
-4.59275577941046
 30
0.0
 11
86.27013194187453
 21
-4.485905764210548
 31
0.0
 11
86.29819454887456
 21
-4.521550789610508
 31
0.0
 11
86.32648580097452
 21
-4.557168158810539
 31
0.0
 11
86.35500579697453
 21
-4.59275577941046
 31
0.0
  0
SPLINE
  5
5983A
330
1F
100
AcDbEntity
  8
1
100
AcDbSpline
210
0.0
220
0.0
230
1.0
 70
     8
 71
     3
 72
    11
 73
     7
 74
     0
 42
0.0000000001
 43
0.0000000001
 40
0.0
 40
0.0
 40
0.0
 40
0.0
 40
0.1980361307912455
 40
0.3995097680189669
 40
0.6045521737308884
 40
0.7269514753957546
 40
0.7269514753957546
 40
0.7269514753957546
 40
0.7269514753957546
 10
86.35500579697453
 20
-4.59275577941046
 30
0.0
 10
86.41369032166847
 20
-4.62298352264942
 30
0.0
 10
86.53227051793709
 20
-4.683590820296344
 30
0.0
 10
86.71229192747466
 20
-4.774156157249898
 30
0.0
 10
86.87028350350876
 20
-4.852402762489311
 30
0.0
 10
86.96832497068406
 20
-4.900372408111735
 30
0.0
 10
87.00500566612721
 20
-4.918237263510461
 30
0.0
  0
SPLINE
  5
5983B
330
1F
100
AcDbEntity
  8
1
100
AcDbSpline
210
0.0
220
0.0
230
1.0
 70
     8
 71
     3
 72
     8
 73
     4
 74
     0
 42
0.0000000001
 43
0.0000000001
 40
0.7269514753957546
 40
0.7269514753957546
 40
0.7269514753957546
 40
0.7269514753957546
 40
0.8132629898270955
 40
0.8132629898270955
 40
0.8132629898270955
 40
0.8132629898270955
 10
87.00500566612721
 20
-4.918237263510461
 30
0.0
 10
87.03087155205173
 20
-4.930834906663554
 30
0.0
 10
87.05675350853164
 20
-4.943399516497797
 30
0.0
 10
87.08265151047454
 20
-4.955930894810492
 30
0.0
  0
SPLINE
  5
5983C
330
1F
100
AcDbEntity
  8
1
100
AcDbSpline
210
0.0
220
0.0
230
1.0
 70
     8
 71
     3
 72
    49
 73
    45
 74
    43
 42
0.0000000001
 43
0.0000000001
 44
0.000001
 12
0.9000919592100965
 22
-0.4356999712707476
 32
0.0
 13
0.0004468557548133
 23
-0.9999999001599622
 33
0.0
 40
0.0
 40
0.0
 40
0.0
 40
0.0
 40
0.008853823276039
 40
0.0178113735478666
 40
0.0268700528149098
 40
0.0360311203773579
 40
0.0452903059395041
 40
0.0546477442595709
 40
0.064098715370749
 40
0.0736402671092481
 40
0.0832682894414259
 40
0.0929767830042362
 40
0.1027617770875329
 40
0.1126150223401771
 40
0.1225317557379346
 40
0.132502071865319
 40
0.1425200228908119
 40
0.1525748383801139
 40
0.1626592003064585
 40
0.1727612483957932
 40
0.1828727321232955
 40
0.1929825646492949
 40
0.203081087278971
 40
0.2131530805569587
 40
0.2231892172553552
 40
0.2331799398559838
 40
0.2431130197563682
 40
0.2529768378052373
 40
0.2627682532152234
 40
0.2724789046904197
 40
0.2820959988530931
 40
0.291607601596317
 40
0.3010109875475533
 40
0.3103006311797791
 40
0.3194671874500019
 40
0.3285022029424777
 40
0.3374064674393853
 40
0.3461792042112711
 40
0.3548160465405173
 40
0.3633133670462188
 40
0.3716736207518208
 40
0.3798972616362658
 40
0.3879834051376834
 40
0.3959327820392663
 40
0.3959327820392663
 40
0.3959327820392663
 40
0.3959327820392663
 10
87.08265151047454
 20
-4.955930894810492
 30
0.0
 10
87.08530792885422
 20
-4.957216764992828
 30
0.0
 10
87.09062477960566
 20
-4.959860035412155
 30
0.0
 10
87.09855755207485
 20
-4.964019983584895
 30
0.0
 10
87.10648914491001
 20
-4.968398317807046
 30
0.0
 10
87.11441171051669
 20
-4.972996684162706
 30
0.0
 10
87.12231843265074
 20
-4.977816476452539
 30
0.0
 10
87.13020057218066
 20
-4.982858079828684
 30
0.0
 10
87.13804969329471
 20
-4.988121882397061
 30
0.0
 10
87.14585609873273
 20
-4.993607278633286
 30
0.0
 10
87.15360968949125
 20
-4.999313155665598
 30
0.0
 10
87.16130006206681
 20
-5.005237904194597
 30
0.0
 10
87.16891570765969
 20
-5.011378753213358
 30
0.0
 10
87.17644546345837
 20
-5.017732820979144
 30
0.0
 10
87.18387669687771
 20
-5.024295565944523
 30
0.0
 10
87.19119744544295
 20
-5.031062509534603
 30
0.0
 10
87.19839438590707
 20
-5.038027363491114
 30
0.0
 10
87.20545497991817
 20
-5.045183934320639
 30
0.0
 10
87.21236548997678
 20
-5.052524114157321
 30
0.0
 10
87.21911300585203
 20
-5.060039839412201
 30
0.0
 10
87.22568404451621
 20
-5.067721548193484
 30
0.0
 10
87.23206590381829
 20
-5.075559651203406
 30
0.0
 10
87.2382447700992
 20
-5.083542147327014
 30
0.0
 10
87.24420768842014
 20
-5.091656792719528
 30
0.0
 10
87.24994224110387
 20
-5.099890684566352
 30
0.0
 10
87.25543705828417
 20
-5.108231103774552
 30
0.0
 10
87.26068087747055
 20
-5.116664047074567
 30
0.0
 10
87.26566415929557
 20
-5.125176666583344
 30
0.0
 10
87.27037843882738
 20
-5.13375669566238
 30
0.0
 10
87.27481544226311
 20
-5.142391022015413
 30
0.0
 10
87.27896620719091
 20
-5.151063294484524
 30
0.0
 10
87.28282347273569
 20
-5.159758145755482
 30
0.0
 10
87.28638166214976
 20
-5.168461848490111
 30
0.0
 10
87.289636073346
 20
-5.177160988000454
 30
0.0
 10
87.29258207208363
 20
-5.18583982635164
 30
0.0
 10
87.29521664605558
 20
-5.194484055733205
 30
0.0
 10
87.29753832422359
 20
-5.203081668202499
 30
0.0
 10
87.29954645609234
 20
-5.211621631801669
 30
0.0
 10
87.30124067441385
 20
-5.220091126373388
 30
0.0
 10
87.30262160398861
 20
-5.228478032156992
 30
0.0
 10
87.3036910151533
 20
-5.23677151575316
 30
0.0
 10
87.30445074932545
 20
-5.244961480075595
 30
0.0
 10
87.30490564457509
 20
-5.253036847386617
 30
0.0
 10
87.30500461289958
 20
-5.258382551974579
 30
0.0
 10
87.30500579697451
 20
-5.26103234401055
 30
0.0
 11
87.08265151047454
 21
-4.955930894810492
 31
0.0
 11
87.09057838067463
 21
-4.959872754510519
 31
0.0
 11
87.09851164427453
 21
-4.964032210510495
 31
0.0
 11
87.10644236167455
 21
-4.968409807410536
 31
0.0
 11
87.11436570237458
 21
-4.973008260610541
 31
0.0
 11
87.12227190187453
 21
-4.977827436510537
 31
0.0
 11
87.13015487217449
 21
-4.982869296610529
 31
0.0
 11
87.13800429707466
 21
-4.988133069010543
 31
0.0
 11
87.14581128917464
 21
-4.993618686110528
 31
0.0
 11
87.15356593157451
 21
-4.999325194810531
 31
0.0
 11
87.16125676547461
 21
-5.005250211510548
 31
0.0
 11
87.16887393207455
 21
-5.011392261610531
 31
0.0
 11
87.17640424547459
 21
-5.017746843810535
 31
0.0
 11
87.18383725727461
 21
-5.024311280210532
 31
0.0
 11
87.19115872037455
 21
-5.031079091210506
 31
0.0
 11
87.19835744977443
 21
-5.038045978410464
 31
0.0
 11
87.20541891227453
 21
-5.045203836810521
 31
0.0
 11
87.21233122897443
 21
-5.052546459210546
 31
0.0
 11
87.21907961637459
 21
-5.060063806410488
 31
0.0
 11
87.22565202437454
 21
-5.067747908010523
 31
0.0
 11
87.2320348127746
 21
-5.075588098210531
 31
0.0
 11
87.23821560587451
 21
-5.083574199110514
 31
0.0
 11
87.24417911057456
 21
-5.091690941510456
 31
0.0
 11
87.24991415027465
 21
-5.099927032910541
 31
0.0
 11
87.25540979507455
 21
-5.108270429310527
 31
0.0
 11
87.26065416327452
 21
-5.116706216810519
 31
0.0
 11
87.26563639727453
 21
-5.125219270210528
 31
0.0
 11
87.27035035977463
 21
-5.133801239410516
 31
0.0
 11
87.27478757227453
 21
-5.142438815110536
 31
0.0
 11
87.27893823927455
 21
-5.151114083110548
 31
0.0
 11
87.28279398967453
 21
-5.159809115110546
 31
0.0
 11
87.28635092867461
 21
-5.168513806510545
 31
0.0
 11
87.28960442727453
 21
-5.177215071910501
 31
0.0
 11
87.29254928317459
 21
-5.18589570351046
 31
0.0
 11
87.29518170167464
 21
-5.194538715610526
 31
0.0
 11
87.29750134797461
 21
-5.203135513810457
 31
0.0
 11
87.29950770917463
 21
-5.211675723810528
 31
0.0
 11
87.30120006417472
 21
-5.22014512331055
 31
0.0
 11
87.30257882167462
 21
-5.228529824310541
 31
0.0
 11
87.30364611517462
 21
-5.236821652610544
 31
0.0
 11
87.30440424557457
 21
-5.245010248910523
 31
0.0
 11
87.30485615787461
 21
-5.253083708010493
 31
0.0
 11
87.30500579697451
 21
-5.26103234401055
 31
0.0
  0
ARC
  5
5983D
330
1F
100
AcDbEntity
  8
1
100
AcDbCircle
 10
89.69436366612724
 20
-1.942583999999989
 30
0.0
 40
1.0
100
AcDbArc
 50
90.0
 51
142.1255120000014
  0
ARC
  5
5983E
330
1F
100
AcDbEntity
  8
1
100
AcDbCircle
 10
86.95382666612728
 20
0.3663799999999782
 30
0.0
 40
1.0
100
AcDbArc
 50
270.0
 51
322.1255120000015
  0
ARC
  5
5983F
330
1F
100
AcDbEntity
  8
1
100
AcDbCircle
 10
88.09999966612725
 20
-0.0000000000000142
 30
0.0
 40
2.399999999999999
100
AcDbArc
 50
195.3080360000003
 51
221.7200289999999
  0
ARC
  5
59840
330
1F
100
AcDbEntity
  8
1
100
AcDbCircle
 10
88.09999966612725
 20
-0.0000000000000142
 30
0.0
 40
2.399999999999999
100
AcDbArc
 50
336.8746840000008
 51
1.2598589999997
  0
ARC
  5
59841
330
1F
100
AcDbEntity
  8
1
100
AcDbCircle
 10
88.09999966612725
 20
-0.0000000000000142
 30
0.0
 40
7.2
100
AcDbArc
 50
98.44004699999928
 51
154.6699360000005
  0
ARC
  5
59842
330
1F
100
AcDbEntity
  8
1
100
AcDbCircle
 10
88.09999966612725
 20
-0.0000000000000142
 30
0.0
 40
7.2
100
AcDbArc
 50
154.6699360000005
 51
236.8010840000016
  0
ARC
  5
59843
330
1F
100
AcDbEntity
  8
1
100
AcDbCircle
 10
88.09999966612725
 20
-0.0000000000000142
 30
0.0
 40
7.2
100
AcDbArc
 50
282.7935879999986
 51
70.16387300000106
  0
ARC
  5
59844
330
1F
100
AcDbEntity
  8
1
100
AcDbCircle
 10
88.09999966612725
 20
-0.0000000000000142
 30
0.0
 40
7.2
100
AcDbArc
 50
237.000273999999
 51
253.9138439999995
  0
ARC
  5
59845
330
1F
100
AcDbEntity
  8
1
100
AcDbCircle
 10
88.09999966612725
 20
-0.0000000000000142
 30
0.0
 40
7.2
100
AcDbArc
 50
282.0654769999995
 51
282.7935879999986
  0
ARC
  5
59846
330
1F
100
AcDbEntity
  8
1
100
AcDbCircle
 10
88.09999966612725
 20
-0.0000000000000142
 30
0.0
 40
7.2
100
AcDbArc
 50
56.80108400000154
 51
70.16387300000106
  0
ARC
  5
59847
330
1F
100
AcDbEntity
  8
1
100
AcDbCircle
 10
89.59999966612725
 20
-0.0000000000000142
 30
0.0
 40
7.754264999999997
100
AcDbArc
 50
202.6313279999996
 51
208.5450880000012
  0
ARC
  5
59848
330
1F
100
AcDbEntity
  8
1
100
AcDbCircle
 10
89.59999966612725
 20
-0.0000000000000142
 30
0.0
 40
8.099999999999999
100
AcDbArc
 50
184.4865279999998
 51
201.615466999999
  0
ARC
  5
59849
330
1F
100
AcDbEntity
  8
1
100
AcDbCircle
 10
89.59999966612725
 20
-0.0000000000000142
 30
0.0
 40
8.099999999999999
100
AcDbArc
 50
228.0648030000017
 51
228.3778599999979
  0
ARC
  5
5984A
330
1F
100
AcDbEntity
  8
1
100
AcDbCircle
 10
86.59999966612724
 20
-0.0000000000000071
 30
0.0
 40
8.099999999999999
100
AcDbArc
 50
353.1766340000003
 51
15.96243400000067
  0
ARC
  5
5984B
330
1F
100
AcDbEntity
  8
1
100
AcDbCircle
 10
86.59999966612724
 20
-0.0000000000000071
 30
0.0
 40
8.099999999999999
100
AcDbArc
 50
38.862543000001
 51
48.37785999999795
  0
ARC
  5
5984C
330
1F
100
AcDbEntity
  8
1
100
AcDbCircle
 10
89.59999966612725
 20
-0.0000000000000142
 30
0.0
 40
8.150188999999999
100
AcDbArc
 50
201.4757299999995
 51
213.304102
  0
ARC
  5
5984D
330
1F
100
AcDbEntity
  8
1
100
AcDbCircle
 10
86.59999966612724
 20
-0.0000000000000071
 30
0.0
 40
8.200152
100
AcDbArc
 50
15.7623719999992
 51
19.0795090000001
  0
LINE
  5
5984E
330
1F
100
AcDbEntity
  8
1
100
AcDbLine
 10
89.60500566612722
 20
-7.742583999999978
 30
0.0
 11
86.10500566612724
 21
-7.062252999999977
 31
0.0
  0
LINE
  5
5984F
330
1F
100
AcDbEntity
  8
1
100
AcDbLine
 10
82.78833266612725
 20
-3.705377000000004
 30
0.0
 11
82.78833266612725
 21
-4.475126999999993
 31
0.0
  0
LINE
  5
59850
330
1F
100
AcDbEntity
  8
1
100
AcDbLine
 10
86.10500566612724
 20
-2.750414999999982
 30
0.0
 11
86.04479766612724
 21
-2.715654000000006
 31
0.0
  0
LINE
  5
59851
330
1F
100
AcDbEntity
  8
1
100
AcDbLine
 10
82.44281366612723
 20
-2.983841000000018
 30
0.0
 11
82.01565666612721
 21
-2.983841000000018
 31
0.0
  0
LINE
  5
59852
330
1F
100
AcDbEntity
  8
1
100
AcDbLine
 10
86.10500566612724
 20
-1.836029999999972
 30
0.0
 11
86.29476466612727
 21
-1.836029999999972
 31
0.0
  0
LINE
  5
59853
330
1F
100
AcDbEntity
  8
1
100
AcDbLine
 10
87.10500566612722
 20
-1.646039000000008
 30
0.0
 11
86.10520966612723
 21
-1.646039000000008
 31
0.0
  0
LINE
  5
59854
330
1F
100
AcDbEntity
  8
1
100
AcDbLine
 10
86.10500566612724
 20
-1.646131000000004
 30
0.0
 11
86.10500566612724
 21
-1.872914999999984
 31
0.0
  0
LINE
  5
59855
330
1F
100
AcDbEntity
  8
1
100
AcDbLine
 10
86.10500566612724
 20
-1.872914999999984
 30
0.0
 11
86.10500566612724
 21
-4.274658423110466
 31
0.0
  0
LINE
  5
59856
330
1F
100
AcDbEntity
  8
1
100
AcDbLine
 10
86.10500566612724
 20
-4.274658423110466
 30
0.0
 11
86.10500566612724
 21
-4.754699999999998
 31
0.0
  0
LINE
  5
59857
330
1F
100
AcDbEntity
  8
1
100
AcDbLine
 10
86.10500566612724
 20
-7.062252999999977
 30
0.0
 11
86.10500566612724
 21
-5.749560000000016
 31
0.0
  0
LINE
  5
59858
330
1F
100
AcDbEntity
  8
1
100
AcDbLine
 10
86.35500566612725
 20
-6.149295000000029
 30
0.0
 11
86.35500566612725
 21
-5.822229999999976
 31
0.0
  0
LINE
  5
59859
330
1F
100
AcDbEntity
  8
1
100
AcDbLine
 10
90.30715566612718
 20
-0.9425839999999963
 30
0.0
 11
89.69436366612724
 21
-0.9425839999999963
 31
0.0
  0
LINE
  5
5985A
330
1F
100
AcDbEntity
  8
1
100
AcDbLine
 10
94.58186466612721
 20
-0.9425839999999963
 30
0.0
 11
90.30715566612718
 21
-0.9425839999999963
 31
0.0
  0
LINE
  5
5985B
330
1F
100
AcDbEntity
  8
1
100
AcDbLine
 10
87.10500566612722
 20
-1.646039000000008
 30
0.0
 11
88.90500566612724
 21
-1.328649999999989
 31
0.0
  0
LINE
  5
5985C
330
1F
100
AcDbEntity
  8
1
100
AcDbLine
 10
89.60500566612722
 20
-1.192583999999988
 30
0.0
 11
86.10500566612724
 21
-1.872914999999984
 31
0.0
  0
LINE
  5
5985D
330
1F
100
AcDbEntity
  8
1
100
AcDbLine
 10
86.85500566612722
 20
-4.844706000000016
 30
0.0
 11
86.85500566612722
 21
-4.968029000000014
 31
0.0
  0
LINE
  5
5985E
330
1F
100
AcDbEntity
  8
4
100
AcDbLine
 10
88.09999966612725
 20
-10.2324101485897
 30
0.0
 11
88.09999966612725
 21
10.23241014858968
 31
0.0
  0
LINE
  5
5985F
330
1F
100
AcDbEntity
  8
1
100
AcDbLine
 10
87.00500566612721
 20
-4.918219000000006
 30
0.0
 11
87.00500566612721
 21
-5.876557999999994
 31
0.0
  0
LINE
  5
59860
330
1F
100
AcDbEntity
  8
4
100
AcDbLine
 10
98.33240981471693
 20
-0.0000000000000142
 30
0.0
 11
77.86758951753752
 21
-0.0000000000000071
 31
0.0
  0
LINE
  5
59861
330
1F
100
AcDbEntity
  8
1
100
AcDbLine
 10
87.04318366612724
 20
5.250345999999993
 30
0.0
 11
87.04318366612724
 21
-0.3836200000000218
 31
0.0
  0
LINE
  5
59862
330
1F
100
AcDbEntity
  8
1
100
AcDbLine
 10
87.04318366612724
 20
5.250345999999993
 30
0.0
 11
87.04318366612724
 21
7.816379999999995
 31
0.0
  0
LINE
  5
59863
330
1F
100
AcDbEntity
  8
1
100
AcDbLine
 10
85.78515066612727
 20
-0.633620000000022
 30
0.0
 11
81.49505966612725
 21
-0.6336200000000149
 31
0.0
  0
LINE
  5
59864
330
1F
100
AcDbEntity
  8
1
100
AcDbLine
 10
85.78515066612727
 20
-0.633620000000022
 30
0.0
 11
86.95382666612728
 21
-0.633620000000022
 31
0.0
  0
LINE
  5
59865
330
1F
100
AcDbEntity
  8
1
100
AcDbLine
 10
89.54318366612724
 20
0.0698349999999977
 30
0.0
 11
87.74318366612726
 21
-0.2475529999999964
 31
0.0
  0
LINE
  5
59866
330
1F
100
AcDbEntity
  8
1
100
AcDbLine
 10
88.54318366612721
 20
-0.0920489999999887
 30
0.0
 11
87.04318366612724
 21
-0.3836200000000218
 31
0.0
  0
LINE
  5
59867
330
1F
100
AcDbEntity
  8
1
100
AcDbLine
 10
87.30500566612725
 20
-5.261031999999985
 30
0.0
 11
87.30500566612725
 21
-6.177918000000013
 31
0.0
  0
LINE
  5
59868
330
1F
100
AcDbEntity
  8
1
100
AcDbLine
 10
90.54256366612721
 20
0.0698349999999977
 30
0.0
 11
89.54318366612724
 21
0.0698349999999977
 31
0.0
  0
LINE
  5
59869
330
1F
100
AcDbEntity
  8
1
100
AcDbLine
 10
90.54318366612722
 20
0.272443999999993
 30
0.0
 11
89.66497766612723
 21
0.272443999999993
 31
0.0
  0
LINE
  5
5986A
330
1F
100
AcDbEntity
  8
1
100
AcDbLine
 10
89.69270966612723
 20
0.2814540000000107
 30
0.0
 11
90.54318366612722
 21
0.2814540000000107
 31
0.0
  0
LINE
  5
5986B
330
1F
100
AcDbEntity
  8
1
100
AcDbLine
 10
90.54318366612722
 20
0.5577899999999972
 30
0.0
 11
88.54318366612721
 21
-0.0920489999999887
 31
0.0
  0
LINE
  5
5986C
330
1F
100
AcDbEntity
  8
1
100
AcDbLine
 10
89.34318366612725
 20
6.367376
 30
0.0
 11
89.34318366612725
 21
5.548961000000004
 31
0.0
  0
LINE
  5
5986D
330
1F
100
AcDbEntity
  8
1
100
AcDbLine
 10
89.60500566612722
 20
-1.192583999999988
 30
0.0
 11
89.60500566612722
 21
-7.742583999999978
 31
0.0
  0
LINE
  5
5986E
330
1F
100
AcDbEntity
  8
1
100
AcDbLine
 10
89.64318366612724
 20
6.412782000000007
 30
0.0
 11
89.64318366612724
 21
6.016555999999994
 31
0.0
  0
LINE
  5
5986F
330
1F
100
AcDbEntity
  8
1
100
AcDbLine
 10
89.64318366612724
 20
5.191673999999991
 30
0.0
 11
89.64318366612724
 21
5.920520640524713
 31
0.0
  0
LINE
  5
59870
330
1F
100
AcDbEntity
  8
1
100
AcDbLine
 10
89.64318366612724
 20
5.920520640524713
 30
0.0
 11
89.64318366612724
 21
6.016555999999994
 31
0.0
  0
LINE
  5
59871
330
1F
100
AcDbEntity
  8
1
100
AcDbLine
 10
89.79318366612721
 20
5.100251999999996
 30
0.0
 11
89.79318366612721
 21
5.251513000000001
 31
0.0
  0
LINE
  5
59872
330
1F
100
AcDbEntity
  8
1
100
AcDbLine
 10
90.54318366612722
 20
1.174211999999996
 30
0.0
 11
90.6033926661272
 21
1.139449999999995
 31
0.0
  0
LINE
  5
59873
330
1F
100
AcDbEntity
  8
1
100
AcDbLine
 10
94.25923266612722
 20
2.227556999999976
 30
0.0
 11
94.49179866612723
 21
2.227556999999976
 31
0.0
  0
LINE
  5
59874
330
1F
100
AcDbEntity
  8
1
100
AcDbLine
 10
90.29318366612722
 20
6.195537000000014
 30
0.0
 11
90.29318366612722
 21
5.910159000000008
 31
0.0
  0
LINE
  5
59875
330
1F
100
AcDbEntity
  8
1
100
AcDbLine
 10
90.54318366612722
 20
4.98797499999999
 30
0.0
 11
90.54318366612722
 21
4.452816240789458
 31
0.0
  0
LINE
  5
59876
330
1F
100
AcDbEntity
  8
1
100
AcDbLine
 10
90.54318366612722
 20
4.452816240789458
 30
0.0
 11
90.54318366612722
 21
0.5577899999999972
 31
0.0
  0
LINE
  5
59877
330
1F
100
AcDbEntity
  8
1
100
AcDbLine
 10
90.54318366612722
 20
0.5577899999999972
 30
0.0
 11
90.54318366612722
 21
0.0701030000000316
 31
0.0
  0
LINE
  5
59878
330
1F
100
AcDbEntity
  8
1
100
AcDbLine
 10
90.54318366612722
 20
6.874969999999976
 30
0.0
 11
90.54318366612722
 21
5.820306000000002
 31
0.0
  0
LINE
  5
59879
330
1F
100
AcDbEntity
  8
1
100
AcDbLine
 10
94.3496836661272
 20
2.227556999999976
 30
0.0
 11
94.3496836661272
 21
2.680464999999983
 31
0.0
  0
LINE
  5
5987A
330
1F
100
AcDbEntity
  8
1
100
AcDbLine
 10
88.54318366612721
 20
7.524810000000016
 30
0.0
 11
90.54318366612722
 21
6.874969999999976
 31
0.0
  0
LINE
  5
5987B
330
1F
100
AcDbEntity
  8
1
100
AcDbLine
 10
87.04318366612724
 20
7.816379999999995
 30
0.0
 11
88.54318366612721
 21
7.524810000000016
 31
0.0
  0
LINE
  5
5987C
330
1F
100
AcDbEntity
  8
1
100
AcDbLine
 10
87.04318366612724
 20
7.816379999999995
 30
0.0
 11
88.54318366612721
 21
7.524810000000016
 31
0.0
  0
DIMENSION
  5
5987D
330
1F
100
AcDbEntity
  8
2
100
AcDbDimension
  2
*D11
 10
30.16020105459575
 20
-0.0013759747977993
 30
0.0
 11
60.60606556062682
 21
26.5455800635914
 31
0.0
 70
   164
 71
     5
 42
7.939999999999976
  3
\M+18352\M+18373\M+1815B - ISO-25
100
AcDbRadialDimension
 15
36.14472738027246
 25
5.216769735824128
 35
0.0
 40
0.0
1001
ACAD
1000
DSTYLE
1002
{
1070
     4
1000
"
1070
    40
1040
1.0
1070
   143
1040
0.03937
1070
   170
1070
     1
1070
   171
1070
     3
1070
   271
1070
     8
1070
   285
1070
     4
1002
}
  0
LINE
  5
5987E
330
1F
100
AcDbEntity
  8
nocut
100
AcDbLine
 10
0.0
 20
9.524999998910942
 30
0.0
 11
-0.0000000000000568
 21
0.0
 31
0.0
1001
ACAD
1000
RTMaterial
1005
0
  0
LINE
  5
59880
330
1F
100
AcDbEntity
  8
nocut
100
AcDbLine
 10
37.19999999992223
 20
0.0
 30
0.0
 11
0.0
 21
0.0
 31
0.0
1001
ACAD
1000
RTMaterial
1005
0
  0
LINE
  5
59881
330
1F
100
AcDbEntity
  8
nocut
100
AcDbLine
 10
13.04963405972222
 20
7.199999998899982
 30
0.0
 11
30.00000000002223
 21
7.199999998899982
 31
0.0
1001
ACAD
1000
RTMaterial
1005
0
  0
LINE
  5
59883
330
1F
100
AcDbEntity
  8
nocut
100
AcDbLine
 10
12.35376855492222
 20
7.248659655200014
 30
0.0
 11
1.618645460122251
 21
8.757382815599981
 31
0.0
1001
ACAD
1000
RTMaterial
1005
0
  0
LINE
  5
59885
330
1F
100
AcDbEntity
  8
nocut
100
AcDbLine
 10
37.19999999992223
 20
2.399999998800011
 30
0.0
 11
37.19999999992223
 21
0.0
 31
0.0
1001
ACAD
1000
RTMaterial
1005
0
  0
ARC
  5
59887
330
1F
100
AcDbEntity
  8
nocut
100
AcDbCircle
 10
30.00000000002223
 20
-0.6000000010000122
 30
0.0
 40
7.799999999899998
100
AcDbArc
 50
22.62030673429988
 51
90.0
1001
ACAD
1000
RTMaterial
1005
0
  0
ARC
  5
59888
330
1F
100
AcDbEntity
  8
nocut
100
AcDbCircle
 10
13.04963405972222
 20
12.19999999889998
 30
0.0
 40
5.0
100
AcDbArc
 50
261.9999999999992
 51
270.0
1001
ACAD
1000
RTMaterial
1005
0
  0
ARC
  5
59889
330
1F
100
AcDbEntity
  8
nocut
100
AcDbCircle
 10
2.036164763022213
 20
11.72818702180001
 30
0.0
 40
3.0
100
AcDbArc
 50
227.2561760128997
 51
261.9999999999992
1001
ACAD
1000
RTMaterial
1005
0
  0
LWPOLYLINE
  5
599B7
330
1F
100
AcDbEntity
  8
cut
100
AcDbPolyline
 90
       22
 70
     0
 43
0.0
 10
33.65825641220003
 20
-0.3637499669999684
 10
33.61504198192271
 20
-0.36560314776208
 10
33.57180863391596
 20
-0.3673645678586652
 10
33.52845398129993
 20
-0.36903819019998
 10
33.48522857818228
 20
-0.3706149723349839
 10
33.44178009525136
 20
-0.372107877890393
 10
33.39827185919999
 20
-0.3735107534000193
 10
33.35503733990197
 20
-0.3748138650306672
 10
33.31149718588506
 20
-0.3760348589608
 10
33.26795824249997
 20
-0.3771644137999672
 10
33.22471639217794
 20
-0.3781959905225065
 10
33.18120664112826
 20
-0.3791433136964954
 10
33.13775808800006
 20
-0.379998684899995
 10
33.09451063944947
 20
-0.3807602405194146
 10
33.05115121349515
 20
-0.3814337980773317
 10
33.00791163220003
 20
-0.3820157680999969
 10
32.96466028228599
 20
-0.3825082048007928
 10
32.92156823831375
 20
-0.3829095161104945
 10
32.87865300590004
 20
-0.3832204562999735
 10
32.83539943233041
 20
-0.3834440829876726
 10
32.79268829979105
 20
-0.3835761829167907
 10
32.75020896400004
 20
-0.3836200122999926
  0
LINE
  5
599B8
330
1F
100
AcDbEntity
  8
cut
100
AcDbLine
 10
33.65825641220003
 20
-0.3637499669995989
 30
0.0
 11
37.64600147239993
 21
-0.1884436402995746
 31
0.0
  0
ARC
  5
599B9
330
1F
100
AcDbEntity
  8
cut
100
AcDbCircle
 10
37.6372177019
 20
0.0113633801000148
 30
0.0
 40
0.2
100
AcDbArc
 50
272.51717435861
 51
315.9955430425057
  0
LINE
  5
599BA
330
1F
100
AcDbEntity
  8
cut
100
AcDbLine
 10
38.03893655200011
 20
0.1394025551998013
 30
0.0
 11
37.78107485380014
 21
-0.1275794854001688
 31
0.0
  0
LINE
  5
599BB
330
1F
100
AcDbEntity
  8
cut
100
AcDbLine
 10
32.75020896400004
 20
-0.3836200122999926
 30
0.0
 11
29.65850147174246
 21
-0.3836200122999784
 31
0.0
  0
ARC
  5
599BC
330
1F
100
AcDbEntity
  8
cut
100
AcDbCircle
 10
22.23378376984248
 20
7.737692979634452
 30
0.0
 40
0.2
100
AcDbArc
 50
92.51717435869151
 51
135.9955430425058
  0
LWPOLYLINE
  5
599BD
330
1F
100
AcDbEntity
  8
cut
100
AcDbPolyline
 90
        2
 70
     0
 43
0.0
 10
38.03893655143395
 20
0.1394025545432882
 42
0.1959626825778945
 10
38.09507577573469
 20
0.2795493019613886
  0
LINE
  5
599BE
330
1F
100
AcDbEntity
  8
cut
100
AcDbLine
 10
22.22499999999991
 20
7.937499998900001
 30
0.0
 11
30.16249999999991
 21
7.937499998900001
 31
0.0
1001
ACAD
1000
RTMaterial
1005
0
  0
ARC
  5
599BF
330
1F
100
AcDbEntity
  8
cut
100
AcDbCircle
 10
30.16249999999991
 20
-0.0000000010999983
 30
0.0
 40
7.9375
100
AcDbArc
 50
2.018306539456819
 51
90.0
1001
ACAD
1000
RTMaterial
1005
0
  0
ARC
  5
599C1
330
1F
100
AcDbEntity
  8
cut
100
AcDbCircle
 10
29.65850147174248
 20
7.556379987700019
 30
0.0
 40
7.94
100
AcDbArc
 50
181.0640938655848
 51
269.9999999999996
  0
ARC
  5
599C2
330
1F
100
AcDbEntity
  8
cut
100
AcDbCircle
 10
21.91983626220936
 20
7.412641423765229
 30
0.0
 40
0.2
100
AcDbArc
 50
135.9955430419217
 51
181.0640938655856
  0
LINE
  5
599C3
330
1F
100
AcDbEntity
  8
cut
100
AcDbLine
 10
22.08992661804221
 20
7.876635845134551
 30
0.0
 11
21.77597910987635
 21
7.551584288722885
 31
0.0
  0
VIEWPORT
  5
6B
102
{ACAD_XDICTIONARY
360
599CB
102
}
330
50
100
AcDbEntity
 67
     1
  8
0
100
AcDbViewport
 10
150.1652135264906
 20
160.4455827878762
 30
0.0
 40
339.1973820494346
 41
282.2272140146125
 68
     1
 69
     1
 12
150.1652135264906
 22
160.4455827878762
 13
0.0
 23
0.0
 14
10.0
 24
10.0
 15
10.0
 25
10.0
 16
0.0
 26
0.0
 36
1.0
 17
0.0
 27
0.0
 37
0.0
 42
50.0
 43
0.0
 44
0.0
 45
282.2272140146125
 50
0.0
 51
0.0
 72
  1000
 90
    32864
  1

281
     0
 71
     1
 74
     0
110
0.0
120
0.0
130
0.0
111
1.0
121
0.0
131
0.0
112
0.0
122
1.0
132
0.0
 79
     0
146
0.0
  0
VIEWPORT
  5
6D
102
{ACAD_XDICTIONARY
360
599CD
102
}
330
50
100
AcDbEntity
 67
     1
  8
0
100
AcDbViewport
 10
133.3499939441681
 20
101.5999939441681
 30
0.0
 40
213.3599903106689
 41
162.5599903106689
 68
     2
 69
     2
 12
210.0
 22
148.5
 13
0.0
 23
0.0
 14
10.0
 24
10.0
 15
10.0
 25
10.0
 16
0.0
 26
0.0
 36
1.0
 17
0.0
 27
0.0
 37
0.0
 42
50.0
 43
0.0
 44
0.0
 45
324.0677920111345
 50
0.0
 51
0.0
 72
   100
 90
    32864
  1

281
     0
 71
     1
 74
     0
110
0.0
120
0.0
130
0.0
111
1.0
121
0.0
131
0.0
112
0.0
122
1.0
132
0.0
 79
     0
146
0.0
  0
ENDSEC
  0
SECTION
  2
OBJECTS
  0
DICTIONARY
  5
C
330
0
100
AcDbDictionary
281
     1
  3
ACAD_COLOR
350
85
  3
ACAD_GROUP
350
D
  3
ACAD_LAYOUT
350
1A
  3
ACAD_MATERIAL
350
84
  3
ACAD_MLINESTYLE
350
17
  3
ACAD_PLOTSETTINGS
350
19
  3
ACAD_PLOTSTYLENAME
350
E
  3
ACAD_TABLESTYLE
350
A1
  3
ACDBHEADERROUNDTRIPXREC
350
599C6
  3
AcDbVariableDictionary
350
5E
  3
ASE_INDEX_DICTIONARY
350
349E9
  3
DWGPROPS
350
599C5
  0
DICTIONARY
  5
E2
330
2
100
AcDbDictionary
280
     1
281
     1
  3
ACAD_LAYERFILTERS
360
4BFF9
  3
ACAD_LAYERSTATES
360
3759A
  3
ACLYDICTIONARY
360
4BFF8
  0
DICTIONARY
  5
31EE
330
1F
100
AcDbDictionary
280
     1
281
     1
  3
ACAD_SORTENTS
360
31EF
  0
DICTIONARY
  5
3BEB2
330
680
100
AcDbDictionary
280
     1
281
     1
  3
ACAD_SORTENTS
360
51391
  0
DICTIONARY
  5
599CF
330
71
100
AcDbDictionary
280
     1
281
     1
  3
ACAD_XREC_ROUNDTRIP
360
599D0
  0
DICTIONARY
  5
599D1
330
73
100
AcDbDictionary
280
     1
281
     1
  3
ACAD_XREC_ROUNDTRIP
360
599D2
  0
DICTIONARY
  5
597FC
330
597FB
100
AcDbDictionary
280
     1
281
     1
  3
ACAD_DIMASSOC
360
597FD
  0
DICTIONARY
  5
597FF
330
597FE
100
AcDbDictionary
280
     1
281
     1
  3
ACAD_DIMASSOC
360
59800
  0
DICTIONARY
  5
599CB
330
6B
100
AcDbDictionary
280
     1
281
     1
  3
ACAD_XREC_ROUNDTRIP
360
599CC
  0
DICTIONARY
  5
599CD
330
6D
100
AcDbDictionary
280
     1
281
     1
  3
ACAD_XREC_ROUNDTRIP
360
599CE
  0
DICTIONARY
  5
85
102
{ACAD_REACTORS
330
C
102
}
330
C
100
AcDbDictionary
281
     1
  0
DICTIONARY
  5
D
102
{ACAD_REACTORS
330
C
102
}
330
C
100
AcDbDictionary
281
     1
  0
DICTIONARY
  5
1A
102
{ACAD_REACTORS
330
C
102
}
330
C
100
AcDbDictionary
281
     1
  3
\M+1838C\M+18343\M+18341\M+18345\M+183671
350
51
  3
\M+1838C\M+18343\M+18341\M+18345\M+183672
350
56
  3
Model
350
22
  0
DICTIONARY
  5
84
102
{ACAD_REACTORS
330
C
102
}
330
C
100
AcDbDictionary
281
     1
  0
DICTIONARY
  5
17
102
{ACAD_REACTORS
330
C
102
}
330
C
100
AcDbDictionary
281
     1
  3
Standard
350
18
  0
DICTIONARY
  5
19
102
{ACAD_REACTORS
330
C
102
}
330
C
100
AcDbDictionary
281
     1
  0
ACDBDICTIONARYWDFLT
  5
E
102
{ACAD_REACTORS
330
C
102
}
330
C
100
AcDbDictionary
281
     1
  3
Normal
350
F
100
AcDbDictionaryWithDefault
340
F
  0
DICTIONARY
  5
A1
102
{ACAD_REACTORS
330
C
102
}
330
C
100
AcDbDictionary
281
     1
  3
Standard
350
A2
  0
DICTIONARY
  5
599C6
102
{ACAD_REACTORS
330
C
102
}
330
C
100
AcDbDictionary
281
     1
  0
DICTIONARY
  5
5E
102
{ACAD_REACTORS
330
C
102
}
330
C
100
AcDbDictionary
281
     1
  3
CTABLESTYLE
350
B8
  3
DIMASSOC
350
5F
  3
HIDETEXT
350
63
  3
PROJECTNAME
350
31CE
  0
DICTIONARY
  5
349E9
102
{ACAD_REACTORS
330
C
102
}
330
C
100
AcDbDictionary
281
     1
  3
ASEBlockHierarchyIndexRecord
350
349EA
1001
DCO15
1040
1842496176.844
  0
XRECORD
  5
599C5
102
{ACAD_REACTORS
330
C
102
}
330
C
100
AcDbXrecord
280
     1
  1
DWGPROPS COOKIE
  2

  3

  4

  6

  7

  8

  9

300
=
301
=
302
=
303
=
304
=
305
=
306
=
307
=
308
=
309
=
 40
2.233838321759259
 41
2455489.391063368
 42
2458508.384838796
  1

 90
        0
  0
DICTIONARY
  5
4BFF9
102
{ACAD_REACTORS
330
E2
102
}
330
E2
100
AcDbDictionary
281
     1
  0
DICTIONARY
  5
3759A
102
{ACAD_REACTORS
330
E2
102
}
330
E2
100
AcDbDictionary
281
     1
  0
DICTIONARY
  5
4BFF8
102
{ACAD_REACTORS
330
E2
102
}
330
E2
100
AcDbDictionary
281
     1
1001
ACAD
1000
<All
  0
SORTENTSTABLE
  5
31EF
102
{ACAD_REACTORS
330
31EE
102
}
330
31EE
100
AcDbSortentsTable
330
1F
331
68C
  5
3C6B0
  0
SORTENTSTABLE
  5
51391
102
{ACAD_REACTORS
330
3BEB2
102
}
330
3BEB2
100
AcDbSortentsTable
330
680
  0
XRECORD
  5
599D0
102
{ACAD_REACTORS
330
599CF
102
}
330
599CF
100
AcDbXrecord
280
     1
102
SHADEPLOT
 70
     0
  0
XRECORD
  5
599D2
102
{ACAD_REACTORS
330
599D1
102
}
330
599D1
100
AcDbXrecord
280
     1
102
SHADEPLOT
 70
     0
  0
DIMASSOC
  5
597FD
102
{ACAD_REACTORS
330
597FC
102
}
330
597FC
100
AcDbDimAssoc
330
597FB
 90
        1
 70
     0
 71
     0
  1
AcDbOsnapPointRef
 72
     6
331
597F1
 73
     2
 91
        0
 40
0.0
 10
0.0
 20
0.0
 30
0.0
332
597F0
 74
     2
 92
        0
 75
     0
  0
DIMASSOC
  5
59800
102
{ACAD_REACTORS
330
597FF
102
}
330
597FF
100
AcDbDimAssoc
330
597FE
 90
        2
 70
     0
 71
     0
  1
AcDbOsnapPointRef
 72
     1
331
597EA
 73
     2
 91
        0
 40
0.9999999999999998
 10
0.0
 20
0.0
 30
2.000000000000000E+50
 75
     0
  0
XRECORD
  5
599CC
102
{ACAD_REACTORS
330
599CB
102
}
330
599CB
100
AcDbXrecord
280
     1
102
SHADEPLOT
 70
     0
  0
XRECORD
  5
599CE
102
{ACAD_REACTORS
330
599CD
102
}
330
599CD
100
AcDbXrecord
280
     1
102
SHADEPLOT
 70
     0
  0
LAYOUT
  5
51
102
{ACAD_XDICTIONARY
360
B2
102
}
102
{ACAD_REACTORS
330
1A
102
}
330
1A
100
AcDbPlotSettings
  1

  2
none_device
  4
Letter_(8.50_x_11.00_Inches)
  6

 40
6.349999904632567
 41
6.349999904632567
 42
6.350006103515625
 43
6.350006103515625
 44
215.8999938964844
 45
279.3999938964844
 46
0.0
 47
0.0
 48
0.0
 49
0.0
140
0.0
141
0.0
142
1.0
143
1.0
 70
   688
 72
     1
 73
     1
 74
     5
  7

 75
    16
147
1.0
148
0.0
149
0.0
100
AcDbLayout
  1
\M+1838C\M+18343\M+18341\M+18345\M+183671
 70
     1
 71
     1
 10
-6.350006103515625
 20
-6.349999904632567
 11
273.0499877929688
 21
209.5499939918518
 12
0.0
 22
0.0
 32
0.0
 14
26.66999878883364
 24
20.31999878883365
 34
0.0
 15
240.0299890995025
 25
182.8799890995025
 35
0.0
146
0.0
 13
0.0
 23
0.0
 33
0.0
 16
1.0
 26
0.0
 36
0.0
 17
0.0
 27
1.0
 37
0.0
 76
     0
330
50
331
6B
  0
LAYOUT
  5
56
102
{ACAD_XDICTIONARY
360
B5
102
}
102
{ACAD_REACTORS
330
1A
102
}
330
1A
100
AcDbPlotSettings
  1

  2
none_device
  4
Letter_(8.50_x_11.00_Inches)
  6

 40
6.349999904632567
 41
6.349999904632567
 42
6.350006103515625
 43
6.350006103515625
 44
215.8999938964844
 45
279.3999938964844
 46
0.0
 47
0.0
 48
0.0
 49
0.0
140
0.0
141
0.0
142
1.0
143
1.0
 70
   688
 72
     1
 73
     1
 74
     5
  7

 75
    16
147
1.0
148
0.0
149
0.0
100
AcDbLayout
  1
\M+1838C\M+18343\M+18341\M+18345\M+183672
 70
     1
 71
     2
 10
-6.350006103515625
 20
-6.349999904632567
 11
273.0499877929688
 21
209.5499939918518
 12
0.0
 22
0.0
 32
0.0
 14
26.66999878883363
 24
20.31999878883363
 34
0.0
 15
240.0299890995026
 25
182.8799890995025
 35
0.0
146
0.0
 13
0.0
 23
0.0
 33
0.0
 16
1.0
 26
0.0
 36
0.0
 17
0.0
 27
1.0
 37
0.0
 76
     0
330
55
331
71
  0
LAYOUT
  5
22
102
{ACAD_XDICTIONARY
360
599C7
102
}
102
{ACAD_REACTORS
330
1A
102
}
330
1A
100
AcDbPlotSettings
  1

  2
none_device
  4
ANSI_A_(8.50_x_11.00_Inches)
  6

 40
6.349999904632567
 41
19.04999923706055
 42
6.350006103515625
 43
19.04998779296875
 44
215.8999938964844
 45
279.3999938964844
 46
0.0
 47
0.0
 48
0.0
 49
0.0
140
0.0
141
0.0
142
1.0
143
78.436453180766
 70
 11952
 72
     0
 73
     1
 74
     0
  7

 75
     0
147
0.0127491741332998
148
0.0
149
0.0
100
AcDbLayout
  1
Model
 70
     1
 71
     0
 10
0.0
 20
0.0
 11
12.0
 21
9.0
 12
0.0
 22
0.0
 32
0.0
 14
0.0
 24
0.0
 34
0.0
 15
0.0
 25
0.0
 35
0.0
146
0.0
 13
0.0
 23
0.0
 33
0.0
 16
1.0
 26
0.0
 36
0.0
 17
0.0
 27
1.0
 37
0.0
 76
     0
330
1F
  0
MLINESTYLE
  5
18
102
{ACAD_REACTORS
330
17
102
}
330
17
100
AcDbMlineStyle
  2
STANDARD
 70
     0
  3

 62
   256
 51
90.0
 52
90.0
 71
     2
 49
0.5
 62
   256
  6
BYLAYER
 49
-0.5
 62
   256
  6
BYLAYER
  0
ACDBPLACEHOLDER
  5
F
102
{ACAD_REACTORS
330
E
102
}
330
E
  0
TABLESTYLE
  5
A2
102
{ACAD_REACTORS
330
A1
102
}
330
A1
100
AcDbTableStyle
  3
Standard
 70
     0
 71
     0
 40
1.5
 41
1.5
280
     0
281
     0
  7
Standard
140
4.5
170
     2
 62
     0
 63
     7
283
     0
274
    -2
284
     1
 64
     0
275
    -2
285
     1
 65
     0
276
    -2
286
     1
 66
     0
277
    -2
287
     1
 67
     0
278
    -2
288
     1
 68
     0
279
    -2
289
     1
 69
     0
  7
Standard
140
6.0
170
     5
 62
     0
 63
     7
283
     0
274
    -2
284
     1
 64
     0
275
    -2
285
     1
 65
     0
276
    -2
286
     1
 66
     0
277
    -2
287
     1
 67
     0
278
    -2
288
     1
 68
     0
279
    -2
289
     1
 69
     0
  7
Standard
140
4.5
170
     5
 62
     0
 63
     7
283
     0
274
    -2
284
     1
 64
     0
275
    -2
285
     1
 65
     0
276
    -2
286
     1
 66
     0
277
    -2
287
     1
 67
     0
278
    -2
288
     1
 68
     0
279
    -2
289
     1
 69
     0
  0
DICTIONARYVAR
  5
B8
102
{ACAD_REACTORS
330
5E
102
}
330
5E
100
DictionaryVariables
280
     0
  1
STANDARD
  0
DICTIONARYVAR
  5
5F
102
{ACAD_REACTORS
330
5E
102
}
330
5E
100
DictionaryVariables
280
     0
  1
2
  0
DICTIONARYVAR
  5
63
102
{ACAD_REACTORS
330
5E
102
}
330
5E
100
DictionaryVariables
280
     0
  1
1
  0
DICTIONARYVAR
  5
31CE
102
{ACAD_REACTORS
330
5E
102
}
330
5E
100
DictionaryVariables
280
     0
  1

  0
XRECORD
  5
349EA
102
{ACAD_REACTORS
330
349E9
102
}
330
349E9
100
AcDbXrecord
280
     1
330
68C
330
431D
330
431E
330
4329
330
4334
330
4335
330
4B09
330
4B0A
330
5153
330
5154
330
515D
330
515E
330
516A
330
516B
330
5177
330
5178
330
85B4
330
85B5
330
8620
330
8621
330
862A
330
862B
330
8637
330
8638
330
8644
330
8645
330
9773
330
9774
330
977D
330
977E
330
978A
330
978B
330
9797
330
9798
330
BD86
330
BD87
330
BD8F
330
BD90
330
BD98
330
BDA0
330
BDA1
330
BDDD
330
BDDE
330
BDE7
330
BDE8
330
BDF4
330
BDF5
330
BE01
330
BE02
330
E473
330
E474
330
E48D
330
E48E
330
E485
330
E47C
330
E47D
330
E4CC
330
E4CD
330
E4D7
330
E4D8
330
1C63B
330
1C63C
330
1C705
330
1C706
330
1C719
330
1C71A
330
1C72E
330
1C72F
330
1C738
330
1C739
330
27043
330
27044
330
2703A
330
2703B
330
2CF2C
330
2CF2D
330
2CF38
330
2CF39
330
2CF42
330
2CF43
330
2CF4F
330
2CF50
330
2CF59
330
2CF5A
330
2FA31
330
2FA32
330
2FA3D
330
2FA3E
330
2FA4A
330
2FA4B
330
2FA54
330
2FA55
330
329D8
330
329D9
330
329E1
330
329E2
330
329EA
330
329EB
330
329F3
330
329F4
330
32E63
330
32E64
330
32E6F
330
32E70
330
32E79
330
32E7A
330
32E88
330
32E89
330
32E92
330
32E93
  0
DICTIONARY
  5
B2
330
51
100
AcDbDictionary
280
     1
281
     1
  3
ACAD_XREC_ROUNDTRIP
360
599C9
  3
ADSK_XREC_LAYOUTTHUMBNAIL
360
B3
  0
DICTIONARY
  5
B5
330
56
100
AcDbDictionary
280
     1
281
     1
  3
ACAD_XREC_ROUNDTRIP
360
599CA
  3
ADSK_XREC_LAYOUTTHUMBNAIL
360
B6
  0
DICTIONARY
  5
599C7
330
22
100
AcDbDictionary
280
     1
281
     1
  3
ACAD_XREC_ROUNDTRIP
360
599C8
  0
XRECORD
  5
599C9
102
{ACAD_REACTORS
330
B2
102
}
330
B2
100
AcDbXrecord
280
     1
102
SHADEPLOT
 70
     0
102
SHADEPLOTRESLEVEL
 70
     2
102
SHADEPLOTCUSTOMDPI
 70
   300
  0
XRECORD
  5
B3
102
{ACAD_REACTORS
330
B2
102
}
330
B2
100
AcDbXrecord
280
     1
310
28000000B40000008B0000000100080000000000BC61000000000000000000000001000000000000FFFFFF0000000000FFFFFF000000000000000000000000000000000000000000000000000000000000000000330000006600000099000000CC000000FF00000000330000333300006633000099330000CC330000FF3300
310
0000660000336600006666000099660000CC660000FF66000000990000339900006699000099990000CC990000FF99000000CC000033CC000066CC000099CC0000CCCC0000FFCC000000FF000033FF000066FF000099FF0000CCFF0000FFFF000000003300330033006600330099003300CC003300FF003300003333003333
310
33006633330099333300CC333300FF33330000663300336633006666330099663300CC663300FF66330000993300339933006699330099993300CC993300FF99330000CC330033CC330066CC330099CC3300CCCC3300FFCC330000FF330033FF330066FF330099FF3300CCFF3300FFFF330000006600330066006600660099
310
006600CC006600FF00660000336600333366006633660099336600CC336600FF33660000666600336666006666660099666600CC666600FF66660000996600339966006699660099996600CC996600FF99660000CC660033CC660066CC660099CC6600CCCC6600FFCC660000FF660033FF660066FF660099FF6600CCFF6600
310
FFFF660000009900330099006600990099009900CC009900FF00990000339900333399006633990099339900CC339900FF33990000669900336699006666990099669900CC669900FF66990000999900339999006699990099999900CC999900FF99990000CC990033CC990066CC990099CC9900CCCC9900FFCC990000FF99
310
0033FF990066FF990099FF9900CCFF9900FFFF99000000CC003300CC006600CC009900CC00CC00CC00FF00CC000033CC003333CC006633CC009933CC00CC33CC00FF33CC000066CC003366CC006666CC009966CC00CC66CC00FF66CC000099CC003399CC006699CC009999CC00CC99CC00FF99CC0000CCCC0033CCCC0066CC
310
CC0099CCCC00CCCCCC00FFCCCC0000FFCC0033FFCC0066FFCC0099FFCC00CCFFCC00FFFFCC000000FF003300FF006600FF009900FF00CC00FF00FF00FF000033FF003333FF006633FF009933FF00CC33FF00FF33FF000066FF003366FF006666FF009966FF00CC66FF00FF66FF000099FF003399FF006699FF009999FF00CC
310
99FF00FF99FF0000CCFF0033CCFF0066CCFF0099CCFF00CCCCFF00FFCCFF0000FFFF0033FFFF0066FFFF0099FFFF00CCFFFF00FFFFFF00000000000D0D0D001A1A1A00282828003535350043434300505050005D5D5D006B6B6B00787878008686860093939300A1A1A100AEAEAE00BBBBBB00C9C9C900D6D6D600E4E4E400
310
F1F1F100FFFFFF0000000000000000000000000000000000000000000000000000000000000000000000000000000000E2E2E2E2E2E2E2E2E2E2E2E2E2E2E2E2E2E2E2E2E2E2E2E2E2E2E2E2E2E2E2E2E2E2E2E2E2E2E2E2E2E2E2E2E2E2E2E2E2E2E2E2E2E2E2E2E2E2E2E2E2E2E2E2E2E2E2E2E2E2E2E2E2E2E2E2E2E2E2
310
E2E2E2E2E2E2E2E2E2E2E2E2E2E2E2E2E2E2E2E2E2E2E2E2E2E2E2E2E2E2E2E2E2E2E2E2E2E2E2E2E2E2E2E2E2E2E2E2E2E2E2E2E2E2E2E2E2E2E2E2E2E2E2E2E2E2E2E2E2E2E2E2E2E2E2E2E2E2E2E2E2E2E2E2E2E2E2E2E2E2E2E2E2E2E2E2E2E2E2E2E2E2F5F5F5F5F5F5F5F5F5F5F5F5F5F5F5F5F5F5F5F5F5F5F5F5F5
310
F5F5F5F5F5F5F5F5F5F5F5F5F5F5F5F5F5F5F5F5F5F5F5F5F5F5F5F5F5F5F5F5F5F5F5F5F5F5F5F5F5F5F5F5F5F5F5F5F5F5F5F5F5F5F5F5F5F5F5F5F5F5F5F5F5F5F5F5F5F5F5F5F5F5F5F5F5F5F5F5F5F5F5F5F5F5F5F5F5F5F5F5F5F5F5F5F5F5F5F5F5F5F5F5F5F5F5F5F5F5F5F5F5F5F5F5F5F5F5F5F5F5F5F5F5F5F5
310
F5F5F5F5F5F5F5F5F5F5F5F5F5F5F5F5F5F5F5F5F5F5F5F5F5F5E2E2F5F5F5F5F5F5F5F5F5F5F5F5F5F5F5F5F5F5F5F5F5F5F5F5F5F5F5F5F5F5F5F5F5F5F5F5F5F5F5F5F5F5F5F5F5F5F5F5F5F5F5F5F5F5F5F5F5F5F5F5F5F5F5F5F5F5F5F5F5F5F5F5F5F5F5F5F5F5F5F5F5F5F5F5F5F5F5F5F5F5F5F5F5F5F5F5F5F5F5
310
F5F5F5F5F5F5F5F5F5F5F5F5F5F5F5F5F5F5F5F5F5F5F5F5F5F5F5F5F5F5F5F5F5F5F5F5F5F5F5F5F5F5F5F5F5F5F5F5F5F5F5F5F5F5F5F5F5F5F5F5F5F5F5F5F5F5F5F5F5F5F5F5F5F5F5F5F5F5F5E2E2F5F5F5F5F5F5F5F5F5F5F5F5F5F5F5F5F5F5F5F5F5F5F5F5F5F5F5F5F5F5F5F5F5F5F5F5F5F5F5F5F5F5F5F5F5F5
310
F5F5F5F5F5F5F5F5F5F5F5F5F5F5F5F5F5F5F5F5F5F5F5F5F5F5F5F5F5F5F5F5F5F5F5F5F5F5F5F5F5F5F5F5F5F5F5F5F5F5F5F5F5F5F5F5F5F5F5F5F5F5F5F5F5F5F5F5F5F5F5F5F5F5F5F5F5F5F5F5F5F5F5F5F5F5F5F5F5F5F5F5F5F5F5F5F5F5F5F5F5F5F5F5F5F5F5F5F5F5F5F5F5F5F5F5F5F5F5F5F5F5F5F5F5F5F5
310
F5F5F5F5F5E2E2F5F5F5F5E2E2E2E2E2E2E2E2F5F5F5F5F5F5F5F5F5E2E2E2E2E2E2E2E2E2E2E2E2E2E2E2F5F5F5F5F5F5F5F5F5E2E2E2E2E2E2E2E2E2E2E2E2E2E2E2E2F5F5F5F5F5F5F5F5E2E2E2E2E2E2E2E2E2E2E2E2E2E2E2E2F5F5F5F5F5F5F5F5E2E2E2E2E2E2E2E2E2E2E2E2E2E2E2E2F5F5F5F5F5F5F5F5E2E2E2
310
E2E2E2E2E2E2E2E2E2E2E2E2E2F5F5F5F5F5F5F5F5F5E2E2E2E2E2E2E2E2E2E2E2E2E2E2E2F5F5F5F5F5F5F5F5F5E2E2E2E2E2E2E2E2F5F5F5F5E2E2F5F5F5F5E2F5F5F5F5F5F5F5F5F5F5F5F5F5F5F5F5F5F5F5F5F5F5F5F5F5F5F5F5F5F5F5F5F5F5F5F5F5F5F5F5F5F5F5F5F5F5F5F5F5F5F5F5F5F5F5F5F5F5F5F5F5F5
310
F5F5F5F5F5F5F5F5F5F5F5F5F5F5F5F5F5F5F5F5F5F5F5F5F5F5F5F5F5F5F5F5F5F5F5F5F5F5F5F5F5F5F5F5F5F5F5F5F5F5F5F5F5F5F5F5F5F5F5F5F5F5F5F5F5F5F5F5F5F5F5F5F5F5F5F5F5F5F5F5F5F5F5F5F5F5F5F5F5F5F5F5F5F5F5F5F5F5F5F5F5F5F5F5F5F5E2F5F5F5F5E2E2F5F5F5F5E2F5F5F5F5F5F5F5F5F5
310
F5F5F5F5F5F5F5F5F5F5F5F5F5F5F5F5F5F5F5F5F5F5F5F5F5F5F5F5F5F5F5F5F5F5F5F5F5F5F5F5F5F5F5F5F5F5F5F5F5F5F5F5F5F5F5F5F5F5F5F5F5F5F5F5F5F5F5F5F5F5F5F5F5F5F5F5F5F5F5F5F5F5F5F5F5F5F5F5F5F5F5F5F5F5F5F5F5F5F5F5F5F5F5F5F5F5F5F5F5F5F5F5F5F5F5F5F5F5F5F5F5F5F5F5F5F5F5
310
F5F5F5F5F5F5F5F5F5F5F5F5F5F5F5F5F5F5F5F5F5F5F5F5F5F5F5F5F5F5F5F5E2F5F5F5F5E2E2F5F5F5F5E2F5F5F5F5F5F5F5F5F5F5F5F5F5F5F5F5F5F5F5F5F5F5F5F5F5F5F5F5F5F5F5F5F5F5F5F5F5F5F5F5F5F5F5F5F5F5F5F5F5F5F5F5F5F5F5F5F5F5F5F5F5F5F5F5F5F5F5F5F5F5F5F5F5F5F5F5F5F5F5F5F5F5F5
310
F5F5F5F5F5F5F5F5F5F5F5F5F5F5F5F5F5F5F5F5F5F5F5F5F5F5F5F5F5F5F5F5F5F5F5F5F5F5F5F5F5F5F5F5F5F5F5F5F5F5F5F5F5F5F5F5F5F5F5F5F5F5F5F5F5F5F5F5F5F5F5F5F5F5F5F5F5F5F5F5F5F5F5F5F5E2F5F5F5F5E2E2F5F5F5F5E2F5F5F5F5F5F5F5F5F5F5F5F5F5F5F5F5F5F5F5F5F5F5F5F5F5F5F5F5F5F5
310
F5F5F5F5F5F5F5F5F5F5F5F5F5F5F5F5F5F5F5F5F5F5F5F5F5F5F5F5F5F5F5F5F5F5F5F5F5F5F5F5F5F5F5F5F5F5F5F5F5F5F5F5F5F5F5F5F5F5F5F5F5F5F5F5F5F5F5F5F5F5F5F5F5F5F5F5F5F5F5F5F5F5F5F5F5F5F5F5F5F5F5F5F5F5F5F5F5F5F5F5F5F5F5F5F5F5F5F5F5F5F5F5F5F5F5F5F5F5F5F5F5F5F5F5F5F5F5
310
F5F5F5F5F5F5F5F5F5F5F5E2F5F5F5F5E2E2F5F5F5F5E2F5F5F5F5F5F5F5F5F5F5F5F5F5F5F5F5F5F5F5F5F5F5F5F5F5F5F5F5F5F5F5F5F5F5F5F5F5F5F5F5F5F5F5F5F5F5F5F5F5F5F5F5F5F5F5F5F5F5F5F5F5F5F5F5F5F5F5F5F5F5F5F5F5F5F5F5F5F5F5F5F5F5F5F5F5F5F5F5F5F5F5F5F5F5F5F5F5F5F5F5F5F5F5F5
310
F5F5F5F5F5F5F5F5F5F5F5F5F5F5F5F5F5F5F5F5F5F5F5F5F5F5F5F5F5F5F5F5F5F5F5F5F5F5F5F5F5F5F5F5F5F5F5F5F5F5F5F5F5F5F5F5F5F5F5F5F5F5F5F5E2F5F5F5F5E2E2F5F5F5F5E2F5F5F5F5F5F5F5F5F5F5F5F5F5F5F5F5F5F5F5F5F5F5F5F5F5F5F5F5F5F5F5F5F5F5F5F5F5F5F5F5F5F5F5F5F5F5F5F5F5F5F5
310
F5F5F5F5F5F5F5F5F5F5F5F5F5F5F5F5F5F5F5F5F5F5F5F5F5F5F5F5F5F5F5F5F5F5F5F5F5F5F5F5F5F5F5F5F5F5F5F5F5F5F5F5F5F5F5F5F5F5F5F5F5F5F5F5F5F5F5F5F5F5F5F5F5F5F5F5F5F5F5F5F5F5F5F5F5F5F5F5F5F5F5F5F5F5F5F5F5F5F5F5F5F5F5F5F5F5F5F5F5F5F5F5F5F5F5F5F5E2F5F5F5F5E2E2F5F5F5
310
F5E2F5F5F5F5F5F5F5F5F5F5F5F5F5F5F5F5F5F5F5F5F5F5F5F5F5F5F5F5F5F5F5F5F5F5F5F5F5F5F5F5F5F5F5F5F5F5F5F5F5F5F5F5F5F5F5F5F5F5F5F5F5F5F5F5F5F5F5F5F5F5F5F5F5F5F5F5F5F5F5F5F5F5F5F5F5F5F5F5F5F5F5F5F5F5F5F5F5F5F5F5F5F5F5F5F5F5F5F5F5F5F5F5F5F5F5F5F5F5F5F5F5F5F5F5F5
310
F5F5F5F5F5F5F5F5F5F5F5F5F5F5F5F5F5F5F5F5F5F5F5F5F5F5F5F5F5F5F5F5F5F5F5F5F5F5F5F5F5F5F5E2F5F5F5F5E2E2F5F5F5F5E2F5F5F5F5F5F5F5F5F5F5F5F5F5F5F5F5F5F5F5F5F5F5F5F5F5F5F5F5F5F5F5F5F5F5F5F5F5F5F5F5F5F5F5F5F5F5F5F5F5F5F5F5F5F5F5F5F5F5F5F5F5F5F5F5F5F5F5F5F5F5F5F5
310
F5F5F5F5F5F5F5F5F5F5F5F5F5F5F5F5F5F5F5F5F5F5F5F5F5F5F5F5F5F5F5F5F5F5F5F5F5F5F5F5F5F5F5F5F5F5F5F5F5F5F5F5F5F5F5F5F5F5F5F5F5F5F5F5F5F5F5F5F5F5F5F5F5F5F5F5F5F5F5F5F5F5F5F5F5F5F5F5F5F5F5F5F5F5F5F5E2F5F5F5F5E2E2F5F5F5F5F5F5F5F5F5F5F5F5F5F5F5F5F5F5F5F5F5F5F5F5
310
F5F5F5F5F5F5F5F5F5F5F5F5F5F5F5F5F5F5F5F5F5F5F5F5F5F5F5F5F5F5F5F5F5F5F5F5F5F5F5F5F5F5F5F5F5F5F5F5F5F5F5F5F5F5F5F5F5F5F5F5F5F5F5F5F5F5F5F5F5F5F5F5F5F5F5F5F5F5F5F5F5F5F5F5F5F5F5F5F5F5F5F5F5F5F5F5F5F5F5F5F5F5F5F5F5F5F5F5F5F5F5F5F5F5F5F5F5F5F5F5F5F5F5F5F5F5F5
310
F5F5F5F5F5F5F5F5F5F5F5F5F5F5F5F5F5F5F5F5F5F5F5F5F5F5F5E2E2F5F5F5F5F5F5F5F5F5F5F5F5F5F5F5F5F5F5F5F5F5F5F5F5F5F5F5F5F5F5F5F5F5F5F5F5F5F5F5F5F5F5F5F5F5F5F5F5F5F5F5F5F5F5F5F5F5F5F5F5F5F5F5F5F5F5F5F5F5F5F5F5F5F5F5F5F5F5F5F5F5F5F5F5F5F5F5F5F5F5F5F5F5F5F5F5F5F5
310
F5F5F5F5F5F5F5F5F5F5F5F5F5F5F5F5F5F5F5F5F5F5F5F5F5F5F5F5F5F5F5F5F5F5F5F5F5F5F5F5F5F5F5F5F5F5F5F5F5F5F5F5F5F5F5F5F5F5F5F5F5F5F5F5F5F5F5F5F5F5F5F5F5F5F5F5F5F5F5F5E2E2F5F5F5F5F5F5F5F5F5F5F5F5F5F5F5F5F5F5F5F5F5F5F5F5F5F5F5F5F5F5F5F5F5F5F5F5F5F5F5F5F5F5F5F5F5
310
F5F5F5F5F5F5F5F5F5F5F5F5F5F5F5F5F5F5F5F5F5F5F5F5F5F5F5F5F5F5F5F5F5F5F5F5F5F5F5F5F5F5F5F5F5F5F5F5F5F5F5F5F5F5F5F5F5F5F5F5F5F5F5F5F5F5F5F5F5F5F5F5F5F5F5F5F5F5F5F5F5F5F5F5F5F5F5F5F5F5F5F5F5F5F5F5F5F5F5F5F5F5F5F5F5F5F5F5F5F5F5F5F5F5F5F5F5F5F5F5F5F5F5F5F5F5F5
310
F5F5F5F5F5F5E2E2F5F5F5F5F5F5F5F5F5F5F5F5F5F5F5F5F5F5F5F5F5F5F5F5F5F5F5F5F5F5F5F5F5F5F5F5F5F5F5F5F5F5F5F5F5F5F5F5F5F5F5F5F5F5F5F5F5F5F5F5F5F5F5F5F5F5F5F5F5F5F5F5F5F5F5F5F5F5F5F5F5F5F5F5F5F5F5F5F5F5F5F5F5F5F5F5F5F5F5F5F5F5F5F5F5F5F5F5F5F5F5F5F5F5F5F5F5F5F5
310
F5F5F5F5F5F5F5F5F5F5F5F5F5F5F5F5F5F5F5F5F5F5F5F5F5F5F5F5F5F5F5F5F5F5F5F5F5F5F5F5F5F5F5F5F5F5F5F5F5F5F5F5F5F5F5F5F5F5F5E2E2F5F5F5F5F5F5F5F5F5F5F5F5F5F5F5F5F5F5F5F5F5E2E2E2E2E2E2E2E2E2E2E2E2E2E2E2E2E2E2E2E2E2E2E2E2E2E2E2E2E2E2E2E2E2E2E2E2E2E2E2E2E2E2E2E2E2
310
E2E2E2E2E2E2E2E2E2E2E2E2E2E2E2E2E2E2E2E2E2E2E2E2E2E2E2E2E2E2E2E2E2E2E2E2E2E2E2E2E2E2E2E2E2E2E2E2E2E2E2E2E2E2E2E2E2E2E2E2E2E2E2E2E2E2E2E2E2E2E2E2E2E2E2E2E2E2E2E2E2E2E2E2E2E2E2E2E2E2E2F5F5F5F5F5F5F5F5F5F5F5F5F5F5F5F5F5F5F5F5F5E2E2F5F5F5F5F5F5F5F5F5F5F5F5F5
310
F5F5F5F5F5F5F5F5E22D2D2D2D2D2D2D2D2D2D2D2DF5F5F5F5F5F5F5F5F5F5F5F5F5F5F5E2F5F5F5F5F5F5F5F5F5F5F5F5F5F5F5F5F5F5F5F5F5F5F5F5F5F5F5F5F5F5F5F5F5F5F5F5F5F5F5F5F5F5F5F5F5F5F5F5F5F5F5F5F5F5F5F5F5F5F5F5F5F5F5F5F5F5F5F5F5F5F5F5F5F5F5F5F5F5F5F5F5F5F5F5F5F5F5F5F5F5
310
F5F5F5F5F5F5F5F5F5F5F5F5F5F5F5F5E2F5F5F5F5F5F5F5F5F5F5F5F5F5F5F5F5F5F5F5F5F5E2E2F5F5F5F5F5F5F5F5F5F5F5F5F5F5F5F5F5F5F5F5F5E22D2D2DF5F5E2F5F5F5F5F52DF5F5F5F5F5F5F5F5F5F5F5F5F5F5F5E2F5F5F5F5F5F5F5F5F5F5F5F5F5F5F5F5F5F5F5F5F5F5F5F5F5F5F5F5F5F5F5F5F5F5F5F5F5
310
F5F5F5F5F5F5F5F5F5F5F5F5F5F5F5F5F5F5F5F5F5F5F5F5F5F5F5F5F5F5F5F5F5F5F5F5F5F5F5F5F5F5F5F5F5F5F5F5F5F5F5F5F5F5F5F5F5F5F5F5F5F5F5F5F5F5F5F5F5E2F5F5F5F5F5F5F5F5F5F5F5F5F5F5F5F5F5F5F5F5F5E2E2F5F5F5F5F5F5F5F5F5F5F5F5F5F5F5F5F5F5F5F5F5E2DCF52DF5F5E2F5F5F5F5F52D
310
F5F5F5F5F5F5F5F5F5F5F5F5F5F5F5E2F5F5F5F5F5F5F5F5F5F5F5F5F5F5F5F5F5F5F5F5F5F5F5F5F5F5F5F5F5F5F5F5F5F5F5F5F5F5F5F5F5F5F5F5F5F5F5F5F5F5F5F5F5F5F5F5F5F5F5F5F5F5F5F5F5F5F5F5F5F5F5F5F5F5F5F5F5F5F5F5F5F5F5F5F5F5F5F5F5F5F5F5F5F5F5F5F5F5F5F5F5F5F5F5F5F5E2F5F5F5F5
310
F5F5F5F5F5F5F5F5F5F5F5F5F5F5F5F5F5E2E2F5F5F5F5F5F5F5F5F5F5F5F5F5F5F5F5F5F5F5F5F5E2BEF52D2D2D2D2D2D2D2DE2E2E2E2E2E2E2E2E2E2E2E2E2E2E2E2E2E2F5F5F5F5F5F5F5F5F5F5F5F5F5F5F5F5F5F5F5F5F5F5F5F5F5F5F5F5F5F5F5F5F5F5F5F5F5F5F5F5F5F5F5F5F5F5F5F5F5F5F5F5F5F5F5F5F5F5
310
F5F5F5F5F5F5F5F5F5F5F5F5F5F5F5F5F5F5F5F5F5F5F5F5F5F5F5F5F5F5F5F5F5F5F5F5F5F5F5F5F5F5F5F5F5F5F5F5E2F5F5F5F5F5F5F5F5F5F5F5F5F5F5F5F5F5F5F5F5F5E2E2F5F5F5F5E2F5F5F5F5F5F5F5F5F5F5F5F5F5F5F5F5E2DCF5F5F5F5E2F5F5F5F5F5E2F5F5F5F5F5F5F5F5F5F5F5F5F5F5F5F5F5F5F5F5F5
310
F5F5F5F5F5F5F5F5F5F5F5F5F5F5F5F5F5F5F5F5F5F5F5F5F5F5F5F5F5F5F5F5F5F5F5F5F5F5F5F5F5F5F5F5F5F5F5F5F5F5F5F5F5F5F5F5F5F5F5F5F5F5F5F5F5F5F5F5F5F5F5F5F5F5F5F5F5F5F5F5F5F5F5F5F5F5F5F5F5F5F5F5F5F5F5F5F5F5F5F5F5E2F5F5F5F5F5F5F5F5F5F5F5F5F5F5F5F5E2F5F5F5F5E2E2F5F5
310
F5F5E2F5F5F5F5F5F5F5F5F5F5F5F5F5F5F5F5E2F5F5F5F5F5E2F5F5F5F5F5E2F5F5F5F5F5F5F5F5F5F5F5F5F5F5F5F5F5F5F5F5F5F5F5F5F5F5F5F5F5F5F5F5F5F5F5F5F5F5F5F5F5F5F5F5F5F5F5F5F5F5F5F5F5F5F5F5F5F5F5F5F5F5F5F5F5F5F5F5F5F5F5F5F5F5F5F5F5F5F5F5F5F5F5F5F5F5F5F5F5F5F5F5F5F5F5
310
F5F5F5F5F5F5F5F5F5F5F5F5F5F5F5F5F5F5F5F5F5F5F5F5F5F5F5E2F5F5F5F5F5F5F5F5F5F5F5F5F5F5F5F5E2F5F5F5F5E2E2F5F5F5F5E2F5F5F5F5F5F5F5F5F5F5F5F5F5F5F5F5E2F5F5F5F5F5E2F5F5F5F5F5E2F5F5F5F5F5F5F5F5F5F5F5F5F5F5F5F5F5F5F5F5F5F5F5F5F5F5F5F5F5F5F5F5F5F5F5F5F5F5F5F5F5F5
310
F5F5F5F5F5F5F5F5F5F5F5F5F5F5F5F5F5F5F5F5F5F5F5F5F5F5F5F5F5F5F5F5F5F5F5F5F5F5F5F5F5F5F5F5F5F5F5F5F5F5F5F5F5F5F5F5F5F5F5F5F5F5F5F5F5F5F5F5F5F5F5F5F5F5F5F5F5F5F5F5E2F5F5F5F5F5F5F5F5F5F5F5F5F5F5F5F5E2F5F5F5F5E2E2F5F5F5F5E2F5F5F5F5F5F5F5F5F5F5F5F5F5F5F5F5E2F5
310
F5F5F5F5E2F5F5F5F5F5E2F5F5F5F5F5F5F5F5F5F5F5F5F5F5F5F5F5F5F5F5F5F5F5F5F5F5F5F5F5F5F5F5F5F5F5F5F5F5F5F5F5F5F5F5F5F5F5F5F5F5F5F5F5F5F5F5F5F5F5F5F5F5F5F5F5F5F5F5F5F5F5F5F5F5F5F5F5F5F5F5F5F5F5F5F5F5F5F5F5F5F5F5F5F5F5F5F5F5F5F5F5F5F5F5F5F5F5F5F5F5F5F5F5F5F5F5
310
F5F5F5F5F5F5E2F5F5F5F5F5F5F5F5F5F5F5F5F5F5F5F5E2F5F5F5F5E2E2F5F5F5F5E2F5F5F5F5F5F5F5F5F5F5F5F5F5F5F5F5E2E2E2E2E2E2E2F5F5F5F5F5E2F5F5F5F5F5F5F5F5F5F5F5F5F5F5F5F5F5F5F5F5F5F5F5F5F5F5F5F5F5F5F5F5F5F5F5F5F5F5F5F5F5F5F5F5F5F5F5F5F5F5F5F5F5F5F5F5F5F5F5F5F5F5F5
310
F5F5F5F5F5F5F5F5F5F5F5F5F5F5F5F5F5F5F5F5F5F5F5F5F5F5F5F5F5F5F5F5F5F5F5F5F5F5F5F5F5F5F5F5F5F5F5F5F5F5F5F5F5F5F5F5F5F5F5E2F5F5F5F5F5F5F5F5F5F5F5F5F5F5F5F5E2F5F5F5F5E2E2F5F5F5F5E2F5F5F5F5F5F5F5F5F5F5F5F5F5F5F5F5E2E2E2E2F5E2E2F5F5F5F5F5E2F5F5F5F5F5F5F5F5F5F5
310
F5F5F5F5F5F5F5F5F5F5F5F5F5F5F5F5F5F5F5F5F5F5F5F5F5F5F5F5F5F5F5F5F5F5F5F5F5F5F5F5F5F5F5F5F5F5F5F5F5F5F5F5F5F5F5F5F5F5F5F5F5F5F5F5F5F5F5F5F5F5F5F5F5F5F5F5F5F5F5F5F5F5F5F5F5F5F5F5F5F5F5F5F5F5F5F5F5F5F5F5F5F5F5F5F5F5F5F5F5F5F5F5E2F5F5F5F5F5F5F5F5F5F5F5F5F5F5
310
F5F5E2F5F5F5F5E2E2F5F5F5F5E2F5F5F5F5F5F5F5F5F5F5F5F5F5F5F5F5E2E2E2E2F5F5F5F5F5F5F5F5E2F5F5F5F5F5F5F5F5F5F5F5F5F5F5F5F5F5F5F5F5F5F5F5F5F5F5F5F5F5F5F5F5F5F5F5F5F5F5F5F5F5F5F5F5F5F5F5F5F5F5F5F5F5F5F5F5F5F5F5F5F5F5F5F5F5F5F5F5F5F5F5F5F5F5F5F5F5F5F5F5F5F5F5F5
310
F5F5F5F5F5F5F5F5F5F5F5F5F5F5F5F5F5F5F5F5F5F5F5F5F5F5F5F5F5F5F5F5F5F5F5F5F5F5E2F5F5F5F5F5F5F5F5F5F5F5F5F5F5F5F5E2F5F5F5F5E2E2F5F5F5F5E2F5F5F5F5F5F5F5F5F5F5F5F5F5F5F5F5E2F5F5F5F5F5F5F5F5F5F5F5E2F5F5F5F5F5F5F5F5F5F5F5F5F5F5F5F5F5F5F5F5F5F5F5F5F5F5F5F5F5F5F5
310
F5F5F5F5F5F5F5F5F5F5F5F5F5F5F5F5F5F5F5F5F5F5F5F5F5F5F5F5F5F5F5F5F5F5F5F5F5F5F5F5F5F5F5F5F5F5F5F5F5F5F5F5F5F5F5F5F5F5F5F5F5F5F5F5F5F5F5F5F5F5F5F5F5F5F5F5F5F5F5F5F5F5F5F5F5F5F5F5F5F5F5E2F5F5F5F5F5F5F5F5F5F5F5F5F5F5F5F5E2F5F5F5F5E2E2F5F5F5F5E2F5F5F5F5F5F5F5
310
F5F5F5F5F5F5F5F5F5E2E2E2E2E2E2E2E2E2E2E2E2E2F5F5F5F5F5F5F5F5F5F5F5F5F5F5F5F5F5F5F5F5F5F5F5F5F5F5F5F5F5F5F5F5F5F5F5F5F5F5F5F5F5F5F5F5F5F5F5F5F5F5F5F5F5F5F5F5F5F5F5F5F5F5F5F5F5F5F5F5F5F5F5F5F5F5F5F5F5F5F5F5F5F5F5F5F5F5F5F5F5F5F5F5F5F5F5F5F5F5F5F5F5F5F5F5F5
310
F5F5F5F5F5F5F5F5F5F5F5F5F5F5F5F5F5E2F5F5F5F5F5F5F5F5F5F5F5F5F5F5F5F5E2F5F5F5F5E2E2F5F5F5F5E2F5F5F5F5F5F5F5F5F5F5F5F5F5F5F5F5E2E2E2F5F5F5F5F5F5F5F5F5F5F5F5F5F5F5F5F5F5F5F5F5F5F5F5F5F5F5F5F5F5F5F5F5F5F5F5F5F5F5F5F5F5F5F5F5F5F5F5F5F5F5F5F5F5F5F5F5F5F5F5F5F5
310
F5F5F5F5F5F5F5F5F5F5F5F5F5F5F5F5F5F5F5F5F5F5F5F5F5F5F5F5F5F5F5F5F5F5F5F5F5F5F5F5F5F5F5F5F5F5F5F5F5F5F5F5F5F5F5F5F5F5F5F5F5F5F5F5F5F5F5F5F5F5E2F5F5F5F5F5F5F5F5F5F5F5F5F5F5F5F5E2F5F5F5F5E2E2F5F5F5F5E2F5F5F5F5F5F5F5F5F5F5F5F5F5F5F5F5E2E2E2F5F5F5F5F5F5F5F5F5
310
F5F5F5F5F5F5F5F5F5F5F5F5F5F5F5F5F5F5F5F5F5F5F5F5F5F5F5F5F5F5F5F5F5F5F5F5F5F5F5F5F5F5F5F5F5F5F5F5F5F5F5F5F5F5F5F5F5F5F5F5F5F5F5F5F5F5F5F5F5F5F5F5F5F5F5F5F5F5F5F5F5F5F5F5F5F5F5F5F5F5F5F5F5F5F5F5F5F5F5F5F5F5F5F5F5F5F5F5F5F5F5F5F5F5F5F5F5F5F5F5F5F5F5E2F5F5F5
310
F5F5F5F5F5F5F5F5F5F5F5F5F5E2F5F5F5F5E2E2F5F5F5F5E2F5F5F5F5F5F5F5F5F5F5F5F5F5F5F5F5E2F5F5F5F5F5F5F5F5F5F5F5F5F5F5F5F5F5F5F5F5F5F5F5F5F5F5F5F5F5F5F5F5F5F5F5F5F5F5F5F5F5F5F5F5F5F5F5F5F5F5F5F5F5F5F5F5F5F5F5F5F5F5F5F5F5F5F5F5F5F5F5F5F5F5F5F5F5F5F5F5F5F5F5F5F5
310
F5F5F5F5F5F5F5F5F5F5F5F5F5F5F5F5F5F5F5F5F5F5F5F5F5F5F5F5F5F5F5F5F5F5F5F5F5F5F5F5F5F5F5F5F5F5F5F5F5E2F5F5F5F5F5F5F5F5F5F5F5F5F5F5F5F5E2F5F5F5F5E2E2F5F5F5F5E2F5F5F5F5F5F5F5F5F5F5F5F5F5F5F5F5E2F5F5F5F5F5F5F5F5F5F5F5F5F5F5F5F5F5F5F5F5F5F5F5F5F5F5F5F5F5F5F5F5
310
F5F5F5F5F5F5F5F5F5F5F5F5F5F5F5F5F5F5F5F5F5F5F5F5F5F5F5F5F5F5F5F5F5F5F5F5F5F5F5F5F5F5F5F5F5F5F5F5F5F5F5F5F5F5F5F5F5F5F5F5F5F5F5F5F5F5F5F5F5F5F5F5F5F5F5F5F5F5F5F5F5F5F5F5F5F5F5F5F5F5F5F5F5F5F5F5F5F5F5F5F5F5E2F5F5F5F5F5F5F5F5F5F5F5F5F5F5F5F5E2F5F5F5F5E2E2F5
310
F5F5F5E2F5F5F5F5F5F5F5F5F5F5F5F5F5F5F5F5E20F0F0F0F0F0F0F0F0F0F0FF5F5F5F5F5F5F5F5F5F5F5F5F5F5F5F5F5F5F5F5F5F5F5F5F5F5F5F5F5F5F5F5F5F5F5F5F5F5F5F5F5F5F5F5F5F5F5F5F5F5F5F5F5F5F5F5F5F5F5F5F5F5F5F5F5F5F5F5F5F5F5F5F5F5F5F5F5F5F5F5F5F5F5F5F5F5F5F5F5F5F5F5F5F5F5
310
F5F5F5F5F5F5F5F5F5F5F5F5F5F5F5F5F5F5F5F5F5F5F5F5F5F5F5F5E2F5F5F5F5F5F5F5F5F5F5F5F5F5F5F5F5E2F5F5F5F5E2E2F5F5F5F5E2F5F5F5F5F5F5F5F5F5F5F5F5F5F5F5F5E20F0F0F0F0F0F0F0F0F0F0FF5F5F5F5F5F5F5F5F5F5F5F5F5F5F5F5F5F5F5F5F5F5F5F5F5F5F5F5F5F5F5F5F5F5F5F5F5F5F5F5F5F5
310
F5F5F5F5F5F5F5F5F5F5F5F5F5F5F5F5F5F5F5F5F5F5F5F5F5F5F5F5F5F5F5F5F5F5F5F5F5F5F5F5F5F5F5F5F5F5F5F5F5F5F5F5F5F5F5F5F5F5F5F5F5F5F5F5F5F5F5F5F5F5F5F5F5F5F5F5F5F5F5F5F5E2F5F5F5F5F5F5F5F5F5F5F5F5F5F5F5F5E2F5F5F5F5E2E2F5F5F5F5E2F5F5F5F5F5F5F5F5F5F5F5F5F5F5F5F5E2
310
0F0F0F0F0F0F0F0F0F0FF5F5F5F5F5F5F5F5F5F5F5F5F5F5F5F5F5F5F5F5F5F5F5F5F5F5F5F5F5F5F5F5F5F5F5F5F5F5F5F5F5F5F5F5F5F5F5F5F5F5F5F5F5F5F5F5F5F5F5F5F5F5F5F5F5F5F5F5F5F5F5F5F5F5F5F5F5F5F5F5F5F5F5F5F5F5F5F5F5F5F5F5F5F5F5F5F5F5F5F5F5F5F5F5F5F5F5F5F5F5F5F5F5F5F5F5F5
310
F5F5F5F5F5F5F5E2F5F5F5F5F5F5F5F5F5F5F5F5F5F5F5F5E2F5F5F5F5E2E2F5F5F5F5E2F5F5F5F5F5F5F5F5F5F5F5F5F5F5F5F5E2F5F5F5F5F5F5F5F5F5F5F5F5F5F5F5F5F5F5F5F5F5F5F5F5F5F5F5F5F5F5F5F5F5F5F5F5F5F5F5F5F5F5F5F5F5F5F5F5F5F5F5F5F5F5F5F5F5F5F5F5F5F5F5F5F5F5F5F5F5F5F5F5F5F5
310
F5F5F5F5F5F5F5F5F5F5F5F5F5F5F5F5F5F5F5F5F5F5F5F5F5F5F5F5F5F5F5F5F5F5F5F5F5F5F5F5F5F5F5F5F5F5F5F5F5F5F5F5F5F5F5F5F5F5F5F5E2F5F5F5F5F5F5F5F5F5F5F5F5F5F5F5F5E2F5F5F5F5E2E2F5F5F5F5F5F5F5F5F5F5F5F5F5F5F5F5F5F5F5F5F5E2F5F5F5F5F5F5F5F5F5F5F5F5F5F5F5F5F5F5F5F5F5
310
F5F5F5F5F5F5F5F5F5F5F5F5F5F5F5F5F5F5F5F5F5F5F5F5F5F5F5F5F5F5F5F5F5F5F5F5F5F5F5F5F5F5F5F5F5F5F5F5F5F5F5F5F5F5F5F5F5F5F5F5F5F5F5F5F5F5F5F5F5F5F5F5F5F5F5F5F5F5F5F5F5F5F5F5F5F5F5F5F5F5F5F5F5F5F5F5F5F5F5F5F5F5F5F5F5F5F5F5F5F5F5F5F5E2F5F5F5F5F5F5F5F5F5F5F5F5F5
310
F5F5F5F5F5F5F5F5E2E2F5F5F5F5F5F5F5F5F5F5F5F5F5F5F5F5F5F5F5F5F5E2F5F5F5F5F5F5F5F5F5F5F5F5F5F5F5F5F5F5F5F5F5F5F5F5F5F5F5F5F5F5F5F5F5F5F5F5F5F5F5F5F5F5F5F5F5F5F5F5F5F5F5F5F5F5F5F5F5F5F5F5F5F5F5F5F5F5F5F5F5F5F5F5F5F5F5F5F5F5F5F5F5F5F5F5F5F5F5F5F5F5F5F5F5F5F5
310
F5F5F5F5F5F5F5F5F5F5F5F5F5F5F5F5F5F5F5F5F5F5F5F5F5F5F5F5F5F5F5F5F5F5F5F5F5F5F5E2F5F5F5F5F5F5F5F5F5F5F5F5F5F5F5F5F5F5F5F5F5E2E2F5F5F5F5F5F5F5F5F5F5F5F5F5F5F5F5F5F5F5F5F5E2F5F5F5F5F5F5F5F5F5F5F5F5F5F5F5F5F5F5F5F5F5F5F5F5F5F5F5F5F5F5F5F5F5F5F5F5F5F5F5F5F5F5
310
F5F5F5F5F5F5F5F5F5F5F5F5F5F5F5F5F5F5F5F5F5F5F5F5F5F5F5F5F5F5F5F5F5F5F5F5F5F5F5F5F5F5F5F5F5F5F5F5F5F5F5F5F5F5F5F5F5F5F5F5F5F5F5F5F5F5F5F5F5F5F5F5F5F5F5F5F5F5F5F5F5F5F5F5F5F5F5F5F5F5F5F5E2F5F5F5F5F5F5F5F5F5F5F5F5F5F5F5F5F5F5F5F5F5E2E2F5F5F5F5F5F5F5F5F5F5F5
310
F5F5F5F5F5F5F5F5F5F5E2F5F5F5F5F5F5F5F5F5F5F5F5F5F5F5F5F5F5F5F5F5F5F5F5F5F5F5F5F5F5F5F5F5F5F5F5F5F5F5F5F5F5F5F5F5F5F5F5F5F5F5F5F5F5F5F5F5F5F5F5F5F5F5F5F5F5F5F5F5F5F5F5F5F5F5F5F5F5F5F5F5F5F5F5F5F5F5F5F5F5F5F5F5F5F5F5F5F5F5F5F5F5F5F5F5F5F5F5F5F5F5F5F5F5F5F5
310
F5F5F5F5F5F5F5F5F5F5F5F5F5F5F5F5F5F5E2F5F5F5F5F5F5F5F5F5F5F5F5F5F5F5F5F5F5F5F5F5E2E2F5F5F5F5F5F5F5F5F5F5F5F5F5F5F5F5F5F5F5F5F5E2F5F5F5F5F5F5F5F5F5F5F5F5F5F5F5F5F5F5F5F5F5F5F5F5F5F5F5F5F5F5F5F5F5F5F5F5F5F5F5F5F5F5F5F5F5F5F5F5F5F5F5F5F5F5F5F5F5F5F5F5F5F5F5
310
F5F5F5F5F5F5F5F5F5F5F5F5F5F5F5F5F5F5F5F5F5F5F5F5F5F5F5F5F5F5F5F5F5F5F5F5F5F5F5F5F5F5F5F5F5F5F5F5F5F5F5F5F5F5F5F5F5F5F5F5F5F5F5F5F5F5F5F5F5F5F5E2F5F5F5F5F5F5F5F5F5F5F5F5F5F5F5F5F5F5F5F5F5E2E2F5F5F5F5F5F5F5F5F5F5F5F5F5F5F5F5F5F5F5F5F5E2F5F5F5F5F5F5F5F5F5F5
310
F5F5F5F5F5F5F5F5F5F5F5F5F5F5F5F5F5F5F5F5F5F5F5F5F5F5F5F5F5F5F5F5F5F5F5F5F5F5F5F5F5F5F5F5F5F5F5F5F5F5F5F5F5F5F5F5F5F5F5F5F5F5F5F5F5F5F5F5F5F5F5F5F5F5F5F5F5F5F5F5F5F5F5F5F5F5F5F5F5F5F5F5F5F5F5F5F5F5F5F5F5F5F5F5F5F5F5F5F5F5F5F5F5F5F5F5F5F5F5F5F5F5F5F5E2F5F5
310
F5F5F5F5F5F5F5F5F5F5F5F5F5F5F5F5F5F5F5E2E2F5F5F5F5F5F5F5F5F5F5F5F5F5F5F5F5F5F5F5F5F5E2F5F5F5F5F5F5F5F5F5F5F5F5F5F5F5F5F5F5F5F5F5F5F5F5F5F5F5F5F5F5F5F5F5F5F5F5F5F5F5F5F5F5F5F5F5F5F5F5F5F5F5F5F5F5F5F5F5F5F5F5F5F5F5F5F5F5F5F5F5F5F5F5F5F5F5F5F5F5F5F5F5F5F5F5
310
F5F5F5F5F5F5F5F5F5F5F5F5F5F5F5F5F5F5F5F5F5F5F5F5F5F5F5F5F5F5F5F5F5F5F5F5F5F5F5F5F5F5F5F5F5F5F5F5F5F5E2F5F5F5F5F5F5F5F5F5F5F5F5F5F5F5F5F5F5F5F5F5E2E2F5F5F5F5F5F5F5F5F5F5F5F5F5F5F5F5F5F5F5F5F5E2F5F5F5F5F5F5F5F5F5F5F5F5F5F5F5F5F5F5F5F5F5F5F5F5F5F5F5F5F5F5F5
310
F5F5F5F5F5F5F5F5F5F5F5F5F5F5F5F5F5F5F5F5F5F5F5F5F5F5F5F5F5F5F5F5F5F5F5F5F5F5F5F5F5F5F5F5F5F5F5F5F5F5F5F5F5F5F5F5F5F5F5F5F5F5F5F5F5F5F5F5F5F5F5F5F5F5F5F5F5F5F5F5F5F5F5F5F5F5F5F5F5F5F5F5F5F5F5F5F5F5F5F5F5F5F5E2F5F5F5F5F5F5F5F5F5F5F5F5F5F5F5F5F5F5F5F5F5E2E2
310
F5F5F5F5F5F5F5F5F5F5F5F5F5F5F5F5F5F5F5F5F5E2F5F5F5F5F5F5F5F5F5F5F5F5F5F5F5F5F5F5F5F5F5F5F5F5F5F5F5F5F5F5F5F5F5F5F5F5F5F5F5F5F5F5F5F5F5F5F5F5F5F5F5F5F5F5F5F5F5F5F5F5F5F5F5F5F5F5F5F5F5F5F5F5F5F5F5F5F5F5F5F5F5F5F5F5F5F5F5F5F5F5F5F5F5F5F5F5F5F5F5F5F5F5F5F5F5
310
F5F5F5F5F5F5F5F5F5F5F5F5F5F5F5F5F5F5F5F5F5F5F5F5F5F5F5F5F5E2F5F5F5F5F5F5F5F5F5F5F5F5F5F5F5F5F5F5F5F5F5E2E2F5F5F5F5E2F5F5F5F5F5F5F5F5F5F5F5F5F5F5F5F5E2F5F5F5F5F5F5F5F5F5F5F5F5F5F5F5F5F5F5F5F5F5F5F5F5F5F5F5F5F5F5F5F5F5F5F5F5F5F5F5F5F5F5F5F5F5F5F5F5F5F5F5F5
310
F5F5F5F5F5F5F5F5F5F5F5F5F5F5F5F5F5F5F5F5F5F5F5F5F5F5F5F5F5F5F5F5F5F5F5F5F5F5F5F5F5F5F5F5F5F5F5F5F5E2F0E2E2F5F5F5F5F5F5E2F0E2E2F5DCF5F5F5F5F5F5F0F0E2F5F5F5F5F5F5F5F5E2F5F5F5F5F5F5F5F5F5F5F5F5F5F5F5F5E2F5F5F5F5E2E2F5F5F5F5E2F5F5F5F5F5F5F5F5F5F5F5F5F5F5F5F5
310
E2F5F5F5F5F5F5F5F5F5F5F5F5F5F5F5F5F5F5F5F5F5F5F5F5F5F5F5F5F5F5F5F5F5F5F5F5F5F5F5F5F5F5F5F5F5F5F5F5F5F5F5F5F5F5F5F5F5F5F5F5F5F5F5F5F5F5F5F5F5F5F5F5F5F5F5F5F5F5F5F5F5F5F5F5F5F5F5F5F5F5F5F5F5F5F5F5F5F5F5F5E2DCDCF0F5E2F5F5F5F5F5E2F5F0E2E2DCF5F5F5F5F5E2F0F0F5
310
E2F5F5F5E2E2E2F5E2F5F5F5F5F5F5F5F5F5F5F5F5F5F5F5F5E2F5F5F5F5E2E2F5F5F5F5E2F5F5F5F5F5F5F5F5F5F5F5F5F5F5F5F5E2F5F5F5F5F5F5F5F5F5F5F5F5F5F5F5F5F5F5F5F5F5F5F5F5F5F5F5F5F5F5F5F5F5F5F5F5F5F5F5F5F5F5F5F5F5F5F5F5F5F5F5F5F5F5F5F5F5F5F5F5F5F5F5F5F5F5F5F5F5F5F5F5F5
310
F5F5F5F5F5F5F5F5F5F5F5F5F5F5F5F5F5F5F5F5F5F5F5F5F5F5E2F0DCF0DCE2E2E2F5F5F5E2E2F0F0F0E2DCF5F5F5F5E2F0F0F0E2E2F0E2E2E2E2E2E2E2F5F5F5F5F5F5F5F5F5F5F5F5F5F5F5F5E2F5F5F5F5E2E2F5F5F5F5E2F5F5F5F5F5F5F5F5F5F5F5F5F5F5F5F5E2F5F5F5F5F5F5F5F5F5F5F5F5F5F5F5F5F5F5F5F5
310
F5F5F5F5F5F5F5F5F5F5F5F5F5F5F5F5F5F5F5F5F5F5F5F5F5F5F5F5F5F5F5F5F5F5F5F5F5F5F5F5F5F5F5F5F5F5F5F5F5F5F5F5F5F5F5F5F5F5F5F5F5F5F5F5F5F5F5F5F5F5F5F5F5F5F5F5F5F5F5E2F0DCF0DCF0F0E2F5F5F5E2F0DCE2E2E2DCF5F5F5F5F0F0F0F0E2E2F0E2F5E2E2E2E2E2F5F5F5F5F5F5F5F5F5F5F5F5
310
F5F5F5F5E2F5F5F5F5E2E2F5F5F5F5E2F5F5F5F5F5F5F5F5F5F5F5F5F5F5F5F5E2F5F5F5F5F5F5F5F5F5F5F5F5F5F5F5F5F5F5F5F5F5F5F5F5F5F5F5F5F5F5F5F5F5F5F5F5F5F5F5F5F5F5F5F5F5F5F5F5F5F5F5F5F5F5F5F5F5F5F5F5F5F5F5F5F5F5F5F5F5F5F5F5F5F5F5F5F5F5F5F5F5F5F5F5F5F5F5F5F5F5F5F5F5F5
310
F5F5F5F5F5F5E2DCDCDCF0E2F5F5F5F5F5F0DCDCE2E2DCF5F5F5F5F5F0F0F0DCE2F0F5E2E2E2E2F5E2F5F5F5F5F5F5F5F5F5F5F5F5F5F5F5F5E2F5F5F5F5E2E2F5F5F5F5E2F5F5F5F5F5F5F5F5F5F5F5F5F5F5F5F5E2F5F5F5F5F5F5F5F5F5F5F5F5F5F5F5F5F5F5F5F5F5F5F5F5F5F5F5F5F5F5F5F5F5F5F5F5F5F5F5F5F5
310
F5F5F5F5F5F5F5F5F5F5F5F5F5F5F5F5F5F5F5F5F5F5F5F5F5F5F5F5F5F5F5F5F5F5F5F5F5F5F5F5F5F5F5F5F5F5F5F5F5F5F5F5F5F5F5F5F5F5F5E2F0F0F0E2F5F5F5F5F5E2F0E2E2E2E2DCF5F5F5F5F5F0F0E2E2F5F5F5F5E2E2E2F5E2F5F5F5F5F5F5F5F5F5F5F5F5F5F5F5F5E2F5F5F5F5E2E2F5F5F5F5E2F5F5F5F5F5
310
F5F5F5F5F5F5F5F5F5F5F5E2F5F5F5F5F5F5F5F5F5F5F5F5F5F5F5F5F5F5F5F5F5F5F5F5F5F5F5F5F5F5F5F5F5F5F5F5F5F5F5F5F5F5F5F5F5F5F5F5F5F5F5F5F5F5F5F5F5F5F5F5F5F5F5F5F5F5F5F5F5F5F5F5F5F5F5F5F5F5F5F5F5F5F5F5F5F5F5F5F5F5F5F5F5F5F5F5F5F5F5F5F5F5E2E2F5F5F5F5F5F5F5F5E2E2F5
310
F5DCF5F5F5F5F5F5F5F0E2F5F5F5F5F5E2F5F5E2F5F5F5F5F5F5F5F5F5F5F5F5F5F5F5F5E2F5F5F5F5E2E2F5F5F5F5E2F5F5F5F5F5F5F5F5F5F5F5F5F5F5F5F5E2F5F5F5F5F5F5F5F5F5F5F5F5F5F5F5F5F5F5F5F5F5F5F5F5F5F5F5F5F5F5F5F5F5F5F5F5F5F5F5F5F5F5F5F5F5F5F5F5F5F5F5F5F5F5F5F5F5F5F5F5F5F5
310
F5F5F5F5F5F5F5F5F5F5F5F5F5F5F5F5F5F5F5F5F5F5F5F5F5F5F5F5F5F5F5F5F5F5F5F5F5F5F5F5F5F5F5F5F5F5F5F5F5F5F5F5F5F5DCF5F5F5F5F5F5F5F5F5F5F5F5F5F5F5F5F5E2F5F5F5F5F5F5F5F5F5F5F5F5F5F5F5F5E2F5F5F5F5E2E2F5F5F5F5E2F5F5F5F5F5F5F5F5F5F5F5F5F5F5F5F5E2F5F5F5F5F5F5F5F5F5
310
F5F5F5F5F5F5F5F5F5F5F5F5F5F5F5F5F5F5F5F5F5F5F5F5F5F5F5F5F5F5F5F5F5F5F5F5F5F5F5F5F5F5F5F5F5F5F5F5F5F5F5F5F5F5F5F5F5F5F5F5F5F5F5F5F5F5F5F5F5F5F5F5F5F5F5F5F5F5F5F5F5F5F5F5F5F5F5F5F5F5F5F5F5F5F5F5F5F5F5F5F5F5F5F5F5F5F5DCF5F5F5F5F5F5F5F5F5F5F5F5F5F5F5F5F5E2F5
310
F5F5F5F5F5F5F5F5F5F5F5F5F5F5F5E2F5F5F5F5E2E2F5F5F5F5E2F5F5F5F5F5F5F5F5F5F5F5F5F5F5F5F5E2F5F5F5F5F5F5F5F5F5F5F5F5F5F5F5F5F5F5F5F5F5F5F5F5F5F5F5F5F5F5F5F5F5F5F5F5F5F5F5F5F5F5F5F5F5F5F5F5F5F5F5F5F5F5F5F5F5F5F5F5F5F5F5F5F5F5F5F5F5F5F5F5F5F5F5F5F5F5F5F5F5F5F5
310
F5F5F5F5F5F5F5F5F5F5F5F5F5F5F5F5F5F5F5F5F5F5F5F5F5F5F5F5F5F5F5F5F5DCF5F5F5F5F5F5F5F5F5F5F5F5F5F5F5F5F5E2F5F5F5F5F5F5F5F5F5F5F5F5F5F5F5F5E2F5F5F5F5E2E2F5F5F5F5E2F5F5F5F5F5F5F5F5F5F5F5F5F5F5F5F5E2F5F5F5F5F5F5F5F5F5F5F5F5F5F5F5F5F5F5F5F5F5F5F5F5F5F5F5F5F5F5
310
F5F5F5F5F5F5F5F5F5F5F5F5F5F5F5F5F5F5F5F5F5F5F5F5F5F5F5F5F5F5F5F5F5F5F5F5F5F5F5F5F5F5F5F5F5F5F5F5F5F5F5F5F5F5F5F5F5F5F5F5F5F5F5F5F5F5F5F5F5F5F5F5F5F5F5F5F5F5F5F5F5F5F5F5F5F5DCF5F5F5F5F5F5F5F5F5F5F5F5F5F5F5F5F5E2F5F5F5F5F5F5F5F5F5F5F5F5F5F5F5F5E2F5F5F5F5E2
310
E2F5F5F5F5E2F5F5F5F5F5F5F5F5F5F5F5F5F5F5F5F5E2F5F5F5F5F5F5F5F5F5F5F5F5F5F5F5F5F5F5F5F5F5F5F5F5F5F5F5F5F5F5F5F5F5F5F5F5F5F5F5F5F5F5F5F5F5F5F5F5F5F5F5F5F5F5F5F5F5F5F5F5F5F5F5F5F5F5F5F5F5F5F5F5F5F5F5F5F5F5F5F5F5F5F5F5F5F5F5F5F5F5F5F5F5F5F5F5F5F5F5F5F5F5F5F5
310
F5F5F5F5F5F5F5F5F5F5F5F5DCF5F5F5F5F5F5F5F5F5F5F5F5F5F5F5F5F5E2F5F5F5F5F5F5F5F5F5F5F5F5F5F5F5F5E2F5F5F5F5E2E2F5F5F5F5E2F5F5F5F5F5F5F5F5F5F5F5F5F5F5F5F5E2F5F5F5F5F5F5F5F5F5F5F5F5F5F5F5F5F5F5F5F5F5F5F5F5F5F5F5F5F5F5F5F5F5F5F5F5F5F5F5F5F5F5F5F5F5F5F5F5F5F5F5
310
F5F5F5F5F5F5F5F5F5F5F5F5F5F5F5F5F5F5F5F5F5F5F5F5F5F5F5F5F5F5F5F5F5F5F5F5F5F5F5F5F5F5F5F5F5F5F5F5F5F5F5F5F5F5F5F5F5F5F5F5F5F5F5F5F5DCF5F5F5F5F5F5F5F5F5F5F5F5F5F5F5F5F5E2F5F5F5F5F5F5F5F5F5F5F5F5F5F5F5F5E2F5F5F5F5E2E2F5F5F5F5E2F5F5F5F5F5F5F5F5F5F5F5F5F5F5F5
310
F5E2F5F5F5F5F5F5F5F5F5F5F5F5F5F5F5F5F5F5F5F5F5F5F5F5F5F5F5F5F5F5F5F5F5F5F5F5F5F5F5F5F5F5F5F5F5F5F5F5F5F5F5F5F5F5F5F5F5F5F5F5F5F5F5F5F5F5F5F5F5F5F5F5F5F5F5F5F5F5F5F5F5F5F5F5F5F5F5F5F5F5F5F5F5F5F5F5F5F5F5F5F5F5F5F5F5F5F5F5F5F5F5F5F5F5F5F5DCF5F5F5F5F5F5F5F5
310
F5F5F5F5F5F5F5F5F5E2F5F5F5F5F5F5F5F5F5F5F5F5F5F5F5F5E2F5F5F5F5E2E2F5F5F5F5E2F5F5F5F5F5F5F5F5F5F5F5F5F5F5F5F5E2F5F5F5F5F5F5F5F5F5F5F5F5F5F5F5F5F5F5F5F5F5F5F5F5F5F5F5F5F5F5F5F5F5F5F5F5F5F5F5F5F5F5F5F5F5F5F5F5F5F5F5F5F5F5F5F5F5F5F5F5F5F5F5F5F5F5F5F5F5F5F5F5
310
F5F5F5F5F5F5F5F5F5F5F5F5F5F5F5F5F5F5F5F5F5F5F5F5F5F5F5F5F5F5F5F5F5F5F5F5F5F5F5F5F5F5E2E2DCE2F5F5F5F5F5F5F5F5F5F5F5F5F5F5F5F5E2F5F5F5F5F5F5F5F5F5F5F5F5F5F5F5F5E2F5F5F5F5E2E2F5F5F5F5E2F5F5F5F5F5F5F5F5F5F5F5F5F5F5F5F5E2F5F5F5F5F5F5F5F5F5F5F5F5F5F5F5F5F5F5F5
310
F5F5F5F5F5F5F5F5F5F5F5F5F5F5F5F5F5F5F5F5F5F5F5F5F5F5F5F5F5F5F5F5F5F5F5F5F5F5F5F5F5F5F5F5F5F5F5F5F5F5F5F5F5F5F5F5F5F5F5F5F5F5F5F5F5F5F5F5F5F5F5F5F5F5F5F5F5F5F5F5F5F5F5F5F5F5F5F5F5F5F5F5F5F5F5F5F5DCF5F5F5F5F5F5F5F5F5F5F5F5F5F5F5F5F5E2F5F5F5F5F5F5F5F5F5F5F5
310
F5F5F5F5F5E2F5F5F5F5E2E2F5F5F5F5E2F5F5F5F5F5F5F5F5F5F5F5F5F5F5F5F5E2F5F5F5F5F5F5F5F5F5F5F5F5F5F5F5F5F5F5F5F5F5F5F5F5F5F5F5F5F5F5F5F5F5F5F5F5F5F5F5F5F5F5F5F5F5F5F5F5F5F5F5F5F5F5F5F5F5F5F5F5F5F5F5F5F5F5F5F5F5F5F5F5F5F5F5F5F5F5F5F5F5F5F5F5F5F5F5F5F5F5F5F5F5
310
F5F5F5F5F5F5F5F5F5F5F5F5F5F5F5F5F5F5F5F5F5F5F5DCF5F5F5F5F5F5F5F5F5F5F5F5F5F5F5F5F5E2F5F5F5F5F5F5F5F5F5F5F5F5F5F5F5F5E2F5F5F5F5E2E2F5F5F5F5F5F5F5F5F5F5F5F5F5F5F5F5F5F5F5F5F5E2F5F5F5F5F5F5F5F5F5F5F5F5F5F5F5F5F5F5F5F5F5F5F5F5F5F5F5F5F5F5F5F5F5F5F5F5F5F5F5F5
310
F5F5F5F5F5F5F5F5F5F5F5F5F5F5F5F5F5F5F5F5F5F5F5F5F5F5F5F5F5F5F5F5F5F5F5F5F5F5F5F5F5F5F5F5F5F5F5F5F5F5F5F5F5F5F5F5F5F5F5F5F5F5F5F5F5F5F5F5F5F5F5F5F5F5F5F5DCF5F5F5F5F5F5F5F5F5F5F5F5F5F5F5F5F5E2F5F5F5F5F5F5F5F5F5F5F5F5F5F5F5F5F5F5F5F5F5E2E2F5F5F5F5F5F5F5F5F5
310
F5F5F5F5F5F5F5F5F5F5F5F5E2F5F5F5F5F5F5F5F5F5F5F5F5F5F5F5F5F5F5F5F5F5F5F5F5F5F5F5F5F5F5F5F5F5F5F5F5F5F5F5F5F5F5F5F5F5F5F5F5F5F5F5F5F5F5F5F5F5F5F5F5F5F5F5F5F5F5F5F5F5F5F5F5F5F5F5F5F5F5F5F5F5F5F5F5F5F5F5F5F5F5F5F5F5F5F5F5F5F5F5F5F5F5F5F5F5F5F5F5F5F5F5F5F5F5
310
F5F5F5F5F5F5F5F5F5F5F5F5F5F5F5F5F5F5F5F5E2F5F5F5F5F5F5F5F5F5F5F5F5F5F5F5F5F5F5F5F5F5E2E2F5F5F5F5F5F5F5F5F5F5F5F5F5F5F5F5F5F5F5F5F5E2F5F5F5F5F5F5F5F5F5F5F5F5F5F5F5F5F5F5F5F5F5F5F5F5F5F5F5F5F5F5F5F5F5F5F5F5F5F5F5F5F5F5F5F5F5F5F5F5F5F5F5F5F5F5F5F5F5F5F5F5F5
310
F5F5F5F5F5F5F5F5F5F5F5F5F5F5F5F5F5F5F5F5F5F5F5F5F5F5F5F5F5F5F5F5F5F5F5F5F5F5F5F5F5F5F5F5F5F5F5F5F5F5F5F5F5F5F5F5F5F5F5F5F5F5F5F5F5F5F5F5F5F5F5F5F5E2F5F5F5F5F5F5F5F5F5F5F5F5F5F5F5F5F5F5F5F5F5E2E2F5F5F5F5F5F5F5F5F5F5F5F5F5F5F5F5F5F5F5F5F5E2F5F5F5F5F5F5F5F5
310
F5F5F5F5F5F5F5F5F5F5F5F5F5F5F5F5F5F5F5F5F5F5F5F5F5F5F5F5F5F5F5F5F5F5F5F5F5F5F5F5F5F5F5F5F5F5F5F5F5F5F5F5F5F5F5F5F5F5F5F5F5F5F5F5F5F5F5F5F5F5F5F5F5F5F5F5F5F5F5F5F5F5F5F5F5F5F5F5F5F5F5F5F5F5F5F5F5F5F5F5F5F5F5F5F5F5F5F5F5F5F5F5F5F5F5F5F5F5F5F5F5F5F5F5F5F5E2
310
F5F5F5F5F5F5F5F5F5F5F5F5F5F5F5F5F5F5F5F5F5E2E2F5F5F5F5F5F5F5F5F5F5F5F5F5F5F5F5F5F5F5F5F5E2F5F5F5F5F5F5F5F5F5F5F5F5F5F5F5F5F5F5F5F5F5F5F5F5F5F5F5F5F5F5F5F5F5F5F5F5F5F5F5F5F5F5F5F5F5F5F5F5F5F5F5F5F5F5F5F5F5F5F5F5F5F5F5F5F5F5F5F5F5F5F5F5F5F5F5F5F5F5F5F5F5F5
310
F5F5F5F5F5F5F5F5F5F5F5F5F5F5F5F5F5F5F5F5F5F5F5F5F5F5F5F5F5F5F5F5F5F5F5F5F5F5F5F5F5F5F5F5F5F5F5F5F5F5F5F5E2F5F5F5F5F5F5F5F5F5F5F5F5F5F5F5F5F5F5F5F5F5E2E2F5F5F5F5F5F5F5F5F5F5F5F5F5F5F5F5F5F5F5F5F5E2F5F5F5F5F5F5F5F5F5F5F5F5F5F5F5F5F5F5F5F5F5F5F5F5F5F5F5F5F5
310
F5F5F5F5F5F5F5F5F5F5F5F5F5F5F5F5F5F5F5F5F5F5F5F5F5F5F5F5F5F5F5F5F5F5F5F5F5F5F5F5F5F5F5F5F5F5F5F5F5F5F5F5F5F5F5F5F5F5F5F5F5F5F5F5F5F5F5F5F5F5F5F5F5F5F5F5F5F5F5F5F5F5F5F5F5F5F5F5F5F5F5F5F5F5F5F5F5F5F5F5F5F5F5F5F5E2F5F5F5F5F5F5F5F5F5F5F5F5F5F5F5F5F5F5F5F5F5
310
E2E2F5F5F5F5F5F5F5F5F5F5F5F5F5F5F5F5F5F5F5F5F5E2F5F5F5F5F5F5F5F5F5F5F5F5F5F5F5F5F5F5F5F5F5F5F5F5F5F5F5F5F5F5F5F5F5F5F5F5F5F5F5F5F5F5F5F5F5F5F5F5F5F5F5F5F5F5F5F5F5F5F5F5F5F5F5F5F5F5F5F5F5F5F5F5F5F5F5F5F5F5F5F5F5F5F5F5F5F5F5F5F5F5F5F5F5F5F5F5F5F5F5F5F5F5F5
310
F5F5F5F5F5F5F5F5F5F5F5F5F5F5F5F5F5F5F5F5F5F5F5F5F5F5F5F5F5F5F5E2F5F5F5F5F5F5F5F5F5F5F5F5F5F5F5F5F5F5F5F5F5E2E2F5F5F5F5F5F5F5F5F5F5F5F5F5F5F5F5F5F5F5F5F5E2F5F5F5F5F5F5F5F5F5F5F5F5F5F5F5F5F5F5F5F5F5F5F5F5F5F5F5F5F5F5F5F5F5F5F5F5F5F5F5F5F5F5F5F5F5F5F5F5F5F5
310
F5F5F5F5F5F5F5F5F5F5F5F5F5F5F5F5F5F5F5F5F5F5F5F5F5F5F5F5F5F5F5F5F5F5F5F5F5F5F5F5F5F5F5F5F5F5F5F5F5F5F5F5F5F5F5F5F5F5F5F5F5F5F5F5F5F5F5F5F5F5F5F5F5F5F5F5F5F5F5F5F5F5F5F5E2F5F5F5F5F5F5F5F5F5F5F5F5F5F5F5F5F5F5F5F5F5E2E2F5F5F5F5F5F5F5F5F5F5F5F5F5F5F5F5F5F5F5
310
F5F5E2F5F5F5F5F5F5F5F5F5F5F5F5F5F5F5F5F5F5F5F5F5F5F5F5F5F5F5F5F5F5F5F5F5F5F5F5F5F5F5F5F5F5F5F5F5F5F5F5F5F5F5F5F5F5F5F5F5F5F5F5F5F5F5F5F5F5F5F5F5F5F5F5F5F5F5F5F5F5F5F5F5F5F5F5F5F5F5F5F5F5F5F5F5F5F5F5F5F5F5F5F5F5F5F5F5F5F5F5F5F5F5F5F5F5F5F5F5F5F5F5F5F5F5F5
310
F5F5F5F5F5F5F5F5F5F5E2F5F5F5F5F5F5F5F5F5F5F5F5F5F5F5F5F5F5F5F5F5E2E2F5F5F5F5E2F5F5F5F5F5F5F5F5F5F5F5F5F5F5F5F5E2F5F5F5F5F5F5F5F5F5F5F5F5F5F5F5F5F5F5F5F5F5F5F5F5F5F5F5F5F5F5F5F5F5F5F5F5F5F5F5F5F5F5F5F5F5F5F5F5F5F5F5F5F5F5F5F5F5F5F5F5F5F5F5F5F5F5F5F5F5F5F5
310
F5F5F5F5F5F5F5F5F5F5F5F5F5F5F5F5F5F5F5F5F5F5F5F5F5F5F5F5F5F5F5F5F5F5F5F5F5F5F5F5F5F5F5F5F5F5F5F5F5F5F5F5F5F5F5F5F5F5F5F5F5F5F5E2F5F5F5F5F5F5F5F5F5F5F5F5F5F5F5F5E2F5F5F5F5E2E2F5F5F5F5E2F5F5F5F5F5F5F5F5F5F5F5F5F5F5F5F5E2F5F5F5F5F5F5F5F5F5F5F5F5F5F5F5F5F5F5
310
F5F5F5F5F5F5F5F5F5F5F5F5F5F5F5F5F5F5F5F5F5F5F5F5F5F5F5F5F5F5F5F5F5F5F5F5F5F5F5F5F5F5F5F5F5F5F5F5F5F5F5F5F5F5F5F5F5F5F5F5F5F5F5F5F5F5F5F5F5F5F5F5F5F5F5F5F5F5F5F5F5F5F5F5F5F5F5F5F5F5F5F5F5F5F5F5F5F5F5F5F5F5F5F5F5F5F5F5F5F5F5F5F5F5F5F5E2F5F5F5F5F5F5F5F5F5F5
310
F5F5F5F5F5F5E2F5F5F5F5E2E2F5F5F5F5E2F5F5F5F5F5F5F5F5F5F5F5F5F5F5F5F5E2F5F5F5F5F5F5F5F5F5F5F5F5F5F5F5F5F5F5F5F5F5F5F5F5F5F5F5F5F5F5F5F5F5F5F5F5F5F5F5F5F5F5F5F5F5F5F5F5F5F5F5F5F5F5F5F5F5F5F5F5F5F5F5F5F5F5F5F5F5F5F5F5F5F5F5F5F5F5F5F5F5F5F5F5F5F5F5F5F5F5F5F5
310
F5F5F5F5F5F5F5F5F5F5F5F5F5F5F5F5F5F5F5F5F5F5F5F5F5F5F5F5F5F5F5F5F5F5F5F5F5F5F5F5F5F5E2F5F5F5F5F5F5F5F5F5F5F5F5F5F5F5F5E2F5F5F5F5E2E2F5F5F5F5E2F5F5F5F5F5F5F5F5F5F5F5F5F5F5F5F5E2F5F5F5F5F5F5F5F5F5F5F5F5F5F5F5F5F5F5F5F5F5F5F5F5F5F5F5F5F5F5F5F5F5F5F5F5F5F5F5
310
F5F5F5F5F5F5F5F5F5F5F5F5F5F5F5F5F5F5F5F5F5F5F5F5F5F5F5F5F5F5F5F5F5F5F5F5F5F5F5F5F5F5F5F5F5F5F5F5F5F5F5F5F5F5F5F5F5F5F5F5F5F5F5F5F5F5F5F5F5F5F5F5F5F5F5F5F5F5F5F5F5F5F5F5F5F5F5F5F5F5F5F5F5F5F5E2F5F5F5F5F5F5F5F5F5F5F5F5F5F5F5F5E2F5F5F5F5E2E2F5F5F5F5E2F5F5F5
310
F5F5F5F5F5F5F5F5F5F5F5F5F5E2F5F5F5F5F5F5F5F5F5F5F5F5F5F5F5F5F5F5F5F5F5F5F5F5F5F5F5F5F5F5F5F5F5F5F5F5F5F5F5F5F5F5F5F5F5F5F5F5F5F5F5F5F5F5F5F5F5F5F5F5F5F5F5F5F5F5F5F5F5F5F5F5F5F5F5F5F5F5F5F5F5F5F5F5F5F5F5F5F5F5F5F5F5F5F5F5F5F5F5F5F5F5F5F5F5F5F5F5F5F5F5F5F5
310
F5F5F5F5F5F5F5F5F5F5F5F5F5F5F5F5F5F5F5F5F5E2F5F5F5F5F5F5F5F5F5F5F5F5F5F5F5F5E2F5F5F5F5E2E2F5F5F5F5E2F5F5F5F5F5F5F5F5F5F5F5F5F5F5F5F5E2F5F5F5F5F5F5F5F5F5F5F5F5F5F5F5F5F5F5F5F5F5F5F5F5F5F5F5F5F5F5F5F5F5F5F5F5F5F5F5F5F5F5F5F5F5F5F5F5F5F5F5F5F5F5F5F5F5F5F5F5
310
F5F5F5F5F5F5F5F5F5F5F5F5F5F5F5F5F5F5F5F5F5F5F5F5F5F5F5F5F5F5F5F5F5F5F5F5F5F5F5F5F5F5F5F5F5F5F5F5F5F5F5F5F5F5F5F5F5F5F5F5F5F5F5F5F5F5F5F5F5F5F5F5F5F5E2F5F5F5F5F5F5F5F5F5F5F5F5F5F5F5F5E2F5F5F5F5E2E2F5F5F5F5E2F5F5F5F5F5F5F5F5F5F5F5F5F5F5F5F5E2F5F5F5F5F5F5F5
310
F5F5F5F5F5F5F5F5F5F5F5F5F5F5F5F5F5F5F5F5F5F5F5F5F5F5F5F5F5F5F5F5F5F5F5F5F5F5F5F5F5F5F5F5F5F5F5F5F5F5F5F5F5F5F5F5F5F5F5F5F5F5F5F5F5F5F5F5F5F5F5F5F5F5F5F5F5F5F5F5F5F5F5F5F5F5F5F5F5F5F5F5F5F5F5F5F5F5F5F5F5F5F5F5F5F5F5F5F5F5F5F5F5F5F5F5F5F5F5F5F5F5F5F5F5F5F5
310
E2F5F5F5F5F5F5F5F5F5F5F5F5F5F5F5F5E2F5F5F5F5E2E2F5F5F5F5E2F5F5F5F5F5F5F5F5F5F5F5F5F5F5F5F5E2F5F5F5F5F5F5F5F5F5F5F5F5F5F5F5F5F5F5F5F5F5F5F5F5F5F5F5F5F5F5F5F5F5F5F5F5F5F5F5F5F5F5F5F5F5F5F5F5F5F5F5F5F5F5F5F5F5F5F5F5F5F5F5F5F5F5F5F5F5F5F5F5F5F5F5F5F5F5F5F5F5
310
F5F5F5F5F5F5F5F5F5F5F5F5F5F5F5F5F5F5F5F5F5F5F5F5F5F5F5F5F5F5F5F5F5F5F5F5F5F5F5F5F5F5F5F5F5F5F5F5F5F5F5F5F5E2F5F5F5F5F5F5F5F5F5F5F5F5F5F5F5F5E2F5F5F5F5E2E2F5F5F5F5E2F5F5F5F5F5F5F5F5F5F5F5F5F5F5F5F5E2F5F5F5F5F5F5F5F5F5F5F5F5F5F5F5F5F5F5F5F5F5F5F5F5F5F5F5F5
310
F5F5F5F5F5F5F5F5F5F5F5F5F5F5F5F5F5F5F5F5F5F5F5F5F5F5F5F5F5F5F5F5F5F5F5F5F5F5F5F5F5F5F5F5F5F5F5F5F5F5F5F5F5F5F5F5F5F5F5F5F5F5F5F5F5F5F5F5F5F5F5F5F5F5F5F5F5F5F5F5F5F5F5F5F5F5F5F5F5F5F5F5F5F5F5F5F5F5F5F5F5F5F5F5F5F5E2F5F5F5F5F5F5F5F5F5F5F5F5F5F5F5F5E2F5F5F5
310
F5E2E2F5F5F5F5E2F5F5F5F5F5F5F5F5F5F5F5F5F5F5F5F5E2F5F5F5F5F5F5F5F5F5F5F5F5F5F5F5F5F5F5F5F5F5F5F5F5F5F5F5F5F5F5F5F5F5F5F5F5F5F5F5F5F5F5F5F5F5F5F5F5F5F5F5F5F5F5F5F5F5F5F5F5F5F5F5F5F5F5F5F5F5F5F5F5F5F5F5F5F5F5F5F5F5F5F5F5F5F5F5F5F5F5F5F5F5F5F5F5F5F5F5F5F5F5
310
F5F5F5F5F5F5F5F5F5F5F5F5F5F5F5F5F5F5F5F5F5F5F5F5F5F5F5F5F5F5F5F5E2F5F5F5F5F5F5F5F5F5F5F5F5F5F5F5F5E2F5F5F5F5E2E2F5F5F5F5E2F5F5F5F5F5F5F5F5F5F5F5F5F5F5F5F5E2F5F5F5F5F5F5F5F5F5F5F5F5F5F5F5F5F5F5F5F5F5F5F5F5F5F5F5F5F5F5F5F5F5F5F5F5F5F5F5F5F5F5F5F5F5F5F5F5F5
310
F5F5F5F5F5F5F5F5F5F5F5F5F5F5F5F5F5F5F5F5F5F5F5F5F5F5F5F5F5F5F5F5F5F5F5F5F5F5F5F5F5F5F5F5F5F5F5F5F5F5F5F5F5F5F5F5F5F5F5F5F5F5F5F5F5F5F5F5F5F5F5F5F5F5F5F5F5F5F5F5F5F5F5F5F5E2F5F5F5F5F5F5F5F5F5F5F5F5F5F5F5F5E2F5F5F5F5E2E2F5F5F5F5E2F5F5F5F5F5F5F5F5F5F5F5F5F5
310
F5F5F5E2F5F5F5F5F5F5F5F5F5F5F5F5F5F5F5F5F5F5F5F5F5F5F5F5F5F5F5F5F5F5F5F5F5F5F5F5F5F5F5F5F5F5F5F5F5F5F5F5F5F5F5F5F5F5F5F5F5F5F5F5F5F5F5F5F5F5F5F5F5F5F5F5F5F5F5F5F5F5F5F5F5F5F5F5F5F5F5F5F5F5F5F5F5F5F5F5F5F5F5F5F5F5F5F5F5F5F5F5F5F5F5F5F5F5F5F5F5F5F5F5F5F5F5
310
F5F5F5F5F5F5F5F5F5F5F5E2F5F5F5F5F5F5F5F5F5F5F5F5F5F5F5F5E2F5F5F5F5E2E2F5F5F5F5E2F5F5F5F5F5F5F5F5F5F5F5F5F5F5F5F5E2F5F5F5F5F5F5F5F5F5F5F5F5F5F5F5F5F5F5F5F5F5F5F5F5F5F5F5F5F5F5F5F5F5F5F5F5F5F5F5F5F5F5F5F5F5F5F5F5F5F5F5F5F5F5F5F5F5F5F5F5F5F5F5F5F5F5F5F5F5F5
310
F5F5F5F5F5F5F5F5F5F5F5F5F5F5F5F5F5F5F5F5F5F5F5F5F5F5F5F5F5F5F5F5F5F5F5F5F5F5F5F5F5F5F5F5F5F5F5F5F5F5F5F5F5F5F5F5F5F5F5F5F5F5F5F5E2F5F5F5F5F5F5F5F5F5F5F5F5F5F5F5F5E2F5F5F5F5E2E2F5F5F5F5E2F5F5F5F5F5F5F5F5F5F5F5F5F5F5F5F5E2F5F5F5F5F5F5F5F5F5F5F5F5F5F5F5F5F5
310
F5F5F5F5F5F5F5F5F5F5F5F5F5F5F5F5F5F5F5F5F5F5F5F5F5F5F5F5F5F5F5F5F5F5F5F5F5F5F5F5F5F5F5F5F5F5F5F5F5F5F5F5F5F5F5F5F5F5F5F5F5F5F5F5F5F5F5F5F5F5F5F5F5F5F5F5F5F5F5F5F5F5F5F5F5F5F5F5F5F5F5F5F5F5F5F5F5F5F5F5F5F5F5F5F5F5F5F5F5F5F5F5F5F5F5F5F5E2F5F5F5F5F5F5F5F5F5
310
F5F5F5F5F5F5F5E2F5F5F5F5E2E2F5F5F5F5E2F5F5F5F5F5F5F5F5F5F5F5F5F5F5F5F5E2F5F5F5F5F5F5F5F5F5F5F5F5F5F5F5F5F5F5F5F5F5F5F5F5F5F5F5F5F5F5F5F5F5F5F5F5F5F5F5F5F5F5F5F5F5F5F5F5F5F5F5F5F5F5F5F5F5F5F5F5F5F5F5F5F5F5F5F5F5F5F5F5F5F5F5F5F5F5F5F5F5F5F5F5F5F5F5F5F5F5F5
310
F5F5F5F5F5F5F5F5F5F5F5F5F5F5F5F5F5F5F5F5F5F5F5F5F5F5F5F5F5F5F5F5F5F5F5F5F5F5F5F5F5F5F5E2F5F5F5F5F5F5F5F5F5F5F5F5F5F5F5F5E2F5F5F5F5E2E2F5F5F5F5E2F5F5F5F5F5F5F5F5F5F5F5F5F5F5F5F5E2F5F5F5F5F5F5F5F5F5F5F5F5F5F5F5F5F5F5F5F5F5F5F5F5F5F5F5F5F5F5F5F5F5F5F5F5F5F5
310
F5F5F5F5F5F5F5F5F5F5F5F5F5F5F5F5F5F5F5F5F5F5F5F5F5F5F5F5F5F5F5F5F5F5F5F5F5F5F5F5F5F5F5F5F5F5F5F5F5F5F5F5F5F5F5F5F5F5F5F5F5F5F5F5F5F5F5F5F5F5F5F5F5F5F5F5F5F5F5F5F5F5F5F5F5F5F5F5F5F5F5F5F5F5F5F5E2F5F5F5F5F5F5F5F5F5F5F5F5F5F5F5F5E2F5F5F5F5E2E2F5F5F5F5E2F5F5
310
F5F5F5F5F5F5F5F5F5F5F5F5F5F5E2F5F5F5F5F5F5F5F5F5F5F5F5F5F5F5F5F5F5F5F5F5F5F5F5F5F5F5F5F5F5F5F5F5F5F5F5F5F5F5F5F5F5F5F5F5F5F5F5F5F5F5F5F5F5F5F5F5F5F5F5F5F5F5F5F5F5F5F5F5F5F5F5F5F5F5F5F5F5F5F5F5F5F5F5F5F5F5F5F5F5F5F5F5F5F5F5F5F5F5F5F5F5F5F5F5F5F5F5F5F5F5F5
310
F5F5F5F5F5F5F5F5F5F5F5F5F5F5F5F5F5F5F5F5F5F5E2F5F5F5F5F5F5F5F5F5F5F5F5F5F5F5F5E2F5F5F5F5E2E2F5F5F5F5F5F5F5F5F5F5F5F5F5F5F5F5F5F5F5F5F5E2F5F5F5F5F5F5F5F5F5F5F5F5F5F5F5F5F5F5F5F5F5F5F5F5F5F5F5F5F5F5F5F5F5F5F5F5F5F5F5F5F5F5F5F5F5F5F5F5F5F5F5F5F5F5F5F5F5F5F5
310
F5F5F5F5F5F5F5F5F5F5F5F5F5F5F5F5F5F5F5F5F5F5F5F5F5F5F5F5F5F5F5F5F5F5F5F5F5F5F5F5F5F5F5F5F5F5F5F5F5F5F5F5F5F5F5F5F5F5F5F5F5F5F5F5F5F5F5F5F5F5F5F5F5F5F5E2F5F5F5F5F5F5F5F5F5F5F5F5F5F5F5F5F5F5F5F5F5E2E2F5F5F5F5F5F5F5F5F5F5F5F5F5F5F5F5F5F5F5F5F5E2F5F5F5F5F5F5
310
F5F5F5F5F5F5F5F5F5F5F5F5F5F5F5F5F5F5F5F5F5F5F5F5F5F5F5F5F5F5F5F5F5F5F5F5F5F5F5F5F5F5F5F5F5F5F5F5F5F5F5F5F5F5F5F5F5F5F5F5F5F5F5F5F5F5F5F5F5F5F5F5F5F5F5F5F5F5F5F5F5F5F5F5F5F5F5F5F5F5F5F5F5F5F5F5F5F5F5F5F5F5F5F5F5F5F5F5F5F5F5F5F5F5F5F5F5F5F5F5F5F5F5F5F5F5F5
310
F5E2F5F5F5F5F5F5F5F5F5F5F5F5F5F5F5F5F5F5F5F5F5E2E2F5F5F5F5F5F5F5F5F5F5F5F5F5F5F5F5F5F5F5F5F5E2F5F5F5F5F5F5F5F5F5F5F5F5F5F5F5F5F5F5F5F5F5F5F5F5F5F5F5F5F5F5F5F5F5F5F5F5F5F5F5F5F5F5F5F5F5F5F5F5F5F5F5F5F5F5F5F5F5F5F5F5F5F5F5F5F5F5F5F5F5F5F5F5F5F5F5F5F5F5F5F5
310
F5F5F5F5F5F5F5F5F5F5F5F5F5F5F5F5F5F5F5F5F5F5F5F5F5F5F5F5F5F5F5F5F5F5F5F5F5F5F5F5F5F5F5F5F5F5F5F5F5F5F5F5F5F5E2F5F5F5F5F5F5F5F5F5F5F5F5F5F5F5F5F5F5F5F5F5E2E2F5F5F5F5F5F5F5F5F5F5F5F5F5F5F5F5F5F5F5F5F5E2F5F5F5F5F5F5F5F5F5F5F5F5F5F5F5F5F5F5F5F5F5F5F5F5F5F5F5
310
F5F5F5F5F5F5F5F5F5F5F5F5F5F5F5F5F5F5F5F5F5F5F5F5F5F5F5F5F5F5F5F5F5F5F5F5F5F5F5F5F5F5F5F5F5F5F5F5F5F5F5F5F5F5F5F5F5F5F5F5F5F5F5F5F5F5F5F5F5F5F5F5F5F5F5F5F5F5F5F5F5F5F5F5F5F5F5F5F5F5F5F5F5F5F5F5F5F5F5F5F5F5F5F5F5F5F5E2F5F5F5F5F5F5F5F5F5F5F5F5F5F5F5F5F5F5F5
310
F5F5E2E2F5F5F5F5F5F5F5F5F5F5F5F5F5F5F5F5F5F5F5F5F5E2F5F5F5F5F5F5F5F5F5F5F5F5F5F5F5F5F5F5F5F5F5F5F5F5F5F5F5F5F5F5F5F5F5F5F5F5F5F5F5F5F5F5F5F5F5F5F5F5F5F5F5F5F5F5F5F5F5F5F5F5F5F5F5F5F5F5F5F5F5F5F5F5F5F5F5F5F5F5F5F5F5F5F5F5F5F5F5F5F5F5F5F5F5F5F5F5F5F5F5F5F5
310
F5F5F5F5F5F5F5F5F5F5F5F5F5F5F5F5F5F5F5F5F5F5F5F5F5F5F5F5F5F5F5F5F5E2F5F5F5F5F5F5F5F5F5F5F5F5F5F5F5F5F5F5F5F5F5E2E2F5F5F5F5F5F5F5F5F5F5F5F5F5F5F5F5F5F5F5F5F5E2F5F5F5F5F5F5F5F5F5F5F5F5F5F5F5F5F5F5F5F5F5F5F5F5F5F5F5F5F5F5F5F5F5F5F5F5F5F5F5F5F5F5F5F5F5F5F5F5
310
F5F5F5F5F5F5F5F5F5F5F5F5F5F5F5F5F5F5F5F5F5F5F5F5F5F5F5F5F5F5F5F5F5F5F5F5F5F5F5F5F5F5F5F5F5F5F5F5F5F5F5F5F5F5F5F5F5F5F5F5F5F5F5F5F5F5F5F5F5F5F5F5F5F5F5F5F5F5F5F5F5F5F5F5F5F5E2F5F5F5F5F5F5F5F5F5F5F5F5F5F5F5F5F5F5F5F5F5E2E2F5F5F5F5F5F5F5F5F5F5F5F5F5F5F5F5F5
310
F5F5F5F5E2F5F5F5F5F5F5F5F5F5F5F5F5F5F5F5F5F5F5F5F5F5F5F5F5F5F5F5F5F5F5F5F5F5F5F5F5F5F5F5F5F5F5F5F5F5F5F5F5F5F5F5F5F5F5F5F5F5F5F5F5F5F5F5F5F5F5F5F5F5F5F5F5F5F5F5F5F5F5F5F5F5F5F5F5F5F5F5F5F5F5F5F5F5F5F5F5F5F5F5F5F5F5F5F5F5F5F5F5F5F5F5F5F5F5F5F5F5F5F5F5F5F5
310
F5F5F5F5F5F5F5F5F5F5F5F5E2F5F5F5F5F5F5F5F5F5F5F5F5F5F5F5F5F5F5F5F5F5E2E2F5F5F5F5F5F5F5F5F5F5F5F5F5F5F5F5F5F5F5F5F5E2F5F5F5F5F5F5F5F5F5F5F5F5F5F5F5F5F5F5F5F5F5F5F5F5F5F5F5F5F5F5F5F5F5F5F5F5F5F5F5F5F5F5F5F5F5F5F5F5F5F5F5F5F5F5F5F5F5F5F5F5F5F5F5F5F5F5F5F5F5
310
F5F5F5F5F5F5F5F5F5F5F5F5F5F5F5F5F5F5F5F5F5F5F5F5F5F5F5F5F5F5F5F5F5F5F5F5F5F5F5F5F5F5F5F5F5F5F5F5F5F5F5F5F5F5F5F5F5F5F5F5F5F5F5F5F5E2F5F5F5F5F5F5F5F5F5F5F5F5F5F5F5F5F5F5F5F5F5E2E2F5F5F5F5F5F5F5F5F5F5F5F5F5F5F5F5F5F5F5F5F5E2F5F5F5F5F5F5F5F5F5F5F5F5F5F5F5F5
310
F5F5F5F5F5F5F5F5F5F5F5F5F5F5F5F5F5F5F5F5F5F5F5F5F5F5F5F5F5F5F5F5F5F5F5F5F5F5F5F5F5F5F5F5F5F5F5F5F5F5F5F5F5F5F5F5F5F5F5F5F5F5F5F5F5F5F5F5F5F5F5F5F5F5F5F5F5F5F5F5F5F5F5F5F5F5F5F5F5F5F5F5F5F5F5F5F5F5F5F5F5F5F5F5F5F5F5F5F5F5F5F5F5F5F5F5F5F5E2F5F5F5F5F5F5F5F5
310
F5F5F5F5F5F5F5F5F5F5F5F5F5E2E2F5F5F5F5E2F5F5F5F5F5F5F5F5F5F5F5F5F5F5F5F5E2F5F5F5F5F5F5F5F5F5F5F5F5F5F5F5F5F5F5F5F5F5F5F5F5F5F5F5F5F5F5F5F5F5F5F5F5F5F5F5F5F5F5F5F5F5F5F5F5F5F5F5F5F5F5F5F5F5F5F5F5F5F5F5F5F5F5F5F5F5F5F5F5F5F5F5F5F5F5F5F5F5F5F5F5F5F5F5F5F5F5
310
F5F5F5F5F5F5F5F5F5F5F5F5F5F5F5F5F5F5F5F5F5F5F5F5F5F5F5F5F5F5F5F5F5F5F5F5F5F5F5F5F5F5F5F5E2F5F5F5F5F5F5F5F5F5F5F5F5F5F5F5F5E2F5F5F5F5E2E2F5F5F5F5E2F5F5F5F5F5F5F5F5F5F5F5F5F5F5F5F5E2F5F5F5F5F5F5F5F5F5F5F5F5F5F5F5F5F5F5F5F5F5F5F5F5F5F5F5F5F5F5F5F5F5F5F5F5F5
310
F5F5F5F5F5F5F5F5F5F5F5F5F5F5F5F5F5F5F5F5F5F5F5F5F5F5F5F5F5F5F5F5F5F5F5F5F5F5F5F5F5F5F5F5F5F5F5F5F5F5F5F5F5F5F5F5F5F5F5F5F5F5F5F5F5F5F5F5F5F5F5F5F5F5F5F5F5F5F5F5F5F5F5F5F5F5F5F5F5F5F5F5F5F5F5F5F5E2F5F5F5F5F5F5F5F5F5F5F5F5F5F5F5F5E2F5F5F5F5E2E2F5F5F5F5E2F5
310
F5F5F5F5F5F5F5F5F5F5F5F5F5F5F5E2F5F5F5F5F5F5F5F5F5F5F5F5F5F5F5F5F5F5F5F5F5F5F5F5F5F5F5F5F5F5F5F5F5F5F5F5F5F5F5F5F5F5F5F5F5F5F5F5F5F5F5F5F5F5F5F5F5F5F5F5F5F5F5F5F5F5F5F5F5F5F5F5F5F5F5F5F5F5F5F5F5F5F5F5F5F5F5F5F5F5F5F5F5F5F5F5F5F5F5F5F5F5F5F5F5F5F5F5F5F5F5
310
F5F5F5F5F5F5F5F5F5F5F5F5F5F5F5F5F5F5F5F5F5F5F5E2F5F5F5F5F5F5F5F5F5F5F5F5F5F5F5F5E2F5F5F5F5E2E2F5F5F5F5E2F5F5F5F5F5F5F5F5F5F5F5F5F5F5F5F5E2F5F5F5F5F5F5F5F5F5F5F5F5F5F5F5F5F5F5F5F5F5F5F5F5F5F5F5F5F5F5F5F5F5F5F5F5F5F5F5F5F5F5F5F5F5F5F5F5F5F5F5F5F5F5F5F5F5F5
310
F5F5F5F5F5F5F5F5F5F5F5F5F5F5F5F5F5F5F5F5F5F5F5F5F5F5F5F5F5F5F5F5F5F5F5F5F5F5F5F5F5F5F5F5F5F5F5F5F5F5F5F5F5F5F5F5F5F5F5F5F5F5F5F5F5F5F5F5F5F5F5F5F5F5F5F5E2F5F5F5F5F5F5F5F5F5F5F5F5F5F5F5F5E2F5F5F5F5E2E2F5F5F5F5E2F5F5F5F5F5F5F5F5F5F5F5F5F5F5F5F5E2F5F5F5F5F5
310
F5F5F5F5F5F5F5F5F5F5F5F5F5F5F5F5F5F5F5F5F5F5F5F5F5F5F5F5F5F5F5F5F5F5F5F5F5F5F5F5F5F5F5F5F5F5F5F5F5F5F5F5F5F5F5F5F5F5F5F5F5F5F5F5F5F5F5F5F5F5F5F5F5F5F5F5F5F5F5F5F5F5F5F5F5F5F5F5F5F5F5F5F5F5F5F5F5F5F5F5F5F5F5F5F5F5F5F5F5F5F5F5F5F5F5F5F5F5F5F5F5F5F5F5F5F5F5
310
F5F5E2F5F5F5F5F5F5F5F5F5F5F5F5F5F5F5F5E2F5F5F5F5E2E2F5F5F5F5E2F5F5F5F5F5F5F5F5F5F5F5F5F5F5F5F5E2F5F5F5F5F5F5F5F5F5F5F5F5F5F5F5F5F5F5F5F5F5F5F5F5F5F5F5F5F5F5F5F5F5F5F5F5F5F5F5F5F5F5F5F5F5F5F5F5F5F5F5F5F5F5F5F5F5F5F5F5F5F5F5F5F5F5F5F5F5F5F5F5F5F5F5F5F5F5F5
310
F5F5F5F5F5F5F5F5F5F5F5F5F5F5F5F5F5F5F5F5F5F5F5F5F5F5F5F5F5F5F5F5F5F5F5F5F5F5F5F5F5F5F5F5F5F5F5F5F5F5F5F5F5F5F5E2F5F5F5F5F5F5F5F5F5F5F5F5F5F5F5F5E2F5F5F5F5E2E2F5F5F5F5E2F5F5F5F5F5F5F5F5F5F5F5F5F5F5F5F5E2F5F5F5F5F5F5F5F5F5F5F5F5F5F5F5F5F5F5F5F5F5F5F5F5F5F5
310
F5F5F5F5F5F5F5F5F5F5F5F5F5F5F5F5F5F5F5F5F5F5F5F5F5F5F5F5F5F5F5F5F5F5F5F5F5F5F5F5F5F5F5F5F5F5F5F5F5F5F5F5F5F5F5F5F5F5F5F5F5F5F5F5F5F5F5F5F5F5F5F5F5F5F5F5F5F5F5F5F5F5F5F5F5F5F5F5F5F5F5F5F5F5F5F5F5F5F5F5F5F5F5F5F5F5F5F5E2F5F5F5F5F5F5F5F5F5F5F5F5F5F5F5F5E2F5
310
F5F5F5E2E2F5F5F5F5E2F5F5F5F5F5F5F5F5F5F5F5F5F5F5F5F5E2F5F5F5F5F5F5F5F5F5F5F5F5F5F5F5F5F5F5F5F5F5F5F5F5F5F5F5F5F5F5F5F5F5F5F5F5F5F5F5F5F5F5F5F5F5F5F5F5F5F5F5F5F5F5F5F5F5F5F5F5F5F5F5F5F5F5F5F5F5F5F5F5F5F5F5F5F5F5F5F5F5F5F5F5F5F5F5F5F5F5F5F5F5F5F5F5F5F5F5F5
310
F5F5F5F5F5F5F5F5F5F5F5F5F5F5F5F5F5F5F5F5F5F5F5F5F5F5F5F5F5F5F5F5F5F5E2F5F5F5F5F5F5F5F5F5F5F5F5F5F5F5F5E2F5F5F5F5E2E2F5F5F5F5E2F5F5F5F5F5F5F5F5F5F5F5F5F5F5F5F5E2F5F5F5F5F5F5F5F5F5F5F5F5F5F5F5F5F5F5F5F5F5F5F5F5F5F5F5F5F5F5F5F5F5F5F5F5F5F5F5F5F5F5F5F5F5F5F5
310
F5F5F5F5F5F5F5F5F5F5F5F5F5F5F5F5F5F5F5F5F5F5F5F5F5F5F5F5F5F5F5F5F5F5F5F5F5F5F5F5F5F5F5F5F5F5F5F5F5F5F5F5F5F5F5F5F5F5F5F5F5F5F5F5F5F5F5F5F5F5F5F5F5F5F5F5F5F5F5F5F5F5F5F5F5F5F5E2F5F5F5F5F5F5F5F5F5F5F5F5F5F5F5F5E2F5F5F5F5E2E2F5F5F5F5E2F5F5F5F5F5F5F5F5F5F5F5
310
F5F5F5F5F5E2F5F5F5F5F5F5F5F5F5F5F5F5F5F5F5F5F5F5F5F5F5F5F5F5F5F5F5F5F5F5F5F5F5F5F5F5F5F5F5F5F5F5F5F5F5F5F5F5F5F5F5F5F5F5F5F5F5F5F5F5F5F5F5F5F5F5F5F5F5F5F5F5F5F5F5F5F5F5F5F5F5F5F5F5F5F5F5F5F5F5F5F5F5F5F5F5F5F5F5F5F5F5F5F5F5F5F5F5F5F5F5F5F5F5F5F5F5F5F5F5F5
310
F5F5F5F5F5F5F5F5F5F5F5F5F5E2F5F5F5F5F5F5F5F5F5F5F5F5F5F5F5F5E2F5F5F5F5E2E2F5F5F5F5E2F5F5F5F5F5F5F5F5F5F5F5F5F5F5F5F5E2F5F5F5F5F5F5F5F5F5F5F5F5F5F5F5F5F5F5F5F5F5F5F5F5F5F5F5F5F5F5F5F5F5F5F5F5F5F5F5F5F5F5F5F5F5F5F5F5F5F5F5F5F5F5F5F5F5F5F5F5F5F5F5F5F5F5F5F5
310
F5F5F5F5F5F5F5F5F5F5F5F5F5F5F5F5F5F5F5F5F5F5F5F5F5F5F5F5F5F5F5F5F5F5F5F5F5F5F5F5F5F5F5F5F5F5F5F5F5F5F5F5F5F5F5F5F5F5F5F5F5F5F5F5F5F5E2F5F5F5F5F5F5F5F5F5F5F5F5F5F5F5F5E2F5F5F5F5E2E2F5F5F5F5E2F5F5F5F5F5F5F5F5F5F5F5F5F5F5F5F5E2F5F5F5F5F5F5F5F5F5F5F5F5F5F5F5
310
F5F5F5F5F5F5F5F5F5F5F5F5F5F5F5F5F5F5F5F5F5F5F5F5F5F5F5F5F5F5F5F5F5F5F5F5F5F5F5F5F5F5F5F5F5F5F5F5F5F5F5F5F5F5F5F5F5F5F5F5F5F5F5F5F5F5F5F5F5F5F5F5F5F5F5F5F5F5F5F5F5F5F5F5F5F5F5F5F5F5F5F5F5F5F5F5F5F5F5F5F5F5F5F5F5F5F5F5F5F5F5F5F5F5F5F5F5F5F5E2F5F5F5F5F5F5F5
310
F5F5F5F5F5F5F5F5F5E2F5F5F5F5E2E2F5F5F5F5E2F5F5F5F5F5F5F5F5F5F5F5F5F5F5F5F5E2F5F5F5F5F5F5F5F5F5F5F5F5F5F5F5F5F5F5F5F5F5F5F5F5F5F5F5F5F5F5F5F5F5F5F5F5F5F5F5F5F5F5F5F5F5F5F5F5F5F5F5F5F5F5F5F5F5F5F5F5F5F5F5F5F5F5F5F5F5F5F5F5F5F5F5F5F5F5F5F5F5F5F5F5F5F5F5F5F5
310
F5F5F5F5F5F5F5F5F5F5F5F5F5F5F5F5F5F5F5F5F5F5F5F5F5F5F5F5F5F5F5F5F5F5F5F5F5F5F5F5F5F5F5F5F5E2F5F5F5F5F5F5F5F5F5F5F5F5F5F5F5F5E2F5F5F5F5E2E2F5F5F5F5E2F5F5F5F5F5F5F5F5F5F5F5F5F5F5F5F5E2F5F5F5F5F5F5F5F5F5F5F5F5F5F5F5F5F5F5F5F5F5F5F5F5F5F5F5F5F5F5F5F5F5F5F5F5
310
F5F5F5F5F5F5F5F5F5F5F5F5F5F5F5F5F5F5F5F5F5F5F5F5F5F5F5F5F5F5F5F5F5F5F5F5F5F5F5F5F5F5F5F5F5F5F5F5F5F5F5F5F5F5F5F5F5F5F5F5F5F5F5F5F5F5F5F5F5F5F5F5F5F5F5F5F5F5F5F5F5F5F5F5F5F5F5F5F5F5F5F5F5F5F5F5F5F5E2F5F5F5F5F5F5F5F5F5F5F5F5F5F5F5F5E2F5F5F5F5E2E2F5F5F5F5E2
310
F5F5F5F5F5F5F5F5F5F5F5F5F5F5F5F5E2F5F5F5F5F5F5F5F5F5F5F5F5F5F5F5F5F5F5F5F5F5F5F5F5F5F5F5F5F5F5F5F5F5F5F5F5F5F5F5F5F5F5F5F5F5F5F5F5F5F5F5F5F5F5F5F5F5F5F5F5F5F5F5F5F5F5F5F5F5F5F5F5F5F5F5F5F5F5F5F5F5F5F5F5F5F5F5F5F5F5F5F5F5F5F5F5F5F5F5F5F5F5F5F5F5F5F5F5F5F5
310
F5F5F5F5F5F5F5F5F5F5F5F5F5F5F5F5F5F5F5F5F5F5F5F5E2F5F5F5F5F5F5F5F5F5F5F5F5F5F5F5F5E2F5F5F5F5E2E2F5F5F5F5E2F5F5F5F5F5F5F5F5F5F5F5F5F5F5F5F5E2F5F5F5F5F5F5F5F5F5F5F5F5F5F5F5F5F5F5F5F5F5F5F5F5F5F5F5F5F5F5F5F5F5F5F5F5F5F5F5F5F5F5F5F5F5F5F5F5F5F5F5F5F5F5F5F5F5
310
F5F5F5F5F5F5F5F5F5F5F5F5F5F5F5F5F5F5F5F5F5F5F5F5F5F5F5F5F5F5F5F5F5F5F5F5F5F5F5F5F5F5F5F5F5F5F5F5F5F5F5F5F5F5F5F5F5F5F5F5F5F5F5F5F5F5F5F5F5F5F5F5F5F5F5F5F5E2F5F5F5F5F5F5F5F5F5F5F5F5F5F5F5F5E2F5F5F5F5E2E2F5F5F5F5E2F5F5F5F5F5F5F5F5F5F5F5F5F5F5F5F5E2F5F5F5F5
310
F5F5F5F5F5F5F5F5F5F5F5F5F5F5F5F5F5F5F5F5F5F5F5F5F5F5F5F5F5F5F5F5F5F5F5F5F5F5F5F5F5F5F5F5F5F5F5F5F5F5F5F5F5F5F5F5F5F5F5F5F5F5F5F5F5F5F5F5F5F5F5F5F5F5F5F5F5F5F5F5F5F5F5F5F5F5F5F5F5F5F5F5F5F5F5F5F5F5F5F5F5F5F5F5F5F5F5F5F5F5F5F5F5F5F5F5F5F5F5F5F5F5F5F5F5F5F5
310
F5F5F5E2F5F5F5F5F5F5F5F5F5F5F5F5F5F5F5F5E2F5F5F5F5E2E2F5F5F5F5F5F5F5F5F5F5F5F5F5F5F5F5F5F5F5F5F5E2F5F5F5F5F5F5F5F5F5F5F5F5F5F5F5F5F5F5F5F5F5F5F5F5F5F5F5F5F5F5F5F5F5F5F5F5F5F5F5F5F5F5F5F5F5F5F5F5F5F5F5F5F5F5F5F5F5F5F5F5F5F5F5F5F5F5F5F5F5F5F5F5F5F5F5F5F5F5
310
F5F5F5F5F5F5F5F5F5F5F5F5F5F5F5F5F5F5F5F5F5F5F5F5F5F5F5F5F5F5F5F5F5F5F5F5F5F5F5F5F5F5F5F5F5F5F5F5F5F5F5F5F5F5F5F5E2F5F5F5F5F5F5F5F5F5F5F5F5F5F5F5F5F5F5F5F5F5E2E2F5F5F5F5F5F5F5F5F5F5F5F5F5F5F5F5F5F5F5F5F5E2F5F5F5F5F5F5F5F5F5F5F5F5F5F5F5F5F5F5F5F5F5F5F5F5F5
310
F5F5F5F5F5F5F5F5F5F5F5F5F5F5F5F5F5F5F5F5F5F5F5F5F5F5F5F5F5F5F5F5F5F5F5F5F5F5F5F5F5F5F5F5F5F5F5F5F5F5F5F5F5F5F5F5F5F5F5F5F5F5F5F5F5F5F5F5F5F5F5F5F5F5F5F5F5F5F5F5F5F5F5F5F5F5F5F5F5F5F5F5F5F5F5F5F5F5F5F5F5F5F5F5F5F5F5F5F5E2F5F5F5F5F5F5F5F5F5F5F5F5F5F5F5F5F5
310
F5F5F5F5E2E2F5F5F5F5F5F5F5F5F5F5F5F5F5F5F5F5F5F5F5F5F5E2F5F5F5F5F5F5F5F5F5F5F5F5F5F5F5F5F5F5F5F5F5F5F5F5F5F5F5F5F5F5F5F5F5F5F5F5F5F5F5F5F5F5F5F5F5F5F5F5F5F5F5F5F5F5F5F5F5F5F5F5F5F5F5F5F5F5F5F5F5F5F5F5F5F5F5F5F5F5F5F5F5F5F5F5F5F5F5F5F5F5F5F5F5F5F5F5F5F5F5
310
F5F5F5F5F5F5F5F5F5F5F5F5F5F5F5F5F5F5F5F5F5F5F5F5F5F5F5F5F5F5F5F5F5F5F5E2F5F5F5F5F5F5F5F5F5F5F5F5F5F5F5F5F5F5F5F5F5E2E2F5F5F5F5F5F5F5F5F5F5F5F5F5F5F5F5F5F5F5F5F5E2F5F5F5F5F5F5F5F5F5F5F5F5F5F5F5F5F5F5F5F5F5F5F5F5F5F5F5F5F5F5F5F5F5F5F5F5F5F5F5F5F5F5F5F5F5F5
310
F5F5F5F5F5F5F5F5F5F5F5F5F5F5F5F5F5F5F5F5F5F5F5F5F5F5F5F5F5F5F5F5F5F5F5F5F5F5F5F5F5F5F5F5F5F5F5F5F5F5F5F5F5F5F5F5F5F5F5F5F5F5F5F5F5F5F5F5F5F5F5F5F5F5F5F5F5F5F5F5F5F5F5F5F5F5F5F5E2F5F5F5F5F5F5F5F5F5F5F5F5F5F5F5F5F5F5F5F5F5E2E2F5F5F5F5F5F5F5F5F5F5F5F5F5F5F5
310
F5F5F5F5F5F5E2E2E2E2E2E2E2E2E2E2E2E2E2E2E2E2E2E2E2E2E2E2E2E2E2E2E2E2E2E2E2E2E2E2E2E2E2E2E2E2E2E2E2E2E2E2E2E2E2E2E2E2E2E2E2E2E2E2E2E2E2E2E2E2E2E2E2E2E2E2E2E2E2E2E2E2E2E2E2E2E2E2E2E2E2E2E2E2E2E2E2E2E2E2E2E2E2E2E2E2E2E2E2E2E2E2E2E2E2E2E2E2E2E2E2E2E2E2E2E2E2
310
E2E2E2E2E2E2E2E2E2E2E2E2E2E2E2F5F5F5F5F5F5F5F5F5F5F5F5F5F5F5F5F5F5F5F5F5E2E2F5F5F5F5F5F5F5F5F5F5F5F5F5F5F5F5F5F5F5F5F5F5F5F5F5F5F5F5F5F5F5F5F5F5F5F5F5F5F5F5F5F5F5F5F5F5F5F5F5F5F5F5F5F5F5F5F5F5F5F5F5F5F5F5F5F5F5F5F5F5F5F5F5F5F5F5F5F5F5F5F5F5F5F5F5F5F5F5F5
310
F5F5F5F5F5F5F5F5F5F5F5F5F5F5F5F5F5F5F5F5F5F5F5F5F5F5F5F5F5F5F5F5F5F5F5F5F5F5F5F5F5F5F5F5F5F5F5F5F5F5F5F5F5F5F5F5F5F5F5F5F5F5F5F5F5F5F5F5F5F5F5F5F5F5F5F5F5F5F5F5F5F5F5F5F5F5F5F5F5E2E2F5F5F5F5F5F5F5F5F5F5F5F5F5F5F5F5F5F5F5F5F5F5F5F5F5F5F5F5F5F5F5F5F5F5F5F5
310
F5F5F5F5F5F5F5F5F5F5F5F5F5F5F5F5F5F5F5F5F5F5F5F5F5F5F5F5F5F5F5F5F5F5F5F5F5F5F5F5F5F5F5F5F5F5F5F5F5F5F5F5F5F5F5F5F5F5F5F5F5F5F5F5F5F5F5F5F5F5F5F5F5F5F5F5F5F5F5F5F5F5F5F5F5F5F5F5F5F5F5F5F5F5F5F5F5F5F5F5F5F5F5F5F5F5F5F5F5F5F5F5F5F5F5F5F5F5F5F5F5F5F5F5F5F5F5
310
F5F5F5F5F5F5F5F5F5F5F5F5F5F5F5E2E2F5F5F5F5F5F5F5F5F5F5F5F5F5F5F5F5F5F5F5F5F5F5F5F5F5F5F5F5F5F5F5F5F5F5F5F5F5F5F5F5F5F5F5F5F5F5F5F5F5F5F5F5F5F5F5F5F5F5F5F5F5F5F5F5F5F5F5F5F5F5F5F5F5F5F5F5F5F5F5F5F5F5F5F5F5F5F5F5F5F5F5F5F5F5F5F5F5F5F5F5F5F5F5F5F5F5F5F5F5F5
310
F5F5F5F5F5F5F5F5F5F5F5F5F5F5F5F5F5F5F5F5F5F5F5F5F5F5F5F5F5F5F5F5F5F5F5F5F5F5F5F5F5F5F5F5F5F5F5F5F5F5F5F5F5F5F5F5F5F5F5F5F5F5F5F5F5F5F5F5E2E2F5F5F5F5F5F5F5F5F5F5F5F5F5F5F5F5F5F5F5F5F5F5F5F5F5F5F5F5F5F5F5F5F5F5F5F5F5F5F5F5F5F5F5F5F5F5F5F5F5F5F5F5F5F5F5F5F5
310
F5F5F5F5F5F5F5F5F5F5F5F5F5F5F5F5F5F5F5F5F5F5F5F5F5F5F5F5F5F5F5F5F5F5F5F5F5F5F5F5F5F5F5F5F5F5F5F5F5F5F5F5F5F5F5F5F5F5F5F5F5F5F5F5F5F5F5F5F5F5F5F5F5F5F5F5F5F5F5F5F5F5F5F5F5F5F5F5F5F5F5F5F5F5F5F5F5F5F5F5F5F5F5F5F5F5F5F5F5F5F5F5F5F5F5F5F5F5F5F5F5E2E2F5F5F5F5
310
E2F5F5F5F5F5F5F5F5F5F5F5F5F5F5F5F5F5F5F5F5F5F5F5F5F5F5F5F5F5F5F5F5F5F5F5F5F5F5F5F5F5F5F5F5F5F5F5F5F5F5F5F5F5F5F5F5F5F5F5F5F5F5F5F5F5F5F5F5F5F5F5F5F5F5F5F5F5F5F5F5F5F5F5F5F5F5F5F5F5F5F5F5F5F5F5F5F5F5F5F5F5F5F5F5F5F5F5F5F5F5F5F5F5F5F5F5F5F5F5F5F5F5F5F5F5F5
310
F5F5F5F5F5F5F5F5F5F5F5F5F5F5F5F5F5F5F5F5F5F5F5F5F5F5F5F5F5F5F5F5F5F5F5F5F5F5F5F5F5F5E2F5F5F5F5E2E2F5F5F5F5E2F5F5F5F5F5F5F5F5F5F5F5F5F5F5F5F5F5F5F5F5F5F5F5F5F5F5F5F5F5F5F5F5F5F5F5F5F5F5F5F5F5F5F5F5F5F5F5F5F5F5F5F5F5F5F5F5F5F5F5F5F5F5F5F5F5F5F5F5F5F5F5F5F5
310
F5F5F5F5F5F5F5F5F5F5F5F5F5F5F5F5F5F5F5F5F5F5F5F5F5F5F5F5F5F5F5F5F5F5F5F5F5F5F5F5F5F5F5F5F5F5F5F5F5F5F5F5F5F5F5F5F5F5F5F5F5F5F5F5F5F5F5F5F5F5F5F5F5F5F5F5F5F5F5F5F5F5F5F5F5F5F5F5F5F5F5F5F5F5F5E2F5F5F5F5E2E2F5F5F5F5E2F5F5F5F5F5F5F5F5F5F5F5F5F5F5F5F5F5F5F5F5
310
F5F5F5F5F5F5F5F5F5F5F5F5F5F5F5F5F5F5F5F5F5F5F5F5F5F5F5F5F5F5F5F5F5F5F5F5F5F5F5F5F5F5F5F5F5F5F5F5F5F5F5F5F5F5F5F5F5F5F5F5F5F5F5F5F5F5F5F5F5F5F5F5F5F5F5F5F5F5F5F5F5F5F5F5F5F5F5F5F5F5F5F5F5F5F5F5F5F5F5F5F5F5F5F5F5F5F5F5F5F5F5F5F5F5F5F5F5F5F5F5F5F5F5F5F5F5F5
310
F5F5F5F5F5F5F5F5F5F5F5F5F5F5F5F5F5F5F5F5F5E2F5F5F5F5E2E2F5F5F5F5E2F5F5F5F5F5F5F5F5F5F5F5F5F5F5F5F5F5F5F5F5F5F5F5F5F5F5F5F5F5F5F5F5F5F5F5F5F5F5F5F5F5F5F5F5F5F5F5F5F5F5F5F5F5F5F5F5F5F5F5F5F5F5F5F5F5F5F5F5F5F5F5F5F5F5F5F5F5F5F5F5F5F5F5F5F5F5F5F5F5F5F5F5F5F5
310
F5F5F5F5F5F5F5F5F5F5F5F5F5F5F5F5F5F5F5F5F5F5F5F5F5F5F5F5F5F5F5F5F5F5F5F5F5F5F5F5F5F5F5F5F5F5F5F5F5F5F5F5F5F5F5F5F5F5F5F5F5F5F5F5F5F5F5F5F5F5F5F5F5F5E2F5F5F5F5E2E2F5F5F5F5E2F5F5F5F5F5F5F5F5F5F5F5F5F5F5F5F5F5F5F5F5F5F5F5F5F5F5F5F5F5F5F5F5F5F5F5F5F5F5F5F5F5
310
F5F5F5F5F5F5F5F5F5F5F5F5F5F5F5F5F5F5F5F5F5F5F5F5F5F5F5F5F5F5F5F5F5F5F5F5F5F5F5F5F5F5F5F5F5F5F5F5F5F5F5F5F5F5F5F5F5F5F5F5F5F5F5F5F5F5F5F5F5F5F5F5F5F5F5F5F5F5F5F5F5F5F5F5F5F5F5F5F5F5F5F5F5F5F5F5F5F5F5F5F5F5F5F5F5F5F5F5F5F5F5F5F5F5F5F5F5F5F5F5F5F5F5F5F5F5F5
310
E2F5F5F5F5E2E2F5F5F5F5E2F5F5F5F5F5F5F5F5F5F5F5F5F5F5F5F5F5F5F5F5F5F5F5F5F5F5F5F5F5F5F5F5F5F5F5F5F5F5F5F5F5F5F5F5F5F5F5F5F5F5F5F5F5F5F5F5F5F5F5F5F5F5F5F5F5F5F5F5F5F5F5F5F5F5F5F5F5F5F5F5F5F5F5F5F5F5F5F5F5F5F5F5F5F5F5F5F5F5F5F5F5F5F5F5F5F5F5F5F5F5F5F5F5F5F5
310
F5F5F5F5F5F5F5F5F5F5F5F5F5F5F5F5F5F5F5F5F5F5F5F5F5F5F5F5F5F5F5F5F5F5F5F5F5F5F5F5F5F5F5F5F5F5F5F5F5F5F5F5F5E2F5F5F5F5E2E2F5F5F5F5E2F5F5F5F5F5F5F5F5F5F5F5F5F5F5F5F5F5F5F5F5F5F5F5F5F5F5F5F5F5F5F5F5F5F5F5F5F5F5F5F5F5F5F5F5F5F5F5F5F5F5F5F5F5F5F5F5F5F5F5F5F5F5
310
F5F5F5F5F5F5F5F5F5F5F5F5F5F5F5F5F5F5F5F5F5F5F5F5F5F5F5F5F5F5F5F5F5F5F5F5F5F5F5F5F5F5F5F5F5F5F5F5F5F5F5F5F5F5F5F5F5F5F5F5F5F5F5F5F5F5F5F5F5F5F5F5F5F5F5F5F5F5F5F5F5F5F5F5F5F5F5F5F5F5F5F5F5F5F5F5F5F5F5F5F5F5F5F5F5F5E2F5F5F5F5E2E2F5F5F5F5E2F5F5F5F5F5F5F5F5F5
310
F5F5F5F5F5F5F5F5F5F5F5F5F5F5F5F5F5F5F5F5F5F5F5F5F5F5F5F5F5F5F5F5F5F5F5F5F5F5F5F5F5F5F5F5F5F5F5F5F5F5F5F5F5F5F5F5F5F5F5F5F5F5F5F5F5F5F5F5F5F5F5F5F5F5F5F5F5F5F5F5F5F5F5F5F5F5F5F5F5F5F5F5F5F5F5F5F5F5F5F5F5F5F5F5F5F5F5F5F5F5F5F5F5F5F5F5F5F5F5F5F5F5F5F5F5F5F5
310
F5F5F5F5F5F5F5F5F5F5F5F5F5F5F5F5F5F5F5F5F5F5F5F5F5F5F5F5F5F5F5F5E2F5F5F5F5E2E2F5F5F5F5E2E2E2E2E2E2E2E2F5F5F5F5F5F5F5F5F5E2E2E2E2E2E2E2E2E2E2E2E2E2E2E2F5F5F5F5F5F5F5F5F5E2E2E2E2E2E2E2E2E2E2E2E2E2E2E2E2F5F5F5F5F5F5F5F5E2E2E2E2E2E2E2E2E2E2E2E2E2E2E2E2F5F5F5
310
F5F5F5F5F5E2E2E2E2E2E2E2E2E2E2E2E2E2E2E2E2F5F5F5F5F5F5F5F5E2E2E2E2E2E2E2E2E2E2E2E2E2E2E2E2F5F5F5F5F5F5F5F5F5E2E2E2E2E2E2E2E2E2E2E2E2E2E2E2F5F5F5F5F5F5F5F5F5E2E2E2E2E2E2E2E2F5F5F5F5E2E2F5F5F5F5F5F5F5F5F5F5F5F5F5F5F5F5F5F5F5F5F5F5F5F5F5F5F5F5F5F5F5F5F5F5F5
310
F5F5F5F5F5F5F5F5F5F5F5F5F5F5F5F5F5F5F5F5F5F5F5F5F5F5F5F5F5F5F5F5F5F5F5F5F5F5F5F5F5F5F5F5F5F5F5F5F5F5F5F5F5F5F5F5F5F5F5F5F5F5F5F5F5F5F5F5F5F5F5F5F5F5F5F5F5F5F5F5F5F5F5F5F5F5F5F5F5F5F5F5F5F5F5F5F5F5F5F5F5F5F5F5F5F5F5F5F5F5F5F5F5F5F5F5F5F5F5F5F5F5F5F5F5F5F5
310
F5F5F5F5F5F5F5F5F5F5F5F5F5F5F5F5E2E2F5F5F5F5F5F5F5F5F5F5F5F5F5F5F5F5F5F5F5F5F5F5F5F5F5F5F5F5F5F5F5F5F5F5F5F5F5F5F5F5F5F5F5F5F5F5F5F5F5F5F5F5F5F5F5F5F5F5F5F5F5F5F5F5F5F5F5F5F5F5F5F5F5F5F5F5F5F5F5F5F5F5F5F5F5F5F5F5F5F5F5F5F5F5F5F5F5F5F5F5F5F5F5F5F5F5F5F5F5
310
F5F5F5F5F5F5F5F5F5F5F5F5F5F5F5F5F5F5F5F5F5F5F5F5F5F5F5F5F5F5F5F5F5F5F5F5F5F5F5F5F5F5F5F5F5F5F5F5F5F5F5F5F5F5F5F5F5F5F5F5F5F5F5F5F5F5F5F5F5E2E2F5F5F5F5F5F5F5F5F5F5F5F5F5F5F5F5F5F5F5F5F5F5F5F5F5F5F5F5F5F5F5F5F5F5F5F5F5F5F5F5F5F5F5F5F5F5F5F5F5F5F5F5F5F5F5F5
310
F5F5F5F5F5F5F5F5F5F5F5F5F5F5F5F5F5F5F5F5F5F5F5F5F5F5F5F5F5F5F5F5F5F5F5F5F5F5F5F5F5F5F5F5F5F5F5F5F5F5F5F5F5F5F5F5F5F5F5F5F5F5F5F5F5F5F5F5F5F5F5F5F5F5F5F5F5F5F5F5F5F5F5F5F5F5F5F5F5F5F5F5F5F5F5F5F5F5F5F5F5F5F5F5F5F5F5F5F5F5F5F5F5F5F5F5F5F5F5F5F5F5E2E2E2E2E2
310
E2E2E2E2E2E2E2E2E2E2E2E2E2E2E2E2E2E2E2E2E2E2E2E2E2E2E2E2E2E2E2E2E2E2E2E2E2E2E2E2E2E2E2E2E2E2E2E2E2E2E2E2E2E2E2E2E2E2E2E2E2E2E2E2E2E2E2E2E2E2E2E2E2E2E2E2E2E2E2E2E2E2E2E2E2E2E2E2E2E2E2E2E2E2E2E2E2E2E2E2E2E2E2E2E2E2E2E2E2E2E2E2E2E2E2E2E2E2E2E2E2E2E2E2E2E2E2
310
E2E2E2E2E2E2E2E2E2E2E2E2E2E2E2E2E2E2E2E2E2E2E2E2E2E2E2E2E2E2E2E2E2E2E2E2E2E2E2E2E2E2E2E2E2E2E2E2E2
  0
XRECORD
  5
599CA
102
{ACAD_REACTORS
330
B5
102
}
330
B5
100
AcDbXrecord
280
     1
102
SHADEPLOT
 70
     0
102
SHADEPLOTRESLEVEL
 70
     2
102
SHADEPLOTCUSTOMDPI
 70
   300
  0
XRECORD
  5
B6
102
{ACAD_REACTORS
330
B5
102
}
330
B5
100
AcDbXrecord
280
     1
310
28000000B40000008B0000000100080000000000BC610000000000000000000000010000000000000000000000000000FFFFFF000000000000000000000000000000000000000000000000000000000000000000330000006600000099000000CC000000FF00000000330000333300006633000099330000CC330000FF3300
310
0000660000336600006666000099660000CC660000FF66000000990000339900006699000099990000CC990000FF99000000CC000033CC000066CC000099CC0000CCCC0000FFCC000000FF000033FF000066FF000099FF0000CCFF0000FFFF000000003300330033006600330099003300CC003300FF003300003333003333
310
33006633330099333300CC333300FF33330000663300336633006666330099663300CC663300FF66330000993300339933006699330099993300CC993300FF99330000CC330033CC330066CC330099CC3300CCCC3300FFCC330000FF330033FF330066FF330099FF3300CCFF3300FFFF330000006600330066006600660099
310
006600CC006600FF00660000336600333366006633660099336600CC336600FF33660000666600336666006666660099666600CC666600FF66660000996600339966006699660099996600CC996600FF99660000CC660033CC660066CC660099CC6600CCCC6600FFCC660000FF660033FF660066FF660099FF6600CCFF6600
310
FFFF660000009900330099006600990099009900CC009900FF00990000339900333399006633990099339900CC339900FF33990000669900336699006666990099669900CC669900FF66990000999900339999006699990099999900CC999900FF99990000CC990033CC990066CC990099CC9900CCCC9900FFCC990000FF99
310
0033FF990066FF990099FF9900CCFF9900FFFF99000000CC003300CC006600CC009900CC00CC00CC00FF00CC000033CC003333CC006633CC009933CC00CC33CC00FF33CC000066CC003366CC006666CC009966CC00CC66CC00FF66CC000099CC003399CC006699CC009999CC00CC99CC00FF99CC0000CCCC0033CCCC0066CC
310
CC0099CCCC00CCCCCC00FFCCCC0000FFCC0033FFCC0066FFCC0099FFCC00CCFFCC00FFFFCC000000FF003300FF006600FF009900FF00CC00FF00FF00FF000033FF003333FF006633FF009933FF00CC33FF00FF33FF000066FF003366FF006666FF009966FF00CC66FF00FF66FF000099FF003399FF006699FF009999FF00CC
310
99FF00FF99FF0000CCFF0033CCFF0066CCFF0099CCFF00CCCCFF00FFCCFF0000FFFF0033FFFF0066FFFF0099FFFF00CCFFFF00FFFFFF00000000000D0D0D001A1A1A00282828003535350043434300505050005D5D5D006B6B6B00787878008686860093939300A1A1A100AEAEAE00BBBBBB00C9C9C900D6D6D600E4E4E400
310
F1F1F100FFFFFF0000000000000000000000000000000000000000000000000000000000000000000000000000000000F5F5F5F5F5F5F5F5F5F5F5F5F5F5F5F5F5F5F5F5F5F5F5F5F5F5F5F5F5F5F5F5F5F5F5F5F5F5F5F5F5F5F5F5F5F5F5F5F5F5F5F5F5F5F5F5F5F5F5F5F5F5F5F5F5F5F5F5F5F5F5F5F5F5F5F5F5F5F5
310
F5F5F5F5F5F5F5F5F5F5F5F5F5F5F5F5F5F5F5F5F5F5F5F5F5F5F5F5F5F5F5F5F5F5F5F5F5F5F5F5F5F5F5F5F5F5F5F5F5F5F5F5F5F5F5F5F5F5F5F5F5F5F5F5F5F5F5F5F5F5F5F5F5F5F5F5F5F5F5F5F5F5F5F5F5F5F5F5F5F5F5F5F5F5F5F5F5F5F5F5F5F5E2E2E2E2E2E2E2E2E2E2E2E2E2E2E2E2E2E2E2E2E2E2E2E2E2
310
E2E2E2E2E2E2E2E2E2E2E2E2E2E2E2E2E2E2E2E2E2E2E2E2E2E2E2E2E2E2E2E2E2E2E2E2E2E2E2E2E2E2E2E2E2E2E2E2E2E2E2E2E2E2E2E2E2E2E2E2E2E2E2E2E2E2E2E2E2E2E2E2E2E2E2E2E2E2E2E2E2E2E2E2E2E2E2E2E2E2E2E2E2E2E2E2E2E2E2E2E2E2E2E2E2E2E2E2E2E2E2E2E2E2E2E2E2E2E2E2E2E2E2E2E2E2E2
310
E2E2E2E2E2E2E2E2E2E2E2E2E2E2E2E2E2E2E2E2E2E2E2E2E2E2F5F5E2E2E2E2E2E2E2E2E2E2E2E2E2E2E2E2E2E2E2E2E2E2E2E2E2E2E2E2E2E2E2E2E2E2E2E2E2E2E2E2E2E2E2E2E2E2E2E2E2E2E2E2E2E2E2E2E2E2E2E2E2E2E2E2E2E2E2E2E2E2E2E2E2E2E2E2E2E2E2E2E2E2E2E2E2E2E2E2E2E2E2E2E2E2E2E2E2E2E2
310
E2E2E2E2E2E2E2E2E2E2E2E2E2E2E2E2E2E2E2E2E2E2E2E2E2E2E2E2E2E2E2E2E2E2E2E2E2E2E2E2E2E2E2E2E2E2E2E2E2E2E2E2E2E2E2E2E2E2E2E2E2E2E2E2E2E2E2E2E2E2E2E2E2E2E2E2E2E2E2F5F5E2E2E2E2E2E2E2E2E2E2E2E2E2E2E2E2E2E2E2E2E2E2E2E2E2E2E2E2E2E2E2E2E2E2E2E2E2E2E2E2E2E2E2E2E2E2
310
E2E2E2E2E2E2E2E2E2E2E2E2E2E2E2E2E2E2E2E2E2E2E2E2E2E2E2E2E2E2E2E2E2E2E2E2E2E2E2E2E2E2E2E2E2E2E2E2E2E2E2E2E2E2E2E2E2E2E2E2E2E2E2E2E2E2E2E2E2E2E2E2E2E2E2E2E2E2E2E2E2E2E2E2E2E2E2E2E2E2E2E2E2E2E2E2E2E2E2E2E2E2E2E2E2E2E2E2E2E2E2E2E2E2E2E2E2E2E2E2E2E2E2E2E2E2E2
310
E2E2E2E2E2F5F5E2E2E2E2E2E2E2E2E2E2E2E2E2E2E2E2E2E2E2E2E2E2E2E2E2E2E2E2E2E2E2E2E2E2E2E2E2E2E2E2E2E2E2E2E2E2E2E2E2E2E2E2E2E2E2E2E2E2E2E2E2E2E2E2E2E2E2E2E2E2E2E2E2E2E2E2E2E2E2E2E2E2E2E2E2E2E2E2E2E2E2E2E2E2E2E2E2E2E2E2E2E2E2E2E2E2E2E2E2E2E2E2E2E2E2E2E2E2E2E2
310
E2E2E2E2E2E2E2E2E2E2E2E2E2E2E2E2E2E2E2E2E2E2E2E2E2E2E2E2E2E2E2E2E2E2E2E2E2E2E2E2E2E2E2E2E2E2E2E2E2E2E2E2E2E2E2E2E2E2F5F5E2E2E2F5F5F5F5F5F5F5F5E2E2E2E2E2E2E2E2E2F5F5F5F5F5F5F5F5F5F5F5F5F5F5F5F5E2E2E2E2E2E2E2E2E2F5F5F5F5F5F5F5F5F5F5F5F5F5F5F5E2E2E2E2E2E2E2
310
E2E2F5F5F5F5F5F5F5F5F5F5F5F5F5F5F5F5E2E2E2E2E2E2E2E2F5F5F5F5F5F5F5F5F5F5F5F5F5F5F5F5E2E2E2E2E2E2E2E2E2F5F5F5F5F5F5F5F5F5F5F5F5F5F5F5E2E2E2E2E2E2E2E2E2F5F5F5F5F5F5F5F5F5F5F5F5F5F5F5F5E2E2E2E2E2E2E2E2E2F5F5F5F5F5F5F5F5E2E2E2F5F5E2E2E2F5E2E2E2E2E2E2E2E2E2E2
310
E2E2E2E2E2E2E2E2E2E2E2E2E2E2E2E2E2E2E2E2E2E2E2E2E2E2E2E2E2E2E2E2E2E2E2E2E2E2E2E2E2E2E2E2E2E2E2E2E2E2E2E2E2E2E2E2E2E2E2E2E2E2E2E2E2E2E2E2E2E2E2E2E2E2E2E2E2E2E2E2E2E2E2E2E2E2E2E2E2E2E2E2E2E2E2E2E2E2E2E2E2E2E2E2E2E2E2E2E2E2E2E2E2E2E2E2E2E2E2E2E2E2E2E2E2E2E2
310
E2E2E2E2E2E2E2E2E2E2E2E2E2E2E2E2E2E2E2E2E2E2E2E2E2E2E2E2E2E2E2E2E2F5E2E2E2F5F5E2E2E2F5E2E2E2E2E2E2E2E2E2E2E2E2E2E2E2E2E2E2E2E2E2E2E2E2E2E2E2E2E2E2E2E2E2E2E2E2E2E2E2E2E2E2E2E2E2E2E2E2E2E2E2E2E2E2E2E2E2E2E2E2E2E2E2E2E2E2E2E2E2E2E2E2E2E2E2E2E2E2E2E2E2E2E2E2
310
E2E2E2E2E2E2E2E2E2E2E2E2E2E2E2E2E2E2E2E2E2E2E2E2E2E2E2E2E2E2E2E2E2E2E2E2E2E2E2E2E2E2E2E2E2E2E2E2E2E2E2E2E2E2E2E2E2E2E2E2E2E2E2E2E2E2E2E2E2E2E2E2E2E2E2E2E2E2E2E2E2E2E2E2E2E2F5E2E2E2F5F5E2E2E2F5E2E2E2E2E2E2E2E2E2E2E2E2E2E2E2E2E2E2E2E2E2E2E2E2E2E2E2E2E2E2E2
310
E2E2E2E2E2E2E2E2E2E2E2E2E2E2E2E2E2E2E2E2E2E2E2E2E2E2E2E2E2E2E2E2E2E2E2E2E2E2E2E2E2E2E2E2E2E2E2E2E2E2E2E2E2E2E2E2E2E2E2E2E2E2E2E2E2E2E2E2E2E2E2E2E2E2E2E2E2E2E2E2E2E2E2E2E2E2E2E2E2E2E2E2E2E2E2E2E2E2E2E2E2E2E2E2E2E2E2E2E2E2E2E2E2E2E2E2E2E2E2E2E2E2E2E2E2E2E2
310
E2E2E2E2E2E2E2E2E2E2E2E2F5E2E2E2F5F5E2E2E2F5E2E2E2E2E2E2E2E2E2E2E2E2E2E2E2E2E2E2E2E2E2E2E2E2E2E2E2E2E2E2E2E2E2E2E2E2E2E2E2E2E2E2E2E2E2E2E2E2E2E2E2E2E2E2E2E2E2E2E2E2E2E2E2E2E2E2E2E2E2E2E2E2E2E2E2E2E2E2E2E2E2E2E2E2E2E2E2E2E2E2E2E2E2E2E2E2E2E2E2E2E2E2E2E2E2
310
E2E2E2E2E2E2E2E2E2E2E2E2E2E2E2E2E2E2E2E2E2E2E2E2E2E2E2E2E2E2E2E2E2E2E2E2E2E2E2E2E2E2E2E2E2E2E2E2E2E2E2E2E2E2E2E2E2E2E2E2E2E2E2E2E2F5E2E2E2F5F5E2E2E2F5E2E2E2E2E2E2E2E2E2E2E2E2E2E2E2E2E2E2E2E2E2E2E2E2E2E2E2E2E2E2E2E2E2E2E2E2E2E2E2E2E2E2E2E2E2E2E2E2E2E2E2E2
310
E2E2E2E2E2E2E2E2E2E2E2E2E2E2E2E2E2E2E2E2E2E2E2E2E2E2E2E2E2E2E2E2E2E2E2E2E2E2E2E2E2E2E2E2E2E2E2E2E2E2E2E2E2E2E2E2E2E2E2E2E2E2E2E2E2E2E2E2E2E2E2E2E2E2E2E2E2E2E2E2E2E2E2E2E2E2E2E2E2E2E2E2E2E2E2E2E2E2E2E2E2E2E2E2E2E2E2E2E2E2E2E2E2E2E2E2E2E2F5E2E2E2F5F5E2E2E2
310
F5E2E2E2E2E2E2E2E2E2E2E2E2E2E2E2E2E2E2E2E2E2E2E2E2E2E2E2E2E2E2E2E2E2E2E2E2E2E2E2E2E2E2E2E2E2E2E2E2E2E2E2E2E2E2E2E2E2E2E2E2E2E2E2E2E2E2E2E2E2E2E2E2E2E2E2E2E2E2E2E2E2E2E2E2E2E2E2E2E2E2E2E2E2E2E2E2E2E2E2E2E2E2E2E2E2E2E2E2E2E2E2E2E2E2E2E2E2E2E2E2E2E2E2E2E2E2
310
E2E2E2E2E2E2E2E2E2E2E2E2E2E2E2E2E2E2E2E2E2E2E2E2E2E2E2E2E2E2E2E2E2E2E2E2E2E2E2E2E2E2E2E2F5E2E2E2F5F5E2E2E2F5E2E2E2E2E2E2E2E2E2E2E2E2E2E2E2E2E2E2E2E2E2E2E2E2E2E2E2E2E2E2E2E2E2E2E2E2E2E2E2E2E2E2E2E2E2E2E2E2E2E2E2E2E2E2E2E2E2E2E2E2E2E2E2E2E2E2E2E2E2E2E2E2E2
310
E2E2E2E2E2E2E2E2E2E2E2E2E2E2E2E2E2E2E2E2E2E2E2E2E2E2E2E2E2E2E2E2E2E2E2E2E2E2E2E2E2E2E2E2E2E2E2E2E2E2E2E2E2E2E2E2E2E2E2E2E2E2E2E2E2E2E2E2E2E2E2E2E2E2E2E2E2E2E2E2E2E2E2E2E2E2E2E2E2E2E2E2E2E2E2E2E2F5E2E2E2F5F5E2E2E2F5E2E2E2E2E2E2E2E2E2E2E2E2E2E2E2E2E2E2E2E2
310
E2E2E2E2E2E2E2E2E2E2E2E2E2E2E2E2E2E2E2E2E2E2E2E2E2E2E2E2E2E2E2E2E2E2E2E2E2E2E2E2E2E2E2E2E2E2E2E2E2E2E2E2E2E2E2E2E2E2E2E2E2E2E2E2E2E2E2E2E2E2E2E2E2E2E2E2E2E2E2E2E2E2E2E2E2E2E2E2E2E2E2E2E2E2E2E2E2E2E2E2E2E2E2E2E2E2E2E2E2E2E2E2E2E2E2E2E2E2E2E2E2E2E2E2E2E2E2
310
E2E2E2E2E2E2E2E2E2E2E2E2E2E2E2E2E2E2E2E2E2E2E2F5E2E2E2F5F5E2E2E2E2E2E2E2E2E2E2E2E2E2E2E2E2E2E2E2E2E2E2E2E2E2E2E2E2E2E2E2E2E2E2E2E2E2E2E2E2E2E2E2E2E2E2E2E2E2E2E2E2E2E2E2E2E2E2E2E2E2E2E2E2E2E2E2E2E2E2E2E2E2E2E2E2E2E2E2E2E2E2E2E2E2E2E2E2E2E2E2E2E2E2E2E2E2E2
310
E2E2E2E2E2E2E2E2E2E2E2E2E2E2E2E2E2E2E2E2E2E2E2E2E2E2E2E2E2E2E2E2E2E2E2E2E2E2E2E2E2E2E2E2E2E2E2E2E2E2E2E2E2E2E2E2E2E2E2E2E2E2E2E2E2E2E2E2E2E2E2E2E2E2E2E2E2E2E2E2F5F5E2E2E2E2E2E2E2E2E2E2E2E2E2E2E2E2E2E2E2E2E2E2E2E2E2E2E2E2E2E2E2E2E2E2E2E2E2E2E2E2E2E2E2E2E2
310
E2E2E2E2E2E2E2E2E2E2E2E2E2E2E2E2E2E2E2E2E2E2E2E2E2E2E2E2E2E2E2E2E2E2E2E2E2E2E2E2E2E2E2E2E2E2E2E2E2E2E2E2E2E2E2E2E2E2E2E2E2E2E2E2E2E2E2E2E2E2E2E2E2E2E2E2E2E2E2E2E2E2E2E2E2E2E2E2E2E2E2E2E2E2E2E2E2E2E2E2E2E2E2E2E2E2E2E2E2E2E2E2E2E2E2E2E2E2E2E2E2E2E2E2E2E2E2
310
E2E2E2E2E2E2F5F5E2E2E2E2E2E2E2E2E2E2E2E2E2E2E2E2E2E2E2E2E2E2E2E2E2E2E2E2E2E2E2E2E2E2E2E2E2E2E2E2E2E2E2E2E2E2E2E2E2E2E2E2E2E2E2E2E2E2E2E2E2E2E2E2E2E2E2E2E2E2E2E2E2E2E2E2E2E2E2E2E2E2E2E2E2E2E2E2E2E2E2E2E2E2E2E2E2E2E2E2E2E2E2E2E2E2E2E2E2E2E2E2E2E2E2E2E2E2E2
310
E2E2E2E2E2E2E2E2E2E2E2E2E2E2E2E2E2E2E2E2E2E2E2E2E2E2E2E2E2E2E2E2E2E2E2E2E2E2E2E2E2E2E2E2E2E2E2E2E2E2E2E2E2E2E2E2E2E2E2F5F5E2E2E2E2E2E2E2E2E2E2E2E2E2E2E2E2E2E2E2E2E2E2E2E2E2E2E2E2E2E2E2E2E2E2E2E2E2E2E2E2E2E2E2E2E2E2E2E2E2E2E2E2E2E2E2E2E2E2E2E2E2E2E2E2E2E2
310
E2E2E2E2E2E2E2E2E2E2E2E2E2E2E2E2E2E2E2E2E2E2E2E2E2E2E2E2E2E2E2E2E2E2E2E2E2E2E2E2E2E2E2E2E2E2E2E2E2E2E2E2E2E2E2E2E2E2E2E2E2E2E2E2E2E2E2E2E2E2E2E2E2E2E2E2E2E2E2E2E2E2E2E2E2E2E2E2E2E2E2E2E2E2E2E2E2E2E2E2E2E2E2E2E2E2E2E2E2E2E2E2F5F5E2E2E2E2E2E2E2E2E2E2E2E2E2
310
E2E2E2E2E2E2E2F5F5F5F5F5F5F5F5F5F5F5F5F5F5F5F5F5F5F5F5F5F5F5F5F5F5F5F5F5F5F5F5F5F5F5F5F5F5F5F5F5F5F5F5F5F5F5F5F5F5F5F5F5F5F5F5F5F5F5F5F5F5F5F5F5F5F5F5F5F5F5F5F5F5F5F5F5F5F5F5F5F5F5F5F5F5F5F5F5F5F5F5F5F5F5F5F5F5F5F5F5F5F5F5F5F5F5F5F5F5F5F5F5F5F5F5F5F5F5F5
310
F5F5F5F5F5F5F5F5F5F5F5F5F5F5F5F5F5F5E2E2E2E2E2E2E2E2E2E2E2E2E2E2E2E2E2E2E2E2F5F5E2E2E2E2E2E2E2E2E2E2E2E2E2E2E2E2E2E2E2E2F5E2E2E2E2E2E2E2E2E2E2E2E2E2E2E2E2E2E2E2E2E2E2E2E2E2E2E2E2E2E2E2E2E2E2E2E2E2E2E2E2E2E2E2E2E2E2E2E2E2E2E2E2E2E2E2E2E2E2E2E2E2E2E2E2E2E2
310
E2E2E2E2E2E2E2E2E2E2E2E2E2E2E2E2E2E2E2E2E2E2E2E2E2E2E2E2E2E2E2E2E2E2E2E2E2E2E2E2E2E2E2E2E2E2E2E2E2E2E2E2E2E2E2E2E2E2E2E2E2E2E2E2E2E2E2E2E2E2F5E2E2E2E2E2E2E2E2E2E2E2E2E2E2E2E2E2E2E2E2F5F5E2E2E2E2E2E2E2E2E2E2E2E2E2E2E2E2E2E2E2E2F5E2E2E2E2E2E2E2E2E2E2E2E2E2
310
E2E2E2E2E2E2E2E2E2E2E2E2E2E2E2E2E2E2E2E2E2E2E2E2E2E2E2E2E2E2E2E2E2E2E2E2E2E2E2E2E2E2E2E2E2E2E2E2E2E2E2E2E2E2E2E2E2E2E2E2E2E2E2E2E2E2E2E2E2E2E2E2E2E2E2E2E2E2E2E2E2E2E2E2E2E2E2E2E2E2E2E2E2E2E2E2E2E2E2E2E2E2E2E2E2E2E2E2E2E2E2E2E2E2E2E2E2E2E2E2E2E2E2F5E2E2E2
310
E2E2E2E2E2E2E2E2E2E2E2E2E2E2E2E2E2F5F5E2E2E2E2E2E2E2E2E2E2E2E2E2E2E2E2E2E2E2E2F5E2E2E2E2E2E2E2E2E2E2E2E2E2E2E2E2E2E2E2E2E2E2E2E2E2E2E2E2E2E2E2E2E2E2E2E2E2E2E2E2E2E2E2E2E2E2E2E2E2E2E2E2E2E2E2E2E2E2E2E2E2E2E2E2E2E2E2E2E2E2E2E2E2E2E2E2E2E2E2E2E2E2E2E2E2E2E2
310
E2E2E2E2E2E2E2E2E2E2E2E2E2E2E2E2E2E2E2E2E2E2E2E2E2E2E2E2E2E2E2E2E2E2E2E2E2E2E2E2E2E2E2E2E2E2E2E2E2F5E2E2E2E2E2E2E2E2E2E2E2E2E2E2E2E2E2E2E2E2F5F5E2E2E2E2E2E2E2E2E2E2E2E2E2E2E2E2E2E2E2E2F5E2E2E2E2E2E2E2E2E2E2E2E2E2E2E2E2E2E2E2E2E2E2E2E2E2E2E2E2E2E2E2E2E2E2
310
E2E2E2E2E2E2E2E2E2E2E2E2E2E2E2E2E2E2E2E2E2E2E2E2E2E2E2E2E2E2E2E2E2E2E2E2E2E2E2E2E2E2E2E2E2E2E2E2E2E2E2E2E2E2E2E2E2E2E2E2E2E2E2E2E2E2E2E2E2E2E2E2E2E2E2E2E2E2E2E2E2E2E2E2E2E2E2E2E2E2E2E2E2E2E2E2E2E2E2E2E2E2F5E2E2E2E2E2E2E2E2E2E2E2E2E2E2E2E2E2E2E2E2F5F5E2E2
310
E2F5E2E2E2E2E2E2E2E2E2E2E2E2E2E2E2E2F5E2E2E2E2E2E2E2E2E2E2E2E2E2E2E2E2E2E2E2E2E2E2E2E2E2E2E2E2E2E2E2E2E2E2E2E2E2E2E2E2E2E2E2E2E2E2E2E2E2E2E2E2E2E2E2E2E2E2E2E2E2E2E2E2E2E2E2E2E2E2E2E2E2E2E2E2E2E2E2E2E2E2E2E2E2E2E2E2E2E2E2E2E2E2E2E2E2E2E2E2E2E2E2E2E2E2E2E2
310
E2E2E2E2E2E2E2E2E2E2E2E2E2E2E2E2E2E2E2E2E2E2E2E2E2E2E2E2F5E2E2E2E2E2E2E2E2E2E2E2E2E2E2E2E2F5E2E2E2F5F5E2E2E2F5E2E2E2E2E2E2E2E2E2E2E2E2E2E2E2E2F5E2E2E2E2E2E2E2E2E2E2E2E2E2E2E2E2E2E2E2E2E2E2E2E2E2E2E2E2E2E2E2E2E2E2E2E2E2E2E2E2E2E2E2E2E2E2E2E2E2E2E2E2E2E2E2
310
E2E2E2E2E2E2E2E2E2E2E2E2E2E2E2E2E2E2E2E2E2E2E2E2E2E2E2E2E2E2E2E2E2E2E2E2E2E2E2E2E2E2E2E2E2E2E2E2E2E2E2E2E2E2E2E2E2E2E2E2E2E2E2E2E2E2E2E2E2E2E2E2E2E2E2E2E2E2E2E2E2F5E2E2E2E2E2E2E2E2E2E2E2E2E2E2E2E2F5E2E2E2F5F5E2E2E2F5E2E2E2E2E2E2E2E2E2E2E2E2E2E2E2E2F5E2E2
310
E2E2E2E2E2E2E2E2E2E2E2E2E2E2E2E2E2E2E2E2E2E2E2E2E2E2E2E2E2E2E2E2E2E2E2E2E2E2E2E2E2E2E2E2E2E2E2E2E2E2E2E2E2E2E2E2E2E2E2E2E2E2E2E2E2E2E2E2E2E2E2E2E2E2E2E2E2E2E2E2E2E2E2E2E2E2E2E2E2E2E2E2E2E2E2E2E2E2E2E2E2E2E2E2E2E2E2E2E2E2E2E2E2E2E2E2E2E2E2E2E2E2E2E2E2E2E2
310
E2E2E2E2E2E2E2F5E2E2E2E2E2E2E2E2E2E2E2E2E2E2E2E2F5E2E2E2F5F5E2E2E2F5E2E2E2E2E2E2E2E2E2E2E2E2E2E2E2E2F5E2E2E2E2E2E2E2E2E2E2E2E2E2E2E2E2E2E2E2E2E2E2E2E2E2E2E2E2E2E2E2E2E2E2E2E2E2E2E2E2E2E2E2E2E2E2E2E2E2E2E2E2E2E2E2E2E2E2E2E2E2E2E2E2E2E2E2E2E2E2E2E2E2E2E2E2
310
E2E2E2E2E2E2E2E2E2E2E2E2E2E2E2E2E2E2E2E2E2E2E2E2E2E2E2E2E2E2E2E2E2E2E2E2E2E2E2E2E2E2E2E2E2E2E2E2E2E2E2E2E2E2E2E2E2E2E2E2F5E2E2E2E2E2E2E2E2E2E2E2E2E2E2E2E2F5E2E2E2F5F5E2E2E2F5E2E2E2E2E2E2E2E2E2E2E2E2E2E2E2E2F5E2E2E2E2E2E2E2E2E2E2E2E2E2E2E2E2E2E2E2E2E2E2E2
310
E2E2E2E2E2E2E2E2E2E2E2E2E2E2E2E2E2E2E2E2E2E2E2E2E2E2E2E2E2E2E2E2E2E2E2E2E2E2E2E2E2E2E2E2E2E2E2E2E2E2E2E2E2E2E2E2E2E2E2E2E2E2E2E2E2E2E2E2E2E2E2E2E2E2E2E2E2E2E2E2E2E2E2E2E2E2E2E2E2E2E2E2E2E2E2E2E2E2E2E2E2E2E2E2E2E2E2E2E2E2E2E2E2F5E2E2E2E2E2E2E2E2E2E2E2E2E2
310
E2E2E2F5E2E2E2F5F5E2E2E2F5E2E2E2E2E2E2E2E2E2E2E2E2E2E2E2E2F5E2E2E2E2E2E2E2E2E2E2E2E2E2E2E2E2E2E2E2E2E2E2E2E2E2E2E2E2E2E2E2E2E2E2E2E2E2E2E2E2E2E2E2E2E2E2E2E2E2E2E2E2E2E2E2E2E2E2E2E2E2E2E2E2E2E2E2E2E2E2E2E2E2E2E2E2E2E2E2E2E2E2E2E2E2E2E2E2E2E2E2E2E2E2E2E2E2
310
E2E2E2E2E2E2E2E2E2E2E2E2E2E2E2E2E2E2E2E2E2E2E2E2E2E2E2E2E2E2E2E2E2E2E2E2E2E2E2F5E2E2E2E2E2E2E2E2E2E2E2E2E2E2E2E2F5E2E2E2F5F5E2E2E2F5E2E2E2E2E2E2E2E2E2E2E2E2E2E2E2E2F5E2E2E2E2E2E2E2E2E2E2E2E2E2E2E2E2E2E2E2E2E2E2E2E2E2E2E2E2E2E2E2E2E2E2E2E2E2E2E2E2E2E2E2E2
310
E2E2E2E2E2E2E2E2E2E2E2E2E2E2E2E2E2E2E2E2E2E2E2E2E2E2E2E2E2E2E2E2E2E2E2E2E2E2E2E2E2E2E2E2E2E2E2E2E2E2E2E2E2E2E2E2E2E2E2E2E2E2E2E2E2E2E2E2E2E2E2E2E2E2E2E2E2E2E2E2E2E2E2E2E2E2E2E2E2E2E2E2F5E2E2E2E2E2E2E2E2E2E2E2E2E2E2E2E2F5E2E2E2F5F5E2E2E2F5E2E2E2E2E2E2E2E2
310
E2E2E2E2E2E2E2E2F5E2E2E2E2E2E2E2E2E2E2E2E2E2E2E2E2E2E2E2E2E2E2E2E2E2E2E2E2E2E2E2E2E2E2E2E2E2E2E2E2E2E2E2E2E2E2E2E2E2E2E2E2E2E2E2E2E2E2E2E2E2E2E2E2E2E2E2E2E2E2E2E2E2E2E2E2E2E2E2E2E2E2E2E2E2E2E2E2E2E2E2E2E2E2E2E2E2E2E2E2E2E2E2E2E2E2E2E2E2E2E2E2E2E2E2E2E2E2
310
E2E2E2E2E2E2E2E2E2E2E2E2E2E2E2E2E2E2F5E2E2E2E2E2E2E2E2E2E2E2E2E2E2E2E2F5E2E2E2F5F5E2E2E2F5E2E2E2E2E2E2E2E2E2E2E2E2E2E2E2E2F5E2E2E2E2E2E2E2E2E2E2E2E2E2E2E2E2E2E2E2E2E2E2E2E2E2E2E2E2E2E2E2E2E2E2E2E2E2E2E2E2E2E2E2E2E2E2E2E2E2E2E2E2E2E2E2E2E2E2E2E2E2E2E2E2E2
310
E2E2E2E2E2E2E2E2E2E2E2E2E2E2E2E2E2E2E2E2E2E2E2E2E2E2E2E2E2E2E2E2E2E2E2E2E2E2E2E2E2E2E2E2E2E2E2E2E2E2E2E2E2E2E2E2E2E2E2E2E2E2E2E2E2E2E2E2E2E2E2F5E2E2E2E2E2E2E2E2E2E2E2E2E2E2E2E2F5E2E2E2F5F5E2E2E2F5E2E2E2E2E2E2E2E2E2E2E2E2E2E2E2E2F5E2E2E2E2E2E2E2E2E2E2E2E2
310
E2E2E2E2E2E2E2E2E2E2E2E2E2E2E2E2E2E2E2E2E2E2E2E2E2E2E2E2E2E2E2E2E2E2E2E2E2E2E2E2E2E2E2E2E2E2E2E2E2E2E2E2E2E2E2E2E2E2E2E2E2E2E2E2E2E2E2E2E2E2E2E2E2E2E2E2E2E2E2E2E2E2E2E2E2E2E2E2E2E2E2E2E2E2E2E2E2E2E2E2E2E2E2E2E2E2E2E2E2E2E2E2E2E2E2E2E2E2E2E2E2E2E2E2F5E2E2
310
E2E2E2E2E2E2E2E2E2E2E2E2E2E2F5E2E2E2F5F5E2E2E2F5E2E2E2E2E2E2E2E2E2E2E2E2E2E2E2E2F5E2E2E2E2E2E2E2E2E2E2E2E2E2E2E2E2E2E2E2E2E2E2E2E2E2E2E2E2E2E2E2E2E2E2E2E2E2E2E2E2E2E2E2E2E2E2E2E2E2E2E2E2E2E2E2E2E2E2E2E2E2E2E2E2E2E2E2E2E2E2E2E2E2E2E2E2E2E2E2E2E2E2E2E2E2E2
310
E2E2E2E2E2E2E2E2E2E2E2E2E2E2E2E2E2E2E2E2E2E2E2E2E2E2E2E2E2E2E2E2E2E2E2E2E2E2E2E2E2E2E2E2E2E2E2E2E2E2F5E2E2E2E2E2E2E2E2E2E2E2E2E2E2E2E2F5E2E2E2F5F5E2E2E2F5E2E2E2E2E2E2E2E2E2E2E2E2E2E2E2E2F5E2E2E2E2E2E2E2E2E2E2E2E2E2E2E2E2E2E2E2E2E2E2E2E2E2E2E2E2E2E2E2E2E2
310
E2E2E2E2E2E2E2E2E2E2E2E2E2E2E2E2E2E2E2E2E2E2E2E2E2E2E2E2E2E2E2E2E2E2E2E2E2E2E2E2E2E2E2E2E2E2E2E2E2E2E2E2E2E2E2E2E2E2E2E2E2E2E2E2E2E2E2E2E2E2E2E2E2E2E2E2E2E2E2E2E2E2E2E2E2E2E2E2E2E2E2E2E2E2E2E2E2E2E2E2E2E2E2F5E2E2E2E2E2E2E2E2E2E2E2E2E2E2E2E2F5E2E2E2F5F5E2
310
E2E2F5E2E2E2E2E2E2E2E2E2E2E2E2E2E2E2E2F5E2E2E2E2E2E2E2E2E2E2E2E2E2E2E2E2E2E2E2E2E2E2E2E2E2E2E2E2E2E2E2E2E2E2E2E2E2E2E2E2E2E2E2E2E2E2E2E2E2E2E2E2E2E2E2E2E2E2E2E2E2E2E2E2E2E2E2E2E2E2E2E2E2E2E2E2E2E2E2E2E2E2E2E2E2E2E2E2E2E2E2E2E2E2E2E2E2E2E2E2E2E2E2E2E2E2E2
310
E2E2E2E2E2E2E2E2E2E2E2E2E2E2E2E2E2E2E2E2E2E2E2E2E2E2E2E2E2F5E2E2E2E2E2E2E2E2E2E2E2E2E2E2E2E2F5E2E2E2F5F5E2E2E2F5E2E2E2E2E2E2E2E2E2E2E2E2E2E2E2E2F5E2E2E2E2E2E2E2E2E2E2E2E2E2E2E2E2E2E2E2E2E2E2E2E2E2E2E2E2E2E2E2E2E2E2E2E2E2E2E2E2E2E2E2E2E2E2E2E2E2E2E2E2E2E2
310
E2E2E2E2E2E2E2E2E2E2E2E2E2E2E2E2E2E2E2E2E2E2E2E2E2E2E2E2E2E2E2E2E2E2E2E2E2E2E2E2E2E2E2E2E2E2E2E2E2E2E2E2E2E2E2E2E2E2E2E2E2E2E2E2E2E2E2E2E2E2E2E2E2E2E2E2E2E2E2E2E2E2F5E2E2E2E2E2E2E2E2E2E2E2E2E2E2E2E2F5E2E2E2F5F5E2E2E2F5E2E2E2E2E2E2E2E2E2E2E2E2E2E2E2E2F5E2
310
E2E2E2E2E2E2E2E2E2E2E2E2E2E2E2E2E2E2E2E2E2E2E2E2E2E2E2E2E2E2E2E2E2E2E2E2E2E2E2E2E2E2E2E2E2E2E2E2E2E2E2E2E2E2E2E2E2E2E2E2E2E2E2E2E2E2E2E2E2E2E2E2E2E2E2E2E2E2E2E2E2E2E2E2E2E2E2E2E2E2E2E2E2E2E2E2E2E2E2E2E2E2E2E2E2E2E2E2E2E2E2E2E2E2E2E2E2E2E2E2E2E2E2E2E2E2E2
310
E2E2E2E2E2E2E2E2F5E2E2E2E2E2E2E2E2E2E2E2E2E2E2E2E2F5E2E2E2F5F5E2E2E2F5E2E2E2E2E2E2E2E2E2E2E2E2E2E2E2E2F5E2E2E2E2E2E2E2E2E2E2E2E2E2E2E2E2E2E2E2E2E2E2E2E2E2E2E2E2E2E2E2E2E2E2E2E2E2E2E2E2E2E2E2E2E2E2E2E2E2E2E2E2E2E2E2E2E2E2E2E2E2E2E2E2E2E2E2E2E2E2E2E2E2E2E2
310
E2E2E2E2E2E2E2E2E2E2E2E2E2E2E2E2E2E2E2E2E2E2E2E2E2E2E2E2E2E2E2E2E2E2E2E2E2E2E2E2E2E2E2E2E2E2E2E2E2E2E2E2E2E2E2E2E2E2E2E2E2F5E2E2E2E2E2E2E2E2E2E2E2E2E2E2E2E2F5E2E2E2F5F5E2E2E2F5E2E2E2E2E2E2E2E2E2E2E2E2E2E2E2E2F5E2E2E2E2E2E2E2E2E2E2E2E2E2E2E2E2E2E2E2E2E2E2
310
E2E2E2E2E2E2E2E2E2E2E2E2E2E2E2E2E2E2E2E2E2E2E2E2E2E2E2E2E2E2E2E2E2E2E2E2E2E2E2E2E2E2E2E2E2E2E2E2E2E2E2E2E2E2E2E2E2E2E2E2E2E2E2E2E2E2E2E2E2E2E2E2E2E2E2E2E2E2E2E2E2E2E2E2E2E2E2E2E2E2E2E2E2E2E2E2E2E2E2E2E2E2E2E2E2E2E2E2E2E2E2E2E2E2F5E2E2E2E2E2E2E2E2E2E2E2E2
310
E2E2E2E2F5E2E2E2F5F5E2E2E2E2E2E2E2E2E2E2E2E2E2E2E2E2E2E2E2E2F5E2E2E2E2E2E2E2E2E2E2E2E2E2E2E2E2E2E2E2E2E2E2E2E2E2E2E2E2E2E2E2E2E2E2E2E2E2E2E2E2E2E2E2E2E2E2E2E2E2E2E2E2E2E2E2E2E2E2E2E2E2E2E2E2E2E2E2E2E2E2E2E2E2E2E2E2E2E2E2E2E2E2E2E2E2E2E2E2E2E2E2E2E2E2E2E2
310
E2E2E2E2E2E2E2E2E2E2E2E2E2E2E2E2E2E2E2E2E2E2E2E2E2E2E2E2E2E2E2E2E2E2E2E2E2E2E2E2F5E2E2E2E2E2E2E2E2E2E2E2E2E2E2E2E2E2E2E2E2F5F5E2E2E2E2E2E2E2E2E2E2E2E2E2E2E2E2E2E2E2E2F5E2E2E2E2E2E2E2E2E2E2E2E2E2E2E2E2E2E2E2E2E2E2E2E2E2E2E2E2E2E2E2E2E2E2E2E2E2E2E2E2E2E2E2
310
E2E2E2E2E2E2E2E2E2E2E2E2E2E2E2E2E2E2E2E2E2E2E2E2E2E2E2E2E2E2E2E2E2E2E2E2E2E2E2E2E2E2E2E2E2E2E2E2E2E2E2E2E2E2E2E2E2E2E2E2E2E2E2E2E2E2E2E2E2E2E2E2E2E2E2E2E2E2E2E2E2E2E2E2E2E2E2E2E2E2E2E2E2F5E2E2E2E2E2E2E2E2E2E2E2E2E2E2E2E2E2E2E2E2F5F5E2E2E2E2E2E2E2E2E2E2E2
310
E2E2E2E2E2E2E2E2E2F5E2E2E2E2E2E2E2E2E2E2E2E2E2E2E2E2E2E2E2E2E2E2E2E2E2E2E2E2E2E2E2E2E2E2E2E2E2E2E2E2E2E2E2E2E2E2E2E2E2E2E2E2E2E2E2E2E2E2E2E2E2E2E2E2E2E2E2E2E2E2E2E2E2E2E2E2E2E2E2E2E2E2E2E2E2E2E2E2E2E2E2E2E2E2E2E2E2E2E2E2E2E2E2E2E2E2E2E2E2E2E2E2E2E2E2E2E2
310
E2E2E2E2E2E2E2E2E2E2E2E2E2E2E2E2E2E2E2F5E2E2E2E2E2E2E2E2E2E2E2E2E2E2E2E2E2E2E2E2F5F5E2E2E2E2E2E2E2E2E2E2E2E2E2E2E2E2E2E2E2E2F5E2E2E2E2E2E2E2E2E2E2E2E2E2E2E2E2E2E2E2E2E2E2E2E2E2E2E2E2E2E2E2E2E2E2E2E2E2E2E2E2E2E2E2E2E2E2E2E2E2E2E2E2E2E2E2E2E2E2E2E2E2E2E2E2
310
E2E2E2E2E2E2E2E2E2E2E2E2E2E2E2E2E2E2E2E2E2E2E2E2E2E2E2E2E2E2E2E2E2E2E2E2E2E2E2E2E2E2E2E2E2E2E2E2E2E2E2E2E2E2E2E2E2E2E2E2E2E2E2E2E2E2E2E2E2E2E2E2F5E2E2E2E2E2E2E2E2E2E2E2E2E2E2E2E2E2E2E2E2F5F5E2E2E2E2E2E2E2E2E2E2E2E2E2E2E2E2E2E2E2E2F5E2E2E2E2E2E2E2E2E2E2E2
310
E2E2E2E2E2E2E2E2E2E2E2E2E2E2E2E2E2E2E2E2E2E2E2E2E2E2E2E2E2E2E2E2E2E2E2E2E2E2E2E2E2E2E2E2E2E2E2E2E2E2E2E2E2E2E2E2E2E2E2E2E2E2E2E2E2E2E2E2E2E2E2E2E2E2E2E2E2E2E2E2E2E2E2E2E2E2E2E2E2E2E2E2E2E2E2E2E2E2E2E2E2E2E2E2E2E2E2E2E2E2E2E2E2E2E2E2E2E2E2E2E2E2E2E2E2F5E2
310
E2E2E2E2E2E2E2E2E2E2E2E2E2E2E2E2E2E2E2F5F5E2E2E2E2E2E2E2E2E2E2E2E2E2E2E2E2E2E2E2E2F5E2E2E2E2E2E2E2E2E2E2E2E2E2E2E2E2E2E2E2E2E2E2E2E2E2E2E2E2E2E2E2E2E2E2E2E2E2E2E2E2E2E2E2E2E2E2E2E2E2E2E2E2E2E2E2E2E2E2E2E2E2E2E2E2E2E2E2E2E2E2E2E2E2E2E2E2E2E2E2E2E2E2E2E2E2
310
E2E2E2E2E2E2E2E2E2E2E2E2E2E2E2E2E2E2E2E2E2E2E2E2E2E2E2E2E2E2E2E2E2E2E2E2E2E2E2E2E2E2E2E2E2E2E2E2E2E2E2F5E2E2E2E2E2E2E2E2E2E2E2E2E2E2E2E2E2E2E2E2F5F5E2E2E2E2E2E2E2E2E2E2E2E2E2E2E2E2E2E2E2E2F5E2E2E2E2E2E2E2E2E2E2E2E2E2E2E2E2E2E2E2E2E2E2E2E2E2E2E2E2E2E2E2E2
310
E2E2E2E2E2E2E2E2E2E2E2E2E2E2E2E2E2E2E2E2E2E2E2E2E2E2E2E2E2E2E2E2E2E2E2E2E2E2E2E2E2E2E2E2E2E2E2E2E2E2E2E2E2E2E2E2E2E2E2E2E2E2E2E2E2E2E2E2E2E2E2E2E2E2E2E2E2E2E2E2E2E2E2E2E2E2E2E2E2E2E2E2E2E2E2E2E2E2E2E2E2E2E2E2F5E2E2E2E2E2E2E2E2E2E2E2E2E2E2E2E2E2E2E2E2F5F5
310
E2E2E2E2E2E2E2E2E2E2E2E2E2E2E2E2E2E2E2E2F5E2E2E2E2E2E2E2E2E2E2E2E2E2E2E2E2E2E2E2E2E2E2E2E2E2E2E2E2E2E2E2E2E2E2E2E2E2E2E2E2E2E2E2E2E2E2E2E2E2E2E2E2E2E2E2E2E2E2E2E2E2E2E2E2E2E2E2E2E2E2E2E2E2E2E2E2E2E2E2E2E2E2E2E2E2E2E2E2E2E2E2E2E2E2E2E2E2E2E2E2E2E2E2E2E2E2
310
E2E2E2E2E2E2E2E2E2E2E2E2E2E2E2E2E2E2E2E2E2E2E2E2E2E2E2E2E2E2F5E2E2E2E2E2E2E2E2E2E2E2E2E2E2E2E2E2E2E2E2F5F5E2E2E2E2E2E2E2E2E2E2E2E2E2E2E2E2E2E2E2E2F5E2E2E2E2E2E2E2E2E2E2E2E2E2E2E2E2E2E2E2E2E2E2E2E2E2E2E2E2E2E2E2E2E2E2E2E2E2E2E2E2E2E2E2E2E2E2E2E2E2E2E2E2E2
310
E2E2E2E2E2E2E2E2E2E2E2E2E2E2E2E2E2E2E2E2E2E2E2E2E2E2E2E2E2E2E2E2E2E2E2E2E2E2E2E2E2E2E2E2E2E2E2E2E2E2E2E2E2E2E2E2E2E2E2E2E2E2E2E2E2E2E2E2E2E2E2E2E2E2E2E2E2E2E2E2E2E2E2F5E2E2E2E2E2E2E2E2E2E2E2E2E2E2E2E2E2E2E2E2F5F5E2E2E2F5E2E2E2E2E2E2E2E2E2E2E2E2E2E2E2E2F5
310
E2E2E2E2E2E2E2E2E2E2E2E2E2E2E2E2E2E2E2E2E2E2E2E2E2E2E2E2E2E2E2E2E2E2E2E2E2E2E2E2E2E2E2E2E2E2E2E2E2E2E2E2E2E2E2E2E2E2E2E2E2E2E2E2E2E2E2E2E2E2E2E2E2E2E2E2E2E2E2E2E2E2E2E2E2E2E2E2E2E2E2E2E2E2E2E2E2E2E2E2E2E2E2E2E2E2E2E2E2E2E2E2E2E2E2E2E2E2E2E2E2E2E2E2E2E2E2
310
E2E2E2E2E2E2E2E2E2F5E2E2E2E2E2E2E2E2E2E2E2E2E2E2E2E2F5E2E2E2F5F5E2E2E2F5E2E2E2E2E2E2E2E2E2E2E2E2E2E2E2E2F5E2E2E2E2E2E2E2E2E2E2E2E2E2E2E2E2E2E2E2E2E2E2E2E2E2E2E2E2E2E2E2E2E2E2E2E2E2E2E2E2E2E2E2E2E2E2E2E2E2E2E2E2E2E2E2E2E2E2E2E2E2E2E2E2E2E2E2E2E2E2E2E2E2E2
310
E2E2E2E2E2E2E2E2E2E2E2E2E2E2E2E2E2E2E2E2E2E2E2E2E2E2E2E2E2E2E2E2E2E2E2E2E2E2E2E2E2E2E2E2E2E2E2E2E2E2E2E2E2E2E2E2E2E2E2E2E2E2F5E2E2E2E2E2E2E2E2E2E2E2E2E2E2E2E2F5E2E2E2F5F5E2E2E2F5E2E2E2E2E2E2E2E2E2E2E2E2E2E2E2E2F5E2E2E2E2E2E2E2E2E2E2E2E2E2E2E2E2E2E2E2E2E2
310
E2E2E2E2E2E2E2E2E2E2E2E2E2E2E2E2E2E2E2E2E2E2E2E2E2E2E2E2E2E2E2E2E2E2E2E2E2E2E2E2E2E2E2E2E2E2E2E2E2E2E2E2E2E2E2E2E2E2E2E2E2E2E2E2E2E2E2E2E2E2E2E2E2E2E2E2E2E2E2E2E2E2E2E2E2E2E2E2E2E2E2E2E2E2E2E2E2E2E2E2E2E2E2E2E2E2E2E2E2E2E2E2E2E2E2F5E2E2E2E2E2E2E2E2E2E2E2
310
E2E2E2E2E2F5E2E2E2F5F5E2E2E2F5E2E2E2E2E2E2E2E2E2E2E2E2E2E2E2E2F5E2E2E2E2E2E2E2E2E2E2E2E2E2E2E2E2E2E2E2E2E2E2E2E2E2E2E2E2E2E2E2E2E2E2E2E2E2E2E2E2E2E2E2E2E2E2E2E2E2E2E2E2E2E2E2E2E2E2E2E2E2E2E2E2E2E2E2E2E2E2E2E2E2E2E2E2E2E2E2E2E2E2E2E2E2E2E2E2E2E2E2E2E2E2E2
310
E2E2E2E2E2E2E2E2E2E2E2E2E2E2E2E2E2E2E2E2E2E2E2E2E2E2E2E2E2E2E2E2E2E2E2E2E2E2E2E2E2F5E2E2E2E2E2E2E2E2E2E2E2E2E2E2E2E2F5E2E2E2F5F5E2E2E2F5E2E2E2E2E2E2E2E2E2E2E2E2E2E2E2E2F5E2E2E2E2E2E2E2E2E2E2E2E2E2E2E2E2E2E2E2E2E2E2E2E2E2E2E2E2E2E2E2E2E2E2E2E2E2E2E2E2E2E2
310
E2E2E2E2E2E2E2E2E2E2E2E2E2E2E2E2E2E2E2E2E2E2E2E2E2E2E2E2E2E2E2E2E2E2E2E2E2E2E2E2E2E2E2E2E2E2E2E2E2E2E2E2E2E2E2E2E2E2E2E2E2E2E2E2E2E2E2E2E2E2E2E2E2E2E2E2E2E2E2E2E2E2E2E2E2E2E2E2E2E2E2E2E2E2F5E2E2E2E2E2E2E2E2E2E2E2E2E2E2E2E2F5E2E2E2F5F5E2E2E2F5E2E2E2E2E2E2
310
E2E2E2E2E2E2E2E2E2E2F5E2E2E2E2E2E2E2E2E2E2E2E2E2E2E2E2E2E2E2E2E2E2E2E2E2E2E2E2E2E2E2E2E2E2E2E2E2E2E2E2E2E2E2E2E2E2E2E2E2E2E2E2E2E2E2E2E2E2E2E2E2E2E2E2E2E2E2E2E2E2E2E2E2E2E2E2E2E2E2E2E2E2E2E2E2E2E2E2E2E2E2E2E2E2E2E2E2E2E2E2E2E2E2E2E2E2E2E2E2E2E2E2E2E2E2E2
310
E2E2E2E2E2E2E2E2E2E2E2E2E2E2E2E2E2E2E2E2F5E2E2E2E2E2E2E2E2E2E2E2E2E2E2E2E2F5E2E2E2F5F5E2E2E2F5E2E2E2E2E2E2E2E2E2E2E2E2E2E2E2E2F5E2E2E2E2E2E2E2E2E2E2E2E2E2E2E2E2E2E2E2E2E2E2E2E2E2E2E2E2E2E2E2E2E2E2E2E2E2E2E2E2E2E2E2E2E2E2E2E2E2E2E2E2E2E2E2E2E2E2E2E2E2E2E2
310
E2E2E2E2E2E2E2E2E2E2E2E2E2E2E2E2E2E2E2E2E2E2E2E2E2E2E2E2E2E2E2E2E2E2E2E2E2E2E2E2E2E2E2E2E2E2E2E2E2E2E2E2E2E2E2E2E2E2E2E2E2E2E2E2E2E2E2E2E2E2E2E2E2F5E2E2E2E2E2E2E2E2E2E2E2E2E2E2E2E2F5E2E2E2F5F5E2E2E2F5E2E2E2E2E2E2E2E2E2E2E2E2E2E2E2E2F5E2E2E2E2E2E2E2E2E2E2
310
E2E2E2E2E2E2E2E2E2E2E2E2E2E2E2E2E2E2E2E2E2E2E2E2E2E2E2E2E2E2E2E2E2E2E2E2E2E2E2E2E2E2E2E2E2E2E2E2E2E2E2E2E2E2E2E2E2E2E2E2E2E2E2E2E2E2E2E2E2E2E2E2E2E2E2E2E2E2E2E2E2E2E2E2E2E2E2E2E2E2E2E2E2E2E2E2E2E2E2E2E2E2E2E2E2E2E2E2E2E2E2E2E2E2E2E2E2E2E2E2E2E2E2E2E2E2F5
310
E2E2E2E2E2E2E2E2E2E2E2E2E2E2E2E2F5E2E2E2F5F5E2E2E2F5E2E2E2E2E2E2E2E2E2E2E2E2E2E2E2E2F5E2E2E2E2E2E2E2E2E2E2E2E2E2E2E2E2E2E2E2E2E2E2E2E2E2E2E2E2E2E2E2E2E2E2E2E2E2E2E2E2E2E2E2E2E2E2E2E2E2E2E2E2E2E2E2E2E2E2E2E2E2E2E2E2E2E2E2E2E2E2E2E2E2E2E2E2E2E2E2E2E2E2E2E2
310
E2E2E2E2E2E2E2E2E2E2E2E2E2E2E2E2E2E2E2E2E2E2E2E2E2E2E2E2E2E2E2E2E2E2E2E2E2E2E2E2E2E2E2E2E2E2E2E2E2E2E2E2F5E2E2E2E2E2E2E2E2E2E2E2E2E2E2E2E2F5E2E2E2F5F5E2E2E2F5E2E2E2E2E2E2E2E2E2E2E2E2E2E2E2E2F5E2E2E2E2E2E2E2E2E2E2E2E2E2E2E2E2E2E2E2E2E2E2E2E2E2E2E2E2E2E2E2
310
E2E2E2E2E2E2E2E2E2E2E2E2E2E2E2E2E2E2E2E2E2E2E2E2E2E2E2E2E2E2E2E2E2E2E2E2E2E2E2E2E2E2E2E2E2E2E2E2E2E2E2E2E2E2E2E2E2E2E2E2E2E2E2E2E2E2E2E2E2E2E2E2E2E2E2E2E2E2E2E2E2E2E2E2E2E2E2E2E2E2E2E2E2E2E2E2E2E2E2E2E2E2E2E2E2F5E2E2E2E2E2E2E2E2E2E2E2E2E2E2E2E2F5E2E2E2F5
310
F5E2E2E2F5E2E2E2E2E2E2E2E2E2E2E2E2E2E2E2E2F5E2E2E2E2E2E2E2E2E2E2E2E2E2E2E2E2E2E2E2E2E2E2E2E2E2E2E2E2E2E2E2E2E2E2E2E2E2E2E2E2E2E2E2E2E2E2E2E2E2E2E2E2E2E2E2E2E2E2E2E2E2E2E2E2E2E2E2E2E2E2E2E2E2E2E2E2E2E2E2E2E2E2E2E2E2E2E2E2E2E2E2E2E2E2E2E2E2E2E2E2E2E2E2E2E2
310
E2E2E2E2E2E2E2E2E2E2E2E2E2E2E2E2E2E2E2E2E2E2E2E2E2E2E2E2E2E2E2F5E2E2E2E2E2E2E2E2E2E2E2E2E2E2E2E2F5E2E2E2F5F5E2E2E2F5E2E2E2E2E2E2E2E2E2E2E2E2E2E2E2E2F5E2E2E2E2E2E2E2E2E2E2E2E2E2E2E2E2E2E2E2E2E2E2E2E2E2E2E2E2E2E2E2E2E2E2E2E2E2E2E2E2E2E2E2E2E2E2E2E2E2E2E2E2
310
E2E2E2E2E2E2E2E2E2E2E2E2E2E2E2E2E2E2E2E2E2E2E2E2E2E2E2E2E2E2E2E2E2E2E2E2E2E2E2E2E2E2E2E2E2E2E2E2E2E2E2E2E2E2E2E2E2E2E2E2E2E2E2E2E2E2E2E2E2E2E2E2E2E2E2E2E2E2E2E2E2E2E2E2F5E2E2E2E2E2E2E2E2E2E2E2E2E2E2E2E2F5E2E2E2F5F5E2E2E2F5E2E2E2E2E2E2E2E2E2E2E2E2E2E2E2E2
310
F5E2E2E2E2E2E2E2E2E2E2E2E2E2E2E2E2E2E2E2E2E2E2E2E2E2E2E2E2E2E2E2E2E2E2E2E2E2E2E2E2E2E2E2E2E2E2E2E2E2E2E2E2E2E2E2E2E2E2E2E2E2E2E2E2E2E2E2E2E2E2E2E2E2E2E2E2E2E2E2E2E2E2E2E2E2E2E2E2E2E2E2E2E2E2E2E2E2E2E2E2E2E2E2E2E2E2E2E2E2E2E2E2E2E2E2E2E2E2E2E2E2E2E2E2E2E2
310
E2E2E2E2E2E2E2E2E2E2F5E2E2E2E2E2E2E2E2E2E2E2E2E2E2E2E2F5E2E2E2F5F5E2E2E2F5E2E2E2E2E2E2E2E2E2E2E2E2E2E2E2E2F5E2E2E2E2E2E2E2E2E2E2E2E2E2E2E2E2E2E2E2E2E2E2E2E2E2E2E2E2E2E2E2E2E2E2E2E2E2E2E2E2E2E2E2E2E2E2E2E2E2E2E2E2E2E2E2E2E2E2E2E2E2E2E2E2E2E2E2E2E2E2E2E2E2
310
E2E2E2E2E2E2E2E2E2E2E2E2E2E2E2E2E2E2E2E2E2E2E2E2E2E2E2E2E2E2E2E2E2E2E2E2E2E2E2E2E2E2E2E2E2E2E2E2E2E2E2E2E2E2E2E2E2E2E2E2E2E2E2F5E2E2E2E2E2E2E2E2E2E2E2E2E2E2E2E2F5E2E2E2F5F5E2E2E2F5E2E2E2E2E2E2E2E2E2E2E2E2E2E2E2E2F5E2E2E2E2E2E2E2E2E2E2E2E2E2E2E2E2E2E2E2E2
310
E2E2E2E2E2E2E2E2E2E2E2E2E2E2E2E2E2E2E2E2E2E2E2E2E2E2E2E2E2E2E2E2E2E2E2E2E2E2E2E2E2E2E2E2E2E2E2E2E2E2E2E2E2E2E2E2E2E2E2E2E2E2E2E2E2E2E2E2E2E2E2E2E2E2E2E2E2E2E2E2E2E2E2E2E2E2E2E2E2E2E2E2E2E2E2E2E2E2E2E2E2E2E2E2E2E2E2E2E2E2E2E2E2E2E2E2F5E2E2E2E2E2E2E2E2E2E2
310
E2E2E2E2E2E2F5E2E2E2F5F5E2E2E2F5E2E2E2E2E2E2E2E2E2E2E2E2E2E2E2E2F5E2E2E2E2E2E2E2E2E2E2E2E2E2E2E2E2E2E2E2E2E2E2E2E2E2E2E2E2E2E2E2E2E2E2E2E2E2E2E2E2E2E2E2E2E2E2E2E2E2E2E2E2E2E2E2E2E2E2E2E2E2E2E2E2E2E2E2E2E2E2E2E2E2E2E2E2E2E2E2E2E2E2E2E2E2E2E2E2E2E2E2E2E2E2
310
E2E2E2E2E2E2E2E2E2E2E2E2E2E2E2E2E2E2E2E2E2E2E2E2E2E2E2E2E2E2E2E2E2E2E2E2E2E2E2E2E2E2F5E2E2E2E2E2E2E2E2E2E2E2E2E2E2E2E2F5E2E2E2F5F5E2E2E2E2E2E2E2E2E2E2E2E2E2E2E2E2E2E2E2E2F5E2E2E2E2E2E2E2E2E2E2E2E2E2E2E2E2E2E2E2E2E2E2E2E2E2E2E2E2E2E2E2E2E2E2E2E2E2E2E2E2E2
310
E2E2E2E2E2E2E2E2E2E2E2E2E2E2E2E2E2E2E2E2E2E2E2E2E2E2E2E2E2E2E2E2E2E2E2E2E2E2E2E2E2E2E2E2E2E2E2E2E2E2E2E2E2E2E2E2E2E2E2E2E2E2E2E2E2E2E2E2E2E2E2E2E2E2E2E2E2E2E2E2E2E2E2E2E2E2E2E2E2E2E2E2E2E2E2F5E2E2E2E2E2E2E2E2E2E2E2E2E2E2E2E2E2E2E2E2F5F5E2E2E2E2E2E2E2E2E2
310
E2E2E2E2E2E2E2E2E2E2E2F5E2E2E2E2E2E2E2E2E2E2E2E2E2E2E2E2E2E2E2E2E2E2E2E2E2E2E2E2E2E2E2E2E2E2E2E2E2E2E2E2E2E2E2E2E2E2E2E2E2E2E2E2E2E2E2E2E2E2E2E2E2E2E2E2E2E2E2E2E2E2E2E2E2E2E2E2E2E2E2E2E2E2E2E2E2E2E2E2E2E2E2E2E2E2E2E2E2E2E2E2E2E2E2E2E2E2E2E2E2E2E2E2E2E2E2
310
E2E2E2E2E2E2E2E2E2E2E2E2E2E2E2E2E2E2E2E2E2F5E2E2E2E2E2E2E2E2E2E2E2E2E2E2E2E2E2E2E2E2F5F5E2E2E2E2E2E2E2E2E2E2E2E2E2E2E2E2E2E2E2E2F5E2E2E2E2E2E2E2E2E2E2E2E2E2E2E2E2E2E2E2E2E2E2E2E2E2E2E2E2E2E2E2E2E2E2E2E2E2E2E2E2E2E2E2E2E2E2E2E2E2E2E2E2E2E2E2E2E2E2E2E2E2E2
310
E2E2E2E2E2E2E2E2E2E2E2E2E2E2E2E2E2E2E2E2E2E2E2E2E2E2E2E2E2E2E2E2E2E2E2E2E2E2E2E2E2E2E2E2E2E2E2E2E2E2E2E2E2E2E2E2E2E2E2E2E2E2E2E2E2E2E2E2E2E2E2E2E2E2F5E2E2E2E2E2E2E2E2E2E2E2E2E2E2E2E2E2E2E2E2F5F5E2E2E2E2E2E2E2E2E2E2E2E2E2E2E2E2E2E2E2E2F5E2E2E2E2E2E2E2E2E2
310
E2E2E2E2E2E2E2E2E2E2E2E2E2E2E2E2E2E2E2E2E2E2E2E2E2E2E2E2E2E2E2E2E2E2E2E2E2E2E2E2E2E2E2E2E2E2E2E2E2E2E2E2E2E2E2E2E2E2E2E2E2E2E2E2E2E2E2E2E2E2E2E2E2E2E2E2E2E2E2E2E2E2E2E2E2E2E2E2E2E2E2E2E2E2E2E2E2E2E2E2E2E2E2E2E2E2E2E2E2E2E2E2E2E2E2E2E2E2E2E2E2E2E2E2E2E2E2
310
F5E2E2E2E2E2E2E2E2E2E2E2E2E2E2E2E2E2E2E2E2F5F5E2E2E2E2E2E2E2E2E2E2E2E2E2E2E2E2E2E2E2E2F5E2E2E2E2E2E2E2E2E2E2E2E2E2E2E2E2E2E2E2E2E2E2E2E2E2E2E2E2E2E2E2E2E2E2E2E2E2E2E2E2E2E2E2E2E2E2E2E2E2E2E2E2E2E2E2E2E2E2E2E2E2E2E2E2E2E2E2E2E2E2E2E2E2E2E2E2E2E2E2E2E2E2E2
310
E2E2E2E2E2E2E2E2E2E2E2E2E2E2E2E2E2E2E2E2E2E2E2E2E2E2E2E2E2E2E2E2E2E2E2E2E2E2E2E2E2E2E2E2E2E2E2E2E2E2E2E2E2F5E2E2E2E2E2E2E2E2E2E2E2E2E2E2E2E2E2E2E2E2F5F5E2E2E2E2E2E2E2E2E2E2E2E2E2E2E2E2E2E2E2E2F5E2E2E2E2E2E2E2E2E2E2E2E2E2E2E2E2E2E2E2E2E2E2E2E2E2E2E2E2E2E2
310
E2E2E2E2E2E2E2E2E2E2E2E2E2E2E2E2E2E2E2E2E2E2E2E2E2E2E2E2E2E2E2E2E2E2E2E2E2E2E2E2E2E2E2E2E2E2E2E2E2E2E2E2E2E2E2E2E2E2E2E2E2E2E2E2E2E2E2E2E2E2E2E2E2E2E2E2E2E2E2E2E2E2E2E2E2E2E2E2E2E2E2E2E2E2E2E2E2E2E2E2E2E2E2E2E2E2F5E2E2E2E2E2E2E2E2E2E2E2E2E2E2E2E2E2E2E2E2
310
F5F5E2E2E2E2E2E2E2E2E2E2E2E2E2E2E2E2E2E2E2E2F5E2E2E2E2E2E2E2E2E2E2E2E2E2E2E2E2E2E2E2E2E2E2E2E2E2E2E2E2E2E2E2E2E2E2E2E2E2E2E2E2E2E2E2E2E2E2E2E2E2E2E2E2E2E2E2E2E2E2E2E2E2E2E2E2E2E2E2E2E2E2E2E2E2E2E2E2E2E2E2E2E2E2E2E2E2E2E2E2E2E2E2E2E2E2E2E2E2E2E2E2E2E2E2E2
310
E2E2E2E2E2E2E2E2E2E2E2E2E2E2E2E2E2E2E2E2E2E2E2E2E2E2E2E2E2E2E2E2F5E2E2E2E2E2E2E2E2E2E2E2E2E2E2E2E2E2E2E2E2F5F5E2E2E2E2E2E2E2E2E2E2E2E2E2E2E2E2E2E2E2E2F5E2E2E2E2E2E2E2E2E2E2E2E2E2E2E2E2E2E2E2E2E2E2E2E2E2E2E2E2E2E2E2E2E2E2E2E2E2E2E2E2E2E2E2E2E2E2E2E2E2E2E2
310
E2E2E2E2E2E2E2E2E2E2E2E2E2E2E2E2E2E2E2E2E2E2E2E2E2E2E2E2E2E2E2E2E2E2E2E2E2E2E2E2E2E2E2E2E2E2E2E2E2E2E2E2E2E2E2E2E2E2E2E2E2E2E2E2E2E2E2E2E2E2E2E2E2E2E2E2E2E2E2E2E2E2E2E2E2F5E2E2E2E2E2E2E2E2E2E2E2E2E2E2E2E2E2E2E2E2F5F5E2E2E2E2E2E2E2E2E2E2E2E2E2E2E2E2E2E2E2
310
E2F5E2E2E2E2E2E2E2E2E2E2E2E2E2E2E2E2E2E2E2E2E2E2E2E2E2E2E2E2E2E2E2E2E2E2E2E2E2E2E2E2E2E2E2E2E2E2E2E2E2E2E2E2E2E2E2E2E2E2E2E2E2E2E2E2E2E2E2E2E2E2E2E2E2E2E2E2E2E2E2E2E2E2E2E2E2E2E2E2E2E2E2E2E2E2E2E2E2E2E2E2E2E2E2E2E2E2E2E2E2E2E2E2E2E2E2E2E2E2E2E2E2E2E2E2E2
310
E2E2E2E2E2E2E2E2E2E2E2F5E2E2E2E2E2E2E2E2E2E2E2E2E2E2E2E2E2E2E2E2F5F5E2E2E2E2E2E2E2E2E2E2E2E2E2E2E2E2E2E2E2E2F5E2E2E2E2E2E2E2E2E2E2E2E2E2E2E2E2E2E2E2E2E2E2E2E2E2E2E2E2E2E2E2E2E2E2E2E2E2E2E2E2E2E2E2E2E2E2E2E2E2E2E2E2E2E2E2E2E2E2E2E2E2E2E2E2E2E2E2E2E2E2E2E2
310
E2E2E2E2E2E2E2E2E2E2E2E2E2E2E2E2E2E2E2E2E2E2E2E2E2E2E2E2E2E2E2E2E2E2E2E2E2E2E2E2E2E2E2E2E2E2E2E2E2E2E2E2E2E2E2E2E2E2E2E2E2E2E2E2F5E2E2E2E2E2E2E2E2E2E2E2E2E2E2E2E2E2E2E2E2F5F5E2E2E2F5E2E2E2E2E2E2E2E2E2E2E2E2E2E2E2E2F5E2E2E2E2E2E2E2E2E2E2E2E2E2E2E2E2E2E2E2
310
E2E2E2E2E2E2E2E2E2E2E2E2E2E2E2E2E2E2E2E2E2E2E2E2E2E2E2E2E2E2E2E2E2E2E2E2E2E2E2E2E2E2E2E2E2E2E2E2E2E2E2E2E2E2E2E2E2E2E2E2E2E2E2E2E2E2E2E2E2E2E2E2E2E2E2E2E2E2E2E2E2E2E2E2E2E2E2E2E2E2E2E2E2E2E2E2E2E2E2E2E2E2E2E2E2E2E2E2E2E2E2E2E2E2E2E2E2F5E2E2E2E2E2E2E2E2E2
310
E2E2E2E2E2E2E2F5E2E2E2F5F5E2E2E2F5E2E2E2E2E2E2E2E2E2E2E2E2E2E2E2E2F5E2E2E2E2E2E2E2E2E2E2E2E2E2E2E2E2E2E2E2E2E2E2E2E2E2E2E2E2E2E2E2E2E2E2E2E2E2E2E2E2E2E2E2E2E2E2E2E2E2E2E2E2E2E2E2E2E2E2E2E2E2E2E2E2E2E2E2E2E2E2E2E2E2E2E2E2E2E2E2E2E2E2E2E2E2E2E2E2E2E2E2E2E2
310
E2E2E2E2E2E2E2E2E2E2E2E2E2E2E2E2E2E2E2E2E2E2E2E2E2E2E2E2E2E2E2E2E2E2E2E2E2E2E2E2E2E2E2F5E2E2E2E2E2E2E2E2E2E2E2E2E2E2E2E2F5E2E2E2F5F5E2E2E2F5E2E2E2E2E2E2E2E2E2E2E2E2E2E2E2E2F5E2E2E2E2E2E2E2E2E2E2E2E2E2E2E2E2E2E2E2E2E2E2E2E2E2E2E2E2E2E2E2E2E2E2E2E2E2E2E2E2
310
E2E2E2E2E2E2E2E2E2E2E2E2E2E2E2E2E2E2E2E2E2E2E2E2E2E2E2E2E2E2E2E2E2E2E2E2E2E2E2E2E2E2E2E2E2E2E2E2E2E2E2E2E2E2E2E2E2E2E2E2E2E2E2E2E2E2E2E2E2E2E2E2E2E2E2E2E2E2E2E2E2E2E2E2E2E2E2E2E2E2E2E2E2E2E2E2F5E2E2E2E2E2E2E2E2E2E2E2E2E2E2E2E2F5E2E2E2F5F5E2E2E2F5E2E2E2E2
310
E2E2E2E2E2E2E2E2E2E2E2E2F5E2E2E2E2E2E2E2E2E2E2E2E2E2E2E2E2E2E2E2E2E2E2E2E2E2E2E2E2E2E2E2E2E2E2E2E2E2E2E2E2E2E2E2E2E2E2E2E2E2E2E2E2E2E2E2E2E2E2E2E2E2E2E2E2E2E2E2E2E2E2E2E2E2E2E2E2E2E2E2E2E2E2E2E2E2E2E2E2E2E2E2E2E2E2E2E2E2E2E2E2E2E2E2E2E2E2E2E2E2E2E2E2E2E2
310
E2E2E2E2E2E2E2E2E2E2E2E2E2E2E2E2E2E2E2E2E2E2F5E2E2E2E2E2E2E2E2E2E2E2E2E2E2E2E2F5E2E2E2F5F5E2E2E2F5E2E2E2E2E2E2E2E2E2E2E2E2E2E2E2E2F5E2E2E2E2E2E2E2E2E2E2E2E2E2E2E2E2E2E2E2E2E2E2E2E2E2E2E2E2E2E2E2E2E2E2E2E2E2E2E2E2E2E2E2E2E2E2E2E2E2E2E2E2E2E2E2E2E2E2E2E2E2
310
E2E2E2E2E2E2E2E2E2E2E2E2E2E2E2E2E2E2E2E2E2E2E2E2E2E2E2E2E2E2E2E2E2E2E2E2E2E2E2E2E2E2E2E2E2E2E2E2E2E2E2E2E2E2E2E2E2E2E2E2E2E2E2E2E2E2E2E2E2E2E2E2E2E2E2F5E2E2E2E2E2E2E2E2E2E2E2E2E2E2E2E2F5E2E2E2F5F5E2E2E2F5E2E2E2E2E2E2E2E2E2E2E2E2E2E2E2E2F5E2E2E2E2E2E2E2E2
310
E2E2E2E2E2E2E2E2E2E2E2E2E2E2E2E2E2E2E2E2E2E2E2E2E2E2E2E2E2E2E2E2E2E2E2E2E2E2E2E2E2E2E2E2E2E2E2E2E2E2E2E2E2E2E2E2E2E2E2E2E2E2E2E2E2E2E2E2E2E2E2E2E2E2E2E2E2E2E2E2E2E2E2E2E2E2E2E2E2E2E2E2E2E2E2E2E2E2E2E2E2E2E2E2E2E2E2E2E2E2E2E2E2E2E2E2E2E2E2E2E2E2E2E2E2E2E2
310
E2F5E2E2E2E2E2E2E2E2E2E2E2E2E2E2E2E2F5E2E2E2F5F5E2E2E2F5E2E2E2E2E2E2E2E2E2E2E2E2E2E2E2E2F5E2E2E2E2E2E2E2E2E2E2E2E2E2E2E2E2E2E2E2E2E2E2E2E2E2E2E2E2E2E2E2E2E2E2E2E2E2E2E2E2E2E2E2E2E2E2E2E2E2E2E2E2E2E2E2E2E2E2E2E2E2E2E2E2E2E2E2E2E2E2E2E2E2E2E2E2E2E2E2E2E2E2
310
E2E2E2E2E2E2E2E2E2E2E2E2E2E2E2E2E2E2E2E2E2E2E2E2E2E2E2E2E2E2E2E2E2E2E2E2E2E2E2E2E2E2E2E2E2E2E2E2E2E2E2E2E2E2F5E2E2E2E2E2E2E2E2E2E2E2E2E2E2E2E2F5E2E2E2F5F5E2E2E2F5E2E2E2E2E2E2E2E2E2E2E2E2E2E2E2E2F5E2E2E2E2E2E2E2E2E2E2E2E2E2E2E2E2E2E2E2E2E2E2E2E2E2E2E2E2E2
310
E2E2E2E2E2E2E2E2E2E2E2E2E2E2E2E2E2E2E2E2E2E2E2E2E2E2E2E2E2E2E2E2E2E2E2E2E2E2E2E2E2E2E2E2E2E2E2E2E2E2E2E2E2E2E2E2E2E2E2E2E2E2E2E2E2E2E2E2E2E2E2E2E2E2E2E2E2E2E2E2E2E2E2E2E2E2E2E2E2E2E2E2E2E2E2E2E2E2E2E2E2E2E2E2E2E2E2F5E2E2E2E2E2E2E2E2E2E2E2E2E2E2E2E2F5E2E2
310
E2F5F5E2E2E2F5E2E2E2E2E2E2E2E2E2E2E2E2E2E2E2E2F5E2E2E2E2E2E2E2E2E2E2E2E2E2E2E2E2E2E2E2E2E2E2E2E2E2E2E2E2E2E2E2E2E2E2E2E2E2E2E2E2E2E2E2E2E2E2E2E2E2E2E2E2E2E2E2E2E2E2E2E2E2E2E2E2E2E2E2E2E2E2E2E2E2E2E2E2E2E2E2E2E2E2E2E2E2E2E2E2E2E2E2E2E2E2E2E2E2E2E2E2E2E2E2
310
E2E2E2E2E2E2E2E2E2E2E2E2E2E2E2E2E2E2E2E2E2E2E2E2E2E2E2E2E2E2E2E2E2F5E2E2E2E2E2E2E2E2E2E2E2E2E2E2E2E2F5E2E2E2F5F5E2E2E2F5E2E2E2E2E2E2E2E2E2E2E2E2E2E2E2E2F5E2E2E2E2E2E2E2E2E2E2E2E2E2E2E2E2E2E2E2E2E2E2E2E2E2E2E2E2E2E2E2E2E2E2E2E2E2E2E2E2E2E2E2E2E2E2E2E2E2E2
310
E2E2E2E2E2E2E2E2E2E2E2E2E2E2E2E2E2E2E2E2E2E2E2E2E2E2E2E2E2E2E2E2E2E2E2E2E2E2E2E2E2E2E2E2E2E2E2E2E2E2E2E2E2E2E2E2E2E2E2E2E2E2E2E2E2E2E2E2E2E2E2E2E2E2E2E2E2E2E2E2E2E2E2E2E2E2F5E2E2E2E2E2E2E2E2E2E2E2E2E2E2E2E2F5E2E2E2F5F5E2E2E2F5E2E2E2E2E2E2E2E2E2E2E2E2E2E2
310
E2E2F5E2E2E2E2E2E2E2E2E2E2E2E2E2E2E2E2E2E2E2E2E2E2E2E2E2E2E2E2E2E2E2E2E2E2E2E2E2E2E2E2E2E2E2E2E2E2E2E2E2E2E2E2E2E2E2E2E2E2E2E2E2E2E2E2E2E2E2E2E2E2E2E2E2E2E2E2E2E2E2E2E2E2E2E2E2E2E2E2E2E2E2E2E2E2E2E2E2E2E2E2E2E2E2E2E2E2E2E2E2E2E2E2E2E2E2E2E2E2E2E2E2E2E2E2
310
E2E2E2E2E2E2E2E2E2E2E2E2F5E2E2E2E2E2E2E2E2E2E2E2E2E2E2E2E2F5E2E2E2F5F5E2E2E2F5E2E2E2E2E2E2E2E2E2E2E2E2E2E2E2E2F5E2E2E2E2E2E2E2E2E2E2E2E2E2E2E2E2E2E2E2E2E2E2E2E2E2E2E2E2E2E2E2E2E2E2E2E2E2E2E2E2E2E2E2E2E2E2E2E2E2E2E2E2E2E2E2E2E2E2E2E2E2E2E2E2E2E2E2E2E2E2E2
310
E2E2E2E2E2E2E2E2E2E2E2E2E2E2E2E2E2E2E2E2E2E2E2E2E2E2E2E2E2E2E2E2E2E2E2E2E2E2E2E2E2E2E2E2E2E2E2E2E2E2E2E2E2E2E2E2E2E2E2E2E2E2E2E2E2F5E2E2E2E2E2E2E2E2E2E2E2E2E2E2E2E2F5E2E2E2F5F5E2E2E2F5E2E2E2E2E2E2E2E2E2E2E2E2E2E2E2E2F5E2E2E2E2E2E2E2E2E2E2E2E2E2E2E2E2E2E2
310
E2E2E2E2E2E2E2E2E2E2E2E2E2E2E2E2E2E2E2E2E2E2E2E2E2E2E2E2E2E2E2E2E2E2E2E2E2E2E2E2E2E2E2E2E2E2E2E2E2E2E2E2E2E2E2E2E2E2E2E2E2E2E2E2E2E2E2E2E2E2E2E2E2E2E2E2E2E2E2E2E2E2E2E2E2E2E2E2E2E2E2E2E2E2E2E2E2E2E2E2E2E2E2E2E2E2E2E2E2E2E2E2E2E2E2E2E2E2F5E2E2E2E2E2E2E2E2
310
E2E2E2E2E2E2E2E2F5E2E2E2F5F5E2E2E2F5E2E2E2E2E2E2E2E2E2E2E2E2E2E2E2E2F5E2E2E2E2E2E2E2E2E2E2E2E2E2E2E2E2E2E2E2E2E2E2E2E2E2E2E2E2E2E2E2E2E2E2E2E2E2E2E2E2E2E2E2E2E2E2E2E2E2E2E2E2E2E2E2E2E2E2E2E2E2E2E2E2E2E2E2E2E2E2E2E2E2E2E2E2E2E2E2E2E2E2E2E2E2E2E2E2E2E2E2E2
310
E2E2E2E2E2E2E2E2E2E2E2E2E2E2E2E2E2E2E2E2E2E2E2E2E2E2E2E2E2E2E2E2E2E2E2E2E2E2E2E2E2E2E2E2F5E2E2E2E2E2E2E2E2E2E2E2E2E2E2E2E2F5E2E2E2F5F5E2E2E2F5E2E2E2E2E2E2E2E2E2E2E2E2E2E2E2E2F5E2E2E2E2E2E2E2E2E2E2E2E2E2E2E2E2E2E2E2E2E2E2E2E2E2E2E2E2E2E2E2E2E2E2E2E2E2E2E2
310
E2E2E2E2E2E2E2E2E2E2E2E2E2E2E2E2E2E2E2E2E2E2E2E2E2E2E2E2E2E2E2E2E2E2E2E2E2E2E2E2E2E2E2E2E2E2E2E2E2E2E2E2E2E2E2E2E2E2E2E2E2E2E2E2E2E2E2E2E2E2E2E2E2E2E2E2E2E2E2E2E2E2E2E2E2E2E2E2E2E2E2E2E2E2E2E2E2F5E2E2E2E2E2E2E2E2E2E2E2E2E2E2E2E2F5E2E2E2F5F5E2E2E2F5E2E2E2
310
E2E2E2E2E2E2E2E2E2E2E2E2E2F5E2E2E2E2E2E2E2E2E2E2E2E2E2E2E2E2E2E2E2E2E2E2E2E2E2E2E2E2E2E2E2E2E2E2E2E2E2E2E2E2E2E2E2E2E2E2E2E2E2E2E2E2E2E2E2E2E2E2E2E2E2E2E2E2E2E2E2E2E2E2E2E2E2E2E2E2E2E2E2E2E2E2E2E2E2E2E2E2E2E2E2E2E2E2E2E2E2E2E2E2E2E2E2E2E2E2E2E2E2E2E2E2E2
310
E2E2E2E2E2E2E2E2E2E2E2E2E2E2E2E2E2E2E2E2E2E2E2F5E2E2E2E2E2E2E2E2E2E2E2E2E2E2E2E2F5E2E2E2F5F5E2E2E2E2E2E2E2E2E2E2E2E2E2E2E2E2E2E2E2E2F5E2E2E2E2E2E2E2E2E2E2E2E2E2E2E2E2E2E2E2E2E2E2E2E2E2E2E2E2E2E2E2E2E2E2E2E2E2E2E2E2E2E2E2E2E2E2E2E2E2E2E2E2E2E2E2E2E2E2E2E2
310
E2E2E2E2E2E2E2E2E2E2E2E2E2E2E2E2E2E2E2E2E2E2E2E2E2E2E2E2E2E2E2E2E2E2E2E2E2E2E2E2E2E2E2E2E2E2E2E2E2E2E2E2E2E2E2E2E2E2E2E2E2E2E2E2E2E2E2E2E2E2E2E2E2E2E2E2F5E2E2E2E2E2E2E2E2E2E2E2E2E2E2E2E2E2E2E2E2F5F5E2E2E2E2E2E2E2E2E2E2E2E2E2E2E2E2E2E2E2E2F5E2E2E2E2E2E2E2
310
E2E2E2E2E2E2E2E2E2E2E2E2E2E2E2E2E2E2E2E2E2E2E2E2E2E2E2E2E2E2E2E2E2E2E2E2E2E2E2E2E2E2E2E2E2E2E2E2E2E2E2E2E2E2E2E2E2E2E2E2E2E2E2E2E2E2E2E2E2E2E2E2E2E2E2E2E2E2E2E2E2E2E2E2E2E2E2E2E2E2E2E2E2E2E2E2E2E2E2E2E2E2E2E2E2E2E2E2E2E2E2E2E2E2E2E2E2E2E2E2E2E2E2E2E2E2E2
310
E2E2F5E2E2E2E2E2E2E2E2E2E2E2E2E2E2E2E2E2E2E2E2F5F5E2E2E2E2E2E2E2E2E2E2E2E2E2E2E2E2E2E2E2E2F5E2E2E2E2E2E2E2E2E2E2E2E2E2E2E2E2E2E2E2E2E2E2E2E2E2E2E2E2E2E2E2E2E2E2E2E2E2E2E2E2E2E2E2E2E2E2E2E2E2E2E2E2E2E2E2E2E2E2E2E2E2E2E2E2E2E2E2E2E2E2E2E2E2E2E2E2E2E2E2E2E2
310
E2E2E2E2E2E2E2E2E2E2E2E2E2E2E2E2E2E2E2E2E2E2E2E2E2E2E2E2E2E2E2E2E2E2E2E2E2E2E2E2E2E2E2E2E2E2E2E2E2E2E2E2E2E2E2F5E2E2E2E2E2E2E2E2E2E2E2E2E2E2E2E2E2E2E2E2F5F5E2E2E2E2E2E2E2E2E2E2E2E2E2E2E2E2E2E2E2E2F5E2E2E2E2E2E2E2E2E2E2E2E2E2E2E2E2E2E2E2E2E2E2E2E2E2E2E2E2
310
E2E2E2E2E2E2E2E2E2E2E2E2E2E2E2E2E2E2E2E2E2E2E2E2E2E2E2E2E2E2E2E2E2E2E2E2E2E2E2E2E2E2E2E2E2E2E2E2E2E2E2E2E2E2E2E2E2E2E2E2E2E2E2E2E2E2E2E2E2E2E2E2E2E2E2E2E2E2E2E2E2E2E2E2E2E2E2E2E2E2E2E2E2E2E2E2E2E2E2E2E2E2E2E2E2E2E2E2F5E2E2E2E2E2E2E2E2E2E2E2E2E2E2E2E2E2E2
310
E2E2F5F5E2E2E2E2E2E2E2E2E2E2E2E2E2E2E2E2E2E2E2E2F5E2E2E2E2E2E2E2E2E2E2E2E2E2E2E2E2E2E2E2E2E2E2E2E2E2E2E2E2E2E2E2E2E2E2E2E2E2E2E2E2E2E2E2E2E2E2E2E2E2E2E2E2E2E2E2E2E2E2E2E2E2E2E2E2E2E2E2E2E2E2E2E2E2E2E2E2E2E2E2E2E2E2E2E2E2E2E2E2E2E2E2E2E2E2E2E2E2E2E2E2E2E2
310
E2E2E2E2E2E2E2E2E2E2E2E2E2E2E2E2E2E2E2E2E2E2E2E2E2E2E2E2E2E2E2E2E2E2F5E2E2E2E2E2E2E2E2E2E2E2E2E2E2E2E2E2E2E2E2F5F5E2E2E2E2E2E2E2E2E2E2E2E2E2E2E2E2E2E2E2E2F5E2E2E2E2E2E2E2E2E2E2E2E2E2E2E2E2E2E2E2E2E2E2E2E2E2E2E2E2E2E2E2E2E2E2E2E2E2E2E2E2E2E2E2E2E2E2E2E2E2
310
E2E2E2E2E2E2E2E2E2E2E2E2E2E2E2E2E2E2E2E2E2E2E2E2E2E2E2E2E2E2E2E2E2E2E2E2E2E2E2E2E2E2E2E2E2E2E2E2E2E2E2E2E2E2E2E2E2E2E2E2E2E2E2E2E2E2E2E2E2E2E2E2E2E2E2E2E2E2E2E2E2E2E2E2E2E2E2F5E2E2E2E2E2E2E2E2E2E2E2E2E2E2E2E2E2E2E2E2F5F5E2E2E2E2E2E2E2E2E2E2E2E2E2E2E2E2E2
310
E2E2E2F5E2E2E2E2E2E2E2E2E2E2E2E2E2E2E2E2E2E2E2E2E2E2E2E2E2E2E2E2E2E2E2E2E2E2E2E2E2E2E2E2E2E2E2E2E2E2E2E2E2E2E2E2E2E2E2E2E2E2E2E2E2E2E2E2E2E2E2E2E2E2E2E2E2E2E2E2E2E2E2E2E2E2E2E2E2E2E2E2E2E2E2E2E2E2E2E2E2E2E2E2E2E2E2E2E2E2E2E2E2E2E2E2E2E2E2E2E2E2E2E2E2E2E2
310
E2E2E2E2E2E2E2E2E2E2E2E2E2F5E2E2E2E2E2E2E2E2E2E2E2E2E2E2E2E2E2E2E2E2F5F5E2E2E2E2E2E2E2E2E2E2E2E2E2E2E2E2E2E2E2E2F5E2E2E2E2E2E2E2E2E2E2E2E2E2E2E2E2E2E2E2E2E2E2E2E2E2E2E2E2E2E2E2E2E2E2E2E2E2E2E2E2E2E2E2E2E2E2E2E2E2E2E2E2E2E2E2E2E2E2E2E2E2E2E2E2E2E2E2E2E2E2
310
E2E2E2E2E2E2E2E2E2E2E2E2E2E2E2E2E2E2E2E2E2E2E2E2E2E2E2E2E2E2E2E2E2E2E2E2E2E2E2E2E2E2E2E2E2E2E2E2E2E2E2E2E2E2E2E2E2E2E2E2E2E2E2E2E2E2F5E2E2E2E2E2E2E2E2E2E2E2E2E2E2E2E2E2E2E2E2F5F5E2E2E2E2E2E2E2E2E2E2E2E2E2E2E2E2E2E2E2E2F5E2E2E2E2E2E2E2E2E2E2E2E2E2E2E2E2E2
310
E2E2E2E2E2E2E2E2E2E2E2E2E2E2E2E2E2E2E2E2E2E2E2E2E2E2E2E2E2E2E2E2E2E2E2E2E2E2E2E2E2E2E2E2E2E2E2E2E2E2E2E2E2E2E2E2E2E2E2E2E2E2E2E2E2E2E2E2E2E2E2E2E2E2E2E2E2E2E2E2E2E2E2E2E2E2E2E2E2E2E2E2E2E2E2E2E2E2E2E2E2E2E2E2E2E2E2E2E2E2E2E2E2E2E2E2E2E2E2F5E2E2E2E2E2E2E2
310
E2E2E2E2E2E2E2E2E2E2E2E2E2F5F5E2E2E2F5E2E2E2E2E2E2E2E2E2E2E2E2E2E2E2E2F5E2E2E2E2E2E2E2E2E2E2E2E2E2E2E2E2E2E2E2E2E2E2E2E2E2E2E2E2E2E2E2E2E2E2E2E2E2E2E2E2E2E2E2E2E2E2E2E2E2E2E2E2E2E2E2E2E2E2E2E2E2E2E2E2E2E2E2E2E2E2E2E2E2E2E2E2E2E2E2E2E2E2E2E2E2E2E2E2E2E2E2
310
E2E2E2E2E2E2E2E2E2E2E2E2E2E2E2E2E2E2E2E2E2E2E2E2E2E2E2E2E2E2E2E2E2E2E2E2E2E2E2E2E2E2E2E2E2F5E2E2E2E2E2E2E2E2E2E2E2E2E2E2E2E2F5E2E2E2F5F5E2E2E2F5E2E2E2E2E2E2E2E2E2E2E2E2E2E2E2E2F5E2E2E2E2E2E2E2E2E2E2E2E2E2E2E2E2E2E2E2E2E2E2E2E2E2E2E2E2E2E2E2E2E2E2E2E2E2E2
310
E2E2E2E2E2E2E2E2E2E2E2E2E2E2E2E2E2E2E2E2E2E2E2E2E2E2E2E2E2E2E2E2E2E2E2E2E2E2E2E2E2E2E2E2E2E2E2E2E2E2E2E2E2E2E2E2E2E2E2E2E2E2E2E2E2E2E2E2E2E2E2E2E2E2E2E2E2E2E2E2E2E2E2E2E2E2E2E2E2E2E2E2E2E2E2E2E2E2F5E2E2E2E2E2E2E2E2E2E2E2E2E2E2E2E2F5E2E2E2F5F5E2E2E2F5E2E2
310
E2E2E2E2E2E2E2E2E2E2E2E2E2E2F5E2E2E2E2E2E2E2E2E2E2E2E2E2E2E2E2E2E2E2E2E2E2E2E2E2E2E2E2E2E2E2E2E2E2E2E2E2E2E2E2E2E2E2E2E2E2E2E2E2E2E2E2E2E2E2E2E2E2E2E2E2E2E2E2E2E2E2E2E2E2E2E2E2E2E2E2E2E2E2E2E2E2E2E2E2E2E2E2E2E2E2E2E2E2E2E2E2E2E2E2E2E2E2E2E2E2E2E2E2E2E2E2
310
E2E2E2E2E2E2E2E2E2E2E2E2E2E2E2E2E2E2E2E2E2E2E2E2F5E2E2E2E2E2E2E2E2E2E2E2E2E2E2E2E2F5E2E2E2F5F5E2E2E2F5E2E2E2E2E2E2E2E2E2E2E2E2E2E2E2E2F5E2E2E2E2E2E2E2E2E2E2E2E2E2E2E2E2E2E2E2E2E2E2E2E2E2E2E2E2E2E2E2E2E2E2E2E2E2E2E2E2E2E2E2E2E2E2E2E2E2E2E2E2E2E2E2E2E2E2E2
310
E2E2E2E2E2E2E2E2E2E2E2E2E2E2E2E2E2E2E2E2E2E2E2E2E2E2E2E2E2E2E2E2E2E2E2E2E2E2E2E2E2E2E2E2E2E2E2E2E2E2E2E2E2E2E2E2E2E2E2E2E2E2E2E2E2E2E2E2E2E2E2E2E2E2E2E2E2F5E2E2E2E2E2E2E2E2E2E2E2E2E2E2E2E2F5E2E2E2F5F5E2E2E2F5E2E2E2E2E2E2E2E2E2E2E2E2E2E2E2E2F5E2E2E2E2E2E2
310
E2E2E2E2E2E2E2E2E2E2E2E2E2E2E2E2E2E2E2E2E2E2E2E2E2E2E2E2E2E2E2E2E2E2E2E2E2E2E2E2E2E2E2E2E2E2E2E2E2E2E2E2E2E2E2E2E2E2E2E2E2E2E2E2E2E2E2E2E2E2E2E2E2E2E2E2E2E2E2E2E2E2E2E2E2E2E2E2E2E2E2E2E2E2E2E2E2E2E2E2E2E2E2E2E2E2E2E2E2E2E2E2E2E2E2E2E2E2E2E2E2E2E2E2E2E2E2
310
E2E2E2F5E2E2E2E2E2E2E2E2E2E2E2E2E2E2E2E2F5E2E2E2F5F5E2E2E2F5E2E2E2E2E2E2E2E2E2E2E2E2E2E2E2E2F5E2E2E2E2E2E2E2E2E2E2E2E2E2E2E2E2E2E2E2E2E2E2E2E2E2E2E2E2E2E2E2E2E2E2E2E2E2E2E2E2E2E2E2E2E2E2E2E2E2E2E2E2E2E2E2E2E2E2E2E2E2E2E2E2E2E2E2E2E2E2E2E2E2E2E2E2E2E2E2E2
310
E2E2E2E2E2E2E2E2E2E2E2E2E2E2E2E2E2E2E2E2E2E2E2E2E2E2E2E2E2E2E2E2E2E2E2E2E2E2E2E2E2E2E2E2E2E2E2E2E2E2E2E2E2E2E2E2F5E2E2E2E2E2E2E2E2E2E2E2E2E2E2E2E2F5E2E2E2F5F5E2E2E2F5E2E2E2E2E2E2E2E2E2E2E2E2E2E2E2E2F5E2E2E2E2E2E2E2E2E2E2E2E2E2E2E2E2E2E2E2E2E2E2E2E2E2E2E2
310
E2E2E2E2E2E2E2E2E2E2E2E2E2E2E2E2E2E2E2E2E2E2E2E2E2E2E2E2E2E2E2E2E2E2E2E2E2E2E2E2E2E2E2E2E2E2E2E2E2E2E2E2E2E2E2E2E2E2E2E2E2E2E2E2E2E2E2E2E2E2E2E2E2E2E2E2E2E2E2E2E2E2E2E2E2E2E2E2E2E2E2E2E2E2E2E2E2E2E2E2E2E2E2E2E2E2E2E2E2F5E2E2E2E2E2E2E2E2E2E2E2E2E2E2E2E2F5
310
E2E2E2F5F5E2E2E2F5E2E2E2E2E2E2E2E2E2E2E2E2E2E2E2E2F5E2E2E2E2E2E2E2E2E2E2E2E2E2E2E2E2E2E2E2E2E2E2E2E2E2E2E2E2E2E2E2E2E2E2E2E2E2E2E2E2E2E2E2E2E2E2E2E2E2E2E2E2E2E2E2E2E2E2E2E2E2E2E2E2E2E2E2E2E2E2E2E2E2E2E2E2E2E2E2E2E2E2E2E2E2E2E2E2E2E2E2E2E2E2E2E2E2E2E2E2E2
310
E2E2E2E2E2E2E2E2E2E2E2E2E2E2E2E2E2E2E2E2E2E2E2E2E2E2E2E2E2E2E2E2E2E2E2F5E2E2E2E2E2E2E2E2E2E2E2E2E2E2E2E2F5E2E2E2F5F5E2E2E2F5E2E2E2E2E2E2E2E2E2E2E2E2E2E2E2E2F5E2E2E2E2E2E2E2E2E2E2E2E2E2E2E2E2E2E2E2E2E2E2E2E2E2E2E2E2E2E2E2E2E2E2E2E2E2E2E2E2E2E2E2E2E2E2E2E2
310
E2E2E2E2E2E2E2E2E2E2E2E2E2E2E2E2E2E2E2E2E2E2E2E2E2E2E2E2E2E2E2E2E2E2E2E2E2E2E2E2E2E2E2E2E2E2E2E2E2E2E2E2E2E2E2E2E2E2E2E2E2E2E2E2E2E2E2E2E2E2E2E2E2E2E2E2E2E2E2E2E2E2E2E2E2E2E2E2F5E2E2E2E2E2E2E2E2E2E2E2E2E2E2E2E2F5E2E2E2F5F5E2E2E2F5E2E2E2E2E2E2E2E2E2E2E2E2
310
E2E2E2E2F5E2E2E2E2E2E2E2E2E2E2E2E2E2E2E2E2E2E2E2E2E2E2E2E2E2E2E2E2E2E2E2E2E2E2E2E2E2E2E2E2E2E2E2E2E2E2E2E2E2E2E2E2E2E2E2E2E2E2E2E2E2E2E2E2E2E2E2E2E2E2E2E2E2E2E2E2E2E2E2E2E2E2E2E2E2E2E2E2E2E2E2E2E2E2E2E2E2E2E2E2E2E2E2E2E2E2E2E2E2E2E2E2E2E2E2E2E2E2E2E2E2E2
310
E2E2E2E2E2E2E2E2E2E2E2E2E2E2F5E2E2E2E2E2E2E2E2E2E2E2E2E2E2E2E2F5E2E2E2F5F5E2E2E2F5E2E2E2E2E2E2E2E2E2E2E2E2E2E2E2E2F5E2E2E2E2E2E2E2E2E2E2E2E2E2E2E2E2E2E2E2E2E2E2E2E2E2E2E2E2E2E2E2E2E2E2E2E2E2E2E2E2E2E2E2E2E2E2E2E2E2E2E2E2E2E2E2E2E2E2E2E2E2E2E2E2E2E2E2E2E2
310
E2E2E2E2E2E2E2E2E2E2E2E2E2E2E2E2E2E2E2E2E2E2E2E2E2E2E2E2E2E2E2E2E2E2E2E2E2E2E2E2E2E2E2E2E2E2E2E2E2E2E2E2E2E2E2E2E2E2E2E2E2E2E2E2E2E2E2F5E2E2E2E2E2E2E2E2E2E2E2E2E2E2E2E2F5E2E2E2F5F5E2E2E2F5E2E2E2E2E2E2E2E2E2E2E2E2E2E2E2E2F5E2E2E2E2E2E2E2E2E2E2E2E2E2E2E2E2
310
E2E2E2E2E2E2E2E2E2E2E2E2E2E2E2E2E2E2E2E2E2E2E2E2E2E2E2E2E2E2E2E2E2E2E2E2E2E2E2E2E2E2E2E2E2E2E2E2E2E2E2E2E2E2E2E2E2E2E2E2E2E2E2E2E2E2E2E2E2E2E2E2E2E2E2E2E2E2E2E2E2E2E2E2E2E2E2E2E2E2E2E2E2E2E2E2E2E2E2E2E2E2E2E2E2E2E2E2E2E2E2E2E2E2E2E2E2E2E2E2F5E2E2E2E2E2E2
310
E2E2E2E2E2E2E2E2E2E2F5E2E2E2F5F5E2E2E2F5E2E2E2E2E2E2E2E2E2E2E2E2E2E2E2E2F5E2E2E2E2E2E2E2E2E2E2E2E2E2E2E2E2E2E2E2E2E2E2E2E2E2E2E2E2E2E2E2E2E2E2E2E2E2E2E2E2E2E2E2E2E2E2E2E2E2E2E2E2E2E2E2E2E2E2E2E2E2E2E2E2E2E2E2E2E2E2E2E2E2E2E2E2E2E2E2E2E2E2E2E2E2E2E2E2E2E2
310
E2E2E2E2E2E2E2E2E2E2E2E2E2E2E2E2E2E2E2E2E2E2E2E2E2E2E2E2E2E2E2E2E2E2E2E2E2E2E2E2E2E2E2E2E2E2F5E2E2E2E2E2E2E2E2E2E2E2E2E2E2E2E2F5E2E2E2F5F5E2E2E2F5E2E2E2E2E2E2E2E2E2E2E2E2E2E2E2E2F5E2E2E2E2E2E2E2E2E2E2E2E2E2E2E2E2E2E2E2E2E2E2E2E2E2E2E2E2E2E2E2E2E2E2E2E2E2
310
E2E2E2E2E2E2E2E2E2E2E2E2E2E2E2E2E2E2E2E2E2E2E2E2E2E2E2E2E2E2E2E2E2E2E2E2E2E2E2E2E2E2E2E2E2E2E2E2E2E2E2E2E2E2E2E2E2E2E2E2E2E2E2E2E2E2E2E2E2E2E2E2E2E2E2E2E2E2E2E2E2E2E2E2E2E2E2E2E2E2E2E2E2E2E2E2E2E2E2F5E2E2E2E2E2E2E2E2E2E2E2E2E2E2E2E2F5E2E2E2F5F5E2E2E2F5E2
310
E2E2E2E2E2E2E2E2E2E2E2E2E2E2E2F5E2E2E2E2E2E2E2E2E2E2E2E2E2E2E2E2E2E2E2E2E2E2E2E2E2E2E2E2E2E2E2E2E2E2E2E2E2E2E2E2E2E2E2E2E2E2E2E2E2E2E2E2E2E2E2E2E2E2E2E2E2E2E2E2E2E2E2E2E2E2E2E2E2E2E2E2E2E2E2E2E2E2E2E2E2E2E2E2E2E2E2E2E2E2E2E2E2E2E2E2E2E2E2E2E2E2E2E2E2E2E2
310
E2E2E2E2E2E2E2E2E2E2E2E2E2E2E2E2E2E2E2E2E2E2E2E2E2F5E2E2E2E2E2E2E2E2E2E2E2E2E2E2E2E2F5E2E2E2F5F5E2E2E2F5E2E2E2E2E2E2E2E2E2E2E2E2E2E2E2E2F5E2E2E2E2E2E2E2E2E2E2E2E2E2E2E2E2E2E2E2E2E2E2E2E2E2E2E2E2E2E2E2E2E2E2E2E2E2E2E2E2E2E2E2E2E2E2E2E2E2E2E2E2E2E2E2E2E2E2
310
E2E2E2E2E2E2E2E2E2E2E2E2E2E2E2E2E2E2E2E2E2E2E2E2E2E2E2E2E2E2E2E2E2E2E2E2E2E2E2E2E2E2E2E2E2E2E2E2E2E2E2E2E2E2E2E2E2E2E2E2E2E2E2E2E2E2E2E2E2E2E2E2E2E2E2E2E2E2F5E2E2E2E2E2E2E2E2E2E2E2E2E2E2E2E2F5E2E2E2F5F5E2E2E2F5E2E2E2E2E2E2E2E2E2E2E2E2E2E2E2E2F5E2E2E2E2E2
310
E2E2E2E2E2E2E2E2E2E2E2E2E2E2E2E2E2E2E2E2E2E2E2E2E2E2E2E2E2E2E2E2E2E2E2E2E2E2E2E2E2E2E2E2E2E2E2E2E2E2E2E2E2E2E2E2E2E2E2E2E2E2E2E2E2E2E2E2E2E2E2E2E2E2E2E2E2E2E2E2E2E2E2E2E2E2E2E2E2E2E2E2E2E2E2E2E2E2E2E2E2E2E2E2E2E2E2E2E2E2E2E2E2E2E2E2E2E2E2E2E2E2E2E2E2E2E2
310
E2E2E2E2F5E2E2E2E2E2E2E2E2E2E2E2E2E2E2E2E2F5E2E2E2F5F5E2E2E2E2E2E2E2E2E2E2E2E2E2E2E2E2E2E2E2E2F5E2E2E2E2E2E2E2E2E2E2E2E2E2E2E2E2E2E2E2E2E2E2E2E2E2E2E2E2E2E2E2E2E2E2E2E2E2E2E2E2E2E2E2E2E2E2E2E2E2E2E2E2E2E2E2E2E2E2E2E2E2E2E2E2E2E2E2E2E2E2E2E2E2E2E2E2E2E2E2
310
E2E2E2E2E2E2E2E2E2E2E2E2E2E2E2E2E2E2E2E2E2E2E2E2E2E2E2E2E2E2E2E2E2E2E2E2E2E2E2E2E2E2E2E2E2E2E2E2E2E2E2E2E2E2E2E2E2F5E2E2E2E2E2E2E2E2E2E2E2E2E2E2E2E2E2E2E2E2F5F5E2E2E2E2E2E2E2E2E2E2E2E2E2E2E2E2E2E2E2E2F5E2E2E2E2E2E2E2E2E2E2E2E2E2E2E2E2E2E2E2E2E2E2E2E2E2E2
310
E2E2E2E2E2E2E2E2E2E2E2E2E2E2E2E2E2E2E2E2E2E2E2E2E2E2E2E2E2E2E2E2E2E2E2E2E2E2E2E2E2E2E2E2E2E2E2E2E2E2E2E2E2E2E2E2E2E2E2E2E2E2E2E2E2E2E2E2E2E2E2E2E2E2E2E2E2E2E2E2E2E2E2E2E2E2E2E2E2E2E2E2E2E2E2E2E2E2E2E2E2E2E2E2E2E2E2E2E2E2F5E2E2E2E2E2E2E2E2E2E2E2E2E2E2E2E2
310
E2E2E2E2F5F5E2E2E2E2E2E2E2E2E2E2E2E2E2E2E2E2E2E2E2E2F5E2E2E2E2E2E2E2E2E2E2E2E2E2E2E2E2E2E2E2E2E2E2E2E2E2E2E2E2E2E2E2E2E2E2E2E2E2E2E2E2E2E2E2E2E2E2E2E2E2E2E2E2E2E2E2E2E2E2E2E2E2E2E2E2E2E2E2E2E2E2E2E2E2E2E2E2E2E2E2E2E2E2E2E2E2E2E2E2E2E2E2E2E2E2E2E2E2E2E2E2
310
E2E2E2E2E2E2E2E2E2E2E2E2E2E2E2E2E2E2E2E2E2E2E2E2E2E2E2E2E2E2E2E2E2E2E2E2F5E2E2E2E2E2E2E2E2E2E2E2E2E2E2E2E2E2E2E2E2F5F5E2E2E2E2E2E2E2E2E2E2E2E2E2E2E2E2E2E2E2E2F5E2E2E2E2E2E2E2E2E2E2E2E2E2E2E2E2E2E2E2E2E2E2E2E2E2E2E2E2E2E2E2E2E2E2E2E2E2E2E2E2E2E2E2E2E2E2E2
310
E2E2E2E2E2E2E2E2E2E2E2E2E2E2E2E2E2E2E2E2E2E2E2E2E2E2E2E2E2E2E2E2E2E2E2E2E2E2E2E2E2E2E2E2E2E2E2E2E2E2E2E2E2E2E2E2E2E2E2E2E2E2E2E2E2E2E2E2E2E2E2E2E2E2E2E2E2E2E2E2E2E2E2E2E2E2E2E2E2F5E2E2E2E2E2E2E2E2E2E2E2E2E2E2E2E2E2E2E2E2F5F5E2E2E2E2E2E2E2E2E2E2E2E2E2E2E2
310
E2E2E2E2E2F5F5F5F5F5F5F5F5F5F5F5F5F5F5F5F5F5F5F5F5F5F5F5F5F5F5F5F5F5F5F5F5F5F5F5F5F5F5F5F5F5F5F5F5F5F5F5F5F5F5F5F5F5F5F5F5F5F5F5F5F5F5F5F5F5F5F5F5F5F5F5F5F5F5F5F5F5F5F5F5F5F5F5F5F5F5F5F5F5F5F5F5F5F5F5F5F5F5F5F5F5F5F5F5F5F5F5F5F5F5F5F5F5F5F5F5F5F5F5F5F5F5
310
F5F5F5F5F5F5F5F5F5F5F5F5F5F5F5F5E2E2E2E2E2E2E2E2E2E2E2E2E2E2E2E2E2E2E2E2F5F5E2E2E2E2E2E2E2E2E2E2E2E2E2E2E2E2E2E2E2E2E2E2E2E2E2E2E2E2E2E2E2E2E2E2E2E2E2E2E2E2E2E2E2E2E2E2E2E2E2E2E2E2E2E2E2E2E2E2E2E2E2E2E2E2E2E2E2E2E2E2E2E2E2E2E2E2E2E2E2E2E2E2E2E2E2E2E2E2E2
310
E2E2E2E2E2E2E2E2E2E2E2E2E2E2E2E2E2E2E2E2E2E2E2E2E2E2E2E2E2E2E2E2E2E2E2E2E2E2E2E2E2E2E2E2E2E2E2E2E2E2E2E2E2E2E2E2E2E2E2E2E2E2E2E2E2E2E2E2E2E2E2E2E2E2E2E2E2E2E2E2E2E2E2E2E2E2E2E2E2F5F5E2E2E2E2E2E2E2E2E2E2E2E2E2E2E2E2E2E2E2E2E2E2E2E2E2E2E2E2E2E2E2E2E2E2E2E2
310
E2E2E2E2E2E2E2E2E2E2E2E2E2E2E2E2E2E2E2E2E2E2E2E2E2E2E2E2E2E2E2E2E2E2E2E2E2E2E2E2E2E2E2E2E2E2E2E2E2E2E2E2E2E2E2E2E2E2E2E2E2E2E2E2E2E2E2E2E2E2E2E2E2E2E2E2E2E2E2E2E2E2E2E2E2E2E2E2E2E2E2E2E2E2E2E2E2E2E2E2E2E2E2E2E2E2E2E2E2E2E2E2E2E2E2E2E2E2E2E2E2E2E2E2E2E2E2
310
E2E2E2E2E2E2E2E2E2E2E2E2E2E2E2F5F5E2E2E2E2E2E2E2E2E2E2E2E2E2E2E2E2E2E2E2E2E2E2E2E2E2E2E2E2E2E2E2E2E2E2E2E2E2E2E2E2E2E2E2E2E2E2E2E2E2E2E2E2E2E2E2E2E2E2E2E2E2E2E2E2E2E2E2E2E2E2E2E2E2E2E2E2E2E2E2E2E2E2E2E2E2E2E2E2E2E2E2E2E2E2E2E2E2E2E2E2E2E2E2E2E2E2E2E2E2E2
310
E2E2E2E2E2E2E2E2E2E2E2E2E2E2E2E2E2E2E2E2E2E2E2E2E2E2E2E2E2E2E2E2E2E2E2E2E2E2E2E2E2E2E2E2E2E2E2E2E2E2E2E2E2E2E2E2E2E2E2E2E2E2E2E2E2E2E2E2F5F5E2E2E2E2E2E2E2E2E2E2E2E2E2E2E2E2E2E2E2E2E2E2E2E2E2E2E2E2E2E2E2E2E2E2E2E2E2E2E2E2E2E2E2E2E2E2E2E2E2E2E2E2E2E2E2E2E2
310
E2E2E2E2E2E2E2E2E2E2E2E2E2E2E2E2E2E2E2E2E2E2E2E2E2E2E2E2E2E2E2E2E2E2E2E2E2E2E2E2E2E2E2E2E2E2E2E2E2E2E2E2E2E2E2E2E2E2E2E2E2E2E2E2E2E2E2E2E2E2E2E2E2E2E2E2E2E2E2E2E2E2E2E2E2E2E2E2E2E2E2E2E2E2E2E2E2E2E2E2E2E2E2E2E2E2E2E2E2E2E2E2E2E2E2E2E2E2E2E2E2F5F5E2E2E2F5
310
E2E2E2E2E2E2E2E2E2E2E2E2E2E2E2E2E2E2E2E2E2E2E2E2E2E2E2E2E2E2E2E2E2E2E2E2E2E2E2E2E2E2E2E2E2E2E2E2E2E2E2E2E2E2E2E2E2E2E2E2E2E2E2E2E2E2E2E2E2E2E2E2E2E2E2E2E2E2E2E2E2E2E2E2E2E2E2E2E2E2E2E2E2E2E2E2E2E2E2E2E2E2E2E2E2E2E2E2E2E2E2E2E2E2E2E2E2E2E2E2E2E2E2E2E2E2E2
310
E2E2E2E2E2E2E2E2E2E2E2E2E2E2E2E2E2E2E2E2E2E2E2E2E2E2E2E2E2E2E2E2E2E2E2E2E2E2E2E2E2E2E2F5E2E2E2F5F5E2E2E2F5E2E2E2E2E2E2E2E2E2E2E2E2E2E2E2E2E2E2E2E2E2E2E2E2E2E2E2E2E2E2E2E2E2E2E2E2E2E2E2E2E2E2E2E2E2E2E2E2E2E2E2E2E2E2E2E2E2E2E2E2E2E2E2E2E2E2E2E2E2E2E2E2E2E2
310
E2E2E2E2E2E2E2E2E2E2E2E2E2E2E2E2E2E2E2E2E2E2E2E2E2E2E2E2E2E2E2E2E2E2E2E2E2E2E2E2E2E2E2E2E2E2E2E2E2E2E2E2E2E2E2E2E2E2E2E2E2E2E2E2E2E2E2E2E2E2E2E2E2E2E2E2E2E2E2E2E2E2E2E2E2E2E2E2E2E2E2E2E2E2E2E2F5E2E2E2F5F5E2E2E2F5E2E2E2E2E2E2E2E2E2E2E2E2E2E2E2E2E2E2E2E2E2
310
E2E2E2E2E2E2E2E2E2E2E2E2E2E2E2E2E2E2E2E2E2E2E2E2E2E2E2E2E2E2E2E2E2E2E2E2E2E2E2E2E2E2E2E2E2E2E2E2E2E2E2E2E2E2E2E2E2E2E2E2E2E2E2E2E2E2E2E2E2E2E2E2E2E2E2E2E2E2E2E2E2E2E2E2E2E2E2E2E2E2E2E2E2E2E2E2E2E2E2E2E2E2E2E2E2E2E2E2E2E2E2E2E2E2E2E2E2E2E2E2E2E2E2E2E2E2E2
310
E2E2E2E2E2E2E2E2E2E2E2E2E2E2E2E2E2E2E2E2E2E2F5E2E2E2F5F5E2E2E2F5E2E2E2E2E2E2E2E2E2E2E2E2E2E2E2E2E2E2E2E2E2E2E2E2E2E2E2E2E2E2E2E2E2E2E2E2E2E2E2E2E2E2E2E2E2E2E2E2E2E2E2E2E2E2E2E2E2E2E2E2E2E2E2E2E2E2E2E2E2E2E2E2E2E2E2E2E2E2E2E2E2E2E2E2E2E2E2E2E2E2E2E2E2E2E2
310
E2E2E2E2E2E2E2E2E2E2E2E2E2E2E2E2E2E2E2E2E2E2E2E2E2E2E2E2E2E2E2E2E2E2E2E2E2E2E2E2E2E2E2E2E2E2E2E2E2E2E2E2E2E2E2E2E2E2E2E2E2E2E2E2E2E2E2E2E2E2E2E2E2E2E2F5E2E2E2F5F5E2E2E2F5E2E2E2E2E2E2E2E2E2E2E2E2E2E2E2E2E2E2E2E2E2E2E2E2E2E2E2E2E2E2E2E2E2E2E2E2E2E2E2E2E2E2
310
E2E2E2E2E2E2E2E2E2E2E2E2E2E2E2E2E2E2E2E2E2E2E2E2E2E2E2E2E2E2E2E2E2E2E2E2E2E2E2E2E2E2E2E2E2E2E2E2E2E2E2E2E2E2E2E2E2E2E2E2E2E2E2E2E2E2E2E2E2E2E2E2E2E2E2E2E2E2E2E2E2E2E2E2E2E2E2E2E2E2E2E2E2E2E2E2E2E2E2E2E2E2E2E2E2E2E2E2E2E2E2E2E2E2E2E2E2E2E2E2E2E2E2E2E2E2E2
310
E2F5E2E2E2F5F5E2E2E2F5E2E2E2E2E2E2E2E2E2E2E2E2E2E2E2E2E2E2E2E2E2E2E2E2E2E2E2E2E2E2E2E2E2E2E2E2E2E2E2E2E2E2E2E2E2E2E2E2E2E2E2E2E2E2E2E2E2E2E2E2E2E2E2E2E2E2E2E2E2E2E2E2E2E2E2E2E2E2E2E2E2E2E2E2E2E2E2E2E2E2E2E2E2E2E2E2E2E2E2E2E2E2E2E2E2E2E2E2E2E2E2E2E2E2E2E2
310
E2E2E2E2E2E2E2E2E2E2E2E2E2E2E2E2E2E2E2E2E2E2E2E2E2E2E2E2E2E2E2E2E2E2E2E2E2E2E2E2E2E2E2E2E2E2E2E2E2E2E2E2E2E2F5E2E2E2F5F5E2E2E2F5E2E2E2E2E2E2E2E2E2E2E2E2E2E2E2E2E2E2E2E2E2E2E2E2E2E2E2E2E2E2E2E2E2E2E2E2E2E2E2E2E2E2E2E2E2E2E2E2E2E2E2E2E2E2E2E2E2E2E2E2E2E2E2
310
E2E2E2E2E2E2E2E2E2E2E2E2E2E2E2E2E2E2E2E2E2E2E2E2E2E2E2E2E2E2E2E2E2E2E2E2E2E2E2E2E2E2E2E2E2E2E2E2E2E2E2E2E2E2E2E2E2E2E2E2E2E2E2E2E2E2E2E2E2E2E2E2E2E2E2E2E2E2E2E2E2E2E2E2E2E2E2E2E2E2E2E2E2E2E2E2E2E2E2E2E2E2E2E2E2E2E2F5E2E2E2F5F5E2E2E2F5E2E2E2E2E2E2E2E2E2E2
310
E2E2E2E2E2E2E2E2E2E2E2E2E2E2E2E2E2E2E2E2E2E2E2E2E2E2E2E2E2E2E2E2E2E2E2E2E2E2E2E2E2E2E2E2E2E2E2E2E2E2E2E2E2E2E2E2E2E2E2E2E2E2E2E2E2E2E2E2E2E2E2E2E2E2E2E2E2E2E2E2E2E2E2E2E2E2E2E2E2E2E2E2E2E2E2E2E2E2E2E2E2E2E2E2E2E2E2E2E2E2E2E2E2E2E2E2E2E2E2E2E2E2E2E2E2E2E2
310
E2E2E2E2E2E2E2E2E2E2E2E2E2E2E2E2E2E2E2E2E2E2E2E2E2E2E2E2E2E2E2E2E2F5E2E2E2F5F5E2E2E2F5F5F5F5F5F5F5F5E2E2E2E2E2E2E2E2E2F5F5F5F5F5F5F5F5F5F5F5F5F5F5F5F5E2E2E2E2E2E2E2E2E2F5F5F5F5F5F5F5F5F5F5F5F5F5F5F5E2E2E2E2E2E2E2E2E2F5F5F5F5F5F5F5F5F5F5F5F5F5F5F5F5E2E2E2
310
E2E2E2E2E2F5F5F5F5F5F5F5F5F5F5F5F5F5F5F5F5E2E2E2E2E2E2E2E2E2F5F5F5F5F5F5F5F5F5F5F5F5F5F5F5E2E2E2E2E2E2E2E2E2F5F5F5F5F5F5F5F5F5F5F5F5F5F5F5F5E2E2E2E2E2E2E2E2E2F5F5F5F5F5F5F5F5E2E2E2F5F5E2E2E2E2E2E2E2E2E2E2E2E2E2E2E2E2E2E2E2E2E2E2E2E2E2E2E2E2E2E2E2E2E2E2E2
310
E2E2E2E2E2E2E2E2E2E2E2E2E2E2E2E2E2E2E2E2E2E2E2E2E2E2E2E2E2E2E2E2E2E2E2E2E2E2E2E2E2E2E2E2E2E2E2E2E2E2E2E2E2E2E2E2E2E2E2E2E2E2E2E2E2E2E2E2E2E2E2E2E2E2E2E2E2E2E2E2E2E2E2E2E2E2E2E2E2E2E2E2E2E2E2E2E2E2E2E2E2E2E2E2E2E2E2E2E2E2E2E2E2E2E2E2E2E2E2E2E2E2E2E2E2E2E2
310
E2E2E2E2E2E2E2E2E2E2E2E2E2E2E2E2F5F5E2E2E2E2E2E2E2E2E2E2E2E2E2E2E2E2E2E2E2E2E2E2E2E2E2E2E2E2E2E2E2E2E2E2E2E2E2E2E2E2E2E2E2E2E2E2E2E2E2E2E2E2E2E2E2E2E2E2E2E2E2E2E2E2E2E2E2E2E2E2E2E2E2E2E2E2E2E2E2E2E2E2E2E2E2E2E2E2E2E2E2E2E2E2E2E2E2E2E2E2E2E2E2E2E2E2E2E2E2
310
E2E2E2E2E2E2E2E2E2E2E2E2E2E2E2E2E2E2E2E2E2E2E2E2E2E2E2E2E2E2E2E2E2E2E2E2E2E2E2E2E2E2E2E2E2E2E2E2E2E2E2E2E2E2E2E2E2E2E2E2E2E2E2E2E2E2E2E2E2F5F5E2E2E2E2E2E2E2E2E2E2E2E2E2E2E2E2E2E2E2E2E2E2E2E2E2E2E2E2E2E2E2E2E2E2E2E2E2E2E2E2E2E2E2E2E2E2E2E2E2E2E2E2E2E2E2E2
310
E2E2E2E2E2E2E2E2E2E2E2E2E2E2E2E2E2E2E2E2E2E2E2E2E2E2E2E2E2E2E2E2E2E2E2E2E2E2E2E2E2E2E2E2E2E2E2E2E2E2E2E2E2E2E2E2E2E2E2E2E2E2E2E2E2E2E2E2E2E2E2E2E2E2E2E2E2E2E2E2E2E2E2E2E2E2E2E2E2E2E2E2E2E2E2E2E2E2E2E2E2E2E2E2E2E2E2E2E2E2E2E2E2E2E2E2E2E2E2E2E2E2F5F5E2E2E2
310
E2E2E2E2E2E2E2E2E2E2E2E2E2E2E2E2E2E2E2E2E2E2E2E2E2E2E2E2E2E2E2E2E2E2E2E2E2E2E2E2E2E2E2E2E2E2E2E2E2E2E2E2E2E2E2E2E2E2E2E2E2E2E2E2E2E2E2E2E2E2E2E2E2E2E2E2E2E2E2E2E2E2E2E2E2E2E2E2E2E2E2E2E2E2E2E2E2E2E2E2E2E2E2E2E2E2E2E2E2E2E2E2E2E2E2E2E2E2E2E2E2E2E2E2E2E2E2
310
E2E2E2E2E2E2E2E2E2E2E2E2E2E2E2E2E2E2E2E2E2E2E2E2E2E2E2E2E2E2E2E2E2E2E2E2E2E2E2E2E2E2E2E2E2E2E2E2F5
  0
XRECORD
  5
599C8
102
{ACAD_REACTORS
330
599C7
102
}
330
599C7
100
AcDbXrecord
280
     1
102
SHADEPLOT
 70
     0
102
SHADEPLOTRESLEVEL
 70
     2
102
SHADEPLOTCUSTOMDPI
 70
   300
  0
ENDSEC
  0
EOF
