  0
SECTION
  2
HEADER
  9
$ACADVER
  1
AC1015
  9
$ACADMAINTVER
 70
    20
  9
$DWGCODEPAGE
  3
ANSI_932
  9
$INSBASE
 10
0.0
 20
0.0
 30
0.0
  9
$EXTMIN
 10
-35.91981069511872
 20
-141.4663706349368
 30
0.0
  9
$EXTMAX
 10
119.4333333333333
 20
188.2812311338427
 30
0.0
  9
$LIMMIN
 10
0.0
 20
0.0
  9
$LIMMAX
 10
420.0
 20
297.0
  9
$ORTHOMODE
 70
     1
  9
$REGENMODE
 70
     1
  9
$FILLMODE
 70
     1
  9
$QTEXTMODE
 70
     0
  9
$MIRRTEXT
 70
     1
  9
$LTSCALE
 40
1.0
  9
$ATTMODE
 70
     1
  9
$TEXTSIZE
 40
3.5
  9
$TRACEWID
 40
1.0
  9
$TEXTSTYLE
  7
simplex
  9
$CLAYER
  8
0
  9
$CELTYPE
  6
ByLayer
  9
$CECOLOR
 62
   256
  9
$CELTSCALE
 40
1.0
  9
$DISPSILH
 70
     0
  9
$DIMSCALE
 40
0.0
  9
$DIMASZ
 40
3.5
  9
$DIMEXO
 40
0.0
  9
$DIMDLI
 40
0.38
  9
$DIMRND
 40
0.0
  9
$DIMDLE
 40
0.0
  9
$DIMEXE
 40
1.5
  9
$DIMTP
 40
0.0
  9
$DIMTM
 40
0.0
  9
$DIMTXT
 40
3.5
  9
$DIMCEN
 40
0.09
  9
$DIMTSZ
 40
0.0
  9
$DIMTOL
 70
     0
  9
$DIMLIM
 70
     0
  9
$DIMTIH
 70
     0
  9
$DIMTOH
 70
     0
  9
$DIMSE1
 70
     0
  9
$DIMSE2
 70
     0
  9
$DIMTAD
 70
     1
  9
$DIMZIN
 70
     8
  9
$DIMBLK
  1

  9
$DIMASO
 70
     1
  9
$DIMSHO
 70
     1
  9
$DIMPOST
  1

  9
$DIMAPOST
  1

  9
$DIMALT
 70
     0
  9
$DIMALTD
 70
     2
  9
$DIMALTF
 40
25.4
  9
$DIMLFAC
 40
1.0
  9
$DIMTOFL
 70
     0
  9
$DIMTVP
 40
0.0
  9
$DIMTIX
 70
     0
  9
$DIMSOXD
 70
     0
  9
$DIMSAH
 70
     0
  9
$DIMBLK1
  1

  9
$DIMBLK2
  1

  9
$DIMSTYLE
  2
コピー - ISO-25
  9
$DIMCLRD
 70
   256
  9
$DIMCLRE
 70
   256
  9
$DIMCLRT
 70
   256
  9
$DIMTFAC
 40
1.0
  9
$DIMGAP
 40
2.299999999999998
  9
$DIMJUST
 70
     0
  9
$DIMSD1
 70
     0
  9
$DIMSD2
 70
     0
  9
$DIMTOLJ
 70
     1
  9
$DIMTZIN
 70
     8
  9
$DIMALTZ
 70
     0
  9
$DIMALTTZ
 70
     0
  9
$DIMUPT
 70
     0
  9
$DIMDEC
 70
     2
  9
$DIMTDEC
 70
     2
  9
$DIMALTU
 70
     2
  9
$DIMALTTD
 70
     2
  9
$DIMTXSTY
  7
simplex
  9
$DIMAUNIT
 70
     0
  9
$DIMADEC
 70
     0
  9
$DIMALTRND
 40
0.0
  9
$DIMAZIN
 70
     0
  9
$DIMDSEP
 70
    46
  9
$DIMATFIT
 70
     3
  9
$DIMFRAC
 70
     0
  9
$DIMLDRBLK
  1

  9
$DIMLUNIT
 70
     2
  9
$DIMLWD
 70
    -1
  9
$DIMLWE
 70
    -1
  9
$DIMTMOVE
 70
     0
  9
$LUNITS
 70
     2
  9
$LUPREC
 70
     4
  9
$SKETCHINC
 40
1.0
  9
$FILLETRAD
 40
0.8
  9
$AUNITS
 70
     0
  9
$AUPREC
 70
     0
  9
$MENU
  1
.
  9
$ELEVATION
 40
0.0
  9
$PELEVATION
 40
0.0
  9
$THICKNESS
 40
0.0
  9
$LIMCHECK
 70
     0
  9
$CHAMFERA
 40
10.0
  9
$CHAMFERB
 40
10.0
  9
$CHAMFERC
 40
20.0
  9
$CHAMFERD
 40
0.0
  9
$SKPOLY
 70
     0
  9
$TDCREATE
 40
2455489.391063368
  9
$TDUCREATE
 40
2455489.057730035
  9
$TDUPDATE
 40
2458948.443007188
  9
$TDUUPDATE
 40
2458948.109673854
  9
$TDINDWG
 40
2.671679387
  9
$TDUSRTIMER
 40
2.671625810
  9
$USRTIMER
 70
     1
  9
$ANGBASE
 50
0.0
  9
$ANGDIR
 70
     0
  9
$PDMODE
 70
     0
  9
$PDSIZE
 40
0.0
  9
$PLINEWID
 40
0.0
  9
$SPLFRAME
 70
     0
  9
$SPLINETYPE
 70
     6
  9
$SPLINESEGS
 70
     8
  9
$HANDSEED
  5
97751
  9
$SURFTAB1
 70
     6
  9
$SURFTAB2
 70
     6
  9
$SURFTYPE
 70
     6
  9
$SURFU
 70
     6
  9
$SURFV
 70
     6
  9
$UCSBASE
  2

  9
$UCSNAME
  2

  9
$UCSORG
 10
0.0
 20
0.0
 30
0.0
  9
$UCSXDIR
 10
1.0
 20
0.0
 30
0.0
  9
$UCSYDIR
 10
0.0
 20
1.0
 30
0.0
  9
$UCSORTHOREF
  2

  9
$UCSORTHOVIEW
 70
     0
  9
$UCSORGTOP
 10
0.0
 20
0.0
 30
0.0
  9
$UCSORGBOTTOM
 10
0.0
 20
0.0
 30
0.0
  9
$UCSORGLEFT
 10
0.0
 20
0.0
 30
0.0
  9
$UCSORGRIGHT
 10
0.0
 20
0.0
 30
0.0
  9
$UCSORGFRONT
 10
0.0
 20
0.0
 30
0.0
  9
$UCSORGBACK
 10
0.0
 20
0.0
 30
0.0
  9
$PUCSBASE
  2

  9
$PUCSNAME
  2

  9
$PUCSORG
 10
0.0
 20
0.0
 30
0.0
  9
$PUCSXDIR
 10
1.0
 20
0.0
 30
0.0
  9
$PUCSYDIR
 10
0.0
 20
1.0
 30
0.0
  9
$PUCSORTHOREF
  2

  9
$PUCSORTHOVIEW
 70
     0
  9
$PUCSORGTOP
 10
0.0
 20
0.0
 30
0.0
  9
$PUCSORGBOTTOM
 10
0.0
 20
0.0
 30
0.0
  9
$PUCSORGLEFT
 10
0.0
 20
0.0
 30
0.0
  9
$PUCSORGRIGHT
 10
0.0
 20
0.0
 30
0.0
  9
$PUCSORGFRONT
 10
0.0
 20
0.0
 30
0.0
  9
$PUCSORGBACK
 10
0.0
 20
0.0
 30
0.0
  9
$USERI1
 70
     0
  9
$USERI2
 70
     0
  9
$USERI3
 70
     0
  9
$USERI4
 70
     0
  9
$USERI5
 70
     0
  9
$USERR1
 40
0.0
  9
$USERR2
 40
0.0
  9
$USERR3
 40
0.0
  9
$USERR4
 40
0.0
  9
$USERR5
 40
0.0
  9
$WORLDVIEW
 70
     1
  9
$SHADEDGE
 70
     3
  9
$SHADEDIF
 70
    70
  9
$TILEMODE
 70
     1
  9
$MAXACTVP
 70
    64
  9
$PINSBASE
 10
0.0
 20
0.0
 30
0.0
  9
$PLIMCHECK
 70
     0
  9
$PEXTMIN
 10
26.66999878883364
 20
20.31999878883365
 30
0.0
  9
$PEXTMAX
 10
240.0299890995025
 20
182.8799890995025
 30
0.0
  9
$PLIMMIN
 10
-6.350006103515625
 20
-6.349999904632567
  9
$PLIMMAX
 10
273.0499877929688
 20
209.5499939918518
  9
$UNITMODE
 70
     0
  9
$VISRETAIN
 70
     1
  9
$PLINEGEN
 70
     0
  9
$PSLTSCALE
 70
     1
  9
$TREEDEPTH
 70
  3020
  9
$CMLSTYLE
  2
Standard
  9
$CMLJUST
 70
     0
  9
$CMLSCALE
 40
20.0
  9
$PROXYGRAPHICS
 70
     1
  9
$MEASUREMENT
 70
     1
  9
$CELWEIGHT
370
    -1
  9
$ENDCAPS
280
     0
  9
$JOINSTYLE
280
     0
  9
$LWDISPLAY
290
     0
  9
$INSUNITS
 70
     4
  9
$HYPERLINKBASE
  1

  9
$STYLESHEET
  1

  9
$XEDIT
290
     1
  9
$CEPSNTYPE
380
     0
  9
$PSTYLEMODE
290
     1
  9
$FINGERPRINTGUID
  2
{1FA00754-08B4-4C19-8986-F421CDCE9A45}
  9
$VERSIONGUID
  2
{BB54F487-90BD-45ED-A820-64B3B6C09FDB}
  9
$EXTNAMES
290
     1
  9
$PSVPSCALE
 40
0.0
  9
$OLESTARTUP
290
     0
  0
ENDSEC
  0
SECTION
  2
CLASSES
  0
CLASS
  1
ACDBDICTIONARYWDFLT
  2
AcDbDictionaryWithDefault
  3
ObjectDBX Classes
 90
        0
280
     0
281
     0
  0
CLASS
  1
ACDBPLACEHOLDER
  2
AcDbPlaceHolder
  3
ObjectDBX Classes
 90
    32768
280
     0
281
     0
  0
CLASS
  1
LAYOUT
  2
AcDbLayout
  3
ObjectDBX Classes
 90
    32768
280
     0
281
     0
  0
CLASS
  1
DICTIONARYVAR
  2
AcDbDictionaryVar
  3
ObjectDBX Classes
 90
        0
280
     0
281
     0
  0
CLASS
  1
TABLESTYLE
  2
AcDbTableStyle
  3
ObjectDBX Classes
 90
     4095
280
     0
281
     0
  0
CLASS
  1
SORTENTSTABLE
  2
AcDbSortentsTable
  3
ObjectDBX Classes
 90
        0
280
     0
281
     0
  0
CLASS
  1
DIMASSOC
  2
AcDbDimAssoc
  3
"AcDbDimAssoc|Product Desc:     AcDim ARX App For Dimension|Company:          Autodesk, Inc.|WEB Address:      www.autodesk.com"
 90
        0
280
     0
281
     0
  0
CLASS
  1
ACAD_EVALUATION_GRAPH
  2
AcDbEvalGraph
  3
ObjectDBX Classes
 90
    33921
280
     0
281
     0
  0
CLASS
  1
ACAECUSTOBJ
  2
AcAeEditorObj
  3
AcAeEditorObj
 90
    33792
280
     0
281
     0
  0
CLASS
  1
ACDB_DYNAMICBLOCKPURGEPREVENTER_VERSION
  2
AcDbDynamicBlockPurgePreventer
  3
ObjectDBX Classes
 90
    33921
280
     0
281
     0
  0
CLASS
  1
MATERIAL
  2
AcDbMaterial
  3
ObjectDBX Classes
 90
     1153
280
     0
281
     0
  0
CLASS
  1
VISUALSTYLE
  2
AcDbVisualStyle
  3
ObjectDBX Classes
 90
     4095
280
     0
281
     0
  0
CLASS
  1
SCALE
  2
AcDbScale
  3
ObjectDBX Classes
 90
     1153
280
     0
281
     0
  0
CLASS
  1
MLEADERSTYLE
  2
AcDbMLeaderStyle
  3
ACDB_MLEADERSTYLE_CLASS
 90
     4095
280
     0
281
     0
  0
CLASS
  1
ACDBSECTIONVIEWSTYLE
  2
AcDbSectionViewStyle
  3
ObjectDBX Classes
 90
     1025
280
     0
281
     0
  0
CLASS
  1
ACDBDETAILVIEWSTYLE
  2
AcDbDetailViewStyle
  3
ObjectDBX Classes
 90
     1025
280
     0
281
     0
  0
CLASS
  1
CELLSTYLEMAP
  2
AcDbCellStyleMap
  3
ObjectDBX Classes
 90
     1152
280
     0
281
     0
  0
CLASS
  1
ACDBPLACEHOLDER
  2
AcDbPlaceHolder
  3
ObjectDBX Classes
 90
    32768
280
     0
281
     0
  0
CLASS
  1
LAYOUT
  2
AcDbLayout
  3
ObjectDBX Classes
 90
    32768
280
     0
281
     0
  0
CLASS
  1
ACDBPLACEHOLDER
  2
AcDbPlaceHolder
  3
ObjectDBX Classes
 90
    32768
280
     0
281
     0
  0
CLASS
  1
LAYOUT
  2
AcDbLayout
  3
ObjectDBX Classes
 90
    32768
280
     0
281
     0
  0
CLASS
  1
ACDBPLACEHOLDER
  2
AcDbPlaceHolder
  3
ObjectDBX Classes
 90
    32768
280
     0
281
     0
  0
CLASS
  1
LAYOUT
  2
AcDbLayout
  3
ObjectDBX Classes
 90
    32768
280
     0
281
     0
  0
CLASS
  1
ACDBPLACEHOLDER
  2
AcDbPlaceHolder
  3
ObjectDBX Classes
 90
    32768
280
     0
281
     0
  0
CLASS
  1
LAYOUT
  2
AcDbLayout
  3
ObjectDBX Classes
 90
    32768
280
     0
281
     0
  0
CLASS
  1
ACDBPLACEHOLDER
  2
AcDbPlaceHolder
  3
ObjectDBX Classes
 90
    32768
280
     0
281
     0
  0
CLASS
  1
LAYOUT
  2
AcDbLayout
  3
ObjectDBX Classes
 90
    32768
280
     0
281
     0
  0
CLASS
  1
ACDBPLACEHOLDER
  2
AcDbPlaceHolder
  3
ObjectDBX Classes
 90
        0
280
     0
281
     0
  0
CLASS
  1
LAYOUT
  2
AcDbLayout
  3
ObjectDBX Classes
 90
        0
280
     0
281
     0
  0
ENDSEC
  0
SECTION
  2
TABLES
  0
TABLE
  2
VPORT
  5
8
102
{ACAD_XDICTIONARY
360
8C34E
102
}
330
0
100
AcDbSymbolTable
 70
     1
  0
VPORT
  5
4A360
330
8
100
AcDbSymbolTableRecord
100
AcDbViewportTableRecord
  2
*Active
 70
     0
 10
0.0
 20
0.0
 11
1.0
 21
1.0
 12
12.17662762020234
 22
34.05187898780205
 13
0.0
 23
0.0
 14
10.0
 24
10.0
 15
10.0
 25
10.0
 16
0.0
 26
0.0
 36
1.0
 17
0.0
 27
0.0
 37
0.0
 40
329.7419718544662
 41
1.705156950672646
 42
50.0
 43
0.0
 44
0.0
 50
0.0
 51
0.0
 71
     0
 72
  1000
 73
     1
 74
     1
 75
     0
 76
     0
 77
     0
 78
     0
281
     0
 65
     1
110
0.0
120
0.0
130
0.0
111
1.0
121
0.0
131
0.0
112
0.0
122
1.0
132
0.0
 79
     0
146
0.0
1001
ACAD_NAV_VCDISPLAY
1070
     3
  0
ENDTAB
  0
TABLE
  2
LTYPE
  5
5
330
0
100
AcDbSymbolTable
 70
     3
  0
LTYPE
  5
14
330
5
100
AcDbSymbolTableRecord
100
AcDbLinetypeTableRecord
  2
ByBlock
 70
     0
  3

 72
    65
 73
     0
 40
0.0
  0
LTYPE
  5
15
330
5
100
AcDbSymbolTableRecord
100
AcDbLinetypeTableRecord
  2
ByLayer
 70
     0
  3

 72
    65
 73
     0
 40
0.0
  0
LTYPE
  5
16
330
5
100
AcDbSymbolTableRecord
100
AcDbLinetypeTableRecord
  2
Continuous
 70
     0
  3
Solid line
 72
    65
 73
     0
 40
0.0
  0
LTYPE
  5
4A76E
330
5
100
AcDbSymbolTableRecord
100
AcDbLinetypeTableRecord
  2
CENTER2
 70
     0
  3
Center (.5x) ___ _ ___ _ ___ _ ___ _ ___ _ ___
 72
    65
 73
     4
 40
28.575
 49
19.05
 74
     0
 49
-3.174999999999998
 74
     0
 49
3.174999999999998
 74
     0
 49
-3.174999999999998
 74
     0
  0
LTYPE
  5
87B53
330
5
100
AcDbSymbolTableRecord
100
AcDbLinetypeTableRecord
  2
HIDDEN
 70
     0
  3
Hidden __ __ __ __ __ __ __ __ __ __ __ __ __ _
 72
    65
 73
     2
 40
9.524999999999996
 49
6.349999999999997
 74
     0
 49
-3.174999999999998
 74
     0
  0
ENDTAB
  0
TABLE
  2
LAYER
  5
2
102
{ACAD_XDICTIONARY
360
E2
102
}
330
0
100
AcDbSymbolTable
 70
    10
  0
LAYER
  5
10
102
{ACAD_XDICTIONARY
360
4A86C
102
}
330
2
100
AcDbSymbolTableRecord
100
AcDbLayerTableRecord
  2
0
 70
     0
 62
     7
  6
Continuous
370
    -3
390
F
  0
LAYER
  5
31B6
330
2
100
AcDbSymbolTableRecord
100
AcDbLayerTableRecord
  2
Defpoints
 70
     0
 62
     7
  6
Continuous
290
     0
370
    -3
390
F
  0
LAYER
  5
4A772
102
{ACAD_XDICTIONARY
360
4A773
102
}
330
2
100
AcDbSymbolTableRecord
100
AcDbLayerTableRecord
  2
1
 70
     0
 62
     4
  6
Continuous
370
    50
390
F
1001
AcAecLayerStandard
1000

1000
Contour
  0
LAYER
  5
4A774
102
{ACAD_XDICTIONARY
360
4A775
102
}
330
2
100
AcDbSymbolTableRecord
100
AcDbLayerTableRecord
  2
2
 70
     0
 62
     7
  6
Continuous
370
    25
390
F
1001
AcAecLayerStandard
1000

1000
Dimension milling
  0
LAYER
  5
4A776
102
{ACAD_XDICTIONARY
360
4A777
102
}
330
2
100
AcDbSymbolTableRecord
100
AcDbLayerTableRecord
  2
4
 70
     0
 62
     2
  6
CENTER2
370
    25
390
F
1001
AcAecLayerStandard
1000

1000
Center line
  0
LAYER
  5
4A778
102
{ACAD_XDICTIONARY
360
4A779
102
}
330
2
100
AcDbSymbolTableRecord
100
AcDbLayerTableRecord
  2
cut
 70
     0
 62
     1
  6
Continuous
370
    25
390
F
1001
AcAecLayerStandard
1000

1000
contour
  0
LAYER
  5
4A77A
102
{ACAD_XDICTIONARY
360
4A77B
102
}
330
2
100
AcDbSymbolTableRecord
100
AcDbLayerTableRecord
  2
nocut
 70
     0
 62
     7
  6
Continuous
370
    25
390
F
1001
AcAecLayerStandard
1000

1000
contour
  0
LAYER
  5
4A77E
102
{ACAD_XDICTIONARY
360
4A77F
102
}
330
2
100
AcDbSymbolTableRecord
100
AcDbLayerTableRecord
  2
sk2
 70
     0
 62
     7
  6
Continuous
370
    25
390
F
1001
AcAecLayerStandard
1000

1000
sk2 dimension
  0
LAYER
  5
4A782
102
{ACAD_XDICTIONARY
360
4A783
102
}
330
2
100
AcDbSymbolTableRecord
100
AcDbLayerTableRecord
  2
sk6
 70
     0
 62
     5
  6
Continuous
370
    35
390
F
1001
AcAecLayerStandard
1000

1000
sk6 text
  0
LAYER
  5
87B52
102
{ACAD_XDICTIONARY
360
8C34C
102
}
330
2
100
AcDbSymbolTableRecord
100
AcDbLayerTableRecord
  2
sk3
 70
     0
 62
     1
  6
HIDDEN
370
    35
390
F
1001
AcAecLayerStandard
1000

1000

  0
ENDTAB
  0
TABLE
  2
STYLE
  5
3
330
0
100
AcDbSymbolTable
 70
     2
  0
STYLE
  5
11
330
3
100
AcDbSymbolTableRecord
100
AcDbTextStyleTableRecord
  2
Standard
 70
     0
 40
0.0
 41
1.0
 50
0.0
 71
     0
 42
2.5
  3
txt.shx
  4
@extfont2.shx
  0
STYLE
  5
24A
330
3
100
AcDbSymbolTableRecord
100
AcDbTextStyleTableRecord
  2
simplex
 70
     0
 40
3.5
 41
1.0
 50
0.0
 71
     0
 42
3.5
  3
txt.shx
  4

  0
ENDTAB
  0
TABLE
  2
VIEW
  5
6
330
0
100
AcDbSymbolTable
 70
     0
  0
ENDTAB
  0
TABLE
  2
UCS
  5
7
330
0
100
AcDbSymbolTable
 70
     0
  0
ENDTAB
  0
TABLE
  2
APPID
  5
9
330
0
100
AcDbSymbolTable
 70
    31
  0
APPID
  5
12
330
9
100
AcDbSymbolTableRecord
100
AcDbRegAppTableRecord
  2
ACAD
 70
     0
  0
APPID
  5
D2
330
9
100
AcDbSymbolTableRecord
100
AcDbRegAppTableRecord
  2
AcAecLayerStandard
 70
     0
  0
APPID
  5
E6
330
9
100
AcDbSymbolTableRecord
100
AcDbRegAppTableRecord
  2
ACAD_DSTYLE_DIMTEXT_FILL
 70
     0
  0
APPID
  5
4C84
330
9
100
AcDbSymbolTableRecord
100
AcDbRegAppTableRecord
  2
ACAD_EXEMPT_FROM_CAD_STANDARDS
 70
     0
  0
APPID
  5
3493E
330
9
100
AcDbSymbolTableRecord
100
AcDbRegAppTableRecord
  2
DCO15
 70
     0
  0
APPID
  5
3BAB0
330
9
100
AcDbSymbolTableRecord
100
AcDbRegAppTableRecord
  2
ACAD_DSTYLE_DIMEXT_ENABLED
 70
     0
  0
APPID
  5
3BAB1
330
9
100
AcDbSymbolTableRecord
100
AcDbRegAppTableRecord
  2
ACAD_DSTYLE_DIMEXT_LENGTH
 70
     0
  0
APPID
  5
3BEB4
330
9
100
AcDbSymbolTableRecord
100
AcDbRegAppTableRecord
  2
ACAUTHENVIRON
 70
     0
  0
APPID
  5
3BEB7
330
9
100
AcDbSymbolTableRecord
100
AcDbRegAppTableRecord
  2
AcDbDynamicBlockTrueName
 70
     0
  0
APPID
  5
3BEB8
330
9
100
AcDbSymbolTableRecord
100
AcDbRegAppTableRecord
  2
AcDbDynamicBlockGUID
 70
     0
  0
APPID
  5
3BEBA
330
9
100
AcDbSymbolTableRecord
100
AcDbRegAppTableRecord
  2
AcDbBlockRepETag
 70
     0
  0
APPID
  5
4A453
330
9
100
AcDbSymbolTableRecord
100
AcDbRegAppTableRecord
  2
ACAD_PSEXT
 70
     0
  0
APPID
  5
4A454
330
9
100
AcDbSymbolTableRecord
100
AcDbRegAppTableRecord
  2
AcadAnnotative
 70
     0
  0
APPID
  5
4A455
330
9
100
AcDbSymbolTableRecord
100
AcDbRegAppTableRecord
  2
ACAD_DSTYLE_DIMJAG
 70
     0
  0
APPID
  5
4A456
330
9
100
AcDbSymbolTableRecord
100
AcDbRegAppTableRecord
  2
ACAD_DSTYLE_DIMTALN
 70
     0
  0
APPID
  5
4A457
330
9
100
AcDbSymbolTableRecord
100
AcDbRegAppTableRecord
  2
ACAD_NAV_VCDISPLAY
 70
     0
  0
APPID
  5
4A787
330
9
100
AcDbSymbolTableRecord
100
AcDbRegAppTableRecord
  2
ACAD_DSTYLE_DIMINSPECT
 70
     0
  0
APPID
  5
4A788
330
9
100
AcDbSymbolTableRecord
100
AcDbRegAppTableRecord
  2
GENIUS_GENDTOL_13
 70
     0
  0
APPID
  5
4A789
330
9
100
AcDbSymbolTableRecord
100
AcDbRegAppTableRecord
  2
ZWMCAD_GENSTANDARDFRAME_13_
 70
     0
  0
APPID
  5
4A78A
330
9
100
AcDbSymbolTableRecord
100
AcDbRegAppTableRecord
  2
ZW_RECESS_XDATA
 70
     0
  0
APPID
  5
4A78B
330
9
100
AcDbSymbolTableRecord
100
AcDbRegAppTableRecord
  2
ZW_FAC_XDATA
 70
     0
  0
APPID
  5
4A78C
330
9
100
AcDbSymbolTableRecord
100
AcDbRegAppTableRecord
  2
ZW_FLC_XDATA
 70
     0
  0
APPID
  5
4A78D
330
9
100
AcDbSymbolTableRecord
100
AcDbRegAppTableRecord
  2
ZW_SUPERPART
 70
     0
  0
APPID
  5
4A78E
330
9
100
AcDbSymbolTableRecord
100
AcDbRegAppTableRecord
  2
ZW_SUPERSYMBOL
 70
     0
  0
APPID
  5
4A78F
330
9
100
AcDbSymbolTableRecord
100
AcDbRegAppTableRecord
  2
ZW_SUPERSHAFT
 70
     0
  0
APPID
  5
4A790
330
9
100
AcDbSymbolTableRecord
100
AcDbRegAppTableRecord
  2
ZWMCAD_GENFRAME_13_
 70
     0
  0
APPID
  5
4A791
330
9
100
AcDbSymbolTableRecord
100
AcDbRegAppTableRecord
  2
ACAD_MLEADERVER
 70
     0
  0
APPID
  5
4A792
330
9
100
AcDbSymbolTableRecord
100
AcDbRegAppTableRecord
  2
ACAD_DSTYLE_DIMRADIAL_EXTENSION
 70
     0
  0
APPID
  5
885F1
330
9
100
AcDbSymbolTableRecord
100
AcDbRegAppTableRecord
  2
ZWMCAD_GENSCA_13_
 70
     0
  0
APPID
  5
885EF
330
9
100
AcDbSymbolTableRecord
100
AcDbRegAppTableRecord
  2
ACAD_DSTYLE_DIMRADIAL_EXTE
 70
     0
  0
APPID
  5
885EE
330
9
100
AcDbSymbolTableRecord
100
AcDbRegAppTableRecord
  2
ZWMCAD_GENSTANDARDFRAME_13
 70
     0
  0
ENDTAB
  0
TABLE
  2
DIMSTYLE
  5
A
330
0
100
AcDbSymbolTable
 70
     2
100
AcDbDimStyleTable
 71
    21
340
1BF
340
3527
340
90771
340
907A6
340
907AC
340
907B1
340
907B7
340
919EE
340
919F4
340
919F9
340
919FF
340
91A04
340
91A0A
340
91A0F
340
91A15
340
91A1A
340
91A20
340
91A25
340
91A2B
340
91A30
340
91A36
  0
DIMSTYLE
105
1BF
102
{ACAD_REACTORS
330
96C20
330
96C35
330
96C21
330
96C24
330
96C27
330
96C2A
330
9766C
102
}
330
A
100
AcDbSymbolTableRecord
100
AcDbDimStyleTableRecord
  2
コピー - ISO-25
 70
     0
 40
0.0
 41
3.5
 42
0.0
 44
1.5
 73
     0
 74
     0
 77
     1
 78
     8
140
3.5
147
2.299999999999998
176
   256
177
   256
271
     2
178
   256
271
     2
272
     2
284
     8
340
24A
371
    -1
372
    -1
  0
DIMSTYLE
105
3527
330
A
100
AcDbSymbolTableRecord
100
AcDbDimStyleTableRecord
  2
STANDARD
 70
     0
 41
3.0
 47
0.001
 48
0.001
 71
     1
 73
     0
 74
     0
 77
     1
 78
     8
140
4.0
271
     3
272
     3
284
     8
340
11
341
34B1
342
34B1
343
34B1
344
34B1
  0
ENDTAB
  0
TABLE
  2
BLOCK_RECORD
  5
1
330
0
100
AcDbSymbolTable
 70
    11
  0
BLOCK_RECORD
  5
1F
102
{ACAD_XDICTIONARY
360
31EE
102
}
330
1
100
AcDbSymbolTableRecord
100
AcDbBlockTableRecord
  2
*Model_Space
340
22
  0
BLOCK_RECORD
  5
55
330
1
100
AcDbSymbolTableRecord
100
AcDbBlockTableRecord
  2
*Paper_Space
340
56
  0
BLOCK_RECORD
  5
50
330
1
100
AcDbSymbolTableRecord
100
AcDbBlockTableRecord
  2
*Paper_Space0000000
340
51
  0
BLOCK_RECORD
  5
34B1
330
1
100
AcDbSymbolTableRecord
100
AcDbBlockTableRecord
  2
_OPEN
340
0
  0
BLOCK_RECORD
  5
4A6D6
102
{ACAD_XDICTIONARY
360
4A6D7
102
}
330
1
100
AcDbSymbolTableRecord
100
AcDbBlockTableRecord
  2
zero block
340
0
102
{BLKREFS
331
8BFE6
331
4A793
331
880DD
331
882D3
331
87B7F
331
87D7D
331
90190
331
903FC
331
90821
331
90A84
331
90E49
331
910AD
331
91473
331
916B3
331
91AA1
331
91CE2
331
95FBC
331
9634A
331
96577
331
968D6
331
96AFA
331
96E59
331
971AA
331
9523F
331
95477
331
957E9
331
95A1C
331
95D8B
331
8BD57
331
92098
331
922DA
331
9267F
331
928BF
331
92B61
331
92ED7
331
8FB3B
331
8FDCA
331
93114
331
934B4
331
936F3
331
93AD2
331
93D08
331
940A1
331
942D2
331
94691
331
948CF
331
94C70
331
94EA9
102
}
1001
AcDbDynamicBlockGUID
1000
{A89DF4EB-B2CB-439E-AC69-1EAC9F242D1C}
1001
AcDbBlockRepETag
1070
     1
1071
        7
1001
ACAD
1000
DesignCenter Data
1002
{
1070
     1
1070
     4
1002
}
  0
BLOCK_RECORD
  5
87D73
330
1
100
AcDbSymbolTableRecord
100
AcDbBlockTableRecord
  2
_None
340
0
102
{BLKREFS
331
8C250
331
8C292
331
8C2BE
331
8C2FE
331
8C332
331
87FA2
331
87FBD
331
87FC5
331
88042
331
88238
331
884B1
331
884F0
331
88512
331
885AA
331
87D72
331
87F63
331
9002A
331
9006F
331
900CE
331
90117
331
903C3
331
9062B
331
90673
331
906DD
331
90724
331
909A6
331
90CA0
331
90CEB
331
90D5B
331
90DBF
331
90FCE
331
912CA
331
91315
331
9135A
331
913E9
331
915B9
331
91895
331
918E5
331
91966
331
91989
331
91BE7
331
91EC5
331
91F15
331
91F6B
331
95F6A
331
961D5
331
961E8
331
96235
331
96261
331
96491
331
96752
331
9679F
331
967EC
331
96818
331
96A1D
331
96CCC
331
96D19
331
96D91
331
96DBD
331
97553
331
950B4
331
950F8
331
95155
331
9519C
331
953BD
331
95681
331
956C5
331
95722
331
9573C
331
95771
331
95967
331
95C21
331
95C65
331
95CCC
331
95D13
331
8BC93
331
8BCED
331
8BF27
331
91FFC
331
921DE
331
924BE
331
9250E
331
9258F
331
925B2
331
9289C
331
92AD1
331
92B15
331
92D7E
331
92E18
331
92E5F
331
8FA29
331
8FA4D
331
8FAA7
331
8FD00
331
93052
331
93323
331
93367
331
933C4
331
9343C
331
9362F
331
93904
331
93948
331
9397A
331
939E2
331
93A5A
331
93CFD
331
93F26
331
93F64
331
93FB1
331
9403A
331
9420F
331
944D5
331
94519
331
945A7
331
945EE
331
947FF
331
94ADF
331
94B23
331
94B80
331
94BF8
331
94E84
331
8A12B
331
8DEC1
102
}
  0
BLOCK_RECORD
  5
96CBC
330
1
100
AcDbSymbolTableRecord
100
AcDbBlockTableRecord
  2
*D295444
340
0
  0
BLOCK_RECORD
  5
96CC8
330
1
100
AcDbSymbolTableRecord
100
AcDbBlockTableRecord
  2
*D296555
340
0
  0
BLOCK_RECORD
  5
96CD3
330
1
100
AcDbSymbolTableRecord
100
AcDbBlockTableRecord
  2
*D297666
340
0
  0
BLOCK_RECORD
  5
96CDF
330
1
100
AcDbSymbolTableRecord
100
AcDbBlockTableRecord
  2
*D298777
340
0
  0
BLOCK_RECORD
  5
96CEB
330
1
100
AcDbSymbolTableRecord
100
AcDbBlockTableRecord
  2
*D299888
340
0
  0
BLOCK_RECORD
  5
96CF7
330
1
100
AcDbSymbolTableRecord
100
AcDbBlockTableRecord
  2
*D300999
340
0
  0
BLOCK_RECORD
  5
9766D
330
1
100
AcDbSymbolTableRecord
100
AcDbBlockTableRecord
  2
*D131010
340
0
  0
ENDTAB
  0
ENDSEC
  0
SECTION
  2
BLOCKS
  0
BLOCK
  5
20
330
1F
100
AcDbEntity
  8
0
100
AcDbBlockBegin
  2
*Model_Space
 70
     0
 10
0.0
 20
0.0
 30
0.0
  3
*Model_Space
  1

  0
ENDBLK
  5
21
330
1F
100
AcDbEntity
  8
0
100
AcDbBlockEnd
  0
BLOCK
  5
57
330
55
100
AcDbEntity
 67
     1
  8
0
100
AcDbBlockBegin
  2
*Paper_Space
 70
     0
 10
0.0
 20
0.0
 30
0.0
  3
*Paper_Space
  1

  0
ENDBLK
  5
58
330
55
100
AcDbEntity
 67
     1
  8
0
100
AcDbBlockEnd
  0
BLOCK
  5
52
330
50
100
AcDbEntity
  8
0
100
AcDbBlockBegin
  2
*Paper_Space0000000
 70
     0
 10
0.0
 20
0.0
 30
0.0
  3
*Paper_Space0000000
  1

  0
VIEWPORT
  5
6B
102
{ACAD_XDICTIONARY
360
87B05
102
}
330
50
100
AcDbEntity
  8
0
100
AcDbViewport
 10
264.3775031494645
 20
160.4455827878762
 30
0.0
 40
567.6219612953822
 41
282.2272140146125
 68
     1
 69
    -1
 12
264.3775031494645
 22
160.4455827878762
 13
0.0
 23
0.0
 14
10.0
 24
10.0
 15
10.0
 25
10.0
 16
0.0
 26
0.0
 36
1.0
 17
0.0
 27
0.0
 37
0.0
 42
50.0
 43
0.0
 44
0.0
 45
282.2272140146125
 50
0.0
 51
0.0
 72
  1000
 90
    32864
  1

281
     0
 71
     1
 74
     0
110
0.0
120
0.0
130
0.0
111
1.0
121
0.0
131
0.0
112
0.0
122
1.0
132
0.0
 79
     0
146
0.0
1001
ACAD
1000
MVIEW
1002
{
1070
    16
1010
0.0
1020
0.0
1030
0.0
1010
0.0
1020
0.0
1030
1.0
1040
0.0
1040
282.2272140146125
1040
264.3775031494645
1040
160.4455827878762
1040
50.0
1040
0.0
1040
0.0
1070
     0
1070
  1000
1070
     0
1070
     3
1070
     0
1070
     0
1070
     0
1070
     0
1040
0.0
1040
0.0
1040
0.0
1040
10.0
1040
10.0
1040
10.0
1040
10.0
1070
     0
1002
{
1002
}
1002
}
  0
VIEWPORT
  5
6D
102
{ACAD_XDICTIONARY
360
87B07
102
}
330
50
100
AcDbEntity
  8
0
100
AcDbViewport
 10
133.3499939441681
 20
101.5999939441681
 30
0.0
 40
213.3599903106689
 41
162.5599903106689
 68
     2
 69
    -1
 12
210.0
 22
148.5
 13
0.0
 23
0.0
 14
10.0
 24
10.0
 15
10.0
 25
10.0
 16
0.0
 26
0.0
 36
1.0
 17
0.0
 27
0.0
 37
0.0
 42
50.0
 43
0.0
 44
0.0
 45
324.0677920111345
 50
0.0
 51
0.0
 72
   100
 90
    32864
  1

281
     0
 71
     1
 74
     0
110
0.0
120
0.0
130
0.0
111
1.0
121
0.0
131
0.0
112
0.0
122
1.0
132
0.0
 79
     0
146
0.0
1001
ACAD
1000
MVIEW
1002
{
1070
    16
1010
0.0
1020
0.0
1030
0.0
1010
0.0
1020
0.0
1030
1.0
1040
0.0
1040
324.0677920111345
1040
210.0
1040
148.5
1040
50.0
1040
0.0
1040
0.0
1070
     0
1070
   100
1070
     0
1070
     3
1070
     0
1070
     0
1070
     0
1070
     0
1040
0.0
1040
0.0
1040
0.0
1040
10.0
1040
10.0
1040
10.0
1040
10.0
1070
     0
1002
{
1002
}
1002
}
  0
ENDBLK
  5
53
330
50
100
AcDbEntity
  8
0
100
AcDbBlockEnd
  0
BLOCK
  5
34B2
330
34B1
100
AcDbEntity
  8
0
100
AcDbBlockBegin
  2
_OPEN
 70
     0
 10
0.0
 20
0.0
 30
0.0
  3
_OPEN
  1

  0
LINE
  5
34B3
330
34B1
100
AcDbEntity
  8
0
  6
ByBlock
 62
     0
100
AcDbLine
 10
0.0
 20
0.0
 30
0.0
 11
-1.0
 21
0.1766666667
 31
0.0
  0
LINE
  5
34B4
330
34B1
100
AcDbEntity
  8
0
  6
ByBlock
 62
     0
100
AcDbLine
 10
-1.0
 20
-0.1766666667
 30
0.0
 11
0.0
 21
0.0
 31
0.0
  0
LINE
  5
34B5
330
34B1
100
AcDbEntity
  8
0
  6
ByBlock
 62
     0
100
AcDbLine
 10
-1.0
 20
0.0
 30
0.0
 11
0.0
 21
0.0
 31
0.0
  0
ENDBLK
  5
34B6
330
34B1
100
AcDbEntity
  8
0
  6
ByBlock
 62
     0
100
AcDbBlockEnd
  0
BLOCK
  5
4A6D9
330
4A6D6
100
AcDbEntity
  8
0
100
AcDbBlockBegin
  2
zero block
 70
     0
 10
0.0
 20
0.0
 30
0.0
  3
zero block
  1

  0
HATCH
  5
4A6DA
330
4A6D6
100
AcDbEntity
  8
0
 62
     7
100
AcDbHatch
 10
0.0
 20
0.0
 30
0.0
210
0.0
220
0.0
230
1.0
  2
SOLID
 70
     1
 71
     0
 91
        2
 92
        7
 72
     1
 73
     1
 93
        3
 10
0.0
 20
0.9999999999999875
 42
0.4142135623730915
 10
-1.0
 20
0.0
 42
0.0
 10
0.0
 20
0.0
 42
0.0
 97
        0
 92
        7
 72
     1
 73
     1
 93
        3
 10
1.000000000000007
 20
0.0
 42
0.0
 10
0.0
 20
0.0
 42
0.0
 10
0.0
 20
-1.0
 42
0.4142135623730974
 97
        0
 75
     0
 76
     1
 47
0.0090601366782909
 98
        2
 10
-0.380591363650975
 20
0.4885804701532896
 10
0.4350764810977559
 20
-0.4536738423704725
1001
AcDbBlockRepETag
1070
     1
1071
        0
1005
4A6DA
  0
LINE
  5
4A6DB
330
4A6D6
100
AcDbEntity
  8
0
 62
     7
 48
0.2
100
AcDbLine
 10
-1.0
 20
0.0
 30
0.0
 11
1.000000000000007
 21
0.0
 31
0.0
1001
AcDbBlockRepETag
1070
     1
1071
        1
1005
4A6DB
  0
LINE
  5
4A6DC
330
4A6D6
100
AcDbEntity
  8
0
 62
     7
 48
0.2
100
AcDbLine
 10
0.0
 20
-1.0
 30
0.0
 11
0.0
 21
0.9999999999999875
 31
0.0
1001
AcDbBlockRepETag
1070
     1
1071
        2
1005
4A6DC
  0
ARC
  5
4A6DD
330
4A6D6
100
AcDbEntity
  8
0
 62
     7
 48
0.2
100
AcDbCircle
 10
0.0
 20
0.0
 30
0.0
 40
1.0
100
AcDbArc
 50
270.0
 51
0.0
1001
AcDbBlockRepETag
1070
     1
1071
        3
1005
4A6DD
  0
ARC
  5
4A6DE
330
4A6D6
100
AcDbEntity
  8
0
 62
     7
 48
0.2
100
AcDbCircle
 10
0.0
 20
0.0
 30
0.0
 40
1.0
100
AcDbArc
 50
0.0
 51
90.0
1001
AcDbBlockRepETag
1070
     1
1071
        4
1005
4A6DE
  0
ARC
  5
4A6DF
330
4A6D6
100
AcDbEntity
  8
0
 62
     7
 48
0.2
100
AcDbCircle
 10
0.0
 20
0.0
 30
0.0
 40
1.0
100
AcDbArc
 50
180.0
 51
270.0
1001
AcDbBlockRepETag
1070
     1
1071
        5
1005
4A6DF
  0
ARC
  5
4A6E0
330
4A6D6
100
AcDbEntity
  8
0
 62
     7
 48
0.2
100
AcDbCircle
 10
0.0
 20
0.0
 30
0.0
 40
1.0
100
AcDbArc
 50
90.0
 51
180.0
1001
AcDbBlockRepETag
1070
     1
1071
        6
1005
4A6E0
  0
ENDBLK
  5
4A6E1
330
4A6D6
100
AcDbEntity
  8
0
100
AcDbBlockEnd
  0
BLOCK
  5
87D74
330
87D73
100
AcDbEntity
  8
0
100
AcDbBlockBegin
  2
_None
 70
     0
 10
0.0
 20
0.0
 30
0.0
  3
_None
  1

  0
ENDBLK
  5
87D75
330
87D73
100
AcDbEntity
  8
0
100
AcDbBlockEnd
  0
BLOCK
  5
96CC6
330
96CBC
100
AcDbEntity
  8
0
100
AcDbBlockBegin
  2
*D295444
 70
     1
 10
0.0
 20
0.0
 30
0.0
  3
*D295444
  1

  0
LINE
  5
9771C
330
96CBC
100
AcDbEntity
  8
2
100
AcDbLine
 10
0.0
 20
107.9944999988
 30
0.0
 11
0.0
 21
161.40470296945
 31
0.0
  0
LINE
  5
9771D
330
96CBC
100
AcDbEntity
  8
2
100
AcDbLine
 10
63.49999999999998
 20
126.1999999987972
 30
0.0
 11
63.49999999999998
 21
161.40470296945
 31
0.0
  0
LINE
  5
9771E
330
96CBC
100
AcDbEntity
  8
2
100
AcDbLine
 10
3.5
 20
159.90470296945
 30
0.0
 11
59.99999999999999
 21
159.90470296945
 31
0.0
  0
SOLID
  5
9771F
330
96CBC
100
AcDbEntity
  8
2
100
AcDbTrace
 10
3.5
 20
160.4880363027833
 30
0.0
 11
3.5
 21
159.3213696361166
 31
0.0
 12
0.0
 22
159.90470296945
 32
0.0
 13
0.0
 23
159.90470296945
 33
0.0
  0
SOLID
  5
97720
330
96CBC
100
AcDbEntity
  8
2
100
AcDbTrace
 10
59.99999999999999
 20
159.3213696361166
 30
0.0
 11
59.99999999999999
 21
160.4880363027833
 31
0.0
 12
63.49999999999998
 22
159.90470296945
 32
0.0
 13
63.49999999999998
 23
159.90470296945
 33
0.0
  0
MTEXT
  5
97721
330
96CBC
100
AcDbEntity
  8
2
100
AcDbMText
 10
31.74999999999999
 20
163.95470296945
 30
0.0
 40
3.5
 41
0.0
 71
     5
 72
     1
  1
\A1;63.5 [2.500"]
  7
simplex
 73
     1
 44
1.0
1001
ACAD
1000
MTEXTBEGIN
1070
    73
1070
     1
1070
    44
1040
1.0
1070
    74
1070
     0
1000
MTEXTEND
  0
POINT
  5
97722
330
96CBC
100
AcDbEntity
  8
Defpoints
 62
     0
100
AcDbPoint
 10
0.0
 20
107.9944999988
 30
0.0
  0
POINT
  5
97723
330
96CBC
100
AcDbEntity
  8
Defpoints
 62
     0
100
AcDbPoint
 10
63.49999999999998
 20
126.1999999987972
 30
0.0
  0
POINT
  5
97724
330
96CBC
100
AcDbEntity
  8
Defpoints
 62
     0
100
AcDbPoint
 10
63.49999999999998
 20
159.90470296945
 30
0.0
  0
ENDBLK
  5
96CC7
330
96CBC
100
AcDbEntity
  8
0
100
AcDbBlockEnd
  0
BLOCK
  5
96CD1
330
96CC8
100
AcDbEntity
  8
0
100
AcDbBlockBegin
  2
*D296555
 70
     1
 10
0.0
 20
0.0
 30
0.0
  3
*D296555
  1

  0
LINE
  5
97550
330
96CC8
100
AcDbEntity
  8
2
100
AcDbLine
 10
62.69999999999993
 20
126.9999999988
 30
0.0
 11
91.46277858220205
 21
126.9999999988
 31
0.0
  0
LINE
  5
97551
330
96CC8
100
AcDbEntity
  8
2
100
AcDbLine
 10
89.96277858220203
 20
123.4999999988
 30
0.0
 11
89.96277858220201
 21
-126.9999999988
 31
0.0
  0
SOLID
  5
97552
330
96CC8
100
AcDbEntity
  8
2
100
AcDbTrace
 10
90.54611191553535
 20
123.4999999988
 30
0.0
 11
89.37944524886869
 21
123.4999999988
 31
0.0
 12
89.96277858220203
 22
126.9999999988
 32
0.0
 13
89.96277858220203
 23
126.9999999988
 33
0.0
  0
INSERT
  5
97553
330
96CC8
100
AcDbEntity
  8
2
100
AcDbBlockReference
  2
_None
 10
89.96277858220201
 20
-126.9999999988
 30
0.0
 41
3.5
 42
3.5
 43
3.5
 50
270.0
  0
MTEXT
  5
97554
330
96CC8
100
AcDbEntity
  8
2
100
AcDbMText
 10
85.912778582202
 20
-1.749999999999999
 30
0.0
 40
3.5
 41
0.0
 71
     5
 72
     1
  1
\A1;%%C254 [%%c10.000"]
  7
simplex
 11
0.0000000000000001
 21
1.0
 31
0.0
 73
     1
 44
1.0
1001
ACAD
1000
MTEXTBEGIN
1070
    73
1070
     1
1070
    44
1040
1.0
1070
    74
1070
     0
1000
MTEXTEND
  0
POINT
  5
97555
330
96CC8
100
AcDbEntity
  8
Defpoints
 62
     0
100
AcDbPoint
 10
62.69999999999993
 20
126.9999999988
 30
0.0
  0
POINT
  5
97556
330
96CC8
100
AcDbEntity
  8
Defpoints
 62
     0
100
AcDbPoint
 10
62.69999999999993
 20
-126.9999999988
 30
0.0
  0
POINT
  5
97557
330
96CC8
100
AcDbEntity
  8
Defpoints
 62
     0
100
AcDbPoint
 10
89.96277858220201
 20
-126.9999999988
 30
0.0
  0
ENDBLK
  5
96CD2
330
96CC8
100
AcDbEntity
  8
0
100
AcDbBlockEnd
  0
BLOCK
  5
96CDD
330
96CD3
100
AcDbEntity
  8
0
100
AcDbBlockBegin
  2
*D297666
 70
     1
 10
0.0
 20
0.0
 30
0.0
  3
*D297666
  1

  0
LINE
  5
96DC2
330
96CD3
100
AcDbEntity
  8
sk2
100
AcDbLine
 10
12.0
 20
31.74999999890002
 30
0.0
 11
-21.57137337092333
 21
31.74999999890003
 31
0.0
  0
LINE
  5
96DC3
330
96CD3
100
AcDbEntity
  8
sk2
100
AcDbLine
 10
12.0
 20
-31.74999999890002
 30
0.0
 11
-21.57137337092334
 21
-31.74999999890002
 31
0.0
  0
LINE
  5
96DC4
330
96CD3
100
AcDbEntity
  8
sk2
100
AcDbLine
 10
-20.07137337092333
 20
28.24999999890004
 30
0.0
 11
-20.07137337092334
 21
-28.24999999890002
 31
0.0
  0
SOLID
  5
96DC5
330
96CD3
100
AcDbEntity
  8
sk2
100
AcDbTrace
 10
-19.48804003759
 20
28.24999999890004
 30
0.0
 11
-20.65470670425666
 21
28.24999999890004
 31
0.0
 12
-20.07137337092333
 22
31.74999999890003
 32
0.0
 13
-20.07137337092333
 23
31.74999999890003
 33
0.0
  0
SOLID
  5
96DC6
330
96CD3
100
AcDbEntity
  8
sk2
100
AcDbTrace
 10
-20.65470670425667
 20
-28.24999999890002
 30
0.0
 11
-19.48804003759001
 21
-28.24999999890002
 31
0.0
 12
-20.07137337092334
 22
-31.74999999890002
 32
0.0
 13
-20.07137337092334
 23
-31.74999999890002
 33
0.0
  0
MTEXT
  5
96DC7
330
96CD3
100
AcDbEntity
  8
sk2
100
AcDbMText
 10
-24.12137337092334
 20
0.000000000000004
 30
0.0
 40
3.5
 41
0.0
 71
     5
 72
     1
  1
\A1;%%C63.5 [%%c2.500"]
  7
simplex
 11
0.0000000000000001
 21
1.0
 31
0.0
 73
     1
 44
1.0
1001
ACAD
1000
MTEXTBEGIN
1070
    73
1070
     1
1070
    44
1040
1.0
1070
    74
1070
     0
1000
MTEXTEND
  0
POINT
  5
96DC8
330
96CD3
100
AcDbEntity
  8
Defpoints
 62
     0
100
AcDbPoint
 10
12.0
 20
31.74999999890002
 30
0.0
  0
POINT
  5
96DC9
330
96CD3
100
AcDbEntity
  8
Defpoints
 62
     0
100
AcDbPoint
 10
12.0
 20
-31.74999999890002
 30
0.0
  0
POINT
  5
96DCA
330
96CD3
100
AcDbEntity
  8
Defpoints
 62
     0
100
AcDbPoint
 10
-20.07137337092334
 20
-31.74999999890002
 30
0.0
  0
ENDBLK
  5
96CDE
330
96CD3
100
AcDbEntity
  8
0
100
AcDbBlockEnd
  0
BLOCK
  5
96CE9
330
96CDF
100
AcDbEntity
  8
0
100
AcDbBlockBegin
  2
*D298777
 70
     1
 10
0.0
 20
0.0
 30
0.0
  3
*D298777
  1

  0
LINE
  5
96DCB
330
96CDF
100
AcDbEntity
  8
sk2
100
AcDbLine
 10
2.0
 20
109.9944999988
 30
0.0
 11
-31.61981069511872
 21
109.9944999988
 31
0.0
  0
LINE
  5
96DCC
330
96CDF
100
AcDbEntity
  8
sk2
100
AcDbLine
 10
2.0
 20
-109.9945000012
 30
0.0
 11
-31.61981069511873
 21
-109.9945000012
 31
0.0
  0
LINE
  5
96DCD
330
96CDF
100
AcDbEntity
  8
sk2
100
AcDbLine
 10
-30.11981069511872
 20
106.4944999988
 30
0.0
 11
-30.11981069511874
 21
-106.4945000012
 31
0.0
  0
SOLID
  5
96DCE
330
96CDF
100
AcDbEntity
  8
sk2
100
AcDbTrace
 10
-29.5364773617854
 20
106.4944999988
 30
0.0
 11
-30.70314402845205
 21
106.4944999988
 31
0.0
 12
-30.11981069511872
 22
109.9944999988
 32
0.0
 13
-30.11981069511872
 23
109.9944999988
 33
0.0
  0
SOLID
  5
96DCF
330
96CDF
100
AcDbEntity
  8
sk2
100
AcDbTrace
 10
-30.70314402845206
 20
-106.4945000012
 30
0.0
 11
-29.5364773617854
 21
-106.4945000012
 31
0.0
 12
-30.11981069511874
 22
-109.9945000012
 32
0.0
 13
-30.11981069511874
 23
-109.9945000012
 33
0.0
  0
MTEXT
  5
96DD0
330
96CDF
100
AcDbEntity
  8
sk2
100
AcDbMText
 10
-34.16981069511872
 20
-0.0000000012000069
 30
0.0
 40
3.5
 41
0.0
 71
     5
 72
     1
  1
\A1;%%C219.989 [%%c8.661"]
  7
simplex
 11
0.0000000000000001
 21
1.0
 31
0.0
 73
     1
 44
1.0
1001
ACAD
1000
MTEXTBEGIN
1070
    73
1070
     1
1070
    44
1040
1.0
1070
    74
1070
     0
1000
MTEXTEND
  0
POINT
  5
96DD1
330
96CDF
100
AcDbEntity
  8
Defpoints
 62
     0
100
AcDbPoint
 10
2.0
 20
109.9944999988
 30
0.0
  0
POINT
  5
96DD2
330
96CDF
100
AcDbEntity
  8
Defpoints
 62
     0
100
AcDbPoint
 10
2.0
 20
-109.9945000012
 30
0.0
  0
POINT
  5
96DD3
330
96CDF
100
AcDbEntity
  8
Defpoints
 62
     0
100
AcDbPoint
 10
-30.11981069511874
 20
-109.9945000012
 30
0.0
  0
ENDBLK
  5
96CEA
330
96CDF
100
AcDbEntity
  8
0
100
AcDbBlockEnd
  0
BLOCK
  5
96CF5
330
96CEB
100
AcDbEntity
  8
0
100
AcDbBlockBegin
  2
*D299888
 70
     1
 10
0.0
 20
0.0
 30
0.0
  3
*D299888
  1

  0
LINE
  5
96DD4
330
96CEB
100
AcDbEntity
  8
sk2
100
AcDbLine
 10
0.0
 20
-107.9945000012
 30
0.0
 11
0.0
 21
-141.4663706349368
 31
0.0
  0
LINE
  5
96DD5
330
96CEB
100
AcDbEntity
  8
sk2
100
AcDbLine
 10
35.0
 20
-86.99999999879997
 30
0.0
 11
35.0
 21
-141.4663706349368
 31
0.0
  0
LINE
  5
96DD6
330
96CEB
100
AcDbEntity
  8
sk2
100
AcDbLine
 10
3.5
 20
-139.9663706349368
 30
0.0
 11
31.5
 21
-139.9663706349368
 31
0.0
  0
SOLID
  5
96DD7
330
96CEB
100
AcDbEntity
  8
sk2
100
AcDbTrace
 10
3.5
 20
-139.3830373016034
 30
0.0
 11
3.5
 21
-140.5497039682701
 31
0.0
 12
0.0
 22
-139.9663706349368
 32
0.0
 13
0.0
 23
-139.9663706349368
 33
0.0
  0
SOLID
  5
96DD8
330
96CEB
100
AcDbEntity
  8
sk2
100
AcDbTrace
 10
31.5
 20
-140.5497039682701
 30
0.0
 11
31.5
 21
-139.3830373016034
 31
0.0
 12
35.0
 22
-139.9663706349368
 32
0.0
 13
35.0
 23
-139.9663706349368
 33
0.0
  0
MTEXT
  5
96DD9
330
96CEB
100
AcDbEntity
  8
sk2
100
AcDbMText
 10
17.5
 20
-135.9163706349368
 30
0.0
 40
3.5
 41
0.0
 71
     5
 72
     1
  1
\A1;35 [1.378"]
  7
simplex
 73
     1
 44
1.0
1001
ACAD
1000
MTEXTBEGIN
1070
    73
1070
     1
1070
    44
1040
1.0
1070
    74
1070
     0
1000
MTEXTEND
  0
POINT
  5
96DDA
330
96CEB
100
AcDbEntity
  8
Defpoints
 62
     0
100
AcDbPoint
 10
0.0
 20
-107.9945000012
 30
0.0
  0
POINT
  5
96DDB
330
96CEB
100
AcDbEntity
  8
Defpoints
 62
     0
100
AcDbPoint
 10
35.0
 20
-86.99999999879997
 30
0.0
  0
POINT
  5
96DDC
330
96CEB
100
AcDbEntity
  8
Defpoints
 62
     0
100
AcDbPoint
 10
35.0
 20
-139.9663706349368
 30
0.0
  0
ENDBLK
  5
96CF6
330
96CEB
100
AcDbEntity
  8
0
100
AcDbBlockEnd
  0
BLOCK
  5
96D01
330
96CF7
100
AcDbEntity
  8
0
100
AcDbBlockBegin
  2
*D300999
 70
     1
 10
0.0
 20
0.0
 30
0.0
  3
*D300999
  1

  0
LINE
  5
97712
330
96CF7
100
AcDbEntity
  8
2
100
AcDbLine
 10
55.30000000000001
 20
126.9999999987999
 30
0.0
 11
55.30000000000001
 21
151.4638281095791
 31
0.0
  0
LINE
  5
97713
330
96CF7
100
AcDbEntity
  8
2
100
AcDbLine
 10
63.50000000000003
 20
126.1999999988069
 30
0.0
 11
63.50000000000003
 21
151.4638281095791
 31
0.0
  0
LINE
  5
97714
330
96CF7
100
AcDbEntity
  8
2
100
AcDbLine
 10
67.00000000000002
 20
149.9638281095792
 30
0.0
 11
119.4333333333333
 21
149.9638281095792
 31
0.0
  0
LINE
  5
97715
330
96CF7
100
AcDbEntity
  8
2
100
AcDbLine
 10
51.80000000000001
 20
149.9638281095792
 30
0.0
 11
48.30000000000001
 21
149.9638281095792
 31
0.0
  0
SOLID
  5
97716
330
96CF7
100
AcDbEntity
  8
2
100
AcDbTrace
 10
51.80000000000001
 20
149.3804947762458
 30
0.0
 11
51.80000000000001
 21
150.5471614429125
 31
0.0
 12
55.30000000000001
 22
149.9638281095792
 32
0.0
 13
55.30000000000001
 23
149.9638281095792
 33
0.0
  0
SOLID
  5
97717
330
96CF7
100
AcDbEntity
  8
2
100
AcDbTrace
 10
67.00000000000002
 20
150.5471614429125
 30
0.0
 11
67.00000000000002
 21
149.3804947762458
 31
0.0
 12
63.50000000000003
 22
149.9638281095792
 32
0.0
 13
63.50000000000003
 23
149.9638281095792
 33
0.0
  0
MTEXT
  5
97718
330
96CF7
100
AcDbEntity
  8
2
100
AcDbMText
 10
94.96666666666669
 20
154.0138281095791
 30
0.0
 40
3.5
 41
0.0
 71
     5
 72
     1
  1
\A1;8.2 [.323"](MAX)
  7
simplex
 73
     1
 44
1.0
1001
ACAD
1000
MTEXTBEGIN
1070
    73
1070
     1
1070
    44
1040
1.0
1070
    74
1070
     0
1000
MTEXTEND
  0
POINT
  5
97719
330
96CF7
100
AcDbEntity
  8
Defpoints
 62
     0
100
AcDbPoint
 10
55.30000000000001
 20
126.9999999987999
 30
0.0
  0
POINT
  5
9771A
330
96CF7
100
AcDbEntity
  8
Defpoints
 62
     0
100
AcDbPoint
 10
63.50000000000003
 20
126.1999999988069
 30
0.0
  0
POINT
  5
9771B
330
96CF7
100
AcDbEntity
  8
Defpoints
 62
     0
100
AcDbPoint
 10
63.50000000000003
 20
149.9638281095792
 30
0.0
  0
ENDBLK
  5
96D02
330
96CF7
100
AcDbEntity
  8
0
100
AcDbBlockEnd
  0
BLOCK
  5
97675
330
9766D
100
AcDbEntity
  8
0
100
AcDbBlockBegin
  2
*D131010
 70
     1
 10
0.0
 20
0.0
 30
0.0
  3
*D131010
  1

  0
LINE
  5
976A1
330
9766D
100
AcDbEntity
  8
2
100
AcDbLine
 10
107.5521536703094
 20
137.4163016283951
 30
0.0
 11
66.87154132910594
 21
127.2431888309685
 31
0.0
  0
MTEXT
  5
976A2
330
9766D
100
AcDbEntity
  8
2
100
AcDbMText
 10
87.92702948939441
 20
136.6833086806525
 30
0.0
 40
3.5
 41
0.0
 71
     5
 72
     1
  1
\A1;R0.8 [R.031"]
  7
simplex
 11
0.9701258904897503
 21
0.2426020539926838
 31
0.0
 73
     1
 44
1.0
1001
ACAD
1000
MTEXTBEGIN
1070
    73
1070
     1
1070
    44
1040
1.0
1070
    74
1070
     0
1000
MTEXTEND
  0
SOLID
  5
976A3
330
9766D
100
AcDbEntity
  8
2
100
AcDbTrace
 10
66.73002346427685
 20
127.8090956004209
 30
0.0
 11
67.01305919393501
 21
126.6772820615162
 31
0.0
 12
63.47610071239181
 22
126.3940816419941
 32
0.0
 13
63.47610071239181
 23
126.3940816419941
 33
0.0
  0
LINE
  5
976A4
330
9766D
100
AcDbEntity
  8
2
100
AcDbLine
 10
62.60999999999999
 20
126.1999999988
 30
0.0
 11
62.78999999999999
 21
126.1999999988
 31
0.0
  0
LINE
  5
976A5
330
9766D
100
AcDbEntity
  8
2
100
AcDbLine
 10
62.69999999999999
 20
126.1099999988
 30
0.0
 11
62.69999999999999
 21
126.2899999988
 31
0.0
  0
POINT
  5
976A6
330
9766D
100
AcDbEntity
  8
Defpoints
 62
     0
100
AcDbPoint
 10
63.47610071239181
 20
126.3940816419941
 30
0.0
  0
POINT
  5
976A7
330
9766D
100
AcDbEntity
  8
Defpoints
 62
     0
100
AcDbPoint
 10
62.69999999999999
 20
126.1999999988
 30
0.0
  0
ENDBLK
  5
97676
330
9766D
100
AcDbEntity
  8
0
100
AcDbBlockEnd
  0
ENDSEC
  0
SECTION
  2
ENTITIES
  0
INSERT
  5
4A793
330
1F
100
AcDbEntity
  8
0
100
AcDbBlockReference
  2
zero block
 10
0.0
 20
0.0
 30
0.0
 50
180.0
  0
MTEXT
  5
96AF9
330
1F
100
AcDbEntity
  8
sk6
100
AcDbMText
 10
3.832341183349397
 20
188.2812311338427
 30
0.0
 40
3.5
 41
139.3353303764208
 71
     1
 72
     5
  1
WWX400UR10_0018MN
 73
     1
 44
0.9
1001
ACAD
1000
MTEXTBEGIN
1070
    73
1070
     1
1070
    44
1040
0.9
1070
    74
1070
     0
1000
MTEXTEND
1000
ACAD_MTEXT_DEFINED_HEIGHT_BEGIN
1070
    46
1040
3.48901801050149
1000
ACAD_MTEXT_DEFINED_HEIGHT_END
  0
LINE
  5
96AFB
330
1F
100
AcDbEntity
  8
4
100
AcDbLine
 10
68.83693405598953
 20
0.0
 30
0.0
 11
-2.907861614760518
 21
0.0
 31
0.0
  0
LINE
  5
96AFC
330
1F
100
AcDbEntity
  8
1
100
AcDbLine
 10
52.0261806034
 20
-126.2000000012
 30
0.0
 11
55.71377005919997
 21
-126.2000000012
 31
0.0
  0
LINE
  5
96AFD
330
1F
100
AcDbEntity
  8
1
100
AcDbLine
 10
51.9738233841
 20
-126.1995430867
 30
0.0
 11
52.0261806034
 21
-126.2000000012
 31
0.0
  0
LINE
  5
96AFE
330
1F
100
AcDbEntity
  8
1
100
AcDbLine
 10
33.92123225980001
 20
-125.8844339365
 30
0.0
 11
51.9738233841
 21
-126.1995430867
 31
0.0
  0
LINE
  5
96AFF
330
1F
100
AcDbEntity
  8
1
100
AcDbLine
 10
19.43987587009999
 20
-109.9945000012
 30
0.0
 11
2.0
 21
-109.9945000012
 31
0.0
  0
LINE
  5
96B00
330
1F
100
AcDbEntity
  8
1
100
AcDbLine
 10
31.09713027449999
 20
-123.7369368851
 30
0.0
 11
28.1508341709
 21
-113.790407933
 31
0.0
  0
LINE
  5
96B01
330
1F
100
AcDbEntity
  8
1
100
AcDbLine
 10
0.0
 20
-107.9945000012
 30
0.0
 11
0.0
 21
107.9944999988
 31
0.0
  0
LINE
  5
96B02
330
1F
100
AcDbEntity
  8
1
100
AcDbLine
 10
19.43987587009999
 20
109.9944999988
 30
0.0
 11
2.0
 21
109.9944999988
 31
0.0
  0
ARC
  5
96BD8
330
1F
100
AcDbEntity
  8
1
100
AcDbCircle
 10
22.3979157617
 20
-115.4945000012
 30
0.0
 40
6.0
100
AcDbArc
 50
16.4999999999988
 51
109.1881364536989
  0
ARC
  5
96BD9
330
1F
100
AcDbEntity
  8
1
100
AcDbCircle
 10
55.71377005919997
 20
-120.2000000012
 30
0.0
 40
6.0
100
AcDbArc
 50
270.0
 51
0.0
  0
ARC
  5
96BDA
330
1F
100
AcDbEntity
  8
1
100
AcDbCircle
 10
19.43987587009999
 20
-106.9945000012
 30
0.0
 40
3.0
100
AcDbArc
 50
270.0
 51
289.1881364536989
  0
ARC
  5
96BDB
330
1F
100
AcDbEntity
  8
1
100
AcDbCircle
 10
33.97358947909999
 20
-122.884890851
 30
0.0
 40
3.0
100
AcDbArc
 50
196.4999999999987
 51
268.9999999999998
  0
ARC
  5
96BDC
330
1F
100
AcDbEntity
  8
1
100
AcDbCircle
 10
2.0
 20
107.9944999988
 30
0.0
 40
2.0
100
AcDbArc
 50
90.0
 51
180.0
  0
ARC
  5
96BDD
102
{ACAD_REACTORS
330
96C29
330
96C2C
102
}
330
1F
100
AcDbEntity
  8
1
100
AcDbCircle
 10
2.0
 20
-107.9945000012
 30
0.0
 40
2.0
100
AcDbArc
 50
180.0
 51
270.0
  0
LINE
  5
96BE2
330
1F
100
AcDbEntity
  8
sk3
100
AcDbLine
 10
57.15961818439996
 20
110.2847751836
 30
0.0
 11
60.55519888381606
 21
115.79613069429
 31
0.0
  0
LINE
  5
96BE3
330
1F
100
AcDbEntity
  8
sk3
100
AcDbLine
 10
35.0
 20
0.0
 30
0.0
 11
35.0
 21
86.99999999879997
 31
0.0
  0
LINE
  5
96BE4
330
1F
100
AcDbEntity
  8
sk3
100
AcDbLine
 10
56.7137700592
 20
108.711146193
 30
0.0
 11
56.7137700592
 21
0.0
 31
0.0
  0
LINE
  5
96BE5
330
1F
100
AcDbEntity
  8
sk3
100
AcDbLine
 10
38.0
 20
89.99999999879999
 30
0.0
 11
53.71377005919999
 21
89.99999999879999
 31
0.0
  0
ARC
  5
96BE6
330
1F
100
AcDbEntity
  8
sk3
100
AcDbCircle
 10
38.0
 20
86.99999999879997
 30
0.0
 40
3.0
100
AcDbArc
 50
90.0
 51
180.0
  0
ARC
  5
96BE7
330
1F
100
AcDbEntity
  8
sk3
100
AcDbCircle
 10
59.71377005919999
 20
108.711146193
 30
0.0
 40
3.0
100
AcDbArc
 50
148.3625168768983
 51
180.0
  0
ARC
  5
96BE8
330
1F
100
AcDbEntity
  8
sk3
100
AcDbCircle
 10
53.71377005919999
 20
92.99999999879998
 30
0.0
 40
3.0
100
AcDbArc
 50
270.0
 51
0.0
  0
LINE
  5
96BE9
330
1F
100
AcDbEntity
  8
sk3
100
AcDbLine
 10
0.5
 20
12.69999999890001
 30
0.0
 11
0.5
 21
37.49999999890003
 31
0.0
  0
LINE
  5
96BEA
330
1F
100
AcDbEntity
  8
sk3
100
AcDbLine
 10
2.0
 20
43.79999999889998
 30
0.0
 11
2.0
 21
57.79999999889998
 31
0.0
  0
LINE
  5
96BEB
330
1F
100
AcDbEntity
  8
sk3
100
AcDbLine
 10
7.299999999999952
 20
32.24999999890002
 30
0.0
 11
7.299999999999952
 21
12.69999999890001
 31
0.0
  0
LINE
  5
96BEC
330
1F
100
AcDbEntity
  8
sk3
100
AcDbLine
 10
12.0
 20
12.69999999890001
 30
0.0
 11
12.0
 21
32.24999999890002
 31
0.0
  0
LINE
  5
96BED
330
1F
100
AcDbEntity
  8
sk3
100
AcDbLine
 10
2.32568851449997
 20
32.68519586270004
 30
0.0
 11
7.299999999999952
 21
32.24999999890002
 31
0.0
  0
LINE
  5
96BEE
330
1F
100
AcDbEntity
  8
sk3
100
AcDbLine
 10
2.0
 20
43.79999999889998
 30
0.0
 11
0.0
 21
41.79999999889997
 31
0.0
  0
LINE
  5
96BEF
102
{ACAD_REACTORS
330
96C26
102
}
330
1F
100
AcDbEntity
  8
sk3
100
AcDbLine
 10
12.0
 20
31.74999999890002
 30
0.0
 11
34.0
 21
31.74999999890002
 31
0.0
  0
LINE
  5
96BF0
330
1F
100
AcDbEntity
  8
sk3
100
AcDbLine
 10
7.299999999999952
 20
32.24999999890002
 30
0.0
 11
12.0
 21
32.24999999890002
 31
0.0
  0
LINE
  5
96BF1
330
1F
100
AcDbEntity
  8
sk3
100
AcDbLine
 10
2.0
 20
57.79999999889998
 30
0.0
 11
0.0
 21
59.79999999889995
 31
0.0
  0
LINE
  5
96BF2
330
1F
100
AcDbEntity
  8
sk3
100
AcDbLine
 10
0.0
 20
37.49999999890003
 30
0.0
 11
0.5
 21
37.49999999890003
 31
0.0
  0
LINE
  5
96BF3
330
1F
100
AcDbEntity
  8
sk3
100
AcDbLine
 10
33.0
 20
57.79999999889998
 30
0.0
 11
35.0
 21
59.79999999889995
 31
0.0
  0
LINE
  5
96BF4
330
1F
100
AcDbEntity
  8
sk3
100
AcDbLine
 10
33.0
 20
43.79999999889998
 30
0.0
 11
2.0
 21
43.79999999889998
 31
0.0
  0
LINE
  5
96BF5
330
1F
100
AcDbEntity
  8
sk3
100
AcDbLine
 10
33.0
 20
43.79999999889998
 30
0.0
 11
35.0
 21
41.79999999889997
 31
0.0
  0
LINE
  5
96BF6
330
1F
100
AcDbEntity
  8
sk3
100
AcDbLine
 10
33.0
 20
57.79999999889998
 30
0.0
 11
33.0
 21
43.79999999889998
 31
0.0
  0
LINE
  5
96BF7
330
1F
100
AcDbEntity
  8
sk3
100
AcDbLine
 10
33.0
 20
57.79999999889998
 30
0.0
 11
2.0
 21
57.79999999889998
 31
0.0
  0
ARC
  5
96BF8
330
1F
100
AcDbEntity
  8
sk3
100
AcDbCircle
 10
2.5
 20
34.67758525890002
 30
0.0
 40
2.0
100
AcDbArc
 50
180.0
 51
265.0000000000002
  0
ARC
  5
96BF9
330
1F
100
AcDbEntity
  8
sk3
100
AcDbCircle
 10
34.0
 20
32.74999999890003
 30
0.0
 40
1.0
100
AcDbArc
 50
270.0
 51
0.0
  0
LINE
  5
96BFA
330
1F
100
AcDbEntity
  8
sk3
100
AcDbLine
 10
0.5
 20
-12.70000000109996
 30
0.0
 11
0.5
 21
-37.49999999890003
 31
0.0
  0
LINE
  5
96BFB
330
1F
100
AcDbEntity
  8
sk3
100
AcDbLine
 10
7.299999999999952
 20
-32.24999999890002
 30
0.0
 11
7.299999999999952
 21
-12.70000000109996
 31
0.0
  0
LINE
  5
96BFC
330
1F
100
AcDbEntity
  8
sk3
100
AcDbLine
 10
12.0
 20
-12.70000000109996
 30
0.0
 11
12.0
 21
-32.24999999890002
 31
0.0
  0
LINE
  5
96BFD
330
1F
100
AcDbEntity
  8
sk3
100
AcDbLine
 10
2.32568851449997
 20
-32.68519586270004
 30
0.0
 11
7.299999999999952
 21
-32.24999999890002
 31
0.0
  0
LINE
  5
96BFE
102
{ACAD_REACTORS
330
96C26
102
}
330
1F
100
AcDbEntity
  8
sk3
100
AcDbLine
 10
12.0
 20
-31.74999999890002
 30
0.0
 11
34.0
 21
-31.74999999890002
 31
0.0
  0
LINE
  5
96BFF
330
1F
100
AcDbEntity
  8
sk3
100
AcDbLine
 10
7.299999999999952
 20
-32.24999999890002
 30
0.0
 11
12.0
 21
-32.24999999890002
 31
0.0
  0
LINE
  5
96C00
330
1F
100
AcDbEntity
  8
sk3
100
AcDbLine
 10
0.0
 20
-37.49999999890003
 30
0.0
 11
0.5
 21
-37.49999999890003
 31
0.0
  0
ARC
  5
96C01
330
1F
100
AcDbEntity
  8
sk3
100
AcDbCircle
 10
2.5
 20
-34.67758525890002
 30
0.0
 40
2.0
100
AcDbArc
 50
94.99999999999978
 51
180.0
  0
ARC
  5
96C02
330
1F
100
AcDbEntity
  8
sk3
100
AcDbCircle
 10
34.0
 20
-32.74999999890003
 30
0.0
 40
1.0
100
AcDbArc
 50
0.0
 51
90.0
  0
LINE
  5
96C03
330
1F
100
AcDbEntity
  8
sk3
100
AcDbLine
 10
1.000000006949959
 20
58.80000007379994
 30
0.0
 11
33.99999999305004
 21
58.80000007379994
 31
0.0
  0
LINE
  5
96C04
330
1F
100
AcDbEntity
  8
sk3
100
AcDbLine
 10
1.000000006949959
 20
42.80000007379996
 30
0.0
 11
33.99999999305004
 21
42.80000007379996
 31
0.0
  0
LINE
  5
96C05
330
1F
100
AcDbEntity
  8
4
100
AcDbLine
 10
-2.673795437284749
 20
50.80000007379993
 30
0.0
 11
38.68960107293185
 21
50.80000007379993
 31
0.0
  0
LINE
  5
96C06
330
1F
100
AcDbEntity
  8
4
100
AcDbLine
 10
-2.673795437284865
 20
-50.79999999890006
 30
0.0
 11
38.68960107293175
 21
-50.79999999890006
 31
0.0
  0
LINE
  5
96C07
330
1F
100
AcDbEntity
  8
sk3
100
AcDbLine
 10
34.4999999936
 20
-59.79999999890006
 30
0.0
 11
1.000000015199987
 21
-59.79999999890006
 31
0.0
  0
LINE
  5
96C08
330
1F
100
AcDbEntity
  8
sk3
100
AcDbLine
 10
1.000000015199987
 20
-41.79999999890006
 30
0.0
 11
0.0
 21
-40.79999998200007
 31
0.0
  0
LINE
  5
96C09
330
1F
100
AcDbEntity
  8
sk3
100
AcDbLine
 10
0.9999999999000124
 20
-41.79999999890006
 30
0.0
 11
0.9999999999000124
 21
-59.79999999890006
 31
0.0
  0
LINE
  5
96C0A
330
1F
100
AcDbEntity
  8
sk3
100
AcDbLine
 10
34.4999999936
 20
-59.79999999890006
 30
0.0
 11
35.00000000000006
 21
-60.30000000570002
 31
0.0
  0
LINE
  5
96C0B
330
1F
100
AcDbEntity
  8
sk3
100
AcDbLine
 10
34.4999999936
 20
-41.79999999890006
 30
0.0
 11
1.000000015199987
 21
-41.79999999890006
 31
0.0
  0
LINE
  5
96C0C
330
1F
100
AcDbEntity
  8
sk3
100
AcDbLine
 10
34.50000000010005
 20
-41.79999999890006
 30
0.0
 11
34.50000000010005
 21
-59.79999999890006
 31
0.0
  0
LINE
  5
96C0D
330
1F
100
AcDbEntity
  8
sk3
100
AcDbLine
 10
1.000000015199987
 20
-59.79999999890006
 30
0.0
 11
0.0
 21
-60.80000001580001
 31
0.0
  0
LINE
  5
96C0E
330
1F
100
AcDbEntity
  8
sk3
100
AcDbLine
 10
34.4999999936
 20
-41.79999999890006
 30
0.0
 11
35.00000000000006
 21
-41.29999999210006
 31
0.0
  0
LINE
  5
96C0F
330
1F
100
AcDbEntity
  8
sk3
100
AcDbLine
 10
1.0
 20
-12.70000000109996
 30
0.0
 11
1.0
 21
12.69999999890001
 31
0.0
  0
LINE
  5
96C10
330
1F
100
AcDbEntity
  8
sk3
100
AcDbLine
 10
13.22
 20
-12.70000000109996
 30
0.0
 11
13.22
 21
12.69999999890001
 31
0.0
  0
LINE
  5
96C11
330
1F
100
AcDbEntity
  8
sk3
100
AcDbLine
 10
14.22000000000003
 20
-11.70000000109996
 30
0.0
 11
14.22000000000003
 21
11.69999999890001
 31
0.0
  0
LINE
  5
96C12
330
1F
100
AcDbEntity
  8
sk3
100
AcDbLine
 10
0.0
 20
13.69999999890001
 30
0.0
 11
0.5
 21
13.19999999890001
 31
0.0
  0
LINE
  5
96C13
330
1F
100
AcDbEntity
  8
sk3
100
AcDbLine
 10
0.5
 20
-12.70000000109996
 30
0.0
 11
13.22
 21
-12.70000000109996
 31
0.0
  0
LINE
  5
96C14
330
1F
100
AcDbEntity
  8
sk3
100
AcDbLine
 10
13.22
 20
12.69999999890001
 30
0.0
 11
14.22000000000003
 21
11.69999999890001
 31
0.0
  0
LINE
  5
96C15
330
1F
100
AcDbEntity
  8
sk3
100
AcDbLine
 10
0.5
 20
-13.20000000109996
 30
0.0
 11
0.0
 21
-13.70000000109996
 31
0.0
  0
LINE
  5
96C16
330
1F
100
AcDbEntity
  8
sk3
100
AcDbLine
 10
0.5
 20
12.69999999890001
 30
0.0
 11
13.22
 21
12.69999999890001
 31
0.0
  0
LINE
  5
96C17
330
1F
100
AcDbEntity
  8
sk3
100
AcDbLine
 10
14.22000000000003
 20
-11.70000000109996
 30
0.0
 11
13.22
 21
-12.70000000109996
 31
0.0
  0
LINE
  5
96C18
330
1F
100
AcDbEntity
  8
sk3
100
AcDbLine
 10
57.15961818439996
 20
-110.2847751836
 30
0.0
 11
61.56515401749993
 21
-117.4353854446
 31
0.0
  0
LINE
  5
96C19
330
1F
100
AcDbEntity
  8
sk3
100
AcDbLine
 10
35.0
 20
0.0
 30
0.0
 11
35.0
 21
-86.99999999879997
 31
0.0
  0
LINE
  5
96C1A
330
1F
100
AcDbEntity
  8
sk3
100
AcDbLine
 10
56.7137700592
 20
-108.711146193
 30
0.0
 11
56.7137700592
 21
0.0
 31
0.0
  0
LINE
  5
96C1B
330
1F
100
AcDbEntity
  8
sk3
100
AcDbLine
 10
38.0
 20
-89.99999999879999
 30
0.0
 11
53.71377005919999
 21
-89.99999999879999
 31
0.0
  0
ARC
  5
96C1C
102
{ACAD_REACTORS
330
96C2C
102
}
330
1F
100
AcDbEntity
  8
sk3
100
AcDbCircle
 10
38.0
 20
-86.99999999879997
 30
0.0
 40
3.0
100
AcDbArc
 50
180.0
 51
270.0
  0
ARC
  5
96C1D
330
1F
100
AcDbEntity
  8
sk3
100
AcDbCircle
 10
59.71377005919999
 20
-108.711146193
 30
0.0
 40
3.0
100
AcDbArc
 50
180.0
 51
211.6374831231017
  0
ARC
  5
96C1E
330
1F
100
AcDbEntity
  8
sk3
100
AcDbCircle
 10
53.71377005919999
 20
-92.99999999879998
 30
0.0
 40
3.0
100
AcDbArc
 50
0.0
 51
90.0
  0
ARC
  5
96C1F
330
1F
100
AcDbEntity
  8
sk3
100
AcDbCircle
 10
60.71377005919997
 20
-117.9599284415
 30
0.0
 40
1.0
100
AcDbArc
 50
0.0
 51
31.63748312310169
  0
DIMENSION
  5
96C20
330
1F
100
AcDbEntity
  8
2
100
AcDbDimension
  2
*D295444
 10
63.49999999999998
 20
159.90470296945
 30
0.0
 11
31.74999999999999
 21
163.95470296945
 31
0.0
 70
    32
 71
     5
 42
63.5
  3
コピー - ISO-25
100
AcDbAlignedDimension
 13
0.0
 23
107.9944999988
 33
0.0
 14
63.49999999999998
 24
126.1999999987972
 34
0.0
 50
0.0
100
AcDbRotatedDimension
1001
ACAD
1000
DSTYLE
1002
{
1070
   170
1070
     1
1070
   171
1070
     3
1070
   143
1040
0.0393700787401575
1070
   285
1070
     4
1070
     4
1000
"
1070
   271
1070
     8
1070
    40
1040
1.0
1002
}
1001
ACAD_DSTYLE_DIMINSPECT
1070
   393
1070
     0
1070
   394
1070
     0
1070
   395
1000

1070
   396
1000

  0
DIMENSION
  5
96C21
330
1F
100
AcDbEntity
  8
2
100
AcDbDimension
  2
*D296555
 10
89.96277858220201
 20
-126.9999999988
 30
0.0
 11
85.912778582202
 21
-1.749999999999999
 31
0.0
 70
    32
  1
%%C<>
 71
     5
 42
253.9999999976
  3
コピー - ISO-25
100
AcDbAlignedDimension
 13
62.69999999999993
 23
126.9999999988
 33
0.0
 14
62.69999999999993
 24
-126.9999999988
 34
0.0
 50
90.0
100
AcDbRotatedDimension
1001
ACAD
1000
DSTYLE
1002
{
1070
   170
1070
     1
1070
   171
1070
     3
1070
   143
1040
0.0393700787401575
1070
   285
1070
     4
1070
     4
1000
%%c[]"
1070
   344
1005
87D73
1070
   271
1070
     8
1070
   173
1070
     1
1070
    40
1040
1.0
1070
    76
1070
     1
1002
}
1001
ACAD_DSTYLE_DIMINSPECT
1070
   393
1070
     0
1070
   394
1070
     0
1070
   395
1000

1070
   396
1000

  0
DIMENSION
  5
96C24
102
{ACAD_XDICTIONARY
360
96C25
102
}
102
{ACAD_REACTORS
330
96C26
102
}
330
1F
100
AcDbEntity
  8
sk2
100
AcDbDimension
  2
*D297666
 10
-20.07137337092334
 20
-31.74999999890002
 30
0.0
 11
-24.12137337092334
 21
0.000000000000004
 31
0.0
 70
    32
  1
%%C<>
 71
     5
 42
63.49999999779999
  3
コピー - ISO-25
100
AcDbAlignedDimension
 13
12.0
 23
31.74999999890002
 33
0.0
 14
12.0
 24
-31.74999999890002
 34
0.0
 50
90.0
100
AcDbRotatedDimension
1001
ACAD
1000
DSTYLE
1002
{
1070
   170
1070
     1
1070
   171
1070
     3
1070
   143
1040
0.0393700787401575
1070
   285
1070
     4
1070
     4
1000
%%c[]"
1070
   271
1070
     8
1070
    40
1040
1.0
1002
}
1001
ACAD_DSTYLE_DIMINSPECT
1070
   393
1070
     0
1070
   394
1070
     0
1070
   395
1000

1070
   396
1000

  0
DIMENSION
  5
96C27
102
{ACAD_XDICTIONARY
360
96C28
102
}
102
{ACAD_REACTORS
330
96C29
102
}
330
1F
100
AcDbEntity
  8
sk2
100
AcDbDimension
  2
*D298777
 10
-30.11981069511874
 20
-109.9945000012
 30
0.0
 11
-34.16981069511872
 21
-0.0000000012000069
 31
0.0
 70
    32
  1
%%C<>
 71
     5
 42
219.989
  3
コピー - ISO-25
100
AcDbAlignedDimension
 13
2.0
 23
109.9944999988
 33
0.0
 14
2.0
 24
-109.9945000012
 34
0.0
 50
90.0
100
AcDbRotatedDimension
1001
ACAD
1000
DSTYLE
1002
{
1070
   170
1070
     1
1070
   171
1070
     3
1070
   143
1040
0.0393700787401575
1070
   285
1070
     4
1070
     4
1000
%%c[]"
1070
   271
1070
     8
1070
    40
1040
1.0
1002
}
1001
ACAD_DSTYLE_DIMINSPECT
1070
   393
1070
     0
1070
   394
1070
     0
1070
   395
1000

1070
   396
1000

  0
DIMENSION
  5
96C2A
102
{ACAD_XDICTIONARY
360
96C2B
102
}
102
{ACAD_REACTORS
330
96C2C
102
}
330
1F
100
AcDbEntity
  8
sk2
100
AcDbDimension
  2
*D299888
 10
35.0
 20
-139.9663706349368
 30
0.0
 11
17.5
 21
-135.9163706349368
 31
0.0
 70
    32
 71
     5
 42
35.0
  3
コピー - ISO-25
100
AcDbAlignedDimension
 13
0.0
 23
-107.9945000012
 33
0.0
 14
35.0
 24
-86.99999999879997
 34
0.0
 50
0.0
100
AcDbRotatedDimension
1001
ACAD
1000
DSTYLE
1002
{
1070
   170
1070
     1
1070
   171
1070
     3
1070
   143
1040
0.0393700787401575
1070
   285
1070
     4
1070
     4
1000
"
1070
   271
1070
     8
1070
    40
1040
1.0
1002
}
1001
ACAD_DSTYLE_DIMINSPECT
1070
   393
1070
     0
1070
   394
1070
     0
1070
   395
1000

1070
   396
1000

  0
ARC
  5
96C2D
330
1F
100
AcDbEntity
  8
1
100
AcDbCircle
 10
22.3979157617
 20
115.4944999988
 30
0.0
 40
6.0
100
AcDbArc
 50
250.8118635462993
 51
343.5000000000012
  0
ARC
  5
96C2E
330
1F
100
AcDbEntity
  8
1
100
AcDbCircle
 10
19.43987587009999
 20
106.9944999988
 30
0.0
 40
3.0
100
AcDbArc
 50
70.81186354629936
 51
90.0
  0
LINE
  5
96C2F
330
1F
100
AcDbEntity
  8
nocut
100
AcDbLine
 10
61.7137700592
 20
0.0
 30
0.0
 11
0.0
 21
0.0
 31
0.0
  0
LINE
  5
96C30
330
1F
100
AcDbEntity
  8
nocut
100
AcDbLine
 10
0.0
 20
0.0
 30
0.0
 11
0.0
 21
107.9944999988
 31
0.0
  0
LINE
  5
96C31
330
1F
100
AcDbEntity
  8
nocut
100
AcDbLine
 10
2.0
 20
109.9944999988
 30
0.0
 11
19.43987587009997
 21
109.9944999988
 31
0.0
  0
ARC
  5
96C32
330
1F
100
AcDbEntity
  8
nocut
100
AcDbCircle
 10
22.3979157617
 20
115.4944999988
 30
0.0
 40
6.0
100
AcDbArc
 50
250.8118635463011
 51
343.5000000000012
  0
ARC
  5
96C33
330
1F
100
AcDbEntity
  8
nocut
100
AcDbCircle
 10
19.43987587009997
 20
106.9944999988
 30
0.0
 40
3.0
100
AcDbArc
 50
70.81186354630105
 51
90.0
  0
ARC
  5
96C34
330
1F
100
AcDbEntity
  8
nocut
100
AcDbCircle
 10
2.0
 20
107.9944999988
 30
0.0
 40
2.0
100
AcDbArc
 50
90.0
 51
180.0
  0
DIMENSION
  5
96C35
330
1F
100
AcDbEntity
  8
2
100
AcDbDimension
  2
*D300999
 10
63.50000000000003
 20
149.9638281095792
 30
0.0
 11
94.96666666666669
 21
154.0138281095791
 31
0.0
 70
    32
  1
<>(MAX)
 71
     5
 42
8.200000000000001
  3
コピー - ISO-25
100
AcDbAlignedDimension
 13
55.30000000000001
 23
126.9999999987999
 33
0.0
 14
63.50000000000003
 24
126.1999999988069
 34
0.0
 50
0.0
100
AcDbRotatedDimension
1001
ACAD
1000
DSTYLE
1002
{
1070
   170
1070
     1
1070
   171
1070
     3
1070
   143
1040
0.0393700787401575
1070
   285
1070
     4
1070
     4
1000
"
1070
   271
1070
     8
1070
    40
1040
1.0
1002
}
1001
ACAD_DSTYLE_DIMINSPECT
1070
   393
1070
     0
1070
   394
1070
     0
1070
   395
1000

1070
   396
1000

  0
LINE
  5
96C36
330
1F
100
AcDbEntity
  8
1
100
AcDbLine
 10
48.12515847080003
 20
123.1418145741001
 30
0.0
 11
48.89584552590003
 21
123.4289251444
 31
0.0
  0
LINE
  5
96C37
330
1F
100
AcDbEntity
  8
1
100
AcDbLine
 10
49.43356240720004
 20
123.2361234456
 30
0.0
 11
51.70788037810004
 21
124.563037586
 31
0.0
  0
LINE
  5
96C38
330
1F
100
AcDbEntity
  8
1
100
AcDbLine
 10
31.09713027460003
 20
123.7369368827
 30
0.0
 11
28.15083417100004
 21
113.7904079306
 31
0.0
  0
LINE
  5
96C39
330
1F
100
AcDbEntity
  8
1
100
AcDbLine
 10
47.66342695290004
 20
124.9099669719
 30
0.0
 11
47.81588790729999
 21
123.353396453
 31
0.0
  0
LINE
  5
96C3A
330
1F
100
AcDbEntity
  8
1
100
AcDbLine
 10
61.71377005930003
 20
114.9670270117
 30
0.0
 11
61.71377005930003
 21
-120.1999994057999
 31
0.0
  0
LINE
  5
96C3B
330
1F
100
AcDbEntity
  8
1
100
AcDbLine
 10
39.69734010840003
 20
120.5015602517
 30
0.0
 11
31.83046105870005
 21
123.313166287
 31
0.0
  0
LINE
  5
96C3C
330
1F
100
AcDbEntity
  8
1
100
AcDbLine
 10
48.81371976220004
 20
123.0627057855999
 30
0.0
 11
49.43356240720004
 21
123.2361234456
 31
0.0
  0
LINE
  5
96C3D
330
1F
100
AcDbEntity
  8
1
100
AcDbLine
 10
33.92123225990005
 20
125.8844339341
 30
0.0
 11
51.97382338410003
 21
126.1995430843
 31
0.0
  0
LINE
  5
96C3E
330
1F
100
AcDbEntity
  8
1
100
AcDbLine
 10
51.97382338410003
 20
126.1995430843
 30
0.0
 11
52.02618060350005
 21
126.1999999988
 31
0.0
  0
LINE
  5
96C3F
330
1F
100
AcDbEntity
  8
1
100
AcDbLine
 10
57.07210480290004
 20
117.5435017043001
 30
0.0
 11
56.88395356900008
 21
117.5435017043001
 31
0.0
  0
LINE
  5
96C40
330
1F
100
AcDbEntity
  8
1
100
AcDbLine
 10
58.07391146100005
 20
118.9649078611001
 30
0.0
 11
57.8857602271
 21
118.9649078611001
 31
0.0
  0
LINE
  5
96C41
330
1F
100
AcDbEntity
  8
1
100
AcDbLine
 10
57.79164221190001
 20
120.0910646813
 30
0.0
 11
57.60349097800002
 21
120.0910646813
 31
0.0
  0
LINE
  5
96C42
330
1F
100
AcDbEntity
  8
1
100
AcDbLine
 10
56.76606538420003
 20
120.4453047902001
 30
0.0
 11
56.95421661810004
 21
120.4453047902001
 31
0.0
  0
LINE
  5
96C43
330
1F
100
AcDbEntity
  8
1
100
AcDbLine
 10
56.23951200130003
 20
120.8652594413
 30
0.0
 11
56.05136076740003
 21
120.8652594413
 31
0.0
  0
LINE
  5
96C44
330
1F
100
AcDbEntity
  8
1
100
AcDbLine
 10
46.58958477439999
 20
121.1330433519
 30
0.0
 11
47.48734542100004
 21
121.1330433519
 31
0.0
  0
LINE
  5
96C45
330
1F
100
AcDbEntity
  8
1
100
AcDbLine
 10
46.84591386200002
 20
122.1888906554999
 30
0.0
 11
47.77346451420004
 21
122.1888906554999
 31
0.0
  0
LINE
  5
96C46
330
1F
100
AcDbEntity
  8
1
100
AcDbLine
 10
48.8436646837
 20
122.8449027507
 30
0.0
 11
47.9503416521
 21
122.8449027507
 31
0.0
  0
LINE
  5
96C47
330
1F
100
AcDbEntity
  8
1
100
AcDbLine
 10
48.88733005939999
 20
122.871131502
 30
0.0
 11
47.99655370360002
 21
122.871131502
 31
0.0
  0
LINE
  5
96C48
330
1F
100
AcDbEntity
  8
1
100
AcDbLine
 10
54.19785852470005
 20
125.9602196520999
 30
0.0
 11
53.64529684250001
 21
125.9602196520999
 31
0.0
  0
LINE
  5
96C49
330
1F
100
AcDbEntity
  8
1
100
AcDbLine
 10
54.93697642480004
 20
126.1522777638999
 30
0.0
 11
54.38531263350006
 21
126.1522777638999
 31
0.0
  0
LINE
  5
96C4A
330
1F
100
AcDbEntity
  8
1
100
AcDbLine
 10
52.02618060350005
 20
126.1999999988
 30
0.0
 11
55.71377005930003
 21
126.1999999988
 31
0.0
  0
LINE
  5
96C4B
330
1F
100
AcDbEntity
  8
1
100
AcDbLine
 10
57.90435453230003
 20
118.3523684812
 30
0.0
 11
57.70414153069999
 21
118.3524244547999
 31
0.0
  0
LINE
  5
96C4C
330
1F
100
AcDbEntity
  8
1
100
AcDbLine
 10
54.79320085680004
 20
119.9007789721
 30
0.0
 11
54.80526261570004
 21
119.9007325673
 31
0.0
  0
LINE
  5
96C4D
330
1F
100
AcDbEntity
  8
1
100
AcDbLine
 10
54.96444114350004
 20
126.1520394045
 30
0.0
 11
54.9369755712
 21
126.1522777638999
 31
0.0
  0
LINE
  5
96C4E
330
1F
100
AcDbEntity
  8
1
100
AcDbLine
 10
48.81371976220004
 20
123.0627057855999
 30
0.0
 11
48.12515847080003
 21
123.1418145741001
 31
0.0
  0
LINE
  5
96C4F
330
1F
100
AcDbEntity
  8
1
100
AcDbLine
 10
48.89584552590003
 20
123.4289251444
 30
0.0
 11
49.19643929000002
 21
123.3508650578
 31
0.0
  0
ARC
  5
96C50
330
1F
100
AcDbEntity
  8
1
100
AcDbCircle
 10
55.71377005930003
 20
120.1999999988
 30
0.0
 40
6.0
100
AcDbArc
 50
80.7779207736995
 51
90.0
  0
ARC
  5
96C51
330
1F
100
AcDbEntity
  8
1
100
AcDbCircle
 10
33.97358947920006
 20
122.8848908486
 30
0.0
 40
3.0
100
AcDbArc
 50
91.00000000000015
 51
163.5000000000012
  0
SPLINE
  5
96C52
330
1F
100
AcDbEntity
  8
1
100
AcDbSpline
210
0.0
220
0.0
230
1.0
 70
     8
 71
     3
 72
    11
 73
     7
 74
     0
 42
0.000000001
 43
0.0000000001
 40
0.0
 40
0.0
 40
0.0
 40
0.0
 40
0.2495506713
 40
0.4992964315
 40
0.7494480922
 40
1.0
 40
1.0
 40
1.0
 40
1.0
 10
54.79320085630003
 20
119.9007865537
 30
0.0
 10
54.75974030070005
 20
119.9007841273
 30
0.0
 10
54.69233939500004
 20
119.890329963
 30
0.0
 10
54.60106491800002
 20
119.8447182358
 30
0.0
 10
54.52772293710001
 20
119.773596572
 30
0.0
 10
54.49534643970003
 20
119.7133707652001
 30
0.0
 10
54.48410660220003
 20
119.6817120074
 30
0.0
  0
SPLINE
  5
96C53
330
1F
100
AcDbEntity
  8
1
100
AcDbSpline
210
0.0
220
0.0
230
1.0
 70
     8
 71
     3
 72
    11
 73
     7
 74
     0
 42
0.000000001
 43
0.0000000001
 40
0.0
 40
0.0
 40
0.0
 40
0.0
 40
0.2503028659
 40
0.5003539952000004
 40
0.7502265416000001
 40
1.0
 40
1.0
 40
1.0
 40
1.0
 10
53.84690730790004
 20
121.6021978417999
 30
0.0
 10
54.00466560840001
 20
121.7561633637
 30
0.0
 10
54.35062870650003
 20
122.0342629955
 30
0.0
 10
54.93904890350005
 20
122.3434278205999
 30
0.0
 10
55.57543416050001
 20
122.5337582313
 30
0.0
 10
56.01664224070003
 20
122.5765701232999
 30
0.0
 10
56.23661434230001
 20
122.5765733061
 30
0.0
  0
SPLINE
  5
96C54
330
1F
100
AcDbEntity
  8
1
100
AcDbSpline
210
0.0
220
0.0
230
1.0
 70
     8
 71
     3
 72
     9
 73
     5
 74
     0
 42
0.000000001
 43
0.0000000001
 40
0.0
 40
0.0
 40
0.0
 40
0.0
 40
0.5004534707000003
 40
1.0
 40
1.0
 40
1.0
 40
1.0
 10
56.45804338780003
 20
117.3878880120001
 30
0.0
 10
56.41286168370001
 20
117.4685199766
 30
0.0
 10
56.29447935260003
 20
117.6154552413
 30
0.0
 10
56.13373585400004
 20
117.7143438259
 30
0.0
 10
56.04814677750002
 20
117.7487890664
 30
0.0
  0
SPLINE
  5
96C55
330
1F
100
AcDbEntity
  8
1
100
AcDbSpline
210
0.0
220
0.0
230
1.0
 70
     8
 71
     3
 72
    11
 73
     7
 74
     0
 42
0.000000001
 43
0.0000000001
 40
0.0
 40
0.0
 40
0.0
 40
0.0
 40
0.2504868588
 40
0.5005802815
 40
0.7503835308
 40
1.0
 40
1.0
 40
1.0
 40
1.0
 10
56.45804338780003
 20
117.3878880120001
 30
0.0
 10
56.47219331640002
 20
117.3626358317
 30
0.0
 10
56.50731519479999
 20
117.3156738427
 30
0.0
 10
56.57640668490003
 20
117.2616600933
 30
0.0
 10
56.65712420610003
 20
117.2276180409
 30
0.0
 10
56.71512804160002
 20
117.2198802724
 30
0.0
 10
56.74397384180004
 20
117.2198780429001
 30
0.0
  0
SPLINE
  5
96C56
330
1F
100
AcDbEntity
  8
1
100
AcDbSpline
210
0.0
220
0.0
230
1.0
 70
     8
 71
     3
 72
    15
 73
    11
 74
     0
 42
0.000000001
 43
0.0000000001
 40
0.0
 40
0.0
 40
0.0
 40
0.0
 40
0.1246785649
 40
0.2493888719
 40
0.3741998967
 40
0.4991303769
 40
0.6241931549000001
 40
0.7493813843000005
 40
0.8746591656999999
 40
1.0
 40
1.0
 40
1.0
 40
1.0
 10
54.80526261610004
 20
119.9007232023
 30
0.0
 10
54.85821781620001
 20
119.9007255569
 30
0.0
 10
54.96443157110002
 20
119.9110995539
 30
0.0
 10
55.11753206390003
 20
119.9572234571
 30
0.0
 10
55.25897331400006
 20
120.032147351
 30
0.0
 10
55.38337409570003
 20
120.1330748769
 30
0.0
 10
55.48609862910002
 20
120.2562001770999
 30
0.0
 10
55.56328831260003
 20
120.3969288144999
 30
0.0
 10
55.61206905950005
 20
120.5499053737
 30
0.0
 10
55.62442764350004
 20
120.6564190894
 30
0.0
 10
55.62545058619999
 20
120.7096457488999
 30
0.0
  0
SPLINE
  5
96C57
330
1F
100
AcDbEntity
  8
1
100
AcDbSpline
210
0.0
220
0.0
230
1.0
 70
     8
 71
     3
 72
    11
 73
     7
 74
     0
 42
0.000000001
 43
0.0000000001
 40
0.0
 40
0.0
 40
0.0
 40
0.0
 40
0.2497351988
 40
0.4996588286
 40
0.7497649053000001
 40
1.0
 40
1.0
 40
1.0
 40
1.0
 10
53.84690730790004
 20
121.6021978417999
 30
0.0
 10
53.72208893689999
 20
121.4803803173
 30
0.0
 10
53.49055107080005
 20
121.2171896584
 30
0.0
 10
53.20719491990003
 20
120.7745505379999
 30
0.0
 10
52.99377333010006
 20
120.2938890792
 30
0.0
 10
52.90143197120002
 20
119.9552473742999
 30
0.0
 10
52.86832105040002
 20
119.7836527823
 30
0.0
  0
SPLINE
  5
96C58
330
1F
100
AcDbEntity
  8
1
100
AcDbSpline
210
0.0
220
0.0
230
1.0
 70
     8
 71
     3
 72
    11
 73
     7
 74
     0
 42
0.000000001
 43
0.0000000001
 40
0.0
 40
0.0
 40
0.0
 40
0.0
 40
0.249372664
 40
0.4991084629
 40
0.7493605685000003
 40
1.0
 40
1.0
 40
1.0
 40
1.0
 10
55.95358154730003
 20
121.0332694103
 30
0.0
 10
55.91140668560004
 20
121.03327267
 30
0.0
 10
55.82608740590004
 20
121.0164872388999
 30
0.0
 10
55.71786682180004
 20
120.9447083880999
 30
0.0
 10
55.64453015729999
 20
120.8373032644
 30
0.0
 10
55.62626509570003
 20
120.7520270252
 30
0.0
 10
55.62545058619999
 20
120.7096457488999
 30
0.0
  0
SPLINE
  5
96C59
330
1F
100
AcDbEntity
  8
1
100
AcDbSpline
210
0.0
220
0.0
230
1.0
 70
     8
 71
     3
 72
     9
 73
     5
 74
     0
 42
0.000000001
 43
0.0000000001
 40
0.0
 40
0.0
 40
0.0
 40
0.0
 40
0.4998150085
 40
1.0
 40
1.0
 40
1.0
 40
1.0
 10
56.95421661760005
 20
120.4453052028
 30
0.0
 10
57.02298404100005
 20
120.4453083039999
 30
0.0
 10
57.16112991930003
 20
120.4628450138
 30
0.0
 10
57.29040978700004
 20
120.5145885088
 30
0.0
 10
57.35058435260004
 20
120.5479798834
 30
0.0
  0
SPLINE
  5
96C5A
330
1F
100
AcDbEntity
  8
1
100
AcDbSpline
210
0.0
220
0.0
230
1.0
 70
     8
 71
     3
 72
     9
 73
     5
 74
     0
 42
0.000000001
 43
0.0000000001
 40
0.0
 40
0.0
 40
0.0
 40
0.0
 40
0.4998029695000001
 40
1.0
 40
1.0
 40
1.0
 40
1.0
 10
57.50915839530001
 20
120.5890546244
 30
0.0
 10
57.48164743540005
 20
120.589056854
 30
0.0
 10
57.42637916119999
 20
120.5820400839
 30
0.0
 10
57.37465883020004
 20
120.5613390143
 30
0.0
 10
57.35058435260004
 20
120.5479798834
 30
0.0
  0
SPLINE
  5
96C5B
330
1F
100
AcDbEntity
  8
1
100
AcDbSpline
210
0.0
220
0.0
230
1.0
 70
     8
 71
     3
 72
    23
 73
    19
 74
     0
 42
0.000000001
 43
0.0000000001
 40
0.0
 40
0.0
 40
0.0
 40
0.0
 40
0.0622939203
 40
0.1246026765
 40
0.1869397927
 40
0.2493163098
 40
0.3117398198
 40
0.3742138065
 40
0.4367373481000003
 40
0.4993052055
 40
0.5619082838000004
 40
0.6245344321000001
 40
0.6871694978000003
 40
0.7497986084
 40
0.8124071706999998
 40
0.8749833976999996
 40
0.9375148221999999
 40
1.0
 40
1.0
 40
1.0
 40
1.0
 10
56.30696630930003
 20
122.5765733061
 30
0.0
 10
56.47630603040003
 20
122.5765757562
 30
0.0
 10
56.81556717810003
 20
122.5512638312
 30
0.0
 10
57.31284776960001
 20
122.4382117937
 30
0.0
 10
57.7881797262
 20
122.2525509334
 30
0.0
 10
58.23099249640003
 20
121.9983610915
 30
0.0
 10
58.63161886780003
 20
121.6812222011
 30
0.0
 10
58.98126965630003
 20
121.3080936447
 30
0.0
 10
59.27228904490005
 20
120.8871595611
 30
0.0
 10
59.49830408880004
 20
120.4276489061
 30
0.0
 10
59.65436718600006
 20
119.9396328928
 30
0.0
 10
59.73706322990008
 20
119.4338050925999
 30
0.0
 10
59.74458516320003
 20
118.9212476059
 30
0.0
 10
59.67676541760005
 20
118.4131872480999
 30
0.0
 10
59.53509900700002
 20
117.9207580689
 30
0.0
 10
59.32265036340004
 20
117.4547307982
 30
0.0
 10
59.04418550560004
 20
117.0254067115
 30
0.0
 10
58.81823462460001
 20
116.7695883519
 30
0.0
 10
58.69667334369999
 20
116.6509496114999
 30
0.0
  0
SPLINE
  5
96C5C
330
1F
100
AcDbEntity
  8
1
100
AcDbSpline
210
0.0
220
0.0
230
1.0
 70
     8
 71
     3
 72
     9
 73
     5
 74
     0
 42
0.000000001
 43
0.0000000001
 40
0.0
 40
0.0
 40
0.0
 40
0.0
 40
0.4998392536
 40
1.0
 40
1.0
 40
1.0
 40
1.0
 10
58.00803699730002
 20
116.130427088
 30
0.0
 10
58.13302096160004
 20
116.2021703566
 30
0.0
 10
58.37424234010004
 20
116.3616567435
 30
0.0
 10
58.59347265820002
 20
116.5502300464999
 30
0.0
 10
58.69667334369999
 20
116.6509496114999
 30
0.0
  0
SPLINE
  5
96C5D
330
1F
100
AcDbEntity
  8
1
100
AcDbSpline
210
0.0
220
0.0
230
1.0
 70
     8
 71
     3
 72
    11
 73
     7
 74
     0
 42
0.000000001
 43
0.0000000001
 40
0.0
 40
0.0
 40
0.0
 40
0.0
 40
0.249734847
 40
0.4996584320000001
 40
0.7497647187
 40
1.0
 40
1.0
 40
1.0
 40
1.0
 10
53.91725927480003
 20
121.6021978417999
 30
0.0
 10
53.79217549440006
 20
121.4801212887
 30
0.0
 10
53.56018333410002
 20
121.2163281975
 30
0.0
 10
53.27643535119999
 20
120.7726024916
 30
0.0
 10
53.06294482910004
 20
120.2907381112
 30
0.0
 10
52.97078850490003
 20
119.9512648056999
 30
0.0
 10
52.93782877240005
 20
119.7792623459001
 30
0.0
  0
SPLINE
  5
96C5E
330
1F
100
AcDbEntity
  8
1
100
AcDbSpline
210
0.0
220
0.0
230
1.0
 70
     8
 71
     3
 72
    11
 73
     7
 74
     0
 42
0.000000001
 43
0.0000000001
 40
0.0
 40
0.0
 40
0.0
 40
0.0
 40
0.2503028659
 40
0.5003539952000004
 40
0.7502265416000001
 40
1.0
 40
1.0
 40
1.0
 40
1.0
 10
53.91725927480003
 20
121.6021978417999
 30
0.0
 10
54.07501757530003
 20
121.7561633637
 30
0.0
 10
54.42098067350008
 20
122.0342629955
 30
0.0
 10
55.00940087040003
 20
122.3434278205999
 30
0.0
 10
55.64578612750003
 20
122.5337582313
 30
0.0
 10
56.08699420770003
 20
122.5765701232999
 30
0.0
 10
56.30696630930003
 20
122.5765733061
 30
0.0
  0
SPLINE
  5
96C5F
330
1F
100
AcDbEntity
  8
1
100
AcDbSpline
210
0.0
220
0.0
230
1.0
 70
     8
 71
     3
 72
     9
 73
     5
 74
     0
 42
0.000000001
 43
0.0000000001
 40
0.0
 40
0.0
 40
0.0
 40
0.0
 40
0.4996781055
 40
1.0
 40
1.0
 40
1.0
 40
1.0
 10
54.72030731130004
 20
120.8135924672
 30
0.0
 10
54.56666337960001
 20
120.6636423977001
 30
0.0
 10
54.29933690830003
 20
120.319464671
 30
0.0
 10
54.13587855460002
 20
119.9155257708
 30
0.0
 10
54.08306268820002
 20
119.707149162
 30
0.0
  0
SPLINE
  5
96C60
330
1F
100
AcDbEntity
  8
1
100
AcDbSpline
210
0.0
220
0.0
230
1.0
 70
     8
 71
     3
 72
     9
 73
     5
 74
     0
 42
0.000000001
 43
0.0000000001
 40
0.0
 40
0.0
 40
0.0
 40
0.0
 40
0.4996958497
 40
1.0
 40
1.0
 40
1.0
 40
1.0
 10
56.93682147069999
 20
116.8511355525001
 30
0.0
 10
57.13107314210001
 20
116.9018930972
 30
0.0
 10
57.50820910130002
 20
117.0546266461
 30
0.0
 10
57.83338807689999
 20
117.2991536248001
 30
0.0
 10
57.97724807780003
 20
117.439554986
 30
0.0
  0
SPLINE
  5
96C61
330
1F
100
AcDbEntity
  8
1
100
AcDbSpline
210
0.0
220
0.0
230
1.0
 70
     8
 71
     3
 72
    15
 73
    11
 74
     0
 42
0.000000001
 43
0.0000000001
 40
0.0
 40
0.0
 40
0.0
 40
0.0
 40
0.125029573
 40
0.2501336327
 40
0.3752819659
 40
0.5004144929
 40
0.6254841333
 40
0.7504531966
 40
0.8752884676999999
 40
1.0
 40
1.0
 40
1.0
 40
1.0
 10
57.79164221190001
 20
120.0910646813
 30
0.0
 10
57.76449366160003
 20
120.0449093012
 30
0.0
 10
57.71906815040003
 20
119.9470059842
 30
0.0
 10
57.68066644470005
 20
119.7899397577
 30
0.0
 10
57.67326233600005
 20
119.6283143354999
 30
0.0
 10
57.6971901919
 20
119.4683269307
 30
0.0
 10
57.75151873520002
 20
119.3160357551
 30
0.0
 10
57.83421912890003
 20
119.1772229239999
 30
0.0
 10
57.94207830850004
 20
119.0571936712
 30
0.0
 10
58.02824758570007
 20
118.9926135354999
 30
0.0
 10
58.07391146100005
 20
118.9649078611001
 30
0.0
  0
SPLINE
  5
96C62
330
1F
100
AcDbEntity
  8
1
100
AcDbSpline
210
0.0
220
0.0
230
1.0
 70
     8
 71
     3
 72
     9
 73
     5
 74
     0
 42
0.000000001
 43
0.0000000001
 40
0.0
 40
0.0
 40
0.0
 40
0.0
 40
0.5005251464000004
 40
1.0
 40
1.0
 40
1.0
 40
1.0
 10
56.05136076740003
 20
120.8652594413
 30
0.0
 10
56.03091557630003
 20
120.901746244
 30
0.0
 10
55.97557695250003
 20
120.9674366101
 30
0.0
 10
55.89951138480003
 20
121.0073837581
 30
0.0
 10
55.85954450490003
 20
121.0194090419
 30
0.0
  0
SPLINE
  5
96C63
330
1F
100
AcDbEntity
  8
1
100
AcDbSpline
210
0.0
220
0.0
230
1.0
 70
     8
 71
     3
 72
    11
 73
     7
 74
     0
 42
0.000000001
 43
0.0000000001
 40
0.0
 40
0.0
 40
0.0
 40
0.0
 40
0.2496189639
 40
0.4994185253000003
 40
0.749516036
 40
1.0
 40
1.0
 40
1.0
 40
1.0
 10
56.76606537920005
 20
120.4453089497
 30
0.0
 10
56.69396231460002
 20
120.4453062257
 30
0.0
 10
56.54897668310004
 20
120.4646512308
 30
0.0
 10
56.34721494720003
 20
120.5497385601
 30
0.0
 10
56.17452130970002
 20
120.6847571845
 30
0.0
 10
56.08672921680002
 20
120.8021403623
 30
0.0
 10
56.05136076740003
 20
120.8652594413
 30
0.0
  0
SPLINE
  5
96C64
330
1F
100
AcDbEntity
  8
1
100
AcDbSpline
210
0.0
220
0.0
230
1.0
 70
     8
 71
     3
 72
    15
 73
    11
 74
     0
 42
0.000000001
 43
0.0000000001
 40
0.0
 40
0.0
 40
0.0
 40
0.0
 40
0.1250893857
 40
0.2502769307
 40
0.3754807543999999
 40
0.5006435652000001
 40
0.6257006247
 40
0.7506142127
 40
0.8753740118000001
 40
1.0
 40
1.0
 40
1.0
 40
1.0
 10
57.60349097800002
 20
120.0910646813
 30
0.0
 10
57.61609958140002
 20
120.1125006282
 30
0.0
 10
57.63653427690002
 20
120.1584184389
 30
0.0
 10
57.65094906610002
 20
120.2322815605
 30
0.0
 10
57.64849137820004
 20
120.3075483577001
 30
0.0
 10
57.62926969240004
 20
120.3803260577
 30
0.0
 10
57.59426771550002
 20
120.4469033962
 30
0.0
 10
57.54526074800003
 20
120.5038727569
 30
0.0
 10
57.48479993860001
 20
120.5482999812
 30
0.0
 10
57.43878177850004
 20
120.5680772797
 30
0.0
 10
57.41505513470002
 20
120.5752151521999
 30
0.0
  0
SPLINE
  5
96C65
330
1F
100
AcDbEntity
  8
1
100
AcDbSpline
210
0.0
220
0.0
230
1.0
 70
     8
 71
     3
 72
    15
 73
    11
 74
     0
 42
0.000000001
 43
0.0000000001
 40
0.0
 40
0.0
 40
0.0
 40
0.0
 40
0.1247078047
 40
0.2495480571
 40
0.3745154309000001
 40
0.4995855041
 40
0.6247184673
 40
0.7498651064000002
 40
0.8749741643
 40
1.0
 40
1.0
 40
1.0
 40
1.0
 10
57.8857602271
 20
118.9649078611001
 30
0.0
 10
57.84009766500003
 20
118.9926127388001
 30
0.0
 10
57.75392897110004
 20
119.0571942927
 30
0.0
 10
57.64606588200003
 20
119.1772202256
 30
0.0
 10
57.56336681470003
 20
119.3160360139999
 30
0.0
 10
57.50903606860003
 20
119.4683262018999
 30
0.0
 10
57.48511061980003
 20
119.6283137745
 30
0.0
 10
57.49251216770002
 20
119.7899411827
 30
0.0
 10
57.53091887860003
 20
119.947006335
 30
0.0
 10
57.57634320850005
 20
120.0449106285
 30
0.0
 10
57.60349097800002
 20
120.0910646813
 30
0.0
  0
SPLINE
  5
96C66
330
1F
100
AcDbEntity
  8
1
100
AcDbSpline
210
0.0
220
0.0
230
1.0
 70
     8
 71
     3
 72
    15
 73
    11
 74
     0
 42
0.000000001
 43
0.0000000001
 40
0.0
 40
0.0
 40
0.0
 40
0.0
 40
0.1251729074
 40
0.2504207204
 40
0.3756829531000001
 40
0.5008555791
 40
0.6258751821999999
 40
0.7507163117
 40
0.8754016667
 40
1.0
 40
1.0
 40
1.0
 40
1.0
 10
57.79164221190001
 20
120.0910646813
 30
0.0
 10
57.80626213510004
 20
120.1159200826
 30
0.0
 10
57.8290721271
 20
120.1697613881
 30
0.0
 10
57.84113717810004
 20
120.2564205882
 30
0.0
 10
57.83041079070002
 20
120.3433106778
 30
0.0
 10
57.79757182050001
 20
120.4244016829
 30
0.0
 10
57.74488968040003
 20
120.4941331186001
 30
0.0
 10
57.67595135820002
 20
120.5476930796
 30
0.0
 10
57.59557800620001
 20
120.581390564
 30
0.0
 10
57.53786234570004
 20
120.5890522981
 30
0.0
 10
57.50915839530001
 20
120.5890546244
 30
0.0
  0
SPLINE
  5
96C67
330
1F
100
AcDbEntity
  8
1
100
AcDbSpline
210
0.0
220
0.0
230
1.0
 70
     8
 71
     3
 72
    15
 73
    11
 74
     0
 42
0.000000001
 43
0.0000000001
 40
0.0
 40
0.0
 40
0.0
 40
0.0
 40
0.1253365997
 40
0.2506194889
 40
0.3758055221999999
 40
0.5008685815999999
 40
0.6257990807000004
 40
0.7506086562000001
 40
0.8753220836
 40
1.0
 40
1.0
 40
1.0
 40
1.0
 10
56.88395356900008
 20
117.5435017043001
 30
0.0
 10
56.88497647840002
 20
117.5967266289
 30
0.0
 10
56.89733667520002
 20
117.703240369
 30
0.0
 10
56.94611219350004
 20
117.8562183626
 30
0.0
 10
57.02330508610003
 20
117.9969471034
 30
0.0
 10
57.12602705530002
 20
118.1200736374
 30
0.0
 10
57.25042870900003
 20
118.2209996996
 30
0.0
 10
57.39186969020004
 20
118.2959259763
 30
0.0
 10
57.54497188640002
 20
118.34204731
 30
0.0
 10
57.65118656110003
 20
118.3524211505
 30
0.0
 10
57.70414154880004
 20
118.3524241933
 30
0.0
  0
SPLINE
  5
96C68
330
1F
100
AcDbEntity
  8
1
100
AcDbSpline
210
0.0
220
0.0
230
1.0
 70
     8
 71
     3
 72
    11
 73
     7
 74
     0
 42
0.000000001
 43
0.0000000001
 40
0.0
 40
0.0
 40
0.0
 40
0.0
 40
0.2504798302
 40
0.5005842428000003
 40
0.7503828717000001
 40
1.0
 40
1.0
 40
1.0
 40
1.0
 10
56.23951200130003
 20
120.8652594413
 30
0.0
 10
56.27487989500003
 20
120.8021413538
 30
0.0
 10
56.36267376500004
 20
120.684759421
 30
0.0
 10
56.5353631089
 20
120.5497321314
 30
0.0
 10
56.737131163
 20
120.4646577068
 30
0.0
 10
56.88211402600003
 20
120.4453019511
 30
0.0
 10
56.95421661760005
 20
120.4453052028
 30
0.0
  0
SPLINE
  5
96C69
330
1F
100
AcDbEntity
  8
1
100
AcDbSpline
210
0.0
220
0.0
230
1.0
 70
     8
 71
     3
 72
    15
 73
    11
 74
     0
 42
0.000000001
 43
0.0000000001
 40
0.0
 40
0.0
 40
0.0
 40
0.0
 40
0.1246277837
 40
0.249368864
 40
0.3743267785
 40
0.4994881284
 40
0.6247624957
 40
0.7500133920000001
 40
0.8751081051999999
 40
1.0
 40
1.0
 40
1.0
 40
1.0
 10
57.90435453290005
 20
118.3523608996001
 30
0.0
 10
57.93974314550002
 20
118.3523634658
 30
0.0
 10
58.01109030800001
 20
118.3640861258
 30
0.0
 10
58.10646927660003
 20
118.4149850604
 30
0.0
 10
58.18077972440002
 20
118.4938326276
 30
0.0
 10
58.22614735390001
 20
118.5923581123
 30
0.0
 10
58.23789064970004
 20
118.7002670569
 30
0.0
 10
58.21476929960002
 20
118.8063232029999
 30
0.0
 10
58.15929109090004
 20
118.8993920823
 30
0.0
 10
58.10423085290003
 20
118.9465121555999
 30
0.0
 10
58.07391146100005
 20
118.9649078611001
 30
0.0
  0
SPLINE
  5
96C6A
330
1F
100
AcDbEntity
  8
1
100
AcDbSpline
210
0.0
220
0.0
230
1.0
 70
     8
 71
     3
 72
    15
 73
    11
 74
     0
 42
0.000000001
 43
0.0000000001
 40
0.0
 40
0.0
 40
0.0
 40
0.0
 40
0.1246350391
 40
0.2493735368
 40
0.3743327057
 40
0.4994942835
 40
0.624767636
 40
0.7500175542000001
 40
0.8751070309000001
 40
1.0
 40
1.0
 40
1.0
 40
1.0
 10
57.71769869020002
 20
118.3523645058
 30
0.0
 10
57.75302761740004
 20
118.3525305449
 30
0.0
 10
57.82419709060004
 20
118.3645352726
 30
0.0
 10
57.91921323410003
 20
118.4157029047
 30
0.0
 10
57.99314867020004
 20
118.4946359609
 30
0.0
 10
58.03817383620003
 20
118.5931040553
 30
0.0
 10
58.04969296250002
 20
118.7008406873
 30
0.0
 10
58.02645305270002
 20
118.8066699603
 30
0.0
 10
57.97100218850005
 20
118.8995259926
 30
0.0
 10
57.91602731570003
 20
118.9465438895999
 30
0.0
 10
57.8857602271
 20
118.9649078611001
 30
0.0
  0
SPLINE
  5
96C6B
330
1F
100
AcDbEntity
  8
1
100
AcDbSpline
210
0.0
220
0.0
230
1.0
 70
     8
 71
     3
 72
    15
 73
    11
 74
     0
 42
0.000000001
 43
0.0000000001
 40
0.0
 40
0.0
 40
0.0
 40
0.0
 40
0.1246785649
 40
0.2493888719
 40
0.3741998967
 40
0.4991303769
 40
0.6241931549000001
 40
0.7493813843000005
 40
0.8746591656999999
 40
1.0
 40
1.0
 40
1.0
 40
1.0
 10
57.89229277300001
 20
118.352424251
 30
0.0
 10
57.83933757290004
 20
118.3524218962999
 30
0.0
 10
57.73312381800002
 20
118.3420478993
 30
0.0
 10
57.58002332530001
 20
118.2959239961999
 30
0.0
 10
57.43858207510005
 20
118.2210001023
 30
0.0
 10
57.31418129340005
 20
118.1200725764
 30
0.0
 10
57.21145676000002
 20
117.9969472762
 30
0.0
 10
57.13426707650004
 20
117.8562186387001
 30
0.0
 10
57.08548632960003
 20
117.7032420796
 30
0.0
 10
57.07312774560003
 20
117.5967283637999
 30
0.0
 10
57.07210480290004
 20
117.5435017043001
 30
0.0
  0
SPLINE
  5
96C6C
330
1F
100
AcDbEntity
  8
1
100
AcDbSpline
210
0.0
220
0.0
230
1.0
 70
     8
 71
     3
 72
    11
 73
     7
 74
     0
 42
0.000000001
 43
0.0000000001
 40
0.0
 40
0.0
 40
0.0
 40
0.0
 40
0.2504868588
 40
0.5005802815
 40
0.7503835308
 40
1.0
 40
1.0
 40
1.0
 40
1.0
 10
56.23951200130003
 20
120.8652594413
 30
0.0
 10
56.22536207280001
 20
120.8905116216
 30
0.0
 10
56.19024019430003
 20
120.9374736105
 30
0.0
 10
56.12114870420004
 20
120.99148736
 30
0.0
 10
56.04043118300001
 20
121.0255294123999
 30
0.0
 10
55.98242734760003
 20
121.0332671808
 30
0.0
 10
55.95358154730003
 20
121.0332694103
 30
0.0
  0
SPLINE
  5
96C6D
330
1F
100
AcDbEntity
  8
1
100
AcDbSpline
210
0.0
220
0.0
230
1.0
 70
     8
 71
     3
 72
    11
 73
     7
 74
     0
 42
0.000000001
 43
0.0000000001
 40
0.0
 40
0.0
 40
0.0
 40
0.0
 40
0.249372664
 40
0.4991084629
 40
0.7493605685000003
 40
1.0
 40
1.0
 40
1.0
 40
1.0
 10
56.74397384180004
 20
117.2198780429001
 30
0.0
 10
56.78614870350006
 20
117.2198747832
 30
0.0
 10
56.87146798320004
 20
117.2366602143001
 30
0.0
 10
56.97968856730003
 20
117.3084390652
 30
0.0
 10
57.05302523180003
 20
117.4158441889
 30
0.0
 10
57.07129029340004
 20
117.5011204281
 30
0.0
 10
57.07210480290004
 20
117.5435017043001
 30
0.0
  0
SPLINE
  5
96C6E
330
1F
100
AcDbEntity
  8
1
100
AcDbSpline
210
0.0
220
0.0
230
1.0
 70
     8
 71
     3
 72
    11
 73
     7
 74
     0
 42
0.000000001
 43
0.0000000001
 40
0.0
 40
0.0
 40
0.0
 40
0.0
 40
0.2494302051
 40
0.4992618037
 40
0.7494793536
 40
1.0
 40
1.0
 40
1.0
 40
1.0
 10
56.65017257570003
 20
117.2338104329
 30
0.0
 10
56.68305839820003
 20
117.2437324675
 30
0.0
 10
56.74616383950002
 20
117.2742882651
 30
0.0
 10
56.8216258614
 20
117.3471198072
 30
0.0
 10
56.87103603930006
 20
117.4397880373
 30
0.0
 10
56.88329064550001
 20
117.5090078818
 30
0.0
 10
56.88395356900008
 20
117.5435017043001
 30
0.0
  0
SPLINE
  5
96C6F
330
1F
100
AcDbEntity
  8
1
100
AcDbSpline
210
0.0
220
0.0
230
1.0
 70
     8
 71
     3
 72
    27
 73
    23
 74
     0
 42
0.000000001
 43
0.0000000001
 40
0.0
 40
0.0
 40
0.0
 40
0.0
 40
0.0624445186
 40
0.0936782173
 40
0.1248999768
 40
0.187235785
 40
0.2495476209
 40
0.2807405847
 40
0.3119373971999999
 40
0.3742787158
 40
0.4366688912
 40
0.4991217051
 40
0.5616414453000002
 40
0.6242222031
 40
0.6868487557999999
 40
0.7182099091
 40
0.7495737840000001
 40
0.8122220991999999
 40
0.8748431676
 40
0.9061738855999999
 40
0.9374885443
 40
1.0
 40
1.0
 40
1.0
 40
1.0
 10
54.72030731130004
 20
120.8135924672
 30
0.0
 10
54.82988567450004
 20
120.9205363796999
 30
0.0
 10
55.01072611970005
 20
121.0653077249
 30
0.0
 10
55.27569205670005
 20
121.2195958566
 30
0.0
 10
55.55435667900003
 20
121.3470841419
 30
0.0
 10
55.92406023870001
 20
121.4539181174
 30
0.0
 10
56.30749224150004
 20
121.4860290664
 30
0.0
 10
56.6130642221
 20
121.466310691
 30
0.0
 10
56.91527914460002
 20
121.416623058
 30
0.0
 10
57.28185091270002
 20
121.2988020358
 30
0.0
 10
57.6853541746
 20
121.0740116766
 30
0.0
 10
58.03754863950004
 20
120.7743938473
 30
0.0
 10
58.32479016230003
 20
120.4114519123
 30
0.0
 10
58.53609410600006
 20
119.9992604782
 30
0.0
 10
58.64218026010004
 20
119.6275310744
 30
0.0
 10
58.68254534090002
 20
119.3224033234001
 30
0.0
 10
58.69303056400005
 20
119.0147343863
 30
0.0
 10
58.64971001869999
 20
118.6304962767
 30
0.0
 10
58.53253073560003
 20
118.2620968128
 30
0.0
 10
58.39745879130004
 20
117.9857339978
 30
0.0
 10
58.23628441570003
 20
117.7241658443
 30
0.0
 10
58.08694390300002
 20
117.5466135365
 30
0.0
 10
57.97724807780003
 20
117.439554986
 30
0.0
  0
SPLINE
  5
96C70
330
1F
100
AcDbEntity
  8
1
100
AcDbSpline
210
0.0
220
0.0
230
1.0
 70
     8
 71
     3
 72
     9
 73
     5
 74
     0
 42
0.000000001
 43
0.0000000001
 40
0.0
 40
0.0
 40
0.0
 40
0.0
 40
0.2522513278
 40
1.0
 40
1.0
 40
1.0
 40
1.0
 10
63.50000000010004
 20
125.1939899273999
 30
0.0
 10
63.50036282540003
 20
125.0863142656999
 30
0.0
 10
63.50098325080002
 20
124.659453312
 30
0.0
 10
63.49829928320002
 20
124.2325870637
 30
0.0
 10
63.49437137680002
 20
123.9134264312
 30
0.0
  0
SPLINE
  5
96C71
330
1F
100
AcDbEntity
  8
1
100
AcDbSpline
210
0.0
220
0.0
230
1.0
 70
     8
 71
     3
 72
    15
 73
    11
 74
     0
 42
0.000000001
 43
0.0000000001
 40
0.0
 40
0.0
 40
0.0
 40
0.0
 40
0.1258909591
 40
0.2515353729
 40
0.37677774
 40
0.5015511734000003
 40
0.6260197159000001
 40
0.7504123927
 40
0.8749894196999999
 40
1.0
 40
1.0
 40
1.0
 40
1.0
 10
63.50000000010004
 20
125.1939899273999
 30
0.0
 10
63.49983069630005
 20
125.2442342123
 30
0.0
 10
63.49003407540005
 20
125.3448542826
 30
0.0
 10
63.44731517770004
 20
125.4899269445
 30
0.0
 10
63.37839533330003
 20
125.6240890748
 30
0.0
 10
63.28579341440002
 20
125.7425474749
 30
0.0
 10
63.17268640670005
 20
125.8411169681
 30
0.0
 10
63.04292349860003
 20
125.9163061503999
 30
0.0
 10
62.90102312080002
 20
125.9653681716001
 30
0.0
 10
62.80166592410004
 20
125.9793804024
 30
0.0
 10
62.75182202920004
 20
125.9815979708
 30
0.0
  0
SPLINE
  5
96C72
330
1F
100
AcDbEntity
  8
1
100
AcDbSpline
210
0.0
220
0.0
230
1.0
 70
     8
 71
     3
 72
     9
 73
     5
 74
     0
 42
0.000000001
 43
0.0000000001
 40
0.0
 40
0.0
 40
0.0
 40
0.0
 40
0.2501273353
 40
1.0
 40
1.0
 40
1.0
 40
1.0
 10
61.46884432530001
 20
126.0379398108
 30
0.0
 10
61.57581625270006
 20
126.0333032187999
 30
0.0
 10
62.00348346830002
 20
126.0147048898
 30
0.0
 10
62.43114018960003
 20
125.9958651924
 30
0.0
 10
62.75182202920004
 20
125.9815979708
 30
0.0
  0
SPLINE
  5
96C73
330
1F
100
AcDbEntity
  8
1
100
AcDbSpline
210
0.0
220
0.0
230
1.0
 70
     8
 71
     3
 72
     9
 73
     5
 74
     0
 42
0.000000001
 43
0.0000000001
 40
0.0
 40
0.0
 40
0.0
 40
0.0
 40
0.2480572262
 40
1.0
 40
1.0
 40
1.0
 40
1.0
 10
54.96444114350004
 20
126.1520394045
 30
0.0
 10
55.49786518160003
 20
126.1427858912
 30
0.0
 10
57.64827307470003
 20
126.1055235236
 30
0.0
 10
59.79867498580002
 20
126.067916627
 30
0.0
 10
61.41565274910004
 20
126.0395583433
 30
0.0
  0
SPLINE
  5
96C74
330
1F
100
AcDbEntity
  8
1
100
AcDbSpline
210
0.0
220
0.0
230
1.0
 70
     8
 71
     3
 72
    11
 73
     7
 74
     0
 42
0.000000001
 43
0.0000000001
 40
0.0
 40
0.0
 40
0.0
 40
0.0
 40
0.1243901297
 40
0.2489572321
 40
0.4986653179000001
 40
1.0
 40
1.0
 40
1.0
 40
1.0
 10
53.64529684250001
 20
125.9602196520999
 30
0.0
 10
53.55870178540005
 20
125.9131376119
 30
0.0
 10
53.38525434750001
 20
125.8191534682
 30
0.0
 10
53.03805298920003
 20
125.6305028063
 30
0.0
 10
52.42852207430002
 20
125.2990247405999
 30
0.0
 10
51.90601045810004
 20
125.0141424234
 30
0.0
 10
51.55733503780004
 20
124.8237759726
 30
0.0
  0
LINE
  5
96C75
330
1F
100
AcDbEntity
  8
1
100
AcDbLine
 10
48.42568398380004
 20
123.1072875222
 30
0.0
 11
47.99655370360002
 21
122.871131502
 31
0.0
  0
SPLINE
  5
96C76
330
1F
100
AcDbEntity
  8
1
100
AcDbSpline
210
0.0
220
0.0
230
1.0
 70
     8
 71
     3
 72
     9
 73
     5
 74
     0
 42
0.000000001
 43
0.0000000001
 40
0.0
 40
0.0
 40
0.0
 40
0.0
 40
0.2497895605
 40
1.0
 40
1.0
 40
1.0
 40
1.0
 10
47.9503416521
 20
122.8449027507
 30
0.0
 10
47.85802228990005
 20
122.7908929221001
 30
0.0
 10
47.48879649080002
 20
122.5740521929
 30
0.0
 10
47.12099900840001
 20
122.3547789744
 30
0.0
 10
46.84591386200002
 20
122.1888906554999
 30
0.0
  0
SPLINE
  5
96C77
330
1F
100
AcDbEntity
  8
1
100
AcDbSpline
210
0.0
220
0.0
230
1.0
 70
     8
 71
     3
 72
     9
 73
     5
 74
     0
 42
0.000000001
 43
0.0000000001
 40
0.0
 40
0.0
 40
0.0
 40
0.0
 40
0.5004170096000001
 40
1.0
 40
1.0
 40
1.0
 40
1.0
 10
46.84591386200002
 20
122.1888906554999
 30
0.0
 10
46.80610779880004
 20
122.1648858663999
 30
0.0
 10
46.73069848200003
 20
122.1096917168001
 30
0.0
 10
46.66633734600006
 20
122.0419433392
 30
0.0
 10
46.63748580240003
 20
122.0055957868
 30
0.0
  0
SPLINE
  5
96C78
330
1F
100
AcDbEntity
  8
1
100
AcDbSpline
210
0.0
220
0.0
230
1.0
 70
     8
 71
     3
 72
     9
 73
     5
 74
     0
 42
0.000000001
 43
0.0000000001
 40
0.0
 40
0.0
 40
0.0
 40
0.0
 40
0.2513066159
 40
1.0
 40
1.0
 40
1.0
 40
1.0
 10
46.60500939870003
 20
121.0477309454001
 30
0.0
 10
46.6470303025
 20
120.9685410891
 30
0.0
 10
46.81468237450002
 20
120.6536635557001
 30
0.0
 10
46.98410424910003
 20
120.3397280858
 30
0.0
 10
47.11197199680003
 20
120.1052465981
 30
0.0
  0
SPLINE
  5
96C79
330
1F
100
AcDbEntity
  8
1
100
AcDbSpline
210
0.0
220
0.0
230
1.0
 70
     8
 71
     3
 72
    13
 73
     9
 74
     0
 42
0.000000001
 43
0.0000000001
 40
0.0
 40
0.0
 40
0.0
 40
0.0
 40
0.061852439
 40
0.1237686349
 40
0.2479145981
 40
0.4973193091
 40
0.7480551944000001
 40
1.0
 40
1.0
 40
1.0
 40
1.0
 10
63.05296490330004
 20
116.7967425962
 30
0.0
 10
63.02542013670002
 20
116.7474908546
 30
0.0
 10
62.97057151750002
 20
116.6487862686
 30
0.0
 10
62.86036766860004
 20
116.4512655838001
 30
0.0
 10
62.66666822140003
 20
116.1043858657
 30
0.0
 10
62.38830736470004
 20
115.6074741302
 30
0.0
 10
62.05210046490003
 20
115.0093226953
 30
0.0
 10
61.82682050330003
 20
114.6098469152
 30
0.0
 10
61.71377887480002
 20
114.40970256
 30
0.0
  0
SPLINE
  5
96C7A
330
1F
100
AcDbEntity
  8
1
100
AcDbSpline
210
0.0
220
0.0
230
1.0
 70
     8
 71
     3
 72
    10
 73
     6
 74
     0
 42
0.000000001
 43
0.0000000001
 40
0.0
 40
0.0
 40
0.0
 40
0.0
 40
0.2504754671
 40
0.5017607459000001
 40
1.0
 40
1.0
 40
1.0
 40
1.0
 10
54.3853122371
 20
126.1522775318
 30
0.0
 10
54.32091483310003
 20
126.1522766722
 30
0.0
 10
54.19172174480003
 20
126.1438383036
 30
0.0
 10
53.93902998490005
 20
126.0939367413
 30
0.0
 10
53.75783592350003
 20
126.0214075503
 30
0.0
 10
53.64529684250001
 20
125.9602196520999
 30
0.0
  0
SPLINE
  5
96C7B
330
1F
100
AcDbEntity
  8
1
100
AcDbSpline
210
0.0
220
0.0
230
1.0
 70
     8
 71
     3
 72
    19
 73
    15
 74
     0
 42
0.000000001
 43
0.0000000001
 40
0.0
 40
0.0
 40
0.0
 40
0.0
 40
0.1285549101
 40
0.1922096467
 40
0.2551525869
 40
0.2862879158
 40
0.3171875748
 40
0.3788986349
 40
0.4406883516
 40
0.5025522093000001
 40
0.6264977158000004
 40
0.7507262511000004
 40
0.8752297028
 40
1.0
 40
1.0
 40
1.0
 40
1.0
 10
63.25657074000003
 20
117.5517863143
 30
0.0
 10
63.26013178190001
 20
117.8223239588999
 30
0.0
 10
63.26795209860003
 20
118.2267933268
 30
0.0
 10
63.28340733230001
 20
118.7635762229
 30
0.0
 10
63.29510683740005
 20
119.0953429591
 30
0.0
 10
63.30565345010004
 20
119.3581648041
 30
0.0
 10
63.31708110720004
 20
119.618354407
 30
0.0
 10
63.33135038760005
 20
119.9429973113
 30
0.0
 10
63.34823353880003
 20
120.3327566606
 30
0.0
 10
63.37056646750003
 20
120.8533834108
 30
0.0
 10
63.39807091510005
 20
121.5053200032
 30
0.0
 10
63.43041738080003
 20
122.2890026987
 30
0.0
 10
63.46211526400003
 20
123.0744491936
 30
0.0
 10
63.48279723690001
 20
123.5986715544
 30
0.0
 10
63.49302688530002
 20
123.8610680802
 30
0.0
  0
SPLINE
  5
96C7C
330
1F
100
AcDbEntity
  8
1
100
AcDbSpline
210
0.0
220
0.0
230
1.0
 70
     8
 71
     3
 72
     8
 73
     4
 74
     0
 42
0.000000001
 43
0.0000000001
 40
0.0
 40
0.0
 40
0.0
 40
0.0
 40
1.0
 40
1.0
 40
1.0
 40
1.0
 10
63.49437137680002
 20
123.9134264312
 30
0.0
 10
63.49415653110003
 20
123.8959692163
 30
0.0
 10
63.49370699770003
 20
123.8785133648
 30
0.0
 10
63.49302688530002
 20
123.8610680802
 30
0.0
  0
SPLINE
  5
96C7D
330
1F
100
AcDbEntity
  8
1
100
AcDbSpline
210
0.0
220
0.0
230
1.0
 70
     8
 71
     3
 72
     8
 73
     4
 74
     0
 42
0.000000001
 43
0.0000000001
 40
0.0
 40
0.0
 40
0.0
 40
0.0
 40
1.0
 40
1.0
 40
1.0
 40
1.0
 10
61.46884432530001
 20
126.0379398108
 30
0.0
 10
61.45112223310004
 20
126.0387079573001
 30
0.0
 10
61.43338875340004
 20
126.0392472922
 30
0.0
 10
61.41565274910004
 20
126.0395583433
 30
0.0
  0
SPLINE
  5
96C7E
330
1F
100
AcDbEntity
  8
1
100
AcDbSpline
210
0.0
220
0.0
230
1.0
 70
     8
 71
     3
 72
     8
 73
     4
 74
     0
 42
0.000000001
 43
0.0000000001
 40
0.0
 40
0.0
 40
0.0
 40
0.0
 40
1.0
 40
1.0
 40
1.0
 40
1.0
 10
47.99655370360002
 20
122.871131502
 30
0.0
 10
47.98103743270002
 20
122.8625893896999
 30
0.0
 10
47.96562976600006
 20
122.8538467944
 30
0.0
 10
47.9503416521
 20
122.8449027507
 30
0.0
  0
SPLINE
  5
96C7F
330
1F
100
AcDbEntity
  8
1
100
AcDbSpline
210
0.0
220
0.0
230
1.0
 70
     8
 71
     3
 72
    10
 73
     6
 74
     0
 42
0.000000001
 43
0.0000000001
 40
0.0
 40
0.0
 40
0.0
 40
0.0
 40
0.4914564779
 40
0.7454332487000001
 40
1.0
 40
1.0
 40
1.0
 40
1.0
 10
63.05296490330004
 20
116.7967425962
 30
0.0
 10
63.11603673220003
 20
116.9095189167
 30
0.0
 10
63.19060899380001
 20
117.0934440054999
 30
0.0
 10
63.24521514120005
 20
117.3510641270999
 30
0.0
 10
63.25568980910002
 20
117.4848606916
 30
0.0
 10
63.25657074000003
 20
117.5517863143
 30
0.0
  0
SPLINE
  5
96C80
330
1F
100
AcDbEntity
  8
1
100
AcDbSpline
210
0.0
220
0.0
230
1.0
 70
     8
 71
     3
 72
    15
 73
    11
 74
     0
 42
0.000000001
 43
0.0000000001
 40
0.0
 40
0.0
 40
0.0
 40
0.0
 40
0.1306951903
 40
0.2579311511
 40
0.3197216409
 40
0.3810700132
 40
0.5040795617000004
 40
0.6274861323
 40
0.7512804915000002
 40
1.0
 40
1.0
 40
1.0
 40
1.0
 10
54.19785852470005
 20
125.9602196520999
 30
0.0
 10
53.96486683100005
 20
125.8284955977
 30
0.0
 10
53.50585542580002
 20
125.5671079835
 30
0.0
 10
52.93886406200003
 20
125.23964306
 30
0.0
 10
52.49635508600005
 20
124.9806267761
 30
0.0
 10
52.06151792060004
 20
124.7256391589
 30
0.0
 10
51.5176191871
 20
124.4071854392
 30
0.0
 10
50.86321889380002
 20
124.0243623215
 30
0.0
 10
49.98634820439999
 20
123.5119909885
 30
0.0
 10
49.32741103310004
 20
123.1275822158
 30
0.0
 10
48.88733005939999
 20
122.871131502
 30
0.0
  0
SPLINE
  5
96C81
330
1F
100
AcDbEntity
  8
1
100
AcDbSpline
210
0.0
220
0.0
230
1.0
 70
     8
 71
     3
 72
     9
 73
     5
 74
     0
 42
0.000000001
 43
0.0000000001
 40
0.0
 40
0.0
 40
0.0
 40
0.0
 40
0.2535363285
 40
1.0
 40
1.0
 40
1.0
 40
1.0
 10
47.77346451420004
 20
122.1888906554999
 30
0.0
 10
47.86413674880003
 20
122.2439593258
 30
0.0
 10
48.22154819810005
 20
122.4615214402
 30
0.0
 10
48.57807140530002
 20
122.6805432443
 30
0.0
 10
48.8436646837
 20
122.8449027507
 30
0.0
  0
SPLINE
  5
96C82
330
1F
100
AcDbEntity
  8
1
100
AcDbSpline
210
0.0
220
0.0
230
1.0
 70
     8
 71
     3
 72
    15
 73
    11
 74
     0
 42
0.000000001
 43
0.0000000001
 40
0.0
 40
0.0
 40
0.0
 40
0.0
 40
0.1239266789
 40
0.2482214032
 40
0.3727496982
 40
0.4974984314000002
 40
0.6225901695000001
 40
0.7480776386
 40
0.8739263151000001
 40
1.0
 40
1.0
 40
1.0
 40
1.0
 10
47.77346451420004
 20
122.1888906554999
 30
0.0
 10
47.73099206709999
 20
122.1630955353
 30
0.0
 10
47.65067571320003
 20
122.1031084388001
 30
0.0
 10
47.54942381630004
 20
121.9919963179
 30
0.0
 10
47.47081216700005
 20
121.8634088527
 30
0.0
 10
47.41780561720003
 20
121.7220068255
 30
0.0
 10
47.39214948510005
 20
121.5728139300001
 30
0.0
 10
47.39471607000001
 20
121.4210066305
 30
0.0
 10
47.42539204029998
 20
121.2719657424
 30
0.0
 10
47.46393196200002
 20
121.1778474619
 30
0.0
 10
47.48734542100004
 20
121.1330433519
 30
0.0
  0
SPLINE
  5
96C83
330
1F
100
AcDbEntity
  8
1
100
AcDbSpline
210
0.0
220
0.0
230
1.0
 70
     8
 71
     3
 72
     9
 73
     5
 74
     0
 42
0.000000001
 43
0.0000000001
 40
0.0
 40
0.0
 40
0.0
 40
0.0
 40
0.2469388703
 40
1.0
 40
1.0
 40
1.0
 40
1.0
 10
48.03572282860002
 20
120.0551147427
 30
0.0
 10
47.99158360100006
 20
120.1443448655
 30
0.0
 10
47.81179337560003
 20
120.5051723165
 30
0.0
 10
47.62795119490003
 20
120.8639794536999
 30
0.0
 10
47.48734542100004
 20
121.1330433519
 30
0.0
  0
SPLINE
  5
96C84
330
1F
100
AcDbEntity
  8
1
100
AcDbSpline
210
0.0
220
0.0
230
1.0
 70
     8
 71
     3
 72
     9
 73
     5
 74
     0
 42
0.000000001
 43
0.0000000001
 40
0.0
 40
0.0
 40
0.0
 40
0.0
 40
0.4992837764
 40
1.0
 40
1.0
 40
1.0
 40
1.0
 10
54.93697648090003
 20
126.1522776042999
 30
0.0
 10
54.80880995160004
 20
126.1522765733
 30
0.0
 10
54.55092432650005
 20
126.1208989318001
 30
0.0
 10
54.30974884800003
 20
126.0234779031
 30
0.0
 10
54.19785852470005
 20
125.9602196520999
 30
0.0
  0
SPLINE
  5
96C85
330
1F
100
AcDbEntity
  8
1
100
AcDbSpline
210
0.0
220
0.0
230
1.0
 70
     8
 71
     3
 72
     8
 73
     4
 74
     0
 42
0.000000001
 43
0.0000000001
 40
0.0
 40
0.0
 40
0.0
 40
0.0
 40
1.0
 40
1.0
 40
1.0
 40
1.0
 10
48.8436646837
 20
122.8449027507
 30
0.0
 10
48.8581027787
 20
122.8538376084
 30
0.0
 10
48.87266004310004
 20
122.8625827658
 30
0.0
 10
48.88733005939999
 20
122.871131502
 30
0.0
  0
LINE
  5
96C86
330
1F
100
AcDbEntity
  8
1
100
AcDbLine
 10
48.19399573170006
 20
120.0660653063001
 30
0.0
 11
48.20409922890002
 21
120.0458296708
 31
0.0
  0
LINE
  5
96C87
330
1F
100
AcDbEntity
  8
1
100
AcDbLine
 10
48.25298063870003
 20
120.0433167451
 30
0.0
 11
48.19400390930002
 21
120.0660487194999
 31
0.0
  0
SPLINE
  5
96C88
330
1F
100
AcDbEntity
  8
1
100
AcDbSpline
210
0.0
220
0.0
230
1.0
 70
     8
 71
     3
 72
    16
 73
    12
 74
     0
 42
0.000000001
 43
0.0000000001
 40
0.0
 40
0.0
 40
0.0
 40
0.0
 40
0.0812262273
 40
0.1343103148
 40
0.2011421034
 40
0.2872078989
 40
0.3878863853
 40
0.5653735244
 40
0.7010139265000001
 40
0.8133319381999999
 40
1.0
 40
1.0
 40
1.0
 40
1.0
 10
59.89678434700003
 20
115.6488030213
 30
0.0
 10
59.75940105420004
 20
115.6412661424
 30
0.0
 10
59.53084205290003
 20
115.6485255235
 30
0.0
 10
59.19346776350005
 20
115.6978905666
 30
0.0
 10
58.85353480840004
 20
115.7788978927001
 30
0.0
 10
58.44667100650005
 20
115.9189249529001
 30
0.0
 10
57.88581953630006
 20
116.1783976274
 30
0.0
 10
57.29097691000004
 20
116.5550288728
 30
0.0
 10
56.7341863557
 20
117.0144828781
 30
0.0
 10
56.21213111270003
 20
117.5345240587
 30
0.0
 10
55.89364522360003
 20
117.9310583972
 30
0.0
 10
55.71377005930003
 20
118.1911095537
 30
0.0
  0
SPLINE
  5
96C89
330
1F
100
AcDbEntity
  8
1
100
AcDbSpline
210
0.0
220
0.0
230
1.0
 70
     8
 71
     3
 72
    11
 73
     7
 74
     0
 42
0.000000001
 43
0.0000000001
 40
0.0
 40
0.0
 40
0.0
 40
0.0
 40
0.2080463879
 40
0.4389645999000001
 40
0.7001471725
 40
1.0
 40
1.0
 40
1.0
 40
1.0
 10
61.71377005930003
 20
114.9670270117
 30
0.0
 10
61.71377005930003
 20
115.0756744193001
 30
0.0
 10
61.69615629400003
 20
115.3051816501
 30
0.0
 10
61.61655675640003
 20
115.6631839884
 30
0.0
 10
61.47327585370003
 20
116.0523521661
 30
0.0
 10
61.33824660810003
 20
116.3132923331
 30
0.0
 10
61.25897313770003
 20
116.4483349895999
 30
0.0
  0
SPLINE
  5
96C8A
330
1F
100
AcDbEntity
  8
1
100
AcDbSpline
210
0.0
220
0.0
230
1.0
 70
     8
 71
     3
 72
     9
 73
     5
 74
     0
 42
0.000000001
 43
0.0000000001
 40
0.0
 40
0.0
 40
0.0
 40
0.0
 40
0.2552156462
 40
1.0
 40
1.0
 40
1.0
 40
1.0
 10
51.32670545410003
 20
125.2502456420999
 30
0.0
 10
51.31621358010004
 20
125.2565275944
 30
0.0
 10
51.27513600939999
 20
125.2811957618001
 30
0.0
 10
51.23418051450002
 20
125.3060670258
 30
0.0
 10
51.20373746060004
 20
125.3246883812
 30
0.0
  0
SPLINE
  5
96C8B
330
1F
100
AcDbEntity
  8
1
100
AcDbSpline
210
0.0
220
0.0
230
1.0
 70
     8
 71
     3
 72
    18
 73
    14
 74
     0
 42
0.000000001
 43
0.0000000001
 40
0.0
 40
0.0
 40
0.0
 40
0.0
 40
0.2110925388
 40
0.4015295992000001
 40
0.5687742852000001
 40
0.7106247707
 40
0.8252818565
 40
0.8719953067
 40
0.9114881472
 40
0.9437388086
 40
0.9688518306
 40
0.9872120058
 40
1.0
 40
1.0
 40
1.0
 40
1.0
 10
49.64831094920004
 20
125.5617216792
 30
0.0
 10
49.56069489200004
 20
125.5661864415
 30
0.0
 10
49.39409468
 20
125.5759229296
 30
0.0
 10
49.15838967090002
 20
125.5939742211
 30
0.0
 10
48.95176200980003
 20
125.6143420709
 30
0.0
 10
48.77703958010005
 20
125.6365802909
 30
0.0
 10
48.65267181690001
 20
125.6573188163001
 30
0.0
 10
48.57110868150003
 20
125.6751792129
 30
0.0
 10
48.52350559450003
 20
125.6878326984
 30
0.0
 10
48.48528315040005
 20
125.7005297389
 30
0.0
 10
48.45642390210002
 20
125.7133659345001
 30
0.0
 10
48.43669890280001
 20
125.7259861415
 30
0.0
 10
48.42822695040005
 20
125.7366488577001
 30
0.0
 10
48.42668597540003
 20
125.7417352243
 30
0.0
  0
SPLINE
  5
96C8C
330
1F
100
AcDbEntity
  8
1
100
AcDbSpline
210
0.0
220
0.0
230
1.0
 70
     8
 71
     3
 72
    14
 73
    10
 74
     0
 42
0.000000001
 43
0.0000000001
 40
0.0
 40
0.0
 40
0.0
 40
0.0
 40
0.0591557117
 40
0.1368909643
 40
0.2341479361
 40
0.351084825
 40
0.4872694887
 40
0.6417742011
 40
1.0
 40
1.0
 40
1.0
 40
1.0
 10
51.20373746060004
 20
125.3246883812
 30
0.0
 10
51.17712807490003
 20
125.340964765
 30
0.0
 10
51.11092533670003
 20
125.3708486131
 30
0.0
 10
50.99295343260004
 20
125.4075783226
 30
0.0
 10
50.84269485940001
 20
125.4416451433
 30
0.0
 10
50.66052172250002
 20
125.4727150211
 30
0.0
 10
50.44734437310006
 20
125.5005382558
 30
0.0
 10
50.10685208860003
 20
125.5347206054
 30
0.0
 10
49.83695756000003
 20
125.5521086005
 30
0.0
 10
49.64831094920004
 20
125.5617216792
 30
0.0
  0
SPLINE
  5
96C8D
330
1F
100
AcDbEntity
  8
1
100
AcDbSpline
210
0.0
220
0.0
230
1.0
 70
     8
 71
     3
 72
     9
 73
     5
 74
     0
 42
0.000000001
 43
0.0000000001
 40
0.0
 40
0.0
 40
0.0
 40
0.0
 40
0.2495065244
 40
1.0
 40
1.0
 40
1.0
 40
1.0
 10
30.85129179640003
 20
119.5135708145
 30
0.0
 10
30.87152887560006
 20
119.5476977193
 30
0.0
 10
30.95284930090003
 20
119.6843495061
 30
0.0
 10
31.03501100950007
 20
119.8205005478
 30
0.0
 10
31.09713027460003
 20
119.9224009052999
 30
0.0
  0
SPLINE
  5
96C8E
330
1F
100
AcDbEntity
  8
1
100
AcDbSpline
210
0.0
220
0.0
230
1.0
 70
     8
 71
     3
 72
    22
 73
    18
 74
     0
 42
0.000000001
 43
0.0000000001
 40
0.0
 40
0.0
 40
0.0
 40
0.0
 40
0.2226656098
 40
0.4191986279
 40
0.588226991
 40
0.6620745815
 40
0.7286449229000001
 40
0.7878373031
 40
0.8395889976000001
 40
0.8838591722
 40
0.9206457252999999
 40
0.9500453298999998
 40
0.9723294366000001
 40
0.9810133722999999
 40
0.9882727090999999
 40
0.9944286857999999
 40
1.0
 40
1.0
 40
1.0
 40
1.0
 10
30.85129179640003
 20
119.5135708145
 30
0.0
 10
30.82007591040007
 20
119.4309749817
 30
0.0
 10
30.76032177290006
 20
119.2758451136
 30
0.0
 10
30.67289722620002
 20
119.0595753347
 30
0.0
 10
30.60419978530001
 20
118.8994184154001
 30
0.0
 10
30.55325736420005
 20
118.7877760611
 30
0.0
 10
30.51910612980004
 20
118.7163611084001
 30
0.0
 10
30.48733295240004
 20
118.6535391034
 30
0.0
 10
30.45800995280001
 20
118.5994093472
 30
0.0
 10
30.43120788610003
 20
118.5540603282
 30
0.0
 10
30.40698589460004
 20
118.5175195507
 30
0.0
 10
30.38539953240004
 20
118.4898374481
 30
0.0
 10
30.36843553550006
 20
118.4727332056
 30
0.0
 10
30.35591989660003
 20
118.4640929699
 30
0.0
 10
30.34790962810004
 20
118.4603929799
 30
0.0
 10
30.34041075660002
 20
118.4589720795
 30
0.0
 10
30.33569815630006
 20
118.4597057262
 30
0.0
 10
30.33361776220005
 20
118.4604493395999
 30
0.0
  0
SPLINE
  5
96C8F
330
1F
100
AcDbEntity
  8
1
100
AcDbSpline
210
0.0
220
0.0
230
1.0
 70
     8
 71
     3
 72
     9
 73
     5
 74
     0
 42
0.000000001
 43
0.0000000001
 40
0.0
 40
0.0
 40
0.0
 40
0.0
 40
0.2387473816
 40
1.0
 40
1.0
 40
1.0
 40
1.0
 10
47.42154580040002
 20
123.1347258632
 30
0.0
 10
47.4545655925
 20
123.1395205616
 30
0.0
 10
47.59323635580003
 20
123.1569526686001
 30
0.0
 10
47.73335908900003
 20
123.1631995287
 30
0.0
 10
47.83972687510003
 20
123.1610905549
 30
0.0
  0
SPLINE
  5
96C90
330
1F
100
AcDbEntity
  8
1
100
AcDbSpline
210
0.0
220
0.0
230
1.0
 70
     8
 71
     3
 72
    15
 73
    11
 74
     0
 42
0.000000001
 43
0.0000000001
 40
0.0
 40
0.0
 40
0.0
 40
0.0
 40
0.221420251
 40
0.4029495481
 40
0.5502397424000001
 40
0.6714998847000003
 40
0.7729749921
 40
0.8592439499999999
 40
0.9338918358
 40
1.0
 40
1.0
 40
1.0
 40
1.0
 10
33.92123225990005
 20
120.8023978363999
 30
0.0
 10
33.69465813710002
 20
120.8140569955
 30
0.0
 10
33.28077809330006
 20
120.8135589964
 30
0.0
 10
32.71927014810004
 20
120.7530295907
 30
0.0
 10
32.26762009520007
 20
120.6555912107999
 30
0.0
 10
31.90722033670005
 20
120.5352716073
 30
0.0
 10
31.62029954190001
 20
120.3994311234001
 30
0.0
 10
31.39430411150005
 20
120.2520295368
 30
0.0
 10
31.22087933630004
 20
120.0954779442
 30
0.0
 10
31.13238811560004
 20
119.9802378195001
 30
0.0
 10
31.09713027460003
 20
119.9224009052999
 30
0.0
  0
SPLINE
  5
96C91
330
1F
100
AcDbEntity
  8
1
100
AcDbSpline
210
0.0
220
0.0
230
1.0
 70
     8
 71
     3
 72
     8
 73
     4
 74
     0
 42
0.000000001
 43
0.0000000001
 40
0.0
 40
0.0
 40
0.0
 40
0.0
 40
1.0
 40
1.0
 40
1.0
 40
1.0
 10
47.87616381030002
 20
123.3771567882
 30
0.0
 10
47.85592589479999
 20
123.3696174175
 30
0.0
 10
47.83582703260004
 20
123.3616938391
 30
0.0
 10
47.81588790729999
 20
123.353396453
 30
0.0
  0
LINE
  5
96C92
330
1F
100
AcDbEntity
  8
1
100
AcDbLine
 10
52.02618060350005
 20
119.8366192957
 30
0.0
 11
51.97382338410003
 21
119.839707032
 31
0.0
  0
SPLINE
  5
96C93
330
1F
100
AcDbEntity
  8
1
100
AcDbSpline
210
0.0
220
0.0
230
1.0
 70
     8
 71
     3
 72
     9
 73
     5
 74
     0
 42
0.000000001
 43
0.0000000001
 40
0.0
 40
0.0
 40
0.0
 40
0.0
 40
0.2492389721
 40
1.0
 40
1.0
 40
1.0
 40
1.0
 10
54.98771614959998
 20
119.6470383755
 30
0.0
 10
54.95372931340003
 20
119.6496530567
 30
0.0
 10
54.81734934370003
 20
119.6599145638999
 30
0.0
 10
54.68089971150003
 20
119.6692512765
 30
0.0
 10
54.57842614720004
 20
119.6757293457
 30
0.0
  0
SPLINE
  5
96C94
330
1F
100
AcDbEntity
  8
1
100
AcDbSpline
210
0.0
220
0.0
230
1.0
 70
     8
 71
     3
 72
     9
 73
     5
 74
     0
 42
0.000000001
 43
0.0000000001
 40
0.0
 40
0.0
 40
0.0
 40
0.0
 40
0.2719237247
 40
1.0
 40
1.0
 40
1.0
 40
1.0
 10
55.71377005930003
 20
118.1911095537
 30
0.0
 10
55.62970749970003
 20
118.3126414278
 30
0.0
 10
55.33714409439999
 20
118.770740747
 30
0.0
 10
55.10866555600006
 20
119.2703189354999
 30
0.0
 10
54.98771614959998
 20
119.6470383755
 30
0.0
  0
SPLINE
  5
96C95
330
1F
100
AcDbEntity
  8
1
100
AcDbSpline
210
0.0
220
0.0
230
1.0
 70
     8
 71
     3
 72
    19
 73
    15
 74
     0
 42
0.000000001
 43
0.0000000001
 40
0.0
 40
0.0
 40
0.0
 40
0.0
 40
0.0618608676
 40
0.1238645454
 40
0.1860244557
 40
0.248345337
 40
0.3732237319
 40
0.4985851658
 40
0.6241862363
 40
0.7497280444
 40
0.8124959176
 40
0.8751452556999998
 40
0.9376519801999998
 40
1.0
 40
1.0
 40
1.0
 40
1.0
 10
47.07708983180004
 20
120.1070931498
 30
0.0
 10
47.02353471750003
 20
120.1665364221
 30
0.0
 10
46.92349582920003
 20
120.2922743015
 30
0.0
 10
46.79740856090004
 20
120.4978442099
 30
0.0
 10
46.69671632670005
 20
120.7176937627
 30
0.0
 10
46.59818959140003
 20
121.0254610277
 30
0.0
 10
46.54472699770002
 20
121.4303377334
 30
0.0
 10
46.59591686100006
 20
121.9181774706
 30
0.0
 10
46.75927753340002
 20
122.3816189076
 30
0.0
 10
46.98236317380001
 20
122.7258205432
 30
0.0
 10
47.20498892689999
 20
122.9629122436
 30
0.0
 10
47.39186765940003
 20
123.1193005956
 30
0.0
 10
47.59576236830008
 20
123.251643368
 30
0.0
 10
47.74136246720003
 20
123.3225932996
 30
0.0
 10
47.81588790729999
 20
123.353396453
 30
0.0
  0
SPLINE
  5
96C96
330
1F
100
AcDbEntity
  8
1
100
AcDbSpline
210
0.0
220
0.0
230
1.0
 70
     8
 71
     3
 72
     8
 73
     4
 74
     0
 42
0.000000001
 43
0.0000000001
 40
0.0
 40
0.0
 40
0.0
 40
0.0
 40
1.0
 40
1.0
 40
1.0
 40
1.0
 10
47.89209551210001
 20
123.1596458957
 30
0.0
 10
47.83969301250002
 20
123.1143239292
 30
0.0
 10
47.78791380560003
 20
123.068269786
 30
0.0
 10
47.73683006800001
 20
123.0214664276
 30
0.0
  0
SPLINE
  5
96C97
330
1F
100
AcDbEntity
  8
1
100
AcDbSpline
210
0.0
220
0.0
230
1.0
 70
     8
 71
     3
 72
     9
 73
     5
 74
     0
 42
0.000000001
 43
0.0000000001
 40
0.0
 40
0.0
 40
0.0
 40
0.0
 40
0.2558706036
 40
1.0
 40
1.0
 40
1.0
 40
1.0
 10
47.83972687510003
 20
123.1610905549
 30
0.0
 10
47.8641272721
 20
123.1606067637
 30
0.0
 10
47.95946328460002
 20
123.1575364122
 30
0.0
 10
48.05464651160002
 20
123.1499156912
 30
0.0
 10
48.12515847080003
 20
123.1418145741001
 30
0.0
  0
SPLINE
  5
96C98
330
1F
100
AcDbEntity
  8
1
100
AcDbSpline
210
0.0
220
0.0
230
1.0
 70
     8
 71
     3
 72
     9
 73
     5
 74
     0
 42
0.000000001
 43
0.0000000001
 40
0.0
 40
0.0
 40
0.0
 40
0.0
 40
0.2535936757
 40
1.0
 40
1.0
 40
1.0
 40
1.0
 10
47.28105220630005
 20
123.0247495343999
 30
0.0
 10
47.31951194729999
 20
123.0273728886
 30
0.0
 10
47.47135612750001
 20
123.0348097785
 30
0.0
 10
47.62375321060004
 20
123.0308096655
 30
0.0
 10
47.73683006800001
 20
123.0214664276
 30
0.0
  0
SPLINE
  5
96C99
330
1F
100
AcDbEntity
  8
1
100
AcDbSpline
210
0.0
220
0.0
230
1.0
 70
     8
 71
     3
 72
     9
 73
     5
 74
     0
 42
0.000000001
 43
0.0000000001
 40
0.0
 40
0.0
 40
0.0
 40
0.0
 40
0.2474171461
 40
1.0
 40
1.0
 40
1.0
 40
1.0
 10
51.65216138420004
 20
124.6848304184
 30
0.0
 10
51.62060310020004
 20
124.7284740189
 30
0.0
 10
51.49764035920004
 20
124.908146256
 30
0.0
 10
51.39341594680002
 20
125.1006203901
 30
0.0
 10
51.32670545410003
 20
125.2502456420999
 30
0.0
  0
SPLINE
  5
96C9A
330
1F
100
AcDbEntity
  8
1
100
AcDbSpline
210
0.0
220
0.0
230
1.0
 70
     8
 71
     3
 72
     9
 73
     5
 74
     0
 42
0.000000001
 43
0.0000000001
 40
0.0
 40
0.0
 40
0.0
 40
0.0
 40
0.5435577849000001
 40
1.0
 40
1.0
 40
1.0
 40
1.0
 10
51.70788037810004
 20
124.563037586
 30
0.0
 10
51.69619360540003
 20
124.5843280941999
 30
0.0
 10
51.67592377640001
 20
124.6241917773
 30
0.0
 10
51.65885777650004
 20
124.6655664278
 30
0.0
 10
51.65216138420004
 20
124.6848304184
 30
0.0
  0
SPLINE
  5
96C9B
330
1F
100
AcDbEntity
  8
1
100
AcDbSpline
210
0.0
220
0.0
230
1.0
 70
     8
 71
     3
 72
     9
 73
     5
 74
     0
 42
0.000000001
 43
0.0000000001
 40
0.0
 40
0.0
 40
0.0
 40
0.0
 40
0.252685202
 40
1.0
 40
1.0
 40
1.0
 40
1.0
 10
52.77555023510004
 20
125.9797507777
 30
0.0
 10
52.78079739440002
 20
125.9679411889
 30
0.0
 10
52.80149941920004
 20
125.9211765965
 30
0.0
 10
52.82196216750001
 20
125.874306105
 30
0.0
 10
52.83712209720005
 20
125.8392222279
 30
0.0
  0
SPLINE
  5
96C9C
330
1F
100
AcDbEntity
  8
1
100
AcDbSpline
210
0.0
220
0.0
230
1.0
 70
     8
 71
     3
 72
     9
 73
     5
 74
     0
 42
0.000000001
 43
0.0000000001
 40
0.0
 40
0.0
 40
0.0
 40
0.0
 40
0.2553777951
 40
1.0
 40
1.0
 40
1.0
 40
1.0
 10
52.83705473470003
 20
125.839375544
 30
0.0
 10
52.84651578610003
 20
125.8174772009
 30
0.0
 10
52.88395265220003
 20
125.7318985223
 30
0.0
 10
52.92308459910003
 20
125.647051278
 30
0.0
 10
52.95351844360005
 20
125.5845079853
 30
0.0
  0
SPLINE
  5
96C9D
330
1F
100
AcDbEntity
  8
1
100
AcDbSpline
210
0.0
220
0.0
230
1.0
 70
     8
 71
     3
 72
     8
 73
     4
 74
     0
 42
0.000000001
 43
0.0000000001
 40
0.0
 40
0.0
 40
0.0
 40
0.0
 40
1.0
 40
1.0
 40
1.0
 40
1.0
 10
51.97382338410003
 20
125.9980728661001
 30
0.0
 10
51.99127588250002
 20
125.9981452976999
 30
0.0
 10
52.00872983790002
 20
125.9980533688001
 30
0.0
 10
52.02618060350005
 20
125.9977969932
 30
0.0
  0
SPLINE
  5
96C9E
330
1F
100
AcDbEntity
  8
1
100
AcDbSpline
210
0.0
220
0.0
230
1.0
 70
     8
 71
     3
 72
     9
 73
     5
 74
     0
 42
0.000000001
 43
0.0000000001
 40
0.0
 40
0.0
 40
0.0
 40
0.0
 40
0.2603377593
 40
1.0
 40
1.0
 40
1.0
 40
1.0
 10
52.02618060350005
 20
125.9977969932
 30
0.0
 10
52.09122276490004
 20
125.996841435
 30
0.0
 10
52.34105144440002
 20
125.9926281608999
 30
0.0
 10
52.59084812490005
 20
125.9862203923
 30
0.0
 10
52.77555023510004
 20
125.9797507777
 30
0.0
  0
SPLINE
  5
96C9F
330
1F
100
AcDbEntity
  8
1
100
AcDbSpline
210
0.0
220
0.0
230
1.0
 70
     8
 71
     3
 72
     9
 73
     5
 74
     0
 42
0.000000001
 43
0.0000000001
 40
0.0
 40
0.0
 40
0.0
 40
0.0
 40
0.2498258561
 40
1.0
 40
1.0
 40
1.0
 40
1.0
 10
52.77555023510004
 20
125.9797507777
 30
0.0
 10
52.85157858490003
 20
125.9800755265
 30
0.0
 10
53.15590425160003
 20
125.9813079885
 30
0.0
 10
53.46023105820004
 20
125.982263857
 30
0.0
 10
53.68852953460001
 20
125.9828049558
 30
0.0
  0
SPLINE
  5
96CA0
330
1F
100
AcDbEntity
  8
1
100
AcDbSpline
210
0.0
220
0.0
230
1.0
 70
     8
 71
     3
 72
     9
 73
     5
 74
     0
 42
0.000000001
 43
0.0000000001
 40
0.0
 40
0.0
 40
0.0
 40
0.0
 40
0.2521654129
 40
1.0
 40
1.0
 40
1.0
 40
1.0
 10
52.83712209720005
 20
125.8392222279
 30
0.0
 10
52.82957828600004
 20
125.8074190526
 30
0.0
 10
52.79847570680002
 20
125.6815837348
 30
0.0
 10
52.76262844050001
 20
125.5569164602
 30
0.0
 10
52.73309450300001
 20
125.4645910294
 30
0.0
  0
SPLINE
  5
96CA1
330
1F
100
AcDbEntity
  8
1
100
AcDbSpline
210
0.0
220
0.0
230
1.0
 70
     8
 71
     3
 72
    23
 73
    19
 74
     0
 42
0.000000001
 43
0.0000000001
 40
0.0
 40
0.0
 40
0.0
 40
0.0
 40
0.0081017488
 40
0.0111301929
 40
0.0146283768
 40
0.0230972847
 40
0.0335924847
 40
0.0461487891
 40
0.0607784406
 40
0.0774763117
 40
0.1170178186
 40
0.164611697
 40
0.220003578
 40
0.2828834541
 40
0.4295519078
 40
0.600997009
 40
0.7928243613000002
 40
1.0
 40
1.0
 40
1.0
 40
1.0
 10
30.33361776220005
 20
118.4604493395999
 30
0.0
 10
30.32434564300003
 20
118.4637635538
 30
0.0
 10
30.31687744720006
 20
118.4781299311
 30
0.0
 10
30.31223698660006
 20
118.4948994975
 30
0.0
 10
30.30876643840003
 20
118.5129163858
 30
0.0
 10
30.30632045460001
 20
118.5400965041
 30
0.0
 10
30.30574103800001
 20
118.578444617
 30
0.0
 10
30.30749242020002
 20
118.6242162256999
 30
0.0
 10
30.31156226110002
 20
118.6774076109
 30
0.0
 10
30.32064195820004
 20
118.7630682648
 30
0.0
 10
30.3383602703
 20
118.8880490478
 30
0.0
 10
30.36766002090002
 20
119.0587900891
 30
0.0
 10
30.40597774200006
 20
119.2567161679999
 30
0.0
 10
30.47229926610004
 20
119.5718231161001
 30
0.0
 10
30.57656780970007
 20
120.0230205508
 30
0.0
 10
30.72617775610004
 20
120.6244769307
 30
0.0
 10
30.90204934020005
 20
121.2951215617
 30
0.0
 10
31.02978789960002
 20
121.7629399805
 30
0.0
 10
31.09713027460003
 20
122.0055629583
 30
0.0
  0
SPLINE
  5
96CA2
330
1F
100
AcDbEntity
  8
1
100
AcDbSpline
210
0.0
220
0.0
230
1.0
 70
     8
 71
     3
 72
     9
 73
     5
 74
     0
 42
0.000000001
 43
0.0000000001
 40
0.0
 40
0.0
 40
0.0
 40
0.0
 40
0.2545971433
 40
1.0
 40
1.0
 40
1.0
 40
1.0
 10
46.76326168910002
 20
122.1313195588999
 30
0.0
 10
46.75771242320002
 20
122.1365773109001
 30
0.0
 10
46.73601726100005
 20
122.1573348819
 30
0.0
 10
46.71473331400004
 20
122.1785232888001
 30
0.0
 10
46.69913503010005
 20
122.1945737878
 30
0.0
  0
SPLINE
  5
96CA3
330
1F
100
AcDbEntity
  8
1
100
AcDbSpline
210
0.0
220
0.0
230
1.0
 70
     8
 71
     3
 72
     9
 73
     5
 74
     0
 42
0.000000001
 43
0.0000000001
 40
0.0
 40
0.0
 40
0.0
 40
0.0
 40
0.5222825785000002
 40
1.0
 40
1.0
 40
1.0
 40
1.0
 10
47.23977942590003
 20
122.4251114465
 30
0.0
 10
47.18193948270005
 20
122.4565019329999
 30
0.0
 10
47.06981736480003
 20
122.514109534
 30
0.0
 10
46.9547671889
 20
122.5657073389999
 30
0.0
 10
46.89901832600006
 20
122.5884084398999
 30
0.0
  0
SPLINE
  5
96CA4
330
1F
100
AcDbEntity
  8
1
100
AcDbSpline
210
0.0
220
0.0
230
1.0
 70
     8
 71
     3
 72
    13
 73
     9
 74
     0
 42
0.000000001
 43
0.0000000001
 40
0.0
 40
0.0
 40
0.0
 40
0.0
 40
0.1956362622
 40
0.2978562618
 40
0.406221828
 40
0.5242360657999999
 40
0.6568396359000001
 40
1.0
 40
1.0
 40
1.0
 40
1.0
 10
61.25897313770003
 20
116.4483349895999
 30
0.0
 10
61.20827018940002
 20
116.3531566072
 30
0.0
 10
61.11620827830003
 20
116.2151889705999
 30
0.0
 10
60.96093111050001
 20
116.0532326296
 30
0.0
 10
60.81969541740003
 20
115.9389798104
 30
0.0
 10
60.65009333050003
 20
115.8358149254999
 30
0.0
 10
60.34891607680004
 20
115.7054775729
 30
0.0
 10
60.08566162520003
 20
115.659164872
 30
0.0
 10
59.89678434700003
 20
115.6488030213
 30
0.0
  0
SPLINE
  5
96CA5
330
1F
100
AcDbEntity
  8
1
100
AcDbSpline
210
0.0
220
0.0
230
1.0
 70
     8
 71
     3
 72
    11
 73
     7
 74
     0
 42
0.000000001
 43
0.0000000001
 40
0.0
 40
0.0
 40
0.0
 40
0.0
 40
0.2514294949
 40
0.5019597078000002
 40
0.7514746491
 40
1.0
 40
1.0
 40
1.0
 40
1.0
 10
31.83046105870005
 20
123.313166287
 30
0.0
 10
31.96649064760004
 20
123.4562389069
 30
0.0
 10
32.26582018170004
 20
123.7168709277
 30
0.0
 10
32.77868673400005
 20
124.0154664693
 30
0.0
 10
33.33654148920004
 20
124.2112382295
 30
0.0
 10
33.72631950970003
 20
124.2682831485
 30
0.0
 10
33.92123225990005
 20
124.2776483183
 30
0.0
  0
SPLINE
  5
96CA6
330
1F
100
AcDbEntity
  8
1
100
AcDbSpline
210
0.0
220
0.0
230
1.0
 70
     8
 71
     3
 72
    11
 73
     7
 74
     0
 42
0.000000001
 43
0.0000000001
 40
0.0
 40
0.0
 40
0.0
 40
0.0
 40
0.2462455478
 40
0.495542549
 40
0.7470679367000001
 40
1.0
 40
1.0
 40
1.0
 40
1.0
 10
31.09713027460003
 20
122.0055629583
 30
0.0
 10
31.13035284310004
 20
122.1252581503
 30
0.0
 10
31.21094916250001
 20
122.3625739391
 30
0.0
 10
31.37373073290004
 20
122.7034564523
 30
0.0
 10
31.57894910110002
 20
123.0246922134
 30
0.0
 10
31.74254364940003
 20
123.2206968897
 30
0.0
 10
31.83046105870005
 20
123.313166287
 30
0.0
  0
SPLINE
  5
96CA7
330
1F
100
AcDbEntity
  8
1
100
AcDbSpline
210
0.0
220
0.0
230
1.0
 70
     8
 71
     3
 72
     9
 73
     5
 74
     0
 42
0.000000001
 43
0.0000000001
 40
0.0
 40
0.0
 40
0.0
 40
0.0
 40
0.5256096881
 40
1.0
 40
1.0
 40
1.0
 40
1.0
 10
47.73683006800001
 20
123.0214664276
 30
0.0
 10
47.66971983800002
 20
123.0392036075999
 30
0.0
 10
47.53991135080005
 20
123.0654708875
 30
0.0
 10
47.40795115700002
 20
123.0761009040999
 30
0.0
 10
47.34531622700003
 20
123.077490482
 30
0.0
  0
SPLINE
  5
96CA8
330
1F
100
AcDbEntity
  8
1
100
AcDbSpline
210
0.0
220
0.0
230
1.0
 70
     8
 71
     3
 72
    28
 73
    24
 74
     0
 42
0.000000001
 43
0.0000000001
 40
0.0
 40
0.0
 40
0.0
 40
0.0
 40
0.0018181849
 40
0.0036723683
 40
0.0057771136
 40
0.0082827968
 40
0.0148069121
 40
0.0236105964
 40
0.0348062865
 40
0.0484240328
 40
0.0644553597
 40
0.0828692769
 40
0.1036192017
 40
0.1266463894
 40
0.1792465117
 40
0.2400162775
 40
0.3081804943
 40
0.3828621936999999
 40
0.4630981012000003
 40
0.5478533058
 40
0.63603571
 40
0.8181133754000001
 40
1.0
 40
1.0
 40
1.0
 40
1.0
 10
48.42668597540003
 20
125.7417352243
 30
0.0
 10
48.42605620320004
 20
125.7438139422
 30
0.0
 10
48.42547978740004
 20
125.7482809078
 30
0.0
 10
48.42725580900004
 20
125.7550963395
 30
0.0
 10
48.43147728460002
 20
125.7616733396
 30
0.0
 10
48.44101366420005
 20
125.7710482753
 30
0.0
 10
48.45947622170005
 20
125.7821018189001
 30
0.0
 10
48.48872867020003
 20
125.7943228658
 30
0.0
 10
48.52706744460002
 20
125.8064455474
 30
0.0
 10
48.57438134020004
 20
125.818420728
 30
0.0
 10
48.63059182900008
 20
125.8301956601
 30
0.0
 10
48.69551931770002
 20
125.8417281971
 30
0.0
 10
48.76896137420004
 20
125.852985133
 30
0.0
 10
48.88308070310003
 20
125.8682706821
 30
0.0
 10
49.04506772800002
 20
125.886073538
 30
0.0
 10
49.26109286890002
 20
125.9052247165
 30
0.0
 10
49.50370458570003
 20
125.9228338658
 30
0.0
 10
49.76972696300001
 20
125.938802161
 30
0.0
 10
50.05569247820004
 20
125.9530408549
 30
0.0
 10
50.35788344430002
 20
125.9654820776
 30
0.0
 10
50.78175213990004
 20
125.9797323185
 30
0.0
 10
51.32175897119999
 20
125.9923619274
 30
0.0
 10
51.75654162110003
 20
125.9971711008
 30
0.0
 10
51.97382338410003
 20
125.9980728661001
 30
0.0
  0
SPLINE
  5
96CA9
330
1F
100
AcDbEntity
  8
1
100
AcDbSpline
210
0.0
220
0.0
230
1.0
 70
     8
 71
     3
 72
    11
 73
     7
 74
     0
 42
0.000000001
 43
0.0000000001
 40
0.0
 40
0.0
 40
0.0
 40
0.0
 40
0.2488813695
 40
0.4975471601
 40
0.7474454837000001
 40
1.0
 40
1.0
 40
1.0
 40
1.0
 10
48.89584552590003
 20
123.4289251444
 30
0.0
 10
48.81264802760006
 20
123.450530396
 30
0.0
 10
48.64281793180004
 20
123.4813563273999
 30
0.0
 10
48.38379635939999
 20
123.4884947315
 30
0.0
 10
48.12544882020003
 20
123.4558176638
 30
0.0
 10
47.95790171670001
 20
123.4076071759
 30
0.0
 10
47.87616381030002
 20
123.3771567882
 30
0.0
  0
ELLIPSE
  5
96CAA
330
1F
100
AcDbEntity
  8
1
100
AcDbEllipse
 10
1296.6023259379
 20
-23.73296824619993
 30
0.0
 11
1398.6773109737
 21
-143.8825569528
 31
0.0
210
0.0
220
0.0
230
1.0
 40
0.0242107849
 41
2.670321431200003
 42
2.699442317099998
  0
ELLIPSE
  5
96CAB
330
1F
100
AcDbEntity
  8
1
100
AcDbEllipse
 10
1065.7582273818
 20
-0.0000000011999077
 30
0.0
 11
1193.2636228375
 21
-122.7535968773
 31
0.0
210
0.0
220
0.0
230
1.0
 40
0.0245474192
 41
2.5843985837
 42
2.588440026899996
  0
ELLIPSE
  5
96CAC
330
1F
100
AcDbEntity
  8
1
100
AcDbEllipse
 10
59.29040085170004
 20
119.6215453647
 30
0.0
 11
4.868199914899999
 21
2.299225712899997
 31
0.0
210
0.0
220
0.0
230
1.0
 40
0.6912522101000002
 41
4.38486132587958
 42
4.791388244179575
  0
ELLIPSE
  5
96CAD
330
1F
100
AcDbEntity
  8
1
100
AcDbEllipse
 10
74.35872271010005
 20
0.1790729146000558
 30
0.0
 11
219.1072294462
 21
8.871208987000001
 31
0.0
210
0.0
220
0.0
230
1.0
 40
0.5760705320000003
 41
1.652759998099999
 42
1.669583379499998
  0
ELLIPSE
  5
96CAE
330
1F
100
AcDbEntity
  8
1
100
AcDbEllipse
 10
144.22138034
 20
0.9821420206000366
 30
0.0
 11
666.9887160408999
 21
11.1861887272
 31
0.0
210
0.0
220
0.0
230
1.0
 40
0.190092648
 41
1.7128850005
 42
1.7337409128
  0
ELLIPSE
  5
96CAF
330
1F
100
AcDbEntity
  8
1
100
AcDbEllipse
 10
51.48180209540003
 20
122.8587282461
 30
0.0
 11
2.292343414599999
 21
-0.5096991597000004
 31
0.0
210
0.0
220
0.0
230
1.0
 40
0.0700374171
 41
3.236759592479133
 42
3.62309191238002
  0
ELLIPSE
  5
96CB0
330
1F
100
AcDbEntity
  8
1
100
AcDbEllipse
 10
43.44286517370003
 20
118.1685401494
 30
0.0
 11
14.1451252012
 21
8.808144221399997
 31
0.0
210
0.0
220
0.0
230
1.0
 40
0.0916395167
 41
0.8957779814999662
 42
1.095620346699996
  0
LINE
  5
96CB1
330
1F
100
AcDbEntity
  8
nocut
100
AcDbLine
 10
28.15083417090921
 20
113.7904079305765
 30
0.0
 11
31.09713027450911
 21
123.7369368827765
 31
0.0
  0
LINE
  5
96CB2
330
1F
100
AcDbEntity
  8
nocut
100
AcDbLine
 10
61.71377005920914
 20
120.1999999987765
 30
0.0
 11
61.71377005920914
 21
-0.0000000000234763
 31
0.0
  0
LINE
  5
96CB3
330
1F
100
AcDbEntity
  8
nocut
100
AcDbLine
 10
33.9212322598091
 20
125.8844339340765
 30
0.0
 11
51.97382338410918
 21
126.1995430842765
 31
0.0
  0
LINE
  5
96CB4
330
1F
100
AcDbEntity
  8
nocut
100
AcDbLine
 10
52.02618060340919
 20
126.1999999987765
 30
0.0
 11
55.71377005920918
 21
126.1999999987765
 31
0.0
  0
ARC
  5
96CB5
330
1F
100
AcDbEntity
  8
nocut
100
AcDbCircle
 10
55.71377005920918
 20
120.1999999987765
 30
0.0
 40
6.0
100
AcDbArc
 50
0.0
 51
90.0
  0
ARC
  5
96CB6
330
1F
100
AcDbEntity
  8
nocut
100
AcDbCircle
 10
33.97358947920918
 20
122.8848908485765
 30
0.0
 40
3.0
100
AcDbArc
 50
91.00000000000015
 51
163.5000000000012
  0
ARC
  5
96CB7
330
1F
100
AcDbEntity
  8
nocut
100
AcDbCircle
 10
52.02618060340919
 20
123.1999999987765
 30
0.0
 40
3.0
100
AcDbArc
 50
90.0
 51
91.00000000010112
  0
LINE
  5
97600
330
1F
100
AcDbEntity
  8
cut
100
AcDbLine
 10
47.75663814569997
 20
123.3585746681
 30
0.0
 11
47.77346452189999
 21
123.3684582328
 31
0.0
  0
LINE
  5
97601
330
1F
100
AcDbEntity
  8
cut
100
AcDbLine
 10
47.7734645218
 20
123.3684582328
 30
0.0
 11
48.00562755880003
 21
123.5005119097
 31
0.0
  0
LINE
  5
97602
330
1F
100
AcDbEntity
  8
cut
100
AcDbLine
 10
48.00562755880003
 20
123.5005119097
 30
0.0
 11
48.2410199138
 21
123.6337532978
 31
0.0
  0
LINE
  5
97603
330
1F
100
AcDbEntity
  8
cut
100
AcDbLine
 10
48.2410199138
 20
123.6337532978
 30
0.0
 11
48.47964458029998
 21
123.7681757678
 31
0.0
  0
LINE
  5
97604
330
1F
100
AcDbEntity
  8
cut
100
AcDbLine
 10
48.47964458029998
 20
123.7681757678
 30
0.0
 11
48.72151353319996
 21
123.9037528022
 31
0.0
  0
LWPOLYLINE
  5
97605
330
1F
100
AcDbEntity
  8
cut
100
AcDbPolyline
 90
        6
 70
     0
 43
0.0
 10
48.72151353319996
 20
123.9037528022
 10
48.85087956799997
 20
123.9759788072
 10
48.85812005919996
 20
123.9799513047999
 10
48.86538534189998
 20
123.9838934312999
 10
48.87267541630001
 20
123.9878051865999
 10
48.87999028239999
 20
123.9916865707
  0
LINE
  5
97606
330
1F
100
AcDbEntity
  8
cut
100
AcDbLine
 10
53.89738590630003
 20
126.6331545465
 30
0.0
 11
54.1009097039
 21
126.7458145386999
 31
0.0
  0
LINE
  5
97607
330
1F
100
AcDbEntity
  8
cut
100
AcDbLine
 10
54.1009097039
 20
126.7458145386999
 30
0.0
 11
54.1165465305
 21
126.7544073152999
 31
0.0
  0
LINE
  5
97608
330
1F
100
AcDbEntity
  8
cut
100
AcDbLine
 10
53.81186312819999
 20
126.5864730044999
 30
0.0
 11
53.89738590630003
 21
126.6331545465
 31
0.0
  0
LINE
  5
97609
330
1F
100
AcDbEntity
  8
cut
100
AcDbLine
 10
53.58010860270002
 20
126.4618155512999
 30
0.0
 11
53.81186312819999
 21
126.5864730044999
 31
0.0
  0
LINE
  5
9760A
330
1F
100
AcDbEntity
  8
cut
100
AcDbLine
 10
53.1381469583
 20
126.2240425025
 30
0.0
 11
53.58010860270002
 21
126.4618155512999
 31
0.0
  0
LINE
  5
9760B
330
1F
100
AcDbEntity
  8
cut
100
AcDbLine
 10
52.71067016749999
 20
125.9969405059999
 30
0.0
 11
53.1381469583
 21
126.2240425025
 31
0.0
  0
LINE
  5
9760C
330
1F
100
AcDbEntity
  8
cut
100
AcDbLine
 10
52.04437523900003
 20
125.6468593007
 30
0.0
 11
52.71067016749999
 21
125.9969405059999
 31
0.0
  0
LINE
  5
9760D
330
1F
100
AcDbEntity
  8
cut
100
AcDbLine
 10
50.60555049840002
 20
124.8930972344999
 30
0.0
 11
52.04437523900003
 21
125.6468593007
 31
0.0
  0
LINE
  5
9760E
330
1F
100
AcDbEntity
  8
cut
100
AcDbLine
 10
48.87999028239999
 20
123.9916865707
 30
0.0
 11
50.60555049840002
 21
124.8930972344999
 31
0.0
  0
LWPOLYLINE
  5
9760F
330
1F
100
AcDbEntity
  8
cut
100
AcDbPolyline
 90
        7
 70
     0
 43
0.0
 10
47.67642131589997
 20
123.3026141732
 10
47.69185001709995
 20
123.3146143978
 10
47.70761334140002
 20
123.3262340354
 10
47.723661439
 20
123.3374323149
 10
47.73997769330002
 20
123.3481956457
 10
47.7565787209
 20
123.3585376183999
 10
47.77346452189999
 20
123.3684582328
  0
LINE
  5
97610
330
1F
100
AcDbEntity
  8
cut
100
AcDbLine
 10
47.6321928016
 20
123.2643707497
 30
0.0
 11
47.64689332789997
 21
123.2777545944999
 31
0.0
  0
LINE
  5
97611
330
1F
100
AcDbEntity
  8
cut
100
AcDbLine
 10
47.64657579089997
 20
123.277471272
 30
0.0
 11
47.66162421429998
 21
123.2904796222999
 31
0.0
  0
LINE
  5
97612
330
1F
100
AcDbEntity
  8
cut
100
AcDbLine
 10
47.66133124179996
 20
123.2902330159999
 30
0.0
 11
47.67669992959997
 21
123.3028366776999
 31
0.0
  0
LINE
  5
97613
330
1F
100
AcDbEntity
  8
cut
100
AcDbLine
 10
47.57842027899999
 20
123.2086281356
 30
0.0
 11
47.5916165095
 21
123.2234057354
 31
0.0
  0
LINE
  5
97614
330
1F
100
AcDbEntity
  8
cut
100
AcDbLine
 10
47.5913164418
 20
123.2230783219999
 30
0.0
 11
47.60488741040001
 21
123.2375072564
 31
0.0
  0
LINE
  5
97615
330
1F
100
AcDbEntity
  8
cut
100
AcDbLine
 10
47.60457196970003
 20
123.2371812822999
 30
0.0
 11
47.61852056880002
 21
123.2512628901999
 31
0.0
  0
LINE
  5
97616
330
1F
100
AcDbEntity
  8
cut
100
AcDbLine
 10
47.61819615479999
 20
123.2509454051
 30
0.0
 11
47.63252174529998
 21
123.2646780747
 31
0.0
  0
LINE
  5
97617
330
1F
100
AcDbEntity
  8
cut
100
AcDbLine
 10
47.54201265139999
 20
123.1633119608999
 30
0.0
 11
47.55399796879999
 21
123.1790429182
 31
0.0
  0
LINE
  5
97618
330
1F
100
AcDbEntity
  8
cut
100
AcDbLine
 10
47.5537579974
 20
123.1787363557
 30
0.0
 11
47.56616161479995
 21
123.1941644504
 31
0.0
  0
LINE
  5
97619
330
1F
100
AcDbEntity
  8
cut
100
AcDbLine
 10
47.56589277359999
 20
123.1938391115999
 30
0.0
 11
47.57870500249999
 21
123.2089555358
 31
0.0
  0
LWPOLYLINE
  5
9761A
330
1F
100
AcDbEntity
  8
cut
100
AcDbPolyline
 90
       46
 70
     0
 43
0.0
 10
59.08644848939997
 20
111.1915972301999
 10
59.0698443595
 20
111.1801630278
 10
59.05296577370001
 20
111.1691505369
 10
59.0358127321
 20
111.1585597572
 10
59.01836645679996
 20
111.1483805783999
 10
59.0006457256
 20
111.1386231108
 10
58.98270687209998
 20
111.1293176865
 10
58.9645513479
 20
111.1204681137999
 10
58.94617770149999
 20
111.1120705842999
 10
58.92763791170001
 20
111.1041440043
 10
58.90894935439995
 20
111.0966953315
 10
58.89009465380002
 20
111.0897176082
 10
58.87107366070001
 20
111.0832088672999
 10
58.85187549150003
 20
111.0771644084999
 10
58.8325110298
 20
111.0715889321
 10
58.81301277810003
 20
111.0664945721
 10
58.79337258740004
 20
111.0618811458999
 10
58.77359860659999
 20
111.057748836
 10
58.75374778459995
 20
111.0541103240999
 10
58.73382342880001
 20
111.0509685122999
 10
58.7138222319
 20
111.0483204984999
 10
58.6937912211
 20
111.0461702576
 10
58.6737477872
 20
111.0445186579
 10
58.65367453959999
 20
111.0433648310999
 10
58.63356633369999
 20
111.0427101473
 10
58.61340586299998
 20
111.0425537098999
 10
58.59321043400001
 20
111.0428964154999
 10
58.57302682290002
 20
111.0437423238
 10
58.55285110369997
 20
111.0450945749
 10
58.53268720240003
 20
111.0469500286999
 10
58.51259367279999
 20
111.0493033244
 10
58.49257857970002
 20
111.0521557934999
 10
58.4726338583
 20
111.0555061045999
 10
58.45279386830004
 20
111.0593449030999
 10
58.43307045359999
 20
111.0636686589
 10
58.41345177020002
 20
111.0684809022
 10
58.39393664610003
 20
111.0737828683999
 10
58.37450647219998
 20
111.0795789779999
 10
58.35517985749999
 20
111.0858648106
 10
58.33601145749998
 20
111.0926283404
 10
58.3169996771
 20
111.0998725847999
 10
58.29814611149997
 20
111.1075945265
 10
58.27951020109996
 20
111.1157730877999
 10
58.26111175939995
 20
111.1244012429999
 10
58.24293097290001
 20
111.1334860179
 10
58.22496784169999
 20
111.1430274125
  0
LINE
  5
9761B
330
1F
100
AcDbEntity
  8
cut
100
AcDbLine
 10
47.51973411580002
 20
123.1315708024
 30
0.0
 11
47.53085630470002
 21
123.1478570037999
 31
0.0
  0
LINE
  5
9761C
330
1F
100
AcDbEntity
  8
cut
100
AcDbLine
 10
47.53066003470002
 20
123.1475738340999
 30
0.0
 11
47.54222567599996
 21
123.1636022198999
 31
0.0
  0
LWPOLYLINE
  5
9761D
330
1F
100
AcDbEntity
  8
cut
100
AcDbPolyline
 90
        6
 70
     0
 43
0.0
 10
47.47166619400002
 20
123.0478859029
 10
47.48038487320002
 20
123.0650642207
 10
47.4895505147
 20
123.082021105
 10
47.49917150759995
 20
123.0987735947999
 10
47.50923946279999
 20
123.115304651
 10
47.51973411580002
 20
123.1315708024
  0
LWPOLYLINE
  5
9761E
330
1F
100
AcDbEntity
  8
cut
100
AcDbPolyline
 90
        6
 70
     0
 43
0.0
 10
47.43460704540001
 20
122.9582476811
 10
47.44110574000001
 20
122.9765993343
 10
47.44807150799997
 20
122.9947580054999
 10
47.45549483249997
 20
123.012706324
 10
47.46336537429999
 20
123.0304258708
 10
47.47167540790001
 20
123.0479030972
  0
LINE
  5
9761F
330
1F
100
AcDbEntity
  8
cut
100
AcDbLine
 10
47.4179723579
 20
122.9021659099
 30
0.0
 11
47.4231710872
 21
122.9214982788999
 31
0.0
  0
LINE
  5
97620
330
1F
100
AcDbEntity
  8
cut
100
AcDbLine
 10
47.42303496330004
 20
122.9210170821
 30
0.0
 11
47.42871019959999
 21
122.9401237681
 31
0.0
  0
LINE
  5
97621
330
1F
100
AcDbEntity
  8
cut
100
AcDbLine
 10
47.42858165149999
 20
122.9397162214
 30
0.0
 11
47.43472833430002
 21
122.958597404
 31
0.0
  0
LINE
  5
97622
330
1F
100
AcDbEntity
  8
cut
100
AcDbLine
 10
63.0529649005
 20
117.599143855
 30
0.0
 11
62.70857190919997
 21
117.0186365507
 31
0.0
  0
LINE
  5
97623
330
1F
100
AcDbEntity
  8
cut
100
AcDbLine
 10
62.70857190919997
 20
117.0186365507
 30
0.0
 11
62.35138832349996
 21
116.4184033188
 31
0.0
  0
LINE
  5
97624
330
1F
100
AcDbEntity
  8
cut
100
AcDbLine
 10
62.35138832349996
 20
116.4184033188
 30
0.0
 11
62.03009949110003
 21
115.8799015815999
 31
0.0
  0
LINE
  5
97625
330
1F
100
AcDbEntity
  8
cut
100
AcDbLine
 10
62.03009949110003
 20
115.8799015815999
 30
0.0
 11
61.66174149220001
 21
115.2640278998999
 31
0.0
  0
LINE
  5
97626
330
1F
100
AcDbEntity
  8
cut
100
AcDbLine
 10
61.66174149220001
 20
115.2640278998999
 30
0.0
 11
61.3283251011
 21
114.7078551401999
 31
0.0
  0
LINE
  5
97627
330
1F
100
AcDbEntity
  8
cut
100
AcDbLine
 10
61.3283251011
 20
114.7078551401999
 30
0.0
 11
60.99497697419997
 21
114.1529137352
 31
0.0
  0
LINE
  5
97628
330
1F
100
AcDbEntity
  8
cut
100
AcDbLine
 10
60.99497697419997
 20
114.1529137352
 30
0.0
 11
60.57911293720002
 21
113.4620474169
 31
0.0
  0
LINE
  5
97629
330
1F
100
AcDbEntity
  8
cut
100
AcDbLine
 10
60.57911293720002
 20
113.4620474169
 30
0.0
 11
60.16294272039999
 21
112.7721382348999
 31
0.0
  0
LWPOLYLINE
  5
9762A
330
1F
100
AcDbEntity
  8
cut
100
AcDbPolyline
 90
        6
 70
     0
 43
0.0
 10
60.16294272039999
 20
112.7721382348999
 10
59.99173438049997
 20
112.4887494811
 10
59.98740110939997
 20
112.4816895469
 10
59.98303760139997
 20
112.4746534555999
 10
59.97864385669998
 20
112.4676412072999
 10
59.97421987519999
 20
112.4606528019
  0
LINE
  5
9762B
330
1F
100
AcDbEntity
  8
cut
100
AcDbLine
 10
59.97421987519999
 20
112.4606528019
 30
0.0
 11
59.73998569400003
 21
112.0967803231999
 31
0.0
  0
LINE
  5
9762C
330
1F
100
AcDbEntity
  8
cut
100
AcDbLine
 10
59.73998569400003
 20
112.0967803231999
 30
0.0
 11
59.44142697979998
 21
111.6344489701999
 31
0.0
  0
LINE
  5
9762D
330
1F
100
AcDbEntity
  8
cut
100
AcDbLine
 10
59.44142697979998
 20
111.6344489701999
 30
0.0
 11
59.29555278150004
 21
111.4090548922999
 31
0.0
  0
LWPOLYLINE
  5
9762E
330
1F
100
AcDbEntity
  8
cut
100
AcDbPolyline
 90
       19
 70
     0
 43
0.0
 10
59.29555278160001
 20
111.4090548926
 10
59.28632490619998
 20
111.3951290887999
 10
59.27679398489999
 20
111.3813928068
 10
59.26696001759996
 20
111.3678460468
 10
59.25681441009999
 20
111.3544775874
 10
59.24636575659997
 20
111.3412986499
 10
59.23563984009996
 20
111.3283428979
 10
59.22464179080002
 20
111.3156178101
 10
59.21336647850001
 20
111.3031159076999
 10
59.20182429509996
 20
111.2908484186
 10
59.19001614879999
 20
111.2788153116999
 10
59.17794113150001
 20
111.2670166180999
 10
59.16560691109999
 20
111.2554636582
 10
59.15300586479998
 20
111.2441502692
 10
59.14014561549999
 20
111.2330826137999
 10
59.12705669959996
 20
111.2222905014
 10
59.11374929599997
 20
111.2117838680999
 10
59.10021322599999
 20
111.2015527776999
 10
59.08644848939997
 20
111.1915972301999
  0
LINE
  5
9762F
330
1F
100
AcDbEntity
  8
cut
100
AcDbLine
 10
47.40573986700002
 20
122.8450002798999
 30
0.0
 11
47.40944620419997
 21
122.8647556836
 31
0.0
  0
LINE
  5
97630
330
1F
100
AcDbEntity
  8
cut
100
AcDbLine
 10
47.40932042909998
 20
122.86412989
 30
0.0
 11
47.41353356149999
 21
122.8837822865999
 31
0.0
  0
LINE
  5
97631
330
1F
100
AcDbEntity
  8
cut
100
AcDbLine
 10
47.41339910070002
 20
122.8831924307
 30
0.0
 11
47.41811281310003
 21
122.9027162094
 31
0.0
  0
LINE
  5
97632
330
1F
100
AcDbEntity
  8
cut
100
AcDbLine
 10
47.39794895130001
 20
122.7869435886
 30
0.0
 11
47.40014837100001
 21
122.8071789658
 31
0.0
  0
LINE
  5
97633
330
1F
100
AcDbEntity
  8
cut
100
AcDbLine
 10
47.40005803769998
 20
122.8064365040999
 30
0.0
 11
47.40275796970002
 21
122.8265037109
 31
0.0
  0
LINE
  5
97634
330
1F
100
AcDbEntity
  8
cut
100
AcDbLine
 10
47.40265408439999
 20
122.8257805769
 30
0.0
 11
47.40585613979999
 21
122.8456760373999
 31
0.0
  0
LINE
  5
97635
330
1F
100
AcDbEntity
  8
cut
100
AcDbLine
 10
47.3946140035
 20
122.7277612016
 30
0.0
 11
47.39524767909998
 21
122.7482304804999
 31
0.0
  0
LINE
  5
97636
330
1F
100
AcDbEntity
  8
cut
100
AcDbLine
 10
47.39521911639996
 20
122.747580007
 30
0.0
 11
47.39637960070001
 21
122.7679950798999
 31
0.0
  0
LINE
  5
97637
330
1F
100
AcDbEntity
  8
cut
100
AcDbLine
 10
47.39633312249998
 20
122.7673165737999
 30
0.0
 11
47.39801970019999
 21
122.7876632322
 31
0.0
  0
LINE
  5
97638
330
1F
100
AcDbEntity
  8
cut
100
AcDbLine
 10
47.39449384359999
 20
122.7141260111
 30
0.0
 11
47.39462802560001
 21
122.7283563926
 31
0.0
  0
LWPOLYLINE
  5
97639
330
1F
100
AcDbEntity
  8
cut
100
AcDbPolyline
 90
        6
 70
     0
 43
0.0
 10
47.3992331223
 20
122.6285852993
 10
47.39728009710001
 20
122.6485295414
 10
47.39584258569999
 20
122.6684724321
 10
47.39492058820002
 20
122.6884139713
 10
47.39451654989998
 20
122.7083858576999
 10
47.39449612099996
 20
122.7141260108
  0
LINE
  5
9763A
330
1F
100
AcDbEntity
  8
cut
100
AcDbLine
 10
63.49437109919995
 20
124.8347854083
 30
0.0
 11
63.5
 21
126.1999999988
 31
0.0
  0
LINE
  5
9763B
330
1F
100
AcDbEntity
  8
cut
100
AcDbLine
 10
63.49437109919995
 20
124.8347854083
 30
0.0
 11
63.49424502879998
 21
124.8258937506999
 31
0.0
  0
LINE
  5
9763C
330
1F
100
AcDbEntity
  8
cut
100
AcDbLine
 10
63.25985130499998
 20
118.5569738821
 30
0.0
 11
63.25657074010003
 21
118.3358864633999
 31
0.0
  0
LINE
  5
9763D
330
1F
100
AcDbEntity
  8
cut
100
AcDbLine
 10
63.26409202720004
 20
118.7871955179999
 30
0.0
 11
63.25985130499998
 21
118.5569738821
 31
0.0
  0
LWPOLYLINE
  5
9763E
330
1F
100
AcDbEntity
  8
cut
100
AcDbPolyline
 90
       31
 70
     0
 43
0.0
 10
63.25657074010003
 20
118.3358864647999
 10
63.25607881510001
 20
118.3124384376
 10
63.25523279419996
 20
118.2890673238
 10
63.25403267730003
 20
118.2657731233
 10
63.25248020779998
 20
118.2425741732
 10
63.25057364230002
 20
118.2194521364
 10
63.24830775070001
 20
118.1963520018
 10
63.24568547289999
 20
118.1732740004999
 10
63.24270386900002
 20
118.1502179014
 10
63.23934888980004
 20
118.1271280006
 10
63.23562570269995
 20
118.1040126901
 10
63.23152914029996
 20
118.0808635779
 10
63.2270296511
 20
118.0575997844
 10
63.22213210540002
 20
118.0342147426999
 10
63.21683163300003
 20
118.0107150197
 10
63.21108407160004
 20
117.9870394356
 10
63.204898344
 20
117.9631877129
 10
63.1982655274
 20
117.9391601293
 10
63.19111469029997
 20
117.9148963376999
 10
63.18346188819997
 20
117.890406979
 10
63.17529106559999
 20
117.8656814124
 10
63.16648312359999
 20
117.8406273686
 10
63.15704561410001
 20
117.8152274971
 10
63.14697098510004
 20
117.7894991483
 10
63.13611748250003
 20
117.7634021041999
 10
63.1244894047
 20
117.7369175202999
 10
63.11208245329999
 20
117.7100642409999
 10
63.09874197910005
 20
117.6828585814
 10
63.08441643239996
 20
117.65530598
 10
63.06915736300005
 20
117.6274009983
 10
63.05296477080003
 20
117.5991436362999
  0
LINE
  5
9763F
330
1F
100
AcDbEntity
  8
cut
100
AcDbLine
 10
63.26924985179999
 20
119.0240069336999
 30
0.0
 11
63.26409202720004
 21
118.7871955179999
 31
0.0
  0
LINE
  5
97640
330
1F
100
AcDbEntity
  8
cut
100
AcDbLine
 10
63.49424502879998
 20
124.8258937506999
 30
0.0
 11
63.49387532300005
 21
124.8080624832
 31
0.0
  0
LINE
  5
97641
330
1F
100
AcDbEntity
  8
cut
100
AcDbLine
 10
63.27521137249998
 20
119.2588690265999
 30
0.0
 11
63.26924985179999
 21
119.0240069336999
 31
0.0
  0
LINE
  5
97642
330
1F
100
AcDbEntity
  8
cut
100
AcDbLine
 10
63.281685079
 20
119.4841146530999
 30
0.0
 11
63.27521137249998
 21
119.2588690265999
 31
0.0
  0
LINE
  5
97643
330
1F
100
AcDbEntity
  8
cut
100
AcDbLine
 10
63.49387532300005
 20
124.8080624832
 30
0.0
 11
63.49334886400003
 21
124.7901672794
 31
0.0
  0
LINE
  5
97644
330
1F
100
AcDbEntity
  8
cut
100
AcDbLine
 10
63.29187065669997
 20
119.7946169540999
 30
0.0
 11
63.281685079
 21
119.4841146530999
 31
0.0
  0
LINE
  5
97645
330
1F
100
AcDbEntity
  8
cut
100
AcDbLine
 10
63.30200731400004
 20
120.0662799991
 30
0.0
 11
63.29187065669997
 21
119.7946169540999
 31
0.0
  0
LINE
  5
97646
330
1F
100
AcDbEntity
  8
cut
100
AcDbLine
 10
63.49334886400003
 20
124.7901672794
 30
0.0
 11
63.46111747419996
 21
123.9530102853
 31
0.0
  0
LINE
  5
97647
330
1F
100
AcDbEntity
  8
cut
100
AcDbLine
 10
63.46111747419996
 20
123.9530102853
 30
0.0
 11
63.42471180169997
 21
123.0304387702999
 31
0.0
  0
LINE
  5
97648
330
1F
100
AcDbEntity
  8
cut
100
AcDbLine
 10
63.42471180169997
 20
123.0304387702999
 30
0.0
 11
63.39211841989999
 21
122.2232221632
 31
0.0
  0
LINE
  5
97649
330
1F
100
AcDbEntity
  8
cut
100
AcDbLine
 10
63.39211841989999
 20
122.2232221632
 30
0.0
 11
63.35699808279997
 21
121.3719947942
 31
0.0
  0
LINE
  5
9764A
330
1F
100
AcDbEntity
  8
cut
100
AcDbLine
 10
63.35699808279997
 20
121.3719947942
 30
0.0
 11
63.32396544849997
 21
120.5886212605999
 31
0.0
  0
LINE
  5
9764B
330
1F
100
AcDbEntity
  8
cut
100
AcDbLine
 10
63.32396544849997
 20
120.5886212605999
 30
0.0
 11
63.30200731400004
 21
120.0662799991
 31
0.0
  0
LWPOLYLINE
  5
9764C
330
1F
100
AcDbEntity
  8
cut
100
AcDbPolyline
 90
       19
 70
     0
 43
0.0
 10
47.48734541980001
 20
122.3432523545999
 10
47.47958425259996
 20
122.3583454936
 10
47.47215325959996
 20
122.3735612457
 10
47.46505244090002
 20
122.3888996109
 10
47.45827801509999
 20
122.4043738822999
 10
47.45183376349996
 20
122.4199707669
 10
47.44573103060003
 20
122.4356503851
 10
47.43997384599999
 20
122.4514041251999
 10
47.43455817990002
 20
122.467240599
 10
47.42948328729999
 20
122.4831457627999
 10
47.42474841239999
 20
122.499119806
 10
47.42035431089999
 20
122.5151625390999
 10
47.41630250509996
 20
122.5312593504999
 10
47.41259164299997
 20
122.5474187522999
 10
47.40922307669996
 20
122.5636322323999
 10
47.40620238360003
 20
122.5798596419999
 10
47.40353142319998
 20
122.5960875983
 10
47.40120833609999
 20
122.6123294840999
 10
47.3992331223
 20
122.6285852995999
  0
LINE
  5
9764D
330
1F
100
AcDbEntity
  8
cut
100
AcDbLine
 10
48.48138174389998
 20
120.3737050531
 30
0.0
 11
48.08798973529997
 21
121.1479873569
 31
0.0
  0
LINE
  5
9764E
330
1F
100
AcDbEntity
  8
cut
100
AcDbLine
 10
48.87332286240003
 20
119.5983515245
 30
0.0
 11
48.48138174389998
 21
120.3737050531
 31
0.0
  0
LINE
  5
9764F
330
1F
100
AcDbEntity
  8
cut
100
AcDbLine
 10
48.08798973529997
 20
121.1479873569
 30
0.0
 11
48.0801795785
 21
121.1634803125
 31
0.0
  0
LINE
  5
97650
330
1F
100
AcDbEntity
  8
cut
100
AcDbLine
 10
49.26298028669997
 20
118.8231952375
 30
0.0
 11
48.87332286240003
 21
119.5983515245
 31
0.0
  0
LINE
  5
97651
330
1F
100
AcDbEntity
  8
cut
100
AcDbLine
 10
49.65070570419999
 20
118.0474858153
 30
0.0
 11
49.26298028669997
 21
118.8231952375
 31
0.0
  0
LINE
  5
97652
330
1F
100
AcDbEntity
  8
cut
100
AcDbLine
 10
50.3281069358
 20
116.6804585771
 30
0.0
 11
49.65070570419999
 21
118.0474858153
 31
0.0
  0
LINE
  5
97653
330
1F
100
AcDbEntity
  8
cut
100
AcDbLine
 10
48.0801795785
 20
121.1634803125
 30
0.0
 11
48.07235166240002
 21
121.1793357047999
 31
0.0
  0
LINE
  5
97654
330
1F
100
AcDbEntity
  8
cut
100
AcDbLine
 10
50.762441454
 20
115.7951691247
 30
0.0
 11
50.3281069358
 21
116.6804585771
 31
0.0
  0
LINE
  5
97655
330
1F
100
AcDbEntity
  8
cut
100
AcDbLine
 10
50.95116155399999
 20
115.4080797742
 30
0.0
 11
50.76244145309999
 21
115.7951691265
 31
0.0
  0
LWPOLYLINE
  5
97656
330
1F
100
AcDbEntity
  8
cut
100
AcDbPolyline
 90
        9
 70
     0
 43
0.0
 10
48.00252037209998
 20
121.3242872687999
 10
47.9399979025
 20
121.4527198829999
 10
47.87693857790002
 20
121.5808513764
 10
47.8133410377
 20
121.7086841357
 10
47.7492066427
 20
121.8362157742
 10
47.68453947509999
 20
121.9634391314
 10
47.61934089580001
 20
122.0903518204999
 10
47.55360954400003
 20
122.2169562283
 10
47.48734541980001
 20
122.3432523547
  0
LINE
  5
97657
330
1F
100
AcDbEntity
  8
cut
100
AcDbLine
 10
48.07235166240002
 20
121.1793357047999
 30
0.0
 11
48.00252037209998
 21
121.3242872687999
 31
0.0
  0
LINE
  5
97658
330
1F
100
AcDbEntity
  8
cut
100
AcDbLine
 10
57.21855312799998
 20
111.6790414988
 30
0.0
 11
57.0814629664
 21
111.7498213924999
 31
0.0
  0
LINE
  5
97659
330
1F
100
AcDbEntity
  8
cut
100
AcDbLine
 10
57.0814629664
 20
111.7498213924999
 30
0.0
 11
57.0658741034
 21
111.7580000851
 31
0.0
  0
LWPOLYLINE
  5
9765A
330
1F
100
AcDbEntity
  8
cut
100
AcDbPolyline
 90
        4
 70
     0
 43
0.0
 10
57.60167149359999
 20
111.4784728376999
 10
57.47473091879999
 20
111.5454004092
 10
57.34702420249998
 20
111.6122545930999
 10
57.21855312799998
 20
111.6790414988
  0
LINE
  5
9765B
330
1F
100
AcDbEntity
  8
cut
100
AcDbLine
 10
57.8532649183
 20
111.3444341878
 30
0.0
 11
57.60167149359999
 21
111.4784728376999
 31
0.0
  0
LINE
  5
9765C
330
1F
100
AcDbEntity
  8
cut
100
AcDbLine
 10
57.0658741034
 20
111.7580000851
 30
0.0
 11
57.0504460339
 21
111.7662563236999
 31
0.0
  0
LINE
  5
9765D
330
1F
100
AcDbEntity
  8
cut
100
AcDbLine
 10
54.39205238139999
 20
113.2097951035
 30
0.0
 11
53.09789481349998
 21
113.9077389339
 31
0.0
  0
LINE
  5
9765E
330
1F
100
AcDbEntity
  8
cut
100
AcDbLine
 10
57.0504460339
 20
111.7662563236999
 30
0.0
 11
54.39205238139999
 21
113.2097951035
 31
0.0
  0
LWPOLYLINE
  5
9765F
330
1F
100
AcDbEntity
  8
cut
100
AcDbPolyline
 90
        4
 70
     0
 43
0.0
 10
58.22496784189997
 20
111.1430274123999
 10
58.10182587579999
 20
111.2102119547
 10
57.97792490130001
 20
111.2773475465
 10
57.8532649183
 20
111.3444341878
  0
LINE
  5
97660
330
1F
100
AcDbEntity
  8
cut
100
AcDbLine
 10
53.09789481349998
 20
113.9077389339
 30
0.0
 11
52.9062344989
 21
114.0120161453
 31
0.0
  0
LINE
  5
97661
330
1F
100
AcDbEntity
  8
cut
100
AcDbLine
 10
52.9062344989
 20
114.0120161453
 30
0.0
 11
52.71598611779999
 21
114.117129226
 31
0.0
  0
LINE
  5
97662
330
1F
100
AcDbEntity
  8
cut
100
AcDbLine
 10
52.71598611779999
 20
114.117129226
 30
0.0
 11
52.52599632340002
 21
114.2234856955999
 31
0.0
  0
LINE
  5
97663
330
1F
100
AcDbEntity
  8
cut
100
AcDbLine
 10
52.52599632340002
 20
114.2234856955999
 30
0.0
 11
52.33598946939998
 21
114.3312148975
 31
0.0
  0
LINE
  5
97664
330
1F
100
AcDbEntity
  8
cut
100
AcDbLine
 10
52.33598946939998
 20
114.3312148975
 30
0.0
 11
52.14597111959999
 21
114.440322211
 31
0.0
  0
LINE
  5
97665
330
1F
100
AcDbEntity
  8
cut
100
AcDbLine
 10
52.14597111959999
 20
114.440322211
 30
0.0
 11
51.95629731599996
 21
114.5505820883
 31
0.0
  0
LINE
  5
97666
330
1F
100
AcDbEntity
  8
cut
100
AcDbLine
 10
51.95629731599996
 20
114.5505820883
 30
0.0
 11
51.7671685806
 21
114.6618697065
 31
0.0
  0
LWPOLYLINE
  5
97667
330
1F
100
AcDbEntity
  8
cut
100
AcDbPolyline
 90
        3
 70
     0
 43
0.0
 10
51.7671685806
 20
114.6618697065
 10
51.57896746929997
 20
114.7739517643
 10
51.48518884599996
 20
114.8303065681999
  0
LWPOLYLINE
  5
97668
330
1F
100
AcDbEntity
  8
cut
100
AcDbPolyline
 90
       28
 70
     0
 43
0.0
 10
51.48518885689997
 20
114.8303065615999
 10
51.4589478043
 20
114.8465270083999
 10
51.43319765880001
 20
114.8631720134999
 10
51.40793842060003
 20
114.8802415769
 10
51.38316953449997
 20
114.8977477042
 10
51.35889155550001
 20
114.9156783898
 10
51.33510614929996
 20
114.9339976168
 10
51.31181534569996
 20
114.9526920455999
 10
51.28901711470001
 20
114.9717750158999
 10
51.26670703209999
 20
114.9912505303
 10
51.2448818882
 20
115.0111139465999
 10
51.22354489260001
 20
115.0313699070999
 10
51.20270124900002
 20
115.0520363410999
 10
51.18234449919999
 20
115.0731255114
 10
51.16248110129999
 20
115.0946251551999
 10
51.1431356337
 20
115.1165164126999
 10
51.12431559700002
 20
115.1388012023999
 10
51.10601349040002
 20
115.1614776058
 10
51.08823139049997
 20
115.1845210066999
 10
51.0709765464
 20
115.2079233329999
 10
51.0542417089
 20
115.2316926566999
 10
51.03800720750001
 20
115.2558285779999
 10
51.02226301869996
 20
115.2803406676
 10
51.00701916599996
 20
115.3052193547999
 10
50.99228604960001
 20
115.3304355272999
 10
50.97806713649998
 20
115.355979481
 10
50.9643589598
 20
115.3818609201
 10
50.95116151959996
 20
115.4080798444999
  0
LINE
  5
97669
330
1F
100
AcDbEntity
  8
cut
100
AcDbLine
 10
55.07678346379996
 20
126.9999999987999
 30
0.0
 11
62.69999999999999
 21
126.9999999987999
 31
0.0
  0
ARC
  5
9766A
330
1F
100
AcDbEntity
  8
cut
100
AcDbCircle
 10
55.07678346379996
 20
124.9999999987999
 30
0.0
 40
2.0
100
AcDbArc
 50
90.0
 51
118.6931396898996
  0
ARC
  5
9766B
330
1F
100
AcDbEntity
  8
cut
100
AcDbCircle
 10
62.69999999999999
 20
126.1999999988
 30
0.0
 40
0.8
100
AcDbArc
 50
0.0
 51
90.0
  0
DIMENSION
  5
9766C
330
1F
100
AcDbEntity
  8
2
100
AcDbDimension
  2
*D131010
 10
62.69999999999999
 20
126.1999999988
 30
0.0
 11
71.2706579428885
 21
128.3432880415135
 31
0.0
 70
   164
 71
     5
 42
0.8
  3
コピー - ISO-25
100
AcDbRadialDimension
 15
63.47610071239181
 25
126.3940816419941
 35
0.0
 40
0.0
1001
ACAD
1000
DSTYLE
1002
{
1070
   170
1070
     1
1070
   171
1070
     3
1070
   143
1040
0.0393700787401575
1070
   285
1070
     4
1070
     4
1000
"
1070
   271
1070
     8
1070
    40
1040
1.0
1002
}
1001
ACAD_DSTYLE_DIMRADIAL_EXTENSION
1070
   387
1070
     1
1070
   388
1040
0.0
1070
   390
1040
1.570796326794896
1001
ACAD_DSTYLE_DIMINSPECT
1070
   396
1000

1070
   395
1000

1070
   394
1070
     1
1070
   393
1070
     0
1001
ZWMCAD_GENSTANDARDFRAME_13_
1070
   410
1000
GB
1070
   411
1000
ZwmFrameMain_
  0
VIEWPORT
  5
71
102
{ACAD_XDICTIONARY
360
87B09
102
}
330
55
100
AcDbEntity
 67
     1
  8
0
100
AcDbViewport
 10
150.1652135264906
 20
103.6581106594891
 30
0.0
 40
339.1973820494347
 41
168.6522697578383
 68
     1
 69
    -1
 12
150.1652135264906
 22
103.6581106594891
 13
0.0
 23
0.0
 14
10.0
 24
10.0
 15
10.0
 25
10.0
 16
0.0
 26
0.0
 36
1.0
 17
0.0
 27
0.0
 37
0.0
 42
50.0
 43
0.0
 44
0.0
 45
168.6522697578383
 50
0.0
 51
0.0
 72
  1000
 90
    32864
  1

281
     0
 71
     1
 74
     0
110
0.0
120
0.0
130
0.0
111
1.0
121
0.0
131
0.0
112
0.0
122
1.0
132
0.0
 79
     0
146
0.0
1001
ACAD
1000
MVIEW
1002
{
1070
    16
1010
0.0
1020
0.0
1030
0.0
1010
0.0
1020
0.0
1030
1.0
1040
0.0
1040
168.6522697578383
1040
150.1652135264906
1040
103.6581106594891
1040
50.0
1040
0.0
1040
0.0
1070
     0
1070
  1000
1070
     0
1070
     3
1070
     0
1070
     0
1070
     0
1070
     0
1040
0.0
1040
0.0
1040
0.0
1040
10.0
1040
10.0
1040
10.0
1040
10.0
1070
     0
1002
{
1002
}
1002
}
  0
VIEWPORT
  5
73
102
{ACAD_XDICTIONARY
360
87B0B
102
}
330
55
100
AcDbEntity
 67
     1
  8
0
100
AcDbViewport
 10
133.3499939441681
 20
101.5999939441681
 30
0.0
 40
213.3599903106689
 41
162.5599903106689
 68
     2
 69
    -1
 12
210.0
 22
148.5
 13
0.0
 23
0.0
 14
10.0
 24
10.0
 15
10.0
 25
10.0
 16
0.0
 26
0.0
 36
1.0
 17
0.0
 27
0.0
 37
0.0
 42
50.0
 43
0.0
 44
0.0
 45
324.0677920111345
 50
0.0
 51
0.0
 72
   100
 90
    32864
  1

281
     0
 71
     1
 74
     0
110
0.0
120
0.0
130
0.0
111
1.0
121
0.0
131
0.0
112
0.0
122
1.0
132
0.0
 79
     0
146
0.0
1001
ACAD
1000
MVIEW
1002
{
1070
    16
1010
0.0
1020
0.0
1030
0.0
1010
0.0
1020
0.0
1030
1.0
1040
0.0
1040
324.0677920111345
1040
210.0
1040
148.5
1040
50.0
1040
0.0
1040
0.0
1070
     0
1070
   100
1070
     0
1070
     3
1070
     0
1070
     0
1070
     0
1070
     0
1040
0.0
1040
0.0
1040
0.0
1040
10.0
1040
10.0
1040
10.0
1040
10.0
1070
     0
1002
{
1002
}
1002
}
  0
ENDSEC
  0
SECTION
  2
OBJECTS
  0
DICTIONARY
  5
C
330
0
100
AcDbDictionary
281
     1
  3
ACAD_2007HEADERVARS_RT
350
97729
  3
ACAD_CIP_PREVIOUS_PRODUCT_INFO
350
4A3C3
  3
ACAD_COLOR
350
85
  3
ACAD_DETAILVIEWSTYLE
350
4A3BB
  3
ACAD_GROUP
350
D
  3
ACAD_LAYOUT
350
1A
  3
ACAD_MATERIAL
350
84
  3
ACAD_MLEADERSTYLE
350
4A3B7
  3
ACAD_MLINESTYLE
350
17
  3
ACAD_PLOTSETTINGS
350
19
  3
ACAD_PLOTSTYLENAME
350
E
  3
ACAD_SCALELIST
350
4A3A5
  3
ACAD_SECTIONVIEWSTYLE
350
4A3B9
  3
ACAD_TABLESTYLE
350
A1
  3
ACAD_VISUALSTYLE
350
4A38C
  3
ACDB_RECOMPOSE_DATA
350
907A1
  3
ACDBHEADERROUNDTRIPXREC
350
97726
  3
AcDbVariableDictionary
350
5E
  3
ASE_INDEX_DICTIONARY
350
349E9
  3
DWGPROPS
350
9772C
  0
DICTIONARY
  5
8C34E
330
8
100
AcDbDictionary
280
     1
281
     1
  3
ACAD_XREC_ROUNDTRIP
360
97732
  0
DICTIONARY
  5
E2
330
2
100
AcDbDictionary
280
     1
281
     1
  3
ACAD_LAYERFILTERS
360
4A339
  3
ACAD_LAYERSTATES
360
3759A
  3
ACLYDICTIONARY
360
4A338
  0
DICTIONARY
  5
4A86C
330
10
100
AcDbDictionary
280
     1
281
     1
  3
ADSK_XREC_LAYER_RECONCILED
360
4A86D
  0
DICTIONARY
  5
4A773
330
4A772
100
AcDbDictionary
280
     1
281
     1
  3
ADSK_XREC_LAYER_RECONCILED
360
4A86E
  0
DICTIONARY
  5
4A775
330
4A774
100
AcDbDictionary
280
     1
281
     1
  3
ADSK_XREC_LAYER_RECONCILED
360
4A86F
  0
DICTIONARY
  5
4A777
330
4A776
100
AcDbDictionary
280
     1
281
     1
  3
ADSK_XREC_LAYER_RECONCILED
360
4A870
  0
DICTIONARY
  5
4A779
330
4A778
100
AcDbDictionary
280
     1
281
     1
  3
ADSK_XREC_LAYER_RECONCILED
360
4A871
  0
DICTIONARY
  5
4A77B
330
4A77A
100
AcDbDictionary
280
     1
281
     1
  3
ADSK_XREC_LAYER_RECONCILED
360
4A872
  0
DICTIONARY
  5
4A77F
330
4A77E
100
AcDbDictionary
280
     1
281
     1
  3
ADSK_XREC_LAYER_RECONCILED
360
4A874
  0
DICTIONARY
  5
4A783
330
4A782
100
AcDbDictionary
280
     1
281
     1
  3
ADSK_XREC_LAYER_RECONCILED
360
4A876
  0
DICTIONARY
  5
8C34C
330
87B52
100
AcDbDictionary
280
     1
281
     1
  3
ACAD_XREC_ROUNDTRIP
360
97731
  0
DICTIONARY
  5
31EE
330
1F
100
AcDbDictionary
280
     1
281
     1
  3
ACAD_SORTENTS
360
31EF
  0
DICTIONARY
  5
4A6D7
330
4A6D6
100
AcDbDictionary
280
     1
281
     1
  3
ACAD_SORTENTS
360
4A6D8
  0
DICTIONARY
  5
87B05
330
6B
100
AcDbDictionary
280
     1
281
     1
  3
ACAD_XREC_ROUNDTRIP
360
9772F
  0
DICTIONARY
  5
87B07
330
6D
100
AcDbDictionary
280
     1
281
     1
  3
ACAD_XREC_ROUNDTRIP
360
97730
  0
DICTIONARY
  5
96C25
330
96C24
100
AcDbDictionary
280
     1
281
     1
  3
ACAD_DIMASSOC
360
96C26
  0
DICTIONARY
  5
96C28
330
96C27
100
AcDbDictionary
280
     1
281
     1
  3
ACAD_DIMASSOC
360
96C29
  0
DICTIONARY
  5
96C2B
330
96C2A
100
AcDbDictionary
280
     1
281
     1
  3
ACAD_DIMASSOC
360
96C2C
  0
DICTIONARY
  5
87B09
330
71
100
AcDbDictionary
280
     1
281
     1
  3
ACAD_XREC_ROUNDTRIP
360
9772D
  0
DICTIONARY
  5
87B0B
330
73
100
AcDbDictionary
280
     1
281
     1
  3
ACAD_XREC_ROUNDTRIP
360
9772E
  0
DICTIONARY
  5
97729
102
{ACAD_REACTORS
330
C
102
}
330
C
100
AcDbDictionary
281
     1
  3
DIMTFILL
350
9772A
  3
DIMTFILLCLR
350
9772B
  0
XRECORD
  5
4A3C3
102
{ACAD_REACTORS
330
C
102
}
330
C
100
AcDbXrecord
280
     1
300
ACDLT
300
2020
300

  0
DICTIONARY
  5
85
102
{ACAD_REACTORS
330
C
102
}
330
C
100
AcDbDictionary
281
     1
  0
DICTIONARY
  5
4A3BB
102
{ACAD_REACTORS
330
C
102
}
330
C
100
AcDbDictionary
281
     1
  3
Metric50
350
4A3BC
  0
DICTIONARY
  5
D
102
{ACAD_REACTORS
330
C
102
}
330
C
100
AcDbDictionary
281
     1
  0
DICTIONARY
  5
1A
102
{ACAD_REACTORS
330
C
102
}
330
C
100
AcDbDictionary
281
     1
  3
Model
350
22
  3
レイアウト1
350
51
  3
レイアウト2
350
56
  0
DICTIONARY
  5
84
102
{ACAD_REACTORS
330
C
102
}
330
C
100
AcDbDictionary
281
     1
  3
ByBlock
350
4A37C
  3
ByLayer
350
4A374
  3
Global
350
4A384
  0
DICTIONARY
  5
4A3B7
102
{ACAD_REACTORS
330
C
102
}
330
C
100
AcDbDictionary
281
     1
  3
Standard
350
4A3B8
  0
DICTIONARY
  5
17
102
{ACAD_REACTORS
330
C
102
}
330
C
100
AcDbDictionary
281
     1
  3
Standard
350
18
  0
DICTIONARY
  5
19
102
{ACAD_REACTORS
330
C
102
}
330
C
100
AcDbDictionary
281
     1
  0
ACDBDICTIONARYWDFLT
  5
E
102
{ACAD_REACTORS
330
C
102
}
330
C
100
AcDbDictionary
281
     1
  3
Normal
350
F
100
AcDbDictionaryWithDefault
340
F
  0
DICTIONARY
  5
4A3A5
102
{ACAD_REACTORS
330
C
102
}
330
C
100
AcDbDictionary
281
     1
  3
A0
350
4A3A6
  3
A1
350
4A3A7
  3
A2
350
4A3A8
  3
A3
350
4A3A9
  3
A4
350
4A3AA
  3
A5
350
4A3AB
  3
A6
350
4A3AC
  3
A7
350
4A3AD
  3
A8
350
4A3AE
  3
A9
350
4A3AF
  3
B0
350
4A3B0
  3
B1
350
4A3B1
  3
B2
350
4A3B2
  3
B3
350
4A3B3
  3
B4
350
4A3B4
  3
B5
350
4A3B5
  3
B6
350
4A3B6
  0
DICTIONARY
  5
4A3B9
102
{ACAD_REACTORS
330
C
102
}
330
C
100
AcDbDictionary
281
     1
  3
Metric50
350
4A3BA
  0
DICTIONARY
  5
A1
102
{ACAD_REACTORS
330
C
102
}
330
C
100
AcDbDictionary
281
     1
  3
Standard
350
A2
  0
DICTIONARY
  5
4A38C
102
{ACAD_REACTORS
330
C
102
}
330
C
100
AcDbDictionary
281
     1
  3
2dWireframe
350
4A392
  3
Basic
350
4A391
  3
Brighten
350
4A398
  3
ColorChange
350
4A39C
  3
Conceptual
350
4A395
  3
Dim
350
4A397
  3
EdgeColorOff
350
4A3A4
  3
Facepattern
350
4A39B
  3
Flat
350
4A38D
  3
FlatWithEdges
350
4A38E
  3
Gouraud
350
4A38F
  3
GouraudWithEdges
350
4A390
  3
Hidden
350
4A394
  3
JitterOff
350
4A3A2
  3
Linepattern
350
4A39A
  3
OverhangOff
350
4A3A3
  3
Realistic
350
4A396
  3
Shaded
350
4A3A1
  3
Shaded with edges
350
4A3A0
  3
Shades of Gray
350
4A39D
  3
Sketchy
350
4A39E
  3
Thicken
350
4A399
  3
Wireframe
350
4A393
  3
X-Ray
350
4A39F
  0
XRECORD
  5
907A1
102
{ACAD_REACTORS
330
C
102
}
330
C
100
AcDbXrecord
280
     1
 90
        1
330
A2
  0
DICTIONARY
  5
97726
102
{ACAD_REACTORS
330
C
102
}
330
C
100
AcDbDictionary
281
     1
  3
COLORDICT
350
97727
  3
MATERIALDICT
350
97728
  0
DICTIONARY
  5
5E
102
{ACAD_REACTORS
330
C
102
}
330
C
100
AcDbDictionary
281
     1
  3
CANNOSCALE
350
97725
  3
CMLEADERSTYLE
350
4A6CE
  3
CTABLESTYLE
350
B8
  3
CVIEWDETAILSTYLE
350
4A6CF
  3
CVIEWSECTIONSTYLE
350
4A6D0
  3
DIMASSOC
350
5F
  3
HIDETEXT
350
63
  3
INDEXCTL
350
4A879
  3
LAYEREVAL
350
4A6D4
  3
LAYERNOTIFY
350
4A6D5
  3
LIGHTINGUNITS
350
4A6D3
  3
MSLTSCALE
350
4A6D1
  3
PROJECTNAME
350
31CE
  3
SORTENTS
350
4A878
  3
XCLIPFRAME
350
87AF9
  0
DICTIONARY
  5
349E9
102
{ACAD_REACTORS
330
C
102
}
330
C
100
AcDbDictionary
281
     1
  3
ASEBlockHierarchyIndexRecord
350
349EA
1001
DCO15
1040
1842496176.844
  0
XRECORD
  5
9772C
102
{ACAD_REACTORS
330
C
102
}
330
C
100
AcDbXrecord
280
     1
  1
DWGPROPS COOKIE
  2

  3

  4

  6

  7

  8
zhangnw
  9

300
=
301
=
302
=
303
=
304
=
305
=
306
=
307
=
308
=
309
=
 40
0.0
 41
2455489.391063368
 42
2458948.443007187
  1

 90
        0
  0
XRECORD
  5
97732
102
{ACAD_REACTORS
330
8C34E
102
}
330
8C34E
100
AcDbXrecord
280
     1
102
VTR_0.000_0.000_1.000_1.000_VISUALSTYLE
340
4A392
102
VTR_0.000_0.000_1.000_1.000_GRIDDISPLAY
 70
     3
102
VTR_0.000_0.000_1.000_1.000_GRIDMAJOR
 70
     5
102
VTR_0.000_0.000_1.000_1.000_DEFAULTLIGHTING
280
     1
102
VTR_0.000_0.000_1.000_1.000_DEFAULTLIGHTINGTYPE
 70
     1
102
VTR_0.000_0.000_1.000_1.000_BRIGHTNESS
141
0.0
102
VTR_0.000_0.000_1.000_1.000_CONTRAST
142
0.0
  0
DICTIONARY
  5
4A339
102
{ACAD_REACTORS
330
E2
102
}
330
E2
100
AcDbDictionary
281
     1
  0
DICTIONARY
  5
3759A
102
{ACAD_REACTORS
330
E2
102
}
330
E2
100
AcDbDictionary
281
     1
  0
DICTIONARY
  5
4A338
102
{ACAD_REACTORS
330
E2
102
}
330
E2
100
AcDbDictionary
281
     1
1001
ACAD
1000
<All
  0
XRECORD
  5
4A86D
102
{ACAD_REACTORS
330
4A86C
102
}
330
4A86C
100
AcDbXrecord
280
     1
290
     1
  0
XRECORD
  5
4A86E
102
{ACAD_REACTORS
330
4A773
102
}
330
4A773
100
AcDbXrecord
280
     1
290
     1
  0
XRECORD
  5
4A86F
102
{ACAD_REACTORS
330
4A775
102
}
330
4A775
100
AcDbXrecord
280
     1
290
     1
  0
XRECORD
  5
4A870
102
{ACAD_REACTORS
330
4A777
102
}
330
4A777
100
AcDbXrecord
280
     1
290
     1
  0
XRECORD
  5
4A871
102
{ACAD_REACTORS
330
4A779
102
}
330
4A779
100
AcDbXrecord
280
     1
290
     1
  0
XRECORD
  5
4A872
102
{ACAD_REACTORS
330
4A77B
102
}
330
4A77B
100
AcDbXrecord
280
     1
290
     1
  0
XRECORD
  5
4A874
102
{ACAD_REACTORS
330
4A77F
102
}
330
4A77F
100
AcDbXrecord
280
     1
290
     1
  0
XRECORD
  5
4A876
102
{ACAD_REACTORS
330
4A783
102
}
330
4A783
100
AcDbXrecord
280
     1
290
     1
  0
XRECORD
  5
97731
102
{ACAD_REACTORS
330
8C34C
102
}
330
8C34C
100
AcDbXrecord
280
     1
102
MATERIAL
340
4A384
  0
SORTENTSTABLE
  5
31EF
102
{ACAD_REACTORS
330
31EE
102
}
330
31EE
100
AcDbSortentsTable
330
1F
  0
SORTENTSTABLE
  5
4A6D8
102
{ACAD_REACTORS
330
4A6D7
102
}
330
4A6D7
100
AcDbSortentsTable
330
4A6D6
  0
XRECORD
  5
9772F
102
{ACAD_REACTORS
330
87B05
102
}
330
87B05
100
AcDbXrecord
280
     1
102
GRIDDISPLAY
 70
     0
102
GRIDMAJOR
 70
     5
102
DEFAULTLIGHTING
280
     1
102
DEFAULTLIGHTINGTYPE
 70
     1
102
BRIGHTNESS
141
0.0
102
CONTRAST
142
0.0
  0
XRECORD
  5
97730
102
{ACAD_REACTORS
330
87B07
102
}
330
87B07
100
AcDbXrecord
280
     1
102
GRIDDISPLAY
 70
     0
102
GRIDMAJOR
 70
     5
102
DEFAULTLIGHTING
280
     1
102
DEFAULTLIGHTINGTYPE
 70
     1
102
BRIGHTNESS
141
0.0
102
CONTRAST
142
0.0
  0
DIMASSOC
  5
96C26
102
{ACAD_REACTORS
330
96C25
102
}
330
96C25
100
AcDbDimAssoc
330
96C24
 90
        3
 70
     0
 71
     0
  1
AcDbOsnapPointRef
 72
    13
331
96BEF
 73
     2
 91
        0
 40
0.0
 10
0.0
 20
0.0
 30
1.999999999999998E+50
 75
     0
  1
AcDbOsnapPointRef
 72
    13
331
96BFE
 73
     2
 91
        0
 40
0.0
 10
0.0
 20
0.0
 30
1.999999999999998E+50
 75
     0
  0
DIMASSOC
  5
96C29
102
{ACAD_REACTORS
330
96C28
102
}
330
96C28
100
AcDbDimAssoc
330
96C27
 90
        2
 70
     0
 71
     0
  1
AcDbOsnapPointRef
 72
     1
331
96BDD
 73
     2
 91
        0
 40
4.712388980384688
 10
0.0
 20
0.0
 30
1.999999999999998E+50
 75
     0
  0
DIMASSOC
  5
96C2C
102
{ACAD_REACTORS
330
96C2B
102
}
330
96C2B
100
AcDbDimAssoc
330
96C2A
 90
        3
 70
     0
 71
     0
  1
AcDbOsnapPointRef
 72
    13
331
96BDD
 73
     2
 91
        0
 40
3.141592653589792
 10
0.0
 20
0.0
 30
1.999999999999998E+50
 75
     0
  1
AcDbOsnapPointRef
 72
    13
331
96C1C
 73
     2
 91
        0
 40
3.141592653589792
 10
0.0
 20
0.0
 30
1.999999999999998E+50
 75
     0
  0
XRECORD
  5
9772D
102
{ACAD_REACTORS
330
87B09
102
}
330
87B09
100
AcDbXrecord
280
     1
102
GRIDDISPLAY
 70
     0
102
GRIDMAJOR
 70
     5
102
DEFAULTLIGHTING
280
     1
102
DEFAULTLIGHTINGTYPE
 70
     1
102
BRIGHTNESS
141
0.0
102
CONTRAST
142
0.0
  0
XRECORD
  5
9772E
102
{ACAD_REACTORS
330
87B0B
102
}
330
87B0B
100
AcDbXrecord
280
     1
102
GRIDDISPLAY
 70
     0
102
GRIDMAJOR
 70
     5
102
DEFAULTLIGHTING
280
     1
102
DEFAULTLIGHTINGTYPE
 70
     1
102
BRIGHTNESS
141
0.0
102
CONTRAST
142
0.0
  0
XRECORD
  5
9772A
102
{ACAD_REACTORS
330
97729
102
}
330
97729
100
AcDbXrecord
280
     1
 70
     1
  0
XRECORD
  5
9772B
102
{ACAD_REACTORS
330
97729
102
}
330
97729
100
AcDbXrecord
280
     1
1004
1800000001000000000000C1000000000000000000000000
  0
ACDBDETAILVIEWSTYLE
  5
4A3BC
102
{ACAD_XDICTIONARY
360
87B40
102
}
102
{ACAD_REACTORS
330
4A3BB
102
}
330
4A3BB
100
AcDbModelDocViewStyle
 70
     0
  3
Metric50
290
     0
100
AcDbDetailViewStyle
 70
     0
 71
     0
 90
        3
 71
     1
340
11
 40
5.0
340
0
 40
5.0
300

 40
0.0
280
     1
 71
     2
340
16
 90
       25
 71
     3
340
11
 40
5.0
 90
        0
 40
15.0
 90
        1
300
%<\AcVar ViewDetailId>% (%<\AcVar ViewScale \f "%sn">%)
 71
     4
340
16
 90
       25
340
16
 90
       25
280
     0
  0
LAYOUT
  5
22
102
{ACAD_REACTORS
330
1A
102
}
330
1A
100
AcDbPlotSettings
  1

  2
none_device
  4
ANSI_A_(8.50_x_11.00_Inches)
  6

 40
6.349999904632567
 41
19.04999923706055
 42
6.350006103515625
 43
19.04998779296875
 44
215.8999938964844
 45
279.3999938964844
 46
0.0
 47
0.0
 48
0.0
 49
0.0
140
0.0
141
0.0
142
1.0
143
78.436453180766
 70
 11952
 72
     0
 73
     1
 74
     0
  7

 75
     0
147
0.0127491741332998
148
0.0
149
0.0
100
AcDbLayout
  1
Model
 70
     1
 71
     0
 10
0.0
 20
0.0
 11
12.0
 21
9.0
 12
0.0
 22
0.0
 32
0.0
 14
0.0
 24
0.0
 34
0.0
 15
0.0
 25
0.0
 35
0.0
146
0.0
 13
0.0
 23
0.0
 33
0.0
 16
1.0
 26
0.0
 36
0.0
 17
0.0
 27
1.0
 37
0.0
 76
     0
330
1F
331
4A360
  0
LAYOUT
  5
51
102
{ACAD_REACTORS
330
1A
102
}
330
1A
100
AcDbPlotSettings
  1

  2
none_device
  4
Letter_(8.50_x_11.00_Inches)
  6

 40
6.349999904632567
 41
6.349999904632567
 42
6.350006103515625
 43
6.350006103515625
 44
215.8999938964844
 45
279.3999938964844
 46
0.0
 47
0.0
 48
0.0
 49
0.0
140
0.0
141
0.0
142
1.0
143
1.0
 70
   688
 72
     1
 73
     1
 74
     5
  7

 75
    16
147
1.0
148
0.0
149
0.0
100
AcDbLayout
  1
レイアウト1
 70
     1
 71
     1
 10
-6.350006103515625
 20
-6.349999904632567
 11
273.0499877929688
 21
209.5499939918518
 12
0.0
 22
0.0
 32
0.0
 14
26.66999878883364
 24
20.31999878883365
 34
0.0
 15
240.0299890995025
 25
182.8799890995025
 35
0.0
146
0.0
 13
0.0
 23
0.0
 33
0.0
 16
1.0
 26
0.0
 36
0.0
 17
0.0
 27
1.0
 37
0.0
 76
     0
330
50
331
6B
  0
LAYOUT
  5
56
102
{ACAD_REACTORS
330
1A
102
}
330
1A
100
AcDbPlotSettings
  1

  2
none_device
  4
Letter_(8.50_x_11.00_Inches)
  6

 40
6.349999904632567
 41
6.349999904632567
 42
6.350006103515625
 43
6.350006103515625
 44
215.8999938964844
 45
279.3999938964844
 46
0.0
 47
0.0
 48
0.0
 49
0.0
140
0.0
141
0.0
142
1.0
143
1.0
 70
   688
 72
     1
 73
     1
 74
     5
  7

 75
    16
147
1.0
148
0.0
149
0.0
100
AcDbLayout
  1
レイアウト2
 70
     1
 71
     2
 10
-6.350006103515625
 20
-6.349999904632567
 11
273.0499877929688
 21
209.5499939918518
 12
0.0
 22
0.0
 32
0.0
 14
26.66999878883364
 24
20.31999878883365
 34
0.0
 15
240.0299890995025
 25
182.8799890995025
 35
0.0
146
0.0
 13
0.0
 23
0.0
 33
0.0
 16
1.0
 26
0.0
 36
0.0
 17
0.0
 27
1.0
 37
0.0
 76
     0
330
55
331
71
  0
MATERIAL
  5
4A37C
102
{ACAD_XDICTIONARY
360
4A37D
102
}
102
{ACAD_REACTORS
330
84
102
}
330
84
100
AcDbMaterial
  1
ByBlock
 72
     0
 73
     2
 43
0.0008202099737533
 43
0.0
 43
0.0
 43
0.0
 43
0.0
 43
0.0008202099737533
 43
0.0
 43
0.0
 43
0.0
 43
0.0
 43
1.0
 43
0.0
 43
0.0
 43
0.0
 43
0.0
 43
1.0
 77
     0
 78
     2
 47
0.0008202099737533
 47
0.0
 47
0.0
 47
0.0
 47
0.0
 47
0.0008202099737533
 47
0.0
 47
0.0
 47
0.0
 47
0.0
 47
1.0
 47
0.0
 47
0.0
 47
0.0
 47
0.0
 47
1.0
171
     0
172
     2
 49
0.0008202099737533
 49
0.0
 49
0.0
 49
0.0
 49
0.0
 49
0.0008202099737533
 49
0.0
 49
0.0
 49
0.0
 49
0.0
 49
1.0
 49
0.0
 49
0.0
 49
0.0
 49
0.0
 49
1.0
175
     0
176
     2
142
0.0008202099737533
142
0.0
142
0.0
142
0.0
142
0.0
142
0.0008202099737533
142
0.0
142
0.0
142
0.0
142
0.0
142
1.0
142
0.0
142
0.0
142
0.0
142
0.0
142
1.0
179
     0
270
     2
144
0.0008202099737533
144
0.0
144
0.0
144
0.0
144
0.0
144
0.0008202099737533
144
0.0
144
0.0
144
0.0
144
0.0
144
1.0
144
0.0
144
0.0
144
0.0
144
0.0
144
1.0
274
     2
147
0.0008202099737533
147
0.0
147
0.0
147
0.0
147
0.0
147
0.0008202099737533
147
0.0
147
0.0
147
0.0
147
0.0
147
1.0
147
0.0
147
0.0
147
0.0
147
0.0
147
1.0
  0
MATERIAL
  5
4A374
102
{ACAD_XDICTIONARY
360
4A375
102
}
102
{ACAD_REACTORS
330
84
102
}
330
84
100
AcDbMaterial
  1
ByLayer
 72
     0
 73
     2
 43
0.0008202099737533
 43
0.0
 43
0.0
 43
0.0
 43
0.0
 43
0.0008202099737533
 43
0.0
 43
0.0
 43
0.0
 43
0.0
 43
1.0
 43
0.0
 43
0.0
 43
0.0
 43
0.0
 43
1.0
 77
     0
 78
     2
 47
0.0008202099737533
 47
0.0
 47
0.0
 47
0.0
 47
0.0
 47
0.0008202099737533
 47
0.0
 47
0.0
 47
0.0
 47
0.0
 47
1.0
 47
0.0
 47
0.0
 47
0.0
 47
0.0
 47
1.0
171
     0
172
     2
 49
0.0008202099737533
 49
0.0
 49
0.0
 49
0.0
 49
0.0
 49
0.0008202099737533
 49
0.0
 49
0.0
 49
0.0
 49
0.0
 49
1.0
 49
0.0
 49
0.0
 49
0.0
 49
0.0
 49
1.0
175
     0
176
     2
142
0.0008202099737533
142
0.0
142
0.0
142
0.0
142
0.0
142
0.0008202099737533
142
0.0
142
0.0
142
0.0
142
0.0
142
1.0
142
0.0
142
0.0
142
0.0
142
0.0
142
1.0
179
     0
270
     2
144
0.0008202099737533
144
0.0
144
0.0
144
0.0
144
0.0
144
0.0008202099737533
144
0.0
144
0.0
144
0.0
144
0.0
144
1.0
144
0.0
144
0.0
144
0.0
144
0.0
144
1.0
274
     2
147
0.0008202099737533
147
0.0
147
0.0
147
0.0
147
0.0
147
0.0008202099737533
147
0.0
147
0.0
147
0.0
147
0.0
147
1.0
147
0.0
147
0.0
147
0.0
147
0.0
147
1.0
  0
MATERIAL
  5
4A384
102
{ACAD_XDICTIONARY
360
4A385
102
}
102
{ACAD_REACTORS
330
84
102
}
330
84
100
AcDbMaterial
  1
Global
 72
     0
 73
     2
 43
0.0008202099737533
 43
0.0
 43
0.0
 43
0.0
 43
0.0
 43
0.0008202099737533
 43
0.0
 43
0.0
 43
0.0
 43
0.0
 43
1.0
 43
0.0
 43
0.0
 43
0.0
 43
0.0
 43
1.0
 77
     0
 78
     2
 47
0.0008202099737533
 47
0.0
 47
0.0
 47
0.0
 47
0.0
 47
0.0008202099737533
 47
0.0
 47
0.0
 47
0.0
 47
0.0
 47
1.0
 47
0.0
 47
0.0
 47
0.0
 47
0.0
 47
1.0
171
     0
172
     2
 49
0.0008202099737533
 49
0.0
 49
0.0
 49
0.0
 49
0.0
 49
0.0008202099737533
 49
0.0
 49
0.0
 49
0.0
 49
0.0
 49
1.0
 49
0.0
 49
0.0
 49
0.0
 49
0.0
 49
1.0
175
     0
176
     2
142
0.0008202099737533
142
0.0
142
0.0
142
0.0
142
0.0
142
0.0008202099737533
142
0.0
142
0.0
142
0.0
142
0.0
142
1.0
142
0.0
142
0.0
142
0.0
142
0.0
142
1.0
179
     0
270
     2
144
0.0008202099737533
144
0.0
144
0.0
144
0.0
144
0.0
144
0.0008202099737533
144
0.0
144
0.0
144
0.0
144
0.0
144
1.0
144
0.0
144
0.0
144
0.0
144
0.0
144
1.0
274
     2
147
0.0008202099737533
147
0.0
147
0.0
147
0.0
147
0.0
147
0.0008202099737533
147
0.0
147
0.0
147
0.0
147
0.0
147
1.0
147
0.0
147
0.0
147
0.0
147
0.0
147
1.0
  0
MLEADERSTYLE
  5
4A3B8
102
{ACAD_XDICTIONARY
360
8C353
102
}
102
{ACAD_REACTORS
330
4A3B7
102
}
330
4A3B7
100
AcDbMLeaderStyle
170
     2
171
     1
172
     0
 90
        2
 40
0.0
 41
0.0
173
     1
 91
-1056964608
340
14
 92
       -2
290
     1
 42
2.0
291
     1
 43
0.36
  3
Standard
 44
4.0
300

342
11
174
     1
178
     6
175
     1
176
     0
 93
-1056964608
 45
4.0
292
     0
297
     0
 46
4.0
 94
-1056964608
 47
1.0
 49
1.0
140
1.0
293
     1
141
0.0
294
     1
177
     0
142
1.0
295
     0
296
     0
143
0.125
1001
ACAD_MLEADERVER
1070
     2
  0
MLINESTYLE
  5
18
102
{ACAD_REACTORS
330
17
102
}
330
17
100
AcDbMlineStyle
  2
STANDARD
 70
     0
  3

 62
   256
 51
90.0
 52
90.0
 71
     2
 49
0.5
 62
   256
  6
BYLAYER
 49
-0.5
 62
   256
  6
BYLAYER
  0
ACDBPLACEHOLDER
  5
F
102
{ACAD_REACTORS
330
E
102
}
330
E
  0
SCALE
  5
4A3A6
102
{ACAD_REACTORS
330
4A3A5
102
}
330
4A3A5
100
AcDbScale
 70
     0
300
1:1
140
1.0
141
1.0
290
     1
  0
SCALE
  5
4A3A7
102
{ACAD_REACTORS
330
4A3A5
102
}
330
4A3A5
100
AcDbScale
 70
     0
300
1:2
140
1.0
141
2.0
290
     0
  0
SCALE
  5
4A3A8
102
{ACAD_REACTORS
330
4A3A5
102
}
330
4A3A5
100
AcDbScale
 70
     0
300
1:4
140
1.0
141
4.0
290
     0
  0
SCALE
  5
4A3A9
102
{ACAD_REACTORS
330
4A3A5
102
}
330
4A3A5
100
AcDbScale
 70
     0
300
1:5
140
1.0
141
5.0
290
     0
  0
SCALE
  5
4A3AA
102
{ACAD_REACTORS
330
4A3A5
102
}
330
4A3A5
100
AcDbScale
 70
     0
300
1:8
140
1.0
141
8.0
290
     0
  0
SCALE
  5
4A3AB
102
{ACAD_REACTORS
330
4A3A5
102
}
330
4A3A5
100
AcDbScale
 70
     0
300
1:10
140
1.0
141
10.0
290
     0
  0
SCALE
  5
4A3AC
102
{ACAD_REACTORS
330
4A3A5
102
}
330
4A3A5
100
AcDbScale
 70
     0
300
1:16
140
1.0
141
16.0
290
     0
  0
SCALE
  5
4A3AD
102
{ACAD_REACTORS
330
4A3A5
102
}
330
4A3A5
100
AcDbScale
 70
     0
300
1:20
140
1.0
141
20.0
290
     0
  0
SCALE
  5
4A3AE
102
{ACAD_REACTORS
330
4A3A5
102
}
330
4A3A5
100
AcDbScale
 70
     0
300
1:30
140
1.0
141
30.0
290
     0
  0
SCALE
  5
4A3AF
102
{ACAD_REACTORS
330
4A3A5
102
}
330
4A3A5
100
AcDbScale
 70
     0
300
1:40
140
1.0
141
40.0
290
     0
  0
SCALE
  5
4A3B0
102
{ACAD_REACTORS
330
4A3A5
102
}
330
4A3A5
100
AcDbScale
 70
     0
300
1:50
140
1.0
141
50.0
290
     0
  0
SCALE
  5
4A3B1
102
{ACAD_REACTORS
330
4A3A5
102
}
330
4A3A5
100
AcDbScale
 70
     0
300
1:100
140
1.0
141
100.0
290
     0
  0
SCALE
  5
4A3B2
102
{ACAD_REACTORS
330
4A3A5
102
}
330
4A3A5
100
AcDbScale
 70
     0
300
2:1
140
2.0
141
1.0
290
     0
  0
SCALE
  5
4A3B3
102
{ACAD_REACTORS
330
4A3A5
102
}
330
4A3A5
100
AcDbScale
 70
     0
300
4:1
140
4.0
141
1.0
290
     0
  0
SCALE
  5
4A3B4
102
{ACAD_REACTORS
330
4A3A5
102
}
330
4A3A5
100
AcDbScale
 70
     0
300
8:1
140
8.0
141
1.0
290
     0
  0
SCALE
  5
4A3B5
102
{ACAD_REACTORS
330
4A3A5
102
}
330
4A3A5
100
AcDbScale
 70
     0
300
10:1
140
10.0
141
1.0
290
     0
  0
SCALE
  5
4A3B6
102
{ACAD_REACTORS
330
4A3A5
102
}
330
4A3A5
100
AcDbScale
 70
     0
300
100:1
140
100.0
141
1.0
290
     0
  0
ACDBSECTIONVIEWSTYLE
  5
4A3BA
102
{ACAD_XDICTIONARY
360
87B3E
102
}
102
{ACAD_REACTORS
330
4A3B9
102
}
330
4A3B9
100
AcDbModelDocViewStyle
 70
     0
  3
Metric50
290
     0
100
AcDbSectionViewStyle
 70
     0
 71
     0
 90
      102
 71
     1
340
11
 40
5.0
340
0
340
0
 40
5.0
300
I, O, Q, S, X, Z
 40
10.0
 90
        0
 40
2.5
 90
        0
 71
     2
340
16
 90
       25
340
16
 90
       50
 40
5.0
 40
2.5
 40
5.0
 71
     3
340
11
 40
5.0
 90
        0
 40
15.0
 90
        1
300
%<\AcVar ViewSectionStartId>%-%<\AcVar ViewSectionEndId>% (%<\AcVar ViewScale \f "%sn">%)
 71
     4
300
ANSI31
 40
1.0
 90
        0
290
     0
290
     0
 90
        6
 40
0.0
 40
1.570796326794896
 40
0.2617993877991494
 40
1.308996938995747
 40
-0.2617993877991494
 40
1.832595714594044
  0
TABLESTYLE
  5
A2
102
{ACAD_XDICTIONARY
360
4CD9A
102
}
102
{ACAD_REACTORS
330
A1
102
}
330
A1
100
AcDbTableStyle
  3
Standard
 70
     0
 71
     0
 40
1.5
 41
1.5
280
     0
281
     0
  7
Standard
140
4.5
170
     2
 62
     0
 63
   257
283
     0
274
    -2
284
     1
 64
     0
275
    -2
285
     1
 65
     0
276
    -2
286
     1
 66
     0
277
    -2
287
     1
 67
     0
278
    -2
288
     1
 68
     0
279
    -2
289
     1
 69
     0
  7
Standard
140
6.0
170
     5
 62
     0
 63
   257
283
     0
274
    -2
284
     1
 64
     0
275
    -2
285
     1
 65
     0
276
    -2
286
     1
 66
     0
277
    -2
287
     1
 67
     0
278
    -2
288
     1
 68
     0
279
    -2
289
     1
 69
     0
  7
Standard
140
4.5
170
     5
 62
     0
 63
   257
283
     0
274
    -2
284
     1
 64
     0
275
    -2
285
     1
 65
     0
276
    -2
286
     1
 66
     0
277
    -2
287
     1
 67
     0
278
    -2
288
     1
 68
     0
279
    -2
289
     1
 69
     0
  0
VISUALSTYLE
  5
4A392
102
{ACAD_XDICTIONARY
360
87B18
102
}
102
{ACAD_REACTORS
330
4A38C
102
}
330
4A38C
100
AcDbVisualStyle
  2

 70
     4
 71
     0
 72
     2
 73
     0
 90
        0
 40
-0.6
 41
-30.0
 62
     5
 63
     7
 74
     1
 91
        4
 64
     7
 65
   257
 75
     1
175
     1
 42
1.0
 92
        0
 66
   257
 43
1.0
 76
     1
 77
     6
 78
     2
 67
     7
 79
     5
170
     0
171
     0
290
     0
174
     0
 93
        1
 44
0.0
173
     0
291
     0
 45
0.0
1001
ACAD
1000
AcDbSavedByObjectVersion
1070
     0
  0
VISUALSTYLE
  5
4A391
102
{ACAD_XDICTIONARY
360
87B16
102
}
102
{ACAD_REACTORS
330
4A38C
102
}
330
4A38C
100
AcDbVisualStyle
  2

 70
     7
 71
     1
 72
     0
 73
     1
 90
        0
 40
-0.6
 41
-30.0
 62
     5
 63
     7
 74
     0
 91
        4
 64
     7
 65
   257
 75
     1
175
     1
 42
1.0
 92
        8
 66
     7
 43
1.0
 76
     1
 77
     6
 78
     2
 67
     7
 79
     5
170
     0
171
     0
290
     0
174
     0
 93
        1
 44
0.0
173
     0
291
     1
 45
0.0
1001
ACAD
1000
AcDbSavedByObjectVersion
1070
     0
  0
VISUALSTYLE
  5
4A398
102
{ACAD_XDICTIONARY
360
87B24
102
}
102
{ACAD_REACTORS
330
4A38C
102
}
330
4A38C
100
AcDbVisualStyle
  2

 70
    12
 71
     2
 72
     2
 73
     0
 90
        0
 40
-0.6
 41
-30.0
 62
     5
 63
     7
 74
     1
 91
        4
 64
     7
 65
   257
 75
     1
175
     1
 42
1.0
 92
        8
 66
     7
 43
1.0
 76
     1
 77
     6
 78
     2
 67
     7
 79
     5
170
     0
171
     0
290
     0
174
     0
 93
        1
 44
50.0
173
     0
291
     1
 45
0.0
1001
ACAD
1000
AcDbSavedByObjectVersion
1070
     0
  0
VISUALSTYLE
  5
4A39C
102
{ACAD_XDICTIONARY
360
87B2C
102
}
102
{ACAD_REACTORS
330
4A38C
102
}
330
4A38C
100
AcDbVisualStyle
  2

 70
    16
 71
     2
 72
     2
 73
     3
 90
        0
 40
-0.6
 41
-30.0
 62
     5
 63
     8
 74
     1
 91
        4
 64
     7
 65
   257
 75
     1
175
     1
 42
1.0
 92
        8
 66
     8
 43
1.0
 76
     1
 77
     6
 78
     2
 67
     7
 79
     5
170
     0
171
     0
290
     0
174
     0
 93
        1
 44
0.0
173
     0
291
     1
 45
0.0
1001
ACAD
1000
AcDbSavedByObjectVersion
1070
     0
  0
VISUALSTYLE
  5
4A395
102
{ACAD_XDICTIONARY
360
87B1E
102
}
102
{ACAD_REACTORS
330
4A38C
102
}
330
4A38C
100
AcDbVisualStyle
  2

 70
     9
 71
     3
 72
     2
 73
     0
 90
        0
 40
-0.6
 41
-30.0
 62
     5
 63
     7
 74
     2
 91
        2
 64
     7
 65
   257
 75
     1
175
     1
 42
179.0
 92
        8
 66
     7
 43
1.0
 76
     1
 77
     6
 78
     2
 67
     7
 79
     3
170
     0
171
     0
290
     0
174
     0
 93
        1
 44
0.0
173
     0
291
     0
 45
0.0
1001
ACAD
1000
AcDbSavedByObjectVersion
1070
     0
  0
VISUALSTYLE
  5
4A397
102
{ACAD_XDICTIONARY
360
87B22
102
}
102
{ACAD_REACTORS
330
4A38C
102
}
330
4A38C
100
AcDbVisualStyle
  2

 70
    11
 71
     2
 72
     2
 73
     0
 90
        0
 40
-0.6
 41
-30.0
 62
     5
 63
     7
 74
     1
 91
        4
 64
     7
 65
   257
 75
     1
175
     1
 42
1.0
 92
        8
 66
     7
 43
1.0
 76
     1
 77
     6
 78
     2
 67
     7
 79
     5
170
     0
171
     0
290
     0
174
     0
 93
        1
 44
-50.0
173
     0
291
     1
 45
0.0
1001
ACAD
1000
AcDbSavedByObjectVersion
1070
     0
  0
VISUALSTYLE
  5
4A3A4
102
{ACAD_XDICTIONARY
360
87B3C
102
}
102
{ACAD_REACTORS
330
4A38C
102
}
330
4A38C
100
AcDbVisualStyle
  2

 70
    22
 71
     2
 72
     2
 73
     0
 90
        0
 40
-0.6
 41
-30.0
 62
     5
 63
     7
 74
     1
 91
        4
 64
     7
 65
   257
 75
     1
175
     1
 42
1.0
 92
        8
 66
     7
 43
1.0
 76
     1
 77
     6
 78
     2
 67
     7
 79
     5
170
     0
171
     0
290
     0
174
     0
 93
        1
 44
0.0
173
     0
291
     1
 45
0.0
1001
ACAD
1000
AcDbSavedByObjectVersion
1070
     0
  0
VISUALSTYLE
  5
4A39B
102
{ACAD_XDICTIONARY
360
87B2A
102
}
102
{ACAD_REACTORS
330
4A38C
102
}
330
4A38C
100
AcDbVisualStyle
  2

 70
    15
 71
     2
 72
     2
 73
     0
 90
        0
 40
-0.6
 41
-30.0
 62
     5
 63
     7
 74
     1
 91
        4
 64
     7
 65
   257
 75
     1
175
     1
 42
1.0
 92
        8
 66
     7
 43
1.0
 76
     1
 77
     6
 78
     2
 67
     7
 79
     5
170
     0
171
     0
290
     0
174
     0
 93
        1
 44
0.0
173
     0
291
     1
 45
0.0
1001
ACAD
1000
AcDbSavedByObjectVersion
1070
     0
  0
VISUALSTYLE
  5
4A38D
102
{ACAD_XDICTIONARY
360
87B0E
102
}
102
{ACAD_REACTORS
330
4A38C
102
}
330
4A38C
100
AcDbVisualStyle
  2

 70
     0
 71
     2
 72
     1
 73
     1
 90
        2
 40
-0.6
 41
30.0
 62
     5
 63
     7
 74
     0
 91
        0
 64
     7
 65
   257
 75
     1
175
     1
 42
1.0
 92
        8
 66
     7
 43
1.0
 76
     1
 77
     6
 78
     2
 67
     7
 79
     5
170
     0
171
     0
290
     0
174
     0
 93
       13
 44
0.0
173
     0
291
     1
 45
0.0
1001
ACAD
1000
AcDbSavedByObjectVersion
1070
     0
  0
VISUALSTYLE
  5
4A38E
102
{ACAD_XDICTIONARY
360
87B10
102
}
102
{ACAD_REACTORS
330
4A38C
102
}
330
4A38C
100
AcDbVisualStyle
  2

 70
     1
 71
     2
 72
     1
 73
     1
 90
        2
 40
-0.6
 41
30.0
 62
     5
 63
     7
 74
     1
 91
        0
 64
     7
 65
   257
 75
     1
175
     1
 42
1.0
 92
        0
 66
   257
 43
1.0
 76
     1
 77
     6
 78
     2
 67
     7
 79
     5
170
     0
171
     0
290
     0
174
     0
 93
       13
 44
0.0
173
     0
291
     1
 45
0.0
1001
ACAD
1000
AcDbSavedByObjectVersion
1070
     0
  0
VISUALSTYLE
  5
4A38F
102
{ACAD_XDICTIONARY
360
87B12
102
}
102
{ACAD_REACTORS
330
4A38C
102
}
330
4A38C
100
AcDbVisualStyle
  2

 70
     2
 71
     2
 72
     2
 73
     1
 90
        2
 40
-0.6
 41
30.0
 62
     5
 63
     7
 74
     0
 91
        0
 64
     7
 65
   257
 75
     1
175
     1
 42
1.0
 92
        0
 66
     7
 43
1.0
 76
     1
 77
     6
 78
     2
 67
     7
 79
     5
170
     0
171
     0
290
     0
174
     0
 93
       13
 44
0.0
173
     0
291
     1
 45
0.0
1001
ACAD
1000
AcDbSavedByObjectVersion
1070
     0
  0
VISUALSTYLE
  5
4A390
102
{ACAD_XDICTIONARY
360
87B14
102
}
102
{ACAD_REACTORS
330
4A38C
102
}
330
4A38C
100
AcDbVisualStyle
  2

 70
     3
 71
     2
 72
     2
 73
     1
 90
        2
 40
-0.6
 41
30.0
 62
     5
 63
     7
 74
     1
 91
        0
 64
     7
 65
   257
 75
     1
175
     1
 42
1.0
 92
        0
 66
   257
 43
1.0
 76
     1
 77
     6
 78
     2
 67
     7
 79
     5
170
     0
171
     0
290
     0
174
     0
 93
       13
 44
0.0
173
     0
291
     1
 45
0.0
1001
ACAD
1000
AcDbSavedByObjectVersion
1070
     0
  0
VISUALSTYLE
  5
4A394
102
{ACAD_XDICTIONARY
360
87B1C
102
}
102
{ACAD_REACTORS
330
4A38C
102
}
330
4A38C
100
AcDbVisualStyle
  2

 70
     6
 71
     1
 72
     2
 73
     2
 90
        0
 40
-0.6
 41
-30.0
 62
     5
 63
     7
 74
     2
 91
        2
 64
     7
 65
   257
 75
     2
175
     1
 42
40.0
 92
        0
 66
   257
 43
1.0
 76
     1
 77
     6
 78
     2
 67
     7
 79
     3
170
     0
171
     0
290
     0
174
     0
 93
        1
 44
0.0
173
     0
291
     0
 45
0.0
1001
ACAD
1000
AcDbSavedByObjectVersion
1070
     0
  0
VISUALSTYLE
  5
4A3A2
102
{ACAD_XDICTIONARY
360
87B38
102
}
102
{ACAD_REACTORS
330
4A38C
102
}
330
4A38C
100
AcDbVisualStyle
  2

 70
    20
 71
     2
 72
     2
 73
     0
 90
        0
 40
-0.6
 41
-30.0
 62
     5
 63
     7
 74
     1
 91
        4
 64
     7
 65
   257
 75
     1
175
     1
 42
1.0
 92
       10
 66
     7
 43
1.0
 76
     1
 77
     6
 78
     2
 67
     7
 79
     5
170
     0
171
     0
290
     0
174
     0
 93
        1
 44
0.0
173
     0
291
     1
 45
0.0
1001
ACAD
1000
AcDbSavedByObjectVersion
1070
     0
  0
VISUALSTYLE
  5
4A39A
102
{ACAD_XDICTIONARY
360
87B28
102
}
102
{ACAD_REACTORS
330
4A38C
102
}
330
4A38C
100
AcDbVisualStyle
  2

 70
    14
 71
     2
 72
     2
 73
     0
 90
        0
 40
-0.6
 41
-30.0
 62
     5
 63
     7
 74
     1
 91
        4
 64
     7
 65
   257
 75
     7
175
     7
 42
1.0
 92
        8
 66
     7
 43
1.0
 76
     1
 77
     6
 78
     2
 67
     7
 79
     5
170
     0
171
     0
290
     0
174
     0
 93
        1
 44
0.0
173
     0
291
     1
 45
0.0
1001
ACAD
1000
AcDbSavedByObjectVersion
1070
     0
  0
VISUALSTYLE
  5
4A3A3
102
{ACAD_XDICTIONARY
360
87B3A
102
}
102
{ACAD_REACTORS
330
4A38C
102
}
330
4A38C
100
AcDbVisualStyle
  2

 70
    21
 71
     2
 72
     2
 73
     0
 90
        0
 40
-0.6
 41
-30.0
 62
     5
 63
     7
 74
     1
 91
        4
 64
     7
 65
   257
 75
     1
175
     1
 42
1.0
 92
        9
 66
     7
 43
1.0
 76
     1
 77
     6
 78
     2
 67
     7
 79
     5
170
     0
171
     0
290
     0
174
     0
 93
        1
 44
0.0
173
     0
291
     1
 45
0.0
1001
ACAD
1000
AcDbSavedByObjectVersion
1070
     0
  0
VISUALSTYLE
  5
4A396
102
{ACAD_XDICTIONARY
360
87B20
102
}
102
{ACAD_REACTORS
330
4A38C
102
}
330
4A38C
100
AcDbVisualStyle
  2

 70
     8
 71
     2
 72
     3
 73
     0
 90
        2
 40
-0.6
 41
30.0
 62
     5
 63
     7
 74
     0
 91
        0
 64
     7
 65
   257
 75
     1
175
     1
 42
1.0
 92
        8
 66
   257
 43
1.0
 76
     1
 77
     6
 78
     2
 67
     7
 79
     3
170
     0
171
     0
290
     0
174
     0
 93
       13
 44
0.0
173
     0
291
     0
 45
0.0
1001
ACAD
1000
AcDbSavedByObjectVersion
1070
     0
  0
VISUALSTYLE
  5
4A3A1
102
{ACAD_XDICTIONARY
360
87B36
102
}
102
{ACAD_REACTORS
330
4A38C
102
}
330
4A38C
100
AcDbVisualStyle
  2

 70
    27
 71
     2
 72
     2
 73
     1
 90
        2
 40
-0.6
 41
30.0
 62
     5
 63
     7
 74
     0
 91
        4
 64
     7
 65
   257
 75
     1
175
     1
 42
1.0
 92
        8
 66
   257
 43
1.0
 76
     1
 77
     6
 78
     2
 67
     8
 79
     3
170
     0
171
     0
290
     0
174
     0
 93
        5
 44
0.0
173
     0
291
     0
 45
0.0
1001
ACAD
1000
AcDbSavedByObjectVersion
1070
     0
  0
VISUALSTYLE
  5
4A3A0
102
{ACAD_XDICTIONARY
360
87B34
102
}
102
{ACAD_REACTORS
330
4A38C
102
}
330
4A38C
100
AcDbVisualStyle
  2

 70
    26
 71
     2
 72
     2
 73
     1
 90
        2
 40
-0.6
 41
30.0
 62
     5
 63
     7
 74
     1
 91
        2
 64
     7
 65
   257
 75
     2
175
     1
 42
1.0
 92
        8
 66
   257
 43
1.0
 76
     1
 77
     6
 78
     2
 67
     7
 79
     3
170
     0
171
     0
290
     0
174
     0
 93
        5
 44
0.0
173
     0
291
     0
 45
0.0
1001
ACAD
1000
AcDbSavedByObjectVersion
1070
     0
  0
VISUALSTYLE
  5
4A39D
102
{ACAD_XDICTIONARY
360
87B2E
102
}
102
{ACAD_REACTORS
330
4A38C
102
}
330
4A38C
100
AcDbVisualStyle
  2

 70
    23
 71
     2
 72
     2
 73
     3
 90
        0
 40
-0.6
 41
-30.0
 62
     5
 63
     7
 74
     2
 91
        2
 64
     7
 65
     7
 75
     1
175
     1
 42
40.0
 92
        8
 66
     7
 43
1.0
 76
     1
 77
     6
 78
     2
 67
     7
 79
     3
170
     0
171
     0
290
     0
174
     0
 93
        1
 44
0.0
173
     0
291
     0
 45
0.0
1001
ACAD
1000
AcDbSavedByObjectVersion
1070
     0
  0
VISUALSTYLE
  5
4A39E
102
{ACAD_XDICTIONARY
360
87B30
102
}
102
{ACAD_REACTORS
330
4A38C
102
}
330
4A38C
100
AcDbVisualStyle
  2

 70
    24
 71
     1
 72
     2
 73
     2
 90
        0
 40
-0.6
 41
-30.0
 62
     5
 63
     7
 74
     2
 91
        2
 64
     7
 65
     7
 75
     1
175
     1
 42
40.0
 92
       11
 66
     7
 43
1.0
 76
     1
 77
     6
 78
     2
 67
     7
 79
     6
170
     0
171
     0
290
     0
174
     0
 93
        1
 44
0.0
173
     0
291
     0
 45
0.0
1001
ACAD
1000
AcDbSavedByObjectVersion
1070
     0
  0
VISUALSTYLE
  5
4A399
102
{ACAD_XDICTIONARY
360
87B26
102
}
102
{ACAD_REACTORS
330
4A38C
102
}
330
4A38C
100
AcDbVisualStyle
  2

 70
    13
 71
     2
 72
     2
 73
     0
 90
        0
 40
-0.6
 41
-30.0
 62
     5
 63
     7
 74
     1
 91
        4
 64
     7
 65
   257
 75
     1
175
     1
 42
1.0
 92
       12
 66
     7
 43
1.0
 76
     1
 77
     6
 78
     2
 67
     7
 79
     5
170
     0
171
     0
290
     0
174
     0
 93
        1
 44
0.0
173
     0
291
     1
 45
0.0
1001
ACAD
1000
AcDbSavedByObjectVersion
1070
     0
  0
VISUALSTYLE
  5
4A393
102
{ACAD_XDICTIONARY
360
87B1A
102
}
102
{ACAD_REACTORS
330
4A38C
102
}
330
4A38C
100
AcDbVisualStyle
  2

 70
     5
 71
     0
 72
     2
 73
     0
 90
        0
 40
-0.6
 41
-30.0
 62
     5
 63
     7
 74
     1
 91
        4
 64
     7
 65
   257
 75
     1
175
     1
 42
1.0
 92
        0
 66
   257
 43
1.0
 76
     1
 77
     6
 78
     2
 67
     7
 79
     3
170
     0
171
     0
290
     0
174
     0
 93
        1
 44
0.0
173
     0
291
     0
 45
0.0
1001
ACAD
1000
AcDbSavedByObjectVersion
1070
     0
  0
VISUALSTYLE
  5
4A39F
102
{ACAD_XDICTIONARY
360
87B32
102
}
102
{ACAD_REACTORS
330
4A38C
102
}
330
4A38C
100
AcDbVisualStyle
  2

 70
    25
 71
     2
 72
     2
 73
     1
 90
        1
 40
0.5
 41
-30.0
 62
     5
 63
     7
 74
     1
 91
        0
 64
     7
 65
   257
 75
     1
175
     1
 42
1.0
 92
        8
 66
     7
 43
1.0
 76
     1
 77
     6
 78
     2
 67
     7
 79
     3
170
     0
171
     0
290
     0
174
     0
 93
       13
 44
0.0
173
     0
291
     0
 45
0.0
1001
ACAD
1000
AcDbSavedByObjectVersion
1070
     0
  0
XRECORD
  5
97727
102
{ACAD_REACTORS
330
97726
102
}
330
97726
100
AcDbXrecord
280
     1
340
85
  0
XRECORD
  5
97728
102
{ACAD_REACTORS
330
97726
102
}
330
97726
100
AcDbXrecord
280
     1
340
84
  0
DICTIONARYVAR
  5
97725
102
{ACAD_REACTORS
330
5E
102
}
330
5E
100
DictionaryVariables
280
    42
  1
1:1
  0
DICTIONARYVAR
  5
4A6CE
102
{ACAD_REACTORS
330
5E
102
}
330
5E
100
DictionaryVariables
280
     0
  1
STANDARD
  0
DICTIONARYVAR
  5
B8
102
{ACAD_REACTORS
330
5E
102
}
330
5E
100
DictionaryVariables
280
     0
  1
STANDARD
  0
DICTIONARYVAR
  5
4A6CF
102
{ACAD_REACTORS
330
5E
102
}
330
5E
100
DictionaryVariables
280
     0
  1
Metric50
  0
DICTIONARYVAR
  5
4A6D0
102
{ACAD_REACTORS
330
5E
102
}
330
5E
100
DictionaryVariables
280
     0
  1
Metric50
  0
DICTIONARYVAR
  5
5F
102
{ACAD_REACTORS
330
5E
102
}
330
5E
100
DictionaryVariables
280
     0
  1
2
  0
DICTIONARYVAR
  5
63
102
{ACAD_REACTORS
330
5E
102
}
330
5E
100
DictionaryVariables
280
     0
  1
1
  0
DICTIONARYVAR
  5
4A879
102
{ACAD_REACTORS
330
5E
102
}
330
5E
100
DictionaryVariables
280
     0
  1
0
  0
DICTIONARYVAR
  5
4A6D4
102
{ACAD_REACTORS
330
5E
102
}
330
5E
100
DictionaryVariables
280
     0
  1
1
  0
DICTIONARYVAR
  5
4A6D5
102
{ACAD_REACTORS
330
5E
102
}
330
5E
100
DictionaryVariables
280
     0
  1
15
  0
DICTIONARYVAR
  5
4A6D3
102
{ACAD_REACTORS
330
5E
102
}
330
5E
100
DictionaryVariables
280
     0
  1
0
  0
DICTIONARYVAR
  5
4A6D1
102
{ACAD_REACTORS
330
5E
102
}
330
5E
100
DictionaryVariables
280
     0
  1
0
  0
DICTIONARYVAR
  5
31CE
102
{ACAD_REACTORS
330
5E
102
}
330
5E
100
DictionaryVariables
280
     0
  1

  0
DICTIONARYVAR
  5
4A878
102
{ACAD_REACTORS
330
5E
102
}
330
5E
100
DictionaryVariables
280
     0
  1
127
  0
DICTIONARYVAR
  5
87AF9
102
{ACAD_REACTORS
330
5E
102
}
330
5E
100
DictionaryVariables
280
     0
  1
2
  0
XRECORD
  5
349EA
102
{ACAD_REACTORS
330
349E9
102
}
330
349E9
100
AcDbXrecord
280
     1
330
0
330
0
330
0
330
0
330
0
330
0
330
0
330
0
330
0
330
0
330
0
330
0
330
0
330
0
330
0
330
0
330
0
330
0
330
0
330
0
330
0
330
0
330
0
330
0
330
0
330
0
330
0
330
0
330
0
330
0
330
0
330
0
330
0
330
0
330
0
330
0
330
0
330
0
330
0
330
0
330
0
330
0
330
0
330
0
330
0
330
0
330
0
330
0
330
0
330
0
330
0
330
0
330
0
330
0
330
0
330
0
330
0
330
0
330
0
330
0
330
0
330
0
330
0
330
0
330
0
330
0
330
0
330
0
330
0
330
0
330
0
330
0
330
0
330
0
330
0
330
0
330
0
330
0
330
0
330
0
330
0
330
0
330
0
330
0
330
0
330
0
330
0
330
0
330
0
330
0
330
0
330
0
330
0
330
0
330
0
330
0
330
0
330
0
330
0
330
0
330
0
330
0
330
0
330
0
330
0
330
0
330
0
330
0
330
0
330
0
  0
DICTIONARY
  5
87B40
330
4A3BC
100
AcDbDictionary
280
     1
281
     1
  3
ACAD_XREC_ROUNDTRIP
360
87B41
  0
DICTIONARY
  5
4A37D
330
4A37C
100
AcDbDictionary
280
     1
281
     1
  3
ACAD_XREC_ROUNDTRIP
360
97733
  0
DICTIONARY
  5
4A375
330
4A374
100
AcDbDictionary
280
     1
281
     1
  3
ACAD_XREC_ROUNDTRIP
360
97734
  0
DICTIONARY
  5
4A385
330
4A384
100
AcDbDictionary
280
     1
281
     1
  3
ACAD_XREC_ROUNDTRIP
360
97735
  0
DICTIONARY
  5
8C353
330
4A3B8
100
AcDbDictionary
280
     1
281
     1
  3
ACAD_XREC_ROUNDTRIP
360
97736
  0
DICTIONARY
  5
87B3E
330
4A3BA
100
AcDbDictionary
280
     1
281
     1
  3
ACAD_XREC_ROUNDTRIP
360
87B3F
  0
DICTIONARY
  5
4CD9A
330
A2
100
AcDbDictionary
280
     1
281
     1
  3
ACAD_ROUNDTRIP_2008_TABLESTYLE_CELLSTYLEMAP
360
97738
  3
ACAD_XREC_ROUNDTRIP
360
97737
  0
DICTIONARY
  5
87B18
330
4A392
100
AcDbDictionary
280
     1
281
     1
  3
ACAD_XREC_ROUNDTRIP
360
97739
  0
DICTIONARY
  5
87B16
330
4A391
100
AcDbDictionary
280
     1
281
     1
  3
ACAD_XREC_ROUNDTRIP
360
9773A
  0
DICTIONARY
  5
87B24
330
4A398
100
AcDbDictionary
280
     1
281
     1
  3
ACAD_XREC_ROUNDTRIP
360
9773B
  0
DICTIONARY
  5
87B2C
330
4A39C
100
AcDbDictionary
280
     1
281
     1
  3
ACAD_XREC_ROUNDTRIP
360
9773C
  0
DICTIONARY
  5
87B1E
330
4A395
100
AcDbDictionary
280
     1
281
     1
  3
ACAD_XREC_ROUNDTRIP
360
9773D
  0
DICTIONARY
  5
87B22
330
4A397
100
AcDbDictionary
280
     1
281
     1
  3
ACAD_XREC_ROUNDTRIP
360
9773E
  0
DICTIONARY
  5
87B3C
330
4A3A4
100
AcDbDictionary
280
     1
281
     1
  3
ACAD_XREC_ROUNDTRIP
360
9773F
  0
DICTIONARY
  5
87B2A
330
4A39B
100
AcDbDictionary
280
     1
281
     1
  3
ACAD_XREC_ROUNDTRIP
360
97740
  0
DICTIONARY
  5
87B0E
330
4A38D
100
AcDbDictionary
280
     1
281
     1
  3
ACAD_XREC_ROUNDTRIP
360
97741
  0
DICTIONARY
  5
87B10
330
4A38E
100
AcDbDictionary
280
     1
281
     1
  3
ACAD_XREC_ROUNDTRIP
360
97742
  0
DICTIONARY
  5
87B12
330
4A38F
100
AcDbDictionary
280
     1
281
     1
  3
ACAD_XREC_ROUNDTRIP
360
97743
  0
DICTIONARY
  5
87B14
330
4A390
100
AcDbDictionary
280
     1
281
     1
  3
ACAD_XREC_ROUNDTRIP
360
97744
  0
DICTIONARY
  5
87B1C
330
4A394
100
AcDbDictionary
280
     1
281
     1
  3
ACAD_XREC_ROUNDTRIP
360
97745
  0
DICTIONARY
  5
87B38
330
4A3A2
100
AcDbDictionary
280
     1
281
     1
  3
ACAD_XREC_ROUNDTRIP
360
97746
  0
DICTIONARY
  5
87B28
330
4A39A
100
AcDbDictionary
280
     1
281
     1
  3
ACAD_XREC_ROUNDTRIP
360
97747
  0
DICTIONARY
  5
87B3A
330
4A3A3
100
AcDbDictionary
280
     1
281
     1
  3
ACAD_XREC_ROUNDTRIP
360
97748
  0
DICTIONARY
  5
87B20
330
4A396
100
AcDbDictionary
280
     1
281
     1
  3
ACAD_XREC_ROUNDTRIP
360
97749
  0
DICTIONARY
  5
87B36
330
4A3A1
100
AcDbDictionary
280
     1
281
     1
  3
ACAD_XREC_ROUNDTRIP
360
9774A
  0
DICTIONARY
  5
87B34
330
4A3A0
100
AcDbDictionary
280
     1
281
     1
  3
ACAD_XREC_ROUNDTRIP
360
9774B
  0
DICTIONARY
  5
87B2E
330
4A39D
100
AcDbDictionary
280
     1
281
     1
  3
ACAD_XREC_ROUNDTRIP
360
9774C
  0
DICTIONARY
  5
87B30
330
4A39E
100
AcDbDictionary
280
     1
281
     1
  3
ACAD_XREC_ROUNDTRIP
360
9774D
  0
DICTIONARY
  5
87B26
330
4A399
100
AcDbDictionary
280
     1
281
     1
  3
ACAD_XREC_ROUNDTRIP
360
9774E
  0
DICTIONARY
  5
87B1A
330
4A393
100
AcDbDictionary
280
     1
281
     1
  3
ACAD_XREC_ROUNDTRIP
360
9774F
  0
DICTIONARY
  5
87B32
330
4A39F
100
AcDbDictionary
280
     1
281
     1
  3
ACAD_XREC_ROUNDTRIP
360
97750
  0
XRECORD
  5
87B41
102
{ACAD_REACTORS
330
87B40
102
}
330
87B40
100
AcDbXrecord
280
     1
102
DISPLAYNAME
  1
Metric50
102
FLAGS
 90
        0
  0
XRECORD
  5
97733
102
{ACAD_REACTORS
330
4A37D
102
}
330
4A37D
100
AcDbXrecord
280
     1
102
MATERIAL
148
0.0
149
0.0
149
0.0
 93
        0
 94
      127
282
     0
 72
     0
 77
     0
171
     0
175
     0
179
     0
273
     0
  0
XRECORD
  5
97734
102
{ACAD_REACTORS
330
4A375
102
}
330
4A375
100
AcDbXrecord
280
     1
102
MATERIAL
148
0.0
149
0.0
149
0.0
 93
        0
 94
      127
282
     0
 72
     0
 77
     0
171
     0
175
     0
179
     0
273
     0
  0
XRECORD
  5
97735
102
{ACAD_REACTORS
330
4A385
102
}
330
4A385
100
AcDbXrecord
280
     1
102
MATERIAL
148
0.0
149
0.0
149
0.0
 93
        0
 94
      127
282
     0
 72
     0
 77
     0
171
     0
175
     0
179
     0
273
     0
  0
XRECORD
  5
97736
102
{ACAD_REACTORS
330
8C353
102
}
330
8C353
100
AcDbXrecord
280
     1
102
ACAD_ROUNDTRIP_2010_MLEADER_STYLE
  0
XRECORD
  5
87B3F
102
{ACAD_REACTORS
330
87B3E
102
}
330
87B3E
100
AcDbXrecord
280
     1
102
DISPLAYNAME
  1
Metric50
102
FLAGS
 90
        0
  0
CELLSTYLEMAP
  5
97738
102
{ACAD_REACTORS
330
4CD9A
102
}
330
4CD9A
100
AcDbCellStyleMap
 90
        3
300
CELLSTYLE
  1
TABLEFORMAT_BEGIN
 90
        5
170
     1
 91
        0
 92
    32768
 62
   257
 93
        1
300
CONTENTFORMAT
  1
CONTENTFORMAT_BEGIN
 90
        0
 91
        0
 92
        4
 93
        0
300

 40
0.0
140
1.0
 94
        5
 62
     0
340
11
144
6.0
309
CONTENTFORMAT_END
171
     1
301
MARGIN
  1
CELLMARGIN_BEGIN
 40
1.5
 40
1.5
 40
1.5
 40
1.5
 40
0.18
 40
0.18
309
CELLMARGIN_END
 94
        6
 95
        1
302
GRIDFORMAT
  1
GRIDFORMAT_BEGIN
 90
        0
 91
        1
 62
     0
 92
       -2
340
0
 93
        0
 40
0.045
309
GRIDFORMAT_END
 95
        2
302
GRIDFORMAT
  1
GRIDFORMAT_BEGIN
 90
        0
 91
        1
 62
     0
 92
       -2
340
0
 93
        0
 40
0.045
309
GRIDFORMAT_END
 95
        4
302
GRIDFORMAT
  1
GRIDFORMAT_BEGIN
 90
        0
 91
        1
 62
     0
 92
       -2
340
0
 93
        0
 40
0.045
309
GRIDFORMAT_END
 95
        8
302
GRIDFORMAT
  1
GRIDFORMAT_BEGIN
 90
        0
 91
        1
 62
     0
 92
       -2
340
0
 93
        0
 40
0.045
309
GRIDFORMAT_END
 95
       16
302
GRIDFORMAT
  1
GRIDFORMAT_BEGIN
 90
        0
 91
        1
 62
     0
 92
       -2
340
0
 93
        0
 40
0.045
309
GRIDFORMAT_END
 95
       32
302
GRIDFORMAT
  1
GRIDFORMAT_BEGIN
 90
        0
 91
        1
 62
     0
 92
       -2
340
0
 93
        0
 40
0.045
309
GRIDFORMAT_END
309
TABLEFORMAT_END
  1
CELLSTYLE_BEGIN
 90
        1
 91
        1
300
_TITLE
309
CELLSTYLE_END
300
CELLSTYLE
  1
TABLEFORMAT_BEGIN
 90
        5
170
     1
 91
        0
 92
        0
 62
   257
 93
        1
300
CONTENTFORMAT
  1
CONTENTFORMAT_BEGIN
 90
        0
 91
        0
 92
        4
 93
        0
300

 40
0.0
140
1.0
 94
        5
 62
     0
340
11
144
4.5
309
CONTENTFORMAT_END
171
     1
301
MARGIN
  1
CELLMARGIN_BEGIN
 40
1.5
 40
1.5
 40
1.5
 40
1.5
 40
0.18
 40
0.18
309
CELLMARGIN_END
 94
        6
 95
        1
302
GRIDFORMAT
  1
GRIDFORMAT_BEGIN
 90
        0
 91
        1
 62
     0
 92
       -2
340
0
 93
        0
 40
0.045
309
GRIDFORMAT_END
 95
        2
302
GRIDFORMAT
  1
GRIDFORMAT_BEGIN
 90
        0
 91
        1
 62
     0
 92
       -2
340
0
 93
        0
 40
0.045
309
GRIDFORMAT_END
 95
        4
302
GRIDFORMAT
  1
GRIDFORMAT_BEGIN
 90
        0
 91
        1
 62
     0
 92
       -2
340
0
 93
        0
 40
0.045
309
GRIDFORMAT_END
 95
        8
302
GRIDFORMAT
  1
GRIDFORMAT_BEGIN
 90
        0
 91
        1
 62
     0
 92
       -2
340
0
 93
        0
 40
0.045
309
GRIDFORMAT_END
 95
       16
302
GRIDFORMAT
  1
GRIDFORMAT_BEGIN
 90
        0
 91
        1
 62
     0
 92
       -2
340
0
 93
        0
 40
0.045
309
GRIDFORMAT_END
 95
       32
302
GRIDFORMAT
  1
GRIDFORMAT_BEGIN
 90
        0
 91
        1
 62
     0
 92
       -2
340
0
 93
        0
 40
0.045
309
GRIDFORMAT_END
309
TABLEFORMAT_END
  1
CELLSTYLE_BEGIN
 90
        2
 91
        1
300
_HEADER
309
CELLSTYLE_END
300
CELLSTYLE
  1
TABLEFORMAT_BEGIN
 90
        5
170
     1
 91
        0
 92
        0
 62
   257
 93
        1
300
CONTENTFORMAT
  1
CONTENTFORMAT_BEGIN
 90
        0
 91
        0
 92
        4
 93
        0
300

 40
0.0
140
1.0
 94
        2
 62
     0
340
11
144
4.5
309
CONTENTFORMAT_END
171
     1
301
MARGIN
  1
CELLMARGIN_BEGIN
 40
1.5
 40
1.5
 40
1.5
 40
1.5
 40
0.18
 40
0.18
309
CELLMARGIN_END
 94
        6
 95
        1
302
GRIDFORMAT
  1
GRIDFORMAT_BEGIN
 90
        0
 91
        1
 62
     0
 92
       -2
340
0
 93
        0
 40
0.045
309
GRIDFORMAT_END
 95
        2
302
GRIDFORMAT
  1
GRIDFORMAT_BEGIN
 90
        0
 91
        1
 62
     0
 92
       -2
340
0
 93
        0
 40
0.045
309
GRIDFORMAT_END
 95
        4
302
GRIDFORMAT
  1
GRIDFORMAT_BEGIN
 90
        0
 91
        1
 62
     0
 92
       -2
340
0
 93
        0
 40
0.045
309
GRIDFORMAT_END
 95
        8
302
GRIDFORMAT
  1
GRIDFORMAT_BEGIN
 90
        0
 91
        1
 62
     0
 92
       -2
340
0
 93
        0
 40
0.045
309
GRIDFORMAT_END
 95
       16
302
GRIDFORMAT
  1
GRIDFORMAT_BEGIN
 90
        0
 91
        1
 62
     0
 92
       -2
340
0
 93
        0
 40
0.045
309
GRIDFORMAT_END
 95
       32
302
GRIDFORMAT
  1
GRIDFORMAT_BEGIN
 90
        0
 91
        1
 62
     0
 92
       -2
340
0
 93
        0
 40
0.045
309
GRIDFORMAT_END
309
TABLEFORMAT_END
  1
CELLSTYLE_BEGIN
 90
        3
 91
        2
300
_DATA
309
CELLSTYLE_END
  0
XRECORD
  5
97737
102
{ACAD_REACTORS
330
4CD9A
102
}
330
4CD9A
100
AcDbXrecord
280
     1
102
ACAD_ROUNDTRIP_PRE2007_TABLESTYLE
 90
        4
 91
        0
  1

 92
        4
 93
        0
  2

 94
        4
 95
        0
  3

  0
XRECORD
  5
97739
102
{ACAD_REACTORS
330
87B18
102
}
330
87B18
100
AcDbXrecord
280
     1
102
RTVSPropertyOp0
 70
     1
102
RTVSPropertyOp1
 70
     1
102
RTVSPropertyOp2
 70
     1
102
RTVSPropertyOp3
 70
     1
102
RTVSPropertyOp4
 70
     1
102
RTVSPropertyOp5
 70
     1
102
RTVSPropertyOp6
 70
     1
102
RTVSPropertyOp7
 70
     1
102
RTVSPropertyOp8
 70
     1
102
RTVSPropertyOp9
 70
     1
102
RTVSPropertyOp10
 70
     1
102
RTVSPropertyOp11
 70
     1
102
RTVSPropertyOp12
 70
     1
102
RTVSPropertyOp13
 70
     1
102
RTVSPropertyOp14
 70
     1
102
RTVSPropertyOp15
 70
     1
102
RTVSPropertyOp16
 70
     1
102
RTVSPropertyOp17
 70
     1
102
RTVSPropertyOp18
 70
     1
102
RTVSPropertyOp19
 70
     1
102
RTVSPropertyOp20
 70
     1
102
RTVSPropertyOp21
 70
     1
102
RTVSPropertyOp22
 70
     1
102
RTVSPropertyOp23
 70
     1
102
RTVSPropertyOp24
 70
     1
102
RTVSPropertyOp25
 70
     1
102
RTVSPropertyOp26
 70
     1
102
RTVSPropertyOp27
 70
     1
102
RTVSPropertyOp28
 70
     1
102
RTVSPropertyOp29
 70
     1
102
RTVSPropertyOp30
 70
     1
102
RTVSPropertyOp31
 70
     1
102
RTVSPropertyOp32
 70
     1
102
RTVSPropertyOp33
 70
     1
102
RTVSPropertyOp34
 70
     1
102
RTVSPropertyOp35
 70
     1
102
RTVSPropertyOp36
 70
     1
102
RTVSPropertyOp37
 70
     1
102
RTVSPropertyOp38
 70
     1
102
RTVSPropertyOp39
 70
     1
102
RTVSPropertyOp40
 70
     1
102
RTVSPropertyOp41
 70
     1
102
RTVSPropertyOp42
 70
     1
102
RTVSPropertyOp43
 70
     1
102
RTVSPropertyOp44
 70
     1
102
RTVSPropertyOp45
 70
     1
102
RTVSPropertyOp46
 70
     1
102
RTVSPropertyOp47
 70
     1
102
RTVSPropertyOp48
 70
     1
102
RTVSPropertyOp49
 70
     1
102
RTVSPropertyOp50
 70
     1
102
RTVSPropertyOp51
 70
     0
102
RTVSPropertyOp52
 70
     0
102
RTVSPropertyOp53
 70
     1
102
RTVSPropertyOp54
 70
     1
102
RTVSPropertyOp55
 70
     1
102
RTVSPropertyOp56
 70
     1
102
RTVSPropertyOp57
 70
     1
102
RTVSPost2010Prop28
280
     1
102
RTVSPost2010PropOp28
 70
     1
102
RTVSPost2010Prop29
280
     1
102
RTVSPost2010PropOp29
 70
     1
102
RTVSPost2010Prop30
280
     0
102
RTVSPost2010PropOp30
 70
     1
102
RTVSPost2010Prop31
280
     0
102
RTVSPost2010PropOp31
 70
     1
102
RTVSPost2010Prop32
280
     0
102
RTVSPost2010PropOp32
 70
     1
102
RTVSPost2010Prop33
280
     0
102
RTVSPost2010PropOp33
 70
     1
102
RTVSPost2010Prop34
280
     0
102
RTVSPost2010PropOp34
 70
     1
102
RTVSPost2010Prop35
280
     0
102
RTVSPost2010PropOp35
 70
     1
102
RTVSPost2010Prop36
280
     0
102
RTVSPost2010PropOp36
 70
     1
102
RTVSPost2010Prop37
 90
       50
102
RTVSPost2010PropOp37
 70
     1
102
RTVSPost2010Prop38
140
0.0
102
RTVSPost2010PropOp38
 70
     1
102
RTVSPost2010Prop39
140
1.0
102
RTVSPost2010PropOp39
 70
     1
102
RTVSPost2010Prop40
 90
        0
102
RTVSPost2010PropOp40
 70
     1
102
RTVSPost2010Prop41ColorIndex
 90
       18
102
RTVSPost2010Prop41ColorRGB
 90
        0
102
RTVSPost2010PropOp41
 70
     1
102
RTVSPost2010Prop42
 90
       50
102
RTVSPost2010PropOp42
 70
     1
102
RTVSPost2010Prop43
 90
        3
102
RTVSPost2010PropOp43
 70
     1
102
RTVSPost2010Prop44ColorIndex
 90
        5
102
RTVSPost2010Prop44ColorRGB
 90
      255
102
RTVSPost2010PropOp44
 70
     1
102
RTVSPost2010Prop45
280
     0
102
RTVSPost2010PropOp45
 70
     1
102
RTVSPost2010Prop46
 90
       50
102
RTVSPost2010PropOp46
 70
     1
102
RTVSPost2010Prop47
 90
       50
102
RTVSPost2010PropOp47
 70
     1
102
RTVSPost2010Prop48
 90
       50
102
RTVSPost2010PropOp48
 70
     1
102
RTVSPost2010Prop49
280
     0
102
RTVSPost2010PropOp49
 70
     1
102
RTVSPost2010Prop50
 90
       50
102
RTVSPost2010PropOp50
 70
     1
102
RTVSPost2010Prop51ColorIndex
 90
      256
102
RTVSPost2010Prop51ColorRGB
 90
-16777216
102
RTVSPost2010PropOp51
 70
     0
102
RTVSPost2010Prop52
140
1.0
102
RTVSPost2010PropOp52
 70
     0
102
RTVSPost2010Prop53
 90
        2
102
RTVSPost2010PropOp53
 70
     1
102
RTVSPost2010Prop54
  1
strokes_ogs.tif
102
RTVSPost2010PropOp54
 70
     1
102
RTVSPost2010Prop55
280
     0
102
RTVSPost2010PropOp55
 70
     1
102
RTVSPost2010Prop56
140
1.0
102
RTVSPost2010PropOp56
 70
     1
102
RTVSPost2010Prop57
140
1.0
102
RTVSPost2010PropOp57
 70
     1
  0
XRECORD
  5
9773A
102
{ACAD_REACTORS
330
87B16
102
}
330
87B16
100
AcDbXrecord
280
     1
102
RTVSPropertyOp0
 70
     1
102
RTVSPropertyOp1
 70
     1
102
RTVSPropertyOp2
 70
     1
102
RTVSPropertyOp3
 70
     1
102
RTVSPropertyOp4
 70
     1
102
RTVSPropertyOp5
 70
     1
102
RTVSPropertyOp6
 70
     1
102
RTVSPropertyOp7
 70
     1
102
RTVSPropertyOp8
 70
     1
102
RTVSPropertyOp9
 70
     1
102
RTVSPropertyOp10
 70
     1
102
RTVSPropertyOp11
 70
     1
102
RTVSPropertyOp12
 70
     1
102
RTVSPropertyOp13
 70
     1
102
RTVSPropertyOp14
 70
     1
102
RTVSPropertyOp15
 70
     1
102
RTVSPropertyOp16
 70
     1
102
RTVSPropertyOp17
 70
     1
102
RTVSPropertyOp18
 70
     1
102
RTVSPropertyOp19
 70
     1
102
RTVSPropertyOp20
 70
     1
102
RTVSPropertyOp21
 70
     1
102
RTVSPropertyOp22
 70
     1
102
RTVSPropertyOp23
 70
     1
102
RTVSPropertyOp24
 70
     1
102
RTVSPropertyOp25
 70
     1
102
RTVSPropertyOp26
 70
     1
102
RTVSPropertyOp27
 70
     1
102
RTVSPropertyOp28
 70
     1
102
RTVSPropertyOp29
 70
     1
102
RTVSPropertyOp30
 70
     1
102
RTVSPropertyOp31
 70
     1
102
RTVSPropertyOp32
 70
     1
102
RTVSPropertyOp33
 70
     1
102
RTVSPropertyOp34
 70
     1
102
RTVSPropertyOp35
 70
     1
102
RTVSPropertyOp36
 70
     1
102
RTVSPropertyOp37
 70
     1
102
RTVSPropertyOp38
 70
     1
102
RTVSPropertyOp39
 70
     1
102
RTVSPropertyOp40
 70
     1
102
RTVSPropertyOp41
 70
     1
102
RTVSPropertyOp42
 70
     1
102
RTVSPropertyOp43
 70
     1
102
RTVSPropertyOp44
 70
     1
102
RTVSPropertyOp45
 70
     1
102
RTVSPropertyOp46
 70
     1
102
RTVSPropertyOp47
 70
     1
102
RTVSPropertyOp48
 70
     1
102
RTVSPropertyOp49
 70
     1
102
RTVSPropertyOp50
 70
     1
102
RTVSPropertyOp51
 70
     0
102
RTVSPropertyOp52
 70
     0
102
RTVSPropertyOp53
 70
     1
102
RTVSPropertyOp54
 70
     1
102
RTVSPropertyOp55
 70
     1
102
RTVSPropertyOp56
 70
     1
102
RTVSPropertyOp57
 70
     1
102
RTVSPost2010Prop28
280
     0
102
RTVSPost2010PropOp28
 70
     1
102
RTVSPost2010Prop29
280
     1
102
RTVSPost2010PropOp29
 70
     1
102
RTVSPost2010Prop30
280
     1
102
RTVSPost2010PropOp30
 70
     1
102
RTVSPost2010Prop31
280
     0
102
RTVSPost2010PropOp31
 70
     1
102
RTVSPost2010Prop32
280
     0
102
RTVSPost2010PropOp32
 70
     1
102
RTVSPost2010Prop33
280
     0
102
RTVSPost2010PropOp33
 70
     1
102
RTVSPost2010Prop34
280
     0
102
RTVSPost2010PropOp34
 70
     1
102
RTVSPost2010Prop35
280
     0
102
RTVSPost2010PropOp35
 70
     1
102
RTVSPost2010Prop36
280
     0
102
RTVSPost2010PropOp36
 70
     1
102
RTVSPost2010Prop37
 90
       50
102
RTVSPost2010PropOp37
 70
     1
102
RTVSPost2010Prop38
140
0.0
102
RTVSPost2010PropOp38
 70
     1
102
RTVSPost2010Prop39
140
1.0
102
RTVSPost2010PropOp39
 70
     1
102
RTVSPost2010Prop40
 90
        0
102
RTVSPost2010PropOp40
 70
     1
102
RTVSPost2010Prop41ColorIndex
 90
       18
102
RTVSPost2010Prop41ColorRGB
 90
        0
102
RTVSPost2010PropOp41
 70
     1
102
RTVSPost2010Prop42
 90
       50
102
RTVSPost2010PropOp42
 70
     1
102
RTVSPost2010Prop43
 90
        3
102
RTVSPost2010PropOp43
 70
     1
102
RTVSPost2010Prop44ColorIndex
 90
        5
102
RTVSPost2010Prop44ColorRGB
 90
      255
102
RTVSPost2010PropOp44
 70
     1
102
RTVSPost2010Prop45
280
     0
102
RTVSPost2010PropOp45
 70
     1
102
RTVSPost2010Prop46
 90
       50
102
RTVSPost2010PropOp46
 70
     1
102
RTVSPost2010Prop47
 90
       50
102
RTVSPost2010PropOp47
 70
     1
102
RTVSPost2010Prop48
 90
       50
102
RTVSPost2010PropOp48
 70
     1
102
RTVSPost2010Prop49
280
     0
102
RTVSPost2010PropOp49
 70
     1
102
RTVSPost2010Prop50
 90
       50
102
RTVSPost2010PropOp50
 70
     1
102
RTVSPost2010Prop51ColorIndex
 90
      256
102
RTVSPost2010Prop51ColorRGB
 90
-16777216
102
RTVSPost2010PropOp51
 70
     0
102
RTVSPost2010Prop52
140
1.0
102
RTVSPost2010PropOp52
 70
     0
102
RTVSPost2010Prop53
 90
        2
102
RTVSPost2010PropOp53
 70
     1
102
RTVSPost2010Prop54
  1
strokes_ogs.tif
102
RTVSPost2010PropOp54
 70
     1
102
RTVSPost2010Prop55
280
     0
102
RTVSPost2010PropOp55
 70
     1
102
RTVSPost2010Prop56
140
1.0
102
RTVSPost2010PropOp56
 70
     1
102
RTVSPost2010Prop57
140
1.0
102
RTVSPost2010PropOp57
 70
     1
  0
XRECORD
  5
9773B
102
{ACAD_REACTORS
330
87B24
102
}
330
87B24
100
AcDbXrecord
280
     1
102
RTVSPropertyOp0
 70
     1
102
RTVSPropertyOp1
 70
     1
102
RTVSPropertyOp2
 70
     1
102
RTVSPropertyOp3
 70
     1
102
RTVSPropertyOp4
 70
     1
102
RTVSPropertyOp5
 70
     1
102
RTVSPropertyOp6
 70
     1
102
RTVSPropertyOp7
 70
     1
102
RTVSPropertyOp8
 70
     1
102
RTVSPropertyOp9
 70
     1
102
RTVSPropertyOp10
 70
     1
102
RTVSPropertyOp11
 70
     1
102
RTVSPropertyOp12
 70
     1
102
RTVSPropertyOp13
 70
     1
102
RTVSPropertyOp14
 70
     1
102
RTVSPropertyOp15
 70
     1
102
RTVSPropertyOp16
 70
     1
102
RTVSPropertyOp17
 70
     1
102
RTVSPropertyOp18
 70
     1
102
RTVSPropertyOp19
 70
     1
102
RTVSPropertyOp20
 70
     1
102
RTVSPropertyOp21
 70
     1
102
RTVSPropertyOp22
 70
     1
102
RTVSPropertyOp23
 70
     1
102
RTVSPropertyOp24
 70
     1
102
RTVSPropertyOp25
 70
     1
102
RTVSPropertyOp26
 70
     1
102
RTVSPropertyOp27
 70
     1
102
RTVSPropertyOp28
 70
     1
102
RTVSPropertyOp29
 70
     1
102
RTVSPropertyOp30
 70
     1
102
RTVSPropertyOp31
 70
     1
102
RTVSPropertyOp32
 70
     1
102
RTVSPropertyOp33
 70
     1
102
RTVSPropertyOp34
 70
     1
102
RTVSPropertyOp35
 70
     1
102
RTVSPropertyOp36
 70
     1
102
RTVSPropertyOp37
 70
     1
102
RTVSPropertyOp38
 70
     1
102
RTVSPropertyOp39
 70
     1
102
RTVSPropertyOp40
 70
     1
102
RTVSPropertyOp41
 70
     1
102
RTVSPropertyOp42
 70
     1
102
RTVSPropertyOp43
 70
     1
102
RTVSPropertyOp44
 70
     1
102
RTVSPropertyOp45
 70
     1
102
RTVSPropertyOp46
 70
     1
102
RTVSPropertyOp47
 70
     1
102
RTVSPropertyOp48
 70
     1
102
RTVSPropertyOp49
 70
     1
102
RTVSPropertyOp50
 70
     1
102
RTVSPropertyOp51
 70
     0
102
RTVSPropertyOp52
 70
     0
102
RTVSPropertyOp53
 70
     1
102
RTVSPropertyOp54
 70
     1
102
RTVSPropertyOp55
 70
     1
102
RTVSPropertyOp56
 70
     1
102
RTVSPropertyOp57
 70
     1
102
RTVSPost2010Prop28
280
     0
102
RTVSPost2010PropOp28
 70
     1
102
RTVSPost2010Prop29
280
     1
102
RTVSPost2010PropOp29
 70
     1
102
RTVSPost2010Prop30
280
     1
102
RTVSPost2010PropOp30
 70
     1
102
RTVSPost2010Prop31
280
     0
102
RTVSPost2010PropOp31
 70
     1
102
RTVSPost2010Prop32
280
     0
102
RTVSPost2010PropOp32
 70
     1
102
RTVSPost2010Prop33
280
     0
102
RTVSPost2010PropOp33
 70
     1
102
RTVSPost2010Prop34
280
     0
102
RTVSPost2010PropOp34
 70
     1
102
RTVSPost2010Prop35
280
     0
102
RTVSPost2010PropOp35
 70
     1
102
RTVSPost2010Prop36
280
     0
102
RTVSPost2010PropOp36
 70
     1
102
RTVSPost2010Prop37
 90
       50
102
RTVSPost2010PropOp37
 70
     1
102
RTVSPost2010Prop38
140
0.0
102
RTVSPost2010PropOp38
 70
     1
102
RTVSPost2010Prop39
140
1.0
102
RTVSPost2010PropOp39
 70
     1
102
RTVSPost2010Prop40
 90
        0
102
RTVSPost2010PropOp40
 70
     1
102
RTVSPost2010Prop41ColorIndex
 90
       18
102
RTVSPost2010Prop41ColorRGB
 90
        0
102
RTVSPost2010PropOp41
 70
     1
102
RTVSPost2010Prop42
 90
       50
102
RTVSPost2010PropOp42
 70
     1
102
RTVSPost2010Prop43
 90
        3
102
RTVSPost2010PropOp43
 70
     1
102
RTVSPost2010Prop44ColorIndex
 90
        5
102
RTVSPost2010Prop44ColorRGB
 90
      255
102
RTVSPost2010PropOp44
 70
     1
102
RTVSPost2010Prop45
280
     0
102
RTVSPost2010PropOp45
 70
     1
102
RTVSPost2010Prop46
 90
       50
102
RTVSPost2010PropOp46
 70
     1
102
RTVSPost2010Prop47
 90
       50
102
RTVSPost2010PropOp47
 70
     1
102
RTVSPost2010Prop48
 90
       50
102
RTVSPost2010PropOp48
 70
     1
102
RTVSPost2010Prop49
280
     0
102
RTVSPost2010PropOp49
 70
     1
102
RTVSPost2010Prop50
 90
       50
102
RTVSPost2010PropOp50
 70
     1
102
RTVSPost2010Prop51ColorIndex
 90
      256
102
RTVSPost2010Prop51ColorRGB
 90
-16777216
102
RTVSPost2010PropOp51
 70
     0
102
RTVSPost2010Prop52
140
1.0
102
RTVSPost2010PropOp52
 70
     0
102
RTVSPost2010Prop53
 90
        2
102
RTVSPost2010PropOp53
 70
     1
102
RTVSPost2010Prop54
  1
strokes_ogs.tif
102
RTVSPost2010PropOp54
 70
     1
102
RTVSPost2010Prop55
280
     0
102
RTVSPost2010PropOp55
 70
     1
102
RTVSPost2010Prop56
140
1.0
102
RTVSPost2010PropOp56
 70
     1
102
RTVSPost2010Prop57
140
1.0
102
RTVSPost2010PropOp57
 70
     1
  0
XRECORD
  5
9773C
102
{ACAD_REACTORS
330
87B2C
102
}
330
87B2C
100
AcDbXrecord
280
     1
102
RTVSPropertyOp0
 70
     1
102
RTVSPropertyOp1
 70
     1
102
RTVSPropertyOp2
 70
     1
102
RTVSPropertyOp3
 70
     1
102
RTVSPropertyOp4
 70
     1
102
RTVSPropertyOp5
 70
     1
102
RTVSPropertyOp6
 70
     1
102
RTVSPropertyOp7
 70
     1
102
RTVSPropertyOp8
 70
     1
102
RTVSPropertyOp9
 70
     1
102
RTVSPropertyOp10
 70
     1
102
RTVSPropertyOp11
 70
     1
102
RTVSPropertyOp12
 70
     1
102
RTVSPropertyOp13
 70
     1
102
RTVSPropertyOp14
 70
     1
102
RTVSPropertyOp15
 70
     1
102
RTVSPropertyOp16
 70
     1
102
RTVSPropertyOp17
 70
     1
102
RTVSPropertyOp18
 70
     1
102
RTVSPropertyOp19
 70
     1
102
RTVSPropertyOp20
 70
     1
102
RTVSPropertyOp21
 70
     1
102
RTVSPropertyOp22
 70
     1
102
RTVSPropertyOp23
 70
     1
102
RTVSPropertyOp24
 70
     1
102
RTVSPropertyOp25
 70
     1
102
RTVSPropertyOp26
 70
     1
102
RTVSPropertyOp27
 70
     1
102
RTVSPropertyOp28
 70
     1
102
RTVSPropertyOp29
 70
     1
102
RTVSPropertyOp30
 70
     1
102
RTVSPropertyOp31
 70
     1
102
RTVSPropertyOp32
 70
     1
102
RTVSPropertyOp33
 70
     1
102
RTVSPropertyOp34
 70
     1
102
RTVSPropertyOp35
 70
     1
102
RTVSPropertyOp36
 70
     1
102
RTVSPropertyOp37
 70
     1
102
RTVSPropertyOp38
 70
     1
102
RTVSPropertyOp39
 70
     1
102
RTVSPropertyOp40
 70
     1
102
RTVSPropertyOp41
 70
     1
102
RTVSPropertyOp42
 70
     1
102
RTVSPropertyOp43
 70
     1
102
RTVSPropertyOp44
 70
     1
102
RTVSPropertyOp45
 70
     1
102
RTVSPropertyOp46
 70
     1
102
RTVSPropertyOp47
 70
     1
102
RTVSPropertyOp48
 70
     1
102
RTVSPropertyOp49
 70
     1
102
RTVSPropertyOp50
 70
     1
102
RTVSPropertyOp51
 70
     0
102
RTVSPropertyOp52
 70
     0
102
RTVSPropertyOp53
 70
     1
102
RTVSPropertyOp54
 70
     1
102
RTVSPropertyOp55
 70
     1
102
RTVSPropertyOp56
 70
     1
102
RTVSPropertyOp57
 70
     1
102
RTVSPost2010Prop28
280
     0
102
RTVSPost2010PropOp28
 70
     1
102
RTVSPost2010Prop29
280
     1
102
RTVSPost2010PropOp29
 70
     1
102
RTVSPost2010Prop30
280
     1
102
RTVSPost2010PropOp30
 70
     1
102
RTVSPost2010Prop31
280
     0
102
RTVSPost2010PropOp31
 70
     1
102
RTVSPost2010Prop32
280
     0
102
RTVSPost2010PropOp32
 70
     1
102
RTVSPost2010Prop33
280
     0
102
RTVSPost2010PropOp33
 70
     1
102
RTVSPost2010Prop34
280
     0
102
RTVSPost2010PropOp34
 70
     1
102
RTVSPost2010Prop35
280
     0
102
RTVSPost2010PropOp35
 70
     1
102
RTVSPost2010Prop36
280
     0
102
RTVSPost2010PropOp36
 70
     1
102
RTVSPost2010Prop37
 90
       50
102
RTVSPost2010PropOp37
 70
     1
102
RTVSPost2010Prop38
140
0.0
102
RTVSPost2010PropOp38
 70
     1
102
RTVSPost2010Prop39
140
1.0
102
RTVSPost2010PropOp39
 70
     1
102
RTVSPost2010Prop40
 90
        0
102
RTVSPost2010PropOp40
 70
     1
102
RTVSPost2010Prop41ColorIndex
 90
       18
102
RTVSPost2010Prop41ColorRGB
 90
        0
102
RTVSPost2010PropOp41
 70
     1
102
RTVSPost2010Prop42
 90
       50
102
RTVSPost2010PropOp42
 70
     1
102
RTVSPost2010Prop43
 90
        3
102
RTVSPost2010PropOp43
 70
     1
102
RTVSPost2010Prop44ColorIndex
 90
        5
102
RTVSPost2010Prop44ColorRGB
 90
      255
102
RTVSPost2010PropOp44
 70
     1
102
RTVSPost2010Prop45
280
     0
102
RTVSPost2010PropOp45
 70
     1
102
RTVSPost2010Prop46
 90
       50
102
RTVSPost2010PropOp46
 70
     1
102
RTVSPost2010Prop47
 90
       50
102
RTVSPost2010PropOp47
 70
     1
102
RTVSPost2010Prop48
 90
       50
102
RTVSPost2010PropOp48
 70
     1
102
RTVSPost2010Prop49
280
     0
102
RTVSPost2010PropOp49
 70
     1
102
RTVSPost2010Prop50
 90
       50
102
RTVSPost2010PropOp50
 70
     1
102
RTVSPost2010Prop51ColorIndex
 90
      256
102
RTVSPost2010Prop51ColorRGB
 90
-16777216
102
RTVSPost2010PropOp51
 70
     0
102
RTVSPost2010Prop52
140
1.0
102
RTVSPost2010PropOp52
 70
     0
102
RTVSPost2010Prop53
 90
        2
102
RTVSPost2010PropOp53
 70
     1
102
RTVSPost2010Prop54
  1
strokes_ogs.tif
102
RTVSPost2010PropOp54
 70
     1
102
RTVSPost2010Prop55
280
     0
102
RTVSPost2010PropOp55
 70
     1
102
RTVSPost2010Prop56
140
1.0
102
RTVSPost2010PropOp56
 70
     1
102
RTVSPost2010Prop57
140
1.0
102
RTVSPost2010PropOp57
 70
     1
  0
XRECORD
  5
9773D
102
{ACAD_REACTORS
330
87B1E
102
}
330
87B1E
100
AcDbXrecord
280
     1
102
RTVSPropertyOp0
 70
     1
102
RTVSPropertyOp1
 70
     1
102
RTVSPropertyOp2
 70
     1
102
RTVSPropertyOp3
 70
     1
102
RTVSPropertyOp4
 70
     1
102
RTVSPropertyOp5
 70
     1
102
RTVSPropertyOp6
 70
     1
102
RTVSPropertyOp7
 70
     1
102
RTVSPropertyOp8
 70
     1
102
RTVSPropertyOp9
 70
     1
102
RTVSPropertyOp10
 70
     1
102
RTVSPropertyOp11
 70
     1
102
RTVSPropertyOp12
 70
     1
102
RTVSPropertyOp13
 70
     1
102
RTVSPropertyOp14
 70
     1
102
RTVSPropertyOp15
 70
     1
102
RTVSPropertyOp16
 70
     1
102
RTVSPropertyOp17
 70
     1
102
RTVSPropertyOp18
 70
     1
102
RTVSPropertyOp19
 70
     1
102
RTVSPropertyOp20
 70
     1
102
RTVSPropertyOp21
 70
     1
102
RTVSPropertyOp22
 70
     1
102
RTVSPropertyOp23
 70
     1
102
RTVSPropertyOp24
 70
     1
102
RTVSPropertyOp25
 70
     1
102
RTVSPropertyOp26
 70
     1
102
RTVSPropertyOp27
 70
     1
102
RTVSPropertyOp28
 70
     1
102
RTVSPropertyOp29
 70
     1
102
RTVSPropertyOp30
 70
     1
102
RTVSPropertyOp31
 70
     1
102
RTVSPropertyOp32
 70
     1
102
RTVSPropertyOp33
 70
     1
102
RTVSPropertyOp34
 70
     1
102
RTVSPropertyOp35
 70
     1
102
RTVSPropertyOp36
 70
     1
102
RTVSPropertyOp37
 70
     1
102
RTVSPropertyOp38
 70
     1
102
RTVSPropertyOp39
 70
     1
102
RTVSPropertyOp40
 70
     1
102
RTVSPropertyOp41
 70
     1
102
RTVSPropertyOp42
 70
     1
102
RTVSPropertyOp43
 70
     1
102
RTVSPropertyOp44
 70
     1
102
RTVSPropertyOp45
 70
     1
102
RTVSPropertyOp46
 70
     1
102
RTVSPropertyOp47
 70
     1
102
RTVSPropertyOp48
 70
     1
102
RTVSPropertyOp49
 70
     1
102
RTVSPropertyOp50
 70
     1
102
RTVSPropertyOp51
 70
     0
102
RTVSPropertyOp52
 70
     0
102
RTVSPropertyOp53
 70
     1
102
RTVSPropertyOp54
 70
     1
102
RTVSPropertyOp55
 70
     1
102
RTVSPropertyOp56
 70
     1
102
RTVSPropertyOp57
 70
     1
102
RTVSPost2010Prop28
280
     0
102
RTVSPost2010PropOp28
 70
     1
102
RTVSPost2010Prop29
280
     1
102
RTVSPost2010PropOp29
 70
     1
102
RTVSPost2010Prop30
280
     1
102
RTVSPost2010PropOp30
 70
     1
102
RTVSPost2010Prop31
280
     0
102
RTVSPost2010PropOp31
 70
     1
102
RTVSPost2010Prop32
280
     0
102
RTVSPost2010PropOp32
 70
     1
102
RTVSPost2010Prop33
280
     0
102
RTVSPost2010PropOp33
 70
     1
102
RTVSPost2010Prop34
280
     0
102
RTVSPost2010PropOp34
 70
     1
102
RTVSPost2010Prop35
280
     0
102
RTVSPost2010PropOp35
 70
     1
102
RTVSPost2010Prop36
280
     0
102
RTVSPost2010PropOp36
 70
     1
102
RTVSPost2010Prop37
 90
       50
102
RTVSPost2010PropOp37
 70
     1
102
RTVSPost2010Prop38
140
0.0
102
RTVSPost2010PropOp38
 70
     1
102
RTVSPost2010Prop39
140
1.0
102
RTVSPost2010PropOp39
 70
     1
102
RTVSPost2010Prop40
 90
        0
102
RTVSPost2010PropOp40
 70
     1
102
RTVSPost2010Prop41ColorIndex
 90
       18
102
RTVSPost2010Prop41ColorRGB
 90
        0
102
RTVSPost2010PropOp41
 70
     1
102
RTVSPost2010Prop42
 90
       50
102
RTVSPost2010PropOp42
 70
     1
102
RTVSPost2010Prop43
 90
        3
102
RTVSPost2010PropOp43
 70
     1
102
RTVSPost2010Prop44ColorIndex
 90
        5
102
RTVSPost2010Prop44ColorRGB
 90
      255
102
RTVSPost2010PropOp44
 70
     1
102
RTVSPost2010Prop45
280
     0
102
RTVSPost2010PropOp45
 70
     1
102
RTVSPost2010Prop46
 90
       50
102
RTVSPost2010PropOp46
 70
     1
102
RTVSPost2010Prop47
 90
       50
102
RTVSPost2010PropOp47
 70
     1
102
RTVSPost2010Prop48
 90
       50
102
RTVSPost2010PropOp48
 70
     1
102
RTVSPost2010Prop49
280
     0
102
RTVSPost2010PropOp49
 70
     1
102
RTVSPost2010Prop50
 90
       50
102
RTVSPost2010PropOp50
 70
     1
102
RTVSPost2010Prop51ColorIndex
 90
      256
102
RTVSPost2010Prop51ColorRGB
 90
-16777216
102
RTVSPost2010PropOp51
 70
     0
102
RTVSPost2010Prop52
140
1.0
102
RTVSPost2010PropOp52
 70
     0
102
RTVSPost2010Prop53
 90
        2
102
RTVSPost2010PropOp53
 70
     1
102
RTVSPost2010Prop54
  1
strokes_ogs.tif
102
RTVSPost2010PropOp54
 70
     1
102
RTVSPost2010Prop55
280
     0
102
RTVSPost2010PropOp55
 70
     1
102
RTVSPost2010Prop56
140
1.0
102
RTVSPost2010PropOp56
 70
     1
102
RTVSPost2010Prop57
140
1.0
102
RTVSPost2010PropOp57
 70
     1
  0
XRECORD
  5
9773E
102
{ACAD_REACTORS
330
87B22
102
}
330
87B22
100
AcDbXrecord
280
     1
102
RTVSPropertyOp0
 70
     1
102
RTVSPropertyOp1
 70
     1
102
RTVSPropertyOp2
 70
     1
102
RTVSPropertyOp3
 70
     1
102
RTVSPropertyOp4
 70
     1
102
RTVSPropertyOp5
 70
     1
102
RTVSPropertyOp6
 70
     1
102
RTVSPropertyOp7
 70
     1
102
RTVSPropertyOp8
 70
     1
102
RTVSPropertyOp9
 70
     1
102
RTVSPropertyOp10
 70
     1
102
RTVSPropertyOp11
 70
     1
102
RTVSPropertyOp12
 70
     1
102
RTVSPropertyOp13
 70
     1
102
RTVSPropertyOp14
 70
     1
102
RTVSPropertyOp15
 70
     1
102
RTVSPropertyOp16
 70
     1
102
RTVSPropertyOp17
 70
     1
102
RTVSPropertyOp18
 70
     1
102
RTVSPropertyOp19
 70
     1
102
RTVSPropertyOp20
 70
     1
102
RTVSPropertyOp21
 70
     1
102
RTVSPropertyOp22
 70
     1
102
RTVSPropertyOp23
 70
     1
102
RTVSPropertyOp24
 70
     1
102
RTVSPropertyOp25
 70
     1
102
RTVSPropertyOp26
 70
     1
102
RTVSPropertyOp27
 70
     1
102
RTVSPropertyOp28
 70
     1
102
RTVSPropertyOp29
 70
     1
102
RTVSPropertyOp30
 70
     1
102
RTVSPropertyOp31
 70
     1
102
RTVSPropertyOp32
 70
     1
102
RTVSPropertyOp33
 70
     1
102
RTVSPropertyOp34
 70
     1
102
RTVSPropertyOp35
 70
     1
102
RTVSPropertyOp36
 70
     1
102
RTVSPropertyOp37
 70
     1
102
RTVSPropertyOp38
 70
     1
102
RTVSPropertyOp39
 70
     1
102
RTVSPropertyOp40
 70
     1
102
RTVSPropertyOp41
 70
     1
102
RTVSPropertyOp42
 70
     1
102
RTVSPropertyOp43
 70
     1
102
RTVSPropertyOp44
 70
     1
102
RTVSPropertyOp45
 70
     1
102
RTVSPropertyOp46
 70
     1
102
RTVSPropertyOp47
 70
     1
102
RTVSPropertyOp48
 70
     1
102
RTVSPropertyOp49
 70
     1
102
RTVSPropertyOp50
 70
     1
102
RTVSPropertyOp51
 70
     0
102
RTVSPropertyOp52
 70
     0
102
RTVSPropertyOp53
 70
     1
102
RTVSPropertyOp54
 70
     1
102
RTVSPropertyOp55
 70
     1
102
RTVSPropertyOp56
 70
     1
102
RTVSPropertyOp57
 70
     1
102
RTVSPost2010Prop28
280
     0
102
RTVSPost2010PropOp28
 70
     1
102
RTVSPost2010Prop29
280
     1
102
RTVSPost2010PropOp29
 70
     1
102
RTVSPost2010Prop30
280
     1
102
RTVSPost2010PropOp30
 70
     1
102
RTVSPost2010Prop31
280
     0
102
RTVSPost2010PropOp31
 70
     1
102
RTVSPost2010Prop32
280
     0
102
RTVSPost2010PropOp32
 70
     1
102
RTVSPost2010Prop33
280
     0
102
RTVSPost2010PropOp33
 70
     1
102
RTVSPost2010Prop34
280
     0
102
RTVSPost2010PropOp34
 70
     1
102
RTVSPost2010Prop35
280
     0
102
RTVSPost2010PropOp35
 70
     1
102
RTVSPost2010Prop36
280
     0
102
RTVSPost2010PropOp36
 70
     1
102
RTVSPost2010Prop37
 90
       50
102
RTVSPost2010PropOp37
 70
     1
102
RTVSPost2010Prop38
140
0.0
102
RTVSPost2010PropOp38
 70
     1
102
RTVSPost2010Prop39
140
1.0
102
RTVSPost2010PropOp39
 70
     1
102
RTVSPost2010Prop40
 90
        0
102
RTVSPost2010PropOp40
 70
     1
102
RTVSPost2010Prop41ColorIndex
 90
       18
102
RTVSPost2010Prop41ColorRGB
 90
        0
102
RTVSPost2010PropOp41
 70
     1
102
RTVSPost2010Prop42
 90
       50
102
RTVSPost2010PropOp42
 70
     1
102
RTVSPost2010Prop43
 90
        3
102
RTVSPost2010PropOp43
 70
     1
102
RTVSPost2010Prop44ColorIndex
 90
        5
102
RTVSPost2010Prop44ColorRGB
 90
      255
102
RTVSPost2010PropOp44
 70
     1
102
RTVSPost2010Prop45
280
     0
102
RTVSPost2010PropOp45
 70
     1
102
RTVSPost2010Prop46
 90
       50
102
RTVSPost2010PropOp46
 70
     1
102
RTVSPost2010Prop47
 90
       50
102
RTVSPost2010PropOp47
 70
     1
102
RTVSPost2010Prop48
 90
       50
102
RTVSPost2010PropOp48
 70
     1
102
RTVSPost2010Prop49
280
     0
102
RTVSPost2010PropOp49
 70
     1
102
RTVSPost2010Prop50
 90
       50
102
RTVSPost2010PropOp50
 70
     1
102
RTVSPost2010Prop51ColorIndex
 90
      256
102
RTVSPost2010Prop51ColorRGB
 90
-16777216
102
RTVSPost2010PropOp51
 70
     0
102
RTVSPost2010Prop52
140
1.0
102
RTVSPost2010PropOp52
 70
     0
102
RTVSPost2010Prop53
 90
        2
102
RTVSPost2010PropOp53
 70
     1
102
RTVSPost2010Prop54
  1
strokes_ogs.tif
102
RTVSPost2010PropOp54
 70
     1
102
RTVSPost2010Prop55
280
     0
102
RTVSPost2010PropOp55
 70
     1
102
RTVSPost2010Prop56
140
1.0
102
RTVSPost2010PropOp56
 70
     1
102
RTVSPost2010Prop57
140
1.0
102
RTVSPost2010PropOp57
 70
     1
  0
XRECORD
  5
9773F
102
{ACAD_REACTORS
330
87B3C
102
}
330
87B3C
100
AcDbXrecord
280
     1
102
RTVSPropertyOp0
 70
     0
102
RTVSPropertyOp1
 70
     0
102
RTVSPropertyOp2
 70
     0
102
RTVSPropertyOp3
 70
     0
102
RTVSPropertyOp4
 70
     0
102
RTVSPropertyOp5
 70
     0
102
RTVSPropertyOp6
 70
     0
102
RTVSPropertyOp7
 70
     0
102
RTVSPropertyOp8
 70
     0
102
RTVSPropertyOp9
 70
     0
102
RTVSPropertyOp10
 70
     0
102
RTVSPropertyOp11
 70
     0
102
RTVSPropertyOp12
 70
     0
102
RTVSPropertyOp13
 70
     0
102
RTVSPropertyOp14
 70
     2
102
RTVSPropertyOp15
 70
     0
102
RTVSPropertyOp16
 70
     0
102
RTVSPropertyOp17
 70
     0
102
RTVSPropertyOp18
 70
     0
102
RTVSPropertyOp19
 70
     0
102
RTVSPropertyOp20
 70
     0
102
RTVSPropertyOp21
 70
     0
102
RTVSPropertyOp22
 70
     0
102
RTVSPropertyOp23
 70
     0
102
RTVSPropertyOp24
 70
     0
102
RTVSPropertyOp25
 70
     0
102
RTVSPropertyOp26
 70
     0
102
RTVSPropertyOp27
 70
     0
102
RTVSPropertyOp28
 70
     1
102
RTVSPropertyOp29
 70
     1
102
RTVSPropertyOp30
 70
     1
102
RTVSPropertyOp31
 70
     1
102
RTVSPropertyOp32
 70
     1
102
RTVSPropertyOp33
 70
     1
102
RTVSPropertyOp34
 70
     1
102
RTVSPropertyOp35
 70
     1
102
RTVSPropertyOp36
 70
     1
102
RTVSPropertyOp37
 70
     0
102
RTVSPropertyOp38
 70
     0
102
RTVSPropertyOp39
 70
     0
102
RTVSPropertyOp40
 70
     0
102
RTVSPropertyOp41
 70
     0
102
RTVSPropertyOp42
 70
     0
102
RTVSPropertyOp43
 70
     0
102
RTVSPropertyOp44
 70
     0
102
RTVSPropertyOp45
 70
     1
102
RTVSPropertyOp46
 70
     0
102
RTVSPropertyOp47
 70
     0
102
RTVSPropertyOp48
 70
     0
102
RTVSPropertyOp49
 70
     1
102
RTVSPropertyOp50
 70
     0
102
RTVSPropertyOp51
 70
     0
102
RTVSPropertyOp52
 70
     0
102
RTVSPropertyOp53
 70
     0
102
RTVSPropertyOp54
 70
     0
102
RTVSPropertyOp55
 70
     1
102
RTVSPropertyOp56
 70
     0
102
RTVSPropertyOp57
 70
     0
102
RTVSPost2010Prop28
280
     0
102
RTVSPost2010PropOp28
 70
     1
102
RTVSPost2010Prop29
280
     1
102
RTVSPost2010PropOp29
 70
     1
102
RTVSPost2010Prop30
280
     1
102
RTVSPost2010PropOp30
 70
     1
102
RTVSPost2010Prop31
280
     0
102
RTVSPost2010PropOp31
 70
     1
102
RTVSPost2010Prop32
280
     0
102
RTVSPost2010PropOp32
 70
     1
102
RTVSPost2010Prop33
280
     0
102
RTVSPost2010PropOp33
 70
     1
102
RTVSPost2010Prop34
280
     0
102
RTVSPost2010PropOp34
 70
     1
102
RTVSPost2010Prop35
280
     0
102
RTVSPost2010PropOp35
 70
     1
102
RTVSPost2010Prop36
280
     0
102
RTVSPost2010PropOp36
 70
     1
102
RTVSPost2010Prop37
 90
       50
102
RTVSPost2010PropOp37
 70
     0
102
RTVSPost2010Prop38
140
0.0
102
RTVSPost2010PropOp38
 70
     0
102
RTVSPost2010Prop39
140
1.0
102
RTVSPost2010PropOp39
 70
     0
102
RTVSPost2010Prop40
 90
        0
102
RTVSPost2010PropOp40
 70
     0
102
RTVSPost2010Prop41ColorIndex
 90
       18
102
RTVSPost2010Prop41ColorRGB
 90
        0
102
RTVSPost2010PropOp41
 70
     0
102
RTVSPost2010Prop42
 90
       50
102
RTVSPost2010PropOp42
 70
     0
102
RTVSPost2010Prop43
 90
        3
102
RTVSPost2010PropOp43
 70
     0
102
RTVSPost2010Prop44ColorIndex
 90
        5
102
RTVSPost2010Prop44ColorRGB
 90
      255
102
RTVSPost2010PropOp44
 70
     0
102
RTVSPost2010Prop45
280
     0
102
RTVSPost2010PropOp45
 70
     1
102
RTVSPost2010Prop46
 90
       50
102
RTVSPost2010PropOp46
 70
     0
102
RTVSPost2010Prop47
 90
       50
102
RTVSPost2010PropOp47
 70
     0
102
RTVSPost2010Prop48
 90
       50
102
RTVSPost2010PropOp48
 70
     0
102
RTVSPost2010Prop49
280
     0
102
RTVSPost2010PropOp49
 70
     1
102
RTVSPost2010Prop50
 90
       50
102
RTVSPost2010PropOp50
 70
     0
102
RTVSPost2010Prop51ColorIndex
 90
      256
102
RTVSPost2010Prop51ColorRGB
 90
-16777216
102
RTVSPost2010PropOp51
 70
     0
102
RTVSPost2010Prop52
140
1.0
102
RTVSPost2010PropOp52
 70
     0
102
RTVSPost2010Prop53
 90
        2
102
RTVSPost2010PropOp53
 70
     0
102
RTVSPost2010Prop54
  1
strokes_ogs.tif
102
RTVSPost2010PropOp54
 70
     0
102
RTVSPost2010Prop55
280
     0
102
RTVSPost2010PropOp55
 70
     1
102
RTVSPost2010Prop56
140
1.0
102
RTVSPost2010PropOp56
 70
     0
102
RTVSPost2010Prop57
140
1.0
102
RTVSPost2010PropOp57
 70
     0
  0
XRECORD
  5
97740
102
{ACAD_REACTORS
330
87B2A
102
}
330
87B2A
100
AcDbXrecord
280
     1
102
RTVSPropertyOp0
 70
     1
102
RTVSPropertyOp1
 70
     1
102
RTVSPropertyOp2
 70
     1
102
RTVSPropertyOp3
 70
     1
102
RTVSPropertyOp4
 70
     1
102
RTVSPropertyOp5
 70
     1
102
RTVSPropertyOp6
 70
     1
102
RTVSPropertyOp7
 70
     1
102
RTVSPropertyOp8
 70
     1
102
RTVSPropertyOp9
 70
     1
102
RTVSPropertyOp10
 70
     1
102
RTVSPropertyOp11
 70
     1
102
RTVSPropertyOp12
 70
     1
102
RTVSPropertyOp13
 70
     1
102
RTVSPropertyOp14
 70
     1
102
RTVSPropertyOp15
 70
     1
102
RTVSPropertyOp16
 70
     1
102
RTVSPropertyOp17
 70
     1
102
RTVSPropertyOp18
 70
     1
102
RTVSPropertyOp19
 70
     1
102
RTVSPropertyOp20
 70
     1
102
RTVSPropertyOp21
 70
     1
102
RTVSPropertyOp22
 70
     1
102
RTVSPropertyOp23
 70
     1
102
RTVSPropertyOp24
 70
     1
102
RTVSPropertyOp25
 70
     1
102
RTVSPropertyOp26
 70
     1
102
RTVSPropertyOp27
 70
     1
102
RTVSPropertyOp28
 70
     1
102
RTVSPropertyOp29
 70
     1
102
RTVSPropertyOp30
 70
     1
102
RTVSPropertyOp31
 70
     1
102
RTVSPropertyOp32
 70
     1
102
RTVSPropertyOp33
 70
     1
102
RTVSPropertyOp34
 70
     1
102
RTVSPropertyOp35
 70
     1
102
RTVSPropertyOp36
 70
     1
102
RTVSPropertyOp37
 70
     1
102
RTVSPropertyOp38
 70
     1
102
RTVSPropertyOp39
 70
     1
102
RTVSPropertyOp40
 70
     1
102
RTVSPropertyOp41
 70
     1
102
RTVSPropertyOp42
 70
     1
102
RTVSPropertyOp43
 70
     1
102
RTVSPropertyOp44
 70
     1
102
RTVSPropertyOp45
 70
     1
102
RTVSPropertyOp46
 70
     1
102
RTVSPropertyOp47
 70
     1
102
RTVSPropertyOp48
 70
     1
102
RTVSPropertyOp49
 70
     1
102
RTVSPropertyOp50
 70
     1
102
RTVSPropertyOp51
 70
     0
102
RTVSPropertyOp52
 70
     0
102
RTVSPropertyOp53
 70
     1
102
RTVSPropertyOp54
 70
     1
102
RTVSPropertyOp55
 70
     1
102
RTVSPropertyOp56
 70
     1
102
RTVSPropertyOp57
 70
     1
102
RTVSPost2010Prop28
280
     0
102
RTVSPost2010PropOp28
 70
     1
102
RTVSPost2010Prop29
280
     1
102
RTVSPost2010PropOp29
 70
     1
102
RTVSPost2010Prop30
280
     1
102
RTVSPost2010PropOp30
 70
     1
102
RTVSPost2010Prop31
280
     0
102
RTVSPost2010PropOp31
 70
     1
102
RTVSPost2010Prop32
280
     0
102
RTVSPost2010PropOp32
 70
     1
102
RTVSPost2010Prop33
280
     0
102
RTVSPost2010PropOp33
 70
     1
102
RTVSPost2010Prop34
280
     0
102
RTVSPost2010PropOp34
 70
     1
102
RTVSPost2010Prop35
280
     0
102
RTVSPost2010PropOp35
 70
     1
102
RTVSPost2010Prop36
280
     0
102
RTVSPost2010PropOp36
 70
     1
102
RTVSPost2010Prop37
 90
       50
102
RTVSPost2010PropOp37
 70
     1
102
RTVSPost2010Prop38
140
0.0
102
RTVSPost2010PropOp38
 70
     1
102
RTVSPost2010Prop39
140
1.0
102
RTVSPost2010PropOp39
 70
     1
102
RTVSPost2010Prop40
 90
        0
102
RTVSPost2010PropOp40
 70
     1
102
RTVSPost2010Prop41ColorIndex
 90
       18
102
RTVSPost2010Prop41ColorRGB
 90
        0
102
RTVSPost2010PropOp41
 70
     1
102
RTVSPost2010Prop42
 90
       50
102
RTVSPost2010PropOp42
 70
     1
102
RTVSPost2010Prop43
 90
        3
102
RTVSPost2010PropOp43
 70
     1
102
RTVSPost2010Prop44ColorIndex
 90
        5
102
RTVSPost2010Prop44ColorRGB
 90
      255
102
RTVSPost2010PropOp44
 70
     1
102
RTVSPost2010Prop45
280
     0
102
RTVSPost2010PropOp45
 70
     1
102
RTVSPost2010Prop46
 90
       50
102
RTVSPost2010PropOp46
 70
     1
102
RTVSPost2010Prop47
 90
       50
102
RTVSPost2010PropOp47
 70
     1
102
RTVSPost2010Prop48
 90
       50
102
RTVSPost2010PropOp48
 70
     1
102
RTVSPost2010Prop49
280
     0
102
RTVSPost2010PropOp49
 70
     1
102
RTVSPost2010Prop50
 90
       50
102
RTVSPost2010PropOp50
 70
     1
102
RTVSPost2010Prop51ColorIndex
 90
      256
102
RTVSPost2010Prop51ColorRGB
 90
-16777216
102
RTVSPost2010PropOp51
 70
     0
102
RTVSPost2010Prop52
140
1.0
102
RTVSPost2010PropOp52
 70
     0
102
RTVSPost2010Prop53
 90
        2
102
RTVSPost2010PropOp53
 70
     1
102
RTVSPost2010Prop54
  1
strokes_ogs.tif
102
RTVSPost2010PropOp54
 70
     1
102
RTVSPost2010Prop55
280
     0
102
RTVSPost2010PropOp55
 70
     1
102
RTVSPost2010Prop56
140
1.0
102
RTVSPost2010PropOp56
 70
     1
102
RTVSPost2010Prop57
140
1.0
102
RTVSPost2010PropOp57
 70
     1
  0
XRECORD
  5
97741
102
{ACAD_REACTORS
330
87B0E
102
}
330
87B0E
100
AcDbXrecord
280
     1
102
RTVSPropertyOp0
 70
     1
102
RTVSPropertyOp1
 70
     1
102
RTVSPropertyOp2
 70
     1
102
RTVSPropertyOp3
 70
     1
102
RTVSPropertyOp4
 70
     1
102
RTVSPropertyOp5
 70
     1
102
RTVSPropertyOp6
 70
     1
102
RTVSPropertyOp7
 70
     1
102
RTVSPropertyOp8
 70
     1
102
RTVSPropertyOp9
 70
     1
102
RTVSPropertyOp10
 70
     1
102
RTVSPropertyOp11
 70
     1
102
RTVSPropertyOp12
 70
     1
102
RTVSPropertyOp13
 70
     1
102
RTVSPropertyOp14
 70
     1
102
RTVSPropertyOp15
 70
     1
102
RTVSPropertyOp16
 70
     1
102
RTVSPropertyOp17
 70
     1
102
RTVSPropertyOp18
 70
     1
102
RTVSPropertyOp19
 70
     1
102
RTVSPropertyOp20
 70
     1
102
RTVSPropertyOp21
 70
     1
102
RTVSPropertyOp22
 70
     1
102
RTVSPropertyOp23
 70
     1
102
RTVSPropertyOp24
 70
     1
102
RTVSPropertyOp25
 70
     1
102
RTVSPropertyOp26
 70
     1
102
RTVSPropertyOp27
 70
     1
102
RTVSPropertyOp28
 70
     1
102
RTVSPropertyOp29
 70
     1
102
RTVSPropertyOp30
 70
     1
102
RTVSPropertyOp31
 70
     1
102
RTVSPropertyOp32
 70
     1
102
RTVSPropertyOp33
 70
     1
102
RTVSPropertyOp34
 70
     1
102
RTVSPropertyOp35
 70
     1
102
RTVSPropertyOp36
 70
     1
102
RTVSPropertyOp37
 70
     1
102
RTVSPropertyOp38
 70
     1
102
RTVSPropertyOp39
 70
     1
102
RTVSPropertyOp40
 70
     1
102
RTVSPropertyOp41
 70
     1
102
RTVSPropertyOp42
 70
     1
102
RTVSPropertyOp43
 70
     1
102
RTVSPropertyOp44
 70
     1
102
RTVSPropertyOp45
 70
     1
102
RTVSPropertyOp46
 70
     1
102
RTVSPropertyOp47
 70
     1
102
RTVSPropertyOp48
 70
     1
102
RTVSPropertyOp49
 70
     1
102
RTVSPropertyOp50
 70
     1
102
RTVSPropertyOp51
 70
     0
102
RTVSPropertyOp52
 70
     0
102
RTVSPropertyOp53
 70
     1
102
RTVSPropertyOp54
 70
     1
102
RTVSPropertyOp55
 70
     1
102
RTVSPropertyOp56
 70
     1
102
RTVSPropertyOp57
 70
     1
102
RTVSPost2010Prop28
280
     0
102
RTVSPost2010PropOp28
 70
     1
102
RTVSPost2010Prop29
280
     1
102
RTVSPost2010PropOp29
 70
     1
102
RTVSPost2010Prop30
280
     1
102
RTVSPost2010PropOp30
 70
     1
102
RTVSPost2010Prop31
280
     0
102
RTVSPost2010PropOp31
 70
     1
102
RTVSPost2010Prop32
280
     0
102
RTVSPost2010PropOp32
 70
     1
102
RTVSPost2010Prop33
280
     0
102
RTVSPost2010PropOp33
 70
     1
102
RTVSPost2010Prop34
280
     0
102
RTVSPost2010PropOp34
 70
     1
102
RTVSPost2010Prop35
280
     0
102
RTVSPost2010PropOp35
 70
     1
102
RTVSPost2010Prop36
280
     0
102
RTVSPost2010PropOp36
 70
     1
102
RTVSPost2010Prop37
 90
       50
102
RTVSPost2010PropOp37
 70
     1
102
RTVSPost2010Prop38
140
0.0
102
RTVSPost2010PropOp38
 70
     1
102
RTVSPost2010Prop39
140
1.0
102
RTVSPost2010PropOp39
 70
     1
102
RTVSPost2010Prop40
 90
        0
102
RTVSPost2010PropOp40
 70
     1
102
RTVSPost2010Prop41ColorIndex
 90
       18
102
RTVSPost2010Prop41ColorRGB
 90
        0
102
RTVSPost2010PropOp41
 70
     1
102
RTVSPost2010Prop42
 90
       50
102
RTVSPost2010PropOp42
 70
     1
102
RTVSPost2010Prop43
 90
        3
102
RTVSPost2010PropOp43
 70
     1
102
RTVSPost2010Prop44ColorIndex
 90
        5
102
RTVSPost2010Prop44ColorRGB
 90
      255
102
RTVSPost2010PropOp44
 70
     1
102
RTVSPost2010Prop45
280
     0
102
RTVSPost2010PropOp45
 70
     1
102
RTVSPost2010Prop46
 90
       50
102
RTVSPost2010PropOp46
 70
     1
102
RTVSPost2010Prop47
 90
       50
102
RTVSPost2010PropOp47
 70
     1
102
RTVSPost2010Prop48
 90
       50
102
RTVSPost2010PropOp48
 70
     1
102
RTVSPost2010Prop49
280
     0
102
RTVSPost2010PropOp49
 70
     1
102
RTVSPost2010Prop50
 90
       50
102
RTVSPost2010PropOp50
 70
     1
102
RTVSPost2010Prop51ColorIndex
 90
      256
102
RTVSPost2010Prop51ColorRGB
 90
-16777216
102
RTVSPost2010PropOp51
 70
     0
102
RTVSPost2010Prop52
140
1.0
102
RTVSPost2010PropOp52
 70
     0
102
RTVSPost2010Prop53
 90
        2
102
RTVSPost2010PropOp53
 70
     1
102
RTVSPost2010Prop54
  1
strokes_ogs.tif
102
RTVSPost2010PropOp54
 70
     1
102
RTVSPost2010Prop55
280
     0
102
RTVSPost2010PropOp55
 70
     1
102
RTVSPost2010Prop56
140
1.0
102
RTVSPost2010PropOp56
 70
     1
102
RTVSPost2010Prop57
140
1.0
102
RTVSPost2010PropOp57
 70
     1
  0
XRECORD
  5
97742
102
{ACAD_REACTORS
330
87B10
102
}
330
87B10
100
AcDbXrecord
280
     1
102
RTVSPropertyOp0
 70
     1
102
RTVSPropertyOp1
 70
     1
102
RTVSPropertyOp2
 70
     1
102
RTVSPropertyOp3
 70
     1
102
RTVSPropertyOp4
 70
     1
102
RTVSPropertyOp5
 70
     1
102
RTVSPropertyOp6
 70
     1
102
RTVSPropertyOp7
 70
     1
102
RTVSPropertyOp8
 70
     1
102
RTVSPropertyOp9
 70
     1
102
RTVSPropertyOp10
 70
     1
102
RTVSPropertyOp11
 70
     1
102
RTVSPropertyOp12
 70
     1
102
RTVSPropertyOp13
 70
     1
102
RTVSPropertyOp14
 70
     1
102
RTVSPropertyOp15
 70
     1
102
RTVSPropertyOp16
 70
     1
102
RTVSPropertyOp17
 70
     1
102
RTVSPropertyOp18
 70
     1
102
RTVSPropertyOp19
 70
     1
102
RTVSPropertyOp20
 70
     1
102
RTVSPropertyOp21
 70
     1
102
RTVSPropertyOp22
 70
     1
102
RTVSPropertyOp23
 70
     1
102
RTVSPropertyOp24
 70
     1
102
RTVSPropertyOp25
 70
     1
102
RTVSPropertyOp26
 70
     1
102
RTVSPropertyOp27
 70
     1
102
RTVSPropertyOp28
 70
     1
102
RTVSPropertyOp29
 70
     1
102
RTVSPropertyOp30
 70
     1
102
RTVSPropertyOp31
 70
     1
102
RTVSPropertyOp32
 70
     1
102
RTVSPropertyOp33
 70
     1
102
RTVSPropertyOp34
 70
     1
102
RTVSPropertyOp35
 70
     1
102
RTVSPropertyOp36
 70
     1
102
RTVSPropertyOp37
 70
     1
102
RTVSPropertyOp38
 70
     1
102
RTVSPropertyOp39
 70
     1
102
RTVSPropertyOp40
 70
     1
102
RTVSPropertyOp41
 70
     1
102
RTVSPropertyOp42
 70
     1
102
RTVSPropertyOp43
 70
     1
102
RTVSPropertyOp44
 70
     1
102
RTVSPropertyOp45
 70
     1
102
RTVSPropertyOp46
 70
     1
102
RTVSPropertyOp47
 70
     1
102
RTVSPropertyOp48
 70
     1
102
RTVSPropertyOp49
 70
     1
102
RTVSPropertyOp50
 70
     1
102
RTVSPropertyOp51
 70
     0
102
RTVSPropertyOp52
 70
     0
102
RTVSPropertyOp53
 70
     1
102
RTVSPropertyOp54
 70
     1
102
RTVSPropertyOp55
 70
     1
102
RTVSPropertyOp56
 70
     1
102
RTVSPropertyOp57
 70
     1
102
RTVSPost2010Prop28
280
     0
102
RTVSPost2010PropOp28
 70
     1
102
RTVSPost2010Prop29
280
     1
102
RTVSPost2010PropOp29
 70
     1
102
RTVSPost2010Prop30
280
     1
102
RTVSPost2010PropOp30
 70
     1
102
RTVSPost2010Prop31
280
     0
102
RTVSPost2010PropOp31
 70
     1
102
RTVSPost2010Prop32
280
     0
102
RTVSPost2010PropOp32
 70
     1
102
RTVSPost2010Prop33
280
     0
102
RTVSPost2010PropOp33
 70
     1
102
RTVSPost2010Prop34
280
     0
102
RTVSPost2010PropOp34
 70
     1
102
RTVSPost2010Prop35
280
     0
102
RTVSPost2010PropOp35
 70
     1
102
RTVSPost2010Prop36
280
     0
102
RTVSPost2010PropOp36
 70
     1
102
RTVSPost2010Prop37
 90
       50
102
RTVSPost2010PropOp37
 70
     1
102
RTVSPost2010Prop38
140
0.0
102
RTVSPost2010PropOp38
 70
     1
102
RTVSPost2010Prop39
140
1.0
102
RTVSPost2010PropOp39
 70
     1
102
RTVSPost2010Prop40
 90
        0
102
RTVSPost2010PropOp40
 70
     1
102
RTVSPost2010Prop41ColorIndex
 90
       18
102
RTVSPost2010Prop41ColorRGB
 90
        0
102
RTVSPost2010PropOp41
 70
     1
102
RTVSPost2010Prop42
 90
       50
102
RTVSPost2010PropOp42
 70
     1
102
RTVSPost2010Prop43
 90
        3
102
RTVSPost2010PropOp43
 70
     1
102
RTVSPost2010Prop44ColorIndex
 90
        5
102
RTVSPost2010Prop44ColorRGB
 90
      255
102
RTVSPost2010PropOp44
 70
     1
102
RTVSPost2010Prop45
280
     0
102
RTVSPost2010PropOp45
 70
     1
102
RTVSPost2010Prop46
 90
       50
102
RTVSPost2010PropOp46
 70
     1
102
RTVSPost2010Prop47
 90
       50
102
RTVSPost2010PropOp47
 70
     1
102
RTVSPost2010Prop48
 90
       50
102
RTVSPost2010PropOp48
 70
     1
102
RTVSPost2010Prop49
280
     0
102
RTVSPost2010PropOp49
 70
     1
102
RTVSPost2010Prop50
 90
       50
102
RTVSPost2010PropOp50
 70
     1
102
RTVSPost2010Prop51ColorIndex
 90
      256
102
RTVSPost2010Prop51ColorRGB
 90
-16777216
102
RTVSPost2010PropOp51
 70
     0
102
RTVSPost2010Prop52
140
1.0
102
RTVSPost2010PropOp52
 70
     0
102
RTVSPost2010Prop53
 90
        2
102
RTVSPost2010PropOp53
 70
     1
102
RTVSPost2010Prop54
  1
strokes_ogs.tif
102
RTVSPost2010PropOp54
 70
     1
102
RTVSPost2010Prop55
280
     0
102
RTVSPost2010PropOp55
 70
     1
102
RTVSPost2010Prop56
140
1.0
102
RTVSPost2010PropOp56
 70
     1
102
RTVSPost2010Prop57
140
1.0
102
RTVSPost2010PropOp57
 70
     1
  0
XRECORD
  5
97743
102
{ACAD_REACTORS
330
87B12
102
}
330
87B12
100
AcDbXrecord
280
     1
102
RTVSPropertyOp0
 70
     1
102
RTVSPropertyOp1
 70
     1
102
RTVSPropertyOp2
 70
     1
102
RTVSPropertyOp3
 70
     1
102
RTVSPropertyOp4
 70
     1
102
RTVSPropertyOp5
 70
     1
102
RTVSPropertyOp6
 70
     1
102
RTVSPropertyOp7
 70
     1
102
RTVSPropertyOp8
 70
     1
102
RTVSPropertyOp9
 70
     1
102
RTVSPropertyOp10
 70
     1
102
RTVSPropertyOp11
 70
     1
102
RTVSPropertyOp12
 70
     1
102
RTVSPropertyOp13
 70
     1
102
RTVSPropertyOp14
 70
     1
102
RTVSPropertyOp15
 70
     1
102
RTVSPropertyOp16
 70
     1
102
RTVSPropertyOp17
 70
     1
102
RTVSPropertyOp18
 70
     1
102
RTVSPropertyOp19
 70
     1
102
RTVSPropertyOp20
 70
     1
102
RTVSPropertyOp21
 70
     1
102
RTVSPropertyOp22
 70
     1
102
RTVSPropertyOp23
 70
     1
102
RTVSPropertyOp24
 70
     1
102
RTVSPropertyOp25
 70
     1
102
RTVSPropertyOp26
 70
     1
102
RTVSPropertyOp27
 70
     1
102
RTVSPropertyOp28
 70
     1
102
RTVSPropertyOp29
 70
     1
102
RTVSPropertyOp30
 70
     1
102
RTVSPropertyOp31
 70
     1
102
RTVSPropertyOp32
 70
     1
102
RTVSPropertyOp33
 70
     1
102
RTVSPropertyOp34
 70
     1
102
RTVSPropertyOp35
 70
     1
102
RTVSPropertyOp36
 70
     1
102
RTVSPropertyOp37
 70
     1
102
RTVSPropertyOp38
 70
     1
102
RTVSPropertyOp39
 70
     1
102
RTVSPropertyOp40
 70
     1
102
RTVSPropertyOp41
 70
     1
102
RTVSPropertyOp42
 70
     1
102
RTVSPropertyOp43
 70
     1
102
RTVSPropertyOp44
 70
     1
102
RTVSPropertyOp45
 70
     1
102
RTVSPropertyOp46
 70
     1
102
RTVSPropertyOp47
 70
     1
102
RTVSPropertyOp48
 70
     1
102
RTVSPropertyOp49
 70
     1
102
RTVSPropertyOp50
 70
     1
102
RTVSPropertyOp51
 70
     0
102
RTVSPropertyOp52
 70
     0
102
RTVSPropertyOp53
 70
     1
102
RTVSPropertyOp54
 70
     1
102
RTVSPropertyOp55
 70
     1
102
RTVSPropertyOp56
 70
     1
102
RTVSPropertyOp57
 70
     1
102
RTVSPost2010Prop28
280
     0
102
RTVSPost2010PropOp28
 70
     1
102
RTVSPost2010Prop29
280
     1
102
RTVSPost2010PropOp29
 70
     1
102
RTVSPost2010Prop30
280
     1
102
RTVSPost2010PropOp30
 70
     1
102
RTVSPost2010Prop31
280
     0
102
RTVSPost2010PropOp31
 70
     1
102
RTVSPost2010Prop32
280
     0
102
RTVSPost2010PropOp32
 70
     1
102
RTVSPost2010Prop33
280
     0
102
RTVSPost2010PropOp33
 70
     1
102
RTVSPost2010Prop34
280
     0
102
RTVSPost2010PropOp34
 70
     1
102
RTVSPost2010Prop35
280
     0
102
RTVSPost2010PropOp35
 70
     1
102
RTVSPost2010Prop36
280
     0
102
RTVSPost2010PropOp36
 70
     1
102
RTVSPost2010Prop37
 90
       50
102
RTVSPost2010PropOp37
 70
     1
102
RTVSPost2010Prop38
140
0.0
102
RTVSPost2010PropOp38
 70
     1
102
RTVSPost2010Prop39
140
1.0
102
RTVSPost2010PropOp39
 70
     1
102
RTVSPost2010Prop40
 90
        0
102
RTVSPost2010PropOp40
 70
     1
102
RTVSPost2010Prop41ColorIndex
 90
       18
102
RTVSPost2010Prop41ColorRGB
 90
        0
102
RTVSPost2010PropOp41
 70
     1
102
RTVSPost2010Prop42
 90
       50
102
RTVSPost2010PropOp42
 70
     1
102
RTVSPost2010Prop43
 90
        3
102
RTVSPost2010PropOp43
 70
     1
102
RTVSPost2010Prop44ColorIndex
 90
        5
102
RTVSPost2010Prop44ColorRGB
 90
      255
102
RTVSPost2010PropOp44
 70
     1
102
RTVSPost2010Prop45
280
     0
102
RTVSPost2010PropOp45
 70
     1
102
RTVSPost2010Prop46
 90
       50
102
RTVSPost2010PropOp46
 70
     1
102
RTVSPost2010Prop47
 90
       50
102
RTVSPost2010PropOp47
 70
     1
102
RTVSPost2010Prop48
 90
       50
102
RTVSPost2010PropOp48
 70
     1
102
RTVSPost2010Prop49
280
     0
102
RTVSPost2010PropOp49
 70
     1
102
RTVSPost2010Prop50
 90
       50
102
RTVSPost2010PropOp50
 70
     1
102
RTVSPost2010Prop51ColorIndex
 90
      256
102
RTVSPost2010Prop51ColorRGB
 90
-16777216
102
RTVSPost2010PropOp51
 70
     0
102
RTVSPost2010Prop52
140
1.0
102
RTVSPost2010PropOp52
 70
     0
102
RTVSPost2010Prop53
 90
        2
102
RTVSPost2010PropOp53
 70
     1
102
RTVSPost2010Prop54
  1
strokes_ogs.tif
102
RTVSPost2010PropOp54
 70
     1
102
RTVSPost2010Prop55
280
     0
102
RTVSPost2010PropOp55
 70
     1
102
RTVSPost2010Prop56
140
1.0
102
RTVSPost2010PropOp56
 70
     1
102
RTVSPost2010Prop57
140
1.0
102
RTVSPost2010PropOp57
 70
     1
  0
XRECORD
  5
97744
102
{ACAD_REACTORS
330
87B14
102
}
330
87B14
100
AcDbXrecord
280
     1
102
RTVSPropertyOp0
 70
     1
102
RTVSPropertyOp1
 70
     1
102
RTVSPropertyOp2
 70
     1
102
RTVSPropertyOp3
 70
     1
102
RTVSPropertyOp4
 70
     1
102
RTVSPropertyOp5
 70
     1
102
RTVSPropertyOp6
 70
     1
102
RTVSPropertyOp7
 70
     1
102
RTVSPropertyOp8
 70
     1
102
RTVSPropertyOp9
 70
     1
102
RTVSPropertyOp10
 70
     1
102
RTVSPropertyOp11
 70
     1
102
RTVSPropertyOp12
 70
     1
102
RTVSPropertyOp13
 70
     1
102
RTVSPropertyOp14
 70
     1
102
RTVSPropertyOp15
 70
     1
102
RTVSPropertyOp16
 70
     1
102
RTVSPropertyOp17
 70
     1
102
RTVSPropertyOp18
 70
     1
102
RTVSPropertyOp19
 70
     1
102
RTVSPropertyOp20
 70
     1
102
RTVSPropertyOp21
 70
     1
102
RTVSPropertyOp22
 70
     1
102
RTVSPropertyOp23
 70
     1
102
RTVSPropertyOp24
 70
     1
102
RTVSPropertyOp25
 70
     1
102
RTVSPropertyOp26
 70
     1
102
RTVSPropertyOp27
 70
     1
102
RTVSPropertyOp28
 70
     1
102
RTVSPropertyOp29
 70
     1
102
RTVSPropertyOp30
 70
     1
102
RTVSPropertyOp31
 70
     1
102
RTVSPropertyOp32
 70
     1
102
RTVSPropertyOp33
 70
     1
102
RTVSPropertyOp34
 70
     1
102
RTVSPropertyOp35
 70
     1
102
RTVSPropertyOp36
 70
     1
102
RTVSPropertyOp37
 70
     1
102
RTVSPropertyOp38
 70
     1
102
RTVSPropertyOp39
 70
     1
102
RTVSPropertyOp40
 70
     1
102
RTVSPropertyOp41
 70
     1
102
RTVSPropertyOp42
 70
     1
102
RTVSPropertyOp43
 70
     1
102
RTVSPropertyOp44
 70
     1
102
RTVSPropertyOp45
 70
     1
102
RTVSPropertyOp46
 70
     1
102
RTVSPropertyOp47
 70
     1
102
RTVSPropertyOp48
 70
     1
102
RTVSPropertyOp49
 70
     1
102
RTVSPropertyOp50
 70
     1
102
RTVSPropertyOp51
 70
     0
102
RTVSPropertyOp52
 70
     0
102
RTVSPropertyOp53
 70
     1
102
RTVSPropertyOp54
 70
     1
102
RTVSPropertyOp55
 70
     1
102
RTVSPropertyOp56
 70
     1
102
RTVSPropertyOp57
 70
     1
102
RTVSPost2010Prop28
280
     0
102
RTVSPost2010PropOp28
 70
     1
102
RTVSPost2010Prop29
280
     1
102
RTVSPost2010PropOp29
 70
     1
102
RTVSPost2010Prop30
280
     1
102
RTVSPost2010PropOp30
 70
     1
102
RTVSPost2010Prop31
280
     0
102
RTVSPost2010PropOp31
 70
     1
102
RTVSPost2010Prop32
280
     0
102
RTVSPost2010PropOp32
 70
     1
102
RTVSPost2010Prop33
280
     0
102
RTVSPost2010PropOp33
 70
     1
102
RTVSPost2010Prop34
280
     0
102
RTVSPost2010PropOp34
 70
     1
102
RTVSPost2010Prop35
280
     0
102
RTVSPost2010PropOp35
 70
     1
102
RTVSPost2010Prop36
280
     0
102
RTVSPost2010PropOp36
 70
     1
102
RTVSPost2010Prop37
 90
       50
102
RTVSPost2010PropOp37
 70
     1
102
RTVSPost2010Prop38
140
0.0
102
RTVSPost2010PropOp38
 70
     1
102
RTVSPost2010Prop39
140
1.0
102
RTVSPost2010PropOp39
 70
     1
102
RTVSPost2010Prop40
 90
        0
102
RTVSPost2010PropOp40
 70
     1
102
RTVSPost2010Prop41ColorIndex
 90
       18
102
RTVSPost2010Prop41ColorRGB
 90
        0
102
RTVSPost2010PropOp41
 70
     1
102
RTVSPost2010Prop42
 90
       50
102
RTVSPost2010PropOp42
 70
     1
102
RTVSPost2010Prop43
 90
        3
102
RTVSPost2010PropOp43
 70
     1
102
RTVSPost2010Prop44ColorIndex
 90
        5
102
RTVSPost2010Prop44ColorRGB
 90
      255
102
RTVSPost2010PropOp44
 70
     1
102
RTVSPost2010Prop45
280
     0
102
RTVSPost2010PropOp45
 70
     1
102
RTVSPost2010Prop46
 90
       50
102
RTVSPost2010PropOp46
 70
     1
102
RTVSPost2010Prop47
 90
       50
102
RTVSPost2010PropOp47
 70
     1
102
RTVSPost2010Prop48
 90
       50
102
RTVSPost2010PropOp48
 70
     1
102
RTVSPost2010Prop49
280
     0
102
RTVSPost2010PropOp49
 70
     1
102
RTVSPost2010Prop50
 90
       50
102
RTVSPost2010PropOp50
 70
     1
102
RTVSPost2010Prop51ColorIndex
 90
      256
102
RTVSPost2010Prop51ColorRGB
 90
-16777216
102
RTVSPost2010PropOp51
 70
     0
102
RTVSPost2010Prop52
140
1.0
102
RTVSPost2010PropOp52
 70
     0
102
RTVSPost2010Prop53
 90
        2
102
RTVSPost2010PropOp53
 70
     1
102
RTVSPost2010Prop54
  1
strokes_ogs.tif
102
RTVSPost2010PropOp54
 70
     1
102
RTVSPost2010Prop55
280
     0
102
RTVSPost2010PropOp55
 70
     1
102
RTVSPost2010Prop56
140
1.0
102
RTVSPost2010PropOp56
 70
     1
102
RTVSPost2010Prop57
140
1.0
102
RTVSPost2010PropOp57
 70
     1
  0
XRECORD
  5
97745
102
{ACAD_REACTORS
330
87B1C
102
}
330
87B1C
100
AcDbXrecord
280
     1
102
RTVSPropertyOp0
 70
     1
102
RTVSPropertyOp1
 70
     1
102
RTVSPropertyOp2
 70
     1
102
RTVSPropertyOp3
 70
     1
102
RTVSPropertyOp4
 70
     1
102
RTVSPropertyOp5
 70
     1
102
RTVSPropertyOp6
 70
     1
102
RTVSPropertyOp7
 70
     1
102
RTVSPropertyOp8
 70
     1
102
RTVSPropertyOp9
 70
     1
102
RTVSPropertyOp10
 70
     1
102
RTVSPropertyOp11
 70
     1
102
RTVSPropertyOp12
 70
     1
102
RTVSPropertyOp13
 70
     1
102
RTVSPropertyOp14
 70
     1
102
RTVSPropertyOp15
 70
     1
102
RTVSPropertyOp16
 70
     1
102
RTVSPropertyOp17
 70
     1
102
RTVSPropertyOp18
 70
     1
102
RTVSPropertyOp19
 70
     1
102
RTVSPropertyOp20
 70
     1
102
RTVSPropertyOp21
 70
     1
102
RTVSPropertyOp22
 70
     1
102
RTVSPropertyOp23
 70
     1
102
RTVSPropertyOp24
 70
     1
102
RTVSPropertyOp25
 70
     1
102
RTVSPropertyOp26
 70
     1
102
RTVSPropertyOp27
 70
     1
102
RTVSPropertyOp28
 70
     1
102
RTVSPropertyOp29
 70
     1
102
RTVSPropertyOp30
 70
     1
102
RTVSPropertyOp31
 70
     1
102
RTVSPropertyOp32
 70
     1
102
RTVSPropertyOp33
 70
     1
102
RTVSPropertyOp34
 70
     1
102
RTVSPropertyOp35
 70
     1
102
RTVSPropertyOp36
 70
     1
102
RTVSPropertyOp37
 70
     1
102
RTVSPropertyOp38
 70
     1
102
RTVSPropertyOp39
 70
     1
102
RTVSPropertyOp40
 70
     1
102
RTVSPropertyOp41
 70
     1
102
RTVSPropertyOp42
 70
     1
102
RTVSPropertyOp43
 70
     1
102
RTVSPropertyOp44
 70
     1
102
RTVSPropertyOp45
 70
     1
102
RTVSPropertyOp46
 70
     1
102
RTVSPropertyOp47
 70
     1
102
RTVSPropertyOp48
 70
     1
102
RTVSPropertyOp49
 70
     1
102
RTVSPropertyOp50
 70
     1
102
RTVSPropertyOp51
 70
     0
102
RTVSPropertyOp52
 70
     0
102
RTVSPropertyOp53
 70
     1
102
RTVSPropertyOp54
 70
     1
102
RTVSPropertyOp55
 70
     1
102
RTVSPropertyOp56
 70
     1
102
RTVSPropertyOp57
 70
     1
102
RTVSPost2010Prop28
280
     0
102
RTVSPost2010PropOp28
 70
     1
102
RTVSPost2010Prop29
280
     1
102
RTVSPost2010PropOp29
 70
     1
102
RTVSPost2010Prop30
280
     1
102
RTVSPost2010PropOp30
 70
     1
102
RTVSPost2010Prop31
280
     0
102
RTVSPost2010PropOp31
 70
     1
102
RTVSPost2010Prop32
280
     0
102
RTVSPost2010PropOp32
 70
     1
102
RTVSPost2010Prop33
280
     0
102
RTVSPost2010PropOp33
 70
     1
102
RTVSPost2010Prop34
280
     0
102
RTVSPost2010PropOp34
 70
     1
102
RTVSPost2010Prop35
280
     0
102
RTVSPost2010PropOp35
 70
     1
102
RTVSPost2010Prop36
280
     0
102
RTVSPost2010PropOp36
 70
     1
102
RTVSPost2010Prop37
 90
       50
102
RTVSPost2010PropOp37
 70
     1
102
RTVSPost2010Prop38
140
0.0
102
RTVSPost2010PropOp38
 70
     1
102
RTVSPost2010Prop39
140
1.0
102
RTVSPost2010PropOp39
 70
     1
102
RTVSPost2010Prop40
 90
        0
102
RTVSPost2010PropOp40
 70
     1
102
RTVSPost2010Prop41ColorIndex
 90
       18
102
RTVSPost2010Prop41ColorRGB
 90
        0
102
RTVSPost2010PropOp41
 70
     1
102
RTVSPost2010Prop42
 90
       50
102
RTVSPost2010PropOp42
 70
     1
102
RTVSPost2010Prop43
 90
        3
102
RTVSPost2010PropOp43
 70
     1
102
RTVSPost2010Prop44ColorIndex
 90
        5
102
RTVSPost2010Prop44ColorRGB
 90
      255
102
RTVSPost2010PropOp44
 70
     1
102
RTVSPost2010Prop45
280
     0
102
RTVSPost2010PropOp45
 70
     1
102
RTVSPost2010Prop46
 90
       50
102
RTVSPost2010PropOp46
 70
     1
102
RTVSPost2010Prop47
 90
       50
102
RTVSPost2010PropOp47
 70
     1
102
RTVSPost2010Prop48
 90
       50
102
RTVSPost2010PropOp48
 70
     1
102
RTVSPost2010Prop49
280
     0
102
RTVSPost2010PropOp49
 70
     1
102
RTVSPost2010Prop50
 90
       50
102
RTVSPost2010PropOp50
 70
     1
102
RTVSPost2010Prop51ColorIndex
 90
      256
102
RTVSPost2010Prop51ColorRGB
 90
-16777216
102
RTVSPost2010PropOp51
 70
     0
102
RTVSPost2010Prop52
140
1.0
102
RTVSPost2010PropOp52
 70
     0
102
RTVSPost2010Prop53
 90
        2
102
RTVSPost2010PropOp53
 70
     1
102
RTVSPost2010Prop54
  1
strokes_ogs.tif
102
RTVSPost2010PropOp54
 70
     1
102
RTVSPost2010Prop55
280
     0
102
RTVSPost2010PropOp55
 70
     1
102
RTVSPost2010Prop56
140
1.0
102
RTVSPost2010PropOp56
 70
     1
102
RTVSPost2010Prop57
140
1.0
102
RTVSPost2010PropOp57
 70
     1
  0
XRECORD
  5
97746
102
{ACAD_REACTORS
330
87B38
102
}
330
87B38
100
AcDbXrecord
280
     1
102
RTVSPropertyOp0
 70
     0
102
RTVSPropertyOp1
 70
     0
102
RTVSPropertyOp2
 70
     0
102
RTVSPropertyOp3
 70
     0
102
RTVSPropertyOp4
 70
     0
102
RTVSPropertyOp5
 70
     0
102
RTVSPropertyOp6
 70
     0
102
RTVSPropertyOp7
 70
     0
102
RTVSPropertyOp8
 70
     0
102
RTVSPropertyOp9
 70
     0
102
RTVSPropertyOp10
 70
     0
102
RTVSPropertyOp11
 70
     0
102
RTVSPropertyOp12
 70
     0
102
RTVSPropertyOp13
 70
     0
102
RTVSPropertyOp14
 70
     2
102
RTVSPropertyOp15
 70
     0
102
RTVSPropertyOp16
 70
     0
102
RTVSPropertyOp17
 70
     0
102
RTVSPropertyOp18
 70
     0
102
RTVSPropertyOp19
 70
     0
102
RTVSPropertyOp20
 70
     0
102
RTVSPropertyOp21
 70
     0
102
RTVSPropertyOp22
 70
     0
102
RTVSPropertyOp23
 70
     0
102
RTVSPropertyOp24
 70
     0
102
RTVSPropertyOp25
 70
     0
102
RTVSPropertyOp26
 70
     0
102
RTVSPropertyOp27
 70
     0
102
RTVSPropertyOp28
 70
     1
102
RTVSPropertyOp29
 70
     1
102
RTVSPropertyOp30
 70
     1
102
RTVSPropertyOp31
 70
     1
102
RTVSPropertyOp32
 70
     1
102
RTVSPropertyOp33
 70
     1
102
RTVSPropertyOp34
 70
     1
102
RTVSPropertyOp35
 70
     1
102
RTVSPropertyOp36
 70
     1
102
RTVSPropertyOp37
 70
     0
102
RTVSPropertyOp38
 70
     0
102
RTVSPropertyOp39
 70
     0
102
RTVSPropertyOp40
 70
     0
102
RTVSPropertyOp41
 70
     0
102
RTVSPropertyOp42
 70
     0
102
RTVSPropertyOp43
 70
     0
102
RTVSPropertyOp44
 70
     0
102
RTVSPropertyOp45
 70
     1
102
RTVSPropertyOp46
 70
     0
102
RTVSPropertyOp47
 70
     0
102
RTVSPropertyOp48
 70
     0
102
RTVSPropertyOp49
 70
     1
102
RTVSPropertyOp50
 70
     0
102
RTVSPropertyOp51
 70
     0
102
RTVSPropertyOp52
 70
     0
102
RTVSPropertyOp53
 70
     0
102
RTVSPropertyOp54
 70
     0
102
RTVSPropertyOp55
 70
     1
102
RTVSPropertyOp56
 70
     0
102
RTVSPropertyOp57
 70
     0
102
RTVSPost2010Prop28
280
     0
102
RTVSPost2010PropOp28
 70
     1
102
RTVSPost2010Prop29
280
     1
102
RTVSPost2010PropOp29
 70
     1
102
RTVSPost2010Prop30
280
     1
102
RTVSPost2010PropOp30
 70
     1
102
RTVSPost2010Prop31
280
     0
102
RTVSPost2010PropOp31
 70
     1
102
RTVSPost2010Prop32
280
     0
102
RTVSPost2010PropOp32
 70
     1
102
RTVSPost2010Prop33
280
     0
102
RTVSPost2010PropOp33
 70
     1
102
RTVSPost2010Prop34
280
     0
102
RTVSPost2010PropOp34
 70
     1
102
RTVSPost2010Prop35
280
     0
102
RTVSPost2010PropOp35
 70
     1
102
RTVSPost2010Prop36
280
     0
102
RTVSPost2010PropOp36
 70
     1
102
RTVSPost2010Prop37
 90
       50
102
RTVSPost2010PropOp37
 70
     0
102
RTVSPost2010Prop38
140
0.0
102
RTVSPost2010PropOp38
 70
     0
102
RTVSPost2010Prop39
140
1.0
102
RTVSPost2010PropOp39
 70
     0
102
RTVSPost2010Prop40
 90
        0
102
RTVSPost2010PropOp40
 70
     0
102
RTVSPost2010Prop41ColorIndex
 90
       18
102
RTVSPost2010Prop41ColorRGB
 90
        0
102
RTVSPost2010PropOp41
 70
     0
102
RTVSPost2010Prop42
 90
       50
102
RTVSPost2010PropOp42
 70
     0
102
RTVSPost2010Prop43
 90
        3
102
RTVSPost2010PropOp43
 70
     0
102
RTVSPost2010Prop44ColorIndex
 90
        5
102
RTVSPost2010Prop44ColorRGB
 90
      255
102
RTVSPost2010PropOp44
 70
     0
102
RTVSPost2010Prop45
280
     0
102
RTVSPost2010PropOp45
 70
     1
102
RTVSPost2010Prop46
 90
       50
102
RTVSPost2010PropOp46
 70
     0
102
RTVSPost2010Prop47
 90
       50
102
RTVSPost2010PropOp47
 70
     0
102
RTVSPost2010Prop48
 90
       50
102
RTVSPost2010PropOp48
 70
     0
102
RTVSPost2010Prop49
280
     0
102
RTVSPost2010PropOp49
 70
     1
102
RTVSPost2010Prop50
 90
       50
102
RTVSPost2010PropOp50
 70
     0
102
RTVSPost2010Prop51ColorIndex
 90
      256
102
RTVSPost2010Prop51ColorRGB
 90
-16777216
102
RTVSPost2010PropOp51
 70
     0
102
RTVSPost2010Prop52
140
1.0
102
RTVSPost2010PropOp52
 70
     0
102
RTVSPost2010Prop53
 90
        2
102
RTVSPost2010PropOp53
 70
     0
102
RTVSPost2010Prop54
  1
strokes_ogs.tif
102
RTVSPost2010PropOp54
 70
     0
102
RTVSPost2010Prop55
280
     0
102
RTVSPost2010PropOp55
 70
     1
102
RTVSPost2010Prop56
140
1.0
102
RTVSPost2010PropOp56
 70
     0
102
RTVSPost2010Prop57
140
1.0
102
RTVSPost2010PropOp57
 70
     0
  0
XRECORD
  5
97747
102
{ACAD_REACTORS
330
87B28
102
}
330
87B28
100
AcDbXrecord
280
     1
102
RTVSPropertyOp0
 70
     1
102
RTVSPropertyOp1
 70
     1
102
RTVSPropertyOp2
 70
     1
102
RTVSPropertyOp3
 70
     1
102
RTVSPropertyOp4
 70
     1
102
RTVSPropertyOp5
 70
     1
102
RTVSPropertyOp6
 70
     1
102
RTVSPropertyOp7
 70
     1
102
RTVSPropertyOp8
 70
     1
102
RTVSPropertyOp9
 70
     1
102
RTVSPropertyOp10
 70
     1
102
RTVSPropertyOp11
 70
     1
102
RTVSPropertyOp12
 70
     1
102
RTVSPropertyOp13
 70
     1
102
RTVSPropertyOp14
 70
     1
102
RTVSPropertyOp15
 70
     1
102
RTVSPropertyOp16
 70
     1
102
RTVSPropertyOp17
 70
     1
102
RTVSPropertyOp18
 70
     1
102
RTVSPropertyOp19
 70
     1
102
RTVSPropertyOp20
 70
     1
102
RTVSPropertyOp21
 70
     1
102
RTVSPropertyOp22
 70
     1
102
RTVSPropertyOp23
 70
     1
102
RTVSPropertyOp24
 70
     1
102
RTVSPropertyOp25
 70
     1
102
RTVSPropertyOp26
 70
     1
102
RTVSPropertyOp27
 70
     1
102
RTVSPropertyOp28
 70
     1
102
RTVSPropertyOp29
 70
     1
102
RTVSPropertyOp30
 70
     1
102
RTVSPropertyOp31
 70
     1
102
RTVSPropertyOp32
 70
     1
102
RTVSPropertyOp33
 70
     1
102
RTVSPropertyOp34
 70
     1
102
RTVSPropertyOp35
 70
     1
102
RTVSPropertyOp36
 70
     1
102
RTVSPropertyOp37
 70
     1
102
RTVSPropertyOp38
 70
     1
102
RTVSPropertyOp39
 70
     1
102
RTVSPropertyOp40
 70
     1
102
RTVSPropertyOp41
 70
     1
102
RTVSPropertyOp42
 70
     1
102
RTVSPropertyOp43
 70
     1
102
RTVSPropertyOp44
 70
     1
102
RTVSPropertyOp45
 70
     1
102
RTVSPropertyOp46
 70
     1
102
RTVSPropertyOp47
 70
     1
102
RTVSPropertyOp48
 70
     1
102
RTVSPropertyOp49
 70
     1
102
RTVSPropertyOp50
 70
     1
102
RTVSPropertyOp51
 70
     0
102
RTVSPropertyOp52
 70
     0
102
RTVSPropertyOp53
 70
     1
102
RTVSPropertyOp54
 70
     1
102
RTVSPropertyOp55
 70
     1
102
RTVSPropertyOp56
 70
     1
102
RTVSPropertyOp57
 70
     1
102
RTVSPost2010Prop28
280
     0
102
RTVSPost2010PropOp28
 70
     1
102
RTVSPost2010Prop29
280
     1
102
RTVSPost2010PropOp29
 70
     1
102
RTVSPost2010Prop30
280
     1
102
RTVSPost2010PropOp30
 70
     1
102
RTVSPost2010Prop31
280
     0
102
RTVSPost2010PropOp31
 70
     1
102
RTVSPost2010Prop32
280
     0
102
RTVSPost2010PropOp32
 70
     1
102
RTVSPost2010Prop33
280
     0
102
RTVSPost2010PropOp33
 70
     1
102
RTVSPost2010Prop34
280
     0
102
RTVSPost2010PropOp34
 70
     1
102
RTVSPost2010Prop35
280
     0
102
RTVSPost2010PropOp35
 70
     1
102
RTVSPost2010Prop36
280
     0
102
RTVSPost2010PropOp36
 70
     1
102
RTVSPost2010Prop37
 90
       50
102
RTVSPost2010PropOp37
 70
     1
102
RTVSPost2010Prop38
140
0.0
102
RTVSPost2010PropOp38
 70
     1
102
RTVSPost2010Prop39
140
1.0
102
RTVSPost2010PropOp39
 70
     1
102
RTVSPost2010Prop40
 90
        0
102
RTVSPost2010PropOp40
 70
     1
102
RTVSPost2010Prop41ColorIndex
 90
       18
102
RTVSPost2010Prop41ColorRGB
 90
        0
102
RTVSPost2010PropOp41
 70
     1
102
RTVSPost2010Prop42
 90
       50
102
RTVSPost2010PropOp42
 70
     1
102
RTVSPost2010Prop43
 90
        3
102
RTVSPost2010PropOp43
 70
     1
102
RTVSPost2010Prop44ColorIndex
 90
        5
102
RTVSPost2010Prop44ColorRGB
 90
      255
102
RTVSPost2010PropOp44
 70
     1
102
RTVSPost2010Prop45
280
     0
102
RTVSPost2010PropOp45
 70
     1
102
RTVSPost2010Prop46
 90
       50
102
RTVSPost2010PropOp46
 70
     1
102
RTVSPost2010Prop47
 90
       50
102
RTVSPost2010PropOp47
 70
     1
102
RTVSPost2010Prop48
 90
       50
102
RTVSPost2010PropOp48
 70
     1
102
RTVSPost2010Prop49
280
     0
102
RTVSPost2010PropOp49
 70
     1
102
RTVSPost2010Prop50
 90
       50
102
RTVSPost2010PropOp50
 70
     1
102
RTVSPost2010Prop51ColorIndex
 90
      256
102
RTVSPost2010Prop51ColorRGB
 90
-16777216
102
RTVSPost2010PropOp51
 70
     0
102
RTVSPost2010Prop52
140
1.0
102
RTVSPost2010PropOp52
 70
     0
102
RTVSPost2010Prop53
 90
        2
102
RTVSPost2010PropOp53
 70
     1
102
RTVSPost2010Prop54
  1
strokes_ogs.tif
102
RTVSPost2010PropOp54
 70
     1
102
RTVSPost2010Prop55
280
     0
102
RTVSPost2010PropOp55
 70
     1
102
RTVSPost2010Prop56
140
1.0
102
RTVSPost2010PropOp56
 70
     1
102
RTVSPost2010Prop57
140
1.0
102
RTVSPost2010PropOp57
 70
     1
  0
XRECORD
  5
97748
102
{ACAD_REACTORS
330
87B3A
102
}
330
87B3A
100
AcDbXrecord
280
     1
102
RTVSPropertyOp0
 70
     0
102
RTVSPropertyOp1
 70
     0
102
RTVSPropertyOp2
 70
     0
102
RTVSPropertyOp3
 70
     0
102
RTVSPropertyOp4
 70
     0
102
RTVSPropertyOp5
 70
     0
102
RTVSPropertyOp6
 70
     0
102
RTVSPropertyOp7
 70
     0
102
RTVSPropertyOp8
 70
     0
102
RTVSPropertyOp9
 70
     0
102
RTVSPropertyOp10
 70
     0
102
RTVSPropertyOp11
 70
     0
102
RTVSPropertyOp12
 70
     0
102
RTVSPropertyOp13
 70
     0
102
RTVSPropertyOp14
 70
     2
102
RTVSPropertyOp15
 70
     0
102
RTVSPropertyOp16
 70
     0
102
RTVSPropertyOp17
 70
     0
102
RTVSPropertyOp18
 70
     0
102
RTVSPropertyOp19
 70
     0
102
RTVSPropertyOp20
 70
     0
102
RTVSPropertyOp21
 70
     0
102
RTVSPropertyOp22
 70
     0
102
RTVSPropertyOp23
 70
     0
102
RTVSPropertyOp24
 70
     0
102
RTVSPropertyOp25
 70
     0
102
RTVSPropertyOp26
 70
     0
102
RTVSPropertyOp27
 70
     0
102
RTVSPropertyOp28
 70
     1
102
RTVSPropertyOp29
 70
     1
102
RTVSPropertyOp30
 70
     1
102
RTVSPropertyOp31
 70
     1
102
RTVSPropertyOp32
 70
     1
102
RTVSPropertyOp33
 70
     1
102
RTVSPropertyOp34
 70
     1
102
RTVSPropertyOp35
 70
     1
102
RTVSPropertyOp36
 70
     1
102
RTVSPropertyOp37
 70
     0
102
RTVSPropertyOp38
 70
     0
102
RTVSPropertyOp39
 70
     0
102
RTVSPropertyOp40
 70
     0
102
RTVSPropertyOp41
 70
     0
102
RTVSPropertyOp42
 70
     0
102
RTVSPropertyOp43
 70
     0
102
RTVSPropertyOp44
 70
     0
102
RTVSPropertyOp45
 70
     1
102
RTVSPropertyOp46
 70
     0
102
RTVSPropertyOp47
 70
     0
102
RTVSPropertyOp48
 70
     0
102
RTVSPropertyOp49
 70
     1
102
RTVSPropertyOp50
 70
     0
102
RTVSPropertyOp51
 70
     0
102
RTVSPropertyOp52
 70
     0
102
RTVSPropertyOp53
 70
     0
102
RTVSPropertyOp54
 70
     0
102
RTVSPropertyOp55
 70
     1
102
RTVSPropertyOp56
 70
     0
102
RTVSPropertyOp57
 70
     0
102
RTVSPost2010Prop28
280
     0
102
RTVSPost2010PropOp28
 70
     1
102
RTVSPost2010Prop29
280
     1
102
RTVSPost2010PropOp29
 70
     1
102
RTVSPost2010Prop30
280
     1
102
RTVSPost2010PropOp30
 70
     1
102
RTVSPost2010Prop31
280
     0
102
RTVSPost2010PropOp31
 70
     1
102
RTVSPost2010Prop32
280
     0
102
RTVSPost2010PropOp32
 70
     1
102
RTVSPost2010Prop33
280
     0
102
RTVSPost2010PropOp33
 70
     1
102
RTVSPost2010Prop34
280
     0
102
RTVSPost2010PropOp34
 70
     1
102
RTVSPost2010Prop35
280
     0
102
RTVSPost2010PropOp35
 70
     1
102
RTVSPost2010Prop36
280
     0
102
RTVSPost2010PropOp36
 70
     1
102
RTVSPost2010Prop37
 90
       50
102
RTVSPost2010PropOp37
 70
     0
102
RTVSPost2010Prop38
140
0.0
102
RTVSPost2010PropOp38
 70
     0
102
RTVSPost2010Prop39
140
1.0
102
RTVSPost2010PropOp39
 70
     0
102
RTVSPost2010Prop40
 90
        0
102
RTVSPost2010PropOp40
 70
     0
102
RTVSPost2010Prop41ColorIndex
 90
       18
102
RTVSPost2010Prop41ColorRGB
 90
        0
102
RTVSPost2010PropOp41
 70
     0
102
RTVSPost2010Prop42
 90
       50
102
RTVSPost2010PropOp42
 70
     0
102
RTVSPost2010Prop43
 90
        3
102
RTVSPost2010PropOp43
 70
     0
102
RTVSPost2010Prop44ColorIndex
 90
        5
102
RTVSPost2010Prop44ColorRGB
 90
      255
102
RTVSPost2010PropOp44
 70
     0
102
RTVSPost2010Prop45
280
     0
102
RTVSPost2010PropOp45
 70
     1
102
RTVSPost2010Prop46
 90
       50
102
RTVSPost2010PropOp46
 70
     0
102
RTVSPost2010Prop47
 90
       50
102
RTVSPost2010PropOp47
 70
     0
102
RTVSPost2010Prop48
 90
       50
102
RTVSPost2010PropOp48
 70
     0
102
RTVSPost2010Prop49
280
     0
102
RTVSPost2010PropOp49
 70
     1
102
RTVSPost2010Prop50
 90
       50
102
RTVSPost2010PropOp50
 70
     0
102
RTVSPost2010Prop51ColorIndex
 90
      256
102
RTVSPost2010Prop51ColorRGB
 90
-16777216
102
RTVSPost2010PropOp51
 70
     0
102
RTVSPost2010Prop52
140
1.0
102
RTVSPost2010PropOp52
 70
     0
102
RTVSPost2010Prop53
 90
        2
102
RTVSPost2010PropOp53
 70
     0
102
RTVSPost2010Prop54
  1
strokes_ogs.tif
102
RTVSPost2010PropOp54
 70
     0
102
RTVSPost2010Prop55
280
     0
102
RTVSPost2010PropOp55
 70
     1
102
RTVSPost2010Prop56
140
1.0
102
RTVSPost2010PropOp56
 70
     0
102
RTVSPost2010Prop57
140
1.0
102
RTVSPost2010PropOp57
 70
     0
  0
XRECORD
  5
97749
102
{ACAD_REACTORS
330
87B20
102
}
330
87B20
100
AcDbXrecord
280
     1
102
RTVSPropertyOp0
 70
     1
102
RTVSPropertyOp1
 70
     1
102
RTVSPropertyOp2
 70
     1
102
RTVSPropertyOp3
 70
     1
102
RTVSPropertyOp4
 70
     1
102
RTVSPropertyOp5
 70
     1
102
RTVSPropertyOp6
 70
     1
102
RTVSPropertyOp7
 70
     1
102
RTVSPropertyOp8
 70
     1
102
RTVSPropertyOp9
 70
     1
102
RTVSPropertyOp10
 70
     1
102
RTVSPropertyOp11
 70
     1
102
RTVSPropertyOp12
 70
     1
102
RTVSPropertyOp13
 70
     1
102
RTVSPropertyOp14
 70
     1
102
RTVSPropertyOp15
 70
     1
102
RTVSPropertyOp16
 70
     1
102
RTVSPropertyOp17
 70
     1
102
RTVSPropertyOp18
 70
     1
102
RTVSPropertyOp19
 70
     1
102
RTVSPropertyOp20
 70
     1
102
RTVSPropertyOp21
 70
     1
102
RTVSPropertyOp22
 70
     1
102
RTVSPropertyOp23
 70
     1
102
RTVSPropertyOp24
 70
     1
102
RTVSPropertyOp25
 70
     1
102
RTVSPropertyOp26
 70
     1
102
RTVSPropertyOp27
 70
     1
102
RTVSPropertyOp28
 70
     1
102
RTVSPropertyOp29
 70
     1
102
RTVSPropertyOp30
 70
     1
102
RTVSPropertyOp31
 70
     1
102
RTVSPropertyOp32
 70
     1
102
RTVSPropertyOp33
 70
     1
102
RTVSPropertyOp34
 70
     1
102
RTVSPropertyOp35
 70
     1
102
RTVSPropertyOp36
 70
     1
102
RTVSPropertyOp37
 70
     1
102
RTVSPropertyOp38
 70
     1
102
RTVSPropertyOp39
 70
     1
102
RTVSPropertyOp40
 70
     1
102
RTVSPropertyOp41
 70
     1
102
RTVSPropertyOp42
 70
     1
102
RTVSPropertyOp43
 70
     1
102
RTVSPropertyOp44
 70
     1
102
RTVSPropertyOp45
 70
     1
102
RTVSPropertyOp46
 70
     1
102
RTVSPropertyOp47
 70
     1
102
RTVSPropertyOp48
 70
     1
102
RTVSPropertyOp49
 70
     1
102
RTVSPropertyOp50
 70
     1
102
RTVSPropertyOp51
 70
     0
102
RTVSPropertyOp52
 70
     0
102
RTVSPropertyOp53
 70
     1
102
RTVSPropertyOp54
 70
     1
102
RTVSPropertyOp55
 70
     1
102
RTVSPropertyOp56
 70
     1
102
RTVSPropertyOp57
 70
     1
102
RTVSPost2010Prop28
280
     0
102
RTVSPost2010PropOp28
 70
     1
102
RTVSPost2010Prop29
280
     1
102
RTVSPost2010PropOp29
 70
     1
102
RTVSPost2010Prop30
280
     1
102
RTVSPost2010PropOp30
 70
     1
102
RTVSPost2010Prop31
280
     0
102
RTVSPost2010PropOp31
 70
     1
102
RTVSPost2010Prop32
280
     0
102
RTVSPost2010PropOp32
 70
     1
102
RTVSPost2010Prop33
280
     0
102
RTVSPost2010PropOp33
 70
     1
102
RTVSPost2010Prop34
280
     0
102
RTVSPost2010PropOp34
 70
     1
102
RTVSPost2010Prop35
280
     0
102
RTVSPost2010PropOp35
 70
     1
102
RTVSPost2010Prop36
280
     0
102
RTVSPost2010PropOp36
 70
     1
102
RTVSPost2010Prop37
 90
       50
102
RTVSPost2010PropOp37
 70
     1
102
RTVSPost2010Prop38
140
0.0
102
RTVSPost2010PropOp38
 70
     1
102
RTVSPost2010Prop39
140
1.0
102
RTVSPost2010PropOp39
 70
     1
102
RTVSPost2010Prop40
 90
        0
102
RTVSPost2010PropOp40
 70
     1
102
RTVSPost2010Prop41ColorIndex
 90
       18
102
RTVSPost2010Prop41ColorRGB
 90
        0
102
RTVSPost2010PropOp41
 70
     1
102
RTVSPost2010Prop42
 90
       50
102
RTVSPost2010PropOp42
 70
     1
102
RTVSPost2010Prop43
 90
        3
102
RTVSPost2010PropOp43
 70
     1
102
RTVSPost2010Prop44ColorIndex
 90
        5
102
RTVSPost2010Prop44ColorRGB
 90
      255
102
RTVSPost2010PropOp44
 70
     1
102
RTVSPost2010Prop45
280
     0
102
RTVSPost2010PropOp45
 70
     1
102
RTVSPost2010Prop46
 90
       50
102
RTVSPost2010PropOp46
 70
     1
102
RTVSPost2010Prop47
 90
       50
102
RTVSPost2010PropOp47
 70
     1
102
RTVSPost2010Prop48
 90
       50
102
RTVSPost2010PropOp48
 70
     1
102
RTVSPost2010Prop49
280
     0
102
RTVSPost2010PropOp49
 70
     1
102
RTVSPost2010Prop50
 90
       50
102
RTVSPost2010PropOp50
 70
     1
102
RTVSPost2010Prop51ColorIndex
 90
      256
102
RTVSPost2010Prop51ColorRGB
 90
-16777216
102
RTVSPost2010PropOp51
 70
     0
102
RTVSPost2010Prop52
140
1.0
102
RTVSPost2010PropOp52
 70
     0
102
RTVSPost2010Prop53
 90
        2
102
RTVSPost2010PropOp53
 70
     1
102
RTVSPost2010Prop54
  1
strokes_ogs.tif
102
RTVSPost2010PropOp54
 70
     1
102
RTVSPost2010Prop55
280
     0
102
RTVSPost2010PropOp55
 70
     1
102
RTVSPost2010Prop56
140
1.0
102
RTVSPost2010PropOp56
 70
     1
102
RTVSPost2010Prop57
140
1.0
102
RTVSPost2010PropOp57
 70
     1
  0
XRECORD
  5
9774A
102
{ACAD_REACTORS
330
87B36
102
}
330
87B36
100
AcDbXrecord
280
     1
102
RTVSPropertyOp0
 70
     1
102
RTVSPropertyOp1
 70
     1
102
RTVSPropertyOp2
 70
     1
102
RTVSPropertyOp3
 70
     1
102
RTVSPropertyOp4
 70
     1
102
RTVSPropertyOp5
 70
     1
102
RTVSPropertyOp6
 70
     1
102
RTVSPropertyOp7
 70
     1
102
RTVSPropertyOp8
 70
     1
102
RTVSPropertyOp9
 70
     1
102
RTVSPropertyOp10
 70
     1
102
RTVSPropertyOp11
 70
     1
102
RTVSPropertyOp12
 70
     1
102
RTVSPropertyOp13
 70
     1
102
RTVSPropertyOp14
 70
     1
102
RTVSPropertyOp15
 70
     1
102
RTVSPropertyOp16
 70
     1
102
RTVSPropertyOp17
 70
     1
102
RTVSPropertyOp18
 70
     1
102
RTVSPropertyOp19
 70
     1
102
RTVSPropertyOp20
 70
     1
102
RTVSPropertyOp21
 70
     1
102
RTVSPropertyOp22
 70
     1
102
RTVSPropertyOp23
 70
     1
102
RTVSPropertyOp24
 70
     1
102
RTVSPropertyOp25
 70
     1
102
RTVSPropertyOp26
 70
     1
102
RTVSPropertyOp27
 70
     1
102
RTVSPropertyOp28
 70
     1
102
RTVSPropertyOp29
 70
     1
102
RTVSPropertyOp30
 70
     1
102
RTVSPropertyOp31
 70
     1
102
RTVSPropertyOp32
 70
     1
102
RTVSPropertyOp33
 70
     1
102
RTVSPropertyOp34
 70
     1
102
RTVSPropertyOp35
 70
     1
102
RTVSPropertyOp36
 70
     1
102
RTVSPropertyOp37
 70
     1
102
RTVSPropertyOp38
 70
     1
102
RTVSPropertyOp39
 70
     1
102
RTVSPropertyOp40
 70
     1
102
RTVSPropertyOp41
 70
     1
102
RTVSPropertyOp42
 70
     1
102
RTVSPropertyOp43
 70
     1
102
RTVSPropertyOp44
 70
     1
102
RTVSPropertyOp45
 70
     1
102
RTVSPropertyOp46
 70
     1
102
RTVSPropertyOp47
 70
     1
102
RTVSPropertyOp48
 70
     1
102
RTVSPropertyOp49
 70
     1
102
RTVSPropertyOp50
 70
     1
102
RTVSPropertyOp51
 70
     0
102
RTVSPropertyOp52
 70
     0
102
RTVSPropertyOp53
 70
     1
102
RTVSPropertyOp54
 70
     1
102
RTVSPropertyOp55
 70
     1
102
RTVSPropertyOp56
 70
     1
102
RTVSPropertyOp57
 70
     1
102
RTVSPost2010Prop28
280
     0
102
RTVSPost2010PropOp28
 70
     1
102
RTVSPost2010Prop29
280
     1
102
RTVSPost2010PropOp29
 70
     1
102
RTVSPost2010Prop30
280
     1
102
RTVSPost2010PropOp30
 70
     1
102
RTVSPost2010Prop31
280
     0
102
RTVSPost2010PropOp31
 70
     1
102
RTVSPost2010Prop32
280
     0
102
RTVSPost2010PropOp32
 70
     1
102
RTVSPost2010Prop33
280
     0
102
RTVSPost2010PropOp33
 70
     1
102
RTVSPost2010Prop34
280
     0
102
RTVSPost2010PropOp34
 70
     1
102
RTVSPost2010Prop35
280
     0
102
RTVSPost2010PropOp35
 70
     1
102
RTVSPost2010Prop36
280
     0
102
RTVSPost2010PropOp36
 70
     1
102
RTVSPost2010Prop37
 90
       50
102
RTVSPost2010PropOp37
 70
     1
102
RTVSPost2010Prop38
140
0.0
102
RTVSPost2010PropOp38
 70
     1
102
RTVSPost2010Prop39
140
1.0
102
RTVSPost2010PropOp39
 70
     1
102
RTVSPost2010Prop40
 90
        0
102
RTVSPost2010PropOp40
 70
     1
102
RTVSPost2010Prop41ColorIndex
 90
       18
102
RTVSPost2010Prop41ColorRGB
 90
        0
102
RTVSPost2010PropOp41
 70
     1
102
RTVSPost2010Prop42
 90
       50
102
RTVSPost2010PropOp42
 70
     1
102
RTVSPost2010Prop43
 90
        3
102
RTVSPost2010PropOp43
 70
     1
102
RTVSPost2010Prop44ColorIndex
 90
        5
102
RTVSPost2010Prop44ColorRGB
 90
      255
102
RTVSPost2010PropOp44
 70
     1
102
RTVSPost2010Prop45
280
     0
102
RTVSPost2010PropOp45
 70
     1
102
RTVSPost2010Prop46
 90
       50
102
RTVSPost2010PropOp46
 70
     1
102
RTVSPost2010Prop47
 90
       50
102
RTVSPost2010PropOp47
 70
     1
102
RTVSPost2010Prop48
 90
       50
102
RTVSPost2010PropOp48
 70
     1
102
RTVSPost2010Prop49
280
     0
102
RTVSPost2010PropOp49
 70
     1
102
RTVSPost2010Prop50
 90
       50
102
RTVSPost2010PropOp50
 70
     1
102
RTVSPost2010Prop51ColorIndex
 90
      256
102
RTVSPost2010Prop51ColorRGB
 90
-16777216
102
RTVSPost2010PropOp51
 70
     0
102
RTVSPost2010Prop52
140
1.0
102
RTVSPost2010PropOp52
 70
     0
102
RTVSPost2010Prop53
 90
        2
102
RTVSPost2010PropOp53
 70
     1
102
RTVSPost2010Prop54
  1
strokes_ogs.tif
102
RTVSPost2010PropOp54
 70
     1
102
RTVSPost2010Prop55
280
     0
102
RTVSPost2010PropOp55
 70
     1
102
RTVSPost2010Prop56
140
1.0
102
RTVSPost2010PropOp56
 70
     1
102
RTVSPost2010Prop57
140
1.0
102
RTVSPost2010PropOp57
 70
     1
  0
XRECORD
  5
9774B
102
{ACAD_REACTORS
330
87B34
102
}
330
87B34
100
AcDbXrecord
280
     1
102
RTVSPropertyOp0
 70
     1
102
RTVSPropertyOp1
 70
     1
102
RTVSPropertyOp2
 70
     1
102
RTVSPropertyOp3
 70
     1
102
RTVSPropertyOp4
 70
     1
102
RTVSPropertyOp5
 70
     1
102
RTVSPropertyOp6
 70
     1
102
RTVSPropertyOp7
 70
     1
102
RTVSPropertyOp8
 70
     1
102
RTVSPropertyOp9
 70
     1
102
RTVSPropertyOp10
 70
     1
102
RTVSPropertyOp11
 70
     1
102
RTVSPropertyOp12
 70
     1
102
RTVSPropertyOp13
 70
     1
102
RTVSPropertyOp14
 70
     1
102
RTVSPropertyOp15
 70
     1
102
RTVSPropertyOp16
 70
     1
102
RTVSPropertyOp17
 70
     1
102
RTVSPropertyOp18
 70
     1
102
RTVSPropertyOp19
 70
     1
102
RTVSPropertyOp20
 70
     1
102
RTVSPropertyOp21
 70
     1
102
RTVSPropertyOp22
 70
     1
102
RTVSPropertyOp23
 70
     1
102
RTVSPropertyOp24
 70
     1
102
RTVSPropertyOp25
 70
     1
102
RTVSPropertyOp26
 70
     1
102
RTVSPropertyOp27
 70
     1
102
RTVSPropertyOp28
 70
     1
102
RTVSPropertyOp29
 70
     1
102
RTVSPropertyOp30
 70
     1
102
RTVSPropertyOp31
 70
     1
102
RTVSPropertyOp32
 70
     1
102
RTVSPropertyOp33
 70
     1
102
RTVSPropertyOp34
 70
     1
102
RTVSPropertyOp35
 70
     1
102
RTVSPropertyOp36
 70
     1
102
RTVSPropertyOp37
 70
     1
102
RTVSPropertyOp38
 70
     1
102
RTVSPropertyOp39
 70
     1
102
RTVSPropertyOp40
 70
     1
102
RTVSPropertyOp41
 70
     1
102
RTVSPropertyOp42
 70
     1
102
RTVSPropertyOp43
 70
     1
102
RTVSPropertyOp44
 70
     1
102
RTVSPropertyOp45
 70
     1
102
RTVSPropertyOp46
 70
     1
102
RTVSPropertyOp47
 70
     1
102
RTVSPropertyOp48
 70
     1
102
RTVSPropertyOp49
 70
     1
102
RTVSPropertyOp50
 70
     1
102
RTVSPropertyOp51
 70
     0
102
RTVSPropertyOp52
 70
     0
102
RTVSPropertyOp53
 70
     1
102
RTVSPropertyOp54
 70
     1
102
RTVSPropertyOp55
 70
     1
102
RTVSPropertyOp56
 70
     1
102
RTVSPropertyOp57
 70
     1
102
RTVSPost2010Prop28
280
     0
102
RTVSPost2010PropOp28
 70
     1
102
RTVSPost2010Prop29
280
     1
102
RTVSPost2010PropOp29
 70
     1
102
RTVSPost2010Prop30
280
     1
102
RTVSPost2010PropOp30
 70
     1
102
RTVSPost2010Prop31
280
     0
102
RTVSPost2010PropOp31
 70
     1
102
RTVSPost2010Prop32
280
     0
102
RTVSPost2010PropOp32
 70
     1
102
RTVSPost2010Prop33
280
     0
102
RTVSPost2010PropOp33
 70
     1
102
RTVSPost2010Prop34
280
     0
102
RTVSPost2010PropOp34
 70
     1
102
RTVSPost2010Prop35
280
     0
102
RTVSPost2010PropOp35
 70
     1
102
RTVSPost2010Prop36
280
     0
102
RTVSPost2010PropOp36
 70
     1
102
RTVSPost2010Prop37
 90
       50
102
RTVSPost2010PropOp37
 70
     1
102
RTVSPost2010Prop38
140
0.0
102
RTVSPost2010PropOp38
 70
     1
102
RTVSPost2010Prop39
140
1.0
102
RTVSPost2010PropOp39
 70
     1
102
RTVSPost2010Prop40
 90
        0
102
RTVSPost2010PropOp40
 70
     1
102
RTVSPost2010Prop41ColorIndex
 90
       18
102
RTVSPost2010Prop41ColorRGB
 90
        0
102
RTVSPost2010PropOp41
 70
     1
102
RTVSPost2010Prop42
 90
       50
102
RTVSPost2010PropOp42
 70
     1
102
RTVSPost2010Prop43
 90
        3
102
RTVSPost2010PropOp43
 70
     1
102
RTVSPost2010Prop44ColorIndex
 90
        5
102
RTVSPost2010Prop44ColorRGB
 90
      255
102
RTVSPost2010PropOp44
 70
     1
102
RTVSPost2010Prop45
280
     0
102
RTVSPost2010PropOp45
 70
     1
102
RTVSPost2010Prop46
 90
       50
102
RTVSPost2010PropOp46
 70
     1
102
RTVSPost2010Prop47
 90
       50
102
RTVSPost2010PropOp47
 70
     1
102
RTVSPost2010Prop48
 90
       50
102
RTVSPost2010PropOp48
 70
     1
102
RTVSPost2010Prop49
280
     0
102
RTVSPost2010PropOp49
 70
     1
102
RTVSPost2010Prop50
 90
       50
102
RTVSPost2010PropOp50
 70
     1
102
RTVSPost2010Prop51ColorIndex
 90
      256
102
RTVSPost2010Prop51ColorRGB
 90
-16777216
102
RTVSPost2010PropOp51
 70
     0
102
RTVSPost2010Prop52
140
1.0
102
RTVSPost2010PropOp52
 70
     0
102
RTVSPost2010Prop53
 90
        2
102
RTVSPost2010PropOp53
 70
     1
102
RTVSPost2010Prop54
  1
strokes_ogs.tif
102
RTVSPost2010PropOp54
 70
     1
102
RTVSPost2010Prop55
280
     0
102
RTVSPost2010PropOp55
 70
     1
102
RTVSPost2010Prop56
140
1.0
102
RTVSPost2010PropOp56
 70
     1
102
RTVSPost2010Prop57
140
1.0
102
RTVSPost2010PropOp57
 70
     1
  0
XRECORD
  5
9774C
102
{ACAD_REACTORS
330
87B2E
102
}
330
87B2E
100
AcDbXrecord
280
     1
102
RTVSPropertyOp0
 70
     1
102
RTVSPropertyOp1
 70
     1
102
RTVSPropertyOp2
 70
     1
102
RTVSPropertyOp3
 70
     1
102
RTVSPropertyOp4
 70
     1
102
RTVSPropertyOp5
 70
     1
102
RTVSPropertyOp6
 70
     1
102
RTVSPropertyOp7
 70
     1
102
RTVSPropertyOp8
 70
     1
102
RTVSPropertyOp9
 70
     1
102
RTVSPropertyOp10
 70
     1
102
RTVSPropertyOp11
 70
     1
102
RTVSPropertyOp12
 70
     1
102
RTVSPropertyOp13
 70
     1
102
RTVSPropertyOp14
 70
     1
102
RTVSPropertyOp15
 70
     1
102
RTVSPropertyOp16
 70
     1
102
RTVSPropertyOp17
 70
     1
102
RTVSPropertyOp18
 70
     1
102
RTVSPropertyOp19
 70
     1
102
RTVSPropertyOp20
 70
     1
102
RTVSPropertyOp21
 70
     1
102
RTVSPropertyOp22
 70
     1
102
RTVSPropertyOp23
 70
     1
102
RTVSPropertyOp24
 70
     1
102
RTVSPropertyOp25
 70
     1
102
RTVSPropertyOp26
 70
     1
102
RTVSPropertyOp27
 70
     1
102
RTVSPropertyOp28
 70
     1
102
RTVSPropertyOp29
 70
     1
102
RTVSPropertyOp30
 70
     1
102
RTVSPropertyOp31
 70
     1
102
RTVSPropertyOp32
 70
     1
102
RTVSPropertyOp33
 70
     1
102
RTVSPropertyOp34
 70
     1
102
RTVSPropertyOp35
 70
     1
102
RTVSPropertyOp36
 70
     1
102
RTVSPropertyOp37
 70
     1
102
RTVSPropertyOp38
 70
     1
102
RTVSPropertyOp39
 70
     1
102
RTVSPropertyOp40
 70
     1
102
RTVSPropertyOp41
 70
     1
102
RTVSPropertyOp42
 70
     1
102
RTVSPropertyOp43
 70
     1
102
RTVSPropertyOp44
 70
     1
102
RTVSPropertyOp45
 70
     1
102
RTVSPropertyOp46
 70
     1
102
RTVSPropertyOp47
 70
     1
102
RTVSPropertyOp48
 70
     1
102
RTVSPropertyOp49
 70
     1
102
RTVSPropertyOp50
 70
     1
102
RTVSPropertyOp51
 70
     0
102
RTVSPropertyOp52
 70
     0
102
RTVSPropertyOp53
 70
     1
102
RTVSPropertyOp54
 70
     1
102
RTVSPropertyOp55
 70
     1
102
RTVSPropertyOp56
 70
     1
102
RTVSPropertyOp57
 70
     1
102
RTVSPost2010Prop28
280
     0
102
RTVSPost2010PropOp28
 70
     1
102
RTVSPost2010Prop29
280
     1
102
RTVSPost2010PropOp29
 70
     1
102
RTVSPost2010Prop30
280
     1
102
RTVSPost2010PropOp30
 70
     1
102
RTVSPost2010Prop31
280
     0
102
RTVSPost2010PropOp31
 70
     1
102
RTVSPost2010Prop32
280
     0
102
RTVSPost2010PropOp32
 70
     1
102
RTVSPost2010Prop33
280
     0
102
RTVSPost2010PropOp33
 70
     1
102
RTVSPost2010Prop34
280
     0
102
RTVSPost2010PropOp34
 70
     1
102
RTVSPost2010Prop35
280
     0
102
RTVSPost2010PropOp35
 70
     1
102
RTVSPost2010Prop36
280
     0
102
RTVSPost2010PropOp36
 70
     1
102
RTVSPost2010Prop37
 90
       50
102
RTVSPost2010PropOp37
 70
     1
102
RTVSPost2010Prop38
140
0.0
102
RTVSPost2010PropOp38
 70
     1
102
RTVSPost2010Prop39
140
1.0
102
RTVSPost2010PropOp39
 70
     1
102
RTVSPost2010Prop40
 90
        0
102
RTVSPost2010PropOp40
 70
     1
102
RTVSPost2010Prop41ColorIndex
 90
       18
102
RTVSPost2010Prop41ColorRGB
 90
        0
102
RTVSPost2010PropOp41
 70
     1
102
RTVSPost2010Prop42
 90
       50
102
RTVSPost2010PropOp42
 70
     1
102
RTVSPost2010Prop43
 90
        3
102
RTVSPost2010PropOp43
 70
     1
102
RTVSPost2010Prop44ColorIndex
 90
        5
102
RTVSPost2010Prop44ColorRGB
 90
      255
102
RTVSPost2010PropOp44
 70
     1
102
RTVSPost2010Prop45
280
     0
102
RTVSPost2010PropOp45
 70
     1
102
RTVSPost2010Prop46
 90
       50
102
RTVSPost2010PropOp46
 70
     1
102
RTVSPost2010Prop47
 90
       50
102
RTVSPost2010PropOp47
 70
     1
102
RTVSPost2010Prop48
 90
       50
102
RTVSPost2010PropOp48
 70
     1
102
RTVSPost2010Prop49
280
     0
102
RTVSPost2010PropOp49
 70
     1
102
RTVSPost2010Prop50
 90
       50
102
RTVSPost2010PropOp50
 70
     1
102
RTVSPost2010Prop51ColorIndex
 90
      256
102
RTVSPost2010Prop51ColorRGB
 90
-16777216
102
RTVSPost2010PropOp51
 70
     0
102
RTVSPost2010Prop52
140
1.0
102
RTVSPost2010PropOp52
 70
     0
102
RTVSPost2010Prop53
 90
        2
102
RTVSPost2010PropOp53
 70
     1
102
RTVSPost2010Prop54
  1
strokes_ogs.tif
102
RTVSPost2010PropOp54
 70
     1
102
RTVSPost2010Prop55
280
     0
102
RTVSPost2010PropOp55
 70
     1
102
RTVSPost2010Prop56
140
1.0
102
RTVSPost2010PropOp56
 70
     1
102
RTVSPost2010Prop57
140
1.0
102
RTVSPost2010PropOp57
 70
     1
  0
XRECORD
  5
9774D
102
{ACAD_REACTORS
330
87B30
102
}
330
87B30
100
AcDbXrecord
280
     1
102
RTVSPropertyOp0
 70
     1
102
RTVSPropertyOp1
 70
     1
102
RTVSPropertyOp2
 70
     1
102
RTVSPropertyOp3
 70
     1
102
RTVSPropertyOp4
 70
     1
102
RTVSPropertyOp5
 70
     1
102
RTVSPropertyOp6
 70
     1
102
RTVSPropertyOp7
 70
     1
102
RTVSPropertyOp8
 70
     1
102
RTVSPropertyOp9
 70
     1
102
RTVSPropertyOp10
 70
     1
102
RTVSPropertyOp11
 70
     1
102
RTVSPropertyOp12
 70
     1
102
RTVSPropertyOp13
 70
     1
102
RTVSPropertyOp14
 70
     1
102
RTVSPropertyOp15
 70
     1
102
RTVSPropertyOp16
 70
     1
102
RTVSPropertyOp17
 70
     1
102
RTVSPropertyOp18
 70
     1
102
RTVSPropertyOp19
 70
     1
102
RTVSPropertyOp20
 70
     1
102
RTVSPropertyOp21
 70
     1
102
RTVSPropertyOp22
 70
     1
102
RTVSPropertyOp23
 70
     1
102
RTVSPropertyOp24
 70
     1
102
RTVSPropertyOp25
 70
     1
102
RTVSPropertyOp26
 70
     1
102
RTVSPropertyOp27
 70
     1
102
RTVSPropertyOp28
 70
     1
102
RTVSPropertyOp29
 70
     1
102
RTVSPropertyOp30
 70
     1
102
RTVSPropertyOp31
 70
     1
102
RTVSPropertyOp32
 70
     1
102
RTVSPropertyOp33
 70
     1
102
RTVSPropertyOp34
 70
     1
102
RTVSPropertyOp35
 70
     1
102
RTVSPropertyOp36
 70
     1
102
RTVSPropertyOp37
 70
     1
102
RTVSPropertyOp38
 70
     1
102
RTVSPropertyOp39
 70
     1
102
RTVSPropertyOp40
 70
     1
102
RTVSPropertyOp41
 70
     1
102
RTVSPropertyOp42
 70
     1
102
RTVSPropertyOp43
 70
     1
102
RTVSPropertyOp44
 70
     1
102
RTVSPropertyOp45
 70
     1
102
RTVSPropertyOp46
 70
     1
102
RTVSPropertyOp47
 70
     1
102
RTVSPropertyOp48
 70
     1
102
RTVSPropertyOp49
 70
     1
102
RTVSPropertyOp50
 70
     1
102
RTVSPropertyOp51
 70
     0
102
RTVSPropertyOp52
 70
     0
102
RTVSPropertyOp53
 70
     1
102
RTVSPropertyOp54
 70
     1
102
RTVSPropertyOp55
 70
     1
102
RTVSPropertyOp56
 70
     1
102
RTVSPropertyOp57
 70
     1
102
RTVSPost2010Prop28
280
     0
102
RTVSPost2010PropOp28
 70
     1
102
RTVSPost2010Prop29
280
     1
102
RTVSPost2010PropOp29
 70
     1
102
RTVSPost2010Prop30
280
     1
102
RTVSPost2010PropOp30
 70
     1
102
RTVSPost2010Prop31
280
     0
102
RTVSPost2010PropOp31
 70
     1
102
RTVSPost2010Prop32
280
     0
102
RTVSPost2010PropOp32
 70
     1
102
RTVSPost2010Prop33
280
     0
102
RTVSPost2010PropOp33
 70
     1
102
RTVSPost2010Prop34
280
     0
102
RTVSPost2010PropOp34
 70
     1
102
RTVSPost2010Prop35
280
     0
102
RTVSPost2010PropOp35
 70
     1
102
RTVSPost2010Prop36
280
     0
102
RTVSPost2010PropOp36
 70
     1
102
RTVSPost2010Prop37
 90
       50
102
RTVSPost2010PropOp37
 70
     1
102
RTVSPost2010Prop38
140
0.0
102
RTVSPost2010PropOp38
 70
     1
102
RTVSPost2010Prop39
140
1.0
102
RTVSPost2010PropOp39
 70
     1
102
RTVSPost2010Prop40
 90
        0
102
RTVSPost2010PropOp40
 70
     1
102
RTVSPost2010Prop41ColorIndex
 90
       18
102
RTVSPost2010Prop41ColorRGB
 90
        0
102
RTVSPost2010PropOp41
 70
     1
102
RTVSPost2010Prop42
 90
       50
102
RTVSPost2010PropOp42
 70
     1
102
RTVSPost2010Prop43
 90
        3
102
RTVSPost2010PropOp43
 70
     1
102
RTVSPost2010Prop44ColorIndex
 90
        5
102
RTVSPost2010Prop44ColorRGB
 90
      255
102
RTVSPost2010PropOp44
 70
     1
102
RTVSPost2010Prop45
280
     0
102
RTVSPost2010PropOp45
 70
     1
102
RTVSPost2010Prop46
 90
       50
102
RTVSPost2010PropOp46
 70
     1
102
RTVSPost2010Prop47
 90
       50
102
RTVSPost2010PropOp47
 70
     1
102
RTVSPost2010Prop48
 90
       50
102
RTVSPost2010PropOp48
 70
     1
102
RTVSPost2010Prop49
280
     0
102
RTVSPost2010PropOp49
 70
     1
102
RTVSPost2010Prop50
 90
       50
102
RTVSPost2010PropOp50
 70
     1
102
RTVSPost2010Prop51ColorIndex
 90
      256
102
RTVSPost2010Prop51ColorRGB
 90
-16777216
102
RTVSPost2010PropOp51
 70
     0
102
RTVSPost2010Prop52
140
1.0
102
RTVSPost2010PropOp52
 70
     0
102
RTVSPost2010Prop53
 90
        2
102
RTVSPost2010PropOp53
 70
     1
102
RTVSPost2010Prop54
  1
strokes_ogs.tif
102
RTVSPost2010PropOp54
 70
     1
102
RTVSPost2010Prop55
280
     0
102
RTVSPost2010PropOp55
 70
     1
102
RTVSPost2010Prop56
140
1.0
102
RTVSPost2010PropOp56
 70
     1
102
RTVSPost2010Prop57
140
1.0
102
RTVSPost2010PropOp57
 70
     1
  0
XRECORD
  5
9774E
102
{ACAD_REACTORS
330
87B26
102
}
330
87B26
100
AcDbXrecord
280
     1
102
RTVSPropertyOp0
 70
     1
102
RTVSPropertyOp1
 70
     1
102
RTVSPropertyOp2
 70
     1
102
RTVSPropertyOp3
 70
     1
102
RTVSPropertyOp4
 70
     1
102
RTVSPropertyOp5
 70
     1
102
RTVSPropertyOp6
 70
     1
102
RTVSPropertyOp7
 70
     1
102
RTVSPropertyOp8
 70
     1
102
RTVSPropertyOp9
 70
     1
102
RTVSPropertyOp10
 70
     1
102
RTVSPropertyOp11
 70
     1
102
RTVSPropertyOp12
 70
     1
102
RTVSPropertyOp13
 70
     1
102
RTVSPropertyOp14
 70
     1
102
RTVSPropertyOp15
 70
     1
102
RTVSPropertyOp16
 70
     1
102
RTVSPropertyOp17
 70
     1
102
RTVSPropertyOp18
 70
     1
102
RTVSPropertyOp19
 70
     1
102
RTVSPropertyOp20
 70
     1
102
RTVSPropertyOp21
 70
     1
102
RTVSPropertyOp22
 70
     1
102
RTVSPropertyOp23
 70
     1
102
RTVSPropertyOp24
 70
     1
102
RTVSPropertyOp25
 70
     1
102
RTVSPropertyOp26
 70
     1
102
RTVSPropertyOp27
 70
     1
102
RTVSPropertyOp28
 70
     1
102
RTVSPropertyOp29
 70
     1
102
RTVSPropertyOp30
 70
     1
102
RTVSPropertyOp31
 70
     1
102
RTVSPropertyOp32
 70
     1
102
RTVSPropertyOp33
 70
     1
102
RTVSPropertyOp34
 70
     1
102
RTVSPropertyOp35
 70
     1
102
RTVSPropertyOp36
 70
     1
102
RTVSPropertyOp37
 70
     1
102
RTVSPropertyOp38
 70
     1
102
RTVSPropertyOp39
 70
     1
102
RTVSPropertyOp40
 70
     1
102
RTVSPropertyOp41
 70
     1
102
RTVSPropertyOp42
 70
     1
102
RTVSPropertyOp43
 70
     1
102
RTVSPropertyOp44
 70
     1
102
RTVSPropertyOp45
 70
     1
102
RTVSPropertyOp46
 70
     1
102
RTVSPropertyOp47
 70
     1
102
RTVSPropertyOp48
 70
     1
102
RTVSPropertyOp49
 70
     1
102
RTVSPropertyOp50
 70
     1
102
RTVSPropertyOp51
 70
     0
102
RTVSPropertyOp52
 70
     0
102
RTVSPropertyOp53
 70
     1
102
RTVSPropertyOp54
 70
     1
102
RTVSPropertyOp55
 70
     1
102
RTVSPropertyOp56
 70
     1
102
RTVSPropertyOp57
 70
     1
102
RTVSPost2010Prop28
280
     0
102
RTVSPost2010PropOp28
 70
     1
102
RTVSPost2010Prop29
280
     1
102
RTVSPost2010PropOp29
 70
     1
102
RTVSPost2010Prop30
280
     1
102
RTVSPost2010PropOp30
 70
     1
102
RTVSPost2010Prop31
280
     0
102
RTVSPost2010PropOp31
 70
     1
102
RTVSPost2010Prop32
280
     0
102
RTVSPost2010PropOp32
 70
     1
102
RTVSPost2010Prop33
280
     0
102
RTVSPost2010PropOp33
 70
     1
102
RTVSPost2010Prop34
280
     0
102
RTVSPost2010PropOp34
 70
     1
102
RTVSPost2010Prop35
280
     0
102
RTVSPost2010PropOp35
 70
     1
102
RTVSPost2010Prop36
280
     0
102
RTVSPost2010PropOp36
 70
     1
102
RTVSPost2010Prop37
 90
       50
102
RTVSPost2010PropOp37
 70
     1
102
RTVSPost2010Prop38
140
0.0
102
RTVSPost2010PropOp38
 70
     1
102
RTVSPost2010Prop39
140
1.0
102
RTVSPost2010PropOp39
 70
     1
102
RTVSPost2010Prop40
 90
        0
102
RTVSPost2010PropOp40
 70
     1
102
RTVSPost2010Prop41ColorIndex
 90
       18
102
RTVSPost2010Prop41ColorRGB
 90
        0
102
RTVSPost2010PropOp41
 70
     1
102
RTVSPost2010Prop42
 90
       50
102
RTVSPost2010PropOp42
 70
     1
102
RTVSPost2010Prop43
 90
        3
102
RTVSPost2010PropOp43
 70
     1
102
RTVSPost2010Prop44ColorIndex
 90
        5
102
RTVSPost2010Prop44ColorRGB
 90
      255
102
RTVSPost2010PropOp44
 70
     1
102
RTVSPost2010Prop45
280
     0
102
RTVSPost2010PropOp45
 70
     1
102
RTVSPost2010Prop46
 90
       50
102
RTVSPost2010PropOp46
 70
     1
102
RTVSPost2010Prop47
 90
       50
102
RTVSPost2010PropOp47
 70
     1
102
RTVSPost2010Prop48
 90
       50
102
RTVSPost2010PropOp48
 70
     1
102
RTVSPost2010Prop49
280
     0
102
RTVSPost2010PropOp49
 70
     1
102
RTVSPost2010Prop50
 90
       50
102
RTVSPost2010PropOp50
 70
     1
102
RTVSPost2010Prop51ColorIndex
 90
      256
102
RTVSPost2010Prop51ColorRGB
 90
-16777216
102
RTVSPost2010PropOp51
 70
     0
102
RTVSPost2010Prop52
140
1.0
102
RTVSPost2010PropOp52
 70
     0
102
RTVSPost2010Prop53
 90
        2
102
RTVSPost2010PropOp53
 70
     1
102
RTVSPost2010Prop54
  1
strokes_ogs.tif
102
RTVSPost2010PropOp54
 70
     1
102
RTVSPost2010Prop55
280
     0
102
RTVSPost2010PropOp55
 70
     1
102
RTVSPost2010Prop56
140
1.0
102
RTVSPost2010PropOp56
 70
     1
102
RTVSPost2010Prop57
140
1.0
102
RTVSPost2010PropOp57
 70
     1
  0
XRECORD
  5
9774F
102
{ACAD_REACTORS
330
87B1A
102
}
330
87B1A
100
AcDbXrecord
280
     1
102
RTVSPropertyOp0
 70
     1
102
RTVSPropertyOp1
 70
     1
102
RTVSPropertyOp2
 70
     1
102
RTVSPropertyOp3
 70
     1
102
RTVSPropertyOp4
 70
     1
102
RTVSPropertyOp5
 70
     1
102
RTVSPropertyOp6
 70
     1
102
RTVSPropertyOp7
 70
     1
102
RTVSPropertyOp8
 70
     1
102
RTVSPropertyOp9
 70
     1
102
RTVSPropertyOp10
 70
     1
102
RTVSPropertyOp11
 70
     1
102
RTVSPropertyOp12
 70
     1
102
RTVSPropertyOp13
 70
     1
102
RTVSPropertyOp14
 70
     1
102
RTVSPropertyOp15
 70
     1
102
RTVSPropertyOp16
 70
     1
102
RTVSPropertyOp17
 70
     1
102
RTVSPropertyOp18
 70
     1
102
RTVSPropertyOp19
 70
     1
102
RTVSPropertyOp20
 70
     1
102
RTVSPropertyOp21
 70
     1
102
RTVSPropertyOp22
 70
     1
102
RTVSPropertyOp23
 70
     1
102
RTVSPropertyOp24
 70
     1
102
RTVSPropertyOp25
 70
     1
102
RTVSPropertyOp26
 70
     1
102
RTVSPropertyOp27
 70
     1
102
RTVSPropertyOp28
 70
     1
102
RTVSPropertyOp29
 70
     1
102
RTVSPropertyOp30
 70
     1
102
RTVSPropertyOp31
 70
     1
102
RTVSPropertyOp32
 70
     1
102
RTVSPropertyOp33
 70
     1
102
RTVSPropertyOp34
 70
     1
102
RTVSPropertyOp35
 70
     1
102
RTVSPropertyOp36
 70
     1
102
RTVSPropertyOp37
 70
     1
102
RTVSPropertyOp38
 70
     1
102
RTVSPropertyOp39
 70
     1
102
RTVSPropertyOp40
 70
     1
102
RTVSPropertyOp41
 70
     1
102
RTVSPropertyOp42
 70
     1
102
RTVSPropertyOp43
 70
     1
102
RTVSPropertyOp44
 70
     1
102
RTVSPropertyOp45
 70
     1
102
RTVSPropertyOp46
 70
     1
102
RTVSPropertyOp47
 70
     1
102
RTVSPropertyOp48
 70
     1
102
RTVSPropertyOp49
 70
     1
102
RTVSPropertyOp50
 70
     1
102
RTVSPropertyOp51
 70
     0
102
RTVSPropertyOp52
 70
     0
102
RTVSPropertyOp53
 70
     1
102
RTVSPropertyOp54
 70
     1
102
RTVSPropertyOp55
 70
     1
102
RTVSPropertyOp56
 70
     1
102
RTVSPropertyOp57
 70
     1
102
RTVSPost2010Prop28
280
     0
102
RTVSPost2010PropOp28
 70
     1
102
RTVSPost2010Prop29
280
     1
102
RTVSPost2010PropOp29
 70
     1
102
RTVSPost2010Prop30
280
     1
102
RTVSPost2010PropOp30
 70
     1
102
RTVSPost2010Prop31
280
     0
102
RTVSPost2010PropOp31
 70
     1
102
RTVSPost2010Prop32
280
     0
102
RTVSPost2010PropOp32
 70
     1
102
RTVSPost2010Prop33
280
     0
102
RTVSPost2010PropOp33
 70
     1
102
RTVSPost2010Prop34
280
     0
102
RTVSPost2010PropOp34
 70
     1
102
RTVSPost2010Prop35
280
     0
102
RTVSPost2010PropOp35
 70
     1
102
RTVSPost2010Prop36
280
     0
102
RTVSPost2010PropOp36
 70
     1
102
RTVSPost2010Prop37
 90
       50
102
RTVSPost2010PropOp37
 70
     1
102
RTVSPost2010Prop38
140
0.0
102
RTVSPost2010PropOp38
 70
     1
102
RTVSPost2010Prop39
140
1.0
102
RTVSPost2010PropOp39
 70
     1
102
RTVSPost2010Prop40
 90
        0
102
RTVSPost2010PropOp40
 70
     1
102
RTVSPost2010Prop41ColorIndex
 90
       18
102
RTVSPost2010Prop41ColorRGB
 90
        0
102
RTVSPost2010PropOp41
 70
     1
102
RTVSPost2010Prop42
 90
       50
102
RTVSPost2010PropOp42
 70
     1
102
RTVSPost2010Prop43
 90
        3
102
RTVSPost2010PropOp43
 70
     1
102
RTVSPost2010Prop44ColorIndex
 90
        5
102
RTVSPost2010Prop44ColorRGB
 90
      255
102
RTVSPost2010PropOp44
 70
     1
102
RTVSPost2010Prop45
280
     0
102
RTVSPost2010PropOp45
 70
     1
102
RTVSPost2010Prop46
 90
       50
102
RTVSPost2010PropOp46
 70
     1
102
RTVSPost2010Prop47
 90
       50
102
RTVSPost2010PropOp47
 70
     1
102
RTVSPost2010Prop48
 90
       50
102
RTVSPost2010PropOp48
 70
     1
102
RTVSPost2010Prop49
280
     0
102
RTVSPost2010PropOp49
 70
     1
102
RTVSPost2010Prop50
 90
       50
102
RTVSPost2010PropOp50
 70
     1
102
RTVSPost2010Prop51ColorIndex
 90
      256
102
RTVSPost2010Prop51ColorRGB
 90
-16777216
102
RTVSPost2010PropOp51
 70
     0
102
RTVSPost2010Prop52
140
1.0
102
RTVSPost2010PropOp52
 70
     0
102
RTVSPost2010Prop53
 90
        2
102
RTVSPost2010PropOp53
 70
     1
102
RTVSPost2010Prop54
  1
strokes_ogs.tif
102
RTVSPost2010PropOp54
 70
     1
102
RTVSPost2010Prop55
280
     0
102
RTVSPost2010PropOp55
 70
     1
102
RTVSPost2010Prop56
140
1.0
102
RTVSPost2010PropOp56
 70
     1
102
RTVSPost2010Prop57
140
1.0
102
RTVSPost2010PropOp57
 70
     1
  0
XRECORD
  5
97750
102
{ACAD_REACTORS
330
87B32
102
}
330
87B32
100
AcDbXrecord
280
     1
102
RTVSPropertyOp0
 70
     1
102
RTVSPropertyOp1
 70
     1
102
RTVSPropertyOp2
 70
     1
102
RTVSPropertyOp3
 70
     1
102
RTVSPropertyOp4
 70
     1
102
RTVSPropertyOp5
 70
     1
102
RTVSPropertyOp6
 70
     1
102
RTVSPropertyOp7
 70
     1
102
RTVSPropertyOp8
 70
     1
102
RTVSPropertyOp9
 70
     1
102
RTVSPropertyOp10
 70
     1
102
RTVSPropertyOp11
 70
     1
102
RTVSPropertyOp12
 70
     1
102
RTVSPropertyOp13
 70
     1
102
RTVSPropertyOp14
 70
     1
102
RTVSPropertyOp15
 70
     1
102
RTVSPropertyOp16
 70
     1
102
RTVSPropertyOp17
 70
     1
102
RTVSPropertyOp18
 70
     1
102
RTVSPropertyOp19
 70
     1
102
RTVSPropertyOp20
 70
     1
102
RTVSPropertyOp21
 70
     1
102
RTVSPropertyOp22
 70
     1
102
RTVSPropertyOp23
 70
     1
102
RTVSPropertyOp24
 70
     1
102
RTVSPropertyOp25
 70
     1
102
RTVSPropertyOp26
 70
     1
102
RTVSPropertyOp27
 70
     1
102
RTVSPropertyOp28
 70
     1
102
RTVSPropertyOp29
 70
     1
102
RTVSPropertyOp30
 70
     1
102
RTVSPropertyOp31
 70
     1
102
RTVSPropertyOp32
 70
     1
102
RTVSPropertyOp33
 70
     1
102
RTVSPropertyOp34
 70
     1
102
RTVSPropertyOp35
 70
     1
102
RTVSPropertyOp36
 70
     1
102
RTVSPropertyOp37
 70
     1
102
RTVSPropertyOp38
 70
     1
102
RTVSPropertyOp39
 70
     1
102
RTVSPropertyOp40
 70
     1
102
RTVSPropertyOp41
 70
     1
102
RTVSPropertyOp42
 70
     1
102
RTVSPropertyOp43
 70
     1
102
RTVSPropertyOp44
 70
     1
102
RTVSPropertyOp45
 70
     1
102
RTVSPropertyOp46
 70
     1
102
RTVSPropertyOp47
 70
     1
102
RTVSPropertyOp48
 70
     1
102
RTVSPropertyOp49
 70
     1
102
RTVSPropertyOp50
 70
     1
102
RTVSPropertyOp51
 70
     0
102
RTVSPropertyOp52
 70
     0
102
RTVSPropertyOp53
 70
     1
102
RTVSPropertyOp54
 70
     1
102
RTVSPropertyOp55
 70
     1
102
RTVSPropertyOp56
 70
     1
102
RTVSPropertyOp57
 70
     1
102
RTVSPost2010Prop28
280
     0
102
RTVSPost2010PropOp28
 70
     1
102
RTVSPost2010Prop29
280
     1
102
RTVSPost2010PropOp29
 70
     1
102
RTVSPost2010Prop30
280
     1
102
RTVSPost2010PropOp30
 70
     1
102
RTVSPost2010Prop31
280
     0
102
RTVSPost2010PropOp31
 70
     1
102
RTVSPost2010Prop32
280
     0
102
RTVSPost2010PropOp32
 70
     1
102
RTVSPost2010Prop33
280
     0
102
RTVSPost2010PropOp33
 70
     1
102
RTVSPost2010Prop34
280
     0
102
RTVSPost2010PropOp34
 70
     1
102
RTVSPost2010Prop35
280
     0
102
RTVSPost2010PropOp35
 70
     1
102
RTVSPost2010Prop36
280
     0
102
RTVSPost2010PropOp36
 70
     1
102
RTVSPost2010Prop37
 90
       50
102
RTVSPost2010PropOp37
 70
     1
102
RTVSPost2010Prop38
140
0.0
102
RTVSPost2010PropOp38
 70
     1
102
RTVSPost2010Prop39
140
1.0
102
RTVSPost2010PropOp39
 70
     1
102
RTVSPost2010Prop40
 90
        0
102
RTVSPost2010PropOp40
 70
     1
102
RTVSPost2010Prop41ColorIndex
 90
       18
102
RTVSPost2010Prop41ColorRGB
 90
        0
102
RTVSPost2010PropOp41
 70
     1
102
RTVSPost2010Prop42
 90
       50
102
RTVSPost2010PropOp42
 70
     1
102
RTVSPost2010Prop43
 90
        3
102
RTVSPost2010PropOp43
 70
     1
102
RTVSPost2010Prop44ColorIndex
 90
        5
102
RTVSPost2010Prop44ColorRGB
 90
      255
102
RTVSPost2010PropOp44
 70
     1
102
RTVSPost2010Prop45
280
     0
102
RTVSPost2010PropOp45
 70
     1
102
RTVSPost2010Prop46
 90
       50
102
RTVSPost2010PropOp46
 70
     1
102
RTVSPost2010Prop47
 90
       50
102
RTVSPost2010PropOp47
 70
     1
102
RTVSPost2010Prop48
 90
       50
102
RTVSPost2010PropOp48
 70
     1
102
RTVSPost2010Prop49
280
     0
102
RTVSPost2010PropOp49
 70
     1
102
RTVSPost2010Prop50
 90
       50
102
RTVSPost2010PropOp50
 70
     1
102
RTVSPost2010Prop51ColorIndex
 90
      256
102
RTVSPost2010Prop51ColorRGB
 90
-16777216
102
RTVSPost2010PropOp51
 70
     0
102
RTVSPost2010Prop52
140
1.0
102
RTVSPost2010PropOp52
 70
     0
102
RTVSPost2010Prop53
 90
        2
102
RTVSPost2010PropOp53
 70
     1
102
RTVSPost2010Prop54
  1
strokes_ogs.tif
102
RTVSPost2010PropOp54
 70
     1
102
RTVSPost2010Prop55
280
     0
102
RTVSPost2010PropOp55
 70
     1
102
RTVSPost2010Prop56
140
1.0
102
RTVSPost2010PropOp56
 70
     1
102
RTVSPost2010Prop57
140
1.0
102
RTVSPost2010PropOp57
 70
     1
  0
ENDSEC
  0
EOF
