  0
SECTION
  2
HEADER
  9
$ACADVER
  1
AC1015
  9
$ACADMAINTVER
 70
    20
  9
$DWGCODEPAGE
  3
ANSI_932
  9
$INSBASE
 10
0.0
 20
0.0
 30
0.0
  9
$EXTMIN
 10
-35.91981069511872
 20
-141.4663706349368
 30
0.0
  9
$EXTMAX
 10
119.4333333333333
 20
188.2812311338427
 30
0.0
  9
$LIMMIN
 10
0.0
 20
0.0
  9
$LIMMAX
 10
420.0
 20
297.0
  9
$ORTHOMODE
 70
     1
  9
$REGENMODE
 70
     1
  9
$FILLMODE
 70
     1
  9
$QTEXTMODE
 70
     0
  9
$MIRRTEXT
 70
     1
  9
$LTSCALE
 40
1.0
  9
$ATTMODE
 70
     1
  9
$TEXTSIZE
 40
3.5
  9
$TRACEWID
 40
1.0
  9
$TEXTSTYLE
  7
simplex
  9
$CLAYER
  8
0
  9
$CELTYPE
  6
ByLayer
  9
$CECOLOR
 62
   256
  9
$CELTSCALE
 40
1.0
  9
$DISPSILH
 70
     0
  9
$DIMSCALE
 40
0.0
  9
$DIMASZ
 40
3.5
  9
$DIMEXO
 40
0.0
  9
$DIMDLI
 40
0.38
  9
$DIMRND
 40
0.0
  9
$DIMDLE
 40
0.0
  9
$DIMEXE
 40
1.5
  9
$DIMTP
 40
0.0
  9
$DIMTM
 40
0.0
  9
$DIMTXT
 40
3.5
  9
$DIMCEN
 40
0.09
  9
$DIMTSZ
 40
0.0
  9
$DIMTOL
 70
     0
  9
$DIMLIM
 70
     0
  9
$DIMTIH
 70
     0
  9
$DIMTOH
 70
     0
  9
$DIMSE1
 70
     0
  9
$DIMSE2
 70
     0
  9
$DIMTAD
 70
     1
  9
$DIMZIN
 70
     8
  9
$DIMBLK
  1

  9
$DIMASO
 70
     1
  9
$DIMSHO
 70
     1
  9
$DIMPOST
  1

  9
$DIMAPOST
  1

  9
$DIMALT
 70
     0
  9
$DIMALTD
 70
     2
  9
$DIMALTF
 40
25.4
  9
$DIMLFAC
 40
1.0
  9
$DIMTOFL
 70
     0
  9
$DIMTVP
 40
0.0
  9
$DIMTIX
 70
     0
  9
$DIMSOXD
 70
     0
  9
$DIMSAH
 70
     0
  9
$DIMBLK1
  1

  9
$DIMBLK2
  1

  9
$DIMSTYLE
  2
コピー - ISO-25
  9
$DIMCLRD
 70
   256
  9
$DIMCLRE
 70
   256
  9
$DIMCLRT
 70
   256
  9
$DIMTFAC
 40
1.0
  9
$DIMGAP
 40
2.299999999999998
  9
$DIMJUST
 70
     0
  9
$DIMSD1
 70
     0
  9
$DIMSD2
 70
     0
  9
$DIMTOLJ
 70
     1
  9
$DIMTZIN
 70
     8
  9
$DIMALTZ
 70
     0
  9
$DIMALTTZ
 70
     0
  9
$DIMUPT
 70
     0
  9
$DIMDEC
 70
     2
  9
$DIMTDEC
 70
     2
  9
$DIMALTU
 70
     2
  9
$DIMALTTD
 70
     2
  9
$DIMTXSTY
  7
simplex
  9
$DIMAUNIT
 70
     0
  9
$DIMADEC
 70
     0
  9
$DIMALTRND
 40
0.0
  9
$DIMAZIN
 70
     0
  9
$DIMDSEP
 70
    46
  9
$DIMATFIT
 70
     3
  9
$DIMFRAC
 70
     0
  9
$DIMLDRBLK
  1

  9
$DIMLUNIT
 70
     2
  9
$DIMLWD
 70
    -1
  9
$DIMLWE
 70
    -1
  9
$DIMTMOVE
 70
     0
  9
$LUNITS
 70
     2
  9
$LUPREC
 70
     4
  9
$SKETCHINC
 40
1.0
  9
$FILLETRAD
 40
0.8
  9
$AUNITS
 70
     0
  9
$AUPREC
 70
     0
  9
$MENU
  1
.
  9
$ELEVATION
 40
0.0
  9
$PELEVATION
 40
0.0
  9
$THICKNESS
 40
0.0
  9
$LIMCHECK
 70
     0
  9
$CHAMFERA
 40
10.0
  9
$CHAMFERB
 40
10.0
  9
$CHAMFERC
 40
20.0
  9
$CHAMFERD
 40
0.0
  9
$SKPOLY
 70
     0
  9
$TDCREATE
 40
2455489.391063368
  9
$TDUCREATE
 40
2455489.057730035
  9
$TDUPDATE
 40
2458948.446673588
  9
$TDUUPDATE
 40
2458948.113340254
  9
$TDINDWG
 40
2.660341019
  9
$TDUSRTIMER
 40
2.660288600
  9
$USRTIMER
 70
     1
  9
$ANGBASE
 50
0.0
  9
$ANGDIR
 70
     0
  9
$PDMODE
 70
     0
  9
$PDSIZE
 40
0.0
  9
$PLINEWID
 40
0.0
  9
$SPLFRAME
 70
     0
  9
$SPLINETYPE
 70
     6
  9
$SPLINESEGS
 70
     8
  9
$HANDSEED
  5
964C8
  9
$SURFTAB1
 70
     6
  9
$SURFTAB2
 70
     6
  9
$SURFTYPE
 70
     6
  9
$SURFU
 70
     6
  9
$SURFV
 70
     6
  9
$UCSBASE
  2

  9
$UCSNAME
  2

  9
$UCSORG
 10
0.0
 20
0.0
 30
0.0
  9
$UCSXDIR
 10
1.0
 20
0.0
 30
0.0
  9
$UCSYDIR
 10
0.0
 20
1.0
 30
0.0
  9
$UCSORTHOREF
  2

  9
$UCSORTHOVIEW
 70
     0
  9
$UCSORGTOP
 10
0.0
 20
0.0
 30
0.0
  9
$UCSORGBOTTOM
 10
0.0
 20
0.0
 30
0.0
  9
$UCSORGLEFT
 10
0.0
 20
0.0
 30
0.0
  9
$UCSORGRIGHT
 10
0.0
 20
0.0
 30
0.0
  9
$UCSORGFRONT
 10
0.0
 20
0.0
 30
0.0
  9
$UCSORGBACK
 10
0.0
 20
0.0
 30
0.0
  9
$PUCSBASE
  2

  9
$PUCSNAME
  2

  9
$PUCSORG
 10
0.0
 20
0.0
 30
0.0
  9
$PUCSXDIR
 10
1.0
 20
0.0
 30
0.0
  9
$PUCSYDIR
 10
0.0
 20
1.0
 30
0.0
  9
$PUCSORTHOREF
  2

  9
$PUCSORTHOVIEW
 70
     0
  9
$PUCSORGTOP
 10
0.0
 20
0.0
 30
0.0
  9
$PUCSORGBOTTOM
 10
0.0
 20
0.0
 30
0.0
  9
$PUCSORGLEFT
 10
0.0
 20
0.0
 30
0.0
  9
$PUCSORGRIGHT
 10
0.0
 20
0.0
 30
0.0
  9
$PUCSORGFRONT
 10
0.0
 20
0.0
 30
0.0
  9
$PUCSORGBACK
 10
0.0
 20
0.0
 30
0.0
  9
$USERI1
 70
     0
  9
$USERI2
 70
     0
  9
$USERI3
 70
     0
  9
$USERI4
 70
     0
  9
$USERI5
 70
     0
  9
$USERR1
 40
0.0
  9
$USERR2
 40
0.0
  9
$USERR3
 40
0.0
  9
$USERR4
 40
0.0
  9
$USERR5
 40
0.0
  9
$WORLDVIEW
 70
     1
  9
$SHADEDGE
 70
     3
  9
$SHADEDIF
 70
    70
  9
$TILEMODE
 70
     1
  9
$MAXACTVP
 70
    64
  9
$PINSBASE
 10
0.0
 20
0.0
 30
0.0
  9
$PLIMCHECK
 70
     0
  9
$PEXTMIN
 10
26.66999878883364
 20
20.31999878883365
 30
0.0
  9
$PEXTMAX
 10
240.0299890995025
 20
182.8799890995025
 30
0.0
  9
$PLIMMIN
 10
-6.350006103515625
 20
-6.349999904632567
  9
$PLIMMAX
 10
273.0499877929688
 20
209.5499939918518
  9
$UNITMODE
 70
     0
  9
$VISRETAIN
 70
     1
  9
$PLINEGEN
 70
     0
  9
$PSLTSCALE
 70
     1
  9
$TREEDEPTH
 70
  3020
  9
$CMLSTYLE
  2
Standard
  9
$CMLJUST
 70
     0
  9
$CMLSCALE
 40
20.0
  9
$PROXYGRAPHICS
 70
     1
  9
$MEASUREMENT
 70
     1
  9
$CELWEIGHT
370
    -1
  9
$ENDCAPS
280
     0
  9
$JOINSTYLE
280
     0
  9
$LWDISPLAY
290
     0
  9
$INSUNITS
 70
     4
  9
$HYPERLINKBASE
  1

  9
$STYLESHEET
  1

  9
$XEDIT
290
     1
  9
$CEPSNTYPE
380
     0
  9
$PSTYLEMODE
290
     1
  9
$FINGERPRINTGUID
  2
{E640BC9C-101A-45CB-89C9-6D32AD4BD182}
  9
$VERSIONGUID
  2
{994C1F10-99B7-4A6E-9173-9754867E334B}
  9
$EXTNAMES
290
     1
  9
$PSVPSCALE
 40
0.0
  9
$OLESTARTUP
290
     0
  0
ENDSEC
  0
SECTION
  2
CLASSES
  0
CLASS
  1
ACDBDICTIONARYWDFLT
  2
AcDbDictionaryWithDefault
  3
ObjectDBX Classes
 90
        0
280
     0
281
     0
  0
CLASS
  1
ACDBPLACEHOLDER
  2
AcDbPlaceHolder
  3
ObjectDBX Classes
 90
    32768
280
     0
281
     0
  0
CLASS
  1
LAYOUT
  2
AcDbLayout
  3
ObjectDBX Classes
 90
    32768
280
     0
281
     0
  0
CLASS
  1
DICTIONARYVAR
  2
AcDbDictionaryVar
  3
ObjectDBX Classes
 90
        0
280
     0
281
     0
  0
CLASS
  1
TABLESTYLE
  2
AcDbTableStyle
  3
ObjectDBX Classes
 90
     4095
280
     0
281
     0
  0
CLASS
  1
SORTENTSTABLE
  2
AcDbSortentsTable
  3
ObjectDBX Classes
 90
        0
280
     0
281
     0
  0
CLASS
  1
DIMASSOC
  2
AcDbDimAssoc
  3
"AcDbDimAssoc|Product Desc:     AcDim ARX App For Dimension|Company:          Autodesk, Inc.|WEB Address:      www.autodesk.com"
 90
        0
280
     0
281
     0
  0
CLASS
  1
ACAD_EVALUATION_GRAPH
  2
AcDbEvalGraph
  3
ObjectDBX Classes
 90
    33921
280
     0
281
     0
  0
CLASS
  1
ACAECUSTOBJ
  2
AcAeEditorObj
  3
AcAeEditorObj
 90
    33792
280
     0
281
     0
  0
CLASS
  1
ACDB_DYNAMICBLOCKPURGEPREVENTER_VERSION
  2
AcDbDynamicBlockPurgePreventer
  3
ObjectDBX Classes
 90
    33921
280
     0
281
     0
  0
CLASS
  1
MATERIAL
  2
AcDbMaterial
  3
ObjectDBX Classes
 90
     1153
280
     0
281
     0
  0
CLASS
  1
VISUALSTYLE
  2
AcDbVisualStyle
  3
ObjectDBX Classes
 90
     4095
280
     0
281
     0
  0
CLASS
  1
SCALE
  2
AcDbScale
  3
ObjectDBX Classes
 90
     1153
280
     0
281
     0
  0
CLASS
  1
MLEADERSTYLE
  2
AcDbMLeaderStyle
  3
ACDB_MLEADERSTYLE_CLASS
 90
     4095
280
     0
281
     0
  0
CLASS
  1
ACDBSECTIONVIEWSTYLE
  2
AcDbSectionViewStyle
  3
ObjectDBX Classes
 90
     1025
280
     0
281
     0
  0
CLASS
  1
ACDBDETAILVIEWSTYLE
  2
AcDbDetailViewStyle
  3
ObjectDBX Classes
 90
     1025
280
     0
281
     0
  0
CLASS
  1
CELLSTYLEMAP
  2
AcDbCellStyleMap
  3
ObjectDBX Classes
 90
     1152
280
     0
281
     0
  0
CLASS
  1
ACDBPLACEHOLDER
  2
AcDbPlaceHolder
  3
ObjectDBX Classes
 90
    32768
280
     0
281
     0
  0
CLASS
  1
LAYOUT
  2
AcDbLayout
  3
ObjectDBX Classes
 90
    32768
280
     0
281
     0
  0
CLASS
  1
ACDBPLACEHOLDER
  2
AcDbPlaceHolder
  3
ObjectDBX Classes
 90
    32768
280
     0
281
     0
  0
CLASS
  1
LAYOUT
  2
AcDbLayout
  3
ObjectDBX Classes
 90
    32768
280
     0
281
     0
  0
CLASS
  1
ACDBPLACEHOLDER
  2
AcDbPlaceHolder
  3
ObjectDBX Classes
 90
    32768
280
     0
281
     0
  0
CLASS
  1
LAYOUT
  2
AcDbLayout
  3
ObjectDBX Classes
 90
    32768
280
     0
281
     0
  0
CLASS
  1
ACDBPLACEHOLDER
  2
AcDbPlaceHolder
  3
ObjectDBX Classes
 90
    32768
280
     0
281
     0
  0
CLASS
  1
LAYOUT
  2
AcDbLayout
  3
ObjectDBX Classes
 90
    32768
280
     0
281
     0
  0
CLASS
  1
ACDBPLACEHOLDER
  2
AcDbPlaceHolder
  3
ObjectDBX Classes
 90
        0
280
     0
281
     0
  0
CLASS
  1
LAYOUT
  2
AcDbLayout
  3
ObjectDBX Classes
 90
        0
280
     0
281
     0
  0
ENDSEC
  0
SECTION
  2
TABLES
  0
TABLE
  2
VPORT
  5
8
102
{ACAD_XDICTIONARY
360
8C34E
102
}
330
0
100
AcDbSymbolTable
 70
     1
  0
VPORT
  5
4A360
330
8
100
AcDbSymbolTableRecord
100
AcDbViewportTableRecord
  2
*Active
 70
     0
 10
0.0
 20
0.0
 11
1.0
 21
1.0
 12
-6.599621068098819
 22
22.87243339955111
 13
0.0
 23
0.0
 14
10.0
 24
10.0
 15
10.0
 25
10.0
 16
0.0
 26
0.0
 36
1.0
 17
0.0
 27
0.0
 37
0.0
 40
405.8362730516488
 41
1.705156950672645
 42
50.0
 43
0.0
 44
0.0
 50
0.0
 51
0.0
 71
     0
 72
  1000
 73
     1
 74
     1
 75
     0
 76
     0
 77
     0
 78
     0
281
     0
 65
     1
110
0.0
120
0.0
130
0.0
111
1.0
121
0.0
131
0.0
112
0.0
122
1.0
132
0.0
 79
     0
146
0.0
1001
ACAD_NAV_VCDISPLAY
1070
     3
  0
ENDTAB
  0
TABLE
  2
LTYPE
  5
5
330
0
100
AcDbSymbolTable
 70
     3
  0
LTYPE
  5
14
330
5
100
AcDbSymbolTableRecord
100
AcDbLinetypeTableRecord
  2
ByBlock
 70
     0
  3

 72
    65
 73
     0
 40
0.0
  0
LTYPE
  5
15
330
5
100
AcDbSymbolTableRecord
100
AcDbLinetypeTableRecord
  2
ByLayer
 70
     0
  3

 72
    65
 73
     0
 40
0.0
  0
LTYPE
  5
16
330
5
100
AcDbSymbolTableRecord
100
AcDbLinetypeTableRecord
  2
Continuous
 70
     0
  3
Solid line
 72
    65
 73
     0
 40
0.0
  0
LTYPE
  5
4A76E
330
5
100
AcDbSymbolTableRecord
100
AcDbLinetypeTableRecord
  2
CENTER2
 70
     0
  3
Center (.5x) ___ _ ___ _ ___ _ ___ _ ___ _ ___
 72
    65
 73
     4
 40
28.575
 49
19.05
 74
     0
 49
-3.174999999999998
 74
     0
 49
3.174999999999998
 74
     0
 49
-3.174999999999998
 74
     0
  0
LTYPE
  5
87B53
330
5
100
AcDbSymbolTableRecord
100
AcDbLinetypeTableRecord
  2
HIDDEN
 70
     0
  3
Hidden __ __ __ __ __ __ __ __ __ __ __ __ __ _
 72
    65
 73
     2
 40
9.524999999999996
 49
6.349999999999997
 74
     0
 49
-3.174999999999998
 74
     0
  0
ENDTAB
  0
TABLE
  2
LAYER
  5
2
102
{ACAD_XDICTIONARY
360
E2
102
}
330
0
100
AcDbSymbolTable
 70
    10
  0
LAYER
  5
10
102
{ACAD_XDICTIONARY
360
4A86C
102
}
330
2
100
AcDbSymbolTableRecord
100
AcDbLayerTableRecord
  2
0
 70
     0
 62
     7
  6
Continuous
370
    -3
390
F
  0
LAYER
  5
31B6
330
2
100
AcDbSymbolTableRecord
100
AcDbLayerTableRecord
  2
Defpoints
 70
     0
 62
     7
  6
Continuous
290
     0
370
    -3
390
F
  0
LAYER
  5
4A772
102
{ACAD_XDICTIONARY
360
4A773
102
}
330
2
100
AcDbSymbolTableRecord
100
AcDbLayerTableRecord
  2
1
 70
     0
 62
     4
  6
Continuous
370
    50
390
F
1001
AcAecLayerStandard
1000

1000
Contour
  0
LAYER
  5
4A774
102
{ACAD_XDICTIONARY
360
4A775
102
}
330
2
100
AcDbSymbolTableRecord
100
AcDbLayerTableRecord
  2
2
 70
     0
 62
     7
  6
Continuous
370
    25
390
F
1001
AcAecLayerStandard
1000

1000
Dimension milling
  0
LAYER
  5
4A776
102
{ACAD_XDICTIONARY
360
4A777
102
}
330
2
100
AcDbSymbolTableRecord
100
AcDbLayerTableRecord
  2
4
 70
     0
 62
     2
  6
CENTER2
370
    25
390
F
1001
AcAecLayerStandard
1000

1000
Center line
  0
LAYER
  5
4A778
102
{ACAD_XDICTIONARY
360
4A779
102
}
330
2
100
AcDbSymbolTableRecord
100
AcDbLayerTableRecord
  2
cut
 70
     0
 62
     1
  6
Continuous
370
    25
390
F
1001
AcAecLayerStandard
1000

1000
contour
  0
LAYER
  5
4A77A
102
{ACAD_XDICTIONARY
360
4A77B
102
}
330
2
100
AcDbSymbolTableRecord
100
AcDbLayerTableRecord
  2
nocut
 70
     0
 62
     7
  6
Continuous
370
    25
390
F
1001
AcAecLayerStandard
1000

1000
contour
  0
LAYER
  5
4A77E
102
{ACAD_XDICTIONARY
360
4A77F
102
}
330
2
100
AcDbSymbolTableRecord
100
AcDbLayerTableRecord
  2
sk2
 70
     0
 62
     7
  6
Continuous
370
    25
390
F
1001
AcAecLayerStandard
1000

1000
sk2 dimension
  0
LAYER
  5
4A782
102
{ACAD_XDICTIONARY
360
4A783
102
}
330
2
100
AcDbSymbolTableRecord
100
AcDbLayerTableRecord
  2
sk6
 70
     0
 62
     5
  6
Continuous
370
    35
390
F
1001
AcAecLayerStandard
1000

1000
sk6 text
  0
LAYER
  5
87B52
102
{ACAD_XDICTIONARY
360
8C34C
102
}
330
2
100
AcDbSymbolTableRecord
100
AcDbLayerTableRecord
  2
sk3
 70
     0
 62
     1
  6
HIDDEN
370
    35
390
F
1001
AcAecLayerStandard
1000

1000

  0
ENDTAB
  0
TABLE
  2
STYLE
  5
3
330
0
100
AcDbSymbolTable
 70
     2
  0
STYLE
  5
11
330
3
100
AcDbSymbolTableRecord
100
AcDbTextStyleTableRecord
  2
Standard
 70
     0
 40
0.0
 41
1.0
 50
0.0
 71
     0
 42
2.5
  3
txt.shx
  4
@extfont2.shx
  0
STYLE
  5
24A
330
3
100
AcDbSymbolTableRecord
100
AcDbTextStyleTableRecord
  2
simplex
 70
     0
 40
3.5
 41
1.0
 50
0.0
 71
     0
 42
3.5
  3
txt.shx
  4

  0
ENDTAB
  0
TABLE
  2
VIEW
  5
6
330
0
100
AcDbSymbolTable
 70
     0
  0
ENDTAB
  0
TABLE
  2
UCS
  5
7
330
0
100
AcDbSymbolTable
 70
     0
  0
ENDTAB
  0
TABLE
  2
APPID
  5
9
330
0
100
AcDbSymbolTable
 70
    31
  0
APPID
  5
12
330
9
100
AcDbSymbolTableRecord
100
AcDbRegAppTableRecord
  2
ACAD
 70
     0
  0
APPID
  5
D2
330
9
100
AcDbSymbolTableRecord
100
AcDbRegAppTableRecord
  2
AcAecLayerStandard
 70
     0
  0
APPID
  5
E6
330
9
100
AcDbSymbolTableRecord
100
AcDbRegAppTableRecord
  2
ACAD_DSTYLE_DIMTEXT_FILL
 70
     0
  0
APPID
  5
4C84
330
9
100
AcDbSymbolTableRecord
100
AcDbRegAppTableRecord
  2
ACAD_EXEMPT_FROM_CAD_STANDARDS
 70
     0
  0
APPID
  5
3493E
330
9
100
AcDbSymbolTableRecord
100
AcDbRegAppTableRecord
  2
DCO15
 70
     0
  0
APPID
  5
3BAB0
330
9
100
AcDbSymbolTableRecord
100
AcDbRegAppTableRecord
  2
ACAD_DSTYLE_DIMEXT_ENABLED
 70
     0
  0
APPID
  5
3BAB1
330
9
100
AcDbSymbolTableRecord
100
AcDbRegAppTableRecord
  2
ACAD_DSTYLE_DIMEXT_LENGTH
 70
     0
  0
APPID
  5
3BEB4
330
9
100
AcDbSymbolTableRecord
100
AcDbRegAppTableRecord
  2
ACAUTHENVIRON
 70
     0
  0
APPID
  5
3BEB7
330
9
100
AcDbSymbolTableRecord
100
AcDbRegAppTableRecord
  2
AcDbDynamicBlockTrueName
 70
     0
  0
APPID
  5
3BEB8
330
9
100
AcDbSymbolTableRecord
100
AcDbRegAppTableRecord
  2
AcDbDynamicBlockGUID
 70
     0
  0
APPID
  5
3BEBA
330
9
100
AcDbSymbolTableRecord
100
AcDbRegAppTableRecord
  2
AcDbBlockRepETag
 70
     0
  0
APPID
  5
4A453
330
9
100
AcDbSymbolTableRecord
100
AcDbRegAppTableRecord
  2
ACAD_PSEXT
 70
     0
  0
APPID
  5
4A454
330
9
100
AcDbSymbolTableRecord
100
AcDbRegAppTableRecord
  2
AcadAnnotative
 70
     0
  0
APPID
  5
4A455
330
9
100
AcDbSymbolTableRecord
100
AcDbRegAppTableRecord
  2
ACAD_DSTYLE_DIMJAG
 70
     0
  0
APPID
  5
4A456
330
9
100
AcDbSymbolTableRecord
100
AcDbRegAppTableRecord
  2
ACAD_DSTYLE_DIMTALN
 70
     0
  0
APPID
  5
4A457
330
9
100
AcDbSymbolTableRecord
100
AcDbRegAppTableRecord
  2
ACAD_NAV_VCDISPLAY
 70
     0
  0
APPID
  5
4A787
330
9
100
AcDbSymbolTableRecord
100
AcDbRegAppTableRecord
  2
ACAD_DSTYLE_DIMINSPECT
 70
     0
  0
APPID
  5
4A788
330
9
100
AcDbSymbolTableRecord
100
AcDbRegAppTableRecord
  2
GENIUS_GENDTOL_13
 70
     0
  0
APPID
  5
4A789
330
9
100
AcDbSymbolTableRecord
100
AcDbRegAppTableRecord
  2
ZWMCAD_GENSTANDARDFRAME_13_
 70
     0
  0
APPID
  5
4A78A
330
9
100
AcDbSymbolTableRecord
100
AcDbRegAppTableRecord
  2
ZW_RECESS_XDATA
 70
     0
  0
APPID
  5
4A78B
330
9
100
AcDbSymbolTableRecord
100
AcDbRegAppTableRecord
  2
ZW_FAC_XDATA
 70
     0
  0
APPID
  5
4A78C
330
9
100
AcDbSymbolTableRecord
100
AcDbRegAppTableRecord
  2
ZW_FLC_XDATA
 70
     0
  0
APPID
  5
4A78D
330
9
100
AcDbSymbolTableRecord
100
AcDbRegAppTableRecord
  2
ZW_SUPERPART
 70
     0
  0
APPID
  5
4A78E
330
9
100
AcDbSymbolTableRecord
100
AcDbRegAppTableRecord
  2
ZW_SUPERSYMBOL
 70
     0
  0
APPID
  5
4A78F
330
9
100
AcDbSymbolTableRecord
100
AcDbRegAppTableRecord
  2
ZW_SUPERSHAFT
 70
     0
  0
APPID
  5
4A790
330
9
100
AcDbSymbolTableRecord
100
AcDbRegAppTableRecord
  2
ZWMCAD_GENFRAME_13_
 70
     0
  0
APPID
  5
4A791
330
9
100
AcDbSymbolTableRecord
100
AcDbRegAppTableRecord
  2
ACAD_MLEADERVER
 70
     0
  0
APPID
  5
4A792
330
9
100
AcDbSymbolTableRecord
100
AcDbRegAppTableRecord
  2
ACAD_DSTYLE_DIMRADIAL_EXTENSION
 70
     0
  0
APPID
  5
885F1
330
9
100
AcDbSymbolTableRecord
100
AcDbRegAppTableRecord
  2
ZWMCAD_GENSCA_13_
 70
     0
  0
APPID
  5
885EF
330
9
100
AcDbSymbolTableRecord
100
AcDbRegAppTableRecord
  2
ACAD_DSTYLE_DIMRADIAL_EXTE
 70
     0
  0
APPID
  5
885EE
330
9
100
AcDbSymbolTableRecord
100
AcDbRegAppTableRecord
  2
ZWMCAD_GENSTANDARDFRAME_13
 70
     0
  0
ENDTAB
  0
TABLE
  2
DIMSTYLE
  5
A
330
0
100
AcDbSymbolTable
 70
     2
100
AcDbDimStyleTable
 71
    21
340
1BF
340
3527
340
90771
340
907A6
340
907AC
340
907B1
340
907B7
340
919EE
340
919F4
340
919F9
340
919FF
340
91A04
340
91A0A
340
91A0F
340
91A15
340
91A1A
340
91A20
340
91A25
340
91A2B
340
91A30
340
91A36
  0
DIMSTYLE
105
1BF
102
{ACAD_REACTORS
330
96178
330
96188
330
9617B
330
96181
330
9617E
330
96184
330
96433
102
}
330
A
100
AcDbSymbolTableRecord
100
AcDbDimStyleTableRecord
  2
コピー - ISO-25
 70
     0
 40
0.0
 41
3.5
 42
0.0
 44
1.5
 73
     0
 74
     0
 77
     1
 78
     8
140
3.5
147
2.299999999999998
176
   256
177
   256
271
     2
178
   256
271
     2
272
     2
284
     8
340
24A
371
    -1
372
    -1
  0
DIMSTYLE
105
3527
330
A
100
AcDbSymbolTableRecord
100
AcDbDimStyleTableRecord
  2
STANDARD
 70
     0
 41
3.0
 47
0.001
 48
0.001
 71
     1
 73
     0
 74
     0
 77
     1
 78
     8
140
4.0
271
     3
272
     3
284
     8
340
11
341
34B1
342
34B1
343
34B1
344
34B1
  0
ENDTAB
  0
TABLE
  2
BLOCK_RECORD
  5
1
330
0
100
AcDbSymbolTable
 70
    11
  0
BLOCK_RECORD
  5
1F
102
{ACAD_XDICTIONARY
360
31EE
102
}
330
1
100
AcDbSymbolTableRecord
100
AcDbBlockTableRecord
  2
*Model_Space
340
22
  0
BLOCK_RECORD
  5
55
330
1
100
AcDbSymbolTableRecord
100
AcDbBlockTableRecord
  2
*Paper_Space
340
56
  0
BLOCK_RECORD
  5
50
330
1
100
AcDbSymbolTableRecord
100
AcDbBlockTableRecord
  2
*Paper_Space000000
340
51
  0
BLOCK_RECORD
  5
34B1
330
1
100
AcDbSymbolTableRecord
100
AcDbBlockTableRecord
  2
_OPEN
340
0
  0
BLOCK_RECORD
  5
4A6D6
102
{ACAD_XDICTIONARY
360
4A6D7
102
}
330
1
100
AcDbSymbolTableRecord
100
AcDbBlockTableRecord
  2
zero block
340
0
102
{BLKREFS
331
8BFE6
331
4A793
331
880DD
331
882D3
331
87B7F
331
87D7D
331
90190
331
903FC
331
90821
331
90A84
331
90E49
331
910AD
331
91473
331
916B3
331
91AA1
331
91CE2
331
95FBC
331
940A1
331
942D2
331
94691
331
948CF
331
94C70
331
94EA9
331
8BD57
331
92098
331
922DA
331
9267F
331
928BF
331
92B61
331
92ED7
331
93114
331
934B4
331
936F3
331
93AD2
331
93D08
331
9523F
331
95477
331
957E9
331
95A1C
331
95D8B
331
8FB3B
331
8FDCA
102
}
1001
AcDbDynamicBlockGUID
1000
{A89DF4EB-B2CB-439E-AC69-1EAC9F242D1C}
1001
AcDbBlockRepETag
1070
     1
1071
        7
1001
ACAD
1000
DesignCenter Data
1002
{
1070
     1
1070
     4
1002
}
  0
BLOCK_RECORD
  5
87D73
330
1
100
AcDbSymbolTableRecord
100
AcDbBlockTableRecord
  2
_None
340
0
102
{BLKREFS
331
8C250
331
8C292
331
8C2BE
331
8C2FE
331
8C332
331
87FA2
331
87FBD
331
87FC5
331
88042
331
88238
331
884B1
331
884F0
331
88512
331
885AA
331
87D72
331
87F63
331
9002A
331
9006F
331
900CE
331
90117
331
903C3
331
9062B
331
90673
331
906DD
331
90724
331
909A6
331
90CA0
331
90CEB
331
90D5B
331
90DBF
331
90FCE
331
912CA
331
91315
331
9135A
331
913E9
331
915B9
331
91895
331
918E5
331
91966
331
91989
331
91BE7
331
91EC5
331
91F15
331
91F6B
331
95F6A
331
961D5
331
961E8
331
96235
331
96261
331
9631A
331
93FB1
331
9403A
331
9420F
331
944D5
331
94519
331
945A7
331
945EE
331
947FF
331
94ADF
331
94B23
331
94B80
331
94BF8
331
94E84
331
8BC93
331
8BCED
331
8BF27
331
91FFC
331
921DE
331
924BE
331
9250E
331
9258F
331
925B2
331
9289C
331
92AD1
331
92B15
331
92D7E
331
92E18
331
92E5F
331
93052
331
93323
331
93367
331
933C4
331
9343C
331
9362F
331
93904
331
93948
331
9397A
331
939E2
331
93A5A
331
93CFD
331
93F26
331
93F64
331
950B4
331
950F8
331
95155
331
9519C
331
953BD
331
95681
331
956C5
331
95722
331
9573C
331
95771
331
95967
331
95C21
331
95C65
331
95CCC
331
95D13
331
8FA29
331
8FA4D
331
8FAA7
331
8FD00
331
8A12B
331
8DEC1
102
}
  0
BLOCK_RECORD
  5
9618B
330
1
100
AcDbSymbolTableRecord
100
AcDbBlockTableRecord
  2
*D26544
340
0
  0
BLOCK_RECORD
  5
96197
330
1
100
AcDbSymbolTableRecord
100
AcDbBlockTableRecord
  2
*D26655
340
0
  0
BLOCK_RECORD
  5
961A3
330
1
100
AcDbSymbolTableRecord
100
AcDbBlockTableRecord
  2
*D26766
340
0
  0
BLOCK_RECORD
  5
961B9
330
1
100
AcDbSymbolTableRecord
100
AcDbBlockTableRecord
  2
*D26987
340
0
  0
BLOCK_RECORD
  5
961C5
330
1
100
AcDbSymbolTableRecord
100
AcDbBlockTableRecord
  2
*D27098
340
0
  0
BLOCK_RECORD
  5
961D1
330
1
100
AcDbSymbolTableRecord
100
AcDbBlockTableRecord
  2
*D271109
340
0
  0
BLOCK_RECORD
  5
96434
330
1
100
AcDbSymbolTableRecord
100
AcDbBlockTableRecord
  2
*D1310
340
0
  0
ENDTAB
  0
ENDSEC
  0
SECTION
  2
BLOCKS
  0
BLOCK
  5
20
330
1F
100
AcDbEntity
  8
0
100
AcDbBlockBegin
  2
*Model_Space
 70
     0
 10
0.0
 20
0.0
 30
0.0
  3
*Model_Space
  1

  0
ENDBLK
  5
21
330
1F
100
AcDbEntity
  8
0
100
AcDbBlockEnd
  0
BLOCK
  5
57
330
55
100
AcDbEntity
 67
     1
  8
0
100
AcDbBlockBegin
  2
*Paper_Space
 70
     0
 10
0.0
 20
0.0
 30
0.0
  3
*Paper_Space
  1

  0
ENDBLK
  5
58
330
55
100
AcDbEntity
 67
     1
  8
0
100
AcDbBlockEnd
  0
BLOCK
  5
52
330
50
100
AcDbEntity
  8
0
100
AcDbBlockBegin
  2
*Paper_Space000000
 70
     0
 10
0.0
 20
0.0
 30
0.0
  3
*Paper_Space000000
  1

  0
VIEWPORT
  5
6B
102
{ACAD_XDICTIONARY
360
87B05
102
}
330
50
100
AcDbEntity
  8
0
100
AcDbViewport
 10
264.3775031494645
 20
160.4455827878762
 30
0.0
 40
567.6219612953822
 41
282.2272140146125
 68
     1
 69
    -1
 12
264.3775031494645
 22
160.4455827878762
 13
0.0
 23
0.0
 14
10.0
 24
10.0
 15
10.0
 25
10.0
 16
0.0
 26
0.0
 36
1.0
 17
0.0
 27
0.0
 37
0.0
 42
50.0
 43
0.0
 44
0.0
 45
282.2272140146125
 50
0.0
 51
0.0
 72
  1000
 90
    32864
  1

281
     0
 71
     1
 74
     0
110
0.0
120
0.0
130
0.0
111
1.0
121
0.0
131
0.0
112
0.0
122
1.0
132
0.0
 79
     0
146
0.0
1001
ACAD
1000
MVIEW
1002
{
1070
    16
1010
0.0
1020
0.0
1030
0.0
1010
0.0
1020
0.0
1030
1.0
1040
0.0
1040
282.2272140146125
1040
264.3775031494645
1040
160.4455827878762
1040
50.0
1040
0.0
1040
0.0
1070
     0
1070
  1000
1070
     0
1070
     3
1070
     0
1070
     0
1070
     0
1070
     0
1040
0.0
1040
0.0
1040
0.0
1040
10.0
1040
10.0
1040
10.0
1040
10.0
1070
     0
1002
{
1002
}
1002
}
  0
VIEWPORT
  5
6D
102
{ACAD_XDICTIONARY
360
87B07
102
}
330
50
100
AcDbEntity
  8
0
100
AcDbViewport
 10
133.3499939441681
 20
101.5999939441681
 30
0.0
 40
213.3599903106689
 41
162.5599903106689
 68
     2
 69
    -1
 12
210.0
 22
148.5
 13
0.0
 23
0.0
 14
10.0
 24
10.0
 15
10.0
 25
10.0
 16
0.0
 26
0.0
 36
1.0
 17
0.0
 27
0.0
 37
0.0
 42
50.0
 43
0.0
 44
0.0
 45
324.0677920111345
 50
0.0
 51
0.0
 72
   100
 90
    32864
  1

281
     0
 71
     1
 74
     0
110
0.0
120
0.0
130
0.0
111
1.0
121
0.0
131
0.0
112
0.0
122
1.0
132
0.0
 79
     0
146
0.0
1001
ACAD
1000
MVIEW
1002
{
1070
    16
1010
0.0
1020
0.0
1030
0.0
1010
0.0
1020
0.0
1030
1.0
1040
0.0
1040
324.0677920111345
1040
210.0
1040
148.5
1040
50.0
1040
0.0
1040
0.0
1070
     0
1070
   100
1070
     0
1070
     3
1070
     0
1070
     0
1070
     0
1070
     0
1040
0.0
1040
0.0
1040
0.0
1040
10.0
1040
10.0
1040
10.0
1040
10.0
1070
     0
1002
{
1002
}
1002
}
  0
ENDBLK
  5
53
330
50
100
AcDbEntity
  8
0
100
AcDbBlockEnd
  0
BLOCK
  5
34B2
330
34B1
100
AcDbEntity
  8
0
100
AcDbBlockBegin
  2
_OPEN
 70
     0
 10
0.0
 20
0.0
 30
0.0
  3
_OPEN
  1

  0
LINE
  5
34B3
330
34B1
100
AcDbEntity
  8
0
  6
ByBlock
 62
     0
100
AcDbLine
 10
0.0
 20
0.0
 30
0.0
 11
-1.0
 21
0.1766666667
 31
0.0
  0
LINE
  5
34B4
330
34B1
100
AcDbEntity
  8
0
  6
ByBlock
 62
     0
100
AcDbLine
 10
-1.0
 20
-0.1766666667
 30
0.0
 11
0.0
 21
0.0
 31
0.0
  0
LINE
  5
34B5
330
34B1
100
AcDbEntity
  8
0
  6
ByBlock
 62
     0
100
AcDbLine
 10
-1.0
 20
0.0
 30
0.0
 11
0.0
 21
0.0
 31
0.0
  0
ENDBLK
  5
34B6
330
34B1
100
AcDbEntity
  8
0
  6
ByBlock
 62
     0
100
AcDbBlockEnd
  0
BLOCK
  5
4A6D9
330
4A6D6
100
AcDbEntity
  8
0
100
AcDbBlockBegin
  2
zero block
 70
     0
 10
0.0
 20
0.0
 30
0.0
  3
zero block
  1

  0
HATCH
  5
4A6DA
330
4A6D6
100
AcDbEntity
  8
0
 62
     7
100
AcDbHatch
 10
0.0
 20
0.0
 30
0.0
210
0.0
220
0.0
230
1.0
  2
SOLID
 70
     1
 71
     0
 91
        2
 92
        7
 72
     1
 73
     1
 93
        3
 10
0.0
 20
0.9999999999999875
 42
0.4142135623730915
 10
-1.0
 20
0.0
 42
0.0
 10
0.0
 20
0.0
 42
0.0
 97
        0
 92
        7
 72
     1
 73
     1
 93
        3
 10
1.000000000000007
 20
0.0
 42
0.0
 10
0.0
 20
0.0
 42
0.0
 10
0.0
 20
-1.0
 42
0.4142135623730974
 97
        0
 75
     0
 76
     1
 47
0.0090601366782909
 98
        2
 10
-0.380591363650975
 20
0.4885804701532896
 10
0.4350764810977559
 20
-0.4536738423704725
1001
AcDbBlockRepETag
1070
     1
1071
        0
1005
4A6DA
  0
LINE
  5
4A6DB
330
4A6D6
100
AcDbEntity
  8
0
 62
     7
 48
0.2
100
AcDbLine
 10
-1.0
 20
0.0
 30
0.0
 11
1.000000000000007
 21
0.0
 31
0.0
1001
AcDbBlockRepETag
1070
     1
1071
        1
1005
4A6DB
  0
LINE
  5
4A6DC
330
4A6D6
100
AcDbEntity
  8
0
 62
     7
 48
0.2
100
AcDbLine
 10
0.0
 20
-1.0
 30
0.0
 11
0.0
 21
0.9999999999999875
 31
0.0
1001
AcDbBlockRepETag
1070
     1
1071
        2
1005
4A6DC
  0
ARC
  5
4A6DD
330
4A6D6
100
AcDbEntity
  8
0
 62
     7
 48
0.2
100
AcDbCircle
 10
0.0
 20
0.0
 30
0.0
 40
1.0
100
AcDbArc
 50
270.0
 51
0.0
1001
AcDbBlockRepETag
1070
     1
1071
        3
1005
4A6DD
  0
ARC
  5
4A6DE
330
4A6D6
100
AcDbEntity
  8
0
 62
     7
 48
0.2
100
AcDbCircle
 10
0.0
 20
0.0
 30
0.0
 40
1.0
100
AcDbArc
 50
0.0
 51
90.0
1001
AcDbBlockRepETag
1070
     1
1071
        4
1005
4A6DE
  0
ARC
  5
4A6DF
330
4A6D6
100
AcDbEntity
  8
0
 62
     7
 48
0.2
100
AcDbCircle
 10
0.0
 20
0.0
 30
0.0
 40
1.0
100
AcDbArc
 50
180.0
 51
270.0
1001
AcDbBlockRepETag
1070
     1
1071
        5
1005
4A6DF
  0
ARC
  5
4A6E0
330
4A6D6
100
AcDbEntity
  8
0
 62
     7
 48
0.2
100
AcDbCircle
 10
0.0
 20
0.0
 30
0.0
 40
1.0
100
AcDbArc
 50
90.0
 51
180.0
1001
AcDbBlockRepETag
1070
     1
1071
        6
1005
4A6E0
  0
ENDBLK
  5
4A6E1
330
4A6D6
100
AcDbEntity
  8
0
100
AcDbBlockEnd
  0
BLOCK
  5
87D74
330
87D73
100
AcDbEntity
  8
0
100
AcDbBlockBegin
  2
_None
 70
     0
 10
0.0
 20
0.0
 30
0.0
  3
_None
  1

  0
ENDBLK
  5
87D75
330
87D73
100
AcDbEntity
  8
0
100
AcDbBlockEnd
  0
BLOCK
  5
96195
330
9618B
100
AcDbEntity
  8
0
100
AcDbBlockBegin
  2
*D26544
 70
     1
 10
0.0
 20
0.0
 30
0.0
  3
*D26544
  1

  0
LINE
  5
96266
330
9618B
100
AcDbEntity
  8
sk2
100
AcDbLine
 10
12.0
 20
31.74999999890002
 30
0.0
 11
-21.57137337092333
 21
31.74999999890003
 31
0.0
  0
LINE
  5
96267
330
9618B
100
AcDbEntity
  8
sk2
100
AcDbLine
 10
12.0
 20
-31.74999999890002
 30
0.0
 11
-21.57137337092334
 21
-31.74999999890002
 31
0.0
  0
LINE
  5
96268
330
9618B
100
AcDbEntity
  8
sk2
100
AcDbLine
 10
-20.07137337092333
 20
28.24999999890004
 30
0.0
 11
-20.07137337092334
 21
-28.24999999890002
 31
0.0
  0
SOLID
  5
96269
330
9618B
100
AcDbEntity
  8
sk2
100
AcDbTrace
 10
-19.48804003759
 20
28.24999999890004
 30
0.0
 11
-20.65470670425666
 21
28.24999999890004
 31
0.0
 12
-20.07137337092333
 22
31.74999999890003
 32
0.0
 13
-20.07137337092333
 23
31.74999999890003
 33
0.0
  0
SOLID
  5
9626A
330
9618B
100
AcDbEntity
  8
sk2
100
AcDbTrace
 10
-20.65470670425667
 20
-28.24999999890002
 30
0.0
 11
-19.48804003759001
 21
-28.24999999890002
 31
0.0
 12
-20.07137337092334
 22
-31.74999999890002
 32
0.0
 13
-20.07137337092334
 23
-31.74999999890002
 33
0.0
  0
MTEXT
  5
9626B
330
9618B
100
AcDbEntity
  8
sk2
100
AcDbMText
 10
-24.12137337092334
 20
0.000000000000004
 30
0.0
 40
3.5
 41
0.0
 71
     5
 72
     1
  1
\A1;%%C63.5 [%%c2.500"]
  7
simplex
 11
0.0000000000000001
 21
1.0
 31
0.0
 73
     1
 44
1.0
1001
ACAD
1000
MTEXTBEGIN
1070
    73
1070
     1
1070
    44
1040
1.0
1070
    74
1070
     0
1000
MTEXTEND
  0
POINT
  5
9626C
330
9618B
100
AcDbEntity
  8
Defpoints
 62
     0
100
AcDbPoint
 10
12.0
 20
31.74999999890002
 30
0.0
  0
POINT
  5
9626D
330
9618B
100
AcDbEntity
  8
Defpoints
 62
     0
100
AcDbPoint
 10
12.0
 20
-31.74999999890002
 30
0.0
  0
POINT
  5
9626E
330
9618B
100
AcDbEntity
  8
Defpoints
 62
     0
100
AcDbPoint
 10
-20.07137337092334
 20
-31.74999999890002
 30
0.0
  0
ENDBLK
  5
96196
330
9618B
100
AcDbEntity
  8
0
100
AcDbBlockEnd
  0
BLOCK
  5
961A1
330
96197
100
AcDbEntity
  8
0
100
AcDbBlockBegin
  2
*D26655
 70
     1
 10
0.0
 20
0.0
 30
0.0
  3
*D26655
  1

  0
LINE
  5
9626F
330
96197
100
AcDbEntity
  8
sk2
100
AcDbLine
 10
2.0
 20
109.9944999988
 30
0.0
 11
-31.61981069511872
 21
109.9944999988
 31
0.0
  0
LINE
  5
96270
330
96197
100
AcDbEntity
  8
sk2
100
AcDbLine
 10
2.0
 20
-109.9945000012
 30
0.0
 11
-31.61981069511873
 21
-109.9945000012
 31
0.0
  0
LINE
  5
96271
330
96197
100
AcDbEntity
  8
sk2
100
AcDbLine
 10
-30.11981069511872
 20
106.4944999988
 30
0.0
 11
-30.11981069511874
 21
-106.4945000012
 31
0.0
  0
SOLID
  5
96272
330
96197
100
AcDbEntity
  8
sk2
100
AcDbTrace
 10
-29.5364773617854
 20
106.4944999988
 30
0.0
 11
-30.70314402845205
 21
106.4944999988
 31
0.0
 12
-30.11981069511872
 22
109.9944999988
 32
0.0
 13
-30.11981069511872
 23
109.9944999988
 33
0.0
  0
SOLID
  5
96273
330
96197
100
AcDbEntity
  8
sk2
100
AcDbTrace
 10
-30.70314402845206
 20
-106.4945000012
 30
0.0
 11
-29.5364773617854
 21
-106.4945000012
 31
0.0
 12
-30.11981069511874
 22
-109.9945000012
 32
0.0
 13
-30.11981069511874
 23
-109.9945000012
 33
0.0
  0
MTEXT
  5
96274
330
96197
100
AcDbEntity
  8
sk2
100
AcDbMText
 10
-34.16981069511872
 20
-0.0000000012000069
 30
0.0
 40
3.5
 41
0.0
 71
     5
 72
     1
  1
\A1;%%C219.989 [%%c8.661"]
  7
simplex
 11
0.0000000000000001
 21
1.0
 31
0.0
 73
     1
 44
1.0
1001
ACAD
1000
MTEXTBEGIN
1070
    73
1070
     1
1070
    44
1040
1.0
1070
    74
1070
     0
1000
MTEXTEND
  0
POINT
  5
96275
330
96197
100
AcDbEntity
  8
Defpoints
 62
     0
100
AcDbPoint
 10
2.0
 20
109.9944999988
 30
0.0
  0
POINT
  5
96276
330
96197
100
AcDbEntity
  8
Defpoints
 62
     0
100
AcDbPoint
 10
2.0
 20
-109.9945000012
 30
0.0
  0
POINT
  5
96277
330
96197
100
AcDbEntity
  8
Defpoints
 62
     0
100
AcDbPoint
 10
-30.11981069511874
 20
-109.9945000012
 30
0.0
  0
ENDBLK
  5
961A2
330
96197
100
AcDbEntity
  8
0
100
AcDbBlockEnd
  0
BLOCK
  5
961AD
330
961A3
100
AcDbEntity
  8
0
100
AcDbBlockBegin
  2
*D26766
 70
     1
 10
0.0
 20
0.0
 30
0.0
  3
*D26766
  1

  0
LINE
  5
96278
330
961A3
100
AcDbEntity
  8
sk2
100
AcDbLine
 10
0.0
 20
-107.9945000012
 30
0.0
 11
0.0
 21
-141.4663706349368
 31
0.0
  0
LINE
  5
96279
330
961A3
100
AcDbEntity
  8
sk2
100
AcDbLine
 10
35.0
 20
-86.99999999879997
 30
0.0
 11
35.0
 21
-141.4663706349368
 31
0.0
  0
LINE
  5
9627A
330
961A3
100
AcDbEntity
  8
sk2
100
AcDbLine
 10
3.5
 20
-139.9663706349368
 30
0.0
 11
31.5
 21
-139.9663706349368
 31
0.0
  0
SOLID
  5
9627B
330
961A3
100
AcDbEntity
  8
sk2
100
AcDbTrace
 10
3.5
 20
-139.3830373016034
 30
0.0
 11
3.5
 21
-140.5497039682701
 31
0.0
 12
0.0
 22
-139.9663706349368
 32
0.0
 13
0.0
 23
-139.9663706349368
 33
0.0
  0
SOLID
  5
9627C
330
961A3
100
AcDbEntity
  8
sk2
100
AcDbTrace
 10
31.5
 20
-140.5497039682701
 30
0.0
 11
31.5
 21
-139.3830373016034
 31
0.0
 12
35.0
 22
-139.9663706349368
 32
0.0
 13
35.0
 23
-139.9663706349368
 33
0.0
  0
MTEXT
  5
9627D
330
961A3
100
AcDbEntity
  8
sk2
100
AcDbMText
 10
17.5
 20
-135.9163706349368
 30
0.0
 40
3.5
 41
0.0
 71
     5
 72
     1
  1
\A1;35 [1.378"]
  7
simplex
 73
     1
 44
1.0
1001
ACAD
1000
MTEXTBEGIN
1070
    73
1070
     1
1070
    44
1040
1.0
1070
    74
1070
     0
1000
MTEXTEND
  0
POINT
  5
9627E
330
961A3
100
AcDbEntity
  8
Defpoints
 62
     0
100
AcDbPoint
 10
0.0
 20
-107.9945000012
 30
0.0
  0
POINT
  5
9627F
330
961A3
100
AcDbEntity
  8
Defpoints
 62
     0
100
AcDbPoint
 10
35.0
 20
-86.99999999879997
 30
0.0
  0
POINT
  5
96280
330
961A3
100
AcDbEntity
  8
Defpoints
 62
     0
100
AcDbPoint
 10
35.0
 20
-139.9663706349368
 30
0.0
  0
ENDBLK
  5
961AE
330
961A3
100
AcDbEntity
  8
0
100
AcDbBlockEnd
  0
BLOCK
  5
961C3
330
961B9
100
AcDbEntity
  8
0
100
AcDbBlockBegin
  2
*D26987
 70
     1
 10
0.0
 20
0.0
 30
0.0
  3
*D26987
  1

  0
LINE
  5
96489
330
961B9
100
AcDbEntity
  8
2
100
AcDbLine
 10
55.30000000000001
 20
126.9999999987999
 30
0.0
 11
55.30000000000001
 21
151.5387804093436
 31
0.0
  0
LINE
  5
9648A
330
961B9
100
AcDbEntity
  8
2
100
AcDbLine
 10
63.49999999999998
 20
126.1999999987972
 30
0.0
 11
63.49999999999998
 21
151.5387804093436
 31
0.0
  0
LINE
  5
9648B
330
961B9
100
AcDbEntity
  8
2
100
AcDbLine
 10
66.99999999999999
 20
150.0387804093437
 30
0.0
 11
119.4333333333333
 21
150.0387804093437
 31
0.0
  0
LINE
  5
9648C
330
961B9
100
AcDbEntity
  8
2
100
AcDbLine
 10
51.80000000000001
 20
150.0387804093437
 30
0.0
 11
48.30000000000001
 21
150.0387804093437
 31
0.0
  0
SOLID
  5
9648D
330
961B9
100
AcDbEntity
  8
2
100
AcDbTrace
 10
51.80000000000001
 20
149.4554470760103
 30
0.0
 11
51.80000000000001
 21
150.622113742677
 31
0.0
 12
55.30000000000001
 22
150.0387804093437
 32
0.0
 13
55.30000000000001
 23
150.0387804093437
 33
0.0
  0
SOLID
  5
9648E
330
961B9
100
AcDbEntity
  8
2
100
AcDbTrace
 10
66.99999999999999
 20
150.622113742677
 30
0.0
 11
66.99999999999999
 21
149.4554470760103
 31
0.0
 12
63.49999999999998
 22
150.0387804093437
 32
0.0
 13
63.49999999999998
 23
150.0387804093437
 33
0.0
  0
MTEXT
  5
9648F
330
961B9
100
AcDbEntity
  8
2
100
AcDbMText
 10
94.96666666666666
 20
154.0887804093437
 30
0.0
 40
3.5
 41
0.0
 71
     5
 72
     1
  1
\A1;8.2 [.323"](MAX)
  7
simplex
 73
     1
 44
1.0
1001
ACAD
1000
MTEXTBEGIN
1070
    73
1070
     1
1070
    44
1040
1.0
1070
    74
1070
     0
1000
MTEXTEND
  0
POINT
  5
96490
330
961B9
100
AcDbEntity
  8
Defpoints
 62
     0
100
AcDbPoint
 10
55.30000000000001
 20
126.9999999987999
 30
0.0
  0
POINT
  5
96491
330
961B9
100
AcDbEntity
  8
Defpoints
 62
     0
100
AcDbPoint
 10
63.49999999999998
 20
126.1999999987972
 30
0.0
  0
POINT
  5
96492
330
961B9
100
AcDbEntity
  8
Defpoints
 62
     0
100
AcDbPoint
 10
63.49999999999998
 20
150.0387804093437
 30
0.0
  0
ENDBLK
  5
961C4
330
961B9
100
AcDbEntity
  8
0
100
AcDbBlockEnd
  0
BLOCK
  5
961CF
330
961C5
100
AcDbEntity
  8
0
100
AcDbBlockBegin
  2
*D27098
 70
     1
 10
0.0
 20
0.0
 30
0.0
  3
*D27098
  1

  0
LINE
  5
96493
330
961C5
100
AcDbEntity
  8
2
100
AcDbLine
 10
0.0
 20
107.9944999988
 30
0.0
 11
0.0
 21
161.40470296945
 31
0.0
  0
LINE
  5
96494
330
961C5
100
AcDbEntity
  8
2
100
AcDbLine
 10
63.49999999999998
 20
126.1999999987965
 30
0.0
 11
63.49999999999998
 21
161.40470296945
 31
0.0
  0
LINE
  5
96495
330
961C5
100
AcDbEntity
  8
2
100
AcDbLine
 10
3.5
 20
159.90470296945
 30
0.0
 11
59.99999999999999
 21
159.90470296945
 31
0.0
  0
SOLID
  5
96496
330
961C5
100
AcDbEntity
  8
2
100
AcDbTrace
 10
3.5
 20
160.4880363027833
 30
0.0
 11
3.5
 21
159.3213696361166
 31
0.0
 12
0.0
 22
159.90470296945
 32
0.0
 13
0.0
 23
159.90470296945
 33
0.0
  0
SOLID
  5
96497
330
961C5
100
AcDbEntity
  8
2
100
AcDbTrace
 10
59.99999999999999
 20
159.3213696361166
 30
0.0
 11
59.99999999999999
 21
160.4880363027833
 31
0.0
 12
63.49999999999998
 22
159.90470296945
 32
0.0
 13
63.49999999999998
 23
159.90470296945
 33
0.0
  0
MTEXT
  5
96498
330
961C5
100
AcDbEntity
  8
2
100
AcDbMText
 10
31.74999999999999
 20
163.95470296945
 30
0.0
 40
3.5
 41
0.0
 71
     5
 72
     1
  1
\A1;63.5 [2.500"]
  7
simplex
 73
     1
 44
1.0
1001
ACAD
1000
MTEXTBEGIN
1070
    73
1070
     1
1070
    44
1040
1.0
1070
    74
1070
     0
1000
MTEXTEND
  0
POINT
  5
96499
330
961C5
100
AcDbEntity
  8
Defpoints
 62
     0
100
AcDbPoint
 10
0.0
 20
107.9944999988
 30
0.0
  0
POINT
  5
9649A
330
961C5
100
AcDbEntity
  8
Defpoints
 62
     0
100
AcDbPoint
 10
63.49999999999998
 20
126.1999999987965
 30
0.0
  0
POINT
  5
9649B
330
961C5
100
AcDbEntity
  8
Defpoints
 62
     0
100
AcDbPoint
 10
63.49999999999998
 20
159.90470296945
 30
0.0
  0
ENDBLK
  5
961D0
330
961C5
100
AcDbEntity
  8
0
100
AcDbBlockEnd
  0
BLOCK
  5
961DA
330
961D1
100
AcDbEntity
  8
0
100
AcDbBlockBegin
  2
*D271109
 70
     1
 10
0.0
 20
0.0
 30
0.0
  3
*D271109
  1

  0
LINE
  5
96317
330
961D1
100
AcDbEntity
  8
2
100
AcDbLine
 10
62.69999999999993
 20
126.9999999988
 30
0.0
 11
91.46277858220207
 21
126.9999999988
 31
0.0
  0
LINE
  5
96318
330
961D1
100
AcDbEntity
  8
2
100
AcDbLine
 10
89.96277858220208
 20
123.4999999988
 30
0.0
 11
89.96277858220208
 21
-126.9999999988
 31
0.0
  0
SOLID
  5
96319
330
961D1
100
AcDbEntity
  8
2
100
AcDbTrace
 10
90.54611191553544
 20
123.4999999988
 30
0.0
 11
89.37944524886878
 21
123.4999999988
 31
0.0
 12
89.96277858220208
 22
126.9999999988
 32
0.0
 13
89.96277858220208
 23
126.9999999988
 33
0.0
  0
INSERT
  5
9631A
330
961D1
100
AcDbEntity
  8
2
100
AcDbBlockReference
  2
_None
 10
89.96277858220208
 20
-126.9999999988
 30
0.0
 41
3.5
 42
3.5
 43
3.5
 50
270.0
  0
MTEXT
  5
9631B
330
961D1
100
AcDbEntity
  8
2
100
AcDbMText
 10
85.91277858220205
 20
-1.749999999999999
 30
0.0
 40
3.5
 41
0.0
 71
     5
 72
     1
  1
\A1;%%C254 [%%c10.000"]
  7
simplex
 11
0.0000000000000001
 21
1.0
 31
0.0
 73
     1
 44
1.0
1001
ACAD
1000
MTEXTBEGIN
1070
    73
1070
     1
1070
    44
1040
1.0
1070
    74
1070
     0
1000
MTEXTEND
  0
POINT
  5
9631C
330
961D1
100
AcDbEntity
  8
Defpoints
 62
     0
100
AcDbPoint
 10
62.69999999999993
 20
126.9999999988
 30
0.0
  0
POINT
  5
9631D
330
961D1
100
AcDbEntity
  8
Defpoints
 62
     0
100
AcDbPoint
 10
62.69999999999993
 20
-126.9999999988
 30
0.0
  0
POINT
  5
9631E
330
961D1
100
AcDbEntity
  8
Defpoints
 62
     0
100
AcDbPoint
 10
89.96277858220208
 20
-126.9999999988
 30
0.0
  0
ENDBLK
  5
961DB
330
961D1
100
AcDbEntity
  8
0
100
AcDbBlockEnd
  0
BLOCK
  5
9643C
330
96434
100
AcDbEntity
  8
0
100
AcDbBlockBegin
  2
*D1310
 70
     1
 10
0.0
 20
0.0
 30
0.0
  3
*D1310
  1

  0
LINE
  5
9643E
330
96434
100
AcDbEntity
  8
2
100
AcDbLine
 10
107.5599862289737
 20
137.3849339122121
 30
0.0
 11
66.87226980788581
 21
127.2402714298239
 31
0.0
  0
MTEXT
  5
9643F
330
96434
100
AcDbEntity
  8
2
100
AcDbMText
 10
87.93435426683755
 20
136.6656649329318
 30
0.0
 40
3.5
 41
0.0
 71
     5
 72
     1
  1
\A1;R0.8 [R.031"]
  7
simplex
 11
0.9702953041594899
 21
0.2419235886102123
 31
0.0
 73
     1
 44
1.0
1001
ACAD
1000
MTEXTBEGIN
1070
    73
1070
     1
1070
    44
1040
1.0
1070
    74
1070
     0
1000
MTEXTEND
  0
SOLID
  5
96440
330
96434
100
AcDbEntity
  8
2
100
AcDbTrace
 10
66.73114771452985
 20
127.8062770239169
 30
0.0
 11
67.01339190124177
 21
126.6742658357308
 31
0.0
 12
63.47623624332761
 22
126.3935388696882
 32
0.0
 13
63.47623624332761
 23
126.3935388696882
 33
0.0
  0
LINE
  5
96441
330
96434
100
AcDbEntity
  8
2
100
AcDbLine
 10
62.60999999999999
 20
126.1999999988
 30
0.0
 11
62.78999999999999
 21
126.1999999988
 31
0.0
  0
LINE
  5
96442
330
96434
100
AcDbEntity
  8
2
100
AcDbLine
 10
62.69999999999999
 20
126.1099999988
 30
0.0
 11
62.69999999999999
 21
126.2899999988
 31
0.0
  0
POINT
  5
96443
330
96434
100
AcDbEntity
  8
Defpoints
 62
     0
100
AcDbPoint
 10
63.47623624332761
 20
126.3935388696882
 30
0.0
  0
POINT
  5
96444
330
96434
100
AcDbEntity
  8
Defpoints
 62
     0
100
AcDbPoint
 10
62.69999999999999
 20
126.1999999988
 30
0.0
  0
ENDBLK
  5
9643D
330
96434
100
AcDbEntity
  8
0
100
AcDbBlockEnd
  0
ENDSEC
  0
SECTION
  2
ENTITIES
  0
INSERT
  5
4A793
330
1F
100
AcDbEntity
  8
0
100
AcDbBlockReference
  2
zero block
 10
0.0
 20
0.0
 30
0.0
 50
180.0
  0
MTEXT
  5
95FBB
330
1F
100
AcDbEntity
  8
sk6
100
AcDbMText
 10
2.584938855912069
 20
188.2812311338427
 30
0.0
 40
3.5
 41
139.3353303764208
 71
     1
 72
     5
  1
WWX400UR10_0012MN
 73
     1
 44
0.9
1001
ACAD
1000
MTEXTBEGIN
1070
    73
1070
     1
1070
    44
1040
0.9
1070
    74
1070
     0
1000
MTEXTEND
1000
ACAD_MTEXT_DEFINED_HEIGHT_BEGIN
1070
    46
1040
3.48901801050149
1000
ACAD_MTEXT_DEFINED_HEIGHT_END
  0
LINE
  5
95FBD
330
1F
100
AcDbEntity
  8
4
100
AcDbLine
 10
68.83693405598953
 20
0.0
 30
0.0
 11
-2.907861614760518
 21
0.0
 31
0.0
  0
LINE
  5
95FBE
330
1F
100
AcDbEntity
  8
1
100
AcDbLine
 10
52.0261806034
 20
-126.2000000012
 30
0.0
 11
55.71377005919997
 21
-126.2000000012
 31
0.0
  0
LINE
  5
95FBF
330
1F
100
AcDbEntity
  8
1
100
AcDbLine
 10
51.9738233841
 20
-126.1995430867
 30
0.0
 11
52.0261806034
 21
-126.2000000012
 31
0.0
  0
LINE
  5
95FC0
330
1F
100
AcDbEntity
  8
1
100
AcDbLine
 10
33.92123225980001
 20
-125.8844339365
 30
0.0
 11
51.9738233841
 21
-126.1995430867
 31
0.0
  0
LINE
  5
95FC1
330
1F
100
AcDbEntity
  8
1
100
AcDbLine
 10
19.43987587009999
 20
-109.9945000012
 30
0.0
 11
2.0
 21
-109.9945000012
 31
0.0
  0
LINE
  5
95FC2
330
1F
100
AcDbEntity
  8
1
100
AcDbLine
 10
48.12515847069999
 20
123.1418145739999
 30
0.0
 11
48.89584552579997
 21
123.4289251442999
 31
0.0
  0
LINE
  5
95FC3
330
1F
100
AcDbEntity
  8
1
100
AcDbLine
 10
49.4335624071
 20
123.2361234456
 30
0.0
 11
51.707880378
 21
124.563037586
 31
0.0
  0
LINE
  5
95FC4
330
1F
100
AcDbEntity
  8
1
100
AcDbLine
 10
31.09713027449999
 20
-123.7369368851
 30
0.0
 11
28.1508341709
 21
-113.790407933
 31
0.0
  0
LINE
  5
95FC5
330
1F
100
AcDbEntity
  8
1
100
AcDbLine
 10
0.0
 20
-107.9945000012
 30
0.0
 11
0.0
 21
107.9944999988
 31
0.0
  0
LINE
  5
95FC6
330
1F
100
AcDbEntity
  8
1
100
AcDbLine
 10
31.09713027449999
 20
123.7369368826999
 30
0.0
 11
28.1508341709
 21
113.7904079306
 31
0.0
  0
LINE
  5
95FC7
330
1F
100
AcDbEntity
  8
1
100
AcDbLine
 10
47.81588790719999
 20
123.353396453
 30
0.0
 11
47.66342695279997
 21
124.9099669717999
 31
0.0
  0
LINE
  5
95FC8
330
1F
100
AcDbEntity
  8
1
100
AcDbLine
 10
61.56515401749999
 20
111.8228659227
 30
0.0
 11
61.56515401749999
 21
114.1467473902
 31
0.0
  0
LINE
  5
95FC9
330
1F
100
AcDbEntity
  8
1
100
AcDbLine
 10
61.71377005920001
 20
114.4096941257
 30
0.0
 11
61.71377005920001
 21
-120.1999995438
 31
0.0
  0
LINE
  5
95FCA
330
1F
100
AcDbEntity
  8
1
100
AcDbLine
 10
49.0139517204
 20
117.1718228461
 30
0.0
 11
47.67925858519999
 21
119.65674821
 31
0.0
  0
LINE
  5
95FCB
330
1F
100
AcDbEntity
  8
1
100
AcDbLine
 10
48.2993729808
 20
119.3762712766
 30
0.0
 11
50.03994451689999
 21
116.0207100966
 31
0.0
  0
LINE
  5
95FCC
330
1F
100
AcDbEntity
  8
1
100
AcDbLine
 10
19.43987587009999
 20
109.9944999988
 30
0.0
 11
2.0
 21
109.9944999988
 31
0.0
  0
LINE
  5
95FCD
330
1F
100
AcDbEntity
  8
1
100
AcDbLine
 10
49.0139517204
 20
117.1718228461
 30
0.0
 11
31.83046105860001
 21
123.313166287
 31
0.0
  0
LINE
  5
95FCE
330
1F
100
AcDbEntity
  8
1
100
AcDbLine
 10
48.81371976209999
 20
123.0627057855999
 30
0.0
 11
49.4335624071
 21
123.2361234456
 31
0.0
  0
LINE
  5
95FCF
330
1F
100
AcDbEntity
  8
1
100
AcDbLine
 10
33.92123225980001
 20
125.8844339341
 30
0.0
 11
51.9738233841
 21
126.1995430843
 31
0.0
  0
LINE
  5
95FD0
330
1F
100
AcDbEntity
  8
1
100
AcDbLine
 10
51.9738233841
 20
126.1995430843
 30
0.0
 11
52.0261806034
 21
126.1999999988
 31
0.0
  0
LINE
  5
95FD1
330
1F
100
AcDbEntity
  8
1
100
AcDbLine
 10
57.0721048028
 20
117.5435017042999
 30
0.0
 11
56.88395356889998
 21
117.5435017042999
 31
0.0
  0
LINE
  5
95FD2
330
1F
100
AcDbEntity
  8
1
100
AcDbLine
 10
55.34697103640002
 20
117.7051675698
 30
0.0
 11
55.15881980249996
 21
117.7051675698
 31
0.0
  0
LINE
  5
95FD3
330
1F
100
AcDbEntity
  8
1
100
AcDbLine
 10
55.55518753699999
 20
117.8078426629999
 30
0.0
 11
55.74333877089998
 21
117.8078426629999
 31
0.0
  0
LINE
  5
95FD4
330
1F
100
AcDbEntity
  8
1
100
AcDbLine
 10
58.07391146089997
 20
118.9649078610999
 30
0.0
 11
57.88576022699999
 21
118.9649078610999
 31
0.0
  0
LINE
  5
95FD5
330
1F
100
AcDbEntity
  8
1
100
AcDbLine
 10
48.0879910758
 20
119.9507028833999
 30
0.0
 11
47.23520562689997
 21
119.9507028833999
 31
0.0
  0
LINE
  5
95FD6
330
1F
100
AcDbEntity
  8
1
100
AcDbLine
 10
48.06450665540001
 20
119.9968341687
 30
0.0
 11
47.18465332559996
 21
119.9968341687
 31
0.0
  0
LINE
  5
95FD7
330
1F
100
AcDbEntity
  8
1
100
AcDbLine
 10
57.79164221180002
 20
120.0910646813
 30
0.0
 11
57.60349097789998
 21
120.0910646813
 31
0.0
  0
LINE
  5
95FD8
330
1F
100
AcDbEntity
  8
1
100
AcDbLine
 10
56.76606538419997
 20
120.4453047902
 30
0.0
 11
56.95421661800003
 21
120.4453047902
 31
0.0
  0
LINE
  5
95FD9
330
1F
100
AcDbEntity
  8
1
100
AcDbLine
 10
56.2395120012
 20
120.8652594413
 30
0.0
 11
56.0513607673
 21
120.8652594413
 31
0.0
  0
LINE
  5
95FDA
330
1F
100
AcDbEntity
  8
1
100
AcDbLine
 10
46.58958477439999
 20
121.1330433518
 30
0.0
 11
47.4873454209
 21
121.1330433518
 31
0.0
  0
LINE
  5
95FDB
330
1F
100
AcDbEntity
  8
1
100
AcDbLine
 10
46.84591386189999
 20
122.1888906553999
 30
0.0
 11
47.77346451409999
 21
122.1888906553999
 31
0.0
  0
LINE
  5
95FDC
330
1F
100
AcDbEntity
  8
1
100
AcDbLine
 10
48.84366468359999
 20
122.8449027506
 30
0.0
 11
47.95034165199999
 21
122.8449027506
 31
0.0
  0
LINE
  5
95FDD
330
1F
100
AcDbEntity
  8
1
100
AcDbLine
 10
48.88733005929998
 20
122.871131502
 30
0.0
 11
47.99655370349998
 21
122.871131502
 31
0.0
  0
LINE
  5
95FDE
330
1F
100
AcDbEntity
  8
1
100
AcDbLine
 10
54.19785852460001
 20
125.9602196520999
 30
0.0
 11
53.6452968424
 21
125.9602196520999
 31
0.0
  0
LINE
  5
95FDF
330
1F
100
AcDbEntity
  8
1
100
AcDbLine
 10
54.93697642469999
 20
126.1522777638
 30
0.0
 11
54.38531263339999
 21
126.1522777638
 31
0.0
  0
LINE
  5
95FE0
330
1F
100
AcDbEntity
  8
1
100
AcDbLine
 10
52.0261806034
 20
126.1999999988
 30
0.0
 11
55.71377005919997
 21
126.1999999988
 31
0.0
  0
LINE
  5
95FE1
330
1F
100
AcDbEntity
  8
1
100
AcDbLine
 10
57.90435453219997
 20
118.3523684812
 30
0.0
 11
57.70414153059999
 21
118.3524244546999
 31
0.0
  0
LINE
  5
95FE2
330
1F
100
AcDbEntity
  8
1
100
AcDbLine
 10
54.79320085669996
 20
119.9007789721
 30
0.0
 11
54.80526261559997
 21
119.9007325673
 31
0.0
  0
LINE
  5
95FE3
330
1F
100
AcDbEntity
  8
1
100
AcDbLine
 10
54.9644411434
 20
126.1520394045
 30
0.0
 11
54.93697557109999
 21
126.1522777638
 31
0.0
  0
LINE
  5
95FE4
330
1F
100
AcDbEntity
  8
1
100
AcDbLine
 10
48.81371976209999
 20
123.0627057855999
 30
0.0
 11
48.12515847069999
 21
123.1418145739999
 31
0.0
  0
LINE
  5
95FE5
330
1F
100
AcDbEntity
  8
1
100
AcDbLine
 10
48.2993729808
 20
119.3762712766
 30
0.0
 11
47.9372109697
 21
119.4594483065
 31
0.0
  0
LINE
  5
95FE6
330
1F
100
AcDbEntity
  8
1
100
AcDbLine
 10
48.89584552579997
 20
123.4289251442999
 30
0.0
 11
49.19643928990003
 21
123.3508650577
 31
0.0
  0
LINE
  5
95FE7
330
1F
100
AcDbEntity
  8
nocut
100
AcDbLine
 10
61.71377005920001
 20
0.0
 30
0.0
 11
0.0
 21
0.0
 31
0.0
  0
LINE
  5
9600D
330
1F
100
AcDbEntity
  8
nocut
100
AcDbLine
 10
0.0
 20
0.0
 30
0.0
 11
0.0
 21
107.9944999988
 31
0.0
  0
LINE
  5
9601D
330
1F
100
AcDbEntity
  8
nocut
100
AcDbLine
 10
28.1508341709
 20
113.7904079306
 30
0.0
 11
31.09713027449994
 21
123.7369368828
 31
0.0
  0
LINE
  5
96052
330
1F
100
AcDbEntity
  8
nocut
100
AcDbLine
 10
61.71377005920001
 20
120.1999999988
 30
0.0
 11
61.71377005920001
 21
0.0
 31
0.0
  0
LINE
  5
96096
330
1F
100
AcDbEntity
  8
nocut
100
AcDbLine
 10
2.0
 20
109.9944999988
 30
0.0
 11
19.43987587009997
 21
109.9944999988
 31
0.0
  0
LINE
  5
960BF
330
1F
100
AcDbEntity
  8
nocut
100
AcDbLine
 10
33.92123225979992
 20
125.8844339341
 30
0.0
 11
51.9738233841
 21
126.1995430843
 31
0.0
  0
LINE
  5
960C0
330
1F
100
AcDbEntity
  8
nocut
100
AcDbLine
 10
52.0261806034
 20
126.1999999988
 30
0.0
 11
55.71377005919997
 21
126.1999999988
 31
0.0
  0
ARC
  5
960C3
330
1F
100
AcDbEntity
  8
1
100
AcDbCircle
 10
22.3979157617
 20
-115.4945000012
 30
0.0
 40
6.0
100
AcDbArc
 50
16.4999999999988
 51
109.1881364536989
  0
ARC
  5
960C4
330
1F
100
AcDbEntity
  8
1
100
AcDbCircle
 10
22.3979157617
 20
115.4944999988
 30
0.0
 40
6.0
100
AcDbArc
 50
250.8118635463011
 51
343.5000000000012
  0
ARC
  5
960C5
330
1F
100
AcDbEntity
  8
1
100
AcDbCircle
 10
55.71377005919997
 20
120.1999999988
 30
0.0
 40
6.0
100
AcDbArc
 50
80.77792077370117
 51
90.0
  0
ARC
  5
960C6
330
1F
100
AcDbEntity
  8
1
100
AcDbCircle
 10
55.71377005919997
 20
-120.2000000012
 30
0.0
 40
6.0
100
AcDbArc
 50
270.0
 51
0.0
  0
ARC
  5
960C7
330
1F
100
AcDbEntity
  8
1
100
AcDbCircle
 10
19.43987587009999
 20
106.9944999988
 30
0.0
 40
3.0
100
AcDbArc
 50
70.81186354630105
 51
90.0
  0
ARC
  5
960C8
330
1F
100
AcDbEntity
  8
1
100
AcDbCircle
 10
19.43987587009999
 20
-106.9945000012
 30
0.0
 40
3.0
100
AcDbArc
 50
270.0
 51
289.1881364536989
  0
ARC
  5
960C9
330
1F
100
AcDbEntity
  8
1
100
AcDbCircle
 10
33.97358947909999
 20
122.8848908486
 30
0.0
 40
3.0
100
AcDbArc
 50
91.00000000000015
 51
163.5000000000012
  0
ARC
  5
960CA
330
1F
100
AcDbEntity
  8
1
100
AcDbCircle
 10
33.97358947909999
 20
-122.884890851
 30
0.0
 40
3.0
100
AcDbArc
 50
196.4999999999988
 51
268.9999999999998
  0
ARC
  5
960CB
330
1F
100
AcDbEntity
  8
1
100
AcDbCircle
 10
2.0
 20
107.9944999988
 30
0.0
 40
2.0
100
AcDbArc
 50
90.0
 51
180.0
  0
ARC
  5
960CC
102
{ACAD_REACTORS
330
96183
330
96186
102
}
330
1F
100
AcDbEntity
  8
1
100
AcDbCircle
 10
2.0
 20
-107.9945000012
 30
0.0
 40
2.0
100
AcDbArc
 50
180.0
 51
270.0
  0
ARC
  5
960CD
330
1F
100
AcDbEntity
  8
nocut
100
AcDbCircle
 10
22.3979157617
 20
115.4944999988
 30
0.0
 40
6.0
100
AcDbArc
 50
250.8118635463011
 51
343.5000000000012
  0
ARC
  5
960CE
330
1F
100
AcDbEntity
  8
nocut
100
AcDbCircle
 10
55.71377005919997
 20
120.1999999988
 30
0.0
 40
6.0
100
AcDbArc
 50
0.0
 51
90.0
  0
ARC
  5
960CF
330
1F
100
AcDbEntity
  8
nocut
100
AcDbCircle
 10
19.43987587009997
 20
106.9944999988
 30
0.0
 40
3.0
100
AcDbArc
 50
70.81186354630105
 51
90.0
  0
ARC
  5
960D0
330
1F
100
AcDbEntity
  8
nocut
100
AcDbCircle
 10
33.97358947919997
 20
122.8848908486
 30
0.0
 40
3.0
100
AcDbArc
 50
91.00000000000015
 51
163.5000000000012
  0
ARC
  5
960D1
330
1F
100
AcDbEntity
  8
nocut
100
AcDbCircle
 10
52.0261806034
 20
123.1999999988
 30
0.0
 40
3.0
100
AcDbArc
 50
90.0
 51
91.00000000010112
  0
ARC
  5
960D4
102
{ACAD_REACTORS
330
9617A
330
96183
102
}
330
1F
100
AcDbEntity
  8
nocut
100
AcDbCircle
 10
2.0
 20
107.9944999988
 30
0.0
 40
2.0
100
AcDbArc
 50
90.0
 51
180.0
  0
SPLINE
  5
960D7
330
1F
100
AcDbEntity
  8
1
100
AcDbSpline
210
0.0
220
0.0
230
1.0
 70
     8
 71
     3
 72
    15
 73
    11
 74
     0
 42
0.000000001
 43
0.0000000001
 40
0.0
 40
0.0
 40
0.0
 40
0.0
 40
0.1246277837
 40
0.249368864
 40
0.3743267785
 40
0.4994881284
 40
0.6247624957
 40
0.7500133920000001
 40
0.8751081051999999
 40
1.0
 40
1.0
 40
1.0
 40
1.0
 10
54.7932008562
 20
119.9007865537
 30
0.0
 10
54.75781224349996
 20
119.9007839874
 30
0.0
 10
54.68646508109998
 20
119.8890613274
 30
0.0
 10
54.59108611249999
 20
119.8381623928
 30
0.0
 10
54.51677566459999
 20
119.7593148256
 30
0.0
 10
54.47140803519999
 20
119.660789341
 30
0.0
 10
54.4596647394
 20
119.5528803963
 30
0.0
 10
54.48278608949999
 20
119.4468242502
 30
0.0
 10
54.53826429820001
 20
119.3537553709
 30
0.0
 10
54.5933245361
 20
119.3066352977
 30
0.0
 10
54.62364392809999
 20
119.2882395920999
 30
0.0
  0
SPLINE
  5
960D8
330
1F
100
AcDbEntity
  8
1
100
AcDbSpline
210
0.0
220
0.0
230
1.0
 70
     8
 71
     3
 72
    11
 73
     7
 74
     0
 42
0.000000001
 43
0.0000000001
 40
0.0
 40
0.0
 40
0.0
 40
0.0
 40
0.2503028659
 40
0.5003539952000004
 40
0.7502265416000001
 40
1.0
 40
1.0
 40
1.0
 40
1.0
 10
53.8469073078
 20
121.6021978417
 30
0.0
 10
54.0046656083
 20
121.7561633637
 30
0.0
 10
54.35062870640004
 20
122.0342629955
 30
0.0
 10
54.93904890339999
 20
122.3434278205
 30
0.0
 10
55.57543416039999
 20
122.5337582312
 30
0.0
 10
56.01664224059999
 20
122.5765701232999
 30
0.0
 10
56.2366143422
 20
122.5765733061
 30
0.0
  0
SPLINE
  5
960D9
330
1F
100
AcDbEntity
  8
1
100
AcDbSpline
210
0.0
220
0.0
230
1.0
 70
     8
 71
     3
 72
    15
 73
    11
 74
     0
 42
0.000000001
 43
0.0000000001
 40
0.0
 40
0.0
 40
0.0
 40
0.0
 40
0.1251729074
 40
0.2504207204
 40
0.3756829531000001
 40
0.5008555791
 40
0.6258751821999999
 40
0.7507163117
 40
0.8754016667
 40
1.0
 40
1.0
 40
1.0
 40
1.0
 10
54.90591317709998
 20
118.1620827718999
 30
0.0
 10
54.891293254
 20
118.1372273706
 30
0.0
 10
54.86848326189999
 20
118.0833860652
 30
0.0
 10
54.85641821089997
 20
117.996726865
 30
0.0
 10
54.8671445983
 20
117.9098367754999
 30
0.0
 10
54.89998356849998
 20
117.8287457703999
 30
0.0
 10
54.9526657086
 20
117.7590143347
 30
0.0
 10
55.02160403089999
 20
117.7054543736
 30
0.0
 10
55.10197738279998
 20
117.6717568892
 30
0.0
 10
55.15969304339997
 20
117.6640951552
 30
0.0
 10
55.18839699369999
 20
117.6640928288
 30
0.0
  0
SPLINE
  5
960DA
330
1F
100
AcDbEntity
  8
1
100
AcDbSpline
210
0.0
220
0.0
230
1.0
 70
     8
 71
     3
 72
    11
 73
     7
 74
     0
 42
0.000000001
 43
0.0000000001
 40
0.0
 40
0.0
 40
0.0
 40
0.0
 40
0.2504798302
 40
0.5005842428000003
 40
0.7503828717000001
 40
1.0
 40
1.0
 40
1.0
 40
1.0
 10
56.4580433877
 20
117.387888012
 30
0.0
 10
56.42267549399999
 20
117.4510060994
 30
0.0
 10
56.33488162399999
 20
117.5683880322
 30
0.0
 10
56.16219228009999
 20
117.7034153217999
 30
0.0
 10
55.960424226
 20
117.7884897464
 30
0.0
 10
55.81544136299999
 20
117.8078455021
 30
0.0
 10
55.7433387714
 20
117.8078422504999
 30
0.0
  0
SPLINE
  5
960DB
330
1F
100
AcDbEntity
  8
1
100
AcDbSpline
210
0.0
220
0.0
230
1.0
 70
     8
 71
     3
 72
    11
 73
     7
 74
     0
 42
0.000000001
 43
0.0000000001
 40
0.0
 40
0.0
 40
0.0
 40
0.0
 40
0.2504868588
 40
0.5005802815
 40
0.7503835308
 40
1.0
 40
1.0
 40
1.0
 40
1.0
 10
56.4580433877
 20
117.387888012
 30
0.0
 10
56.47219331629997
 20
117.3626358317
 30
0.0
 10
56.50731519469999
 20
117.3156738427
 30
0.0
 10
56.5764066849
 20
117.2616600933
 30
0.0
 10
56.65712420599999
 20
117.2276180408
 30
0.0
 10
56.71512804150001
 20
117.2198802724
 30
0.0
 10
56.74397384169997
 20
117.2198780428999
 30
0.0
  0
SPLINE
  5
960DC
330
1F
100
AcDbEntity
  8
1
100
AcDbSpline
210
0.0
220
0.0
230
1.0
 70
     8
 71
     3
 72
    15
 73
    11
 74
     0
 42
0.000000001
 43
0.0000000001
 40
0.0
 40
0.0
 40
0.0
 40
0.0
 40
0.125029573
 40
0.2501336327
 40
0.3752819659
 40
0.5004144929
 40
0.6254841333
 40
0.7504531966
 40
0.8752884676999999
 40
1.0
 40
1.0
 40
1.0
 40
1.0
 10
54.90591317709998
 20
118.1620827718999
 30
0.0
 10
54.93306172739998
 20
118.2082381521
 30
0.0
 10
54.97848723869998
 20
118.3061414689999
 30
0.0
 10
55.01688894429996
 20
118.4632076955
 30
0.0
 10
55.02429305300001
 20
118.6248331177
 30
0.0
 10
55.00036519719998
 20
118.7848205226
 30
0.0
 10
54.94603665379997
 20
118.9371116982
 30
0.0
 10
54.86333626019998
 20
119.0759245292
 30
0.0
 10
54.75547708049997
 20
119.195953782
 30
0.0
 10
54.6693078033
 20
119.2605339177
 30
0.0
 10
54.62364392809999
 20
119.2882395920999
 30
0.0
  0
SPLINE
  5
960DD
330
1F
100
AcDbEntity
  8
1
100
AcDbSpline
210
0.0
220
0.0
230
1.0
 70
     8
 71
     3
 72
    15
 73
    11
 74
     0
 42
0.000000001
 43
0.0000000001
 40
0.0
 40
0.0
 40
0.0
 40
0.0
 40
0.1246785649
 40
0.2493888719
 40
0.3741998967
 40
0.4991303769
 40
0.6241931549000001
 40
0.7493813843000005
 40
0.8746591656999999
 40
1.0
 40
1.0
 40
1.0
 40
1.0
 10
54.80526261599999
 20
119.9007232023
 30
0.0
 10
54.85821781609999
 20
119.9007255569
 30
0.0
 10
54.96443157099998
 20
119.9110995539
 30
0.0
 10
55.11753206380001
 20
119.9572234571
 30
0.0
 10
55.25897331390002
 20
120.032147351
 30
0.0
 10
55.3833740956
 20
120.1330748768999
 30
0.0
 10
55.48609862909998
 20
120.2562001770999
 30
0.0
 10
55.56328831249999
 20
120.3969288144999
 30
0.0
 10
55.61206905939997
 20
120.5499053737
 30
0.0
 10
55.6244276434
 20
120.6564190894
 30
0.0
 10
55.62545058609998
 20
120.7096457488999
 30
0.0
  0
SPLINE
  5
960DE
330
1F
100
AcDbEntity
  8
1
100
AcDbSpline
210
0.0
220
0.0
230
1.0
 70
     8
 71
     3
 72
    23
 73
    19
 74
     0
 42
0.000000001
 43
0.0000000001
 40
0.0
 40
0.0
 40
0.0
 40
0.0
 40
0.0624851778
 40
0.1250166023
 40
0.1875928293
 40
0.2502013916
 40
0.3128305022
 40
0.3754655679
 40
0.4380917162
 40
0.5006947945000002
 40
0.5632626519000004
 40
0.6257861935
 40
0.6882601801999999
 40
0.7506836901999999
 40
0.8130602073
 40
0.8753973235
 40
0.9377060797
 40
1.0
 40
1.0
 40
1.0
 40
1.0
 10
53.8469073078
 20
121.6021978417
 30
0.0
 10
53.7253460269
 20
121.4835591014
 30
0.0
 10
53.49939514579998
 20
121.2277407417999
 30
0.0
 10
53.22093028810002
 20
120.7984166551
 30
0.0
 10
53.00848164439996
 20
120.3323893844
 30
0.0
 10
52.86681523390001
 20
119.8399602052
 30
0.0
 10
52.79899548820001
 20
119.3318998473
 30
0.0
 10
52.80651742150002
 20
118.8193423606
 30
0.0
 10
52.88921346539999
 20
118.3135145604
 30
0.0
 10
53.04527656260001
 20
117.8254985471999
 30
0.0
 10
53.27129160659999
 20
117.3659878922
 30
0.0
 10
53.56231099510001
 20
116.9450538086
 30
0.0
 10
53.91196178370001
 20
116.5719252522
 30
0.0
 10
54.31258815499997
 20
116.2547863617
 30
0.0
 10
54.7554009253
 20
116.0005965198
 30
0.0
 10
55.2307328818
 20
115.8149356595
 30
0.0
 10
55.72801347339997
 20
115.701883622
 30
0.0
 10
56.06727462100002
 20
115.676571697
 30
0.0
 10
56.2366143422
 20
115.6765741472
 30
0.0
  0
SPLINE
  5
960DF
330
1F
100
AcDbEntity
  8
1
100
AcDbSpline
210
0.0
220
0.0
230
1.0
 70
     8
 71
     3
 72
    11
 73
     7
 74
     0
 42
0.000000001
 43
0.0000000001
 40
0.0
 40
0.0
 40
0.0
 40
0.0
 40
0.249372664
 40
0.4991084629
 40
0.7493605685000003
 40
1.0
 40
1.0
 40
1.0
 40
1.0
 10
55.9535815472
 20
121.0332694103
 30
0.0
 10
55.91140668550004
 20
121.03327267
 30
0.0
 10
55.82608740579996
 20
121.0164872388999
 30
0.0
 10
55.71786682169999
 20
120.9447083880999
 30
0.0
 10
55.64453015729998
 20
120.8373032643
 30
0.0
 10
55.62626509560002
 20
120.7520270252
 30
0.0
 10
55.62545058609998
 20
120.7096457488999
 30
0.0
  0
SPLINE
  5
960E0
330
1F
100
AcDbEntity
  8
1
100
AcDbSpline
210
0.0
220
0.0
230
1.0
 70
     8
 71
     3
 72
     9
 73
     5
 74
     0
 42
0.000000001
 43
0.0000000001
 40
0.0
 40
0.0
 40
0.0
 40
0.0
 40
0.4998150085
 40
1.0
 40
1.0
 40
1.0
 40
1.0
 10
56.95421661759996
 20
120.4453052027
 30
0.0
 10
57.02298404089997
 20
120.4453083039998
 30
0.0
 10
57.16112991919999
 20
120.4628450138
 30
0.0
 10
57.29040978689999
 20
120.5145885088
 30
0.0
 10
57.3505843525
 20
120.5479798834
 30
0.0
  0
SPLINE
  5
960E1
330
1F
100
AcDbEntity
  8
1
100
AcDbSpline
210
0.0
220
0.0
230
1.0
 70
     8
 71
     3
 72
     9
 73
     5
 74
     0
 42
0.000000001
 43
0.0000000001
 40
0.0
 40
0.0
 40
0.0
 40
0.0
 40
0.4998029695000001
 40
1.0
 40
1.0
 40
1.0
 40
1.0
 10
57.50915839520001
 20
120.5890546243999
 30
0.0
 10
57.48164743529997
 20
120.589056854
 30
0.0
 10
57.42637916109998
 20
120.5820400839
 30
0.0
 10
57.37465883009996
 20
120.5613390142999
 30
0.0
 10
57.3505843525
 20
120.5479798834
 30
0.0
  0
SPLINE
  5
960E2
330
1F
100
AcDbEntity
  8
1
100
AcDbSpline
210
0.0
220
0.0
230
1.0
 70
     8
 71
     3
 72
    23
 73
    19
 74
     0
 42
0.000000001
 43
0.0000000001
 40
0.0
 40
0.0
 40
0.0
 40
0.0
 40
0.0622939203
 40
0.1246026765
 40
0.1869397927
 40
0.2493163098
 40
0.3117398198
 40
0.3742138065
 40
0.4367373481000003
 40
0.4993052055
 40
0.5619082838000004
 40
0.6245344321000001
 40
0.6871694978000003
 40
0.7497986084
 40
0.8124071706999998
 40
0.8749833976999996
 40
0.9375148221999999
 40
1.0
 40
1.0
 40
1.0
 40
1.0
 10
56.30696630919999
 20
122.5765733061
 30
0.0
 10
56.47630603030001
 20
122.5765757562
 30
0.0
 10
56.81556717799997
 20
122.5512638312
 30
0.0
 10
57.31284776949999
 20
122.4382117937
 30
0.0
 10
57.78817972609999
 20
122.2525509334
 30
0.0
 10
58.23099249630002
 20
121.9983610915
 30
0.0
 10
58.63161886770001
 20
121.681222201
 30
0.0
 10
58.9812696562
 20
121.3080936446999
 30
0.0
 10
59.27228904479999
 20
120.887159561
 30
0.0
 10
59.49830408869999
 20
120.4276489061
 30
0.0
 10
59.65436718589997
 20
119.9396328928
 30
0.0
 10
59.7370632298
 20
119.4338050925999
 30
0.0
 10
59.74458516310001
 20
118.9212476058999
 30
0.0
 10
59.67676541750001
 20
118.413187248
 30
0.0
 10
59.5350990069
 20
117.9207580689
 30
0.0
 10
59.3226503633
 20
117.4547307981
 30
0.0
 10
59.04418550549999
 20
117.0254067114999
 30
0.0
 10
58.8182346245
 20
116.7695883519
 30
0.0
 10
58.69667334359999
 20
116.6509496114999
 30
0.0
  0
SPLINE
  5
960E3
330
1F
100
AcDbEntity
  8
1
100
AcDbSpline
210
0.0
220
0.0
230
1.0
 70
     8
 71
     3
 72
    11
 73
     7
 74
     0
 42
0.000000001
 43
0.0000000001
 40
0.0
 40
0.0
 40
0.0
 40
0.0
 40
0.2497734584
 40
0.4996460048
 40
0.7496971341
 40
1.0
 40
1.0
 40
1.0
 40
1.0
 10
56.30696630919999
 20
115.6765741472
 30
0.0
 10
56.52693841069996
 20
115.6765773299
 30
0.0
 10
56.96814649089997
 20
115.719389222
 30
0.0
 10
57.604531748
 20
115.9097196327
 30
0.0
 10
58.19295194490003
 20
116.2188844578
 30
0.0
 10
58.53891504310002
 20
116.4969840895
 30
0.0
 10
58.69667334359999
 20
116.6509496114999
 30
0.0
  0
SPLINE
  5
960E4
330
1F
100
AcDbEntity
  8
1
100
AcDbSpline
210
0.0
220
0.0
230
1.0
 70
     8
 71
     3
 72
    23
 73
    19
 74
     0
 42
0.000000001
 43
0.0000000001
 40
0.0
 40
0.0
 40
0.0
 40
0.0
 40
0.0624851778
 40
0.1250166023
 40
0.1875928293
 40
0.2502013916
 40
0.3128305022
 40
0.3754655679
 40
0.4380917162
 40
0.5006947945000002
 40
0.5632626519000004
 40
0.6257861935
 40
0.6882601801999999
 40
0.7506836901999999
 40
0.8130602073
 40
0.8753973235
 40
0.9377060797
 40
1.0
 40
1.0
 40
1.0
 40
1.0
 10
53.9172592747
 20
121.6021978417
 30
0.0
 10
53.79569799390001
 20
121.4835591014
 30
0.0
 10
53.56974711279995
 20
121.2277407417999
 30
0.0
 10
53.29128225509997
 20
120.7984166551
 30
0.0
 10
53.0788336114
 20
120.3323893844
 30
0.0
 10
52.93716720089997
 20
119.8399602052
 30
0.0
 10
52.86934745519999
 20
119.3318998473
 30
0.0
 10
52.87686938849997
 20
118.8193423606
 30
0.0
 10
52.95956543239999
 20
118.3135145604
 30
0.0
 10
53.1156285296
 20
117.8254985471999
 30
0.0
 10
53.34164357349999
 20
117.3659878922
 30
0.0
 10
53.63266296209999
 20
116.9450538086
 30
0.0
 10
53.98231375069999
 20
116.5719252522
 30
0.0
 10
54.38294012199998
 20
116.2547863617
 30
0.0
 10
54.8257528922
 20
116.0005965198
 30
0.0
 10
55.3010848488
 20
115.8149356595
 30
0.0
 10
55.79836544029999
 20
115.701883622
 30
0.0
 10
56.13762658799998
 20
115.676571697
 30
0.0
 10
56.30696630919999
 20
115.6765741472
 30
0.0
  0
SPLINE
  5
960E5
330
1F
100
AcDbEntity
  8
1
100
AcDbSpline
210
0.0
220
0.0
230
1.0
 70
     8
 71
     3
 72
    11
 73
     7
 74
     0
 42
0.000000001
 43
0.0000000001
 40
0.0
 40
0.0
 40
0.0
 40
0.0
 40
0.2503028659
 40
0.5003539952000004
 40
0.7502265416000001
 40
1.0
 40
1.0
 40
1.0
 40
1.0
 10
53.9172592747
 20
121.6021978417
 30
0.0
 10
54.07501757529999
 20
121.7561633637
 30
0.0
 10
54.42098067339998
 20
122.0342629955
 30
0.0
 10
55.0094008703
 20
122.3434278205
 30
0.0
 10
55.6457861274
 20
122.5337582312
 30
0.0
 10
56.08699420759997
 20
122.5765701232999
 30
0.0
 10
56.30696630919999
 20
122.5765733061
 30
0.0
  0
SPLINE
  5
960E6
330
1F
100
AcDbEntity
  8
1
100
AcDbSpline
210
0.0
220
0.0
230
1.0
 70
     8
 71
     3
 72
    27
 73
    23
 74
     0
 42
0.000000001
 43
0.0000000001
 40
0.0
 40
0.0
 40
0.0
 40
0.0
 40
0.0625114557
 40
0.0938261144
 40
0.1251568324
 40
0.1877779008
 40
0.2504262160000001
 40
0.2817900909
 40
0.3131512442
 40
0.3757777969
 40
0.4383585547
 40
0.5008782949000004
 40
0.5633311088000001
 40
0.6257212842000001
 40
0.6880626028
 40
0.7192594153
 40
0.7504523791
 40
0.8127642149999998
 40
0.8751000231999999
 40
0.9063217826999999
 40
0.9375554814
 40
1.0
 40
1.0
 40
1.0
 40
1.0
 10
54.72030731119996
 20
120.8135924671999
 30
0.0
 10
54.61061148599998
 20
120.7065339167
 30
0.0
 10
54.46127097329998
 20
120.5289816088999
 30
0.0
 10
54.30009659770004
 20
120.2674134555
 30
0.0
 10
54.16502465339998
 20
119.9910506404999
 30
0.0
 10
54.0478453703
 20
119.6226511766
 30
0.0
 10
54.00452482499996
 20
119.238413067
 30
0.0
 10
54.0150100481
 20
118.9307441299
 30
0.0
 10
54.05537512889996
 20
118.6256163788
 30
0.0
 10
54.16146128299999
 20
118.253886975
 30
0.0
 10
54.37276522679996
 20
117.841695541
 30
0.0
 10
54.6600067496
 20
117.4787536058999
 30
0.0
 10
55.01220121450001
 20
117.1791357766
 30
0.0
 10
55.41570447639998
 20
116.9543454174
 30
0.0
 10
55.7822762444
 20
116.8365243953
 30
0.0
 10
56.0844911669
 20
116.7868367622999
 30
0.0
 10
56.39006314760003
 20
116.7671183869
 30
0.0
 10
56.77349515029998
 20
116.7992293359
 30
0.0
 10
57.14319871009999
 20
116.9060633114
 30
0.0
 10
57.42186333230001
 20
117.0335515966
 30
0.0
 10
57.68682926939999
 20
117.1878397283
 30
0.0
 10
57.86766971449998
 20
117.3326110735
 30
0.0
 10
57.97724807769998
 20
117.439554986
 30
0.0
  0
SPLINE
  5
960E7
330
1F
100
AcDbEntity
  8
1
100
AcDbSpline
210
0.0
220
0.0
230
1.0
 70
     8
 71
     3
 72
    15
 73
    11
 74
     0
 42
0.000000001
 43
0.0000000001
 40
0.0
 40
0.0
 40
0.0
 40
0.0
 40
0.125029573
 40
0.2501336327
 40
0.3752819659
 40
0.5004144929
 40
0.6254841333
 40
0.7504531966
 40
0.8752884676999999
 40
1.0
 40
1.0
 40
1.0
 40
1.0
 10
57.79164221180002
 20
120.0910646813
 30
0.0
 10
57.7644936615
 20
120.0449093010999
 30
0.0
 10
57.71906815029999
 20
119.9470059842
 30
0.0
 10
57.68066644459998
 20
119.7899397577
 30
0.0
 10
57.67326233590001
 20
119.6283143354999
 30
0.0
 10
57.69719019179999
 20
119.4683269307
 30
0.0
 10
57.75151873509996
 20
119.316035755
 30
0.0
 10
57.83421912879997
 20
119.1772229239999
 30
0.0
 10
57.94207830839997
 20
119.0571936712
 30
0.0
 10
58.0282475856
 20
118.9926135354999
 30
0.0
 10
58.07391146089997
 20
118.9649078610999
 30
0.0
  0
SPLINE
  5
960E8
330
1F
100
AcDbEntity
  8
1
100
AcDbSpline
210
0.0
220
0.0
230
1.0
 70
     8
 71
     3
 72
     9
 73
     5
 74
     0
 42
0.000000001
 43
0.0000000001
 40
0.0
 40
0.0
 40
0.0
 40
0.0
 40
0.5005251464000004
 40
1.0
 40
1.0
 40
1.0
 40
1.0
 10
56.0513607673
 20
120.8652594413
 30
0.0
 10
56.0309155762
 20
120.901746244
 30
0.0
 10
55.97557695239999
 20
120.9674366101
 30
0.0
 10
55.8995113848
 20
121.007383758
 30
0.0
 10
55.8595445048
 20
121.0194090417999
 30
0.0
  0
SPLINE
  5
960E9
330
1F
100
AcDbEntity
  8
1
100
AcDbSpline
210
0.0
220
0.0
230
1.0
 70
     8
 71
     3
 72
    11
 73
     7
 74
     0
 42
0.000000001
 43
0.0000000001
 40
0.0
 40
0.0
 40
0.0
 40
0.0
 40
0.2496189639
 40
0.4994185253000003
 40
0.749516036
 40
1.0
 40
1.0
 40
1.0
 40
1.0
 10
56.76606537909997
 20
120.4453089496999
 30
0.0
 10
56.6939623145
 20
120.4453062257
 30
0.0
 10
56.54897668299997
 20
120.4646512307
 30
0.0
 10
56.34721494709999
 20
120.5497385599999
 30
0.0
 10
56.17452130959998
 20
120.6847571844
 30
0.0
 10
56.08672921670001
 20
120.8021403623
 30
0.0
 10
56.0513607673
 20
120.8652594413
 30
0.0
  0
SPLINE
  5
960EA
330
1F
100
AcDbEntity
  8
1
100
AcDbSpline
210
0.0
220
0.0
230
1.0
 70
     8
 71
     3
 72
    15
 73
    11
 74
     0
 42
0.000000001
 43
0.0000000001
 40
0.0
 40
0.0
 40
0.0
 40
0.0
 40
0.1250893857
 40
0.2502769307
 40
0.3754807543999999
 40
0.5006435652000001
 40
0.6257006247
 40
0.7506142127
 40
0.8753740118000001
 40
1.0
 40
1.0
 40
1.0
 40
1.0
 10
57.60349097789998
 20
120.0910646813
 30
0.0
 10
57.61609958129997
 20
120.1125006281
 30
0.0
 10
57.63653427679996
 20
120.1584184389
 30
0.0
 10
57.650949066
 20
120.2322815605
 30
0.0
 10
57.6484913781
 20
120.3075483577
 30
0.0
 10
57.62926969239998
 20
120.3803260577
 30
0.0
 10
57.59426771540001
 20
120.4469033962
 30
0.0
 10
57.54526074789999
 20
120.5038727568999
 30
0.0
 10
57.48479993849997
 20
120.5482999810999
 30
0.0
 10
57.43878177839997
 20
120.5680772797
 30
0.0
 10
57.41505513459998
 20
120.5752151521999
 30
0.0
  0
SPLINE
  5
960EB
330
1F
100
AcDbEntity
  8
1
100
AcDbSpline
210
0.0
220
0.0
230
1.0
 70
     8
 71
     3
 72
    15
 73
    11
 74
     0
 42
0.000000001
 43
0.0000000001
 40
0.0
 40
0.0
 40
0.0
 40
0.0
 40
0.1247078047
 40
0.2495480571
 40
0.3745154309000001
 40
0.4995855041
 40
0.6247184673
 40
0.7498651064000002
 40
0.8749741643
 40
1.0
 40
1.0
 40
1.0
 40
1.0
 10
57.88576022699999
 20
118.9649078610999
 30
0.0
 10
57.84009766489997
 20
118.9926127388
 30
0.0
 10
57.75392897099999
 20
119.0571942927
 30
0.0
 10
57.64606588189995
 20
119.1772202256
 30
0.0
 10
57.56336681459998
 20
119.3160360139999
 30
0.0
 10
57.50903606849999
 20
119.4683262018
 30
0.0
 10
57.48511061969996
 20
119.6283137745
 30
0.0
 10
57.49251216759995
 20
119.7899411827
 30
0.0
 10
57.53091887850001
 20
119.947006335
 30
0.0
 10
57.57634320839997
 20
120.0449106285
 30
0.0
 10
57.60349097789998
 20
120.0910646813
 30
0.0
  0
SPLINE
  5
960EC
330
1F
100
AcDbEntity
  8
1
100
AcDbSpline
210
0.0
220
0.0
230
1.0
 70
     8
 71
     3
 72
    15
 73
    11
 74
     0
 42
0.000000001
 43
0.0000000001
 40
0.0
 40
0.0
 40
0.0
 40
0.0
 40
0.1251729074
 40
0.2504207204
 40
0.3756829531000001
 40
0.5008555791
 40
0.6258751821999999
 40
0.7507163117
 40
0.8754016667
 40
1.0
 40
1.0
 40
1.0
 40
1.0
 10
57.79164221180002
 20
120.0910646813
 30
0.0
 10
57.80626213499999
 20
120.1159200826
 30
0.0
 10
57.82907212699999
 20
120.1697613881
 30
0.0
 10
57.841137178
 20
120.2564205882
 30
0.0
 10
57.83041079060001
 20
120.3433106778
 30
0.0
 10
57.79757182039998
 20
120.4244016828
 30
0.0
 10
57.74488968029999
 20
120.4941331185999
 30
0.0
 10
57.6759513581
 20
120.5476930796
 30
0.0
 10
57.5955780061
 20
120.581390564
 30
0.0
 10
57.53786234559999
 20
120.5890522981
 30
0.0
 10
57.50915839520001
 20
120.5890546243999
 30
0.0
  0
SPLINE
  5
960ED
330
1F
100
AcDbEntity
  8
1
100
AcDbSpline
210
0.0
220
0.0
230
1.0
 70
     8
 71
     3
 72
    15
 73
    11
 74
     0
 42
0.000000001
 43
0.0000000001
 40
0.0
 40
0.0
 40
0.0
 40
0.0
 40
0.1253365997
 40
0.2506194889
 40
0.3758055221999999
 40
0.5008685815999999
 40
0.6257990807000004
 40
0.7506086562000001
 40
0.8753220836
 40
1.0
 40
1.0
 40
1.0
 40
1.0
 10
56.88395356889998
 20
117.5435017042999
 30
0.0
 10
56.88497647829999
 20
117.5967266289
 30
0.0
 10
56.89733667510001
 20
117.7032403689999
 30
0.0
 10
56.94611219339997
 20
117.8562183626
 30
0.0
 10
57.02330508599999
 20
117.9969471034
 30
0.0
 10
57.12602705519998
 20
118.1200736374
 30
0.0
 10
57.25042870890002
 20
118.2209996996
 30
0.0
 10
57.39186969010001
 20
118.2959259762
 30
0.0
 10
57.54497188630001
 20
118.34204731
 30
0.0
 10
57.65118656099996
 20
118.3524211503999
 30
0.0
 10
57.70414154870003
 20
118.3524241933
 30
0.0
  0
SPLINE
  5
960EE
330
1F
100
AcDbEntity
  8
1
100
AcDbSpline
210
0.0
220
0.0
230
1.0
 70
     8
 71
     3
 72
    11
 73
     7
 74
     0
 42
0.000000001
 43
0.0000000001
 40
0.0
 40
0.0
 40
0.0
 40
0.0
 40
0.2504798302
 40
0.5005842428000003
 40
0.7503828717000001
 40
1.0
 40
1.0
 40
1.0
 40
1.0
 10
56.2395120012
 20
120.8652594413
 30
0.0
 10
56.27487989490001
 20
120.8021413538
 30
0.0
 10
56.36267376490002
 20
120.684759421
 30
0.0
 10
56.5353631089
 20
120.5497321314
 30
0.0
 10
56.7371311629
 20
120.4646577068
 30
0.0
 10
56.88211402589999
 20
120.4453019510999
 30
0.0
 10
56.95421661759996
 20
120.4453052027
 30
0.0
  0
SPLINE
  5
960EF
330
1F
100
AcDbEntity
  8
1
100
AcDbSpline
210
0.0
220
0.0
230
1.0
 70
     8
 71
     3
 72
     9
 73
     5
 74
     0
 42
0.000000001
 43
0.0000000001
 40
0.0
 40
0.0
 40
0.0
 40
0.0
 40
0.5001947471000002
 40
1.0
 40
1.0
 40
1.0
 40
1.0
 10
55.15881980249996
 20
117.7051675698
 30
0.0
 10
55.21899549369999
 20
117.7385595689999
 30
0.0
 10
55.3482748795
 20
117.7903053815
 30
0.0
 10
55.48642151589999
 20
117.8078359056
 30
0.0
 10
55.55518754209998
 20
117.8078385035
 30
0.0
  0
SPLINE
  5
960F0
330
1F
100
AcDbEntity
  8
1
100
AcDbSpline
210
0.0
220
0.0
230
1.0
 70
     8
 71
     3
 72
    15
 73
    11
 74
     0
 42
0.000000001
 43
0.0000000001
 40
0.0
 40
0.0
 40
0.0
 40
0.0
 40
0.1246277837
 40
0.249368864
 40
0.3743267785
 40
0.4994881284
 40
0.6247624957
 40
0.7500133920000001
 40
0.8751081051999999
 40
1.0
 40
1.0
 40
1.0
 40
1.0
 10
57.9043545328
 20
118.3523608995
 30
0.0
 10
57.9397431454
 20
118.3523634658
 30
0.0
 10
58.01109030789999
 20
118.3640861258
 30
0.0
 10
58.10646927650001
 20
118.4149850604
 30
0.0
 10
58.1807797243
 20
118.4938326276
 30
0.0
 10
58.2261473538
 20
118.5923581123
 30
0.0
 10
58.23789064959999
 20
118.7002670568999
 30
0.0
 10
58.21476929950001
 20
118.8063232029998
 30
0.0
 10
58.15929109079997
 20
118.8993920823
 30
0.0
 10
58.1042308528
 20
118.9465121555
 30
0.0
 10
58.07391146089997
 20
118.9649078610999
 30
0.0
  0
SPLINE
  5
960F1
330
1F
100
AcDbEntity
  8
1
100
AcDbSpline
210
0.0
220
0.0
230
1.0
 70
     8
 71
     3
 72
    15
 73
    11
 74
     0
 42
0.000000001
 43
0.0000000001
 40
0.0
 40
0.0
 40
0.0
 40
0.0
 40
0.1246350391
 40
0.2493735368
 40
0.3743327057
 40
0.4994942835
 40
0.624767636
 40
0.7500175542000001
 40
0.8751070309000001
 40
1.0
 40
1.0
 40
1.0
 40
1.0
 10
57.7176986901
 20
118.3523645057
 30
0.0
 10
57.75302761729999
 20
118.3525305449
 30
0.0
 10
57.82419709049997
 20
118.3645352726
 30
0.0
 10
57.91921323399996
 20
118.4157029047
 30
0.0
 10
57.99314867009996
 20
118.4946359608
 30
0.0
 10
58.03817383609999
 20
118.5931040553
 30
0.0
 10
58.04969296239999
 20
118.7008406873
 30
0.0
 10
58.0264530526
 20
118.8066699602
 30
0.0
 10
57.9710021884
 20
118.8995259926
 30
0.0
 10
57.91602731560002
 20
118.9465438895999
 30
0.0
 10
57.88576022699999
 20
118.9649078610999
 30
0.0
  0
SPLINE
  5
960F2
330
1F
100
AcDbEntity
  8
1
100
AcDbSpline
210
0.0
220
0.0
230
1.0
 70
     8
 71
     3
 72
    15
 73
    11
 74
     0
 42
0.000000001
 43
0.0000000001
 40
0.0
 40
0.0
 40
0.0
 40
0.0
 40
0.1246785649
 40
0.2493888719
 40
0.3741998967
 40
0.4991303769
 40
0.6241931549000001
 40
0.7493813843000005
 40
0.8746591656999999
 40
1.0
 40
1.0
 40
1.0
 40
1.0
 10
57.89229277289999
 20
118.3524242509
 30
0.0
 10
57.83933757279999
 20
118.3524218962999
 30
0.0
 10
57.73312381789998
 20
118.3420478993
 30
0.0
 10
57.58002332520002
 20
118.2959239961
 30
0.0
 10
57.438582075
 20
118.2210001022
 30
0.0
 10
57.31418129329998
 20
118.1200725764
 30
0.0
 10
57.21145675989999
 20
117.9969472760999
 30
0.0
 10
57.13426707640002
 20
117.8562186387
 30
0.0
 10
57.08548632949998
 20
117.7032420795
 30
0.0
 10
57.0731277455
 20
117.5967283637999
 30
0.0
 10
57.0721048028
 20
117.5435017042999
 30
0.0
  0
SPLINE
  5
960F3
330
1F
100
AcDbEntity
  8
1
100
AcDbSpline
210
0.0
220
0.0
230
1.0
 70
     8
 71
     3
 72
    11
 73
     7
 74
     0
 42
0.000000001
 43
0.0000000001
 40
0.0
 40
0.0
 40
0.0
 40
0.0
 40
0.2504868588
 40
0.5005802815
 40
0.7503835308
 40
1.0
 40
1.0
 40
1.0
 40
1.0
 10
56.2395120012
 20
120.8652594413
 30
0.0
 10
56.22536207269999
 20
120.8905116214999
 30
0.0
 10
56.19024019419999
 20
120.9374736105
 30
0.0
 10
56.1211487041
 20
120.99148736
 30
0.0
 10
56.04043118289999
 20
121.0255294123999
 30
0.0
 10
55.98242734749999
 20
121.0332671808
 30
0.0
 10
55.9535815472
 20
121.0332694103
 30
0.0
  0
SPLINE
  5
960F4
330
1F
100
AcDbEntity
  8
1
100
AcDbSpline
210
0.0
220
0.0
230
1.0
 70
     8
 71
     3
 72
    11
 73
     7
 74
     0
 42
0.000000001
 43
0.0000000001
 40
0.0
 40
0.0
 40
0.0
 40
0.0
 40
0.249372664
 40
0.4991084629
 40
0.7493605685000003
 40
1.0
 40
1.0
 40
1.0
 40
1.0
 10
56.74397384169997
 20
117.2198780428999
 30
0.0
 10
56.78614870339997
 20
117.2198747832
 30
0.0
 10
56.87146798309999
 20
117.2366602142999
 30
0.0
 10
56.97968856720001
 20
117.3084390651
 30
0.0
 10
57.05302523169999
 20
117.4158441889
 30
0.0
 10
57.07129029329998
 20
117.501120428
 30
0.0
 10
57.0721048028
 20
117.5435017042999
 30
0.0
  0
SPLINE
  5
960F5
330
1F
100
AcDbEntity
  8
1
100
AcDbSpline
210
0.0
220
0.0
230
1.0
 70
     8
 71
     3
 72
    11
 73
     7
 74
     0
 42
0.000000001
 43
0.0000000001
 40
0.0
 40
0.0
 40
0.0
 40
0.0
 40
0.2494302051
 40
0.4992618037
 40
0.7494793536
 40
1.0
 40
1.0
 40
1.0
 40
1.0
 10
56.65017257559997
 20
117.2338104328
 30
0.0
 10
56.6830583981
 20
117.2437324675
 30
0.0
 10
56.7461638394
 20
117.2742882651
 30
0.0
 10
56.82162586129999
 20
117.3471198072
 30
0.0
 10
56.87103603919999
 20
117.4397880372
 30
0.0
 10
56.88329064539999
 20
117.5090078817999
 30
0.0
 10
56.88395356889998
 20
117.5435017042999
 30
0.0
  0
SPLINE
  5
960F6
330
1F
100
AcDbEntity
  8
1
100
AcDbSpline
210
0.0
220
0.0
230
1.0
 70
     8
 71
     3
 72
     9
 73
     5
 74
     0
 42
0.000000001
 43
0.0000000001
 40
0.0
 40
0.0
 40
0.0
 40
0.0
 40
0.4998150085
 40
1.0
 40
1.0
 40
1.0
 40
1.0
 10
55.7433387714
 20
117.8078422504999
 30
0.0
 10
55.674571348
 20
117.8078391492
 30
0.0
 10
55.53642546970002
 20
117.7903024395
 30
0.0
 10
55.40714560200001
 20
117.7385589444
 30
0.0
 10
55.34697103640002
 20
117.7051675698
 30
0.0
  0
SPLINE
  5
960F7
330
1F
100
AcDbEntity
  8
1
100
AcDbSpline
210
0.0
220
0.0
230
1.0
 70
     8
 71
     3
 72
    27
 73
    23
 74
     0
 42
0.000000001
 43
0.0000000001
 40
0.0
 40
0.0
 40
0.0
 40
0.0
 40
0.0624445186
 40
0.0936782173
 40
0.1248999768
 40
0.187235785
 40
0.2495476209
 40
0.2807405847
 40
0.3119373971999999
 40
0.3742787158
 40
0.4366688912
 40
0.4991217051
 40
0.5616414453000002
 40
0.6242222031
 40
0.6868487557999999
 40
0.7182099091
 40
0.7495737840000001
 40
0.8122220991999999
 40
0.8748431676
 40
0.9061738855999999
 40
0.9374885443
 40
1.0
 40
1.0
 40
1.0
 40
1.0
 10
54.72030731119996
 20
120.8135924671999
 30
0.0
 10
54.82988567439996
 20
120.9205363796999
 30
0.0
 10
55.01072611960001
 20
121.0653077249
 30
0.0
 10
55.27569205659998
 20
121.2195958566
 30
0.0
 10
55.55435667890001
 20
121.3470841419
 30
0.0
 10
55.92406023860004
 20
121.4539181173
 30
0.0
 10
56.30749224139997
 20
121.4860290662999
 30
0.0
 10
56.61306422199999
 20
121.4663106909
 30
0.0
 10
56.91527914449999
 20
121.416623058
 30
0.0
 10
57.28185091259999
 20
121.2988020358
 30
0.0
 10
57.68535417449999
 20
121.0740116766
 30
0.0
 10
58.03754863939996
 20
120.7743938473
 30
0.0
 10
58.3247901622
 20
120.4114519122
 30
0.0
 10
58.53609410589999
 20
119.9992604782
 30
0.0
 10
58.64218025999996
 20
119.6275310744
 30
0.0
 10
58.68254534089999
 20
119.3224033232999
 30
0.0
 10
58.69303056399999
 20
119.0147343862
 30
0.0
 10
58.64971001859998
 20
118.6304962767
 30
0.0
 10
58.53253073550002
 20
118.2620968127
 30
0.0
 10
58.39745879119998
 20
117.9857339978
 30
0.0
 10
58.23628441559996
 20
117.7241658443
 30
0.0
 10
58.08694390289996
 20
117.5466135365
 30
0.0
 10
57.97724807769998
 20
117.439554986
 30
0.0
  0
SPLINE
  5
960F8
330
1F
100
AcDbEntity
  8
1
100
AcDbSpline
210
0.0
220
0.0
230
1.0
 70
     8
 71
     3
 72
     9
 73
     5
 74
     0
 42
0.000000001
 43
0.0000000001
 40
0.0
 40
0.0
 40
0.0
 40
0.0
 40
0.4998029695000001
 40
1.0
 40
1.0
 40
1.0
 40
1.0
 10
55.18839699369999
 20
117.6640928288
 30
0.0
 10
55.21590795369998
 20
117.6640905992
 30
0.0
 10
55.2711762278
 20
117.6711073693
 30
0.0
 10
55.32289655879997
 20
117.6918084389
 30
0.0
 10
55.34697103640002
 20
117.7051675698
 30
0.0
  0
SPLINE
  5
960F9
330
1F
100
AcDbEntity
  8
1
100
AcDbSpline
210
0.0
220
0.0
230
1.0
 70
     8
 71
     3
 72
     8
 73
     4
 74
     0
 42
0.000000001
 43
0.0000000001
 40
0.0
 40
0.0
 40
0.0
 40
0.0
 40
1.0
 40
1.0
 40
1.0
 40
1.0
 10
55.09406290049997
 20
117.6778625612
 30
0.0
 10
55.11649972739999
 20
117.6845981964
 30
0.0
 10
55.13833612270002
 20
117.6938010029
 30
0.0
 10
55.15881980249996
 20
117.7051675698
 30
0.0
  0
SPLINE
  5
960FA
330
1F
100
AcDbEntity
  8
1
100
AcDbSpline
210
0.0
220
0.0
230
1.0
 70
     8
 71
     3
 72
     9
 73
     5
 74
     0
 42
0.000000001
 43
0.0000000001
 40
0.0
 40
0.0
 40
0.0
 40
0.0
 40
0.2522513278
 40
1.0
 40
1.0
 40
1.0
 40
1.0
 10
63.5
 20
125.1939899272999
 30
0.0
 10
63.50036282529998
 20
125.0863142656999
 30
0.0
 10
63.50098325070002
 20
124.659453312
 30
0.0
 10
63.4982992832
 20
124.2325870637
 30
0.0
 10
63.4943713767
 20
123.9134264311
 30
0.0
  0
SPLINE
  5
960FB
330
1F
100
AcDbEntity
  8
1
100
AcDbSpline
210
0.0
220
0.0
230
1.0
 70
     8
 71
     3
 72
    15
 73
    11
 74
     0
 42
0.000000001
 43
0.0000000001
 40
0.0
 40
0.0
 40
0.0
 40
0.0
 40
0.1258909591
 40
0.2515353729
 40
0.37677774
 40
0.5015511734000003
 40
0.6260197159000001
 40
0.7504123927
 40
0.8749894196999999
 40
1.0
 40
1.0
 40
1.0
 40
1.0
 10
63.5
 20
125.1939899272999
 30
0.0
 10
63.49983069620001
 20
125.2442342123
 30
0.0
 10
63.49003407529998
 20
125.3448542824999
 30
0.0
 10
63.4473151777
 20
125.4899269445
 30
0.0
 10
63.3783953332
 20
125.6240890746999
 30
0.0
 10
63.2857934143
 20
125.7425474749
 30
0.0
 10
63.17268640659998
 20
125.8411169681
 30
0.0
 10
63.04292349849998
 20
125.9163061503999
 30
0.0
 10
62.90102312070001
 20
125.9653681714999
 30
0.0
 10
62.80166592400004
 20
125.9793804024
 30
0.0
 10
62.75182202909999
 20
125.9815979708
 30
0.0
  0
SPLINE
  5
960FC
330
1F
100
AcDbEntity
  8
1
100
AcDbSpline
210
0.0
220
0.0
230
1.0
 70
     8
 71
     3
 72
     9
 73
     5
 74
     0
 42
0.000000001
 43
0.0000000001
 40
0.0
 40
0.0
 40
0.0
 40
0.0
 40
0.2501273353
 40
1.0
 40
1.0
 40
1.0
 40
1.0
 10
61.4688443252
 20
126.0379398108
 30
0.0
 10
61.57581625259999
 20
126.0333032187999
 30
0.0
 10
62.00348346820003
 20
126.0147048897
 30
0.0
 10
62.4311401895
 20
125.9958651924
 30
0.0
 10
62.75182202909999
 20
125.9815979708
 30
0.0
  0
SPLINE
  5
960FD
330
1F
100
AcDbEntity
  8
1
100
AcDbSpline
210
0.0
220
0.0
230
1.0
 70
     8
 71
     3
 72
     9
 73
     5
 74
     0
 42
0.000000001
 43
0.0000000001
 40
0.0
 40
0.0
 40
0.0
 40
0.0
 40
0.2480572262
 40
1.0
 40
1.0
 40
1.0
 40
1.0
 10
54.9644411434
 20
126.1520394045
 30
0.0
 10
55.4978651815
 20
126.1427858910999
 30
0.0
 10
57.6482730747
 20
126.1055235235
 30
0.0
 10
59.79867498569999
 20
126.0679166269
 30
0.0
 10
61.41565274899999
 20
126.0395583433
 30
0.0
  0
SPLINE
  5
960FE
330
1F
100
AcDbEntity
  8
1
100
AcDbSpline
210
0.0
220
0.0
230
1.0
 70
     8
 71
     3
 72
    11
 73
     7
 74
     0
 42
0.000000001
 43
0.0000000001
 40
0.0
 40
0.0
 40
0.0
 40
0.0
 40
0.1243901276
 40
0.2489572289
 40
0.498665314
 40
1.0
 40
1.0
 40
1.0
 40
1.0
 10
53.6452968424
 20
125.9602196520999
 30
0.0
 10
53.55870145579999
 20
125.9131374327
 30
0.0
 10
53.38525335740001
 20
125.8191529310999
 30
0.0
 10
53.03805067550001
 20
125.6305015488
 30
0.0
 10
52.42851743119999
 20
125.2990222134
 30
0.0
 10
51.9060038181
 20
125.0141388024
 30
0.0
 10
51.5573270644
 20
124.8237716193999
 30
0.0
  0
LINE
  5
960FF
330
1F
100
AcDbEntity
  8
1
100
AcDbLine
 10
48.4256839837
 20
123.1072875221999
 30
0.0
 11
47.99655370349998
 21
122.871131502
 31
0.0
  0
SPLINE
  5
96100
330
1F
100
AcDbEntity
  8
1
100
AcDbSpline
210
0.0
220
0.0
230
1.0
 70
     8
 71
     3
 72
     9
 73
     5
 74
     0
 42
0.000000001
 43
0.0000000001
 40
0.0
 40
0.0
 40
0.0
 40
0.0
 40
0.2497895605
 40
1.0
 40
1.0
 40
1.0
 40
1.0
 10
47.95034165199999
 20
122.8449027506
 30
0.0
 10
47.85802228979999
 20
122.7908929221
 30
0.0
 10
47.4887964907
 20
122.5740521928999
 30
0.0
 10
47.12099900829996
 20
122.3547789742999
 30
0.0
 10
46.84591386189999
 20
122.1888906553999
 30
0.0
  0
SPLINE
  5
96101
330
1F
100
AcDbEntity
  8
1
100
AcDbSpline
210
0.0
220
0.0
230
1.0
 70
     8
 71
     3
 72
     9
 73
     5
 74
     0
 42
0.000000001
 43
0.0000000001
 40
0.0
 40
0.0
 40
0.0
 40
0.0
 40
0.5004170096000001
 40
1.0
 40
1.0
 40
1.0
 40
1.0
 10
46.84591386189999
 20
122.1888906553999
 30
0.0
 10
46.8061077987
 20
122.1648858663999
 30
0.0
 10
46.73069848189999
 20
122.1096917167999
 30
0.0
 10
46.66633734589999
 20
122.0419433392
 30
0.0
 10
46.63748580240002
 20
122.0055957867999
 30
0.0
  0
SPLINE
  5
96102
330
1F
100
AcDbEntity
  8
1
100
AcDbSpline
210
0.0
220
0.0
230
1.0
 70
     8
 71
     3
 72
     9
 73
     5
 74
     0
 42
0.000000001
 43
0.0000000001
 40
0.0
 40
0.0
 40
0.0
 40
0.0
 40
0.2514739727
 40
1.0
 40
1.0
 40
1.0
 40
1.0
 10
46.60500939859995
 20
121.0477309453999
 30
0.0
 10
46.65067517339998
 20
120.9616722029
 30
0.0
 10
46.83278839529998
 20
120.6197315264
 30
0.0
 10
47.01700027679999
 20
120.2789083803999
 30
0.0
 10
47.15608335849998
 20
120.0244498160999
 30
0.0
  0
SPLINE
  5
96103
330
1F
100
AcDbEntity
  8
1
100
AcDbSpline
210
0.0
220
0.0
230
1.0
 70
     8
 71
     3
 72
    15
 73
    11
 74
     0
 42
0.000000001
 43
0.0000000001
 40
0.0
 40
0.0
 40
0.0
 40
0.0
 40
0.0307292388
 40
0.0614725662
 40
0.1230973109
 40
0.2468385017
 40
0.3711610738
 40
0.4960166810000004
 40
0.7471682654000002
 40
1.0
 40
1.0
 40
1.0
 40
1.0
 10
63.05296490319999
 20
116.7967425962
 30
0.0
 10
63.02946181079997
 20
116.7547176173
 30
0.0
 10
62.98266513689998
 20
116.6705254136999
 30
0.0
 10
62.88871388019996
 20
116.5020677035999
 30
0.0
 10
62.72367358220003
 20
116.2063794242998
 30
0.0
 10
62.4866608197
 20
115.7829359924
 30
0.0
 10
62.20061917189999
 20
115.2733926585999
 30
0.0
 10
61.81600366099999
 20
114.5902359628
 30
0.0
 10
61.33109843609998
 20
113.7324576335
 30
0.0
 10
60.94104556740001
 20
113.0457984821
 30
0.0
 10
60.74503824219999
 20
112.7015127474
 30
0.0
  0
SPLINE
  5
96104
330
1F
100
AcDbEntity
  8
1
100
AcDbSpline
210
0.0
220
0.0
230
1.0
 70
     8
 71
     3
 72
    10
 73
     6
 74
     0
 42
0.000000001
 43
0.0000000001
 40
0.0
 40
0.0
 40
0.0
 40
0.0
 40
0.2504754671
 40
0.5017607459000001
 40
1.0
 40
1.0
 40
1.0
 40
1.0
 10
54.385312237
 20
126.1522775317
 30
0.0
 10
54.32091483300002
 20
126.1522766722
 30
0.0
 10
54.1917217447
 20
126.1438383036
 30
0.0
 10
53.93902998480001
 20
126.0939367413
 30
0.0
 10
53.7578359235
 20
126.0214075503
 30
0.0
 10
53.6452968424
 20
125.9602196520999
 30
0.0
  0
SPLINE
  5
96105
330
1F
100
AcDbEntity
  8
1
100
AcDbSpline
210
0.0
220
0.0
230
1.0
 70
     8
 71
     3
 72
    19
 73
    15
 74
     0
 42
0.000000001
 43
0.0000000001
 40
0.0
 40
0.0
 40
0.0
 40
0.0
 40
0.1285549101
 40
0.1922096467
 40
0.2551525869
 40
0.2862879158
 40
0.3171875748
 40
0.3788986349
 40
0.4406883516
 40
0.5025522093000001
 40
0.6264977158000004
 40
0.7507262511000004
 40
0.8752297028
 40
1.0
 40
1.0
 40
1.0
 40
1.0
 10
63.25657073990001
 20
117.5517863143
 30
0.0
 10
63.26013178180001
 20
117.8223239588999
 30
0.0
 10
63.26795209850001
 20
118.2267933267999
 30
0.0
 10
63.2834073322
 20
118.7635762229
 30
0.0
 10
63.29510683729999
 20
119.0953429591
 30
0.0
 10
63.30565345000002
 20
119.3581648041
 30
0.0
 10
63.31708110720001
 20
119.618354407
 30
0.0
 10
63.33135038749998
 20
119.9429973112999
 30
0.0
 10
63.34823353869999
 20
120.3327566604999
 30
0.0
 10
63.37056646740001
 20
120.8533834108
 30
0.0
 10
63.39807091499999
 20
121.5053200032
 30
0.0
 10
63.43041738070002
 20
122.2890026987
 30
0.0
 10
63.46211526390002
 20
123.0744491935
 30
0.0
 10
63.48279723680002
 20
123.5986715543999
 30
0.0
 10
63.49302688519998
 20
123.8610680801
 30
0.0
  0
SPLINE
  5
96106
330
1F
100
AcDbEntity
  8
1
100
AcDbSpline
210
0.0
220
0.0
230
1.0
 70
     8
 71
     3
 72
     8
 73
     4
 74
     0
 42
0.000000001
 43
0.0000000001
 40
0.0
 40
0.0
 40
0.0
 40
0.0
 40
1.0
 40
1.0
 40
1.0
 40
1.0
 10
63.4943713767
 20
123.9134264311
 30
0.0
 10
63.49415653099999
 20
123.8959692163
 30
0.0
 10
63.49370699759997
 20
123.8785133648
 30
0.0
 10
63.49302688519998
 20
123.8610680801
 30
0.0
  0
SPLINE
  5
96107
330
1F
100
AcDbEntity
  8
1
100
AcDbSpline
210
0.0
220
0.0
230
1.0
 70
     8
 71
     3
 72
     8
 73
     4
 74
     0
 42
0.000000001
 43
0.0000000001
 40
0.0
 40
0.0
 40
0.0
 40
0.0
 40
1.0
 40
1.0
 40
1.0
 40
1.0
 10
61.4688443252
 20
126.0379398108
 30
0.0
 10
61.45112223299997
 20
126.0387079573
 30
0.0
 10
61.43338875339997
 20
126.0392472922
 30
0.0
 10
61.41565274899999
 20
126.0395583433
 30
0.0
  0
SPLINE
  5
96108
330
1F
100
AcDbEntity
  8
1
100
AcDbSpline
210
0.0
220
0.0
230
1.0
 70
     8
 71
     3
 72
     8
 73
     4
 74
     0
 42
0.000000001
 43
0.0000000001
 40
0.0
 40
0.0
 40
0.0
 40
0.0
 40
1.0
 40
1.0
 40
1.0
 40
1.0
 10
47.99655370349998
 20
122.871131502
 30
0.0
 10
47.98103743259996
 20
122.8625893895999
 30
0.0
 10
47.96562976589997
 20
122.8538467944
 30
0.0
 10
47.95034165199999
 20
122.8449027506
 30
0.0
  0
SPLINE
  5
96109
330
1F
100
AcDbEntity
  8
1
100
AcDbSpline
210
0.0
220
0.0
230
1.0
 70
     8
 71
     3
 72
    10
 73
     6
 74
     0
 42
0.000000001
 43
0.0000000001
 40
0.0
 40
0.0
 40
0.0
 40
0.0
 40
0.4914564779
 40
0.7454332487000001
 40
1.0
 40
1.0
 40
1.0
 40
1.0
 10
63.05296490319999
 20
116.7967425962
 30
0.0
 10
63.11603673209997
 20
116.9095189167
 30
0.0
 10
63.19060899369998
 20
117.0934440054998
 30
0.0
 10
63.24521514109999
 20
117.3510641270999
 30
0.0
 10
63.25568980909998
 20
117.4848606916
 30
0.0
 10
63.25657073990001
 20
117.5517863143
 30
0.0
  0
SPLINE
  5
9610A
330
1F
100
AcDbEntity
  8
1
100
AcDbSpline
210
0.0
220
0.0
230
1.0
 70
     8
 71
     3
 72
    15
 73
    11
 74
     0
 42
0.000000001
 43
0.0000000001
 40
0.0
 40
0.0
 40
0.0
 40
0.0
 40
0.1306951903
 40
0.2579311511
 40
0.3197216409
 40
0.3810700132
 40
0.5040795617000004
 40
0.6274861323
 40
0.7512804915000002
 40
1.0
 40
1.0
 40
1.0
 40
1.0
 10
54.19785852460001
 20
125.9602196520999
 30
0.0
 10
53.9648668309
 20
125.8284955977
 30
0.0
 10
53.50585542570001
 20
125.5671079835
 30
0.0
 10
52.93886406190001
 20
125.23964306
 30
0.0
 10
52.49635508589999
 20
124.9806267761
 30
0.0
 10
52.06151792050002
 20
124.7256391588
 30
0.0
 10
51.51761918699998
 20
124.4071854392
 30
0.0
 10
50.86321889369997
 20
124.0243623215
 30
0.0
 10
49.98634820429996
 20
123.5119909885
 30
0.0
 10
49.327411033
 20
123.1275822158
 30
0.0
 10
48.88733005929998
 20
122.871131502
 30
0.0
  0
SPLINE
  5
9610B
330
1F
100
AcDbEntity
  8
1
100
AcDbSpline
210
0.0
220
0.0
230
1.0
 70
     8
 71
     3
 72
     9
 73
     5
 74
     0
 42
0.000000001
 43
0.0000000001
 40
0.0
 40
0.0
 40
0.0
 40
0.0
 40
0.2535363285
 40
1.0
 40
1.0
 40
1.0
 40
1.0
 10
47.77346451409999
 20
122.1888906553999
 30
0.0
 10
47.86413674869999
 20
122.2439593258
 30
0.0
 10
48.22154819799999
 20
122.4615214401
 30
0.0
 10
48.57807140519998
 20
122.6805432442999
 30
0.0
 10
48.84366468359999
 20
122.8449027506
 30
0.0
  0
SPLINE
  5
9610C
330
1F
100
AcDbEntity
  8
1
100
AcDbSpline
210
0.0
220
0.0
230
1.0
 70
     8
 71
     3
 72
    15
 73
    11
 74
     0
 42
0.000000001
 43
0.0000000001
 40
0.0
 40
0.0
 40
0.0
 40
0.0
 40
0.1239266789
 40
0.2482214032
 40
0.3727496982
 40
0.4974984314000002
 40
0.6225901695000001
 40
0.7480776386
 40
0.8739263151000001
 40
1.0
 40
1.0
 40
1.0
 40
1.0
 10
47.77346451409999
 20
122.1888906553999
 30
0.0
 10
47.73099206699998
 20
122.1630955352
 30
0.0
 10
47.65067571309996
 20
122.1031084388
 30
0.0
 10
47.54942381619996
 20
121.9919963179
 30
0.0
 10
47.47081216689998
 20
121.8634088527
 30
0.0
 10
47.41780561709997
 20
121.7220068254
 30
0.0
 10
47.39214948499999
 20
121.5728139299
 30
0.0
 10
47.3947160699
 20
121.4210066305
 30
0.0
 10
47.42539204019999
 20
121.2719657424
 30
0.0
 10
47.46393196189996
 20
121.1778474619
 30
0.0
 10
47.4873454209
 20
121.1330433518
 30
0.0
  0
SPLINE
  5
9610D
330
1F
100
AcDbEntity
  8
1
100
AcDbSpline
210
0.0
220
0.0
230
1.0
 70
     8
 71
     3
 72
     9
 73
     5
 74
     0
 42
0.000000001
 43
0.0000000001
 40
0.0
 40
0.0
 40
0.0
 40
0.0
 40
0.2465904426
 40
1.0
 40
1.0
 40
1.0
 40
1.0
 10
48.06450665540001
 20
119.9968341687
 30
0.0
 10
48.0181792921
 20
120.0907857485999
 30
0.0
 10
47.8291390604
 20
120.4712111619
 30
0.0
 10
47.63557651320001
 20
120.8493876071
 30
0.0
 10
47.4873454209
 20
121.1330433518
 30
0.0
  0
SPLINE
  5
9610E
330
1F
100
AcDbEntity
  8
1
100
AcDbSpline
210
0.0
220
0.0
230
1.0
 70
     8
 71
     3
 72
     9
 73
     5
 74
     0
 42
0.000000001
 43
0.0000000001
 40
0.0
 40
0.0
 40
0.0
 40
0.0
 40
0.2476911632
 40
1.0
 40
1.0
 40
1.0
 40
1.0
 10
50.14738228449999
 20
115.9973808591
 30
0.0
 10
49.97870638550001
 20
116.3244847952
 30
0.0
 10
49.29616050929999
 20
117.6442959443
 30
0.0
 10
48.60799778909998
 20
118.9611979527
 30
0.0
 10
48.0879910758
 20
119.9507028833999
 30
0.0
  0
SPLINE
  5
9610F
330
1F
100
AcDbEntity
  8
1
100
AcDbSpline
210
0.0
220
0.0
230
1.0
 70
     8
 71
     3
 72
     9
 73
     5
 74
     0
 42
0.000000001
 43
0.0000000001
 40
0.0
 40
0.0
 40
0.0
 40
0.0
 40
0.4992837764
 40
1.0
 40
1.0
 40
1.0
 40
1.0
 10
54.93697648079997
 20
126.1522776042
 30
0.0
 10
54.80880995149999
 20
126.1522765732999
 30
0.0
 10
54.55092432639997
 20
126.1208989317999
 30
0.0
 10
54.30974884789998
 20
126.023477903
 30
0.0
 10
54.19785852460001
 20
125.9602196520999
 30
0.0
  0
SPLINE
  5
96110
330
1F
100
AcDbEntity
  8
1
100
AcDbSpline
210
0.0
220
0.0
230
1.0
 70
     8
 71
     3
 72
     8
 73
     4
 74
     0
 42
0.000000001
 43
0.0000000001
 40
0.0
 40
0.0
 40
0.0
 40
0.0
 40
1.0
 40
1.0
 40
1.0
 40
1.0
 10
48.06450665540001
 20
119.9968341687
 30
0.0
 10
48.0721377575
 20
119.9813583453
 30
0.0
 10
48.07996411849996
 20
119.9659771359
 30
0.0
 10
48.0879910758
 20
119.9507028833999
 30
0.0
  0
SPLINE
  5
96111
330
1F
100
AcDbEntity
  8
1
100
AcDbSpline
210
0.0
220
0.0
230
1.0
 70
     8
 71
     3
 72
     8
 73
     4
 74
     0
 42
0.000000001
 43
0.0000000001
 40
0.0
 40
0.0
 40
0.0
 40
0.0
 40
1.0
 40
1.0
 40
1.0
 40
1.0
 10
48.84366468359999
 20
122.8449027506
 30
0.0
 10
48.8581027786
 20
122.8538376084
 30
0.0
 10
48.87266004299998
 20
122.8625827657
 30
0.0
 10
48.88733005929998
 20
122.871131502
 30
0.0
  0
SPLINE
  5
96112
330
1F
100
AcDbEntity
  8
1
100
AcDbSpline
210
0.0
220
0.0
230
1.0
 70
     8
 71
     3
 72
     9
 73
     5
 74
     0
 42
0.000000001
 43
0.0000000001
 40
0.0
 40
0.0
 40
0.0
 40
0.0
 40
0.2584946561
 40
1.0
 40
1.0
 40
1.0
 40
1.0
 10
56.96516429679996
 20
114.4840940425
 30
0.0
 10
56.85764799820001
 20
114.5105639752
 30
0.0
 10
56.44138928759996
 20
114.6116350489
 30
0.0
 10
56.02391937159999
 20
114.7077113528
 30
0.0
 10
55.71377005919997
 20
114.7762190732999
 30
0.0
  0
SPLINE
  5
96113
330
1F
100
AcDbEntity
  8
1
100
AcDbSpline
210
0.0
220
0.0
230
1.0
 70
     8
 71
     3
 72
    13
 73
     9
 74
     0
 42
0.000000001
 43
0.0000000001
 40
0.0
 40
0.0
 40
0.0
 40
0.0
 40
0.0913245318
 40
0.1935232976
 40
0.3066560648999999
 40
0.4303084193000001
 40
0.7043828943000002
 40
1.0
 40
1.0
 40
1.0
 40
1.0
 10
60.7524857728
 20
112.6951934182
 30
0.0
 10
60.65486341640002
 20
112.7788535864
 30
0.0
 10
60.44158374929996
 20
112.9487488281
 30
0.0
 10
60.0870450764
 20
113.195541143
 30
0.0
 10
59.67891814079997
 20
113.4434654792
 30
0.0
 10
59.04251206129997
 20
113.7792686717999
 30
0.0
 10
58.13961927470001
 20
114.1560165373
 30
0.0
 10
57.36926454659998
 20
114.3846067409
 30
0.0
 10
56.96516429679996
 20
114.4840940425
 30
0.0
  0
SPLINE
  5
96114
330
1F
100
AcDbEntity
  8
1
100
AcDbSpline
210
0.0
220
0.0
230
1.0
 70
     8
 71
     3
 72
    14
 73
    10
 74
     0
 42
0.000000001
 43
0.0000000001
 40
0.0
 40
0.0
 40
0.0
 40
0.0
 40
0.1313012298
 40
0.2165438605
 40
0.3194352716
 40
0.4440151358
 40
0.5950137756000001
 40
0.7781025014000002
 40
1.0
 40
1.0
 40
1.0
 40
1.0
 10
61.71377005920001
 20
111.4030846841
 30
0.0
 10
61.71377005920001
 20
111.475113941
 30
0.0
 10
61.684574973
 20
111.5936867585
 30
0.0
 10
61.60991745679999
 20
111.7520978869
 30
0.0
 10
61.51923130339997
 20
111.8982680617999
 30
0.0
 10
61.39371684759999
 20
112.0638822488
 30
0.0
 10
61.22685060529999
 20
112.2524987224
 30
0.0
 10
61.0106135398
 20
112.4678213395
 30
0.0
 10
60.84491654819998
 20
112.6159823184
 30
0.0
 10
60.7524857728
 20
112.6951934182
 30
0.0
  0
SPLINE
  5
96115
330
1F
100
AcDbEntity
  8
1
100
AcDbSpline
210
0.0
220
0.0
230
1.0
 70
     8
 71
     3
 72
     9
 73
     5
 74
     0
 42
0.000000001
 43
0.0000000001
 40
0.0
 40
0.0
 40
0.0
 40
0.0
 40
0.2552156462
 40
1.0
 40
1.0
 40
1.0
 40
1.0
 10
51.32670545399999
 20
125.2502456420999
 30
0.0
 10
51.31621357999998
 20
125.2565275944
 30
0.0
 10
51.27513600929995
 20
125.2811957617999
 30
0.0
 10
51.23418051439999
 20
125.3060670257999
 30
0.0
 10
51.20373746050001
 20
125.3246883812
 30
0.0
  0
SPLINE
  5
96116
330
1F
100
AcDbEntity
  8
1
100
AcDbSpline
210
0.0
220
0.0
230
1.0
 70
     8
 71
     3
 72
    18
 73
    14
 74
     0
 42
0.000000001
 43
0.0000000001
 40
0.0
 40
0.0
 40
0.0
 40
0.0
 40
0.2110925388
 40
0.4015295992000001
 40
0.5687742852000001
 40
0.7106247707
 40
0.8252818565
 40
0.8719953067
 40
0.9114881472
 40
0.9437388086
 40
0.9688518306
 40
0.9872120058
 40
1.0
 40
1.0
 40
1.0
 40
1.0
 10
49.6483109491
 20
125.5617216791
 30
0.0
 10
49.56069489189999
 20
125.5661864415
 30
0.0
 10
49.3940946799
 20
125.5759229295
 30
0.0
 10
49.15838967090002
 20
125.593974221
 30
0.0
 10
48.95176200970002
 20
125.6143420709
 30
0.0
 10
48.77703958000001
 20
125.6365802909
 30
0.0
 10
48.65267181680002
 20
125.6573188163
 30
0.0
 10
48.57110868149999
 20
125.6751792129
 30
0.0
 10
48.52350559439996
 20
125.6878326984
 30
0.0
 10
48.48528315030001
 20
125.7005297387999
 30
0.0
 10
48.45642390199998
 20
125.7133659343999
 30
0.0
 10
48.4366989027
 20
125.7259861414999
 30
0.0
 10
48.42822695029998
 20
125.7366488577
 30
0.0
 10
48.42668597529999
 20
125.7417352243
 30
0.0
  0
SPLINE
  5
96117
330
1F
100
AcDbEntity
  8
1
100
AcDbSpline
210
0.0
220
0.0
230
1.0
 70
     8
 71
     3
 72
    14
 73
    10
 74
     0
 42
0.000000001
 43
0.0000000001
 40
0.0
 40
0.0
 40
0.0
 40
0.0
 40
0.0591557117
 40
0.1368909643
 40
0.2341479361
 40
0.351084825
 40
0.4872694887
 40
0.6417742011
 40
1.0
 40
1.0
 40
1.0
 40
1.0
 10
51.20373746050001
 20
125.3246883812
 30
0.0
 10
51.1771280748
 20
125.3409647648999
 30
0.0
 10
51.11092533659999
 20
125.3708486131
 30
0.0
 10
50.99295343249997
 20
125.4075783226
 30
0.0
 10
50.84269485930002
 20
125.4416451433
 30
0.0
 10
50.6605217224
 20
125.4727150211
 30
0.0
 10
50.4473443731
 20
125.5005382557
 30
0.0
 10
50.10685208849998
 20
125.5347206053
 30
0.0
 10
49.83695755989998
 20
125.5521086003999
 30
0.0
 10
49.6483109491
 20
125.5617216791
 30
0.0
  0
SPLINE
  5
96118
330
1F
100
AcDbEntity
  8
1
100
AcDbSpline
210
0.0
220
0.0
230
1.0
 70
     8
 71
     3
 72
     9
 73
     5
 74
     0
 42
0.000000001
 43
0.0000000001
 40
0.0
 40
0.0
 40
0.0
 40
0.0
 40
0.2455207029
 40
1.0
 40
1.0
 40
1.0
 40
1.0
 10
30.88965495369999
 20
119.6158674259
 30
0.0
 10
30.90649855140004
 20
119.6233789217
 30
0.0
 10
30.97524934909998
 20
119.6536423124
 30
0.0
 10
31.04456836330002
 20
119.6826111523
 30
0.0
 10
31.09713027449999
 20
119.7038042942
 30
0.0
  0
SPLINE
  5
96119
330
1F
100
AcDbEntity
  8
1
100
AcDbSpline
210
0.0
220
0.0
230
1.0
 70
     8
 71
     3
 72
    21
 73
    17
 74
     0
 42
0.000000001
 43
0.0000000001
 40
0.0
 40
0.0
 40
0.0
 40
0.0
 40
0.4188900746
 40
0.5881709891
 40
0.6621807561999999
 40
0.7289243577
 40
0.7882832958
 40
0.8401770163
 40
0.8845563231999998
 40
0.9214048550000001
 40
0.9507955320999995
 40
0.9729757148
 40
0.9815594726
 40
0.9886771483
 40
0.9946468899999999
 40
1.0
 40
1.0
 40
1.0
 40
1.0
 10
30.88965495369999
 20
119.6158674259
 30
0.0
 10
30.8263902567
 20
119.4458982846
 30
0.0
 10
30.73500004319999
 20
119.2081424722
 30
0.0
 10
30.623672188
 20
118.9439120035
 30
0.0
 10
30.56881695710001
 20
118.8213948489
 30
0.0
 10
30.53204951570001
 20
118.7429373773
 30
0.0
 10
30.49786361989999
 20
118.673862527
 30
0.0
 10
30.46634294849997
 20
118.6142940621
 30
0.0
 10
30.43757125909997
 20
118.5643394604
 30
0.0
 10
30.41162228299999
 20
118.5240381835
 30
0.0
 10
30.38855774849998
 20
118.493459905
 30
0.0
 10
30.370488806
 20
118.4744863728
 30
0.0
 10
30.35717879359999
 20
118.4648148029999
 30
0.0
 10
30.3487072449
 20
118.4606353782999
 30
0.0
 10
30.34078686150002
 20
118.4589442609
 30
0.0
 10
30.33580025699999
 20
118.4596694375
 30
0.0
 10
30.3336177969
 20
118.4604494643999
 30
0.0
  0
SPLINE
  5
9611A
330
1F
100
AcDbEntity
  8
1
100
AcDbSpline
210
0.0
220
0.0
230
1.0
 70
     8
 71
     3
 72
     9
 73
     5
 74
     0
 42
0.000000001
 43
0.0000000001
 40
0.0
 40
0.0
 40
0.0
 40
0.0
 40
0.2387474117
 40
1.0
 40
1.0
 40
1.0
 40
1.0
 10
47.42154642419999
 20
123.1347259541
 30
0.0
 10
47.45456617209998
 20
123.1395206371
 30
0.0
 10
47.5932367309
 20
123.1569526878999
 30
0.0
 10
47.7333592528
 20
123.1631995254
 30
0.0
 10
47.83972687499999
 20
123.1610905549
 30
0.0
  0
SPLINE
  5
9611B
330
1F
100
AcDbEntity
  8
1
100
AcDbSpline
210
0.0
220
0.0
230
1.0
 70
     8
 71
     3
 72
    17
 73
    13
 74
     0
 42
0.000000001
 43
0.0000000001
 40
0.0
 40
0.0
 40
0.0
 40
0.0
 40
0.2735412566
 40
0.4701293628000001
 40
0.6197886788
 40
0.6818366231999999
 40
0.7369228184000001
 40
0.8293441389999999
 40
0.9018924709999998
 40
0.9578916036
 40
0.9805309959
 40
1.0
 40
1.0
 40
1.0
 40
1.0
 10
33.92123225980001
 20
119.4655549735
 30
0.0
 10
33.66652508900001
 20
119.5189579228
 30
0.0
 10
33.2270320198
 20
119.6028225172
 30
0.0
 10
32.64396894609999
 20
119.6915508603999
 30
0.0
 10
32.25792178000001
 20
119.7356717107
 30
0.0
 10
32.00490048429998
 20
119.7561450341
 30
0.0
 10
31.80585564469999
 20
119.7676536455
 30
0.0
 10
31.59642081039999
 20
119.7723883337
 30
0.0
 10
31.38623614379998
 20
119.7636836374
 30
0.0
 10
31.24322780929998
 20
119.7452285423
 30
0.0
 10
31.15238268770003
 20
119.7234552178999
 30
0.0
 10
31.11430910860003
 20
119.7107308588
 30
0.0
 10
31.09713027449999
 20
119.7038042942
 30
0.0
  0
SPLINE
  5
9611C
330
1F
100
AcDbEntity
  8
1
100
AcDbSpline
210
0.0
220
0.0
230
1.0
 70
     8
 71
     3
 72
     8
 73
     4
 74
     0
 42
0.000000001
 43
0.0000000001
 40
0.0
 40
0.0
 40
0.0
 40
0.0
 40
1.0
 40
1.0
 40
1.0
 40
1.0
 10
47.8761638102
 20
123.3771567882
 30
0.0
 10
47.85592589469999
 20
123.3696174175
 30
0.0
 10
47.83582703249999
 20
123.3616938391
 30
0.0
 10
47.81588790719999
 20
123.353396453
 30
0.0
  0
LINE
  5
9611D
330
1F
100
AcDbEntity
  8
1
100
AcDbLine
 10
52.0261806034
 20
115.5889001755
 30
0.0
 11
51.973823384
 21
115.6003553978
 31
0.0
  0
SPLINE
  5
9611E
330
1F
100
AcDbEntity
  8
1
100
AcDbSpline
210
0.0
220
0.0
230
1.0
 70
     8
 71
     3
 72
     9
 73
     5
 74
     0
 42
0.000000001
 43
0.0000000001
 40
0.0
 40
0.0
 40
0.0
 40
0.0
 40
0.2510280955
 40
1.0
 40
1.0
 40
1.0
 40
1.0
 10
49.58606621550001
 20
116.1192182439999
 30
0.0
 10
49.53775788310004
 20
116.2070578722
 30
0.0
 10
49.34575482020001
 20
116.5572185627
 30
0.0
 10
49.1554796874
 20
116.9083267466999
 30
0.0
 10
49.0139517204
 20
117.1718228461
 30
0.0
  0
SPLINE
  5
9611F
330
1F
100
AcDbEntity
  8
1
100
AcDbSpline
210
0.0
220
0.0
230
1.0
 70
     8
 71
     3
 72
    21
 73
    17
 74
     0
 42
0.000000001
 43
0.0000000001
 40
0.0
 40
0.0
 40
0.0
 40
0.0
 40
0.0617211655
 40
0.1235112231
 40
0.1854196633
 40
0.2474855411
 40
0.3097343038
 40
0.3721759064
 40
0.4348046261
 40
0.4975999101000001
 40
0.6232340571
 40
0.7490110622000003
 40
0.8119762159
 40
0.8748204600000001
 40
0.9375040420000001
 40
1.0
 40
1.0
 40
1.0
 40
1.0
 10
47.67925858519999
 20
119.65674821
 30
0.0
 10
47.5931884354
 20
119.6978364264
 30
0.0
 10
47.42684784519997
 20
119.7931178157999
 30
0.0
 10
47.20136569329997
 20
119.9715209832999
 30
0.0
 10
47.00420970779997
 20
120.1815989768
 30
0.0
 10
46.83943843409998
 20
120.4187548229
 30
0.0
 10
46.7103063051
 20
120.6779617375999
 30
0.0
 10
46.61934733060002
 20
120.9537844435
 30
0.0
 10
46.5683449393
 20
121.2406001550999
 30
0.0
 10
46.5548414607
 20
121.6293950109
 30
0.0
 10
46.6411810804
 20
122.1141497865
 30
0.0
 10
46.85930112829999
 20
122.5559712034
 30
0.0
 10
47.10181698279998
 20
122.8612350216
 30
0.0
 10
47.31442546419997
 20
123.0618671320999
 30
0.0
 10
47.55306181849999
 20
123.2292893229
 30
0.0
 10
47.72663912059999
 20
123.316507787
 30
0.0
 10
47.81588790719999
 20
123.353396453
 30
0.0
  0
SPLINE
  5
96120
330
1F
100
AcDbEntity
  8
1
100
AcDbSpline
210
0.0
220
0.0
230
1.0
 70
     8
 71
     3
 72
     8
 73
     4
 74
     0
 42
0.000000001
 43
0.0000000001
 40
0.0
 40
0.0
 40
0.0
 40
0.0
 40
1.0
 40
1.0
 40
1.0
 40
1.0
 10
47.89209525519999
 20
123.1596456735
 30
0.0
 10
47.83969284289997
 20
123.1143237789999
 30
0.0
 10
47.7879137221
 20
123.0682697096
 30
0.0
 10
47.7368300679
 20
123.0214664275
 30
0.0
  0
SPLINE
  5
96121
330
1F
100
AcDbEntity
  8
1
100
AcDbSpline
210
0.0
220
0.0
230
1.0
 70
     8
 71
     3
 72
     9
 73
     5
 74
     0
 42
0.000000001
 43
0.0000000001
 40
0.0
 40
0.0
 40
0.0
 40
0.0
 40
0.2558706036
 40
1.0
 40
1.0
 40
1.0
 40
1.0
 10
47.83972687499999
 20
123.1610905549
 30
0.0
 10
47.86412727199999
 20
123.1606067637
 30
0.0
 10
47.95946328449995
 20
123.1575364122
 30
0.0
 10
48.05464651149996
 20
123.1499156911
 30
0.0
 10
48.12515847069999
 20
123.1418145739999
 30
0.0
  0
SPLINE
  5
96122
330
1F
100
AcDbEntity
  8
1
100
AcDbSpline
210
0.0
220
0.0
230
1.0
 70
     8
 71
     3
 72
     9
 73
     5
 74
     0
 42
0.000000001
 43
0.0000000001
 40
0.0
 40
0.0
 40
0.0
 40
0.0
 40
0.2535936758
 40
1.0
 40
1.0
 40
1.0
 40
1.0
 10
47.28105220479999
 20
123.0247495343
 30
0.0
 10
47.31951194589997
 20
123.0273728885
 30
0.0
 10
47.47135612670001
 20
123.0348097784
 30
0.0
 10
47.62375321019999
 20
123.0308096655
 30
0.0
 10
47.7368300679
 20
123.0214664275
 30
0.0
  0
SPLINE
  5
96123
330
1F
100
AcDbEntity
  8
1
100
AcDbSpline
210
0.0
220
0.0
230
1.0
 70
     8
 71
     3
 72
     9
 73
     5
 74
     0
 42
0.000000001
 43
0.0000000001
 40
0.0
 40
0.0
 40
0.0
 40
0.0
 40
0.2474163435
 40
1.0
 40
1.0
 40
1.0
 40
1.0
 10
51.65216138409999
 20
124.6848304184
 30
0.0
 10
51.62060320329999
 20
124.728473876
 30
0.0
 10
51.49764081289998
 20
124.9081463416
 30
0.0
 10
51.393416016
 20
125.1006202346
 30
0.0
 10
51.32670545399999
 20
125.2502456420999
 30
0.0
  0
SPLINE
  5
96124
330
1F
100
AcDbEntity
  8
1
100
AcDbSpline
210
0.0
220
0.0
230
1.0
 70
     8
 71
     3
 72
     9
 73
     5
 74
     0
 42
0.000000001
 43
0.0000000001
 40
0.0
 40
0.0
 40
0.0
 40
0.0
 40
0.2496164974
 40
1.0
 40
1.0
 40
1.0
 40
1.0
 10
47.75779305020001
 20
119.5104081382999
 30
0.0
 10
47.77248977659996
 20
119.5054117341999
 30
0.0
 10
47.8316191321
 20
119.4861449023
 30
0.0
 10
47.89173118299999
 20
119.4698935587999
 30
0.0
 10
47.9372109697
 20
119.4594483065
 30
0.0
  0
SPLINE
  5
96125
330
1F
100
AcDbEntity
  8
1
100
AcDbSpline
210
0.0
220
0.0
230
1.0
 70
     8
 71
     3
 72
     9
 73
     5
 74
     0
 42
0.000000001
 43
0.0000000001
 40
0.0
 40
0.0
 40
0.0
 40
0.0
 40
0.5435577849000001
 40
1.0
 40
1.0
 40
1.0
 40
1.0
 10
51.707880378
 20
124.563037586
 30
0.0
 10
51.69619360529998
 20
124.5843280941999
 30
0.0
 10
51.67592377630001
 20
124.6241917773
 30
0.0
 10
51.65885777639999
 20
124.6655664278
 30
0.0
 10
51.65216138409999
 20
124.6848304184
 30
0.0
  0
SPLINE
  5
96126
330
1F
100
AcDbEntity
  8
1
100
AcDbSpline
210
0.0
220
0.0
230
1.0
 70
     8
 71
     3
 72
     9
 73
     5
 74
     0
 42
0.000000001
 43
0.0000000001
 40
0.0
 40
0.0
 40
0.0
 40
0.0
 40
0.252685202
 40
1.0
 40
1.0
 40
1.0
 40
1.0
 10
52.77555023499997
 20
125.9797507777
 30
0.0
 10
52.7807973943
 20
125.9679411889
 30
0.0
 10
52.80149941909996
 20
125.9211765965
 30
0.0
 10
52.82196216739999
 20
125.874306105
 30
0.0
 10
52.83712209709999
 20
125.839222228
 30
0.0
  0
SPLINE
  5
96127
330
1F
100
AcDbEntity
  8
1
100
AcDbSpline
210
0.0
220
0.0
230
1.0
 70
     8
 71
     3
 72
     9
 73
     5
 74
     0
 42
0.000000001
 43
0.0000000001
 40
0.0
 40
0.0
 40
0.0
 40
0.0
 40
0.2553777951
 40
1.0
 40
1.0
 40
1.0
 40
1.0
 10
52.8370547346
 20
125.839375544
 30
0.0
 10
52.84651578589997
 20
125.817477201
 30
0.0
 10
52.88395265209999
 20
125.7318985223
 30
0.0
 10
52.923084599
 20
125.647051278
 30
0.0
 10
52.95351844359998
 20
125.5845079853
 30
0.0
  0
SPLINE
  5
96128
330
1F
100
AcDbEntity
  8
1
100
AcDbSpline
210
0.0
220
0.0
230
1.0
 70
     8
 71
     3
 72
    23
 73
    19
 74
     0
 42
0.000000001
 43
0.0000000001
 40
0.0
 40
0.0
 40
0.0
 40
0.0
 40
0.0081016154
 40
0.0111301179
 40
0.0146284677
 40
0.0230973167
 40
0.0335924989
 40
0.0461487323
 40
0.0607785238
 40
0.0774763322
 40
0.117017986
 40
0.1646116885
 40
0.2200036244
 40
0.2828834401
 40
0.4295519245000003
 40
0.6009970085000002
 40
0.7928243343000001
 40
1.0
 40
1.0
 40
1.0
 40
1.0
 10
30.3336177969
 20
118.4604494643999
 30
0.0
 10
30.32434573749998
 20
118.463763365
 30
0.0
 10
30.31687701829998
 20
118.4781294358
 30
0.0
 10
30.31223681400002
 20
118.4948991984
 30
0.0
 10
30.30876681019999
 20
118.5129163931
 30
0.0
 10
30.30632030700002
 20
118.5400965392999
 30
0.0
 10
30.30574109989999
 20
118.5784445053
 30
0.0
 10
30.30749226329999
 20
118.6242161733
 30
0.0
 10
30.31156237419998
 20
118.6774075542
 30
0.0
 10
30.32064188350001
 20
118.7630684988
 30
0.0
 10
30.33836048749999
 20
118.8880491397
 30
0.0
 10
30.36765996140002
 20
119.0587902586
 30
0.0
 10
30.40597778259999
 20
119.2567161041
 30
0.0
 10
30.4722992124
 20
119.5718231103
 30
0.0
 10
30.57656783019999
 20
120.0230204866
 30
0.0
 10
30.72617773979999
 20
120.6244768766
 30
0.0
 10
30.90204931680001
 20
121.2951215107999
 30
0.0
 10
31.02978788870002
 20
121.7629399416
 30
0.0
 10
31.09713027449999
 20
122.0055629583
 30
0.0
  0
SPLINE
  5
96129
330
1F
100
AcDbEntity
  8
1
100
AcDbSpline
210
0.0
220
0.0
230
1.0
 70
     8
 71
     3
 72
     8
 73
     4
 74
     0
 42
0.000000001
 43
0.0000000001
 40
0.0
 40
0.0
 40
0.0
 40
0.0
 40
1.0
 40
1.0
 40
1.0
 40
1.0
 10
51.9738233841
 20
125.9980728660999
 30
0.0
 10
51.99127588249999
 20
125.9981452976999
 30
0.0
 10
52.00872983779999
 20
125.9980533687
 30
0.0
 10
52.0261806034
 20
125.9977969932
 30
0.0
  0
SPLINE
  5
9612A
330
1F
100
AcDbEntity
  8
1
100
AcDbSpline
210
0.0
220
0.0
230
1.0
 70
     8
 71
     3
 72
     9
 73
     5
 74
     0
 42
0.000000001
 43
0.0000000001
 40
0.0
 40
0.0
 40
0.0
 40
0.0
 40
0.2498258561
 40
1.0
 40
1.0
 40
1.0
 40
1.0
 10
52.77555023499997
 20
125.9797507777
 30
0.0
 10
52.85157858479999
 20
125.9800755265
 30
0.0
 10
53.15590425149999
 20
125.9813079885
 30
0.0
 10
53.46023105810002
 20
125.982263857
 30
0.0
 10
53.68852953449999
 20
125.9828049557999
 30
0.0
  0
SPLINE
  5
9612B
330
1F
100
AcDbEntity
  8
1
100
AcDbSpline
210
0.0
220
0.0
230
1.0
 70
     8
 71
     3
 72
     9
 73
     5
 74
     0
 42
0.000000001
 43
0.0000000001
 40
0.0
 40
0.0
 40
0.0
 40
0.0
 40
0.2603377593
 40
1.0
 40
1.0
 40
1.0
 40
1.0
 10
52.0261806034
 20
125.9977969932
 30
0.0
 10
52.09122276480002
 20
125.996841435
 30
0.0
 10
52.34105144429996
 20
125.9926281608
 30
0.0
 10
52.59084812480001
 20
125.9862203923
 30
0.0
 10
52.77555023499997
 20
125.9797507777
 30
0.0
  0
SPLINE
  5
9612C
330
1F
100
AcDbEntity
  8
1
100
AcDbSpline
210
0.0
220
0.0
230
1.0
 70
     8
 71
     3
 72
     9
 73
     5
 74
     0
 42
0.000000001
 43
0.0000000001
 40
0.0
 40
0.0
 40
0.0
 40
0.0
 40
0.2521654128
 40
1.0
 40
1.0
 40
1.0
 40
1.0
 10
52.83712209709999
 20
125.839222228
 30
0.0
 10
52.82957828579998
 20
125.8074190526
 30
0.0
 10
52.7984757067
 20
125.6815837348
 30
0.0
 10
52.76262844029997
 20
125.5569164602
 30
0.0
 10
52.7330945029
 20
125.4645910293
 30
0.0
  0
SPLINE
  5
9612D
330
1F
100
AcDbEntity
  8
1
100
AcDbSpline
210
0.0
220
0.0
230
1.0
 70
     8
 71
     3
 72
     9
 73
     5
 74
     0
 42
0.000000001
 43
0.0000000001
 40
0.0
 40
0.0
 40
0.0
 40
0.0
 40
0.2545971431
 40
1.0
 40
1.0
 40
1.0
 40
1.0
 10
46.76326168840001
 20
122.1313195595
 30
0.0
 10
46.75771242279999
 20
122.1365773112999
 30
0.0
 10
46.73601726149999
 20
122.1573348812999
 30
0.0
 10
46.71473331560004
 20
122.1785232872
 30
0.0
 10
46.69913503229999
 20
122.1945737854
 30
0.0
  0
SPLINE
  5
9612E
330
1F
100
AcDbEntity
  8
1
100
AcDbSpline
210
0.0
220
0.0
230
1.0
 70
     8
 71
     3
 72
     9
 73
     5
 74
     0
 42
0.000000001
 43
0.0000000001
 40
0.0
 40
0.0
 40
0.0
 40
0.0
 40
0.5222825785000002
 40
1.0
 40
1.0
 40
1.0
 40
1.0
 10
47.23977942589999
 20
122.4251114464999
 30
0.0
 10
47.18193948269997
 20
122.4565019331
 30
0.0
 10
47.06981736479999
 20
122.5141095341
 30
0.0
 10
46.9547671889
 20
122.5657073389999
 30
0.0
 10
46.89901832599996
 20
122.5884084398999
 30
0.0
  0
SPLINE
  5
9612F
330
1F
100
AcDbEntity
  8
1
100
AcDbSpline
210
0.0
220
0.0
230
1.0
 70
     8
 71
     3
 72
    11
 73
     7
 74
     0
 42
0.000000001
 43
0.0000000001
 40
0.0
 40
0.0
 40
0.0
 40
0.0
 40
0.2514294949
 40
0.5019597078000002
 40
0.7514746491
 40
1.0
 40
1.0
 40
1.0
 40
1.0
 10
31.83046105860001
 20
123.313166287
 30
0.0
 10
31.9664906475
 20
123.4562389067999
 30
0.0
 10
32.26582018159999
 20
123.7168709277
 30
0.0
 10
32.77868673389999
 20
124.0154664692999
 30
0.0
 10
33.3365414891
 20
124.2112382295
 30
0.0
 10
33.72631950959999
 20
124.2682831484
 30
0.0
 10
33.92123225980001
 20
124.2776483181999
 30
0.0
  0
SPLINE
  5
96130
330
1F
100
AcDbEntity
  8
1
100
AcDbSpline
210
0.0
220
0.0
230
1.0
 70
     8
 71
     3
 72
    11
 73
     7
 74
     0
 42
0.000000001
 43
0.0000000001
 40
0.0
 40
0.0
 40
0.0
 40
0.0
 40
0.2462455478
 40
0.495542549
 40
0.7470679367000001
 40
1.0
 40
1.0
 40
1.0
 40
1.0
 10
31.09713027449999
 20
122.0055629583
 30
0.0
 10
31.13035284300003
 20
122.1252581502
 30
0.0
 10
31.2109491624
 20
122.3625739391
 30
0.0
 10
31.37373073280003
 20
122.7034564523
 30
0.0
 10
31.57894910099998
 20
123.0246922133
 30
0.0
 10
31.74254364929999
 20
123.2206968897
 30
0.0
 10
31.83046105860001
 20
123.313166287
 30
0.0
  0
SPLINE
  5
96131
330
1F
100
AcDbEntity
  8
1
100
AcDbSpline
210
0.0
220
0.0
230
1.0
 70
     8
 71
     3
 72
    28
 73
    24
 74
     0
 42
0.000000001
 43
0.0000000001
 40
0.0
 40
0.0
 40
0.0
 40
0.0
 40
0.0018181849
 40
0.0036723683
 40
0.0057771136
 40
0.0082827968
 40
0.0148069121
 40
0.0236105964
 40
0.0348062865
 40
0.0484240328
 40
0.0644553597
 40
0.0828692769
 40
0.1036192017
 40
0.1266463894
 40
0.1792465117
 40
0.2400162775
 40
0.3081804943
 40
0.3828621936999999
 40
0.4630981012000003
 40
0.5478533058
 40
0.63603571
 40
0.8181133754000001
 40
1.0
 40
1.0
 40
1.0
 40
1.0
 10
48.42668597529999
 20
125.7417352243
 30
0.0
 10
48.42605620310004
 20
125.7438139421999
 30
0.0
 10
48.42547978729999
 20
125.7482809078
 30
0.0
 10
48.42725580899999
 20
125.7550963395
 30
0.0
 10
48.43147728449998
 20
125.7616733396
 30
0.0
 10
48.44101366409997
 20
125.7710482753
 30
0.0
 10
48.45947622159997
 20
125.7821018189
 30
0.0
 10
48.48872867009998
 20
125.7943228658
 30
0.0
 10
48.52706744449999
 20
125.8064455474
 30
0.0
 10
48.57438134009999
 20
125.8184207279
 30
0.0
 10
48.63059182889998
 20
125.8301956601
 30
0.0
 10
48.69551931759996
 20
125.841728197
 30
0.0
 10
48.7689613741
 20
125.8529851328999
 30
0.0
 10
48.88308070300002
 20
125.8682706821
 30
0.0
 10
49.0450677279
 20
125.886073538
 30
0.0
 10
49.2610928688
 20
125.9052247164999
 30
0.0
 10
49.50370458560001
 20
125.9228338657
 30
0.0
 10
49.76972696289998
 20
125.9388021609
 30
0.0
 10
50.05569247810001
 20
125.9530408549
 30
0.0
 10
50.35788344419997
 20
125.9654820775
 30
0.0
 10
50.78175213979999
 20
125.9797323185
 30
0.0
 10
51.32175897109999
 20
125.9923619274
 30
0.0
 10
51.75654162099999
 20
125.9971711007999
 30
0.0
 10
51.9738233841
 20
125.9980728660999
 30
0.0
  0
SPLINE
  5
96132
330
1F
100
AcDbEntity
  8
1
100
AcDbSpline
210
0.0
220
0.0
230
1.0
 70
     8
 71
     3
 72
     9
 73
     5
 74
     0
 42
0.000000001
 43
0.0000000001
 40
0.0
 40
0.0
 40
0.0
 40
0.0
 40
0.5256097029
 40
1.0
 40
1.0
 40
1.0
 40
1.0
 10
47.7368300679
 20
123.0214664275
 30
0.0
 10
47.66971984589997
 20
123.0392036055
 30
0.0
 10
47.53991137819999
 20
123.0654708824
 30
0.0
 10
47.40795120439996
 20
123.0761009017999
 30
0.0
 10
47.3453162856
 20
123.0774904809
 30
0.0
  0
SPLINE
  5
96133
330
1F
100
AcDbEntity
  8
1
100
AcDbSpline
210
0.0
220
0.0
230
1.0
 70
     8
 71
     3
 72
    11
 73
     7
 74
     0
 42
0.000000001
 43
0.0000000001
 40
0.0
 40
0.0
 40
0.0
 40
0.0
 40
0.2488813695
 40
0.4975471601
 40
0.7474454837000001
 40
1.0
 40
1.0
 40
1.0
 40
1.0
 10
48.89584552579997
 20
123.4289251442999
 30
0.0
 10
48.81264802749999
 20
123.450530396
 30
0.0
 10
48.64281793169999
 20
123.4813563272999
 30
0.0
 10
48.38379635929999
 20
123.4884947315
 30
0.0
 10
48.1254488202
 20
123.4558176638
 30
0.0
 10
47.95790171659999
 20
123.4076071759
 30
0.0
 10
47.8761638102
 20
123.3771567882
 30
0.0
  0
ELLIPSE
  5
96134
330
1F
100
AcDbEntity
  8
1
100
AcDbEllipse
 10
546.1756247027
 20
-9.506571648899976
 30
0.0
 11
545.4572430772
 21
-134.6437521511
 31
0.0
210
0.0
220
0.0
230
1.0
 40
0.0128069612
 41
2.707759229100008
 42
2.794028550100001
  0
ELLIPSE
  5
96135
330
1F
100
AcDbEntity
  8
1
100
AcDbEllipse
 10
507.6567127161998
 20
-0.0000000012000214
 30
0.0
 11
510.5600547540003
 21
-126.0296426616
 31
0.0
210
0.0
220
0.0
230
1.0
 40
0.0128390134
 41
2.66085948279999
 42
2.676621022900008
  0
ELLIPSE
  5
96136
330
1F
100
AcDbEntity
  8
1
100
AcDbEllipse
 10
74.35872271
 20
0.179072914599999
 30
0.0
 11
219.1072294462
 21
8.871208987000001
 31
0.0
210
0.0
220
0.0
230
1.0
 40
0.5760705320000003
 41
1.6527599981
 42
1.669583379499995
  0
ELLIPSE
  5
96137
330
1F
100
AcDbEntity
  8
1
100
AcDbEllipse
 10
144.2213803399
 20
0.9821420206000084
 30
0.0
 11
666.9887160408999
 21
11.1861887272
 31
0.0
210
0.0
220
0.0
230
1.0
 40
0.190092648
 41
1.7128850005
 42
1.7337409128
  0
ELLIPSE
  5
96138
330
1F
100
AcDbEntity
  8
1
100
AcDbEllipse
 10
43.4428651737
 20
118.1685401493
 30
0.0
 11
14.1451252012
 21
8.808144221399997
 31
0.0
210
0.0
220
0.0
230
1.0
 40
0.0916395167
 41
0.8957779814999952
 42
1.095620346700006
  0
ELLIPSE
  5
96139
330
1F
100
AcDbEntity
  8
1
100
AcDbEllipse
 10
51.4818020953
 20
122.8587282461
 30
0.0
 11
2.292343414599999
 21
-0.5096991597000004
 31
0.0
210
0.0
220
0.0
230
1.0
 40
0.0700374171
 41
3.236759592480173
 42
3.623091912380053
  0
LINE
  5
9613A
330
1F
100
AcDbEntity
  8
sk3
100
AcDbLine
 10
57.15961818439996
 20
110.2847751836
 30
0.0
 11
59.24402540179785
 21
113.6679694649503
 31
0.0
  0
LINE
  5
9613B
330
1F
100
AcDbEntity
  8
sk3
100
AcDbLine
 10
35.0
 20
0.0
 30
0.0
 11
35.0
 21
86.99999999879997
 31
0.0
  0
LINE
  5
9613C
330
1F
100
AcDbEntity
  8
sk3
100
AcDbLine
 10
56.71377005920001
 20
108.711146193
 30
0.0
 11
56.71377005920001
 21
0.0
 31
0.0
  0
LINE
  5
9613D
330
1F
100
AcDbEntity
  8
sk3
100
AcDbLine
 10
38.0
 20
89.99999999879999
 30
0.0
 11
53.71377005919999
 21
89.99999999879999
 31
0.0
  0
ARC
  5
9613E
330
1F
100
AcDbEntity
  8
sk3
100
AcDbCircle
 10
38.0
 20
86.99999999879997
 30
0.0
 40
3.0
100
AcDbArc
 50
90.0
 51
180.0
  0
ARC
  5
9613F
330
1F
100
AcDbEntity
  8
sk3
100
AcDbCircle
 10
59.71377005919999
 20
108.711146193
 30
0.0
 40
3.0
100
AcDbArc
 50
148.3625168768983
 51
180.0
  0
ARC
  5
96140
330
1F
100
AcDbEntity
  8
sk3
100
AcDbCircle
 10
53.71377005919999
 20
92.99999999879998
 30
0.0
 40
3.0
100
AcDbArc
 50
270.0
 51
0.0
  0
LINE
  5
96141
330
1F
100
AcDbEntity
  8
sk3
100
AcDbLine
 10
0.5
 20
12.69999999890001
 30
0.0
 11
0.5
 21
37.49999999890003
 31
0.0
  0
LINE
  5
96142
330
1F
100
AcDbEntity
  8
sk3
100
AcDbLine
 10
2.0
 20
43.79999999889998
 30
0.0
 11
2.0
 21
57.79999999889998
 31
0.0
  0
LINE
  5
96143
330
1F
100
AcDbEntity
  8
sk3
100
AcDbLine
 10
7.299999999999952
 20
32.24999999890002
 30
0.0
 11
7.299999999999952
 21
12.69999999890001
 31
0.0
  0
LINE
  5
96144
330
1F
100
AcDbEntity
  8
sk3
100
AcDbLine
 10
12.0
 20
12.69999999890001
 30
0.0
 11
12.0
 21
32.24999999890002
 31
0.0
  0
LINE
  5
96145
330
1F
100
AcDbEntity
  8
sk3
100
AcDbLine
 10
2.32568851449997
 20
32.68519586270004
 30
0.0
 11
7.299999999999952
 21
32.24999999890002
 31
0.0
  0
LINE
  5
96146
330
1F
100
AcDbEntity
  8
sk3
100
AcDbLine
 10
2.0
 20
43.79999999889998
 30
0.0
 11
0.0
 21
41.79999999889997
 31
0.0
  0
LINE
  5
96147
102
{ACAD_REACTORS
330
96180
102
}
330
1F
100
AcDbEntity
  8
sk3
100
AcDbLine
 10
12.0
 20
31.74999999890002
 30
0.0
 11
34.0
 21
31.74999999890002
 31
0.0
  0
LINE
  5
96148
330
1F
100
AcDbEntity
  8
sk3
100
AcDbLine
 10
7.299999999999952
 20
32.24999999890002
 30
0.0
 11
12.0
 21
32.24999999890002
 31
0.0
  0
LINE
  5
96149
330
1F
100
AcDbEntity
  8
sk3
100
AcDbLine
 10
2.0
 20
57.79999999889998
 30
0.0
 11
0.0
 21
59.79999999889995
 31
0.0
  0
LINE
  5
9614A
330
1F
100
AcDbEntity
  8
sk3
100
AcDbLine
 10
0.0
 20
37.49999999890003
 30
0.0
 11
0.5
 21
37.49999999890003
 31
0.0
  0
LINE
  5
9614B
330
1F
100
AcDbEntity
  8
sk3
100
AcDbLine
 10
33.0
 20
57.79999999889998
 30
0.0
 11
35.0
 21
59.79999999889995
 31
0.0
  0
LINE
  5
9614C
330
1F
100
AcDbEntity
  8
sk3
100
AcDbLine
 10
33.0
 20
43.79999999889998
 30
0.0
 11
2.0
 21
43.79999999889998
 31
0.0
  0
LINE
  5
9614D
330
1F
100
AcDbEntity
  8
sk3
100
AcDbLine
 10
33.0
 20
43.79999999889998
 30
0.0
 11
35.0
 21
41.79999999889997
 31
0.0
  0
LINE
  5
9614E
330
1F
100
AcDbEntity
  8
sk3
100
AcDbLine
 10
33.0
 20
57.79999999889998
 30
0.0
 11
33.0
 21
43.79999999889998
 31
0.0
  0
LINE
  5
9614F
330
1F
100
AcDbEntity
  8
sk3
100
AcDbLine
 10
33.0
 20
57.79999999889998
 30
0.0
 11
2.0
 21
57.79999999889998
 31
0.0
  0
ARC
  5
96150
330
1F
100
AcDbEntity
  8
sk3
100
AcDbCircle
 10
2.5
 20
34.67758525890002
 30
0.0
 40
2.0
100
AcDbArc
 50
180.0
 51
265.0000000000002
  0
ARC
  5
96151
330
1F
100
AcDbEntity
  8
sk3
100
AcDbCircle
 10
34.0
 20
32.74999999890003
 30
0.0
 40
1.0
100
AcDbArc
 50
270.0
 51
0.0
  0
LINE
  5
96152
330
1F
100
AcDbEntity
  8
sk3
100
AcDbLine
 10
0.5
 20
-12.70000000109996
 30
0.0
 11
0.5
 21
-37.49999999890003
 31
0.0
  0
LINE
  5
96153
330
1F
100
AcDbEntity
  8
sk3
100
AcDbLine
 10
7.299999999999952
 20
-32.24999999890002
 30
0.0
 11
7.299999999999952
 21
-12.70000000109996
 31
0.0
  0
LINE
  5
96154
330
1F
100
AcDbEntity
  8
sk3
100
AcDbLine
 10
12.0
 20
-12.70000000109996
 30
0.0
 11
12.0
 21
-32.24999999890002
 31
0.0
  0
LINE
  5
96155
330
1F
100
AcDbEntity
  8
sk3
100
AcDbLine
 10
2.32568851449997
 20
-32.68519586270004
 30
0.0
 11
7.299999999999952
 21
-32.24999999890002
 31
0.0
  0
LINE
  5
96156
102
{ACAD_REACTORS
330
96180
102
}
330
1F
100
AcDbEntity
  8
sk3
100
AcDbLine
 10
12.0
 20
-31.74999999890002
 30
0.0
 11
34.0
 21
-31.74999999890002
 31
0.0
  0
LINE
  5
96157
330
1F
100
AcDbEntity
  8
sk3
100
AcDbLine
 10
7.299999999999952
 20
-32.24999999890002
 30
0.0
 11
12.0
 21
-32.24999999890002
 31
0.0
  0
LINE
  5
96158
330
1F
100
AcDbEntity
  8
sk3
100
AcDbLine
 10
0.0
 20
-37.49999999890003
 30
0.0
 11
0.5
 21
-37.49999999890003
 31
0.0
  0
ARC
  5
96159
330
1F
100
AcDbEntity
  8
sk3
100
AcDbCircle
 10
2.5
 20
-34.67758525890002
 30
0.0
 40
2.0
100
AcDbArc
 50
94.99999999999978
 51
180.0
  0
ARC
  5
9615A
330
1F
100
AcDbEntity
  8
sk3
100
AcDbCircle
 10
34.0
 20
-32.74999999890003
 30
0.0
 40
1.0
100
AcDbArc
 50
0.0
 51
90.0
  0
LINE
  5
9615B
330
1F
100
AcDbEntity
  8
sk3
100
AcDbLine
 10
1.000000006949959
 20
58.80000007379994
 30
0.0
 11
33.99999999305004
 21
58.80000007379994
 31
0.0
  0
LINE
  5
9615C
330
1F
100
AcDbEntity
  8
sk3
100
AcDbLine
 10
1.000000006949959
 20
42.80000007379996
 30
0.0
 11
33.99999999305004
 21
42.80000007379996
 31
0.0
  0
LINE
  5
9615D
330
1F
100
AcDbEntity
  8
4
100
AcDbLine
 10
-2.67379543728475
 20
50.80000007379993
 30
0.0
 11
38.68960107293185
 21
50.80000007379993
 31
0.0
  0
LINE
  5
9615E
330
1F
100
AcDbEntity
  8
4
100
AcDbLine
 10
-2.673795437284865
 20
-50.79999999890006
 30
0.0
 11
38.68960107293176
 21
-50.79999999890006
 31
0.0
  0
LINE
  5
9615F
330
1F
100
AcDbEntity
  8
sk3
100
AcDbLine
 10
34.4999999936
 20
-59.79999999890006
 30
0.0
 11
1.000000015199987
 21
-59.79999999890006
 31
0.0
  0
LINE
  5
96160
330
1F
100
AcDbEntity
  8
sk3
100
AcDbLine
 10
1.000000015199987
 20
-41.79999999890006
 30
0.0
 11
0.0
 21
-40.79999998200007
 31
0.0
  0
LINE
  5
96161
330
1F
100
AcDbEntity
  8
sk3
100
AcDbLine
 10
0.9999999999000124
 20
-41.79999999890006
 30
0.0
 11
0.9999999999000124
 21
-59.79999999890006
 31
0.0
  0
LINE
  5
96162
330
1F
100
AcDbEntity
  8
sk3
100
AcDbLine
 10
34.4999999936
 20
-59.79999999890006
 30
0.0
 11
35.00000000000006
 21
-60.30000000570002
 31
0.0
  0
LINE
  5
96163
330
1F
100
AcDbEntity
  8
sk3
100
AcDbLine
 10
34.4999999936
 20
-41.79999999890006
 30
0.0
 11
1.000000015199987
 21
-41.79999999890006
 31
0.0
  0
LINE
  5
96164
330
1F
100
AcDbEntity
  8
sk3
100
AcDbLine
 10
34.50000000010005
 20
-41.79999999890006
 30
0.0
 11
34.50000000010005
 21
-59.79999999890006
 31
0.0
  0
LINE
  5
96165
330
1F
100
AcDbEntity
  8
sk3
100
AcDbLine
 10
1.000000015199987
 20
-59.79999999890006
 30
0.0
 11
0.0
 21
-60.80000001580001
 31
0.0
  0
LINE
  5
96166
330
1F
100
AcDbEntity
  8
sk3
100
AcDbLine
 10
34.4999999936
 20
-41.79999999890006
 30
0.0
 11
35.00000000000006
 21
-41.29999999210006
 31
0.0
  0
LINE
  5
96167
330
1F
100
AcDbEntity
  8
sk3
100
AcDbLine
 10
1.0
 20
-12.70000000109996
 30
0.0
 11
1.0
 21
12.69999999890001
 31
0.0
  0
LINE
  5
96168
330
1F
100
AcDbEntity
  8
sk3
100
AcDbLine
 10
13.22
 20
-12.70000000109996
 30
0.0
 11
13.22
 21
12.69999999890001
 31
0.0
  0
LINE
  5
96169
330
1F
100
AcDbEntity
  8
sk3
100
AcDbLine
 10
14.22000000000003
 20
-11.70000000109996
 30
0.0
 11
14.22000000000003
 21
11.69999999890001
 31
0.0
  0
LINE
  5
9616A
330
1F
100
AcDbEntity
  8
sk3
100
AcDbLine
 10
0.0
 20
13.69999999890001
 30
0.0
 11
0.5
 21
13.19999999890001
 31
0.0
  0
LINE
  5
9616B
330
1F
100
AcDbEntity
  8
sk3
100
AcDbLine
 10
0.5
 20
-12.70000000109996
 30
0.0
 11
13.22
 21
-12.70000000109996
 31
0.0
  0
LINE
  5
9616C
330
1F
100
AcDbEntity
  8
sk3
100
AcDbLine
 10
13.22
 20
12.69999999890001
 30
0.0
 11
14.22000000000003
 21
11.69999999890001
 31
0.0
  0
LINE
  5
9616D
330
1F
100
AcDbEntity
  8
sk3
100
AcDbLine
 10
0.5
 20
-13.20000000109996
 30
0.0
 11
0.0
 21
-13.70000000109996
 31
0.0
  0
LINE
  5
9616E
330
1F
100
AcDbEntity
  8
sk3
100
AcDbLine
 10
0.5
 20
12.69999999890001
 30
0.0
 11
13.22
 21
12.69999999890001
 31
0.0
  0
LINE
  5
9616F
330
1F
100
AcDbEntity
  8
sk3
100
AcDbLine
 10
14.22000000000003
 20
-11.70000000109996
 30
0.0
 11
13.22
 21
-12.70000000109996
 31
0.0
  0
LINE
  5
96170
330
1F
100
AcDbEntity
  8
sk3
100
AcDbLine
 10
57.15961818439996
 20
-110.2847751836
 30
0.0
 11
61.56515401749993
 21
-117.4353854446
 31
0.0
  0
LINE
  5
96171
330
1F
100
AcDbEntity
  8
sk3
100
AcDbLine
 10
35.0
 20
0.0
 30
0.0
 11
35.0
 21
-86.99999999879997
 31
0.0
  0
LINE
  5
96172
330
1F
100
AcDbEntity
  8
sk3
100
AcDbLine
 10
56.71377005920001
 20
-108.711146193
 30
0.0
 11
56.71377005920001
 21
0.0
 31
0.0
  0
LINE
  5
96173
330
1F
100
AcDbEntity
  8
sk3
100
AcDbLine
 10
38.0
 20
-89.99999999879999
 30
0.0
 11
53.71377005919999
 21
-89.99999999879999
 31
0.0
  0
ARC
  5
96174
102
{ACAD_REACTORS
330
96186
102
}
330
1F
100
AcDbEntity
  8
sk3
100
AcDbCircle
 10
38.0
 20
-86.99999999879997
 30
0.0
 40
3.0
100
AcDbArc
 50
180.0
 51
270.0
  0
ARC
  5
96175
330
1F
100
AcDbEntity
  8
sk3
100
AcDbCircle
 10
59.71377005919999
 20
-108.711146193
 30
0.0
 40
3.0
100
AcDbArc
 50
180.0
 51
211.6374831231017
  0
ARC
  5
96176
330
1F
100
AcDbEntity
  8
sk3
100
AcDbCircle
 10
53.71377005919999
 20
-92.99999999879998
 30
0.0
 40
3.0
100
AcDbArc
 50
0.0
 51
90.0
  0
ARC
  5
96177
330
1F
100
AcDbEntity
  8
sk3
100
AcDbCircle
 10
60.71377005919997
 20
-117.9599284415
 30
0.0
 40
1.0
100
AcDbArc
 50
0.0
 51
31.63748312310169
  0
DIMENSION
  5
96178
102
{ACAD_XDICTIONARY
360
96179
102
}
102
{ACAD_REACTORS
330
9617A
102
}
330
1F
100
AcDbEntity
  8
2
100
AcDbDimension
  2
*D27098
 10
63.49999999999998
 20
159.90470296945
 30
0.0
 11
31.74999999999999
 21
163.95470296945
 31
0.0
 70
    32
 71
     5
 42
63.5
  3
コピー - ISO-25
100
AcDbAlignedDimension
 13
0.0
 23
107.9944999988
 33
0.0
 14
63.49999999999998
 24
126.1999999987965
 34
0.0
 50
0.0
100
AcDbRotatedDimension
1001
ACAD
1000
DSTYLE
1002
{
1070
   170
1070
     1
1070
   171
1070
     3
1070
   143
1040
0.0393700787401575
1070
   285
1070
     4
1070
     4
1000
"
1070
   271
1070
     8
1070
    40
1040
1.0
1002
}
1001
ACAD_DSTYLE_DIMINSPECT
1070
   393
1070
     0
1070
   394
1070
     0
1070
   395
1000

1070
   396
1000

  0
DIMENSION
  5
9617B
330
1F
100
AcDbEntity
  8
2
100
AcDbDimension
  2
*D271109
 10
89.96277858220208
 20
-126.9999999988
 30
0.0
 11
85.91277858220205
 21
-1.749999999999999
 31
0.0
 70
    32
  1
%%C<>
 71
     5
 42
253.9999999976
  3
コピー - ISO-25
100
AcDbAlignedDimension
 13
62.69999999999993
 23
126.9999999988
 33
0.0
 14
62.69999999999993
 24
-126.9999999988
 34
0.0
 50
90.0
100
AcDbRotatedDimension
1001
ACAD
1000
DSTYLE
1002
{
1070
   170
1070
     1
1070
   171
1070
     3
1070
   143
1040
0.0393700787401575
1070
   285
1070
     4
1070
     4
1000
%%c[]"
1070
   344
1005
87D73
1070
   271
1070
     8
1070
   173
1070
     1
1070
    40
1040
1.0
1070
    76
1070
     1
1002
}
1001
ACAD_DSTYLE_DIMINSPECT
1070
   393
1070
     0
1070
   394
1070
     0
1070
   395
1000

1070
   396
1000

  0
DIMENSION
  5
9617E
102
{ACAD_XDICTIONARY
360
9617F
102
}
102
{ACAD_REACTORS
330
96180
102
}
330
1F
100
AcDbEntity
  8
sk2
100
AcDbDimension
  2
*D26544
 10
-20.07137337092334
 20
-31.74999999890002
 30
0.0
 11
-24.12137337092334
 21
0.000000000000004
 31
0.0
 70
    32
  1
%%C<>
 71
     5
 42
63.49999999779999
  3
コピー - ISO-25
100
AcDbAlignedDimension
 13
12.0
 23
31.74999999890002
 33
0.0
 14
12.0
 24
-31.74999999890002
 34
0.0
 50
90.0
100
AcDbRotatedDimension
1001
ACAD
1000
DSTYLE
1002
{
1070
   170
1070
     1
1070
   171
1070
     3
1070
   143
1040
0.0393700787401575
1070
   285
1070
     4
1070
     4
1000
%%c[]"
1070
   271
1070
     8
1070
    40
1040
1.0
1002
}
1001
ACAD_DSTYLE_DIMINSPECT
1070
   393
1070
     0
1070
   394
1070
     0
1070
   395
1000

1070
   396
1000

  0
DIMENSION
  5
96181
102
{ACAD_XDICTIONARY
360
96182
102
}
102
{ACAD_REACTORS
330
96183
102
}
330
1F
100
AcDbEntity
  8
sk2
100
AcDbDimension
  2
*D26655
 10
-30.11981069511874
 20
-109.9945000012
 30
0.0
 11
-34.16981069511872
 21
-0.0000000012000069
 31
0.0
 70
    32
  1
%%C<>
 71
     5
 42
219.989
  3
コピー - ISO-25
100
AcDbAlignedDimension
 13
2.0
 23
109.9944999988
 33
0.0
 14
2.0
 24
-109.9945000012
 34
0.0
 50
90.0
100
AcDbRotatedDimension
1001
ACAD
1000
DSTYLE
1002
{
1070
   170
1070
     1
1070
   171
1070
     3
1070
   143
1040
0.0393700787401575
1070
   285
1070
     4
1070
     4
1000
%%c[]"
1070
   271
1070
     8
1070
    40
1040
1.0
1002
}
1001
ACAD_DSTYLE_DIMINSPECT
1070
   393
1070
     0
1070
   394
1070
     0
1070
   395
1000

1070
   396
1000

  0
DIMENSION
  5
96184
102
{ACAD_XDICTIONARY
360
96185
102
}
102
{ACAD_REACTORS
330
96186
102
}
330
1F
100
AcDbEntity
  8
sk2
100
AcDbDimension
  2
*D26766
 10
35.0
 20
-139.9663706349368
 30
0.0
 11
17.5
 21
-135.9163706349368
 31
0.0
 70
    32
 71
     5
 42
35.0
  3
コピー - ISO-25
100
AcDbAlignedDimension
 13
0.0
 23
-107.9945000012
 33
0.0
 14
35.0
 24
-86.99999999879997
 34
0.0
 50
0.0
100
AcDbRotatedDimension
1001
ACAD
1000
DSTYLE
1002
{
1070
   170
1070
     1
1070
   171
1070
     3
1070
   143
1040
0.0393700787401575
1070
   285
1070
     4
1070
     4
1000
"
1070
   271
1070
     8
1070
    40
1040
1.0
1002
}
1001
ACAD_DSTYLE_DIMINSPECT
1070
   393
1070
     0
1070
   394
1070
     0
1070
   395
1000

1070
   396
1000

  0
DIMENSION
  5
96188
330
1F
100
AcDbEntity
  8
2
100
AcDbDimension
  2
*D26987
 10
63.49999999999998
 20
150.0387804093437
 30
0.0
 11
94.96666666666666
 21
154.0887804093437
 31
0.0
 70
    32
  1
<>(MAX)
 71
     5
 42
8.200000000000001
  3
コピー - ISO-25
100
AcDbAlignedDimension
 13
55.30000000000001
 23
126.9999999987999
 33
0.0
 14
63.49999999999998
 24
126.1999999987972
 34
0.0
 50
0.0
100
AcDbRotatedDimension
1001
ACAD
1000
DSTYLE
1002
{
1070
   170
1070
     1
1070
   171
1070
     3
1070
   143
1040
0.0393700787401575
1070
   285
1070
     4
1070
     4
1000
"
1070
   271
1070
     8
1070
    40
1040
1.0
1002
}
1001
ACAD_DSTYLE_DIMINSPECT
1070
   393
1070
     0
1070
   394
1070
     0
1070
   395
1000

1070
   396
1000

  0
LINE
  5
963C7
330
1F
100
AcDbEntity
  8
cut
100
AcDbLine
 10
47.75663814569997
 20
123.3585746681
 30
0.0
 11
47.77346452189999
 21
123.3684582328
 31
0.0
  0
LINE
  5
963C8
330
1F
100
AcDbEntity
  8
cut
100
AcDbLine
 10
47.7734645218
 20
123.3684582328
 30
0.0
 11
48.00562755880003
 21
123.5005119097
 31
0.0
  0
LINE
  5
963C9
330
1F
100
AcDbEntity
  8
cut
100
AcDbLine
 10
48.00562755880003
 20
123.5005119097
 30
0.0
 11
48.2410199138
 21
123.6337532978
 31
0.0
  0
LINE
  5
963CA
330
1F
100
AcDbEntity
  8
cut
100
AcDbLine
 10
48.2410199138
 20
123.6337532978
 30
0.0
 11
48.47964458029998
 21
123.7681757678
 31
0.0
  0
LINE
  5
963CB
330
1F
100
AcDbEntity
  8
cut
100
AcDbLine
 10
48.47964458029998
 20
123.7681757678
 30
0.0
 11
48.72151353319997
 21
123.9037528022
 31
0.0
  0
LWPOLYLINE
  5
963CC
330
1F
100
AcDbEntity
  8
cut
100
AcDbPolyline
 90
        6
 70
     0
 43
0.0
 10
48.72151353319997
 20
123.9037528022
 10
48.85087956799997
 20
123.9759788072
 10
48.85812005919996
 20
123.9799513047999
 10
48.86538534189998
 20
123.9838934312999
 10
48.87267541630001
 20
123.9878051865999
 10
48.87999028239999
 20
123.9916865707
  0
LINE
  5
963CD
330
1F
100
AcDbEntity
  8
cut
100
AcDbLine
 10
53.89738590630003
 20
126.6331545465
 30
0.0
 11
54.1009097039
 21
126.7458145386999
 31
0.0
  0
LINE
  5
963CE
330
1F
100
AcDbEntity
  8
cut
100
AcDbLine
 10
54.1009097039
 20
126.7458145386999
 30
0.0
 11
54.1165465305
 21
126.7544073152999
 31
0.0
  0
LINE
  5
963CF
330
1F
100
AcDbEntity
  8
cut
100
AcDbLine
 10
53.81186312819999
 20
126.5864730044999
 30
0.0
 11
53.89738590630003
 21
126.6331545465
 31
0.0
  0
LINE
  5
963D0
330
1F
100
AcDbEntity
  8
cut
100
AcDbLine
 10
53.58010860270002
 20
126.4618155512999
 30
0.0
 11
53.81186312819999
 21
126.5864730044999
 31
0.0
  0
LINE
  5
963D1
330
1F
100
AcDbEntity
  8
cut
100
AcDbLine
 10
53.1381469583
 20
126.2240425025
 30
0.0
 11
53.58010860270002
 21
126.4618155512999
 31
0.0
  0
LINE
  5
963D2
330
1F
100
AcDbEntity
  8
cut
100
AcDbLine
 10
52.71067016749999
 20
125.9969405059999
 30
0.0
 11
53.1381469583
 21
126.2240425025
 31
0.0
  0
LINE
  5
963D3
330
1F
100
AcDbEntity
  8
cut
100
AcDbLine
 10
52.04437523900003
 20
125.6468593007
 30
0.0
 11
52.71067016749999
 21
125.9969405059999
 31
0.0
  0
LINE
  5
963D4
330
1F
100
AcDbEntity
  8
cut
100
AcDbLine
 10
50.60555049840002
 20
124.8930972344999
 30
0.0
 11
52.04437523900003
 21
125.6468593007
 31
0.0
  0
LINE
  5
963D5
330
1F
100
AcDbEntity
  8
cut
100
AcDbLine
 10
48.87999028239999
 20
123.9916865707
 30
0.0
 11
50.60555049840002
 21
124.8930972344999
 31
0.0
  0
LWPOLYLINE
  5
963D6
330
1F
100
AcDbEntity
  8
cut
100
AcDbPolyline
 90
        7
 70
     0
 43
0.0
 10
47.67642131589997
 20
123.3026141732
 10
47.69185001709995
 20
123.3146143978
 10
47.70761334140002
 20
123.3262340354
 10
47.723661439
 20
123.3374323149
 10
47.73997769330002
 20
123.3481956457
 10
47.7565787209
 20
123.3585376183999
 10
47.77346452189999
 20
123.3684582328
  0
LINE
  5
963D7
330
1F
100
AcDbEntity
  8
cut
100
AcDbLine
 10
47.6321928016
 20
123.2643707497
 30
0.0
 11
47.64689332789997
 21
123.2777545944999
 31
0.0
  0
LINE
  5
963D8
330
1F
100
AcDbEntity
  8
cut
100
AcDbLine
 10
47.64657579089997
 20
123.277471272
 30
0.0
 11
47.66162421429998
 21
123.2904796222999
 31
0.0
  0
LINE
  5
963D9
330
1F
100
AcDbEntity
  8
cut
100
AcDbLine
 10
47.66133124179997
 20
123.2902330159999
 30
0.0
 11
47.67669992959997
 21
123.3028366776999
 31
0.0
  0
LINE
  5
963DA
330
1F
100
AcDbEntity
  8
cut
100
AcDbLine
 10
47.57842027899999
 20
123.2086281356
 30
0.0
 11
47.5916165095
 21
123.2234057354
 31
0.0
  0
LINE
  5
963DB
330
1F
100
AcDbEntity
  8
cut
100
AcDbLine
 10
47.5913164418
 20
123.2230783219999
 30
0.0
 11
47.60488741040001
 21
123.2375072564
 31
0.0
  0
LINE
  5
963DC
330
1F
100
AcDbEntity
  8
cut
100
AcDbLine
 10
47.60457196970003
 20
123.2371812822999
 30
0.0
 11
47.61852056880002
 21
123.2512628901999
 31
0.0
  0
LINE
  5
963DD
330
1F
100
AcDbEntity
  8
cut
100
AcDbLine
 10
47.61819615479999
 20
123.2509454051
 30
0.0
 11
47.63252174529998
 21
123.2646780747
 31
0.0
  0
LINE
  5
963DE
330
1F
100
AcDbEntity
  8
cut
100
AcDbLine
 10
47.54201265139999
 20
123.1633119608999
 30
0.0
 11
47.55399796879999
 21
123.1790429182
 31
0.0
  0
LINE
  5
963DF
330
1F
100
AcDbEntity
  8
cut
100
AcDbLine
 10
47.5537579974
 20
123.1787363557
 30
0.0
 11
47.56616161479995
 21
123.1941644504
 31
0.0
  0
LINE
  5
963E0
330
1F
100
AcDbEntity
  8
cut
100
AcDbLine
 10
47.5658927736
 20
123.1938391115999
 30
0.0
 11
47.57870500249999
 21
123.2089555358
 31
0.0
  0
LWPOLYLINE
  5
963E1
330
1F
100
AcDbEntity
  8
cut
100
AcDbPolyline
 90
       46
 70
     0
 43
0.0
 10
59.08644848939997
 20
111.1915972301999
 10
59.0698443595
 20
111.1801630278
 10
59.05296577370001
 20
111.1691505369
 10
59.0358127321
 20
111.1585597572
 10
59.01836645679997
 20
111.1483805783999
 10
59.0006457256
 20
111.1386231108
 10
58.98270687209998
 20
111.1293176865
 10
58.9645513479
 20
111.1204681137999
 10
58.94617770149999
 20
111.1120705842999
 10
58.92763791170001
 20
111.1041440043
 10
58.90894935439995
 20
111.0966953315
 10
58.89009465380002
 20
111.0897176082
 10
58.87107366070001
 20
111.0832088672999
 10
58.85187549150003
 20
111.0771644084999
 10
58.8325110298
 20
111.0715889321
 10
58.81301277810003
 20
111.0664945721
 10
58.79337258740004
 20
111.0618811458999
 10
58.77359860659999
 20
111.057748836
 10
58.75374778459995
 20
111.0541103240999
 10
58.73382342880001
 20
111.0509685122999
 10
58.7138222319
 20
111.0483204984999
 10
58.6937912211
 20
111.0461702576
 10
58.6737477872
 20
111.0445186579
 10
58.65367453959999
 20
111.0433648310999
 10
58.63356633369999
 20
111.0427101473
 10
58.61340586299998
 20
111.0425537098999
 10
58.59321043400001
 20
111.0428964154999
 10
58.57302682290002
 20
111.0437423238
 10
58.55285110369998
 20
111.0450945749
 10
58.53268720240003
 20
111.0469500286999
 10
58.51259367279999
 20
111.0493033244
 10
58.49257857970002
 20
111.0521557934999
 10
58.4726338583
 20
111.0555061045999
 10
58.45279386830004
 20
111.0593449030999
 10
58.4330704536
 20
111.0636686589
 10
58.41345177020002
 20
111.0684809022
 10
58.39393664610003
 20
111.0737828683999
 10
58.37450647219998
 20
111.0795789779999
 10
58.35517985749999
 20
111.0858648106
 10
58.33601145749998
 20
111.0926283404
 10
58.3169996771
 20
111.0998725847999
 10
58.29814611149997
 20
111.1075945265
 10
58.27951020109997
 20
111.1157730877999
 10
58.26111175939995
 20
111.1244012429999
 10
58.24293097290001
 20
111.1334860179
 10
58.22496784169999
 20
111.1430274125
  0
LINE
  5
963E2
330
1F
100
AcDbEntity
  8
cut
100
AcDbLine
 10
47.51973411580002
 20
123.1315708024
 30
0.0
 11
47.53085630470002
 21
123.1478570037999
 31
0.0
  0
LINE
  5
963E3
330
1F
100
AcDbEntity
  8
cut
100
AcDbLine
 10
47.53066003470002
 20
123.1475738340999
 30
0.0
 11
47.54222567599997
 21
123.1636022198999
 31
0.0
  0
LWPOLYLINE
  5
963E4
330
1F
100
AcDbEntity
  8
cut
100
AcDbPolyline
 90
        6
 70
     0
 43
0.0
 10
47.47166619400002
 20
123.0478859029
 10
47.48038487320002
 20
123.0650642207
 10
47.4895505147
 20
123.082021105
 10
47.49917150759995
 20
123.0987735947999
 10
47.50923946279999
 20
123.115304651
 10
47.51973411580002
 20
123.1315708024
  0
LWPOLYLINE
  5
963E5
330
1F
100
AcDbEntity
  8
cut
100
AcDbPolyline
 90
        6
 70
     0
 43
0.0
 10
47.43460704540001
 20
122.9582476811
 10
47.44110574000001
 20
122.9765993343
 10
47.44807150799998
 20
122.9947580054999
 10
47.45549483249998
 20
123.012706324
 10
47.46336537429999
 20
123.0304258708
 10
47.47167540790001
 20
123.0479030972
  0
LINE
  5
963E6
330
1F
100
AcDbEntity
  8
cut
100
AcDbLine
 10
47.4179723579
 20
122.9021659099
 30
0.0
 11
47.4231710872
 21
122.9214982788999
 31
0.0
  0
LINE
  5
963E7
330
1F
100
AcDbEntity
  8
cut
100
AcDbLine
 10
47.42303496330004
 20
122.9210170821
 30
0.0
 11
47.42871019959999
 21
122.9401237681
 31
0.0
  0
LINE
  5
963E8
330
1F
100
AcDbEntity
  8
cut
100
AcDbLine
 10
47.42858165149999
 20
122.9397162214
 30
0.0
 11
47.43472833430002
 21
122.958597404
 31
0.0
  0
LINE
  5
963E9
330
1F
100
AcDbEntity
  8
cut
100
AcDbLine
 10
63.0529649005
 20
117.599143855
 30
0.0
 11
62.70857190919997
 21
117.0186365507
 31
0.0
  0
LINE
  5
963EA
330
1F
100
AcDbEntity
  8
cut
100
AcDbLine
 10
62.70857190919997
 20
117.0186365507
 30
0.0
 11
62.35138832349996
 21
116.4184033188
 31
0.0
  0
LINE
  5
963EB
330
1F
100
AcDbEntity
  8
cut
100
AcDbLine
 10
62.35138832349996
 20
116.4184033188
 30
0.0
 11
62.03009949110003
 21
115.8799015815999
 31
0.0
  0
LINE
  5
963EC
330
1F
100
AcDbEntity
  8
cut
100
AcDbLine
 10
62.03009949110003
 20
115.8799015815999
 30
0.0
 11
61.66174149220001
 21
115.2640278998999
 31
0.0
  0
LINE
  5
963ED
330
1F
100
AcDbEntity
  8
cut
100
AcDbLine
 10
61.66174149220001
 20
115.2640278998999
 30
0.0
 11
61.3283251011
 21
114.7078551401999
 31
0.0
  0
LINE
  5
963EE
330
1F
100
AcDbEntity
  8
cut
100
AcDbLine
 10
61.3283251011
 20
114.7078551401999
 30
0.0
 11
60.99497697419997
 21
114.1529137352
 31
0.0
  0
LINE
  5
963EF
330
1F
100
AcDbEntity
  8
cut
100
AcDbLine
 10
60.99497697419997
 20
114.1529137352
 30
0.0
 11
60.57911293720002
 21
113.4620474169
 31
0.0
  0
LINE
  5
963F0
330
1F
100
AcDbEntity
  8
cut
100
AcDbLine
 10
60.57911293720002
 20
113.4620474169
 30
0.0
 11
60.16294272039999
 21
112.7721382348999
 31
0.0
  0
LWPOLYLINE
  5
963F1
330
1F
100
AcDbEntity
  8
cut
100
AcDbPolyline
 90
        6
 70
     0
 43
0.0
 10
60.16294272039999
 20
112.7721382348999
 10
59.99173438049997
 20
112.4887494811
 10
59.98740110939997
 20
112.4816895469
 10
59.98303760139997
 20
112.4746534555999
 10
59.97864385669998
 20
112.4676412072999
 10
59.97421987519999
 20
112.4606528019
  0
LINE
  5
963F2
330
1F
100
AcDbEntity
  8
cut
100
AcDbLine
 10
59.97421987519999
 20
112.4606528019
 30
0.0
 11
59.73998569400003
 21
112.0967803231999
 31
0.0
  0
LINE
  5
963F3
330
1F
100
AcDbEntity
  8
cut
100
AcDbLine
 10
59.73998569400003
 20
112.0967803231999
 30
0.0
 11
59.44142697979998
 21
111.6344489701999
 31
0.0
  0
LINE
  5
963F4
330
1F
100
AcDbEntity
  8
cut
100
AcDbLine
 10
59.44142697979998
 20
111.6344489701999
 30
0.0
 11
59.29555278150003
 21
111.4090548922999
 31
0.0
  0
LWPOLYLINE
  5
963F5
330
1F
100
AcDbEntity
  8
cut
100
AcDbPolyline
 90
       19
 70
     0
 43
0.0
 10
59.29555278160001
 20
111.4090548926
 10
59.28632490619998
 20
111.3951290887999
 10
59.27679398489999
 20
111.3813928068
 10
59.26696001759996
 20
111.3678460468
 10
59.25681441009999
 20
111.3544775874
 10
59.24636575659997
 20
111.3412986499
 10
59.23563984009996
 20
111.3283428979
 10
59.22464179080002
 20
111.3156178101
 10
59.21336647850001
 20
111.3031159076999
 10
59.20182429509997
 20
111.2908484186
 10
59.19001614879999
 20
111.2788153116999
 10
59.17794113150001
 20
111.2670166180999
 10
59.16560691109999
 20
111.2554636582
 10
59.15300586479998
 20
111.2441502692
 10
59.14014561549999
 20
111.2330826137999
 10
59.12705669959996
 20
111.2222905014
 10
59.11374929599997
 20
111.2117838680999
 10
59.10021322599999
 20
111.2015527776999
 10
59.08644848939997
 20
111.1915972301999
  0
LINE
  5
963F6
330
1F
100
AcDbEntity
  8
cut
100
AcDbLine
 10
47.40573986700002
 20
122.8450002798999
 30
0.0
 11
47.40944620419997
 21
122.8647556836
 31
0.0
  0
LINE
  5
963F7
330
1F
100
AcDbEntity
  8
cut
100
AcDbLine
 10
47.40932042909998
 20
122.86412989
 30
0.0
 11
47.41353356149999
 21
122.8837822865999
 31
0.0
  0
LINE
  5
963F8
330
1F
100
AcDbEntity
  8
cut
100
AcDbLine
 10
47.41339910070002
 20
122.8831924307
 30
0.0
 11
47.41811281310003
 21
122.9027162094
 31
0.0
  0
LINE
  5
963F9
330
1F
100
AcDbEntity
  8
cut
100
AcDbLine
 10
47.39794895130001
 20
122.7869435886
 30
0.0
 11
47.40014837100001
 21
122.8071789658
 31
0.0
  0
LINE
  5
963FA
330
1F
100
AcDbEntity
  8
cut
100
AcDbLine
 10
47.40005803769998
 20
122.8064365040999
 30
0.0
 11
47.40275796970002
 21
122.8265037109
 31
0.0
  0
LINE
  5
963FB
330
1F
100
AcDbEntity
  8
cut
100
AcDbLine
 10
47.4026540844
 20
122.8257805769
 30
0.0
 11
47.40585613979999
 21
122.8456760373999
 31
0.0
  0
LINE
  5
963FC
330
1F
100
AcDbEntity
  8
cut
100
AcDbLine
 10
47.3946140035
 20
122.7277612016
 30
0.0
 11
47.39524767909999
 21
122.7482304804999
 31
0.0
  0
LINE
  5
963FD
330
1F
100
AcDbEntity
  8
cut
100
AcDbLine
 10
47.39521911639996
 20
122.747580007
 30
0.0
 11
47.39637960070001
 21
122.7679950798999
 31
0.0
  0
LINE
  5
963FE
330
1F
100
AcDbEntity
  8
cut
100
AcDbLine
 10
47.39633312249998
 20
122.7673165737999
 30
0.0
 11
47.39801970019999
 21
122.7876632322
 31
0.0
  0
LINE
  5
963FF
330
1F
100
AcDbEntity
  8
cut
100
AcDbLine
 10
47.39449384359999
 20
122.7141260111
 30
0.0
 11
47.39462802560001
 21
122.7283563926
 31
0.0
  0
LWPOLYLINE
  5
96400
330
1F
100
AcDbEntity
  8
cut
100
AcDbPolyline
 90
        6
 70
     0
 43
0.0
 10
47.3992331223
 20
122.6285852993
 10
47.39728009710001
 20
122.6485295414
 10
47.39584258569999
 20
122.6684724321
 10
47.39492058820002
 20
122.6884139713
 10
47.39451654989999
 20
122.7083858576999
 10
47.39449612099996
 20
122.7141260108
  0
LINE
  5
96401
330
1F
100
AcDbEntity
  8
cut
100
AcDbLine
 10
63.49437109919995
 20
124.8347854083
 30
0.0
 11
63.5
 21
126.1999999988
 31
0.0
  0
LINE
  5
96402
330
1F
100
AcDbEntity
  8
cut
100
AcDbLine
 10
63.49437109919995
 20
124.8347854083
 30
0.0
 11
63.49424502879998
 21
124.8258937506999
 31
0.0
  0
LINE
  5
96403
330
1F
100
AcDbEntity
  8
cut
100
AcDbLine
 10
63.25985130499998
 20
118.5569738821
 30
0.0
 11
63.25657074010003
 21
118.3358864633999
 31
0.0
  0
LINE
  5
96404
330
1F
100
AcDbEntity
  8
cut
100
AcDbLine
 10
63.26409202720004
 20
118.7871955179999
 30
0.0
 11
63.25985130499998
 21
118.5569738821
 31
0.0
  0
LWPOLYLINE
  5
96405
330
1F
100
AcDbEntity
  8
cut
100
AcDbPolyline
 90
       31
 70
     0
 43
0.0
 10
63.25657074010003
 20
118.3358864647999
 10
63.25607881510001
 20
118.3124384376
 10
63.25523279419996
 20
118.2890673238
 10
63.25403267730003
 20
118.2657731233
 10
63.25248020779998
 20
118.2425741732
 10
63.25057364230002
 20
118.2194521364
 10
63.24830775070001
 20
118.1963520018
 10
63.24568547289999
 20
118.1732740004999
 10
63.24270386900002
 20
118.1502179014
 10
63.23934888980004
 20
118.1271280006
 10
63.23562570269995
 20
118.1040126901
 10
63.23152914029997
 20
118.0808635779
 10
63.2270296511
 20
118.0575997844
 10
63.22213210540002
 20
118.0342147426999
 10
63.21683163300003
 20
118.0107150197
 10
63.21108407160004
 20
117.9870394356
 10
63.204898344
 20
117.9631877129
 10
63.1982655274
 20
117.9391601293
 10
63.19111469029997
 20
117.9148963376999
 10
63.18346188819997
 20
117.890406979
 10
63.17529106559999
 20
117.8656814124
 10
63.1664831236
 20
117.8406273686
 10
63.15704561410001
 20
117.8152274971
 10
63.14697098510004
 20
117.7894991483
 10
63.13611748250003
 20
117.7634021041999
 10
63.1244894047
 20
117.7369175202999
 10
63.11208245329999
 20
117.7100642409999
 10
63.09874197910005
 20
117.6828585814
 10
63.08441643239996
 20
117.65530598
 10
63.06915736300005
 20
117.6274009983
 10
63.05296477080003
 20
117.5991436362999
  0
LINE
  5
96406
330
1F
100
AcDbEntity
  8
cut
100
AcDbLine
 10
63.26924985179999
 20
119.0240069336999
 30
0.0
 11
63.26409202720004
 21
118.7871955179999
 31
0.0
  0
LINE
  5
96407
330
1F
100
AcDbEntity
  8
cut
100
AcDbLine
 10
63.49424502879998
 20
124.8258937506999
 30
0.0
 11
63.49387532300005
 21
124.8080624832
 31
0.0
  0
LINE
  5
96408
330
1F
100
AcDbEntity
  8
cut
100
AcDbLine
 10
63.27521137249998
 20
119.2588690265999
 30
0.0
 11
63.26924985179999
 21
119.0240069336999
 31
0.0
  0
LINE
  5
96409
330
1F
100
AcDbEntity
  8
cut
100
AcDbLine
 10
63.281685079
 20
119.4841146530999
 30
0.0
 11
63.27521137249998
 21
119.2588690265999
 31
0.0
  0
LINE
  5
9640A
330
1F
100
AcDbEntity
  8
cut
100
AcDbLine
 10
63.49387532300005
 20
124.8080624832
 30
0.0
 11
63.49334886400003
 21
124.7901672794
 31
0.0
  0
LINE
  5
9640B
330
1F
100
AcDbEntity
  8
cut
100
AcDbLine
 10
63.29187065669997
 20
119.7946169540999
 30
0.0
 11
63.281685079
 21
119.4841146530999
 31
0.0
  0
LINE
  5
9640C
330
1F
100
AcDbEntity
  8
cut
100
AcDbLine
 10
63.30200731400004
 20
120.0662799991
 30
0.0
 11
63.29187065669997
 21
119.7946169540999
 31
0.0
  0
LINE
  5
9640D
330
1F
100
AcDbEntity
  8
cut
100
AcDbLine
 10
63.49334886400003
 20
124.7901672794
 30
0.0
 11
63.46111747419996
 21
123.9530102853
 31
0.0
  0
LINE
  5
9640E
330
1F
100
AcDbEntity
  8
cut
100
AcDbLine
 10
63.46111747419996
 20
123.9530102853
 30
0.0
 11
63.42471180169997
 21
123.0304387702999
 31
0.0
  0
LINE
  5
9640F
330
1F
100
AcDbEntity
  8
cut
100
AcDbLine
 10
63.42471180169997
 20
123.0304387702999
 30
0.0
 11
63.39211841989999
 21
122.2232221632
 31
0.0
  0
LINE
  5
96410
330
1F
100
AcDbEntity
  8
cut
100
AcDbLine
 10
63.39211841989999
 20
122.2232221632
 30
0.0
 11
63.35699808279997
 21
121.3719947942
 31
0.0
  0
LINE
  5
96411
330
1F
100
AcDbEntity
  8
cut
100
AcDbLine
 10
63.35699808279997
 20
121.3719947942
 30
0.0
 11
63.32396544849997
 21
120.5886212605999
 31
0.0
  0
LINE
  5
96412
330
1F
100
AcDbEntity
  8
cut
100
AcDbLine
 10
63.32396544849997
 20
120.5886212605999
 30
0.0
 11
63.30200731400004
 21
120.0662799991
 31
0.0
  0
LWPOLYLINE
  5
96413
330
1F
100
AcDbEntity
  8
cut
100
AcDbPolyline
 90
       19
 70
     0
 43
0.0
 10
47.48734541980001
 20
122.3432523545999
 10
47.47958425259996
 20
122.3583454936
 10
47.47215325959996
 20
122.3735612457
 10
47.46505244090002
 20
122.3888996109
 10
47.45827801509999
 20
122.4043738822999
 10
47.45183376349996
 20
122.4199707669
 10
47.44573103060003
 20
122.4356503851
 10
47.43997384599999
 20
122.4514041251999
 10
47.43455817990002
 20
122.467240599
 10
47.42948328729999
 20
122.4831457627999
 10
47.42474841239999
 20
122.499119806
 10
47.42035431089999
 20
122.5151625390999
 10
47.41630250509996
 20
122.5312593504999
 10
47.41259164299997
 20
122.5474187522999
 10
47.40922307669996
 20
122.5636322323999
 10
47.40620238360003
 20
122.5798596419999
 10
47.40353142319998
 20
122.5960875983
 10
47.4012083361
 20
122.6123294840999
 10
47.3992331223
 20
122.6285852995999
  0
LINE
  5
96414
330
1F
100
AcDbEntity
  8
cut
100
AcDbLine
 10
48.48138174389998
 20
120.3737050531
 30
0.0
 11
48.08798973529997
 21
121.1479873569
 31
0.0
  0
LINE
  5
96415
330
1F
100
AcDbEntity
  8
cut
100
AcDbLine
 10
48.87332286240003
 20
119.5983515245
 30
0.0
 11
48.48138174389998
 21
120.3737050531
 31
0.0
  0
LINE
  5
96416
330
1F
100
AcDbEntity
  8
cut
100
AcDbLine
 10
48.08798973529997
 20
121.1479873569
 30
0.0
 11
48.0801795785
 21
121.1634803125
 31
0.0
  0
LINE
  5
96417
330
1F
100
AcDbEntity
  8
cut
100
AcDbLine
 10
49.26298028669997
 20
118.8231952375
 30
0.0
 11
48.87332286240003
 21
119.5983515245
 31
0.0
  0
LINE
  5
96418
330
1F
100
AcDbEntity
  8
cut
100
AcDbLine
 10
49.65070570419999
 20
118.0474858153
 30
0.0
 11
49.26298028669997
 21
118.8231952375
 31
0.0
  0
LINE
  5
96419
330
1F
100
AcDbEntity
  8
cut
100
AcDbLine
 10
50.3281069358
 20
116.6804585771
 30
0.0
 11
49.65070570419999
 21
118.0474858153
 31
0.0
  0
LINE
  5
9641A
330
1F
100
AcDbEntity
  8
cut
100
AcDbLine
 10
48.0801795785
 20
121.1634803125
 30
0.0
 11
48.07235166240002
 21
121.1793357047999
 31
0.0
  0
LINE
  5
9641B
330
1F
100
AcDbEntity
  8
cut
100
AcDbLine
 10
50.762441454
 20
115.7951691247
 30
0.0
 11
50.3281069358
 21
116.6804585771
 31
0.0
  0
LINE
  5
9641C
330
1F
100
AcDbEntity
  8
cut
100
AcDbLine
 10
50.951161554
 20
115.4080797742
 30
0.0
 11
50.76244145309999
 21
115.7951691265
 31
0.0
  0
LWPOLYLINE
  5
9641D
330
1F
100
AcDbEntity
  8
cut
100
AcDbPolyline
 90
        9
 70
     0
 43
0.0
 10
48.00252037209998
 20
121.3242872687999
 10
47.9399979025
 20
121.4527198829999
 10
47.87693857790002
 20
121.5808513764
 10
47.8133410377
 20
121.7086841357
 10
47.7492066427
 20
121.8362157742
 10
47.68453947509999
 20
121.9634391314
 10
47.61934089580001
 20
122.0903518204999
 10
47.55360954400003
 20
122.2169562283
 10
47.48734541980001
 20
122.3432523547
  0
LINE
  5
9641E
330
1F
100
AcDbEntity
  8
cut
100
AcDbLine
 10
48.07235166240002
 20
121.1793357047999
 30
0.0
 11
48.00252037209998
 21
121.3242872687999
 31
0.0
  0
LINE
  5
9641F
330
1F
100
AcDbEntity
  8
cut
100
AcDbLine
 10
57.21855312799998
 20
111.6790414988
 30
0.0
 11
57.0814629664
 21
111.7498213924999
 31
0.0
  0
LINE
  5
96420
330
1F
100
AcDbEntity
  8
cut
100
AcDbLine
 10
57.0814629664
 20
111.7498213924999
 30
0.0
 11
57.0658741034
 21
111.7580000851
 31
0.0
  0
LWPOLYLINE
  5
96421
330
1F
100
AcDbEntity
  8
cut
100
AcDbPolyline
 90
        4
 70
     0
 43
0.0
 10
57.60167149359999
 20
111.4784728376999
 10
57.47473091879999
 20
111.5454004092
 10
57.34702420249998
 20
111.6122545930999
 10
57.21855312799998
 20
111.6790414988
  0
LINE
  5
96422
330
1F
100
AcDbEntity
  8
cut
100
AcDbLine
 10
57.8532649183
 20
111.3444341878
 30
0.0
 11
57.60167149359999
 21
111.4784728376999
 31
0.0
  0
LINE
  5
96423
330
1F
100
AcDbEntity
  8
cut
100
AcDbLine
 10
57.0658741034
 20
111.7580000851
 30
0.0
 11
57.0504460339
 21
111.7662563236999
 31
0.0
  0
LINE
  5
96424
330
1F
100
AcDbEntity
  8
cut
100
AcDbLine
 10
54.39205238139999
 20
113.2097951035
 30
0.0
 11
53.09789481349998
 21
113.9077389339
 31
0.0
  0
LINE
  5
96425
330
1F
100
AcDbEntity
  8
cut
100
AcDbLine
 10
57.0504460339
 20
111.7662563236999
 30
0.0
 11
54.39205238139999
 21
113.2097951035
 31
0.0
  0
LWPOLYLINE
  5
96426
330
1F
100
AcDbEntity
  8
cut
100
AcDbPolyline
 90
        4
 70
     0
 43
0.0
 10
58.22496784189997
 20
111.1430274123999
 10
58.10182587579999
 20
111.2102119547
 10
57.97792490130001
 20
111.2773475465
 10
57.8532649183
 20
111.3444341878
  0
LINE
  5
96427
330
1F
100
AcDbEntity
  8
cut
100
AcDbLine
 10
53.09789481349998
 20
113.9077389339
 30
0.0
 11
52.9062344989
 21
114.0120161453
 31
0.0
  0
LINE
  5
96428
330
1F
100
AcDbEntity
  8
cut
100
AcDbLine
 10
52.9062344989
 20
114.0120161453
 30
0.0
 11
52.7159861178
 21
114.117129226
 31
0.0
  0
LINE
  5
96429
330
1F
100
AcDbEntity
  8
cut
100
AcDbLine
 10
52.7159861178
 20
114.117129226
 30
0.0
 11
52.52599632340002
 21
114.2234856955999
 31
0.0
  0
LINE
  5
9642A
330
1F
100
AcDbEntity
  8
cut
100
AcDbLine
 10
52.52599632340002
 20
114.2234856955999
 30
0.0
 11
52.33598946939998
 21
114.3312148975
 31
0.0
  0
LINE
  5
9642B
330
1F
100
AcDbEntity
  8
cut
100
AcDbLine
 10
52.33598946939998
 20
114.3312148975
 30
0.0
 11
52.14597111959999
 21
114.440322211
 31
0.0
  0
LINE
  5
9642C
330
1F
100
AcDbEntity
  8
cut
100
AcDbLine
 10
52.14597111959999
 20
114.440322211
 30
0.0
 11
51.95629731599996
 21
114.5505820883
 31
0.0
  0
LINE
  5
9642D
330
1F
100
AcDbEntity
  8
cut
100
AcDbLine
 10
51.95629731599996
 20
114.5505820883
 30
0.0
 11
51.7671685806
 21
114.6618697065
 31
0.0
  0
LWPOLYLINE
  5
9642E
330
1F
100
AcDbEntity
  8
cut
100
AcDbPolyline
 90
        3
 70
     0
 43
0.0
 10
51.7671685806
 20
114.6618697065
 10
51.57896746929997
 20
114.7739517643
 10
51.48518884599996
 20
114.8303065681999
  0
LWPOLYLINE
  5
9642F
330
1F
100
AcDbEntity
  8
cut
100
AcDbPolyline
 90
       28
 70
     0
 43
0.0
 10
51.48518885689997
 20
114.8303065615999
 10
51.4589478043
 20
114.8465270083999
 10
51.43319765880001
 20
114.8631720134999
 10
51.40793842060003
 20
114.8802415769
 10
51.38316953449997
 20
114.8977477042
 10
51.35889155550001
 20
114.9156783898
 10
51.33510614929996
 20
114.9339976168
 10
51.31181534569997
 20
114.9526920455999
 10
51.28901711470001
 20
114.9717750158999
 10
51.26670703209999
 20
114.9912505303
 10
51.2448818882
 20
115.0111139465999
 10
51.2235448926
 20
115.0313699070999
 10
51.20270124900002
 20
115.0520363410999
 10
51.18234449919999
 20
115.0731255114
 10
51.16248110129999
 20
115.0946251551999
 10
51.1431356337
 20
115.1165164126999
 10
51.12431559700002
 20
115.1388012023999
 10
51.10601349040002
 20
115.1614776058
 10
51.08823139049997
 20
115.1845210066999
 10
51.0709765464
 20
115.2079233329999
 10
51.0542417089
 20
115.2316926566999
 10
51.03800720750001
 20
115.2558285779999
 10
51.02226301869996
 20
115.2803406676
 10
51.00701916599996
 20
115.3052193547999
 10
50.99228604960001
 20
115.3304355272999
 10
50.97806713649998
 20
115.355979481
 10
50.9643589598
 20
115.3818609201
 10
50.95116151959996
 20
115.4080798444999
  0
LINE
  5
96430
330
1F
100
AcDbEntity
  8
cut
100
AcDbLine
 10
55.07678346379996
 20
126.9999999987999
 30
0.0
 11
62.69999999999999
 21
126.9999999987999
 31
0.0
  0
ARC
  5
96431
330
1F
100
AcDbEntity
  8
cut
100
AcDbCircle
 10
55.07678346379996
 20
124.9999999987999
 30
0.0
 40
2.0
100
AcDbArc
 50
90.0
 51
118.6931396898996
  0
ARC
  5
96432
330
1F
100
AcDbEntity
  8
cut
100
AcDbCircle
 10
62.69999999999999
 20
126.1999999988
 30
0.0
 40
0.8
100
AcDbArc
 50
0.0
 51
90.0
  0
DIMENSION
  5
96433
330
1F
100
AcDbEntity
  8
2
100
AcDbDimension
  2
*D1310
 10
62.69999999999999
 20
126.1999999988
 30
0.0
 11
71.29619491944994
 21
128.3432880415135
 31
0.0
 70
   164
 71
     5
 42
0.8
  3
コピー - ISO-25
100
AcDbRadialDimension
 15
63.47623624332761
 25
126.3935388696882
 35
0.0
 40
0.0
1001
ACAD
1000
DSTYLE
1002
{
1070
   170
1070
     1
1070
   171
1070
     3
1070
   143
1040
0.0393700787401575
1070
   285
1070
     4
1070
     4
1000
"
1070
   271
1070
     8
1070
    40
1040
1.0
1002
}
1001
ACAD_DSTYLE_DIMRADIAL_EXTENSION
1070
   387
1070
     1
1070
   388
1040
0.0
1070
   390
1040
1.570796326794896
1001
ACAD_DSTYLE_DIMINSPECT
1070
   396
1000

1070
   395
1000

1070
   394
1070
     1
1070
   393
1070
     0
1001
ZWMCAD_GENSTANDARDFRAME_13_
1070
   410
1000
GB
1070
   411
1000
ZwmFrameMain_
  0
VIEWPORT
  5
71
102
{ACAD_XDICTIONARY
360
87B09
102
}
330
55
100
AcDbEntity
 67
     1
  8
0
100
AcDbViewport
 10
150.1652135264906
 20
103.6581106594891
 30
0.0
 40
339.1973820494347
 41
168.6522697578383
 68
     1
 69
    -1
 12
150.1652135264906
 22
103.6581106594891
 13
0.0
 23
0.0
 14
10.0
 24
10.0
 15
10.0
 25
10.0
 16
0.0
 26
0.0
 36
1.0
 17
0.0
 27
0.0
 37
0.0
 42
50.0
 43
0.0
 44
0.0
 45
168.6522697578383
 50
0.0
 51
0.0
 72
  1000
 90
    32864
  1

281
     0
 71
     1
 74
     0
110
0.0
120
0.0
130
0.0
111
1.0
121
0.0
131
0.0
112
0.0
122
1.0
132
0.0
 79
     0
146
0.0
1001
ACAD
1000
MVIEW
1002
{
1070
    16
1010
0.0
1020
0.0
1030
0.0
1010
0.0
1020
0.0
1030
1.0
1040
0.0
1040
168.6522697578383
1040
150.1652135264906
1040
103.6581106594891
1040
50.0
1040
0.0
1040
0.0
1070
     0
1070
  1000
1070
     0
1070
     3
1070
     0
1070
     0
1070
     0
1070
     0
1040
0.0
1040
0.0
1040
0.0
1040
10.0
1040
10.0
1040
10.0
1040
10.0
1070
     0
1002
{
1002
}
1002
}
  0
VIEWPORT
  5
73
102
{ACAD_XDICTIONARY
360
87B0B
102
}
330
55
100
AcDbEntity
 67
     1
  8
0
100
AcDbViewport
 10
133.3499939441681
 20
101.5999939441681
 30
0.0
 40
213.3599903106689
 41
162.5599903106689
 68
     2
 69
    -1
 12
210.0
 22
148.5
 13
0.0
 23
0.0
 14
10.0
 24
10.0
 15
10.0
 25
10.0
 16
0.0
 26
0.0
 36
1.0
 17
0.0
 27
0.0
 37
0.0
 42
50.0
 43
0.0
 44
0.0
 45
324.0677920111345
 50
0.0
 51
0.0
 72
   100
 90
    32864
  1

281
     0
 71
     1
 74
     0
110
0.0
120
0.0
130
0.0
111
1.0
121
0.0
131
0.0
112
0.0
122
1.0
132
0.0
 79
     0
146
0.0
1001
ACAD
1000
MVIEW
1002
{
1070
    16
1010
0.0
1020
0.0
1030
0.0
1010
0.0
1020
0.0
1030
1.0
1040
0.0
1040
324.0677920111345
1040
210.0
1040
148.5
1040
50.0
1040
0.0
1040
0.0
1070
     0
1070
   100
1070
     0
1070
     3
1070
     0
1070
     0
1070
     0
1070
     0
1040
0.0
1040
0.0
1040
0.0
1040
10.0
1040
10.0
1040
10.0
1040
10.0
1070
     0
1002
{
1002
}
1002
}
  0
ENDSEC
  0
SECTION
  2
OBJECTS
  0
DICTIONARY
  5
C
330
0
100
AcDbDictionary
281
     1
  3
ACAD_2007HEADERVARS_RT
350
964A0
  3
ACAD_CIP_PREVIOUS_PRODUCT_INFO
350
4A3C3
  3
ACAD_COLOR
350
85
  3
ACAD_DETAILVIEWSTYLE
350
4A3BB
  3
ACAD_GROUP
350
D
  3
ACAD_LAYOUT
350
1A
  3
ACAD_MATERIAL
350
84
  3
ACAD_MLEADERSTYLE
350
4A3B7
  3
ACAD_MLINESTYLE
350
17
  3
ACAD_PLOTSETTINGS
350
19
  3
ACAD_PLOTSTYLENAME
350
E
  3
ACAD_SCALELIST
350
4A3A5
  3
ACAD_SECTIONVIEWSTYLE
350
4A3B9
  3
ACAD_TABLESTYLE
350
A1
  3
ACAD_VISUALSTYLE
350
4A38C
  3
ACDB_RECOMPOSE_DATA
350
907A1
  3
ACDBHEADERROUNDTRIPXREC
350
9649D
  3
AcDbVariableDictionary
350
5E
  3
ASE_INDEX_DICTIONARY
350
349E9
  3
DWGPROPS
350
964A3
  0
DICTIONARY
  5
8C34E
330
8
100
AcDbDictionary
280
     1
281
     1
  3
ACAD_XREC_ROUNDTRIP
360
964A9
  0
DICTIONARY
  5
E2
330
2
100
AcDbDictionary
280
     1
281
     1
  3
ACAD_LAYERFILTERS
360
4A339
  3
ACAD_LAYERSTATES
360
3759A
  3
ACLYDICTIONARY
360
4A338
  0
DICTIONARY
  5
4A86C
330
10
100
AcDbDictionary
280
     1
281
     1
  3
ADSK_XREC_LAYER_RECONCILED
360
4A86D
  0
DICTIONARY
  5
4A773
330
4A772
100
AcDbDictionary
280
     1
281
     1
  3
ADSK_XREC_LAYER_RECONCILED
360
4A86E
  0
DICTIONARY
  5
4A775
330
4A774
100
AcDbDictionary
280
     1
281
     1
  3
ADSK_XREC_LAYER_RECONCILED
360
4A86F
  0
DICTIONARY
  5
4A777
330
4A776
100
AcDbDictionary
280
     1
281
     1
  3
ADSK_XREC_LAYER_RECONCILED
360
4A870
  0
DICTIONARY
  5
4A779
330
4A778
100
AcDbDictionary
280
     1
281
     1
  3
ADSK_XREC_LAYER_RECONCILED
360
4A871
  0
DICTIONARY
  5
4A77B
330
4A77A
100
AcDbDictionary
280
     1
281
     1
  3
ADSK_XREC_LAYER_RECONCILED
360
4A872
  0
DICTIONARY
  5
4A77F
330
4A77E
100
AcDbDictionary
280
     1
281
     1
  3
ADSK_XREC_LAYER_RECONCILED
360
4A874
  0
DICTIONARY
  5
4A783
330
4A782
100
AcDbDictionary
280
     1
281
     1
  3
ADSK_XREC_LAYER_RECONCILED
360
4A876
  0
DICTIONARY
  5
8C34C
330
87B52
100
AcDbDictionary
280
     1
281
     1
  3
ACAD_XREC_ROUNDTRIP
360
964A8
  0
DICTIONARY
  5
31EE
330
1F
100
AcDbDictionary
280
     1
281
     1
  3
ACAD_SORTENTS
360
31EF
  0
DICTIONARY
  5
4A6D7
330
4A6D6
100
AcDbDictionary
280
     1
281
     1
  3
ACAD_SORTENTS
360
4A6D8
  0
DICTIONARY
  5
87B05
330
6B
100
AcDbDictionary
280
     1
281
     1
  3
ACAD_XREC_ROUNDTRIP
360
964A6
  0
DICTIONARY
  5
87B07
330
6D
100
AcDbDictionary
280
     1
281
     1
  3
ACAD_XREC_ROUNDTRIP
360
964A7
  0
DICTIONARY
  5
96179
330
96178
100
AcDbDictionary
280
     1
281
     1
  3
ACAD_DIMASSOC
360
9617A
  0
DICTIONARY
  5
9617F
330
9617E
100
AcDbDictionary
280
     1
281
     1
  3
ACAD_DIMASSOC
360
96180
  0
DICTIONARY
  5
96182
330
96181
100
AcDbDictionary
280
     1
281
     1
  3
ACAD_DIMASSOC
360
96183
  0
DICTIONARY
  5
96185
330
96184
100
AcDbDictionary
280
     1
281
     1
  3
ACAD_DIMASSOC
360
96186
  0
DICTIONARY
  5
87B09
330
71
100
AcDbDictionary
280
     1
281
     1
  3
ACAD_XREC_ROUNDTRIP
360
964A4
  0
DICTIONARY
  5
87B0B
330
73
100
AcDbDictionary
280
     1
281
     1
  3
ACAD_XREC_ROUNDTRIP
360
964A5
  0
DICTIONARY
  5
964A0
102
{ACAD_REACTORS
330
C
102
}
330
C
100
AcDbDictionary
281
     1
  3
DIMTFILL
350
964A1
  3
DIMTFILLCLR
350
964A2
  0
XRECORD
  5
4A3C3
102
{ACAD_REACTORS
330
C
102
}
330
C
100
AcDbXrecord
280
     1
300
ACDLT
300
2020
300

  0
DICTIONARY
  5
85
102
{ACAD_REACTORS
330
C
102
}
330
C
100
AcDbDictionary
281
     1
  0
DICTIONARY
  5
4A3BB
102
{ACAD_REACTORS
330
C
102
}
330
C
100
AcDbDictionary
281
     1
  3
Metric50
350
4A3BC
  0
DICTIONARY
  5
D
102
{ACAD_REACTORS
330
C
102
}
330
C
100
AcDbDictionary
281
     1
  0
DICTIONARY
  5
1A
102
{ACAD_REACTORS
330
C
102
}
330
C
100
AcDbDictionary
281
     1
  3
Model
350
22
  3
レイアウト1
350
51
  3
レイアウト2
350
56
  0
DICTIONARY
  5
84
102
{ACAD_REACTORS
330
C
102
}
330
C
100
AcDbDictionary
281
     1
  3
ByBlock
350
4A37C
  3
ByLayer
350
4A374
  3
Global
350
4A384
  0
DICTIONARY
  5
4A3B7
102
{ACAD_REACTORS
330
C
102
}
330
C
100
AcDbDictionary
281
     1
  3
Standard
350
4A3B8
  0
DICTIONARY
  5
17
102
{ACAD_REACTORS
330
C
102
}
330
C
100
AcDbDictionary
281
     1
  3
Standard
350
18
  0
DICTIONARY
  5
19
102
{ACAD_REACTORS
330
C
102
}
330
C
100
AcDbDictionary
281
     1
  0
ACDBDICTIONARYWDFLT
  5
E
102
{ACAD_REACTORS
330
C
102
}
330
C
100
AcDbDictionary
281
     1
  3
Normal
350
F
100
AcDbDictionaryWithDefault
340
F
  0
DICTIONARY
  5
4A3A5
102
{ACAD_REACTORS
330
C
102
}
330
C
100
AcDbDictionary
281
     1
  3
A0
350
4A3A6
  3
A1
350
4A3A7
  3
A2
350
4A3A8
  3
A3
350
4A3A9
  3
A4
350
4A3AA
  3
A5
350
4A3AB
  3
A6
350
4A3AC
  3
A7
350
4A3AD
  3
A8
350
4A3AE
  3
A9
350
4A3AF
  3
B0
350
4A3B0
  3
B1
350
4A3B1
  3
B2
350
4A3B2
  3
B3
350
4A3B3
  3
B4
350
4A3B4
  3
B5
350
4A3B5
  3
B6
350
4A3B6
  0
DICTIONARY
  5
4A3B9
102
{ACAD_REACTORS
330
C
102
}
330
C
100
AcDbDictionary
281
     1
  3
Metric50
350
4A3BA
  0
DICTIONARY
  5
A1
102
{ACAD_REACTORS
330
C
102
}
330
C
100
AcDbDictionary
281
     1
  3
Standard
350
A2
  0
DICTIONARY
  5
4A38C
102
{ACAD_REACTORS
330
C
102
}
330
C
100
AcDbDictionary
281
     1
  3
2dWireframe
350
4A392
  3
Basic
350
4A391
  3
Brighten
350
4A398
  3
ColorChange
350
4A39C
  3
Conceptual
350
4A395
  3
Dim
350
4A397
  3
EdgeColorOff
350
4A3A4
  3
Facepattern
350
4A39B
  3
Flat
350
4A38D
  3
FlatWithEdges
350
4A38E
  3
Gouraud
350
4A38F
  3
GouraudWithEdges
350
4A390
  3
Hidden
350
4A394
  3
JitterOff
350
4A3A2
  3
Linepattern
350
4A39A
  3
OverhangOff
350
4A3A3
  3
Realistic
350
4A396
  3
Shaded
350
4A3A1
  3
Shaded with edges
350
4A3A0
  3
Shades of Gray
350
4A39D
  3
Sketchy
350
4A39E
  3
Thicken
350
4A399
  3
Wireframe
350
4A393
  3
X-Ray
350
4A39F
  0
XRECORD
  5
907A1
102
{ACAD_REACTORS
330
C
102
}
330
C
100
AcDbXrecord
280
     1
 90
        1
330
A2
  0
DICTIONARY
  5
9649D
102
{ACAD_REACTORS
330
C
102
}
330
C
100
AcDbDictionary
281
     1
  3
COLORDICT
350
9649E
  3
MATERIALDICT
350
9649F
  0
DICTIONARY
  5
5E
102
{ACAD_REACTORS
330
C
102
}
330
C
100
AcDbDictionary
281
     1
  3
CANNOSCALE
350
9649C
  3
CMLEADERSTYLE
350
4A6CE
  3
CTABLESTYLE
350
B8
  3
CVIEWDETAILSTYLE
350
4A6CF
  3
CVIEWSECTIONSTYLE
350
4A6D0
  3
DIMASSOC
350
5F
  3
HIDETEXT
350
63
  3
INDEXCTL
350
4A879
  3
LAYEREVAL
350
4A6D4
  3
LAYERNOTIFY
350
4A6D5
  3
LIGHTINGUNITS
350
4A6D3
  3
MSLTSCALE
350
4A6D1
  3
PROJECTNAME
350
31CE
  3
SORTENTS
350
4A878
  3
XCLIPFRAME
350
87AF9
  0
DICTIONARY
  5
349E9
102
{ACAD_REACTORS
330
C
102
}
330
C
100
AcDbDictionary
281
     1
  3
ASEBlockHierarchyIndexRecord
350
349EA
1001
DCO15
1040
1842496176.844
  0
XRECORD
  5
964A3
102
{ACAD_REACTORS
330
C
102
}
330
C
100
AcDbXrecord
280
     1
  1
DWGPROPS COOKIE
  2

  3

  4

  6

  7

  8
zhangnw
  9

300
=
301
=
302
=
303
=
304
=
305
=
306
=
307
=
308
=
309
=
 40
0.0
 41
2455489.391063368
 42
2458948.446673588
  1

 90
        0
  0
XRECORD
  5
964A9
102
{ACAD_REACTORS
330
8C34E
102
}
330
8C34E
100
AcDbXrecord
280
     1
102
VTR_0.000_0.000_1.000_1.000_VISUALSTYLE
340
4A392
102
VTR_0.000_0.000_1.000_1.000_GRIDDISPLAY
 70
     3
102
VTR_0.000_0.000_1.000_1.000_GRIDMAJOR
 70
     5
102
VTR_0.000_0.000_1.000_1.000_DEFAULTLIGHTING
280
     1
102
VTR_0.000_0.000_1.000_1.000_DEFAULTLIGHTINGTYPE
 70
     1
102
VTR_0.000_0.000_1.000_1.000_BRIGHTNESS
141
0.0
102
VTR_0.000_0.000_1.000_1.000_CONTRAST
142
0.0
  0
DICTIONARY
  5
4A339
102
{ACAD_REACTORS
330
E2
102
}
330
E2
100
AcDbDictionary
281
     1
  0
DICTIONARY
  5
3759A
102
{ACAD_REACTORS
330
E2
102
}
330
E2
100
AcDbDictionary
281
     1
  0
DICTIONARY
  5
4A338
102
{ACAD_REACTORS
330
E2
102
}
330
E2
100
AcDbDictionary
281
     1
1001
ACAD
1000
<All
  0
XRECORD
  5
4A86D
102
{ACAD_REACTORS
330
4A86C
102
}
330
4A86C
100
AcDbXrecord
280
     1
290
     1
  0
XRECORD
  5
4A86E
102
{ACAD_REACTORS
330
4A773
102
}
330
4A773
100
AcDbXrecord
280
     1
290
     1
  0
XRECORD
  5
4A86F
102
{ACAD_REACTORS
330
4A775
102
}
330
4A775
100
AcDbXrecord
280
     1
290
     1
  0
XRECORD
  5
4A870
102
{ACAD_REACTORS
330
4A777
102
}
330
4A777
100
AcDbXrecord
280
     1
290
     1
  0
XRECORD
  5
4A871
102
{ACAD_REACTORS
330
4A779
102
}
330
4A779
100
AcDbXrecord
280
     1
290
     1
  0
XRECORD
  5
4A872
102
{ACAD_REACTORS
330
4A77B
102
}
330
4A77B
100
AcDbXrecord
280
     1
290
     1
  0
XRECORD
  5
4A874
102
{ACAD_REACTORS
330
4A77F
102
}
330
4A77F
100
AcDbXrecord
280
     1
290
     1
  0
XRECORD
  5
4A876
102
{ACAD_REACTORS
330
4A783
102
}
330
4A783
100
AcDbXrecord
280
     1
290
     1
  0
XRECORD
  5
964A8
102
{ACAD_REACTORS
330
8C34C
102
}
330
8C34C
100
AcDbXrecord
280
     1
102
MATERIAL
340
4A384
  0
SORTENTSTABLE
  5
31EF
102
{ACAD_REACTORS
330
31EE
102
}
330
31EE
100
AcDbSortentsTable
330
1F
  0
SORTENTSTABLE
  5
4A6D8
102
{ACAD_REACTORS
330
4A6D7
102
}
330
4A6D7
100
AcDbSortentsTable
330
4A6D6
  0
XRECORD
  5
964A6
102
{ACAD_REACTORS
330
87B05
102
}
330
87B05
100
AcDbXrecord
280
     1
102
GRIDDISPLAY
 70
     0
102
GRIDMAJOR
 70
     5
102
DEFAULTLIGHTING
280
     1
102
DEFAULTLIGHTINGTYPE
 70
     1
102
BRIGHTNESS
141
0.0
102
CONTRAST
142
0.0
  0
XRECORD
  5
964A7
102
{ACAD_REACTORS
330
87B07
102
}
330
87B07
100
AcDbXrecord
280
     1
102
GRIDDISPLAY
 70
     0
102
GRIDMAJOR
 70
     5
102
DEFAULTLIGHTING
280
     1
102
DEFAULTLIGHTINGTYPE
 70
     1
102
BRIGHTNESS
141
0.0
102
CONTRAST
142
0.0
  0
DIMASSOC
  5
9617A
102
{ACAD_REACTORS
330
96179
102
}
330
96179
100
AcDbDimAssoc
330
96178
 90
        1
 70
     0
 71
     0
  1
AcDbOsnapPointRef
 72
     1
331
960D4
 73
     2
 91
        0
 40
3.141592653589792
 10
0.0
 20
0.0
 30
1.999999999999998E+50
 75
     0
  0
DIMASSOC
  5
96180
102
{ACAD_REACTORS
330
9617F
102
}
330
9617F
100
AcDbDimAssoc
330
9617E
 90
        3
 70
     0
 71
     0
  1
AcDbOsnapPointRef
 72
    13
331
96147
 73
     2
 91
        0
 40
0.0
 10
0.0
 20
0.0
 30
1.999999999999998E+50
 75
     0
  1
AcDbOsnapPointRef
 72
    13
331
96156
 73
     2
 91
        0
 40
0.0
 10
0.0
 20
0.0
 30
1.999999999999998E+50
 75
     0
  0
DIMASSOC
  5
96183
102
{ACAD_REACTORS
330
96182
102
}
330
96182
100
AcDbDimAssoc
330
96181
 90
        3
 70
     0
 71
     0
  1
AcDbOsnapPointRef
 72
    13
331
960D4
 73
     2
 91
        0
 40
1.570796326794896
 10
0.0
 20
0.0
 30
1.999999999999998E+50
 75
     0
  1
AcDbOsnapPointRef
 72
     1
331
960CC
 73
     2
 91
        0
 40
4.712388980384688
 10
0.0
 20
0.0
 30
1.999999999999998E+50
 75
     0
  0
DIMASSOC
  5
96186
102
{ACAD_REACTORS
330
96185
102
}
330
96185
100
AcDbDimAssoc
330
96184
 90
        3
 70
     0
 71
     0
  1
AcDbOsnapPointRef
 72
    13
331
960CC
 73
     2
 91
        0
 40
3.141592653589792
 10
0.0
 20
0.0
 30
1.999999999999998E+50
 75
     0
  1
AcDbOsnapPointRef
 72
    13
331
96174
 73
     2
 91
        0
 40
3.141592653589792
 10
0.0
 20
0.0
 30
1.999999999999998E+50
 75
     0
  0
XRECORD
  5
964A4
102
{ACAD_REACTORS
330
87B09
102
}
330
87B09
100
AcDbXrecord
280
     1
102
GRIDDISPLAY
 70
     0
102
GRIDMAJOR
 70
     5
102
DEFAULTLIGHTING
280
     1
102
DEFAULTLIGHTINGTYPE
 70
     1
102
BRIGHTNESS
141
0.0
102
CONTRAST
142
0.0
  0
XRECORD
  5
964A5
102
{ACAD_REACTORS
330
87B0B
102
}
330
87B0B
100
AcDbXrecord
280
     1
102
GRIDDISPLAY
 70
     0
102
GRIDMAJOR
 70
     5
102
DEFAULTLIGHTING
280
     1
102
DEFAULTLIGHTINGTYPE
 70
     1
102
BRIGHTNESS
141
0.0
102
CONTRAST
142
0.0
  0
XRECORD
  5
964A1
102
{ACAD_REACTORS
330
964A0
102
}
330
964A0
100
AcDbXrecord
280
     1
 70
     1
  0
XRECORD
  5
964A2
102
{ACAD_REACTORS
330
964A0
102
}
330
964A0
100
AcDbXrecord
280
     1
1004
1800000001000000000000C1000000000000000000000000
  0
ACDBDETAILVIEWSTYLE
  5
4A3BC
102
{ACAD_XDICTIONARY
360
87B40
102
}
102
{ACAD_REACTORS
330
4A3BB
102
}
330
4A3BB
100
AcDbModelDocViewStyle
 70
     0
  3
Metric50
290
     0
100
AcDbDetailViewStyle
 70
     0
 71
     0
 90
        3
 71
     1
340
11
 40
5.0
340
0
 40
5.0
300

 40
0.0
280
     1
 71
     2
340
16
 90
       25
 71
     3
340
11
 40
5.0
 90
        0
 40
15.0
 90
        1
300
%<\AcVar ViewDetailId>% (%<\AcVar ViewScale \f "%sn">%)
 71
     4
340
16
 90
       25
340
16
 90
       25
280
     0
  0
LAYOUT
  5
22
102
{ACAD_REACTORS
330
1A
102
}
330
1A
100
AcDbPlotSettings
  1

  2
none_device
  4
ANSI_A_(8.50_x_11.00_Inches)
  6

 40
6.349999904632567
 41
19.04999923706055
 42
6.350006103515625
 43
19.04998779296875
 44
215.8999938964844
 45
279.3999938964844
 46
0.0
 47
0.0
 48
0.0
 49
0.0
140
0.0
141
0.0
142
1.0
143
78.436453180766
 70
 11952
 72
     0
 73
     1
 74
     0
  7

 75
     0
147
0.0127491741332998
148
0.0
149
0.0
100
AcDbLayout
  1
Model
 70
     1
 71
     0
 10
0.0
 20
0.0
 11
12.0
 21
9.0
 12
0.0
 22
0.0
 32
0.0
 14
0.0
 24
0.0
 34
0.0
 15
0.0
 25
0.0
 35
0.0
146
0.0
 13
0.0
 23
0.0
 33
0.0
 16
1.0
 26
0.0
 36
0.0
 17
0.0
 27
1.0
 37
0.0
 76
     0
330
1F
331
4A360
  0
LAYOUT
  5
51
102
{ACAD_REACTORS
330
1A
102
}
330
1A
100
AcDbPlotSettings
  1

  2
none_device
  4
Letter_(8.50_x_11.00_Inches)
  6

 40
6.349999904632567
 41
6.349999904632567
 42
6.350006103515625
 43
6.350006103515625
 44
215.8999938964844
 45
279.3999938964844
 46
0.0
 47
0.0
 48
0.0
 49
0.0
140
0.0
141
0.0
142
1.0
143
1.0
 70
   688
 72
     1
 73
     1
 74
     5
  7

 75
    16
147
1.0
148
0.0
149
0.0
100
AcDbLayout
  1
レイアウト1
 70
     1
 71
     1
 10
-6.350006103515625
 20
-6.349999904632567
 11
273.0499877929688
 21
209.5499939918518
 12
0.0
 22
0.0
 32
0.0
 14
26.66999878883364
 24
20.31999878883365
 34
0.0
 15
240.0299890995025
 25
182.8799890995025
 35
0.0
146
0.0
 13
0.0
 23
0.0
 33
0.0
 16
1.0
 26
0.0
 36
0.0
 17
0.0
 27
1.0
 37
0.0
 76
     0
330
50
331
6B
  0
LAYOUT
  5
56
102
{ACAD_REACTORS
330
1A
102
}
330
1A
100
AcDbPlotSettings
  1

  2
none_device
  4
Letter_(8.50_x_11.00_Inches)
  6

 40
6.349999904632567
 41
6.349999904632567
 42
6.350006103515625
 43
6.350006103515625
 44
215.8999938964844
 45
279.3999938964844
 46
0.0
 47
0.0
 48
0.0
 49
0.0
140
0.0
141
0.0
142
1.0
143
1.0
 70
   688
 72
     1
 73
     1
 74
     5
  7

 75
    16
147
1.0
148
0.0
149
0.0
100
AcDbLayout
  1
レイアウト2
 70
     1
 71
     2
 10
-6.350006103515625
 20
-6.349999904632567
 11
273.0499877929688
 21
209.5499939918518
 12
0.0
 22
0.0
 32
0.0
 14
26.66999878883364
 24
20.31999878883365
 34
0.0
 15
240.0299890995025
 25
182.8799890995025
 35
0.0
146
0.0
 13
0.0
 23
0.0
 33
0.0
 16
1.0
 26
0.0
 36
0.0
 17
0.0
 27
1.0
 37
0.0
 76
     0
330
55
331
71
  0
MATERIAL
  5
4A37C
102
{ACAD_XDICTIONARY
360
4A37D
102
}
102
{ACAD_REACTORS
330
84
102
}
330
84
100
AcDbMaterial
  1
ByBlock
 72
     0
 73
     2
 43
0.0008202099737533
 43
0.0
 43
0.0
 43
0.0
 43
0.0
 43
0.0008202099737533
 43
0.0
 43
0.0
 43
0.0
 43
0.0
 43
1.0
 43
0.0
 43
0.0
 43
0.0
 43
0.0
 43
1.0
 77
     0
 78
     2
 47
0.0008202099737533
 47
0.0
 47
0.0
 47
0.0
 47
0.0
 47
0.0008202099737533
 47
0.0
 47
0.0
 47
0.0
 47
0.0
 47
1.0
 47
0.0
 47
0.0
 47
0.0
 47
0.0
 47
1.0
171
     0
172
     2
 49
0.0008202099737533
 49
0.0
 49
0.0
 49
0.0
 49
0.0
 49
0.0008202099737533
 49
0.0
 49
0.0
 49
0.0
 49
0.0
 49
1.0
 49
0.0
 49
0.0
 49
0.0
 49
0.0
 49
1.0
175
     0
176
     2
142
0.0008202099737533
142
0.0
142
0.0
142
0.0
142
0.0
142
0.0008202099737533
142
0.0
142
0.0
142
0.0
142
0.0
142
1.0
142
0.0
142
0.0
142
0.0
142
0.0
142
1.0
179
     0
270
     2
144
0.0008202099737533
144
0.0
144
0.0
144
0.0
144
0.0
144
0.0008202099737533
144
0.0
144
0.0
144
0.0
144
0.0
144
1.0
144
0.0
144
0.0
144
0.0
144
0.0
144
1.0
274
     2
147
0.0008202099737533
147
0.0
147
0.0
147
0.0
147
0.0
147
0.0008202099737533
147
0.0
147
0.0
147
0.0
147
0.0
147
1.0
147
0.0
147
0.0
147
0.0
147
0.0
147
1.0
  0
MATERIAL
  5
4A374
102
{ACAD_XDICTIONARY
360
4A375
102
}
102
{ACAD_REACTORS
330
84
102
}
330
84
100
AcDbMaterial
  1
ByLayer
 72
     0
 73
     2
 43
0.0008202099737533
 43
0.0
 43
0.0
 43
0.0
 43
0.0
 43
0.0008202099737533
 43
0.0
 43
0.0
 43
0.0
 43
0.0
 43
1.0
 43
0.0
 43
0.0
 43
0.0
 43
0.0
 43
1.0
 77
     0
 78
     2
 47
0.0008202099737533
 47
0.0
 47
0.0
 47
0.0
 47
0.0
 47
0.0008202099737533
 47
0.0
 47
0.0
 47
0.0
 47
0.0
 47
1.0
 47
0.0
 47
0.0
 47
0.0
 47
0.0
 47
1.0
171
     0
172
     2
 49
0.0008202099737533
 49
0.0
 49
0.0
 49
0.0
 49
0.0
 49
0.0008202099737533
 49
0.0
 49
0.0
 49
0.0
 49
0.0
 49
1.0
 49
0.0
 49
0.0
 49
0.0
 49
0.0
 49
1.0
175
     0
176
     2
142
0.0008202099737533
142
0.0
142
0.0
142
0.0
142
0.0
142
0.0008202099737533
142
0.0
142
0.0
142
0.0
142
0.0
142
1.0
142
0.0
142
0.0
142
0.0
142
0.0
142
1.0
179
     0
270
     2
144
0.0008202099737533
144
0.0
144
0.0
144
0.0
144
0.0
144
0.0008202099737533
144
0.0
144
0.0
144
0.0
144
0.0
144
1.0
144
0.0
144
0.0
144
0.0
144
0.0
144
1.0
274
     2
147
0.0008202099737533
147
0.0
147
0.0
147
0.0
147
0.0
147
0.0008202099737533
147
0.0
147
0.0
147
0.0
147
0.0
147
1.0
147
0.0
147
0.0
147
0.0
147
0.0
147
1.0
  0
MATERIAL
  5
4A384
102
{ACAD_XDICTIONARY
360
4A385
102
}
102
{ACAD_REACTORS
330
84
102
}
330
84
100
AcDbMaterial
  1
Global
 72
     0
 73
     2
 43
0.0008202099737533
 43
0.0
 43
0.0
 43
0.0
 43
0.0
 43
0.0008202099737533
 43
0.0
 43
0.0
 43
0.0
 43
0.0
 43
1.0
 43
0.0
 43
0.0
 43
0.0
 43
0.0
 43
1.0
 77
     0
 78
     2
 47
0.0008202099737533
 47
0.0
 47
0.0
 47
0.0
 47
0.0
 47
0.0008202099737533
 47
0.0
 47
0.0
 47
0.0
 47
0.0
 47
1.0
 47
0.0
 47
0.0
 47
0.0
 47
0.0
 47
1.0
171
     0
172
     2
 49
0.0008202099737533
 49
0.0
 49
0.0
 49
0.0
 49
0.0
 49
0.0008202099737533
 49
0.0
 49
0.0
 49
0.0
 49
0.0
 49
1.0
 49
0.0
 49
0.0
 49
0.0
 49
0.0
 49
1.0
175
     0
176
     2
142
0.0008202099737533
142
0.0
142
0.0
142
0.0
142
0.0
142
0.0008202099737533
142
0.0
142
0.0
142
0.0
142
0.0
142
1.0
142
0.0
142
0.0
142
0.0
142
0.0
142
1.0
179
     0
270
     2
144
0.0008202099737533
144
0.0
144
0.0
144
0.0
144
0.0
144
0.0008202099737533
144
0.0
144
0.0
144
0.0
144
0.0
144
1.0
144
0.0
144
0.0
144
0.0
144
0.0
144
1.0
274
     2
147
0.0008202099737533
147
0.0
147
0.0
147
0.0
147
0.0
147
0.0008202099737533
147
0.0
147
0.0
147
0.0
147
0.0
147
1.0
147
0.0
147
0.0
147
0.0
147
0.0
147
1.0
  0
MLEADERSTYLE
  5
4A3B8
102
{ACAD_XDICTIONARY
360
8C353
102
}
102
{ACAD_REACTORS
330
4A3B7
102
}
330
4A3B7
100
AcDbMLeaderStyle
170
     2
171
     1
172
     0
 90
        2
 40
0.0
 41
0.0
173
     1
 91
-1056964608
340
14
 92
       -2
290
     1
 42
2.0
291
     1
 43
0.36
  3
Standard
 44
4.0
300

342
11
174
     1
178
     6
175
     1
176
     0
 93
-1056964608
 45
4.0
292
     0
297
     0
 46
4.0
 94
-1056964608
 47
1.0
 49
1.0
140
1.0
293
     1
141
0.0
294
     1
177
     0
142
1.0
295
     0
296
     0
143
0.125
1001
ACAD_MLEADERVER
1070
     2
  0
MLINESTYLE
  5
18
102
{ACAD_REACTORS
330
17
102
}
330
17
100
AcDbMlineStyle
  2
STANDARD
 70
     0
  3

 62
   256
 51
90.0
 52
90.0
 71
     2
 49
0.5
 62
   256
  6
BYLAYER
 49
-0.5
 62
   256
  6
BYLAYER
  0
ACDBPLACEHOLDER
  5
F
102
{ACAD_REACTORS
330
E
102
}
330
E
  0
SCALE
  5
4A3A6
102
{ACAD_REACTORS
330
4A3A5
102
}
330
4A3A5
100
AcDbScale
 70
     0
300
1:1
140
1.0
141
1.0
290
     1
  0
SCALE
  5
4A3A7
102
{ACAD_REACTORS
330
4A3A5
102
}
330
4A3A5
100
AcDbScale
 70
     0
300
1:2
140
1.0
141
2.0
290
     0
  0
SCALE
  5
4A3A8
102
{ACAD_REACTORS
330
4A3A5
102
}
330
4A3A5
100
AcDbScale
 70
     0
300
1:4
140
1.0
141
4.0
290
     0
  0
SCALE
  5
4A3A9
102
{ACAD_REACTORS
330
4A3A5
102
}
330
4A3A5
100
AcDbScale
 70
     0
300
1:5
140
1.0
141
5.0
290
     0
  0
SCALE
  5
4A3AA
102
{ACAD_REACTORS
330
4A3A5
102
}
330
4A3A5
100
AcDbScale
 70
     0
300
1:8
140
1.0
141
8.0
290
     0
  0
SCALE
  5
4A3AB
102
{ACAD_REACTORS
330
4A3A5
102
}
330
4A3A5
100
AcDbScale
 70
     0
300
1:10
140
1.0
141
10.0
290
     0
  0
SCALE
  5
4A3AC
102
{ACAD_REACTORS
330
4A3A5
102
}
330
4A3A5
100
AcDbScale
 70
     0
300
1:16
140
1.0
141
16.0
290
     0
  0
SCALE
  5
4A3AD
102
{ACAD_REACTORS
330
4A3A5
102
}
330
4A3A5
100
AcDbScale
 70
     0
300
1:20
140
1.0
141
20.0
290
     0
  0
SCALE
  5
4A3AE
102
{ACAD_REACTORS
330
4A3A5
102
}
330
4A3A5
100
AcDbScale
 70
     0
300
1:30
140
1.0
141
30.0
290
     0
  0
SCALE
  5
4A3AF
102
{ACAD_REACTORS
330
4A3A5
102
}
330
4A3A5
100
AcDbScale
 70
     0
300
1:40
140
1.0
141
40.0
290
     0
  0
SCALE
  5
4A3B0
102
{ACAD_REACTORS
330
4A3A5
102
}
330
4A3A5
100
AcDbScale
 70
     0
300
1:50
140
1.0
141
50.0
290
     0
  0
SCALE
  5
4A3B1
102
{ACAD_REACTORS
330
4A3A5
102
}
330
4A3A5
100
AcDbScale
 70
     0
300
1:100
140
1.0
141
100.0
290
     0
  0
SCALE
  5
4A3B2
102
{ACAD_REACTORS
330
4A3A5
102
}
330
4A3A5
100
AcDbScale
 70
     0
300
2:1
140
2.0
141
1.0
290
     0
  0
SCALE
  5
4A3B3
102
{ACAD_REACTORS
330
4A3A5
102
}
330
4A3A5
100
AcDbScale
 70
     0
300
4:1
140
4.0
141
1.0
290
     0
  0
SCALE
  5
4A3B4
102
{ACAD_REACTORS
330
4A3A5
102
}
330
4A3A5
100
AcDbScale
 70
     0
300
8:1
140
8.0
141
1.0
290
     0
  0
SCALE
  5
4A3B5
102
{ACAD_REACTORS
330
4A3A5
102
}
330
4A3A5
100
AcDbScale
 70
     0
300
10:1
140
10.0
141
1.0
290
     0
  0
SCALE
  5
4A3B6
102
{ACAD_REACTORS
330
4A3A5
102
}
330
4A3A5
100
AcDbScale
 70
     0
300
100:1
140
100.0
141
1.0
290
     0
  0
ACDBSECTIONVIEWSTYLE
  5
4A3BA
102
{ACAD_XDICTIONARY
360
87B3E
102
}
102
{ACAD_REACTORS
330
4A3B9
102
}
330
4A3B9
100
AcDbModelDocViewStyle
 70
     0
  3
Metric50
290
     0
100
AcDbSectionViewStyle
 70
     0
 71
     0
 90
      102
 71
     1
340
11
 40
5.0
340
0
340
0
 40
5.0
300
I, O, Q, S, X, Z
 40
10.0
 90
        0
 40
2.5
 90
        0
 71
     2
340
16
 90
       25
340
16
 90
       50
 40
5.0
 40
2.5
 40
5.0
 71
     3
340
11
 40
5.0
 90
        0
 40
15.0
 90
        1
300
%<\AcVar ViewSectionStartId>%-%<\AcVar ViewSectionEndId>% (%<\AcVar ViewScale \f "%sn">%)
 71
     4
300
ANSI31
 40
1.0
 90
        0
290
     0
290
     0
 90
        6
 40
0.0
 40
1.570796326794896
 40
0.2617993877991494
 40
1.308996938995747
 40
-0.2617993877991494
 40
1.832595714594044
  0
TABLESTYLE
  5
A2
102
{ACAD_XDICTIONARY
360
4CD9A
102
}
102
{ACAD_REACTORS
330
A1
102
}
330
A1
100
AcDbTableStyle
  3
Standard
 70
     0
 71
     0
 40
1.5
 41
1.5
280
     0
281
     0
  7
Standard
140
4.5
170
     2
 62
     0
 63
   257
283
     0
274
    -2
284
     1
 64
     0
275
    -2
285
     1
 65
     0
276
    -2
286
     1
 66
     0
277
    -2
287
     1
 67
     0
278
    -2
288
     1
 68
     0
279
    -2
289
     1
 69
     0
  7
Standard
140
6.0
170
     5
 62
     0
 63
   257
283
     0
274
    -2
284
     1
 64
     0
275
    -2
285
     1
 65
     0
276
    -2
286
     1
 66
     0
277
    -2
287
     1
 67
     0
278
    -2
288
     1
 68
     0
279
    -2
289
     1
 69
     0
  7
Standard
140
4.5
170
     5
 62
     0
 63
   257
283
     0
274
    -2
284
     1
 64
     0
275
    -2
285
     1
 65
     0
276
    -2
286
     1
 66
     0
277
    -2
287
     1
 67
     0
278
    -2
288
     1
 68
     0
279
    -2
289
     1
 69
     0
  0
VISUALSTYLE
  5
4A392
102
{ACAD_XDICTIONARY
360
87B18
102
}
102
{ACAD_REACTORS
330
4A38C
102
}
330
4A38C
100
AcDbVisualStyle
  2

 70
     4
 71
     0
 72
     2
 73
     0
 90
        0
 40
-0.6
 41
-30.0
 62
     5
 63
     7
 74
     1
 91
        4
 64
     7
 65
   257
 75
     1
175
     1
 42
1.0
 92
        0
 66
   257
 43
1.0
 76
     1
 77
     6
 78
     2
 67
     7
 79
     5
170
     0
171
     0
290
     0
174
     0
 93
        1
 44
0.0
173
     0
291
     0
 45
0.0
1001
ACAD
1000
AcDbSavedByObjectVersion
1070
     0
  0
VISUALSTYLE
  5
4A391
102
{ACAD_XDICTIONARY
360
87B16
102
}
102
{ACAD_REACTORS
330
4A38C
102
}
330
4A38C
100
AcDbVisualStyle
  2

 70
     7
 71
     1
 72
     0
 73
     1
 90
        0
 40
-0.6
 41
-30.0
 62
     5
 63
     7
 74
     0
 91
        4
 64
     7
 65
   257
 75
     1
175
     1
 42
1.0
 92
        8
 66
     7
 43
1.0
 76
     1
 77
     6
 78
     2
 67
     7
 79
     5
170
     0
171
     0
290
     0
174
     0
 93
        1
 44
0.0
173
     0
291
     1
 45
0.0
1001
ACAD
1000
AcDbSavedByObjectVersion
1070
     0
  0
VISUALSTYLE
  5
4A398
102
{ACAD_XDICTIONARY
360
87B24
102
}
102
{ACAD_REACTORS
330
4A38C
102
}
330
4A38C
100
AcDbVisualStyle
  2

 70
    12
 71
     2
 72
     2
 73
     0
 90
        0
 40
-0.6
 41
-30.0
 62
     5
 63
     7
 74
     1
 91
        4
 64
     7
 65
   257
 75
     1
175
     1
 42
1.0
 92
        8
 66
     7
 43
1.0
 76
     1
 77
     6
 78
     2
 67
     7
 79
     5
170
     0
171
     0
290
     0
174
     0
 93
        1
 44
50.0
173
     0
291
     1
 45
0.0
1001
ACAD
1000
AcDbSavedByObjectVersion
1070
     0
  0
VISUALSTYLE
  5
4A39C
102
{ACAD_XDICTIONARY
360
87B2C
102
}
102
{ACAD_REACTORS
330
4A38C
102
}
330
4A38C
100
AcDbVisualStyle
  2

 70
    16
 71
     2
 72
     2
 73
     3
 90
        0
 40
-0.6
 41
-30.0
 62
     5
 63
     8
 74
     1
 91
        4
 64
     7
 65
   257
 75
     1
175
     1
 42
1.0
 92
        8
 66
     8
 43
1.0
 76
     1
 77
     6
 78
     2
 67
     7
 79
     5
170
     0
171
     0
290
     0
174
     0
 93
        1
 44
0.0
173
     0
291
     1
 45
0.0
1001
ACAD
1000
AcDbSavedByObjectVersion
1070
     0
  0
VISUALSTYLE
  5
4A395
102
{ACAD_XDICTIONARY
360
87B1E
102
}
102
{ACAD_REACTORS
330
4A38C
102
}
330
4A38C
100
AcDbVisualStyle
  2

 70
     9
 71
     3
 72
     2
 73
     0
 90
        0
 40
-0.6
 41
-30.0
 62
     5
 63
     7
 74
     2
 91
        2
 64
     7
 65
   257
 75
     1
175
     1
 42
179.0
 92
        8
 66
     7
 43
1.0
 76
     1
 77
     6
 78
     2
 67
     7
 79
     3
170
     0
171
     0
290
     0
174
     0
 93
        1
 44
0.0
173
     0
291
     0
 45
0.0
1001
ACAD
1000
AcDbSavedByObjectVersion
1070
     0
  0
VISUALSTYLE
  5
4A397
102
{ACAD_XDICTIONARY
360
87B22
102
}
102
{ACAD_REACTORS
330
4A38C
102
}
330
4A38C
100
AcDbVisualStyle
  2

 70
    11
 71
     2
 72
     2
 73
     0
 90
        0
 40
-0.6
 41
-30.0
 62
     5
 63
     7
 74
     1
 91
        4
 64
     7
 65
   257
 75
     1
175
     1
 42
1.0
 92
        8
 66
     7
 43
1.0
 76
     1
 77
     6
 78
     2
 67
     7
 79
     5
170
     0
171
     0
290
     0
174
     0
 93
        1
 44
-50.0
173
     0
291
     1
 45
0.0
1001
ACAD
1000
AcDbSavedByObjectVersion
1070
     0
  0
VISUALSTYLE
  5
4A3A4
102
{ACAD_XDICTIONARY
360
87B3C
102
}
102
{ACAD_REACTORS
330
4A38C
102
}
330
4A38C
100
AcDbVisualStyle
  2

 70
    22
 71
     2
 72
     2
 73
     0
 90
        0
 40
-0.6
 41
-30.0
 62
     5
 63
     7
 74
     1
 91
        4
 64
     7
 65
   257
 75
     1
175
     1
 42
1.0
 92
        8
 66
     7
 43
1.0
 76
     1
 77
     6
 78
     2
 67
     7
 79
     5
170
     0
171
     0
290
     0
174
     0
 93
        1
 44
0.0
173
     0
291
     1
 45
0.0
1001
ACAD
1000
AcDbSavedByObjectVersion
1070
     0
  0
VISUALSTYLE
  5
4A39B
102
{ACAD_XDICTIONARY
360
87B2A
102
}
102
{ACAD_REACTORS
330
4A38C
102
}
330
4A38C
100
AcDbVisualStyle
  2

 70
    15
 71
     2
 72
     2
 73
     0
 90
        0
 40
-0.6
 41
-30.0
 62
     5
 63
     7
 74
     1
 91
        4
 64
     7
 65
   257
 75
     1
175
     1
 42
1.0
 92
        8
 66
     7
 43
1.0
 76
     1
 77
     6
 78
     2
 67
     7
 79
     5
170
     0
171
     0
290
     0
174
     0
 93
        1
 44
0.0
173
     0
291
     1
 45
0.0
1001
ACAD
1000
AcDbSavedByObjectVersion
1070
     0
  0
VISUALSTYLE
  5
4A38D
102
{ACAD_XDICTIONARY
360
87B0E
102
}
102
{ACAD_REACTORS
330
4A38C
102
}
330
4A38C
100
AcDbVisualStyle
  2

 70
     0
 71
     2
 72
     1
 73
     1
 90
        2
 40
-0.6
 41
30.0
 62
     5
 63
     7
 74
     0
 91
        0
 64
     7
 65
   257
 75
     1
175
     1
 42
1.0
 92
        8
 66
     7
 43
1.0
 76
     1
 77
     6
 78
     2
 67
     7
 79
     5
170
     0
171
     0
290
     0
174
     0
 93
       13
 44
0.0
173
     0
291
     1
 45
0.0
1001
ACAD
1000
AcDbSavedByObjectVersion
1070
     0
  0
VISUALSTYLE
  5
4A38E
102
{ACAD_XDICTIONARY
360
87B10
102
}
102
{ACAD_REACTORS
330
4A38C
102
}
330
4A38C
100
AcDbVisualStyle
  2

 70
     1
 71
     2
 72
     1
 73
     1
 90
        2
 40
-0.6
 41
30.0
 62
     5
 63
     7
 74
     1
 91
        0
 64
     7
 65
   257
 75
     1
175
     1
 42
1.0
 92
        0
 66
   257
 43
1.0
 76
     1
 77
     6
 78
     2
 67
     7
 79
     5
170
     0
171
     0
290
     0
174
     0
 93
       13
 44
0.0
173
     0
291
     1
 45
0.0
1001
ACAD
1000
AcDbSavedByObjectVersion
1070
     0
  0
VISUALSTYLE
  5
4A38F
102
{ACAD_XDICTIONARY
360
87B12
102
}
102
{ACAD_REACTORS
330
4A38C
102
}
330
4A38C
100
AcDbVisualStyle
  2

 70
     2
 71
     2
 72
     2
 73
     1
 90
        2
 40
-0.6
 41
30.0
 62
     5
 63
     7
 74
     0
 91
        0
 64
     7
 65
   257
 75
     1
175
     1
 42
1.0
 92
        0
 66
     7
 43
1.0
 76
     1
 77
     6
 78
     2
 67
     7
 79
     5
170
     0
171
     0
290
     0
174
     0
 93
       13
 44
0.0
173
     0
291
     1
 45
0.0
1001
ACAD
1000
AcDbSavedByObjectVersion
1070
     0
  0
VISUALSTYLE
  5
4A390
102
{ACAD_XDICTIONARY
360
87B14
102
}
102
{ACAD_REACTORS
330
4A38C
102
}
330
4A38C
100
AcDbVisualStyle
  2

 70
     3
 71
     2
 72
     2
 73
     1
 90
        2
 40
-0.6
 41
30.0
 62
     5
 63
     7
 74
     1
 91
        0
 64
     7
 65
   257
 75
     1
175
     1
 42
1.0
 92
        0
 66
   257
 43
1.0
 76
     1
 77
     6
 78
     2
 67
     7
 79
     5
170
     0
171
     0
290
     0
174
     0
 93
       13
 44
0.0
173
     0
291
     1
 45
0.0
1001
ACAD
1000
AcDbSavedByObjectVersion
1070
     0
  0
VISUALSTYLE
  5
4A394
102
{ACAD_XDICTIONARY
360
87B1C
102
}
102
{ACAD_REACTORS
330
4A38C
102
}
330
4A38C
100
AcDbVisualStyle
  2

 70
     6
 71
     1
 72
     2
 73
     2
 90
        0
 40
-0.6
 41
-30.0
 62
     5
 63
     7
 74
     2
 91
        2
 64
     7
 65
   257
 75
     2
175
     1
 42
40.0
 92
        0
 66
   257
 43
1.0
 76
     1
 77
     6
 78
     2
 67
     7
 79
     3
170
     0
171
     0
290
     0
174
     0
 93
        1
 44
0.0
173
     0
291
     0
 45
0.0
1001
ACAD
1000
AcDbSavedByObjectVersion
1070
     0
  0
VISUALSTYLE
  5
4A3A2
102
{ACAD_XDICTIONARY
360
87B38
102
}
102
{ACAD_REACTORS
330
4A38C
102
}
330
4A38C
100
AcDbVisualStyle
  2

 70
    20
 71
     2
 72
     2
 73
     0
 90
        0
 40
-0.6
 41
-30.0
 62
     5
 63
     7
 74
     1
 91
        4
 64
     7
 65
   257
 75
     1
175
     1
 42
1.0
 92
       10
 66
     7
 43
1.0
 76
     1
 77
     6
 78
     2
 67
     7
 79
     5
170
     0
171
     0
290
     0
174
     0
 93
        1
 44
0.0
173
     0
291
     1
 45
0.0
1001
ACAD
1000
AcDbSavedByObjectVersion
1070
     0
  0
VISUALSTYLE
  5
4A39A
102
{ACAD_XDICTIONARY
360
87B28
102
}
102
{ACAD_REACTORS
330
4A38C
102
}
330
4A38C
100
AcDbVisualStyle
  2

 70
    14
 71
     2
 72
     2
 73
     0
 90
        0
 40
-0.6
 41
-30.0
 62
     5
 63
     7
 74
     1
 91
        4
 64
     7
 65
   257
 75
     7
175
     7
 42
1.0
 92
        8
 66
     7
 43
1.0
 76
     1
 77
     6
 78
     2
 67
     7
 79
     5
170
     0
171
     0
290
     0
174
     0
 93
        1
 44
0.0
173
     0
291
     1
 45
0.0
1001
ACAD
1000
AcDbSavedByObjectVersion
1070
     0
  0
VISUALSTYLE
  5
4A3A3
102
{ACAD_XDICTIONARY
360
87B3A
102
}
102
{ACAD_REACTORS
330
4A38C
102
}
330
4A38C
100
AcDbVisualStyle
  2

 70
    21
 71
     2
 72
     2
 73
     0
 90
        0
 40
-0.6
 41
-30.0
 62
     5
 63
     7
 74
     1
 91
        4
 64
     7
 65
   257
 75
     1
175
     1
 42
1.0
 92
        9
 66
     7
 43
1.0
 76
     1
 77
     6
 78
     2
 67
     7
 79
     5
170
     0
171
     0
290
     0
174
     0
 93
        1
 44
0.0
173
     0
291
     1
 45
0.0
1001
ACAD
1000
AcDbSavedByObjectVersion
1070
     0
  0
VISUALSTYLE
  5
4A396
102
{ACAD_XDICTIONARY
360
87B20
102
}
102
{ACAD_REACTORS
330
4A38C
102
}
330
4A38C
100
AcDbVisualStyle
  2

 70
     8
 71
     2
 72
     3
 73
     0
 90
        2
 40
-0.6
 41
30.0
 62
     5
 63
     7
 74
     0
 91
        0
 64
     7
 65
   257
 75
     1
175
     1
 42
1.0
 92
        8
 66
   257
 43
1.0
 76
     1
 77
     6
 78
     2
 67
     7
 79
     3
170
     0
171
     0
290
     0
174
     0
 93
       13
 44
0.0
173
     0
291
     0
 45
0.0
1001
ACAD
1000
AcDbSavedByObjectVersion
1070
     0
  0
VISUALSTYLE
  5
4A3A1
102
{ACAD_XDICTIONARY
360
87B36
102
}
102
{ACAD_REACTORS
330
4A38C
102
}
330
4A38C
100
AcDbVisualStyle
  2

 70
    27
 71
     2
 72
     2
 73
     1
 90
        2
 40
-0.6
 41
30.0
 62
     5
 63
     7
 74
     0
 91
        4
 64
     7
 65
   257
 75
     1
175
     1
 42
1.0
 92
        8
 66
   257
 43
1.0
 76
     1
 77
     6
 78
     2
 67
     8
 79
     3
170
     0
171
     0
290
     0
174
     0
 93
        5
 44
0.0
173
     0
291
     0
 45
0.0
1001
ACAD
1000
AcDbSavedByObjectVersion
1070
     0
  0
VISUALSTYLE
  5
4A3A0
102
{ACAD_XDICTIONARY
360
87B34
102
}
102
{ACAD_REACTORS
330
4A38C
102
}
330
4A38C
100
AcDbVisualStyle
  2

 70
    26
 71
     2
 72
     2
 73
     1
 90
        2
 40
-0.6
 41
30.0
 62
     5
 63
     7
 74
     1
 91
        2
 64
     7
 65
   257
 75
     2
175
     1
 42
1.0
 92
        8
 66
   257
 43
1.0
 76
     1
 77
     6
 78
     2
 67
     7
 79
     3
170
     0
171
     0
290
     0
174
     0
 93
        5
 44
0.0
173
     0
291
     0
 45
0.0
1001
ACAD
1000
AcDbSavedByObjectVersion
1070
     0
  0
VISUALSTYLE
  5
4A39D
102
{ACAD_XDICTIONARY
360
87B2E
102
}
102
{ACAD_REACTORS
330
4A38C
102
}
330
4A38C
100
AcDbVisualStyle
  2

 70
    23
 71
     2
 72
     2
 73
     3
 90
        0
 40
-0.6
 41
-30.0
 62
     5
 63
     7
 74
     2
 91
        2
 64
     7
 65
     7
 75
     1
175
     1
 42
40.0
 92
        8
 66
     7
 43
1.0
 76
     1
 77
     6
 78
     2
 67
     7
 79
     3
170
     0
171
     0
290
     0
174
     0
 93
        1
 44
0.0
173
     0
291
     0
 45
0.0
1001
ACAD
1000
AcDbSavedByObjectVersion
1070
     0
  0
VISUALSTYLE
  5
4A39E
102
{ACAD_XDICTIONARY
360
87B30
102
}
102
{ACAD_REACTORS
330
4A38C
102
}
330
4A38C
100
AcDbVisualStyle
  2

 70
    24
 71
     1
 72
     2
 73
     2
 90
        0
 40
-0.6
 41
-30.0
 62
     5
 63
     7
 74
     2
 91
        2
 64
     7
 65
     7
 75
     1
175
     1
 42
40.0
 92
       11
 66
     7
 43
1.0
 76
     1
 77
     6
 78
     2
 67
     7
 79
     6
170
     0
171
     0
290
     0
174
     0
 93
        1
 44
0.0
173
     0
291
     0
 45
0.0
1001
ACAD
1000
AcDbSavedByObjectVersion
1070
     0
  0
VISUALSTYLE
  5
4A399
102
{ACAD_XDICTIONARY
360
87B26
102
}
102
{ACAD_REACTORS
330
4A38C
102
}
330
4A38C
100
AcDbVisualStyle
  2

 70
    13
 71
     2
 72
     2
 73
     0
 90
        0
 40
-0.6
 41
-30.0
 62
     5
 63
     7
 74
     1
 91
        4
 64
     7
 65
   257
 75
     1
175
     1
 42
1.0
 92
       12
 66
     7
 43
1.0
 76
     1
 77
     6
 78
     2
 67
     7
 79
     5
170
     0
171
     0
290
     0
174
     0
 93
        1
 44
0.0
173
     0
291
     1
 45
0.0
1001
ACAD
1000
AcDbSavedByObjectVersion
1070
     0
  0
VISUALSTYLE
  5
4A393
102
{ACAD_XDICTIONARY
360
87B1A
102
}
102
{ACAD_REACTORS
330
4A38C
102
}
330
4A38C
100
AcDbVisualStyle
  2

 70
     5
 71
     0
 72
     2
 73
     0
 90
        0
 40
-0.6
 41
-30.0
 62
     5
 63
     7
 74
     1
 91
        4
 64
     7
 65
   257
 75
     1
175
     1
 42
1.0
 92
        0
 66
   257
 43
1.0
 76
     1
 77
     6
 78
     2
 67
     7
 79
     3
170
     0
171
     0
290
     0
174
     0
 93
        1
 44
0.0
173
     0
291
     0
 45
0.0
1001
ACAD
1000
AcDbSavedByObjectVersion
1070
     0
  0
VISUALSTYLE
  5
4A39F
102
{ACAD_XDICTIONARY
360
87B32
102
}
102
{ACAD_REACTORS
330
4A38C
102
}
330
4A38C
100
AcDbVisualStyle
  2

 70
    25
 71
     2
 72
     2
 73
     1
 90
        1
 40
0.5
 41
-30.0
 62
     5
 63
     7
 74
     1
 91
        0
 64
     7
 65
   257
 75
     1
175
     1
 42
1.0
 92
        8
 66
     7
 43
1.0
 76
     1
 77
     6
 78
     2
 67
     7
 79
     3
170
     0
171
     0
290
     0
174
     0
 93
       13
 44
0.0
173
     0
291
     0
 45
0.0
1001
ACAD
1000
AcDbSavedByObjectVersion
1070
     0
  0
XRECORD
  5
9649E
102
{ACAD_REACTORS
330
9649D
102
}
330
9649D
100
AcDbXrecord
280
     1
340
85
  0
XRECORD
  5
9649F
102
{ACAD_REACTORS
330
9649D
102
}
330
9649D
100
AcDbXrecord
280
     1
340
84
  0
DICTIONARYVAR
  5
9649C
102
{ACAD_REACTORS
330
5E
102
}
330
5E
100
DictionaryVariables
280
   100
  1
1:1
  0
DICTIONARYVAR
  5
4A6CE
102
{ACAD_REACTORS
330
5E
102
}
330
5E
100
DictionaryVariables
280
     0
  1
STANDARD
  0
DICTIONARYVAR
  5
B8
102
{ACAD_REACTORS
330
5E
102
}
330
5E
100
DictionaryVariables
280
     0
  1
STANDARD
  0
DICTIONARYVAR
  5
4A6CF
102
{ACAD_REACTORS
330
5E
102
}
330
5E
100
DictionaryVariables
280
     0
  1
Metric50
  0
DICTIONARYVAR
  5
4A6D0
102
{ACAD_REACTORS
330
5E
102
}
330
5E
100
DictionaryVariables
280
     0
  1
Metric50
  0
DICTIONARYVAR
  5
5F
102
{ACAD_REACTORS
330
5E
102
}
330
5E
100
DictionaryVariables
280
     0
  1
2
  0
DICTIONARYVAR
  5
63
102
{ACAD_REACTORS
330
5E
102
}
330
5E
100
DictionaryVariables
280
     0
  1
1
  0
DICTIONARYVAR
  5
4A879
102
{ACAD_REACTORS
330
5E
102
}
330
5E
100
DictionaryVariables
280
     0
  1
0
  0
DICTIONARYVAR
  5
4A6D4
102
{ACAD_REACTORS
330
5E
102
}
330
5E
100
DictionaryVariables
280
     0
  1
1
  0
DICTIONARYVAR
  5
4A6D5
102
{ACAD_REACTORS
330
5E
102
}
330
5E
100
DictionaryVariables
280
     0
  1
15
  0
DICTIONARYVAR
  5
4A6D3
102
{ACAD_REACTORS
330
5E
102
}
330
5E
100
DictionaryVariables
280
     0
  1
0
  0
DICTIONARYVAR
  5
4A6D1
102
{ACAD_REACTORS
330
5E
102
}
330
5E
100
DictionaryVariables
280
     0
  1
0
  0
DICTIONARYVAR
  5
31CE
102
{ACAD_REACTORS
330
5E
102
}
330
5E
100
DictionaryVariables
280
     0
  1

  0
DICTIONARYVAR
  5
4A878
102
{ACAD_REACTORS
330
5E
102
}
330
5E
100
DictionaryVariables
280
     0
  1
127
  0
DICTIONARYVAR
  5
87AF9
102
{ACAD_REACTORS
330
5E
102
}
330
5E
100
DictionaryVariables
280
     0
  1
2
  0
XRECORD
  5
349EA
102
{ACAD_REACTORS
330
349E9
102
}
330
349E9
100
AcDbXrecord
280
     1
330
0
330
0
330
0
330
0
330
0
330
0
330
0
330
0
330
0
330
0
330
0
330
0
330
0
330
0
330
0
330
0
330
0
330
0
330
0
330
0
330
0
330
0
330
0
330
0
330
0
330
0
330
0
330
0
330
0
330
0
330
0
330
0
330
0
330
0
330
0
330
0
330
0
330
0
330
0
330
0
330
0
330
0
330
0
330
0
330
0
330
0
330
0
330
0
330
0
330
0
330
0
330
0
330
0
330
0
330
0
330
0
330
0
330
0
330
0
330
0
330
0
330
0
330
0
330
0
330
0
330
0
330
0
330
0
330
0
330
0
330
0
330
0
330
0
330
0
330
0
330
0
330
0
330
0
330
0
330
0
330
0
330
0
330
0
330
0
330
0
330
0
330
0
330
0
330
0
330
0
330
0
330
0
330
0
330
0
330
0
330
0
330
0
330
0
330
0
330
0
330
0
330
0
330
0
330
0
330
0
330
0
330
0
330
0
330
0
330
0
  0
DICTIONARY
  5
87B40
330
4A3BC
100
AcDbDictionary
280
     1
281
     1
  3
ACAD_XREC_ROUNDTRIP
360
87B41
  0
DICTIONARY
  5
4A37D
330
4A37C
100
AcDbDictionary
280
     1
281
     1
  3
ACAD_XREC_ROUNDTRIP
360
964AA
  0
DICTIONARY
  5
4A375
330
4A374
100
AcDbDictionary
280
     1
281
     1
  3
ACAD_XREC_ROUNDTRIP
360
964AB
  0
DICTIONARY
  5
4A385
330
4A384
100
AcDbDictionary
280
     1
281
     1
  3
ACAD_XREC_ROUNDTRIP
360
964AC
  0
DICTIONARY
  5
8C353
330
4A3B8
100
AcDbDictionary
280
     1
281
     1
  3
ACAD_XREC_ROUNDTRIP
360
964AD
  0
DICTIONARY
  5
87B3E
330
4A3BA
100
AcDbDictionary
280
     1
281
     1
  3
ACAD_XREC_ROUNDTRIP
360
87B3F
  0
DICTIONARY
  5
4CD9A
330
A2
100
AcDbDictionary
280
     1
281
     1
  3
ACAD_ROUNDTRIP_2008_TABLESTYLE_CELLSTYLEMAP
360
964AF
  3
ACAD_XREC_ROUNDTRIP
360
964AE
  0
DICTIONARY
  5
87B18
330
4A392
100
AcDbDictionary
280
     1
281
     1
  3
ACAD_XREC_ROUNDTRIP
360
964B0
  0
DICTIONARY
  5
87B16
330
4A391
100
AcDbDictionary
280
     1
281
     1
  3
ACAD_XREC_ROUNDTRIP
360
964B1
  0
DICTIONARY
  5
87B24
330
4A398
100
AcDbDictionary
280
     1
281
     1
  3
ACAD_XREC_ROUNDTRIP
360
964B2
  0
DICTIONARY
  5
87B2C
330
4A39C
100
AcDbDictionary
280
     1
281
     1
  3
ACAD_XREC_ROUNDTRIP
360
964B3
  0
DICTIONARY
  5
87B1E
330
4A395
100
AcDbDictionary
280
     1
281
     1
  3
ACAD_XREC_ROUNDTRIP
360
964B4
  0
DICTIONARY
  5
87B22
330
4A397
100
AcDbDictionary
280
     1
281
     1
  3
ACAD_XREC_ROUNDTRIP
360
964B5
  0
DICTIONARY
  5
87B3C
330
4A3A4
100
AcDbDictionary
280
     1
281
     1
  3
ACAD_XREC_ROUNDTRIP
360
964B6
  0
DICTIONARY
  5
87B2A
330
4A39B
100
AcDbDictionary
280
     1
281
     1
  3
ACAD_XREC_ROUNDTRIP
360
964B7
  0
DICTIONARY
  5
87B0E
330
4A38D
100
AcDbDictionary
280
     1
281
     1
  3
ACAD_XREC_ROUNDTRIP
360
964B8
  0
DICTIONARY
  5
87B10
330
4A38E
100
AcDbDictionary
280
     1
281
     1
  3
ACAD_XREC_ROUNDTRIP
360
964B9
  0
DICTIONARY
  5
87B12
330
4A38F
100
AcDbDictionary
280
     1
281
     1
  3
ACAD_XREC_ROUNDTRIP
360
964BA
  0
DICTIONARY
  5
87B14
330
4A390
100
AcDbDictionary
280
     1
281
     1
  3
ACAD_XREC_ROUNDTRIP
360
964BB
  0
DICTIONARY
  5
87B1C
330
4A394
100
AcDbDictionary
280
     1
281
     1
  3
ACAD_XREC_ROUNDTRIP
360
964BC
  0
DICTIONARY
  5
87B38
330
4A3A2
100
AcDbDictionary
280
     1
281
     1
  3
ACAD_XREC_ROUNDTRIP
360
964BD
  0
DICTIONARY
  5
87B28
330
4A39A
100
AcDbDictionary
280
     1
281
     1
  3
ACAD_XREC_ROUNDTRIP
360
964BE
  0
DICTIONARY
  5
87B3A
330
4A3A3
100
AcDbDictionary
280
     1
281
     1
  3
ACAD_XREC_ROUNDTRIP
360
964BF
  0
DICTIONARY
  5
87B20
330
4A396
100
AcDbDictionary
280
     1
281
     1
  3
ACAD_XREC_ROUNDTRIP
360
964C0
  0
DICTIONARY
  5
87B36
330
4A3A1
100
AcDbDictionary
280
     1
281
     1
  3
ACAD_XREC_ROUNDTRIP
360
964C1
  0
DICTIONARY
  5
87B34
330
4A3A0
100
AcDbDictionary
280
     1
281
     1
  3
ACAD_XREC_ROUNDTRIP
360
964C2
  0
DICTIONARY
  5
87B2E
330
4A39D
100
AcDbDictionary
280
     1
281
     1
  3
ACAD_XREC_ROUNDTRIP
360
964C3
  0
DICTIONARY
  5
87B30
330
4A39E
100
AcDbDictionary
280
     1
281
     1
  3
ACAD_XREC_ROUNDTRIP
360
964C4
  0
DICTIONARY
  5
87B26
330
4A399
100
AcDbDictionary
280
     1
281
     1
  3
ACAD_XREC_ROUNDTRIP
360
964C5
  0
DICTIONARY
  5
87B1A
330
4A393
100
AcDbDictionary
280
     1
281
     1
  3
ACAD_XREC_ROUNDTRIP
360
964C6
  0
DICTIONARY
  5
87B32
330
4A39F
100
AcDbDictionary
280
     1
281
     1
  3
ACAD_XREC_ROUNDTRIP
360
964C7
  0
XRECORD
  5
87B41
102
{ACAD_REACTORS
330
87B40
102
}
330
87B40
100
AcDbXrecord
280
     1
102
DISPLAYNAME
  1
Metric50
102
FLAGS
 90
        0
  0
XRECORD
  5
964AA
102
{ACAD_REACTORS
330
4A37D
102
}
330
4A37D
100
AcDbXrecord
280
     1
102
MATERIAL
148
0.0
149
0.0
149
0.0
 93
        0
 94
      127
282
     0
 72
     0
 77
     0
171
     0
175
     0
179
     0
273
     0
  0
XRECORD
  5
964AB
102
{ACAD_REACTORS
330
4A375
102
}
330
4A375
100
AcDbXrecord
280
     1
102
MATERIAL
148
0.0
149
0.0
149
0.0
 93
        0
 94
      127
282
     0
 72
     0
 77
     0
171
     0
175
     0
179
     0
273
     0
  0
XRECORD
  5
964AC
102
{ACAD_REACTORS
330
4A385
102
}
330
4A385
100
AcDbXrecord
280
     1
102
MATERIAL
148
0.0
149
0.0
149
0.0
 93
        0
 94
      127
282
     0
 72
     0
 77
     0
171
     0
175
     0
179
     0
273
     0
  0
XRECORD
  5
964AD
102
{ACAD_REACTORS
330
8C353
102
}
330
8C353
100
AcDbXrecord
280
     1
102
ACAD_ROUNDTRIP_2010_MLEADER_STYLE
  0
XRECORD
  5
87B3F
102
{ACAD_REACTORS
330
87B3E
102
}
330
87B3E
100
AcDbXrecord
280
     1
102
DISPLAYNAME
  1
Metric50
102
FLAGS
 90
        0
  0
CELLSTYLEMAP
  5
964AF
102
{ACAD_REACTORS
330
4CD9A
102
}
330
4CD9A
100
AcDbCellStyleMap
 90
        3
300
CELLSTYLE
  1
TABLEFORMAT_BEGIN
 90
        5
170
     1
 91
        0
 92
    32768
 62
   257
 93
        1
300
CONTENTFORMAT
  1
CONTENTFORMAT_BEGIN
 90
        0
 91
        0
 92
        4
 93
        0
300

 40
0.0
140
1.0
 94
        5
 62
     0
340
11
144
6.0
309
CONTENTFORMAT_END
171
     1
301
MARGIN
  1
CELLMARGIN_BEGIN
 40
1.5
 40
1.5
 40
1.5
 40
1.5
 40
0.18
 40
0.18
309
CELLMARGIN_END
 94
        6
 95
        1
302
GRIDFORMAT
  1
GRIDFORMAT_BEGIN
 90
        0
 91
        1
 62
     0
 92
       -2
340
0
 93
        0
 40
0.045
309
GRIDFORMAT_END
 95
        2
302
GRIDFORMAT
  1
GRIDFORMAT_BEGIN
 90
        0
 91
        1
 62
     0
 92
       -2
340
0
 93
        0
 40
0.045
309
GRIDFORMAT_END
 95
        4
302
GRIDFORMAT
  1
GRIDFORMAT_BEGIN
 90
        0
 91
        1
 62
     0
 92
       -2
340
0
 93
        0
 40
0.045
309
GRIDFORMAT_END
 95
        8
302
GRIDFORMAT
  1
GRIDFORMAT_BEGIN
 90
        0
 91
        1
 62
     0
 92
       -2
340
0
 93
        0
 40
0.045
309
GRIDFORMAT_END
 95
       16
302
GRIDFORMAT
  1
GRIDFORMAT_BEGIN
 90
        0
 91
        1
 62
     0
 92
       -2
340
0
 93
        0
 40
0.045
309
GRIDFORMAT_END
 95
       32
302
GRIDFORMAT
  1
GRIDFORMAT_BEGIN
 90
        0
 91
        1
 62
     0
 92
       -2
340
0
 93
        0
 40
0.045
309
GRIDFORMAT_END
309
TABLEFORMAT_END
  1
CELLSTYLE_BEGIN
 90
        1
 91
        1
300
_TITLE
309
CELLSTYLE_END
300
CELLSTYLE
  1
TABLEFORMAT_BEGIN
 90
        5
170
     1
 91
        0
 92
        0
 62
   257
 93
        1
300
CONTENTFORMAT
  1
CONTENTFORMAT_BEGIN
 90
        0
 91
        0
 92
        4
 93
        0
300

 40
0.0
140
1.0
 94
        5
 62
     0
340
11
144
4.5
309
CONTENTFORMAT_END
171
     1
301
MARGIN
  1
CELLMARGIN_BEGIN
 40
1.5
 40
1.5
 40
1.5
 40
1.5
 40
0.18
 40
0.18
309
CELLMARGIN_END
 94
        6
 95
        1
302
GRIDFORMAT
  1
GRIDFORMAT_BEGIN
 90
        0
 91
        1
 62
     0
 92
       -2
340
0
 93
        0
 40
0.045
309
GRIDFORMAT_END
 95
        2
302
GRIDFORMAT
  1
GRIDFORMAT_BEGIN
 90
        0
 91
        1
 62
     0
 92
       -2
340
0
 93
        0
 40
0.045
309
GRIDFORMAT_END
 95
        4
302
GRIDFORMAT
  1
GRIDFORMAT_BEGIN
 90
        0
 91
        1
 62
     0
 92
       -2
340
0
 93
        0
 40
0.045
309
GRIDFORMAT_END
 95
        8
302
GRIDFORMAT
  1
GRIDFORMAT_BEGIN
 90
        0
 91
        1
 62
     0
 92
       -2
340
0
 93
        0
 40
0.045
309
GRIDFORMAT_END
 95
       16
302
GRIDFORMAT
  1
GRIDFORMAT_BEGIN
 90
        0
 91
        1
 62
     0
 92
       -2
340
0
 93
        0
 40
0.045
309
GRIDFORMAT_END
 95
       32
302
GRIDFORMAT
  1
GRIDFORMAT_BEGIN
 90
        0
 91
        1
 62
     0
 92
       -2
340
0
 93
        0
 40
0.045
309
GRIDFORMAT_END
309
TABLEFORMAT_END
  1
CELLSTYLE_BEGIN
 90
        2
 91
        1
300
_HEADER
309
CELLSTYLE_END
300
CELLSTYLE
  1
TABLEFORMAT_BEGIN
 90
        5
170
     1
 91
        0
 92
        0
 62
   257
 93
        1
300
CONTENTFORMAT
  1
CONTENTFORMAT_BEGIN
 90
        0
 91
        0
 92
        4
 93
        0
300

 40
0.0
140
1.0
 94
        2
 62
     0
340
11
144
4.5
309
CONTENTFORMAT_END
171
     1
301
MARGIN
  1
CELLMARGIN_BEGIN
 40
1.5
 40
1.5
 40
1.5
 40
1.5
 40
0.18
 40
0.18
309
CELLMARGIN_END
 94
        6
 95
        1
302
GRIDFORMAT
  1
GRIDFORMAT_BEGIN
 90
        0
 91
        1
 62
     0
 92
       -2
340
0
 93
        0
 40
0.045
309
GRIDFORMAT_END
 95
        2
302
GRIDFORMAT
  1
GRIDFORMAT_BEGIN
 90
        0
 91
        1
 62
     0
 92
       -2
340
0
 93
        0
 40
0.045
309
GRIDFORMAT_END
 95
        4
302
GRIDFORMAT
  1
GRIDFORMAT_BEGIN
 90
        0
 91
        1
 62
     0
 92
       -2
340
0
 93
        0
 40
0.045
309
GRIDFORMAT_END
 95
        8
302
GRIDFORMAT
  1
GRIDFORMAT_BEGIN
 90
        0
 91
        1
 62
     0
 92
       -2
340
0
 93
        0
 40
0.045
309
GRIDFORMAT_END
 95
       16
302
GRIDFORMAT
  1
GRIDFORMAT_BEGIN
 90
        0
 91
        1
 62
     0
 92
       -2
340
0
 93
        0
 40
0.045
309
GRIDFORMAT_END
 95
       32
302
GRIDFORMAT
  1
GRIDFORMAT_BEGIN
 90
        0
 91
        1
 62
     0
 92
       -2
340
0
 93
        0
 40
0.045
309
GRIDFORMAT_END
309
TABLEFORMAT_END
  1
CELLSTYLE_BEGIN
 90
        3
 91
        2
300
_DATA
309
CELLSTYLE_END
  0
XRECORD
  5
964AE
102
{ACAD_REACTORS
330
4CD9A
102
}
330
4CD9A
100
AcDbXrecord
280
     1
102
ACAD_ROUNDTRIP_PRE2007_TABLESTYLE
 90
        4
 91
        0
  1

 92
        4
 93
        0
  2

 94
        4
 95
        0
  3

  0
XRECORD
  5
964B0
102
{ACAD_REACTORS
330
87B18
102
}
330
87B18
100
AcDbXrecord
280
     1
102
RTVSPropertyOp0
 70
     1
102
RTVSPropertyOp1
 70
     1
102
RTVSPropertyOp2
 70
     1
102
RTVSPropertyOp3
 70
     1
102
RTVSPropertyOp4
 70
     1
102
RTVSPropertyOp5
 70
     1
102
RTVSPropertyOp6
 70
     1
102
RTVSPropertyOp7
 70
     1
102
RTVSPropertyOp8
 70
     1
102
RTVSPropertyOp9
 70
     1
102
RTVSPropertyOp10
 70
     1
102
RTVSPropertyOp11
 70
     1
102
RTVSPropertyOp12
 70
     1
102
RTVSPropertyOp13
 70
     1
102
RTVSPropertyOp14
 70
     1
102
RTVSPropertyOp15
 70
     1
102
RTVSPropertyOp16
 70
     1
102
RTVSPropertyOp17
 70
     1
102
RTVSPropertyOp18
 70
     1
102
RTVSPropertyOp19
 70
     1
102
RTVSPropertyOp20
 70
     1
102
RTVSPropertyOp21
 70
     1
102
RTVSPropertyOp22
 70
     1
102
RTVSPropertyOp23
 70
     1
102
RTVSPropertyOp24
 70
     1
102
RTVSPropertyOp25
 70
     1
102
RTVSPropertyOp26
 70
     1
102
RTVSPropertyOp27
 70
     1
102
RTVSPropertyOp28
 70
     1
102
RTVSPropertyOp29
 70
     1
102
RTVSPropertyOp30
 70
     1
102
RTVSPropertyOp31
 70
     1
102
RTVSPropertyOp32
 70
     1
102
RTVSPropertyOp33
 70
     1
102
RTVSPropertyOp34
 70
     1
102
RTVSPropertyOp35
 70
     1
102
RTVSPropertyOp36
 70
     1
102
RTVSPropertyOp37
 70
     1
102
RTVSPropertyOp38
 70
     1
102
RTVSPropertyOp39
 70
     1
102
RTVSPropertyOp40
 70
     1
102
RTVSPropertyOp41
 70
     1
102
RTVSPropertyOp42
 70
     1
102
RTVSPropertyOp43
 70
     1
102
RTVSPropertyOp44
 70
     1
102
RTVSPropertyOp45
 70
     1
102
RTVSPropertyOp46
 70
     1
102
RTVSPropertyOp47
 70
     1
102
RTVSPropertyOp48
 70
     1
102
RTVSPropertyOp49
 70
     1
102
RTVSPropertyOp50
 70
     1
102
RTVSPropertyOp51
 70
     0
102
RTVSPropertyOp52
 70
     0
102
RTVSPropertyOp53
 70
     1
102
RTVSPropertyOp54
 70
     1
102
RTVSPropertyOp55
 70
     1
102
RTVSPropertyOp56
 70
     1
102
RTVSPropertyOp57
 70
     1
102
RTVSPost2010Prop28
280
     1
102
RTVSPost2010PropOp28
 70
     1
102
RTVSPost2010Prop29
280
     1
102
RTVSPost2010PropOp29
 70
     1
102
RTVSPost2010Prop30
280
     0
102
RTVSPost2010PropOp30
 70
     1
102
RTVSPost2010Prop31
280
     0
102
RTVSPost2010PropOp31
 70
     1
102
RTVSPost2010Prop32
280
     0
102
RTVSPost2010PropOp32
 70
     1
102
RTVSPost2010Prop33
280
     0
102
RTVSPost2010PropOp33
 70
     1
102
RTVSPost2010Prop34
280
     0
102
RTVSPost2010PropOp34
 70
     1
102
RTVSPost2010Prop35
280
     0
102
RTVSPost2010PropOp35
 70
     1
102
RTVSPost2010Prop36
280
     0
102
RTVSPost2010PropOp36
 70
     1
102
RTVSPost2010Prop37
 90
       50
102
RTVSPost2010PropOp37
 70
     1
102
RTVSPost2010Prop38
140
0.0
102
RTVSPost2010PropOp38
 70
     1
102
RTVSPost2010Prop39
140
1.0
102
RTVSPost2010PropOp39
 70
     1
102
RTVSPost2010Prop40
 90
        0
102
RTVSPost2010PropOp40
 70
     1
102
RTVSPost2010Prop41ColorIndex
 90
       18
102
RTVSPost2010Prop41ColorRGB
 90
        0
102
RTVSPost2010PropOp41
 70
     1
102
RTVSPost2010Prop42
 90
       50
102
RTVSPost2010PropOp42
 70
     1
102
RTVSPost2010Prop43
 90
        3
102
RTVSPost2010PropOp43
 70
     1
102
RTVSPost2010Prop44ColorIndex
 90
        5
102
RTVSPost2010Prop44ColorRGB
 90
      255
102
RTVSPost2010PropOp44
 70
     1
102
RTVSPost2010Prop45
280
     0
102
RTVSPost2010PropOp45
 70
     1
102
RTVSPost2010Prop46
 90
       50
102
RTVSPost2010PropOp46
 70
     1
102
RTVSPost2010Prop47
 90
       50
102
RTVSPost2010PropOp47
 70
     1
102
RTVSPost2010Prop48
 90
       50
102
RTVSPost2010PropOp48
 70
     1
102
RTVSPost2010Prop49
280
     0
102
RTVSPost2010PropOp49
 70
     1
102
RTVSPost2010Prop50
 90
       50
102
RTVSPost2010PropOp50
 70
     1
102
RTVSPost2010Prop51ColorIndex
 90
      256
102
RTVSPost2010Prop51ColorRGB
 90
-16777216
102
RTVSPost2010PropOp51
 70
     0
102
RTVSPost2010Prop52
140
1.0
102
RTVSPost2010PropOp52
 70
     0
102
RTVSPost2010Prop53
 90
        2
102
RTVSPost2010PropOp53
 70
     1
102
RTVSPost2010Prop54
  1
strokes_ogs.tif
102
RTVSPost2010PropOp54
 70
     1
102
RTVSPost2010Prop55
280
     0
102
RTVSPost2010PropOp55
 70
     1
102
RTVSPost2010Prop56
140
1.0
102
RTVSPost2010PropOp56
 70
     1
102
RTVSPost2010Prop57
140
1.0
102
RTVSPost2010PropOp57
 70
     1
  0
XRECORD
  5
964B1
102
{ACAD_REACTORS
330
87B16
102
}
330
87B16
100
AcDbXrecord
280
     1
102
RTVSPropertyOp0
 70
     1
102
RTVSPropertyOp1
 70
     1
102
RTVSPropertyOp2
 70
     1
102
RTVSPropertyOp3
 70
     1
102
RTVSPropertyOp4
 70
     1
102
RTVSPropertyOp5
 70
     1
102
RTVSPropertyOp6
 70
     1
102
RTVSPropertyOp7
 70
     1
102
RTVSPropertyOp8
 70
     1
102
RTVSPropertyOp9
 70
     1
102
RTVSPropertyOp10
 70
     1
102
RTVSPropertyOp11
 70
     1
102
RTVSPropertyOp12
 70
     1
102
RTVSPropertyOp13
 70
     1
102
RTVSPropertyOp14
 70
     1
102
RTVSPropertyOp15
 70
     1
102
RTVSPropertyOp16
 70
     1
102
RTVSPropertyOp17
 70
     1
102
RTVSPropertyOp18
 70
     1
102
RTVSPropertyOp19
 70
     1
102
RTVSPropertyOp20
 70
     1
102
RTVSPropertyOp21
 70
     1
102
RTVSPropertyOp22
 70
     1
102
RTVSPropertyOp23
 70
     1
102
RTVSPropertyOp24
 70
     1
102
RTVSPropertyOp25
 70
     1
102
RTVSPropertyOp26
 70
     1
102
RTVSPropertyOp27
 70
     1
102
RTVSPropertyOp28
 70
     1
102
RTVSPropertyOp29
 70
     1
102
RTVSPropertyOp30
 70
     1
102
RTVSPropertyOp31
 70
     1
102
RTVSPropertyOp32
 70
     1
102
RTVSPropertyOp33
 70
     1
102
RTVSPropertyOp34
 70
     1
102
RTVSPropertyOp35
 70
     1
102
RTVSPropertyOp36
 70
     1
102
RTVSPropertyOp37
 70
     1
102
RTVSPropertyOp38
 70
     1
102
RTVSPropertyOp39
 70
     1
102
RTVSPropertyOp40
 70
     1
102
RTVSPropertyOp41
 70
     1
102
RTVSPropertyOp42
 70
     1
102
RTVSPropertyOp43
 70
     1
102
RTVSPropertyOp44
 70
     1
102
RTVSPropertyOp45
 70
     1
102
RTVSPropertyOp46
 70
     1
102
RTVSPropertyOp47
 70
     1
102
RTVSPropertyOp48
 70
     1
102
RTVSPropertyOp49
 70
     1
102
RTVSPropertyOp50
 70
     1
102
RTVSPropertyOp51
 70
     0
102
RTVSPropertyOp52
 70
     0
102
RTVSPropertyOp53
 70
     1
102
RTVSPropertyOp54
 70
     1
102
RTVSPropertyOp55
 70
     1
102
RTVSPropertyOp56
 70
     1
102
RTVSPropertyOp57
 70
     1
102
RTVSPost2010Prop28
280
     0
102
RTVSPost2010PropOp28
 70
     1
102
RTVSPost2010Prop29
280
     1
102
RTVSPost2010PropOp29
 70
     1
102
RTVSPost2010Prop30
280
     1
102
RTVSPost2010PropOp30
 70
     1
102
RTVSPost2010Prop31
280
     0
102
RTVSPost2010PropOp31
 70
     1
102
RTVSPost2010Prop32
280
     0
102
RTVSPost2010PropOp32
 70
     1
102
RTVSPost2010Prop33
280
     0
102
RTVSPost2010PropOp33
 70
     1
102
RTVSPost2010Prop34
280
     0
102
RTVSPost2010PropOp34
 70
     1
102
RTVSPost2010Prop35
280
     0
102
RTVSPost2010PropOp35
 70
     1
102
RTVSPost2010Prop36
280
     0
102
RTVSPost2010PropOp36
 70
     1
102
RTVSPost2010Prop37
 90
       50
102
RTVSPost2010PropOp37
 70
     1
102
RTVSPost2010Prop38
140
0.0
102
RTVSPost2010PropOp38
 70
     1
102
RTVSPost2010Prop39
140
1.0
102
RTVSPost2010PropOp39
 70
     1
102
RTVSPost2010Prop40
 90
        0
102
RTVSPost2010PropOp40
 70
     1
102
RTVSPost2010Prop41ColorIndex
 90
       18
102
RTVSPost2010Prop41ColorRGB
 90
        0
102
RTVSPost2010PropOp41
 70
     1
102
RTVSPost2010Prop42
 90
       50
102
RTVSPost2010PropOp42
 70
     1
102
RTVSPost2010Prop43
 90
        3
102
RTVSPost2010PropOp43
 70
     1
102
RTVSPost2010Prop44ColorIndex
 90
        5
102
RTVSPost2010Prop44ColorRGB
 90
      255
102
RTVSPost2010PropOp44
 70
     1
102
RTVSPost2010Prop45
280
     0
102
RTVSPost2010PropOp45
 70
     1
102
RTVSPost2010Prop46
 90
       50
102
RTVSPost2010PropOp46
 70
     1
102
RTVSPost2010Prop47
 90
       50
102
RTVSPost2010PropOp47
 70
     1
102
RTVSPost2010Prop48
 90
       50
102
RTVSPost2010PropOp48
 70
     1
102
RTVSPost2010Prop49
280
     0
102
RTVSPost2010PropOp49
 70
     1
102
RTVSPost2010Prop50
 90
       50
102
RTVSPost2010PropOp50
 70
     1
102
RTVSPost2010Prop51ColorIndex
 90
      256
102
RTVSPost2010Prop51ColorRGB
 90
-16777216
102
RTVSPost2010PropOp51
 70
     0
102
RTVSPost2010Prop52
140
1.0
102
RTVSPost2010PropOp52
 70
     0
102
RTVSPost2010Prop53
 90
        2
102
RTVSPost2010PropOp53
 70
     1
102
RTVSPost2010Prop54
  1
strokes_ogs.tif
102
RTVSPost2010PropOp54
 70
     1
102
RTVSPost2010Prop55
280
     0
102
RTVSPost2010PropOp55
 70
     1
102
RTVSPost2010Prop56
140
1.0
102
RTVSPost2010PropOp56
 70
     1
102
RTVSPost2010Prop57
140
1.0
102
RTVSPost2010PropOp57
 70
     1
  0
XRECORD
  5
964B2
102
{ACAD_REACTORS
330
87B24
102
}
330
87B24
100
AcDbXrecord
280
     1
102
RTVSPropertyOp0
 70
     1
102
RTVSPropertyOp1
 70
     1
102
RTVSPropertyOp2
 70
     1
102
RTVSPropertyOp3
 70
     1
102
RTVSPropertyOp4
 70
     1
102
RTVSPropertyOp5
 70
     1
102
RTVSPropertyOp6
 70
     1
102
RTVSPropertyOp7
 70
     1
102
RTVSPropertyOp8
 70
     1
102
RTVSPropertyOp9
 70
     1
102
RTVSPropertyOp10
 70
     1
102
RTVSPropertyOp11
 70
     1
102
RTVSPropertyOp12
 70
     1
102
RTVSPropertyOp13
 70
     1
102
RTVSPropertyOp14
 70
     1
102
RTVSPropertyOp15
 70
     1
102
RTVSPropertyOp16
 70
     1
102
RTVSPropertyOp17
 70
     1
102
RTVSPropertyOp18
 70
     1
102
RTVSPropertyOp19
 70
     1
102
RTVSPropertyOp20
 70
     1
102
RTVSPropertyOp21
 70
     1
102
RTVSPropertyOp22
 70
     1
102
RTVSPropertyOp23
 70
     1
102
RTVSPropertyOp24
 70
     1
102
RTVSPropertyOp25
 70
     1
102
RTVSPropertyOp26
 70
     1
102
RTVSPropertyOp27
 70
     1
102
RTVSPropertyOp28
 70
     1
102
RTVSPropertyOp29
 70
     1
102
RTVSPropertyOp30
 70
     1
102
RTVSPropertyOp31
 70
     1
102
RTVSPropertyOp32
 70
     1
102
RTVSPropertyOp33
 70
     1
102
RTVSPropertyOp34
 70
     1
102
RTVSPropertyOp35
 70
     1
102
RTVSPropertyOp36
 70
     1
102
RTVSPropertyOp37
 70
     1
102
RTVSPropertyOp38
 70
     1
102
RTVSPropertyOp39
 70
     1
102
RTVSPropertyOp40
 70
     1
102
RTVSPropertyOp41
 70
     1
102
RTVSPropertyOp42
 70
     1
102
RTVSPropertyOp43
 70
     1
102
RTVSPropertyOp44
 70
     1
102
RTVSPropertyOp45
 70
     1
102
RTVSPropertyOp46
 70
     1
102
RTVSPropertyOp47
 70
     1
102
RTVSPropertyOp48
 70
     1
102
RTVSPropertyOp49
 70
     1
102
RTVSPropertyOp50
 70
     1
102
RTVSPropertyOp51
 70
     0
102
RTVSPropertyOp52
 70
     0
102
RTVSPropertyOp53
 70
     1
102
RTVSPropertyOp54
 70
     1
102
RTVSPropertyOp55
 70
     1
102
RTVSPropertyOp56
 70
     1
102
RTVSPropertyOp57
 70
     1
102
RTVSPost2010Prop28
280
     0
102
RTVSPost2010PropOp28
 70
     1
102
RTVSPost2010Prop29
280
     1
102
RTVSPost2010PropOp29
 70
     1
102
RTVSPost2010Prop30
280
     1
102
RTVSPost2010PropOp30
 70
     1
102
RTVSPost2010Prop31
280
     0
102
RTVSPost2010PropOp31
 70
     1
102
RTVSPost2010Prop32
280
     0
102
RTVSPost2010PropOp32
 70
     1
102
RTVSPost2010Prop33
280
     0
102
RTVSPost2010PropOp33
 70
     1
102
RTVSPost2010Prop34
280
     0
102
RTVSPost2010PropOp34
 70
     1
102
RTVSPost2010Prop35
280
     0
102
RTVSPost2010PropOp35
 70
     1
102
RTVSPost2010Prop36
280
     0
102
RTVSPost2010PropOp36
 70
     1
102
RTVSPost2010Prop37
 90
       50
102
RTVSPost2010PropOp37
 70
     1
102
RTVSPost2010Prop38
140
0.0
102
RTVSPost2010PropOp38
 70
     1
102
RTVSPost2010Prop39
140
1.0
102
RTVSPost2010PropOp39
 70
     1
102
RTVSPost2010Prop40
 90
        0
102
RTVSPost2010PropOp40
 70
     1
102
RTVSPost2010Prop41ColorIndex
 90
       18
102
RTVSPost2010Prop41ColorRGB
 90
        0
102
RTVSPost2010PropOp41
 70
     1
102
RTVSPost2010Prop42
 90
       50
102
RTVSPost2010PropOp42
 70
     1
102
RTVSPost2010Prop43
 90
        3
102
RTVSPost2010PropOp43
 70
     1
102
RTVSPost2010Prop44ColorIndex
 90
        5
102
RTVSPost2010Prop44ColorRGB
 90
      255
102
RTVSPost2010PropOp44
 70
     1
102
RTVSPost2010Prop45
280
     0
102
RTVSPost2010PropOp45
 70
     1
102
RTVSPost2010Prop46
 90
       50
102
RTVSPost2010PropOp46
 70
     1
102
RTVSPost2010Prop47
 90
       50
102
RTVSPost2010PropOp47
 70
     1
102
RTVSPost2010Prop48
 90
       50
102
RTVSPost2010PropOp48
 70
     1
102
RTVSPost2010Prop49
280
     0
102
RTVSPost2010PropOp49
 70
     1
102
RTVSPost2010Prop50
 90
       50
102
RTVSPost2010PropOp50
 70
     1
102
RTVSPost2010Prop51ColorIndex
 90
      256
102
RTVSPost2010Prop51ColorRGB
 90
-16777216
102
RTVSPost2010PropOp51
 70
     0
102
RTVSPost2010Prop52
140
1.0
102
RTVSPost2010PropOp52
 70
     0
102
RTVSPost2010Prop53
 90
        2
102
RTVSPost2010PropOp53
 70
     1
102
RTVSPost2010Prop54
  1
strokes_ogs.tif
102
RTVSPost2010PropOp54
 70
     1
102
RTVSPost2010Prop55
280
     0
102
RTVSPost2010PropOp55
 70
     1
102
RTVSPost2010Prop56
140
1.0
102
RTVSPost2010PropOp56
 70
     1
102
RTVSPost2010Prop57
140
1.0
102
RTVSPost2010PropOp57
 70
     1
  0
XRECORD
  5
964B3
102
{ACAD_REACTORS
330
87B2C
102
}
330
87B2C
100
AcDbXrecord
280
     1
102
RTVSPropertyOp0
 70
     1
102
RTVSPropertyOp1
 70
     1
102
RTVSPropertyOp2
 70
     1
102
RTVSPropertyOp3
 70
     1
102
RTVSPropertyOp4
 70
     1
102
RTVSPropertyOp5
 70
     1
102
RTVSPropertyOp6
 70
     1
102
RTVSPropertyOp7
 70
     1
102
RTVSPropertyOp8
 70
     1
102
RTVSPropertyOp9
 70
     1
102
RTVSPropertyOp10
 70
     1
102
RTVSPropertyOp11
 70
     1
102
RTVSPropertyOp12
 70
     1
102
RTVSPropertyOp13
 70
     1
102
RTVSPropertyOp14
 70
     1
102
RTVSPropertyOp15
 70
     1
102
RTVSPropertyOp16
 70
     1
102
RTVSPropertyOp17
 70
     1
102
RTVSPropertyOp18
 70
     1
102
RTVSPropertyOp19
 70
     1
102
RTVSPropertyOp20
 70
     1
102
RTVSPropertyOp21
 70
     1
102
RTVSPropertyOp22
 70
     1
102
RTVSPropertyOp23
 70
     1
102
RTVSPropertyOp24
 70
     1
102
RTVSPropertyOp25
 70
     1
102
RTVSPropertyOp26
 70
     1
102
RTVSPropertyOp27
 70
     1
102
RTVSPropertyOp28
 70
     1
102
RTVSPropertyOp29
 70
     1
102
RTVSPropertyOp30
 70
     1
102
RTVSPropertyOp31
 70
     1
102
RTVSPropertyOp32
 70
     1
102
RTVSPropertyOp33
 70
     1
102
RTVSPropertyOp34
 70
     1
102
RTVSPropertyOp35
 70
     1
102
RTVSPropertyOp36
 70
     1
102
RTVSPropertyOp37
 70
     1
102
RTVSPropertyOp38
 70
     1
102
RTVSPropertyOp39
 70
     1
102
RTVSPropertyOp40
 70
     1
102
RTVSPropertyOp41
 70
     1
102
RTVSPropertyOp42
 70
     1
102
RTVSPropertyOp43
 70
     1
102
RTVSPropertyOp44
 70
     1
102
RTVSPropertyOp45
 70
     1
102
RTVSPropertyOp46
 70
     1
102
RTVSPropertyOp47
 70
     1
102
RTVSPropertyOp48
 70
     1
102
RTVSPropertyOp49
 70
     1
102
RTVSPropertyOp50
 70
     1
102
RTVSPropertyOp51
 70
     0
102
RTVSPropertyOp52
 70
     0
102
RTVSPropertyOp53
 70
     1
102
RTVSPropertyOp54
 70
     1
102
RTVSPropertyOp55
 70
     1
102
RTVSPropertyOp56
 70
     1
102
RTVSPropertyOp57
 70
     1
102
RTVSPost2010Prop28
280
     0
102
RTVSPost2010PropOp28
 70
     1
102
RTVSPost2010Prop29
280
     1
102
RTVSPost2010PropOp29
 70
     1
102
RTVSPost2010Prop30
280
     1
102
RTVSPost2010PropOp30
 70
     1
102
RTVSPost2010Prop31
280
     0
102
RTVSPost2010PropOp31
 70
     1
102
RTVSPost2010Prop32
280
     0
102
RTVSPost2010PropOp32
 70
     1
102
RTVSPost2010Prop33
280
     0
102
RTVSPost2010PropOp33
 70
     1
102
RTVSPost2010Prop34
280
     0
102
RTVSPost2010PropOp34
 70
     1
102
RTVSPost2010Prop35
280
     0
102
RTVSPost2010PropOp35
 70
     1
102
RTVSPost2010Prop36
280
     0
102
RTVSPost2010PropOp36
 70
     1
102
RTVSPost2010Prop37
 90
       50
102
RTVSPost2010PropOp37
 70
     1
102
RTVSPost2010Prop38
140
0.0
102
RTVSPost2010PropOp38
 70
     1
102
RTVSPost2010Prop39
140
1.0
102
RTVSPost2010PropOp39
 70
     1
102
RTVSPost2010Prop40
 90
        0
102
RTVSPost2010PropOp40
 70
     1
102
RTVSPost2010Prop41ColorIndex
 90
       18
102
RTVSPost2010Prop41ColorRGB
 90
        0
102
RTVSPost2010PropOp41
 70
     1
102
RTVSPost2010Prop42
 90
       50
102
RTVSPost2010PropOp42
 70
     1
102
RTVSPost2010Prop43
 90
        3
102
RTVSPost2010PropOp43
 70
     1
102
RTVSPost2010Prop44ColorIndex
 90
        5
102
RTVSPost2010Prop44ColorRGB
 90
      255
102
RTVSPost2010PropOp44
 70
     1
102
RTVSPost2010Prop45
280
     0
102
RTVSPost2010PropOp45
 70
     1
102
RTVSPost2010Prop46
 90
       50
102
RTVSPost2010PropOp46
 70
     1
102
RTVSPost2010Prop47
 90
       50
102
RTVSPost2010PropOp47
 70
     1
102
RTVSPost2010Prop48
 90
       50
102
RTVSPost2010PropOp48
 70
     1
102
RTVSPost2010Prop49
280
     0
102
RTVSPost2010PropOp49
 70
     1
102
RTVSPost2010Prop50
 90
       50
102
RTVSPost2010PropOp50
 70
     1
102
RTVSPost2010Prop51ColorIndex
 90
      256
102
RTVSPost2010Prop51ColorRGB
 90
-16777216
102
RTVSPost2010PropOp51
 70
     0
102
RTVSPost2010Prop52
140
1.0
102
RTVSPost2010PropOp52
 70
     0
102
RTVSPost2010Prop53
 90
        2
102
RTVSPost2010PropOp53
 70
     1
102
RTVSPost2010Prop54
  1
strokes_ogs.tif
102
RTVSPost2010PropOp54
 70
     1
102
RTVSPost2010Prop55
280
     0
102
RTVSPost2010PropOp55
 70
     1
102
RTVSPost2010Prop56
140
1.0
102
RTVSPost2010PropOp56
 70
     1
102
RTVSPost2010Prop57
140
1.0
102
RTVSPost2010PropOp57
 70
     1
  0
XRECORD
  5
964B4
102
{ACAD_REACTORS
330
87B1E
102
}
330
87B1E
100
AcDbXrecord
280
     1
102
RTVSPropertyOp0
 70
     1
102
RTVSPropertyOp1
 70
     1
102
RTVSPropertyOp2
 70
     1
102
RTVSPropertyOp3
 70
     1
102
RTVSPropertyOp4
 70
     1
102
RTVSPropertyOp5
 70
     1
102
RTVSPropertyOp6
 70
     1
102
RTVSPropertyOp7
 70
     1
102
RTVSPropertyOp8
 70
     1
102
RTVSPropertyOp9
 70
     1
102
RTVSPropertyOp10
 70
     1
102
RTVSPropertyOp11
 70
     1
102
RTVSPropertyOp12
 70
     1
102
RTVSPropertyOp13
 70
     1
102
RTVSPropertyOp14
 70
     1
102
RTVSPropertyOp15
 70
     1
102
RTVSPropertyOp16
 70
     1
102
RTVSPropertyOp17
 70
     1
102
RTVSPropertyOp18
 70
     1
102
RTVSPropertyOp19
 70
     1
102
RTVSPropertyOp20
 70
     1
102
RTVSPropertyOp21
 70
     1
102
RTVSPropertyOp22
 70
     1
102
RTVSPropertyOp23
 70
     1
102
RTVSPropertyOp24
 70
     1
102
RTVSPropertyOp25
 70
     1
102
RTVSPropertyOp26
 70
     1
102
RTVSPropertyOp27
 70
     1
102
RTVSPropertyOp28
 70
     1
102
RTVSPropertyOp29
 70
     1
102
RTVSPropertyOp30
 70
     1
102
RTVSPropertyOp31
 70
     1
102
RTVSPropertyOp32
 70
     1
102
RTVSPropertyOp33
 70
     1
102
RTVSPropertyOp34
 70
     1
102
RTVSPropertyOp35
 70
     1
102
RTVSPropertyOp36
 70
     1
102
RTVSPropertyOp37
 70
     1
102
RTVSPropertyOp38
 70
     1
102
RTVSPropertyOp39
 70
     1
102
RTVSPropertyOp40
 70
     1
102
RTVSPropertyOp41
 70
     1
102
RTVSPropertyOp42
 70
     1
102
RTVSPropertyOp43
 70
     1
102
RTVSPropertyOp44
 70
     1
102
RTVSPropertyOp45
 70
     1
102
RTVSPropertyOp46
 70
     1
102
RTVSPropertyOp47
 70
     1
102
RTVSPropertyOp48
 70
     1
102
RTVSPropertyOp49
 70
     1
102
RTVSPropertyOp50
 70
     1
102
RTVSPropertyOp51
 70
     0
102
RTVSPropertyOp52
 70
     0
102
RTVSPropertyOp53
 70
     1
102
RTVSPropertyOp54
 70
     1
102
RTVSPropertyOp55
 70
     1
102
RTVSPropertyOp56
 70
     1
102
RTVSPropertyOp57
 70
     1
102
RTVSPost2010Prop28
280
     0
102
RTVSPost2010PropOp28
 70
     1
102
RTVSPost2010Prop29
280
     1
102
RTVSPost2010PropOp29
 70
     1
102
RTVSPost2010Prop30
280
     1
102
RTVSPost2010PropOp30
 70
     1
102
RTVSPost2010Prop31
280
     0
102
RTVSPost2010PropOp31
 70
     1
102
RTVSPost2010Prop32
280
     0
102
RTVSPost2010PropOp32
 70
     1
102
RTVSPost2010Prop33
280
     0
102
RTVSPost2010PropOp33
 70
     1
102
RTVSPost2010Prop34
280
     0
102
RTVSPost2010PropOp34
 70
     1
102
RTVSPost2010Prop35
280
     0
102
RTVSPost2010PropOp35
 70
     1
102
RTVSPost2010Prop36
280
     0
102
RTVSPost2010PropOp36
 70
     1
102
RTVSPost2010Prop37
 90
       50
102
RTVSPost2010PropOp37
 70
     1
102
RTVSPost2010Prop38
140
0.0
102
RTVSPost2010PropOp38
 70
     1
102
RTVSPost2010Prop39
140
1.0
102
RTVSPost2010PropOp39
 70
     1
102
RTVSPost2010Prop40
 90
        0
102
RTVSPost2010PropOp40
 70
     1
102
RTVSPost2010Prop41ColorIndex
 90
       18
102
RTVSPost2010Prop41ColorRGB
 90
        0
102
RTVSPost2010PropOp41
 70
     1
102
RTVSPost2010Prop42
 90
       50
102
RTVSPost2010PropOp42
 70
     1
102
RTVSPost2010Prop43
 90
        3
102
RTVSPost2010PropOp43
 70
     1
102
RTVSPost2010Prop44ColorIndex
 90
        5
102
RTVSPost2010Prop44ColorRGB
 90
      255
102
RTVSPost2010PropOp44
 70
     1
102
RTVSPost2010Prop45
280
     0
102
RTVSPost2010PropOp45
 70
     1
102
RTVSPost2010Prop46
 90
       50
102
RTVSPost2010PropOp46
 70
     1
102
RTVSPost2010Prop47
 90
       50
102
RTVSPost2010PropOp47
 70
     1
102
RTVSPost2010Prop48
 90
       50
102
RTVSPost2010PropOp48
 70
     1
102
RTVSPost2010Prop49
280
     0
102
RTVSPost2010PropOp49
 70
     1
102
RTVSPost2010Prop50
 90
       50
102
RTVSPost2010PropOp50
 70
     1
102
RTVSPost2010Prop51ColorIndex
 90
      256
102
RTVSPost2010Prop51ColorRGB
 90
-16777216
102
RTVSPost2010PropOp51
 70
     0
102
RTVSPost2010Prop52
140
1.0
102
RTVSPost2010PropOp52
 70
     0
102
RTVSPost2010Prop53
 90
        2
102
RTVSPost2010PropOp53
 70
     1
102
RTVSPost2010Prop54
  1
strokes_ogs.tif
102
RTVSPost2010PropOp54
 70
     1
102
RTVSPost2010Prop55
280
     0
102
RTVSPost2010PropOp55
 70
     1
102
RTVSPost2010Prop56
140
1.0
102
RTVSPost2010PropOp56
 70
     1
102
RTVSPost2010Prop57
140
1.0
102
RTVSPost2010PropOp57
 70
     1
  0
XRECORD
  5
964B5
102
{ACAD_REACTORS
330
87B22
102
}
330
87B22
100
AcDbXrecord
280
     1
102
RTVSPropertyOp0
 70
     1
102
RTVSPropertyOp1
 70
     1
102
RTVSPropertyOp2
 70
     1
102
RTVSPropertyOp3
 70
     1
102
RTVSPropertyOp4
 70
     1
102
RTVSPropertyOp5
 70
     1
102
RTVSPropertyOp6
 70
     1
102
RTVSPropertyOp7
 70
     1
102
RTVSPropertyOp8
 70
     1
102
RTVSPropertyOp9
 70
     1
102
RTVSPropertyOp10
 70
     1
102
RTVSPropertyOp11
 70
     1
102
RTVSPropertyOp12
 70
     1
102
RTVSPropertyOp13
 70
     1
102
RTVSPropertyOp14
 70
     1
102
RTVSPropertyOp15
 70
     1
102
RTVSPropertyOp16
 70
     1
102
RTVSPropertyOp17
 70
     1
102
RTVSPropertyOp18
 70
     1
102
RTVSPropertyOp19
 70
     1
102
RTVSPropertyOp20
 70
     1
102
RTVSPropertyOp21
 70
     1
102
RTVSPropertyOp22
 70
     1
102
RTVSPropertyOp23
 70
     1
102
RTVSPropertyOp24
 70
     1
102
RTVSPropertyOp25
 70
     1
102
RTVSPropertyOp26
 70
     1
102
RTVSPropertyOp27
 70
     1
102
RTVSPropertyOp28
 70
     1
102
RTVSPropertyOp29
 70
     1
102
RTVSPropertyOp30
 70
     1
102
RTVSPropertyOp31
 70
     1
102
RTVSPropertyOp32
 70
     1
102
RTVSPropertyOp33
 70
     1
102
RTVSPropertyOp34
 70
     1
102
RTVSPropertyOp35
 70
     1
102
RTVSPropertyOp36
 70
     1
102
RTVSPropertyOp37
 70
     1
102
RTVSPropertyOp38
 70
     1
102
RTVSPropertyOp39
 70
     1
102
RTVSPropertyOp40
 70
     1
102
RTVSPropertyOp41
 70
     1
102
RTVSPropertyOp42
 70
     1
102
RTVSPropertyOp43
 70
     1
102
RTVSPropertyOp44
 70
     1
102
RTVSPropertyOp45
 70
     1
102
RTVSPropertyOp46
 70
     1
102
RTVSPropertyOp47
 70
     1
102
RTVSPropertyOp48
 70
     1
102
RTVSPropertyOp49
 70
     1
102
RTVSPropertyOp50
 70
     1
102
RTVSPropertyOp51
 70
     0
102
RTVSPropertyOp52
 70
     0
102
RTVSPropertyOp53
 70
     1
102
RTVSPropertyOp54
 70
     1
102
RTVSPropertyOp55
 70
     1
102
RTVSPropertyOp56
 70
     1
102
RTVSPropertyOp57
 70
     1
102
RTVSPost2010Prop28
280
     0
102
RTVSPost2010PropOp28
 70
     1
102
RTVSPost2010Prop29
280
     1
102
RTVSPost2010PropOp29
 70
     1
102
RTVSPost2010Prop30
280
     1
102
RTVSPost2010PropOp30
 70
     1
102
RTVSPost2010Prop31
280
     0
102
RTVSPost2010PropOp31
 70
     1
102
RTVSPost2010Prop32
280
     0
102
RTVSPost2010PropOp32
 70
     1
102
RTVSPost2010Prop33
280
     0
102
RTVSPost2010PropOp33
 70
     1
102
RTVSPost2010Prop34
280
     0
102
RTVSPost2010PropOp34
 70
     1
102
RTVSPost2010Prop35
280
     0
102
RTVSPost2010PropOp35
 70
     1
102
RTVSPost2010Prop36
280
     0
102
RTVSPost2010PropOp36
 70
     1
102
RTVSPost2010Prop37
 90
       50
102
RTVSPost2010PropOp37
 70
     1
102
RTVSPost2010Prop38
140
0.0
102
RTVSPost2010PropOp38
 70
     1
102
RTVSPost2010Prop39
140
1.0
102
RTVSPost2010PropOp39
 70
     1
102
RTVSPost2010Prop40
 90
        0
102
RTVSPost2010PropOp40
 70
     1
102
RTVSPost2010Prop41ColorIndex
 90
       18
102
RTVSPost2010Prop41ColorRGB
 90
        0
102
RTVSPost2010PropOp41
 70
     1
102
RTVSPost2010Prop42
 90
       50
102
RTVSPost2010PropOp42
 70
     1
102
RTVSPost2010Prop43
 90
        3
102
RTVSPost2010PropOp43
 70
     1
102
RTVSPost2010Prop44ColorIndex
 90
        5
102
RTVSPost2010Prop44ColorRGB
 90
      255
102
RTVSPost2010PropOp44
 70
     1
102
RTVSPost2010Prop45
280
     0
102
RTVSPost2010PropOp45
 70
     1
102
RTVSPost2010Prop46
 90
       50
102
RTVSPost2010PropOp46
 70
     1
102
RTVSPost2010Prop47
 90
       50
102
RTVSPost2010PropOp47
 70
     1
102
RTVSPost2010Prop48
 90
       50
102
RTVSPost2010PropOp48
 70
     1
102
RTVSPost2010Prop49
280
     0
102
RTVSPost2010PropOp49
 70
     1
102
RTVSPost2010Prop50
 90
       50
102
RTVSPost2010PropOp50
 70
     1
102
RTVSPost2010Prop51ColorIndex
 90
      256
102
RTVSPost2010Prop51ColorRGB
 90
-16777216
102
RTVSPost2010PropOp51
 70
     0
102
RTVSPost2010Prop52
140
1.0
102
RTVSPost2010PropOp52
 70
     0
102
RTVSPost2010Prop53
 90
        2
102
RTVSPost2010PropOp53
 70
     1
102
RTVSPost2010Prop54
  1
strokes_ogs.tif
102
RTVSPost2010PropOp54
 70
     1
102
RTVSPost2010Prop55
280
     0
102
RTVSPost2010PropOp55
 70
     1
102
RTVSPost2010Prop56
140
1.0
102
RTVSPost2010PropOp56
 70
     1
102
RTVSPost2010Prop57
140
1.0
102
RTVSPost2010PropOp57
 70
     1
  0
XRECORD
  5
964B6
102
{ACAD_REACTORS
330
87B3C
102
}
330
87B3C
100
AcDbXrecord
280
     1
102
RTVSPropertyOp0
 70
     0
102
RTVSPropertyOp1
 70
     0
102
RTVSPropertyOp2
 70
     0
102
RTVSPropertyOp3
 70
     0
102
RTVSPropertyOp4
 70
     0
102
RTVSPropertyOp5
 70
     0
102
RTVSPropertyOp6
 70
     0
102
RTVSPropertyOp7
 70
     0
102
RTVSPropertyOp8
 70
     0
102
RTVSPropertyOp9
 70
     0
102
RTVSPropertyOp10
 70
     0
102
RTVSPropertyOp11
 70
     0
102
RTVSPropertyOp12
 70
     0
102
RTVSPropertyOp13
 70
     0
102
RTVSPropertyOp14
 70
     2
102
RTVSPropertyOp15
 70
     0
102
RTVSPropertyOp16
 70
     0
102
RTVSPropertyOp17
 70
     0
102
RTVSPropertyOp18
 70
     0
102
RTVSPropertyOp19
 70
     0
102
RTVSPropertyOp20
 70
     0
102
RTVSPropertyOp21
 70
     0
102
RTVSPropertyOp22
 70
     0
102
RTVSPropertyOp23
 70
     0
102
RTVSPropertyOp24
 70
     0
102
RTVSPropertyOp25
 70
     0
102
RTVSPropertyOp26
 70
     0
102
RTVSPropertyOp27
 70
     0
102
RTVSPropertyOp28
 70
     1
102
RTVSPropertyOp29
 70
     1
102
RTVSPropertyOp30
 70
     1
102
RTVSPropertyOp31
 70
     1
102
RTVSPropertyOp32
 70
     1
102
RTVSPropertyOp33
 70
     1
102
RTVSPropertyOp34
 70
     1
102
RTVSPropertyOp35
 70
     1
102
RTVSPropertyOp36
 70
     1
102
RTVSPropertyOp37
 70
     0
102
RTVSPropertyOp38
 70
     0
102
RTVSPropertyOp39
 70
     0
102
RTVSPropertyOp40
 70
     0
102
RTVSPropertyOp41
 70
     0
102
RTVSPropertyOp42
 70
     0
102
RTVSPropertyOp43
 70
     0
102
RTVSPropertyOp44
 70
     0
102
RTVSPropertyOp45
 70
     1
102
RTVSPropertyOp46
 70
     0
102
RTVSPropertyOp47
 70
     0
102
RTVSPropertyOp48
 70
     0
102
RTVSPropertyOp49
 70
     1
102
RTVSPropertyOp50
 70
     0
102
RTVSPropertyOp51
 70
     0
102
RTVSPropertyOp52
 70
     0
102
RTVSPropertyOp53
 70
     0
102
RTVSPropertyOp54
 70
     0
102
RTVSPropertyOp55
 70
     1
102
RTVSPropertyOp56
 70
     0
102
RTVSPropertyOp57
 70
     0
102
RTVSPost2010Prop28
280
     0
102
RTVSPost2010PropOp28
 70
     1
102
RTVSPost2010Prop29
280
     1
102
RTVSPost2010PropOp29
 70
     1
102
RTVSPost2010Prop30
280
     1
102
RTVSPost2010PropOp30
 70
     1
102
RTVSPost2010Prop31
280
     0
102
RTVSPost2010PropOp31
 70
     1
102
RTVSPost2010Prop32
280
     0
102
RTVSPost2010PropOp32
 70
     1
102
RTVSPost2010Prop33
280
     0
102
RTVSPost2010PropOp33
 70
     1
102
RTVSPost2010Prop34
280
     0
102
RTVSPost2010PropOp34
 70
     1
102
RTVSPost2010Prop35
280
     0
102
RTVSPost2010PropOp35
 70
     1
102
RTVSPost2010Prop36
280
     0
102
RTVSPost2010PropOp36
 70
     1
102
RTVSPost2010Prop37
 90
       50
102
RTVSPost2010PropOp37
 70
     0
102
RTVSPost2010Prop38
140
0.0
102
RTVSPost2010PropOp38
 70
     0
102
RTVSPost2010Prop39
140
1.0
102
RTVSPost2010PropOp39
 70
     0
102
RTVSPost2010Prop40
 90
        0
102
RTVSPost2010PropOp40
 70
     0
102
RTVSPost2010Prop41ColorIndex
 90
       18
102
RTVSPost2010Prop41ColorRGB
 90
        0
102
RTVSPost2010PropOp41
 70
     0
102
RTVSPost2010Prop42
 90
       50
102
RTVSPost2010PropOp42
 70
     0
102
RTVSPost2010Prop43
 90
        3
102
RTVSPost2010PropOp43
 70
     0
102
RTVSPost2010Prop44ColorIndex
 90
        5
102
RTVSPost2010Prop44ColorRGB
 90
      255
102
RTVSPost2010PropOp44
 70
     0
102
RTVSPost2010Prop45
280
     0
102
RTVSPost2010PropOp45
 70
     1
102
RTVSPost2010Prop46
 90
       50
102
RTVSPost2010PropOp46
 70
     0
102
RTVSPost2010Prop47
 90
       50
102
RTVSPost2010PropOp47
 70
     0
102
RTVSPost2010Prop48
 90
       50
102
RTVSPost2010PropOp48
 70
     0
102
RTVSPost2010Prop49
280
     0
102
RTVSPost2010PropOp49
 70
     1
102
RTVSPost2010Prop50
 90
       50
102
RTVSPost2010PropOp50
 70
     0
102
RTVSPost2010Prop51ColorIndex
 90
      256
102
RTVSPost2010Prop51ColorRGB
 90
-16777216
102
RTVSPost2010PropOp51
 70
     0
102
RTVSPost2010Prop52
140
1.0
102
RTVSPost2010PropOp52
 70
     0
102
RTVSPost2010Prop53
 90
        2
102
RTVSPost2010PropOp53
 70
     0
102
RTVSPost2010Prop54
  1
strokes_ogs.tif
102
RTVSPost2010PropOp54
 70
     0
102
RTVSPost2010Prop55
280
     0
102
RTVSPost2010PropOp55
 70
     1
102
RTVSPost2010Prop56
140
1.0
102
RTVSPost2010PropOp56
 70
     0
102
RTVSPost2010Prop57
140
1.0
102
RTVSPost2010PropOp57
 70
     0
  0
XRECORD
  5
964B7
102
{ACAD_REACTORS
330
87B2A
102
}
330
87B2A
100
AcDbXrecord
280
     1
102
RTVSPropertyOp0
 70
     1
102
RTVSPropertyOp1
 70
     1
102
RTVSPropertyOp2
 70
     1
102
RTVSPropertyOp3
 70
     1
102
RTVSPropertyOp4
 70
     1
102
RTVSPropertyOp5
 70
     1
102
RTVSPropertyOp6
 70
     1
102
RTVSPropertyOp7
 70
     1
102
RTVSPropertyOp8
 70
     1
102
RTVSPropertyOp9
 70
     1
102
RTVSPropertyOp10
 70
     1
102
RTVSPropertyOp11
 70
     1
102
RTVSPropertyOp12
 70
     1
102
RTVSPropertyOp13
 70
     1
102
RTVSPropertyOp14
 70
     1
102
RTVSPropertyOp15
 70
     1
102
RTVSPropertyOp16
 70
     1
102
RTVSPropertyOp17
 70
     1
102
RTVSPropertyOp18
 70
     1
102
RTVSPropertyOp19
 70
     1
102
RTVSPropertyOp20
 70
     1
102
RTVSPropertyOp21
 70
     1
102
RTVSPropertyOp22
 70
     1
102
RTVSPropertyOp23
 70
     1
102
RTVSPropertyOp24
 70
     1
102
RTVSPropertyOp25
 70
     1
102
RTVSPropertyOp26
 70
     1
102
RTVSPropertyOp27
 70
     1
102
RTVSPropertyOp28
 70
     1
102
RTVSPropertyOp29
 70
     1
102
RTVSPropertyOp30
 70
     1
102
RTVSPropertyOp31
 70
     1
102
RTVSPropertyOp32
 70
     1
102
RTVSPropertyOp33
 70
     1
102
RTVSPropertyOp34
 70
     1
102
RTVSPropertyOp35
 70
     1
102
RTVSPropertyOp36
 70
     1
102
RTVSPropertyOp37
 70
     1
102
RTVSPropertyOp38
 70
     1
102
RTVSPropertyOp39
 70
     1
102
RTVSPropertyOp40
 70
     1
102
RTVSPropertyOp41
 70
     1
102
RTVSPropertyOp42
 70
     1
102
RTVSPropertyOp43
 70
     1
102
RTVSPropertyOp44
 70
     1
102
RTVSPropertyOp45
 70
     1
102
RTVSPropertyOp46
 70
     1
102
RTVSPropertyOp47
 70
     1
102
RTVSPropertyOp48
 70
     1
102
RTVSPropertyOp49
 70
     1
102
RTVSPropertyOp50
 70
     1
102
RTVSPropertyOp51
 70
     0
102
RTVSPropertyOp52
 70
     0
102
RTVSPropertyOp53
 70
     1
102
RTVSPropertyOp54
 70
     1
102
RTVSPropertyOp55
 70
     1
102
RTVSPropertyOp56
 70
     1
102
RTVSPropertyOp57
 70
     1
102
RTVSPost2010Prop28
280
     0
102
RTVSPost2010PropOp28
 70
     1
102
RTVSPost2010Prop29
280
     1
102
RTVSPost2010PropOp29
 70
     1
102
RTVSPost2010Prop30
280
     1
102
RTVSPost2010PropOp30
 70
     1
102
RTVSPost2010Prop31
280
     0
102
RTVSPost2010PropOp31
 70
     1
102
RTVSPost2010Prop32
280
     0
102
RTVSPost2010PropOp32
 70
     1
102
RTVSPost2010Prop33
280
     0
102
RTVSPost2010PropOp33
 70
     1
102
RTVSPost2010Prop34
280
     0
102
RTVSPost2010PropOp34
 70
     1
102
RTVSPost2010Prop35
280
     0
102
RTVSPost2010PropOp35
 70
     1
102
RTVSPost2010Prop36
280
     0
102
RTVSPost2010PropOp36
 70
     1
102
RTVSPost2010Prop37
 90
       50
102
RTVSPost2010PropOp37
 70
     1
102
RTVSPost2010Prop38
140
0.0
102
RTVSPost2010PropOp38
 70
     1
102
RTVSPost2010Prop39
140
1.0
102
RTVSPost2010PropOp39
 70
     1
102
RTVSPost2010Prop40
 90
        0
102
RTVSPost2010PropOp40
 70
     1
102
RTVSPost2010Prop41ColorIndex
 90
       18
102
RTVSPost2010Prop41ColorRGB
 90
        0
102
RTVSPost2010PropOp41
 70
     1
102
RTVSPost2010Prop42
 90
       50
102
RTVSPost2010PropOp42
 70
     1
102
RTVSPost2010Prop43
 90
        3
102
RTVSPost2010PropOp43
 70
     1
102
RTVSPost2010Prop44ColorIndex
 90
        5
102
RTVSPost2010Prop44ColorRGB
 90
      255
102
RTVSPost2010PropOp44
 70
     1
102
RTVSPost2010Prop45
280
     0
102
RTVSPost2010PropOp45
 70
     1
102
RTVSPost2010Prop46
 90
       50
102
RTVSPost2010PropOp46
 70
     1
102
RTVSPost2010Prop47
 90
       50
102
RTVSPost2010PropOp47
 70
     1
102
RTVSPost2010Prop48
 90
       50
102
RTVSPost2010PropOp48
 70
     1
102
RTVSPost2010Prop49
280
     0
102
RTVSPost2010PropOp49
 70
     1
102
RTVSPost2010Prop50
 90
       50
102
RTVSPost2010PropOp50
 70
     1
102
RTVSPost2010Prop51ColorIndex
 90
      256
102
RTVSPost2010Prop51ColorRGB
 90
-16777216
102
RTVSPost2010PropOp51
 70
     0
102
RTVSPost2010Prop52
140
1.0
102
RTVSPost2010PropOp52
 70
     0
102
RTVSPost2010Prop53
 90
        2
102
RTVSPost2010PropOp53
 70
     1
102
RTVSPost2010Prop54
  1
strokes_ogs.tif
102
RTVSPost2010PropOp54
 70
     1
102
RTVSPost2010Prop55
280
     0
102
RTVSPost2010PropOp55
 70
     1
102
RTVSPost2010Prop56
140
1.0
102
RTVSPost2010PropOp56
 70
     1
102
RTVSPost2010Prop57
140
1.0
102
RTVSPost2010PropOp57
 70
     1
  0
XRECORD
  5
964B8
102
{ACAD_REACTORS
330
87B0E
102
}
330
87B0E
100
AcDbXrecord
280
     1
102
RTVSPropertyOp0
 70
     1
102
RTVSPropertyOp1
 70
     1
102
RTVSPropertyOp2
 70
     1
102
RTVSPropertyOp3
 70
     1
102
RTVSPropertyOp4
 70
     1
102
RTVSPropertyOp5
 70
     1
102
RTVSPropertyOp6
 70
     1
102
RTVSPropertyOp7
 70
     1
102
RTVSPropertyOp8
 70
     1
102
RTVSPropertyOp9
 70
     1
102
RTVSPropertyOp10
 70
     1
102
RTVSPropertyOp11
 70
     1
102
RTVSPropertyOp12
 70
     1
102
RTVSPropertyOp13
 70
     1
102
RTVSPropertyOp14
 70
     1
102
RTVSPropertyOp15
 70
     1
102
RTVSPropertyOp16
 70
     1
102
RTVSPropertyOp17
 70
     1
102
RTVSPropertyOp18
 70
     1
102
RTVSPropertyOp19
 70
     1
102
RTVSPropertyOp20
 70
     1
102
RTVSPropertyOp21
 70
     1
102
RTVSPropertyOp22
 70
     1
102
RTVSPropertyOp23
 70
     1
102
RTVSPropertyOp24
 70
     1
102
RTVSPropertyOp25
 70
     1
102
RTVSPropertyOp26
 70
     1
102
RTVSPropertyOp27
 70
     1
102
RTVSPropertyOp28
 70
     1
102
RTVSPropertyOp29
 70
     1
102
RTVSPropertyOp30
 70
     1
102
RTVSPropertyOp31
 70
     1
102
RTVSPropertyOp32
 70
     1
102
RTVSPropertyOp33
 70
     1
102
RTVSPropertyOp34
 70
     1
102
RTVSPropertyOp35
 70
     1
102
RTVSPropertyOp36
 70
     1
102
RTVSPropertyOp37
 70
     1
102
RTVSPropertyOp38
 70
     1
102
RTVSPropertyOp39
 70
     1
102
RTVSPropertyOp40
 70
     1
102
RTVSPropertyOp41
 70
     1
102
RTVSPropertyOp42
 70
     1
102
RTVSPropertyOp43
 70
     1
102
RTVSPropertyOp44
 70
     1
102
RTVSPropertyOp45
 70
     1
102
RTVSPropertyOp46
 70
     1
102
RTVSPropertyOp47
 70
     1
102
RTVSPropertyOp48
 70
     1
102
RTVSPropertyOp49
 70
     1
102
RTVSPropertyOp50
 70
     1
102
RTVSPropertyOp51
 70
     0
102
RTVSPropertyOp52
 70
     0
102
RTVSPropertyOp53
 70
     1
102
RTVSPropertyOp54
 70
     1
102
RTVSPropertyOp55
 70
     1
102
RTVSPropertyOp56
 70
     1
102
RTVSPropertyOp57
 70
     1
102
RTVSPost2010Prop28
280
     0
102
RTVSPost2010PropOp28
 70
     1
102
RTVSPost2010Prop29
280
     1
102
RTVSPost2010PropOp29
 70
     1
102
RTVSPost2010Prop30
280
     1
102
RTVSPost2010PropOp30
 70
     1
102
RTVSPost2010Prop31
280
     0
102
RTVSPost2010PropOp31
 70
     1
102
RTVSPost2010Prop32
280
     0
102
RTVSPost2010PropOp32
 70
     1
102
RTVSPost2010Prop33
280
     0
102
RTVSPost2010PropOp33
 70
     1
102
RTVSPost2010Prop34
280
     0
102
RTVSPost2010PropOp34
 70
     1
102
RTVSPost2010Prop35
280
     0
102
RTVSPost2010PropOp35
 70
     1
102
RTVSPost2010Prop36
280
     0
102
RTVSPost2010PropOp36
 70
     1
102
RTVSPost2010Prop37
 90
       50
102
RTVSPost2010PropOp37
 70
     1
102
RTVSPost2010Prop38
140
0.0
102
RTVSPost2010PropOp38
 70
     1
102
RTVSPost2010Prop39
140
1.0
102
RTVSPost2010PropOp39
 70
     1
102
RTVSPost2010Prop40
 90
        0
102
RTVSPost2010PropOp40
 70
     1
102
RTVSPost2010Prop41ColorIndex
 90
       18
102
RTVSPost2010Prop41ColorRGB
 90
        0
102
RTVSPost2010PropOp41
 70
     1
102
RTVSPost2010Prop42
 90
       50
102
RTVSPost2010PropOp42
 70
     1
102
RTVSPost2010Prop43
 90
        3
102
RTVSPost2010PropOp43
 70
     1
102
RTVSPost2010Prop44ColorIndex
 90
        5
102
RTVSPost2010Prop44ColorRGB
 90
      255
102
RTVSPost2010PropOp44
 70
     1
102
RTVSPost2010Prop45
280
     0
102
RTVSPost2010PropOp45
 70
     1
102
RTVSPost2010Prop46
 90
       50
102
RTVSPost2010PropOp46
 70
     1
102
RTVSPost2010Prop47
 90
       50
102
RTVSPost2010PropOp47
 70
     1
102
RTVSPost2010Prop48
 90
       50
102
RTVSPost2010PropOp48
 70
     1
102
RTVSPost2010Prop49
280
     0
102
RTVSPost2010PropOp49
 70
     1
102
RTVSPost2010Prop50
 90
       50
102
RTVSPost2010PropOp50
 70
     1
102
RTVSPost2010Prop51ColorIndex
 90
      256
102
RTVSPost2010Prop51ColorRGB
 90
-16777216
102
RTVSPost2010PropOp51
 70
     0
102
RTVSPost2010Prop52
140
1.0
102
RTVSPost2010PropOp52
 70
     0
102
RTVSPost2010Prop53
 90
        2
102
RTVSPost2010PropOp53
 70
     1
102
RTVSPost2010Prop54
  1
strokes_ogs.tif
102
RTVSPost2010PropOp54
 70
     1
102
RTVSPost2010Prop55
280
     0
102
RTVSPost2010PropOp55
 70
     1
102
RTVSPost2010Prop56
140
1.0
102
RTVSPost2010PropOp56
 70
     1
102
RTVSPost2010Prop57
140
1.0
102
RTVSPost2010PropOp57
 70
     1
  0
XRECORD
  5
964B9
102
{ACAD_REACTORS
330
87B10
102
}
330
87B10
100
AcDbXrecord
280
     1
102
RTVSPropertyOp0
 70
     1
102
RTVSPropertyOp1
 70
     1
102
RTVSPropertyOp2
 70
     1
102
RTVSPropertyOp3
 70
     1
102
RTVSPropertyOp4
 70
     1
102
RTVSPropertyOp5
 70
     1
102
RTVSPropertyOp6
 70
     1
102
RTVSPropertyOp7
 70
     1
102
RTVSPropertyOp8
 70
     1
102
RTVSPropertyOp9
 70
     1
102
RTVSPropertyOp10
 70
     1
102
RTVSPropertyOp11
 70
     1
102
RTVSPropertyOp12
 70
     1
102
RTVSPropertyOp13
 70
     1
102
RTVSPropertyOp14
 70
     1
102
RTVSPropertyOp15
 70
     1
102
RTVSPropertyOp16
 70
     1
102
RTVSPropertyOp17
 70
     1
102
RTVSPropertyOp18
 70
     1
102
RTVSPropertyOp19
 70
     1
102
RTVSPropertyOp20
 70
     1
102
RTVSPropertyOp21
 70
     1
102
RTVSPropertyOp22
 70
     1
102
RTVSPropertyOp23
 70
     1
102
RTVSPropertyOp24
 70
     1
102
RTVSPropertyOp25
 70
     1
102
RTVSPropertyOp26
 70
     1
102
RTVSPropertyOp27
 70
     1
102
RTVSPropertyOp28
 70
     1
102
RTVSPropertyOp29
 70
     1
102
RTVSPropertyOp30
 70
     1
102
RTVSPropertyOp31
 70
     1
102
RTVSPropertyOp32
 70
     1
102
RTVSPropertyOp33
 70
     1
102
RTVSPropertyOp34
 70
     1
102
RTVSPropertyOp35
 70
     1
102
RTVSPropertyOp36
 70
     1
102
RTVSPropertyOp37
 70
     1
102
RTVSPropertyOp38
 70
     1
102
RTVSPropertyOp39
 70
     1
102
RTVSPropertyOp40
 70
     1
102
RTVSPropertyOp41
 70
     1
102
RTVSPropertyOp42
 70
     1
102
RTVSPropertyOp43
 70
     1
102
RTVSPropertyOp44
 70
     1
102
RTVSPropertyOp45
 70
     1
102
RTVSPropertyOp46
 70
     1
102
RTVSPropertyOp47
 70
     1
102
RTVSPropertyOp48
 70
     1
102
RTVSPropertyOp49
 70
     1
102
RTVSPropertyOp50
 70
     1
102
RTVSPropertyOp51
 70
     0
102
RTVSPropertyOp52
 70
     0
102
RTVSPropertyOp53
 70
     1
102
RTVSPropertyOp54
 70
     1
102
RTVSPropertyOp55
 70
     1
102
RTVSPropertyOp56
 70
     1
102
RTVSPropertyOp57
 70
     1
102
RTVSPost2010Prop28
280
     0
102
RTVSPost2010PropOp28
 70
     1
102
RTVSPost2010Prop29
280
     1
102
RTVSPost2010PropOp29
 70
     1
102
RTVSPost2010Prop30
280
     1
102
RTVSPost2010PropOp30
 70
     1
102
RTVSPost2010Prop31
280
     0
102
RTVSPost2010PropOp31
 70
     1
102
RTVSPost2010Prop32
280
     0
102
RTVSPost2010PropOp32
 70
     1
102
RTVSPost2010Prop33
280
     0
102
RTVSPost2010PropOp33
 70
     1
102
RTVSPost2010Prop34
280
     0
102
RTVSPost2010PropOp34
 70
     1
102
RTVSPost2010Prop35
280
     0
102
RTVSPost2010PropOp35
 70
     1
102
RTVSPost2010Prop36
280
     0
102
RTVSPost2010PropOp36
 70
     1
102
RTVSPost2010Prop37
 90
       50
102
RTVSPost2010PropOp37
 70
     1
102
RTVSPost2010Prop38
140
0.0
102
RTVSPost2010PropOp38
 70
     1
102
RTVSPost2010Prop39
140
1.0
102
RTVSPost2010PropOp39
 70
     1
102
RTVSPost2010Prop40
 90
        0
102
RTVSPost2010PropOp40
 70
     1
102
RTVSPost2010Prop41ColorIndex
 90
       18
102
RTVSPost2010Prop41ColorRGB
 90
        0
102
RTVSPost2010PropOp41
 70
     1
102
RTVSPost2010Prop42
 90
       50
102
RTVSPost2010PropOp42
 70
     1
102
RTVSPost2010Prop43
 90
        3
102
RTVSPost2010PropOp43
 70
     1
102
RTVSPost2010Prop44ColorIndex
 90
        5
102
RTVSPost2010Prop44ColorRGB
 90
      255
102
RTVSPost2010PropOp44
 70
     1
102
RTVSPost2010Prop45
280
     0
102
RTVSPost2010PropOp45
 70
     1
102
RTVSPost2010Prop46
 90
       50
102
RTVSPost2010PropOp46
 70
     1
102
RTVSPost2010Prop47
 90
       50
102
RTVSPost2010PropOp47
 70
     1
102
RTVSPost2010Prop48
 90
       50
102
RTVSPost2010PropOp48
 70
     1
102
RTVSPost2010Prop49
280
     0
102
RTVSPost2010PropOp49
 70
     1
102
RTVSPost2010Prop50
 90
       50
102
RTVSPost2010PropOp50
 70
     1
102
RTVSPost2010Prop51ColorIndex
 90
      256
102
RTVSPost2010Prop51ColorRGB
 90
-16777216
102
RTVSPost2010PropOp51
 70
     0
102
RTVSPost2010Prop52
140
1.0
102
RTVSPost2010PropOp52
 70
     0
102
RTVSPost2010Prop53
 90
        2
102
RTVSPost2010PropOp53
 70
     1
102
RTVSPost2010Prop54
  1
strokes_ogs.tif
102
RTVSPost2010PropOp54
 70
     1
102
RTVSPost2010Prop55
280
     0
102
RTVSPost2010PropOp55
 70
     1
102
RTVSPost2010Prop56
140
1.0
102
RTVSPost2010PropOp56
 70
     1
102
RTVSPost2010Prop57
140
1.0
102
RTVSPost2010PropOp57
 70
     1
  0
XRECORD
  5
964BA
102
{ACAD_REACTORS
330
87B12
102
}
330
87B12
100
AcDbXrecord
280
     1
102
RTVSPropertyOp0
 70
     1
102
RTVSPropertyOp1
 70
     1
102
RTVSPropertyOp2
 70
     1
102
RTVSPropertyOp3
 70
     1
102
RTVSPropertyOp4
 70
     1
102
RTVSPropertyOp5
 70
     1
102
RTVSPropertyOp6
 70
     1
102
RTVSPropertyOp7
 70
     1
102
RTVSPropertyOp8
 70
     1
102
RTVSPropertyOp9
 70
     1
102
RTVSPropertyOp10
 70
     1
102
RTVSPropertyOp11
 70
     1
102
RTVSPropertyOp12
 70
     1
102
RTVSPropertyOp13
 70
     1
102
RTVSPropertyOp14
 70
     1
102
RTVSPropertyOp15
 70
     1
102
RTVSPropertyOp16
 70
     1
102
RTVSPropertyOp17
 70
     1
102
RTVSPropertyOp18
 70
     1
102
RTVSPropertyOp19
 70
     1
102
RTVSPropertyOp20
 70
     1
102
RTVSPropertyOp21
 70
     1
102
RTVSPropertyOp22
 70
     1
102
RTVSPropertyOp23
 70
     1
102
RTVSPropertyOp24
 70
     1
102
RTVSPropertyOp25
 70
     1
102
RTVSPropertyOp26
 70
     1
102
RTVSPropertyOp27
 70
     1
102
RTVSPropertyOp28
 70
     1
102
RTVSPropertyOp29
 70
     1
102
RTVSPropertyOp30
 70
     1
102
RTVSPropertyOp31
 70
     1
102
RTVSPropertyOp32
 70
     1
102
RTVSPropertyOp33
 70
     1
102
RTVSPropertyOp34
 70
     1
102
RTVSPropertyOp35
 70
     1
102
RTVSPropertyOp36
 70
     1
102
RTVSPropertyOp37
 70
     1
102
RTVSPropertyOp38
 70
     1
102
RTVSPropertyOp39
 70
     1
102
RTVSPropertyOp40
 70
     1
102
RTVSPropertyOp41
 70
     1
102
RTVSPropertyOp42
 70
     1
102
RTVSPropertyOp43
 70
     1
102
RTVSPropertyOp44
 70
     1
102
RTVSPropertyOp45
 70
     1
102
RTVSPropertyOp46
 70
     1
102
RTVSPropertyOp47
 70
     1
102
RTVSPropertyOp48
 70
     1
102
RTVSPropertyOp49
 70
     1
102
RTVSPropertyOp50
 70
     1
102
RTVSPropertyOp51
 70
     0
102
RTVSPropertyOp52
 70
     0
102
RTVSPropertyOp53
 70
     1
102
RTVSPropertyOp54
 70
     1
102
RTVSPropertyOp55
 70
     1
102
RTVSPropertyOp56
 70
     1
102
RTVSPropertyOp57
 70
     1
102
RTVSPost2010Prop28
280
     0
102
RTVSPost2010PropOp28
 70
     1
102
RTVSPost2010Prop29
280
     1
102
RTVSPost2010PropOp29
 70
     1
102
RTVSPost2010Prop30
280
     1
102
RTVSPost2010PropOp30
 70
     1
102
RTVSPost2010Prop31
280
     0
102
RTVSPost2010PropOp31
 70
     1
102
RTVSPost2010Prop32
280
     0
102
RTVSPost2010PropOp32
 70
     1
102
RTVSPost2010Prop33
280
     0
102
RTVSPost2010PropOp33
 70
     1
102
RTVSPost2010Prop34
280
     0
102
RTVSPost2010PropOp34
 70
     1
102
RTVSPost2010Prop35
280
     0
102
RTVSPost2010PropOp35
 70
     1
102
RTVSPost2010Prop36
280
     0
102
RTVSPost2010PropOp36
 70
     1
102
RTVSPost2010Prop37
 90
       50
102
RTVSPost2010PropOp37
 70
     1
102
RTVSPost2010Prop38
140
0.0
102
RTVSPost2010PropOp38
 70
     1
102
RTVSPost2010Prop39
140
1.0
102
RTVSPost2010PropOp39
 70
     1
102
RTVSPost2010Prop40
 90
        0
102
RTVSPost2010PropOp40
 70
     1
102
RTVSPost2010Prop41ColorIndex
 90
       18
102
RTVSPost2010Prop41ColorRGB
 90
        0
102
RTVSPost2010PropOp41
 70
     1
102
RTVSPost2010Prop42
 90
       50
102
RTVSPost2010PropOp42
 70
     1
102
RTVSPost2010Prop43
 90
        3
102
RTVSPost2010PropOp43
 70
     1
102
RTVSPost2010Prop44ColorIndex
 90
        5
102
RTVSPost2010Prop44ColorRGB
 90
      255
102
RTVSPost2010PropOp44
 70
     1
102
RTVSPost2010Prop45
280
     0
102
RTVSPost2010PropOp45
 70
     1
102
RTVSPost2010Prop46
 90
       50
102
RTVSPost2010PropOp46
 70
     1
102
RTVSPost2010Prop47
 90
       50
102
RTVSPost2010PropOp47
 70
     1
102
RTVSPost2010Prop48
 90
       50
102
RTVSPost2010PropOp48
 70
     1
102
RTVSPost2010Prop49
280
     0
102
RTVSPost2010PropOp49
 70
     1
102
RTVSPost2010Prop50
 90
       50
102
RTVSPost2010PropOp50
 70
     1
102
RTVSPost2010Prop51ColorIndex
 90
      256
102
RTVSPost2010Prop51ColorRGB
 90
-16777216
102
RTVSPost2010PropOp51
 70
     0
102
RTVSPost2010Prop52
140
1.0
102
RTVSPost2010PropOp52
 70
     0
102
RTVSPost2010Prop53
 90
        2
102
RTVSPost2010PropOp53
 70
     1
102
RTVSPost2010Prop54
  1
strokes_ogs.tif
102
RTVSPost2010PropOp54
 70
     1
102
RTVSPost2010Prop55
280
     0
102
RTVSPost2010PropOp55
 70
     1
102
RTVSPost2010Prop56
140
1.0
102
RTVSPost2010PropOp56
 70
     1
102
RTVSPost2010Prop57
140
1.0
102
RTVSPost2010PropOp57
 70
     1
  0
XRECORD
  5
964BB
102
{ACAD_REACTORS
330
87B14
102
}
330
87B14
100
AcDbXrecord
280
     1
102
RTVSPropertyOp0
 70
     1
102
RTVSPropertyOp1
 70
     1
102
RTVSPropertyOp2
 70
     1
102
RTVSPropertyOp3
 70
     1
102
RTVSPropertyOp4
 70
     1
102
RTVSPropertyOp5
 70
     1
102
RTVSPropertyOp6
 70
     1
102
RTVSPropertyOp7
 70
     1
102
RTVSPropertyOp8
 70
     1
102
RTVSPropertyOp9
 70
     1
102
RTVSPropertyOp10
 70
     1
102
RTVSPropertyOp11
 70
     1
102
RTVSPropertyOp12
 70
     1
102
RTVSPropertyOp13
 70
     1
102
RTVSPropertyOp14
 70
     1
102
RTVSPropertyOp15
 70
     1
102
RTVSPropertyOp16
 70
     1
102
RTVSPropertyOp17
 70
     1
102
RTVSPropertyOp18
 70
     1
102
RTVSPropertyOp19
 70
     1
102
RTVSPropertyOp20
 70
     1
102
RTVSPropertyOp21
 70
     1
102
RTVSPropertyOp22
 70
     1
102
RTVSPropertyOp23
 70
     1
102
RTVSPropertyOp24
 70
     1
102
RTVSPropertyOp25
 70
     1
102
RTVSPropertyOp26
 70
     1
102
RTVSPropertyOp27
 70
     1
102
RTVSPropertyOp28
 70
     1
102
RTVSPropertyOp29
 70
     1
102
RTVSPropertyOp30
 70
     1
102
RTVSPropertyOp31
 70
     1
102
RTVSPropertyOp32
 70
     1
102
RTVSPropertyOp33
 70
     1
102
RTVSPropertyOp34
 70
     1
102
RTVSPropertyOp35
 70
     1
102
RTVSPropertyOp36
 70
     1
102
RTVSPropertyOp37
 70
     1
102
RTVSPropertyOp38
 70
     1
102
RTVSPropertyOp39
 70
     1
102
RTVSPropertyOp40
 70
     1
102
RTVSPropertyOp41
 70
     1
102
RTVSPropertyOp42
 70
     1
102
RTVSPropertyOp43
 70
     1
102
RTVSPropertyOp44
 70
     1
102
RTVSPropertyOp45
 70
     1
102
RTVSPropertyOp46
 70
     1
102
RTVSPropertyOp47
 70
     1
102
RTVSPropertyOp48
 70
     1
102
RTVSPropertyOp49
 70
     1
102
RTVSPropertyOp50
 70
     1
102
RTVSPropertyOp51
 70
     0
102
RTVSPropertyOp52
 70
     0
102
RTVSPropertyOp53
 70
     1
102
RTVSPropertyOp54
 70
     1
102
RTVSPropertyOp55
 70
     1
102
RTVSPropertyOp56
 70
     1
102
RTVSPropertyOp57
 70
     1
102
RTVSPost2010Prop28
280
     0
102
RTVSPost2010PropOp28
 70
     1
102
RTVSPost2010Prop29
280
     1
102
RTVSPost2010PropOp29
 70
     1
102
RTVSPost2010Prop30
280
     1
102
RTVSPost2010PropOp30
 70
     1
102
RTVSPost2010Prop31
280
     0
102
RTVSPost2010PropOp31
 70
     1
102
RTVSPost2010Prop32
280
     0
102
RTVSPost2010PropOp32
 70
     1
102
RTVSPost2010Prop33
280
     0
102
RTVSPost2010PropOp33
 70
     1
102
RTVSPost2010Prop34
280
     0
102
RTVSPost2010PropOp34
 70
     1
102
RTVSPost2010Prop35
280
     0
102
RTVSPost2010PropOp35
 70
     1
102
RTVSPost2010Prop36
280
     0
102
RTVSPost2010PropOp36
 70
     1
102
RTVSPost2010Prop37
 90
       50
102
RTVSPost2010PropOp37
 70
     1
102
RTVSPost2010Prop38
140
0.0
102
RTVSPost2010PropOp38
 70
     1
102
RTVSPost2010Prop39
140
1.0
102
RTVSPost2010PropOp39
 70
     1
102
RTVSPost2010Prop40
 90
        0
102
RTVSPost2010PropOp40
 70
     1
102
RTVSPost2010Prop41ColorIndex
 90
       18
102
RTVSPost2010Prop41ColorRGB
 90
        0
102
RTVSPost2010PropOp41
 70
     1
102
RTVSPost2010Prop42
 90
       50
102
RTVSPost2010PropOp42
 70
     1
102
RTVSPost2010Prop43
 90
        3
102
RTVSPost2010PropOp43
 70
     1
102
RTVSPost2010Prop44ColorIndex
 90
        5
102
RTVSPost2010Prop44ColorRGB
 90
      255
102
RTVSPost2010PropOp44
 70
     1
102
RTVSPost2010Prop45
280
     0
102
RTVSPost2010PropOp45
 70
     1
102
RTVSPost2010Prop46
 90
       50
102
RTVSPost2010PropOp46
 70
     1
102
RTVSPost2010Prop47
 90
       50
102
RTVSPost2010PropOp47
 70
     1
102
RTVSPost2010Prop48
 90
       50
102
RTVSPost2010PropOp48
 70
     1
102
RTVSPost2010Prop49
280
     0
102
RTVSPost2010PropOp49
 70
     1
102
RTVSPost2010Prop50
 90
       50
102
RTVSPost2010PropOp50
 70
     1
102
RTVSPost2010Prop51ColorIndex
 90
      256
102
RTVSPost2010Prop51ColorRGB
 90
-16777216
102
RTVSPost2010PropOp51
 70
     0
102
RTVSPost2010Prop52
140
1.0
102
RTVSPost2010PropOp52
 70
     0
102
RTVSPost2010Prop53
 90
        2
102
RTVSPost2010PropOp53
 70
     1
102
RTVSPost2010Prop54
  1
strokes_ogs.tif
102
RTVSPost2010PropOp54
 70
     1
102
RTVSPost2010Prop55
280
     0
102
RTVSPost2010PropOp55
 70
     1
102
RTVSPost2010Prop56
140
1.0
102
RTVSPost2010PropOp56
 70
     1
102
RTVSPost2010Prop57
140
1.0
102
RTVSPost2010PropOp57
 70
     1
  0
XRECORD
  5
964BC
102
{ACAD_REACTORS
330
87B1C
102
}
330
87B1C
100
AcDbXrecord
280
     1
102
RTVSPropertyOp0
 70
     1
102
RTVSPropertyOp1
 70
     1
102
RTVSPropertyOp2
 70
     1
102
RTVSPropertyOp3
 70
     1
102
RTVSPropertyOp4
 70
     1
102
RTVSPropertyOp5
 70
     1
102
RTVSPropertyOp6
 70
     1
102
RTVSPropertyOp7
 70
     1
102
RTVSPropertyOp8
 70
     1
102
RTVSPropertyOp9
 70
     1
102
RTVSPropertyOp10
 70
     1
102
RTVSPropertyOp11
 70
     1
102
RTVSPropertyOp12
 70
     1
102
RTVSPropertyOp13
 70
     1
102
RTVSPropertyOp14
 70
     1
102
RTVSPropertyOp15
 70
     1
102
RTVSPropertyOp16
 70
     1
102
RTVSPropertyOp17
 70
     1
102
RTVSPropertyOp18
 70
     1
102
RTVSPropertyOp19
 70
     1
102
RTVSPropertyOp20
 70
     1
102
RTVSPropertyOp21
 70
     1
102
RTVSPropertyOp22
 70
     1
102
RTVSPropertyOp23
 70
     1
102
RTVSPropertyOp24
 70
     1
102
RTVSPropertyOp25
 70
     1
102
RTVSPropertyOp26
 70
     1
102
RTVSPropertyOp27
 70
     1
102
RTVSPropertyOp28
 70
     1
102
RTVSPropertyOp29
 70
     1
102
RTVSPropertyOp30
 70
     1
102
RTVSPropertyOp31
 70
     1
102
RTVSPropertyOp32
 70
     1
102
RTVSPropertyOp33
 70
     1
102
RTVSPropertyOp34
 70
     1
102
RTVSPropertyOp35
 70
     1
102
RTVSPropertyOp36
 70
     1
102
RTVSPropertyOp37
 70
     1
102
RTVSPropertyOp38
 70
     1
102
RTVSPropertyOp39
 70
     1
102
RTVSPropertyOp40
 70
     1
102
RTVSPropertyOp41
 70
     1
102
RTVSPropertyOp42
 70
     1
102
RTVSPropertyOp43
 70
     1
102
RTVSPropertyOp44
 70
     1
102
RTVSPropertyOp45
 70
     1
102
RTVSPropertyOp46
 70
     1
102
RTVSPropertyOp47
 70
     1
102
RTVSPropertyOp48
 70
     1
102
RTVSPropertyOp49
 70
     1
102
RTVSPropertyOp50
 70
     1
102
RTVSPropertyOp51
 70
     0
102
RTVSPropertyOp52
 70
     0
102
RTVSPropertyOp53
 70
     1
102
RTVSPropertyOp54
 70
     1
102
RTVSPropertyOp55
 70
     1
102
RTVSPropertyOp56
 70
     1
102
RTVSPropertyOp57
 70
     1
102
RTVSPost2010Prop28
280
     0
102
RTVSPost2010PropOp28
 70
     1
102
RTVSPost2010Prop29
280
     1
102
RTVSPost2010PropOp29
 70
     1
102
RTVSPost2010Prop30
280
     1
102
RTVSPost2010PropOp30
 70
     1
102
RTVSPost2010Prop31
280
     0
102
RTVSPost2010PropOp31
 70
     1
102
RTVSPost2010Prop32
280
     0
102
RTVSPost2010PropOp32
 70
     1
102
RTVSPost2010Prop33
280
     0
102
RTVSPost2010PropOp33
 70
     1
102
RTVSPost2010Prop34
280
     0
102
RTVSPost2010PropOp34
 70
     1
102
RTVSPost2010Prop35
280
     0
102
RTVSPost2010PropOp35
 70
     1
102
RTVSPost2010Prop36
280
     0
102
RTVSPost2010PropOp36
 70
     1
102
RTVSPost2010Prop37
 90
       50
102
RTVSPost2010PropOp37
 70
     1
102
RTVSPost2010Prop38
140
0.0
102
RTVSPost2010PropOp38
 70
     1
102
RTVSPost2010Prop39
140
1.0
102
RTVSPost2010PropOp39
 70
     1
102
RTVSPost2010Prop40
 90
        0
102
RTVSPost2010PropOp40
 70
     1
102
RTVSPost2010Prop41ColorIndex
 90
       18
102
RTVSPost2010Prop41ColorRGB
 90
        0
102
RTVSPost2010PropOp41
 70
     1
102
RTVSPost2010Prop42
 90
       50
102
RTVSPost2010PropOp42
 70
     1
102
RTVSPost2010Prop43
 90
        3
102
RTVSPost2010PropOp43
 70
     1
102
RTVSPost2010Prop44ColorIndex
 90
        5
102
RTVSPost2010Prop44ColorRGB
 90
      255
102
RTVSPost2010PropOp44
 70
     1
102
RTVSPost2010Prop45
280
     0
102
RTVSPost2010PropOp45
 70
     1
102
RTVSPost2010Prop46
 90
       50
102
RTVSPost2010PropOp46
 70
     1
102
RTVSPost2010Prop47
 90
       50
102
RTVSPost2010PropOp47
 70
     1
102
RTVSPost2010Prop48
 90
       50
102
RTVSPost2010PropOp48
 70
     1
102
RTVSPost2010Prop49
280
     0
102
RTVSPost2010PropOp49
 70
     1
102
RTVSPost2010Prop50
 90
       50
102
RTVSPost2010PropOp50
 70
     1
102
RTVSPost2010Prop51ColorIndex
 90
      256
102
RTVSPost2010Prop51ColorRGB
 90
-16777216
102
RTVSPost2010PropOp51
 70
     0
102
RTVSPost2010Prop52
140
1.0
102
RTVSPost2010PropOp52
 70
     0
102
RTVSPost2010Prop53
 90
        2
102
RTVSPost2010PropOp53
 70
     1
102
RTVSPost2010Prop54
  1
strokes_ogs.tif
102
RTVSPost2010PropOp54
 70
     1
102
RTVSPost2010Prop55
280
     0
102
RTVSPost2010PropOp55
 70
     1
102
RTVSPost2010Prop56
140
1.0
102
RTVSPost2010PropOp56
 70
     1
102
RTVSPost2010Prop57
140
1.0
102
RTVSPost2010PropOp57
 70
     1
  0
XRECORD
  5
964BD
102
{ACAD_REACTORS
330
87B38
102
}
330
87B38
100
AcDbXrecord
280
     1
102
RTVSPropertyOp0
 70
     0
102
RTVSPropertyOp1
 70
     0
102
RTVSPropertyOp2
 70
     0
102
RTVSPropertyOp3
 70
     0
102
RTVSPropertyOp4
 70
     0
102
RTVSPropertyOp5
 70
     0
102
RTVSPropertyOp6
 70
     0
102
RTVSPropertyOp7
 70
     0
102
RTVSPropertyOp8
 70
     0
102
RTVSPropertyOp9
 70
     0
102
RTVSPropertyOp10
 70
     0
102
RTVSPropertyOp11
 70
     0
102
RTVSPropertyOp12
 70
     0
102
RTVSPropertyOp13
 70
     0
102
RTVSPropertyOp14
 70
     2
102
RTVSPropertyOp15
 70
     0
102
RTVSPropertyOp16
 70
     0
102
RTVSPropertyOp17
 70
     0
102
RTVSPropertyOp18
 70
     0
102
RTVSPropertyOp19
 70
     0
102
RTVSPropertyOp20
 70
     0
102
RTVSPropertyOp21
 70
     0
102
RTVSPropertyOp22
 70
     0
102
RTVSPropertyOp23
 70
     0
102
RTVSPropertyOp24
 70
     0
102
RTVSPropertyOp25
 70
     0
102
RTVSPropertyOp26
 70
     0
102
RTVSPropertyOp27
 70
     0
102
RTVSPropertyOp28
 70
     1
102
RTVSPropertyOp29
 70
     1
102
RTVSPropertyOp30
 70
     1
102
RTVSPropertyOp31
 70
     1
102
RTVSPropertyOp32
 70
     1
102
RTVSPropertyOp33
 70
     1
102
RTVSPropertyOp34
 70
     1
102
RTVSPropertyOp35
 70
     1
102
RTVSPropertyOp36
 70
     1
102
RTVSPropertyOp37
 70
     0
102
RTVSPropertyOp38
 70
     0
102
RTVSPropertyOp39
 70
     0
102
RTVSPropertyOp40
 70
     0
102
RTVSPropertyOp41
 70
     0
102
RTVSPropertyOp42
 70
     0
102
RTVSPropertyOp43
 70
     0
102
RTVSPropertyOp44
 70
     0
102
RTVSPropertyOp45
 70
     1
102
RTVSPropertyOp46
 70
     0
102
RTVSPropertyOp47
 70
     0
102
RTVSPropertyOp48
 70
     0
102
RTVSPropertyOp49
 70
     1
102
RTVSPropertyOp50
 70
     0
102
RTVSPropertyOp51
 70
     0
102
RTVSPropertyOp52
 70
     0
102
RTVSPropertyOp53
 70
     0
102
RTVSPropertyOp54
 70
     0
102
RTVSPropertyOp55
 70
     1
102
RTVSPropertyOp56
 70
     0
102
RTVSPropertyOp57
 70
     0
102
RTVSPost2010Prop28
280
     0
102
RTVSPost2010PropOp28
 70
     1
102
RTVSPost2010Prop29
280
     1
102
RTVSPost2010PropOp29
 70
     1
102
RTVSPost2010Prop30
280
     1
102
RTVSPost2010PropOp30
 70
     1
102
RTVSPost2010Prop31
280
     0
102
RTVSPost2010PropOp31
 70
     1
102
RTVSPost2010Prop32
280
     0
102
RTVSPost2010PropOp32
 70
     1
102
RTVSPost2010Prop33
280
     0
102
RTVSPost2010PropOp33
 70
     1
102
RTVSPost2010Prop34
280
     0
102
RTVSPost2010PropOp34
 70
     1
102
RTVSPost2010Prop35
280
     0
102
RTVSPost2010PropOp35
 70
     1
102
RTVSPost2010Prop36
280
     0
102
RTVSPost2010PropOp36
 70
     1
102
RTVSPost2010Prop37
 90
       50
102
RTVSPost2010PropOp37
 70
     0
102
RTVSPost2010Prop38
140
0.0
102
RTVSPost2010PropOp38
 70
     0
102
RTVSPost2010Prop39
140
1.0
102
RTVSPost2010PropOp39
 70
     0
102
RTVSPost2010Prop40
 90
        0
102
RTVSPost2010PropOp40
 70
     0
102
RTVSPost2010Prop41ColorIndex
 90
       18
102
RTVSPost2010Prop41ColorRGB
 90
        0
102
RTVSPost2010PropOp41
 70
     0
102
RTVSPost2010Prop42
 90
       50
102
RTVSPost2010PropOp42
 70
     0
102
RTVSPost2010Prop43
 90
        3
102
RTVSPost2010PropOp43
 70
     0
102
RTVSPost2010Prop44ColorIndex
 90
        5
102
RTVSPost2010Prop44ColorRGB
 90
      255
102
RTVSPost2010PropOp44
 70
     0
102
RTVSPost2010Prop45
280
     0
102
RTVSPost2010PropOp45
 70
     1
102
RTVSPost2010Prop46
 90
       50
102
RTVSPost2010PropOp46
 70
     0
102
RTVSPost2010Prop47
 90
       50
102
RTVSPost2010PropOp47
 70
     0
102
RTVSPost2010Prop48
 90
       50
102
RTVSPost2010PropOp48
 70
     0
102
RTVSPost2010Prop49
280
     0
102
RTVSPost2010PropOp49
 70
     1
102
RTVSPost2010Prop50
 90
       50
102
RTVSPost2010PropOp50
 70
     0
102
RTVSPost2010Prop51ColorIndex
 90
      256
102
RTVSPost2010Prop51ColorRGB
 90
-16777216
102
RTVSPost2010PropOp51
 70
     0
102
RTVSPost2010Prop52
140
1.0
102
RTVSPost2010PropOp52
 70
     0
102
RTVSPost2010Prop53
 90
        2
102
RTVSPost2010PropOp53
 70
     0
102
RTVSPost2010Prop54
  1
strokes_ogs.tif
102
RTVSPost2010PropOp54
 70
     0
102
RTVSPost2010Prop55
280
     0
102
RTVSPost2010PropOp55
 70
     1
102
RTVSPost2010Prop56
140
1.0
102
RTVSPost2010PropOp56
 70
     0
102
RTVSPost2010Prop57
140
1.0
102
RTVSPost2010PropOp57
 70
     0
  0
XRECORD
  5
964BE
102
{ACAD_REACTORS
330
87B28
102
}
330
87B28
100
AcDbXrecord
280
     1
102
RTVSPropertyOp0
 70
     1
102
RTVSPropertyOp1
 70
     1
102
RTVSPropertyOp2
 70
     1
102
RTVSPropertyOp3
 70
     1
102
RTVSPropertyOp4
 70
     1
102
RTVSPropertyOp5
 70
     1
102
RTVSPropertyOp6
 70
     1
102
RTVSPropertyOp7
 70
     1
102
RTVSPropertyOp8
 70
     1
102
RTVSPropertyOp9
 70
     1
102
RTVSPropertyOp10
 70
     1
102
RTVSPropertyOp11
 70
     1
102
RTVSPropertyOp12
 70
     1
102
RTVSPropertyOp13
 70
     1
102
RTVSPropertyOp14
 70
     1
102
RTVSPropertyOp15
 70
     1
102
RTVSPropertyOp16
 70
     1
102
RTVSPropertyOp17
 70
     1
102
RTVSPropertyOp18
 70
     1
102
RTVSPropertyOp19
 70
     1
102
RTVSPropertyOp20
 70
     1
102
RTVSPropertyOp21
 70
     1
102
RTVSPropertyOp22
 70
     1
102
RTVSPropertyOp23
 70
     1
102
RTVSPropertyOp24
 70
     1
102
RTVSPropertyOp25
 70
     1
102
RTVSPropertyOp26
 70
     1
102
RTVSPropertyOp27
 70
     1
102
RTVSPropertyOp28
 70
     1
102
RTVSPropertyOp29
 70
     1
102
RTVSPropertyOp30
 70
     1
102
RTVSPropertyOp31
 70
     1
102
RTVSPropertyOp32
 70
     1
102
RTVSPropertyOp33
 70
     1
102
RTVSPropertyOp34
 70
     1
102
RTVSPropertyOp35
 70
     1
102
RTVSPropertyOp36
 70
     1
102
RTVSPropertyOp37
 70
     1
102
RTVSPropertyOp38
 70
     1
102
RTVSPropertyOp39
 70
     1
102
RTVSPropertyOp40
 70
     1
102
RTVSPropertyOp41
 70
     1
102
RTVSPropertyOp42
 70
     1
102
RTVSPropertyOp43
 70
     1
102
RTVSPropertyOp44
 70
     1
102
RTVSPropertyOp45
 70
     1
102
RTVSPropertyOp46
 70
     1
102
RTVSPropertyOp47
 70
     1
102
RTVSPropertyOp48
 70
     1
102
RTVSPropertyOp49
 70
     1
102
RTVSPropertyOp50
 70
     1
102
RTVSPropertyOp51
 70
     0
102
RTVSPropertyOp52
 70
     0
102
RTVSPropertyOp53
 70
     1
102
RTVSPropertyOp54
 70
     1
102
RTVSPropertyOp55
 70
     1
102
RTVSPropertyOp56
 70
     1
102
RTVSPropertyOp57
 70
     1
102
RTVSPost2010Prop28
280
     0
102
RTVSPost2010PropOp28
 70
     1
102
RTVSPost2010Prop29
280
     1
102
RTVSPost2010PropOp29
 70
     1
102
RTVSPost2010Prop30
280
     1
102
RTVSPost2010PropOp30
 70
     1
102
RTVSPost2010Prop31
280
     0
102
RTVSPost2010PropOp31
 70
     1
102
RTVSPost2010Prop32
280
     0
102
RTVSPost2010PropOp32
 70
     1
102
RTVSPost2010Prop33
280
     0
102
RTVSPost2010PropOp33
 70
     1
102
RTVSPost2010Prop34
280
     0
102
RTVSPost2010PropOp34
 70
     1
102
RTVSPost2010Prop35
280
     0
102
RTVSPost2010PropOp35
 70
     1
102
RTVSPost2010Prop36
280
     0
102
RTVSPost2010PropOp36
 70
     1
102
RTVSPost2010Prop37
 90
       50
102
RTVSPost2010PropOp37
 70
     1
102
RTVSPost2010Prop38
140
0.0
102
RTVSPost2010PropOp38
 70
     1
102
RTVSPost2010Prop39
140
1.0
102
RTVSPost2010PropOp39
 70
     1
102
RTVSPost2010Prop40
 90
        0
102
RTVSPost2010PropOp40
 70
     1
102
RTVSPost2010Prop41ColorIndex
 90
       18
102
RTVSPost2010Prop41ColorRGB
 90
        0
102
RTVSPost2010PropOp41
 70
     1
102
RTVSPost2010Prop42
 90
       50
102
RTVSPost2010PropOp42
 70
     1
102
RTVSPost2010Prop43
 90
        3
102
RTVSPost2010PropOp43
 70
     1
102
RTVSPost2010Prop44ColorIndex
 90
        5
102
RTVSPost2010Prop44ColorRGB
 90
      255
102
RTVSPost2010PropOp44
 70
     1
102
RTVSPost2010Prop45
280
     0
102
RTVSPost2010PropOp45
 70
     1
102
RTVSPost2010Prop46
 90
       50
102
RTVSPost2010PropOp46
 70
     1
102
RTVSPost2010Prop47
 90
       50
102
RTVSPost2010PropOp47
 70
     1
102
RTVSPost2010Prop48
 90
       50
102
RTVSPost2010PropOp48
 70
     1
102
RTVSPost2010Prop49
280
     0
102
RTVSPost2010PropOp49
 70
     1
102
RTVSPost2010Prop50
 90
       50
102
RTVSPost2010PropOp50
 70
     1
102
RTVSPost2010Prop51ColorIndex
 90
      256
102
RTVSPost2010Prop51ColorRGB
 90
-16777216
102
RTVSPost2010PropOp51
 70
     0
102
RTVSPost2010Prop52
140
1.0
102
RTVSPost2010PropOp52
 70
     0
102
RTVSPost2010Prop53
 90
        2
102
RTVSPost2010PropOp53
 70
     1
102
RTVSPost2010Prop54
  1
strokes_ogs.tif
102
RTVSPost2010PropOp54
 70
     1
102
RTVSPost2010Prop55
280
     0
102
RTVSPost2010PropOp55
 70
     1
102
RTVSPost2010Prop56
140
1.0
102
RTVSPost2010PropOp56
 70
     1
102
RTVSPost2010Prop57
140
1.0
102
RTVSPost2010PropOp57
 70
     1
  0
XRECORD
  5
964BF
102
{ACAD_REACTORS
330
87B3A
102
}
330
87B3A
100
AcDbXrecord
280
     1
102
RTVSPropertyOp0
 70
     0
102
RTVSPropertyOp1
 70
     0
102
RTVSPropertyOp2
 70
     0
102
RTVSPropertyOp3
 70
     0
102
RTVSPropertyOp4
 70
     0
102
RTVSPropertyOp5
 70
     0
102
RTVSPropertyOp6
 70
     0
102
RTVSPropertyOp7
 70
     0
102
RTVSPropertyOp8
 70
     0
102
RTVSPropertyOp9
 70
     0
102
RTVSPropertyOp10
 70
     0
102
RTVSPropertyOp11
 70
     0
102
RTVSPropertyOp12
 70
     0
102
RTVSPropertyOp13
 70
     0
102
RTVSPropertyOp14
 70
     2
102
RTVSPropertyOp15
 70
     0
102
RTVSPropertyOp16
 70
     0
102
RTVSPropertyOp17
 70
     0
102
RTVSPropertyOp18
 70
     0
102
RTVSPropertyOp19
 70
     0
102
RTVSPropertyOp20
 70
     0
102
RTVSPropertyOp21
 70
     0
102
RTVSPropertyOp22
 70
     0
102
RTVSPropertyOp23
 70
     0
102
RTVSPropertyOp24
 70
     0
102
RTVSPropertyOp25
 70
     0
102
RTVSPropertyOp26
 70
     0
102
RTVSPropertyOp27
 70
     0
102
RTVSPropertyOp28
 70
     1
102
RTVSPropertyOp29
 70
     1
102
RTVSPropertyOp30
 70
     1
102
RTVSPropertyOp31
 70
     1
102
RTVSPropertyOp32
 70
     1
102
RTVSPropertyOp33
 70
     1
102
RTVSPropertyOp34
 70
     1
102
RTVSPropertyOp35
 70
     1
102
RTVSPropertyOp36
 70
     1
102
RTVSPropertyOp37
 70
     0
102
RTVSPropertyOp38
 70
     0
102
RTVSPropertyOp39
 70
     0
102
RTVSPropertyOp40
 70
     0
102
RTVSPropertyOp41
 70
     0
102
RTVSPropertyOp42
 70
     0
102
RTVSPropertyOp43
 70
     0
102
RTVSPropertyOp44
 70
     0
102
RTVSPropertyOp45
 70
     1
102
RTVSPropertyOp46
 70
     0
102
RTVSPropertyOp47
 70
     0
102
RTVSPropertyOp48
 70
     0
102
RTVSPropertyOp49
 70
     1
102
RTVSPropertyOp50
 70
     0
102
RTVSPropertyOp51
 70
     0
102
RTVSPropertyOp52
 70
     0
102
RTVSPropertyOp53
 70
     0
102
RTVSPropertyOp54
 70
     0
102
RTVSPropertyOp55
 70
     1
102
RTVSPropertyOp56
 70
     0
102
RTVSPropertyOp57
 70
     0
102
RTVSPost2010Prop28
280
     0
102
RTVSPost2010PropOp28
 70
     1
102
RTVSPost2010Prop29
280
     1
102
RTVSPost2010PropOp29
 70
     1
102
RTVSPost2010Prop30
280
     1
102
RTVSPost2010PropOp30
 70
     1
102
RTVSPost2010Prop31
280
     0
102
RTVSPost2010PropOp31
 70
     1
102
RTVSPost2010Prop32
280
     0
102
RTVSPost2010PropOp32
 70
     1
102
RTVSPost2010Prop33
280
     0
102
RTVSPost2010PropOp33
 70
     1
102
RTVSPost2010Prop34
280
     0
102
RTVSPost2010PropOp34
 70
     1
102
RTVSPost2010Prop35
280
     0
102
RTVSPost2010PropOp35
 70
     1
102
RTVSPost2010Prop36
280
     0
102
RTVSPost2010PropOp36
 70
     1
102
RTVSPost2010Prop37
 90
       50
102
RTVSPost2010PropOp37
 70
     0
102
RTVSPost2010Prop38
140
0.0
102
RTVSPost2010PropOp38
 70
     0
102
RTVSPost2010Prop39
140
1.0
102
RTVSPost2010PropOp39
 70
     0
102
RTVSPost2010Prop40
 90
        0
102
RTVSPost2010PropOp40
 70
     0
102
RTVSPost2010Prop41ColorIndex
 90
       18
102
RTVSPost2010Prop41ColorRGB
 90
        0
102
RTVSPost2010PropOp41
 70
     0
102
RTVSPost2010Prop42
 90
       50
102
RTVSPost2010PropOp42
 70
     0
102
RTVSPost2010Prop43
 90
        3
102
RTVSPost2010PropOp43
 70
     0
102
RTVSPost2010Prop44ColorIndex
 90
        5
102
RTVSPost2010Prop44ColorRGB
 90
      255
102
RTVSPost2010PropOp44
 70
     0
102
RTVSPost2010Prop45
280
     0
102
RTVSPost2010PropOp45
 70
     1
102
RTVSPost2010Prop46
 90
       50
102
RTVSPost2010PropOp46
 70
     0
102
RTVSPost2010Prop47
 90
       50
102
RTVSPost2010PropOp47
 70
     0
102
RTVSPost2010Prop48
 90
       50
102
RTVSPost2010PropOp48
 70
     0
102
RTVSPost2010Prop49
280
     0
102
RTVSPost2010PropOp49
 70
     1
102
RTVSPost2010Prop50
 90
       50
102
RTVSPost2010PropOp50
 70
     0
102
RTVSPost2010Prop51ColorIndex
 90
      256
102
RTVSPost2010Prop51ColorRGB
 90
-16777216
102
RTVSPost2010PropOp51
 70
     0
102
RTVSPost2010Prop52
140
1.0
102
RTVSPost2010PropOp52
 70
     0
102
RTVSPost2010Prop53
 90
        2
102
RTVSPost2010PropOp53
 70
     0
102
RTVSPost2010Prop54
  1
strokes_ogs.tif
102
RTVSPost2010PropOp54
 70
     0
102
RTVSPost2010Prop55
280
     0
102
RTVSPost2010PropOp55
 70
     1
102
RTVSPost2010Prop56
140
1.0
102
RTVSPost2010PropOp56
 70
     0
102
RTVSPost2010Prop57
140
1.0
102
RTVSPost2010PropOp57
 70
     0
  0
XRECORD
  5
964C0
102
{ACAD_REACTORS
330
87B20
102
}
330
87B20
100
AcDbXrecord
280
     1
102
RTVSPropertyOp0
 70
     1
102
RTVSPropertyOp1
 70
     1
102
RTVSPropertyOp2
 70
     1
102
RTVSPropertyOp3
 70
     1
102
RTVSPropertyOp4
 70
     1
102
RTVSPropertyOp5
 70
     1
102
RTVSPropertyOp6
 70
     1
102
RTVSPropertyOp7
 70
     1
102
RTVSPropertyOp8
 70
     1
102
RTVSPropertyOp9
 70
     1
102
RTVSPropertyOp10
 70
     1
102
RTVSPropertyOp11
 70
     1
102
RTVSPropertyOp12
 70
     1
102
RTVSPropertyOp13
 70
     1
102
RTVSPropertyOp14
 70
     1
102
RTVSPropertyOp15
 70
     1
102
RTVSPropertyOp16
 70
     1
102
RTVSPropertyOp17
 70
     1
102
RTVSPropertyOp18
 70
     1
102
RTVSPropertyOp19
 70
     1
102
RTVSPropertyOp20
 70
     1
102
RTVSPropertyOp21
 70
     1
102
RTVSPropertyOp22
 70
     1
102
RTVSPropertyOp23
 70
     1
102
RTVSPropertyOp24
 70
     1
102
RTVSPropertyOp25
 70
     1
102
RTVSPropertyOp26
 70
     1
102
RTVSPropertyOp27
 70
     1
102
RTVSPropertyOp28
 70
     1
102
RTVSPropertyOp29
 70
     1
102
RTVSPropertyOp30
 70
     1
102
RTVSPropertyOp31
 70
     1
102
RTVSPropertyOp32
 70
     1
102
RTVSPropertyOp33
 70
     1
102
RTVSPropertyOp34
 70
     1
102
RTVSPropertyOp35
 70
     1
102
RTVSPropertyOp36
 70
     1
102
RTVSPropertyOp37
 70
     1
102
RTVSPropertyOp38
 70
     1
102
RTVSPropertyOp39
 70
     1
102
RTVSPropertyOp40
 70
     1
102
RTVSPropertyOp41
 70
     1
102
RTVSPropertyOp42
 70
     1
102
RTVSPropertyOp43
 70
     1
102
RTVSPropertyOp44
 70
     1
102
RTVSPropertyOp45
 70
     1
102
RTVSPropertyOp46
 70
     1
102
RTVSPropertyOp47
 70
     1
102
RTVSPropertyOp48
 70
     1
102
RTVSPropertyOp49
 70
     1
102
RTVSPropertyOp50
 70
     1
102
RTVSPropertyOp51
 70
     0
102
RTVSPropertyOp52
 70
     0
102
RTVSPropertyOp53
 70
     1
102
RTVSPropertyOp54
 70
     1
102
RTVSPropertyOp55
 70
     1
102
RTVSPropertyOp56
 70
     1
102
RTVSPropertyOp57
 70
     1
102
RTVSPost2010Prop28
280
     0
102
RTVSPost2010PropOp28
 70
     1
102
RTVSPost2010Prop29
280
     1
102
RTVSPost2010PropOp29
 70
     1
102
RTVSPost2010Prop30
280
     1
102
RTVSPost2010PropOp30
 70
     1
102
RTVSPost2010Prop31
280
     0
102
RTVSPost2010PropOp31
 70
     1
102
RTVSPost2010Prop32
280
     0
102
RTVSPost2010PropOp32
 70
     1
102
RTVSPost2010Prop33
280
     0
102
RTVSPost2010PropOp33
 70
     1
102
RTVSPost2010Prop34
280
     0
102
RTVSPost2010PropOp34
 70
     1
102
RTVSPost2010Prop35
280
     0
102
RTVSPost2010PropOp35
 70
     1
102
RTVSPost2010Prop36
280
     0
102
RTVSPost2010PropOp36
 70
     1
102
RTVSPost2010Prop37
 90
       50
102
RTVSPost2010PropOp37
 70
     1
102
RTVSPost2010Prop38
140
0.0
102
RTVSPost2010PropOp38
 70
     1
102
RTVSPost2010Prop39
140
1.0
102
RTVSPost2010PropOp39
 70
     1
102
RTVSPost2010Prop40
 90
        0
102
RTVSPost2010PropOp40
 70
     1
102
RTVSPost2010Prop41ColorIndex
 90
       18
102
RTVSPost2010Prop41ColorRGB
 90
        0
102
RTVSPost2010PropOp41
 70
     1
102
RTVSPost2010Prop42
 90
       50
102
RTVSPost2010PropOp42
 70
     1
102
RTVSPost2010Prop43
 90
        3
102
RTVSPost2010PropOp43
 70
     1
102
RTVSPost2010Prop44ColorIndex
 90
        5
102
RTVSPost2010Prop44ColorRGB
 90
      255
102
RTVSPost2010PropOp44
 70
     1
102
RTVSPost2010Prop45
280
     0
102
RTVSPost2010PropOp45
 70
     1
102
RTVSPost2010Prop46
 90
       50
102
RTVSPost2010PropOp46
 70
     1
102
RTVSPost2010Prop47
 90
       50
102
RTVSPost2010PropOp47
 70
     1
102
RTVSPost2010Prop48
 90
       50
102
RTVSPost2010PropOp48
 70
     1
102
RTVSPost2010Prop49
280
     0
102
RTVSPost2010PropOp49
 70
     1
102
RTVSPost2010Prop50
 90
       50
102
RTVSPost2010PropOp50
 70
     1
102
RTVSPost2010Prop51ColorIndex
 90
      256
102
RTVSPost2010Prop51ColorRGB
 90
-16777216
102
RTVSPost2010PropOp51
 70
     0
102
RTVSPost2010Prop52
140
1.0
102
RTVSPost2010PropOp52
 70
     0
102
RTVSPost2010Prop53
 90
        2
102
RTVSPost2010PropOp53
 70
     1
102
RTVSPost2010Prop54
  1
strokes_ogs.tif
102
RTVSPost2010PropOp54
 70
     1
102
RTVSPost2010Prop55
280
     0
102
RTVSPost2010PropOp55
 70
     1
102
RTVSPost2010Prop56
140
1.0
102
RTVSPost2010PropOp56
 70
     1
102
RTVSPost2010Prop57
140
1.0
102
RTVSPost2010PropOp57
 70
     1
  0
XRECORD
  5
964C1
102
{ACAD_REACTORS
330
87B36
102
}
330
87B36
100
AcDbXrecord
280
     1
102
RTVSPropertyOp0
 70
     1
102
RTVSPropertyOp1
 70
     1
102
RTVSPropertyOp2
 70
     1
102
RTVSPropertyOp3
 70
     1
102
RTVSPropertyOp4
 70
     1
102
RTVSPropertyOp5
 70
     1
102
RTVSPropertyOp6
 70
     1
102
RTVSPropertyOp7
 70
     1
102
RTVSPropertyOp8
 70
     1
102
RTVSPropertyOp9
 70
     1
102
RTVSPropertyOp10
 70
     1
102
RTVSPropertyOp11
 70
     1
102
RTVSPropertyOp12
 70
     1
102
RTVSPropertyOp13
 70
     1
102
RTVSPropertyOp14
 70
     1
102
RTVSPropertyOp15
 70
     1
102
RTVSPropertyOp16
 70
     1
102
RTVSPropertyOp17
 70
     1
102
RTVSPropertyOp18
 70
     1
102
RTVSPropertyOp19
 70
     1
102
RTVSPropertyOp20
 70
     1
102
RTVSPropertyOp21
 70
     1
102
RTVSPropertyOp22
 70
     1
102
RTVSPropertyOp23
 70
     1
102
RTVSPropertyOp24
 70
     1
102
RTVSPropertyOp25
 70
     1
102
RTVSPropertyOp26
 70
     1
102
RTVSPropertyOp27
 70
     1
102
RTVSPropertyOp28
 70
     1
102
RTVSPropertyOp29
 70
     1
102
RTVSPropertyOp30
 70
     1
102
RTVSPropertyOp31
 70
     1
102
RTVSPropertyOp32
 70
     1
102
RTVSPropertyOp33
 70
     1
102
RTVSPropertyOp34
 70
     1
102
RTVSPropertyOp35
 70
     1
102
RTVSPropertyOp36
 70
     1
102
RTVSPropertyOp37
 70
     1
102
RTVSPropertyOp38
 70
     1
102
RTVSPropertyOp39
 70
     1
102
RTVSPropertyOp40
 70
     1
102
RTVSPropertyOp41
 70
     1
102
RTVSPropertyOp42
 70
     1
102
RTVSPropertyOp43
 70
     1
102
RTVSPropertyOp44
 70
     1
102
RTVSPropertyOp45
 70
     1
102
RTVSPropertyOp46
 70
     1
102
RTVSPropertyOp47
 70
     1
102
RTVSPropertyOp48
 70
     1
102
RTVSPropertyOp49
 70
     1
102
RTVSPropertyOp50
 70
     1
102
RTVSPropertyOp51
 70
     0
102
RTVSPropertyOp52
 70
     0
102
RTVSPropertyOp53
 70
     1
102
RTVSPropertyOp54
 70
     1
102
RTVSPropertyOp55
 70
     1
102
RTVSPropertyOp56
 70
     1
102
RTVSPropertyOp57
 70
     1
102
RTVSPost2010Prop28
280
     0
102
RTVSPost2010PropOp28
 70
     1
102
RTVSPost2010Prop29
280
     1
102
RTVSPost2010PropOp29
 70
     1
102
RTVSPost2010Prop30
280
     1
102
RTVSPost2010PropOp30
 70
     1
102
RTVSPost2010Prop31
280
     0
102
RTVSPost2010PropOp31
 70
     1
102
RTVSPost2010Prop32
280
     0
102
RTVSPost2010PropOp32
 70
     1
102
RTVSPost2010Prop33
280
     0
102
RTVSPost2010PropOp33
 70
     1
102
RTVSPost2010Prop34
280
     0
102
RTVSPost2010PropOp34
 70
     1
102
RTVSPost2010Prop35
280
     0
102
RTVSPost2010PropOp35
 70
     1
102
RTVSPost2010Prop36
280
     0
102
RTVSPost2010PropOp36
 70
     1
102
RTVSPost2010Prop37
 90
       50
102
RTVSPost2010PropOp37
 70
     1
102
RTVSPost2010Prop38
140
0.0
102
RTVSPost2010PropOp38
 70
     1
102
RTVSPost2010Prop39
140
1.0
102
RTVSPost2010PropOp39
 70
     1
102
RTVSPost2010Prop40
 90
        0
102
RTVSPost2010PropOp40
 70
     1
102
RTVSPost2010Prop41ColorIndex
 90
       18
102
RTVSPost2010Prop41ColorRGB
 90
        0
102
RTVSPost2010PropOp41
 70
     1
102
RTVSPost2010Prop42
 90
       50
102
RTVSPost2010PropOp42
 70
     1
102
RTVSPost2010Prop43
 90
        3
102
RTVSPost2010PropOp43
 70
     1
102
RTVSPost2010Prop44ColorIndex
 90
        5
102
RTVSPost2010Prop44ColorRGB
 90
      255
102
RTVSPost2010PropOp44
 70
     1
102
RTVSPost2010Prop45
280
     0
102
RTVSPost2010PropOp45
 70
     1
102
RTVSPost2010Prop46
 90
       50
102
RTVSPost2010PropOp46
 70
     1
102
RTVSPost2010Prop47
 90
       50
102
RTVSPost2010PropOp47
 70
     1
102
RTVSPost2010Prop48
 90
       50
102
RTVSPost2010PropOp48
 70
     1
102
RTVSPost2010Prop49
280
     0
102
RTVSPost2010PropOp49
 70
     1
102
RTVSPost2010Prop50
 90
       50
102
RTVSPost2010PropOp50
 70
     1
102
RTVSPost2010Prop51ColorIndex
 90
      256
102
RTVSPost2010Prop51ColorRGB
 90
-16777216
102
RTVSPost2010PropOp51
 70
     0
102
RTVSPost2010Prop52
140
1.0
102
RTVSPost2010PropOp52
 70
     0
102
RTVSPost2010Prop53
 90
        2
102
RTVSPost2010PropOp53
 70
     1
102
RTVSPost2010Prop54
  1
strokes_ogs.tif
102
RTVSPost2010PropOp54
 70
     1
102
RTVSPost2010Prop55
280
     0
102
RTVSPost2010PropOp55
 70
     1
102
RTVSPost2010Prop56
140
1.0
102
RTVSPost2010PropOp56
 70
     1
102
RTVSPost2010Prop57
140
1.0
102
RTVSPost2010PropOp57
 70
     1
  0
XRECORD
  5
964C2
102
{ACAD_REACTORS
330
87B34
102
}
330
87B34
100
AcDbXrecord
280
     1
102
RTVSPropertyOp0
 70
     1
102
RTVSPropertyOp1
 70
     1
102
RTVSPropertyOp2
 70
     1
102
RTVSPropertyOp3
 70
     1
102
RTVSPropertyOp4
 70
     1
102
RTVSPropertyOp5
 70
     1
102
RTVSPropertyOp6
 70
     1
102
RTVSPropertyOp7
 70
     1
102
RTVSPropertyOp8
 70
     1
102
RTVSPropertyOp9
 70
     1
102
RTVSPropertyOp10
 70
     1
102
RTVSPropertyOp11
 70
     1
102
RTVSPropertyOp12
 70
     1
102
RTVSPropertyOp13
 70
     1
102
RTVSPropertyOp14
 70
     1
102
RTVSPropertyOp15
 70
     1
102
RTVSPropertyOp16
 70
     1
102
RTVSPropertyOp17
 70
     1
102
RTVSPropertyOp18
 70
     1
102
RTVSPropertyOp19
 70
     1
102
RTVSPropertyOp20
 70
     1
102
RTVSPropertyOp21
 70
     1
102
RTVSPropertyOp22
 70
     1
102
RTVSPropertyOp23
 70
     1
102
RTVSPropertyOp24
 70
     1
102
RTVSPropertyOp25
 70
     1
102
RTVSPropertyOp26
 70
     1
102
RTVSPropertyOp27
 70
     1
102
RTVSPropertyOp28
 70
     1
102
RTVSPropertyOp29
 70
     1
102
RTVSPropertyOp30
 70
     1
102
RTVSPropertyOp31
 70
     1
102
RTVSPropertyOp32
 70
     1
102
RTVSPropertyOp33
 70
     1
102
RTVSPropertyOp34
 70
     1
102
RTVSPropertyOp35
 70
     1
102
RTVSPropertyOp36
 70
     1
102
RTVSPropertyOp37
 70
     1
102
RTVSPropertyOp38
 70
     1
102
RTVSPropertyOp39
 70
     1
102
RTVSPropertyOp40
 70
     1
102
RTVSPropertyOp41
 70
     1
102
RTVSPropertyOp42
 70
     1
102
RTVSPropertyOp43
 70
     1
102
RTVSPropertyOp44
 70
     1
102
RTVSPropertyOp45
 70
     1
102
RTVSPropertyOp46
 70
     1
102
RTVSPropertyOp47
 70
     1
102
RTVSPropertyOp48
 70
     1
102
RTVSPropertyOp49
 70
     1
102
RTVSPropertyOp50
 70
     1
102
RTVSPropertyOp51
 70
     0
102
RTVSPropertyOp52
 70
     0
102
RTVSPropertyOp53
 70
     1
102
RTVSPropertyOp54
 70
     1
102
RTVSPropertyOp55
 70
     1
102
RTVSPropertyOp56
 70
     1
102
RTVSPropertyOp57
 70
     1
102
RTVSPost2010Prop28
280
     0
102
RTVSPost2010PropOp28
 70
     1
102
RTVSPost2010Prop29
280
     1
102
RTVSPost2010PropOp29
 70
     1
102
RTVSPost2010Prop30
280
     1
102
RTVSPost2010PropOp30
 70
     1
102
RTVSPost2010Prop31
280
     0
102
RTVSPost2010PropOp31
 70
     1
102
RTVSPost2010Prop32
280
     0
102
RTVSPost2010PropOp32
 70
     1
102
RTVSPost2010Prop33
280
     0
102
RTVSPost2010PropOp33
 70
     1
102
RTVSPost2010Prop34
280
     0
102
RTVSPost2010PropOp34
 70
     1
102
RTVSPost2010Prop35
280
     0
102
RTVSPost2010PropOp35
 70
     1
102
RTVSPost2010Prop36
280
     0
102
RTVSPost2010PropOp36
 70
     1
102
RTVSPost2010Prop37
 90
       50
102
RTVSPost2010PropOp37
 70
     1
102
RTVSPost2010Prop38
140
0.0
102
RTVSPost2010PropOp38
 70
     1
102
RTVSPost2010Prop39
140
1.0
102
RTVSPost2010PropOp39
 70
     1
102
RTVSPost2010Prop40
 90
        0
102
RTVSPost2010PropOp40
 70
     1
102
RTVSPost2010Prop41ColorIndex
 90
       18
102
RTVSPost2010Prop41ColorRGB
 90
        0
102
RTVSPost2010PropOp41
 70
     1
102
RTVSPost2010Prop42
 90
       50
102
RTVSPost2010PropOp42
 70
     1
102
RTVSPost2010Prop43
 90
        3
102
RTVSPost2010PropOp43
 70
     1
102
RTVSPost2010Prop44ColorIndex
 90
        5
102
RTVSPost2010Prop44ColorRGB
 90
      255
102
RTVSPost2010PropOp44
 70
     1
102
RTVSPost2010Prop45
280
     0
102
RTVSPost2010PropOp45
 70
     1
102
RTVSPost2010Prop46
 90
       50
102
RTVSPost2010PropOp46
 70
     1
102
RTVSPost2010Prop47
 90
       50
102
RTVSPost2010PropOp47
 70
     1
102
RTVSPost2010Prop48
 90
       50
102
RTVSPost2010PropOp48
 70
     1
102
RTVSPost2010Prop49
280
     0
102
RTVSPost2010PropOp49
 70
     1
102
RTVSPost2010Prop50
 90
       50
102
RTVSPost2010PropOp50
 70
     1
102
RTVSPost2010Prop51ColorIndex
 90
      256
102
RTVSPost2010Prop51ColorRGB
 90
-16777216
102
RTVSPost2010PropOp51
 70
     0
102
RTVSPost2010Prop52
140
1.0
102
RTVSPost2010PropOp52
 70
     0
102
RTVSPost2010Prop53
 90
        2
102
RTVSPost2010PropOp53
 70
     1
102
RTVSPost2010Prop54
  1
strokes_ogs.tif
102
RTVSPost2010PropOp54
 70
     1
102
RTVSPost2010Prop55
280
     0
102
RTVSPost2010PropOp55
 70
     1
102
RTVSPost2010Prop56
140
1.0
102
RTVSPost2010PropOp56
 70
     1
102
RTVSPost2010Prop57
140
1.0
102
RTVSPost2010PropOp57
 70
     1
  0
XRECORD
  5
964C3
102
{ACAD_REACTORS
330
87B2E
102
}
330
87B2E
100
AcDbXrecord
280
     1
102
RTVSPropertyOp0
 70
     1
102
RTVSPropertyOp1
 70
     1
102
RTVSPropertyOp2
 70
     1
102
RTVSPropertyOp3
 70
     1
102
RTVSPropertyOp4
 70
     1
102
RTVSPropertyOp5
 70
     1
102
RTVSPropertyOp6
 70
     1
102
RTVSPropertyOp7
 70
     1
102
RTVSPropertyOp8
 70
     1
102
RTVSPropertyOp9
 70
     1
102
RTVSPropertyOp10
 70
     1
102
RTVSPropertyOp11
 70
     1
102
RTVSPropertyOp12
 70
     1
102
RTVSPropertyOp13
 70
     1
102
RTVSPropertyOp14
 70
     1
102
RTVSPropertyOp15
 70
     1
102
RTVSPropertyOp16
 70
     1
102
RTVSPropertyOp17
 70
     1
102
RTVSPropertyOp18
 70
     1
102
RTVSPropertyOp19
 70
     1
102
RTVSPropertyOp20
 70
     1
102
RTVSPropertyOp21
 70
     1
102
RTVSPropertyOp22
 70
     1
102
RTVSPropertyOp23
 70
     1
102
RTVSPropertyOp24
 70
     1
102
RTVSPropertyOp25
 70
     1
102
RTVSPropertyOp26
 70
     1
102
RTVSPropertyOp27
 70
     1
102
RTVSPropertyOp28
 70
     1
102
RTVSPropertyOp29
 70
     1
102
RTVSPropertyOp30
 70
     1
102
RTVSPropertyOp31
 70
     1
102
RTVSPropertyOp32
 70
     1
102
RTVSPropertyOp33
 70
     1
102
RTVSPropertyOp34
 70
     1
102
RTVSPropertyOp35
 70
     1
102
RTVSPropertyOp36
 70
     1
102
RTVSPropertyOp37
 70
     1
102
RTVSPropertyOp38
 70
     1
102
RTVSPropertyOp39
 70
     1
102
RTVSPropertyOp40
 70
     1
102
RTVSPropertyOp41
 70
     1
102
RTVSPropertyOp42
 70
     1
102
RTVSPropertyOp43
 70
     1
102
RTVSPropertyOp44
 70
     1
102
RTVSPropertyOp45
 70
     1
102
RTVSPropertyOp46
 70
     1
102
RTVSPropertyOp47
 70
     1
102
RTVSPropertyOp48
 70
     1
102
RTVSPropertyOp49
 70
     1
102
RTVSPropertyOp50
 70
     1
102
RTVSPropertyOp51
 70
     0
102
RTVSPropertyOp52
 70
     0
102
RTVSPropertyOp53
 70
     1
102
RTVSPropertyOp54
 70
     1
102
RTVSPropertyOp55
 70
     1
102
RTVSPropertyOp56
 70
     1
102
RTVSPropertyOp57
 70
     1
102
RTVSPost2010Prop28
280
     0
102
RTVSPost2010PropOp28
 70
     1
102
RTVSPost2010Prop29
280
     1
102
RTVSPost2010PropOp29
 70
     1
102
RTVSPost2010Prop30
280
     1
102
RTVSPost2010PropOp30
 70
     1
102
RTVSPost2010Prop31
280
     0
102
RTVSPost2010PropOp31
 70
     1
102
RTVSPost2010Prop32
280
     0
102
RTVSPost2010PropOp32
 70
     1
102
RTVSPost2010Prop33
280
     0
102
RTVSPost2010PropOp33
 70
     1
102
RTVSPost2010Prop34
280
     0
102
RTVSPost2010PropOp34
 70
     1
102
RTVSPost2010Prop35
280
     0
102
RTVSPost2010PropOp35
 70
     1
102
RTVSPost2010Prop36
280
     0
102
RTVSPost2010PropOp36
 70
     1
102
RTVSPost2010Prop37
 90
       50
102
RTVSPost2010PropOp37
 70
     1
102
RTVSPost2010Prop38
140
0.0
102
RTVSPost2010PropOp38
 70
     1
102
RTVSPost2010Prop39
140
1.0
102
RTVSPost2010PropOp39
 70
     1
102
RTVSPost2010Prop40
 90
        0
102
RTVSPost2010PropOp40
 70
     1
102
RTVSPost2010Prop41ColorIndex
 90
       18
102
RTVSPost2010Prop41ColorRGB
 90
        0
102
RTVSPost2010PropOp41
 70
     1
102
RTVSPost2010Prop42
 90
       50
102
RTVSPost2010PropOp42
 70
     1
102
RTVSPost2010Prop43
 90
        3
102
RTVSPost2010PropOp43
 70
     1
102
RTVSPost2010Prop44ColorIndex
 90
        5
102
RTVSPost2010Prop44ColorRGB
 90
      255
102
RTVSPost2010PropOp44
 70
     1
102
RTVSPost2010Prop45
280
     0
102
RTVSPost2010PropOp45
 70
     1
102
RTVSPost2010Prop46
 90
       50
102
RTVSPost2010PropOp46
 70
     1
102
RTVSPost2010Prop47
 90
       50
102
RTVSPost2010PropOp47
 70
     1
102
RTVSPost2010Prop48
 90
       50
102
RTVSPost2010PropOp48
 70
     1
102
RTVSPost2010Prop49
280
     0
102
RTVSPost2010PropOp49
 70
     1
102
RTVSPost2010Prop50
 90
       50
102
RTVSPost2010PropOp50
 70
     1
102
RTVSPost2010Prop51ColorIndex
 90
      256
102
RTVSPost2010Prop51ColorRGB
 90
-16777216
102
RTVSPost2010PropOp51
 70
     0
102
RTVSPost2010Prop52
140
1.0
102
RTVSPost2010PropOp52
 70
     0
102
RTVSPost2010Prop53
 90
        2
102
RTVSPost2010PropOp53
 70
     1
102
RTVSPost2010Prop54
  1
strokes_ogs.tif
102
RTVSPost2010PropOp54
 70
     1
102
RTVSPost2010Prop55
280
     0
102
RTVSPost2010PropOp55
 70
     1
102
RTVSPost2010Prop56
140
1.0
102
RTVSPost2010PropOp56
 70
     1
102
RTVSPost2010Prop57
140
1.0
102
RTVSPost2010PropOp57
 70
     1
  0
XRECORD
  5
964C4
102
{ACAD_REACTORS
330
87B30
102
}
330
87B30
100
AcDbXrecord
280
     1
102
RTVSPropertyOp0
 70
     1
102
RTVSPropertyOp1
 70
     1
102
RTVSPropertyOp2
 70
     1
102
RTVSPropertyOp3
 70
     1
102
RTVSPropertyOp4
 70
     1
102
RTVSPropertyOp5
 70
     1
102
RTVSPropertyOp6
 70
     1
102
RTVSPropertyOp7
 70
     1
102
RTVSPropertyOp8
 70
     1
102
RTVSPropertyOp9
 70
     1
102
RTVSPropertyOp10
 70
     1
102
RTVSPropertyOp11
 70
     1
102
RTVSPropertyOp12
 70
     1
102
RTVSPropertyOp13
 70
     1
102
RTVSPropertyOp14
 70
     1
102
RTVSPropertyOp15
 70
     1
102
RTVSPropertyOp16
 70
     1
102
RTVSPropertyOp17
 70
     1
102
RTVSPropertyOp18
 70
     1
102
RTVSPropertyOp19
 70
     1
102
RTVSPropertyOp20
 70
     1
102
RTVSPropertyOp21
 70
     1
102
RTVSPropertyOp22
 70
     1
102
RTVSPropertyOp23
 70
     1
102
RTVSPropertyOp24
 70
     1
102
RTVSPropertyOp25
 70
     1
102
RTVSPropertyOp26
 70
     1
102
RTVSPropertyOp27
 70
     1
102
RTVSPropertyOp28
 70
     1
102
RTVSPropertyOp29
 70
     1
102
RTVSPropertyOp30
 70
     1
102
RTVSPropertyOp31
 70
     1
102
RTVSPropertyOp32
 70
     1
102
RTVSPropertyOp33
 70
     1
102
RTVSPropertyOp34
 70
     1
102
RTVSPropertyOp35
 70
     1
102
RTVSPropertyOp36
 70
     1
102
RTVSPropertyOp37
 70
     1
102
RTVSPropertyOp38
 70
     1
102
RTVSPropertyOp39
 70
     1
102
RTVSPropertyOp40
 70
     1
102
RTVSPropertyOp41
 70
     1
102
RTVSPropertyOp42
 70
     1
102
RTVSPropertyOp43
 70
     1
102
RTVSPropertyOp44
 70
     1
102
RTVSPropertyOp45
 70
     1
102
RTVSPropertyOp46
 70
     1
102
RTVSPropertyOp47
 70
     1
102
RTVSPropertyOp48
 70
     1
102
RTVSPropertyOp49
 70
     1
102
RTVSPropertyOp50
 70
     1
102
RTVSPropertyOp51
 70
     0
102
RTVSPropertyOp52
 70
     0
102
RTVSPropertyOp53
 70
     1
102
RTVSPropertyOp54
 70
     1
102
RTVSPropertyOp55
 70
     1
102
RTVSPropertyOp56
 70
     1
102
RTVSPropertyOp57
 70
     1
102
RTVSPost2010Prop28
280
     0
102
RTVSPost2010PropOp28
 70
     1
102
RTVSPost2010Prop29
280
     1
102
RTVSPost2010PropOp29
 70
     1
102
RTVSPost2010Prop30
280
     1
102
RTVSPost2010PropOp30
 70
     1
102
RTVSPost2010Prop31
280
     0
102
RTVSPost2010PropOp31
 70
     1
102
RTVSPost2010Prop32
280
     0
102
RTVSPost2010PropOp32
 70
     1
102
RTVSPost2010Prop33
280
     0
102
RTVSPost2010PropOp33
 70
     1
102
RTVSPost2010Prop34
280
     0
102
RTVSPost2010PropOp34
 70
     1
102
RTVSPost2010Prop35
280
     0
102
RTVSPost2010PropOp35
 70
     1
102
RTVSPost2010Prop36
280
     0
102
RTVSPost2010PropOp36
 70
     1
102
RTVSPost2010Prop37
 90
       50
102
RTVSPost2010PropOp37
 70
     1
102
RTVSPost2010Prop38
140
0.0
102
RTVSPost2010PropOp38
 70
     1
102
RTVSPost2010Prop39
140
1.0
102
RTVSPost2010PropOp39
 70
     1
102
RTVSPost2010Prop40
 90
        0
102
RTVSPost2010PropOp40
 70
     1
102
RTVSPost2010Prop41ColorIndex
 90
       18
102
RTVSPost2010Prop41ColorRGB
 90
        0
102
RTVSPost2010PropOp41
 70
     1
102
RTVSPost2010Prop42
 90
       50
102
RTVSPost2010PropOp42
 70
     1
102
RTVSPost2010Prop43
 90
        3
102
RTVSPost2010PropOp43
 70
     1
102
RTVSPost2010Prop44ColorIndex
 90
        5
102
RTVSPost2010Prop44ColorRGB
 90
      255
102
RTVSPost2010PropOp44
 70
     1
102
RTVSPost2010Prop45
280
     0
102
RTVSPost2010PropOp45
 70
     1
102
RTVSPost2010Prop46
 90
       50
102
RTVSPost2010PropOp46
 70
     1
102
RTVSPost2010Prop47
 90
       50
102
RTVSPost2010PropOp47
 70
     1
102
RTVSPost2010Prop48
 90
       50
102
RTVSPost2010PropOp48
 70
     1
102
RTVSPost2010Prop49
280
     0
102
RTVSPost2010PropOp49
 70
     1
102
RTVSPost2010Prop50
 90
       50
102
RTVSPost2010PropOp50
 70
     1
102
RTVSPost2010Prop51ColorIndex
 90
      256
102
RTVSPost2010Prop51ColorRGB
 90
-16777216
102
RTVSPost2010PropOp51
 70
     0
102
RTVSPost2010Prop52
140
1.0
102
RTVSPost2010PropOp52
 70
     0
102
RTVSPost2010Prop53
 90
        2
102
RTVSPost2010PropOp53
 70
     1
102
RTVSPost2010Prop54
  1
strokes_ogs.tif
102
RTVSPost2010PropOp54
 70
     1
102
RTVSPost2010Prop55
280
     0
102
RTVSPost2010PropOp55
 70
     1
102
RTVSPost2010Prop56
140
1.0
102
RTVSPost2010PropOp56
 70
     1
102
RTVSPost2010Prop57
140
1.0
102
RTVSPost2010PropOp57
 70
     1
  0
XRECORD
  5
964C5
102
{ACAD_REACTORS
330
87B26
102
}
330
87B26
100
AcDbXrecord
280
     1
102
RTVSPropertyOp0
 70
     1
102
RTVSPropertyOp1
 70
     1
102
RTVSPropertyOp2
 70
     1
102
RTVSPropertyOp3
 70
     1
102
RTVSPropertyOp4
 70
     1
102
RTVSPropertyOp5
 70
     1
102
RTVSPropertyOp6
 70
     1
102
RTVSPropertyOp7
 70
     1
102
RTVSPropertyOp8
 70
     1
102
RTVSPropertyOp9
 70
     1
102
RTVSPropertyOp10
 70
     1
102
RTVSPropertyOp11
 70
     1
102
RTVSPropertyOp12
 70
     1
102
RTVSPropertyOp13
 70
     1
102
RTVSPropertyOp14
 70
     1
102
RTVSPropertyOp15
 70
     1
102
RTVSPropertyOp16
 70
     1
102
RTVSPropertyOp17
 70
     1
102
RTVSPropertyOp18
 70
     1
102
RTVSPropertyOp19
 70
     1
102
RTVSPropertyOp20
 70
     1
102
RTVSPropertyOp21
 70
     1
102
RTVSPropertyOp22
 70
     1
102
RTVSPropertyOp23
 70
     1
102
RTVSPropertyOp24
 70
     1
102
RTVSPropertyOp25
 70
     1
102
RTVSPropertyOp26
 70
     1
102
RTVSPropertyOp27
 70
     1
102
RTVSPropertyOp28
 70
     1
102
RTVSPropertyOp29
 70
     1
102
RTVSPropertyOp30
 70
     1
102
RTVSPropertyOp31
 70
     1
102
RTVSPropertyOp32
 70
     1
102
RTVSPropertyOp33
 70
     1
102
RTVSPropertyOp34
 70
     1
102
RTVSPropertyOp35
 70
     1
102
RTVSPropertyOp36
 70
     1
102
RTVSPropertyOp37
 70
     1
102
RTVSPropertyOp38
 70
     1
102
RTVSPropertyOp39
 70
     1
102
RTVSPropertyOp40
 70
     1
102
RTVSPropertyOp41
 70
     1
102
RTVSPropertyOp42
 70
     1
102
RTVSPropertyOp43
 70
     1
102
RTVSPropertyOp44
 70
     1
102
RTVSPropertyOp45
 70
     1
102
RTVSPropertyOp46
 70
     1
102
RTVSPropertyOp47
 70
     1
102
RTVSPropertyOp48
 70
     1
102
RTVSPropertyOp49
 70
     1
102
RTVSPropertyOp50
 70
     1
102
RTVSPropertyOp51
 70
     0
102
RTVSPropertyOp52
 70
     0
102
RTVSPropertyOp53
 70
     1
102
RTVSPropertyOp54
 70
     1
102
RTVSPropertyOp55
 70
     1
102
RTVSPropertyOp56
 70
     1
102
RTVSPropertyOp57
 70
     1
102
RTVSPost2010Prop28
280
     0
102
RTVSPost2010PropOp28
 70
     1
102
RTVSPost2010Prop29
280
     1
102
RTVSPost2010PropOp29
 70
     1
102
RTVSPost2010Prop30
280
     1
102
RTVSPost2010PropOp30
 70
     1
102
RTVSPost2010Prop31
280
     0
102
RTVSPost2010PropOp31
 70
     1
102
RTVSPost2010Prop32
280
     0
102
RTVSPost2010PropOp32
 70
     1
102
RTVSPost2010Prop33
280
     0
102
RTVSPost2010PropOp33
 70
     1
102
RTVSPost2010Prop34
280
     0
102
RTVSPost2010PropOp34
 70
     1
102
RTVSPost2010Prop35
280
     0
102
RTVSPost2010PropOp35
 70
     1
102
RTVSPost2010Prop36
280
     0
102
RTVSPost2010PropOp36
 70
     1
102
RTVSPost2010Prop37
 90
       50
102
RTVSPost2010PropOp37
 70
     1
102
RTVSPost2010Prop38
140
0.0
102
RTVSPost2010PropOp38
 70
     1
102
RTVSPost2010Prop39
140
1.0
102
RTVSPost2010PropOp39
 70
     1
102
RTVSPost2010Prop40
 90
        0
102
RTVSPost2010PropOp40
 70
     1
102
RTVSPost2010Prop41ColorIndex
 90
       18
102
RTVSPost2010Prop41ColorRGB
 90
        0
102
RTVSPost2010PropOp41
 70
     1
102
RTVSPost2010Prop42
 90
       50
102
RTVSPost2010PropOp42
 70
     1
102
RTVSPost2010Prop43
 90
        3
102
RTVSPost2010PropOp43
 70
     1
102
RTVSPost2010Prop44ColorIndex
 90
        5
102
RTVSPost2010Prop44ColorRGB
 90
      255
102
RTVSPost2010PropOp44
 70
     1
102
RTVSPost2010Prop45
280
     0
102
RTVSPost2010PropOp45
 70
     1
102
RTVSPost2010Prop46
 90
       50
102
RTVSPost2010PropOp46
 70
     1
102
RTVSPost2010Prop47
 90
       50
102
RTVSPost2010PropOp47
 70
     1
102
RTVSPost2010Prop48
 90
       50
102
RTVSPost2010PropOp48
 70
     1
102
RTVSPost2010Prop49
280
     0
102
RTVSPost2010PropOp49
 70
     1
102
RTVSPost2010Prop50
 90
       50
102
RTVSPost2010PropOp50
 70
     1
102
RTVSPost2010Prop51ColorIndex
 90
      256
102
RTVSPost2010Prop51ColorRGB
 90
-16777216
102
RTVSPost2010PropOp51
 70
     0
102
RTVSPost2010Prop52
140
1.0
102
RTVSPost2010PropOp52
 70
     0
102
RTVSPost2010Prop53
 90
        2
102
RTVSPost2010PropOp53
 70
     1
102
RTVSPost2010Prop54
  1
strokes_ogs.tif
102
RTVSPost2010PropOp54
 70
     1
102
RTVSPost2010Prop55
280
     0
102
RTVSPost2010PropOp55
 70
     1
102
RTVSPost2010Prop56
140
1.0
102
RTVSPost2010PropOp56
 70
     1
102
RTVSPost2010Prop57
140
1.0
102
RTVSPost2010PropOp57
 70
     1
  0
XRECORD
  5
964C6
102
{ACAD_REACTORS
330
87B1A
102
}
330
87B1A
100
AcDbXrecord
280
     1
102
RTVSPropertyOp0
 70
     1
102
RTVSPropertyOp1
 70
     1
102
RTVSPropertyOp2
 70
     1
102
RTVSPropertyOp3
 70
     1
102
RTVSPropertyOp4
 70
     1
102
RTVSPropertyOp5
 70
     1
102
RTVSPropertyOp6
 70
     1
102
RTVSPropertyOp7
 70
     1
102
RTVSPropertyOp8
 70
     1
102
RTVSPropertyOp9
 70
     1
102
RTVSPropertyOp10
 70
     1
102
RTVSPropertyOp11
 70
     1
102
RTVSPropertyOp12
 70
     1
102
RTVSPropertyOp13
 70
     1
102
RTVSPropertyOp14
 70
     1
102
RTVSPropertyOp15
 70
     1
102
RTVSPropertyOp16
 70
     1
102
RTVSPropertyOp17
 70
     1
102
RTVSPropertyOp18
 70
     1
102
RTVSPropertyOp19
 70
     1
102
RTVSPropertyOp20
 70
     1
102
RTVSPropertyOp21
 70
     1
102
RTVSPropertyOp22
 70
     1
102
RTVSPropertyOp23
 70
     1
102
RTVSPropertyOp24
 70
     1
102
RTVSPropertyOp25
 70
     1
102
RTVSPropertyOp26
 70
     1
102
RTVSPropertyOp27
 70
     1
102
RTVSPropertyOp28
 70
     1
102
RTVSPropertyOp29
 70
     1
102
RTVSPropertyOp30
 70
     1
102
RTVSPropertyOp31
 70
     1
102
RTVSPropertyOp32
 70
     1
102
RTVSPropertyOp33
 70
     1
102
RTVSPropertyOp34
 70
     1
102
RTVSPropertyOp35
 70
     1
102
RTVSPropertyOp36
 70
     1
102
RTVSPropertyOp37
 70
     1
102
RTVSPropertyOp38
 70
     1
102
RTVSPropertyOp39
 70
     1
102
RTVSPropertyOp40
 70
     1
102
RTVSPropertyOp41
 70
     1
102
RTVSPropertyOp42
 70
     1
102
RTVSPropertyOp43
 70
     1
102
RTVSPropertyOp44
 70
     1
102
RTVSPropertyOp45
 70
     1
102
RTVSPropertyOp46
 70
     1
102
RTVSPropertyOp47
 70
     1
102
RTVSPropertyOp48
 70
     1
102
RTVSPropertyOp49
 70
     1
102
RTVSPropertyOp50
 70
     1
102
RTVSPropertyOp51
 70
     0
102
RTVSPropertyOp52
 70
     0
102
RTVSPropertyOp53
 70
     1
102
RTVSPropertyOp54
 70
     1
102
RTVSPropertyOp55
 70
     1
102
RTVSPropertyOp56
 70
     1
102
RTVSPropertyOp57
 70
     1
102
RTVSPost2010Prop28
280
     0
102
RTVSPost2010PropOp28
 70
     1
102
RTVSPost2010Prop29
280
     1
102
RTVSPost2010PropOp29
 70
     1
102
RTVSPost2010Prop30
280
     1
102
RTVSPost2010PropOp30
 70
     1
102
RTVSPost2010Prop31
280
     0
102
RTVSPost2010PropOp31
 70
     1
102
RTVSPost2010Prop32
280
     0
102
RTVSPost2010PropOp32
 70
     1
102
RTVSPost2010Prop33
280
     0
102
RTVSPost2010PropOp33
 70
     1
102
RTVSPost2010Prop34
280
     0
102
RTVSPost2010PropOp34
 70
     1
102
RTVSPost2010Prop35
280
     0
102
RTVSPost2010PropOp35
 70
     1
102
RTVSPost2010Prop36
280
     0
102
RTVSPost2010PropOp36
 70
     1
102
RTVSPost2010Prop37
 90
       50
102
RTVSPost2010PropOp37
 70
     1
102
RTVSPost2010Prop38
140
0.0
102
RTVSPost2010PropOp38
 70
     1
102
RTVSPost2010Prop39
140
1.0
102
RTVSPost2010PropOp39
 70
     1
102
RTVSPost2010Prop40
 90
        0
102
RTVSPost2010PropOp40
 70
     1
102
RTVSPost2010Prop41ColorIndex
 90
       18
102
RTVSPost2010Prop41ColorRGB
 90
        0
102
RTVSPost2010PropOp41
 70
     1
102
RTVSPost2010Prop42
 90
       50
102
RTVSPost2010PropOp42
 70
     1
102
RTVSPost2010Prop43
 90
        3
102
RTVSPost2010PropOp43
 70
     1
102
RTVSPost2010Prop44ColorIndex
 90
        5
102
RTVSPost2010Prop44ColorRGB
 90
      255
102
RTVSPost2010PropOp44
 70
     1
102
RTVSPost2010Prop45
280
     0
102
RTVSPost2010PropOp45
 70
     1
102
RTVSPost2010Prop46
 90
       50
102
RTVSPost2010PropOp46
 70
     1
102
RTVSPost2010Prop47
 90
       50
102
RTVSPost2010PropOp47
 70
     1
102
RTVSPost2010Prop48
 90
       50
102
RTVSPost2010PropOp48
 70
     1
102
RTVSPost2010Prop49
280
     0
102
RTVSPost2010PropOp49
 70
     1
102
RTVSPost2010Prop50
 90
       50
102
RTVSPost2010PropOp50
 70
     1
102
RTVSPost2010Prop51ColorIndex
 90
      256
102
RTVSPost2010Prop51ColorRGB
 90
-16777216
102
RTVSPost2010PropOp51
 70
     0
102
RTVSPost2010Prop52
140
1.0
102
RTVSPost2010PropOp52
 70
     0
102
RTVSPost2010Prop53
 90
        2
102
RTVSPost2010PropOp53
 70
     1
102
RTVSPost2010Prop54
  1
strokes_ogs.tif
102
RTVSPost2010PropOp54
 70
     1
102
RTVSPost2010Prop55
280
     0
102
RTVSPost2010PropOp55
 70
     1
102
RTVSPost2010Prop56
140
1.0
102
RTVSPost2010PropOp56
 70
     1
102
RTVSPost2010Prop57
140
1.0
102
RTVSPost2010PropOp57
 70
     1
  0
XRECORD
  5
964C7
102
{ACAD_REACTORS
330
87B32
102
}
330
87B32
100
AcDbXrecord
280
     1
102
RTVSPropertyOp0
 70
     1
102
RTVSPropertyOp1
 70
     1
102
RTVSPropertyOp2
 70
     1
102
RTVSPropertyOp3
 70
     1
102
RTVSPropertyOp4
 70
     1
102
RTVSPropertyOp5
 70
     1
102
RTVSPropertyOp6
 70
     1
102
RTVSPropertyOp7
 70
     1
102
RTVSPropertyOp8
 70
     1
102
RTVSPropertyOp9
 70
     1
102
RTVSPropertyOp10
 70
     1
102
RTVSPropertyOp11
 70
     1
102
RTVSPropertyOp12
 70
     1
102
RTVSPropertyOp13
 70
     1
102
RTVSPropertyOp14
 70
     1
102
RTVSPropertyOp15
 70
     1
102
RTVSPropertyOp16
 70
     1
102
RTVSPropertyOp17
 70
     1
102
RTVSPropertyOp18
 70
     1
102
RTVSPropertyOp19
 70
     1
102
RTVSPropertyOp20
 70
     1
102
RTVSPropertyOp21
 70
     1
102
RTVSPropertyOp22
 70
     1
102
RTVSPropertyOp23
 70
     1
102
RTVSPropertyOp24
 70
     1
102
RTVSPropertyOp25
 70
     1
102
RTVSPropertyOp26
 70
     1
102
RTVSPropertyOp27
 70
     1
102
RTVSPropertyOp28
 70
     1
102
RTVSPropertyOp29
 70
     1
102
RTVSPropertyOp30
 70
     1
102
RTVSPropertyOp31
 70
     1
102
RTVSPropertyOp32
 70
     1
102
RTVSPropertyOp33
 70
     1
102
RTVSPropertyOp34
 70
     1
102
RTVSPropertyOp35
 70
     1
102
RTVSPropertyOp36
 70
     1
102
RTVSPropertyOp37
 70
     1
102
RTVSPropertyOp38
 70
     1
102
RTVSPropertyOp39
 70
     1
102
RTVSPropertyOp40
 70
     1
102
RTVSPropertyOp41
 70
     1
102
RTVSPropertyOp42
 70
     1
102
RTVSPropertyOp43
 70
     1
102
RTVSPropertyOp44
 70
     1
102
RTVSPropertyOp45
 70
     1
102
RTVSPropertyOp46
 70
     1
102
RTVSPropertyOp47
 70
     1
102
RTVSPropertyOp48
 70
     1
102
RTVSPropertyOp49
 70
     1
102
RTVSPropertyOp50
 70
     1
102
RTVSPropertyOp51
 70
     0
102
RTVSPropertyOp52
 70
     0
102
RTVSPropertyOp53
 70
     1
102
RTVSPropertyOp54
 70
     1
102
RTVSPropertyOp55
 70
     1
102
RTVSPropertyOp56
 70
     1
102
RTVSPropertyOp57
 70
     1
102
RTVSPost2010Prop28
280
     0
102
RTVSPost2010PropOp28
 70
     1
102
RTVSPost2010Prop29
280
     1
102
RTVSPost2010PropOp29
 70
     1
102
RTVSPost2010Prop30
280
     1
102
RTVSPost2010PropOp30
 70
     1
102
RTVSPost2010Prop31
280
     0
102
RTVSPost2010PropOp31
 70
     1
102
RTVSPost2010Prop32
280
     0
102
RTVSPost2010PropOp32
 70
     1
102
RTVSPost2010Prop33
280
     0
102
RTVSPost2010PropOp33
 70
     1
102
RTVSPost2010Prop34
280
     0
102
RTVSPost2010PropOp34
 70
     1
102
RTVSPost2010Prop35
280
     0
102
RTVSPost2010PropOp35
 70
     1
102
RTVSPost2010Prop36
280
     0
102
RTVSPost2010PropOp36
 70
     1
102
RTVSPost2010Prop37
 90
       50
102
RTVSPost2010PropOp37
 70
     1
102
RTVSPost2010Prop38
140
0.0
102
RTVSPost2010PropOp38
 70
     1
102
RTVSPost2010Prop39
140
1.0
102
RTVSPost2010PropOp39
 70
     1
102
RTVSPost2010Prop40
 90
        0
102
RTVSPost2010PropOp40
 70
     1
102
RTVSPost2010Prop41ColorIndex
 90
       18
102
RTVSPost2010Prop41ColorRGB
 90
        0
102
RTVSPost2010PropOp41
 70
     1
102
RTVSPost2010Prop42
 90
       50
102
RTVSPost2010PropOp42
 70
     1
102
RTVSPost2010Prop43
 90
        3
102
RTVSPost2010PropOp43
 70
     1
102
RTVSPost2010Prop44ColorIndex
 90
        5
102
RTVSPost2010Prop44ColorRGB
 90
      255
102
RTVSPost2010PropOp44
 70
     1
102
RTVSPost2010Prop45
280
     0
102
RTVSPost2010PropOp45
 70
     1
102
RTVSPost2010Prop46
 90
       50
102
RTVSPost2010PropOp46
 70
     1
102
RTVSPost2010Prop47
 90
       50
102
RTVSPost2010PropOp47
 70
     1
102
RTVSPost2010Prop48
 90
       50
102
RTVSPost2010PropOp48
 70
     1
102
RTVSPost2010Prop49
280
     0
102
RTVSPost2010PropOp49
 70
     1
102
RTVSPost2010Prop50
 90
       50
102
RTVSPost2010PropOp50
 70
     1
102
RTVSPost2010Prop51ColorIndex
 90
      256
102
RTVSPost2010Prop51ColorRGB
 90
-16777216
102
RTVSPost2010PropOp51
 70
     0
102
RTVSPost2010Prop52
140
1.0
102
RTVSPost2010PropOp52
 70
     0
102
RTVSPost2010Prop53
 90
        2
102
RTVSPost2010PropOp53
 70
     1
102
RTVSPost2010Prop54
  1
strokes_ogs.tif
102
RTVSPost2010PropOp54
 70
     1
102
RTVSPost2010Prop55
280
     0
102
RTVSPost2010PropOp55
 70
     1
102
RTVSPost2010Prop56
140
1.0
102
RTVSPost2010PropOp56
 70
     1
102
RTVSPost2010Prop57
140
1.0
102
RTVSPost2010PropOp57
 70
     1
  0
ENDSEC
  0
EOF
