  0
SECTION
  2
HEADER
  9
$ACADVER
  1
AC1015
  9
$ACADMAINTVER
 70
    20
  9
$DWGCODEPAGE
  3
ANSI_932
  9
$INSBASE
 10
0.0
 20
0.0
 30
0.0
  9
$EXTMIN
 10
-35.95297694590163
 20
-121.4853368591289
 30
0.0
  9
$EXTMAX
 10
119.4333333333333
 20
152.3833945520237
 30
0.0
  9
$LIMMIN
 10
0.0
 20
0.0
  9
$LIMMAX
 10
420.0
 20
297.0
  9
$ORTHOMODE
 70
     1
  9
$REGENMODE
 70
     1
  9
$FILLMODE
 70
     1
  9
$QTEXTMODE
 70
     0
  9
$MIRRTEXT
 70
     1
  9
$LTSCALE
 40
1.0
  9
$ATTMODE
 70
     1
  9
$TEXTSIZE
 40
3.5
  9
$TRACEWID
 40
1.0
  9
$TEXTSTYLE
  7
simplex
  9
$CLAYER
  8
0
  9
$CELTYPE
  6
ByLayer
  9
$CECOLOR
 62
   256
  9
$CELTSCALE
 40
1.0
  9
$DISPSILH
 70
     0
  9
$DIMSCALE
 40
0.0
  9
$DIMASZ
 40
3.5
  9
$DIMEXO
 40
0.0
  9
$DIMDLI
 40
0.38
  9
$DIMRND
 40
0.0
  9
$DIMDLE
 40
0.0
  9
$DIMEXE
 40
1.5
  9
$DIMTP
 40
0.0
  9
$DIMTM
 40
0.0
  9
$DIMTXT
 40
3.5
  9
$DIMCEN
 40
0.09
  9
$DIMTSZ
 40
0.0
  9
$DIMTOL
 70
     0
  9
$DIMLIM
 70
     0
  9
$DIMTIH
 70
     0
  9
$DIMTOH
 70
     0
  9
$DIMSE1
 70
     0
  9
$DIMSE2
 70
     0
  9
$DIMTAD
 70
     1
  9
$DIMZIN
 70
     8
  9
$DIMBLK
  1

  9
$DIMASO
 70
     1
  9
$DIMSHO
 70
     1
  9
$DIMPOST
  1

  9
$DIMAPOST
  1

  9
$DIMALT
 70
     0
  9
$DIMALTD
 70
     2
  9
$DIMALTF
 40
25.4
  9
$DIMLFAC
 40
1.0
  9
$DIMTOFL
 70
     0
  9
$DIMTVP
 40
0.0
  9
$DIMTIX
 70
     0
  9
$DIMSOXD
 70
     0
  9
$DIMSAH
 70
     0
  9
$DIMBLK1
  1

  9
$DIMBLK2
  1

  9
$DIMSTYLE
  2
コピー - ISO-25
  9
$DIMCLRD
 70
   256
  9
$DIMCLRE
 70
   256
  9
$DIMCLRT
 70
   256
  9
$DIMTFAC
 40
1.0
  9
$DIMGAP
 40
2.299999999999998
  9
$DIMJUST
 70
     0
  9
$DIMSD1
 70
     0
  9
$DIMSD2
 70
     0
  9
$DIMTOLJ
 70
     1
  9
$DIMTZIN
 70
     8
  9
$DIMALTZ
 70
     0
  9
$DIMALTTZ
 70
     0
  9
$DIMUPT
 70
     0
  9
$DIMDEC
 70
     2
  9
$DIMTDEC
 70
     2
  9
$DIMALTU
 70
     2
  9
$DIMALTTD
 70
     2
  9
$DIMTXSTY
  7
simplex
  9
$DIMAUNIT
 70
     0
  9
$DIMADEC
 70
     0
  9
$DIMALTRND
 40
0.0
  9
$DIMAZIN
 70
     0
  9
$DIMDSEP
 70
    46
  9
$DIMATFIT
 70
     3
  9
$DIMFRAC
 70
     0
  9
$DIMLDRBLK
  1

  9
$DIMLUNIT
 70
     2
  9
$DIMLWD
 70
    -1
  9
$DIMLWE
 70
    -1
  9
$DIMTMOVE
 70
     0
  9
$LUNITS
 70
     2
  9
$LUPREC
 70
     4
  9
$SKETCHINC
 40
1.0
  9
$FILLETRAD
 40
0.8
  9
$AUNITS
 70
     0
  9
$AUPREC
 70
     0
  9
$MENU
  1
.
  9
$ELEVATION
 40
0.0
  9
$PELEVATION
 40
0.0
  9
$THICKNESS
 40
0.0
  9
$LIMCHECK
 70
     0
  9
$CHAMFERA
 40
10.0
  9
$CHAMFERB
 40
10.0
  9
$CHAMFERC
 40
20.0
  9
$CHAMFERD
 40
0.0
  9
$SKPOLY
 70
     0
  9
$TDCREATE
 40
2455489.391063368
  9
$TDUCREATE
 40
2455489.057730035
  9
$TDUPDATE
 40
2458948.448119803
  9
$TDUUPDATE
 40
2458948.114786470
  9
$TDINDWG
 40
2.654009271
  9
$TDUSRTIMER
 40
2.653956701
  9
$USRTIMER
 70
     1
  9
$ANGBASE
 50
0.0
  9
$ANGDIR
 70
     0
  9
$PDMODE
 70
     0
  9
$PDSIZE
 40
0.0
  9
$PLINEWID
 40
0.0
  9
$SPLFRAME
 70
     0
  9
$SPLINETYPE
 70
     6
  9
$SPLINESEGS
 70
     8
  9
$HANDSEED
  5
95F42
  9
$SURFTAB1
 70
     6
  9
$SURFTAB2
 70
     6
  9
$SURFTYPE
 70
     6
  9
$SURFU
 70
     6
  9
$SURFV
 70
     6
  9
$UCSBASE
  2

  9
$UCSNAME
  2

  9
$UCSORG
 10
0.0
 20
0.0
 30
0.0
  9
$UCSXDIR
 10
1.0
 20
0.0
 30
0.0
  9
$UCSYDIR
 10
0.0
 20
1.0
 30
0.0
  9
$UCSORTHOREF
  2

  9
$UCSORTHOVIEW
 70
     0
  9
$UCSORGTOP
 10
0.0
 20
0.0
 30
0.0
  9
$UCSORGBOTTOM
 10
0.0
 20
0.0
 30
0.0
  9
$UCSORGLEFT
 10
0.0
 20
0.0
 30
0.0
  9
$UCSORGRIGHT
 10
0.0
 20
0.0
 30
0.0
  9
$UCSORGFRONT
 10
0.0
 20
0.0
 30
0.0
  9
$UCSORGBACK
 10
0.0
 20
0.0
 30
0.0
  9
$PUCSBASE
  2

  9
$PUCSNAME
  2

  9
$PUCSORG
 10
0.0
 20
0.0
 30
0.0
  9
$PUCSXDIR
 10
1.0
 20
0.0
 30
0.0
  9
$PUCSYDIR
 10
0.0
 20
1.0
 30
0.0
  9
$PUCSORTHOREF
  2

  9
$PUCSORTHOVIEW
 70
     0
  9
$PUCSORGTOP
 10
0.0
 20
0.0
 30
0.0
  9
$PUCSORGBOTTOM
 10
0.0
 20
0.0
 30
0.0
  9
$PUCSORGLEFT
 10
0.0
 20
0.0
 30
0.0
  9
$PUCSORGRIGHT
 10
0.0
 20
0.0
 30
0.0
  9
$PUCSORGFRONT
 10
0.0
 20
0.0
 30
0.0
  9
$PUCSORGBACK
 10
0.0
 20
0.0
 30
0.0
  9
$USERI1
 70
     0
  9
$USERI2
 70
     0
  9
$USERI3
 70
     0
  9
$USERI4
 70
     0
  9
$USERI5
 70
     0
  9
$USERR1
 40
0.0
  9
$USERR2
 40
0.0
  9
$USERR3
 40
0.0
  9
$USERR4
 40
0.0
  9
$USERR5
 40
0.0
  9
$WORLDVIEW
 70
     1
  9
$SHADEDGE
 70
     3
  9
$SHADEDIF
 70
    70
  9
$TILEMODE
 70
     1
  9
$MAXACTVP
 70
    64
  9
$PINSBASE
 10
0.0
 20
0.0
 30
0.0
  9
$PLIMCHECK
 70
     0
  9
$PEXTMIN
 10
26.66999878883364
 20
20.31999878883365
 30
0.0
  9
$PEXTMAX
 10
240.0299890995025
 20
182.8799890995025
 30
0.0
  9
$PLIMMIN
 10
-6.350006103515625
 20
-6.349999904632567
  9
$PLIMMAX
 10
273.0499877929688
 20
209.5499939918518
  9
$UNITMODE
 70
     0
  9
$VISRETAIN
 70
     1
  9
$PLINEGEN
 70
     0
  9
$PSLTSCALE
 70
     1
  9
$TREEDEPTH
 70
  3020
  9
$CMLSTYLE
  2
Standard
  9
$CMLJUST
 70
     0
  9
$CMLSCALE
 40
20.0
  9
$PROXYGRAPHICS
 70
     1
  9
$MEASUREMENT
 70
     1
  9
$CELWEIGHT
370
    -1
  9
$ENDCAPS
280
     0
  9
$JOINSTYLE
280
     0
  9
$LWDISPLAY
290
     0
  9
$INSUNITS
 70
     4
  9
$HYPERLINKBASE
  1

  9
$STYLESHEET
  1

  9
$XEDIT
290
     1
  9
$CEPSNTYPE
380
     0
  9
$PSTYLEMODE
290
     1
  9
$FINGERPRINTGUID
  2
{D3C97B62-BE52-4A8D-A20C-14FFCF177173}
  9
$VERSIONGUID
  2
{64F2B86B-912F-4DD2-A580-1D7D4D7BBD7E}
  9
$EXTNAMES
290
     1
  9
$PSVPSCALE
 40
0.0
  9
$OLESTARTUP
290
     0
  0
ENDSEC
  0
SECTION
  2
CLASSES
  0
CLASS
  1
ACDBDICTIONARYWDFLT
  2
AcDbDictionaryWithDefault
  3
ObjectDBX Classes
 90
        0
280
     0
281
     0
  0
CLASS
  1
ACDBPLACEHOLDER
  2
AcDbPlaceHolder
  3
ObjectDBX Classes
 90
    32768
280
     0
281
     0
  0
CLASS
  1
LAYOUT
  2
AcDbLayout
  3
ObjectDBX Classes
 90
    32768
280
     0
281
     0
  0
CLASS
  1
DICTIONARYVAR
  2
AcDbDictionaryVar
  3
ObjectDBX Classes
 90
        0
280
     0
281
     0
  0
CLASS
  1
TABLESTYLE
  2
AcDbTableStyle
  3
ObjectDBX Classes
 90
     4095
280
     0
281
     0
  0
CLASS
  1
SORTENTSTABLE
  2
AcDbSortentsTable
  3
ObjectDBX Classes
 90
        0
280
     0
281
     0
  0
CLASS
  1
DIMASSOC
  2
AcDbDimAssoc
  3
"AcDbDimAssoc|Product Desc:     AcDim ARX App For Dimension|Company:          Autodesk, Inc.|WEB Address:      www.autodesk.com"
 90
        0
280
     0
281
     0
  0
CLASS
  1
ACAD_EVALUATION_GRAPH
  2
AcDbEvalGraph
  3
ObjectDBX Classes
 90
    33921
280
     0
281
     0
  0
CLASS
  1
ACAECUSTOBJ
  2
AcAeEditorObj
  3
AcAeEditorObj
 90
    33792
280
     0
281
     0
  0
CLASS
  1
ACDB_DYNAMICBLOCKPURGEPREVENTER_VERSION
  2
AcDbDynamicBlockPurgePreventer
  3
ObjectDBX Classes
 90
    33921
280
     0
281
     0
  0
CLASS
  1
MATERIAL
  2
AcDbMaterial
  3
ObjectDBX Classes
 90
     1153
280
     0
281
     0
  0
CLASS
  1
VISUALSTYLE
  2
AcDbVisualStyle
  3
ObjectDBX Classes
 90
     4095
280
     0
281
     0
  0
CLASS
  1
SCALE
  2
AcDbScale
  3
ObjectDBX Classes
 90
     1153
280
     0
281
     0
  0
CLASS
  1
MLEADERSTYLE
  2
AcDbMLeaderStyle
  3
ACDB_MLEADERSTYLE_CLASS
 90
     4095
280
     0
281
     0
  0
CLASS
  1
ACDBSECTIONVIEWSTYLE
  2
AcDbSectionViewStyle
  3
ObjectDBX Classes
 90
     1025
280
     0
281
     0
  0
CLASS
  1
ACDBDETAILVIEWSTYLE
  2
AcDbDetailViewStyle
  3
ObjectDBX Classes
 90
     1025
280
     0
281
     0
  0
CLASS
  1
CELLSTYLEMAP
  2
AcDbCellStyleMap
  3
ObjectDBX Classes
 90
     1152
280
     0
281
     0
  0
CLASS
  1
ACDBPLACEHOLDER
  2
AcDbPlaceHolder
  3
ObjectDBX Classes
 90
    32768
280
     0
281
     0
  0
CLASS
  1
LAYOUT
  2
AcDbLayout
  3
ObjectDBX Classes
 90
    32768
280
     0
281
     0
  0
CLASS
  1
ACDBPLACEHOLDER
  2
AcDbPlaceHolder
  3
ObjectDBX Classes
 90
    32768
280
     0
281
     0
  0
CLASS
  1
LAYOUT
  2
AcDbLayout
  3
ObjectDBX Classes
 90
    32768
280
     0
281
     0
  0
CLASS
  1
ACDBPLACEHOLDER
  2
AcDbPlaceHolder
  3
ObjectDBX Classes
 90
    32768
280
     0
281
     0
  0
CLASS
  1
LAYOUT
  2
AcDbLayout
  3
ObjectDBX Classes
 90
    32768
280
     0
281
     0
  0
CLASS
  1
ACDBPLACEHOLDER
  2
AcDbPlaceHolder
  3
ObjectDBX Classes
 90
    32768
280
     0
281
     0
  0
CLASS
  1
LAYOUT
  2
AcDbLayout
  3
ObjectDBX Classes
 90
    32768
280
     0
281
     0
  0
CLASS
  1
ACDBPLACEHOLDER
  2
AcDbPlaceHolder
  3
ObjectDBX Classes
 90
        0
280
     0
281
     0
  0
CLASS
  1
LAYOUT
  2
AcDbLayout
  3
ObjectDBX Classes
 90
        0
280
     0
281
     0
  0
ENDSEC
  0
SECTION
  2
TABLES
  0
TABLE
  2
VPORT
  5
8
102
{ACAD_XDICTIONARY
360
8C34E
102
}
330
0
100
AcDbSymbolTable
 70
     1
  0
VPORT
  5
4A360
330
8
100
AcDbSymbolTableRecord
100
AcDbViewportTableRecord
  2
*Active
 70
     0
 10
0.0
 20
0.0
 11
1.0
 21
1.0
 12
9.417045121566809
 22
25.20452925611829
 13
0.0
 23
0.0
 14
10.0
 24
10.0
 15
10.0
 25
10.0
 16
0.0
 26
0.0
 36
1.0
 17
0.0
 27
0.0
 37
0.0
 40
258.4964530333707
 41
1.705156950672645
 42
50.0
 43
0.0
 44
0.0
 50
0.0
 51
0.0
 71
     0
 72
  1000
 73
     1
 74
     1
 75
     0
 76
     0
 77
     0
 78
     0
281
     0
 65
     1
110
0.0
120
0.0
130
0.0
111
1.0
121
0.0
131
0.0
112
0.0
122
1.0
132
0.0
 79
     0
146
0.0
1001
ACAD_NAV_VCDISPLAY
1070
     3
  0
ENDTAB
  0
TABLE
  2
LTYPE
  5
5
330
0
100
AcDbSymbolTable
 70
     3
  0
LTYPE
  5
14
330
5
100
AcDbSymbolTableRecord
100
AcDbLinetypeTableRecord
  2
ByBlock
 70
     0
  3

 72
    65
 73
     0
 40
0.0
  0
LTYPE
  5
15
330
5
100
AcDbSymbolTableRecord
100
AcDbLinetypeTableRecord
  2
ByLayer
 70
     0
  3

 72
    65
 73
     0
 40
0.0
  0
LTYPE
  5
16
330
5
100
AcDbSymbolTableRecord
100
AcDbLinetypeTableRecord
  2
Continuous
 70
     0
  3
Solid line
 72
    65
 73
     0
 40
0.0
  0
LTYPE
  5
4A76E
330
5
100
AcDbSymbolTableRecord
100
AcDbLinetypeTableRecord
  2
CENTER2
 70
     0
  3
Center (.5x) ___ _ ___ _ ___ _ ___ _ ___ _ ___
 72
    65
 73
     4
 40
28.575
 49
19.05
 74
     0
 49
-3.174999999999998
 74
     0
 49
3.174999999999998
 74
     0
 49
-3.174999999999998
 74
     0
  0
LTYPE
  5
87B53
330
5
100
AcDbSymbolTableRecord
100
AcDbLinetypeTableRecord
  2
HIDDEN
 70
     0
  3
Hidden __ __ __ __ __ __ __ __ __ __ __ __ __ _
 72
    65
 73
     2
 40
9.524999999999996
 49
6.349999999999997
 74
     0
 49
-3.174999999999998
 74
     0
  0
ENDTAB
  0
TABLE
  2
LAYER
  5
2
102
{ACAD_XDICTIONARY
360
E2
102
}
330
0
100
AcDbSymbolTable
 70
    10
  0
LAYER
  5
10
102
{ACAD_XDICTIONARY
360
4A86C
102
}
330
2
100
AcDbSymbolTableRecord
100
AcDbLayerTableRecord
  2
0
 70
     0
 62
     7
  6
Continuous
370
    -3
390
F
  0
LAYER
  5
31B6
330
2
100
AcDbSymbolTableRecord
100
AcDbLayerTableRecord
  2
Defpoints
 70
     0
 62
     7
  6
Continuous
290
     0
370
    -3
390
F
  0
LAYER
  5
4A772
102
{ACAD_XDICTIONARY
360
4A773
102
}
330
2
100
AcDbSymbolTableRecord
100
AcDbLayerTableRecord
  2
1
 70
     0
 62
     4
  6
Continuous
370
    50
390
F
1001
AcAecLayerStandard
1000

1000
Contour
  0
LAYER
  5
4A774
102
{ACAD_XDICTIONARY
360
4A775
102
}
330
2
100
AcDbSymbolTableRecord
100
AcDbLayerTableRecord
  2
2
 70
     0
 62
     7
  6
Continuous
370
    25
390
F
1001
AcAecLayerStandard
1000

1000
Dimension milling
  0
LAYER
  5
4A776
102
{ACAD_XDICTIONARY
360
4A777
102
}
330
2
100
AcDbSymbolTableRecord
100
AcDbLayerTableRecord
  2
4
 70
     0
 62
     2
  6
CENTER2
370
    25
390
F
1001
AcAecLayerStandard
1000

1000
Center line
  0
LAYER
  5
4A778
102
{ACAD_XDICTIONARY
360
4A779
102
}
330
2
100
AcDbSymbolTableRecord
100
AcDbLayerTableRecord
  2
cut
 70
     0
 62
     1
  6
Continuous
370
    25
390
F
1001
AcAecLayerStandard
1000

1000
contour
  0
LAYER
  5
4A77A
102
{ACAD_XDICTIONARY
360
4A77B
102
}
330
2
100
AcDbSymbolTableRecord
100
AcDbLayerTableRecord
  2
nocut
 70
     0
 62
     7
  6
Continuous
370
    25
390
F
1001
AcAecLayerStandard
1000

1000
contour
  0
LAYER
  5
4A77E
102
{ACAD_XDICTIONARY
360
4A77F
102
}
330
2
100
AcDbSymbolTableRecord
100
AcDbLayerTableRecord
  2
sk2
 70
     0
 62
     7
  6
Continuous
370
    25
390
F
1001
AcAecLayerStandard
1000

1000
sk2 dimension
  0
LAYER
  5
4A782
102
{ACAD_XDICTIONARY
360
4A783
102
}
330
2
100
AcDbSymbolTableRecord
100
AcDbLayerTableRecord
  2
sk6
 70
     0
 62
     5
  6
Continuous
370
    35
390
F
1001
AcAecLayerStandard
1000

1000
sk6 text
  0
LAYER
  5
87B52
102
{ACAD_XDICTIONARY
360
8C34C
102
}
330
2
100
AcDbSymbolTableRecord
100
AcDbLayerTableRecord
  2
sk3
 70
     0
 62
     1
  6
HIDDEN
370
    35
390
F
1001
AcAecLayerStandard
1000

1000

  0
ENDTAB
  0
TABLE
  2
STYLE
  5
3
330
0
100
AcDbSymbolTable
 70
     2
  0
STYLE
  5
11
330
3
100
AcDbSymbolTableRecord
100
AcDbTextStyleTableRecord
  2
Standard
 70
     0
 40
0.0
 41
1.0
 50
0.0
 71
     0
 42
2.5
  3
txt.shx
  4
@extfont2.shx
  0
STYLE
  5
24A
330
3
100
AcDbSymbolTableRecord
100
AcDbTextStyleTableRecord
  2
simplex
 70
     0
 40
3.5
 41
1.0
 50
0.0
 71
     0
 42
3.5
  3
txt.shx
  4

  0
ENDTAB
  0
TABLE
  2
VIEW
  5
6
330
0
100
AcDbSymbolTable
 70
     0
  0
ENDTAB
  0
TABLE
  2
UCS
  5
7
330
0
100
AcDbSymbolTable
 70
     0
  0
ENDTAB
  0
TABLE
  2
APPID
  5
9
330
0
100
AcDbSymbolTable
 70
    31
  0
APPID
  5
12
330
9
100
AcDbSymbolTableRecord
100
AcDbRegAppTableRecord
  2
ACAD
 70
     0
  0
APPID
  5
D2
330
9
100
AcDbSymbolTableRecord
100
AcDbRegAppTableRecord
  2
AcAecLayerStandard
 70
     0
  0
APPID
  5
E6
330
9
100
AcDbSymbolTableRecord
100
AcDbRegAppTableRecord
  2
ACAD_DSTYLE_DIMTEXT_FILL
 70
     0
  0
APPID
  5
4C84
330
9
100
AcDbSymbolTableRecord
100
AcDbRegAppTableRecord
  2
ACAD_EXEMPT_FROM_CAD_STANDARDS
 70
     0
  0
APPID
  5
3493E
330
9
100
AcDbSymbolTableRecord
100
AcDbRegAppTableRecord
  2
DCO15
 70
     0
  0
APPID
  5
3BAB0
330
9
100
AcDbSymbolTableRecord
100
AcDbRegAppTableRecord
  2
ACAD_DSTYLE_DIMEXT_ENABLED
 70
     0
  0
APPID
  5
3BAB1
330
9
100
AcDbSymbolTableRecord
100
AcDbRegAppTableRecord
  2
ACAD_DSTYLE_DIMEXT_LENGTH
 70
     0
  0
APPID
  5
3BEB4
330
9
100
AcDbSymbolTableRecord
100
AcDbRegAppTableRecord
  2
ACAUTHENVIRON
 70
     0
  0
APPID
  5
3BEB7
330
9
100
AcDbSymbolTableRecord
100
AcDbRegAppTableRecord
  2
AcDbDynamicBlockTrueName
 70
     0
  0
APPID
  5
3BEB8
330
9
100
AcDbSymbolTableRecord
100
AcDbRegAppTableRecord
  2
AcDbDynamicBlockGUID
 70
     0
  0
APPID
  5
3BEBA
330
9
100
AcDbSymbolTableRecord
100
AcDbRegAppTableRecord
  2
AcDbBlockRepETag
 70
     0
  0
APPID
  5
4A453
330
9
100
AcDbSymbolTableRecord
100
AcDbRegAppTableRecord
  2
ACAD_PSEXT
 70
     0
  0
APPID
  5
4A454
330
9
100
AcDbSymbolTableRecord
100
AcDbRegAppTableRecord
  2
AcadAnnotative
 70
     0
  0
APPID
  5
4A455
330
9
100
AcDbSymbolTableRecord
100
AcDbRegAppTableRecord
  2
ACAD_DSTYLE_DIMJAG
 70
     0
  0
APPID
  5
4A456
330
9
100
AcDbSymbolTableRecord
100
AcDbRegAppTableRecord
  2
ACAD_DSTYLE_DIMTALN
 70
     0
  0
APPID
  5
4A457
330
9
100
AcDbSymbolTableRecord
100
AcDbRegAppTableRecord
  2
ACAD_NAV_VCDISPLAY
 70
     0
  0
APPID
  5
4A787
330
9
100
AcDbSymbolTableRecord
100
AcDbRegAppTableRecord
  2
ACAD_DSTYLE_DIMINSPECT
 70
     0
  0
APPID
  5
4A788
330
9
100
AcDbSymbolTableRecord
100
AcDbRegAppTableRecord
  2
GENIUS_GENDTOL_13
 70
     0
  0
APPID
  5
4A789
330
9
100
AcDbSymbolTableRecord
100
AcDbRegAppTableRecord
  2
ZWMCAD_GENSTANDARDFRAME_13_
 70
     0
  0
APPID
  5
4A78A
330
9
100
AcDbSymbolTableRecord
100
AcDbRegAppTableRecord
  2
ZW_RECESS_XDATA
 70
     0
  0
APPID
  5
4A78B
330
9
100
AcDbSymbolTableRecord
100
AcDbRegAppTableRecord
  2
ZW_FAC_XDATA
 70
     0
  0
APPID
  5
4A78C
330
9
100
AcDbSymbolTableRecord
100
AcDbRegAppTableRecord
  2
ZW_FLC_XDATA
 70
     0
  0
APPID
  5
4A78D
330
9
100
AcDbSymbolTableRecord
100
AcDbRegAppTableRecord
  2
ZW_SUPERPART
 70
     0
  0
APPID
  5
4A78E
330
9
100
AcDbSymbolTableRecord
100
AcDbRegAppTableRecord
  2
ZW_SUPERSYMBOL
 70
     0
  0
APPID
  5
4A78F
330
9
100
AcDbSymbolTableRecord
100
AcDbRegAppTableRecord
  2
ZW_SUPERSHAFT
 70
     0
  0
APPID
  5
4A790
330
9
100
AcDbSymbolTableRecord
100
AcDbRegAppTableRecord
  2
ZWMCAD_GENFRAME_13_
 70
     0
  0
APPID
  5
4A791
330
9
100
AcDbSymbolTableRecord
100
AcDbRegAppTableRecord
  2
ACAD_MLEADERVER
 70
     0
  0
APPID
  5
4A792
330
9
100
AcDbSymbolTableRecord
100
AcDbRegAppTableRecord
  2
ACAD_DSTYLE_DIMRADIAL_EXTENSION
 70
     0
  0
APPID
  5
885F1
330
9
100
AcDbSymbolTableRecord
100
AcDbRegAppTableRecord
  2
ZWMCAD_GENSCA_13_
 70
     0
  0
APPID
  5
885EF
330
9
100
AcDbSymbolTableRecord
100
AcDbRegAppTableRecord
  2
ACAD_DSTYLE_DIMRADIAL_EXTE
 70
     0
  0
APPID
  5
885EE
330
9
100
AcDbSymbolTableRecord
100
AcDbRegAppTableRecord
  2
ZWMCAD_GENSTANDARDFRAME_13
 70
     0
  0
ENDTAB
  0
TABLE
  2
DIMSTYLE
  5
A
330
0
100
AcDbSymbolTable
 70
     2
100
AcDbDimStyleTable
 71
    21
340
1BF
340
3527
340
90771
340
907A6
340
907AC
340
907B1
340
907B7
340
919EE
340
919F4
340
919F9
340
919FF
340
91A04
340
91A0A
340
91A0F
340
91A15
340
91A1A
340
91A20
340
91A25
340
91A2B
340
91A30
340
91A36
  0
DIMSTYLE
105
1BF
102
{ACAD_REACTORS
330
95B4A
330
95BEC
330
95B56
330
95B50
330
95B4D
330
95B53
330
95E5A
102
}
330
A
100
AcDbSymbolTableRecord
100
AcDbDimStyleTableRecord
  2
コピー - ISO-25
 70
     0
 40
0.0
 41
3.5
 42
0.0
 44
1.5
 73
     0
 74
     0
 77
     1
 78
     8
140
3.5
147
2.299999999999998
176
   256
177
   256
271
     2
178
   256
271
     2
272
     2
284
     8
340
24A
371
    -1
372
    -1
  0
DIMSTYLE
105
3527
330
A
100
AcDbSymbolTableRecord
100
AcDbDimStyleTableRecord
  2
STANDARD
 70
     0
 41
3.0
 47
0.001
 48
0.001
 71
     1
 73
     0
 74
     0
 77
     1
 78
     8
140
4.0
271
     3
272
     3
284
     8
340
11
341
34B1
342
34B1
343
34B1
344
34B1
  0
ENDTAB
  0
TABLE
  2
BLOCK_RECORD
  5
1
330
0
100
AcDbSymbolTable
 70
    11
  0
BLOCK_RECORD
  5
1F
102
{ACAD_XDICTIONARY
360
31EE
102
}
330
1
100
AcDbSymbolTableRecord
100
AcDbBlockTableRecord
  2
*Model_Space
340
22
  0
BLOCK_RECORD
  5
55
330
1
100
AcDbSymbolTableRecord
100
AcDbBlockTableRecord
  2
*Paper_Space
340
56
  0
BLOCK_RECORD
  5
50
330
1
100
AcDbSymbolTableRecord
100
AcDbBlockTableRecord
  2
*Paper_Space000000
340
51
  0
BLOCK_RECORD
  5
34B1
330
1
100
AcDbSymbolTableRecord
100
AcDbBlockTableRecord
  2
_OPEN
340
0
  0
BLOCK_RECORD
  5
4A6D6
102
{ACAD_XDICTIONARY
360
4A6D7
102
}
330
1
100
AcDbSymbolTableRecord
100
AcDbBlockTableRecord
  2
zero block
340
0
102
{BLKREFS
331
8BFE6
331
4A793
331
880DD
331
882D3
331
87B7F
331
87D7D
331
90190
331
903FC
331
90821
331
90A84
331
90E49
331
910AD
331
91473
331
916B3
331
91AA1
331
91CE2
331
9523F
331
95477
331
957E9
331
95A1C
331
93114
331
934B4
331
936F3
331
93AD2
331
93D08
331
940A1
331
942D2
331
94691
331
948CF
331
94C70
331
94EA9
331
8BD57
331
92098
331
922DA
331
9267F
331
928BF
331
92B61
331
92ED7
331
8FB3B
331
8FDCA
102
}
1001
AcDbDynamicBlockGUID
1000
{A89DF4EB-B2CB-439E-AC69-1EAC9F242D1C}
1001
AcDbBlockRepETag
1070
     1
1071
        7
1001
ACAD
1000
DesignCenter Data
1002
{
1070
     1
1070
     4
1002
}
  0
BLOCK_RECORD
  5
87D73
330
1
100
AcDbSymbolTableRecord
100
AcDbBlockTableRecord
  2
_None
340
0
102
{BLKREFS
331
8C250
331
8C292
331
8C2BE
331
8C2FE
331
8C332
331
87FA2
331
87FBD
331
87FC5
331
88042
331
88238
331
884B1
331
884F0
331
88512
331
885AA
331
87D72
331
87F63
331
9002A
331
9006F
331
900CE
331
90117
331
903C3
331
9062B
331
90673
331
906DD
331
90724
331
909A6
331
90CA0
331
90CEB
331
90D5B
331
90DBF
331
90FCE
331
912CA
331
91315
331
9135A
331
913E9
331
915B9
331
91895
331
918E5
331
91966
331
91989
331
91BE7
331
91EC5
331
91F15
331
91F6B
331
950B4
331
950F8
331
95155
331
9519C
331
953BD
331
95681
331
956C5
331
95722
331
9573C
331
95771
331
95967
331
95C21
331
95C65
331
95CCC
331
95D13
331
95D5B
331
93052
331
93323
331
93367
331
933C4
331
9343C
331
9362F
331
93904
331
93948
331
9397A
331
939E2
331
93A5A
331
93CFD
331
93F26
331
93F64
331
93FB1
331
9403A
331
9420F
331
944D5
331
94519
331
945A7
331
945EE
331
947FF
331
94ADF
331
94B23
331
94B80
331
94BF8
331
94E84
331
8BC93
331
8BCED
331
8BF27
331
91FFC
331
921DE
331
924BE
331
9250E
331
9258F
331
925B2
331
9289C
331
92AD1
331
92B15
331
92D7E
331
92E18
331
92E5F
331
8FA29
331
8FA4D
331
8FAA7
331
8FD00
331
8A12B
331
8DEC1
102
}
  0
BLOCK_RECORD
  5
95BED
330
1
100
AcDbSymbolTableRecord
100
AcDbBlockTableRecord
  2
*D25044
340
0
  0
BLOCK_RECORD
  5
95BF9
330
1
100
AcDbSymbolTableRecord
100
AcDbBlockTableRecord
  2
*D25155
340
0
  0
BLOCK_RECORD
  5
95C05
330
1
100
AcDbSymbolTableRecord
100
AcDbBlockTableRecord
  2
*D25266
340
0
  0
BLOCK_RECORD
  5
95C11
330
1
100
AcDbSymbolTableRecord
100
AcDbBlockTableRecord
  2
*D25377
340
0
  0
BLOCK_RECORD
  5
95C1D
330
1
100
AcDbSymbolTableRecord
100
AcDbBlockTableRecord
  2
*D25488
340
0
  0
BLOCK_RECORD
  5
95C32
330
1
100
AcDbSymbolTableRecord
100
AcDbBlockTableRecord
  2
*D256109
340
0
  0
BLOCK_RECORD
  5
95E5B
330
1
100
AcDbSymbolTableRecord
100
AcDbBlockTableRecord
  2
*D1310
340
0
  0
ENDTAB
  0
ENDSEC
  0
SECTION
  2
BLOCKS
  0
BLOCK
  5
20
330
1F
100
AcDbEntity
  8
0
100
AcDbBlockBegin
  2
*Model_Space
 70
     0
 10
0.0
 20
0.0
 30
0.0
  3
*Model_Space
  1

  0
ENDBLK
  5
21
330
1F
100
AcDbEntity
  8
0
100
AcDbBlockEnd
  0
BLOCK
  5
57
330
55
100
AcDbEntity
 67
     1
  8
0
100
AcDbBlockBegin
  2
*Paper_Space
 70
     0
 10
0.0
 20
0.0
 30
0.0
  3
*Paper_Space
  1

  0
ENDBLK
  5
58
330
55
100
AcDbEntity
 67
     1
  8
0
100
AcDbBlockEnd
  0
BLOCK
  5
52
330
50
100
AcDbEntity
  8
0
100
AcDbBlockBegin
  2
*Paper_Space000000
 70
     0
 10
0.0
 20
0.0
 30
0.0
  3
*Paper_Space000000
  1

  0
VIEWPORT
  5
6B
102
{ACAD_XDICTIONARY
360
87B05
102
}
330
50
100
AcDbEntity
  8
0
100
AcDbViewport
 10
264.3775031494645
 20
160.4455827878762
 30
0.0
 40
567.6219612953822
 41
282.2272140146125
 68
     1
 69
    -1
 12
264.3775031494645
 22
160.4455827878762
 13
0.0
 23
0.0
 14
10.0
 24
10.0
 15
10.0
 25
10.0
 16
0.0
 26
0.0
 36
1.0
 17
0.0
 27
0.0
 37
0.0
 42
50.0
 43
0.0
 44
0.0
 45
282.2272140146125
 50
0.0
 51
0.0
 72
  1000
 90
    32864
  1

281
     0
 71
     1
 74
     0
110
0.0
120
0.0
130
0.0
111
1.0
121
0.0
131
0.0
112
0.0
122
1.0
132
0.0
 79
     0
146
0.0
  0
VIEWPORT
  5
6D
102
{ACAD_XDICTIONARY
360
87B07
102
}
330
50
100
AcDbEntity
  8
0
100
AcDbViewport
 10
133.3499939441681
 20
101.5999939441681
 30
0.0
 40
213.3599903106689
 41
162.5599903106689
 68
     2
 69
    -1
 12
210.0
 22
148.5
 13
0.0
 23
0.0
 14
10.0
 24
10.0
 15
10.0
 25
10.0
 16
0.0
 26
0.0
 36
1.0
 17
0.0
 27
0.0
 37
0.0
 42
50.0
 43
0.0
 44
0.0
 45
324.0677920111345
 50
0.0
 51
0.0
 72
   100
 90
    32864
  1

281
     0
 71
     1
 74
     0
110
0.0
120
0.0
130
0.0
111
1.0
121
0.0
131
0.0
112
0.0
122
1.0
132
0.0
 79
     0
146
0.0
  0
ENDBLK
  5
53
330
50
100
AcDbEntity
  8
0
100
AcDbBlockEnd
  0
BLOCK
  5
34B2
330
34B1
100
AcDbEntity
  8
0
100
AcDbBlockBegin
  2
_OPEN
 70
     0
 10
0.0
 20
0.0
 30
0.0
  3
_OPEN
  1

  0
LINE
  5
34B3
330
34B1
100
AcDbEntity
  8
0
  6
ByBlock
 62
     0
100
AcDbLine
 10
0.0
 20
0.0
 30
0.0
 11
-1.0
 21
0.1766666667
 31
0.0
  0
LINE
  5
34B4
330
34B1
100
AcDbEntity
  8
0
  6
ByBlock
 62
     0
100
AcDbLine
 10
-1.0
 20
-0.1766666667
 30
0.0
 11
0.0
 21
0.0
 31
0.0
  0
LINE
  5
34B5
330
34B1
100
AcDbEntity
  8
0
  6
ByBlock
 62
     0
100
AcDbLine
 10
-1.0
 20
0.0
 30
0.0
 11
0.0
 21
0.0
 31
0.0
  0
ENDBLK
  5
34B6
330
34B1
100
AcDbEntity
  8
0
  6
ByBlock
 62
     0
100
AcDbBlockEnd
  0
BLOCK
  5
4A6D9
330
4A6D6
100
AcDbEntity
  8
0
100
AcDbBlockBegin
  2
zero block
 70
     0
 10
0.0
 20
0.0
 30
0.0
  3
zero block
  1

  0
HATCH
  5
4A6DA
330
4A6D6
100
AcDbEntity
  8
0
 62
     7
100
AcDbHatch
 10
0.0
 20
0.0
 30
0.0
210
0.0
220
0.0
230
1.0
  2
SOLID
 70
     1
 71
     0
 91
        2
 92
        7
 72
     1
 73
     1
 93
        3
 10
0.0
 20
0.9999999999999875
 42
0.4142135623730915
 10
-1.0
 20
0.0
 42
0.0
 10
0.0
 20
0.0
 42
0.0
 97
        0
 92
        7
 72
     1
 73
     1
 93
        3
 10
1.000000000000007
 20
0.0
 42
0.0
 10
0.0
 20
0.0
 42
0.0
 10
0.0
 20
-1.0
 42
0.4142135623730974
 97
        0
 75
     0
 76
     1
 47
0.0090601366782909
 98
        2
 10
-0.380591363650975
 20
0.4885804701532896
 10
0.4350764810977559
 20
-0.4536738423704725
1001
AcDbBlockRepETag
1070
     1
1071
        0
1005
4A6DA
  0
LINE
  5
4A6DB
330
4A6D6
100
AcDbEntity
  8
0
 62
     7
 48
0.2
100
AcDbLine
 10
-1.0
 20
0.0
 30
0.0
 11
1.000000000000007
 21
0.0
 31
0.0
1001
AcDbBlockRepETag
1070
     1
1071
        1
1005
4A6DB
  0
LINE
  5
4A6DC
330
4A6D6
100
AcDbEntity
  8
0
 62
     7
 48
0.2
100
AcDbLine
 10
0.0
 20
-1.0
 30
0.0
 11
0.0
 21
0.9999999999999875
 31
0.0
1001
AcDbBlockRepETag
1070
     1
1071
        2
1005
4A6DC
  0
ARC
  5
4A6DD
330
4A6D6
100
AcDbEntity
  8
0
 62
     7
 48
0.2
100
AcDbCircle
 10
0.0
 20
0.0
 30
0.0
 40
1.0
100
AcDbArc
 50
270.0
 51
0.0
1001
AcDbBlockRepETag
1070
     1
1071
        3
1005
4A6DD
  0
ARC
  5
4A6DE
330
4A6D6
100
AcDbEntity
  8
0
 62
     7
 48
0.2
100
AcDbCircle
 10
0.0
 20
0.0
 30
0.0
 40
1.0
100
AcDbArc
 50
0.0
 51
90.0
1001
AcDbBlockRepETag
1070
     1
1071
        4
1005
4A6DE
  0
ARC
  5
4A6DF
330
4A6D6
100
AcDbEntity
  8
0
 62
     7
 48
0.2
100
AcDbCircle
 10
0.0
 20
0.0
 30
0.0
 40
1.0
100
AcDbArc
 50
180.0
 51
270.0
1001
AcDbBlockRepETag
1070
     1
1071
        5
1005
4A6DF
  0
ARC
  5
4A6E0
330
4A6D6
100
AcDbEntity
  8
0
 62
     7
 48
0.2
100
AcDbCircle
 10
0.0
 20
0.0
 30
0.0
 40
1.0
100
AcDbArc
 50
90.0
 51
180.0
1001
AcDbBlockRepETag
1070
     1
1071
        6
1005
4A6E0
  0
ENDBLK
  5
4A6E1
330
4A6D6
100
AcDbEntity
  8
0
100
AcDbBlockEnd
  0
BLOCK
  5
87D74
330
87D73
100
AcDbEntity
  8
0
100
AcDbBlockBegin
  2
_None
 70
     0
 10
0.0
 20
0.0
 30
0.0
  3
_None
  1

  0
ENDBLK
  5
87D75
330
87D73
100
AcDbEntity
  8
0
100
AcDbBlockEnd
  0
BLOCK
  5
95BF7
330
95BED
100
AcDbEntity
  8
0
100
AcDbBlockBegin
  2
*D25044
 70
     1
 10
0.0
 20
0.0
 30
0.0
  3
*D25044
  1

  0
LINE
  5
95EE2
330
95BED
100
AcDbEntity
  8
2
100
AcDbLine
 10
0.0
 20
85.49999999889996
 30
0.0
 11
0.0
 21
131.4810258655372
 31
0.0
  0
LINE
  5
95EE3
330
95BED
100
AcDbEntity
  8
2
100
AcDbLine
 10
63.50000000000004
 20
100.7999999989098
 30
0.0
 11
63.50000000000004
 21
131.4810258655372
 31
0.0
  0
LINE
  5
95EE4
330
95BED
100
AcDbEntity
  8
2
100
AcDbLine
 10
3.5
 20
129.9810258655372
 30
0.0
 11
60.00000000000003
 21
129.9810258655372
 31
0.0
  0
SOLID
  5
95EE5
330
95BED
100
AcDbEntity
  8
2
100
AcDbTrace
 10
3.5
 20
130.5643591988705
 30
0.0
 11
3.5
 21
129.3976925322038
 31
0.0
 12
0.0
 22
129.9810258655372
 32
0.0
 13
0.0
 23
129.9810258655372
 33
0.0
  0
SOLID
  5
95EE6
330
95BED
100
AcDbEntity
  8
2
100
AcDbTrace
 10
60.00000000000003
 20
129.3976925322038
 30
0.0
 11
60.00000000000003
 21
130.5643591988705
 31
0.0
 12
63.50000000000004
 22
129.9810258655372
 32
0.0
 13
63.50000000000004
 23
129.9810258655372
 33
0.0
  0
MTEXT
  5
95EE7
330
95BED
100
AcDbEntity
  8
2
100
AcDbMText
 10
31.75000000000002
 20
134.0310258655372
 30
0.0
 40
3.5
 41
0.0
 71
     5
 72
     1
  1
\A1;63.5 [2.500"]
  7
simplex
 73
     1
 44
1.0
1001
ACAD
1000
MTEXTBEGIN
1070
    73
1070
     1
1070
    44
1040
1.0
1070
    74
1070
     0
1000
MTEXTEND
  0
POINT
  5
95EE8
330
95BED
100
AcDbEntity
  8
Defpoints
 62
     0
100
AcDbPoint
 10
0.0
 20
85.49999999889996
 30
0.0
  0
POINT
  5
95EE9
330
95BED
100
AcDbEntity
  8
Defpoints
 62
     0
100
AcDbPoint
 10
63.50000000000004
 20
100.7999999989098
 30
0.0
  0
POINT
  5
95EEA
330
95BED
100
AcDbEntity
  8
Defpoints
 62
     0
100
AcDbPoint
 10
63.50000000000004
 20
129.9810258655372
 30
0.0
  0
ENDBLK
  5
95BF8
330
95BED
100
AcDbEntity
  8
0
100
AcDbBlockEnd
  0
BLOCK
  5
95C03
330
95BF9
100
AcDbEntity
  8
0
100
AcDbBlockBegin
  2
*D25155
 70
     1
 10
0.0
 20
0.0
 30
0.0
  3
*D25155
  1

  0
LINE
  5
95CF5
330
95BF9
100
AcDbEntity
  8
sk2
100
AcDbLine
 10
2.0
 20
87.49999999889999
 30
0.0
 11
-31.65297694590162
 21
87.49999999889999
 31
0.0
  0
LINE
  5
95CF6
330
95BF9
100
AcDbEntity
  8
sk2
100
AcDbLine
 10
2.0
 20
-87.50000000110011
 30
0.0
 11
-31.65297694590163
 21
-87.50000000110011
 31
0.0
  0
LINE
  5
95CF7
330
95BF9
100
AcDbEntity
  8
sk2
100
AcDbLine
 10
-30.15297694590163
 20
83.99999999890001
 30
0.0
 11
-30.15297694590163
 21
-84.0000000011001
 31
0.0
  0
SOLID
  5
95CF8
330
95BF9
100
AcDbEntity
  8
sk2
100
AcDbTrace
 10
-29.56964361256828
 20
83.99999999890001
 30
0.0
 11
-30.73631027923495
 21
83.99999999890001
 31
0.0
 12
-30.15297694590163
 22
87.49999999889999
 32
0.0
 13
-30.15297694590163
 23
87.49999999889999
 33
0.0
  0
SOLID
  5
95CF9
330
95BF9
100
AcDbEntity
  8
sk2
100
AcDbTrace
 10
-30.73631027923497
 20
-84.0000000011001
 30
0.0
 11
-29.5696436125683
 21
-84.0000000011001
 31
0.0
 12
-30.15297694590163
 22
-87.50000000110011
 32
0.0
 13
-30.15297694590163
 23
-87.50000000110011
 33
0.0
  0
MTEXT
  5
95CFA
330
95BF9
100
AcDbEntity
  8
sk2
100
AcDbMText
 10
-34.20297694590163
 20
-0.0000000011000477
 30
0.0
 40
3.5
 41
0.0
 71
     5
 72
     1
  1
\A1;%%C175 [%%c6.890"]
  7
simplex
 11
0.0000000000000001
 21
1.0
 31
0.0
 73
     1
 44
1.0
1001
ACAD
1000
MTEXTBEGIN
1070
    73
1070
     1
1070
    44
1040
1.0
1070
    74
1070
     0
1000
MTEXTEND
  0
POINT
  5
95CFB
330
95BF9
100
AcDbEntity
  8
Defpoints
 62
     0
100
AcDbPoint
 10
2.0
 20
87.49999999889999
 30
0.0
  0
POINT
  5
95CFC
330
95BF9
100
AcDbEntity
  8
Defpoints
 62
     0
100
AcDbPoint
 10
2.0
 20
-87.50000000110011
 30
0.0
  0
POINT
  5
95CFD
330
95BF9
100
AcDbEntity
  8
Defpoints
 62
     0
100
AcDbPoint
 10
-30.15297694590163
 20
-87.50000000110011
 30
0.0
  0
ENDBLK
  5
95C04
330
95BF9
100
AcDbEntity
  8
0
100
AcDbBlockEnd
  0
BLOCK
  5
95C0F
330
95C05
100
AcDbEntity
  8
0
100
AcDbBlockBegin
  2
*D25266
 70
     1
 10
0.0
 20
0.0
 30
0.0
  3
*D25266
  1

  0
LINE
  5
95CFE
330
95C05
100
AcDbEntity
  8
sk2
100
AcDbLine
 10
12.0
 20
31.74999999890002
 30
0.0
 11
-21.49502965519928
 21
31.74999999890002
 31
0.0
  0
LINE
  5
95CFF
330
95C05
100
AcDbEntity
  8
sk2
100
AcDbLine
 10
12.0
 20
-31.74999999890002
 30
0.0
 11
-21.49502965519929
 21
-31.74999999890002
 31
0.0
  0
LINE
  5
95D00
330
95C05
100
AcDbEntity
  8
sk2
100
AcDbLine
 10
-19.99502965519928
 20
28.24999999890001
 30
0.0
 11
-19.99502965519929
 21
-28.24999999890002
 31
0.0
  0
SOLID
  5
95D01
330
95C05
100
AcDbEntity
  8
sk2
100
AcDbTrace
 10
-19.41169632186595
 20
28.24999999890001
 30
0.0
 11
-20.57836298853262
 21
28.24999999890001
 31
0.0
 12
-19.99502965519928
 22
31.74999999890002
 32
0.0
 13
-19.99502965519928
 23
31.74999999890002
 33
0.0
  0
SOLID
  5
95D02
330
95C05
100
AcDbEntity
  8
sk2
100
AcDbTrace
 10
-20.57836298853262
 20
-28.24999999890002
 30
0.0
 11
-19.41169632186596
 21
-28.24999999890002
 31
0.0
 12
-19.99502965519929
 22
-31.74999999890002
 32
0.0
 13
-19.99502965519929
 23
-31.74999999890002
 33
0.0
  0
MTEXT
  5
95D03
330
95C05
100
AcDbEntity
  8
sk2
100
AcDbMText
 10
-24.04502965519929
 20
-0.0000000000000033
 30
0.0
 40
3.5
 41
0.0
 71
     5
 72
     1
  1
\A1;%%C63.5 [%%c2.500"]
  7
simplex
 11
0.0000000000000001
 21
1.0
 31
0.0
 73
     1
 44
1.0
1001
ACAD
1000
MTEXTBEGIN
1070
    73
1070
     1
1070
    44
1040
1.0
1070
    74
1070
     0
1000
MTEXTEND
  0
POINT
  5
95D04
330
95C05
100
AcDbEntity
  8
Defpoints
 62
     0
100
AcDbPoint
 10
12.0
 20
31.74999999890002
 30
0.0
  0
POINT
  5
95D05
330
95C05
100
AcDbEntity
  8
Defpoints
 62
     0
100
AcDbPoint
 10
12.0
 20
-31.74999999890002
 30
0.0
  0
POINT
  5
95D06
330
95C05
100
AcDbEntity
  8
Defpoints
 62
     0
100
AcDbPoint
 10
-19.99502965519929
 20
-31.74999999890002
 30
0.0
  0
ENDBLK
  5
95C10
330
95C05
100
AcDbEntity
  8
0
100
AcDbBlockEnd
  0
BLOCK
  5
95C1B
330
95C11
100
AcDbEntity
  8
0
100
AcDbBlockBegin
  2
*D25377
 70
     1
 10
0.0
 20
0.0
 30
0.0
  3
*D25377
  1

  0
LINE
  5
95D07
330
95C11
100
AcDbEntity
  8
sk2
100
AcDbLine
 10
0.0
 20
-85.50000000110008
 30
0.0
 11
0.0
 21
-121.4853368591289
 31
0.0
  0
LINE
  5
95D08
330
95C11
100
AcDbEntity
  8
sk2
100
AcDbLine
 10
35.0
 20
-66.99999999889996
 30
0.0
 11
35.0
 21
-121.4853368591289
 31
0.0
  0
LINE
  5
95D09
330
95C11
100
AcDbEntity
  8
sk2
100
AcDbLine
 10
3.5
 20
-119.9853368591289
 30
0.0
 11
31.5
 21
-119.9853368591289
 31
0.0
  0
SOLID
  5
95D0A
330
95C11
100
AcDbEntity
  8
sk2
100
AcDbTrace
 10
3.5
 20
-119.4020035257955
 30
0.0
 11
3.5
 21
-120.5686701924622
 31
0.0
 12
0.0
 22
-119.9853368591289
 32
0.0
 13
0.0
 23
-119.9853368591289
 33
0.0
  0
SOLID
  5
95D0B
330
95C11
100
AcDbEntity
  8
sk2
100
AcDbTrace
 10
31.5
 20
-120.5686701924622
 30
0.0
 11
31.5
 21
-119.4020035257955
 31
0.0
 12
35.0
 22
-119.9853368591289
 32
0.0
 13
35.0
 23
-119.9853368591289
 33
0.0
  0
MTEXT
  5
95D0C
330
95C11
100
AcDbEntity
  8
sk2
100
AcDbMText
 10
17.5
 20
-115.9353368591289
 30
0.0
 40
3.5
 41
0.0
 71
     5
 72
     1
  1
\A1;35 [1.378"]
  7
simplex
 73
     1
 44
1.0
1001
ACAD
1000
MTEXTBEGIN
1070
    73
1070
     1
1070
    44
1040
1.0
1070
    74
1070
     0
1000
MTEXTEND
  0
POINT
  5
95D0D
330
95C11
100
AcDbEntity
  8
Defpoints
 62
     0
100
AcDbPoint
 10
0.0
 20
-85.50000000110008
 30
0.0
  0
POINT
  5
95D0E
330
95C11
100
AcDbEntity
  8
Defpoints
 62
     0
100
AcDbPoint
 10
35.0
 20
-66.99999999889996
 30
0.0
  0
POINT
  5
95D0F
330
95C11
100
AcDbEntity
  8
Defpoints
 62
     0
100
AcDbPoint
 10
35.0
 20
-119.9853368591289
 30
0.0
  0
ENDBLK
  5
95C1C
330
95C11
100
AcDbEntity
  8
0
100
AcDbBlockEnd
  0
BLOCK
  5
95C26
330
95C1D
100
AcDbEntity
  8
0
100
AcDbBlockBegin
  2
*D25488
 70
     1
 10
0.0
 20
0.0
 30
0.0
  3
*D25488
  1

  0
LINE
  5
95D58
330
95C1D
100
AcDbEntity
  8
2
100
AcDbLine
 10
62.70000000000002
 20
101.5999999988999
 30
0.0
 11
101.3476256713845
 21
101.5999999988999
 31
0.0
  0
LINE
  5
95D59
330
95C1D
100
AcDbEntity
  8
2
100
AcDbLine
 10
99.84762567138451
 20
98.0999999988999
 30
0.0
 11
99.84762567138449
 21
-101.5999999989
 31
0.0
  0
SOLID
  5
95D5A
330
95C1D
100
AcDbEntity
  8
2
100
AcDbTrace
 10
100.4309590047178
 20
98.0999999988999
 30
0.0
 11
99.26429233805119
 21
98.0999999988999
 31
0.0
 12
99.84762567138451
 22
101.5999999988999
 32
0.0
 13
99.84762567138451
 23
101.5999999988999
 33
0.0
  0
INSERT
  5
95D5B
330
95C1D
100
AcDbEntity
  8
2
100
AcDbBlockReference
  2
_None
 10
99.84762567138449
 20
-101.5999999989
 30
0.0
 41
3.5
 42
3.5
 43
3.5
 50
270.0
  0
MTEXT
  5
95D5C
330
95C1D
100
AcDbEntity
  8
2
100
AcDbMText
 10
95.7976256713845
 20
-1.750000000000041
 30
0.0
 40
3.5
 41
0.0
 71
     5
 72
     1
  1
\A1;%%C203.2 [%%c8.000"]
  7
simplex
 11
0.0000000000000001
 21
1.0
 31
0.0
 73
     1
 44
1.0
1001
ACAD
1000
MTEXTBEGIN
1070
    73
1070
     1
1070
    44
1040
1.0
1070
    74
1070
     0
1000
MTEXTEND
  0
POINT
  5
95D5D
330
95C1D
100
AcDbEntity
  8
Defpoints
 62
     0
100
AcDbPoint
 10
62.70000000000002
 20
101.5999999988999
 30
0.0
  0
POINT
  5
95D5E
330
95C1D
100
AcDbEntity
  8
Defpoints
 62
     0
100
AcDbPoint
 10
62.70000000000002
 20
-101.5999999989
 30
0.0
  0
POINT
  5
95D5F
330
95C1D
100
AcDbEntity
  8
Defpoints
 62
     0
100
AcDbPoint
 10
99.84762567138449
 20
-101.5999999989
 30
0.0
  0
ENDBLK
  5
95C27
330
95C1D
100
AcDbEntity
  8
0
100
AcDbBlockEnd
  0
BLOCK
  5
95C3C
330
95C32
100
AcDbEntity
  8
0
100
AcDbBlockBegin
  2
*D256109
 70
     1
 10
0.0
 20
0.0
 30
0.0
  3
*D256109
  1

  0
LINE
  5
95ED8
330
95C32
100
AcDbEntity
  8
2
100
AcDbLine
 10
55.29999999999998
 20
101.5999999989
 30
0.0
 11
55.29999999999998
 21
121.5091902798185
 31
0.0
  0
LINE
  5
95ED9
330
95C32
100
AcDbEntity
  8
2
100
AcDbLine
 10
63.50000000000004
 20
100.7999999989098
 30
0.0
 11
63.50000000000004
 21
121.5091902798185
 31
0.0
  0
LINE
  5
95EDA
330
95C32
100
AcDbEntity
  8
2
100
AcDbLine
 10
67.00000000000002
 20
120.0091902798185
 30
0.0
 11
119.4333333333333
 21
120.0091902798185
 31
0.0
  0
LINE
  5
95EDB
330
95C32
100
AcDbEntity
  8
2
100
AcDbLine
 10
51.79999999999998
 20
120.0091902798185
 30
0.0
 11
48.29999999999998
 21
120.0091902798185
 31
0.0
  0
SOLID
  5
95EDC
330
95C32
100
AcDbEntity
  8
2
100
AcDbTrace
 10
51.79999999999998
 20
119.4258569464851
 30
0.0
 11
51.79999999999998
 21
120.5925236131518
 31
0.0
 12
55.29999999999998
 22
120.0091902798185
 32
0.0
 13
55.29999999999998
 23
120.0091902798185
 33
0.0
  0
SOLID
  5
95EDD
330
95C32
100
AcDbEntity
  8
2
100
AcDbTrace
 10
67.00000000000002
 20
120.5925236131518
 30
0.0
 11
67.00000000000002
 21
119.4258569464851
 31
0.0
 12
63.50000000000004
 22
120.0091902798185
 32
0.0
 13
63.50000000000004
 23
120.0091902798185
 33
0.0
  0
MTEXT
  5
95EDE
330
95C32
100
AcDbEntity
  8
2
100
AcDbMText
 10
94.96666666666669
 20
124.0591902798185
 30
0.0
 40
3.5
 41
0.0
 71
     5
 72
     1
  1
\A1;8.2 [.323"](MAX)
  7
simplex
 73
     1
 44
1.0
1001
ACAD
1000
MTEXTBEGIN
1070
    73
1070
     1
1070
    44
1040
1.0
1070
    74
1070
     0
1000
MTEXTEND
  0
POINT
  5
95EDF
330
95C32
100
AcDbEntity
  8
Defpoints
 62
     0
100
AcDbPoint
 10
55.29999999999998
 20
101.5999999989
 30
0.0
  0
POINT
  5
95EE0
330
95C32
100
AcDbEntity
  8
Defpoints
 62
     0
100
AcDbPoint
 10
63.50000000000004
 20
100.7999999989098
 30
0.0
  0
POINT
  5
95EE1
330
95C32
100
AcDbEntity
  8
Defpoints
 62
     0
100
AcDbPoint
 10
63.50000000000004
 20
120.0091902798185
 30
0.0
  0
ENDBLK
  5
95C3D
330
95C32
100
AcDbEntity
  8
0
100
AcDbBlockEnd
  0
BLOCK
  5
95E63
330
95E5B
100
AcDbEntity
  8
0
100
AcDbBlockBegin
  2
*D1310
 70
     1
 10
0.0
 20
0.0
 30
0.0
  3
*D1310
  1

  0
LINE
  5
95E6C
330
95E5B
100
AcDbEntity
  8
2
100
AcDbLine
 10
107.1403280725079
 20
113.5506216276276
 30
0.0
 11
66.83323887624625
 21
101.9858905469215
 31
0.0
  0
MTEXT
  5
95E6D
330
95E5B
100
AcDbEntity
  8
2
100
AcDbMText
 10
87.55197215203841
 20
112.1438202518873
 30
0.0
 40
3.5
 41
0.0
 71
     5
 72
     1
  1
\A1;R0.8 [R.031"]
  7
simplex
 11
0.9612183433130766
 21
0.2757884995398906
 31
0.0
 73
     1
 44
1.0
1001
ACAD
1000
MTEXTBEGIN
1070
    73
1070
     1
1070
    44
1040
1.0
1070
    74
1070
     0
1000
MTEXTEND
  0
SOLID
  5
95E6E
330
95E5B
100
AcDbEntity
  8
2
100
AcDbTrace
 10
66.67236225151466
 20
102.5466012471874
 30
0.0
 11
66.99411550097785
 21
101.4251798466555
 31
0.0
 12
63.46897467465048
 22
101.0206307985318
 32
0.0
 13
63.46897467465048
 23
101.0206307985318
 33
0.0
  0
LINE
  5
95E6F
330
95E5B
100
AcDbEntity
  8
2
100
AcDbLine
 10
62.61000000000003
 20
100.7999999988999
 30
0.0
 11
62.79000000000005
 21
100.7999999988999
 31
0.0
  0
LINE
  5
95E70
330
95E5B
100
AcDbEntity
  8
2
100
AcDbLine
 10
62.70000000000004
 20
100.7099999989
 30
0.0
 11
62.70000000000004
 21
100.8899999989
 31
0.0
  0
POINT
  5
95E71
330
95E5B
100
AcDbEntity
  8
Defpoints
 62
     0
100
AcDbPoint
 10
63.46897467465048
 20
101.0206307985318
 30
0.0
  0
POINT
  5
95E72
330
95E5B
100
AcDbEntity
  8
Defpoints
 62
     0
100
AcDbPoint
 10
62.70000000000004
 20
100.7999999988999
 30
0.0
  0
ENDBLK
  5
95E64
330
95E5B
100
AcDbEntity
  8
0
100
AcDbBlockEnd
  0
ENDSEC
  0
SECTION
  2
ENTITIES
  0
INSERT
  5
4A793
330
1F
100
AcDbEntity
  8
0
100
AcDbBlockReference
  2
zero block
 10
0.0
 20
0.0
 30
0.0
 50
180.0
  0
MTEXT
  5
95A1B
330
1F
100
AcDbEntity
  8
sk6
100
AcDbMText
 10
4.318474570652198
 20
152.3833945520237
 30
0.0
 40
3.5
 41
139.3353303764208
 71
     1
 72
     5
  1
WWX400UR8_0016MN
 73
     1
 44
0.9
1001
ACAD
1000
MTEXTBEGIN
1070
    73
1070
     1
1070
    44
1040
0.9
1070
    74
1070
     0
1000
MTEXTEND
1000
ACAD_MTEXT_DEFINED_HEIGHT_BEGIN
1070
    46
1040
3.48901801050149
1000
ACAD_MTEXT_DEFINED_HEIGHT_END
  0
LINE
  5
95A1D
330
1F
100
AcDbEntity
  8
4
100
AcDbLine
 10
68.8369340559895
 20
0.0
 30
0.0
 11
-2.907861614760548
 21
0.0
 31
0.0
  0
LINE
  5
95A1E
330
1F
100
AcDbEntity
  8
nocut
100
AcDbLine
 10
61.71381768839996
 20
0.0
 30
0.0
 11
0.0
 21
0.0
 31
0.0
  0
LINE
  5
95A1F
330
1F
100
AcDbEntity
  8
nocut
100
AcDbLine
 10
0.0
 20
0.0
 30
0.0
 11
0.0
 21
85.49999999889996
 31
0.0
  0
LINE
  5
95A41
330
1F
100
AcDbEntity
  8
nocut
100
AcDbLine
 10
26.6405564488
 20
88.75735931179994
 30
0.0
 11
37.58955299149992
 21
99.70635585450004
 31
0.0
  0
LINE
  5
95A93
330
1F
100
AcDbEntity
  8
nocut
100
AcDbLine
 10
61.71381768839996
 20
94.79999999889995
 30
0.0
 11
61.71381768839996
 21
0.0
 31
0.0
  0
LINE
  5
95AD7
330
1F
100
AcDbEntity
  8
nocut
100
AcDbLine
 10
2.0
 20
87.49999999889999
 30
0.0
 11
19.43987587009997
 21
87.49999999889999
 31
0.0
  0
LINE
  5
95AFE
330
1F
100
AcDbEntity
  8
nocut
100
AcDbLine
 10
39.65851611570002
 20
100.5845785963999
 30
0.0
 11
51.9738233841
 21
100.7995430844
 31
0.0
  0
LINE
  5
95AFF
330
1F
100
AcDbEntity
  8
nocut
100
AcDbLine
 10
52.02618060339997
 20
100.7999999988999
 30
0.0
 11
55.71381768839995
 21
100.7999999988999
 31
0.0
  0
ARC
  5
95B02
330
1F
100
AcDbEntity
  8
nocut
100
AcDbCircle
 10
22.3979157617
 20
92.99999999889996
 30
0.0
 40
6.0
100
AcDbArc
 50
250.8118635462993
 51
315.0000000000005
  0
ARC
  5
95B03
330
1F
100
AcDbEntity
  8
nocut
100
AcDbCircle
 10
55.71381768839995
 20
94.79999999889995
 30
0.0
 40
6.0
100
AcDbArc
 50
0.0
 51
90.0
  0
ARC
  5
95B04
330
1F
100
AcDbEntity
  8
nocut
100
AcDbCircle
 10
19.43987587009997
 20
84.49999999889994
 30
0.0
 40
3.0
100
AcDbArc
 50
70.81186354629932
 51
90.0
  0
ARC
  5
95B05
330
1F
100
AcDbEntity
  8
nocut
100
AcDbCircle
 10
39.71087333500003
 20
97.58503551090001
 30
0.0
 40
3.0
100
AcDbArc
 50
91.00000000000015
 51
135.0000000000004
  0
ARC
  5
95B06
330
1F
100
AcDbEntity
  8
nocut
100
AcDbCircle
 10
52.02618060339997
 20
97.7999999989
 30
0.0
 40
3.0
100
AcDbArc
 50
90.0
 51
91.00000000000015
  0
ARC
  5
95B09
102
{ACAD_REACTORS
330
95B4C
330
95B4F
102
}
330
1F
100
AcDbEntity
  8
nocut
100
AcDbCircle
 10
2.0
 20
85.49999999889996
 30
0.0
 40
2.0
100
AcDbArc
 50
90.0
 51
180.0
  0
LINE
  5
95B0C
330
1F
100
AcDbEntity
  8
sk3
100
AcDbLine
 10
0.5
 20
12.6999999989
 30
0.0
 11
0.5
 21
37.49999999890004
 31
0.0
  0
LINE
  5
95B0D
330
1F
100
AcDbEntity
  8
sk3
100
AcDbLine
 10
2.0
 20
43.79999999889996
 30
0.0
 11
2.0
 21
57.79999999889996
 31
0.0
  0
LINE
  5
95B0E
330
1F
100
AcDbEntity
  8
sk3
100
AcDbLine
 10
7.299999999999952
 20
32.24999999890002
 30
0.0
 11
7.299999999999952
 21
12.6999999989
 31
0.0
  0
LINE
  5
95B0F
330
1F
100
AcDbEntity
  8
sk3
100
AcDbLine
 10
12.0
 20
12.6999999989
 30
0.0
 11
12.0
 21
32.24999999890002
 31
0.0
  0
LINE
  5
95B10
330
1F
100
AcDbEntity
  8
sk3
100
AcDbLine
 10
2.32568851449997
 20
32.68519586270004
 30
0.0
 11
7.299999999999952
 21
32.24999999890002
 31
0.0
  0
LINE
  5
95B11
330
1F
100
AcDbEntity
  8
sk3
100
AcDbLine
 10
2.0
 20
43.79999999889996
 30
0.0
 11
0.0
 21
41.79999999889996
 31
0.0
  0
LINE
  5
95B12
102
{ACAD_REACTORS
330
95B52
102
}
330
1F
100
AcDbEntity
  8
sk3
100
AcDbLine
 10
12.0
 20
31.74999999890002
 30
0.0
 11
34.0
 21
31.74999999890002
 31
0.0
  0
LINE
  5
95B13
330
1F
100
AcDbEntity
  8
sk3
100
AcDbLine
 10
7.299999999999952
 20
32.24999999890002
 30
0.0
 11
12.0
 21
32.24999999890002
 31
0.0
  0
LINE
  5
95B14
330
1F
100
AcDbEntity
  8
sk3
100
AcDbLine
 10
2.0
 20
57.79999999889996
 30
0.0
 11
0.0
 21
59.79999999889996
 31
0.0
  0
LINE
  5
95B15
330
1F
100
AcDbEntity
  8
sk3
100
AcDbLine
 10
0.0
 20
37.49999999890004
 30
0.0
 11
0.5
 21
37.49999999890004
 31
0.0
  0
LINE
  5
95B16
330
1F
100
AcDbEntity
  8
sk3
100
AcDbLine
 10
33.0
 20
57.79999999889996
 30
0.0
 11
35.0
 21
59.79999999889996
 31
0.0
  0
LINE
  5
95B17
330
1F
100
AcDbEntity
  8
sk3
100
AcDbLine
 10
33.0
 20
43.79999999889996
 30
0.0
 11
2.0
 21
43.79999999889996
 31
0.0
  0
LINE
  5
95B18
330
1F
100
AcDbEntity
  8
sk3
100
AcDbLine
 10
33.0
 20
43.79999999889996
 30
0.0
 11
35.0
 21
41.79999999889996
 31
0.0
  0
LINE
  5
95B19
330
1F
100
AcDbEntity
  8
sk3
100
AcDbLine
 10
33.0
 20
57.79999999889996
 30
0.0
 11
33.0
 21
43.79999999889996
 31
0.0
  0
LINE
  5
95B1A
330
1F
100
AcDbEntity
  8
sk3
100
AcDbLine
 10
35.0
 20
0.0
 30
0.0
 11
35.0
 21
66.99999999889995
 31
0.0
  0
LINE
  5
95B1B
330
1F
100
AcDbEntity
  8
sk3
100
AcDbLine
 10
57.15746017819999
 20
84.91767146759995
 30
0.0
 11
60.83917792414081
 21
90.91227442266578
 31
0.0
  0
LINE
  5
95B1C
330
1F
100
AcDbEntity
  8
sk3
100
AcDbLine
 10
33.0
 20
57.79999999889996
 30
0.0
 11
2.0
 21
57.79999999889996
 31
0.0
  0
LINE
  5
95B1D
330
1F
100
AcDbEntity
  8
sk3
100
AcDbLine
 10
38.0
 20
69.99999999889995
 30
0.0
 11
53.71381768839995
 21
69.99999999889995
 31
0.0
  0
LINE
  5
95B1E
330
1F
100
AcDbEntity
  8
sk3
100
AcDbLine
 10
56.71381768839996
 20
83.34762806679997
 30
0.0
 11
56.71381768839996
 21
0.0
 31
0.0
  0
ARC
  5
95B1F
330
1F
100
AcDbEntity
  8
sk3
100
AcDbCircle
 10
59.71381768839997
 20
83.34762806679997
 30
0.0
 40
3.0
100
AcDbArc
 50
148.4429155692001
 51
180.0
  0
ARC
  5
95B20
330
1F
100
AcDbEntity
  8
sk3
100
AcDbCircle
 10
38.0
 20
66.99999999889995
 30
0.0
 40
3.0
100
AcDbArc
 50
90.0
 51
180.0
  0
ARC
  5
95B21
330
1F
100
AcDbEntity
  8
sk3
100
AcDbCircle
 10
53.71381768839995
 20
72.99999999889995
 30
0.0
 40
3.0
100
AcDbArc
 50
270.0
 51
0.0
  0
ARC
  5
95B22
330
1F
100
AcDbEntity
  8
sk3
100
AcDbCircle
 10
2.5
 20
34.67758525890001
 30
0.0
 40
2.0
100
AcDbArc
 50
180.0
 51
265.0000000000002
  0
ARC
  5
95B23
330
1F
100
AcDbEntity
  8
sk3
100
AcDbCircle
 10
34.0
 20
32.74999999890004
 30
0.0
 40
1.0
100
AcDbArc
 50
270.0
 51
0.0
  0
LINE
  5
95B24
330
1F
100
AcDbEntity
  8
sk3
100
AcDbLine
 10
0.5
 20
-12.70000000109996
 30
0.0
 11
0.5
 21
-37.49999999890004
 31
0.0
  0
LINE
  5
95B25
330
1F
100
AcDbEntity
  8
sk3
100
AcDbLine
 10
7.299999999999952
 20
-32.24999999890002
 30
0.0
 11
7.299999999999952
 21
-12.70000000109996
 31
0.0
  0
LINE
  5
95B26
330
1F
100
AcDbEntity
  8
sk3
100
AcDbLine
 10
12.0
 20
-12.70000000109996
 30
0.0
 11
12.0
 21
-32.24999999890002
 31
0.0
  0
LINE
  5
95B27
330
1F
100
AcDbEntity
  8
sk3
100
AcDbLine
 10
2.32568851449997
 20
-32.68519586270004
 30
0.0
 11
7.299999999999952
 21
-32.24999999890002
 31
0.0
  0
LINE
  5
95B28
102
{ACAD_REACTORS
330
95B52
102
}
330
1F
100
AcDbEntity
  8
sk3
100
AcDbLine
 10
12.0
 20
-31.74999999890002
 30
0.0
 11
34.0
 21
-31.74999999890002
 31
0.0
  0
LINE
  5
95B29
330
1F
100
AcDbEntity
  8
sk3
100
AcDbLine
 10
7.299999999999952
 20
-32.24999999890002
 30
0.0
 11
12.0
 21
-32.24999999890002
 31
0.0
  0
LINE
  5
95B2A
330
1F
100
AcDbEntity
  8
sk3
100
AcDbLine
 10
0.0
 20
-37.49999999890004
 30
0.0
 11
0.5
 21
-37.49999999890004
 31
0.0
  0
LINE
  5
95B2B
330
1F
100
AcDbEntity
  8
sk3
100
AcDbLine
 10
35.0
 20
0.0
 30
0.0
 11
35.0
 21
-66.99999999889996
 31
0.0
  0
LINE
  5
95B2C
330
1F
100
AcDbEntity
  8
sk3
100
AcDbLine
 10
57.15746017819999
 20
-84.91767146759995
 30
0.0
 11
61.56593685849995
 21
-92.09558926540001
 31
0.0
  0
LINE
  5
95B2D
330
1F
100
AcDbEntity
  8
sk3
100
AcDbLine
 10
38.0
 20
-69.99999999889997
 30
0.0
 11
53.71381768839995
 21
-69.99999999889997
 31
0.0
  0
LINE
  5
95B2E
330
1F
100
AcDbEntity
  8
sk3
100
AcDbLine
 10
56.71381768839996
 20
-83.34762806679998
 30
0.0
 11
56.71381768839996
 21
0.0
 31
0.0
  0
ARC
  5
95B2F
330
1F
100
AcDbEntity
  8
sk3
100
AcDbCircle
 10
59.71381768839997
 20
-83.34762806679998
 30
0.0
 40
3.0
100
AcDbArc
 50
180.0
 51
211.5570844307991
  0
ARC
  5
95B30
102
{ACAD_REACTORS
330
95B55
102
}
330
1F
100
AcDbEntity
  8
sk3
100
AcDbCircle
 10
38.0
 20
-66.99999999889996
 30
0.0
 40
3.0
100
AcDbArc
 50
180.0
 51
270.0
  0
ARC
  5
95B31
330
1F
100
AcDbEntity
  8
sk3
100
AcDbCircle
 10
53.71381768839995
 20
-72.99999999889997
 30
0.0
 40
3.0
100
AcDbArc
 50
0.0
 51
90.0
  0
ARC
  5
95B32
330
1F
100
AcDbEntity
  8
sk3
100
AcDbCircle
 10
2.5
 20
-34.67758525890001
 30
0.0
 40
2.0
100
AcDbArc
 50
94.99999999999978
 51
180.0
  0
ARC
  5
95B33
330
1F
100
AcDbEntity
  8
sk3
100
AcDbCircle
 10
60.71381768839995
 20
-92.61893706569995
 30
0.0
 40
1.0
100
AcDbArc
 50
0.0
 51
31.55708443079924
  0
ARC
  5
95B34
330
1F
100
AcDbEntity
  8
sk3
100
AcDbCircle
 10
34.0
 20
-32.74999999890004
 30
0.0
 40
1.0
100
AcDbArc
 50
0.0
 51
90.0
  0
LINE
  5
95B35
330
1F
100
AcDbEntity
  8
sk3
100
AcDbLine
 10
1.000000006949959
 20
58.80000007379992
 30
0.0
 11
33.99999999305004
 21
58.80000007379992
 31
0.0
  0
LINE
  5
95B36
330
1F
100
AcDbEntity
  8
sk3
100
AcDbLine
 10
1.000000006949959
 20
42.80000007379998
 30
0.0
 11
33.99999999305004
 21
42.80000007379998
 31
0.0
  0
LINE
  5
95B37
330
1F
100
AcDbEntity
  8
4
100
AcDbLine
 10
-2.67379543728475
 20
50.80000007379992
 30
0.0
 11
38.68960107293185
 21
50.80000007379992
 31
0.0
  0
LINE
  5
95B38
330
1F
100
AcDbEntity
  8
4
100
AcDbLine
 10
-2.673795437284865
 20
-50.79999999890003
 30
0.0
 11
38.68960107293175
 21
-50.79999999890003
 31
0.0
  0
LINE
  5
95B39
330
1F
100
AcDbEntity
  8
sk3
100
AcDbLine
 10
34.4999999936
 20
-59.79999999890003
 30
0.0
 11
1.000000015199987
 21
-59.79999999890003
 31
0.0
  0
LINE
  5
95B3A
330
1F
100
AcDbEntity
  8
sk3
100
AcDbLine
 10
1.000000015199987
 20
-41.79999999890003
 30
0.0
 11
0.0
 21
-40.79999998200003
 31
0.0
  0
LINE
  5
95B3B
330
1F
100
AcDbEntity
  8
sk3
100
AcDbLine
 10
0.9999999999000124
 20
-41.79999999890003
 30
0.0
 11
0.9999999999000124
 21
-59.79999999890003
 31
0.0
  0
LINE
  5
95B3C
330
1F
100
AcDbEntity
  8
sk3
100
AcDbLine
 10
34.4999999936
 20
-59.79999999890003
 30
0.0
 11
35.00000000000006
 21
-60.30000000570003
 31
0.0
  0
LINE
  5
95B3D
330
1F
100
AcDbEntity
  8
sk3
100
AcDbLine
 10
34.4999999936
 20
-41.79999999890003
 30
0.0
 11
1.000000015199987
 21
-41.79999999890003
 31
0.0
  0
LINE
  5
95B3E
330
1F
100
AcDbEntity
  8
sk3
100
AcDbLine
 10
34.50000000010005
 20
-41.79999999890003
 30
0.0
 11
34.50000000010005
 21
-59.79999999890003
 31
0.0
  0
LINE
  5
95B3F
330
1F
100
AcDbEntity
  8
sk3
100
AcDbLine
 10
1.000000015199987
 20
-59.79999999890003
 30
0.0
 11
0.0
 21
-60.80000001580003
 31
0.0
  0
LINE
  5
95B40
330
1F
100
AcDbEntity
  8
sk3
100
AcDbLine
 10
34.4999999936
 20
-41.79999999890003
 30
0.0
 11
35.00000000000006
 21
-41.29999999210006
 31
0.0
  0
LINE
  5
95B41
330
1F
100
AcDbEntity
  8
sk3
100
AcDbLine
 10
1.0
 20
-12.70000000109996
 30
0.0
 11
1.0
 21
12.6999999989
 31
0.0
  0
LINE
  5
95B42
330
1F
100
AcDbEntity
  8
sk3
100
AcDbLine
 10
13.22
 20
-12.70000000109996
 30
0.0
 11
13.22
 21
12.6999999989
 31
0.0
  0
LINE
  5
95B43
330
1F
100
AcDbEntity
  8
sk3
100
AcDbLine
 10
14.22000000000003
 20
-11.70000000109996
 30
0.0
 11
14.22000000000003
 21
11.69999999889999
 31
0.0
  0
LINE
  5
95B44
330
1F
100
AcDbEntity
  8
sk3
100
AcDbLine
 10
0.0
 20
13.6999999989
 30
0.0
 11
0.5
 21
13.1999999989
 31
0.0
  0
LINE
  5
95B45
330
1F
100
AcDbEntity
  8
sk3
100
AcDbLine
 10
0.5
 20
-12.70000000109996
 30
0.0
 11
13.22
 21
-12.70000000109996
 31
0.0
  0
LINE
  5
95B46
330
1F
100
AcDbEntity
  8
sk3
100
AcDbLine
 10
13.22
 20
12.6999999989
 30
0.0
 11
14.22000000000003
 21
11.69999999889999
 31
0.0
  0
LINE
  5
95B47
330
1F
100
AcDbEntity
  8
sk3
100
AcDbLine
 10
0.5
 20
-13.20000000109996
 30
0.0
 11
0.0
 21
-13.70000000109996
 31
0.0
  0
LINE
  5
95B48
330
1F
100
AcDbEntity
  8
sk3
100
AcDbLine
 10
0.5
 20
12.6999999989
 30
0.0
 11
13.22
 21
12.6999999989
 31
0.0
  0
LINE
  5
95B49
330
1F
100
AcDbEntity
  8
sk3
100
AcDbLine
 10
14.22000000000003
 20
-11.70000000109996
 30
0.0
 11
13.22
 21
-12.70000000109996
 31
0.0
  0
DIMENSION
  5
95B4A
102
{ACAD_XDICTIONARY
360
95B4B
102
}
102
{ACAD_REACTORS
330
95B4C
102
}
330
1F
100
AcDbEntity
  8
2
100
AcDbDimension
  2
*D25044
 10
63.50000000000004
 20
129.9810258655372
 30
0.0
 11
31.75000000000002
 21
134.0310258655372
 31
0.0
 70
    32
 71
     5
 42
63.5
  3
コピー - ISO-25
100
AcDbAlignedDimension
 13
0.0
 23
85.49999999889996
 33
0.0
 14
63.50000000000004
 24
100.7999999989098
 34
0.0
 50
0.0
100
AcDbRotatedDimension
1001
ACAD
1000
DSTYLE
1002
{
1070
   170
1070
     1
1070
   171
1070
     3
1070
   143
1040
0.0393700787401575
1070
   285
1070
     4
1070
     4
1000
"
1070
   271
1070
     8
1070
    40
1040
1.0
1002
}
1001
ACAD_DSTYLE_DIMINSPECT
1070
   393
1070
     0
1070
   394
1070
     0
1070
   395
1000

1070
   396
1000

  0
DIMENSION
  5
95B4D
102
{ACAD_XDICTIONARY
360
95B4E
102
}
102
{ACAD_REACTORS
330
95B4F
102
}
330
1F
100
AcDbEntity
  8
sk2
100
AcDbDimension
  2
*D25155
 10
-30.15297694590163
 20
-87.50000000110011
 30
0.0
 11
-34.20297694590163
 21
-0.0000000011000477
 31
0.0
 70
    32
  1
%%C<>
 71
     5
 42
175.0
  3
コピー - ISO-25
100
AcDbAlignedDimension
 13
2.0
 23
87.49999999889999
 33
0.0
 14
2.0
 24
-87.50000000110011
 34
0.0
 50
90.0
100
AcDbRotatedDimension
1001
ACAD
1000
DSTYLE
1002
{
1070
   170
1070
     1
1070
   171
1070
     3
1070
   143
1040
0.0393700787401575
1070
   285
1070
     4
1070
     4
1000
%%c[]"
1070
   271
1070
     8
1070
    40
1040
1.0
1002
}
1001
ACAD_DSTYLE_DIMINSPECT
1070
   393
1070
     0
1070
   394
1070
     0
1070
   395
1000

1070
   396
1000

  0
DIMENSION
  5
95B50
102
{ACAD_XDICTIONARY
360
95B51
102
}
102
{ACAD_REACTORS
330
95B52
102
}
330
1F
100
AcDbEntity
  8
sk2
100
AcDbDimension
  2
*D25266
 10
-19.99502965519929
 20
-31.74999999890002
 30
0.0
 11
-24.04502965519929
 21
-0.0000000000000033
 31
0.0
 70
    32
  1
%%C<>
 71
     5
 42
63.49999999779999
  3
コピー - ISO-25
100
AcDbAlignedDimension
 13
12.0
 23
31.74999999890002
 33
0.0
 14
12.0
 24
-31.74999999890002
 34
0.0
 50
90.0
100
AcDbRotatedDimension
1001
ACAD
1000
DSTYLE
1002
{
1070
   170
1070
     1
1070
   171
1070
     3
1070
   143
1040
0.0393700787401575
1070
   285
1070
     4
1070
     4
1000
%%c[]"
1070
   271
1070
     8
1070
    40
1040
1.0
1002
}
1001
ACAD_DSTYLE_DIMINSPECT
1070
   393
1070
     0
1070
   394
1070
     0
1070
   395
1000

1070
   396
1000

  0
DIMENSION
  5
95B53
102
{ACAD_XDICTIONARY
360
95B54
102
}
102
{ACAD_REACTORS
330
95B55
102
}
330
1F
100
AcDbEntity
  8
sk2
100
AcDbDimension
  2
*D25377
 10
35.0
 20
-119.9853368591289
 30
0.0
 11
17.5
 21
-115.9353368591289
 31
0.0
 70
    32
 71
     5
 42
35.0
  3
コピー - ISO-25
100
AcDbAlignedDimension
 13
0.0
 23
-85.50000000110008
 33
0.0
 14
35.0
 24
-66.99999999889996
 34
0.0
 50
0.0
100
AcDbRotatedDimension
1001
ACAD
1000
DSTYLE
1002
{
1070
   170
1070
     1
1070
   171
1070
     3
1070
   143
1040
0.0393700787401575
1070
   285
1070
     4
1070
     4
1000
"
1070
   271
1070
     8
1070
    40
1040
1.0
1002
}
1001
ACAD_DSTYLE_DIMINSPECT
1070
   393
1070
     0
1070
   394
1070
     0
1070
   395
1000

1070
   396
1000

  0
DIMENSION
  5
95B56
330
1F
100
AcDbEntity
  8
2
100
AcDbDimension
  2
*D25488
 10
99.84762567138449
 20
-101.5999999989
 30
0.0
 11
95.7976256713845
 21
-1.750000000000041
 31
0.0
 70
    32
  1
%%C<>
 71
     5
 42
203.1999999978
  3
コピー - ISO-25
100
AcDbAlignedDimension
 13
62.70000000000002
 23
101.5999999988999
 33
0.0
 14
62.70000000000002
 24
-101.5999999989
 34
0.0
 50
90.0
100
AcDbRotatedDimension
1001
ACAD
1000
DSTYLE
1002
{
1070
   170
1070
     1
1070
   171
1070
     3
1070
   143
1040
0.0393700787401575
1070
   285
1070
     4
1070
     4
1000
%%c[]"
1070
   344
1005
87D73
1070
   271
1070
     8
1070
   173
1070
     1
1070
    40
1040
1.0
1070
    76
1070
     1
1002
}
1001
ACAD_DSTYLE_DIMINSPECT
1070
   393
1070
     0
1070
   394
1070
     0
1070
   395
1000

1070
   396
1000

  0
LINE
  5
95B59
330
1F
100
AcDbEntity
  8
1
100
AcDbLine
 10
0.0
 20
-19.55800000109997
 30
0.0
 11
0.0
 21
19.5579999989
 31
0.0
  0
LINE
  5
95B5A
330
1F
100
AcDbEntity
  8
1
100
AcDbLine
 10
52.02618060339997
 20
-100.8000000011
 30
0.0
 11
55.7131735922
 21
-100.8000000011
 31
0.0
  0
LINE
  5
95B5B
330
1F
100
AcDbEntity
  8
1
100
AcDbLine
 10
51.97382338399997
 20
-100.7995430865999
 30
0.0
 11
52.02618060339997
 21
-100.8000000011
 31
0.0
  0
LINE
  5
95B5C
330
1F
100
AcDbEntity
  8
1
100
AcDbLine
 10
39.65851611570001
 20
-100.5845785986
 30
0.0
 11
51.97382338399997
 21
-100.7995430865999
 31
0.0
  0
LINE
  5
95B5D
330
1F
100
AcDbEntity
  8
1
100
AcDbLine
 10
19.43987587009999
 20
-87.5000000011
 30
0.0
 11
2.0
 21
-87.5000000011
 31
0.0
  0
LINE
  5
95B5E
330
1F
100
AcDbEntity
  8
1
100
AcDbLine
 10
48.11817366819997
 20
97.67941743039994
 30
0.0
 11
48.88984859650004
 21
97.96545143289996
 31
0.0
  0
LINE
  5
95B5F
330
1F
100
AcDbEntity
  8
1
100
AcDbLine
 10
37.5895529915
 20
-99.70635585670002
 30
0.0
 11
26.6405564488
 21
-88.75735931399997
 31
0.0
  0
LINE
  5
95B60
330
1F
100
AcDbEntity
  8
1
100
AcDbLine
 10
49.42689713139998
 20
97.77049166820006
 30
0.0
 11
51.7057727385
 21
99.08920479780007
 31
0.0
  0
LINE
  5
95B61
330
1F
100
AcDbEntity
  8
1
100
AcDbLine
 10
37.5895529915
 20
99.7063558544
 30
0.0
 11
26.6405564488
 21
88.75735931179994
 31
0.0
  0
LINE
  5
95B62
330
1F
100
AcDbEntity
  8
1
100
AcDbLine
 10
0.0
 20
-85.50000000110001
 30
0.0
 11
0.0
 21
85.49999999889996
 31
0.0
  0
LINE
  5
95B63
330
1F
100
AcDbEntity
  8
1
100
AcDbLine
 10
47.67156845069997
 20
99.35547515510009
 30
0.0
 11
47.80963713709996
 21
97.89387398669996
 31
0.0
  0
LINE
  5
95B64
330
1F
100
AcDbEntity
  8
1
100
AcDbLine
 10
61.71317359220005
 20
88.96560120449995
 30
0.0
 11
61.71317359220005
 21
-94.79999934819998
 31
0.0
  0
LINE
  5
95B65
330
1F
100
AcDbEntity
  8
1
100
AcDbLine
 10
47.68199780609998
 20
94.15681174189995
 30
0.0
 11
47.66026640990004
 21
94.19761067789991
 31
0.0
  0
LINE
  5
95B66
330
1F
100
AcDbEntity
  8
1
100
AcDbLine
 10
19.43987587009999
 20
87.49999999889995
 30
0.0
 11
2.0
 21
87.49999999889995
 31
0.0
  0
LINE
  5
95B67
330
1F
100
AcDbEntity
  8
1
100
AcDbLine
 10
41.10542694589997
 20
94.55602546209995
 30
0.0
 11
36.03638190370001
 21
96.38783131969994
 31
0.0
  0
LINE
  5
95B68
330
1F
100
AcDbEntity
  8
1
100
AcDbLine
 10
48.80645852740002
 20
97.59814563879995
 30
0.0
 11
49.42689713139998
 21
97.77049166820006
 31
0.0
  0
LINE
  5
95B69
330
1F
100
AcDbEntity
  8
1
100
AcDbLine
 10
57.04576979700003
 20
92.05112263560005
 30
0.0
 11
56.8576185631
 21
92.05112263560005
 31
0.0
  0
LINE
  5
95B6A
330
1F
100
AcDbEntity
  8
1
100
AcDbLine
 10
57.67774665970001
 20
92.85718690159994
 30
0.0
 11
57.86589789360004
 21
92.85718690159994
 31
0.0
  0
LINE
  5
95B6B
330
1F
100
AcDbEntity
  8
1
100
AcDbLine
 10
58.0524702992
 20
93.46902868250003
 30
0.0
 11
57.86431906530004
 21
93.46902868250003
 31
0.0
  0
LINE
  5
95B6C
330
1F
100
AcDbEntity
  8
1
100
AcDbLine
 10
48.07000903600004
 20
94.49014813869995
 30
0.0
 11
47.2206284592
 21
94.49014813869995
 31
0.0
  0
LINE
  5
95B6D
330
1F
100
AcDbEntity
  8
1
100
AcDbLine
 10
48.04668378699997
 20
94.53636498679996
 30
0.0
 11
47.17013618240002
 21
94.53636498679996
 31
0.0
  0
LINE
  5
95B6E
330
1F
100
AcDbEntity
  8
1
100
AcDbLine
 10
57.77408482640002
 20
94.59616252349993
 30
0.0
 11
57.58593359260004
 21
94.59616252349993
 31
0.0
  0
LINE
  5
95B6F
330
1F
100
AcDbEntity
  8
1
100
AcDbLine
 10
56.75257761500001
 20
94.95331420729995
 30
0.0
 11
56.94072884879997
 21
94.95331420729995
 31
0.0
  0
LINE
  5
95B70
330
1F
100
AcDbEntity
  8
1
100
AcDbLine
 10
56.22463273909996
 20
95.37576223239996
 30
0.0
 11
56.03648150519997
 21
95.37576223239996
 31
0.0
  0
LINE
  5
95B71
330
1F
100
AcDbEntity
  8
1
100
AcDbLine
 10
46.57623491330002
 20
95.67461562469995
 30
0.0
 11
47.47344281600004
 21
95.67461562469995
 31
0.0
  0
LINE
  5
95B72
330
1F
100
AcDbEntity
  8
1
100
AcDbLine
 10
46.8356491756
 20
96.72941722420006
 30
0.0
 11
47.76319982789998
 21
96.72941722420006
 31
0.0
  0
LINE
  5
95B73
330
1F
100
AcDbEntity
  8
1
100
AcDbLine
 10
48.83565482679998
 20
97.38161286089995
 30
0.0
 11
47.9423317952
 21
97.38161286089995
 31
0.0
  0
LINE
  5
95B74
330
1F
100
AcDbEntity
  8
1
100
AcDbLine
 10
48.87941034739999
 20
97.40768438450004
 30
0.0
 11
47.98863399159998
 21
97.40768438450004
 31
0.0
  0
LINE
  5
95B75
330
1F
100
AcDbEntity
  8
1
100
AcDbLine
 10
57.88194039210001
 20
92.85708408510002
 30
0.0
 11
57.8658979035
 21
92.85717482679995
 31
0.0
  0
LINE
  5
95B76
330
1F
100
AcDbEntity
  8
1
100
AcDbLine
 10
54.77386798709996
 20
94.41632819790005
 30
0.0
 11
54.78991047569997
 21
94.41623745630005
 31
0.0
  0
LINE
  5
95B77
330
1F
100
AcDbEntity
  8
1
100
AcDbLine
 10
48.80645852740002
 20
97.59814563879995
 30
0.0
 11
48.11817366819997
 21
97.67941743039994
 31
0.0
  0
LINE
  5
95B78
330
1F
100
AcDbEntity
  8
1
100
AcDbLine
 10
48.88984859650004
 20
97.96545143289996
 30
0.0
 11
49.19017137549997
 21
97.88629130999998
 31
0.0
  0
LINE
  5
95B79
330
1F
100
AcDbEntity
  8
1
100
AcDbLine
 10
39.65851611570001
 20
100.5845785964
 30
0.0
 11
51.97382338399997
 21
100.7995430842999
 31
0.0
  0
LINE
  5
95B7A
330
1F
100
AcDbEntity
  8
1
100
AcDbLine
 10
51.97382338399997
 20
100.7995430842999
 30
0.0
 11
52.02618060339997
 21
100.7999999988999
 31
0.0
  0
LINE
  5
95B7B
330
1F
100
AcDbEntity
  8
1
100
AcDbLine
 10
54.20055462789999
 20
100.4776835824
 30
0.0
 11
53.64799294569997
 21
100.4776835824
 31
0.0
  0
LINE
  5
95B7C
330
1F
100
AcDbEntity
  8
1
100
AcDbLine
 10
54.93499424550002
 20
100.6672041179999
 30
0.0
 11
54.3834993488
 21
100.6672041179999
 31
0.0
  0
LINE
  5
95B7D
330
1F
100
AcDbEntity
  8
1
100
AcDbLine
 10
52.02618060339997
 20
100.7999999988999
 30
0.0
 11
55.7131735922
 21
100.7999999988999
 31
0.0
  0
LINE
  5
95B7E
330
1F
100
AcDbEntity
  8
1
100
AcDbLine
 10
54.96779393949998
 20
100.6668640638999
 30
0.0
 11
54.93499331309999
 21
100.6672041179999
 31
0.0
  0
ARC
  5
95B7F
330
1F
100
AcDbEntity
  8
1
100
AcDbCircle
 10
22.39791576160002
 20
-93.00000000110001
 30
0.0
 40
6.0
100
AcDbArc
 50
44.99999999999949
 51
109.1881364537007
  0
ARC
  5
95B80
330
1F
100
AcDbEntity
  8
1
100
AcDbCircle
 10
22.39791576160002
 20
92.99999999889996
 30
0.0
 40
6.0
100
AcDbArc
 50
250.8118635462993
 51
315.0000000000005
  0
ARC
  5
95B81
330
1F
100
AcDbEntity
  8
1
100
AcDbCircle
 10
55.7131735922
 20
94.79999999889995
 30
0.0
 40
6.0
100
AcDbArc
 50
75.98892058399934
 51
90.0
  0
ARC
  5
95B82
330
1F
100
AcDbEntity
  8
1
100
AcDbCircle
 10
55.7131735922
 20
-94.80000000110001
 30
0.0
 40
6.0
100
AcDbArc
 50
270.0
 51
0.0
  0
ARC
  5
95B83
330
1F
100
AcDbEntity
  8
1
100
AcDbCircle
 10
19.43987587009999
 20
84.49999999889994
 30
0.0
 40
3.0
100
AcDbArc
 50
70.81186354629932
 51
90.0
  0
ARC
  5
95B84
330
1F
100
AcDbEntity
  8
1
100
AcDbCircle
 10
19.43987587009999
 20
-84.5000000011
 30
0.0
 40
3.0
100
AcDbArc
 50
270.0
 51
289.1881364537007
  0
ARC
  5
95B85
330
1F
100
AcDbEntity
  8
1
100
AcDbCircle
 10
39.71087333499998
 20
97.58503551089994
 30
0.0
 40
3.0
100
AcDbArc
 50
91.00000000000015
 51
135.0000000000004
  0
ARC
  5
95B86
330
1F
100
AcDbEntity
  8
1
100
AcDbCircle
 10
39.71087333499998
 20
-97.58503551319998
 30
0.0
 40
3.0
100
AcDbArc
 50
224.9999999999995
 51
268.9999999999998
  0
ARC
  5
95B87
330
1F
100
AcDbEntity
  8
1
100
AcDbCircle
 10
2.0
 20
85.49999999889996
 30
0.0
 40
2.0
100
AcDbArc
 50
90.0
 51
180.0
  0
ARC
  5
95B88
330
1F
100
AcDbEntity
  8
1
100
AcDbCircle
 10
2.0
 20
-85.50000000110001
 30
0.0
 40
2.0
100
AcDbArc
 50
180.0
 51
270.0
  0
SPLINE
  5
95B89
330
1F
100
AcDbEntity
  8
1
100
AcDbSpline
210
0.0
220
0.0
230
1.0
 70
     8
 71
     3
 72
    15
 73
    11
 74
     0
 42
0.000000001
 43
0.0000000001
 40
0.0
 40
0.0
 40
0.0
 40
0.0
 40
0.1246291642
 40
0.2493694573
 40
0.3743260737
 40
0.4994860570000001
 40
0.6247595895
 40
0.7500106064000001
 40
0.8751064337999999
 40
1.0
 40
1.0
 40
1.0
 40
1.0
 10
54.77386798629999
 20
94.41633781859993
 30
0.0
 10
54.73852568770002
 20
94.41633457289995
 30
0.0
 10
54.66727388800001
 20
94.40464436819995
 30
0.0
 10
54.5719923117
 20
94.35387646099995
 30
0.0
 10
54.49769911379997
 20
94.27521764239996
 30
0.0
 10
54.45224557580003
 20
94.17689603120004
 30
0.0
 10
54.44030977389996
 20
94.06915799600005
 30
0.0
 10
54.46314867879999
 20
93.96319230780004
 30
0.0
 10
54.51829061850003
 20
93.87009477530005
 30
0.0
 10
54.57312232190004
 20
93.82286038380005
 30
0.0
 10
54.60333807999997
 20
93.80438360050005
 30
0.0
  0
SPLINE
  5
95B8A
330
1F
100
AcDbEntity
  8
1
100
AcDbSpline
210
0.0
220
0.0
230
1.0
 70
     8
 71
     3
 72
    11
 73
     7
 74
     0
 42
0.000000001
 43
0.0000000001
 40
0.0
 40
0.0
 40
0.0
 40
0.0
 40
0.2503007539
 40
0.5003512519
 40
0.7502247481000001
 40
1.0
 40
1.0
 40
1.0
 40
1.0
 10
53.83458211409998
 20
96.12064416990008
 30
0.0
 10
53.99216078249998
 20
96.27337134440004
 30
0.0
 10
54.33738516109997
 20
96.54915427170006
 30
0.0
 10
54.92379637169999
 20
96.85563925329994
 30
0.0
 10
55.55753743669999
 20
97.0442766977
 30
0.0
 10
55.99675537920001
 20
97.08670200460005
 30
0.0
 10
56.2157408374
 20
97.08670553839993
 30
0.0
  0
SPLINE
  5
95B8B
330
1F
100
AcDbEntity
  8
1
100
AcDbSpline
210
0.0
220
0.0
230
1.0
 70
     8
 71
     3
 72
    11
 73
     7
 74
     0
 42
0.000000001
 43
0.0000000001
 40
0.0
 40
0.0
 40
0.0
 40
0.0
 40
0.2504312555
 40
0.5005404207000002
 40
0.7503794709000001
 40
1.0
 40
1.0
 40
1.0
 40
1.0
 10
56.43117564010005
 20
91.89765005059994
 30
0.0
 10
56.40177547110003
 20
91.95054592589995
 30
0.0
 10
56.33110214530001
 20
92.05013277399997
 30
0.0
 10
56.19520312560002
 20
92.17233662370004
 30
0.0
 10
56.03599605869995
 20
92.26169699609993
 30
0.0
 10
55.91919060409998
 20
92.29645728279995
 30
0.0
 10
55.85982559299997
 20
92.30715611589992
 30
0.0
  0
SPLINE
  5
95B8C
330
1F
100
AcDbEntity
  8
1
100
AcDbSpline
210
0.0
220
0.0
230
1.0
 70
     8
 71
     3
 72
    11
 73
     7
 74
     0
 42
0.000000001
 43
0.0000000001
 40
0.0
 40
0.0
 40
0.0
 40
0.0
 40
0.2504888552
 40
0.5005830327
 40
0.7503854218000001
 40
1.0
 40
1.0
 40
1.0
 40
1.0
 10
56.43117564010005
 20
91.89765005059994
 30
0.0
 10
56.44528425159998
 20
91.87226627309994
 30
0.0
 10
56.48038113670003
 20
91.82503984070006
 30
0.0
 10
56.54958594459998
 20
91.77069538209996
 30
0.0
 10
56.63052810749997
 20
91.73643371570006
 30
0.0
 10
56.6887229856
 20
91.72864457829993
 30
0.0
 10
56.71766278539998
 20
91.72864247700005
 30
0.0
  0
SPLINE
  5
95B8D
330
1F
100
AcDbEntity
  8
1
100
AcDbSpline
210
0.0
220
0.0
230
1.0
 70
     8
 71
     3
 72
     9
 73
     5
 74
     0
 42
0.000000001
 43
0.0000000001
 40
0.0
 40
0.0
 40
0.0
 40
0.0
 40
0.2503594176
 40
1.0
 40
1.0
 40
1.0
 40
1.0
 10
54.75394314039998
 20
93.68609296920006
 30
0.0
 10
54.74259664880003
 20
93.69737702580003
 30
0.0
 10
54.69597236960002
 20
93.74111900779995
 30
0.0
 10
54.64421603919999
 20
93.77938693519995
 30
0.0
 10
54.60333807999997
 20
93.80438360050005
 30
0.0
  0
SPLINE
  5
95B8E
330
1F
100
AcDbEntity
  8
1
100
AcDbSpline
210
0.0
220
0.0
230
1.0
 70
     8
 71
     3
 72
    15
 73
    11
 74
     0
 42
0.000000001
 43
0.0000000001
 40
0.0
 40
0.0
 40
0.0
 40
0.0
 40
0.1246814763
 40
0.2493917445
 40
0.3742026832
 40
0.499132662
 40
0.6241946346000004
 40
0.7493819871
 40
0.8746592195999999
 40
1.0
 40
1.0
 40
1.0
 40
1.0
 10
54.7899104764
 20
94.41622572780003
 30
0.0
 10
54.84274863999996
 20
94.41622866199995
 30
0.0
 10
54.94872515869997
 20
94.42655533999998
 30
0.0
 10
55.10151058080004
 20
94.47247648060004
 30
0.0
 10
55.24271274950002
 20
94.54707746189994
 30
0.0
 10
55.36698441480002
 20
94.64758801889995
 30
0.0
 10
55.469715055
 20
94.77023444679995
 30
0.0
 10
55.5470630751
 20
94.91046069850005
 30
0.0
 10
55.59616086289998
 20
95.06295401939995
 30
0.0
 10
55.60883485709997
 20
95.16918572139996
 30
0.0
 10
55.61003858229998
 20
95.22228964739996
 30
0.0
  0
SPLINE
  5
95B8F
330
1F
100
AcDbEntity
  8
1
100
AcDbSpline
210
0.0
220
0.0
230
1.0
 70
     8
 71
     3
 72
    11
 73
     7
 74
     0
 42
0.000000001
 43
0.0000000001
 40
0.0
 40
0.0
 40
0.0
 40
0.0
 40
0.2496996376
 40
0.4996277062
 40
0.7497543987000001
 40
1.0
 40
1.0
 40
1.0
 40
1.0
 10
53.83458211409998
 20
96.12064416990008
 30
0.0
 10
53.68110500619997
 20
95.97189227800006
 30
0.0
 10
53.40115052410002
 20
95.64473319999995
 30
0.0
 10
53.07972732570004
 20
95.08512906040005
 30
0.0
 10
52.86696197580003
 20
94.47537811430006
 30
0.0
 10
52.80258058450002
 20
94.04900789400006
 30
0.0
 10
52.79032321959997
 20
93.83515726709999
 30
0.0
  0
SPLINE
  5
95B90
330
1F
100
AcDbEntity
  8
1
100
AcDbSpline
210
0.0
220
0.0
230
1.0
 70
     8
 71
     3
 72
    11
 73
     7
 74
     0
 42
0.000000001
 43
0.0000000001
 40
0.0
 40
0.0
 40
0.0
 40
0.0
 40
0.2493740859
 40
0.4991098233
 40
0.7493606095000001
 40
1.0
 40
1.0
 40
1.0
 40
1.0
 10
55.93814559390001
 20
95.54476980599995
 30
0.0
 10
55.89606380139997
 20
95.54477286149996
 30
0.0
 10
55.81093703929997
 20
95.52806363640007
 30
0.0
 10
55.70287389990003
 20
95.45659274010004
 30
0.0
 10
55.62947637569999
 20
95.34959510059996
 30
0.0
 10
55.61099705869998
 20
95.26457409809994
 30
0.0
 10
55.61003858229998
 20
95.22228964739996
 30
0.0
  0
SPLINE
  5
95B91
330
1F
100
AcDbEntity
  8
1
100
AcDbSpline
210
0.0
220
0.0
230
1.0
 70
     8
 71
     3
 72
     9
 73
     5
 74
     0
 42
0.000000001
 43
0.0000000001
 40
0.0
 40
0.0
 40
0.0
 40
0.0
 40
0.4998168162
 40
1.0
 40
1.0
 40
1.0
 40
1.0
 10
56.94072884810005
 20
94.95331475399996
 30
0.0
 10
57.00902594280001
 20
94.95331811219994
 30
0.0
 10
57.1462188079
 20
94.97061298359993
 30
0.0
 10
57.27472719209996
 20
95.02165738789994
 30
0.0
 10
57.33460469190004
 20
95.05461218839995
 30
0.0
  0
SPLINE
  5
95B92
330
1F
100
AcDbEntity
  8
1
100
AcDbSpline
210
0.0
220
0.0
230
1.0
 70
     8
 71
     3
 72
     9
 73
     5
 74
     0
 42
0.000000001
 43
0.0000000001
 40
0.0
 40
0.0
 40
0.0
 40
0.0
 40
0.4998058517000001
 40
1.0
 40
1.0
 40
1.0
 40
1.0
 10
57.49218180849999
 20
95.09513608670003
 30
0.0
 10
57.46485894579999
 20
95.09513846890007
 30
0.0
 10
57.40997196810003
 20
95.08821781650004
 30
0.0
 10
57.35856027109996
 20
95.06779662900006
 30
0.0
 10
57.33460469190004
 20
95.05461218839995
 30
0.0
  0
SPLINE
  5
95B93
330
1F
100
AcDbEntity
  8
1
100
AcDbSpline
210
0.0
220
0.0
230
1.0
 70
     8
 71
     3
 72
    23
 73
    19
 74
     0
 42
0.000000001
 43
0.0000000001
 40
0.0
 40
0.0
 40
0.0
 40
0.0
 40
0.0622939851
 40
0.1246028505
 40
0.1869401546
 40
0.2493169579
 40
0.3117408544
 40
0.3742153093
 40
0.4367393629
 40
0.499307722
 40
0.5619112274
 40
0.6245376611
 40
0.6871728096
 40
0.7498017541
 40
0.8124098807999999
 40
0.8749854087999999
 40
0.9375158973999999
 40
1.0
 40
1.0
 40
1.0
 40
1.0
 10
56.28609280429998
 20
97.08670553839993
 30
0.0
 10
56.4556796315
 20
97.08670827499997
 30
0.0
 10
56.79543755100002
 20
97.06132194620005
 30
0.0
 10
57.29341238819998
 20
96.94794121859995
 30
0.0
 10
57.7693429392
 20
96.76174808129996
 30
0.0
 10
58.21261440860002
 20
96.50684640940005
 30
0.0
 10
58.61352135420003
 20
96.18884810149994
 30
0.0
 10
58.96324280869999
 20
95.81475183890004
 30
0.0
 10
59.25409912840001
 20
95.3927869411
 30
0.0
 10
59.47970240789999
 20
94.93223194740005
 30
0.0
 10
59.63509970310003
 20
94.44321037170006
 30
0.0
 10
59.7168803541
 20
93.93646900749997
 30
0.0
 10
59.72325220240003
 20
93.42314240249995
 30
0.0
 10
59.65407246039998
 20
92.91450704130005
 30
0.0
 10
59.5108703793
 20
92.42174209769995
 30
0.0
 10
59.29675293809999
 20
91.95565725399994
 30
0.0
 10
59.01653720680002
 20
91.52658487620005
 30
0.0
 10
58.78939912669999
 20
91.27115506159995
 30
0.0
 10
58.66725152749999
 20
91.15276811320006
 30
0.0
  0
SPLINE
  5
95B94
330
1F
100
AcDbEntity
  8
1
100
AcDbSpline
210
0.0
220
0.0
230
1.0
 70
     8
 71
     3
 72
     8
 73
     4
 74
     0
 42
0.000000001
 43
0.0000000001
 40
0.0
 40
0.0
 40
0.0
 40
0.0
 40
1.0
 40
1.0
 40
1.0
 40
1.0
 10
58.2332839709
 20
90.79609595730005
 30
0.0
 10
58.38718119910002
 20
90.90275411080003
 30
0.0
 10
58.53279641310003
 20
91.02245257019992
 30
0.0
 10
58.66725152749999
 20
91.15276811320006
 30
0.0
  0
SPLINE
  5
95B95
330
1F
100
AcDbEntity
  8
1
100
AcDbSpline
210
0.0
220
0.0
230
1.0
 70
     8
 71
     3
 72
    11
 73
     7
 74
     0
 42
0.000000001
 43
0.0000000001
 40
0.0
 40
0.0
 40
0.0
 40
0.0
 40
0.249699329
 40
0.49962753
 40
0.7497544291000004
 40
1.0
 40
1.0
 40
1.0
 40
1.0
 10
53.90493408110001
 20
96.12064416990008
 30
0.0
 10
53.75116687420001
 20
95.97161111049995
 30
0.0
 10
53.47073358519996
 20
95.64377542499995
 30
0.0
 10
53.14899250239999
 20
95.08293059460005
 30
0.0
 10
52.9363577291
 20
94.47182595890005
 30
0.0
 10
52.8723788172
 20
94.04455918329997
 30
0.0
 10
52.86039947260002
 20
93.83028705009994
 30
0.0
  0
SPLINE
  5
95B96
330
1F
100
AcDbEntity
  8
1
100
AcDbSpline
210
0.0
220
0.0
230
1.0
 70
     8
 71
     3
 72
    11
 73
     7
 74
     0
 42
0.000000001
 43
0.0000000001
 40
0.0
 40
0.0
 40
0.0
 40
0.0
 40
0.2503007539
 40
0.5003512519
 40
0.7502247481000001
 40
1.0
 40
1.0
 40
1.0
 40
1.0
 10
53.90493408110001
 20
96.12064416990008
 30
0.0
 10
54.0625127495
 20
96.27337134440004
 30
0.0
 10
54.40773712810003
 20
96.54915427170006
 30
0.0
 10
54.99414833869997
 20
96.85563925329994
 30
0.0
 10
55.62788940360002
 20
97.0442766977
 30
0.0
 10
56.06710734619998
 20
97.08670200460005
 30
0.0
 10
56.28609280429998
 20
97.08670553839993
 30
0.0
  0
SPLINE
  5
95B97
330
1F
100
AcDbEntity
  8
1
100
AcDbSpline
210
0.0
220
0.0
230
1.0
 70
     8
 71
     3
 72
    11
 73
     7
 74
     0
 42
0.000000001
 43
0.0000000001
 40
0.0
 40
0.0
 40
0.0
 40
0.0
 40
0.249699381
 40
0.4996256883
 40
0.7497547925000001
 40
1.0
 40
1.0
 40
1.0
 40
1.0
 10
54.70525906919998
 20
95.32939041399997
 30
0.0
 10
54.599447613
 20
95.22683665529994
 30
0.0
 10
54.40665361190003
 20
95.00103870779993
 30
0.0
 10
54.18629743619995
 20
94.61445321249998
 30
0.0
 10
54.04187720160003
 20
94.19322861699994
 30
0.0
 10
53.99972133940003
 20
93.89889846439995
 30
0.0
 10
53.99255968100002
 20
93.75139565100006
 30
0.0
  0
SPLINE
  5
95B98
330
1F
100
AcDbEntity
  8
1
100
AcDbSpline
210
0.0
220
0.0
230
1.0
 70
     8
 71
     3
 72
     9
 73
     5
 74
     0
 42
0.000000001
 43
0.0000000001
 40
0.0
 40
0.0
 40
0.0
 40
0.0
 40
0.4997083964000001
 40
1.0
 40
1.0
 40
1.0
 40
1.0
 10
56.98935476859998
 20
91.38173715570005
 30
0.0
 10
57.16848435970002
 20
91.43485881519993
 30
0.0
 10
57.5153710564
 20
91.58503418429994
 30
0.0
 10
57.81622745940005
 20
91.81383548699994
 30
0.0
 10
57.95054930999999
 20
91.94402186899996
 30
0.0
  0
SPLINE
  5
95B99
330
1F
100
AcDbEntity
  8
1
100
AcDbSpline
210
0.0
220
0.0
230
1.0
 70
     8
 71
     3
 72
    15
 73
    11
 74
     0
 42
0.000000001
 43
0.0000000001
 40
0.0
 40
0.0
 40
0.0
 40
0.0
 40
0.1250270289
 40
0.2501292602
 40
0.3752766457
 40
0.5004091402000001
 40
0.6254795606
 40
0.7504499917000002
 40
0.8752869054999996
 40
1.0
 40
1.0
 40
1.0
 40
1.0
 10
57.77408482640002
 20
94.59616252349993
 30
0.0
 10
57.74677727559996
 20
94.55010194429993
 30
0.0
 10
57.70101443880003
 20
94.45235719080004
 30
0.0
 10
57.66207160380003
 20
94.29542562149995
 30
0.0
 10
57.65411050109998
 20
94.13382694679993
 30
0.0
 10
57.677486808
 20
93.97375719109993
 30
0.0
 10
57.73129008580003
 20
93.82127774890005
 30
0.0
 10
57.81351141200002
 20
93.68217772390005
 30
0.0
 10
57.92095603690004
 20
93.56177345400004
 30
0.0
 10
58.0069021425
 20
93.49689337999995
 30
0.0
 10
58.0524702992
 20
93.46902868250003
 30
0.0
  0
SPLINE
  5
95B9A
330
1F
100
AcDbEntity
  8
1
100
AcDbSpline
210
0.0
220
0.0
230
1.0
 70
     8
 71
     3
 72
     9
 73
     5
 74
     0
 42
0.000000001
 43
0.0000000001
 40
0.0
 40
0.0
 40
0.0
 40
0.0
 40
0.5005272103000003
 40
1.0
 40
1.0
 40
1.0
 40
1.0
 10
56.03648150519997
 20
95.37576223239996
 30
0.0
 10
56.01607238920002
 20
95.41248168300006
 30
0.0
 10
55.96064858540001
 20
95.47862549409996
 30
0.0
 10
55.88426187380003
 20
95.51882645409996
 30
0.0
 10
55.84411838130002
 20
95.53090627889996
 30
0.0
  0
SPLINE
  5
95B9B
330
1F
100
AcDbEntity
  8
1
100
AcDbSpline
210
0.0
220
0.0
230
1.0
 70
     8
 71
     3
 72
    11
 73
     7
 74
     0
 42
0.000000001
 43
0.0000000001
 40
0.0
 40
0.0
 40
0.0
 40
0.0
 40
0.2496171403
 40
0.4994157698
 40
0.7495141723000001
 40
1.0
 40
1.0
 40
1.0
 40
1.0
 10
56.75257761090001
 20
94.95331846539992
 30
0.0
 10
56.68023956929996
 20
94.95331618669997
 30
0.0
 10
56.53477645200002
 20
94.97278842319996
 30
0.0
 10
56.33245293790003
 20
95.05842468459995
 30
0.0
 10
56.15947631769998
 20
95.19427012159995
 30
0.0
 10
56.07174665949997
 20
95.31231425689995
 30
0.0
 10
56.03648150519997
 20
95.37576223239996
 30
0.0
  0
SPLINE
  5
95B9C
330
1F
100
AcDbEntity
  8
1
100
AcDbSpline
210
0.0
220
0.0
230
1.0
 70
     8
 71
     3
 72
    15
 73
    11
 74
     0
 42
0.000000001
 43
0.0000000001
 40
0.0
 40
0.0
 40
0.0
 40
0.0
 40
0.125087702
 40
0.2502740963
 40
0.3754779864
 40
0.5006413238000002
 40
0.6256992257000002
 40
0.7506135791
 40
0.8753738626
 40
1.0
 40
1.0
 40
1.0
 40
1.0
 10
57.58593359260004
 20
94.59616252349993
 30
0.0
 10
57.5986377689
 20
94.61759109169996
 30
0.0
 10
57.61925779379999
 20
94.66352163019996
 30
0.0
 10
57.63390942190003
 20
94.73747108300004
 30
0.0
 10
57.63163442460001
 20
94.81287472139994
 30
0.0
 10
57.61253170699998
 20
94.88581952810006
 30
0.0
 10
57.57758257690003
 20
94.95257297159996
 30
0.0
 10
57.52856546660003
 20
95.00970670689993
 30
0.0
 10
57.46804093100003
 20
95.05426817859992
 30
0.0
 10
57.42195301539999
 20
95.07410504479997
 30
0.0
 10
57.39818825929996
 20
95.08126358269995
 30
0.0
  0
SPLINE
  5
95B9D
330
1F
100
AcDbEntity
  8
1
100
AcDbSpline
210
0.0
220
0.0
230
1.0
 70
     8
 71
     3
 72
    15
 73
    11
 74
     0
 42
0.000000001
 43
0.0000000001
 40
0.0
 40
0.0
 40
0.0
 40
0.0
 40
0.1247093668
 40
0.2495512619
 40
0.3745200037
 40
0.4995908568
 40
0.6247237875
 40
0.7498694791000001
 40
0.8749767081999999
 40
1.0
 40
1.0
 40
1.0
 40
1.0
 10
57.86431906530004
 20
93.46902868250003
 30
0.0
 10
57.81875221900003
 20
93.49689257870004
 30
0.0
 10
57.7328067016
 20
93.56177406879995
 30
0.0
 10
57.62535815580003
 20
93.68217503249995
 30
0.0
 10
57.54313816619998
 20
93.82127801019995
 30
0.0
 10
57.48933268220003
 20
93.97375647219995
 30
0.0
 10
57.46595878299996
 20
94.13382638749999
 30
0.0
 10
57.47391733159997
 20
94.29542705709996
 30
0.0
 10
57.51286516830004
 20
94.45235753480005
 30
0.0
 10
57.55862682699998
 20
94.55010326890002
 30
0.0
 10
57.58593359260004
 20
94.59616252349993
 30
0.0
  0
SPLINE
  5
95B9E
330
1F
100
AcDbEntity
  8
1
100
AcDbSpline
210
0.0
220
0.0
230
1.0
 70
     8
 71
     3
 72
    15
 73
    11
 74
     0
 42
0.000000001
 43
0.0000000001
 40
0.0
 40
0.0
 40
0.0
 40
0.0
 40
0.125171167
 40
0.2504182744
 40
0.3756807356
 40
0.5008541483000001
 40
0.6258745924
 40
0.7507162850000002
 40
0.8754017908999999
 40
1.0
 40
1.0
 40
1.0
 40
1.0
 10
57.77408482640002
 20
94.59616252349993
 30
0.0
 10
57.78881447819998
 20
94.62100753050005
 30
0.0
 10
57.81183711220001
 20
94.67486470849996
 30
0.0
 10
57.82416521650003
 20
94.76163436129995
 30
0.0
 10
57.81362717480003
 20
94.84869538800005
 30
0.0
 10
57.78089084900003
 20
94.92998643749997
 30
0.0
 10
57.72822587920001
 20
94.99991495370004
 30
0.0
 10
57.65922991070002
 20
95.05363975730004
 30
0.0
 10
57.57874392350004
 20
95.08744655649996
 30
0.0
 10
57.52093276020002
 20
95.09513358009995
 30
0.0
 10
57.49218180849999
 20
95.09513608670003
 30
0.0
  0
SPLINE
  5
95B9F
330
1F
100
AcDbEntity
  8
1
100
AcDbSpline
210
0.0
220
0.0
230
1.0
 70
     8
 71
     3
 72
    15
 73
    11
 74
     0
 42
0.000000001
 43
0.0000000001
 40
0.0
 40
0.0
 40
0.0
 40
0.0
 40
0.1253363922
 40
0.2506187727
 40
0.3758037697
 40
0.500865979
 40
0.6257958467
 40
0.7506054116
 40
0.8753182149999998
 40
1.0
 40
1.0
 40
1.0
 40
1.0
 10
56.8576185631
 20
92.05112263560005
 30
0.0
 10
56.85882224760002
 20
92.10422476530004
 30
0.0
 10
56.87149788650003
 20
92.21045642780003
 30
0.0
 10
56.92059032589997
 20
92.36295111640005
 30
0.0
 10
56.99794156429999
 20
92.50317737679994
 30
0.0
 10
57.1006694605
 20
92.62582498609992
 30
0.0
 10
57.22494184510003
 20
92.72633423429992
 30
0.0
 10
57.36614354159996
 20
92.80093732420006
 30
0.0
 10
57.51893067699999
 20
92.84685662099994
 30
0.0
 10
57.62490832329999
 20
92.85718263380005
 30
0.0
 10
57.67774668010003
 20
92.85718645509994
 30
0.0
  0
SPLINE
  5
95BA0
330
1F
100
AcDbEntity
  8
1
100
AcDbSpline
210
0.0
220
0.0
230
1.0
 70
     8
 71
     3
 72
    11
 73
     7
 74
     0
 42
0.000000001
 43
0.0000000001
 40
0.0
 40
0.0
 40
0.0
 40
0.0
 40
0.2504816484
 40
0.5005869524000001
 40
0.7503847629000001
 40
1.0
 40
1.0
 40
1.0
 40
1.0
 10
56.22463273909996
 20
95.37576223239996
 30
0.0
 10
56.25989733279999
 20
95.31231526549992
 30
0.0
 10
56.34762870030002
 20
95.19427232599994
 30
0.0
 10
56.52060121409997
 20
95.05841839350004
 30
0.0
 10
56.72293087859998
 20
94.97279497669994
 30
0.0
 10
56.86839130100003
 20
94.95331119729994
 30
0.0
 10
56.94072884810005
 20
94.95331475399996
 30
0.0
  0
SPLINE
  5
95BA1
330
1F
100
AcDbEntity
  8
1
100
AcDbSpline
210
0.0
220
0.0
230
1.0
 70
     8
 71
     3
 72
    15
 73
    11
 74
     0
 42
0.000000001
 43
0.0000000001
 40
0.0
 40
0.0
 40
0.0
 40
0.0
 40
0.1246291642
 40
0.2493694573
 40
0.3743260737
 40
0.4994860570000001
 40
0.6247595895
 40
0.7500106064000001
 40
0.8751064337999999
 40
1.0
 40
1.0
 40
1.0
 40
1.0
 10
57.88194039300002
 20
92.85707446440005
 30
0.0
 10
57.91728269150002
 20
92.85707771019993
 30
0.0
 10
57.9885344913
 20
92.86876791489998
 30
0.0
 10
58.08381606749998
 20
92.91953582209997
 30
0.0
 10
58.15810926539999
 20
92.99819464059998
 30
0.0
 10
58.20356280340002
 20
93.09651625180006
 30
0.0
 10
58.2154986054
 20
93.20425428699996
 30
0.0
 10
58.19265970049997
 20
93.31021997529992
 30
0.0
 10
58.13751776070001
 20
93.40331750769996
 30
0.0
 10
58.08268605729996
 20
93.45055189919996
 30
0.0
 10
58.0524702992
 20
93.46902868250003
 30
0.0
  0
SPLINE
  5
95BA2
330
1F
100
AcDbEntity
  8
1
100
AcDbSpline
210
0.0
220
0.0
230
1.0
 70
     8
 71
     3
 72
    15
 73
    11
 74
     0
 42
0.000000001
 43
0.0000000001
 40
0.0
 40
0.0
 40
0.0
 40
0.0
 40
0.1246393151
 40
0.2493781105
 40
0.3743368776
 40
0.4994973268
 40
0.6247690175000003
 40
0.7500176511
 40
0.8751066225
 40
1.0
 40
1.0
 40
1.0
 40
1.0
 10
57.69672122549997
 20
92.85708808400006
 30
0.0
 10
57.73194466209996
 20
92.85741021129995
 30
0.0
 10
57.80284643010003
 20
92.86965326249996
 30
0.0
 10
57.89742064320001
 20
92.92094022959995
 30
0.0
 10
57.97097383929997
 20
92.99977147739996
 30
0.0
 10
58.01576665549998
 20
93.09797627719992
 30
0.0
 10
58.02725312279999
 20
93.20537817929993
 30
0.0
 10
58.00419112880002
 20
93.31090211999997
 30
0.0
 10
57.94909571789998
 20
93.40358026149996
 30
0.0
 10
57.89443196389999
 20
93.45061479729997
 30
0.0
 10
57.86431906530004
 20
93.46902868250003
 30
0.0
  0
SPLINE
  5
95BA3
330
1F
100
AcDbEntity
  8
1
100
AcDbSpline
210
0.0
220
0.0
230
1.0
 70
     8
 71
     3
 72
    15
 73
    11
 74
     0
 42
0.000000001
 43
0.0000000001
 40
0.0
 40
0.0
 40
0.0
 40
0.0
 40
0.1246814763
 40
0.2493917445
 40
0.3742026832
 40
0.499132662
 40
0.6241946346000004
 40
0.7493819871
 40
0.8746592195999999
 40
1.0
 40
1.0
 40
1.0
 40
1.0
 10
57.86589790290003
 20
92.85718655519993
 30
0.0
 10
57.8130597393
 20
92.85718362109994
 30
0.0
 10
57.70708322050001
 20
92.84685694309995
 30
0.0
 10
57.55429779850004
 20
92.80093580249994
 30
0.0
 10
57.41309562970002
 20
92.72633482109993
 30
0.0
 10
57.28882396449996
 20
92.62582426420006
 30
0.0
 10
57.18609332419998
 20
92.50317783630007
 30
0.0
 10
57.10874530409999
 20
92.36295158449996
 30
0.0
 10
57.05964751639999
 20
92.21045826359993
 30
0.0
 10
57.04697352220001
 20
92.10422656170006
 30
0.0
 10
57.04576979700003
 20
92.05112263560005
 30
0.0
  0
SPLINE
  5
95BA4
330
1F
100
AcDbEntity
  8
1
100
AcDbSpline
210
0.0
220
0.0
230
1.0
 70
     8
 71
     3
 72
    11
 73
     7
 74
     0
 42
0.000000001
 43
0.0000000001
 40
0.0
 40
0.0
 40
0.0
 40
0.0
 40
0.2504888552
 40
0.5005830327
 40
0.7503854218000001
 40
1.0
 40
1.0
 40
1.0
 40
1.0
 10
56.22463273909996
 20
95.37576223239996
 30
0.0
 10
56.21052412769998
 20
95.40114600999997
 30
0.0
 10
56.17542724259999
 20
95.44837244240005
 30
0.0
 10
56.10622243469999
 20
95.50271690100002
 30
0.0
 10
56.02528027170001
 20
95.53697856739994
 30
0.0
 10
55.96708539369996
 20
95.54476770480006
 30
0.0
 10
55.93814559390001
 20
95.54476980599995
 30
0.0
  0
SPLINE
  5
95BA5
330
1F
100
AcDbEntity
  8
1
100
AcDbSpline
210
0.0
220
0.0
230
1.0
 70
     8
 71
     3
 72
    11
 73
     7
 74
     0
 42
0.000000001
 43
0.0000000001
 40
0.0
 40
0.0
 40
0.0
 40
0.0
 40
0.2493740859
 40
0.4991098233
 40
0.7493606095000001
 40
1.0
 40
1.0
 40
1.0
 40
1.0
 10
56.71766278539998
 20
91.72864247700005
 30
0.0
 10
56.7597445778
 20
91.72863942159997
 30
0.0
 10
56.84487134
 20
91.74534864670004
 30
0.0
 10
56.95293447929998
 20
91.81681954289995
 30
0.0
 10
57.02633200350004
 20
91.92381718240005
 30
0.0
 10
57.04481132060003
 20
92.00883818499995
 30
0.0
 10
57.04576979700003
 20
92.05112263560005
 30
0.0
  0
SPLINE
  5
95BA6
330
1F
100
AcDbEntity
  8
1
100
AcDbSpline
210
0.0
220
0.0
230
1.0
 70
     8
 71
     3
 72
    11
 73
     7
 74
     0
 42
0.000000001
 43
0.0000000001
 40
0.0
 40
0.0
 40
0.0
 40
0.0
 40
0.2494311775
 40
0.4992625846000001
 40
0.7494791334000001
 40
1.0
 40
1.0
 40
1.0
 40
1.0
 10
56.62379643610001
 20
91.74255521359993
 30
0.0
 10
56.65659989989999
 20
91.75244480609995
 30
0.0
 10
56.7195554063
 20
91.78288065350004
 30
0.0
 10
56.7949212228
 20
91.85541075540005
 30
0.0
 10
56.84440671229999
 20
91.94772261599995
 30
0.0
 10
56.85683874630001
 20
92.01671998840003
 30
0.0
 10
56.8576185631
 20
92.05112263560005
 30
0.0
  0
SPLINE
  5
95BA7
330
1F
100
AcDbEntity
  8
1
100
AcDbSpline
210
0.0
220
0.0
230
1.0
 70
     8
 71
     3
 72
    27
 73
    23
 74
     0
 42
0.000000001
 43
0.0000000001
 40
0.0
 40
0.0
 40
0.0
 40
0.0
 40
0.0624433591
 40
0.0936765414
 40
0.1248978524
 40
0.1872330311
 40
0.249544673
 40
0.2807377149
 40
0.3119347194
 40
0.3742767327000001
 40
0.4366679199
 40
0.4991219079000003
 40
0.5616428055
 40
0.624224528
 40
0.6868517065000001
 40
0.718213013
 40
0.7495769263
 40
0.8122249709999998
 40
0.8748453470999999
 40
0.9061755931
 40
0.9374897179999999
 40
1.0
 40
1.0
 40
1.0
 40
1.0
 10
54.70525906919998
 20
95.32939041399997
 30
0.0
 10
54.81520548219997
 20
95.43595182349994
 30
0.0
 10
54.99654415629999
 20
95.58009217629992
 30
0.0
 10
55.26204027130001
 20
95.73345580979996
 30
0.0
 10
55.54114318209997
 20
95.85997229039994
 30
0.0
 10
55.91121369850004
 20
95.96551711079994
 30
0.0
 10
56.29475349379998
 20
95.99629116539992
 30
0.0
 10
56.60025507189999
 20
95.97550789039996
 30
0.0
 10
56.90229736010002
 20
95.92476711880005
 30
0.0
 10
57.26846096920002
 20
95.80566888980007
 30
0.0
 10
57.67118631389997
 20
95.57947368860004
 30
0.0
 10
58.02234527660003
 20
95.27863056140004
 30
0.0
 10
58.30833359850004
 20
94.91469025890005
 30
0.0
 10
58.51821530090001
 20
94.50176542849995
 30
0.0
 10
58.62301972169999
 20
94.12966825449995
 30
0.0
 10
58.66233284560003
 20
93.82440116220005
 30
0.0
 10
58.67175744940002
 20
93.51669810990005
 30
0.0
 10
58.62711296519997
 20
93.13261383659996
 30
0.0
 10
58.50866439589997
 20
92.76462409909996
 30
0.0
 10
58.37264039440004
 20
92.48873324839994
 30
0.0
 10
58.21056538619996
 20
92.22772846539992
 30
0.0
 10
58.06061355669999
 20
92.05069748429995
 30
0.0
 10
57.95054930999999
 20
91.94402186899996
 30
0.0
  0
SPLINE
  5
95BA8
330
1F
100
AcDbEntity
  8
1
100
AcDbSpline
210
0.0
220
0.0
230
1.0
 70
     8
 71
     3
 72
     9
 73
     5
 74
     0
 42
0.000000001
 43
0.0000000001
 40
0.0
 40
0.0
 40
0.0
 40
0.0
 40
0.2522462534
 40
1.0
 40
1.0
 40
1.0
 40
1.0
 10
63.5
 20
99.67968715159997
 30
0.0
 10
63.49999163720003
 20
99.57200612710005
 30
0.0
 10
63.49914052629998
 20
99.14511814539995
 30
0.0
 10
63.49498495690003
 20
98.71823626179995
 30
0.0
 10
63.48995691790003
 20
98.39906838879992
 30
0.0
  0
SPLINE
  5
95BA9
330
1F
100
AcDbEntity
  8
1
100
AcDbSpline
210
0.0
220
0.0
230
1.0
 70
     8
 71
     3
 72
    15
 73
    11
 74
     0
 42
0.000000001
 43
0.0000000001
 40
0.0
 40
0.0
 40
0.0
 40
0.0
 40
0.1258914281
 40
0.2515368387
 40
0.3767807292
 40
0.5015558187
 40
0.6260253876
 40
0.7504178356
 40
0.8749929918000001
 40
1.0
 40
1.0
 40
1.0
 40
1.0
 10
63.5
 20
99.67968715159997
 30
0.0
 10
63.50000390229997
 20
99.72993376859994
 30
0.0
 10
63.49055414639996
 20
99.83059129809998
 30
0.0
 10
63.44833553900002
 20
99.97581732129996
 30
0.0
 10
63.37987865859997
 20
100.1102242688999
 30
0.0
 10
63.28768597469998
 20
100.2290104509999
 30
0.0
 10
63.1749198077
 20
100.3279794428999
 30
0.0
 10
63.04541717270002
 20
100.4036260571
 30
0.0
 10
62.9036868874
 20
100.4531872492999
 30
0.0
 10
62.804377878
 20
100.4675481071999
 30
0.0
 10
62.7545416336
 20
100.469940227
 30
0.0
  0
SPLINE
  5
95BAA
330
1F
100
AcDbEntity
  8
1
100
AcDbSpline
210
0.0
220
0.0
230
1.0
 70
     8
 71
     3
 72
     9
 73
     5
 74
     0
 42
0.000000001
 43
0.0000000001
 40
0.0
 40
0.0
 40
0.0
 40
0.0
 40
0.250126953
 40
1.0
 40
1.0
 40
1.0
 40
1.0
 10
61.47176579490004
 20
100.5307165429999
 30
0.0
 10
61.57872116369998
 20
100.5257150179999
 30
0.0
 10
62.00632239679999
 20
100.5056528465999
 30
0.0
 10
62.43391141840014
 20
100.4853303490999
 30
0.0
 10
62.7545416336
 20
100.469940227
 30
0.0
  0
SPLINE
  5
95BAB
330
1F
100
AcDbEntity
  8
1
100
AcDbSpline
210
0.0
220
0.0
230
1.0
 70
     8
 71
     3
 72
     9
 73
     5
 74
     0
 42
0.000000001
 43
0.0000000001
 40
0.0
 40
0.0
 40
0.0
 40
0.0
 40
0.2480571468
 40
1.0
 40
1.0
 40
1.0
 40
1.0
 10
54.96779393949998
 20
100.6668640638999
 30
0.0
 10
55.50118297900002
 20
100.6558116492999
 30
0.0
 10
57.65145077749997
 20
100.6113053865999
 30
0.0
 10
59.80171004210014
 20
100.5663876434999
 30
0.0
 10
61.41858011070002
 20
100.5325164626999
 30
0.0
  0
SPLINE
  5
95BAC
330
1F
100
AcDbEntity
  8
1
100
AcDbSpline
210
0.0
220
0.0
230
1.0
 70
     8
 71
     3
 72
    11
 73
     7
 74
     0
 42
0.000000001
 43
0.0000000001
 40
0.0
 40
0.0
 40
0.0
 40
0.0
 40
0.1243909182
 40
0.2489585366
 40
0.4986669920000001
 40
1.0
 40
1.0
 40
1.0
 40
1.0
 10
53.64799294569997
 20
100.4776835824
 30
0.0
 10
53.5612827164
 20
100.4309176325999
 30
0.0
 10
53.38760669369998
 20
100.3375650060999
 30
0.0
 10
53.03994526229995
 20
100.1501817310999
 30
0.0
 10
52.42960746789997
 20
99.82093168579996
 30
0.0
 10
51.90640010159999
 20
99.53796370419997
 30
0.0
 10
51.55725933909997
 20
99.34887649169997
 30
0.0
  0
LINE
  5
95BAD
330
1F
100
AcDbEntity
  8
1
100
AcDbLine
 10
48.42093487959997
 20
97.64366826699992
 30
0.0
 11
47.98863399159998
 21
97.40768438450004
 31
0.0
  0
SPLINE
  5
95BAE
330
1F
100
AcDbEntity
  8
1
100
AcDbSpline
210
0.0
220
0.0
230
1.0
 70
     8
 71
     3
 72
     9
 73
     5
 74
     0
 42
0.000000001
 43
0.0000000001
 40
0.0
 40
0.0
 40
0.0
 40
0.0
 40
0.2497938182
 40
1.0
 40
1.0
 40
1.0
 40
1.0
 10
47.9423317952
 20
97.38161286089995
 30
0.0
 10
47.84982731209999
 20
97.3279175455
 30
0.0
 10
47.47986248550001
 20
97.11234199820005
 30
0.0
 10
47.11130933619998
 20
96.89434334829996
 30
0.0
 10
46.8356491756
 20
96.72941722420006
 30
0.0
  0
SPLINE
  5
95BAF
330
1F
100
AcDbEntity
  8
1
100
AcDbSpline
210
0.0
220
0.0
230
1.0
 70
     8
 71
     3
 72
     9
 73
     5
 74
     0
 42
0.000000001
 43
0.0000000001
 40
0.0
 40
0.0
 40
0.0
 40
0.0
 40
0.5004201581000001
 40
1.0
 40
1.0
 40
1.0
 40
1.0
 10
46.8356491756
 20
96.72941722420006
 30
0.0
 10
46.79544278859999
 20
96.70536193980005
 30
0.0
 10
46.71927332749999
 20
96.64993591610006
 30
0.0
 10
46.6543039254
 20
96.581730256
 30
0.0
 10
46.62520029479996
 20
96.54511301059997
 30
0.0
  0
SPLINE
  5
95BB0
330
1F
100
AcDbEntity
  8
1
100
AcDbSpline
210
0.0
220
0.0
230
1.0
 70
     8
 71
     3
 72
     9
 73
     5
 74
     0
 42
0.000000001
 43
0.0000000001
 40
0.0
 40
0.0
 40
0.0
 40
0.0
 40
0.2514617995
 40
1.0
 40
1.0
 40
1.0
 40
1.0
 10
46.59204579029998
 20
95.58680630749995
 30
0.0
 10
46.63699576279999
 20
95.50139466259995
 30
0.0
 10
46.8162635951
 20
95.16200447849994
 30
0.0
 10
46.99759818130002
 20
94.82370576979995
 30
0.0
 10
47.13451331049998
 20
94.57111828949996
 30
0.0
  0
SPLINE
  5
95BB1
330
1F
100
AcDbEntity
  8
1
100
AcDbSpline
210
0.0
220
0.0
230
1.0
 70
     8
 71
     3
 72
    13
 73
     9
 74
     0
 42
0.000000001
 43
0.0000000001
 40
0.0
 40
0.0
 40
0.0
 40
0.0
 40
0.0618686716
 40
0.1237961147
 40
0.2479576588
 40
0.4973726878
 40
0.7480927655
 40
1.0
 40
1.0
 40
1.0
 40
1.0
 10
63.02401958999999
 20
91.28343272989996
 30
0.0
 10
62.99702998250001
 20
91.23556924399997
 30
0.0
 10
62.94328513380003
 20
91.13965046080004
 30
0.0
 10
62.83531472019999
 20
90.94771098190005
 30
0.0
 10
62.64556233709999
 20
90.61066105509992
 30
0.0
 10
62.372911836
 20
90.12785920640004
 30
0.0
 10
62.04365406110003
 20
89.54672687440002
 30
0.0
 10
61.82305866159999
 20
89.15863138329994
 30
0.0
 10
61.71237599599999
 20
88.96419620169996
 30
0.0
  0
SPLINE
  5
95BB2
330
1F
100
AcDbEntity
  8
1
100
AcDbSpline
210
0.0
220
0.0
230
1.0
 70
     8
 71
     3
 72
    10
 73
     6
 74
     0
 42
0.000000001
 43
0.0000000001
 40
0.0
 40
0.0
 40
0.0
 40
0.0
 40
0.2504855417
 40
0.5017808003999999
 40
1.0
 40
1.0
 40
1.0
 40
1.0
 10
54.38349879890001
 20
100.6672038164999
 30
0.0
 10
54.31952779789998
 20
100.6672029599999
 30
0.0
 10
54.19119277209998
 20
100.6588767223999
 30
0.0
 10
53.9401250439
 20
100.6096441787999
 30
0.0
 10
53.75998248159999
 20
100.5380835726999
 30
0.0
 10
53.64799294569997
 20
100.4776835824
 30
0.0
  0
SPLINE
  5
95BB3
330
1F
100
AcDbEntity
  8
1
100
AcDbSpline
210
0.0
220
0.0
230
1.0
 70
     8
 71
     3
 72
    19
 73
    15
 74
     0
 42
0.000000001
 43
0.0000000001
 40
0.0
 40
0.0
 40
0.0
 40
0.0
 40
0.1285469099
 40
0.1921997555
 40
0.2551422203
 40
0.2862778435
 40
0.3171781199
 40
0.3788905286999999
 40
0.4406814924000001
 40
0.5025465000000004
 40
0.6264940152000003
 40
0.7507241716
 40
0.8752288570000001
 40
1.0
 40
1.0
 40
1.0
 40
1.0
 10
63.23022692749998
 20
92.03772865779994
 30
0.0
 10
63.23472064199997
 20
92.30825922710005
 30
0.0
 10
63.24393542339999
 20
92.71271376720006
 30
0.0
 10
63.2612408648
 20
93.24946532690004
 30
0.0
 10
63.2740839622
 20
93.58121443230007
 30
0.0
 10
63.28553649579998
 20
93.84402229049992
 30
0.0
 10
63.29786101299998
 20
94.10419850509994
 30
0.0
 10
63.3132493539
 20
94.42882549399994
 30
0.0
 10
63.33147605639999
 20
94.81856635149993
 30
0.0
 10
63.35560362919999
 20
95.33916789619995
 30
0.0
 10
63.38535535979996
 20
95.99107295859992
 30
0.0
 10
63.4204032764001
 20
96.77471835589996
 30
0.0
 10
63.4548086909
 20
97.56012747700001
 30
0.0
 10
63.47729775770011
 20
98.08432569960009
 30
0.0
 10
63.48843193670001
 20
98.34671015390005
 30
0.0
  0
SPLINE
  5
95BB4
330
1F
100
AcDbEntity
  8
1
100
AcDbSpline
210
0.0
220
0.0
230
1.0
 70
     8
 71
     3
 72
     8
 73
     4
 74
     0
 42
0.000000001
 43
0.0000000001
 40
0.0
 40
0.0
 40
0.0
 40
0.0
 40
1.0
 40
1.0
 40
1.0
 40
1.0
 10
63.48995691790003
 20
98.39906838879992
 30
0.0
 10
63.48968189200003
 20
98.38161040889996
 30
0.0
 10
63.4891721848
 20
98.36415460109996
 30
0.0
 10
63.48843193670001
 20
98.34671015390005
 30
0.0
  0
SPLINE
  5
95BB5
330
1F
100
AcDbEntity
  8
1
100
AcDbSpline
210
0.0
220
0.0
230
1.0
 70
     8
 71
     3
 72
     8
 73
     4
 74
     0
 42
0.000000001
 43
0.0000000001
 40
0.0
 40
0.0
 40
0.0
 40
0.0
 40
1.0
 40
1.0
 40
1.0
 40
1.0
 10
61.47176579490004
 20
100.5307165429999
 30
0.0
 10
61.45404644749999
 20
100.5315451479999
 30
0.0
 10
61.43631493039999
 20
100.5321449428999
 30
0.0
 10
61.41858011070002
 20
100.5325164626999
 30
0.0
  0
SPLINE
  5
95BB6
330
1F
100
AcDbEntity
  8
1
100
AcDbSpline
210
0.0
220
0.0
230
1.0
 70
     8
 71
     3
 72
     8
 73
     4
 74
     0
 42
0.000000001
 43
0.0000000001
 40
0.0
 40
0.0
 40
0.0
 40
0.0
 40
1.0
 40
1.0
 40
1.0
 40
1.0
 10
47.98863399159998
 20
97.40768438450004
 30
0.0
 10
47.97308836180002
 20
97.39919505600006
 30
0.0
 10
47.95765065380002
 20
97.39050487259994
 30
0.0
 10
47.9423317952
 20
97.38161286089995
 30
0.0
  0
SPLINE
  5
95BB7
330
1F
100
AcDbEntity
  8
1
100
AcDbSpline
210
0.0
220
0.0
230
1.0
 70
     8
 71
     3
 72
    10
 73
     6
 74
     0
 42
0.000000001
 43
0.0000000001
 40
0.0
 40
0.0
 40
0.0
 40
0.0
 40
0.4914385135
 40
0.7454217917000002
 40
1.0
 40
1.0
 40
1.0
 40
1.0
 10
63.02401958999999
 20
91.28343272989996
 30
0.0
 10
63.08748191159998
 20
91.39597708339993
 30
0.0
 10
63.1626881766
 20
91.57963124269995
 30
0.0
 10
63.2181796411
 20
91.83704888279995
 30
0.0
 10
63.22911530449999
 20
91.97080673600003
 30
0.0
 10
63.23022692749998
 20
92.03772865779994
 30
0.0
  0
SPLINE
  5
95BB8
330
1F
100
AcDbEntity
  8
1
100
AcDbSpline
210
0.0
220
0.0
230
1.0
 70
     8
 71
     3
 72
    15
 73
    11
 74
     0
 42
0.000000001
 43
0.0000000001
 40
0.0
 40
0.0
 40
0.0
 40
0.0
 40
0.1306995234
 40
0.2579367895
 40
0.3197267831
 40
0.3810744171
 40
0.5040826555
 40
0.6274881314
 40
0.7512816101000001
 40
1.0
 40
1.0
 40
1.0
 40
1.0
 10
54.20055462789999
 20
100.4776835824
 30
0.0
 10
53.96711280139999
 20
100.3467749404
 30
0.0
 10
53.50720833069999
 20
100.0870055424999
 30
0.0
 10
52.93908896520004
 20
99.76156273030005
 30
0.0
 10
52.49568536340001
 20
99.50414442739997
 30
0.0
 10
52.05997084879999
 20
99.25073187599995
 30
0.0
 10
51.51497766729995
 20
98.93424599789994
 30
0.0
 10
50.85926173119998
 20
98.55378849769998
 30
0.0
 10
49.98062950560004
 20
98.04458292099994
 30
0.0
 10
49.32037185950003
 20
97.66254992280003
 30
0.0
 10
48.87941034739999
 20
97.40768438450004
 30
0.0
  0
SPLINE
  5
95BB9
330
1F
100
AcDbEntity
  8
1
100
AcDbSpline
210
0.0
220
0.0
230
1.0
 70
     8
 71
     3
 72
     9
 73
     5
 74
     0
 42
0.000000001
 43
0.0000000001
 40
0.0
 40
0.0
 40
0.0
 40
0.0
 40
0.2535391489
 40
1.0
 40
1.0
 40
1.0
 40
1.0
 10
47.76319982789998
 20
96.72941722420006
 30
0.0
 10
47.8540610142
 20
96.78416532529995
 30
0.0
 10
48.21221626709996
 20
97.00045931970008
 30
0.0
 10
48.56949352409998
 20
97.21820764499996
 30
0.0
 10
48.83565482679998
 20
97.38161286089995
 30
0.0
  0
SPLINE
  5
95BBA
330
1F
100
AcDbEntity
  8
1
100
AcDbSpline
210
0.0
220
0.0
230
1.0
 70
     8
 71
     3
 72
    15
 73
    11
 74
     0
 42
0.000000001
 43
0.0000000001
 40
0.0
 40
0.0
 40
0.0
 40
0.0
 40
0.1239262184
 40
0.2482198519
 40
0.3727466169
 40
0.4974937112
 40
0.6225843813000001
 40
0.7480719818000001
 40
0.8739224875999999
 40
1.0
 40
1.0
 40
1.0
 40
1.0
 10
47.76319982789998
 20
96.72941722420006
 30
0.0
 10
47.72063889909998
 20
96.70377228029995
 30
0.0
 10
47.64011632170002
 20
96.64406941400006
 30
0.0
 10
47.5384819258
 20
96.53331613579997
 30
0.0
 10
47.45942735100004
 20
96.40500895309996
 30
0.0
 10
47.40593355589999
 20
96.26379822069996
 30
0.0
 10
47.37976333159997
 20
96.11470128749999
 30
0.0
 10
47.38180677109997
 20
95.96289124239993
 30
0.0
 10
47.41196904759999
 20
95.81374889629994
 30
0.0
 10
47.45018412249999
 20
95.71949989199993
 30
0.0
 10
47.47344281600004
 20
95.67461562469995
 30
0.0
  0
SPLINE
  5
95BBB
330
1F
100
AcDbEntity
  8
1
100
AcDbSpline
210
0.0
220
0.0
230
1.0
 70
     8
 71
     3
 72
     9
 73
     5
 74
     0
 42
0.000000001
 43
0.0000000001
 40
0.0
 40
0.0
 40
0.0
 40
0.0
 40
0.2465981023
 40
1.0
 40
1.0
 40
1.0
 40
1.0
 10
48.04668378699997
 20
94.53636498679996
 30
0.0
 10
48.00068107520002
 20
94.63048436850007
 30
0.0
 10
47.81295925060002
 20
95.01158153989996
 30
0.0
 10
47.62069961909998
 20
95.39044172129996
 30
0.0
 10
47.47344281600004
 20
95.67461562469995
 30
0.0
  0
LINE
  5
95BBC
330
1F
100
AcDbEntity
  8
1
100
AcDbLine
 10
48.26216365049997
 20
94.12114319449994
 30
0.0
 11
48.07000903600004
 21
94.49014813869995
 31
0.0
  0
SPLINE
  5
95BBD
330
1F
100
AcDbEntity
  8
1
100
AcDbSpline
210
0.0
220
0.0
230
1.0
 70
     8
 71
     3
 72
     9
 73
     5
 74
     0
 42
0.000000001
 43
0.0000000001
 40
0.0
 40
0.0
 40
0.0
 40
0.0
 40
0.4993436218
 40
1.0
 40
1.0
 40
1.0
 40
1.0
 10
54.9349943184
 20
100.6672039162999
 30
0.0
 10
54.80769393109998
 20
100.6672029613999
 30
0.0
 10
54.55159825089999
 20
100.6362327389999
 30
0.0
 10
54.31188012000001
 20
100.5401122790999
 30
0.0
 10
54.20055462789999
 20
100.4776835824
 30
0.0
  0
SPLINE
  5
95BBE
330
1F
100
AcDbEntity
  8
1
100
AcDbSpline
210
0.0
220
0.0
230
1.0
 70
     8
 71
     3
 72
     8
 73
     4
 74
     0
 42
0.000000001
 43
0.0000000001
 40
0.0
 40
0.0
 40
0.0
 40
0.0
 40
1.0
 40
1.0
 40
1.0
 40
1.0
 10
48.04668378699997
 20
94.53636498679996
 30
0.0
 10
48.0542615027
 20
94.52086133740005
 30
0.0
 10
48.06203478719999
 20
94.50545161140007
 30
0.0
 10
48.07000903600004
 20
94.49014813869995
 30
0.0
  0
SPLINE
  5
95BBF
330
1F
100
AcDbEntity
  8
1
100
AcDbSpline
210
0.0
220
0.0
230
1.0
 70
     8
 71
     3
 72
     8
 73
     4
 74
     0
 42
0.000000001
 43
0.0000000001
 40
0.0
 40
0.0
 40
0.0
 40
0.0
 40
1.0
 40
1.0
 40
1.0
 40
1.0
 10
48.83565482679998
 20
97.38161286089995
 30
0.0
 10
48.85012364150004
 20
97.39049574409996
 30
0.0
 10
48.86471096470001
 20
97.39918848179994
 30
0.0
 10
48.87941034739999
 20
97.40768438450004
 30
0.0
  0
SPLINE
  5
95BC0
330
1F
100
AcDbEntity
  8
1
100
AcDbSpline
210
0.0
220
0.0
230
1.0
 70
     8
 71
     3
 72
    14
 73
    10
 74
     0
 42
0.000000001
 43
0.0000000001
 40
0.0
 40
0.0
 40
0.0
 40
0.0
 40
0.2078541077
 40
0.2840462732
 40
0.3699686027
 40
0.5399682369
 40
0.6822140384999999
 40
0.8016977998999998
 40
1.0
 40
1.0
 40
1.0
 40
1.0
 10
59.42677321949997
 20
90.63362089469995
 30
0.0
 10
59.13189616580003
 20
90.61750374439995
 30
0.0
 10
58.72384454160003
 20
90.66128568529995
 30
0.0
 10
58.216111969
 20
90.79697731289995
 30
0.0
 10
57.77081484850004
 20
90.95491114189995
 30
0.0
 10
57.26065969720004
 20
91.20394328590002
 30
0.0
 10
56.74412267800001
 20
91.53668056490005
 30
0.0
 10
56.22861860630002
 20
91.93941014519998
 30
0.0
 10
55.90283316809999
 20
92.25436339260005
 30
0.0
 10
55.7131735922
 20
92.46271408290004
 30
0.0
  0
SPLINE
  5
95BC1
330
1F
100
AcDbEntity
  8
1
100
AcDbSpline
210
0.0
220
0.0
230
1.0
 70
     8
 71
     3
 72
     9
 73
     5
 74
     0
 42
0.000000001
 43
0.0000000001
 40
0.0
 40
0.0
 40
0.0
 40
0.0
 40
0.2592696612
 40
1.0
 40
1.0
 40
1.0
 40
1.0
 10
58.99813334209998
 20
90.64222877120005
 30
0.0
 10
59.0605362422
 20
90.65184789689995
 30
0.0
 10
59.30070221830002
 20
90.69228194789996
 30
0.0
 10
59.53873360429998
 20
90.74519478320004
 30
0.0
 10
59.71328498679998
 20
90.79071804370007
 30
0.0
  0
SPLINE
  5
95BC2
330
1F
100
AcDbEntity
  8
1
100
AcDbSpline
210
0.0
220
0.0
230
1.0
 70
     8
 71
     3
 72
    14
 73
    10
 74
     0
 42
0.000000001
 43
0.0000000001
 40
0.0
 40
0.0
 40
0.0
 40
0.0
 40
0.1837343521
 40
0.287964987
 40
0.4026372392
 40
0.5295543639
 40
0.6704819204
 40
0.8269623712000001
 40
1.0
 40
1.0
 40
1.0
 40
1.0
 10
61.71317359220005
 20
88.91445700089994
 30
0.0
 10
61.71317359220005
 20
89.06641281319997
 30
0.0
 10
61.68380476490003
 20
89.30522752690007
 30
0.0
 10
61.5939883555
 20
89.62617681299995
 30
0.0
 10
61.49035005350004
 20
89.89326959669996
 30
0.0
 10
61.34943595510003
 20
90.17693621309993
 30
0.0
 10
61.1672578184
 20
90.47733733100004
 30
0.0
 10
60.9400447868
 20
90.79360610319996
 30
0.0
 10
60.7653640876
 20
91.00312167570006
 30
0.0
 10
60.67027428950003
 20
91.11007105249994
 30
0.0
  0
SPLINE
  5
95BC3
330
1F
100
AcDbEntity
  8
1
100
AcDbSpline
210
0.0
220
0.0
230
1.0
 70
     8
 71
     3
 72
     9
 73
     5
 74
     0
 42
0.000000001
 43
0.0000000001
 40
0.0
 40
0.0
 40
0.0
 40
0.0
 40
0.2557948852
 40
1.0
 40
1.0
 40
1.0
 40
1.0
 10
51.34057762589997
 20
99.74753414359994
 30
0.0
 10
51.32958460950002
 20
99.75485331170006
 30
0.0
 10
51.2866625977
 20
99.78354763760009
 30
0.0
 10
51.2439462923
 20
99.81254936329996
 30
0.0
 10
51.21226202399999
 20
99.83428545480007
 30
0.0
  0
SPLINE
  5
95BC4
330
1F
100
AcDbEntity
  8
1
100
AcDbSpline
210
0.0
220
0.0
230
1.0
 70
     8
 71
     3
 72
    19
 73
    15
 74
     0
 42
0.000000001
 43
0.0000000001
 40
0.0
 40
0.0
 40
0.0
 40
0.0
 40
0.2096975138
 40
0.3990385398
 40
0.5655143368
 40
0.7069522698
 40
0.7677180119
 40
0.8216043201000001
 40
0.8684789108
 40
0.9082633796999999
 40
0.9409599804999999
 40
0.9667134567999999
 40
0.9859762954
 40
1.0
 40
1.0
 40
1.0
 40
1.0
 10
49.64716693020001
 20
100.1154745185999
 30
0.0
 10
49.55887772379997
 20
100.1209158827
 30
0.0
 10
49.39095363979999
 20
100.1327152368999
 30
0.0
 10
49.1533645581
 20
100.1543483827999
 30
0.0
 10
48.94498995160001
 20
100.1785880415999
 30
0.0
 10
48.7911145361
 20
100.2014545705
 30
0.0
 10
48.68488276439999
 20
100.2211257121
 30
0.0
 10
48.61825547789999
 20
100.2354442903999
 30
0.0
 10
48.56076652460001
 20
100.2499979655999
 30
0.0
 10
48.51259064579998
 20
100.2647240704999
 30
0.0
 10
48.47383327790002
 20
100.2794941002999
 30
0.0
 10
48.44449544399997
 20
100.2943694307
 30
0.0
 10
48.42430833690002
 20
100.3091350527
 30
0.0
 10
48.41592877869999
 20
100.3211747750999
 30
0.0
 10
48.41433039510002
 20
100.3268703646999
 30
0.0
  0
SPLINE
  5
95BC5
330
1F
100
AcDbEntity
  8
1
100
AcDbSpline
210
0.0
220
0.0
230
1.0
 70
     8
 71
     3
 72
    14
 73
    10
 74
     0
 42
0.000000001
 43
0.0000000001
 40
0.0
 40
0.0
 40
0.0
 40
0.0
 40
0.0621113361
 40
0.1414952213
 40
0.2393800593
 40
0.3561687756
 40
0.4916250660000001
 40
0.6449723095000001
 40
1.0
 40
1.0
 40
1.0
 40
1.0
 10
51.21226202399999
 20
99.83428545480007
 30
0.0
 10
51.18492635670003
 20
99.85303831229998
 30
0.0
 10
51.11750652770002
 20
99.88812187919997
 30
0.0
 10
50.99725540319997
 20
99.93172568949994
 30
0.0
 10
50.84543481129998
 20
99.97213916409997
 30
0.0
 10
50.66216491249997
 20
100.0090153776
 30
0.0
 10
50.44817865440005
 20
100.0421070437999
 30
0.0
 10
50.10693633850002
 20
100.082870103
 30
0.0
 10
49.83629188719999
 20
100.1038184873999
 30
0.0
 10
49.64716693020001
 20
100.1154745185999
 30
0.0
  0
SPLINE
  5
95BC6
330
1F
100
AcDbEntity
  8
1
100
AcDbSpline
210
0.0
220
0.0
230
1.0
 70
     8
 71
     3
 72
     9
 73
     5
 74
     0
 42
0.000000001
 43
0.0000000001
 40
0.0
 40
0.0
 40
0.0
 40
0.0
 40
0.2460340358
 40
1.0
 40
1.0
 40
1.0
 40
1.0
 10
35.55620149920003
 20
93.60941481570005
 30
0.0
 10
35.7220060555
 20
93.67665139399996
 30
0.0
 10
36.39696268240002
 20
93.94734647289995
 30
0.0
 10
37.07588821680003
 20
94.20811273310006
 30
0.0
 10
37.5895529915
 20
94.39987613699996
 30
0.0
  0
SPLINE
  5
95BC7
330
1F
100
AcDbEntity
  8
1
100
AcDbSpline
210
0.0
220
0.0
230
1.0
 70
     8
 71
     3
 72
    18
 73
    14
 74
     0
 42
0.000000001
 43
0.0000000001
 40
0.0
 40
0.0
 40
0.0
 40
0.0
 40
0.18930811
 40
0.3641455192
 40
0.5221866083
 40
0.6611888921000002
 40
0.7791680524000001
 40
0.8298096256
 40
0.8747251613999999
 40
0.9139152771999999
 40
0.9475353906
 40
0.9759672488999999
 40
1.0
 40
1.0
 40
1.0
 40
1.0
 10
35.12157672680002
 20
93.25776643140008
 30
0.0
 10
35.00150841280002
 20
93.16055921120005
 30
0.0
 10
34.76801473080002
 20
92.9766661835
 30
0.0
 10
34.4248556215
 20
92.72388554580006
 30
0.0
 10
34.10610240810001
 20
92.50759336449995
 30
0.0
 10
33.81676453159997
 20
92.33129162650005
 30
0.0
 10
33.59412342040002
 20
92.21463092919995
 30
0.0
 10
33.43405046380002
 20
92.14555980479996
 30
0.0
 10
33.33051654209999
 20
92.10825525809996
 30
0.0
 10
33.23772418680003
 20
92.08289668850005
 30
0.0
 10
33.1559592058
 20
92.06960619489995
 30
0.0
 10
33.08542458570001
 20
92.06849573089993
 30
0.0
 10
33.04287790940004
 20
92.07680306059994
 30
0.0
 10
33.02443326909997
 20
92.08346818970005
 30
0.0
  0
LINE
  5
95BC8
330
1F
100
AcDbEntity
  8
1
100
AcDbLine
 10
35.12157672680002
 20
93.25776643140008
 30
0.0
 11
35.55620149920003
 21
93.60941481570005
 31
0.0
  0
SPLINE
  5
95BC9
330
1F
100
AcDbEntity
  8
1
100
AcDbSpline
210
0.0
220
0.0
230
1.0
 70
     8
 71
     3
 72
     9
 73
     5
 74
     0
 42
0.000000001
 43
0.0000000001
 40
0.0
 40
0.0
 40
0.0
 40
0.0
 40
0.2385706785
 40
1.0
 40
1.0
 40
1.0
 40
1.0
 10
47.4109715747
 20
97.67403977670007
 30
0.0
 10
47.44425872569997
 20
97.67881543589995
 30
0.0
 10
47.58415428649999
 20
97.69613555559995
 30
0.0
 10
47.72550698959998
 20
97.70206490139996
 30
0.0
 10
47.8328066542
 20
97.69959524859995
 30
0.0
  0
SPLINE
  5
95BCA
330
1F
100
AcDbEntity
  8
1
100
AcDbSpline
210
0.0
220
0.0
230
1.0
 70
     8
 71
     3
 72
    11
 73
     7
 74
     0
 42
0.000000001
 43
0.0000000001
 40
0.0
 40
0.0
 40
0.0
 40
0.0
 40
0.3237529684
 40
0.5951492837
 40
0.8174162923
 40
1.0
 40
1.0
 40
1.0
 40
1.0
 10
39.65851611570001
 20
94.64266119870003
 30
0.0
 10
39.43269321690003
 20
94.65614607229996
 30
0.0
 10
39.01604088250002
 20
94.66118984869995
 30
0.0
 10
38.44605693190003
 20
94.61257135690004
 30
0.0
 10
37.98077082139997
 20
94.52588593780005
 30
0.0
 10
37.70907740470003
 20
94.44449747260007
 30
0.0
 10
37.5895529915
 20
94.39987613699996
 30
0.0
  0
SPLINE
  5
95BCB
330
1F
100
AcDbEntity
  8
1
100
AcDbSpline
210
0.0
220
0.0
230
1.0
 70
     8
 71
     3
 72
     8
 73
     4
 74
     0
 42
0.000000001
 43
0.0000000001
 40
0.0
 40
0.0
 40
0.0
 40
0.0
 40
1.0
 40
1.0
 40
1.0
 40
1.0
 10
47.86668480530003
 20
97.91618680219997
 30
0.0
 10
47.84753907999999
 20
97.90909009709995
 30
0.0
 10
47.8285172052
 20
97.90164991420006
 30
0.0
 10
47.80963713709996
 20
97.89387398669996
 30
0.0
  0
LINE
  5
95BCC
330
1F
100
AcDbEntity
  8
1
100
AcDbLine
 10
52.02618060339997
 20
93.88821257510004
 30
0.0
 11
51.97382338399997
 21
93.89165681199994
 31
0.0
  0
SPLINE
  5
95BCD
330
1F
100
AcDbEntity
  8
1
100
AcDbSpline
210
0.0
220
0.0
230
1.0
 70
     8
 71
     3
 72
     9
 73
     5
 74
     0
 42
0.000000001
 43
0.0000000001
 40
0.0
 40
0.0
 40
0.0
 40
0.0
 40
0.2483676076
 40
1.0
 40
1.0
 40
1.0
 40
1.0
 10
54.86224225869998
 20
93.67508218659997
 30
0.0
 10
54.78461715959998
 20
93.68309582929994
 30
0.0
 10
54.47194686940004
 20
93.71409514319998
 30
0.0
 10
54.15876409039999
 20
93.73994637149996
 30
0.0
 10
53.92317026090001
 20
93.75635495509994
 30
0.0
  0
SPLINE
  5
95BCE
330
1F
100
AcDbEntity
  8
1
100
AcDbSpline
210
0.0
220
0.0
230
1.0
 70
     8
 71
     3
 72
     9
 73
     5
 74
     0
 42
0.000000001
 43
0.0000000001
 40
0.0
 40
0.0
 40
0.0
 40
0.0
 40
0.5264436341
 40
1.0
 40
1.0
 40
1.0
 40
1.0
 10
55.7131735922
 20
92.46271408290004
 30
0.0
 10
55.53784925850003
 20
92.65531678039996
 30
0.0
 10
55.22841932289998
 20
93.04347055659995
 30
0.0
 10
54.97094157590002
 20
93.46753938309992
 30
0.0
 10
54.86224225869998
 20
93.67508218659997
 30
0.0
  0
SPLINE
  5
95BCF
330
1F
100
AcDbEntity
  8
1
100
AcDbSpline
210
0.0
220
0.0
230
1.0
 70
     8
 71
     3
 72
    21
 73
    17
 74
     0
 42
0.000000001
 43
0.0000000001
 40
0.0
 40
0.0
 40
0.0
 40
0.0
 40
0.0617223322
 40
0.1235139449
 40
0.1854242766
 40
0.2474923848
 40
0.3097432864
 40
0.3721865718
 40
0.4348165346
 40
0.4976128171
 40
0.6232467120000002
 40
0.7490209329000001
 40
0.8119840570999999
 40
0.8748256861999998
 40
0.9375065102
 40
1.0
 40
1.0
 40
1.0
 40
1.0
 10
47.66026640990004
 20
94.19761067789991
 30
0.0
 10
47.57433800149999
 20
94.23900293139995
 30
0.0
 10
47.40832703580003
 20
94.33487362279995
 30
0.0
 10
47.18346485969999
 20
94.51407747389998
 30
0.0
 10
46.98703123139996
 20
94.72484984999995
 30
0.0
 10
46.8230721388
 20
94.96258694219994
 30
0.0
 10
46.69484157709996
 20
95.22225819959995
 30
0.0
 10
46.6048406326
 20
95.49840856699992
 30
0.0
 10
46.55482078330003
 20
95.78540829859994
 30
0.0
 10
46.54264282350005
 20
96.17425891170007
 30
0.0
 10
46.63068142420002
 20
96.65871341749998
 30
0.0
 10
46.85029739189999
 20
97.09979355179996
 30
0.0
 10
47.0938732527
 20
97.40420928850005
 30
0.0
 10
47.30717788749998
 20
97.60409236379995
 30
0.0
 10
47.54638804139996
 20
97.77068079419997
 30
0.0
 10
47.72026065949996
 20
97.85730089530005
 30
0.0
 10
47.80963713709996
 20
97.89387398669996
 30
0.0
  0
SPLINE
  5
95BD0
330
1F
100
AcDbEntity
  8
1
100
AcDbSpline
210
0.0
220
0.0
230
1.0
 70
     8
 71
     3
 72
     8
 73
     4
 74
     0
 42
0.000000001
 43
0.0000000001
 40
0.0
 40
0.0
 40
0.0
 40
0.0
 40
1.0
 40
1.0
 40
1.0
 40
1.0
 10
47.88591770690004
 20
97.69800495039993
 30
0.0
 10
47.83310441690002
 20
97.65264983019994
 30
0.0
 10
47.78091688330003
 20
97.60655434939998
 30
0.0
 10
47.7294284429
 20
97.55970062979997
 30
0.0
  0
SPLINE
  5
95BD1
330
1F
100
AcDbEntity
  8
1
100
AcDbSpline
210
0.0
220
0.0
230
1.0
 70
     8
 71
     3
 72
     9
 73
     5
 74
     0
 42
0.000000001
 43
0.0000000001
 40
0.0
 40
0.0
 40
0.0
 40
0.0
 40
0.2558731646
 40
1.0
 40
1.0
 40
1.0
 40
1.0
 10
47.8328066542
 20
97.69959524859995
 30
0.0
 10
47.8572054329
 20
97.69903367629995
 30
0.0
 10
47.9525304247
 20
97.69566043499997
 30
0.0
 10
48.04768835440004
 20
97.68774024570006
 30
0.0
 10
48.11817366819997
 20
97.67941743039994
 30
0.0
  0
SPLINE
  5
95BD2
330
1F
100
AcDbEntity
  8
1
100
AcDbSpline
210
0.0
220
0.0
230
1.0
 70
     8
 71
     3
 72
     9
 73
     5
 74
     0
 42
0.000000001
 43
0.0000000001
 40
0.0
 40
0.0
 40
0.0
 40
0.0
 40
0.2536290188
 40
1.0
 40
1.0
 40
1.0
 40
1.0
 10
47.27014498379997
 20
97.56416898269996
 30
0.0
 10
47.30891217060002
 20
97.56673716659996
 30
0.0
 10
47.46194457139996
 20
97.57390615419994
 30
0.0
 10
47.61551353709998
 20
97.56946748480007
 30
0.0
 10
47.7294284429
 20
97.55970062979997
 30
0.0
  0
SPLINE
  5
95BD3
330
1F
100
AcDbEntity
  8
1
100
AcDbSpline
210
0.0
220
0.0
230
1.0
 70
     8
 71
     3
 72
     9
 73
     5
 74
     0
 42
0.000000001
 43
0.0000000001
 40
0.0
 40
0.0
 40
0.0
 40
0.0
 40
0.2475352933
 40
1.0
 40
1.0
 40
1.0
 40
1.0
 10
51.65047539699997
 20
99.21129092020002
 30
0.0
 10
51.62065282670003
 20
99.25284677199996
 30
0.0
 10
51.50431750680002
 20
99.42366189460004
 30
0.0
 10
51.40487227569995
 20
99.60596428760005
 30
0.0
 10
51.34057762589997
 20
99.74753414359994
 30
0.0
  0
SPLINE
  5
95BD4
330
1F
100
AcDbEntity
  8
1
100
AcDbSpline
210
0.0
220
0.0
230
1.0
 70
     8
 71
     3
 72
     9
 73
     5
 74
     0
 42
0.000000001
 43
0.0000000001
 40
0.0
 40
0.0
 40
0.0
 40
0.0
 40
0.5435118822999999
 40
1.0
 40
1.0
 40
1.0
 40
1.0
 10
51.7057727385
 20
99.08920479780007
 30
0.0
 10
51.6941581026
 20
99.11055148329994
 30
0.0
 10
51.67402358650003
 20
99.15051832709997
 30
0.0
 10
51.6571035738
 20
99.19198630619995
 30
0.0
 10
51.65047539699997
 20
99.21129092020002
 30
0.0
  0
SPLINE
  5
95BD5
330
1F
100
AcDbEntity
  8
1
100
AcDbSpline
210
0.0
220
0.0
230
1.0
 70
     8
 71
     3
 72
    11
 73
     7
 74
     0
 42
0.000000001
 43
0.0000000001
 40
0.0
 40
0.0
 40
0.0
 40
0.0
 40
0.2514102985
 40
0.5019339664000002
 40
0.7514568671
 40
1.0
 40
1.0
 40
1.0
 40
1.0
 10
37.5895529915
 20
97.99936931519994
 30
0.0
 10
37.72499882540001
 20
98.13981282159996
 30
0.0
 10
38.0221520595
 20
98.39575359749996
 30
0.0
 10
38.52962355940002
 20
98.68970975619992
 30
0.0
 10
39.08083348030004
 20
98.88349113159994
 30
0.0
 10
39.465886013
 20
98.94099487469995
 30
0.0
 10
39.65851611570001
 20
98.95100600880006
 30
0.0
  0
SPLINE
  5
95BD6
330
1F
100
AcDbEntity
  8
1
100
AcDbSpline
210
0.0
220
0.0
230
1.0
 70
     8
 71
     3
 72
    28
 73
    24
 74
     0
 42
0.000000001
 43
0.0000000001
 40
0.0
 40
0.0
 40
0.0
 40
0.0
 40
0.0020684069
 40
0.0041547949
 40
0.0064536122
 40
0.0091126019
 40
0.0158457238
 40
0.0247743696
 40
0.0360428641
 40
0.0496986178
 40
0.0657432119
 40
0.0841519347
 40
0.1048823835
 40
0.1278787466
 40
0.1803910345
 40
0.2410481761
 40
0.3090833498
 40
0.3836262321999999
 40
0.463719464
 40
0.5483338069000001
 40
0.6363828119
 40
0.8182385423999999
 40
1.0
 40
1.0
 40
1.0
 40
1.0
 10
48.41433039510002
 20
100.3268703646999
 30
0.0
 10
48.41365899200003
 20
100.3292628042999
 30
0.0
 10
48.41301335849999
 20
100.3343143995
 30
0.0
 10
48.4146340889
 20
100.3420257685
 30
0.0
 10
48.41872881709997
 20
100.3495386805999
 30
0.0
 10
48.4280521325
 20
100.3601495715999
 30
0.0
 10
48.44638868430003
 20
100.3727667234999
 30
0.0
 10
48.47565332430001
 20
100.3866401732
 30
0.0
 10
48.51400811260001
 20
100.4003396371999
 30
0.0
 10
48.56136550690003
 20
100.4138088375999
 30
0.0
 10
48.61765217820003
 20
100.4270045703999
 30
0.0
 10
48.6826937976
 20
100.4398809585999
 30
0.0
 10
48.75628914429999
 20
100.4524047589
 30
0.0
 10
48.87066399739999
 20
100.4693471495999
 30
0.0
 10
49.03309224290001
 20
100.4889658653999
 30
0.0
 10
49.24978273530001
 20
100.5099202907
 30
0.0
 10
49.49319822729997
 20
100.5290472364
 30
0.0
 10
49.76015465470002
 20
100.5462647846999
 30
0.0
 10
50.0471772638
 20
100.5615022874
 30
0.0
 10
50.35054092100001
 20
100.5747112095999
 30
0.0
 10
50.7761794255
 20
100.5897080455999
 30
0.0
 10
51.31864660350004
 20
100.602750776
 30
0.0
 10
51.75546677319999
 20
100.6074025854999
 30
0.0
 10
51.97382338399997
 20
100.6080838567999
 30
0.0
  0
SPLINE
  5
95BD7
330
1F
100
AcDbEntity
  8
1
100
AcDbSpline
210
0.0
220
0.0
230
1.0
 70
     8
 71
     3
 72
     8
 73
     4
 74
     0
 42
0.000000001
 43
0.0000000001
 40
0.0
 40
0.0
 40
0.0
 40
0.0
 40
1.0
 40
1.0
 40
1.0
 40
1.0
 10
37.5895529915
 20
97.99936931519994
 30
0.0
 10
37.07165303470004
 20
97.46235991620004
 30
0.0
 10
36.55392644740003
 20
96.92518325760005
 30
0.0
 10
36.03638190370001
 20
96.38783131969994
 30
0.0
  0
SPLINE
  5
95BD8
330
1F
100
AcDbEntity
  8
1
100
AcDbSpline
210
0.0
220
0.0
230
1.0
 70
     8
 71
     3
 72
     9
 73
     5
 74
     0
 42
0.000000001
 43
0.0000000001
 40
0.0
 40
0.0
 40
0.0
 40
0.0
 40
0.2541420745
 40
1.0
 40
1.0
 40
1.0
 40
1.0
 10
52.73826915400002
 20
100.5896406756999
 30
0.0
 10
52.74700798369997
 20
100.5701648478999
 30
0.0
 10
52.7812159687
 20
100.4934516051999
 30
0.0
 10
52.81474905070002
 20
100.4164377591999
 30
0.0
 10
52.83940842710001
 20
100.3588470840999
 30
0.0
  0
SPLINE
  5
95BD9
330
1F
100
AcDbEntity
  8
1
100
AcDbSpline
210
0.0
220
0.0
230
1.0
 70
     8
 71
     3
 72
     9
 73
     5
 74
     0
 42
0.000000001
 43
0.0000000001
 40
0.0
 40
0.0
 40
0.0
 40
0.0
 40
0.2553634719
 40
1.0
 40
1.0
 40
1.0
 40
1.0
 10
52.83936891850004
 20
100.3589376930999
 30
0.0
 10
52.84873930330003
 20
100.3370505012
 30
0.0
 10
52.88581053289998
 20
100.2515037544
 30
0.0
 10
52.92456887020001
 20
100.1666775628999
 30
0.0
 10
52.9547361434
 20
100.1041485505999
 30
0.0
  0
SPLINE
  5
95BDA
330
1F
100
AcDbEntity
  8
1
100
AcDbSpline
210
0.0
220
0.0
230
1.0
 70
     8
 71
     3
 72
     8
 73
     4
 74
     0
 42
0.000000001
 43
0.0000000001
 40
0.0
 40
0.0
 40
0.0
 40
0.0
 40
1.0
 40
1.0
 40
1.0
 40
1.0
 10
51.97382338399997
 20
100.6080838567999
 30
0.0
 10
51.99127605659999
 20
100.6081383089999
 30
0.0
 10
52.00873002659998
 20
100.6080276341999
 30
0.0
 10
52.02618060339997
 20
100.6077517415999
 30
0.0
  0
SPLINE
  5
95BDB
330
1F
100
AcDbEntity
  8
1
100
AcDbSpline
210
0.0
220
0.0
230
1.0
 70
     8
 71
     3
 72
     9
 73
     5
 74
     0
 42
0.000000001
 43
0.0000000001
 40
0.0
 40
0.0
 40
0.0
 40
0.0
 40
0.2594018333
 40
1.0
 40
1.0
 40
1.0
 40
1.0
 10
52.02618060339997
 20
100.6077517415999
 30
0.0
 10
52.08776575999997
 20
100.6067780839
 30
0.0
 10
52.32516867970002
 20
100.602495363
 30
0.0
 10
52.56253750529999
 20
100.5960640516999
 30
0.0
 10
52.73826915400002
 20
100.5896406756999
 30
0.0
  0
SPLINE
  5
95BDC
330
1F
100
AcDbEntity
  8
1
100
AcDbSpline
210
0.0
220
0.0
230
1.0
 70
     8
 71
     3
 72
     9
 73
     5
 74
     0
 42
0.000000001
 43
0.0000000001
 40
0.0
 40
0.0
 40
0.0
 40
0.0
 40
0.2497792889
 40
1.0
 40
1.0
 40
1.0
 40
1.0
 10
52.73826915400002
 20
100.5896406756999
 30
0.0
 10
52.83676994990003
 20
100.5901363396
 30
0.0
 10
53.23112184660002
 20
100.5920057910999
 30
0.0
 10
53.62547603940004
 20
100.5934039705999
 30
0.0
 10
53.92132940900001
 20
100.5941395782
 30
0.0
  0
SPLINE
  5
95BDD
330
1F
100
AcDbEntity
  8
1
100
AcDbSpline
210
0.0
220
0.0
230
1.0
 70
     8
 71
     3
 72
     9
 73
     5
 74
     0
 42
0.000000001
 43
0.0000000001
 40
0.0
 40
0.0
 40
0.0
 40
0.0
 40
0.2521632151
 40
1.0
 40
1.0
 40
1.0
 40
1.0
 10
52.83940842710001
 20
100.3588470840999
 30
0.0
 10
52.83176944810003
 20
100.3271259846
 30
0.0
 10
52.80029315370001
 20
100.2016183241999
 30
0.0
 10
52.76408009979997
 20
100.0772943826999
 30
0.0
 10
52.73428964210001
 20
99.98523006969996
 30
0.0
  0
SPLINE
  5
95BDE
330
1F
100
AcDbEntity
  8
1
100
AcDbSpline
210
0.0
220
0.0
230
1.0
 70
     8
 71
     3
 72
    26
 73
    22
 74
     0
 42
0.000000001
 43
0.0000000001
 40
0.0
 40
0.0
 40
0.0
 40
0.0
 40
0.0088330865
 40
0.0172511494
 40
0.0261158724
 40
0.0361593459
 40
0.0478730112
 40
0.061536528
 40
0.0772920004
 40
0.0952011088
 40
0.115268594
 40
0.1374647746
 40
0.1880263669
 40
0.2463284276
 40
0.311684544
 40
0.3833539497
 40
0.46058144
 40
0.5426235419
 40
0.6287484327000003
 40
0.8104090409999999
 40
1.0
 40
1.0
 40
1.0
 40
1.0
 10
33.02443326909997
 20
92.08346818970005
 30
0.0
 10
33.00937350690001
 20
92.08891016399995
 30
0.0
 10
32.98104265320001
 20
92.10345477980007
 30
0.0
 10
32.94779247920002
 20
92.13840743480005
 30
0.0
 10
32.92691414889998
 20
92.18417255349995
 30
0.0
 10
32.91786169159997
 20
92.23941433999998
 30
0.0
 10
32.91985025949998
 20
92.30387543079997
 30
0.0
 10
32.9324945432
 20
92.37753555329998
 30
0.0
 10
32.95559532729999
 20
92.46027937879992
 30
0.0
 10
32.98899821200001
 20
92.55185858120006
 30
0.0
 10
33.03248021040003
 20
92.65195672460007
 30
0.0
 10
33.1068787186
 20
92.80294887230008
 30
0.0
 10
33.22458569510003
 20
93.00955587630005
 30
0.0
 10
33.39528626369997
 20
93.27538865369987
 30
0.0
 10
33.59841206770003
 20
93.56552328039995
 30
0.0
 10
33.83098045399999
 20
93.87666051839993
 30
0.0
 10
34.09000284490004
 20
94.20561022159994
 30
0.0
 10
34.37248838020003
 20
94.54930327460004
 30
0.0
 10
34.78390302150001
 20
95.03195537230004
 30
0.0
 10
35.33667059319999
 20
95.65012017270005
 30
0.0
 10
35.79795817860003
 20
96.14028202319996
 30
0.0
 10
36.03638233250001
 20
96.38783111379995
 30
0.0
  0
SPLINE
  5
95BDF
330
1F
100
AcDbEntity
  8
1
100
AcDbSpline
210
0.0
220
0.0
230
1.0
 70
     8
 71
     3
 72
     9
 73
     5
 74
     0
 42
0.000000001
 43
0.0000000001
 40
0.0
 40
0.0
 40
0.0
 40
0.0
 40
0.2546600522
 40
1.0
 40
1.0
 40
1.0
 40
1.0
 10
46.75261572110002
 20
96.67199292410005
 30
0.0
 10
46.7470133905
 20
96.67734074850004
 30
0.0
 10
46.72511837440004
 20
96.69844938939995
 30
0.0
 10
46.70364738879999
 20
96.71999895989994
 30
0.0
 10
46.68791981159998
 20
96.73632343329996
 30
0.0
  0
SPLINE
  5
95BE0
330
1F
100
AcDbEntity
  8
1
100
AcDbSpline
210
0.0
220
0.0
230
1.0
 70
     8
 71
     3
 72
     9
 73
     5
 74
     0
 42
0.000000001
 43
0.0000000001
 40
0.0
 40
0.0
 40
0.0
 40
0.0
 40
0.5224276888000004
 40
1.0
 40
1.0
 40
1.0
 40
1.0
 10
47.23000862019996
 20
96.96409469179995
 30
0.0
 10
47.1720132154
 20
96.99582329300005
 30
0.0
 10
47.0596309064
 20
97.05409657759995
 30
0.0
 10
46.94425020440003
 20
97.10626968369995
 30
0.0
 10
46.88835244699999
 20
97.12923458579997
 30
0.0
  0
SPLINE
  5
95BE1
330
1F
100
AcDbEntity
  8
1
100
AcDbSpline
210
0.0
220
0.0
230
1.0
 70
     8
 71
     3
 72
     9
 73
     5
 74
     0
 42
0.000000001
 43
0.0000000001
 40
0.0
 40
0.0
 40
0.0
 40
0.0
 40
0.5259820714
 40
1.0
 40
1.0
 40
1.0
 40
1.0
 10
47.7294284429
 20
97.55970062979997
 30
0.0
 10
47.66180840720003
 20
97.57784483669997
 30
0.0
 10
47.53105549649997
 20
97.60474198359995
 30
0.0
 10
47.39807610260004
 20
97.61578018999999
 30
0.0
 10
47.3349992592
 20
97.61730235279998
 30
0.0
  0
SPLINE
  5
95BE2
330
1F
100
AcDbEntity
  8
1
100
AcDbSpline
210
0.0
220
0.0
230
1.0
 70
     8
 71
     3
 72
    11
 73
     7
 74
     0
 42
0.000000001
 43
0.0000000001
 40
0.0
 40
0.0
 40
0.0
 40
0.0
 40
0.248877343
 40
0.497535229
 40
0.7474316115999999
 40
1.0
 40
1.0
 40
1.0
 40
1.0
 10
48.88984859650004
 20
97.96545143289996
 30
0.0
 10
48.80645028740002
 20
97.98743384929995
 30
0.0
 10
48.6361497945
 20
98.01894267249997
 30
0.0
 10
48.37627174949997
 20
98.02685595210009
 30
0.0
 10
48.1169615628
 20
97.99469079960005
 30
0.0
 10
47.94875412909997
 20
97.94660726339998
 30
0.0
 10
47.86668480530003
 20
97.91618680219997
 30
0.0
  0
SPLINE
  5
95BE3
330
1F
100
AcDbEntity
  8
1
100
AcDbSpline
210
0.0
220
0.0
230
1.0
 70
     8
 71
     3
 72
    11
 73
     7
 74
     0
 42
0.000000001
 43
0.0000000001
 40
0.0
 40
0.0
 40
0.0
 40
0.0
 40
0.1933723243
 40
0.4111266186
 40
0.6696600452000001
 40
1.0
 40
1.0
 40
1.0
 40
1.0
 10
60.67027428950003
 20
91.11007105249994
 30
0.0
 10
60.60535499740002
 20
91.05151478519998
 30
0.0
 10
60.45727544120001
 20
90.93772020789996
 30
0.0
 10
60.18929054130001
 20
90.79392733969994
 30
0.0
 10
59.84146531830004
 20
90.67850306949996
 30
0.0
 10
59.57590182150003
 20
90.64177184460005
 30
0.0
 10
59.42677321949997
 20
90.63362089469995
 30
0.0
  0
ELLIPSE
  5
95BE4
330
1F
100
AcDbEntity
  8
1
100
AcDbEllipse
 10
980.5725121797998
 20
-18.18782051199997
 30
0.0
 11
1071.9957696081
 21
-113.8033647138
 31
0.0
210
0.0
220
0.0
230
1.0
 40
0.0250376531
 41
2.621062171199997
 42
2.644534567499996
  0
ELLIPSE
  5
95BE5
330
1F
100
AcDbEntity
  8
1
100
AcDbEllipse
 10
809.1396663907001
 20
-0.000000001099977
 30
0.0
 11
923.5000385183999
 21
-98.04064942549999
 31
0.0
210
0.0
220
0.0
230
1.0
 40
0.0253640797
 41
2.531020611999998
 42
2.534598749599997
  0
ELLIPSE
  5
95BE6
330
1F
100
AcDbEntity
  8
1
100
AcDbEllipse
 10
59.45348803180002
 20
94.64105565870005
 30
0.0
 11
4.873875052399999
 21
2.292114168899999
 31
0.0
210
0.0
220
0.0
230
1.0
 40
0.6913302612000003
 41
4.448759829779572
 42
4.637756752779568
  0
ELLIPSE
  5
95BE7
330
1F
100
AcDbEntity
  8
1
100
AcDbEllipse
 10
73.26484628830002
 20
0.148137690199988
 30
0.0
 11
175.1740736982
 21
7.3321646
 31
0.0
210
0.0
220
0.0
230
1.0
 40
0.5757637507
 41
1.672151063199995
 42
1.693285504099999
  0
ELLIPSE
  5
95BE8
330
1F
100
AcDbEntity
  8
1
100
AcDbEllipse
 10
138.6945737772
 20
0.7902049673000136
 30
0.0
 11
534.7754546522005
 21
8.984834428400009
 31
0.0
210
0.0
220
0.0
230
1.0
 40
0.1897856138
 41
1.738647486299998
 42
1.7538738552
  0
ELLIPSE
  5
95BE9
330
1F
100
AcDbEntity
  8
1
100
AcDbEllipse
 10
51.47382389490004
 20
97.38615379649996
 30
0.0
 11
2.290570207
 21
-0.5177917001
 31
0.0
210
0.0
220
0.0
230
1.0
 40
0.0702859983
 41
3.236821246879272
 42
3.62315356667938
  0
ELLIPSE
  5
95BEA
330
1F
100
AcDbEntity
  8
1
100
AcDbEllipse
 10
43.41876889309999
 20
92.72494861380005
 30
0.0
 11
14.1754054432
 21
8.756507121900002
 31
0.0
210
0.0
220
0.0
230
1.0
 40
0.0916574181
 41
0.8957852476000031
 42
1.095627520200012
  0
DIMENSION
  5
95BEC
330
1F
100
AcDbEntity
  8
2
100
AcDbDimension
  2
*D256109
 10
63.50000000000004
 20
120.0091902798185
 30
0.0
 11
94.96666666666669
 21
124.0591902798185
 31
0.0
 70
    32
  1
<>(MAX)
 71
     5
 42
8.200000000000001
  3
コピー - ISO-25
100
AcDbAlignedDimension
 13
55.29999999999998
 23
101.5999999989
 33
0.0
 14
63.50000000000004
 24
100.7999999989098
 34
0.0
 50
0.0
100
AcDbRotatedDimension
1001
ACAD
1000
DSTYLE
1002
{
1070
   170
1070
     1
1070
   171
1070
     3
1070
   143
1040
0.0393700787401575
1070
   285
1070
     4
1070
     4
1000
"
1070
   271
1070
     8
1070
    40
1040
1.0
1002
}
1001
ACAD_DSTYLE_DIMINSPECT
1070
   393
1070
     0
1070
   394
1070
     0
1070
   395
1000

1070
   396
1000

  0
LINE
  5
95DFB
330
1F
100
AcDbEntity
  8
cut
100
AcDbLine
 10
47.73844114609999
 20
97.94544568509998
 30
0.0
 11
47.75745516809997
 21
97.95732805499994
 31
0.0
  0
LINE
  5
95DFC
330
1F
100
AcDbEntity
  8
cut
100
AcDbLine
 10
47.75619696530003
 20
97.95656420020005
 30
0.0
 11
47.77428373529999
 21
97.96720190600003
 31
0.0
  0
LINE
  5
95DFD
330
1F
100
AcDbEntity
  8
cut
100
AcDbLine
 10
47.77428373529999
 20
97.96720190600003
 30
0.0
 11
48.00630272339997
 21
98.09901382440001
 31
0.0
  0
LINE
  5
95DFE
330
1F
100
AcDbEntity
  8
cut
100
AcDbLine
 10
48.00630272339997
 20
98.09901382440001
 30
0.0
 11
48.24161172919997
 21
98.23203343399995
 31
0.0
  0
LINE
  5
95DFF
330
1F
100
AcDbEntity
  8
cut
100
AcDbLine
 10
48.24161172919997
 20
98.23203343399995
 30
0.0
 11
48.48021301170001
 21
98.36625528280002
 31
0.0
  0
LINE
  5
95E00
330
1F
100
AcDbEntity
  8
cut
100
AcDbLine
 10
48.48021301170001
 20
98.36625528280002
 30
0.0
 11
48.72211560779998
 21
98.50165756270001
 31
0.0
  0
LWPOLYLINE
  5
95E01
330
1F
100
AcDbEntity
  8
cut
100
AcDbPolyline
 90
        6
 70
     0
 43
0.0
 10
48.72211560779998
 20
98.50165756270001
 10
48.85151799979997
 20
98.57379870489999
 10
48.85875679439999
 20
98.57776449950002
 10
48.86602071750002
 20
98.58170011100005
 10
48.87330976909999
 20
98.58560553950001
 10
48.88062394899997
 20
98.58948078479999
  0
LINE
  5
95E02
330
1F
100
AcDbEntity
  8
cut
100
AcDbLine
 10
53.87490888469995
 20
101.2204105179
 30
0.0
 11
54.11533821610003
 21
101.3535533192
 31
0.0
  0
LINE
  5
95E03
330
1F
100
AcDbEntity
  8
cut
100
AcDbLine
 10
53.79401689360004
 20
101.1763020538
 30
0.0
 11
53.87490888469995
 21
101.2204105179
 31
0.0
  0
LINE
  5
95E04
330
1F
100
AcDbEntity
  8
cut
100
AcDbLine
 10
53.62993859299996
 20
101.087892115
 30
0.0
 11
53.79401689360004
 21
101.1763020538
 31
0.0
  0
LINE
  5
95E05
330
1F
100
AcDbEntity
  8
cut
100
AcDbLine
 10
52.70800270960001
 20
100.5937719881
 30
0.0
 11
53.62993859299996
 21
101.087892115
 31
0.0
  0
LINE
  5
95E06
330
1F
100
AcDbEntity
  8
cut
100
AcDbLine
 10
52.01359031839996
 20
100.2282051854
 30
0.0
 11
52.70800270960001
 21
100.5937719881
 31
0.0
  0
LINE
  5
95E07
330
1F
100
AcDbEntity
  8
cut
100
AcDbLine
 10
50.80175079420001
 20
99.59261451850004
 30
0.0
 11
52.01359031839996
 21
100.2282051854
 31
0.0
  0
LWPOLYLINE
  5
95E08
330
1F
100
AcDbEntity
  8
cut
100
AcDbPolyline
 90
        4
 70
     0
 43
0.0
 10
48.88062394899997
 20
98.58948078479999
 10
48.97271112969996
 20
98.63747686259999
 10
49.05750288960001
 20
98.68165938700002
 10
50.80175079420001
 20
99.59261451850004
  0
LWPOLYLINE
  5
95E09
330
1F
100
AcDbEntity
  8
cut
100
AcDbPolyline
 90
       11
 70
     0
 43
0.0
 10
47.57953942310002
 20
97.80784608959994
 10
47.59494822549998
 20
97.82499804259998
 10
47.60924255040004
 20
97.84000061340003
 10
47.62396724680002
 20
97.85461835100006
 10
47.63913634719996
 20
97.86886635010001
 10
47.65473581899994
 20
97.88272951620001
 10
47.67072737659997
 20
97.89616353200001
 10
47.68711863619994
 20
97.90917084480007
 10
47.70390198149994
 20
97.92174900740002
 10
47.72101627759997
 20
97.93384636070001
 10
47.73844114609999
 20
97.94544568509998
  0
LWPOLYLINE
  5
95E0A
330
1F
100
AcDbEntity
  8
cut
100
AcDbPolyline
 90
       11
 70
     0
 43
0.0
 10
47.59244692519995
 20
97.8222830544
 10
47.60571415719993
 20
97.83637168530006
 10
47.61934402640003
 20
97.85011477200004
 10
47.63334234699999
 20
97.86351775950004
 10
47.6477115563
 20
97.87658243590001
 10
47.66244058239998
 20
97.88929596110001
 10
47.6775149763
 20
97.90164183810006
 10
47.69291913049993
 20
97.91360374440001
 10
47.708632803
 20
97.92516605639995
 10
47.72463459329998
 20
97.93631332510001
 10
47.74090788130002
 20
97.94703349130005
  0
LINE
  5
95E0B
330
1F
100
AcDbEntity
  8
cut
100
AcDbLine
 10
47.54203270739997
 20
97.76112879719999
 30
0.0
 11
47.55484140290001
 21
97.77796113940002
 31
0.0
  0
LINE
  5
95E0C
330
1F
100
AcDbEntity
  8
cut
100
AcDbLine
 10
47.55459565019998
 20
97.77764472859995
 30
0.0
 11
47.56762477540002
 21
97.79382010020004
 31
0.0
  0
LINE
  5
95E0D
330
1F
100
AcDbEntity
  8
cut
100
AcDbLine
 10
47.56700037269996
 20
97.79306862230001
 30
0.0
 11
47.58108046000001
 21
97.80960967230001
 31
0.0
  0
LINE
  5
95E0E
330
1F
100
AcDbEntity
  8
cut
100
AcDbLine
 10
47.52993684519998
 20
97.74426638400001
 30
0.0
 11
47.54307412560001
 21
97.76253496329999
 31
0.0
  0
LWPOLYLINE
  5
95E0F
330
1F
100
AcDbEntity
  8
cut
100
AcDbPolyline
 90
       43
 70
     0
 43
0.0
 10
59.09057538389999
 20
85.79614155259998
 10
59.07280535530003
 20
85.78392827840003
 10
59.05472077290006
 20
85.77219735350002
 10
59.03632163680004
 20
85.76094877770003
 10
59.01758493890003
 20
85.7501701402
 10
58.99853368729997
 20
85.73987385189997
 10
58.97923690579995
 20
85.73009714560004
 10
58.95969859119998
 20
85.72084561690003
 10
58.93991474679999
 20
85.71211367020003
 10
58.91994240540004
 20
85.70392175130001
 10
58.89980123129999
 20
85.69627692160002
 10
58.87947156030003
 20
85.68917211970001
 10
58.85895143290003
 20
85.6826066067
 10
58.8382206055
 20
85.6765737023
 10
58.81729932169997
 20
85.67108008670004
 10
58.79624635329998
 20
85.66614506190001
 10
58.7750572781
 20
85.6617711097
 10
58.75373651820003
 20
85.65795574829996
 10
58.73235611269995
 20
85.65471083350002
 10
58.7109327567
 20
85.65203989130003
 10
58.68944975509997
 20
85.6499393958
 10
58.6679290618
 20
85.64841062400002
 10
58.64637100199995
 20
85.64745224780006
 10
58.62477525049996
 20
85.64706559539997
 10
58.60316278559998
 20
85.64725592910003
 10
58.58151594159999
 20
85.64802550230002
 10
58.55985238419997
 20
85.6493720615
 10
58.53824608920001
 20
85.65129410899999
 10
58.5167010536
 20
85.65379553650002
 10
58.49521328029998
 20
85.6568724523
 10
58.47384475430004
 20
85.66051168209998
 10
58.45261701759993
 20
85.66470906879997
 10
58.43150852809998
 20
85.66946876959997
 10
58.41051664549997
 20
85.67479008240002
 10
58.389620493
 20
85.68067721120002
 10
58.36884094729999
 20
85.68712595189998
 10
58.34823799799995
 20
85.69412299079997
 10
58.32780722779999
 20
85.7016726324
 10
58.30755305409997
 20
85.7097705722
 10
58.28754871860002
 20
85.71839058240005
 10
58.26781863540002
 20
85.7275239205
 10
58.24833839040002
 20
85.7371793291
 10
58.22910798369997
 20
85.74735680810006
  0
LWPOLYLINE
  5
95E10
330
1F
100
AcDbEntity
  8
cut
100
AcDbPolyline
 90
       12
 70
     0
 43
0.0
 10
47.42951263740002
 20
97.53888101690002
 10
47.43654378619999
 20
97.56035051530005
 10
47.44357632089997
 20
97.57988959910001
 10
47.4511264161
 20
97.59918306280006
 10
47.45918791989999
 20
97.61821775149996
 10
47.46776698399997
 20
97.63700681999997
 10
47.47685649519995
 20
97.65553899499998
 10
47.48645652729999
 20
97.67381740510003
 10
47.49656700649995
 20
97.6918389216
 10
47.50718059749998
 20
97.70958288499997
 10
47.51830716540001
 20
97.72706341110001
 10
47.52993684519998
 20
97.74426638400001
  0
LWPOLYLINE
  5
95E11
330
1F
100
AcDbEntity
  8
cut
100
AcDbPolyline
 90
       12
 70
     0
 43
0.0
 10
47.43553128119997
 20
97.55739219689996
 10
47.44202321519997
 20
97.57572389139994
 10
47.44898222869994
 20
97.59386295079998
 10
47.45639881959998
 20
97.61179202600004
 10
47.46426266280002
 20
97.629492718
 10
47.47256605059999
 20
97.64695150020004
 10
47.48131174500001
 20
97.6641743354
 10
47.49050512549996
 20
97.68117205889996
 10
47.50014918739998
 20
97.69795043609995
 10
47.51023739000003
 20
97.71449495390001
 10
47.52076080869994
 20
97.73078602920003
 10
47.53171008500003
 20
97.74680475950006
  0
LINE
  5
95E12
330
1F
100
AcDbEntity
  8
cut
100
AcDbLine
 10
47.41387050769997
 20
97.48029609470002
 30
0.0
 11
47.41891674180005
 21
97.50137210700001
 31
0.0
  0
LINE
  5
95E13
330
1F
100
AcDbEntity
  8
cut
100
AcDbLine
 10
47.41870933939997
 20
97.5005455764
 30
0.0
 11
47.42411029540004
 21
97.52067850389996
 31
0.0
  0
LINE
  5
95E14
330
1F
100
AcDbEntity
  8
cut
100
AcDbLine
 10
47.42397267149994
 20
97.52020245080002
 30
0.0
 11
47.43005438059998
 21
97.54061654920002
 31
0.0
  0
LINE
  5
95E15
330
1F
100
AcDbEntity
  8
cut
100
AcDbLine
 10
59.97799226659997
 20
87.063705932
 30
0.0
 11
59.74336781290002
 21
86.6996866815
 31
0.0
  0
LINE
  5
95E16
330
1F
100
AcDbEntity
  8
cut
100
AcDbLine
 10
59.74336781290002
 20
86.6996866815
 30
0.0
 11
59.44504636890002
 21
86.23810124300002
 31
0.0
  0
LINE
  5
95E17
330
1F
100
AcDbEntity
  8
cut
100
AcDbLine
 10
59.44504636890002
 20
86.23810124300002
 30
0.0
 11
59.29961981109999
 21
86.01348679709998
 31
0.0
  0
LWPOLYLINE
  5
95E18
330
1F
100
AcDbEntity
  8
cut
100
AcDbPolyline
 90
       16
 70
     0
 43
0.0
 10
59.29961981129997
 20
86.01348679740004
 10
59.28851196199997
 20
85.99680549560003
 10
59.27697274089997
 20
85.9804035692
 10
59.26500214799995
 20
85.96428101819999
 10
59.25258610969996
 20
85.94842028469997
 10
59.23973869969995
 20
85.93283892660002
 10
59.2265021389
 20
85.91758961709997
 10
59.21288842619998
 20
85.90268663120003
 10
59.19888556269995
 20
85.88811569399997
 10
59.18449977350002
 20
85.8738866544
 10
59.16971760250003
 20
85.85998688450002
 10
59.15455250579999
 20
85.84642901219995
 10
59.13905107619996
 20
85.83326076969996
 10
59.12322884489999
 20
85.8204980676
 10
59.10707028070003
 20
85.80812499519998
 10
59.09057538369996
 20
85.79614155249997
  0
LINE
  5
95E19
330
1F
100
AcDbEntity
  8
cut
100
AcDbLine
 10
47.40960077919999
 20
97.45997207950001
 30
0.0
 11
47.41435008809997
 21
97.48241962770004
 31
0.0
  0
LINE
  5
95E1A
330
1F
100
AcDbEntity
  8
cut
100
AcDbLine
 10
63.05525245460001
 20
92.20074693709994
 30
0.0
 11
62.6754198277
 21
91.55942555160001
 31
0.0
  0
LINE
  5
95E1B
330
1F
100
AcDbEntity
  8
cut
100
AcDbLine
 10
62.6754198277
 20
91.55942555160001
 30
0.0
 11
62.3541617418
 21
91.01892304579996
 31
0.0
  0
LINE
  5
95E1C
330
1F
100
AcDbEntity
  8
cut
100
AcDbLine
 10
62.3541617418
 20
91.01892304579996
 30
0.0
 11
62.032901407
 21
90.47997718030002
 31
0.0
  0
LINE
  5
95E1D
330
1F
100
AcDbEntity
  8
cut
100
AcDbLine
 10
62.032901407
 20
90.47997718030002
 30
0.0
 11
61.74814291349997
 21
90.00348648040001
 31
0.0
  0
LINE
  5
95E1E
330
1F
100
AcDbEntity
  8
cut
100
AcDbLine
 10
61.74814291349997
 20
90.00348648040001
 30
0.0
 11
61.41526152649993
 21
89.44780935170001
 31
0.0
  0
LINE
  5
95E1F
330
1F
100
AcDbEntity
  8
cut
100
AcDbLine
 10
61.41526152649993
 20
89.44780935170001
 30
0.0
 11
61.08208610369995
 21
88.89298410600003
 31
0.0
  0
LINE
  5
95E20
330
1F
100
AcDbEntity
  8
cut
100
AcDbLine
 10
61.08208610369995
 20
88.89298410600003
 30
0.0
 11
60.7493101096
 21
88.34006347479997
 31
0.0
  0
LINE
  5
95E21
330
1F
100
AcDbEntity
  8
cut
100
AcDbLine
 10
60.7493101096
 20
88.34006347479997
 30
0.0
 11
60.4166542959
 21
87.78849472670003
 31
0.0
  0
LINE
  5
95E22
330
1F
100
AcDbEntity
  8
cut
100
AcDbLine
 10
60.4166542959
 20
87.78849472670003
 30
0.0
 11
60.08330911820003
 21
87.23685591240002
 31
0.0
  0
LWPOLYLINE
  5
95E23
330
1F
100
AcDbEntity
  8
cut
100
AcDbPolyline
 90
        6
 70
     0
 43
0.0
 10
60.08330911820003
 20
87.23685591240002
 10
59.99549868709999
 20
87.0917503673
 10
59.99116838549998
 20
87.08470503270003
 10
59.9868072149
 20
87.07768251520002
 10
59.98241517529999
 20
87.07068281499998
 10
59.97799226659997
 20
87.063705932
  0
LWPOLYLINE
  5
95E24
330
1F
100
AcDbEntity
  8
cut
100
AcDbPolyline
 90
        9
 70
     0
 43
0.0
 10
47.3954978324
 20
97.31375676309999
 10
47.39561408020001
 20
97.3271553886
 10
47.39621337719995
 20
97.34695366569996
 10
47.39732148549996
 20
97.36666956989999
 10
47.39893133180004
 20
97.3862758075
 10
47.40103434699999
 20
97.40574784429998
 10
47.40362422879996
 20
97.42507095190001
 10
47.40670374259996
 20
97.44426962499996
 10
47.41027792070002
 20
97.46337816409999
  0
LWPOLYLINE
  5
95E25
330
1F
100
AcDbEntity
  8
cut
100
AcDbPolyline
 90
        8
 70
     0
 43
0.0
 10
47.39550037500004
 20
97.3137567626
 10
47.39579144509996
 20
97.33484319750001
 10
47.39666265099997
 20
97.35607861959993
 10
47.39811687600002
 20
97.37716526120001
 10
47.40015122339997
 20
97.39812810100005
 10
47.40274575419999
 20
97.41892665290002
 10
47.40589317500002
 20
97.43953151009998
 10
47.40960077919999
 20
97.45997207950001
  0
LWPOLYLINE
  5
95E26
330
1F
100
AcDbEntity
  8
cut
100
AcDbPolyline
 90
        5
 70
     0
 43
0.0
 10
47.40026098839996
 20
97.22807871120002
 10
47.39818283750003
 20
97.24943297670002
 10
47.3966960578
 20
97.27077886319996
 10
47.39580064939996
 20
97.29211637079998
 10
47.39550037500004
 20
97.3137567626
  0
LINE
  5
95E27
330
1F
100
AcDbEntity
  8
cut
100
AcDbLine
 10
63.49471994579994
 20
99.4355074851
 30
0.0
 11
63.5
 21
100.7999999988999
 31
0.0
  0
LINE
  5
95E28
330
1F
100
AcDbEntity
  8
cut
100
AcDbLine
 10
63.49471994579994
 20
99.4355074851
 30
0.0
 11
63.49459624169997
 21
99.42661698209995
 31
0.0
  0
LINE
  5
95E29
330
1F
100
AcDbEntity
  8
cut
100
AcDbLine
 10
63.26185486509996
 20
93.15738204950005
 30
0.0
 11
63.25865260009994
 21
92.9380792481
 31
0.0
  0
LINE
  5
95E2A
330
1F
100
AcDbEntity
  8
cut
100
AcDbLine
 10
63.26581650509996
 20
93.3780738383
 30
0.0
 11
63.26185486509996
 21
93.15738204950005
 31
0.0
  0
LWPOLYLINE
  5
95E2B
330
1F
100
AcDbEntity
  8
cut
100
AcDbPolyline
 90
       31
 70
     0
 43
0.0
 10
63.25865260009994
 20
92.93807924819999
 10
63.25817361640003
 20
92.91480972489999
 10
63.25734393799996
 20
92.89159963350003
 10
63.25616356479997
 20
92.86844897410006
 10
63.25463384909999
 20
92.84536855179998
 10
63.25275343869998
 20
92.82234756139995
 10
63.25051827649996
 20
92.79935358729998
 10
63.24793009089995
 20
92.77638788839999
 10
63.2449871535
 20
92.75344920569997
 10
63.24168022169999
 20
92.7305013468
 10
63.23801438810001
 20
92.70755787990005
 10
63.23398456009993
 20
92.68460523679999
 10
63.22956621759994
 20
92.66156652020004
 10
63.22476788040001
 20
92.63844915339999
 10
63.2195810288
 20
92.61524571319995
 10
63.21395558339997
 20
92.59185703270004
 10
63.20790252149993
 20
92.56828222670003
 10
63.20141086589996
 20
92.54452218049999
 10
63.1943976054
 20
92.52048038219999
 10
63.18688137040004
 20
92.49616681100002
 10
63.17884353059998
 20
92.47157148780004
 10
63.17014518349997
 20
92.44656796280001
 10
63.16079786239999
 20
92.4211385351
 10
63.15079003390002
 20
92.39530090560005
 10
63.13994819549997
 20
92.36898172810006
 10
63.12828057519999
 20
92.34215880700004
 10
63.1157789449
 20
92.31485433780006
 10
63.10224511790004
 20
92.28706156100001
 10
63.08761303189999
 20
92.2587782233
 10
63.07194874930002
 20
92.23000657800005
 10
63.05525226989999
 20
92.20074662509999
  0
LINE
  5
95E2C
330
1F
100
AcDbEntity
  8
cut
100
AcDbLine
 10
63.27053078360001
 20
93.59980321359996
 30
0.0
 11
63.26581650509996
 21
93.3780738383
 31
0.0
  0
LINE
  5
95E2D
330
1F
100
AcDbEntity
  8
cut
100
AcDbLine
 10
63.49459624169997
 20
99.42661698209995
 30
0.0
 11
63.49423128159997
 21
99.40878805870001
 31
0.0
  0
LINE
  5
95E2E
330
1F
100
AcDbEntity
  8
cut
100
AcDbLine
 10
63.27597757849996
 20
93.82139171749996
 30
0.0
 11
63.27053078360001
 21
93.59980321359996
 31
0.0
  0
LINE
  5
95E2F
330
1F
100
AcDbEntity
  8
cut
100
AcDbLine
 10
63.28212474809999
 20
94.04176807569996
 30
0.0
 11
63.27597757849996
 21
93.82139171749996
 31
0.0
  0
LINE
  5
95E30
330
1F
100
AcDbEntity
  8
cut
100
AcDbLine
 10
63.49423128159997
 20
99.40878805870001
 30
0.0
 11
63.49370958579993
 21
99.3908952455
 31
0.0
  0
LINE
  5
95E31
330
1F
100
AcDbEntity
  8
cut
100
AcDbLine
 10
63.28894914450001
 20
94.26041957280006
 30
0.0
 11
63.28212474809999
 21
94.04176807569996
 31
0.0
  0
LINE
  5
95E32
330
1F
100
AcDbEntity
  8
cut
100
AcDbLine
 10
63.29639305119997
 20
94.47655978870001
 30
0.0
 11
63.28894914450001
 21
94.26041957280006
 31
0.0
  0
LINE
  5
95E33
330
1F
100
AcDbEntity
  8
cut
100
AcDbLine
 10
63.49370958579993
 20
99.3908952455
 30
0.0
 11
63.46566562500004
 21
98.65643040869995
 31
0.0
  0
LINE
  5
95E34
330
1F
100
AcDbEntity
  8
cut
100
AcDbLine
 10
63.30455225040004
 20
94.69144472280005
 30
0.0
 11
63.29639305119997
 21
94.47655978870001
 31
0.0
  0
LINE
  5
95E35
330
1F
100
AcDbEntity
  8
cut
100
AcDbLine
 10
63.46566562500004
 20
98.65643040869995
 30
0.0
 11
63.42977840079993
 21
97.73839743990006
 31
0.0
  0
LINE
  5
95E36
330
1F
100
AcDbEntity
  8
cut
100
AcDbLine
 10
63.42977840079993
 20
97.73839743990006
 30
0.0
 11
63.39576635989999
 21
96.88875199850002
 31
0.0
  0
LINE
  5
95E37
330
1F
100
AcDbEntity
  8
cut
100
AcDbLine
 10
63.39576635989999
 20
96.88875199850002
 30
0.0
 11
63.3593523124
 21
95.99973045999997
 31
0.0
  0
LINE
  5
95E38
330
1F
100
AcDbEntity
  8
cut
100
AcDbLine
 10
63.3593523124
 20
95.99973045999997
 30
0.0
 11
63.32707489430004
 21
95.22891580740006
 31
0.0
  0
LINE
  5
95E39
330
1F
100
AcDbEntity
  8
cut
100
AcDbLine
 10
63.32707489430004
 20
95.22891580740006
 30
0.0
 11
63.30455225040004
 21
94.69144472280005
 31
0.0
  0
LWPOLYLINE
  5
95E3A
330
1F
100
AcDbEntity
  8
cut
100
AcDbPolyline
 90
       16
 70
     0
 43
0.0
 10
47.48845227430002
 20
96.94297744959994
 10
47.4791734277
 20
96.96109504209992
 10
47.47037177540004
 20
96.9793815497
 10
47.46204731739998
 20
96.99783697240002
 10
47.4541946425
 20
97.01648271609995
 10
47.44681916180002
 20
97.0352973748
 10
47.43993710909996
 20
97.0542167312
 10
47.43355490409999
 20
97.0732236059
 10
47.42766612709998
 20
97.0923351783
 10
47.42226775350002
 20
97.11153876950005
 10
47.4173554028
 20
97.13085195440001
 10
47.41293345549997
 20
97.15025715810005
 10
47.40901202869998
 20
97.16968897609994
 10
47.40559449469992
 20
97.1891256071
 10
47.40267748129997
 20
97.20858885230001
 10
47.40026098829996
 20
97.22807871200002
  0
LINE
  5
95E3B
330
1F
100
AcDbEntity
  8
cut
100
AcDbLine
 10
48.55311130619998
 20
94.83486435509993
 30
0.0
 11
48.08941866250001
 21
95.7478527627
 31
0.0
  0
LINE
  5
95E3C
330
1F
100
AcDbEntity
  8
cut
100
AcDbLine
 10
48.93664654309997
 20
94.0754675179
 30
0.0
 11
48.55311130619998
 21
94.83486435509993
 31
0.0
  0
LINE
  5
95E3D
330
1F
100
AcDbEntity
  8
cut
100
AcDbLine
 10
48.08941866250001
 20
95.74785276280005
 30
0.0
 11
48.08159667589997
 21
95.763368322
 31
0.0
  0
LINE
  5
95E3E
330
1F
100
AcDbEntity
  8
cut
100
AcDbLine
 10
49.32975459549999
 20
93.29275451850005
 30
0.0
 11
48.93664654309997
 21
94.0754675179
 31
0.0
  0
LINE
  5
95E3F
330
1F
100
AcDbEntity
  8
cut
100
AcDbLine
 10
49.64820906639999
 20
92.6553732049
 30
0.0
 11
49.32975459549999
 21
93.29275451850005
 31
0.0
  0
LINE
  5
95E40
330
1F
100
AcDbEntity
  8
cut
100
AcDbLine
 10
50.33073843149997
 20
91.27818288689994
 30
0.0
 11
49.64820906639999
 21
92.6553732049
 31
0.0
  0
LINE
  5
95E41
330
1F
100
AcDbEntity
  8
cut
100
AcDbLine
 10
48.08159667589997
 20
95.763368322
 30
0.0
 11
48.07376457320003
 21
95.77923057060004
 31
0.0
  0
LINE
  5
95E42
330
1F
100
AcDbEntity
  8
cut
100
AcDbLine
 10
50.76527335799994
 20
90.39264641569998
 30
0.0
 11
50.33073843149997
 21
91.27818288689994
 31
0.0
  0
LINE
  5
95E43
330
1F
100
AcDbEntity
  8
cut
100
AcDbLine
 10
50.95409404540004
 20
90.00545349200001
 30
0.0
 11
50.7652733571
 21
90.39264641760002
 31
0.0
  0
LWPOLYLINE
  5
95E44
330
1F
100
AcDbEntity
  8
cut
100
AcDbPolyline
 90
        9
 70
     0
 43
0.0
 10
48.00388076820002
 20
95.9242625613
 10
47.941307532
 20
96.05275775190001
 10
47.87820264599996
 20
96.18092508039996
 10
47.81456449570003
 20
96.3087670099
 10
47.75039469559999
 20
96.43628107749998
 10
47.68569808909996
 20
96.56345989409999
 10
47.62047629049999
 20
96.69030099690004
 10
47.55472768549998
 20
96.81680684889997
 10
47.48845227409997
 20
96.94297744999994
  0
LINE
  5
95E45
330
1F
100
AcDbEntity
  8
cut
100
AcDbLine
 10
48.07376457320003
 20
95.77923057060004
 30
0.0
 11
48.00388076820002
 21
95.9242625613
 31
0.0
  0
LINE
  5
95E46
330
1F
100
AcDbEntity
  8
cut
100
AcDbLine
 10
57.22275360860003
 20
86.28214509240001
 30
0.0
 11
57.08542920240001
 21
86.35283638789998
 31
0.0
  0
LINE
  5
95E47
330
1F
100
AcDbEntity
  8
cut
100
AcDbLine
 10
57.08542920240001
 20
86.35283638789998
 30
0.0
 11
57.06983586909996
 21
86.36099263709997
 31
0.0
  0
LWPOLYLINE
  5
95E48
330
1F
100
AcDbEntity
  8
cut
100
AcDbPolyline
 90
        4
 70
     0
 43
0.0
 10
57.6062454474
 20
86.0819094258
 10
57.47923340189998
 20
86.148709779
 10
57.35140216249998
 20
86.21545286079998
 10
57.22275360860003
 20
86.28214509240001
  0
LINE
  5
95E49
330
1F
100
AcDbEntity
  8
cut
100
AcDbLine
 10
57.85782323360002
 20
85.94817543260003
 30
0.0
 11
57.6062454474
 21
86.0819094258
 31
0.0
  0
LINE
  5
95E4A
330
1F
100
AcDbEntity
  8
cut
100
AcDbLine
 10
57.06983586909996
 20
86.36099263709997
 30
0.0
 11
57.05440752689998
 21
86.36922411380004
 31
0.0
  0
LWPOLYLINE
  5
95E4B
330
1F
100
AcDbEntity
  8
cut
100
AcDbPolyline
 90
        3
 70
     0
 43
0.0
 10
53.19573116790002
 20
88.45492561209992
 10
53.00924137899993
 20
88.55571311539994
 10
52.91584191509996
 20
88.60661722789997
  0
LINE
  5
95E4C
330
1F
100
AcDbEntity
  8
cut
100
AcDbLine
 10
56.2428293607
 20
86.8101643562
 30
0.0
 11
53.19573116790002
 21
88.45492561209992
 31
0.0
  0
LINE
  5
95E4D
330
1F
100
AcDbEntity
  8
cut
100
AcDbLine
 10
57.05440752689998
 20
86.36922411380004
 30
0.0
 11
56.2428293607
 21
86.8101643562
 31
0.0
  0
LWPOLYLINE
  5
95E4E
330
1F
100
AcDbEntity
  8
cut
100
AcDbPolyline
 90
        4
 70
     0
 43
0.0
 10
58.2291079839
 20
85.74735680800001
 10
58.10615807619996
 20
85.81432793600006
 10
57.98239649279998
 20
85.88126747749997
 10
57.85782323360002
 20
85.94817543260003
  0
LINE
  5
95E4F
330
1F
100
AcDbEntity
  8
cut
100
AcDbLine
 10
52.91584191509996
 20
88.60661722789997
 30
0.0
 11
52.72862969519996
 21
88.7098570709
 31
0.0
  0
LINE
  5
95E50
330
1F
100
AcDbEntity
  8
cut
100
AcDbLine
 10
52.72862969519996
 20
88.7098570709
 30
0.0
 11
52.53946378310001
 21
88.81556435569995
 31
0.0
  0
LINE
  5
95E51
330
1F
100
AcDbEntity
  8
cut
100
AcDbLine
 10
52.53946378310001
 20
88.81556435569995
 30
0.0
 11
52.34821483420001
 21
88.92381366939998
 31
0.0
  0
LINE
  5
95E52
330
1F
100
AcDbEntity
  8
cut
100
AcDbLine
 10
52.34821483420001
 20
88.92381366939998
 30
0.0
 11
52.15563986759996
 21
89.03423402209995
 31
0.0
  0
LINE
  5
95E53
330
1F
100
AcDbEntity
  8
cut
100
AcDbLine
 10
52.15563986759996
 20
89.03423402209995
 30
0.0
 11
51.96309456279998
 21
89.14603499729997
 31
0.0
  0
LINE
  5
95E54
330
1F
100
AcDbEntity
  8
cut
100
AcDbLine
 10
51.96309456279998
 20
89.14603499729997
 30
0.0
 11
51.77140962419997
 21
89.25872493700001
 31
0.0
  0
LWPOLYLINE
  5
95E55
330
1F
100
AcDbEntity
  8
cut
100
AcDbPolyline
 90
        3
 70
     0
 43
0.0
 10
51.77140962419997
 20
89.25872493700001
 10
51.58212321689996
 20
89.3713691886
 10
51.48827474710003
 20
89.42773755859997
  0
LWPOLYLINE
  5
95E56
330
1F
100
AcDbEntity
  8
cut
100
AcDbPolyline
 90
       31
 70
     0
 43
0.0
 10
51.4882751609
 20
89.42773730940002
 10
51.4570947153
 20
89.44722743940003
 10
51.42733084089996
 20
89.46666728810006
 10
51.39898353769996
 20
89.48605685539995
 10
51.37213712239997
 20
89.50541991200003
 10
51.3467072784
 20
89.52473268719996
 10
51.32244105490002
 20
89.54392386920003
 10
51.29932974469994
 20
89.56296374629998
 10
51.27738205509996
 20
89.5818820302
 10
51.2563711574
 20
89.60069654359996
 10
51.23628692369999
 20
89.61939221609998
 10
51.217139482
 20
89.63798411819999
 10
51.1987323876
 20
89.65653528329998
 10
51.1810533949
 20
89.67504230920004
 10
51.16411474950003
 20
89.69350859819995
 10
51.14775674420002
 20
89.7120073914
 10
51.13197005049993
 20
89.7305348153
 10
51.11676399680003
 20
89.7490947434
 10
51.10200686159998
 20
89.7677720383
 10
51.08768244180004
 20
89.78657303080002
 10
51.07380694049999
 20
89.80549139009999
 10
51.06029724559999
 20
89.82459298600003
 10
51.04713413960002
 20
89.84389566009999
 10
51.03433684000004
 20
89.86338157090001
 10
51.02187988669999
 20
89.88306306319998
 10
51.00975999729996
 20
89.90293796880001
 10
50.9979804541
 20
89.92300845580002
 10
50.98652564509997
 20
89.94329337389997
 10
50.97539036619997
 20
89.96379900600004
 10
50.96457982129999
 20
89.98451906899997
 10
50.9540940105
 20
90.00545356310004
  0
LINE
  5
95E57
330
1F
100
AcDbEntity
  8
cut
100
AcDbLine
 10
55.07713380399997
 20
101.5999999989
 30
0.0
 11
62.70000000000004
 21
101.5999999989
 31
0.0
  0
ARC
  5
95E58
330
1F
100
AcDbEntity
  8
cut
100
AcDbCircle
 10
55.07713380399997
 20
99.59999999889999
 30
0.0
 40
2.0
100
AcDbArc
 50
90.0
 51
118.7440561034001
  0
ARC
  5
95E59
330
1F
100
AcDbEntity
  8
cut
100
AcDbCircle
 10
62.70000000000004
 20
100.7999999988999
 30
0.0
 40
0.8
100
AcDbArc
 50
0.0
 51
90.0
  0
DIMENSION
  5
95E5A
330
1F
100
AcDbEntity
  8
2
100
AcDbDimension
  2
*D1310
 10
62.70000000000004
 20
100.7999999988999
 30
0.0
 11
77.2791764775578
 21
104.9829925866344
 31
0.0
 70
   164
 71
     5
 42
0.8
  3
コピー - ISO-25
100
AcDbRadialDimension
 15
63.46897467465048
 25
101.0206307985318
 35
0.0
 40
0.0
1001
ACAD
1000
DSTYLE
1002
{
1070
   170
1070
     1
1070
   171
1070
     3
1070
   143
1040
0.0393700787401575
1070
   285
1070
     4
1070
     4
1000
"
1070
   271
1070
     8
1070
    40
1040
1.0
1002
}
1001
ACAD_DSTYLE_DIMRADIAL_EXTENSION
1070
   387
1070
     1
1070
   388
1040
0.0
1070
   390
1040
1.570796326794896
1001
ACAD_DSTYLE_DIMINSPECT
1070
   396
1000

1070
   395
1000

1070
   394
1070
     1
1070
   393
1070
     0
1001
ZWMCAD_GENSTANDARDFRAME_13_
1070
   410
1000
GB
1070
   411
1000
ZwmFrameMain_
  0
VIEWPORT
  5
71
102
{ACAD_XDICTIONARY
360
87B09
102
}
330
55
100
AcDbEntity
 67
     1
  8
0
100
AcDbViewport
 10
150.1652135264906
 20
103.6581106594891
 30
0.0
 40
339.1973820494347
 41
168.6522697578383
 68
     1
 69
    -1
 12
150.1652135264906
 22
103.6581106594891
 13
0.0
 23
0.0
 14
10.0
 24
10.0
 15
10.0
 25
10.0
 16
0.0
 26
0.0
 36
1.0
 17
0.0
 27
0.0
 37
0.0
 42
50.0
 43
0.0
 44
0.0
 45
168.6522697578383
 50
0.0
 51
0.0
 72
  1000
 90
    32864
  1

281
     0
 71
     1
 74
     0
110
0.0
120
0.0
130
0.0
111
1.0
121
0.0
131
0.0
112
0.0
122
1.0
132
0.0
 79
     0
146
0.0
  0
VIEWPORT
  5
73
102
{ACAD_XDICTIONARY
360
87B0B
102
}
330
55
100
AcDbEntity
 67
     1
  8
0
100
AcDbViewport
 10
133.3499939441681
 20
101.5999939441681
 30
0.0
 40
213.3599903106689
 41
162.5599903106689
 68
     2
 69
    -1
 12
210.0
 22
148.5
 13
0.0
 23
0.0
 14
10.0
 24
10.0
 15
10.0
 25
10.0
 16
0.0
 26
0.0
 36
1.0
 17
0.0
 27
0.0
 37
0.0
 42
50.0
 43
0.0
 44
0.0
 45
324.0677920111345
 50
0.0
 51
0.0
 72
   100
 90
    32864
  1

281
     0
 71
     1
 74
     0
110
0.0
120
0.0
130
0.0
111
1.0
121
0.0
131
0.0
112
0.0
122
1.0
132
0.0
 79
     0
146
0.0
  0
ENDSEC
  0
SECTION
  2
OBJECTS
  0
DICTIONARY
  5
C
330
0
100
AcDbDictionary
281
     1
  3
ACAD_2007HEADERVARS_RT
350
95F1A
  3
ACAD_CIP_PREVIOUS_PRODUCT_INFO
350
4A3C3
  3
ACAD_COLOR
350
85
  3
ACAD_DETAILVIEWSTYLE
350
4A3BB
  3
ACAD_GROUP
350
D
  3
ACAD_LAYOUT
350
1A
  3
ACAD_MATERIAL
350
84
  3
ACAD_MLEADERSTYLE
350
4A3B7
  3
ACAD_MLINESTYLE
350
17
  3
ACAD_PLOTSETTINGS
350
19
  3
ACAD_PLOTSTYLENAME
350
E
  3
ACAD_SCALELIST
350
4A3A5
  3
ACAD_SECTIONVIEWSTYLE
350
4A3B9
  3
ACAD_TABLESTYLE
350
A1
  3
ACAD_VISUALSTYLE
350
4A38C
  3
ACDB_RECOMPOSE_DATA
350
907A1
  3
ACDBHEADERROUNDTRIPXREC
350
95F17
  3
AcDbVariableDictionary
350
5E
  3
ASE_INDEX_DICTIONARY
350
349E9
  3
DWGPROPS
350
95F1D
  0
DICTIONARY
  5
8C34E
330
8
100
AcDbDictionary
280
     1
281
     1
  3
ACAD_XREC_ROUNDTRIP
360
95F23
  0
DICTIONARY
  5
E2
330
2
100
AcDbDictionary
280
     1
281
     1
  3
ACAD_LAYERFILTERS
360
4A339
  3
ACAD_LAYERSTATES
360
3759A
  3
ACLYDICTIONARY
360
4A338
  0
DICTIONARY
  5
4A86C
330
10
100
AcDbDictionary
280
     1
281
     1
  3
ADSK_XREC_LAYER_RECONCILED
360
4A86D
  0
DICTIONARY
  5
4A773
330
4A772
100
AcDbDictionary
280
     1
281
     1
  3
ADSK_XREC_LAYER_RECONCILED
360
4A86E
  0
DICTIONARY
  5
4A775
330
4A774
100
AcDbDictionary
280
     1
281
     1
  3
ADSK_XREC_LAYER_RECONCILED
360
4A86F
  0
DICTIONARY
  5
4A777
330
4A776
100
AcDbDictionary
280
     1
281
     1
  3
ADSK_XREC_LAYER_RECONCILED
360
4A870
  0
DICTIONARY
  5
4A779
330
4A778
100
AcDbDictionary
280
     1
281
     1
  3
ADSK_XREC_LAYER_RECONCILED
360
4A871
  0
DICTIONARY
  5
4A77B
330
4A77A
100
AcDbDictionary
280
     1
281
     1
  3
ADSK_XREC_LAYER_RECONCILED
360
4A872
  0
DICTIONARY
  5
4A77F
330
4A77E
100
AcDbDictionary
280
     1
281
     1
  3
ADSK_XREC_LAYER_RECONCILED
360
4A874
  0
DICTIONARY
  5
4A783
330
4A782
100
AcDbDictionary
280
     1
281
     1
  3
ADSK_XREC_LAYER_RECONCILED
360
4A876
  0
DICTIONARY
  5
8C34C
330
87B52
100
AcDbDictionary
280
     1
281
     1
  3
ACAD_XREC_ROUNDTRIP
360
95F22
  0
DICTIONARY
  5
31EE
330
1F
100
AcDbDictionary
280
     1
281
     1
  3
ACAD_SORTENTS
360
31EF
  0
DICTIONARY
  5
4A6D7
330
4A6D6
100
AcDbDictionary
280
     1
281
     1
  3
ACAD_SORTENTS
360
4A6D8
  0
DICTIONARY
  5
87B05
330
6B
100
AcDbDictionary
280
     1
281
     1
  3
ACAD_XREC_ROUNDTRIP
360
95F20
  0
DICTIONARY
  5
87B07
330
6D
100
AcDbDictionary
280
     1
281
     1
  3
ACAD_XREC_ROUNDTRIP
360
95F21
  0
DICTIONARY
  5
95B4B
330
95B4A
100
AcDbDictionary
280
     1
281
     1
  3
ACAD_DIMASSOC
360
95B4C
  0
DICTIONARY
  5
95B4E
330
95B4D
100
AcDbDictionary
280
     1
281
     1
  3
ACAD_DIMASSOC
360
95B4F
  0
DICTIONARY
  5
95B51
330
95B50
100
AcDbDictionary
280
     1
281
     1
  3
ACAD_DIMASSOC
360
95B52
  0
DICTIONARY
  5
95B54
330
95B53
100
AcDbDictionary
280
     1
281
     1
  3
ACAD_DIMASSOC
360
95B55
  0
DICTIONARY
  5
87B09
330
71
100
AcDbDictionary
280
     1
281
     1
  3
ACAD_XREC_ROUNDTRIP
360
95F1E
  0
DICTIONARY
  5
87B0B
330
73
100
AcDbDictionary
280
     1
281
     1
  3
ACAD_XREC_ROUNDTRIP
360
95F1F
  0
DICTIONARY
  5
95F1A
102
{ACAD_REACTORS
330
C
102
}
330
C
100
AcDbDictionary
281
     1
  3
DIMTFILL
350
95F1B
  3
DIMTFILLCLR
350
95F1C
  0
XRECORD
  5
4A3C3
102
{ACAD_REACTORS
330
C
102
}
330
C
100
AcDbXrecord
280
     1
300
ACDLT
300
2020
300

  0
DICTIONARY
  5
85
102
{ACAD_REACTORS
330
C
102
}
330
C
100
AcDbDictionary
281
     1
  0
DICTIONARY
  5
4A3BB
102
{ACAD_REACTORS
330
C
102
}
330
C
100
AcDbDictionary
281
     1
  3
Metric50
350
4A3BC
  0
DICTIONARY
  5
D
102
{ACAD_REACTORS
330
C
102
}
330
C
100
AcDbDictionary
281
     1
  0
DICTIONARY
  5
1A
102
{ACAD_REACTORS
330
C
102
}
330
C
100
AcDbDictionary
281
     1
  3
Model
350
22
  3
レイアウト1
350
51
  3
レイアウト2
350
56
  0
DICTIONARY
  5
84
102
{ACAD_REACTORS
330
C
102
}
330
C
100
AcDbDictionary
281
     1
  3
ByBlock
350
4A37C
  3
ByLayer
350
4A374
  3
Global
350
4A384
  0
DICTIONARY
  5
4A3B7
102
{ACAD_REACTORS
330
C
102
}
330
C
100
AcDbDictionary
281
     1
  3
Standard
350
4A3B8
  0
DICTIONARY
  5
17
102
{ACAD_REACTORS
330
C
102
}
330
C
100
AcDbDictionary
281
     1
  3
Standard
350
18
  0
DICTIONARY
  5
19
102
{ACAD_REACTORS
330
C
102
}
330
C
100
AcDbDictionary
281
     1
  0
ACDBDICTIONARYWDFLT
  5
E
102
{ACAD_REACTORS
330
C
102
}
330
C
100
AcDbDictionary
281
     1
  3
Normal
350
F
100
AcDbDictionaryWithDefault
340
F
  0
DICTIONARY
  5
4A3A5
102
{ACAD_REACTORS
330
C
102
}
330
C
100
AcDbDictionary
281
     1
  3
A0
350
4A3A6
  3
A1
350
4A3A7
  3
A2
350
4A3A8
  3
A3
350
4A3A9
  3
A4
350
4A3AA
  3
A5
350
4A3AB
  3
A6
350
4A3AC
  3
A7
350
4A3AD
  3
A8
350
4A3AE
  3
A9
350
4A3AF
  3
B0
350
4A3B0
  3
B1
350
4A3B1
  3
B2
350
4A3B2
  3
B3
350
4A3B3
  3
B4
350
4A3B4
  3
B5
350
4A3B5
  3
B6
350
4A3B6
  0
DICTIONARY
  5
4A3B9
102
{ACAD_REACTORS
330
C
102
}
330
C
100
AcDbDictionary
281
     1
  3
Metric50
350
4A3BA
  0
DICTIONARY
  5
A1
102
{ACAD_REACTORS
330
C
102
}
330
C
100
AcDbDictionary
281
     1
  3
Standard
350
A2
  0
DICTIONARY
  5
4A38C
102
{ACAD_REACTORS
330
C
102
}
330
C
100
AcDbDictionary
281
     1
  3
2dWireframe
350
4A392
  3
Basic
350
4A391
  3
Brighten
350
4A398
  3
ColorChange
350
4A39C
  3
Conceptual
350
4A395
  3
Dim
350
4A397
  3
EdgeColorOff
350
4A3A4
  3
Facepattern
350
4A39B
  3
Flat
350
4A38D
  3
FlatWithEdges
350
4A38E
  3
Gouraud
350
4A38F
  3
GouraudWithEdges
350
4A390
  3
Hidden
350
4A394
  3
JitterOff
350
4A3A2
  3
Linepattern
350
4A39A
  3
OverhangOff
350
4A3A3
  3
Realistic
350
4A396
  3
Shaded
350
4A3A1
  3
Shaded with edges
350
4A3A0
  3
Shades of Gray
350
4A39D
  3
Sketchy
350
4A39E
  3
Thicken
350
4A399
  3
Wireframe
350
4A393
  3
X-Ray
350
4A39F
  0
XRECORD
  5
907A1
102
{ACAD_REACTORS
330
C
102
}
330
C
100
AcDbXrecord
280
     1
 90
        1
330
A2
  0
DICTIONARY
  5
95F17
102
{ACAD_REACTORS
330
C
102
}
330
C
100
AcDbDictionary
281
     1
  3
COLORDICT
350
95F18
  3
MATERIALDICT
350
95F19
  0
DICTIONARY
  5
5E
102
{ACAD_REACTORS
330
C
102
}
330
C
100
AcDbDictionary
281
     1
  3
CANNOSCALE
350
95EEB
  3
CMLEADERSTYLE
350
4A6CE
  3
CTABLESTYLE
350
B8
  3
CVIEWDETAILSTYLE
350
4A6CF
  3
CVIEWSECTIONSTYLE
350
4A6D0
  3
DIMASSOC
350
5F
  3
HIDETEXT
350
63
  3
INDEXCTL
350
4A879
  3
LAYEREVAL
350
4A6D4
  3
LAYERNOTIFY
350
4A6D5
  3
LIGHTINGUNITS
350
4A6D3
  3
MSLTSCALE
350
4A6D1
  3
PROJECTNAME
350
31CE
  3
SORTENTS
350
4A878
  3
XCLIPFRAME
350
87AF9
  0
DICTIONARY
  5
349E9
102
{ACAD_REACTORS
330
C
102
}
330
C
100
AcDbDictionary
281
     1
  3
ASEBlockHierarchyIndexRecord
350
349EA
1001
DCO15
1040
1842496176.844
  0
XRECORD
  5
95F1D
102
{ACAD_REACTORS
330
C
102
}
330
C
100
AcDbXrecord
280
     1
  1
DWGPROPS COOKIE
  2

  3

  4

  6

  7

  8
zhangnw
  9

300
=
301
=
302
=
303
=
304
=
305
=
306
=
307
=
308
=
309
=
 40
0.0
 41
2455489.391063368
 42
2458948.448119803
  1

 90
        0
  0
XRECORD
  5
95F23
102
{ACAD_REACTORS
330
8C34E
102
}
330
8C34E
100
AcDbXrecord
280
     1
102
VTR_0.000_0.000_1.000_1.000_VISUALSTYLE
340
4A392
102
VTR_0.000_0.000_1.000_1.000_GRIDDISPLAY
 70
     3
102
VTR_0.000_0.000_1.000_1.000_GRIDMAJOR
 70
     5
102
VTR_0.000_0.000_1.000_1.000_DEFAULTLIGHTING
280
     1
102
VTR_0.000_0.000_1.000_1.000_DEFAULTLIGHTINGTYPE
 70
     1
102
VTR_0.000_0.000_1.000_1.000_BRIGHTNESS
141
0.0
102
VTR_0.000_0.000_1.000_1.000_CONTRAST
142
0.0
  0
DICTIONARY
  5
4A339
102
{ACAD_REACTORS
330
E2
102
}
330
E2
100
AcDbDictionary
281
     1
  0
DICTIONARY
  5
3759A
102
{ACAD_REACTORS
330
E2
102
}
330
E2
100
AcDbDictionary
281
     1
  0
DICTIONARY
  5
4A338
102
{ACAD_REACTORS
330
E2
102
}
330
E2
100
AcDbDictionary
281
     1
1001
ACAD
1000
<All
  0
XRECORD
  5
4A86D
102
{ACAD_REACTORS
330
4A86C
102
}
330
4A86C
100
AcDbXrecord
280
     1
290
     1
  0
XRECORD
  5
4A86E
102
{ACAD_REACTORS
330
4A773
102
}
330
4A773
100
AcDbXrecord
280
     1
290
     1
  0
XRECORD
  5
4A86F
102
{ACAD_REACTORS
330
4A775
102
}
330
4A775
100
AcDbXrecord
280
     1
290
     1
  0
XRECORD
  5
4A870
102
{ACAD_REACTORS
330
4A777
102
}
330
4A777
100
AcDbXrecord
280
     1
290
     1
  0
XRECORD
  5
4A871
102
{ACAD_REACTORS
330
4A779
102
}
330
4A779
100
AcDbXrecord
280
     1
290
     1
  0
XRECORD
  5
4A872
102
{ACAD_REACTORS
330
4A77B
102
}
330
4A77B
100
AcDbXrecord
280
     1
290
     1
  0
XRECORD
  5
4A874
102
{ACAD_REACTORS
330
4A77F
102
}
330
4A77F
100
AcDbXrecord
280
     1
290
     1
  0
XRECORD
  5
4A876
102
{ACAD_REACTORS
330
4A783
102
}
330
4A783
100
AcDbXrecord
280
     1
290
     1
  0
XRECORD
  5
95F22
102
{ACAD_REACTORS
330
8C34C
102
}
330
8C34C
100
AcDbXrecord
280
     1
102
MATERIAL
340
4A384
  0
SORTENTSTABLE
  5
31EF
102
{ACAD_REACTORS
330
31EE
102
}
330
31EE
100
AcDbSortentsTable
330
1F
  0
SORTENTSTABLE
  5
4A6D8
102
{ACAD_REACTORS
330
4A6D7
102
}
330
4A6D7
100
AcDbSortentsTable
330
4A6D6
  0
XRECORD
  5
95F20
102
{ACAD_REACTORS
330
87B05
102
}
330
87B05
100
AcDbXrecord
280
     1
102
GRIDDISPLAY
 70
     0
102
GRIDMAJOR
 70
     5
102
DEFAULTLIGHTING
280
     1
102
DEFAULTLIGHTINGTYPE
 70
     1
102
BRIGHTNESS
141
0.0
102
CONTRAST
142
0.0
  0
XRECORD
  5
95F21
102
{ACAD_REACTORS
330
87B07
102
}
330
87B07
100
AcDbXrecord
280
     1
102
GRIDDISPLAY
 70
     0
102
GRIDMAJOR
 70
     5
102
DEFAULTLIGHTING
280
     1
102
DEFAULTLIGHTINGTYPE
 70
     1
102
BRIGHTNESS
141
0.0
102
CONTRAST
142
0.0
  0
DIMASSOC
  5
95B4C
102
{ACAD_REACTORS
330
95B4B
102
}
330
95B4B
100
AcDbDimAssoc
330
95B4A
 90
        1
 70
     0
 71
     0
  1
AcDbOsnapPointRef
 72
     1
331
95B09
 73
     2
 91
        0
 40
3.141592653589792
 10
0.0
 20
0.0
 30
1.999999999999998E+50
 75
     0
  0
DIMASSOC
  5
95B4F
102
{ACAD_REACTORS
330
95B4E
102
}
330
95B4E
100
AcDbDimAssoc
330
95B4D
 90
        1
 70
     0
 71
     0
  1
AcDbOsnapPointRef
 72
    13
331
95B09
 73
     2
 91
        0
 40
1.570796326794896
 10
0.0
 20
0.0
 30
1.999999999999998E+50
 75
     0
  0
DIMASSOC
  5
95B52
102
{ACAD_REACTORS
330
95B51
102
}
330
95B51
100
AcDbDimAssoc
330
95B50
 90
        3
 70
     0
 71
     0
  1
AcDbOsnapPointRef
 72
    13
331
95B12
 73
     2
 91
        0
 40
0.0
 10
0.0
 20
0.0
 30
1.999999999999998E+50
 75
     0
  1
AcDbOsnapPointRef
 72
    13
331
95B28
 73
     2
 91
        0
 40
0.0
 10
0.0
 20
0.0
 30
1.999999999999998E+50
 75
     0
  0
DIMASSOC
  5
95B55
102
{ACAD_REACTORS
330
95B54
102
}
330
95B54
100
AcDbDimAssoc
330
95B53
 90
        2
 70
     0
 71
     0
  1
AcDbOsnapPointRef
 72
    13
331
95B30
 73
     2
 91
        0
 40
3.141592653589792
 10
0.0
 20
0.0
 30
1.999999999999998E+50
 75
     0
  0
XRECORD
  5
95F1E
102
{ACAD_REACTORS
330
87B09
102
}
330
87B09
100
AcDbXrecord
280
     1
102
GRIDDISPLAY
 70
     0
102
GRIDMAJOR
 70
     5
102
DEFAULTLIGHTING
280
     1
102
DEFAULTLIGHTINGTYPE
 70
     1
102
BRIGHTNESS
141
0.0
102
CONTRAST
142
0.0
  0
XRECORD
  5
95F1F
102
{ACAD_REACTORS
330
87B0B
102
}
330
87B0B
100
AcDbXrecord
280
     1
102
GRIDDISPLAY
 70
     0
102
GRIDMAJOR
 70
     5
102
DEFAULTLIGHTING
280
     1
102
DEFAULTLIGHTINGTYPE
 70
     1
102
BRIGHTNESS
141
0.0
102
CONTRAST
142
0.0
  0
XRECORD
  5
95F1B
102
{ACAD_REACTORS
330
95F1A
102
}
330
95F1A
100
AcDbXrecord
280
     1
 70
     1
  0
XRECORD
  5
95F1C
102
{ACAD_REACTORS
330
95F1A
102
}
330
95F1A
100
AcDbXrecord
280
     1
1004
1800000001000000000000C1000000000000000000000000
  0
ACDBDETAILVIEWSTYLE
  5
4A3BC
102
{ACAD_XDICTIONARY
360
87B40
102
}
102
{ACAD_REACTORS
330
4A3BB
102
}
330
4A3BB
100
AcDbModelDocViewStyle
 70
     0
  3
Metric50
290
     0
100
AcDbDetailViewStyle
 70
     0
 71
     0
 90
        3
 71
     1
340
11
 40
5.0
340
0
 40
5.0
300

 40
0.0
280
     1
 71
     2
340
16
 90
       25
 71
     3
340
11
 40
5.0
 90
        0
 40
15.0
 90
        1
300
%<\AcVar ViewDetailId>% (%<\AcVar ViewScale \f "%sn">%)
 71
     4
340
16
 90
       25
340
16
 90
       25
280
     0
  0
LAYOUT
  5
22
102
{ACAD_REACTORS
330
1A
102
}
330
1A
100
AcDbPlotSettings
  1

  2
none_device
  4
ANSI_A_(8.50_x_11.00_Inches)
  6

 40
6.349999904632567
 41
19.04999923706055
 42
6.350006103515625
 43
19.04998779296875
 44
215.8999938964844
 45
279.3999938964844
 46
0.0
 47
0.0
 48
0.0
 49
0.0
140
0.0
141
0.0
142
1.0
143
78.436453180766
 70
 11952
 72
     0
 73
     1
 74
     0
  7

 75
     0
147
0.0127491741332998
148
0.0
149
0.0
100
AcDbLayout
  1
Model
 70
     1
 71
     0
 10
0.0
 20
0.0
 11
12.0
 21
9.0
 12
0.0
 22
0.0
 32
0.0
 14
0.0
 24
0.0
 34
0.0
 15
0.0
 25
0.0
 35
0.0
146
0.0
 13
0.0
 23
0.0
 33
0.0
 16
1.0
 26
0.0
 36
0.0
 17
0.0
 27
1.0
 37
0.0
 76
     0
330
1F
331
4A360
  0
LAYOUT
  5
51
102
{ACAD_REACTORS
330
1A
102
}
330
1A
100
AcDbPlotSettings
  1

  2
none_device
  4
Letter_(8.50_x_11.00_Inches)
  6

 40
6.349999904632567
 41
6.349999904632567
 42
6.350006103515625
 43
6.350006103515625
 44
215.8999938964844
 45
279.3999938964844
 46
0.0
 47
0.0
 48
0.0
 49
0.0
140
0.0
141
0.0
142
1.0
143
1.0
 70
   688
 72
     1
 73
     1
 74
     5
  7

 75
    16
147
1.0
148
0.0
149
0.0
100
AcDbLayout
  1
レイアウト1
 70
     1
 71
     1
 10
-6.350006103515625
 20
-6.349999904632567
 11
273.0499877929688
 21
209.5499939918518
 12
0.0
 22
0.0
 32
0.0
 14
26.66999878883364
 24
20.31999878883365
 34
0.0
 15
240.0299890995025
 25
182.8799890995025
 35
0.0
146
0.0
 13
0.0
 23
0.0
 33
0.0
 16
1.0
 26
0.0
 36
0.0
 17
0.0
 27
1.0
 37
0.0
 76
     0
330
50
331
6B
  0
LAYOUT
  5
56
102
{ACAD_REACTORS
330
1A
102
}
330
1A
100
AcDbPlotSettings
  1

  2
none_device
  4
Letter_(8.50_x_11.00_Inches)
  6

 40
6.349999904632567
 41
6.349999904632567
 42
6.350006103515625
 43
6.350006103515625
 44
215.8999938964844
 45
279.3999938964844
 46
0.0
 47
0.0
 48
0.0
 49
0.0
140
0.0
141
0.0
142
1.0
143
1.0
 70
   688
 72
     1
 73
     1
 74
     5
  7

 75
    16
147
1.0
148
0.0
149
0.0
100
AcDbLayout
  1
レイアウト2
 70
     1
 71
     2
 10
-6.350006103515625
 20
-6.349999904632567
 11
273.0499877929688
 21
209.5499939918518
 12
0.0
 22
0.0
 32
0.0
 14
26.66999878883364
 24
20.31999878883365
 34
0.0
 15
240.0299890995025
 25
182.8799890995025
 35
0.0
146
0.0
 13
0.0
 23
0.0
 33
0.0
 16
1.0
 26
0.0
 36
0.0
 17
0.0
 27
1.0
 37
0.0
 76
     0
330
55
331
71
  0
MATERIAL
  5
4A37C
102
{ACAD_XDICTIONARY
360
4A37D
102
}
102
{ACAD_REACTORS
330
84
102
}
330
84
100
AcDbMaterial
  1
ByBlock
 72
     0
 73
     2
 43
0.0008202099737533
 43
0.0
 43
0.0
 43
0.0
 43
0.0
 43
0.0008202099737533
 43
0.0
 43
0.0
 43
0.0
 43
0.0
 43
1.0
 43
0.0
 43
0.0
 43
0.0
 43
0.0
 43
1.0
 77
     0
 78
     2
 47
0.0008202099737533
 47
0.0
 47
0.0
 47
0.0
 47
0.0
 47
0.0008202099737533
 47
0.0
 47
0.0
 47
0.0
 47
0.0
 47
1.0
 47
0.0
 47
0.0
 47
0.0
 47
0.0
 47
1.0
171
     0
172
     2
 49
0.0008202099737533
 49
0.0
 49
0.0
 49
0.0
 49
0.0
 49
0.0008202099737533
 49
0.0
 49
0.0
 49
0.0
 49
0.0
 49
1.0
 49
0.0
 49
0.0
 49
0.0
 49
0.0
 49
1.0
175
     0
176
     2
142
0.0008202099737533
142
0.0
142
0.0
142
0.0
142
0.0
142
0.0008202099737533
142
0.0
142
0.0
142
0.0
142
0.0
142
1.0
142
0.0
142
0.0
142
0.0
142
0.0
142
1.0
179
     0
270
     2
144
0.0008202099737533
144
0.0
144
0.0
144
0.0
144
0.0
144
0.0008202099737533
144
0.0
144
0.0
144
0.0
144
0.0
144
1.0
144
0.0
144
0.0
144
0.0
144
0.0
144
1.0
274
     2
147
0.0008202099737533
147
0.0
147
0.0
147
0.0
147
0.0
147
0.0008202099737533
147
0.0
147
0.0
147
0.0
147
0.0
147
1.0
147
0.0
147
0.0
147
0.0
147
0.0
147
1.0
  0
MATERIAL
  5
4A374
102
{ACAD_XDICTIONARY
360
4A375
102
}
102
{ACAD_REACTORS
330
84
102
}
330
84
100
AcDbMaterial
  1
ByLayer
 72
     0
 73
     2
 43
0.0008202099737533
 43
0.0
 43
0.0
 43
0.0
 43
0.0
 43
0.0008202099737533
 43
0.0
 43
0.0
 43
0.0
 43
0.0
 43
1.0
 43
0.0
 43
0.0
 43
0.0
 43
0.0
 43
1.0
 77
     0
 78
     2
 47
0.0008202099737533
 47
0.0
 47
0.0
 47
0.0
 47
0.0
 47
0.0008202099737533
 47
0.0
 47
0.0
 47
0.0
 47
0.0
 47
1.0
 47
0.0
 47
0.0
 47
0.0
 47
0.0
 47
1.0
171
     0
172
     2
 49
0.0008202099737533
 49
0.0
 49
0.0
 49
0.0
 49
0.0
 49
0.0008202099737533
 49
0.0
 49
0.0
 49
0.0
 49
0.0
 49
1.0
 49
0.0
 49
0.0
 49
0.0
 49
0.0
 49
1.0
175
     0
176
     2
142
0.0008202099737533
142
0.0
142
0.0
142
0.0
142
0.0
142
0.0008202099737533
142
0.0
142
0.0
142
0.0
142
0.0
142
1.0
142
0.0
142
0.0
142
0.0
142
0.0
142
1.0
179
     0
270
     2
144
0.0008202099737533
144
0.0
144
0.0
144
0.0
144
0.0
144
0.0008202099737533
144
0.0
144
0.0
144
0.0
144
0.0
144
1.0
144
0.0
144
0.0
144
0.0
144
0.0
144
1.0
274
     2
147
0.0008202099737533
147
0.0
147
0.0
147
0.0
147
0.0
147
0.0008202099737533
147
0.0
147
0.0
147
0.0
147
0.0
147
1.0
147
0.0
147
0.0
147
0.0
147
0.0
147
1.0
  0
MATERIAL
  5
4A384
102
{ACAD_XDICTIONARY
360
4A385
102
}
102
{ACAD_REACTORS
330
84
102
}
330
84
100
AcDbMaterial
  1
Global
 72
     0
 73
     2
 43
0.0008202099737533
 43
0.0
 43
0.0
 43
0.0
 43
0.0
 43
0.0008202099737533
 43
0.0
 43
0.0
 43
0.0
 43
0.0
 43
1.0
 43
0.0
 43
0.0
 43
0.0
 43
0.0
 43
1.0
 77
     0
 78
     2
 47
0.0008202099737533
 47
0.0
 47
0.0
 47
0.0
 47
0.0
 47
0.0008202099737533
 47
0.0
 47
0.0
 47
0.0
 47
0.0
 47
1.0
 47
0.0
 47
0.0
 47
0.0
 47
0.0
 47
1.0
171
     0
172
     2
 49
0.0008202099737533
 49
0.0
 49
0.0
 49
0.0
 49
0.0
 49
0.0008202099737533
 49
0.0
 49
0.0
 49
0.0
 49
0.0
 49
1.0
 49
0.0
 49
0.0
 49
0.0
 49
0.0
 49
1.0
175
     0
176
     2
142
0.0008202099737533
142
0.0
142
0.0
142
0.0
142
0.0
142
0.0008202099737533
142
0.0
142
0.0
142
0.0
142
0.0
142
1.0
142
0.0
142
0.0
142
0.0
142
0.0
142
1.0
179
     0
270
     2
144
0.0008202099737533
144
0.0
144
0.0
144
0.0
144
0.0
144
0.0008202099737533
144
0.0
144
0.0
144
0.0
144
0.0
144
1.0
144
0.0
144
0.0
144
0.0
144
0.0
144
1.0
274
     2
147
0.0008202099737533
147
0.0
147
0.0
147
0.0
147
0.0
147
0.0008202099737533
147
0.0
147
0.0
147
0.0
147
0.0
147
1.0
147
0.0
147
0.0
147
0.0
147
0.0
147
1.0
  0
MLEADERSTYLE
  5
4A3B8
102
{ACAD_XDICTIONARY
360
8C353
102
}
102
{ACAD_REACTORS
330
4A3B7
102
}
330
4A3B7
100
AcDbMLeaderStyle
170
     2
171
     1
172
     0
 90
        2
 40
0.0
 41
0.0
173
     1
 91
-1056964608
340
14
 92
       -2
290
     1
 42
2.0
291
     1
 43
0.36
  3
Standard
 44
4.0
300

342
11
174
     1
178
     6
175
     1
176
     0
 93
-1056964608
 45
4.0
292
     0
297
     0
 46
4.0
 94
-1056964608
 47
1.0
 49
1.0
140
1.0
293
     1
141
0.0
294
     1
177
     0
142
1.0
295
     0
296
     0
143
0.125
1001
ACAD_MLEADERVER
1070
     2
  0
MLINESTYLE
  5
18
102
{ACAD_REACTORS
330
17
102
}
330
17
100
AcDbMlineStyle
  2
STANDARD
 70
     0
  3

 62
   256
 51
90.0
 52
90.0
 71
     2
 49
0.5
 62
   256
  6
BYLAYER
 49
-0.5
 62
   256
  6
BYLAYER
  0
ACDBPLACEHOLDER
  5
F
102
{ACAD_REACTORS
330
E
102
}
330
E
  0
SCALE
  5
4A3A6
102
{ACAD_REACTORS
330
4A3A5
102
}
330
4A3A5
100
AcDbScale
 70
     0
300
1:1
140
1.0
141
1.0
290
     1
  0
SCALE
  5
4A3A7
102
{ACAD_REACTORS
330
4A3A5
102
}
330
4A3A5
100
AcDbScale
 70
     0
300
1:2
140
1.0
141
2.0
290
     0
  0
SCALE
  5
4A3A8
102
{ACAD_REACTORS
330
4A3A5
102
}
330
4A3A5
100
AcDbScale
 70
     0
300
1:4
140
1.0
141
4.0
290
     0
  0
SCALE
  5
4A3A9
102
{ACAD_REACTORS
330
4A3A5
102
}
330
4A3A5
100
AcDbScale
 70
     0
300
1:5
140
1.0
141
5.0
290
     0
  0
SCALE
  5
4A3AA
102
{ACAD_REACTORS
330
4A3A5
102
}
330
4A3A5
100
AcDbScale
 70
     0
300
1:8
140
1.0
141
8.0
290
     0
  0
SCALE
  5
4A3AB
102
{ACAD_REACTORS
330
4A3A5
102
}
330
4A3A5
100
AcDbScale
 70
     0
300
1:10
140
1.0
141
10.0
290
     0
  0
SCALE
  5
4A3AC
102
{ACAD_REACTORS
330
4A3A5
102
}
330
4A3A5
100
AcDbScale
 70
     0
300
1:16
140
1.0
141
16.0
290
     0
  0
SCALE
  5
4A3AD
102
{ACAD_REACTORS
330
4A3A5
102
}
330
4A3A5
100
AcDbScale
 70
     0
300
1:20
140
1.0
141
20.0
290
     0
  0
SCALE
  5
4A3AE
102
{ACAD_REACTORS
330
4A3A5
102
}
330
4A3A5
100
AcDbScale
 70
     0
300
1:30
140
1.0
141
30.0
290
     0
  0
SCALE
  5
4A3AF
102
{ACAD_REACTORS
330
4A3A5
102
}
330
4A3A5
100
AcDbScale
 70
     0
300
1:40
140
1.0
141
40.0
290
     0
  0
SCALE
  5
4A3B0
102
{ACAD_REACTORS
330
4A3A5
102
}
330
4A3A5
100
AcDbScale
 70
     0
300
1:50
140
1.0
141
50.0
290
     0
  0
SCALE
  5
4A3B1
102
{ACAD_REACTORS
330
4A3A5
102
}
330
4A3A5
100
AcDbScale
 70
     0
300
1:100
140
1.0
141
100.0
290
     0
  0
SCALE
  5
4A3B2
102
{ACAD_REACTORS
330
4A3A5
102
}
330
4A3A5
100
AcDbScale
 70
     0
300
2:1
140
2.0
141
1.0
290
     0
  0
SCALE
  5
4A3B3
102
{ACAD_REACTORS
330
4A3A5
102
}
330
4A3A5
100
AcDbScale
 70
     0
300
4:1
140
4.0
141
1.0
290
     0
  0
SCALE
  5
4A3B4
102
{ACAD_REACTORS
330
4A3A5
102
}
330
4A3A5
100
AcDbScale
 70
     0
300
8:1
140
8.0
141
1.0
290
     0
  0
SCALE
  5
4A3B5
102
{ACAD_REACTORS
330
4A3A5
102
}
330
4A3A5
100
AcDbScale
 70
     0
300
10:1
140
10.0
141
1.0
290
     0
  0
SCALE
  5
4A3B6
102
{ACAD_REACTORS
330
4A3A5
102
}
330
4A3A5
100
AcDbScale
 70
     0
300
100:1
140
100.0
141
1.0
290
     0
  0
ACDBSECTIONVIEWSTYLE
  5
4A3BA
102
{ACAD_XDICTIONARY
360
87B3E
102
}
102
{ACAD_REACTORS
330
4A3B9
102
}
330
4A3B9
100
AcDbModelDocViewStyle
 70
     0
  3
Metric50
290
     0
100
AcDbSectionViewStyle
 70
     0
 71
     0
 90
      102
 71
     1
340
11
 40
5.0
340
0
340
0
 40
5.0
300
I, O, Q, S, X, Z
 40
10.0
 90
        0
 40
2.5
 90
        0
 71
     2
340
16
 90
       25
340
16
 90
       50
 40
5.0
 40
2.5
 40
5.0
 71
     3
340
11
 40
5.0
 90
        0
 40
15.0
 90
        1
300
%<\AcVar ViewSectionStartId>%-%<\AcVar ViewSectionEndId>% (%<\AcVar ViewScale \f "%sn">%)
 71
     4
300
ANSI31
 40
1.0
 90
        0
290
     0
290
     0
 90
        6
 40
0.0
 40
1.570796326794896
 40
0.2617993877991494
 40
1.308996938995747
 40
-0.2617993877991494
 40
1.832595714594044
  0
TABLESTYLE
  5
A2
102
{ACAD_XDICTIONARY
360
4CD9A
102
}
102
{ACAD_REACTORS
330
A1
102
}
330
A1
100
AcDbTableStyle
  3
Standard
 70
     0
 71
     0
 40
1.5
 41
1.5
280
     0
281
     0
  7
Standard
140
4.5
170
     2
 62
     0
 63
   257
283
     0
274
    -2
284
     1
 64
     0
275
    -2
285
     1
 65
     0
276
    -2
286
     1
 66
     0
277
    -2
287
     1
 67
     0
278
    -2
288
     1
 68
     0
279
    -2
289
     1
 69
     0
  7
Standard
140
6.0
170
     5
 62
     0
 63
   257
283
     0
274
    -2
284
     1
 64
     0
275
    -2
285
     1
 65
     0
276
    -2
286
     1
 66
     0
277
    -2
287
     1
 67
     0
278
    -2
288
     1
 68
     0
279
    -2
289
     1
 69
     0
  7
Standard
140
4.5
170
     5
 62
     0
 63
   257
283
     0
274
    -2
284
     1
 64
     0
275
    -2
285
     1
 65
     0
276
    -2
286
     1
 66
     0
277
    -2
287
     1
 67
     0
278
    -2
288
     1
 68
     0
279
    -2
289
     1
 69
     0
  0
VISUALSTYLE
  5
4A392
102
{ACAD_XDICTIONARY
360
87B18
102
}
102
{ACAD_REACTORS
330
4A38C
102
}
330
4A38C
100
AcDbVisualStyle
  2

 70
     4
 71
     0
 72
     2
 73
     0
 90
        0
 40
-0.6
 41
-30.0
 62
     5
 63
     7
 74
     1
 91
        4
 64
     7
 65
   257
 75
     1
175
     1
 42
1.0
 92
        0
 66
   257
 43
1.0
 76
     1
 77
     6
 78
     2
 67
     7
 79
     5
170
     0
171
     0
290
     0
174
     0
 93
        1
 44
0.0
173
     0
291
     0
 45
0.0
1001
ACAD
1000
AcDbSavedByObjectVersion
1070
     0
  0
VISUALSTYLE
  5
4A391
102
{ACAD_XDICTIONARY
360
87B16
102
}
102
{ACAD_REACTORS
330
4A38C
102
}
330
4A38C
100
AcDbVisualStyle
  2

 70
     7
 71
     1
 72
     0
 73
     1
 90
        0
 40
-0.6
 41
-30.0
 62
     5
 63
     7
 74
     0
 91
        4
 64
     7
 65
   257
 75
     1
175
     1
 42
1.0
 92
        8
 66
     7
 43
1.0
 76
     1
 77
     6
 78
     2
 67
     7
 79
     5
170
     0
171
     0
290
     0
174
     0
 93
        1
 44
0.0
173
     0
291
     1
 45
0.0
1001
ACAD
1000
AcDbSavedByObjectVersion
1070
     0
  0
VISUALSTYLE
  5
4A398
102
{ACAD_XDICTIONARY
360
87B24
102
}
102
{ACAD_REACTORS
330
4A38C
102
}
330
4A38C
100
AcDbVisualStyle
  2

 70
    12
 71
     2
 72
     2
 73
     0
 90
        0
 40
-0.6
 41
-30.0
 62
     5
 63
     7
 74
     1
 91
        4
 64
     7
 65
   257
 75
     1
175
     1
 42
1.0
 92
        8
 66
     7
 43
1.0
 76
     1
 77
     6
 78
     2
 67
     7
 79
     5
170
     0
171
     0
290
     0
174
     0
 93
        1
 44
50.0
173
     0
291
     1
 45
0.0
1001
ACAD
1000
AcDbSavedByObjectVersion
1070
     0
  0
VISUALSTYLE
  5
4A39C
102
{ACAD_XDICTIONARY
360
87B2C
102
}
102
{ACAD_REACTORS
330
4A38C
102
}
330
4A38C
100
AcDbVisualStyle
  2

 70
    16
 71
     2
 72
     2
 73
     3
 90
        0
 40
-0.6
 41
-30.0
 62
     5
 63
     8
 74
     1
 91
        4
 64
     7
 65
   257
 75
     1
175
     1
 42
1.0
 92
        8
 66
     8
 43
1.0
 76
     1
 77
     6
 78
     2
 67
     7
 79
     5
170
     0
171
     0
290
     0
174
     0
 93
        1
 44
0.0
173
     0
291
     1
 45
0.0
1001
ACAD
1000
AcDbSavedByObjectVersion
1070
     0
  0
VISUALSTYLE
  5
4A395
102
{ACAD_XDICTIONARY
360
87B1E
102
}
102
{ACAD_REACTORS
330
4A38C
102
}
330
4A38C
100
AcDbVisualStyle
  2

 70
     9
 71
     3
 72
     2
 73
     0
 90
        0
 40
-0.6
 41
-30.0
 62
     5
 63
     7
 74
     2
 91
        2
 64
     7
 65
   257
 75
     1
175
     1
 42
179.0
 92
        8
 66
     7
 43
1.0
 76
     1
 77
     6
 78
     2
 67
     7
 79
     3
170
     0
171
     0
290
     0
174
     0
 93
        1
 44
0.0
173
     0
291
     0
 45
0.0
1001
ACAD
1000
AcDbSavedByObjectVersion
1070
     0
  0
VISUALSTYLE
  5
4A397
102
{ACAD_XDICTIONARY
360
87B22
102
}
102
{ACAD_REACTORS
330
4A38C
102
}
330
4A38C
100
AcDbVisualStyle
  2

 70
    11
 71
     2
 72
     2
 73
     0
 90
        0
 40
-0.6
 41
-30.0
 62
     5
 63
     7
 74
     1
 91
        4
 64
     7
 65
   257
 75
     1
175
     1
 42
1.0
 92
        8
 66
     7
 43
1.0
 76
     1
 77
     6
 78
     2
 67
     7
 79
     5
170
     0
171
     0
290
     0
174
     0
 93
        1
 44
-50.0
173
     0
291
     1
 45
0.0
1001
ACAD
1000
AcDbSavedByObjectVersion
1070
     0
  0
VISUALSTYLE
  5
4A3A4
102
{ACAD_XDICTIONARY
360
87B3C
102
}
102
{ACAD_REACTORS
330
4A38C
102
}
330
4A38C
100
AcDbVisualStyle
  2

 70
    22
 71
     2
 72
     2
 73
     0
 90
        0
 40
-0.6
 41
-30.0
 62
     5
 63
     7
 74
     1
 91
        4
 64
     7
 65
   257
 75
     1
175
     1
 42
1.0
 92
        8
 66
     7
 43
1.0
 76
     1
 77
     6
 78
     2
 67
     7
 79
     5
170
     0
171
     0
290
     0
174
     0
 93
        1
 44
0.0
173
     0
291
     1
 45
0.0
1001
ACAD
1000
AcDbSavedByObjectVersion
1070
     0
  0
VISUALSTYLE
  5
4A39B
102
{ACAD_XDICTIONARY
360
87B2A
102
}
102
{ACAD_REACTORS
330
4A38C
102
}
330
4A38C
100
AcDbVisualStyle
  2

 70
    15
 71
     2
 72
     2
 73
     0
 90
        0
 40
-0.6
 41
-30.0
 62
     5
 63
     7
 74
     1
 91
        4
 64
     7
 65
   257
 75
     1
175
     1
 42
1.0
 92
        8
 66
     7
 43
1.0
 76
     1
 77
     6
 78
     2
 67
     7
 79
     5
170
     0
171
     0
290
     0
174
     0
 93
        1
 44
0.0
173
     0
291
     1
 45
0.0
1001
ACAD
1000
AcDbSavedByObjectVersion
1070
     0
  0
VISUALSTYLE
  5
4A38D
102
{ACAD_XDICTIONARY
360
87B0E
102
}
102
{ACAD_REACTORS
330
4A38C
102
}
330
4A38C
100
AcDbVisualStyle
  2

 70
     0
 71
     2
 72
     1
 73
     1
 90
        2
 40
-0.6
 41
30.0
 62
     5
 63
     7
 74
     0
 91
        0
 64
     7
 65
   257
 75
     1
175
     1
 42
1.0
 92
        8
 66
     7
 43
1.0
 76
     1
 77
     6
 78
     2
 67
     7
 79
     5
170
     0
171
     0
290
     0
174
     0
 93
       13
 44
0.0
173
     0
291
     1
 45
0.0
1001
ACAD
1000
AcDbSavedByObjectVersion
1070
     0
  0
VISUALSTYLE
  5
4A38E
102
{ACAD_XDICTIONARY
360
87B10
102
}
102
{ACAD_REACTORS
330
4A38C
102
}
330
4A38C
100
AcDbVisualStyle
  2

 70
     1
 71
     2
 72
     1
 73
     1
 90
        2
 40
-0.6
 41
30.0
 62
     5
 63
     7
 74
     1
 91
        0
 64
     7
 65
   257
 75
     1
175
     1
 42
1.0
 92
        0
 66
   257
 43
1.0
 76
     1
 77
     6
 78
     2
 67
     7
 79
     5
170
     0
171
     0
290
     0
174
     0
 93
       13
 44
0.0
173
     0
291
     1
 45
0.0
1001
ACAD
1000
AcDbSavedByObjectVersion
1070
     0
  0
VISUALSTYLE
  5
4A38F
102
{ACAD_XDICTIONARY
360
87B12
102
}
102
{ACAD_REACTORS
330
4A38C
102
}
330
4A38C
100
AcDbVisualStyle
  2

 70
     2
 71
     2
 72
     2
 73
     1
 90
        2
 40
-0.6
 41
30.0
 62
     5
 63
     7
 74
     0
 91
        0
 64
     7
 65
   257
 75
     1
175
     1
 42
1.0
 92
        0
 66
     7
 43
1.0
 76
     1
 77
     6
 78
     2
 67
     7
 79
     5
170
     0
171
     0
290
     0
174
     0
 93
       13
 44
0.0
173
     0
291
     1
 45
0.0
1001
ACAD
1000
AcDbSavedByObjectVersion
1070
     0
  0
VISUALSTYLE
  5
4A390
102
{ACAD_XDICTIONARY
360
87B14
102
}
102
{ACAD_REACTORS
330
4A38C
102
}
330
4A38C
100
AcDbVisualStyle
  2

 70
     3
 71
     2
 72
     2
 73
     1
 90
        2
 40
-0.6
 41
30.0
 62
     5
 63
     7
 74
     1
 91
        0
 64
     7
 65
   257
 75
     1
175
     1
 42
1.0
 92
        0
 66
   257
 43
1.0
 76
     1
 77
     6
 78
     2
 67
     7
 79
     5
170
     0
171
     0
290
     0
174
     0
 93
       13
 44
0.0
173
     0
291
     1
 45
0.0
1001
ACAD
1000
AcDbSavedByObjectVersion
1070
     0
  0
VISUALSTYLE
  5
4A394
102
{ACAD_XDICTIONARY
360
87B1C
102
}
102
{ACAD_REACTORS
330
4A38C
102
}
330
4A38C
100
AcDbVisualStyle
  2

 70
     6
 71
     1
 72
     2
 73
     2
 90
        0
 40
-0.6
 41
-30.0
 62
     5
 63
     7
 74
     2
 91
        2
 64
     7
 65
   257
 75
     2
175
     1
 42
40.0
 92
        0
 66
   257
 43
1.0
 76
     1
 77
     6
 78
     2
 67
     7
 79
     3
170
     0
171
     0
290
     0
174
     0
 93
        1
 44
0.0
173
     0
291
     0
 45
0.0
1001
ACAD
1000
AcDbSavedByObjectVersion
1070
     0
  0
VISUALSTYLE
  5
4A3A2
102
{ACAD_XDICTIONARY
360
87B38
102
}
102
{ACAD_REACTORS
330
4A38C
102
}
330
4A38C
100
AcDbVisualStyle
  2

 70
    20
 71
     2
 72
     2
 73
     0
 90
        0
 40
-0.6
 41
-30.0
 62
     5
 63
     7
 74
     1
 91
        4
 64
     7
 65
   257
 75
     1
175
     1
 42
1.0
 92
       10
 66
     7
 43
1.0
 76
     1
 77
     6
 78
     2
 67
     7
 79
     5
170
     0
171
     0
290
     0
174
     0
 93
        1
 44
0.0
173
     0
291
     1
 45
0.0
1001
ACAD
1000
AcDbSavedByObjectVersion
1070
     0
  0
VISUALSTYLE
  5
4A39A
102
{ACAD_XDICTIONARY
360
87B28
102
}
102
{ACAD_REACTORS
330
4A38C
102
}
330
4A38C
100
AcDbVisualStyle
  2

 70
    14
 71
     2
 72
     2
 73
     0
 90
        0
 40
-0.6
 41
-30.0
 62
     5
 63
     7
 74
     1
 91
        4
 64
     7
 65
   257
 75
     7
175
     7
 42
1.0
 92
        8
 66
     7
 43
1.0
 76
     1
 77
     6
 78
     2
 67
     7
 79
     5
170
     0
171
     0
290
     0
174
     0
 93
        1
 44
0.0
173
     0
291
     1
 45
0.0
1001
ACAD
1000
AcDbSavedByObjectVersion
1070
     0
  0
VISUALSTYLE
  5
4A3A3
102
{ACAD_XDICTIONARY
360
87B3A
102
}
102
{ACAD_REACTORS
330
4A38C
102
}
330
4A38C
100
AcDbVisualStyle
  2

 70
    21
 71
     2
 72
     2
 73
     0
 90
        0
 40
-0.6
 41
-30.0
 62
     5
 63
     7
 74
     1
 91
        4
 64
     7
 65
   257
 75
     1
175
     1
 42
1.0
 92
        9
 66
     7
 43
1.0
 76
     1
 77
     6
 78
     2
 67
     7
 79
     5
170
     0
171
     0
290
     0
174
     0
 93
        1
 44
0.0
173
     0
291
     1
 45
0.0
1001
ACAD
1000
AcDbSavedByObjectVersion
1070
     0
  0
VISUALSTYLE
  5
4A396
102
{ACAD_XDICTIONARY
360
87B20
102
}
102
{ACAD_REACTORS
330
4A38C
102
}
330
4A38C
100
AcDbVisualStyle
  2

 70
     8
 71
     2
 72
     3
 73
     0
 90
        2
 40
-0.6
 41
30.0
 62
     5
 63
     7
 74
     0
 91
        0
 64
     7
 65
   257
 75
     1
175
     1
 42
1.0
 92
        8
 66
   257
 43
1.0
 76
     1
 77
     6
 78
     2
 67
     7
 79
     3
170
     0
171
     0
290
     0
174
     0
 93
       13
 44
0.0
173
     0
291
     0
 45
0.0
1001
ACAD
1000
AcDbSavedByObjectVersion
1070
     0
  0
VISUALSTYLE
  5
4A3A1
102
{ACAD_XDICTIONARY
360
87B36
102
}
102
{ACAD_REACTORS
330
4A38C
102
}
330
4A38C
100
AcDbVisualStyle
  2

 70
    27
 71
     2
 72
     2
 73
     1
 90
        2
 40
-0.6
 41
30.0
 62
     5
 63
     7
 74
     0
 91
        4
 64
     7
 65
   257
 75
     1
175
     1
 42
1.0
 92
        8
 66
   257
 43
1.0
 76
     1
 77
     6
 78
     2
 67
     8
 79
     3
170
     0
171
     0
290
     0
174
     0
 93
        5
 44
0.0
173
     0
291
     0
 45
0.0
1001
ACAD
1000
AcDbSavedByObjectVersion
1070
     0
  0
VISUALSTYLE
  5
4A3A0
102
{ACAD_XDICTIONARY
360
87B34
102
}
102
{ACAD_REACTORS
330
4A38C
102
}
330
4A38C
100
AcDbVisualStyle
  2

 70
    26
 71
     2
 72
     2
 73
     1
 90
        2
 40
-0.6
 41
30.0
 62
     5
 63
     7
 74
     1
 91
        2
 64
     7
 65
   257
 75
     2
175
     1
 42
1.0
 92
        8
 66
   257
 43
1.0
 76
     1
 77
     6
 78
     2
 67
     7
 79
     3
170
     0
171
     0
290
     0
174
     0
 93
        5
 44
0.0
173
     0
291
     0
 45
0.0
1001
ACAD
1000
AcDbSavedByObjectVersion
1070
     0
  0
VISUALSTYLE
  5
4A39D
102
{ACAD_XDICTIONARY
360
87B2E
102
}
102
{ACAD_REACTORS
330
4A38C
102
}
330
4A38C
100
AcDbVisualStyle
  2

 70
    23
 71
     2
 72
     2
 73
     3
 90
        0
 40
-0.6
 41
-30.0
 62
     5
 63
     7
 74
     2
 91
        2
 64
     7
 65
     7
 75
     1
175
     1
 42
40.0
 92
        8
 66
     7
 43
1.0
 76
     1
 77
     6
 78
     2
 67
     7
 79
     3
170
     0
171
     0
290
     0
174
     0
 93
        1
 44
0.0
173
     0
291
     0
 45
0.0
1001
ACAD
1000
AcDbSavedByObjectVersion
1070
     0
  0
VISUALSTYLE
  5
4A39E
102
{ACAD_XDICTIONARY
360
87B30
102
}
102
{ACAD_REACTORS
330
4A38C
102
}
330
4A38C
100
AcDbVisualStyle
  2

 70
    24
 71
     1
 72
     2
 73
     2
 90
        0
 40
-0.6
 41
-30.0
 62
     5
 63
     7
 74
     2
 91
        2
 64
     7
 65
     7
 75
     1
175
     1
 42
40.0
 92
       11
 66
     7
 43
1.0
 76
     1
 77
     6
 78
     2
 67
     7
 79
     6
170
     0
171
     0
290
     0
174
     0
 93
        1
 44
0.0
173
     0
291
     0
 45
0.0
1001
ACAD
1000
AcDbSavedByObjectVersion
1070
     0
  0
VISUALSTYLE
  5
4A399
102
{ACAD_XDICTIONARY
360
87B26
102
}
102
{ACAD_REACTORS
330
4A38C
102
}
330
4A38C
100
AcDbVisualStyle
  2

 70
    13
 71
     2
 72
     2
 73
     0
 90
        0
 40
-0.6
 41
-30.0
 62
     5
 63
     7
 74
     1
 91
        4
 64
     7
 65
   257
 75
     1
175
     1
 42
1.0
 92
       12
 66
     7
 43
1.0
 76
     1
 77
     6
 78
     2
 67
     7
 79
     5
170
     0
171
     0
290
     0
174
     0
 93
        1
 44
0.0
173
     0
291
     1
 45
0.0
1001
ACAD
1000
AcDbSavedByObjectVersion
1070
     0
  0
VISUALSTYLE
  5
4A393
102
{ACAD_XDICTIONARY
360
87B1A
102
}
102
{ACAD_REACTORS
330
4A38C
102
}
330
4A38C
100
AcDbVisualStyle
  2

 70
     5
 71
     0
 72
     2
 73
     0
 90
        0
 40
-0.6
 41
-30.0
 62
     5
 63
     7
 74
     1
 91
        4
 64
     7
 65
   257
 75
     1
175
     1
 42
1.0
 92
        0
 66
   257
 43
1.0
 76
     1
 77
     6
 78
     2
 67
     7
 79
     3
170
     0
171
     0
290
     0
174
     0
 93
        1
 44
0.0
173
     0
291
     0
 45
0.0
1001
ACAD
1000
AcDbSavedByObjectVersion
1070
     0
  0
VISUALSTYLE
  5
4A39F
102
{ACAD_XDICTIONARY
360
87B32
102
}
102
{ACAD_REACTORS
330
4A38C
102
}
330
4A38C
100
AcDbVisualStyle
  2

 70
    25
 71
     2
 72
     2
 73
     1
 90
        1
 40
0.5
 41
-30.0
 62
     5
 63
     7
 74
     1
 91
        0
 64
     7
 65
   257
 75
     1
175
     1
 42
1.0
 92
        8
 66
     7
 43
1.0
 76
     1
 77
     6
 78
     2
 67
     7
 79
     3
170
     0
171
     0
290
     0
174
     0
 93
       13
 44
0.0
173
     0
291
     0
 45
0.0
1001
ACAD
1000
AcDbSavedByObjectVersion
1070
     0
  0
XRECORD
  5
95F18
102
{ACAD_REACTORS
330
95F17
102
}
330
95F17
100
AcDbXrecord
280
     1
340
85
  0
XRECORD
  5
95F19
102
{ACAD_REACTORS
330
95F17
102
}
330
95F17
100
AcDbXrecord
280
     1
340
84
  0
DICTIONARYVAR
  5
95EEB
102
{ACAD_REACTORS
330
5E
102
}
330
5E
100
DictionaryVariables
280
   100
  1
1:1
  0
DICTIONARYVAR
  5
4A6CE
102
{ACAD_REACTORS
330
5E
102
}
330
5E
100
DictionaryVariables
280
     0
  1
STANDARD
  0
DICTIONARYVAR
  5
B8
102
{ACAD_REACTORS
330
5E
102
}
330
5E
100
DictionaryVariables
280
     0
  1
STANDARD
  0
DICTIONARYVAR
  5
4A6CF
102
{ACAD_REACTORS
330
5E
102
}
330
5E
100
DictionaryVariables
280
     0
  1
Metric50
  0
DICTIONARYVAR
  5
4A6D0
102
{ACAD_REACTORS
330
5E
102
}
330
5E
100
DictionaryVariables
280
     0
  1
Metric50
  0
DICTIONARYVAR
  5
5F
102
{ACAD_REACTORS
330
5E
102
}
330
5E
100
DictionaryVariables
280
     0
  1
2
  0
DICTIONARYVAR
  5
63
102
{ACAD_REACTORS
330
5E
102
}
330
5E
100
DictionaryVariables
280
     0
  1
1
  0
DICTIONARYVAR
  5
4A879
102
{ACAD_REACTORS
330
5E
102
}
330
5E
100
DictionaryVariables
280
     0
  1
0
  0
DICTIONARYVAR
  5
4A6D4
102
{ACAD_REACTORS
330
5E
102
}
330
5E
100
DictionaryVariables
280
     0
  1
1
  0
DICTIONARYVAR
  5
4A6D5
102
{ACAD_REACTORS
330
5E
102
}
330
5E
100
DictionaryVariables
280
     0
  1
15
  0
DICTIONARYVAR
  5
4A6D3
102
{ACAD_REACTORS
330
5E
102
}
330
5E
100
DictionaryVariables
280
     0
  1
0
  0
DICTIONARYVAR
  5
4A6D1
102
{ACAD_REACTORS
330
5E
102
}
330
5E
100
DictionaryVariables
280
     0
  1
0
  0
DICTIONARYVAR
  5
31CE
102
{ACAD_REACTORS
330
5E
102
}
330
5E
100
DictionaryVariables
280
     0
  1

  0
DICTIONARYVAR
  5
4A878
102
{ACAD_REACTORS
330
5E
102
}
330
5E
100
DictionaryVariables
280
     0
  1
127
  0
DICTIONARYVAR
  5
87AF9
102
{ACAD_REACTORS
330
5E
102
}
330
5E
100
DictionaryVariables
280
     0
  1
2
  0
XRECORD
  5
349EA
102
{ACAD_REACTORS
330
349E9
102
}
330
349E9
100
AcDbXrecord
280
     1
330
0
330
0
330
0
330
0
330
0
330
0
330
0
330
0
330
0
330
0
330
0
330
0
330
0
330
0
330
0
330
0
330
0
330
0
330
0
330
0
330
0
330
0
330
0
330
0
330
0
330
0
330
0
330
0
330
0
330
0
330
0
330
0
330
0
330
0
330
0
330
0
330
0
330
0
330
0
330
0
330
0
330
0
330
0
330
0
330
0
330
0
330
0
330
0
330
0
330
0
330
0
330
0
330
0
330
0
330
0
330
0
330
0
330
0
330
0
330
0
330
0
330
0
330
0
330
0
330
0
330
0
330
0
330
0
330
0
330
0
330
0
330
0
330
0
330
0
330
0
330
0
330
0
330
0
330
0
330
0
330
0
330
0
330
0
330
0
330
0
330
0
330
0
330
0
330
0
330
0
330
0
330
0
330
0
330
0
330
0
330
0
330
0
330
0
330
0
330
0
330
0
330
0
330
0
330
0
330
0
330
0
330
0
330
0
330
0
330
0
  0
DICTIONARY
  5
87B40
330
4A3BC
100
AcDbDictionary
280
     1
281
     1
  3
ACAD_XREC_ROUNDTRIP
360
87B41
  0
DICTIONARY
  5
4A37D
330
4A37C
100
AcDbDictionary
280
     1
281
     1
  3
ACAD_XREC_ROUNDTRIP
360
95F24
  0
DICTIONARY
  5
4A375
330
4A374
100
AcDbDictionary
280
     1
281
     1
  3
ACAD_XREC_ROUNDTRIP
360
95F25
  0
DICTIONARY
  5
4A385
330
4A384
100
AcDbDictionary
280
     1
281
     1
  3
ACAD_XREC_ROUNDTRIP
360
95F26
  0
DICTIONARY
  5
8C353
330
4A3B8
100
AcDbDictionary
280
     1
281
     1
  3
ACAD_XREC_ROUNDTRIP
360
95F27
  0
DICTIONARY
  5
87B3E
330
4A3BA
100
AcDbDictionary
280
     1
281
     1
  3
ACAD_XREC_ROUNDTRIP
360
87B3F
  0
DICTIONARY
  5
4CD9A
330
A2
100
AcDbDictionary
280
     1
281
     1
  3
ACAD_ROUNDTRIP_2008_TABLESTYLE_CELLSTYLEMAP
360
95F29
  3
ACAD_XREC_ROUNDTRIP
360
95F28
  0
DICTIONARY
  5
87B18
330
4A392
100
AcDbDictionary
280
     1
281
     1
  3
ACAD_XREC_ROUNDTRIP
360
95F2A
  0
DICTIONARY
  5
87B16
330
4A391
100
AcDbDictionary
280
     1
281
     1
  3
ACAD_XREC_ROUNDTRIP
360
95F2B
  0
DICTIONARY
  5
87B24
330
4A398
100
AcDbDictionary
280
     1
281
     1
  3
ACAD_XREC_ROUNDTRIP
360
95F2C
  0
DICTIONARY
  5
87B2C
330
4A39C
100
AcDbDictionary
280
     1
281
     1
  3
ACAD_XREC_ROUNDTRIP
360
95F2D
  0
DICTIONARY
  5
87B1E
330
4A395
100
AcDbDictionary
280
     1
281
     1
  3
ACAD_XREC_ROUNDTRIP
360
95F2E
  0
DICTIONARY
  5
87B22
330
4A397
100
AcDbDictionary
280
     1
281
     1
  3
ACAD_XREC_ROUNDTRIP
360
95F2F
  0
DICTIONARY
  5
87B3C
330
4A3A4
100
AcDbDictionary
280
     1
281
     1
  3
ACAD_XREC_ROUNDTRIP
360
95F30
  0
DICTIONARY
  5
87B2A
330
4A39B
100
AcDbDictionary
280
     1
281
     1
  3
ACAD_XREC_ROUNDTRIP
360
95F31
  0
DICTIONARY
  5
87B0E
330
4A38D
100
AcDbDictionary
280
     1
281
     1
  3
ACAD_XREC_ROUNDTRIP
360
95F32
  0
DICTIONARY
  5
87B10
330
4A38E
100
AcDbDictionary
280
     1
281
     1
  3
ACAD_XREC_ROUNDTRIP
360
95F33
  0
DICTIONARY
  5
87B12
330
4A38F
100
AcDbDictionary
280
     1
281
     1
  3
ACAD_XREC_ROUNDTRIP
360
95F34
  0
DICTIONARY
  5
87B14
330
4A390
100
AcDbDictionary
280
     1
281
     1
  3
ACAD_XREC_ROUNDTRIP
360
95F35
  0
DICTIONARY
  5
87B1C
330
4A394
100
AcDbDictionary
280
     1
281
     1
  3
ACAD_XREC_ROUNDTRIP
360
95F36
  0
DICTIONARY
  5
87B38
330
4A3A2
100
AcDbDictionary
280
     1
281
     1
  3
ACAD_XREC_ROUNDTRIP
360
95F37
  0
DICTIONARY
  5
87B28
330
4A39A
100
AcDbDictionary
280
     1
281
     1
  3
ACAD_XREC_ROUNDTRIP
360
95F38
  0
DICTIONARY
  5
87B3A
330
4A3A3
100
AcDbDictionary
280
     1
281
     1
  3
ACAD_XREC_ROUNDTRIP
360
95F39
  0
DICTIONARY
  5
87B20
330
4A396
100
AcDbDictionary
280
     1
281
     1
  3
ACAD_XREC_ROUNDTRIP
360
95F3A
  0
DICTIONARY
  5
87B36
330
4A3A1
100
AcDbDictionary
280
     1
281
     1
  3
ACAD_XREC_ROUNDTRIP
360
95F3B
  0
DICTIONARY
  5
87B34
330
4A3A0
100
AcDbDictionary
280
     1
281
     1
  3
ACAD_XREC_ROUNDTRIP
360
95F3C
  0
DICTIONARY
  5
87B2E
330
4A39D
100
AcDbDictionary
280
     1
281
     1
  3
ACAD_XREC_ROUNDTRIP
360
95F3D
  0
DICTIONARY
  5
87B30
330
4A39E
100
AcDbDictionary
280
     1
281
     1
  3
ACAD_XREC_ROUNDTRIP
360
95F3E
  0
DICTIONARY
  5
87B26
330
4A399
100
AcDbDictionary
280
     1
281
     1
  3
ACAD_XREC_ROUNDTRIP
360
95F3F
  0
DICTIONARY
  5
87B1A
330
4A393
100
AcDbDictionary
280
     1
281
     1
  3
ACAD_XREC_ROUNDTRIP
360
95F40
  0
DICTIONARY
  5
87B32
330
4A39F
100
AcDbDictionary
280
     1
281
     1
  3
ACAD_XREC_ROUNDTRIP
360
95F41
  0
XRECORD
  5
87B41
102
{ACAD_REACTORS
330
87B40
102
}
330
87B40
100
AcDbXrecord
280
     1
102
DISPLAYNAME
  1
Metric50
102
FLAGS
 90
        0
  0
XRECORD
  5
95F24
102
{ACAD_REACTORS
330
4A37D
102
}
330
4A37D
100
AcDbXrecord
280
     1
102
MATERIAL
148
0.0
149
0.0
149
0.0
 93
        0
 94
      127
282
     0
 72
     0
 77
     0
171
     0
175
     0
179
     0
273
     0
  0
XRECORD
  5
95F25
102
{ACAD_REACTORS
330
4A375
102
}
330
4A375
100
AcDbXrecord
280
     1
102
MATERIAL
148
0.0
149
0.0
149
0.0
 93
        0
 94
      127
282
     0
 72
     0
 77
     0
171
     0
175
     0
179
     0
273
     0
  0
XRECORD
  5
95F26
102
{ACAD_REACTORS
330
4A385
102
}
330
4A385
100
AcDbXrecord
280
     1
102
MATERIAL
148
0.0
149
0.0
149
0.0
 93
        0
 94
      127
282
     0
 72
     0
 77
     0
171
     0
175
     0
179
     0
273
     0
  0
XRECORD
  5
95F27
102
{ACAD_REACTORS
330
8C353
102
}
330
8C353
100
AcDbXrecord
280
     1
102
ACAD_ROUNDTRIP_2010_MLEADER_STYLE
  0
XRECORD
  5
87B3F
102
{ACAD_REACTORS
330
87B3E
102
}
330
87B3E
100
AcDbXrecord
280
     1
102
DISPLAYNAME
  1
Metric50
102
FLAGS
 90
        0
  0
CELLSTYLEMAP
  5
95F29
102
{ACAD_REACTORS
330
4CD9A
102
}
330
4CD9A
100
AcDbCellStyleMap
 90
        3
300
CELLSTYLE
  1
TABLEFORMAT_BEGIN
 90
        5
170
     1
 91
        0
 92
    32768
 62
   257
 93
        1
300
CONTENTFORMAT
  1
CONTENTFORMAT_BEGIN
 90
        0
 91
        0
 92
        4
 93
        0
300

 40
0.0
140
1.0
 94
        5
 62
     0
340
11
144
6.0
309
CONTENTFORMAT_END
171
     1
301
MARGIN
  1
CELLMARGIN_BEGIN
 40
1.5
 40
1.5
 40
1.5
 40
1.5
 40
0.18
 40
0.18
309
CELLMARGIN_END
 94
        6
 95
        1
302
GRIDFORMAT
  1
GRIDFORMAT_BEGIN
 90
        0
 91
        1
 62
     0
 92
       -2
340
0
 93
        0
 40
0.045
309
GRIDFORMAT_END
 95
        2
302
GRIDFORMAT
  1
GRIDFORMAT_BEGIN
 90
        0
 91
        1
 62
     0
 92
       -2
340
0
 93
        0
 40
0.045
309
GRIDFORMAT_END
 95
        4
302
GRIDFORMAT
  1
GRIDFORMAT_BEGIN
 90
        0
 91
        1
 62
     0
 92
       -2
340
0
 93
        0
 40
0.045
309
GRIDFORMAT_END
 95
        8
302
GRIDFORMAT
  1
GRIDFORMAT_BEGIN
 90
        0
 91
        1
 62
     0
 92
       -2
340
0
 93
        0
 40
0.045
309
GRIDFORMAT_END
 95
       16
302
GRIDFORMAT
  1
GRIDFORMAT_BEGIN
 90
        0
 91
        1
 62
     0
 92
       -2
340
0
 93
        0
 40
0.045
309
GRIDFORMAT_END
 95
       32
302
GRIDFORMAT
  1
GRIDFORMAT_BEGIN
 90
        0
 91
        1
 62
     0
 92
       -2
340
0
 93
        0
 40
0.045
309
GRIDFORMAT_END
309
TABLEFORMAT_END
  1
CELLSTYLE_BEGIN
 90
        1
 91
        1
300
_TITLE
309
CELLSTYLE_END
300
CELLSTYLE
  1
TABLEFORMAT_BEGIN
 90
        5
170
     1
 91
        0
 92
        0
 62
   257
 93
        1
300
CONTENTFORMAT
  1
CONTENTFORMAT_BEGIN
 90
        0
 91
        0
 92
        4
 93
        0
300

 40
0.0
140
1.0
 94
        5
 62
     0
340
11
144
4.5
309
CONTENTFORMAT_END
171
     1
301
MARGIN
  1
CELLMARGIN_BEGIN
 40
1.5
 40
1.5
 40
1.5
 40
1.5
 40
0.18
 40
0.18
309
CELLMARGIN_END
 94
        6
 95
        1
302
GRIDFORMAT
  1
GRIDFORMAT_BEGIN
 90
        0
 91
        1
 62
     0
 92
       -2
340
0
 93
        0
 40
0.045
309
GRIDFORMAT_END
 95
        2
302
GRIDFORMAT
  1
GRIDFORMAT_BEGIN
 90
        0
 91
        1
 62
     0
 92
       -2
340
0
 93
        0
 40
0.045
309
GRIDFORMAT_END
 95
        4
302
GRIDFORMAT
  1
GRIDFORMAT_BEGIN
 90
        0
 91
        1
 62
     0
 92
       -2
340
0
 93
        0
 40
0.045
309
GRIDFORMAT_END
 95
        8
302
GRIDFORMAT
  1
GRIDFORMAT_BEGIN
 90
        0
 91
        1
 62
     0
 92
       -2
340
0
 93
        0
 40
0.045
309
GRIDFORMAT_END
 95
       16
302
GRIDFORMAT
  1
GRIDFORMAT_BEGIN
 90
        0
 91
        1
 62
     0
 92
       -2
340
0
 93
        0
 40
0.045
309
GRIDFORMAT_END
 95
       32
302
GRIDFORMAT
  1
GRIDFORMAT_BEGIN
 90
        0
 91
        1
 62
     0
 92
       -2
340
0
 93
        0
 40
0.045
309
GRIDFORMAT_END
309
TABLEFORMAT_END
  1
CELLSTYLE_BEGIN
 90
        2
 91
        1
300
_HEADER
309
CELLSTYLE_END
300
CELLSTYLE
  1
TABLEFORMAT_BEGIN
 90
        5
170
     1
 91
        0
 92
        0
 62
   257
 93
        1
300
CONTENTFORMAT
  1
CONTENTFORMAT_BEGIN
 90
        0
 91
        0
 92
        4
 93
        0
300

 40
0.0
140
1.0
 94
        2
 62
     0
340
11
144
4.5
309
CONTENTFORMAT_END
171
     1
301
MARGIN
  1
CELLMARGIN_BEGIN
 40
1.5
 40
1.5
 40
1.5
 40
1.5
 40
0.18
 40
0.18
309
CELLMARGIN_END
 94
        6
 95
        1
302
GRIDFORMAT
  1
GRIDFORMAT_BEGIN
 90
        0
 91
        1
 62
     0
 92
       -2
340
0
 93
        0
 40
0.045
309
GRIDFORMAT_END
 95
        2
302
GRIDFORMAT
  1
GRIDFORMAT_BEGIN
 90
        0
 91
        1
 62
     0
 92
       -2
340
0
 93
        0
 40
0.045
309
GRIDFORMAT_END
 95
        4
302
GRIDFORMAT
  1
GRIDFORMAT_BEGIN
 90
        0
 91
        1
 62
     0
 92
       -2
340
0
 93
        0
 40
0.045
309
GRIDFORMAT_END
 95
        8
302
GRIDFORMAT
  1
GRIDFORMAT_BEGIN
 90
        0
 91
        1
 62
     0
 92
       -2
340
0
 93
        0
 40
0.045
309
GRIDFORMAT_END
 95
       16
302
GRIDFORMAT
  1
GRIDFORMAT_BEGIN
 90
        0
 91
        1
 62
     0
 92
       -2
340
0
 93
        0
 40
0.045
309
GRIDFORMAT_END
 95
       32
302
GRIDFORMAT
  1
GRIDFORMAT_BEGIN
 90
        0
 91
        1
 62
     0
 92
       -2
340
0
 93
        0
 40
0.045
309
GRIDFORMAT_END
309
TABLEFORMAT_END
  1
CELLSTYLE_BEGIN
 90
        3
 91
        2
300
_DATA
309
CELLSTYLE_END
  0
XRECORD
  5
95F28
102
{ACAD_REACTORS
330
4CD9A
102
}
330
4CD9A
100
AcDbXrecord
280
     1
102
ACAD_ROUNDTRIP_PRE2007_TABLESTYLE
 90
        4
 91
        0
  1

 92
        4
 93
        0
  2

 94
        4
 95
        0
  3

  0
XRECORD
  5
95F2A
102
{ACAD_REACTORS
330
87B18
102
}
330
87B18
100
AcDbXrecord
280
     1
102
RTVSPropertyOp0
 70
     1
102
RTVSPropertyOp1
 70
     1
102
RTVSPropertyOp2
 70
     1
102
RTVSPropertyOp3
 70
     1
102
RTVSPropertyOp4
 70
     1
102
RTVSPropertyOp5
 70
     1
102
RTVSPropertyOp6
 70
     1
102
RTVSPropertyOp7
 70
     1
102
RTVSPropertyOp8
 70
     1
102
RTVSPropertyOp9
 70
     1
102
RTVSPropertyOp10
 70
     1
102
RTVSPropertyOp11
 70
     1
102
RTVSPropertyOp12
 70
     1
102
RTVSPropertyOp13
 70
     1
102
RTVSPropertyOp14
 70
     1
102
RTVSPropertyOp15
 70
     1
102
RTVSPropertyOp16
 70
     1
102
RTVSPropertyOp17
 70
     1
102
RTVSPropertyOp18
 70
     1
102
RTVSPropertyOp19
 70
     1
102
RTVSPropertyOp20
 70
     1
102
RTVSPropertyOp21
 70
     1
102
RTVSPropertyOp22
 70
     1
102
RTVSPropertyOp23
 70
     1
102
RTVSPropertyOp24
 70
     1
102
RTVSPropertyOp25
 70
     1
102
RTVSPropertyOp26
 70
     1
102
RTVSPropertyOp27
 70
     1
102
RTVSPropertyOp28
 70
     1
102
RTVSPropertyOp29
 70
     1
102
RTVSPropertyOp30
 70
     1
102
RTVSPropertyOp31
 70
     1
102
RTVSPropertyOp32
 70
     1
102
RTVSPropertyOp33
 70
     1
102
RTVSPropertyOp34
 70
     1
102
RTVSPropertyOp35
 70
     1
102
RTVSPropertyOp36
 70
     1
102
RTVSPropertyOp37
 70
     1
102
RTVSPropertyOp38
 70
     1
102
RTVSPropertyOp39
 70
     1
102
RTVSPropertyOp40
 70
     1
102
RTVSPropertyOp41
 70
     1
102
RTVSPropertyOp42
 70
     1
102
RTVSPropertyOp43
 70
     1
102
RTVSPropertyOp44
 70
     1
102
RTVSPropertyOp45
 70
     1
102
RTVSPropertyOp46
 70
     1
102
RTVSPropertyOp47
 70
     1
102
RTVSPropertyOp48
 70
     1
102
RTVSPropertyOp49
 70
     1
102
RTVSPropertyOp50
 70
     1
102
RTVSPropertyOp51
 70
     0
102
RTVSPropertyOp52
 70
     0
102
RTVSPropertyOp53
 70
     1
102
RTVSPropertyOp54
 70
     1
102
RTVSPropertyOp55
 70
     1
102
RTVSPropertyOp56
 70
     1
102
RTVSPropertyOp57
 70
     1
102
RTVSPost2010Prop28
280
     1
102
RTVSPost2010PropOp28
 70
     1
102
RTVSPost2010Prop29
280
     1
102
RTVSPost2010PropOp29
 70
     1
102
RTVSPost2010Prop30
280
     0
102
RTVSPost2010PropOp30
 70
     1
102
RTVSPost2010Prop31
280
     0
102
RTVSPost2010PropOp31
 70
     1
102
RTVSPost2010Prop32
280
     0
102
RTVSPost2010PropOp32
 70
     1
102
RTVSPost2010Prop33
280
     0
102
RTVSPost2010PropOp33
 70
     1
102
RTVSPost2010Prop34
280
     0
102
RTVSPost2010PropOp34
 70
     1
102
RTVSPost2010Prop35
280
     0
102
RTVSPost2010PropOp35
 70
     1
102
RTVSPost2010Prop36
280
     0
102
RTVSPost2010PropOp36
 70
     1
102
RTVSPost2010Prop37
 90
       50
102
RTVSPost2010PropOp37
 70
     1
102
RTVSPost2010Prop38
140
0.0
102
RTVSPost2010PropOp38
 70
     1
102
RTVSPost2010Prop39
140
1.0
102
RTVSPost2010PropOp39
 70
     1
102
RTVSPost2010Prop40
 90
        0
102
RTVSPost2010PropOp40
 70
     1
102
RTVSPost2010Prop41ColorIndex
 90
       18
102
RTVSPost2010Prop41ColorRGB
 90
        0
102
RTVSPost2010PropOp41
 70
     1
102
RTVSPost2010Prop42
 90
       50
102
RTVSPost2010PropOp42
 70
     1
102
RTVSPost2010Prop43
 90
        3
102
RTVSPost2010PropOp43
 70
     1
102
RTVSPost2010Prop44ColorIndex
 90
        5
102
RTVSPost2010Prop44ColorRGB
 90
      255
102
RTVSPost2010PropOp44
 70
     1
102
RTVSPost2010Prop45
280
     0
102
RTVSPost2010PropOp45
 70
     1
102
RTVSPost2010Prop46
 90
       50
102
RTVSPost2010PropOp46
 70
     1
102
RTVSPost2010Prop47
 90
       50
102
RTVSPost2010PropOp47
 70
     1
102
RTVSPost2010Prop48
 90
       50
102
RTVSPost2010PropOp48
 70
     1
102
RTVSPost2010Prop49
280
     0
102
RTVSPost2010PropOp49
 70
     1
102
RTVSPost2010Prop50
 90
       50
102
RTVSPost2010PropOp50
 70
     1
102
RTVSPost2010Prop51ColorIndex
 90
      256
102
RTVSPost2010Prop51ColorRGB
 90
-16777216
102
RTVSPost2010PropOp51
 70
     0
102
RTVSPost2010Prop52
140
1.0
102
RTVSPost2010PropOp52
 70
     0
102
RTVSPost2010Prop53
 90
        2
102
RTVSPost2010PropOp53
 70
     1
102
RTVSPost2010Prop54
  1
strokes_ogs.tif
102
RTVSPost2010PropOp54
 70
     1
102
RTVSPost2010Prop55
280
     0
102
RTVSPost2010PropOp55
 70
     1
102
RTVSPost2010Prop56
140
1.0
102
RTVSPost2010PropOp56
 70
     1
102
RTVSPost2010Prop57
140
1.0
102
RTVSPost2010PropOp57
 70
     1
  0
XRECORD
  5
95F2B
102
{ACAD_REACTORS
330
87B16
102
}
330
87B16
100
AcDbXrecord
280
     1
102
RTVSPropertyOp0
 70
     1
102
RTVSPropertyOp1
 70
     1
102
RTVSPropertyOp2
 70
     1
102
RTVSPropertyOp3
 70
     1
102
RTVSPropertyOp4
 70
     1
102
RTVSPropertyOp5
 70
     1
102
RTVSPropertyOp6
 70
     1
102
RTVSPropertyOp7
 70
     1
102
RTVSPropertyOp8
 70
     1
102
RTVSPropertyOp9
 70
     1
102
RTVSPropertyOp10
 70
     1
102
RTVSPropertyOp11
 70
     1
102
RTVSPropertyOp12
 70
     1
102
RTVSPropertyOp13
 70
     1
102
RTVSPropertyOp14
 70
     1
102
RTVSPropertyOp15
 70
     1
102
RTVSPropertyOp16
 70
     1
102
RTVSPropertyOp17
 70
     1
102
RTVSPropertyOp18
 70
     1
102
RTVSPropertyOp19
 70
     1
102
RTVSPropertyOp20
 70
     1
102
RTVSPropertyOp21
 70
     1
102
RTVSPropertyOp22
 70
     1
102
RTVSPropertyOp23
 70
     1
102
RTVSPropertyOp24
 70
     1
102
RTVSPropertyOp25
 70
     1
102
RTVSPropertyOp26
 70
     1
102
RTVSPropertyOp27
 70
     1
102
RTVSPropertyOp28
 70
     1
102
RTVSPropertyOp29
 70
     1
102
RTVSPropertyOp30
 70
     1
102
RTVSPropertyOp31
 70
     1
102
RTVSPropertyOp32
 70
     1
102
RTVSPropertyOp33
 70
     1
102
RTVSPropertyOp34
 70
     1
102
RTVSPropertyOp35
 70
     1
102
RTVSPropertyOp36
 70
     1
102
RTVSPropertyOp37
 70
     1
102
RTVSPropertyOp38
 70
     1
102
RTVSPropertyOp39
 70
     1
102
RTVSPropertyOp40
 70
     1
102
RTVSPropertyOp41
 70
     1
102
RTVSPropertyOp42
 70
     1
102
RTVSPropertyOp43
 70
     1
102
RTVSPropertyOp44
 70
     1
102
RTVSPropertyOp45
 70
     1
102
RTVSPropertyOp46
 70
     1
102
RTVSPropertyOp47
 70
     1
102
RTVSPropertyOp48
 70
     1
102
RTVSPropertyOp49
 70
     1
102
RTVSPropertyOp50
 70
     1
102
RTVSPropertyOp51
 70
     0
102
RTVSPropertyOp52
 70
     0
102
RTVSPropertyOp53
 70
     1
102
RTVSPropertyOp54
 70
     1
102
RTVSPropertyOp55
 70
     1
102
RTVSPropertyOp56
 70
     1
102
RTVSPropertyOp57
 70
     1
102
RTVSPost2010Prop28
280
     0
102
RTVSPost2010PropOp28
 70
     1
102
RTVSPost2010Prop29
280
     1
102
RTVSPost2010PropOp29
 70
     1
102
RTVSPost2010Prop30
280
     1
102
RTVSPost2010PropOp30
 70
     1
102
RTVSPost2010Prop31
280
     0
102
RTVSPost2010PropOp31
 70
     1
102
RTVSPost2010Prop32
280
     0
102
RTVSPost2010PropOp32
 70
     1
102
RTVSPost2010Prop33
280
     0
102
RTVSPost2010PropOp33
 70
     1
102
RTVSPost2010Prop34
280
     0
102
RTVSPost2010PropOp34
 70
     1
102
RTVSPost2010Prop35
280
     0
102
RTVSPost2010PropOp35
 70
     1
102
RTVSPost2010Prop36
280
     0
102
RTVSPost2010PropOp36
 70
     1
102
RTVSPost2010Prop37
 90
       50
102
RTVSPost2010PropOp37
 70
     1
102
RTVSPost2010Prop38
140
0.0
102
RTVSPost2010PropOp38
 70
     1
102
RTVSPost2010Prop39
140
1.0
102
RTVSPost2010PropOp39
 70
     1
102
RTVSPost2010Prop40
 90
        0
102
RTVSPost2010PropOp40
 70
     1
102
RTVSPost2010Prop41ColorIndex
 90
       18
102
RTVSPost2010Prop41ColorRGB
 90
        0
102
RTVSPost2010PropOp41
 70
     1
102
RTVSPost2010Prop42
 90
       50
102
RTVSPost2010PropOp42
 70
     1
102
RTVSPost2010Prop43
 90
        3
102
RTVSPost2010PropOp43
 70
     1
102
RTVSPost2010Prop44ColorIndex
 90
        5
102
RTVSPost2010Prop44ColorRGB
 90
      255
102
RTVSPost2010PropOp44
 70
     1
102
RTVSPost2010Prop45
280
     0
102
RTVSPost2010PropOp45
 70
     1
102
RTVSPost2010Prop46
 90
       50
102
RTVSPost2010PropOp46
 70
     1
102
RTVSPost2010Prop47
 90
       50
102
RTVSPost2010PropOp47
 70
     1
102
RTVSPost2010Prop48
 90
       50
102
RTVSPost2010PropOp48
 70
     1
102
RTVSPost2010Prop49
280
     0
102
RTVSPost2010PropOp49
 70
     1
102
RTVSPost2010Prop50
 90
       50
102
RTVSPost2010PropOp50
 70
     1
102
RTVSPost2010Prop51ColorIndex
 90
      256
102
RTVSPost2010Prop51ColorRGB
 90
-16777216
102
RTVSPost2010PropOp51
 70
     0
102
RTVSPost2010Prop52
140
1.0
102
RTVSPost2010PropOp52
 70
     0
102
RTVSPost2010Prop53
 90
        2
102
RTVSPost2010PropOp53
 70
     1
102
RTVSPost2010Prop54
  1
strokes_ogs.tif
102
RTVSPost2010PropOp54
 70
     1
102
RTVSPost2010Prop55
280
     0
102
RTVSPost2010PropOp55
 70
     1
102
RTVSPost2010Prop56
140
1.0
102
RTVSPost2010PropOp56
 70
     1
102
RTVSPost2010Prop57
140
1.0
102
RTVSPost2010PropOp57
 70
     1
  0
XRECORD
  5
95F2C
102
{ACAD_REACTORS
330
87B24
102
}
330
87B24
100
AcDbXrecord
280
     1
102
RTVSPropertyOp0
 70
     1
102
RTVSPropertyOp1
 70
     1
102
RTVSPropertyOp2
 70
     1
102
RTVSPropertyOp3
 70
     1
102
RTVSPropertyOp4
 70
     1
102
RTVSPropertyOp5
 70
     1
102
RTVSPropertyOp6
 70
     1
102
RTVSPropertyOp7
 70
     1
102
RTVSPropertyOp8
 70
     1
102
RTVSPropertyOp9
 70
     1
102
RTVSPropertyOp10
 70
     1
102
RTVSPropertyOp11
 70
     1
102
RTVSPropertyOp12
 70
     1
102
RTVSPropertyOp13
 70
     1
102
RTVSPropertyOp14
 70
     1
102
RTVSPropertyOp15
 70
     1
102
RTVSPropertyOp16
 70
     1
102
RTVSPropertyOp17
 70
     1
102
RTVSPropertyOp18
 70
     1
102
RTVSPropertyOp19
 70
     1
102
RTVSPropertyOp20
 70
     1
102
RTVSPropertyOp21
 70
     1
102
RTVSPropertyOp22
 70
     1
102
RTVSPropertyOp23
 70
     1
102
RTVSPropertyOp24
 70
     1
102
RTVSPropertyOp25
 70
     1
102
RTVSPropertyOp26
 70
     1
102
RTVSPropertyOp27
 70
     1
102
RTVSPropertyOp28
 70
     1
102
RTVSPropertyOp29
 70
     1
102
RTVSPropertyOp30
 70
     1
102
RTVSPropertyOp31
 70
     1
102
RTVSPropertyOp32
 70
     1
102
RTVSPropertyOp33
 70
     1
102
RTVSPropertyOp34
 70
     1
102
RTVSPropertyOp35
 70
     1
102
RTVSPropertyOp36
 70
     1
102
RTVSPropertyOp37
 70
     1
102
RTVSPropertyOp38
 70
     1
102
RTVSPropertyOp39
 70
     1
102
RTVSPropertyOp40
 70
     1
102
RTVSPropertyOp41
 70
     1
102
RTVSPropertyOp42
 70
     1
102
RTVSPropertyOp43
 70
     1
102
RTVSPropertyOp44
 70
     1
102
RTVSPropertyOp45
 70
     1
102
RTVSPropertyOp46
 70
     1
102
RTVSPropertyOp47
 70
     1
102
RTVSPropertyOp48
 70
     1
102
RTVSPropertyOp49
 70
     1
102
RTVSPropertyOp50
 70
     1
102
RTVSPropertyOp51
 70
     0
102
RTVSPropertyOp52
 70
     0
102
RTVSPropertyOp53
 70
     1
102
RTVSPropertyOp54
 70
     1
102
RTVSPropertyOp55
 70
     1
102
RTVSPropertyOp56
 70
     1
102
RTVSPropertyOp57
 70
     1
102
RTVSPost2010Prop28
280
     0
102
RTVSPost2010PropOp28
 70
     1
102
RTVSPost2010Prop29
280
     1
102
RTVSPost2010PropOp29
 70
     1
102
RTVSPost2010Prop30
280
     1
102
RTVSPost2010PropOp30
 70
     1
102
RTVSPost2010Prop31
280
     0
102
RTVSPost2010PropOp31
 70
     1
102
RTVSPost2010Prop32
280
     0
102
RTVSPost2010PropOp32
 70
     1
102
RTVSPost2010Prop33
280
     0
102
RTVSPost2010PropOp33
 70
     1
102
RTVSPost2010Prop34
280
     0
102
RTVSPost2010PropOp34
 70
     1
102
RTVSPost2010Prop35
280
     0
102
RTVSPost2010PropOp35
 70
     1
102
RTVSPost2010Prop36
280
     0
102
RTVSPost2010PropOp36
 70
     1
102
RTVSPost2010Prop37
 90
       50
102
RTVSPost2010PropOp37
 70
     1
102
RTVSPost2010Prop38
140
0.0
102
RTVSPost2010PropOp38
 70
     1
102
RTVSPost2010Prop39
140
1.0
102
RTVSPost2010PropOp39
 70
     1
102
RTVSPost2010Prop40
 90
        0
102
RTVSPost2010PropOp40
 70
     1
102
RTVSPost2010Prop41ColorIndex
 90
       18
102
RTVSPost2010Prop41ColorRGB
 90
        0
102
RTVSPost2010PropOp41
 70
     1
102
RTVSPost2010Prop42
 90
       50
102
RTVSPost2010PropOp42
 70
     1
102
RTVSPost2010Prop43
 90
        3
102
RTVSPost2010PropOp43
 70
     1
102
RTVSPost2010Prop44ColorIndex
 90
        5
102
RTVSPost2010Prop44ColorRGB
 90
      255
102
RTVSPost2010PropOp44
 70
     1
102
RTVSPost2010Prop45
280
     0
102
RTVSPost2010PropOp45
 70
     1
102
RTVSPost2010Prop46
 90
       50
102
RTVSPost2010PropOp46
 70
     1
102
RTVSPost2010Prop47
 90
       50
102
RTVSPost2010PropOp47
 70
     1
102
RTVSPost2010Prop48
 90
       50
102
RTVSPost2010PropOp48
 70
     1
102
RTVSPost2010Prop49
280
     0
102
RTVSPost2010PropOp49
 70
     1
102
RTVSPost2010Prop50
 90
       50
102
RTVSPost2010PropOp50
 70
     1
102
RTVSPost2010Prop51ColorIndex
 90
      256
102
RTVSPost2010Prop51ColorRGB
 90
-16777216
102
RTVSPost2010PropOp51
 70
     0
102
RTVSPost2010Prop52
140
1.0
102
RTVSPost2010PropOp52
 70
     0
102
RTVSPost2010Prop53
 90
        2
102
RTVSPost2010PropOp53
 70
     1
102
RTVSPost2010Prop54
  1
strokes_ogs.tif
102
RTVSPost2010PropOp54
 70
     1
102
RTVSPost2010Prop55
280
     0
102
RTVSPost2010PropOp55
 70
     1
102
RTVSPost2010Prop56
140
1.0
102
RTVSPost2010PropOp56
 70
     1
102
RTVSPost2010Prop57
140
1.0
102
RTVSPost2010PropOp57
 70
     1
  0
XRECORD
  5
95F2D
102
{ACAD_REACTORS
330
87B2C
102
}
330
87B2C
100
AcDbXrecord
280
     1
102
RTVSPropertyOp0
 70
     1
102
RTVSPropertyOp1
 70
     1
102
RTVSPropertyOp2
 70
     1
102
RTVSPropertyOp3
 70
     1
102
RTVSPropertyOp4
 70
     1
102
RTVSPropertyOp5
 70
     1
102
RTVSPropertyOp6
 70
     1
102
RTVSPropertyOp7
 70
     1
102
RTVSPropertyOp8
 70
     1
102
RTVSPropertyOp9
 70
     1
102
RTVSPropertyOp10
 70
     1
102
RTVSPropertyOp11
 70
     1
102
RTVSPropertyOp12
 70
     1
102
RTVSPropertyOp13
 70
     1
102
RTVSPropertyOp14
 70
     1
102
RTVSPropertyOp15
 70
     1
102
RTVSPropertyOp16
 70
     1
102
RTVSPropertyOp17
 70
     1
102
RTVSPropertyOp18
 70
     1
102
RTVSPropertyOp19
 70
     1
102
RTVSPropertyOp20
 70
     1
102
RTVSPropertyOp21
 70
     1
102
RTVSPropertyOp22
 70
     1
102
RTVSPropertyOp23
 70
     1
102
RTVSPropertyOp24
 70
     1
102
RTVSPropertyOp25
 70
     1
102
RTVSPropertyOp26
 70
     1
102
RTVSPropertyOp27
 70
     1
102
RTVSPropertyOp28
 70
     1
102
RTVSPropertyOp29
 70
     1
102
RTVSPropertyOp30
 70
     1
102
RTVSPropertyOp31
 70
     1
102
RTVSPropertyOp32
 70
     1
102
RTVSPropertyOp33
 70
     1
102
RTVSPropertyOp34
 70
     1
102
RTVSPropertyOp35
 70
     1
102
RTVSPropertyOp36
 70
     1
102
RTVSPropertyOp37
 70
     1
102
RTVSPropertyOp38
 70
     1
102
RTVSPropertyOp39
 70
     1
102
RTVSPropertyOp40
 70
     1
102
RTVSPropertyOp41
 70
     1
102
RTVSPropertyOp42
 70
     1
102
RTVSPropertyOp43
 70
     1
102
RTVSPropertyOp44
 70
     1
102
RTVSPropertyOp45
 70
     1
102
RTVSPropertyOp46
 70
     1
102
RTVSPropertyOp47
 70
     1
102
RTVSPropertyOp48
 70
     1
102
RTVSPropertyOp49
 70
     1
102
RTVSPropertyOp50
 70
     1
102
RTVSPropertyOp51
 70
     0
102
RTVSPropertyOp52
 70
     0
102
RTVSPropertyOp53
 70
     1
102
RTVSPropertyOp54
 70
     1
102
RTVSPropertyOp55
 70
     1
102
RTVSPropertyOp56
 70
     1
102
RTVSPropertyOp57
 70
     1
102
RTVSPost2010Prop28
280
     0
102
RTVSPost2010PropOp28
 70
     1
102
RTVSPost2010Prop29
280
     1
102
RTVSPost2010PropOp29
 70
     1
102
RTVSPost2010Prop30
280
     1
102
RTVSPost2010PropOp30
 70
     1
102
RTVSPost2010Prop31
280
     0
102
RTVSPost2010PropOp31
 70
     1
102
RTVSPost2010Prop32
280
     0
102
RTVSPost2010PropOp32
 70
     1
102
RTVSPost2010Prop33
280
     0
102
RTVSPost2010PropOp33
 70
     1
102
RTVSPost2010Prop34
280
     0
102
RTVSPost2010PropOp34
 70
     1
102
RTVSPost2010Prop35
280
     0
102
RTVSPost2010PropOp35
 70
     1
102
RTVSPost2010Prop36
280
     0
102
RTVSPost2010PropOp36
 70
     1
102
RTVSPost2010Prop37
 90
       50
102
RTVSPost2010PropOp37
 70
     1
102
RTVSPost2010Prop38
140
0.0
102
RTVSPost2010PropOp38
 70
     1
102
RTVSPost2010Prop39
140
1.0
102
RTVSPost2010PropOp39
 70
     1
102
RTVSPost2010Prop40
 90
        0
102
RTVSPost2010PropOp40
 70
     1
102
RTVSPost2010Prop41ColorIndex
 90
       18
102
RTVSPost2010Prop41ColorRGB
 90
        0
102
RTVSPost2010PropOp41
 70
     1
102
RTVSPost2010Prop42
 90
       50
102
RTVSPost2010PropOp42
 70
     1
102
RTVSPost2010Prop43
 90
        3
102
RTVSPost2010PropOp43
 70
     1
102
RTVSPost2010Prop44ColorIndex
 90
        5
102
RTVSPost2010Prop44ColorRGB
 90
      255
102
RTVSPost2010PropOp44
 70
     1
102
RTVSPost2010Prop45
280
     0
102
RTVSPost2010PropOp45
 70
     1
102
RTVSPost2010Prop46
 90
       50
102
RTVSPost2010PropOp46
 70
     1
102
RTVSPost2010Prop47
 90
       50
102
RTVSPost2010PropOp47
 70
     1
102
RTVSPost2010Prop48
 90
       50
102
RTVSPost2010PropOp48
 70
     1
102
RTVSPost2010Prop49
280
     0
102
RTVSPost2010PropOp49
 70
     1
102
RTVSPost2010Prop50
 90
       50
102
RTVSPost2010PropOp50
 70
     1
102
RTVSPost2010Prop51ColorIndex
 90
      256
102
RTVSPost2010Prop51ColorRGB
 90
-16777216
102
RTVSPost2010PropOp51
 70
     0
102
RTVSPost2010Prop52
140
1.0
102
RTVSPost2010PropOp52
 70
     0
102
RTVSPost2010Prop53
 90
        2
102
RTVSPost2010PropOp53
 70
     1
102
RTVSPost2010Prop54
  1
strokes_ogs.tif
102
RTVSPost2010PropOp54
 70
     1
102
RTVSPost2010Prop55
280
     0
102
RTVSPost2010PropOp55
 70
     1
102
RTVSPost2010Prop56
140
1.0
102
RTVSPost2010PropOp56
 70
     1
102
RTVSPost2010Prop57
140
1.0
102
RTVSPost2010PropOp57
 70
     1
  0
XRECORD
  5
95F2E
102
{ACAD_REACTORS
330
87B1E
102
}
330
87B1E
100
AcDbXrecord
280
     1
102
RTVSPropertyOp0
 70
     1
102
RTVSPropertyOp1
 70
     1
102
RTVSPropertyOp2
 70
     1
102
RTVSPropertyOp3
 70
     1
102
RTVSPropertyOp4
 70
     1
102
RTVSPropertyOp5
 70
     1
102
RTVSPropertyOp6
 70
     1
102
RTVSPropertyOp7
 70
     1
102
RTVSPropertyOp8
 70
     1
102
RTVSPropertyOp9
 70
     1
102
RTVSPropertyOp10
 70
     1
102
RTVSPropertyOp11
 70
     1
102
RTVSPropertyOp12
 70
     1
102
RTVSPropertyOp13
 70
     1
102
RTVSPropertyOp14
 70
     1
102
RTVSPropertyOp15
 70
     1
102
RTVSPropertyOp16
 70
     1
102
RTVSPropertyOp17
 70
     1
102
RTVSPropertyOp18
 70
     1
102
RTVSPropertyOp19
 70
     1
102
RTVSPropertyOp20
 70
     1
102
RTVSPropertyOp21
 70
     1
102
RTVSPropertyOp22
 70
     1
102
RTVSPropertyOp23
 70
     1
102
RTVSPropertyOp24
 70
     1
102
RTVSPropertyOp25
 70
     1
102
RTVSPropertyOp26
 70
     1
102
RTVSPropertyOp27
 70
     1
102
RTVSPropertyOp28
 70
     1
102
RTVSPropertyOp29
 70
     1
102
RTVSPropertyOp30
 70
     1
102
RTVSPropertyOp31
 70
     1
102
RTVSPropertyOp32
 70
     1
102
RTVSPropertyOp33
 70
     1
102
RTVSPropertyOp34
 70
     1
102
RTVSPropertyOp35
 70
     1
102
RTVSPropertyOp36
 70
     1
102
RTVSPropertyOp37
 70
     1
102
RTVSPropertyOp38
 70
     1
102
RTVSPropertyOp39
 70
     1
102
RTVSPropertyOp40
 70
     1
102
RTVSPropertyOp41
 70
     1
102
RTVSPropertyOp42
 70
     1
102
RTVSPropertyOp43
 70
     1
102
RTVSPropertyOp44
 70
     1
102
RTVSPropertyOp45
 70
     1
102
RTVSPropertyOp46
 70
     1
102
RTVSPropertyOp47
 70
     1
102
RTVSPropertyOp48
 70
     1
102
RTVSPropertyOp49
 70
     1
102
RTVSPropertyOp50
 70
     1
102
RTVSPropertyOp51
 70
     0
102
RTVSPropertyOp52
 70
     0
102
RTVSPropertyOp53
 70
     1
102
RTVSPropertyOp54
 70
     1
102
RTVSPropertyOp55
 70
     1
102
RTVSPropertyOp56
 70
     1
102
RTVSPropertyOp57
 70
     1
102
RTVSPost2010Prop28
280
     0
102
RTVSPost2010PropOp28
 70
     1
102
RTVSPost2010Prop29
280
     1
102
RTVSPost2010PropOp29
 70
     1
102
RTVSPost2010Prop30
280
     1
102
RTVSPost2010PropOp30
 70
     1
102
RTVSPost2010Prop31
280
     0
102
RTVSPost2010PropOp31
 70
     1
102
RTVSPost2010Prop32
280
     0
102
RTVSPost2010PropOp32
 70
     1
102
RTVSPost2010Prop33
280
     0
102
RTVSPost2010PropOp33
 70
     1
102
RTVSPost2010Prop34
280
     0
102
RTVSPost2010PropOp34
 70
     1
102
RTVSPost2010Prop35
280
     0
102
RTVSPost2010PropOp35
 70
     1
102
RTVSPost2010Prop36
280
     0
102
RTVSPost2010PropOp36
 70
     1
102
RTVSPost2010Prop37
 90
       50
102
RTVSPost2010PropOp37
 70
     1
102
RTVSPost2010Prop38
140
0.0
102
RTVSPost2010PropOp38
 70
     1
102
RTVSPost2010Prop39
140
1.0
102
RTVSPost2010PropOp39
 70
     1
102
RTVSPost2010Prop40
 90
        0
102
RTVSPost2010PropOp40
 70
     1
102
RTVSPost2010Prop41ColorIndex
 90
       18
102
RTVSPost2010Prop41ColorRGB
 90
        0
102
RTVSPost2010PropOp41
 70
     1
102
RTVSPost2010Prop42
 90
       50
102
RTVSPost2010PropOp42
 70
     1
102
RTVSPost2010Prop43
 90
        3
102
RTVSPost2010PropOp43
 70
     1
102
RTVSPost2010Prop44ColorIndex
 90
        5
102
RTVSPost2010Prop44ColorRGB
 90
      255
102
RTVSPost2010PropOp44
 70
     1
102
RTVSPost2010Prop45
280
     0
102
RTVSPost2010PropOp45
 70
     1
102
RTVSPost2010Prop46
 90
       50
102
RTVSPost2010PropOp46
 70
     1
102
RTVSPost2010Prop47
 90
       50
102
RTVSPost2010PropOp47
 70
     1
102
RTVSPost2010Prop48
 90
       50
102
RTVSPost2010PropOp48
 70
     1
102
RTVSPost2010Prop49
280
     0
102
RTVSPost2010PropOp49
 70
     1
102
RTVSPost2010Prop50
 90
       50
102
RTVSPost2010PropOp50
 70
     1
102
RTVSPost2010Prop51ColorIndex
 90
      256
102
RTVSPost2010Prop51ColorRGB
 90
-16777216
102
RTVSPost2010PropOp51
 70
     0
102
RTVSPost2010Prop52
140
1.0
102
RTVSPost2010PropOp52
 70
     0
102
RTVSPost2010Prop53
 90
        2
102
RTVSPost2010PropOp53
 70
     1
102
RTVSPost2010Prop54
  1
strokes_ogs.tif
102
RTVSPost2010PropOp54
 70
     1
102
RTVSPost2010Prop55
280
     0
102
RTVSPost2010PropOp55
 70
     1
102
RTVSPost2010Prop56
140
1.0
102
RTVSPost2010PropOp56
 70
     1
102
RTVSPost2010Prop57
140
1.0
102
RTVSPost2010PropOp57
 70
     1
  0
XRECORD
  5
95F2F
102
{ACAD_REACTORS
330
87B22
102
}
330
87B22
100
AcDbXrecord
280
     1
102
RTVSPropertyOp0
 70
     1
102
RTVSPropertyOp1
 70
     1
102
RTVSPropertyOp2
 70
     1
102
RTVSPropertyOp3
 70
     1
102
RTVSPropertyOp4
 70
     1
102
RTVSPropertyOp5
 70
     1
102
RTVSPropertyOp6
 70
     1
102
RTVSPropertyOp7
 70
     1
102
RTVSPropertyOp8
 70
     1
102
RTVSPropertyOp9
 70
     1
102
RTVSPropertyOp10
 70
     1
102
RTVSPropertyOp11
 70
     1
102
RTVSPropertyOp12
 70
     1
102
RTVSPropertyOp13
 70
     1
102
RTVSPropertyOp14
 70
     1
102
RTVSPropertyOp15
 70
     1
102
RTVSPropertyOp16
 70
     1
102
RTVSPropertyOp17
 70
     1
102
RTVSPropertyOp18
 70
     1
102
RTVSPropertyOp19
 70
     1
102
RTVSPropertyOp20
 70
     1
102
RTVSPropertyOp21
 70
     1
102
RTVSPropertyOp22
 70
     1
102
RTVSPropertyOp23
 70
     1
102
RTVSPropertyOp24
 70
     1
102
RTVSPropertyOp25
 70
     1
102
RTVSPropertyOp26
 70
     1
102
RTVSPropertyOp27
 70
     1
102
RTVSPropertyOp28
 70
     1
102
RTVSPropertyOp29
 70
     1
102
RTVSPropertyOp30
 70
     1
102
RTVSPropertyOp31
 70
     1
102
RTVSPropertyOp32
 70
     1
102
RTVSPropertyOp33
 70
     1
102
RTVSPropertyOp34
 70
     1
102
RTVSPropertyOp35
 70
     1
102
RTVSPropertyOp36
 70
     1
102
RTVSPropertyOp37
 70
     1
102
RTVSPropertyOp38
 70
     1
102
RTVSPropertyOp39
 70
     1
102
RTVSPropertyOp40
 70
     1
102
RTVSPropertyOp41
 70
     1
102
RTVSPropertyOp42
 70
     1
102
RTVSPropertyOp43
 70
     1
102
RTVSPropertyOp44
 70
     1
102
RTVSPropertyOp45
 70
     1
102
RTVSPropertyOp46
 70
     1
102
RTVSPropertyOp47
 70
     1
102
RTVSPropertyOp48
 70
     1
102
RTVSPropertyOp49
 70
     1
102
RTVSPropertyOp50
 70
     1
102
RTVSPropertyOp51
 70
     0
102
RTVSPropertyOp52
 70
     0
102
RTVSPropertyOp53
 70
     1
102
RTVSPropertyOp54
 70
     1
102
RTVSPropertyOp55
 70
     1
102
RTVSPropertyOp56
 70
     1
102
RTVSPropertyOp57
 70
     1
102
RTVSPost2010Prop28
280
     0
102
RTVSPost2010PropOp28
 70
     1
102
RTVSPost2010Prop29
280
     1
102
RTVSPost2010PropOp29
 70
     1
102
RTVSPost2010Prop30
280
     1
102
RTVSPost2010PropOp30
 70
     1
102
RTVSPost2010Prop31
280
     0
102
RTVSPost2010PropOp31
 70
     1
102
RTVSPost2010Prop32
280
     0
102
RTVSPost2010PropOp32
 70
     1
102
RTVSPost2010Prop33
280
     0
102
RTVSPost2010PropOp33
 70
     1
102
RTVSPost2010Prop34
280
     0
102
RTVSPost2010PropOp34
 70
     1
102
RTVSPost2010Prop35
280
     0
102
RTVSPost2010PropOp35
 70
     1
102
RTVSPost2010Prop36
280
     0
102
RTVSPost2010PropOp36
 70
     1
102
RTVSPost2010Prop37
 90
       50
102
RTVSPost2010PropOp37
 70
     1
102
RTVSPost2010Prop38
140
0.0
102
RTVSPost2010PropOp38
 70
     1
102
RTVSPost2010Prop39
140
1.0
102
RTVSPost2010PropOp39
 70
     1
102
RTVSPost2010Prop40
 90
        0
102
RTVSPost2010PropOp40
 70
     1
102
RTVSPost2010Prop41ColorIndex
 90
       18
102
RTVSPost2010Prop41ColorRGB
 90
        0
102
RTVSPost2010PropOp41
 70
     1
102
RTVSPost2010Prop42
 90
       50
102
RTVSPost2010PropOp42
 70
     1
102
RTVSPost2010Prop43
 90
        3
102
RTVSPost2010PropOp43
 70
     1
102
RTVSPost2010Prop44ColorIndex
 90
        5
102
RTVSPost2010Prop44ColorRGB
 90
      255
102
RTVSPost2010PropOp44
 70
     1
102
RTVSPost2010Prop45
280
     0
102
RTVSPost2010PropOp45
 70
     1
102
RTVSPost2010Prop46
 90
       50
102
RTVSPost2010PropOp46
 70
     1
102
RTVSPost2010Prop47
 90
       50
102
RTVSPost2010PropOp47
 70
     1
102
RTVSPost2010Prop48
 90
       50
102
RTVSPost2010PropOp48
 70
     1
102
RTVSPost2010Prop49
280
     0
102
RTVSPost2010PropOp49
 70
     1
102
RTVSPost2010Prop50
 90
       50
102
RTVSPost2010PropOp50
 70
     1
102
RTVSPost2010Prop51ColorIndex
 90
      256
102
RTVSPost2010Prop51ColorRGB
 90
-16777216
102
RTVSPost2010PropOp51
 70
     0
102
RTVSPost2010Prop52
140
1.0
102
RTVSPost2010PropOp52
 70
     0
102
RTVSPost2010Prop53
 90
        2
102
RTVSPost2010PropOp53
 70
     1
102
RTVSPost2010Prop54
  1
strokes_ogs.tif
102
RTVSPost2010PropOp54
 70
     1
102
RTVSPost2010Prop55
280
     0
102
RTVSPost2010PropOp55
 70
     1
102
RTVSPost2010Prop56
140
1.0
102
RTVSPost2010PropOp56
 70
     1
102
RTVSPost2010Prop57
140
1.0
102
RTVSPost2010PropOp57
 70
     1
  0
XRECORD
  5
95F30
102
{ACAD_REACTORS
330
87B3C
102
}
330
87B3C
100
AcDbXrecord
280
     1
102
RTVSPropertyOp0
 70
     0
102
RTVSPropertyOp1
 70
     0
102
RTVSPropertyOp2
 70
     0
102
RTVSPropertyOp3
 70
     0
102
RTVSPropertyOp4
 70
     0
102
RTVSPropertyOp5
 70
     0
102
RTVSPropertyOp6
 70
     0
102
RTVSPropertyOp7
 70
     0
102
RTVSPropertyOp8
 70
     0
102
RTVSPropertyOp9
 70
     0
102
RTVSPropertyOp10
 70
     0
102
RTVSPropertyOp11
 70
     0
102
RTVSPropertyOp12
 70
     0
102
RTVSPropertyOp13
 70
     0
102
RTVSPropertyOp14
 70
     2
102
RTVSPropertyOp15
 70
     0
102
RTVSPropertyOp16
 70
     0
102
RTVSPropertyOp17
 70
     0
102
RTVSPropertyOp18
 70
     0
102
RTVSPropertyOp19
 70
     0
102
RTVSPropertyOp20
 70
     0
102
RTVSPropertyOp21
 70
     0
102
RTVSPropertyOp22
 70
     0
102
RTVSPropertyOp23
 70
     0
102
RTVSPropertyOp24
 70
     0
102
RTVSPropertyOp25
 70
     0
102
RTVSPropertyOp26
 70
     0
102
RTVSPropertyOp27
 70
     0
102
RTVSPropertyOp28
 70
     1
102
RTVSPropertyOp29
 70
     1
102
RTVSPropertyOp30
 70
     1
102
RTVSPropertyOp31
 70
     1
102
RTVSPropertyOp32
 70
     1
102
RTVSPropertyOp33
 70
     1
102
RTVSPropertyOp34
 70
     1
102
RTVSPropertyOp35
 70
     1
102
RTVSPropertyOp36
 70
     1
102
RTVSPropertyOp37
 70
     0
102
RTVSPropertyOp38
 70
     0
102
RTVSPropertyOp39
 70
     0
102
RTVSPropertyOp40
 70
     0
102
RTVSPropertyOp41
 70
     0
102
RTVSPropertyOp42
 70
     0
102
RTVSPropertyOp43
 70
     0
102
RTVSPropertyOp44
 70
     0
102
RTVSPropertyOp45
 70
     1
102
RTVSPropertyOp46
 70
     0
102
RTVSPropertyOp47
 70
     0
102
RTVSPropertyOp48
 70
     0
102
RTVSPropertyOp49
 70
     1
102
RTVSPropertyOp50
 70
     0
102
RTVSPropertyOp51
 70
     0
102
RTVSPropertyOp52
 70
     0
102
RTVSPropertyOp53
 70
     0
102
RTVSPropertyOp54
 70
     0
102
RTVSPropertyOp55
 70
     1
102
RTVSPropertyOp56
 70
     0
102
RTVSPropertyOp57
 70
     0
102
RTVSPost2010Prop28
280
     0
102
RTVSPost2010PropOp28
 70
     1
102
RTVSPost2010Prop29
280
     1
102
RTVSPost2010PropOp29
 70
     1
102
RTVSPost2010Prop30
280
     1
102
RTVSPost2010PropOp30
 70
     1
102
RTVSPost2010Prop31
280
     0
102
RTVSPost2010PropOp31
 70
     1
102
RTVSPost2010Prop32
280
     0
102
RTVSPost2010PropOp32
 70
     1
102
RTVSPost2010Prop33
280
     0
102
RTVSPost2010PropOp33
 70
     1
102
RTVSPost2010Prop34
280
     0
102
RTVSPost2010PropOp34
 70
     1
102
RTVSPost2010Prop35
280
     0
102
RTVSPost2010PropOp35
 70
     1
102
RTVSPost2010Prop36
280
     0
102
RTVSPost2010PropOp36
 70
     1
102
RTVSPost2010Prop37
 90
       50
102
RTVSPost2010PropOp37
 70
     0
102
RTVSPost2010Prop38
140
0.0
102
RTVSPost2010PropOp38
 70
     0
102
RTVSPost2010Prop39
140
1.0
102
RTVSPost2010PropOp39
 70
     0
102
RTVSPost2010Prop40
 90
        0
102
RTVSPost2010PropOp40
 70
     0
102
RTVSPost2010Prop41ColorIndex
 90
       18
102
RTVSPost2010Prop41ColorRGB
 90
        0
102
RTVSPost2010PropOp41
 70
     0
102
RTVSPost2010Prop42
 90
       50
102
RTVSPost2010PropOp42
 70
     0
102
RTVSPost2010Prop43
 90
        3
102
RTVSPost2010PropOp43
 70
     0
102
RTVSPost2010Prop44ColorIndex
 90
        5
102
RTVSPost2010Prop44ColorRGB
 90
      255
102
RTVSPost2010PropOp44
 70
     0
102
RTVSPost2010Prop45
280
     0
102
RTVSPost2010PropOp45
 70
     1
102
RTVSPost2010Prop46
 90
       50
102
RTVSPost2010PropOp46
 70
     0
102
RTVSPost2010Prop47
 90
       50
102
RTVSPost2010PropOp47
 70
     0
102
RTVSPost2010Prop48
 90
       50
102
RTVSPost2010PropOp48
 70
     0
102
RTVSPost2010Prop49
280
     0
102
RTVSPost2010PropOp49
 70
     1
102
RTVSPost2010Prop50
 90
       50
102
RTVSPost2010PropOp50
 70
     0
102
RTVSPost2010Prop51ColorIndex
 90
      256
102
RTVSPost2010Prop51ColorRGB
 90
-16777216
102
RTVSPost2010PropOp51
 70
     0
102
RTVSPost2010Prop52
140
1.0
102
RTVSPost2010PropOp52
 70
     0
102
RTVSPost2010Prop53
 90
        2
102
RTVSPost2010PropOp53
 70
     0
102
RTVSPost2010Prop54
  1
strokes_ogs.tif
102
RTVSPost2010PropOp54
 70
     0
102
RTVSPost2010Prop55
280
     0
102
RTVSPost2010PropOp55
 70
     1
102
RTVSPost2010Prop56
140
1.0
102
RTVSPost2010PropOp56
 70
     0
102
RTVSPost2010Prop57
140
1.0
102
RTVSPost2010PropOp57
 70
     0
  0
XRECORD
  5
95F31
102
{ACAD_REACTORS
330
87B2A
102
}
330
87B2A
100
AcDbXrecord
280
     1
102
RTVSPropertyOp0
 70
     1
102
RTVSPropertyOp1
 70
     1
102
RTVSPropertyOp2
 70
     1
102
RTVSPropertyOp3
 70
     1
102
RTVSPropertyOp4
 70
     1
102
RTVSPropertyOp5
 70
     1
102
RTVSPropertyOp6
 70
     1
102
RTVSPropertyOp7
 70
     1
102
RTVSPropertyOp8
 70
     1
102
RTVSPropertyOp9
 70
     1
102
RTVSPropertyOp10
 70
     1
102
RTVSPropertyOp11
 70
     1
102
RTVSPropertyOp12
 70
     1
102
RTVSPropertyOp13
 70
     1
102
RTVSPropertyOp14
 70
     1
102
RTVSPropertyOp15
 70
     1
102
RTVSPropertyOp16
 70
     1
102
RTVSPropertyOp17
 70
     1
102
RTVSPropertyOp18
 70
     1
102
RTVSPropertyOp19
 70
     1
102
RTVSPropertyOp20
 70
     1
102
RTVSPropertyOp21
 70
     1
102
RTVSPropertyOp22
 70
     1
102
RTVSPropertyOp23
 70
     1
102
RTVSPropertyOp24
 70
     1
102
RTVSPropertyOp25
 70
     1
102
RTVSPropertyOp26
 70
     1
102
RTVSPropertyOp27
 70
     1
102
RTVSPropertyOp28
 70
     1
102
RTVSPropertyOp29
 70
     1
102
RTVSPropertyOp30
 70
     1
102
RTVSPropertyOp31
 70
     1
102
RTVSPropertyOp32
 70
     1
102
RTVSPropertyOp33
 70
     1
102
RTVSPropertyOp34
 70
     1
102
RTVSPropertyOp35
 70
     1
102
RTVSPropertyOp36
 70
     1
102
RTVSPropertyOp37
 70
     1
102
RTVSPropertyOp38
 70
     1
102
RTVSPropertyOp39
 70
     1
102
RTVSPropertyOp40
 70
     1
102
RTVSPropertyOp41
 70
     1
102
RTVSPropertyOp42
 70
     1
102
RTVSPropertyOp43
 70
     1
102
RTVSPropertyOp44
 70
     1
102
RTVSPropertyOp45
 70
     1
102
RTVSPropertyOp46
 70
     1
102
RTVSPropertyOp47
 70
     1
102
RTVSPropertyOp48
 70
     1
102
RTVSPropertyOp49
 70
     1
102
RTVSPropertyOp50
 70
     1
102
RTVSPropertyOp51
 70
     0
102
RTVSPropertyOp52
 70
     0
102
RTVSPropertyOp53
 70
     1
102
RTVSPropertyOp54
 70
     1
102
RTVSPropertyOp55
 70
     1
102
RTVSPropertyOp56
 70
     1
102
RTVSPropertyOp57
 70
     1
102
RTVSPost2010Prop28
280
     0
102
RTVSPost2010PropOp28
 70
     1
102
RTVSPost2010Prop29
280
     1
102
RTVSPost2010PropOp29
 70
     1
102
RTVSPost2010Prop30
280
     1
102
RTVSPost2010PropOp30
 70
     1
102
RTVSPost2010Prop31
280
     0
102
RTVSPost2010PropOp31
 70
     1
102
RTVSPost2010Prop32
280
     0
102
RTVSPost2010PropOp32
 70
     1
102
RTVSPost2010Prop33
280
     0
102
RTVSPost2010PropOp33
 70
     1
102
RTVSPost2010Prop34
280
     0
102
RTVSPost2010PropOp34
 70
     1
102
RTVSPost2010Prop35
280
     0
102
RTVSPost2010PropOp35
 70
     1
102
RTVSPost2010Prop36
280
     0
102
RTVSPost2010PropOp36
 70
     1
102
RTVSPost2010Prop37
 90
       50
102
RTVSPost2010PropOp37
 70
     1
102
RTVSPost2010Prop38
140
0.0
102
RTVSPost2010PropOp38
 70
     1
102
RTVSPost2010Prop39
140
1.0
102
RTVSPost2010PropOp39
 70
     1
102
RTVSPost2010Prop40
 90
        0
102
RTVSPost2010PropOp40
 70
     1
102
RTVSPost2010Prop41ColorIndex
 90
       18
102
RTVSPost2010Prop41ColorRGB
 90
        0
102
RTVSPost2010PropOp41
 70
     1
102
RTVSPost2010Prop42
 90
       50
102
RTVSPost2010PropOp42
 70
     1
102
RTVSPost2010Prop43
 90
        3
102
RTVSPost2010PropOp43
 70
     1
102
RTVSPost2010Prop44ColorIndex
 90
        5
102
RTVSPost2010Prop44ColorRGB
 90
      255
102
RTVSPost2010PropOp44
 70
     1
102
RTVSPost2010Prop45
280
     0
102
RTVSPost2010PropOp45
 70
     1
102
RTVSPost2010Prop46
 90
       50
102
RTVSPost2010PropOp46
 70
     1
102
RTVSPost2010Prop47
 90
       50
102
RTVSPost2010PropOp47
 70
     1
102
RTVSPost2010Prop48
 90
       50
102
RTVSPost2010PropOp48
 70
     1
102
RTVSPost2010Prop49
280
     0
102
RTVSPost2010PropOp49
 70
     1
102
RTVSPost2010Prop50
 90
       50
102
RTVSPost2010PropOp50
 70
     1
102
RTVSPost2010Prop51ColorIndex
 90
      256
102
RTVSPost2010Prop51ColorRGB
 90
-16777216
102
RTVSPost2010PropOp51
 70
     0
102
RTVSPost2010Prop52
140
1.0
102
RTVSPost2010PropOp52
 70
     0
102
RTVSPost2010Prop53
 90
        2
102
RTVSPost2010PropOp53
 70
     1
102
RTVSPost2010Prop54
  1
strokes_ogs.tif
102
RTVSPost2010PropOp54
 70
     1
102
RTVSPost2010Prop55
280
     0
102
RTVSPost2010PropOp55
 70
     1
102
RTVSPost2010Prop56
140
1.0
102
RTVSPost2010PropOp56
 70
     1
102
RTVSPost2010Prop57
140
1.0
102
RTVSPost2010PropOp57
 70
     1
  0
XRECORD
  5
95F32
102
{ACAD_REACTORS
330
87B0E
102
}
330
87B0E
100
AcDbXrecord
280
     1
102
RTVSPropertyOp0
 70
     1
102
RTVSPropertyOp1
 70
     1
102
RTVSPropertyOp2
 70
     1
102
RTVSPropertyOp3
 70
     1
102
RTVSPropertyOp4
 70
     1
102
RTVSPropertyOp5
 70
     1
102
RTVSPropertyOp6
 70
     1
102
RTVSPropertyOp7
 70
     1
102
RTVSPropertyOp8
 70
     1
102
RTVSPropertyOp9
 70
     1
102
RTVSPropertyOp10
 70
     1
102
RTVSPropertyOp11
 70
     1
102
RTVSPropertyOp12
 70
     1
102
RTVSPropertyOp13
 70
     1
102
RTVSPropertyOp14
 70
     1
102
RTVSPropertyOp15
 70
     1
102
RTVSPropertyOp16
 70
     1
102
RTVSPropertyOp17
 70
     1
102
RTVSPropertyOp18
 70
     1
102
RTVSPropertyOp19
 70
     1
102
RTVSPropertyOp20
 70
     1
102
RTVSPropertyOp21
 70
     1
102
RTVSPropertyOp22
 70
     1
102
RTVSPropertyOp23
 70
     1
102
RTVSPropertyOp24
 70
     1
102
RTVSPropertyOp25
 70
     1
102
RTVSPropertyOp26
 70
     1
102
RTVSPropertyOp27
 70
     1
102
RTVSPropertyOp28
 70
     1
102
RTVSPropertyOp29
 70
     1
102
RTVSPropertyOp30
 70
     1
102
RTVSPropertyOp31
 70
     1
102
RTVSPropertyOp32
 70
     1
102
RTVSPropertyOp33
 70
     1
102
RTVSPropertyOp34
 70
     1
102
RTVSPropertyOp35
 70
     1
102
RTVSPropertyOp36
 70
     1
102
RTVSPropertyOp37
 70
     1
102
RTVSPropertyOp38
 70
     1
102
RTVSPropertyOp39
 70
     1
102
RTVSPropertyOp40
 70
     1
102
RTVSPropertyOp41
 70
     1
102
RTVSPropertyOp42
 70
     1
102
RTVSPropertyOp43
 70
     1
102
RTVSPropertyOp44
 70
     1
102
RTVSPropertyOp45
 70
     1
102
RTVSPropertyOp46
 70
     1
102
RTVSPropertyOp47
 70
     1
102
RTVSPropertyOp48
 70
     1
102
RTVSPropertyOp49
 70
     1
102
RTVSPropertyOp50
 70
     1
102
RTVSPropertyOp51
 70
     0
102
RTVSPropertyOp52
 70
     0
102
RTVSPropertyOp53
 70
     1
102
RTVSPropertyOp54
 70
     1
102
RTVSPropertyOp55
 70
     1
102
RTVSPropertyOp56
 70
     1
102
RTVSPropertyOp57
 70
     1
102
RTVSPost2010Prop28
280
     0
102
RTVSPost2010PropOp28
 70
     1
102
RTVSPost2010Prop29
280
     1
102
RTVSPost2010PropOp29
 70
     1
102
RTVSPost2010Prop30
280
     1
102
RTVSPost2010PropOp30
 70
     1
102
RTVSPost2010Prop31
280
     0
102
RTVSPost2010PropOp31
 70
     1
102
RTVSPost2010Prop32
280
     0
102
RTVSPost2010PropOp32
 70
     1
102
RTVSPost2010Prop33
280
     0
102
RTVSPost2010PropOp33
 70
     1
102
RTVSPost2010Prop34
280
     0
102
RTVSPost2010PropOp34
 70
     1
102
RTVSPost2010Prop35
280
     0
102
RTVSPost2010PropOp35
 70
     1
102
RTVSPost2010Prop36
280
     0
102
RTVSPost2010PropOp36
 70
     1
102
RTVSPost2010Prop37
 90
       50
102
RTVSPost2010PropOp37
 70
     1
102
RTVSPost2010Prop38
140
0.0
102
RTVSPost2010PropOp38
 70
     1
102
RTVSPost2010Prop39
140
1.0
102
RTVSPost2010PropOp39
 70
     1
102
RTVSPost2010Prop40
 90
        0
102
RTVSPost2010PropOp40
 70
     1
102
RTVSPost2010Prop41ColorIndex
 90
       18
102
RTVSPost2010Prop41ColorRGB
 90
        0
102
RTVSPost2010PropOp41
 70
     1
102
RTVSPost2010Prop42
 90
       50
102
RTVSPost2010PropOp42
 70
     1
102
RTVSPost2010Prop43
 90
        3
102
RTVSPost2010PropOp43
 70
     1
102
RTVSPost2010Prop44ColorIndex
 90
        5
102
RTVSPost2010Prop44ColorRGB
 90
      255
102
RTVSPost2010PropOp44
 70
     1
102
RTVSPost2010Prop45
280
     0
102
RTVSPost2010PropOp45
 70
     1
102
RTVSPost2010Prop46
 90
       50
102
RTVSPost2010PropOp46
 70
     1
102
RTVSPost2010Prop47
 90
       50
102
RTVSPost2010PropOp47
 70
     1
102
RTVSPost2010Prop48
 90
       50
102
RTVSPost2010PropOp48
 70
     1
102
RTVSPost2010Prop49
280
     0
102
RTVSPost2010PropOp49
 70
     1
102
RTVSPost2010Prop50
 90
       50
102
RTVSPost2010PropOp50
 70
     1
102
RTVSPost2010Prop51ColorIndex
 90
      256
102
RTVSPost2010Prop51ColorRGB
 90
-16777216
102
RTVSPost2010PropOp51
 70
     0
102
RTVSPost2010Prop52
140
1.0
102
RTVSPost2010PropOp52
 70
     0
102
RTVSPost2010Prop53
 90
        2
102
RTVSPost2010PropOp53
 70
     1
102
RTVSPost2010Prop54
  1
strokes_ogs.tif
102
RTVSPost2010PropOp54
 70
     1
102
RTVSPost2010Prop55
280
     0
102
RTVSPost2010PropOp55
 70
     1
102
RTVSPost2010Prop56
140
1.0
102
RTVSPost2010PropOp56
 70
     1
102
RTVSPost2010Prop57
140
1.0
102
RTVSPost2010PropOp57
 70
     1
  0
XRECORD
  5
95F33
102
{ACAD_REACTORS
330
87B10
102
}
330
87B10
100
AcDbXrecord
280
     1
102
RTVSPropertyOp0
 70
     1
102
RTVSPropertyOp1
 70
     1
102
RTVSPropertyOp2
 70
     1
102
RTVSPropertyOp3
 70
     1
102
RTVSPropertyOp4
 70
     1
102
RTVSPropertyOp5
 70
     1
102
RTVSPropertyOp6
 70
     1
102
RTVSPropertyOp7
 70
     1
102
RTVSPropertyOp8
 70
     1
102
RTVSPropertyOp9
 70
     1
102
RTVSPropertyOp10
 70
     1
102
RTVSPropertyOp11
 70
     1
102
RTVSPropertyOp12
 70
     1
102
RTVSPropertyOp13
 70
     1
102
RTVSPropertyOp14
 70
     1
102
RTVSPropertyOp15
 70
     1
102
RTVSPropertyOp16
 70
     1
102
RTVSPropertyOp17
 70
     1
102
RTVSPropertyOp18
 70
     1
102
RTVSPropertyOp19
 70
     1
102
RTVSPropertyOp20
 70
     1
102
RTVSPropertyOp21
 70
     1
102
RTVSPropertyOp22
 70
     1
102
RTVSPropertyOp23
 70
     1
102
RTVSPropertyOp24
 70
     1
102
RTVSPropertyOp25
 70
     1
102
RTVSPropertyOp26
 70
     1
102
RTVSPropertyOp27
 70
     1
102
RTVSPropertyOp28
 70
     1
102
RTVSPropertyOp29
 70
     1
102
RTVSPropertyOp30
 70
     1
102
RTVSPropertyOp31
 70
     1
102
RTVSPropertyOp32
 70
     1
102
RTVSPropertyOp33
 70
     1
102
RTVSPropertyOp34
 70
     1
102
RTVSPropertyOp35
 70
     1
102
RTVSPropertyOp36
 70
     1
102
RTVSPropertyOp37
 70
     1
102
RTVSPropertyOp38
 70
     1
102
RTVSPropertyOp39
 70
     1
102
RTVSPropertyOp40
 70
     1
102
RTVSPropertyOp41
 70
     1
102
RTVSPropertyOp42
 70
     1
102
RTVSPropertyOp43
 70
     1
102
RTVSPropertyOp44
 70
     1
102
RTVSPropertyOp45
 70
     1
102
RTVSPropertyOp46
 70
     1
102
RTVSPropertyOp47
 70
     1
102
RTVSPropertyOp48
 70
     1
102
RTVSPropertyOp49
 70
     1
102
RTVSPropertyOp50
 70
     1
102
RTVSPropertyOp51
 70
     0
102
RTVSPropertyOp52
 70
     0
102
RTVSPropertyOp53
 70
     1
102
RTVSPropertyOp54
 70
     1
102
RTVSPropertyOp55
 70
     1
102
RTVSPropertyOp56
 70
     1
102
RTVSPropertyOp57
 70
     1
102
RTVSPost2010Prop28
280
     0
102
RTVSPost2010PropOp28
 70
     1
102
RTVSPost2010Prop29
280
     1
102
RTVSPost2010PropOp29
 70
     1
102
RTVSPost2010Prop30
280
     1
102
RTVSPost2010PropOp30
 70
     1
102
RTVSPost2010Prop31
280
     0
102
RTVSPost2010PropOp31
 70
     1
102
RTVSPost2010Prop32
280
     0
102
RTVSPost2010PropOp32
 70
     1
102
RTVSPost2010Prop33
280
     0
102
RTVSPost2010PropOp33
 70
     1
102
RTVSPost2010Prop34
280
     0
102
RTVSPost2010PropOp34
 70
     1
102
RTVSPost2010Prop35
280
     0
102
RTVSPost2010PropOp35
 70
     1
102
RTVSPost2010Prop36
280
     0
102
RTVSPost2010PropOp36
 70
     1
102
RTVSPost2010Prop37
 90
       50
102
RTVSPost2010PropOp37
 70
     1
102
RTVSPost2010Prop38
140
0.0
102
RTVSPost2010PropOp38
 70
     1
102
RTVSPost2010Prop39
140
1.0
102
RTVSPost2010PropOp39
 70
     1
102
RTVSPost2010Prop40
 90
        0
102
RTVSPost2010PropOp40
 70
     1
102
RTVSPost2010Prop41ColorIndex
 90
       18
102
RTVSPost2010Prop41ColorRGB
 90
        0
102
RTVSPost2010PropOp41
 70
     1
102
RTVSPost2010Prop42
 90
       50
102
RTVSPost2010PropOp42
 70
     1
102
RTVSPost2010Prop43
 90
        3
102
RTVSPost2010PropOp43
 70
     1
102
RTVSPost2010Prop44ColorIndex
 90
        5
102
RTVSPost2010Prop44ColorRGB
 90
      255
102
RTVSPost2010PropOp44
 70
     1
102
RTVSPost2010Prop45
280
     0
102
RTVSPost2010PropOp45
 70
     1
102
RTVSPost2010Prop46
 90
       50
102
RTVSPost2010PropOp46
 70
     1
102
RTVSPost2010Prop47
 90
       50
102
RTVSPost2010PropOp47
 70
     1
102
RTVSPost2010Prop48
 90
       50
102
RTVSPost2010PropOp48
 70
     1
102
RTVSPost2010Prop49
280
     0
102
RTVSPost2010PropOp49
 70
     1
102
RTVSPost2010Prop50
 90
       50
102
RTVSPost2010PropOp50
 70
     1
102
RTVSPost2010Prop51ColorIndex
 90
      256
102
RTVSPost2010Prop51ColorRGB
 90
-16777216
102
RTVSPost2010PropOp51
 70
     0
102
RTVSPost2010Prop52
140
1.0
102
RTVSPost2010PropOp52
 70
     0
102
RTVSPost2010Prop53
 90
        2
102
RTVSPost2010PropOp53
 70
     1
102
RTVSPost2010Prop54
  1
strokes_ogs.tif
102
RTVSPost2010PropOp54
 70
     1
102
RTVSPost2010Prop55
280
     0
102
RTVSPost2010PropOp55
 70
     1
102
RTVSPost2010Prop56
140
1.0
102
RTVSPost2010PropOp56
 70
     1
102
RTVSPost2010Prop57
140
1.0
102
RTVSPost2010PropOp57
 70
     1
  0
XRECORD
  5
95F34
102
{ACAD_REACTORS
330
87B12
102
}
330
87B12
100
AcDbXrecord
280
     1
102
RTVSPropertyOp0
 70
     1
102
RTVSPropertyOp1
 70
     1
102
RTVSPropertyOp2
 70
     1
102
RTVSPropertyOp3
 70
     1
102
RTVSPropertyOp4
 70
     1
102
RTVSPropertyOp5
 70
     1
102
RTVSPropertyOp6
 70
     1
102
RTVSPropertyOp7
 70
     1
102
RTVSPropertyOp8
 70
     1
102
RTVSPropertyOp9
 70
     1
102
RTVSPropertyOp10
 70
     1
102
RTVSPropertyOp11
 70
     1
102
RTVSPropertyOp12
 70
     1
102
RTVSPropertyOp13
 70
     1
102
RTVSPropertyOp14
 70
     1
102
RTVSPropertyOp15
 70
     1
102
RTVSPropertyOp16
 70
     1
102
RTVSPropertyOp17
 70
     1
102
RTVSPropertyOp18
 70
     1
102
RTVSPropertyOp19
 70
     1
102
RTVSPropertyOp20
 70
     1
102
RTVSPropertyOp21
 70
     1
102
RTVSPropertyOp22
 70
     1
102
RTVSPropertyOp23
 70
     1
102
RTVSPropertyOp24
 70
     1
102
RTVSPropertyOp25
 70
     1
102
RTVSPropertyOp26
 70
     1
102
RTVSPropertyOp27
 70
     1
102
RTVSPropertyOp28
 70
     1
102
RTVSPropertyOp29
 70
     1
102
RTVSPropertyOp30
 70
     1
102
RTVSPropertyOp31
 70
     1
102
RTVSPropertyOp32
 70
     1
102
RTVSPropertyOp33
 70
     1
102
RTVSPropertyOp34
 70
     1
102
RTVSPropertyOp35
 70
     1
102
RTVSPropertyOp36
 70
     1
102
RTVSPropertyOp37
 70
     1
102
RTVSPropertyOp38
 70
     1
102
RTVSPropertyOp39
 70
     1
102
RTVSPropertyOp40
 70
     1
102
RTVSPropertyOp41
 70
     1
102
RTVSPropertyOp42
 70
     1
102
RTVSPropertyOp43
 70
     1
102
RTVSPropertyOp44
 70
     1
102
RTVSPropertyOp45
 70
     1
102
RTVSPropertyOp46
 70
     1
102
RTVSPropertyOp47
 70
     1
102
RTVSPropertyOp48
 70
     1
102
RTVSPropertyOp49
 70
     1
102
RTVSPropertyOp50
 70
     1
102
RTVSPropertyOp51
 70
     0
102
RTVSPropertyOp52
 70
     0
102
RTVSPropertyOp53
 70
     1
102
RTVSPropertyOp54
 70
     1
102
RTVSPropertyOp55
 70
     1
102
RTVSPropertyOp56
 70
     1
102
RTVSPropertyOp57
 70
     1
102
RTVSPost2010Prop28
280
     0
102
RTVSPost2010PropOp28
 70
     1
102
RTVSPost2010Prop29
280
     1
102
RTVSPost2010PropOp29
 70
     1
102
RTVSPost2010Prop30
280
     1
102
RTVSPost2010PropOp30
 70
     1
102
RTVSPost2010Prop31
280
     0
102
RTVSPost2010PropOp31
 70
     1
102
RTVSPost2010Prop32
280
     0
102
RTVSPost2010PropOp32
 70
     1
102
RTVSPost2010Prop33
280
     0
102
RTVSPost2010PropOp33
 70
     1
102
RTVSPost2010Prop34
280
     0
102
RTVSPost2010PropOp34
 70
     1
102
RTVSPost2010Prop35
280
     0
102
RTVSPost2010PropOp35
 70
     1
102
RTVSPost2010Prop36
280
     0
102
RTVSPost2010PropOp36
 70
     1
102
RTVSPost2010Prop37
 90
       50
102
RTVSPost2010PropOp37
 70
     1
102
RTVSPost2010Prop38
140
0.0
102
RTVSPost2010PropOp38
 70
     1
102
RTVSPost2010Prop39
140
1.0
102
RTVSPost2010PropOp39
 70
     1
102
RTVSPost2010Prop40
 90
        0
102
RTVSPost2010PropOp40
 70
     1
102
RTVSPost2010Prop41ColorIndex
 90
       18
102
RTVSPost2010Prop41ColorRGB
 90
        0
102
RTVSPost2010PropOp41
 70
     1
102
RTVSPost2010Prop42
 90
       50
102
RTVSPost2010PropOp42
 70
     1
102
RTVSPost2010Prop43
 90
        3
102
RTVSPost2010PropOp43
 70
     1
102
RTVSPost2010Prop44ColorIndex
 90
        5
102
RTVSPost2010Prop44ColorRGB
 90
      255
102
RTVSPost2010PropOp44
 70
     1
102
RTVSPost2010Prop45
280
     0
102
RTVSPost2010PropOp45
 70
     1
102
RTVSPost2010Prop46
 90
       50
102
RTVSPost2010PropOp46
 70
     1
102
RTVSPost2010Prop47
 90
       50
102
RTVSPost2010PropOp47
 70
     1
102
RTVSPost2010Prop48
 90
       50
102
RTVSPost2010PropOp48
 70
     1
102
RTVSPost2010Prop49
280
     0
102
RTVSPost2010PropOp49
 70
     1
102
RTVSPost2010Prop50
 90
       50
102
RTVSPost2010PropOp50
 70
     1
102
RTVSPost2010Prop51ColorIndex
 90
      256
102
RTVSPost2010Prop51ColorRGB
 90
-16777216
102
RTVSPost2010PropOp51
 70
     0
102
RTVSPost2010Prop52
140
1.0
102
RTVSPost2010PropOp52
 70
     0
102
RTVSPost2010Prop53
 90
        2
102
RTVSPost2010PropOp53
 70
     1
102
RTVSPost2010Prop54
  1
strokes_ogs.tif
102
RTVSPost2010PropOp54
 70
     1
102
RTVSPost2010Prop55
280
     0
102
RTVSPost2010PropOp55
 70
     1
102
RTVSPost2010Prop56
140
1.0
102
RTVSPost2010PropOp56
 70
     1
102
RTVSPost2010Prop57
140
1.0
102
RTVSPost2010PropOp57
 70
     1
  0
XRECORD
  5
95F35
102
{ACAD_REACTORS
330
87B14
102
}
330
87B14
100
AcDbXrecord
280
     1
102
RTVSPropertyOp0
 70
     1
102
RTVSPropertyOp1
 70
     1
102
RTVSPropertyOp2
 70
     1
102
RTVSPropertyOp3
 70
     1
102
RTVSPropertyOp4
 70
     1
102
RTVSPropertyOp5
 70
     1
102
RTVSPropertyOp6
 70
     1
102
RTVSPropertyOp7
 70
     1
102
RTVSPropertyOp8
 70
     1
102
RTVSPropertyOp9
 70
     1
102
RTVSPropertyOp10
 70
     1
102
RTVSPropertyOp11
 70
     1
102
RTVSPropertyOp12
 70
     1
102
RTVSPropertyOp13
 70
     1
102
RTVSPropertyOp14
 70
     1
102
RTVSPropertyOp15
 70
     1
102
RTVSPropertyOp16
 70
     1
102
RTVSPropertyOp17
 70
     1
102
RTVSPropertyOp18
 70
     1
102
RTVSPropertyOp19
 70
     1
102
RTVSPropertyOp20
 70
     1
102
RTVSPropertyOp21
 70
     1
102
RTVSPropertyOp22
 70
     1
102
RTVSPropertyOp23
 70
     1
102
RTVSPropertyOp24
 70
     1
102
RTVSPropertyOp25
 70
     1
102
RTVSPropertyOp26
 70
     1
102
RTVSPropertyOp27
 70
     1
102
RTVSPropertyOp28
 70
     1
102
RTVSPropertyOp29
 70
     1
102
RTVSPropertyOp30
 70
     1
102
RTVSPropertyOp31
 70
     1
102
RTVSPropertyOp32
 70
     1
102
RTVSPropertyOp33
 70
     1
102
RTVSPropertyOp34
 70
     1
102
RTVSPropertyOp35
 70
     1
102
RTVSPropertyOp36
 70
     1
102
RTVSPropertyOp37
 70
     1
102
RTVSPropertyOp38
 70
     1
102
RTVSPropertyOp39
 70
     1
102
RTVSPropertyOp40
 70
     1
102
RTVSPropertyOp41
 70
     1
102
RTVSPropertyOp42
 70
     1
102
RTVSPropertyOp43
 70
     1
102
RTVSPropertyOp44
 70
     1
102
RTVSPropertyOp45
 70
     1
102
RTVSPropertyOp46
 70
     1
102
RTVSPropertyOp47
 70
     1
102
RTVSPropertyOp48
 70
     1
102
RTVSPropertyOp49
 70
     1
102
RTVSPropertyOp50
 70
     1
102
RTVSPropertyOp51
 70
     0
102
RTVSPropertyOp52
 70
     0
102
RTVSPropertyOp53
 70
     1
102
RTVSPropertyOp54
 70
     1
102
RTVSPropertyOp55
 70
     1
102
RTVSPropertyOp56
 70
     1
102
RTVSPropertyOp57
 70
     1
102
RTVSPost2010Prop28
280
     0
102
RTVSPost2010PropOp28
 70
     1
102
RTVSPost2010Prop29
280
     1
102
RTVSPost2010PropOp29
 70
     1
102
RTVSPost2010Prop30
280
     1
102
RTVSPost2010PropOp30
 70
     1
102
RTVSPost2010Prop31
280
     0
102
RTVSPost2010PropOp31
 70
     1
102
RTVSPost2010Prop32
280
     0
102
RTVSPost2010PropOp32
 70
     1
102
RTVSPost2010Prop33
280
     0
102
RTVSPost2010PropOp33
 70
     1
102
RTVSPost2010Prop34
280
     0
102
RTVSPost2010PropOp34
 70
     1
102
RTVSPost2010Prop35
280
     0
102
RTVSPost2010PropOp35
 70
     1
102
RTVSPost2010Prop36
280
     0
102
RTVSPost2010PropOp36
 70
     1
102
RTVSPost2010Prop37
 90
       50
102
RTVSPost2010PropOp37
 70
     1
102
RTVSPost2010Prop38
140
0.0
102
RTVSPost2010PropOp38
 70
     1
102
RTVSPost2010Prop39
140
1.0
102
RTVSPost2010PropOp39
 70
     1
102
RTVSPost2010Prop40
 90
        0
102
RTVSPost2010PropOp40
 70
     1
102
RTVSPost2010Prop41ColorIndex
 90
       18
102
RTVSPost2010Prop41ColorRGB
 90
        0
102
RTVSPost2010PropOp41
 70
     1
102
RTVSPost2010Prop42
 90
       50
102
RTVSPost2010PropOp42
 70
     1
102
RTVSPost2010Prop43
 90
        3
102
RTVSPost2010PropOp43
 70
     1
102
RTVSPost2010Prop44ColorIndex
 90
        5
102
RTVSPost2010Prop44ColorRGB
 90
      255
102
RTVSPost2010PropOp44
 70
     1
102
RTVSPost2010Prop45
280
     0
102
RTVSPost2010PropOp45
 70
     1
102
RTVSPost2010Prop46
 90
       50
102
RTVSPost2010PropOp46
 70
     1
102
RTVSPost2010Prop47
 90
       50
102
RTVSPost2010PropOp47
 70
     1
102
RTVSPost2010Prop48
 90
       50
102
RTVSPost2010PropOp48
 70
     1
102
RTVSPost2010Prop49
280
     0
102
RTVSPost2010PropOp49
 70
     1
102
RTVSPost2010Prop50
 90
       50
102
RTVSPost2010PropOp50
 70
     1
102
RTVSPost2010Prop51ColorIndex
 90
      256
102
RTVSPost2010Prop51ColorRGB
 90
-16777216
102
RTVSPost2010PropOp51
 70
     0
102
RTVSPost2010Prop52
140
1.0
102
RTVSPost2010PropOp52
 70
     0
102
RTVSPost2010Prop53
 90
        2
102
RTVSPost2010PropOp53
 70
     1
102
RTVSPost2010Prop54
  1
strokes_ogs.tif
102
RTVSPost2010PropOp54
 70
     1
102
RTVSPost2010Prop55
280
     0
102
RTVSPost2010PropOp55
 70
     1
102
RTVSPost2010Prop56
140
1.0
102
RTVSPost2010PropOp56
 70
     1
102
RTVSPost2010Prop57
140
1.0
102
RTVSPost2010PropOp57
 70
     1
  0
XRECORD
  5
95F36
102
{ACAD_REACTORS
330
87B1C
102
}
330
87B1C
100
AcDbXrecord
280
     1
102
RTVSPropertyOp0
 70
     1
102
RTVSPropertyOp1
 70
     1
102
RTVSPropertyOp2
 70
     1
102
RTVSPropertyOp3
 70
     1
102
RTVSPropertyOp4
 70
     1
102
RTVSPropertyOp5
 70
     1
102
RTVSPropertyOp6
 70
     1
102
RTVSPropertyOp7
 70
     1
102
RTVSPropertyOp8
 70
     1
102
RTVSPropertyOp9
 70
     1
102
RTVSPropertyOp10
 70
     1
102
RTVSPropertyOp11
 70
     1
102
RTVSPropertyOp12
 70
     1
102
RTVSPropertyOp13
 70
     1
102
RTVSPropertyOp14
 70
     1
102
RTVSPropertyOp15
 70
     1
102
RTVSPropertyOp16
 70
     1
102
RTVSPropertyOp17
 70
     1
102
RTVSPropertyOp18
 70
     1
102
RTVSPropertyOp19
 70
     1
102
RTVSPropertyOp20
 70
     1
102
RTVSPropertyOp21
 70
     1
102
RTVSPropertyOp22
 70
     1
102
RTVSPropertyOp23
 70
     1
102
RTVSPropertyOp24
 70
     1
102
RTVSPropertyOp25
 70
     1
102
RTVSPropertyOp26
 70
     1
102
RTVSPropertyOp27
 70
     1
102
RTVSPropertyOp28
 70
     1
102
RTVSPropertyOp29
 70
     1
102
RTVSPropertyOp30
 70
     1
102
RTVSPropertyOp31
 70
     1
102
RTVSPropertyOp32
 70
     1
102
RTVSPropertyOp33
 70
     1
102
RTVSPropertyOp34
 70
     1
102
RTVSPropertyOp35
 70
     1
102
RTVSPropertyOp36
 70
     1
102
RTVSPropertyOp37
 70
     1
102
RTVSPropertyOp38
 70
     1
102
RTVSPropertyOp39
 70
     1
102
RTVSPropertyOp40
 70
     1
102
RTVSPropertyOp41
 70
     1
102
RTVSPropertyOp42
 70
     1
102
RTVSPropertyOp43
 70
     1
102
RTVSPropertyOp44
 70
     1
102
RTVSPropertyOp45
 70
     1
102
RTVSPropertyOp46
 70
     1
102
RTVSPropertyOp47
 70
     1
102
RTVSPropertyOp48
 70
     1
102
RTVSPropertyOp49
 70
     1
102
RTVSPropertyOp50
 70
     1
102
RTVSPropertyOp51
 70
     0
102
RTVSPropertyOp52
 70
     0
102
RTVSPropertyOp53
 70
     1
102
RTVSPropertyOp54
 70
     1
102
RTVSPropertyOp55
 70
     1
102
RTVSPropertyOp56
 70
     1
102
RTVSPropertyOp57
 70
     1
102
RTVSPost2010Prop28
280
     0
102
RTVSPost2010PropOp28
 70
     1
102
RTVSPost2010Prop29
280
     1
102
RTVSPost2010PropOp29
 70
     1
102
RTVSPost2010Prop30
280
     1
102
RTVSPost2010PropOp30
 70
     1
102
RTVSPost2010Prop31
280
     0
102
RTVSPost2010PropOp31
 70
     1
102
RTVSPost2010Prop32
280
     0
102
RTVSPost2010PropOp32
 70
     1
102
RTVSPost2010Prop33
280
     0
102
RTVSPost2010PropOp33
 70
     1
102
RTVSPost2010Prop34
280
     0
102
RTVSPost2010PropOp34
 70
     1
102
RTVSPost2010Prop35
280
     0
102
RTVSPost2010PropOp35
 70
     1
102
RTVSPost2010Prop36
280
     0
102
RTVSPost2010PropOp36
 70
     1
102
RTVSPost2010Prop37
 90
       50
102
RTVSPost2010PropOp37
 70
     1
102
RTVSPost2010Prop38
140
0.0
102
RTVSPost2010PropOp38
 70
     1
102
RTVSPost2010Prop39
140
1.0
102
RTVSPost2010PropOp39
 70
     1
102
RTVSPost2010Prop40
 90
        0
102
RTVSPost2010PropOp40
 70
     1
102
RTVSPost2010Prop41ColorIndex
 90
       18
102
RTVSPost2010Prop41ColorRGB
 90
        0
102
RTVSPost2010PropOp41
 70
     1
102
RTVSPost2010Prop42
 90
       50
102
RTVSPost2010PropOp42
 70
     1
102
RTVSPost2010Prop43
 90
        3
102
RTVSPost2010PropOp43
 70
     1
102
RTVSPost2010Prop44ColorIndex
 90
        5
102
RTVSPost2010Prop44ColorRGB
 90
      255
102
RTVSPost2010PropOp44
 70
     1
102
RTVSPost2010Prop45
280
     0
102
RTVSPost2010PropOp45
 70
     1
102
RTVSPost2010Prop46
 90
       50
102
RTVSPost2010PropOp46
 70
     1
102
RTVSPost2010Prop47
 90
       50
102
RTVSPost2010PropOp47
 70
     1
102
RTVSPost2010Prop48
 90
       50
102
RTVSPost2010PropOp48
 70
     1
102
RTVSPost2010Prop49
280
     0
102
RTVSPost2010PropOp49
 70
     1
102
RTVSPost2010Prop50
 90
       50
102
RTVSPost2010PropOp50
 70
     1
102
RTVSPost2010Prop51ColorIndex
 90
      256
102
RTVSPost2010Prop51ColorRGB
 90
-16777216
102
RTVSPost2010PropOp51
 70
     0
102
RTVSPost2010Prop52
140
1.0
102
RTVSPost2010PropOp52
 70
     0
102
RTVSPost2010Prop53
 90
        2
102
RTVSPost2010PropOp53
 70
     1
102
RTVSPost2010Prop54
  1
strokes_ogs.tif
102
RTVSPost2010PropOp54
 70
     1
102
RTVSPost2010Prop55
280
     0
102
RTVSPost2010PropOp55
 70
     1
102
RTVSPost2010Prop56
140
1.0
102
RTVSPost2010PropOp56
 70
     1
102
RTVSPost2010Prop57
140
1.0
102
RTVSPost2010PropOp57
 70
     1
  0
XRECORD
  5
95F37
102
{ACAD_REACTORS
330
87B38
102
}
330
87B38
100
AcDbXrecord
280
     1
102
RTVSPropertyOp0
 70
     0
102
RTVSPropertyOp1
 70
     0
102
RTVSPropertyOp2
 70
     0
102
RTVSPropertyOp3
 70
     0
102
RTVSPropertyOp4
 70
     0
102
RTVSPropertyOp5
 70
     0
102
RTVSPropertyOp6
 70
     0
102
RTVSPropertyOp7
 70
     0
102
RTVSPropertyOp8
 70
     0
102
RTVSPropertyOp9
 70
     0
102
RTVSPropertyOp10
 70
     0
102
RTVSPropertyOp11
 70
     0
102
RTVSPropertyOp12
 70
     0
102
RTVSPropertyOp13
 70
     0
102
RTVSPropertyOp14
 70
     2
102
RTVSPropertyOp15
 70
     0
102
RTVSPropertyOp16
 70
     0
102
RTVSPropertyOp17
 70
     0
102
RTVSPropertyOp18
 70
     0
102
RTVSPropertyOp19
 70
     0
102
RTVSPropertyOp20
 70
     0
102
RTVSPropertyOp21
 70
     0
102
RTVSPropertyOp22
 70
     0
102
RTVSPropertyOp23
 70
     0
102
RTVSPropertyOp24
 70
     0
102
RTVSPropertyOp25
 70
     0
102
RTVSPropertyOp26
 70
     0
102
RTVSPropertyOp27
 70
     0
102
RTVSPropertyOp28
 70
     1
102
RTVSPropertyOp29
 70
     1
102
RTVSPropertyOp30
 70
     1
102
RTVSPropertyOp31
 70
     1
102
RTVSPropertyOp32
 70
     1
102
RTVSPropertyOp33
 70
     1
102
RTVSPropertyOp34
 70
     1
102
RTVSPropertyOp35
 70
     1
102
RTVSPropertyOp36
 70
     1
102
RTVSPropertyOp37
 70
     0
102
RTVSPropertyOp38
 70
     0
102
RTVSPropertyOp39
 70
     0
102
RTVSPropertyOp40
 70
     0
102
RTVSPropertyOp41
 70
     0
102
RTVSPropertyOp42
 70
     0
102
RTVSPropertyOp43
 70
     0
102
RTVSPropertyOp44
 70
     0
102
RTVSPropertyOp45
 70
     1
102
RTVSPropertyOp46
 70
     0
102
RTVSPropertyOp47
 70
     0
102
RTVSPropertyOp48
 70
     0
102
RTVSPropertyOp49
 70
     1
102
RTVSPropertyOp50
 70
     0
102
RTVSPropertyOp51
 70
     0
102
RTVSPropertyOp52
 70
     0
102
RTVSPropertyOp53
 70
     0
102
RTVSPropertyOp54
 70
     0
102
RTVSPropertyOp55
 70
     1
102
RTVSPropertyOp56
 70
     0
102
RTVSPropertyOp57
 70
     0
102
RTVSPost2010Prop28
280
     0
102
RTVSPost2010PropOp28
 70
     1
102
RTVSPost2010Prop29
280
     1
102
RTVSPost2010PropOp29
 70
     1
102
RTVSPost2010Prop30
280
     1
102
RTVSPost2010PropOp30
 70
     1
102
RTVSPost2010Prop31
280
     0
102
RTVSPost2010PropOp31
 70
     1
102
RTVSPost2010Prop32
280
     0
102
RTVSPost2010PropOp32
 70
     1
102
RTVSPost2010Prop33
280
     0
102
RTVSPost2010PropOp33
 70
     1
102
RTVSPost2010Prop34
280
     0
102
RTVSPost2010PropOp34
 70
     1
102
RTVSPost2010Prop35
280
     0
102
RTVSPost2010PropOp35
 70
     1
102
RTVSPost2010Prop36
280
     0
102
RTVSPost2010PropOp36
 70
     1
102
RTVSPost2010Prop37
 90
       50
102
RTVSPost2010PropOp37
 70
     0
102
RTVSPost2010Prop38
140
0.0
102
RTVSPost2010PropOp38
 70
     0
102
RTVSPost2010Prop39
140
1.0
102
RTVSPost2010PropOp39
 70
     0
102
RTVSPost2010Prop40
 90
        0
102
RTVSPost2010PropOp40
 70
     0
102
RTVSPost2010Prop41ColorIndex
 90
       18
102
RTVSPost2010Prop41ColorRGB
 90
        0
102
RTVSPost2010PropOp41
 70
     0
102
RTVSPost2010Prop42
 90
       50
102
RTVSPost2010PropOp42
 70
     0
102
RTVSPost2010Prop43
 90
        3
102
RTVSPost2010PropOp43
 70
     0
102
RTVSPost2010Prop44ColorIndex
 90
        5
102
RTVSPost2010Prop44ColorRGB
 90
      255
102
RTVSPost2010PropOp44
 70
     0
102
RTVSPost2010Prop45
280
     0
102
RTVSPost2010PropOp45
 70
     1
102
RTVSPost2010Prop46
 90
       50
102
RTVSPost2010PropOp46
 70
     0
102
RTVSPost2010Prop47
 90
       50
102
RTVSPost2010PropOp47
 70
     0
102
RTVSPost2010Prop48
 90
       50
102
RTVSPost2010PropOp48
 70
     0
102
RTVSPost2010Prop49
280
     0
102
RTVSPost2010PropOp49
 70
     1
102
RTVSPost2010Prop50
 90
       50
102
RTVSPost2010PropOp50
 70
     0
102
RTVSPost2010Prop51ColorIndex
 90
      256
102
RTVSPost2010Prop51ColorRGB
 90
-16777216
102
RTVSPost2010PropOp51
 70
     0
102
RTVSPost2010Prop52
140
1.0
102
RTVSPost2010PropOp52
 70
     0
102
RTVSPost2010Prop53
 90
        2
102
RTVSPost2010PropOp53
 70
     0
102
RTVSPost2010Prop54
  1
strokes_ogs.tif
102
RTVSPost2010PropOp54
 70
     0
102
RTVSPost2010Prop55
280
     0
102
RTVSPost2010PropOp55
 70
     1
102
RTVSPost2010Prop56
140
1.0
102
RTVSPost2010PropOp56
 70
     0
102
RTVSPost2010Prop57
140
1.0
102
RTVSPost2010PropOp57
 70
     0
  0
XRECORD
  5
95F38
102
{ACAD_REACTORS
330
87B28
102
}
330
87B28
100
AcDbXrecord
280
     1
102
RTVSPropertyOp0
 70
     1
102
RTVSPropertyOp1
 70
     1
102
RTVSPropertyOp2
 70
     1
102
RTVSPropertyOp3
 70
     1
102
RTVSPropertyOp4
 70
     1
102
RTVSPropertyOp5
 70
     1
102
RTVSPropertyOp6
 70
     1
102
RTVSPropertyOp7
 70
     1
102
RTVSPropertyOp8
 70
     1
102
RTVSPropertyOp9
 70
     1
102
RTVSPropertyOp10
 70
     1
102
RTVSPropertyOp11
 70
     1
102
RTVSPropertyOp12
 70
     1
102
RTVSPropertyOp13
 70
     1
102
RTVSPropertyOp14
 70
     1
102
RTVSPropertyOp15
 70
     1
102
RTVSPropertyOp16
 70
     1
102
RTVSPropertyOp17
 70
     1
102
RTVSPropertyOp18
 70
     1
102
RTVSPropertyOp19
 70
     1
102
RTVSPropertyOp20
 70
     1
102
RTVSPropertyOp21
 70
     1
102
RTVSPropertyOp22
 70
     1
102
RTVSPropertyOp23
 70
     1
102
RTVSPropertyOp24
 70
     1
102
RTVSPropertyOp25
 70
     1
102
RTVSPropertyOp26
 70
     1
102
RTVSPropertyOp27
 70
     1
102
RTVSPropertyOp28
 70
     1
102
RTVSPropertyOp29
 70
     1
102
RTVSPropertyOp30
 70
     1
102
RTVSPropertyOp31
 70
     1
102
RTVSPropertyOp32
 70
     1
102
RTVSPropertyOp33
 70
     1
102
RTVSPropertyOp34
 70
     1
102
RTVSPropertyOp35
 70
     1
102
RTVSPropertyOp36
 70
     1
102
RTVSPropertyOp37
 70
     1
102
RTVSPropertyOp38
 70
     1
102
RTVSPropertyOp39
 70
     1
102
RTVSPropertyOp40
 70
     1
102
RTVSPropertyOp41
 70
     1
102
RTVSPropertyOp42
 70
     1
102
RTVSPropertyOp43
 70
     1
102
RTVSPropertyOp44
 70
     1
102
RTVSPropertyOp45
 70
     1
102
RTVSPropertyOp46
 70
     1
102
RTVSPropertyOp47
 70
     1
102
RTVSPropertyOp48
 70
     1
102
RTVSPropertyOp49
 70
     1
102
RTVSPropertyOp50
 70
     1
102
RTVSPropertyOp51
 70
     0
102
RTVSPropertyOp52
 70
     0
102
RTVSPropertyOp53
 70
     1
102
RTVSPropertyOp54
 70
     1
102
RTVSPropertyOp55
 70
     1
102
RTVSPropertyOp56
 70
     1
102
RTVSPropertyOp57
 70
     1
102
RTVSPost2010Prop28
280
     0
102
RTVSPost2010PropOp28
 70
     1
102
RTVSPost2010Prop29
280
     1
102
RTVSPost2010PropOp29
 70
     1
102
RTVSPost2010Prop30
280
     1
102
RTVSPost2010PropOp30
 70
     1
102
RTVSPost2010Prop31
280
     0
102
RTVSPost2010PropOp31
 70
     1
102
RTVSPost2010Prop32
280
     0
102
RTVSPost2010PropOp32
 70
     1
102
RTVSPost2010Prop33
280
     0
102
RTVSPost2010PropOp33
 70
     1
102
RTVSPost2010Prop34
280
     0
102
RTVSPost2010PropOp34
 70
     1
102
RTVSPost2010Prop35
280
     0
102
RTVSPost2010PropOp35
 70
     1
102
RTVSPost2010Prop36
280
     0
102
RTVSPost2010PropOp36
 70
     1
102
RTVSPost2010Prop37
 90
       50
102
RTVSPost2010PropOp37
 70
     1
102
RTVSPost2010Prop38
140
0.0
102
RTVSPost2010PropOp38
 70
     1
102
RTVSPost2010Prop39
140
1.0
102
RTVSPost2010PropOp39
 70
     1
102
RTVSPost2010Prop40
 90
        0
102
RTVSPost2010PropOp40
 70
     1
102
RTVSPost2010Prop41ColorIndex
 90
       18
102
RTVSPost2010Prop41ColorRGB
 90
        0
102
RTVSPost2010PropOp41
 70
     1
102
RTVSPost2010Prop42
 90
       50
102
RTVSPost2010PropOp42
 70
     1
102
RTVSPost2010Prop43
 90
        3
102
RTVSPost2010PropOp43
 70
     1
102
RTVSPost2010Prop44ColorIndex
 90
        5
102
RTVSPost2010Prop44ColorRGB
 90
      255
102
RTVSPost2010PropOp44
 70
     1
102
RTVSPost2010Prop45
280
     0
102
RTVSPost2010PropOp45
 70
     1
102
RTVSPost2010Prop46
 90
       50
102
RTVSPost2010PropOp46
 70
     1
102
RTVSPost2010Prop47
 90
       50
102
RTVSPost2010PropOp47
 70
     1
102
RTVSPost2010Prop48
 90
       50
102
RTVSPost2010PropOp48
 70
     1
102
RTVSPost2010Prop49
280
     0
102
RTVSPost2010PropOp49
 70
     1
102
RTVSPost2010Prop50
 90
       50
102
RTVSPost2010PropOp50
 70
     1
102
RTVSPost2010Prop51ColorIndex
 90
      256
102
RTVSPost2010Prop51ColorRGB
 90
-16777216
102
RTVSPost2010PropOp51
 70
     0
102
RTVSPost2010Prop52
140
1.0
102
RTVSPost2010PropOp52
 70
     0
102
RTVSPost2010Prop53
 90
        2
102
RTVSPost2010PropOp53
 70
     1
102
RTVSPost2010Prop54
  1
strokes_ogs.tif
102
RTVSPost2010PropOp54
 70
     1
102
RTVSPost2010Prop55
280
     0
102
RTVSPost2010PropOp55
 70
     1
102
RTVSPost2010Prop56
140
1.0
102
RTVSPost2010PropOp56
 70
     1
102
RTVSPost2010Prop57
140
1.0
102
RTVSPost2010PropOp57
 70
     1
  0
XRECORD
  5
95F39
102
{ACAD_REACTORS
330
87B3A
102
}
330
87B3A
100
AcDbXrecord
280
     1
102
RTVSPropertyOp0
 70
     0
102
RTVSPropertyOp1
 70
     0
102
RTVSPropertyOp2
 70
     0
102
RTVSPropertyOp3
 70
     0
102
RTVSPropertyOp4
 70
     0
102
RTVSPropertyOp5
 70
     0
102
RTVSPropertyOp6
 70
     0
102
RTVSPropertyOp7
 70
     0
102
RTVSPropertyOp8
 70
     0
102
RTVSPropertyOp9
 70
     0
102
RTVSPropertyOp10
 70
     0
102
RTVSPropertyOp11
 70
     0
102
RTVSPropertyOp12
 70
     0
102
RTVSPropertyOp13
 70
     0
102
RTVSPropertyOp14
 70
     2
102
RTVSPropertyOp15
 70
     0
102
RTVSPropertyOp16
 70
     0
102
RTVSPropertyOp17
 70
     0
102
RTVSPropertyOp18
 70
     0
102
RTVSPropertyOp19
 70
     0
102
RTVSPropertyOp20
 70
     0
102
RTVSPropertyOp21
 70
     0
102
RTVSPropertyOp22
 70
     0
102
RTVSPropertyOp23
 70
     0
102
RTVSPropertyOp24
 70
     0
102
RTVSPropertyOp25
 70
     0
102
RTVSPropertyOp26
 70
     0
102
RTVSPropertyOp27
 70
     0
102
RTVSPropertyOp28
 70
     1
102
RTVSPropertyOp29
 70
     1
102
RTVSPropertyOp30
 70
     1
102
RTVSPropertyOp31
 70
     1
102
RTVSPropertyOp32
 70
     1
102
RTVSPropertyOp33
 70
     1
102
RTVSPropertyOp34
 70
     1
102
RTVSPropertyOp35
 70
     1
102
RTVSPropertyOp36
 70
     1
102
RTVSPropertyOp37
 70
     0
102
RTVSPropertyOp38
 70
     0
102
RTVSPropertyOp39
 70
     0
102
RTVSPropertyOp40
 70
     0
102
RTVSPropertyOp41
 70
     0
102
RTVSPropertyOp42
 70
     0
102
RTVSPropertyOp43
 70
     0
102
RTVSPropertyOp44
 70
     0
102
RTVSPropertyOp45
 70
     1
102
RTVSPropertyOp46
 70
     0
102
RTVSPropertyOp47
 70
     0
102
RTVSPropertyOp48
 70
     0
102
RTVSPropertyOp49
 70
     1
102
RTVSPropertyOp50
 70
     0
102
RTVSPropertyOp51
 70
     0
102
RTVSPropertyOp52
 70
     0
102
RTVSPropertyOp53
 70
     0
102
RTVSPropertyOp54
 70
     0
102
RTVSPropertyOp55
 70
     1
102
RTVSPropertyOp56
 70
     0
102
RTVSPropertyOp57
 70
     0
102
RTVSPost2010Prop28
280
     0
102
RTVSPost2010PropOp28
 70
     1
102
RTVSPost2010Prop29
280
     1
102
RTVSPost2010PropOp29
 70
     1
102
RTVSPost2010Prop30
280
     1
102
RTVSPost2010PropOp30
 70
     1
102
RTVSPost2010Prop31
280
     0
102
RTVSPost2010PropOp31
 70
     1
102
RTVSPost2010Prop32
280
     0
102
RTVSPost2010PropOp32
 70
     1
102
RTVSPost2010Prop33
280
     0
102
RTVSPost2010PropOp33
 70
     1
102
RTVSPost2010Prop34
280
     0
102
RTVSPost2010PropOp34
 70
     1
102
RTVSPost2010Prop35
280
     0
102
RTVSPost2010PropOp35
 70
     1
102
RTVSPost2010Prop36
280
     0
102
RTVSPost2010PropOp36
 70
     1
102
RTVSPost2010Prop37
 90
       50
102
RTVSPost2010PropOp37
 70
     0
102
RTVSPost2010Prop38
140
0.0
102
RTVSPost2010PropOp38
 70
     0
102
RTVSPost2010Prop39
140
1.0
102
RTVSPost2010PropOp39
 70
     0
102
RTVSPost2010Prop40
 90
        0
102
RTVSPost2010PropOp40
 70
     0
102
RTVSPost2010Prop41ColorIndex
 90
       18
102
RTVSPost2010Prop41ColorRGB
 90
        0
102
RTVSPost2010PropOp41
 70
     0
102
RTVSPost2010Prop42
 90
       50
102
RTVSPost2010PropOp42
 70
     0
102
RTVSPost2010Prop43
 90
        3
102
RTVSPost2010PropOp43
 70
     0
102
RTVSPost2010Prop44ColorIndex
 90
        5
102
RTVSPost2010Prop44ColorRGB
 90
      255
102
RTVSPost2010PropOp44
 70
     0
102
RTVSPost2010Prop45
280
     0
102
RTVSPost2010PropOp45
 70
     1
102
RTVSPost2010Prop46
 90
       50
102
RTVSPost2010PropOp46
 70
     0
102
RTVSPost2010Prop47
 90
       50
102
RTVSPost2010PropOp47
 70
     0
102
RTVSPost2010Prop48
 90
       50
102
RTVSPost2010PropOp48
 70
     0
102
RTVSPost2010Prop49
280
     0
102
RTVSPost2010PropOp49
 70
     1
102
RTVSPost2010Prop50
 90
       50
102
RTVSPost2010PropOp50
 70
     0
102
RTVSPost2010Prop51ColorIndex
 90
      256
102
RTVSPost2010Prop51ColorRGB
 90
-16777216
102
RTVSPost2010PropOp51
 70
     0
102
RTVSPost2010Prop52
140
1.0
102
RTVSPost2010PropOp52
 70
     0
102
RTVSPost2010Prop53
 90
        2
102
RTVSPost2010PropOp53
 70
     0
102
RTVSPost2010Prop54
  1
strokes_ogs.tif
102
RTVSPost2010PropOp54
 70
     0
102
RTVSPost2010Prop55
280
     0
102
RTVSPost2010PropOp55
 70
     1
102
RTVSPost2010Prop56
140
1.0
102
RTVSPost2010PropOp56
 70
     0
102
RTVSPost2010Prop57
140
1.0
102
RTVSPost2010PropOp57
 70
     0
  0
XRECORD
  5
95F3A
102
{ACAD_REACTORS
330
87B20
102
}
330
87B20
100
AcDbXrecord
280
     1
102
RTVSPropertyOp0
 70
     1
102
RTVSPropertyOp1
 70
     1
102
RTVSPropertyOp2
 70
     1
102
RTVSPropertyOp3
 70
     1
102
RTVSPropertyOp4
 70
     1
102
RTVSPropertyOp5
 70
     1
102
RTVSPropertyOp6
 70
     1
102
RTVSPropertyOp7
 70
     1
102
RTVSPropertyOp8
 70
     1
102
RTVSPropertyOp9
 70
     1
102
RTVSPropertyOp10
 70
     1
102
RTVSPropertyOp11
 70
     1
102
RTVSPropertyOp12
 70
     1
102
RTVSPropertyOp13
 70
     1
102
RTVSPropertyOp14
 70
     1
102
RTVSPropertyOp15
 70
     1
102
RTVSPropertyOp16
 70
     1
102
RTVSPropertyOp17
 70
     1
102
RTVSPropertyOp18
 70
     1
102
RTVSPropertyOp19
 70
     1
102
RTVSPropertyOp20
 70
     1
102
RTVSPropertyOp21
 70
     1
102
RTVSPropertyOp22
 70
     1
102
RTVSPropertyOp23
 70
     1
102
RTVSPropertyOp24
 70
     1
102
RTVSPropertyOp25
 70
     1
102
RTVSPropertyOp26
 70
     1
102
RTVSPropertyOp27
 70
     1
102
RTVSPropertyOp28
 70
     1
102
RTVSPropertyOp29
 70
     1
102
RTVSPropertyOp30
 70
     1
102
RTVSPropertyOp31
 70
     1
102
RTVSPropertyOp32
 70
     1
102
RTVSPropertyOp33
 70
     1
102
RTVSPropertyOp34
 70
     1
102
RTVSPropertyOp35
 70
     1
102
RTVSPropertyOp36
 70
     1
102
RTVSPropertyOp37
 70
     1
102
RTVSPropertyOp38
 70
     1
102
RTVSPropertyOp39
 70
     1
102
RTVSPropertyOp40
 70
     1
102
RTVSPropertyOp41
 70
     1
102
RTVSPropertyOp42
 70
     1
102
RTVSPropertyOp43
 70
     1
102
RTVSPropertyOp44
 70
     1
102
RTVSPropertyOp45
 70
     1
102
RTVSPropertyOp46
 70
     1
102
RTVSPropertyOp47
 70
     1
102
RTVSPropertyOp48
 70
     1
102
RTVSPropertyOp49
 70
     1
102
RTVSPropertyOp50
 70
     1
102
RTVSPropertyOp51
 70
     0
102
RTVSPropertyOp52
 70
     0
102
RTVSPropertyOp53
 70
     1
102
RTVSPropertyOp54
 70
     1
102
RTVSPropertyOp55
 70
     1
102
RTVSPropertyOp56
 70
     1
102
RTVSPropertyOp57
 70
     1
102
RTVSPost2010Prop28
280
     0
102
RTVSPost2010PropOp28
 70
     1
102
RTVSPost2010Prop29
280
     1
102
RTVSPost2010PropOp29
 70
     1
102
RTVSPost2010Prop30
280
     1
102
RTVSPost2010PropOp30
 70
     1
102
RTVSPost2010Prop31
280
     0
102
RTVSPost2010PropOp31
 70
     1
102
RTVSPost2010Prop32
280
     0
102
RTVSPost2010PropOp32
 70
     1
102
RTVSPost2010Prop33
280
     0
102
RTVSPost2010PropOp33
 70
     1
102
RTVSPost2010Prop34
280
     0
102
RTVSPost2010PropOp34
 70
     1
102
RTVSPost2010Prop35
280
     0
102
RTVSPost2010PropOp35
 70
     1
102
RTVSPost2010Prop36
280
     0
102
RTVSPost2010PropOp36
 70
     1
102
RTVSPost2010Prop37
 90
       50
102
RTVSPost2010PropOp37
 70
     1
102
RTVSPost2010Prop38
140
0.0
102
RTVSPost2010PropOp38
 70
     1
102
RTVSPost2010Prop39
140
1.0
102
RTVSPost2010PropOp39
 70
     1
102
RTVSPost2010Prop40
 90
        0
102
RTVSPost2010PropOp40
 70
     1
102
RTVSPost2010Prop41ColorIndex
 90
       18
102
RTVSPost2010Prop41ColorRGB
 90
        0
102
RTVSPost2010PropOp41
 70
     1
102
RTVSPost2010Prop42
 90
       50
102
RTVSPost2010PropOp42
 70
     1
102
RTVSPost2010Prop43
 90
        3
102
RTVSPost2010PropOp43
 70
     1
102
RTVSPost2010Prop44ColorIndex
 90
        5
102
RTVSPost2010Prop44ColorRGB
 90
      255
102
RTVSPost2010PropOp44
 70
     1
102
RTVSPost2010Prop45
280
     0
102
RTVSPost2010PropOp45
 70
     1
102
RTVSPost2010Prop46
 90
       50
102
RTVSPost2010PropOp46
 70
     1
102
RTVSPost2010Prop47
 90
       50
102
RTVSPost2010PropOp47
 70
     1
102
RTVSPost2010Prop48
 90
       50
102
RTVSPost2010PropOp48
 70
     1
102
RTVSPost2010Prop49
280
     0
102
RTVSPost2010PropOp49
 70
     1
102
RTVSPost2010Prop50
 90
       50
102
RTVSPost2010PropOp50
 70
     1
102
RTVSPost2010Prop51ColorIndex
 90
      256
102
RTVSPost2010Prop51ColorRGB
 90
-16777216
102
RTVSPost2010PropOp51
 70
     0
102
RTVSPost2010Prop52
140
1.0
102
RTVSPost2010PropOp52
 70
     0
102
RTVSPost2010Prop53
 90
        2
102
RTVSPost2010PropOp53
 70
     1
102
RTVSPost2010Prop54
  1
strokes_ogs.tif
102
RTVSPost2010PropOp54
 70
     1
102
RTVSPost2010Prop55
280
     0
102
RTVSPost2010PropOp55
 70
     1
102
RTVSPost2010Prop56
140
1.0
102
RTVSPost2010PropOp56
 70
     1
102
RTVSPost2010Prop57
140
1.0
102
RTVSPost2010PropOp57
 70
     1
  0
XRECORD
  5
95F3B
102
{ACAD_REACTORS
330
87B36
102
}
330
87B36
100
AcDbXrecord
280
     1
102
RTVSPropertyOp0
 70
     1
102
RTVSPropertyOp1
 70
     1
102
RTVSPropertyOp2
 70
     1
102
RTVSPropertyOp3
 70
     1
102
RTVSPropertyOp4
 70
     1
102
RTVSPropertyOp5
 70
     1
102
RTVSPropertyOp6
 70
     1
102
RTVSPropertyOp7
 70
     1
102
RTVSPropertyOp8
 70
     1
102
RTVSPropertyOp9
 70
     1
102
RTVSPropertyOp10
 70
     1
102
RTVSPropertyOp11
 70
     1
102
RTVSPropertyOp12
 70
     1
102
RTVSPropertyOp13
 70
     1
102
RTVSPropertyOp14
 70
     1
102
RTVSPropertyOp15
 70
     1
102
RTVSPropertyOp16
 70
     1
102
RTVSPropertyOp17
 70
     1
102
RTVSPropertyOp18
 70
     1
102
RTVSPropertyOp19
 70
     1
102
RTVSPropertyOp20
 70
     1
102
RTVSPropertyOp21
 70
     1
102
RTVSPropertyOp22
 70
     1
102
RTVSPropertyOp23
 70
     1
102
RTVSPropertyOp24
 70
     1
102
RTVSPropertyOp25
 70
     1
102
RTVSPropertyOp26
 70
     1
102
RTVSPropertyOp27
 70
     1
102
RTVSPropertyOp28
 70
     1
102
RTVSPropertyOp29
 70
     1
102
RTVSPropertyOp30
 70
     1
102
RTVSPropertyOp31
 70
     1
102
RTVSPropertyOp32
 70
     1
102
RTVSPropertyOp33
 70
     1
102
RTVSPropertyOp34
 70
     1
102
RTVSPropertyOp35
 70
     1
102
RTVSPropertyOp36
 70
     1
102
RTVSPropertyOp37
 70
     1
102
RTVSPropertyOp38
 70
     1
102
RTVSPropertyOp39
 70
     1
102
RTVSPropertyOp40
 70
     1
102
RTVSPropertyOp41
 70
     1
102
RTVSPropertyOp42
 70
     1
102
RTVSPropertyOp43
 70
     1
102
RTVSPropertyOp44
 70
     1
102
RTVSPropertyOp45
 70
     1
102
RTVSPropertyOp46
 70
     1
102
RTVSPropertyOp47
 70
     1
102
RTVSPropertyOp48
 70
     1
102
RTVSPropertyOp49
 70
     1
102
RTVSPropertyOp50
 70
     1
102
RTVSPropertyOp51
 70
     0
102
RTVSPropertyOp52
 70
     0
102
RTVSPropertyOp53
 70
     1
102
RTVSPropertyOp54
 70
     1
102
RTVSPropertyOp55
 70
     1
102
RTVSPropertyOp56
 70
     1
102
RTVSPropertyOp57
 70
     1
102
RTVSPost2010Prop28
280
     0
102
RTVSPost2010PropOp28
 70
     1
102
RTVSPost2010Prop29
280
     1
102
RTVSPost2010PropOp29
 70
     1
102
RTVSPost2010Prop30
280
     1
102
RTVSPost2010PropOp30
 70
     1
102
RTVSPost2010Prop31
280
     0
102
RTVSPost2010PropOp31
 70
     1
102
RTVSPost2010Prop32
280
     0
102
RTVSPost2010PropOp32
 70
     1
102
RTVSPost2010Prop33
280
     0
102
RTVSPost2010PropOp33
 70
     1
102
RTVSPost2010Prop34
280
     0
102
RTVSPost2010PropOp34
 70
     1
102
RTVSPost2010Prop35
280
     0
102
RTVSPost2010PropOp35
 70
     1
102
RTVSPost2010Prop36
280
     0
102
RTVSPost2010PropOp36
 70
     1
102
RTVSPost2010Prop37
 90
       50
102
RTVSPost2010PropOp37
 70
     1
102
RTVSPost2010Prop38
140
0.0
102
RTVSPost2010PropOp38
 70
     1
102
RTVSPost2010Prop39
140
1.0
102
RTVSPost2010PropOp39
 70
     1
102
RTVSPost2010Prop40
 90
        0
102
RTVSPost2010PropOp40
 70
     1
102
RTVSPost2010Prop41ColorIndex
 90
       18
102
RTVSPost2010Prop41ColorRGB
 90
        0
102
RTVSPost2010PropOp41
 70
     1
102
RTVSPost2010Prop42
 90
       50
102
RTVSPost2010PropOp42
 70
     1
102
RTVSPost2010Prop43
 90
        3
102
RTVSPost2010PropOp43
 70
     1
102
RTVSPost2010Prop44ColorIndex
 90
        5
102
RTVSPost2010Prop44ColorRGB
 90
      255
102
RTVSPost2010PropOp44
 70
     1
102
RTVSPost2010Prop45
280
     0
102
RTVSPost2010PropOp45
 70
     1
102
RTVSPost2010Prop46
 90
       50
102
RTVSPost2010PropOp46
 70
     1
102
RTVSPost2010Prop47
 90
       50
102
RTVSPost2010PropOp47
 70
     1
102
RTVSPost2010Prop48
 90
       50
102
RTVSPost2010PropOp48
 70
     1
102
RTVSPost2010Prop49
280
     0
102
RTVSPost2010PropOp49
 70
     1
102
RTVSPost2010Prop50
 90
       50
102
RTVSPost2010PropOp50
 70
     1
102
RTVSPost2010Prop51ColorIndex
 90
      256
102
RTVSPost2010Prop51ColorRGB
 90
-16777216
102
RTVSPost2010PropOp51
 70
     0
102
RTVSPost2010Prop52
140
1.0
102
RTVSPost2010PropOp52
 70
     0
102
RTVSPost2010Prop53
 90
        2
102
RTVSPost2010PropOp53
 70
     1
102
RTVSPost2010Prop54
  1
strokes_ogs.tif
102
RTVSPost2010PropOp54
 70
     1
102
RTVSPost2010Prop55
280
     0
102
RTVSPost2010PropOp55
 70
     1
102
RTVSPost2010Prop56
140
1.0
102
RTVSPost2010PropOp56
 70
     1
102
RTVSPost2010Prop57
140
1.0
102
RTVSPost2010PropOp57
 70
     1
  0
XRECORD
  5
95F3C
102
{ACAD_REACTORS
330
87B34
102
}
330
87B34
100
AcDbXrecord
280
     1
102
RTVSPropertyOp0
 70
     1
102
RTVSPropertyOp1
 70
     1
102
RTVSPropertyOp2
 70
     1
102
RTVSPropertyOp3
 70
     1
102
RTVSPropertyOp4
 70
     1
102
RTVSPropertyOp5
 70
     1
102
RTVSPropertyOp6
 70
     1
102
RTVSPropertyOp7
 70
     1
102
RTVSPropertyOp8
 70
     1
102
RTVSPropertyOp9
 70
     1
102
RTVSPropertyOp10
 70
     1
102
RTVSPropertyOp11
 70
     1
102
RTVSPropertyOp12
 70
     1
102
RTVSPropertyOp13
 70
     1
102
RTVSPropertyOp14
 70
     1
102
RTVSPropertyOp15
 70
     1
102
RTVSPropertyOp16
 70
     1
102
RTVSPropertyOp17
 70
     1
102
RTVSPropertyOp18
 70
     1
102
RTVSPropertyOp19
 70
     1
102
RTVSPropertyOp20
 70
     1
102
RTVSPropertyOp21
 70
     1
102
RTVSPropertyOp22
 70
     1
102
RTVSPropertyOp23
 70
     1
102
RTVSPropertyOp24
 70
     1
102
RTVSPropertyOp25
 70
     1
102
RTVSPropertyOp26
 70
     1
102
RTVSPropertyOp27
 70
     1
102
RTVSPropertyOp28
 70
     1
102
RTVSPropertyOp29
 70
     1
102
RTVSPropertyOp30
 70
     1
102
RTVSPropertyOp31
 70
     1
102
RTVSPropertyOp32
 70
     1
102
RTVSPropertyOp33
 70
     1
102
RTVSPropertyOp34
 70
     1
102
RTVSPropertyOp35
 70
     1
102
RTVSPropertyOp36
 70
     1
102
RTVSPropertyOp37
 70
     1
102
RTVSPropertyOp38
 70
     1
102
RTVSPropertyOp39
 70
     1
102
RTVSPropertyOp40
 70
     1
102
RTVSPropertyOp41
 70
     1
102
RTVSPropertyOp42
 70
     1
102
RTVSPropertyOp43
 70
     1
102
RTVSPropertyOp44
 70
     1
102
RTVSPropertyOp45
 70
     1
102
RTVSPropertyOp46
 70
     1
102
RTVSPropertyOp47
 70
     1
102
RTVSPropertyOp48
 70
     1
102
RTVSPropertyOp49
 70
     1
102
RTVSPropertyOp50
 70
     1
102
RTVSPropertyOp51
 70
     0
102
RTVSPropertyOp52
 70
     0
102
RTVSPropertyOp53
 70
     1
102
RTVSPropertyOp54
 70
     1
102
RTVSPropertyOp55
 70
     1
102
RTVSPropertyOp56
 70
     1
102
RTVSPropertyOp57
 70
     1
102
RTVSPost2010Prop28
280
     0
102
RTVSPost2010PropOp28
 70
     1
102
RTVSPost2010Prop29
280
     1
102
RTVSPost2010PropOp29
 70
     1
102
RTVSPost2010Prop30
280
     1
102
RTVSPost2010PropOp30
 70
     1
102
RTVSPost2010Prop31
280
     0
102
RTVSPost2010PropOp31
 70
     1
102
RTVSPost2010Prop32
280
     0
102
RTVSPost2010PropOp32
 70
     1
102
RTVSPost2010Prop33
280
     0
102
RTVSPost2010PropOp33
 70
     1
102
RTVSPost2010Prop34
280
     0
102
RTVSPost2010PropOp34
 70
     1
102
RTVSPost2010Prop35
280
     0
102
RTVSPost2010PropOp35
 70
     1
102
RTVSPost2010Prop36
280
     0
102
RTVSPost2010PropOp36
 70
     1
102
RTVSPost2010Prop37
 90
       50
102
RTVSPost2010PropOp37
 70
     1
102
RTVSPost2010Prop38
140
0.0
102
RTVSPost2010PropOp38
 70
     1
102
RTVSPost2010Prop39
140
1.0
102
RTVSPost2010PropOp39
 70
     1
102
RTVSPost2010Prop40
 90
        0
102
RTVSPost2010PropOp40
 70
     1
102
RTVSPost2010Prop41ColorIndex
 90
       18
102
RTVSPost2010Prop41ColorRGB
 90
        0
102
RTVSPost2010PropOp41
 70
     1
102
RTVSPost2010Prop42
 90
       50
102
RTVSPost2010PropOp42
 70
     1
102
RTVSPost2010Prop43
 90
        3
102
RTVSPost2010PropOp43
 70
     1
102
RTVSPost2010Prop44ColorIndex
 90
        5
102
RTVSPost2010Prop44ColorRGB
 90
      255
102
RTVSPost2010PropOp44
 70
     1
102
RTVSPost2010Prop45
280
     0
102
RTVSPost2010PropOp45
 70
     1
102
RTVSPost2010Prop46
 90
       50
102
RTVSPost2010PropOp46
 70
     1
102
RTVSPost2010Prop47
 90
       50
102
RTVSPost2010PropOp47
 70
     1
102
RTVSPost2010Prop48
 90
       50
102
RTVSPost2010PropOp48
 70
     1
102
RTVSPost2010Prop49
280
     0
102
RTVSPost2010PropOp49
 70
     1
102
RTVSPost2010Prop50
 90
       50
102
RTVSPost2010PropOp50
 70
     1
102
RTVSPost2010Prop51ColorIndex
 90
      256
102
RTVSPost2010Prop51ColorRGB
 90
-16777216
102
RTVSPost2010PropOp51
 70
     0
102
RTVSPost2010Prop52
140
1.0
102
RTVSPost2010PropOp52
 70
     0
102
RTVSPost2010Prop53
 90
        2
102
RTVSPost2010PropOp53
 70
     1
102
RTVSPost2010Prop54
  1
strokes_ogs.tif
102
RTVSPost2010PropOp54
 70
     1
102
RTVSPost2010Prop55
280
     0
102
RTVSPost2010PropOp55
 70
     1
102
RTVSPost2010Prop56
140
1.0
102
RTVSPost2010PropOp56
 70
     1
102
RTVSPost2010Prop57
140
1.0
102
RTVSPost2010PropOp57
 70
     1
  0
XRECORD
  5
95F3D
102
{ACAD_REACTORS
330
87B2E
102
}
330
87B2E
100
AcDbXrecord
280
     1
102
RTVSPropertyOp0
 70
     1
102
RTVSPropertyOp1
 70
     1
102
RTVSPropertyOp2
 70
     1
102
RTVSPropertyOp3
 70
     1
102
RTVSPropertyOp4
 70
     1
102
RTVSPropertyOp5
 70
     1
102
RTVSPropertyOp6
 70
     1
102
RTVSPropertyOp7
 70
     1
102
RTVSPropertyOp8
 70
     1
102
RTVSPropertyOp9
 70
     1
102
RTVSPropertyOp10
 70
     1
102
RTVSPropertyOp11
 70
     1
102
RTVSPropertyOp12
 70
     1
102
RTVSPropertyOp13
 70
     1
102
RTVSPropertyOp14
 70
     1
102
RTVSPropertyOp15
 70
     1
102
RTVSPropertyOp16
 70
     1
102
RTVSPropertyOp17
 70
     1
102
RTVSPropertyOp18
 70
     1
102
RTVSPropertyOp19
 70
     1
102
RTVSPropertyOp20
 70
     1
102
RTVSPropertyOp21
 70
     1
102
RTVSPropertyOp22
 70
     1
102
RTVSPropertyOp23
 70
     1
102
RTVSPropertyOp24
 70
     1
102
RTVSPropertyOp25
 70
     1
102
RTVSPropertyOp26
 70
     1
102
RTVSPropertyOp27
 70
     1
102
RTVSPropertyOp28
 70
     1
102
RTVSPropertyOp29
 70
     1
102
RTVSPropertyOp30
 70
     1
102
RTVSPropertyOp31
 70
     1
102
RTVSPropertyOp32
 70
     1
102
RTVSPropertyOp33
 70
     1
102
RTVSPropertyOp34
 70
     1
102
RTVSPropertyOp35
 70
     1
102
RTVSPropertyOp36
 70
     1
102
RTVSPropertyOp37
 70
     1
102
RTVSPropertyOp38
 70
     1
102
RTVSPropertyOp39
 70
     1
102
RTVSPropertyOp40
 70
     1
102
RTVSPropertyOp41
 70
     1
102
RTVSPropertyOp42
 70
     1
102
RTVSPropertyOp43
 70
     1
102
RTVSPropertyOp44
 70
     1
102
RTVSPropertyOp45
 70
     1
102
RTVSPropertyOp46
 70
     1
102
RTVSPropertyOp47
 70
     1
102
RTVSPropertyOp48
 70
     1
102
RTVSPropertyOp49
 70
     1
102
RTVSPropertyOp50
 70
     1
102
RTVSPropertyOp51
 70
     0
102
RTVSPropertyOp52
 70
     0
102
RTVSPropertyOp53
 70
     1
102
RTVSPropertyOp54
 70
     1
102
RTVSPropertyOp55
 70
     1
102
RTVSPropertyOp56
 70
     1
102
RTVSPropertyOp57
 70
     1
102
RTVSPost2010Prop28
280
     0
102
RTVSPost2010PropOp28
 70
     1
102
RTVSPost2010Prop29
280
     1
102
RTVSPost2010PropOp29
 70
     1
102
RTVSPost2010Prop30
280
     1
102
RTVSPost2010PropOp30
 70
     1
102
RTVSPost2010Prop31
280
     0
102
RTVSPost2010PropOp31
 70
     1
102
RTVSPost2010Prop32
280
     0
102
RTVSPost2010PropOp32
 70
     1
102
RTVSPost2010Prop33
280
     0
102
RTVSPost2010PropOp33
 70
     1
102
RTVSPost2010Prop34
280
     0
102
RTVSPost2010PropOp34
 70
     1
102
RTVSPost2010Prop35
280
     0
102
RTVSPost2010PropOp35
 70
     1
102
RTVSPost2010Prop36
280
     0
102
RTVSPost2010PropOp36
 70
     1
102
RTVSPost2010Prop37
 90
       50
102
RTVSPost2010PropOp37
 70
     1
102
RTVSPost2010Prop38
140
0.0
102
RTVSPost2010PropOp38
 70
     1
102
RTVSPost2010Prop39
140
1.0
102
RTVSPost2010PropOp39
 70
     1
102
RTVSPost2010Prop40
 90
        0
102
RTVSPost2010PropOp40
 70
     1
102
RTVSPost2010Prop41ColorIndex
 90
       18
102
RTVSPost2010Prop41ColorRGB
 90
        0
102
RTVSPost2010PropOp41
 70
     1
102
RTVSPost2010Prop42
 90
       50
102
RTVSPost2010PropOp42
 70
     1
102
RTVSPost2010Prop43
 90
        3
102
RTVSPost2010PropOp43
 70
     1
102
RTVSPost2010Prop44ColorIndex
 90
        5
102
RTVSPost2010Prop44ColorRGB
 90
      255
102
RTVSPost2010PropOp44
 70
     1
102
RTVSPost2010Prop45
280
     0
102
RTVSPost2010PropOp45
 70
     1
102
RTVSPost2010Prop46
 90
       50
102
RTVSPost2010PropOp46
 70
     1
102
RTVSPost2010Prop47
 90
       50
102
RTVSPost2010PropOp47
 70
     1
102
RTVSPost2010Prop48
 90
       50
102
RTVSPost2010PropOp48
 70
     1
102
RTVSPost2010Prop49
280
     0
102
RTVSPost2010PropOp49
 70
     1
102
RTVSPost2010Prop50
 90
       50
102
RTVSPost2010PropOp50
 70
     1
102
RTVSPost2010Prop51ColorIndex
 90
      256
102
RTVSPost2010Prop51ColorRGB
 90
-16777216
102
RTVSPost2010PropOp51
 70
     0
102
RTVSPost2010Prop52
140
1.0
102
RTVSPost2010PropOp52
 70
     0
102
RTVSPost2010Prop53
 90
        2
102
RTVSPost2010PropOp53
 70
     1
102
RTVSPost2010Prop54
  1
strokes_ogs.tif
102
RTVSPost2010PropOp54
 70
     1
102
RTVSPost2010Prop55
280
     0
102
RTVSPost2010PropOp55
 70
     1
102
RTVSPost2010Prop56
140
1.0
102
RTVSPost2010PropOp56
 70
     1
102
RTVSPost2010Prop57
140
1.0
102
RTVSPost2010PropOp57
 70
     1
  0
XRECORD
  5
95F3E
102
{ACAD_REACTORS
330
87B30
102
}
330
87B30
100
AcDbXrecord
280
     1
102
RTVSPropertyOp0
 70
     1
102
RTVSPropertyOp1
 70
     1
102
RTVSPropertyOp2
 70
     1
102
RTVSPropertyOp3
 70
     1
102
RTVSPropertyOp4
 70
     1
102
RTVSPropertyOp5
 70
     1
102
RTVSPropertyOp6
 70
     1
102
RTVSPropertyOp7
 70
     1
102
RTVSPropertyOp8
 70
     1
102
RTVSPropertyOp9
 70
     1
102
RTVSPropertyOp10
 70
     1
102
RTVSPropertyOp11
 70
     1
102
RTVSPropertyOp12
 70
     1
102
RTVSPropertyOp13
 70
     1
102
RTVSPropertyOp14
 70
     1
102
RTVSPropertyOp15
 70
     1
102
RTVSPropertyOp16
 70
     1
102
RTVSPropertyOp17
 70
     1
102
RTVSPropertyOp18
 70
     1
102
RTVSPropertyOp19
 70
     1
102
RTVSPropertyOp20
 70
     1
102
RTVSPropertyOp21
 70
     1
102
RTVSPropertyOp22
 70
     1
102
RTVSPropertyOp23
 70
     1
102
RTVSPropertyOp24
 70
     1
102
RTVSPropertyOp25
 70
     1
102
RTVSPropertyOp26
 70
     1
102
RTVSPropertyOp27
 70
     1
102
RTVSPropertyOp28
 70
     1
102
RTVSPropertyOp29
 70
     1
102
RTVSPropertyOp30
 70
     1
102
RTVSPropertyOp31
 70
     1
102
RTVSPropertyOp32
 70
     1
102
RTVSPropertyOp33
 70
     1
102
RTVSPropertyOp34
 70
     1
102
RTVSPropertyOp35
 70
     1
102
RTVSPropertyOp36
 70
     1
102
RTVSPropertyOp37
 70
     1
102
RTVSPropertyOp38
 70
     1
102
RTVSPropertyOp39
 70
     1
102
RTVSPropertyOp40
 70
     1
102
RTVSPropertyOp41
 70
     1
102
RTVSPropertyOp42
 70
     1
102
RTVSPropertyOp43
 70
     1
102
RTVSPropertyOp44
 70
     1
102
RTVSPropertyOp45
 70
     1
102
RTVSPropertyOp46
 70
     1
102
RTVSPropertyOp47
 70
     1
102
RTVSPropertyOp48
 70
     1
102
RTVSPropertyOp49
 70
     1
102
RTVSPropertyOp50
 70
     1
102
RTVSPropertyOp51
 70
     0
102
RTVSPropertyOp52
 70
     0
102
RTVSPropertyOp53
 70
     1
102
RTVSPropertyOp54
 70
     1
102
RTVSPropertyOp55
 70
     1
102
RTVSPropertyOp56
 70
     1
102
RTVSPropertyOp57
 70
     1
102
RTVSPost2010Prop28
280
     0
102
RTVSPost2010PropOp28
 70
     1
102
RTVSPost2010Prop29
280
     1
102
RTVSPost2010PropOp29
 70
     1
102
RTVSPost2010Prop30
280
     1
102
RTVSPost2010PropOp30
 70
     1
102
RTVSPost2010Prop31
280
     0
102
RTVSPost2010PropOp31
 70
     1
102
RTVSPost2010Prop32
280
     0
102
RTVSPost2010PropOp32
 70
     1
102
RTVSPost2010Prop33
280
     0
102
RTVSPost2010PropOp33
 70
     1
102
RTVSPost2010Prop34
280
     0
102
RTVSPost2010PropOp34
 70
     1
102
RTVSPost2010Prop35
280
     0
102
RTVSPost2010PropOp35
 70
     1
102
RTVSPost2010Prop36
280
     0
102
RTVSPost2010PropOp36
 70
     1
102
RTVSPost2010Prop37
 90
       50
102
RTVSPost2010PropOp37
 70
     1
102
RTVSPost2010Prop38
140
0.0
102
RTVSPost2010PropOp38
 70
     1
102
RTVSPost2010Prop39
140
1.0
102
RTVSPost2010PropOp39
 70
     1
102
RTVSPost2010Prop40
 90
        0
102
RTVSPost2010PropOp40
 70
     1
102
RTVSPost2010Prop41ColorIndex
 90
       18
102
RTVSPost2010Prop41ColorRGB
 90
        0
102
RTVSPost2010PropOp41
 70
     1
102
RTVSPost2010Prop42
 90
       50
102
RTVSPost2010PropOp42
 70
     1
102
RTVSPost2010Prop43
 90
        3
102
RTVSPost2010PropOp43
 70
     1
102
RTVSPost2010Prop44ColorIndex
 90
        5
102
RTVSPost2010Prop44ColorRGB
 90
      255
102
RTVSPost2010PropOp44
 70
     1
102
RTVSPost2010Prop45
280
     0
102
RTVSPost2010PropOp45
 70
     1
102
RTVSPost2010Prop46
 90
       50
102
RTVSPost2010PropOp46
 70
     1
102
RTVSPost2010Prop47
 90
       50
102
RTVSPost2010PropOp47
 70
     1
102
RTVSPost2010Prop48
 90
       50
102
RTVSPost2010PropOp48
 70
     1
102
RTVSPost2010Prop49
280
     0
102
RTVSPost2010PropOp49
 70
     1
102
RTVSPost2010Prop50
 90
       50
102
RTVSPost2010PropOp50
 70
     1
102
RTVSPost2010Prop51ColorIndex
 90
      256
102
RTVSPost2010Prop51ColorRGB
 90
-16777216
102
RTVSPost2010PropOp51
 70
     0
102
RTVSPost2010Prop52
140
1.0
102
RTVSPost2010PropOp52
 70
     0
102
RTVSPost2010Prop53
 90
        2
102
RTVSPost2010PropOp53
 70
     1
102
RTVSPost2010Prop54
  1
strokes_ogs.tif
102
RTVSPost2010PropOp54
 70
     1
102
RTVSPost2010Prop55
280
     0
102
RTVSPost2010PropOp55
 70
     1
102
RTVSPost2010Prop56
140
1.0
102
RTVSPost2010PropOp56
 70
     1
102
RTVSPost2010Prop57
140
1.0
102
RTVSPost2010PropOp57
 70
     1
  0
XRECORD
  5
95F3F
102
{ACAD_REACTORS
330
87B26
102
}
330
87B26
100
AcDbXrecord
280
     1
102
RTVSPropertyOp0
 70
     1
102
RTVSPropertyOp1
 70
     1
102
RTVSPropertyOp2
 70
     1
102
RTVSPropertyOp3
 70
     1
102
RTVSPropertyOp4
 70
     1
102
RTVSPropertyOp5
 70
     1
102
RTVSPropertyOp6
 70
     1
102
RTVSPropertyOp7
 70
     1
102
RTVSPropertyOp8
 70
     1
102
RTVSPropertyOp9
 70
     1
102
RTVSPropertyOp10
 70
     1
102
RTVSPropertyOp11
 70
     1
102
RTVSPropertyOp12
 70
     1
102
RTVSPropertyOp13
 70
     1
102
RTVSPropertyOp14
 70
     1
102
RTVSPropertyOp15
 70
     1
102
RTVSPropertyOp16
 70
     1
102
RTVSPropertyOp17
 70
     1
102
RTVSPropertyOp18
 70
     1
102
RTVSPropertyOp19
 70
     1
102
RTVSPropertyOp20
 70
     1
102
RTVSPropertyOp21
 70
     1
102
RTVSPropertyOp22
 70
     1
102
RTVSPropertyOp23
 70
     1
102
RTVSPropertyOp24
 70
     1
102
RTVSPropertyOp25
 70
     1
102
RTVSPropertyOp26
 70
     1
102
RTVSPropertyOp27
 70
     1
102
RTVSPropertyOp28
 70
     1
102
RTVSPropertyOp29
 70
     1
102
RTVSPropertyOp30
 70
     1
102
RTVSPropertyOp31
 70
     1
102
RTVSPropertyOp32
 70
     1
102
RTVSPropertyOp33
 70
     1
102
RTVSPropertyOp34
 70
     1
102
RTVSPropertyOp35
 70
     1
102
RTVSPropertyOp36
 70
     1
102
RTVSPropertyOp37
 70
     1
102
RTVSPropertyOp38
 70
     1
102
RTVSPropertyOp39
 70
     1
102
RTVSPropertyOp40
 70
     1
102
RTVSPropertyOp41
 70
     1
102
RTVSPropertyOp42
 70
     1
102
RTVSPropertyOp43
 70
     1
102
RTVSPropertyOp44
 70
     1
102
RTVSPropertyOp45
 70
     1
102
RTVSPropertyOp46
 70
     1
102
RTVSPropertyOp47
 70
     1
102
RTVSPropertyOp48
 70
     1
102
RTVSPropertyOp49
 70
     1
102
RTVSPropertyOp50
 70
     1
102
RTVSPropertyOp51
 70
     0
102
RTVSPropertyOp52
 70
     0
102
RTVSPropertyOp53
 70
     1
102
RTVSPropertyOp54
 70
     1
102
RTVSPropertyOp55
 70
     1
102
RTVSPropertyOp56
 70
     1
102
RTVSPropertyOp57
 70
     1
102
RTVSPost2010Prop28
280
     0
102
RTVSPost2010PropOp28
 70
     1
102
RTVSPost2010Prop29
280
     1
102
RTVSPost2010PropOp29
 70
     1
102
RTVSPost2010Prop30
280
     1
102
RTVSPost2010PropOp30
 70
     1
102
RTVSPost2010Prop31
280
     0
102
RTVSPost2010PropOp31
 70
     1
102
RTVSPost2010Prop32
280
     0
102
RTVSPost2010PropOp32
 70
     1
102
RTVSPost2010Prop33
280
     0
102
RTVSPost2010PropOp33
 70
     1
102
RTVSPost2010Prop34
280
     0
102
RTVSPost2010PropOp34
 70
     1
102
RTVSPost2010Prop35
280
     0
102
RTVSPost2010PropOp35
 70
     1
102
RTVSPost2010Prop36
280
     0
102
RTVSPost2010PropOp36
 70
     1
102
RTVSPost2010Prop37
 90
       50
102
RTVSPost2010PropOp37
 70
     1
102
RTVSPost2010Prop38
140
0.0
102
RTVSPost2010PropOp38
 70
     1
102
RTVSPost2010Prop39
140
1.0
102
RTVSPost2010PropOp39
 70
     1
102
RTVSPost2010Prop40
 90
        0
102
RTVSPost2010PropOp40
 70
     1
102
RTVSPost2010Prop41ColorIndex
 90
       18
102
RTVSPost2010Prop41ColorRGB
 90
        0
102
RTVSPost2010PropOp41
 70
     1
102
RTVSPost2010Prop42
 90
       50
102
RTVSPost2010PropOp42
 70
     1
102
RTVSPost2010Prop43
 90
        3
102
RTVSPost2010PropOp43
 70
     1
102
RTVSPost2010Prop44ColorIndex
 90
        5
102
RTVSPost2010Prop44ColorRGB
 90
      255
102
RTVSPost2010PropOp44
 70
     1
102
RTVSPost2010Prop45
280
     0
102
RTVSPost2010PropOp45
 70
     1
102
RTVSPost2010Prop46
 90
       50
102
RTVSPost2010PropOp46
 70
     1
102
RTVSPost2010Prop47
 90
       50
102
RTVSPost2010PropOp47
 70
     1
102
RTVSPost2010Prop48
 90
       50
102
RTVSPost2010PropOp48
 70
     1
102
RTVSPost2010Prop49
280
     0
102
RTVSPost2010PropOp49
 70
     1
102
RTVSPost2010Prop50
 90
       50
102
RTVSPost2010PropOp50
 70
     1
102
RTVSPost2010Prop51ColorIndex
 90
      256
102
RTVSPost2010Prop51ColorRGB
 90
-16777216
102
RTVSPost2010PropOp51
 70
     0
102
RTVSPost2010Prop52
140
1.0
102
RTVSPost2010PropOp52
 70
     0
102
RTVSPost2010Prop53
 90
        2
102
RTVSPost2010PropOp53
 70
     1
102
RTVSPost2010Prop54
  1
strokes_ogs.tif
102
RTVSPost2010PropOp54
 70
     1
102
RTVSPost2010Prop55
280
     0
102
RTVSPost2010PropOp55
 70
     1
102
RTVSPost2010Prop56
140
1.0
102
RTVSPost2010PropOp56
 70
     1
102
RTVSPost2010Prop57
140
1.0
102
RTVSPost2010PropOp57
 70
     1
  0
XRECORD
  5
95F40
102
{ACAD_REACTORS
330
87B1A
102
}
330
87B1A
100
AcDbXrecord
280
     1
102
RTVSPropertyOp0
 70
     1
102
RTVSPropertyOp1
 70
     1
102
RTVSPropertyOp2
 70
     1
102
RTVSPropertyOp3
 70
     1
102
RTVSPropertyOp4
 70
     1
102
RTVSPropertyOp5
 70
     1
102
RTVSPropertyOp6
 70
     1
102
RTVSPropertyOp7
 70
     1
102
RTVSPropertyOp8
 70
     1
102
RTVSPropertyOp9
 70
     1
102
RTVSPropertyOp10
 70
     1
102
RTVSPropertyOp11
 70
     1
102
RTVSPropertyOp12
 70
     1
102
RTVSPropertyOp13
 70
     1
102
RTVSPropertyOp14
 70
     1
102
RTVSPropertyOp15
 70
     1
102
RTVSPropertyOp16
 70
     1
102
RTVSPropertyOp17
 70
     1
102
RTVSPropertyOp18
 70
     1
102
RTVSPropertyOp19
 70
     1
102
RTVSPropertyOp20
 70
     1
102
RTVSPropertyOp21
 70
     1
102
RTVSPropertyOp22
 70
     1
102
RTVSPropertyOp23
 70
     1
102
RTVSPropertyOp24
 70
     1
102
RTVSPropertyOp25
 70
     1
102
RTVSPropertyOp26
 70
     1
102
RTVSPropertyOp27
 70
     1
102
RTVSPropertyOp28
 70
     1
102
RTVSPropertyOp29
 70
     1
102
RTVSPropertyOp30
 70
     1
102
RTVSPropertyOp31
 70
     1
102
RTVSPropertyOp32
 70
     1
102
RTVSPropertyOp33
 70
     1
102
RTVSPropertyOp34
 70
     1
102
RTVSPropertyOp35
 70
     1
102
RTVSPropertyOp36
 70
     1
102
RTVSPropertyOp37
 70
     1
102
RTVSPropertyOp38
 70
     1
102
RTVSPropertyOp39
 70
     1
102
RTVSPropertyOp40
 70
     1
102
RTVSPropertyOp41
 70
     1
102
RTVSPropertyOp42
 70
     1
102
RTVSPropertyOp43
 70
     1
102
RTVSPropertyOp44
 70
     1
102
RTVSPropertyOp45
 70
     1
102
RTVSPropertyOp46
 70
     1
102
RTVSPropertyOp47
 70
     1
102
RTVSPropertyOp48
 70
     1
102
RTVSPropertyOp49
 70
     1
102
RTVSPropertyOp50
 70
     1
102
RTVSPropertyOp51
 70
     0
102
RTVSPropertyOp52
 70
     0
102
RTVSPropertyOp53
 70
     1
102
RTVSPropertyOp54
 70
     1
102
RTVSPropertyOp55
 70
     1
102
RTVSPropertyOp56
 70
     1
102
RTVSPropertyOp57
 70
     1
102
RTVSPost2010Prop28
280
     0
102
RTVSPost2010PropOp28
 70
     1
102
RTVSPost2010Prop29
280
     1
102
RTVSPost2010PropOp29
 70
     1
102
RTVSPost2010Prop30
280
     1
102
RTVSPost2010PropOp30
 70
     1
102
RTVSPost2010Prop31
280
     0
102
RTVSPost2010PropOp31
 70
     1
102
RTVSPost2010Prop32
280
     0
102
RTVSPost2010PropOp32
 70
     1
102
RTVSPost2010Prop33
280
     0
102
RTVSPost2010PropOp33
 70
     1
102
RTVSPost2010Prop34
280
     0
102
RTVSPost2010PropOp34
 70
     1
102
RTVSPost2010Prop35
280
     0
102
RTVSPost2010PropOp35
 70
     1
102
RTVSPost2010Prop36
280
     0
102
RTVSPost2010PropOp36
 70
     1
102
RTVSPost2010Prop37
 90
       50
102
RTVSPost2010PropOp37
 70
     1
102
RTVSPost2010Prop38
140
0.0
102
RTVSPost2010PropOp38
 70
     1
102
RTVSPost2010Prop39
140
1.0
102
RTVSPost2010PropOp39
 70
     1
102
RTVSPost2010Prop40
 90
        0
102
RTVSPost2010PropOp40
 70
     1
102
RTVSPost2010Prop41ColorIndex
 90
       18
102
RTVSPost2010Prop41ColorRGB
 90
        0
102
RTVSPost2010PropOp41
 70
     1
102
RTVSPost2010Prop42
 90
       50
102
RTVSPost2010PropOp42
 70
     1
102
RTVSPost2010Prop43
 90
        3
102
RTVSPost2010PropOp43
 70
     1
102
RTVSPost2010Prop44ColorIndex
 90
        5
102
RTVSPost2010Prop44ColorRGB
 90
      255
102
RTVSPost2010PropOp44
 70
     1
102
RTVSPost2010Prop45
280
     0
102
RTVSPost2010PropOp45
 70
     1
102
RTVSPost2010Prop46
 90
       50
102
RTVSPost2010PropOp46
 70
     1
102
RTVSPost2010Prop47
 90
       50
102
RTVSPost2010PropOp47
 70
     1
102
RTVSPost2010Prop48
 90
       50
102
RTVSPost2010PropOp48
 70
     1
102
RTVSPost2010Prop49
280
     0
102
RTVSPost2010PropOp49
 70
     1
102
RTVSPost2010Prop50
 90
       50
102
RTVSPost2010PropOp50
 70
     1
102
RTVSPost2010Prop51ColorIndex
 90
      256
102
RTVSPost2010Prop51ColorRGB
 90
-16777216
102
RTVSPost2010PropOp51
 70
     0
102
RTVSPost2010Prop52
140
1.0
102
RTVSPost2010PropOp52
 70
     0
102
RTVSPost2010Prop53
 90
        2
102
RTVSPost2010PropOp53
 70
     1
102
RTVSPost2010Prop54
  1
strokes_ogs.tif
102
RTVSPost2010PropOp54
 70
     1
102
RTVSPost2010Prop55
280
     0
102
RTVSPost2010PropOp55
 70
     1
102
RTVSPost2010Prop56
140
1.0
102
RTVSPost2010PropOp56
 70
     1
102
RTVSPost2010Prop57
140
1.0
102
RTVSPost2010PropOp57
 70
     1
  0
XRECORD
  5
95F41
102
{ACAD_REACTORS
330
87B32
102
}
330
87B32
100
AcDbXrecord
280
     1
102
RTVSPropertyOp0
 70
     1
102
RTVSPropertyOp1
 70
     1
102
RTVSPropertyOp2
 70
     1
102
RTVSPropertyOp3
 70
     1
102
RTVSPropertyOp4
 70
     1
102
RTVSPropertyOp5
 70
     1
102
RTVSPropertyOp6
 70
     1
102
RTVSPropertyOp7
 70
     1
102
RTVSPropertyOp8
 70
     1
102
RTVSPropertyOp9
 70
     1
102
RTVSPropertyOp10
 70
     1
102
RTVSPropertyOp11
 70
     1
102
RTVSPropertyOp12
 70
     1
102
RTVSPropertyOp13
 70
     1
102
RTVSPropertyOp14
 70
     1
102
RTVSPropertyOp15
 70
     1
102
RTVSPropertyOp16
 70
     1
102
RTVSPropertyOp17
 70
     1
102
RTVSPropertyOp18
 70
     1
102
RTVSPropertyOp19
 70
     1
102
RTVSPropertyOp20
 70
     1
102
RTVSPropertyOp21
 70
     1
102
RTVSPropertyOp22
 70
     1
102
RTVSPropertyOp23
 70
     1
102
RTVSPropertyOp24
 70
     1
102
RTVSPropertyOp25
 70
     1
102
RTVSPropertyOp26
 70
     1
102
RTVSPropertyOp27
 70
     1
102
RTVSPropertyOp28
 70
     1
102
RTVSPropertyOp29
 70
     1
102
RTVSPropertyOp30
 70
     1
102
RTVSPropertyOp31
 70
     1
102
RTVSPropertyOp32
 70
     1
102
RTVSPropertyOp33
 70
     1
102
RTVSPropertyOp34
 70
     1
102
RTVSPropertyOp35
 70
     1
102
RTVSPropertyOp36
 70
     1
102
RTVSPropertyOp37
 70
     1
102
RTVSPropertyOp38
 70
     1
102
RTVSPropertyOp39
 70
     1
102
RTVSPropertyOp40
 70
     1
102
RTVSPropertyOp41
 70
     1
102
RTVSPropertyOp42
 70
     1
102
RTVSPropertyOp43
 70
     1
102
RTVSPropertyOp44
 70
     1
102
RTVSPropertyOp45
 70
     1
102
RTVSPropertyOp46
 70
     1
102
RTVSPropertyOp47
 70
     1
102
RTVSPropertyOp48
 70
     1
102
RTVSPropertyOp49
 70
     1
102
RTVSPropertyOp50
 70
     1
102
RTVSPropertyOp51
 70
     0
102
RTVSPropertyOp52
 70
     0
102
RTVSPropertyOp53
 70
     1
102
RTVSPropertyOp54
 70
     1
102
RTVSPropertyOp55
 70
     1
102
RTVSPropertyOp56
 70
     1
102
RTVSPropertyOp57
 70
     1
102
RTVSPost2010Prop28
280
     0
102
RTVSPost2010PropOp28
 70
     1
102
RTVSPost2010Prop29
280
     1
102
RTVSPost2010PropOp29
 70
     1
102
RTVSPost2010Prop30
280
     1
102
RTVSPost2010PropOp30
 70
     1
102
RTVSPost2010Prop31
280
     0
102
RTVSPost2010PropOp31
 70
     1
102
RTVSPost2010Prop32
280
     0
102
RTVSPost2010PropOp32
 70
     1
102
RTVSPost2010Prop33
280
     0
102
RTVSPost2010PropOp33
 70
     1
102
RTVSPost2010Prop34
280
     0
102
RTVSPost2010PropOp34
 70
     1
102
RTVSPost2010Prop35
280
     0
102
RTVSPost2010PropOp35
 70
     1
102
RTVSPost2010Prop36
280
     0
102
RTVSPost2010PropOp36
 70
     1
102
RTVSPost2010Prop37
 90
       50
102
RTVSPost2010PropOp37
 70
     1
102
RTVSPost2010Prop38
140
0.0
102
RTVSPost2010PropOp38
 70
     1
102
RTVSPost2010Prop39
140
1.0
102
RTVSPost2010PropOp39
 70
     1
102
RTVSPost2010Prop40
 90
        0
102
RTVSPost2010PropOp40
 70
     1
102
RTVSPost2010Prop41ColorIndex
 90
       18
102
RTVSPost2010Prop41ColorRGB
 90
        0
102
RTVSPost2010PropOp41
 70
     1
102
RTVSPost2010Prop42
 90
       50
102
RTVSPost2010PropOp42
 70
     1
102
RTVSPost2010Prop43
 90
        3
102
RTVSPost2010PropOp43
 70
     1
102
RTVSPost2010Prop44ColorIndex
 90
        5
102
RTVSPost2010Prop44ColorRGB
 90
      255
102
RTVSPost2010PropOp44
 70
     1
102
RTVSPost2010Prop45
280
     0
102
RTVSPost2010PropOp45
 70
     1
102
RTVSPost2010Prop46
 90
       50
102
RTVSPost2010PropOp46
 70
     1
102
RTVSPost2010Prop47
 90
       50
102
RTVSPost2010PropOp47
 70
     1
102
RTVSPost2010Prop48
 90
       50
102
RTVSPost2010PropOp48
 70
     1
102
RTVSPost2010Prop49
280
     0
102
RTVSPost2010PropOp49
 70
     1
102
RTVSPost2010Prop50
 90
       50
102
RTVSPost2010PropOp50
 70
     1
102
RTVSPost2010Prop51ColorIndex
 90
      256
102
RTVSPost2010Prop51ColorRGB
 90
-16777216
102
RTVSPost2010PropOp51
 70
     0
102
RTVSPost2010Prop52
140
1.0
102
RTVSPost2010PropOp52
 70
     0
102
RTVSPost2010Prop53
 90
        2
102
RTVSPost2010PropOp53
 70
     1
102
RTVSPost2010Prop54
  1
strokes_ogs.tif
102
RTVSPost2010PropOp54
 70
     1
102
RTVSPost2010Prop55
280
     0
102
RTVSPost2010PropOp55
 70
     1
102
RTVSPost2010Prop56
140
1.0
102
RTVSPost2010PropOp56
 70
     1
102
RTVSPost2010Prop57
140
1.0
102
RTVSPost2010PropOp57
 70
     1
  0
ENDSEC
  0
EOF
