  0
SECTION
  2
HEADER
  9
$ACADVER
  1
AC1015
  9
$ACADMAINTVER
 70
    20
  9
$DWGCODEPAGE
  3
ANSI_932
  9
$INSBASE
 10
0.0
 20
0.0
 30
0.0
  9
$EXTMIN
 10
-35.83061141354433
 20
-121.4853368591289
 30
0.0
  9
$EXTMAX
 10
119.4333333333333
 20
152.3833945520237
 30
0.0
  9
$LIMMIN
 10
0.0
 20
0.0
  9
$LIMMAX
 10
420.0
 20
297.0
  9
$ORTHOMODE
 70
     1
  9
$REGENMODE
 70
     1
  9
$FILLMODE
 70
     1
  9
$QTEXTMODE
 70
     0
  9
$MIRRTEXT
 70
     1
  9
$LTSCALE
 40
1.0
  9
$ATTMODE
 70
     1
  9
$TEXTSIZE
 40
3.5
  9
$TRACEWID
 40
1.0
  9
$TEXTSTYLE
  7
simplex
  9
$CLAYER
  8
0
  9
$CELTYPE
  6
ByLayer
  9
$CECOLOR
 62
   256
  9
$CELTSCALE
 40
1.0
  9
$DISPSILH
 70
     0
  9
$DIMSCALE
 40
0.0
  9
$DIMASZ
 40
3.5
  9
$DIMEXO
 40
0.0
  9
$DIMDLI
 40
0.38
  9
$DIMRND
 40
0.0
  9
$DIMDLE
 40
0.0
  9
$DIMEXE
 40
1.5
  9
$DIMTP
 40
0.0
  9
$DIMTM
 40
0.0
  9
$DIMTXT
 40
3.5
  9
$DIMCEN
 40
0.09
  9
$DIMTSZ
 40
0.0
  9
$DIMTOL
 70
     0
  9
$DIMLIM
 70
     0
  9
$DIMTIH
 70
     0
  9
$DIMTOH
 70
     0
  9
$DIMSE1
 70
     0
  9
$DIMSE2
 70
     0
  9
$DIMTAD
 70
     1
  9
$DIMZIN
 70
     8
  9
$DIMBLK
  1

  9
$DIMASO
 70
     1
  9
$DIMSHO
 70
     1
  9
$DIMPOST
  1

  9
$DIMAPOST
  1

  9
$DIMALT
 70
     0
  9
$DIMALTD
 70
     2
  9
$DIMALTF
 40
25.4
  9
$DIMLFAC
 40
1.0
  9
$DIMTOFL
 70
     0
  9
$DIMTVP
 40
0.0
  9
$DIMTIX
 70
     0
  9
$DIMSOXD
 70
     0
  9
$DIMSAH
 70
     0
  9
$DIMBLK1
  1

  9
$DIMBLK2
  1

  9
$DIMSTYLE
  2
コピー - ISO-25
  9
$DIMCLRD
 70
   256
  9
$DIMCLRE
 70
   256
  9
$DIMCLRT
 70
   256
  9
$DIMTFAC
 40
1.0
  9
$DIMGAP
 40
2.299999999999998
  9
$DIMJUST
 70
     0
  9
$DIMSD1
 70
     0
  9
$DIMSD2
 70
     0
  9
$DIMTOLJ
 70
     1
  9
$DIMTZIN
 70
     8
  9
$DIMALTZ
 70
     0
  9
$DIMALTTZ
 70
     0
  9
$DIMUPT
 70
     0
  9
$DIMDEC
 70
     2
  9
$DIMTDEC
 70
     2
  9
$DIMALTU
 70
     2
  9
$DIMALTTD
 70
     2
  9
$DIMTXSTY
  7
simplex
  9
$DIMAUNIT
 70
     0
  9
$DIMADEC
 70
     0
  9
$DIMALTRND
 40
0.0
  9
$DIMAZIN
 70
     0
  9
$DIMDSEP
 70
    46
  9
$DIMATFIT
 70
     3
  9
$DIMFRAC
 70
     0
  9
$DIMLDRBLK
  1

  9
$DIMLUNIT
 70
     2
  9
$DIMLWD
 70
    -1
  9
$DIMLWE
 70
    -1
  9
$DIMTMOVE
 70
     0
  9
$LUNITS
 70
     2
  9
$LUPREC
 70
     4
  9
$SKETCHINC
 40
1.0
  9
$FILLETRAD
 40
0.8
  9
$AUNITS
 70
     0
  9
$AUPREC
 70
     0
  9
$MENU
  1
.
  9
$ELEVATION
 40
0.0
  9
$PELEVATION
 40
0.0
  9
$THICKNESS
 40
0.0
  9
$LIMCHECK
 70
     0
  9
$CHAMFERA
 40
10.0
  9
$CHAMFERB
 40
10.0
  9
$CHAMFERC
 40
20.0
  9
$CHAMFERD
 40
0.0
  9
$SKPOLY
 70
     0
  9
$TDCREATE
 40
2455489.391063368
  9
$TDUCREATE
 40
2455489.057730035
  9
$TDUPDATE
 40
2458948.450872581
  9
$TDUUPDATE
 40
2458948.117539248
  9
$TDINDWG
 40
2.654222986
  9
$TDUSRTIMER
 40
2.654170359
  9
$USRTIMER
 70
     1
  9
$ANGBASE
 50
0.0
  9
$ANGDIR
 70
     0
  9
$PDMODE
 70
     0
  9
$PDSIZE
 40
0.0
  9
$PLINEWID
 40
0.0
  9
$SPLFRAME
 70
     0
  9
$SPLINETYPE
 70
     6
  9
$SPLINESEGS
 70
     8
  9
$HANDSEED
  5
953D5
  9
$SURFTAB1
 70
     6
  9
$SURFTAB2
 70
     6
  9
$SURFTYPE
 70
     6
  9
$SURFU
 70
     6
  9
$SURFV
 70
     6
  9
$UCSBASE
  2

  9
$UCSNAME
  2

  9
$UCSORG
 10
0.0
 20
0.0
 30
0.0
  9
$UCSXDIR
 10
1.0
 20
0.0
 30
0.0
  9
$UCSYDIR
 10
0.0
 20
1.0
 30
0.0
  9
$UCSORTHOREF
  2

  9
$UCSORTHOVIEW
 70
     0
  9
$UCSORGTOP
 10
0.0
 20
0.0
 30
0.0
  9
$UCSORGBOTTOM
 10
0.0
 20
0.0
 30
0.0
  9
$UCSORGLEFT
 10
0.0
 20
0.0
 30
0.0
  9
$UCSORGRIGHT
 10
0.0
 20
0.0
 30
0.0
  9
$UCSORGFRONT
 10
0.0
 20
0.0
 30
0.0
  9
$UCSORGBACK
 10
0.0
 20
0.0
 30
0.0
  9
$PUCSBASE
  2

  9
$PUCSNAME
  2

  9
$PUCSORG
 10
0.0
 20
0.0
 30
0.0
  9
$PUCSXDIR
 10
1.0
 20
0.0
 30
0.0
  9
$PUCSYDIR
 10
0.0
 20
1.0
 30
0.0
  9
$PUCSORTHOREF
  2

  9
$PUCSORTHOVIEW
 70
     0
  9
$PUCSORGTOP
 10
0.0
 20
0.0
 30
0.0
  9
$PUCSORGBOTTOM
 10
0.0
 20
0.0
 30
0.0
  9
$PUCSORGLEFT
 10
0.0
 20
0.0
 30
0.0
  9
$PUCSORGRIGHT
 10
0.0
 20
0.0
 30
0.0
  9
$PUCSORGFRONT
 10
0.0
 20
0.0
 30
0.0
  9
$PUCSORGBACK
 10
0.0
 20
0.0
 30
0.0
  9
$USERI1
 70
     0
  9
$USERI2
 70
     0
  9
$USERI3
 70
     0
  9
$USERI4
 70
     0
  9
$USERI5
 70
     0
  9
$USERR1
 40
0.0
  9
$USERR2
 40
0.0
  9
$USERR3
 40
0.0
  9
$USERR4
 40
0.0
  9
$USERR5
 40
0.0
  9
$WORLDVIEW
 70
     1
  9
$SHADEDGE
 70
     3
  9
$SHADEDIF
 70
    70
  9
$TILEMODE
 70
     1
  9
$MAXACTVP
 70
    64
  9
$PINSBASE
 10
0.0
 20
0.0
 30
0.0
  9
$PLIMCHECK
 70
     0
  9
$PEXTMIN
 10
26.66999878883364
 20
20.31999878883365
 30
0.0
  9
$PEXTMAX
 10
240.0299890995025
 20
182.8799890995025
 30
0.0
  9
$PLIMMIN
 10
-6.350006103515625
 20
-6.349999904632567
  9
$PLIMMAX
 10
273.0499877929688
 20
209.5499939918518
  9
$UNITMODE
 70
     0
  9
$VISRETAIN
 70
     1
  9
$PLINEGEN
 70
     0
  9
$PSLTSCALE
 70
     1
  9
$TREEDEPTH
 70
  3020
  9
$CMLSTYLE
  2
Standard
  9
$CMLJUST
 70
     0
  9
$CMLSCALE
 40
20.0
  9
$PROXYGRAPHICS
 70
     1
  9
$MEASUREMENT
 70
     1
  9
$CELWEIGHT
370
    -1
  9
$ENDCAPS
280
     0
  9
$JOINSTYLE
280
     0
  9
$LWDISPLAY
290
     0
  9
$INSUNITS
 70
     4
  9
$HYPERLINKBASE
  1

  9
$STYLESHEET
  1

  9
$XEDIT
290
     1
  9
$CEPSNTYPE
380
     0
  9
$PSTYLEMODE
290
     1
  9
$FINGERPRINTGUID
  2
{D84D03A9-6FB1-43B6-B9D7-652B33AC387A}
  9
$VERSIONGUID
  2
{E5BB61D2-5197-45DA-9DC2-E75E6A7120D6}
  9
$EXTNAMES
290
     1
  9
$PSVPSCALE
 40
0.0
  9
$OLESTARTUP
290
     0
  0
ENDSEC
  0
SECTION
  2
CLASSES
  0
CLASS
  1
ACDBDICTIONARYWDFLT
  2
AcDbDictionaryWithDefault
  3
ObjectDBX Classes
 90
        0
280
     0
281
     0
  0
CLASS
  1
ACDBPLACEHOLDER
  2
AcDbPlaceHolder
  3
ObjectDBX Classes
 90
    32768
280
     0
281
     0
  0
CLASS
  1
LAYOUT
  2
AcDbLayout
  3
ObjectDBX Classes
 90
    32768
280
     0
281
     0
  0
CLASS
  1
DICTIONARYVAR
  2
AcDbDictionaryVar
  3
ObjectDBX Classes
 90
        0
280
     0
281
     0
  0
CLASS
  1
TABLESTYLE
  2
AcDbTableStyle
  3
ObjectDBX Classes
 90
     4095
280
     0
281
     0
  0
CLASS
  1
SORTENTSTABLE
  2
AcDbSortentsTable
  3
ObjectDBX Classes
 90
        0
280
     0
281
     0
  0
CLASS
  1
DIMASSOC
  2
AcDbDimAssoc
  3
"AcDbDimAssoc|Product Desc:     AcDim ARX App For Dimension|Company:          Autodesk, Inc.|WEB Address:      www.autodesk.com"
 90
        0
280
     0
281
     0
  0
CLASS
  1
ACAD_EVALUATION_GRAPH
  2
AcDbEvalGraph
  3
ObjectDBX Classes
 90
    33921
280
     0
281
     0
  0
CLASS
  1
ACAECUSTOBJ
  2
AcAeEditorObj
  3
AcAeEditorObj
 90
    33792
280
     0
281
     0
  0
CLASS
  1
ACDB_DYNAMICBLOCKPURGEPREVENTER_VERSION
  2
AcDbDynamicBlockPurgePreventer
  3
ObjectDBX Classes
 90
    33921
280
     0
281
     0
  0
CLASS
  1
MATERIAL
  2
AcDbMaterial
  3
ObjectDBX Classes
 90
     1153
280
     0
281
     0
  0
CLASS
  1
VISUALSTYLE
  2
AcDbVisualStyle
  3
ObjectDBX Classes
 90
     4095
280
     0
281
     0
  0
CLASS
  1
SCALE
  2
AcDbScale
  3
ObjectDBX Classes
 90
     1153
280
     0
281
     0
  0
CLASS
  1
MLEADERSTYLE
  2
AcDbMLeaderStyle
  3
ACDB_MLEADERSTYLE_CLASS
 90
     4095
280
     0
281
     0
  0
CLASS
  1
ACDBSECTIONVIEWSTYLE
  2
AcDbSectionViewStyle
  3
ObjectDBX Classes
 90
     1025
280
     0
281
     0
  0
CLASS
  1
ACDBDETAILVIEWSTYLE
  2
AcDbDetailViewStyle
  3
ObjectDBX Classes
 90
     1025
280
     0
281
     0
  0
CLASS
  1
CELLSTYLEMAP
  2
AcDbCellStyleMap
  3
ObjectDBX Classes
 90
     1152
280
     0
281
     0
  0
CLASS
  1
ACDBPLACEHOLDER
  2
AcDbPlaceHolder
  3
ObjectDBX Classes
 90
    32768
280
     0
281
     0
  0
CLASS
  1
LAYOUT
  2
AcDbLayout
  3
ObjectDBX Classes
 90
    32768
280
     0
281
     0
  0
CLASS
  1
ACDBPLACEHOLDER
  2
AcDbPlaceHolder
  3
ObjectDBX Classes
 90
    32768
280
     0
281
     0
  0
CLASS
  1
LAYOUT
  2
AcDbLayout
  3
ObjectDBX Classes
 90
    32768
280
     0
281
     0
  0
CLASS
  1
ACDBPLACEHOLDER
  2
AcDbPlaceHolder
  3
ObjectDBX Classes
 90
    32768
280
     0
281
     0
  0
CLASS
  1
LAYOUT
  2
AcDbLayout
  3
ObjectDBX Classes
 90
    32768
280
     0
281
     0
  0
CLASS
  1
ACDBPLACEHOLDER
  2
AcDbPlaceHolder
  3
ObjectDBX Classes
 90
    32768
280
     0
281
     0
  0
CLASS
  1
LAYOUT
  2
AcDbLayout
  3
ObjectDBX Classes
 90
    32768
280
     0
281
     0
  0
CLASS
  1
ACDBPLACEHOLDER
  2
AcDbPlaceHolder
  3
ObjectDBX Classes
 90
        0
280
     0
281
     0
  0
CLASS
  1
LAYOUT
  2
AcDbLayout
  3
ObjectDBX Classes
 90
        0
280
     0
281
     0
  0
ENDSEC
  0
SECTION
  2
TABLES
  0
TABLE
  2
VPORT
  5
8
102
{ACAD_XDICTIONARY
360
8C34E
102
}
330
0
100
AcDbSymbolTable
 70
     1
  0
VPORT
  5
4A360
330
8
100
AcDbSymbolTableRecord
100
AcDbViewportTableRecord
  2
*Active
 70
     0
 10
0.0
 20
0.0
 11
1.0
 21
1.0
 12
12.28242048840356
 22
18.17255438354101
 13
0.0
 23
0.0
 14
10.0
 24
10.0
 15
10.0
 25
10.0
 16
0.0
 26
0.0
 36
1.0
 17
0.0
 27
0.0
 37
0.0
 40
300.7958726206486
 41
1.705156950672645
 42
50.0
 43
0.0
 44
0.0
 50
0.0
 51
0.0
 71
     0
 72
  1000
 73
     1
 74
     1
 75
     0
 76
     0
 77
     0
 78
     0
281
     0
 65
     1
110
0.0
120
0.0
130
0.0
111
1.0
121
0.0
131
0.0
112
0.0
122
1.0
132
0.0
 79
     0
146
0.0
1001
ACAD_NAV_VCDISPLAY
1070
     3
  0
ENDTAB
  0
TABLE
  2
LTYPE
  5
5
330
0
100
AcDbSymbolTable
 70
     3
  0
LTYPE
  5
14
330
5
100
AcDbSymbolTableRecord
100
AcDbLinetypeTableRecord
  2
ByBlock
 70
     0
  3

 72
    65
 73
     0
 40
0.0
  0
LTYPE
  5
15
330
5
100
AcDbSymbolTableRecord
100
AcDbLinetypeTableRecord
  2
ByLayer
 70
     0
  3

 72
    65
 73
     0
 40
0.0
  0
LTYPE
  5
16
330
5
100
AcDbSymbolTableRecord
100
AcDbLinetypeTableRecord
  2
Continuous
 70
     0
  3
Solid line
 72
    65
 73
     0
 40
0.0
  0
LTYPE
  5
4A76E
330
5
100
AcDbSymbolTableRecord
100
AcDbLinetypeTableRecord
  2
CENTER2
 70
     0
  3
Center (.5x) ___ _ ___ _ ___ _ ___ _ ___ _ ___
 72
    65
 73
     4
 40
28.575
 49
19.05
 74
     0
 49
-3.174999999999998
 74
     0
 49
3.174999999999998
 74
     0
 49
-3.174999999999998
 74
     0
  0
LTYPE
  5
87B53
330
5
100
AcDbSymbolTableRecord
100
AcDbLinetypeTableRecord
  2
HIDDEN
 70
     0
  3
Hidden __ __ __ __ __ __ __ __ __ __ __ __ __ _
 72
    65
 73
     2
 40
9.524999999999996
 49
6.349999999999997
 74
     0
 49
-3.174999999999998
 74
     0
  0
ENDTAB
  0
TABLE
  2
LAYER
  5
2
102
{ACAD_XDICTIONARY
360
E2
102
}
330
0
100
AcDbSymbolTable
 70
    10
  0
LAYER
  5
10
102
{ACAD_XDICTIONARY
360
4A86C
102
}
330
2
100
AcDbSymbolTableRecord
100
AcDbLayerTableRecord
  2
0
 70
     0
 62
     7
  6
Continuous
370
    -3
390
F
  0
LAYER
  5
31B6
330
2
100
AcDbSymbolTableRecord
100
AcDbLayerTableRecord
  2
Defpoints
 70
     0
 62
     7
  6
Continuous
290
     0
370
    -3
390
F
  0
LAYER
  5
4A772
102
{ACAD_XDICTIONARY
360
4A773
102
}
330
2
100
AcDbSymbolTableRecord
100
AcDbLayerTableRecord
  2
1
 70
     0
 62
     4
  6
Continuous
370
    50
390
F
1001
AcAecLayerStandard
1000

1000
Contour
  0
LAYER
  5
4A774
102
{ACAD_XDICTIONARY
360
4A775
102
}
330
2
100
AcDbSymbolTableRecord
100
AcDbLayerTableRecord
  2
2
 70
     0
 62
     7
  6
Continuous
370
    25
390
F
1001
AcAecLayerStandard
1000

1000
Dimension milling
  0
LAYER
  5
4A776
102
{ACAD_XDICTIONARY
360
4A777
102
}
330
2
100
AcDbSymbolTableRecord
100
AcDbLayerTableRecord
  2
4
 70
     0
 62
     2
  6
CENTER2
370
    25
390
F
1001
AcAecLayerStandard
1000

1000
Center line
  0
LAYER
  5
4A778
102
{ACAD_XDICTIONARY
360
4A779
102
}
330
2
100
AcDbSymbolTableRecord
100
AcDbLayerTableRecord
  2
cut
 70
     0
 62
     1
  6
Continuous
370
    25
390
F
1001
AcAecLayerStandard
1000

1000
contour
  0
LAYER
  5
4A77A
102
{ACAD_XDICTIONARY
360
4A77B
102
}
330
2
100
AcDbSymbolTableRecord
100
AcDbLayerTableRecord
  2
nocut
 70
     0
 62
     7
  6
Continuous
370
    25
390
F
1001
AcAecLayerStandard
1000

1000
contour
  0
LAYER
  5
4A77E
102
{ACAD_XDICTIONARY
360
4A77F
102
}
330
2
100
AcDbSymbolTableRecord
100
AcDbLayerTableRecord
  2
sk2
 70
     0
 62
     7
  6
Continuous
370
    25
390
F
1001
AcAecLayerStandard
1000

1000
sk2 dimension
  0
LAYER
  5
4A782
102
{ACAD_XDICTIONARY
360
4A783
102
}
330
2
100
AcDbSymbolTableRecord
100
AcDbLayerTableRecord
  2
sk6
 70
     0
 62
     5
  6
Continuous
370
    35
390
F
1001
AcAecLayerStandard
1000

1000
sk6 text
  0
LAYER
  5
87B52
102
{ACAD_XDICTIONARY
360
8C34C
102
}
330
2
100
AcDbSymbolTableRecord
100
AcDbLayerTableRecord
  2
sk3
 70
     0
 62
     1
  6
HIDDEN
370
    35
390
F
1001
AcAecLayerStandard
1000

1000

  0
ENDTAB
  0
TABLE
  2
STYLE
  5
3
330
0
100
AcDbSymbolTable
 70
     2
  0
STYLE
  5
11
330
3
100
AcDbSymbolTableRecord
100
AcDbTextStyleTableRecord
  2
Standard
 70
     0
 40
0.0
 41
1.0
 50
0.0
 71
     0
 42
2.5
  3
txt.shx
  4
@extfont2.shx
  0
STYLE
  5
24A
330
3
100
AcDbSymbolTableRecord
100
AcDbTextStyleTableRecord
  2
simplex
 70
     0
 40
3.5
 41
1.0
 50
0.0
 71
     0
 42
3.5
  3
txt.shx
  4

  0
ENDTAB
  0
TABLE
  2
VIEW
  5
6
330
0
100
AcDbSymbolTable
 70
     0
  0
ENDTAB
  0
TABLE
  2
UCS
  5
7
330
0
100
AcDbSymbolTable
 70
     0
  0
ENDTAB
  0
TABLE
  2
APPID
  5
9
330
0
100
AcDbSymbolTable
 70
    31
  0
APPID
  5
12
330
9
100
AcDbSymbolTableRecord
100
AcDbRegAppTableRecord
  2
ACAD
 70
     0
  0
APPID
  5
D2
330
9
100
AcDbSymbolTableRecord
100
AcDbRegAppTableRecord
  2
AcAecLayerStandard
 70
     0
  0
APPID
  5
E6
330
9
100
AcDbSymbolTableRecord
100
AcDbRegAppTableRecord
  2
ACAD_DSTYLE_DIMTEXT_FILL
 70
     0
  0
APPID
  5
4C84
330
9
100
AcDbSymbolTableRecord
100
AcDbRegAppTableRecord
  2
ACAD_EXEMPT_FROM_CAD_STANDARDS
 70
     0
  0
APPID
  5
3493E
330
9
100
AcDbSymbolTableRecord
100
AcDbRegAppTableRecord
  2
DCO15
 70
     0
  0
APPID
  5
3BAB0
330
9
100
AcDbSymbolTableRecord
100
AcDbRegAppTableRecord
  2
ACAD_DSTYLE_DIMEXT_ENABLED
 70
     0
  0
APPID
  5
3BAB1
330
9
100
AcDbSymbolTableRecord
100
AcDbRegAppTableRecord
  2
ACAD_DSTYLE_DIMEXT_LENGTH
 70
     0
  0
APPID
  5
3BEB4
330
9
100
AcDbSymbolTableRecord
100
AcDbRegAppTableRecord
  2
ACAUTHENVIRON
 70
     0
  0
APPID
  5
3BEB7
330
9
100
AcDbSymbolTableRecord
100
AcDbRegAppTableRecord
  2
AcDbDynamicBlockTrueName
 70
     0
  0
APPID
  5
3BEB8
330
9
100
AcDbSymbolTableRecord
100
AcDbRegAppTableRecord
  2
AcDbDynamicBlockGUID
 70
     0
  0
APPID
  5
3BEBA
330
9
100
AcDbSymbolTableRecord
100
AcDbRegAppTableRecord
  2
AcDbBlockRepETag
 70
     0
  0
APPID
  5
4A453
330
9
100
AcDbSymbolTableRecord
100
AcDbRegAppTableRecord
  2
ACAD_PSEXT
 70
     0
  0
APPID
  5
4A454
330
9
100
AcDbSymbolTableRecord
100
AcDbRegAppTableRecord
  2
AcadAnnotative
 70
     0
  0
APPID
  5
4A455
330
9
100
AcDbSymbolTableRecord
100
AcDbRegAppTableRecord
  2
ACAD_DSTYLE_DIMJAG
 70
     0
  0
APPID
  5
4A456
330
9
100
AcDbSymbolTableRecord
100
AcDbRegAppTableRecord
  2
ACAD_DSTYLE_DIMTALN
 70
     0
  0
APPID
  5
4A457
330
9
100
AcDbSymbolTableRecord
100
AcDbRegAppTableRecord
  2
ACAD_NAV_VCDISPLAY
 70
     0
  0
APPID
  5
4A787
330
9
100
AcDbSymbolTableRecord
100
AcDbRegAppTableRecord
  2
ACAD_DSTYLE_DIMINSPECT
 70
     0
  0
APPID
  5
4A788
330
9
100
AcDbSymbolTableRecord
100
AcDbRegAppTableRecord
  2
GENIUS_GENDTOL_13
 70
     0
  0
APPID
  5
4A789
330
9
100
AcDbSymbolTableRecord
100
AcDbRegAppTableRecord
  2
ZWMCAD_GENSTANDARDFRAME_13_
 70
     0
  0
APPID
  5
4A78A
330
9
100
AcDbSymbolTableRecord
100
AcDbRegAppTableRecord
  2
ZW_RECESS_XDATA
 70
     0
  0
APPID
  5
4A78B
330
9
100
AcDbSymbolTableRecord
100
AcDbRegAppTableRecord
  2
ZW_FAC_XDATA
 70
     0
  0
APPID
  5
4A78C
330
9
100
AcDbSymbolTableRecord
100
AcDbRegAppTableRecord
  2
ZW_FLC_XDATA
 70
     0
  0
APPID
  5
4A78D
330
9
100
AcDbSymbolTableRecord
100
AcDbRegAppTableRecord
  2
ZW_SUPERPART
 70
     0
  0
APPID
  5
4A78E
330
9
100
AcDbSymbolTableRecord
100
AcDbRegAppTableRecord
  2
ZW_SUPERSYMBOL
 70
     0
  0
APPID
  5
4A78F
330
9
100
AcDbSymbolTableRecord
100
AcDbRegAppTableRecord
  2
ZW_SUPERSHAFT
 70
     0
  0
APPID
  5
4A790
330
9
100
AcDbSymbolTableRecord
100
AcDbRegAppTableRecord
  2
ZWMCAD_GENFRAME_13_
 70
     0
  0
APPID
  5
4A791
330
9
100
AcDbSymbolTableRecord
100
AcDbRegAppTableRecord
  2
ACAD_MLEADERVER
 70
     0
  0
APPID
  5
4A792
330
9
100
AcDbSymbolTableRecord
100
AcDbRegAppTableRecord
  2
ACAD_DSTYLE_DIMRADIAL_EXTENSION
 70
     0
  0
APPID
  5
885F1
330
9
100
AcDbSymbolTableRecord
100
AcDbRegAppTableRecord
  2
ZWMCAD_GENSCA_13_
 70
     0
  0
APPID
  5
885EF
330
9
100
AcDbSymbolTableRecord
100
AcDbRegAppTableRecord
  2
ACAD_DSTYLE_DIMRADIAL_EXTE
 70
     0
  0
APPID
  5
885EE
330
9
100
AcDbSymbolTableRecord
100
AcDbRegAppTableRecord
  2
ZWMCAD_GENSTANDARDFRAME_13
 70
     0
  0
ENDTAB
  0
TABLE
  2
DIMSTYLE
  5
A
330
0
100
AcDbSymbolTable
 70
     2
100
AcDbDimStyleTable
 71
    21
340
1BF
340
3527
340
90771
340
907A6
340
907AC
340
907B1
340
907B7
340
919EE
340
919F4
340
919F9
340
919FF
340
91A04
340
91A0A
340
91A0F
340
91A15
340
91A1A
340
91A20
340
91A25
340
91A2B
340
91A30
340
91A36
  0
DIMSTYLE
105
1BF
102
{ACAD_REACTORS
330
9506D
330
9507D
330
95079
330
95073
330
95070
330
95076
330
9530E
102
}
330
A
100
AcDbSymbolTableRecord
100
AcDbDimStyleTableRecord
  2
コピー - ISO-25
 70
     0
 40
0.0
 41
3.5
 42
0.0
 44
1.5
 73
     0
 74
     0
 77
     1
 78
     8
140
3.5
147
2.299999999999998
176
   256
177
   256
271
     2
178
   256
271
     2
272
     2
284
     8
340
24A
371
    -1
372
    -1
  0
DIMSTYLE
105
3527
330
A
100
AcDbSymbolTableRecord
100
AcDbDimStyleTableRecord
  2
STANDARD
 70
     0
 41
3.0
 47
0.001
 48
0.001
 71
     1
 73
     0
 74
     0
 77
     1
 78
     8
140
4.0
271
     3
272
     3
284
     8
340
11
341
34B1
342
34B1
343
34B1
344
34B1
  0
ENDTAB
  0
TABLE
  2
BLOCK_RECORD
  5
1
330
0
100
AcDbSymbolTable
 70
    11
  0
BLOCK_RECORD
  5
1F
102
{ACAD_XDICTIONARY
360
31EE
102
}
330
1
100
AcDbSymbolTableRecord
100
AcDbBlockTableRecord
  2
*Model_Space
340
22
  0
BLOCK_RECORD
  5
55
330
1
100
AcDbSymbolTableRecord
100
AcDbBlockTableRecord
  2
*Paper_Space
340
56
  0
BLOCK_RECORD
  5
50
330
1
100
AcDbSymbolTableRecord
100
AcDbBlockTableRecord
  2
*Paper_Space000000
340
51
  0
BLOCK_RECORD
  5
34B1
330
1
100
AcDbSymbolTableRecord
100
AcDbBlockTableRecord
  2
_OPEN
340
0
  0
BLOCK_RECORD
  5
4A6D6
102
{ACAD_XDICTIONARY
360
4A6D7
102
}
330
1
100
AcDbSymbolTableRecord
100
AcDbBlockTableRecord
  2
zero block
340
0
102
{BLKREFS
331
8BFE6
331
4A793
331
880DD
331
882D3
331
87B7F
331
87D7D
331
90190
331
903FC
331
90821
331
90A84
331
90E49
331
910AD
331
91473
331
916B3
331
91AA1
331
91CE2
331
93114
331
934B4
331
936F3
331
93AD2
331
93D08
331
940A1
331
942D2
331
94691
331
948CF
331
94C70
331
94EA9
331
8BD57
331
92098
331
922DA
331
9267F
331
928BF
331
92B61
331
92ED7
331
8FB3B
331
8FDCA
102
}
1001
AcDbDynamicBlockGUID
1000
{A89DF4EB-B2CB-439E-AC69-1EAC9F242D1C}
1001
AcDbBlockRepETag
1070
     1
1071
        7
1001
ACAD
1000
DesignCenter Data
1002
{
1070
     1
1070
     4
1002
}
  0
BLOCK_RECORD
  5
87D73
330
1
100
AcDbSymbolTableRecord
100
AcDbBlockTableRecord
  2
_None
340
0
102
{BLKREFS
331
8C250
331
8C292
331
8C2BE
331
8C2FE
331
8C332
331
87FA2
331
87FBD
331
87FC5
331
88042
331
88238
331
884B1
331
884F0
331
88512
331
885AA
331
87D72
331
87F63
331
9002A
331
9006F
331
900CE
331
90117
331
903C3
331
9062B
331
90673
331
906DD
331
90724
331
909A6
331
90CA0
331
90CEB
331
90D5B
331
90DBF
331
90FCE
331
912CA
331
91315
331
9135A
331
913E9
331
915B9
331
91895
331
918E5
331
91966
331
91989
331
91BE7
331
91EC5
331
91F15
331
91F6B
331
950B4
331
950F8
331
95155
331
9519C
331
9520F
331
93052
331
93323
331
93367
331
933C4
331
9343C
331
9362F
331
93904
331
93948
331
9397A
331
939E2
331
93A5A
331
93CFD
331
93F26
331
93F64
331
93FB1
331
9403A
331
9420F
331
944D5
331
94519
331
945A7
331
945EE
331
947FF
331
94ADF
331
94B23
331
94B80
331
94BF8
331
94E84
331
8BC93
331
8BCED
331
8BF27
331
91FFC
331
921DE
331
924BE
331
9250E
331
9258F
331
925B2
331
9289C
331
92AD1
331
92B15
331
92D7E
331
92E18
331
92E5F
331
8FA29
331
8FA4D
331
8FAA7
331
8FD00
331
8A12B
331
8DEC1
102
}
  0
BLOCK_RECORD
  5
95080
330
1
100
AcDbSymbolTableRecord
100
AcDbBlockTableRecord
  2
*D22044
340
0
  0
BLOCK_RECORD
  5
9508C
330
1
100
AcDbSymbolTableRecord
100
AcDbBlockTableRecord
  2
*D22155
340
0
  0
BLOCK_RECORD
  5
95098
330
1
100
AcDbSymbolTableRecord
100
AcDbBlockTableRecord
  2
*D22266
340
0
  0
BLOCK_RECORD
  5
950A4
330
1
100
AcDbSymbolTableRecord
100
AcDbBlockTableRecord
  2
*D22377
340
0
  0
BLOCK_RECORD
  5
950B0
330
1
100
AcDbSymbolTableRecord
100
AcDbBlockTableRecord
  2
*D22488
340
0
  0
BLOCK_RECORD
  5
950C5
330
1
100
AcDbSymbolTableRecord
100
AcDbBlockTableRecord
  2
*D226109
340
0
  0
BLOCK_RECORD
  5
9530F
330
1
100
AcDbSymbolTableRecord
100
AcDbBlockTableRecord
  2
*D1310
340
0
  0
ENDTAB
  0
ENDSEC
  0
SECTION
  2
BLOCKS
  0
BLOCK
  5
20
330
1F
100
AcDbEntity
  8
0
100
AcDbBlockBegin
  2
*Model_Space
 70
     0
 10
0.0
 20
0.0
 30
0.0
  3
*Model_Space
  1

  0
ENDBLK
  5
21
330
1F
100
AcDbEntity
  8
0
100
AcDbBlockEnd
  0
BLOCK
  5
57
330
55
100
AcDbEntity
 67
     1
  8
0
100
AcDbBlockBegin
  2
*Paper_Space
 70
     0
 10
0.0
 20
0.0
 30
0.0
  3
*Paper_Space
  1

  0
ENDBLK
  5
58
330
55
100
AcDbEntity
 67
     1
  8
0
100
AcDbBlockEnd
  0
BLOCK
  5
52
330
50
100
AcDbEntity
  8
0
100
AcDbBlockBegin
  2
*Paper_Space000000
 70
     0
 10
0.0
 20
0.0
 30
0.0
  3
*Paper_Space000000
  1

  0
VIEWPORT
  5
6B
102
{ACAD_XDICTIONARY
360
87B05
102
}
330
50
100
AcDbEntity
  8
0
100
AcDbViewport
 10
264.3775031494645
 20
160.4455827878762
 30
0.0
 40
567.6219612953822
 41
282.2272140146125
 68
     1
 69
    -1
 12
264.3775031494645
 22
160.4455827878762
 13
0.0
 23
0.0
 14
10.0
 24
10.0
 15
10.0
 25
10.0
 16
0.0
 26
0.0
 36
1.0
 17
0.0
 27
0.0
 37
0.0
 42
50.0
 43
0.0
 44
0.0
 45
282.2272140146125
 50
0.0
 51
0.0
 72
  1000
 90
    32864
  1

281
     0
 71
     1
 74
     0
110
0.0
120
0.0
130
0.0
111
1.0
121
0.0
131
0.0
112
0.0
122
1.0
132
0.0
 79
     0
146
0.0
  0
VIEWPORT
  5
6D
102
{ACAD_XDICTIONARY
360
87B07
102
}
330
50
100
AcDbEntity
  8
0
100
AcDbViewport
 10
133.3499939441681
 20
101.5999939441681
 30
0.0
 40
213.3599903106689
 41
162.5599903106689
 68
     2
 69
    -1
 12
210.0
 22
148.5
 13
0.0
 23
0.0
 14
10.0
 24
10.0
 15
10.0
 25
10.0
 16
0.0
 26
0.0
 36
1.0
 17
0.0
 27
0.0
 37
0.0
 42
50.0
 43
0.0
 44
0.0
 45
324.0677920111345
 50
0.0
 51
0.0
 72
   100
 90
    32864
  1

281
     0
 71
     1
 74
     0
110
0.0
120
0.0
130
0.0
111
1.0
121
0.0
131
0.0
112
0.0
122
1.0
132
0.0
 79
     0
146
0.0
  0
ENDBLK
  5
53
330
50
100
AcDbEntity
  8
0
100
AcDbBlockEnd
  0
BLOCK
  5
34B2
330
34B1
100
AcDbEntity
  8
0
100
AcDbBlockBegin
  2
_OPEN
 70
     0
 10
0.0
 20
0.0
 30
0.0
  3
_OPEN
  1

  0
LINE
  5
34B3
330
34B1
100
AcDbEntity
  8
0
  6
ByBlock
 62
     0
100
AcDbLine
 10
0.0
 20
0.0
 30
0.0
 11
-1.0
 21
0.1766666667
 31
0.0
  0
LINE
  5
34B4
330
34B1
100
AcDbEntity
  8
0
  6
ByBlock
 62
     0
100
AcDbLine
 10
-1.0
 20
-0.1766666667
 30
0.0
 11
0.0
 21
0.0
 31
0.0
  0
LINE
  5
34B5
330
34B1
100
AcDbEntity
  8
0
  6
ByBlock
 62
     0
100
AcDbLine
 10
-1.0
 20
0.0
 30
0.0
 11
0.0
 21
0.0
 31
0.0
  0
ENDBLK
  5
34B6
330
34B1
100
AcDbEntity
  8
0
  6
ByBlock
 62
     0
100
AcDbBlockEnd
  0
BLOCK
  5
4A6D9
330
4A6D6
100
AcDbEntity
  8
0
100
AcDbBlockBegin
  2
zero block
 70
     0
 10
0.0
 20
0.0
 30
0.0
  3
zero block
  1

  0
HATCH
  5
4A6DA
330
4A6D6
100
AcDbEntity
  8
0
 62
     7
100
AcDbHatch
 10
0.0
 20
0.0
 30
0.0
210
0.0
220
0.0
230
1.0
  2
SOLID
 70
     1
 71
     0
 91
        2
 92
        7
 72
     1
 73
     1
 93
        3
 10
0.0
 20
0.9999999999999875
 42
0.4142135623730915
 10
-1.0
 20
0.0
 42
0.0
 10
0.0
 20
0.0
 42
0.0
 97
        0
 92
        7
 72
     1
 73
     1
 93
        3
 10
1.000000000000007
 20
0.0
 42
0.0
 10
0.0
 20
0.0
 42
0.0
 10
0.0
 20
-1.0
 42
0.4142135623730974
 97
        0
 75
     0
 76
     1
 47
0.0090601366782909
 98
        2
 10
-0.380591363650975
 20
0.4885804701532896
 10
0.4350764810977559
 20
-0.4536738423704725
1001
AcDbBlockRepETag
1070
     1
1071
        0
1005
4A6DA
  0
LINE
  5
4A6DB
330
4A6D6
100
AcDbEntity
  8
0
 62
     7
 48
0.2
100
AcDbLine
 10
-1.0
 20
0.0
 30
0.0
 11
1.000000000000007
 21
0.0
 31
0.0
1001
AcDbBlockRepETag
1070
     1
1071
        1
1005
4A6DB
  0
LINE
  5
4A6DC
330
4A6D6
100
AcDbEntity
  8
0
 62
     7
 48
0.2
100
AcDbLine
 10
0.0
 20
-1.0
 30
0.0
 11
0.0
 21
0.9999999999999875
 31
0.0
1001
AcDbBlockRepETag
1070
     1
1071
        2
1005
4A6DC
  0
ARC
  5
4A6DD
330
4A6D6
100
AcDbEntity
  8
0
 62
     7
 48
0.2
100
AcDbCircle
 10
0.0
 20
0.0
 30
0.0
 40
1.0
100
AcDbArc
 50
270.0
 51
0.0
1001
AcDbBlockRepETag
1070
     1
1071
        3
1005
4A6DD
  0
ARC
  5
4A6DE
330
4A6D6
100
AcDbEntity
  8
0
 62
     7
 48
0.2
100
AcDbCircle
 10
0.0
 20
0.0
 30
0.0
 40
1.0
100
AcDbArc
 50
0.0
 51
90.0
1001
AcDbBlockRepETag
1070
     1
1071
        4
1005
4A6DE
  0
ARC
  5
4A6DF
330
4A6D6
100
AcDbEntity
  8
0
 62
     7
 48
0.2
100
AcDbCircle
 10
0.0
 20
0.0
 30
0.0
 40
1.0
100
AcDbArc
 50
180.0
 51
270.0
1001
AcDbBlockRepETag
1070
     1
1071
        5
1005
4A6DF
  0
ARC
  5
4A6E0
330
4A6D6
100
AcDbEntity
  8
0
 62
     7
 48
0.2
100
AcDbCircle
 10
0.0
 20
0.0
 30
0.0
 40
1.0
100
AcDbArc
 50
90.0
 51
180.0
1001
AcDbBlockRepETag
1070
     1
1071
        6
1005
4A6E0
  0
ENDBLK
  5
4A6E1
330
4A6D6
100
AcDbEntity
  8
0
100
AcDbBlockEnd
  0
BLOCK
  5
87D74
330
87D73
100
AcDbEntity
  8
0
100
AcDbBlockBegin
  2
_None
 70
     0
 10
0.0
 20
0.0
 30
0.0
  3
_None
  1

  0
ENDBLK
  5
87D75
330
87D73
100
AcDbEntity
  8
0
100
AcDbBlockEnd
  0
BLOCK
  5
9508A
330
95080
100
AcDbEntity
  8
0
100
AcDbBlockBegin
  2
*D22044
 70
     1
 10
0.0
 20
0.0
 30
0.0
  3
*D22044
  1

  0
LINE
  5
95375
330
95080
100
AcDbEntity
  8
2
100
AcDbLine
 10
0.0
 20
85.49999999889996
 30
0.0
 11
0.0
 21
131.4810258655372
 31
0.0
  0
LINE
  5
95376
330
95080
100
AcDbEntity
  8
2
100
AcDbLine
 10
63.5
 20
100.7999999988999
 30
0.0
 11
63.5
 21
131.4810258655372
 31
0.0
  0
LINE
  5
95377
330
95080
100
AcDbEntity
  8
2
100
AcDbLine
 10
3.5
 20
129.9810258655372
 30
0.0
 11
60.0
 21
129.9810258655372
 31
0.0
  0
SOLID
  5
95378
330
95080
100
AcDbEntity
  8
2
100
AcDbTrace
 10
3.5
 20
130.5643591988705
 30
0.0
 11
3.5
 21
129.3976925322038
 31
0.0
 12
0.0
 22
129.9810258655372
 32
0.0
 13
0.0
 23
129.9810258655372
 33
0.0
  0
SOLID
  5
95379
330
95080
100
AcDbEntity
  8
2
100
AcDbTrace
 10
60.0
 20
129.3976925322038
 30
0.0
 11
60.0
 21
130.5643591988705
 31
0.0
 12
63.5
 22
129.9810258655372
 32
0.0
 13
63.5
 23
129.9810258655372
 33
0.0
  0
MTEXT
  5
9537A
330
95080
100
AcDbEntity
  8
2
100
AcDbMText
 10
31.75
 20
134.0310258655372
 30
0.0
 40
3.5
 41
0.0
 71
     5
 72
     1
  1
\A1;63.5 [2.500"]
  7
simplex
 73
     1
 44
1.0
1001
ACAD
1000
MTEXTBEGIN
1070
    73
1070
     1
1070
    44
1040
1.0
1070
    74
1070
     0
1000
MTEXTEND
  0
POINT
  5
9537B
330
95080
100
AcDbEntity
  8
Defpoints
 62
     0
100
AcDbPoint
 10
0.0
 20
85.49999999889996
 30
0.0
  0
POINT
  5
9537C
330
95080
100
AcDbEntity
  8
Defpoints
 62
     0
100
AcDbPoint
 10
63.5
 20
100.7999999988999
 30
0.0
  0
POINT
  5
9537D
330
95080
100
AcDbEntity
  8
Defpoints
 62
     0
100
AcDbPoint
 10
63.5
 20
129.9810258655372
 30
0.0
  0
ENDBLK
  5
9508B
330
95080
100
AcDbEntity
  8
0
100
AcDbBlockEnd
  0
BLOCK
  5
95096
330
9508C
100
AcDbEntity
  8
0
100
AcDbBlockBegin
  2
*D22155
 70
     1
 10
0.0
 20
0.0
 30
0.0
  3
*D22155
  1

  0
LINE
  5
9517E
330
9508C
100
AcDbEntity
  8
sk2
100
AcDbLine
 10
2.0
 20
87.49999999889999
 30
0.0
 11
-31.53061141354432
 21
87.49999999889999
 31
0.0
  0
LINE
  5
9517F
330
9508C
100
AcDbEntity
  8
sk2
100
AcDbLine
 10
2.0
 20
-87.50000000110011
 30
0.0
 11
-31.53061141354434
 21
-87.50000000110011
 31
0.0
  0
LINE
  5
95180
330
9508C
100
AcDbEntity
  8
sk2
100
AcDbLine
 10
-30.03061141354432
 20
83.99999999890001
 30
0.0
 11
-30.03061141354434
 21
-84.0000000011001
 31
0.0
  0
SOLID
  5
95181
330
9508C
100
AcDbEntity
  8
sk2
100
AcDbTrace
 10
-29.44727808021099
 20
83.99999999890001
 30
0.0
 11
-30.61394474687765
 21
83.99999999890001
 31
0.0
 12
-30.03061141354432
 22
87.49999999889999
 32
0.0
 13
-30.03061141354432
 23
87.49999999889999
 33
0.0
  0
SOLID
  5
95182
330
9508C
100
AcDbEntity
  8
sk2
100
AcDbTrace
 10
-30.61394474687767
 20
-84.0000000011001
 30
0.0
 11
-29.44727808021101
 21
-84.0000000011001
 31
0.0
 12
-30.03061141354434
 22
-87.50000000110011
 32
0.0
 13
-30.03061141354434
 23
-87.50000000110011
 33
0.0
  0
MTEXT
  5
95183
330
9508C
100
AcDbEntity
  8
sk2
100
AcDbMText
 10
-34.08061141354433
 20
-0.0000000011000477
 30
0.0
 40
3.5
 41
0.0
 71
     5
 72
     1
  1
\A1;%%C175 [%%c6.890"]
  7
simplex
 11
0.0000000000000001
 21
1.0
 31
0.0
 73
     1
 44
1.0
1001
ACAD
1000
MTEXTBEGIN
1070
    73
1070
     1
1070
    44
1040
1.0
1070
    74
1070
     0
1000
MTEXTEND
  0
POINT
  5
95184
330
9508C
100
AcDbEntity
  8
Defpoints
 62
     0
100
AcDbPoint
 10
2.0
 20
87.49999999889999
 30
0.0
  0
POINT
  5
95185
330
9508C
100
AcDbEntity
  8
Defpoints
 62
     0
100
AcDbPoint
 10
2.0
 20
-87.50000000110011
 30
0.0
  0
POINT
  5
95186
330
9508C
100
AcDbEntity
  8
Defpoints
 62
     0
100
AcDbPoint
 10
-30.03061141354434
 20
-87.50000000110011
 30
0.0
  0
ENDBLK
  5
95097
330
9508C
100
AcDbEntity
  8
0
100
AcDbBlockEnd
  0
BLOCK
  5
950A2
330
95098
100
AcDbEntity
  8
0
100
AcDbBlockBegin
  2
*D22266
 70
     1
 10
0.0
 20
0.0
 30
0.0
  3
*D22266
  1

  0
LINE
  5
95187
330
95098
100
AcDbEntity
  8
sk2
100
AcDbLine
 10
12.0
 20
31.74999999890002
 30
0.0
 11
-21.39146705456886
 21
31.74999999890002
 31
0.0
  0
LINE
  5
95188
330
95098
100
AcDbEntity
  8
sk2
100
AcDbLine
 10
12.0
 20
-31.74999999890002
 30
0.0
 11
-21.39146705456886
 21
-31.74999999890002
 31
0.0
  0
LINE
  5
95189
330
95098
100
AcDbEntity
  8
sk2
100
AcDbLine
 10
-19.89146705456886
 20
28.24999999890001
 30
0.0
 11
-19.89146705456886
 21
-28.24999999890002
 31
0.0
  0
SOLID
  5
9518A
330
95098
100
AcDbEntity
  8
sk2
100
AcDbTrace
 10
-19.30813372123553
 20
28.24999999890001
 30
0.0
 11
-20.47480038790219
 21
28.24999999890001
 31
0.0
 12
-19.89146705456886
 22
31.74999999890002
 32
0.0
 13
-19.89146705456886
 23
31.74999999890002
 33
0.0
  0
SOLID
  5
9518B
330
95098
100
AcDbEntity
  8
sk2
100
AcDbTrace
 10
-20.4748003879022
 20
-28.24999999890002
 30
0.0
 11
-19.30813372123553
 21
-28.24999999890002
 31
0.0
 12
-19.89146705456886
 22
-31.74999999890002
 32
0.0
 13
-19.89146705456886
 23
-31.74999999890002
 33
0.0
  0
MTEXT
  5
9518C
330
95098
100
AcDbEntity
  8
sk2
100
AcDbMText
 10
-23.94146705456886
 20
-0.0000000000000033
 30
0.0
 40
3.5
 41
0.0
 71
     5
 72
     1
  1
\A1;%%C63.5 [%%c2.500"]
  7
simplex
 11
0.0000000000000001
 21
1.0
 31
0.0
 73
     1
 44
1.0
1001
ACAD
1000
MTEXTBEGIN
1070
    73
1070
     1
1070
    44
1040
1.0
1070
    74
1070
     0
1000
MTEXTEND
  0
POINT
  5
9518D
330
95098
100
AcDbEntity
  8
Defpoints
 62
     0
100
AcDbPoint
 10
12.0
 20
31.74999999890002
 30
0.0
  0
POINT
  5
9518E
330
95098
100
AcDbEntity
  8
Defpoints
 62
     0
100
AcDbPoint
 10
12.0
 20
-31.74999999890002
 30
0.0
  0
POINT
  5
9518F
330
95098
100
AcDbEntity
  8
Defpoints
 62
     0
100
AcDbPoint
 10
-19.89146705456886
 20
-31.74999999890002
 30
0.0
  0
ENDBLK
  5
950A3
330
95098
100
AcDbEntity
  8
0
100
AcDbBlockEnd
  0
BLOCK
  5
950AE
330
950A4
100
AcDbEntity
  8
0
100
AcDbBlockBegin
  2
*D22377
 70
     1
 10
0.0
 20
0.0
 30
0.0
  3
*D22377
  1

  0
LINE
  5
95190
330
950A4
100
AcDbEntity
  8
sk2
100
AcDbLine
 10
0.0
 20
-85.50000000110008
 30
0.0
 11
0.0
 21
-121.4853368591289
 31
0.0
  0
LINE
  5
95191
330
950A4
100
AcDbEntity
  8
sk2
100
AcDbLine
 10
35.0
 20
-66.99999999889996
 30
0.0
 11
35.0
 21
-121.4853368591289
 31
0.0
  0
LINE
  5
95192
330
950A4
100
AcDbEntity
  8
sk2
100
AcDbLine
 10
3.5
 20
-119.9853368591289
 30
0.0
 11
31.5
 21
-119.9853368591289
 31
0.0
  0
SOLID
  5
95193
330
950A4
100
AcDbEntity
  8
sk2
100
AcDbTrace
 10
3.5
 20
-119.4020035257955
 30
0.0
 11
3.5
 21
-120.5686701924622
 31
0.0
 12
0.0
 22
-119.9853368591289
 32
0.0
 13
0.0
 23
-119.9853368591289
 33
0.0
  0
SOLID
  5
95194
330
950A4
100
AcDbEntity
  8
sk2
100
AcDbTrace
 10
31.5
 20
-120.5686701924622
 30
0.0
 11
31.5
 21
-119.4020035257955
 31
0.0
 12
35.0
 22
-119.9853368591289
 32
0.0
 13
35.0
 23
-119.9853368591289
 33
0.0
  0
MTEXT
  5
95195
330
950A4
100
AcDbEntity
  8
sk2
100
AcDbMText
 10
17.5
 20
-115.9353368591289
 30
0.0
 40
3.5
 41
0.0
 71
     5
 72
     1
  1
\A1;35 [1.378"]
  7
simplex
 73
     1
 44
1.0
1001
ACAD
1000
MTEXTBEGIN
1070
    73
1070
     1
1070
    44
1040
1.0
1070
    74
1070
     0
1000
MTEXTEND
  0
POINT
  5
95196
330
950A4
100
AcDbEntity
  8
Defpoints
 62
     0
100
AcDbPoint
 10
0.0
 20
-85.50000000110008
 30
0.0
  0
POINT
  5
95197
330
950A4
100
AcDbEntity
  8
Defpoints
 62
     0
100
AcDbPoint
 10
35.0
 20
-66.99999999889996
 30
0.0
  0
POINT
  5
95198
330
950A4
100
AcDbEntity
  8
Defpoints
 62
     0
100
AcDbPoint
 10
35.0
 20
-119.9853368591289
 30
0.0
  0
ENDBLK
  5
950AF
330
950A4
100
AcDbEntity
  8
0
100
AcDbBlockEnd
  0
BLOCK
  5
950B9
330
950B0
100
AcDbEntity
  8
0
100
AcDbBlockBegin
  2
*D22488
 70
     1
 10
0.0
 20
0.0
 30
0.0
  3
*D22488
  1

  0
LINE
  5
9520C
330
950B0
100
AcDbEntity
  8
2
100
AcDbLine
 10
62.70000000000004
 20
101.5999999988999
 30
0.0
 11
101.3476256713845
 21
101.5999999988999
 31
0.0
  0
LINE
  5
9520D
330
950B0
100
AcDbEntity
  8
2
100
AcDbLine
 10
99.84762567138451
 20
98.0999999988999
 30
0.0
 11
99.84762567138451
 21
-101.5999999989
 31
0.0
  0
SOLID
  5
9520E
330
950B0
100
AcDbEntity
  8
2
100
AcDbTrace
 10
100.4309590047178
 20
98.0999999988999
 30
0.0
 11
99.26429233805121
 21
98.0999999988999
 31
0.0
 12
99.84762567138451
 22
101.5999999988999
 32
0.0
 13
99.84762567138451
 23
101.5999999988999
 33
0.0
  0
INSERT
  5
9520F
330
950B0
100
AcDbEntity
  8
2
100
AcDbBlockReference
  2
_None
 10
99.84762567138451
 20
-101.5999999989
 30
0.0
 41
3.5
 42
3.5
 43
3.5
 50
270.0
  0
MTEXT
  5
95210
330
950B0
100
AcDbEntity
  8
2
100
AcDbMText
 10
95.7976256713845
 20
-1.750000000000041
 30
0.0
 40
3.5
 41
0.0
 71
     5
 72
     1
  1
\A1;%%C203.2 [%%c8.000"]
  7
simplex
 11
0.0000000000000001
 21
1.0
 31
0.0
 73
     1
 44
1.0
1001
ACAD
1000
MTEXTBEGIN
1070
    73
1070
     1
1070
    44
1040
1.0
1070
    74
1070
     0
1000
MTEXTEND
  0
POINT
  5
95211
330
950B0
100
AcDbEntity
  8
Defpoints
 62
     0
100
AcDbPoint
 10
62.70000000000004
 20
101.5999999988999
 30
0.0
  0
POINT
  5
95212
330
950B0
100
AcDbEntity
  8
Defpoints
 62
     0
100
AcDbPoint
 10
62.70000000000004
 20
-101.5999999989
 30
0.0
  0
POINT
  5
95213
330
950B0
100
AcDbEntity
  8
Defpoints
 62
     0
100
AcDbPoint
 10
99.84762567138451
 20
-101.5999999989
 30
0.0
  0
ENDBLK
  5
950BA
330
950B0
100
AcDbEntity
  8
0
100
AcDbBlockEnd
  0
BLOCK
  5
950CF
330
950C5
100
AcDbEntity
  8
0
100
AcDbBlockBegin
  2
*D226109
 70
     1
 10
0.0
 20
0.0
 30
0.0
  3
*D226109
  1

  0
LINE
  5
9536B
330
950C5
100
AcDbEntity
  8
2
100
AcDbLine
 10
55.30000000000004
 20
101.5999999989
 30
0.0
 11
55.30000000000004
 21
121.5564317319667
 31
0.0
  0
LINE
  5
9536C
330
950C5
100
AcDbEntity
  8
2
100
AcDbLine
 10
63.5
 20
100.7999999988999
 30
0.0
 11
63.5
 21
121.5564317319667
 31
0.0
  0
LINE
  5
9536D
330
950C5
100
AcDbEntity
  8
2
100
AcDbLine
 10
67.0
 20
120.0564317319667
 30
0.0
 11
119.4333333333333
 21
120.0564317319667
 31
0.0
  0
LINE
  5
9536E
330
950C5
100
AcDbEntity
  8
2
100
AcDbLine
 10
51.80000000000004
 20
120.0564317319667
 30
0.0
 11
48.30000000000004
 21
120.0564317319667
 31
0.0
  0
SOLID
  5
9536F
330
950C5
100
AcDbEntity
  8
2
100
AcDbTrace
 10
51.80000000000004
 20
119.4730983986334
 30
0.0
 11
51.80000000000004
 21
120.6397650653
 31
0.0
 12
55.30000000000004
 22
120.0564317319667
 32
0.0
 13
55.30000000000004
 23
120.0564317319667
 33
0.0
  0
SOLID
  5
95370
330
950C5
100
AcDbEntity
  8
2
100
AcDbTrace
 10
67.0
 20
120.6397650653
 30
0.0
 11
67.0
 21
119.4730983986334
 31
0.0
 12
63.5
 22
120.0564317319667
 32
0.0
 13
63.5
 23
120.0564317319667
 33
0.0
  0
MTEXT
  5
95371
330
950C5
100
AcDbEntity
  8
2
100
AcDbMText
 10
94.96666666666667
 20
124.1064317319667
 30
0.0
 40
3.5
 41
0.0
 71
     5
 72
     1
  1
\A1;8.2 [.323"](MAX)
  7
simplex
 73
     1
 44
1.0
1001
ACAD
1000
MTEXTBEGIN
1070
    73
1070
     1
1070
    44
1040
1.0
1070
    74
1070
     0
1000
MTEXTEND
  0
POINT
  5
95372
330
950C5
100
AcDbEntity
  8
Defpoints
 62
     0
100
AcDbPoint
 10
55.30000000000004
 20
101.5999999989
 30
0.0
  0
POINT
  5
95373
330
950C5
100
AcDbEntity
  8
Defpoints
 62
     0
100
AcDbPoint
 10
63.5
 20
100.7999999988999
 30
0.0
  0
POINT
  5
95374
330
950C5
100
AcDbEntity
  8
Defpoints
 62
     0
100
AcDbPoint
 10
63.5
 20
120.0564317319667
 30
0.0
  0
ENDBLK
  5
950D0
330
950C5
100
AcDbEntity
  8
0
100
AcDbBlockEnd
  0
BLOCK
  5
95317
330
9530F
100
AcDbEntity
  8
0
100
AcDbBlockBegin
  2
*D1310
 70
     1
 10
0.0
 20
0.0
 30
0.0
  3
*D1310
  1

  0
LINE
  5
95320
330
9530F
100
AcDbEntity
  8
2
100
AcDbLine
 10
108.0504051533467
 20
109.792322476348
 30
0.0
 11
66.91788195009499
 21
101.6363443389077
 31
0.0
  0
MTEXT
  5
95321
330
9530F
100
AcDbEntity
  8
2
100
AcDbMText
 10
88.41300374605447
 20
110.0273623594647
 30
0.0
 40
3.5
 41
0.0
 71
     5
 72
     1
  1
\A1;R0.8 [R.031"]
  7
simplex
 11
0.9809027790918531
 21
0.1944986837227415
 31
0.0
 73
     1
 44
1.0
1001
ACAD
1000
MTEXTBEGIN
1070
    73
1070
     1
1070
    44
1040
1.0
1070
    74
1070
     0
1000
MTEXTEND
  0
SOLID
  5
95322
330
9530F
100
AcDbEntity
  8
2
100
AcDbTrace
 10
66.80442438459007
 20
102.2085376267113
 30
0.0
 11
67.03133951559992
 21
101.0641510511042
 31
0.0
 12
63.48472222327349
 22
100.9555989458781
 32
0.0
 13
63.48472222327349
 23
100.9555989458781
 33
0.0
  0
LINE
  5
95323
330
9530F
100
AcDbEntity
  8
2
100
AcDbLine
 10
62.61000000000003
 20
100.7999999988999
 30
0.0
 11
62.79000000000005
 21
100.7999999988999
 31
0.0
  0
LINE
  5
95324
330
9530F
100
AcDbEntity
  8
2
100
AcDbLine
 10
62.70000000000004
 20
100.7099999989
 30
0.0
 11
62.70000000000004
 21
100.8899999989
 31
0.0
  0
POINT
  5
95325
330
9530F
100
AcDbEntity
  8
Defpoints
 62
     0
100
AcDbPoint
 10
63.48472222327349
 20
100.9555989458781
 30
0.0
  0
POINT
  5
95326
330
9530F
100
AcDbEntity
  8
Defpoints
 62
     0
100
AcDbPoint
 10
62.70000000000004
 20
100.7999999988999
 30
0.0
  0
ENDBLK
  5
95318
330
9530F
100
AcDbEntity
  8
0
100
AcDbBlockEnd
  0
ENDSEC
  0
SECTION
  2
ENTITIES
  0
INSERT
  5
4A793
330
1F
100
AcDbEntity
  8
0
100
AcDbBlockReference
  2
zero block
 10
0.0
 20
0.0
 30
0.0
 50
180.0
  0
MTEXT
  5
94EA8
330
1F
100
AcDbEntity
  8
sk6
100
AcDbMText
 10
5.140031522966096
 20
152.3833945520237
 30
0.0
 40
3.5
 41
139.3353303764208
 71
     1
 72
     5
  1
WWX400UR8_0010MN
 73
     1
 44
0.9
1001
ACAD
1000
MTEXTBEGIN
1070
    73
1070
     1
1070
    44
1040
0.9
1070
    74
1070
     0
1000
MTEXTEND
1000
ACAD_MTEXT_DEFINED_HEIGHT_BEGIN
1070
    46
1040
3.48901801050149
1000
ACAD_MTEXT_DEFINED_HEIGHT_END
  0
LINE
  5
94EAA
330
1F
100
AcDbEntity
  8
4
100
AcDbLine
 10
68.83693405598953
 20
0.0
 30
0.0
 11
-2.907861614760518
 21
0.0
 31
0.0
  0
LINE
  5
94EAB
330
1F
100
AcDbEntity
  8
1
100
AcDbLine
 10
52.02618060329999
 20
-100.8000000011
 30
0.0
 11
55.71381768840004
 21
-100.8000000011
 31
0.0
  0
LINE
  5
94EAC
330
1F
100
AcDbEntity
  8
1
100
AcDbLine
 10
51.97382338399997
 20
-100.7995430866
 30
0.0
 11
52.02618060329999
 21
-100.8000000011
 31
0.0
  0
LINE
  5
94EAD
330
1F
100
AcDbEntity
  8
1
100
AcDbLine
 10
39.65851611570001
 20
-100.5845785986001
 30
0.0
 11
51.97382338399997
 21
-100.7995430866
 31
0.0
  0
LINE
  5
94EAE
102
{ACAD_REACTORS
330
95072
102
}
330
1F
100
AcDbEntity
  8
1
100
AcDbLine
 10
19.43987587009999
 20
-87.50000000110011
 30
0.0
 11
2.0
 21
-87.50000000110011
 31
0.0
  0
LINE
  5
94EAF
330
1F
100
AcDbEntity
  8
1
100
AcDbLine
 10
48.1257180744
 20
97.93846330099995
 30
0.0
 11
48.8963269045
 21
98.22565880039991
 31
0.0
  0
LINE
  5
94EB0
330
1F
100
AcDbEntity
  8
1
100
AcDbLine
 10
37.58955299139998
 20
-99.70635585670008
 30
0.0
 11
26.64055644870004
 21
-88.7573593140001
 31
0.0
  0
LINE
  5
94EB1
330
1F
100
AcDbEntity
  8
1
100
AcDbLine
 10
49.43409628480001
 20
98.03302774249987
 30
0.0
 11
51.7080503256
 21
99.36058779959994
 31
0.0
  0
LINE
  5
94EB2
330
1F
100
AcDbEntity
  8
1
100
AcDbLine
 10
37.58955299139998
 20
99.70635585449993
 30
0.0
 11
26.64055644870004
 21
88.75735931179994
 31
0.0
  0
LINE
  5
94EB3
330
1F
100
AcDbEntity
  8
1
100
AcDbLine
 10
50.11133016480002
 20
90.68509875279993
 30
0.0
 11
50.09584581110003
 21
90.67013237819995
 31
0.0
  0
LINE
  5
94EB4
330
1F
100
AcDbEntity
  8
1
100
AcDbLine
 10
0.0
 20
-85.50000000110008
 30
0.0
 11
0.0
 21
85.49999999889996
 31
0.0
  0
LINE
  5
94EB5
330
1F
100
AcDbEntity
  8
1
100
AcDbLine
 10
47.81638960929996
 20
98.14982113239997
 30
0.0
 11
47.66339782390002
 21
99.70743280799993
 31
0.0
  0
LINE
  5
94EB6
330
1F
100
AcDbEntity
  8
1
100
AcDbLine
 10
61.56593685840002
 20
86.33529740499986
 30
0.0
 11
61.56593685840002
 21
88.94304664909993
 31
0.0
  0
LINE
  5
94EB7
330
1F
100
AcDbEntity
  8
1
100
AcDbLine
 10
61.71381768840001
 20
89.2048563154999
 30
0.0
 11
61.71381768840001
 21
-94.79999909980007
 31
0.0
  0
LINE
  5
94EB8
330
1F
100
AcDbEntity
  8
1
100
AcDbLine
 10
49.01613762840003
 20
91.96859271349994
 30
0.0
 11
47.68076835769995
 21
94.45313963129995
 31
0.0
  0
LINE
  5
94EB9
330
1F
100
AcDbEntity
  8
1
100
AcDbLine
 10
48.30095838620003
 20
94.17286320489994
 30
0.0
 11
50.11133016480002
 21
90.68509875279993
 31
0.0
  0
LINE
  5
94EBA
330
1F
100
AcDbEntity
  8
1
100
AcDbLine
 10
19.43987587009999
 20
87.49999999889999
 30
0.0
 11
2.0
 21
87.49999999889999
 31
0.0
  0
LINE
  5
94EBB
330
1F
100
AcDbEntity
  8
1
100
AcDbLine
 10
49.01613762840003
 20
91.96859271349994
 30
0.0
 11
35.89776296229999
 21
96.65295892039992
 31
0.0
  0
LINE
  5
94EBC
330
1F
100
AcDbEntity
  8
1
100
AcDbLine
 10
48.81430089309997
 20
97.85952548529998
 30
0.0
 11
49.43409628480001
 21
98.03302774249987
 31
0.0
  0
LINE
  5
94EBD
330
1F
100
AcDbEntity
  8
1
100
AcDbLine
 10
57.07418915300002
 20
92.34252263299991
 30
0.0
 11
56.88603791910001
 21
92.34252263299991
 31
0.0
  0
LINE
  5
94EBE
330
1F
100
AcDbEntity
  8
1
100
AcDbLine
 10
55.34901141099999
 20
92.50371334709994
 30
0.0
 11
55.16086017710001
 21
92.50371334709994
 31
0.0
  0
LINE
  5
94EBF
330
1F
100
AcDbEntity
  8
1
100
AcDbLine
 10
55.55742463129999
 20
92.60649763709992
 30
0.0
 11
55.74557586519997
 21
92.60649763709992
 31
0.0
  0
LINE
  5
94EC0
330
1F
100
AcDbEntity
  8
1
100
AcDbLine
 10
58.0756085598
 20
93.76420465929987
 30
0.0
 11
57.88745732590001
 21
93.76420465929987
 31
0.0
  0
LINE
  5
94EC1
330
1F
100
AcDbEntity
  8
1
100
AcDbLine
 10
48.08942000880003
 20
94.7472076486999
 30
0.0
 11
47.2363789071
 21
94.7472076486999
 31
0.0
  0
LINE
  5
94EC2
330
1F
100
AcDbEntity
  8
1
100
AcDbLine
 10
48.0659230224
 20
94.79333214869992
 30
0.0
 11
47.18591663429996
 21
94.79333214869992
 31
0.0
  0
LINE
  5
94EC3
330
1F
100
AcDbEntity
  8
1
100
AcDbLine
 10
57.7930325383
 20
94.89028369319996
 30
0.0
 11
57.60488130439999
 21
94.89028369319996
 31
0.0
  0
LINE
  5
94EC4
330
1F
100
AcDbEntity
  8
1
100
AcDbLine
 10
56.76713453649999
 20
95.2442931096999
 30
0.0
 11
56.9552857704
 21
95.2442931096999
 31
0.0
  0
LINE
  5
94EC5
330
1F
100
AcDbEntity
  8
1
100
AcDbLine
 10
56.24069148300002
 20
95.66405092829986
 30
0.0
 11
56.05254024910003
 21
95.66405092829986
 31
0.0
  0
LINE
  5
94EC6
330
1F
100
AcDbEntity
  8
1
100
AcDbLine
 10
46.59069148660001
 20
95.92937942299995
 30
0.0
 11
47.4884522885
 21
95.92937942299995
 31
0.0
  0
LINE
  5
94EC7
330
1F
100
AcDbEntity
  8
1
100
AcDbLine
 10
46.84673308869998
 20
96.98530882289992
 30
0.0
 11
47.77428374090002
 21
96.98530882289992
 31
0.0
  0
LINE
  5
94EC8
330
1F
100
AcDbEntity
  8
1
100
AcDbLine
 10
48.8443051612
 20
97.64162217929985
 30
0.0
 11
47.95098212960001
 21
97.64162217929985
 31
0.0
  0
LINE
  5
94EC9
330
1F
100
AcDbEntity
  8
1
100
AcDbLine
 10
48.88796339009999
 20
97.66786334219988
 30
0.0
 11
47.99718703429999
 21
97.66786334219988
 31
0.0
  0
LINE
  5
94ECA
330
1F
100
AcDbEntity
  8
1
100
AcDbLine
 10
57.9061286081
 20
93.15161841279993
 30
0.0
 11
57.7062301915
 21
93.1516712844999
 31
0.0
  0
LINE
  5
94ECB
330
1F
100
AcDbEntity
  8
1
100
AcDbLine
 10
54.79473302750003
 20
94.69917233399993
 30
0.0
 11
54.80648020149999
 21
94.69912881979992
 31
0.0
  0
LINE
  5
94ECC
330
1F
100
AcDbEntity
  8
1
100
AcDbLine
 10
48.81430089309997
 20
97.85952548529998
 30
0.0
 11
48.1257180744
 21
97.93846330099995
 31
0.0
  0
LINE
  5
94ECD
330
1F
100
AcDbEntity
  8
1
100
AcDbLine
 10
48.30095838620003
 20
94.17286320489994
 30
0.0
 11
47.93877373019998
 21
94.25593853069996
 31
0.0
  0
LINE
  5
94ECE
330
1F
100
AcDbEntity
  8
1
100
AcDbLine
 10
48.8963269045
 20
98.22565880039991
 30
0.0
 11
49.19694192160003
 21
98.14768568469993
 31
0.0
  0
LINE
  5
94ECF
330
1F
100
AcDbEntity
  8
1
100
AcDbLine
 10
39.65851611570001
 20
100.5845785963999
 30
0.0
 11
51.97382338399997
 21
100.7995430843999
 31
0.0
  0
LINE
  5
94ED0
330
1F
100
AcDbEntity
  8
1
100
AcDbLine
 10
51.97382338399997
 20
100.7995430843999
 30
0.0
 11
52.02618060329999
 21
100.7999999988999
 31
0.0
  0
LINE
  5
94ED1
330
1F
100
AcDbEntity
  8
1
100
AcDbLine
 10
54.19765013340003
 20
100.7584584223999
 30
0.0
 11
53.64508845119999
 21
100.7584584223999
 31
0.0
  0
LINE
  5
94ED2
330
1F
100
AcDbEntity
  8
1
100
AcDbLine
 10
52.02618060329999
 20
100.7999999988999
 30
0.0
 11
53.72707701990001
 21
100.7999999988999
 31
0.0
  0
LINE
  5
94ED3
330
1F
100
AcDbEntity
  8
1
100
AcDbLine
 10
54.93713742199997
 20
100.9507177371
 30
0.0
 11
54.3854602048
 21
100.9507177371
 31
0.0
  0
LINE
  5
94ED4
330
1F
100
AcDbEntity
  8
1
100
AcDbLine
 10
54.96418046899997
 20
100.9504866459999
 30
0.0
 11
54.93713657570001
 21
100.9507177371
 31
0.0
  0
LINE
  5
94ED5
330
1F
100
AcDbEntity
  8
nocut
100
AcDbLine
 10
61.71381768839999
 20
0.0
 30
0.0
 11
0.0
 21
0.0
 31
0.0
  0
LINE
  5
94ED6
330
1F
100
AcDbEntity
  8
nocut
100
AcDbLine
 10
0.0
 20
0.0
 30
0.0
 11
0.0
 21
85.49999999889996
 31
0.0
  0
LINE
  5
94EF8
330
1F
100
AcDbEntity
  8
nocut
100
AcDbLine
 10
26.64055644880003
 20
88.75735931179994
 30
0.0
 11
37.58955299149994
 21
99.70635585450004
 31
0.0
  0
LINE
  5
94F4A
330
1F
100
AcDbEntity
  8
nocut
100
AcDbLine
 10
61.71381768839999
 20
94.79999999889995
 30
0.0
 11
61.71381768839999
 21
0.0
 31
0.0
  0
LINE
  5
94F8E
330
1F
100
AcDbEntity
  8
nocut
100
AcDbLine
 10
2.0
 20
87.49999999889999
 30
0.0
 11
19.43987587009997
 21
87.49999999889999
 31
0.0
  0
LINE
  5
94FB5
330
1F
100
AcDbEntity
  8
nocut
100
AcDbLine
 10
39.65851611570002
 20
100.5845785963999
 30
0.0
 11
51.9738233841
 21
100.7995430844
 31
0.0
  0
LINE
  5
94FB6
330
1F
100
AcDbEntity
  8
nocut
100
AcDbLine
 10
52.0261806034
 20
100.7999999988999
 30
0.0
 11
55.71381768839995
 21
100.7999999988999
 31
0.0
  0
ARC
  5
94FB9
330
1F
100
AcDbEntity
  8
1
100
AcDbCircle
 10
22.39791576159999
 20
-93.00000000110008
 30
0.0
 40
6.0
100
AcDbArc
 50
44.99999999999949
 51
109.1881364537007
  0
ARC
  5
94FBA
330
1F
100
AcDbEntity
  8
1
100
AcDbCircle
 10
22.39791576159999
 20
92.99999999889996
 30
0.0
 40
6.0
100
AcDbArc
 50
250.8118635462993
 51
315.0000000000005
  0
ARC
  5
94FBB
330
1F
100
AcDbEntity
  8
1
100
AcDbCircle
 10
55.71381768840004
 20
-94.80000000110008
 30
0.0
 40
6.0
100
AcDbArc
 50
270.0
 51
0.0
  0
ARC
  5
94FBC
330
1F
100
AcDbEntity
  8
1
100
AcDbCircle
 10
19.43987587009999
 20
84.49999999889994
 30
0.0
 40
3.0
100
AcDbArc
 50
70.81186354629932
 51
90.0
  0
ARC
  5
94FBD
330
1F
100
AcDbEntity
  8
1
100
AcDbCircle
 10
19.43987587009999
 20
-84.50000000110009
 30
0.0
 40
3.0
100
AcDbArc
 50
270.0
 51
289.1881364537007
  0
ARC
  5
94FBE
330
1F
100
AcDbEntity
  8
1
100
AcDbCircle
 10
39.710873335
 20
97.58503551089994
 30
0.0
 40
3.0
100
AcDbArc
 50
91.00000000000015
 51
135.0000000000004
  0
ARC
  5
94FBF
330
1F
100
AcDbEntity
  8
1
100
AcDbCircle
 10
39.710873335
 20
-97.58503551310006
 30
0.0
 40
3.0
100
AcDbArc
 50
224.9999999999995
 51
268.9999999999998
  0
ARC
  5
94FC0
330
1F
100
AcDbEntity
  8
1
100
AcDbCircle
 10
2.0
 20
85.49999999889996
 30
0.0
 40
2.0
100
AcDbArc
 50
90.0
 51
180.0
  0
ARC
  5
94FC1
102
{ACAD_REACTORS
330
95078
102
}
330
1F
100
AcDbEntity
  8
1
100
AcDbCircle
 10
2.0
 20
-85.50000000110008
 30
0.0
 40
2.0
100
AcDbArc
 50
180.0
 51
270.0
  0
ARC
  5
94FC2
330
1F
100
AcDbEntity
  8
nocut
100
AcDbCircle
 10
22.3979157617
 20
92.99999999889996
 30
0.0
 40
6.0
100
AcDbArc
 50
250.8118635462993
 51
315.0000000000005
  0
ARC
  5
94FC3
330
1F
100
AcDbEntity
  8
nocut
100
AcDbCircle
 10
55.71381768839995
 20
94.79999999889995
 30
0.0
 40
6.0
100
AcDbArc
 50
0.0
 51
90.0
  0
ARC
  5
94FC4
330
1F
100
AcDbEntity
  8
nocut
100
AcDbCircle
 10
19.43987587009997
 20
84.49999999889994
 30
0.0
 40
3.0
100
AcDbArc
 50
70.81186354629932
 51
90.0
  0
ARC
  5
94FC5
330
1F
100
AcDbEntity
  8
nocut
100
AcDbCircle
 10
39.71087333500003
 20
97.58503551090001
 30
0.0
 40
3.0
100
AcDbArc
 50
91.00000000000015
 51
135.0000000000004
  0
ARC
  5
94FC6
330
1F
100
AcDbEntity
  8
nocut
100
AcDbCircle
 10
52.0261806034
 20
97.7999999989
 30
0.0
 40
3.0
100
AcDbArc
 50
90.0
 51
91.00000000000015
  0
ARC
  5
94FC9
102
{ACAD_REACTORS
330
9506F
330
95072
102
}
330
1F
100
AcDbEntity
  8
nocut
100
AcDbCircle
 10
2.0
 20
85.49999999889996
 30
0.0
 40
2.0
100
AcDbArc
 50
90.0
 51
180.0
  0
SPLINE
  5
94FCC
330
1F
100
AcDbEntity
  8
1
100
AcDbSpline
210
0.0
220
0.0
230
1.0
 70
     8
 71
     3
 72
    15
 73
    11
 74
     0
 42
0.000000001
 43
0.0000000001
 40
0.0
 40
0.0
 40
0.0
 40
0.0
 40
0.1246276694
 40
0.249368813
 40
0.3743268309
 40
0.4994882895
 40
0.6247627234000001
 40
0.7500136107
 40
0.8751082364
 40
1.0
 40
1.0
 40
1.0
 40
1.0
 10
54.79473302699997
 20
94.69917974509993
 30
0.0
 10
54.75934075590001
 20
94.69917723599994
 30
0.0
 10
54.68798605829999
 20
94.68745200669998
 30
0.0
 10
54.59259939919999
 20
94.63654271329986
 30
0.0
 10
54.51828759919999
 20
94.55768022489996
 30
0.0
 10
54.47292677980001
 20
94.45913862959995
 30
0.0
 10
54.46119872170001
 20
94.35121619249985
 30
0.0
 10
54.48434241600001
 20
94.24515292850001
 30
0.0
 10
54.5398472105
 20
94.15208636179988
 30
0.0
 10
54.5949255024
 20
94.10497536449993
 30
0.0
 10
54.62525307579999
 20
94.08658608739996
 30
0.0
  0
SPLINE
  5
94FCD
330
1F
100
AcDbEntity
  8
1
100
AcDbSpline
210
0.0
220
0.0
230
1.0
 70
     8
 71
     3
 72
    11
 73
     7
 74
     0
 42
0.000000001
 43
0.0000000001
 40
0.0
 40
0.0
 40
0.0
 40
0.0
 40
0.2503030328
 40
0.5003542121
 40
0.7502266835000003
 40
1.0
 40
1.0
 40
1.0
 40
1.0
 10
53.84788612129997
 20
96.40036120999996
 30
0.0
 10
54.00565833259999
 20
96.55442472299988
 30
0.0
 10
54.3516793566
 20
96.83270774179987
 30
0.0
 10
54.94025795329999
 20
97.14208478289986
 30
0.0
 10
55.5768520412
 20
97.33254929419997
 30
0.0
 10
56.018217396
 20
97.37539181709999
 30
0.0
 10
56.2382674655
 20
97.37539496639993
 30
0.0
  0
SPLINE
  5
94FCE
330
1F
100
AcDbEntity
  8
1
100
AcDbSpline
210
0.0
220
0.0
230
1.0
 70
     8
 71
     3
 72
    15
 73
    11
 74
     0
 42
0.000000001
 43
0.0000000001
 40
0.0
 40
0.0
 40
0.0
 40
0.0
 40
0.1251730447
 40
0.2504209132
 40
0.3756831277
 40
0.5008556916
 40
0.6258752284
 40
0.7507163136
 40
0.875401657
 40
1.0
 40
1.0
 40
1.0
 40
1.0
 10
54.9078290973
 20
92.96050705359986
 30
0.0
 10
54.89321784099999
 20
92.93565085079986
 30
0.0
 10
54.87042463809999
 20
92.88181083419992
 30
0.0
 10
54.85838034440004
 20
92.79516039609992
 30
0.0
 10
54.869121584
 20
92.70828383179994
 30
0.0
 10
54.90196863819999
 20
92.62720863879987
 30
0.0
 10
54.9546521156
 20
92.55749277259992
 30
0.0
 10
55.02358587079999
 20
92.50394582959991
 30
0.0
 10
55.10395031760001
 20
92.47025697689993
 30
0.0
 10
55.16165843100001
 20
92.46259723869988
 30
0.0
 10
55.190358667
 20
92.46259492719991
 30
0.0
  0
SPLINE
  5
94FCF
330
1F
100
AcDbEntity
  8
1
100
AcDbSpline
210
0.0
220
0.0
230
1.0
 70
     8
 71
     3
 72
    11
 73
     7
 74
     0
 42
0.000000001
 43
0.0000000001
 40
0.0
 40
0.0
 40
0.0
 40
0.0
 40
0.2504796861
 40
0.5005840284000001
 40
0.750382722
 40
1.0
 40
1.0
 40
1.0
 40
1.0
 10
56.46017015259999
 20
92.18673981849994
 30
0.0
 10
56.4247941744
 20
92.24983191749986
 30
0.0
 10
56.3369954985
 20
92.36716164789987
 30
0.0
 10
56.1643286451
 20
92.50212369329991
 30
0.0
 10
55.96260501429997
 20
92.58715480789986
 30
0.0
 10
55.81765988939999
 20
92.60650045939993
 30
0.0
 10
55.7455758656
 20
92.60649723459991
 30
0.0
  0
SPLINE
  5
94FD0
330
1F
100
AcDbEntity
  8
1
100
AcDbSpline
210
0.0
220
0.0
230
1.0
 70
     8
 71
     3
 72
    11
 73
     7
 74
     0
 42
0.000000001
 43
0.0000000001
 40
0.0
 40
0.0
 40
0.0
 40
0.0
 40
0.2504867005
 40
0.5005800641000003
 40
0.7503833814
 40
1.0
 40
1.0
 40
1.0
 40
1.0
 10
56.46017015259999
 20
92.18673981849994
 30
0.0
 10
56.4743233147
 20
92.16149803719991
 30
0.0
 10
56.50944711500002
 20
92.11455693249993
 30
0.0
 10
56.57852960480003
 20
92.0605692840999
 30
0.0
 10
56.65922935699999
 20
92.02654455879992
 30
0.0
 10
56.71721809570001
 20
92.01881084119991
 30
0.0
 10
56.74605646739999
 20
92.01880860279993
 30
0.0
  0
SPLINE
  5
94FD1
330
1F
100
AcDbEntity
  8
1
100
AcDbSpline
210
0.0
220
0.0
230
1.0
 70
     8
 71
     3
 72
    15
 73
    11
 74
     0
 42
0.000000001
 43
0.0000000001
 40
0.0
 40
0.0
 40
0.0
 40
0.0
 40
0.125029774
 40
0.250133978
 40
0.3752823857
 40
0.500414915
 40
0.6254844937
 40
0.7504534489
 40
0.8752885904999999
 40
1.0
 40
1.0
 40
1.0
 40
1.0
 10
54.9078290973
 20
92.96050705359986
 30
0.0
 10
54.93496506849999
 20
93.00666990169991
 30
0.0
 10
54.9803638993
 20
93.10458569889991
 30
0.0
 10
55.0187228224
 20
93.26166248639999
 30
0.0
 10
55.02608291059999
 20
93.42328993959991
 30
0.0
 10
55.0021114806
 20
93.58327075479989
 30
0.0
 10
54.94774145570002
 20
93.73554697459995
 30
0.0
 10
54.86500324580001
 20
93.87433703899988
 30
0.0
 10
54.75711136090001
 20
93.99433659429993
 30
0.0
 10
54.67092449169999
 20
94.05889299409997
 30
0.0
 10
54.62525307579999
 20
94.08658608739996
 30
0.0
  0
SPLINE
  5
94FD2
330
1F
100
AcDbEntity
  8
1
100
AcDbSpline
210
0.0
220
0.0
230
1.0
 70
     8
 71
     3
 72
    15
 73
    11
 74
     0
 42
0.000000001
 43
0.0000000001
 40
0.0
 40
0.0
 40
0.0
 40
0.0
 40
0.1246783274
 40
0.2493886399
 40
0.3741996724
 40
0.4991301934
 40
0.6241930359000003
 40
0.7493813355
 40
0.8746591609999999
 40
1.0
 40
1.0
 40
1.0
 40
1.0
 10
54.80648020179996
 20
94.69911965609993
 30
0.0
 10
54.85944464730002
 20
94.69912196099993
 30
0.0
 10
54.96567714769998
 20
94.70949970549993
 30
0.0
 10
55.11880253019999
 20
94.75563964569991
 30
0.0
 10
55.26026265410004
 20
94.83058908479987
 30
0.0
 10
55.38467360020002
 20
94.93154958859994
 30
0.0
 10
55.48739759039998
 20
95.05471275189988
 30
0.0
 10
55.56457468000002
 20
95.1954810936999
 30
0.0
 10
55.61333027489999
 20
95.34849581769993
 30
0.0
 10
55.62566386169999
 20
95.45503178139993
 30
0.0
 10
55.62667248260002
 20
95.50826811369992
 30
0.0
  0
SPLINE
  5
94FD3
330
1F
100
AcDbEntity
  8
1
100
AcDbSpline
210
0.0
220
0.0
230
1.0
 70
     8
 71
     3
 72
    23
 73
    19
 74
     0
 42
0.000000001
 43
0.0000000001
 40
0.0
 40
0.0
 40
0.0
 40
0.0
 40
0.0624852628
 40
0.1250167612
 40
0.1875930434
 40
0.25020164
 40
0.3128307636
 40
0.3754658227
 40
0.4380919484000004
 40
0.5006949929
 40
0.5632628106000001
 40
0.6257863119
 40
0.6882602616
 40
0.7506837412000003
 40
0.8130602356999999
 40
0.8753973372
 40
0.9377060846999999
 40
1.0
 40
1.0
 40
1.0
 40
1.0
 10
53.84788612129997
 20
96.40036120999996
 30
0.0
 10
53.72637118609997
 20
96.28170268529993
 30
0.0
 10
53.5005141249
 20
96.02585383939993
 30
0.0
 10
53.22218757929999
 20
95.59651015149988
 30
0.0
 10
53.00987072019998
 20
95.13048767809992
 30
0.0
 10
52.86832554429998
 20
94.63808523439992
 30
0.0
 10
52.80061313300001
 20
94.13007047139997
 30
0.0
 10
52.80822580529999
 20
93.61757387469991
 30
0.0
 10
52.89099404419999
 20
93.11181833849998
 30
0.0
 10
53.0471096226
 20
92.62388182389996
 30
0.0
 10
53.27315708769996
 20
92.16445370279995
 30
0.0
 10
53.56418926439999
 20
91.74360106269991
 30
0.0
 10
53.91383439230001
 20
91.37054894899987
 30
0.0
 10
54.31443853690004
 20
91.05347793729992
 30
0.0
 10
54.7572150242
 20
90.79934431169993
 30
0.0
 10
55.23249965919998
 20
90.61372548529993
 30
0.0
 10
55.72972538210001
 20
90.50069940299991
 30
0.0
 10
56.06894727210002
 20
90.47539335719987
 30
0.0
 10
56.2382674655
 20
90.47539578039986
 30
0.0
  0
SPLINE
  5
94FD4
330
1F
100
AcDbEntity
  8
1
100
AcDbSpline
210
0.0
220
0.0
230
1.0
 70
     8
 71
     3
 72
    11
 73
     7
 74
     0
 42
0.000000001
 43
0.0000000001
 40
0.0
 40
0.0
 40
0.0
 40
0.0
 40
0.2493725519
 40
0.4991083562
 40
0.749360566
 40
1.0
 40
1.0
 40
1.0
 40
1.0
 10
55.9548051682
 20
95.83198214399986
 30
0.0
 10
55.91262295199999
 20
95.8319854180999
 30
0.0
 10
55.82728845789998
 20
95.8151939601999
 30
0.0
 10
55.71905545569999
 20
95.74339074719988
 30
0.0
 10
55.6457236592
 20
95.63595340989996
 30
0.0
 10
55.62747558699999
 20
95.55065702029995
 30
0.0
 10
55.62667248260002
 20
95.50826811369992
 30
0.0
  0
SPLINE
  5
94FD5
330
1F
100
AcDbEntity
  8
1
100
AcDbSpline
210
0.0
220
0.0
230
1.0
 70
     8
 71
     3
 72
     9
 73
     5
 74
     0
 42
0.000000001
 43
0.0000000001
 40
0.0
 40
0.0
 40
0.0
 40
0.0
 40
0.4998148654
 40
1.0
 40
1.0
 40
1.0
 40
1.0
 10
56.9552857699
 20
95.24429351219986
 30
0.0
 10
57.02409035899997
 20
95.24429659019991
 30
0.0
 10
57.16231155269998
 20
95.26185248689987
 30
0.0
 10
57.29165228320002
 20
95.31365142079987
 30
0.0
 10
57.35185022460001
 20
95.3470773996999
 30
0.0
  0
SPLINE
  5
94FD6
330
1F
100
AcDbEntity
  8
1
100
AcDbSpline
210
0.0
220
0.0
230
1.0
 70
     8
 71
     3
 72
     9
 73
     5
 74
     0
 42
0.000000001
 43
0.0000000001
 40
0.0
 40
0.0
 40
0.0
 40
0.0
 40
0.4998027441
 40
1.0
 40
1.0
 40
1.0
 40
1.0
 10
57.51050296859998
 20
95.38819581959996
 30
0.0
 10
57.48297714489999
 20
95.38819803649989
 30
0.0
 10
57.42767873750003
 20
95.38117364219989
 30
0.0
 10
57.37593405810001
 20
95.36045037709991
 30
0.0
 10
57.35185022460001
 20
95.3470773996999
 30
0.0
  0
SPLINE
  5
94FD7
330
1F
100
AcDbEntity
  8
1
100
AcDbSpline
210
0.0
220
0.0
230
1.0
 70
     8
 71
     3
 72
    23
 73
    19
 74
     0
 42
0.000000001
 43
0.0000000001
 40
0.0
 40
0.0
 40
0.0
 40
0.0
 40
0.0622939153
 40
0.1246026628
 40
0.1869397643
 40
0.2493162588
 40
0.3117397384
 40
0.3742136881
 40
0.4367371894
 40
0.4993050071000001
 40
0.5619080516000004
 40
0.6245341773
 40
0.6871692364000001
 40
0.74979836
 40
0.8124069565999999
 40
0.8749832387999999
 40
0.9375147372
 40
1.0
 40
1.0
 40
1.0
 40
1.0
 10
56.30861943250001
 20
97.37539496639993
 30
0.0
 10
56.4779396259
 20
97.3753973896
 30
0.0
 10
56.81716151590001
 20
97.35009134369995
 30
0.0
 10
57.31438723879997
 20
97.23706526149989
 30
0.0
 10
57.78967187379999
 20
97.05144643509996
 30
0.0
 10
58.23244836109997
 20
96.79731280949994
 30
0.0
 10
58.63305250570004
 20
96.48024179780001
 30
0.0
 10
58.9826976336
 20
96.10718968399986
 30
0.0
 10
59.2737298103
 20
95.6863370439999
 30
0.0
 10
59.49977727539999
 20
95.22690892279994
 30
0.0
 10
59.6558928537
 20
94.73897240829987
 30
0.0
 10
59.73866109270002
 20
94.23321687209996
 30
0.0
 10
59.74627376500001
 20
93.7207202753999
 30
0.0
 10
59.67856135359998
 20
93.21270551239996
 30
0.0
 10
59.53701617780001
 20
92.72030306869991
 30
0.0
 10
59.3246993187
 20
92.25428059529994
 30
0.0
 10
59.04637277309999
 20
91.82493690739994
 30
0.0
 10
58.82051571189999
 20
91.56908806139993
 30
0.0
 10
58.69900077669999
 20
91.45042953679988
 30
0.0
  0
SPLINE
  5
94FD8
330
1F
100
AcDbEntity
  8
1
100
AcDbSpline
210
0.0
220
0.0
230
1.0
 70
     8
 71
     3
 72
    11
 73
     7
 74
     0
 42
0.000000001
 43
0.0000000001
 40
0.0
 40
0.0
 40
0.0
 40
0.0
 40
0.2497733165
 40
0.4996457879
 40
0.7496969672000004
 40
1.0
 40
1.0
 40
1.0
 40
1.0
 10
56.30861943250001
 20
90.47539578039986
 30
0.0
 10
56.52866950199999
 20
90.47539892969991
 30
0.0
 10
56.97003485679999
 20
90.51824145249986
 30
0.0
 10
57.60662894469999
 20
90.70870596379995
 30
0.0
 10
58.1952075414
 20
91.01808300489997
 30
0.0
 10
58.54122856539999
 20
91.29636602379992
 30
0.0
 10
58.69900077669999
 20
91.45042953679988
 30
0.0
  0
SPLINE
  5
94FD9
330
1F
100
AcDbEntity
  8
1
100
AcDbSpline
210
0.0
220
0.0
230
1.0
 70
     8
 71
     3
 72
    23
 73
    19
 74
     0
 42
0.000000001
 43
0.0000000001
 40
0.0
 40
0.0
 40
0.0
 40
0.0
 40
0.0624852628
 40
0.1250167612
 40
0.1875930434
 40
0.25020164
 40
0.3128307636
 40
0.3754658227
 40
0.4380919484000004
 40
0.5006949929
 40
0.5632628106000001
 40
0.6257863119
 40
0.6882602616
 40
0.7506837412000003
 40
0.8130602356999999
 40
0.8753973372
 40
0.9377060846999999
 40
1.0
 40
1.0
 40
1.0
 40
1.0
 10
53.9182380883
 20
96.40036120999996
 30
0.0
 10
53.79672315300005
 20
96.28170268529993
 30
0.0
 10
53.57086609189999
 20
96.02585383939993
 30
0.0
 10
53.2925395462
 20
95.59651015149988
 30
0.0
 10
53.08022268710002
 20
95.13048767809992
 30
0.0
 10
52.9386775113
 20
94.63808523439992
 30
0.0
 10
52.87096510000001
 20
94.13007047139997
 30
0.0
 10
52.87857777230001
 20
93.61757387469991
 30
0.0
 10
52.96134601120005
 20
93.11181833849998
 30
0.0
 10
53.11746158949998
 20
92.62388182389996
 30
0.0
 10
53.34350905460002
 20
92.16445370279995
 30
0.0
 10
53.63454123140002
 20
91.74360106269991
 30
0.0
 10
53.98418635920001
 20
91.37054894899987
 30
0.0
 10
54.38479050379999
 20
91.05347793729992
 30
0.0
 10
54.8275669912
 20
90.79934431169993
 30
0.0
 10
55.30285162609999
 20
90.61372548529993
 30
0.0
 10
55.80007734910001
 20
90.50069940299991
 30
0.0
 10
56.13929923909999
 20
90.47539335719987
 30
0.0
 10
56.30861943250001
 20
90.47539578039986
 30
0.0
  0
SPLINE
  5
94FDA
330
1F
100
AcDbEntity
  8
1
100
AcDbSpline
210
0.0
220
0.0
230
1.0
 70
     8
 71
     3
 72
    11
 73
     7
 74
     0
 42
0.000000001
 43
0.0000000001
 40
0.0
 40
0.0
 40
0.0
 40
0.0
 40
0.2503030328
 40
0.5003542121
 40
0.7502266835000003
 40
1.0
 40
1.0
 40
1.0
 40
1.0
 10
53.9182380883
 20
96.40036120999996
 30
0.0
 10
54.07601029949997
 20
96.55442472299988
 30
0.0
 10
54.42203132349999
 20
96.83270774179987
 30
0.0
 10
55.01060992019997
 20
97.14208478289986
 30
0.0
 10
55.64720400820004
 20
97.33254929419997
 30
0.0
 10
56.08856936289999
 20
97.37539181709999
 30
0.0
 10
56.30861943250001
 20
97.37539496639993
 30
0.0
  0
SPLINE
  5
94FDB
330
1F
100
AcDbEntity
  8
1
100
AcDbSpline
210
0.0
220
0.0
230
1.0
 70
     8
 71
     3
 72
    27
 73
    23
 74
     0
 42
0.000000001
 43
0.0000000001
 40
0.0
 40
0.0
 40
0.0
 40
0.0
 40
0.0625115484
 40
0.0938262492
 40
0.1251570044
 40
0.1877781273
 40
0.2504264634
 40
0.2817903352
 40
0.3131514762
 40
0.3757779790999999
 40
0.4383586604
 40
0.5008783091
 40
0.5633310303
 40
0.625721126
 40
0.68806239
 40
0.7192591874
 40
0.7504521451999999
 40
0.8127639968
 40
0.875099855
 40
0.9063216500999999
 40
0.9375553896999999
 40
1.0
 40
1.0
 40
1.0
 40
1.0
 10
54.72150092479999
 20
95.61196552879991
 30
0.0
 10
54.61183427059999
 20
95.50487677169996
 30
0.0
 10
54.46254214399999
 20
95.32728335689993
 30
0.0
 10
54.3014390237
 20
95.06567081669992
 30
0.0
 10
54.16644238519999
 20
94.78927084629992
 30
0.0
 10
54.04936346769996
 20
94.42083919229991
 30
0.0
 10
54.0061475695
 20
94.03658912229991
 30
0.0
 10
54.01671660330001
 20
93.72892303869992
 30
0.0
 10
54.0571647946
 20
93.42380645529992
 30
0.0
 10
54.1633521839
 20
93.05210630479988
 30
0.0
 10
54.374768413
 20
92.63997303879994
 30
0.0
 10
54.66210882359999
 20
92.27711018619991
 30
0.0
 10
55.01438493930002
 20
91.97758934029995
 30
0.0
 10
55.4179494697
 20
91.75291011469987
 30
0.0
 10
55.78455330460002
 20
91.63519008479992
 30
0.0
 10
56.08678171469996
 20
91.58558570189994
 30
0.0
 10
56.39235910230004
 20
91.56595149089993
 30
0.0
 10
56.77578239000002
 20
91.59816807229992
 30
0.0
 10
57.14545676150001
 20
91.7051038686999
 30
0.0
 10
57.42408660519996
 20
91.83266888579991
 30
0.0
 10
57.68901050879997
 20
91.98702999729992
 30
0.0
 10
57.86981148879998
 20
92.13185113269991
 30
0.0
 10
57.97936071070001
 20
92.23882521799991
 30
0.0
  0
SPLINE
  5
94FDC
330
1F
100
AcDbEntity
  8
1
100
AcDbSpline
210
0.0
220
0.0
230
1.0
 70
     8
 71
     3
 72
    15
 73
    11
 74
     0
 42
0.000000001
 43
0.0000000001
 40
0.0
 40
0.0
 40
0.0
 40
0.0
 40
0.125029774
 40
0.250133978
 40
0.3752823857
 40
0.500414915
 40
0.6254844937
 40
0.7504534489
 40
0.8752885904999999
 40
1.0
 40
1.0
 40
1.0
 40
1.0
 10
57.7930325383
 20
94.89028369319996
 30
0.0
 10
57.765896567
 20
94.84412084509987
 30
0.0
 10
57.7204977362
 20
94.74620504779993
 30
0.0
 10
57.68213881320003
 20
94.58912826039988
 30
0.0
 10
57.67477872489997
 20
94.42750080719987
 30
0.0
 10
57.69875015490001
 20
94.26751999199995
 30
0.0
 10
57.75312017990001
 20
94.11524377209998
 30
0.0
 10
57.83585838980002
 20
93.97645370779995
 30
0.0
 10
57.9437502746
 20
93.85645415249992
 30
0.0
 10
58.0299371438
 20
93.7918977526999
 30
0.0
 10
58.0756085598
 20
93.76420465929987
 30
0.0
  0
SPLINE
  5
94FDD
330
1F
100
AcDbEntity
  8
1
100
AcDbSpline
210
0.0
220
0.0
230
1.0
 70
     8
 71
     3
 72
     9
 73
     5
 74
     0
 42
0.000000001
 43
0.0000000001
 40
0.0
 40
0.0
 40
0.0
 40
0.0
 40
0.500524983
 40
1.0
 40
1.0
 40
1.0
 40
1.0
 10
56.05254024910003
 20
95.66405092829986
 30
0.0
 10
56.03209226219999
 20
95.70051935899988
 30
0.0
 10
55.97676043739999
 20
95.7661739483999
 30
0.0
 10
55.90072023750003
 20
95.80610106579992
 30
0.0
 10
55.86076730769995
 20
95.81812203769992
 30
0.0
  0
SPLINE
  5
94FDE
330
1F
100
AcDbEntity
  8
1
100
AcDbSpline
210
0.0
220
0.0
230
1.0
 70
     8
 71
     3
 72
    11
 73
     7
 74
     0
 42
0.000000001
 43
0.0000000001
 40
0.0
 40
0.0
 40
0.0
 40
0.0
 40
0.2496191079
 40
0.4994187431000002
 40
0.7495161836
 40
1.0
 40
1.0
 40
1.0
 40
1.0
 10
56.76713453140004
 20
95.24429726069994
 30
0.0
 10
56.69505003650002
 20
95.24429450239994
 30
0.0
 10
56.55010213779998
 20
95.26362947179988
 30
0.0
 10
56.34838483750002
 20
95.34867349179995
 30
0.0
 10
56.17571367620001
 20
95.48362685999988
 30
0.0
 10
56.08791678250003
 20
95.60095783899992
 30
0.0
 10
56.05254024910003
 20
95.66405092829986
 30
0.0
  0
SPLINE
  5
94FDF
330
1F
100
AcDbEntity
  8
1
100
AcDbSpline
210
0.0
220
0.0
230
1.0
 70
     8
 71
     3
 72
    15
 73
    11
 74
     0
 42
0.000000001
 43
0.0000000001
 40
0.0
 40
0.0
 40
0.0
 40
0.0
 40
0.1250895185
 40
0.2502771543
 40
0.3754809725
 40
0.5006437415999999
 40
0.6257007347
 40
0.7506142623000001
 40
0.8753740233
 40
1.0
 40
1.0
 40
1.0
 40
1.0
 10
57.60488130439999
 20
94.89028369319996
 30
0.0
 10
57.61748236030001
 20
94.91172020719988
 30
0.0
 10
57.6379024242
 20
94.95763698479992
 30
0.0
 10
57.65229852270002
 20
95.03149325749992
 30
0.0
 10
57.64982642279999
 20
95.10674922719989
 30
0.0
 10
57.63059535640002
 20
95.1795137180999
 30
0.0
 10
57.5955892173
 20
95.24607714289983
 30
0.0
 10
57.54658305770004
 20
95.3030335193999
 30
0.0
 10
57.48612728380003
 20
95.34745013849995
 30
0.0
 10
57.44011463269996
 20
95.36722272989992
 30
0.0
 10
57.41639099859998
 20
95.37435896759994
 30
0.0
  0
SPLINE
  5
94FE0
330
1F
100
AcDbEntity
  8
1
100
AcDbSpline
210
0.0
220
0.0
230
1.0
 70
     8
 71
     3
 72
    15
 73
    11
 74
     0
 42
0.000000001
 43
0.0000000001
 40
0.0
 40
0.0
 40
0.0
 40
0.0
 40
0.1247076818
 40
0.2495478047
 40
0.3745150706
 40
0.4995850819
 40
0.6247180474000002
 40
0.7498647612
 40
0.8749739633
 40
1.0
 40
1.0
 40
1.0
 40
1.0
 10
57.88745732590001
 20
93.76420465929987
 30
0.0
 10
57.8417872233
 20
93.79189695629992
 30
0.0
 10
57.75560093710002
 20
93.85645477449994
 30
0.0
 10
57.64770514359998
 20
93.97645100889995
 30
0.0
 10
57.56496825929996
 20
94.11524403089993
 30
0.0
 10
57.51059603179999
 20
94.26751926229988
 30
0.0
 10
57.4866270089
 20
94.42750024599995
 30
0.0
 10
57.49398453570001
 20
94.58912968459999
 30
0.0
 10
57.53234846429997
 20
94.74620539919992
 30
0.0
 10
57.57774611350001
 20
94.84412217259992
 30
0.0
 10
57.60488130439999
 20
94.89028369319996
 30
0.0
  0
SPLINE
  5
94FE1
330
1F
100
AcDbEntity
  8
1
100
AcDbSpline
210
0.0
220
0.0
230
1.0
 70
     8
 71
     3
 72
    15
 73
    11
 74
     0
 42
0.000000001
 43
0.0000000001
 40
0.0
 40
0.0
 40
0.0
 40
0.0
 40
0.1251730447
 40
0.2504209132
 40
0.3756831277
 40
0.5008556916
 40
0.6258752284
 40
0.7507163136
 40
0.875401657
 40
1.0
 40
1.0
 40
1.0
 40
1.0
 10
57.7930325383
 20
94.89028369319996
 30
0.0
 10
57.80764379460001
 20
94.91513989599994
 30
0.0
 10
57.83043699750002
 20
94.96897991259992
 30
0.0
 10
57.84248129120001
 20
95.0556303505999
 30
0.0
 10
57.83174005160001
 20
95.14250691499986
 30
0.0
 10
57.79889299739998
 20
95.22358210799991
 30
0.0
 10
57.74620952000001
 20
95.29329797409992
 30
0.0
 10
57.67727576480004
 20
95.34684491719991
 30
0.0
 10
57.59691131800003
 20
95.38053376989994
 30
0.0
 10
57.53920320449998
 20
95.3881935079999
 30
0.0
 10
57.51050296859998
 20
95.38819581959996
 30
0.0
  0
SPLINE
  5
94FE2
330
1F
100
AcDbEntity
  8
1
100
AcDbSpline
210
0.0
220
0.0
230
1.0
 70
     8
 71
     3
 72
    15
 73
    11
 74
     0
 42
0.000000001
 43
0.0000000001
 40
0.0
 40
0.0
 40
0.0
 40
0.0
 40
0.1253366167
 40
0.250619547
 40
0.3758056631
 40
0.5008687909000003
 40
0.625799341
 40
0.7506089182000001
 40
0.8753223979999999
 40
1.0
 40
1.0
 40
1.0
 40
1.0
 10
56.88603791910001
 20
92.34252263299991
 30
0.0
 10
56.88704650719998
 20
92.3957572353999
 30
0.0
 10
56.8993817043
 20
92.50229322849992
 30
0.0
 10
56.94813208020001
 20
92.65530939249988
 30
0.0
 10
57.02531237849999
 20
92.79607784509988
 30
0.0
 10
57.1280338189
 20
92.91924224619991
 30
0.0
 10
57.25244564940002
 20
93.02020127379995
 30
0.0
 10
57.39390552069999
 20
93.09515311729988
 30
0.0
 10
57.54703260570003
 20
93.14129043009987
 30
0.0
 10
57.6532660091
 20
93.15166805909989
 30
0.0
 10
57.70623020940004
 20
93.15167103589992
 30
0.0
  0
SPLINE
  5
94FE3
330
1F
100
AcDbEntity
  8
1
100
AcDbSpline
210
0.0
220
0.0
230
1.0
 70
     8
 71
     3
 72
    11
 73
     7
 74
     0
 42
0.000000001
 43
0.0000000001
 40
0.0
 40
0.0
 40
0.0
 40
0.0
 40
0.2504796861
 40
0.5005840284000001
 40
0.750382722
 40
1.0
 40
1.0
 40
1.0
 40
1.0
 10
56.24069148300002
 20
95.66405092829986
 30
0.0
 10
56.2760674612
 20
95.60095882929987
 30
0.0
 10
56.36386613710001
 20
95.48362909889991
 30
0.0
 10
56.53653299050002
 20
95.3486670534999
 30
0.0
 10
56.73825662120001
 20
95.26363593889993
 30
0.0
 10
56.8832017462
 20
95.24429028739993
 30
0.0
 10
56.9552857699
 20
95.24429351219986
 30
0.0
  0
SPLINE
  5
94FE4
330
1F
100
AcDbEntity
  8
1
100
AcDbSpline
210
0.0
220
0.0
230
1.0
 70
     8
 71
     3
 72
     9
 73
     5
 74
     0
 42
0.000000001
 43
0.0000000001
 40
0.0
 40
0.0
 40
0.0
 40
0.0
 40
0.5001949112
 40
1.0
 40
1.0
 40
1.0
 40
1.0
 10
55.16086017710001
 20
92.50371334709994
 30
0.0
 10
55.22105924689999
 20
92.53713995259987
 30
0.0
 10
55.35039949659999
 20
92.5889412301999
 30
0.0
 10
55.48862144820001
 20
92.60649085329992
 30
0.0
 10
55.5574246364
 20
92.60649348609995
 30
0.0
  0
SPLINE
  5
94FE5
330
1F
100
AcDbEntity
  8
1
100
AcDbSpline
210
0.0
220
0.0
230
1.0
 70
     8
 71
     3
 72
    15
 73
    11
 74
     0
 42
0.000000001
 43
0.0000000001
 40
0.0
 40
0.0
 40
0.0
 40
0.0
 40
0.1246276694
 40
0.249368813
 40
0.3743268309
 40
0.4994882895
 40
0.6247627234000001
 40
0.7500136107
 40
0.8751082364
 40
1.0
 40
1.0
 40
1.0
 40
1.0
 10
57.9061286086
 20
93.15161100169994
 30
0.0
 10
57.9415208796
 20
93.15161351079991
 30
0.0
 10
58.01287557719999
 20
93.16333873999992
 30
0.0
 10
58.1082622364
 20
93.21424803349993
 30
0.0
 10
58.1825740364
 20
93.29311052189995
 30
0.0
 10
58.22793485579999
 20
93.39165211719988
 30
0.0
 10
58.23966291390002
 20
93.49957455429994
 30
0.0
 10
58.2165192196
 20
93.60563781829986
 30
0.0
 10
58.16101442509999
 20
93.69870438489995
 30
0.0
 10
58.1059361332
 20
93.74581538229994
 30
0.0
 10
58.0756085598
 20
93.76420465929987
 30
0.0
  0
SPLINE
  5
94FE6
330
1F
100
AcDbEntity
  8
1
100
AcDbSpline
210
0.0
220
0.0
230
1.0
 70
     8
 71
     3
 72
    15
 73
    11
 74
     0
 42
0.000000001
 43
0.0000000001
 40
0.0
 40
0.0
 40
0.0
 40
0.0
 40
0.1246347185
 40
0.2493732165
 40
0.3743324361
 40
0.4994941099
 40
0.6247675846
 40
0.7500175849
 40
0.8751070794
 40
1.0
 40
1.0
 40
1.0
 40
1.0
 10
57.7193821666
 20
93.15161419079991
 30
0.0
 10
57.75471845370001
 20
93.15177033229991
 30
0.0
 10
57.82590629960001
 20
93.16376050339993
 30
0.0
 10
57.9209518594
 20
93.21492262559996
 30
0.0
 10
57.9949117029
 20
93.29386507229989
 30
0.0
 10
58.0399501632
 20
93.39235301269992
 30
0.0
 10
58.05146827329998
 20
93.50011347699995
 30
0.0
 10
58.02821261719998
 20
93.60596343529993
 30
0.0
 10
57.97273394039999
 20
93.6988301875999
 30
0.0
 10
57.9177357902
 20
93.74584515989992
 30
0.0
 10
57.88745732590001
 20
93.76420465929987
 30
0.0
  0
SPLINE
  5
94FE7
330
1F
100
AcDbEntity
  8
1
100
AcDbSpline
210
0.0
220
0.0
230
1.0
 70
     8
 71
     3
 72
    15
 73
    11
 74
     0
 42
0.000000001
 43
0.0000000001
 40
0.0
 40
0.0
 40
0.0
 40
0.0
 40
0.1246783274
 40
0.2493886399
 40
0.3741996724
 40
0.4991301934
 40
0.6241930359000003
 40
0.7493813355
 40
0.8746591609999999
 40
1.0
 40
1.0
 40
1.0
 40
1.0
 10
57.89438143369999
 20
93.15167109059997
 30
0.0
 10
57.84141698830001
 20
93.15166878579992
 30
0.0
 10
57.73518448789999
 20
93.14129104129994
 30
0.0
 10
57.5820591053
 20
93.09515110109986
 30
0.0
 10
57.4405989814
 20
93.02020166199993
 30
0.0
 10
57.31618803539999
 20
92.91924115819993
 30
0.0
 10
57.21346404520002
 20
92.79607799489992
 30
0.0
 10
57.13628695549999
 20
92.65530965309997
 30
0.0
 10
57.08753136070001
 20
92.50229492899988
 30
0.0
 10
57.0751977739
 20
92.39575896539992
 30
0.0
 10
57.07418915300002
 20
92.34252263299991
 30
0.0
  0
SPLINE
  5
94FE8
330
1F
100
AcDbEntity
  8
1
100
AcDbSpline
210
0.0
220
0.0
230
1.0
 70
     8
 71
     3
 72
    11
 73
     7
 74
     0
 42
0.000000001
 43
0.0000000001
 40
0.0
 40
0.0
 40
0.0
 40
0.0
 40
0.2504867005
 40
0.5005800641000003
 40
0.7503833814
 40
1.0
 40
1.0
 40
1.0
 40
1.0
 10
56.24069148300002
 20
95.66405092829986
 30
0.0
 10
56.22653832090003
 20
95.68929270959994
 30
0.0
 10
56.19141452050001
 20
95.7362338141999
 30
0.0
 10
56.12233203080001
 20
95.79022146259987
 30
0.0
 10
56.04163227860002
 20
95.82424618799988
 30
0.0
 10
55.98364353989999
 20
95.83197990559993
 30
0.0
 10
55.9548051682
 20
95.83198214399986
 30
0.0
  0
SPLINE
  5
94FE9
330
1F
100
AcDbEntity
  8
1
100
AcDbSpline
210
0.0
220
0.0
230
1.0
 70
     8
 71
     3
 72
    11
 73
     7
 74
     0
 42
0.000000001
 43
0.0000000001
 40
0.0
 40
0.0
 40
0.0
 40
0.0
 40
0.2493725519
 40
0.4991083562
 40
0.749360566
 40
1.0
 40
1.0
 40
1.0
 40
1.0
 10
56.74605646739999
 20
92.01880860279993
 30
0.0
 10
56.78823868359998
 20
92.0188053286999
 30
0.0
 10
56.8735731776
 20
92.0355967865999
 30
0.0
 10
56.98180617989999
 20
92.10739999949993
 30
0.0
 10
57.0551379764
 20
92.21483733679994
 30
0.0
 10
57.07338604850001
 20
92.30013372649988
 30
0.0
 10
57.07418915300002
 20
92.34252263299991
 30
0.0
  0
SPLINE
  5
94FEA
330
1F
100
AcDbEntity
  8
1
100
AcDbSpline
210
0.0
220
0.0
230
1.0
 70
     8
 71
     3
 72
    11
 73
     7
 74
     0
 42
0.000000001
 43
0.0000000001
 40
0.0
 40
0.0
 40
0.0
 40
0.0
 40
0.2494301286
 40
0.4992617426
 40
0.7494793718000004
 40
1.0
 40
1.0
 40
1.0
 40
1.0
 10
56.65226030719996
 20
92.03274253479992
 30
0.0
 10
56.6851526414
 20
92.04266713239995
 30
0.0
 10
56.74826993699999
 20
92.07323241429985
 30
0.0
 10
56.823739546
 20
92.14608779849994
 30
0.0
 10
56.87314372479999
 20
92.23878420459991
 30
0.0
 10
56.8853842594
 20
92.30802161949993
 30
0.0
 10
56.88603791910001
 20
92.34252263299991
 30
0.0
  0
SPLINE
  5
94FEB
330
1F
100
AcDbEntity
  8
1
100
AcDbSpline
210
0.0
220
0.0
230
1.0
 70
     8
 71
     3
 72
     9
 73
     5
 74
     0
 42
0.000000001
 43
0.0000000001
 40
0.0
 40
0.0
 40
0.0
 40
0.0
 40
0.4998148654
 40
1.0
 40
1.0
 40
1.0
 40
1.0
 10
55.7455758656
 20
92.60649723459991
 30
0.0
 10
55.6767712765
 20
92.60649415649986
 30
0.0
 10
55.5385500829
 20
92.58893825989991
 30
0.0
 10
55.40920935230002
 20
92.53713932599993
 30
0.0
 10
55.34901141099999
 20
92.50371334709994
 30
0.0
  0
SPLINE
  5
94FEC
330
1F
100
AcDbEntity
  8
1
100
AcDbSpline
210
0.0
220
0.0
230
1.0
 70
     8
 71
     3
 72
    27
 73
    23
 74
     0
 42
0.000000001
 43
0.0000000001
 40
0.0
 40
0.0
 40
0.0
 40
0.0
 40
0.0624446103
 40
0.0936783499
 40
0.124900145
 40
0.1872360032
 40
0.2495478548
 40
0.2807408126
 40
0.31193761
 40
0.374278874
 40
0.4366689697
 40
0.4991216909000002
 40
0.5616413396
 40
0.6242220209
 40
0.6868485238
 40
0.7182096648
 40
0.7495735365999999
 40
0.8122218726999999
 40
0.8748429956
 40
0.9061737508
 40
0.9374884515999999
 40
1.0
 40
1.0
 40
1.0
 40
1.0
 10
54.72150092479999
 20
95.61196552879991
 30
0.0
 10
54.83105014679996
 20
95.71893961409996
 30
0.0
 10
55.0118511267
 20
95.86376074949994
 30
0.0
 10
55.27677503029998
 20
96.01812186089993
 30
0.0
 10
55.55540487410005
 20
96.14568687809992
 30
0.0
 10
55.92507924560003
 20
96.25262267449993
 30
0.0
 10
56.30850253329999
 20
96.28483925589994
 30
0.0
 10
56.61407992090001
 20
96.26520504489995
 30
0.0
 10
56.916308331
 20
96.21560066199993
 30
0.0
 10
57.28291216590003
 20
96.09788063199992
 30
0.0
 10
57.68647669629999
 20
95.87320140649991
 30
0.0
 10
58.03875281199998
 20
95.57368056059992
 30
0.0
 10
58.32609322259997
 20
95.21081770799993
 30
0.0
 10
58.53750945160001
 20
94.79868444199992
 30
0.0
 10
58.64369684090002
 20
94.42698429149986
 30
0.0
 10
58.68414503230004
 20
94.12186770809991
 30
0.0
 10
58.69471406609997
 20
93.81420162449995
 30
0.0
 10
58.6514981679
 20
93.42995155449994
 30
0.0
 10
58.53441925039999
 20
93.06151990049995
 30
0.0
 10
58.3994226119
 20
92.78511993009992
 30
0.0
 10
58.23831949160001
 20
92.52350738979991
 30
0.0
 10
58.08902736490001
 20
92.34591397509994
 30
0.0
 10
57.97936071070001
 20
92.23882521799991
 30
0.0
  0
SPLINE
  5
94FED
330
1F
100
AcDbEntity
  8
1
100
AcDbSpline
210
0.0
220
0.0
230
1.0
 70
     8
 71
     3
 72
     9
 73
     5
 74
     0
 42
0.000000001
 43
0.0000000001
 40
0.0
 40
0.0
 40
0.0
 40
0.0
 40
0.4998027441
 40
1.0
 40
1.0
 40
1.0
 40
1.0
 10
55.190358667
 20
92.46259492719991
 30
0.0
 10
55.21788449060004
 20
92.46259271029993
 30
0.0
 10
55.27318289800001
 20
92.46961710459991
 30
0.0
 10
55.3249275775
 20
92.49034036969986
 30
0.0
 10
55.34901141099999
 20
92.50371334709994
 30
0.0
  0
SPLINE
  5
94FEE
330
1F
100
AcDbEntity
  8
1
100
AcDbSpline
210
0.0
220
0.0
230
1.0
 70
     8
 71
     3
 72
     8
 73
     4
 74
     0
 42
0.000000001
 43
0.0000000001
 40
0.0
 40
0.0
 40
0.0
 40
0.0
 40
1.0
 40
1.0
 40
1.0
 40
1.0
 10
55.09602124979999
 20
92.47636363279999
 30
0.0
 10
55.11848782730002
 20
92.48310792599992
 30
0.0
 10
55.14035253259999
 20
92.4923261122999
 30
0.0
 10
55.16086017710001
 20
92.50371334709994
 30
0.0
  0
SPLINE
  5
94FEF
330
1F
100
AcDbEntity
  8
1
100
AcDbSpline
210
0.0
220
0.0
230
1.0
 70
     8
 71
     3
 72
     9
 73
     5
 74
     0
 42
0.000000001
 43
0.0000000001
 40
0.0
 40
0.0
 40
0.0
 40
0.0
 40
0.2522517287999999
 40
1.0
 40
1.0
 40
1.0
 40
1.0
 10
63.50000000000003
 20
99.99473946719993
 30
0.0
 10
63.50039215750001
 20
99.88706428459996
 30
0.0
 10
63.50112886609998
 20
99.46020568539992
 30
0.0
 10
63.4985611903
 20
99.03334089139995
 30
0.0
 10
63.49472022189999
 20
98.71418099449996
 30
0.0
  0
SPLINE
  5
94FF0
330
1F
100
AcDbEntity
  8
1
100
AcDbSpline
210
0.0
220
0.0
230
1.0
 70
     8
 71
     3
 72
    15
 73
    11
 74
     0
 42
0.000000001
 43
0.0000000001
 40
0.0
 40
0.0
 40
0.0
 40
0.0
 40
0.125890921
 40
0.2515352553
 40
0.3767775015
 40
0.5015508039
 40
0.6260192656
 40
0.7504119611000001
 40
0.8749891367
 40
1.0
 40
1.0
 40
1.0
 40
1.0
 10
63.50000000000003
 20
99.99473946719993
 30
0.0
 10
63.4998170089
 20
100.0449835421999
 30
0.0
 10
63.48999298239997
 20
100.1456006007999
 30
0.0
 10
63.44723457179997
 20
100.2906610690999
 30
0.0
 10
63.3782781774
 20
100.4248037837999
 30
0.0
 10
63.2856439668
 20
100.5432362199998
 30
0.0
 10
63.17251008280003
 20
100.6417740919999
 30
0.0
 10
63.04272667379999
 20
100.7169270868999
 30
0.0
 10
62.90081292789998
 20
100.7659496356999
 30
0.0
 10
62.8014519745
 20
100.7799343092
 30
0.0
 10
62.75160750059999
 20
100.7821380824999
 30
0.0
  0
SPLINE
  5
94FF1
330
1F
100
AcDbEntity
  8
1
100
AcDbSpline
210
0.0
220
0.0
230
1.0
 70
     8
 71
     3
 72
     9
 73
     5
 74
     0
 42
0.000000001
 43
0.0000000001
 40
0.0
 40
0.0
 40
0.0
 40
0.0
 40
0.2501273643
 40
1.0
 40
1.0
 40
1.0
 40
1.0
 10
61.46861449609996
 20
100.8381294572999
 30
0.0
 10
61.57558767850001
 20
100.8335217066999
 30
0.0
 10
62.00325989539999
 20
100.8150390675999
 30
0.0
 10
62.43092174810001
 20
100.7963165588999
 30
0.0
 10
62.75160750059999
 20
100.7821380824999
 30
0.0
  0
SPLINE
  5
94FF2
330
1F
100
AcDbEntity
  8
1
100
AcDbSpline
210
0.0
220
0.0
230
1.0
 70
     8
 71
     3
 72
     9
 73
     5
 74
     0
 42
0.000000001
 43
0.0000000001
 40
0.0
 40
0.0
 40
0.0
 40
0.0
 40
0.2480572319
 40
1.0
 40
1.0
 40
1.0
 40
1.0
 10
54.96418046899997
 20
100.9504866459999
 30
0.0
 10
55.4976070086
 20
100.9413752962999
 30
0.0
 10
57.6480249144
 20
100.9046853991999
 30
0.0
 10
59.79843702060001
 20
100.8676562647999
 30
0.0
 10
61.41542248090002
 20
100.8397336547999
 30
0.0
  0
SPLINE
  5
94FF3
330
1F
100
AcDbEntity
  8
1
100
AcDbSpline
210
0.0
220
0.0
230
1.0
 70
     8
 71
     3
 72
    11
 73
     7
 74
     0
 42
0.000000001
 43
0.0000000001
 40
0.0
 40
0.0
 40
0.0
 40
0.0
 40
0.1243900655
 40
0.2489571261
 40
0.4986651820000001
 40
1.0
 40
1.0
 40
1.0
 40
1.0
 10
53.64508845119999
 20
100.7584584223999
 30
0.0
 10
53.55850226899999
 20
100.7113512631999
 30
0.0
 10
53.38507244020004
 20
100.6173169337999
 30
0.0
 10
53.0379065284
 20
100.4285655531999
 30
0.0
 10
52.4284377736
 20
100.0969104239999
 30
0.0
 10
51.90597976559999
 20
99.81187597039991
 30
0.0
 10
51.55734020210002
 20
99.62140785479995
 30
0.0
  0
LINE
  5
94FF4
330
1F
100
AcDbEntity
  8
1
100
AcDbLine
 10
48.42606695789999
 20
97.90403218209995
 30
0.0
 11
47.99718703429999
 21
97.66786334219988
 31
0.0
  0
SPLINE
  5
94FF5
330
1F
100
AcDbEntity
  8
1
100
AcDbSpline
210
0.0
220
0.0
230
1.0
 70
     8
 71
     3
 72
     9
 73
     5
 74
     0
 42
0.000000001
 43
0.0000000001
 40
0.0
 40
0.0
 40
0.0
 40
0.0
 40
0.249789223
 40
1.0
 40
1.0
 40
1.0
 40
1.0
 10
47.95098212960001
 20
97.64162217929985
 30
0.0
 10
47.85867744279999
 20
97.58758752369992
 30
0.0
 10
47.48951023039999
 20
97.37064692119991
 30
0.0
 10
47.1217726524
 20
97.1512730925999
 30
0.0
 10
46.84673308869998
 20
96.98530882289992
 30
0.0
  0
SPLINE
  5
94FF6
330
1F
100
AcDbEntity
  8
1
100
AcDbSpline
210
0.0
220
0.0
230
1.0
 70
     8
 71
     3
 72
     9
 73
     5
 74
     0
 42
0.000000001
 43
0.0000000001
 40
0.0
 40
0.0
 40
0.0
 40
0.0
 40
0.5004168083
 40
1.0
 40
1.0
 40
1.0
 40
1.0
 10
46.84673308869998
 20
96.98530882289992
 30
0.0
 10
46.80693558509999
 20
96.9612942282999
 30
0.0
 10
46.73154493250001
 20
96.90608232699993
 30
0.0
 10
46.66720468320002
 20
96.83832042099993
 30
0.0
 10
46.63836386239998
 20
96.80196719769993
 30
0.0
  0
SPLINE
  5
94FF7
330
1F
100
AcDbEntity
  8
1
100
AcDbSpline
210
0.0
220
0.0
230
1.0
 70
     8
 71
     3
 72
     9
 73
     5
 74
     0
 42
0.000000001
 43
0.0000000001
 40
0.0
 40
0.0
 40
0.0
 40
0.0
 40
0.2514743888
 40
1.0
 40
1.0
 40
1.0
 40
1.0
 10
46.6061900557
 20
95.84398397149987
 30
0.0
 10
46.65189162469999
 20
95.75791446359987
 30
0.0
 10
46.83414700519996
 20
95.41593179099995
 30
0.0
 10
47.0185016156
 20
95.07506768859993
 30
0.0
 10
47.157691674
 20
94.82057915579991
 30
0.0
  0
SPLINE
  5
94FF8
330
1F
100
AcDbEntity
  8
1
100
AcDbSpline
210
0.0
220
0.0
230
1.0
 70
     8
 71
     3
 72
    15
 73
    11
 74
     0
 42
0.000000001
 43
0.0000000001
 40
0.0
 40
0.0
 40
0.0
 40
0.0
 40
0.0307050269
 40
0.0614304681
 40
0.1230238573
 40
0.2467201697
 40
0.3710222368
 40
0.4958779152
 40
0.7470756165000001
 40
1.0
 40
1.0
 40
1.0
 40
1.0
 10
63.05525245710001
 20
91.59741797249987
 30
0.0
 10
63.03053803949999
 20
91.55319825049991
 30
0.0
 10
62.98132866939999
 20
91.46459780349992
 30
0.0
 10
62.88250577840003
 20
91.28731456149989
 30
0.0
 10
62.70888117990001
 20
90.97608404109987
 30
0.0
 10
62.459487241
 20
90.53034059699994
 30
0.0
 10
62.15842999810003
 20
89.99390690859989
 30
0.0
 10
61.7534931085
 20
89.27455675349994
 30
0.0
 10
61.24281965230006
 20
88.37121496879992
 30
0.0
 10
60.83196103319999
 20
87.6480740821
 30
0.0
 10
60.62546693539999
 20
87.28547103439989
 30
0.0
  0
SPLINE
  5
94FF9
330
1F
100
AcDbEntity
  8
1
100
AcDbSpline
210
0.0
220
0.0
230
1.0
 70
     8
 71
     3
 72
    10
 73
     6
 74
     0
 42
0.000000001
 43
0.0000000001
 40
0.0
 40
0.0
 40
0.0
 40
0.0
 40
0.2504746653
 40
0.5017591616
 40
1.0
 40
1.0
 40
1.0
 40
1.0
 10
54.38545982000002
 20
100.9507175103999
 30
0.0
 10
54.32102872519999
 20
100.9507166525999
 30
0.0
 10
54.19176783510002
 20
100.9422693862999
 30
0.0
 10
53.938947796
 20
100.8923147778999
 30
0.0
 10
53.7576707849
 20
100.8197087717998
 30
0.0
 10
53.64508845119999
 20
100.7584584223999
 30
0.0
  0
SPLINE
  5
94FFA
330
1F
100
AcDbEntity
  8
1
100
AcDbSpline
210
0.0
220
0.0
230
1.0
 70
     8
 71
     3
 72
    19
 73
    15
 74
     0
 42
0.000000001
 43
0.0000000001
 40
0.0
 40
0.0
 40
0.0
 40
0.0
 40
0.1285555425
 40
0.1922104285
 40
0.2551534063
 40
0.286288712
 40
0.3171883221
 40
0.3788992756
 40
0.4406888937
 40
0.5025526606000002
 40
0.6264980083000001
 40
0.7507264154000001
 40
0.8752297696999999
 40
1.0
 40
1.0
 40
1.0
 40
1.0
 10
63.25865259979999
 20
92.35252039819995
 30
0.0
 10
63.2621399369
 20
92.62305846319994
 30
0.0
 10
63.2698500544
 20
93.02752879569991
 30
0.0
 10
63.2851590697
 20
93.56431389319991
 30
0.0
 10
63.29676819929996
 20
93.89608185279993
 30
0.0
 10
63.30724321919999
 20
94.15890466859993
 30
0.0
 10
63.31859999969998
 20
94.41909519619992
 30
0.0
 10
63.33278084379998
 20
94.74373919189993
 30
0.0
 10
63.34955781789997
 20
95.13349980279995
 30
0.0
 10
63.3717489208
 20
95.65412827829993
 30
0.0
 10
63.39907577179996
 20
96.3060670283999
 30
0.0
 10
63.43120874940004
 20
97.08975226999987
 30
0.0
 10
63.462692664
 20
97.87520131599995
 30
0.0
 10
63.48323182760001
 20
98.39942531579993
 30
0.0
 10
63.49338999370004
 20
98.66182266109994
 30
0.0
  0
SPLINE
  5
94FFB
330
1F
100
AcDbEntity
  8
1
100
AcDbSpline
210
0.0
220
0.0
230
1.0
 70
     8
 71
     3
 72
     8
 73
     4
 74
     0
 42
0.000000001
 43
0.0000000001
 40
0.0
 40
0.0
 40
0.0
 40
0.0
 40
1.0
 40
1.0
 40
1.0
 40
1.0
 10
63.49472022189999
 20
98.71418099449996
 30
0.0
 10
63.49451013179995
 20
98.69672384899992
 30
0.0
 10
63.49406535369999
 20
98.67926800299994
 30
0.0
 10
63.49338999370004
 20
98.66182266109994
 30
0.0
  0
SPLINE
  5
94FFC
330
1F
100
AcDbEntity
  8
1
100
AcDbSpline
210
0.0
220
0.0
230
1.0
 70
     8
 71
     3
 72
     8
 73
     4
 74
     0
 42
0.000000001
 43
0.0000000001
 40
0.0
 40
0.0
 40
0.0
 40
0.0
 40
1.0
 40
1.0
 40
1.0
 40
1.0
 10
61.46861449609996
 20
100.8381294572999
 30
0.0
 10
61.4508921958
 20
100.8388928256999
 30
0.0
 10
61.43315857000001
 20
100.8394273824998
 30
0.0
 10
61.41542248090002
 20
100.8397336547999
 30
0.0
  0
SPLINE
  5
94FFD
330
1F
100
AcDbEntity
  8
1
100
AcDbSpline
210
0.0
220
0.0
230
1.0
 70
     8
 71
     3
 72
     8
 73
     4
 74
     0
 42
0.000000001
 43
0.0000000001
 40
0.0
 40
0.0
 40
0.0
 40
0.0
 40
1.0
 40
1.0
 40
1.0
 40
1.0
 10
47.99718703429999
 20
97.66786334219988
 30
0.0
 10
47.9816730913
 20
97.65931706299994
 30
0.0
 10
47.96626780629997
 20
97.65057033029997
 30
0.0
 10
47.95098212960001
 20
97.64162217929985
 30
0.0
  0
SPLINE
  5
94FFE
330
1F
100
AcDbEntity
  8
1
100
AcDbSpline
210
0.0
220
0.0
230
1.0
 70
     8
 71
     3
 72
    10
 73
     6
 74
     0
 42
0.000000001
 43
0.0000000001
 40
0.0
 40
0.0
 40
0.0
 40
0.0
 40
0.4914578988000002
 40
0.7454341549
 40
1.0
 40
1.0
 40
1.0
 40
1.0
 10
63.05525245710001
 20
91.59741797249987
 30
0.0
 10
63.11829339340002
 20
91.7102125651999
 30
0.0
 10
63.1928155141
 20
91.89415896979992
 30
0.0
 10
63.2473516683
 20
92.15179496199992
 30
0.0
 10
63.25778990009999
 20
92.28559451729989
 30
0.0
 10
63.25865259979999
 20
92.35252039819995
 30
0.0
  0
SPLINE
  5
94FFF
330
1F
100
AcDbEntity
  8
1
100
AcDbSpline
210
0.0
220
0.0
230
1.0
 70
     8
 71
     3
 72
    15
 73
    11
 74
     0
 42
0.000000001
 43
0.0000000001
 40
0.0
 40
0.0
 40
0.0
 40
0.0
 40
0.1306948467
 40
0.2579307041
 40
0.3197212332
 40
0.3810696641
 40
0.5040793164
 40
0.6274859738
 40
0.7512804028
 40
1.0
 40
1.0
 40
1.0
 40
1.0
 10
54.19765013340003
 20
100.7584584223999
 30
0.0
 10
53.96469413090002
 20
100.626669996
 30
0.0
 10
53.50575353730002
 20
100.3651546330999
 30
0.0
 10
52.93885161169999
 20
100.0375300803
 30
0.0
 10
52.49641356929998
 20
99.77838764999987
 30
0.0
 10
52.06164596820002
 20
99.52327569369991
 30
0.0
 10
51.51783401279999
 20
99.20466662769992
 30
0.0
 10
50.86353803609998
 20
98.82165676219988
 30
0.0
 10
49.98680701769997
 20
98.30903551679988
 30
0.0
 10
49.3279745463
 20
97.92443919409992
 30
0.0
 10
48.88796339009999
 20
97.66786334219988
 30
0.0
  0
SPLINE
  5
95000
330
1F
100
AcDbEntity
  8
1
100
AcDbSpline
210
0.0
220
0.0
230
1.0
 70
     8
 71
     3
 72
     9
 73
     5
 74
     0
 42
0.000000001
 43
0.0000000001
 40
0.0
 40
0.0
 40
0.0
 40
0.0
 40
0.253536105
 40
1.0
 40
1.0
 40
1.0
 40
1.0
 10
47.77428374090002
 20
96.98530882289992
 30
0.0
 10
47.86494099649999
 20
97.04040279829992
 30
0.0
 10
48.2222934808
 20
97.25806501669994
 30
0.0
 10
48.5787569117
 20
97.47718734539992
 30
0.0
 10
48.8443051612
 20
97.64162217929985
 30
0.0
  0
SPLINE
  5
95001
330
1F
100
AcDbEntity
  8
1
100
AcDbSpline
210
0.0
220
0.0
230
1.0
 70
     8
 71
     3
 72
    15
 73
    11
 74
     0
 42
0.000000001
 43
0.0000000001
 40
0.0
 40
0.0
 40
0.0
 40
0.0
 40
0.1239267163
 40
0.2482215274
 40
0.3727499435
 40
0.4974988062
 40
0.6225906283000004
 40
0.7480780866
 40
0.8739266179999999
 40
1.0
 40
1.0
 40
1.0
 40
1.0
 10
47.77428374090002
 20
96.98530882289992
 30
0.0
 10
47.73181830820003
 20
96.95950184819999
 30
0.0
 10
47.65151829309999
 20
96.89949232119992
 30
0.0
 10
47.55029667590003
 20
96.78835189949992
 30
0.0
 10
47.47172007009999
 20
96.65974235079985
 30
0.0
 10
47.41875205289999
 20
96.51832527879992
 30
0.0
 10
47.39313656100001
 20
96.36912487619992
 30
0.0
 10
47.3957444871
 20
96.21731787139999
 30
0.0
 10
47.4264610372
 20
96.06828507719988
 30
0.0
 10
47.4650266108
 20
95.97417717549992
 30
0.0
 10
47.4884522885
 20
95.92937942299995
 30
0.0
  0
SPLINE
  5
95002
330
1F
100
AcDbEntity
  8
1
100
AcDbSpline
210
0.0
220
0.0
230
1.0
 70
     8
 71
     3
 72
     9
 73
     5
 74
     0
 42
0.000000001
 43
0.0000000001
 40
0.0
 40
0.0
 40
0.0
 40
0.0
 40
0.2465898378
 40
1.0
 40
1.0
 40
1.0
 40
1.0
 10
48.0659230224
 20
94.79333214869992
 30
0.0
 10
48.019570028
 20
94.88727041959991
 30
0.0
 10
47.83042570640001
 20
95.26764254949993
 30
0.0
 10
47.6367602971
 20
95.64576476929987
 30
0.0
 10
47.4884522885
 20
95.92937942299995
 30
0.0
  0
SPLINE
  5
95003
330
1F
100
AcDbEntity
  8
1
100
AcDbSpline
210
0.0
220
0.0
230
1.0
 70
     8
 71
     3
 72
     9
 73
     5
 74
     0
 42
0.000000001
 43
0.0000000001
 40
0.0
 40
0.0
 40
0.0
 40
0.0
 40
0.2475645443
 40
1.0
 40
1.0
 40
1.0
 40
1.0
 10
50.22916346050002
 20
90.6407859293999
 30
0.0
 10
50.05406611169997
 20
90.9804205857999
 30
0.0
 10
49.3450848608
 20
92.35144673339993
 30
0.0
 10
48.62997185489998
 20
93.71929688779992
 30
0.0
 10
48.08942000880003
 20
94.7472076486999
 30
0.0
  0
SPLINE
  5
95004
330
1F
100
AcDbEntity
  8
1
100
AcDbSpline
210
0.0
220
0.0
230
1.0
 70
     8
 71
     3
 72
     9
 73
     5
 74
     0
 42
0.000000001
 43
0.0000000001
 40
0.0
 40
0.0
 40
0.0
 40
0.0
 40
0.4992790032000002
 40
1.0
 40
1.0
 40
1.0
 40
1.0
 10
54.93713747680001
 20
100.9507175808999
 30
0.0
 10
54.8089025151
 20
100.9507165467999
 30
0.0
 10
54.5508754144
 20
100.9193065984999
 30
0.0
 10
54.30958492670001
 20
100.8217824410999
 30
0.0
 10
54.19765013340003
 20
100.7584584223999
 30
0.0
  0
SPLINE
  5
95005
330
1F
100
AcDbEntity
  8
1
100
AcDbSpline
210
0.0
220
0.0
230
1.0
 70
     8
 71
     3
 72
     8
 73
     4
 74
     0
 42
0.000000001
 43
0.0000000001
 40
0.0
 40
0.0
 40
0.0
 40
0.0
 40
1.0
 40
1.0
 40
1.0
 40
1.0
 10
48.0659230224
 20
94.79333214869992
 30
0.0
 10
48.07355833929996
 20
94.77785853209995
 30
0.0
 10
48.08138889050002
 20
94.76247958419993
 30
0.0
 10
48.08942000880003
 20
94.7472076486999
 30
0.0
  0
SPLINE
  5
95006
330
1F
100
AcDbEntity
  8
1
100
AcDbSpline
210
0.0
220
0.0
230
1.0
 70
     8
 71
     3
 72
     8
 73
     4
 74
     0
 42
0.000000001
 43
0.0000000001
 40
0.0
 40
0.0
 40
0.0
 40
0.0
 40
1.0
 40
1.0
 40
1.0
 40
1.0
 10
48.8443051612
 20
97.64162217929985
 30
0.0
 10
48.85874082099999
 20
97.65056113979994
 30
0.0
 10
48.87329570219995
 20
97.65931043519993
 30
0.0
 10
48.88796339009999
 20
97.66786334219988
 30
0.0
  0
SPLINE
  5
95007
330
1F
100
AcDbEntity
  8
1
100
AcDbSpline
210
0.0
220
0.0
230
1.0
 70
     8
 71
     3
 72
     9
 73
     5
 74
     0
 42
0.000000001
 43
0.0000000001
 40
0.0
 40
0.0
 40
0.0
 40
0.0
 40
0.2551993821
 40
1.0
 40
1.0
 40
1.0
 40
1.0
 10
56.32692909630002
 20
89.2816517614
 30
0.0
 10
56.27483791070003
 20
89.29387981239996
 30
0.0
 10
56.0706533977
 20
89.34151839179985
 30
0.0
 10
55.8662165789
 20
89.38807536619991
 30
0.0
 10
55.71381768840004
 20
89.42214604759994
 30
0.0
  0
SPLINE
  5
95008
330
1F
100
AcDbEntity
  8
1
100
AcDbSpline
210
0.0
220
0.0
230
1.0
 70
     8
 71
     3
 72
    11
 73
     7
 74
     0
 42
0.000000001
 43
0.0000000001
 40
0.0
 40
0.0
 40
0.0
 40
0.0
 40
0.2161005203
 40
0.4641868788
 40
0.7310109887000003
 40
1.0
 40
1.0
 40
1.0
 40
1.0
 10
60.36035316060001
 20
87.4939813718999
 30
0.0
 10
60.10611168399996
 20
87.68820300429991
 30
0.0
 10
59.53146724649999
 20
88.06868186429987
 30
0.0
 10
58.56532312050001
 20
88.56094219509991
 30
0.0
 10
57.47989412319999
 20
88.97723698119987
 30
0.0
 10
56.71463087230001
 20
89.19064141039992
 30
0.0
 10
56.32692909630002
 20
89.2816517614
 30
0.0
  0
SPLINE
  5
95009
330
1F
100
AcDbEntity
  8
1
100
AcDbSpline
210
0.0
220
0.0
230
1.0
 70
     8
 71
     3
 72
    16
 73
    12
 74
     0
 42
0.000000001
 43
0.0000000001
 40
0.0
 40
0.0
 40
0.0
 40
0.0
 40
0.0515219309
 40
0.1148784599
 40
0.1942121269
 40
0.2938115785
 40
0.4184489732000002
 40
0.5736206958
 40
0.6645803035000001
 40
0.7655056678000002
 40
1.0
 40
1.0
 40
1.0
 40
1.0
 10
61.71381768840001
 20
85.9430678478999
 30
0.0
 10
61.71381768840001
 20
85.97918225159991
 30
0.0
 10
61.70191202559999
 20
86.05977829479989
 30
0.0
 10
61.65387766860003
 20
86.18785815959993
 30
0.0
 10
61.56995843289998
 20
86.33611903589992
 30
0.0
 10
61.44392452879998
 20
86.50800929469991
 30
0.0
 10
61.2678362756
 20
86.70767917089994
 30
0.0
 10
61.0824006192
 20
86.89003077739995
 30
0.0
 10
60.90206061319999
 20
87.05333205919997
 30
0.0
 10
60.67520391780004
 20
87.24795673589992
 30
0.0
 10
60.49097033859999
 20
87.39419953519995
 30
0.0
 10
60.36035316060001
 20
87.4939813718999
 30
0.0
  0
LINE
  5
9500A
330
1F
100
AcDbEntity
  8
1
100
AcDbLine
 10
51.32556900699999
 20
100.0502043366999
 30
0.0
 11
51.2029877695
 21
100.1237401777999
 31
0.0
  0
SPLINE
  5
9500B
330
1F
100
AcDbEntity
  8
1
100
AcDbSpline
210
0.0
220
0.0
230
1.0
 70
     8
 71
     3
 72
    19
 73
    15
 74
     0
 42
0.000000001
 43
0.0000000001
 40
0.0
 40
0.0
 40
0.0
 40
0.0
 40
0.2124529086
 40
0.4040014435
 40
0.5720661184
 40
0.7143952592
 40
0.8291275431
 40
0.8756986222
 40
0.9149076943999999
 40
0.9467058641999999
 40
0.9711517441999999
 40
0.9807054259999999
 40
0.9885794932999999
 40
1.0
 40
1.0
 40
1.0
 40
1.0
 10
49.64934846480002
 20
100.3495336242999
 30
0.0
 10
49.56211571819999
 20
100.3535574672999
 30
0.0
 10
49.39628151250001
 20
100.3623321246999
 30
0.0
 10
49.16169238699999
 20
100.3785588635999
 30
0.0
 10
48.9561636626
 20
100.3967756416999
 30
0.0
 10
48.782526871
 20
100.4165365734999
 30
0.0
 10
48.65901919399999
 20
100.4348200438999
 30
0.0
 10
48.5780884483
 20
100.4504770490999
 30
0.0
 10
48.53100938410002
 20
100.4614708972999
 30
0.0
 10
48.4933295571
 20
100.4725032882999
 30
0.0
 10
48.46804157489998
 20
100.4822253197999
 30
0.0
 10
48.45281179719997
 20
100.4904035869999
 30
0.0
 10
48.44314914149999
 20
100.4971136193999
 30
0.0
 10
48.43743056230002
 20
100.5033803778998
 30
0.0
 10
48.43602009120004
 20
100.5078576882
 30
0.0
  0
SPLINE
  5
9500C
330
1F
100
AcDbEntity
  8
1
100
AcDbSpline
210
0.0
220
0.0
230
1.0
 70
     8
 71
     3
 72
    15
 73
    11
 74
     0
 42
0.000000001
 43
0.0000000001
 40
0.0
 40
0.0
 40
0.0
 40
0.0
 40
0.0272326003
 40
0.0589163387
 40
0.1364355463
 40
0.2335712278
 40
0.3504808343
 40
0.4867225968000001
 40
0.6413550799000002
 40
1.0
 40
1.0
 40
1.0
 40
1.0
 10
51.2029877695
 20
100.1237401777999
 30
0.0
 10
51.19071897259999
 20
100.1311406643999
 30
0.0
 10
51.16317538019997
 20
100.1455010912999
 30
0.0
 10
51.09685191590003
 20
100.1731075188999
 30
0.0
 10
50.99268154619998
 20
100.2045003340999
 30
0.0
 10
50.8427456149
 20
100.2372468894999
 30
0.0
 10
50.6607621791
 20
100.2668220237999
 30
0.0
 10
50.4477886512
 20
100.2930603320999
 30
0.0
 10
50.10751226070002
 20
100.3249571632999
 30
0.0
 10
49.8378429008
 20
100.3408387973999
 30
0.0
 10
49.64934846480002
 20
100.3495336242999
 30
0.0
  0
SPLINE
  5
9500D
330
1F
100
AcDbEntity
  8
1
100
AcDbSpline
210
0.0
220
0.0
230
1.0
 70
     8
 71
     3
 72
     9
 73
     5
 74
     0
 42
0.000000001
 43
0.0000000001
 40
0.0
 40
0.0
 40
0.0
 40
0.0
 40
0.4697697169
 40
1.0
 40
1.0
 40
1.0
 40
1.0
 10
34.66854553819999
 20
93.44935124749985
 30
0.0
 10
35.12655094679999
 20
93.43591085199994
 30
0.0
 10
36.10100869139998
 20
93.39002590089995
 30
0.0
 10
37.07400461009999
 20
93.32100928739992
 30
0.0
 10
37.58955299139998
 20
93.28003068119988
 30
0.0
  0
SPLINE
  5
9500E
330
1F
100
AcDbEntity
  8
1
100
AcDbSpline
210
0.0
220
0.0
230
1.0
 70
     8
 71
     3
 72
    18
 73
    14
 74
     0
 42
0.000000001
 43
0.0000000001
 40
0.0
 40
0.0
 40
0.0
 40
0.0
 40
0.1919845689
 40
0.368524665
 40
0.5273724857
 40
0.6664038946000001
 40
0.7837559303
 40
0.8338763587999999
 40
0.8781577941
 40
0.916620436
 40
0.9494151446
 40
0.9769415550999999
 40
1.0
 40
1.0
 40
1.0
 40
1.0
 10
34.66854553819999
 20
93.44935124749985
 30
0.0
 10
34.5581973061
 20
93.36091212649987
 30
0.0
 10
34.34424171520002
 20
93.19378119319996
 30
0.0
 10
34.030976151
 20
92.96396285629992
 30
0.0
 10
33.7417585611
 20
92.76763001039991
 30
0.0
 10
33.4808908171
 20
92.6077352653999
 30
0.0
 10
33.28124301899999
 20
92.50175068499986
 30
0.0
 10
33.13844645880002
 20
92.43882327169997
 30
0.0
 10
33.04661504130005
 20
92.40476860809989
 30
0.0
 10
32.96467346809999
 20
92.38138901349993
 30
0.0
 10
32.89280942600001
 20
92.36881238049994
 30
0.0
 10
32.8311632969
 20
92.36707590679985
 30
0.0
 10
32.79404109909999
 20
92.37394646789987
 30
0.0
 10
32.7780458734
 20
92.37965913969992
 30
0.0
  0
SPLINE
  5
9500F
330
1F
100
AcDbEntity
  8
1
100
AcDbSpline
210
0.0
220
0.0
230
1.0
 70
     8
 71
     3
 72
     9
 73
     5
 74
     0
 42
0.000000001
 43
0.0000000001
 40
0.0
 40
0.0
 40
0.0
 40
0.0
 40
0.2387738553
 40
1.0
 40
1.0
 40
1.0
 40
1.0
 10
47.42243152219995
 20
97.93124406209994
 30
0.0
 10
47.45542823189999
 20
97.93604016429986
 30
0.0
 10
47.5939868735
 20
97.95348008099995
 30
0.0
 10
47.73399715879997
 20
97.95974633259994
 30
0.0
 10
47.84027781979999
 20
97.95766614659996
 30
0.0
  0
SPLINE
  5
95010
330
1F
100
AcDbEntity
  8
1
100
AcDbSpline
210
0.0
220
0.0
230
1.0
 70
     8
 71
     3
 72
    11
 73
     7
 74
     0
 42
0.000000001
 43
0.0000000001
 40
0.0
 40
0.0
 40
0.0
 40
0.0
 40
0.3561413379
 40
0.6254835169
 40
0.8347650154
 40
1.0
 40
1.0
 40
1.0
 40
1.0
 10
39.65851611570001
 20
92.94664825459994
 30
0.0
 10
39.4151895366
 20
92.99919464239996
 30
0.0
 10
38.98644617850005
 20
93.08521676569993
 30
0.0
 10
38.41106364860005
 20
93.18261614989994
 30
0.0
 10
37.96516403870001
 20
93.24405763909991
 30
0.0
 10
37.70468579200002
 20
93.2708792961999
 30
0.0
 10
37.58955299139998
 20
93.28003068119988
 30
0.0
  0
SPLINE
  5
95011
330
1F
100
AcDbEntity
  8
1
100
AcDbSpline
210
0.0
220
0.0
230
1.0
 70
     8
 71
     3
 72
     8
 73
     4
 74
     0
 42
0.000000001
 43
0.0000000001
 40
0.0
 40
0.0
 40
0.0
 40
0.0
 40
1.0
 40
1.0
 40
1.0
 40
1.0
 10
47.87678331519996
 20
98.17364074679987
 30
0.0
 10
47.85650538019999
 20
98.1660833964
 30
0.0
 10
47.8363670332
 20
98.15814043089993
 30
0.0
 10
47.81638960929996
 20
98.14982113239997
 30
0.0
  0
LINE
  5
95012
330
1F
100
AcDbEntity
  8
1
100
AcDbLine
 10
52.02618060329999
 20
90.2448000078999
 30
0.0
 11
51.97382338399997
 21
90.25640292539991
 31
0.0
  0
SPLINE
  5
95013
330
1F
100
AcDbEntity
  8
1
100
AcDbSpline
210
0.0
220
0.0
230
1.0
 70
     8
 71
     3
 72
     9
 73
     5
 74
     0
 42
0.000000001
 43
0.0000000001
 40
0.0
 40
0.0
 40
0.0
 40
0.0
 40
0.2510754007
 40
1.0
 40
1.0
 40
1.0
 40
1.0
 10
49.67285603429999
 20
90.76319594689993
 30
0.0
 10
49.61732067509998
 20
90.86376364579987
 30
0.0
 10
49.39671005300002
 20
91.2646310961999
 30
0.0
 10
49.17837002269999
 20
91.66674811959991
 30
0.0
 10
49.01613762840003
 20
91.96859271349994
 30
0.0
  0
SPLINE
  5
95014
330
1F
100
AcDbEntity
  8
1
100
AcDbSpline
210
0.0
220
0.0
230
1.0
 70
     8
 71
     3
 72
    21
 73
    17
 74
     0
 42
0.000000001
 43
0.0000000001
 40
0.0
 40
0.0
 40
0.0
 40
0.0
 40
0.0617211139
 40
0.1235109698
 40
0.1854191845
 40
0.2474850203
 40
0.3097337081
 40
0.3721750433
 40
0.4348034996
 40
0.4975988623
 40
0.6232330033000001
 40
0.7490102717
 40
0.8119757448999999
 40
0.8748200696999999
 40
0.9375037366999999
 40
1.0
 40
1.0
 40
1.0
 40
1.0
 10
47.68076835769995
 20
94.45313963129995
 30
0.0
 10
47.59468704449997
 20
94.49420393609988
 30
0.0
 10
47.42832123699996
 20
94.5894403169999
 30
0.0
 10
47.20279366359998
 20
94.76778382119992
 30
0.0
 10
47.00557704710002
 20
94.97780261499993
 30
0.0
 10
46.84073453859997
 20
95.21490838279992
 30
0.0
 10
46.71153886069999
 20
95.47408306119992
 30
0.0
 10
46.62051138239998
 20
95.74988123899991
 30
0.0
 10
46.56942449340002
 20
96.03667997069992
 30
0.0
 10
46.55580046590002
 20
96.4254711897999
 30
0.0
 10
46.64203861479998
 20
96.91024288519994
 30
0.0
 10
46.8600120362
 20
97.35213466579994
 30
0.0
 10
47.10245267029999
 20
97.65746063139992
 30
0.0
 10
47.31501205129997
 20
97.85814470849992
 30
0.0
 10
47.5536004865
 20
98.02563386459995
 30
0.0
 10
47.7271496381
 20
98.11291029099995
 30
0.0
 10
47.81638960929996
 20
98.14982113239997
 30
0.0
  0
SPLINE
  5
95015
330
1F
100
AcDbEntity
  8
1
100
AcDbSpline
210
0.0
220
0.0
230
1.0
 70
     8
 71
     3
 72
     8
 73
     4
 74
     0
 42
0.000000001
 43
0.0000000001
 40
0.0
 40
0.0
 40
0.0
 40
0.0
 40
1.0
 40
1.0
 40
1.0
 40
1.0
 10
47.89265984890002
 20
97.95628904369991
 30
0.0
 10
47.84026594929996
 20
97.91095170179987
 30
0.0
 10
47.78849499369999
 20
97.8648829614999
 30
0.0
 10
47.73741941679996
 20
97.81806543549992
 30
0.0
  0
SPLINE
  5
95016
330
1F
100
AcDbEntity
  8
1
100
AcDbSpline
210
0.0
220
0.0
230
1.0
 70
     8
 71
     3
 72
     9
 73
     5
 74
     0
 42
0.000000001
 43
0.0000000001
 40
0.0
 40
0.0
 40
0.0
 40
0.0
 40
0.2558702184
 40
1.0
 40
1.0
 40
1.0
 40
1.0
 10
47.84027781989999
 20
97.95766614659996
 30
0.0
 10
47.86467861989999
 20
97.9571885600999
 30
0.0
 10
47.96001665160003
 20
97.95414277529992
 30
0.0
 10
48.05520314959998
 20
97.94654699689992
 30
0.0
 10
48.1257180744
 20
97.93846330099995
 30
0.0
  0
SPLINE
  5
95017
330
1F
100
AcDbEntity
  8
1
100
AcDbSpline
210
0.0
220
0.0
230
1.0
 70
     8
 71
     3
 72
     9
 73
     5
 74
     0
 42
0.000000001
 43
0.0000000001
 40
0.0
 40
0.0
 40
0.0
 40
0.0
 40
0.2535899943
 40
1.0
 40
1.0
 40
1.0
 40
1.0
 10
47.28188614559999
 20
97.82125388719991
 30
0.0
 10
47.32032417769995
 20
97.82388199649988
 30
0.0
 10
47.47208538960001
 20
97.83133755139992
 30
0.0
 10
47.62440060230002
 20
97.82737532519993
 30
0.0
 10
47.73741941679996
 20
97.81806543549992
 30
0.0
  0
SPLINE
  5
95018
330
1F
100
AcDbEntity
  8
1
100
AcDbSpline
210
0.0
220
0.0
230
1.0
 70
     8
 71
     3
 72
     9
 73
     5
 74
     0
 42
0.000000001
 43
0.0000000001
 40
0.0
 40
0.0
 40
0.0
 40
0.0
 40
0.2496163802
 40
1.0
 40
1.0
 40
1.0
 40
1.0
 10
47.75932448099999
 20
94.30685567079986
 30
0.0
 10
47.7740239622
 20
94.30186261239994
 30
0.0
 10
47.83316418289999
 20
94.28260924719991
 30
0.0
 10
47.89328649979999
 20
94.26637206619988
 30
0.0
 10
47.93877373019998
 20
94.25593853069996
 30
0.0
  0
SPLINE
  5
95019
330
1F
100
AcDbEntity
  8
1
100
AcDbSpline
210
0.0
220
0.0
230
1.0
 70
     8
 71
     3
 72
     9
 73
     5
 74
     0
 42
0.000000001
 43
0.0000000001
 40
0.0
 40
0.0
 40
0.0
 40
0.0
 40
0.2474078585
 40
1.0
 40
1.0
 40
1.0
 40
1.0
 10
51.652299457
 20
99.48235827809993
 30
0.0
 10
51.62059963929999
 20
99.52617694359993
 30
0.0
 10
51.49709391730002
 20
99.70658883989997
 30
0.0
 10
51.3924727751
 20
99.89990764389993
 30
0.0
 10
51.32556900699999
 20
100.0502043366999
 30
0.0
  0
SPLINE
  5
9501A
330
1F
100
AcDbEntity
  8
1
100
AcDbSpline
210
0.0
220
0.0
230
1.0
 70
     8
 71
     3
 72
     9
 73
     5
 74
     0
 42
0.000000001
 43
0.0000000001
 40
0.0
 40
0.0
 40
0.0
 40
0.0
 40
0.5435584859000003
 40
1.0
 40
1.0
 40
1.0
 40
1.0
 10
51.7080503256
 20
99.36058779959994
 30
0.0
 10
51.69635724489999
 20
99.38187344359988
 30
0.0
 10
51.67607605090001
 20
99.42172880739995
 30
0.0
 10
51.65900018980003
 20
99.46309694909992
 30
0.0
 10
51.652299457
 20
99.48235827809993
 30
0.0
  0
SPLINE
  5
9501B
330
1F
100
AcDbEntity
  8
1
100
AcDbSpline
210
0.0
220
0.0
230
1.0
 70
     8
 71
     3
 72
     8
 73
     4
 74
     0
 42
0.000000001
 43
0.0000000001
 40
0.0
 40
0.0
 40
0.0
 40
0.0
 40
1.0
 40
1.0
 40
1.0
 40
1.0
 10
35.89776296229999
 20
96.65295892039992
 30
0.0
 10
36.46151237540005
 20
97.23462138779995
 30
0.0
 10
37.0254454562
 20
97.81610589449993
 30
0.0
 10
37.58955299139998
 20
98.39742105469992
 30
0.0
  0
LINE
  5
9501C
330
1F
100
AcDbEntity
  8
1
100
AcDbLine
 10
52.80616868910001
 20
100.7079837005999
 30
0.0
 11
52.8369502661
 21
100.6373053246999
 31
0.0
  0
SPLINE
  5
9501D
330
1F
100
AcDbEntity
  8
1
100
AcDbSpline
210
0.0
220
0.0
230
1.0
 70
     8
 71
     3
 72
     9
 73
     5
 74
     0
 42
0.000000001
 43
0.0000000001
 40
0.0
 40
0.0
 40
0.0
 40
0.0
 40
0.2553689739
 40
1.0
 40
1.0
 40
1.0
 40
1.0
 10
52.83694990879999
 20
100.6373055037999
 30
0.0
 10
52.84641660829999
 20
100.6154174714999
 30
0.0
 10
52.8838607515
 20
100.5298694564999
 30
0.0
 10
52.92299083879999
 20
100.4450486377999
 30
0.0
 10
52.95343860769998
 20
100.3825319603999
 30
0.0
  0
SPLINE
  5
9501E
330
1F
100
AcDbEntity
  8
1
100
AcDbSpline
210
0.0
220
0.0
230
1.0
 70
     8
 71
     3
 72
     8
 73
     4
 74
     0
 42
0.000000001
 43
0.0000000001
 40
0.0
 40
0.0
 40
0.0
 40
0.0
 40
1.0
 40
1.0
 40
1.0
 40
1.0
 10
51.97382338399997
 20
100.7216602199999
 30
0.0
 10
51.99127521599999
 20
100.7218029880999
 30
0.0
 10
52.00872910750002
 20
100.7217848265999
 30
0.0
 10
52.02618060329999
 20
100.7216056197999
 30
0.0
  0
SPLINE
  5
9501F
330
1F
100
AcDbEntity
  8
1
100
AcDbSpline
210
0.0
220
0.0
230
1.0
 70
     8
 71
     3
 72
     9
 73
     5
 74
     0
 42
0.000000001
 43
0.0000000001
 40
0.0
 40
0.0
 40
0.0
 40
0.0
 40
0.2498552207999999
 40
1.0
 40
1.0
 40
1.0
 40
1.0
 10
52.80616868910001
 20
100.7079837005999
 30
0.0
 10
52.86856625449999
 20
100.7081662142998
 30
0.0
 10
53.11830124240001
 20
100.7088616530999
 30
0.0
 10
53.36803663199997
 20
100.7094143933999
 30
0.0
 10
53.55537446969997
 20
100.7097414524999
 30
0.0
  0
SPLINE
  5
95020
330
1F
100
AcDbEntity
  8
1
100
AcDbSpline
210
0.0
220
0.0
230
1.0
 70
     8
 71
     3
 72
     9
 73
     5
 74
     0
 42
0.000000001
 43
0.0000000001
 40
0.0
 40
0.0
 40
0.0
 40
0.0
 40
0.2610567912
 40
1.0
 40
1.0
 40
1.0
 40
1.0
 10
52.02618060329999
 20
100.7216056197999
 30
0.0
 10
52.09406147120001
 20
100.7209085615999
 30
0.0
 10
52.35407982489999
 20
100.7178168065999
 30
0.0
 10
52.6140817477
 20
100.7130079365999
 30
0.0
 10
52.80616868910001
 20
100.7079837005999
 30
0.0
  0
SPLINE
  5
95021
330
1F
100
AcDbEntity
  8
1
100
AcDbSpline
210
0.0
220
0.0
230
1.0
 70
     8
 71
     3
 72
     9
 73
     5
 74
     0
 42
0.000000001
 43
0.0000000001
 40
0.0
 40
0.0
 40
0.0
 40
0.0
 40
0.2521644033
 40
1.0
 40
1.0
 40
1.0
 40
1.0
 10
52.8369502661
 20
100.6373053246999
 30
0.0
 10
52.82941512890002
 20
100.6054940003999
 30
0.0
 10
52.7983453949
 20
100.4796257551999
 30
0.0
 10
52.76251742539997
 20
100.3549278006999
 30
0.0
 10
52.73300175140002
 20
100.2625775261999
 30
0.0
  0
SPLINE
  5
95022
330
1F
100
AcDbEntity
  8
1
100
AcDbSpline
210
0.0
220
0.0
230
1.0
 70
     8
 71
     3
 72
    25
 73
    21
 74
     0
 42
0.000000001
 43
0.0000000001
 40
0.0
 40
0.0
 40
0.0
 40
0.0
 40
0.0080302317
 40
0.0157115171
 40
0.0240005298
 40
0.0336570409
 40
0.04514218
 40
0.0586958173
 40
0.0744311602
 40
0.09238057
 40
0.1348286987
 40
0.1856619747
 40
0.2442593983
 40
0.3098999664
 40
0.3818332826
 40
0.4593021376000002
 40
0.5415638336000002
 40
0.6278972062000002
 40
0.8099674519
 40
1.0
 40
1.0
 40
1.0
 40
1.0
 10
32.7780458734
 20
92.37965913969992
 30
0.0
 10
32.76430619200002
 20
92.38456624699994
 30
0.0
 10
32.73844569810004
 20
92.39813745059995
 30
0.0
 10
32.70938255069999
 20
92.43199187629992
 30
0.0
 10
32.6931642559
 20
92.47647786799992
 30
0.0
 10
32.68878729630003
 20
92.5301944982
 30
0.0
 10
32.69533938059999
 20
92.59313399759992
 30
0.0
 10
32.71251300770001
 20
92.66534479019993
 30
0.0
 10
32.7401434443
 20
92.74669791509994
 30
0.0
 10
32.79378631099999
 20
92.87428587139991
 30
0.0
 10
32.88754675450002
 20
93.0536471151999
 30
0.0
 10
33.03148052260002
 20
93.28919799379992
 30
0.0
 10
33.2101787467
 20
93.55245287479993
 30
0.0
 10
33.4207162923
 20
93.84010112769992
 30
0.0
 10
33.6601456553
 20
94.14889101689992
 30
0.0
 10
33.92543357060001
 20
94.47569405099995
 30
0.0
 10
34.21359473710001
 20
94.81752025789992
 30
0.0
 10
34.6319253284
 20
95.29807025189994
 30
0.0
 10
35.19188846880004
 20
95.91478014469986
 30
0.0
 10
35.65747513240001
 20
96.40503598019995
 30
0.0
 10
35.89776296229999
 20
96.65295892039992
 30
0.0
  0
SPLINE
  5
95023
330
1F
100
AcDbEntity
  8
1
100
AcDbSpline
210
0.0
220
0.0
230
1.0
 70
     8
 71
     3
 72
     9
 73
     5
 74
     0
 42
0.000000001
 43
0.0000000001
 40
0.0
 40
0.0
 40
0.0
 40
0.0
 40
0.2545904841
 40
1.0
 40
1.0
 40
1.0
 40
1.0
 10
46.76411084439999
 20
96.92772645209991
 30
0.0
 10
46.75856772239998
 20
96.93297528449994
 30
0.0
 10
46.73689580769999
 20
96.95369809319998
 30
0.0
 10
46.7156338213
 20
96.97485064569995
 30
0.0
 10
46.70005088179999
 20
96.99087389619991
 30
0.0
  0
SPLINE
  5
95024
330
1F
100
AcDbEntity
  8
1
100
AcDbSpline
210
0.0
220
0.0
230
1.0
 70
     8
 71
     3
 72
     9
 73
     5
 74
     0
 42
0.000000001
 43
0.0000000001
 40
0.0
 40
0.0
 40
0.0
 40
0.0
 40
0.5222629250999999
 40
1.0
 40
1.0
 40
1.0
 40
1.0
 10
47.24052872710001
 20
97.22165383209992
 30
0.0
 10
47.18271238889999
 20
97.25300021039986
 30
0.0
 10
47.07065973949998
 20
97.3105781529999
 30
0.0
 10
46.95565919259999
 20
97.3621028678999
 30
0.0
 10
46.89994000410004
 20
97.38478807689993
 30
0.0
  0
SPLINE
  5
95025
330
1F
100
AcDbEntity
  8
1
100
AcDbSpline
210
0.0
220
0.0
230
1.0
 70
     8
 71
     3
 72
    27
 73
    23
 74
     0
 42
0.000000001
 43
0.0000000001
 40
0.0
 40
0.0
 40
0.0
 40
0.0
 40
0.0015460101
 40
0.0031569706
 40
0.0050708914
 40
0.0074353504
 40
0.0137840165
 40
0.0224978652
 40
0.0336547212
 40
0.0472667737
 40
0.0633152729
 40
0.0817627055
 40
0.1025579919
 40
0.1256390638
 40
0.1783631341
 40
0.2392658737
 40
0.3075616551
 40
0.3823664672
 40
0.4627126207
 40
0.6358248871
 40
0.8180242845
 40
1.0
 40
1.0
 40
1.0
 40
1.0
 10
48.43602009120004
 20
100.5078576882
 30
0.0
 10
48.43546811770004
 20
100.5096098381999
 30
0.0
 10
48.43504078179996
 20
100.5134783439999
 30
0.0
 10
48.43712337340003
 20
100.5193024256999
 30
0.0
 10
48.44158101340005
 20
100.5248055814999
 30
0.0
 10
48.45149579800001
 20
100.5327194918999
 30
0.0
 10
48.4702533915
 20
100.5418897706999
 30
0.0
 10
48.4997185313
 20
100.5520241005999
 30
0.0
 10
48.53826753899999
 20
100.5620282155999
 30
0.0
 10
48.58576599090003
 20
100.5718742741999
 30
0.0
 10
48.64212326879999
 20
100.5815067858999
 30
0.0
 10
48.70715295789998
 20
100.5908972551999
 30
0.0
 10
48.78064859640002
 20
100.6000220160999
 30
0.0
 10
48.89477188689999
 20
100.6123615306
 30
0.0
 10
49.05659913420001
 20
100.6266473647999
 30
0.0
 10
49.272231486
 20
100.6419511065999
 30
0.0
 10
49.51423437189999
 20
100.6560124710998
 30
0.0
 10
49.7794378104
 20
100.6688176114999
 30
0.0
 10
50.16917873500003
 20
100.6845855196
 30
0.0
 10
50.68661275850002
 20
100.7005254937999
 30
0.0
 10
51.32489997750004
 20
100.7142532287999
 30
0.0
 10
51.75759911970001
 20
100.7198913553999
 30
0.0
 10
51.97382338399997
 20
100.7216602199999
 30
0.0
  0
SPLINE
  5
95026
330
1F
100
AcDbEntity
  8
1
100
AcDbSpline
210
0.0
220
0.0
230
1.0
 70
     8
 71
     3
 72
     9
 73
     5
 74
     0
 42
0.000000001
 43
0.0000000001
 40
0.0
 40
0.0
 40
0.0
 40
0.0
 40
0.5256176914
 40
1.0
 40
1.0
 40
1.0
 40
1.0
 10
47.73741941679996
 20
97.81806543549992
 30
0.0
 10
47.6703201685
 20
97.83577920569996
 30
0.0
 10
47.5405362205
 20
97.86199443459999
 30
0.0
 10
47.40860778
 20
97.8725998732999
 30
0.0
 10
47.34598940289997
 20
97.87396945439994
 30
0.0
  0
SPLINE
  5
95027
330
1F
100
AcDbEntity
  8
1
100
AcDbSpline
210
0.0
220
0.0
230
1.0
 70
     8
 71
     3
 72
    11
 73
     7
 74
     0
 42
0.000000001
 43
0.0000000001
 40
0.0
 40
0.0
 40
0.0
 40
0.0
 40
0.2514174407
 40
0.5019391899
 40
0.7514571811000002
 40
1.0
 40
1.0
 40
1.0
 40
1.0
 10
37.58955299139998
 20
98.39742105469992
 30
0.0
 10
37.72518062969999
 20
98.53718589969993
 30
0.0
 10
38.02272067999999
 20
98.79159152069995
 30
0.0
 10
38.53053929270001
 20
99.08277669359987
 30
0.0
 10
39.08162979389999
 20
99.27356862449993
 30
0.0
 10
39.46620669260003
 20
99.32916789099992
 30
0.0
 10
39.65851611570001
 20
99.33832082369992
 30
0.0
  0
SPLINE
  5
95028
330
1F
100
AcDbEntity
  8
1
100
AcDbSpline
210
0.0
220
0.0
230
1.0
 70
     8
 71
     3
 72
    11
 73
     7
 74
     0
 42
0.000000001
 43
0.0000000001
 40
0.0
 40
0.0
 40
0.0
 40
0.0
 40
0.2488809156
 40
0.4975466242000002
 40
0.7474450900000002
 40
1.0
 40
1.0
 40
1.0
 40
1.0
 10
48.8963269045
 20
98.22565880039991
 30
0.0
 10
48.8131338482
 20
98.24723730259988
 30
0.0
 10
48.6433163403
 20
98.27800969579987
 30
0.0
 10
48.38432696209999
 20
98.28507862019996
 30
0.0
 10
48.1260173507
 20
98.2523543814999
 30
0.0
 10
47.95850697009996
 20
98.20409820189993
 30
0.0
 10
47.87678331519996
 20
98.17364074679987
 30
0.0
  0
ELLIPSE
  5
95029
330
1F
100
AcDbEntity
  8
1
100
AcDbEllipse
 10
437.7745354924
 20
-7.591079095600091
 30
0.0
 11
435.5515274545998
 21
-107.3886002673
 31
0.0
210
0.0
220
0.0
230
1.0
 40
0.0127861488
 41
2.662100847399995
 42
2.727097970899988
  0
ELLIPSE
  5
9502A
330
1F
100
AcDbEntity
  8
1
100
AcDbEllipse
 10
406.9809543019998
 20
-0.0000000011000907
 30
0.0
 11
408.2774505415
 21
-100.6640532156
 31
0.0
210
0.0
220
0.0
230
1.0
 40
0.0128182241
 41
2.60993133419999
 42
2.627926538999993
  0
ELLIPSE
  5
9502B
330
1F
100
AcDbEntity
  8
1
100
AcDbEllipse
 10
69.58402927429998
 20
0.1426279885999406
 30
0.0
 11
174.9948019631
 21
7.066227981199999
 31
0.0
210
0.0
220
0.0
230
1.0
 40
0.5760943412000004
 41
1.652037060299999
 42
1.673098286699998
  0
ELLIPSE
  5
9502C
330
1F
100
AcDbEntity
  8
1
100
AcDbEllipse
 10
126.5381476067999
 20
0.7842719689999173
 30
0.0
 11
532.7590900791003
 21
8.933727021100004
 31
0.0
210
0.0
220
0.0
230
1.0
 40
0.1901168686
 41
1.716203354999999
 42
1.7314139356
  0
ELLIPSE
  5
9502D
330
1F
100
AcDbEntity
  8
1
100
AcDbEllipse
 10
51.4824387067
 20
97.65618138389992
 30
0.0
 11
2.292482350099998
 21
-0.5090593908
 31
0.0
210
0.0
220
0.0
230
1.0
 40
0.0700177627
 41
3.236754758579508
 42
3.623087078379569
  0
ELLIPSE
  5
9502E
330
1F
100
AcDbEntity
  8
1
100
AcDbEllipse
 10
43.44477977859995
 20
92.96370530279993
 30
0.0
 11
14.1427247124
 21
8.812220346599998
 31
0.0
210
0.0
220
0.0
230
1.0
 40
0.0916381008
 41
0.8957775105999916
 42
1.095619783200002
  0
LINE
  5
9502F
330
1F
100
AcDbEntity
  8
sk3
100
AcDbLine
 10
0.5
 20
12.6999999989
 30
0.0
 11
0.5
 21
37.49999999890004
 31
0.0
  0
LINE
  5
95030
330
1F
100
AcDbEntity
  8
sk3
100
AcDbLine
 10
2.0
 20
43.79999999889996
 30
0.0
 11
2.0
 21
57.79999999889996
 31
0.0
  0
LINE
  5
95031
330
1F
100
AcDbEntity
  8
sk3
100
AcDbLine
 10
7.299999999999952
 20
32.24999999890002
 30
0.0
 11
7.299999999999952
 21
12.6999999989
 31
0.0
  0
LINE
  5
95032
330
1F
100
AcDbEntity
  8
sk3
100
AcDbLine
 10
12.0
 20
12.6999999989
 30
0.0
 11
12.0
 21
32.24999999890002
 31
0.0
  0
LINE
  5
95033
330
1F
100
AcDbEntity
  8
sk3
100
AcDbLine
 10
2.32568851449997
 20
32.68519586270004
 30
0.0
 11
7.299999999999952
 21
32.24999999890002
 31
0.0
  0
LINE
  5
95034
330
1F
100
AcDbEntity
  8
sk3
100
AcDbLine
 10
2.0
 20
43.79999999889996
 30
0.0
 11
0.0
 21
41.79999999889996
 31
0.0
  0
LINE
  5
95035
102
{ACAD_REACTORS
330
95075
102
}
330
1F
100
AcDbEntity
  8
sk3
100
AcDbLine
 10
12.0
 20
31.74999999890002
 30
0.0
 11
34.0
 21
31.74999999890002
 31
0.0
  0
LINE
  5
95036
330
1F
100
AcDbEntity
  8
sk3
100
AcDbLine
 10
7.299999999999952
 20
32.24999999890002
 30
0.0
 11
12.0
 21
32.24999999890002
 31
0.0
  0
LINE
  5
95037
330
1F
100
AcDbEntity
  8
sk3
100
AcDbLine
 10
2.0
 20
57.79999999889996
 30
0.0
 11
0.0
 21
59.79999999889996
 31
0.0
  0
LINE
  5
95038
330
1F
100
AcDbEntity
  8
sk3
100
AcDbLine
 10
0.0
 20
37.49999999890004
 30
0.0
 11
0.5
 21
37.49999999890004
 31
0.0
  0
LINE
  5
95039
330
1F
100
AcDbEntity
  8
sk3
100
AcDbLine
 10
33.0
 20
57.79999999889996
 30
0.0
 11
35.0
 21
59.79999999889996
 31
0.0
  0
LINE
  5
9503A
330
1F
100
AcDbEntity
  8
sk3
100
AcDbLine
 10
33.0
 20
43.79999999889996
 30
0.0
 11
2.0
 21
43.79999999889996
 31
0.0
  0
LINE
  5
9503B
330
1F
100
AcDbEntity
  8
sk3
100
AcDbLine
 10
33.0
 20
43.79999999889996
 30
0.0
 11
35.0
 21
41.79999999889996
 31
0.0
  0
LINE
  5
9503C
330
1F
100
AcDbEntity
  8
sk3
100
AcDbLine
 10
33.0
 20
57.79999999889996
 30
0.0
 11
33.0
 21
43.79999999889996
 31
0.0
  0
LINE
  5
9503D
330
1F
100
AcDbEntity
  8
sk3
100
AcDbLine
 10
35.0
 20
0.0
 30
0.0
 11
35.0
 21
66.99999999889995
 31
0.0
  0
LINE
  5
9503E
330
1F
100
AcDbEntity
  8
sk3
100
AcDbLine
 10
57.15746017820003
 20
84.91767146759995
 30
0.0
 11
59.19399405642034
 21
88.23357258955063
 31
0.0
  0
LINE
  5
9503F
330
1F
100
AcDbEntity
  8
sk3
100
AcDbLine
 10
33.0
 20
57.79999999889996
 30
0.0
 11
2.0
 21
57.79999999889996
 31
0.0
  0
LINE
  5
95040
330
1F
100
AcDbEntity
  8
sk3
100
AcDbLine
 10
38.0
 20
69.99999999889995
 30
0.0
 11
53.71381768839995
 21
69.99999999889995
 31
0.0
  0
LINE
  5
95041
330
1F
100
AcDbEntity
  8
sk3
100
AcDbLine
 10
56.71381768839999
 20
83.34762806679997
 30
0.0
 11
56.71381768839999
 21
0.0
 31
0.0
  0
ARC
  5
95042
330
1F
100
AcDbEntity
  8
sk3
100
AcDbCircle
 10
59.71381768839997
 20
83.34762806679997
 30
0.0
 40
3.0
100
AcDbArc
 50
148.4429155692001
 51
180.0
  0
ARC
  5
95043
330
1F
100
AcDbEntity
  8
sk3
100
AcDbCircle
 10
38.0
 20
66.99999999889995
 30
0.0
 40
3.0
100
AcDbArc
 50
90.0
 51
180.0
  0
ARC
  5
95044
330
1F
100
AcDbEntity
  8
sk3
100
AcDbCircle
 10
53.71381768839995
 20
72.99999999889995
 30
0.0
 40
3.0
100
AcDbArc
 50
270.0
 51
0.0
  0
ARC
  5
95045
330
1F
100
AcDbEntity
  8
sk3
100
AcDbCircle
 10
2.5
 20
34.67758525890001
 30
0.0
 40
2.0
100
AcDbArc
 50
180.0
 51
265.0000000000002
  0
ARC
  5
95046
330
1F
100
AcDbEntity
  8
sk3
100
AcDbCircle
 10
34.0
 20
32.74999999890004
 30
0.0
 40
1.0
100
AcDbArc
 50
270.0
 51
0.0
  0
LINE
  5
95047
330
1F
100
AcDbEntity
  8
sk3
100
AcDbLine
 10
0.5
 20
-12.70000000109996
 30
0.0
 11
0.5
 21
-37.49999999890004
 31
0.0
  0
LINE
  5
95048
330
1F
100
AcDbEntity
  8
sk3
100
AcDbLine
 10
7.299999999999952
 20
-32.24999999890002
 30
0.0
 11
7.299999999999952
 21
-12.70000000109996
 31
0.0
  0
LINE
  5
95049
330
1F
100
AcDbEntity
  8
sk3
100
AcDbLine
 10
12.0
 20
-12.70000000109996
 30
0.0
 11
12.0
 21
-32.24999999890002
 31
0.0
  0
LINE
  5
9504A
330
1F
100
AcDbEntity
  8
sk3
100
AcDbLine
 10
2.32568851449997
 20
-32.68519586270004
 30
0.0
 11
7.299999999999952
 21
-32.24999999890002
 31
0.0
  0
LINE
  5
9504B
102
{ACAD_REACTORS
330
95075
102
}
330
1F
100
AcDbEntity
  8
sk3
100
AcDbLine
 10
12.0
 20
-31.74999999890002
 30
0.0
 11
34.0
 21
-31.74999999890002
 31
0.0
  0
LINE
  5
9504C
330
1F
100
AcDbEntity
  8
sk3
100
AcDbLine
 10
7.299999999999952
 20
-32.24999999890002
 30
0.0
 11
12.0
 21
-32.24999999890002
 31
0.0
  0
LINE
  5
9504D
330
1F
100
AcDbEntity
  8
sk3
100
AcDbLine
 10
0.0
 20
-37.49999999890004
 30
0.0
 11
0.5
 21
-37.49999999890004
 31
0.0
  0
LINE
  5
9504E
330
1F
100
AcDbEntity
  8
sk3
100
AcDbLine
 10
35.0
 20
0.0
 30
0.0
 11
35.0
 21
-66.99999999889996
 31
0.0
  0
LINE
  5
9504F
330
1F
100
AcDbEntity
  8
sk3
100
AcDbLine
 10
57.15746017820003
 20
-84.91767146759995
 30
0.0
 11
61.56593685849998
 21
-92.09558926540001
 31
0.0
  0
LINE
  5
95050
330
1F
100
AcDbEntity
  8
sk3
100
AcDbLine
 10
38.0
 20
-69.99999999889997
 30
0.0
 11
53.71381768839995
 21
-69.99999999889997
 31
0.0
  0
LINE
  5
95051
330
1F
100
AcDbEntity
  8
sk3
100
AcDbLine
 10
56.71381768839999
 20
-83.34762806679998
 30
0.0
 11
56.71381768839999
 21
0.0
 31
0.0
  0
ARC
  5
95052
330
1F
100
AcDbEntity
  8
sk3
100
AcDbCircle
 10
59.71381768839997
 20
-83.34762806679998
 30
0.0
 40
3.0
100
AcDbArc
 50
180.0
 51
211.5570844307991
  0
ARC
  5
95053
102
{ACAD_REACTORS
330
95078
102
}
330
1F
100
AcDbEntity
  8
sk3
100
AcDbCircle
 10
38.0
 20
-66.99999999889996
 30
0.0
 40
3.0
100
AcDbArc
 50
180.0
 51
270.0
  0
ARC
  5
95054
330
1F
100
AcDbEntity
  8
sk3
100
AcDbCircle
 10
53.71381768839995
 20
-72.99999999889997
 30
0.0
 40
3.0
100
AcDbArc
 50
0.0
 51
90.0
  0
ARC
  5
95055
330
1F
100
AcDbEntity
  8
sk3
100
AcDbCircle
 10
2.5
 20
-34.67758525890001
 30
0.0
 40
2.0
100
AcDbArc
 50
94.99999999999978
 51
180.0
  0
ARC
  5
95056
330
1F
100
AcDbEntity
  8
sk3
100
AcDbCircle
 10
60.71381768839995
 20
-92.61893706569995
 30
0.0
 40
1.0
100
AcDbArc
 50
0.0
 51
31.55708443079924
  0
ARC
  5
95057
330
1F
100
AcDbEntity
  8
sk3
100
AcDbCircle
 10
34.0
 20
-32.74999999890004
 30
0.0
 40
1.0
100
AcDbArc
 50
0.0
 51
90.0
  0
LINE
  5
95058
330
1F
100
AcDbEntity
  8
sk3
100
AcDbLine
 10
1.000000006949959
 20
58.80000007379992
 30
0.0
 11
33.99999999305007
 21
58.80000007379992
 31
0.0
  0
LINE
  5
95059
330
1F
100
AcDbEntity
  8
sk3
100
AcDbLine
 10
1.000000006949959
 20
42.80000007379998
 30
0.0
 11
33.99999999305007
 21
42.80000007379998
 31
0.0
  0
LINE
  5
9505A
330
1F
100
AcDbEntity
  8
4
100
AcDbLine
 10
-2.673795437284724
 20
50.80000007379992
 30
0.0
 11
38.68960107293185
 21
50.80000007379992
 31
0.0
  0
LINE
  5
9505B
330
1F
100
AcDbEntity
  8
4
100
AcDbLine
 10
-2.673795437284865
 20
-50.79999999890003
 30
0.0
 11
38.68960107293176
 21
-50.79999999890003
 31
0.0
  0
LINE
  5
9505C
330
1F
100
AcDbEntity
  8
sk3
100
AcDbLine
 10
34.4999999936
 20
-59.79999999890003
 30
0.0
 11
1.000000015200015
 21
-59.79999999890003
 31
0.0
  0
LINE
  5
9505D
330
1F
100
AcDbEntity
  8
sk3
100
AcDbLine
 10
1.000000015200015
 20
-41.79999999890003
 30
0.0
 11
0.0000000000000284
 21
-40.79999998200003
 31
0.0
  0
LINE
  5
9505E
330
1F
100
AcDbEntity
  8
sk3
100
AcDbLine
 10
0.9999999999000408
 20
-41.79999999890003
 30
0.0
 11
0.9999999999000408
 21
-59.79999999890003
 31
0.0
  0
LINE
  5
9505F
330
1F
100
AcDbEntity
  8
sk3
100
AcDbLine
 10
34.4999999936
 20
-59.79999999890003
 30
0.0
 11
35.00000000000006
 21
-60.30000000570003
 31
0.0
  0
LINE
  5
95060
330
1F
100
AcDbEntity
  8
sk3
100
AcDbLine
 10
34.4999999936
 20
-41.79999999890003
 30
0.0
 11
1.000000015200015
 21
-41.79999999890003
 31
0.0
  0
LINE
  5
95061
330
1F
100
AcDbEntity
  8
sk3
100
AcDbLine
 10
34.50000000010007
 20
-41.79999999890003
 30
0.0
 11
34.50000000010007
 21
-59.79999999890003
 31
0.0
  0
LINE
  5
95062
330
1F
100
AcDbEntity
  8
sk3
100
AcDbLine
 10
1.000000015200015
 20
-59.79999999890003
 30
0.0
 11
0.0000000000000284
 21
-60.80000001580003
 31
0.0
  0
LINE
  5
95063
330
1F
100
AcDbEntity
  8
sk3
100
AcDbLine
 10
34.4999999936
 20
-41.79999999890003
 30
0.0
 11
35.00000000000006
 21
-41.29999999210006
 31
0.0
  0
LINE
  5
95064
330
1F
100
AcDbEntity
  8
sk3
100
AcDbLine
 10
1.0
 20
-12.70000000109996
 30
0.0
 11
1.0
 21
12.6999999989
 31
0.0
  0
LINE
  5
95065
330
1F
100
AcDbEntity
  8
sk3
100
AcDbLine
 10
13.22000000000002
 20
-12.70000000109996
 30
0.0
 11
13.22000000000002
 21
12.6999999989
 31
0.0
  0
LINE
  5
95066
330
1F
100
AcDbEntity
  8
sk3
100
AcDbLine
 10
14.22000000000003
 20
-11.70000000109996
 30
0.0
 11
14.22000000000003
 21
11.69999999889999
 31
0.0
  0
LINE
  5
95067
330
1F
100
AcDbEntity
  8
sk3
100
AcDbLine
 10
0.0
 20
13.6999999989
 30
0.0
 11
0.5
 21
13.1999999989
 31
0.0
  0
LINE
  5
95068
330
1F
100
AcDbEntity
  8
sk3
100
AcDbLine
 10
0.5
 20
-12.70000000109996
 30
0.0
 11
13.22000000000002
 21
-12.70000000109996
 31
0.0
  0
LINE
  5
95069
330
1F
100
AcDbEntity
  8
sk3
100
AcDbLine
 10
13.22000000000002
 20
12.6999999989
 30
0.0
 11
14.22000000000003
 21
11.69999999889999
 31
0.0
  0
LINE
  5
9506A
330
1F
100
AcDbEntity
  8
sk3
100
AcDbLine
 10
0.5
 20
-13.20000000109996
 30
0.0
 11
0.0
 21
-13.70000000109996
 31
0.0
  0
LINE
  5
9506B
330
1F
100
AcDbEntity
  8
sk3
100
AcDbLine
 10
0.5
 20
12.6999999989
 30
0.0
 11
13.22000000000002
 21
12.6999999989
 31
0.0
  0
LINE
  5
9506C
330
1F
100
AcDbEntity
  8
sk3
100
AcDbLine
 10
14.22000000000003
 20
-11.70000000109996
 30
0.0
 11
13.22000000000002
 21
-12.70000000109996
 31
0.0
  0
DIMENSION
  5
9506D
102
{ACAD_XDICTIONARY
360
9506E
102
}
102
{ACAD_REACTORS
330
9506F
102
}
330
1F
100
AcDbEntity
  8
2
100
AcDbDimension
  2
*D22044
 10
63.5
 20
129.9810258655372
 30
0.0
 11
31.75
 21
134.0310258655372
 31
0.0
 70
    32
 71
     5
 42
63.5
  3
コピー - ISO-25
100
AcDbAlignedDimension
 13
0.0
 23
85.49999999889996
 33
0.0
 14
63.5
 24
100.7999999988999
 34
0.0
 50
0.0
100
AcDbRotatedDimension
1001
ACAD
1000
DSTYLE
1002
{
1070
   170
1070
     1
1070
   171
1070
     3
1070
   143
1040
0.0393700787401575
1070
   285
1070
     4
1070
     4
1000
"
1070
   271
1070
     8
1070
    40
1040
1.0
1002
}
1001
ACAD_DSTYLE_DIMINSPECT
1070
   393
1070
     0
1070
   394
1070
     0
1070
   395
1000

1070
   396
1000

  0
DIMENSION
  5
95070
102
{ACAD_XDICTIONARY
360
95071
102
}
102
{ACAD_REACTORS
330
95072
102
}
330
1F
100
AcDbEntity
  8
sk2
100
AcDbDimension
  2
*D22155
 10
-30.03061141354434
 20
-87.50000000110011
 30
0.0
 11
-34.08061141354433
 21
-0.0000000011000477
 31
0.0
 70
    32
  1
%%C<>
 71
     5
 42
175.0
  3
コピー - ISO-25
100
AcDbAlignedDimension
 13
2.0
 23
87.49999999889999
 33
0.0
 14
2.0
 24
-87.50000000110011
 34
0.0
 50
90.0
100
AcDbRotatedDimension
1001
ACAD
1000
DSTYLE
1002
{
1070
   170
1070
     1
1070
   171
1070
     3
1070
   143
1040
0.0393700787401575
1070
   285
1070
     4
1070
     4
1000
%%c[]"
1070
   271
1070
     8
1070
    40
1040
1.0
1002
}
1001
ACAD_DSTYLE_DIMINSPECT
1070
   393
1070
     0
1070
   394
1070
     0
1070
   395
1000

1070
   396
1000

  0
DIMENSION
  5
95073
102
{ACAD_XDICTIONARY
360
95074
102
}
102
{ACAD_REACTORS
330
95075
102
}
330
1F
100
AcDbEntity
  8
sk2
100
AcDbDimension
  2
*D22266
 10
-19.89146705456886
 20
-31.74999999890002
 30
0.0
 11
-23.94146705456886
 21
-0.0000000000000033
 31
0.0
 70
    32
  1
%%C<>
 71
     5
 42
63.49999999779999
  3
コピー - ISO-25
100
AcDbAlignedDimension
 13
12.0
 23
31.74999999890002
 33
0.0
 14
12.0
 24
-31.74999999890002
 34
0.0
 50
90.0
100
AcDbRotatedDimension
1001
ACAD
1000
DSTYLE
1002
{
1070
   170
1070
     1
1070
   171
1070
     3
1070
   143
1040
0.0393700787401575
1070
   285
1070
     4
1070
     4
1000
%%c[]"
1070
   271
1070
     8
1070
    40
1040
1.0
1002
}
1001
ACAD_DSTYLE_DIMINSPECT
1070
   393
1070
     0
1070
   394
1070
     0
1070
   395
1000

1070
   396
1000

  0
DIMENSION
  5
95076
102
{ACAD_XDICTIONARY
360
95077
102
}
102
{ACAD_REACTORS
330
95078
102
}
330
1F
100
AcDbEntity
  8
sk2
100
AcDbDimension
  2
*D22377
 10
35.0
 20
-119.9853368591289
 30
0.0
 11
17.5
 21
-115.9353368591289
 31
0.0
 70
    32
 71
     5
 42
35.0
  3
コピー - ISO-25
100
AcDbAlignedDimension
 13
0.0
 23
-85.50000000110008
 33
0.0
 14
35.0
 24
-66.99999999889996
 34
0.0
 50
0.0
100
AcDbRotatedDimension
1001
ACAD
1000
DSTYLE
1002
{
1070
   170
1070
     1
1070
   171
1070
     3
1070
   143
1040
0.0393700787401575
1070
   285
1070
     4
1070
     4
1000
"
1070
   271
1070
     8
1070
    40
1040
1.0
1002
}
1001
ACAD_DSTYLE_DIMINSPECT
1070
   393
1070
     0
1070
   394
1070
     0
1070
   395
1000

1070
   396
1000

  0
DIMENSION
  5
95079
330
1F
100
AcDbEntity
  8
2
100
AcDbDimension
  2
*D22488
 10
99.84762567138451
 20
-101.5999999989
 30
0.0
 11
95.7976256713845
 21
-1.750000000000041
 31
0.0
 70
    32
  1
%%C<>
 71
     5
 42
203.1999999978
  3
コピー - ISO-25
100
AcDbAlignedDimension
 13
62.70000000000004
 23
101.5999999988999
 33
0.0
 14
62.70000000000004
 24
-101.5999999989
 34
0.0
 50
90.0
100
AcDbRotatedDimension
1001
ACAD
1000
DSTYLE
1002
{
1070
   170
1070
     1
1070
   171
1070
     3
1070
   143
1040
0.0393700787401575
1070
   285
1070
     4
1070
     4
1000
%%c[]"
1070
   344
1005
87D73
1070
   271
1070
     8
1070
   173
1070
     1
1070
    40
1040
1.0
1070
    76
1070
     1
1002
}
1001
ACAD_DSTYLE_DIMINSPECT
1070
   393
1070
     0
1070
   394
1070
     0
1070
   395
1000

1070
   396
1000

  0
DIMENSION
  5
9507D
330
1F
100
AcDbEntity
  8
2
100
AcDbDimension
  2
*D226109
 10
63.5
 20
120.0564317319667
 30
0.0
 11
94.96666666666667
 21
124.1064317319667
 31
0.0
 70
    32
  1
<>(MAX)
 71
     5
 42
8.200000000000001
  3
コピー - ISO-25
100
AcDbAlignedDimension
 13
55.30000000000004
 23
101.5999999989
 33
0.0
 14
63.5
 24
100.7999999988999
 34
0.0
 50
0.0
100
AcDbRotatedDimension
1001
ACAD
1000
DSTYLE
1002
{
1070
   170
1070
     1
1070
   171
1070
     3
1070
   143
1040
0.0393700787401575
1070
   285
1070
     4
1070
     4
1000
"
1070
   271
1070
     8
1070
    40
1040
1.0
1002
}
1001
ACAD_DSTYLE_DIMINSPECT
1070
   393
1070
     0
1070
   394
1070
     0
1070
   395
1000

1070
   396
1000

  0
LINE
  5
952AF
330
1F
100
AcDbEntity
  8
cut
100
AcDbLine
 10
47.73844114609999
 20
97.94544568509998
 30
0.0
 11
47.75745516809997
 21
97.95732805499994
 31
0.0
  0
LINE
  5
952B0
330
1F
100
AcDbEntity
  8
cut
100
AcDbLine
 10
47.75619696530003
 20
97.95656420020005
 30
0.0
 11
47.77428373529999
 21
97.96720190600003
 31
0.0
  0
LINE
  5
952B1
330
1F
100
AcDbEntity
  8
cut
100
AcDbLine
 10
47.77428373529999
 20
97.96720190600003
 30
0.0
 11
48.00630272339997
 21
98.09901382440001
 31
0.0
  0
LINE
  5
952B2
330
1F
100
AcDbEntity
  8
cut
100
AcDbLine
 10
48.00630272339997
 20
98.09901382440001
 30
0.0
 11
48.24161172919997
 21
98.23203343399995
 31
0.0
  0
LINE
  5
952B3
330
1F
100
AcDbEntity
  8
cut
100
AcDbLine
 10
48.24161172919997
 20
98.23203343399995
 30
0.0
 11
48.48021301170001
 21
98.36625528280002
 31
0.0
  0
LINE
  5
952B4
330
1F
100
AcDbEntity
  8
cut
100
AcDbLine
 10
48.48021301170001
 20
98.36625528280002
 30
0.0
 11
48.72211560779998
 21
98.50165756270001
 31
0.0
  0
LWPOLYLINE
  5
952B5
330
1F
100
AcDbEntity
  8
cut
100
AcDbPolyline
 90
        6
 70
     0
 43
0.0
 10
48.72211560779998
 20
98.50165756270001
 10
48.85151799979997
 20
98.57379870489999
 10
48.85875679439999
 20
98.57776449950002
 10
48.86602071750002
 20
98.58170011100005
 10
48.87330976909999
 20
98.58560553950001
 10
48.88062394899997
 20
98.58948078479999
  0
LINE
  5
952B6
330
1F
100
AcDbEntity
  8
cut
100
AcDbLine
 10
53.87490888469995
 20
101.2204105179
 30
0.0
 11
54.11533821610003
 21
101.3535533192
 31
0.0
  0
LINE
  5
952B7
330
1F
100
AcDbEntity
  8
cut
100
AcDbLine
 10
53.79401689360004
 20
101.1763020538
 30
0.0
 11
53.87490888469995
 21
101.2204105179
 31
0.0
  0
LINE
  5
952B8
330
1F
100
AcDbEntity
  8
cut
100
AcDbLine
 10
53.62993859299996
 20
101.087892115
 30
0.0
 11
53.79401689360004
 21
101.1763020538
 31
0.0
  0
LINE
  5
952B9
330
1F
100
AcDbEntity
  8
cut
100
AcDbLine
 10
52.70800270960001
 20
100.5937719881
 30
0.0
 11
53.62993859299996
 21
101.087892115
 31
0.0
  0
LINE
  5
952BA
330
1F
100
AcDbEntity
  8
cut
100
AcDbLine
 10
52.01359031839996
 20
100.2282051854
 30
0.0
 11
52.70800270960001
 21
100.5937719881
 31
0.0
  0
LINE
  5
952BB
330
1F
100
AcDbEntity
  8
cut
100
AcDbLine
 10
50.80175079420001
 20
99.59261451850004
 30
0.0
 11
52.01359031839996
 21
100.2282051854
 31
0.0
  0
LWPOLYLINE
  5
952BC
330
1F
100
AcDbEntity
  8
cut
100
AcDbPolyline
 90
        4
 70
     0
 43
0.0
 10
48.88062394899997
 20
98.58948078479999
 10
48.97271112969996
 20
98.63747686259999
 10
49.05750288960001
 20
98.68165938700002
 10
50.80175079420001
 20
99.59261451850004
  0
LWPOLYLINE
  5
952BD
330
1F
100
AcDbEntity
  8
cut
100
AcDbPolyline
 90
       11
 70
     0
 43
0.0
 10
47.57953942310002
 20
97.80784608959994
 10
47.59494822549998
 20
97.82499804259998
 10
47.60924255040004
 20
97.84000061340003
 10
47.62396724680002
 20
97.85461835100006
 10
47.63913634719996
 20
97.86886635010001
 10
47.65473581899994
 20
97.88272951620001
 10
47.67072737659997
 20
97.89616353200001
 10
47.68711863619994
 20
97.90917084480007
 10
47.70390198149994
 20
97.92174900740002
 10
47.72101627759997
 20
97.93384636070001
 10
47.73844114609999
 20
97.94544568509998
  0
LWPOLYLINE
  5
952BE
330
1F
100
AcDbEntity
  8
cut
100
AcDbPolyline
 90
       11
 70
     0
 43
0.0
 10
47.59244692519995
 20
97.8222830544
 10
47.60571415719993
 20
97.83637168530006
 10
47.61934402640003
 20
97.85011477200004
 10
47.63334234699999
 20
97.86351775950004
 10
47.6477115563
 20
97.87658243590001
 10
47.66244058239998
 20
97.88929596110001
 10
47.6775149763
 20
97.90164183810006
 10
47.69291913049993
 20
97.91360374440001
 10
47.708632803
 20
97.92516605639995
 10
47.72463459329998
 20
97.93631332510001
 10
47.74090788130002
 20
97.94703349130005
  0
LINE
  5
952BF
330
1F
100
AcDbEntity
  8
cut
100
AcDbLine
 10
47.54203270739997
 20
97.76112879719999
 30
0.0
 11
47.55484140290001
 21
97.77796113940002
 31
0.0
  0
LINE
  5
952C0
330
1F
100
AcDbEntity
  8
cut
100
AcDbLine
 10
47.55459565019998
 20
97.77764472859995
 30
0.0
 11
47.56762477540002
 21
97.79382010020004
 31
0.0
  0
LINE
  5
952C1
330
1F
100
AcDbEntity
  8
cut
100
AcDbLine
 10
47.56700037269996
 20
97.79306862230001
 30
0.0
 11
47.58108046000001
 21
97.80960967230001
 31
0.0
  0
LINE
  5
952C2
330
1F
100
AcDbEntity
  8
cut
100
AcDbLine
 10
47.52993684519998
 20
97.74426638400001
 30
0.0
 11
47.54307412560001
 21
97.76253496329999
 31
0.0
  0
LWPOLYLINE
  5
952C3
330
1F
100
AcDbEntity
  8
cut
100
AcDbPolyline
 90
       43
 70
     0
 43
0.0
 10
59.09057538389999
 20
85.79614155259998
 10
59.07280535530003
 20
85.78392827840003
 10
59.05472077290006
 20
85.77219735350002
 10
59.03632163680004
 20
85.76094877770003
 10
59.01758493890003
 20
85.7501701402
 10
58.99853368729997
 20
85.73987385189997
 10
58.97923690579995
 20
85.73009714560004
 10
58.95969859119998
 20
85.72084561690003
 10
58.93991474679999
 20
85.71211367020003
 10
58.91994240540004
 20
85.70392175130001
 10
58.89980123129999
 20
85.69627692160002
 10
58.87947156030003
 20
85.68917211970001
 10
58.85895143290003
 20
85.6826066067
 10
58.8382206055
 20
85.6765737023
 10
58.81729932169997
 20
85.67108008670004
 10
58.79624635329998
 20
85.66614506190001
 10
58.7750572781
 20
85.6617711097
 10
58.75373651820003
 20
85.65795574829996
 10
58.73235611269995
 20
85.65471083350002
 10
58.7109327567
 20
85.65203989130003
 10
58.68944975509997
 20
85.6499393958
 10
58.6679290618
 20
85.64841062400002
 10
58.64637100199995
 20
85.64745224780006
 10
58.62477525049996
 20
85.64706559539997
 10
58.60316278559998
 20
85.64725592910003
 10
58.58151594159999
 20
85.64802550230002
 10
58.55985238419997
 20
85.6493720615
 10
58.53824608920001
 20
85.65129410899999
 10
58.5167010536
 20
85.65379553650002
 10
58.49521328029998
 20
85.6568724523
 10
58.47384475430004
 20
85.66051168209998
 10
58.45261701759993
 20
85.66470906879997
 10
58.43150852809998
 20
85.66946876959997
 10
58.41051664549997
 20
85.67479008240002
 10
58.389620493
 20
85.68067721120002
 10
58.36884094729999
 20
85.68712595189998
 10
58.34823799799995
 20
85.69412299079997
 10
58.32780722779999
 20
85.7016726324
 10
58.30755305409997
 20
85.7097705722
 10
58.28754871860002
 20
85.71839058240005
 10
58.26781863540002
 20
85.7275239205
 10
58.24833839040002
 20
85.7371793291
 10
58.22910798369997
 20
85.74735680810006
  0
LWPOLYLINE
  5
952C4
330
1F
100
AcDbEntity
  8
cut
100
AcDbPolyline
 90
       12
 70
     0
 43
0.0
 10
47.42951263740002
 20
97.53888101690002
 10
47.43654378619999
 20
97.56035051530005
 10
47.44357632089997
 20
97.57988959910001
 10
47.4511264161
 20
97.59918306280006
 10
47.45918791989999
 20
97.61821775149996
 10
47.46776698399997
 20
97.63700681999997
 10
47.47685649519995
 20
97.65553899499998
 10
47.48645652729999
 20
97.67381740510003
 10
47.49656700649995
 20
97.6918389216
 10
47.50718059749998
 20
97.70958288499997
 10
47.51830716540001
 20
97.72706341110001
 10
47.52993684519998
 20
97.74426638400001
  0
LWPOLYLINE
  5
952C5
330
1F
100
AcDbEntity
  8
cut
100
AcDbPolyline
 90
       12
 70
     0
 43
0.0
 10
47.43553128119997
 20
97.55739219689996
 10
47.44202321519997
 20
97.57572389139994
 10
47.44898222869994
 20
97.59386295079998
 10
47.45639881959998
 20
97.61179202600004
 10
47.46426266280002
 20
97.629492718
 10
47.47256605059999
 20
97.64695150020004
 10
47.48131174500001
 20
97.6641743354
 10
47.49050512549996
 20
97.68117205889996
 10
47.50014918739998
 20
97.69795043609995
 10
47.51023739000003
 20
97.71449495390001
 10
47.52076080869994
 20
97.73078602920003
 10
47.53171008500003
 20
97.74680475950006
  0
LINE
  5
952C6
330
1F
100
AcDbEntity
  8
cut
100
AcDbLine
 10
47.41387050769997
 20
97.48029609470002
 30
0.0
 11
47.41891674180005
 21
97.50137210700001
 31
0.0
  0
LINE
  5
952C7
330
1F
100
AcDbEntity
  8
cut
100
AcDbLine
 10
47.41870933939997
 20
97.5005455764
 30
0.0
 11
47.42411029540004
 21
97.52067850389996
 31
0.0
  0
LINE
  5
952C8
330
1F
100
AcDbEntity
  8
cut
100
AcDbLine
 10
47.42397267149994
 20
97.52020245080002
 30
0.0
 11
47.43005438059998
 21
97.54061654920002
 31
0.0
  0
LINE
  5
952C9
330
1F
100
AcDbEntity
  8
cut
100
AcDbLine
 10
59.97799226659997
 20
87.063705932
 30
0.0
 11
59.74336781290002
 21
86.6996866815
 31
0.0
  0
LINE
  5
952CA
330
1F
100
AcDbEntity
  8
cut
100
AcDbLine
 10
59.74336781290002
 20
86.6996866815
 30
0.0
 11
59.44504636890002
 21
86.23810124300002
 31
0.0
  0
LINE
  5
952CB
330
1F
100
AcDbEntity
  8
cut
100
AcDbLine
 10
59.44504636890002
 20
86.23810124300002
 30
0.0
 11
59.29961981109999
 21
86.01348679709998
 31
0.0
  0
LWPOLYLINE
  5
952CC
330
1F
100
AcDbEntity
  8
cut
100
AcDbPolyline
 90
       16
 70
     0
 43
0.0
 10
59.29961981129997
 20
86.01348679740004
 10
59.28851196199997
 20
85.99680549560003
 10
59.27697274089997
 20
85.9804035692
 10
59.26500214799995
 20
85.96428101819999
 10
59.25258610969996
 20
85.94842028469997
 10
59.23973869969995
 20
85.93283892660002
 10
59.2265021389
 20
85.91758961709997
 10
59.21288842619998
 20
85.90268663120003
 10
59.19888556269995
 20
85.88811569399997
 10
59.18449977350002
 20
85.8738866544
 10
59.16971760250003
 20
85.85998688450002
 10
59.15455250579999
 20
85.84642901219995
 10
59.13905107619996
 20
85.83326076969996
 10
59.12322884489999
 20
85.8204980676
 10
59.10707028070003
 20
85.80812499519998
 10
59.09057538369996
 20
85.79614155249997
  0
LINE
  5
952CD
330
1F
100
AcDbEntity
  8
cut
100
AcDbLine
 10
47.40960077919999
 20
97.45997207950001
 30
0.0
 11
47.41435008809997
 21
97.48241962770004
 31
0.0
  0
LINE
  5
952CE
330
1F
100
AcDbEntity
  8
cut
100
AcDbLine
 10
63.05525245460001
 20
92.20074693709994
 30
0.0
 11
62.6754198277
 21
91.55942555160001
 31
0.0
  0
LINE
  5
952CF
330
1F
100
AcDbEntity
  8
cut
100
AcDbLine
 10
62.6754198277
 20
91.55942555160001
 30
0.0
 11
62.3541617418
 21
91.01892304579996
 31
0.0
  0
LINE
  5
952D0
330
1F
100
AcDbEntity
  8
cut
100
AcDbLine
 10
62.3541617418
 20
91.01892304579996
 30
0.0
 11
62.032901407
 21
90.47997718030002
 31
0.0
  0
LINE
  5
952D1
330
1F
100
AcDbEntity
  8
cut
100
AcDbLine
 10
62.032901407
 20
90.47997718030002
 30
0.0
 11
61.74814291349997
 21
90.00348648040001
 31
0.0
  0
LINE
  5
952D2
330
1F
100
AcDbEntity
  8
cut
100
AcDbLine
 10
61.74814291349997
 20
90.00348648040001
 30
0.0
 11
61.41526152649993
 21
89.44780935170001
 31
0.0
  0
LINE
  5
952D3
330
1F
100
AcDbEntity
  8
cut
100
AcDbLine
 10
61.41526152649993
 20
89.44780935170001
 30
0.0
 11
61.08208610369995
 21
88.89298410600003
 31
0.0
  0
LINE
  5
952D4
330
1F
100
AcDbEntity
  8
cut
100
AcDbLine
 10
61.08208610369995
 20
88.89298410600003
 30
0.0
 11
60.7493101096
 21
88.34006347479997
 31
0.0
  0
LINE
  5
952D5
330
1F
100
AcDbEntity
  8
cut
100
AcDbLine
 10
60.7493101096
 20
88.34006347479997
 30
0.0
 11
60.4166542959
 21
87.78849472670003
 31
0.0
  0
LINE
  5
952D6
330
1F
100
AcDbEntity
  8
cut
100
AcDbLine
 10
60.4166542959
 20
87.78849472670003
 30
0.0
 11
60.08330911820003
 21
87.23685591240002
 31
0.0
  0
LWPOLYLINE
  5
952D7
330
1F
100
AcDbEntity
  8
cut
100
AcDbPolyline
 90
        6
 70
     0
 43
0.0
 10
60.08330911820003
 20
87.23685591240002
 10
59.99549868709999
 20
87.0917503673
 10
59.99116838549998
 20
87.08470503270003
 10
59.9868072149
 20
87.07768251520002
 10
59.98241517529999
 20
87.07068281499998
 10
59.97799226659997
 20
87.063705932
  0
LWPOLYLINE
  5
952D8
330
1F
100
AcDbEntity
  8
cut
100
AcDbPolyline
 90
        9
 70
     0
 43
0.0
 10
47.3954978324
 20
97.31375676309999
 10
47.39561408020001
 20
97.3271553886
 10
47.39621337719995
 20
97.34695366569996
 10
47.39732148549996
 20
97.36666956989999
 10
47.39893133180004
 20
97.3862758075
 10
47.40103434699999
 20
97.40574784429998
 10
47.40362422879996
 20
97.42507095190001
 10
47.40670374259996
 20
97.44426962499996
 10
47.41027792070002
 20
97.46337816409999
  0
LWPOLYLINE
  5
952D9
330
1F
100
AcDbEntity
  8
cut
100
AcDbPolyline
 90
        8
 70
     0
 43
0.0
 10
47.39550037500004
 20
97.3137567626
 10
47.39579144509996
 20
97.33484319750001
 10
47.39666265099997
 20
97.35607861959993
 10
47.39811687600002
 20
97.37716526120001
 10
47.40015122339997
 20
97.39812810100005
 10
47.40274575419999
 20
97.41892665290002
 10
47.40589317500002
 20
97.43953151009998
 10
47.40960077919999
 20
97.45997207950001
  0
LWPOLYLINE
  5
952DA
330
1F
100
AcDbEntity
  8
cut
100
AcDbPolyline
 90
        5
 70
     0
 43
0.0
 10
47.40026098839996
 20
97.22807871120002
 10
47.39818283750003
 20
97.24943297670002
 10
47.3966960578
 20
97.27077886319996
 10
47.39580064939996
 20
97.29211637079998
 10
47.39550037500004
 20
97.3137567626
  0
LINE
  5
952DB
330
1F
100
AcDbEntity
  8
cut
100
AcDbLine
 10
63.49471994579994
 20
99.4355074851
 30
0.0
 11
63.5
 21
100.7999999988999
 31
0.0
  0
LINE
  5
952DC
330
1F
100
AcDbEntity
  8
cut
100
AcDbLine
 10
63.49471994579994
 20
99.4355074851
 30
0.0
 11
63.49459624169997
 21
99.42661698209995
 31
0.0
  0
LINE
  5
952DD
330
1F
100
AcDbEntity
  8
cut
100
AcDbLine
 10
63.26185486509996
 20
93.15738204950005
 30
0.0
 11
63.25865260009994
 21
92.9380792481
 31
0.0
  0
LINE
  5
952DE
330
1F
100
AcDbEntity
  8
cut
100
AcDbLine
 10
63.26581650509996
 20
93.3780738383
 30
0.0
 11
63.26185486509996
 21
93.15738204950005
 31
0.0
  0
LWPOLYLINE
  5
952DF
330
1F
100
AcDbEntity
  8
cut
100
AcDbPolyline
 90
       31
 70
     0
 43
0.0
 10
63.25865260009994
 20
92.93807924819999
 10
63.25817361640003
 20
92.91480972489999
 10
63.25734393799996
 20
92.89159963350003
 10
63.25616356479997
 20
92.86844897410006
 10
63.25463384909999
 20
92.84536855179998
 10
63.25275343869998
 20
92.82234756139995
 10
63.25051827649996
 20
92.79935358729998
 10
63.24793009089995
 20
92.77638788839999
 10
63.2449871535
 20
92.75344920569997
 10
63.24168022169999
 20
92.7305013468
 10
63.23801438810001
 20
92.70755787990005
 10
63.23398456009993
 20
92.68460523679999
 10
63.22956621759994
 20
92.66156652020004
 10
63.22476788040001
 20
92.63844915339999
 10
63.2195810288
 20
92.61524571319995
 10
63.21395558339997
 20
92.59185703270004
 10
63.20790252149993
 20
92.56828222670003
 10
63.20141086589996
 20
92.54452218049999
 10
63.1943976054
 20
92.52048038219999
 10
63.18688137040004
 20
92.49616681100002
 10
63.17884353059998
 20
92.47157148780004
 10
63.17014518349997
 20
92.44656796280001
 10
63.16079786239999
 20
92.4211385351
 10
63.15079003390002
 20
92.39530090560005
 10
63.13994819549997
 20
92.36898172810006
 10
63.12828057519999
 20
92.34215880700004
 10
63.1157789449
 20
92.31485433780006
 10
63.10224511790004
 20
92.28706156100001
 10
63.08761303189999
 20
92.2587782233
 10
63.07194874930002
 20
92.23000657800005
 10
63.05525226989999
 20
92.20074662509999
  0
LINE
  5
952E0
330
1F
100
AcDbEntity
  8
cut
100
AcDbLine
 10
63.27053078360001
 20
93.59980321359996
 30
0.0
 11
63.26581650509996
 21
93.3780738383
 31
0.0
  0
LINE
  5
952E1
330
1F
100
AcDbEntity
  8
cut
100
AcDbLine
 10
63.49459624169997
 20
99.42661698209995
 30
0.0
 11
63.49423128159997
 21
99.40878805870001
 31
0.0
  0
LINE
  5
952E2
330
1F
100
AcDbEntity
  8
cut
100
AcDbLine
 10
63.27597757849996
 20
93.82139171749996
 30
0.0
 11
63.27053078360001
 21
93.59980321359996
 31
0.0
  0
LINE
  5
952E3
330
1F
100
AcDbEntity
  8
cut
100
AcDbLine
 10
63.28212474809999
 20
94.04176807569996
 30
0.0
 11
63.27597757849996
 21
93.82139171749996
 31
0.0
  0
LINE
  5
952E4
330
1F
100
AcDbEntity
  8
cut
100
AcDbLine
 10
63.49423128159997
 20
99.40878805870001
 30
0.0
 11
63.49370958579993
 21
99.3908952455
 31
0.0
  0
LINE
  5
952E5
330
1F
100
AcDbEntity
  8
cut
100
AcDbLine
 10
63.28894914450001
 20
94.26041957280006
 30
0.0
 11
63.28212474809999
 21
94.04176807569996
 31
0.0
  0
LINE
  5
952E6
330
1F
100
AcDbEntity
  8
cut
100
AcDbLine
 10
63.29639305119997
 20
94.47655978870001
 30
0.0
 11
63.28894914450001
 21
94.26041957280006
 31
0.0
  0
LINE
  5
952E7
330
1F
100
AcDbEntity
  8
cut
100
AcDbLine
 10
63.49370958579993
 20
99.3908952455
 30
0.0
 11
63.46566562500004
 21
98.65643040869995
 31
0.0
  0
LINE
  5
952E8
330
1F
100
AcDbEntity
  8
cut
100
AcDbLine
 10
63.30455225040004
 20
94.69144472280005
 30
0.0
 11
63.29639305119997
 21
94.47655978870001
 31
0.0
  0
LINE
  5
952E9
330
1F
100
AcDbEntity
  8
cut
100
AcDbLine
 10
63.46566562500004
 20
98.65643040869995
 30
0.0
 11
63.42977840079993
 21
97.73839743990006
 31
0.0
  0
LINE
  5
952EA
330
1F
100
AcDbEntity
  8
cut
100
AcDbLine
 10
63.42977840079993
 20
97.73839743990006
 30
0.0
 11
63.39576635989999
 21
96.88875199850002
 31
0.0
  0
LINE
  5
952EB
330
1F
100
AcDbEntity
  8
cut
100
AcDbLine
 10
63.39576635989999
 20
96.88875199850002
 30
0.0
 11
63.3593523124
 21
95.99973045999997
 31
0.0
  0
LINE
  5
952EC
330
1F
100
AcDbEntity
  8
cut
100
AcDbLine
 10
63.3593523124
 20
95.99973045999997
 30
0.0
 11
63.32707489430004
 21
95.22891580740006
 31
0.0
  0
LINE
  5
952ED
330
1F
100
AcDbEntity
  8
cut
100
AcDbLine
 10
63.32707489430004
 20
95.22891580740006
 30
0.0
 11
63.30455225040004
 21
94.69144472280005
 31
0.0
  0
LWPOLYLINE
  5
952EE
330
1F
100
AcDbEntity
  8
cut
100
AcDbPolyline
 90
       16
 70
     0
 43
0.0
 10
47.48845227430002
 20
96.94297744959994
 10
47.4791734277
 20
96.96109504209992
 10
47.47037177540004
 20
96.9793815497
 10
47.46204731739998
 20
96.99783697240002
 10
47.4541946425
 20
97.01648271609995
 10
47.44681916180002
 20
97.0352973748
 10
47.43993710909996
 20
97.0542167312
 10
47.43355490409999
 20
97.0732236059
 10
47.42766612709998
 20
97.0923351783
 10
47.42226775350002
 20
97.11153876950005
 10
47.4173554028
 20
97.13085195440001
 10
47.41293345549997
 20
97.15025715810005
 10
47.40901202869998
 20
97.16968897609994
 10
47.40559449469992
 20
97.1891256071
 10
47.40267748129997
 20
97.20858885230001
 10
47.40026098829996
 20
97.22807871200002
  0
LINE
  5
952EF
330
1F
100
AcDbEntity
  8
cut
100
AcDbLine
 10
48.55311130619998
 20
94.83486435509993
 30
0.0
 11
48.08941866250001
 21
95.7478527627
 31
0.0
  0
LINE
  5
952F0
330
1F
100
AcDbEntity
  8
cut
100
AcDbLine
 10
48.93664654309997
 20
94.0754675179
 30
0.0
 11
48.55311130619998
 21
94.83486435509993
 31
0.0
  0
LINE
  5
952F1
330
1F
100
AcDbEntity
  8
cut
100
AcDbLine
 10
48.08941866250001
 20
95.74785276280005
 30
0.0
 11
48.08159667589997
 21
95.763368322
 31
0.0
  0
LINE
  5
952F2
330
1F
100
AcDbEntity
  8
cut
100
AcDbLine
 10
49.32975459549999
 20
93.29275451850005
 30
0.0
 11
48.93664654309997
 21
94.0754675179
 31
0.0
  0
LINE
  5
952F3
330
1F
100
AcDbEntity
  8
cut
100
AcDbLine
 10
49.64820906639999
 20
92.6553732049
 30
0.0
 11
49.32975459549999
 21
93.29275451850005
 31
0.0
  0
LINE
  5
952F4
330
1F
100
AcDbEntity
  8
cut
100
AcDbLine
 10
50.33073843149997
 20
91.27818288689994
 30
0.0
 11
49.64820906639999
 21
92.6553732049
 31
0.0
  0
LINE
  5
952F5
330
1F
100
AcDbEntity
  8
cut
100
AcDbLine
 10
48.08159667589997
 20
95.763368322
 30
0.0
 11
48.07376457320003
 21
95.77923057060004
 31
0.0
  0
LINE
  5
952F6
330
1F
100
AcDbEntity
  8
cut
100
AcDbLine
 10
50.76527335799994
 20
90.39264641569998
 30
0.0
 11
50.33073843149997
 21
91.27818288689994
 31
0.0
  0
LINE
  5
952F7
330
1F
100
AcDbEntity
  8
cut
100
AcDbLine
 10
50.95409404540004
 20
90.00545349200001
 30
0.0
 11
50.7652733571
 21
90.39264641760002
 31
0.0
  0
LWPOLYLINE
  5
952F8
330
1F
100
AcDbEntity
  8
cut
100
AcDbPolyline
 90
        9
 70
     0
 43
0.0
 10
48.00388076820002
 20
95.9242625613
 10
47.941307532
 20
96.05275775190001
 10
47.87820264599996
 20
96.18092508039996
 10
47.81456449570003
 20
96.3087670099
 10
47.75039469559999
 20
96.43628107749998
 10
47.68569808909996
 20
96.56345989409999
 10
47.62047629049999
 20
96.69030099690004
 10
47.55472768549998
 20
96.81680684889997
 10
47.48845227409997
 20
96.94297744999994
  0
LINE
  5
952F9
330
1F
100
AcDbEntity
  8
cut
100
AcDbLine
 10
48.07376457320003
 20
95.77923057060004
 30
0.0
 11
48.00388076820002
 21
95.9242625613
 31
0.0
  0
LINE
  5
952FA
330
1F
100
AcDbEntity
  8
cut
100
AcDbLine
 10
57.22275360860003
 20
86.28214509240001
 30
0.0
 11
57.08542920240001
 21
86.35283638789998
 31
0.0
  0
LINE
  5
952FB
330
1F
100
AcDbEntity
  8
cut
100
AcDbLine
 10
57.08542920240001
 20
86.35283638789998
 30
0.0
 11
57.06983586909996
 21
86.36099263709997
 31
0.0
  0
LWPOLYLINE
  5
952FC
330
1F
100
AcDbEntity
  8
cut
100
AcDbPolyline
 90
        4
 70
     0
 43
0.0
 10
57.6062454474
 20
86.0819094258
 10
57.47923340189998
 20
86.148709779
 10
57.35140216249998
 20
86.21545286079998
 10
57.22275360860003
 20
86.28214509240001
  0
LINE
  5
952FD
330
1F
100
AcDbEntity
  8
cut
100
AcDbLine
 10
57.85782323360002
 20
85.94817543260003
 30
0.0
 11
57.6062454474
 21
86.0819094258
 31
0.0
  0
LINE
  5
952FE
330
1F
100
AcDbEntity
  8
cut
100
AcDbLine
 10
57.06983586909996
 20
86.36099263709997
 30
0.0
 11
57.05440752689998
 21
86.36922411380004
 31
0.0
  0
LWPOLYLINE
  5
952FF
330
1F
100
AcDbEntity
  8
cut
100
AcDbPolyline
 90
        3
 70
     0
 43
0.0
 10
53.19573116790002
 20
88.45492561209992
 10
53.00924137899993
 20
88.55571311539994
 10
52.91584191509996
 20
88.60661722789997
  0
LINE
  5
95300
330
1F
100
AcDbEntity
  8
cut
100
AcDbLine
 10
56.2428293607
 20
86.8101643562
 30
0.0
 11
53.19573116790002
 21
88.45492561209992
 31
0.0
  0
LINE
  5
95301
330
1F
100
AcDbEntity
  8
cut
100
AcDbLine
 10
57.05440752689998
 20
86.36922411380004
 30
0.0
 11
56.2428293607
 21
86.8101643562
 31
0.0
  0
LWPOLYLINE
  5
95302
330
1F
100
AcDbEntity
  8
cut
100
AcDbPolyline
 90
        4
 70
     0
 43
0.0
 10
58.2291079839
 20
85.74735680800001
 10
58.10615807619996
 20
85.81432793600006
 10
57.98239649279998
 20
85.88126747749997
 10
57.85782323360002
 20
85.94817543260003
  0
LINE
  5
95303
330
1F
100
AcDbEntity
  8
cut
100
AcDbLine
 10
52.91584191509996
 20
88.60661722789997
 30
0.0
 11
52.72862969519996
 21
88.7098570709
 31
0.0
  0
LINE
  5
95304
330
1F
100
AcDbEntity
  8
cut
100
AcDbLine
 10
52.72862969519996
 20
88.7098570709
 30
0.0
 11
52.53946378310001
 21
88.81556435569995
 31
0.0
  0
LINE
  5
95305
330
1F
100
AcDbEntity
  8
cut
100
AcDbLine
 10
52.53946378310001
 20
88.81556435569995
 30
0.0
 11
52.34821483420001
 21
88.92381366939998
 31
0.0
  0
LINE
  5
95306
330
1F
100
AcDbEntity
  8
cut
100
AcDbLine
 10
52.34821483420001
 20
88.92381366939998
 30
0.0
 11
52.15563986759996
 21
89.03423402209995
 31
0.0
  0
LINE
  5
95307
330
1F
100
AcDbEntity
  8
cut
100
AcDbLine
 10
52.15563986759996
 20
89.03423402209995
 30
0.0
 11
51.96309456279998
 21
89.14603499729997
 31
0.0
  0
LINE
  5
95308
330
1F
100
AcDbEntity
  8
cut
100
AcDbLine
 10
51.96309456279998
 20
89.14603499729997
 30
0.0
 11
51.77140962419997
 21
89.25872493700001
 31
0.0
  0
LWPOLYLINE
  5
95309
330
1F
100
AcDbEntity
  8
cut
100
AcDbPolyline
 90
        3
 70
     0
 43
0.0
 10
51.77140962419997
 20
89.25872493700001
 10
51.58212321689996
 20
89.3713691886
 10
51.48827474710003
 20
89.42773755859997
  0
LWPOLYLINE
  5
9530A
330
1F
100
AcDbEntity
  8
cut
100
AcDbPolyline
 90
       31
 70
     0
 43
0.0
 10
51.4882751609
 20
89.42773730940002
 10
51.4570947153
 20
89.44722743940003
 10
51.42733084089996
 20
89.46666728810006
 10
51.39898353769996
 20
89.48605685539995
 10
51.37213712239997
 20
89.50541991200003
 10
51.3467072784
 20
89.52473268719996
 10
51.32244105490002
 20
89.54392386920003
 10
51.29932974469994
 20
89.56296374629998
 10
51.27738205509996
 20
89.5818820302
 10
51.2563711574
 20
89.60069654359996
 10
51.23628692369999
 20
89.61939221609998
 10
51.217139482
 20
89.63798411819999
 10
51.1987323876
 20
89.65653528329998
 10
51.1810533949
 20
89.67504230920004
 10
51.16411474950003
 20
89.69350859819995
 10
51.14775674420002
 20
89.7120073914
 10
51.13197005049993
 20
89.7305348153
 10
51.11676399680003
 20
89.7490947434
 10
51.10200686159998
 20
89.7677720383
 10
51.08768244180004
 20
89.78657303080002
 10
51.07380694049999
 20
89.80549139009999
 10
51.06029724559999
 20
89.82459298600003
 10
51.04713413960002
 20
89.84389566009999
 10
51.03433684000004
 20
89.86338157090001
 10
51.02187988669999
 20
89.88306306319998
 10
51.00975999729996
 20
89.90293796880001
 10
50.9979804541
 20
89.92300845580002
 10
50.98652564509997
 20
89.94329337389997
 10
50.97539036619997
 20
89.96379900600004
 10
50.96457982129999
 20
89.98451906899997
 10
50.9540940105
 20
90.00545356310004
  0
LINE
  5
9530B
330
1F
100
AcDbEntity
  8
cut
100
AcDbLine
 10
55.07713380399997
 20
101.5999999989
 30
0.0
 11
62.70000000000004
 21
101.5999999989
 31
0.0
  0
ARC
  5
9530C
330
1F
100
AcDbEntity
  8
cut
100
AcDbCircle
 10
55.07713380399997
 20
99.59999999889999
 30
0.0
 40
2.0
100
AcDbArc
 50
90.0
 51
118.7440561034001
  0
ARC
  5
9530D
330
1F
100
AcDbEntity
  8
cut
100
AcDbCircle
 10
62.70000000000004
 20
100.7999999988999
 30
0.0
 40
0.8
100
AcDbArc
 50
0.0
 51
90.0
  0
DIMENSION
  5
9530E
330
1F
100
AcDbEntity
  8
2
100
AcDbDimension
  2
*D1310
 10
62.70000000000004
 20
100.7999999988999
 30
0.0
 11
83.79581913715243
 21
104.9829925866344
 31
0.0
 70
   164
 71
     5
 42
0.8
  3
コピー - ISO-25
100
AcDbRadialDimension
 15
63.48472222327349
 25
100.9555989458781
 35
0.0
 40
0.0
1001
ACAD
1000
DSTYLE
1002
{
1070
   170
1070
     1
1070
   171
1070
     3
1070
   143
1040
0.0393700787401575
1070
   285
1070
     4
1070
     4
1000
"
1070
   271
1070
     8
1070
    40
1040
1.0
1002
}
1001
ACAD_DSTYLE_DIMRADIAL_EXTENSION
1070
   387
1070
     1
1070
   388
1040
0.0
1070
   390
1040
1.570796326794896
1001
ACAD_DSTYLE_DIMINSPECT
1070
   396
1000

1070
   395
1000

1070
   394
1070
     1
1070
   393
1070
     0
1001
ZWMCAD_GENSTANDARDFRAME_13_
1070
   410
1000
GB
1070
   411
1000
ZwmFrameMain_
  0
VIEWPORT
  5
71
102
{ACAD_XDICTIONARY
360
87B09
102
}
330
55
100
AcDbEntity
 67
     1
  8
0
100
AcDbViewport
 10
150.1652135264906
 20
103.6581106594891
 30
0.0
 40
339.1973820494347
 41
168.6522697578383
 68
     1
 69
    -1
 12
150.1652135264906
 22
103.6581106594891
 13
0.0
 23
0.0
 14
10.0
 24
10.0
 15
10.0
 25
10.0
 16
0.0
 26
0.0
 36
1.0
 17
0.0
 27
0.0
 37
0.0
 42
50.0
 43
0.0
 44
0.0
 45
168.6522697578383
 50
0.0
 51
0.0
 72
  1000
 90
    32864
  1

281
     0
 71
     1
 74
     0
110
0.0
120
0.0
130
0.0
111
1.0
121
0.0
131
0.0
112
0.0
122
1.0
132
0.0
 79
     0
146
0.0
  0
VIEWPORT
  5
73
102
{ACAD_XDICTIONARY
360
87B0B
102
}
330
55
100
AcDbEntity
 67
     1
  8
0
100
AcDbViewport
 10
133.3499939441681
 20
101.5999939441681
 30
0.0
 40
213.3599903106689
 41
162.5599903106689
 68
     2
 69
    -1
 12
210.0
 22
148.5
 13
0.0
 23
0.0
 14
10.0
 24
10.0
 15
10.0
 25
10.0
 16
0.0
 26
0.0
 36
1.0
 17
0.0
 27
0.0
 37
0.0
 42
50.0
 43
0.0
 44
0.0
 45
324.0677920111345
 50
0.0
 51
0.0
 72
   100
 90
    32864
  1

281
     0
 71
     1
 74
     0
110
0.0
120
0.0
130
0.0
111
1.0
121
0.0
131
0.0
112
0.0
122
1.0
132
0.0
 79
     0
146
0.0
  0
ENDSEC
  0
SECTION
  2
OBJECTS
  0
DICTIONARY
  5
C
330
0
100
AcDbDictionary
281
     1
  3
ACAD_2007HEADERVARS_RT
350
953AD
  3
ACAD_CIP_PREVIOUS_PRODUCT_INFO
350
4A3C3
  3
ACAD_COLOR
350
85
  3
ACAD_DETAILVIEWSTYLE
350
4A3BB
  3
ACAD_GROUP
350
D
  3
ACAD_LAYOUT
350
1A
  3
ACAD_MATERIAL
350
84
  3
ACAD_MLEADERSTYLE
350
4A3B7
  3
ACAD_MLINESTYLE
350
17
  3
ACAD_PLOTSETTINGS
350
19
  3
ACAD_PLOTSTYLENAME
350
E
  3
ACAD_SCALELIST
350
4A3A5
  3
ACAD_SECTIONVIEWSTYLE
350
4A3B9
  3
ACAD_TABLESTYLE
350
A1
  3
ACAD_VISUALSTYLE
350
4A38C
  3
ACDB_RECOMPOSE_DATA
350
907A1
  3
ACDBHEADERROUNDTRIPXREC
350
953AA
  3
AcDbVariableDictionary
350
5E
  3
ASE_INDEX_DICTIONARY
350
349E9
  3
DWGPROPS
350
953B0
  0
DICTIONARY
  5
8C34E
330
8
100
AcDbDictionary
280
     1
281
     1
  3
ACAD_XREC_ROUNDTRIP
360
953B6
  0
DICTIONARY
  5
E2
330
2
100
AcDbDictionary
280
     1
281
     1
  3
ACAD_LAYERFILTERS
360
4A339
  3
ACAD_LAYERSTATES
360
3759A
  3
ACLYDICTIONARY
360
4A338
  0
DICTIONARY
  5
4A86C
330
10
100
AcDbDictionary
280
     1
281
     1
  3
ADSK_XREC_LAYER_RECONCILED
360
4A86D
  0
DICTIONARY
  5
4A773
330
4A772
100
AcDbDictionary
280
     1
281
     1
  3
ADSK_XREC_LAYER_RECONCILED
360
4A86E
  0
DICTIONARY
  5
4A775
330
4A774
100
AcDbDictionary
280
     1
281
     1
  3
ADSK_XREC_LAYER_RECONCILED
360
4A86F
  0
DICTIONARY
  5
4A777
330
4A776
100
AcDbDictionary
280
     1
281
     1
  3
ADSK_XREC_LAYER_RECONCILED
360
4A870
  0
DICTIONARY
  5
4A779
330
4A778
100
AcDbDictionary
280
     1
281
     1
  3
ADSK_XREC_LAYER_RECONCILED
360
4A871
  0
DICTIONARY
  5
4A77B
330
4A77A
100
AcDbDictionary
280
     1
281
     1
  3
ADSK_XREC_LAYER_RECONCILED
360
4A872
  0
DICTIONARY
  5
4A77F
330
4A77E
100
AcDbDictionary
280
     1
281
     1
  3
ADSK_XREC_LAYER_RECONCILED
360
4A874
  0
DICTIONARY
  5
4A783
330
4A782
100
AcDbDictionary
280
     1
281
     1
  3
ADSK_XREC_LAYER_RECONCILED
360
4A876
  0
DICTIONARY
  5
8C34C
330
87B52
100
AcDbDictionary
280
     1
281
     1
  3
ACAD_XREC_ROUNDTRIP
360
953B5
  0
DICTIONARY
  5
31EE
330
1F
100
AcDbDictionary
280
     1
281
     1
  3
ACAD_SORTENTS
360
31EF
  0
DICTIONARY
  5
4A6D7
330
4A6D6
100
AcDbDictionary
280
     1
281
     1
  3
ACAD_SORTENTS
360
4A6D8
  0
DICTIONARY
  5
87B05
330
6B
100
AcDbDictionary
280
     1
281
     1
  3
ACAD_XREC_ROUNDTRIP
360
953B3
  0
DICTIONARY
  5
87B07
330
6D
100
AcDbDictionary
280
     1
281
     1
  3
ACAD_XREC_ROUNDTRIP
360
953B4
  0
DICTIONARY
  5
9506E
330
9506D
100
AcDbDictionary
280
     1
281
     1
  3
ACAD_DIMASSOC
360
9506F
  0
DICTIONARY
  5
95071
330
95070
100
AcDbDictionary
280
     1
281
     1
  3
ACAD_DIMASSOC
360
95072
  0
DICTIONARY
  5
95074
330
95073
100
AcDbDictionary
280
     1
281
     1
  3
ACAD_DIMASSOC
360
95075
  0
DICTIONARY
  5
95077
330
95076
100
AcDbDictionary
280
     1
281
     1
  3
ACAD_DIMASSOC
360
95078
  0
DICTIONARY
  5
87B09
330
71
100
AcDbDictionary
280
     1
281
     1
  3
ACAD_XREC_ROUNDTRIP
360
953B1
  0
DICTIONARY
  5
87B0B
330
73
100
AcDbDictionary
280
     1
281
     1
  3
ACAD_XREC_ROUNDTRIP
360
953B2
  0
DICTIONARY
  5
953AD
102
{ACAD_REACTORS
330
C
102
}
330
C
100
AcDbDictionary
281
     1
  3
DIMTFILL
350
953AE
  3
DIMTFILLCLR
350
953AF
  0
XRECORD
  5
4A3C3
102
{ACAD_REACTORS
330
C
102
}
330
C
100
AcDbXrecord
280
     1
300
ACDLT
300
2020
300

  0
DICTIONARY
  5
85
102
{ACAD_REACTORS
330
C
102
}
330
C
100
AcDbDictionary
281
     1
  0
DICTIONARY
  5
4A3BB
102
{ACAD_REACTORS
330
C
102
}
330
C
100
AcDbDictionary
281
     1
  3
Metric50
350
4A3BC
  0
DICTIONARY
  5
D
102
{ACAD_REACTORS
330
C
102
}
330
C
100
AcDbDictionary
281
     1
  0
DICTIONARY
  5
1A
102
{ACAD_REACTORS
330
C
102
}
330
C
100
AcDbDictionary
281
     1
  3
Model
350
22
  3
レイアウト1
350
51
  3
レイアウト2
350
56
  0
DICTIONARY
  5
84
102
{ACAD_REACTORS
330
C
102
}
330
C
100
AcDbDictionary
281
     1
  3
ByBlock
350
4A37C
  3
ByLayer
350
4A374
  3
Global
350
4A384
  0
DICTIONARY
  5
4A3B7
102
{ACAD_REACTORS
330
C
102
}
330
C
100
AcDbDictionary
281
     1
  3
Standard
350
4A3B8
  0
DICTIONARY
  5
17
102
{ACAD_REACTORS
330
C
102
}
330
C
100
AcDbDictionary
281
     1
  3
Standard
350
18
  0
DICTIONARY
  5
19
102
{ACAD_REACTORS
330
C
102
}
330
C
100
AcDbDictionary
281
     1
  0
ACDBDICTIONARYWDFLT
  5
E
102
{ACAD_REACTORS
330
C
102
}
330
C
100
AcDbDictionary
281
     1
  3
Normal
350
F
100
AcDbDictionaryWithDefault
340
F
  0
DICTIONARY
  5
4A3A5
102
{ACAD_REACTORS
330
C
102
}
330
C
100
AcDbDictionary
281
     1
  3
A0
350
4A3A6
  3
A1
350
4A3A7
  3
A2
350
4A3A8
  3
A3
350
4A3A9
  3
A4
350
4A3AA
  3
A5
350
4A3AB
  3
A6
350
4A3AC
  3
A7
350
4A3AD
  3
A8
350
4A3AE
  3
A9
350
4A3AF
  3
B0
350
4A3B0
  3
B1
350
4A3B1
  3
B2
350
4A3B2
  3
B3
350
4A3B3
  3
B4
350
4A3B4
  3
B5
350
4A3B5
  3
B6
350
4A3B6
  0
DICTIONARY
  5
4A3B9
102
{ACAD_REACTORS
330
C
102
}
330
C
100
AcDbDictionary
281
     1
  3
Metric50
350
4A3BA
  0
DICTIONARY
  5
A1
102
{ACAD_REACTORS
330
C
102
}
330
C
100
AcDbDictionary
281
     1
  3
Standard
350
A2
  0
DICTIONARY
  5
4A38C
102
{ACAD_REACTORS
330
C
102
}
330
C
100
AcDbDictionary
281
     1
  3
2dWireframe
350
4A392
  3
Basic
350
4A391
  3
Brighten
350
4A398
  3
ColorChange
350
4A39C
  3
Conceptual
350
4A395
  3
Dim
350
4A397
  3
EdgeColorOff
350
4A3A4
  3
Facepattern
350
4A39B
  3
Flat
350
4A38D
  3
FlatWithEdges
350
4A38E
  3
Gouraud
350
4A38F
  3
GouraudWithEdges
350
4A390
  3
Hidden
350
4A394
  3
JitterOff
350
4A3A2
  3
Linepattern
350
4A39A
  3
OverhangOff
350
4A3A3
  3
Realistic
350
4A396
  3
Shaded
350
4A3A1
  3
Shaded with edges
350
4A3A0
  3
Shades of Gray
350
4A39D
  3
Sketchy
350
4A39E
  3
Thicken
350
4A399
  3
Wireframe
350
4A393
  3
X-Ray
350
4A39F
  0
XRECORD
  5
907A1
102
{ACAD_REACTORS
330
C
102
}
330
C
100
AcDbXrecord
280
     1
 90
        1
330
A2
  0
DICTIONARY
  5
953AA
102
{ACAD_REACTORS
330
C
102
}
330
C
100
AcDbDictionary
281
     1
  3
COLORDICT
350
953AB
  3
MATERIALDICT
350
953AC
  0
DICTIONARY
  5
5E
102
{ACAD_REACTORS
330
C
102
}
330
C
100
AcDbDictionary
281
     1
  3
CANNOSCALE
350
9537E
  3
CMLEADERSTYLE
350
4A6CE
  3
CTABLESTYLE
350
B8
  3
CVIEWDETAILSTYLE
350
4A6CF
  3
CVIEWSECTIONSTYLE
350
4A6D0
  3
DIMASSOC
350
5F
  3
HIDETEXT
350
63
  3
INDEXCTL
350
4A879
  3
LAYEREVAL
350
4A6D4
  3
LAYERNOTIFY
350
4A6D5
  3
LIGHTINGUNITS
350
4A6D3
  3
MSLTSCALE
350
4A6D1
  3
PROJECTNAME
350
31CE
  3
SORTENTS
350
4A878
  3
XCLIPFRAME
350
87AF9
  0
DICTIONARY
  5
349E9
102
{ACAD_REACTORS
330
C
102
}
330
C
100
AcDbDictionary
281
     1
  3
ASEBlockHierarchyIndexRecord
350
349EA
1001
DCO15
1040
1842496176.844
  0
XRECORD
  5
953B0
102
{ACAD_REACTORS
330
C
102
}
330
C
100
AcDbXrecord
280
     1
  1
DWGPROPS COOKIE
  2

  3

  4

  6

  7

  8
zhangnw
  9

300
=
301
=
302
=
303
=
304
=
305
=
306
=
307
=
308
=
309
=
 40
0.0
 41
2455489.391063368
 42
2458948.450872581
  1

 90
        0
  0
XRECORD
  5
953B6
102
{ACAD_REACTORS
330
8C34E
102
}
330
8C34E
100
AcDbXrecord
280
     1
102
VTR_0.000_0.000_1.000_1.000_VISUALSTYLE
340
4A392
102
VTR_0.000_0.000_1.000_1.000_GRIDDISPLAY
 70
     3
102
VTR_0.000_0.000_1.000_1.000_GRIDMAJOR
 70
     5
102
VTR_0.000_0.000_1.000_1.000_DEFAULTLIGHTING
280
     1
102
VTR_0.000_0.000_1.000_1.000_DEFAULTLIGHTINGTYPE
 70
     1
102
VTR_0.000_0.000_1.000_1.000_BRIGHTNESS
141
0.0
102
VTR_0.000_0.000_1.000_1.000_CONTRAST
142
0.0
  0
DICTIONARY
  5
4A339
102
{ACAD_REACTORS
330
E2
102
}
330
E2
100
AcDbDictionary
281
     1
  0
DICTIONARY
  5
3759A
102
{ACAD_REACTORS
330
E2
102
}
330
E2
100
AcDbDictionary
281
     1
  0
DICTIONARY
  5
4A338
102
{ACAD_REACTORS
330
E2
102
}
330
E2
100
AcDbDictionary
281
     1
1001
ACAD
1000
<All
  0
XRECORD
  5
4A86D
102
{ACAD_REACTORS
330
4A86C
102
}
330
4A86C
100
AcDbXrecord
280
     1
290
     1
  0
XRECORD
  5
4A86E
102
{ACAD_REACTORS
330
4A773
102
}
330
4A773
100
AcDbXrecord
280
     1
290
     1
  0
XRECORD
  5
4A86F
102
{ACAD_REACTORS
330
4A775
102
}
330
4A775
100
AcDbXrecord
280
     1
290
     1
  0
XRECORD
  5
4A870
102
{ACAD_REACTORS
330
4A777
102
}
330
4A777
100
AcDbXrecord
280
     1
290
     1
  0
XRECORD
  5
4A871
102
{ACAD_REACTORS
330
4A779
102
}
330
4A779
100
AcDbXrecord
280
     1
290
     1
  0
XRECORD
  5
4A872
102
{ACAD_REACTORS
330
4A77B
102
}
330
4A77B
100
AcDbXrecord
280
     1
290
     1
  0
XRECORD
  5
4A874
102
{ACAD_REACTORS
330
4A77F
102
}
330
4A77F
100
AcDbXrecord
280
     1
290
     1
  0
XRECORD
  5
4A876
102
{ACAD_REACTORS
330
4A783
102
}
330
4A783
100
AcDbXrecord
280
     1
290
     1
  0
XRECORD
  5
953B5
102
{ACAD_REACTORS
330
8C34C
102
}
330
8C34C
100
AcDbXrecord
280
     1
102
MATERIAL
340
4A384
  0
SORTENTSTABLE
  5
31EF
102
{ACAD_REACTORS
330
31EE
102
}
330
31EE
100
AcDbSortentsTable
330
1F
  0
SORTENTSTABLE
  5
4A6D8
102
{ACAD_REACTORS
330
4A6D7
102
}
330
4A6D7
100
AcDbSortentsTable
330
4A6D6
  0
XRECORD
  5
953B3
102
{ACAD_REACTORS
330
87B05
102
}
330
87B05
100
AcDbXrecord
280
     1
102
GRIDDISPLAY
 70
     0
102
GRIDMAJOR
 70
     5
102
DEFAULTLIGHTING
280
     1
102
DEFAULTLIGHTINGTYPE
 70
     1
102
BRIGHTNESS
141
0.0
102
CONTRAST
142
0.0
  0
XRECORD
  5
953B4
102
{ACAD_REACTORS
330
87B07
102
}
330
87B07
100
AcDbXrecord
280
     1
102
GRIDDISPLAY
 70
     0
102
GRIDMAJOR
 70
     5
102
DEFAULTLIGHTING
280
     1
102
DEFAULTLIGHTINGTYPE
 70
     1
102
BRIGHTNESS
141
0.0
102
CONTRAST
142
0.0
  0
DIMASSOC
  5
9506F
102
{ACAD_REACTORS
330
9506E
102
}
330
9506E
100
AcDbDimAssoc
330
9506D
 90
        1
 70
     0
 71
     0
  1
AcDbOsnapPointRef
 72
     1
331
94FC9
 73
     2
 91
        0
 40
3.141592653589792
 10
0.0
 20
0.0
 30
1.999999999999998E+50
 75
     0
  0
DIMASSOC
  5
95072
102
{ACAD_REACTORS
330
95071
102
}
330
95071
100
AcDbDimAssoc
330
95070
 90
        3
 70
     0
 71
     0
  1
AcDbOsnapPointRef
 72
    13
331
94FC9
 73
     2
 91
        0
 40
1.570796326794896
 10
0.0
 20
0.0
 30
1.999999999999998E+50
 75
     0
  1
AcDbOsnapPointRef
 72
     1
331
94EAE
 73
     2
 91
        0
 40
1.0
 10
0.0
 20
0.0
 30
1.999999999999998E+50
 75
     0
  0
DIMASSOC
  5
95075
102
{ACAD_REACTORS
330
95074
102
}
330
95074
100
AcDbDimAssoc
330
95073
 90
        3
 70
     0
 71
     0
  1
AcDbOsnapPointRef
 72
    13
331
95035
 73
     2
 91
        0
 40
0.0
 10
0.0
 20
0.0
 30
1.999999999999998E+50
 75
     0
  1
AcDbOsnapPointRef
 72
    13
331
9504B
 73
     2
 91
        0
 40
0.0
 10
0.0
 20
0.0
 30
1.999999999999998E+50
 75
     0
  0
DIMASSOC
  5
95078
102
{ACAD_REACTORS
330
95077
102
}
330
95077
100
AcDbDimAssoc
330
95076
 90
        3
 70
     0
 71
     0
  1
AcDbOsnapPointRef
 72
    13
331
94FC1
 73
     2
 91
        0
 40
3.141592653589792
 10
0.0
 20
0.0
 30
1.999999999999998E+50
 75
     0
  1
AcDbOsnapPointRef
 72
    13
331
95053
 73
     2
 91
        0
 40
3.141592653589792
 10
0.0
 20
0.0
 30
1.999999999999998E+50
 75
     0
  0
XRECORD
  5
953B1
102
{ACAD_REACTORS
330
87B09
102
}
330
87B09
100
AcDbXrecord
280
     1
102
GRIDDISPLAY
 70
     0
102
GRIDMAJOR
 70
     5
102
DEFAULTLIGHTING
280
     1
102
DEFAULTLIGHTINGTYPE
 70
     1
102
BRIGHTNESS
141
0.0
102
CONTRAST
142
0.0
  0
XRECORD
  5
953B2
102
{ACAD_REACTORS
330
87B0B
102
}
330
87B0B
100
AcDbXrecord
280
     1
102
GRIDDISPLAY
 70
     0
102
GRIDMAJOR
 70
     5
102
DEFAULTLIGHTING
280
     1
102
DEFAULTLIGHTINGTYPE
 70
     1
102
BRIGHTNESS
141
0.0
102
CONTRAST
142
0.0
  0
XRECORD
  5
953AE
102
{ACAD_REACTORS
330
953AD
102
}
330
953AD
100
AcDbXrecord
280
     1
 70
     1
  0
XRECORD
  5
953AF
102
{ACAD_REACTORS
330
953AD
102
}
330
953AD
100
AcDbXrecord
280
     1
1004
1800000001000000000000C1000000000000000000000000
  0
ACDBDETAILVIEWSTYLE
  5
4A3BC
102
{ACAD_XDICTIONARY
360
87B40
102
}
102
{ACAD_REACTORS
330
4A3BB
102
}
330
4A3BB
100
AcDbModelDocViewStyle
 70
     0
  3
Metric50
290
     0
100
AcDbDetailViewStyle
 70
     0
 71
     0
 90
        3
 71
     1
340
11
 40
5.0
340
0
 40
5.0
300

 40
0.0
280
     1
 71
     2
340
16
 90
       25
 71
     3
340
11
 40
5.0
 90
        0
 40
15.0
 90
        1
300
%<\AcVar ViewDetailId>% (%<\AcVar ViewScale \f "%sn">%)
 71
     4
340
16
 90
       25
340
16
 90
       25
280
     0
  0
LAYOUT
  5
22
102
{ACAD_REACTORS
330
1A
102
}
330
1A
100
AcDbPlotSettings
  1

  2
none_device
  4
ANSI_A_(8.50_x_11.00_Inches)
  6

 40
6.349999904632567
 41
19.04999923706055
 42
6.350006103515625
 43
19.04998779296875
 44
215.8999938964844
 45
279.3999938964844
 46
0.0
 47
0.0
 48
0.0
 49
0.0
140
0.0
141
0.0
142
1.0
143
78.436453180766
 70
 11952
 72
     0
 73
     1
 74
     0
  7

 75
     0
147
0.0127491741332998
148
0.0
149
0.0
100
AcDbLayout
  1
Model
 70
     1
 71
     0
 10
0.0
 20
0.0
 11
12.0
 21
9.0
 12
0.0
 22
0.0
 32
0.0
 14
0.0
 24
0.0
 34
0.0
 15
0.0
 25
0.0
 35
0.0
146
0.0
 13
0.0
 23
0.0
 33
0.0
 16
1.0
 26
0.0
 36
0.0
 17
0.0
 27
1.0
 37
0.0
 76
     0
330
1F
331
4A360
  0
LAYOUT
  5
51
102
{ACAD_REACTORS
330
1A
102
}
330
1A
100
AcDbPlotSettings
  1

  2
none_device
  4
Letter_(8.50_x_11.00_Inches)
  6

 40
6.349999904632567
 41
6.349999904632567
 42
6.350006103515625
 43
6.350006103515625
 44
215.8999938964844
 45
279.3999938964844
 46
0.0
 47
0.0
 48
0.0
 49
0.0
140
0.0
141
0.0
142
1.0
143
1.0
 70
   688
 72
     1
 73
     1
 74
     5
  7

 75
    16
147
1.0
148
0.0
149
0.0
100
AcDbLayout
  1
レイアウト1
 70
     1
 71
     1
 10
-6.350006103515625
 20
-6.349999904632567
 11
273.0499877929688
 21
209.5499939918518
 12
0.0
 22
0.0
 32
0.0
 14
26.66999878883364
 24
20.31999878883365
 34
0.0
 15
240.0299890995025
 25
182.8799890995025
 35
0.0
146
0.0
 13
0.0
 23
0.0
 33
0.0
 16
1.0
 26
0.0
 36
0.0
 17
0.0
 27
1.0
 37
0.0
 76
     0
330
50
331
6B
  0
LAYOUT
  5
56
102
{ACAD_REACTORS
330
1A
102
}
330
1A
100
AcDbPlotSettings
  1

  2
none_device
  4
Letter_(8.50_x_11.00_Inches)
  6

 40
6.349999904632567
 41
6.349999904632567
 42
6.350006103515625
 43
6.350006103515625
 44
215.8999938964844
 45
279.3999938964844
 46
0.0
 47
0.0
 48
0.0
 49
0.0
140
0.0
141
0.0
142
1.0
143
1.0
 70
   688
 72
     1
 73
     1
 74
     5
  7

 75
    16
147
1.0
148
0.0
149
0.0
100
AcDbLayout
  1
レイアウト2
 70
     1
 71
     2
 10
-6.350006103515625
 20
-6.349999904632567
 11
273.0499877929688
 21
209.5499939918518
 12
0.0
 22
0.0
 32
0.0
 14
26.66999878883364
 24
20.31999878883365
 34
0.0
 15
240.0299890995025
 25
182.8799890995025
 35
0.0
146
0.0
 13
0.0
 23
0.0
 33
0.0
 16
1.0
 26
0.0
 36
0.0
 17
0.0
 27
1.0
 37
0.0
 76
     0
330
55
331
71
  0
MATERIAL
  5
4A37C
102
{ACAD_XDICTIONARY
360
4A37D
102
}
102
{ACAD_REACTORS
330
84
102
}
330
84
100
AcDbMaterial
  1
ByBlock
 72
     0
 73
     2
 43
0.0008202099737533
 43
0.0
 43
0.0
 43
0.0
 43
0.0
 43
0.0008202099737533
 43
0.0
 43
0.0
 43
0.0
 43
0.0
 43
1.0
 43
0.0
 43
0.0
 43
0.0
 43
0.0
 43
1.0
 77
     0
 78
     2
 47
0.0008202099737533
 47
0.0
 47
0.0
 47
0.0
 47
0.0
 47
0.0008202099737533
 47
0.0
 47
0.0
 47
0.0
 47
0.0
 47
1.0
 47
0.0
 47
0.0
 47
0.0
 47
0.0
 47
1.0
171
     0
172
     2
 49
0.0008202099737533
 49
0.0
 49
0.0
 49
0.0
 49
0.0
 49
0.0008202099737533
 49
0.0
 49
0.0
 49
0.0
 49
0.0
 49
1.0
 49
0.0
 49
0.0
 49
0.0
 49
0.0
 49
1.0
175
     0
176
     2
142
0.0008202099737533
142
0.0
142
0.0
142
0.0
142
0.0
142
0.0008202099737533
142
0.0
142
0.0
142
0.0
142
0.0
142
1.0
142
0.0
142
0.0
142
0.0
142
0.0
142
1.0
179
     0
270
     2
144
0.0008202099737533
144
0.0
144
0.0
144
0.0
144
0.0
144
0.0008202099737533
144
0.0
144
0.0
144
0.0
144
0.0
144
1.0
144
0.0
144
0.0
144
0.0
144
0.0
144
1.0
274
     2
147
0.0008202099737533
147
0.0
147
0.0
147
0.0
147
0.0
147
0.0008202099737533
147
0.0
147
0.0
147
0.0
147
0.0
147
1.0
147
0.0
147
0.0
147
0.0
147
0.0
147
1.0
  0
MATERIAL
  5
4A374
102
{ACAD_XDICTIONARY
360
4A375
102
}
102
{ACAD_REACTORS
330
84
102
}
330
84
100
AcDbMaterial
  1
ByLayer
 72
     0
 73
     2
 43
0.0008202099737533
 43
0.0
 43
0.0
 43
0.0
 43
0.0
 43
0.0008202099737533
 43
0.0
 43
0.0
 43
0.0
 43
0.0
 43
1.0
 43
0.0
 43
0.0
 43
0.0
 43
0.0
 43
1.0
 77
     0
 78
     2
 47
0.0008202099737533
 47
0.0
 47
0.0
 47
0.0
 47
0.0
 47
0.0008202099737533
 47
0.0
 47
0.0
 47
0.0
 47
0.0
 47
1.0
 47
0.0
 47
0.0
 47
0.0
 47
0.0
 47
1.0
171
     0
172
     2
 49
0.0008202099737533
 49
0.0
 49
0.0
 49
0.0
 49
0.0
 49
0.0008202099737533
 49
0.0
 49
0.0
 49
0.0
 49
0.0
 49
1.0
 49
0.0
 49
0.0
 49
0.0
 49
0.0
 49
1.0
175
     0
176
     2
142
0.0008202099737533
142
0.0
142
0.0
142
0.0
142
0.0
142
0.0008202099737533
142
0.0
142
0.0
142
0.0
142
0.0
142
1.0
142
0.0
142
0.0
142
0.0
142
0.0
142
1.0
179
     0
270
     2
144
0.0008202099737533
144
0.0
144
0.0
144
0.0
144
0.0
144
0.0008202099737533
144
0.0
144
0.0
144
0.0
144
0.0
144
1.0
144
0.0
144
0.0
144
0.0
144
0.0
144
1.0
274
     2
147
0.0008202099737533
147
0.0
147
0.0
147
0.0
147
0.0
147
0.0008202099737533
147
0.0
147
0.0
147
0.0
147
0.0
147
1.0
147
0.0
147
0.0
147
0.0
147
0.0
147
1.0
  0
MATERIAL
  5
4A384
102
{ACAD_XDICTIONARY
360
4A385
102
}
102
{ACAD_REACTORS
330
84
102
}
330
84
100
AcDbMaterial
  1
Global
 72
     0
 73
     2
 43
0.0008202099737533
 43
0.0
 43
0.0
 43
0.0
 43
0.0
 43
0.0008202099737533
 43
0.0
 43
0.0
 43
0.0
 43
0.0
 43
1.0
 43
0.0
 43
0.0
 43
0.0
 43
0.0
 43
1.0
 77
     0
 78
     2
 47
0.0008202099737533
 47
0.0
 47
0.0
 47
0.0
 47
0.0
 47
0.0008202099737533
 47
0.0
 47
0.0
 47
0.0
 47
0.0
 47
1.0
 47
0.0
 47
0.0
 47
0.0
 47
0.0
 47
1.0
171
     0
172
     2
 49
0.0008202099737533
 49
0.0
 49
0.0
 49
0.0
 49
0.0
 49
0.0008202099737533
 49
0.0
 49
0.0
 49
0.0
 49
0.0
 49
1.0
 49
0.0
 49
0.0
 49
0.0
 49
0.0
 49
1.0
175
     0
176
     2
142
0.0008202099737533
142
0.0
142
0.0
142
0.0
142
0.0
142
0.0008202099737533
142
0.0
142
0.0
142
0.0
142
0.0
142
1.0
142
0.0
142
0.0
142
0.0
142
0.0
142
1.0
179
     0
270
     2
144
0.0008202099737533
144
0.0
144
0.0
144
0.0
144
0.0
144
0.0008202099737533
144
0.0
144
0.0
144
0.0
144
0.0
144
1.0
144
0.0
144
0.0
144
0.0
144
0.0
144
1.0
274
     2
147
0.0008202099737533
147
0.0
147
0.0
147
0.0
147
0.0
147
0.0008202099737533
147
0.0
147
0.0
147
0.0
147
0.0
147
1.0
147
0.0
147
0.0
147
0.0
147
0.0
147
1.0
  0
MLEADERSTYLE
  5
4A3B8
102
{ACAD_XDICTIONARY
360
8C353
102
}
102
{ACAD_REACTORS
330
4A3B7
102
}
330
4A3B7
100
AcDbMLeaderStyle
170
     2
171
     1
172
     0
 90
        2
 40
0.0
 41
0.0
173
     1
 91
-1056964608
340
14
 92
       -2
290
     1
 42
2.0
291
     1
 43
0.36
  3
Standard
 44
4.0
300

342
11
174
     1
178
     6
175
     1
176
     0
 93
-1056964608
 45
4.0
292
     0
297
     0
 46
4.0
 94
-1056964608
 47
1.0
 49
1.0
140
1.0
293
     1
141
0.0
294
     1
177
     0
142
1.0
295
     0
296
     0
143
0.125
1001
ACAD_MLEADERVER
1070
     2
  0
MLINESTYLE
  5
18
102
{ACAD_REACTORS
330
17
102
}
330
17
100
AcDbMlineStyle
  2
STANDARD
 70
     0
  3

 62
   256
 51
90.0
 52
90.0
 71
     2
 49
0.5
 62
   256
  6
BYLAYER
 49
-0.5
 62
   256
  6
BYLAYER
  0
ACDBPLACEHOLDER
  5
F
102
{ACAD_REACTORS
330
E
102
}
330
E
  0
SCALE
  5
4A3A6
102
{ACAD_REACTORS
330
4A3A5
102
}
330
4A3A5
100
AcDbScale
 70
     0
300
1:1
140
1.0
141
1.0
290
     1
  0
SCALE
  5
4A3A7
102
{ACAD_REACTORS
330
4A3A5
102
}
330
4A3A5
100
AcDbScale
 70
     0
300
1:2
140
1.0
141
2.0
290
     0
  0
SCALE
  5
4A3A8
102
{ACAD_REACTORS
330
4A3A5
102
}
330
4A3A5
100
AcDbScale
 70
     0
300
1:4
140
1.0
141
4.0
290
     0
  0
SCALE
  5
4A3A9
102
{ACAD_REACTORS
330
4A3A5
102
}
330
4A3A5
100
AcDbScale
 70
     0
300
1:5
140
1.0
141
5.0
290
     0
  0
SCALE
  5
4A3AA
102
{ACAD_REACTORS
330
4A3A5
102
}
330
4A3A5
100
AcDbScale
 70
     0
300
1:8
140
1.0
141
8.0
290
     0
  0
SCALE
  5
4A3AB
102
{ACAD_REACTORS
330
4A3A5
102
}
330
4A3A5
100
AcDbScale
 70
     0
300
1:10
140
1.0
141
10.0
290
     0
  0
SCALE
  5
4A3AC
102
{ACAD_REACTORS
330
4A3A5
102
}
330
4A3A5
100
AcDbScale
 70
     0
300
1:16
140
1.0
141
16.0
290
     0
  0
SCALE
  5
4A3AD
102
{ACAD_REACTORS
330
4A3A5
102
}
330
4A3A5
100
AcDbScale
 70
     0
300
1:20
140
1.0
141
20.0
290
     0
  0
SCALE
  5
4A3AE
102
{ACAD_REACTORS
330
4A3A5
102
}
330
4A3A5
100
AcDbScale
 70
     0
300
1:30
140
1.0
141
30.0
290
     0
  0
SCALE
  5
4A3AF
102
{ACAD_REACTORS
330
4A3A5
102
}
330
4A3A5
100
AcDbScale
 70
     0
300
1:40
140
1.0
141
40.0
290
     0
  0
SCALE
  5
4A3B0
102
{ACAD_REACTORS
330
4A3A5
102
}
330
4A3A5
100
AcDbScale
 70
     0
300
1:50
140
1.0
141
50.0
290
     0
  0
SCALE
  5
4A3B1
102
{ACAD_REACTORS
330
4A3A5
102
}
330
4A3A5
100
AcDbScale
 70
     0
300
1:100
140
1.0
141
100.0
290
     0
  0
SCALE
  5
4A3B2
102
{ACAD_REACTORS
330
4A3A5
102
}
330
4A3A5
100
AcDbScale
 70
     0
300
2:1
140
2.0
141
1.0
290
     0
  0
SCALE
  5
4A3B3
102
{ACAD_REACTORS
330
4A3A5
102
}
330
4A3A5
100
AcDbScale
 70
     0
300
4:1
140
4.0
141
1.0
290
     0
  0
SCALE
  5
4A3B4
102
{ACAD_REACTORS
330
4A3A5
102
}
330
4A3A5
100
AcDbScale
 70
     0
300
8:1
140
8.0
141
1.0
290
     0
  0
SCALE
  5
4A3B5
102
{ACAD_REACTORS
330
4A3A5
102
}
330
4A3A5
100
AcDbScale
 70
     0
300
10:1
140
10.0
141
1.0
290
     0
  0
SCALE
  5
4A3B6
102
{ACAD_REACTORS
330
4A3A5
102
}
330
4A3A5
100
AcDbScale
 70
     0
300
100:1
140
100.0
141
1.0
290
     0
  0
ACDBSECTIONVIEWSTYLE
  5
4A3BA
102
{ACAD_XDICTIONARY
360
87B3E
102
}
102
{ACAD_REACTORS
330
4A3B9
102
}
330
4A3B9
100
AcDbModelDocViewStyle
 70
     0
  3
Metric50
290
     0
100
AcDbSectionViewStyle
 70
     0
 71
     0
 90
      102
 71
     1
340
11
 40
5.0
340
0
340
0
 40
5.0
300
I, O, Q, S, X, Z
 40
10.0
 90
        0
 40
2.5
 90
        0
 71
     2
340
16
 90
       25
340
16
 90
       50
 40
5.0
 40
2.5
 40
5.0
 71
     3
340
11
 40
5.0
 90
        0
 40
15.0
 90
        1
300
%<\AcVar ViewSectionStartId>%-%<\AcVar ViewSectionEndId>% (%<\AcVar ViewScale \f "%sn">%)
 71
     4
300
ANSI31
 40
1.0
 90
        0
290
     0
290
     0
 90
        6
 40
0.0
 40
1.570796326794896
 40
0.2617993877991494
 40
1.308996938995747
 40
-0.2617993877991494
 40
1.832595714594044
  0
TABLESTYLE
  5
A2
102
{ACAD_XDICTIONARY
360
4CD9A
102
}
102
{ACAD_REACTORS
330
A1
102
}
330
A1
100
AcDbTableStyle
  3
Standard
 70
     0
 71
     0
 40
1.5
 41
1.5
280
     0
281
     0
  7
Standard
140
4.5
170
     2
 62
     0
 63
   257
283
     0
274
    -2
284
     1
 64
     0
275
    -2
285
     1
 65
     0
276
    -2
286
     1
 66
     0
277
    -2
287
     1
 67
     0
278
    -2
288
     1
 68
     0
279
    -2
289
     1
 69
     0
  7
Standard
140
6.0
170
     5
 62
     0
 63
   257
283
     0
274
    -2
284
     1
 64
     0
275
    -2
285
     1
 65
     0
276
    -2
286
     1
 66
     0
277
    -2
287
     1
 67
     0
278
    -2
288
     1
 68
     0
279
    -2
289
     1
 69
     0
  7
Standard
140
4.5
170
     5
 62
     0
 63
   257
283
     0
274
    -2
284
     1
 64
     0
275
    -2
285
     1
 65
     0
276
    -2
286
     1
 66
     0
277
    -2
287
     1
 67
     0
278
    -2
288
     1
 68
     0
279
    -2
289
     1
 69
     0
  0
VISUALSTYLE
  5
4A392
102
{ACAD_XDICTIONARY
360
87B18
102
}
102
{ACAD_REACTORS
330
4A38C
102
}
330
4A38C
100
AcDbVisualStyle
  2

 70
     4
 71
     0
 72
     2
 73
     0
 90
        0
 40
-0.6
 41
-30.0
 62
     5
 63
     7
 74
     1
 91
        4
 64
     7
 65
   257
 75
     1
175
     1
 42
1.0
 92
        0
 66
   257
 43
1.0
 76
     1
 77
     6
 78
     2
 67
     7
 79
     5
170
     0
171
     0
290
     0
174
     0
 93
        1
 44
0.0
173
     0
291
     0
 45
0.0
1001
ACAD
1000
AcDbSavedByObjectVersion
1070
     0
  0
VISUALSTYLE
  5
4A391
102
{ACAD_XDICTIONARY
360
87B16
102
}
102
{ACAD_REACTORS
330
4A38C
102
}
330
4A38C
100
AcDbVisualStyle
  2

 70
     7
 71
     1
 72
     0
 73
     1
 90
        0
 40
-0.6
 41
-30.0
 62
     5
 63
     7
 74
     0
 91
        4
 64
     7
 65
   257
 75
     1
175
     1
 42
1.0
 92
        8
 66
     7
 43
1.0
 76
     1
 77
     6
 78
     2
 67
     7
 79
     5
170
     0
171
     0
290
     0
174
     0
 93
        1
 44
0.0
173
     0
291
     1
 45
0.0
1001
ACAD
1000
AcDbSavedByObjectVersion
1070
     0
  0
VISUALSTYLE
  5
4A398
102
{ACAD_XDICTIONARY
360
87B24
102
}
102
{ACAD_REACTORS
330
4A38C
102
}
330
4A38C
100
AcDbVisualStyle
  2

 70
    12
 71
     2
 72
     2
 73
     0
 90
        0
 40
-0.6
 41
-30.0
 62
     5
 63
     7
 74
     1
 91
        4
 64
     7
 65
   257
 75
     1
175
     1
 42
1.0
 92
        8
 66
     7
 43
1.0
 76
     1
 77
     6
 78
     2
 67
     7
 79
     5
170
     0
171
     0
290
     0
174
     0
 93
        1
 44
50.0
173
     0
291
     1
 45
0.0
1001
ACAD
1000
AcDbSavedByObjectVersion
1070
     0
  0
VISUALSTYLE
  5
4A39C
102
{ACAD_XDICTIONARY
360
87B2C
102
}
102
{ACAD_REACTORS
330
4A38C
102
}
330
4A38C
100
AcDbVisualStyle
  2

 70
    16
 71
     2
 72
     2
 73
     3
 90
        0
 40
-0.6
 41
-30.0
 62
     5
 63
     8
 74
     1
 91
        4
 64
     7
 65
   257
 75
     1
175
     1
 42
1.0
 92
        8
 66
     8
 43
1.0
 76
     1
 77
     6
 78
     2
 67
     7
 79
     5
170
     0
171
     0
290
     0
174
     0
 93
        1
 44
0.0
173
     0
291
     1
 45
0.0
1001
ACAD
1000
AcDbSavedByObjectVersion
1070
     0
  0
VISUALSTYLE
  5
4A395
102
{ACAD_XDICTIONARY
360
87B1E
102
}
102
{ACAD_REACTORS
330
4A38C
102
}
330
4A38C
100
AcDbVisualStyle
  2

 70
     9
 71
     3
 72
     2
 73
     0
 90
        0
 40
-0.6
 41
-30.0
 62
     5
 63
     7
 74
     2
 91
        2
 64
     7
 65
   257
 75
     1
175
     1
 42
179.0
 92
        8
 66
     7
 43
1.0
 76
     1
 77
     6
 78
     2
 67
     7
 79
     3
170
     0
171
     0
290
     0
174
     0
 93
        1
 44
0.0
173
     0
291
     0
 45
0.0
1001
ACAD
1000
AcDbSavedByObjectVersion
1070
     0
  0
VISUALSTYLE
  5
4A397
102
{ACAD_XDICTIONARY
360
87B22
102
}
102
{ACAD_REACTORS
330
4A38C
102
}
330
4A38C
100
AcDbVisualStyle
  2

 70
    11
 71
     2
 72
     2
 73
     0
 90
        0
 40
-0.6
 41
-30.0
 62
     5
 63
     7
 74
     1
 91
        4
 64
     7
 65
   257
 75
     1
175
     1
 42
1.0
 92
        8
 66
     7
 43
1.0
 76
     1
 77
     6
 78
     2
 67
     7
 79
     5
170
     0
171
     0
290
     0
174
     0
 93
        1
 44
-50.0
173
     0
291
     1
 45
0.0
1001
ACAD
1000
AcDbSavedByObjectVersion
1070
     0
  0
VISUALSTYLE
  5
4A3A4
102
{ACAD_XDICTIONARY
360
87B3C
102
}
102
{ACAD_REACTORS
330
4A38C
102
}
330
4A38C
100
AcDbVisualStyle
  2

 70
    22
 71
     2
 72
     2
 73
     0
 90
        0
 40
-0.6
 41
-30.0
 62
     5
 63
     7
 74
     1
 91
        4
 64
     7
 65
   257
 75
     1
175
     1
 42
1.0
 92
        8
 66
     7
 43
1.0
 76
     1
 77
     6
 78
     2
 67
     7
 79
     5
170
     0
171
     0
290
     0
174
     0
 93
        1
 44
0.0
173
     0
291
     1
 45
0.0
1001
ACAD
1000
AcDbSavedByObjectVersion
1070
     0
  0
VISUALSTYLE
  5
4A39B
102
{ACAD_XDICTIONARY
360
87B2A
102
}
102
{ACAD_REACTORS
330
4A38C
102
}
330
4A38C
100
AcDbVisualStyle
  2

 70
    15
 71
     2
 72
     2
 73
     0
 90
        0
 40
-0.6
 41
-30.0
 62
     5
 63
     7
 74
     1
 91
        4
 64
     7
 65
   257
 75
     1
175
     1
 42
1.0
 92
        8
 66
     7
 43
1.0
 76
     1
 77
     6
 78
     2
 67
     7
 79
     5
170
     0
171
     0
290
     0
174
     0
 93
        1
 44
0.0
173
     0
291
     1
 45
0.0
1001
ACAD
1000
AcDbSavedByObjectVersion
1070
     0
  0
VISUALSTYLE
  5
4A38D
102
{ACAD_XDICTIONARY
360
87B0E
102
}
102
{ACAD_REACTORS
330
4A38C
102
}
330
4A38C
100
AcDbVisualStyle
  2

 70
     0
 71
     2
 72
     1
 73
     1
 90
        2
 40
-0.6
 41
30.0
 62
     5
 63
     7
 74
     0
 91
        0
 64
     7
 65
   257
 75
     1
175
     1
 42
1.0
 92
        8
 66
     7
 43
1.0
 76
     1
 77
     6
 78
     2
 67
     7
 79
     5
170
     0
171
     0
290
     0
174
     0
 93
       13
 44
0.0
173
     0
291
     1
 45
0.0
1001
ACAD
1000
AcDbSavedByObjectVersion
1070
     0
  0
VISUALSTYLE
  5
4A38E
102
{ACAD_XDICTIONARY
360
87B10
102
}
102
{ACAD_REACTORS
330
4A38C
102
}
330
4A38C
100
AcDbVisualStyle
  2

 70
     1
 71
     2
 72
     1
 73
     1
 90
        2
 40
-0.6
 41
30.0
 62
     5
 63
     7
 74
     1
 91
        0
 64
     7
 65
   257
 75
     1
175
     1
 42
1.0
 92
        0
 66
   257
 43
1.0
 76
     1
 77
     6
 78
     2
 67
     7
 79
     5
170
     0
171
     0
290
     0
174
     0
 93
       13
 44
0.0
173
     0
291
     1
 45
0.0
1001
ACAD
1000
AcDbSavedByObjectVersion
1070
     0
  0
VISUALSTYLE
  5
4A38F
102
{ACAD_XDICTIONARY
360
87B12
102
}
102
{ACAD_REACTORS
330
4A38C
102
}
330
4A38C
100
AcDbVisualStyle
  2

 70
     2
 71
     2
 72
     2
 73
     1
 90
        2
 40
-0.6
 41
30.0
 62
     5
 63
     7
 74
     0
 91
        0
 64
     7
 65
   257
 75
     1
175
     1
 42
1.0
 92
        0
 66
     7
 43
1.0
 76
     1
 77
     6
 78
     2
 67
     7
 79
     5
170
     0
171
     0
290
     0
174
     0
 93
       13
 44
0.0
173
     0
291
     1
 45
0.0
1001
ACAD
1000
AcDbSavedByObjectVersion
1070
     0
  0
VISUALSTYLE
  5
4A390
102
{ACAD_XDICTIONARY
360
87B14
102
}
102
{ACAD_REACTORS
330
4A38C
102
}
330
4A38C
100
AcDbVisualStyle
  2

 70
     3
 71
     2
 72
     2
 73
     1
 90
        2
 40
-0.6
 41
30.0
 62
     5
 63
     7
 74
     1
 91
        0
 64
     7
 65
   257
 75
     1
175
     1
 42
1.0
 92
        0
 66
   257
 43
1.0
 76
     1
 77
     6
 78
     2
 67
     7
 79
     5
170
     0
171
     0
290
     0
174
     0
 93
       13
 44
0.0
173
     0
291
     1
 45
0.0
1001
ACAD
1000
AcDbSavedByObjectVersion
1070
     0
  0
VISUALSTYLE
  5
4A394
102
{ACAD_XDICTIONARY
360
87B1C
102
}
102
{ACAD_REACTORS
330
4A38C
102
}
330
4A38C
100
AcDbVisualStyle
  2

 70
     6
 71
     1
 72
     2
 73
     2
 90
        0
 40
-0.6
 41
-30.0
 62
     5
 63
     7
 74
     2
 91
        2
 64
     7
 65
   257
 75
     2
175
     1
 42
40.0
 92
        0
 66
   257
 43
1.0
 76
     1
 77
     6
 78
     2
 67
     7
 79
     3
170
     0
171
     0
290
     0
174
     0
 93
        1
 44
0.0
173
     0
291
     0
 45
0.0
1001
ACAD
1000
AcDbSavedByObjectVersion
1070
     0
  0
VISUALSTYLE
  5
4A3A2
102
{ACAD_XDICTIONARY
360
87B38
102
}
102
{ACAD_REACTORS
330
4A38C
102
}
330
4A38C
100
AcDbVisualStyle
  2

 70
    20
 71
     2
 72
     2
 73
     0
 90
        0
 40
-0.6
 41
-30.0
 62
     5
 63
     7
 74
     1
 91
        4
 64
     7
 65
   257
 75
     1
175
     1
 42
1.0
 92
       10
 66
     7
 43
1.0
 76
     1
 77
     6
 78
     2
 67
     7
 79
     5
170
     0
171
     0
290
     0
174
     0
 93
        1
 44
0.0
173
     0
291
     1
 45
0.0
1001
ACAD
1000
AcDbSavedByObjectVersion
1070
     0
  0
VISUALSTYLE
  5
4A39A
102
{ACAD_XDICTIONARY
360
87B28
102
}
102
{ACAD_REACTORS
330
4A38C
102
}
330
4A38C
100
AcDbVisualStyle
  2

 70
    14
 71
     2
 72
     2
 73
     0
 90
        0
 40
-0.6
 41
-30.0
 62
     5
 63
     7
 74
     1
 91
        4
 64
     7
 65
   257
 75
     7
175
     7
 42
1.0
 92
        8
 66
     7
 43
1.0
 76
     1
 77
     6
 78
     2
 67
     7
 79
     5
170
     0
171
     0
290
     0
174
     0
 93
        1
 44
0.0
173
     0
291
     1
 45
0.0
1001
ACAD
1000
AcDbSavedByObjectVersion
1070
     0
  0
VISUALSTYLE
  5
4A3A3
102
{ACAD_XDICTIONARY
360
87B3A
102
}
102
{ACAD_REACTORS
330
4A38C
102
}
330
4A38C
100
AcDbVisualStyle
  2

 70
    21
 71
     2
 72
     2
 73
     0
 90
        0
 40
-0.6
 41
-30.0
 62
     5
 63
     7
 74
     1
 91
        4
 64
     7
 65
   257
 75
     1
175
     1
 42
1.0
 92
        9
 66
     7
 43
1.0
 76
     1
 77
     6
 78
     2
 67
     7
 79
     5
170
     0
171
     0
290
     0
174
     0
 93
        1
 44
0.0
173
     0
291
     1
 45
0.0
1001
ACAD
1000
AcDbSavedByObjectVersion
1070
     0
  0
VISUALSTYLE
  5
4A396
102
{ACAD_XDICTIONARY
360
87B20
102
}
102
{ACAD_REACTORS
330
4A38C
102
}
330
4A38C
100
AcDbVisualStyle
  2

 70
     8
 71
     2
 72
     3
 73
     0
 90
        2
 40
-0.6
 41
30.0
 62
     5
 63
     7
 74
     0
 91
        0
 64
     7
 65
   257
 75
     1
175
     1
 42
1.0
 92
        8
 66
   257
 43
1.0
 76
     1
 77
     6
 78
     2
 67
     7
 79
     3
170
     0
171
     0
290
     0
174
     0
 93
       13
 44
0.0
173
     0
291
     0
 45
0.0
1001
ACAD
1000
AcDbSavedByObjectVersion
1070
     0
  0
VISUALSTYLE
  5
4A3A1
102
{ACAD_XDICTIONARY
360
87B36
102
}
102
{ACAD_REACTORS
330
4A38C
102
}
330
4A38C
100
AcDbVisualStyle
  2

 70
    27
 71
     2
 72
     2
 73
     1
 90
        2
 40
-0.6
 41
30.0
 62
     5
 63
     7
 74
     0
 91
        4
 64
     7
 65
   257
 75
     1
175
     1
 42
1.0
 92
        8
 66
   257
 43
1.0
 76
     1
 77
     6
 78
     2
 67
     8
 79
     3
170
     0
171
     0
290
     0
174
     0
 93
        5
 44
0.0
173
     0
291
     0
 45
0.0
1001
ACAD
1000
AcDbSavedByObjectVersion
1070
     0
  0
VISUALSTYLE
  5
4A3A0
102
{ACAD_XDICTIONARY
360
87B34
102
}
102
{ACAD_REACTORS
330
4A38C
102
}
330
4A38C
100
AcDbVisualStyle
  2

 70
    26
 71
     2
 72
     2
 73
     1
 90
        2
 40
-0.6
 41
30.0
 62
     5
 63
     7
 74
     1
 91
        2
 64
     7
 65
   257
 75
     2
175
     1
 42
1.0
 92
        8
 66
   257
 43
1.0
 76
     1
 77
     6
 78
     2
 67
     7
 79
     3
170
     0
171
     0
290
     0
174
     0
 93
        5
 44
0.0
173
     0
291
     0
 45
0.0
1001
ACAD
1000
AcDbSavedByObjectVersion
1070
     0
  0
VISUALSTYLE
  5
4A39D
102
{ACAD_XDICTIONARY
360
87B2E
102
}
102
{ACAD_REACTORS
330
4A38C
102
}
330
4A38C
100
AcDbVisualStyle
  2

 70
    23
 71
     2
 72
     2
 73
     3
 90
        0
 40
-0.6
 41
-30.0
 62
     5
 63
     7
 74
     2
 91
        2
 64
     7
 65
     7
 75
     1
175
     1
 42
40.0
 92
        8
 66
     7
 43
1.0
 76
     1
 77
     6
 78
     2
 67
     7
 79
     3
170
     0
171
     0
290
     0
174
     0
 93
        1
 44
0.0
173
     0
291
     0
 45
0.0
1001
ACAD
1000
AcDbSavedByObjectVersion
1070
     0
  0
VISUALSTYLE
  5
4A39E
102
{ACAD_XDICTIONARY
360
87B30
102
}
102
{ACAD_REACTORS
330
4A38C
102
}
330
4A38C
100
AcDbVisualStyle
  2

 70
    24
 71
     1
 72
     2
 73
     2
 90
        0
 40
-0.6
 41
-30.0
 62
     5
 63
     7
 74
     2
 91
        2
 64
     7
 65
     7
 75
     1
175
     1
 42
40.0
 92
       11
 66
     7
 43
1.0
 76
     1
 77
     6
 78
     2
 67
     7
 79
     6
170
     0
171
     0
290
     0
174
     0
 93
        1
 44
0.0
173
     0
291
     0
 45
0.0
1001
ACAD
1000
AcDbSavedByObjectVersion
1070
     0
  0
VISUALSTYLE
  5
4A399
102
{ACAD_XDICTIONARY
360
87B26
102
}
102
{ACAD_REACTORS
330
4A38C
102
}
330
4A38C
100
AcDbVisualStyle
  2

 70
    13
 71
     2
 72
     2
 73
     0
 90
        0
 40
-0.6
 41
-30.0
 62
     5
 63
     7
 74
     1
 91
        4
 64
     7
 65
   257
 75
     1
175
     1
 42
1.0
 92
       12
 66
     7
 43
1.0
 76
     1
 77
     6
 78
     2
 67
     7
 79
     5
170
     0
171
     0
290
     0
174
     0
 93
        1
 44
0.0
173
     0
291
     1
 45
0.0
1001
ACAD
1000
AcDbSavedByObjectVersion
1070
     0
  0
VISUALSTYLE
  5
4A393
102
{ACAD_XDICTIONARY
360
87B1A
102
}
102
{ACAD_REACTORS
330
4A38C
102
}
330
4A38C
100
AcDbVisualStyle
  2

 70
     5
 71
     0
 72
     2
 73
     0
 90
        0
 40
-0.6
 41
-30.0
 62
     5
 63
     7
 74
     1
 91
        4
 64
     7
 65
   257
 75
     1
175
     1
 42
1.0
 92
        0
 66
   257
 43
1.0
 76
     1
 77
     6
 78
     2
 67
     7
 79
     3
170
     0
171
     0
290
     0
174
     0
 93
        1
 44
0.0
173
     0
291
     0
 45
0.0
1001
ACAD
1000
AcDbSavedByObjectVersion
1070
     0
  0
VISUALSTYLE
  5
4A39F
102
{ACAD_XDICTIONARY
360
87B32
102
}
102
{ACAD_REACTORS
330
4A38C
102
}
330
4A38C
100
AcDbVisualStyle
  2

 70
    25
 71
     2
 72
     2
 73
     1
 90
        1
 40
0.5
 41
-30.0
 62
     5
 63
     7
 74
     1
 91
        0
 64
     7
 65
   257
 75
     1
175
     1
 42
1.0
 92
        8
 66
     7
 43
1.0
 76
     1
 77
     6
 78
     2
 67
     7
 79
     3
170
     0
171
     0
290
     0
174
     0
 93
       13
 44
0.0
173
     0
291
     0
 45
0.0
1001
ACAD
1000
AcDbSavedByObjectVersion
1070
     0
  0
XRECORD
  5
953AB
102
{ACAD_REACTORS
330
953AA
102
}
330
953AA
100
AcDbXrecord
280
     1
340
85
  0
XRECORD
  5
953AC
102
{ACAD_REACTORS
330
953AA
102
}
330
953AA
100
AcDbXrecord
280
     1
340
84
  0
DICTIONARYVAR
  5
9537E
102
{ACAD_REACTORS
330
5E
102
}
330
5E
100
DictionaryVariables
280
   100
  1
1:1
  0
DICTIONARYVAR
  5
4A6CE
102
{ACAD_REACTORS
330
5E
102
}
330
5E
100
DictionaryVariables
280
     0
  1
STANDARD
  0
DICTIONARYVAR
  5
B8
102
{ACAD_REACTORS
330
5E
102
}
330
5E
100
DictionaryVariables
280
     0
  1
STANDARD
  0
DICTIONARYVAR
  5
4A6CF
102
{ACAD_REACTORS
330
5E
102
}
330
5E
100
DictionaryVariables
280
     0
  1
Metric50
  0
DICTIONARYVAR
  5
4A6D0
102
{ACAD_REACTORS
330
5E
102
}
330
5E
100
DictionaryVariables
280
     0
  1
Metric50
  0
DICTIONARYVAR
  5
5F
102
{ACAD_REACTORS
330
5E
102
}
330
5E
100
DictionaryVariables
280
     0
  1
2
  0
DICTIONARYVAR
  5
63
102
{ACAD_REACTORS
330
5E
102
}
330
5E
100
DictionaryVariables
280
     0
  1
1
  0
DICTIONARYVAR
  5
4A879
102
{ACAD_REACTORS
330
5E
102
}
330
5E
100
DictionaryVariables
280
     0
  1
0
  0
DICTIONARYVAR
  5
4A6D4
102
{ACAD_REACTORS
330
5E
102
}
330
5E
100
DictionaryVariables
280
     0
  1
1
  0
DICTIONARYVAR
  5
4A6D5
102
{ACAD_REACTORS
330
5E
102
}
330
5E
100
DictionaryVariables
280
     0
  1
15
  0
DICTIONARYVAR
  5
4A6D3
102
{ACAD_REACTORS
330
5E
102
}
330
5E
100
DictionaryVariables
280
     0
  1
0
  0
DICTIONARYVAR
  5
4A6D1
102
{ACAD_REACTORS
330
5E
102
}
330
5E
100
DictionaryVariables
280
     0
  1
0
  0
DICTIONARYVAR
  5
31CE
102
{ACAD_REACTORS
330
5E
102
}
330
5E
100
DictionaryVariables
280
     0
  1

  0
DICTIONARYVAR
  5
4A878
102
{ACAD_REACTORS
330
5E
102
}
330
5E
100
DictionaryVariables
280
     0
  1
127
  0
DICTIONARYVAR
  5
87AF9
102
{ACAD_REACTORS
330
5E
102
}
330
5E
100
DictionaryVariables
280
     0
  1
2
  0
XRECORD
  5
349EA
102
{ACAD_REACTORS
330
349E9
102
}
330
349E9
100
AcDbXrecord
280
     1
330
0
330
0
330
0
330
0
330
0
330
0
330
0
330
0
330
0
330
0
330
0
330
0
330
0
330
0
330
0
330
0
330
0
330
0
330
0
330
0
330
0
330
0
330
0
330
0
330
0
330
0
330
0
330
0
330
0
330
0
330
0
330
0
330
0
330
0
330
0
330
0
330
0
330
0
330
0
330
0
330
0
330
0
330
0
330
0
330
0
330
0
330
0
330
0
330
0
330
0
330
0
330
0
330
0
330
0
330
0
330
0
330
0
330
0
330
0
330
0
330
0
330
0
330
0
330
0
330
0
330
0
330
0
330
0
330
0
330
0
330
0
330
0
330
0
330
0
330
0
330
0
330
0
330
0
330
0
330
0
330
0
330
0
330
0
330
0
330
0
330
0
330
0
330
0
330
0
330
0
330
0
330
0
330
0
330
0
330
0
330
0
330
0
330
0
330
0
330
0
330
0
330
0
330
0
330
0
330
0
330
0
330
0
330
0
330
0
330
0
  0
DICTIONARY
  5
87B40
330
4A3BC
100
AcDbDictionary
280
     1
281
     1
  3
ACAD_XREC_ROUNDTRIP
360
87B41
  0
DICTIONARY
  5
4A37D
330
4A37C
100
AcDbDictionary
280
     1
281
     1
  3
ACAD_XREC_ROUNDTRIP
360
953B7
  0
DICTIONARY
  5
4A375
330
4A374
100
AcDbDictionary
280
     1
281
     1
  3
ACAD_XREC_ROUNDTRIP
360
953B8
  0
DICTIONARY
  5
4A385
330
4A384
100
AcDbDictionary
280
     1
281
     1
  3
ACAD_XREC_ROUNDTRIP
360
953B9
  0
DICTIONARY
  5
8C353
330
4A3B8
100
AcDbDictionary
280
     1
281
     1
  3
ACAD_XREC_ROUNDTRIP
360
953BA
  0
DICTIONARY
  5
87B3E
330
4A3BA
100
AcDbDictionary
280
     1
281
     1
  3
ACAD_XREC_ROUNDTRIP
360
87B3F
  0
DICTIONARY
  5
4CD9A
330
A2
100
AcDbDictionary
280
     1
281
     1
  3
ACAD_ROUNDTRIP_2008_TABLESTYLE_CELLSTYLEMAP
360
953BC
  3
ACAD_XREC_ROUNDTRIP
360
953BB
  0
DICTIONARY
  5
87B18
330
4A392
100
AcDbDictionary
280
     1
281
     1
  3
ACAD_XREC_ROUNDTRIP
360
953BD
  0
DICTIONARY
  5
87B16
330
4A391
100
AcDbDictionary
280
     1
281
     1
  3
ACAD_XREC_ROUNDTRIP
360
953BE
  0
DICTIONARY
  5
87B24
330
4A398
100
AcDbDictionary
280
     1
281
     1
  3
ACAD_XREC_ROUNDTRIP
360
953BF
  0
DICTIONARY
  5
87B2C
330
4A39C
100
AcDbDictionary
280
     1
281
     1
  3
ACAD_XREC_ROUNDTRIP
360
953C0
  0
DICTIONARY
  5
87B1E
330
4A395
100
AcDbDictionary
280
     1
281
     1
  3
ACAD_XREC_ROUNDTRIP
360
953C1
  0
DICTIONARY
  5
87B22
330
4A397
100
AcDbDictionary
280
     1
281
     1
  3
ACAD_XREC_ROUNDTRIP
360
953C2
  0
DICTIONARY
  5
87B3C
330
4A3A4
100
AcDbDictionary
280
     1
281
     1
  3
ACAD_XREC_ROUNDTRIP
360
953C3
  0
DICTIONARY
  5
87B2A
330
4A39B
100
AcDbDictionary
280
     1
281
     1
  3
ACAD_XREC_ROUNDTRIP
360
953C4
  0
DICTIONARY
  5
87B0E
330
4A38D
100
AcDbDictionary
280
     1
281
     1
  3
ACAD_XREC_ROUNDTRIP
360
953C5
  0
DICTIONARY
  5
87B10
330
4A38E
100
AcDbDictionary
280
     1
281
     1
  3
ACAD_XREC_ROUNDTRIP
360
953C6
  0
DICTIONARY
  5
87B12
330
4A38F
100
AcDbDictionary
280
     1
281
     1
  3
ACAD_XREC_ROUNDTRIP
360
953C7
  0
DICTIONARY
  5
87B14
330
4A390
100
AcDbDictionary
280
     1
281
     1
  3
ACAD_XREC_ROUNDTRIP
360
953C8
  0
DICTIONARY
  5
87B1C
330
4A394
100
AcDbDictionary
280
     1
281
     1
  3
ACAD_XREC_ROUNDTRIP
360
953C9
  0
DICTIONARY
  5
87B38
330
4A3A2
100
AcDbDictionary
280
     1
281
     1
  3
ACAD_XREC_ROUNDTRIP
360
953CA
  0
DICTIONARY
  5
87B28
330
4A39A
100
AcDbDictionary
280
     1
281
     1
  3
ACAD_XREC_ROUNDTRIP
360
953CB
  0
DICTIONARY
  5
87B3A
330
4A3A3
100
AcDbDictionary
280
     1
281
     1
  3
ACAD_XREC_ROUNDTRIP
360
953CC
  0
DICTIONARY
  5
87B20
330
4A396
100
AcDbDictionary
280
     1
281
     1
  3
ACAD_XREC_ROUNDTRIP
360
953CD
  0
DICTIONARY
  5
87B36
330
4A3A1
100
AcDbDictionary
280
     1
281
     1
  3
ACAD_XREC_ROUNDTRIP
360
953CE
  0
DICTIONARY
  5
87B34
330
4A3A0
100
AcDbDictionary
280
     1
281
     1
  3
ACAD_XREC_ROUNDTRIP
360
953CF
  0
DICTIONARY
  5
87B2E
330
4A39D
100
AcDbDictionary
280
     1
281
     1
  3
ACAD_XREC_ROUNDTRIP
360
953D0
  0
DICTIONARY
  5
87B30
330
4A39E
100
AcDbDictionary
280
     1
281
     1
  3
ACAD_XREC_ROUNDTRIP
360
953D1
  0
DICTIONARY
  5
87B26
330
4A399
100
AcDbDictionary
280
     1
281
     1
  3
ACAD_XREC_ROUNDTRIP
360
953D2
  0
DICTIONARY
  5
87B1A
330
4A393
100
AcDbDictionary
280
     1
281
     1
  3
ACAD_XREC_ROUNDTRIP
360
953D3
  0
DICTIONARY
  5
87B32
330
4A39F
100
AcDbDictionary
280
     1
281
     1
  3
ACAD_XREC_ROUNDTRIP
360
953D4
  0
XRECORD
  5
87B41
102
{ACAD_REACTORS
330
87B40
102
}
330
87B40
100
AcDbXrecord
280
     1
102
DISPLAYNAME
  1
Metric50
102
FLAGS
 90
        0
  0
XRECORD
  5
953B7
102
{ACAD_REACTORS
330
4A37D
102
}
330
4A37D
100
AcDbXrecord
280
     1
102
MATERIAL
148
0.0
149
0.0
149
0.0
 93
        0
 94
      127
282
     0
 72
     0
 77
     0
171
     0
175
     0
179
     0
273
     0
  0
XRECORD
  5
953B8
102
{ACAD_REACTORS
330
4A375
102
}
330
4A375
100
AcDbXrecord
280
     1
102
MATERIAL
148
0.0
149
0.0
149
0.0
 93
        0
 94
      127
282
     0
 72
     0
 77
     0
171
     0
175
     0
179
     0
273
     0
  0
XRECORD
  5
953B9
102
{ACAD_REACTORS
330
4A385
102
}
330
4A385
100
AcDbXrecord
280
     1
102
MATERIAL
148
0.0
149
0.0
149
0.0
 93
        0
 94
      127
282
     0
 72
     0
 77
     0
171
     0
175
     0
179
     0
273
     0
  0
XRECORD
  5
953BA
102
{ACAD_REACTORS
330
8C353
102
}
330
8C353
100
AcDbXrecord
280
     1
102
ACAD_ROUNDTRIP_2010_MLEADER_STYLE
  0
XRECORD
  5
87B3F
102
{ACAD_REACTORS
330
87B3E
102
}
330
87B3E
100
AcDbXrecord
280
     1
102
DISPLAYNAME
  1
Metric50
102
FLAGS
 90
        0
  0
CELLSTYLEMAP
  5
953BC
102
{ACAD_REACTORS
330
4CD9A
102
}
330
4CD9A
100
AcDbCellStyleMap
 90
        3
300
CELLSTYLE
  1
TABLEFORMAT_BEGIN
 90
        5
170
     1
 91
        0
 92
    32768
 62
   257
 93
        1
300
CONTENTFORMAT
  1
CONTENTFORMAT_BEGIN
 90
        0
 91
        0
 92
        4
 93
        0
300

 40
0.0
140
1.0
 94
        5
 62
     0
340
11
144
6.0
309
CONTENTFORMAT_END
171
     1
301
MARGIN
  1
CELLMARGIN_BEGIN
 40
1.5
 40
1.5
 40
1.5
 40
1.5
 40
0.18
 40
0.18
309
CELLMARGIN_END
 94
        6
 95
        1
302
GRIDFORMAT
  1
GRIDFORMAT_BEGIN
 90
        0
 91
        1
 62
     0
 92
       -2
340
0
 93
        0
 40
0.045
309
GRIDFORMAT_END
 95
        2
302
GRIDFORMAT
  1
GRIDFORMAT_BEGIN
 90
        0
 91
        1
 62
     0
 92
       -2
340
0
 93
        0
 40
0.045
309
GRIDFORMAT_END
 95
        4
302
GRIDFORMAT
  1
GRIDFORMAT_BEGIN
 90
        0
 91
        1
 62
     0
 92
       -2
340
0
 93
        0
 40
0.045
309
GRIDFORMAT_END
 95
        8
302
GRIDFORMAT
  1
GRIDFORMAT_BEGIN
 90
        0
 91
        1
 62
     0
 92
       -2
340
0
 93
        0
 40
0.045
309
GRIDFORMAT_END
 95
       16
302
GRIDFORMAT
  1
GRIDFORMAT_BEGIN
 90
        0
 91
        1
 62
     0
 92
       -2
340
0
 93
        0
 40
0.045
309
GRIDFORMAT_END
 95
       32
302
GRIDFORMAT
  1
GRIDFORMAT_BEGIN
 90
        0
 91
        1
 62
     0
 92
       -2
340
0
 93
        0
 40
0.045
309
GRIDFORMAT_END
309
TABLEFORMAT_END
  1
CELLSTYLE_BEGIN
 90
        1
 91
        1
300
_TITLE
309
CELLSTYLE_END
300
CELLSTYLE
  1
TABLEFORMAT_BEGIN
 90
        5
170
     1
 91
        0
 92
        0
 62
   257
 93
        1
300
CONTENTFORMAT
  1
CONTENTFORMAT_BEGIN
 90
        0
 91
        0
 92
        4
 93
        0
300

 40
0.0
140
1.0
 94
        5
 62
     0
340
11
144
4.5
309
CONTENTFORMAT_END
171
     1
301
MARGIN
  1
CELLMARGIN_BEGIN
 40
1.5
 40
1.5
 40
1.5
 40
1.5
 40
0.18
 40
0.18
309
CELLMARGIN_END
 94
        6
 95
        1
302
GRIDFORMAT
  1
GRIDFORMAT_BEGIN
 90
        0
 91
        1
 62
     0
 92
       -2
340
0
 93
        0
 40
0.045
309
GRIDFORMAT_END
 95
        2
302
GRIDFORMAT
  1
GRIDFORMAT_BEGIN
 90
        0
 91
        1
 62
     0
 92
       -2
340
0
 93
        0
 40
0.045
309
GRIDFORMAT_END
 95
        4
302
GRIDFORMAT
  1
GRIDFORMAT_BEGIN
 90
        0
 91
        1
 62
     0
 92
       -2
340
0
 93
        0
 40
0.045
309
GRIDFORMAT_END
 95
        8
302
GRIDFORMAT
  1
GRIDFORMAT_BEGIN
 90
        0
 91
        1
 62
     0
 92
       -2
340
0
 93
        0
 40
0.045
309
GRIDFORMAT_END
 95
       16
302
GRIDFORMAT
  1
GRIDFORMAT_BEGIN
 90
        0
 91
        1
 62
     0
 92
       -2
340
0
 93
        0
 40
0.045
309
GRIDFORMAT_END
 95
       32
302
GRIDFORMAT
  1
GRIDFORMAT_BEGIN
 90
        0
 91
        1
 62
     0
 92
       -2
340
0
 93
        0
 40
0.045
309
GRIDFORMAT_END
309
TABLEFORMAT_END
  1
CELLSTYLE_BEGIN
 90
        2
 91
        1
300
_HEADER
309
CELLSTYLE_END
300
CELLSTYLE
  1
TABLEFORMAT_BEGIN
 90
        5
170
     1
 91
        0
 92
        0
 62
   257
 93
        1
300
CONTENTFORMAT
  1
CONTENTFORMAT_BEGIN
 90
        0
 91
        0
 92
        4
 93
        0
300

 40
0.0
140
1.0
 94
        2
 62
     0
340
11
144
4.5
309
CONTENTFORMAT_END
171
     1
301
MARGIN
  1
CELLMARGIN_BEGIN
 40
1.5
 40
1.5
 40
1.5
 40
1.5
 40
0.18
 40
0.18
309
CELLMARGIN_END
 94
        6
 95
        1
302
GRIDFORMAT
  1
GRIDFORMAT_BEGIN
 90
        0
 91
        1
 62
     0
 92
       -2
340
0
 93
        0
 40
0.045
309
GRIDFORMAT_END
 95
        2
302
GRIDFORMAT
  1
GRIDFORMAT_BEGIN
 90
        0
 91
        1
 62
     0
 92
       -2
340
0
 93
        0
 40
0.045
309
GRIDFORMAT_END
 95
        4
302
GRIDFORMAT
  1
GRIDFORMAT_BEGIN
 90
        0
 91
        1
 62
     0
 92
       -2
340
0
 93
        0
 40
0.045
309
GRIDFORMAT_END
 95
        8
302
GRIDFORMAT
  1
GRIDFORMAT_BEGIN
 90
        0
 91
        1
 62
     0
 92
       -2
340
0
 93
        0
 40
0.045
309
GRIDFORMAT_END
 95
       16
302
GRIDFORMAT
  1
GRIDFORMAT_BEGIN
 90
        0
 91
        1
 62
     0
 92
       -2
340
0
 93
        0
 40
0.045
309
GRIDFORMAT_END
 95
       32
302
GRIDFORMAT
  1
GRIDFORMAT_BEGIN
 90
        0
 91
        1
 62
     0
 92
       -2
340
0
 93
        0
 40
0.045
309
GRIDFORMAT_END
309
TABLEFORMAT_END
  1
CELLSTYLE_BEGIN
 90
        3
 91
        2
300
_DATA
309
CELLSTYLE_END
  0
XRECORD
  5
953BB
102
{ACAD_REACTORS
330
4CD9A
102
}
330
4CD9A
100
AcDbXrecord
280
     1
102
ACAD_ROUNDTRIP_PRE2007_TABLESTYLE
 90
        4
 91
        0
  1

 92
        4
 93
        0
  2

 94
        4
 95
        0
  3

  0
XRECORD
  5
953BD
102
{ACAD_REACTORS
330
87B18
102
}
330
87B18
100
AcDbXrecord
280
     1
102
RTVSPropertyOp0
 70
     1
102
RTVSPropertyOp1
 70
     1
102
RTVSPropertyOp2
 70
     1
102
RTVSPropertyOp3
 70
     1
102
RTVSPropertyOp4
 70
     1
102
RTVSPropertyOp5
 70
     1
102
RTVSPropertyOp6
 70
     1
102
RTVSPropertyOp7
 70
     1
102
RTVSPropertyOp8
 70
     1
102
RTVSPropertyOp9
 70
     1
102
RTVSPropertyOp10
 70
     1
102
RTVSPropertyOp11
 70
     1
102
RTVSPropertyOp12
 70
     1
102
RTVSPropertyOp13
 70
     1
102
RTVSPropertyOp14
 70
     1
102
RTVSPropertyOp15
 70
     1
102
RTVSPropertyOp16
 70
     1
102
RTVSPropertyOp17
 70
     1
102
RTVSPropertyOp18
 70
     1
102
RTVSPropertyOp19
 70
     1
102
RTVSPropertyOp20
 70
     1
102
RTVSPropertyOp21
 70
     1
102
RTVSPropertyOp22
 70
     1
102
RTVSPropertyOp23
 70
     1
102
RTVSPropertyOp24
 70
     1
102
RTVSPropertyOp25
 70
     1
102
RTVSPropertyOp26
 70
     1
102
RTVSPropertyOp27
 70
     1
102
RTVSPropertyOp28
 70
     1
102
RTVSPropertyOp29
 70
     1
102
RTVSPropertyOp30
 70
     1
102
RTVSPropertyOp31
 70
     1
102
RTVSPropertyOp32
 70
     1
102
RTVSPropertyOp33
 70
     1
102
RTVSPropertyOp34
 70
     1
102
RTVSPropertyOp35
 70
     1
102
RTVSPropertyOp36
 70
     1
102
RTVSPropertyOp37
 70
     1
102
RTVSPropertyOp38
 70
     1
102
RTVSPropertyOp39
 70
     1
102
RTVSPropertyOp40
 70
     1
102
RTVSPropertyOp41
 70
     1
102
RTVSPropertyOp42
 70
     1
102
RTVSPropertyOp43
 70
     1
102
RTVSPropertyOp44
 70
     1
102
RTVSPropertyOp45
 70
     1
102
RTVSPropertyOp46
 70
     1
102
RTVSPropertyOp47
 70
     1
102
RTVSPropertyOp48
 70
     1
102
RTVSPropertyOp49
 70
     1
102
RTVSPropertyOp50
 70
     1
102
RTVSPropertyOp51
 70
     0
102
RTVSPropertyOp52
 70
     0
102
RTVSPropertyOp53
 70
     1
102
RTVSPropertyOp54
 70
     1
102
RTVSPropertyOp55
 70
     1
102
RTVSPropertyOp56
 70
     1
102
RTVSPropertyOp57
 70
     1
102
RTVSPost2010Prop28
280
     1
102
RTVSPost2010PropOp28
 70
     1
102
RTVSPost2010Prop29
280
     1
102
RTVSPost2010PropOp29
 70
     1
102
RTVSPost2010Prop30
280
     0
102
RTVSPost2010PropOp30
 70
     1
102
RTVSPost2010Prop31
280
     0
102
RTVSPost2010PropOp31
 70
     1
102
RTVSPost2010Prop32
280
     0
102
RTVSPost2010PropOp32
 70
     1
102
RTVSPost2010Prop33
280
     0
102
RTVSPost2010PropOp33
 70
     1
102
RTVSPost2010Prop34
280
     0
102
RTVSPost2010PropOp34
 70
     1
102
RTVSPost2010Prop35
280
     0
102
RTVSPost2010PropOp35
 70
     1
102
RTVSPost2010Prop36
280
     0
102
RTVSPost2010PropOp36
 70
     1
102
RTVSPost2010Prop37
 90
       50
102
RTVSPost2010PropOp37
 70
     1
102
RTVSPost2010Prop38
140
0.0
102
RTVSPost2010PropOp38
 70
     1
102
RTVSPost2010Prop39
140
1.0
102
RTVSPost2010PropOp39
 70
     1
102
RTVSPost2010Prop40
 90
        0
102
RTVSPost2010PropOp40
 70
     1
102
RTVSPost2010Prop41ColorIndex
 90
       18
102
RTVSPost2010Prop41ColorRGB
 90
        0
102
RTVSPost2010PropOp41
 70
     1
102
RTVSPost2010Prop42
 90
       50
102
RTVSPost2010PropOp42
 70
     1
102
RTVSPost2010Prop43
 90
        3
102
RTVSPost2010PropOp43
 70
     1
102
RTVSPost2010Prop44ColorIndex
 90
        5
102
RTVSPost2010Prop44ColorRGB
 90
      255
102
RTVSPost2010PropOp44
 70
     1
102
RTVSPost2010Prop45
280
     0
102
RTVSPost2010PropOp45
 70
     1
102
RTVSPost2010Prop46
 90
       50
102
RTVSPost2010PropOp46
 70
     1
102
RTVSPost2010Prop47
 90
       50
102
RTVSPost2010PropOp47
 70
     1
102
RTVSPost2010Prop48
 90
       50
102
RTVSPost2010PropOp48
 70
     1
102
RTVSPost2010Prop49
280
     0
102
RTVSPost2010PropOp49
 70
     1
102
RTVSPost2010Prop50
 90
       50
102
RTVSPost2010PropOp50
 70
     1
102
RTVSPost2010Prop51ColorIndex
 90
      256
102
RTVSPost2010Prop51ColorRGB
 90
-16777216
102
RTVSPost2010PropOp51
 70
     0
102
RTVSPost2010Prop52
140
1.0
102
RTVSPost2010PropOp52
 70
     0
102
RTVSPost2010Prop53
 90
        2
102
RTVSPost2010PropOp53
 70
     1
102
RTVSPost2010Prop54
  1
strokes_ogs.tif
102
RTVSPost2010PropOp54
 70
     1
102
RTVSPost2010Prop55
280
     0
102
RTVSPost2010PropOp55
 70
     1
102
RTVSPost2010Prop56
140
1.0
102
RTVSPost2010PropOp56
 70
     1
102
RTVSPost2010Prop57
140
1.0
102
RTVSPost2010PropOp57
 70
     1
  0
XRECORD
  5
953BE
102
{ACAD_REACTORS
330
87B16
102
}
330
87B16
100
AcDbXrecord
280
     1
102
RTVSPropertyOp0
 70
     1
102
RTVSPropertyOp1
 70
     1
102
RTVSPropertyOp2
 70
     1
102
RTVSPropertyOp3
 70
     1
102
RTVSPropertyOp4
 70
     1
102
RTVSPropertyOp5
 70
     1
102
RTVSPropertyOp6
 70
     1
102
RTVSPropertyOp7
 70
     1
102
RTVSPropertyOp8
 70
     1
102
RTVSPropertyOp9
 70
     1
102
RTVSPropertyOp10
 70
     1
102
RTVSPropertyOp11
 70
     1
102
RTVSPropertyOp12
 70
     1
102
RTVSPropertyOp13
 70
     1
102
RTVSPropertyOp14
 70
     1
102
RTVSPropertyOp15
 70
     1
102
RTVSPropertyOp16
 70
     1
102
RTVSPropertyOp17
 70
     1
102
RTVSPropertyOp18
 70
     1
102
RTVSPropertyOp19
 70
     1
102
RTVSPropertyOp20
 70
     1
102
RTVSPropertyOp21
 70
     1
102
RTVSPropertyOp22
 70
     1
102
RTVSPropertyOp23
 70
     1
102
RTVSPropertyOp24
 70
     1
102
RTVSPropertyOp25
 70
     1
102
RTVSPropertyOp26
 70
     1
102
RTVSPropertyOp27
 70
     1
102
RTVSPropertyOp28
 70
     1
102
RTVSPropertyOp29
 70
     1
102
RTVSPropertyOp30
 70
     1
102
RTVSPropertyOp31
 70
     1
102
RTVSPropertyOp32
 70
     1
102
RTVSPropertyOp33
 70
     1
102
RTVSPropertyOp34
 70
     1
102
RTVSPropertyOp35
 70
     1
102
RTVSPropertyOp36
 70
     1
102
RTVSPropertyOp37
 70
     1
102
RTVSPropertyOp38
 70
     1
102
RTVSPropertyOp39
 70
     1
102
RTVSPropertyOp40
 70
     1
102
RTVSPropertyOp41
 70
     1
102
RTVSPropertyOp42
 70
     1
102
RTVSPropertyOp43
 70
     1
102
RTVSPropertyOp44
 70
     1
102
RTVSPropertyOp45
 70
     1
102
RTVSPropertyOp46
 70
     1
102
RTVSPropertyOp47
 70
     1
102
RTVSPropertyOp48
 70
     1
102
RTVSPropertyOp49
 70
     1
102
RTVSPropertyOp50
 70
     1
102
RTVSPropertyOp51
 70
     0
102
RTVSPropertyOp52
 70
     0
102
RTVSPropertyOp53
 70
     1
102
RTVSPropertyOp54
 70
     1
102
RTVSPropertyOp55
 70
     1
102
RTVSPropertyOp56
 70
     1
102
RTVSPropertyOp57
 70
     1
102
RTVSPost2010Prop28
280
     0
102
RTVSPost2010PropOp28
 70
     1
102
RTVSPost2010Prop29
280
     1
102
RTVSPost2010PropOp29
 70
     1
102
RTVSPost2010Prop30
280
     1
102
RTVSPost2010PropOp30
 70
     1
102
RTVSPost2010Prop31
280
     0
102
RTVSPost2010PropOp31
 70
     1
102
RTVSPost2010Prop32
280
     0
102
RTVSPost2010PropOp32
 70
     1
102
RTVSPost2010Prop33
280
     0
102
RTVSPost2010PropOp33
 70
     1
102
RTVSPost2010Prop34
280
     0
102
RTVSPost2010PropOp34
 70
     1
102
RTVSPost2010Prop35
280
     0
102
RTVSPost2010PropOp35
 70
     1
102
RTVSPost2010Prop36
280
     0
102
RTVSPost2010PropOp36
 70
     1
102
RTVSPost2010Prop37
 90
       50
102
RTVSPost2010PropOp37
 70
     1
102
RTVSPost2010Prop38
140
0.0
102
RTVSPost2010PropOp38
 70
     1
102
RTVSPost2010Prop39
140
1.0
102
RTVSPost2010PropOp39
 70
     1
102
RTVSPost2010Prop40
 90
        0
102
RTVSPost2010PropOp40
 70
     1
102
RTVSPost2010Prop41ColorIndex
 90
       18
102
RTVSPost2010Prop41ColorRGB
 90
        0
102
RTVSPost2010PropOp41
 70
     1
102
RTVSPost2010Prop42
 90
       50
102
RTVSPost2010PropOp42
 70
     1
102
RTVSPost2010Prop43
 90
        3
102
RTVSPost2010PropOp43
 70
     1
102
RTVSPost2010Prop44ColorIndex
 90
        5
102
RTVSPost2010Prop44ColorRGB
 90
      255
102
RTVSPost2010PropOp44
 70
     1
102
RTVSPost2010Prop45
280
     0
102
RTVSPost2010PropOp45
 70
     1
102
RTVSPost2010Prop46
 90
       50
102
RTVSPost2010PropOp46
 70
     1
102
RTVSPost2010Prop47
 90
       50
102
RTVSPost2010PropOp47
 70
     1
102
RTVSPost2010Prop48
 90
       50
102
RTVSPost2010PropOp48
 70
     1
102
RTVSPost2010Prop49
280
     0
102
RTVSPost2010PropOp49
 70
     1
102
RTVSPost2010Prop50
 90
       50
102
RTVSPost2010PropOp50
 70
     1
102
RTVSPost2010Prop51ColorIndex
 90
      256
102
RTVSPost2010Prop51ColorRGB
 90
-16777216
102
RTVSPost2010PropOp51
 70
     0
102
RTVSPost2010Prop52
140
1.0
102
RTVSPost2010PropOp52
 70
     0
102
RTVSPost2010Prop53
 90
        2
102
RTVSPost2010PropOp53
 70
     1
102
RTVSPost2010Prop54
  1
strokes_ogs.tif
102
RTVSPost2010PropOp54
 70
     1
102
RTVSPost2010Prop55
280
     0
102
RTVSPost2010PropOp55
 70
     1
102
RTVSPost2010Prop56
140
1.0
102
RTVSPost2010PropOp56
 70
     1
102
RTVSPost2010Prop57
140
1.0
102
RTVSPost2010PropOp57
 70
     1
  0
XRECORD
  5
953BF
102
{ACAD_REACTORS
330
87B24
102
}
330
87B24
100
AcDbXrecord
280
     1
102
RTVSPropertyOp0
 70
     1
102
RTVSPropertyOp1
 70
     1
102
RTVSPropertyOp2
 70
     1
102
RTVSPropertyOp3
 70
     1
102
RTVSPropertyOp4
 70
     1
102
RTVSPropertyOp5
 70
     1
102
RTVSPropertyOp6
 70
     1
102
RTVSPropertyOp7
 70
     1
102
RTVSPropertyOp8
 70
     1
102
RTVSPropertyOp9
 70
     1
102
RTVSPropertyOp10
 70
     1
102
RTVSPropertyOp11
 70
     1
102
RTVSPropertyOp12
 70
     1
102
RTVSPropertyOp13
 70
     1
102
RTVSPropertyOp14
 70
     1
102
RTVSPropertyOp15
 70
     1
102
RTVSPropertyOp16
 70
     1
102
RTVSPropertyOp17
 70
     1
102
RTVSPropertyOp18
 70
     1
102
RTVSPropertyOp19
 70
     1
102
RTVSPropertyOp20
 70
     1
102
RTVSPropertyOp21
 70
     1
102
RTVSPropertyOp22
 70
     1
102
RTVSPropertyOp23
 70
     1
102
RTVSPropertyOp24
 70
     1
102
RTVSPropertyOp25
 70
     1
102
RTVSPropertyOp26
 70
     1
102
RTVSPropertyOp27
 70
     1
102
RTVSPropertyOp28
 70
     1
102
RTVSPropertyOp29
 70
     1
102
RTVSPropertyOp30
 70
     1
102
RTVSPropertyOp31
 70
     1
102
RTVSPropertyOp32
 70
     1
102
RTVSPropertyOp33
 70
     1
102
RTVSPropertyOp34
 70
     1
102
RTVSPropertyOp35
 70
     1
102
RTVSPropertyOp36
 70
     1
102
RTVSPropertyOp37
 70
     1
102
RTVSPropertyOp38
 70
     1
102
RTVSPropertyOp39
 70
     1
102
RTVSPropertyOp40
 70
     1
102
RTVSPropertyOp41
 70
     1
102
RTVSPropertyOp42
 70
     1
102
RTVSPropertyOp43
 70
     1
102
RTVSPropertyOp44
 70
     1
102
RTVSPropertyOp45
 70
     1
102
RTVSPropertyOp46
 70
     1
102
RTVSPropertyOp47
 70
     1
102
RTVSPropertyOp48
 70
     1
102
RTVSPropertyOp49
 70
     1
102
RTVSPropertyOp50
 70
     1
102
RTVSPropertyOp51
 70
     0
102
RTVSPropertyOp52
 70
     0
102
RTVSPropertyOp53
 70
     1
102
RTVSPropertyOp54
 70
     1
102
RTVSPropertyOp55
 70
     1
102
RTVSPropertyOp56
 70
     1
102
RTVSPropertyOp57
 70
     1
102
RTVSPost2010Prop28
280
     0
102
RTVSPost2010PropOp28
 70
     1
102
RTVSPost2010Prop29
280
     1
102
RTVSPost2010PropOp29
 70
     1
102
RTVSPost2010Prop30
280
     1
102
RTVSPost2010PropOp30
 70
     1
102
RTVSPost2010Prop31
280
     0
102
RTVSPost2010PropOp31
 70
     1
102
RTVSPost2010Prop32
280
     0
102
RTVSPost2010PropOp32
 70
     1
102
RTVSPost2010Prop33
280
     0
102
RTVSPost2010PropOp33
 70
     1
102
RTVSPost2010Prop34
280
     0
102
RTVSPost2010PropOp34
 70
     1
102
RTVSPost2010Prop35
280
     0
102
RTVSPost2010PropOp35
 70
     1
102
RTVSPost2010Prop36
280
     0
102
RTVSPost2010PropOp36
 70
     1
102
RTVSPost2010Prop37
 90
       50
102
RTVSPost2010PropOp37
 70
     1
102
RTVSPost2010Prop38
140
0.0
102
RTVSPost2010PropOp38
 70
     1
102
RTVSPost2010Prop39
140
1.0
102
RTVSPost2010PropOp39
 70
     1
102
RTVSPost2010Prop40
 90
        0
102
RTVSPost2010PropOp40
 70
     1
102
RTVSPost2010Prop41ColorIndex
 90
       18
102
RTVSPost2010Prop41ColorRGB
 90
        0
102
RTVSPost2010PropOp41
 70
     1
102
RTVSPost2010Prop42
 90
       50
102
RTVSPost2010PropOp42
 70
     1
102
RTVSPost2010Prop43
 90
        3
102
RTVSPost2010PropOp43
 70
     1
102
RTVSPost2010Prop44ColorIndex
 90
        5
102
RTVSPost2010Prop44ColorRGB
 90
      255
102
RTVSPost2010PropOp44
 70
     1
102
RTVSPost2010Prop45
280
     0
102
RTVSPost2010PropOp45
 70
     1
102
RTVSPost2010Prop46
 90
       50
102
RTVSPost2010PropOp46
 70
     1
102
RTVSPost2010Prop47
 90
       50
102
RTVSPost2010PropOp47
 70
     1
102
RTVSPost2010Prop48
 90
       50
102
RTVSPost2010PropOp48
 70
     1
102
RTVSPost2010Prop49
280
     0
102
RTVSPost2010PropOp49
 70
     1
102
RTVSPost2010Prop50
 90
       50
102
RTVSPost2010PropOp50
 70
     1
102
RTVSPost2010Prop51ColorIndex
 90
      256
102
RTVSPost2010Prop51ColorRGB
 90
-16777216
102
RTVSPost2010PropOp51
 70
     0
102
RTVSPost2010Prop52
140
1.0
102
RTVSPost2010PropOp52
 70
     0
102
RTVSPost2010Prop53
 90
        2
102
RTVSPost2010PropOp53
 70
     1
102
RTVSPost2010Prop54
  1
strokes_ogs.tif
102
RTVSPost2010PropOp54
 70
     1
102
RTVSPost2010Prop55
280
     0
102
RTVSPost2010PropOp55
 70
     1
102
RTVSPost2010Prop56
140
1.0
102
RTVSPost2010PropOp56
 70
     1
102
RTVSPost2010Prop57
140
1.0
102
RTVSPost2010PropOp57
 70
     1
  0
XRECORD
  5
953C0
102
{ACAD_REACTORS
330
87B2C
102
}
330
87B2C
100
AcDbXrecord
280
     1
102
RTVSPropertyOp0
 70
     1
102
RTVSPropertyOp1
 70
     1
102
RTVSPropertyOp2
 70
     1
102
RTVSPropertyOp3
 70
     1
102
RTVSPropertyOp4
 70
     1
102
RTVSPropertyOp5
 70
     1
102
RTVSPropertyOp6
 70
     1
102
RTVSPropertyOp7
 70
     1
102
RTVSPropertyOp8
 70
     1
102
RTVSPropertyOp9
 70
     1
102
RTVSPropertyOp10
 70
     1
102
RTVSPropertyOp11
 70
     1
102
RTVSPropertyOp12
 70
     1
102
RTVSPropertyOp13
 70
     1
102
RTVSPropertyOp14
 70
     1
102
RTVSPropertyOp15
 70
     1
102
RTVSPropertyOp16
 70
     1
102
RTVSPropertyOp17
 70
     1
102
RTVSPropertyOp18
 70
     1
102
RTVSPropertyOp19
 70
     1
102
RTVSPropertyOp20
 70
     1
102
RTVSPropertyOp21
 70
     1
102
RTVSPropertyOp22
 70
     1
102
RTVSPropertyOp23
 70
     1
102
RTVSPropertyOp24
 70
     1
102
RTVSPropertyOp25
 70
     1
102
RTVSPropertyOp26
 70
     1
102
RTVSPropertyOp27
 70
     1
102
RTVSPropertyOp28
 70
     1
102
RTVSPropertyOp29
 70
     1
102
RTVSPropertyOp30
 70
     1
102
RTVSPropertyOp31
 70
     1
102
RTVSPropertyOp32
 70
     1
102
RTVSPropertyOp33
 70
     1
102
RTVSPropertyOp34
 70
     1
102
RTVSPropertyOp35
 70
     1
102
RTVSPropertyOp36
 70
     1
102
RTVSPropertyOp37
 70
     1
102
RTVSPropertyOp38
 70
     1
102
RTVSPropertyOp39
 70
     1
102
RTVSPropertyOp40
 70
     1
102
RTVSPropertyOp41
 70
     1
102
RTVSPropertyOp42
 70
     1
102
RTVSPropertyOp43
 70
     1
102
RTVSPropertyOp44
 70
     1
102
RTVSPropertyOp45
 70
     1
102
RTVSPropertyOp46
 70
     1
102
RTVSPropertyOp47
 70
     1
102
RTVSPropertyOp48
 70
     1
102
RTVSPropertyOp49
 70
     1
102
RTVSPropertyOp50
 70
     1
102
RTVSPropertyOp51
 70
     0
102
RTVSPropertyOp52
 70
     0
102
RTVSPropertyOp53
 70
     1
102
RTVSPropertyOp54
 70
     1
102
RTVSPropertyOp55
 70
     1
102
RTVSPropertyOp56
 70
     1
102
RTVSPropertyOp57
 70
     1
102
RTVSPost2010Prop28
280
     0
102
RTVSPost2010PropOp28
 70
     1
102
RTVSPost2010Prop29
280
     1
102
RTVSPost2010PropOp29
 70
     1
102
RTVSPost2010Prop30
280
     1
102
RTVSPost2010PropOp30
 70
     1
102
RTVSPost2010Prop31
280
     0
102
RTVSPost2010PropOp31
 70
     1
102
RTVSPost2010Prop32
280
     0
102
RTVSPost2010PropOp32
 70
     1
102
RTVSPost2010Prop33
280
     0
102
RTVSPost2010PropOp33
 70
     1
102
RTVSPost2010Prop34
280
     0
102
RTVSPost2010PropOp34
 70
     1
102
RTVSPost2010Prop35
280
     0
102
RTVSPost2010PropOp35
 70
     1
102
RTVSPost2010Prop36
280
     0
102
RTVSPost2010PropOp36
 70
     1
102
RTVSPost2010Prop37
 90
       50
102
RTVSPost2010PropOp37
 70
     1
102
RTVSPost2010Prop38
140
0.0
102
RTVSPost2010PropOp38
 70
     1
102
RTVSPost2010Prop39
140
1.0
102
RTVSPost2010PropOp39
 70
     1
102
RTVSPost2010Prop40
 90
        0
102
RTVSPost2010PropOp40
 70
     1
102
RTVSPost2010Prop41ColorIndex
 90
       18
102
RTVSPost2010Prop41ColorRGB
 90
        0
102
RTVSPost2010PropOp41
 70
     1
102
RTVSPost2010Prop42
 90
       50
102
RTVSPost2010PropOp42
 70
     1
102
RTVSPost2010Prop43
 90
        3
102
RTVSPost2010PropOp43
 70
     1
102
RTVSPost2010Prop44ColorIndex
 90
        5
102
RTVSPost2010Prop44ColorRGB
 90
      255
102
RTVSPost2010PropOp44
 70
     1
102
RTVSPost2010Prop45
280
     0
102
RTVSPost2010PropOp45
 70
     1
102
RTVSPost2010Prop46
 90
       50
102
RTVSPost2010PropOp46
 70
     1
102
RTVSPost2010Prop47
 90
       50
102
RTVSPost2010PropOp47
 70
     1
102
RTVSPost2010Prop48
 90
       50
102
RTVSPost2010PropOp48
 70
     1
102
RTVSPost2010Prop49
280
     0
102
RTVSPost2010PropOp49
 70
     1
102
RTVSPost2010Prop50
 90
       50
102
RTVSPost2010PropOp50
 70
     1
102
RTVSPost2010Prop51ColorIndex
 90
      256
102
RTVSPost2010Prop51ColorRGB
 90
-16777216
102
RTVSPost2010PropOp51
 70
     0
102
RTVSPost2010Prop52
140
1.0
102
RTVSPost2010PropOp52
 70
     0
102
RTVSPost2010Prop53
 90
        2
102
RTVSPost2010PropOp53
 70
     1
102
RTVSPost2010Prop54
  1
strokes_ogs.tif
102
RTVSPost2010PropOp54
 70
     1
102
RTVSPost2010Prop55
280
     0
102
RTVSPost2010PropOp55
 70
     1
102
RTVSPost2010Prop56
140
1.0
102
RTVSPost2010PropOp56
 70
     1
102
RTVSPost2010Prop57
140
1.0
102
RTVSPost2010PropOp57
 70
     1
  0
XRECORD
  5
953C1
102
{ACAD_REACTORS
330
87B1E
102
}
330
87B1E
100
AcDbXrecord
280
     1
102
RTVSPropertyOp0
 70
     1
102
RTVSPropertyOp1
 70
     1
102
RTVSPropertyOp2
 70
     1
102
RTVSPropertyOp3
 70
     1
102
RTVSPropertyOp4
 70
     1
102
RTVSPropertyOp5
 70
     1
102
RTVSPropertyOp6
 70
     1
102
RTVSPropertyOp7
 70
     1
102
RTVSPropertyOp8
 70
     1
102
RTVSPropertyOp9
 70
     1
102
RTVSPropertyOp10
 70
     1
102
RTVSPropertyOp11
 70
     1
102
RTVSPropertyOp12
 70
     1
102
RTVSPropertyOp13
 70
     1
102
RTVSPropertyOp14
 70
     1
102
RTVSPropertyOp15
 70
     1
102
RTVSPropertyOp16
 70
     1
102
RTVSPropertyOp17
 70
     1
102
RTVSPropertyOp18
 70
     1
102
RTVSPropertyOp19
 70
     1
102
RTVSPropertyOp20
 70
     1
102
RTVSPropertyOp21
 70
     1
102
RTVSPropertyOp22
 70
     1
102
RTVSPropertyOp23
 70
     1
102
RTVSPropertyOp24
 70
     1
102
RTVSPropertyOp25
 70
     1
102
RTVSPropertyOp26
 70
     1
102
RTVSPropertyOp27
 70
     1
102
RTVSPropertyOp28
 70
     1
102
RTVSPropertyOp29
 70
     1
102
RTVSPropertyOp30
 70
     1
102
RTVSPropertyOp31
 70
     1
102
RTVSPropertyOp32
 70
     1
102
RTVSPropertyOp33
 70
     1
102
RTVSPropertyOp34
 70
     1
102
RTVSPropertyOp35
 70
     1
102
RTVSPropertyOp36
 70
     1
102
RTVSPropertyOp37
 70
     1
102
RTVSPropertyOp38
 70
     1
102
RTVSPropertyOp39
 70
     1
102
RTVSPropertyOp40
 70
     1
102
RTVSPropertyOp41
 70
     1
102
RTVSPropertyOp42
 70
     1
102
RTVSPropertyOp43
 70
     1
102
RTVSPropertyOp44
 70
     1
102
RTVSPropertyOp45
 70
     1
102
RTVSPropertyOp46
 70
     1
102
RTVSPropertyOp47
 70
     1
102
RTVSPropertyOp48
 70
     1
102
RTVSPropertyOp49
 70
     1
102
RTVSPropertyOp50
 70
     1
102
RTVSPropertyOp51
 70
     0
102
RTVSPropertyOp52
 70
     0
102
RTVSPropertyOp53
 70
     1
102
RTVSPropertyOp54
 70
     1
102
RTVSPropertyOp55
 70
     1
102
RTVSPropertyOp56
 70
     1
102
RTVSPropertyOp57
 70
     1
102
RTVSPost2010Prop28
280
     0
102
RTVSPost2010PropOp28
 70
     1
102
RTVSPost2010Prop29
280
     1
102
RTVSPost2010PropOp29
 70
     1
102
RTVSPost2010Prop30
280
     1
102
RTVSPost2010PropOp30
 70
     1
102
RTVSPost2010Prop31
280
     0
102
RTVSPost2010PropOp31
 70
     1
102
RTVSPost2010Prop32
280
     0
102
RTVSPost2010PropOp32
 70
     1
102
RTVSPost2010Prop33
280
     0
102
RTVSPost2010PropOp33
 70
     1
102
RTVSPost2010Prop34
280
     0
102
RTVSPost2010PropOp34
 70
     1
102
RTVSPost2010Prop35
280
     0
102
RTVSPost2010PropOp35
 70
     1
102
RTVSPost2010Prop36
280
     0
102
RTVSPost2010PropOp36
 70
     1
102
RTVSPost2010Prop37
 90
       50
102
RTVSPost2010PropOp37
 70
     1
102
RTVSPost2010Prop38
140
0.0
102
RTVSPost2010PropOp38
 70
     1
102
RTVSPost2010Prop39
140
1.0
102
RTVSPost2010PropOp39
 70
     1
102
RTVSPost2010Prop40
 90
        0
102
RTVSPost2010PropOp40
 70
     1
102
RTVSPost2010Prop41ColorIndex
 90
       18
102
RTVSPost2010Prop41ColorRGB
 90
        0
102
RTVSPost2010PropOp41
 70
     1
102
RTVSPost2010Prop42
 90
       50
102
RTVSPost2010PropOp42
 70
     1
102
RTVSPost2010Prop43
 90
        3
102
RTVSPost2010PropOp43
 70
     1
102
RTVSPost2010Prop44ColorIndex
 90
        5
102
RTVSPost2010Prop44ColorRGB
 90
      255
102
RTVSPost2010PropOp44
 70
     1
102
RTVSPost2010Prop45
280
     0
102
RTVSPost2010PropOp45
 70
     1
102
RTVSPost2010Prop46
 90
       50
102
RTVSPost2010PropOp46
 70
     1
102
RTVSPost2010Prop47
 90
       50
102
RTVSPost2010PropOp47
 70
     1
102
RTVSPost2010Prop48
 90
       50
102
RTVSPost2010PropOp48
 70
     1
102
RTVSPost2010Prop49
280
     0
102
RTVSPost2010PropOp49
 70
     1
102
RTVSPost2010Prop50
 90
       50
102
RTVSPost2010PropOp50
 70
     1
102
RTVSPost2010Prop51ColorIndex
 90
      256
102
RTVSPost2010Prop51ColorRGB
 90
-16777216
102
RTVSPost2010PropOp51
 70
     0
102
RTVSPost2010Prop52
140
1.0
102
RTVSPost2010PropOp52
 70
     0
102
RTVSPost2010Prop53
 90
        2
102
RTVSPost2010PropOp53
 70
     1
102
RTVSPost2010Prop54
  1
strokes_ogs.tif
102
RTVSPost2010PropOp54
 70
     1
102
RTVSPost2010Prop55
280
     0
102
RTVSPost2010PropOp55
 70
     1
102
RTVSPost2010Prop56
140
1.0
102
RTVSPost2010PropOp56
 70
     1
102
RTVSPost2010Prop57
140
1.0
102
RTVSPost2010PropOp57
 70
     1
  0
XRECORD
  5
953C2
102
{ACAD_REACTORS
330
87B22
102
}
330
87B22
100
AcDbXrecord
280
     1
102
RTVSPropertyOp0
 70
     1
102
RTVSPropertyOp1
 70
     1
102
RTVSPropertyOp2
 70
     1
102
RTVSPropertyOp3
 70
     1
102
RTVSPropertyOp4
 70
     1
102
RTVSPropertyOp5
 70
     1
102
RTVSPropertyOp6
 70
     1
102
RTVSPropertyOp7
 70
     1
102
RTVSPropertyOp8
 70
     1
102
RTVSPropertyOp9
 70
     1
102
RTVSPropertyOp10
 70
     1
102
RTVSPropertyOp11
 70
     1
102
RTVSPropertyOp12
 70
     1
102
RTVSPropertyOp13
 70
     1
102
RTVSPropertyOp14
 70
     1
102
RTVSPropertyOp15
 70
     1
102
RTVSPropertyOp16
 70
     1
102
RTVSPropertyOp17
 70
     1
102
RTVSPropertyOp18
 70
     1
102
RTVSPropertyOp19
 70
     1
102
RTVSPropertyOp20
 70
     1
102
RTVSPropertyOp21
 70
     1
102
RTVSPropertyOp22
 70
     1
102
RTVSPropertyOp23
 70
     1
102
RTVSPropertyOp24
 70
     1
102
RTVSPropertyOp25
 70
     1
102
RTVSPropertyOp26
 70
     1
102
RTVSPropertyOp27
 70
     1
102
RTVSPropertyOp28
 70
     1
102
RTVSPropertyOp29
 70
     1
102
RTVSPropertyOp30
 70
     1
102
RTVSPropertyOp31
 70
     1
102
RTVSPropertyOp32
 70
     1
102
RTVSPropertyOp33
 70
     1
102
RTVSPropertyOp34
 70
     1
102
RTVSPropertyOp35
 70
     1
102
RTVSPropertyOp36
 70
     1
102
RTVSPropertyOp37
 70
     1
102
RTVSPropertyOp38
 70
     1
102
RTVSPropertyOp39
 70
     1
102
RTVSPropertyOp40
 70
     1
102
RTVSPropertyOp41
 70
     1
102
RTVSPropertyOp42
 70
     1
102
RTVSPropertyOp43
 70
     1
102
RTVSPropertyOp44
 70
     1
102
RTVSPropertyOp45
 70
     1
102
RTVSPropertyOp46
 70
     1
102
RTVSPropertyOp47
 70
     1
102
RTVSPropertyOp48
 70
     1
102
RTVSPropertyOp49
 70
     1
102
RTVSPropertyOp50
 70
     1
102
RTVSPropertyOp51
 70
     0
102
RTVSPropertyOp52
 70
     0
102
RTVSPropertyOp53
 70
     1
102
RTVSPropertyOp54
 70
     1
102
RTVSPropertyOp55
 70
     1
102
RTVSPropertyOp56
 70
     1
102
RTVSPropertyOp57
 70
     1
102
RTVSPost2010Prop28
280
     0
102
RTVSPost2010PropOp28
 70
     1
102
RTVSPost2010Prop29
280
     1
102
RTVSPost2010PropOp29
 70
     1
102
RTVSPost2010Prop30
280
     1
102
RTVSPost2010PropOp30
 70
     1
102
RTVSPost2010Prop31
280
     0
102
RTVSPost2010PropOp31
 70
     1
102
RTVSPost2010Prop32
280
     0
102
RTVSPost2010PropOp32
 70
     1
102
RTVSPost2010Prop33
280
     0
102
RTVSPost2010PropOp33
 70
     1
102
RTVSPost2010Prop34
280
     0
102
RTVSPost2010PropOp34
 70
     1
102
RTVSPost2010Prop35
280
     0
102
RTVSPost2010PropOp35
 70
     1
102
RTVSPost2010Prop36
280
     0
102
RTVSPost2010PropOp36
 70
     1
102
RTVSPost2010Prop37
 90
       50
102
RTVSPost2010PropOp37
 70
     1
102
RTVSPost2010Prop38
140
0.0
102
RTVSPost2010PropOp38
 70
     1
102
RTVSPost2010Prop39
140
1.0
102
RTVSPost2010PropOp39
 70
     1
102
RTVSPost2010Prop40
 90
        0
102
RTVSPost2010PropOp40
 70
     1
102
RTVSPost2010Prop41ColorIndex
 90
       18
102
RTVSPost2010Prop41ColorRGB
 90
        0
102
RTVSPost2010PropOp41
 70
     1
102
RTVSPost2010Prop42
 90
       50
102
RTVSPost2010PropOp42
 70
     1
102
RTVSPost2010Prop43
 90
        3
102
RTVSPost2010PropOp43
 70
     1
102
RTVSPost2010Prop44ColorIndex
 90
        5
102
RTVSPost2010Prop44ColorRGB
 90
      255
102
RTVSPost2010PropOp44
 70
     1
102
RTVSPost2010Prop45
280
     0
102
RTVSPost2010PropOp45
 70
     1
102
RTVSPost2010Prop46
 90
       50
102
RTVSPost2010PropOp46
 70
     1
102
RTVSPost2010Prop47
 90
       50
102
RTVSPost2010PropOp47
 70
     1
102
RTVSPost2010Prop48
 90
       50
102
RTVSPost2010PropOp48
 70
     1
102
RTVSPost2010Prop49
280
     0
102
RTVSPost2010PropOp49
 70
     1
102
RTVSPost2010Prop50
 90
       50
102
RTVSPost2010PropOp50
 70
     1
102
RTVSPost2010Prop51ColorIndex
 90
      256
102
RTVSPost2010Prop51ColorRGB
 90
-16777216
102
RTVSPost2010PropOp51
 70
     0
102
RTVSPost2010Prop52
140
1.0
102
RTVSPost2010PropOp52
 70
     0
102
RTVSPost2010Prop53
 90
        2
102
RTVSPost2010PropOp53
 70
     1
102
RTVSPost2010Prop54
  1
strokes_ogs.tif
102
RTVSPost2010PropOp54
 70
     1
102
RTVSPost2010Prop55
280
     0
102
RTVSPost2010PropOp55
 70
     1
102
RTVSPost2010Prop56
140
1.0
102
RTVSPost2010PropOp56
 70
     1
102
RTVSPost2010Prop57
140
1.0
102
RTVSPost2010PropOp57
 70
     1
  0
XRECORD
  5
953C3
102
{ACAD_REACTORS
330
87B3C
102
}
330
87B3C
100
AcDbXrecord
280
     1
102
RTVSPropertyOp0
 70
     0
102
RTVSPropertyOp1
 70
     0
102
RTVSPropertyOp2
 70
     0
102
RTVSPropertyOp3
 70
     0
102
RTVSPropertyOp4
 70
     0
102
RTVSPropertyOp5
 70
     0
102
RTVSPropertyOp6
 70
     0
102
RTVSPropertyOp7
 70
     0
102
RTVSPropertyOp8
 70
     0
102
RTVSPropertyOp9
 70
     0
102
RTVSPropertyOp10
 70
     0
102
RTVSPropertyOp11
 70
     0
102
RTVSPropertyOp12
 70
     0
102
RTVSPropertyOp13
 70
     0
102
RTVSPropertyOp14
 70
     2
102
RTVSPropertyOp15
 70
     0
102
RTVSPropertyOp16
 70
     0
102
RTVSPropertyOp17
 70
     0
102
RTVSPropertyOp18
 70
     0
102
RTVSPropertyOp19
 70
     0
102
RTVSPropertyOp20
 70
     0
102
RTVSPropertyOp21
 70
     0
102
RTVSPropertyOp22
 70
     0
102
RTVSPropertyOp23
 70
     0
102
RTVSPropertyOp24
 70
     0
102
RTVSPropertyOp25
 70
     0
102
RTVSPropertyOp26
 70
     0
102
RTVSPropertyOp27
 70
     0
102
RTVSPropertyOp28
 70
     1
102
RTVSPropertyOp29
 70
     1
102
RTVSPropertyOp30
 70
     1
102
RTVSPropertyOp31
 70
     1
102
RTVSPropertyOp32
 70
     1
102
RTVSPropertyOp33
 70
     1
102
RTVSPropertyOp34
 70
     1
102
RTVSPropertyOp35
 70
     1
102
RTVSPropertyOp36
 70
     1
102
RTVSPropertyOp37
 70
     0
102
RTVSPropertyOp38
 70
     0
102
RTVSPropertyOp39
 70
     0
102
RTVSPropertyOp40
 70
     0
102
RTVSPropertyOp41
 70
     0
102
RTVSPropertyOp42
 70
     0
102
RTVSPropertyOp43
 70
     0
102
RTVSPropertyOp44
 70
     0
102
RTVSPropertyOp45
 70
     1
102
RTVSPropertyOp46
 70
     0
102
RTVSPropertyOp47
 70
     0
102
RTVSPropertyOp48
 70
     0
102
RTVSPropertyOp49
 70
     1
102
RTVSPropertyOp50
 70
     0
102
RTVSPropertyOp51
 70
     0
102
RTVSPropertyOp52
 70
     0
102
RTVSPropertyOp53
 70
     0
102
RTVSPropertyOp54
 70
     0
102
RTVSPropertyOp55
 70
     1
102
RTVSPropertyOp56
 70
     0
102
RTVSPropertyOp57
 70
     0
102
RTVSPost2010Prop28
280
     0
102
RTVSPost2010PropOp28
 70
     1
102
RTVSPost2010Prop29
280
     1
102
RTVSPost2010PropOp29
 70
     1
102
RTVSPost2010Prop30
280
     1
102
RTVSPost2010PropOp30
 70
     1
102
RTVSPost2010Prop31
280
     0
102
RTVSPost2010PropOp31
 70
     1
102
RTVSPost2010Prop32
280
     0
102
RTVSPost2010PropOp32
 70
     1
102
RTVSPost2010Prop33
280
     0
102
RTVSPost2010PropOp33
 70
     1
102
RTVSPost2010Prop34
280
     0
102
RTVSPost2010PropOp34
 70
     1
102
RTVSPost2010Prop35
280
     0
102
RTVSPost2010PropOp35
 70
     1
102
RTVSPost2010Prop36
280
     0
102
RTVSPost2010PropOp36
 70
     1
102
RTVSPost2010Prop37
 90
       50
102
RTVSPost2010PropOp37
 70
     0
102
RTVSPost2010Prop38
140
0.0
102
RTVSPost2010PropOp38
 70
     0
102
RTVSPost2010Prop39
140
1.0
102
RTVSPost2010PropOp39
 70
     0
102
RTVSPost2010Prop40
 90
        0
102
RTVSPost2010PropOp40
 70
     0
102
RTVSPost2010Prop41ColorIndex
 90
       18
102
RTVSPost2010Prop41ColorRGB
 90
        0
102
RTVSPost2010PropOp41
 70
     0
102
RTVSPost2010Prop42
 90
       50
102
RTVSPost2010PropOp42
 70
     0
102
RTVSPost2010Prop43
 90
        3
102
RTVSPost2010PropOp43
 70
     0
102
RTVSPost2010Prop44ColorIndex
 90
        5
102
RTVSPost2010Prop44ColorRGB
 90
      255
102
RTVSPost2010PropOp44
 70
     0
102
RTVSPost2010Prop45
280
     0
102
RTVSPost2010PropOp45
 70
     1
102
RTVSPost2010Prop46
 90
       50
102
RTVSPost2010PropOp46
 70
     0
102
RTVSPost2010Prop47
 90
       50
102
RTVSPost2010PropOp47
 70
     0
102
RTVSPost2010Prop48
 90
       50
102
RTVSPost2010PropOp48
 70
     0
102
RTVSPost2010Prop49
280
     0
102
RTVSPost2010PropOp49
 70
     1
102
RTVSPost2010Prop50
 90
       50
102
RTVSPost2010PropOp50
 70
     0
102
RTVSPost2010Prop51ColorIndex
 90
      256
102
RTVSPost2010Prop51ColorRGB
 90
-16777216
102
RTVSPost2010PropOp51
 70
     0
102
RTVSPost2010Prop52
140
1.0
102
RTVSPost2010PropOp52
 70
     0
102
RTVSPost2010Prop53
 90
        2
102
RTVSPost2010PropOp53
 70
     0
102
RTVSPost2010Prop54
  1
strokes_ogs.tif
102
RTVSPost2010PropOp54
 70
     0
102
RTVSPost2010Prop55
280
     0
102
RTVSPost2010PropOp55
 70
     1
102
RTVSPost2010Prop56
140
1.0
102
RTVSPost2010PropOp56
 70
     0
102
RTVSPost2010Prop57
140
1.0
102
RTVSPost2010PropOp57
 70
     0
  0
XRECORD
  5
953C4
102
{ACAD_REACTORS
330
87B2A
102
}
330
87B2A
100
AcDbXrecord
280
     1
102
RTVSPropertyOp0
 70
     1
102
RTVSPropertyOp1
 70
     1
102
RTVSPropertyOp2
 70
     1
102
RTVSPropertyOp3
 70
     1
102
RTVSPropertyOp4
 70
     1
102
RTVSPropertyOp5
 70
     1
102
RTVSPropertyOp6
 70
     1
102
RTVSPropertyOp7
 70
     1
102
RTVSPropertyOp8
 70
     1
102
RTVSPropertyOp9
 70
     1
102
RTVSPropertyOp10
 70
     1
102
RTVSPropertyOp11
 70
     1
102
RTVSPropertyOp12
 70
     1
102
RTVSPropertyOp13
 70
     1
102
RTVSPropertyOp14
 70
     1
102
RTVSPropertyOp15
 70
     1
102
RTVSPropertyOp16
 70
     1
102
RTVSPropertyOp17
 70
     1
102
RTVSPropertyOp18
 70
     1
102
RTVSPropertyOp19
 70
     1
102
RTVSPropertyOp20
 70
     1
102
RTVSPropertyOp21
 70
     1
102
RTVSPropertyOp22
 70
     1
102
RTVSPropertyOp23
 70
     1
102
RTVSPropertyOp24
 70
     1
102
RTVSPropertyOp25
 70
     1
102
RTVSPropertyOp26
 70
     1
102
RTVSPropertyOp27
 70
     1
102
RTVSPropertyOp28
 70
     1
102
RTVSPropertyOp29
 70
     1
102
RTVSPropertyOp30
 70
     1
102
RTVSPropertyOp31
 70
     1
102
RTVSPropertyOp32
 70
     1
102
RTVSPropertyOp33
 70
     1
102
RTVSPropertyOp34
 70
     1
102
RTVSPropertyOp35
 70
     1
102
RTVSPropertyOp36
 70
     1
102
RTVSPropertyOp37
 70
     1
102
RTVSPropertyOp38
 70
     1
102
RTVSPropertyOp39
 70
     1
102
RTVSPropertyOp40
 70
     1
102
RTVSPropertyOp41
 70
     1
102
RTVSPropertyOp42
 70
     1
102
RTVSPropertyOp43
 70
     1
102
RTVSPropertyOp44
 70
     1
102
RTVSPropertyOp45
 70
     1
102
RTVSPropertyOp46
 70
     1
102
RTVSPropertyOp47
 70
     1
102
RTVSPropertyOp48
 70
     1
102
RTVSPropertyOp49
 70
     1
102
RTVSPropertyOp50
 70
     1
102
RTVSPropertyOp51
 70
     0
102
RTVSPropertyOp52
 70
     0
102
RTVSPropertyOp53
 70
     1
102
RTVSPropertyOp54
 70
     1
102
RTVSPropertyOp55
 70
     1
102
RTVSPropertyOp56
 70
     1
102
RTVSPropertyOp57
 70
     1
102
RTVSPost2010Prop28
280
     0
102
RTVSPost2010PropOp28
 70
     1
102
RTVSPost2010Prop29
280
     1
102
RTVSPost2010PropOp29
 70
     1
102
RTVSPost2010Prop30
280
     1
102
RTVSPost2010PropOp30
 70
     1
102
RTVSPost2010Prop31
280
     0
102
RTVSPost2010PropOp31
 70
     1
102
RTVSPost2010Prop32
280
     0
102
RTVSPost2010PropOp32
 70
     1
102
RTVSPost2010Prop33
280
     0
102
RTVSPost2010PropOp33
 70
     1
102
RTVSPost2010Prop34
280
     0
102
RTVSPost2010PropOp34
 70
     1
102
RTVSPost2010Prop35
280
     0
102
RTVSPost2010PropOp35
 70
     1
102
RTVSPost2010Prop36
280
     0
102
RTVSPost2010PropOp36
 70
     1
102
RTVSPost2010Prop37
 90
       50
102
RTVSPost2010PropOp37
 70
     1
102
RTVSPost2010Prop38
140
0.0
102
RTVSPost2010PropOp38
 70
     1
102
RTVSPost2010Prop39
140
1.0
102
RTVSPost2010PropOp39
 70
     1
102
RTVSPost2010Prop40
 90
        0
102
RTVSPost2010PropOp40
 70
     1
102
RTVSPost2010Prop41ColorIndex
 90
       18
102
RTVSPost2010Prop41ColorRGB
 90
        0
102
RTVSPost2010PropOp41
 70
     1
102
RTVSPost2010Prop42
 90
       50
102
RTVSPost2010PropOp42
 70
     1
102
RTVSPost2010Prop43
 90
        3
102
RTVSPost2010PropOp43
 70
     1
102
RTVSPost2010Prop44ColorIndex
 90
        5
102
RTVSPost2010Prop44ColorRGB
 90
      255
102
RTVSPost2010PropOp44
 70
     1
102
RTVSPost2010Prop45
280
     0
102
RTVSPost2010PropOp45
 70
     1
102
RTVSPost2010Prop46
 90
       50
102
RTVSPost2010PropOp46
 70
     1
102
RTVSPost2010Prop47
 90
       50
102
RTVSPost2010PropOp47
 70
     1
102
RTVSPost2010Prop48
 90
       50
102
RTVSPost2010PropOp48
 70
     1
102
RTVSPost2010Prop49
280
     0
102
RTVSPost2010PropOp49
 70
     1
102
RTVSPost2010Prop50
 90
       50
102
RTVSPost2010PropOp50
 70
     1
102
RTVSPost2010Prop51ColorIndex
 90
      256
102
RTVSPost2010Prop51ColorRGB
 90
-16777216
102
RTVSPost2010PropOp51
 70
     0
102
RTVSPost2010Prop52
140
1.0
102
RTVSPost2010PropOp52
 70
     0
102
RTVSPost2010Prop53
 90
        2
102
RTVSPost2010PropOp53
 70
     1
102
RTVSPost2010Prop54
  1
strokes_ogs.tif
102
RTVSPost2010PropOp54
 70
     1
102
RTVSPost2010Prop55
280
     0
102
RTVSPost2010PropOp55
 70
     1
102
RTVSPost2010Prop56
140
1.0
102
RTVSPost2010PropOp56
 70
     1
102
RTVSPost2010Prop57
140
1.0
102
RTVSPost2010PropOp57
 70
     1
  0
XRECORD
  5
953C5
102
{ACAD_REACTORS
330
87B0E
102
}
330
87B0E
100
AcDbXrecord
280
     1
102
RTVSPropertyOp0
 70
     1
102
RTVSPropertyOp1
 70
     1
102
RTVSPropertyOp2
 70
     1
102
RTVSPropertyOp3
 70
     1
102
RTVSPropertyOp4
 70
     1
102
RTVSPropertyOp5
 70
     1
102
RTVSPropertyOp6
 70
     1
102
RTVSPropertyOp7
 70
     1
102
RTVSPropertyOp8
 70
     1
102
RTVSPropertyOp9
 70
     1
102
RTVSPropertyOp10
 70
     1
102
RTVSPropertyOp11
 70
     1
102
RTVSPropertyOp12
 70
     1
102
RTVSPropertyOp13
 70
     1
102
RTVSPropertyOp14
 70
     1
102
RTVSPropertyOp15
 70
     1
102
RTVSPropertyOp16
 70
     1
102
RTVSPropertyOp17
 70
     1
102
RTVSPropertyOp18
 70
     1
102
RTVSPropertyOp19
 70
     1
102
RTVSPropertyOp20
 70
     1
102
RTVSPropertyOp21
 70
     1
102
RTVSPropertyOp22
 70
     1
102
RTVSPropertyOp23
 70
     1
102
RTVSPropertyOp24
 70
     1
102
RTVSPropertyOp25
 70
     1
102
RTVSPropertyOp26
 70
     1
102
RTVSPropertyOp27
 70
     1
102
RTVSPropertyOp28
 70
     1
102
RTVSPropertyOp29
 70
     1
102
RTVSPropertyOp30
 70
     1
102
RTVSPropertyOp31
 70
     1
102
RTVSPropertyOp32
 70
     1
102
RTVSPropertyOp33
 70
     1
102
RTVSPropertyOp34
 70
     1
102
RTVSPropertyOp35
 70
     1
102
RTVSPropertyOp36
 70
     1
102
RTVSPropertyOp37
 70
     1
102
RTVSPropertyOp38
 70
     1
102
RTVSPropertyOp39
 70
     1
102
RTVSPropertyOp40
 70
     1
102
RTVSPropertyOp41
 70
     1
102
RTVSPropertyOp42
 70
     1
102
RTVSPropertyOp43
 70
     1
102
RTVSPropertyOp44
 70
     1
102
RTVSPropertyOp45
 70
     1
102
RTVSPropertyOp46
 70
     1
102
RTVSPropertyOp47
 70
     1
102
RTVSPropertyOp48
 70
     1
102
RTVSPropertyOp49
 70
     1
102
RTVSPropertyOp50
 70
     1
102
RTVSPropertyOp51
 70
     0
102
RTVSPropertyOp52
 70
     0
102
RTVSPropertyOp53
 70
     1
102
RTVSPropertyOp54
 70
     1
102
RTVSPropertyOp55
 70
     1
102
RTVSPropertyOp56
 70
     1
102
RTVSPropertyOp57
 70
     1
102
RTVSPost2010Prop28
280
     0
102
RTVSPost2010PropOp28
 70
     1
102
RTVSPost2010Prop29
280
     1
102
RTVSPost2010PropOp29
 70
     1
102
RTVSPost2010Prop30
280
     1
102
RTVSPost2010PropOp30
 70
     1
102
RTVSPost2010Prop31
280
     0
102
RTVSPost2010PropOp31
 70
     1
102
RTVSPost2010Prop32
280
     0
102
RTVSPost2010PropOp32
 70
     1
102
RTVSPost2010Prop33
280
     0
102
RTVSPost2010PropOp33
 70
     1
102
RTVSPost2010Prop34
280
     0
102
RTVSPost2010PropOp34
 70
     1
102
RTVSPost2010Prop35
280
     0
102
RTVSPost2010PropOp35
 70
     1
102
RTVSPost2010Prop36
280
     0
102
RTVSPost2010PropOp36
 70
     1
102
RTVSPost2010Prop37
 90
       50
102
RTVSPost2010PropOp37
 70
     1
102
RTVSPost2010Prop38
140
0.0
102
RTVSPost2010PropOp38
 70
     1
102
RTVSPost2010Prop39
140
1.0
102
RTVSPost2010PropOp39
 70
     1
102
RTVSPost2010Prop40
 90
        0
102
RTVSPost2010PropOp40
 70
     1
102
RTVSPost2010Prop41ColorIndex
 90
       18
102
RTVSPost2010Prop41ColorRGB
 90
        0
102
RTVSPost2010PropOp41
 70
     1
102
RTVSPost2010Prop42
 90
       50
102
RTVSPost2010PropOp42
 70
     1
102
RTVSPost2010Prop43
 90
        3
102
RTVSPost2010PropOp43
 70
     1
102
RTVSPost2010Prop44ColorIndex
 90
        5
102
RTVSPost2010Prop44ColorRGB
 90
      255
102
RTVSPost2010PropOp44
 70
     1
102
RTVSPost2010Prop45
280
     0
102
RTVSPost2010PropOp45
 70
     1
102
RTVSPost2010Prop46
 90
       50
102
RTVSPost2010PropOp46
 70
     1
102
RTVSPost2010Prop47
 90
       50
102
RTVSPost2010PropOp47
 70
     1
102
RTVSPost2010Prop48
 90
       50
102
RTVSPost2010PropOp48
 70
     1
102
RTVSPost2010Prop49
280
     0
102
RTVSPost2010PropOp49
 70
     1
102
RTVSPost2010Prop50
 90
       50
102
RTVSPost2010PropOp50
 70
     1
102
RTVSPost2010Prop51ColorIndex
 90
      256
102
RTVSPost2010Prop51ColorRGB
 90
-16777216
102
RTVSPost2010PropOp51
 70
     0
102
RTVSPost2010Prop52
140
1.0
102
RTVSPost2010PropOp52
 70
     0
102
RTVSPost2010Prop53
 90
        2
102
RTVSPost2010PropOp53
 70
     1
102
RTVSPost2010Prop54
  1
strokes_ogs.tif
102
RTVSPost2010PropOp54
 70
     1
102
RTVSPost2010Prop55
280
     0
102
RTVSPost2010PropOp55
 70
     1
102
RTVSPost2010Prop56
140
1.0
102
RTVSPost2010PropOp56
 70
     1
102
RTVSPost2010Prop57
140
1.0
102
RTVSPost2010PropOp57
 70
     1
  0
XRECORD
  5
953C6
102
{ACAD_REACTORS
330
87B10
102
}
330
87B10
100
AcDbXrecord
280
     1
102
RTVSPropertyOp0
 70
     1
102
RTVSPropertyOp1
 70
     1
102
RTVSPropertyOp2
 70
     1
102
RTVSPropertyOp3
 70
     1
102
RTVSPropertyOp4
 70
     1
102
RTVSPropertyOp5
 70
     1
102
RTVSPropertyOp6
 70
     1
102
RTVSPropertyOp7
 70
     1
102
RTVSPropertyOp8
 70
     1
102
RTVSPropertyOp9
 70
     1
102
RTVSPropertyOp10
 70
     1
102
RTVSPropertyOp11
 70
     1
102
RTVSPropertyOp12
 70
     1
102
RTVSPropertyOp13
 70
     1
102
RTVSPropertyOp14
 70
     1
102
RTVSPropertyOp15
 70
     1
102
RTVSPropertyOp16
 70
     1
102
RTVSPropertyOp17
 70
     1
102
RTVSPropertyOp18
 70
     1
102
RTVSPropertyOp19
 70
     1
102
RTVSPropertyOp20
 70
     1
102
RTVSPropertyOp21
 70
     1
102
RTVSPropertyOp22
 70
     1
102
RTVSPropertyOp23
 70
     1
102
RTVSPropertyOp24
 70
     1
102
RTVSPropertyOp25
 70
     1
102
RTVSPropertyOp26
 70
     1
102
RTVSPropertyOp27
 70
     1
102
RTVSPropertyOp28
 70
     1
102
RTVSPropertyOp29
 70
     1
102
RTVSPropertyOp30
 70
     1
102
RTVSPropertyOp31
 70
     1
102
RTVSPropertyOp32
 70
     1
102
RTVSPropertyOp33
 70
     1
102
RTVSPropertyOp34
 70
     1
102
RTVSPropertyOp35
 70
     1
102
RTVSPropertyOp36
 70
     1
102
RTVSPropertyOp37
 70
     1
102
RTVSPropertyOp38
 70
     1
102
RTVSPropertyOp39
 70
     1
102
RTVSPropertyOp40
 70
     1
102
RTVSPropertyOp41
 70
     1
102
RTVSPropertyOp42
 70
     1
102
RTVSPropertyOp43
 70
     1
102
RTVSPropertyOp44
 70
     1
102
RTVSPropertyOp45
 70
     1
102
RTVSPropertyOp46
 70
     1
102
RTVSPropertyOp47
 70
     1
102
RTVSPropertyOp48
 70
     1
102
RTVSPropertyOp49
 70
     1
102
RTVSPropertyOp50
 70
     1
102
RTVSPropertyOp51
 70
     0
102
RTVSPropertyOp52
 70
     0
102
RTVSPropertyOp53
 70
     1
102
RTVSPropertyOp54
 70
     1
102
RTVSPropertyOp55
 70
     1
102
RTVSPropertyOp56
 70
     1
102
RTVSPropertyOp57
 70
     1
102
RTVSPost2010Prop28
280
     0
102
RTVSPost2010PropOp28
 70
     1
102
RTVSPost2010Prop29
280
     1
102
RTVSPost2010PropOp29
 70
     1
102
RTVSPost2010Prop30
280
     1
102
RTVSPost2010PropOp30
 70
     1
102
RTVSPost2010Prop31
280
     0
102
RTVSPost2010PropOp31
 70
     1
102
RTVSPost2010Prop32
280
     0
102
RTVSPost2010PropOp32
 70
     1
102
RTVSPost2010Prop33
280
     0
102
RTVSPost2010PropOp33
 70
     1
102
RTVSPost2010Prop34
280
     0
102
RTVSPost2010PropOp34
 70
     1
102
RTVSPost2010Prop35
280
     0
102
RTVSPost2010PropOp35
 70
     1
102
RTVSPost2010Prop36
280
     0
102
RTVSPost2010PropOp36
 70
     1
102
RTVSPost2010Prop37
 90
       50
102
RTVSPost2010PropOp37
 70
     1
102
RTVSPost2010Prop38
140
0.0
102
RTVSPost2010PropOp38
 70
     1
102
RTVSPost2010Prop39
140
1.0
102
RTVSPost2010PropOp39
 70
     1
102
RTVSPost2010Prop40
 90
        0
102
RTVSPost2010PropOp40
 70
     1
102
RTVSPost2010Prop41ColorIndex
 90
       18
102
RTVSPost2010Prop41ColorRGB
 90
        0
102
RTVSPost2010PropOp41
 70
     1
102
RTVSPost2010Prop42
 90
       50
102
RTVSPost2010PropOp42
 70
     1
102
RTVSPost2010Prop43
 90
        3
102
RTVSPost2010PropOp43
 70
     1
102
RTVSPost2010Prop44ColorIndex
 90
        5
102
RTVSPost2010Prop44ColorRGB
 90
      255
102
RTVSPost2010PropOp44
 70
     1
102
RTVSPost2010Prop45
280
     0
102
RTVSPost2010PropOp45
 70
     1
102
RTVSPost2010Prop46
 90
       50
102
RTVSPost2010PropOp46
 70
     1
102
RTVSPost2010Prop47
 90
       50
102
RTVSPost2010PropOp47
 70
     1
102
RTVSPost2010Prop48
 90
       50
102
RTVSPost2010PropOp48
 70
     1
102
RTVSPost2010Prop49
280
     0
102
RTVSPost2010PropOp49
 70
     1
102
RTVSPost2010Prop50
 90
       50
102
RTVSPost2010PropOp50
 70
     1
102
RTVSPost2010Prop51ColorIndex
 90
      256
102
RTVSPost2010Prop51ColorRGB
 90
-16777216
102
RTVSPost2010PropOp51
 70
     0
102
RTVSPost2010Prop52
140
1.0
102
RTVSPost2010PropOp52
 70
     0
102
RTVSPost2010Prop53
 90
        2
102
RTVSPost2010PropOp53
 70
     1
102
RTVSPost2010Prop54
  1
strokes_ogs.tif
102
RTVSPost2010PropOp54
 70
     1
102
RTVSPost2010Prop55
280
     0
102
RTVSPost2010PropOp55
 70
     1
102
RTVSPost2010Prop56
140
1.0
102
RTVSPost2010PropOp56
 70
     1
102
RTVSPost2010Prop57
140
1.0
102
RTVSPost2010PropOp57
 70
     1
  0
XRECORD
  5
953C7
102
{ACAD_REACTORS
330
87B12
102
}
330
87B12
100
AcDbXrecord
280
     1
102
RTVSPropertyOp0
 70
     1
102
RTVSPropertyOp1
 70
     1
102
RTVSPropertyOp2
 70
     1
102
RTVSPropertyOp3
 70
     1
102
RTVSPropertyOp4
 70
     1
102
RTVSPropertyOp5
 70
     1
102
RTVSPropertyOp6
 70
     1
102
RTVSPropertyOp7
 70
     1
102
RTVSPropertyOp8
 70
     1
102
RTVSPropertyOp9
 70
     1
102
RTVSPropertyOp10
 70
     1
102
RTVSPropertyOp11
 70
     1
102
RTVSPropertyOp12
 70
     1
102
RTVSPropertyOp13
 70
     1
102
RTVSPropertyOp14
 70
     1
102
RTVSPropertyOp15
 70
     1
102
RTVSPropertyOp16
 70
     1
102
RTVSPropertyOp17
 70
     1
102
RTVSPropertyOp18
 70
     1
102
RTVSPropertyOp19
 70
     1
102
RTVSPropertyOp20
 70
     1
102
RTVSPropertyOp21
 70
     1
102
RTVSPropertyOp22
 70
     1
102
RTVSPropertyOp23
 70
     1
102
RTVSPropertyOp24
 70
     1
102
RTVSPropertyOp25
 70
     1
102
RTVSPropertyOp26
 70
     1
102
RTVSPropertyOp27
 70
     1
102
RTVSPropertyOp28
 70
     1
102
RTVSPropertyOp29
 70
     1
102
RTVSPropertyOp30
 70
     1
102
RTVSPropertyOp31
 70
     1
102
RTVSPropertyOp32
 70
     1
102
RTVSPropertyOp33
 70
     1
102
RTVSPropertyOp34
 70
     1
102
RTVSPropertyOp35
 70
     1
102
RTVSPropertyOp36
 70
     1
102
RTVSPropertyOp37
 70
     1
102
RTVSPropertyOp38
 70
     1
102
RTVSPropertyOp39
 70
     1
102
RTVSPropertyOp40
 70
     1
102
RTVSPropertyOp41
 70
     1
102
RTVSPropertyOp42
 70
     1
102
RTVSPropertyOp43
 70
     1
102
RTVSPropertyOp44
 70
     1
102
RTVSPropertyOp45
 70
     1
102
RTVSPropertyOp46
 70
     1
102
RTVSPropertyOp47
 70
     1
102
RTVSPropertyOp48
 70
     1
102
RTVSPropertyOp49
 70
     1
102
RTVSPropertyOp50
 70
     1
102
RTVSPropertyOp51
 70
     0
102
RTVSPropertyOp52
 70
     0
102
RTVSPropertyOp53
 70
     1
102
RTVSPropertyOp54
 70
     1
102
RTVSPropertyOp55
 70
     1
102
RTVSPropertyOp56
 70
     1
102
RTVSPropertyOp57
 70
     1
102
RTVSPost2010Prop28
280
     0
102
RTVSPost2010PropOp28
 70
     1
102
RTVSPost2010Prop29
280
     1
102
RTVSPost2010PropOp29
 70
     1
102
RTVSPost2010Prop30
280
     1
102
RTVSPost2010PropOp30
 70
     1
102
RTVSPost2010Prop31
280
     0
102
RTVSPost2010PropOp31
 70
     1
102
RTVSPost2010Prop32
280
     0
102
RTVSPost2010PropOp32
 70
     1
102
RTVSPost2010Prop33
280
     0
102
RTVSPost2010PropOp33
 70
     1
102
RTVSPost2010Prop34
280
     0
102
RTVSPost2010PropOp34
 70
     1
102
RTVSPost2010Prop35
280
     0
102
RTVSPost2010PropOp35
 70
     1
102
RTVSPost2010Prop36
280
     0
102
RTVSPost2010PropOp36
 70
     1
102
RTVSPost2010Prop37
 90
       50
102
RTVSPost2010PropOp37
 70
     1
102
RTVSPost2010Prop38
140
0.0
102
RTVSPost2010PropOp38
 70
     1
102
RTVSPost2010Prop39
140
1.0
102
RTVSPost2010PropOp39
 70
     1
102
RTVSPost2010Prop40
 90
        0
102
RTVSPost2010PropOp40
 70
     1
102
RTVSPost2010Prop41ColorIndex
 90
       18
102
RTVSPost2010Prop41ColorRGB
 90
        0
102
RTVSPost2010PropOp41
 70
     1
102
RTVSPost2010Prop42
 90
       50
102
RTVSPost2010PropOp42
 70
     1
102
RTVSPost2010Prop43
 90
        3
102
RTVSPost2010PropOp43
 70
     1
102
RTVSPost2010Prop44ColorIndex
 90
        5
102
RTVSPost2010Prop44ColorRGB
 90
      255
102
RTVSPost2010PropOp44
 70
     1
102
RTVSPost2010Prop45
280
     0
102
RTVSPost2010PropOp45
 70
     1
102
RTVSPost2010Prop46
 90
       50
102
RTVSPost2010PropOp46
 70
     1
102
RTVSPost2010Prop47
 90
       50
102
RTVSPost2010PropOp47
 70
     1
102
RTVSPost2010Prop48
 90
       50
102
RTVSPost2010PropOp48
 70
     1
102
RTVSPost2010Prop49
280
     0
102
RTVSPost2010PropOp49
 70
     1
102
RTVSPost2010Prop50
 90
       50
102
RTVSPost2010PropOp50
 70
     1
102
RTVSPost2010Prop51ColorIndex
 90
      256
102
RTVSPost2010Prop51ColorRGB
 90
-16777216
102
RTVSPost2010PropOp51
 70
     0
102
RTVSPost2010Prop52
140
1.0
102
RTVSPost2010PropOp52
 70
     0
102
RTVSPost2010Prop53
 90
        2
102
RTVSPost2010PropOp53
 70
     1
102
RTVSPost2010Prop54
  1
strokes_ogs.tif
102
RTVSPost2010PropOp54
 70
     1
102
RTVSPost2010Prop55
280
     0
102
RTVSPost2010PropOp55
 70
     1
102
RTVSPost2010Prop56
140
1.0
102
RTVSPost2010PropOp56
 70
     1
102
RTVSPost2010Prop57
140
1.0
102
RTVSPost2010PropOp57
 70
     1
  0
XRECORD
  5
953C8
102
{ACAD_REACTORS
330
87B14
102
}
330
87B14
100
AcDbXrecord
280
     1
102
RTVSPropertyOp0
 70
     1
102
RTVSPropertyOp1
 70
     1
102
RTVSPropertyOp2
 70
     1
102
RTVSPropertyOp3
 70
     1
102
RTVSPropertyOp4
 70
     1
102
RTVSPropertyOp5
 70
     1
102
RTVSPropertyOp6
 70
     1
102
RTVSPropertyOp7
 70
     1
102
RTVSPropertyOp8
 70
     1
102
RTVSPropertyOp9
 70
     1
102
RTVSPropertyOp10
 70
     1
102
RTVSPropertyOp11
 70
     1
102
RTVSPropertyOp12
 70
     1
102
RTVSPropertyOp13
 70
     1
102
RTVSPropertyOp14
 70
     1
102
RTVSPropertyOp15
 70
     1
102
RTVSPropertyOp16
 70
     1
102
RTVSPropertyOp17
 70
     1
102
RTVSPropertyOp18
 70
     1
102
RTVSPropertyOp19
 70
     1
102
RTVSPropertyOp20
 70
     1
102
RTVSPropertyOp21
 70
     1
102
RTVSPropertyOp22
 70
     1
102
RTVSPropertyOp23
 70
     1
102
RTVSPropertyOp24
 70
     1
102
RTVSPropertyOp25
 70
     1
102
RTVSPropertyOp26
 70
     1
102
RTVSPropertyOp27
 70
     1
102
RTVSPropertyOp28
 70
     1
102
RTVSPropertyOp29
 70
     1
102
RTVSPropertyOp30
 70
     1
102
RTVSPropertyOp31
 70
     1
102
RTVSPropertyOp32
 70
     1
102
RTVSPropertyOp33
 70
     1
102
RTVSPropertyOp34
 70
     1
102
RTVSPropertyOp35
 70
     1
102
RTVSPropertyOp36
 70
     1
102
RTVSPropertyOp37
 70
     1
102
RTVSPropertyOp38
 70
     1
102
RTVSPropertyOp39
 70
     1
102
RTVSPropertyOp40
 70
     1
102
RTVSPropertyOp41
 70
     1
102
RTVSPropertyOp42
 70
     1
102
RTVSPropertyOp43
 70
     1
102
RTVSPropertyOp44
 70
     1
102
RTVSPropertyOp45
 70
     1
102
RTVSPropertyOp46
 70
     1
102
RTVSPropertyOp47
 70
     1
102
RTVSPropertyOp48
 70
     1
102
RTVSPropertyOp49
 70
     1
102
RTVSPropertyOp50
 70
     1
102
RTVSPropertyOp51
 70
     0
102
RTVSPropertyOp52
 70
     0
102
RTVSPropertyOp53
 70
     1
102
RTVSPropertyOp54
 70
     1
102
RTVSPropertyOp55
 70
     1
102
RTVSPropertyOp56
 70
     1
102
RTVSPropertyOp57
 70
     1
102
RTVSPost2010Prop28
280
     0
102
RTVSPost2010PropOp28
 70
     1
102
RTVSPost2010Prop29
280
     1
102
RTVSPost2010PropOp29
 70
     1
102
RTVSPost2010Prop30
280
     1
102
RTVSPost2010PropOp30
 70
     1
102
RTVSPost2010Prop31
280
     0
102
RTVSPost2010PropOp31
 70
     1
102
RTVSPost2010Prop32
280
     0
102
RTVSPost2010PropOp32
 70
     1
102
RTVSPost2010Prop33
280
     0
102
RTVSPost2010PropOp33
 70
     1
102
RTVSPost2010Prop34
280
     0
102
RTVSPost2010PropOp34
 70
     1
102
RTVSPost2010Prop35
280
     0
102
RTVSPost2010PropOp35
 70
     1
102
RTVSPost2010Prop36
280
     0
102
RTVSPost2010PropOp36
 70
     1
102
RTVSPost2010Prop37
 90
       50
102
RTVSPost2010PropOp37
 70
     1
102
RTVSPost2010Prop38
140
0.0
102
RTVSPost2010PropOp38
 70
     1
102
RTVSPost2010Prop39
140
1.0
102
RTVSPost2010PropOp39
 70
     1
102
RTVSPost2010Prop40
 90
        0
102
RTVSPost2010PropOp40
 70
     1
102
RTVSPost2010Prop41ColorIndex
 90
       18
102
RTVSPost2010Prop41ColorRGB
 90
        0
102
RTVSPost2010PropOp41
 70
     1
102
RTVSPost2010Prop42
 90
       50
102
RTVSPost2010PropOp42
 70
     1
102
RTVSPost2010Prop43
 90
        3
102
RTVSPost2010PropOp43
 70
     1
102
RTVSPost2010Prop44ColorIndex
 90
        5
102
RTVSPost2010Prop44ColorRGB
 90
      255
102
RTVSPost2010PropOp44
 70
     1
102
RTVSPost2010Prop45
280
     0
102
RTVSPost2010PropOp45
 70
     1
102
RTVSPost2010Prop46
 90
       50
102
RTVSPost2010PropOp46
 70
     1
102
RTVSPost2010Prop47
 90
       50
102
RTVSPost2010PropOp47
 70
     1
102
RTVSPost2010Prop48
 90
       50
102
RTVSPost2010PropOp48
 70
     1
102
RTVSPost2010Prop49
280
     0
102
RTVSPost2010PropOp49
 70
     1
102
RTVSPost2010Prop50
 90
       50
102
RTVSPost2010PropOp50
 70
     1
102
RTVSPost2010Prop51ColorIndex
 90
      256
102
RTVSPost2010Prop51ColorRGB
 90
-16777216
102
RTVSPost2010PropOp51
 70
     0
102
RTVSPost2010Prop52
140
1.0
102
RTVSPost2010PropOp52
 70
     0
102
RTVSPost2010Prop53
 90
        2
102
RTVSPost2010PropOp53
 70
     1
102
RTVSPost2010Prop54
  1
strokes_ogs.tif
102
RTVSPost2010PropOp54
 70
     1
102
RTVSPost2010Prop55
280
     0
102
RTVSPost2010PropOp55
 70
     1
102
RTVSPost2010Prop56
140
1.0
102
RTVSPost2010PropOp56
 70
     1
102
RTVSPost2010Prop57
140
1.0
102
RTVSPost2010PropOp57
 70
     1
  0
XRECORD
  5
953C9
102
{ACAD_REACTORS
330
87B1C
102
}
330
87B1C
100
AcDbXrecord
280
     1
102
RTVSPropertyOp0
 70
     1
102
RTVSPropertyOp1
 70
     1
102
RTVSPropertyOp2
 70
     1
102
RTVSPropertyOp3
 70
     1
102
RTVSPropertyOp4
 70
     1
102
RTVSPropertyOp5
 70
     1
102
RTVSPropertyOp6
 70
     1
102
RTVSPropertyOp7
 70
     1
102
RTVSPropertyOp8
 70
     1
102
RTVSPropertyOp9
 70
     1
102
RTVSPropertyOp10
 70
     1
102
RTVSPropertyOp11
 70
     1
102
RTVSPropertyOp12
 70
     1
102
RTVSPropertyOp13
 70
     1
102
RTVSPropertyOp14
 70
     1
102
RTVSPropertyOp15
 70
     1
102
RTVSPropertyOp16
 70
     1
102
RTVSPropertyOp17
 70
     1
102
RTVSPropertyOp18
 70
     1
102
RTVSPropertyOp19
 70
     1
102
RTVSPropertyOp20
 70
     1
102
RTVSPropertyOp21
 70
     1
102
RTVSPropertyOp22
 70
     1
102
RTVSPropertyOp23
 70
     1
102
RTVSPropertyOp24
 70
     1
102
RTVSPropertyOp25
 70
     1
102
RTVSPropertyOp26
 70
     1
102
RTVSPropertyOp27
 70
     1
102
RTVSPropertyOp28
 70
     1
102
RTVSPropertyOp29
 70
     1
102
RTVSPropertyOp30
 70
     1
102
RTVSPropertyOp31
 70
     1
102
RTVSPropertyOp32
 70
     1
102
RTVSPropertyOp33
 70
     1
102
RTVSPropertyOp34
 70
     1
102
RTVSPropertyOp35
 70
     1
102
RTVSPropertyOp36
 70
     1
102
RTVSPropertyOp37
 70
     1
102
RTVSPropertyOp38
 70
     1
102
RTVSPropertyOp39
 70
     1
102
RTVSPropertyOp40
 70
     1
102
RTVSPropertyOp41
 70
     1
102
RTVSPropertyOp42
 70
     1
102
RTVSPropertyOp43
 70
     1
102
RTVSPropertyOp44
 70
     1
102
RTVSPropertyOp45
 70
     1
102
RTVSPropertyOp46
 70
     1
102
RTVSPropertyOp47
 70
     1
102
RTVSPropertyOp48
 70
     1
102
RTVSPropertyOp49
 70
     1
102
RTVSPropertyOp50
 70
     1
102
RTVSPropertyOp51
 70
     0
102
RTVSPropertyOp52
 70
     0
102
RTVSPropertyOp53
 70
     1
102
RTVSPropertyOp54
 70
     1
102
RTVSPropertyOp55
 70
     1
102
RTVSPropertyOp56
 70
     1
102
RTVSPropertyOp57
 70
     1
102
RTVSPost2010Prop28
280
     0
102
RTVSPost2010PropOp28
 70
     1
102
RTVSPost2010Prop29
280
     1
102
RTVSPost2010PropOp29
 70
     1
102
RTVSPost2010Prop30
280
     1
102
RTVSPost2010PropOp30
 70
     1
102
RTVSPost2010Prop31
280
     0
102
RTVSPost2010PropOp31
 70
     1
102
RTVSPost2010Prop32
280
     0
102
RTVSPost2010PropOp32
 70
     1
102
RTVSPost2010Prop33
280
     0
102
RTVSPost2010PropOp33
 70
     1
102
RTVSPost2010Prop34
280
     0
102
RTVSPost2010PropOp34
 70
     1
102
RTVSPost2010Prop35
280
     0
102
RTVSPost2010PropOp35
 70
     1
102
RTVSPost2010Prop36
280
     0
102
RTVSPost2010PropOp36
 70
     1
102
RTVSPost2010Prop37
 90
       50
102
RTVSPost2010PropOp37
 70
     1
102
RTVSPost2010Prop38
140
0.0
102
RTVSPost2010PropOp38
 70
     1
102
RTVSPost2010Prop39
140
1.0
102
RTVSPost2010PropOp39
 70
     1
102
RTVSPost2010Prop40
 90
        0
102
RTVSPost2010PropOp40
 70
     1
102
RTVSPost2010Prop41ColorIndex
 90
       18
102
RTVSPost2010Prop41ColorRGB
 90
        0
102
RTVSPost2010PropOp41
 70
     1
102
RTVSPost2010Prop42
 90
       50
102
RTVSPost2010PropOp42
 70
     1
102
RTVSPost2010Prop43
 90
        3
102
RTVSPost2010PropOp43
 70
     1
102
RTVSPost2010Prop44ColorIndex
 90
        5
102
RTVSPost2010Prop44ColorRGB
 90
      255
102
RTVSPost2010PropOp44
 70
     1
102
RTVSPost2010Prop45
280
     0
102
RTVSPost2010PropOp45
 70
     1
102
RTVSPost2010Prop46
 90
       50
102
RTVSPost2010PropOp46
 70
     1
102
RTVSPost2010Prop47
 90
       50
102
RTVSPost2010PropOp47
 70
     1
102
RTVSPost2010Prop48
 90
       50
102
RTVSPost2010PropOp48
 70
     1
102
RTVSPost2010Prop49
280
     0
102
RTVSPost2010PropOp49
 70
     1
102
RTVSPost2010Prop50
 90
       50
102
RTVSPost2010PropOp50
 70
     1
102
RTVSPost2010Prop51ColorIndex
 90
      256
102
RTVSPost2010Prop51ColorRGB
 90
-16777216
102
RTVSPost2010PropOp51
 70
     0
102
RTVSPost2010Prop52
140
1.0
102
RTVSPost2010PropOp52
 70
     0
102
RTVSPost2010Prop53
 90
        2
102
RTVSPost2010PropOp53
 70
     1
102
RTVSPost2010Prop54
  1
strokes_ogs.tif
102
RTVSPost2010PropOp54
 70
     1
102
RTVSPost2010Prop55
280
     0
102
RTVSPost2010PropOp55
 70
     1
102
RTVSPost2010Prop56
140
1.0
102
RTVSPost2010PropOp56
 70
     1
102
RTVSPost2010Prop57
140
1.0
102
RTVSPost2010PropOp57
 70
     1
  0
XRECORD
  5
953CA
102
{ACAD_REACTORS
330
87B38
102
}
330
87B38
100
AcDbXrecord
280
     1
102
RTVSPropertyOp0
 70
     0
102
RTVSPropertyOp1
 70
     0
102
RTVSPropertyOp2
 70
     0
102
RTVSPropertyOp3
 70
     0
102
RTVSPropertyOp4
 70
     0
102
RTVSPropertyOp5
 70
     0
102
RTVSPropertyOp6
 70
     0
102
RTVSPropertyOp7
 70
     0
102
RTVSPropertyOp8
 70
     0
102
RTVSPropertyOp9
 70
     0
102
RTVSPropertyOp10
 70
     0
102
RTVSPropertyOp11
 70
     0
102
RTVSPropertyOp12
 70
     0
102
RTVSPropertyOp13
 70
     0
102
RTVSPropertyOp14
 70
     2
102
RTVSPropertyOp15
 70
     0
102
RTVSPropertyOp16
 70
     0
102
RTVSPropertyOp17
 70
     0
102
RTVSPropertyOp18
 70
     0
102
RTVSPropertyOp19
 70
     0
102
RTVSPropertyOp20
 70
     0
102
RTVSPropertyOp21
 70
     0
102
RTVSPropertyOp22
 70
     0
102
RTVSPropertyOp23
 70
     0
102
RTVSPropertyOp24
 70
     0
102
RTVSPropertyOp25
 70
     0
102
RTVSPropertyOp26
 70
     0
102
RTVSPropertyOp27
 70
     0
102
RTVSPropertyOp28
 70
     1
102
RTVSPropertyOp29
 70
     1
102
RTVSPropertyOp30
 70
     1
102
RTVSPropertyOp31
 70
     1
102
RTVSPropertyOp32
 70
     1
102
RTVSPropertyOp33
 70
     1
102
RTVSPropertyOp34
 70
     1
102
RTVSPropertyOp35
 70
     1
102
RTVSPropertyOp36
 70
     1
102
RTVSPropertyOp37
 70
     0
102
RTVSPropertyOp38
 70
     0
102
RTVSPropertyOp39
 70
     0
102
RTVSPropertyOp40
 70
     0
102
RTVSPropertyOp41
 70
     0
102
RTVSPropertyOp42
 70
     0
102
RTVSPropertyOp43
 70
     0
102
RTVSPropertyOp44
 70
     0
102
RTVSPropertyOp45
 70
     1
102
RTVSPropertyOp46
 70
     0
102
RTVSPropertyOp47
 70
     0
102
RTVSPropertyOp48
 70
     0
102
RTVSPropertyOp49
 70
     1
102
RTVSPropertyOp50
 70
     0
102
RTVSPropertyOp51
 70
     0
102
RTVSPropertyOp52
 70
     0
102
RTVSPropertyOp53
 70
     0
102
RTVSPropertyOp54
 70
     0
102
RTVSPropertyOp55
 70
     1
102
RTVSPropertyOp56
 70
     0
102
RTVSPropertyOp57
 70
     0
102
RTVSPost2010Prop28
280
     0
102
RTVSPost2010PropOp28
 70
     1
102
RTVSPost2010Prop29
280
     1
102
RTVSPost2010PropOp29
 70
     1
102
RTVSPost2010Prop30
280
     1
102
RTVSPost2010PropOp30
 70
     1
102
RTVSPost2010Prop31
280
     0
102
RTVSPost2010PropOp31
 70
     1
102
RTVSPost2010Prop32
280
     0
102
RTVSPost2010PropOp32
 70
     1
102
RTVSPost2010Prop33
280
     0
102
RTVSPost2010PropOp33
 70
     1
102
RTVSPost2010Prop34
280
     0
102
RTVSPost2010PropOp34
 70
     1
102
RTVSPost2010Prop35
280
     0
102
RTVSPost2010PropOp35
 70
     1
102
RTVSPost2010Prop36
280
     0
102
RTVSPost2010PropOp36
 70
     1
102
RTVSPost2010Prop37
 90
       50
102
RTVSPost2010PropOp37
 70
     0
102
RTVSPost2010Prop38
140
0.0
102
RTVSPost2010PropOp38
 70
     0
102
RTVSPost2010Prop39
140
1.0
102
RTVSPost2010PropOp39
 70
     0
102
RTVSPost2010Prop40
 90
        0
102
RTVSPost2010PropOp40
 70
     0
102
RTVSPost2010Prop41ColorIndex
 90
       18
102
RTVSPost2010Prop41ColorRGB
 90
        0
102
RTVSPost2010PropOp41
 70
     0
102
RTVSPost2010Prop42
 90
       50
102
RTVSPost2010PropOp42
 70
     0
102
RTVSPost2010Prop43
 90
        3
102
RTVSPost2010PropOp43
 70
     0
102
RTVSPost2010Prop44ColorIndex
 90
        5
102
RTVSPost2010Prop44ColorRGB
 90
      255
102
RTVSPost2010PropOp44
 70
     0
102
RTVSPost2010Prop45
280
     0
102
RTVSPost2010PropOp45
 70
     1
102
RTVSPost2010Prop46
 90
       50
102
RTVSPost2010PropOp46
 70
     0
102
RTVSPost2010Prop47
 90
       50
102
RTVSPost2010PropOp47
 70
     0
102
RTVSPost2010Prop48
 90
       50
102
RTVSPost2010PropOp48
 70
     0
102
RTVSPost2010Prop49
280
     0
102
RTVSPost2010PropOp49
 70
     1
102
RTVSPost2010Prop50
 90
       50
102
RTVSPost2010PropOp50
 70
     0
102
RTVSPost2010Prop51ColorIndex
 90
      256
102
RTVSPost2010Prop51ColorRGB
 90
-16777216
102
RTVSPost2010PropOp51
 70
     0
102
RTVSPost2010Prop52
140
1.0
102
RTVSPost2010PropOp52
 70
     0
102
RTVSPost2010Prop53
 90
        2
102
RTVSPost2010PropOp53
 70
     0
102
RTVSPost2010Prop54
  1
strokes_ogs.tif
102
RTVSPost2010PropOp54
 70
     0
102
RTVSPost2010Prop55
280
     0
102
RTVSPost2010PropOp55
 70
     1
102
RTVSPost2010Prop56
140
1.0
102
RTVSPost2010PropOp56
 70
     0
102
RTVSPost2010Prop57
140
1.0
102
RTVSPost2010PropOp57
 70
     0
  0
XRECORD
  5
953CB
102
{ACAD_REACTORS
330
87B28
102
}
330
87B28
100
AcDbXrecord
280
     1
102
RTVSPropertyOp0
 70
     1
102
RTVSPropertyOp1
 70
     1
102
RTVSPropertyOp2
 70
     1
102
RTVSPropertyOp3
 70
     1
102
RTVSPropertyOp4
 70
     1
102
RTVSPropertyOp5
 70
     1
102
RTVSPropertyOp6
 70
     1
102
RTVSPropertyOp7
 70
     1
102
RTVSPropertyOp8
 70
     1
102
RTVSPropertyOp9
 70
     1
102
RTVSPropertyOp10
 70
     1
102
RTVSPropertyOp11
 70
     1
102
RTVSPropertyOp12
 70
     1
102
RTVSPropertyOp13
 70
     1
102
RTVSPropertyOp14
 70
     1
102
RTVSPropertyOp15
 70
     1
102
RTVSPropertyOp16
 70
     1
102
RTVSPropertyOp17
 70
     1
102
RTVSPropertyOp18
 70
     1
102
RTVSPropertyOp19
 70
     1
102
RTVSPropertyOp20
 70
     1
102
RTVSPropertyOp21
 70
     1
102
RTVSPropertyOp22
 70
     1
102
RTVSPropertyOp23
 70
     1
102
RTVSPropertyOp24
 70
     1
102
RTVSPropertyOp25
 70
     1
102
RTVSPropertyOp26
 70
     1
102
RTVSPropertyOp27
 70
     1
102
RTVSPropertyOp28
 70
     1
102
RTVSPropertyOp29
 70
     1
102
RTVSPropertyOp30
 70
     1
102
RTVSPropertyOp31
 70
     1
102
RTVSPropertyOp32
 70
     1
102
RTVSPropertyOp33
 70
     1
102
RTVSPropertyOp34
 70
     1
102
RTVSPropertyOp35
 70
     1
102
RTVSPropertyOp36
 70
     1
102
RTVSPropertyOp37
 70
     1
102
RTVSPropertyOp38
 70
     1
102
RTVSPropertyOp39
 70
     1
102
RTVSPropertyOp40
 70
     1
102
RTVSPropertyOp41
 70
     1
102
RTVSPropertyOp42
 70
     1
102
RTVSPropertyOp43
 70
     1
102
RTVSPropertyOp44
 70
     1
102
RTVSPropertyOp45
 70
     1
102
RTVSPropertyOp46
 70
     1
102
RTVSPropertyOp47
 70
     1
102
RTVSPropertyOp48
 70
     1
102
RTVSPropertyOp49
 70
     1
102
RTVSPropertyOp50
 70
     1
102
RTVSPropertyOp51
 70
     0
102
RTVSPropertyOp52
 70
     0
102
RTVSPropertyOp53
 70
     1
102
RTVSPropertyOp54
 70
     1
102
RTVSPropertyOp55
 70
     1
102
RTVSPropertyOp56
 70
     1
102
RTVSPropertyOp57
 70
     1
102
RTVSPost2010Prop28
280
     0
102
RTVSPost2010PropOp28
 70
     1
102
RTVSPost2010Prop29
280
     1
102
RTVSPost2010PropOp29
 70
     1
102
RTVSPost2010Prop30
280
     1
102
RTVSPost2010PropOp30
 70
     1
102
RTVSPost2010Prop31
280
     0
102
RTVSPost2010PropOp31
 70
     1
102
RTVSPost2010Prop32
280
     0
102
RTVSPost2010PropOp32
 70
     1
102
RTVSPost2010Prop33
280
     0
102
RTVSPost2010PropOp33
 70
     1
102
RTVSPost2010Prop34
280
     0
102
RTVSPost2010PropOp34
 70
     1
102
RTVSPost2010Prop35
280
     0
102
RTVSPost2010PropOp35
 70
     1
102
RTVSPost2010Prop36
280
     0
102
RTVSPost2010PropOp36
 70
     1
102
RTVSPost2010Prop37
 90
       50
102
RTVSPost2010PropOp37
 70
     1
102
RTVSPost2010Prop38
140
0.0
102
RTVSPost2010PropOp38
 70
     1
102
RTVSPost2010Prop39
140
1.0
102
RTVSPost2010PropOp39
 70
     1
102
RTVSPost2010Prop40
 90
        0
102
RTVSPost2010PropOp40
 70
     1
102
RTVSPost2010Prop41ColorIndex
 90
       18
102
RTVSPost2010Prop41ColorRGB
 90
        0
102
RTVSPost2010PropOp41
 70
     1
102
RTVSPost2010Prop42
 90
       50
102
RTVSPost2010PropOp42
 70
     1
102
RTVSPost2010Prop43
 90
        3
102
RTVSPost2010PropOp43
 70
     1
102
RTVSPost2010Prop44ColorIndex
 90
        5
102
RTVSPost2010Prop44ColorRGB
 90
      255
102
RTVSPost2010PropOp44
 70
     1
102
RTVSPost2010Prop45
280
     0
102
RTVSPost2010PropOp45
 70
     1
102
RTVSPost2010Prop46
 90
       50
102
RTVSPost2010PropOp46
 70
     1
102
RTVSPost2010Prop47
 90
       50
102
RTVSPost2010PropOp47
 70
     1
102
RTVSPost2010Prop48
 90
       50
102
RTVSPost2010PropOp48
 70
     1
102
RTVSPost2010Prop49
280
     0
102
RTVSPost2010PropOp49
 70
     1
102
RTVSPost2010Prop50
 90
       50
102
RTVSPost2010PropOp50
 70
     1
102
RTVSPost2010Prop51ColorIndex
 90
      256
102
RTVSPost2010Prop51ColorRGB
 90
-16777216
102
RTVSPost2010PropOp51
 70
     0
102
RTVSPost2010Prop52
140
1.0
102
RTVSPost2010PropOp52
 70
     0
102
RTVSPost2010Prop53
 90
        2
102
RTVSPost2010PropOp53
 70
     1
102
RTVSPost2010Prop54
  1
strokes_ogs.tif
102
RTVSPost2010PropOp54
 70
     1
102
RTVSPost2010Prop55
280
     0
102
RTVSPost2010PropOp55
 70
     1
102
RTVSPost2010Prop56
140
1.0
102
RTVSPost2010PropOp56
 70
     1
102
RTVSPost2010Prop57
140
1.0
102
RTVSPost2010PropOp57
 70
     1
  0
XRECORD
  5
953CC
102
{ACAD_REACTORS
330
87B3A
102
}
330
87B3A
100
AcDbXrecord
280
     1
102
RTVSPropertyOp0
 70
     0
102
RTVSPropertyOp1
 70
     0
102
RTVSPropertyOp2
 70
     0
102
RTVSPropertyOp3
 70
     0
102
RTVSPropertyOp4
 70
     0
102
RTVSPropertyOp5
 70
     0
102
RTVSPropertyOp6
 70
     0
102
RTVSPropertyOp7
 70
     0
102
RTVSPropertyOp8
 70
     0
102
RTVSPropertyOp9
 70
     0
102
RTVSPropertyOp10
 70
     0
102
RTVSPropertyOp11
 70
     0
102
RTVSPropertyOp12
 70
     0
102
RTVSPropertyOp13
 70
     0
102
RTVSPropertyOp14
 70
     2
102
RTVSPropertyOp15
 70
     0
102
RTVSPropertyOp16
 70
     0
102
RTVSPropertyOp17
 70
     0
102
RTVSPropertyOp18
 70
     0
102
RTVSPropertyOp19
 70
     0
102
RTVSPropertyOp20
 70
     0
102
RTVSPropertyOp21
 70
     0
102
RTVSPropertyOp22
 70
     0
102
RTVSPropertyOp23
 70
     0
102
RTVSPropertyOp24
 70
     0
102
RTVSPropertyOp25
 70
     0
102
RTVSPropertyOp26
 70
     0
102
RTVSPropertyOp27
 70
     0
102
RTVSPropertyOp28
 70
     1
102
RTVSPropertyOp29
 70
     1
102
RTVSPropertyOp30
 70
     1
102
RTVSPropertyOp31
 70
     1
102
RTVSPropertyOp32
 70
     1
102
RTVSPropertyOp33
 70
     1
102
RTVSPropertyOp34
 70
     1
102
RTVSPropertyOp35
 70
     1
102
RTVSPropertyOp36
 70
     1
102
RTVSPropertyOp37
 70
     0
102
RTVSPropertyOp38
 70
     0
102
RTVSPropertyOp39
 70
     0
102
RTVSPropertyOp40
 70
     0
102
RTVSPropertyOp41
 70
     0
102
RTVSPropertyOp42
 70
     0
102
RTVSPropertyOp43
 70
     0
102
RTVSPropertyOp44
 70
     0
102
RTVSPropertyOp45
 70
     1
102
RTVSPropertyOp46
 70
     0
102
RTVSPropertyOp47
 70
     0
102
RTVSPropertyOp48
 70
     0
102
RTVSPropertyOp49
 70
     1
102
RTVSPropertyOp50
 70
     0
102
RTVSPropertyOp51
 70
     0
102
RTVSPropertyOp52
 70
     0
102
RTVSPropertyOp53
 70
     0
102
RTVSPropertyOp54
 70
     0
102
RTVSPropertyOp55
 70
     1
102
RTVSPropertyOp56
 70
     0
102
RTVSPropertyOp57
 70
     0
102
RTVSPost2010Prop28
280
     0
102
RTVSPost2010PropOp28
 70
     1
102
RTVSPost2010Prop29
280
     1
102
RTVSPost2010PropOp29
 70
     1
102
RTVSPost2010Prop30
280
     1
102
RTVSPost2010PropOp30
 70
     1
102
RTVSPost2010Prop31
280
     0
102
RTVSPost2010PropOp31
 70
     1
102
RTVSPost2010Prop32
280
     0
102
RTVSPost2010PropOp32
 70
     1
102
RTVSPost2010Prop33
280
     0
102
RTVSPost2010PropOp33
 70
     1
102
RTVSPost2010Prop34
280
     0
102
RTVSPost2010PropOp34
 70
     1
102
RTVSPost2010Prop35
280
     0
102
RTVSPost2010PropOp35
 70
     1
102
RTVSPost2010Prop36
280
     0
102
RTVSPost2010PropOp36
 70
     1
102
RTVSPost2010Prop37
 90
       50
102
RTVSPost2010PropOp37
 70
     0
102
RTVSPost2010Prop38
140
0.0
102
RTVSPost2010PropOp38
 70
     0
102
RTVSPost2010Prop39
140
1.0
102
RTVSPost2010PropOp39
 70
     0
102
RTVSPost2010Prop40
 90
        0
102
RTVSPost2010PropOp40
 70
     0
102
RTVSPost2010Prop41ColorIndex
 90
       18
102
RTVSPost2010Prop41ColorRGB
 90
        0
102
RTVSPost2010PropOp41
 70
     0
102
RTVSPost2010Prop42
 90
       50
102
RTVSPost2010PropOp42
 70
     0
102
RTVSPost2010Prop43
 90
        3
102
RTVSPost2010PropOp43
 70
     0
102
RTVSPost2010Prop44ColorIndex
 90
        5
102
RTVSPost2010Prop44ColorRGB
 90
      255
102
RTVSPost2010PropOp44
 70
     0
102
RTVSPost2010Prop45
280
     0
102
RTVSPost2010PropOp45
 70
     1
102
RTVSPost2010Prop46
 90
       50
102
RTVSPost2010PropOp46
 70
     0
102
RTVSPost2010Prop47
 90
       50
102
RTVSPost2010PropOp47
 70
     0
102
RTVSPost2010Prop48
 90
       50
102
RTVSPost2010PropOp48
 70
     0
102
RTVSPost2010Prop49
280
     0
102
RTVSPost2010PropOp49
 70
     1
102
RTVSPost2010Prop50
 90
       50
102
RTVSPost2010PropOp50
 70
     0
102
RTVSPost2010Prop51ColorIndex
 90
      256
102
RTVSPost2010Prop51ColorRGB
 90
-16777216
102
RTVSPost2010PropOp51
 70
     0
102
RTVSPost2010Prop52
140
1.0
102
RTVSPost2010PropOp52
 70
     0
102
RTVSPost2010Prop53
 90
        2
102
RTVSPost2010PropOp53
 70
     0
102
RTVSPost2010Prop54
  1
strokes_ogs.tif
102
RTVSPost2010PropOp54
 70
     0
102
RTVSPost2010Prop55
280
     0
102
RTVSPost2010PropOp55
 70
     1
102
RTVSPost2010Prop56
140
1.0
102
RTVSPost2010PropOp56
 70
     0
102
RTVSPost2010Prop57
140
1.0
102
RTVSPost2010PropOp57
 70
     0
  0
XRECORD
  5
953CD
102
{ACAD_REACTORS
330
87B20
102
}
330
87B20
100
AcDbXrecord
280
     1
102
RTVSPropertyOp0
 70
     1
102
RTVSPropertyOp1
 70
     1
102
RTVSPropertyOp2
 70
     1
102
RTVSPropertyOp3
 70
     1
102
RTVSPropertyOp4
 70
     1
102
RTVSPropertyOp5
 70
     1
102
RTVSPropertyOp6
 70
     1
102
RTVSPropertyOp7
 70
     1
102
RTVSPropertyOp8
 70
     1
102
RTVSPropertyOp9
 70
     1
102
RTVSPropertyOp10
 70
     1
102
RTVSPropertyOp11
 70
     1
102
RTVSPropertyOp12
 70
     1
102
RTVSPropertyOp13
 70
     1
102
RTVSPropertyOp14
 70
     1
102
RTVSPropertyOp15
 70
     1
102
RTVSPropertyOp16
 70
     1
102
RTVSPropertyOp17
 70
     1
102
RTVSPropertyOp18
 70
     1
102
RTVSPropertyOp19
 70
     1
102
RTVSPropertyOp20
 70
     1
102
RTVSPropertyOp21
 70
     1
102
RTVSPropertyOp22
 70
     1
102
RTVSPropertyOp23
 70
     1
102
RTVSPropertyOp24
 70
     1
102
RTVSPropertyOp25
 70
     1
102
RTVSPropertyOp26
 70
     1
102
RTVSPropertyOp27
 70
     1
102
RTVSPropertyOp28
 70
     1
102
RTVSPropertyOp29
 70
     1
102
RTVSPropertyOp30
 70
     1
102
RTVSPropertyOp31
 70
     1
102
RTVSPropertyOp32
 70
     1
102
RTVSPropertyOp33
 70
     1
102
RTVSPropertyOp34
 70
     1
102
RTVSPropertyOp35
 70
     1
102
RTVSPropertyOp36
 70
     1
102
RTVSPropertyOp37
 70
     1
102
RTVSPropertyOp38
 70
     1
102
RTVSPropertyOp39
 70
     1
102
RTVSPropertyOp40
 70
     1
102
RTVSPropertyOp41
 70
     1
102
RTVSPropertyOp42
 70
     1
102
RTVSPropertyOp43
 70
     1
102
RTVSPropertyOp44
 70
     1
102
RTVSPropertyOp45
 70
     1
102
RTVSPropertyOp46
 70
     1
102
RTVSPropertyOp47
 70
     1
102
RTVSPropertyOp48
 70
     1
102
RTVSPropertyOp49
 70
     1
102
RTVSPropertyOp50
 70
     1
102
RTVSPropertyOp51
 70
     0
102
RTVSPropertyOp52
 70
     0
102
RTVSPropertyOp53
 70
     1
102
RTVSPropertyOp54
 70
     1
102
RTVSPropertyOp55
 70
     1
102
RTVSPropertyOp56
 70
     1
102
RTVSPropertyOp57
 70
     1
102
RTVSPost2010Prop28
280
     0
102
RTVSPost2010PropOp28
 70
     1
102
RTVSPost2010Prop29
280
     1
102
RTVSPost2010PropOp29
 70
     1
102
RTVSPost2010Prop30
280
     1
102
RTVSPost2010PropOp30
 70
     1
102
RTVSPost2010Prop31
280
     0
102
RTVSPost2010PropOp31
 70
     1
102
RTVSPost2010Prop32
280
     0
102
RTVSPost2010PropOp32
 70
     1
102
RTVSPost2010Prop33
280
     0
102
RTVSPost2010PropOp33
 70
     1
102
RTVSPost2010Prop34
280
     0
102
RTVSPost2010PropOp34
 70
     1
102
RTVSPost2010Prop35
280
     0
102
RTVSPost2010PropOp35
 70
     1
102
RTVSPost2010Prop36
280
     0
102
RTVSPost2010PropOp36
 70
     1
102
RTVSPost2010Prop37
 90
       50
102
RTVSPost2010PropOp37
 70
     1
102
RTVSPost2010Prop38
140
0.0
102
RTVSPost2010PropOp38
 70
     1
102
RTVSPost2010Prop39
140
1.0
102
RTVSPost2010PropOp39
 70
     1
102
RTVSPost2010Prop40
 90
        0
102
RTVSPost2010PropOp40
 70
     1
102
RTVSPost2010Prop41ColorIndex
 90
       18
102
RTVSPost2010Prop41ColorRGB
 90
        0
102
RTVSPost2010PropOp41
 70
     1
102
RTVSPost2010Prop42
 90
       50
102
RTVSPost2010PropOp42
 70
     1
102
RTVSPost2010Prop43
 90
        3
102
RTVSPost2010PropOp43
 70
     1
102
RTVSPost2010Prop44ColorIndex
 90
        5
102
RTVSPost2010Prop44ColorRGB
 90
      255
102
RTVSPost2010PropOp44
 70
     1
102
RTVSPost2010Prop45
280
     0
102
RTVSPost2010PropOp45
 70
     1
102
RTVSPost2010Prop46
 90
       50
102
RTVSPost2010PropOp46
 70
     1
102
RTVSPost2010Prop47
 90
       50
102
RTVSPost2010PropOp47
 70
     1
102
RTVSPost2010Prop48
 90
       50
102
RTVSPost2010PropOp48
 70
     1
102
RTVSPost2010Prop49
280
     0
102
RTVSPost2010PropOp49
 70
     1
102
RTVSPost2010Prop50
 90
       50
102
RTVSPost2010PropOp50
 70
     1
102
RTVSPost2010Prop51ColorIndex
 90
      256
102
RTVSPost2010Prop51ColorRGB
 90
-16777216
102
RTVSPost2010PropOp51
 70
     0
102
RTVSPost2010Prop52
140
1.0
102
RTVSPost2010PropOp52
 70
     0
102
RTVSPost2010Prop53
 90
        2
102
RTVSPost2010PropOp53
 70
     1
102
RTVSPost2010Prop54
  1
strokes_ogs.tif
102
RTVSPost2010PropOp54
 70
     1
102
RTVSPost2010Prop55
280
     0
102
RTVSPost2010PropOp55
 70
     1
102
RTVSPost2010Prop56
140
1.0
102
RTVSPost2010PropOp56
 70
     1
102
RTVSPost2010Prop57
140
1.0
102
RTVSPost2010PropOp57
 70
     1
  0
XRECORD
  5
953CE
102
{ACAD_REACTORS
330
87B36
102
}
330
87B36
100
AcDbXrecord
280
     1
102
RTVSPropertyOp0
 70
     1
102
RTVSPropertyOp1
 70
     1
102
RTVSPropertyOp2
 70
     1
102
RTVSPropertyOp3
 70
     1
102
RTVSPropertyOp4
 70
     1
102
RTVSPropertyOp5
 70
     1
102
RTVSPropertyOp6
 70
     1
102
RTVSPropertyOp7
 70
     1
102
RTVSPropertyOp8
 70
     1
102
RTVSPropertyOp9
 70
     1
102
RTVSPropertyOp10
 70
     1
102
RTVSPropertyOp11
 70
     1
102
RTVSPropertyOp12
 70
     1
102
RTVSPropertyOp13
 70
     1
102
RTVSPropertyOp14
 70
     1
102
RTVSPropertyOp15
 70
     1
102
RTVSPropertyOp16
 70
     1
102
RTVSPropertyOp17
 70
     1
102
RTVSPropertyOp18
 70
     1
102
RTVSPropertyOp19
 70
     1
102
RTVSPropertyOp20
 70
     1
102
RTVSPropertyOp21
 70
     1
102
RTVSPropertyOp22
 70
     1
102
RTVSPropertyOp23
 70
     1
102
RTVSPropertyOp24
 70
     1
102
RTVSPropertyOp25
 70
     1
102
RTVSPropertyOp26
 70
     1
102
RTVSPropertyOp27
 70
     1
102
RTVSPropertyOp28
 70
     1
102
RTVSPropertyOp29
 70
     1
102
RTVSPropertyOp30
 70
     1
102
RTVSPropertyOp31
 70
     1
102
RTVSPropertyOp32
 70
     1
102
RTVSPropertyOp33
 70
     1
102
RTVSPropertyOp34
 70
     1
102
RTVSPropertyOp35
 70
     1
102
RTVSPropertyOp36
 70
     1
102
RTVSPropertyOp37
 70
     1
102
RTVSPropertyOp38
 70
     1
102
RTVSPropertyOp39
 70
     1
102
RTVSPropertyOp40
 70
     1
102
RTVSPropertyOp41
 70
     1
102
RTVSPropertyOp42
 70
     1
102
RTVSPropertyOp43
 70
     1
102
RTVSPropertyOp44
 70
     1
102
RTVSPropertyOp45
 70
     1
102
RTVSPropertyOp46
 70
     1
102
RTVSPropertyOp47
 70
     1
102
RTVSPropertyOp48
 70
     1
102
RTVSPropertyOp49
 70
     1
102
RTVSPropertyOp50
 70
     1
102
RTVSPropertyOp51
 70
     0
102
RTVSPropertyOp52
 70
     0
102
RTVSPropertyOp53
 70
     1
102
RTVSPropertyOp54
 70
     1
102
RTVSPropertyOp55
 70
     1
102
RTVSPropertyOp56
 70
     1
102
RTVSPropertyOp57
 70
     1
102
RTVSPost2010Prop28
280
     0
102
RTVSPost2010PropOp28
 70
     1
102
RTVSPost2010Prop29
280
     1
102
RTVSPost2010PropOp29
 70
     1
102
RTVSPost2010Prop30
280
     1
102
RTVSPost2010PropOp30
 70
     1
102
RTVSPost2010Prop31
280
     0
102
RTVSPost2010PropOp31
 70
     1
102
RTVSPost2010Prop32
280
     0
102
RTVSPost2010PropOp32
 70
     1
102
RTVSPost2010Prop33
280
     0
102
RTVSPost2010PropOp33
 70
     1
102
RTVSPost2010Prop34
280
     0
102
RTVSPost2010PropOp34
 70
     1
102
RTVSPost2010Prop35
280
     0
102
RTVSPost2010PropOp35
 70
     1
102
RTVSPost2010Prop36
280
     0
102
RTVSPost2010PropOp36
 70
     1
102
RTVSPost2010Prop37
 90
       50
102
RTVSPost2010PropOp37
 70
     1
102
RTVSPost2010Prop38
140
0.0
102
RTVSPost2010PropOp38
 70
     1
102
RTVSPost2010Prop39
140
1.0
102
RTVSPost2010PropOp39
 70
     1
102
RTVSPost2010Prop40
 90
        0
102
RTVSPost2010PropOp40
 70
     1
102
RTVSPost2010Prop41ColorIndex
 90
       18
102
RTVSPost2010Prop41ColorRGB
 90
        0
102
RTVSPost2010PropOp41
 70
     1
102
RTVSPost2010Prop42
 90
       50
102
RTVSPost2010PropOp42
 70
     1
102
RTVSPost2010Prop43
 90
        3
102
RTVSPost2010PropOp43
 70
     1
102
RTVSPost2010Prop44ColorIndex
 90
        5
102
RTVSPost2010Prop44ColorRGB
 90
      255
102
RTVSPost2010PropOp44
 70
     1
102
RTVSPost2010Prop45
280
     0
102
RTVSPost2010PropOp45
 70
     1
102
RTVSPost2010Prop46
 90
       50
102
RTVSPost2010PropOp46
 70
     1
102
RTVSPost2010Prop47
 90
       50
102
RTVSPost2010PropOp47
 70
     1
102
RTVSPost2010Prop48
 90
       50
102
RTVSPost2010PropOp48
 70
     1
102
RTVSPost2010Prop49
280
     0
102
RTVSPost2010PropOp49
 70
     1
102
RTVSPost2010Prop50
 90
       50
102
RTVSPost2010PropOp50
 70
     1
102
RTVSPost2010Prop51ColorIndex
 90
      256
102
RTVSPost2010Prop51ColorRGB
 90
-16777216
102
RTVSPost2010PropOp51
 70
     0
102
RTVSPost2010Prop52
140
1.0
102
RTVSPost2010PropOp52
 70
     0
102
RTVSPost2010Prop53
 90
        2
102
RTVSPost2010PropOp53
 70
     1
102
RTVSPost2010Prop54
  1
strokes_ogs.tif
102
RTVSPost2010PropOp54
 70
     1
102
RTVSPost2010Prop55
280
     0
102
RTVSPost2010PropOp55
 70
     1
102
RTVSPost2010Prop56
140
1.0
102
RTVSPost2010PropOp56
 70
     1
102
RTVSPost2010Prop57
140
1.0
102
RTVSPost2010PropOp57
 70
     1
  0
XRECORD
  5
953CF
102
{ACAD_REACTORS
330
87B34
102
}
330
87B34
100
AcDbXrecord
280
     1
102
RTVSPropertyOp0
 70
     1
102
RTVSPropertyOp1
 70
     1
102
RTVSPropertyOp2
 70
     1
102
RTVSPropertyOp3
 70
     1
102
RTVSPropertyOp4
 70
     1
102
RTVSPropertyOp5
 70
     1
102
RTVSPropertyOp6
 70
     1
102
RTVSPropertyOp7
 70
     1
102
RTVSPropertyOp8
 70
     1
102
RTVSPropertyOp9
 70
     1
102
RTVSPropertyOp10
 70
     1
102
RTVSPropertyOp11
 70
     1
102
RTVSPropertyOp12
 70
     1
102
RTVSPropertyOp13
 70
     1
102
RTVSPropertyOp14
 70
     1
102
RTVSPropertyOp15
 70
     1
102
RTVSPropertyOp16
 70
     1
102
RTVSPropertyOp17
 70
     1
102
RTVSPropertyOp18
 70
     1
102
RTVSPropertyOp19
 70
     1
102
RTVSPropertyOp20
 70
     1
102
RTVSPropertyOp21
 70
     1
102
RTVSPropertyOp22
 70
     1
102
RTVSPropertyOp23
 70
     1
102
RTVSPropertyOp24
 70
     1
102
RTVSPropertyOp25
 70
     1
102
RTVSPropertyOp26
 70
     1
102
RTVSPropertyOp27
 70
     1
102
RTVSPropertyOp28
 70
     1
102
RTVSPropertyOp29
 70
     1
102
RTVSPropertyOp30
 70
     1
102
RTVSPropertyOp31
 70
     1
102
RTVSPropertyOp32
 70
     1
102
RTVSPropertyOp33
 70
     1
102
RTVSPropertyOp34
 70
     1
102
RTVSPropertyOp35
 70
     1
102
RTVSPropertyOp36
 70
     1
102
RTVSPropertyOp37
 70
     1
102
RTVSPropertyOp38
 70
     1
102
RTVSPropertyOp39
 70
     1
102
RTVSPropertyOp40
 70
     1
102
RTVSPropertyOp41
 70
     1
102
RTVSPropertyOp42
 70
     1
102
RTVSPropertyOp43
 70
     1
102
RTVSPropertyOp44
 70
     1
102
RTVSPropertyOp45
 70
     1
102
RTVSPropertyOp46
 70
     1
102
RTVSPropertyOp47
 70
     1
102
RTVSPropertyOp48
 70
     1
102
RTVSPropertyOp49
 70
     1
102
RTVSPropertyOp50
 70
     1
102
RTVSPropertyOp51
 70
     0
102
RTVSPropertyOp52
 70
     0
102
RTVSPropertyOp53
 70
     1
102
RTVSPropertyOp54
 70
     1
102
RTVSPropertyOp55
 70
     1
102
RTVSPropertyOp56
 70
     1
102
RTVSPropertyOp57
 70
     1
102
RTVSPost2010Prop28
280
     0
102
RTVSPost2010PropOp28
 70
     1
102
RTVSPost2010Prop29
280
     1
102
RTVSPost2010PropOp29
 70
     1
102
RTVSPost2010Prop30
280
     1
102
RTVSPost2010PropOp30
 70
     1
102
RTVSPost2010Prop31
280
     0
102
RTVSPost2010PropOp31
 70
     1
102
RTVSPost2010Prop32
280
     0
102
RTVSPost2010PropOp32
 70
     1
102
RTVSPost2010Prop33
280
     0
102
RTVSPost2010PropOp33
 70
     1
102
RTVSPost2010Prop34
280
     0
102
RTVSPost2010PropOp34
 70
     1
102
RTVSPost2010Prop35
280
     0
102
RTVSPost2010PropOp35
 70
     1
102
RTVSPost2010Prop36
280
     0
102
RTVSPost2010PropOp36
 70
     1
102
RTVSPost2010Prop37
 90
       50
102
RTVSPost2010PropOp37
 70
     1
102
RTVSPost2010Prop38
140
0.0
102
RTVSPost2010PropOp38
 70
     1
102
RTVSPost2010Prop39
140
1.0
102
RTVSPost2010PropOp39
 70
     1
102
RTVSPost2010Prop40
 90
        0
102
RTVSPost2010PropOp40
 70
     1
102
RTVSPost2010Prop41ColorIndex
 90
       18
102
RTVSPost2010Prop41ColorRGB
 90
        0
102
RTVSPost2010PropOp41
 70
     1
102
RTVSPost2010Prop42
 90
       50
102
RTVSPost2010PropOp42
 70
     1
102
RTVSPost2010Prop43
 90
        3
102
RTVSPost2010PropOp43
 70
     1
102
RTVSPost2010Prop44ColorIndex
 90
        5
102
RTVSPost2010Prop44ColorRGB
 90
      255
102
RTVSPost2010PropOp44
 70
     1
102
RTVSPost2010Prop45
280
     0
102
RTVSPost2010PropOp45
 70
     1
102
RTVSPost2010Prop46
 90
       50
102
RTVSPost2010PropOp46
 70
     1
102
RTVSPost2010Prop47
 90
       50
102
RTVSPost2010PropOp47
 70
     1
102
RTVSPost2010Prop48
 90
       50
102
RTVSPost2010PropOp48
 70
     1
102
RTVSPost2010Prop49
280
     0
102
RTVSPost2010PropOp49
 70
     1
102
RTVSPost2010Prop50
 90
       50
102
RTVSPost2010PropOp50
 70
     1
102
RTVSPost2010Prop51ColorIndex
 90
      256
102
RTVSPost2010Prop51ColorRGB
 90
-16777216
102
RTVSPost2010PropOp51
 70
     0
102
RTVSPost2010Prop52
140
1.0
102
RTVSPost2010PropOp52
 70
     0
102
RTVSPost2010Prop53
 90
        2
102
RTVSPost2010PropOp53
 70
     1
102
RTVSPost2010Prop54
  1
strokes_ogs.tif
102
RTVSPost2010PropOp54
 70
     1
102
RTVSPost2010Prop55
280
     0
102
RTVSPost2010PropOp55
 70
     1
102
RTVSPost2010Prop56
140
1.0
102
RTVSPost2010PropOp56
 70
     1
102
RTVSPost2010Prop57
140
1.0
102
RTVSPost2010PropOp57
 70
     1
  0
XRECORD
  5
953D0
102
{ACAD_REACTORS
330
87B2E
102
}
330
87B2E
100
AcDbXrecord
280
     1
102
RTVSPropertyOp0
 70
     1
102
RTVSPropertyOp1
 70
     1
102
RTVSPropertyOp2
 70
     1
102
RTVSPropertyOp3
 70
     1
102
RTVSPropertyOp4
 70
     1
102
RTVSPropertyOp5
 70
     1
102
RTVSPropertyOp6
 70
     1
102
RTVSPropertyOp7
 70
     1
102
RTVSPropertyOp8
 70
     1
102
RTVSPropertyOp9
 70
     1
102
RTVSPropertyOp10
 70
     1
102
RTVSPropertyOp11
 70
     1
102
RTVSPropertyOp12
 70
     1
102
RTVSPropertyOp13
 70
     1
102
RTVSPropertyOp14
 70
     1
102
RTVSPropertyOp15
 70
     1
102
RTVSPropertyOp16
 70
     1
102
RTVSPropertyOp17
 70
     1
102
RTVSPropertyOp18
 70
     1
102
RTVSPropertyOp19
 70
     1
102
RTVSPropertyOp20
 70
     1
102
RTVSPropertyOp21
 70
     1
102
RTVSPropertyOp22
 70
     1
102
RTVSPropertyOp23
 70
     1
102
RTVSPropertyOp24
 70
     1
102
RTVSPropertyOp25
 70
     1
102
RTVSPropertyOp26
 70
     1
102
RTVSPropertyOp27
 70
     1
102
RTVSPropertyOp28
 70
     1
102
RTVSPropertyOp29
 70
     1
102
RTVSPropertyOp30
 70
     1
102
RTVSPropertyOp31
 70
     1
102
RTVSPropertyOp32
 70
     1
102
RTVSPropertyOp33
 70
     1
102
RTVSPropertyOp34
 70
     1
102
RTVSPropertyOp35
 70
     1
102
RTVSPropertyOp36
 70
     1
102
RTVSPropertyOp37
 70
     1
102
RTVSPropertyOp38
 70
     1
102
RTVSPropertyOp39
 70
     1
102
RTVSPropertyOp40
 70
     1
102
RTVSPropertyOp41
 70
     1
102
RTVSPropertyOp42
 70
     1
102
RTVSPropertyOp43
 70
     1
102
RTVSPropertyOp44
 70
     1
102
RTVSPropertyOp45
 70
     1
102
RTVSPropertyOp46
 70
     1
102
RTVSPropertyOp47
 70
     1
102
RTVSPropertyOp48
 70
     1
102
RTVSPropertyOp49
 70
     1
102
RTVSPropertyOp50
 70
     1
102
RTVSPropertyOp51
 70
     0
102
RTVSPropertyOp52
 70
     0
102
RTVSPropertyOp53
 70
     1
102
RTVSPropertyOp54
 70
     1
102
RTVSPropertyOp55
 70
     1
102
RTVSPropertyOp56
 70
     1
102
RTVSPropertyOp57
 70
     1
102
RTVSPost2010Prop28
280
     0
102
RTVSPost2010PropOp28
 70
     1
102
RTVSPost2010Prop29
280
     1
102
RTVSPost2010PropOp29
 70
     1
102
RTVSPost2010Prop30
280
     1
102
RTVSPost2010PropOp30
 70
     1
102
RTVSPost2010Prop31
280
     0
102
RTVSPost2010PropOp31
 70
     1
102
RTVSPost2010Prop32
280
     0
102
RTVSPost2010PropOp32
 70
     1
102
RTVSPost2010Prop33
280
     0
102
RTVSPost2010PropOp33
 70
     1
102
RTVSPost2010Prop34
280
     0
102
RTVSPost2010PropOp34
 70
     1
102
RTVSPost2010Prop35
280
     0
102
RTVSPost2010PropOp35
 70
     1
102
RTVSPost2010Prop36
280
     0
102
RTVSPost2010PropOp36
 70
     1
102
RTVSPost2010Prop37
 90
       50
102
RTVSPost2010PropOp37
 70
     1
102
RTVSPost2010Prop38
140
0.0
102
RTVSPost2010PropOp38
 70
     1
102
RTVSPost2010Prop39
140
1.0
102
RTVSPost2010PropOp39
 70
     1
102
RTVSPost2010Prop40
 90
        0
102
RTVSPost2010PropOp40
 70
     1
102
RTVSPost2010Prop41ColorIndex
 90
       18
102
RTVSPost2010Prop41ColorRGB
 90
        0
102
RTVSPost2010PropOp41
 70
     1
102
RTVSPost2010Prop42
 90
       50
102
RTVSPost2010PropOp42
 70
     1
102
RTVSPost2010Prop43
 90
        3
102
RTVSPost2010PropOp43
 70
     1
102
RTVSPost2010Prop44ColorIndex
 90
        5
102
RTVSPost2010Prop44ColorRGB
 90
      255
102
RTVSPost2010PropOp44
 70
     1
102
RTVSPost2010Prop45
280
     0
102
RTVSPost2010PropOp45
 70
     1
102
RTVSPost2010Prop46
 90
       50
102
RTVSPost2010PropOp46
 70
     1
102
RTVSPost2010Prop47
 90
       50
102
RTVSPost2010PropOp47
 70
     1
102
RTVSPost2010Prop48
 90
       50
102
RTVSPost2010PropOp48
 70
     1
102
RTVSPost2010Prop49
280
     0
102
RTVSPost2010PropOp49
 70
     1
102
RTVSPost2010Prop50
 90
       50
102
RTVSPost2010PropOp50
 70
     1
102
RTVSPost2010Prop51ColorIndex
 90
      256
102
RTVSPost2010Prop51ColorRGB
 90
-16777216
102
RTVSPost2010PropOp51
 70
     0
102
RTVSPost2010Prop52
140
1.0
102
RTVSPost2010PropOp52
 70
     0
102
RTVSPost2010Prop53
 90
        2
102
RTVSPost2010PropOp53
 70
     1
102
RTVSPost2010Prop54
  1
strokes_ogs.tif
102
RTVSPost2010PropOp54
 70
     1
102
RTVSPost2010Prop55
280
     0
102
RTVSPost2010PropOp55
 70
     1
102
RTVSPost2010Prop56
140
1.0
102
RTVSPost2010PropOp56
 70
     1
102
RTVSPost2010Prop57
140
1.0
102
RTVSPost2010PropOp57
 70
     1
  0
XRECORD
  5
953D1
102
{ACAD_REACTORS
330
87B30
102
}
330
87B30
100
AcDbXrecord
280
     1
102
RTVSPropertyOp0
 70
     1
102
RTVSPropertyOp1
 70
     1
102
RTVSPropertyOp2
 70
     1
102
RTVSPropertyOp3
 70
     1
102
RTVSPropertyOp4
 70
     1
102
RTVSPropertyOp5
 70
     1
102
RTVSPropertyOp6
 70
     1
102
RTVSPropertyOp7
 70
     1
102
RTVSPropertyOp8
 70
     1
102
RTVSPropertyOp9
 70
     1
102
RTVSPropertyOp10
 70
     1
102
RTVSPropertyOp11
 70
     1
102
RTVSPropertyOp12
 70
     1
102
RTVSPropertyOp13
 70
     1
102
RTVSPropertyOp14
 70
     1
102
RTVSPropertyOp15
 70
     1
102
RTVSPropertyOp16
 70
     1
102
RTVSPropertyOp17
 70
     1
102
RTVSPropertyOp18
 70
     1
102
RTVSPropertyOp19
 70
     1
102
RTVSPropertyOp20
 70
     1
102
RTVSPropertyOp21
 70
     1
102
RTVSPropertyOp22
 70
     1
102
RTVSPropertyOp23
 70
     1
102
RTVSPropertyOp24
 70
     1
102
RTVSPropertyOp25
 70
     1
102
RTVSPropertyOp26
 70
     1
102
RTVSPropertyOp27
 70
     1
102
RTVSPropertyOp28
 70
     1
102
RTVSPropertyOp29
 70
     1
102
RTVSPropertyOp30
 70
     1
102
RTVSPropertyOp31
 70
     1
102
RTVSPropertyOp32
 70
     1
102
RTVSPropertyOp33
 70
     1
102
RTVSPropertyOp34
 70
     1
102
RTVSPropertyOp35
 70
     1
102
RTVSPropertyOp36
 70
     1
102
RTVSPropertyOp37
 70
     1
102
RTVSPropertyOp38
 70
     1
102
RTVSPropertyOp39
 70
     1
102
RTVSPropertyOp40
 70
     1
102
RTVSPropertyOp41
 70
     1
102
RTVSPropertyOp42
 70
     1
102
RTVSPropertyOp43
 70
     1
102
RTVSPropertyOp44
 70
     1
102
RTVSPropertyOp45
 70
     1
102
RTVSPropertyOp46
 70
     1
102
RTVSPropertyOp47
 70
     1
102
RTVSPropertyOp48
 70
     1
102
RTVSPropertyOp49
 70
     1
102
RTVSPropertyOp50
 70
     1
102
RTVSPropertyOp51
 70
     0
102
RTVSPropertyOp52
 70
     0
102
RTVSPropertyOp53
 70
     1
102
RTVSPropertyOp54
 70
     1
102
RTVSPropertyOp55
 70
     1
102
RTVSPropertyOp56
 70
     1
102
RTVSPropertyOp57
 70
     1
102
RTVSPost2010Prop28
280
     0
102
RTVSPost2010PropOp28
 70
     1
102
RTVSPost2010Prop29
280
     1
102
RTVSPost2010PropOp29
 70
     1
102
RTVSPost2010Prop30
280
     1
102
RTVSPost2010PropOp30
 70
     1
102
RTVSPost2010Prop31
280
     0
102
RTVSPost2010PropOp31
 70
     1
102
RTVSPost2010Prop32
280
     0
102
RTVSPost2010PropOp32
 70
     1
102
RTVSPost2010Prop33
280
     0
102
RTVSPost2010PropOp33
 70
     1
102
RTVSPost2010Prop34
280
     0
102
RTVSPost2010PropOp34
 70
     1
102
RTVSPost2010Prop35
280
     0
102
RTVSPost2010PropOp35
 70
     1
102
RTVSPost2010Prop36
280
     0
102
RTVSPost2010PropOp36
 70
     1
102
RTVSPost2010Prop37
 90
       50
102
RTVSPost2010PropOp37
 70
     1
102
RTVSPost2010Prop38
140
0.0
102
RTVSPost2010PropOp38
 70
     1
102
RTVSPost2010Prop39
140
1.0
102
RTVSPost2010PropOp39
 70
     1
102
RTVSPost2010Prop40
 90
        0
102
RTVSPost2010PropOp40
 70
     1
102
RTVSPost2010Prop41ColorIndex
 90
       18
102
RTVSPost2010Prop41ColorRGB
 90
        0
102
RTVSPost2010PropOp41
 70
     1
102
RTVSPost2010Prop42
 90
       50
102
RTVSPost2010PropOp42
 70
     1
102
RTVSPost2010Prop43
 90
        3
102
RTVSPost2010PropOp43
 70
     1
102
RTVSPost2010Prop44ColorIndex
 90
        5
102
RTVSPost2010Prop44ColorRGB
 90
      255
102
RTVSPost2010PropOp44
 70
     1
102
RTVSPost2010Prop45
280
     0
102
RTVSPost2010PropOp45
 70
     1
102
RTVSPost2010Prop46
 90
       50
102
RTVSPost2010PropOp46
 70
     1
102
RTVSPost2010Prop47
 90
       50
102
RTVSPost2010PropOp47
 70
     1
102
RTVSPost2010Prop48
 90
       50
102
RTVSPost2010PropOp48
 70
     1
102
RTVSPost2010Prop49
280
     0
102
RTVSPost2010PropOp49
 70
     1
102
RTVSPost2010Prop50
 90
       50
102
RTVSPost2010PropOp50
 70
     1
102
RTVSPost2010Prop51ColorIndex
 90
      256
102
RTVSPost2010Prop51ColorRGB
 90
-16777216
102
RTVSPost2010PropOp51
 70
     0
102
RTVSPost2010Prop52
140
1.0
102
RTVSPost2010PropOp52
 70
     0
102
RTVSPost2010Prop53
 90
        2
102
RTVSPost2010PropOp53
 70
     1
102
RTVSPost2010Prop54
  1
strokes_ogs.tif
102
RTVSPost2010PropOp54
 70
     1
102
RTVSPost2010Prop55
280
     0
102
RTVSPost2010PropOp55
 70
     1
102
RTVSPost2010Prop56
140
1.0
102
RTVSPost2010PropOp56
 70
     1
102
RTVSPost2010Prop57
140
1.0
102
RTVSPost2010PropOp57
 70
     1
  0
XRECORD
  5
953D2
102
{ACAD_REACTORS
330
87B26
102
}
330
87B26
100
AcDbXrecord
280
     1
102
RTVSPropertyOp0
 70
     1
102
RTVSPropertyOp1
 70
     1
102
RTVSPropertyOp2
 70
     1
102
RTVSPropertyOp3
 70
     1
102
RTVSPropertyOp4
 70
     1
102
RTVSPropertyOp5
 70
     1
102
RTVSPropertyOp6
 70
     1
102
RTVSPropertyOp7
 70
     1
102
RTVSPropertyOp8
 70
     1
102
RTVSPropertyOp9
 70
     1
102
RTVSPropertyOp10
 70
     1
102
RTVSPropertyOp11
 70
     1
102
RTVSPropertyOp12
 70
     1
102
RTVSPropertyOp13
 70
     1
102
RTVSPropertyOp14
 70
     1
102
RTVSPropertyOp15
 70
     1
102
RTVSPropertyOp16
 70
     1
102
RTVSPropertyOp17
 70
     1
102
RTVSPropertyOp18
 70
     1
102
RTVSPropertyOp19
 70
     1
102
RTVSPropertyOp20
 70
     1
102
RTVSPropertyOp21
 70
     1
102
RTVSPropertyOp22
 70
     1
102
RTVSPropertyOp23
 70
     1
102
RTVSPropertyOp24
 70
     1
102
RTVSPropertyOp25
 70
     1
102
RTVSPropertyOp26
 70
     1
102
RTVSPropertyOp27
 70
     1
102
RTVSPropertyOp28
 70
     1
102
RTVSPropertyOp29
 70
     1
102
RTVSPropertyOp30
 70
     1
102
RTVSPropertyOp31
 70
     1
102
RTVSPropertyOp32
 70
     1
102
RTVSPropertyOp33
 70
     1
102
RTVSPropertyOp34
 70
     1
102
RTVSPropertyOp35
 70
     1
102
RTVSPropertyOp36
 70
     1
102
RTVSPropertyOp37
 70
     1
102
RTVSPropertyOp38
 70
     1
102
RTVSPropertyOp39
 70
     1
102
RTVSPropertyOp40
 70
     1
102
RTVSPropertyOp41
 70
     1
102
RTVSPropertyOp42
 70
     1
102
RTVSPropertyOp43
 70
     1
102
RTVSPropertyOp44
 70
     1
102
RTVSPropertyOp45
 70
     1
102
RTVSPropertyOp46
 70
     1
102
RTVSPropertyOp47
 70
     1
102
RTVSPropertyOp48
 70
     1
102
RTVSPropertyOp49
 70
     1
102
RTVSPropertyOp50
 70
     1
102
RTVSPropertyOp51
 70
     0
102
RTVSPropertyOp52
 70
     0
102
RTVSPropertyOp53
 70
     1
102
RTVSPropertyOp54
 70
     1
102
RTVSPropertyOp55
 70
     1
102
RTVSPropertyOp56
 70
     1
102
RTVSPropertyOp57
 70
     1
102
RTVSPost2010Prop28
280
     0
102
RTVSPost2010PropOp28
 70
     1
102
RTVSPost2010Prop29
280
     1
102
RTVSPost2010PropOp29
 70
     1
102
RTVSPost2010Prop30
280
     1
102
RTVSPost2010PropOp30
 70
     1
102
RTVSPost2010Prop31
280
     0
102
RTVSPost2010PropOp31
 70
     1
102
RTVSPost2010Prop32
280
     0
102
RTVSPost2010PropOp32
 70
     1
102
RTVSPost2010Prop33
280
     0
102
RTVSPost2010PropOp33
 70
     1
102
RTVSPost2010Prop34
280
     0
102
RTVSPost2010PropOp34
 70
     1
102
RTVSPost2010Prop35
280
     0
102
RTVSPost2010PropOp35
 70
     1
102
RTVSPost2010Prop36
280
     0
102
RTVSPost2010PropOp36
 70
     1
102
RTVSPost2010Prop37
 90
       50
102
RTVSPost2010PropOp37
 70
     1
102
RTVSPost2010Prop38
140
0.0
102
RTVSPost2010PropOp38
 70
     1
102
RTVSPost2010Prop39
140
1.0
102
RTVSPost2010PropOp39
 70
     1
102
RTVSPost2010Prop40
 90
        0
102
RTVSPost2010PropOp40
 70
     1
102
RTVSPost2010Prop41ColorIndex
 90
       18
102
RTVSPost2010Prop41ColorRGB
 90
        0
102
RTVSPost2010PropOp41
 70
     1
102
RTVSPost2010Prop42
 90
       50
102
RTVSPost2010PropOp42
 70
     1
102
RTVSPost2010Prop43
 90
        3
102
RTVSPost2010PropOp43
 70
     1
102
RTVSPost2010Prop44ColorIndex
 90
        5
102
RTVSPost2010Prop44ColorRGB
 90
      255
102
RTVSPost2010PropOp44
 70
     1
102
RTVSPost2010Prop45
280
     0
102
RTVSPost2010PropOp45
 70
     1
102
RTVSPost2010Prop46
 90
       50
102
RTVSPost2010PropOp46
 70
     1
102
RTVSPost2010Prop47
 90
       50
102
RTVSPost2010PropOp47
 70
     1
102
RTVSPost2010Prop48
 90
       50
102
RTVSPost2010PropOp48
 70
     1
102
RTVSPost2010Prop49
280
     0
102
RTVSPost2010PropOp49
 70
     1
102
RTVSPost2010Prop50
 90
       50
102
RTVSPost2010PropOp50
 70
     1
102
RTVSPost2010Prop51ColorIndex
 90
      256
102
RTVSPost2010Prop51ColorRGB
 90
-16777216
102
RTVSPost2010PropOp51
 70
     0
102
RTVSPost2010Prop52
140
1.0
102
RTVSPost2010PropOp52
 70
     0
102
RTVSPost2010Prop53
 90
        2
102
RTVSPost2010PropOp53
 70
     1
102
RTVSPost2010Prop54
  1
strokes_ogs.tif
102
RTVSPost2010PropOp54
 70
     1
102
RTVSPost2010Prop55
280
     0
102
RTVSPost2010PropOp55
 70
     1
102
RTVSPost2010Prop56
140
1.0
102
RTVSPost2010PropOp56
 70
     1
102
RTVSPost2010Prop57
140
1.0
102
RTVSPost2010PropOp57
 70
     1
  0
XRECORD
  5
953D3
102
{ACAD_REACTORS
330
87B1A
102
}
330
87B1A
100
AcDbXrecord
280
     1
102
RTVSPropertyOp0
 70
     1
102
RTVSPropertyOp1
 70
     1
102
RTVSPropertyOp2
 70
     1
102
RTVSPropertyOp3
 70
     1
102
RTVSPropertyOp4
 70
     1
102
RTVSPropertyOp5
 70
     1
102
RTVSPropertyOp6
 70
     1
102
RTVSPropertyOp7
 70
     1
102
RTVSPropertyOp8
 70
     1
102
RTVSPropertyOp9
 70
     1
102
RTVSPropertyOp10
 70
     1
102
RTVSPropertyOp11
 70
     1
102
RTVSPropertyOp12
 70
     1
102
RTVSPropertyOp13
 70
     1
102
RTVSPropertyOp14
 70
     1
102
RTVSPropertyOp15
 70
     1
102
RTVSPropertyOp16
 70
     1
102
RTVSPropertyOp17
 70
     1
102
RTVSPropertyOp18
 70
     1
102
RTVSPropertyOp19
 70
     1
102
RTVSPropertyOp20
 70
     1
102
RTVSPropertyOp21
 70
     1
102
RTVSPropertyOp22
 70
     1
102
RTVSPropertyOp23
 70
     1
102
RTVSPropertyOp24
 70
     1
102
RTVSPropertyOp25
 70
     1
102
RTVSPropertyOp26
 70
     1
102
RTVSPropertyOp27
 70
     1
102
RTVSPropertyOp28
 70
     1
102
RTVSPropertyOp29
 70
     1
102
RTVSPropertyOp30
 70
     1
102
RTVSPropertyOp31
 70
     1
102
RTVSPropertyOp32
 70
     1
102
RTVSPropertyOp33
 70
     1
102
RTVSPropertyOp34
 70
     1
102
RTVSPropertyOp35
 70
     1
102
RTVSPropertyOp36
 70
     1
102
RTVSPropertyOp37
 70
     1
102
RTVSPropertyOp38
 70
     1
102
RTVSPropertyOp39
 70
     1
102
RTVSPropertyOp40
 70
     1
102
RTVSPropertyOp41
 70
     1
102
RTVSPropertyOp42
 70
     1
102
RTVSPropertyOp43
 70
     1
102
RTVSPropertyOp44
 70
     1
102
RTVSPropertyOp45
 70
     1
102
RTVSPropertyOp46
 70
     1
102
RTVSPropertyOp47
 70
     1
102
RTVSPropertyOp48
 70
     1
102
RTVSPropertyOp49
 70
     1
102
RTVSPropertyOp50
 70
     1
102
RTVSPropertyOp51
 70
     0
102
RTVSPropertyOp52
 70
     0
102
RTVSPropertyOp53
 70
     1
102
RTVSPropertyOp54
 70
     1
102
RTVSPropertyOp55
 70
     1
102
RTVSPropertyOp56
 70
     1
102
RTVSPropertyOp57
 70
     1
102
RTVSPost2010Prop28
280
     0
102
RTVSPost2010PropOp28
 70
     1
102
RTVSPost2010Prop29
280
     1
102
RTVSPost2010PropOp29
 70
     1
102
RTVSPost2010Prop30
280
     1
102
RTVSPost2010PropOp30
 70
     1
102
RTVSPost2010Prop31
280
     0
102
RTVSPost2010PropOp31
 70
     1
102
RTVSPost2010Prop32
280
     0
102
RTVSPost2010PropOp32
 70
     1
102
RTVSPost2010Prop33
280
     0
102
RTVSPost2010PropOp33
 70
     1
102
RTVSPost2010Prop34
280
     0
102
RTVSPost2010PropOp34
 70
     1
102
RTVSPost2010Prop35
280
     0
102
RTVSPost2010PropOp35
 70
     1
102
RTVSPost2010Prop36
280
     0
102
RTVSPost2010PropOp36
 70
     1
102
RTVSPost2010Prop37
 90
       50
102
RTVSPost2010PropOp37
 70
     1
102
RTVSPost2010Prop38
140
0.0
102
RTVSPost2010PropOp38
 70
     1
102
RTVSPost2010Prop39
140
1.0
102
RTVSPost2010PropOp39
 70
     1
102
RTVSPost2010Prop40
 90
        0
102
RTVSPost2010PropOp40
 70
     1
102
RTVSPost2010Prop41ColorIndex
 90
       18
102
RTVSPost2010Prop41ColorRGB
 90
        0
102
RTVSPost2010PropOp41
 70
     1
102
RTVSPost2010Prop42
 90
       50
102
RTVSPost2010PropOp42
 70
     1
102
RTVSPost2010Prop43
 90
        3
102
RTVSPost2010PropOp43
 70
     1
102
RTVSPost2010Prop44ColorIndex
 90
        5
102
RTVSPost2010Prop44ColorRGB
 90
      255
102
RTVSPost2010PropOp44
 70
     1
102
RTVSPost2010Prop45
280
     0
102
RTVSPost2010PropOp45
 70
     1
102
RTVSPost2010Prop46
 90
       50
102
RTVSPost2010PropOp46
 70
     1
102
RTVSPost2010Prop47
 90
       50
102
RTVSPost2010PropOp47
 70
     1
102
RTVSPost2010Prop48
 90
       50
102
RTVSPost2010PropOp48
 70
     1
102
RTVSPost2010Prop49
280
     0
102
RTVSPost2010PropOp49
 70
     1
102
RTVSPost2010Prop50
 90
       50
102
RTVSPost2010PropOp50
 70
     1
102
RTVSPost2010Prop51ColorIndex
 90
      256
102
RTVSPost2010Prop51ColorRGB
 90
-16777216
102
RTVSPost2010PropOp51
 70
     0
102
RTVSPost2010Prop52
140
1.0
102
RTVSPost2010PropOp52
 70
     0
102
RTVSPost2010Prop53
 90
        2
102
RTVSPost2010PropOp53
 70
     1
102
RTVSPost2010Prop54
  1
strokes_ogs.tif
102
RTVSPost2010PropOp54
 70
     1
102
RTVSPost2010Prop55
280
     0
102
RTVSPost2010PropOp55
 70
     1
102
RTVSPost2010Prop56
140
1.0
102
RTVSPost2010PropOp56
 70
     1
102
RTVSPost2010Prop57
140
1.0
102
RTVSPost2010PropOp57
 70
     1
  0
XRECORD
  5
953D4
102
{ACAD_REACTORS
330
87B32
102
}
330
87B32
100
AcDbXrecord
280
     1
102
RTVSPropertyOp0
 70
     1
102
RTVSPropertyOp1
 70
     1
102
RTVSPropertyOp2
 70
     1
102
RTVSPropertyOp3
 70
     1
102
RTVSPropertyOp4
 70
     1
102
RTVSPropertyOp5
 70
     1
102
RTVSPropertyOp6
 70
     1
102
RTVSPropertyOp7
 70
     1
102
RTVSPropertyOp8
 70
     1
102
RTVSPropertyOp9
 70
     1
102
RTVSPropertyOp10
 70
     1
102
RTVSPropertyOp11
 70
     1
102
RTVSPropertyOp12
 70
     1
102
RTVSPropertyOp13
 70
     1
102
RTVSPropertyOp14
 70
     1
102
RTVSPropertyOp15
 70
     1
102
RTVSPropertyOp16
 70
     1
102
RTVSPropertyOp17
 70
     1
102
RTVSPropertyOp18
 70
     1
102
RTVSPropertyOp19
 70
     1
102
RTVSPropertyOp20
 70
     1
102
RTVSPropertyOp21
 70
     1
102
RTVSPropertyOp22
 70
     1
102
RTVSPropertyOp23
 70
     1
102
RTVSPropertyOp24
 70
     1
102
RTVSPropertyOp25
 70
     1
102
RTVSPropertyOp26
 70
     1
102
RTVSPropertyOp27
 70
     1
102
RTVSPropertyOp28
 70
     1
102
RTVSPropertyOp29
 70
     1
102
RTVSPropertyOp30
 70
     1
102
RTVSPropertyOp31
 70
     1
102
RTVSPropertyOp32
 70
     1
102
RTVSPropertyOp33
 70
     1
102
RTVSPropertyOp34
 70
     1
102
RTVSPropertyOp35
 70
     1
102
RTVSPropertyOp36
 70
     1
102
RTVSPropertyOp37
 70
     1
102
RTVSPropertyOp38
 70
     1
102
RTVSPropertyOp39
 70
     1
102
RTVSPropertyOp40
 70
     1
102
RTVSPropertyOp41
 70
     1
102
RTVSPropertyOp42
 70
     1
102
RTVSPropertyOp43
 70
     1
102
RTVSPropertyOp44
 70
     1
102
RTVSPropertyOp45
 70
     1
102
RTVSPropertyOp46
 70
     1
102
RTVSPropertyOp47
 70
     1
102
RTVSPropertyOp48
 70
     1
102
RTVSPropertyOp49
 70
     1
102
RTVSPropertyOp50
 70
     1
102
RTVSPropertyOp51
 70
     0
102
RTVSPropertyOp52
 70
     0
102
RTVSPropertyOp53
 70
     1
102
RTVSPropertyOp54
 70
     1
102
RTVSPropertyOp55
 70
     1
102
RTVSPropertyOp56
 70
     1
102
RTVSPropertyOp57
 70
     1
102
RTVSPost2010Prop28
280
     0
102
RTVSPost2010PropOp28
 70
     1
102
RTVSPost2010Prop29
280
     1
102
RTVSPost2010PropOp29
 70
     1
102
RTVSPost2010Prop30
280
     1
102
RTVSPost2010PropOp30
 70
     1
102
RTVSPost2010Prop31
280
     0
102
RTVSPost2010PropOp31
 70
     1
102
RTVSPost2010Prop32
280
     0
102
RTVSPost2010PropOp32
 70
     1
102
RTVSPost2010Prop33
280
     0
102
RTVSPost2010PropOp33
 70
     1
102
RTVSPost2010Prop34
280
     0
102
RTVSPost2010PropOp34
 70
     1
102
RTVSPost2010Prop35
280
     0
102
RTVSPost2010PropOp35
 70
     1
102
RTVSPost2010Prop36
280
     0
102
RTVSPost2010PropOp36
 70
     1
102
RTVSPost2010Prop37
 90
       50
102
RTVSPost2010PropOp37
 70
     1
102
RTVSPost2010Prop38
140
0.0
102
RTVSPost2010PropOp38
 70
     1
102
RTVSPost2010Prop39
140
1.0
102
RTVSPost2010PropOp39
 70
     1
102
RTVSPost2010Prop40
 90
        0
102
RTVSPost2010PropOp40
 70
     1
102
RTVSPost2010Prop41ColorIndex
 90
       18
102
RTVSPost2010Prop41ColorRGB
 90
        0
102
RTVSPost2010PropOp41
 70
     1
102
RTVSPost2010Prop42
 90
       50
102
RTVSPost2010PropOp42
 70
     1
102
RTVSPost2010Prop43
 90
        3
102
RTVSPost2010PropOp43
 70
     1
102
RTVSPost2010Prop44ColorIndex
 90
        5
102
RTVSPost2010Prop44ColorRGB
 90
      255
102
RTVSPost2010PropOp44
 70
     1
102
RTVSPost2010Prop45
280
     0
102
RTVSPost2010PropOp45
 70
     1
102
RTVSPost2010Prop46
 90
       50
102
RTVSPost2010PropOp46
 70
     1
102
RTVSPost2010Prop47
 90
       50
102
RTVSPost2010PropOp47
 70
     1
102
RTVSPost2010Prop48
 90
       50
102
RTVSPost2010PropOp48
 70
     1
102
RTVSPost2010Prop49
280
     0
102
RTVSPost2010PropOp49
 70
     1
102
RTVSPost2010Prop50
 90
       50
102
RTVSPost2010PropOp50
 70
     1
102
RTVSPost2010Prop51ColorIndex
 90
      256
102
RTVSPost2010Prop51ColorRGB
 90
-16777216
102
RTVSPost2010PropOp51
 70
     0
102
RTVSPost2010Prop52
140
1.0
102
RTVSPost2010PropOp52
 70
     0
102
RTVSPost2010Prop53
 90
        2
102
RTVSPost2010PropOp53
 70
     1
102
RTVSPost2010Prop54
  1
strokes_ogs.tif
102
RTVSPost2010PropOp54
 70
     1
102
RTVSPost2010Prop55
280
     0
102
RTVSPost2010PropOp55
 70
     1
102
RTVSPost2010Prop56
140
1.0
102
RTVSPost2010PropOp56
 70
     1
102
RTVSPost2010Prop57
140
1.0
102
RTVSPost2010PropOp57
 70
     1
  0
ENDSEC
  0
EOF
