  0
SECTION
  2
HEADER
  9
$ACADVER
  1
AC1015
  9
$ACADMAINTVER
 70
    20
  9
$DWGCODEPAGE
  3
ANSI_932
  9
$INSBASE
 10
0.0
 20
0.0
 30
0.0
  9
$EXTMIN
 10
-25.35706845840899
 20
-91.44251898993658
 30
0.0
  9
$EXTMAX
 10
119.4333333333334
 20
136.783224521334
 30
0.0
  9
$LIMMIN
 10
0.0
 20
0.0
  9
$LIMMAX
 10
420.0
 20
297.0
  9
$ORTHOMODE
 70
     1
  9
$REGENMODE
 70
     1
  9
$FILLMODE
 70
     1
  9
$QTEXTMODE
 70
     0
  9
$MIRRTEXT
 70
     1
  9
$LTSCALE
 40
1.0
  9
$ATTMODE
 70
     1
  9
$TEXTSIZE
 40
3.5
  9
$TRACEWID
 40
1.0
  9
$TEXTSTYLE
  7
simplex
  9
$CLAYER
  8
0
  9
$CELTYPE
  6
ByLayer
  9
$CECOLOR
 62
   256
  9
$CELTSCALE
 40
1.0
  9
$DISPSILH
 70
     0
  9
$DIMSCALE
 40
0.0
  9
$DIMASZ
 40
3.5
  9
$DIMEXO
 40
0.0
  9
$DIMDLI
 40
0.38
  9
$DIMRND
 40
0.0
  9
$DIMDLE
 40
0.0
  9
$DIMEXE
 40
1.5
  9
$DIMTP
 40
0.0
  9
$DIMTM
 40
0.0
  9
$DIMTXT
 40
3.5
  9
$DIMCEN
 40
0.09
  9
$DIMTSZ
 40
0.0
  9
$DIMTOL
 70
     0
  9
$DIMLIM
 70
     0
  9
$DIMTIH
 70
     0
  9
$DIMTOH
 70
     0
  9
$DIMSE1
 70
     0
  9
$DIMSE2
 70
     0
  9
$DIMTAD
 70
     1
  9
$DIMZIN
 70
     8
  9
$DIMBLK
  1

  9
$DIMASO
 70
     1
  9
$DIMSHO
 70
     1
  9
$DIMPOST
  1

  9
$DIMAPOST
  1

  9
$DIMALT
 70
     0
  9
$DIMALTD
 70
     2
  9
$DIMALTF
 40
25.4
  9
$DIMLFAC
 40
1.0
  9
$DIMTOFL
 70
     0
  9
$DIMTVP
 40
0.0
  9
$DIMTIX
 70
     0
  9
$DIMSOXD
 70
     0
  9
$DIMSAH
 70
     0
  9
$DIMBLK1
  1

  9
$DIMBLK2
  1

  9
$DIMSTYLE
  2
コピー - ISO-25
  9
$DIMCLRD
 70
   256
  9
$DIMCLRE
 70
   256
  9
$DIMCLRT
 70
   256
  9
$DIMTFAC
 40
1.0
  9
$DIMGAP
 40
2.299999999999998
  9
$DIMJUST
 70
     0
  9
$DIMSD1
 70
     0
  9
$DIMSD2
 70
     0
  9
$DIMTOLJ
 70
     1
  9
$DIMTZIN
 70
     8
  9
$DIMALTZ
 70
     0
  9
$DIMALTTZ
 70
     0
  9
$DIMUPT
 70
     0
  9
$DIMDEC
 70
     2
  9
$DIMTDEC
 70
     2
  9
$DIMALTU
 70
     2
  9
$DIMALTTD
 70
     2
  9
$DIMTXSTY
  7
simplex
  9
$DIMAUNIT
 70
     0
  9
$DIMADEC
 70
     0
  9
$DIMALTRND
 40
0.0
  9
$DIMAZIN
 70
     0
  9
$DIMDSEP
 70
    46
  9
$DIMATFIT
 70
     3
  9
$DIMFRAC
 70
     0
  9
$DIMLDRBLK
  1

  9
$DIMLUNIT
 70
     2
  9
$DIMLWD
 70
    -1
  9
$DIMLWE
 70
    -1
  9
$DIMTMOVE
 70
     0
  9
$LUNITS
 70
     2
  9
$LUPREC
 70
     4
  9
$SKETCHINC
 40
1.0
  9
$FILLETRAD
 40
0.8
  9
$AUNITS
 70
     0
  9
$AUPREC
 70
     0
  9
$MENU
  1
.
  9
$ELEVATION
 40
0.0
  9
$PELEVATION
 40
0.0
  9
$THICKNESS
 40
0.0
  9
$LIMCHECK
 70
     0
  9
$CHAMFERA
 40
10.0
  9
$CHAMFERB
 40
10.0
  9
$CHAMFERC
 40
20.0
  9
$CHAMFERD
 40
0.0
  9
$SKPOLY
 70
     0
  9
$TDCREATE
 40
2455489.391063368
  9
$TDUCREATE
 40
2455489.057730035
  9
$TDUPDATE
 40
2458948.451595289
  9
$TDUUPDATE
 40
2458948.118261956
  9
$TDINDWG
 40
2.646523993
  9
$TDUSRTIMER
 40
2.646471366
  9
$USRTIMER
 70
     1
  9
$ANGBASE
 50
0.0
  9
$ANGDIR
 70
     0
  9
$PDMODE
 70
     0
  9
$PDSIZE
 40
0.0
  9
$PLINEWID
 40
0.0
  9
$SPLFRAME
 70
     0
  9
$SPLINETYPE
 70
     6
  9
$SPLINESEGS
 70
     8
  9
$HANDSEED
  5
94DE2
  9
$SURFTAB1
 70
     6
  9
$SURFTAB2
 70
     6
  9
$SURFTYPE
 70
     6
  9
$SURFU
 70
     6
  9
$SURFV
 70
     6
  9
$UCSBASE
  2

  9
$UCSNAME
  2

  9
$UCSORG
 10
0.0
 20
0.0
 30
0.0
  9
$UCSXDIR
 10
1.0
 20
0.0
 30
0.0
  9
$UCSYDIR
 10
0.0
 20
1.0
 30
0.0
  9
$UCSORTHOREF
  2

  9
$UCSORTHOVIEW
 70
     0
  9
$UCSORGTOP
 10
0.0
 20
0.0
 30
0.0
  9
$UCSORGBOTTOM
 10
0.0
 20
0.0
 30
0.0
  9
$UCSORGLEFT
 10
0.0
 20
0.0
 30
0.0
  9
$UCSORGRIGHT
 10
0.0
 20
0.0
 30
0.0
  9
$UCSORGFRONT
 10
0.0
 20
0.0
 30
0.0
  9
$UCSORGBACK
 10
0.0
 20
0.0
 30
0.0
  9
$PUCSBASE
  2

  9
$PUCSNAME
  2

  9
$PUCSORG
 10
0.0
 20
0.0
 30
0.0
  9
$PUCSXDIR
 10
1.0
 20
0.0
 30
0.0
  9
$PUCSYDIR
 10
0.0
 20
1.0
 30
0.0
  9
$PUCSORTHOREF
  2

  9
$PUCSORTHOVIEW
 70
     0
  9
$PUCSORGTOP
 10
0.0
 20
0.0
 30
0.0
  9
$PUCSORGBOTTOM
 10
0.0
 20
0.0
 30
0.0
  9
$PUCSORGLEFT
 10
0.0
 20
0.0
 30
0.0
  9
$PUCSORGRIGHT
 10
0.0
 20
0.0
 30
0.0
  9
$PUCSORGFRONT
 10
0.0
 20
0.0
 30
0.0
  9
$PUCSORGBACK
 10
0.0
 20
0.0
 30
0.0
  9
$USERI1
 70
     0
  9
$USERI2
 70
     0
  9
$USERI3
 70
     0
  9
$USERI4
 70
     0
  9
$USERI5
 70
     0
  9
$USERR1
 40
0.0
  9
$USERR2
 40
0.0
  9
$USERR3
 40
0.0
  9
$USERR4
 40
0.0
  9
$USERR5
 40
0.0
  9
$WORLDVIEW
 70
     1
  9
$SHADEDGE
 70
     3
  9
$SHADEDIF
 70
    70
  9
$TILEMODE
 70
     1
  9
$MAXACTVP
 70
    64
  9
$PINSBASE
 10
0.0
 20
0.0
 30
0.0
  9
$PLIMCHECK
 70
     0
  9
$PEXTMIN
 10
26.66999878883364
 20
20.31999878883365
 30
0.0
  9
$PEXTMAX
 10
240.0299890995025
 20
182.8799890995025
 30
0.0
  9
$PLIMMIN
 10
-6.350006103515625
 20
-6.349999904632567
  9
$PLIMMAX
 10
273.0499877929688
 20
209.5499939918518
  9
$UNITMODE
 70
     0
  9
$VISRETAIN
 70
     1
  9
$PLINEGEN
 70
     0
  9
$PSLTSCALE
 70
     1
  9
$TREEDEPTH
 70
  3020
  9
$CMLSTYLE
  2
Standard
  9
$CMLJUST
 70
     0
  9
$CMLSCALE
 40
20.0
  9
$PROXYGRAPHICS
 70
     1
  9
$MEASUREMENT
 70
     1
  9
$CELWEIGHT
370
    -1
  9
$ENDCAPS
280
     0
  9
$JOINSTYLE
280
     0
  9
$LWDISPLAY
290
     0
  9
$INSUNITS
 70
     4
  9
$HYPERLINKBASE
  1

  9
$STYLESHEET
  1

  9
$XEDIT
290
     1
  9
$CEPSNTYPE
380
     0
  9
$PSTYLEMODE
290
     1
  9
$FINGERPRINTGUID
  2
{08E9C468-5A16-4B1B-BB79-AFD011350199}
  9
$VERSIONGUID
  2
{B989E617-9701-4F86-8221-E60432DD315F}
  9
$EXTNAMES
290
     1
  9
$PSVPSCALE
 40
0.0
  9
$OLESTARTUP
290
     0
  0
ENDSEC
  0
SECTION
  2
CLASSES
  0
CLASS
  1
ACDBDICTIONARYWDFLT
  2
AcDbDictionaryWithDefault
  3
ObjectDBX Classes
 90
        0
280
     0
281
     0
  0
CLASS
  1
ACDBPLACEHOLDER
  2
AcDbPlaceHolder
  3
ObjectDBX Classes
 90
    32768
280
     0
281
     0
  0
CLASS
  1
LAYOUT
  2
AcDbLayout
  3
ObjectDBX Classes
 90
    32768
280
     0
281
     0
  0
CLASS
  1
DICTIONARYVAR
  2
AcDbDictionaryVar
  3
ObjectDBX Classes
 90
        0
280
     0
281
     0
  0
CLASS
  1
TABLESTYLE
  2
AcDbTableStyle
  3
ObjectDBX Classes
 90
     4095
280
     0
281
     0
  0
CLASS
  1
SORTENTSTABLE
  2
AcDbSortentsTable
  3
ObjectDBX Classes
 90
        0
280
     0
281
     0
  0
CLASS
  1
DIMASSOC
  2
AcDbDimAssoc
  3
"AcDbDimAssoc|Product Desc:     AcDim ARX App For Dimension|Company:          Autodesk, Inc.|WEB Address:      www.autodesk.com"
 90
        0
280
     0
281
     0
  0
CLASS
  1
ACAD_EVALUATION_GRAPH
  2
AcDbEvalGraph
  3
ObjectDBX Classes
 90
    33921
280
     0
281
     0
  0
CLASS
  1
ACAECUSTOBJ
  2
AcAeEditorObj
  3
AcAeEditorObj
 90
    33792
280
     0
281
     0
  0
CLASS
  1
ACDB_DYNAMICBLOCKPURGEPREVENTER_VERSION
  2
AcDbDynamicBlockPurgePreventer
  3
ObjectDBX Classes
 90
    33921
280
     0
281
     0
  0
CLASS
  1
MATERIAL
  2
AcDbMaterial
  3
ObjectDBX Classes
 90
     1153
280
     0
281
     0
  0
CLASS
  1
VISUALSTYLE
  2
AcDbVisualStyle
  3
ObjectDBX Classes
 90
     4095
280
     0
281
     0
  0
CLASS
  1
SCALE
  2
AcDbScale
  3
ObjectDBX Classes
 90
     1153
280
     0
281
     0
  0
CLASS
  1
MLEADERSTYLE
  2
AcDbMLeaderStyle
  3
ACDB_MLEADERSTYLE_CLASS
 90
     4095
280
     0
281
     0
  0
CLASS
  1
ACDBSECTIONVIEWSTYLE
  2
AcDbSectionViewStyle
  3
ObjectDBX Classes
 90
     1025
280
     0
281
     0
  0
CLASS
  1
ACDBDETAILVIEWSTYLE
  2
AcDbDetailViewStyle
  3
ObjectDBX Classes
 90
     1025
280
     0
281
     0
  0
CLASS
  1
CELLSTYLEMAP
  2
AcDbCellStyleMap
  3
ObjectDBX Classes
 90
     1152
280
     0
281
     0
  0
CLASS
  1
ACDBPLACEHOLDER
  2
AcDbPlaceHolder
  3
ObjectDBX Classes
 90
    32768
280
     0
281
     0
  0
CLASS
  1
LAYOUT
  2
AcDbLayout
  3
ObjectDBX Classes
 90
    32768
280
     0
281
     0
  0
CLASS
  1
ACDBPLACEHOLDER
  2
AcDbPlaceHolder
  3
ObjectDBX Classes
 90
    32768
280
     0
281
     0
  0
CLASS
  1
LAYOUT
  2
AcDbLayout
  3
ObjectDBX Classes
 90
    32768
280
     0
281
     0
  0
CLASS
  1
ACDBPLACEHOLDER
  2
AcDbPlaceHolder
  3
ObjectDBX Classes
 90
    32768
280
     0
281
     0
  0
CLASS
  1
LAYOUT
  2
AcDbLayout
  3
ObjectDBX Classes
 90
    32768
280
     0
281
     0
  0
CLASS
  1
ACDBPLACEHOLDER
  2
AcDbPlaceHolder
  3
ObjectDBX Classes
 90
    32768
280
     0
281
     0
  0
CLASS
  1
LAYOUT
  2
AcDbLayout
  3
ObjectDBX Classes
 90
    32768
280
     0
281
     0
  0
CLASS
  1
ACDBPLACEHOLDER
  2
AcDbPlaceHolder
  3
ObjectDBX Classes
 90
        0
280
     0
281
     0
  0
CLASS
  1
LAYOUT
  2
AcDbLayout
  3
ObjectDBX Classes
 90
        0
280
     0
281
     0
  0
ENDSEC
  0
SECTION
  2
TABLES
  0
TABLE
  2
VPORT
  5
8
102
{ACAD_XDICTIONARY
360
8C34E
102
}
330
0
100
AcDbSymbolTable
 70
     1
  0
VPORT
  5
4A360
330
8
100
AcDbSymbolTableRecord
100
AcDbViewportTableRecord
  2
*Active
 70
     0
 10
0.0
 20
0.0
 11
1.0
 21
1.0
 12
17.98785400099508
 22
15.82115669009293
 13
0.0
 23
0.0
 14
10.0
 24
10.0
 15
10.0
 25
10.0
 16
0.0
 26
0.0
 36
1.0
 17
0.0
 27
0.0
 37
0.0
 40
290.2210177238277
 41
1.705156950672645
 42
50.0
 43
0.0
 44
0.0
 50
0.0
 51
0.0
 71
     0
 72
  1000
 73
     1
 74
     1
 75
     0
 76
     0
 77
     0
 78
     0
281
     0
 65
     1
110
0.0
120
0.0
130
0.0
111
1.0
121
0.0
131
0.0
112
0.0
122
1.0
132
0.0
 79
     0
146
0.0
1001
ACAD_NAV_VCDISPLAY
1070
     3
  0
ENDTAB
  0
TABLE
  2
LTYPE
  5
5
330
0
100
AcDbSymbolTable
 70
     3
  0
LTYPE
  5
14
330
5
100
AcDbSymbolTableRecord
100
AcDbLinetypeTableRecord
  2
ByBlock
 70
     0
  3

 72
    65
 73
     0
 40
0.0
  0
LTYPE
  5
15
330
5
100
AcDbSymbolTableRecord
100
AcDbLinetypeTableRecord
  2
ByLayer
 70
     0
  3

 72
    65
 73
     0
 40
0.0
  0
LTYPE
  5
16
330
5
100
AcDbSymbolTableRecord
100
AcDbLinetypeTableRecord
  2
Continuous
 70
     0
  3
Solid line
 72
    65
 73
     0
 40
0.0
  0
LTYPE
  5
4A76E
330
5
100
AcDbSymbolTableRecord
100
AcDbLinetypeTableRecord
  2
CENTER2
 70
     0
  3
Center (.5x) ___ _ ___ _ ___ _ ___ _ ___ _ ___
 72
    65
 73
     4
 40
28.575
 49
19.05
 74
     0
 49
-3.174999999999998
 74
     0
 49
3.174999999999998
 74
     0
 49
-3.174999999999998
 74
     0
  0
LTYPE
  5
87B53
330
5
100
AcDbSymbolTableRecord
100
AcDbLinetypeTableRecord
  2
HIDDEN
 70
     0
  3
Hidden __ __ __ __ __ __ __ __ __ __ __ __ __ _
 72
    65
 73
     2
 40
9.524999999999996
 49
6.349999999999997
 74
     0
 49
-3.174999999999998
 74
     0
  0
ENDTAB
  0
TABLE
  2
LAYER
  5
2
102
{ACAD_XDICTIONARY
360
E2
102
}
330
0
100
AcDbSymbolTable
 70
    10
  0
LAYER
  5
10
102
{ACAD_XDICTIONARY
360
4A86C
102
}
330
2
100
AcDbSymbolTableRecord
100
AcDbLayerTableRecord
  2
0
 70
     0
 62
     7
  6
Continuous
370
    -3
390
F
  0
LAYER
  5
31B6
330
2
100
AcDbSymbolTableRecord
100
AcDbLayerTableRecord
  2
Defpoints
 70
     0
 62
     7
  6
Continuous
290
     0
370
    -3
390
F
  0
LAYER
  5
4A772
102
{ACAD_XDICTIONARY
360
4A773
102
}
330
2
100
AcDbSymbolTableRecord
100
AcDbLayerTableRecord
  2
1
 70
     0
 62
     4
  6
Continuous
370
    50
390
F
1001
AcAecLayerStandard
1000

1000
Contour
  0
LAYER
  5
4A774
102
{ACAD_XDICTIONARY
360
4A775
102
}
330
2
100
AcDbSymbolTableRecord
100
AcDbLayerTableRecord
  2
2
 70
     0
 62
     7
  6
Continuous
370
    25
390
F
1001
AcAecLayerStandard
1000

1000
Dimension milling
  0
LAYER
  5
4A776
102
{ACAD_XDICTIONARY
360
4A777
102
}
330
2
100
AcDbSymbolTableRecord
100
AcDbLayerTableRecord
  2
4
 70
     0
 62
     2
  6
CENTER2
370
    25
390
F
1001
AcAecLayerStandard
1000

1000
Center line
  0
LAYER
  5
4A778
102
{ACAD_XDICTIONARY
360
4A779
102
}
330
2
100
AcDbSymbolTableRecord
100
AcDbLayerTableRecord
  2
cut
 70
     0
 62
     1
  6
Continuous
370
    25
390
F
1001
AcAecLayerStandard
1000

1000
contour
  0
LAYER
  5
4A77A
102
{ACAD_XDICTIONARY
360
4A77B
102
}
330
2
100
AcDbSymbolTableRecord
100
AcDbLayerTableRecord
  2
nocut
 70
     0
 62
     7
  6
Continuous
370
    25
390
F
1001
AcAecLayerStandard
1000

1000
contour
  0
LAYER
  5
4A77E
102
{ACAD_XDICTIONARY
360
4A77F
102
}
330
2
100
AcDbSymbolTableRecord
100
AcDbLayerTableRecord
  2
sk2
 70
     0
 62
     7
  6
Continuous
370
    25
390
F
1001
AcAecLayerStandard
1000

1000
sk2 dimension
  0
LAYER
  5
4A782
102
{ACAD_XDICTIONARY
360
4A783
102
}
330
2
100
AcDbSymbolTableRecord
100
AcDbLayerTableRecord
  2
sk6
 70
     0
 62
     5
  6
Continuous
370
    35
390
F
1001
AcAecLayerStandard
1000

1000
sk6 text
  0
LAYER
  5
87B52
102
{ACAD_XDICTIONARY
360
8C34C
102
}
330
2
100
AcDbSymbolTableRecord
100
AcDbLayerTableRecord
  2
sk3
 70
     0
 62
     1
  6
HIDDEN
370
    35
390
F
1001
AcAecLayerStandard
1000

1000

  0
ENDTAB
  0
TABLE
  2
STYLE
  5
3
330
0
100
AcDbSymbolTable
 70
     2
  0
STYLE
  5
11
330
3
100
AcDbSymbolTableRecord
100
AcDbTextStyleTableRecord
  2
Standard
 70
     0
 40
0.0
 41
1.0
 50
0.0
 71
     0
 42
2.5
  3
txt.shx
  4
@extfont2.shx
  0
STYLE
  5
24A
330
3
100
AcDbSymbolTableRecord
100
AcDbTextStyleTableRecord
  2
simplex
 70
     0
 40
3.5
 41
1.0
 50
0.0
 71
     0
 42
3.5
  3
txt.shx
  4

  0
ENDTAB
  0
TABLE
  2
VIEW
  5
6
330
0
100
AcDbSymbolTable
 70
     0
  0
ENDTAB
  0
TABLE
  2
UCS
  5
7
330
0
100
AcDbSymbolTable
 70
     0
  0
ENDTAB
  0
TABLE
  2
APPID
  5
9
330
0
100
AcDbSymbolTable
 70
    31
  0
APPID
  5
12
330
9
100
AcDbSymbolTableRecord
100
AcDbRegAppTableRecord
  2
ACAD
 70
     0
  0
APPID
  5
D2
330
9
100
AcDbSymbolTableRecord
100
AcDbRegAppTableRecord
  2
AcAecLayerStandard
 70
     0
  0
APPID
  5
E6
330
9
100
AcDbSymbolTableRecord
100
AcDbRegAppTableRecord
  2
ACAD_DSTYLE_DIMTEXT_FILL
 70
     0
  0
APPID
  5
4C84
330
9
100
AcDbSymbolTableRecord
100
AcDbRegAppTableRecord
  2
ACAD_EXEMPT_FROM_CAD_STANDARDS
 70
     0
  0
APPID
  5
3493E
330
9
100
AcDbSymbolTableRecord
100
AcDbRegAppTableRecord
  2
DCO15
 70
     0
  0
APPID
  5
3BAB0
330
9
100
AcDbSymbolTableRecord
100
AcDbRegAppTableRecord
  2
ACAD_DSTYLE_DIMEXT_ENABLED
 70
     0
  0
APPID
  5
3BAB1
330
9
100
AcDbSymbolTableRecord
100
AcDbRegAppTableRecord
  2
ACAD_DSTYLE_DIMEXT_LENGTH
 70
     0
  0
APPID
  5
3BEB4
330
9
100
AcDbSymbolTableRecord
100
AcDbRegAppTableRecord
  2
ACAUTHENVIRON
 70
     0
  0
APPID
  5
3BEB7
330
9
100
AcDbSymbolTableRecord
100
AcDbRegAppTableRecord
  2
AcDbDynamicBlockTrueName
 70
     0
  0
APPID
  5
3BEB8
330
9
100
AcDbSymbolTableRecord
100
AcDbRegAppTableRecord
  2
AcDbDynamicBlockGUID
 70
     0
  0
APPID
  5
3BEBA
330
9
100
AcDbSymbolTableRecord
100
AcDbRegAppTableRecord
  2
AcDbBlockRepETag
 70
     0
  0
APPID
  5
4A453
330
9
100
AcDbSymbolTableRecord
100
AcDbRegAppTableRecord
  2
ACAD_PSEXT
 70
     0
  0
APPID
  5
4A454
330
9
100
AcDbSymbolTableRecord
100
AcDbRegAppTableRecord
  2
AcadAnnotative
 70
     0
  0
APPID
  5
4A455
330
9
100
AcDbSymbolTableRecord
100
AcDbRegAppTableRecord
  2
ACAD_DSTYLE_DIMJAG
 70
     0
  0
APPID
  5
4A456
330
9
100
AcDbSymbolTableRecord
100
AcDbRegAppTableRecord
  2
ACAD_DSTYLE_DIMTALN
 70
     0
  0
APPID
  5
4A457
330
9
100
AcDbSymbolTableRecord
100
AcDbRegAppTableRecord
  2
ACAD_NAV_VCDISPLAY
 70
     0
  0
APPID
  5
4A787
330
9
100
AcDbSymbolTableRecord
100
AcDbRegAppTableRecord
  2
ACAD_DSTYLE_DIMINSPECT
 70
     0
  0
APPID
  5
4A788
330
9
100
AcDbSymbolTableRecord
100
AcDbRegAppTableRecord
  2
GENIUS_GENDTOL_13
 70
     0
  0
APPID
  5
4A789
330
9
100
AcDbSymbolTableRecord
100
AcDbRegAppTableRecord
  2
ZWMCAD_GENSTANDARDFRAME_13_
 70
     0
  0
APPID
  5
4A78A
330
9
100
AcDbSymbolTableRecord
100
AcDbRegAppTableRecord
  2
ZW_RECESS_XDATA
 70
     0
  0
APPID
  5
4A78B
330
9
100
AcDbSymbolTableRecord
100
AcDbRegAppTableRecord
  2
ZW_FAC_XDATA
 70
     0
  0
APPID
  5
4A78C
330
9
100
AcDbSymbolTableRecord
100
AcDbRegAppTableRecord
  2
ZW_FLC_XDATA
 70
     0
  0
APPID
  5
4A78D
330
9
100
AcDbSymbolTableRecord
100
AcDbRegAppTableRecord
  2
ZW_SUPERPART
 70
     0
  0
APPID
  5
4A78E
330
9
100
AcDbSymbolTableRecord
100
AcDbRegAppTableRecord
  2
ZW_SUPERSYMBOL
 70
     0
  0
APPID
  5
4A78F
330
9
100
AcDbSymbolTableRecord
100
AcDbRegAppTableRecord
  2
ZW_SUPERSHAFT
 70
     0
  0
APPID
  5
4A790
330
9
100
AcDbSymbolTableRecord
100
AcDbRegAppTableRecord
  2
ZWMCAD_GENFRAME_13_
 70
     0
  0
APPID
  5
4A791
330
9
100
AcDbSymbolTableRecord
100
AcDbRegAppTableRecord
  2
ACAD_MLEADERVER
 70
     0
  0
APPID
  5
4A792
330
9
100
AcDbSymbolTableRecord
100
AcDbRegAppTableRecord
  2
ACAD_DSTYLE_DIMRADIAL_EXTENSION
 70
     0
  0
APPID
  5
885F1
330
9
100
AcDbSymbolTableRecord
100
AcDbRegAppTableRecord
  2
ZWMCAD_GENSCA_13_
 70
     0
  0
APPID
  5
885EF
330
9
100
AcDbSymbolTableRecord
100
AcDbRegAppTableRecord
  2
ACAD_DSTYLE_DIMRADIAL_EXTE
 70
     0
  0
APPID
  5
885EE
330
9
100
AcDbSymbolTableRecord
100
AcDbRegAppTableRecord
  2
ZWMCAD_GENSTANDARDFRAME_13
 70
     0
  0
ENDTAB
  0
TABLE
  2
DIMSTYLE
  5
A
330
0
100
AcDbSymbolTable
 70
     2
100
AcDbDimStyleTable
 71
    21
340
1BF
340
3527
340
90771
340
907A6
340
907AC
340
907B1
340
907B7
340
919EE
340
919F4
340
919F9
340
919FF
340
91A04
340
91A0A
340
91A0F
340
91A15
340
91A1A
340
91A20
340
91A25
340
91A2B
340
91A30
340
91A36
  0
DIMSTYLE
105
1BF
102
{ACAD_REACTORS
330
949EF
330
94AA8
330
949F9
330
949F5
330
949F6
330
949F2
330
94D4D
102
}
330
A
100
AcDbSymbolTableRecord
100
AcDbDimStyleTableRecord
  2
コピー - ISO-25
 70
     0
 40
0.0
 41
3.5
 42
0.0
 44
1.5
 73
     0
 74
     0
 77
     1
 78
     8
140
3.5
147
2.299999999999998
176
   256
177
   256
271
     2
178
   256
271
     2
272
     2
284
     8
340
24A
371
    -1
372
    -1
  0
DIMSTYLE
105
3527
330
A
100
AcDbSymbolTableRecord
100
AcDbDimStyleTableRecord
  2
STANDARD
 70
     0
 41
3.0
 47
0.001
 48
0.001
 71
     1
 73
     0
 74
     0
 77
     1
 78
     8
140
4.0
271
     3
272
     3
284
     8
340
11
341
34B1
342
34B1
343
34B1
344
34B1
  0
ENDTAB
  0
TABLE
  2
BLOCK_RECORD
  5
1
330
0
100
AcDbSymbolTable
 70
    11
  0
BLOCK_RECORD
  5
1F
102
{ACAD_XDICTIONARY
360
31EE
102
}
330
1
100
AcDbSymbolTableRecord
100
AcDbBlockTableRecord
  2
*Model_Space
340
22
  0
BLOCK_RECORD
  5
55
330
1
100
AcDbSymbolTableRecord
100
AcDbBlockTableRecord
  2
*Paper_Space
340
56
  0
BLOCK_RECORD
  5
50
330
1
100
AcDbSymbolTableRecord
100
AcDbBlockTableRecord
  2
*Paper_Space000000
340
51
  0
BLOCK_RECORD
  5
34B1
330
1
100
AcDbSymbolTableRecord
100
AcDbBlockTableRecord
  2
_OPEN
340
0
  0
BLOCK_RECORD
  5
4A6D6
102
{ACAD_XDICTIONARY
360
4A6D7
102
}
330
1
100
AcDbSymbolTableRecord
100
AcDbBlockTableRecord
  2
zero block
340
0
102
{BLKREFS
331
8BFE6
331
4A793
331
880DD
331
882D3
331
87B7F
331
87D7D
331
90190
331
903FC
331
90821
331
90A84
331
90E49
331
910AD
331
91473
331
916B3
331
91AA1
331
91CE2
331
940A1
331
942D2
331
94691
331
948CF
331
93114
331
934B4
331
936F3
331
93AD2
331
93D08
331
8BD57
331
92098
331
922DA
331
9267F
331
928BF
331
92B61
331
92ED7
331
8FB3B
331
8FDCA
102
}
1001
AcDbDynamicBlockGUID
1000
{A89DF4EB-B2CB-439E-AC69-1EAC9F242D1C}
1001
AcDbBlockRepETag
1070
     1
1071
        7
1001
ACAD
1000
DesignCenter Data
1002
{
1070
     1
1070
     4
1002
}
  0
BLOCK_RECORD
  5
87D73
330
1
100
AcDbSymbolTableRecord
100
AcDbBlockTableRecord
  2
_None
340
0
102
{BLKREFS
331
8C250
331
8C292
331
8C2BE
331
8C2FE
331
8C332
331
87FA2
331
87FBD
331
87FC5
331
88042
331
88238
331
884B1
331
884F0
331
88512
331
885AA
331
87D72
331
87F63
331
9002A
331
9006F
331
900CE
331
90117
331
903C3
331
9062B
331
90673
331
906DD
331
90724
331
909A6
331
90CA0
331
90CEB
331
90D5B
331
90DBF
331
90FCE
331
912CA
331
91315
331
9135A
331
913E9
331
915B9
331
91895
331
918E5
331
91966
331
91989
331
91BE7
331
91EC5
331
91F15
331
91F6B
331
93FB1
331
9403A
331
9420F
331
944D5
331
94519
331
945A7
331
945EE
331
947FF
331
94ADF
331
94B23
331
94B80
331
94BF8
331
94C40
331
93052
331
93323
331
93367
331
933C4
331
9343C
331
9362F
331
93904
331
93948
331
9397A
331
939E2
331
93A5A
331
93CFD
331
93F26
331
93F64
331
8BC93
331
8BCED
331
8BF27
331
91FFC
331
921DE
331
924BE
331
9250E
331
9258F
331
925B2
331
9289C
331
92AD1
331
92B15
331
92D7E
331
92E18
331
92E5F
331
8FA29
331
8FA4D
331
8FAA7
331
8FD00
331
8A12B
331
8DEC1
102
}
  0
BLOCK_RECORD
  5
94AAB
330
1
100
AcDbSymbolTableRecord
100
AcDbBlockTableRecord
  2
*D20444
340
0
  0
BLOCK_RECORD
  5
94AB7
330
1
100
AcDbSymbolTableRecord
100
AcDbBlockTableRecord
  2
*D20555
340
0
  0
BLOCK_RECORD
  5
94AC3
330
1
100
AcDbSymbolTableRecord
100
AcDbBlockTableRecord
  2
*D20666
340
0
  0
BLOCK_RECORD
  5
94ACF
330
1
100
AcDbSymbolTableRecord
100
AcDbBlockTableRecord
  2
*D20777
340
0
  0
BLOCK_RECORD
  5
94ADB
330
1
100
AcDbSymbolTableRecord
100
AcDbBlockTableRecord
  2
*D20888
340
0
  0
BLOCK_RECORD
  5
94AF0
330
1
100
AcDbSymbolTableRecord
100
AcDbBlockTableRecord
  2
*D210109
340
0
  0
BLOCK_RECORD
  5
94D4E
330
1
100
AcDbSymbolTableRecord
100
AcDbBlockTableRecord
  2
*D1310
340
0
  0
ENDTAB
  0
ENDSEC
  0
SECTION
  2
BLOCKS
  0
BLOCK
  5
20
330
1F
100
AcDbEntity
  8
0
100
AcDbBlockBegin
  2
*Model_Space
 70
     0
 10
0.0
 20
0.0
 30
0.0
  3
*Model_Space
  1

  0
ENDBLK
  5
21
330
1F
100
AcDbEntity
  8
0
100
AcDbBlockEnd
  0
BLOCK
  5
57
330
55
100
AcDbEntity
 67
     1
  8
0
100
AcDbBlockBegin
  2
*Paper_Space
 70
     0
 10
0.0
 20
0.0
 30
0.0
  3
*Paper_Space
  1

  0
ENDBLK
  5
58
330
55
100
AcDbEntity
 67
     1
  8
0
100
AcDbBlockEnd
  0
BLOCK
  5
52
330
50
100
AcDbEntity
  8
0
100
AcDbBlockBegin
  2
*Paper_Space000000
 70
     0
 10
0.0
 20
0.0
 30
0.0
  3
*Paper_Space000000
  1

  0
VIEWPORT
  5
6B
102
{ACAD_XDICTIONARY
360
87B05
102
}
330
50
100
AcDbEntity
  8
0
100
AcDbViewport
 10
264.3775031494645
 20
160.4455827878762
 30
0.0
 40
567.6219612953822
 41
282.2272140146125
 68
     1
 69
    -1
 12
264.3775031494645
 22
160.4455827878762
 13
0.0
 23
0.0
 14
10.0
 24
10.0
 15
10.0
 25
10.0
 16
0.0
 26
0.0
 36
1.0
 17
0.0
 27
0.0
 37
0.0
 42
50.0
 43
0.0
 44
0.0
 45
282.2272140146125
 50
0.0
 51
0.0
 72
  1000
 90
    32864
  1

281
     0
 71
     1
 74
     0
110
0.0
120
0.0
130
0.0
111
1.0
121
0.0
131
0.0
112
0.0
122
1.0
132
0.0
 79
     0
146
0.0
1001
ACAD
1000
MVIEW
1002
{
1070
    16
1010
0.0
1020
0.0
1030
0.0
1010
0.0
1020
0.0
1030
1.0
1040
0.0
1040
282.2272140146125
1040
264.3775031494645
1040
160.4455827878762
1040
50.0
1040
0.0
1040
0.0
1070
     0
1070
  1000
1070
     0
1070
     3
1070
     0
1070
     0
1070
     0
1070
     0
1040
0.0
1040
0.0
1040
0.0
1040
10.0
1040
10.0
1040
10.0
1040
10.0
1070
     0
1002
{
1002
}
1002
}
  0
VIEWPORT
  5
6D
102
{ACAD_XDICTIONARY
360
87B07
102
}
330
50
100
AcDbEntity
  8
0
100
AcDbViewport
 10
133.3499939441681
 20
101.5999939441681
 30
0.0
 40
213.3599903106689
 41
162.5599903106689
 68
     2
 69
    -1
 12
210.0
 22
148.5
 13
0.0
 23
0.0
 14
10.0
 24
10.0
 15
10.0
 25
10.0
 16
0.0
 26
0.0
 36
1.0
 17
0.0
 27
0.0
 37
0.0
 42
50.0
 43
0.0
 44
0.0
 45
324.0677920111345
 50
0.0
 51
0.0
 72
   100
 90
    32864
  1

281
     0
 71
     1
 74
     0
110
0.0
120
0.0
130
0.0
111
1.0
121
0.0
131
0.0
112
0.0
122
1.0
132
0.0
 79
     0
146
0.0
1001
ACAD
1000
MVIEW
1002
{
1070
    16
1010
0.0
1020
0.0
1030
0.0
1010
0.0
1020
0.0
1030
1.0
1040
0.0
1040
324.0677920111345
1040
210.0
1040
148.5
1040
50.0
1040
0.0
1040
0.0
1070
     0
1070
   100
1070
     0
1070
     3
1070
     0
1070
     0
1070
     0
1070
     0
1040
0.0
1040
0.0
1040
0.0
1040
10.0
1040
10.0
1040
10.0
1040
10.0
1070
     0
1002
{
1002
}
1002
}
  0
ENDBLK
  5
53
330
50
100
AcDbEntity
  8
0
100
AcDbBlockEnd
  0
BLOCK
  5
34B2
330
34B1
100
AcDbEntity
  8
0
100
AcDbBlockBegin
  2
_OPEN
 70
     0
 10
0.0
 20
0.0
 30
0.0
  3
_OPEN
  1

  0
LINE
  5
34B3
330
34B1
100
AcDbEntity
  8
0
  6
ByBlock
 62
     0
100
AcDbLine
 10
0.0
 20
0.0
 30
0.0
 11
-1.0
 21
0.1766666667
 31
0.0
  0
LINE
  5
34B4
330
34B1
100
AcDbEntity
  8
0
  6
ByBlock
 62
     0
100
AcDbLine
 10
-1.0
 20
-0.1766666667
 30
0.0
 11
0.0
 21
0.0
 31
0.0
  0
LINE
  5
34B5
330
34B1
100
AcDbEntity
  8
0
  6
ByBlock
 62
     0
100
AcDbLine
 10
-1.0
 20
0.0
 30
0.0
 11
0.0
 21
0.0
 31
0.0
  0
ENDBLK
  5
34B6
330
34B1
100
AcDbEntity
  8
0
  6
ByBlock
 62
     0
100
AcDbBlockEnd
  0
BLOCK
  5
4A6D9
330
4A6D6
100
AcDbEntity
  8
0
100
AcDbBlockBegin
  2
zero block
 70
     0
 10
0.0
 20
0.0
 30
0.0
  3
zero block
  1

  0
HATCH
  5
4A6DA
330
4A6D6
100
AcDbEntity
  8
0
 62
     7
100
AcDbHatch
 10
0.0
 20
0.0
 30
0.0
210
0.0
220
0.0
230
1.0
  2
SOLID
 70
     1
 71
     0
 91
        2
 92
        7
 72
     1
 73
     1
 93
        3
 10
0.0
 20
0.9999999999999875
 42
0.4142135623730915
 10
-1.0
 20
0.0
 42
0.0
 10
0.0
 20
0.0
 42
0.0
 97
        0
 92
        7
 72
     1
 73
     1
 93
        3
 10
1.000000000000007
 20
0.0
 42
0.0
 10
0.0
 20
0.0
 42
0.0
 10
0.0
 20
-1.0
 42
0.4142135623730974
 97
        0
 75
     0
 76
     1
 47
0.0090601366782909
 98
        2
 10
-0.380591363650975
 20
0.4885804701532896
 10
0.4350764810977559
 20
-0.4536738423704725
1001
AcDbBlockRepETag
1070
     1
1071
        0
1005
4A6DA
  0
LINE
  5
4A6DB
330
4A6D6
100
AcDbEntity
  8
0
 62
     7
 48
0.2
100
AcDbLine
 10
-1.0
 20
0.0
 30
0.0
 11
1.000000000000007
 21
0.0
 31
0.0
1001
AcDbBlockRepETag
1070
     1
1071
        1
1005
4A6DB
  0
LINE
  5
4A6DC
330
4A6D6
100
AcDbEntity
  8
0
 62
     7
 48
0.2
100
AcDbLine
 10
0.0
 20
-1.0
 30
0.0
 11
0.0
 21
0.9999999999999875
 31
0.0
1001
AcDbBlockRepETag
1070
     1
1071
        2
1005
4A6DC
  0
ARC
  5
4A6DD
330
4A6D6
100
AcDbEntity
  8
0
 62
     7
 48
0.2
100
AcDbCircle
 10
0.0
 20
0.0
 30
0.0
 40
1.0
100
AcDbArc
 50
270.0
 51
0.0
1001
AcDbBlockRepETag
1070
     1
1071
        3
1005
4A6DD
  0
ARC
  5
4A6DE
330
4A6D6
100
AcDbEntity
  8
0
 62
     7
 48
0.2
100
AcDbCircle
 10
0.0
 20
0.0
 30
0.0
 40
1.0
100
AcDbArc
 50
0.0
 51
90.0
1001
AcDbBlockRepETag
1070
     1
1071
        4
1005
4A6DE
  0
ARC
  5
4A6DF
330
4A6D6
100
AcDbEntity
  8
0
 62
     7
 48
0.2
100
AcDbCircle
 10
0.0
 20
0.0
 30
0.0
 40
1.0
100
AcDbArc
 50
180.0
 51
270.0
1001
AcDbBlockRepETag
1070
     1
1071
        5
1005
4A6DF
  0
ARC
  5
4A6E0
330
4A6D6
100
AcDbEntity
  8
0
 62
     7
 48
0.2
100
AcDbCircle
 10
0.0
 20
0.0
 30
0.0
 40
1.0
100
AcDbArc
 50
90.0
 51
180.0
1001
AcDbBlockRepETag
1070
     1
1071
        6
1005
4A6E0
  0
ENDBLK
  5
4A6E1
330
4A6D6
100
AcDbEntity
  8
0
100
AcDbBlockEnd
  0
BLOCK
  5
87D74
330
87D73
100
AcDbEntity
  8
0
100
AcDbBlockBegin
  2
_None
 70
     0
 10
0.0
 20
0.0
 30
0.0
  3
_None
  1

  0
ENDBLK
  5
87D75
330
87D73
100
AcDbEntity
  8
0
100
AcDbBlockEnd
  0
BLOCK
  5
94AB5
330
94AAB
100
AcDbEntity
  8
0
100
AcDbBlockBegin
  2
*D20444
 70
     1
 10
0.0
 20
0.0
 30
0.0
  3
*D20444
  1

  0
LINE
  5
94DAD
330
94AAB
100
AcDbEntity
  8
2
100
AcDbLine
 10
0.0
 20
46.4189999989
 30
0.0
 11
0.0
 21
111.4984637722732
 31
0.0
  0
LINE
  5
94DAE
330
94AAB
100
AcDbEntity
  8
2
100
AcDbLine
 10
63.50000000000004
 20
75.39999999890191
 30
0.0
 11
63.50000000000004
 21
111.4984637722732
 31
0.0
  0
LINE
  5
94DAF
330
94AAB
100
AcDbEntity
  8
2
100
AcDbLine
 10
3.5
 20
109.9984637722732
 30
0.0
 11
60.00000000000003
 21
109.9984637722732
 31
0.0
  0
SOLID
  5
94DB0
330
94AAB
100
AcDbEntity
  8
2
100
AcDbTrace
 10
3.5
 20
110.5817971056065
 30
0.0
 11
3.5
 21
109.4151304389398
 31
0.0
 12
0.0
 22
109.9984637722732
 32
0.0
 13
0.0
 23
109.9984637722732
 33
0.0
  0
SOLID
  5
94DB1
330
94AAB
100
AcDbEntity
  8
2
100
AcDbTrace
 10
60.00000000000003
 20
109.4151304389398
 30
0.0
 11
60.00000000000003
 21
110.5817971056065
 31
0.0
 12
63.50000000000004
 22
109.9984637722732
 32
0.0
 13
63.50000000000004
 23
109.9984637722732
 33
0.0
  0
MTEXT
  5
94DB2
330
94AAB
100
AcDbEntity
  8
2
100
AcDbMText
 10
31.75000000000002
 20
114.0484637722732
 30
0.0
 40
3.5
 41
0.0
 71
     5
 72
     1
  1
\A1;63.5 [2.500"]
  7
simplex
 73
     1
 44
1.0
1001
ACAD
1000
MTEXTBEGIN
1070
    73
1070
     1
1070
    44
1040
1.0
1070
    74
1070
     0
1000
MTEXTEND
  0
POINT
  5
94DB3
330
94AAB
100
AcDbEntity
  8
Defpoints
 62
     0
100
AcDbPoint
 10
0.0
 20
46.4189999989
 30
0.0
  0
POINT
  5
94DB4
330
94AAB
100
AcDbEntity
  8
Defpoints
 62
     0
100
AcDbPoint
 10
63.50000000000004
 20
75.39999999890191
 30
0.0
  0
POINT
  5
94DB5
330
94AAB
100
AcDbEntity
  8
Defpoints
 62
     0
100
AcDbPoint
 10
63.50000000000004
 20
109.9984637722732
 30
0.0
  0
ENDBLK
  5
94AB6
330
94AAB
100
AcDbEntity
  8
0
100
AcDbBlockEnd
  0
BLOCK
  5
94AC1
330
94AB7
100
AcDbEntity
  8
0
100
AcDbBlockBegin
  2
*D20555
 70
     1
 10
0.0
 20
0.0
 30
0.0
  3
*D20555
  1

  0
LINE
  5
94BDA
330
94AB7
100
AcDbEntity
  8
sk2
100
AcDbLine
 10
0.0
 20
-46.41899868210001
 30
0.0
 11
0.0
 21
-91.44251898993658
 31
0.0
  0
LINE
  5
94BDB
330
94AB7
100
AcDbEntity
  8
sk2
100
AcDbLine
 10
42.00000000000005
 20
-26.99999867990002
 30
0.0
 11
42.00000000000005
 21
-91.44251898993658
 31
0.0
  0
LINE
  5
94BDC
330
94AB7
100
AcDbEntity
  8
sk2
100
AcDbLine
 10
3.5
 20
-89.94251898993658
 30
0.0
 11
38.50000000000007
 21
-89.94251898993658
 31
0.0
  0
SOLID
  5
94BDD
330
94AB7
100
AcDbEntity
  8
sk2
100
AcDbTrace
 10
3.5
 20
-89.35918565660326
 30
0.0
 11
3.5
 21
-90.52585232326991
 31
0.0
 12
0.0
 22
-89.94251898993658
 32
0.0
 13
0.0
 23
-89.94251898993658
 33
0.0
  0
SOLID
  5
94BDE
330
94AB7
100
AcDbEntity
  8
sk2
100
AcDbTrace
 10
38.50000000000007
 20
-90.52585232326991
 30
0.0
 11
38.50000000000007
 21
-89.35918565660326
 31
0.0
 12
42.00000000000005
 22
-89.94251898993658
 32
0.0
 13
42.00000000000005
 23
-89.94251898993658
 33
0.0
  0
MTEXT
  5
94BDF
330
94AB7
100
AcDbEntity
  8
sk2
100
AcDbMText
 10
21.00000000000003
 20
-85.89251898993659
 30
0.0
 40
3.5
 41
0.0
 71
     5
 72
     1
  1
\A1;42 [1.654"]
  7
simplex
 73
     1
 44
1.0
1001
ACAD
1000
MTEXTBEGIN
1070
    73
1070
     1
1070
    44
1040
1.0
1070
    74
1070
     0
1000
MTEXTEND
  0
POINT
  5
94BE0
330
94AB7
100
AcDbEntity
  8
Defpoints
 62
     0
100
AcDbPoint
 10
0.0
 20
-46.41899868210001
 30
0.0
  0
POINT
  5
94BE1
330
94AB7
100
AcDbEntity
  8
Defpoints
 62
     0
100
AcDbPoint
 10
42.00000000000005
 20
-26.99999867990002
 30
0.0
  0
POINT
  5
94BE2
330
94AB7
100
AcDbEntity
  8
Defpoints
 62
     0
100
AcDbPoint
 10
42.00000000000005
 20
-89.94251898993658
 30
0.0
  0
ENDBLK
  5
94AC2
330
94AB7
100
AcDbEntity
  8
0
100
AcDbBlockEnd
  0
BLOCK
  5
94ACD
330
94AC3
100
AcDbEntity
  8
0
100
AcDbBlockBegin
  2
*D20666
 70
     1
 10
0.0
 20
0.0
 30
0.0
  3
*D20666
  1

  0
LINE
  5
94BE3
330
94AC3
100
AcDbEntity
  8
sk2
100
AcDbLine
 10
2.0
 20
48.41900131789998
 30
0.0
 11
-21.05706845840899
 21
48.41900131789998
 31
0.0
  0
LINE
  5
94BE4
330
94AC3
100
AcDbEntity
  8
sk2
100
AcDbLine
 10
2.0
 20
-48.41899868210001
 30
0.0
 11
-21.057068458409
 21
-48.41899868210001
 31
0.0
  0
LINE
  5
94BE5
330
94AC3
100
AcDbEntity
  8
sk2
100
AcDbLine
 10
-19.55706845840898
 20
44.91900131789998
 30
0.0
 11
-19.55706845840898
 21
-44.9189986821
 31
0.0
  0
SOLID
  5
94BE6
330
94AC3
100
AcDbEntity
  8
sk2
100
AcDbTrace
 10
-18.97373512507565
 20
44.91900131789998
 30
0.0
 11
-20.14040179174232
 21
44.91900131789998
 31
0.0
 12
-19.55706845840898
 22
48.41900131789998
 32
0.0
 13
-19.55706845840898
 23
48.41900131789998
 33
0.0
  0
SOLID
  5
94BE7
330
94AC3
100
AcDbEntity
  8
sk2
100
AcDbTrace
 10
-20.14040179174233
 20
-44.9189986821
 30
0.0
 11
-18.97373512507566
 21
-44.9189986821
 31
0.0
 12
-19.55706845840898
 22
-48.41899868210001
 32
0.0
 13
-19.55706845840898
 23
-48.41899868210001
 33
0.0
  0
MTEXT
  5
94BE8
330
94AC3
100
AcDbEntity
  8
sk2
100
AcDbMText
 10
-23.60706845840899
 20
-0.0832933704160436
 30
0.0
 40
3.5
 41
0.0
 71
     5
 72
     1
  1
\A1;%%C96.838 [%%c3.813"]
  7
simplex
 11
0.0000000000000001
 21
1.0
 31
0.0
 73
     1
 44
1.0
1001
ACAD
1000
MTEXTBEGIN
1070
    73
1070
     1
1070
    44
1040
1.0
1070
    74
1070
     0
1000
MTEXTEND
  0
POINT
  5
94BE9
330
94AC3
100
AcDbEntity
  8
Defpoints
 62
     0
100
AcDbPoint
 10
2.0
 20
48.41900131789998
 30
0.0
  0
POINT
  5
94BEA
330
94AC3
100
AcDbEntity
  8
Defpoints
 62
     0
100
AcDbPoint
 10
2.0
 20
-48.41899868210001
 30
0.0
  0
POINT
  5
94BEB
330
94AC3
100
AcDbEntity
  8
Defpoints
 62
     0
100
AcDbPoint
 10
-19.55706845840898
 20
-48.41899868210001
 30
0.0
  0
ENDBLK
  5
94ACE
330
94AC3
100
AcDbEntity
  8
0
100
AcDbBlockEnd
  0
BLOCK
  5
94AD9
330
94ACF
100
AcDbEntity
  8
0
100
AcDbBlockBegin
  2
*D20777
 70
     1
 10
0.0
 20
0.0
 30
0.0
  3
*D20777
  1

  0
LINE
  5
94BEC
330
94ACF
100
AcDbEntity
  8
sk2
100
AcDbLine
 10
8.000000000000056
 20
19.05000131789995
 30
0.0
 11
-11.54004119204325
 21
19.05000131789995
 31
0.0
  0
LINE
  5
94BED
330
94ACF
100
AcDbEntity
  8
sk2
100
AcDbLine
 10
8.000000000000056
 20
-19.0499986799
 30
0.0
 11
-11.54004119204325
 21
-19.0499986799
 31
0.0
  0
LINE
  5
94BEE
330
94ACF
100
AcDbEntity
  8
sk2
100
AcDbLine
 10
-10.04004119204324
 20
15.55000131789995
 30
0.0
 11
-10.04004119204324
 21
-15.5499986799
 31
0.0
  0
SOLID
  5
94BEF
330
94ACF
100
AcDbEntity
  8
sk2
100
AcDbTrace
 10
-9.456707858709911
 20
15.55000131789995
 30
0.0
 11
-10.62337452537658
 21
15.55000131789995
 31
0.0
 12
-10.04004119204324
 22
19.05000131789995
 32
0.0
 13
-10.04004119204324
 23
19.05000131789995
 33
0.0
  0
SOLID
  5
94BF0
330
94ACF
100
AcDbEntity
  8
sk2
100
AcDbTrace
 10
-10.62337452537658
 20
-15.5499986799
 30
0.0
 11
-9.456707858709911
 21
-15.5499986799
 31
0.0
 12
-10.04004119204324
 22
-19.0499986799
 32
0.0
 13
-10.04004119204324
 23
-19.0499986799
 33
0.0
  0
MTEXT
  5
94BF1
330
94ACF
100
AcDbEntity
  8
sk2
100
AcDbMText
 10
-14.09004119204324
 20
-0.3632059370738716
 30
0.0
 40
3.5
 41
0.0
 71
     5
 72
     1
  1
\A1;%%C38.1 [%%c1.500"]
  7
simplex
 11
0.0
 21
1.0
 31
0.0
 73
     1
 44
1.0
1001
ACAD
1000
MTEXTBEGIN
1070
    73
1070
     1
1070
    44
1040
1.0
1070
    74
1070
     0
1000
MTEXTEND
  0
POINT
  5
94BF2
330
94ACF
100
AcDbEntity
  8
Defpoints
 62
     0
100
AcDbPoint
 10
8.000000000000056
 20
19.05000131789995
 30
0.0
  0
POINT
  5
94BF3
330
94ACF
100
AcDbEntity
  8
Defpoints
 62
     0
100
AcDbPoint
 10
8.000000000000056
 20
-19.0499986799
 30
0.0
  0
POINT
  5
94BF4
330
94ACF
100
AcDbEntity
  8
Defpoints
 62
     0
100
AcDbPoint
 10
-10.04004119204324
 20
-19.0499986799
 30
0.0
  0
ENDBLK
  5
94ADA
330
94ACF
100
AcDbEntity
  8
0
100
AcDbBlockEnd
  0
BLOCK
  5
94AE4
330
94ADB
100
AcDbEntity
  8
0
100
AcDbBlockBegin
  2
*D20888
 70
     1
 10
0.0
 20
0.0
 30
0.0
  3
*D20888
  1

  0
LINE
  5
94C3D
330
94ADB
100
AcDbEntity
  8
2
100
AcDbLine
 10
62.69999999999999
 20
76.19999999889995
 30
0.0
 11
91.40679386709532
 21
76.19999999889995
 31
0.0
  0
LINE
  5
94C3E
330
94ADB
100
AcDbEntity
  8
2
100
AcDbLine
 10
89.90679386709532
 20
72.69999999889996
 30
0.0
 11
89.9067938670953
 21
-76.19999999889995
 31
0.0
  0
SOLID
  5
94C3F
330
94ADB
100
AcDbEntity
  8
2
100
AcDbTrace
 10
90.49012720042865
 20
72.69999999889996
 30
0.0
 11
89.32346053376198
 21
72.69999999889996
 31
0.0
 12
89.90679386709532
 22
76.19999999889995
 32
0.0
 13
89.90679386709532
 23
76.19999999889995
 33
0.0
  0
INSERT
  5
94C40
330
94ADB
100
AcDbEntity
  8
2
100
AcDbBlockReference
  2
_None
 10
89.9067938670953
 20
-76.19999999889995
 30
0.0
 41
3.5
 42
3.5
 43
3.5
 50
270.0
  0
MTEXT
  5
94C41
330
94ADB
100
AcDbEntity
  8
2
100
AcDbMText
 10
85.8567938670953
 20
-1.749999999999999
 30
0.0
 40
3.5
 41
0.0
 71
     5
 72
     1
  1
\A1;%%C152.4 [%%c6.000"]
  7
simplex
 11
0.0000000000000001
 21
1.0
 31
0.0
 73
     1
 44
1.0
1001
ACAD
1000
MTEXTBEGIN
1070
    73
1070
     1
1070
    44
1040
1.0
1070
    74
1070
     0
1000
MTEXTEND
  0
POINT
  5
94C42
330
94ADB
100
AcDbEntity
  8
Defpoints
 62
     0
100
AcDbPoint
 10
62.69999999999999
 20
76.19999999889995
 30
0.0
  0
POINT
  5
94C43
330
94ADB
100
AcDbEntity
  8
Defpoints
 62
     0
100
AcDbPoint
 10
62.69999999999999
 20
-76.19999999889995
 30
0.0
  0
POINT
  5
94C44
330
94ADB
100
AcDbEntity
  8
Defpoints
 62
     0
100
AcDbPoint
 10
89.9067938670953
 20
-76.19999999889995
 30
0.0
  0
ENDBLK
  5
94AE5
330
94ADB
100
AcDbEntity
  8
0
100
AcDbBlockEnd
  0
BLOCK
  5
94AFA
330
94AF0
100
AcDbEntity
  8
0
100
AcDbBlockBegin
  2
*D210109
 70
     1
 10
0.0
 20
0.0
 30
0.0
  3
*D210109
  1

  0
LINE
  5
94DA3
330
94AF0
100
AcDbEntity
  8
2
100
AcDbLine
 10
55.30000000000004
 20
76.19999999889995
 30
0.0
 11
55.30000000000004
 21
101.4038839439002
 31
0.0
  0
LINE
  5
94DA4
330
94AF0
100
AcDbEntity
  8
2
100
AcDbLine
 10
63.50000000000004
 20
75.39999999890191
 30
0.0
 11
63.50000000000004
 21
101.4038839439002
 31
0.0
  0
LINE
  5
94DA5
330
94AF0
100
AcDbEntity
  8
2
100
AcDbLine
 10
67.00000000000002
 20
99.90388394390024
 30
0.0
 11
119.4333333333333
 21
99.90388394390024
 31
0.0
  0
LINE
  5
94DA6
330
94AF0
100
AcDbEntity
  8
2
100
AcDbLine
 10
51.80000000000004
 20
99.90388394390024
 30
0.0
 11
48.30000000000004
 21
99.90388394390024
 31
0.0
  0
SOLID
  5
94DA7
330
94AF0
100
AcDbEntity
  8
2
100
AcDbTrace
 10
51.80000000000004
 20
99.32055061056692
 30
0.0
 11
51.80000000000004
 21
100.4872172772335
 31
0.0
 12
55.30000000000004
 22
99.90388394390024
 32
0.0
 13
55.30000000000004
 23
99.90388394390024
 33
0.0
  0
SOLID
  5
94DA8
330
94AF0
100
AcDbEntity
  8
2
100
AcDbTrace
 10
67.00000000000002
 20
100.4872172772335
 30
0.0
 11
67.00000000000002
 21
99.32055061056692
 31
0.0
 12
63.50000000000004
 22
99.90388394390024
 32
0.0
 13
63.50000000000004
 23
99.90388394390024
 33
0.0
  0
MTEXT
  5
94DA9
330
94AF0
100
AcDbEntity
  8
2
100
AcDbMText
 10
94.96666666666669
 20
103.9538839439002
 30
0.0
 40
3.5
 41
0.0
 71
     5
 72
     1
  1
\A1;8.2 [.323"](MAX)
  7
simplex
 73
     1
 44
1.0
1001
ACAD
1000
MTEXTBEGIN
1070
    73
1070
     1
1070
    44
1040
1.0
1070
    74
1070
     0
1000
MTEXTEND
  0
POINT
  5
94DAA
330
94AF0
100
AcDbEntity
  8
Defpoints
 62
     0
100
AcDbPoint
 10
55.30000000000004
 20
76.19999999889995
 30
0.0
  0
POINT
  5
94DAB
330
94AF0
100
AcDbEntity
  8
Defpoints
 62
     0
100
AcDbPoint
 10
63.50000000000004
 20
75.39999999890191
 30
0.0
  0
POINT
  5
94DAC
330
94AF0
100
AcDbEntity
  8
Defpoints
 62
     0
100
AcDbPoint
 10
63.50000000000004
 20
99.90388394390024
 30
0.0
  0
ENDBLK
  5
94AFB
330
94AF0
100
AcDbEntity
  8
0
100
AcDbBlockEnd
  0
BLOCK
  5
94D56
330
94D4E
100
AcDbEntity
  8
0
100
AcDbBlockBegin
  2
*D1310
 70
     1
 10
0.0
 20
0.0
 30
0.0
  3
*D1310
  1

  0
LINE
  5
94D58
330
94D4E
100
AcDbEntity
  8
2
100
AcDbLine
 10
104.8282494429907
 20
94.44551679368029
 30
0.0
 11
66.61820056102799
 21
77.1713566438363
 31
0.0
  0
MTEXT
  5
94D59
330
94D4E
100
AcDbEntity
  8
2
100
AcDbMText
 10
85.64947071591797
 20
90.21973588173546
 30
0.0
 40
3.5
 41
0.0
 71
     5
 72
     1
  1
\A1;R0.8 [R.031"]
  7
simplex
 11
0.9112094327972052
 21
0.411943405799141
 31
0.0
 73
     1
 44
1.0
1001
ACAD
1000
MTEXTBEGIN
1070
    73
1070
     1
1070
    44
1040
1.0
1070
    74
1070
     0
1000
MTEXTEND
  0
SOLID
  5
94D5A
330
94D4E
100
AcDbEntity
  8
2
100
AcDbTrace
 10
66.37790024097849
 20
77.70289547963469
 30
0.0
 11
66.85850088107748
 21
76.63981780803793
 31
0.0
 12
63.42896754623777
 22
75.72955472353931
 32
0.0
 13
63.42896754623777
 23
75.72955472353931
 33
0.0
  0
LINE
  5
94D5B
330
94D4E
100
AcDbEntity
  8
2
100
AcDbLine
 10
62.61000000000001
 20
75.3999999989
 30
0.0
 11
62.79000000000002
 21
75.3999999989
 31
0.0
  0
LINE
  5
94D5C
330
94D4E
100
AcDbEntity
  8
2
100
AcDbLine
 10
62.70000000000002
 20
75.30999999889998
 30
0.0
 11
62.70000000000002
 21
75.4899999989
 31
0.0
  0
POINT
  5
94D5D
330
94D4E
100
AcDbEntity
  8
Defpoints
 62
     0
100
AcDbPoint
 10
63.42896754623777
 20
75.72955472353931
 30
0.0
  0
POINT
  5
94D5E
330
94D4E
100
AcDbEntity
  8
Defpoints
 62
     0
100
AcDbPoint
 10
62.70000000000002
 20
75.3999999989
 30
0.0
  0
ENDBLK
  5
94D57
330
94D4E
100
AcDbEntity
  8
0
100
AcDbBlockEnd
  0
ENDSEC
  0
SECTION
  2
ENTITIES
  0
INSERT
  5
4A793
330
1F
100
AcDbEntity
  8
0
100
AcDbBlockReference
  2
zero block
 10
0.0
 20
0.0
 30
0.0
 50
180.0
  0
MTEXT
  5
948CE
330
1F
100
AcDbEntity
  8
sk6
100
AcDbMText
 10
3.128160782237498
 20
136.783224521334
 30
0.0
 40
3.5
 41
139.3353303764208
 71
     1
 72
     5
  1
WWX400UR6_0014EA
 73
     1
 44
0.9
1001
ACAD
1000
MTEXTBEGIN
1070
    73
1070
     1
1070
    44
1040
0.9
1070
    74
1070
     0
1000
MTEXTEND
1000
ACAD_MTEXT_DEFINED_HEIGHT_BEGIN
1070
    46
1040
3.48901801050149
1000
ACAD_MTEXT_DEFINED_HEIGHT_END
  0
LINE
  5
948D0
330
1F
100
AcDbEntity
  8
4
100
AcDbLine
 10
68.83693405598956
 20
0.0
 30
0.0
 11
-2.907861614760518
 21
0.0
 31
0.0
  0
LINE
  5
948D1
330
1F
100
AcDbEntity
  8
nocut
100
AcDbLine
 10
61.71384718519999
 20
0.0
 30
0.0
 11
0.0
 21
0.0
 31
0.0
  0
LINE
  5
948D2
330
1F
100
AcDbEntity
  8
sk3
100
AcDbLine
 10
0.9999998037999944
 20
19.55000131789995
 30
0.0
 11
0.0
 21
20.55000111159996
 31
0.0
  0
LINE
  5
948D3
330
1F
100
AcDbEntity
  8
nocut
100
AcDbLine
 10
0.0
 20
0.0
 30
0.0
 11
0.0
 21
46.4189999989
 31
0.0
  0
LINE
  5
948D4
330
1F
100
AcDbEntity
  8
sk3
100
AcDbLine
 10
0.9999998037999944
 20
7.937501317899999
 30
0.0
 11
0.9999998037999944
 21
19.55000131789995
 31
0.0
  0
LINE
  5
948D5
330
1F
100
AcDbEntity
  8
sk3
100
AcDbLine
 10
8.000000000000056
 20
7.937501317899999
 30
0.0
 11
8.000000000000056
 21
19.55000131789995
 31
0.0
  0
LINE
  5
94900
102
{ACAD_REACTORS
330
949F8
102
}
330
1F
100
AcDbEntity
  8
sk3
100
AcDbLine
 10
8.000000000000056
 20
19.05000131789995
 30
0.0
 11
25.89046496530006
 21
19.05000131789995
 31
0.0
  0
LINE
  5
94901
330
1F
100
AcDbEntity
  8
sk3
100
AcDbLine
 10
39.28689076480003
 20
19.05000131789995
 30
0.0
 11
41.00000019079999
 21
19.05000131789995
 31
0.0
  0
LINE
  5
94902
330
1F
100
AcDbEntity
  8
sk3
100
AcDbLine
 10
0.9999998037999944
 20
19.55000131789995
 30
0.0
 11
8.000000000000056
 21
19.55000131789995
 31
0.0
  0
LINE
  5
94903
330
1F
100
AcDbEntity
  8
sk3
100
AcDbLine
 10
29.17735573010003
 20
20.50000131789997
 30
0.0
 11
35.82264426990008
 21
20.50000131789997
 31
0.0
  0
LINE
  5
94904
330
1F
100
AcDbEntity
  8
nocut
100
AcDbLine
 10
21.31282802740003
 20
50.47754138069996
 30
0.0
 11
37.72318830780009
 21
73.91396470509993
 31
0.0
  0
LINE
  5
94905
330
1F
100
AcDbEntity
  8
sk3
100
AcDbLine
 10
36.16073887930006
 20
20.42504754749996
 30
0.0
 11
38.94879615550005
 21
19.12495508819995
 31
0.0
  0
LINE
  5
94908
330
1F
100
AcDbEntity
  8
sk3
100
AcDbLine
 10
43.00000000000006
 20
28.00000131789995
 30
0.0
 11
55.71384718520002
 21
28.00000131789995
 31
0.0
  0
LINE
  5
9490C
330
1F
100
AcDbEntity
  8
sk3
100
AcDbLine
 10
25.89046496530006
 20
19.05000131789995
 30
0.0
 11
25.89046496530006
 21
0.0000013189999777
 31
0.0
  0
LINE
  5
94915
330
1F
100
AcDbEntity
  8
sk3
100
AcDbLine
 10
41.00000019079999
 20
19.05000131789995
 30
0.0
 11
41.00000019079999
 21
0.0000013189999777
 31
0.0
  0
LINE
  5
94916
330
1F
100
AcDbEntity
  8
sk3
100
AcDbLine
 10
42.00000000000005
 20
0.0000013189999777
 30
0.0
 11
42.00000000000005
 21
27.00000131789997
 31
0.0
  0
LINE
  5
94918
330
1F
100
AcDbEntity
  8
nocut
100
AcDbLine
 10
2.0
 20
48.4189999989
 30
0.0
 11
13.43987587010002
 21
48.4189999989
 31
0.0
  0
LINE
  5
9492D
330
1F
100
AcDbEntity
  8
sk3
100
AcDbLine
 10
57.15507220040006
 20
59.57917854049992
 30
0.0
 11
60.51540534649004
 21
65.069462685192
 31
0.0
  0
LINE
  5
9493E
330
1F
100
AcDbEntity
  8
sk3
100
AcDbLine
 10
25.89046496530006
 20
19.05000131789995
 30
0.0
 11
28.8392611207
 21
20.42504754749996
 31
0.0
  0
LINE
  5
94946
330
1F
100
AcDbEntity
  8
sk3
100
AcDbLine
 10
41.00000019079999
 20
19.05000131789995
 30
0.0
 11
42.00000000000005
 21
20.05000111699997
 31
0.0
  0
LINE
  5
94949
330
1F
100
AcDbEntity
  8
sk3
100
AcDbLine
 10
55.71384718520002
 20
28.00000131789995
 30
0.0
 11
55.71384718520002
 21
0.0000013189999777
 31
0.0
  0
LINE
  5
9494A
330
1F
100
AcDbEntity
  8
sk3
100
AcDbLine
 10
56.71384718519999
 20
58.01307810409998
 30
0.0
 11
56.71384718519999
 21
0.0000013189999777
 31
0.0
  0
LINE
  5
9494B
330
1F
100
AcDbEntity
  8
sk3
100
AcDbLine
 10
55.71384718520002
 20
28.00000131789995
 30
0.0
 11
56.71384718519999
 21
29.00000131789994
 31
0.0
  0
LINE
  5
9494C
330
1F
100
AcDbEntity
  8
nocut
100
AcDbLine
 10
61.71384718519999
 20
69.3999999989
 30
0.0
 11
61.71384718519999
 21
0.0000000000000142
 31
0.0
  0
LINE
  5
949C4
330
1F
100
AcDbEntity
  8
nocut
100
AcDbLine
 10
40.1282872213
 20
75.19277848149994
 30
0.0
 11
51.97382338410005
 21
75.39954308429995
 31
0.0
  0
LINE
  5
949C5
330
1F
100
AcDbEntity
  8
nocut
100
AcDbLine
 10
52.02618060340006
 20
75.3999999989
 30
0.0
 11
55.71384718520002
 21
75.3999999989
 31
0.0
  0
ARC
  5
949C8
330
1F
100
AcDbEntity
  8
nocut
100
AcDbCircle
 10
16.39791576160002
 20
53.9189999989
 30
0.0
 40
6.0
100
AcDbArc
 50
250.8118635462993
 51
324.9999999999996
  0
ARC
  5
949C9
330
1F
100
AcDbEntity
  8
nocut
100
AcDbCircle
 10
55.71384718520002
 20
69.3999999989
 30
0.0
 40
6.0
100
AcDbArc
 50
0.0
 51
90.0
  0
ARC
  5
949CA
330
1F
100
AcDbEntity
  8
nocut
100
AcDbCircle
 10
52.02618060340006
 20
72.3999999989
 30
0.0
 40
3.0
100
AcDbArc
 50
90.0
 51
91.00000000000015
  0
ARC
  5
949CB
330
1F
100
AcDbEntity
  8
nocut
100
AcDbCircle
 10
40.18064444060001
 20
72.19323539599996
 30
0.0
 40
3.0
100
AcDbArc
 50
91.00000000000015
 51
144.9999999999995
  0
ARC
  5
949CC
330
1F
100
AcDbEntity
  8
nocut
100
AcDbCircle
 10
13.43987587010002
 20
45.4189999989
 30
0.0
 40
3.0
100
AcDbArc
 50
70.81186354629932
 51
90.0
  0
ARC
  5
949CD
330
1F
100
AcDbEntity
  8
sk3
100
AcDbCircle
 10
59.71384718519999
 20
58.01307810409998
 30
0.0
 40
3.0
100
AcDbArc
 50
148.5312476589003
 51
180.0
  0
ARC
  5
949D0
102
{ACAD_REACTORS
330
949F1
102
}
330
1F
100
AcDbEntity
  8
nocut
100
AcDbCircle
 10
2.0
 20
46.4189999989
 30
0.0
 40
2.0
100
AcDbArc
 50
90.0
 51
180.0
  0
ARC
  5
949D1
330
1F
100
AcDbEntity
  8
sk3
100
AcDbCircle
 10
43.00000000000006
 20
27.00000131789997
 30
0.0
 40
1.0
100
AcDbArc
 50
90.0
 51
180.0
  0
ARC
  5
949D4
330
1F
100
AcDbEntity
  8
sk3
100
AcDbCircle
 10
29.17735573010003
 20
19.70000131789996
 30
0.0
 40
0.8
100
AcDbArc
 50
90.0
 51
114.9999999999997
  0
ARC
  5
949D5
330
1F
100
AcDbEntity
  8
sk3
100
AcDbCircle
 10
39.28689076480003
 20
19.85000131789997
 30
0.0
 40
0.8
100
AcDbArc
 50
245.0000000000003
 51
270.0
  0
ARC
  5
949D6
330
1F
100
AcDbEntity
  8
sk3
100
AcDbCircle
 10
35.82264426990008
 20
19.70000131789996
 30
0.0
 40
0.8
100
AcDbArc
 50
65.0000000000003
 51
90.0
  0
LINE
  5
949D7
330
1F
100
AcDbEntity
  8
sk3
100
AcDbLine
 10
0.9999998037999944
 20
-19.5499986799
 30
0.0
 11
0.0
 21
-20.5499984736
 31
0.0
  0
LINE
  5
949D8
330
1F
100
AcDbEntity
  8
sk3
100
AcDbLine
 10
0.9999998037999944
 20
-7.937498682099999
 30
0.0
 11
0.9999998037999944
 21
-19.5499986799
 31
0.0
  0
LINE
  5
949D9
330
1F
100
AcDbEntity
  8
sk3
100
AcDbLine
 10
8.000000000000056
 20
-7.937498682099999
 30
0.0
 11
8.000000000000056
 21
-19.5499986799
 31
0.0
  0
LINE
  5
949DA
102
{ACAD_REACTORS
330
949F8
102
}
330
1F
100
AcDbEntity
  8
sk3
100
AcDbLine
 10
8.000000000000056
 20
-19.0499986799
 30
0.0
 11
25.89046496530006
 21
-19.0499986799
 31
0.0
  0
LINE
  5
949DB
330
1F
100
AcDbEntity
  8
sk3
100
AcDbLine
 10
39.28689076480003
 20
-19.0499986799
 30
0.0
 11
41.00000019079999
 21
-19.0499986799
 31
0.0
  0
LINE
  5
949DC
330
1F
100
AcDbEntity
  8
sk3
100
AcDbLine
 10
0.9999998037999944
 20
-19.5499986799
 30
0.0
 11
8.000000000000056
 21
-19.5499986799
 31
0.0
  0
LINE
  5
949DD
330
1F
100
AcDbEntity
  8
sk3
100
AcDbLine
 10
29.17735573010003
 20
-20.49999867990002
 30
0.0
 11
35.82264426990008
 21
-20.49999867990002
 31
0.0
  0
LINE
  5
949DE
330
1F
100
AcDbEntity
  8
sk3
100
AcDbLine
 10
36.16073887930006
 20
-20.4250449095
 30
0.0
 11
38.94879615550005
 21
-19.1249524502
 31
0.0
  0
LINE
  5
949DF
330
1F
100
AcDbEntity
  8
sk3
100
AcDbLine
 10
43.00000000000006
 20
-27.99999867989999
 30
0.0
 11
55.71384718520002
 21
-27.99999867989999
 31
0.0
  0
LINE
  5
949E0
330
1F
100
AcDbEntity
  8
sk3
100
AcDbLine
 10
25.89046496530006
 20
-19.0499986799
 30
0.0
 11
25.89046496530006
 21
0.0000013189999777
 31
0.0
  0
LINE
  5
949E1
330
1F
100
AcDbEntity
  8
sk3
100
AcDbLine
 10
41.00000019079999
 20
-19.0499986799
 30
0.0
 11
41.00000019079999
 21
0.0000013189999777
 31
0.0
  0
LINE
  5
949E2
330
1F
100
AcDbEntity
  8
sk3
100
AcDbLine
 10
42.00000000000005
 20
0.0000013189999777
 30
0.0
 11
42.00000000000005
 21
-26.99999867990002
 31
0.0
  0
LINE
  5
949E3
330
1F
100
AcDbEntity
  8
sk3
100
AcDbLine
 10
57.15507220040006
 20
-59.57917590249997
 30
0.0
 11
61.56677218019996
 21
-66.78723694800004
 31
0.0
  0
LINE
  5
949E4
330
1F
100
AcDbEntity
  8
sk3
100
AcDbLine
 10
25.89046496530006
 20
-19.0499986799
 30
0.0
 11
28.8392611207
 21
-20.4250449095
 31
0.0
  0
LINE
  5
949E5
330
1F
100
AcDbEntity
  8
sk3
100
AcDbLine
 10
41.00000019079999
 20
-19.0499986799
 30
0.0
 11
42.00000000000005
 21
-20.04999847900001
 31
0.0
  0
LINE
  5
949E6
330
1F
100
AcDbEntity
  8
sk3
100
AcDbLine
 10
55.71384718520002
 20
-27.99999867989999
 30
0.0
 11
55.71384718520002
 21
0.0000013189999777
 31
0.0
  0
LINE
  5
949E7
330
1F
100
AcDbEntity
  8
sk3
100
AcDbLine
 10
56.71384718519999
 20
-58.01307546610003
 30
0.0
 11
56.71384718519999
 21
0.0000013189999777
 31
0.0
  0
LINE
  5
949E8
330
1F
100
AcDbEntity
  8
sk3
100
AcDbLine
 10
55.71384718520002
 20
-27.99999867989999
 30
0.0
 11
56.71384718519999
 21
-28.99999867989999
 31
0.0
  0
ARC
  5
949E9
330
1F
100
AcDbEntity
  8
sk3
100
AcDbCircle
 10
59.71384718519999
 20
-58.01307546610003
 30
0.0
 40
3.0
100
AcDbArc
 50
180.0
 51
211.4687523410996
  0
ARC
  5
949EA
330
1F
100
AcDbEntity
  8
sk3
100
AcDbCircle
 10
60.71384718520002
 20
-67.30927042679997
 30
0.0
 40
1.0
100
AcDbArc
 50
0.0
 51
31.46875234109963
  0
ARC
  5
949EB
102
{ACAD_REACTORS
330
949F4
102
}
330
1F
100
AcDbEntity
  8
sk3
100
AcDbCircle
 10
43.00000000000006
 20
-26.99999867990002
 30
0.0
 40
1.0
100
AcDbArc
 50
180.0
 51
270.0
  0
ARC
  5
949EC
330
1F
100
AcDbEntity
  8
sk3
100
AcDbCircle
 10
29.17735573010003
 20
-19.6999986799
 30
0.0
 40
0.8
100
AcDbArc
 50
245.0000000000003
 51
270.0
  0
ARC
  5
949ED
330
1F
100
AcDbEntity
  8
sk3
100
AcDbCircle
 10
39.28689076480003
 20
-19.84999867990001
 30
0.0
 40
0.8
100
AcDbArc
 50
90.0
 51
114.9999999999997
  0
ARC
  5
949EE
330
1F
100
AcDbEntity
  8
sk3
100
AcDbCircle
 10
35.82264426990008
 20
-19.6999986799
 30
0.0
 40
0.8
100
AcDbArc
 50
270.0
 51
294.9999999999997
  0
DIMENSION
  5
949EF
102
{ACAD_XDICTIONARY
360
949F0
102
}
102
{ACAD_REACTORS
330
949F1
102
}
330
1F
100
AcDbEntity
  8
2
100
AcDbDimension
  2
*D20444
 10
63.50000000000004
 20
109.9984637722732
 30
0.0
 11
31.75000000000002
 21
114.0484637722732
 31
0.0
 70
    32
 71
     5
 42
63.5
  3
コピー - ISO-25
100
AcDbAlignedDimension
 13
0.0
 23
46.4189999989
 33
0.0
 14
63.50000000000004
 24
75.39999999890191
 34
0.0
 50
0.0
100
AcDbRotatedDimension
1001
ACAD
1000
DSTYLE
1002
{
1070
   170
1070
     1
1070
   171
1070
     3
1070
   143
1040
0.0393700787401575
1070
   285
1070
     4
1070
     4
1000
"
1070
   271
1070
     8
1070
    40
1040
1.0
1002
}
1001
ACAD_DSTYLE_DIMINSPECT
1070
   393
1070
     0
1070
   394
1070
     0
1070
   395
1000

1070
   396
1000

  0
DIMENSION
  5
949F2
102
{ACAD_XDICTIONARY
360
949F3
102
}
102
{ACAD_REACTORS
330
949F4
102
}
330
1F
100
AcDbEntity
  8
sk2
100
AcDbDimension
  2
*D20555
 10
42.00000000000005
 20
-89.94251898993658
 30
0.0
 11
21.00000000000003
 21
-85.89251898993659
 31
0.0
 70
    32
 71
     5
 42
42.0
  3
コピー - ISO-25
100
AcDbAlignedDimension
 13
0.0
 23
-46.41899868210001
 33
0.0
 14
42.00000000000005
 24
-26.99999867990002
 34
0.0
 50
0.0
100
AcDbRotatedDimension
1001
ACAD
1000
DSTYLE
1002
{
1070
   170
1070
     1
1070
   171
1070
     3
1070
   143
1040
0.0393700787401575
1070
   285
1070
     4
1070
     4
1000
"
1070
   271
1070
     8
1070
    40
1040
1.0
1002
}
1001
ACAD_DSTYLE_DIMINSPECT
1070
   393
1070
     0
1070
   394
1070
     0
1070
   395
1000

1070
   396
1000

  0
DIMENSION
  5
949F5
330
1F
100
AcDbEntity
  8
sk2
100
AcDbDimension
  2
*D20666
 10
-19.55706845840898
 20
-48.41899868210001
 30
0.0
 11
-19.55706845840898
 21
-0.0832933704160439
 31
0.0
 70
   160
  1
%%C<>
 71
     5
 42
96.83799999999999
  3
コピー - ISO-25
100
AcDbAlignedDimension
 13
2.0
 23
48.41900131789998
 33
0.0
 14
2.0
 24
-48.41899868210001
 34
0.0
 50
90.0
100
AcDbRotatedDimension
1001
ACAD
1000
DSTYLE
1002
{
1070
   170
1070
     1
1070
   171
1070
     3
1070
   143
1040
0.0393700787401575
1070
   285
1070
     4
1070
     4
1000
%%c[]"
1070
   271
1070
     8
1070
    40
1040
1.0
1002
}
1001
ACAD_DSTYLE_DIMINSPECT
1070
   393
1070
     0
1070
   394
1070
     0
1070
   395
1000

1070
   396
1000

  0
DIMENSION
  5
949F6
102
{ACAD_XDICTIONARY
360
949F7
102
}
102
{ACAD_REACTORS
330
949F8
102
}
330
1F
100
AcDbEntity
  8
sk2
100
AcDbDimension
  2
*D20777
 10
-10.04004119204324
 20
-19.0499986799
 30
0.0
 11
-10.04004119204324
 21
-0.3632059370738716
 31
0.0
 70
   160
  1
%%C<>
 71
     5
 42
38.0999999978
  3
コピー - ISO-25
100
AcDbAlignedDimension
 13
8.000000000000056
 23
19.05000131789995
 33
0.0
 14
8.000000000000056
 24
-19.0499986799
 34
0.0
 50
90.0
100
AcDbRotatedDimension
1001
ACAD
1000
DSTYLE
1002
{
1070
   170
1070
     1
1070
   171
1070
     3
1070
   143
1040
0.0393700787401575
1070
   285
1070
     4
1070
     4
1000
%%c[]"
1070
   271
1070
     8
1070
    40
1040
1.0
1002
}
1001
ACAD_DSTYLE_DIMINSPECT
1070
   393
1070
     0
1070
   394
1070
     0
1070
   395
1000

1070
   396
1000

  0
DIMENSION
  5
949F9
330
1F
100
AcDbEntity
  8
2
100
AcDbDimension
  2
*D20888
 10
89.9067938670953
 20
-76.19999999889995
 30
0.0
 11
85.8567938670953
 21
-1.749999999999999
 31
0.0
 70
    32
  1
%%C<>
 71
     5
 42
152.3999999978
  3
コピー - ISO-25
100
AcDbAlignedDimension
 13
62.69999999999999
 23
76.19999999889995
 33
0.0
 14
62.69999999999999
 24
-76.19999999889995
 34
0.0
 50
90.0
100
AcDbRotatedDimension
1001
ACAD
1000
DSTYLE
1002
{
1070
   170
1070
     1
1070
   171
1070
     3
1070
   143
1040
0.0393700787401575
1070
   285
1070
     4
1070
     4
1000
%%c[]"
1070
   344
1005
87D73
1070
   271
1070
     8
1070
   173
1070
     1
1070
    40
1040
1.0
1070
    76
1070
     1
1002
}
1001
ACAD_DSTYLE_DIMINSPECT
1070
   393
1070
     0
1070
   394
1070
     0
1070
   395
1000

1070
   396
1000

  0
LINE
  5
949FC
330
1F
100
AcDbEntity
  8
1
100
AcDbLine
 10
52.0261806034
 20
-75.40000000109998
 30
0.0
 11
55.7125198393
 21
-75.40000000109998
 31
0.0
  0
LINE
  5
949FD
330
1F
100
AcDbEntity
  8
1
100
AcDbLine
 10
51.97382338399997
 20
-75.3995430866
 30
0.0
 11
52.0261806034
 21
-75.40000000109998
 31
0.0
  0
LINE
  5
949FE
330
1F
100
AcDbEntity
  8
1
100
AcDbLine
 10
40.1282872213
 20
-75.19277848379998
 30
0.0
 11
51.97382338399997
 21
-75.3995430866
 31
0.0
  0
LINE
  5
949FF
330
1F
100
AcDbEntity
  8
1
100
AcDbLine
 10
49.41963735340005
 20
72.3838990628
 30
0.0
 11
51.70358006450001
 21
73.69341637649998
 31
0.0
  0
LINE
  5
94A00
330
1F
100
AcDbEntity
  8
1
100
AcDbLine
 10
48.1105695479
 20
72.29644582760001
 30
0.0
 11
48.88334554480002
 21
72.58127102610004
 31
0.0
  0
LINE
  5
94A01
330
1F
100
AcDbEntity
  8
1
100
AcDbLine
 10
13.43987587009999
 20
-48.41900000109998
 30
0.0
 11
2.0
 21
-48.41900000109998
 31
0.0
  0
LINE
  5
94A02
330
1F
100
AcDbEntity
  8
1
100
AcDbLine
 10
37.72318830770001
 20
-73.9139647074
 30
0.0
 11
21.31282802739997
 21
-50.477541383
 31
0.0
  0
LINE
  5
94A03
330
1F
100
AcDbEntity
  8
1
100
AcDbLine
 10
0.0
 20
-46.4189986822
 30
0.0
 11
0.0
 21
-8.937500001099976
 31
0.0
  0
LINE
  5
94A04
330
1F
100
AcDbEntity
  8
1
100
AcDbLine
 10
0.0
 20
8.937499998900023
 30
0.0
 11
0.0
 21
46.4189986799
 31
0.0
  0
LINE
  5
94A05
330
1F
100
AcDbEntity
  8
1
100
AcDbLine
 10
37.72318830770001
 20
73.91396470510001
 30
0.0
 11
21.31282802739997
 21
50.4775413807
 31
0.0
  0
LINE
  5
94A06
330
1F
100
AcDbEntity
  8
1
100
AcDbLine
 10
9.525000000000034
 20
6.937499998900022
 30
0.0
 11
9.525000000000034
 21
-6.937500001099976
 31
0.0
  0
LINE
  5
94A07
330
1F
100
AcDbEntity
  8
1
100
AcDbLine
 10
0.0
 20
8.937499998900023
 30
0.0
 11
1.0
 21
7.937499998900022
 31
0.0
  0
LINE
  5
94A08
330
1F
100
AcDbEntity
  8
1
100
AcDbLine
 10
8.525000000000034
 20
7.937499998900022
 30
0.0
 11
9.525000000000034
 21
6.937499998900022
 31
0.0
  0
LINE
  5
94A09
330
1F
100
AcDbEntity
  8
1
100
AcDbLine
 10
1.0
 20
-7.937500001099976
 30
0.0
 11
0.0
 21
-8.937500001099976
 31
0.0
  0
LINE
  5
94A0A
330
1F
100
AcDbEntity
  8
1
100
AcDbLine
 10
1.0
 20
-7.937500001099976
 30
0.0
 11
8.525000000000034
 21
-7.937500001099976
 31
0.0
  0
LINE
  5
94A0B
330
1F
100
AcDbEntity
  8
1
100
AcDbLine
 10
9.525000000000034
 20
-6.937500001099976
 30
0.0
 11
8.525000000000034
 21
-7.937500001099976
 31
0.0
  0
LINE
  5
94A0C
330
1F
100
AcDbEntity
  8
1
100
AcDbLine
 10
1.0
 20
7.937499998900022
 30
0.0
 11
8.525000000000034
 21
7.937499998900022
 31
0.0
  0
LINE
  5
94A0D
330
1F
100
AcDbEntity
  8
1
100
AcDbLine
 10
47.8028667247
 20
72.51411031860001
 30
0.0
 11
47.68045842290002
 21
73.86564980310001
 31
0.0
  0
LINE
  5
94A0E
330
1F
100
AcDbEntity
  8
1
100
AcDbLine
 10
51.97382338399997
 20
75.27033321659999
 30
0.0
 11
51.97382338399997
 21
75.39954308430001
 31
0.0
  0
LINE
  5
94A0F
330
1F
100
AcDbEntity
  8
1
100
AcDbLine
 10
52.0261806034
 20
75.39999999890003
 30
0.0
 11
52.0261806034
 21
75.27005040780004
 31
0.0
  0
LINE
  5
94A10
330
1F
100
AcDbEntity
  8
1
100
AcDbLine
 10
55.7125198393
 20
75.26526259329997
 30
0.0
 11
55.7125198393
 21
75.39999999890003
 31
0.0
  0
LINE
  5
94A11
330
1F
100
AcDbEntity
  8
1
100
AcDbLine
 10
61.71251983930005
 20
63.60201642919999
 30
0.0
 11
61.71251983930005
 21
-69.39999964709999
 31
0.0
  0
LINE
  5
94A12
330
1F
100
AcDbEntity
  8
1
100
AcDbLine
 10
54.46322377410004
 20
75.25883526310001
 30
0.0
 11
54.46303080770002
 21
75.25975714040001
 31
0.0
  0
LINE
  5
94A13
330
1F
100
AcDbEntity
  8
1
100
AcDbLine
 10
47.94223451599996
 20
68.24411579309998
 30
0.0
 11
47.63923891709999
 21
68.81833626200003
 31
0.0
  0
LINE
  5
94A14
330
1F
100
AcDbEntity
  8
1
100
AcDbLine
 10
48.25728341689996
 20
68.5325309237
 30
0.0
 11
48.42128599170002
 21
68.2105372718
 31
0.0
  0
LINE
  5
94A15
330
1F
100
AcDbEntity
  8
1
100
AcDbLine
 10
13.43987587009999
 20
48.4189999989
 30
0.0
 11
2.0
 21
48.4189999989
 31
0.0
  0
LINE
  5
94A16
330
1F
100
AcDbEntity
  8
1
100
AcDbLine
 10
48.79853622779998
 20
72.21275469280001
 30
0.0
 11
49.41963735340005
 21
72.3838990628
 31
0.0
  0
LINE
  5
94A17
330
1F
100
AcDbEntity
  8
1
100
AcDbLine
 10
57.01638949690003
 20
66.63468004219999
 30
0.0
 11
56.82823826310004
 21
66.63468004219999
 31
0.0
  0
LINE
  5
94A18
330
1F
100
AcDbEntity
  8
1
100
AcDbLine
 10
55.29248318810005
 20
66.8090823647
 30
0.0
 11
55.25698905839999
 21
66.8090823647
 31
0.0
  0
LINE
  5
94A19
330
1F
100
AcDbEntity
  8
1
100
AcDbLine
 10
55.49541364430004
 20
66.90884960080001
 30
0.0
 11
55.6835648782
 21
66.90884960080001
 31
0.0
  0
LINE
  5
94A1A
330
1F
100
AcDbEntity
  8
1
100
AcDbLine
 10
57.64828768530003
 20
67.4375457992
 30
0.0
 11
57.83643891909999
 21
67.4375457992
 31
0.0
  0
LINE
  5
94A1B
330
1F
100
AcDbEntity
  8
1
100
AcDbLine
 10
58.02855209750004
 20
68.04864910559999
 30
0.0
 11
57.84040086360003
 21
68.04864910559999
 31
0.0
  0
LINE
  5
94A1C
330
1F
100
AcDbEntity
  8
1
100
AcDbLine
 10
57.85693581270004
 20
67.43737388669997
 30
0.0
 11
57.83643892939999
 21
67.43753127160002
 31
0.0
  0
LINE
  5
94A1D
330
1F
100
AcDbEntity
  8
1
100
AcDbLine
 10
48.25728341689996
 20
68.5325309237
 30
0.0
 11
47.8957389505
 21
68.6184327771
 31
0.0
  0
LINE
  5
94A1E
330
1F
100
AcDbEntity
  8
1
100
AcDbLine
 10
42.71327144749998
 20
68.60704890829999
 30
0.0
 11
36.84895197820003
 21
70.75238645359998
 31
0.0
  0
LINE
  5
94A1F
330
1F
100
AcDbEntity
  8
1
100
AcDbLine
 10
48.050106105
 20
69.10928369690001
 30
0.0
 11
47.20445361140003
 21
69.10928369690001
 31
0.0
  0
LINE
  5
94A20
330
1F
100
AcDbEntity
  8
1
100
AcDbLine
 10
48.02695932490003
 20
69.15559563539997
 30
0.0
 11
47.15407280029999
 21
69.15559563539997
 31
0.0
  0
LINE
  5
94A21
330
1F
100
AcDbEntity
  8
1
100
AcDbLine
 10
57.75451671630003
 20
69.17686022200005
 30
0.0
 11
57.56636548239999
 21
69.17686022200005
 31
0.0
  0
LINE
  5
94A22
330
1F
100
AcDbEntity
  8
1
100
AcDbLine
 10
56.73757546540002
 20
69.53725325550002
 30
0.0
 11
56.92572669920003
 21
69.53725325550002
 31
0.0
  0
LINE
  5
94A23
330
1F
100
AcDbEntity
  8
1
100
AcDbLine
 10
56.20808364509996
 20
69.96249721440003
 30
0.0
 11
56.01993241130003
 21
69.96249721440003
 31
0.0
  0
LINE
  5
94A24
330
1F
100
AcDbEntity
  8
1
100
AcDbLine
 10
46.56137742349996
 20
70.29611454149996
 30
0.0
 11
47.45811362660004
 21
70.29611454149996
 31
0.0
  0
LINE
  5
94A25
330
1F
100
AcDbEntity
  8
1
100
AcDbLine
 10
46.82438668609999
 20
71.34973092410004
 30
0.0
 11
47.75193733840001
 21
71.34973092410004
 31
0.0
  0
LINE
  5
94A26
330
1F
100
AcDbEntity
  8
1
100
AcDbLine
 10
48.82689998150002
 20
71.99764647590005
 30
0.0
 11
47.93357694989999
 21
71.99764647590005
 31
0.0
  0
LINE
  5
94A27
330
1F
100
AcDbEntity
  8
1
100
AcDbLine
 10
48.87075573509996
 20
72.02354168299997
 30
0.0
 11
47.9799793793
 21
72.02354168299997
 31
0.0
  0
LINE
  5
94A28
330
1F
100
AcDbEntity
  8
1
100
AcDbLine
 10
54.75235576470004
 20
69.00872896960001
 30
0.0
 11
54.77285264799998
 21
69.00857158480002
 31
0.0
  0
LINE
  5
94A29
330
1F
100
AcDbEntity
  8
1
100
AcDbLine
 10
48.79853622779998
 20
72.21275469280001
 30
0.0
 11
48.1105695479
 21
72.29644582760001
 31
0.0
  0
LINE
  5
94A2A
330
1F
100
AcDbEntity
  8
1
100
AcDbLine
 10
48.88334554480002
 20
72.58127102610004
 30
0.0
 11
49.18336058489998
 21
72.50088103930003
 31
0.0
  0
LINE
  5
94A2B
330
1F
100
AcDbEntity
  8
1
100
AcDbLine
 10
40.1282872213
 20
75.19277848149997
 30
0.0
 11
51.97382338399997
 21
75.39954308430001
 31
0.0
  0
LINE
  5
94A2C
330
1F
100
AcDbEntity
  8
1
100
AcDbLine
 10
51.97382338399997
 20
75.39954308430001
 30
0.0
 11
52.0261806034
 21
75.39999999890003
 31
0.0
  0
LINE
  5
94A2D
330
1F
100
AcDbEntity
  8
1
100
AcDbLine
 10
54.20370150989999
 20
75.0721357253
 30
0.0
 11
53.65113982770004
 21
75.0721357253
 31
0.0
  0
LINE
  5
94A2E
330
1F
100
AcDbEntity
  8
1
100
AcDbLine
 10
54.93289723000003
 20
75.25883526310001
 30
0.0
 11
54.38158913950005
 21
75.25883526310001
 31
0.0
  0
LINE
  5
94A2F
330
1F
100
AcDbEntity
  8
1
100
AcDbLine
 10
52.0261806034
 20
75.39999999890003
 30
0.0
 11
55.7125198393
 21
75.39999999890003
 31
0.0
  0
LINE
  5
94A30
330
1F
100
AcDbEntity
  8
1
100
AcDbLine
 10
54.9716648993
 20
75.25836004530003
 30
0.0
 11
54.93289623869998
 21
75.25883526310001
 31
0.0
  0
ARC
  5
94A31
330
1F
100
AcDbEntity
  8
1
100
AcDbCircle
 10
16.39791576160002
 20
-53.91900000109998
 30
0.0
 40
6.0
100
AcDbArc
 50
35.00000000000046
 51
109.1881364537007
  0
ARC
  5
94A32
330
1F
100
AcDbEntity
  8
1
100
AcDbCircle
 10
16.39791576160002
 20
53.9189999989
 30
0.0
 40
6.0
100
AcDbArc
 50
250.8118635462993
 51
324.9999999999996
  0
ARC
  5
94A33
330
1F
100
AcDbEntity
  8
1
100
AcDbCircle
 10
55.7125198393
 20
69.39999999890003
 30
0.0
 40
6.0
100
AcDbArc
 50
75.27645335929998
 51
90.0
  0
ARC
  5
94A34
330
1F
100
AcDbEntity
  8
1
100
AcDbCircle
 10
55.7125198393
 20
-69.40000000109998
 30
0.0
 40
6.0
100
AcDbArc
 50
270.0
 51
0.0
  0
ARC
  5
94A35
330
1F
100
AcDbEntity
  8
1
100
AcDbCircle
 10
13.43987587009999
 20
45.4189999989
 30
0.0
 40
3.0
100
AcDbArc
 50
70.81186354629932
 51
90.0
  0
ARC
  5
94A36
330
1F
100
AcDbEntity
  8
1
100
AcDbCircle
 10
13.43987587009999
 20
-45.4190000011
 30
0.0
 40
3.0
100
AcDbArc
 50
270.0
 51
289.1881364537007
  0
ARC
  5
94A37
330
1F
100
AcDbEntity
  8
1
100
AcDbCircle
 10
40.18064444060001
 20
72.19323539600002
 30
0.0
 40
3.0
100
AcDbArc
 50
91.00000000000015
 51
144.9999999999995
  0
ARC
  5
94A38
330
1F
100
AcDbEntity
  8
1
100
AcDbCircle
 10
40.18064444060001
 20
-72.1932353983
 30
0.0
 40
3.0
100
AcDbArc
 50
215.0000000000005
 51
268.9999999999998
  0
ARC
  5
94A39
330
1F
100
AcDbEntity
  8
1
100
AcDbCircle
 10
2.0
 20
46.4189999989
 30
0.0
 40
2.0
100
AcDbArc
 50
90.0
 51
180.0
  0
ARC
  5
94A3A
330
1F
100
AcDbEntity
  8
1
100
AcDbCircle
 10
2.0
 20
-46.41900000109997
 30
0.0
 40
2.0
100
AcDbArc
 50
180.0
 51
270.0
  0
SPLINE
  5
94A3B
330
1F
100
AcDbEntity
  8
1
100
AcDbSpline
210
0.0
220
0.0
230
1.0
 70
     8
 71
     3
 72
    15
 73
    11
 74
     0
 42
0.000000001
 43
0.0000000001
 40
0.0
 40
0.0
 40
0.0
 40
0.0
 40
0.1246305665
 40
0.2493700091
 40
0.3743251949
 40
0.4994836687000002
 40
0.6247562826
 40
0.7500074488
 40
0.8751045387999999
 40
1.0
 40
1.0
 40
1.0
 40
1.0
 10
54.75235576340003
 20
69.0087406204
 30
0.0
 10
54.7170653375
 20
69.008736707
 30
0.0
 10
54.64592027770001
 20
68.99708269859999
 30
0.0
 10
54.55074785119998
 20
68.94646129650002
 30
0.0
 10
54.47647426500004
 20
68.8680135475
 30
0.0
 10
54.43092517739998
 20
68.7699200941
 30
0.0
 10
54.4187746452
 20
68.66237369219999
 30
0.0
 10
54.44129814610003
 20
68.55651008059999
 30
0.0
 10
54.49606412470001
 20
68.46338182590002
 30
0.0
 10
54.55063992180001
 20
68.41602067050001
 30
0.0
 10
54.58073947989999
 20
68.39745375070001
 30
0.0
  0
SPLINE
  5
94A3C
330
1F
100
AcDbEntity
  8
1
100
AcDbSpline
210
0.0
220
0.0
230
1.0
 70
     8
 71
     3
 72
    11
 73
     7
 74
     0
 42
0.000000001
 43
0.0000000001
 40
0.0
 40
0.0
 40
0.0
 40
0.0
 40
0.2502983904
 40
0.5003481857
 40
0.7502227473000001
 40
1.0
 40
1.0
 40
1.0
 40
1.0
 10
53.82092358990004
 20
70.71625772759998
 30
0.0
 10
53.97829333930002
 20
70.86760278599998
 30
0.0
 10
54.32267852860002
 20
71.1408018379
 30
0.0
 10
54.90683158029998
 20
71.44430022629999
 30
0.0
 10
55.5376101484
 20
71.63105188220001
 30
0.0
 10
55.97460112739998
 20
71.67304682530001
 30
0.0
 10
56.19248243649995
 20
71.67305060160001
 30
0.0
  0
SPLINE
  5
94A3D
330
1F
100
AcDbEntity
  8
1
100
AcDbSpline
210
0.0
220
0.0
230
1.0
 70
     8
 71
     3
 72
    11
 73
     7
 74
     0
 42
0.000000001
 43
0.0000000001
 40
0.0
 40
0.0
 40
0.0
 40
0.0
 40
0.2504836727
 40
0.5005899762000002
 40
0.7503868749000004
 40
1.0
 40
1.0
 40
1.0
 40
1.0
 10
56.4012079323
 20
66.48360564189999
 30
0.0
 10
56.3660611289
 20
66.5474206705
 30
0.0
 10
56.27840341700004
 20
66.66620423610003
 30
0.0
 10
56.10511717130004
 20
66.80298548100001
 30
0.0
 10
55.90216020630004
 20
66.88922530549999
 30
0.0
 10
55.75616533799998
 20
66.9088527153
 30
0.0
 10
55.68356487940002
 20
66.90884889169999
 30
0.0
  0
SPLINE
  5
94A3E
330
1F
100
AcDbEntity
  8
1
100
AcDbSpline
210
0.0
220
0.0
230
1.0
 70
     8
 71
     3
 72
    11
 73
     7
 74
     0
 42
0.000000001
 43
0.0000000001
 40
0.0
 40
0.0
 40
0.0
 40
0.0
 40
0.2504910758999999
 40
0.5005861113000001
 40
0.7503875397
 40
1.0
 40
1.0
 40
1.0
 40
1.0
 10
56.4012079323
 20
66.48360564189999
 30
0.0
 10
56.41526943040003
 20
66.4580745888
 30
0.0
 10
56.45033686449998
 20
66.41055186410003
 30
0.0
 10
56.5196672148
 20
66.35583640159999
 30
0.0
 10
56.60086030070003
 20
66.321328201
 30
0.0
 10
56.6592689766
 20
66.3134813378
 30
0.0
 10
56.68831396000001
 20
66.31347941620001
 30
0.0
  0
SPLINE
  5
94A3F
330
1F
100
AcDbEntity
  8
1
100
AcDbSpline
210
0.0
220
0.0
230
1.0
 70
     8
 71
     3
 72
    15
 73
    11
 74
     0
 42
0.000000001
 43
0.0000000001
 40
0.0
 40
0.0
 40
0.0
 40
0.0
 40
0.1250790088
 40
0.250188948
 40
0.3753334324
 40
0.5004542902
 40
0.6255090564
 40
0.750464513
 40
0.8752925298999999
 40
1.0
 40
1.0
 40
1.0
 40
1.0
 10
54.88149426170003
 20
67.31751310860002
 30
0.0
 10
54.9048171752
 20
67.36318154660001
 30
0.0
 10
54.94305130810005
 20
67.45911624020002
 30
0.0
 10
54.97271340810004
 20
67.61097136690001
 30
0.0
 10
54.97383957919999
 20
67.76575971809997
 30
0.0
 10
54.94633857180001
 20
67.91805555930003
 30
0.0
 10
54.89118851850003
 20
68.0625725626
 30
0.0
 10
54.81027885790002
 20
68.19428336360002
 30
0.0
 10
54.70648783270002
 20
68.3085730462
 30
0.0
 10
54.62425368800001
 20
68.37061200079998
 30
0.0
 10
54.58073947989999
 20
68.39745375070001
 30
0.0
  0
SPLINE
  5
94A40
330
1F
100
AcDbEntity
  8
1
100
AcDbSpline
210
0.0
220
0.0
230
1.0
 70
     8
 71
     3
 72
    15
 73
    11
 74
     0
 42
0.000000001
 43
0.0000000001
 40
0.0
 40
0.0
 40
0.0
 40
0.0
 40
0.1246845317
 40
0.2493948235
 40
0.3742056899
 40
0.4991351376
 40
0.6241962371000001
 40
0.7493826309000001
 40
0.8746592692
 40
1.0
 40
1.0
 40
1.0
 40
1.0
 10
54.77285264899999
 20
69.00855759739997
 30
0.0
 10
54.82555974810003
 20
69.0085610729
 30
0.0
 10
54.93127072900001
 20
69.01883502349996
 30
0.0
 10
55.08370333020002
 20
69.06452964680003
 30
0.0
 10
55.2246374074
 20
69.13877002250004
 30
0.0
 10
55.34876349790001
 20
69.23881472119998
 30
0.0
 10
55.45149928669999
 20
69.36092583000001
 30
0.0
 10
55.52902223410001
 20
69.50058998149997
 30
0.0
 10
55.57847208370002
 20
69.65254190039999
 30
0.0
 10
55.59149703970001
 20
69.75845695680002
 30
0.0
 10
55.59290208050004
 20
69.81142281419997
 30
0.0
  0
SPLINE
  5
94A41
330
1F
100
AcDbEntity
  8
1
100
AcDbSpline
210
0.0
220
0.0
230
1.0
 70
     8
 71
     3
 72
    11
 73
     7
 74
     0
 42
0.000000001
 43
0.0000000001
 40
0.0
 40
0.0
 40
0.0
 40
0.0
 40
0.2496718199
 40
0.4996199093
 40
0.7497700948000002
 40
1.0
 40
1.0
 40
1.0
 40
1.0
 10
53.82092358990004
 20
70.71625772759998
 30
0.0
 10
53.63484442989999
 20
70.53730236010003
 30
0.0
 10
53.30179174040001
 20
70.13563479280001
 30
0.0
 10
52.94996478720003
 20
69.43769190290002
 30
0.0
 10
52.76189725100002
 20
68.6784685421
 30
0.0
 10
52.75239481639999
 20
68.15602439379997
 30
0.0
 10
52.77660614759996
 20
67.89841502649998
 30
0.0
  0
SPLINE
  5
94A42
330
1F
100
AcDbEntity
  8
1
100
AcDbSpline
210
0.0
220
0.0
230
1.0
 70
     8
 71
     3
 72
    11
 73
     7
 74
     0
 42
0.000000001
 43
0.0000000001
 40
0.0
 40
0.0
 40
0.0
 40
0.0
 40
0.2493756841
 40
0.4991113652000001
 40
0.7493606756000001
 40
1.0
 40
1.0
 40
1.0
 40
1.0
 10
55.9209776175
 20
70.13262344009999
 30
0.0
 10
55.8789999831
 20
70.1326262173
 30
0.0
 10
55.79408863979999
 20
70.11600214559999
 30
0.0
 10
55.68620235420002
 20
70.04487514219997
 30
0.0
 10
55.61273835000003
 20
69.93833316029999
 30
0.0
 10
55.59402088250005
 20
69.85359832150003
 30
0.0
 10
55.59290208050004
 20
69.81142281419997
 30
0.0
  0
SPLINE
  5
94A43
330
1F
100
AcDbEntity
  8
1
100
AcDbSpline
210
0.0
220
0.0
230
1.0
 70
     8
 71
     3
 72
     9
 73
     5
 74
     0
 42
0.000000001
 43
0.0000000001
 40
0.0
 40
0.0
 40
0.0
 40
0.0
 40
0.4998188327000002
 40
1.0
 40
1.0
 40
1.0
 40
1.0
 10
56.92572669810004
 20
69.53725396460001
 30
0.0
 10
56.99349741590004
 20
69.53725753390003
 30
0.0
 10
57.12962390290005
 20
69.55428387420003
 30
0.0
 10
57.25726608770003
 20
69.60455133730002
 30
0.0
 10
57.3168083893
 20
69.6370204916
 30
0.0
  0
SPLINE
  5
94A44
330
1F
100
AcDbEntity
  8
1
100
AcDbSpline
210
0.0
220
0.0
230
1.0
 70
     8
 71
     3
 72
     9
 73
     5
 74
     0
 42
0.000000001
 43
0.0000000001
 40
0.0
 40
0.0
 40
0.0
 40
0.0
 40
0.4998091450000003
 40
1.0
 40
1.0
 40
1.0
 40
1.0
 10
57.47326765489997
 20
69.67693210280001
 30
0.0
 10
57.4461553014
 20
69.67693463690003
 30
0.0
 10
57.39169497979999
 20
69.67012075459999
 30
0.0
 10
57.3406298057
 20
69.65001060490003
 30
0.0
 10
57.3168083893
 20
69.6370204916
 30
0.0
  0
SPLINE
  5
94A45
330
1F
100
AcDbEntity
  8
1
100
AcDbSpline
210
0.0
220
0.0
230
1.0
 70
     8
 71
     3
 72
    23
 73
    19
 74
     0
 42
0.000000001
 43
0.0000000001
 40
0.0
 40
0.0
 40
0.0
 40
0.0
 40
0.0622940591
 40
0.1246030484
 40
0.1869405645
 40
0.2493176904
 40
0.3117420216
 40
0.3742170024
 40
0.4367416303000002
 40
0.4993105513
 40
0.5619145343000001
 40
0.624541286
 40
0.6871765249
 40
0.7498052806000001
 40
0.8124129167999999
 40
0.8749876596
 40
0.9375170998999999
 40
1.0
 40
1.0
 40
1.0
 40
1.0
 10
56.26283440339999
 20
71.67305060160001
 30
0.0
 10
56.43269775049997
 20
71.67305354559997
 30
0.0
 10
56.77301157620003
 20
71.64758392200005
 30
0.0
 10
57.27176314810003
 20
71.53383483129997
 30
0.0
 10
57.74836306750001
 20
71.3470452355
 30
0.0
 10
58.19214689409999
 20
71.09134598390003
 30
0.0
 10
58.59336630579996
 20
70.7723849242
 30
0.0
 10
58.9431647153
 20
70.39720490399999
 30
0.0
 10
59.23383581689996
 20
69.9740860144
 30
0.0
 10
59.4589750139
 20
69.51236249309997
 30
0.0
 10
59.61362351480005
 20
69.02221659390002
 30
0.0
 10
59.69437579410004
 20
68.5144548463
 30
0.0
 10
59.69945656660001
 20
68.00027063820002
 30
0.0
 10
59.62875104680006
 20
67.49099614430003
 30
0.0
 10
59.48382709720005
 20
66.99786108269996
 30
0.0
 10
59.26783963510001
 20
66.5317187071
 30
0.0
 10
58.9856631931
 20
66.10293608219999
 30
0.0
 10
58.75719663279999
 20
65.8479471478
 30
0.0
 10
58.63439325000001
 20
65.72984512870002
 30
0.0
  0
SPLINE
  5
94A46
330
1F
100
AcDbEntity
  8
1
100
AcDbSpline
210
0.0
220
0.0
230
1.0
 70
     8
 71
     3
 72
     9
 73
     5
 74
     0
 42
0.000000001
 43
0.0000000001
 40
0.0
 40
0.0
 40
0.0
 40
0.0
 40
0.4997789973
 40
1.0
 40
1.0
 40
1.0
 40
1.0
 10
57.71649058920002
 20
65.09798921059999
 30
0.0
 10
57.8850437044
 20
65.1772597403
 30
0.0
 10
58.20987372099996
 20
65.36375566320001
 30
0.0
 10
58.50002179419997
 20
65.60061790499999
 30
0.0
 10
58.63439325000001
 20
65.72984512870002
 30
0.0
  0
SPLINE
  5
94A47
330
1F
100
AcDbEntity
  8
1
100
AcDbSpline
210
0.0
220
0.0
230
1.0
 70
     8
 71
     3
 72
    11
 73
     7
 74
     0
 42
0.000000001
 43
0.0000000001
 40
0.0
 40
0.0
 40
0.0
 40
0.0
 40
0.249671648
 40
0.4996200233
 40
0.7497704362000001
 40
1.0
 40
1.0
 40
1.0
 40
1.0
 10
53.8912755569
 20
70.71625772759998
 30
0.0
 10
53.70486852639999
 20
70.53698704180002
 30
0.0
 10
53.3712969229
 20
70.13453099020003
 30
0.0
 10
53.01925730899998
 20
69.43512698309999
 30
0.0
 10
52.83160704930003
 20
68.67435706640001
 30
0.0
 10
52.82281374659999
 20
68.15096117420001
 30
0.0
 10
52.84747736109999
 20
67.89293690300002
 30
0.0
  0
SPLINE
  5
94A48
330
1F
100
AcDbEntity
  8
1
100
AcDbSpline
210
0.0
220
0.0
230
1.0
 70
     8
 71
     3
 72
    11
 73
     7
 74
     0
 42
0.000000001
 43
0.0000000001
 40
0.0
 40
0.0
 40
0.0
 40
0.0
 40
0.2502983904
 40
0.5003481857
 40
0.7502227473000001
 40
1.0
 40
1.0
 40
1.0
 40
1.0
 10
53.8912755569
 20
70.71625772759998
 30
0.0
 10
54.04864530630003
 20
70.86760278599998
 30
0.0
 10
54.39303049560004
 20
71.14080183780001
 30
0.0
 10
54.97718354720001
 20
71.44430022629999
 30
0.0
 10
55.60796211540003
 20
71.63105188220001
 30
0.0
 10
56.0449530943
 20
71.67304682530001
 30
0.0
 10
56.26283440339999
 20
71.67305060160001
 30
0.0
  0
SPLINE
  5
94A49
330
1F
100
AcDbEntity
  8
1
100
AcDbSpline
210
0.0
220
0.0
230
1.0
 70
     8
 71
     3
 72
    11
 73
     7
 74
     0
 42
0.000000001
 43
0.0000000001
 40
0.0
 40
0.0
 40
0.0
 40
0.0
 40
0.2496674843
 40
0.4996320982000002
 40
0.7497946990000001
 40
1.0
 40
1.0
 40
1.0
 40
1.0
 10
54.68854252239998
 20
69.92205158149997
 30
0.0
 10
54.54899522599998
 20
69.7878466673
 30
0.0
 10
54.30212760170002
 20
69.4831595002
 30
0.0
 10
54.05584288220001
 20
68.95011481280002
 30
0.0
 10
53.94701596
 20
68.3726849508
 30
0.0
 10
53.97097566180002
 20
67.9807371855
 30
0.0
 10
54.00652416790001
 20
67.7899955348
 30
0.0
  0
SPLINE
  5
94A4A
330
1F
100
AcDbEntity
  8
1
100
AcDbSpline
210
0.0
220
0.0
230
1.0
 70
     8
 71
     3
 72
    11
 73
     7
 74
     0
 42
0.000000001
 43
0.0000000001
 40
0.0
 40
0.0
 40
0.0
 40
0.0
 40
0.2497798001
 40
0.4996514953000001
 40
0.7496965597000002
 40
1.0
 40
1.0
 40
1.0
 40
1.0
 10
56.24856635860004
 20
65.87272123599999
 30
0.0
 10
56.40164646919997
 20
65.8690285646
 30
0.0
 10
56.70945300470004
 20
65.89205889110002
 30
0.0
 10
57.15484165090003
 20
66.01667095430002
 30
0.0
 10
57.56744000220004
 20
66.22632173649998
 30
0.0
 10
57.8101501831
 20
66.41768653320004
 30
0.0
 10
57.92074905500001
 20
66.5240512748
 30
0.0
  0
SPLINE
  5
94A4B
330
1F
100
AcDbEntity
  8
1
100
AcDbSpline
210
0.0
220
0.0
230
1.0
 70
     8
 71
     3
 72
    15
 73
    11
 74
     0
 42
0.000000001
 43
0.0000000001
 40
0.0
 40
0.0
 40
0.0
 40
0.0
 40
0.1250241808
 40
0.2501243597
 40
0.3752706766
 40
0.5004031272000004
 40
0.6254744163
 40
0.75044638
 40
0.8752851408999998
 40
1.0
 40
1.0
 40
1.0
 40
1.0
 10
57.75451671630003
 20
69.17686022200005
 30
0.0
 10
57.7270316253
 20
69.1309063874
 30
0.0
 10
57.68089195509997
 20
69.0333404687
 30
0.0
 10
57.6413441239
 20
68.87656182050003
 30
0.0
 10
57.63275983220005
 20
68.71499537660003
 30
0.0
 10
57.65551859820003
 20
68.5548357439
 30
0.0
 10
57.70873331560006
 20
68.4021477932
 30
0.0
 10
57.79041737470004
 20
68.2627283665
 30
0.0
 10
57.89739656550003
 20
68.14190615180004
 30
0.0
 10
57.98309170489996
 20
68.07669136000001
 30
0.0
 10
58.02855209750004
 20
68.04864910559999
 30
0.0
  0
SPLINE
  5
94A4C
330
1F
100
AcDbEntity
  8
1
100
AcDbSpline
210
0.0
220
0.0
230
1.0
 70
     8
 71
     3
 72
     9
 73
     5
 74
     0
 42
0.000000001
 43
0.0000000001
 40
0.0
 40
0.0
 40
0.0
 40
0.0
 40
0.5005295117000001
 40
1.0
 40
1.0
 40
1.0
 40
1.0
 10
56.01993241130003
 20
69.96249721440003
 30
0.0
 10
55.99956520220001
 20
69.99947736350001
 30
0.0
 10
55.94404797250001
 20
70.06613017110002
 30
0.0
 10
55.86730160099996
 20
70.10661591179999
 30
0.0
 10
55.82696029300001
 20
70.11875672099996
 30
0.0
  0
SPLINE
  5
94A4D
330
1F
100
AcDbEntity
  8
1
100
AcDbSpline
210
0.0
220
0.0
230
1.0
 70
     8
 71
     3
 72
    11
 73
     7
 74
     0
 42
0.000000001
 43
0.0000000001
 40
0.0
 40
0.0
 40
0.0
 40
0.0
 40
0.2496150956
 40
0.4994126887000001
 40
0.7495120967
 40
1.0
 40
1.0
 40
1.0
 40
1.0
 10
56.73757546250001
 20
69.53725760239999
 30
0.0
 10
56.66497448730004
 20
69.53725584399997
 30
0.0
 10
56.51897702359999
 20
69.55687098690001
 30
0.0
 10
56.31602599349998
 20
69.64312347879999
 30
0.0
 10
56.14273586480003
 20
69.77989645850001
 30
0.0
 10
56.05507978079998
 20
69.89868115779998
 30
0.0
 10
56.01993241130003
 20
69.96249721440003
 30
0.0
  0
SPLINE
  5
94A4E
330
1F
100
AcDbEntity
  8
1
100
AcDbSpline
210
0.0
220
0.0
230
1.0
 70
     8
 71
     3
 72
    15
 73
    11
 74
     0
 42
0.000000001
 43
0.0000000001
 40
0.0
 40
0.0
 40
0.0
 40
0.0
 40
0.1250858911
 40
0.2502710454
 40
0.3754750696
 40
0.5006390143
 40
0.6256978395
 40
0.7506129931000001
 40
0.8753737465
 40
1.0
 40
1.0
 40
1.0
 40
1.0
 10
57.56636548239999
 20
69.17686022200005
 30
0.0
 10
57.57917857810006
 20
69.1982831412
 30
0.0
 10
57.60000867419996
 20
69.24423417289998
 30
0.0
 10
57.61492459549997
 20
69.31829094240001
 30
0.0
 10
57.61284833609999
 20
69.39385810240001
 30
0.0
 10
57.59386829320003
 20
69.46699823360003
 30
0.0
 10
57.5589638907
 20
69.53395339559998
 30
0.0
 10
57.50991829330001
 20
69.59127070939999
 30
0.0
 10
57.44930424560004
 20
69.63597611230003
 30
0.0
 10
57.40312662779999
 20
69.65587118480002
 30
0.0
 10
57.37931392000001
 20
69.66304759520003
 30
0.0
  0
SPLINE
  5
94A4F
330
1F
100
AcDbEntity
  8
1
100
AcDbSpline
210
0.0
220
0.0
230
1.0
 70
     8
 71
     3
 72
    15
 73
    11
 74
     0
 42
0.000000001
 43
0.0000000001
 40
0.0
 40
0.0
 40
0.0
 40
0.0
 40
0.1247111314
 40
0.2495548737
 40
0.374525148
 40
0.4995968698
 40
0.6247297566
 40
0.7498743796
 40
0.8749795562999999
 40
1.0
 40
1.0
 40
1.0
 40
1.0
 10
57.84040086360003
 20
68.04864910559999
 30
0.0
 10
57.79494177829997
 20
68.07669055360003
 30
0.0
 10
57.70924723259996
 20
68.14190675919999
 30
0.0
 10
57.60226410820003
 20
68.26272568300002
 30
0.0
 10
57.520581397
 20
68.40214805730004
 30
0.0
 10
57.46736446970004
 20
68.55483503629997
 30
0.0
 10
57.44460811189997
 20
68.7149948192
 30
0.0
 10
57.45318985729999
 20
68.87656326770005
 30
0.0
 10
57.49274268580001
 20
69.03334080509996
 30
0.0
 10
57.5388811818
 20
69.13090770890002
 30
0.0
 10
57.56636548239999
 20
69.17686022200005
 30
0.0
  0
SPLINE
  5
94A50
330
1F
100
AcDbEntity
  8
1
100
AcDbSpline
210
0.0
220
0.0
230
1.0
 70
     8
 71
     3
 72
    15
 73
    11
 74
     0
 42
0.000000001
 43
0.0000000001
 40
0.0
 40
0.0
 40
0.0
 40
0.0
 40
0.1251692125
 40
0.2504155246
 40
0.3756782378
 40
0.5008525317000001
 40
0.6258739214000001
 40
0.7507162503
 40
0.8754019323999997
 40
1.0
 40
1.0
 40
1.0
 40
1.0
 10
57.75451671630003
 20
69.17686022200005
 30
0.0
 10
57.76936928160001
 20
69.20169304250001
 30
0.0
 10
57.79263028399999
 20
69.25556702119999
 30
0.0
 10
57.80525360549997
 20
69.34245933870002
 30
0.0
 10
57.79492721729999
 20
69.42971118120003
 30
0.0
 10
57.7623065194
 20
69.51122599059996
 30
0.0
 10
57.70966131009998
 20
69.5813751817
 30
0.0
 10
57.64060115279999
 20
69.63528469429999
 30
0.0
 10
57.55998923689997
 20
69.66921401189998
 30
0.0
 10
57.50207120020002
 20
69.67692941070001
 30
0.0
 10
57.47326765489997
 20
69.67693210280001
 30
0.0
  0
SPLINE
  5
94A51
330
1F
100
AcDbEntity
  8
1
100
AcDbSpline
210
0.0
220
0.0
230
1.0
 70
     8
 71
     3
 72
    15
 73
    11
 74
     0
 42
0.000000001
 43
0.0000000001
 40
0.0
 40
0.0
 40
0.0
 40
0.0
 40
0.1253361748
 40
0.2506180117
 40
0.3758018747
 40
0.5008631644000002
 40
0.625792359
 40
0.7506019344000002
 40
0.8753141234
 40
1.0
 40
1.0
 40
1.0
 40
1.0
 10
56.82823826310004
 20
66.63468004219999
 30
0.0
 10
56.82964325440003
 20
66.68764403579999
 30
0.0
 10
56.84266989130001
 20
66.7935589841
 30
0.0
 10
56.89211426220004
 20
66.94551219990001
 30
0.0
 10
56.96964044550004
 20
67.08517625399998
 30
0.0
 10
57.07237329649998
 20
67.20728848450002
 30
0.0
 10
57.19649994420001
 20
67.30733203799999
 30
0.0
 10
57.3374333296
 20
67.38157421759999
 30
0.0
 10
57.48986764810005
 20
67.42726778770003
 30
0.0
 10
57.59557997779999
 20
67.43754053009999
 30
0.0
 10
57.6482877066
 20
67.43754509899999
 30
0.0
  0
SPLINE
  5
94A52
330
1F
100
AcDbEntity
  8
1
100
AcDbSpline
210
0.0
220
0.0
230
1.0
 70
     8
 71
     3
 72
    11
 73
     7
 74
     0
 42
0.000000001
 43
0.0000000001
 40
0.0
 40
0.0
 40
0.0
 40
0.0
 40
0.2504836727
 40
0.5005899762000002
 40
0.7503868749000004
 40
1.0
 40
1.0
 40
1.0
 40
1.0
 10
56.20808364509996
 20
69.96249721440003
 30
0.0
 10
56.24323044849997
 20
69.89868218579997
 30
0.0
 10
56.33088816050002
 20
69.77989862020004
 30
0.0
 10
56.5041744062
 20
69.6431173754
 30
0.0
 10
56.70713137110005
 20
69.5568775509
 30
0.0
 10
56.85312623939998
 20
69.53725014110003
 30
0.0
 10
56.92572669810004
 20
69.53725396460001
 30
0.0
  0
SPLINE
  5
94A53
330
1F
100
AcDbEntity
  8
1
100
AcDbSpline
210
0.0
220
0.0
230
1.0
 70
     8
 71
     3
 72
     9
 73
     5
 74
     0
 42
0.000000001
 43
0.0000000001
 40
0.0
 40
0.0
 40
0.0
 40
0.0
 40
0.5001470981000004
 40
1.0
 40
1.0
 40
1.0
 40
1.0
 10
55.21572428299997
 20
66.85942240009999
 30
0.0
 10
55.26037832750001
 20
66.87571264129999
 30
0.0
 10
55.35268849890002
 20
66.90051821860001
 30
0.0
 10
55.447908927
 20
66.90884410340001
 30
0.0
 10
55.49541364720005
 20
66.908845254
 30
0.0
  0
SPLINE
  5
94A54
330
1F
100
AcDbEntity
  8
1
100
AcDbSpline
210
0.0
220
0.0
230
1.0
 70
     8
 71
     3
 72
    15
 73
    11
 74
     0
 42
0.000000001
 43
0.0000000001
 40
0.0
 40
0.0
 40
0.0
 40
0.0
 40
0.1246305665
 40
0.2493700091
 40
0.3743251949
 40
0.4994836687000002
 40
0.6247562826
 40
0.7500074488
 40
0.8751045387999999
 40
1.0
 40
1.0
 40
1.0
 40
1.0
 10
57.85693581399996
 20
67.43736223590002
 30
0.0
 10
57.89222624
 20
67.43736614930003
 30
0.0
 10
57.96337129979999
 20
67.44902015770003
 30
0.0
 10
58.05854372619998
 20
67.49964155980001
 30
0.0
 10
58.13281731240003
 20
67.57808930890002
 30
0.0
 10
58.17836640009996
 20
67.6761827622
 30
0.0
 10
58.19051693220001
 20
67.7837291642
 30
0.0
 10
58.16799343130004
 20
67.88959277569998
 30
0.0
 10
58.1132274527
 20
67.9827210304
 30
0.0
 10
58.0586516556
 20
68.03008218579998
 30
0.0
 10
58.02855209750004
 20
68.04864910559999
 30
0.0
  0
SPLINE
  5
94A55
330
1F
100
AcDbEntity
  8
1
100
AcDbSpline
210
0.0
220
0.0
230
1.0
 70
     8
 71
     3
 72
    15
 73
    11
 74
     0
 42
0.000000001
 43
0.0000000001
 40
0.0
 40
0.0
 40
0.0
 40
0.0
 40
0.124644353
 40
0.2493842956
 40
0.374343246
 40
0.4995026794000001
 40
0.6247722564
 40
0.750018888
 40
0.8751066379999999
 40
1.0
 40
1.0
 40
1.0
 40
1.0
 10
57.6740416195
 20
67.43740555849999
 30
0.0
 10
57.70911565580003
 20
67.43797769399998
 30
0.0
 10
57.77962979290004
 20
67.45061976669997
 30
0.0
 10
57.87353695820002
 20
67.50216061539998
 30
0.0
 10
57.94648168390001
 20
67.58091848879999
 30
0.0
 10
57.99085695259996
 20
67.6787978631
 30
0.0
 10
58.00219516579996
 20
67.7857431891
 30
0.0
 10
57.97927995710002
 20
67.89081806430002
 30
0.0
 10
57.92459094220004
 20
67.98319308419999
 30
0.0
 10
57.87031602839999
 20
68.0301959289
 30
0.0
 10
57.84040086360003
 20
68.04864910559999
 30
0.0
  0
SPLINE
  5
94A56
330
1F
100
AcDbEntity
  8
1
100
AcDbSpline
210
0.0
220
0.0
230
1.0
 70
     8
 71
     3
 72
    15
 73
    11
 74
     0
 42
0.000000001
 43
0.0000000001
 40
0.0
 40
0.0
 40
0.0
 40
0.0
 40
0.1246845317
 40
0.2493948235
 40
0.3742056899
 40
0.4991351376
 40
0.6241962371000001
 40
0.7493826309000001
 40
0.8746592692
 40
1.0
 40
1.0
 40
1.0
 40
1.0
 10
57.8364389285
 20
67.43754525899999
 30
0.0
 10
57.78373182939997
 20
67.43754178349999
 30
0.0
 10
57.67802084849996
 20
67.42726783289999
 30
0.0
 10
57.52558824729999
 20
67.38157320960002
 30
0.0
 10
57.38465417010002
 20
67.30733283379999
 30
0.0
 10
57.26052807950003
 20
67.20728813520003
 30
0.0
 10
57.15779229069999
 20
67.08517702629999
 30
0.0
 10
57.08026934330002
 20
66.9455128749
 30
0.0
 10
57.03081949380004
 20
66.79356095590001
 30
0.0
 10
57.0177945378
 20
66.6876458996
 30
0.0
 10
57.01638949690003
 20
66.63468004219999
 30
0.0
  0
SPLINE
  5
94A57
330
1F
100
AcDbEntity
  8
1
100
AcDbSpline
210
0.0
220
0.0
230
1.0
 70
     8
 71
     3
 72
    11
 73
     7
 74
     0
 42
0.000000001
 43
0.0000000001
 40
0.0
 40
0.0
 40
0.0
 40
0.0
 40
0.2504910758999999
 40
0.5005861113000001
 40
0.7503875397
 40
1.0
 40
1.0
 40
1.0
 40
1.0
 10
56.20808364509996
 20
69.96249721440003
 30
0.0
 10
56.1940221471
 20
69.98802826750003
 30
0.0
 10
56.15895471300001
 20
70.03555099219996
 30
0.0
 10
56.08962436270002
 20
70.09026645470001
 30
0.0
 10
56.00843127680002
 20
70.1247746553
 30
0.0
 10
55.95002260080002
 20
70.13262151860002
 30
0.0
 10
55.9209776175
 20
70.13262344009999
 30
0.0
  0
SPLINE
  5
94A58
330
1F
100
AcDbEntity
  8
1
100
AcDbSpline
210
0.0
220
0.0
230
1.0
 70
     8
 71
     3
 72
    11
 73
     7
 74
     0
 42
0.000000001
 43
0.0000000001
 40
0.0
 40
0.0
 40
0.0
 40
0.0
 40
0.2493756841
 40
0.4991113652000001
 40
0.7493606756000001
 40
1.0
 40
1.0
 40
1.0
 40
1.0
 10
56.68831396000001
 20
66.31347941620001
 30
0.0
 10
56.73029159430001
 20
66.3134766391
 30
0.0
 10
56.81520293760002
 20
66.3301007108
 30
0.0
 10
56.92308922320001
 20
66.4012277141
 30
0.0
 10
56.9965532275
 20
66.50776969599999
 30
0.0
 10
57.01527069489998
 20
66.59250453480004
 30
0.0
 10
57.01638949690003
 20
66.63468004219999
 30
0.0
  0
SPLINE
  5
94A59
330
1F
100
AcDbEntity
  8
1
100
AcDbSpline
210
0.0
220
0.0
230
1.0
 70
     8
 71
     3
 72
    11
 73
     7
 74
     0
 42
0.000000001
 43
0.0000000001
 40
0.0
 40
0.0
 40
0.0
 40
0.0
 40
0.2494322761
 40
0.4992634751
 40
0.7494789075
 40
1.0
 40
1.0
 40
1.0
 40
1.0
 10
56.59437371280001
 20
66.3273698439
 30
0.0
 10
56.62708510750002
 20
66.3372231079
 30
0.0
 10
56.68987299270003
 20
66.36752486669999
 30
0.0
 10
56.76513072919997
 20
66.4397182223
 30
0.0
 10
56.81469918169997
 20
66.5316316814
 30
0.0
 10
56.82732837079999
 20
66.60037981070002
 30
0.0
 10
56.82823826310004
 20
66.63468004219999
 30
0.0
  0
SPLINE
  5
94A5A
330
1F
100
AcDbEntity
  8
1
100
AcDbSpline
210
0.0
220
0.0
230
1.0
 70
     8
 71
     3
 72
     9
 73
     5
 74
     0
 42
0.000000001
 43
0.0000000001
 40
0.0
 40
0.0
 40
0.0
 40
0.0
 40
0.4998188327000002
 40
1.0
 40
1.0
 40
1.0
 40
1.0
 10
55.68356487940002
 20
66.90884889169999
 30
0.0
 10
55.6157941616
 20
66.90884532250001
 30
0.0
 10
55.47966767460001
 20
66.89181898210001
 30
0.0
 10
55.35202548970001
 20
66.84155151899997
 30
0.0
 10
55.29248318810005
 20
66.8090823647
 30
0.0
  0
SPLINE
  5
94A5B
330
1F
100
AcDbEntity
  8
1
100
AcDbSpline
210
0.0
220
0.0
230
1.0
 70
     8
 71
     3
 72
    27
 73
    23
 74
     0
 42
0.000000001
 43
0.0000000001
 40
0.0
 40
0.0
 40
0.0
 40
0.0
 40
0.0624420638
 40
0.0936746706
 40
0.1248954829
 40
0.1872299656
 40
0.2495414001
 40
0.2807345342
 40
0.3119317584
 40
0.374274557
 40
0.4366668815
 40
0.4991221848
 40
0.5616443752000003
 40
0.6242271716
 40
0.6868550421
 40
0.7182165154000001
 40
0.7495804667
 40
0.8122281993999999
 40
0.8748477927999999
 40
0.9061775075999999
 40
0.9374910329999998
 40
1.0
 40
1.0
 40
1.0
 40
1.0
 10
54.68854252239998
 20
69.92205158149997
 30
0.0
 10
54.79889923770002
 20
70.02818343710001
 30
0.0
 10
54.98079287460001
 20
70.17161562559997
 30
0.0
 10
55.24687849640002
 20
70.32394251609999
 30
0.0
 10
55.52646790079998
 20
70.44936969649999
 30
0.0
 10
55.89694378700006
 20
70.5534703804
 30
0.0
 10
56.280598736
 20
70.5827479538
 30
0.0
 10
56.58601717749998
 20
70.56077330799998
 30
0.0
 10
56.88786197310003
 20
70.50885474489999
 30
0.0
 10
57.25356360880005
 20
70.38832896059997
 30
0.0
 10
57.65541269110002
 20
70.1605649066
 30
0.0
 10
58.00540788090001
 20
69.85835490680003
 30
0.0
 10
58.28998974660001
 20
69.4933025727
 30
0.0
 10
58.49827691340005
 20
69.07956291849996
 30
0.0
 10
58.601645523
 20
68.70705948450002
 30
0.0
 10
58.63978089459999
 20
68.40164080770003
 30
0.0
 10
58.64801848659999
 20
68.09390396079999
 30
0.0
 10
58.60189309279999
 20
67.70999730070002
 30
0.0
 10
58.48202581209999
 20
67.34247130909998
 30
0.0
 10
58.34493834909999
 20
67.06711254250001
 30
0.0
 10
58.18185779759996
 20
66.80674191059998
 30
0.0
 10
58.03122401139996
 20
66.63029684469996
 30
0.0
 10
57.92074905500001
 20
66.5240512748
 30
0.0
  0
SPLINE
  5
94A5C
330
1F
100
AcDbEntity
  8
1
100
AcDbSpline
210
0.0
220
0.0
230
1.0
 70
     8
 71
     3
 72
     8
 73
     4
 74
     0
 42
0.000000001
 43
0.0000000001
 40
0.0
 40
0.0
 40
0.0
 40
0.0
 40
1.0
 40
1.0
 40
1.0
 40
1.0
 10
55.26720752400001
 20
66.79668193469999
 30
0.0
 10
55.27580260130003
 20
66.80044951110002
 30
0.0
 10
55.28424403129999
 20
66.8045894505
 30
0.0
 10
55.29248318810005
 20
66.8090823647
 30
0.0
  0
SPLINE
  5
94A5D
330
1F
100
AcDbEntity
  8
1
100
AcDbSpline
210
0.0
220
0.0
230
1.0
 70
     8
 71
     3
 72
     9
 73
     5
 74
     0
 42
0.000000001
 43
0.0000000001
 40
0.0
 40
0.0
 40
0.0
 40
0.0
 40
0.2522405762
 40
1.0
 40
1.0
 40
1.0
 40
1.0
 10
63.50000000000004
 20
74.23860224329998
 30
0.0
 10
63.49957623840004
 20
74.13091675149998
 30
0.0
 10
63.49707827479996
 20
73.7040046063
 30
0.0
 10
63.4912758727
 20
73.277111308
 30
0.0
 10
63.48501673910003
 20
72.9579398772
 30
0.0
  0
SPLINE
  5
94A5E
330
1F
100
AcDbEntity
  8
1
100
AcDbSpline
210
0.0
220
0.0
230
1.0
 70
     8
 71
     3
 72
    15
 73
    11
 74
     0
 42
0.000000001
 43
0.0000000001
 40
0.0
 40
0.0
 40
0.0
 40
0.0
 40
0.1258919251
 40
0.2515384295
 40
0.3767840118
 40
0.5015609521
 40
0.6260316775
 40
0.7504238856000001
 40
0.8749969689
 40
1.0
 40
1.0
 40
1.0
 40
1.0
 10
63.50000000000004
 20
74.23860224329998
 30
0.0
 10
63.50019773680003
 20
74.28885075510001
 30
0.0
 10
63.49113628950004
 20
74.3895487728
 30
0.0
 10
63.44947815239999
 20
74.53494434730001
 30
0.0
 10
63.38154034500002
 20
74.66962334249998
 30
0.0
 10
63.28980694840004
 20
74.78877463200004
 30
0.0
 10
63.1774238278
 20
74.888189267
 30
0.0
 10
63.04821432010001
 20
74.96434668690003
 30
0.0
 10
62.90667641870001
 20
75.01446576649995
 30
0.0
 10
62.80742275900003
 20
75.0292165557
 30
0.0
 10
62.75759578879998
 20
75.03180397510002
 30
0.0
  0
SPLINE
  5
94A5F
330
1F
100
AcDbEntity
  8
1
100
AcDbSpline
210
0.0
220
0.0
230
1.0
 70
     8
 71
     3
 72
     9
 73
     5
 74
     0
 42
0.000000001
 43
0.0000000001
 40
0.0
 40
0.0
 40
0.0
 40
0.0
 40
0.2501264908
 40
1.0
 40
1.0
 40
1.0
 40
1.0
 10
61.47506396949999
 20
75.09754180989999
 30
0.0
 10
61.58199932200004
 20
75.09213197850001
 30
0.0
 10
62.00952079340004
 20
75.07043197700003
 30
0.0
 10
62.43702797820003
 20
75.0484504493
 30
0.0
 10
62.75759578879998
 20
75.03180397510002
 30
0.0
  0
SPLINE
  5
94A60
330
1F
100
AcDbEntity
  8
1
100
AcDbSpline
210
0.0
220
0.0
230
1.0
 70
     8
 71
     3
 72
     9
 73
     5
 74
     0
 42
0.000000001
 43
0.0000000001
 40
0.0
 40
0.0
 40
0.0
 40
0.0
 40
0.2480570413
 40
1.0
 40
1.0
 40
1.0
 40
1.0
 10
54.9716648993
 20
75.25836004530003
 30
0.0
 10
55.5050074216
 20
75.24529473410004
 30
0.0
 10
57.65508901849996
 20
75.19268283940002
 30
0.0
 10
59.80515868970002
 20
75.13958456489999
 30
0.0
 10
61.42188562009996
 20
75.09954468469995
 30
0.0
  0
SPLINE
  5
94A61
330
1F
100
AcDbEntity
  8
1
100
AcDbSpline
210
0.0
220
0.0
230
1.0
 70
     8
 71
     3
 72
    11
 73
     7
 74
     0
 42
0.000000001
 43
0.0000000001
 40
0.0
 40
0.0
 40
0.0
 40
0.0
 40
0.1243917918
 40
0.2489599821
 40
0.4986688473
 40
1.0
 40
1.0
 40
1.0
 40
1.0
 10
53.65113982770004
 20
75.0721357253
 30
0.0
 10
53.56430138390003
 20
75.02572340200001
 30
0.0
 10
53.39037088840001
 20
74.93307727289995
 30
0.0
 10
53.04219728380002
 20
74.74711186549999
 30
0.0
 10
52.43096123470002
 20
74.42035435
 30
0.0
 10
51.90697933770002
 20
74.13952798250003
 30
0.0
 10
51.55732054410004
 20
73.95187188330002
 30
0.0
  0
LINE
  5
94A62
330
1F
100
AcDbEntity
  8
1
100
AcDbLine
 10
48.41583383340003
 20
72.2593111047
 30
0.0
 11
47.9799793793
 21
72.02354168299997
 31
0.0
  0
SPLINE
  5
94A63
330
1F
100
AcDbEntity
  8
1
100
AcDbSpline
210
0.0
220
0.0
230
1.0
 70
     8
 71
     3
 72
     9
 73
     5
 74
     0
 42
0.000000001
 43
0.0000000001
 40
0.0
 40
0.0
 40
0.0
 40
0.0
 40
0.2497985535
 40
1.0
 40
1.0
 40
1.0
 40
1.0
 10
47.93357694989999
 20
71.99764647590005
 30
0.0
 10
47.84086659229997
 20
71.94430387399998
 30
0.0
 10
47.47007990720002
 20
71.73014711869997
 30
0.0
 10
47.1006863563
 20
71.51357789840003
 30
0.0
 10
46.82438668609999
 20
71.34973092410004
 30
0.0
  0
SPLINE
  5
94A64
330
1F
100
AcDbEntity
  8
1
100
AcDbSpline
210
0.0
220
0.0
230
1.0
 70
     8
 71
     3
 72
     9
 73
     5
 74
     0
 42
0.000000001
 43
0.0000000001
 40
0.0
 40
0.0
 40
0.0
 40
0.0
 40
0.5004236774000002
 40
1.0
 40
1.0
 40
1.0
 40
1.0
 10
46.82438668609999
 20
71.34973092410004
 30
0.0
 10
46.78372352850002
 20
71.32561748479999
 30
0.0
 10
46.7066870118
 20
71.26992420979998
 30
0.0
 10
46.64102606660002
 20
71.20119162340003
 30
0.0
 10
46.61163685730002
 20
71.16426382410002
 30
0.0
  0
SPLINE
  5
94A65
330
1F
100
AcDbEntity
  8
1
100
AcDbSpline
210
0.0
220
0.0
230
1.0
 70
     8
 71
     3
 72
     9
 73
     5
 74
     0
 42
0.000000001
 43
0.0000000001
 40
0.0
 40
0.0
 40
0.0
 40
0.0
 40
0.2514488443
 40
1.0
 40
1.0
 40
1.0
 40
1.0
 10
46.57743652549998
 20
70.20609914090002
 30
0.0
 10
46.62162542110003
 20
70.12134942960003
 30
0.0
 10
46.79786796989996
 20
69.78456769059997
 30
0.0
 10
46.97614482009996
 20
69.4488503259
 30
0.0
 10
47.11075677940002
 20
69.1981757554
 30
0.0
  0
SPLINE
  5
94A66
330
1F
100
AcDbEntity
  8
1
100
AcDbSpline
210
0.0
220
0.0
230
1.0
 70
     8
 71
     3
 72
    13
 73
     9
 74
     0
 42
0.000000001
 43
0.0000000001
 40
0.0
 40
0.0
 40
0.0
 40
0.0
 40
0.0618385289
 40
0.1237445
 40
0.2478762683
 40
0.4972715287
 40
0.7480213943999999
 40
1.0
 40
1.0
 40
1.0
 40
1.0
 10
62.99163270550002
 20
65.84357853809999
 30
0.0
 10
62.96317702210001
 20
65.79357579180001
 30
0.0
 10
62.90650777160005
 20
65.6933606055
 30
0.0
 10
62.79264359989999
 20
65.49281439980001
 30
0.0
 10
62.59249472830004
 20
65.14059707850001
 30
0.0
 10
62.3048525008
 20
64.63601850919999
 30
0.0
 10
61.95741591290001
 20
64.0286133438
 30
0.0
 10
61.72460414599999
 20
63.62294933059999
 30
0.0
 10
61.60777970830003
 20
63.41969866410003
 30
0.0
  0
SPLINE
  5
94A67
330
1F
100
AcDbEntity
  8
1
100
AcDbSpline
210
0.0
220
0.0
230
1.0
 70
     8
 71
     3
 72
    10
 73
     6
 74
     0
 42
0.000000001
 43
0.0000000001
 40
0.0
 40
0.0
 40
0.0
 40
0.0
 40
0.2504966855
 40
0.5018032636000001
 40
1.0
 40
1.0
 40
1.0
 40
1.0
 10
54.38158840760002
 20
75.25883488600001
 30
0.0
 10
54.31809472489998
 20
75.25883408029995
 30
0.0
 10
54.19072009560006
 20
75.25063231419998
 30
0.0
 10
53.94147140470005
 20
75.20214350710003
 30
0.0
 10
53.76250954300002
 20
75.13165921509996
 30
0.0
 10
53.65113982770004
 20
75.0721357253
 30
0.0
  0
SPLINE
  5
94A68
330
1F
100
AcDbEntity
  8
1
100
AcDbSpline
210
0.0
220
0.0
230
1.0
 70
     8
 71
     3
 72
    19
 73
    15
 74
     0
 42
0.000000001
 43
0.0000000001
 40
0.0
 40
0.0
 40
0.0
 40
0.0
 40
0.1285379607
 40
0.1921886909
 40
0.2551306241
 40
0.2862665764
 40
0.3171675435
 40
0.3788814609
 40
0.4406738196
 40
0.5025401134000002
 40
0.6264898754
 40
0.7507218454000001
 40
0.8752279107999999
 40
1.0
 40
1.0
 40
1.0
 40
1.0
 10
63.20074816820003
 20
66.59702690910001
 30
0.0
 10
63.20628557479999
 20
66.86754570590003
 30
0.0
 10
63.21706077439998
 20
67.27197788869998
 30
0.0
 10
63.23643651899995
 20
67.80868673730001
 30
0.0
 10
63.25055926169997
 20
68.14041138800002
 30
0.0
 10
63.26302549310003
 20
68.40319985140002
 30
0.0
 10
63.27635357310001
 20
68.6633573784
 30
0.0
 10
63.29299411990001
 20
68.98796193329999
 30
0.0
 10
63.31272423370001
 20
69.37767654579997
 30
0.0
 10
63.33885997899997
 20
69.8982424685
 30
0.0
 10
63.37112637669999
 20
70.55010296140003
 30
0.0
 10
63.40919717050002
 20
71.33369545719998
 30
0.0
 10
63.44663226619999
 20
72.1190515671
 30
0.0
 10
63.47114344680004
 20
72.64321531020001
 30
0.0
 10
63.48328978319997
 20
72.90558251809996
 30
0.0
  0
SPLINE
  5
94A69
330
1F
100
AcDbEntity
  8
1
100
AcDbSpline
210
0.0
220
0.0
230
1.0
 70
     8
 71
     3
 72
     8
 73
     4
 74
     0
 42
0.000000001
 43
0.0000000001
 40
0.0
 40
0.0
 40
0.0
 40
0.0
 40
1.0
 40
1.0
 40
1.0
 40
1.0
 10
63.48501673910003
 20
72.9579398772
 30
0.0
 10
63.48467436620001
 20
72.94048128980003
 30
0.0
 10
63.48409732210001
 20
72.92302577960002
 30
0.0
 10
63.48328978319997
 20
72.90558251809996
 30
0.0
  0
SPLINE
  5
94A6A
330
1F
100
AcDbEntity
  8
1
100
AcDbSpline
210
0.0
220
0.0
230
1.0
 70
     8
 71
     3
 72
     8
 73
     4
 74
     0
 42
0.000000001
 43
0.0000000001
 40
0.0
 40
0.0
 40
0.0
 40
0.0
 40
1.0
 40
1.0
 40
1.0
 40
1.0
 10
61.47506396949999
 20
75.09754180989999
 30
0.0
 10
61.45734794100002
 20
75.09843805910001
 30
0.0
 10
61.43961886709998
 20
75.09910550289993
 30
0.0
 10
61.42188562009996
 20
75.09954468469995
 30
0.0
  0
SPLINE
  5
94A6B
330
1F
100
AcDbEntity
  8
1
100
AcDbSpline
210
0.0
220
0.0
230
1.0
 70
     8
 71
     3
 72
     8
 73
     4
 74
     0
 42
0.000000001
 43
0.0000000001
 40
0.0
 40
0.0
 40
0.0
 40
0.0
 40
1.0
 40
1.0
 40
1.0
 40
1.0
 10
47.9799793793
 20
72.02354168299997
 30
0.0
 10
47.96440111139999
 20
72.01511154310002
 30
0.0
 10
47.9489300004
 20
72.00648013470001
 30
0.0
 10
47.93357694989999
 20
71.99764647590005
 30
0.0
  0
SPLINE
  5
94A6C
330
1F
100
AcDbEntity
  8
1
100
AcDbSpline
210
0.0
220
0.0
230
1.0
 70
     8
 71
     3
 72
    10
 73
     6
 74
     0
 42
0.000000001
 43
0.0000000001
 40
0.0
 40
0.0
 40
0.0
 40
0.0
 40
0.4914184468000001
 40
0.7454089918000001
 40
1.0
 40
1.0
 40
1.0
 40
1.0
 10
62.99163270550002
 20
65.84357853809999
 30
0.0
 10
63.05553106210004
 20
65.9558616722
 30
0.0
 10
63.13144572389997
 20
66.13921002480001
 30
0.0
 10
63.18792703610006
 20
66.39639745050001
 30
0.0
 10
63.19937840880001
 20
66.53011008189999
 30
0.0
 10
63.20074816820003
 20
66.59702690910001
 30
0.0
  0
SPLINE
  5
94A6D
330
1F
100
AcDbEntity
  8
1
100
AcDbSpline
210
0.0
220
0.0
230
1.0
 70
     8
 71
     3
 72
    15
 73
    11
 74
     0
 42
0.000000001
 43
0.0000000001
 40
0.0
 40
0.0
 40
0.0
 40
0.0
 40
0.1307043418
 40
0.2579430594
 40
0.3197325012999999
 40
0.3810793140999999
 40
0.5040860959000001
 40
0.6274903543
 40
0.7512828541
 40
1.0
 40
1.0
 40
1.0
 40
1.0
 10
54.20370150989999
 20
75.0721357253
 30
0.0
 10
53.96975928709998
 20
74.94214140110003
 30
0.0
 10
53.50886203020002
 20
74.68418649780002
 30
0.0
 10
52.93948866489998
 20
74.36101119000003
 30
0.0
 10
52.49509049399996
 20
74.10538482550001
 30
0.0
 10
52.0584006336
 20
73.85373846939998
 30
0.0
 10
51.5121907651
 20
73.53945920640005
 30
0.0
 10
50.8550122419
 20
73.16165436209998
 30
0.0
 10
49.97442173079996
 20
72.65599867680001
 30
0.0
 10
49.31269612890003
 20
72.27662971539998
 30
0.0
 10
48.87075573509996
 20
72.02354168299997
 30
0.0
  0
SPLINE
  5
94A6E
330
1F
100
AcDbEntity
  8
1
100
AcDbSpline
210
0.0
220
0.0
230
1.0
 70
     8
 71
     3
 72
     9
 73
     5
 74
     0
 42
0.000000001
 43
0.0000000001
 40
0.0
 40
0.0
 40
0.0
 40
0.0
 40
0.2535422863
 40
1.0
 40
1.0
 40
1.0
 40
1.0
 10
47.75193733840001
 20
71.34973092410004
 30
0.0
 10
47.84300866040001
 20
71.40411951739999
 30
0.0
 10
48.20199109259998
 20
71.61899139520001
 30
0.0
 10
48.56010695040004
 20
71.83531152190004
 30
0.0
 10
48.82689998150002
 20
71.99764647590005
 30
0.0
  0
SPLINE
  5
94A6F
330
1F
100
AcDbEntity
  8
1
100
AcDbSpline
210
0.0
220
0.0
230
1.0
 70
     8
 71
     3
 72
    15
 73
    11
 74
     0
 42
0.000000001
 43
0.0000000001
 40
0.0
 40
0.0
 40
0.0
 40
0.0
 40
0.1239257302
 40
0.24821816
 40
0.3727432201
 40
0.497488479
 40
0.622577945
 40
0.7480656785999999
 40
0.8739182164
 40
1.0
 40
1.0
 40
1.0
 40
1.0
 10
47.75193733840001
 20
71.34973092410004
 30
0.0
 10
47.70927801099996
 20
71.32425439919998
 30
0.0
 10
47.62852582699999
 20
71.26487045280001
 30
0.0
 10
47.52646486489997
 20
71.15452031500004
 30
0.0
 10
47.44691578290002
 20
71.02652861050003
 30
0.0
 10
47.3928775201
 20
70.88553395819999
 30
0.0
 10
47.36613239599996
 20
70.73654653349999
 30
0.0
 10
47.36759040249999
 20
70.58473557469998
 30
0.0
 10
47.39717742069998
 20
70.43548181230001
 30
0.0
 10
47.43502844859999
 20
70.3410878668
 30
0.0
 10
47.45811362660004
 20
70.29611454149996
 30
0.0
  0
SPLINE
  5
94A70
330
1F
100
AcDbEntity
  8
1
100
AcDbSpline
210
0.0
220
0.0
230
1.0
 70
     8
 71
     3
 72
     9
 73
     5
 74
     0
 42
0.000000001
 43
0.0000000001
 40
0.0
 40
0.0
 40
0.0
 40
0.0
 40
0.2466066882
 40
1.0
 40
1.0
 40
1.0
 40
1.0
 10
48.02695932490003
 20
69.15559563539997
 30
0.0
 10
47.98132059349996
 20
69.24990144850003
 30
0.0
 10
47.79507682609999
 20
69.63174484840002
 30
0.0
 10
47.604278018
 20
70.01136478930002
 30
0.0
 10
47.45811362660004
 20
70.29611454149996
 30
0.0
  0
SPLINE
  5
94A71
330
1F
100
AcDbEntity
  8
1
100
AcDbSpline
210
0.0
220
0.0
230
1.0
 70
     8
 71
     3
 72
     9
 73
     5
 74
     0
 42
0.000000001
 43
0.0000000001
 40
0.0
 40
0.0
 40
0.0
 40
0.0
 40
0.2496034351
 40
1.0
 40
1.0
 40
1.0
 40
1.0
 10
48.51659306130002
 20
68.20385440360002
 30
0.0
 10
48.47783935700004
 20
68.27921729680003
 30
0.0
 10
48.3225186894
 20
68.58111717939999
 30
0.0
 10
48.1669516078
 20
68.8828902594
 30
0.0
 10
48.050106105
 20
69.10928369690001
 30
0.0
  0
SPLINE
  5
94A72
330
1F
100
AcDbEntity
  8
1
100
AcDbSpline
210
0.0
220
0.0
230
1.0
 70
     8
 71
     3
 72
     9
 73
     5
 74
     0
 42
0.000000001
 43
0.0000000001
 40
0.0
 40
0.0
 40
0.0
 40
0.0
 40
0.4994093624
 40
1.0
 40
1.0
 40
1.0
 40
1.0
 10
54.9328973212
 20
75.2588350193
 30
0.0
 10
54.80656659430002
 20
75.25883421580002
 30
0.0
 10
54.55247325430002
 20
75.22831685380002
 30
0.0
 10
54.31439033820003
 20
75.13364202049998
 30
0.0
 10
54.20370150989999
 20
75.0721357253
 30
0.0
  0
SPLINE
  5
94A73
330
1F
100
AcDbEntity
  8
1
100
AcDbSpline
210
0.0
220
0.0
230
1.0
 70
     8
 71
     3
 72
     8
 73
     4
 74
     0
 42
0.000000001
 43
0.0000000001
 40
0.0
 40
0.0
 40
0.0
 40
0.0
 40
1.0
 40
1.0
 40
1.0
 40
1.0
 10
48.02695932490003
 20
69.15559563539997
 30
0.0
 10
48.03447718530003
 20
69.14006106809998
 30
0.0
 10
48.04219095870003
 20
69.12461965029999
 30
0.0
 10
48.050106105
 20
69.10928369690001
 30
0.0
  0
SPLINE
  5
94A74
330
1F
100
AcDbEntity
  8
1
100
AcDbSpline
210
0.0
220
0.0
230
1.0
 70
     8
 71
     3
 72
     8
 73
     4
 74
     0
 42
0.000000001
 43
0.0000000001
 40
0.0
 40
0.0
 40
0.0
 40
0.0
 40
1.0
 40
1.0
 40
1.0
 40
1.0
 10
48.82689998150002
 20
71.99764647590005
 30
0.0
 10
48.84140296050003
 20
72.00647107080001
 30
0.0
 10
48.8560237064
 20
72.01510502459997
 30
0.0
 10
48.87075573509996
 20
72.02354168299997
 30
0.0
  0
SPLINE
  5
94A75
330
1F
100
AcDbEntity
  8
1
100
AcDbSpline
210
0.0
220
0.0
230
1.0
 70
     8
 71
     3
 72
    12
 73
     8
 74
     0
 42
0.000000001
 43
0.0000000001
 40
0.0
 40
0.0
 40
0.0
 40
0.0
 40
0.217333829
 40
0.3635155136
 40
0.518792835
 40
0.786867868
 40
1.0
 40
1.0
 40
1.0
 40
1.0
 10
59.06711927709999
 20
64.90183284610004
 30
0.0
 10
58.79691292250001
 20
64.88712354769997
 30
0.0
 10
58.34031997190002
 20
64.92390960989999
 30
0.0
 10
57.71405326800001
 20
65.0869889601
 30
0.0
 10
57.05385524740001
 20
65.35070398010001
 30
0.0
 10
56.36839079939999
 20
65.75804810280001
 30
0.0
 10
55.90540967399999
 20
66.14126293839999
 30
0.0
 10
55.7125198393
 20
66.3235190864
 30
0.0
  0
SPLINE
  5
94A76
330
1F
100
AcDbEntity
  8
1
100
AcDbSpline
210
0.0
220
0.0
230
1.0
 70
     8
 71
     3
 72
     9
 73
     5
 74
     0
 42
0.000000001
 43
0.0000000001
 40
0.0
 40
0.0
 40
0.0
 40
0.0
 40
0.2550750326
 40
1.0
 40
1.0
 40
1.0
 40
1.0
 10
58.7228728393
 20
64.9021694756
 30
0.0
 10
58.75377188759998
 20
64.90622617660003
 30
0.0
 10
58.8747974826
 20
64.92297064120001
 30
0.0
 10
58.99537247200001
 20
64.94295303340002
 30
0.0
 10
59.08485692870005
 20
64.95956009020003
 30
0.0
  0
SPLINE
  5
94A77
330
1F
100
AcDbEntity
  8
1
100
AcDbSpline
210
0.0
220
0.0
230
1.0
 70
     8
 71
     3
 72
    15
 73
    11
 74
     0
 42
0.000000001
 43
0.0000000001
 40
0.0
 40
0.0
 40
0.0
 40
0.0
 40
0.0818907732
 40
0.172412348
 40
0.2736978339
 40
0.3878171408
 40
0.5166150255
 40
0.6614510365000001
 40
0.8228312112000001
 40
0.8921450342157806
 40
0.8921450342157806
 40
0.8921450342157806
 40
0.8921450342157806
 10
61.71251983930005
 20
62.8124624358
 30
0.0
 10
61.71251983930003
 20
62.89238899689999
 30
0.0
 10
61.69970537350002
 20
63.06084078079999
 30
0.0
 10
61.6434426524
 20
63.3226964756
 30
0.0
 10
61.54515675659999
 20
63.60537223899999
 30
0.0
 10
61.40037447870003
 20
63.90918100800002
 30
0.0
 10
61.20471323000003
 20
64.23375377620001
 30
0.0
 10
60.95454661189998
 20
64.57739422009999
 30
0.0
 10
60.71642848185888
 20
64.85644260345438
 30
0.0
 10
60.56234190969457
 20
65.02072173612913
 30
0.0
 10
60.51540534649717
 20
65.06946268519903
 30
0.0
  0
SPLINE
  5
94A78
330
1F
100
AcDbEntity
  8
1
100
AcDbSpline
210
0.0
220
0.0
230
1.0
 70
     8
 71
     3
 72
     8
 73
     4
 74
     0
 42
0.000000001
 43
0.0000000001
 40
0.8921450342157806
 40
0.8921450342157806
 40
0.8921450342157806
 40
0.8921450342157806
 40
1.0
 40
1.0
 40
1.0
 40
1.0
 10
60.51540534649717
 20
65.06946268519903
 30
0.0
 10
60.44237025483113
 20
65.14530547045456
 30
0.0
 10
60.36778545636618
 20
65.21965190478451
 30
0.0
 10
60.29189479000002
 20
65.29260363509999
 30
0.0
  0
SPLINE
  5
94A79
330
1F
100
AcDbEntity
  8
1
100
AcDbSpline
210
0.0
220
0.0
230
1.0
 70
     8
 71
     3
 72
     9
 73
     5
 74
     0
 42
0.000000001
 43
0.0000000001
 40
0.0
 40
0.0
 40
0.0
 40
0.0
 40
0.2565528108
 40
1.0
 40
1.0
 40
1.0
 40
1.0
 10
51.35637339189996
 20
74.31952460850002
 30
0.0
 10
51.34481376770003
 20
74.32797963530001
 30
0.0
 10
51.29983618649998
 20
74.36104508489998
 30
0.0
 10
51.25516347749999
 20
74.39452473970002
 30
0.0
 10
51.22210893320001
 20
74.41962085920002
 30
0.0
  0
SPLINE
  5
94A7A
330
1F
100
AcDbEntity
  8
1
100
AcDbSpline
210
0.0
220
0.0
230
1.0
 70
     8
 71
     3
 72
    19
 73
    15
 74
     0
 42
0.000000001
 43
0.0000000001
 40
0.0
 40
0.0
 40
0.0
 40
0.0
 40
0.2088052857
 40
0.3974671648
 40
0.5634873831000001
 40
0.704701974
 40
0.7654475490000002
 40
0.8193779063999999
 40
0.8663653929999998
 40
0.9063393082999999
 40
0.9393148552999999
 40
0.9654589014
 40
0.9852597129999999
 40
1.0
 40
1.0
 40
1.0
 40
1.0
 10
49.6468363916
 20
74.74617765770003
 30
0.0
 10
49.55799132060002
 20
74.75252792250002
 30
0.0
 10
49.38898079009999
 20
74.76623063809999
 30
0.0
 10
49.14987373439998
 20
74.79109624349998
 30
0.0
 10
48.94011755680003
 20
74.81870860770001
 30
0.0
 10
48.78523027030002
 20
74.84452979120002
 30
0.0
 10
48.67830855739999
 20
74.86657269700002
 30
0.0
 10
48.61120996020003
 20
74.88255332650002
 30
0.0
 10
48.55330579830003
 20
74.89872561270002
 30
0.0
 10
48.50477264200002
 20
74.9150144072
 30
0.0
 10
48.46571189289999
 20
74.93129252100001
 30
0.0
 10
48.4361314857
 20
74.94760550460004
 30
0.0
 10
48.4157632593
 20
74.96380698279999
 30
0.0
 10
48.4074955981
 20
74.97672975360003
 30
0.0
 10
48.40590597080001
 20
74.9828133819
 30
0.0
  0
SPLINE
  5
94A7B
330
1F
100
AcDbEntity
  8
1
100
AcDbSpline
210
0.0
220
0.0
230
1.0
 70
     8
 71
     3
 72
    14
 73
    10
 74
     0
 42
0.000000001
 43
0.0000000001
 40
0.0
 40
0.0
 40
0.0
 40
0.0
 40
0.0654347963
 40
0.1466730174
 40
0.2452518052
 40
0.3618556219
 40
0.4964791394
 40
0.6485233093
 40
1.0
 40
1.0
 40
1.0
 40
1.0
 10
51.22210893320001
 20
74.41962085920002
 30
0.0
 10
51.1939199176
 20
74.44102290600003
 30
0.0
 10
51.12519515020004
 20
74.48164909379997
 30
0.0
 10
51.00251740450005
 20
74.53269142910001
 30
0.0
 10
50.8490605285
 20
74.57980652099998
 30
0.0
 10
50.66467046540004
 20
74.62267745350001
 30
0.0
 10
50.4498744526
 20
74.66107967719998
 30
0.0
 10
50.10789278439999
 20
74.70831010840001
 30
0.0
 10
49.8364629894
 20
74.73262385820001
 30
0.0
 10
49.6468363916
 20
74.74617765770003
 30
0.0
  0
SPLINE
  5
94A7C
330
1F
100
AcDbEntity
  8
1
100
AcDbSpline
210
0.0
220
0.0
230
1.0
 70
     8
 71
     3
 72
     9
 73
     5
 74
     0
 42
0.000000001
 43
0.0000000001
 40
0.0
 40
0.0
 40
0.0
 40
0.0
 40
0.2482159543
 40
1.0
 40
1.0
 40
1.0
 40
1.0
 10
37.03267545930005
 20
68.10392954700002
 30
0.0
 10
37.08958230399998
 20
68.13360261680003
 30
0.0
 10
37.31908107180001
 20
68.25269631660001
 30
0.0
 10
37.54949872980001
 20
68.3700179251
 30
0.0
 10
37.72318830770001
 20
68.45728624489999
 30
0.0
  0
SPLINE
  5
94A7D
330
1F
100
AcDbEntity
  8
1
100
AcDbSpline
210
0.0
220
0.0
230
1.0
 70
     8
 71
     3
 72
    19
 73
    15
 74
     0
 42
0.000000001
 43
0.0000000001
 40
0.0
 40
0.0
 40
0.0
 40
0.0
 40
0.1958033054
 40
0.3742083092
 40
0.5331654525000003
 40
0.6709028554
 40
0.7313961018999999
 40
0.7861366811
 40
0.8350860373000001
 40
0.8782737657999998
 40
0.9158504986
 40
0.9481646036
 40
0.9758498268
 40
1.0
 40
1.0
 40
1.0
 40
1.0
 10
36.44160214189998
 20
67.43972393780001
 30
0.0
 10
36.3453698239
 20
67.33147265000003
 30
0.0
 10
36.15824908870003
 20
67.12740023980001
 30
0.0
 10
35.88094214860004
 20
66.84679547250002
 30
0.0
 10
35.62273686720005
 20
66.60818582320001
 30
0.0
 10
35.41856136590005
 20
66.44010726090002
 30
0.0
 10
35.26701768200005
 20
66.3302280867
 30
0.0
 10
35.1653291545
 20
66.26371832309999
 30
0.0
 10
35.07100616870002
 20
66.20963937489998
 30
0.0
 10
34.98436193280003
 20
66.16815141200001
 30
0.0
 10
34.9056493745
 20
66.13936610860003
 30
0.0
 10
34.8349892768
 20
66.12336383840002
 30
0.0
 10
34.77242771589999
 20
66.12029422409998
 30
0.0
 10
34.73422600290002
 20
66.127713301
 30
0.0
 10
34.71744892060002
 20
66.1338510903
 30
0.0
  0
SPLINE
  5
94A7E
330
1F
100
AcDbEntity
  8
1
100
AcDbSpline
210
0.0
220
0.0
230
1.0
 70
     8
 71
     3
 72
     8
 73
     4
 74
     0
 42
0.000000001
 43
0.0000000001
 40
0.0
 40
0.0
 40
0.0
 40
0.0
 40
1.0
 40
1.0
 40
1.0
 40
1.0
 10
36.44159801890004
 20
67.43971901870001
 30
0.0
 10
36.63850969320004
 20
67.66122404719999
 30
0.0
 10
36.83553691880007
 20
67.88262640420001
 30
0.0
 10
37.03267545930005
 20
68.10392954700002
 30
0.0
  0
SPLINE
  5
94A7F
330
1F
100
AcDbEntity
  8
1
100
AcDbSpline
210
0.0
220
0.0
230
1.0
 70
     8
 71
     3
 72
     9
 73
     5
 74
     0
 42
0.000000001
 43
0.0000000001
 40
0.0
 40
0.0
 40
0.0
 40
0.0
 40
0.2383735662
 40
1.0
 40
1.0
 40
1.0
 40
1.0
 10
47.3993506652
 20
72.29300299989998
 30
0.0
 10
47.4329369655
 20
72.29775664479999
 30
0.0
 10
47.57420480099996
 20
72.31494684680005
 30
0.0
 10
47.71693502789999
 20
72.32051228090004
 30
0.0
 10
47.82527772249999
 20
72.31763220849998
 30
0.0
  0
SPLINE
  5
94A80
330
1F
100
AcDbEntity
  8
1
100
AcDbSpline
210
0.0
220
0.0
230
1.0
 70
     8
 71
     3
 72
    15
 73
    11
 74
     0
 42
0.000000001
 43
0.0000000001
 40
0.0
 40
0.0
 40
0.0
 40
0.0
 40
0.1765366724
 40
0.338942963
 40
0.4849611413
 40
0.614792843
 40
0.7296882884999999
 40
0.8311896307999997
 40
0.9208207785999999
 40
1.0
 40
1.0
 40
1.0
 40
1.0
 10
40.1282872213
 20
68.7842911548
 30
0.0
 10
39.98433739270004
 20
68.79412000729999
 30
0.0
 10
39.7073677537
 20
68.80534518440001
 30
0.0
 10
39.31085452890002
 20
68.79920231380001
 30
0.0
 10
38.9533934566
 20
68.7734458571
 30
0.0
 10
38.63654719160005
 20
68.7319756805
 30
0.0
 10
38.35856707220003
 20
68.678035049
 30
0.0
 10
38.11654066450001
 20
68.61410529279999
 30
0.0
 10
37.90747439530003
 20
68.54205590550001
 30
0.0
 10
37.78101365270004
 20
68.48633992069998
 30
0.0
 10
37.72318830770001
 20
68.45728624489999
 30
0.0
  0
SPLINE
  5
94A81
330
1F
100
AcDbEntity
  8
1
100
AcDbSpline
210
0.0
220
0.0
230
1.0
 70
     8
 71
     3
 72
     8
 73
     4
 74
     0
 42
0.000000001
 43
0.0000000001
 40
0.0
 40
0.0
 40
0.0
 40
0.0
 40
1.0
 40
1.0
 40
1.0
 40
1.0
 10
47.85641270950002
 20
72.53486879229999
 30
0.0
 10
47.83845089499997
 20
72.52824857350001
 30
0.0
 10
47.82059733529997
 20
72.5213269333
 30
0.0
 10
47.8028667247
 20
72.51411031860001
 30
0.0
  0
LINE
  5
94A82
330
1F
100
AcDbEntity
  8
1
100
AcDbLine
 10
52.0261806034
 20
67.95656538750001
 30
0.0
 11
51.9738233841
 21
67.9604406631
 31
0.0
  0
SPLINE
  5
94A83
330
1F
100
AcDbEntity
  8
1
100
AcDbSpline
210
0.0
220
0.0
230
1.0
 70
     8
 71
     3
 72
     9
 73
     5
 74
     0
 42
0.000000001
 43
0.0000000001
 40
0.0
 40
0.0
 40
0.0
 40
0.0
 40
0.2477938111
 40
1.0
 40
1.0
 40
1.0
 40
1.0
 10
54.6469739539
 20
67.7121429579
 30
0.0
 10
54.52687671489997
 20
67.72824502659998
 30
0.0
 10
54.04177795310005
 20
67.78994662680003
 30
0.0
 10
53.55496641919997
 20
67.83827053610004
 30
0.0
 10
53.18823365930001
 20
67.86667293160002
 30
0.0
  0
SPLINE
  5
94A84
330
1F
100
AcDbEntity
  8
1
100
AcDbSpline
210
0.0
220
0.0
230
1.0
 70
     8
 71
     3
 72
    21
 73
    17
 74
     0
 42
0.000000001
 43
0.0000000001
 40
0.0
 40
0.0
 40
0.0
 40
0.0
 40
0.0617236576
 40
0.1235170115
 40
0.1854295583
 40
0.2475001458
 40
0.3097532105
 40
0.3721984444
 40
0.4348301555
 40
0.4976273068000002
 40
0.6232609512
 40
0.7490319359999999
 40
0.8119926110999998
 40
0.8748317016999999
 40
0.9375095036999999
 40
1.0
 40
1.0
 40
1.0
 40
1.0
 10
47.63923891709999
 20
68.81833626200003
 30
0.0
 10
47.55346962399996
 20
68.86006655169999
 30
0.0
 10
47.3878331618
 20
68.95660103899999
 30
0.0
 10
47.16366490310003
 20
69.1366928468
 30
0.0
 10
46.96803623239998
 20
69.34823495870003
 30
0.0
 10
46.80500396209999
 20
69.58662983539998
 30
0.0
 10
46.67778439160002
 20
69.84681483860001
 30
0.0
 10
46.58883446229999
 20
70.12332070829998
 30
0.0
 10
46.5399171435
 20
70.41052570209997
 30
0.0
 10
46.52927070220004
 20
70.79943139830001
 30
0.0
 10
46.61912798169999
 20
71.28355893239998
 30
0.0
 10
46.84048519420001
 20
71.72377197570003
 30
0.0
 10
47.0852127347
 20
72.02725445050001
 30
0.0
 10
47.29928899839999
 20
72.22630552489997
 30
0.0
 10
47.53915074169997
 20
72.39193875829997
 30
0.0
 10
47.7133469066
 20
72.47789634009999
 30
0.0
 10
47.8028667247
 20
72.51411031860001
 30
0.0
  0
SPLINE
  5
94A85
330
1F
100
AcDbEntity
  8
1
100
AcDbSpline
210
0.0
220
0.0
230
1.0
 70
     8
 71
     3
 72
     9
 73
     5
 74
     0
 42
0.000000001
 43
0.0000000001
 40
0.0
 40
0.0
 40
0.0
 40
0.0
 40
0.5299856291
 40
1.0
 40
1.0
 40
1.0
 40
1.0
 10
55.7125198393
 20
66.3235190864
 30
0.0
 10
55.48704367020002
 20
66.53656514000002
 30
0.0
 10
55.09456624160002
 20
66.97508326260001
 30
0.0
 10
54.77710983380001
 20
67.46976461
 30
0.0
 10
54.6469739539
 20
67.7121429579
 30
0.0
  0
SPLINE
  5
94A86
330
1F
100
AcDbEntity
  8
1
100
AcDbSpline
210
0.0
220
0.0
230
1.0
 70
     8
 71
     3
 72
     9
 73
     5
 74
     0
 42
0.000000001
 43
0.0000000001
 40
0.0
 40
0.0
 40
0.0
 40
0.0
 40
0.2558765065
 40
1.0
 40
1.0
 40
1.0
 40
1.0
 10
47.82527772249999
 20
72.31763220849998
 30
0.0
 10
47.8496744806
 20
72.31698366980001
 30
0.0
 10
47.94498615460002
 20
72.3132717959
 30
0.0
 10
48.04011481669999
 20
72.30501664440001
 30
0.0
 10
48.1105695479
 20
72.29644582760001
 30
0.0
  0
SPLINE
  5
94A87
330
1F
100
AcDbEntity
  8
1
100
AcDbSpline
210
0.0
220
0.0
230
1.0
 70
     8
 71
     3
 72
     9
 73
     5
 74
     0
 42
0.000000001
 43
0.0000000001
 40
0.0
 40
0.0
 40
0.0
 40
0.0
 40
0.2536672502
 40
1.0
 40
1.0
 40
1.0
 40
1.0
 10
47.25835366840001
 20
72.18326513920001
 30
0.0
 10
47.29744937739996
 20
72.18576624110004
 30
0.0
 10
47.4517499886
 20
72.19261824660001
 30
0.0
 10
47.6065670923
 20
72.18767966729998
 30
0.0
 10
47.72137246300002
 20
72.17743617440001
 30
0.0
  0
SPLINE
  5
94A88
330
1F
100
AcDbEntity
  8
1
100
AcDbSpline
210
0.0
220
0.0
230
1.0
 70
     8
 71
     3
 72
     9
 73
     5
 74
     0
 42
0.000000001
 43
0.0000000001
 40
0.0
 40
0.0
 40
0.0
 40
0.0
 40
0.2496196233
 40
1.0
 40
1.0
 40
1.0
 40
1.0
 10
47.71712783380002
 20
68.67059860890001
 30
0.0
 10
47.73175316819999
 20
68.66550709059999
 30
0.0
 10
47.79059991869998
 20
68.64585377110003
 30
0.0
 10
47.85044668060004
 20
68.62919408120001
 30
0.0
 10
47.8957389505
 20
68.6184327771
 30
0.0
  0
SPLINE
  5
94A89
330
1F
100
AcDbEntity
  8
1
100
AcDbSpline
210
0.0
220
0.0
230
1.0
 70
     8
 71
     3
 72
     9
 73
     5
 74
     0
 42
0.000000001
 43
0.0000000001
 40
0.0
 40
0.0
 40
0.0
 40
0.0
 40
0.5434641136999999
 40
1.0
 40
1.0
 40
1.0
 40
1.0
 10
51.70358006450001
 20
73.69341637649998
 30
0.0
 10
51.69204827720006
 20
73.71482685710002
 30
0.0
 10
51.67206968509996
 20
73.75491060449999
 30
0.0
 10
51.65531368590001
 20
73.79648238529998
 30
0.0
 10
51.6487613209
 20
73.81583178960003
 30
0.0
  0
SPLINE
  5
94A8A
330
1F
100
AcDbEntity
  8
1
100
AcDbSpline
210
0.0
220
0.0
230
1.0
 70
     8
 71
     3
 72
     9
 73
     5
 74
     0
 42
0.000000001
 43
0.0000000001
 40
0.0
 40
0.0
 40
0.0
 40
0.0
 40
0.2476684745
 40
1.0
 40
1.0
 40
1.0
 40
1.0
 10
51.6487613209
 20
73.81583178960003
 30
0.0
 10
51.62086080979999
 20
73.85503696219998
 30
0.0
 10
51.5118712093
 20
74.01591071829997
 30
0.0
 10
51.41784263659999
 20
74.18690742520002
 30
0.0
 10
51.35637339189996
 20
74.31952460850002
 30
0.0
  0
SPLINE
  5
94A8B
330
1F
100
AcDbEntity
  8
1
100
AcDbSpline
210
0.0
220
0.0
230
1.0
 70
     8
 71
     3
 72
     8
 73
     4
 74
     0
 42
0.000000001
 43
0.0000000001
 40
0.0
 40
0.0
 40
0.0
 40
0.0
 40
1.0
 40
1.0
 40
1.0
 40
1.0
 10
47.87917348759996
 20
72.31583855490001
 30
0.0
 10
47.82591971329998
 20
72.27046026600001
 30
0.0
 10
47.7732954443
 20
72.22433135119998
 30
0.0
 10
47.72137246300002
 20
72.17743617440001
 30
0.0
  0
SPLINE
  5
94A8C
330
1F
100
AcDbEntity
  8
1
100
AcDbSpline
210
0.0
220
0.0
230
1.0
 70
     8
 71
     3
 72
    11
 73
     7
 74
     0
 42
0.000000001
 43
0.0000000001
 40
0.0
 40
0.0
 40
0.0
 40
0.0
 40
0.1977656495
 40
0.4205434749000001
 40
0.6808464986000004
 40
1.0
 40
1.0
 40
1.0
 40
1.0
 10
60.29189479000002
 20
65.29260363509999
 30
0.0
 10
60.22113132299997
 20
65.24417591379997
 30
0.0
 10
60.06390510729996
 20
65.15073793000002
 30
0.0
 10
59.79201793249998
 20
65.03361344039999
 30
0.0
 10
59.45574501520002
 20
64.94051566260001
 30
0.0
 10
59.20529444399996
 20
64.90935472610002
 30
0.0
 10
59.06711927709999
 20
64.90183284610004
 30
0.0
  0
SPLINE
  5
94A8D
330
1F
100
AcDbEntity
  8
1
100
AcDbSpline
210
0.0
220
0.0
230
1.0
 70
     8
 71
     3
 72
     9
 73
     5
 74
     0
 42
0.000000001
 43
0.0000000001
 40
0.0
 40
0.0
 40
0.0
 40
0.0
 40
0.2551041992
 40
1.0
 40
1.0
 40
1.0
 40
1.0
 10
52.7119047181
 20
75.2538024975
 30
0.0
 10
52.72326802090002
 20
75.22858341240001
 30
0.0
 10
52.7674935825
 20
75.1295822163
 30
0.0
 10
52.81057860909999
 20
75.03007268140001
 30
0.0
 10
52.84210135400002
 20
74.95570907200002
 30
0.0
  0
SPLINE
  5
94A8E
330
1F
100
AcDbEntity
  8
1
100
AcDbSpline
210
0.0
220
0.0
230
1.0
 70
     8
 71
     3
 72
     9
 73
     5
 74
     0
 42
0.000000001
 43
0.0000000001
 40
0.0
 40
0.0
 40
0.0
 40
0.0
 40
0.2553509075
 40
1.0
 40
1.0
 40
1.0
 40
1.0
 10
52.84209035119999
 20
74.9557344312
 30
0.0
 10
52.8513600203
 20
74.93386450969999
 30
0.0
 10
52.88803657430003
 20
74.84837871729998
 30
0.0
 10
52.92636982079997
 20
74.76359295670002
 30
0.0
 10
52.95621900979999
 20
74.70108525370003
 30
0.0
  0
SPLINE
  5
94A8F
330
1F
100
AcDbEntity
  8
1
100
AcDbSpline
210
0.0
220
0.0
230
1.0
 70
     8
 71
     3
 72
    11
 73
     7
 74
     0
 42
0.000000001
 43
0.0000000001
 40
0.0
 40
0.0
 40
0.0
 40
0.0
 40
0.2515550796999999
 40
0.5022283192
 40
0.7517294394
 40
1.0
 40
1.0
 40
1.0
 40
1.0
 10
37.72318830770001
 20
72.04720448759998
 30
0.0
 10
37.85790027250005
 20
72.24659743330002
 30
0.0
 10
38.17300783870003
 20
72.61560270869998
 30
0.0
 10
38.75542028849998
 20
73.04745656109999
 30
0.0
 10
39.41744251360001
 20
73.33567030450004
 30
0.0
 10
39.8912065336
 20
73.4208501482
 30
0.0
 10
40.1282872213
 20
73.43482757059998
 30
0.0
  0
SPLINE
  5
94A90
330
1F
100
AcDbEntity
  8
1
100
AcDbSpline
210
0.0
220
0.0
230
1.0
 70
     8
 71
     3
 72
     8
 73
     4
 74
     0
 42
0.000000001
 43
0.0000000001
 40
0.0
 40
0.0
 40
0.0
 40
0.0
 40
1.0
 40
1.0
 40
1.0
 40
1.0
 10
51.97382338399997
 20
75.27033321659999
 30
0.0
 10
51.9912759045
 20
75.27040327520004
 30
0.0
 10
52.00872985880005
 20
75.27030904300001
 30
0.0
 10
52.0261806034
 20
75.27005040780004
 30
0.0
  0
SPLINE
  5
94A91
330
1F
100
AcDbEntity
  8
1
100
AcDbSpline
210
0.0
220
0.0
230
1.0
 70
     8
 71
     3
 72
     9
 73
     5
 74
     0
 42
0.000000001
 43
0.0000000001
 40
0.0
 40
0.0
 40
0.0
 40
0.0
 40
0.2587422937
 40
1.0
 40
1.0
 40
1.0
 40
1.0
 10
52.0261806034
 20
75.27005040780004
 30
0.0
 10
52.08533312640003
 20
75.2691737163
 30
0.0
 10
52.31394105829997
 20
75.2653189863
 30
0.0
 10
52.5425207861
 20
75.25955783270004
 30
0.0
 10
52.7119047181
 20
75.2538024975
 30
0.0
  0
SPLINE
  5
94A92
330
1F
100
AcDbEntity
  8
1
100
AcDbSpline
210
0.0
220
0.0
230
1.0
 70
     8
 71
     3
 72
     9
 73
     5
 74
     0
 42
0.000000001
 43
0.0000000001
 40
0.0
 40
0.0
 40
0.0
 40
0.0
 40
0.2497054919
 40
1.0
 40
1.0
 40
1.0
 40
1.0
 10
52.7119047181
 20
75.2538024975
 30
0.0
 10
52.85087941720002
 20
75.25451245039997
 30
0.0
 10
53.40743487850001
 20
75.25714509240002
 30
0.0
 10
53.9639946393
 20
75.25891943680003
 30
0.0
 10
54.38157922480002
 20
75.25962720739997
 30
0.0
  0
LINE
  5
94A93
330
1F
100
AcDbEntity
  8
1
100
AcDbLine
 10
54.38157922480002
 20
75.25962720739997
 30
0.0
 11
54.46303113310006
 21
75.25975714110003
 31
0.0
  0
SPLINE
  5
94A94
330
1F
100
AcDbEntity
  8
1
100
AcDbSpline
210
0.0
220
0.0
230
1.0
 70
     8
 71
     3
 72
     9
 73
     5
 74
     0
 42
0.000000001
 43
0.0000000001
 40
0.0
 40
0.0
 40
0.0
 40
0.0
 40
0.2501200017
 40
1.0
 40
1.0
 40
1.0
 40
1.0
 10
54.46303113310006
 20
75.25975714110003
 30
0.0
 10
54.50220543739998
 20
75.25981570079998
 30
0.0
 10
54.65882741529998
 20
75.26008688980002
 30
0.0
 10
54.81544913409997
 20
75.26051540640001
 30
0.0
 10
54.93289624060003
 20
75.26093729639999
 30
0.0
  0
LINE
  5
94A95
330
1F
100
AcDbEntity
  8
1
100
AcDbLine
 10
54.93289624060003
 20
75.26093729639999
 30
0.0
 11
54.97166070489999
 21
75.26108017869998
 31
0.0
  0
SPLINE
  5
94A96
330
1F
100
AcDbEntity
  8
1
100
AcDbSpline
210
0.0
220
0.0
230
1.0
 70
     8
 71
     3
 72
     9
 73
     5
 74
     0
 42
0.000000001
 43
0.0000000001
 40
0.0
 40
0.0
 40
0.0
 40
0.0
 40
0.2505209022
 40
1.0
 40
1.0
 40
1.0
 40
1.0
 10
54.97166070489999
 20
75.26108017869998
 30
0.0
 10
55.03352816880004
 20
75.26131403450003
 30
0.0
 10
55.28048303290001
 20
75.26235892719999
 30
0.0
 10
55.52743592090002
 20
75.26387021129997
 30
0.0
 10
55.7125198393
 20
75.26526259329997
 30
0.0
  0
SPLINE
  5
94A97
330
1F
100
AcDbEntity
  8
1
100
AcDbSpline
210
0.0
220
0.0
230
1.0
 70
     8
 71
     3
 72
     9
 73
     5
 74
     0
 42
0.000000001
 43
0.0000000001
 40
0.0
 40
0.0
 40
0.0
 40
0.0
 40
0.2521570103
 40
1.0
 40
1.0
 40
1.0
 40
1.0
 10
52.84210135400002
 20
74.95570907200002
 30
0.0
 10
52.83435544359999
 20
74.92407431899997
 30
0.0
 10
52.80245739840001
 20
74.79890998639999
 30
0.0
 10
52.76583174450005
 20
74.6749465064
 30
0.0
 10
52.73574472079997
 20
74.58315844430003
 30
0.0
  0
SPLINE
  5
94A98
330
1F
100
AcDbEntity
  8
1
100
AcDbSpline
210
0.0
220
0.0
230
1.0
 70
     8
 71
     3
 72
    25
 73
    21
 74
     0
 42
0.000000001
 43
0.0000000001
 40
0.0
 40
0.0
 40
0.0
 40
0.0
 40
0.0086182984
 40
0.0172679284
 40
0.0266238606
 40
0.0372157948
 40
0.0493992621
 40
0.063394802
 40
0.0793241652
 40
0.0972481613
 40
0.1391391509
 40
0.1889718777
 40
0.246391213
 40
0.3108884954
 40
0.3818663224
 40
0.4586631559
 40
0.5405691598
 40
0.6268473386000001
 40
0.8094202537999999
 40
1.0
 40
1.0
 40
1.0
 40
1.0
 10
34.71744892060002
 20
66.1338510903
 30
0.0
 10
34.70329443310004
 20
66.13902942000001
 30
0.0
 10
34.67614276579999
 20
66.15338138860002
 30
0.0
 10
34.64295456249999
 20
66.18696332030001
 30
0.0
 10
34.61856934240002
 20
66.23121720629999
 30
0.0
 10
34.6026091665
 20
66.28543359370005
 30
0.0
 10
34.59469660439999
 20
66.34946411189999
 30
0.0
 10
34.59469194500002
 20
66.42324190340002
 30
0.0
 10
34.60248902080002
 20
66.50665113520003
 30
0.0
 10
34.6244163426
 20
66.63737926950003
 30
0.0
 10
34.67300732970006
 20
66.82322500879999
 30
0.0
 10
34.75774560120001
 20
67.07004758800002
 30
0.0
 10
34.87078432329997
 20
67.3484596631
 30
0.0
 10
35.01058795160003
 20
67.65554501419997
 30
0.0
 10
35.17544443230003
 20
67.9882216461
 30
0.0
 10
35.36337855280001
 20
68.34326211020003
 30
0.0
 10
35.57224271380005
 20
68.7173686054
 30
0.0
 10
35.88153271690001
 20
69.24713900399999
 30
0.0
 10
36.3042273336
 20
69.93059115370002
 30
0.0
 10
36.66253244149999
 20
70.47610461190001
 30
0.0
 10
36.84895197820003
 20
70.75238645359998
 30
0.0
  0
SPLINE
  5
94A99
330
1F
100
AcDbEntity
  8
1
100
AcDbSpline
210
0.0
220
0.0
230
1.0
 70
     8
 71
     3
 72
     9
 73
     5
 74
     0
 42
0.000000001
 43
0.0000000001
 40
0.0
 40
0.0
 40
0.0
 40
0.0
 40
0.5263420199000001
 40
1.0
 40
1.0
 40
1.0
 40
1.0
 10
47.72137246300002
 20
72.17743617440001
 30
0.0
 10
47.6532401682
 20
72.19602347669997
 30
0.0
 10
47.52153235960003
 20
72.223622156
 30
0.0
 10
47.38751356119998
 20
72.23513136720001
 30
0.0
 10
47.32398259700004
 20
72.2368164424
 30
0.0
  0
SPLINE
  5
94A9A
330
1F
100
AcDbEntity
  8
1
100
AcDbSpline
210
0.0
220
0.0
230
1.0
 70
     8
 71
     3
 72
     9
 73
     5
 74
     0
 42
0.000000001
 43
0.0000000001
 40
0.0
 40
0.0
 40
0.0
 40
0.0
 40
0.2547321715
 40
1.0
 40
1.0
 40
1.0
 40
1.0
 10
46.74092790840001
 20
71.29247336739999
 30
0.0
 10
46.73526503439997
 20
71.2979243334
 30
0.0
 10
46.7131422182
 20
71.31943478989999
 30
0.0
 10
46.69145834399997
 20
71.34139785300002
 30
0.0
 10
46.67558389279998
 20
71.35803601379999
 30
0.0
  0
SPLINE
  5
94A9B
330
1F
100
AcDbEntity
  8
1
100
AcDbSpline
210
0.0
220
0.0
230
1.0
 70
     8
 71
     3
 72
    11
 73
     7
 74
     0
 42
0.000000001
 43
0.0000000001
 40
0.0
 40
0.0
 40
0.0
 40
0.0
 40
0.2488730063
 40
0.4975221381
 40
0.7474163962000003
 40
1.0
 40
1.0
 40
1.0
 40
1.0
 10
48.88334554480002
 20
72.58127102610004
 30
0.0
 10
48.79973447600002
 20
72.60367487869998
 30
0.0
 10
48.62893148419999
 20
72.63594756879998
 30
0.0
 10
48.36812935710003
 20
72.6447447491
 30
0.0
 10
48.10777418540005
 20
72.61316770179998
 30
0.0
 10
47.93884326390002
 20
72.56525037240002
 30
0.0
 10
47.85641270950002
 20
72.53486879229999
 30
0.0
  0
SPLINE
  5
94A9C
330
1F
100
AcDbEntity
  8
1
100
AcDbSpline
210
0.0
220
0.0
230
1.0
 70
     8
 71
     3
 72
     9
 73
     5
 74
     0
 42
0.000000001
 43
0.0000000001
 40
0.0
 40
0.0
 40
0.0
 40
0.0
 40
0.5226041842
 40
1.0
 40
1.0
 40
1.0
 40
1.0
 10
47.21933885419997
 20
71.58268549639998
 30
0.0
 10
47.16114085620001
 20
71.61481436630002
 30
0.0
 10
47.04839285180002
 20
71.67382847429998
 30
0.0
 10
46.93258343799999
 20
71.72667264320003
 30
0.0
 10
46.87648541549997
 20
71.74992704680001
 30
0.0
  0
SPLINE
  5
94A9D
330
1F
100
AcDbEntity
  8
1
100
AcDbSpline
210
0.0
220
0.0
230
1.0
 70
     8
 71
     3
 72
    27
 73
    23
 74
     0
 42
0.000000001
 43
0.0000000001
 40
0.0
 40
0.0
 40
0.0
 40
0.0
 40
0.0022162874
 40
0.0044424757
 40
0.0095895786
 40
0.0164644768
 40
0.0254836202
 40
0.0368097346
 40
0.0505007599
 40
0.0665644504
 40
0.084979919
 40
0.1057072691
 40
0.1286924133
 40
0.1811623024
 40
0.2417558913
 40
0.3097110594
 40
0.3841616653
 40
0.4641548176
 40
0.5486664123000004
 40
0.6366158627000002
 40
0.8183083813999999
 40
1.0
 40
1.0
 40
1.0
 40
1.0
 10
48.40590597080001
 20
74.9828133819
 30
0.0
 10
48.40523065419997
 20
74.98539787129995
 30
0.0
 10
48.40458597000003
 20
74.99080681910001
 30
0.0
 10
48.4068319159
 20
75.00232478110004
 30
0.0
 10
48.4172801455
 20
75.01674785309998
 30
0.0
 10
48.4378837104
 20
75.0317567447
 30
0.0
 10
48.4673119257
 20
75.04650272480003
 30
0.0
 10
48.50577433329998
 20
75.06089088439998
 30
0.0
 10
48.55327288960001
 20
75.0749771397
 30
0.0
 10
48.60970720099999
 20
75.08868713300003
 30
0.0
 10
48.67491497959999
 20
75.1019917312
 30
0.0
 10
48.74869148119998
 20
75.11485794400002
 30
0.0
 10
48.86332754419999
 20
75.1321648435
 30
0.0
 10
49.02612798399997
 20
75.15202849200003
 30
0.0
 10
49.24330737260001
 20
75.1730360068
 30
0.0
 10
49.48725212200002
 20
75.19204158149999
 30
0.0
 10
49.75477479580002
 20
75.20902708270003
 30
0.0
 10
50.04240104020004
 20
75.2239836624
 30
0.0
 10
50.34640941940001
 20
75.23692012080002
 30
0.0
 10
50.77301625220002
 20
75.25162706239999
 30
0.0
 10
51.3168654227
 20
75.26455682510001
 30
0.0
 10
51.75483467390001
 20
75.2694541447
 30
0.0
 10
51.97382338399997
 20
75.27033321659999
 30
0.0
  0
SPLINE
  5
94A9E
330
1F
100
AcDbEntity
  8
1
100
AcDbSpline
210
0.0
220
0.0
230
1.0
 70
     8
 71
     3
 72
     8
 73
     4
 74
     0
 42
0.000000001
 43
0.0000000001
 40
0.0
 40
0.0
 40
0.0
 40
0.0
 40
1.0
 40
1.0
 40
1.0
 40
1.0
 10
36.84895197820003
 20
70.75238645359998
 30
0.0
 10
37.14023456630002
 20
71.1840798872
 30
0.0
 10
37.4316488641
 20
71.61568447700003
 30
0.0
 10
37.72318830770001
 20
72.04720448759998
 30
0.0
  0
SPLINE
  5
94A9F
330
1F
100
AcDbEntity
  8
1
100
AcDbSpline
210
0.0
220
0.0
230
1.0
 70
     8
 71
     3
 72
     9
 73
     5
 74
     0
 42
0.000000001
 43
0.0000000001
 40
0.0
 40
0.0
 40
0.0
 40
0.0
 40
0.2499266574
 40
1.0
 40
1.0
 40
1.0
 40
1.0
 10
55.7125198393
 20
75.26526259329997
 30
0.0
 10
55.77636226530001
 20
75.2657428784
 30
0.0
 10
56.03182132880005
 20
75.26355670849999
 30
0.0
 10
56.2871390354
 20
75.24488306219999
 30
0.0
 10
56.47733600510003
 20
75.22167530049998
 30
0.0
  0
ELLIPSE
  5
94AA0
330
1F
100
AcDbEntity
  8
1
100
AcDbEllipse
 10
687.0127608225
 20
-12.98978703319997
 30
0.0
 11
765.7154702374
 21
-84.10905277319999
 31
0.0
210
0.0
220
0.0
230
1.0
 40
0.0259646591
 41
2.551568861299997
 42
2.579852869299997
  0
ELLIPSE
  5
94AA1
330
1F
100
AcDbEntity
  8
1
100
AcDbEllipse
 10
568.6750599790997
 20
-0.000000001099977
 30
0.0
 11
667.5779861012999
 21
-73.3304893089
 31
0.0
210
0.0
220
0.0
230
1.0
 40
0.0262803917
 41
2.455934612000001
 42
2.458678652300001
  0
ELLIPSE
  5
94AA2
330
1F
100
AcDbEntity
  8
1
100
AcDbEllipse
 10
59.32357222850001
 20
68.9217171201
 30
0.0
 11
4.880206354600002
 21
2.284139473799998
 31
0.0
210
0.0
220
0.0
230
1.0
 40
0.6914173240000006
 41
4.352857343579578
 42
4.589332088479578
  0
ELLIPSE
  5
94AA3
330
1F
100
AcDbEntity
  8
1
100
AcDbEllipse
 10
70.74878916910002
 20
0.1150910053000018
 30
0.0
 11
131.1737693933004
 21
5.690633522800013
 31
0.0
210
0.0
220
0.0
230
1.0
 40
0.5754084015000002
 41
1.694173851299999
 42
1.722563456399996
  0
ELLIPSE
  5
94AA4
330
1F
100
AcDbEntity
  8
1
100
AcDbEllipse
 10
128.5066867839999
 20
0.5960109039000088
 30
0.0
 11
401.7963757845
 21
6.763867396100001
 31
0.0
210
0.0
220
0.0
230
1.0
 40
0.189440841
 41
1.770150426599998
 42
1.7893777315
  0
ELLIPSE
  5
94AA5
330
1F
100
AcDbEntity
  8
1
100
AcDbEllipse
 10
51.46506652660002
 20
71.9917974935
 30
0.0
 11
2.288552751700001
 21
-0.5268404915000009
 31
0.0
210
0.0
220
0.0
230
1.0
 40
0.0705638879
 41
3.236891304479383
 42
3.623223624279528
  0
ELLIPSE
  5
94AA6
330
1F
100
AcDbEntity
  8
1
100
AcDbEllipse
 10
43.39209321840002
 20
67.36309193579998
 30
0.0
 11
14.2090792095
 21
8.698597900600001
 31
0.0
210
0.0
220
0.0
230
1.0
 40
0.0916774162
 41
0.8957929549000148
 42
1.095635641899995
  0
DIMENSION
  5
94AA8
330
1F
100
AcDbEntity
  8
2
100
AcDbDimension
  2
*D210109
 10
63.50000000000004
 20
99.90388394390024
 30
0.0
 11
94.96666666666669
 21
103.9538839439002
 31
0.0
 70
    32
  1
<>(MAX)
 71
     5
 42
8.200000000000001
  3
コピー - ISO-25
100
AcDbAlignedDimension
 13
55.30000000000004
 23
76.19999999889995
 33
0.0
 14
63.50000000000004
 24
75.39999999890191
 34
0.0
 50
0.0
100
AcDbRotatedDimension
1001
ACAD
1000
DSTYLE
1002
{
1070
   170
1070
     1
1070
   171
1070
     3
1070
   143
1040
0.0393700787401575
1070
   285
1070
     4
1070
     4
1000
"
1070
   271
1070
     8
1070
    40
1040
1.0
1002
}
1001
ACAD_DSTYLE_DIMINSPECT
1070
   393
1070
     0
1070
   394
1070
     0
1070
   395
1000

1070
   396
1000

  0
LINE
  5
94BCE
330
1F
100
AcDbEntity
  8
sk3
100
AcDbLine
 10
29.00000000014671
 20
20.29996312519997
 30
0.0
 11
29.00000000014671
 21
-20.30003687260002
 31
0.0
  0
LINE
  5
94BCF
330
1F
100
AcDbEntity
  8
sk3
100
AcDbLine
 10
35.99999999995072
 20
20.29996312519997
 30
0.0
 11
35.99999999995072
 21
-20.30003687260002
 31
0.0
  0
LINE
  5
94BD0
330
1F
100
AcDbEntity
  8
sk3
100
AcDbLine
 10
39.10953503484936
 20
-18.85003687260003
 30
0.0
 11
39.10953503484936
 21
18.84996312519998
 31
0.0
  0
LINE
  5
94CE7
330
1F
100
AcDbEntity
  8
cut
100
AcDbLine
 10
53.5740028863
 20
75.65719748599997
 30
0.0
 11
53.71080692260003
 21
75.73089283489998
 31
0.0
  0
LINE
  5
94CE8
330
1F
100
AcDbEntity
  8
cut
100
AcDbLine
 10
52.74802496940006
 20
75.21362684679997
 30
0.0
 11
53.26442228080001
 21
75.48971587619995
 31
0.0
  0
LINE
  5
94CE9
330
1F
100
AcDbEntity
  8
cut
100
AcDbLine
 10
52.31604000249999
 20
74.98563216039997
 30
0.0
 11
52.74802496940006
 21
75.21362684679997
 31
0.0
  0
LINE
  5
94CEA
330
1F
100
AcDbEntity
  8
cut
100
AcDbLine
 10
51.54106231610003
 20
74.57845569059998
 30
0.0
 11
52.31604000249999
 21
74.98563216039997
 31
0.0
  0
LINE
  5
94CEB
330
1F
100
AcDbEntity
  8
cut
100
AcDbLine
 10
49.8433953417
 20
73.69181981719998
 30
0.0
 11
51.54106231610003
 21
74.57845569059998
 31
0.0
  0
LINE
  5
94CEC
330
1F
100
AcDbEntity
  8
cut
100
AcDbLine
 10
48.8810150084
 20
73.19207443099998
 30
0.0
 11
49.8433953417
 21
73.69181981719998
 31
0.0
  0
LINE
  5
94CED
330
1F
100
AcDbEntity
  8
cut
100
AcDbLine
 10
47.73630522470003
 20
72.54918547139998
 30
0.0
 11
47.75675740729999
 21
72.5620086243
 31
0.0
  0
LINE
  5
94CEE
330
1F
100
AcDbEntity
  8
cut
100
AcDbLine
 10
47.75535589850004
 20
72.56115671399999
 30
0.0
 11
47.77479105730001
 21
72.57257372939996
 31
0.0
  0
LINE
  5
94CEF
330
1F
100
AcDbEntity
  8
cut
100
AcDbLine
 10
47.77479105730001
 20
72.57257372930002
 30
0.0
 11
48.00638099369999
 21
72.7036336187
 31
0.0
  0
LINE
  5
94CF0
330
1F
100
AcDbEntity
  8
cut
100
AcDbLine
 10
48.00638099369999
 20
72.7036336187
 30
0.0
 11
48.24149331670006
 21
72.83598871639998
 31
0.0
  0
LINE
  5
94CF1
330
1F
100
AcDbEntity
  8
cut
100
AcDbLine
 10
48.24149331670006
 20
72.83598871639998
 30
0.0
 11
48.48012944450003
 21
72.9696349646
 31
0.0
  0
LINE
  5
94CF2
330
1F
100
AcDbEntity
  8
cut
100
AcDbLine
 10
48.48012944450003
 20
72.9696349646
 30
0.0
 11
48.72229504910003
 21
73.10455613209995
 31
0.0
  0
LINE
  5
94CF3
330
1F
100
AcDbEntity
  8
cut
100
AcDbLine
 10
53.90060317540005
 20
75.83422197879997
 30
0.0
 11
54.11442526940001
 21
75.95290522809995
 31
0.0
  0
LWPOLYLINE
  5
94CF4
330
1F
100
AcDbEntity
  8
cut
100
AcDbPolyline
 90
        6
 70
     0
 43
0.0
 10
48.72229504910003
 20
73.10455613209995
 10
48.85191200750004
 20
73.17647108079995
 10
48.85914888160002
 20
73.18041656930001
 10
48.86641167310003
 20
73.18433229049998
 10
48.87370038200001
 20
73.18821824439999
 10
48.8810150084
 20
73.19207443099998
  0
LINE
  5
94CF5
330
1F
100
AcDbEntity
  8
cut
100
AcDbLine
 10
53.81998709050002
 20
75.79002992659997
 30
0.0
 11
53.90060317540005
 21
75.83422197879997
 31
0.0
  0
LINE
  5
94CF6
330
1F
100
AcDbEntity
  8
cut
100
AcDbLine
 10
53.71080692260003
 20
75.73089283489998
 30
0.0
 11
53.81998709050002
 21
75.79002992659997
 31
0.0
  0
LINE
  5
94CF7
330
1F
100
AcDbEntity
  8
cut
100
AcDbLine
 10
53.29345485260002
 20
75.50538510749998
 30
0.0
 11
53.5740028863
 21
75.65719748599997
 31
0.0
  0
LINE
  5
94CF8
330
1F
100
AcDbEntity
  8
cut
100
AcDbLine
 10
53.26442228080001
 20
75.48971587619995
 30
0.0
 11
53.29345485260002
 21
75.50538510749998
 31
0.0
  0
LWPOLYLINE
  5
94CF9
330
1F
100
AcDbEntity
  8
cut
100
AcDbPolyline
 90
       11
 70
     0
 43
0.0
 10
47.56836013660002
 20
72.39997297739996
 10
47.5838407028
 20
72.41800354520001
 10
47.59886732600003
 20
72.43444631479997
 10
47.61439173800002
 20
72.45044368840002
 10
47.63042524030001
 20
72.46600890169998
 10
47.64695653139996
 20
72.48112871899997
 10
47.66394737970003
 20
72.4957582289
 10
47.6814100653
 20
72.50990376719993
 10
47.69933230810003
 20
72.523558998
 10
47.71763903590001
 20
72.53666000160001
 10
47.73630522470003
 20
72.54918547139998
  0
LWPOLYLINE
  5
94CFA
330
1F
100
AcDbEntity
  8
cut
100
AcDbPolyline
 90
       11
 70
     0
 43
0.0
 10
47.58183180480003
 20
72.41572633009996
 10
47.59571882600002
 20
72.4310803386
 10
47.61002441580004
 20
72.44603900779998
 10
47.62475624780003
 20
72.46061100149994
 10
47.63991824540002
 20
72.47480049249998
 10
47.65549933220003
 20
72.48859369009996
 10
47.67148468140002
 20
72.50197231229998
 10
47.68785749090002
 20
72.51491781609995
 10
47.70459305480001
 20
72.52741061209997
 10
47.7216646912
 20
72.53943084959995
 10
47.73905171270004
 20
72.55096297529997
  0
LINE
  5
94CFB
330
1F
100
AcDbEntity
  8
cut
100
AcDbLine
 10
47.52875970430003
 20
72.34783576209998
 30
0.0
 11
47.54272577730003
 21
72.36733142279994
 31
0.0
  0
LINE
  5
94CFC
330
1F
100
AcDbEntity
  8
cut
100
AcDbLine
 10
47.54173802869998
 20
72.36598861019996
 30
0.0
 11
47.55527605420005
 21
72.38377469289997
 31
0.0
  0
LINE
  5
94CFD
330
1F
100
AcDbEntity
  8
cut
100
AcDbLine
 10
47.55531843640002
 20
72.38383491159999
 30
0.0
 11
47.56931619630003
 21
72.40112058459998
 31
0.0
  0
LWPOLYLINE
  5
94CFE
330
1F
100
AcDbEntity
  8
cut
100
AcDbPolyline
 90
       40
 70
     0
 43
0.0
 10
59.09312821080002
 20
60.41040436769997
 10
59.07397959190004
 20
60.39729049299996
 10
59.05447121520005
 20
60.3847374475
 10
59.03460308060002
 20
60.37274523139997
 10
59.01434608470001
 20
60.36129872409998
 10
58.99372933090003
 20
60.35041304619999
 10
58.97284012940004
 20
60.34013355839999
 10
58.95168910050003
 20
60.33046908270001
 10
58.93026562380001
 20
60.32141079719997
 10
58.90862514890002
 20
60.3129775969
 10
58.88678302310005
 20
60.30517436469995
 10
58.86472389889999
 20
60.29799621770003
 10
58.84245718350005
 20
60.29144740200003
 10
58.81995672950004
 20
60.28552124459999
 10
58.79724868410002
 20
60.28022441859997
 10
58.77442089709997
 20
60.2755811898
 10
58.7514788983
 20
60.27159690819996
 10
58.72841715789999
 20
60.26826622389997
 10
58.70530693480001
 20
60.26559735209997
 10
58.68216947260001
 20
60.26359194469995
 10
58.65898352780003
 20
60.26224834979995
 10
58.63575662860004
 20
60.26156982689997
 10
58.61246738180003
 20
60.26155613989994
 10
58.58913718060003
 20
60.26220752489996
 10
58.56583773380001
 20
60.26352794919995
 10
58.54256201440003
 20
60.26552335009995
 10
58.51931704940003
 20
60.26818779029998
 10
58.4961956282
 20
60.27150742529999
 10
58.47322557030007
 20
60.27547916559996
 10
58.45037905619998
 20
60.28010610079997
 10
58.42766541760003
 20
60.28538365419996
 10
58.40506819880002
 20
60.2913144954
 10
58.38260385540005
 20
60.29789595489996
 10
58.36033108650005
 20
60.30511544819995
 10
58.33823856540002
 20
60.3129793471
 10
58.31633761869998
 20
60.32148127969997
 10
58.29472092470004
 20
60.3305895455
 10
58.27341937609999
 20
60.34029357769997
 10
58.25240208020002
 20
60.35060394309994
 10
58.23166903690006
 20
60.36152064160001
  0
LWPOLYLINE
  5
94CFF
330
1F
100
AcDbEntity
  8
cut
100
AcDbPolyline
 90
       11
 70
     0
 43
0.0
 10
47.43698388170005
 20
72.16645544739998
 10
47.44402241640003
 20
72.18601146250001
 10
47.45159021010002
 20
72.20533224639996
 10
47.45967807280002
 20
72.22440144429999
 10
47.46828180690002
 20
72.24321396019997
 10
47.4773984623
 20
72.26176751299998
 10
47.487025444
 20
72.28005929919998
 10
47.49716157569999
 20
72.29808442529996
 10
47.50780603569999
 20
72.31583747569999
 10
47.51895595079999
 20
72.33331012359997
 10
47.5306002416
 20
72.35048239939998
  0
LINE
  5
94D00
330
1F
100
AcDbEntity
  8
cut
100
AcDbLine
 10
47.41889913080004
 20
72.10562287609997
 30
0.0
 11
47.4246897445
 21
72.12725022569998
 31
0.0
  0
LINE
  5
94D01
330
1F
100
AcDbEntity
  8
cut
100
AcDbLine
 10
47.42453584980004
 20
72.1267177053
 30
0.0
 11
47.43112796220001
 21
72.14871129169996
 31
0.0
  0
LWPOLYLINE
  5
94D02
330
1F
100
AcDbEntity
  8
cut
100
AcDbPolyline
 90
       11
 70
     0
 43
0.0
 10
47.4304850439
 20
72.14668337099998
 10
47.4381859885
 20
72.16991970099996
 10
47.44586396659999
 20
72.19086301719993
 10
47.45416175330003
 20
72.21155367680001
 10
47.4630511246
 20
72.23194261629998
 10
47.47252246780003
 20
72.25201371229997
 10
47.4825853956
 20
72.27178308840001
 10
47.4932405218
 20
72.2912500507
 10
47.50449888340003
 20
72.3104358187
 10
47.5163494433
 20
72.32931917309996
 10
47.52875970430003
 20
72.34783576209998
  0
LINE
  5
94D03
330
1F
100
AcDbEntity
  8
cut
100
AcDbLine
 10
47.41376325339999
 20
72.08385296540001
 30
0.0
 11
47.41914428080004
 21
72.10659413099995
 31
0.0
  0
LINE
  5
94D04
330
1F
100
AcDbEntity
  8
cut
100
AcDbLine
 10
63.05666741550002
 20
66.80158860040001
 30
0.0
 11
62.71273688449999
 21
66.21999988149998
 31
0.0
  0
LINE
  5
94D05
330
1F
100
AcDbEntity
  8
cut
100
AcDbLine
 10
62.71273688449999
 20
66.21999988149998
 30
0.0
 11
62.46303243299999
 21
65.79933551659997
 31
0.0
  0
LINE
  5
94D06
330
1F
100
AcDbEntity
  8
cut
100
AcDbLine
 10
62.46303243299999
 20
65.79933551659997
 30
0.0
 11
62.21328876260006
 21
65.37982869839999
 31
0.0
  0
LINE
  5
94D07
330
1F
100
AcDbEntity
  8
cut
100
AcDbLine
 10
62.21328876260006
 20
65.37982869839999
 30
0.0
 11
61.91609595590003
 21
64.88209916199997
 31
0.0
  0
LINE
  5
94D08
330
1F
100
AcDbEntity
  8
cut
100
AcDbLine
 10
61.91609595590003
 20
64.88209916199997
 30
0.0
 11
61.66731634139997
 21
64.4666149886
 31
0.0
  0
LINE
  5
94D09
330
1F
100
AcDbEntity
  8
cut
100
AcDbLine
 10
61.66731634139997
 20
64.4666149886
 30
0.0
 11
61.33472983409999
 21
63.91272308649996
 31
0.0
  0
LINE
  5
94D0A
330
1F
100
AcDbEntity
  8
cut
100
AcDbLine
 10
61.33472983409999
 20
63.91272308649996
 30
0.0
 11
61.00184011810004
 21
63.35998760639995
 31
0.0
  0
LINE
  5
94D0B
330
1F
100
AcDbEntity
  8
cut
100
AcDbLine
 10
61.00184011810004
 20
63.35998760639995
 30
0.0
 11
60.6691029079
 21
62.80905576949999
 31
0.0
  0
LINE
  5
94D0C
330
1F
100
AcDbEntity
  8
cut
100
AcDbLine
 10
60.6691029079
 20
62.80905576949999
 30
0.0
 11
60.33609723560002
 21
62.25913247450001
 31
0.0
  0
LWPOLYLINE
  5
94D0D
330
1F
100
AcDbEntity
  8
cut
100
AcDbPolyline
 90
        6
 70
     0
 43
0.0
 10
60.33609723560002
 20
62.25913247450001
 10
59.99783016210002
 20
61.70194974419996
 10
59.99350347180004
 20
61.6949412757
 10
59.98914433850004
 20
61.68795306829998
 10
59.98475276220003
 20
61.68098512199998
 10
59.9803287429
 20
61.67403743689999
  0
LINE
  5
94D0E
330
1F
100
AcDbEntity
  8
cut
100
AcDbLine
 10
59.9803287429
 20
61.67403743689999
 30
0.0
 11
59.66922384940002
 21
61.19344223199998
 31
0.0
  0
LINE
  5
94D0F
330
1F
100
AcDbEntity
  8
cut
100
AcDbLine
 10
59.66922384940002
 20
61.19344223199998
 30
0.0
 11
59.3021356014
 21
60.6273801259
 31
0.0
  0
LWPOLYLINE
  5
94D10
330
1F
100
AcDbEntity
  8
cut
100
AcDbPolyline
 90
       16
 70
     0
 43
0.0
 10
59.30213560159998
 20
60.62738012630001
 10
59.29103630590001
 20
60.61073749369995
 10
59.27950420580001
 20
60.5943714202
 10
59.26753930140003
 20
60.57828190559995
 10
59.25512721570001
 20
60.56245096329996
 10
59.24228232560003
 20
60.5468965801
 10
59.2290477618
 20
60.53167271619997
 10
59.21543578130004
 20
60.51679398429996
 10
59.20143412700006
 20
60.5022457718
 10
59.18704915880002
 20
60.4880382013
 10
59.17226722830005
 20
60.47415842969996
 10
59.15710198389999
 20
60.46061929999996
 10
59.14160072950003
 20
60.44746946380001
 10
59.12577923310003
 20
60.43472513829994
 10
59.10962172690003
 20
60.42237010619999
 10
59.09312821070002
 20
60.41040436759999
  0
LWPOLYLINE
  5
94D11
330
1F
100
AcDbEntity
  8
cut
100
AcDbPolyline
 90
        9
 70
     0
 43
0.0
 10
47.39612161220001
 20
71.92091675659999
 10
47.39614721299997
 20
71.9269986864
 10
47.39667394459998
 20
71.9499186196
 10
47.39786830369999
 20
71.97267641519998
 10
47.39972935290004
 20
71.99521922739994
 10
47.40225802970004
 20
72.01759990209996
 10
47.40544070850003
 20
72.03982949839995
 10
47.40927497999999
 20
72.06191677110002
 10
47.41376325339999
 20
72.08385296540001
  0
LWPOLYLINE
  5
94D12
330
1F
100
AcDbEntity
  8
cut
100
AcDbPolyline
 90
        9
 70
     0
 43
0.0
 10
47.3961201781
 20
71.92091675699998
 10
47.39638803
 20
71.94122260860002
 10
47.39723857060002
 20
71.96235409409997
 10
47.39867017010001
 20
71.98337392939999
 10
47.40067526650004
 20
72.0042601719
 10
47.40324494320001
 20
72.02499697689995
 10
47.40637271100005
 20
72.04557588169994
 10
47.41006178990002
 20
72.06601795099998
 10
47.41431782729997
 20
72.08635163139994
  0
LWPOLYLINE
  5
94D13
330
1F
100
AcDbEntity
  8
cut
100
AcDbPolyline
 90
        5
 70
     0
 43
0.0
 10
47.40089738540003
 20
71.83531983889999
 10
47.39868237340002
 20
71.85824924989998
 10
47.39715142749999
 20
71.88116400149993
 10
47.39630454750002
 20
71.90406409389999
 10
47.39612161220001
 20
71.92091675659999
  0
LWPOLYLINE
  5
94D14
330
1F
100
AcDbEntity
  8
cut
100
AcDbPolyline
 90
       16
 70
     0
 43
0.0
 10
47.4891375256
 20
71.55070455739997
 10
47.47985082650003
 20
71.5688072026
 10
47.47104222530007
 20
71.58707635219996
 10
47.46271172179999
 20
71.60551200610001
 10
47.45485399320003
 20
71.62413559930001
 10
47.4474743624
 20
71.64292569689997
 10
47.44058879820002
 20
71.66181799409997
 10
47.43420373770002
 20
71.68079531739994
 10
47.42831274369999
 20
71.69987484040001
 10
47.42291247340003
 20
71.71904377899995
 10
47.4179985524
 20
71.73831971349994
 10
47.41357535499999
 20
71.75768506369997
 10
47.40965266159999
 20
71.7770743039
 10
47.40623373220002
 20
71.79646559239995
 10
47.4033153068
 20
71.81588077099997
 10
47.40089738530005
 20
71.83531983979998
  0
LINE
  5
94D15
330
1F
100
AcDbEntity
  8
cut
100
AcDbLine
 10
48.54957963569997
 20
69.4506351467
 30
0.0
 11
48.0903030977
 21
70.35569741979998
 31
0.0
  0
LINE
  5
94D16
330
1F
100
AcDbEntity
  8
cut
100
AcDbLine
 10
48.92979420030004
 20
68.6971581084
 30
0.0
 11
48.54957963569997
 21
69.4506351467
 31
0.0
  0
LINE
  5
94D17
330
1F
100
AcDbEntity
  8
cut
100
AcDbLine
 10
48.0903030977
 20
70.35569741989997
 30
0.0
 11
48.08246920910002
 21
70.37124977689996
 31
0.0
  0
LINE
  5
94D18
330
1F
100
AcDbEntity
  8
cut
100
AcDbLine
 10
49.31586028860003
 20
67.92781722919993
 30
0.0
 11
48.92979420030004
 21
68.6971581084
 31
0.0
  0
LINE
  5
94D19
330
1F
100
AcDbEntity
  8
cut
100
AcDbLine
 10
49.63384984740006
 20
67.29085059959999
 30
0.0
 11
49.31586028860003
 21
67.92781722919993
 31
0.0
  0
LINE
  5
94D1A
330
1F
100
AcDbEntity
  8
cut
100
AcDbLine
 10
50.3323732904
 20
65.88008991849996
 30
0.0
 11
49.63384984740006
 21
67.29085059959999
 31
0.0
  0
LINE
  5
94D1B
330
1F
100
AcDbEntity
  8
cut
100
AcDbLine
 10
48.08246920910002
 20
70.37124977689996
 30
0.0
 11
48.07463451589999
 21
70.38712964119998
 31
0.0
  0
LINE
  5
94D1C
330
1F
100
AcDbEntity
  8
cut
100
AcDbLine
 10
50.76702548480003
 20
64.99345107359999
 30
0.0
 11
50.3323732904
 21
65.88008991849996
 31
0.0
  0
LINE
  5
94D1D
330
1F
100
AcDbEntity
  8
cut
100
AcDbLine
 10
50.9559083823
 20
64.60578761099997
 30
0.0
 11
50.76702548390002
 21
64.9934510754
 31
0.0
  0
LWPOLYLINE
  5
94D1E
330
1F
100
AcDbEntity
  8
cut
100
AcDbPolyline
 90
        9
 70
     0
 43
0.0
 10
48.00469689789999
 20
70.53235791989999
 10
47.94207263060004
 20
70.66099672629997
 10
47.87892621630001
 20
70.78925343200002
 10
47.81525562260006
 20
70.91713044429997
 10
47.75106288180004
 20
71.04462535589998
 10
47.686354092
 20
71.17173094520001
 10
47.62113128560001
 20
71.29844480509994
 10
47.55539243000001
 20
71.42476934259995
 10
47.48913752530003
 20
71.55070455779998
  0
LINE
  5
94D1F
330
1F
100
AcDbEntity
  8
cut
100
AcDbLine
 10
48.07463451589999
 20
70.38712964119998
 30
0.0
 11
48.00469689789999
 21
70.53235791989999
 31
0.0
  0
LINE
  5
94D20
330
1F
100
AcDbEntity
  8
cut
100
AcDbLine
 10
63.4949357221
 20
74.03578502879998
 30
0.0
 11
63.50000000000003
 21
75.3999999989
 31
0.0
  0
LINE
  5
94D21
330
1F
100
AcDbEntity
  8
cut
100
AcDbLine
 10
63.4949357221
 20
74.03578502879998
 30
0.0
 11
63.49481348180002
 21
74.02689448619998
 31
0.0
  0
LINE
  5
94D22
330
1F
100
AcDbEntity
  8
cut
100
AcDbLine
 10
63.26542787270003
 20
67.89478268059998
 30
0.0
 11
63.25994032209999
 21
67.5394861675
 31
0.0
  0
LINE
  5
94D23
330
1F
100
AcDbEntity
  8
cut
100
AcDbLine
 10
63.49481348180002
 20
74.02689448619998
 30
0.0
 11
63.4944514573
 21
74.0090654882
 31
0.0
  0
LINE
  5
94D24
330
1F
100
AcDbEntity
  8
cut
100
AcDbLine
 10
63.27312516570001
 20
68.2623562864
 30
0.0
 11
63.26542787270003
 21
67.89478268059998
 31
0.0
  0
LWPOLYLINE
  5
94D25
330
1F
100
AcDbEntity
  8
cut
100
AcDbPolyline
 90
       25
 70
     0
 43
0.0
 10
63.25994032220004
 20
67.53948617449998
 10
63.25913174720003
 20
67.50595060230001
 10
63.25761407109999
 20
67.47263661779999
 10
63.25538729389997
 20
67.43954422099996
 10
63.2524412914
 20
67.40666594719994
 10
63.24878618780005
 20
67.3740092612
 10
63.24445235600004
 20
67.34159655679997
 10
63.2394379302
 20
67.30943547829998
 10
63.23374477619998
 20
67.2775183814
 10
63.227408864
 20
67.24584472790002
 10
63.22043384950003
 20
67.21441039639995
 10
63.21281607670002
 20
67.18321950820001
 10
63.20458054740001
 20
67.15228388979999
 10
63.19573871410002
 20
67.12160940609999
 10
63.18627912410002
 20
67.09119019209999
 10
63.17619242110001
 20
67.06102047959996
 10
63.16548008340001
 20
67.03109023139997
 10
63.15414063270001
 20
67.00140948469992
 10
63.14216027650005
 20
66.97200258250001
 10
63.12953901490002
 20
66.94286919469994
 10
63.11627684800001
 20
66.91400965139997
 10
63.10235998300001
 20
66.88544928569996
 10
63.08778382250003
 20
66.85719654179997
 10
63.07255296400003
 20
66.82924297549999
 10
63.05666740740004
 20
66.80158858679999
  0
LINE
  5
94D26
330
1F
100
AcDbEntity
  8
cut
100
AcDbLine
 10
63.28125474450004
 20
68.57506146509996
 30
0.0
 11
63.27312516570001
 21
68.2623562864
 31
0.0
  0
LINE
  5
94D27
330
1F
100
AcDbEntity
  8
cut
100
AcDbLine
 10
63.4944514573
 20
74.0090654882
 30
0.0
 11
63.49393270760001
 21
73.9911726066
 31
0.0
  0
LINE
  5
94D28
330
1F
100
AcDbEntity
  8
cut
100
AcDbLine
 10
63.29011315200002
 20
68.86488003969997
 30
0.0
 11
63.28125474450004
 21
68.57506146509996
 31
0.0
  0
LINE
  5
94D29
330
1F
100
AcDbEntity
  8
cut
100
AcDbLine
 10
63.30021102709999
 20
69.15409272609998
 30
0.0
 11
63.29011315200002
 21
68.86488003969997
 31
0.0
  0
LINE
  5
94D2A
330
1F
100
AcDbEntity
  8
cut
100
AcDbLine
 10
63.49393270760001
 20
73.9911726066
 30
0.0
 11
63.465984151
 21
73.25605780249998
 31
0.0
  0
LINE
  5
94D2B
330
1F
100
AcDbEntity
  8
cut
100
AcDbLine
 10
63.465984151
 20
73.25605780249998
 30
0.0
 11
63.43209023800003
 21
72.38487821649994
 31
0.0
  0
LINE
  5
94D2C
330
1F
100
AcDbEntity
  8
cut
100
AcDbLine
 10
63.43209023800003
 20
72.38487821649994
 30
0.0
 11
63.39787882670001
 21
71.52592153059998
 31
0.0
  0
LINE
  5
94D2D
330
1F
100
AcDbEntity
  8
cut
100
AcDbLine
 10
63.39787882670001
 20
71.52592153059998
 30
0.0
 11
63.36392690610003
 21
70.69246201779998
 31
0.0
  0
LINE
  5
94D2E
330
1F
100
AcDbEntity
  8
cut
100
AcDbLine
 10
63.31404953620003
 20
69.50074854269995
 30
0.0
 11
63.30021102709999
 21
69.15409272609998
 31
0.0
  0
LINE
  5
94D2F
330
1F
100
AcDbEntity
  8
cut
100
AcDbLine
 10
63.36392690610003
 20
70.69246201779998
 30
0.0
 11
63.33126391810001
 21
69.90795696849993
 31
0.0
  0
LINE
  5
94D30
330
1F
100
AcDbEntity
  8
cut
100
AcDbLine
 10
63.32143853110004
 20
69.67545062549999
 30
0.0
 11
63.31404953620003
 21
69.50074854269995
 31
0.0
  0
LINE
  5
94D31
330
1F
100
AcDbEntity
  8
cut
100
AcDbLine
 10
63.33126391810001
 20
69.90795696849993
 30
0.0
 11
63.32143853110004
 21
69.67545062549999
 31
0.0
  0
LINE
  5
94D32
330
1F
100
AcDbEntity
  8
cut
100
AcDbLine
 10
57.22543832220001
 20
60.89405612149993
 30
0.0
 11
57.08788035320001
 21
60.96445850579994
 31
0.0
  0
LINE
  5
94D33
330
1F
100
AcDbEntity
  8
cut
100
AcDbLine
 10
57.08788035320001
 20
60.96445850579994
 30
0.0
 11
57.07228235400001
 21
60.97256868169996
 31
0.0
  0
LWPOLYLINE
  5
94D34
330
1F
100
AcDbEntity
  8
cut
100
AcDbPolyline
 90
        4
 70
     0
 43
0.0
 10
57.60929114470005
 20
60.69463961079998
 10
57.48221300350005
 20
60.76116416659999
 10
57.35426144880003
 20
60.8276340919
 10
57.22543832220001
 20
60.89405612149993
  0
LINE
  5
94D35
330
1F
100
AcDbEntity
  8
cut
100
AcDbLine
 10
57.8608382354
 20
60.56146701590002
 30
0.0
 11
57.60929114470005
 21
60.69463961079998
 31
0.0
  0
LINE
  5
94D36
330
1F
100
AcDbEntity
  8
cut
100
AcDbLine
 10
57.07228235400001
 20
60.97256868169996
 30
0.0
 11
57.0568557443
 21
60.98075042309996
 31
0.0
  0
LINE
  5
94D37
330
1F
100
AcDbEntity
  8
cut
100
AcDbLine
 10
56.03880473850003
 20
61.53053718919995
 30
0.0
 11
53.14052240590005
 21
63.08727665239995
 31
0.0
  0
LINE
  5
94D38
330
1F
100
AcDbEntity
  8
cut
100
AcDbLine
 10
56.24520259510004
 20
61.41920921249999
 30
0.0
 11
56.03880473850003
 21
61.53053718919995
 31
0.0
  0
LINE
  5
94D39
330
1F
100
AcDbEntity
  8
cut
100
AcDbLine
 10
56.51575174860003
 20
61.27317524419999
 30
0.0
 11
56.24520259510004
 21
61.41920921249999
 31
0.0
  0
LINE
  5
94D3A
330
1F
100
AcDbEntity
  8
cut
100
AcDbLine
 10
56.78375342479998
 20
61.12839541659997
 30
0.0
 11
56.51575174860003
 21
61.27317524419999
 31
0.0
  0
LINE
  5
94D3B
330
1F
100
AcDbEntity
  8
cut
100
AcDbLine
 10
57.0568557443
 20
60.98075042309996
 30
0.0
 11
56.78375342479998
 21
61.12839541659997
 31
0.0
  0
LINE
  5
94D3C
330
1F
100
AcDbEntity
  8
cut
100
AcDbLine
 10
53.14052240590005
 20
63.08727665239995
 30
0.0
 11
52.99979081580002
 21
63.16324314189995
 31
0.0
  0
LWPOLYLINE
  5
94D3D
330
1F
100
AcDbEntity
  8
cut
100
AcDbPolyline
 90
        4
 70
     0
 43
0.0
 10
58.23166903709998
 20
60.36152064149995
 10
58.1089248177
 20
60.4281971245
 10
57.98531455040002
 20
60.49484591599997
 10
57.8608382354
 20
60.56146701590002
  0
LINE
  5
94D3E
330
1F
100
AcDbEntity
  8
cut
100
AcDbLine
 10
52.99979081580002
 20
63.16324314189995
 30
0.0
 11
52.86121723750003
 21
63.23882352079994
 31
0.0
  0
LINE
  5
94D3F
330
1F
100
AcDbEntity
  8
cut
100
AcDbLine
 10
52.86121723750003
 20
63.23882352079994
 30
0.0
 11
52.72337788540003
 21
63.31481747419997
 31
0.0
  0
LINE
  5
94D40
330
1F
100
AcDbEntity
  8
cut
100
AcDbLine
 10
52.72337788540003
 20
63.31481747419997
 30
0.0
 11
52.58528522280002
 21
63.39169092139997
 31
0.0
  0
LINE
  5
94D41
330
1F
100
AcDbEntity
  8
cut
100
AcDbLine
 10
52.58528522280002
 20
63.39169092139997
 30
0.0
 11
52.44766855900004
 21
63.4690831214
 31
0.0
  0
LINE
  5
94D42
330
1F
100
AcDbEntity
  8
cut
100
AcDbLine
 10
52.44766855900004
 20
63.4690831214
 30
0.0
 11
52.30871426870002
 21
63.5479786175
 31
0.0
  0
LINE
  5
94D43
330
1F
100
AcDbEntity
  8
cut
100
AcDbLine
 10
52.30871426870002
 20
63.5479786175
 30
0.0
 11
52.16791161600005
 21
63.62868213809997
 31
0.0
  0
LINE
  5
94D44
330
1F
100
AcDbEntity
  8
cut
100
AcDbLine
 10
52.16791161600005
 20
63.62868213809997
 30
0.0
 11
52.03831807380002
 21
63.70363275409999
 31
0.0
  0
LINE
  5
94D45
330
1F
100
AcDbEntity
  8
cut
100
AcDbLine
 10
52.03831807380002
 20
63.70363275409999
 30
0.0
 11
51.8806446925
 21
63.79570557669996
 31
0.0
  0
LINE
  5
94D46
330
1F
100
AcDbEntity
  8
cut
100
AcDbLine
 10
51.8806446925
 20
63.79570557669996
 30
0.0
 11
51.7338902282
 21
63.88226362719996
 31
0.0
  0
LINE
  5
94D47
330
1F
100
AcDbEntity
  8
cut
100
AcDbLine
 10
51.7338902282
 20
63.88226362719996
 30
0.0
 11
51.57383851970005
 21
63.97762143809996
 31
0.0
  0
LINE
  5
94D48
330
1F
100
AcDbEntity
  8
cut
100
AcDbLine
 10
51.57383851970005
 20
63.97762143809996
 30
0.0
 11
51.49018395399999
 21
64.0278554148
 31
0.0
  0
LWPOLYLINE
  5
94D49
330
1F
100
AcDbEntity
  8
cut
100
AcDbPolyline
 90
       31
 70
     0
 43
0.0
 10
51.49018451790002
 20
64.02785507519997
 10
51.45790221050001
 20
64.04807496860001
 10
51.42721824790001
 20
64.06816050559996
 10
51.39813262989999
 20
64.08811168630001
 10
51.37074970410001
 20
64.10795228630002
 10
51.34496512299997
 20
64.12765853009995
 10
51.32046584460002
 20
64.14715909069997
 10
51.29723970780005
 20
64.1664193661
 10
51.27529887369998
 20
64.18547395819996
 10
51.25436678280003
 20
64.2043553461
 10
51.23443063819999
 20
64.22304574380001
 10
51.21550323670001
 20
64.24156293709995
 10
51.19734640970003
 20
64.25999276269999
 10
51.17994562310006
 20
64.27832915509997
 10
51.16331541080004
 20
64.29657817969996
 10
51.14726120560002
 20
64.31484386969997
 10
51.1317710606
 20
64.3331200202
 10
51.1168569227
 20
64.35141283589996
 10
51.1023600655
 20
64.36984496489998
 10
51.0882531814
 20
64.38843482429996
 10
51.07456357810004
 20
64.40716399689995
 10
51.06121445180001
 20
64.42609987869997
 10
51.04818314410003
 20
64.44526719039997
 10
51.03549231330001
 20
64.46464121139996
 10
51.0231331312
 20
64.4842151757
 10
51.01110327170002
 20
64.50398892290002
 10
50.99940506070002
 20
64.52396261339997
 10
50.98803664780003
 20
64.54412996309996
 10
50.97699741610004
 20
64.56448887729999
 10
50.96628798250001
 20
64.58504145069998
 10
50.95590834680004
 20
64.60578768329998
  0
LINE
  5
94D4A
330
1F
100
AcDbEntity
  8
cut
100
AcDbLine
 10
55.07740151890001
 20
76.19999999889995
 30
0.0
 11
62.70000000000002
 21
76.19999999889995
 31
0.0
  0
ARC
  5
94D4B
330
1F
100
AcDbEntity
  8
cut
100
AcDbCircle
 10
55.07740151890001
 20
74.19999999889995
 30
0.0
 40
2.0
100
AcDbArc
 50
90.0
 51
118.7826402803998
  0
ARC
  5
94D4C
330
1F
100
AcDbEntity
  8
cut
100
AcDbCircle
 10
62.70000000000002
 20
75.3999999989
 30
0.0
 40
0.8
100
AcDbArc
 50
0.0
 51
90.0
  0
DIMENSION
  5
94D4D
330
1F
100
AcDbEntity
  8
2
100
AcDbDimension
  2
*D1310
 10
62.70000000000002
 20
75.3999999989
 30
0.0
 11
74.35096210166712
 21
80.66721611436912
 31
0.0
 70
   164
 71
     5
 42
0.8
  3
コピー - ISO-25
100
AcDbRadialDimension
 15
63.42896754623777
 25
75.72955472353931
 35
0.0
 40
0.0
1001
ACAD
1000
DSTYLE
1002
{
1070
   170
1070
     1
1070
   171
1070
     3
1070
   143
1040
0.0393700787401575
1070
   285
1070
     4
1070
     4
1000
"
1070
   271
1070
     8
1070
    40
1040
1.0
1002
}
1001
ACAD_DSTYLE_DIMRADIAL_EXTENSION
1070
   387
1070
     1
1070
   388
1040
0.0
1070
   390
1040
1.570796326794896
1001
ACAD_DSTYLE_DIMINSPECT
1070
   396
1000

1070
   395
1000

1070
   394
1070
     1
1070
   393
1070
     0
1001
ZWMCAD_GENSTANDARDFRAME_13_
1070
   410
1000
GB
1070
   411
1000
ZwmFrameMain_
  0
VIEWPORT
  5
71
102
{ACAD_XDICTIONARY
360
87B09
102
}
330
55
100
AcDbEntity
 67
     1
  8
0
100
AcDbViewport
 10
150.1652135264906
 20
103.6581106594891
 30
0.0
 40
339.1973820494347
 41
168.6522697578383
 68
     1
 69
    -1
 12
150.1652135264906
 22
103.6581106594891
 13
0.0
 23
0.0
 14
10.0
 24
10.0
 15
10.0
 25
10.0
 16
0.0
 26
0.0
 36
1.0
 17
0.0
 27
0.0
 37
0.0
 42
50.0
 43
0.0
 44
0.0
 45
168.6522697578383
 50
0.0
 51
0.0
 72
  1000
 90
    32864
  1

281
     0
 71
     1
 74
     0
110
0.0
120
0.0
130
0.0
111
1.0
121
0.0
131
0.0
112
0.0
122
1.0
132
0.0
 79
     0
146
0.0
1001
ACAD
1000
MVIEW
1002
{
1070
    16
1010
0.0
1020
0.0
1030
0.0
1010
0.0
1020
0.0
1030
1.0
1040
0.0
1040
168.6522697578383
1040
150.1652135264906
1040
103.6581106594891
1040
50.0
1040
0.0
1040
0.0
1070
     0
1070
  1000
1070
     0
1070
     3
1070
     0
1070
     0
1070
     0
1070
     0
1040
0.0
1040
0.0
1040
0.0
1040
10.0
1040
10.0
1040
10.0
1040
10.0
1070
     0
1002
{
1002
}
1002
}
  0
VIEWPORT
  5
73
102
{ACAD_XDICTIONARY
360
87B0B
102
}
330
55
100
AcDbEntity
 67
     1
  8
0
100
AcDbViewport
 10
133.3499939441681
 20
101.5999939441681
 30
0.0
 40
213.3599903106689
 41
162.5599903106689
 68
     2
 69
    -1
 12
210.0
 22
148.5
 13
0.0
 23
0.0
 14
10.0
 24
10.0
 15
10.0
 25
10.0
 16
0.0
 26
0.0
 36
1.0
 17
0.0
 27
0.0
 37
0.0
 42
50.0
 43
0.0
 44
0.0
 45
324.0677920111345
 50
0.0
 51
0.0
 72
   100
 90
    32864
  1

281
     0
 71
     1
 74
     0
110
0.0
120
0.0
130
0.0
111
1.0
121
0.0
131
0.0
112
0.0
122
1.0
132
0.0
 79
     0
146
0.0
1001
ACAD
1000
MVIEW
1002
{
1070
    16
1010
0.0
1020
0.0
1030
0.0
1010
0.0
1020
0.0
1030
1.0
1040
0.0
1040
324.0677920111345
1040
210.0
1040
148.5
1040
50.0
1040
0.0
1040
0.0
1070
     0
1070
   100
1070
     0
1070
     3
1070
     0
1070
     0
1070
     0
1070
     0
1040
0.0
1040
0.0
1040
0.0
1040
10.0
1040
10.0
1040
10.0
1040
10.0
1070
     0
1002
{
1002
}
1002
}
  0
ENDSEC
  0
SECTION
  2
OBJECTS
  0
DICTIONARY
  5
C
330
0
100
AcDbDictionary
281
     1
  3
ACAD_2007HEADERVARS_RT
350
94DBA
  3
ACAD_CIP_PREVIOUS_PRODUCT_INFO
350
4A3C3
  3
ACAD_COLOR
350
85
  3
ACAD_DETAILVIEWSTYLE
350
4A3BB
  3
ACAD_GROUP
350
D
  3
ACAD_LAYOUT
350
1A
  3
ACAD_MATERIAL
350
84
  3
ACAD_MLEADERSTYLE
350
4A3B7
  3
ACAD_MLINESTYLE
350
17
  3
ACAD_PLOTSETTINGS
350
19
  3
ACAD_PLOTSTYLENAME
350
E
  3
ACAD_SCALELIST
350
4A3A5
  3
ACAD_SECTIONVIEWSTYLE
350
4A3B9
  3
ACAD_TABLESTYLE
350
A1
  3
ACAD_VISUALSTYLE
350
4A38C
  3
ACDB_RECOMPOSE_DATA
350
907A1
  3
ACDBHEADERROUNDTRIPXREC
350
94DB7
  3
AcDbVariableDictionary
350
5E
  3
ASE_INDEX_DICTIONARY
350
349E9
  3
DWGPROPS
350
94DBD
  0
DICTIONARY
  5
8C34E
330
8
100
AcDbDictionary
280
     1
281
     1
  3
ACAD_XREC_ROUNDTRIP
360
94DC3
  0
DICTIONARY
  5
E2
330
2
100
AcDbDictionary
280
     1
281
     1
  3
ACAD_LAYERFILTERS
360
4A339
  3
ACAD_LAYERSTATES
360
3759A
  3
ACLYDICTIONARY
360
4A338
  0
DICTIONARY
  5
4A86C
330
10
100
AcDbDictionary
280
     1
281
     1
  3
ADSK_XREC_LAYER_RECONCILED
360
4A86D
  0
DICTIONARY
  5
4A773
330
4A772
100
AcDbDictionary
280
     1
281
     1
  3
ADSK_XREC_LAYER_RECONCILED
360
4A86E
  0
DICTIONARY
  5
4A775
330
4A774
100
AcDbDictionary
280
     1
281
     1
  3
ADSK_XREC_LAYER_RECONCILED
360
4A86F
  0
DICTIONARY
  5
4A777
330
4A776
100
AcDbDictionary
280
     1
281
     1
  3
ADSK_XREC_LAYER_RECONCILED
360
4A870
  0
DICTIONARY
  5
4A779
330
4A778
100
AcDbDictionary
280
     1
281
     1
  3
ADSK_XREC_LAYER_RECONCILED
360
4A871
  0
DICTIONARY
  5
4A77B
330
4A77A
100
AcDbDictionary
280
     1
281
     1
  3
ADSK_XREC_LAYER_RECONCILED
360
4A872
  0
DICTIONARY
  5
4A77F
330
4A77E
100
AcDbDictionary
280
     1
281
     1
  3
ADSK_XREC_LAYER_RECONCILED
360
4A874
  0
DICTIONARY
  5
4A783
330
4A782
100
AcDbDictionary
280
     1
281
     1
  3
ADSK_XREC_LAYER_RECONCILED
360
4A876
  0
DICTIONARY
  5
8C34C
330
87B52
100
AcDbDictionary
280
     1
281
     1
  3
ACAD_XREC_ROUNDTRIP
360
94DC2
  0
DICTIONARY
  5
31EE
330
1F
100
AcDbDictionary
280
     1
281
     1
  3
ACAD_SORTENTS
360
31EF
  0
DICTIONARY
  5
4A6D7
330
4A6D6
100
AcDbDictionary
280
     1
281
     1
  3
ACAD_SORTENTS
360
4A6D8
  0
DICTIONARY
  5
87B05
330
6B
100
AcDbDictionary
280
     1
281
     1
  3
ACAD_XREC_ROUNDTRIP
360
94DC0
  0
DICTIONARY
  5
87B07
330
6D
100
AcDbDictionary
280
     1
281
     1
  3
ACAD_XREC_ROUNDTRIP
360
94DC1
  0
DICTIONARY
  5
949F0
330
949EF
100
AcDbDictionary
280
     1
281
     1
  3
ACAD_DIMASSOC
360
949F1
  0
DICTIONARY
  5
949F3
330
949F2
100
AcDbDictionary
280
     1
281
     1
  3
ACAD_DIMASSOC
360
949F4
  0
DICTIONARY
  5
949F7
330
949F6
100
AcDbDictionary
280
     1
281
     1
  3
ACAD_DIMASSOC
360
949F8
  0
DICTIONARY
  5
87B09
330
71
100
AcDbDictionary
280
     1
281
     1
  3
ACAD_XREC_ROUNDTRIP
360
94DBE
  0
DICTIONARY
  5
87B0B
330
73
100
AcDbDictionary
280
     1
281
     1
  3
ACAD_XREC_ROUNDTRIP
360
94DBF
  0
DICTIONARY
  5
94DBA
102
{ACAD_REACTORS
330
C
102
}
330
C
100
AcDbDictionary
281
     1
  3
DIMTFILL
350
94DBB
  3
DIMTFILLCLR
350
94DBC
  0
XRECORD
  5
4A3C3
102
{ACAD_REACTORS
330
C
102
}
330
C
100
AcDbXrecord
280
     1
300
ACDLT
300
2020
300

  0
DICTIONARY
  5
85
102
{ACAD_REACTORS
330
C
102
}
330
C
100
AcDbDictionary
281
     1
  0
DICTIONARY
  5
4A3BB
102
{ACAD_REACTORS
330
C
102
}
330
C
100
AcDbDictionary
281
     1
  3
Metric50
350
4A3BC
  0
DICTIONARY
  5
D
102
{ACAD_REACTORS
330
C
102
}
330
C
100
AcDbDictionary
281
     1
  0
DICTIONARY
  5
1A
102
{ACAD_REACTORS
330
C
102
}
330
C
100
AcDbDictionary
281
     1
  3
Model
350
22
  3
レイアウト1
350
51
  3
レイアウト2
350
56
  0
DICTIONARY
  5
84
102
{ACAD_REACTORS
330
C
102
}
330
C
100
AcDbDictionary
281
     1
  3
ByBlock
350
4A37C
  3
ByLayer
350
4A374
  3
Global
350
4A384
  0
DICTIONARY
  5
4A3B7
102
{ACAD_REACTORS
330
C
102
}
330
C
100
AcDbDictionary
281
     1
  3
Standard
350
4A3B8
  0
DICTIONARY
  5
17
102
{ACAD_REACTORS
330
C
102
}
330
C
100
AcDbDictionary
281
     1
  3
Standard
350
18
  0
DICTIONARY
  5
19
102
{ACAD_REACTORS
330
C
102
}
330
C
100
AcDbDictionary
281
     1
  0
ACDBDICTIONARYWDFLT
  5
E
102
{ACAD_REACTORS
330
C
102
}
330
C
100
AcDbDictionary
281
     1
  3
Normal
350
F
100
AcDbDictionaryWithDefault
340
F
  0
DICTIONARY
  5
4A3A5
102
{ACAD_REACTORS
330
C
102
}
330
C
100
AcDbDictionary
281
     1
  3
A0
350
4A3A6
  3
A1
350
4A3A7
  3
A2
350
4A3A8
  3
A3
350
4A3A9
  3
A4
350
4A3AA
  3
A5
350
4A3AB
  3
A6
350
4A3AC
  3
A7
350
4A3AD
  3
A8
350
4A3AE
  3
A9
350
4A3AF
  3
B0
350
4A3B0
  3
B1
350
4A3B1
  3
B2
350
4A3B2
  3
B3
350
4A3B3
  3
B4
350
4A3B4
  3
B5
350
4A3B5
  3
B6
350
4A3B6
  0
DICTIONARY
  5
4A3B9
102
{ACAD_REACTORS
330
C
102
}
330
C
100
AcDbDictionary
281
     1
  3
Metric50
350
4A3BA
  0
DICTIONARY
  5
A1
102
{ACAD_REACTORS
330
C
102
}
330
C
100
AcDbDictionary
281
     1
  3
Standard
350
A2
  0
DICTIONARY
  5
4A38C
102
{ACAD_REACTORS
330
C
102
}
330
C
100
AcDbDictionary
281
     1
  3
2dWireframe
350
4A392
  3
Basic
350
4A391
  3
Brighten
350
4A398
  3
ColorChange
350
4A39C
  3
Conceptual
350
4A395
  3
Dim
350
4A397
  3
EdgeColorOff
350
4A3A4
  3
Facepattern
350
4A39B
  3
Flat
350
4A38D
  3
FlatWithEdges
350
4A38E
  3
Gouraud
350
4A38F
  3
GouraudWithEdges
350
4A390
  3
Hidden
350
4A394
  3
JitterOff
350
4A3A2
  3
Linepattern
350
4A39A
  3
OverhangOff
350
4A3A3
  3
Realistic
350
4A396
  3
Shaded
350
4A3A1
  3
Shaded with edges
350
4A3A0
  3
Shades of Gray
350
4A39D
  3
Sketchy
350
4A39E
  3
Thicken
350
4A399
  3
Wireframe
350
4A393
  3
X-Ray
350
4A39F
  0
XRECORD
  5
907A1
102
{ACAD_REACTORS
330
C
102
}
330
C
100
AcDbXrecord
280
     1
 90
        1
330
A2
  0
DICTIONARY
  5
94DB7
102
{ACAD_REACTORS
330
C
102
}
330
C
100
AcDbDictionary
281
     1
  3
COLORDICT
350
94DB8
  3
MATERIALDICT
350
94DB9
  0
DICTIONARY
  5
5E
102
{ACAD_REACTORS
330
C
102
}
330
C
100
AcDbDictionary
281
     1
  3
CANNOSCALE
350
94DB6
  3
CMLEADERSTYLE
350
4A6CE
  3
CTABLESTYLE
350
B8
  3
CVIEWDETAILSTYLE
350
4A6CF
  3
CVIEWSECTIONSTYLE
350
4A6D0
  3
DIMASSOC
350
5F
  3
HIDETEXT
350
63
  3
INDEXCTL
350
4A879
  3
LAYEREVAL
350
4A6D4
  3
LAYERNOTIFY
350
4A6D5
  3
LIGHTINGUNITS
350
4A6D3
  3
MSLTSCALE
350
4A6D1
  3
PROJECTNAME
350
31CE
  3
SORTENTS
350
4A878
  3
XCLIPFRAME
350
87AF9
  0
DICTIONARY
  5
349E9
102
{ACAD_REACTORS
330
C
102
}
330
C
100
AcDbDictionary
281
     1
  3
ASEBlockHierarchyIndexRecord
350
349EA
1001
DCO15
1040
1842496176.844
  0
XRECORD
  5
94DBD
102
{ACAD_REACTORS
330
C
102
}
330
C
100
AcDbXrecord
280
     1
  1
DWGPROPS COOKIE
  2

  3

  4

  6

  7

  8
zhangnw
  9

300
=
301
=
302
=
303
=
304
=
305
=
306
=
307
=
308
=
309
=
 40
0.0
 41
2455489.391063368
 42
2458948.451595289
  1

 90
        0
  0
XRECORD
  5
94DC3
102
{ACAD_REACTORS
330
8C34E
102
}
330
8C34E
100
AcDbXrecord
280
     1
102
VTR_0.000_0.000_1.000_1.000_VISUALSTYLE
340
4A392
102
VTR_0.000_0.000_1.000_1.000_GRIDDISPLAY
 70
     3
102
VTR_0.000_0.000_1.000_1.000_GRIDMAJOR
 70
     5
102
VTR_0.000_0.000_1.000_1.000_DEFAULTLIGHTING
280
     1
102
VTR_0.000_0.000_1.000_1.000_DEFAULTLIGHTINGTYPE
 70
     1
102
VTR_0.000_0.000_1.000_1.000_BRIGHTNESS
141
0.0
102
VTR_0.000_0.000_1.000_1.000_CONTRAST
142
0.0
  0
DICTIONARY
  5
4A339
102
{ACAD_REACTORS
330
E2
102
}
330
E2
100
AcDbDictionary
281
     1
  0
DICTIONARY
  5
3759A
102
{ACAD_REACTORS
330
E2
102
}
330
E2
100
AcDbDictionary
281
     1
  0
DICTIONARY
  5
4A338
102
{ACAD_REACTORS
330
E2
102
}
330
E2
100
AcDbDictionary
281
     1
1001
ACAD
1000
<All
  0
XRECORD
  5
4A86D
102
{ACAD_REACTORS
330
4A86C
102
}
330
4A86C
100
AcDbXrecord
280
     1
290
     1
  0
XRECORD
  5
4A86E
102
{ACAD_REACTORS
330
4A773
102
}
330
4A773
100
AcDbXrecord
280
     1
290
     1
  0
XRECORD
  5
4A86F
102
{ACAD_REACTORS
330
4A775
102
}
330
4A775
100
AcDbXrecord
280
     1
290
     1
  0
XRECORD
  5
4A870
102
{ACAD_REACTORS
330
4A777
102
}
330
4A777
100
AcDbXrecord
280
     1
290
     1
  0
XRECORD
  5
4A871
102
{ACAD_REACTORS
330
4A779
102
}
330
4A779
100
AcDbXrecord
280
     1
290
     1
  0
XRECORD
  5
4A872
102
{ACAD_REACTORS
330
4A77B
102
}
330
4A77B
100
AcDbXrecord
280
     1
290
     1
  0
XRECORD
  5
4A874
102
{ACAD_REACTORS
330
4A77F
102
}
330
4A77F
100
AcDbXrecord
280
     1
290
     1
  0
XRECORD
  5
4A876
102
{ACAD_REACTORS
330
4A783
102
}
330
4A783
100
AcDbXrecord
280
     1
290
     1
  0
XRECORD
  5
94DC2
102
{ACAD_REACTORS
330
8C34C
102
}
330
8C34C
100
AcDbXrecord
280
     1
102
MATERIAL
340
4A384
  0
SORTENTSTABLE
  5
31EF
102
{ACAD_REACTORS
330
31EE
102
}
330
31EE
100
AcDbSortentsTable
330
1F
  0
SORTENTSTABLE
  5
4A6D8
102
{ACAD_REACTORS
330
4A6D7
102
}
330
4A6D7
100
AcDbSortentsTable
330
4A6D6
  0
XRECORD
  5
94DC0
102
{ACAD_REACTORS
330
87B05
102
}
330
87B05
100
AcDbXrecord
280
     1
102
GRIDDISPLAY
 70
     0
102
GRIDMAJOR
 70
     5
102
DEFAULTLIGHTING
280
     1
102
DEFAULTLIGHTINGTYPE
 70
     1
102
BRIGHTNESS
141
0.0
102
CONTRAST
142
0.0
  0
XRECORD
  5
94DC1
102
{ACAD_REACTORS
330
87B07
102
}
330
87B07
100
AcDbXrecord
280
     1
102
GRIDDISPLAY
 70
     0
102
GRIDMAJOR
 70
     5
102
DEFAULTLIGHTING
280
     1
102
DEFAULTLIGHTINGTYPE
 70
     1
102
BRIGHTNESS
141
0.0
102
CONTRAST
142
0.0
  0
DIMASSOC
  5
949F1
102
{ACAD_REACTORS
330
949F0
102
}
330
949F0
100
AcDbDimAssoc
330
949EF
 90
        1
 70
     0
 71
     0
  1
AcDbOsnapPointRef
 72
     1
331
949D0
 73
     2
 91
        0
 40
3.141592653589792
 10
0.0
 20
0.0
 30
1.999999999999998E+50
 75
     0
  0
DIMASSOC
  5
949F4
102
{ACAD_REACTORS
330
949F3
102
}
330
949F3
100
AcDbDimAssoc
330
949F2
 90
        2
 70
     0
 71
     0
  1
AcDbOsnapPointRef
 72
    13
331
949EB
 73
     2
 91
        0
 40
3.141592653589792
 10
0.0
 20
0.0
 30
1.999999999999998E+50
 75
     0
  0
DIMASSOC
  5
949F8
102
{ACAD_REACTORS
330
949F7
102
}
330
949F7
100
AcDbDimAssoc
330
949F6
 90
        3
 70
     0
 71
     0
  1
AcDbOsnapPointRef
 72
    13
331
94900
 73
     2
 91
        0
 40
0.0
 10
0.0
 20
0.0
 30
1.999999999999998E+50
 75
     0
  1
AcDbOsnapPointRef
 72
    13
331
949DA
 73
     2
 91
        0
 40
0.0
 10
0.0
 20
0.0
 30
1.999999999999998E+50
 75
     0
  0
XRECORD
  5
94DBE
102
{ACAD_REACTORS
330
87B09
102
}
330
87B09
100
AcDbXrecord
280
     1
102
GRIDDISPLAY
 70
     0
102
GRIDMAJOR
 70
     5
102
DEFAULTLIGHTING
280
     1
102
DEFAULTLIGHTINGTYPE
 70
     1
102
BRIGHTNESS
141
0.0
102
CONTRAST
142
0.0
  0
XRECORD
  5
94DBF
102
{ACAD_REACTORS
330
87B0B
102
}
330
87B0B
100
AcDbXrecord
280
     1
102
GRIDDISPLAY
 70
     0
102
GRIDMAJOR
 70
     5
102
DEFAULTLIGHTING
280
     1
102
DEFAULTLIGHTINGTYPE
 70
     1
102
BRIGHTNESS
141
0.0
102
CONTRAST
142
0.0
  0
XRECORD
  5
94DBB
102
{ACAD_REACTORS
330
94DBA
102
}
330
94DBA
100
AcDbXrecord
280
     1
 70
     1
  0
XRECORD
  5
94DBC
102
{ACAD_REACTORS
330
94DBA
102
}
330
94DBA
100
AcDbXrecord
280
     1
1004
1800000001000000000000C1000000000000000000000000
  0
ACDBDETAILVIEWSTYLE
  5
4A3BC
102
{ACAD_XDICTIONARY
360
87B40
102
}
102
{ACAD_REACTORS
330
4A3BB
102
}
330
4A3BB
100
AcDbModelDocViewStyle
 70
     0
  3
Metric50
290
     0
100
AcDbDetailViewStyle
 70
     0
 71
     0
 90
        3
 71
     1
340
11
 40
5.0
340
0
 40
5.0
300

 40
0.0
280
     1
 71
     2
340
16
 90
       25
 71
     3
340
11
 40
5.0
 90
        0
 40
15.0
 90
        1
300
%<\AcVar ViewDetailId>% (%<\AcVar ViewScale \f "%sn">%)
 71
     4
340
16
 90
       25
340
16
 90
       25
280
     0
  0
LAYOUT
  5
22
102
{ACAD_REACTORS
330
1A
102
}
330
1A
100
AcDbPlotSettings
  1

  2
none_device
  4
ANSI_A_(8.50_x_11.00_Inches)
  6

 40
6.349999904632567
 41
19.04999923706055
 42
6.350006103515625
 43
19.04998779296875
 44
215.8999938964844
 45
279.3999938964844
 46
0.0
 47
0.0
 48
0.0
 49
0.0
140
0.0
141
0.0
142
1.0
143
78.436453180766
 70
 11952
 72
     0
 73
     1
 74
     0
  7

 75
     0
147
0.0127491741332998
148
0.0
149
0.0
100
AcDbLayout
  1
Model
 70
     1
 71
     0
 10
0.0
 20
0.0
 11
12.0
 21
9.0
 12
0.0
 22
0.0
 32
0.0
 14
0.0
 24
0.0
 34
0.0
 15
0.0
 25
0.0
 35
0.0
146
0.0
 13
0.0
 23
0.0
 33
0.0
 16
1.0
 26
0.0
 36
0.0
 17
0.0
 27
1.0
 37
0.0
 76
     0
330
1F
331
4A360
  0
LAYOUT
  5
51
102
{ACAD_REACTORS
330
1A
102
}
330
1A
100
AcDbPlotSettings
  1

  2
none_device
  4
Letter_(8.50_x_11.00_Inches)
  6

 40
6.349999904632567
 41
6.349999904632567
 42
6.350006103515625
 43
6.350006103515625
 44
215.8999938964844
 45
279.3999938964844
 46
0.0
 47
0.0
 48
0.0
 49
0.0
140
0.0
141
0.0
142
1.0
143
1.0
 70
   688
 72
     1
 73
     1
 74
     5
  7

 75
    16
147
1.0
148
0.0
149
0.0
100
AcDbLayout
  1
レイアウト1
 70
     1
 71
     1
 10
-6.350006103515625
 20
-6.349999904632567
 11
273.0499877929688
 21
209.5499939918518
 12
0.0
 22
0.0
 32
0.0
 14
26.66999878883364
 24
20.31999878883365
 34
0.0
 15
240.0299890995025
 25
182.8799890995025
 35
0.0
146
0.0
 13
0.0
 23
0.0
 33
0.0
 16
1.0
 26
0.0
 36
0.0
 17
0.0
 27
1.0
 37
0.0
 76
     0
330
50
331
6B
  0
LAYOUT
  5
56
102
{ACAD_REACTORS
330
1A
102
}
330
1A
100
AcDbPlotSettings
  1

  2
none_device
  4
Letter_(8.50_x_11.00_Inches)
  6

 40
6.349999904632567
 41
6.349999904632567
 42
6.350006103515625
 43
6.350006103515625
 44
215.8999938964844
 45
279.3999938964844
 46
0.0
 47
0.0
 48
0.0
 49
0.0
140
0.0
141
0.0
142
1.0
143
1.0
 70
   688
 72
     1
 73
     1
 74
     5
  7

 75
    16
147
1.0
148
0.0
149
0.0
100
AcDbLayout
  1
レイアウト2
 70
     1
 71
     2
 10
-6.350006103515625
 20
-6.349999904632567
 11
273.0499877929688
 21
209.5499939918518
 12
0.0
 22
0.0
 32
0.0
 14
26.66999878883364
 24
20.31999878883365
 34
0.0
 15
240.0299890995025
 25
182.8799890995025
 35
0.0
146
0.0
 13
0.0
 23
0.0
 33
0.0
 16
1.0
 26
0.0
 36
0.0
 17
0.0
 27
1.0
 37
0.0
 76
     0
330
55
331
71
  0
MATERIAL
  5
4A37C
102
{ACAD_XDICTIONARY
360
4A37D
102
}
102
{ACAD_REACTORS
330
84
102
}
330
84
100
AcDbMaterial
  1
ByBlock
 72
     0
 73
     2
 43
0.0008202099737533
 43
0.0
 43
0.0
 43
0.0
 43
0.0
 43
0.0008202099737533
 43
0.0
 43
0.0
 43
0.0
 43
0.0
 43
1.0
 43
0.0
 43
0.0
 43
0.0
 43
0.0
 43
1.0
 77
     0
 78
     2
 47
0.0008202099737533
 47
0.0
 47
0.0
 47
0.0
 47
0.0
 47
0.0008202099737533
 47
0.0
 47
0.0
 47
0.0
 47
0.0
 47
1.0
 47
0.0
 47
0.0
 47
0.0
 47
0.0
 47
1.0
171
     0
172
     2
 49
0.0008202099737533
 49
0.0
 49
0.0
 49
0.0
 49
0.0
 49
0.0008202099737533
 49
0.0
 49
0.0
 49
0.0
 49
0.0
 49
1.0
 49
0.0
 49
0.0
 49
0.0
 49
0.0
 49
1.0
175
     0
176
     2
142
0.0008202099737533
142
0.0
142
0.0
142
0.0
142
0.0
142
0.0008202099737533
142
0.0
142
0.0
142
0.0
142
0.0
142
1.0
142
0.0
142
0.0
142
0.0
142
0.0
142
1.0
179
     0
270
     2
144
0.0008202099737533
144
0.0
144
0.0
144
0.0
144
0.0
144
0.0008202099737533
144
0.0
144
0.0
144
0.0
144
0.0
144
1.0
144
0.0
144
0.0
144
0.0
144
0.0
144
1.0
274
     2
147
0.0008202099737533
147
0.0
147
0.0
147
0.0
147
0.0
147
0.0008202099737533
147
0.0
147
0.0
147
0.0
147
0.0
147
1.0
147
0.0
147
0.0
147
0.0
147
0.0
147
1.0
  0
MATERIAL
  5
4A374
102
{ACAD_XDICTIONARY
360
4A375
102
}
102
{ACAD_REACTORS
330
84
102
}
330
84
100
AcDbMaterial
  1
ByLayer
 72
     0
 73
     2
 43
0.0008202099737533
 43
0.0
 43
0.0
 43
0.0
 43
0.0
 43
0.0008202099737533
 43
0.0
 43
0.0
 43
0.0
 43
0.0
 43
1.0
 43
0.0
 43
0.0
 43
0.0
 43
0.0
 43
1.0
 77
     0
 78
     2
 47
0.0008202099737533
 47
0.0
 47
0.0
 47
0.0
 47
0.0
 47
0.0008202099737533
 47
0.0
 47
0.0
 47
0.0
 47
0.0
 47
1.0
 47
0.0
 47
0.0
 47
0.0
 47
0.0
 47
1.0
171
     0
172
     2
 49
0.0008202099737533
 49
0.0
 49
0.0
 49
0.0
 49
0.0
 49
0.0008202099737533
 49
0.0
 49
0.0
 49
0.0
 49
0.0
 49
1.0
 49
0.0
 49
0.0
 49
0.0
 49
0.0
 49
1.0
175
     0
176
     2
142
0.0008202099737533
142
0.0
142
0.0
142
0.0
142
0.0
142
0.0008202099737533
142
0.0
142
0.0
142
0.0
142
0.0
142
1.0
142
0.0
142
0.0
142
0.0
142
0.0
142
1.0
179
     0
270
     2
144
0.0008202099737533
144
0.0
144
0.0
144
0.0
144
0.0
144
0.0008202099737533
144
0.0
144
0.0
144
0.0
144
0.0
144
1.0
144
0.0
144
0.0
144
0.0
144
0.0
144
1.0
274
     2
147
0.0008202099737533
147
0.0
147
0.0
147
0.0
147
0.0
147
0.0008202099737533
147
0.0
147
0.0
147
0.0
147
0.0
147
1.0
147
0.0
147
0.0
147
0.0
147
0.0
147
1.0
  0
MATERIAL
  5
4A384
102
{ACAD_XDICTIONARY
360
4A385
102
}
102
{ACAD_REACTORS
330
84
102
}
330
84
100
AcDbMaterial
  1
Global
 72
     0
 73
     2
 43
0.0008202099737533
 43
0.0
 43
0.0
 43
0.0
 43
0.0
 43
0.0008202099737533
 43
0.0
 43
0.0
 43
0.0
 43
0.0
 43
1.0
 43
0.0
 43
0.0
 43
0.0
 43
0.0
 43
1.0
 77
     0
 78
     2
 47
0.0008202099737533
 47
0.0
 47
0.0
 47
0.0
 47
0.0
 47
0.0008202099737533
 47
0.0
 47
0.0
 47
0.0
 47
0.0
 47
1.0
 47
0.0
 47
0.0
 47
0.0
 47
0.0
 47
1.0
171
     0
172
     2
 49
0.0008202099737533
 49
0.0
 49
0.0
 49
0.0
 49
0.0
 49
0.0008202099737533
 49
0.0
 49
0.0
 49
0.0
 49
0.0
 49
1.0
 49
0.0
 49
0.0
 49
0.0
 49
0.0
 49
1.0
175
     0
176
     2
142
0.0008202099737533
142
0.0
142
0.0
142
0.0
142
0.0
142
0.0008202099737533
142
0.0
142
0.0
142
0.0
142
0.0
142
1.0
142
0.0
142
0.0
142
0.0
142
0.0
142
1.0
179
     0
270
     2
144
0.0008202099737533
144
0.0
144
0.0
144
0.0
144
0.0
144
0.0008202099737533
144
0.0
144
0.0
144
0.0
144
0.0
144
1.0
144
0.0
144
0.0
144
0.0
144
0.0
144
1.0
274
     2
147
0.0008202099737533
147
0.0
147
0.0
147
0.0
147
0.0
147
0.0008202099737533
147
0.0
147
0.0
147
0.0
147
0.0
147
1.0
147
0.0
147
0.0
147
0.0
147
0.0
147
1.0
  0
MLEADERSTYLE
  5
4A3B8
102
{ACAD_XDICTIONARY
360
8C353
102
}
102
{ACAD_REACTORS
330
4A3B7
102
}
330
4A3B7
100
AcDbMLeaderStyle
170
     2
171
     1
172
     0
 90
        2
 40
0.0
 41
0.0
173
     1
 91
-1056964608
340
14
 92
       -2
290
     1
 42
2.0
291
     1
 43
0.36
  3
Standard
 44
4.0
300

342
11
174
     1
178
     6
175
     1
176
     0
 93
-1056964608
 45
4.0
292
     0
297
     0
 46
4.0
 94
-1056964608
 47
1.0
 49
1.0
140
1.0
293
     1
141
0.0
294
     1
177
     0
142
1.0
295
     0
296
     0
143
0.125
1001
ACAD_MLEADERVER
1070
     2
  0
MLINESTYLE
  5
18
102
{ACAD_REACTORS
330
17
102
}
330
17
100
AcDbMlineStyle
  2
STANDARD
 70
     0
  3

 62
   256
 51
90.0
 52
90.0
 71
     2
 49
0.5
 62
   256
  6
BYLAYER
 49
-0.5
 62
   256
  6
BYLAYER
  0
ACDBPLACEHOLDER
  5
F
102
{ACAD_REACTORS
330
E
102
}
330
E
  0
SCALE
  5
4A3A6
102
{ACAD_REACTORS
330
4A3A5
102
}
330
4A3A5
100
AcDbScale
 70
     0
300
1:1
140
1.0
141
1.0
290
     1
  0
SCALE
  5
4A3A7
102
{ACAD_REACTORS
330
4A3A5
102
}
330
4A3A5
100
AcDbScale
 70
     0
300
1:2
140
1.0
141
2.0
290
     0
  0
SCALE
  5
4A3A8
102
{ACAD_REACTORS
330
4A3A5
102
}
330
4A3A5
100
AcDbScale
 70
     0
300
1:4
140
1.0
141
4.0
290
     0
  0
SCALE
  5
4A3A9
102
{ACAD_REACTORS
330
4A3A5
102
}
330
4A3A5
100
AcDbScale
 70
     0
300
1:5
140
1.0
141
5.0
290
     0
  0
SCALE
  5
4A3AA
102
{ACAD_REACTORS
330
4A3A5
102
}
330
4A3A5
100
AcDbScale
 70
     0
300
1:8
140
1.0
141
8.0
290
     0
  0
SCALE
  5
4A3AB
102
{ACAD_REACTORS
330
4A3A5
102
}
330
4A3A5
100
AcDbScale
 70
     0
300
1:10
140
1.0
141
10.0
290
     0
  0
SCALE
  5
4A3AC
102
{ACAD_REACTORS
330
4A3A5
102
}
330
4A3A5
100
AcDbScale
 70
     0
300
1:16
140
1.0
141
16.0
290
     0
  0
SCALE
  5
4A3AD
102
{ACAD_REACTORS
330
4A3A5
102
}
330
4A3A5
100
AcDbScale
 70
     0
300
1:20
140
1.0
141
20.0
290
     0
  0
SCALE
  5
4A3AE
102
{ACAD_REACTORS
330
4A3A5
102
}
330
4A3A5
100
AcDbScale
 70
     0
300
1:30
140
1.0
141
30.0
290
     0
  0
SCALE
  5
4A3AF
102
{ACAD_REACTORS
330
4A3A5
102
}
330
4A3A5
100
AcDbScale
 70
     0
300
1:40
140
1.0
141
40.0
290
     0
  0
SCALE
  5
4A3B0
102
{ACAD_REACTORS
330
4A3A5
102
}
330
4A3A5
100
AcDbScale
 70
     0
300
1:50
140
1.0
141
50.0
290
     0
  0
SCALE
  5
4A3B1
102
{ACAD_REACTORS
330
4A3A5
102
}
330
4A3A5
100
AcDbScale
 70
     0
300
1:100
140
1.0
141
100.0
290
     0
  0
SCALE
  5
4A3B2
102
{ACAD_REACTORS
330
4A3A5
102
}
330
4A3A5
100
AcDbScale
 70
     0
300
2:1
140
2.0
141
1.0
290
     0
  0
SCALE
  5
4A3B3
102
{ACAD_REACTORS
330
4A3A5
102
}
330
4A3A5
100
AcDbScale
 70
     0
300
4:1
140
4.0
141
1.0
290
     0
  0
SCALE
  5
4A3B4
102
{ACAD_REACTORS
330
4A3A5
102
}
330
4A3A5
100
AcDbScale
 70
     0
300
8:1
140
8.0
141
1.0
290
     0
  0
SCALE
  5
4A3B5
102
{ACAD_REACTORS
330
4A3A5
102
}
330
4A3A5
100
AcDbScale
 70
     0
300
10:1
140
10.0
141
1.0
290
     0
  0
SCALE
  5
4A3B6
102
{ACAD_REACTORS
330
4A3A5
102
}
330
4A3A5
100
AcDbScale
 70
     0
300
100:1
140
100.0
141
1.0
290
     0
  0
ACDBSECTIONVIEWSTYLE
  5
4A3BA
102
{ACAD_XDICTIONARY
360
87B3E
102
}
102
{ACAD_REACTORS
330
4A3B9
102
}
330
4A3B9
100
AcDbModelDocViewStyle
 70
     0
  3
Metric50
290
     0
100
AcDbSectionViewStyle
 70
     0
 71
     0
 90
      102
 71
     1
340
11
 40
5.0
340
0
340
0
 40
5.0
300
I, O, Q, S, X, Z
 40
10.0
 90
        0
 40
2.5
 90
        0
 71
     2
340
16
 90
       25
340
16
 90
       50
 40
5.0
 40
2.5
 40
5.0
 71
     3
340
11
 40
5.0
 90
        0
 40
15.0
 90
        1
300
%<\AcVar ViewSectionStartId>%-%<\AcVar ViewSectionEndId>% (%<\AcVar ViewScale \f "%sn">%)
 71
     4
300
ANSI31
 40
1.0
 90
        0
290
     0
290
     0
 90
        6
 40
0.0
 40
1.570796326794896
 40
0.2617993877991494
 40
1.308996938995747
 40
-0.2617993877991494
 40
1.832595714594044
  0
TABLESTYLE
  5
A2
102
{ACAD_XDICTIONARY
360
4CD9A
102
}
102
{ACAD_REACTORS
330
A1
102
}
330
A1
100
AcDbTableStyle
  3
Standard
 70
     0
 71
     0
 40
1.5
 41
1.5
280
     0
281
     0
  7
Standard
140
4.5
170
     2
 62
     0
 63
   257
283
     0
274
    -2
284
     1
 64
     0
275
    -2
285
     1
 65
     0
276
    -2
286
     1
 66
     0
277
    -2
287
     1
 67
     0
278
    -2
288
     1
 68
     0
279
    -2
289
     1
 69
     0
  7
Standard
140
6.0
170
     5
 62
     0
 63
   257
283
     0
274
    -2
284
     1
 64
     0
275
    -2
285
     1
 65
     0
276
    -2
286
     1
 66
     0
277
    -2
287
     1
 67
     0
278
    -2
288
     1
 68
     0
279
    -2
289
     1
 69
     0
  7
Standard
140
4.5
170
     5
 62
     0
 63
   257
283
     0
274
    -2
284
     1
 64
     0
275
    -2
285
     1
 65
     0
276
    -2
286
     1
 66
     0
277
    -2
287
     1
 67
     0
278
    -2
288
     1
 68
     0
279
    -2
289
     1
 69
     0
  0
VISUALSTYLE
  5
4A392
102
{ACAD_XDICTIONARY
360
87B18
102
}
102
{ACAD_REACTORS
330
4A38C
102
}
330
4A38C
100
AcDbVisualStyle
  2

 70
     4
 71
     0
 72
     2
 73
     0
 90
        0
 40
-0.6
 41
-30.0
 62
     5
 63
     7
 74
     1
 91
        4
 64
     7
 65
   257
 75
     1
175
     1
 42
1.0
 92
        0
 66
   257
 43
1.0
 76
     1
 77
     6
 78
     2
 67
     7
 79
     5
170
     0
171
     0
290
     0
174
     0
 93
        1
 44
0.0
173
     0
291
     0
 45
0.0
1001
ACAD
1000
AcDbSavedByObjectVersion
1070
     0
  0
VISUALSTYLE
  5
4A391
102
{ACAD_XDICTIONARY
360
87B16
102
}
102
{ACAD_REACTORS
330
4A38C
102
}
330
4A38C
100
AcDbVisualStyle
  2

 70
     7
 71
     1
 72
     0
 73
     1
 90
        0
 40
-0.6
 41
-30.0
 62
     5
 63
     7
 74
     0
 91
        4
 64
     7
 65
   257
 75
     1
175
     1
 42
1.0
 92
        8
 66
     7
 43
1.0
 76
     1
 77
     6
 78
     2
 67
     7
 79
     5
170
     0
171
     0
290
     0
174
     0
 93
        1
 44
0.0
173
     0
291
     1
 45
0.0
1001
ACAD
1000
AcDbSavedByObjectVersion
1070
     0
  0
VISUALSTYLE
  5
4A398
102
{ACAD_XDICTIONARY
360
87B24
102
}
102
{ACAD_REACTORS
330
4A38C
102
}
330
4A38C
100
AcDbVisualStyle
  2

 70
    12
 71
     2
 72
     2
 73
     0
 90
        0
 40
-0.6
 41
-30.0
 62
     5
 63
     7
 74
     1
 91
        4
 64
     7
 65
   257
 75
     1
175
     1
 42
1.0
 92
        8
 66
     7
 43
1.0
 76
     1
 77
     6
 78
     2
 67
     7
 79
     5
170
     0
171
     0
290
     0
174
     0
 93
        1
 44
50.0
173
     0
291
     1
 45
0.0
1001
ACAD
1000
AcDbSavedByObjectVersion
1070
     0
  0
VISUALSTYLE
  5
4A39C
102
{ACAD_XDICTIONARY
360
87B2C
102
}
102
{ACAD_REACTORS
330
4A38C
102
}
330
4A38C
100
AcDbVisualStyle
  2

 70
    16
 71
     2
 72
     2
 73
     3
 90
        0
 40
-0.6
 41
-30.0
 62
     5
 63
     8
 74
     1
 91
        4
 64
     7
 65
   257
 75
     1
175
     1
 42
1.0
 92
        8
 66
     8
 43
1.0
 76
     1
 77
     6
 78
     2
 67
     7
 79
     5
170
     0
171
     0
290
     0
174
     0
 93
        1
 44
0.0
173
     0
291
     1
 45
0.0
1001
ACAD
1000
AcDbSavedByObjectVersion
1070
     0
  0
VISUALSTYLE
  5
4A395
102
{ACAD_XDICTIONARY
360
87B1E
102
}
102
{ACAD_REACTORS
330
4A38C
102
}
330
4A38C
100
AcDbVisualStyle
  2

 70
     9
 71
     3
 72
     2
 73
     0
 90
        0
 40
-0.6
 41
-30.0
 62
     5
 63
     7
 74
     2
 91
        2
 64
     7
 65
   257
 75
     1
175
     1
 42
179.0
 92
        8
 66
     7
 43
1.0
 76
     1
 77
     6
 78
     2
 67
     7
 79
     3
170
     0
171
     0
290
     0
174
     0
 93
        1
 44
0.0
173
     0
291
     0
 45
0.0
1001
ACAD
1000
AcDbSavedByObjectVersion
1070
     0
  0
VISUALSTYLE
  5
4A397
102
{ACAD_XDICTIONARY
360
87B22
102
}
102
{ACAD_REACTORS
330
4A38C
102
}
330
4A38C
100
AcDbVisualStyle
  2

 70
    11
 71
     2
 72
     2
 73
     0
 90
        0
 40
-0.6
 41
-30.0
 62
     5
 63
     7
 74
     1
 91
        4
 64
     7
 65
   257
 75
     1
175
     1
 42
1.0
 92
        8
 66
     7
 43
1.0
 76
     1
 77
     6
 78
     2
 67
     7
 79
     5
170
     0
171
     0
290
     0
174
     0
 93
        1
 44
-50.0
173
     0
291
     1
 45
0.0
1001
ACAD
1000
AcDbSavedByObjectVersion
1070
     0
  0
VISUALSTYLE
  5
4A3A4
102
{ACAD_XDICTIONARY
360
87B3C
102
}
102
{ACAD_REACTORS
330
4A38C
102
}
330
4A38C
100
AcDbVisualStyle
  2

 70
    22
 71
     2
 72
     2
 73
     0
 90
        0
 40
-0.6
 41
-30.0
 62
     5
 63
     7
 74
     1
 91
        4
 64
     7
 65
   257
 75
     1
175
     1
 42
1.0
 92
        8
 66
     7
 43
1.0
 76
     1
 77
     6
 78
     2
 67
     7
 79
     5
170
     0
171
     0
290
     0
174
     0
 93
        1
 44
0.0
173
     0
291
     1
 45
0.0
1001
ACAD
1000
AcDbSavedByObjectVersion
1070
     0
  0
VISUALSTYLE
  5
4A39B
102
{ACAD_XDICTIONARY
360
87B2A
102
}
102
{ACAD_REACTORS
330
4A38C
102
}
330
4A38C
100
AcDbVisualStyle
  2

 70
    15
 71
     2
 72
     2
 73
     0
 90
        0
 40
-0.6
 41
-30.0
 62
     5
 63
     7
 74
     1
 91
        4
 64
     7
 65
   257
 75
     1
175
     1
 42
1.0
 92
        8
 66
     7
 43
1.0
 76
     1
 77
     6
 78
     2
 67
     7
 79
     5
170
     0
171
     0
290
     0
174
     0
 93
        1
 44
0.0
173
     0
291
     1
 45
0.0
1001
ACAD
1000
AcDbSavedByObjectVersion
1070
     0
  0
VISUALSTYLE
  5
4A38D
102
{ACAD_XDICTIONARY
360
87B0E
102
}
102
{ACAD_REACTORS
330
4A38C
102
}
330
4A38C
100
AcDbVisualStyle
  2

 70
     0
 71
     2
 72
     1
 73
     1
 90
        2
 40
-0.6
 41
30.0
 62
     5
 63
     7
 74
     0
 91
        0
 64
     7
 65
   257
 75
     1
175
     1
 42
1.0
 92
        8
 66
     7
 43
1.0
 76
     1
 77
     6
 78
     2
 67
     7
 79
     5
170
     0
171
     0
290
     0
174
     0
 93
       13
 44
0.0
173
     0
291
     1
 45
0.0
1001
ACAD
1000
AcDbSavedByObjectVersion
1070
     0
  0
VISUALSTYLE
  5
4A38E
102
{ACAD_XDICTIONARY
360
87B10
102
}
102
{ACAD_REACTORS
330
4A38C
102
}
330
4A38C
100
AcDbVisualStyle
  2

 70
     1
 71
     2
 72
     1
 73
     1
 90
        2
 40
-0.6
 41
30.0
 62
     5
 63
     7
 74
     1
 91
        0
 64
     7
 65
   257
 75
     1
175
     1
 42
1.0
 92
        0
 66
   257
 43
1.0
 76
     1
 77
     6
 78
     2
 67
     7
 79
     5
170
     0
171
     0
290
     0
174
     0
 93
       13
 44
0.0
173
     0
291
     1
 45
0.0
1001
ACAD
1000
AcDbSavedByObjectVersion
1070
     0
  0
VISUALSTYLE
  5
4A38F
102
{ACAD_XDICTIONARY
360
87B12
102
}
102
{ACAD_REACTORS
330
4A38C
102
}
330
4A38C
100
AcDbVisualStyle
  2

 70
     2
 71
     2
 72
     2
 73
     1
 90
        2
 40
-0.6
 41
30.0
 62
     5
 63
     7
 74
     0
 91
        0
 64
     7
 65
   257
 75
     1
175
     1
 42
1.0
 92
        0
 66
     7
 43
1.0
 76
     1
 77
     6
 78
     2
 67
     7
 79
     5
170
     0
171
     0
290
     0
174
     0
 93
       13
 44
0.0
173
     0
291
     1
 45
0.0
1001
ACAD
1000
AcDbSavedByObjectVersion
1070
     0
  0
VISUALSTYLE
  5
4A390
102
{ACAD_XDICTIONARY
360
87B14
102
}
102
{ACAD_REACTORS
330
4A38C
102
}
330
4A38C
100
AcDbVisualStyle
  2

 70
     3
 71
     2
 72
     2
 73
     1
 90
        2
 40
-0.6
 41
30.0
 62
     5
 63
     7
 74
     1
 91
        0
 64
     7
 65
   257
 75
     1
175
     1
 42
1.0
 92
        0
 66
   257
 43
1.0
 76
     1
 77
     6
 78
     2
 67
     7
 79
     5
170
     0
171
     0
290
     0
174
     0
 93
       13
 44
0.0
173
     0
291
     1
 45
0.0
1001
ACAD
1000
AcDbSavedByObjectVersion
1070
     0
  0
VISUALSTYLE
  5
4A394
102
{ACAD_XDICTIONARY
360
87B1C
102
}
102
{ACAD_REACTORS
330
4A38C
102
}
330
4A38C
100
AcDbVisualStyle
  2

 70
     6
 71
     1
 72
     2
 73
     2
 90
        0
 40
-0.6
 41
-30.0
 62
     5
 63
     7
 74
     2
 91
        2
 64
     7
 65
   257
 75
     2
175
     1
 42
40.0
 92
        0
 66
   257
 43
1.0
 76
     1
 77
     6
 78
     2
 67
     7
 79
     3
170
     0
171
     0
290
     0
174
     0
 93
        1
 44
0.0
173
     0
291
     0
 45
0.0
1001
ACAD
1000
AcDbSavedByObjectVersion
1070
     0
  0
VISUALSTYLE
  5
4A3A2
102
{ACAD_XDICTIONARY
360
87B38
102
}
102
{ACAD_REACTORS
330
4A38C
102
}
330
4A38C
100
AcDbVisualStyle
  2

 70
    20
 71
     2
 72
     2
 73
     0
 90
        0
 40
-0.6
 41
-30.0
 62
     5
 63
     7
 74
     1
 91
        4
 64
     7
 65
   257
 75
     1
175
     1
 42
1.0
 92
       10
 66
     7
 43
1.0
 76
     1
 77
     6
 78
     2
 67
     7
 79
     5
170
     0
171
     0
290
     0
174
     0
 93
        1
 44
0.0
173
     0
291
     1
 45
0.0
1001
ACAD
1000
AcDbSavedByObjectVersion
1070
     0
  0
VISUALSTYLE
  5
4A39A
102
{ACAD_XDICTIONARY
360
87B28
102
}
102
{ACAD_REACTORS
330
4A38C
102
}
330
4A38C
100
AcDbVisualStyle
  2

 70
    14
 71
     2
 72
     2
 73
     0
 90
        0
 40
-0.6
 41
-30.0
 62
     5
 63
     7
 74
     1
 91
        4
 64
     7
 65
   257
 75
     7
175
     7
 42
1.0
 92
        8
 66
     7
 43
1.0
 76
     1
 77
     6
 78
     2
 67
     7
 79
     5
170
     0
171
     0
290
     0
174
     0
 93
        1
 44
0.0
173
     0
291
     1
 45
0.0
1001
ACAD
1000
AcDbSavedByObjectVersion
1070
     0
  0
VISUALSTYLE
  5
4A3A3
102
{ACAD_XDICTIONARY
360
87B3A
102
}
102
{ACAD_REACTORS
330
4A38C
102
}
330
4A38C
100
AcDbVisualStyle
  2

 70
    21
 71
     2
 72
     2
 73
     0
 90
        0
 40
-0.6
 41
-30.0
 62
     5
 63
     7
 74
     1
 91
        4
 64
     7
 65
   257
 75
     1
175
     1
 42
1.0
 92
        9
 66
     7
 43
1.0
 76
     1
 77
     6
 78
     2
 67
     7
 79
     5
170
     0
171
     0
290
     0
174
     0
 93
        1
 44
0.0
173
     0
291
     1
 45
0.0
1001
ACAD
1000
AcDbSavedByObjectVersion
1070
     0
  0
VISUALSTYLE
  5
4A396
102
{ACAD_XDICTIONARY
360
87B20
102
}
102
{ACAD_REACTORS
330
4A38C
102
}
330
4A38C
100
AcDbVisualStyle
  2

 70
     8
 71
     2
 72
     3
 73
     0
 90
        2
 40
-0.6
 41
30.0
 62
     5
 63
     7
 74
     0
 91
        0
 64
     7
 65
   257
 75
     1
175
     1
 42
1.0
 92
        8
 66
   257
 43
1.0
 76
     1
 77
     6
 78
     2
 67
     7
 79
     3
170
     0
171
     0
290
     0
174
     0
 93
       13
 44
0.0
173
     0
291
     0
 45
0.0
1001
ACAD
1000
AcDbSavedByObjectVersion
1070
     0
  0
VISUALSTYLE
  5
4A3A1
102
{ACAD_XDICTIONARY
360
87B36
102
}
102
{ACAD_REACTORS
330
4A38C
102
}
330
4A38C
100
AcDbVisualStyle
  2

 70
    27
 71
     2
 72
     2
 73
     1
 90
        2
 40
-0.6
 41
30.0
 62
     5
 63
     7
 74
     0
 91
        4
 64
     7
 65
   257
 75
     1
175
     1
 42
1.0
 92
        8
 66
   257
 43
1.0
 76
     1
 77
     6
 78
     2
 67
     8
 79
     3
170
     0
171
     0
290
     0
174
     0
 93
        5
 44
0.0
173
     0
291
     0
 45
0.0
1001
ACAD
1000
AcDbSavedByObjectVersion
1070
     0
  0
VISUALSTYLE
  5
4A3A0
102
{ACAD_XDICTIONARY
360
87B34
102
}
102
{ACAD_REACTORS
330
4A38C
102
}
330
4A38C
100
AcDbVisualStyle
  2

 70
    26
 71
     2
 72
     2
 73
     1
 90
        2
 40
-0.6
 41
30.0
 62
     5
 63
     7
 74
     1
 91
        2
 64
     7
 65
   257
 75
     2
175
     1
 42
1.0
 92
        8
 66
   257
 43
1.0
 76
     1
 77
     6
 78
     2
 67
     7
 79
     3
170
     0
171
     0
290
     0
174
     0
 93
        5
 44
0.0
173
     0
291
     0
 45
0.0
1001
ACAD
1000
AcDbSavedByObjectVersion
1070
     0
  0
VISUALSTYLE
  5
4A39D
102
{ACAD_XDICTIONARY
360
87B2E
102
}
102
{ACAD_REACTORS
330
4A38C
102
}
330
4A38C
100
AcDbVisualStyle
  2

 70
    23
 71
     2
 72
     2
 73
     3
 90
        0
 40
-0.6
 41
-30.0
 62
     5
 63
     7
 74
     2
 91
        2
 64
     7
 65
     7
 75
     1
175
     1
 42
40.0
 92
        8
 66
     7
 43
1.0
 76
     1
 77
     6
 78
     2
 67
     7
 79
     3
170
     0
171
     0
290
     0
174
     0
 93
        1
 44
0.0
173
     0
291
     0
 45
0.0
1001
ACAD
1000
AcDbSavedByObjectVersion
1070
     0
  0
VISUALSTYLE
  5
4A39E
102
{ACAD_XDICTIONARY
360
87B30
102
}
102
{ACAD_REACTORS
330
4A38C
102
}
330
4A38C
100
AcDbVisualStyle
  2

 70
    24
 71
     1
 72
     2
 73
     2
 90
        0
 40
-0.6
 41
-30.0
 62
     5
 63
     7
 74
     2
 91
        2
 64
     7
 65
     7
 75
     1
175
     1
 42
40.0
 92
       11
 66
     7
 43
1.0
 76
     1
 77
     6
 78
     2
 67
     7
 79
     6
170
     0
171
     0
290
     0
174
     0
 93
        1
 44
0.0
173
     0
291
     0
 45
0.0
1001
ACAD
1000
AcDbSavedByObjectVersion
1070
     0
  0
VISUALSTYLE
  5
4A399
102
{ACAD_XDICTIONARY
360
87B26
102
}
102
{ACAD_REACTORS
330
4A38C
102
}
330
4A38C
100
AcDbVisualStyle
  2

 70
    13
 71
     2
 72
     2
 73
     0
 90
        0
 40
-0.6
 41
-30.0
 62
     5
 63
     7
 74
     1
 91
        4
 64
     7
 65
   257
 75
     1
175
     1
 42
1.0
 92
       12
 66
     7
 43
1.0
 76
     1
 77
     6
 78
     2
 67
     7
 79
     5
170
     0
171
     0
290
     0
174
     0
 93
        1
 44
0.0
173
     0
291
     1
 45
0.0
1001
ACAD
1000
AcDbSavedByObjectVersion
1070
     0
  0
VISUALSTYLE
  5
4A393
102
{ACAD_XDICTIONARY
360
87B1A
102
}
102
{ACAD_REACTORS
330
4A38C
102
}
330
4A38C
100
AcDbVisualStyle
  2

 70
     5
 71
     0
 72
     2
 73
     0
 90
        0
 40
-0.6
 41
-30.0
 62
     5
 63
     7
 74
     1
 91
        4
 64
     7
 65
   257
 75
     1
175
     1
 42
1.0
 92
        0
 66
   257
 43
1.0
 76
     1
 77
     6
 78
     2
 67
     7
 79
     3
170
     0
171
     0
290
     0
174
     0
 93
        1
 44
0.0
173
     0
291
     0
 45
0.0
1001
ACAD
1000
AcDbSavedByObjectVersion
1070
     0
  0
VISUALSTYLE
  5
4A39F
102
{ACAD_XDICTIONARY
360
87B32
102
}
102
{ACAD_REACTORS
330
4A38C
102
}
330
4A38C
100
AcDbVisualStyle
  2

 70
    25
 71
     2
 72
     2
 73
     1
 90
        1
 40
0.5
 41
-30.0
 62
     5
 63
     7
 74
     1
 91
        0
 64
     7
 65
   257
 75
     1
175
     1
 42
1.0
 92
        8
 66
     7
 43
1.0
 76
     1
 77
     6
 78
     2
 67
     7
 79
     3
170
     0
171
     0
290
     0
174
     0
 93
       13
 44
0.0
173
     0
291
     0
 45
0.0
1001
ACAD
1000
AcDbSavedByObjectVersion
1070
     0
  0
XRECORD
  5
94DB8
102
{ACAD_REACTORS
330
94DB7
102
}
330
94DB7
100
AcDbXrecord
280
     1
340
85
  0
XRECORD
  5
94DB9
102
{ACAD_REACTORS
330
94DB7
102
}
330
94DB7
100
AcDbXrecord
280
     1
340
84
  0
DICTIONARYVAR
  5
94DB6
102
{ACAD_REACTORS
330
5E
102
}
330
5E
100
DictionaryVariables
280
   100
  1
1:1
  0
DICTIONARYVAR
  5
4A6CE
102
{ACAD_REACTORS
330
5E
102
}
330
5E
100
DictionaryVariables
280
     0
  1
STANDARD
  0
DICTIONARYVAR
  5
B8
102
{ACAD_REACTORS
330
5E
102
}
330
5E
100
DictionaryVariables
280
     0
  1
STANDARD
  0
DICTIONARYVAR
  5
4A6CF
102
{ACAD_REACTORS
330
5E
102
}
330
5E
100
DictionaryVariables
280
     0
  1
Metric50
  0
DICTIONARYVAR
  5
4A6D0
102
{ACAD_REACTORS
330
5E
102
}
330
5E
100
DictionaryVariables
280
     0
  1
Metric50
  0
DICTIONARYVAR
  5
5F
102
{ACAD_REACTORS
330
5E
102
}
330
5E
100
DictionaryVariables
280
     0
  1
2
  0
DICTIONARYVAR
  5
63
102
{ACAD_REACTORS
330
5E
102
}
330
5E
100
DictionaryVariables
280
     0
  1
1
  0
DICTIONARYVAR
  5
4A879
102
{ACAD_REACTORS
330
5E
102
}
330
5E
100
DictionaryVariables
280
     0
  1
0
  0
DICTIONARYVAR
  5
4A6D4
102
{ACAD_REACTORS
330
5E
102
}
330
5E
100
DictionaryVariables
280
     0
  1
1
  0
DICTIONARYVAR
  5
4A6D5
102
{ACAD_REACTORS
330
5E
102
}
330
5E
100
DictionaryVariables
280
     0
  1
15
  0
DICTIONARYVAR
  5
4A6D3
102
{ACAD_REACTORS
330
5E
102
}
330
5E
100
DictionaryVariables
280
     0
  1
0
  0
DICTIONARYVAR
  5
4A6D1
102
{ACAD_REACTORS
330
5E
102
}
330
5E
100
DictionaryVariables
280
     0
  1
0
  0
DICTIONARYVAR
  5
31CE
102
{ACAD_REACTORS
330
5E
102
}
330
5E
100
DictionaryVariables
280
     0
  1

  0
DICTIONARYVAR
  5
4A878
102
{ACAD_REACTORS
330
5E
102
}
330
5E
100
DictionaryVariables
280
     0
  1
127
  0
DICTIONARYVAR
  5
87AF9
102
{ACAD_REACTORS
330
5E
102
}
330
5E
100
DictionaryVariables
280
     0
  1
2
  0
XRECORD
  5
349EA
102
{ACAD_REACTORS
330
349E9
102
}
330
349E9
100
AcDbXrecord
280
     1
330
0
330
0
330
0
330
0
330
0
330
0
330
0
330
0
330
0
330
0
330
0
330
0
330
0
330
0
330
0
330
0
330
0
330
0
330
0
330
0
330
0
330
0
330
0
330
0
330
0
330
0
330
0
330
0
330
0
330
0
330
0
330
0
330
0
330
0
330
0
330
0
330
0
330
0
330
0
330
0
330
0
330
0
330
0
330
0
330
0
330
0
330
0
330
0
330
0
330
0
330
0
330
0
330
0
330
0
330
0
330
0
330
0
330
0
330
0
330
0
330
0
330
0
330
0
330
0
330
0
330
0
330
0
330
0
330
0
330
0
330
0
330
0
330
0
330
0
330
0
330
0
330
0
330
0
330
0
330
0
330
0
330
0
330
0
330
0
330
0
330
0
330
0
330
0
330
0
330
0
330
0
330
0
330
0
330
0
330
0
330
0
330
0
330
0
330
0
330
0
330
0
330
0
330
0
330
0
330
0
330
0
330
0
330
0
330
0
330
0
  0
DICTIONARY
  5
87B40
330
4A3BC
100
AcDbDictionary
280
     1
281
     1
  3
ACAD_XREC_ROUNDTRIP
360
87B41
  0
DICTIONARY
  5
4A37D
330
4A37C
100
AcDbDictionary
280
     1
281
     1
  3
ACAD_XREC_ROUNDTRIP
360
94DC4
  0
DICTIONARY
  5
4A375
330
4A374
100
AcDbDictionary
280
     1
281
     1
  3
ACAD_XREC_ROUNDTRIP
360
94DC5
  0
DICTIONARY
  5
4A385
330
4A384
100
AcDbDictionary
280
     1
281
     1
  3
ACAD_XREC_ROUNDTRIP
360
94DC6
  0
DICTIONARY
  5
8C353
330
4A3B8
100
AcDbDictionary
280
     1
281
     1
  3
ACAD_XREC_ROUNDTRIP
360
94DC7
  0
DICTIONARY
  5
87B3E
330
4A3BA
100
AcDbDictionary
280
     1
281
     1
  3
ACAD_XREC_ROUNDTRIP
360
87B3F
  0
DICTIONARY
  5
4CD9A
330
A2
100
AcDbDictionary
280
     1
281
     1
  3
ACAD_ROUNDTRIP_2008_TABLESTYLE_CELLSTYLEMAP
360
94DC9
  3
ACAD_XREC_ROUNDTRIP
360
94DC8
  0
DICTIONARY
  5
87B18
330
4A392
100
AcDbDictionary
280
     1
281
     1
  3
ACAD_XREC_ROUNDTRIP
360
94DCA
  0
DICTIONARY
  5
87B16
330
4A391
100
AcDbDictionary
280
     1
281
     1
  3
ACAD_XREC_ROUNDTRIP
360
94DCB
  0
DICTIONARY
  5
87B24
330
4A398
100
AcDbDictionary
280
     1
281
     1
  3
ACAD_XREC_ROUNDTRIP
360
94DCC
  0
DICTIONARY
  5
87B2C
330
4A39C
100
AcDbDictionary
280
     1
281
     1
  3
ACAD_XREC_ROUNDTRIP
360
94DCD
  0
DICTIONARY
  5
87B1E
330
4A395
100
AcDbDictionary
280
     1
281
     1
  3
ACAD_XREC_ROUNDTRIP
360
94DCE
  0
DICTIONARY
  5
87B22
330
4A397
100
AcDbDictionary
280
     1
281
     1
  3
ACAD_XREC_ROUNDTRIP
360
94DCF
  0
DICTIONARY
  5
87B3C
330
4A3A4
100
AcDbDictionary
280
     1
281
     1
  3
ACAD_XREC_ROUNDTRIP
360
94DD0
  0
DICTIONARY
  5
87B2A
330
4A39B
100
AcDbDictionary
280
     1
281
     1
  3
ACAD_XREC_ROUNDTRIP
360
94DD1
  0
DICTIONARY
  5
87B0E
330
4A38D
100
AcDbDictionary
280
     1
281
     1
  3
ACAD_XREC_ROUNDTRIP
360
94DD2
  0
DICTIONARY
  5
87B10
330
4A38E
100
AcDbDictionary
280
     1
281
     1
  3
ACAD_XREC_ROUNDTRIP
360
94DD3
  0
DICTIONARY
  5
87B12
330
4A38F
100
AcDbDictionary
280
     1
281
     1
  3
ACAD_XREC_ROUNDTRIP
360
94DD4
  0
DICTIONARY
  5
87B14
330
4A390
100
AcDbDictionary
280
     1
281
     1
  3
ACAD_XREC_ROUNDTRIP
360
94DD5
  0
DICTIONARY
  5
87B1C
330
4A394
100
AcDbDictionary
280
     1
281
     1
  3
ACAD_XREC_ROUNDTRIP
360
94DD6
  0
DICTIONARY
  5
87B38
330
4A3A2
100
AcDbDictionary
280
     1
281
     1
  3
ACAD_XREC_ROUNDTRIP
360
94DD7
  0
DICTIONARY
  5
87B28
330
4A39A
100
AcDbDictionary
280
     1
281
     1
  3
ACAD_XREC_ROUNDTRIP
360
94DD8
  0
DICTIONARY
  5
87B3A
330
4A3A3
100
AcDbDictionary
280
     1
281
     1
  3
ACAD_XREC_ROUNDTRIP
360
94DD9
  0
DICTIONARY
  5
87B20
330
4A396
100
AcDbDictionary
280
     1
281
     1
  3
ACAD_XREC_ROUNDTRIP
360
94DDA
  0
DICTIONARY
  5
87B36
330
4A3A1
100
AcDbDictionary
280
     1
281
     1
  3
ACAD_XREC_ROUNDTRIP
360
94DDB
  0
DICTIONARY
  5
87B34
330
4A3A0
100
AcDbDictionary
280
     1
281
     1
  3
ACAD_XREC_ROUNDTRIP
360
94DDC
  0
DICTIONARY
  5
87B2E
330
4A39D
100
AcDbDictionary
280
     1
281
     1
  3
ACAD_XREC_ROUNDTRIP
360
94DDD
  0
DICTIONARY
  5
87B30
330
4A39E
100
AcDbDictionary
280
     1
281
     1
  3
ACAD_XREC_ROUNDTRIP
360
94DDE
  0
DICTIONARY
  5
87B26
330
4A399
100
AcDbDictionary
280
     1
281
     1
  3
ACAD_XREC_ROUNDTRIP
360
94DDF
  0
DICTIONARY
  5
87B1A
330
4A393
100
AcDbDictionary
280
     1
281
     1
  3
ACAD_XREC_ROUNDTRIP
360
94DE0
  0
DICTIONARY
  5
87B32
330
4A39F
100
AcDbDictionary
280
     1
281
     1
  3
ACAD_XREC_ROUNDTRIP
360
94DE1
  0
XRECORD
  5
87B41
102
{ACAD_REACTORS
330
87B40
102
}
330
87B40
100
AcDbXrecord
280
     1
102
DISPLAYNAME
  1
Metric50
102
FLAGS
 90
        0
  0
XRECORD
  5
94DC4
102
{ACAD_REACTORS
330
4A37D
102
}
330
4A37D
100
AcDbXrecord
280
     1
102
MATERIAL
148
0.0
149
0.0
149
0.0
 93
        0
 94
      127
282
     0
 72
     0
 77
     0
171
     0
175
     0
179
     0
273
     0
  0
XRECORD
  5
94DC5
102
{ACAD_REACTORS
330
4A375
102
}
330
4A375
100
AcDbXrecord
280
     1
102
MATERIAL
148
0.0
149
0.0
149
0.0
 93
        0
 94
      127
282
     0
 72
     0
 77
     0
171
     0
175
     0
179
     0
273
     0
  0
XRECORD
  5
94DC6
102
{ACAD_REACTORS
330
4A385
102
}
330
4A385
100
AcDbXrecord
280
     1
102
MATERIAL
148
0.0
149
0.0
149
0.0
 93
        0
 94
      127
282
     0
 72
     0
 77
     0
171
     0
175
     0
179
     0
273
     0
  0
XRECORD
  5
94DC7
102
{ACAD_REACTORS
330
8C353
102
}
330
8C353
100
AcDbXrecord
280
     1
102
ACAD_ROUNDTRIP_2010_MLEADER_STYLE
  0
XRECORD
  5
87B3F
102
{ACAD_REACTORS
330
87B3E
102
}
330
87B3E
100
AcDbXrecord
280
     1
102
DISPLAYNAME
  1
Metric50
102
FLAGS
 90
        0
  0
CELLSTYLEMAP
  5
94DC9
102
{ACAD_REACTORS
330
4CD9A
102
}
330
4CD9A
100
AcDbCellStyleMap
 90
        3
300
CELLSTYLE
  1
TABLEFORMAT_BEGIN
 90
        5
170
     1
 91
        0
 92
    32768
 62
   257
 93
        1
300
CONTENTFORMAT
  1
CONTENTFORMAT_BEGIN
 90
        0
 91
        0
 92
        4
 93
        0
300

 40
0.0
140
1.0
 94
        5
 62
     0
340
11
144
6.0
309
CONTENTFORMAT_END
171
     1
301
MARGIN
  1
CELLMARGIN_BEGIN
 40
1.5
 40
1.5
 40
1.5
 40
1.5
 40
0.18
 40
0.18
309
CELLMARGIN_END
 94
        6
 95
        1
302
GRIDFORMAT
  1
GRIDFORMAT_BEGIN
 90
        0
 91
        1
 62
     0
 92
       -2
340
0
 93
        0
 40
0.045
309
GRIDFORMAT_END
 95
        2
302
GRIDFORMAT
  1
GRIDFORMAT_BEGIN
 90
        0
 91
        1
 62
     0
 92
       -2
340
0
 93
        0
 40
0.045
309
GRIDFORMAT_END
 95
        4
302
GRIDFORMAT
  1
GRIDFORMAT_BEGIN
 90
        0
 91
        1
 62
     0
 92
       -2
340
0
 93
        0
 40
0.045
309
GRIDFORMAT_END
 95
        8
302
GRIDFORMAT
  1
GRIDFORMAT_BEGIN
 90
        0
 91
        1
 62
     0
 92
       -2
340
0
 93
        0
 40
0.045
309
GRIDFORMAT_END
 95
       16
302
GRIDFORMAT
  1
GRIDFORMAT_BEGIN
 90
        0
 91
        1
 62
     0
 92
       -2
340
0
 93
        0
 40
0.045
309
GRIDFORMAT_END
 95
       32
302
GRIDFORMAT
  1
GRIDFORMAT_BEGIN
 90
        0
 91
        1
 62
     0
 92
       -2
340
0
 93
        0
 40
0.045
309
GRIDFORMAT_END
309
TABLEFORMAT_END
  1
CELLSTYLE_BEGIN
 90
        1
 91
        1
300
_TITLE
309
CELLSTYLE_END
300
CELLSTYLE
  1
TABLEFORMAT_BEGIN
 90
        5
170
     1
 91
        0
 92
        0
 62
   257
 93
        1
300
CONTENTFORMAT
  1
CONTENTFORMAT_BEGIN
 90
        0
 91
        0
 92
        4
 93
        0
300

 40
0.0
140
1.0
 94
        5
 62
     0
340
11
144
4.5
309
CONTENTFORMAT_END
171
     1
301
MARGIN
  1
CELLMARGIN_BEGIN
 40
1.5
 40
1.5
 40
1.5
 40
1.5
 40
0.18
 40
0.18
309
CELLMARGIN_END
 94
        6
 95
        1
302
GRIDFORMAT
  1
GRIDFORMAT_BEGIN
 90
        0
 91
        1
 62
     0
 92
       -2
340
0
 93
        0
 40
0.045
309
GRIDFORMAT_END
 95
        2
302
GRIDFORMAT
  1
GRIDFORMAT_BEGIN
 90
        0
 91
        1
 62
     0
 92
       -2
340
0
 93
        0
 40
0.045
309
GRIDFORMAT_END
 95
        4
302
GRIDFORMAT
  1
GRIDFORMAT_BEGIN
 90
        0
 91
        1
 62
     0
 92
       -2
340
0
 93
        0
 40
0.045
309
GRIDFORMAT_END
 95
        8
302
GRIDFORMAT
  1
GRIDFORMAT_BEGIN
 90
        0
 91
        1
 62
     0
 92
       -2
340
0
 93
        0
 40
0.045
309
GRIDFORMAT_END
 95
       16
302
GRIDFORMAT
  1
GRIDFORMAT_BEGIN
 90
        0
 91
        1
 62
     0
 92
       -2
340
0
 93
        0
 40
0.045
309
GRIDFORMAT_END
 95
       32
302
GRIDFORMAT
  1
GRIDFORMAT_BEGIN
 90
        0
 91
        1
 62
     0
 92
       -2
340
0
 93
        0
 40
0.045
309
GRIDFORMAT_END
309
TABLEFORMAT_END
  1
CELLSTYLE_BEGIN
 90
        2
 91
        1
300
_HEADER
309
CELLSTYLE_END
300
CELLSTYLE
  1
TABLEFORMAT_BEGIN
 90
        5
170
     1
 91
        0
 92
        0
 62
   257
 93
        1
300
CONTENTFORMAT
  1
CONTENTFORMAT_BEGIN
 90
        0
 91
        0
 92
        4
 93
        0
300

 40
0.0
140
1.0
 94
        2
 62
     0
340
11
144
4.5
309
CONTENTFORMAT_END
171
     1
301
MARGIN
  1
CELLMARGIN_BEGIN
 40
1.5
 40
1.5
 40
1.5
 40
1.5
 40
0.18
 40
0.18
309
CELLMARGIN_END
 94
        6
 95
        1
302
GRIDFORMAT
  1
GRIDFORMAT_BEGIN
 90
        0
 91
        1
 62
     0
 92
       -2
340
0
 93
        0
 40
0.045
309
GRIDFORMAT_END
 95
        2
302
GRIDFORMAT
  1
GRIDFORMAT_BEGIN
 90
        0
 91
        1
 62
     0
 92
       -2
340
0
 93
        0
 40
0.045
309
GRIDFORMAT_END
 95
        4
302
GRIDFORMAT
  1
GRIDFORMAT_BEGIN
 90
        0
 91
        1
 62
     0
 92
       -2
340
0
 93
        0
 40
0.045
309
GRIDFORMAT_END
 95
        8
302
GRIDFORMAT
  1
GRIDFORMAT_BEGIN
 90
        0
 91
        1
 62
     0
 92
       -2
340
0
 93
        0
 40
0.045
309
GRIDFORMAT_END
 95
       16
302
GRIDFORMAT
  1
GRIDFORMAT_BEGIN
 90
        0
 91
        1
 62
     0
 92
       -2
340
0
 93
        0
 40
0.045
309
GRIDFORMAT_END
 95
       32
302
GRIDFORMAT
  1
GRIDFORMAT_BEGIN
 90
        0
 91
        1
 62
     0
 92
       -2
340
0
 93
        0
 40
0.045
309
GRIDFORMAT_END
309
TABLEFORMAT_END
  1
CELLSTYLE_BEGIN
 90
        3
 91
        2
300
_DATA
309
CELLSTYLE_END
  0
XRECORD
  5
94DC8
102
{ACAD_REACTORS
330
4CD9A
102
}
330
4CD9A
100
AcDbXrecord
280
     1
102
ACAD_ROUNDTRIP_PRE2007_TABLESTYLE
 90
        4
 91
        0
  1

 92
        4
 93
        0
  2

 94
        4
 95
        0
  3

  0
XRECORD
  5
94DCA
102
{ACAD_REACTORS
330
87B18
102
}
330
87B18
100
AcDbXrecord
280
     1
102
RTVSPropertyOp0
 70
     1
102
RTVSPropertyOp1
 70
     1
102
RTVSPropertyOp2
 70
     1
102
RTVSPropertyOp3
 70
     1
102
RTVSPropertyOp4
 70
     1
102
RTVSPropertyOp5
 70
     1
102
RTVSPropertyOp6
 70
     1
102
RTVSPropertyOp7
 70
     1
102
RTVSPropertyOp8
 70
     1
102
RTVSPropertyOp9
 70
     1
102
RTVSPropertyOp10
 70
     1
102
RTVSPropertyOp11
 70
     1
102
RTVSPropertyOp12
 70
     1
102
RTVSPropertyOp13
 70
     1
102
RTVSPropertyOp14
 70
     1
102
RTVSPropertyOp15
 70
     1
102
RTVSPropertyOp16
 70
     1
102
RTVSPropertyOp17
 70
     1
102
RTVSPropertyOp18
 70
     1
102
RTVSPropertyOp19
 70
     1
102
RTVSPropertyOp20
 70
     1
102
RTVSPropertyOp21
 70
     1
102
RTVSPropertyOp22
 70
     1
102
RTVSPropertyOp23
 70
     1
102
RTVSPropertyOp24
 70
     1
102
RTVSPropertyOp25
 70
     1
102
RTVSPropertyOp26
 70
     1
102
RTVSPropertyOp27
 70
     1
102
RTVSPropertyOp28
 70
     1
102
RTVSPropertyOp29
 70
     1
102
RTVSPropertyOp30
 70
     1
102
RTVSPropertyOp31
 70
     1
102
RTVSPropertyOp32
 70
     1
102
RTVSPropertyOp33
 70
     1
102
RTVSPropertyOp34
 70
     1
102
RTVSPropertyOp35
 70
     1
102
RTVSPropertyOp36
 70
     1
102
RTVSPropertyOp37
 70
     1
102
RTVSPropertyOp38
 70
     1
102
RTVSPropertyOp39
 70
     1
102
RTVSPropertyOp40
 70
     1
102
RTVSPropertyOp41
 70
     1
102
RTVSPropertyOp42
 70
     1
102
RTVSPropertyOp43
 70
     1
102
RTVSPropertyOp44
 70
     1
102
RTVSPropertyOp45
 70
     1
102
RTVSPropertyOp46
 70
     1
102
RTVSPropertyOp47
 70
     1
102
RTVSPropertyOp48
 70
     1
102
RTVSPropertyOp49
 70
     1
102
RTVSPropertyOp50
 70
     1
102
RTVSPropertyOp51
 70
     0
102
RTVSPropertyOp52
 70
     0
102
RTVSPropertyOp53
 70
     1
102
RTVSPropertyOp54
 70
     1
102
RTVSPropertyOp55
 70
     1
102
RTVSPropertyOp56
 70
     1
102
RTVSPropertyOp57
 70
     1
102
RTVSPost2010Prop28
280
     1
102
RTVSPost2010PropOp28
 70
     1
102
RTVSPost2010Prop29
280
     1
102
RTVSPost2010PropOp29
 70
     1
102
RTVSPost2010Prop30
280
     0
102
RTVSPost2010PropOp30
 70
     1
102
RTVSPost2010Prop31
280
     0
102
RTVSPost2010PropOp31
 70
     1
102
RTVSPost2010Prop32
280
     0
102
RTVSPost2010PropOp32
 70
     1
102
RTVSPost2010Prop33
280
     0
102
RTVSPost2010PropOp33
 70
     1
102
RTVSPost2010Prop34
280
     0
102
RTVSPost2010PropOp34
 70
     1
102
RTVSPost2010Prop35
280
     0
102
RTVSPost2010PropOp35
 70
     1
102
RTVSPost2010Prop36
280
     0
102
RTVSPost2010PropOp36
 70
     1
102
RTVSPost2010Prop37
 90
       50
102
RTVSPost2010PropOp37
 70
     1
102
RTVSPost2010Prop38
140
0.0
102
RTVSPost2010PropOp38
 70
     1
102
RTVSPost2010Prop39
140
1.0
102
RTVSPost2010PropOp39
 70
     1
102
RTVSPost2010Prop40
 90
        0
102
RTVSPost2010PropOp40
 70
     1
102
RTVSPost2010Prop41ColorIndex
 90
       18
102
RTVSPost2010Prop41ColorRGB
 90
        0
102
RTVSPost2010PropOp41
 70
     1
102
RTVSPost2010Prop42
 90
       50
102
RTVSPost2010PropOp42
 70
     1
102
RTVSPost2010Prop43
 90
        3
102
RTVSPost2010PropOp43
 70
     1
102
RTVSPost2010Prop44ColorIndex
 90
        5
102
RTVSPost2010Prop44ColorRGB
 90
      255
102
RTVSPost2010PropOp44
 70
     1
102
RTVSPost2010Prop45
280
     0
102
RTVSPost2010PropOp45
 70
     1
102
RTVSPost2010Prop46
 90
       50
102
RTVSPost2010PropOp46
 70
     1
102
RTVSPost2010Prop47
 90
       50
102
RTVSPost2010PropOp47
 70
     1
102
RTVSPost2010Prop48
 90
       50
102
RTVSPost2010PropOp48
 70
     1
102
RTVSPost2010Prop49
280
     0
102
RTVSPost2010PropOp49
 70
     1
102
RTVSPost2010Prop50
 90
       50
102
RTVSPost2010PropOp50
 70
     1
102
RTVSPost2010Prop51ColorIndex
 90
      256
102
RTVSPost2010Prop51ColorRGB
 90
-16777216
102
RTVSPost2010PropOp51
 70
     0
102
RTVSPost2010Prop52
140
1.0
102
RTVSPost2010PropOp52
 70
     0
102
RTVSPost2010Prop53
 90
        2
102
RTVSPost2010PropOp53
 70
     1
102
RTVSPost2010Prop54
  1
strokes_ogs.tif
102
RTVSPost2010PropOp54
 70
     1
102
RTVSPost2010Prop55
280
     0
102
RTVSPost2010PropOp55
 70
     1
102
RTVSPost2010Prop56
140
1.0
102
RTVSPost2010PropOp56
 70
     1
102
RTVSPost2010Prop57
140
1.0
102
RTVSPost2010PropOp57
 70
     1
  0
XRECORD
  5
94DCB
102
{ACAD_REACTORS
330
87B16
102
}
330
87B16
100
AcDbXrecord
280
     1
102
RTVSPropertyOp0
 70
     1
102
RTVSPropertyOp1
 70
     1
102
RTVSPropertyOp2
 70
     1
102
RTVSPropertyOp3
 70
     1
102
RTVSPropertyOp4
 70
     1
102
RTVSPropertyOp5
 70
     1
102
RTVSPropertyOp6
 70
     1
102
RTVSPropertyOp7
 70
     1
102
RTVSPropertyOp8
 70
     1
102
RTVSPropertyOp9
 70
     1
102
RTVSPropertyOp10
 70
     1
102
RTVSPropertyOp11
 70
     1
102
RTVSPropertyOp12
 70
     1
102
RTVSPropertyOp13
 70
     1
102
RTVSPropertyOp14
 70
     1
102
RTVSPropertyOp15
 70
     1
102
RTVSPropertyOp16
 70
     1
102
RTVSPropertyOp17
 70
     1
102
RTVSPropertyOp18
 70
     1
102
RTVSPropertyOp19
 70
     1
102
RTVSPropertyOp20
 70
     1
102
RTVSPropertyOp21
 70
     1
102
RTVSPropertyOp22
 70
     1
102
RTVSPropertyOp23
 70
     1
102
RTVSPropertyOp24
 70
     1
102
RTVSPropertyOp25
 70
     1
102
RTVSPropertyOp26
 70
     1
102
RTVSPropertyOp27
 70
     1
102
RTVSPropertyOp28
 70
     1
102
RTVSPropertyOp29
 70
     1
102
RTVSPropertyOp30
 70
     1
102
RTVSPropertyOp31
 70
     1
102
RTVSPropertyOp32
 70
     1
102
RTVSPropertyOp33
 70
     1
102
RTVSPropertyOp34
 70
     1
102
RTVSPropertyOp35
 70
     1
102
RTVSPropertyOp36
 70
     1
102
RTVSPropertyOp37
 70
     1
102
RTVSPropertyOp38
 70
     1
102
RTVSPropertyOp39
 70
     1
102
RTVSPropertyOp40
 70
     1
102
RTVSPropertyOp41
 70
     1
102
RTVSPropertyOp42
 70
     1
102
RTVSPropertyOp43
 70
     1
102
RTVSPropertyOp44
 70
     1
102
RTVSPropertyOp45
 70
     1
102
RTVSPropertyOp46
 70
     1
102
RTVSPropertyOp47
 70
     1
102
RTVSPropertyOp48
 70
     1
102
RTVSPropertyOp49
 70
     1
102
RTVSPropertyOp50
 70
     1
102
RTVSPropertyOp51
 70
     0
102
RTVSPropertyOp52
 70
     0
102
RTVSPropertyOp53
 70
     1
102
RTVSPropertyOp54
 70
     1
102
RTVSPropertyOp55
 70
     1
102
RTVSPropertyOp56
 70
     1
102
RTVSPropertyOp57
 70
     1
102
RTVSPost2010Prop28
280
     0
102
RTVSPost2010PropOp28
 70
     1
102
RTVSPost2010Prop29
280
     1
102
RTVSPost2010PropOp29
 70
     1
102
RTVSPost2010Prop30
280
     1
102
RTVSPost2010PropOp30
 70
     1
102
RTVSPost2010Prop31
280
     0
102
RTVSPost2010PropOp31
 70
     1
102
RTVSPost2010Prop32
280
     0
102
RTVSPost2010PropOp32
 70
     1
102
RTVSPost2010Prop33
280
     0
102
RTVSPost2010PropOp33
 70
     1
102
RTVSPost2010Prop34
280
     0
102
RTVSPost2010PropOp34
 70
     1
102
RTVSPost2010Prop35
280
     0
102
RTVSPost2010PropOp35
 70
     1
102
RTVSPost2010Prop36
280
     0
102
RTVSPost2010PropOp36
 70
     1
102
RTVSPost2010Prop37
 90
       50
102
RTVSPost2010PropOp37
 70
     1
102
RTVSPost2010Prop38
140
0.0
102
RTVSPost2010PropOp38
 70
     1
102
RTVSPost2010Prop39
140
1.0
102
RTVSPost2010PropOp39
 70
     1
102
RTVSPost2010Prop40
 90
        0
102
RTVSPost2010PropOp40
 70
     1
102
RTVSPost2010Prop41ColorIndex
 90
       18
102
RTVSPost2010Prop41ColorRGB
 90
        0
102
RTVSPost2010PropOp41
 70
     1
102
RTVSPost2010Prop42
 90
       50
102
RTVSPost2010PropOp42
 70
     1
102
RTVSPost2010Prop43
 90
        3
102
RTVSPost2010PropOp43
 70
     1
102
RTVSPost2010Prop44ColorIndex
 90
        5
102
RTVSPost2010Prop44ColorRGB
 90
      255
102
RTVSPost2010PropOp44
 70
     1
102
RTVSPost2010Prop45
280
     0
102
RTVSPost2010PropOp45
 70
     1
102
RTVSPost2010Prop46
 90
       50
102
RTVSPost2010PropOp46
 70
     1
102
RTVSPost2010Prop47
 90
       50
102
RTVSPost2010PropOp47
 70
     1
102
RTVSPost2010Prop48
 90
       50
102
RTVSPost2010PropOp48
 70
     1
102
RTVSPost2010Prop49
280
     0
102
RTVSPost2010PropOp49
 70
     1
102
RTVSPost2010Prop50
 90
       50
102
RTVSPost2010PropOp50
 70
     1
102
RTVSPost2010Prop51ColorIndex
 90
      256
102
RTVSPost2010Prop51ColorRGB
 90
-16777216
102
RTVSPost2010PropOp51
 70
     0
102
RTVSPost2010Prop52
140
1.0
102
RTVSPost2010PropOp52
 70
     0
102
RTVSPost2010Prop53
 90
        2
102
RTVSPost2010PropOp53
 70
     1
102
RTVSPost2010Prop54
  1
strokes_ogs.tif
102
RTVSPost2010PropOp54
 70
     1
102
RTVSPost2010Prop55
280
     0
102
RTVSPost2010PropOp55
 70
     1
102
RTVSPost2010Prop56
140
1.0
102
RTVSPost2010PropOp56
 70
     1
102
RTVSPost2010Prop57
140
1.0
102
RTVSPost2010PropOp57
 70
     1
  0
XRECORD
  5
94DCC
102
{ACAD_REACTORS
330
87B24
102
}
330
87B24
100
AcDbXrecord
280
     1
102
RTVSPropertyOp0
 70
     1
102
RTVSPropertyOp1
 70
     1
102
RTVSPropertyOp2
 70
     1
102
RTVSPropertyOp3
 70
     1
102
RTVSPropertyOp4
 70
     1
102
RTVSPropertyOp5
 70
     1
102
RTVSPropertyOp6
 70
     1
102
RTVSPropertyOp7
 70
     1
102
RTVSPropertyOp8
 70
     1
102
RTVSPropertyOp9
 70
     1
102
RTVSPropertyOp10
 70
     1
102
RTVSPropertyOp11
 70
     1
102
RTVSPropertyOp12
 70
     1
102
RTVSPropertyOp13
 70
     1
102
RTVSPropertyOp14
 70
     1
102
RTVSPropertyOp15
 70
     1
102
RTVSPropertyOp16
 70
     1
102
RTVSPropertyOp17
 70
     1
102
RTVSPropertyOp18
 70
     1
102
RTVSPropertyOp19
 70
     1
102
RTVSPropertyOp20
 70
     1
102
RTVSPropertyOp21
 70
     1
102
RTVSPropertyOp22
 70
     1
102
RTVSPropertyOp23
 70
     1
102
RTVSPropertyOp24
 70
     1
102
RTVSPropertyOp25
 70
     1
102
RTVSPropertyOp26
 70
     1
102
RTVSPropertyOp27
 70
     1
102
RTVSPropertyOp28
 70
     1
102
RTVSPropertyOp29
 70
     1
102
RTVSPropertyOp30
 70
     1
102
RTVSPropertyOp31
 70
     1
102
RTVSPropertyOp32
 70
     1
102
RTVSPropertyOp33
 70
     1
102
RTVSPropertyOp34
 70
     1
102
RTVSPropertyOp35
 70
     1
102
RTVSPropertyOp36
 70
     1
102
RTVSPropertyOp37
 70
     1
102
RTVSPropertyOp38
 70
     1
102
RTVSPropertyOp39
 70
     1
102
RTVSPropertyOp40
 70
     1
102
RTVSPropertyOp41
 70
     1
102
RTVSPropertyOp42
 70
     1
102
RTVSPropertyOp43
 70
     1
102
RTVSPropertyOp44
 70
     1
102
RTVSPropertyOp45
 70
     1
102
RTVSPropertyOp46
 70
     1
102
RTVSPropertyOp47
 70
     1
102
RTVSPropertyOp48
 70
     1
102
RTVSPropertyOp49
 70
     1
102
RTVSPropertyOp50
 70
     1
102
RTVSPropertyOp51
 70
     0
102
RTVSPropertyOp52
 70
     0
102
RTVSPropertyOp53
 70
     1
102
RTVSPropertyOp54
 70
     1
102
RTVSPropertyOp55
 70
     1
102
RTVSPropertyOp56
 70
     1
102
RTVSPropertyOp57
 70
     1
102
RTVSPost2010Prop28
280
     0
102
RTVSPost2010PropOp28
 70
     1
102
RTVSPost2010Prop29
280
     1
102
RTVSPost2010PropOp29
 70
     1
102
RTVSPost2010Prop30
280
     1
102
RTVSPost2010PropOp30
 70
     1
102
RTVSPost2010Prop31
280
     0
102
RTVSPost2010PropOp31
 70
     1
102
RTVSPost2010Prop32
280
     0
102
RTVSPost2010PropOp32
 70
     1
102
RTVSPost2010Prop33
280
     0
102
RTVSPost2010PropOp33
 70
     1
102
RTVSPost2010Prop34
280
     0
102
RTVSPost2010PropOp34
 70
     1
102
RTVSPost2010Prop35
280
     0
102
RTVSPost2010PropOp35
 70
     1
102
RTVSPost2010Prop36
280
     0
102
RTVSPost2010PropOp36
 70
     1
102
RTVSPost2010Prop37
 90
       50
102
RTVSPost2010PropOp37
 70
     1
102
RTVSPost2010Prop38
140
0.0
102
RTVSPost2010PropOp38
 70
     1
102
RTVSPost2010Prop39
140
1.0
102
RTVSPost2010PropOp39
 70
     1
102
RTVSPost2010Prop40
 90
        0
102
RTVSPost2010PropOp40
 70
     1
102
RTVSPost2010Prop41ColorIndex
 90
       18
102
RTVSPost2010Prop41ColorRGB
 90
        0
102
RTVSPost2010PropOp41
 70
     1
102
RTVSPost2010Prop42
 90
       50
102
RTVSPost2010PropOp42
 70
     1
102
RTVSPost2010Prop43
 90
        3
102
RTVSPost2010PropOp43
 70
     1
102
RTVSPost2010Prop44ColorIndex
 90
        5
102
RTVSPost2010Prop44ColorRGB
 90
      255
102
RTVSPost2010PropOp44
 70
     1
102
RTVSPost2010Prop45
280
     0
102
RTVSPost2010PropOp45
 70
     1
102
RTVSPost2010Prop46
 90
       50
102
RTVSPost2010PropOp46
 70
     1
102
RTVSPost2010Prop47
 90
       50
102
RTVSPost2010PropOp47
 70
     1
102
RTVSPost2010Prop48
 90
       50
102
RTVSPost2010PropOp48
 70
     1
102
RTVSPost2010Prop49
280
     0
102
RTVSPost2010PropOp49
 70
     1
102
RTVSPost2010Prop50
 90
       50
102
RTVSPost2010PropOp50
 70
     1
102
RTVSPost2010Prop51ColorIndex
 90
      256
102
RTVSPost2010Prop51ColorRGB
 90
-16777216
102
RTVSPost2010PropOp51
 70
     0
102
RTVSPost2010Prop52
140
1.0
102
RTVSPost2010PropOp52
 70
     0
102
RTVSPost2010Prop53
 90
        2
102
RTVSPost2010PropOp53
 70
     1
102
RTVSPost2010Prop54
  1
strokes_ogs.tif
102
RTVSPost2010PropOp54
 70
     1
102
RTVSPost2010Prop55
280
     0
102
RTVSPost2010PropOp55
 70
     1
102
RTVSPost2010Prop56
140
1.0
102
RTVSPost2010PropOp56
 70
     1
102
RTVSPost2010Prop57
140
1.0
102
RTVSPost2010PropOp57
 70
     1
  0
XRECORD
  5
94DCD
102
{ACAD_REACTORS
330
87B2C
102
}
330
87B2C
100
AcDbXrecord
280
     1
102
RTVSPropertyOp0
 70
     1
102
RTVSPropertyOp1
 70
     1
102
RTVSPropertyOp2
 70
     1
102
RTVSPropertyOp3
 70
     1
102
RTVSPropertyOp4
 70
     1
102
RTVSPropertyOp5
 70
     1
102
RTVSPropertyOp6
 70
     1
102
RTVSPropertyOp7
 70
     1
102
RTVSPropertyOp8
 70
     1
102
RTVSPropertyOp9
 70
     1
102
RTVSPropertyOp10
 70
     1
102
RTVSPropertyOp11
 70
     1
102
RTVSPropertyOp12
 70
     1
102
RTVSPropertyOp13
 70
     1
102
RTVSPropertyOp14
 70
     1
102
RTVSPropertyOp15
 70
     1
102
RTVSPropertyOp16
 70
     1
102
RTVSPropertyOp17
 70
     1
102
RTVSPropertyOp18
 70
     1
102
RTVSPropertyOp19
 70
     1
102
RTVSPropertyOp20
 70
     1
102
RTVSPropertyOp21
 70
     1
102
RTVSPropertyOp22
 70
     1
102
RTVSPropertyOp23
 70
     1
102
RTVSPropertyOp24
 70
     1
102
RTVSPropertyOp25
 70
     1
102
RTVSPropertyOp26
 70
     1
102
RTVSPropertyOp27
 70
     1
102
RTVSPropertyOp28
 70
     1
102
RTVSPropertyOp29
 70
     1
102
RTVSPropertyOp30
 70
     1
102
RTVSPropertyOp31
 70
     1
102
RTVSPropertyOp32
 70
     1
102
RTVSPropertyOp33
 70
     1
102
RTVSPropertyOp34
 70
     1
102
RTVSPropertyOp35
 70
     1
102
RTVSPropertyOp36
 70
     1
102
RTVSPropertyOp37
 70
     1
102
RTVSPropertyOp38
 70
     1
102
RTVSPropertyOp39
 70
     1
102
RTVSPropertyOp40
 70
     1
102
RTVSPropertyOp41
 70
     1
102
RTVSPropertyOp42
 70
     1
102
RTVSPropertyOp43
 70
     1
102
RTVSPropertyOp44
 70
     1
102
RTVSPropertyOp45
 70
     1
102
RTVSPropertyOp46
 70
     1
102
RTVSPropertyOp47
 70
     1
102
RTVSPropertyOp48
 70
     1
102
RTVSPropertyOp49
 70
     1
102
RTVSPropertyOp50
 70
     1
102
RTVSPropertyOp51
 70
     0
102
RTVSPropertyOp52
 70
     0
102
RTVSPropertyOp53
 70
     1
102
RTVSPropertyOp54
 70
     1
102
RTVSPropertyOp55
 70
     1
102
RTVSPropertyOp56
 70
     1
102
RTVSPropertyOp57
 70
     1
102
RTVSPost2010Prop28
280
     0
102
RTVSPost2010PropOp28
 70
     1
102
RTVSPost2010Prop29
280
     1
102
RTVSPost2010PropOp29
 70
     1
102
RTVSPost2010Prop30
280
     1
102
RTVSPost2010PropOp30
 70
     1
102
RTVSPost2010Prop31
280
     0
102
RTVSPost2010PropOp31
 70
     1
102
RTVSPost2010Prop32
280
     0
102
RTVSPost2010PropOp32
 70
     1
102
RTVSPost2010Prop33
280
     0
102
RTVSPost2010PropOp33
 70
     1
102
RTVSPost2010Prop34
280
     0
102
RTVSPost2010PropOp34
 70
     1
102
RTVSPost2010Prop35
280
     0
102
RTVSPost2010PropOp35
 70
     1
102
RTVSPost2010Prop36
280
     0
102
RTVSPost2010PropOp36
 70
     1
102
RTVSPost2010Prop37
 90
       50
102
RTVSPost2010PropOp37
 70
     1
102
RTVSPost2010Prop38
140
0.0
102
RTVSPost2010PropOp38
 70
     1
102
RTVSPost2010Prop39
140
1.0
102
RTVSPost2010PropOp39
 70
     1
102
RTVSPost2010Prop40
 90
        0
102
RTVSPost2010PropOp40
 70
     1
102
RTVSPost2010Prop41ColorIndex
 90
       18
102
RTVSPost2010Prop41ColorRGB
 90
        0
102
RTVSPost2010PropOp41
 70
     1
102
RTVSPost2010Prop42
 90
       50
102
RTVSPost2010PropOp42
 70
     1
102
RTVSPost2010Prop43
 90
        3
102
RTVSPost2010PropOp43
 70
     1
102
RTVSPost2010Prop44ColorIndex
 90
        5
102
RTVSPost2010Prop44ColorRGB
 90
      255
102
RTVSPost2010PropOp44
 70
     1
102
RTVSPost2010Prop45
280
     0
102
RTVSPost2010PropOp45
 70
     1
102
RTVSPost2010Prop46
 90
       50
102
RTVSPost2010PropOp46
 70
     1
102
RTVSPost2010Prop47
 90
       50
102
RTVSPost2010PropOp47
 70
     1
102
RTVSPost2010Prop48
 90
       50
102
RTVSPost2010PropOp48
 70
     1
102
RTVSPost2010Prop49
280
     0
102
RTVSPost2010PropOp49
 70
     1
102
RTVSPost2010Prop50
 90
       50
102
RTVSPost2010PropOp50
 70
     1
102
RTVSPost2010Prop51ColorIndex
 90
      256
102
RTVSPost2010Prop51ColorRGB
 90
-16777216
102
RTVSPost2010PropOp51
 70
     0
102
RTVSPost2010Prop52
140
1.0
102
RTVSPost2010PropOp52
 70
     0
102
RTVSPost2010Prop53
 90
        2
102
RTVSPost2010PropOp53
 70
     1
102
RTVSPost2010Prop54
  1
strokes_ogs.tif
102
RTVSPost2010PropOp54
 70
     1
102
RTVSPost2010Prop55
280
     0
102
RTVSPost2010PropOp55
 70
     1
102
RTVSPost2010Prop56
140
1.0
102
RTVSPost2010PropOp56
 70
     1
102
RTVSPost2010Prop57
140
1.0
102
RTVSPost2010PropOp57
 70
     1
  0
XRECORD
  5
94DCE
102
{ACAD_REACTORS
330
87B1E
102
}
330
87B1E
100
AcDbXrecord
280
     1
102
RTVSPropertyOp0
 70
     1
102
RTVSPropertyOp1
 70
     1
102
RTVSPropertyOp2
 70
     1
102
RTVSPropertyOp3
 70
     1
102
RTVSPropertyOp4
 70
     1
102
RTVSPropertyOp5
 70
     1
102
RTVSPropertyOp6
 70
     1
102
RTVSPropertyOp7
 70
     1
102
RTVSPropertyOp8
 70
     1
102
RTVSPropertyOp9
 70
     1
102
RTVSPropertyOp10
 70
     1
102
RTVSPropertyOp11
 70
     1
102
RTVSPropertyOp12
 70
     1
102
RTVSPropertyOp13
 70
     1
102
RTVSPropertyOp14
 70
     1
102
RTVSPropertyOp15
 70
     1
102
RTVSPropertyOp16
 70
     1
102
RTVSPropertyOp17
 70
     1
102
RTVSPropertyOp18
 70
     1
102
RTVSPropertyOp19
 70
     1
102
RTVSPropertyOp20
 70
     1
102
RTVSPropertyOp21
 70
     1
102
RTVSPropertyOp22
 70
     1
102
RTVSPropertyOp23
 70
     1
102
RTVSPropertyOp24
 70
     1
102
RTVSPropertyOp25
 70
     1
102
RTVSPropertyOp26
 70
     1
102
RTVSPropertyOp27
 70
     1
102
RTVSPropertyOp28
 70
     1
102
RTVSPropertyOp29
 70
     1
102
RTVSPropertyOp30
 70
     1
102
RTVSPropertyOp31
 70
     1
102
RTVSPropertyOp32
 70
     1
102
RTVSPropertyOp33
 70
     1
102
RTVSPropertyOp34
 70
     1
102
RTVSPropertyOp35
 70
     1
102
RTVSPropertyOp36
 70
     1
102
RTVSPropertyOp37
 70
     1
102
RTVSPropertyOp38
 70
     1
102
RTVSPropertyOp39
 70
     1
102
RTVSPropertyOp40
 70
     1
102
RTVSPropertyOp41
 70
     1
102
RTVSPropertyOp42
 70
     1
102
RTVSPropertyOp43
 70
     1
102
RTVSPropertyOp44
 70
     1
102
RTVSPropertyOp45
 70
     1
102
RTVSPropertyOp46
 70
     1
102
RTVSPropertyOp47
 70
     1
102
RTVSPropertyOp48
 70
     1
102
RTVSPropertyOp49
 70
     1
102
RTVSPropertyOp50
 70
     1
102
RTVSPropertyOp51
 70
     0
102
RTVSPropertyOp52
 70
     0
102
RTVSPropertyOp53
 70
     1
102
RTVSPropertyOp54
 70
     1
102
RTVSPropertyOp55
 70
     1
102
RTVSPropertyOp56
 70
     1
102
RTVSPropertyOp57
 70
     1
102
RTVSPost2010Prop28
280
     0
102
RTVSPost2010PropOp28
 70
     1
102
RTVSPost2010Prop29
280
     1
102
RTVSPost2010PropOp29
 70
     1
102
RTVSPost2010Prop30
280
     1
102
RTVSPost2010PropOp30
 70
     1
102
RTVSPost2010Prop31
280
     0
102
RTVSPost2010PropOp31
 70
     1
102
RTVSPost2010Prop32
280
     0
102
RTVSPost2010PropOp32
 70
     1
102
RTVSPost2010Prop33
280
     0
102
RTVSPost2010PropOp33
 70
     1
102
RTVSPost2010Prop34
280
     0
102
RTVSPost2010PropOp34
 70
     1
102
RTVSPost2010Prop35
280
     0
102
RTVSPost2010PropOp35
 70
     1
102
RTVSPost2010Prop36
280
     0
102
RTVSPost2010PropOp36
 70
     1
102
RTVSPost2010Prop37
 90
       50
102
RTVSPost2010PropOp37
 70
     1
102
RTVSPost2010Prop38
140
0.0
102
RTVSPost2010PropOp38
 70
     1
102
RTVSPost2010Prop39
140
1.0
102
RTVSPost2010PropOp39
 70
     1
102
RTVSPost2010Prop40
 90
        0
102
RTVSPost2010PropOp40
 70
     1
102
RTVSPost2010Prop41ColorIndex
 90
       18
102
RTVSPost2010Prop41ColorRGB
 90
        0
102
RTVSPost2010PropOp41
 70
     1
102
RTVSPost2010Prop42
 90
       50
102
RTVSPost2010PropOp42
 70
     1
102
RTVSPost2010Prop43
 90
        3
102
RTVSPost2010PropOp43
 70
     1
102
RTVSPost2010Prop44ColorIndex
 90
        5
102
RTVSPost2010Prop44ColorRGB
 90
      255
102
RTVSPost2010PropOp44
 70
     1
102
RTVSPost2010Prop45
280
     0
102
RTVSPost2010PropOp45
 70
     1
102
RTVSPost2010Prop46
 90
       50
102
RTVSPost2010PropOp46
 70
     1
102
RTVSPost2010Prop47
 90
       50
102
RTVSPost2010PropOp47
 70
     1
102
RTVSPost2010Prop48
 90
       50
102
RTVSPost2010PropOp48
 70
     1
102
RTVSPost2010Prop49
280
     0
102
RTVSPost2010PropOp49
 70
     1
102
RTVSPost2010Prop50
 90
       50
102
RTVSPost2010PropOp50
 70
     1
102
RTVSPost2010Prop51ColorIndex
 90
      256
102
RTVSPost2010Prop51ColorRGB
 90
-16777216
102
RTVSPost2010PropOp51
 70
     0
102
RTVSPost2010Prop52
140
1.0
102
RTVSPost2010PropOp52
 70
     0
102
RTVSPost2010Prop53
 90
        2
102
RTVSPost2010PropOp53
 70
     1
102
RTVSPost2010Prop54
  1
strokes_ogs.tif
102
RTVSPost2010PropOp54
 70
     1
102
RTVSPost2010Prop55
280
     0
102
RTVSPost2010PropOp55
 70
     1
102
RTVSPost2010Prop56
140
1.0
102
RTVSPost2010PropOp56
 70
     1
102
RTVSPost2010Prop57
140
1.0
102
RTVSPost2010PropOp57
 70
     1
  0
XRECORD
  5
94DCF
102
{ACAD_REACTORS
330
87B22
102
}
330
87B22
100
AcDbXrecord
280
     1
102
RTVSPropertyOp0
 70
     1
102
RTVSPropertyOp1
 70
     1
102
RTVSPropertyOp2
 70
     1
102
RTVSPropertyOp3
 70
     1
102
RTVSPropertyOp4
 70
     1
102
RTVSPropertyOp5
 70
     1
102
RTVSPropertyOp6
 70
     1
102
RTVSPropertyOp7
 70
     1
102
RTVSPropertyOp8
 70
     1
102
RTVSPropertyOp9
 70
     1
102
RTVSPropertyOp10
 70
     1
102
RTVSPropertyOp11
 70
     1
102
RTVSPropertyOp12
 70
     1
102
RTVSPropertyOp13
 70
     1
102
RTVSPropertyOp14
 70
     1
102
RTVSPropertyOp15
 70
     1
102
RTVSPropertyOp16
 70
     1
102
RTVSPropertyOp17
 70
     1
102
RTVSPropertyOp18
 70
     1
102
RTVSPropertyOp19
 70
     1
102
RTVSPropertyOp20
 70
     1
102
RTVSPropertyOp21
 70
     1
102
RTVSPropertyOp22
 70
     1
102
RTVSPropertyOp23
 70
     1
102
RTVSPropertyOp24
 70
     1
102
RTVSPropertyOp25
 70
     1
102
RTVSPropertyOp26
 70
     1
102
RTVSPropertyOp27
 70
     1
102
RTVSPropertyOp28
 70
     1
102
RTVSPropertyOp29
 70
     1
102
RTVSPropertyOp30
 70
     1
102
RTVSPropertyOp31
 70
     1
102
RTVSPropertyOp32
 70
     1
102
RTVSPropertyOp33
 70
     1
102
RTVSPropertyOp34
 70
     1
102
RTVSPropertyOp35
 70
     1
102
RTVSPropertyOp36
 70
     1
102
RTVSPropertyOp37
 70
     1
102
RTVSPropertyOp38
 70
     1
102
RTVSPropertyOp39
 70
     1
102
RTVSPropertyOp40
 70
     1
102
RTVSPropertyOp41
 70
     1
102
RTVSPropertyOp42
 70
     1
102
RTVSPropertyOp43
 70
     1
102
RTVSPropertyOp44
 70
     1
102
RTVSPropertyOp45
 70
     1
102
RTVSPropertyOp46
 70
     1
102
RTVSPropertyOp47
 70
     1
102
RTVSPropertyOp48
 70
     1
102
RTVSPropertyOp49
 70
     1
102
RTVSPropertyOp50
 70
     1
102
RTVSPropertyOp51
 70
     0
102
RTVSPropertyOp52
 70
     0
102
RTVSPropertyOp53
 70
     1
102
RTVSPropertyOp54
 70
     1
102
RTVSPropertyOp55
 70
     1
102
RTVSPropertyOp56
 70
     1
102
RTVSPropertyOp57
 70
     1
102
RTVSPost2010Prop28
280
     0
102
RTVSPost2010PropOp28
 70
     1
102
RTVSPost2010Prop29
280
     1
102
RTVSPost2010PropOp29
 70
     1
102
RTVSPost2010Prop30
280
     1
102
RTVSPost2010PropOp30
 70
     1
102
RTVSPost2010Prop31
280
     0
102
RTVSPost2010PropOp31
 70
     1
102
RTVSPost2010Prop32
280
     0
102
RTVSPost2010PropOp32
 70
     1
102
RTVSPost2010Prop33
280
     0
102
RTVSPost2010PropOp33
 70
     1
102
RTVSPost2010Prop34
280
     0
102
RTVSPost2010PropOp34
 70
     1
102
RTVSPost2010Prop35
280
     0
102
RTVSPost2010PropOp35
 70
     1
102
RTVSPost2010Prop36
280
     0
102
RTVSPost2010PropOp36
 70
     1
102
RTVSPost2010Prop37
 90
       50
102
RTVSPost2010PropOp37
 70
     1
102
RTVSPost2010Prop38
140
0.0
102
RTVSPost2010PropOp38
 70
     1
102
RTVSPost2010Prop39
140
1.0
102
RTVSPost2010PropOp39
 70
     1
102
RTVSPost2010Prop40
 90
        0
102
RTVSPost2010PropOp40
 70
     1
102
RTVSPost2010Prop41ColorIndex
 90
       18
102
RTVSPost2010Prop41ColorRGB
 90
        0
102
RTVSPost2010PropOp41
 70
     1
102
RTVSPost2010Prop42
 90
       50
102
RTVSPost2010PropOp42
 70
     1
102
RTVSPost2010Prop43
 90
        3
102
RTVSPost2010PropOp43
 70
     1
102
RTVSPost2010Prop44ColorIndex
 90
        5
102
RTVSPost2010Prop44ColorRGB
 90
      255
102
RTVSPost2010PropOp44
 70
     1
102
RTVSPost2010Prop45
280
     0
102
RTVSPost2010PropOp45
 70
     1
102
RTVSPost2010Prop46
 90
       50
102
RTVSPost2010PropOp46
 70
     1
102
RTVSPost2010Prop47
 90
       50
102
RTVSPost2010PropOp47
 70
     1
102
RTVSPost2010Prop48
 90
       50
102
RTVSPost2010PropOp48
 70
     1
102
RTVSPost2010Prop49
280
     0
102
RTVSPost2010PropOp49
 70
     1
102
RTVSPost2010Prop50
 90
       50
102
RTVSPost2010PropOp50
 70
     1
102
RTVSPost2010Prop51ColorIndex
 90
      256
102
RTVSPost2010Prop51ColorRGB
 90
-16777216
102
RTVSPost2010PropOp51
 70
     0
102
RTVSPost2010Prop52
140
1.0
102
RTVSPost2010PropOp52
 70
     0
102
RTVSPost2010Prop53
 90
        2
102
RTVSPost2010PropOp53
 70
     1
102
RTVSPost2010Prop54
  1
strokes_ogs.tif
102
RTVSPost2010PropOp54
 70
     1
102
RTVSPost2010Prop55
280
     0
102
RTVSPost2010PropOp55
 70
     1
102
RTVSPost2010Prop56
140
1.0
102
RTVSPost2010PropOp56
 70
     1
102
RTVSPost2010Prop57
140
1.0
102
RTVSPost2010PropOp57
 70
     1
  0
XRECORD
  5
94DD0
102
{ACAD_REACTORS
330
87B3C
102
}
330
87B3C
100
AcDbXrecord
280
     1
102
RTVSPropertyOp0
 70
     0
102
RTVSPropertyOp1
 70
     0
102
RTVSPropertyOp2
 70
     0
102
RTVSPropertyOp3
 70
     0
102
RTVSPropertyOp4
 70
     0
102
RTVSPropertyOp5
 70
     0
102
RTVSPropertyOp6
 70
     0
102
RTVSPropertyOp7
 70
     0
102
RTVSPropertyOp8
 70
     0
102
RTVSPropertyOp9
 70
     0
102
RTVSPropertyOp10
 70
     0
102
RTVSPropertyOp11
 70
     0
102
RTVSPropertyOp12
 70
     0
102
RTVSPropertyOp13
 70
     0
102
RTVSPropertyOp14
 70
     2
102
RTVSPropertyOp15
 70
     0
102
RTVSPropertyOp16
 70
     0
102
RTVSPropertyOp17
 70
     0
102
RTVSPropertyOp18
 70
     0
102
RTVSPropertyOp19
 70
     0
102
RTVSPropertyOp20
 70
     0
102
RTVSPropertyOp21
 70
     0
102
RTVSPropertyOp22
 70
     0
102
RTVSPropertyOp23
 70
     0
102
RTVSPropertyOp24
 70
     0
102
RTVSPropertyOp25
 70
     0
102
RTVSPropertyOp26
 70
     0
102
RTVSPropertyOp27
 70
     0
102
RTVSPropertyOp28
 70
     1
102
RTVSPropertyOp29
 70
     1
102
RTVSPropertyOp30
 70
     1
102
RTVSPropertyOp31
 70
     1
102
RTVSPropertyOp32
 70
     1
102
RTVSPropertyOp33
 70
     1
102
RTVSPropertyOp34
 70
     1
102
RTVSPropertyOp35
 70
     1
102
RTVSPropertyOp36
 70
     1
102
RTVSPropertyOp37
 70
     0
102
RTVSPropertyOp38
 70
     0
102
RTVSPropertyOp39
 70
     0
102
RTVSPropertyOp40
 70
     0
102
RTVSPropertyOp41
 70
     0
102
RTVSPropertyOp42
 70
     0
102
RTVSPropertyOp43
 70
     0
102
RTVSPropertyOp44
 70
     0
102
RTVSPropertyOp45
 70
     1
102
RTVSPropertyOp46
 70
     0
102
RTVSPropertyOp47
 70
     0
102
RTVSPropertyOp48
 70
     0
102
RTVSPropertyOp49
 70
     1
102
RTVSPropertyOp50
 70
     0
102
RTVSPropertyOp51
 70
     0
102
RTVSPropertyOp52
 70
     0
102
RTVSPropertyOp53
 70
     0
102
RTVSPropertyOp54
 70
     0
102
RTVSPropertyOp55
 70
     1
102
RTVSPropertyOp56
 70
     0
102
RTVSPropertyOp57
 70
     0
102
RTVSPost2010Prop28
280
     0
102
RTVSPost2010PropOp28
 70
     1
102
RTVSPost2010Prop29
280
     1
102
RTVSPost2010PropOp29
 70
     1
102
RTVSPost2010Prop30
280
     1
102
RTVSPost2010PropOp30
 70
     1
102
RTVSPost2010Prop31
280
     0
102
RTVSPost2010PropOp31
 70
     1
102
RTVSPost2010Prop32
280
     0
102
RTVSPost2010PropOp32
 70
     1
102
RTVSPost2010Prop33
280
     0
102
RTVSPost2010PropOp33
 70
     1
102
RTVSPost2010Prop34
280
     0
102
RTVSPost2010PropOp34
 70
     1
102
RTVSPost2010Prop35
280
     0
102
RTVSPost2010PropOp35
 70
     1
102
RTVSPost2010Prop36
280
     0
102
RTVSPost2010PropOp36
 70
     1
102
RTVSPost2010Prop37
 90
       50
102
RTVSPost2010PropOp37
 70
     0
102
RTVSPost2010Prop38
140
0.0
102
RTVSPost2010PropOp38
 70
     0
102
RTVSPost2010Prop39
140
1.0
102
RTVSPost2010PropOp39
 70
     0
102
RTVSPost2010Prop40
 90
        0
102
RTVSPost2010PropOp40
 70
     0
102
RTVSPost2010Prop41ColorIndex
 90
       18
102
RTVSPost2010Prop41ColorRGB
 90
        0
102
RTVSPost2010PropOp41
 70
     0
102
RTVSPost2010Prop42
 90
       50
102
RTVSPost2010PropOp42
 70
     0
102
RTVSPost2010Prop43
 90
        3
102
RTVSPost2010PropOp43
 70
     0
102
RTVSPost2010Prop44ColorIndex
 90
        5
102
RTVSPost2010Prop44ColorRGB
 90
      255
102
RTVSPost2010PropOp44
 70
     0
102
RTVSPost2010Prop45
280
     0
102
RTVSPost2010PropOp45
 70
     1
102
RTVSPost2010Prop46
 90
       50
102
RTVSPost2010PropOp46
 70
     0
102
RTVSPost2010Prop47
 90
       50
102
RTVSPost2010PropOp47
 70
     0
102
RTVSPost2010Prop48
 90
       50
102
RTVSPost2010PropOp48
 70
     0
102
RTVSPost2010Prop49
280
     0
102
RTVSPost2010PropOp49
 70
     1
102
RTVSPost2010Prop50
 90
       50
102
RTVSPost2010PropOp50
 70
     0
102
RTVSPost2010Prop51ColorIndex
 90
      256
102
RTVSPost2010Prop51ColorRGB
 90
-16777216
102
RTVSPost2010PropOp51
 70
     0
102
RTVSPost2010Prop52
140
1.0
102
RTVSPost2010PropOp52
 70
     0
102
RTVSPost2010Prop53
 90
        2
102
RTVSPost2010PropOp53
 70
     0
102
RTVSPost2010Prop54
  1
strokes_ogs.tif
102
RTVSPost2010PropOp54
 70
     0
102
RTVSPost2010Prop55
280
     0
102
RTVSPost2010PropOp55
 70
     1
102
RTVSPost2010Prop56
140
1.0
102
RTVSPost2010PropOp56
 70
     0
102
RTVSPost2010Prop57
140
1.0
102
RTVSPost2010PropOp57
 70
     0
  0
XRECORD
  5
94DD1
102
{ACAD_REACTORS
330
87B2A
102
}
330
87B2A
100
AcDbXrecord
280
     1
102
RTVSPropertyOp0
 70
     1
102
RTVSPropertyOp1
 70
     1
102
RTVSPropertyOp2
 70
     1
102
RTVSPropertyOp3
 70
     1
102
RTVSPropertyOp4
 70
     1
102
RTVSPropertyOp5
 70
     1
102
RTVSPropertyOp6
 70
     1
102
RTVSPropertyOp7
 70
     1
102
RTVSPropertyOp8
 70
     1
102
RTVSPropertyOp9
 70
     1
102
RTVSPropertyOp10
 70
     1
102
RTVSPropertyOp11
 70
     1
102
RTVSPropertyOp12
 70
     1
102
RTVSPropertyOp13
 70
     1
102
RTVSPropertyOp14
 70
     1
102
RTVSPropertyOp15
 70
     1
102
RTVSPropertyOp16
 70
     1
102
RTVSPropertyOp17
 70
     1
102
RTVSPropertyOp18
 70
     1
102
RTVSPropertyOp19
 70
     1
102
RTVSPropertyOp20
 70
     1
102
RTVSPropertyOp21
 70
     1
102
RTVSPropertyOp22
 70
     1
102
RTVSPropertyOp23
 70
     1
102
RTVSPropertyOp24
 70
     1
102
RTVSPropertyOp25
 70
     1
102
RTVSPropertyOp26
 70
     1
102
RTVSPropertyOp27
 70
     1
102
RTVSPropertyOp28
 70
     1
102
RTVSPropertyOp29
 70
     1
102
RTVSPropertyOp30
 70
     1
102
RTVSPropertyOp31
 70
     1
102
RTVSPropertyOp32
 70
     1
102
RTVSPropertyOp33
 70
     1
102
RTVSPropertyOp34
 70
     1
102
RTVSPropertyOp35
 70
     1
102
RTVSPropertyOp36
 70
     1
102
RTVSPropertyOp37
 70
     1
102
RTVSPropertyOp38
 70
     1
102
RTVSPropertyOp39
 70
     1
102
RTVSPropertyOp40
 70
     1
102
RTVSPropertyOp41
 70
     1
102
RTVSPropertyOp42
 70
     1
102
RTVSPropertyOp43
 70
     1
102
RTVSPropertyOp44
 70
     1
102
RTVSPropertyOp45
 70
     1
102
RTVSPropertyOp46
 70
     1
102
RTVSPropertyOp47
 70
     1
102
RTVSPropertyOp48
 70
     1
102
RTVSPropertyOp49
 70
     1
102
RTVSPropertyOp50
 70
     1
102
RTVSPropertyOp51
 70
     0
102
RTVSPropertyOp52
 70
     0
102
RTVSPropertyOp53
 70
     1
102
RTVSPropertyOp54
 70
     1
102
RTVSPropertyOp55
 70
     1
102
RTVSPropertyOp56
 70
     1
102
RTVSPropertyOp57
 70
     1
102
RTVSPost2010Prop28
280
     0
102
RTVSPost2010PropOp28
 70
     1
102
RTVSPost2010Prop29
280
     1
102
RTVSPost2010PropOp29
 70
     1
102
RTVSPost2010Prop30
280
     1
102
RTVSPost2010PropOp30
 70
     1
102
RTVSPost2010Prop31
280
     0
102
RTVSPost2010PropOp31
 70
     1
102
RTVSPost2010Prop32
280
     0
102
RTVSPost2010PropOp32
 70
     1
102
RTVSPost2010Prop33
280
     0
102
RTVSPost2010PropOp33
 70
     1
102
RTVSPost2010Prop34
280
     0
102
RTVSPost2010PropOp34
 70
     1
102
RTVSPost2010Prop35
280
     0
102
RTVSPost2010PropOp35
 70
     1
102
RTVSPost2010Prop36
280
     0
102
RTVSPost2010PropOp36
 70
     1
102
RTVSPost2010Prop37
 90
       50
102
RTVSPost2010PropOp37
 70
     1
102
RTVSPost2010Prop38
140
0.0
102
RTVSPost2010PropOp38
 70
     1
102
RTVSPost2010Prop39
140
1.0
102
RTVSPost2010PropOp39
 70
     1
102
RTVSPost2010Prop40
 90
        0
102
RTVSPost2010PropOp40
 70
     1
102
RTVSPost2010Prop41ColorIndex
 90
       18
102
RTVSPost2010Prop41ColorRGB
 90
        0
102
RTVSPost2010PropOp41
 70
     1
102
RTVSPost2010Prop42
 90
       50
102
RTVSPost2010PropOp42
 70
     1
102
RTVSPost2010Prop43
 90
        3
102
RTVSPost2010PropOp43
 70
     1
102
RTVSPost2010Prop44ColorIndex
 90
        5
102
RTVSPost2010Prop44ColorRGB
 90
      255
102
RTVSPost2010PropOp44
 70
     1
102
RTVSPost2010Prop45
280
     0
102
RTVSPost2010PropOp45
 70
     1
102
RTVSPost2010Prop46
 90
       50
102
RTVSPost2010PropOp46
 70
     1
102
RTVSPost2010Prop47
 90
       50
102
RTVSPost2010PropOp47
 70
     1
102
RTVSPost2010Prop48
 90
       50
102
RTVSPost2010PropOp48
 70
     1
102
RTVSPost2010Prop49
280
     0
102
RTVSPost2010PropOp49
 70
     1
102
RTVSPost2010Prop50
 90
       50
102
RTVSPost2010PropOp50
 70
     1
102
RTVSPost2010Prop51ColorIndex
 90
      256
102
RTVSPost2010Prop51ColorRGB
 90
-16777216
102
RTVSPost2010PropOp51
 70
     0
102
RTVSPost2010Prop52
140
1.0
102
RTVSPost2010PropOp52
 70
     0
102
RTVSPost2010Prop53
 90
        2
102
RTVSPost2010PropOp53
 70
     1
102
RTVSPost2010Prop54
  1
strokes_ogs.tif
102
RTVSPost2010PropOp54
 70
     1
102
RTVSPost2010Prop55
280
     0
102
RTVSPost2010PropOp55
 70
     1
102
RTVSPost2010Prop56
140
1.0
102
RTVSPost2010PropOp56
 70
     1
102
RTVSPost2010Prop57
140
1.0
102
RTVSPost2010PropOp57
 70
     1
  0
XRECORD
  5
94DD2
102
{ACAD_REACTORS
330
87B0E
102
}
330
87B0E
100
AcDbXrecord
280
     1
102
RTVSPropertyOp0
 70
     1
102
RTVSPropertyOp1
 70
     1
102
RTVSPropertyOp2
 70
     1
102
RTVSPropertyOp3
 70
     1
102
RTVSPropertyOp4
 70
     1
102
RTVSPropertyOp5
 70
     1
102
RTVSPropertyOp6
 70
     1
102
RTVSPropertyOp7
 70
     1
102
RTVSPropertyOp8
 70
     1
102
RTVSPropertyOp9
 70
     1
102
RTVSPropertyOp10
 70
     1
102
RTVSPropertyOp11
 70
     1
102
RTVSPropertyOp12
 70
     1
102
RTVSPropertyOp13
 70
     1
102
RTVSPropertyOp14
 70
     1
102
RTVSPropertyOp15
 70
     1
102
RTVSPropertyOp16
 70
     1
102
RTVSPropertyOp17
 70
     1
102
RTVSPropertyOp18
 70
     1
102
RTVSPropertyOp19
 70
     1
102
RTVSPropertyOp20
 70
     1
102
RTVSPropertyOp21
 70
     1
102
RTVSPropertyOp22
 70
     1
102
RTVSPropertyOp23
 70
     1
102
RTVSPropertyOp24
 70
     1
102
RTVSPropertyOp25
 70
     1
102
RTVSPropertyOp26
 70
     1
102
RTVSPropertyOp27
 70
     1
102
RTVSPropertyOp28
 70
     1
102
RTVSPropertyOp29
 70
     1
102
RTVSPropertyOp30
 70
     1
102
RTVSPropertyOp31
 70
     1
102
RTVSPropertyOp32
 70
     1
102
RTVSPropertyOp33
 70
     1
102
RTVSPropertyOp34
 70
     1
102
RTVSPropertyOp35
 70
     1
102
RTVSPropertyOp36
 70
     1
102
RTVSPropertyOp37
 70
     1
102
RTVSPropertyOp38
 70
     1
102
RTVSPropertyOp39
 70
     1
102
RTVSPropertyOp40
 70
     1
102
RTVSPropertyOp41
 70
     1
102
RTVSPropertyOp42
 70
     1
102
RTVSPropertyOp43
 70
     1
102
RTVSPropertyOp44
 70
     1
102
RTVSPropertyOp45
 70
     1
102
RTVSPropertyOp46
 70
     1
102
RTVSPropertyOp47
 70
     1
102
RTVSPropertyOp48
 70
     1
102
RTVSPropertyOp49
 70
     1
102
RTVSPropertyOp50
 70
     1
102
RTVSPropertyOp51
 70
     0
102
RTVSPropertyOp52
 70
     0
102
RTVSPropertyOp53
 70
     1
102
RTVSPropertyOp54
 70
     1
102
RTVSPropertyOp55
 70
     1
102
RTVSPropertyOp56
 70
     1
102
RTVSPropertyOp57
 70
     1
102
RTVSPost2010Prop28
280
     0
102
RTVSPost2010PropOp28
 70
     1
102
RTVSPost2010Prop29
280
     1
102
RTVSPost2010PropOp29
 70
     1
102
RTVSPost2010Prop30
280
     1
102
RTVSPost2010PropOp30
 70
     1
102
RTVSPost2010Prop31
280
     0
102
RTVSPost2010PropOp31
 70
     1
102
RTVSPost2010Prop32
280
     0
102
RTVSPost2010PropOp32
 70
     1
102
RTVSPost2010Prop33
280
     0
102
RTVSPost2010PropOp33
 70
     1
102
RTVSPost2010Prop34
280
     0
102
RTVSPost2010PropOp34
 70
     1
102
RTVSPost2010Prop35
280
     0
102
RTVSPost2010PropOp35
 70
     1
102
RTVSPost2010Prop36
280
     0
102
RTVSPost2010PropOp36
 70
     1
102
RTVSPost2010Prop37
 90
       50
102
RTVSPost2010PropOp37
 70
     1
102
RTVSPost2010Prop38
140
0.0
102
RTVSPost2010PropOp38
 70
     1
102
RTVSPost2010Prop39
140
1.0
102
RTVSPost2010PropOp39
 70
     1
102
RTVSPost2010Prop40
 90
        0
102
RTVSPost2010PropOp40
 70
     1
102
RTVSPost2010Prop41ColorIndex
 90
       18
102
RTVSPost2010Prop41ColorRGB
 90
        0
102
RTVSPost2010PropOp41
 70
     1
102
RTVSPost2010Prop42
 90
       50
102
RTVSPost2010PropOp42
 70
     1
102
RTVSPost2010Prop43
 90
        3
102
RTVSPost2010PropOp43
 70
     1
102
RTVSPost2010Prop44ColorIndex
 90
        5
102
RTVSPost2010Prop44ColorRGB
 90
      255
102
RTVSPost2010PropOp44
 70
     1
102
RTVSPost2010Prop45
280
     0
102
RTVSPost2010PropOp45
 70
     1
102
RTVSPost2010Prop46
 90
       50
102
RTVSPost2010PropOp46
 70
     1
102
RTVSPost2010Prop47
 90
       50
102
RTVSPost2010PropOp47
 70
     1
102
RTVSPost2010Prop48
 90
       50
102
RTVSPost2010PropOp48
 70
     1
102
RTVSPost2010Prop49
280
     0
102
RTVSPost2010PropOp49
 70
     1
102
RTVSPost2010Prop50
 90
       50
102
RTVSPost2010PropOp50
 70
     1
102
RTVSPost2010Prop51ColorIndex
 90
      256
102
RTVSPost2010Prop51ColorRGB
 90
-16777216
102
RTVSPost2010PropOp51
 70
     0
102
RTVSPost2010Prop52
140
1.0
102
RTVSPost2010PropOp52
 70
     0
102
RTVSPost2010Prop53
 90
        2
102
RTVSPost2010PropOp53
 70
     1
102
RTVSPost2010Prop54
  1
strokes_ogs.tif
102
RTVSPost2010PropOp54
 70
     1
102
RTVSPost2010Prop55
280
     0
102
RTVSPost2010PropOp55
 70
     1
102
RTVSPost2010Prop56
140
1.0
102
RTVSPost2010PropOp56
 70
     1
102
RTVSPost2010Prop57
140
1.0
102
RTVSPost2010PropOp57
 70
     1
  0
XRECORD
  5
94DD3
102
{ACAD_REACTORS
330
87B10
102
}
330
87B10
100
AcDbXrecord
280
     1
102
RTVSPropertyOp0
 70
     1
102
RTVSPropertyOp1
 70
     1
102
RTVSPropertyOp2
 70
     1
102
RTVSPropertyOp3
 70
     1
102
RTVSPropertyOp4
 70
     1
102
RTVSPropertyOp5
 70
     1
102
RTVSPropertyOp6
 70
     1
102
RTVSPropertyOp7
 70
     1
102
RTVSPropertyOp8
 70
     1
102
RTVSPropertyOp9
 70
     1
102
RTVSPropertyOp10
 70
     1
102
RTVSPropertyOp11
 70
     1
102
RTVSPropertyOp12
 70
     1
102
RTVSPropertyOp13
 70
     1
102
RTVSPropertyOp14
 70
     1
102
RTVSPropertyOp15
 70
     1
102
RTVSPropertyOp16
 70
     1
102
RTVSPropertyOp17
 70
     1
102
RTVSPropertyOp18
 70
     1
102
RTVSPropertyOp19
 70
     1
102
RTVSPropertyOp20
 70
     1
102
RTVSPropertyOp21
 70
     1
102
RTVSPropertyOp22
 70
     1
102
RTVSPropertyOp23
 70
     1
102
RTVSPropertyOp24
 70
     1
102
RTVSPropertyOp25
 70
     1
102
RTVSPropertyOp26
 70
     1
102
RTVSPropertyOp27
 70
     1
102
RTVSPropertyOp28
 70
     1
102
RTVSPropertyOp29
 70
     1
102
RTVSPropertyOp30
 70
     1
102
RTVSPropertyOp31
 70
     1
102
RTVSPropertyOp32
 70
     1
102
RTVSPropertyOp33
 70
     1
102
RTVSPropertyOp34
 70
     1
102
RTVSPropertyOp35
 70
     1
102
RTVSPropertyOp36
 70
     1
102
RTVSPropertyOp37
 70
     1
102
RTVSPropertyOp38
 70
     1
102
RTVSPropertyOp39
 70
     1
102
RTVSPropertyOp40
 70
     1
102
RTVSPropertyOp41
 70
     1
102
RTVSPropertyOp42
 70
     1
102
RTVSPropertyOp43
 70
     1
102
RTVSPropertyOp44
 70
     1
102
RTVSPropertyOp45
 70
     1
102
RTVSPropertyOp46
 70
     1
102
RTVSPropertyOp47
 70
     1
102
RTVSPropertyOp48
 70
     1
102
RTVSPropertyOp49
 70
     1
102
RTVSPropertyOp50
 70
     1
102
RTVSPropertyOp51
 70
     0
102
RTVSPropertyOp52
 70
     0
102
RTVSPropertyOp53
 70
     1
102
RTVSPropertyOp54
 70
     1
102
RTVSPropertyOp55
 70
     1
102
RTVSPropertyOp56
 70
     1
102
RTVSPropertyOp57
 70
     1
102
RTVSPost2010Prop28
280
     0
102
RTVSPost2010PropOp28
 70
     1
102
RTVSPost2010Prop29
280
     1
102
RTVSPost2010PropOp29
 70
     1
102
RTVSPost2010Prop30
280
     1
102
RTVSPost2010PropOp30
 70
     1
102
RTVSPost2010Prop31
280
     0
102
RTVSPost2010PropOp31
 70
     1
102
RTVSPost2010Prop32
280
     0
102
RTVSPost2010PropOp32
 70
     1
102
RTVSPost2010Prop33
280
     0
102
RTVSPost2010PropOp33
 70
     1
102
RTVSPost2010Prop34
280
     0
102
RTVSPost2010PropOp34
 70
     1
102
RTVSPost2010Prop35
280
     0
102
RTVSPost2010PropOp35
 70
     1
102
RTVSPost2010Prop36
280
     0
102
RTVSPost2010PropOp36
 70
     1
102
RTVSPost2010Prop37
 90
       50
102
RTVSPost2010PropOp37
 70
     1
102
RTVSPost2010Prop38
140
0.0
102
RTVSPost2010PropOp38
 70
     1
102
RTVSPost2010Prop39
140
1.0
102
RTVSPost2010PropOp39
 70
     1
102
RTVSPost2010Prop40
 90
        0
102
RTVSPost2010PropOp40
 70
     1
102
RTVSPost2010Prop41ColorIndex
 90
       18
102
RTVSPost2010Prop41ColorRGB
 90
        0
102
RTVSPost2010PropOp41
 70
     1
102
RTVSPost2010Prop42
 90
       50
102
RTVSPost2010PropOp42
 70
     1
102
RTVSPost2010Prop43
 90
        3
102
RTVSPost2010PropOp43
 70
     1
102
RTVSPost2010Prop44ColorIndex
 90
        5
102
RTVSPost2010Prop44ColorRGB
 90
      255
102
RTVSPost2010PropOp44
 70
     1
102
RTVSPost2010Prop45
280
     0
102
RTVSPost2010PropOp45
 70
     1
102
RTVSPost2010Prop46
 90
       50
102
RTVSPost2010PropOp46
 70
     1
102
RTVSPost2010Prop47
 90
       50
102
RTVSPost2010PropOp47
 70
     1
102
RTVSPost2010Prop48
 90
       50
102
RTVSPost2010PropOp48
 70
     1
102
RTVSPost2010Prop49
280
     0
102
RTVSPost2010PropOp49
 70
     1
102
RTVSPost2010Prop50
 90
       50
102
RTVSPost2010PropOp50
 70
     1
102
RTVSPost2010Prop51ColorIndex
 90
      256
102
RTVSPost2010Prop51ColorRGB
 90
-16777216
102
RTVSPost2010PropOp51
 70
     0
102
RTVSPost2010Prop52
140
1.0
102
RTVSPost2010PropOp52
 70
     0
102
RTVSPost2010Prop53
 90
        2
102
RTVSPost2010PropOp53
 70
     1
102
RTVSPost2010Prop54
  1
strokes_ogs.tif
102
RTVSPost2010PropOp54
 70
     1
102
RTVSPost2010Prop55
280
     0
102
RTVSPost2010PropOp55
 70
     1
102
RTVSPost2010Prop56
140
1.0
102
RTVSPost2010PropOp56
 70
     1
102
RTVSPost2010Prop57
140
1.0
102
RTVSPost2010PropOp57
 70
     1
  0
XRECORD
  5
94DD4
102
{ACAD_REACTORS
330
87B12
102
}
330
87B12
100
AcDbXrecord
280
     1
102
RTVSPropertyOp0
 70
     1
102
RTVSPropertyOp1
 70
     1
102
RTVSPropertyOp2
 70
     1
102
RTVSPropertyOp3
 70
     1
102
RTVSPropertyOp4
 70
     1
102
RTVSPropertyOp5
 70
     1
102
RTVSPropertyOp6
 70
     1
102
RTVSPropertyOp7
 70
     1
102
RTVSPropertyOp8
 70
     1
102
RTVSPropertyOp9
 70
     1
102
RTVSPropertyOp10
 70
     1
102
RTVSPropertyOp11
 70
     1
102
RTVSPropertyOp12
 70
     1
102
RTVSPropertyOp13
 70
     1
102
RTVSPropertyOp14
 70
     1
102
RTVSPropertyOp15
 70
     1
102
RTVSPropertyOp16
 70
     1
102
RTVSPropertyOp17
 70
     1
102
RTVSPropertyOp18
 70
     1
102
RTVSPropertyOp19
 70
     1
102
RTVSPropertyOp20
 70
     1
102
RTVSPropertyOp21
 70
     1
102
RTVSPropertyOp22
 70
     1
102
RTVSPropertyOp23
 70
     1
102
RTVSPropertyOp24
 70
     1
102
RTVSPropertyOp25
 70
     1
102
RTVSPropertyOp26
 70
     1
102
RTVSPropertyOp27
 70
     1
102
RTVSPropertyOp28
 70
     1
102
RTVSPropertyOp29
 70
     1
102
RTVSPropertyOp30
 70
     1
102
RTVSPropertyOp31
 70
     1
102
RTVSPropertyOp32
 70
     1
102
RTVSPropertyOp33
 70
     1
102
RTVSPropertyOp34
 70
     1
102
RTVSPropertyOp35
 70
     1
102
RTVSPropertyOp36
 70
     1
102
RTVSPropertyOp37
 70
     1
102
RTVSPropertyOp38
 70
     1
102
RTVSPropertyOp39
 70
     1
102
RTVSPropertyOp40
 70
     1
102
RTVSPropertyOp41
 70
     1
102
RTVSPropertyOp42
 70
     1
102
RTVSPropertyOp43
 70
     1
102
RTVSPropertyOp44
 70
     1
102
RTVSPropertyOp45
 70
     1
102
RTVSPropertyOp46
 70
     1
102
RTVSPropertyOp47
 70
     1
102
RTVSPropertyOp48
 70
     1
102
RTVSPropertyOp49
 70
     1
102
RTVSPropertyOp50
 70
     1
102
RTVSPropertyOp51
 70
     0
102
RTVSPropertyOp52
 70
     0
102
RTVSPropertyOp53
 70
     1
102
RTVSPropertyOp54
 70
     1
102
RTVSPropertyOp55
 70
     1
102
RTVSPropertyOp56
 70
     1
102
RTVSPropertyOp57
 70
     1
102
RTVSPost2010Prop28
280
     0
102
RTVSPost2010PropOp28
 70
     1
102
RTVSPost2010Prop29
280
     1
102
RTVSPost2010PropOp29
 70
     1
102
RTVSPost2010Prop30
280
     1
102
RTVSPost2010PropOp30
 70
     1
102
RTVSPost2010Prop31
280
     0
102
RTVSPost2010PropOp31
 70
     1
102
RTVSPost2010Prop32
280
     0
102
RTVSPost2010PropOp32
 70
     1
102
RTVSPost2010Prop33
280
     0
102
RTVSPost2010PropOp33
 70
     1
102
RTVSPost2010Prop34
280
     0
102
RTVSPost2010PropOp34
 70
     1
102
RTVSPost2010Prop35
280
     0
102
RTVSPost2010PropOp35
 70
     1
102
RTVSPost2010Prop36
280
     0
102
RTVSPost2010PropOp36
 70
     1
102
RTVSPost2010Prop37
 90
       50
102
RTVSPost2010PropOp37
 70
     1
102
RTVSPost2010Prop38
140
0.0
102
RTVSPost2010PropOp38
 70
     1
102
RTVSPost2010Prop39
140
1.0
102
RTVSPost2010PropOp39
 70
     1
102
RTVSPost2010Prop40
 90
        0
102
RTVSPost2010PropOp40
 70
     1
102
RTVSPost2010Prop41ColorIndex
 90
       18
102
RTVSPost2010Prop41ColorRGB
 90
        0
102
RTVSPost2010PropOp41
 70
     1
102
RTVSPost2010Prop42
 90
       50
102
RTVSPost2010PropOp42
 70
     1
102
RTVSPost2010Prop43
 90
        3
102
RTVSPost2010PropOp43
 70
     1
102
RTVSPost2010Prop44ColorIndex
 90
        5
102
RTVSPost2010Prop44ColorRGB
 90
      255
102
RTVSPost2010PropOp44
 70
     1
102
RTVSPost2010Prop45
280
     0
102
RTVSPost2010PropOp45
 70
     1
102
RTVSPost2010Prop46
 90
       50
102
RTVSPost2010PropOp46
 70
     1
102
RTVSPost2010Prop47
 90
       50
102
RTVSPost2010PropOp47
 70
     1
102
RTVSPost2010Prop48
 90
       50
102
RTVSPost2010PropOp48
 70
     1
102
RTVSPost2010Prop49
280
     0
102
RTVSPost2010PropOp49
 70
     1
102
RTVSPost2010Prop50
 90
       50
102
RTVSPost2010PropOp50
 70
     1
102
RTVSPost2010Prop51ColorIndex
 90
      256
102
RTVSPost2010Prop51ColorRGB
 90
-16777216
102
RTVSPost2010PropOp51
 70
     0
102
RTVSPost2010Prop52
140
1.0
102
RTVSPost2010PropOp52
 70
     0
102
RTVSPost2010Prop53
 90
        2
102
RTVSPost2010PropOp53
 70
     1
102
RTVSPost2010Prop54
  1
strokes_ogs.tif
102
RTVSPost2010PropOp54
 70
     1
102
RTVSPost2010Prop55
280
     0
102
RTVSPost2010PropOp55
 70
     1
102
RTVSPost2010Prop56
140
1.0
102
RTVSPost2010PropOp56
 70
     1
102
RTVSPost2010Prop57
140
1.0
102
RTVSPost2010PropOp57
 70
     1
  0
XRECORD
  5
94DD5
102
{ACAD_REACTORS
330
87B14
102
}
330
87B14
100
AcDbXrecord
280
     1
102
RTVSPropertyOp0
 70
     1
102
RTVSPropertyOp1
 70
     1
102
RTVSPropertyOp2
 70
     1
102
RTVSPropertyOp3
 70
     1
102
RTVSPropertyOp4
 70
     1
102
RTVSPropertyOp5
 70
     1
102
RTVSPropertyOp6
 70
     1
102
RTVSPropertyOp7
 70
     1
102
RTVSPropertyOp8
 70
     1
102
RTVSPropertyOp9
 70
     1
102
RTVSPropertyOp10
 70
     1
102
RTVSPropertyOp11
 70
     1
102
RTVSPropertyOp12
 70
     1
102
RTVSPropertyOp13
 70
     1
102
RTVSPropertyOp14
 70
     1
102
RTVSPropertyOp15
 70
     1
102
RTVSPropertyOp16
 70
     1
102
RTVSPropertyOp17
 70
     1
102
RTVSPropertyOp18
 70
     1
102
RTVSPropertyOp19
 70
     1
102
RTVSPropertyOp20
 70
     1
102
RTVSPropertyOp21
 70
     1
102
RTVSPropertyOp22
 70
     1
102
RTVSPropertyOp23
 70
     1
102
RTVSPropertyOp24
 70
     1
102
RTVSPropertyOp25
 70
     1
102
RTVSPropertyOp26
 70
     1
102
RTVSPropertyOp27
 70
     1
102
RTVSPropertyOp28
 70
     1
102
RTVSPropertyOp29
 70
     1
102
RTVSPropertyOp30
 70
     1
102
RTVSPropertyOp31
 70
     1
102
RTVSPropertyOp32
 70
     1
102
RTVSPropertyOp33
 70
     1
102
RTVSPropertyOp34
 70
     1
102
RTVSPropertyOp35
 70
     1
102
RTVSPropertyOp36
 70
     1
102
RTVSPropertyOp37
 70
     1
102
RTVSPropertyOp38
 70
     1
102
RTVSPropertyOp39
 70
     1
102
RTVSPropertyOp40
 70
     1
102
RTVSPropertyOp41
 70
     1
102
RTVSPropertyOp42
 70
     1
102
RTVSPropertyOp43
 70
     1
102
RTVSPropertyOp44
 70
     1
102
RTVSPropertyOp45
 70
     1
102
RTVSPropertyOp46
 70
     1
102
RTVSPropertyOp47
 70
     1
102
RTVSPropertyOp48
 70
     1
102
RTVSPropertyOp49
 70
     1
102
RTVSPropertyOp50
 70
     1
102
RTVSPropertyOp51
 70
     0
102
RTVSPropertyOp52
 70
     0
102
RTVSPropertyOp53
 70
     1
102
RTVSPropertyOp54
 70
     1
102
RTVSPropertyOp55
 70
     1
102
RTVSPropertyOp56
 70
     1
102
RTVSPropertyOp57
 70
     1
102
RTVSPost2010Prop28
280
     0
102
RTVSPost2010PropOp28
 70
     1
102
RTVSPost2010Prop29
280
     1
102
RTVSPost2010PropOp29
 70
     1
102
RTVSPost2010Prop30
280
     1
102
RTVSPost2010PropOp30
 70
     1
102
RTVSPost2010Prop31
280
     0
102
RTVSPost2010PropOp31
 70
     1
102
RTVSPost2010Prop32
280
     0
102
RTVSPost2010PropOp32
 70
     1
102
RTVSPost2010Prop33
280
     0
102
RTVSPost2010PropOp33
 70
     1
102
RTVSPost2010Prop34
280
     0
102
RTVSPost2010PropOp34
 70
     1
102
RTVSPost2010Prop35
280
     0
102
RTVSPost2010PropOp35
 70
     1
102
RTVSPost2010Prop36
280
     0
102
RTVSPost2010PropOp36
 70
     1
102
RTVSPost2010Prop37
 90
       50
102
RTVSPost2010PropOp37
 70
     1
102
RTVSPost2010Prop38
140
0.0
102
RTVSPost2010PropOp38
 70
     1
102
RTVSPost2010Prop39
140
1.0
102
RTVSPost2010PropOp39
 70
     1
102
RTVSPost2010Prop40
 90
        0
102
RTVSPost2010PropOp40
 70
     1
102
RTVSPost2010Prop41ColorIndex
 90
       18
102
RTVSPost2010Prop41ColorRGB
 90
        0
102
RTVSPost2010PropOp41
 70
     1
102
RTVSPost2010Prop42
 90
       50
102
RTVSPost2010PropOp42
 70
     1
102
RTVSPost2010Prop43
 90
        3
102
RTVSPost2010PropOp43
 70
     1
102
RTVSPost2010Prop44ColorIndex
 90
        5
102
RTVSPost2010Prop44ColorRGB
 90
      255
102
RTVSPost2010PropOp44
 70
     1
102
RTVSPost2010Prop45
280
     0
102
RTVSPost2010PropOp45
 70
     1
102
RTVSPost2010Prop46
 90
       50
102
RTVSPost2010PropOp46
 70
     1
102
RTVSPost2010Prop47
 90
       50
102
RTVSPost2010PropOp47
 70
     1
102
RTVSPost2010Prop48
 90
       50
102
RTVSPost2010PropOp48
 70
     1
102
RTVSPost2010Prop49
280
     0
102
RTVSPost2010PropOp49
 70
     1
102
RTVSPost2010Prop50
 90
       50
102
RTVSPost2010PropOp50
 70
     1
102
RTVSPost2010Prop51ColorIndex
 90
      256
102
RTVSPost2010Prop51ColorRGB
 90
-16777216
102
RTVSPost2010PropOp51
 70
     0
102
RTVSPost2010Prop52
140
1.0
102
RTVSPost2010PropOp52
 70
     0
102
RTVSPost2010Prop53
 90
        2
102
RTVSPost2010PropOp53
 70
     1
102
RTVSPost2010Prop54
  1
strokes_ogs.tif
102
RTVSPost2010PropOp54
 70
     1
102
RTVSPost2010Prop55
280
     0
102
RTVSPost2010PropOp55
 70
     1
102
RTVSPost2010Prop56
140
1.0
102
RTVSPost2010PropOp56
 70
     1
102
RTVSPost2010Prop57
140
1.0
102
RTVSPost2010PropOp57
 70
     1
  0
XRECORD
  5
94DD6
102
{ACAD_REACTORS
330
87B1C
102
}
330
87B1C
100
AcDbXrecord
280
     1
102
RTVSPropertyOp0
 70
     1
102
RTVSPropertyOp1
 70
     1
102
RTVSPropertyOp2
 70
     1
102
RTVSPropertyOp3
 70
     1
102
RTVSPropertyOp4
 70
     1
102
RTVSPropertyOp5
 70
     1
102
RTVSPropertyOp6
 70
     1
102
RTVSPropertyOp7
 70
     1
102
RTVSPropertyOp8
 70
     1
102
RTVSPropertyOp9
 70
     1
102
RTVSPropertyOp10
 70
     1
102
RTVSPropertyOp11
 70
     1
102
RTVSPropertyOp12
 70
     1
102
RTVSPropertyOp13
 70
     1
102
RTVSPropertyOp14
 70
     1
102
RTVSPropertyOp15
 70
     1
102
RTVSPropertyOp16
 70
     1
102
RTVSPropertyOp17
 70
     1
102
RTVSPropertyOp18
 70
     1
102
RTVSPropertyOp19
 70
     1
102
RTVSPropertyOp20
 70
     1
102
RTVSPropertyOp21
 70
     1
102
RTVSPropertyOp22
 70
     1
102
RTVSPropertyOp23
 70
     1
102
RTVSPropertyOp24
 70
     1
102
RTVSPropertyOp25
 70
     1
102
RTVSPropertyOp26
 70
     1
102
RTVSPropertyOp27
 70
     1
102
RTVSPropertyOp28
 70
     1
102
RTVSPropertyOp29
 70
     1
102
RTVSPropertyOp30
 70
     1
102
RTVSPropertyOp31
 70
     1
102
RTVSPropertyOp32
 70
     1
102
RTVSPropertyOp33
 70
     1
102
RTVSPropertyOp34
 70
     1
102
RTVSPropertyOp35
 70
     1
102
RTVSPropertyOp36
 70
     1
102
RTVSPropertyOp37
 70
     1
102
RTVSPropertyOp38
 70
     1
102
RTVSPropertyOp39
 70
     1
102
RTVSPropertyOp40
 70
     1
102
RTVSPropertyOp41
 70
     1
102
RTVSPropertyOp42
 70
     1
102
RTVSPropertyOp43
 70
     1
102
RTVSPropertyOp44
 70
     1
102
RTVSPropertyOp45
 70
     1
102
RTVSPropertyOp46
 70
     1
102
RTVSPropertyOp47
 70
     1
102
RTVSPropertyOp48
 70
     1
102
RTVSPropertyOp49
 70
     1
102
RTVSPropertyOp50
 70
     1
102
RTVSPropertyOp51
 70
     0
102
RTVSPropertyOp52
 70
     0
102
RTVSPropertyOp53
 70
     1
102
RTVSPropertyOp54
 70
     1
102
RTVSPropertyOp55
 70
     1
102
RTVSPropertyOp56
 70
     1
102
RTVSPropertyOp57
 70
     1
102
RTVSPost2010Prop28
280
     0
102
RTVSPost2010PropOp28
 70
     1
102
RTVSPost2010Prop29
280
     1
102
RTVSPost2010PropOp29
 70
     1
102
RTVSPost2010Prop30
280
     1
102
RTVSPost2010PropOp30
 70
     1
102
RTVSPost2010Prop31
280
     0
102
RTVSPost2010PropOp31
 70
     1
102
RTVSPost2010Prop32
280
     0
102
RTVSPost2010PropOp32
 70
     1
102
RTVSPost2010Prop33
280
     0
102
RTVSPost2010PropOp33
 70
     1
102
RTVSPost2010Prop34
280
     0
102
RTVSPost2010PropOp34
 70
     1
102
RTVSPost2010Prop35
280
     0
102
RTVSPost2010PropOp35
 70
     1
102
RTVSPost2010Prop36
280
     0
102
RTVSPost2010PropOp36
 70
     1
102
RTVSPost2010Prop37
 90
       50
102
RTVSPost2010PropOp37
 70
     1
102
RTVSPost2010Prop38
140
0.0
102
RTVSPost2010PropOp38
 70
     1
102
RTVSPost2010Prop39
140
1.0
102
RTVSPost2010PropOp39
 70
     1
102
RTVSPost2010Prop40
 90
        0
102
RTVSPost2010PropOp40
 70
     1
102
RTVSPost2010Prop41ColorIndex
 90
       18
102
RTVSPost2010Prop41ColorRGB
 90
        0
102
RTVSPost2010PropOp41
 70
     1
102
RTVSPost2010Prop42
 90
       50
102
RTVSPost2010PropOp42
 70
     1
102
RTVSPost2010Prop43
 90
        3
102
RTVSPost2010PropOp43
 70
     1
102
RTVSPost2010Prop44ColorIndex
 90
        5
102
RTVSPost2010Prop44ColorRGB
 90
      255
102
RTVSPost2010PropOp44
 70
     1
102
RTVSPost2010Prop45
280
     0
102
RTVSPost2010PropOp45
 70
     1
102
RTVSPost2010Prop46
 90
       50
102
RTVSPost2010PropOp46
 70
     1
102
RTVSPost2010Prop47
 90
       50
102
RTVSPost2010PropOp47
 70
     1
102
RTVSPost2010Prop48
 90
       50
102
RTVSPost2010PropOp48
 70
     1
102
RTVSPost2010Prop49
280
     0
102
RTVSPost2010PropOp49
 70
     1
102
RTVSPost2010Prop50
 90
       50
102
RTVSPost2010PropOp50
 70
     1
102
RTVSPost2010Prop51ColorIndex
 90
      256
102
RTVSPost2010Prop51ColorRGB
 90
-16777216
102
RTVSPost2010PropOp51
 70
     0
102
RTVSPost2010Prop52
140
1.0
102
RTVSPost2010PropOp52
 70
     0
102
RTVSPost2010Prop53
 90
        2
102
RTVSPost2010PropOp53
 70
     1
102
RTVSPost2010Prop54
  1
strokes_ogs.tif
102
RTVSPost2010PropOp54
 70
     1
102
RTVSPost2010Prop55
280
     0
102
RTVSPost2010PropOp55
 70
     1
102
RTVSPost2010Prop56
140
1.0
102
RTVSPost2010PropOp56
 70
     1
102
RTVSPost2010Prop57
140
1.0
102
RTVSPost2010PropOp57
 70
     1
  0
XRECORD
  5
94DD7
102
{ACAD_REACTORS
330
87B38
102
}
330
87B38
100
AcDbXrecord
280
     1
102
RTVSPropertyOp0
 70
     0
102
RTVSPropertyOp1
 70
     0
102
RTVSPropertyOp2
 70
     0
102
RTVSPropertyOp3
 70
     0
102
RTVSPropertyOp4
 70
     0
102
RTVSPropertyOp5
 70
     0
102
RTVSPropertyOp6
 70
     0
102
RTVSPropertyOp7
 70
     0
102
RTVSPropertyOp8
 70
     0
102
RTVSPropertyOp9
 70
     0
102
RTVSPropertyOp10
 70
     0
102
RTVSPropertyOp11
 70
     0
102
RTVSPropertyOp12
 70
     0
102
RTVSPropertyOp13
 70
     0
102
RTVSPropertyOp14
 70
     2
102
RTVSPropertyOp15
 70
     0
102
RTVSPropertyOp16
 70
     0
102
RTVSPropertyOp17
 70
     0
102
RTVSPropertyOp18
 70
     0
102
RTVSPropertyOp19
 70
     0
102
RTVSPropertyOp20
 70
     0
102
RTVSPropertyOp21
 70
     0
102
RTVSPropertyOp22
 70
     0
102
RTVSPropertyOp23
 70
     0
102
RTVSPropertyOp24
 70
     0
102
RTVSPropertyOp25
 70
     0
102
RTVSPropertyOp26
 70
     0
102
RTVSPropertyOp27
 70
     0
102
RTVSPropertyOp28
 70
     1
102
RTVSPropertyOp29
 70
     1
102
RTVSPropertyOp30
 70
     1
102
RTVSPropertyOp31
 70
     1
102
RTVSPropertyOp32
 70
     1
102
RTVSPropertyOp33
 70
     1
102
RTVSPropertyOp34
 70
     1
102
RTVSPropertyOp35
 70
     1
102
RTVSPropertyOp36
 70
     1
102
RTVSPropertyOp37
 70
     0
102
RTVSPropertyOp38
 70
     0
102
RTVSPropertyOp39
 70
     0
102
RTVSPropertyOp40
 70
     0
102
RTVSPropertyOp41
 70
     0
102
RTVSPropertyOp42
 70
     0
102
RTVSPropertyOp43
 70
     0
102
RTVSPropertyOp44
 70
     0
102
RTVSPropertyOp45
 70
     1
102
RTVSPropertyOp46
 70
     0
102
RTVSPropertyOp47
 70
     0
102
RTVSPropertyOp48
 70
     0
102
RTVSPropertyOp49
 70
     1
102
RTVSPropertyOp50
 70
     0
102
RTVSPropertyOp51
 70
     0
102
RTVSPropertyOp52
 70
     0
102
RTVSPropertyOp53
 70
     0
102
RTVSPropertyOp54
 70
     0
102
RTVSPropertyOp55
 70
     1
102
RTVSPropertyOp56
 70
     0
102
RTVSPropertyOp57
 70
     0
102
RTVSPost2010Prop28
280
     0
102
RTVSPost2010PropOp28
 70
     1
102
RTVSPost2010Prop29
280
     1
102
RTVSPost2010PropOp29
 70
     1
102
RTVSPost2010Prop30
280
     1
102
RTVSPost2010PropOp30
 70
     1
102
RTVSPost2010Prop31
280
     0
102
RTVSPost2010PropOp31
 70
     1
102
RTVSPost2010Prop32
280
     0
102
RTVSPost2010PropOp32
 70
     1
102
RTVSPost2010Prop33
280
     0
102
RTVSPost2010PropOp33
 70
     1
102
RTVSPost2010Prop34
280
     0
102
RTVSPost2010PropOp34
 70
     1
102
RTVSPost2010Prop35
280
     0
102
RTVSPost2010PropOp35
 70
     1
102
RTVSPost2010Prop36
280
     0
102
RTVSPost2010PropOp36
 70
     1
102
RTVSPost2010Prop37
 90
       50
102
RTVSPost2010PropOp37
 70
     0
102
RTVSPost2010Prop38
140
0.0
102
RTVSPost2010PropOp38
 70
     0
102
RTVSPost2010Prop39
140
1.0
102
RTVSPost2010PropOp39
 70
     0
102
RTVSPost2010Prop40
 90
        0
102
RTVSPost2010PropOp40
 70
     0
102
RTVSPost2010Prop41ColorIndex
 90
       18
102
RTVSPost2010Prop41ColorRGB
 90
        0
102
RTVSPost2010PropOp41
 70
     0
102
RTVSPost2010Prop42
 90
       50
102
RTVSPost2010PropOp42
 70
     0
102
RTVSPost2010Prop43
 90
        3
102
RTVSPost2010PropOp43
 70
     0
102
RTVSPost2010Prop44ColorIndex
 90
        5
102
RTVSPost2010Prop44ColorRGB
 90
      255
102
RTVSPost2010PropOp44
 70
     0
102
RTVSPost2010Prop45
280
     0
102
RTVSPost2010PropOp45
 70
     1
102
RTVSPost2010Prop46
 90
       50
102
RTVSPost2010PropOp46
 70
     0
102
RTVSPost2010Prop47
 90
       50
102
RTVSPost2010PropOp47
 70
     0
102
RTVSPost2010Prop48
 90
       50
102
RTVSPost2010PropOp48
 70
     0
102
RTVSPost2010Prop49
280
     0
102
RTVSPost2010PropOp49
 70
     1
102
RTVSPost2010Prop50
 90
       50
102
RTVSPost2010PropOp50
 70
     0
102
RTVSPost2010Prop51ColorIndex
 90
      256
102
RTVSPost2010Prop51ColorRGB
 90
-16777216
102
RTVSPost2010PropOp51
 70
     0
102
RTVSPost2010Prop52
140
1.0
102
RTVSPost2010PropOp52
 70
     0
102
RTVSPost2010Prop53
 90
        2
102
RTVSPost2010PropOp53
 70
     0
102
RTVSPost2010Prop54
  1
strokes_ogs.tif
102
RTVSPost2010PropOp54
 70
     0
102
RTVSPost2010Prop55
280
     0
102
RTVSPost2010PropOp55
 70
     1
102
RTVSPost2010Prop56
140
1.0
102
RTVSPost2010PropOp56
 70
     0
102
RTVSPost2010Prop57
140
1.0
102
RTVSPost2010PropOp57
 70
     0
  0
XRECORD
  5
94DD8
102
{ACAD_REACTORS
330
87B28
102
}
330
87B28
100
AcDbXrecord
280
     1
102
RTVSPropertyOp0
 70
     1
102
RTVSPropertyOp1
 70
     1
102
RTVSPropertyOp2
 70
     1
102
RTVSPropertyOp3
 70
     1
102
RTVSPropertyOp4
 70
     1
102
RTVSPropertyOp5
 70
     1
102
RTVSPropertyOp6
 70
     1
102
RTVSPropertyOp7
 70
     1
102
RTVSPropertyOp8
 70
     1
102
RTVSPropertyOp9
 70
     1
102
RTVSPropertyOp10
 70
     1
102
RTVSPropertyOp11
 70
     1
102
RTVSPropertyOp12
 70
     1
102
RTVSPropertyOp13
 70
     1
102
RTVSPropertyOp14
 70
     1
102
RTVSPropertyOp15
 70
     1
102
RTVSPropertyOp16
 70
     1
102
RTVSPropertyOp17
 70
     1
102
RTVSPropertyOp18
 70
     1
102
RTVSPropertyOp19
 70
     1
102
RTVSPropertyOp20
 70
     1
102
RTVSPropertyOp21
 70
     1
102
RTVSPropertyOp22
 70
     1
102
RTVSPropertyOp23
 70
     1
102
RTVSPropertyOp24
 70
     1
102
RTVSPropertyOp25
 70
     1
102
RTVSPropertyOp26
 70
     1
102
RTVSPropertyOp27
 70
     1
102
RTVSPropertyOp28
 70
     1
102
RTVSPropertyOp29
 70
     1
102
RTVSPropertyOp30
 70
     1
102
RTVSPropertyOp31
 70
     1
102
RTVSPropertyOp32
 70
     1
102
RTVSPropertyOp33
 70
     1
102
RTVSPropertyOp34
 70
     1
102
RTVSPropertyOp35
 70
     1
102
RTVSPropertyOp36
 70
     1
102
RTVSPropertyOp37
 70
     1
102
RTVSPropertyOp38
 70
     1
102
RTVSPropertyOp39
 70
     1
102
RTVSPropertyOp40
 70
     1
102
RTVSPropertyOp41
 70
     1
102
RTVSPropertyOp42
 70
     1
102
RTVSPropertyOp43
 70
     1
102
RTVSPropertyOp44
 70
     1
102
RTVSPropertyOp45
 70
     1
102
RTVSPropertyOp46
 70
     1
102
RTVSPropertyOp47
 70
     1
102
RTVSPropertyOp48
 70
     1
102
RTVSPropertyOp49
 70
     1
102
RTVSPropertyOp50
 70
     1
102
RTVSPropertyOp51
 70
     0
102
RTVSPropertyOp52
 70
     0
102
RTVSPropertyOp53
 70
     1
102
RTVSPropertyOp54
 70
     1
102
RTVSPropertyOp55
 70
     1
102
RTVSPropertyOp56
 70
     1
102
RTVSPropertyOp57
 70
     1
102
RTVSPost2010Prop28
280
     0
102
RTVSPost2010PropOp28
 70
     1
102
RTVSPost2010Prop29
280
     1
102
RTVSPost2010PropOp29
 70
     1
102
RTVSPost2010Prop30
280
     1
102
RTVSPost2010PropOp30
 70
     1
102
RTVSPost2010Prop31
280
     0
102
RTVSPost2010PropOp31
 70
     1
102
RTVSPost2010Prop32
280
     0
102
RTVSPost2010PropOp32
 70
     1
102
RTVSPost2010Prop33
280
     0
102
RTVSPost2010PropOp33
 70
     1
102
RTVSPost2010Prop34
280
     0
102
RTVSPost2010PropOp34
 70
     1
102
RTVSPost2010Prop35
280
     0
102
RTVSPost2010PropOp35
 70
     1
102
RTVSPost2010Prop36
280
     0
102
RTVSPost2010PropOp36
 70
     1
102
RTVSPost2010Prop37
 90
       50
102
RTVSPost2010PropOp37
 70
     1
102
RTVSPost2010Prop38
140
0.0
102
RTVSPost2010PropOp38
 70
     1
102
RTVSPost2010Prop39
140
1.0
102
RTVSPost2010PropOp39
 70
     1
102
RTVSPost2010Prop40
 90
        0
102
RTVSPost2010PropOp40
 70
     1
102
RTVSPost2010Prop41ColorIndex
 90
       18
102
RTVSPost2010Prop41ColorRGB
 90
        0
102
RTVSPost2010PropOp41
 70
     1
102
RTVSPost2010Prop42
 90
       50
102
RTVSPost2010PropOp42
 70
     1
102
RTVSPost2010Prop43
 90
        3
102
RTVSPost2010PropOp43
 70
     1
102
RTVSPost2010Prop44ColorIndex
 90
        5
102
RTVSPost2010Prop44ColorRGB
 90
      255
102
RTVSPost2010PropOp44
 70
     1
102
RTVSPost2010Prop45
280
     0
102
RTVSPost2010PropOp45
 70
     1
102
RTVSPost2010Prop46
 90
       50
102
RTVSPost2010PropOp46
 70
     1
102
RTVSPost2010Prop47
 90
       50
102
RTVSPost2010PropOp47
 70
     1
102
RTVSPost2010Prop48
 90
       50
102
RTVSPost2010PropOp48
 70
     1
102
RTVSPost2010Prop49
280
     0
102
RTVSPost2010PropOp49
 70
     1
102
RTVSPost2010Prop50
 90
       50
102
RTVSPost2010PropOp50
 70
     1
102
RTVSPost2010Prop51ColorIndex
 90
      256
102
RTVSPost2010Prop51ColorRGB
 90
-16777216
102
RTVSPost2010PropOp51
 70
     0
102
RTVSPost2010Prop52
140
1.0
102
RTVSPost2010PropOp52
 70
     0
102
RTVSPost2010Prop53
 90
        2
102
RTVSPost2010PropOp53
 70
     1
102
RTVSPost2010Prop54
  1
strokes_ogs.tif
102
RTVSPost2010PropOp54
 70
     1
102
RTVSPost2010Prop55
280
     0
102
RTVSPost2010PropOp55
 70
     1
102
RTVSPost2010Prop56
140
1.0
102
RTVSPost2010PropOp56
 70
     1
102
RTVSPost2010Prop57
140
1.0
102
RTVSPost2010PropOp57
 70
     1
  0
XRECORD
  5
94DD9
102
{ACAD_REACTORS
330
87B3A
102
}
330
87B3A
100
AcDbXrecord
280
     1
102
RTVSPropertyOp0
 70
     0
102
RTVSPropertyOp1
 70
     0
102
RTVSPropertyOp2
 70
     0
102
RTVSPropertyOp3
 70
     0
102
RTVSPropertyOp4
 70
     0
102
RTVSPropertyOp5
 70
     0
102
RTVSPropertyOp6
 70
     0
102
RTVSPropertyOp7
 70
     0
102
RTVSPropertyOp8
 70
     0
102
RTVSPropertyOp9
 70
     0
102
RTVSPropertyOp10
 70
     0
102
RTVSPropertyOp11
 70
     0
102
RTVSPropertyOp12
 70
     0
102
RTVSPropertyOp13
 70
     0
102
RTVSPropertyOp14
 70
     2
102
RTVSPropertyOp15
 70
     0
102
RTVSPropertyOp16
 70
     0
102
RTVSPropertyOp17
 70
     0
102
RTVSPropertyOp18
 70
     0
102
RTVSPropertyOp19
 70
     0
102
RTVSPropertyOp20
 70
     0
102
RTVSPropertyOp21
 70
     0
102
RTVSPropertyOp22
 70
     0
102
RTVSPropertyOp23
 70
     0
102
RTVSPropertyOp24
 70
     0
102
RTVSPropertyOp25
 70
     0
102
RTVSPropertyOp26
 70
     0
102
RTVSPropertyOp27
 70
     0
102
RTVSPropertyOp28
 70
     1
102
RTVSPropertyOp29
 70
     1
102
RTVSPropertyOp30
 70
     1
102
RTVSPropertyOp31
 70
     1
102
RTVSPropertyOp32
 70
     1
102
RTVSPropertyOp33
 70
     1
102
RTVSPropertyOp34
 70
     1
102
RTVSPropertyOp35
 70
     1
102
RTVSPropertyOp36
 70
     1
102
RTVSPropertyOp37
 70
     0
102
RTVSPropertyOp38
 70
     0
102
RTVSPropertyOp39
 70
     0
102
RTVSPropertyOp40
 70
     0
102
RTVSPropertyOp41
 70
     0
102
RTVSPropertyOp42
 70
     0
102
RTVSPropertyOp43
 70
     0
102
RTVSPropertyOp44
 70
     0
102
RTVSPropertyOp45
 70
     1
102
RTVSPropertyOp46
 70
     0
102
RTVSPropertyOp47
 70
     0
102
RTVSPropertyOp48
 70
     0
102
RTVSPropertyOp49
 70
     1
102
RTVSPropertyOp50
 70
     0
102
RTVSPropertyOp51
 70
     0
102
RTVSPropertyOp52
 70
     0
102
RTVSPropertyOp53
 70
     0
102
RTVSPropertyOp54
 70
     0
102
RTVSPropertyOp55
 70
     1
102
RTVSPropertyOp56
 70
     0
102
RTVSPropertyOp57
 70
     0
102
RTVSPost2010Prop28
280
     0
102
RTVSPost2010PropOp28
 70
     1
102
RTVSPost2010Prop29
280
     1
102
RTVSPost2010PropOp29
 70
     1
102
RTVSPost2010Prop30
280
     1
102
RTVSPost2010PropOp30
 70
     1
102
RTVSPost2010Prop31
280
     0
102
RTVSPost2010PropOp31
 70
     1
102
RTVSPost2010Prop32
280
     0
102
RTVSPost2010PropOp32
 70
     1
102
RTVSPost2010Prop33
280
     0
102
RTVSPost2010PropOp33
 70
     1
102
RTVSPost2010Prop34
280
     0
102
RTVSPost2010PropOp34
 70
     1
102
RTVSPost2010Prop35
280
     0
102
RTVSPost2010PropOp35
 70
     1
102
RTVSPost2010Prop36
280
     0
102
RTVSPost2010PropOp36
 70
     1
102
RTVSPost2010Prop37
 90
       50
102
RTVSPost2010PropOp37
 70
     0
102
RTVSPost2010Prop38
140
0.0
102
RTVSPost2010PropOp38
 70
     0
102
RTVSPost2010Prop39
140
1.0
102
RTVSPost2010PropOp39
 70
     0
102
RTVSPost2010Prop40
 90
        0
102
RTVSPost2010PropOp40
 70
     0
102
RTVSPost2010Prop41ColorIndex
 90
       18
102
RTVSPost2010Prop41ColorRGB
 90
        0
102
RTVSPost2010PropOp41
 70
     0
102
RTVSPost2010Prop42
 90
       50
102
RTVSPost2010PropOp42
 70
     0
102
RTVSPost2010Prop43
 90
        3
102
RTVSPost2010PropOp43
 70
     0
102
RTVSPost2010Prop44ColorIndex
 90
        5
102
RTVSPost2010Prop44ColorRGB
 90
      255
102
RTVSPost2010PropOp44
 70
     0
102
RTVSPost2010Prop45
280
     0
102
RTVSPost2010PropOp45
 70
     1
102
RTVSPost2010Prop46
 90
       50
102
RTVSPost2010PropOp46
 70
     0
102
RTVSPost2010Prop47
 90
       50
102
RTVSPost2010PropOp47
 70
     0
102
RTVSPost2010Prop48
 90
       50
102
RTVSPost2010PropOp48
 70
     0
102
RTVSPost2010Prop49
280
     0
102
RTVSPost2010PropOp49
 70
     1
102
RTVSPost2010Prop50
 90
       50
102
RTVSPost2010PropOp50
 70
     0
102
RTVSPost2010Prop51ColorIndex
 90
      256
102
RTVSPost2010Prop51ColorRGB
 90
-16777216
102
RTVSPost2010PropOp51
 70
     0
102
RTVSPost2010Prop52
140
1.0
102
RTVSPost2010PropOp52
 70
     0
102
RTVSPost2010Prop53
 90
        2
102
RTVSPost2010PropOp53
 70
     0
102
RTVSPost2010Prop54
  1
strokes_ogs.tif
102
RTVSPost2010PropOp54
 70
     0
102
RTVSPost2010Prop55
280
     0
102
RTVSPost2010PropOp55
 70
     1
102
RTVSPost2010Prop56
140
1.0
102
RTVSPost2010PropOp56
 70
     0
102
RTVSPost2010Prop57
140
1.0
102
RTVSPost2010PropOp57
 70
     0
  0
XRECORD
  5
94DDA
102
{ACAD_REACTORS
330
87B20
102
}
330
87B20
100
AcDbXrecord
280
     1
102
RTVSPropertyOp0
 70
     1
102
RTVSPropertyOp1
 70
     1
102
RTVSPropertyOp2
 70
     1
102
RTVSPropertyOp3
 70
     1
102
RTVSPropertyOp4
 70
     1
102
RTVSPropertyOp5
 70
     1
102
RTVSPropertyOp6
 70
     1
102
RTVSPropertyOp7
 70
     1
102
RTVSPropertyOp8
 70
     1
102
RTVSPropertyOp9
 70
     1
102
RTVSPropertyOp10
 70
     1
102
RTVSPropertyOp11
 70
     1
102
RTVSPropertyOp12
 70
     1
102
RTVSPropertyOp13
 70
     1
102
RTVSPropertyOp14
 70
     1
102
RTVSPropertyOp15
 70
     1
102
RTVSPropertyOp16
 70
     1
102
RTVSPropertyOp17
 70
     1
102
RTVSPropertyOp18
 70
     1
102
RTVSPropertyOp19
 70
     1
102
RTVSPropertyOp20
 70
     1
102
RTVSPropertyOp21
 70
     1
102
RTVSPropertyOp22
 70
     1
102
RTVSPropertyOp23
 70
     1
102
RTVSPropertyOp24
 70
     1
102
RTVSPropertyOp25
 70
     1
102
RTVSPropertyOp26
 70
     1
102
RTVSPropertyOp27
 70
     1
102
RTVSPropertyOp28
 70
     1
102
RTVSPropertyOp29
 70
     1
102
RTVSPropertyOp30
 70
     1
102
RTVSPropertyOp31
 70
     1
102
RTVSPropertyOp32
 70
     1
102
RTVSPropertyOp33
 70
     1
102
RTVSPropertyOp34
 70
     1
102
RTVSPropertyOp35
 70
     1
102
RTVSPropertyOp36
 70
     1
102
RTVSPropertyOp37
 70
     1
102
RTVSPropertyOp38
 70
     1
102
RTVSPropertyOp39
 70
     1
102
RTVSPropertyOp40
 70
     1
102
RTVSPropertyOp41
 70
     1
102
RTVSPropertyOp42
 70
     1
102
RTVSPropertyOp43
 70
     1
102
RTVSPropertyOp44
 70
     1
102
RTVSPropertyOp45
 70
     1
102
RTVSPropertyOp46
 70
     1
102
RTVSPropertyOp47
 70
     1
102
RTVSPropertyOp48
 70
     1
102
RTVSPropertyOp49
 70
     1
102
RTVSPropertyOp50
 70
     1
102
RTVSPropertyOp51
 70
     0
102
RTVSPropertyOp52
 70
     0
102
RTVSPropertyOp53
 70
     1
102
RTVSPropertyOp54
 70
     1
102
RTVSPropertyOp55
 70
     1
102
RTVSPropertyOp56
 70
     1
102
RTVSPropertyOp57
 70
     1
102
RTVSPost2010Prop28
280
     0
102
RTVSPost2010PropOp28
 70
     1
102
RTVSPost2010Prop29
280
     1
102
RTVSPost2010PropOp29
 70
     1
102
RTVSPost2010Prop30
280
     1
102
RTVSPost2010PropOp30
 70
     1
102
RTVSPost2010Prop31
280
     0
102
RTVSPost2010PropOp31
 70
     1
102
RTVSPost2010Prop32
280
     0
102
RTVSPost2010PropOp32
 70
     1
102
RTVSPost2010Prop33
280
     0
102
RTVSPost2010PropOp33
 70
     1
102
RTVSPost2010Prop34
280
     0
102
RTVSPost2010PropOp34
 70
     1
102
RTVSPost2010Prop35
280
     0
102
RTVSPost2010PropOp35
 70
     1
102
RTVSPost2010Prop36
280
     0
102
RTVSPost2010PropOp36
 70
     1
102
RTVSPost2010Prop37
 90
       50
102
RTVSPost2010PropOp37
 70
     1
102
RTVSPost2010Prop38
140
0.0
102
RTVSPost2010PropOp38
 70
     1
102
RTVSPost2010Prop39
140
1.0
102
RTVSPost2010PropOp39
 70
     1
102
RTVSPost2010Prop40
 90
        0
102
RTVSPost2010PropOp40
 70
     1
102
RTVSPost2010Prop41ColorIndex
 90
       18
102
RTVSPost2010Prop41ColorRGB
 90
        0
102
RTVSPost2010PropOp41
 70
     1
102
RTVSPost2010Prop42
 90
       50
102
RTVSPost2010PropOp42
 70
     1
102
RTVSPost2010Prop43
 90
        3
102
RTVSPost2010PropOp43
 70
     1
102
RTVSPost2010Prop44ColorIndex
 90
        5
102
RTVSPost2010Prop44ColorRGB
 90
      255
102
RTVSPost2010PropOp44
 70
     1
102
RTVSPost2010Prop45
280
     0
102
RTVSPost2010PropOp45
 70
     1
102
RTVSPost2010Prop46
 90
       50
102
RTVSPost2010PropOp46
 70
     1
102
RTVSPost2010Prop47
 90
       50
102
RTVSPost2010PropOp47
 70
     1
102
RTVSPost2010Prop48
 90
       50
102
RTVSPost2010PropOp48
 70
     1
102
RTVSPost2010Prop49
280
     0
102
RTVSPost2010PropOp49
 70
     1
102
RTVSPost2010Prop50
 90
       50
102
RTVSPost2010PropOp50
 70
     1
102
RTVSPost2010Prop51ColorIndex
 90
      256
102
RTVSPost2010Prop51ColorRGB
 90
-16777216
102
RTVSPost2010PropOp51
 70
     0
102
RTVSPost2010Prop52
140
1.0
102
RTVSPost2010PropOp52
 70
     0
102
RTVSPost2010Prop53
 90
        2
102
RTVSPost2010PropOp53
 70
     1
102
RTVSPost2010Prop54
  1
strokes_ogs.tif
102
RTVSPost2010PropOp54
 70
     1
102
RTVSPost2010Prop55
280
     0
102
RTVSPost2010PropOp55
 70
     1
102
RTVSPost2010Prop56
140
1.0
102
RTVSPost2010PropOp56
 70
     1
102
RTVSPost2010Prop57
140
1.0
102
RTVSPost2010PropOp57
 70
     1
  0
XRECORD
  5
94DDB
102
{ACAD_REACTORS
330
87B36
102
}
330
87B36
100
AcDbXrecord
280
     1
102
RTVSPropertyOp0
 70
     1
102
RTVSPropertyOp1
 70
     1
102
RTVSPropertyOp2
 70
     1
102
RTVSPropertyOp3
 70
     1
102
RTVSPropertyOp4
 70
     1
102
RTVSPropertyOp5
 70
     1
102
RTVSPropertyOp6
 70
     1
102
RTVSPropertyOp7
 70
     1
102
RTVSPropertyOp8
 70
     1
102
RTVSPropertyOp9
 70
     1
102
RTVSPropertyOp10
 70
     1
102
RTVSPropertyOp11
 70
     1
102
RTVSPropertyOp12
 70
     1
102
RTVSPropertyOp13
 70
     1
102
RTVSPropertyOp14
 70
     1
102
RTVSPropertyOp15
 70
     1
102
RTVSPropertyOp16
 70
     1
102
RTVSPropertyOp17
 70
     1
102
RTVSPropertyOp18
 70
     1
102
RTVSPropertyOp19
 70
     1
102
RTVSPropertyOp20
 70
     1
102
RTVSPropertyOp21
 70
     1
102
RTVSPropertyOp22
 70
     1
102
RTVSPropertyOp23
 70
     1
102
RTVSPropertyOp24
 70
     1
102
RTVSPropertyOp25
 70
     1
102
RTVSPropertyOp26
 70
     1
102
RTVSPropertyOp27
 70
     1
102
RTVSPropertyOp28
 70
     1
102
RTVSPropertyOp29
 70
     1
102
RTVSPropertyOp30
 70
     1
102
RTVSPropertyOp31
 70
     1
102
RTVSPropertyOp32
 70
     1
102
RTVSPropertyOp33
 70
     1
102
RTVSPropertyOp34
 70
     1
102
RTVSPropertyOp35
 70
     1
102
RTVSPropertyOp36
 70
     1
102
RTVSPropertyOp37
 70
     1
102
RTVSPropertyOp38
 70
     1
102
RTVSPropertyOp39
 70
     1
102
RTVSPropertyOp40
 70
     1
102
RTVSPropertyOp41
 70
     1
102
RTVSPropertyOp42
 70
     1
102
RTVSPropertyOp43
 70
     1
102
RTVSPropertyOp44
 70
     1
102
RTVSPropertyOp45
 70
     1
102
RTVSPropertyOp46
 70
     1
102
RTVSPropertyOp47
 70
     1
102
RTVSPropertyOp48
 70
     1
102
RTVSPropertyOp49
 70
     1
102
RTVSPropertyOp50
 70
     1
102
RTVSPropertyOp51
 70
     0
102
RTVSPropertyOp52
 70
     0
102
RTVSPropertyOp53
 70
     1
102
RTVSPropertyOp54
 70
     1
102
RTVSPropertyOp55
 70
     1
102
RTVSPropertyOp56
 70
     1
102
RTVSPropertyOp57
 70
     1
102
RTVSPost2010Prop28
280
     0
102
RTVSPost2010PropOp28
 70
     1
102
RTVSPost2010Prop29
280
     1
102
RTVSPost2010PropOp29
 70
     1
102
RTVSPost2010Prop30
280
     1
102
RTVSPost2010PropOp30
 70
     1
102
RTVSPost2010Prop31
280
     0
102
RTVSPost2010PropOp31
 70
     1
102
RTVSPost2010Prop32
280
     0
102
RTVSPost2010PropOp32
 70
     1
102
RTVSPost2010Prop33
280
     0
102
RTVSPost2010PropOp33
 70
     1
102
RTVSPost2010Prop34
280
     0
102
RTVSPost2010PropOp34
 70
     1
102
RTVSPost2010Prop35
280
     0
102
RTVSPost2010PropOp35
 70
     1
102
RTVSPost2010Prop36
280
     0
102
RTVSPost2010PropOp36
 70
     1
102
RTVSPost2010Prop37
 90
       50
102
RTVSPost2010PropOp37
 70
     1
102
RTVSPost2010Prop38
140
0.0
102
RTVSPost2010PropOp38
 70
     1
102
RTVSPost2010Prop39
140
1.0
102
RTVSPost2010PropOp39
 70
     1
102
RTVSPost2010Prop40
 90
        0
102
RTVSPost2010PropOp40
 70
     1
102
RTVSPost2010Prop41ColorIndex
 90
       18
102
RTVSPost2010Prop41ColorRGB
 90
        0
102
RTVSPost2010PropOp41
 70
     1
102
RTVSPost2010Prop42
 90
       50
102
RTVSPost2010PropOp42
 70
     1
102
RTVSPost2010Prop43
 90
        3
102
RTVSPost2010PropOp43
 70
     1
102
RTVSPost2010Prop44ColorIndex
 90
        5
102
RTVSPost2010Prop44ColorRGB
 90
      255
102
RTVSPost2010PropOp44
 70
     1
102
RTVSPost2010Prop45
280
     0
102
RTVSPost2010PropOp45
 70
     1
102
RTVSPost2010Prop46
 90
       50
102
RTVSPost2010PropOp46
 70
     1
102
RTVSPost2010Prop47
 90
       50
102
RTVSPost2010PropOp47
 70
     1
102
RTVSPost2010Prop48
 90
       50
102
RTVSPost2010PropOp48
 70
     1
102
RTVSPost2010Prop49
280
     0
102
RTVSPost2010PropOp49
 70
     1
102
RTVSPost2010Prop50
 90
       50
102
RTVSPost2010PropOp50
 70
     1
102
RTVSPost2010Prop51ColorIndex
 90
      256
102
RTVSPost2010Prop51ColorRGB
 90
-16777216
102
RTVSPost2010PropOp51
 70
     0
102
RTVSPost2010Prop52
140
1.0
102
RTVSPost2010PropOp52
 70
     0
102
RTVSPost2010Prop53
 90
        2
102
RTVSPost2010PropOp53
 70
     1
102
RTVSPost2010Prop54
  1
strokes_ogs.tif
102
RTVSPost2010PropOp54
 70
     1
102
RTVSPost2010Prop55
280
     0
102
RTVSPost2010PropOp55
 70
     1
102
RTVSPost2010Prop56
140
1.0
102
RTVSPost2010PropOp56
 70
     1
102
RTVSPost2010Prop57
140
1.0
102
RTVSPost2010PropOp57
 70
     1
  0
XRECORD
  5
94DDC
102
{ACAD_REACTORS
330
87B34
102
}
330
87B34
100
AcDbXrecord
280
     1
102
RTVSPropertyOp0
 70
     1
102
RTVSPropertyOp1
 70
     1
102
RTVSPropertyOp2
 70
     1
102
RTVSPropertyOp3
 70
     1
102
RTVSPropertyOp4
 70
     1
102
RTVSPropertyOp5
 70
     1
102
RTVSPropertyOp6
 70
     1
102
RTVSPropertyOp7
 70
     1
102
RTVSPropertyOp8
 70
     1
102
RTVSPropertyOp9
 70
     1
102
RTVSPropertyOp10
 70
     1
102
RTVSPropertyOp11
 70
     1
102
RTVSPropertyOp12
 70
     1
102
RTVSPropertyOp13
 70
     1
102
RTVSPropertyOp14
 70
     1
102
RTVSPropertyOp15
 70
     1
102
RTVSPropertyOp16
 70
     1
102
RTVSPropertyOp17
 70
     1
102
RTVSPropertyOp18
 70
     1
102
RTVSPropertyOp19
 70
     1
102
RTVSPropertyOp20
 70
     1
102
RTVSPropertyOp21
 70
     1
102
RTVSPropertyOp22
 70
     1
102
RTVSPropertyOp23
 70
     1
102
RTVSPropertyOp24
 70
     1
102
RTVSPropertyOp25
 70
     1
102
RTVSPropertyOp26
 70
     1
102
RTVSPropertyOp27
 70
     1
102
RTVSPropertyOp28
 70
     1
102
RTVSPropertyOp29
 70
     1
102
RTVSPropertyOp30
 70
     1
102
RTVSPropertyOp31
 70
     1
102
RTVSPropertyOp32
 70
     1
102
RTVSPropertyOp33
 70
     1
102
RTVSPropertyOp34
 70
     1
102
RTVSPropertyOp35
 70
     1
102
RTVSPropertyOp36
 70
     1
102
RTVSPropertyOp37
 70
     1
102
RTVSPropertyOp38
 70
     1
102
RTVSPropertyOp39
 70
     1
102
RTVSPropertyOp40
 70
     1
102
RTVSPropertyOp41
 70
     1
102
RTVSPropertyOp42
 70
     1
102
RTVSPropertyOp43
 70
     1
102
RTVSPropertyOp44
 70
     1
102
RTVSPropertyOp45
 70
     1
102
RTVSPropertyOp46
 70
     1
102
RTVSPropertyOp47
 70
     1
102
RTVSPropertyOp48
 70
     1
102
RTVSPropertyOp49
 70
     1
102
RTVSPropertyOp50
 70
     1
102
RTVSPropertyOp51
 70
     0
102
RTVSPropertyOp52
 70
     0
102
RTVSPropertyOp53
 70
     1
102
RTVSPropertyOp54
 70
     1
102
RTVSPropertyOp55
 70
     1
102
RTVSPropertyOp56
 70
     1
102
RTVSPropertyOp57
 70
     1
102
RTVSPost2010Prop28
280
     0
102
RTVSPost2010PropOp28
 70
     1
102
RTVSPost2010Prop29
280
     1
102
RTVSPost2010PropOp29
 70
     1
102
RTVSPost2010Prop30
280
     1
102
RTVSPost2010PropOp30
 70
     1
102
RTVSPost2010Prop31
280
     0
102
RTVSPost2010PropOp31
 70
     1
102
RTVSPost2010Prop32
280
     0
102
RTVSPost2010PropOp32
 70
     1
102
RTVSPost2010Prop33
280
     0
102
RTVSPost2010PropOp33
 70
     1
102
RTVSPost2010Prop34
280
     0
102
RTVSPost2010PropOp34
 70
     1
102
RTVSPost2010Prop35
280
     0
102
RTVSPost2010PropOp35
 70
     1
102
RTVSPost2010Prop36
280
     0
102
RTVSPost2010PropOp36
 70
     1
102
RTVSPost2010Prop37
 90
       50
102
RTVSPost2010PropOp37
 70
     1
102
RTVSPost2010Prop38
140
0.0
102
RTVSPost2010PropOp38
 70
     1
102
RTVSPost2010Prop39
140
1.0
102
RTVSPost2010PropOp39
 70
     1
102
RTVSPost2010Prop40
 90
        0
102
RTVSPost2010PropOp40
 70
     1
102
RTVSPost2010Prop41ColorIndex
 90
       18
102
RTVSPost2010Prop41ColorRGB
 90
        0
102
RTVSPost2010PropOp41
 70
     1
102
RTVSPost2010Prop42
 90
       50
102
RTVSPost2010PropOp42
 70
     1
102
RTVSPost2010Prop43
 90
        3
102
RTVSPost2010PropOp43
 70
     1
102
RTVSPost2010Prop44ColorIndex
 90
        5
102
RTVSPost2010Prop44ColorRGB
 90
      255
102
RTVSPost2010PropOp44
 70
     1
102
RTVSPost2010Prop45
280
     0
102
RTVSPost2010PropOp45
 70
     1
102
RTVSPost2010Prop46
 90
       50
102
RTVSPost2010PropOp46
 70
     1
102
RTVSPost2010Prop47
 90
       50
102
RTVSPost2010PropOp47
 70
     1
102
RTVSPost2010Prop48
 90
       50
102
RTVSPost2010PropOp48
 70
     1
102
RTVSPost2010Prop49
280
     0
102
RTVSPost2010PropOp49
 70
     1
102
RTVSPost2010Prop50
 90
       50
102
RTVSPost2010PropOp50
 70
     1
102
RTVSPost2010Prop51ColorIndex
 90
      256
102
RTVSPost2010Prop51ColorRGB
 90
-16777216
102
RTVSPost2010PropOp51
 70
     0
102
RTVSPost2010Prop52
140
1.0
102
RTVSPost2010PropOp52
 70
     0
102
RTVSPost2010Prop53
 90
        2
102
RTVSPost2010PropOp53
 70
     1
102
RTVSPost2010Prop54
  1
strokes_ogs.tif
102
RTVSPost2010PropOp54
 70
     1
102
RTVSPost2010Prop55
280
     0
102
RTVSPost2010PropOp55
 70
     1
102
RTVSPost2010Prop56
140
1.0
102
RTVSPost2010PropOp56
 70
     1
102
RTVSPost2010Prop57
140
1.0
102
RTVSPost2010PropOp57
 70
     1
  0
XRECORD
  5
94DDD
102
{ACAD_REACTORS
330
87B2E
102
}
330
87B2E
100
AcDbXrecord
280
     1
102
RTVSPropertyOp0
 70
     1
102
RTVSPropertyOp1
 70
     1
102
RTVSPropertyOp2
 70
     1
102
RTVSPropertyOp3
 70
     1
102
RTVSPropertyOp4
 70
     1
102
RTVSPropertyOp5
 70
     1
102
RTVSPropertyOp6
 70
     1
102
RTVSPropertyOp7
 70
     1
102
RTVSPropertyOp8
 70
     1
102
RTVSPropertyOp9
 70
     1
102
RTVSPropertyOp10
 70
     1
102
RTVSPropertyOp11
 70
     1
102
RTVSPropertyOp12
 70
     1
102
RTVSPropertyOp13
 70
     1
102
RTVSPropertyOp14
 70
     1
102
RTVSPropertyOp15
 70
     1
102
RTVSPropertyOp16
 70
     1
102
RTVSPropertyOp17
 70
     1
102
RTVSPropertyOp18
 70
     1
102
RTVSPropertyOp19
 70
     1
102
RTVSPropertyOp20
 70
     1
102
RTVSPropertyOp21
 70
     1
102
RTVSPropertyOp22
 70
     1
102
RTVSPropertyOp23
 70
     1
102
RTVSPropertyOp24
 70
     1
102
RTVSPropertyOp25
 70
     1
102
RTVSPropertyOp26
 70
     1
102
RTVSPropertyOp27
 70
     1
102
RTVSPropertyOp28
 70
     1
102
RTVSPropertyOp29
 70
     1
102
RTVSPropertyOp30
 70
     1
102
RTVSPropertyOp31
 70
     1
102
RTVSPropertyOp32
 70
     1
102
RTVSPropertyOp33
 70
     1
102
RTVSPropertyOp34
 70
     1
102
RTVSPropertyOp35
 70
     1
102
RTVSPropertyOp36
 70
     1
102
RTVSPropertyOp37
 70
     1
102
RTVSPropertyOp38
 70
     1
102
RTVSPropertyOp39
 70
     1
102
RTVSPropertyOp40
 70
     1
102
RTVSPropertyOp41
 70
     1
102
RTVSPropertyOp42
 70
     1
102
RTVSPropertyOp43
 70
     1
102
RTVSPropertyOp44
 70
     1
102
RTVSPropertyOp45
 70
     1
102
RTVSPropertyOp46
 70
     1
102
RTVSPropertyOp47
 70
     1
102
RTVSPropertyOp48
 70
     1
102
RTVSPropertyOp49
 70
     1
102
RTVSPropertyOp50
 70
     1
102
RTVSPropertyOp51
 70
     0
102
RTVSPropertyOp52
 70
     0
102
RTVSPropertyOp53
 70
     1
102
RTVSPropertyOp54
 70
     1
102
RTVSPropertyOp55
 70
     1
102
RTVSPropertyOp56
 70
     1
102
RTVSPropertyOp57
 70
     1
102
RTVSPost2010Prop28
280
     0
102
RTVSPost2010PropOp28
 70
     1
102
RTVSPost2010Prop29
280
     1
102
RTVSPost2010PropOp29
 70
     1
102
RTVSPost2010Prop30
280
     1
102
RTVSPost2010PropOp30
 70
     1
102
RTVSPost2010Prop31
280
     0
102
RTVSPost2010PropOp31
 70
     1
102
RTVSPost2010Prop32
280
     0
102
RTVSPost2010PropOp32
 70
     1
102
RTVSPost2010Prop33
280
     0
102
RTVSPost2010PropOp33
 70
     1
102
RTVSPost2010Prop34
280
     0
102
RTVSPost2010PropOp34
 70
     1
102
RTVSPost2010Prop35
280
     0
102
RTVSPost2010PropOp35
 70
     1
102
RTVSPost2010Prop36
280
     0
102
RTVSPost2010PropOp36
 70
     1
102
RTVSPost2010Prop37
 90
       50
102
RTVSPost2010PropOp37
 70
     1
102
RTVSPost2010Prop38
140
0.0
102
RTVSPost2010PropOp38
 70
     1
102
RTVSPost2010Prop39
140
1.0
102
RTVSPost2010PropOp39
 70
     1
102
RTVSPost2010Prop40
 90
        0
102
RTVSPost2010PropOp40
 70
     1
102
RTVSPost2010Prop41ColorIndex
 90
       18
102
RTVSPost2010Prop41ColorRGB
 90
        0
102
RTVSPost2010PropOp41
 70
     1
102
RTVSPost2010Prop42
 90
       50
102
RTVSPost2010PropOp42
 70
     1
102
RTVSPost2010Prop43
 90
        3
102
RTVSPost2010PropOp43
 70
     1
102
RTVSPost2010Prop44ColorIndex
 90
        5
102
RTVSPost2010Prop44ColorRGB
 90
      255
102
RTVSPost2010PropOp44
 70
     1
102
RTVSPost2010Prop45
280
     0
102
RTVSPost2010PropOp45
 70
     1
102
RTVSPost2010Prop46
 90
       50
102
RTVSPost2010PropOp46
 70
     1
102
RTVSPost2010Prop47
 90
       50
102
RTVSPost2010PropOp47
 70
     1
102
RTVSPost2010Prop48
 90
       50
102
RTVSPost2010PropOp48
 70
     1
102
RTVSPost2010Prop49
280
     0
102
RTVSPost2010PropOp49
 70
     1
102
RTVSPost2010Prop50
 90
       50
102
RTVSPost2010PropOp50
 70
     1
102
RTVSPost2010Prop51ColorIndex
 90
      256
102
RTVSPost2010Prop51ColorRGB
 90
-16777216
102
RTVSPost2010PropOp51
 70
     0
102
RTVSPost2010Prop52
140
1.0
102
RTVSPost2010PropOp52
 70
     0
102
RTVSPost2010Prop53
 90
        2
102
RTVSPost2010PropOp53
 70
     1
102
RTVSPost2010Prop54
  1
strokes_ogs.tif
102
RTVSPost2010PropOp54
 70
     1
102
RTVSPost2010Prop55
280
     0
102
RTVSPost2010PropOp55
 70
     1
102
RTVSPost2010Prop56
140
1.0
102
RTVSPost2010PropOp56
 70
     1
102
RTVSPost2010Prop57
140
1.0
102
RTVSPost2010PropOp57
 70
     1
  0
XRECORD
  5
94DDE
102
{ACAD_REACTORS
330
87B30
102
}
330
87B30
100
AcDbXrecord
280
     1
102
RTVSPropertyOp0
 70
     1
102
RTVSPropertyOp1
 70
     1
102
RTVSPropertyOp2
 70
     1
102
RTVSPropertyOp3
 70
     1
102
RTVSPropertyOp4
 70
     1
102
RTVSPropertyOp5
 70
     1
102
RTVSPropertyOp6
 70
     1
102
RTVSPropertyOp7
 70
     1
102
RTVSPropertyOp8
 70
     1
102
RTVSPropertyOp9
 70
     1
102
RTVSPropertyOp10
 70
     1
102
RTVSPropertyOp11
 70
     1
102
RTVSPropertyOp12
 70
     1
102
RTVSPropertyOp13
 70
     1
102
RTVSPropertyOp14
 70
     1
102
RTVSPropertyOp15
 70
     1
102
RTVSPropertyOp16
 70
     1
102
RTVSPropertyOp17
 70
     1
102
RTVSPropertyOp18
 70
     1
102
RTVSPropertyOp19
 70
     1
102
RTVSPropertyOp20
 70
     1
102
RTVSPropertyOp21
 70
     1
102
RTVSPropertyOp22
 70
     1
102
RTVSPropertyOp23
 70
     1
102
RTVSPropertyOp24
 70
     1
102
RTVSPropertyOp25
 70
     1
102
RTVSPropertyOp26
 70
     1
102
RTVSPropertyOp27
 70
     1
102
RTVSPropertyOp28
 70
     1
102
RTVSPropertyOp29
 70
     1
102
RTVSPropertyOp30
 70
     1
102
RTVSPropertyOp31
 70
     1
102
RTVSPropertyOp32
 70
     1
102
RTVSPropertyOp33
 70
     1
102
RTVSPropertyOp34
 70
     1
102
RTVSPropertyOp35
 70
     1
102
RTVSPropertyOp36
 70
     1
102
RTVSPropertyOp37
 70
     1
102
RTVSPropertyOp38
 70
     1
102
RTVSPropertyOp39
 70
     1
102
RTVSPropertyOp40
 70
     1
102
RTVSPropertyOp41
 70
     1
102
RTVSPropertyOp42
 70
     1
102
RTVSPropertyOp43
 70
     1
102
RTVSPropertyOp44
 70
     1
102
RTVSPropertyOp45
 70
     1
102
RTVSPropertyOp46
 70
     1
102
RTVSPropertyOp47
 70
     1
102
RTVSPropertyOp48
 70
     1
102
RTVSPropertyOp49
 70
     1
102
RTVSPropertyOp50
 70
     1
102
RTVSPropertyOp51
 70
     0
102
RTVSPropertyOp52
 70
     0
102
RTVSPropertyOp53
 70
     1
102
RTVSPropertyOp54
 70
     1
102
RTVSPropertyOp55
 70
     1
102
RTVSPropertyOp56
 70
     1
102
RTVSPropertyOp57
 70
     1
102
RTVSPost2010Prop28
280
     0
102
RTVSPost2010PropOp28
 70
     1
102
RTVSPost2010Prop29
280
     1
102
RTVSPost2010PropOp29
 70
     1
102
RTVSPost2010Prop30
280
     1
102
RTVSPost2010PropOp30
 70
     1
102
RTVSPost2010Prop31
280
     0
102
RTVSPost2010PropOp31
 70
     1
102
RTVSPost2010Prop32
280
     0
102
RTVSPost2010PropOp32
 70
     1
102
RTVSPost2010Prop33
280
     0
102
RTVSPost2010PropOp33
 70
     1
102
RTVSPost2010Prop34
280
     0
102
RTVSPost2010PropOp34
 70
     1
102
RTVSPost2010Prop35
280
     0
102
RTVSPost2010PropOp35
 70
     1
102
RTVSPost2010Prop36
280
     0
102
RTVSPost2010PropOp36
 70
     1
102
RTVSPost2010Prop37
 90
       50
102
RTVSPost2010PropOp37
 70
     1
102
RTVSPost2010Prop38
140
0.0
102
RTVSPost2010PropOp38
 70
     1
102
RTVSPost2010Prop39
140
1.0
102
RTVSPost2010PropOp39
 70
     1
102
RTVSPost2010Prop40
 90
        0
102
RTVSPost2010PropOp40
 70
     1
102
RTVSPost2010Prop41ColorIndex
 90
       18
102
RTVSPost2010Prop41ColorRGB
 90
        0
102
RTVSPost2010PropOp41
 70
     1
102
RTVSPost2010Prop42
 90
       50
102
RTVSPost2010PropOp42
 70
     1
102
RTVSPost2010Prop43
 90
        3
102
RTVSPost2010PropOp43
 70
     1
102
RTVSPost2010Prop44ColorIndex
 90
        5
102
RTVSPost2010Prop44ColorRGB
 90
      255
102
RTVSPost2010PropOp44
 70
     1
102
RTVSPost2010Prop45
280
     0
102
RTVSPost2010PropOp45
 70
     1
102
RTVSPost2010Prop46
 90
       50
102
RTVSPost2010PropOp46
 70
     1
102
RTVSPost2010Prop47
 90
       50
102
RTVSPost2010PropOp47
 70
     1
102
RTVSPost2010Prop48
 90
       50
102
RTVSPost2010PropOp48
 70
     1
102
RTVSPost2010Prop49
280
     0
102
RTVSPost2010PropOp49
 70
     1
102
RTVSPost2010Prop50
 90
       50
102
RTVSPost2010PropOp50
 70
     1
102
RTVSPost2010Prop51ColorIndex
 90
      256
102
RTVSPost2010Prop51ColorRGB
 90
-16777216
102
RTVSPost2010PropOp51
 70
     0
102
RTVSPost2010Prop52
140
1.0
102
RTVSPost2010PropOp52
 70
     0
102
RTVSPost2010Prop53
 90
        2
102
RTVSPost2010PropOp53
 70
     1
102
RTVSPost2010Prop54
  1
strokes_ogs.tif
102
RTVSPost2010PropOp54
 70
     1
102
RTVSPost2010Prop55
280
     0
102
RTVSPost2010PropOp55
 70
     1
102
RTVSPost2010Prop56
140
1.0
102
RTVSPost2010PropOp56
 70
     1
102
RTVSPost2010Prop57
140
1.0
102
RTVSPost2010PropOp57
 70
     1
  0
XRECORD
  5
94DDF
102
{ACAD_REACTORS
330
87B26
102
}
330
87B26
100
AcDbXrecord
280
     1
102
RTVSPropertyOp0
 70
     1
102
RTVSPropertyOp1
 70
     1
102
RTVSPropertyOp2
 70
     1
102
RTVSPropertyOp3
 70
     1
102
RTVSPropertyOp4
 70
     1
102
RTVSPropertyOp5
 70
     1
102
RTVSPropertyOp6
 70
     1
102
RTVSPropertyOp7
 70
     1
102
RTVSPropertyOp8
 70
     1
102
RTVSPropertyOp9
 70
     1
102
RTVSPropertyOp10
 70
     1
102
RTVSPropertyOp11
 70
     1
102
RTVSPropertyOp12
 70
     1
102
RTVSPropertyOp13
 70
     1
102
RTVSPropertyOp14
 70
     1
102
RTVSPropertyOp15
 70
     1
102
RTVSPropertyOp16
 70
     1
102
RTVSPropertyOp17
 70
     1
102
RTVSPropertyOp18
 70
     1
102
RTVSPropertyOp19
 70
     1
102
RTVSPropertyOp20
 70
     1
102
RTVSPropertyOp21
 70
     1
102
RTVSPropertyOp22
 70
     1
102
RTVSPropertyOp23
 70
     1
102
RTVSPropertyOp24
 70
     1
102
RTVSPropertyOp25
 70
     1
102
RTVSPropertyOp26
 70
     1
102
RTVSPropertyOp27
 70
     1
102
RTVSPropertyOp28
 70
     1
102
RTVSPropertyOp29
 70
     1
102
RTVSPropertyOp30
 70
     1
102
RTVSPropertyOp31
 70
     1
102
RTVSPropertyOp32
 70
     1
102
RTVSPropertyOp33
 70
     1
102
RTVSPropertyOp34
 70
     1
102
RTVSPropertyOp35
 70
     1
102
RTVSPropertyOp36
 70
     1
102
RTVSPropertyOp37
 70
     1
102
RTVSPropertyOp38
 70
     1
102
RTVSPropertyOp39
 70
     1
102
RTVSPropertyOp40
 70
     1
102
RTVSPropertyOp41
 70
     1
102
RTVSPropertyOp42
 70
     1
102
RTVSPropertyOp43
 70
     1
102
RTVSPropertyOp44
 70
     1
102
RTVSPropertyOp45
 70
     1
102
RTVSPropertyOp46
 70
     1
102
RTVSPropertyOp47
 70
     1
102
RTVSPropertyOp48
 70
     1
102
RTVSPropertyOp49
 70
     1
102
RTVSPropertyOp50
 70
     1
102
RTVSPropertyOp51
 70
     0
102
RTVSPropertyOp52
 70
     0
102
RTVSPropertyOp53
 70
     1
102
RTVSPropertyOp54
 70
     1
102
RTVSPropertyOp55
 70
     1
102
RTVSPropertyOp56
 70
     1
102
RTVSPropertyOp57
 70
     1
102
RTVSPost2010Prop28
280
     0
102
RTVSPost2010PropOp28
 70
     1
102
RTVSPost2010Prop29
280
     1
102
RTVSPost2010PropOp29
 70
     1
102
RTVSPost2010Prop30
280
     1
102
RTVSPost2010PropOp30
 70
     1
102
RTVSPost2010Prop31
280
     0
102
RTVSPost2010PropOp31
 70
     1
102
RTVSPost2010Prop32
280
     0
102
RTVSPost2010PropOp32
 70
     1
102
RTVSPost2010Prop33
280
     0
102
RTVSPost2010PropOp33
 70
     1
102
RTVSPost2010Prop34
280
     0
102
RTVSPost2010PropOp34
 70
     1
102
RTVSPost2010Prop35
280
     0
102
RTVSPost2010PropOp35
 70
     1
102
RTVSPost2010Prop36
280
     0
102
RTVSPost2010PropOp36
 70
     1
102
RTVSPost2010Prop37
 90
       50
102
RTVSPost2010PropOp37
 70
     1
102
RTVSPost2010Prop38
140
0.0
102
RTVSPost2010PropOp38
 70
     1
102
RTVSPost2010Prop39
140
1.0
102
RTVSPost2010PropOp39
 70
     1
102
RTVSPost2010Prop40
 90
        0
102
RTVSPost2010PropOp40
 70
     1
102
RTVSPost2010Prop41ColorIndex
 90
       18
102
RTVSPost2010Prop41ColorRGB
 90
        0
102
RTVSPost2010PropOp41
 70
     1
102
RTVSPost2010Prop42
 90
       50
102
RTVSPost2010PropOp42
 70
     1
102
RTVSPost2010Prop43
 90
        3
102
RTVSPost2010PropOp43
 70
     1
102
RTVSPost2010Prop44ColorIndex
 90
        5
102
RTVSPost2010Prop44ColorRGB
 90
      255
102
RTVSPost2010PropOp44
 70
     1
102
RTVSPost2010Prop45
280
     0
102
RTVSPost2010PropOp45
 70
     1
102
RTVSPost2010Prop46
 90
       50
102
RTVSPost2010PropOp46
 70
     1
102
RTVSPost2010Prop47
 90
       50
102
RTVSPost2010PropOp47
 70
     1
102
RTVSPost2010Prop48
 90
       50
102
RTVSPost2010PropOp48
 70
     1
102
RTVSPost2010Prop49
280
     0
102
RTVSPost2010PropOp49
 70
     1
102
RTVSPost2010Prop50
 90
       50
102
RTVSPost2010PropOp50
 70
     1
102
RTVSPost2010Prop51ColorIndex
 90
      256
102
RTVSPost2010Prop51ColorRGB
 90
-16777216
102
RTVSPost2010PropOp51
 70
     0
102
RTVSPost2010Prop52
140
1.0
102
RTVSPost2010PropOp52
 70
     0
102
RTVSPost2010Prop53
 90
        2
102
RTVSPost2010PropOp53
 70
     1
102
RTVSPost2010Prop54
  1
strokes_ogs.tif
102
RTVSPost2010PropOp54
 70
     1
102
RTVSPost2010Prop55
280
     0
102
RTVSPost2010PropOp55
 70
     1
102
RTVSPost2010Prop56
140
1.0
102
RTVSPost2010PropOp56
 70
     1
102
RTVSPost2010Prop57
140
1.0
102
RTVSPost2010PropOp57
 70
     1
  0
XRECORD
  5
94DE0
102
{ACAD_REACTORS
330
87B1A
102
}
330
87B1A
100
AcDbXrecord
280
     1
102
RTVSPropertyOp0
 70
     1
102
RTVSPropertyOp1
 70
     1
102
RTVSPropertyOp2
 70
     1
102
RTVSPropertyOp3
 70
     1
102
RTVSPropertyOp4
 70
     1
102
RTVSPropertyOp5
 70
     1
102
RTVSPropertyOp6
 70
     1
102
RTVSPropertyOp7
 70
     1
102
RTVSPropertyOp8
 70
     1
102
RTVSPropertyOp9
 70
     1
102
RTVSPropertyOp10
 70
     1
102
RTVSPropertyOp11
 70
     1
102
RTVSPropertyOp12
 70
     1
102
RTVSPropertyOp13
 70
     1
102
RTVSPropertyOp14
 70
     1
102
RTVSPropertyOp15
 70
     1
102
RTVSPropertyOp16
 70
     1
102
RTVSPropertyOp17
 70
     1
102
RTVSPropertyOp18
 70
     1
102
RTVSPropertyOp19
 70
     1
102
RTVSPropertyOp20
 70
     1
102
RTVSPropertyOp21
 70
     1
102
RTVSPropertyOp22
 70
     1
102
RTVSPropertyOp23
 70
     1
102
RTVSPropertyOp24
 70
     1
102
RTVSPropertyOp25
 70
     1
102
RTVSPropertyOp26
 70
     1
102
RTVSPropertyOp27
 70
     1
102
RTVSPropertyOp28
 70
     1
102
RTVSPropertyOp29
 70
     1
102
RTVSPropertyOp30
 70
     1
102
RTVSPropertyOp31
 70
     1
102
RTVSPropertyOp32
 70
     1
102
RTVSPropertyOp33
 70
     1
102
RTVSPropertyOp34
 70
     1
102
RTVSPropertyOp35
 70
     1
102
RTVSPropertyOp36
 70
     1
102
RTVSPropertyOp37
 70
     1
102
RTVSPropertyOp38
 70
     1
102
RTVSPropertyOp39
 70
     1
102
RTVSPropertyOp40
 70
     1
102
RTVSPropertyOp41
 70
     1
102
RTVSPropertyOp42
 70
     1
102
RTVSPropertyOp43
 70
     1
102
RTVSPropertyOp44
 70
     1
102
RTVSPropertyOp45
 70
     1
102
RTVSPropertyOp46
 70
     1
102
RTVSPropertyOp47
 70
     1
102
RTVSPropertyOp48
 70
     1
102
RTVSPropertyOp49
 70
     1
102
RTVSPropertyOp50
 70
     1
102
RTVSPropertyOp51
 70
     0
102
RTVSPropertyOp52
 70
     0
102
RTVSPropertyOp53
 70
     1
102
RTVSPropertyOp54
 70
     1
102
RTVSPropertyOp55
 70
     1
102
RTVSPropertyOp56
 70
     1
102
RTVSPropertyOp57
 70
     1
102
RTVSPost2010Prop28
280
     0
102
RTVSPost2010PropOp28
 70
     1
102
RTVSPost2010Prop29
280
     1
102
RTVSPost2010PropOp29
 70
     1
102
RTVSPost2010Prop30
280
     1
102
RTVSPost2010PropOp30
 70
     1
102
RTVSPost2010Prop31
280
     0
102
RTVSPost2010PropOp31
 70
     1
102
RTVSPost2010Prop32
280
     0
102
RTVSPost2010PropOp32
 70
     1
102
RTVSPost2010Prop33
280
     0
102
RTVSPost2010PropOp33
 70
     1
102
RTVSPost2010Prop34
280
     0
102
RTVSPost2010PropOp34
 70
     1
102
RTVSPost2010Prop35
280
     0
102
RTVSPost2010PropOp35
 70
     1
102
RTVSPost2010Prop36
280
     0
102
RTVSPost2010PropOp36
 70
     1
102
RTVSPost2010Prop37
 90
       50
102
RTVSPost2010PropOp37
 70
     1
102
RTVSPost2010Prop38
140
0.0
102
RTVSPost2010PropOp38
 70
     1
102
RTVSPost2010Prop39
140
1.0
102
RTVSPost2010PropOp39
 70
     1
102
RTVSPost2010Prop40
 90
        0
102
RTVSPost2010PropOp40
 70
     1
102
RTVSPost2010Prop41ColorIndex
 90
       18
102
RTVSPost2010Prop41ColorRGB
 90
        0
102
RTVSPost2010PropOp41
 70
     1
102
RTVSPost2010Prop42
 90
       50
102
RTVSPost2010PropOp42
 70
     1
102
RTVSPost2010Prop43
 90
        3
102
RTVSPost2010PropOp43
 70
     1
102
RTVSPost2010Prop44ColorIndex
 90
        5
102
RTVSPost2010Prop44ColorRGB
 90
      255
102
RTVSPost2010PropOp44
 70
     1
102
RTVSPost2010Prop45
280
     0
102
RTVSPost2010PropOp45
 70
     1
102
RTVSPost2010Prop46
 90
       50
102
RTVSPost2010PropOp46
 70
     1
102
RTVSPost2010Prop47
 90
       50
102
RTVSPost2010PropOp47
 70
     1
102
RTVSPost2010Prop48
 90
       50
102
RTVSPost2010PropOp48
 70
     1
102
RTVSPost2010Prop49
280
     0
102
RTVSPost2010PropOp49
 70
     1
102
RTVSPost2010Prop50
 90
       50
102
RTVSPost2010PropOp50
 70
     1
102
RTVSPost2010Prop51ColorIndex
 90
      256
102
RTVSPost2010Prop51ColorRGB
 90
-16777216
102
RTVSPost2010PropOp51
 70
     0
102
RTVSPost2010Prop52
140
1.0
102
RTVSPost2010PropOp52
 70
     0
102
RTVSPost2010Prop53
 90
        2
102
RTVSPost2010PropOp53
 70
     1
102
RTVSPost2010Prop54
  1
strokes_ogs.tif
102
RTVSPost2010PropOp54
 70
     1
102
RTVSPost2010Prop55
280
     0
102
RTVSPost2010PropOp55
 70
     1
102
RTVSPost2010Prop56
140
1.0
102
RTVSPost2010PropOp56
 70
     1
102
RTVSPost2010Prop57
140
1.0
102
RTVSPost2010PropOp57
 70
     1
  0
XRECORD
  5
94DE1
102
{ACAD_REACTORS
330
87B32
102
}
330
87B32
100
AcDbXrecord
280
     1
102
RTVSPropertyOp0
 70
     1
102
RTVSPropertyOp1
 70
     1
102
RTVSPropertyOp2
 70
     1
102
RTVSPropertyOp3
 70
     1
102
RTVSPropertyOp4
 70
     1
102
RTVSPropertyOp5
 70
     1
102
RTVSPropertyOp6
 70
     1
102
RTVSPropertyOp7
 70
     1
102
RTVSPropertyOp8
 70
     1
102
RTVSPropertyOp9
 70
     1
102
RTVSPropertyOp10
 70
     1
102
RTVSPropertyOp11
 70
     1
102
RTVSPropertyOp12
 70
     1
102
RTVSPropertyOp13
 70
     1
102
RTVSPropertyOp14
 70
     1
102
RTVSPropertyOp15
 70
     1
102
RTVSPropertyOp16
 70
     1
102
RTVSPropertyOp17
 70
     1
102
RTVSPropertyOp18
 70
     1
102
RTVSPropertyOp19
 70
     1
102
RTVSPropertyOp20
 70
     1
102
RTVSPropertyOp21
 70
     1
102
RTVSPropertyOp22
 70
     1
102
RTVSPropertyOp23
 70
     1
102
RTVSPropertyOp24
 70
     1
102
RTVSPropertyOp25
 70
     1
102
RTVSPropertyOp26
 70
     1
102
RTVSPropertyOp27
 70
     1
102
RTVSPropertyOp28
 70
     1
102
RTVSPropertyOp29
 70
     1
102
RTVSPropertyOp30
 70
     1
102
RTVSPropertyOp31
 70
     1
102
RTVSPropertyOp32
 70
     1
102
RTVSPropertyOp33
 70
     1
102
RTVSPropertyOp34
 70
     1
102
RTVSPropertyOp35
 70
     1
102
RTVSPropertyOp36
 70
     1
102
RTVSPropertyOp37
 70
     1
102
RTVSPropertyOp38
 70
     1
102
RTVSPropertyOp39
 70
     1
102
RTVSPropertyOp40
 70
     1
102
RTVSPropertyOp41
 70
     1
102
RTVSPropertyOp42
 70
     1
102
RTVSPropertyOp43
 70
     1
102
RTVSPropertyOp44
 70
     1
102
RTVSPropertyOp45
 70
     1
102
RTVSPropertyOp46
 70
     1
102
RTVSPropertyOp47
 70
     1
102
RTVSPropertyOp48
 70
     1
102
RTVSPropertyOp49
 70
     1
102
RTVSPropertyOp50
 70
     1
102
RTVSPropertyOp51
 70
     0
102
RTVSPropertyOp52
 70
     0
102
RTVSPropertyOp53
 70
     1
102
RTVSPropertyOp54
 70
     1
102
RTVSPropertyOp55
 70
     1
102
RTVSPropertyOp56
 70
     1
102
RTVSPropertyOp57
 70
     1
102
RTVSPost2010Prop28
280
     0
102
RTVSPost2010PropOp28
 70
     1
102
RTVSPost2010Prop29
280
     1
102
RTVSPost2010PropOp29
 70
     1
102
RTVSPost2010Prop30
280
     1
102
RTVSPost2010PropOp30
 70
     1
102
RTVSPost2010Prop31
280
     0
102
RTVSPost2010PropOp31
 70
     1
102
RTVSPost2010Prop32
280
     0
102
RTVSPost2010PropOp32
 70
     1
102
RTVSPost2010Prop33
280
     0
102
RTVSPost2010PropOp33
 70
     1
102
RTVSPost2010Prop34
280
     0
102
RTVSPost2010PropOp34
 70
     1
102
RTVSPost2010Prop35
280
     0
102
RTVSPost2010PropOp35
 70
     1
102
RTVSPost2010Prop36
280
     0
102
RTVSPost2010PropOp36
 70
     1
102
RTVSPost2010Prop37
 90
       50
102
RTVSPost2010PropOp37
 70
     1
102
RTVSPost2010Prop38
140
0.0
102
RTVSPost2010PropOp38
 70
     1
102
RTVSPost2010Prop39
140
1.0
102
RTVSPost2010PropOp39
 70
     1
102
RTVSPost2010Prop40
 90
        0
102
RTVSPost2010PropOp40
 70
     1
102
RTVSPost2010Prop41ColorIndex
 90
       18
102
RTVSPost2010Prop41ColorRGB
 90
        0
102
RTVSPost2010PropOp41
 70
     1
102
RTVSPost2010Prop42
 90
       50
102
RTVSPost2010PropOp42
 70
     1
102
RTVSPost2010Prop43
 90
        3
102
RTVSPost2010PropOp43
 70
     1
102
RTVSPost2010Prop44ColorIndex
 90
        5
102
RTVSPost2010Prop44ColorRGB
 90
      255
102
RTVSPost2010PropOp44
 70
     1
102
RTVSPost2010Prop45
280
     0
102
RTVSPost2010PropOp45
 70
     1
102
RTVSPost2010Prop46
 90
       50
102
RTVSPost2010PropOp46
 70
     1
102
RTVSPost2010Prop47
 90
       50
102
RTVSPost2010PropOp47
 70
     1
102
RTVSPost2010Prop48
 90
       50
102
RTVSPost2010PropOp48
 70
     1
102
RTVSPost2010Prop49
280
     0
102
RTVSPost2010PropOp49
 70
     1
102
RTVSPost2010Prop50
 90
       50
102
RTVSPost2010PropOp50
 70
     1
102
RTVSPost2010Prop51ColorIndex
 90
      256
102
RTVSPost2010Prop51ColorRGB
 90
-16777216
102
RTVSPost2010PropOp51
 70
     0
102
RTVSPost2010Prop52
140
1.0
102
RTVSPost2010PropOp52
 70
     0
102
RTVSPost2010Prop53
 90
        2
102
RTVSPost2010PropOp53
 70
     1
102
RTVSPost2010Prop54
  1
strokes_ogs.tif
102
RTVSPost2010PropOp54
 70
     1
102
RTVSPost2010Prop55
280
     0
102
RTVSPost2010PropOp55
 70
     1
102
RTVSPost2010Prop56
140
1.0
102
RTVSPost2010PropOp56
 70
     1
102
RTVSPost2010Prop57
140
1.0
102
RTVSPost2010PropOp57
 70
     1
  0
ENDSEC
  0
EOF
