  0
SECTION
  2
HEADER
  9
$ACADVER
  1
AC1015
  9
$ACADMAINTVER
 70
    20
  9
$DWGCODEPAGE
  3
ANSI_932
  9
$INSBASE
 10
0.0
 20
0.0
 30
0.0
  9
$EXTMIN
 10
-25.35706845840905
 20
-91.44251898993658
 30
0.0
  9
$EXTMAX
 10
119.4333333333333
 20
136.783224521334
 30
0.0
  9
$LIMMIN
 10
0.0
 20
0.0
  9
$LIMMAX
 10
420.0
 20
297.0
  9
$ORTHOMODE
 70
     1
  9
$REGENMODE
 70
     1
  9
$FILLMODE
 70
     1
  9
$QTEXTMODE
 70
     0
  9
$MIRRTEXT
 70
     1
  9
$LTSCALE
 40
1.0
  9
$ATTMODE
 70
     1
  9
$TEXTSIZE
 40
3.5
  9
$TRACEWID
 40
1.0
  9
$TEXTSTYLE
  7
simplex
  9
$CLAYER
  8
0
  9
$CELTYPE
  6
ByLayer
  9
$CECOLOR
 62
   256
  9
$CELTSCALE
 40
1.0
  9
$DISPSILH
 70
     0
  9
$DIMSCALE
 40
0.0
  9
$DIMASZ
 40
3.5
  9
$DIMEXO
 40
0.0
  9
$DIMDLI
 40
0.38
  9
$DIMRND
 40
0.0
  9
$DIMDLE
 40
0.0
  9
$DIMEXE
 40
1.5
  9
$DIMTP
 40
0.0
  9
$DIMTM
 40
0.0
  9
$DIMTXT
 40
3.5
  9
$DIMCEN
 40
0.09
  9
$DIMTSZ
 40
0.0
  9
$DIMTOL
 70
     0
  9
$DIMLIM
 70
     0
  9
$DIMTIH
 70
     0
  9
$DIMTOH
 70
     0
  9
$DIMSE1
 70
     0
  9
$DIMSE2
 70
     0
  9
$DIMTAD
 70
     1
  9
$DIMZIN
 70
     8
  9
$DIMBLK
  1

  9
$DIMASO
 70
     1
  9
$DIMSHO
 70
     1
  9
$DIMPOST
  1

  9
$DIMAPOST
  1

  9
$DIMALT
 70
     0
  9
$DIMALTD
 70
     2
  9
$DIMALTF
 40
25.4
  9
$DIMLFAC
 40
1.0
  9
$DIMTOFL
 70
     0
  9
$DIMTVP
 40
0.0
  9
$DIMTIX
 70
     0
  9
$DIMSOXD
 70
     0
  9
$DIMSAH
 70
     0
  9
$DIMBLK1
  1

  9
$DIMBLK2
  1

  9
$DIMSTYLE
  2
コピー - ISO-25
  9
$DIMCLRD
 70
   256
  9
$DIMCLRE
 70
   256
  9
$DIMCLRT
 70
   256
  9
$DIMTFAC
 40
1.0
  9
$DIMGAP
 40
2.299999999999998
  9
$DIMJUST
 70
     0
  9
$DIMSD1
 70
     0
  9
$DIMSD2
 70
     0
  9
$DIMTOLJ
 70
     1
  9
$DIMTZIN
 70
     8
  9
$DIMALTZ
 70
     0
  9
$DIMALTTZ
 70
     0
  9
$DIMUPT
 70
     0
  9
$DIMDEC
 70
     2
  9
$DIMTDEC
 70
     2
  9
$DIMALTU
 70
     2
  9
$DIMALTTD
 70
     2
  9
$DIMTXSTY
  7
simplex
  9
$DIMAUNIT
 70
     0
  9
$DIMADEC
 70
     0
  9
$DIMALTRND
 40
0.0
  9
$DIMAZIN
 70
     0
  9
$DIMDSEP
 70
    46
  9
$DIMATFIT
 70
     3
  9
$DIMFRAC
 70
     0
  9
$DIMLDRBLK
  1

  9
$DIMLUNIT
 70
     2
  9
$DIMLWD
 70
    -1
  9
$DIMLWE
 70
    -1
  9
$DIMTMOVE
 70
     0
  9
$LUNITS
 70
     2
  9
$LUPREC
 70
     4
  9
$SKETCHINC
 40
1.0
  9
$FILLETRAD
 40
0.8
  9
$AUNITS
 70
     0
  9
$AUPREC
 70
     0
  9
$MENU
  1
.
  9
$ELEVATION
 40
0.0
  9
$PELEVATION
 40
0.0
  9
$THICKNESS
 40
0.0
  9
$LIMCHECK
 70
     0
  9
$CHAMFERA
 40
10.0
  9
$CHAMFERB
 40
10.0
  9
$CHAMFERC
 40
20.0
  9
$CHAMFERD
 40
0.0
  9
$SKPOLY
 70
     0
  9
$TDCREATE
 40
2455489.391063368
  9
$TDUCREATE
 40
2455489.057730035
  9
$TDUPDATE
 40
2458948.452038380
  9
$TDUUPDATE
 40
2458948.118705046
  9
$TDINDWG
 40
2.665221620
  9
$TDUSRTIMER
 40
2.665168993
  9
$USRTIMER
 70
     1
  9
$ANGBASE
 50
0.0
  9
$ANGDIR
 70
     0
  9
$PDMODE
 70
     0
  9
$PDSIZE
 40
0.0
  9
$PLINEWID
 40
0.0
  9
$SPLFRAME
 70
     0
  9
$SPLINETYPE
 70
     6
  9
$SPLINESEGS
 70
     8
  9
$HANDSEED
  5
94804
  9
$SURFTAB1
 70
     6
  9
$SURFTAB2
 70
     6
  9
$SURFTYPE
 70
     6
  9
$SURFU
 70
     6
  9
$SURFV
 70
     6
  9
$UCSBASE
  2

  9
$UCSNAME
  2

  9
$UCSORG
 10
0.0
 20
0.0
 30
0.0
  9
$UCSXDIR
 10
1.0
 20
0.0
 30
0.0
  9
$UCSYDIR
 10
0.0
 20
1.0
 30
0.0
  9
$UCSORTHOREF
  2

  9
$UCSORTHOVIEW
 70
     0
  9
$UCSORGTOP
 10
0.0
 20
0.0
 30
0.0
  9
$UCSORGBOTTOM
 10
0.0
 20
0.0
 30
0.0
  9
$UCSORGLEFT
 10
0.0
 20
0.0
 30
0.0
  9
$UCSORGRIGHT
 10
0.0
 20
0.0
 30
0.0
  9
$UCSORGFRONT
 10
0.0
 20
0.0
 30
0.0
  9
$UCSORGBACK
 10
0.0
 20
0.0
 30
0.0
  9
$PUCSBASE
  2

  9
$PUCSNAME
  2

  9
$PUCSORG
 10
0.0
 20
0.0
 30
0.0
  9
$PUCSXDIR
 10
1.0
 20
0.0
 30
0.0
  9
$PUCSYDIR
 10
0.0
 20
1.0
 30
0.0
  9
$PUCSORTHOREF
  2

  9
$PUCSORTHOVIEW
 70
     0
  9
$PUCSORGTOP
 10
0.0
 20
0.0
 30
0.0
  9
$PUCSORGBOTTOM
 10
0.0
 20
0.0
 30
0.0
  9
$PUCSORGLEFT
 10
0.0
 20
0.0
 30
0.0
  9
$PUCSORGRIGHT
 10
0.0
 20
0.0
 30
0.0
  9
$PUCSORGFRONT
 10
0.0
 20
0.0
 30
0.0
  9
$PUCSORGBACK
 10
0.0
 20
0.0
 30
0.0
  9
$USERI1
 70
     0
  9
$USERI2
 70
     0
  9
$USERI3
 70
     0
  9
$USERI4
 70
     0
  9
$USERI5
 70
     0
  9
$USERR1
 40
0.0
  9
$USERR2
 40
0.0
  9
$USERR3
 40
0.0
  9
$USERR4
 40
0.0
  9
$USERR5
 40
0.0
  9
$WORLDVIEW
 70
     1
  9
$SHADEDGE
 70
     3
  9
$SHADEDIF
 70
    70
  9
$TILEMODE
 70
     1
  9
$MAXACTVP
 70
    64
  9
$PINSBASE
 10
0.0
 20
0.0
 30
0.0
  9
$PLIMCHECK
 70
     0
  9
$PEXTMIN
 10
26.66999878883364
 20
20.31999878883365
 30
0.0
  9
$PEXTMAX
 10
240.0299890995025
 20
182.8799890995025
 30
0.0
  9
$PLIMMIN
 10
-6.350006103515625
 20
-6.349999904632567
  9
$PLIMMAX
 10
273.0499877929688
 20
209.5499939918518
  9
$UNITMODE
 70
     0
  9
$VISRETAIN
 70
     1
  9
$PLINEGEN
 70
     0
  9
$PSLTSCALE
 70
     1
  9
$TREEDEPTH
 70
  3020
  9
$CMLSTYLE
  2
Standard
  9
$CMLJUST
 70
     0
  9
$CMLSCALE
 40
20.0
  9
$PROXYGRAPHICS
 70
     1
  9
$MEASUREMENT
 70
     1
  9
$CELWEIGHT
370
    -1
  9
$ENDCAPS
280
     0
  9
$JOINSTYLE
280
     0
  9
$LWDISPLAY
290
     0
  9
$INSUNITS
 70
     4
  9
$HYPERLINKBASE
  1

  9
$STYLESHEET
  1

  9
$XEDIT
290
     1
  9
$CEPSNTYPE
380
     0
  9
$PSTYLEMODE
290
     1
  9
$FINGERPRINTGUID
  2
{E0853F08-4226-4DCC-8B04-4EB1FEF860CB}
  9
$VERSIONGUID
  2
{264E7136-6051-49CF-B588-BF34122E1153}
  9
$EXTNAMES
290
     1
  9
$PSVPSCALE
 40
0.0
  9
$OLESTARTUP
290
     0
  0
ENDSEC
  0
SECTION
  2
CLASSES
  0
CLASS
  1
ACDBDICTIONARYWDFLT
  2
AcDbDictionaryWithDefault
  3
ObjectDBX Classes
 90
        0
280
     0
281
     0
  0
CLASS
  1
ACDBPLACEHOLDER
  2
AcDbPlaceHolder
  3
ObjectDBX Classes
 90
    32768
280
     0
281
     0
  0
CLASS
  1
LAYOUT
  2
AcDbLayout
  3
ObjectDBX Classes
 90
    32768
280
     0
281
     0
  0
CLASS
  1
DICTIONARYVAR
  2
AcDbDictionaryVar
  3
ObjectDBX Classes
 90
        0
280
     0
281
     0
  0
CLASS
  1
TABLESTYLE
  2
AcDbTableStyle
  3
ObjectDBX Classes
 90
     4095
280
     0
281
     0
  0
CLASS
  1
SORTENTSTABLE
  2
AcDbSortentsTable
  3
ObjectDBX Classes
 90
        0
280
     0
281
     0
  0
CLASS
  1
DIMASSOC
  2
AcDbDimAssoc
  3
"AcDbDimAssoc|Product Desc:     AcDim ARX App For Dimension|Company:          Autodesk, Inc.|WEB Address:      www.autodesk.com"
 90
        0
280
     0
281
     0
  0
CLASS
  1
ACAD_EVALUATION_GRAPH
  2
AcDbEvalGraph
  3
ObjectDBX Classes
 90
    33921
280
     0
281
     0
  0
CLASS
  1
ACAECUSTOBJ
  2
AcAeEditorObj
  3
AcAeEditorObj
 90
    33792
280
     0
281
     0
  0
CLASS
  1
ACDB_DYNAMICBLOCKPURGEPREVENTER_VERSION
  2
AcDbDynamicBlockPurgePreventer
  3
ObjectDBX Classes
 90
    33921
280
     0
281
     0
  0
CLASS
  1
MATERIAL
  2
AcDbMaterial
  3
ObjectDBX Classes
 90
     1153
280
     0
281
     0
  0
CLASS
  1
VISUALSTYLE
  2
AcDbVisualStyle
  3
ObjectDBX Classes
 90
     4095
280
     0
281
     0
  0
CLASS
  1
SCALE
  2
AcDbScale
  3
ObjectDBX Classes
 90
     1153
280
     0
281
     0
  0
CLASS
  1
MLEADERSTYLE
  2
AcDbMLeaderStyle
  3
ACDB_MLEADERSTYLE_CLASS
 90
     4095
280
     0
281
     0
  0
CLASS
  1
ACDBSECTIONVIEWSTYLE
  2
AcDbSectionViewStyle
  3
ObjectDBX Classes
 90
     1025
280
     0
281
     0
  0
CLASS
  1
ACDBDETAILVIEWSTYLE
  2
AcDbDetailViewStyle
  3
ObjectDBX Classes
 90
     1025
280
     0
281
     0
  0
CLASS
  1
CELLSTYLEMAP
  2
AcDbCellStyleMap
  3
ObjectDBX Classes
 90
     1152
280
     0
281
     0
  0
CLASS
  1
ACDBPLACEHOLDER
  2
AcDbPlaceHolder
  3
ObjectDBX Classes
 90
    32768
280
     0
281
     0
  0
CLASS
  1
LAYOUT
  2
AcDbLayout
  3
ObjectDBX Classes
 90
    32768
280
     0
281
     0
  0
CLASS
  1
ACDBPLACEHOLDER
  2
AcDbPlaceHolder
  3
ObjectDBX Classes
 90
    32768
280
     0
281
     0
  0
CLASS
  1
LAYOUT
  2
AcDbLayout
  3
ObjectDBX Classes
 90
    32768
280
     0
281
     0
  0
CLASS
  1
ACDBPLACEHOLDER
  2
AcDbPlaceHolder
  3
ObjectDBX Classes
 90
    32768
280
     0
281
     0
  0
CLASS
  1
LAYOUT
  2
AcDbLayout
  3
ObjectDBX Classes
 90
    32768
280
     0
281
     0
  0
CLASS
  1
ACDBPLACEHOLDER
  2
AcDbPlaceHolder
  3
ObjectDBX Classes
 90
    32768
280
     0
281
     0
  0
CLASS
  1
LAYOUT
  2
AcDbLayout
  3
ObjectDBX Classes
 90
    32768
280
     0
281
     0
  0
CLASS
  1
ACDBPLACEHOLDER
  2
AcDbPlaceHolder
  3
ObjectDBX Classes
 90
        0
280
     0
281
     0
  0
CLASS
  1
LAYOUT
  2
AcDbLayout
  3
ObjectDBX Classes
 90
        0
280
     0
281
     0
  0
ENDSEC
  0
SECTION
  2
TABLES
  0
TABLE
  2
VPORT
  5
8
102
{ACAD_XDICTIONARY
360
8C34E
102
}
330
0
100
AcDbSymbolTable
 70
     1
  0
VPORT
  5
4A360
330
8
100
AcDbSymbolTableRecord
100
AcDbViewportTableRecord
  2
*Active
 70
     0
 10
0.0
 20
0.0
 11
1.0
 21
1.0
 12
21.87321960756881
 22
27.16678665566313
 13
0.0
 23
0.0
 14
10.0
 24
10.0
 15
10.0
 25
10.0
 16
0.0
 26
0.0
 36
1.0
 17
0.0
 27
0.0
 37
0.0
 40
277.8768686584613
 41
1.705156950672645
 42
50.0
 43
0.0
 44
0.0
 50
0.0
 51
0.0
 71
     0
 72
  1000
 73
     1
 74
     1
 75
     0
 76
     0
 77
     0
 78
     0
281
     0
 65
     1
110
0.0
120
0.0
130
0.0
111
1.0
121
0.0
131
0.0
112
0.0
122
1.0
132
0.0
 79
     0
146
0.0
1001
ACAD_NAV_VCDISPLAY
1070
     3
  0
ENDTAB
  0
TABLE
  2
LTYPE
  5
5
330
0
100
AcDbSymbolTable
 70
     3
  0
LTYPE
  5
14
330
5
100
AcDbSymbolTableRecord
100
AcDbLinetypeTableRecord
  2
ByBlock
 70
     0
  3

 72
    65
 73
     0
 40
0.0
  0
LTYPE
  5
15
330
5
100
AcDbSymbolTableRecord
100
AcDbLinetypeTableRecord
  2
ByLayer
 70
     0
  3

 72
    65
 73
     0
 40
0.0
  0
LTYPE
  5
16
330
5
100
AcDbSymbolTableRecord
100
AcDbLinetypeTableRecord
  2
Continuous
 70
     0
  3
Solid line
 72
    65
 73
     0
 40
0.0
  0
LTYPE
  5
4A76E
330
5
100
AcDbSymbolTableRecord
100
AcDbLinetypeTableRecord
  2
CENTER2
 70
     0
  3
Center (.5x) ___ _ ___ _ ___ _ ___ _ ___ _ ___
 72
    65
 73
     4
 40
28.575
 49
19.05
 74
     0
 49
-3.174999999999998
 74
     0
 49
3.174999999999998
 74
     0
 49
-3.174999999999998
 74
     0
  0
LTYPE
  5
87B53
330
5
100
AcDbSymbolTableRecord
100
AcDbLinetypeTableRecord
  2
HIDDEN
 70
     0
  3
Hidden __ __ __ __ __ __ __ __ __ __ __ __ __ _
 72
    65
 73
     2
 40
9.524999999999996
 49
6.349999999999997
 74
     0
 49
-3.174999999999998
 74
     0
  0
ENDTAB
  0
TABLE
  2
LAYER
  5
2
102
{ACAD_XDICTIONARY
360
E2
102
}
330
0
100
AcDbSymbolTable
 70
    10
  0
LAYER
  5
10
102
{ACAD_XDICTIONARY
360
4A86C
102
}
330
2
100
AcDbSymbolTableRecord
100
AcDbLayerTableRecord
  2
0
 70
     0
 62
     7
  6
Continuous
370
    -3
390
F
  0
LAYER
  5
31B6
330
2
100
AcDbSymbolTableRecord
100
AcDbLayerTableRecord
  2
Defpoints
 70
     0
 62
     7
  6
Continuous
290
     0
370
    -3
390
F
  0
LAYER
  5
4A772
102
{ACAD_XDICTIONARY
360
4A773
102
}
330
2
100
AcDbSymbolTableRecord
100
AcDbLayerTableRecord
  2
1
 70
     0
 62
     4
  6
Continuous
370
    50
390
F
1001
AcAecLayerStandard
1000

1000
Contour
  0
LAYER
  5
4A774
102
{ACAD_XDICTIONARY
360
4A775
102
}
330
2
100
AcDbSymbolTableRecord
100
AcDbLayerTableRecord
  2
2
 70
     0
 62
     7
  6
Continuous
370
    25
390
F
1001
AcAecLayerStandard
1000

1000
Dimension milling
  0
LAYER
  5
4A776
102
{ACAD_XDICTIONARY
360
4A777
102
}
330
2
100
AcDbSymbolTableRecord
100
AcDbLayerTableRecord
  2
4
 70
     0
 62
     2
  6
CENTER2
370
    25
390
F
1001
AcAecLayerStandard
1000

1000
Center line
  0
LAYER
  5
4A778
102
{ACAD_XDICTIONARY
360
4A779
102
}
330
2
100
AcDbSymbolTableRecord
100
AcDbLayerTableRecord
  2
cut
 70
     0
 62
     1
  6
Continuous
370
    25
390
F
1001
AcAecLayerStandard
1000

1000
contour
  0
LAYER
  5
4A77A
102
{ACAD_XDICTIONARY
360
4A77B
102
}
330
2
100
AcDbSymbolTableRecord
100
AcDbLayerTableRecord
  2
nocut
 70
     0
 62
     7
  6
Continuous
370
    25
390
F
1001
AcAecLayerStandard
1000

1000
contour
  0
LAYER
  5
4A77E
102
{ACAD_XDICTIONARY
360
4A77F
102
}
330
2
100
AcDbSymbolTableRecord
100
AcDbLayerTableRecord
  2
sk2
 70
     0
 62
     7
  6
Continuous
370
    25
390
F
1001
AcAecLayerStandard
1000

1000
sk2 dimension
  0
LAYER
  5
4A782
102
{ACAD_XDICTIONARY
360
4A783
102
}
330
2
100
AcDbSymbolTableRecord
100
AcDbLayerTableRecord
  2
sk6
 70
     0
 62
     5
  6
Continuous
370
    35
390
F
1001
AcAecLayerStandard
1000

1000
sk6 text
  0
LAYER
  5
87B52
102
{ACAD_XDICTIONARY
360
8C34C
102
}
330
2
100
AcDbSymbolTableRecord
100
AcDbLayerTableRecord
  2
sk3
 70
     0
 62
     1
  6
HIDDEN
370
    35
390
F
1001
AcAecLayerStandard
1000

1000

  0
ENDTAB
  0
TABLE
  2
STYLE
  5
3
330
0
100
AcDbSymbolTable
 70
     2
  0
STYLE
  5
11
330
3
100
AcDbSymbolTableRecord
100
AcDbTextStyleTableRecord
  2
Standard
 70
     0
 40
0.0
 41
1.0
 50
0.0
 71
     0
 42
2.5
  3
txt.shx
  4
@extfont2.shx
  0
STYLE
  5
24A
330
3
100
AcDbSymbolTableRecord
100
AcDbTextStyleTableRecord
  2
simplex
 70
     0
 40
3.5
 41
1.0
 50
0.0
 71
     0
 42
3.5
  3
txt.shx
  4

  0
ENDTAB
  0
TABLE
  2
VIEW
  5
6
330
0
100
AcDbSymbolTable
 70
     0
  0
ENDTAB
  0
TABLE
  2
UCS
  5
7
330
0
100
AcDbSymbolTable
 70
     0
  0
ENDTAB
  0
TABLE
  2
APPID
  5
9
330
0
100
AcDbSymbolTable
 70
    31
  0
APPID
  5
12
330
9
100
AcDbSymbolTableRecord
100
AcDbRegAppTableRecord
  2
ACAD
 70
     0
  0
APPID
  5
D2
330
9
100
AcDbSymbolTableRecord
100
AcDbRegAppTableRecord
  2
AcAecLayerStandard
 70
     0
  0
APPID
  5
E6
330
9
100
AcDbSymbolTableRecord
100
AcDbRegAppTableRecord
  2
ACAD_DSTYLE_DIMTEXT_FILL
 70
     0
  0
APPID
  5
4C84
330
9
100
AcDbSymbolTableRecord
100
AcDbRegAppTableRecord
  2
ACAD_EXEMPT_FROM_CAD_STANDARDS
 70
     0
  0
APPID
  5
3493E
330
9
100
AcDbSymbolTableRecord
100
AcDbRegAppTableRecord
  2
DCO15
 70
     0
  0
APPID
  5
3BAB0
330
9
100
AcDbSymbolTableRecord
100
AcDbRegAppTableRecord
  2
ACAD_DSTYLE_DIMEXT_ENABLED
 70
     0
  0
APPID
  5
3BAB1
330
9
100
AcDbSymbolTableRecord
100
AcDbRegAppTableRecord
  2
ACAD_DSTYLE_DIMEXT_LENGTH
 70
     0
  0
APPID
  5
3BEB4
330
9
100
AcDbSymbolTableRecord
100
AcDbRegAppTableRecord
  2
ACAUTHENVIRON
 70
     0
  0
APPID
  5
3BEB7
330
9
100
AcDbSymbolTableRecord
100
AcDbRegAppTableRecord
  2
AcDbDynamicBlockTrueName
 70
     0
  0
APPID
  5
3BEB8
330
9
100
AcDbSymbolTableRecord
100
AcDbRegAppTableRecord
  2
AcDbDynamicBlockGUID
 70
     0
  0
APPID
  5
3BEBA
330
9
100
AcDbSymbolTableRecord
100
AcDbRegAppTableRecord
  2
AcDbBlockRepETag
 70
     0
  0
APPID
  5
4A453
330
9
100
AcDbSymbolTableRecord
100
AcDbRegAppTableRecord
  2
ACAD_PSEXT
 70
     0
  0
APPID
  5
4A454
330
9
100
AcDbSymbolTableRecord
100
AcDbRegAppTableRecord
  2
AcadAnnotative
 70
     0
  0
APPID
  5
4A455
330
9
100
AcDbSymbolTableRecord
100
AcDbRegAppTableRecord
  2
ACAD_DSTYLE_DIMJAG
 70
     0
  0
APPID
  5
4A456
330
9
100
AcDbSymbolTableRecord
100
AcDbRegAppTableRecord
  2
ACAD_DSTYLE_DIMTALN
 70
     0
  0
APPID
  5
4A457
330
9
100
AcDbSymbolTableRecord
100
AcDbRegAppTableRecord
  2
ACAD_NAV_VCDISPLAY
 70
     0
  0
APPID
  5
4A787
330
9
100
AcDbSymbolTableRecord
100
AcDbRegAppTableRecord
  2
ACAD_DSTYLE_DIMINSPECT
 70
     0
  0
APPID
  5
4A788
330
9
100
AcDbSymbolTableRecord
100
AcDbRegAppTableRecord
  2
GENIUS_GENDTOL_13
 70
     0
  0
APPID
  5
4A789
330
9
100
AcDbSymbolTableRecord
100
AcDbRegAppTableRecord
  2
ZWMCAD_GENSTANDARDFRAME_13_
 70
     0
  0
APPID
  5
4A78A
330
9
100
AcDbSymbolTableRecord
100
AcDbRegAppTableRecord
  2
ZW_RECESS_XDATA
 70
     0
  0
APPID
  5
4A78B
330
9
100
AcDbSymbolTableRecord
100
AcDbRegAppTableRecord
  2
ZW_FAC_XDATA
 70
     0
  0
APPID
  5
4A78C
330
9
100
AcDbSymbolTableRecord
100
AcDbRegAppTableRecord
  2
ZW_FLC_XDATA
 70
     0
  0
APPID
  5
4A78D
330
9
100
AcDbSymbolTableRecord
100
AcDbRegAppTableRecord
  2
ZW_SUPERPART
 70
     0
  0
APPID
  5
4A78E
330
9
100
AcDbSymbolTableRecord
100
AcDbRegAppTableRecord
  2
ZW_SUPERSYMBOL
 70
     0
  0
APPID
  5
4A78F
330
9
100
AcDbSymbolTableRecord
100
AcDbRegAppTableRecord
  2
ZW_SUPERSHAFT
 70
     0
  0
APPID
  5
4A790
330
9
100
AcDbSymbolTableRecord
100
AcDbRegAppTableRecord
  2
ZWMCAD_GENFRAME_13_
 70
     0
  0
APPID
  5
4A791
330
9
100
AcDbSymbolTableRecord
100
AcDbRegAppTableRecord
  2
ACAD_MLEADERVER
 70
     0
  0
APPID
  5
4A792
330
9
100
AcDbSymbolTableRecord
100
AcDbRegAppTableRecord
  2
ACAD_DSTYLE_DIMRADIAL_EXTENSION
 70
     0
  0
APPID
  5
885F1
330
9
100
AcDbSymbolTableRecord
100
AcDbRegAppTableRecord
  2
ZWMCAD_GENSCA_13_
 70
     0
  0
APPID
  5
885EF
330
9
100
AcDbSymbolTableRecord
100
AcDbRegAppTableRecord
  2
ACAD_DSTYLE_DIMRADIAL_EXTE
 70
     0
  0
APPID
  5
885EE
330
9
100
AcDbSymbolTableRecord
100
AcDbRegAppTableRecord
  2
ZWMCAD_GENSTANDARDFRAME_13
 70
     0
  0
ENDTAB
  0
TABLE
  2
DIMSTYLE
  5
A
330
0
100
AcDbSymbolTable
 70
     2
100
AcDbDimStyleTable
 71
    21
340
1BF
340
3527
340
90771
340
907A6
340
907AC
340
907B1
340
907B7
340
919EE
340
919F4
340
919F9
340
919FF
340
91A04
340
91A0A
340
91A0F
340
91A15
340
91A1A
340
91A20
340
91A25
340
91A2B
340
91A30
340
91A36
  0
DIMSTYLE
105
1BF
102
{ACAD_REACTORS
330
943F2
330
9449E
330
943FC
330
943F9
330
943F8
330
943F5
330
9476E
102
}
330
A
100
AcDbSymbolTableRecord
100
AcDbDimStyleTableRecord
  2
コピー - ISO-25
 70
     0
 40
0.0
 41
3.5
 42
0.0
 44
1.5
 73
     0
 74
     0
 77
     1
 78
     8
140
3.5
147
2.299999999999998
176
   256
177
   256
271
     2
178
   256
271
     2
272
     2
284
     8
340
24A
371
    -1
372
    -1
  0
DIMSTYLE
105
3527
330
A
100
AcDbSymbolTableRecord
100
AcDbDimStyleTableRecord
  2
STANDARD
 70
     0
 41
3.0
 47
0.001
 48
0.001
 71
     1
 73
     0
 74
     0
 77
     1
 78
     8
140
4.0
271
     3
272
     3
284
     8
340
11
341
34B1
342
34B1
343
34B1
344
34B1
  0
ENDTAB
  0
TABLE
  2
BLOCK_RECORD
  5
1
330
0
100
AcDbSymbolTable
 70
    11
  0
BLOCK_RECORD
  5
1F
102
{ACAD_XDICTIONARY
360
31EE
102
}
330
1
100
AcDbSymbolTableRecord
100
AcDbBlockTableRecord
  2
*Model_Space
340
22
  0
BLOCK_RECORD
  5
55
330
1
100
AcDbSymbolTableRecord
100
AcDbBlockTableRecord
  2
*Paper_Space
340
56
  0
BLOCK_RECORD
  5
50
330
1
100
AcDbSymbolTableRecord
100
AcDbBlockTableRecord
  2
*Paper_Space000000
340
51
  0
BLOCK_RECORD
  5
34B1
330
1
100
AcDbSymbolTableRecord
100
AcDbBlockTableRecord
  2
_OPEN
340
0
  0
BLOCK_RECORD
  5
4A6D6
102
{ACAD_XDICTIONARY
360
4A6D7
102
}
330
1
100
AcDbSymbolTableRecord
100
AcDbBlockTableRecord
  2
zero block
340
0
102
{BLKREFS
331
8BFE6
331
4A793
331
880DD
331
882D3
331
87B7F
331
87D7D
331
90190
331
903FC
331
90821
331
90A84
331
90E49
331
910AD
331
91473
331
916B3
331
91AA1
331
91CE2
331
940A1
331
942D2
331
93114
331
934B4
331
936F3
331
93AD2
331
93D08
331
8BD57
331
92098
331
922DA
331
9267F
331
928BF
331
92B61
331
92ED7
331
8FB3B
331
8FDCA
102
}
1001
AcDbDynamicBlockGUID
1000
{A89DF4EB-B2CB-439E-AC69-1EAC9F242D1C}
1001
AcDbBlockRepETag
1070
     1
1071
        7
1001
ACAD
1000
DesignCenter Data
1002
{
1070
     1
1070
     4
1002
}
  0
BLOCK_RECORD
  5
87D73
330
1
100
AcDbSymbolTableRecord
100
AcDbBlockTableRecord
  2
_None
340
0
102
{BLKREFS
331
8C250
331
8C292
331
8C2BE
331
8C2FE
331
8C332
331
87FA2
331
87FBD
331
87FC5
331
88042
331
88238
331
884B1
331
884F0
331
88512
331
885AA
331
87D72
331
87F63
331
9002A
331
9006F
331
900CE
331
90117
331
903C3
331
9062B
331
90673
331
906DD
331
90724
331
909A6
331
90CA0
331
90CEB
331
90D5B
331
90DBF
331
90FCE
331
912CA
331
91315
331
9135A
331
913E9
331
915B9
331
91895
331
918E5
331
91966
331
91989
331
91BE7
331
91EC5
331
91F15
331
91F6B
331
93FB1
331
9403A
331
9420F
331
944D5
331
94519
331
945A7
331
945EE
331
94661
331
93052
331
93323
331
93367
331
933C4
331
9343C
331
9362F
331
93904
331
93948
331
9397A
331
939E2
331
93A5A
331
93CFD
331
93F26
331
93F64
331
8BC93
331
8BCED
331
8BF27
331
91FFC
331
921DE
331
924BE
331
9250E
331
9258F
331
925B2
331
9289C
331
92AD1
331
92B15
331
92D7E
331
92E18
331
92E5F
331
8FA29
331
8FA4D
331
8FAA7
331
8FD00
331
8A12B
331
8DEC1
102
}
  0
BLOCK_RECORD
  5
944A1
330
1
100
AcDbSymbolTableRecord
100
AcDbBlockTableRecord
  2
*D18844
340
0
  0
BLOCK_RECORD
  5
944AD
330
1
100
AcDbSymbolTableRecord
100
AcDbBlockTableRecord
  2
*D18955
340
0
  0
BLOCK_RECORD
  5
944B9
330
1
100
AcDbSymbolTableRecord
100
AcDbBlockTableRecord
  2
*D19066
340
0
  0
BLOCK_RECORD
  5
944C5
330
1
100
AcDbSymbolTableRecord
100
AcDbBlockTableRecord
  2
*D19177
340
0
  0
BLOCK_RECORD
  5
944D1
330
1
100
AcDbSymbolTableRecord
100
AcDbBlockTableRecord
  2
*D19288
340
0
  0
BLOCK_RECORD
  5
944E6
330
1
100
AcDbSymbolTableRecord
100
AcDbBlockTableRecord
  2
*D194109
340
0
  0
BLOCK_RECORD
  5
9476F
330
1
100
AcDbSymbolTableRecord
100
AcDbBlockTableRecord
  2
*D1310
340
0
  0
ENDTAB
  0
ENDSEC
  0
SECTION
  2
BLOCKS
  0
BLOCK
  5
20
330
1F
100
AcDbEntity
  8
0
100
AcDbBlockBegin
  2
*Model_Space
 70
     0
 10
0.0
 20
0.0
 30
0.0
  3
*Model_Space
  1

  0
ENDBLK
  5
21
330
1F
100
AcDbEntity
  8
0
100
AcDbBlockEnd
  0
BLOCK
  5
57
330
55
100
AcDbEntity
 67
     1
  8
0
100
AcDbBlockBegin
  2
*Paper_Space
 70
     0
 10
0.0
 20
0.0
 30
0.0
  3
*Paper_Space
  1

  0
ENDBLK
  5
58
330
55
100
AcDbEntity
 67
     1
  8
0
100
AcDbBlockEnd
  0
BLOCK
  5
52
330
50
100
AcDbEntity
  8
0
100
AcDbBlockBegin
  2
*Paper_Space000000
 70
     0
 10
0.0
 20
0.0
 30
0.0
  3
*Paper_Space000000
  1

  0
VIEWPORT
  5
6B
102
{ACAD_XDICTIONARY
360
87B05
102
}
330
50
100
AcDbEntity
  8
0
100
AcDbViewport
 10
264.3775031494645
 20
160.4455827878762
 30
0.0
 40
567.6219612953822
 41
282.2272140146125
 68
     1
 69
    -1
 12
264.3775031494645
 22
160.4455827878762
 13
0.0
 23
0.0
 14
10.0
 24
10.0
 15
10.0
 25
10.0
 16
0.0
 26
0.0
 36
1.0
 17
0.0
 27
0.0
 37
0.0
 42
50.0
 43
0.0
 44
0.0
 45
282.2272140146125
 50
0.0
 51
0.0
 72
  1000
 90
    32864
  1

281
     0
 71
     1
 74
     0
110
0.0
120
0.0
130
0.0
111
1.0
121
0.0
131
0.0
112
0.0
122
1.0
132
0.0
 79
     0
146
0.0
1001
ACAD
1000
MVIEW
1002
{
1070
    16
1010
0.0
1020
0.0
1030
0.0
1010
0.0
1020
0.0
1030
1.0
1040
0.0
1040
282.2272140146125
1040
264.3775031494645
1040
160.4455827878762
1040
50.0
1040
0.0
1040
0.0
1070
     0
1070
  1000
1070
     0
1070
     3
1070
     0
1070
     0
1070
     0
1070
     0
1040
0.0
1040
0.0
1040
0.0
1040
10.0
1040
10.0
1040
10.0
1040
10.0
1070
     0
1002
{
1002
}
1002
}
  0
VIEWPORT
  5
6D
102
{ACAD_XDICTIONARY
360
87B07
102
}
330
50
100
AcDbEntity
  8
0
100
AcDbViewport
 10
133.3499939441681
 20
101.5999939441681
 30
0.0
 40
213.3599903106689
 41
162.5599903106689
 68
     2
 69
    -1
 12
210.0
 22
148.5
 13
0.0
 23
0.0
 14
10.0
 24
10.0
 15
10.0
 25
10.0
 16
0.0
 26
0.0
 36
1.0
 17
0.0
 27
0.0
 37
0.0
 42
50.0
 43
0.0
 44
0.0
 45
324.0677920111345
 50
0.0
 51
0.0
 72
   100
 90
    32864
  1

281
     0
 71
     1
 74
     0
110
0.0
120
0.0
130
0.0
111
1.0
121
0.0
131
0.0
112
0.0
122
1.0
132
0.0
 79
     0
146
0.0
1001
ACAD
1000
MVIEW
1002
{
1070
    16
1010
0.0
1020
0.0
1030
0.0
1010
0.0
1020
0.0
1030
1.0
1040
0.0
1040
324.0677920111345
1040
210.0
1040
148.5
1040
50.0
1040
0.0
1040
0.0
1070
     0
1070
   100
1070
     0
1070
     3
1070
     0
1070
     0
1070
     0
1070
     0
1040
0.0
1040
0.0
1040
0.0
1040
10.0
1040
10.0
1040
10.0
1040
10.0
1070
     0
1002
{
1002
}
1002
}
  0
ENDBLK
  5
53
330
50
100
AcDbEntity
  8
0
100
AcDbBlockEnd
  0
BLOCK
  5
34B2
330
34B1
100
AcDbEntity
  8
0
100
AcDbBlockBegin
  2
_OPEN
 70
     0
 10
0.0
 20
0.0
 30
0.0
  3
_OPEN
  1

  0
LINE
  5
34B3
330
34B1
100
AcDbEntity
  8
0
  6
ByBlock
 62
     0
100
AcDbLine
 10
0.0
 20
0.0
 30
0.0
 11
-1.0
 21
0.1766666667
 31
0.0
  0
LINE
  5
34B4
330
34B1
100
AcDbEntity
  8
0
  6
ByBlock
 62
     0
100
AcDbLine
 10
-1.0
 20
-0.1766666667
 30
0.0
 11
0.0
 21
0.0
 31
0.0
  0
LINE
  5
34B5
330
34B1
100
AcDbEntity
  8
0
  6
ByBlock
 62
     0
100
AcDbLine
 10
-1.0
 20
0.0
 30
0.0
 11
0.0
 21
0.0
 31
0.0
  0
ENDBLK
  5
34B6
330
34B1
100
AcDbEntity
  8
0
  6
ByBlock
 62
     0
100
AcDbBlockEnd
  0
BLOCK
  5
4A6D9
330
4A6D6
100
AcDbEntity
  8
0
100
AcDbBlockBegin
  2
zero block
 70
     0
 10
0.0
 20
0.0
 30
0.0
  3
zero block
  1

  0
HATCH
  5
4A6DA
330
4A6D6
100
AcDbEntity
  8
0
 62
     7
100
AcDbHatch
 10
0.0
 20
0.0
 30
0.0
210
0.0
220
0.0
230
1.0
  2
SOLID
 70
     1
 71
     0
 91
        2
 92
        7
 72
     1
 73
     1
 93
        3
 10
0.0
 20
0.9999999999999875
 42
0.4142135623730915
 10
-1.0
 20
0.0
 42
0.0
 10
0.0
 20
0.0
 42
0.0
 97
        0
 92
        7
 72
     1
 73
     1
 93
        3
 10
1.000000000000007
 20
0.0
 42
0.0
 10
0.0
 20
0.0
 42
0.0
 10
0.0
 20
-1.0
 42
0.4142135623730974
 97
        0
 75
     0
 76
     1
 47
0.0090601366782909
 98
        2
 10
-0.380591363650975
 20
0.4885804701532896
 10
0.4350764810977559
 20
-0.4536738423704725
1001
AcDbBlockRepETag
1070
     1
1071
        0
1005
4A6DA
  0
LINE
  5
4A6DB
330
4A6D6
100
AcDbEntity
  8
0
 62
     7
 48
0.2
100
AcDbLine
 10
-1.0
 20
0.0
 30
0.0
 11
1.000000000000007
 21
0.0
 31
0.0
1001
AcDbBlockRepETag
1070
     1
1071
        1
1005
4A6DB
  0
LINE
  5
4A6DC
330
4A6D6
100
AcDbEntity
  8
0
 62
     7
 48
0.2
100
AcDbLine
 10
0.0
 20
-1.0
 30
0.0
 11
0.0
 21
0.9999999999999875
 31
0.0
1001
AcDbBlockRepETag
1070
     1
1071
        2
1005
4A6DC
  0
ARC
  5
4A6DD
330
4A6D6
100
AcDbEntity
  8
0
 62
     7
 48
0.2
100
AcDbCircle
 10
0.0
 20
0.0
 30
0.0
 40
1.0
100
AcDbArc
 50
270.0
 51
0.0
1001
AcDbBlockRepETag
1070
     1
1071
        3
1005
4A6DD
  0
ARC
  5
4A6DE
330
4A6D6
100
AcDbEntity
  8
0
 62
     7
 48
0.2
100
AcDbCircle
 10
0.0
 20
0.0
 30
0.0
 40
1.0
100
AcDbArc
 50
0.0
 51
90.0
1001
AcDbBlockRepETag
1070
     1
1071
        4
1005
4A6DE
  0
ARC
  5
4A6DF
330
4A6D6
100
AcDbEntity
  8
0
 62
     7
 48
0.2
100
AcDbCircle
 10
0.0
 20
0.0
 30
0.0
 40
1.0
100
AcDbArc
 50
180.0
 51
270.0
1001
AcDbBlockRepETag
1070
     1
1071
        5
1005
4A6DF
  0
ARC
  5
4A6E0
330
4A6D6
100
AcDbEntity
  8
0
 62
     7
 48
0.2
100
AcDbCircle
 10
0.0
 20
0.0
 30
0.0
 40
1.0
100
AcDbArc
 50
90.0
 51
180.0
1001
AcDbBlockRepETag
1070
     1
1071
        6
1005
4A6E0
  0
ENDBLK
  5
4A6E1
330
4A6D6
100
AcDbEntity
  8
0
100
AcDbBlockEnd
  0
BLOCK
  5
87D74
330
87D73
100
AcDbEntity
  8
0
100
AcDbBlockBegin
  2
_None
 70
     0
 10
0.0
 20
0.0
 30
0.0
  3
_None
  1

  0
ENDBLK
  5
87D75
330
87D73
100
AcDbEntity
  8
0
100
AcDbBlockEnd
  0
BLOCK
  5
944AB
330
944A1
100
AcDbEntity
  8
0
100
AcDbBlockBegin
  2
*D18844
 70
     1
 10
0.0
 20
0.0
 30
0.0
  3
*D18844
  1

  0
LINE
  5
947CF
330
944A1
100
AcDbEntity
  8
2
100
AcDbLine
 10
0.0
 20
46.4189999989
 30
0.0
 11
0.0
 21
111.4984637722732
 31
0.0
  0
LINE
  5
947D0
330
944A1
100
AcDbEntity
  8
2
100
AcDbLine
 10
63.49999999999994
 20
75.39999999887512
 30
0.0
 11
63.49999999999994
 21
111.4984637722732
 31
0.0
  0
LINE
  5
947D1
330
944A1
100
AcDbEntity
  8
2
100
AcDbLine
 10
3.5
 20
109.9984637722732
 30
0.0
 11
59.99999999999993
 21
109.9984637722732
 31
0.0
  0
SOLID
  5
947D2
330
944A1
100
AcDbEntity
  8
2
100
AcDbTrace
 10
3.5
 20
110.5817971056065
 30
0.0
 11
3.5
 21
109.4151304389398
 31
0.0
 12
0.0
 22
109.9984637722732
 32
0.0
 13
0.0
 23
109.9984637722732
 33
0.0
  0
SOLID
  5
947D3
330
944A1
100
AcDbEntity
  8
2
100
AcDbTrace
 10
59.99999999999993
 20
109.4151304389398
 30
0.0
 11
59.99999999999993
 21
110.5817971056065
 31
0.0
 12
63.49999999999994
 22
109.9984637722732
 32
0.0
 13
63.49999999999994
 23
109.9984637722732
 33
0.0
  0
MTEXT
  5
947D4
330
944A1
100
AcDbEntity
  8
2
100
AcDbMText
 10
31.74999999999997
 20
114.0484637722732
 30
0.0
 40
3.5
 41
0.0
 71
     5
 72
     1
  1
\A1;63.5 [2.500"]
  7
simplex
 73
     1
 44
1.0
1001
ACAD
1000
MTEXTBEGIN
1070
    73
1070
     1
1070
    44
1040
1.0
1070
    74
1070
     0
1000
MTEXTEND
  0
POINT
  5
947D5
330
944A1
100
AcDbEntity
  8
Defpoints
 62
     0
100
AcDbPoint
 10
0.0
 20
46.4189999989
 30
0.0
  0
POINT
  5
947D6
330
944A1
100
AcDbEntity
  8
Defpoints
 62
     0
100
AcDbPoint
 10
63.49999999999994
 20
75.39999999887512
 30
0.0
  0
POINT
  5
947D7
330
944A1
100
AcDbEntity
  8
Defpoints
 62
     0
100
AcDbPoint
 10
63.49999999999994
 20
109.9984637722732
 30
0.0
  0
ENDBLK
  5
944AC
330
944A1
100
AcDbEntity
  8
0
100
AcDbBlockEnd
  0
BLOCK
  5
944B7
330
944AD
100
AcDbEntity
  8
0
100
AcDbBlockBegin
  2
*D18955
 70
     1
 10
0.0
 20
0.0
 30
0.0
  3
*D18955
  1

  0
LINE
  5
945D0
330
944AD
100
AcDbEntity
  8
sk2
100
AcDbLine
 10
0.0
 20
-46.41899868210001
 30
0.0
 11
0.0
 21
-91.44251898993658
 31
0.0
  0
LINE
  5
945D1
330
944AD
100
AcDbEntity
  8
sk2
100
AcDbLine
 10
42.00000000000001
 20
-26.99999867990002
 30
0.0
 11
42.00000000000001
 21
-91.44251898993658
 31
0.0
  0
LINE
  5
945D2
330
944AD
100
AcDbEntity
  8
sk2
100
AcDbLine
 10
3.5
 20
-89.94251898993658
 30
0.0
 11
38.50000000000004
 21
-89.94251898993658
 31
0.0
  0
SOLID
  5
945D3
330
944AD
100
AcDbEntity
  8
sk2
100
AcDbTrace
 10
3.5
 20
-89.35918565660326
 30
0.0
 11
3.5
 21
-90.52585232326991
 31
0.0
 12
0.0
 22
-89.94251898993658
 32
0.0
 13
0.0
 23
-89.94251898993658
 33
0.0
  0
SOLID
  5
945D4
330
944AD
100
AcDbEntity
  8
sk2
100
AcDbTrace
 10
38.50000000000004
 20
-90.52585232326991
 30
0.0
 11
38.50000000000004
 21
-89.35918565660326
 31
0.0
 12
42.00000000000001
 22
-89.94251898993658
 32
0.0
 13
42.00000000000001
 23
-89.94251898993658
 33
0.0
  0
MTEXT
  5
945D5
330
944AD
100
AcDbEntity
  8
sk2
100
AcDbMText
 10
21.00000000000001
 20
-85.89251898993659
 30
0.0
 40
3.5
 41
0.0
 71
     5
 72
     1
  1
\A1;42 [1.654"]
  7
simplex
 73
     1
 44
1.0
1001
ACAD
1000
MTEXTBEGIN
1070
    73
1070
     1
1070
    44
1040
1.0
1070
    74
1070
     0
1000
MTEXTEND
  0
POINT
  5
945D6
330
944AD
100
AcDbEntity
  8
Defpoints
 62
     0
100
AcDbPoint
 10
0.0
 20
-46.41899868210001
 30
0.0
  0
POINT
  5
945D7
330
944AD
100
AcDbEntity
  8
Defpoints
 62
     0
100
AcDbPoint
 10
42.00000000000001
 20
-26.99999867990002
 30
0.0
  0
POINT
  5
945D8
330
944AD
100
AcDbEntity
  8
Defpoints
 62
     0
100
AcDbPoint
 10
42.00000000000001
 20
-89.94251898993658
 30
0.0
  0
ENDBLK
  5
944B8
330
944AD
100
AcDbEntity
  8
0
100
AcDbBlockEnd
  0
BLOCK
  5
944C3
330
944B9
100
AcDbEntity
  8
0
100
AcDbBlockBegin
  2
*D19066
 70
     1
 10
0.0
 20
0.0
 30
0.0
  3
*D19066
  1

  0
LINE
  5
945D9
330
944B9
100
AcDbEntity
  8
sk2
100
AcDbLine
 10
2.0
 20
48.41900131789998
 30
0.0
 11
-21.05706845840904
 21
48.41900131789998
 31
0.0
  0
LINE
  5
945DA
330
944B9
100
AcDbEntity
  8
sk2
100
AcDbLine
 10
2.0
 20
-48.41899868210001
 30
0.0
 11
-21.05706845840905
 21
-48.41899868210001
 31
0.0
  0
LINE
  5
945DB
330
944B9
100
AcDbEntity
  8
sk2
100
AcDbLine
 10
-19.55706845840904
 20
44.91900131789998
 30
0.0
 11
-19.55706845840905
 21
-44.9189986821
 31
0.0
  0
SOLID
  5
945DC
330
944B9
100
AcDbEntity
  8
sk2
100
AcDbTrace
 10
-18.97373512507571
 20
44.91900131789998
 30
0.0
 11
-20.14040179174238
 21
44.91900131789998
 31
0.0
 12
-19.55706845840904
 22
48.41900131789998
 32
0.0
 13
-19.55706845840904
 23
48.41900131789998
 33
0.0
  0
SOLID
  5
945DD
330
944B9
100
AcDbEntity
  8
sk2
100
AcDbTrace
 10
-20.14040179174239
 20
-44.9189986821
 30
0.0
 11
-18.97373512507572
 21
-44.9189986821
 31
0.0
 12
-19.55706845840905
 22
-48.41899868210001
 32
0.0
 13
-19.55706845840905
 23
-48.41899868210001
 33
0.0
  0
MTEXT
  5
945DE
330
944B9
100
AcDbEntity
  8
sk2
100
AcDbMText
 10
-23.60706845840905
 20
-0.0832933704160436
 30
0.0
 40
3.5
 41
0.0
 71
     5
 72
     1
  1
\A1;%%C96.838 [%%c3.813"]
  7
simplex
 11
0.0000000000000001
 21
1.0
 31
0.0
 73
     1
 44
1.0
1001
ACAD
1000
MTEXTBEGIN
1070
    73
1070
     1
1070
    44
1040
1.0
1070
    74
1070
     0
1000
MTEXTEND
  0
POINT
  5
945DF
330
944B9
100
AcDbEntity
  8
Defpoints
 62
     0
100
AcDbPoint
 10
2.0
 20
48.41900131789998
 30
0.0
  0
POINT
  5
945E0
330
944B9
100
AcDbEntity
  8
Defpoints
 62
     0
100
AcDbPoint
 10
2.0
 20
-48.41899868210001
 30
0.0
  0
POINT
  5
945E1
330
944B9
100
AcDbEntity
  8
Defpoints
 62
     0
100
AcDbPoint
 10
-19.55706845840905
 20
-48.41899868210001
 30
0.0
  0
ENDBLK
  5
944C4
330
944B9
100
AcDbEntity
  8
0
100
AcDbBlockEnd
  0
BLOCK
  5
944CF
330
944C5
100
AcDbEntity
  8
0
100
AcDbBlockBegin
  2
*D19177
 70
     1
 10
0.0
 20
0.0
 30
0.0
  3
*D19177
  1

  0
LINE
  5
945E2
330
944C5
100
AcDbEntity
  8
sk2
100
AcDbLine
 10
8.000000000000056
 20
19.05000131789995
 30
0.0
 11
-11.54004119204327
 21
19.05000131789995
 31
0.0
  0
LINE
  5
945E3
330
944C5
100
AcDbEntity
  8
sk2
100
AcDbLine
 10
8.000000000000056
 20
-19.0499986799
 30
0.0
 11
-11.54004119204327
 21
-19.0499986799
 31
0.0
  0
LINE
  5
945E4
330
944C5
100
AcDbEntity
  8
sk2
100
AcDbLine
 10
-10.04004119204327
 20
15.55000131789995
 30
0.0
 11
-10.04004119204327
 21
-15.5499986799
 31
0.0
  0
SOLID
  5
945E5
330
944C5
100
AcDbEntity
  8
sk2
100
AcDbTrace
 10
-9.456707858709943
 20
15.55000131789995
 30
0.0
 11
-10.62337452537661
 21
15.55000131789995
 31
0.0
 12
-10.04004119204327
 22
19.05000131789995
 32
0.0
 13
-10.04004119204327
 23
19.05000131789995
 33
0.0
  0
SOLID
  5
945E6
330
944C5
100
AcDbEntity
  8
sk2
100
AcDbTrace
 10
-10.62337452537661
 20
-15.5499986799
 30
0.0
 11
-9.456707858709943
 21
-15.5499986799
 31
0.0
 12
-10.04004119204327
 22
-19.0499986799
 32
0.0
 13
-10.04004119204327
 23
-19.0499986799
 33
0.0
  0
MTEXT
  5
945E7
330
944C5
100
AcDbEntity
  8
sk2
100
AcDbMText
 10
-14.09004119204327
 20
-0.3632059370738716
 30
0.0
 40
3.5
 41
0.0
 71
     5
 72
     1
  1
\A1;%%C38.1 [%%c1.500"]
  7
simplex
 11
0.0
 21
1.0
 31
0.0
 73
     1
 44
1.0
1001
ACAD
1000
MTEXTBEGIN
1070
    73
1070
     1
1070
    44
1040
1.0
1070
    74
1070
     0
1000
MTEXTEND
  0
POINT
  5
945E8
330
944C5
100
AcDbEntity
  8
Defpoints
 62
     0
100
AcDbPoint
 10
8.000000000000056
 20
19.05000131789995
 30
0.0
  0
POINT
  5
945E9
330
944C5
100
AcDbEntity
  8
Defpoints
 62
     0
100
AcDbPoint
 10
8.000000000000056
 20
-19.0499986799
 30
0.0
  0
POINT
  5
945EA
330
944C5
100
AcDbEntity
  8
Defpoints
 62
     0
100
AcDbPoint
 10
-10.04004119204327
 20
-19.0499986799
 30
0.0
  0
ENDBLK
  5
944D0
330
944C5
100
AcDbEntity
  8
0
100
AcDbBlockEnd
  0
BLOCK
  5
944DA
330
944D1
100
AcDbEntity
  8
0
100
AcDbBlockBegin
  2
*D19288
 70
     1
 10
0.0
 20
0.0
 30
0.0
  3
*D19288
  1

  0
LINE
  5
9465E
330
944D1
100
AcDbEntity
  8
2
100
AcDbLine
 10
62.69999999999999
 20
76.19999999889995
 30
0.0
 11
91.40679386709527
 21
76.19999999889995
 31
0.0
  0
LINE
  5
9465F
330
944D1
100
AcDbEntity
  8
2
100
AcDbLine
 10
89.90679386709526
 20
72.69999999889996
 30
0.0
 11
89.90679386709524
 21
-76.19999999889995
 31
0.0
  0
SOLID
  5
94660
330
944D1
100
AcDbEntity
  8
2
100
AcDbTrace
 10
90.49012720042858
 20
72.69999999889996
 30
0.0
 11
89.32346053376194
 21
72.69999999889996
 31
0.0
 12
89.90679386709526
 22
76.19999999889995
 32
0.0
 13
89.90679386709526
 23
76.19999999889995
 33
0.0
  0
INSERT
  5
94661
330
944D1
100
AcDbEntity
  8
2
100
AcDbBlockReference
  2
_None
 10
89.90679386709524
 20
-76.19999999889995
 30
0.0
 41
3.5
 42
3.5
 43
3.5
 50
270.0
  0
MTEXT
  5
94662
330
944D1
100
AcDbEntity
  8
2
100
AcDbMText
 10
85.85679386709525
 20
-1.749999999999999
 30
0.0
 40
3.5
 41
0.0
 71
     5
 72
     1
  1
\A1;%%C152.4 [%%c6.000"]
  7
simplex
 11
0.0000000000000001
 21
1.0
 31
0.0
 73
     1
 44
1.0
1001
ACAD
1000
MTEXTBEGIN
1070
    73
1070
     1
1070
    44
1040
1.0
1070
    74
1070
     0
1000
MTEXTEND
  0
POINT
  5
94663
330
944D1
100
AcDbEntity
  8
Defpoints
 62
     0
100
AcDbPoint
 10
62.69999999999999
 20
76.19999999889995
 30
0.0
  0
POINT
  5
94664
330
944D1
100
AcDbEntity
  8
Defpoints
 62
     0
100
AcDbPoint
 10
62.69999999999999
 20
-76.19999999889995
 30
0.0
  0
POINT
  5
94665
330
944D1
100
AcDbEntity
  8
Defpoints
 62
     0
100
AcDbPoint
 10
89.90679386709524
 20
-76.19999999889995
 30
0.0
  0
ENDBLK
  5
944DB
330
944D1
100
AcDbEntity
  8
0
100
AcDbBlockEnd
  0
BLOCK
  5
944F0
330
944E6
100
AcDbEntity
  8
0
100
AcDbBlockBegin
  2
*D194109
 70
     1
 10
0.0
 20
0.0
 30
0.0
  3
*D194109
  1

  0
LINE
  5
947C5
330
944E6
100
AcDbEntity
  8
2
100
AcDbLine
 10
55.29999999999998
 20
76.19999999889995
 30
0.0
 11
55.29999999999998
 21
101.9972170754579
 31
0.0
  0
LINE
  5
947C6
330
944E6
100
AcDbEntity
  8
2
100
AcDbLine
 10
63.49999999999994
 20
75.39999999887512
 30
0.0
 11
63.49999999999994
 21
101.9972170754579
 31
0.0
  0
LINE
  5
947C7
330
944E6
100
AcDbEntity
  8
2
100
AcDbLine
 10
66.99999999999994
 20
100.4972170754579
 30
0.0
 11
119.4333333333333
 21
100.4972170754579
 31
0.0
  0
LINE
  5
947C8
330
944E6
100
AcDbEntity
  8
2
100
AcDbLine
 10
51.79999999999998
 20
100.4972170754579
 30
0.0
 11
48.29999999999998
 21
100.4972170754579
 31
0.0
  0
SOLID
  5
947C9
330
944E6
100
AcDbEntity
  8
2
100
AcDbTrace
 10
51.79999999999998
 20
99.91388374212457
 30
0.0
 11
51.79999999999998
 21
101.0805504087912
 31
0.0
 12
55.29999999999998
 22
100.4972170754579
 32
0.0
 13
55.29999999999998
 23
100.4972170754579
 33
0.0
  0
SOLID
  5
947CA
330
944E6
100
AcDbEntity
  8
2
100
AcDbTrace
 10
66.99999999999994
 20
101.0805504087912
 30
0.0
 11
66.99999999999994
 21
99.91388374212457
 31
0.0
 12
63.49999999999994
 22
100.4972170754579
 32
0.0
 13
63.49999999999994
 23
100.4972170754579
 33
0.0
  0
MTEXT
  5
947CB
330
944E6
100
AcDbEntity
  8
2
100
AcDbMText
 10
94.9666666666666
 20
104.5472170754579
 30
0.0
 40
3.5
 41
0.0
 71
     5
 72
     1
  1
\A1;8.2 [.323"](MAX)
  7
simplex
 73
     1
 44
1.0
1001
ACAD
1000
MTEXTBEGIN
1070
    73
1070
     1
1070
    44
1040
1.0
1070
    74
1070
     0
1000
MTEXTEND
  0
POINT
  5
947CC
330
944E6
100
AcDbEntity
  8
Defpoints
 62
     0
100
AcDbPoint
 10
55.29999999999998
 20
76.19999999889995
 30
0.0
  0
POINT
  5
947CD
330
944E6
100
AcDbEntity
  8
Defpoints
 62
     0
100
AcDbPoint
 10
63.49999999999994
 20
75.39999999887512
 30
0.0
  0
POINT
  5
947CE
330
944E6
100
AcDbEntity
  8
Defpoints
 62
     0
100
AcDbPoint
 10
63.49999999999994
 20
100.4972170754579
 30
0.0
  0
ENDBLK
  5
944F1
330
944E6
100
AcDbEntity
  8
0
100
AcDbBlockEnd
  0
BLOCK
  5
94777
330
9476F
100
AcDbEntity
  8
0
100
AcDbBlockBegin
  2
*D1310
 70
     1
 10
0.0
 20
0.0
 30
0.0
  3
*D1310
  1

  0
LINE
  5
94779
330
9476F
100
AcDbEntity
  8
2
100
AcDbLine
 10
104.8282494429907
 20
94.44551679368029
 30
0.0
 11
66.61820056102799
 21
77.1713566438363
 31
0.0
  0
MTEXT
  5
9477A
330
9476F
100
AcDbEntity
  8
2
100
AcDbMText
 10
85.64947071591797
 20
90.21973588173546
 30
0.0
 40
3.5
 41
0.0
 71
     5
 72
     1
  1
\A1;R0.8 [R.031"]
  7
simplex
 11
0.9112094327972052
 21
0.411943405799141
 31
0.0
 73
     1
 44
1.0
1001
ACAD
1000
MTEXTBEGIN
1070
    73
1070
     1
1070
    44
1040
1.0
1070
    74
1070
     0
1000
MTEXTEND
  0
SOLID
  5
9477B
330
9476F
100
AcDbEntity
  8
2
100
AcDbTrace
 10
66.37790024097849
 20
77.70289547963469
 30
0.0
 11
66.85850088107748
 21
76.63981780803793
 31
0.0
 12
63.42896754623777
 22
75.72955472353931
 32
0.0
 13
63.42896754623777
 23
75.72955472353931
 33
0.0
  0
LINE
  5
9477C
330
9476F
100
AcDbEntity
  8
2
100
AcDbLine
 10
62.61000000000001
 20
75.3999999989
 30
0.0
 11
62.79000000000002
 21
75.3999999989
 31
0.0
  0
LINE
  5
9477D
330
9476F
100
AcDbEntity
  8
2
100
AcDbLine
 10
62.70000000000002
 20
75.30999999889998
 30
0.0
 11
62.70000000000002
 21
75.4899999989
 31
0.0
  0
POINT
  5
9477E
330
9476F
100
AcDbEntity
  8
Defpoints
 62
     0
100
AcDbPoint
 10
63.42896754623777
 20
75.72955472353931
 30
0.0
  0
POINT
  5
9477F
330
9476F
100
AcDbEntity
  8
Defpoints
 62
     0
100
AcDbPoint
 10
62.70000000000002
 20
75.3999999989
 30
0.0
  0
ENDBLK
  5
94778
330
9476F
100
AcDbEntity
  8
0
100
AcDbBlockEnd
  0
ENDSEC
  0
SECTION
  2
ENTITIES
  0
INSERT
  5
4A793
330
1F
100
AcDbEntity
  8
0
100
AcDbBlockReference
  2
zero block
 10
0.0
 20
0.0
 30
0.0
 50
180.0
  0
MTEXT
  5
942D1
330
1F
100
AcDbEntity
  8
sk6
100
AcDbMText
 10
3.693582608166563
 20
136.783224521334
 30
0.0
 40
3.5
 41
139.3353303764208
 71
     1
 72
     5
  1
WWX400UR6_0010EA
 73
     1
 44
0.9
1001
ACAD
1000
MTEXTBEGIN
1070
    73
1070
     1
1070
    44
1040
0.9
1070
    74
1070
     0
1000
MTEXTEND
1000
ACAD_MTEXT_DEFINED_HEIGHT_BEGIN
1070
    46
1040
3.48901801050149
1000
ACAD_MTEXT_DEFINED_HEIGHT_END
  0
LINE
  5
942D3
330
1F
100
AcDbEntity
  8
4
100
AcDbLine
 10
68.8369340559895
 20
0.0
 30
0.0
 11
-2.907861614760548
 21
0.0
 31
0.0
  0
LINE
  5
942D4
330
1F
100
AcDbEntity
  8
nocut
100
AcDbLine
 10
61.71384718519999
 20
0.0
 30
0.0
 11
0.0
 21
0.0
 31
0.0
  0
LINE
  5
942D5
330
1F
100
AcDbEntity
  8
sk3
100
AcDbLine
 10
0.9999998037999944
 20
19.55000131789995
 30
0.0
 11
0.0
 21
20.55000111159996
 31
0.0
  0
LINE
  5
942D6
330
1F
100
AcDbEntity
  8
nocut
100
AcDbLine
 10
0.0
 20
0.0
 30
0.0
 11
0.0
 21
46.4189999989
 31
0.0
  0
LINE
  5
942D7
330
1F
100
AcDbEntity
  8
sk3
100
AcDbLine
 10
0.9999998037999944
 20
7.937501317899999
 30
0.0
 11
0.9999998037999944
 21
19.55000131789995
 31
0.0
  0
LINE
  5
942D8
330
1F
100
AcDbEntity
  8
sk3
100
AcDbLine
 10
8.000000000000056
 20
7.937501317899999
 30
0.0
 11
8.000000000000056
 21
19.55000131789995
 31
0.0
  0
LINE
  5
94303
102
{ACAD_REACTORS
330
943FB
102
}
330
1F
100
AcDbEntity
  8
sk3
100
AcDbLine
 10
8.000000000000056
 20
19.05000131789995
 30
0.0
 11
25.89046496530006
 21
19.05000131789995
 31
0.0
  0
LINE
  5
94304
330
1F
100
AcDbEntity
  8
sk3
100
AcDbLine
 10
39.28689076480003
 20
19.05000131789995
 30
0.0
 11
41.00000019079999
 21
19.05000131789995
 31
0.0
  0
LINE
  5
94305
330
1F
100
AcDbEntity
  8
sk3
100
AcDbLine
 10
0.9999998037999944
 20
19.55000131789995
 30
0.0
 11
8.000000000000056
 21
19.55000131789995
 31
0.0
  0
LINE
  5
94306
330
1F
100
AcDbEntity
  8
sk3
100
AcDbLine
 10
29.17735573010003
 20
20.50000131789997
 30
0.0
 11
35.82264426990008
 21
20.50000131789997
 31
0.0
  0
LINE
  5
94307
330
1F
100
AcDbEntity
  8
nocut
100
AcDbLine
 10
21.31282802740003
 20
50.47754138069996
 30
0.0
 11
37.72318830780007
 21
73.91396470509993
 31
0.0
  0
LINE
  5
94308
330
1F
100
AcDbEntity
  8
sk3
100
AcDbLine
 10
36.16073887930003
 20
20.42504754749996
 30
0.0
 11
38.94879615550003
 21
19.12495508819995
 31
0.0
  0
LINE
  5
9430B
330
1F
100
AcDbEntity
  8
sk3
100
AcDbLine
 10
43.00000000000006
 20
28.00000131789995
 30
0.0
 11
55.7138471852
 21
28.00000131789995
 31
0.0
  0
LINE
  5
9430F
330
1F
100
AcDbEntity
  8
sk3
100
AcDbLine
 10
25.89046496530006
 20
19.05000131789995
 30
0.0
 11
25.89046496530006
 21
0.0000013189999777
 31
0.0
  0
LINE
  5
94318
330
1F
100
AcDbEntity
  8
sk3
100
AcDbLine
 10
41.00000019079999
 20
19.05000131789995
 30
0.0
 11
41.00000019079999
 21
0.0000013189999777
 31
0.0
  0
LINE
  5
94319
330
1F
100
AcDbEntity
  8
sk3
100
AcDbLine
 10
42.00000000000001
 20
0.0000013189999777
 30
0.0
 11
42.00000000000001
 21
27.00000131789997
 31
0.0
  0
LINE
  5
9431B
330
1F
100
AcDbEntity
  8
nocut
100
AcDbLine
 10
2.0
 20
48.4189999989
 30
0.0
 11
13.43987587009999
 21
48.4189999989
 31
0.0
  0
LINE
  5
94330
330
1F
100
AcDbEntity
  8
sk3
100
AcDbLine
 10
57.15507220040002
 20
59.57917854049992
 30
0.0
 11
59.70370867120312
 21
63.74327114617384
 31
0.0
  0
LINE
  5
94341
330
1F
100
AcDbEntity
  8
sk3
100
AcDbLine
 10
25.89046496530006
 20
19.05000131789995
 30
0.0
 11
28.83926112069998
 21
20.42504754749996
 31
0.0
  0
LINE
  5
94349
330
1F
100
AcDbEntity
  8
sk3
100
AcDbLine
 10
41.00000019079999
 20
19.05000131789995
 30
0.0
 11
42.00000000000001
 21
20.05000111699997
 31
0.0
  0
LINE
  5
9434C
330
1F
100
AcDbEntity
  8
sk3
100
AcDbLine
 10
55.7138471852
 20
28.00000131789995
 30
0.0
 11
55.7138471852
 21
0.0000013189999777
 31
0.0
  0
LINE
  5
9434D
330
1F
100
AcDbEntity
  8
sk3
100
AcDbLine
 10
56.71384718519999
 20
58.01307810409998
 30
0.0
 11
56.71384718519999
 21
0.0000013189999777
 31
0.0
  0
LINE
  5
9434E
330
1F
100
AcDbEntity
  8
sk3
100
AcDbLine
 10
55.7138471852
 20
28.00000131789995
 30
0.0
 11
56.71384718519999
 21
29.00000131789994
 31
0.0
  0
LINE
  5
9434F
330
1F
100
AcDbEntity
  8
nocut
100
AcDbLine
 10
61.71384718519999
 20
69.3999999989
 30
0.0
 11
61.71384718519999
 21
0.0000000000000142
 31
0.0
  0
LINE
  5
943C7
330
1F
100
AcDbEntity
  8
nocut
100
AcDbLine
 10
40.12828722129998
 20
75.19277848149994
 30
0.0
 11
51.97382338410003
 21
75.39954308429995
 31
0.0
  0
LINE
  5
943C8
330
1F
100
AcDbEntity
  8
nocut
100
AcDbLine
 10
52.02618060340004
 20
75.3999999989
 30
0.0
 11
55.7138471852
 21
75.3999999989
 31
0.0
  0
ARC
  5
943CB
330
1F
100
AcDbEntity
  8
nocut
100
AcDbCircle
 10
16.39791576160002
 20
53.9189999989
 30
0.0
 40
6.0
100
AcDbArc
 50
250.8118635462993
 51
324.9999999999996
  0
ARC
  5
943CC
330
1F
100
AcDbEntity
  8
nocut
100
AcDbCircle
 10
55.7138471852
 20
69.3999999989
 30
0.0
 40
6.0
100
AcDbArc
 50
0.0
 51
90.0
  0
ARC
  5
943CD
330
1F
100
AcDbEntity
  8
nocut
100
AcDbCircle
 10
52.02618060340004
 20
72.3999999989
 30
0.0
 40
3.0
100
AcDbArc
 50
90.0
 51
91.00000000000015
  0
ARC
  5
943CE
330
1F
100
AcDbEntity
  8
nocut
100
AcDbCircle
 10
40.18064444059999
 20
72.19323539599996
 30
0.0
 40
3.0
100
AcDbArc
 50
91.00000000000015
 51
144.9999999999995
  0
ARC
  5
943CF
330
1F
100
AcDbEntity
  8
nocut
100
AcDbCircle
 10
13.43987587009999
 20
45.4189999989
 30
0.0
 40
3.0
100
AcDbArc
 50
70.81186354629932
 51
90.0
  0
ARC
  5
943D0
330
1F
100
AcDbEntity
  8
sk3
100
AcDbCircle
 10
59.71384718519999
 20
58.01307810409998
 30
0.0
 40
3.0
100
AcDbArc
 50
148.5312476589003
 51
180.0
  0
ARC
  5
943D3
102
{ACAD_REACTORS
330
943F4
102
}
330
1F
100
AcDbEntity
  8
nocut
100
AcDbCircle
 10
2.0
 20
46.4189999989
 30
0.0
 40
2.0
100
AcDbArc
 50
90.0
 51
180.0
  0
ARC
  5
943D4
330
1F
100
AcDbEntity
  8
sk3
100
AcDbCircle
 10
43.00000000000006
 20
27.00000131789997
 30
0.0
 40
1.0
100
AcDbArc
 50
90.0
 51
180.0
  0
ARC
  5
943D7
330
1F
100
AcDbEntity
  8
sk3
100
AcDbCircle
 10
29.17735573010003
 20
19.70000131789996
 30
0.0
 40
0.8
100
AcDbArc
 50
90.0
 51
114.9999999999997
  0
ARC
  5
943D8
330
1F
100
AcDbEntity
  8
sk3
100
AcDbCircle
 10
39.28689076480003
 20
19.85000131789997
 30
0.0
 40
0.8
100
AcDbArc
 50
245.0000000000003
 51
270.0
  0
ARC
  5
943D9
330
1F
100
AcDbEntity
  8
sk3
100
AcDbCircle
 10
35.82264426990008
 20
19.70000131789996
 30
0.0
 40
0.8
100
AcDbArc
 50
65.00000000000031
 51
90.0
  0
LINE
  5
943DA
330
1F
100
AcDbEntity
  8
sk3
100
AcDbLine
 10
0.9999998037999944
 20
-19.5499986799
 30
0.0
 11
0.0
 21
-20.5499984736
 31
0.0
  0
LINE
  5
943DB
330
1F
100
AcDbEntity
  8
sk3
100
AcDbLine
 10
0.9999998037999944
 20
-7.937498682099999
 30
0.0
 11
0.9999998037999944
 21
-19.5499986799
 31
0.0
  0
LINE
  5
943DC
330
1F
100
AcDbEntity
  8
sk3
100
AcDbLine
 10
8.000000000000056
 20
-7.937498682099999
 30
0.0
 11
8.000000000000056
 21
-19.5499986799
 31
0.0
  0
LINE
  5
943DD
102
{ACAD_REACTORS
330
943FB
102
}
330
1F
100
AcDbEntity
  8
sk3
100
AcDbLine
 10
8.000000000000056
 20
-19.0499986799
 30
0.0
 11
25.89046496530006
 21
-19.0499986799
 31
0.0
  0
LINE
  5
943DE
330
1F
100
AcDbEntity
  8
sk3
100
AcDbLine
 10
39.28689076480003
 20
-19.0499986799
 30
0.0
 11
41.00000019079999
 21
-19.0499986799
 31
0.0
  0
LINE
  5
943DF
330
1F
100
AcDbEntity
  8
sk3
100
AcDbLine
 10
0.9999998037999944
 20
-19.5499986799
 30
0.0
 11
8.000000000000056
 21
-19.5499986799
 31
0.0
  0
LINE
  5
943E0
330
1F
100
AcDbEntity
  8
sk3
100
AcDbLine
 10
29.17735573010003
 20
-20.49999867990002
 30
0.0
 11
35.82264426990008
 21
-20.49999867990002
 31
0.0
  0
LINE
  5
943E1
330
1F
100
AcDbEntity
  8
sk3
100
AcDbLine
 10
36.16073887930003
 20
-20.4250449095
 30
0.0
 11
38.94879615550003
 21
-19.1249524502
 31
0.0
  0
LINE
  5
943E2
330
1F
100
AcDbEntity
  8
sk3
100
AcDbLine
 10
43.00000000000006
 20
-27.99999867989999
 30
0.0
 11
55.7138471852
 21
-27.99999867989999
 31
0.0
  0
LINE
  5
943E3
330
1F
100
AcDbEntity
  8
sk3
100
AcDbLine
 10
25.89046496530006
 20
-19.0499986799
 30
0.0
 11
25.89046496530006
 21
0.0000013189999777
 31
0.0
  0
LINE
  5
943E4
330
1F
100
AcDbEntity
  8
sk3
100
AcDbLine
 10
41.00000019079999
 20
-19.0499986799
 30
0.0
 11
41.00000019079999
 21
0.0000013189999777
 31
0.0
  0
LINE
  5
943E5
330
1F
100
AcDbEntity
  8
sk3
100
AcDbLine
 10
42.00000000000001
 20
0.0000013189999777
 30
0.0
 11
42.00000000000001
 21
-26.99999867990002
 31
0.0
  0
LINE
  5
943E6
330
1F
100
AcDbEntity
  8
sk3
100
AcDbLine
 10
57.15507220040002
 20
-59.57917590249997
 30
0.0
 11
61.56677218019993
 21
-66.78723694800004
 31
0.0
  0
LINE
  5
943E7
330
1F
100
AcDbEntity
  8
sk3
100
AcDbLine
 10
25.89046496530006
 20
-19.0499986799
 30
0.0
 11
28.83926112069998
 21
-20.4250449095
 31
0.0
  0
LINE
  5
943E8
330
1F
100
AcDbEntity
  8
sk3
100
AcDbLine
 10
41.00000019079999
 20
-19.0499986799
 30
0.0
 11
42.00000000000001
 21
-20.04999847900001
 31
0.0
  0
LINE
  5
943E9
330
1F
100
AcDbEntity
  8
sk3
100
AcDbLine
 10
55.7138471852
 20
-27.99999867989999
 30
0.0
 11
55.7138471852
 21
0.0000013189999777
 31
0.0
  0
LINE
  5
943EA
330
1F
100
AcDbEntity
  8
sk3
100
AcDbLine
 10
56.71384718519999
 20
-58.01307546610003
 30
0.0
 11
56.71384718519999
 21
0.0000013189999777
 31
0.0
  0
LINE
  5
943EB
330
1F
100
AcDbEntity
  8
sk3
100
AcDbLine
 10
55.7138471852
 20
-27.99999867989999
 30
0.0
 11
56.71384718519999
 21
-28.99999867989999
 31
0.0
  0
ARC
  5
943EC
330
1F
100
AcDbEntity
  8
sk3
100
AcDbCircle
 10
59.71384718519999
 20
-58.01307546610003
 30
0.0
 40
3.0
100
AcDbArc
 50
180.0
 51
211.4687523410996
  0
ARC
  5
943ED
330
1F
100
AcDbEntity
  8
sk3
100
AcDbCircle
 10
60.7138471852
 20
-67.30927042679997
 30
0.0
 40
1.0
100
AcDbArc
 50
0.0
 51
31.46875234109965
  0
ARC
  5
943EE
102
{ACAD_REACTORS
330
943F7
102
}
330
1F
100
AcDbEntity
  8
sk3
100
AcDbCircle
 10
43.00000000000006
 20
-26.99999867990002
 30
0.0
 40
1.0
100
AcDbArc
 50
180.0
 51
270.0
  0
ARC
  5
943EF
330
1F
100
AcDbEntity
  8
sk3
100
AcDbCircle
 10
29.17735573010003
 20
-19.6999986799
 30
0.0
 40
0.8
100
AcDbArc
 50
245.0000000000003
 51
270.0
  0
ARC
  5
943F0
330
1F
100
AcDbEntity
  8
sk3
100
AcDbCircle
 10
39.28689076480003
 20
-19.84999867990001
 30
0.0
 40
0.8
100
AcDbArc
 50
90.0
 51
114.9999999999997
  0
ARC
  5
943F1
330
1F
100
AcDbEntity
  8
sk3
100
AcDbCircle
 10
35.82264426990008
 20
-19.6999986799
 30
0.0
 40
0.8
100
AcDbArc
 50
270.0
 51
294.9999999999997
  0
DIMENSION
  5
943F2
102
{ACAD_XDICTIONARY
360
943F3
102
}
102
{ACAD_REACTORS
330
943F4
102
}
330
1F
100
AcDbEntity
  8
2
100
AcDbDimension
  2
*D18844
 10
63.49999999999994
 20
109.9984637722732
 30
0.0
 11
31.74999999999997
 21
114.0484637722732
 31
0.0
 70
    32
 71
     5
 42
63.5
  3
コピー - ISO-25
100
AcDbAlignedDimension
 13
0.0
 23
46.4189999989
 33
0.0
 14
63.49999999999994
 24
75.39999999887512
 34
0.0
 50
0.0
100
AcDbRotatedDimension
1001
ACAD
1000
DSTYLE
1002
{
1070
   170
1070
     1
1070
   171
1070
     3
1070
   143
1040
0.0393700787401575
1070
   285
1070
     4
1070
     4
1000
"
1070
   271
1070
     8
1070
    40
1040
1.0
1002
}
1001
ACAD_DSTYLE_DIMINSPECT
1070
   393
1070
     0
1070
   394
1070
     0
1070
   395
1000

1070
   396
1000

  0
DIMENSION
  5
943F5
102
{ACAD_XDICTIONARY
360
943F6
102
}
102
{ACAD_REACTORS
330
943F7
102
}
330
1F
100
AcDbEntity
  8
sk2
100
AcDbDimension
  2
*D18955
 10
42.00000000000001
 20
-89.94251898993658
 30
0.0
 11
21.00000000000001
 21
-85.89251898993659
 31
0.0
 70
    32
 71
     5
 42
42.0
  3
コピー - ISO-25
100
AcDbAlignedDimension
 13
0.0
 23
-46.41899868210001
 33
0.0
 14
42.00000000000001
 24
-26.99999867990002
 34
0.0
 50
0.0
100
AcDbRotatedDimension
1001
ACAD
1000
DSTYLE
1002
{
1070
   170
1070
     1
1070
   171
1070
     3
1070
   143
1040
0.0393700787401575
1070
   285
1070
     4
1070
     4
1000
"
1070
   271
1070
     8
1070
    40
1040
1.0
1002
}
1001
ACAD_DSTYLE_DIMINSPECT
1070
   393
1070
     0
1070
   394
1070
     0
1070
   395
1000

1070
   396
1000

  0
DIMENSION
  5
943F8
330
1F
100
AcDbEntity
  8
sk2
100
AcDbDimension
  2
*D19066
 10
-19.55706845840905
 20
-48.41899868210001
 30
0.0
 11
-19.55706845840905
 21
-0.0832933704160439
 31
0.0
 70
   160
  1
%%C<>
 71
     5
 42
96.83799999999999
  3
コピー - ISO-25
100
AcDbAlignedDimension
 13
2.0
 23
48.41900131789998
 33
0.0
 14
2.0
 24
-48.41899868210001
 34
0.0
 50
90.0
100
AcDbRotatedDimension
1001
ACAD
1000
DSTYLE
1002
{
1070
   170
1070
     1
1070
   171
1070
     3
1070
   143
1040
0.0393700787401575
1070
   285
1070
     4
1070
     4
1000
%%c[]"
1070
   271
1070
     8
1070
    40
1040
1.0
1002
}
1001
ACAD_DSTYLE_DIMINSPECT
1070
   393
1070
     0
1070
   394
1070
     0
1070
   395
1000

1070
   396
1000

  0
DIMENSION
  5
943F9
102
{ACAD_XDICTIONARY
360
943FA
102
}
102
{ACAD_REACTORS
330
943FB
102
}
330
1F
100
AcDbEntity
  8
sk2
100
AcDbDimension
  2
*D19177
 10
-10.04004119204327
 20
-19.0499986799
 30
0.0
 11
-10.04004119204327
 21
-0.3632059370738716
 31
0.0
 70
   160
  1
%%C<>
 71
     5
 42
38.0999999978
  3
コピー - ISO-25
100
AcDbAlignedDimension
 13
8.000000000000056
 23
19.05000131789995
 33
0.0
 14
8.000000000000056
 24
-19.0499986799
 34
0.0
 50
90.0
100
AcDbRotatedDimension
1001
ACAD
1000
DSTYLE
1002
{
1070
   170
1070
     1
1070
   171
1070
     3
1070
   143
1040
0.0393700787401575
1070
   285
1070
     4
1070
     4
1000
%%c[]"
1070
   271
1070
     8
1070
    40
1040
1.0
1002
}
1001
ACAD_DSTYLE_DIMINSPECT
1070
   393
1070
     0
1070
   394
1070
     0
1070
   395
1000

1070
   396
1000

  0
DIMENSION
  5
943FC
330
1F
100
AcDbEntity
  8
2
100
AcDbDimension
  2
*D19288
 10
89.90679386709524
 20
-76.19999999889995
 30
0.0
 11
85.85679386709525
 21
-1.749999999999999
 31
0.0
 70
    32
  1
%%C<>
 71
     5
 42
152.3999999978
  3
コピー - ISO-25
100
AcDbAlignedDimension
 13
62.69999999999999
 23
76.19999999889995
 33
0.0
 14
62.69999999999999
 24
-76.19999999889995
 34
0.0
 50
90.0
100
AcDbRotatedDimension
1001
ACAD
1000
DSTYLE
1002
{
1070
   170
1070
     1
1070
   171
1070
     3
1070
   143
1040
0.0393700787401575
1070
   285
1070
     4
1070
     4
1000
%%c[]"
1070
   344
1005
87D73
1070
   271
1070
     8
1070
   173
1070
     1
1070
    40
1040
1.0
1070
    76
1070
     1
1002
}
1001
ACAD_DSTYLE_DIMINSPECT
1070
   393
1070
     0
1070
   394
1070
     0
1070
   395
1000

1070
   396
1000

  0
LINE
  5
943FF
330
1F
100
AcDbEntity
  8
1
100
AcDbLine
 10
52.02618060339997
 20
-75.3999986822
 30
0.0
 11
55.71384718529998
 21
-75.3999986822
 31
0.0
  0
LINE
  5
94400
330
1F
100
AcDbEntity
  8
1
100
AcDbLine
 10
51.9738233841
 20
-75.39954176770002
 30
0.0
 11
52.02618060339997
 21
-75.3999986822
 31
0.0
  0
LINE
  5
94401
330
1F
100
AcDbEntity
  8
1
100
AcDbLine
 10
40.1282872214
 20
-75.19277716479999
 30
0.0
 11
51.9738233841
 21
-75.39954176770002
 31
0.0
  0
LINE
  5
94402
330
1F
100
AcDbEntity
  8
1
100
AcDbLine
 10
49.43442703559997
 20
72.8149075536
 30
0.0
 11
51.70815514870003
 21
74.14286665909995
 31
0.0
  0
LINE
  5
94403
330
1F
100
AcDbEntity
  8
1
100
AcDbLine
 10
48.12606477269998
 20
72.72018503459998
 30
0.0
 11
48.89662520569999
 21
73.00743305560001
 31
0.0
  0
LINE
  5
94404
330
1F
100
AcDbEntity
  8
1
100
AcDbLine
 10
13.43987587020001
 20
-48.41899868220004
 30
0.0
 11
2.0
 21
-48.41899868220004
 31
0.0
  0
LINE
  5
94405
330
1F
100
AcDbEntity
  8
1
100
AcDbLine
 10
37.7231883078
 20
-73.9139633884
 30
0.0
 11
21.31282802739997
 21
-50.47754006409999
 31
0.0
  0
LINE
  5
94406
330
1F
100
AcDbEntity
  8
1
100
AcDbLine
 10
0.0
 20
-46.41899736330002
 30
0.0
 11
0.0
 21
-8.937498682200015
 31
0.0
  0
LINE
  5
94407
330
1F
100
AcDbEntity
  8
1
100
AcDbLine
 10
0.0
 20
8.937501317799984
 30
0.0
 11
0.0
 21
46.4189999989
 31
0.0
  0
LINE
  5
94408
330
1F
100
AcDbEntity
  8
1
100
AcDbLine
 10
37.7231883078
 20
73.91396602399999
 30
0.0
 11
21.31282802739997
 21
50.47754269969999
 31
0.0
  0
LINE
  5
94409
330
1F
100
AcDbEntity
  8
1
100
AcDbLine
 10
9.524999999999975
 20
6.937501317799982
 30
0.0
 11
9.524999999999975
 21
-6.937498682200013
 31
0.0
  0
LINE
  5
9440A
330
1F
100
AcDbEntity
  8
1
100
AcDbLine
 10
0.0
 20
8.937501317799984
 30
0.0
 11
1.0
 21
7.937501317799982
 31
0.0
  0
LINE
  5
9440B
330
1F
100
AcDbEntity
  8
1
100
AcDbLine
 10
8.524999999999977
 20
7.937501317799982
 30
0.0
 11
9.524999999999975
 21
6.937501317799982
 31
0.0
  0
LINE
  5
9440C
330
1F
100
AcDbEntity
  8
1
100
AcDbLine
 10
1.0
 20
-7.937498682200013
 30
0.0
 11
0.0
 21
-8.937498682200015
 31
0.0
  0
LINE
  5
9440D
330
1F
100
AcDbEntity
  8
1
100
AcDbLine
 10
1.0
 20
-7.937498682200013
 30
0.0
 11
8.524999999999977
 21
-7.937498682200013
 31
0.0
  0
LINE
  5
9440E
330
1F
100
AcDbEntity
  8
1
100
AcDbLine
 10
9.524999999999975
 20
-6.937498682200013
 30
0.0
 11
8.524999999999977
 21
-7.937498682200013
 31
0.0
  0
LINE
  5
9440F
330
1F
100
AcDbEntity
  8
1
100
AcDbLine
 10
1.0
 20
7.937501317799982
 30
0.0
 11
8.524999999999977
 21
7.937501317799982
 31
0.0
  0
LINE
  5
94410
330
1F
100
AcDbEntity
  8
1
100
AcDbLine
 10
47.81670095659996
 20
72.93139986919995
 30
0.0
 11
47.66400059209998
 21
74.48335361139999
 31
0.0
  0
LINE
  5
94411
330
1F
100
AcDbEntity
  8
1
100
AcDbLine
 10
51.9738233841
 20
75.3936944175
 30
0.0
 11
51.9738233841
 21
75.39954440329996
 31
0.0
  0
LINE
  5
94412
330
1F
100
AcDbEntity
  8
1
100
AcDbLine
 10
52.02618060339997
 20
75.40000131779999
 30
0.0
 11
52.02618060339997
 21
75.39398786250005
 31
0.0
  0
LINE
  5
94413
330
1F
100
AcDbEntity
  8
1
100
AcDbLine
 10
61.56677218020004
 20
63.72517134319998
 30
0.0
 11
61.56677218020004
 21
61.9470446939
 31
0.0
  0
LINE
  5
94414
330
1F
100
AcDbEntity
  8
1
100
AcDbLine
 10
61.71384718529999
 20
63.98565552239995
 30
0.0
 11
61.71384718529999
 21
-69.39999866870002
 31
0.0
  0
LINE
  5
94415
330
1F
100
AcDbEntity
  8
1
100
AcDbLine
 10
48.37327643589997
 20
67.94850581309995
 30
0.0
 11
47.68170321829997
 21
69.23470158489999
 31
0.0
  0
LINE
  5
94416
330
1F
100
AcDbEntity
  8
1
100
AcDbLine
 10
48.3019395947
 20
68.95454994749997
 30
0.0
 11
48.87341288189997
 21
67.85404101569998
 31
0.0
  0
LINE
  5
94417
330
1F
100
AcDbEntity
  8
1
100
AcDbLine
 10
13.43987587020001
 20
48.4190013178
 30
0.0
 11
2.0
 21
48.4190013178
 31
0.0
  0
LINE
  5
94418
330
1F
100
AcDbEntity
  8
1
100
AcDbLine
 10
48.81466088359997
 20
72.64135297579997
 30
0.0
 11
49.43442703559997
 21
72.8149075536
 31
0.0
  0
LINE
  5
94419
330
1F
100
AcDbEntity
  8
1
100
AcDbLine
 10
57.07547864909997
 20
67.1257118857
 30
0.0
 11
56.88732741519999
 21
67.1257118857
 31
0.0
  0
LINE
  5
9441A
330
1F
100
AcDbEntity
  8
1
100
AcDbLine
 10
55.35027377100004
 20
67.28660869200003
 30
0.0
 11
55.1621225371
 21
67.28660869200003
 31
0.0
  0
LINE
  5
9441B
330
1F
100
AcDbEntity
  8
1
100
AcDbLine
 10
55.55880865609998
 20
67.38946055209999
 30
0.0
 11
55.74695988999997
 21
67.38946055209999
 31
0.0
  0
LINE
  5
9441C
330
1F
100
AcDbEntity
  8
1
100
AcDbLine
 10
58.07665848670001
 20
68.54756449579998
 30
0.0
 11
57.88850725280003
 21
68.54756449579998
 31
0.0
  0
LINE
  5
9441D
330
1F
100
AcDbEntity
  8
1
100
AcDbLine
 10
57.90722615489997
 20
67.93494927019998
 30
0.0
 11
57.70752232320001
 21
67.93500026739997
 31
0.0
  0
LINE
  5
9441E
330
1F
100
AcDbEntity
  8
1
100
AcDbLine
 10
42.68500084039994
 20
69.01039445409998
 30
0.0
 11
36.63445447780004
 21
71.16977653200001
 31
0.0
  0
LINE
  5
9441F
330
1F
100
AcDbEntity
  8
1
100
AcDbLine
 10
48.0903044443
 20
69.52884045560001
 30
0.0
 11
47.23696876049999
 21
69.52884045560001
 31
0.0
  0
LINE
  5
94420
330
1F
100
AcDbEntity
  8
1
100
AcDbLine
 10
48.0667996862
 20
69.57496075689999
 30
0.0
 11
47.18669104370003
 21
69.57496075689999
 31
0.0
  0
LINE
  5
94421
330
1F
100
AcDbEntity
  8
1
100
AcDbLine
 10
57.7938927239
 20
69.6735953732
 30
0.0
 11
57.60574148999999
 21
69.6735953732
 31
0.0
  0
LINE
  5
94422
330
1F
100
AcDbEntity
  8
1
100
AcDbLine
 10
56.76779609349996
 20
70.02746205220001
 30
0.0
 11
56.9559473274
 21
70.02746205220001
 31
0.0
  0
LINE
  5
94423
330
1F
100
AcDbEntity
  8
1
100
AcDbLine
 10
56.24142131029998
 20
70.4470981366
 30
0.0
 11
56.05327007640003
 21
70.4470981366
 31
0.0
  0
LINE
  5
94424
330
1F
100
AcDbEntity
  8
1
100
AcDbLine
 10
46.59134236059997
 20
70.7109078409
 30
0.0
 11
47.48913753569996
 21
70.7109078409
 31
0.0
  0
LINE
  5
94425
330
1F
100
AcDbEntity
  8
1
100
AcDbLine
 10
46.84724040650002
 20
71.76688798129998
 30
0.0
 11
47.77479105869999
 21
71.76688798129998
 31
0.0
  0
LINE
  5
94426
330
1F
100
AcDbEntity
  8
1
100
AcDbLine
 10
48.84470187379997
 20
72.42338765609995
 30
0.0
 11
47.95137884219996
 21
72.42338765609995
 31
0.0
  0
LINE
  5
94427
330
1F
100
AcDbEntity
  8
1
100
AcDbLine
 10
48.88835568050001
 20
72.44963649509998
 30
0.0
 11
47.99757932469996
 21
72.44963649509998
 31
0.0
  0
LINE
  5
94428
330
1F
100
AcDbEntity
  8
1
100
AcDbLine
 10
54.79568106239998
 20
69.48197333410004
 30
0.0
 11
54.80723365170002
 21
69.4819315629
 31
0.0
  0
LINE
  5
94429
330
1F
100
AcDbEntity
  8
1
100
AcDbLine
 10
48.81466088359997
 20
72.64135297579997
 30
0.0
 11
48.12606477269998
 21
72.72018503459998
 31
0.0
  0
LINE
  5
9442A
330
1F
100
AcDbEntity
  8
1
100
AcDbLine
 10
48.3019395947
 20
68.95454994749997
 30
0.0
 11
47.9397409458
 21
69.03756236179997
 31
0.0
  0
LINE
  5
9442B
330
1F
100
AcDbEntity
  8
1
100
AcDbLine
 10
48.89662520569999
 20
73.00743305560001
 30
0.0
 11
49.19725335679999
 21
72.92951373789998
 31
0.0
  0
LINE
  5
9442C
330
1F
100
AcDbEntity
  8
1
100
AcDbLine
 10
40.1282872214
 20
75.19277980039993
 30
0.0
 11
51.9738233841
 21
75.39954440329996
 31
0.0
  0
LINE
  5
9442D
330
1F
100
AcDbEntity
  8
1
100
AcDbLine
 10
51.9738233841
 20
75.39954440329996
 30
0.0
 11
52.02618060339997
 21
75.40000131779999
 31
0.0
  0
LINE
  5
9442E
330
1F
100
AcDbEntity
  8
1
100
AcDbLine
 10
52.02618060339997
 20
75.40000131779999
 30
0.0
 11
53.38512635829999
 21
75.40000131779999
 31
0.0
  0
LINE
  5
9442F
330
1F
100
AcDbEntity
  8
1
100
AcDbLine
 10
54.19752157690002
 20
75.54116356029999
 30
0.0
 11
53.64495989469997
 21
75.54116356029999
 31
0.0
  0
LINE
  5
94430
330
1F
100
AcDbEntity
  8
1
100
AcDbLine
 10
54.9372373251
 20
75.7335473768
 30
0.0
 11
54.38555179769998
 21
75.7335473768
 31
0.0
  0
LINE
  5
94431
330
1F
100
AcDbEntity
  8
1
100
AcDbLine
 10
54.96401954469996
 20
75.73332072509998
 30
0.0
 11
54.9372364834
 21
75.7335473768
 31
0.0
  0
ARC
  5
94432
330
1F
100
AcDbEntity
  8
1
100
AcDbCircle
 10
16.3979157617
 20
-53.91899868220003
 30
0.0
 40
6.0
100
AcDbArc
 50
35.00000000000047
 51
109.1881364537007
  0
ARC
  5
94433
330
1F
100
AcDbEntity
  8
1
100
AcDbCircle
 10
16.3979157617
 20
53.91900131779999
 30
0.0
 40
6.0
100
AcDbArc
 50
250.8118635462993
 51
324.9999999999996
  0
ARC
  5
94434
330
1F
100
AcDbEntity
  8
1
100
AcDbCircle
 10
55.71384718529998
 20
-69.39999868220002
 30
0.0
 40
6.0
100
AcDbArc
 50
270.0
 51
0.0
  0
ARC
  5
94435
330
1F
100
AcDbEntity
  8
1
100
AcDbCircle
 10
13.43987587020001
 20
45.41900131779999
 30
0.0
 40
3.0
100
AcDbArc
 50
70.81186354629932
 51
90.0
  0
ARC
  5
94436
330
1F
100
AcDbEntity
  8
1
100
AcDbCircle
 10
13.43987587020001
 20
-45.41899868220002
 30
0.0
 40
3.0
100
AcDbArc
 50
270.0
 51
289.1881364537007
  0
ARC
  5
94437
330
1F
100
AcDbEntity
  8
1
100
AcDbCircle
 10
40.18064444069994
 20
72.19323671500005
 30
0.0
 40
3.0
100
AcDbArc
 50
91.00000000000015
 51
144.9999999999995
  0
ARC
  5
94438
330
1F
100
AcDbEntity
  8
1
100
AcDbCircle
 10
40.18064444069994
 20
-72.19323407940001
 30
0.0
 40
3.0
100
AcDbArc
 50
215.0000000000005
 51
268.9999999999998
  0
ARC
  5
94439
330
1F
100
AcDbEntity
  8
1
100
AcDbCircle
 10
2.0
 20
46.41900131779999
 30
0.0
 40
2.0
100
AcDbArc
 50
90.0
 51
180.0
  0
ARC
  5
9443A
330
1F
100
AcDbEntity
  8
1
100
AcDbCircle
 10
2.0
 20
-46.41899868220003
 30
0.0
 40
2.0
100
AcDbArc
 50
180.0
 51
270.0
  0
SPLINE
  5
9443B
330
1F
100
AcDbEntity
  8
1
100
AcDbSpline
210
0.0
220
0.0
230
1.0
 70
     8
 71
     3
 72
    15
 73
    11
 74
     0
 42
0.000000001
 43
0.0000000001
 40
0.0
 40
0.0
 40
0.0
 40
0.0
 40
0.1246275983
 40
0.2493687812
 40
0.3743268631
 40
0.499488389
 40
0.6247628640000002
 40
0.7500137458000001
 40
0.8751083174999999
 40
1.0
 40
1.0
 40
1.0
 40
1.0
 10
54.79568106189997
 20
69.48198063899997
 30
0.0
 10
54.76028652819997
 20
69.48197816549996
 30
0.0
 10
54.68892716980002
 20
69.47025134679996
 30
0.0
 10
54.59353575409997
 20
69.41933564560002
 30
0.0
 10
54.51922311859999
 20
69.34046392739998
 30
0.0
 10
54.47386651300002
 20
69.241912367
 30
0.0
 10
54.46214788200001
 20
69.13398158519999
 30
0.0
 10
54.4853053988
 20
69.02791392079996
 30
0.0
 10
54.54082663880001
 20
68.93484878809999
 30
0.0
 10
54.59591609730001
 20
68.8877434076
 30
0.0
 10
54.62624873060001
 20
68.86935810849997
 30
0.0
  0
SPLINE
  5
9443C
330
1F
100
AcDbEntity
  8
1
100
AcDbSpline
210
0.0
220
0.0
230
1.0
 70
     8
 71
     3
 72
    11
 73
     7
 74
     0
 42
0.000000001
 43
0.0000000001
 40
0.0
 40
0.0
 40
0.0
 40
0.0
 40
0.2503031361
 40
0.5003543463
 40
0.7502267713
 40
1.0
 40
1.0
 40
1.0
 40
1.0
 10
53.84849191240004
 20
71.18301987209997
 30
0.0
 10
54.00627270710001
 20
71.33714400639997
 30
0.0
 10
54.35232952759998
 20
71.61554048060003
 30
0.0
 10
54.94100607480004
 20
71.92504881880005
 30
0.0
 10
55.57772932429998
 20
72.11559629999995
 30
0.0
 10
56.01919196039998
 20
72.15845777530003
 30
0.0
 10
56.2392902564
 20
72.1584609034
 30
0.0
  0
SPLINE
  5
9443D
330
1F
100
AcDbEntity
  8
1
100
AcDbSpline
210
0.0
220
0.0
230
1.0
 70
     8
 71
     3
 72
    15
 73
    11
 74
     0
 42
0.000000001
 43
0.0000000001
 40
0.0
 40
0.0
 40
0.0
 40
0.0
 40
0.1251731296
 40
0.2504210325
 40
0.3756832357
 40
0.5008557612
 40
0.6258752570000004
 40
0.7507163148
 40
0.8754016508999999
 40
1.0
 40
1.0
 40
1.0
 40
1.0
 10
54.90901449350002
 20
67.74332723110001
 30
0.0
 10
54.89440859769995
 20
67.71847053399992
 30
0.0
 10
54.8716257786
 20
67.66463131709997
 30
0.0
 10
54.85959432190004
 20
67.57798630130003
 30
0.0
 10
54.87034474580003
 20
67.49111810409996
 30
0.0
 10
54.90319679839996
 20
67.41005269179999
 30
0.0
 10
54.95588110149999
 20
67.34034645579999
 30
0.0
 10
55.02481203099996
 20
67.28680756429998
 30
0.0
 10
55.10517096920001
 20
67.25312405019997
 30
0.0
 10
55.16287441449998
 20
67.24546554639999
 30
0.0
 10
55.19157235289998
 20
67.24546324399995
 30
0.0
  0
SPLINE
  5
9443E
330
1F
100
AcDbEntity
  8
1
100
AcDbSpline
210
0.0
220
0.0
230
1.0
 70
     8
 71
     3
 72
    11
 73
     7
 74
     0
 42
0.000000001
 43
0.0000000001
 40
0.0
 40
0.0
 40
0.0
 40
0.0
 40
0.250479597
 40
0.5005838958
 40
0.7503826295
 40
1.0
 40
1.0
 40
1.0
 40
1.0
 10
56.461485907
 20
66.96982446769999
 30
0.0
 10
56.42610493400002
 20
67.03290049179995
 30
0.0
 10
56.33830329519998
 20
67.15019793529996
 30
0.0
 10
56.16565036140002
 20
67.28511963029996
 30
0.0
 10
55.96395421149996
 20
67.37012396119997
 30
0.0
 10
55.81903242900001
 20
67.38946336369997
 30
0.0
 10
55.74695989039998
 20
67.38946015579995
 30
0.0
  0
SPLINE
  5
9443F
330
1F
100
AcDbEntity
  8
1
100
AcDbSpline
210
0.0
220
0.0
230
1.0
 70
     8
 71
     3
 72
    11
 73
     7
 74
     0
 42
0.000000001
 43
0.0000000001
 40
0.0
 40
0.0
 40
0.0
 40
0.0
 40
0.2504866026
 40
0.5005799296
 40
0.7503832890000001
 40
1.0
 40
1.0
 40
1.0
 40
1.0
 10
56.461485907
 20
66.96982446769999
 30
0.0
 10
56.47564106689998
 20
66.9445891185
 30
0.0
 10
56.51076605219998
 20
66.8976609307
 30
0.0
 10
56.5798429714
 20
66.84368942449999
 30
0.0
 10
56.66053173159998
 20
66.8096754147
 30
0.0
 10
56.71851113230002
 20
66.80194420200002
 30
0.0
 10
56.74734490909997
 20
66.80194195819996
 30
0.0
  0
SPLINE
  5
94440
330
1F
100
AcDbEntity
  8
1
100
AcDbSpline
210
0.0
220
0.0
230
1.0
 70
     8
 71
     3
 72
    15
 73
    11
 74
     0
 42
0.000000001
 43
0.0000000001
 40
0.0
 40
0.0
 40
0.0
 40
0.0
 40
0.1250298983
 40
0.2501341916
 40
0.3752826454
 40
0.5004151761
 40
0.6254847165000001
 40
0.7504536048999999
 40
0.8752886665
 40
1.0
 40
1.0
 40
1.0
 40
1.0
 10
54.90901449350002
 20
67.74332723110001
 30
0.0
 10
54.9361426831
 20
67.78949469679995
 30
0.0
 10
54.98152500920003
 20
67.88741820989995
 30
0.0
 10
55.01985746790001
 20
68.04450152390001
 30
0.0
 10
55.02719032730002
 20
68.20613022729998
 30
0.0
 10
55.0031919457
 20
68.36610696049996
 30
0.0
 10
54.94879626470002
 20
68.51837392380002
 30
0.0
 10
54.86603466690002
 20
68.65714990079999
 30
0.0
 10
54.75812255649998
 20
68.77713108239999
 30
0.0
 10
54.67192480909996
 20
68.84167279809995
 30
0.0
 10
54.62624873060001
 20
68.86935810849997
 30
0.0
  0
SPLINE
  5
94441
330
1F
100
AcDbEntity
  8
1
100
AcDbSpline
210
0.0
220
0.0
230
1.0
 70
     8
 71
     3
 72
    15
 73
    11
 74
     0
 42
0.000000001
 43
0.0000000001
 40
0.0
 40
0.0
 40
0.0
 40
0.0
 40
0.1246781799
 40
0.249388496
 40
0.3741995334000001
 40
0.4991300796
 40
0.6241929622
 40
0.7493813053000002
 40
0.8746591581
 40
1.0
 40
1.0
 40
1.0
 40
1.0
 10
54.80723365199998
 20
69.48192252479995
 30
0.0
 10
54.86020381590002
 20
69.48192479860001
 30
0.0
 10
54.9664479109
 20
69.49230486169992
 30
0.0
 10
55.11958868829998
 20
69.53845472249998
 30
0.0
 10
55.26106048499997
 20
69.61341996430002
 30
0.0
 10
55.3854777153
 20
69.71440086839999
 30
0.0
 10
55.48820136500001
 20
69.83758745310004
 30
0.0
 10
55.56537065890005
 20
69.97838035389998
 30
0.0
 10
55.61411068890004
 20
70.1314186829
 30
0.0
 10
55.62642880869997
 20
70.23796840500001
 30
0.0
 10
55.62742856830002
 20
70.29121071859998
 30
0.0
  0
SPLINE
  5
94442
330
1F
100
AcDbEntity
  8
1
100
AcDbSpline
210
0.0
220
0.0
230
1.0
 70
     8
 71
     3
 72
    15
 73
    11
 74
     0
 42
0.000000001
 43
0.0000000001
 40
0.0
 40
0.0
 40
0.0
 40
0.0
 40
0.1248110689
 40
0.2497259875
 40
0.3747372022
 40
0.4998110796
 40
0.6249123229000002
 40
0.7500018096
 40
0.8750417342
 40
1.0
 40
1.0
 40
1.0
 40
1.0
 10
53.84849191240004
 20
71.18301987209997
 30
0.0
 10
53.70900248230004
 20
71.04676318970001
 30
0.0
 10
53.45262109339995
 20
70.74972666629998
 30
0.0
 10
53.14920355809999
 20
70.24588986869997
 30
0.0
 10
52.93489841619997
 20
69.69756588759998
 30
0.0
 10
52.81606383730002
 20
69.12071566359998
 30
0.0
 10
52.79606542939998
 20
68.5319723997
 30
0.0
 10
52.87551629450002
 20
67.94828458860003
 30
0.0
 10
53.05201514730004
 20
67.38668209369996
 30
0.0
 10
53.23134941569998
 20
67.03721342019996
 30
0.0
 10
53.3348789204
 20
66.87170038419997
 30
0.0
  0
SPLINE
  5
94443
330
1F
100
AcDbEntity
  8
1
100
AcDbSpline
210
0.0
220
0.0
230
1.0
 70
     8
 71
     3
 72
    11
 73
     7
 74
     0
 42
0.000000001
 43
0.0000000001
 40
0.0
 40
0.0
 40
0.0
 40
0.0
 40
0.2493724826
 40
0.4991082902000001
 40
0.7493605645
 40
1.0
 40
1.0
 40
1.0
 40
1.0
 10
55.95556230830003
 20
70.61498064599994
 30
0.0
 10
55.91337554300003
 20
70.61498392889996
 30
0.0
 10
55.82803163810002
 20
70.59818874289994
 30
0.0
 10
55.71979095650004
 20
70.52637045899993
 30
0.0
 10
55.64646217530004
 20
70.41891319540003
 30
0.0
 10
55.62822461619997
 20
70.33360434329998
 30
0.0
 10
55.62742856830002
 20
70.29121071859998
 30
0.0
  0
SPLINE
  5
94444
330
1F
100
AcDbEntity
  8
1
100
AcDbSpline
210
0.0
220
0.0
230
1.0
 70
     8
 71
     3
 72
     9
 73
     5
 74
     0
 42
0.000000001
 43
0.0000000001
 40
0.0
 40
0.0
 40
0.0
 40
0.0
 40
0.4998147769
 40
1.0
 40
1.0
 40
1.0
 40
1.0
 10
56.9559473269
 20
70.02746244849999
 30
0.0
 10
57.02477490449997
 20
70.02746551199999
 30
0.0
 10
57.16304268409999
 20
70.04503328210001
 30
0.0
 10
57.29242105339997
 20
70.09686652149998
 30
0.0
 10
57.35263344629998
 20
70.13031391220002
 30
0.0
  0
SPLINE
  5
94445
330
1F
100
AcDbEntity
  8
1
100
AcDbSpline
210
0.0
220
0.0
230
1.0
 70
     8
 71
     3
 72
     9
 73
     5
 74
     0
 42
0.000000001
 43
0.0000000001
 40
0.0
 40
0.0
 40
0.0
 40
0.0
 40
0.4998026049
 40
1.0
 40
1.0
 40
1.0
 40
1.0
 10
57.51133486449996
 20
70.1714593602
 30
0.0
 10
57.483799847
 20
70.17146156929999
 30
0.0
 10
57.4284828008
 20
70.16443245699997
 30
0.0
 10
57.37672306390004
 20
70.1436954573
 30
0.0
 10
57.35263344629998
 20
70.13031391220002
 30
0.0
  0
SPLINE
  5
94446
330
1F
100
AcDbEntity
  8
1
100
AcDbSpline
210
0.0
220
0.0
230
1.0
 70
     8
 71
     3
 72
    23
 73
    19
 74
     0
 42
0.000000001
 43
0.0000000001
 40
0.0
 40
0.0
 40
0.0
 40
0.0
 40
0.0622939121
 40
0.1246026544
 40
0.1869397467
 40
0.2493162273
 40
0.311739688
 40
0.374213615
 40
0.4367370912000001
 40
0.4993048845000001
 40
0.5619079081000004
 40
0.6245340198
 40
0.6871690747
 40
0.7497982064000001
 40
0.8124068241999998
 40
0.8749831406
 40
0.9375146845999999
 40
1.0
 40
1.0
 40
1.0
 40
1.0
 10
56.30964222340001
 20
72.1584609034
 30
0.0
 10
56.47895033800001
 20
72.15846330969998
 30
0.0
 10
56.81814794539997
 20
72.13316090029997
 30
0.0
 10
57.31533972940002
 20
72.02015087109998
 30
0.0
 10
57.79059509260003
 20
71.83455804229999
 30
0.0
 10
58.23334913490004
 20
71.58045918619994
 30
0.0
 10
58.6339395273
 20
71.26343015769998
 30
0.0
 10
58.98358114820002
 20
70.89042532479999
 30
0.0
 10
59.27462122780003
 20
70.46962305989994
 30
0.0
 10
59.5006887381
 20
70.01024598980001
 30
0.0
 10
59.65683676840001
 20
69.52235865109995
 30
0.0
 10
59.73964965250002
 20
69.01664781829999
 30
0.0
 10
59.74731843999999
 20
68.50418889279996
 30
0.0
 10
59.67967240930001
 20
67.99620234349996
 30
0.0
 10
59.53820221339999
 20
67.50381645159999
 30
0.0
 10
59.32596686190004
 20
67.03779696369998
 30
0.0
 10
59.04772586450002
 20
66.60844117290003
 30
0.0
 10
58.821926835
 20
66.35257348579995
 30
0.0
 10
58.70044056739995
 20
66.23390273220002
 30
0.0
  0
SPLINE
  5
94447
330
1F
100
AcDbEntity
  8
1
100
AcDbSpline
210
0.0
220
0.0
230
1.0
 70
     8
 71
     3
 72
    11
 73
     7
 74
     0
 42
0.000000001
 43
0.0000000001
 40
0.0
 40
0.0
 40
0.0
 40
0.0
 40
0.249783767
 40
0.4996929562
 40
0.7497554986
 40
1.0
 40
1.0
 40
1.0
 40
1.0
 10
57.08436085390002
 20
65.34755734340001
 30
0.0
 10
57.23556916759998
 20
65.38279441110001
 30
0.0
 10
57.53363912899999
 20
65.4740785094
 30
0.0
 10
57.95780305979999
 20
65.67047090239999
 30
0.0
 10
58.35163547710005
 20
65.92275523529997
 30
0.0
 10
58.5891709982
 20
66.12521189910001
 30
0.0
 10
58.70044056739995
 20
66.23390273220002
 30
0.0
  0
SPLINE
  5
94448
330
1F
100
AcDbEntity
  8
1
100
AcDbSpline
210
0.0
220
0.0
230
1.0
 70
     8
 71
     3
 72
    15
 73
    11
 74
     0
 42
0.000000001
 43
0.0000000001
 40
0.0
 40
0.0
 40
0.0
 40
0.0
 40
0.1248120904
 40
0.2497287215
 40
0.3747418736
 40
0.4998174849
 40
0.6249195800000003
 40
0.7500084842
 40
0.8750460165999999
 40
1.0
 40
1.0
 40
1.0
 40
1.0
 10
53.91884387940002
 20
71.18301987209997
 30
0.0
 10
53.77839994480002
 20
71.04583080629999
 30
0.0
 10
53.52041763069997
 20
70.7465871503
 30
0.0
 10
53.2157902127
 20
70.2387355993
 30
0.0
 10
53.00160756960003
 20
69.68599498929997
 30
0.0
 10
52.8843131461
 20
69.10467573299996
 30
0.0
 10
52.86727106179998
 20
68.5117697027
 30
0.0
 10
52.95101839710003
 20
67.92457921319999
 30
0.0
 10
53.13299474199997
 20
67.36047098489996
 30
0.0
 10
53.3166272313
 20
67.01018459239998
 30
0.0
 10
53.42240684159998
 20
66.84452318130002
 30
0.0
  0
SPLINE
  5
94449
330
1F
100
AcDbEntity
  8
1
100
AcDbSpline
210
0.0
220
0.0
230
1.0
 70
     8
 71
     3
 72
    11
 73
     7
 74
     0
 42
0.000000001
 43
0.0000000001
 40
0.0
 40
0.0
 40
0.0
 40
0.0
 40
0.2503031361
 40
0.5003543463
 40
0.7502267713
 40
1.0
 40
1.0
 40
1.0
 40
1.0
 10
53.91884387940002
 20
71.18301987209997
 30
0.0
 10
54.07662467409998
 20
71.33714400639997
 30
0.0
 10
54.4226814946
 20
71.61554048060003
 30
0.0
 10
55.01135804179996
 20
71.92504881880005
 30
0.0
 10
55.6480812913
 20
72.11559629999995
 30
0.0
 10
56.08954392739995
 20
72.15845777530003
 30
0.0
 10
56.30964222340001
 20
72.1584609034
 30
0.0
  0
SPLINE
  5
9444A
330
1F
100
AcDbEntity
  8
1
100
AcDbSpline
210
0.0
220
0.0
230
1.0
 70
     8
 71
     3
 72
    27
 73
    23
 74
     0
 42
0.000000001
 43
0.0000000001
 40
0.0
 40
0.0
 40
0.0
 40
0.0
 40
0.0625116057
 40
0.0938263325
 40
0.1251571108
 40
0.1877782673
 40
0.2504266164
 40
0.2817904862
 40
0.3131516196
 40
0.3757780917
 40
0.4383587257000002
 40
0.5008783178
 40
0.5633309816
 40
0.625721028
 40
0.6880622581999999
 40
0.7192590464000001
 40
0.7504520005
 40
0.8127638618
 40
0.8750997509999999
 40
0.9063215679999998
 40
0.9375553329
 40
1.0
 40
1.0
 40
1.0
 40
1.0
 10
54.72223955039999
 20
70.39475392499998
 30
0.0
 10
54.6125909438
 20
70.28764648779997
 30
0.0
 10
54.46332875159999
 20
70.11002765329999
 30
0.0
 10
54.30226971189997
 20
69.84838766770002
 30
0.0
 10
54.16731965830003
 20
69.57196472549995
 30
0.0
 10
54.05030282560001
 20
69.20351317439997
 30
0.0
 10
54.00715165780002
 20
68.81925572069997
 30
0.0
 10
54.01777253170002
 20
68.51159141369999
 30
0.0
 10
54.05827212900002
 20
68.20648174949997
 30
0.0
 10
54.16452213259996
 20
67.83479970729992
 30
0.0
 10
54.37600780700001
 20
67.42270243619998
 30
0.0
 10
54.6634093733
 20
67.05988851310002
 30
0.0
 10
55.01573598019995
 20
66.7604276669
 30
0.0
 10
55.41933839269996
 20
66.53581719079994
 30
0.0
 10
55.78596204859997
 20
66.41815963329998
 30
0.0
 10
56.08819878990003
 20
66.36860674599995
 30
0.0
 10
56.39377951050001
 20
66.34902459509999
 30
0.0
 10
56.77719739319996
 20
66.38130651339998
 30
0.0
 10
57.14685369659997
 20
66.48830528649995
 30
0.0
 10
57.42546201780005
 20
66.61591776069997
 30
0.0
 10
57.69035991200002
 20
66.77032400749999
 30
0.0
 10
57.8711364742
 20
66.91517593489999
 30
0.0
 10
57.98066766690005
 20
67.02216867930002
 30
0.0
  0
SPLINE
  5
9444B
330
1F
100
AcDbEntity
  8
1
100
AcDbSpline
210
0.0
220
0.0
230
1.0
 70
     8
 71
     3
 72
    15
 73
    11
 74
     0
 42
0.000000001
 43
0.0000000001
 40
0.0
 40
0.0
 40
0.0
 40
0.0
 40
0.1250298983
 40
0.2501341916
 40
0.3752826454
 40
0.5004151761
 40
0.6254847165000001
 40
0.7504536048999999
 40
0.8752886665
 40
1.0
 40
1.0
 40
1.0
 40
1.0
 10
57.7938927239
 20
69.6735953732
 30
0.0
 10
57.76676453430003
 20
69.62742790749996
 30
0.0
 10
57.7213822082
 20
69.52950439439996
 30
0.0
 10
57.68304974940003
 20
69.37242108039999
 30
0.0
 10
57.67571688999999
 20
69.21079237689998
 30
0.0
 10
57.69971527159999
 20
69.05081564379997
 30
0.0
 10
57.75411095269999
 20
68.89854868039998
 30
0.0
 10
57.83687255040002
 20
68.7597727035
 30
0.0
 10
57.9447846608
 20
68.63979152189995
 30
0.0
 10
58.03098240819998
 20
68.57524980619996
 30
0.0
 10
58.07665848670001
 20
68.54756449579998
 30
0.0
  0
SPLINE
  5
9444C
330
1F
100
AcDbEntity
  8
1
100
AcDbSpline
210
0.0
220
0.0
230
1.0
 70
     8
 71
     3
 72
     9
 73
     5
 74
     0
 42
0.000000001
 43
0.0000000001
 40
0.0
 40
0.0
 40
0.0
 40
0.0
 40
0.5005248820000002
 40
1.0
 40
1.0
 40
1.0
 40
1.0
 10
56.05327007640003
 20
70.4470981366
 30
0.0
 10
56.03282036429999
 20
70.48355520450002
 30
0.0
 10
55.97749274980003
 20
70.54918766869997
 30
0.0
 10
55.90146824019999
 20
70.58910239829998
 30
0.0
 10
55.86152393880002
 20
70.6011207029
 30
0.0
  0
SPLINE
  5
9444D
330
1F
100
AcDbEntity
  8
1
100
AcDbSpline
210
0.0
220
0.0
230
1.0
 70
     8
 71
     3
 72
    11
 73
     7
 74
     0
 42
0.000000001
 43
0.0000000001
 40
0.0
 40
0.0
 40
0.0
 40
0.0
 40
0.2496191969
 40
0.4994188778
 40
0.749516275
 40
1.0
 40
1.0
 40
1.0
 40
1.0
 10
56.76779608829997
 20
70.02746619790002
 30
0.0
 10
56.69572307960002
 20
70.02746341839998
 30
0.0
 10
56.55079852030002
 20
70.04679218179996
 30
0.0
 10
56.3491087082
 20
70.13180941810003
 30
0.0
 10
56.1764514579
 20
70.2667224288
 30
0.0
 10
56.08865160439997
 20
70.38402112310001
 30
0.0
 10
56.05327007640003
 20
70.4470981366
 30
0.0
  0
SPLINE
  5
9444E
330
1F
100
AcDbEntity
  8
1
100
AcDbSpline
210
0.0
220
0.0
230
1.0
 70
     8
 71
     3
 72
    15
 73
    11
 74
     0
 42
0.000000001
 43
0.0000000001
 40
0.0
 40
0.0
 40
0.0
 40
0.0
 40
0.1250896007
 40
0.2502772926
 40
0.3754811074
 40
0.5006438507
 40
0.6257008026
 40
0.750614293
 40
0.8753740304
 40
1.0
 40
1.0
 40
1.0
 40
1.0
 10
57.60574148999999
 20
69.6735953732
 30
0.0
 10
57.61833787769996
 20
69.6950322367
 30
0.0
 10
57.63874889240003
 20
69.7409483733
 30
0.0
 10
57.65313343189998
 20
69.81480040769998
 30
0.0
 10
57.65065241940004
 20
69.89004967919999
 30
0.0
 10
57.63141555219999
 20
69.96280599950001
 30
0.0
 10
57.59640683960004
 20
70.02936081829995
 30
0.0
 10
57.54740118019999
 20
70.08630916389996
 30
0.0
 10
57.4869485209
 20
70.13071922360001
 30
0.0
 10
57.44093927710003
 20
70.15048890340003
 30
0.0
 10
57.41721750449997
 20
70.1576241298
 30
0.0
  0
SPLINE
  5
9444F
330
1F
100
AcDbEntity
  8
1
100
AcDbSpline
210
0.0
220
0.0
230
1.0
 70
     8
 71
     3
 72
    15
 73
    11
 74
     0
 42
0.000000001
 43
0.0000000001
 40
0.0
 40
0.0
 40
0.0
 40
0.0
 40
0.1247076059
 40
0.2495476487
 40
0.3745148477
 40
0.4995848209000001
 40
0.6247177877000001
 40
0.7498645476000001
 40
0.874973839
 40
1.0
 40
1.0
 40
1.0
 40
1.0
 10
57.88850725280003
 20
68.54756449579998
 30
0.0
 10
57.84283248790001
 20
68.57524900999999
 30
0.0
 10
57.75663532310001
 20
68.6397921441
 30
0.0
 10
57.64871930470002
 20
68.75977000419999
 30
0.0
 10
57.56595903200002
 20
68.89854893910001
 30
0.0
 10
57.51156114859998
 20
69.05081491359999
 30
0.0
 10
57.48756517409995
 20
69.21079181569997
 30
0.0
 10
57.49489547180002
 20
69.37242250399996
 30
0.0
 10
57.53323293620002
 20
69.52950474599997
 30
0.0
 10
57.57861408049999
 20
69.6274292352
 30
0.0
 10
57.60574148999999
 20
69.6735953732
 30
0.0
  0
SPLINE
  5
94450
330
1F
100
AcDbEntity
  8
1
100
AcDbSpline
210
0.0
220
0.0
230
1.0
 70
     8
 71
     3
 72
    15
 73
    11
 74
     0
 42
0.000000001
 43
0.0000000001
 40
0.0
 40
0.0
 40
0.0
 40
0.0
 40
0.1251731296
 40
0.2504210325
 40
0.3756832357
 40
0.5008557612
 40
0.6258752570000004
 40
0.7507163148
 40
0.8754016508999999
 40
1.0
 40
1.0
 40
1.0
 40
1.0
 10
57.7938927239
 20
69.6735953732
 30
0.0
 10
57.80849861970001
 20
69.69845207029999
 30
0.0
 10
57.83128143879999
 20
69.75229128720002
 30
0.0
 10
57.84331289539998
 20
69.83893630289998
 30
0.0
 10
57.83256247149997
 20
69.92580450009995
 30
0.0
 10
57.79971041900001
 20
70.00686991239996
 30
0.0
 10
57.74702611589995
 20
70.07657614849995
 30
0.0
 10
57.6780951864
 20
70.13011503999996
 30
0.0
 10
57.59773624819993
 20
70.16379855409997
 30
0.0
 10
57.54003280289999
 20
70.17145705789997
 30
0.0
 10
57.51133486449996
 20
70.1714593602
 30
0.0
  0
SPLINE
  5
94451
330
1F
100
AcDbEntity
  8
1
100
AcDbSpline
210
0.0
220
0.0
230
1.0
 70
     8
 71
     3
 72
    15
 73
    11
 74
     0
 42
0.000000001
 43
0.0000000001
 40
0.0
 40
0.0
 40
0.0
 40
0.0
 40
0.1253366272
 40
0.250619583
 40
0.3758057504
 40
0.5008689206
 40
0.6257995024000002
 40
0.7506090806999999
 40
0.8753225931000001
 40
1.0
 40
1.0
 40
1.0
 40
1.0
 10
56.88732741519999
 20
67.1257118857
 30
0.0
 10
56.88832714239999
 20
67.17895247230001
 30
0.0
 10
56.9006468709
 20
67.285502227
 30
0.0
 10
56.94938168789997
 20
67.43854199930004
 30
0.0
 10
57.0265541901
 20
67.57933501560001
 30
0.0
 10
57.12927529909996
 20
67.7025228407
 30
0.0
 10
57.25369342149996
 20
67.80350226069995
 30
0.0
 10
57.39516497569997
 20
67.87846992039999
 30
0.0
 10
57.54830745479996
 20
67.92461711769999
 30
0.0
 10
57.65455244239999
 20
67.93499709089997
 30
0.0
 10
57.70752234089997
 20
67.93500002639996
 30
0.0
  0
SPLINE
  5
94452
330
1F
100
AcDbEntity
  8
1
100
AcDbSpline
210
0.0
220
0.0
230
1.0
 70
     8
 71
     3
 72
    11
 73
     7
 74
     0
 42
0.000000001
 43
0.0000000001
 40
0.0
 40
0.0
 40
0.0
 40
0.0
 40
0.250479597
 40
0.5005838958
 40
0.7503826295
 40
1.0
 40
1.0
 40
1.0
 40
1.0
 10
56.24142131029998
 20
70.4470981366
 30
0.0
 10
56.2768022833
 20
70.38402211250001
 30
0.0
 10
56.36460392219999
 20
70.26672466900001
 30
0.0
 10
56.53725685590001
 20
70.13180297399998
 30
0.0
 10
56.73895300579999
 20
70.04679864310003
 30
0.0
 10
56.88387478829998
 20
70.02745924049998
 30
0.0
 10
56.9559473269
 20
70.02746244849999
 30
0.0
  0
SPLINE
  5
94453
330
1F
100
AcDbEntity
  8
1
100
AcDbSpline
210
0.0
220
0.0
230
1.0
 70
     8
 71
     3
 72
     9
 73
     5
 74
     0
 42
0.000000001
 43
0.0000000001
 40
0.0
 40
0.0
 40
0.0
 40
0.0
 40
0.5001950127
 40
1.0
 40
1.0
 40
1.0
 40
1.0
 10
55.1621225371
 20
67.28660869200003
 30
0.0
 10
55.22233606030003
 20
67.3200567106
 30
0.0
 10
55.3517139493
 20
67.37189230999996
 30
0.0
 10
55.48998248690003
 20
67.3894537521
 30
0.0
 10
55.55880866119998
 20
67.38945640639997
 30
0.0
  0
SPLINE
  5
94454
330
1F
100
AcDbEntity
  8
1
100
AcDbSpline
210
0.0
220
0.0
230
1.0
 70
     8
 71
     3
 72
    15
 73
    11
 74
     0
 42
0.000000001
 43
0.0000000001
 40
0.0
 40
0.0
 40
0.0
 40
0.0
 40
0.1246275983
 40
0.2493687812
 40
0.3743268631
 40
0.499488389
 40
0.6247628640000002
 40
0.7500137458000001
 40
0.8751083174999999
 40
1.0
 40
1.0
 40
1.0
 40
1.0
 10
57.9072261554
 20
67.93494196529997
 30
0.0
 10
57.9426206892
 20
67.93494443880002
 30
0.0
 10
58.01398004750002
 20
67.94667125749999
 30
0.0
 10
58.10937146319995
 20
67.99758695859998
 30
0.0
 10
58.18368409880003
 20
68.07645867689996
 30
0.0
 10
58.22904070430002
 20
68.1750102373
 30
0.0
 10
58.24075933539997
 20
68.28294101909998
 30
0.0
 10
58.21760181850004
 20
68.38900868349998
 30
0.0
 10
58.16208057859999
 20
68.48207381619997
 30
0.0
 10
58.10699111999998
 20
68.52917919660001
 30
0.0
 10
58.07665848670001
 20
68.54756449579998
 30
0.0
  0
SPLINE
  5
94455
330
1F
100
AcDbEntity
  8
1
100
AcDbSpline
210
0.0
220
0.0
230
1.0
 70
     8
 71
     3
 72
    15
 73
    11
 74
     0
 42
0.000000001
 43
0.0000000001
 40
0.0
 40
0.0
 40
0.0
 40
0.0
 40
0.1246345217
 40
0.2493730214
 40
0.3743322737
 40
0.4994940074
 40
0.6247675568
 40
0.7500176067000001
 40
0.8751071105999999
 40
1.0
 40
1.0
 40
1.0
 40
1.0
 10
57.72042525990002
 20
67.93494491599995
 30
0.0
 10
57.75576603260001
 20
67.93509510479996
 30
0.0
 10
57.82696505130002
 20
67.94707656909998
 30
0.0
 10
57.92202842569998
 20
67.99823555649999
 30
0.0
 10
57.99600296429995
 20
68.07718390609998
 30
0.0
 10
58.0410492963
 20
68.17568405629995
 30
0.0
 10
58.05256652839997
 20
68.28345908069997
 30
0.0
 10
58.02930101560002
 20
68.3893215951
 30
0.0
 10
57.97380515489996
 20
68.48219474699999
 30
0.0
 10
57.91879269730003
 20
68.52920779889996
 30
0.0
 10
57.88850725280003
 20
68.54756449579998
 30
0.0
  0
SPLINE
  5
94456
330
1F
100
AcDbEntity
  8
1
100
AcDbSpline
210
0.0
220
0.0
230
1.0
 70
     8
 71
     3
 72
    15
 73
    11
 74
     0
 42
0.000000001
 43
0.0000000001
 40
0.0
 40
0.0
 40
0.0
 40
0.0
 40
0.1246781799
 40
0.249388496
 40
0.3741995334000001
 40
0.4991300796
 40
0.6241929622
 40
0.7493813053000002
 40
0.8746591581
 40
1.0
 40
1.0
 40
1.0
 40
1.0
 10
57.89567356529996
 20
67.93500007950001
 30
0.0
 10
57.84270340149999
 20
67.93499780569999
 30
0.0
 10
57.73645930640004
 20
67.92461774259999
 30
0.0
 10
57.58331852909996
 20
67.87846788180002
 30
0.0
 10
57.44184673230001
 20
67.80350263999998
 30
0.0
 10
57.3174295021
 20
67.70252173590001
 30
0.0
 10
57.21470585230004
 20
67.57933515119998
 30
0.0
 10
57.13753655850002
 20
67.43854225040002
 30
0.0
 10
57.08879652849996
 20
67.2855039213
 30
0.0
 10
57.07647840869999
 20
67.17895419919995
 30
0.0
 10
57.07547864909997
 20
67.1257118857
 30
0.0
  0
SPLINE
  5
94457
330
1F
100
AcDbEntity
  8
1
100
AcDbSpline
210
0.0
220
0.0
230
1.0
 70
     8
 71
     3
 72
    11
 73
     7
 74
     0
 42
0.000000001
 43
0.0000000001
 40
0.0
 40
0.0
 40
0.0
 40
0.0
 40
0.2504866026
 40
0.5005799296
 40
0.7503832890000001
 40
1.0
 40
1.0
 40
1.0
 40
1.0
 10
56.24142131029998
 20
70.4470981366
 30
0.0
 10
56.2272661504
 20
70.47233348579997
 30
0.0
 10
56.19214116520002
 20
70.51926167349995
 30
0.0
 10
56.12306424589998
 20
70.57323317980001
 30
0.0
 10
56.04237548580003
 20
70.6072471896
 30
0.0
 10
55.98439608499997
 20
70.61497840229998
 30
0.0
 10
55.95556230830003
 20
70.61498064599994
 30
0.0
  0
SPLINE
  5
94458
330
1F
100
AcDbEntity
  8
1
100
AcDbSpline
210
0.0
220
0.0
230
1.0
 70
     8
 71
     3
 72
    11
 73
     7
 74
     0
 42
0.000000001
 43
0.0000000001
 40
0.0
 40
0.0
 40
0.0
 40
0.0
 40
0.2493724826
 40
0.4991082902000001
 40
0.7493605645
 40
1.0
 40
1.0
 40
1.0
 40
1.0
 10
56.74734490909997
 20
66.80194195819996
 30
0.0
 10
56.78953167429996
 20
66.80193867539998
 30
0.0
 10
56.87487557920002
 20
66.81873386140001
 30
0.0
 10
56.98311626080003
 20
66.89055214529995
 30
0.0
 10
57.05644504200001
 20
66.99800940889996
 30
0.0
 10
57.07468260119998
 20
67.08331826099999
 30
0.0
 10
57.07547864909997
 20
67.1257118857
 30
0.0
  0
SPLINE
  5
94459
330
1F
100
AcDbEntity
  8
1
100
AcDbSpline
210
0.0
220
0.0
230
1.0
 70
     8
 71
     3
 72
    11
 73
     7
 74
     0
 42
0.000000001
 43
0.0000000001
 40
0.0
 40
0.0
 40
0.0
 40
0.0
 40
0.2494300813
 40
0.4992617048
 40
0.7494793831000001
 40
1.0
 40
1.0
 40
1.0
 40
1.0
 10
56.65355190449997
 20
66.81587684329997
 30
0.0
 10
56.68644826659996
 20
66.82580302609998
 30
0.0
 10
56.74957289499997
 20
66.85637417489997
 30
0.0
 10
56.82504719579998
 20
66.92924430789995
 30
0.0
 10
56.87444766050004
 20
67.02195814319998
 30
0.0
 10
56.88667948760002
 20
67.09120642519997
 30
0.0
 10
56.88732741519999
 20
67.1257118857
 30
0.0
  0
SPLINE
  5
9445A
330
1F
100
AcDbEntity
  8
1
100
AcDbSpline
210
0.0
220
0.0
230
1.0
 70
     8
 71
     3
 72
     9
 73
     5
 74
     0
 42
0.000000001
 43
0.0000000001
 40
0.0
 40
0.0
 40
0.0
 40
0.0
 40
0.4998147769
 40
1.0
 40
1.0
 40
1.0
 40
1.0
 10
55.74695989039998
 20
67.38946015579995
 30
0.0
 10
55.67813231280002
 20
67.38945709230001
 30
0.0
 10
55.5398645332
 20
67.37188932219999
 30
0.0
 10
55.41048616400003
 20
67.32005608279997
 30
0.0
 10
55.35027377100004
 20
67.28660869200003
 30
0.0
  0
SPLINE
  5
9445B
330
1F
100
AcDbEntity
  8
1
100
AcDbSpline
210
0.0
220
0.0
230
1.0
 70
     8
 71
     3
 72
    27
 73
    23
 74
     0
 42
0.000000001
 43
0.0000000001
 40
0.0
 40
0.0
 40
0.0
 40
0.0
 40
0.0624446671
 40
0.093678432
 40
0.124900249
 40
0.1872361382
 40
0.2495479995
 40
0.2807409536
 40
0.3119377418
 40
0.374278972
 40
0.4366690184000002
 40
0.4991216822000001
 40
0.5616412743
 40
0.6242219083000001
 40
0.6868483804000001
 40
0.7182095138
 40
0.7495733836000003
 40
0.8122217326999997
 40
0.8748428891999997
 40
0.9061736674999998
 40
0.9374883943
 40
1.0
 40
1.0
 40
1.0
 40
1.0
 10
54.72223955039999
 20
70.39475392499998
 30
0.0
 10
54.83177074309996
 20
70.50174666940003
 30
0.0
 10
55.01254730530003
 20
70.6465985968
 30
0.0
 10
55.27744519949997
 20
70.80100484349998
 30
0.0
 10
55.55605352069997
 20
70.92861731779999
 30
0.0
 10
55.92570982409995
 20
71.03561609089998
 30
0.0
 10
56.30912770679998
 20
71.06789800919995
 30
0.0
 10
56.61470842749999
 20
71.0483158582
 30
0.0
 10
56.9169451688
 20
70.9987629709
 30
0.0
 10
57.28356882459999
 20
70.88110541349997
 30
0.0
 10
57.68717123709999
 20
70.65649493730001
 30
0.0
 10
58.03949784409997
 20
70.35703409109999
 30
0.0
 10
58.32689941030004
 20
69.99422016799996
 30
0.0
 10
58.53838508469999
 20
69.58212289689999
 30
0.0
 10
58.64463508829999
 20
69.21044085479997
 30
0.0
 10
58.68513468560003
 20
68.90533119060001
 30
0.0
 10
58.69575555949999
 20
68.59766688359997
 30
0.0
 10
58.65260439170004
 20
68.21340942989997
 30
0.0
 10
58.53558755900003
 20
67.84495787880001
 30
0.0
 10
58.40063750550001
 20
67.56853493649995
 30
0.0
 10
58.23957846580004
 20
67.306894951
 30
0.0
 10
58.09031627350004
 20
67.12927611649994
 30
0.0
 10
57.98066766690005
 20
67.02216867930002
 30
0.0
  0
SPLINE
  5
9445C
330
1F
100
AcDbEntity
  8
1
100
AcDbSpline
210
0.0
220
0.0
230
1.0
 70
     8
 71
     3
 72
     9
 73
     5
 74
     0
 42
0.000000001
 43
0.0000000001
 40
0.0
 40
0.0
 40
0.0
 40
0.0
 40
0.4998026049
 40
1.0
 40
1.0
 40
1.0
 40
1.0
 10
55.19157235289998
 20
67.24546324399995
 30
0.0
 10
55.21910737029998
 20
67.245461035
 30
0.0
 10
55.27442441649998
 20
67.25249014729993
 30
0.0
 10
55.32618415349997
 20
67.273227147
 30
0.0
 10
55.35027377100004
 20
67.28660869200003
 30
0.0
  0
SPLINE
  5
9445D
330
1F
100
AcDbEntity
  8
1
100
AcDbSpline
210
0.0
220
0.0
230
1.0
 70
     8
 71
     3
 72
     8
 73
     4
 74
     0
 42
0.000000001
 43
0.0000000001
 40
0.0
 40
0.0
 40
0.0
 40
0.0
 40
1.0
 40
1.0
 40
1.0
 40
1.0
 10
55.09723287690002
 20
67.25923131369995
 30
0.0
 10
55.11971785730003
 20
67.26598096189997
 30
0.0
 10
55.14160007380002
 20
67.27520866599997
 30
0.0
 10
55.1621225371
 20
67.28660869200003
 30
0.0
  0
SPLINE
  5
9445E
330
1F
100
AcDbEntity
  8
1
100
AcDbSpline
210
0.0
220
0.0
230
1.0
 70
     8
 71
     3
 72
     9
 73
     5
 74
     0
 42
0.000000001
 43
0.0000000001
 40
0.0
 40
0.0
 40
0.0
 40
0.0
 40
0.2522519769
 40
1.0
 40
1.0
 40
1.0
 40
1.0
 10
63.5
 20
74.77899765299998
 30
0.0
 10
63.50041030079998
 20
74.6713227706
 30
0.0
 10
63.50121893510004
 20
74.24446564390001
 30
0.0
 10
63.4987231905
 20
73.81760176540002
 30
0.0
 10
63.49493599709997
 20
73.49844233549998
 30
0.0
  0
SPLINE
  5
9445F
330
1F
100
AcDbEntity
  8
1
100
AcDbSpline
210
0.0
220
0.0
230
1.0
 70
     8
 71
     3
 72
    15
 73
    11
 74
     0
 42
0.000000001
 43
0.0000000001
 40
0.0
 40
0.0
 40
0.0
 40
0.0
 40
0.1258908974
 40
0.2515351824
 40
0.3767773539
 40
0.5015505753000003
 40
0.6260189870000003
 40
0.7504116941
 40
0.8749889615999999
 40
1.0
 40
1.0
 40
1.0
 40
1.0
 10
63.5
 20
74.77899765299998
 30
0.0
 10
63.49980854289999
 20
74.82924159610002
 30
0.0
 10
63.4899675652
 20
74.92985678809998
 30
0.0
 10
63.44718471580001
 20
75.07490970859999
 30
0.0
 10
63.37820571640003
 20
75.20904040899996
 30
0.0
 10
63.28555153540003
 20
75.32745678089998
 30
0.0
 10
63.17240103159996
 20
75.4259750901
 30
0.0
 10
63.04260494690004
 20
75.50110569869997
 30
0.0
 10
62.90068293760004
 20
75.5501038303
 30
0.0
 10
62.80131966430002
 20
75.56407145790001
 30
0.0
 10
62.75147483419996
 20
75.56626669829995
 30
0.0
  0
SPLINE
  5
94460
330
1F
100
AcDbEntity
  8
1
100
AcDbSpline
210
0.0
220
0.0
230
1.0
 70
     8
 71
     3
 72
     9
 73
     5
 74
     0
 42
0.000000001
 43
0.0000000001
 40
0.0
 40
0.0
 40
0.0
 40
0.0
 40
0.2501273821
 40
1.0
 40
1.0
 40
1.0
 40
1.0
 10
61.46847241329999
 20
75.62204129319997
 30
0.0
 10
61.57544636809999
 20
75.61745138239993
 30
0.0
 10
62.00312166289998
 20
75.59904030320002
 30
0.0
 10
62.43078667349999
 20
75.58039028140001
 30
0.0
 10
62.75147483419996
 20
75.56626669829995
 30
0.0
  0
SPLINE
  5
94461
330
1F
100
AcDbEntity
  8
1
100
AcDbSpline
210
0.0
220
0.0
230
1.0
 70
     8
 71
     3
 72
     9
 73
     5
 74
     0
 42
0.000000001
 43
0.0000000001
 40
0.0
 40
0.0
 40
0.0
 40
0.0
 40
0.2480572354
 40
1.0
 40
1.0
 40
1.0
 40
1.0
 10
54.96401954469996
 20
75.73332072509998
 30
0.0
 10
55.49744761210002
 20
75.72429731009998
 30
0.0
 10
57.64787163360001
 20
75.6879615121
 30
0.0
 10
59.79828996689999
 20
75.65128974970003
 30
0.0
 10
61.4152801286
 20
75.6236366238
 30
0.0
  0
SPLINE
  5
94462
330
1F
100
AcDbEntity
  8
1
100
AcDbSpline
210
0.0
220
0.0
230
1.0
 70
     8
 71
     3
 72
    11
 73
     7
 74
     0
 42
0.000000001
 43
0.0000000001
 40
0.0
 40
0.0
 40
0.0
 40
0.0
 40
0.1243900272
 40
0.2489570627
 40
0.4986651006000001
 40
1.0
 40
1.0
 40
1.0
 40
1.0
 10
53.64495989469997
 20
75.54116356029999
 30
0.0
 10
53.5583794328
 20
75.49404098819997
 30
0.0
 10
53.38496095870002
 20
75.39997586520001
 30
0.0
 10
53.03781789929996
 20
75.21116268560001
 30
0.0
 10
52.42838922479999
 20
74.87939891599996
 30
0.0
 10
51.90596577469996
 20
74.59427111849999
 30
0.0
 10
51.5573493242
 20
74.40374062680001
 30
0.0
  0
LINE
  5
94463
330
1F
100
AcDbEntity
  8
1
100
AcDbLine
 10
48.42630440670001
 20
72.6858132072
 30
0.0
 11
47.99757932469996
 21
72.44963649509998
 31
0.0
  0
SPLINE
  5
94464
330
1F
100
AcDbEntity
  8
1
100
AcDbSpline
210
0.0
220
0.0
230
1.0
 70
     8
 71
     3
 72
     9
 73
     5
 74
     0
 42
0.000000001
 43
0.0000000001
 40
0.0
 40
0.0
 40
0.0
 40
0.0
 40
0.2497890141
 40
1.0
 40
1.0
 40
1.0
 40
1.0
 10
47.95137884219996
 20
72.42338765609995
 30
0.0
 10
47.8590832361
 20
72.36933764579994
 30
0.0
 10
47.48995227569998
 20
72.15233527549997
 30
0.0
 10
47.1222517649
 20
71.93289922339997
 30
0.0
 10
46.84724040650002
 20
71.76688798129998
 30
0.0
  0
SPLINE
  5
94465
330
1F
100
AcDbEntity
  8
1
100
AcDbSpline
210
0.0
220
0.0
230
1.0
 70
     8
 71
     3
 72
     9
 73
     5
 74
     0
 42
0.000000001
 43
0.0000000001
 40
0.0
 40
0.0
 40
0.0
 40
0.0
 40
0.5004166009000001
 40
1.0
 40
1.0
 40
1.0
 40
1.0
 10
46.84724040650002
 20
71.76688798129998
 30
0.0
 10
46.80748782069996
 20
71.74289124109998
 30
0.0
 10
46.7321797692
 20
71.68773068729996
 30
0.0
 10
46.66789907760001
 20
71.62004593329995
 30
0.0
 10
46.63908068330003
 20
71.58373563410002
 30
0.0
  0
SPLINE
  5
94466
330
1F
100
AcDbEntity
  8
1
100
AcDbSpline
210
0.0
220
0.0
230
1.0
 70
     8
 71
     3
 72
     9
 73
     5
 74
     0
 42
0.000000001
 43
0.0000000001
 40
0.0
 40
0.0
 40
0.0
 40
0.0
 40
0.2514746244999999
 40
1.0
 40
1.0
 40
1.0
 40
1.0
 10
46.6068654852
 20
70.62556548969998
 30
0.0
 10
46.65259223559997
 20
70.53948335640001
 30
0.0
 10
46.83494772859996
 20
70.19745098889996
 30
0.0
 10
47.01940308010001
 20
69.85653797909998
 30
0.0
 10
47.15866880749996
 20
69.60201334959998
 30
0.0
  0
SPLINE
  5
94467
330
1F
100
AcDbEntity
  8
1
100
AcDbSpline
210
0.0
220
0.0
230
1.0
 70
     8
 71
     3
 72
    14
 73
    10
 74
     0
 42
0.000000001
 43
0.0000000001
 40
0.0
 40
0.0
 40
0.0
 40
0.0
 40
0.0615530008
 40
0.1232384503
 40
0.2470671594
 40
0.3714305644
 40
0.4962875821
 40
0.7473493589000002
 40
1.0
 40
1.0
 40
1.0
 40
1.0
 10
63.05666741790003
 20
66.38163060009995
 30
0.0
 10
63.01422079690002
 20
66.30565328820001
 30
0.0
 10
62.92965337610002
 20
66.15330254970001
 30
0.0
 10
62.75946641509996
 20
65.84823206819999
 30
0.0
 10
62.54576598359998
 20
65.46574367069997
 30
0.0
 10
62.28790209880003
 20
65.00561614859998
 30
0.0
 10
61.94141522059999
 20
64.38893540629999
 30
0.0
 10
61.50481902069994
 20
63.61482794049999
 30
0.0
 10
61.15374894649995
 20
62.9951639647
 30
0.0
 10
60.97738395340002
 20
62.68451161180002
 30
0.0
  0
SPLINE
  5
94468
330
1F
100
AcDbEntity
  8
1
100
AcDbSpline
210
0.0
220
0.0
230
1.0
 70
     8
 71
     3
 72
    10
 73
     6
 74
     0
 42
0.000000001
 43
0.0000000001
 40
0.0
 40
0.0
 40
0.0
 40
0.0
 40
0.2504741689
 40
0.5017581817
 40
1.0
 40
1.0
 40
1.0
 40
1.0
 10
54.38555141990002
 20
75.73354715349996
 30
0.0
 10
54.32109948639999
 20
75.7335462968
 30
0.0
 10
54.19179665839999
 20
75.7250935244
 30
0.0
 10
53.93889727760001
 20
75.67510609160001
 30
0.0
 10
53.75756896920001
 20
75.60245255209998
 30
0.0
 10
53.64495989469997
 20
75.54116356029999
 30
0.0
  0
SPLINE
  5
94469
330
1F
100
AcDbEntity
  8
1
100
AcDbSpline
210
0.0
220
0.0
230
1.0
 70
     8
 71
     3
 72
    19
 73
    15
 74
     0
 42
0.000000001
 43
0.0000000001
 40
0.0
 40
0.0
 40
0.0
 40
0.0
 40
0.1285559336
 40
0.1922109121
 40
0.2551539131
 40
0.2862892044
 40
0.3171887844
 40
0.378899672
 40
0.4406892291000001
 40
0.5025529397000002
 40
0.6264981893
 40
0.7507265171
 40
0.8752298109999998
 40
1.0
 40
1.0
 40
1.0
 40
1.0
 10
63.25994032199995
 20
67.13676931070001
 30
0.0
 10
63.2633820696
 20
67.4073076257
 30
0.0
 10
63.27102402390005
 20
67.81177853949998
 30
0.0
 10
63.28624259650002
 20
68.34856497859999
 30
0.0
 10
63.29779582479996
 20
68.68033368250002
 30
0.0
 10
63.30822656129999
 20
68.94315708879998
 30
0.0
 10
63.31953950149998
 20
69.20334817859998
 30
0.0
 10
63.3336656436
 20
69.52799283729996
 30
0.0
 10
63.35037694250002
 20
69.91775421389997
 30
0.0
 10
63.37248031980003
 20
70.43838373700002
 30
0.0
 10
63.39969731930001
 20
71.09032379730002
 30
0.0
 10
63.43169824509999
 20
71.87401058419998
 30
0.0
 10
63.46304981059997
 20
72.65946117869998
 30
0.0
 10
63.48350064020002
 20
73.18368617269995
 30
0.0
 10
63.49361459119998
 20
73.446084015
 30
0.0
  0
SPLINE
  5
9446A
330
1F
100
AcDbEntity
  8
1
100
AcDbSpline
210
0.0
220
0.0
230
1.0
 70
     8
 71
     3
 72
     8
 73
     4
 74
     0
 42
0.000000001
 43
0.0000000001
 40
0.0
 40
0.0
 40
0.0
 40
0.0
 40
1.0
 40
1.0
 40
1.0
 40
1.0
 10
63.49493599709997
 20
73.49844233549998
 30
0.0
 10
63.49472884849999
 20
73.4809852336
 30
0.0
 10
63.49428701170001
 20
73.46352939159999
 30
0.0
 10
63.49361459119998
 20
73.446084015
 30
0.0
  0
SPLINE
  5
9446B
330
1F
100
AcDbEntity
  8
1
100
AcDbSpline
210
0.0
220
0.0
230
1.0
 70
     8
 71
     3
 72
     8
 73
     4
 74
     0
 42
0.000000001
 43
0.0000000001
 40
0.0
 40
0.0
 40
0.0
 40
0.0
 40
1.0
 40
1.0
 40
1.0
 40
1.0
 10
61.46847241329999
 20
75.62204129319997
 30
0.0
 10
61.45074998499999
 20
75.62280170599996
 30
0.0
 10
61.43301626939996
 20
75.62333330730002
 30
0.0
 10
61.4152801286
 20
75.6236366238
 30
0.0
  0
SPLINE
  5
9446C
330
1F
100
AcDbEntity
  8
1
100
AcDbSpline
210
0.0
220
0.0
230
1.0
 70
     8
 71
     3
 72
     8
 73
     4
 74
     0
 42
0.000000001
 43
0.0000000001
 40
0.0
 40
0.0
 40
0.0
 40
0.0
 40
1.0
 40
1.0
 40
1.0
 40
1.0
 10
47.99757932469996
 20
72.44963649509998
 30
0.0
 10
47.9820668221
 20
72.44108763880001
 30
0.0
 10
47.96666301080001
 20
72.43233834729998
 30
0.0
 10
47.95137884219996
 20
72.42338765609995
 30
0.0
  0
SPLINE
  5
9446D
330
1F
100
AcDbEntity
  8
1
100
AcDbSpline
210
0.0
220
0.0
230
1.0
 70
     8
 71
     3
 72
    10
 73
     6
 74
     0
 42
0.000000001
 43
0.0000000001
 40
0.0
 40
0.0
 40
0.0
 40
0.0
 40
0.4914587778000001
 40
0.7454347154000001
 40
1.0
 40
1.0
 40
1.0
 40
1.0
 10
63.05666741790003
 20
66.38163060009995
 30
0.0
 10
63.1196892433
 20
66.49443649069997
 30
0.0
 10
63.19418034670002
 20
66.67839607319996
 30
0.0
 10
63.2486732049
 20
66.93604187249997
 30
0.0
 10
63.25908889909996
 20
67.06984327269996
 30
0.0
 10
63.25994032199995
 20
67.13676931070001
 30
0.0
  0
SPLINE
  5
9446E
330
1F
100
AcDbEntity
  8
1
100
AcDbSpline
210
0.0
220
0.0
230
1.0
 70
     8
 71
     3
 72
    15
 73
    11
 74
     0
 42
0.000000001
 43
0.0000000001
 40
0.0
 40
0.0
 40
0.0
 40
0.0
 40
0.1306946342
 40
0.2579304275
 40
0.319720981
 40
0.381069448
 40
0.5040791646000004
 40
0.6274858758000002
 40
0.7512803479000001
 40
1.0
 40
1.0
 40
1.0
 40
1.0
 10
54.19752157690002
 20
75.54116356029999
 30
0.0
 10
53.96458765980003
 20
75.409335322
 30
0.0
 10
53.50569088349999
 20
75.14774095059997
 30
0.0
 10
52.93884430110001
 20
74.8200176727
 30
0.0
 10
52.49645015140004
 20
74.56079722530003
 30
0.0
 10
52.0617255958
 20
74.30560836939999
 30
0.0
 10
51.51796733760003
 20
73.986903227
 30
0.0
 10
50.86373591059999
 20
73.6037778644
 30
0.0
 10
49.9870913189
 20
73.09100205660001
 30
0.0
 10
49.32832363440002
 20
72.70628974070001
 30
0.0
 10
48.88835568050001
 20
72.44963649509998
 30
0.0
  0
SPLINE
  5
9446F
330
1F
100
AcDbEntity
  8
1
100
AcDbSpline
210
0.0
220
0.0
230
1.0
 70
     8
 71
     3
 72
     9
 73
     5
 74
     0
 42
0.000000001
 43
0.0000000001
 40
0.0
 40
0.0
 40
0.0
 40
0.0
 40
0.2535359667
 40
1.0
 40
1.0
 40
1.0
 40
1.0
 10
47.77479105869999
 20
71.76688798129998
 30
0.0
 10
47.86543904569994
 20
71.82199760689994
 30
0.0
 10
48.222755044
 20
72.03972173599999
 30
0.0
 10
48.57918148699997
 20
72.25890623509997
 30
0.0
 10
48.84470187379997
 20
72.42338765609995
 30
0.0
  0
SPLINE
  5
94470
330
1F
100
AcDbEntity
  8
1
100
AcDbSpline
210
0.0
220
0.0
230
1.0
 70
     8
 71
     3
 72
    15
 73
    11
 74
     0
 42
0.000000001
 43
0.0000000001
 40
0.0
 40
0.0
 40
0.0
 40
0.0
 40
0.1239267395
 40
0.2482216043
 40
0.3727500954
 40
0.4974990382000001
 40
0.6225909123
 40
0.7480783638
 40
0.8739268054000001
 40
1.0
 40
1.0
 40
1.0
 40
1.0
 10
47.77479105869999
 20
71.76688798129998
 30
0.0
 10
47.73232996629997
 20
71.74107367499996
 30
0.0
 10
47.65204006049997
 20
71.68105027599995
 30
0.0
 10
47.55083717649998
 20
71.56989235319997
 30
0.0
 10
47.47228224949997
 20
71.44126914980003
 30
0.0
 10
47.41933806849999
 20
71.2998427773
 30
0.0
 10
47.39374771529996
 20
71.15063773689993
 30
0.0
 10
47.39638121259996
 20
70.99883091989994
 30
0.0
 10
47.42712286199997
 20
70.8498031378
 30
0.0
 10
47.46570430109996
 20
70.75570165939996
 30
0.0
 10
47.48913753569996
 20
70.7109078409
 30
0.0
  0
SPLINE
  5
94471
330
1F
100
AcDbEntity
  8
1
100
AcDbSpline
210
0.0
220
0.0
230
1.0
 70
     8
 71
     3
 72
     9
 73
     5
 74
     0
 42
0.000000001
 43
0.0000000001
 40
0.0
 40
0.0
 40
0.0
 40
0.0
 40
0.2465894638
 40
1.0
 40
1.0
 40
1.0
 40
1.0
 10
48.0667996862
 20
69.57496075689999
 30
0.0
 10
48.02043083970001
 20
69.6688907921
 30
0.0
 10
47.83122214119997
 20
70.0492299494
 30
0.0
 10
47.63749311459998
 20
70.42731861429998
 30
0.0
 10
47.48913753569996
 20
70.7109078409
 30
0.0
  0
SPLINE
  5
94472
330
1F
100
AcDbEntity
  8
1
100
AcDbSpline
210
0.0
220
0.0
230
1.0
 70
     8
 71
     3
 72
     9
 73
     5
 74
     0
 42
0.000000001
 43
0.0000000001
 40
0.0
 40
0.0
 40
0.0
 40
0.0
 40
0.2491909843
 40
1.0
 40
1.0
 40
1.0
 40
1.0
 10
48.97882544039998
 20
67.83412281619996
 30
0.0
 10
48.90523831640003
 20
67.97500569919995
 30
0.0
 10
48.60970845039997
 20
68.54024885669997
 30
0.0
 10
48.31327374379998
 20
69.10501873210001
 30
0.0
 10
48.0903044443
 20
69.52884045560001
 30
0.0
  0
SPLINE
  5
94473
330
1F
100
AcDbEntity
  8
1
100
AcDbSpline
210
0.0
220
0.0
230
1.0
 70
     8
 71
     3
 72
     9
 73
     5
 74
     0
 42
0.000000001
 43
0.0000000001
 40
0.0
 40
0.0
 40
0.0
 40
0.0
 40
0.4992760475
 40
1.0
 40
1.0
 40
1.0
 40
1.0
 10
54.93723737909997
 20
75.73354722279998
 30
0.0
 10
54.8089600902
 20
75.73354618689996
 30
0.0
 10
54.5508454788
 20
75.70211624730001
 30
0.0
 10
54.30948386459998
 20
75.60452827469998
 30
0.0
 10
54.19752157690002
 20
75.54116356029999
 30
0.0
  0
SPLINE
  5
94474
330
1F
100
AcDbEntity
  8
1
100
AcDbSpline
210
0.0
220
0.0
230
1.0
 70
     8
 71
     3
 72
     8
 73
     4
 74
     0
 42
0.000000001
 43
0.0000000001
 40
0.0
 40
0.0
 40
0.0
 40
0.0
 40
1.0
 40
1.0
 40
1.0
 40
1.0
 10
48.0667996862
 20
69.57496075689999
 30
0.0
 10
48.07443760980004
 20
69.55948850589999
 30
0.0
 10
48.08227075249996
 20
69.54411095730001
 30
0.0
 10
48.0903044443
 20
69.52884045560001
 30
0.0
  0
SPLINE
  5
94475
330
1F
100
AcDbEntity
  8
1
100
AcDbSpline
210
0.0
220
0.0
230
1.0
 70
     8
 71
     3
 72
     8
 73
     4
 74
     0
 42
0.000000001
 43
0.0000000001
 40
0.0
 40
0.0
 40
0.0
 40
0.0
 40
1.0
 40
1.0
 40
1.0
 40
1.0
 10
48.84470187379997
 20
72.42338765609995
 30
0.0
 10
48.85913602669997
 20
72.43232915399994
 30
0.0
 10
48.87368943339999
 20
72.44108100849993
 30
0.0
 10
48.88835568050001
 20
72.44963649509998
 30
0.0
  0
SPLINE
  5
94476
330
1F
100
AcDbEntity
  8
1
100
AcDbSpline
210
0.0
220
0.0
230
1.0
 70
     8
 71
     3
 72
     9
 73
     5
 74
     0
 42
0.000000001
 43
0.0000000001
 40
0.0
 40
0.0
 40
0.0
 40
0.0
 40
0.2548209214999999
 40
1.0
 40
1.0
 40
1.0
 40
1.0
 10
56.32501202780002
 20
65.73288087149996
 30
0.0
 10
56.27373933059999
 20
65.75780015309999
 30
0.0
 10
56.07186628780002
 20
65.8542234843
 30
0.0
 10
55.86743366970001
 20
65.94528262389997
 30
0.0
 10
55.71384718529998
 20
66.01011267929999
 30
0.0
  0
SPLINE
  5
94477
330
1F
100
AcDbEntity
  8
1
100
AcDbSpline
210
0.0
220
0.0
230
1.0
 70
     8
 71
     3
 72
    20
 73
    16
 74
     0
 42
0.000000001
 43
0.0000000001
 40
0.0
 40
0.0
 40
0.0
 40
0.0
 40
0.0419774288
 40
0.0693005865
 40
0.1022493425
 40
0.1419440988
 40
0.1895043914
 40
0.2459398281
 40
0.3119012025
 40
0.3872801357
 40
0.4708110644
 40
0.5600372099000001
 40
0.6518800986
 40
0.8327608004000001
 40
1.0
 40
1.0
 40
1.0
 40
1.0
 10
61.71384718529999
 20
61.47502722669997
 30
0.0
 10
61.71384718529999
 20
61.57336086380002
 30
0.0
 10
61.67314632230006
 20
61.7353714464
 30
0.0
 10
61.56937133649996
 20
61.9510633336
 30
0.0
 10
61.4436223615
 20
62.14939398950003
 30
0.0
 10
61.27089645749999
 20
62.37209727639998
 30
0.0
 10
61.04463040239997
 20
62.62170556339999
 30
0.0
 10
60.75881091559996
 20
62.89917202369998
 30
0.0
 10
60.40934749059996
 20
63.20363734519998
 30
0.0
 10
59.99647493859999
 20
63.53104004639999
 30
0.0
 10
59.52677522730002
 20
63.87369663229996
 30
0.0
 10
59.01335970069999
 20
64.2211802961
 30
0.0
 10
58.2965352905
 20
64.67422864899996
 30
0.0
 10
57.40278202739998
 20
65.18843849179997
 30
0.0
 10
56.67736519709999
 20
65.56163207109998
 30
0.0
 10
56.32501202780002
 20
65.73288087149996
 30
0.0
  0
SPLINE
  5
94478
330
1F
100
AcDbEntity
  8
1
100
AcDbSpline
210
0.0
220
0.0
230
1.0
 70
     8
 71
     3
 72
    18
 73
    14
 74
     0
 42
0.000000001
 43
0.0000000001
 40
0.0
 40
0.0
 40
0.0
 40
0.0
 40
0.2145226688
 40
0.4077599173
 40
0.5770668416
 40
0.7201172140000001
 40
0.8349604520999999
 40
0.8813185624999999
 40
0.9201065023999998
 40
0.9512377155999999
 40
0.9747047259
 40
0.9906791278
 40
1.0
 40
1.0
 40
1.0
 40
1.0
 10
49.6509433109
 20
75.1183478168
 30
0.0
 10
49.56427231010002
 20
75.12174375860002
 30
0.0
 10
49.39956441699997
 20
75.12914510179998
 30
0.0
 10
49.16662987670003
 20
75.14274182409997
 30
0.0
 10
48.96274917009996
 20
75.15783663049996
 30
0.0
 10
48.7907677668
 20
75.17396396549997
 30
0.0
 10
48.66859256719999
 20
75.18864436849998
 30
0.0
 10
48.58868401409996
 20
75.20099574799997
 30
0.0
 10
48.54242378280003
 20
75.20958248979997
 30
0.0
 10
48.50567010169999
 20
75.21797903769999
 30
0.0
 10
48.47816354809999
 20
75.22636977509995
 30
0.0
 10
48.46036612179997
 20
75.23402141899999
 30
0.0
 10
48.45171830829997
 20
75.24103629640001
 30
0.0
 10
48.45052873960003
 20
75.24461231959998
 30
0.0
  0
SPLINE
  5
94479
330
1F
100
AcDbEntity
  8
1
100
AcDbSpline
210
0.0
220
0.0
230
1.0
 70
     8
 71
     3
 72
    15
 73
    11
 74
     0
 42
0.000000001
 43
0.0000000001
 40
0.0
 40
0.0
 40
0.0
 40
0.0
 40
0.0271129115
 40
0.0586756807
 40
0.1359834585
 40
0.2329850566
 40
0.3498533887
 40
0.4861448406
 40
0.6409068922
 40
1.0
 40
1.0
 40
1.0
 40
1.0
 10
51.20243635949996
 20
74.90714593189998
 30
0.0
 10
51.19021369400002
 20
74.91442663380002
 30
0.0
 10
51.1627592655
 20
74.928508018
 30
0.0
 10
51.09660937890004
 20
74.95541173869998
 30
0.0
 10
50.99265106839999
 20
74.9856517604
 30
0.0
 10
50.84299084470001
 20
75.01674384960003
 30
0.0
 10
50.66126974790001
 20
75.04438469209998
 30
0.0
 10
50.44855066970001
 20
75.0684878079
 30
0.0
 10
50.10858255720001
 20
75.09723085880003
 30
0.0
 10
49.83922382510002
 20
75.1109705449
 30
0.0
 10
49.6509433109
 20
75.1183478168
 30
0.0
  0
LINE
  5
9447A
330
1F
100
AcDbEntity
  8
1
100
AcDbLine
 10
51.32481510219998
 20
74.83409323910001
 30
0.0
 11
51.20243635949996
 21
74.90714593189998
 31
0.0
  0
SPLINE
  5
9447B
330
1F
100
AcDbEntity
  8
1
100
AcDbSpline
210
0.0
220
0.0
230
1.0
 70
     8
 71
     3
 72
     9
 73
     5
 74
     0
 42
0.000000001
 43
0.0000000001
 40
0.0
 40
0.0
 40
0.0
 40
0.0
 40
0.2472488503
 40
1.0
 40
1.0
 40
1.0
 40
1.0
 10
51.9738233841
 20
67.24283549759997
 30
0.0
 10
51.89140204960001
 20
67.26233601820005
 30
0.0
 10
51.55762448499996
 20
67.33940189959998
 30
0.0
 10
51.2221437511
 20
67.40910776520002
 30
0.0
 10
50.96881692569997
 20
67.45724652169997
 30
0.0
  0
SPLINE
  5
9447C
330
1F
100
AcDbEntity
  8
1
100
AcDbSpline
210
0.0
220
0.0
230
1.0
 70
     8
 71
     3
 72
     9
 73
     5
 74
     0
 42
0.000000001
 43
0.0000000001
 40
0.0
 40
0.0
 40
0.0
 40
0.0
 40
0.245644375
 40
1.0
 40
1.0
 40
1.0
 40
1.0
 10
37.22368632150001
 20
69.53212042759995
 30
0.0
 10
37.26450146780003
 20
69.54001392700003
 30
0.0
 10
37.43074983769998
 20
69.57166617529998
 30
0.0
 10
37.59735340280002
 20
69.60144579849998
 30
0.0
 10
37.7231883078
 20
69.6229715389
 30
0.0
  0
SPLINE
  5
9447D
330
1F
100
AcDbEntity
  8
1
100
AcDbSpline
210
0.0
220
0.0
230
1.0
 70
     8
 71
     3
 72
    21
 73
    17
 74
     0
 42
0.000000001
 43
0.0000000001
 40
0.0
 40
0.0
 40
0.0
 40
0.0
 40
0.1904889182
 40
0.3702416568
 40
0.5346544645
 40
0.6793446004000005
 40
0.7430410681000002
 40
0.8003698351
 40
0.8509641148
 40
0.8945320328000001
 40
0.9309206228
 40
0.9464321467999999
 40
0.9601929638999999
 40
0.9722764306
 40
0.9828040149999999
 40
1.0
 40
1.0
 40
1.0
 40
1.0
 10
37.22368632150001
 20
69.53212042759995
 30
0.0
 10
37.06851559900002
 20
69.31631171970003
 30
0.0
 10
36.76088622589998
 20
68.90114773189998
 30
0.0
 10
36.29769634880001
 20
68.31612447429996
 30
0.0
 10
35.85480246699999
 20
67.79711117009995
 30
0.0
 10
35.49980857769997
 20
67.4165080107
 30
0.0
 10
35.23466182499999
 20
67.15724641649996
 30
0.0
 10
35.05747891249996
 20
66.99605602970001
 30
0.0
 10
34.89490723600003
 20
66.860796671
 30
0.0
 10
34.74831475359997
 20
66.75247203539999
 30
0.0
 10
34.63517834839996
 20
66.68168841319999
 30
0.0
 10
34.55332498269996
 20
66.64036265329997
 30
0.0
 10
34.49998418839996
 20
66.61822223799996
 30
0.0
 10
34.4513214781
 20
66.60325479659997
 30
0.0
 10
34.39671667729999
 20
66.59348629869999
 30
0.0
 10
34.35654344739999
 20
66.59568801819998
 30
0.0
 10
34.33394477330001
 20
66.60375347169997
 30
0.0
  0
SPLINE
  5
9447E
330
1F
100
AcDbEntity
  8
1
100
AcDbSpline
210
0.0
220
0.0
230
1.0
 70
     8
 71
     3
 72
     9
 73
     5
 74
     0
 42
0.000000001
 43
0.0000000001
 40
0.0
 40
0.0
 40
0.0
 40
0.0
 40
0.2387906461
 40
1.0
 40
1.0
 40
1.0
 40
1.0
 10
47.42278998509999
 20
72.71285714660002
 30
0.0
 10
47.45578695229999
 20
72.71765921679993
 30
0.0
 10
47.59433760499996
 20
72.73512205739994
 30
0.0
 10
47.73434197720002
 20
72.74140429489995
 30
0.0
 10
47.84061670530003
 20
72.73934139729997
 30
0.0
  0
SPLINE
  5
9447F
330
1F
100
AcDbEntity
  8
1
100
AcDbSpline
210
0.0
220
0.0
230
1.0
 70
     8
 71
     3
 72
     8
 73
     4
 74
     0
 42
0.000000001
 43
0.0000000001
 40
0.0
 40
0.0
 40
0.0
 40
0.0
 40
1.0
 40
1.0
 40
1.0
 40
1.0
 10
47.87723713220001
 20
72.95528128929999
 30
0.0
 10
47.85691130519999
 20
72.94770429470003
 30
0.0
 10
47.8367254817
 20
72.93974064139994
 30
0.0
 10
47.81670095659996
 20
72.93139986919995
 30
0.0
  0
SPLINE
  5
94480
330
1F
100
AcDbEntity
  8
1
100
AcDbSpline
210
0.0
220
0.0
230
1.0
 70
     8
 71
     3
 72
    15
 73
    11
 74
     0
 42
0.000000001
 43
0.0000000001
 40
0.0
 40
0.0
 40
0.0
 40
0.0
 40
0.2046054931
 40
0.3780923362
 40
0.525241333
 40
0.6508421568000001
 40
0.7586289109000001
 40
0.8514052254
 40
0.9313047016
 40
1.0
 40
1.0
 40
1.0
 40
1.0
 10
40.1282872214
 20
69.48033362550001
 30
0.0
 10
39.96598510109999
 20
69.50999907369999
 30
0.0
 10
39.66506601570001
 20
69.55954392259997
 30
0.0
 10
39.24487935940002
 20
69.61343828299999
 30
0.0
 10
38.88650094970001
 20
69.64665879610001
 30
0.0
 10
38.58005513380002
 20
69.66389626749998
 30
0.0
 10
38.31700959940003
 20
69.66845952379995
 30
0.0
 10
38.09084187419998
 20
69.66265056200001
 30
0.0
 10
37.8966660909
 20
69.64811476360001
 30
0.0
 10
37.77779008329998
 20
69.63231190149993
 30
0.0
 10
37.7231883078
 20
69.6229715389
 30
0.0
  0
LINE
  5
94481
330
1F
100
AcDbEntity
  8
1
100
AcDbLine
 10
52.02618060339997
 20
67.23028423869999
 30
0.0
 11
51.9738233841
 21
67.24283549759997
 31
0.0
  0
SPLINE
  5
94482
330
1F
100
AcDbEntity
  8
1
100
AcDbSpline
210
0.0
220
0.0
230
1.0
 70
     8
 71
     3
 72
     9
 73
     5
 74
     0
 42
0.000000001
 43
0.0000000001
 40
0.0
 40
0.0
 40
0.0
 40
0.0
 40
0.4869997945000001
 40
1.0
 40
1.0
 40
1.0
 40
1.0
 10
55.71384718529998
 20
66.01011267929999
 30
0.0
 10
55.1324613813
 20
66.255520171
 30
0.0
 10
53.9188044577
 20
66.71356646889996
 30
0.0
 10
52.67215302170001
 20
67.07340316720001
 30
0.0
 10
52.02618060339997
 20
67.23028423869999
 30
0.0
  0
SPLINE
  5
94483
330
1F
100
AcDbEntity
  8
1
100
AcDbSpline
210
0.0
220
0.0
230
1.0
 70
     8
 71
     3
 72
    21
 73
    17
 74
     0
 42
0.000000001
 43
0.0000000001
 40
0.0
 40
0.0
 40
0.0
 40
0.0
 40
0.0617211052
 40
0.1235107892
 40
0.1854189198
 40
0.2474847718
 40
0.3097332271
 40
0.3721744039
 40
0.4348029851
 40
0.4975982306000001
 40
0.6232324063
 40
0.7490097514000002
 40
0.8119753197999999
 40
0.8748200221999999
 40
0.9375037383
 40
1.0
 40
1.0
 40
1.0
 40
1.0
 10
47.68170321829997
 20
69.23470158489999
 30
0.0
 10
47.59561426800002
 20
69.27574954659997
 30
0.0
 10
47.42923638759996
 20
69.37096456669997
 30
0.0
 10
47.20367922580003
 20
69.54926739379999
 30
0.0
 10
47.00641724830001
 20
69.759243223
 30
0.0
 10
46.84154289380001
 20
69.99632693689996
 30
0.0
 10
46.71231165729999
 20
70.25548168349996
 30
0.0
 10
46.6212227852
 20
70.53125802759996
 30
0.0
 10
46.57008270330003
 20
70.81804856649995
 30
0.0
 10
46.55642478100003
 20
71.2068364397
 30
0.0
 10
46.64253398609996
 20
71.69163108480001
 30
0.0
 10
46.86047402459998
 20
72.13354098619994
 30
0.0
 10
47.10284096499998
 20
72.43892315419998
 30
0.0
 10
47.31536838470002
 20
72.63964513139995
 30
0.0
 10
47.55393907280001
 20
72.80715652239994
 30
0.0
 10
47.72746403209999
 20
72.89448200949999
 30
0.0
 10
47.81670095659996
 20
72.93139986919995
 30
0.0
  0
SPLINE
  5
94484
330
1F
100
AcDbEntity
  8
1
100
AcDbSpline
210
0.0
220
0.0
230
1.0
 70
     8
 71
     3
 72
     9
 73
     5
 74
     0
 42
0.000000001
 43
0.0000000001
 40
0.0
 40
0.0
 40
0.0
 40
0.0
 40
0.2558703564
 40
1.0
 40
1.0
 40
1.0
 40
1.0
 10
47.84061670530003
 20
72.73934139729997
 30
0.0
 10
47.86501799469996
 20
72.73886774419998
 30
0.0
 10
47.96035807879997
 20
72.73583771770001
 30
0.0
 10
48.05554746470001
 20
72.72825801740002
 30
0.0
 10
48.12606477269998
 20
72.72018503459998
 30
0.0
  0
SPLINE
  5
94485
330
1F
100
AcDbEntity
  8
1
100
AcDbSpline
210
0.0
220
0.0
230
1.0
 70
     8
 71
     3
 72
     9
 73
     5
 74
     0
 42
0.000000001
 43
0.0000000001
 40
0.0
 40
0.0
 40
0.0
 40
0.0
 40
0.2535882017
 40
1.0
 40
1.0
 40
1.0
 40
1.0
 10
47.28231266769998
 20
72.60288006839997
 30
0.0
 10
47.32074576829996
 20
72.60551234669998
 30
0.0
 10
47.4724889588
 20
72.61298325169997
 30
0.0
 10
47.62478727649996
 20
72.60904681799994
 30
0.0
 10
47.73779500440002
 20
72.59975546839998
 30
0.0
  0
SPLINE
  5
94486
330
1F
100
AcDbEntity
  8
1
100
AcDbSpline
210
0.0
220
0.0
230
1.0
 70
     8
 71
     3
 72
     9
 73
     5
 74
     0
 42
0.000000001
 43
0.0000000001
 40
0.0
 40
0.0
 40
0.0
 40
0.0
 40
0.2496162989
 40
1.0
 40
1.0
 40
1.0
 40
1.0
 10
47.76027152980003
 20
69.08845457439998
 30
0.0
 10
47.77497276610001
 20
69.08346343569997
 30
0.0
 10
47.8341199029
 20
69.06421775289999
 30
0.0
 10
47.89424882589996
 20
69.04798871399996
 30
0.0
 10
47.9397409458
 20
69.0375623617
 30
0.0
  0
SPLINE
  5
94487
330
1F
100
AcDbEntity
  8
1
100
AcDbSpline
210
0.0
220
0.0
230
1.0
 70
     8
 71
     3
 72
     9
 73
     5
 74
     0
 42
0.000000001
 43
0.0000000001
 40
0.0
 40
0.0
 40
0.0
 40
0.0
 40
0.5435610942000002
 40
1.0
 40
1.0
 40
1.0
 40
1.0
 10
51.70815514870003
 20
74.14286665909995
 30
0.0
 10
51.69645976190004
 20
74.16415033779998
 30
0.0
 10
51.67617526819999
 20
74.20400252949997
 30
0.0
 10
51.65909435719999
 20
74.24536704259998
 30
0.0
 10
51.65239074619996
 20
74.26462659890001
 30
0.0
  0
SPLINE
  5
94488
330
1F
100
AcDbEntity
  8
1
100
AcDbSpline
210
0.0
220
0.0
230
1.0
 70
     8
 71
     3
 72
     9
 73
     5
 74
     0
 42
0.000000001
 43
0.0000000001
 40
0.0
 40
0.0
 40
0.0
 40
0.0
 40
0.2474009401
 40
1.0
 40
1.0
 40
1.0
 40
1.0
 10
51.65239074619996
 20
74.26462659890001
 30
0.0
 10
51.62059669959997
 20
74.30856169359998
 30
0.0
 10
51.49671785109998
 20
74.48945866999998
 30
0.0
 10
51.39184926519999
 20
74.68334989389996
 30
0.0
 10
51.32481510219998
 20
74.83409323910001
 30
0.0
  0
SPLINE
  5
94489
330
1F
100
AcDbEntity
  8
1
100
AcDbSpline
210
0.0
220
0.0
230
1.0
 70
     8
 71
     3
 72
     8
 73
     4
 74
     0
 42
0.000000001
 43
0.0000000001
 40
0.0
 40
0.0
 40
0.0
 40
0.0
 40
1.0
 40
1.0
 40
1.0
 40
1.0
 10
47.89299246299997
 20
72.73799728860002
 30
0.0
 10
47.84061300149995
 20
72.69265344159999
 30
0.0
 10
47.7888572137
 20
72.64657771980004
 30
0.0
 10
47.73779500440002
 20
72.59975546839998
 30
0.0
  0
SPLINE
  5
9448A
330
1F
100
AcDbEntity
  8
1
100
AcDbSpline
210
0.0
220
0.0
230
1.0
 70
     8
 71
     3
 72
     9
 73
     5
 74
     0
 42
0.000000001
 43
0.0000000001
 40
0.0
 40
0.0
 40
0.0
 40
0.0
 40
0.254778521
 40
1.0
 40
1.0
 40
1.0
 40
1.0
 10
52.850488122
 20
75.38856629899999
 30
0.0
 10
52.85886850030003
 20
75.36943173999998
 30
0.0
 10
52.89206778810001
 20
75.29446450429998
 30
0.0
 10
52.92660874699999
 20
75.22008457340001
 30
0.0
 10
52.95336240659998
 20
75.16515247850001
 30
0.0
  0
SPLINE
  5
9448B
330
1F
100
AcDbEntity
  8
1
100
AcDbSpline
210
0.0
220
0.0
230
1.0
 70
     8
 71
     3
 72
     8
 73
     4
 74
     0
 42
0.000000001
 43
0.0000000001
 40
0.0
 40
0.0
 40
0.0
 40
0.0
 40
1.0
 40
1.0
 40
1.0
 40
1.0
 10
51.9738233841
 20
75.3936944175
 30
0.0
 10
51.99127422780003
 20
75.39394762419997
 30
0.0
 10
52.008728018
 20
75.39404548959995
 30
0.0
 10
52.02618060339997
 20
75.39398786250005
 30
0.0
  0
SPLINE
  5
9448C
330
1F
100
AcDbEntity
  8
1
100
AcDbSpline
210
0.0
220
0.0
230
1.0
 70
     8
 71
     3
 72
    11
 73
     7
 74
     0
 42
0.000000001
 43
0.0000000001
 40
0.0
 40
0.0
 40
0.0
 40
0.0
 40
0.2515785079
 40
0.5022479722
 40
0.7517332656999999
 40
1.0
 40
1.0
 40
1.0
 40
1.0
 10
37.7231883078
 20
72.76342273849997
 30
0.0
 10
37.85833430300003
 20
72.96113693569998
 30
0.0
 10
38.17455475510002
 20
73.32626795529995
 30
0.0
 10
38.75821541790001
 20
73.75064502169997
 30
0.0
 10
39.42001595890003
 20
74.03051674029994
 30
0.0
 10
39.89224258269997
 20
74.11048464380002
 30
0.0
 10
40.1282872214
 20
74.12223890659999
 30
0.0
  0
SPLINE
  5
9448D
330
1F
100
AcDbEntity
  8
1
100
AcDbSpline
210
0.0
220
0.0
230
1.0
 70
     8
 71
     3
 72
     9
 73
     5
 74
     0
 42
0.000000001
 43
0.0000000001
 40
0.0
 40
0.0
 40
0.0
 40
0.0
 40
0.2616778514
 40
1.0
 40
1.0
 40
1.0
 40
1.0
 10
52.02618060339997
 20
75.39398786250005
 30
0.0
 10
52.09624139929996
 20
75.39375652699999
 30
0.0
 10
52.3639774312
 20
75.39270606219995
 30
0.0
 10
52.63171227909999
 20
75.39093952439998
 30
0.0
 10
52.8293777705
 20
75.38879706349994
 30
0.0
  0
LINE
  5
9448E
330
1F
100
AcDbEntity
  8
1
100
AcDbLine
 10
52.8293777705
 20
75.38879706349994
 30
0.0
 11
52.850488122
 21
75.38856629899999
 31
0.0
  0
LINE
  5
9448F
330
1F
100
AcDbEntity
  8
1
100
AcDbLine
 10
52.850488122
 20
75.38856629899999
 30
0.0
 11
53.36493493690003
 21
75.38903511910001
 31
0.0
  0
SPLINE
  5
94490
330
1F
100
AcDbEntity
  8
1
100
AcDbSpline
210
0.0
220
0.0
230
1.0
 70
     8
 71
     3
 72
     9
 73
     5
 74
     0
 42
0.000000001
 43
0.0000000001
 40
0.0
 40
0.0
 40
0.0
 40
0.0
 40
0.2520297082
 40
1.0
 40
1.0
 40
1.0
 40
1.0
 10
52.8293781941
 20
75.38879684159997
 30
0.0
 10
52.82229299589997
 20
75.35965905229996
 30
0.0
 10
52.79317730690003
 20
75.24429313919995
 30
0.0
 10
52.76003769069999
 20
75.1299398054
 30
0.0
 10
52.73295428850002
 20
75.04516647399999
 30
0.0
  0
SPLINE
  5
94491
330
1F
100
AcDbEntity
  8
1
100
AcDbSpline
210
0.0
220
0.0
230
1.0
 70
     8
 71
     3
 72
    29
 73
    25
 74
     0
 42
0.000000001
 43
0.0000000001
 40
0.0
 40
0.0
 40
0.0
 40
0.0
 40
0.0011305209
 40
0.0024025274
 40
0.0040827915
 40
0.0062942128
 40
0.0090891358
 40
0.0124917728
 40
0.0165136919
 40
0.0211602102
 40
0.0323306629
 40
0.045993677
 40
0.0621173004
 40
0.0806556045
 40
0.1015516402
 40
0.124738979
 40
0.1776794712
 40
0.2387870447
 40
0.3072626349
 40
0.3822136452
 40
0.4626682747000002
 40
0.6358873410000001
 40
0.8180797713
 40
1.0
 40
1.0
 40
1.0
 40
1.0
 10
48.45052873960003
 20
75.24461231959998
 30
0.0
 10
48.45010790980005
 20
75.24587739769998
 30
0.0
 10
48.44997315829999
 20
75.24890512649995
 30
0.0
 10
48.45263326309996
 20
75.2531412207
 30
0.0
 10
48.457415761
 20
75.25697827839997
 30
0.0
 10
48.46437694970001
 20
75.26074327509997
 30
0.0
 10
48.47358605950001
 20
75.26445349199997
 30
0.0
 10
48.48507364990002
 20
75.2681238897
 30
0.0
 10
48.49884536189996
 20
75.2717459072
 30
0.0
 10
48.52168906660001
 20
75.27682038609999
 30
0.0
 10
48.55595065829999
 20
75.28280964980002
 30
0.0
 10
48.60380161449999
 20
75.28942614060003
 30
0.0
 10
48.66043899699997
 20
75.29580208999997
 30
0.0
 10
48.72567437869999
 20
75.30193124089999
 30
0.0
 10
48.79929278300004
 20
75.30780612799998
 30
0.0
 10
48.91344678370001
 20
75.31564965159998
 30
0.0
 10
49.07505093690002
 20
75.32456487050001
 30
0.0
 10
49.290099387
 20
75.33398811739997
 30
0.0
 10
49.53115627699998
 20
75.34262483110001
 30
0.0
 10
49.7950628306
 20
75.35058998619994
 30
0.0
 10
50.1824827012
 20
75.36070162909999
 30
0.0
 10
50.69638577870001
 20
75.37185421549998
 30
0.0
 10
51.32995828700001
 20
75.38363770720001
 30
0.0
 10
51.7593052666
 20
75.39058182209995
 30
0.0
 10
51.9738233841
 20
75.3936944175
 30
0.0
  0
SPLINE
  5
94492
330
1F
100
AcDbEntity
  8
1
100
AcDbSpline
210
0.0
220
0.0
230
1.0
 70
     8
 71
     3
 72
    25
 73
    21
 74
     0
 42
0.000000001
 43
0.0000000001
 40
0.0
 40
0.0
 40
0.0
 40
0.0
 40
0.0073456688
 40
0.0148184106
 40
0.0232057405
 40
0.0330626831
 40
0.0447179788
 40
0.0583526191
 40
0.0740535349
 40
0.0918528557
 40
0.1337248848
 40
0.1837430184
 40
0.241475483
 40
0.3063652975
 40
0.3777871202
 40
0.4550653839
 40
0.5374847193
 40
0.6243082701000004
 40
0.8080798042999999
 40
1.0
 40
1.0
 40
1.0
 40
1.0
 10
34.33394477330001
 20
66.60375347169997
 30
0.0
 10
34.32186623069998
 20
66.60806429639996
 30
0.0
 10
34.29864819659997
 20
66.62084949500002
 30
0.0
 10
34.27201898960002
 20
66.65240248439999
 30
0.0
 10
34.25463241540002
 20
66.69436502619999
 30
0.0
 10
34.2456736986
 20
66.74608086780001
 30
0.0
 10
34.24471425870001
 20
66.80761103149996
 30
0.0
 10
34.25163547279999
 20
66.87894885179996
 30
0.0
 10
34.26635384370002
 20
66.9599864372
 30
0.0
 10
34.29807886870003
 20
67.08776596699997
 30
0.0
 10
34.35848444069999
 20
67.26975556669995
 30
0.0
 10
34.45632592739997
 20
67.51206747319995
 30
0.0
 10
34.58196619879999
 20
67.78614069549997
 30
0.0
 10
34.73370813450002
 20
68.08909173669997
 30
0.0
 10
34.90971085939998
 20
68.41789151410001
 30
0.0
 10
35.10791046790001
 20
68.76940004619996
 30
0.0
 10
35.32610414300001
 20
69.14041627360001
 30
0.0
 10
35.64677791970002
 20
69.66677193970003
 30
0.0
 10
36.08095838719999
 20
70.34771748909998
 30
0.0
 10
36.44551176810001
 20
70.89305631079998
 30
0.0
 10
36.63445447780004
 20
71.16977653200001
 30
0.0
  0
SPLINE
  5
94493
330
1F
100
AcDbEntity
  8
1
100
AcDbSpline
210
0.0
220
0.0
230
1.0
 70
     8
 71
     3
 72
     8
 73
     4
 74
     0
 42
0.000000001
 43
0.0000000001
 40
0.0
 40
0.0
 40
0.0
 40
0.0
 40
1.0
 40
1.0
 40
1.0
 40
1.0
 10
36.63445447780004
 20
71.16977653200001
 30
0.0
 10
36.99722870169998
 20
71.70108553889996
 30
0.0
 10
37.36014284679999
 20
72.23229903219999
 30
0.0
 10
37.7231883078
 20
72.76342273849997
 30
0.0
  0
SPLINE
  5
94494
330
1F
100
AcDbEntity
  8
1
100
AcDbSpline
210
0.0
220
0.0
230
1.0
 70
     8
 71
     3
 72
     9
 73
     5
 74
     0
 42
0.000000001
 43
0.0000000001
 40
0.0
 40
0.0
 40
0.0
 40
0.0
 40
0.2686454951
 40
1.0
 40
1.0
 40
1.0
 40
1.0
 10
47.73779500440002
 20
72.59975546839998
 30
0.0
 10
47.7035296235
 20
72.6087940324
 30
0.0
 10
47.57500056159996
 20
72.63860692149994
 30
0.0
 10
47.44300886330001
 20
72.65348420430001
 30
0.0
 10
47.34655759909998
 20
72.65558265930001
 30
0.0
  0
SPLINE
  5
94495
330
1F
100
AcDbEntity
  8
1
100
AcDbSpline
210
0.0
220
0.0
230
1.0
 70
     8
 71
     3
 72
    11
 73
     7
 74
     0
 42
0.000000001
 43
0.0000000001
 40
0.0
 40
0.0
 40
0.0
 40
0.0
 40
0.2488805079
 40
0.4975459755
 40
0.7474445656000001
 40
1.0
 40
1.0
 40
1.0
 40
1.0
 10
48.89662520569999
 20
73.00743305560001
 30
0.0
 10
48.81344083349997
 20
73.02899347659994
 30
0.0
 10
48.64364304400002
 20
73.05972811739997
 30
0.0
 10
48.38469254189999
 20
73.0667623216
 30
0.0
 10
48.12642385409998
 20
73.03401685369997
 30
0.0
 10
47.95894642019999
 20
72.98574060759995
 30
0.0
 10
47.87723713220001
 20
72.95528128929999
 30
0.0
  0
SPLINE
  5
94496
330
1F
100
AcDbEntity
  8
1
100
AcDbSpline
210
0.0
220
0.0
230
1.0
 70
     8
 71
     3
 72
     9
 73
     5
 74
     0
 42
0.000000001
 43
0.0000000001
 40
0.0
 40
0.0
 40
0.0
 40
0.0
 40
0.2545868665
 40
1.0
 40
1.0
 40
1.0
 40
1.0
 10
46.76463679699998
 20
71.70929853040002
 30
0.0
 10
46.75909691019998
 20
71.71454238479999
 30
0.0
 10
46.73743721749997
 20
71.73524578630003
 30
0.0
 10
46.7161867442
 20
71.75637834669995
 30
0.0
 10
46.70061182090001
 20
71.77238641329996
 30
0.0
  0
SPLINE
  5
94497
330
1F
100
AcDbEntity
  8
1
100
AcDbSpline
210
0.0
220
0.0
230
1.0
 70
     8
 71
     3
 72
     9
 73
     5
 74
     0
 42
0.000000001
 43
0.0000000001
 40
0.0
 40
0.0
 40
0.0
 40
0.0
 40
0.5222545818
 40
1.0
 40
1.0
 40
1.0
 40
1.0
 10
47.24102613449995
 20
72.00331508119996
 30
0.0
 10
47.18321126169999
 20
72.03463966340001
 30
0.0
 10
47.07116632609998
 20
72.09218769360001
 30
0.0
 10
46.9561716839
 20
72.14367655669997
 30
0.0
 10
46.90045396729999
 20
72.16634238820003
 30
0.0
  0
ELLIPSE
  5
94498
330
1F
100
AcDbEntity
  8
1
100
AcDbEllipse
 10
348.0039317405001
 20
-5.977560980900022
 30
0.0
 11
344.4286631698002
 21
-80.14992244550001
 31
0.0
210
0.0
220
0.0
230
1.0
 40
0.0236903629
 41
2.616273934000004
 42
2.682190906999998
  0
ELLIPSE
  5
94499
330
1F
100
AcDbEntity
  8
1
100
AcDbEllipse
 10
65.0218195663
 20
0.1065026299999943
 30
0.0
 11
130.8926629096001
 21
5.276626405000002
 31
0.0
210
0.0
220
0.0
230
1.0
 40
0.5761090363
 41
1.6523826208
 42
1.680542844799998
  0
ELLIPSE
  5
9449A
330
1F
100
AcDbEntity
  8
1
100
AcDbEllipse
 10
109.5555093221999
 20
0.5867450847999863
 30
0.0
 11
398.6455374542999
 21
6.684215105699997
 31
0.0
210
0.0
220
0.0
230
1.0
 40
0.190131847
 41
1.723492598099998
 42
1.742657851699996
  0
ELLIPSE
  5
9449B
330
1F
100
AcDbEntity
  8
1
100
AcDbEllipse
 10
51.48283292780003
 20
72.43840069079997
 30
0.0
 11
2.292568200200002
 21
-0.5086636477000011
 31
0.0
210
0.0
220
0.0
230
1.0
 40
0.070005605
 41
3.23675177127924
 42
3.623084091178887
  0
ELLIPSE
  5
9449C
330
1F
100
AcDbEntity
  8
1
100
AcDbEllipse
 10
43.44596480569999
 20
67.74450956909999
 30
0.0
 11
14.141239351
 21
8.814741274099999
 31
0.0
210
0.0
220
0.0
230
1.0
 40
0.091637225
 41
0.8957767478999992
 42
1.095619434899999
  0
DIMENSION
  5
9449E
330
1F
100
AcDbEntity
  8
2
100
AcDbDimension
  2
*D194109
 10
63.49999999999994
 20
100.4972170754579
 30
0.0
 11
94.9666666666666
 21
104.5472170754579
 31
0.0
 70
    32
  1
<>(MAX)
 71
     5
 42
8.200000000000001
  3
コピー - ISO-25
100
AcDbAlignedDimension
 13
55.29999999999998
 23
76.19999999889995
 33
0.0
 14
63.49999999999994
 24
75.39999999887512
 34
0.0
 50
0.0
100
AcDbRotatedDimension
1001
ACAD
1000
DSTYLE
1002
{
1070
   170
1070
     1
1070
   171
1070
     3
1070
   143
1040
0.0393700787401575
1070
   285
1070
     4
1070
     4
1000
"
1070
   271
1070
     8
1070
    40
1040
1.0
1002
}
1001
ACAD_DSTYLE_DIMINSPECT
1070
   393
1070
     0
1070
   394
1070
     0
1070
   395
1000

1070
   396
1000

  0
LINE
  5
94587
330
1F
100
AcDbEntity
  8
sk3
100
AcDbLine
 10
29.00000000014671
 20
20.29996444419995
 30
0.0
 11
29.00000000014671
 21
-20.30003555360003
 31
0.0
  0
LINE
  5
94588
330
1F
100
AcDbEntity
  8
sk3
100
AcDbLine
 10
35.99999999995072
 20
20.29996444419995
 30
0.0
 11
35.99999999995072
 21
-20.30003555360004
 31
0.0
  0
LINE
  5
94589
330
1F
100
AcDbEntity
  8
sk3
100
AcDbLine
 10
39.10953503484936
 20
-18.85003555360005
 30
0.0
 11
39.10953503484936
 21
18.84996444419995
 31
0.0
  0
LINE
  5
94708
330
1F
100
AcDbEntity
  8
cut
100
AcDbLine
 10
53.5740028863
 20
75.65719748599997
 30
0.0
 11
53.71080692260003
 21
75.73089283489998
 31
0.0
  0
LINE
  5
94709
330
1F
100
AcDbEntity
  8
cut
100
AcDbLine
 10
52.74802496940006
 20
75.21362684679997
 30
0.0
 11
53.26442228080001
 21
75.48971587619995
 31
0.0
  0
LINE
  5
9470A
330
1F
100
AcDbEntity
  8
cut
100
AcDbLine
 10
52.31604000249999
 20
74.98563216039997
 30
0.0
 11
52.74802496940006
 21
75.21362684679997
 31
0.0
  0
LINE
  5
9470B
330
1F
100
AcDbEntity
  8
cut
100
AcDbLine
 10
51.54106231610003
 20
74.57845569059998
 30
0.0
 11
52.31604000249999
 21
74.98563216039997
 31
0.0
  0
LINE
  5
9470C
330
1F
100
AcDbEntity
  8
cut
100
AcDbLine
 10
49.8433953417
 20
73.69181981719998
 30
0.0
 11
51.54106231610003
 21
74.57845569059998
 31
0.0
  0
LINE
  5
9470D
330
1F
100
AcDbEntity
  8
cut
100
AcDbLine
 10
48.8810150084
 20
73.19207443099998
 30
0.0
 11
49.8433953417
 21
73.69181981719998
 31
0.0
  0
LINE
  5
9470E
330
1F
100
AcDbEntity
  8
cut
100
AcDbLine
 10
47.73630522470003
 20
72.54918547139998
 30
0.0
 11
47.75675740729999
 21
72.5620086243
 31
0.0
  0
LINE
  5
9470F
330
1F
100
AcDbEntity
  8
cut
100
AcDbLine
 10
47.75535589850004
 20
72.56115671399999
 30
0.0
 11
47.77479105730001
 21
72.57257372939996
 31
0.0
  0
LINE
  5
94710
330
1F
100
AcDbEntity
  8
cut
100
AcDbLine
 10
47.77479105730001
 20
72.57257372930002
 30
0.0
 11
48.00638099369999
 21
72.7036336187
 31
0.0
  0
LINE
  5
94711
330
1F
100
AcDbEntity
  8
cut
100
AcDbLine
 10
48.00638099369999
 20
72.7036336187
 30
0.0
 11
48.24149331670006
 21
72.83598871639998
 31
0.0
  0
LINE
  5
94712
330
1F
100
AcDbEntity
  8
cut
100
AcDbLine
 10
48.24149331670006
 20
72.83598871639998
 30
0.0
 11
48.48012944450003
 21
72.9696349646
 31
0.0
  0
LINE
  5
94713
330
1F
100
AcDbEntity
  8
cut
100
AcDbLine
 10
48.48012944450003
 20
72.9696349646
 30
0.0
 11
48.72229504910003
 21
73.10455613209995
 31
0.0
  0
LINE
  5
94714
330
1F
100
AcDbEntity
  8
cut
100
AcDbLine
 10
53.90060317540005
 20
75.83422197879997
 30
0.0
 11
54.11442526940001
 21
75.95290522809995
 31
0.0
  0
LWPOLYLINE
  5
94715
330
1F
100
AcDbEntity
  8
cut
100
AcDbPolyline
 90
        6
 70
     0
 43
0.0
 10
48.72229504910003
 20
73.10455613209995
 10
48.85191200750004
 20
73.17647108079995
 10
48.85914888160002
 20
73.18041656930001
 10
48.86641167310003
 20
73.18433229049998
 10
48.87370038200001
 20
73.18821824439999
 10
48.8810150084
 20
73.19207443099998
  0
LINE
  5
94716
330
1F
100
AcDbEntity
  8
cut
100
AcDbLine
 10
53.81998709050002
 20
75.79002992659997
 30
0.0
 11
53.90060317540005
 21
75.83422197879997
 31
0.0
  0
LINE
  5
94717
330
1F
100
AcDbEntity
  8
cut
100
AcDbLine
 10
53.71080692260003
 20
75.73089283489998
 30
0.0
 11
53.81998709050002
 21
75.79002992659997
 31
0.0
  0
LINE
  5
94718
330
1F
100
AcDbEntity
  8
cut
100
AcDbLine
 10
53.29345485260002
 20
75.50538510749998
 30
0.0
 11
53.5740028863
 21
75.65719748599997
 31
0.0
  0
LINE
  5
94719
330
1F
100
AcDbEntity
  8
cut
100
AcDbLine
 10
53.26442228080001
 20
75.48971587619995
 30
0.0
 11
53.29345485260002
 21
75.50538510749998
 31
0.0
  0
LWPOLYLINE
  5
9471A
330
1F
100
AcDbEntity
  8
cut
100
AcDbPolyline
 90
       11
 70
     0
 43
0.0
 10
47.56836013660002
 20
72.39997297739996
 10
47.5838407028
 20
72.41800354520001
 10
47.59886732600003
 20
72.43444631479997
 10
47.61439173800002
 20
72.45044368840002
 10
47.63042524030001
 20
72.46600890169998
 10
47.64695653139996
 20
72.48112871899997
 10
47.66394737970003
 20
72.4957582289
 10
47.6814100653
 20
72.50990376719993
 10
47.69933230810003
 20
72.523558998
 10
47.71763903590001
 20
72.53666000160001
 10
47.73630522470003
 20
72.54918547139998
  0
LWPOLYLINE
  5
9471B
330
1F
100
AcDbEntity
  8
cut
100
AcDbPolyline
 90
       11
 70
     0
 43
0.0
 10
47.58183180480003
 20
72.41572633009996
 10
47.59571882600002
 20
72.4310803386
 10
47.61002441580004
 20
72.44603900779998
 10
47.62475624780003
 20
72.46061100149994
 10
47.63991824540002
 20
72.47480049249998
 10
47.65549933220003
 20
72.48859369009996
 10
47.67148468140002
 20
72.50197231229998
 10
47.68785749090002
 20
72.51491781609995
 10
47.70459305480001
 20
72.52741061209997
 10
47.7216646912
 20
72.53943084959995
 10
47.73905171270004
 20
72.55096297529997
  0
LINE
  5
9471C
330
1F
100
AcDbEntity
  8
cut
100
AcDbLine
 10
47.52875970430003
 20
72.34783576209998
 30
0.0
 11
47.54272577730003
 21
72.36733142279994
 31
0.0
  0
LINE
  5
9471D
330
1F
100
AcDbEntity
  8
cut
100
AcDbLine
 10
47.54173802869998
 20
72.36598861019996
 30
0.0
 11
47.55527605420005
 21
72.38377469289997
 31
0.0
  0
LINE
  5
9471E
330
1F
100
AcDbEntity
  8
cut
100
AcDbLine
 10
47.55531843640002
 20
72.38383491159999
 30
0.0
 11
47.56931619630003
 21
72.40112058459998
 31
0.0
  0
LWPOLYLINE
  5
9471F
330
1F
100
AcDbEntity
  8
cut
100
AcDbPolyline
 90
       40
 70
     0
 43
0.0
 10
59.09312821080002
 20
60.41040436769997
 10
59.07397959190004
 20
60.39729049299996
 10
59.05447121520005
 20
60.3847374475
 10
59.03460308060002
 20
60.37274523139997
 10
59.01434608470001
 20
60.36129872409998
 10
58.99372933090003
 20
60.35041304619999
 10
58.97284012940004
 20
60.34013355839999
 10
58.95168910050003
 20
60.33046908270001
 10
58.93026562380001
 20
60.32141079719997
 10
58.90862514890002
 20
60.3129775969
 10
58.88678302310005
 20
60.30517436469995
 10
58.86472389889999
 20
60.29799621770003
 10
58.84245718350005
 20
60.29144740200003
 10
58.81995672950004
 20
60.28552124459999
 10
58.79724868410002
 20
60.28022441859997
 10
58.77442089709997
 20
60.2755811898
 10
58.7514788983
 20
60.27159690819996
 10
58.72841715789999
 20
60.26826622389997
 10
58.70530693480001
 20
60.26559735209997
 10
58.68216947260001
 20
60.26359194469995
 10
58.65898352780003
 20
60.26224834979995
 10
58.63575662860004
 20
60.26156982689997
 10
58.61246738180003
 20
60.26155613989994
 10
58.58913718060003
 20
60.26220752489996
 10
58.56583773380001
 20
60.26352794919995
 10
58.54256201440003
 20
60.26552335009995
 10
58.51931704940003
 20
60.26818779029998
 10
58.4961956282
 20
60.27150742529999
 10
58.47322557030007
 20
60.27547916559996
 10
58.45037905619998
 20
60.28010610079997
 10
58.42766541760003
 20
60.28538365419996
 10
58.40506819880002
 20
60.2913144954
 10
58.38260385540005
 20
60.29789595489996
 10
58.36033108650005
 20
60.30511544819995
 10
58.33823856540002
 20
60.3129793471
 10
58.31633761869998
 20
60.32148127969997
 10
58.29472092470004
 20
60.3305895455
 10
58.27341937609999
 20
60.34029357769997
 10
58.25240208020002
 20
60.35060394309994
 10
58.23166903690006
 20
60.36152064160001
  0
LWPOLYLINE
  5
94720
330
1F
100
AcDbEntity
  8
cut
100
AcDbPolyline
 90
       11
 70
     0
 43
0.0
 10
47.43698388170005
 20
72.16645544739998
 10
47.44402241640003
 20
72.18601146250001
 10
47.45159021010002
 20
72.20533224639996
 10
47.45967807280002
 20
72.22440144429999
 10
47.46828180690002
 20
72.24321396019997
 10
47.4773984623
 20
72.26176751299998
 10
47.487025444
 20
72.28005929919998
 10
47.49716157569999
 20
72.29808442529996
 10
47.50780603569999
 20
72.31583747569999
 10
47.51895595079999
 20
72.33331012359997
 10
47.5306002416
 20
72.35048239939998
  0
LINE
  5
94721
330
1F
100
AcDbEntity
  8
cut
100
AcDbLine
 10
47.41889913080004
 20
72.10562287609997
 30
0.0
 11
47.4246897445
 21
72.12725022569998
 31
0.0
  0
LINE
  5
94722
330
1F
100
AcDbEntity
  8
cut
100
AcDbLine
 10
47.42453584980004
 20
72.1267177053
 30
0.0
 11
47.43112796220001
 21
72.14871129169996
 31
0.0
  0
LWPOLYLINE
  5
94723
330
1F
100
AcDbEntity
  8
cut
100
AcDbPolyline
 90
       11
 70
     0
 43
0.0
 10
47.4304850439
 20
72.14668337099998
 10
47.4381859885
 20
72.16991970099996
 10
47.44586396659999
 20
72.19086301719993
 10
47.45416175330003
 20
72.21155367680001
 10
47.4630511246
 20
72.23194261629998
 10
47.47252246780003
 20
72.25201371229997
 10
47.4825853956
 20
72.27178308840001
 10
47.4932405218
 20
72.2912500507
 10
47.50449888340003
 20
72.3104358187
 10
47.5163494433
 20
72.32931917309996
 10
47.52875970430003
 20
72.34783576209998
  0
LINE
  5
94724
330
1F
100
AcDbEntity
  8
cut
100
AcDbLine
 10
47.41376325339999
 20
72.08385296540001
 30
0.0
 11
47.41914428080004
 21
72.10659413099995
 31
0.0
  0
LINE
  5
94725
330
1F
100
AcDbEntity
  8
cut
100
AcDbLine
 10
63.05666741550002
 20
66.80158860040001
 30
0.0
 11
62.71273688449999
 21
66.21999988149998
 31
0.0
  0
LINE
  5
94726
330
1F
100
AcDbEntity
  8
cut
100
AcDbLine
 10
62.71273688449999
 20
66.21999988149998
 30
0.0
 11
62.46303243299999
 21
65.79933551659997
 31
0.0
  0
LINE
  5
94727
330
1F
100
AcDbEntity
  8
cut
100
AcDbLine
 10
62.46303243299999
 20
65.79933551659997
 30
0.0
 11
62.21328876260006
 21
65.37982869839999
 31
0.0
  0
LINE
  5
94728
330
1F
100
AcDbEntity
  8
cut
100
AcDbLine
 10
62.21328876260006
 20
65.37982869839999
 30
0.0
 11
61.91609595590003
 21
64.88209916199997
 31
0.0
  0
LINE
  5
94729
330
1F
100
AcDbEntity
  8
cut
100
AcDbLine
 10
61.91609595590003
 20
64.88209916199997
 30
0.0
 11
61.66731634139997
 21
64.4666149886
 31
0.0
  0
LINE
  5
9472A
330
1F
100
AcDbEntity
  8
cut
100
AcDbLine
 10
61.66731634139997
 20
64.4666149886
 30
0.0
 11
61.33472983409999
 21
63.91272308649996
 31
0.0
  0
LINE
  5
9472B
330
1F
100
AcDbEntity
  8
cut
100
AcDbLine
 10
61.33472983409999
 20
63.91272308649996
 30
0.0
 11
61.00184011810004
 21
63.35998760639995
 31
0.0
  0
LINE
  5
9472C
330
1F
100
AcDbEntity
  8
cut
100
AcDbLine
 10
61.00184011810004
 20
63.35998760639995
 30
0.0
 11
60.6691029079
 21
62.80905576949999
 31
0.0
  0
LINE
  5
9472D
330
1F
100
AcDbEntity
  8
cut
100
AcDbLine
 10
60.6691029079
 20
62.80905576949999
 30
0.0
 11
60.33609723560002
 21
62.25913247450001
 31
0.0
  0
LWPOLYLINE
  5
9472E
330
1F
100
AcDbEntity
  8
cut
100
AcDbPolyline
 90
        6
 70
     0
 43
0.0
 10
60.33609723560002
 20
62.25913247450001
 10
59.99783016210002
 20
61.70194974419996
 10
59.99350347180004
 20
61.6949412757
 10
59.98914433850004
 20
61.68795306829998
 10
59.98475276220003
 20
61.68098512199998
 10
59.9803287429
 20
61.67403743689999
  0
LINE
  5
9472F
330
1F
100
AcDbEntity
  8
cut
100
AcDbLine
 10
59.9803287429
 20
61.67403743689999
 30
0.0
 11
59.66922384940002
 21
61.19344223199998
 31
0.0
  0
LINE
  5
94730
330
1F
100
AcDbEntity
  8
cut
100
AcDbLine
 10
59.66922384940002
 20
61.19344223199998
 30
0.0
 11
59.3021356014
 21
60.6273801259
 31
0.0
  0
LWPOLYLINE
  5
94731
330
1F
100
AcDbEntity
  8
cut
100
AcDbPolyline
 90
       16
 70
     0
 43
0.0
 10
59.30213560159998
 20
60.62738012630001
 10
59.29103630590001
 20
60.61073749369995
 10
59.27950420580001
 20
60.5943714202
 10
59.26753930140003
 20
60.57828190559995
 10
59.25512721570001
 20
60.56245096329996
 10
59.24228232560003
 20
60.5468965801
 10
59.2290477618
 20
60.53167271619997
 10
59.21543578130004
 20
60.51679398429996
 10
59.20143412700006
 20
60.5022457718
 10
59.18704915880002
 20
60.4880382013
 10
59.17226722830005
 20
60.47415842969996
 10
59.15710198389999
 20
60.46061929999996
 10
59.14160072950003
 20
60.44746946380001
 10
59.12577923310003
 20
60.43472513829994
 10
59.10962172690003
 20
60.42237010619999
 10
59.09312821070002
 20
60.41040436759999
  0
LWPOLYLINE
  5
94732
330
1F
100
AcDbEntity
  8
cut
100
AcDbPolyline
 90
        9
 70
     0
 43
0.0
 10
47.39612161220001
 20
71.92091675659999
 10
47.39614721299997
 20
71.9269986864
 10
47.39667394459998
 20
71.9499186196
 10
47.39786830369999
 20
71.97267641519998
 10
47.39972935290004
 20
71.99521922739994
 10
47.40225802970004
 20
72.01759990209996
 10
47.40544070850003
 20
72.03982949839995
 10
47.40927497999999
 20
72.06191677110002
 10
47.41376325339999
 20
72.08385296540001
  0
LWPOLYLINE
  5
94733
330
1F
100
AcDbEntity
  8
cut
100
AcDbPolyline
 90
        9
 70
     0
 43
0.0
 10
47.3961201781
 20
71.92091675699998
 10
47.39638803
 20
71.94122260860002
 10
47.39723857060002
 20
71.96235409409997
 10
47.39867017010001
 20
71.98337392939999
 10
47.40067526650004
 20
72.0042601719
 10
47.40324494320001
 20
72.02499697689995
 10
47.40637271100005
 20
72.04557588169994
 10
47.41006178990002
 20
72.06601795099998
 10
47.41431782729997
 20
72.08635163139994
  0
LWPOLYLINE
  5
94734
330
1F
100
AcDbEntity
  8
cut
100
AcDbPolyline
 90
        5
 70
     0
 43
0.0
 10
47.40089738540003
 20
71.83531983889999
 10
47.39868237340002
 20
71.85824924989998
 10
47.39715142749999
 20
71.88116400149993
 10
47.39630454750002
 20
71.90406409389999
 10
47.39612161220001
 20
71.92091675659999
  0
LWPOLYLINE
  5
94735
330
1F
100
AcDbEntity
  8
cut
100
AcDbPolyline
 90
       16
 70
     0
 43
0.0
 10
47.4891375256
 20
71.55070455739997
 10
47.47985082650003
 20
71.5688072026
 10
47.47104222530007
 20
71.58707635219996
 10
47.46271172179999
 20
71.60551200610001
 10
47.45485399320003
 20
71.62413559930001
 10
47.4474743624
 20
71.64292569689997
 10
47.44058879820002
 20
71.66181799409997
 10
47.43420373770002
 20
71.68079531739994
 10
47.42831274369999
 20
71.69987484040001
 10
47.42291247340003
 20
71.71904377899995
 10
47.4179985524
 20
71.73831971349994
 10
47.41357535499999
 20
71.75768506369997
 10
47.40965266159999
 20
71.7770743039
 10
47.40623373220002
 20
71.79646559239995
 10
47.4033153068
 20
71.81588077099997
 10
47.40089738530005
 20
71.83531983979998
  0
LINE
  5
94736
330
1F
100
AcDbEntity
  8
cut
100
AcDbLine
 10
48.54957963569997
 20
69.4506351467
 30
0.0
 11
48.0903030977
 21
70.35569741979998
 31
0.0
  0
LINE
  5
94737
330
1F
100
AcDbEntity
  8
cut
100
AcDbLine
 10
48.92979420030004
 20
68.6971581084
 30
0.0
 11
48.54957963569997
 21
69.4506351467
 31
0.0
  0
LINE
  5
94738
330
1F
100
AcDbEntity
  8
cut
100
AcDbLine
 10
48.0903030977
 20
70.35569741989997
 30
0.0
 11
48.08246920910002
 21
70.37124977689996
 31
0.0
  0
LINE
  5
94739
330
1F
100
AcDbEntity
  8
cut
100
AcDbLine
 10
49.31586028860003
 20
67.92781722919993
 30
0.0
 11
48.92979420030004
 21
68.6971581084
 31
0.0
  0
LINE
  5
9473A
330
1F
100
AcDbEntity
  8
cut
100
AcDbLine
 10
49.63384984740006
 20
67.29085059959999
 30
0.0
 11
49.31586028860003
 21
67.92781722919993
 31
0.0
  0
LINE
  5
9473B
330
1F
100
AcDbEntity
  8
cut
100
AcDbLine
 10
50.3323732904
 20
65.88008991849996
 30
0.0
 11
49.63384984740006
 21
67.29085059959999
 31
0.0
  0
LINE
  5
9473C
330
1F
100
AcDbEntity
  8
cut
100
AcDbLine
 10
48.08246920910002
 20
70.37124977689996
 30
0.0
 11
48.07463451589999
 21
70.38712964119998
 31
0.0
  0
LINE
  5
9473D
330
1F
100
AcDbEntity
  8
cut
100
AcDbLine
 10
50.76702548480003
 20
64.99345107359999
 30
0.0
 11
50.3323732904
 21
65.88008991849996
 31
0.0
  0
LINE
  5
9473E
330
1F
100
AcDbEntity
  8
cut
100
AcDbLine
 10
50.9559083823
 20
64.60578761099997
 30
0.0
 11
50.76702548390002
 21
64.9934510754
 31
0.0
  0
LWPOLYLINE
  5
9473F
330
1F
100
AcDbEntity
  8
cut
100
AcDbPolyline
 90
        9
 70
     0
 43
0.0
 10
48.00469689789999
 20
70.53235791989999
 10
47.94207263060004
 20
70.66099672629997
 10
47.87892621630001
 20
70.78925343200002
 10
47.81525562260006
 20
70.91713044429997
 10
47.75106288180004
 20
71.04462535589998
 10
47.686354092
 20
71.17173094520001
 10
47.62113128560001
 20
71.29844480509994
 10
47.55539243000001
 20
71.42476934259995
 10
47.48913752530003
 20
71.55070455779998
  0
LINE
  5
94740
330
1F
100
AcDbEntity
  8
cut
100
AcDbLine
 10
48.07463451589999
 20
70.38712964119998
 30
0.0
 11
48.00469689789999
 21
70.53235791989999
 31
0.0
  0
LINE
  5
94741
330
1F
100
AcDbEntity
  8
cut
100
AcDbLine
 10
63.4949357221
 20
74.03578502879998
 30
0.0
 11
63.50000000000003
 21
75.3999999989
 31
0.0
  0
LINE
  5
94742
330
1F
100
AcDbEntity
  8
cut
100
AcDbLine
 10
63.4949357221
 20
74.03578502879998
 30
0.0
 11
63.49481348180002
 21
74.02689448619998
 31
0.0
  0
LINE
  5
94743
330
1F
100
AcDbEntity
  8
cut
100
AcDbLine
 10
63.26542787270003
 20
67.89478268059998
 30
0.0
 11
63.25994032209999
 21
67.5394861675
 31
0.0
  0
LINE
  5
94744
330
1F
100
AcDbEntity
  8
cut
100
AcDbLine
 10
63.49481348180002
 20
74.02689448619998
 30
0.0
 11
63.4944514573
 21
74.0090654882
 31
0.0
  0
LINE
  5
94745
330
1F
100
AcDbEntity
  8
cut
100
AcDbLine
 10
63.27312516570001
 20
68.2623562864
 30
0.0
 11
63.26542787270003
 21
67.89478268059998
 31
0.0
  0
LWPOLYLINE
  5
94746
330
1F
100
AcDbEntity
  8
cut
100
AcDbPolyline
 90
       25
 70
     0
 43
0.0
 10
63.25994032220004
 20
67.53948617449998
 10
63.25913174720003
 20
67.50595060230001
 10
63.25761407109999
 20
67.47263661779999
 10
63.25538729389997
 20
67.43954422099996
 10
63.2524412914
 20
67.40666594719994
 10
63.24878618780005
 20
67.3740092612
 10
63.24445235600004
 20
67.34159655679997
 10
63.2394379302
 20
67.30943547829998
 10
63.23374477619998
 20
67.2775183814
 10
63.227408864
 20
67.24584472790002
 10
63.22043384950003
 20
67.21441039639995
 10
63.21281607670002
 20
67.18321950820001
 10
63.20458054740001
 20
67.15228388979999
 10
63.19573871410002
 20
67.12160940609999
 10
63.18627912410002
 20
67.09119019209999
 10
63.17619242110001
 20
67.06102047959996
 10
63.16548008340001
 20
67.03109023139997
 10
63.15414063270001
 20
67.00140948469992
 10
63.14216027650005
 20
66.97200258250001
 10
63.12953901490002
 20
66.94286919469994
 10
63.11627684800001
 20
66.91400965139997
 10
63.10235998300001
 20
66.88544928569996
 10
63.08778382250003
 20
66.85719654179997
 10
63.07255296400003
 20
66.82924297549999
 10
63.05666740740004
 20
66.80158858679999
  0
LINE
  5
94747
330
1F
100
AcDbEntity
  8
cut
100
AcDbLine
 10
63.28125474450004
 20
68.57506146509996
 30
0.0
 11
63.27312516570001
 21
68.2623562864
 31
0.0
  0
LINE
  5
94748
330
1F
100
AcDbEntity
  8
cut
100
AcDbLine
 10
63.4944514573
 20
74.0090654882
 30
0.0
 11
63.49393270760001
 21
73.9911726066
 31
0.0
  0
LINE
  5
94749
330
1F
100
AcDbEntity
  8
cut
100
AcDbLine
 10
63.29011315200002
 20
68.86488003969997
 30
0.0
 11
63.28125474450004
 21
68.57506146509996
 31
0.0
  0
LINE
  5
9474A
330
1F
100
AcDbEntity
  8
cut
100
AcDbLine
 10
63.30021102709999
 20
69.15409272609998
 30
0.0
 11
63.29011315200002
 21
68.86488003969997
 31
0.0
  0
LINE
  5
9474B
330
1F
100
AcDbEntity
  8
cut
100
AcDbLine
 10
63.49393270760001
 20
73.9911726066
 30
0.0
 11
63.465984151
 21
73.25605780249998
 31
0.0
  0
LINE
  5
9474C
330
1F
100
AcDbEntity
  8
cut
100
AcDbLine
 10
63.465984151
 20
73.25605780249998
 30
0.0
 11
63.43209023800003
 21
72.38487821649994
 31
0.0
  0
LINE
  5
9474D
330
1F
100
AcDbEntity
  8
cut
100
AcDbLine
 10
63.43209023800003
 20
72.38487821649994
 30
0.0
 11
63.39787882670001
 21
71.52592153059998
 31
0.0
  0
LINE
  5
9474E
330
1F
100
AcDbEntity
  8
cut
100
AcDbLine
 10
63.39787882670001
 20
71.52592153059998
 30
0.0
 11
63.36392690610003
 21
70.69246201779998
 31
0.0
  0
LINE
  5
9474F
330
1F
100
AcDbEntity
  8
cut
100
AcDbLine
 10
63.31404953620003
 20
69.50074854269995
 30
0.0
 11
63.30021102709999
 21
69.15409272609998
 31
0.0
  0
LINE
  5
94750
330
1F
100
AcDbEntity
  8
cut
100
AcDbLine
 10
63.36392690610003
 20
70.69246201779998
 30
0.0
 11
63.33126391810001
 21
69.90795696849993
 31
0.0
  0
LINE
  5
94751
330
1F
100
AcDbEntity
  8
cut
100
AcDbLine
 10
63.32143853110004
 20
69.67545062549999
 30
0.0
 11
63.31404953620003
 21
69.50074854269995
 31
0.0
  0
LINE
  5
94752
330
1F
100
AcDbEntity
  8
cut
100
AcDbLine
 10
63.33126391810001
 20
69.90795696849993
 30
0.0
 11
63.32143853110004
 21
69.67545062549999
 31
0.0
  0
LINE
  5
94753
330
1F
100
AcDbEntity
  8
cut
100
AcDbLine
 10
57.22543832220001
 20
60.89405612149993
 30
0.0
 11
57.08788035320001
 21
60.96445850579994
 31
0.0
  0
LINE
  5
94754
330
1F
100
AcDbEntity
  8
cut
100
AcDbLine
 10
57.08788035320001
 20
60.96445850579994
 30
0.0
 11
57.07228235400001
 21
60.97256868169996
 31
0.0
  0
LWPOLYLINE
  5
94755
330
1F
100
AcDbEntity
  8
cut
100
AcDbPolyline
 90
        4
 70
     0
 43
0.0
 10
57.60929114470005
 20
60.69463961079998
 10
57.48221300350005
 20
60.76116416659999
 10
57.35426144880003
 20
60.8276340919
 10
57.22543832220001
 20
60.89405612149993
  0
LINE
  5
94756
330
1F
100
AcDbEntity
  8
cut
100
AcDbLine
 10
57.8608382354
 20
60.56146701590002
 30
0.0
 11
57.60929114470005
 21
60.69463961079998
 31
0.0
  0
LINE
  5
94757
330
1F
100
AcDbEntity
  8
cut
100
AcDbLine
 10
57.07228235400001
 20
60.97256868169996
 30
0.0
 11
57.0568557443
 21
60.98075042309996
 31
0.0
  0
LINE
  5
94758
330
1F
100
AcDbEntity
  8
cut
100
AcDbLine
 10
56.03880473850003
 20
61.53053718919995
 30
0.0
 11
53.14052240590005
 21
63.08727665239995
 31
0.0
  0
LINE
  5
94759
330
1F
100
AcDbEntity
  8
cut
100
AcDbLine
 10
56.24520259510004
 20
61.41920921249999
 30
0.0
 11
56.03880473850003
 21
61.53053718919995
 31
0.0
  0
LINE
  5
9475A
330
1F
100
AcDbEntity
  8
cut
100
AcDbLine
 10
56.51575174860003
 20
61.27317524419999
 30
0.0
 11
56.24520259510004
 21
61.41920921249999
 31
0.0
  0
LINE
  5
9475B
330
1F
100
AcDbEntity
  8
cut
100
AcDbLine
 10
56.78375342479998
 20
61.12839541659997
 30
0.0
 11
56.51575174860003
 21
61.27317524419999
 31
0.0
  0
LINE
  5
9475C
330
1F
100
AcDbEntity
  8
cut
100
AcDbLine
 10
57.0568557443
 20
60.98075042309996
 30
0.0
 11
56.78375342479998
 21
61.12839541659997
 31
0.0
  0
LINE
  5
9475D
330
1F
100
AcDbEntity
  8
cut
100
AcDbLine
 10
53.14052240590005
 20
63.08727665239995
 30
0.0
 11
52.99979081580002
 21
63.16324314189995
 31
0.0
  0
LWPOLYLINE
  5
9475E
330
1F
100
AcDbEntity
  8
cut
100
AcDbPolyline
 90
        4
 70
     0
 43
0.0
 10
58.23166903709998
 20
60.36152064149995
 10
58.1089248177
 20
60.4281971245
 10
57.98531455040002
 20
60.49484591599997
 10
57.8608382354
 20
60.56146701590002
  0
LINE
  5
9475F
330
1F
100
AcDbEntity
  8
cut
100
AcDbLine
 10
52.99979081580002
 20
63.16324314189995
 30
0.0
 11
52.86121723750003
 21
63.23882352079994
 31
0.0
  0
LINE
  5
94760
330
1F
100
AcDbEntity
  8
cut
100
AcDbLine
 10
52.86121723750003
 20
63.23882352079994
 30
0.0
 11
52.72337788540003
 21
63.31481747419997
 31
0.0
  0
LINE
  5
94761
330
1F
100
AcDbEntity
  8
cut
100
AcDbLine
 10
52.72337788540003
 20
63.31481747419997
 30
0.0
 11
52.58528522280002
 21
63.39169092139997
 31
0.0
  0
LINE
  5
94762
330
1F
100
AcDbEntity
  8
cut
100
AcDbLine
 10
52.58528522280002
 20
63.39169092139997
 30
0.0
 11
52.44766855900004
 21
63.4690831214
 31
0.0
  0
LINE
  5
94763
330
1F
100
AcDbEntity
  8
cut
100
AcDbLine
 10
52.44766855900004
 20
63.4690831214
 30
0.0
 11
52.30871426870002
 21
63.5479786175
 31
0.0
  0
LINE
  5
94764
330
1F
100
AcDbEntity
  8
cut
100
AcDbLine
 10
52.30871426870002
 20
63.5479786175
 30
0.0
 11
52.16791161600005
 21
63.62868213809997
 31
0.0
  0
LINE
  5
94765
330
1F
100
AcDbEntity
  8
cut
100
AcDbLine
 10
52.16791161600005
 20
63.62868213809997
 30
0.0
 11
52.03831807380002
 21
63.70363275409999
 31
0.0
  0
LINE
  5
94766
330
1F
100
AcDbEntity
  8
cut
100
AcDbLine
 10
52.03831807380002
 20
63.70363275409999
 30
0.0
 11
51.8806446925
 21
63.79570557669996
 31
0.0
  0
LINE
  5
94767
330
1F
100
AcDbEntity
  8
cut
100
AcDbLine
 10
51.8806446925
 20
63.79570557669996
 30
0.0
 11
51.7338902282
 21
63.88226362719996
 31
0.0
  0
LINE
  5
94768
330
1F
100
AcDbEntity
  8
cut
100
AcDbLine
 10
51.7338902282
 20
63.88226362719996
 30
0.0
 11
51.57383851970005
 21
63.97762143809996
 31
0.0
  0
LINE
  5
94769
330
1F
100
AcDbEntity
  8
cut
100
AcDbLine
 10
51.57383851970005
 20
63.97762143809996
 30
0.0
 11
51.49018395399999
 21
64.0278554148
 31
0.0
  0
LWPOLYLINE
  5
9476A
330
1F
100
AcDbEntity
  8
cut
100
AcDbPolyline
 90
       31
 70
     0
 43
0.0
 10
51.49018451790002
 20
64.02785507519997
 10
51.45790221050001
 20
64.04807496860001
 10
51.42721824790001
 20
64.06816050559996
 10
51.39813262989999
 20
64.08811168630001
 10
51.37074970410001
 20
64.10795228630002
 10
51.34496512299997
 20
64.12765853009995
 10
51.32046584460002
 20
64.14715909069997
 10
51.29723970780005
 20
64.1664193661
 10
51.27529887369998
 20
64.18547395819996
 10
51.25436678280003
 20
64.2043553461
 10
51.23443063819999
 20
64.22304574380001
 10
51.21550323670001
 20
64.24156293709995
 10
51.19734640970003
 20
64.25999276269999
 10
51.17994562310006
 20
64.27832915509997
 10
51.16331541080004
 20
64.29657817969996
 10
51.14726120560002
 20
64.31484386969997
 10
51.1317710606
 20
64.3331200202
 10
51.1168569227
 20
64.35141283589996
 10
51.1023600655
 20
64.36984496489998
 10
51.0882531814
 20
64.38843482429996
 10
51.07456357810004
 20
64.40716399689995
 10
51.06121445180001
 20
64.42609987869997
 10
51.04818314410003
 20
64.44526719039997
 10
51.03549231330001
 20
64.46464121139996
 10
51.0231331312
 20
64.4842151757
 10
51.01110327170002
 20
64.50398892290002
 10
50.99940506070002
 20
64.52396261339997
 10
50.98803664780003
 20
64.54412996309996
 10
50.97699741610004
 20
64.56448887729999
 10
50.96628798250001
 20
64.58504145069998
 10
50.95590834680004
 20
64.60578768329998
  0
LINE
  5
9476B
330
1F
100
AcDbEntity
  8
cut
100
AcDbLine
 10
55.07740151890001
 20
76.19999999889995
 30
0.0
 11
62.70000000000002
 21
76.19999999889995
 31
0.0
  0
ARC
  5
9476C
330
1F
100
AcDbEntity
  8
cut
100
AcDbCircle
 10
55.07740151890001
 20
74.19999999889995
 30
0.0
 40
2.0
100
AcDbArc
 50
90.0
 51
118.7826402803998
  0
ARC
  5
9476D
330
1F
100
AcDbEntity
  8
cut
100
AcDbCircle
 10
62.70000000000002
 20
75.3999999989
 30
0.0
 40
0.8
100
AcDbArc
 50
0.0
 51
90.0
  0
DIMENSION
  5
9476E
330
1F
100
AcDbEntity
  8
2
100
AcDbDimension
  2
*D1310
 10
62.70000000000002
 20
75.3999999989
 30
0.0
 11
74.35096210166712
 21
80.66721611436912
 31
0.0
 70
   164
 71
     5
 42
0.8
  3
コピー - ISO-25
100
AcDbRadialDimension
 15
63.42896754623777
 25
75.72955472353931
 35
0.0
 40
0.0
1001
ACAD
1000
DSTYLE
1002
{
1070
   170
1070
     1
1070
   171
1070
     3
1070
   143
1040
0.0393700787401575
1070
   285
1070
     4
1070
     4
1000
"
1070
   271
1070
     8
1070
    40
1040
1.0
1002
}
1001
ACAD_DSTYLE_DIMRADIAL_EXTENSION
1070
   387
1070
     1
1070
   388
1040
0.0
1070
   390
1040
1.570796326794896
1001
ACAD_DSTYLE_DIMINSPECT
1070
   396
1000

1070
   395
1000

1070
   394
1070
     1
1070
   393
1070
     0
1001
ZWMCAD_GENSTANDARDFRAME_13_
1070
   410
1000
GB
1070
   411
1000
ZwmFrameMain_
  0
VIEWPORT
  5
71
102
{ACAD_XDICTIONARY
360
87B09
102
}
330
55
100
AcDbEntity
 67
     1
  8
0
100
AcDbViewport
 10
150.1652135264906
 20
103.6581106594891
 30
0.0
 40
339.1973820494347
 41
168.6522697578383
 68
     1
 69
    -1
 12
150.1652135264906
 22
103.6581106594891
 13
0.0
 23
0.0
 14
10.0
 24
10.0
 15
10.0
 25
10.0
 16
0.0
 26
0.0
 36
1.0
 17
0.0
 27
0.0
 37
0.0
 42
50.0
 43
0.0
 44
0.0
 45
168.6522697578383
 50
0.0
 51
0.0
 72
  1000
 90
    32864
  1

281
     0
 71
     1
 74
     0
110
0.0
120
0.0
130
0.0
111
1.0
121
0.0
131
0.0
112
0.0
122
1.0
132
0.0
 79
     0
146
0.0
1001
ACAD
1000
MVIEW
1002
{
1070
    16
1010
0.0
1020
0.0
1030
0.0
1010
0.0
1020
0.0
1030
1.0
1040
0.0
1040
168.6522697578383
1040
150.1652135264906
1040
103.6581106594891
1040
50.0
1040
0.0
1040
0.0
1070
     0
1070
  1000
1070
     0
1070
     3
1070
     0
1070
     0
1070
     0
1070
     0
1040
0.0
1040
0.0
1040
0.0
1040
10.0
1040
10.0
1040
10.0
1040
10.0
1070
     0
1002
{
1002
}
1002
}
  0
VIEWPORT
  5
73
102
{ACAD_XDICTIONARY
360
87B0B
102
}
330
55
100
AcDbEntity
 67
     1
  8
0
100
AcDbViewport
 10
133.3499939441681
 20
101.5999939441681
 30
0.0
 40
213.3599903106689
 41
162.5599903106689
 68
     2
 69
    -1
 12
210.0
 22
148.5
 13
0.0
 23
0.0
 14
10.0
 24
10.0
 15
10.0
 25
10.0
 16
0.0
 26
0.0
 36
1.0
 17
0.0
 27
0.0
 37
0.0
 42
50.0
 43
0.0
 44
0.0
 45
324.0677920111345
 50
0.0
 51
0.0
 72
   100
 90
    32864
  1

281
     0
 71
     1
 74
     0
110
0.0
120
0.0
130
0.0
111
1.0
121
0.0
131
0.0
112
0.0
122
1.0
132
0.0
 79
     0
146
0.0
1001
ACAD
1000
MVIEW
1002
{
1070
    16
1010
0.0
1020
0.0
1030
0.0
1010
0.0
1020
0.0
1030
1.0
1040
0.0
1040
324.0677920111345
1040
210.0
1040
148.5
1040
50.0
1040
0.0
1040
0.0
1070
     0
1070
   100
1070
     0
1070
     3
1070
     0
1070
     0
1070
     0
1070
     0
1040
0.0
1040
0.0
1040
0.0
1040
10.0
1040
10.0
1040
10.0
1040
10.0
1070
     0
1002
{
1002
}
1002
}
  0
ENDSEC
  0
SECTION
  2
OBJECTS
  0
DICTIONARY
  5
C
330
0
100
AcDbDictionary
281
     1
  3
ACAD_2007HEADERVARS_RT
350
947DC
  3
ACAD_CIP_PREVIOUS_PRODUCT_INFO
350
4A3C3
  3
ACAD_COLOR
350
85
  3
ACAD_DETAILVIEWSTYLE
350
4A3BB
  3
ACAD_GROUP
350
D
  3
ACAD_LAYOUT
350
1A
  3
ACAD_MATERIAL
350
84
  3
ACAD_MLEADERSTYLE
350
4A3B7
  3
ACAD_MLINESTYLE
350
17
  3
ACAD_PLOTSETTINGS
350
19
  3
ACAD_PLOTSTYLENAME
350
E
  3
ACAD_SCALELIST
350
4A3A5
  3
ACAD_SECTIONVIEWSTYLE
350
4A3B9
  3
ACAD_TABLESTYLE
350
A1
  3
ACAD_VISUALSTYLE
350
4A38C
  3
ACDB_RECOMPOSE_DATA
350
947B6
  3
ACDBHEADERROUNDTRIPXREC
350
947D9
  3
AcDbVariableDictionary
350
5E
  3
ASE_INDEX_DICTIONARY
350
349E9
  3
DWGPROPS
350
947DF
  0
DICTIONARY
  5
8C34E
330
8
100
AcDbDictionary
280
     1
281
     1
  3
ACAD_XREC_ROUNDTRIP
360
947E5
  0
DICTIONARY
  5
E2
330
2
100
AcDbDictionary
280
     1
281
     1
  3
ACAD_LAYERFILTERS
360
4A339
  3
ACAD_LAYERSTATES
360
3759A
  3
ACLYDICTIONARY
360
4A338
  0
DICTIONARY
  5
4A86C
330
10
100
AcDbDictionary
280
     1
281
     1
  3
ADSK_XREC_LAYER_RECONCILED
360
4A86D
  0
DICTIONARY
  5
4A773
330
4A772
100
AcDbDictionary
280
     1
281
     1
  3
ADSK_XREC_LAYER_RECONCILED
360
4A86E
  0
DICTIONARY
  5
4A775
330
4A774
100
AcDbDictionary
280
     1
281
     1
  3
ADSK_XREC_LAYER_RECONCILED
360
4A86F
  0
DICTIONARY
  5
4A777
330
4A776
100
AcDbDictionary
280
     1
281
     1
  3
ADSK_XREC_LAYER_RECONCILED
360
4A870
  0
DICTIONARY
  5
4A779
330
4A778
100
AcDbDictionary
280
     1
281
     1
  3
ADSK_XREC_LAYER_RECONCILED
360
4A871
  0
DICTIONARY
  5
4A77B
330
4A77A
100
AcDbDictionary
280
     1
281
     1
  3
ADSK_XREC_LAYER_RECONCILED
360
4A872
  0
DICTIONARY
  5
4A77F
330
4A77E
100
AcDbDictionary
280
     1
281
     1
  3
ADSK_XREC_LAYER_RECONCILED
360
4A874
  0
DICTIONARY
  5
4A783
330
4A782
100
AcDbDictionary
280
     1
281
     1
  3
ADSK_XREC_LAYER_RECONCILED
360
4A876
  0
DICTIONARY
  5
8C34C
330
87B52
100
AcDbDictionary
280
     1
281
     1
  3
ACAD_XREC_ROUNDTRIP
360
947E4
  0
DICTIONARY
  5
31EE
330
1F
100
AcDbDictionary
280
     1
281
     1
  3
ACAD_SORTENTS
360
31EF
  0
DICTIONARY
  5
4A6D7
330
4A6D6
100
AcDbDictionary
280
     1
281
     1
  3
ACAD_SORTENTS
360
4A6D8
  0
DICTIONARY
  5
87B05
330
6B
100
AcDbDictionary
280
     1
281
     1
  3
ACAD_XREC_ROUNDTRIP
360
947E2
  0
DICTIONARY
  5
87B07
330
6D
100
AcDbDictionary
280
     1
281
     1
  3
ACAD_XREC_ROUNDTRIP
360
947E3
  0
DICTIONARY
  5
943F3
330
943F2
100
AcDbDictionary
280
     1
281
     1
  3
ACAD_DIMASSOC
360
943F4
  0
DICTIONARY
  5
943F6
330
943F5
100
AcDbDictionary
280
     1
281
     1
  3
ACAD_DIMASSOC
360
943F7
  0
DICTIONARY
  5
943FA
330
943F9
100
AcDbDictionary
280
     1
281
     1
  3
ACAD_DIMASSOC
360
943FB
  0
DICTIONARY
  5
87B09
330
71
100
AcDbDictionary
280
     1
281
     1
  3
ACAD_XREC_ROUNDTRIP
360
947E0
  0
DICTIONARY
  5
87B0B
330
73
100
AcDbDictionary
280
     1
281
     1
  3
ACAD_XREC_ROUNDTRIP
360
947E1
  0
DICTIONARY
  5
947DC
102
{ACAD_REACTORS
330
C
102
}
330
C
100
AcDbDictionary
281
     1
  3
DIMTFILL
350
947DD
  3
DIMTFILLCLR
350
947DE
  0
XRECORD
  5
4A3C3
102
{ACAD_REACTORS
330
C
102
}
330
C
100
AcDbXrecord
280
     1
300
ACDLT
300
2020
300

  0
DICTIONARY
  5
85
102
{ACAD_REACTORS
330
C
102
}
330
C
100
AcDbDictionary
281
     1
  0
DICTIONARY
  5
4A3BB
102
{ACAD_REACTORS
330
C
102
}
330
C
100
AcDbDictionary
281
     1
  3
Metric50
350
4A3BC
  0
DICTIONARY
  5
D
102
{ACAD_REACTORS
330
C
102
}
330
C
100
AcDbDictionary
281
     1
  0
DICTIONARY
  5
1A
102
{ACAD_REACTORS
330
C
102
}
330
C
100
AcDbDictionary
281
     1
  3
Model
350
22
  3
レイアウト1
350
51
  3
レイアウト2
350
56
  0
DICTIONARY
  5
84
102
{ACAD_REACTORS
330
C
102
}
330
C
100
AcDbDictionary
281
     1
  3
ByBlock
350
4A37C
  3
ByLayer
350
4A374
  3
Global
350
4A384
  0
DICTIONARY
  5
4A3B7
102
{ACAD_REACTORS
330
C
102
}
330
C
100
AcDbDictionary
281
     1
  3
Standard
350
4A3B8
  0
DICTIONARY
  5
17
102
{ACAD_REACTORS
330
C
102
}
330
C
100
AcDbDictionary
281
     1
  3
Standard
350
18
  0
DICTIONARY
  5
19
102
{ACAD_REACTORS
330
C
102
}
330
C
100
AcDbDictionary
281
     1
  0
ACDBDICTIONARYWDFLT
  5
E
102
{ACAD_REACTORS
330
C
102
}
330
C
100
AcDbDictionary
281
     1
  3
Normal
350
F
100
AcDbDictionaryWithDefault
340
F
  0
DICTIONARY
  5
4A3A5
102
{ACAD_REACTORS
330
C
102
}
330
C
100
AcDbDictionary
281
     1
  3
A0
350
4A3A6
  3
A1
350
4A3A7
  3
A2
350
4A3A8
  3
A3
350
4A3A9
  3
A4
350
4A3AA
  3
A5
350
4A3AB
  3
A6
350
4A3AC
  3
A7
350
4A3AD
  3
A8
350
4A3AE
  3
A9
350
4A3AF
  3
B0
350
4A3B0
  3
B1
350
4A3B1
  3
B2
350
4A3B2
  3
B3
350
4A3B3
  3
B4
350
4A3B4
  3
B5
350
4A3B5
  3
B6
350
4A3B6
  0
DICTIONARY
  5
4A3B9
102
{ACAD_REACTORS
330
C
102
}
330
C
100
AcDbDictionary
281
     1
  3
Metric50
350
4A3BA
  0
DICTIONARY
  5
A1
102
{ACAD_REACTORS
330
C
102
}
330
C
100
AcDbDictionary
281
     1
  3
Standard
350
A2
  0
DICTIONARY
  5
4A38C
102
{ACAD_REACTORS
330
C
102
}
330
C
100
AcDbDictionary
281
     1
  3
2dWireframe
350
4A392
  3
Basic
350
4A391
  3
Brighten
350
4A398
  3
ColorChange
350
4A39C
  3
Conceptual
350
4A395
  3
Dim
350
4A397
  3
EdgeColorOff
350
4A3A4
  3
Facepattern
350
4A39B
  3
Flat
350
4A38D
  3
FlatWithEdges
350
4A38E
  3
Gouraud
350
4A38F
  3
GouraudWithEdges
350
4A390
  3
Hidden
350
4A394
  3
JitterOff
350
4A3A2
  3
Linepattern
350
4A39A
  3
OverhangOff
350
4A3A3
  3
Realistic
350
4A396
  3
Shaded
350
4A3A1
  3
Shaded with edges
350
4A3A0
  3
Shades of Gray
350
4A39D
  3
Sketchy
350
4A39E
  3
Thicken
350
4A399
  3
Wireframe
350
4A393
  3
X-Ray
350
4A39F
  0
XRECORD
  5
947B6
102
{ACAD_REACTORS
330
C
102
}
330
C
100
AcDbXrecord
280
     1
 90
        1
330
A2
  0
DICTIONARY
  5
947D9
102
{ACAD_REACTORS
330
C
102
}
330
C
100
AcDbDictionary
281
     1
  3
COLORDICT
350
947DA
  3
MATERIALDICT
350
947DB
  0
DICTIONARY
  5
5E
102
{ACAD_REACTORS
330
C
102
}
330
C
100
AcDbDictionary
281
     1
  3
CANNOSCALE
350
947D8
  3
CMLEADERSTYLE
350
4A6CE
  3
CTABLESTYLE
350
B8
  3
CVIEWDETAILSTYLE
350
4A6CF
  3
CVIEWSECTIONSTYLE
350
4A6D0
  3
DIMASSOC
350
5F
  3
HIDETEXT
350
63
  3
INDEXCTL
350
4A879
  3
LAYEREVAL
350
4A6D4
  3
LAYERNOTIFY
350
4A6D5
  3
LIGHTINGUNITS
350
4A6D3
  3
MSLTSCALE
350
4A6D1
  3
PROJECTNAME
350
31CE
  3
SORTENTS
350
4A878
  3
XCLIPFRAME
350
87AF9
  0
DICTIONARY
  5
349E9
102
{ACAD_REACTORS
330
C
102
}
330
C
100
AcDbDictionary
281
     1
  3
ASEBlockHierarchyIndexRecord
350
349EA
1001
DCO15
1040
1842496176.844
  0
XRECORD
  5
947DF
102
{ACAD_REACTORS
330
C
102
}
330
C
100
AcDbXrecord
280
     1
  1
DWGPROPS COOKIE
  2

  3

  4

  6

  7

  8
zhangnw
  9

300
=
301
=
302
=
303
=
304
=
305
=
306
=
307
=
308
=
309
=
 40
0.0
 41
2455489.391063368
 42
2458948.45203838
  1

 90
        0
  0
XRECORD
  5
947E5
102
{ACAD_REACTORS
330
8C34E
102
}
330
8C34E
100
AcDbXrecord
280
     1
102
VTR_0.000_0.000_1.000_1.000_VISUALSTYLE
340
4A392
102
VTR_0.000_0.000_1.000_1.000_GRIDDISPLAY
 70
     3
102
VTR_0.000_0.000_1.000_1.000_GRIDMAJOR
 70
     5
102
VTR_0.000_0.000_1.000_1.000_DEFAULTLIGHTING
280
     1
102
VTR_0.000_0.000_1.000_1.000_DEFAULTLIGHTINGTYPE
 70
     1
102
VTR_0.000_0.000_1.000_1.000_BRIGHTNESS
141
0.0
102
VTR_0.000_0.000_1.000_1.000_CONTRAST
142
0.0
  0
DICTIONARY
  5
4A339
102
{ACAD_REACTORS
330
E2
102
}
330
E2
100
AcDbDictionary
281
     1
  0
DICTIONARY
  5
3759A
102
{ACAD_REACTORS
330
E2
102
}
330
E2
100
AcDbDictionary
281
     1
  0
DICTIONARY
  5
4A338
102
{ACAD_REACTORS
330
E2
102
}
330
E2
100
AcDbDictionary
281
     1
1001
ACAD
1000
<All
  0
XRECORD
  5
4A86D
102
{ACAD_REACTORS
330
4A86C
102
}
330
4A86C
100
AcDbXrecord
280
     1
290
     1
  0
XRECORD
  5
4A86E
102
{ACAD_REACTORS
330
4A773
102
}
330
4A773
100
AcDbXrecord
280
     1
290
     1
  0
XRECORD
  5
4A86F
102
{ACAD_REACTORS
330
4A775
102
}
330
4A775
100
AcDbXrecord
280
     1
290
     1
  0
XRECORD
  5
4A870
102
{ACAD_REACTORS
330
4A777
102
}
330
4A777
100
AcDbXrecord
280
     1
290
     1
  0
XRECORD
  5
4A871
102
{ACAD_REACTORS
330
4A779
102
}
330
4A779
100
AcDbXrecord
280
     1
290
     1
  0
XRECORD
  5
4A872
102
{ACAD_REACTORS
330
4A77B
102
}
330
4A77B
100
AcDbXrecord
280
     1
290
     1
  0
XRECORD
  5
4A874
102
{ACAD_REACTORS
330
4A77F
102
}
330
4A77F
100
AcDbXrecord
280
     1
290
     1
  0
XRECORD
  5
4A876
102
{ACAD_REACTORS
330
4A783
102
}
330
4A783
100
AcDbXrecord
280
     1
290
     1
  0
XRECORD
  5
947E4
102
{ACAD_REACTORS
330
8C34C
102
}
330
8C34C
100
AcDbXrecord
280
     1
102
MATERIAL
340
4A384
  0
SORTENTSTABLE
  5
31EF
102
{ACAD_REACTORS
330
31EE
102
}
330
31EE
100
AcDbSortentsTable
330
1F
  0
SORTENTSTABLE
  5
4A6D8
102
{ACAD_REACTORS
330
4A6D7
102
}
330
4A6D7
100
AcDbSortentsTable
330
4A6D6
  0
XRECORD
  5
947E2
102
{ACAD_REACTORS
330
87B05
102
}
330
87B05
100
AcDbXrecord
280
     1
102
GRIDDISPLAY
 70
     0
102
GRIDMAJOR
 70
     5
102
DEFAULTLIGHTING
280
     1
102
DEFAULTLIGHTINGTYPE
 70
     1
102
BRIGHTNESS
141
0.0
102
CONTRAST
142
0.0
  0
XRECORD
  5
947E3
102
{ACAD_REACTORS
330
87B07
102
}
330
87B07
100
AcDbXrecord
280
     1
102
GRIDDISPLAY
 70
     0
102
GRIDMAJOR
 70
     5
102
DEFAULTLIGHTING
280
     1
102
DEFAULTLIGHTINGTYPE
 70
     1
102
BRIGHTNESS
141
0.0
102
CONTRAST
142
0.0
  0
DIMASSOC
  5
943F4
102
{ACAD_REACTORS
330
943F3
102
}
330
943F3
100
AcDbDimAssoc
330
943F2
 90
        1
 70
     0
 71
     0
  1
AcDbOsnapPointRef
 72
     1
331
943D3
 73
     2
 91
        0
 40
3.141592653589792
 10
0.0
 20
0.0
 30
1.999999999999998E+50
 75
     0
  0
DIMASSOC
  5
943F7
102
{ACAD_REACTORS
330
943F6
102
}
330
943F6
100
AcDbDimAssoc
330
943F5
 90
        2
 70
     0
 71
     0
  1
AcDbOsnapPointRef
 72
    13
331
943EE
 73
     2
 91
        0
 40
3.141592653589792
 10
0.0
 20
0.0
 30
1.999999999999998E+50
 75
     0
  0
DIMASSOC
  5
943FB
102
{ACAD_REACTORS
330
943FA
102
}
330
943FA
100
AcDbDimAssoc
330
943F9
 90
        3
 70
     0
 71
     0
  1
AcDbOsnapPointRef
 72
    13
331
94303
 73
     2
 91
        0
 40
0.0
 10
0.0
 20
0.0
 30
1.999999999999998E+50
 75
     0
  1
AcDbOsnapPointRef
 72
    13
331
943DD
 73
     2
 91
        0
 40
0.0
 10
0.0
 20
0.0
 30
1.999999999999998E+50
 75
     0
  0
XRECORD
  5
947E0
102
{ACAD_REACTORS
330
87B09
102
}
330
87B09
100
AcDbXrecord
280
     1
102
GRIDDISPLAY
 70
     0
102
GRIDMAJOR
 70
     5
102
DEFAULTLIGHTING
280
     1
102
DEFAULTLIGHTINGTYPE
 70
     1
102
BRIGHTNESS
141
0.0
102
CONTRAST
142
0.0
  0
XRECORD
  5
947E1
102
{ACAD_REACTORS
330
87B0B
102
}
330
87B0B
100
AcDbXrecord
280
     1
102
GRIDDISPLAY
 70
     0
102
GRIDMAJOR
 70
     5
102
DEFAULTLIGHTING
280
     1
102
DEFAULTLIGHTINGTYPE
 70
     1
102
BRIGHTNESS
141
0.0
102
CONTRAST
142
0.0
  0
XRECORD
  5
947DD
102
{ACAD_REACTORS
330
947DC
102
}
330
947DC
100
AcDbXrecord
280
     1
 70
     1
  0
XRECORD
  5
947DE
102
{ACAD_REACTORS
330
947DC
102
}
330
947DC
100
AcDbXrecord
280
     1
1004
1800000001000000000000C1000000000000000000000000
  0
ACDBDETAILVIEWSTYLE
  5
4A3BC
102
{ACAD_XDICTIONARY
360
87B40
102
}
102
{ACAD_REACTORS
330
4A3BB
102
}
330
4A3BB
100
AcDbModelDocViewStyle
 70
     0
  3
Metric50
290
     0
100
AcDbDetailViewStyle
 70
     0
 71
     0
 90
        3
 71
     1
340
11
 40
5.0
340
0
 40
5.0
300

 40
0.0
280
     1
 71
     2
340
16
 90
       25
 71
     3
340
11
 40
5.0
 90
        0
 40
15.0
 90
        1
300
%<\AcVar ViewDetailId>% (%<\AcVar ViewScale \f "%sn">%)
 71
     4
340
16
 90
       25
340
16
 90
       25
280
     0
  0
LAYOUT
  5
22
102
{ACAD_REACTORS
330
1A
102
}
330
1A
100
AcDbPlotSettings
  1

  2
none_device
  4
ANSI_A_(8.50_x_11.00_Inches)
  6

 40
6.349999904632567
 41
19.04999923706055
 42
6.350006103515625
 43
19.04998779296875
 44
215.8999938964844
 45
279.3999938964844
 46
0.0
 47
0.0
 48
0.0
 49
0.0
140
0.0
141
0.0
142
1.0
143
78.436453180766
 70
 11952
 72
     0
 73
     1
 74
     0
  7

 75
     0
147
0.0127491741332998
148
0.0
149
0.0
100
AcDbLayout
  1
Model
 70
     1
 71
     0
 10
0.0
 20
0.0
 11
12.0
 21
9.0
 12
0.0
 22
0.0
 32
0.0
 14
0.0
 24
0.0
 34
0.0
 15
0.0
 25
0.0
 35
0.0
146
0.0
 13
0.0
 23
0.0
 33
0.0
 16
1.0
 26
0.0
 36
0.0
 17
0.0
 27
1.0
 37
0.0
 76
     0
330
1F
331
4A360
  0
LAYOUT
  5
51
102
{ACAD_REACTORS
330
1A
102
}
330
1A
100
AcDbPlotSettings
  1

  2
none_device
  4
Letter_(8.50_x_11.00_Inches)
  6

 40
6.349999904632567
 41
6.349999904632567
 42
6.350006103515625
 43
6.350006103515625
 44
215.8999938964844
 45
279.3999938964844
 46
0.0
 47
0.0
 48
0.0
 49
0.0
140
0.0
141
0.0
142
1.0
143
1.0
 70
   688
 72
     1
 73
     1
 74
     5
  7

 75
    16
147
1.0
148
0.0
149
0.0
100
AcDbLayout
  1
レイアウト1
 70
     1
 71
     1
 10
-6.350006103515625
 20
-6.349999904632567
 11
273.0499877929688
 21
209.5499939918518
 12
0.0
 22
0.0
 32
0.0
 14
26.66999878883364
 24
20.31999878883365
 34
0.0
 15
240.0299890995025
 25
182.8799890995025
 35
0.0
146
0.0
 13
0.0
 23
0.0
 33
0.0
 16
1.0
 26
0.0
 36
0.0
 17
0.0
 27
1.0
 37
0.0
 76
     0
330
50
331
6B
  0
LAYOUT
  5
56
102
{ACAD_REACTORS
330
1A
102
}
330
1A
100
AcDbPlotSettings
  1

  2
none_device
  4
Letter_(8.50_x_11.00_Inches)
  6

 40
6.349999904632567
 41
6.349999904632567
 42
6.350006103515625
 43
6.350006103515625
 44
215.8999938964844
 45
279.3999938964844
 46
0.0
 47
0.0
 48
0.0
 49
0.0
140
0.0
141
0.0
142
1.0
143
1.0
 70
   688
 72
     1
 73
     1
 74
     5
  7

 75
    16
147
1.0
148
0.0
149
0.0
100
AcDbLayout
  1
レイアウト2
 70
     1
 71
     2
 10
-6.350006103515625
 20
-6.349999904632567
 11
273.0499877929688
 21
209.5499939918518
 12
0.0
 22
0.0
 32
0.0
 14
26.66999878883364
 24
20.31999878883365
 34
0.0
 15
240.0299890995025
 25
182.8799890995025
 35
0.0
146
0.0
 13
0.0
 23
0.0
 33
0.0
 16
1.0
 26
0.0
 36
0.0
 17
0.0
 27
1.0
 37
0.0
 76
     0
330
55
331
71
  0
MATERIAL
  5
4A37C
102
{ACAD_XDICTIONARY
360
4A37D
102
}
102
{ACAD_REACTORS
330
84
102
}
330
84
100
AcDbMaterial
  1
ByBlock
 72
     0
 73
     2
 43
0.0008202099737533
 43
0.0
 43
0.0
 43
0.0
 43
0.0
 43
0.0008202099737533
 43
0.0
 43
0.0
 43
0.0
 43
0.0
 43
1.0
 43
0.0
 43
0.0
 43
0.0
 43
0.0
 43
1.0
 77
     0
 78
     2
 47
0.0008202099737533
 47
0.0
 47
0.0
 47
0.0
 47
0.0
 47
0.0008202099737533
 47
0.0
 47
0.0
 47
0.0
 47
0.0
 47
1.0
 47
0.0
 47
0.0
 47
0.0
 47
0.0
 47
1.0
171
     0
172
     2
 49
0.0008202099737533
 49
0.0
 49
0.0
 49
0.0
 49
0.0
 49
0.0008202099737533
 49
0.0
 49
0.0
 49
0.0
 49
0.0
 49
1.0
 49
0.0
 49
0.0
 49
0.0
 49
0.0
 49
1.0
175
     0
176
     2
142
0.0008202099737533
142
0.0
142
0.0
142
0.0
142
0.0
142
0.0008202099737533
142
0.0
142
0.0
142
0.0
142
0.0
142
1.0
142
0.0
142
0.0
142
0.0
142
0.0
142
1.0
179
     0
270
     2
144
0.0008202099737533
144
0.0
144
0.0
144
0.0
144
0.0
144
0.0008202099737533
144
0.0
144
0.0
144
0.0
144
0.0
144
1.0
144
0.0
144
0.0
144
0.0
144
0.0
144
1.0
274
     2
147
0.0008202099737533
147
0.0
147
0.0
147
0.0
147
0.0
147
0.0008202099737533
147
0.0
147
0.0
147
0.0
147
0.0
147
1.0
147
0.0
147
0.0
147
0.0
147
0.0
147
1.0
  0
MATERIAL
  5
4A374
102
{ACAD_XDICTIONARY
360
4A375
102
}
102
{ACAD_REACTORS
330
84
102
}
330
84
100
AcDbMaterial
  1
ByLayer
 72
     0
 73
     2
 43
0.0008202099737533
 43
0.0
 43
0.0
 43
0.0
 43
0.0
 43
0.0008202099737533
 43
0.0
 43
0.0
 43
0.0
 43
0.0
 43
1.0
 43
0.0
 43
0.0
 43
0.0
 43
0.0
 43
1.0
 77
     0
 78
     2
 47
0.0008202099737533
 47
0.0
 47
0.0
 47
0.0
 47
0.0
 47
0.0008202099737533
 47
0.0
 47
0.0
 47
0.0
 47
0.0
 47
1.0
 47
0.0
 47
0.0
 47
0.0
 47
0.0
 47
1.0
171
     0
172
     2
 49
0.0008202099737533
 49
0.0
 49
0.0
 49
0.0
 49
0.0
 49
0.0008202099737533
 49
0.0
 49
0.0
 49
0.0
 49
0.0
 49
1.0
 49
0.0
 49
0.0
 49
0.0
 49
0.0
 49
1.0
175
     0
176
     2
142
0.0008202099737533
142
0.0
142
0.0
142
0.0
142
0.0
142
0.0008202099737533
142
0.0
142
0.0
142
0.0
142
0.0
142
1.0
142
0.0
142
0.0
142
0.0
142
0.0
142
1.0
179
     0
270
     2
144
0.0008202099737533
144
0.0
144
0.0
144
0.0
144
0.0
144
0.0008202099737533
144
0.0
144
0.0
144
0.0
144
0.0
144
1.0
144
0.0
144
0.0
144
0.0
144
0.0
144
1.0
274
     2
147
0.0008202099737533
147
0.0
147
0.0
147
0.0
147
0.0
147
0.0008202099737533
147
0.0
147
0.0
147
0.0
147
0.0
147
1.0
147
0.0
147
0.0
147
0.0
147
0.0
147
1.0
  0
MATERIAL
  5
4A384
102
{ACAD_XDICTIONARY
360
4A385
102
}
102
{ACAD_REACTORS
330
84
102
}
330
84
100
AcDbMaterial
  1
Global
 72
     0
 73
     2
 43
0.0008202099737533
 43
0.0
 43
0.0
 43
0.0
 43
0.0
 43
0.0008202099737533
 43
0.0
 43
0.0
 43
0.0
 43
0.0
 43
1.0
 43
0.0
 43
0.0
 43
0.0
 43
0.0
 43
1.0
 77
     0
 78
     2
 47
0.0008202099737533
 47
0.0
 47
0.0
 47
0.0
 47
0.0
 47
0.0008202099737533
 47
0.0
 47
0.0
 47
0.0
 47
0.0
 47
1.0
 47
0.0
 47
0.0
 47
0.0
 47
0.0
 47
1.0
171
     0
172
     2
 49
0.0008202099737533
 49
0.0
 49
0.0
 49
0.0
 49
0.0
 49
0.0008202099737533
 49
0.0
 49
0.0
 49
0.0
 49
0.0
 49
1.0
 49
0.0
 49
0.0
 49
0.0
 49
0.0
 49
1.0
175
     0
176
     2
142
0.0008202099737533
142
0.0
142
0.0
142
0.0
142
0.0
142
0.0008202099737533
142
0.0
142
0.0
142
0.0
142
0.0
142
1.0
142
0.0
142
0.0
142
0.0
142
0.0
142
1.0
179
     0
270
     2
144
0.0008202099737533
144
0.0
144
0.0
144
0.0
144
0.0
144
0.0008202099737533
144
0.0
144
0.0
144
0.0
144
0.0
144
1.0
144
0.0
144
0.0
144
0.0
144
0.0
144
1.0
274
     2
147
0.0008202099737533
147
0.0
147
0.0
147
0.0
147
0.0
147
0.0008202099737533
147
0.0
147
0.0
147
0.0
147
0.0
147
1.0
147
0.0
147
0.0
147
0.0
147
0.0
147
1.0
  0
MLEADERSTYLE
  5
4A3B8
102
{ACAD_XDICTIONARY
360
8C353
102
}
102
{ACAD_REACTORS
330
4A3B7
102
}
330
4A3B7
100
AcDbMLeaderStyle
170
     2
171
     1
172
     0
 90
        2
 40
0.0
 41
0.0
173
     1
 91
-1056964608
340
14
 92
       -2
290
     1
 42
2.0
291
     1
 43
0.36
  3
Standard
 44
4.0
300

342
11
174
     1
178
     6
175
     1
176
     0
 93
-1056964608
 45
4.0
292
     0
297
     0
 46
4.0
 94
-1056964608
 47
1.0
 49
1.0
140
1.0
293
     1
141
0.0
294
     1
177
     0
142
1.0
295
     0
296
     0
143
0.125
1001
ACAD_MLEADERVER
1070
     2
  0
MLINESTYLE
  5
18
102
{ACAD_REACTORS
330
17
102
}
330
17
100
AcDbMlineStyle
  2
STANDARD
 70
     0
  3

 62
   256
 51
90.0
 52
90.0
 71
     2
 49
0.5
 62
   256
  6
BYLAYER
 49
-0.5
 62
   256
  6
BYLAYER
  0
ACDBPLACEHOLDER
  5
F
102
{ACAD_REACTORS
330
E
102
}
330
E
  0
SCALE
  5
4A3A6
102
{ACAD_REACTORS
330
4A3A5
102
}
330
4A3A5
100
AcDbScale
 70
     0
300
1:1
140
1.0
141
1.0
290
     1
  0
SCALE
  5
4A3A7
102
{ACAD_REACTORS
330
4A3A5
102
}
330
4A3A5
100
AcDbScale
 70
     0
300
1:2
140
1.0
141
2.0
290
     0
  0
SCALE
  5
4A3A8
102
{ACAD_REACTORS
330
4A3A5
102
}
330
4A3A5
100
AcDbScale
 70
     0
300
1:4
140
1.0
141
4.0
290
     0
  0
SCALE
  5
4A3A9
102
{ACAD_REACTORS
330
4A3A5
102
}
330
4A3A5
100
AcDbScale
 70
     0
300
1:5
140
1.0
141
5.0
290
     0
  0
SCALE
  5
4A3AA
102
{ACAD_REACTORS
330
4A3A5
102
}
330
4A3A5
100
AcDbScale
 70
     0
300
1:8
140
1.0
141
8.0
290
     0
  0
SCALE
  5
4A3AB
102
{ACAD_REACTORS
330
4A3A5
102
}
330
4A3A5
100
AcDbScale
 70
     0
300
1:10
140
1.0
141
10.0
290
     0
  0
SCALE
  5
4A3AC
102
{ACAD_REACTORS
330
4A3A5
102
}
330
4A3A5
100
AcDbScale
 70
     0
300
1:16
140
1.0
141
16.0
290
     0
  0
SCALE
  5
4A3AD
102
{ACAD_REACTORS
330
4A3A5
102
}
330
4A3A5
100
AcDbScale
 70
     0
300
1:20
140
1.0
141
20.0
290
     0
  0
SCALE
  5
4A3AE
102
{ACAD_REACTORS
330
4A3A5
102
}
330
4A3A5
100
AcDbScale
 70
     0
300
1:30
140
1.0
141
30.0
290
     0
  0
SCALE
  5
4A3AF
102
{ACAD_REACTORS
330
4A3A5
102
}
330
4A3A5
100
AcDbScale
 70
     0
300
1:40
140
1.0
141
40.0
290
     0
  0
SCALE
  5
4A3B0
102
{ACAD_REACTORS
330
4A3A5
102
}
330
4A3A5
100
AcDbScale
 70
     0
300
1:50
140
1.0
141
50.0
290
     0
  0
SCALE
  5
4A3B1
102
{ACAD_REACTORS
330
4A3A5
102
}
330
4A3A5
100
AcDbScale
 70
     0
300
1:100
140
1.0
141
100.0
290
     0
  0
SCALE
  5
4A3B2
102
{ACAD_REACTORS
330
4A3A5
102
}
330
4A3A5
100
AcDbScale
 70
     0
300
2:1
140
2.0
141
1.0
290
     0
  0
SCALE
  5
4A3B3
102
{ACAD_REACTORS
330
4A3A5
102
}
330
4A3A5
100
AcDbScale
 70
     0
300
4:1
140
4.0
141
1.0
290
     0
  0
SCALE
  5
4A3B4
102
{ACAD_REACTORS
330
4A3A5
102
}
330
4A3A5
100
AcDbScale
 70
     0
300
8:1
140
8.0
141
1.0
290
     0
  0
SCALE
  5
4A3B5
102
{ACAD_REACTORS
330
4A3A5
102
}
330
4A3A5
100
AcDbScale
 70
     0
300
10:1
140
10.0
141
1.0
290
     0
  0
SCALE
  5
4A3B6
102
{ACAD_REACTORS
330
4A3A5
102
}
330
4A3A5
100
AcDbScale
 70
     0
300
100:1
140
100.0
141
1.0
290
     0
  0
ACDBSECTIONVIEWSTYLE
  5
4A3BA
102
{ACAD_XDICTIONARY
360
87B3E
102
}
102
{ACAD_REACTORS
330
4A3B9
102
}
330
4A3B9
100
AcDbModelDocViewStyle
 70
     0
  3
Metric50
290
     0
100
AcDbSectionViewStyle
 70
     0
 71
     0
 90
      102
 71
     1
340
11
 40
5.0
340
0
340
0
 40
5.0
300
I, O, Q, S, X, Z
 40
10.0
 90
        0
 40
2.5
 90
        0
 71
     2
340
16
 90
       25
340
16
 90
       50
 40
5.0
 40
2.5
 40
5.0
 71
     3
340
11
 40
5.0
 90
        0
 40
15.0
 90
        1
300
%<\AcVar ViewSectionStartId>%-%<\AcVar ViewSectionEndId>% (%<\AcVar ViewScale \f "%sn">%)
 71
     4
300
ANSI31
 40
1.0
 90
        0
290
     0
290
     0
 90
        6
 40
0.0
 40
1.570796326794896
 40
0.2617993877991494
 40
1.308996938995747
 40
-0.2617993877991494
 40
1.832595714594044
  0
TABLESTYLE
  5
A2
102
{ACAD_XDICTIONARY
360
4CD9A
102
}
102
{ACAD_REACTORS
330
A1
102
}
330
A1
100
AcDbTableStyle
  3
Standard
 70
     0
 71
     0
 40
1.5
 41
1.5
280
     0
281
     0
  7
Standard
140
4.5
170
     2
 62
     0
 63
   257
283
     0
274
    -2
284
     1
 64
     0
275
    -2
285
     1
 65
     0
276
    -2
286
     1
 66
     0
277
    -2
287
     1
 67
     0
278
    -2
288
     1
 68
     0
279
    -2
289
     1
 69
     0
  7
Standard
140
6.0
170
     5
 62
     0
 63
   257
283
     0
274
    -2
284
     1
 64
     0
275
    -2
285
     1
 65
     0
276
    -2
286
     1
 66
     0
277
    -2
287
     1
 67
     0
278
    -2
288
     1
 68
     0
279
    -2
289
     1
 69
     0
  7
Standard
140
4.5
170
     5
 62
     0
 63
   257
283
     0
274
    -2
284
     1
 64
     0
275
    -2
285
     1
 65
     0
276
    -2
286
     1
 66
     0
277
    -2
287
     1
 67
     0
278
    -2
288
     1
 68
     0
279
    -2
289
     1
 69
     0
  0
VISUALSTYLE
  5
4A392
102
{ACAD_XDICTIONARY
360
87B18
102
}
102
{ACAD_REACTORS
330
4A38C
102
}
330
4A38C
100
AcDbVisualStyle
  2

 70
     4
 71
     0
 72
     2
 73
     0
 90
        0
 40
-0.6
 41
-30.0
 62
     5
 63
     7
 74
     1
 91
        4
 64
     7
 65
   257
 75
     1
175
     1
 42
1.0
 92
        0
 66
   257
 43
1.0
 76
     1
 77
     6
 78
     2
 67
     7
 79
     5
170
     0
171
     0
290
     0
174
     0
 93
        1
 44
0.0
173
     0
291
     0
 45
0.0
1001
ACAD
1000
AcDbSavedByObjectVersion
1070
     0
  0
VISUALSTYLE
  5
4A391
102
{ACAD_XDICTIONARY
360
87B16
102
}
102
{ACAD_REACTORS
330
4A38C
102
}
330
4A38C
100
AcDbVisualStyle
  2

 70
     7
 71
     1
 72
     0
 73
     1
 90
        0
 40
-0.6
 41
-30.0
 62
     5
 63
     7
 74
     0
 91
        4
 64
     7
 65
   257
 75
     1
175
     1
 42
1.0
 92
        8
 66
     7
 43
1.0
 76
     1
 77
     6
 78
     2
 67
     7
 79
     5
170
     0
171
     0
290
     0
174
     0
 93
        1
 44
0.0
173
     0
291
     1
 45
0.0
1001
ACAD
1000
AcDbSavedByObjectVersion
1070
     0
  0
VISUALSTYLE
  5
4A398
102
{ACAD_XDICTIONARY
360
87B24
102
}
102
{ACAD_REACTORS
330
4A38C
102
}
330
4A38C
100
AcDbVisualStyle
  2

 70
    12
 71
     2
 72
     2
 73
     0
 90
        0
 40
-0.6
 41
-30.0
 62
     5
 63
     7
 74
     1
 91
        4
 64
     7
 65
   257
 75
     1
175
     1
 42
1.0
 92
        8
 66
     7
 43
1.0
 76
     1
 77
     6
 78
     2
 67
     7
 79
     5
170
     0
171
     0
290
     0
174
     0
 93
        1
 44
50.0
173
     0
291
     1
 45
0.0
1001
ACAD
1000
AcDbSavedByObjectVersion
1070
     0
  0
VISUALSTYLE
  5
4A39C
102
{ACAD_XDICTIONARY
360
87B2C
102
}
102
{ACAD_REACTORS
330
4A38C
102
}
330
4A38C
100
AcDbVisualStyle
  2

 70
    16
 71
     2
 72
     2
 73
     3
 90
        0
 40
-0.6
 41
-30.0
 62
     5
 63
     8
 74
     1
 91
        4
 64
     7
 65
   257
 75
     1
175
     1
 42
1.0
 92
        8
 66
     8
 43
1.0
 76
     1
 77
     6
 78
     2
 67
     7
 79
     5
170
     0
171
     0
290
     0
174
     0
 93
        1
 44
0.0
173
     0
291
     1
 45
0.0
1001
ACAD
1000
AcDbSavedByObjectVersion
1070
     0
  0
VISUALSTYLE
  5
4A395
102
{ACAD_XDICTIONARY
360
87B1E
102
}
102
{ACAD_REACTORS
330
4A38C
102
}
330
4A38C
100
AcDbVisualStyle
  2

 70
     9
 71
     3
 72
     2
 73
     0
 90
        0
 40
-0.6
 41
-30.0
 62
     5
 63
     7
 74
     2
 91
        2
 64
     7
 65
   257
 75
     1
175
     1
 42
179.0
 92
        8
 66
     7
 43
1.0
 76
     1
 77
     6
 78
     2
 67
     7
 79
     3
170
     0
171
     0
290
     0
174
     0
 93
        1
 44
0.0
173
     0
291
     0
 45
0.0
1001
ACAD
1000
AcDbSavedByObjectVersion
1070
     0
  0
VISUALSTYLE
  5
4A397
102
{ACAD_XDICTIONARY
360
87B22
102
}
102
{ACAD_REACTORS
330
4A38C
102
}
330
4A38C
100
AcDbVisualStyle
  2

 70
    11
 71
     2
 72
     2
 73
     0
 90
        0
 40
-0.6
 41
-30.0
 62
     5
 63
     7
 74
     1
 91
        4
 64
     7
 65
   257
 75
     1
175
     1
 42
1.0
 92
        8
 66
     7
 43
1.0
 76
     1
 77
     6
 78
     2
 67
     7
 79
     5
170
     0
171
     0
290
     0
174
     0
 93
        1
 44
-50.0
173
     0
291
     1
 45
0.0
1001
ACAD
1000
AcDbSavedByObjectVersion
1070
     0
  0
VISUALSTYLE
  5
4A3A4
102
{ACAD_XDICTIONARY
360
87B3C
102
}
102
{ACAD_REACTORS
330
4A38C
102
}
330
4A38C
100
AcDbVisualStyle
  2

 70
    22
 71
     2
 72
     2
 73
     0
 90
        0
 40
-0.6
 41
-30.0
 62
     5
 63
     7
 74
     1
 91
        4
 64
     7
 65
   257
 75
     1
175
     1
 42
1.0
 92
        8
 66
     7
 43
1.0
 76
     1
 77
     6
 78
     2
 67
     7
 79
     5
170
     0
171
     0
290
     0
174
     0
 93
        1
 44
0.0
173
     0
291
     1
 45
0.0
1001
ACAD
1000
AcDbSavedByObjectVersion
1070
     0
  0
VISUALSTYLE
  5
4A39B
102
{ACAD_XDICTIONARY
360
87B2A
102
}
102
{ACAD_REACTORS
330
4A38C
102
}
330
4A38C
100
AcDbVisualStyle
  2

 70
    15
 71
     2
 72
     2
 73
     0
 90
        0
 40
-0.6
 41
-30.0
 62
     5
 63
     7
 74
     1
 91
        4
 64
     7
 65
   257
 75
     1
175
     1
 42
1.0
 92
        8
 66
     7
 43
1.0
 76
     1
 77
     6
 78
     2
 67
     7
 79
     5
170
     0
171
     0
290
     0
174
     0
 93
        1
 44
0.0
173
     0
291
     1
 45
0.0
1001
ACAD
1000
AcDbSavedByObjectVersion
1070
     0
  0
VISUALSTYLE
  5
4A38D
102
{ACAD_XDICTIONARY
360
87B0E
102
}
102
{ACAD_REACTORS
330
4A38C
102
}
330
4A38C
100
AcDbVisualStyle
  2

 70
     0
 71
     2
 72
     1
 73
     1
 90
        2
 40
-0.6
 41
30.0
 62
     5
 63
     7
 74
     0
 91
        0
 64
     7
 65
   257
 75
     1
175
     1
 42
1.0
 92
        8
 66
     7
 43
1.0
 76
     1
 77
     6
 78
     2
 67
     7
 79
     5
170
     0
171
     0
290
     0
174
     0
 93
       13
 44
0.0
173
     0
291
     1
 45
0.0
1001
ACAD
1000
AcDbSavedByObjectVersion
1070
     0
  0
VISUALSTYLE
  5
4A38E
102
{ACAD_XDICTIONARY
360
87B10
102
}
102
{ACAD_REACTORS
330
4A38C
102
}
330
4A38C
100
AcDbVisualStyle
  2

 70
     1
 71
     2
 72
     1
 73
     1
 90
        2
 40
-0.6
 41
30.0
 62
     5
 63
     7
 74
     1
 91
        0
 64
     7
 65
   257
 75
     1
175
     1
 42
1.0
 92
        0
 66
   257
 43
1.0
 76
     1
 77
     6
 78
     2
 67
     7
 79
     5
170
     0
171
     0
290
     0
174
     0
 93
       13
 44
0.0
173
     0
291
     1
 45
0.0
1001
ACAD
1000
AcDbSavedByObjectVersion
1070
     0
  0
VISUALSTYLE
  5
4A38F
102
{ACAD_XDICTIONARY
360
87B12
102
}
102
{ACAD_REACTORS
330
4A38C
102
}
330
4A38C
100
AcDbVisualStyle
  2

 70
     2
 71
     2
 72
     2
 73
     1
 90
        2
 40
-0.6
 41
30.0
 62
     5
 63
     7
 74
     0
 91
        0
 64
     7
 65
   257
 75
     1
175
     1
 42
1.0
 92
        0
 66
     7
 43
1.0
 76
     1
 77
     6
 78
     2
 67
     7
 79
     5
170
     0
171
     0
290
     0
174
     0
 93
       13
 44
0.0
173
     0
291
     1
 45
0.0
1001
ACAD
1000
AcDbSavedByObjectVersion
1070
     0
  0
VISUALSTYLE
  5
4A390
102
{ACAD_XDICTIONARY
360
87B14
102
}
102
{ACAD_REACTORS
330
4A38C
102
}
330
4A38C
100
AcDbVisualStyle
  2

 70
     3
 71
     2
 72
     2
 73
     1
 90
        2
 40
-0.6
 41
30.0
 62
     5
 63
     7
 74
     1
 91
        0
 64
     7
 65
   257
 75
     1
175
     1
 42
1.0
 92
        0
 66
   257
 43
1.0
 76
     1
 77
     6
 78
     2
 67
     7
 79
     5
170
     0
171
     0
290
     0
174
     0
 93
       13
 44
0.0
173
     0
291
     1
 45
0.0
1001
ACAD
1000
AcDbSavedByObjectVersion
1070
     0
  0
VISUALSTYLE
  5
4A394
102
{ACAD_XDICTIONARY
360
87B1C
102
}
102
{ACAD_REACTORS
330
4A38C
102
}
330
4A38C
100
AcDbVisualStyle
  2

 70
     6
 71
     1
 72
     2
 73
     2
 90
        0
 40
-0.6
 41
-30.0
 62
     5
 63
     7
 74
     2
 91
        2
 64
     7
 65
   257
 75
     2
175
     1
 42
40.0
 92
        0
 66
   257
 43
1.0
 76
     1
 77
     6
 78
     2
 67
     7
 79
     3
170
     0
171
     0
290
     0
174
     0
 93
        1
 44
0.0
173
     0
291
     0
 45
0.0
1001
ACAD
1000
AcDbSavedByObjectVersion
1070
     0
  0
VISUALSTYLE
  5
4A3A2
102
{ACAD_XDICTIONARY
360
87B38
102
}
102
{ACAD_REACTORS
330
4A38C
102
}
330
4A38C
100
AcDbVisualStyle
  2

 70
    20
 71
     2
 72
     2
 73
     0
 90
        0
 40
-0.6
 41
-30.0
 62
     5
 63
     7
 74
     1
 91
        4
 64
     7
 65
   257
 75
     1
175
     1
 42
1.0
 92
       10
 66
     7
 43
1.0
 76
     1
 77
     6
 78
     2
 67
     7
 79
     5
170
     0
171
     0
290
     0
174
     0
 93
        1
 44
0.0
173
     0
291
     1
 45
0.0
1001
ACAD
1000
AcDbSavedByObjectVersion
1070
     0
  0
VISUALSTYLE
  5
4A39A
102
{ACAD_XDICTIONARY
360
87B28
102
}
102
{ACAD_REACTORS
330
4A38C
102
}
330
4A38C
100
AcDbVisualStyle
  2

 70
    14
 71
     2
 72
     2
 73
     0
 90
        0
 40
-0.6
 41
-30.0
 62
     5
 63
     7
 74
     1
 91
        4
 64
     7
 65
   257
 75
     7
175
     7
 42
1.0
 92
        8
 66
     7
 43
1.0
 76
     1
 77
     6
 78
     2
 67
     7
 79
     5
170
     0
171
     0
290
     0
174
     0
 93
        1
 44
0.0
173
     0
291
     1
 45
0.0
1001
ACAD
1000
AcDbSavedByObjectVersion
1070
     0
  0
VISUALSTYLE
  5
4A3A3
102
{ACAD_XDICTIONARY
360
87B3A
102
}
102
{ACAD_REACTORS
330
4A38C
102
}
330
4A38C
100
AcDbVisualStyle
  2

 70
    21
 71
     2
 72
     2
 73
     0
 90
        0
 40
-0.6
 41
-30.0
 62
     5
 63
     7
 74
     1
 91
        4
 64
     7
 65
   257
 75
     1
175
     1
 42
1.0
 92
        9
 66
     7
 43
1.0
 76
     1
 77
     6
 78
     2
 67
     7
 79
     5
170
     0
171
     0
290
     0
174
     0
 93
        1
 44
0.0
173
     0
291
     1
 45
0.0
1001
ACAD
1000
AcDbSavedByObjectVersion
1070
     0
  0
VISUALSTYLE
  5
4A396
102
{ACAD_XDICTIONARY
360
87B20
102
}
102
{ACAD_REACTORS
330
4A38C
102
}
330
4A38C
100
AcDbVisualStyle
  2

 70
     8
 71
     2
 72
     3
 73
     0
 90
        2
 40
-0.6
 41
30.0
 62
     5
 63
     7
 74
     0
 91
        0
 64
     7
 65
   257
 75
     1
175
     1
 42
1.0
 92
        8
 66
   257
 43
1.0
 76
     1
 77
     6
 78
     2
 67
     7
 79
     3
170
     0
171
     0
290
     0
174
     0
 93
       13
 44
0.0
173
     0
291
     0
 45
0.0
1001
ACAD
1000
AcDbSavedByObjectVersion
1070
     0
  0
VISUALSTYLE
  5
4A3A1
102
{ACAD_XDICTIONARY
360
87B36
102
}
102
{ACAD_REACTORS
330
4A38C
102
}
330
4A38C
100
AcDbVisualStyle
  2

 70
    27
 71
     2
 72
     2
 73
     1
 90
        2
 40
-0.6
 41
30.0
 62
     5
 63
     7
 74
     0
 91
        4
 64
     7
 65
   257
 75
     1
175
     1
 42
1.0
 92
        8
 66
   257
 43
1.0
 76
     1
 77
     6
 78
     2
 67
     8
 79
     3
170
     0
171
     0
290
     0
174
     0
 93
        5
 44
0.0
173
     0
291
     0
 45
0.0
1001
ACAD
1000
AcDbSavedByObjectVersion
1070
     0
  0
VISUALSTYLE
  5
4A3A0
102
{ACAD_XDICTIONARY
360
87B34
102
}
102
{ACAD_REACTORS
330
4A38C
102
}
330
4A38C
100
AcDbVisualStyle
  2

 70
    26
 71
     2
 72
     2
 73
     1
 90
        2
 40
-0.6
 41
30.0
 62
     5
 63
     7
 74
     1
 91
        2
 64
     7
 65
   257
 75
     2
175
     1
 42
1.0
 92
        8
 66
   257
 43
1.0
 76
     1
 77
     6
 78
     2
 67
     7
 79
     3
170
     0
171
     0
290
     0
174
     0
 93
        5
 44
0.0
173
     0
291
     0
 45
0.0
1001
ACAD
1000
AcDbSavedByObjectVersion
1070
     0
  0
VISUALSTYLE
  5
4A39D
102
{ACAD_XDICTIONARY
360
87B2E
102
}
102
{ACAD_REACTORS
330
4A38C
102
}
330
4A38C
100
AcDbVisualStyle
  2

 70
    23
 71
     2
 72
     2
 73
     3
 90
        0
 40
-0.6
 41
-30.0
 62
     5
 63
     7
 74
     2
 91
        2
 64
     7
 65
     7
 75
     1
175
     1
 42
40.0
 92
        8
 66
     7
 43
1.0
 76
     1
 77
     6
 78
     2
 67
     7
 79
     3
170
     0
171
     0
290
     0
174
     0
 93
        1
 44
0.0
173
     0
291
     0
 45
0.0
1001
ACAD
1000
AcDbSavedByObjectVersion
1070
     0
  0
VISUALSTYLE
  5
4A39E
102
{ACAD_XDICTIONARY
360
87B30
102
}
102
{ACAD_REACTORS
330
4A38C
102
}
330
4A38C
100
AcDbVisualStyle
  2

 70
    24
 71
     1
 72
     2
 73
     2
 90
        0
 40
-0.6
 41
-30.0
 62
     5
 63
     7
 74
     2
 91
        2
 64
     7
 65
     7
 75
     1
175
     1
 42
40.0
 92
       11
 66
     7
 43
1.0
 76
     1
 77
     6
 78
     2
 67
     7
 79
     6
170
     0
171
     0
290
     0
174
     0
 93
        1
 44
0.0
173
     0
291
     0
 45
0.0
1001
ACAD
1000
AcDbSavedByObjectVersion
1070
     0
  0
VISUALSTYLE
  5
4A399
102
{ACAD_XDICTIONARY
360
87B26
102
}
102
{ACAD_REACTORS
330
4A38C
102
}
330
4A38C
100
AcDbVisualStyle
  2

 70
    13
 71
     2
 72
     2
 73
     0
 90
        0
 40
-0.6
 41
-30.0
 62
     5
 63
     7
 74
     1
 91
        4
 64
     7
 65
   257
 75
     1
175
     1
 42
1.0
 92
       12
 66
     7
 43
1.0
 76
     1
 77
     6
 78
     2
 67
     7
 79
     5
170
     0
171
     0
290
     0
174
     0
 93
        1
 44
0.0
173
     0
291
     1
 45
0.0
1001
ACAD
1000
AcDbSavedByObjectVersion
1070
     0
  0
VISUALSTYLE
  5
4A393
102
{ACAD_XDICTIONARY
360
87B1A
102
}
102
{ACAD_REACTORS
330
4A38C
102
}
330
4A38C
100
AcDbVisualStyle
  2

 70
     5
 71
     0
 72
     2
 73
     0
 90
        0
 40
-0.6
 41
-30.0
 62
     5
 63
     7
 74
     1
 91
        4
 64
     7
 65
   257
 75
     1
175
     1
 42
1.0
 92
        0
 66
   257
 43
1.0
 76
     1
 77
     6
 78
     2
 67
     7
 79
     3
170
     0
171
     0
290
     0
174
     0
 93
        1
 44
0.0
173
     0
291
     0
 45
0.0
1001
ACAD
1000
AcDbSavedByObjectVersion
1070
     0
  0
VISUALSTYLE
  5
4A39F
102
{ACAD_XDICTIONARY
360
87B32
102
}
102
{ACAD_REACTORS
330
4A38C
102
}
330
4A38C
100
AcDbVisualStyle
  2

 70
    25
 71
     2
 72
     2
 73
     1
 90
        1
 40
0.5
 41
-30.0
 62
     5
 63
     7
 74
     1
 91
        0
 64
     7
 65
   257
 75
     1
175
     1
 42
1.0
 92
        8
 66
     7
 43
1.0
 76
     1
 77
     6
 78
     2
 67
     7
 79
     3
170
     0
171
     0
290
     0
174
     0
 93
       13
 44
0.0
173
     0
291
     0
 45
0.0
1001
ACAD
1000
AcDbSavedByObjectVersion
1070
     0
  0
XRECORD
  5
947DA
102
{ACAD_REACTORS
330
947D9
102
}
330
947D9
100
AcDbXrecord
280
     1
340
85
  0
XRECORD
  5
947DB
102
{ACAD_REACTORS
330
947D9
102
}
330
947D9
100
AcDbXrecord
280
     1
340
84
  0
DICTIONARYVAR
  5
947D8
102
{ACAD_REACTORS
330
5E
102
}
330
5E
100
DictionaryVariables
280
   100
  1
1:1
  0
DICTIONARYVAR
  5
4A6CE
102
{ACAD_REACTORS
330
5E
102
}
330
5E
100
DictionaryVariables
280
     0
  1
STANDARD
  0
DICTIONARYVAR
  5
B8
102
{ACAD_REACTORS
330
5E
102
}
330
5E
100
DictionaryVariables
280
     0
  1
STANDARD
  0
DICTIONARYVAR
  5
4A6CF
102
{ACAD_REACTORS
330
5E
102
}
330
5E
100
DictionaryVariables
280
     0
  1
Metric50
  0
DICTIONARYVAR
  5
4A6D0
102
{ACAD_REACTORS
330
5E
102
}
330
5E
100
DictionaryVariables
280
     0
  1
Metric50
  0
DICTIONARYVAR
  5
5F
102
{ACAD_REACTORS
330
5E
102
}
330
5E
100
DictionaryVariables
280
     0
  1
2
  0
DICTIONARYVAR
  5
63
102
{ACAD_REACTORS
330
5E
102
}
330
5E
100
DictionaryVariables
280
     0
  1
1
  0
DICTIONARYVAR
  5
4A879
102
{ACAD_REACTORS
330
5E
102
}
330
5E
100
DictionaryVariables
280
     0
  1
0
  0
DICTIONARYVAR
  5
4A6D4
102
{ACAD_REACTORS
330
5E
102
}
330
5E
100
DictionaryVariables
280
     0
  1
1
  0
DICTIONARYVAR
  5
4A6D5
102
{ACAD_REACTORS
330
5E
102
}
330
5E
100
DictionaryVariables
280
     0
  1
15
  0
DICTIONARYVAR
  5
4A6D3
102
{ACAD_REACTORS
330
5E
102
}
330
5E
100
DictionaryVariables
280
     0
  1
0
  0
DICTIONARYVAR
  5
4A6D1
102
{ACAD_REACTORS
330
5E
102
}
330
5E
100
DictionaryVariables
280
     0
  1
0
  0
DICTIONARYVAR
  5
31CE
102
{ACAD_REACTORS
330
5E
102
}
330
5E
100
DictionaryVariables
280
     0
  1

  0
DICTIONARYVAR
  5
4A878
102
{ACAD_REACTORS
330
5E
102
}
330
5E
100
DictionaryVariables
280
     0
  1
127
  0
DICTIONARYVAR
  5
87AF9
102
{ACAD_REACTORS
330
5E
102
}
330
5E
100
DictionaryVariables
280
     0
  1
2
  0
XRECORD
  5
349EA
102
{ACAD_REACTORS
330
349E9
102
}
330
349E9
100
AcDbXrecord
280
     1
330
0
330
0
330
0
330
0
330
0
330
0
330
0
330
0
330
0
330
0
330
0
330
0
330
0
330
0
330
0
330
0
330
0
330
0
330
0
330
0
330
0
330
0
330
0
330
0
330
0
330
0
330
0
330
0
330
0
330
0
330
0
330
0
330
0
330
0
330
0
330
0
330
0
330
0
330
0
330
0
330
0
330
0
330
0
330
0
330
0
330
0
330
0
330
0
330
0
330
0
330
0
330
0
330
0
330
0
330
0
330
0
330
0
330
0
330
0
330
0
330
0
330
0
330
0
330
0
330
0
330
0
330
0
330
0
330
0
330
0
330
0
330
0
330
0
330
0
330
0
330
0
330
0
330
0
330
0
330
0
330
0
330
0
330
0
330
0
330
0
330
0
330
0
330
0
330
0
330
0
330
0
330
0
330
0
330
0
330
0
330
0
330
0
330
0
330
0
330
0
330
0
330
0
330
0
330
0
330
0
330
0
330
0
330
0
330
0
330
0
  0
DICTIONARY
  5
87B40
330
4A3BC
100
AcDbDictionary
280
     1
281
     1
  3
ACAD_XREC_ROUNDTRIP
360
87B41
  0
DICTIONARY
  5
4A37D
330
4A37C
100
AcDbDictionary
280
     1
281
     1
  3
ACAD_XREC_ROUNDTRIP
360
947E6
  0
DICTIONARY
  5
4A375
330
4A374
100
AcDbDictionary
280
     1
281
     1
  3
ACAD_XREC_ROUNDTRIP
360
947E7
  0
DICTIONARY
  5
4A385
330
4A384
100
AcDbDictionary
280
     1
281
     1
  3
ACAD_XREC_ROUNDTRIP
360
947E8
  0
DICTIONARY
  5
8C353
330
4A3B8
100
AcDbDictionary
280
     1
281
     1
  3
ACAD_XREC_ROUNDTRIP
360
947E9
  0
DICTIONARY
  5
87B3E
330
4A3BA
100
AcDbDictionary
280
     1
281
     1
  3
ACAD_XREC_ROUNDTRIP
360
87B3F
  0
DICTIONARY
  5
4CD9A
330
A2
100
AcDbDictionary
280
     1
281
     1
  3
ACAD_ROUNDTRIP_2008_TABLESTYLE_CELLSTYLEMAP
360
947EB
  3
ACAD_XREC_ROUNDTRIP
360
947EA
  0
DICTIONARY
  5
87B18
330
4A392
100
AcDbDictionary
280
     1
281
     1
  3
ACAD_XREC_ROUNDTRIP
360
947EC
  0
DICTIONARY
  5
87B16
330
4A391
100
AcDbDictionary
280
     1
281
     1
  3
ACAD_XREC_ROUNDTRIP
360
947ED
  0
DICTIONARY
  5
87B24
330
4A398
100
AcDbDictionary
280
     1
281
     1
  3
ACAD_XREC_ROUNDTRIP
360
947EE
  0
DICTIONARY
  5
87B2C
330
4A39C
100
AcDbDictionary
280
     1
281
     1
  3
ACAD_XREC_ROUNDTRIP
360
947EF
  0
DICTIONARY
  5
87B1E
330
4A395
100
AcDbDictionary
280
     1
281
     1
  3
ACAD_XREC_ROUNDTRIP
360
947F0
  0
DICTIONARY
  5
87B22
330
4A397
100
AcDbDictionary
280
     1
281
     1
  3
ACAD_XREC_ROUNDTRIP
360
947F1
  0
DICTIONARY
  5
87B3C
330
4A3A4
100
AcDbDictionary
280
     1
281
     1
  3
ACAD_XREC_ROUNDTRIP
360
947F2
  0
DICTIONARY
  5
87B2A
330
4A39B
100
AcDbDictionary
280
     1
281
     1
  3
ACAD_XREC_ROUNDTRIP
360
947F3
  0
DICTIONARY
  5
87B0E
330
4A38D
100
AcDbDictionary
280
     1
281
     1
  3
ACAD_XREC_ROUNDTRIP
360
947F4
  0
DICTIONARY
  5
87B10
330
4A38E
100
AcDbDictionary
280
     1
281
     1
  3
ACAD_XREC_ROUNDTRIP
360
947F5
  0
DICTIONARY
  5
87B12
330
4A38F
100
AcDbDictionary
280
     1
281
     1
  3
ACAD_XREC_ROUNDTRIP
360
947F6
  0
DICTIONARY
  5
87B14
330
4A390
100
AcDbDictionary
280
     1
281
     1
  3
ACAD_XREC_ROUNDTRIP
360
947F7
  0
DICTIONARY
  5
87B1C
330
4A394
100
AcDbDictionary
280
     1
281
     1
  3
ACAD_XREC_ROUNDTRIP
360
947F8
  0
DICTIONARY
  5
87B38
330
4A3A2
100
AcDbDictionary
280
     1
281
     1
  3
ACAD_XREC_ROUNDTRIP
360
947F9
  0
DICTIONARY
  5
87B28
330
4A39A
100
AcDbDictionary
280
     1
281
     1
  3
ACAD_XREC_ROUNDTRIP
360
947FA
  0
DICTIONARY
  5
87B3A
330
4A3A3
100
AcDbDictionary
280
     1
281
     1
  3
ACAD_XREC_ROUNDTRIP
360
947FB
  0
DICTIONARY
  5
87B20
330
4A396
100
AcDbDictionary
280
     1
281
     1
  3
ACAD_XREC_ROUNDTRIP
360
947FC
  0
DICTIONARY
  5
87B36
330
4A3A1
100
AcDbDictionary
280
     1
281
     1
  3
ACAD_XREC_ROUNDTRIP
360
947FD
  0
DICTIONARY
  5
87B34
330
4A3A0
100
AcDbDictionary
280
     1
281
     1
  3
ACAD_XREC_ROUNDTRIP
360
947FE
  0
DICTIONARY
  5
87B2E
330
4A39D
100
AcDbDictionary
280
     1
281
     1
  3
ACAD_XREC_ROUNDTRIP
360
947FF
  0
DICTIONARY
  5
87B30
330
4A39E
100
AcDbDictionary
280
     1
281
     1
  3
ACAD_XREC_ROUNDTRIP
360
94800
  0
DICTIONARY
  5
87B26
330
4A399
100
AcDbDictionary
280
     1
281
     1
  3
ACAD_XREC_ROUNDTRIP
360
94801
  0
DICTIONARY
  5
87B1A
330
4A393
100
AcDbDictionary
280
     1
281
     1
  3
ACAD_XREC_ROUNDTRIP
360
94802
  0
DICTIONARY
  5
87B32
330
4A39F
100
AcDbDictionary
280
     1
281
     1
  3
ACAD_XREC_ROUNDTRIP
360
94803
  0
XRECORD
  5
87B41
102
{ACAD_REACTORS
330
87B40
102
}
330
87B40
100
AcDbXrecord
280
     1
102
DISPLAYNAME
  1
Metric50
102
FLAGS
 90
        0
  0
XRECORD
  5
947E6
102
{ACAD_REACTORS
330
4A37D
102
}
330
4A37D
100
AcDbXrecord
280
     1
102
MATERIAL
148
0.0
149
0.0
149
0.0
 93
        0
 94
      127
282
     0
 72
     0
 77
     0
171
     0
175
     0
179
     0
273
     0
  0
XRECORD
  5
947E7
102
{ACAD_REACTORS
330
4A375
102
}
330
4A375
100
AcDbXrecord
280
     1
102
MATERIAL
148
0.0
149
0.0
149
0.0
 93
        0
 94
      127
282
     0
 72
     0
 77
     0
171
     0
175
     0
179
     0
273
     0
  0
XRECORD
  5
947E8
102
{ACAD_REACTORS
330
4A385
102
}
330
4A385
100
AcDbXrecord
280
     1
102
MATERIAL
148
0.0
149
0.0
149
0.0
 93
        0
 94
      127
282
     0
 72
     0
 77
     0
171
     0
175
     0
179
     0
273
     0
  0
XRECORD
  5
947E9
102
{ACAD_REACTORS
330
8C353
102
}
330
8C353
100
AcDbXrecord
280
     1
102
ACAD_ROUNDTRIP_2010_MLEADER_STYLE
  0
XRECORD
  5
87B3F
102
{ACAD_REACTORS
330
87B3E
102
}
330
87B3E
100
AcDbXrecord
280
     1
102
DISPLAYNAME
  1
Metric50
102
FLAGS
 90
        0
  0
CELLSTYLEMAP
  5
947EB
102
{ACAD_REACTORS
330
4CD9A
102
}
330
4CD9A
100
AcDbCellStyleMap
 90
        3
300
CELLSTYLE
  1
TABLEFORMAT_BEGIN
 90
        5
170
     1
 91
        0
 92
    32768
 62
   257
 93
        1
300
CONTENTFORMAT
  1
CONTENTFORMAT_BEGIN
 90
        0
 91
        0
 92
        4
 93
        0
300

 40
0.0
140
1.0
 94
        5
 62
     0
340
11
144
6.0
309
CONTENTFORMAT_END
171
     1
301
MARGIN
  1
CELLMARGIN_BEGIN
 40
1.5
 40
1.5
 40
1.5
 40
1.5
 40
0.18
 40
0.18
309
CELLMARGIN_END
 94
        6
 95
        1
302
GRIDFORMAT
  1
GRIDFORMAT_BEGIN
 90
        0
 91
        1
 62
     0
 92
       -2
340
0
 93
        0
 40
0.045
309
GRIDFORMAT_END
 95
        2
302
GRIDFORMAT
  1
GRIDFORMAT_BEGIN
 90
        0
 91
        1
 62
     0
 92
       -2
340
0
 93
        0
 40
0.045
309
GRIDFORMAT_END
 95
        4
302
GRIDFORMAT
  1
GRIDFORMAT_BEGIN
 90
        0
 91
        1
 62
     0
 92
       -2
340
0
 93
        0
 40
0.045
309
GRIDFORMAT_END
 95
        8
302
GRIDFORMAT
  1
GRIDFORMAT_BEGIN
 90
        0
 91
        1
 62
     0
 92
       -2
340
0
 93
        0
 40
0.045
309
GRIDFORMAT_END
 95
       16
302
GRIDFORMAT
  1
GRIDFORMAT_BEGIN
 90
        0
 91
        1
 62
     0
 92
       -2
340
0
 93
        0
 40
0.045
309
GRIDFORMAT_END
 95
       32
302
GRIDFORMAT
  1
GRIDFORMAT_BEGIN
 90
        0
 91
        1
 62
     0
 92
       -2
340
0
 93
        0
 40
0.045
309
GRIDFORMAT_END
309
TABLEFORMAT_END
  1
CELLSTYLE_BEGIN
 90
        1
 91
        1
300
_TITLE
309
CELLSTYLE_END
300
CELLSTYLE
  1
TABLEFORMAT_BEGIN
 90
        5
170
     1
 91
        0
 92
        0
 62
   257
 93
        1
300
CONTENTFORMAT
  1
CONTENTFORMAT_BEGIN
 90
        0
 91
        0
 92
        4
 93
        0
300

 40
0.0
140
1.0
 94
        5
 62
     0
340
11
144
4.5
309
CONTENTFORMAT_END
171
     1
301
MARGIN
  1
CELLMARGIN_BEGIN
 40
1.5
 40
1.5
 40
1.5
 40
1.5
 40
0.18
 40
0.18
309
CELLMARGIN_END
 94
        6
 95
        1
302
GRIDFORMAT
  1
GRIDFORMAT_BEGIN
 90
        0
 91
        1
 62
     0
 92
       -2
340
0
 93
        0
 40
0.045
309
GRIDFORMAT_END
 95
        2
302
GRIDFORMAT
  1
GRIDFORMAT_BEGIN
 90
        0
 91
        1
 62
     0
 92
       -2
340
0
 93
        0
 40
0.045
309
GRIDFORMAT_END
 95
        4
302
GRIDFORMAT
  1
GRIDFORMAT_BEGIN
 90
        0
 91
        1
 62
     0
 92
       -2
340
0
 93
        0
 40
0.045
309
GRIDFORMAT_END
 95
        8
302
GRIDFORMAT
  1
GRIDFORMAT_BEGIN
 90
        0
 91
        1
 62
     0
 92
       -2
340
0
 93
        0
 40
0.045
309
GRIDFORMAT_END
 95
       16
302
GRIDFORMAT
  1
GRIDFORMAT_BEGIN
 90
        0
 91
        1
 62
     0
 92
       -2
340
0
 93
        0
 40
0.045
309
GRIDFORMAT_END
 95
       32
302
GRIDFORMAT
  1
GRIDFORMAT_BEGIN
 90
        0
 91
        1
 62
     0
 92
       -2
340
0
 93
        0
 40
0.045
309
GRIDFORMAT_END
309
TABLEFORMAT_END
  1
CELLSTYLE_BEGIN
 90
        2
 91
        1
300
_HEADER
309
CELLSTYLE_END
300
CELLSTYLE
  1
TABLEFORMAT_BEGIN
 90
        5
170
     1
 91
        0
 92
        0
 62
   257
 93
        1
300
CONTENTFORMAT
  1
CONTENTFORMAT_BEGIN
 90
        0
 91
        0
 92
        4
 93
        0
300

 40
0.0
140
1.0
 94
        2
 62
     0
340
11
144
4.5
309
CONTENTFORMAT_END
171
     1
301
MARGIN
  1
CELLMARGIN_BEGIN
 40
1.5
 40
1.5
 40
1.5
 40
1.5
 40
0.18
 40
0.18
309
CELLMARGIN_END
 94
        6
 95
        1
302
GRIDFORMAT
  1
GRIDFORMAT_BEGIN
 90
        0
 91
        1
 62
     0
 92
       -2
340
0
 93
        0
 40
0.045
309
GRIDFORMAT_END
 95
        2
302
GRIDFORMAT
  1
GRIDFORMAT_BEGIN
 90
        0
 91
        1
 62
     0
 92
       -2
340
0
 93
        0
 40
0.045
309
GRIDFORMAT_END
 95
        4
302
GRIDFORMAT
  1
GRIDFORMAT_BEGIN
 90
        0
 91
        1
 62
     0
 92
       -2
340
0
 93
        0
 40
0.045
309
GRIDFORMAT_END
 95
        8
302
GRIDFORMAT
  1
GRIDFORMAT_BEGIN
 90
        0
 91
        1
 62
     0
 92
       -2
340
0
 93
        0
 40
0.045
309
GRIDFORMAT_END
 95
       16
302
GRIDFORMAT
  1
GRIDFORMAT_BEGIN
 90
        0
 91
        1
 62
     0
 92
       -2
340
0
 93
        0
 40
0.045
309
GRIDFORMAT_END
 95
       32
302
GRIDFORMAT
  1
GRIDFORMAT_BEGIN
 90
        0
 91
        1
 62
     0
 92
       -2
340
0
 93
        0
 40
0.045
309
GRIDFORMAT_END
309
TABLEFORMAT_END
  1
CELLSTYLE_BEGIN
 90
        3
 91
        2
300
_DATA
309
CELLSTYLE_END
  0
XRECORD
  5
947EA
102
{ACAD_REACTORS
330
4CD9A
102
}
330
4CD9A
100
AcDbXrecord
280
     1
102
ACAD_ROUNDTRIP_PRE2007_TABLESTYLE
 90
        4
 91
        0
  1

 92
        4
 93
        0
  2

 94
        4
 95
        0
  3

  0
XRECORD
  5
947EC
102
{ACAD_REACTORS
330
87B18
102
}
330
87B18
100
AcDbXrecord
280
     1
102
RTVSPropertyOp0
 70
     1
102
RTVSPropertyOp1
 70
     1
102
RTVSPropertyOp2
 70
     1
102
RTVSPropertyOp3
 70
     1
102
RTVSPropertyOp4
 70
     1
102
RTVSPropertyOp5
 70
     1
102
RTVSPropertyOp6
 70
     1
102
RTVSPropertyOp7
 70
     1
102
RTVSPropertyOp8
 70
     1
102
RTVSPropertyOp9
 70
     1
102
RTVSPropertyOp10
 70
     1
102
RTVSPropertyOp11
 70
     1
102
RTVSPropertyOp12
 70
     1
102
RTVSPropertyOp13
 70
     1
102
RTVSPropertyOp14
 70
     1
102
RTVSPropertyOp15
 70
     1
102
RTVSPropertyOp16
 70
     1
102
RTVSPropertyOp17
 70
     1
102
RTVSPropertyOp18
 70
     1
102
RTVSPropertyOp19
 70
     1
102
RTVSPropertyOp20
 70
     1
102
RTVSPropertyOp21
 70
     1
102
RTVSPropertyOp22
 70
     1
102
RTVSPropertyOp23
 70
     1
102
RTVSPropertyOp24
 70
     1
102
RTVSPropertyOp25
 70
     1
102
RTVSPropertyOp26
 70
     1
102
RTVSPropertyOp27
 70
     1
102
RTVSPropertyOp28
 70
     1
102
RTVSPropertyOp29
 70
     1
102
RTVSPropertyOp30
 70
     1
102
RTVSPropertyOp31
 70
     1
102
RTVSPropertyOp32
 70
     1
102
RTVSPropertyOp33
 70
     1
102
RTVSPropertyOp34
 70
     1
102
RTVSPropertyOp35
 70
     1
102
RTVSPropertyOp36
 70
     1
102
RTVSPropertyOp37
 70
     1
102
RTVSPropertyOp38
 70
     1
102
RTVSPropertyOp39
 70
     1
102
RTVSPropertyOp40
 70
     1
102
RTVSPropertyOp41
 70
     1
102
RTVSPropertyOp42
 70
     1
102
RTVSPropertyOp43
 70
     1
102
RTVSPropertyOp44
 70
     1
102
RTVSPropertyOp45
 70
     1
102
RTVSPropertyOp46
 70
     1
102
RTVSPropertyOp47
 70
     1
102
RTVSPropertyOp48
 70
     1
102
RTVSPropertyOp49
 70
     1
102
RTVSPropertyOp50
 70
     1
102
RTVSPropertyOp51
 70
     0
102
RTVSPropertyOp52
 70
     0
102
RTVSPropertyOp53
 70
     1
102
RTVSPropertyOp54
 70
     1
102
RTVSPropertyOp55
 70
     1
102
RTVSPropertyOp56
 70
     1
102
RTVSPropertyOp57
 70
     1
102
RTVSPost2010Prop28
280
     1
102
RTVSPost2010PropOp28
 70
     1
102
RTVSPost2010Prop29
280
     1
102
RTVSPost2010PropOp29
 70
     1
102
RTVSPost2010Prop30
280
     0
102
RTVSPost2010PropOp30
 70
     1
102
RTVSPost2010Prop31
280
     0
102
RTVSPost2010PropOp31
 70
     1
102
RTVSPost2010Prop32
280
     0
102
RTVSPost2010PropOp32
 70
     1
102
RTVSPost2010Prop33
280
     0
102
RTVSPost2010PropOp33
 70
     1
102
RTVSPost2010Prop34
280
     0
102
RTVSPost2010PropOp34
 70
     1
102
RTVSPost2010Prop35
280
     0
102
RTVSPost2010PropOp35
 70
     1
102
RTVSPost2010Prop36
280
     0
102
RTVSPost2010PropOp36
 70
     1
102
RTVSPost2010Prop37
 90
       50
102
RTVSPost2010PropOp37
 70
     1
102
RTVSPost2010Prop38
140
0.0
102
RTVSPost2010PropOp38
 70
     1
102
RTVSPost2010Prop39
140
1.0
102
RTVSPost2010PropOp39
 70
     1
102
RTVSPost2010Prop40
 90
        0
102
RTVSPost2010PropOp40
 70
     1
102
RTVSPost2010Prop41ColorIndex
 90
       18
102
RTVSPost2010Prop41ColorRGB
 90
        0
102
RTVSPost2010PropOp41
 70
     1
102
RTVSPost2010Prop42
 90
       50
102
RTVSPost2010PropOp42
 70
     1
102
RTVSPost2010Prop43
 90
        3
102
RTVSPost2010PropOp43
 70
     1
102
RTVSPost2010Prop44ColorIndex
 90
        5
102
RTVSPost2010Prop44ColorRGB
 90
      255
102
RTVSPost2010PropOp44
 70
     1
102
RTVSPost2010Prop45
280
     0
102
RTVSPost2010PropOp45
 70
     1
102
RTVSPost2010Prop46
 90
       50
102
RTVSPost2010PropOp46
 70
     1
102
RTVSPost2010Prop47
 90
       50
102
RTVSPost2010PropOp47
 70
     1
102
RTVSPost2010Prop48
 90
       50
102
RTVSPost2010PropOp48
 70
     1
102
RTVSPost2010Prop49
280
     0
102
RTVSPost2010PropOp49
 70
     1
102
RTVSPost2010Prop50
 90
       50
102
RTVSPost2010PropOp50
 70
     1
102
RTVSPost2010Prop51ColorIndex
 90
      256
102
RTVSPost2010Prop51ColorRGB
 90
-16777216
102
RTVSPost2010PropOp51
 70
     0
102
RTVSPost2010Prop52
140
1.0
102
RTVSPost2010PropOp52
 70
     0
102
RTVSPost2010Prop53
 90
        2
102
RTVSPost2010PropOp53
 70
     1
102
RTVSPost2010Prop54
  1
strokes_ogs.tif
102
RTVSPost2010PropOp54
 70
     1
102
RTVSPost2010Prop55
280
     0
102
RTVSPost2010PropOp55
 70
     1
102
RTVSPost2010Prop56
140
1.0
102
RTVSPost2010PropOp56
 70
     1
102
RTVSPost2010Prop57
140
1.0
102
RTVSPost2010PropOp57
 70
     1
  0
XRECORD
  5
947ED
102
{ACAD_REACTORS
330
87B16
102
}
330
87B16
100
AcDbXrecord
280
     1
102
RTVSPropertyOp0
 70
     1
102
RTVSPropertyOp1
 70
     1
102
RTVSPropertyOp2
 70
     1
102
RTVSPropertyOp3
 70
     1
102
RTVSPropertyOp4
 70
     1
102
RTVSPropertyOp5
 70
     1
102
RTVSPropertyOp6
 70
     1
102
RTVSPropertyOp7
 70
     1
102
RTVSPropertyOp8
 70
     1
102
RTVSPropertyOp9
 70
     1
102
RTVSPropertyOp10
 70
     1
102
RTVSPropertyOp11
 70
     1
102
RTVSPropertyOp12
 70
     1
102
RTVSPropertyOp13
 70
     1
102
RTVSPropertyOp14
 70
     1
102
RTVSPropertyOp15
 70
     1
102
RTVSPropertyOp16
 70
     1
102
RTVSPropertyOp17
 70
     1
102
RTVSPropertyOp18
 70
     1
102
RTVSPropertyOp19
 70
     1
102
RTVSPropertyOp20
 70
     1
102
RTVSPropertyOp21
 70
     1
102
RTVSPropertyOp22
 70
     1
102
RTVSPropertyOp23
 70
     1
102
RTVSPropertyOp24
 70
     1
102
RTVSPropertyOp25
 70
     1
102
RTVSPropertyOp26
 70
     1
102
RTVSPropertyOp27
 70
     1
102
RTVSPropertyOp28
 70
     1
102
RTVSPropertyOp29
 70
     1
102
RTVSPropertyOp30
 70
     1
102
RTVSPropertyOp31
 70
     1
102
RTVSPropertyOp32
 70
     1
102
RTVSPropertyOp33
 70
     1
102
RTVSPropertyOp34
 70
     1
102
RTVSPropertyOp35
 70
     1
102
RTVSPropertyOp36
 70
     1
102
RTVSPropertyOp37
 70
     1
102
RTVSPropertyOp38
 70
     1
102
RTVSPropertyOp39
 70
     1
102
RTVSPropertyOp40
 70
     1
102
RTVSPropertyOp41
 70
     1
102
RTVSPropertyOp42
 70
     1
102
RTVSPropertyOp43
 70
     1
102
RTVSPropertyOp44
 70
     1
102
RTVSPropertyOp45
 70
     1
102
RTVSPropertyOp46
 70
     1
102
RTVSPropertyOp47
 70
     1
102
RTVSPropertyOp48
 70
     1
102
RTVSPropertyOp49
 70
     1
102
RTVSPropertyOp50
 70
     1
102
RTVSPropertyOp51
 70
     0
102
RTVSPropertyOp52
 70
     0
102
RTVSPropertyOp53
 70
     1
102
RTVSPropertyOp54
 70
     1
102
RTVSPropertyOp55
 70
     1
102
RTVSPropertyOp56
 70
     1
102
RTVSPropertyOp57
 70
     1
102
RTVSPost2010Prop28
280
     0
102
RTVSPost2010PropOp28
 70
     1
102
RTVSPost2010Prop29
280
     1
102
RTVSPost2010PropOp29
 70
     1
102
RTVSPost2010Prop30
280
     1
102
RTVSPost2010PropOp30
 70
     1
102
RTVSPost2010Prop31
280
     0
102
RTVSPost2010PropOp31
 70
     1
102
RTVSPost2010Prop32
280
     0
102
RTVSPost2010PropOp32
 70
     1
102
RTVSPost2010Prop33
280
     0
102
RTVSPost2010PropOp33
 70
     1
102
RTVSPost2010Prop34
280
     0
102
RTVSPost2010PropOp34
 70
     1
102
RTVSPost2010Prop35
280
     0
102
RTVSPost2010PropOp35
 70
     1
102
RTVSPost2010Prop36
280
     0
102
RTVSPost2010PropOp36
 70
     1
102
RTVSPost2010Prop37
 90
       50
102
RTVSPost2010PropOp37
 70
     1
102
RTVSPost2010Prop38
140
0.0
102
RTVSPost2010PropOp38
 70
     1
102
RTVSPost2010Prop39
140
1.0
102
RTVSPost2010PropOp39
 70
     1
102
RTVSPost2010Prop40
 90
        0
102
RTVSPost2010PropOp40
 70
     1
102
RTVSPost2010Prop41ColorIndex
 90
       18
102
RTVSPost2010Prop41ColorRGB
 90
        0
102
RTVSPost2010PropOp41
 70
     1
102
RTVSPost2010Prop42
 90
       50
102
RTVSPost2010PropOp42
 70
     1
102
RTVSPost2010Prop43
 90
        3
102
RTVSPost2010PropOp43
 70
     1
102
RTVSPost2010Prop44ColorIndex
 90
        5
102
RTVSPost2010Prop44ColorRGB
 90
      255
102
RTVSPost2010PropOp44
 70
     1
102
RTVSPost2010Prop45
280
     0
102
RTVSPost2010PropOp45
 70
     1
102
RTVSPost2010Prop46
 90
       50
102
RTVSPost2010PropOp46
 70
     1
102
RTVSPost2010Prop47
 90
       50
102
RTVSPost2010PropOp47
 70
     1
102
RTVSPost2010Prop48
 90
       50
102
RTVSPost2010PropOp48
 70
     1
102
RTVSPost2010Prop49
280
     0
102
RTVSPost2010PropOp49
 70
     1
102
RTVSPost2010Prop50
 90
       50
102
RTVSPost2010PropOp50
 70
     1
102
RTVSPost2010Prop51ColorIndex
 90
      256
102
RTVSPost2010Prop51ColorRGB
 90
-16777216
102
RTVSPost2010PropOp51
 70
     0
102
RTVSPost2010Prop52
140
1.0
102
RTVSPost2010PropOp52
 70
     0
102
RTVSPost2010Prop53
 90
        2
102
RTVSPost2010PropOp53
 70
     1
102
RTVSPost2010Prop54
  1
strokes_ogs.tif
102
RTVSPost2010PropOp54
 70
     1
102
RTVSPost2010Prop55
280
     0
102
RTVSPost2010PropOp55
 70
     1
102
RTVSPost2010Prop56
140
1.0
102
RTVSPost2010PropOp56
 70
     1
102
RTVSPost2010Prop57
140
1.0
102
RTVSPost2010PropOp57
 70
     1
  0
XRECORD
  5
947EE
102
{ACAD_REACTORS
330
87B24
102
}
330
87B24
100
AcDbXrecord
280
     1
102
RTVSPropertyOp0
 70
     1
102
RTVSPropertyOp1
 70
     1
102
RTVSPropertyOp2
 70
     1
102
RTVSPropertyOp3
 70
     1
102
RTVSPropertyOp4
 70
     1
102
RTVSPropertyOp5
 70
     1
102
RTVSPropertyOp6
 70
     1
102
RTVSPropertyOp7
 70
     1
102
RTVSPropertyOp8
 70
     1
102
RTVSPropertyOp9
 70
     1
102
RTVSPropertyOp10
 70
     1
102
RTVSPropertyOp11
 70
     1
102
RTVSPropertyOp12
 70
     1
102
RTVSPropertyOp13
 70
     1
102
RTVSPropertyOp14
 70
     1
102
RTVSPropertyOp15
 70
     1
102
RTVSPropertyOp16
 70
     1
102
RTVSPropertyOp17
 70
     1
102
RTVSPropertyOp18
 70
     1
102
RTVSPropertyOp19
 70
     1
102
RTVSPropertyOp20
 70
     1
102
RTVSPropertyOp21
 70
     1
102
RTVSPropertyOp22
 70
     1
102
RTVSPropertyOp23
 70
     1
102
RTVSPropertyOp24
 70
     1
102
RTVSPropertyOp25
 70
     1
102
RTVSPropertyOp26
 70
     1
102
RTVSPropertyOp27
 70
     1
102
RTVSPropertyOp28
 70
     1
102
RTVSPropertyOp29
 70
     1
102
RTVSPropertyOp30
 70
     1
102
RTVSPropertyOp31
 70
     1
102
RTVSPropertyOp32
 70
     1
102
RTVSPropertyOp33
 70
     1
102
RTVSPropertyOp34
 70
     1
102
RTVSPropertyOp35
 70
     1
102
RTVSPropertyOp36
 70
     1
102
RTVSPropertyOp37
 70
     1
102
RTVSPropertyOp38
 70
     1
102
RTVSPropertyOp39
 70
     1
102
RTVSPropertyOp40
 70
     1
102
RTVSPropertyOp41
 70
     1
102
RTVSPropertyOp42
 70
     1
102
RTVSPropertyOp43
 70
     1
102
RTVSPropertyOp44
 70
     1
102
RTVSPropertyOp45
 70
     1
102
RTVSPropertyOp46
 70
     1
102
RTVSPropertyOp47
 70
     1
102
RTVSPropertyOp48
 70
     1
102
RTVSPropertyOp49
 70
     1
102
RTVSPropertyOp50
 70
     1
102
RTVSPropertyOp51
 70
     0
102
RTVSPropertyOp52
 70
     0
102
RTVSPropertyOp53
 70
     1
102
RTVSPropertyOp54
 70
     1
102
RTVSPropertyOp55
 70
     1
102
RTVSPropertyOp56
 70
     1
102
RTVSPropertyOp57
 70
     1
102
RTVSPost2010Prop28
280
     0
102
RTVSPost2010PropOp28
 70
     1
102
RTVSPost2010Prop29
280
     1
102
RTVSPost2010PropOp29
 70
     1
102
RTVSPost2010Prop30
280
     1
102
RTVSPost2010PropOp30
 70
     1
102
RTVSPost2010Prop31
280
     0
102
RTVSPost2010PropOp31
 70
     1
102
RTVSPost2010Prop32
280
     0
102
RTVSPost2010PropOp32
 70
     1
102
RTVSPost2010Prop33
280
     0
102
RTVSPost2010PropOp33
 70
     1
102
RTVSPost2010Prop34
280
     0
102
RTVSPost2010PropOp34
 70
     1
102
RTVSPost2010Prop35
280
     0
102
RTVSPost2010PropOp35
 70
     1
102
RTVSPost2010Prop36
280
     0
102
RTVSPost2010PropOp36
 70
     1
102
RTVSPost2010Prop37
 90
       50
102
RTVSPost2010PropOp37
 70
     1
102
RTVSPost2010Prop38
140
0.0
102
RTVSPost2010PropOp38
 70
     1
102
RTVSPost2010Prop39
140
1.0
102
RTVSPost2010PropOp39
 70
     1
102
RTVSPost2010Prop40
 90
        0
102
RTVSPost2010PropOp40
 70
     1
102
RTVSPost2010Prop41ColorIndex
 90
       18
102
RTVSPost2010Prop41ColorRGB
 90
        0
102
RTVSPost2010PropOp41
 70
     1
102
RTVSPost2010Prop42
 90
       50
102
RTVSPost2010PropOp42
 70
     1
102
RTVSPost2010Prop43
 90
        3
102
RTVSPost2010PropOp43
 70
     1
102
RTVSPost2010Prop44ColorIndex
 90
        5
102
RTVSPost2010Prop44ColorRGB
 90
      255
102
RTVSPost2010PropOp44
 70
     1
102
RTVSPost2010Prop45
280
     0
102
RTVSPost2010PropOp45
 70
     1
102
RTVSPost2010Prop46
 90
       50
102
RTVSPost2010PropOp46
 70
     1
102
RTVSPost2010Prop47
 90
       50
102
RTVSPost2010PropOp47
 70
     1
102
RTVSPost2010Prop48
 90
       50
102
RTVSPost2010PropOp48
 70
     1
102
RTVSPost2010Prop49
280
     0
102
RTVSPost2010PropOp49
 70
     1
102
RTVSPost2010Prop50
 90
       50
102
RTVSPost2010PropOp50
 70
     1
102
RTVSPost2010Prop51ColorIndex
 90
      256
102
RTVSPost2010Prop51ColorRGB
 90
-16777216
102
RTVSPost2010PropOp51
 70
     0
102
RTVSPost2010Prop52
140
1.0
102
RTVSPost2010PropOp52
 70
     0
102
RTVSPost2010Prop53
 90
        2
102
RTVSPost2010PropOp53
 70
     1
102
RTVSPost2010Prop54
  1
strokes_ogs.tif
102
RTVSPost2010PropOp54
 70
     1
102
RTVSPost2010Prop55
280
     0
102
RTVSPost2010PropOp55
 70
     1
102
RTVSPost2010Prop56
140
1.0
102
RTVSPost2010PropOp56
 70
     1
102
RTVSPost2010Prop57
140
1.0
102
RTVSPost2010PropOp57
 70
     1
  0
XRECORD
  5
947EF
102
{ACAD_REACTORS
330
87B2C
102
}
330
87B2C
100
AcDbXrecord
280
     1
102
RTVSPropertyOp0
 70
     1
102
RTVSPropertyOp1
 70
     1
102
RTVSPropertyOp2
 70
     1
102
RTVSPropertyOp3
 70
     1
102
RTVSPropertyOp4
 70
     1
102
RTVSPropertyOp5
 70
     1
102
RTVSPropertyOp6
 70
     1
102
RTVSPropertyOp7
 70
     1
102
RTVSPropertyOp8
 70
     1
102
RTVSPropertyOp9
 70
     1
102
RTVSPropertyOp10
 70
     1
102
RTVSPropertyOp11
 70
     1
102
RTVSPropertyOp12
 70
     1
102
RTVSPropertyOp13
 70
     1
102
RTVSPropertyOp14
 70
     1
102
RTVSPropertyOp15
 70
     1
102
RTVSPropertyOp16
 70
     1
102
RTVSPropertyOp17
 70
     1
102
RTVSPropertyOp18
 70
     1
102
RTVSPropertyOp19
 70
     1
102
RTVSPropertyOp20
 70
     1
102
RTVSPropertyOp21
 70
     1
102
RTVSPropertyOp22
 70
     1
102
RTVSPropertyOp23
 70
     1
102
RTVSPropertyOp24
 70
     1
102
RTVSPropertyOp25
 70
     1
102
RTVSPropertyOp26
 70
     1
102
RTVSPropertyOp27
 70
     1
102
RTVSPropertyOp28
 70
     1
102
RTVSPropertyOp29
 70
     1
102
RTVSPropertyOp30
 70
     1
102
RTVSPropertyOp31
 70
     1
102
RTVSPropertyOp32
 70
     1
102
RTVSPropertyOp33
 70
     1
102
RTVSPropertyOp34
 70
     1
102
RTVSPropertyOp35
 70
     1
102
RTVSPropertyOp36
 70
     1
102
RTVSPropertyOp37
 70
     1
102
RTVSPropertyOp38
 70
     1
102
RTVSPropertyOp39
 70
     1
102
RTVSPropertyOp40
 70
     1
102
RTVSPropertyOp41
 70
     1
102
RTVSPropertyOp42
 70
     1
102
RTVSPropertyOp43
 70
     1
102
RTVSPropertyOp44
 70
     1
102
RTVSPropertyOp45
 70
     1
102
RTVSPropertyOp46
 70
     1
102
RTVSPropertyOp47
 70
     1
102
RTVSPropertyOp48
 70
     1
102
RTVSPropertyOp49
 70
     1
102
RTVSPropertyOp50
 70
     1
102
RTVSPropertyOp51
 70
     0
102
RTVSPropertyOp52
 70
     0
102
RTVSPropertyOp53
 70
     1
102
RTVSPropertyOp54
 70
     1
102
RTVSPropertyOp55
 70
     1
102
RTVSPropertyOp56
 70
     1
102
RTVSPropertyOp57
 70
     1
102
RTVSPost2010Prop28
280
     0
102
RTVSPost2010PropOp28
 70
     1
102
RTVSPost2010Prop29
280
     1
102
RTVSPost2010PropOp29
 70
     1
102
RTVSPost2010Prop30
280
     1
102
RTVSPost2010PropOp30
 70
     1
102
RTVSPost2010Prop31
280
     0
102
RTVSPost2010PropOp31
 70
     1
102
RTVSPost2010Prop32
280
     0
102
RTVSPost2010PropOp32
 70
     1
102
RTVSPost2010Prop33
280
     0
102
RTVSPost2010PropOp33
 70
     1
102
RTVSPost2010Prop34
280
     0
102
RTVSPost2010PropOp34
 70
     1
102
RTVSPost2010Prop35
280
     0
102
RTVSPost2010PropOp35
 70
     1
102
RTVSPost2010Prop36
280
     0
102
RTVSPost2010PropOp36
 70
     1
102
RTVSPost2010Prop37
 90
       50
102
RTVSPost2010PropOp37
 70
     1
102
RTVSPost2010Prop38
140
0.0
102
RTVSPost2010PropOp38
 70
     1
102
RTVSPost2010Prop39
140
1.0
102
RTVSPost2010PropOp39
 70
     1
102
RTVSPost2010Prop40
 90
        0
102
RTVSPost2010PropOp40
 70
     1
102
RTVSPost2010Prop41ColorIndex
 90
       18
102
RTVSPost2010Prop41ColorRGB
 90
        0
102
RTVSPost2010PropOp41
 70
     1
102
RTVSPost2010Prop42
 90
       50
102
RTVSPost2010PropOp42
 70
     1
102
RTVSPost2010Prop43
 90
        3
102
RTVSPost2010PropOp43
 70
     1
102
RTVSPost2010Prop44ColorIndex
 90
        5
102
RTVSPost2010Prop44ColorRGB
 90
      255
102
RTVSPost2010PropOp44
 70
     1
102
RTVSPost2010Prop45
280
     0
102
RTVSPost2010PropOp45
 70
     1
102
RTVSPost2010Prop46
 90
       50
102
RTVSPost2010PropOp46
 70
     1
102
RTVSPost2010Prop47
 90
       50
102
RTVSPost2010PropOp47
 70
     1
102
RTVSPost2010Prop48
 90
       50
102
RTVSPost2010PropOp48
 70
     1
102
RTVSPost2010Prop49
280
     0
102
RTVSPost2010PropOp49
 70
     1
102
RTVSPost2010Prop50
 90
       50
102
RTVSPost2010PropOp50
 70
     1
102
RTVSPost2010Prop51ColorIndex
 90
      256
102
RTVSPost2010Prop51ColorRGB
 90
-16777216
102
RTVSPost2010PropOp51
 70
     0
102
RTVSPost2010Prop52
140
1.0
102
RTVSPost2010PropOp52
 70
     0
102
RTVSPost2010Prop53
 90
        2
102
RTVSPost2010PropOp53
 70
     1
102
RTVSPost2010Prop54
  1
strokes_ogs.tif
102
RTVSPost2010PropOp54
 70
     1
102
RTVSPost2010Prop55
280
     0
102
RTVSPost2010PropOp55
 70
     1
102
RTVSPost2010Prop56
140
1.0
102
RTVSPost2010PropOp56
 70
     1
102
RTVSPost2010Prop57
140
1.0
102
RTVSPost2010PropOp57
 70
     1
  0
XRECORD
  5
947F0
102
{ACAD_REACTORS
330
87B1E
102
}
330
87B1E
100
AcDbXrecord
280
     1
102
RTVSPropertyOp0
 70
     1
102
RTVSPropertyOp1
 70
     1
102
RTVSPropertyOp2
 70
     1
102
RTVSPropertyOp3
 70
     1
102
RTVSPropertyOp4
 70
     1
102
RTVSPropertyOp5
 70
     1
102
RTVSPropertyOp6
 70
     1
102
RTVSPropertyOp7
 70
     1
102
RTVSPropertyOp8
 70
     1
102
RTVSPropertyOp9
 70
     1
102
RTVSPropertyOp10
 70
     1
102
RTVSPropertyOp11
 70
     1
102
RTVSPropertyOp12
 70
     1
102
RTVSPropertyOp13
 70
     1
102
RTVSPropertyOp14
 70
     1
102
RTVSPropertyOp15
 70
     1
102
RTVSPropertyOp16
 70
     1
102
RTVSPropertyOp17
 70
     1
102
RTVSPropertyOp18
 70
     1
102
RTVSPropertyOp19
 70
     1
102
RTVSPropertyOp20
 70
     1
102
RTVSPropertyOp21
 70
     1
102
RTVSPropertyOp22
 70
     1
102
RTVSPropertyOp23
 70
     1
102
RTVSPropertyOp24
 70
     1
102
RTVSPropertyOp25
 70
     1
102
RTVSPropertyOp26
 70
     1
102
RTVSPropertyOp27
 70
     1
102
RTVSPropertyOp28
 70
     1
102
RTVSPropertyOp29
 70
     1
102
RTVSPropertyOp30
 70
     1
102
RTVSPropertyOp31
 70
     1
102
RTVSPropertyOp32
 70
     1
102
RTVSPropertyOp33
 70
     1
102
RTVSPropertyOp34
 70
     1
102
RTVSPropertyOp35
 70
     1
102
RTVSPropertyOp36
 70
     1
102
RTVSPropertyOp37
 70
     1
102
RTVSPropertyOp38
 70
     1
102
RTVSPropertyOp39
 70
     1
102
RTVSPropertyOp40
 70
     1
102
RTVSPropertyOp41
 70
     1
102
RTVSPropertyOp42
 70
     1
102
RTVSPropertyOp43
 70
     1
102
RTVSPropertyOp44
 70
     1
102
RTVSPropertyOp45
 70
     1
102
RTVSPropertyOp46
 70
     1
102
RTVSPropertyOp47
 70
     1
102
RTVSPropertyOp48
 70
     1
102
RTVSPropertyOp49
 70
     1
102
RTVSPropertyOp50
 70
     1
102
RTVSPropertyOp51
 70
     0
102
RTVSPropertyOp52
 70
     0
102
RTVSPropertyOp53
 70
     1
102
RTVSPropertyOp54
 70
     1
102
RTVSPropertyOp55
 70
     1
102
RTVSPropertyOp56
 70
     1
102
RTVSPropertyOp57
 70
     1
102
RTVSPost2010Prop28
280
     0
102
RTVSPost2010PropOp28
 70
     1
102
RTVSPost2010Prop29
280
     1
102
RTVSPost2010PropOp29
 70
     1
102
RTVSPost2010Prop30
280
     1
102
RTVSPost2010PropOp30
 70
     1
102
RTVSPost2010Prop31
280
     0
102
RTVSPost2010PropOp31
 70
     1
102
RTVSPost2010Prop32
280
     0
102
RTVSPost2010PropOp32
 70
     1
102
RTVSPost2010Prop33
280
     0
102
RTVSPost2010PropOp33
 70
     1
102
RTVSPost2010Prop34
280
     0
102
RTVSPost2010PropOp34
 70
     1
102
RTVSPost2010Prop35
280
     0
102
RTVSPost2010PropOp35
 70
     1
102
RTVSPost2010Prop36
280
     0
102
RTVSPost2010PropOp36
 70
     1
102
RTVSPost2010Prop37
 90
       50
102
RTVSPost2010PropOp37
 70
     1
102
RTVSPost2010Prop38
140
0.0
102
RTVSPost2010PropOp38
 70
     1
102
RTVSPost2010Prop39
140
1.0
102
RTVSPost2010PropOp39
 70
     1
102
RTVSPost2010Prop40
 90
        0
102
RTVSPost2010PropOp40
 70
     1
102
RTVSPost2010Prop41ColorIndex
 90
       18
102
RTVSPost2010Prop41ColorRGB
 90
        0
102
RTVSPost2010PropOp41
 70
     1
102
RTVSPost2010Prop42
 90
       50
102
RTVSPost2010PropOp42
 70
     1
102
RTVSPost2010Prop43
 90
        3
102
RTVSPost2010PropOp43
 70
     1
102
RTVSPost2010Prop44ColorIndex
 90
        5
102
RTVSPost2010Prop44ColorRGB
 90
      255
102
RTVSPost2010PropOp44
 70
     1
102
RTVSPost2010Prop45
280
     0
102
RTVSPost2010PropOp45
 70
     1
102
RTVSPost2010Prop46
 90
       50
102
RTVSPost2010PropOp46
 70
     1
102
RTVSPost2010Prop47
 90
       50
102
RTVSPost2010PropOp47
 70
     1
102
RTVSPost2010Prop48
 90
       50
102
RTVSPost2010PropOp48
 70
     1
102
RTVSPost2010Prop49
280
     0
102
RTVSPost2010PropOp49
 70
     1
102
RTVSPost2010Prop50
 90
       50
102
RTVSPost2010PropOp50
 70
     1
102
RTVSPost2010Prop51ColorIndex
 90
      256
102
RTVSPost2010Prop51ColorRGB
 90
-16777216
102
RTVSPost2010PropOp51
 70
     0
102
RTVSPost2010Prop52
140
1.0
102
RTVSPost2010PropOp52
 70
     0
102
RTVSPost2010Prop53
 90
        2
102
RTVSPost2010PropOp53
 70
     1
102
RTVSPost2010Prop54
  1
strokes_ogs.tif
102
RTVSPost2010PropOp54
 70
     1
102
RTVSPost2010Prop55
280
     0
102
RTVSPost2010PropOp55
 70
     1
102
RTVSPost2010Prop56
140
1.0
102
RTVSPost2010PropOp56
 70
     1
102
RTVSPost2010Prop57
140
1.0
102
RTVSPost2010PropOp57
 70
     1
  0
XRECORD
  5
947F1
102
{ACAD_REACTORS
330
87B22
102
}
330
87B22
100
AcDbXrecord
280
     1
102
RTVSPropertyOp0
 70
     1
102
RTVSPropertyOp1
 70
     1
102
RTVSPropertyOp2
 70
     1
102
RTVSPropertyOp3
 70
     1
102
RTVSPropertyOp4
 70
     1
102
RTVSPropertyOp5
 70
     1
102
RTVSPropertyOp6
 70
     1
102
RTVSPropertyOp7
 70
     1
102
RTVSPropertyOp8
 70
     1
102
RTVSPropertyOp9
 70
     1
102
RTVSPropertyOp10
 70
     1
102
RTVSPropertyOp11
 70
     1
102
RTVSPropertyOp12
 70
     1
102
RTVSPropertyOp13
 70
     1
102
RTVSPropertyOp14
 70
     1
102
RTVSPropertyOp15
 70
     1
102
RTVSPropertyOp16
 70
     1
102
RTVSPropertyOp17
 70
     1
102
RTVSPropertyOp18
 70
     1
102
RTVSPropertyOp19
 70
     1
102
RTVSPropertyOp20
 70
     1
102
RTVSPropertyOp21
 70
     1
102
RTVSPropertyOp22
 70
     1
102
RTVSPropertyOp23
 70
     1
102
RTVSPropertyOp24
 70
     1
102
RTVSPropertyOp25
 70
     1
102
RTVSPropertyOp26
 70
     1
102
RTVSPropertyOp27
 70
     1
102
RTVSPropertyOp28
 70
     1
102
RTVSPropertyOp29
 70
     1
102
RTVSPropertyOp30
 70
     1
102
RTVSPropertyOp31
 70
     1
102
RTVSPropertyOp32
 70
     1
102
RTVSPropertyOp33
 70
     1
102
RTVSPropertyOp34
 70
     1
102
RTVSPropertyOp35
 70
     1
102
RTVSPropertyOp36
 70
     1
102
RTVSPropertyOp37
 70
     1
102
RTVSPropertyOp38
 70
     1
102
RTVSPropertyOp39
 70
     1
102
RTVSPropertyOp40
 70
     1
102
RTVSPropertyOp41
 70
     1
102
RTVSPropertyOp42
 70
     1
102
RTVSPropertyOp43
 70
     1
102
RTVSPropertyOp44
 70
     1
102
RTVSPropertyOp45
 70
     1
102
RTVSPropertyOp46
 70
     1
102
RTVSPropertyOp47
 70
     1
102
RTVSPropertyOp48
 70
     1
102
RTVSPropertyOp49
 70
     1
102
RTVSPropertyOp50
 70
     1
102
RTVSPropertyOp51
 70
     0
102
RTVSPropertyOp52
 70
     0
102
RTVSPropertyOp53
 70
     1
102
RTVSPropertyOp54
 70
     1
102
RTVSPropertyOp55
 70
     1
102
RTVSPropertyOp56
 70
     1
102
RTVSPropertyOp57
 70
     1
102
RTVSPost2010Prop28
280
     0
102
RTVSPost2010PropOp28
 70
     1
102
RTVSPost2010Prop29
280
     1
102
RTVSPost2010PropOp29
 70
     1
102
RTVSPost2010Prop30
280
     1
102
RTVSPost2010PropOp30
 70
     1
102
RTVSPost2010Prop31
280
     0
102
RTVSPost2010PropOp31
 70
     1
102
RTVSPost2010Prop32
280
     0
102
RTVSPost2010PropOp32
 70
     1
102
RTVSPost2010Prop33
280
     0
102
RTVSPost2010PropOp33
 70
     1
102
RTVSPost2010Prop34
280
     0
102
RTVSPost2010PropOp34
 70
     1
102
RTVSPost2010Prop35
280
     0
102
RTVSPost2010PropOp35
 70
     1
102
RTVSPost2010Prop36
280
     0
102
RTVSPost2010PropOp36
 70
     1
102
RTVSPost2010Prop37
 90
       50
102
RTVSPost2010PropOp37
 70
     1
102
RTVSPost2010Prop38
140
0.0
102
RTVSPost2010PropOp38
 70
     1
102
RTVSPost2010Prop39
140
1.0
102
RTVSPost2010PropOp39
 70
     1
102
RTVSPost2010Prop40
 90
        0
102
RTVSPost2010PropOp40
 70
     1
102
RTVSPost2010Prop41ColorIndex
 90
       18
102
RTVSPost2010Prop41ColorRGB
 90
        0
102
RTVSPost2010PropOp41
 70
     1
102
RTVSPost2010Prop42
 90
       50
102
RTVSPost2010PropOp42
 70
     1
102
RTVSPost2010Prop43
 90
        3
102
RTVSPost2010PropOp43
 70
     1
102
RTVSPost2010Prop44ColorIndex
 90
        5
102
RTVSPost2010Prop44ColorRGB
 90
      255
102
RTVSPost2010PropOp44
 70
     1
102
RTVSPost2010Prop45
280
     0
102
RTVSPost2010PropOp45
 70
     1
102
RTVSPost2010Prop46
 90
       50
102
RTVSPost2010PropOp46
 70
     1
102
RTVSPost2010Prop47
 90
       50
102
RTVSPost2010PropOp47
 70
     1
102
RTVSPost2010Prop48
 90
       50
102
RTVSPost2010PropOp48
 70
     1
102
RTVSPost2010Prop49
280
     0
102
RTVSPost2010PropOp49
 70
     1
102
RTVSPost2010Prop50
 90
       50
102
RTVSPost2010PropOp50
 70
     1
102
RTVSPost2010Prop51ColorIndex
 90
      256
102
RTVSPost2010Prop51ColorRGB
 90
-16777216
102
RTVSPost2010PropOp51
 70
     0
102
RTVSPost2010Prop52
140
1.0
102
RTVSPost2010PropOp52
 70
     0
102
RTVSPost2010Prop53
 90
        2
102
RTVSPost2010PropOp53
 70
     1
102
RTVSPost2010Prop54
  1
strokes_ogs.tif
102
RTVSPost2010PropOp54
 70
     1
102
RTVSPost2010Prop55
280
     0
102
RTVSPost2010PropOp55
 70
     1
102
RTVSPost2010Prop56
140
1.0
102
RTVSPost2010PropOp56
 70
     1
102
RTVSPost2010Prop57
140
1.0
102
RTVSPost2010PropOp57
 70
     1
  0
XRECORD
  5
947F2
102
{ACAD_REACTORS
330
87B3C
102
}
330
87B3C
100
AcDbXrecord
280
     1
102
RTVSPropertyOp0
 70
     0
102
RTVSPropertyOp1
 70
     0
102
RTVSPropertyOp2
 70
     0
102
RTVSPropertyOp3
 70
     0
102
RTVSPropertyOp4
 70
     0
102
RTVSPropertyOp5
 70
     0
102
RTVSPropertyOp6
 70
     0
102
RTVSPropertyOp7
 70
     0
102
RTVSPropertyOp8
 70
     0
102
RTVSPropertyOp9
 70
     0
102
RTVSPropertyOp10
 70
     0
102
RTVSPropertyOp11
 70
     0
102
RTVSPropertyOp12
 70
     0
102
RTVSPropertyOp13
 70
     0
102
RTVSPropertyOp14
 70
     2
102
RTVSPropertyOp15
 70
     0
102
RTVSPropertyOp16
 70
     0
102
RTVSPropertyOp17
 70
     0
102
RTVSPropertyOp18
 70
     0
102
RTVSPropertyOp19
 70
     0
102
RTVSPropertyOp20
 70
     0
102
RTVSPropertyOp21
 70
     0
102
RTVSPropertyOp22
 70
     0
102
RTVSPropertyOp23
 70
     0
102
RTVSPropertyOp24
 70
     0
102
RTVSPropertyOp25
 70
     0
102
RTVSPropertyOp26
 70
     0
102
RTVSPropertyOp27
 70
     0
102
RTVSPropertyOp28
 70
     1
102
RTVSPropertyOp29
 70
     1
102
RTVSPropertyOp30
 70
     1
102
RTVSPropertyOp31
 70
     1
102
RTVSPropertyOp32
 70
     1
102
RTVSPropertyOp33
 70
     1
102
RTVSPropertyOp34
 70
     1
102
RTVSPropertyOp35
 70
     1
102
RTVSPropertyOp36
 70
     1
102
RTVSPropertyOp37
 70
     0
102
RTVSPropertyOp38
 70
     0
102
RTVSPropertyOp39
 70
     0
102
RTVSPropertyOp40
 70
     0
102
RTVSPropertyOp41
 70
     0
102
RTVSPropertyOp42
 70
     0
102
RTVSPropertyOp43
 70
     0
102
RTVSPropertyOp44
 70
     0
102
RTVSPropertyOp45
 70
     1
102
RTVSPropertyOp46
 70
     0
102
RTVSPropertyOp47
 70
     0
102
RTVSPropertyOp48
 70
     0
102
RTVSPropertyOp49
 70
     1
102
RTVSPropertyOp50
 70
     0
102
RTVSPropertyOp51
 70
     0
102
RTVSPropertyOp52
 70
     0
102
RTVSPropertyOp53
 70
     0
102
RTVSPropertyOp54
 70
     0
102
RTVSPropertyOp55
 70
     1
102
RTVSPropertyOp56
 70
     0
102
RTVSPropertyOp57
 70
     0
102
RTVSPost2010Prop28
280
     0
102
RTVSPost2010PropOp28
 70
     1
102
RTVSPost2010Prop29
280
     1
102
RTVSPost2010PropOp29
 70
     1
102
RTVSPost2010Prop30
280
     1
102
RTVSPost2010PropOp30
 70
     1
102
RTVSPost2010Prop31
280
     0
102
RTVSPost2010PropOp31
 70
     1
102
RTVSPost2010Prop32
280
     0
102
RTVSPost2010PropOp32
 70
     1
102
RTVSPost2010Prop33
280
     0
102
RTVSPost2010PropOp33
 70
     1
102
RTVSPost2010Prop34
280
     0
102
RTVSPost2010PropOp34
 70
     1
102
RTVSPost2010Prop35
280
     0
102
RTVSPost2010PropOp35
 70
     1
102
RTVSPost2010Prop36
280
     0
102
RTVSPost2010PropOp36
 70
     1
102
RTVSPost2010Prop37
 90
       50
102
RTVSPost2010PropOp37
 70
     0
102
RTVSPost2010Prop38
140
0.0
102
RTVSPost2010PropOp38
 70
     0
102
RTVSPost2010Prop39
140
1.0
102
RTVSPost2010PropOp39
 70
     0
102
RTVSPost2010Prop40
 90
        0
102
RTVSPost2010PropOp40
 70
     0
102
RTVSPost2010Prop41ColorIndex
 90
       18
102
RTVSPost2010Prop41ColorRGB
 90
        0
102
RTVSPost2010PropOp41
 70
     0
102
RTVSPost2010Prop42
 90
       50
102
RTVSPost2010PropOp42
 70
     0
102
RTVSPost2010Prop43
 90
        3
102
RTVSPost2010PropOp43
 70
     0
102
RTVSPost2010Prop44ColorIndex
 90
        5
102
RTVSPost2010Prop44ColorRGB
 90
      255
102
RTVSPost2010PropOp44
 70
     0
102
RTVSPost2010Prop45
280
     0
102
RTVSPost2010PropOp45
 70
     1
102
RTVSPost2010Prop46
 90
       50
102
RTVSPost2010PropOp46
 70
     0
102
RTVSPost2010Prop47
 90
       50
102
RTVSPost2010PropOp47
 70
     0
102
RTVSPost2010Prop48
 90
       50
102
RTVSPost2010PropOp48
 70
     0
102
RTVSPost2010Prop49
280
     0
102
RTVSPost2010PropOp49
 70
     1
102
RTVSPost2010Prop50
 90
       50
102
RTVSPost2010PropOp50
 70
     0
102
RTVSPost2010Prop51ColorIndex
 90
      256
102
RTVSPost2010Prop51ColorRGB
 90
-16777216
102
RTVSPost2010PropOp51
 70
     0
102
RTVSPost2010Prop52
140
1.0
102
RTVSPost2010PropOp52
 70
     0
102
RTVSPost2010Prop53
 90
        2
102
RTVSPost2010PropOp53
 70
     0
102
RTVSPost2010Prop54
  1
strokes_ogs.tif
102
RTVSPost2010PropOp54
 70
     0
102
RTVSPost2010Prop55
280
     0
102
RTVSPost2010PropOp55
 70
     1
102
RTVSPost2010Prop56
140
1.0
102
RTVSPost2010PropOp56
 70
     0
102
RTVSPost2010Prop57
140
1.0
102
RTVSPost2010PropOp57
 70
     0
  0
XRECORD
  5
947F3
102
{ACAD_REACTORS
330
87B2A
102
}
330
87B2A
100
AcDbXrecord
280
     1
102
RTVSPropertyOp0
 70
     1
102
RTVSPropertyOp1
 70
     1
102
RTVSPropertyOp2
 70
     1
102
RTVSPropertyOp3
 70
     1
102
RTVSPropertyOp4
 70
     1
102
RTVSPropertyOp5
 70
     1
102
RTVSPropertyOp6
 70
     1
102
RTVSPropertyOp7
 70
     1
102
RTVSPropertyOp8
 70
     1
102
RTVSPropertyOp9
 70
     1
102
RTVSPropertyOp10
 70
     1
102
RTVSPropertyOp11
 70
     1
102
RTVSPropertyOp12
 70
     1
102
RTVSPropertyOp13
 70
     1
102
RTVSPropertyOp14
 70
     1
102
RTVSPropertyOp15
 70
     1
102
RTVSPropertyOp16
 70
     1
102
RTVSPropertyOp17
 70
     1
102
RTVSPropertyOp18
 70
     1
102
RTVSPropertyOp19
 70
     1
102
RTVSPropertyOp20
 70
     1
102
RTVSPropertyOp21
 70
     1
102
RTVSPropertyOp22
 70
     1
102
RTVSPropertyOp23
 70
     1
102
RTVSPropertyOp24
 70
     1
102
RTVSPropertyOp25
 70
     1
102
RTVSPropertyOp26
 70
     1
102
RTVSPropertyOp27
 70
     1
102
RTVSPropertyOp28
 70
     1
102
RTVSPropertyOp29
 70
     1
102
RTVSPropertyOp30
 70
     1
102
RTVSPropertyOp31
 70
     1
102
RTVSPropertyOp32
 70
     1
102
RTVSPropertyOp33
 70
     1
102
RTVSPropertyOp34
 70
     1
102
RTVSPropertyOp35
 70
     1
102
RTVSPropertyOp36
 70
     1
102
RTVSPropertyOp37
 70
     1
102
RTVSPropertyOp38
 70
     1
102
RTVSPropertyOp39
 70
     1
102
RTVSPropertyOp40
 70
     1
102
RTVSPropertyOp41
 70
     1
102
RTVSPropertyOp42
 70
     1
102
RTVSPropertyOp43
 70
     1
102
RTVSPropertyOp44
 70
     1
102
RTVSPropertyOp45
 70
     1
102
RTVSPropertyOp46
 70
     1
102
RTVSPropertyOp47
 70
     1
102
RTVSPropertyOp48
 70
     1
102
RTVSPropertyOp49
 70
     1
102
RTVSPropertyOp50
 70
     1
102
RTVSPropertyOp51
 70
     0
102
RTVSPropertyOp52
 70
     0
102
RTVSPropertyOp53
 70
     1
102
RTVSPropertyOp54
 70
     1
102
RTVSPropertyOp55
 70
     1
102
RTVSPropertyOp56
 70
     1
102
RTVSPropertyOp57
 70
     1
102
RTVSPost2010Prop28
280
     0
102
RTVSPost2010PropOp28
 70
     1
102
RTVSPost2010Prop29
280
     1
102
RTVSPost2010PropOp29
 70
     1
102
RTVSPost2010Prop30
280
     1
102
RTVSPost2010PropOp30
 70
     1
102
RTVSPost2010Prop31
280
     0
102
RTVSPost2010PropOp31
 70
     1
102
RTVSPost2010Prop32
280
     0
102
RTVSPost2010PropOp32
 70
     1
102
RTVSPost2010Prop33
280
     0
102
RTVSPost2010PropOp33
 70
     1
102
RTVSPost2010Prop34
280
     0
102
RTVSPost2010PropOp34
 70
     1
102
RTVSPost2010Prop35
280
     0
102
RTVSPost2010PropOp35
 70
     1
102
RTVSPost2010Prop36
280
     0
102
RTVSPost2010PropOp36
 70
     1
102
RTVSPost2010Prop37
 90
       50
102
RTVSPost2010PropOp37
 70
     1
102
RTVSPost2010Prop38
140
0.0
102
RTVSPost2010PropOp38
 70
     1
102
RTVSPost2010Prop39
140
1.0
102
RTVSPost2010PropOp39
 70
     1
102
RTVSPost2010Prop40
 90
        0
102
RTVSPost2010PropOp40
 70
     1
102
RTVSPost2010Prop41ColorIndex
 90
       18
102
RTVSPost2010Prop41ColorRGB
 90
        0
102
RTVSPost2010PropOp41
 70
     1
102
RTVSPost2010Prop42
 90
       50
102
RTVSPost2010PropOp42
 70
     1
102
RTVSPost2010Prop43
 90
        3
102
RTVSPost2010PropOp43
 70
     1
102
RTVSPost2010Prop44ColorIndex
 90
        5
102
RTVSPost2010Prop44ColorRGB
 90
      255
102
RTVSPost2010PropOp44
 70
     1
102
RTVSPost2010Prop45
280
     0
102
RTVSPost2010PropOp45
 70
     1
102
RTVSPost2010Prop46
 90
       50
102
RTVSPost2010PropOp46
 70
     1
102
RTVSPost2010Prop47
 90
       50
102
RTVSPost2010PropOp47
 70
     1
102
RTVSPost2010Prop48
 90
       50
102
RTVSPost2010PropOp48
 70
     1
102
RTVSPost2010Prop49
280
     0
102
RTVSPost2010PropOp49
 70
     1
102
RTVSPost2010Prop50
 90
       50
102
RTVSPost2010PropOp50
 70
     1
102
RTVSPost2010Prop51ColorIndex
 90
      256
102
RTVSPost2010Prop51ColorRGB
 90
-16777216
102
RTVSPost2010PropOp51
 70
     0
102
RTVSPost2010Prop52
140
1.0
102
RTVSPost2010PropOp52
 70
     0
102
RTVSPost2010Prop53
 90
        2
102
RTVSPost2010PropOp53
 70
     1
102
RTVSPost2010Prop54
  1
strokes_ogs.tif
102
RTVSPost2010PropOp54
 70
     1
102
RTVSPost2010Prop55
280
     0
102
RTVSPost2010PropOp55
 70
     1
102
RTVSPost2010Prop56
140
1.0
102
RTVSPost2010PropOp56
 70
     1
102
RTVSPost2010Prop57
140
1.0
102
RTVSPost2010PropOp57
 70
     1
  0
XRECORD
  5
947F4
102
{ACAD_REACTORS
330
87B0E
102
}
330
87B0E
100
AcDbXrecord
280
     1
102
RTVSPropertyOp0
 70
     1
102
RTVSPropertyOp1
 70
     1
102
RTVSPropertyOp2
 70
     1
102
RTVSPropertyOp3
 70
     1
102
RTVSPropertyOp4
 70
     1
102
RTVSPropertyOp5
 70
     1
102
RTVSPropertyOp6
 70
     1
102
RTVSPropertyOp7
 70
     1
102
RTVSPropertyOp8
 70
     1
102
RTVSPropertyOp9
 70
     1
102
RTVSPropertyOp10
 70
     1
102
RTVSPropertyOp11
 70
     1
102
RTVSPropertyOp12
 70
     1
102
RTVSPropertyOp13
 70
     1
102
RTVSPropertyOp14
 70
     1
102
RTVSPropertyOp15
 70
     1
102
RTVSPropertyOp16
 70
     1
102
RTVSPropertyOp17
 70
     1
102
RTVSPropertyOp18
 70
     1
102
RTVSPropertyOp19
 70
     1
102
RTVSPropertyOp20
 70
     1
102
RTVSPropertyOp21
 70
     1
102
RTVSPropertyOp22
 70
     1
102
RTVSPropertyOp23
 70
     1
102
RTVSPropertyOp24
 70
     1
102
RTVSPropertyOp25
 70
     1
102
RTVSPropertyOp26
 70
     1
102
RTVSPropertyOp27
 70
     1
102
RTVSPropertyOp28
 70
     1
102
RTVSPropertyOp29
 70
     1
102
RTVSPropertyOp30
 70
     1
102
RTVSPropertyOp31
 70
     1
102
RTVSPropertyOp32
 70
     1
102
RTVSPropertyOp33
 70
     1
102
RTVSPropertyOp34
 70
     1
102
RTVSPropertyOp35
 70
     1
102
RTVSPropertyOp36
 70
     1
102
RTVSPropertyOp37
 70
     1
102
RTVSPropertyOp38
 70
     1
102
RTVSPropertyOp39
 70
     1
102
RTVSPropertyOp40
 70
     1
102
RTVSPropertyOp41
 70
     1
102
RTVSPropertyOp42
 70
     1
102
RTVSPropertyOp43
 70
     1
102
RTVSPropertyOp44
 70
     1
102
RTVSPropertyOp45
 70
     1
102
RTVSPropertyOp46
 70
     1
102
RTVSPropertyOp47
 70
     1
102
RTVSPropertyOp48
 70
     1
102
RTVSPropertyOp49
 70
     1
102
RTVSPropertyOp50
 70
     1
102
RTVSPropertyOp51
 70
     0
102
RTVSPropertyOp52
 70
     0
102
RTVSPropertyOp53
 70
     1
102
RTVSPropertyOp54
 70
     1
102
RTVSPropertyOp55
 70
     1
102
RTVSPropertyOp56
 70
     1
102
RTVSPropertyOp57
 70
     1
102
RTVSPost2010Prop28
280
     0
102
RTVSPost2010PropOp28
 70
     1
102
RTVSPost2010Prop29
280
     1
102
RTVSPost2010PropOp29
 70
     1
102
RTVSPost2010Prop30
280
     1
102
RTVSPost2010PropOp30
 70
     1
102
RTVSPost2010Prop31
280
     0
102
RTVSPost2010PropOp31
 70
     1
102
RTVSPost2010Prop32
280
     0
102
RTVSPost2010PropOp32
 70
     1
102
RTVSPost2010Prop33
280
     0
102
RTVSPost2010PropOp33
 70
     1
102
RTVSPost2010Prop34
280
     0
102
RTVSPost2010PropOp34
 70
     1
102
RTVSPost2010Prop35
280
     0
102
RTVSPost2010PropOp35
 70
     1
102
RTVSPost2010Prop36
280
     0
102
RTVSPost2010PropOp36
 70
     1
102
RTVSPost2010Prop37
 90
       50
102
RTVSPost2010PropOp37
 70
     1
102
RTVSPost2010Prop38
140
0.0
102
RTVSPost2010PropOp38
 70
     1
102
RTVSPost2010Prop39
140
1.0
102
RTVSPost2010PropOp39
 70
     1
102
RTVSPost2010Prop40
 90
        0
102
RTVSPost2010PropOp40
 70
     1
102
RTVSPost2010Prop41ColorIndex
 90
       18
102
RTVSPost2010Prop41ColorRGB
 90
        0
102
RTVSPost2010PropOp41
 70
     1
102
RTVSPost2010Prop42
 90
       50
102
RTVSPost2010PropOp42
 70
     1
102
RTVSPost2010Prop43
 90
        3
102
RTVSPost2010PropOp43
 70
     1
102
RTVSPost2010Prop44ColorIndex
 90
        5
102
RTVSPost2010Prop44ColorRGB
 90
      255
102
RTVSPost2010PropOp44
 70
     1
102
RTVSPost2010Prop45
280
     0
102
RTVSPost2010PropOp45
 70
     1
102
RTVSPost2010Prop46
 90
       50
102
RTVSPost2010PropOp46
 70
     1
102
RTVSPost2010Prop47
 90
       50
102
RTVSPost2010PropOp47
 70
     1
102
RTVSPost2010Prop48
 90
       50
102
RTVSPost2010PropOp48
 70
     1
102
RTVSPost2010Prop49
280
     0
102
RTVSPost2010PropOp49
 70
     1
102
RTVSPost2010Prop50
 90
       50
102
RTVSPost2010PropOp50
 70
     1
102
RTVSPost2010Prop51ColorIndex
 90
      256
102
RTVSPost2010Prop51ColorRGB
 90
-16777216
102
RTVSPost2010PropOp51
 70
     0
102
RTVSPost2010Prop52
140
1.0
102
RTVSPost2010PropOp52
 70
     0
102
RTVSPost2010Prop53
 90
        2
102
RTVSPost2010PropOp53
 70
     1
102
RTVSPost2010Prop54
  1
strokes_ogs.tif
102
RTVSPost2010PropOp54
 70
     1
102
RTVSPost2010Prop55
280
     0
102
RTVSPost2010PropOp55
 70
     1
102
RTVSPost2010Prop56
140
1.0
102
RTVSPost2010PropOp56
 70
     1
102
RTVSPost2010Prop57
140
1.0
102
RTVSPost2010PropOp57
 70
     1
  0
XRECORD
  5
947F5
102
{ACAD_REACTORS
330
87B10
102
}
330
87B10
100
AcDbXrecord
280
     1
102
RTVSPropertyOp0
 70
     1
102
RTVSPropertyOp1
 70
     1
102
RTVSPropertyOp2
 70
     1
102
RTVSPropertyOp3
 70
     1
102
RTVSPropertyOp4
 70
     1
102
RTVSPropertyOp5
 70
     1
102
RTVSPropertyOp6
 70
     1
102
RTVSPropertyOp7
 70
     1
102
RTVSPropertyOp8
 70
     1
102
RTVSPropertyOp9
 70
     1
102
RTVSPropertyOp10
 70
     1
102
RTVSPropertyOp11
 70
     1
102
RTVSPropertyOp12
 70
     1
102
RTVSPropertyOp13
 70
     1
102
RTVSPropertyOp14
 70
     1
102
RTVSPropertyOp15
 70
     1
102
RTVSPropertyOp16
 70
     1
102
RTVSPropertyOp17
 70
     1
102
RTVSPropertyOp18
 70
     1
102
RTVSPropertyOp19
 70
     1
102
RTVSPropertyOp20
 70
     1
102
RTVSPropertyOp21
 70
     1
102
RTVSPropertyOp22
 70
     1
102
RTVSPropertyOp23
 70
     1
102
RTVSPropertyOp24
 70
     1
102
RTVSPropertyOp25
 70
     1
102
RTVSPropertyOp26
 70
     1
102
RTVSPropertyOp27
 70
     1
102
RTVSPropertyOp28
 70
     1
102
RTVSPropertyOp29
 70
     1
102
RTVSPropertyOp30
 70
     1
102
RTVSPropertyOp31
 70
     1
102
RTVSPropertyOp32
 70
     1
102
RTVSPropertyOp33
 70
     1
102
RTVSPropertyOp34
 70
     1
102
RTVSPropertyOp35
 70
     1
102
RTVSPropertyOp36
 70
     1
102
RTVSPropertyOp37
 70
     1
102
RTVSPropertyOp38
 70
     1
102
RTVSPropertyOp39
 70
     1
102
RTVSPropertyOp40
 70
     1
102
RTVSPropertyOp41
 70
     1
102
RTVSPropertyOp42
 70
     1
102
RTVSPropertyOp43
 70
     1
102
RTVSPropertyOp44
 70
     1
102
RTVSPropertyOp45
 70
     1
102
RTVSPropertyOp46
 70
     1
102
RTVSPropertyOp47
 70
     1
102
RTVSPropertyOp48
 70
     1
102
RTVSPropertyOp49
 70
     1
102
RTVSPropertyOp50
 70
     1
102
RTVSPropertyOp51
 70
     0
102
RTVSPropertyOp52
 70
     0
102
RTVSPropertyOp53
 70
     1
102
RTVSPropertyOp54
 70
     1
102
RTVSPropertyOp55
 70
     1
102
RTVSPropertyOp56
 70
     1
102
RTVSPropertyOp57
 70
     1
102
RTVSPost2010Prop28
280
     0
102
RTVSPost2010PropOp28
 70
     1
102
RTVSPost2010Prop29
280
     1
102
RTVSPost2010PropOp29
 70
     1
102
RTVSPost2010Prop30
280
     1
102
RTVSPost2010PropOp30
 70
     1
102
RTVSPost2010Prop31
280
     0
102
RTVSPost2010PropOp31
 70
     1
102
RTVSPost2010Prop32
280
     0
102
RTVSPost2010PropOp32
 70
     1
102
RTVSPost2010Prop33
280
     0
102
RTVSPost2010PropOp33
 70
     1
102
RTVSPost2010Prop34
280
     0
102
RTVSPost2010PropOp34
 70
     1
102
RTVSPost2010Prop35
280
     0
102
RTVSPost2010PropOp35
 70
     1
102
RTVSPost2010Prop36
280
     0
102
RTVSPost2010PropOp36
 70
     1
102
RTVSPost2010Prop37
 90
       50
102
RTVSPost2010PropOp37
 70
     1
102
RTVSPost2010Prop38
140
0.0
102
RTVSPost2010PropOp38
 70
     1
102
RTVSPost2010Prop39
140
1.0
102
RTVSPost2010PropOp39
 70
     1
102
RTVSPost2010Prop40
 90
        0
102
RTVSPost2010PropOp40
 70
     1
102
RTVSPost2010Prop41ColorIndex
 90
       18
102
RTVSPost2010Prop41ColorRGB
 90
        0
102
RTVSPost2010PropOp41
 70
     1
102
RTVSPost2010Prop42
 90
       50
102
RTVSPost2010PropOp42
 70
     1
102
RTVSPost2010Prop43
 90
        3
102
RTVSPost2010PropOp43
 70
     1
102
RTVSPost2010Prop44ColorIndex
 90
        5
102
RTVSPost2010Prop44ColorRGB
 90
      255
102
RTVSPost2010PropOp44
 70
     1
102
RTVSPost2010Prop45
280
     0
102
RTVSPost2010PropOp45
 70
     1
102
RTVSPost2010Prop46
 90
       50
102
RTVSPost2010PropOp46
 70
     1
102
RTVSPost2010Prop47
 90
       50
102
RTVSPost2010PropOp47
 70
     1
102
RTVSPost2010Prop48
 90
       50
102
RTVSPost2010PropOp48
 70
     1
102
RTVSPost2010Prop49
280
     0
102
RTVSPost2010PropOp49
 70
     1
102
RTVSPost2010Prop50
 90
       50
102
RTVSPost2010PropOp50
 70
     1
102
RTVSPost2010Prop51ColorIndex
 90
      256
102
RTVSPost2010Prop51ColorRGB
 90
-16777216
102
RTVSPost2010PropOp51
 70
     0
102
RTVSPost2010Prop52
140
1.0
102
RTVSPost2010PropOp52
 70
     0
102
RTVSPost2010Prop53
 90
        2
102
RTVSPost2010PropOp53
 70
     1
102
RTVSPost2010Prop54
  1
strokes_ogs.tif
102
RTVSPost2010PropOp54
 70
     1
102
RTVSPost2010Prop55
280
     0
102
RTVSPost2010PropOp55
 70
     1
102
RTVSPost2010Prop56
140
1.0
102
RTVSPost2010PropOp56
 70
     1
102
RTVSPost2010Prop57
140
1.0
102
RTVSPost2010PropOp57
 70
     1
  0
XRECORD
  5
947F6
102
{ACAD_REACTORS
330
87B12
102
}
330
87B12
100
AcDbXrecord
280
     1
102
RTVSPropertyOp0
 70
     1
102
RTVSPropertyOp1
 70
     1
102
RTVSPropertyOp2
 70
     1
102
RTVSPropertyOp3
 70
     1
102
RTVSPropertyOp4
 70
     1
102
RTVSPropertyOp5
 70
     1
102
RTVSPropertyOp6
 70
     1
102
RTVSPropertyOp7
 70
     1
102
RTVSPropertyOp8
 70
     1
102
RTVSPropertyOp9
 70
     1
102
RTVSPropertyOp10
 70
     1
102
RTVSPropertyOp11
 70
     1
102
RTVSPropertyOp12
 70
     1
102
RTVSPropertyOp13
 70
     1
102
RTVSPropertyOp14
 70
     1
102
RTVSPropertyOp15
 70
     1
102
RTVSPropertyOp16
 70
     1
102
RTVSPropertyOp17
 70
     1
102
RTVSPropertyOp18
 70
     1
102
RTVSPropertyOp19
 70
     1
102
RTVSPropertyOp20
 70
     1
102
RTVSPropertyOp21
 70
     1
102
RTVSPropertyOp22
 70
     1
102
RTVSPropertyOp23
 70
     1
102
RTVSPropertyOp24
 70
     1
102
RTVSPropertyOp25
 70
     1
102
RTVSPropertyOp26
 70
     1
102
RTVSPropertyOp27
 70
     1
102
RTVSPropertyOp28
 70
     1
102
RTVSPropertyOp29
 70
     1
102
RTVSPropertyOp30
 70
     1
102
RTVSPropertyOp31
 70
     1
102
RTVSPropertyOp32
 70
     1
102
RTVSPropertyOp33
 70
     1
102
RTVSPropertyOp34
 70
     1
102
RTVSPropertyOp35
 70
     1
102
RTVSPropertyOp36
 70
     1
102
RTVSPropertyOp37
 70
     1
102
RTVSPropertyOp38
 70
     1
102
RTVSPropertyOp39
 70
     1
102
RTVSPropertyOp40
 70
     1
102
RTVSPropertyOp41
 70
     1
102
RTVSPropertyOp42
 70
     1
102
RTVSPropertyOp43
 70
     1
102
RTVSPropertyOp44
 70
     1
102
RTVSPropertyOp45
 70
     1
102
RTVSPropertyOp46
 70
     1
102
RTVSPropertyOp47
 70
     1
102
RTVSPropertyOp48
 70
     1
102
RTVSPropertyOp49
 70
     1
102
RTVSPropertyOp50
 70
     1
102
RTVSPropertyOp51
 70
     0
102
RTVSPropertyOp52
 70
     0
102
RTVSPropertyOp53
 70
     1
102
RTVSPropertyOp54
 70
     1
102
RTVSPropertyOp55
 70
     1
102
RTVSPropertyOp56
 70
     1
102
RTVSPropertyOp57
 70
     1
102
RTVSPost2010Prop28
280
     0
102
RTVSPost2010PropOp28
 70
     1
102
RTVSPost2010Prop29
280
     1
102
RTVSPost2010PropOp29
 70
     1
102
RTVSPost2010Prop30
280
     1
102
RTVSPost2010PropOp30
 70
     1
102
RTVSPost2010Prop31
280
     0
102
RTVSPost2010PropOp31
 70
     1
102
RTVSPost2010Prop32
280
     0
102
RTVSPost2010PropOp32
 70
     1
102
RTVSPost2010Prop33
280
     0
102
RTVSPost2010PropOp33
 70
     1
102
RTVSPost2010Prop34
280
     0
102
RTVSPost2010PropOp34
 70
     1
102
RTVSPost2010Prop35
280
     0
102
RTVSPost2010PropOp35
 70
     1
102
RTVSPost2010Prop36
280
     0
102
RTVSPost2010PropOp36
 70
     1
102
RTVSPost2010Prop37
 90
       50
102
RTVSPost2010PropOp37
 70
     1
102
RTVSPost2010Prop38
140
0.0
102
RTVSPost2010PropOp38
 70
     1
102
RTVSPost2010Prop39
140
1.0
102
RTVSPost2010PropOp39
 70
     1
102
RTVSPost2010Prop40
 90
        0
102
RTVSPost2010PropOp40
 70
     1
102
RTVSPost2010Prop41ColorIndex
 90
       18
102
RTVSPost2010Prop41ColorRGB
 90
        0
102
RTVSPost2010PropOp41
 70
     1
102
RTVSPost2010Prop42
 90
       50
102
RTVSPost2010PropOp42
 70
     1
102
RTVSPost2010Prop43
 90
        3
102
RTVSPost2010PropOp43
 70
     1
102
RTVSPost2010Prop44ColorIndex
 90
        5
102
RTVSPost2010Prop44ColorRGB
 90
      255
102
RTVSPost2010PropOp44
 70
     1
102
RTVSPost2010Prop45
280
     0
102
RTVSPost2010PropOp45
 70
     1
102
RTVSPost2010Prop46
 90
       50
102
RTVSPost2010PropOp46
 70
     1
102
RTVSPost2010Prop47
 90
       50
102
RTVSPost2010PropOp47
 70
     1
102
RTVSPost2010Prop48
 90
       50
102
RTVSPost2010PropOp48
 70
     1
102
RTVSPost2010Prop49
280
     0
102
RTVSPost2010PropOp49
 70
     1
102
RTVSPost2010Prop50
 90
       50
102
RTVSPost2010PropOp50
 70
     1
102
RTVSPost2010Prop51ColorIndex
 90
      256
102
RTVSPost2010Prop51ColorRGB
 90
-16777216
102
RTVSPost2010PropOp51
 70
     0
102
RTVSPost2010Prop52
140
1.0
102
RTVSPost2010PropOp52
 70
     0
102
RTVSPost2010Prop53
 90
        2
102
RTVSPost2010PropOp53
 70
     1
102
RTVSPost2010Prop54
  1
strokes_ogs.tif
102
RTVSPost2010PropOp54
 70
     1
102
RTVSPost2010Prop55
280
     0
102
RTVSPost2010PropOp55
 70
     1
102
RTVSPost2010Prop56
140
1.0
102
RTVSPost2010PropOp56
 70
     1
102
RTVSPost2010Prop57
140
1.0
102
RTVSPost2010PropOp57
 70
     1
  0
XRECORD
  5
947F7
102
{ACAD_REACTORS
330
87B14
102
}
330
87B14
100
AcDbXrecord
280
     1
102
RTVSPropertyOp0
 70
     1
102
RTVSPropertyOp1
 70
     1
102
RTVSPropertyOp2
 70
     1
102
RTVSPropertyOp3
 70
     1
102
RTVSPropertyOp4
 70
     1
102
RTVSPropertyOp5
 70
     1
102
RTVSPropertyOp6
 70
     1
102
RTVSPropertyOp7
 70
     1
102
RTVSPropertyOp8
 70
     1
102
RTVSPropertyOp9
 70
     1
102
RTVSPropertyOp10
 70
     1
102
RTVSPropertyOp11
 70
     1
102
RTVSPropertyOp12
 70
     1
102
RTVSPropertyOp13
 70
     1
102
RTVSPropertyOp14
 70
     1
102
RTVSPropertyOp15
 70
     1
102
RTVSPropertyOp16
 70
     1
102
RTVSPropertyOp17
 70
     1
102
RTVSPropertyOp18
 70
     1
102
RTVSPropertyOp19
 70
     1
102
RTVSPropertyOp20
 70
     1
102
RTVSPropertyOp21
 70
     1
102
RTVSPropertyOp22
 70
     1
102
RTVSPropertyOp23
 70
     1
102
RTVSPropertyOp24
 70
     1
102
RTVSPropertyOp25
 70
     1
102
RTVSPropertyOp26
 70
     1
102
RTVSPropertyOp27
 70
     1
102
RTVSPropertyOp28
 70
     1
102
RTVSPropertyOp29
 70
     1
102
RTVSPropertyOp30
 70
     1
102
RTVSPropertyOp31
 70
     1
102
RTVSPropertyOp32
 70
     1
102
RTVSPropertyOp33
 70
     1
102
RTVSPropertyOp34
 70
     1
102
RTVSPropertyOp35
 70
     1
102
RTVSPropertyOp36
 70
     1
102
RTVSPropertyOp37
 70
     1
102
RTVSPropertyOp38
 70
     1
102
RTVSPropertyOp39
 70
     1
102
RTVSPropertyOp40
 70
     1
102
RTVSPropertyOp41
 70
     1
102
RTVSPropertyOp42
 70
     1
102
RTVSPropertyOp43
 70
     1
102
RTVSPropertyOp44
 70
     1
102
RTVSPropertyOp45
 70
     1
102
RTVSPropertyOp46
 70
     1
102
RTVSPropertyOp47
 70
     1
102
RTVSPropertyOp48
 70
     1
102
RTVSPropertyOp49
 70
     1
102
RTVSPropertyOp50
 70
     1
102
RTVSPropertyOp51
 70
     0
102
RTVSPropertyOp52
 70
     0
102
RTVSPropertyOp53
 70
     1
102
RTVSPropertyOp54
 70
     1
102
RTVSPropertyOp55
 70
     1
102
RTVSPropertyOp56
 70
     1
102
RTVSPropertyOp57
 70
     1
102
RTVSPost2010Prop28
280
     0
102
RTVSPost2010PropOp28
 70
     1
102
RTVSPost2010Prop29
280
     1
102
RTVSPost2010PropOp29
 70
     1
102
RTVSPost2010Prop30
280
     1
102
RTVSPost2010PropOp30
 70
     1
102
RTVSPost2010Prop31
280
     0
102
RTVSPost2010PropOp31
 70
     1
102
RTVSPost2010Prop32
280
     0
102
RTVSPost2010PropOp32
 70
     1
102
RTVSPost2010Prop33
280
     0
102
RTVSPost2010PropOp33
 70
     1
102
RTVSPost2010Prop34
280
     0
102
RTVSPost2010PropOp34
 70
     1
102
RTVSPost2010Prop35
280
     0
102
RTVSPost2010PropOp35
 70
     1
102
RTVSPost2010Prop36
280
     0
102
RTVSPost2010PropOp36
 70
     1
102
RTVSPost2010Prop37
 90
       50
102
RTVSPost2010PropOp37
 70
     1
102
RTVSPost2010Prop38
140
0.0
102
RTVSPost2010PropOp38
 70
     1
102
RTVSPost2010Prop39
140
1.0
102
RTVSPost2010PropOp39
 70
     1
102
RTVSPost2010Prop40
 90
        0
102
RTVSPost2010PropOp40
 70
     1
102
RTVSPost2010Prop41ColorIndex
 90
       18
102
RTVSPost2010Prop41ColorRGB
 90
        0
102
RTVSPost2010PropOp41
 70
     1
102
RTVSPost2010Prop42
 90
       50
102
RTVSPost2010PropOp42
 70
     1
102
RTVSPost2010Prop43
 90
        3
102
RTVSPost2010PropOp43
 70
     1
102
RTVSPost2010Prop44ColorIndex
 90
        5
102
RTVSPost2010Prop44ColorRGB
 90
      255
102
RTVSPost2010PropOp44
 70
     1
102
RTVSPost2010Prop45
280
     0
102
RTVSPost2010PropOp45
 70
     1
102
RTVSPost2010Prop46
 90
       50
102
RTVSPost2010PropOp46
 70
     1
102
RTVSPost2010Prop47
 90
       50
102
RTVSPost2010PropOp47
 70
     1
102
RTVSPost2010Prop48
 90
       50
102
RTVSPost2010PropOp48
 70
     1
102
RTVSPost2010Prop49
280
     0
102
RTVSPost2010PropOp49
 70
     1
102
RTVSPost2010Prop50
 90
       50
102
RTVSPost2010PropOp50
 70
     1
102
RTVSPost2010Prop51ColorIndex
 90
      256
102
RTVSPost2010Prop51ColorRGB
 90
-16777216
102
RTVSPost2010PropOp51
 70
     0
102
RTVSPost2010Prop52
140
1.0
102
RTVSPost2010PropOp52
 70
     0
102
RTVSPost2010Prop53
 90
        2
102
RTVSPost2010PropOp53
 70
     1
102
RTVSPost2010Prop54
  1
strokes_ogs.tif
102
RTVSPost2010PropOp54
 70
     1
102
RTVSPost2010Prop55
280
     0
102
RTVSPost2010PropOp55
 70
     1
102
RTVSPost2010Prop56
140
1.0
102
RTVSPost2010PropOp56
 70
     1
102
RTVSPost2010Prop57
140
1.0
102
RTVSPost2010PropOp57
 70
     1
  0
XRECORD
  5
947F8
102
{ACAD_REACTORS
330
87B1C
102
}
330
87B1C
100
AcDbXrecord
280
     1
102
RTVSPropertyOp0
 70
     1
102
RTVSPropertyOp1
 70
     1
102
RTVSPropertyOp2
 70
     1
102
RTVSPropertyOp3
 70
     1
102
RTVSPropertyOp4
 70
     1
102
RTVSPropertyOp5
 70
     1
102
RTVSPropertyOp6
 70
     1
102
RTVSPropertyOp7
 70
     1
102
RTVSPropertyOp8
 70
     1
102
RTVSPropertyOp9
 70
     1
102
RTVSPropertyOp10
 70
     1
102
RTVSPropertyOp11
 70
     1
102
RTVSPropertyOp12
 70
     1
102
RTVSPropertyOp13
 70
     1
102
RTVSPropertyOp14
 70
     1
102
RTVSPropertyOp15
 70
     1
102
RTVSPropertyOp16
 70
     1
102
RTVSPropertyOp17
 70
     1
102
RTVSPropertyOp18
 70
     1
102
RTVSPropertyOp19
 70
     1
102
RTVSPropertyOp20
 70
     1
102
RTVSPropertyOp21
 70
     1
102
RTVSPropertyOp22
 70
     1
102
RTVSPropertyOp23
 70
     1
102
RTVSPropertyOp24
 70
     1
102
RTVSPropertyOp25
 70
     1
102
RTVSPropertyOp26
 70
     1
102
RTVSPropertyOp27
 70
     1
102
RTVSPropertyOp28
 70
     1
102
RTVSPropertyOp29
 70
     1
102
RTVSPropertyOp30
 70
     1
102
RTVSPropertyOp31
 70
     1
102
RTVSPropertyOp32
 70
     1
102
RTVSPropertyOp33
 70
     1
102
RTVSPropertyOp34
 70
     1
102
RTVSPropertyOp35
 70
     1
102
RTVSPropertyOp36
 70
     1
102
RTVSPropertyOp37
 70
     1
102
RTVSPropertyOp38
 70
     1
102
RTVSPropertyOp39
 70
     1
102
RTVSPropertyOp40
 70
     1
102
RTVSPropertyOp41
 70
     1
102
RTVSPropertyOp42
 70
     1
102
RTVSPropertyOp43
 70
     1
102
RTVSPropertyOp44
 70
     1
102
RTVSPropertyOp45
 70
     1
102
RTVSPropertyOp46
 70
     1
102
RTVSPropertyOp47
 70
     1
102
RTVSPropertyOp48
 70
     1
102
RTVSPropertyOp49
 70
     1
102
RTVSPropertyOp50
 70
     1
102
RTVSPropertyOp51
 70
     0
102
RTVSPropertyOp52
 70
     0
102
RTVSPropertyOp53
 70
     1
102
RTVSPropertyOp54
 70
     1
102
RTVSPropertyOp55
 70
     1
102
RTVSPropertyOp56
 70
     1
102
RTVSPropertyOp57
 70
     1
102
RTVSPost2010Prop28
280
     0
102
RTVSPost2010PropOp28
 70
     1
102
RTVSPost2010Prop29
280
     1
102
RTVSPost2010PropOp29
 70
     1
102
RTVSPost2010Prop30
280
     1
102
RTVSPost2010PropOp30
 70
     1
102
RTVSPost2010Prop31
280
     0
102
RTVSPost2010PropOp31
 70
     1
102
RTVSPost2010Prop32
280
     0
102
RTVSPost2010PropOp32
 70
     1
102
RTVSPost2010Prop33
280
     0
102
RTVSPost2010PropOp33
 70
     1
102
RTVSPost2010Prop34
280
     0
102
RTVSPost2010PropOp34
 70
     1
102
RTVSPost2010Prop35
280
     0
102
RTVSPost2010PropOp35
 70
     1
102
RTVSPost2010Prop36
280
     0
102
RTVSPost2010PropOp36
 70
     1
102
RTVSPost2010Prop37
 90
       50
102
RTVSPost2010PropOp37
 70
     1
102
RTVSPost2010Prop38
140
0.0
102
RTVSPost2010PropOp38
 70
     1
102
RTVSPost2010Prop39
140
1.0
102
RTVSPost2010PropOp39
 70
     1
102
RTVSPost2010Prop40
 90
        0
102
RTVSPost2010PropOp40
 70
     1
102
RTVSPost2010Prop41ColorIndex
 90
       18
102
RTVSPost2010Prop41ColorRGB
 90
        0
102
RTVSPost2010PropOp41
 70
     1
102
RTVSPost2010Prop42
 90
       50
102
RTVSPost2010PropOp42
 70
     1
102
RTVSPost2010Prop43
 90
        3
102
RTVSPost2010PropOp43
 70
     1
102
RTVSPost2010Prop44ColorIndex
 90
        5
102
RTVSPost2010Prop44ColorRGB
 90
      255
102
RTVSPost2010PropOp44
 70
     1
102
RTVSPost2010Prop45
280
     0
102
RTVSPost2010PropOp45
 70
     1
102
RTVSPost2010Prop46
 90
       50
102
RTVSPost2010PropOp46
 70
     1
102
RTVSPost2010Prop47
 90
       50
102
RTVSPost2010PropOp47
 70
     1
102
RTVSPost2010Prop48
 90
       50
102
RTVSPost2010PropOp48
 70
     1
102
RTVSPost2010Prop49
280
     0
102
RTVSPost2010PropOp49
 70
     1
102
RTVSPost2010Prop50
 90
       50
102
RTVSPost2010PropOp50
 70
     1
102
RTVSPost2010Prop51ColorIndex
 90
      256
102
RTVSPost2010Prop51ColorRGB
 90
-16777216
102
RTVSPost2010PropOp51
 70
     0
102
RTVSPost2010Prop52
140
1.0
102
RTVSPost2010PropOp52
 70
     0
102
RTVSPost2010Prop53
 90
        2
102
RTVSPost2010PropOp53
 70
     1
102
RTVSPost2010Prop54
  1
strokes_ogs.tif
102
RTVSPost2010PropOp54
 70
     1
102
RTVSPost2010Prop55
280
     0
102
RTVSPost2010PropOp55
 70
     1
102
RTVSPost2010Prop56
140
1.0
102
RTVSPost2010PropOp56
 70
     1
102
RTVSPost2010Prop57
140
1.0
102
RTVSPost2010PropOp57
 70
     1
  0
XRECORD
  5
947F9
102
{ACAD_REACTORS
330
87B38
102
}
330
87B38
100
AcDbXrecord
280
     1
102
RTVSPropertyOp0
 70
     0
102
RTVSPropertyOp1
 70
     0
102
RTVSPropertyOp2
 70
     0
102
RTVSPropertyOp3
 70
     0
102
RTVSPropertyOp4
 70
     0
102
RTVSPropertyOp5
 70
     0
102
RTVSPropertyOp6
 70
     0
102
RTVSPropertyOp7
 70
     0
102
RTVSPropertyOp8
 70
     0
102
RTVSPropertyOp9
 70
     0
102
RTVSPropertyOp10
 70
     0
102
RTVSPropertyOp11
 70
     0
102
RTVSPropertyOp12
 70
     0
102
RTVSPropertyOp13
 70
     0
102
RTVSPropertyOp14
 70
     2
102
RTVSPropertyOp15
 70
     0
102
RTVSPropertyOp16
 70
     0
102
RTVSPropertyOp17
 70
     0
102
RTVSPropertyOp18
 70
     0
102
RTVSPropertyOp19
 70
     0
102
RTVSPropertyOp20
 70
     0
102
RTVSPropertyOp21
 70
     0
102
RTVSPropertyOp22
 70
     0
102
RTVSPropertyOp23
 70
     0
102
RTVSPropertyOp24
 70
     0
102
RTVSPropertyOp25
 70
     0
102
RTVSPropertyOp26
 70
     0
102
RTVSPropertyOp27
 70
     0
102
RTVSPropertyOp28
 70
     1
102
RTVSPropertyOp29
 70
     1
102
RTVSPropertyOp30
 70
     1
102
RTVSPropertyOp31
 70
     1
102
RTVSPropertyOp32
 70
     1
102
RTVSPropertyOp33
 70
     1
102
RTVSPropertyOp34
 70
     1
102
RTVSPropertyOp35
 70
     1
102
RTVSPropertyOp36
 70
     1
102
RTVSPropertyOp37
 70
     0
102
RTVSPropertyOp38
 70
     0
102
RTVSPropertyOp39
 70
     0
102
RTVSPropertyOp40
 70
     0
102
RTVSPropertyOp41
 70
     0
102
RTVSPropertyOp42
 70
     0
102
RTVSPropertyOp43
 70
     0
102
RTVSPropertyOp44
 70
     0
102
RTVSPropertyOp45
 70
     1
102
RTVSPropertyOp46
 70
     0
102
RTVSPropertyOp47
 70
     0
102
RTVSPropertyOp48
 70
     0
102
RTVSPropertyOp49
 70
     1
102
RTVSPropertyOp50
 70
     0
102
RTVSPropertyOp51
 70
     0
102
RTVSPropertyOp52
 70
     0
102
RTVSPropertyOp53
 70
     0
102
RTVSPropertyOp54
 70
     0
102
RTVSPropertyOp55
 70
     1
102
RTVSPropertyOp56
 70
     0
102
RTVSPropertyOp57
 70
     0
102
RTVSPost2010Prop28
280
     0
102
RTVSPost2010PropOp28
 70
     1
102
RTVSPost2010Prop29
280
     1
102
RTVSPost2010PropOp29
 70
     1
102
RTVSPost2010Prop30
280
     1
102
RTVSPost2010PropOp30
 70
     1
102
RTVSPost2010Prop31
280
     0
102
RTVSPost2010PropOp31
 70
     1
102
RTVSPost2010Prop32
280
     0
102
RTVSPost2010PropOp32
 70
     1
102
RTVSPost2010Prop33
280
     0
102
RTVSPost2010PropOp33
 70
     1
102
RTVSPost2010Prop34
280
     0
102
RTVSPost2010PropOp34
 70
     1
102
RTVSPost2010Prop35
280
     0
102
RTVSPost2010PropOp35
 70
     1
102
RTVSPost2010Prop36
280
     0
102
RTVSPost2010PropOp36
 70
     1
102
RTVSPost2010Prop37
 90
       50
102
RTVSPost2010PropOp37
 70
     0
102
RTVSPost2010Prop38
140
0.0
102
RTVSPost2010PropOp38
 70
     0
102
RTVSPost2010Prop39
140
1.0
102
RTVSPost2010PropOp39
 70
     0
102
RTVSPost2010Prop40
 90
        0
102
RTVSPost2010PropOp40
 70
     0
102
RTVSPost2010Prop41ColorIndex
 90
       18
102
RTVSPost2010Prop41ColorRGB
 90
        0
102
RTVSPost2010PropOp41
 70
     0
102
RTVSPost2010Prop42
 90
       50
102
RTVSPost2010PropOp42
 70
     0
102
RTVSPost2010Prop43
 90
        3
102
RTVSPost2010PropOp43
 70
     0
102
RTVSPost2010Prop44ColorIndex
 90
        5
102
RTVSPost2010Prop44ColorRGB
 90
      255
102
RTVSPost2010PropOp44
 70
     0
102
RTVSPost2010Prop45
280
     0
102
RTVSPost2010PropOp45
 70
     1
102
RTVSPost2010Prop46
 90
       50
102
RTVSPost2010PropOp46
 70
     0
102
RTVSPost2010Prop47
 90
       50
102
RTVSPost2010PropOp47
 70
     0
102
RTVSPost2010Prop48
 90
       50
102
RTVSPost2010PropOp48
 70
     0
102
RTVSPost2010Prop49
280
     0
102
RTVSPost2010PropOp49
 70
     1
102
RTVSPost2010Prop50
 90
       50
102
RTVSPost2010PropOp50
 70
     0
102
RTVSPost2010Prop51ColorIndex
 90
      256
102
RTVSPost2010Prop51ColorRGB
 90
-16777216
102
RTVSPost2010PropOp51
 70
     0
102
RTVSPost2010Prop52
140
1.0
102
RTVSPost2010PropOp52
 70
     0
102
RTVSPost2010Prop53
 90
        2
102
RTVSPost2010PropOp53
 70
     0
102
RTVSPost2010Prop54
  1
strokes_ogs.tif
102
RTVSPost2010PropOp54
 70
     0
102
RTVSPost2010Prop55
280
     0
102
RTVSPost2010PropOp55
 70
     1
102
RTVSPost2010Prop56
140
1.0
102
RTVSPost2010PropOp56
 70
     0
102
RTVSPost2010Prop57
140
1.0
102
RTVSPost2010PropOp57
 70
     0
  0
XRECORD
  5
947FA
102
{ACAD_REACTORS
330
87B28
102
}
330
87B28
100
AcDbXrecord
280
     1
102
RTVSPropertyOp0
 70
     1
102
RTVSPropertyOp1
 70
     1
102
RTVSPropertyOp2
 70
     1
102
RTVSPropertyOp3
 70
     1
102
RTVSPropertyOp4
 70
     1
102
RTVSPropertyOp5
 70
     1
102
RTVSPropertyOp6
 70
     1
102
RTVSPropertyOp7
 70
     1
102
RTVSPropertyOp8
 70
     1
102
RTVSPropertyOp9
 70
     1
102
RTVSPropertyOp10
 70
     1
102
RTVSPropertyOp11
 70
     1
102
RTVSPropertyOp12
 70
     1
102
RTVSPropertyOp13
 70
     1
102
RTVSPropertyOp14
 70
     1
102
RTVSPropertyOp15
 70
     1
102
RTVSPropertyOp16
 70
     1
102
RTVSPropertyOp17
 70
     1
102
RTVSPropertyOp18
 70
     1
102
RTVSPropertyOp19
 70
     1
102
RTVSPropertyOp20
 70
     1
102
RTVSPropertyOp21
 70
     1
102
RTVSPropertyOp22
 70
     1
102
RTVSPropertyOp23
 70
     1
102
RTVSPropertyOp24
 70
     1
102
RTVSPropertyOp25
 70
     1
102
RTVSPropertyOp26
 70
     1
102
RTVSPropertyOp27
 70
     1
102
RTVSPropertyOp28
 70
     1
102
RTVSPropertyOp29
 70
     1
102
RTVSPropertyOp30
 70
     1
102
RTVSPropertyOp31
 70
     1
102
RTVSPropertyOp32
 70
     1
102
RTVSPropertyOp33
 70
     1
102
RTVSPropertyOp34
 70
     1
102
RTVSPropertyOp35
 70
     1
102
RTVSPropertyOp36
 70
     1
102
RTVSPropertyOp37
 70
     1
102
RTVSPropertyOp38
 70
     1
102
RTVSPropertyOp39
 70
     1
102
RTVSPropertyOp40
 70
     1
102
RTVSPropertyOp41
 70
     1
102
RTVSPropertyOp42
 70
     1
102
RTVSPropertyOp43
 70
     1
102
RTVSPropertyOp44
 70
     1
102
RTVSPropertyOp45
 70
     1
102
RTVSPropertyOp46
 70
     1
102
RTVSPropertyOp47
 70
     1
102
RTVSPropertyOp48
 70
     1
102
RTVSPropertyOp49
 70
     1
102
RTVSPropertyOp50
 70
     1
102
RTVSPropertyOp51
 70
     0
102
RTVSPropertyOp52
 70
     0
102
RTVSPropertyOp53
 70
     1
102
RTVSPropertyOp54
 70
     1
102
RTVSPropertyOp55
 70
     1
102
RTVSPropertyOp56
 70
     1
102
RTVSPropertyOp57
 70
     1
102
RTVSPost2010Prop28
280
     0
102
RTVSPost2010PropOp28
 70
     1
102
RTVSPost2010Prop29
280
     1
102
RTVSPost2010PropOp29
 70
     1
102
RTVSPost2010Prop30
280
     1
102
RTVSPost2010PropOp30
 70
     1
102
RTVSPost2010Prop31
280
     0
102
RTVSPost2010PropOp31
 70
     1
102
RTVSPost2010Prop32
280
     0
102
RTVSPost2010PropOp32
 70
     1
102
RTVSPost2010Prop33
280
     0
102
RTVSPost2010PropOp33
 70
     1
102
RTVSPost2010Prop34
280
     0
102
RTVSPost2010PropOp34
 70
     1
102
RTVSPost2010Prop35
280
     0
102
RTVSPost2010PropOp35
 70
     1
102
RTVSPost2010Prop36
280
     0
102
RTVSPost2010PropOp36
 70
     1
102
RTVSPost2010Prop37
 90
       50
102
RTVSPost2010PropOp37
 70
     1
102
RTVSPost2010Prop38
140
0.0
102
RTVSPost2010PropOp38
 70
     1
102
RTVSPost2010Prop39
140
1.0
102
RTVSPost2010PropOp39
 70
     1
102
RTVSPost2010Prop40
 90
        0
102
RTVSPost2010PropOp40
 70
     1
102
RTVSPost2010Prop41ColorIndex
 90
       18
102
RTVSPost2010Prop41ColorRGB
 90
        0
102
RTVSPost2010PropOp41
 70
     1
102
RTVSPost2010Prop42
 90
       50
102
RTVSPost2010PropOp42
 70
     1
102
RTVSPost2010Prop43
 90
        3
102
RTVSPost2010PropOp43
 70
     1
102
RTVSPost2010Prop44ColorIndex
 90
        5
102
RTVSPost2010Prop44ColorRGB
 90
      255
102
RTVSPost2010PropOp44
 70
     1
102
RTVSPost2010Prop45
280
     0
102
RTVSPost2010PropOp45
 70
     1
102
RTVSPost2010Prop46
 90
       50
102
RTVSPost2010PropOp46
 70
     1
102
RTVSPost2010Prop47
 90
       50
102
RTVSPost2010PropOp47
 70
     1
102
RTVSPost2010Prop48
 90
       50
102
RTVSPost2010PropOp48
 70
     1
102
RTVSPost2010Prop49
280
     0
102
RTVSPost2010PropOp49
 70
     1
102
RTVSPost2010Prop50
 90
       50
102
RTVSPost2010PropOp50
 70
     1
102
RTVSPost2010Prop51ColorIndex
 90
      256
102
RTVSPost2010Prop51ColorRGB
 90
-16777216
102
RTVSPost2010PropOp51
 70
     0
102
RTVSPost2010Prop52
140
1.0
102
RTVSPost2010PropOp52
 70
     0
102
RTVSPost2010Prop53
 90
        2
102
RTVSPost2010PropOp53
 70
     1
102
RTVSPost2010Prop54
  1
strokes_ogs.tif
102
RTVSPost2010PropOp54
 70
     1
102
RTVSPost2010Prop55
280
     0
102
RTVSPost2010PropOp55
 70
     1
102
RTVSPost2010Prop56
140
1.0
102
RTVSPost2010PropOp56
 70
     1
102
RTVSPost2010Prop57
140
1.0
102
RTVSPost2010PropOp57
 70
     1
  0
XRECORD
  5
947FB
102
{ACAD_REACTORS
330
87B3A
102
}
330
87B3A
100
AcDbXrecord
280
     1
102
RTVSPropertyOp0
 70
     0
102
RTVSPropertyOp1
 70
     0
102
RTVSPropertyOp2
 70
     0
102
RTVSPropertyOp3
 70
     0
102
RTVSPropertyOp4
 70
     0
102
RTVSPropertyOp5
 70
     0
102
RTVSPropertyOp6
 70
     0
102
RTVSPropertyOp7
 70
     0
102
RTVSPropertyOp8
 70
     0
102
RTVSPropertyOp9
 70
     0
102
RTVSPropertyOp10
 70
     0
102
RTVSPropertyOp11
 70
     0
102
RTVSPropertyOp12
 70
     0
102
RTVSPropertyOp13
 70
     0
102
RTVSPropertyOp14
 70
     2
102
RTVSPropertyOp15
 70
     0
102
RTVSPropertyOp16
 70
     0
102
RTVSPropertyOp17
 70
     0
102
RTVSPropertyOp18
 70
     0
102
RTVSPropertyOp19
 70
     0
102
RTVSPropertyOp20
 70
     0
102
RTVSPropertyOp21
 70
     0
102
RTVSPropertyOp22
 70
     0
102
RTVSPropertyOp23
 70
     0
102
RTVSPropertyOp24
 70
     0
102
RTVSPropertyOp25
 70
     0
102
RTVSPropertyOp26
 70
     0
102
RTVSPropertyOp27
 70
     0
102
RTVSPropertyOp28
 70
     1
102
RTVSPropertyOp29
 70
     1
102
RTVSPropertyOp30
 70
     1
102
RTVSPropertyOp31
 70
     1
102
RTVSPropertyOp32
 70
     1
102
RTVSPropertyOp33
 70
     1
102
RTVSPropertyOp34
 70
     1
102
RTVSPropertyOp35
 70
     1
102
RTVSPropertyOp36
 70
     1
102
RTVSPropertyOp37
 70
     0
102
RTVSPropertyOp38
 70
     0
102
RTVSPropertyOp39
 70
     0
102
RTVSPropertyOp40
 70
     0
102
RTVSPropertyOp41
 70
     0
102
RTVSPropertyOp42
 70
     0
102
RTVSPropertyOp43
 70
     0
102
RTVSPropertyOp44
 70
     0
102
RTVSPropertyOp45
 70
     1
102
RTVSPropertyOp46
 70
     0
102
RTVSPropertyOp47
 70
     0
102
RTVSPropertyOp48
 70
     0
102
RTVSPropertyOp49
 70
     1
102
RTVSPropertyOp50
 70
     0
102
RTVSPropertyOp51
 70
     0
102
RTVSPropertyOp52
 70
     0
102
RTVSPropertyOp53
 70
     0
102
RTVSPropertyOp54
 70
     0
102
RTVSPropertyOp55
 70
     1
102
RTVSPropertyOp56
 70
     0
102
RTVSPropertyOp57
 70
     0
102
RTVSPost2010Prop28
280
     0
102
RTVSPost2010PropOp28
 70
     1
102
RTVSPost2010Prop29
280
     1
102
RTVSPost2010PropOp29
 70
     1
102
RTVSPost2010Prop30
280
     1
102
RTVSPost2010PropOp30
 70
     1
102
RTVSPost2010Prop31
280
     0
102
RTVSPost2010PropOp31
 70
     1
102
RTVSPost2010Prop32
280
     0
102
RTVSPost2010PropOp32
 70
     1
102
RTVSPost2010Prop33
280
     0
102
RTVSPost2010PropOp33
 70
     1
102
RTVSPost2010Prop34
280
     0
102
RTVSPost2010PropOp34
 70
     1
102
RTVSPost2010Prop35
280
     0
102
RTVSPost2010PropOp35
 70
     1
102
RTVSPost2010Prop36
280
     0
102
RTVSPost2010PropOp36
 70
     1
102
RTVSPost2010Prop37
 90
       50
102
RTVSPost2010PropOp37
 70
     0
102
RTVSPost2010Prop38
140
0.0
102
RTVSPost2010PropOp38
 70
     0
102
RTVSPost2010Prop39
140
1.0
102
RTVSPost2010PropOp39
 70
     0
102
RTVSPost2010Prop40
 90
        0
102
RTVSPost2010PropOp40
 70
     0
102
RTVSPost2010Prop41ColorIndex
 90
       18
102
RTVSPost2010Prop41ColorRGB
 90
        0
102
RTVSPost2010PropOp41
 70
     0
102
RTVSPost2010Prop42
 90
       50
102
RTVSPost2010PropOp42
 70
     0
102
RTVSPost2010Prop43
 90
        3
102
RTVSPost2010PropOp43
 70
     0
102
RTVSPost2010Prop44ColorIndex
 90
        5
102
RTVSPost2010Prop44ColorRGB
 90
      255
102
RTVSPost2010PropOp44
 70
     0
102
RTVSPost2010Prop45
280
     0
102
RTVSPost2010PropOp45
 70
     1
102
RTVSPost2010Prop46
 90
       50
102
RTVSPost2010PropOp46
 70
     0
102
RTVSPost2010Prop47
 90
       50
102
RTVSPost2010PropOp47
 70
     0
102
RTVSPost2010Prop48
 90
       50
102
RTVSPost2010PropOp48
 70
     0
102
RTVSPost2010Prop49
280
     0
102
RTVSPost2010PropOp49
 70
     1
102
RTVSPost2010Prop50
 90
       50
102
RTVSPost2010PropOp50
 70
     0
102
RTVSPost2010Prop51ColorIndex
 90
      256
102
RTVSPost2010Prop51ColorRGB
 90
-16777216
102
RTVSPost2010PropOp51
 70
     0
102
RTVSPost2010Prop52
140
1.0
102
RTVSPost2010PropOp52
 70
     0
102
RTVSPost2010Prop53
 90
        2
102
RTVSPost2010PropOp53
 70
     0
102
RTVSPost2010Prop54
  1
strokes_ogs.tif
102
RTVSPost2010PropOp54
 70
     0
102
RTVSPost2010Prop55
280
     0
102
RTVSPost2010PropOp55
 70
     1
102
RTVSPost2010Prop56
140
1.0
102
RTVSPost2010PropOp56
 70
     0
102
RTVSPost2010Prop57
140
1.0
102
RTVSPost2010PropOp57
 70
     0
  0
XRECORD
  5
947FC
102
{ACAD_REACTORS
330
87B20
102
}
330
87B20
100
AcDbXrecord
280
     1
102
RTVSPropertyOp0
 70
     1
102
RTVSPropertyOp1
 70
     1
102
RTVSPropertyOp2
 70
     1
102
RTVSPropertyOp3
 70
     1
102
RTVSPropertyOp4
 70
     1
102
RTVSPropertyOp5
 70
     1
102
RTVSPropertyOp6
 70
     1
102
RTVSPropertyOp7
 70
     1
102
RTVSPropertyOp8
 70
     1
102
RTVSPropertyOp9
 70
     1
102
RTVSPropertyOp10
 70
     1
102
RTVSPropertyOp11
 70
     1
102
RTVSPropertyOp12
 70
     1
102
RTVSPropertyOp13
 70
     1
102
RTVSPropertyOp14
 70
     1
102
RTVSPropertyOp15
 70
     1
102
RTVSPropertyOp16
 70
     1
102
RTVSPropertyOp17
 70
     1
102
RTVSPropertyOp18
 70
     1
102
RTVSPropertyOp19
 70
     1
102
RTVSPropertyOp20
 70
     1
102
RTVSPropertyOp21
 70
     1
102
RTVSPropertyOp22
 70
     1
102
RTVSPropertyOp23
 70
     1
102
RTVSPropertyOp24
 70
     1
102
RTVSPropertyOp25
 70
     1
102
RTVSPropertyOp26
 70
     1
102
RTVSPropertyOp27
 70
     1
102
RTVSPropertyOp28
 70
     1
102
RTVSPropertyOp29
 70
     1
102
RTVSPropertyOp30
 70
     1
102
RTVSPropertyOp31
 70
     1
102
RTVSPropertyOp32
 70
     1
102
RTVSPropertyOp33
 70
     1
102
RTVSPropertyOp34
 70
     1
102
RTVSPropertyOp35
 70
     1
102
RTVSPropertyOp36
 70
     1
102
RTVSPropertyOp37
 70
     1
102
RTVSPropertyOp38
 70
     1
102
RTVSPropertyOp39
 70
     1
102
RTVSPropertyOp40
 70
     1
102
RTVSPropertyOp41
 70
     1
102
RTVSPropertyOp42
 70
     1
102
RTVSPropertyOp43
 70
     1
102
RTVSPropertyOp44
 70
     1
102
RTVSPropertyOp45
 70
     1
102
RTVSPropertyOp46
 70
     1
102
RTVSPropertyOp47
 70
     1
102
RTVSPropertyOp48
 70
     1
102
RTVSPropertyOp49
 70
     1
102
RTVSPropertyOp50
 70
     1
102
RTVSPropertyOp51
 70
     0
102
RTVSPropertyOp52
 70
     0
102
RTVSPropertyOp53
 70
     1
102
RTVSPropertyOp54
 70
     1
102
RTVSPropertyOp55
 70
     1
102
RTVSPropertyOp56
 70
     1
102
RTVSPropertyOp57
 70
     1
102
RTVSPost2010Prop28
280
     0
102
RTVSPost2010PropOp28
 70
     1
102
RTVSPost2010Prop29
280
     1
102
RTVSPost2010PropOp29
 70
     1
102
RTVSPost2010Prop30
280
     1
102
RTVSPost2010PropOp30
 70
     1
102
RTVSPost2010Prop31
280
     0
102
RTVSPost2010PropOp31
 70
     1
102
RTVSPost2010Prop32
280
     0
102
RTVSPost2010PropOp32
 70
     1
102
RTVSPost2010Prop33
280
     0
102
RTVSPost2010PropOp33
 70
     1
102
RTVSPost2010Prop34
280
     0
102
RTVSPost2010PropOp34
 70
     1
102
RTVSPost2010Prop35
280
     0
102
RTVSPost2010PropOp35
 70
     1
102
RTVSPost2010Prop36
280
     0
102
RTVSPost2010PropOp36
 70
     1
102
RTVSPost2010Prop37
 90
       50
102
RTVSPost2010PropOp37
 70
     1
102
RTVSPost2010Prop38
140
0.0
102
RTVSPost2010PropOp38
 70
     1
102
RTVSPost2010Prop39
140
1.0
102
RTVSPost2010PropOp39
 70
     1
102
RTVSPost2010Prop40
 90
        0
102
RTVSPost2010PropOp40
 70
     1
102
RTVSPost2010Prop41ColorIndex
 90
       18
102
RTVSPost2010Prop41ColorRGB
 90
        0
102
RTVSPost2010PropOp41
 70
     1
102
RTVSPost2010Prop42
 90
       50
102
RTVSPost2010PropOp42
 70
     1
102
RTVSPost2010Prop43
 90
        3
102
RTVSPost2010PropOp43
 70
     1
102
RTVSPost2010Prop44ColorIndex
 90
        5
102
RTVSPost2010Prop44ColorRGB
 90
      255
102
RTVSPost2010PropOp44
 70
     1
102
RTVSPost2010Prop45
280
     0
102
RTVSPost2010PropOp45
 70
     1
102
RTVSPost2010Prop46
 90
       50
102
RTVSPost2010PropOp46
 70
     1
102
RTVSPost2010Prop47
 90
       50
102
RTVSPost2010PropOp47
 70
     1
102
RTVSPost2010Prop48
 90
       50
102
RTVSPost2010PropOp48
 70
     1
102
RTVSPost2010Prop49
280
     0
102
RTVSPost2010PropOp49
 70
     1
102
RTVSPost2010Prop50
 90
       50
102
RTVSPost2010PropOp50
 70
     1
102
RTVSPost2010Prop51ColorIndex
 90
      256
102
RTVSPost2010Prop51ColorRGB
 90
-16777216
102
RTVSPost2010PropOp51
 70
     0
102
RTVSPost2010Prop52
140
1.0
102
RTVSPost2010PropOp52
 70
     0
102
RTVSPost2010Prop53
 90
        2
102
RTVSPost2010PropOp53
 70
     1
102
RTVSPost2010Prop54
  1
strokes_ogs.tif
102
RTVSPost2010PropOp54
 70
     1
102
RTVSPost2010Prop55
280
     0
102
RTVSPost2010PropOp55
 70
     1
102
RTVSPost2010Prop56
140
1.0
102
RTVSPost2010PropOp56
 70
     1
102
RTVSPost2010Prop57
140
1.0
102
RTVSPost2010PropOp57
 70
     1
  0
XRECORD
  5
947FD
102
{ACAD_REACTORS
330
87B36
102
}
330
87B36
100
AcDbXrecord
280
     1
102
RTVSPropertyOp0
 70
     1
102
RTVSPropertyOp1
 70
     1
102
RTVSPropertyOp2
 70
     1
102
RTVSPropertyOp3
 70
     1
102
RTVSPropertyOp4
 70
     1
102
RTVSPropertyOp5
 70
     1
102
RTVSPropertyOp6
 70
     1
102
RTVSPropertyOp7
 70
     1
102
RTVSPropertyOp8
 70
     1
102
RTVSPropertyOp9
 70
     1
102
RTVSPropertyOp10
 70
     1
102
RTVSPropertyOp11
 70
     1
102
RTVSPropertyOp12
 70
     1
102
RTVSPropertyOp13
 70
     1
102
RTVSPropertyOp14
 70
     1
102
RTVSPropertyOp15
 70
     1
102
RTVSPropertyOp16
 70
     1
102
RTVSPropertyOp17
 70
     1
102
RTVSPropertyOp18
 70
     1
102
RTVSPropertyOp19
 70
     1
102
RTVSPropertyOp20
 70
     1
102
RTVSPropertyOp21
 70
     1
102
RTVSPropertyOp22
 70
     1
102
RTVSPropertyOp23
 70
     1
102
RTVSPropertyOp24
 70
     1
102
RTVSPropertyOp25
 70
     1
102
RTVSPropertyOp26
 70
     1
102
RTVSPropertyOp27
 70
     1
102
RTVSPropertyOp28
 70
     1
102
RTVSPropertyOp29
 70
     1
102
RTVSPropertyOp30
 70
     1
102
RTVSPropertyOp31
 70
     1
102
RTVSPropertyOp32
 70
     1
102
RTVSPropertyOp33
 70
     1
102
RTVSPropertyOp34
 70
     1
102
RTVSPropertyOp35
 70
     1
102
RTVSPropertyOp36
 70
     1
102
RTVSPropertyOp37
 70
     1
102
RTVSPropertyOp38
 70
     1
102
RTVSPropertyOp39
 70
     1
102
RTVSPropertyOp40
 70
     1
102
RTVSPropertyOp41
 70
     1
102
RTVSPropertyOp42
 70
     1
102
RTVSPropertyOp43
 70
     1
102
RTVSPropertyOp44
 70
     1
102
RTVSPropertyOp45
 70
     1
102
RTVSPropertyOp46
 70
     1
102
RTVSPropertyOp47
 70
     1
102
RTVSPropertyOp48
 70
     1
102
RTVSPropertyOp49
 70
     1
102
RTVSPropertyOp50
 70
     1
102
RTVSPropertyOp51
 70
     0
102
RTVSPropertyOp52
 70
     0
102
RTVSPropertyOp53
 70
     1
102
RTVSPropertyOp54
 70
     1
102
RTVSPropertyOp55
 70
     1
102
RTVSPropertyOp56
 70
     1
102
RTVSPropertyOp57
 70
     1
102
RTVSPost2010Prop28
280
     0
102
RTVSPost2010PropOp28
 70
     1
102
RTVSPost2010Prop29
280
     1
102
RTVSPost2010PropOp29
 70
     1
102
RTVSPost2010Prop30
280
     1
102
RTVSPost2010PropOp30
 70
     1
102
RTVSPost2010Prop31
280
     0
102
RTVSPost2010PropOp31
 70
     1
102
RTVSPost2010Prop32
280
     0
102
RTVSPost2010PropOp32
 70
     1
102
RTVSPost2010Prop33
280
     0
102
RTVSPost2010PropOp33
 70
     1
102
RTVSPost2010Prop34
280
     0
102
RTVSPost2010PropOp34
 70
     1
102
RTVSPost2010Prop35
280
     0
102
RTVSPost2010PropOp35
 70
     1
102
RTVSPost2010Prop36
280
     0
102
RTVSPost2010PropOp36
 70
     1
102
RTVSPost2010Prop37
 90
       50
102
RTVSPost2010PropOp37
 70
     1
102
RTVSPost2010Prop38
140
0.0
102
RTVSPost2010PropOp38
 70
     1
102
RTVSPost2010Prop39
140
1.0
102
RTVSPost2010PropOp39
 70
     1
102
RTVSPost2010Prop40
 90
        0
102
RTVSPost2010PropOp40
 70
     1
102
RTVSPost2010Prop41ColorIndex
 90
       18
102
RTVSPost2010Prop41ColorRGB
 90
        0
102
RTVSPost2010PropOp41
 70
     1
102
RTVSPost2010Prop42
 90
       50
102
RTVSPost2010PropOp42
 70
     1
102
RTVSPost2010Prop43
 90
        3
102
RTVSPost2010PropOp43
 70
     1
102
RTVSPost2010Prop44ColorIndex
 90
        5
102
RTVSPost2010Prop44ColorRGB
 90
      255
102
RTVSPost2010PropOp44
 70
     1
102
RTVSPost2010Prop45
280
     0
102
RTVSPost2010PropOp45
 70
     1
102
RTVSPost2010Prop46
 90
       50
102
RTVSPost2010PropOp46
 70
     1
102
RTVSPost2010Prop47
 90
       50
102
RTVSPost2010PropOp47
 70
     1
102
RTVSPost2010Prop48
 90
       50
102
RTVSPost2010PropOp48
 70
     1
102
RTVSPost2010Prop49
280
     0
102
RTVSPost2010PropOp49
 70
     1
102
RTVSPost2010Prop50
 90
       50
102
RTVSPost2010PropOp50
 70
     1
102
RTVSPost2010Prop51ColorIndex
 90
      256
102
RTVSPost2010Prop51ColorRGB
 90
-16777216
102
RTVSPost2010PropOp51
 70
     0
102
RTVSPost2010Prop52
140
1.0
102
RTVSPost2010PropOp52
 70
     0
102
RTVSPost2010Prop53
 90
        2
102
RTVSPost2010PropOp53
 70
     1
102
RTVSPost2010Prop54
  1
strokes_ogs.tif
102
RTVSPost2010PropOp54
 70
     1
102
RTVSPost2010Prop55
280
     0
102
RTVSPost2010PropOp55
 70
     1
102
RTVSPost2010Prop56
140
1.0
102
RTVSPost2010PropOp56
 70
     1
102
RTVSPost2010Prop57
140
1.0
102
RTVSPost2010PropOp57
 70
     1
  0
XRECORD
  5
947FE
102
{ACAD_REACTORS
330
87B34
102
}
330
87B34
100
AcDbXrecord
280
     1
102
RTVSPropertyOp0
 70
     1
102
RTVSPropertyOp1
 70
     1
102
RTVSPropertyOp2
 70
     1
102
RTVSPropertyOp3
 70
     1
102
RTVSPropertyOp4
 70
     1
102
RTVSPropertyOp5
 70
     1
102
RTVSPropertyOp6
 70
     1
102
RTVSPropertyOp7
 70
     1
102
RTVSPropertyOp8
 70
     1
102
RTVSPropertyOp9
 70
     1
102
RTVSPropertyOp10
 70
     1
102
RTVSPropertyOp11
 70
     1
102
RTVSPropertyOp12
 70
     1
102
RTVSPropertyOp13
 70
     1
102
RTVSPropertyOp14
 70
     1
102
RTVSPropertyOp15
 70
     1
102
RTVSPropertyOp16
 70
     1
102
RTVSPropertyOp17
 70
     1
102
RTVSPropertyOp18
 70
     1
102
RTVSPropertyOp19
 70
     1
102
RTVSPropertyOp20
 70
     1
102
RTVSPropertyOp21
 70
     1
102
RTVSPropertyOp22
 70
     1
102
RTVSPropertyOp23
 70
     1
102
RTVSPropertyOp24
 70
     1
102
RTVSPropertyOp25
 70
     1
102
RTVSPropertyOp26
 70
     1
102
RTVSPropertyOp27
 70
     1
102
RTVSPropertyOp28
 70
     1
102
RTVSPropertyOp29
 70
     1
102
RTVSPropertyOp30
 70
     1
102
RTVSPropertyOp31
 70
     1
102
RTVSPropertyOp32
 70
     1
102
RTVSPropertyOp33
 70
     1
102
RTVSPropertyOp34
 70
     1
102
RTVSPropertyOp35
 70
     1
102
RTVSPropertyOp36
 70
     1
102
RTVSPropertyOp37
 70
     1
102
RTVSPropertyOp38
 70
     1
102
RTVSPropertyOp39
 70
     1
102
RTVSPropertyOp40
 70
     1
102
RTVSPropertyOp41
 70
     1
102
RTVSPropertyOp42
 70
     1
102
RTVSPropertyOp43
 70
     1
102
RTVSPropertyOp44
 70
     1
102
RTVSPropertyOp45
 70
     1
102
RTVSPropertyOp46
 70
     1
102
RTVSPropertyOp47
 70
     1
102
RTVSPropertyOp48
 70
     1
102
RTVSPropertyOp49
 70
     1
102
RTVSPropertyOp50
 70
     1
102
RTVSPropertyOp51
 70
     0
102
RTVSPropertyOp52
 70
     0
102
RTVSPropertyOp53
 70
     1
102
RTVSPropertyOp54
 70
     1
102
RTVSPropertyOp55
 70
     1
102
RTVSPropertyOp56
 70
     1
102
RTVSPropertyOp57
 70
     1
102
RTVSPost2010Prop28
280
     0
102
RTVSPost2010PropOp28
 70
     1
102
RTVSPost2010Prop29
280
     1
102
RTVSPost2010PropOp29
 70
     1
102
RTVSPost2010Prop30
280
     1
102
RTVSPost2010PropOp30
 70
     1
102
RTVSPost2010Prop31
280
     0
102
RTVSPost2010PropOp31
 70
     1
102
RTVSPost2010Prop32
280
     0
102
RTVSPost2010PropOp32
 70
     1
102
RTVSPost2010Prop33
280
     0
102
RTVSPost2010PropOp33
 70
     1
102
RTVSPost2010Prop34
280
     0
102
RTVSPost2010PropOp34
 70
     1
102
RTVSPost2010Prop35
280
     0
102
RTVSPost2010PropOp35
 70
     1
102
RTVSPost2010Prop36
280
     0
102
RTVSPost2010PropOp36
 70
     1
102
RTVSPost2010Prop37
 90
       50
102
RTVSPost2010PropOp37
 70
     1
102
RTVSPost2010Prop38
140
0.0
102
RTVSPost2010PropOp38
 70
     1
102
RTVSPost2010Prop39
140
1.0
102
RTVSPost2010PropOp39
 70
     1
102
RTVSPost2010Prop40
 90
        0
102
RTVSPost2010PropOp40
 70
     1
102
RTVSPost2010Prop41ColorIndex
 90
       18
102
RTVSPost2010Prop41ColorRGB
 90
        0
102
RTVSPost2010PropOp41
 70
     1
102
RTVSPost2010Prop42
 90
       50
102
RTVSPost2010PropOp42
 70
     1
102
RTVSPost2010Prop43
 90
        3
102
RTVSPost2010PropOp43
 70
     1
102
RTVSPost2010Prop44ColorIndex
 90
        5
102
RTVSPost2010Prop44ColorRGB
 90
      255
102
RTVSPost2010PropOp44
 70
     1
102
RTVSPost2010Prop45
280
     0
102
RTVSPost2010PropOp45
 70
     1
102
RTVSPost2010Prop46
 90
       50
102
RTVSPost2010PropOp46
 70
     1
102
RTVSPost2010Prop47
 90
       50
102
RTVSPost2010PropOp47
 70
     1
102
RTVSPost2010Prop48
 90
       50
102
RTVSPost2010PropOp48
 70
     1
102
RTVSPost2010Prop49
280
     0
102
RTVSPost2010PropOp49
 70
     1
102
RTVSPost2010Prop50
 90
       50
102
RTVSPost2010PropOp50
 70
     1
102
RTVSPost2010Prop51ColorIndex
 90
      256
102
RTVSPost2010Prop51ColorRGB
 90
-16777216
102
RTVSPost2010PropOp51
 70
     0
102
RTVSPost2010Prop52
140
1.0
102
RTVSPost2010PropOp52
 70
     0
102
RTVSPost2010Prop53
 90
        2
102
RTVSPost2010PropOp53
 70
     1
102
RTVSPost2010Prop54
  1
strokes_ogs.tif
102
RTVSPost2010PropOp54
 70
     1
102
RTVSPost2010Prop55
280
     0
102
RTVSPost2010PropOp55
 70
     1
102
RTVSPost2010Prop56
140
1.0
102
RTVSPost2010PropOp56
 70
     1
102
RTVSPost2010Prop57
140
1.0
102
RTVSPost2010PropOp57
 70
     1
  0
XRECORD
  5
947FF
102
{ACAD_REACTORS
330
87B2E
102
}
330
87B2E
100
AcDbXrecord
280
     1
102
RTVSPropertyOp0
 70
     1
102
RTVSPropertyOp1
 70
     1
102
RTVSPropertyOp2
 70
     1
102
RTVSPropertyOp3
 70
     1
102
RTVSPropertyOp4
 70
     1
102
RTVSPropertyOp5
 70
     1
102
RTVSPropertyOp6
 70
     1
102
RTVSPropertyOp7
 70
     1
102
RTVSPropertyOp8
 70
     1
102
RTVSPropertyOp9
 70
     1
102
RTVSPropertyOp10
 70
     1
102
RTVSPropertyOp11
 70
     1
102
RTVSPropertyOp12
 70
     1
102
RTVSPropertyOp13
 70
     1
102
RTVSPropertyOp14
 70
     1
102
RTVSPropertyOp15
 70
     1
102
RTVSPropertyOp16
 70
     1
102
RTVSPropertyOp17
 70
     1
102
RTVSPropertyOp18
 70
     1
102
RTVSPropertyOp19
 70
     1
102
RTVSPropertyOp20
 70
     1
102
RTVSPropertyOp21
 70
     1
102
RTVSPropertyOp22
 70
     1
102
RTVSPropertyOp23
 70
     1
102
RTVSPropertyOp24
 70
     1
102
RTVSPropertyOp25
 70
     1
102
RTVSPropertyOp26
 70
     1
102
RTVSPropertyOp27
 70
     1
102
RTVSPropertyOp28
 70
     1
102
RTVSPropertyOp29
 70
     1
102
RTVSPropertyOp30
 70
     1
102
RTVSPropertyOp31
 70
     1
102
RTVSPropertyOp32
 70
     1
102
RTVSPropertyOp33
 70
     1
102
RTVSPropertyOp34
 70
     1
102
RTVSPropertyOp35
 70
     1
102
RTVSPropertyOp36
 70
     1
102
RTVSPropertyOp37
 70
     1
102
RTVSPropertyOp38
 70
     1
102
RTVSPropertyOp39
 70
     1
102
RTVSPropertyOp40
 70
     1
102
RTVSPropertyOp41
 70
     1
102
RTVSPropertyOp42
 70
     1
102
RTVSPropertyOp43
 70
     1
102
RTVSPropertyOp44
 70
     1
102
RTVSPropertyOp45
 70
     1
102
RTVSPropertyOp46
 70
     1
102
RTVSPropertyOp47
 70
     1
102
RTVSPropertyOp48
 70
     1
102
RTVSPropertyOp49
 70
     1
102
RTVSPropertyOp50
 70
     1
102
RTVSPropertyOp51
 70
     0
102
RTVSPropertyOp52
 70
     0
102
RTVSPropertyOp53
 70
     1
102
RTVSPropertyOp54
 70
     1
102
RTVSPropertyOp55
 70
     1
102
RTVSPropertyOp56
 70
     1
102
RTVSPropertyOp57
 70
     1
102
RTVSPost2010Prop28
280
     0
102
RTVSPost2010PropOp28
 70
     1
102
RTVSPost2010Prop29
280
     1
102
RTVSPost2010PropOp29
 70
     1
102
RTVSPost2010Prop30
280
     1
102
RTVSPost2010PropOp30
 70
     1
102
RTVSPost2010Prop31
280
     0
102
RTVSPost2010PropOp31
 70
     1
102
RTVSPost2010Prop32
280
     0
102
RTVSPost2010PropOp32
 70
     1
102
RTVSPost2010Prop33
280
     0
102
RTVSPost2010PropOp33
 70
     1
102
RTVSPost2010Prop34
280
     0
102
RTVSPost2010PropOp34
 70
     1
102
RTVSPost2010Prop35
280
     0
102
RTVSPost2010PropOp35
 70
     1
102
RTVSPost2010Prop36
280
     0
102
RTVSPost2010PropOp36
 70
     1
102
RTVSPost2010Prop37
 90
       50
102
RTVSPost2010PropOp37
 70
     1
102
RTVSPost2010Prop38
140
0.0
102
RTVSPost2010PropOp38
 70
     1
102
RTVSPost2010Prop39
140
1.0
102
RTVSPost2010PropOp39
 70
     1
102
RTVSPost2010Prop40
 90
        0
102
RTVSPost2010PropOp40
 70
     1
102
RTVSPost2010Prop41ColorIndex
 90
       18
102
RTVSPost2010Prop41ColorRGB
 90
        0
102
RTVSPost2010PropOp41
 70
     1
102
RTVSPost2010Prop42
 90
       50
102
RTVSPost2010PropOp42
 70
     1
102
RTVSPost2010Prop43
 90
        3
102
RTVSPost2010PropOp43
 70
     1
102
RTVSPost2010Prop44ColorIndex
 90
        5
102
RTVSPost2010Prop44ColorRGB
 90
      255
102
RTVSPost2010PropOp44
 70
     1
102
RTVSPost2010Prop45
280
     0
102
RTVSPost2010PropOp45
 70
     1
102
RTVSPost2010Prop46
 90
       50
102
RTVSPost2010PropOp46
 70
     1
102
RTVSPost2010Prop47
 90
       50
102
RTVSPost2010PropOp47
 70
     1
102
RTVSPost2010Prop48
 90
       50
102
RTVSPost2010PropOp48
 70
     1
102
RTVSPost2010Prop49
280
     0
102
RTVSPost2010PropOp49
 70
     1
102
RTVSPost2010Prop50
 90
       50
102
RTVSPost2010PropOp50
 70
     1
102
RTVSPost2010Prop51ColorIndex
 90
      256
102
RTVSPost2010Prop51ColorRGB
 90
-16777216
102
RTVSPost2010PropOp51
 70
     0
102
RTVSPost2010Prop52
140
1.0
102
RTVSPost2010PropOp52
 70
     0
102
RTVSPost2010Prop53
 90
        2
102
RTVSPost2010PropOp53
 70
     1
102
RTVSPost2010Prop54
  1
strokes_ogs.tif
102
RTVSPost2010PropOp54
 70
     1
102
RTVSPost2010Prop55
280
     0
102
RTVSPost2010PropOp55
 70
     1
102
RTVSPost2010Prop56
140
1.0
102
RTVSPost2010PropOp56
 70
     1
102
RTVSPost2010Prop57
140
1.0
102
RTVSPost2010PropOp57
 70
     1
  0
XRECORD
  5
94800
102
{ACAD_REACTORS
330
87B30
102
}
330
87B30
100
AcDbXrecord
280
     1
102
RTVSPropertyOp0
 70
     1
102
RTVSPropertyOp1
 70
     1
102
RTVSPropertyOp2
 70
     1
102
RTVSPropertyOp3
 70
     1
102
RTVSPropertyOp4
 70
     1
102
RTVSPropertyOp5
 70
     1
102
RTVSPropertyOp6
 70
     1
102
RTVSPropertyOp7
 70
     1
102
RTVSPropertyOp8
 70
     1
102
RTVSPropertyOp9
 70
     1
102
RTVSPropertyOp10
 70
     1
102
RTVSPropertyOp11
 70
     1
102
RTVSPropertyOp12
 70
     1
102
RTVSPropertyOp13
 70
     1
102
RTVSPropertyOp14
 70
     1
102
RTVSPropertyOp15
 70
     1
102
RTVSPropertyOp16
 70
     1
102
RTVSPropertyOp17
 70
     1
102
RTVSPropertyOp18
 70
     1
102
RTVSPropertyOp19
 70
     1
102
RTVSPropertyOp20
 70
     1
102
RTVSPropertyOp21
 70
     1
102
RTVSPropertyOp22
 70
     1
102
RTVSPropertyOp23
 70
     1
102
RTVSPropertyOp24
 70
     1
102
RTVSPropertyOp25
 70
     1
102
RTVSPropertyOp26
 70
     1
102
RTVSPropertyOp27
 70
     1
102
RTVSPropertyOp28
 70
     1
102
RTVSPropertyOp29
 70
     1
102
RTVSPropertyOp30
 70
     1
102
RTVSPropertyOp31
 70
     1
102
RTVSPropertyOp32
 70
     1
102
RTVSPropertyOp33
 70
     1
102
RTVSPropertyOp34
 70
     1
102
RTVSPropertyOp35
 70
     1
102
RTVSPropertyOp36
 70
     1
102
RTVSPropertyOp37
 70
     1
102
RTVSPropertyOp38
 70
     1
102
RTVSPropertyOp39
 70
     1
102
RTVSPropertyOp40
 70
     1
102
RTVSPropertyOp41
 70
     1
102
RTVSPropertyOp42
 70
     1
102
RTVSPropertyOp43
 70
     1
102
RTVSPropertyOp44
 70
     1
102
RTVSPropertyOp45
 70
     1
102
RTVSPropertyOp46
 70
     1
102
RTVSPropertyOp47
 70
     1
102
RTVSPropertyOp48
 70
     1
102
RTVSPropertyOp49
 70
     1
102
RTVSPropertyOp50
 70
     1
102
RTVSPropertyOp51
 70
     0
102
RTVSPropertyOp52
 70
     0
102
RTVSPropertyOp53
 70
     1
102
RTVSPropertyOp54
 70
     1
102
RTVSPropertyOp55
 70
     1
102
RTVSPropertyOp56
 70
     1
102
RTVSPropertyOp57
 70
     1
102
RTVSPost2010Prop28
280
     0
102
RTVSPost2010PropOp28
 70
     1
102
RTVSPost2010Prop29
280
     1
102
RTVSPost2010PropOp29
 70
     1
102
RTVSPost2010Prop30
280
     1
102
RTVSPost2010PropOp30
 70
     1
102
RTVSPost2010Prop31
280
     0
102
RTVSPost2010PropOp31
 70
     1
102
RTVSPost2010Prop32
280
     0
102
RTVSPost2010PropOp32
 70
     1
102
RTVSPost2010Prop33
280
     0
102
RTVSPost2010PropOp33
 70
     1
102
RTVSPost2010Prop34
280
     0
102
RTVSPost2010PropOp34
 70
     1
102
RTVSPost2010Prop35
280
     0
102
RTVSPost2010PropOp35
 70
     1
102
RTVSPost2010Prop36
280
     0
102
RTVSPost2010PropOp36
 70
     1
102
RTVSPost2010Prop37
 90
       50
102
RTVSPost2010PropOp37
 70
     1
102
RTVSPost2010Prop38
140
0.0
102
RTVSPost2010PropOp38
 70
     1
102
RTVSPost2010Prop39
140
1.0
102
RTVSPost2010PropOp39
 70
     1
102
RTVSPost2010Prop40
 90
        0
102
RTVSPost2010PropOp40
 70
     1
102
RTVSPost2010Prop41ColorIndex
 90
       18
102
RTVSPost2010Prop41ColorRGB
 90
        0
102
RTVSPost2010PropOp41
 70
     1
102
RTVSPost2010Prop42
 90
       50
102
RTVSPost2010PropOp42
 70
     1
102
RTVSPost2010Prop43
 90
        3
102
RTVSPost2010PropOp43
 70
     1
102
RTVSPost2010Prop44ColorIndex
 90
        5
102
RTVSPost2010Prop44ColorRGB
 90
      255
102
RTVSPost2010PropOp44
 70
     1
102
RTVSPost2010Prop45
280
     0
102
RTVSPost2010PropOp45
 70
     1
102
RTVSPost2010Prop46
 90
       50
102
RTVSPost2010PropOp46
 70
     1
102
RTVSPost2010Prop47
 90
       50
102
RTVSPost2010PropOp47
 70
     1
102
RTVSPost2010Prop48
 90
       50
102
RTVSPost2010PropOp48
 70
     1
102
RTVSPost2010Prop49
280
     0
102
RTVSPost2010PropOp49
 70
     1
102
RTVSPost2010Prop50
 90
       50
102
RTVSPost2010PropOp50
 70
     1
102
RTVSPost2010Prop51ColorIndex
 90
      256
102
RTVSPost2010Prop51ColorRGB
 90
-16777216
102
RTVSPost2010PropOp51
 70
     0
102
RTVSPost2010Prop52
140
1.0
102
RTVSPost2010PropOp52
 70
     0
102
RTVSPost2010Prop53
 90
        2
102
RTVSPost2010PropOp53
 70
     1
102
RTVSPost2010Prop54
  1
strokes_ogs.tif
102
RTVSPost2010PropOp54
 70
     1
102
RTVSPost2010Prop55
280
     0
102
RTVSPost2010PropOp55
 70
     1
102
RTVSPost2010Prop56
140
1.0
102
RTVSPost2010PropOp56
 70
     1
102
RTVSPost2010Prop57
140
1.0
102
RTVSPost2010PropOp57
 70
     1
  0
XRECORD
  5
94801
102
{ACAD_REACTORS
330
87B26
102
}
330
87B26
100
AcDbXrecord
280
     1
102
RTVSPropertyOp0
 70
     1
102
RTVSPropertyOp1
 70
     1
102
RTVSPropertyOp2
 70
     1
102
RTVSPropertyOp3
 70
     1
102
RTVSPropertyOp4
 70
     1
102
RTVSPropertyOp5
 70
     1
102
RTVSPropertyOp6
 70
     1
102
RTVSPropertyOp7
 70
     1
102
RTVSPropertyOp8
 70
     1
102
RTVSPropertyOp9
 70
     1
102
RTVSPropertyOp10
 70
     1
102
RTVSPropertyOp11
 70
     1
102
RTVSPropertyOp12
 70
     1
102
RTVSPropertyOp13
 70
     1
102
RTVSPropertyOp14
 70
     1
102
RTVSPropertyOp15
 70
     1
102
RTVSPropertyOp16
 70
     1
102
RTVSPropertyOp17
 70
     1
102
RTVSPropertyOp18
 70
     1
102
RTVSPropertyOp19
 70
     1
102
RTVSPropertyOp20
 70
     1
102
RTVSPropertyOp21
 70
     1
102
RTVSPropertyOp22
 70
     1
102
RTVSPropertyOp23
 70
     1
102
RTVSPropertyOp24
 70
     1
102
RTVSPropertyOp25
 70
     1
102
RTVSPropertyOp26
 70
     1
102
RTVSPropertyOp27
 70
     1
102
RTVSPropertyOp28
 70
     1
102
RTVSPropertyOp29
 70
     1
102
RTVSPropertyOp30
 70
     1
102
RTVSPropertyOp31
 70
     1
102
RTVSPropertyOp32
 70
     1
102
RTVSPropertyOp33
 70
     1
102
RTVSPropertyOp34
 70
     1
102
RTVSPropertyOp35
 70
     1
102
RTVSPropertyOp36
 70
     1
102
RTVSPropertyOp37
 70
     1
102
RTVSPropertyOp38
 70
     1
102
RTVSPropertyOp39
 70
     1
102
RTVSPropertyOp40
 70
     1
102
RTVSPropertyOp41
 70
     1
102
RTVSPropertyOp42
 70
     1
102
RTVSPropertyOp43
 70
     1
102
RTVSPropertyOp44
 70
     1
102
RTVSPropertyOp45
 70
     1
102
RTVSPropertyOp46
 70
     1
102
RTVSPropertyOp47
 70
     1
102
RTVSPropertyOp48
 70
     1
102
RTVSPropertyOp49
 70
     1
102
RTVSPropertyOp50
 70
     1
102
RTVSPropertyOp51
 70
     0
102
RTVSPropertyOp52
 70
     0
102
RTVSPropertyOp53
 70
     1
102
RTVSPropertyOp54
 70
     1
102
RTVSPropertyOp55
 70
     1
102
RTVSPropertyOp56
 70
     1
102
RTVSPropertyOp57
 70
     1
102
RTVSPost2010Prop28
280
     0
102
RTVSPost2010PropOp28
 70
     1
102
RTVSPost2010Prop29
280
     1
102
RTVSPost2010PropOp29
 70
     1
102
RTVSPost2010Prop30
280
     1
102
RTVSPost2010PropOp30
 70
     1
102
RTVSPost2010Prop31
280
     0
102
RTVSPost2010PropOp31
 70
     1
102
RTVSPost2010Prop32
280
     0
102
RTVSPost2010PropOp32
 70
     1
102
RTVSPost2010Prop33
280
     0
102
RTVSPost2010PropOp33
 70
     1
102
RTVSPost2010Prop34
280
     0
102
RTVSPost2010PropOp34
 70
     1
102
RTVSPost2010Prop35
280
     0
102
RTVSPost2010PropOp35
 70
     1
102
RTVSPost2010Prop36
280
     0
102
RTVSPost2010PropOp36
 70
     1
102
RTVSPost2010Prop37
 90
       50
102
RTVSPost2010PropOp37
 70
     1
102
RTVSPost2010Prop38
140
0.0
102
RTVSPost2010PropOp38
 70
     1
102
RTVSPost2010Prop39
140
1.0
102
RTVSPost2010PropOp39
 70
     1
102
RTVSPost2010Prop40
 90
        0
102
RTVSPost2010PropOp40
 70
     1
102
RTVSPost2010Prop41ColorIndex
 90
       18
102
RTVSPost2010Prop41ColorRGB
 90
        0
102
RTVSPost2010PropOp41
 70
     1
102
RTVSPost2010Prop42
 90
       50
102
RTVSPost2010PropOp42
 70
     1
102
RTVSPost2010Prop43
 90
        3
102
RTVSPost2010PropOp43
 70
     1
102
RTVSPost2010Prop44ColorIndex
 90
        5
102
RTVSPost2010Prop44ColorRGB
 90
      255
102
RTVSPost2010PropOp44
 70
     1
102
RTVSPost2010Prop45
280
     0
102
RTVSPost2010PropOp45
 70
     1
102
RTVSPost2010Prop46
 90
       50
102
RTVSPost2010PropOp46
 70
     1
102
RTVSPost2010Prop47
 90
       50
102
RTVSPost2010PropOp47
 70
     1
102
RTVSPost2010Prop48
 90
       50
102
RTVSPost2010PropOp48
 70
     1
102
RTVSPost2010Prop49
280
     0
102
RTVSPost2010PropOp49
 70
     1
102
RTVSPost2010Prop50
 90
       50
102
RTVSPost2010PropOp50
 70
     1
102
RTVSPost2010Prop51ColorIndex
 90
      256
102
RTVSPost2010Prop51ColorRGB
 90
-16777216
102
RTVSPost2010PropOp51
 70
     0
102
RTVSPost2010Prop52
140
1.0
102
RTVSPost2010PropOp52
 70
     0
102
RTVSPost2010Prop53
 90
        2
102
RTVSPost2010PropOp53
 70
     1
102
RTVSPost2010Prop54
  1
strokes_ogs.tif
102
RTVSPost2010PropOp54
 70
     1
102
RTVSPost2010Prop55
280
     0
102
RTVSPost2010PropOp55
 70
     1
102
RTVSPost2010Prop56
140
1.0
102
RTVSPost2010PropOp56
 70
     1
102
RTVSPost2010Prop57
140
1.0
102
RTVSPost2010PropOp57
 70
     1
  0
XRECORD
  5
94802
102
{ACAD_REACTORS
330
87B1A
102
}
330
87B1A
100
AcDbXrecord
280
     1
102
RTVSPropertyOp0
 70
     1
102
RTVSPropertyOp1
 70
     1
102
RTVSPropertyOp2
 70
     1
102
RTVSPropertyOp3
 70
     1
102
RTVSPropertyOp4
 70
     1
102
RTVSPropertyOp5
 70
     1
102
RTVSPropertyOp6
 70
     1
102
RTVSPropertyOp7
 70
     1
102
RTVSPropertyOp8
 70
     1
102
RTVSPropertyOp9
 70
     1
102
RTVSPropertyOp10
 70
     1
102
RTVSPropertyOp11
 70
     1
102
RTVSPropertyOp12
 70
     1
102
RTVSPropertyOp13
 70
     1
102
RTVSPropertyOp14
 70
     1
102
RTVSPropertyOp15
 70
     1
102
RTVSPropertyOp16
 70
     1
102
RTVSPropertyOp17
 70
     1
102
RTVSPropertyOp18
 70
     1
102
RTVSPropertyOp19
 70
     1
102
RTVSPropertyOp20
 70
     1
102
RTVSPropertyOp21
 70
     1
102
RTVSPropertyOp22
 70
     1
102
RTVSPropertyOp23
 70
     1
102
RTVSPropertyOp24
 70
     1
102
RTVSPropertyOp25
 70
     1
102
RTVSPropertyOp26
 70
     1
102
RTVSPropertyOp27
 70
     1
102
RTVSPropertyOp28
 70
     1
102
RTVSPropertyOp29
 70
     1
102
RTVSPropertyOp30
 70
     1
102
RTVSPropertyOp31
 70
     1
102
RTVSPropertyOp32
 70
     1
102
RTVSPropertyOp33
 70
     1
102
RTVSPropertyOp34
 70
     1
102
RTVSPropertyOp35
 70
     1
102
RTVSPropertyOp36
 70
     1
102
RTVSPropertyOp37
 70
     1
102
RTVSPropertyOp38
 70
     1
102
RTVSPropertyOp39
 70
     1
102
RTVSPropertyOp40
 70
     1
102
RTVSPropertyOp41
 70
     1
102
RTVSPropertyOp42
 70
     1
102
RTVSPropertyOp43
 70
     1
102
RTVSPropertyOp44
 70
     1
102
RTVSPropertyOp45
 70
     1
102
RTVSPropertyOp46
 70
     1
102
RTVSPropertyOp47
 70
     1
102
RTVSPropertyOp48
 70
     1
102
RTVSPropertyOp49
 70
     1
102
RTVSPropertyOp50
 70
     1
102
RTVSPropertyOp51
 70
     0
102
RTVSPropertyOp52
 70
     0
102
RTVSPropertyOp53
 70
     1
102
RTVSPropertyOp54
 70
     1
102
RTVSPropertyOp55
 70
     1
102
RTVSPropertyOp56
 70
     1
102
RTVSPropertyOp57
 70
     1
102
RTVSPost2010Prop28
280
     0
102
RTVSPost2010PropOp28
 70
     1
102
RTVSPost2010Prop29
280
     1
102
RTVSPost2010PropOp29
 70
     1
102
RTVSPost2010Prop30
280
     1
102
RTVSPost2010PropOp30
 70
     1
102
RTVSPost2010Prop31
280
     0
102
RTVSPost2010PropOp31
 70
     1
102
RTVSPost2010Prop32
280
     0
102
RTVSPost2010PropOp32
 70
     1
102
RTVSPost2010Prop33
280
     0
102
RTVSPost2010PropOp33
 70
     1
102
RTVSPost2010Prop34
280
     0
102
RTVSPost2010PropOp34
 70
     1
102
RTVSPost2010Prop35
280
     0
102
RTVSPost2010PropOp35
 70
     1
102
RTVSPost2010Prop36
280
     0
102
RTVSPost2010PropOp36
 70
     1
102
RTVSPost2010Prop37
 90
       50
102
RTVSPost2010PropOp37
 70
     1
102
RTVSPost2010Prop38
140
0.0
102
RTVSPost2010PropOp38
 70
     1
102
RTVSPost2010Prop39
140
1.0
102
RTVSPost2010PropOp39
 70
     1
102
RTVSPost2010Prop40
 90
        0
102
RTVSPost2010PropOp40
 70
     1
102
RTVSPost2010Prop41ColorIndex
 90
       18
102
RTVSPost2010Prop41ColorRGB
 90
        0
102
RTVSPost2010PropOp41
 70
     1
102
RTVSPost2010Prop42
 90
       50
102
RTVSPost2010PropOp42
 70
     1
102
RTVSPost2010Prop43
 90
        3
102
RTVSPost2010PropOp43
 70
     1
102
RTVSPost2010Prop44ColorIndex
 90
        5
102
RTVSPost2010Prop44ColorRGB
 90
      255
102
RTVSPost2010PropOp44
 70
     1
102
RTVSPost2010Prop45
280
     0
102
RTVSPost2010PropOp45
 70
     1
102
RTVSPost2010Prop46
 90
       50
102
RTVSPost2010PropOp46
 70
     1
102
RTVSPost2010Prop47
 90
       50
102
RTVSPost2010PropOp47
 70
     1
102
RTVSPost2010Prop48
 90
       50
102
RTVSPost2010PropOp48
 70
     1
102
RTVSPost2010Prop49
280
     0
102
RTVSPost2010PropOp49
 70
     1
102
RTVSPost2010Prop50
 90
       50
102
RTVSPost2010PropOp50
 70
     1
102
RTVSPost2010Prop51ColorIndex
 90
      256
102
RTVSPost2010Prop51ColorRGB
 90
-16777216
102
RTVSPost2010PropOp51
 70
     0
102
RTVSPost2010Prop52
140
1.0
102
RTVSPost2010PropOp52
 70
     0
102
RTVSPost2010Prop53
 90
        2
102
RTVSPost2010PropOp53
 70
     1
102
RTVSPost2010Prop54
  1
strokes_ogs.tif
102
RTVSPost2010PropOp54
 70
     1
102
RTVSPost2010Prop55
280
     0
102
RTVSPost2010PropOp55
 70
     1
102
RTVSPost2010Prop56
140
1.0
102
RTVSPost2010PropOp56
 70
     1
102
RTVSPost2010Prop57
140
1.0
102
RTVSPost2010PropOp57
 70
     1
  0
XRECORD
  5
94803
102
{ACAD_REACTORS
330
87B32
102
}
330
87B32
100
AcDbXrecord
280
     1
102
RTVSPropertyOp0
 70
     1
102
RTVSPropertyOp1
 70
     1
102
RTVSPropertyOp2
 70
     1
102
RTVSPropertyOp3
 70
     1
102
RTVSPropertyOp4
 70
     1
102
RTVSPropertyOp5
 70
     1
102
RTVSPropertyOp6
 70
     1
102
RTVSPropertyOp7
 70
     1
102
RTVSPropertyOp8
 70
     1
102
RTVSPropertyOp9
 70
     1
102
RTVSPropertyOp10
 70
     1
102
RTVSPropertyOp11
 70
     1
102
RTVSPropertyOp12
 70
     1
102
RTVSPropertyOp13
 70
     1
102
RTVSPropertyOp14
 70
     1
102
RTVSPropertyOp15
 70
     1
102
RTVSPropertyOp16
 70
     1
102
RTVSPropertyOp17
 70
     1
102
RTVSPropertyOp18
 70
     1
102
RTVSPropertyOp19
 70
     1
102
RTVSPropertyOp20
 70
     1
102
RTVSPropertyOp21
 70
     1
102
RTVSPropertyOp22
 70
     1
102
RTVSPropertyOp23
 70
     1
102
RTVSPropertyOp24
 70
     1
102
RTVSPropertyOp25
 70
     1
102
RTVSPropertyOp26
 70
     1
102
RTVSPropertyOp27
 70
     1
102
RTVSPropertyOp28
 70
     1
102
RTVSPropertyOp29
 70
     1
102
RTVSPropertyOp30
 70
     1
102
RTVSPropertyOp31
 70
     1
102
RTVSPropertyOp32
 70
     1
102
RTVSPropertyOp33
 70
     1
102
RTVSPropertyOp34
 70
     1
102
RTVSPropertyOp35
 70
     1
102
RTVSPropertyOp36
 70
     1
102
RTVSPropertyOp37
 70
     1
102
RTVSPropertyOp38
 70
     1
102
RTVSPropertyOp39
 70
     1
102
RTVSPropertyOp40
 70
     1
102
RTVSPropertyOp41
 70
     1
102
RTVSPropertyOp42
 70
     1
102
RTVSPropertyOp43
 70
     1
102
RTVSPropertyOp44
 70
     1
102
RTVSPropertyOp45
 70
     1
102
RTVSPropertyOp46
 70
     1
102
RTVSPropertyOp47
 70
     1
102
RTVSPropertyOp48
 70
     1
102
RTVSPropertyOp49
 70
     1
102
RTVSPropertyOp50
 70
     1
102
RTVSPropertyOp51
 70
     0
102
RTVSPropertyOp52
 70
     0
102
RTVSPropertyOp53
 70
     1
102
RTVSPropertyOp54
 70
     1
102
RTVSPropertyOp55
 70
     1
102
RTVSPropertyOp56
 70
     1
102
RTVSPropertyOp57
 70
     1
102
RTVSPost2010Prop28
280
     0
102
RTVSPost2010PropOp28
 70
     1
102
RTVSPost2010Prop29
280
     1
102
RTVSPost2010PropOp29
 70
     1
102
RTVSPost2010Prop30
280
     1
102
RTVSPost2010PropOp30
 70
     1
102
RTVSPost2010Prop31
280
     0
102
RTVSPost2010PropOp31
 70
     1
102
RTVSPost2010Prop32
280
     0
102
RTVSPost2010PropOp32
 70
     1
102
RTVSPost2010Prop33
280
     0
102
RTVSPost2010PropOp33
 70
     1
102
RTVSPost2010Prop34
280
     0
102
RTVSPost2010PropOp34
 70
     1
102
RTVSPost2010Prop35
280
     0
102
RTVSPost2010PropOp35
 70
     1
102
RTVSPost2010Prop36
280
     0
102
RTVSPost2010PropOp36
 70
     1
102
RTVSPost2010Prop37
 90
       50
102
RTVSPost2010PropOp37
 70
     1
102
RTVSPost2010Prop38
140
0.0
102
RTVSPost2010PropOp38
 70
     1
102
RTVSPost2010Prop39
140
1.0
102
RTVSPost2010PropOp39
 70
     1
102
RTVSPost2010Prop40
 90
        0
102
RTVSPost2010PropOp40
 70
     1
102
RTVSPost2010Prop41ColorIndex
 90
       18
102
RTVSPost2010Prop41ColorRGB
 90
        0
102
RTVSPost2010PropOp41
 70
     1
102
RTVSPost2010Prop42
 90
       50
102
RTVSPost2010PropOp42
 70
     1
102
RTVSPost2010Prop43
 90
        3
102
RTVSPost2010PropOp43
 70
     1
102
RTVSPost2010Prop44ColorIndex
 90
        5
102
RTVSPost2010Prop44ColorRGB
 90
      255
102
RTVSPost2010PropOp44
 70
     1
102
RTVSPost2010Prop45
280
     0
102
RTVSPost2010PropOp45
 70
     1
102
RTVSPost2010Prop46
 90
       50
102
RTVSPost2010PropOp46
 70
     1
102
RTVSPost2010Prop47
 90
       50
102
RTVSPost2010PropOp47
 70
     1
102
RTVSPost2010Prop48
 90
       50
102
RTVSPost2010PropOp48
 70
     1
102
RTVSPost2010Prop49
280
     0
102
RTVSPost2010PropOp49
 70
     1
102
RTVSPost2010Prop50
 90
       50
102
RTVSPost2010PropOp50
 70
     1
102
RTVSPost2010Prop51ColorIndex
 90
      256
102
RTVSPost2010Prop51ColorRGB
 90
-16777216
102
RTVSPost2010PropOp51
 70
     0
102
RTVSPost2010Prop52
140
1.0
102
RTVSPost2010PropOp52
 70
     0
102
RTVSPost2010Prop53
 90
        2
102
RTVSPost2010PropOp53
 70
     1
102
RTVSPost2010Prop54
  1
strokes_ogs.tif
102
RTVSPost2010PropOp54
 70
     1
102
RTVSPost2010Prop55
280
     0
102
RTVSPost2010PropOp55
 70
     1
102
RTVSPost2010Prop56
140
1.0
102
RTVSPost2010PropOp56
 70
     1
102
RTVSPost2010Prop57
140
1.0
102
RTVSPost2010PropOp57
 70
     1
  0
ENDSEC
  0
EOF
