  0
SECTION
  2
HEADER
  9
$ACADVER
  1
AC1015
  9
$ACADMAINTVER
 70
    20
  9
$DWGCODEPAGE
  3
ANSI_932
  9
$INSBASE
 10
0.0
 20
0.0
 30
0.0
  9
$EXTMIN
 10
-25.35706845840905
 20
-91.44251898993658
 30
0.0
  9
$EXTMAX
 10
119.4333333333333
 20
136.783224521334
 30
0.0
  9
$LIMMIN
 10
0.0
 20
0.0
  9
$LIMMAX
 10
420.0
 20
297.0
  9
$ORTHOMODE
 70
     1
  9
$REGENMODE
 70
     1
  9
$FILLMODE
 70
     1
  9
$QTEXTMODE
 70
     0
  9
$MIRRTEXT
 70
     1
  9
$LTSCALE
 40
1.0
  9
$ATTMODE
 70
     1
  9
$TEXTSIZE
 40
3.5
  9
$TRACEWID
 40
1.0
  9
$TEXTSTYLE
  7
simplex
  9
$CLAYER
  8
0
  9
$CELTYPE
  6
ByLayer
  9
$CECOLOR
 62
   256
  9
$CELTSCALE
 40
1.0
  9
$DISPSILH
 70
     0
  9
$DIMSCALE
 40
0.0
  9
$DIMASZ
 40
3.5
  9
$DIMEXO
 40
0.0
  9
$DIMDLI
 40
0.38
  9
$DIMRND
 40
0.0
  9
$DIMDLE
 40
0.0
  9
$DIMEXE
 40
1.5
  9
$DIMTP
 40
0.0
  9
$DIMTM
 40
0.0
  9
$DIMTXT
 40
3.5
  9
$DIMCEN
 40
0.09
  9
$DIMTSZ
 40
0.0
  9
$DIMTOL
 70
     0
  9
$DIMLIM
 70
     0
  9
$DIMTIH
 70
     0
  9
$DIMTOH
 70
     0
  9
$DIMSE1
 70
     0
  9
$DIMSE2
 70
     0
  9
$DIMTAD
 70
     1
  9
$DIMZIN
 70
     8
  9
$DIMBLK
  1

  9
$DIMASO
 70
     1
  9
$DIMSHO
 70
     1
  9
$DIMPOST
  1

  9
$DIMAPOST
  1

  9
$DIMALT
 70
     0
  9
$DIMALTD
 70
     2
  9
$DIMALTF
 40
25.4
  9
$DIMLFAC
 40
1.0
  9
$DIMTOFL
 70
     0
  9
$DIMTVP
 40
0.0
  9
$DIMTIX
 70
     0
  9
$DIMSOXD
 70
     0
  9
$DIMSAH
 70
     0
  9
$DIMBLK1
  1

  9
$DIMBLK2
  1

  9
$DIMSTYLE
  2
コピー - ISO-25
  9
$DIMCLRD
 70
   256
  9
$DIMCLRE
 70
   256
  9
$DIMCLRT
 70
   256
  9
$DIMTFAC
 40
1.0
  9
$DIMGAP
 40
2.299999999999998
  9
$DIMJUST
 70
     0
  9
$DIMSD1
 70
     0
  9
$DIMSD2
 70
     0
  9
$DIMTOLJ
 70
     1
  9
$DIMTZIN
 70
     8
  9
$DIMALTZ
 70
     0
  9
$DIMALTTZ
 70
     0
  9
$DIMUPT
 70
     0
  9
$DIMDEC
 70
     2
  9
$DIMTDEC
 70
     2
  9
$DIMALTU
 70
     2
  9
$DIMALTTD
 70
     2
  9
$DIMTXSTY
  7
simplex
  9
$DIMAUNIT
 70
     0
  9
$DIMADEC
 70
     0
  9
$DIMALTRND
 40
0.0
  9
$DIMAZIN
 70
     0
  9
$DIMDSEP
 70
    46
  9
$DIMATFIT
 70
     3
  9
$DIMFRAC
 70
     0
  9
$DIMLDRBLK
  1

  9
$DIMLUNIT
 70
     2
  9
$DIMLWD
 70
    -1
  9
$DIMLWE
 70
    -1
  9
$DIMTMOVE
 70
     0
  9
$LUNITS
 70
     2
  9
$LUPREC
 70
     4
  9
$SKETCHINC
 40
1.0
  9
$FILLETRAD
 40
0.8
  9
$AUNITS
 70
     0
  9
$AUPREC
 70
     0
  9
$MENU
  1
.
  9
$ELEVATION
 40
0.0
  9
$PELEVATION
 40
0.0
  9
$THICKNESS
 40
0.0
  9
$LIMCHECK
 70
     0
  9
$CHAMFERA
 40
10.0
  9
$CHAMFERB
 40
10.0
  9
$CHAMFERC
 40
20.0
  9
$CHAMFERD
 40
0.0
  9
$SKPOLY
 70
     0
  9
$TDCREATE
 40
2455489.391063368
  9
$TDUCREATE
 40
2455489.057730035
  9
$TDUPDATE
 40
2458948.452605452
  9
$TDUUPDATE
 40
2458948.119272118
  9
$TDINDWG
 40
2.620491667
  9
$TDUSRTIMER
 40
2.620439051
  9
$USRTIMER
 70
     1
  9
$ANGBASE
 50
0.0
  9
$ANGDIR
 70
     0
  9
$PDMODE
 70
     0
  9
$PDSIZE
 40
0.0
  9
$PLINEWID
 40
0.0
  9
$SPLFRAME
 70
     0
  9
$SPLINETYPE
 70
     6
  9
$SPLINESEGS
 70
     8
  9
$HANDSEED
  5
9423E
  9
$SURFTAB1
 70
     6
  9
$SURFTAB2
 70
     6
  9
$SURFTYPE
 70
     6
  9
$SURFU
 70
     6
  9
$SURFV
 70
     6
  9
$UCSBASE
  2

  9
$UCSNAME
  2

  9
$UCSORG
 10
0.0
 20
0.0
 30
0.0
  9
$UCSXDIR
 10
1.0
 20
0.0
 30
0.0
  9
$UCSYDIR
 10
0.0
 20
1.0
 30
0.0
  9
$UCSORTHOREF
  2

  9
$UCSORTHOVIEW
 70
     0
  9
$UCSORGTOP
 10
0.0
 20
0.0
 30
0.0
  9
$UCSORGBOTTOM
 10
0.0
 20
0.0
 30
0.0
  9
$UCSORGLEFT
 10
0.0
 20
0.0
 30
0.0
  9
$UCSORGRIGHT
 10
0.0
 20
0.0
 30
0.0
  9
$UCSORGFRONT
 10
0.0
 20
0.0
 30
0.0
  9
$UCSORGBACK
 10
0.0
 20
0.0
 30
0.0
  9
$PUCSBASE
  2

  9
$PUCSNAME
  2

  9
$PUCSORG
 10
0.0
 20
0.0
 30
0.0
  9
$PUCSXDIR
 10
1.0
 20
0.0
 30
0.0
  9
$PUCSYDIR
 10
0.0
 20
1.0
 30
0.0
  9
$PUCSORTHOREF
  2

  9
$PUCSORTHOVIEW
 70
     0
  9
$PUCSORGTOP
 10
0.0
 20
0.0
 30
0.0
  9
$PUCSORGBOTTOM
 10
0.0
 20
0.0
 30
0.0
  9
$PUCSORGLEFT
 10
0.0
 20
0.0
 30
0.0
  9
$PUCSORGRIGHT
 10
0.0
 20
0.0
 30
0.0
  9
$PUCSORGFRONT
 10
0.0
 20
0.0
 30
0.0
  9
$PUCSORGBACK
 10
0.0
 20
0.0
 30
0.0
  9
$USERI1
 70
     0
  9
$USERI2
 70
     0
  9
$USERI3
 70
     0
  9
$USERI4
 70
     0
  9
$USERI5
 70
     0
  9
$USERR1
 40
0.0
  9
$USERR2
 40
0.0
  9
$USERR3
 40
0.0
  9
$USERR4
 40
0.0
  9
$USERR5
 40
0.0
  9
$WORLDVIEW
 70
     1
  9
$SHADEDGE
 70
     3
  9
$SHADEDIF
 70
    70
  9
$TILEMODE
 70
     1
  9
$MAXACTVP
 70
    64
  9
$PINSBASE
 10
0.0
 20
0.0
 30
0.0
  9
$PLIMCHECK
 70
     0
  9
$PEXTMIN
 10
26.66999878883364
 20
20.31999878883365
 30
0.0
  9
$PEXTMAX
 10
240.0299890995025
 20
182.8799890995025
 30
0.0
  9
$PLIMMIN
 10
-6.350006103515625
 20
-6.349999904632567
  9
$PLIMMAX
 10
273.0499877929688
 20
209.5499939918518
  9
$UNITMODE
 70
     0
  9
$VISRETAIN
 70
     1
  9
$PLINEGEN
 70
     0
  9
$PSLTSCALE
 70
     1
  9
$TREEDEPTH
 70
  3020
  9
$CMLSTYLE
  2
Standard
  9
$CMLJUST
 70
     0
  9
$CMLSCALE
 40
20.0
  9
$PROXYGRAPHICS
 70
     1
  9
$MEASUREMENT
 70
     1
  9
$CELWEIGHT
370
    -1
  9
$ENDCAPS
280
     0
  9
$JOINSTYLE
280
     0
  9
$LWDISPLAY
290
     0
  9
$INSUNITS
 70
     4
  9
$HYPERLINKBASE
  1

  9
$STYLESHEET
  1

  9
$XEDIT
290
     1
  9
$CEPSNTYPE
380
     0
  9
$PSTYLEMODE
290
     1
  9
$FINGERPRINTGUID
  2
{9B526A79-A532-4C58-81B0-698360F0D746}
  9
$VERSIONGUID
  2
{892A0364-362D-4A07-A81E-260ED5DCC154}
  9
$EXTNAMES
290
     1
  9
$PSVPSCALE
 40
0.0
  9
$OLESTARTUP
290
     0
  0
ENDSEC
  0
SECTION
  2
CLASSES
  0
CLASS
  1
ACDBDICTIONARYWDFLT
  2
AcDbDictionaryWithDefault
  3
ObjectDBX Classes
 90
        0
280
     0
281
     0
  0
CLASS
  1
ACDBPLACEHOLDER
  2
AcDbPlaceHolder
  3
ObjectDBX Classes
 90
    32768
280
     0
281
     0
  0
CLASS
  1
LAYOUT
  2
AcDbLayout
  3
ObjectDBX Classes
 90
    32768
280
     0
281
     0
  0
CLASS
  1
DICTIONARYVAR
  2
AcDbDictionaryVar
  3
ObjectDBX Classes
 90
        0
280
     0
281
     0
  0
CLASS
  1
TABLESTYLE
  2
AcDbTableStyle
  3
ObjectDBX Classes
 90
     4095
280
     0
281
     0
  0
CLASS
  1
SORTENTSTABLE
  2
AcDbSortentsTable
  3
ObjectDBX Classes
 90
        0
280
     0
281
     0
  0
CLASS
  1
DIMASSOC
  2
AcDbDimAssoc
  3
"AcDbDimAssoc|Product Desc:     AcDim ARX App For Dimension|Company:          Autodesk, Inc.|WEB Address:      www.autodesk.com"
 90
        0
280
     0
281
     0
  0
CLASS
  1
ACAD_EVALUATION_GRAPH
  2
AcDbEvalGraph
  3
ObjectDBX Classes
 90
    33921
280
     0
281
     0
  0
CLASS
  1
ACAECUSTOBJ
  2
AcAeEditorObj
  3
AcAeEditorObj
 90
    33792
280
     0
281
     0
  0
CLASS
  1
ACDB_DYNAMICBLOCKPURGEPREVENTER_VERSION
  2
AcDbDynamicBlockPurgePreventer
  3
ObjectDBX Classes
 90
    33921
280
     0
281
     0
  0
CLASS
  1
MATERIAL
  2
AcDbMaterial
  3
ObjectDBX Classes
 90
     1153
280
     0
281
     0
  0
CLASS
  1
VISUALSTYLE
  2
AcDbVisualStyle
  3
ObjectDBX Classes
 90
     4095
280
     0
281
     0
  0
CLASS
  1
SCALE
  2
AcDbScale
  3
ObjectDBX Classes
 90
     1153
280
     0
281
     0
  0
CLASS
  1
MLEADERSTYLE
  2
AcDbMLeaderStyle
  3
ACDB_MLEADERSTYLE_CLASS
 90
     4095
280
     0
281
     0
  0
CLASS
  1
ACDBSECTIONVIEWSTYLE
  2
AcDbSectionViewStyle
  3
ObjectDBX Classes
 90
     1025
280
     0
281
     0
  0
CLASS
  1
ACDBDETAILVIEWSTYLE
  2
AcDbDetailViewStyle
  3
ObjectDBX Classes
 90
     1025
280
     0
281
     0
  0
CLASS
  1
CELLSTYLEMAP
  2
AcDbCellStyleMap
  3
ObjectDBX Classes
 90
     1152
280
     0
281
     0
  0
CLASS
  1
ACDBPLACEHOLDER
  2
AcDbPlaceHolder
  3
ObjectDBX Classes
 90
    32768
280
     0
281
     0
  0
CLASS
  1
LAYOUT
  2
AcDbLayout
  3
ObjectDBX Classes
 90
    32768
280
     0
281
     0
  0
CLASS
  1
ACDBPLACEHOLDER
  2
AcDbPlaceHolder
  3
ObjectDBX Classes
 90
    32768
280
     0
281
     0
  0
CLASS
  1
LAYOUT
  2
AcDbLayout
  3
ObjectDBX Classes
 90
    32768
280
     0
281
     0
  0
CLASS
  1
ACDBPLACEHOLDER
  2
AcDbPlaceHolder
  3
ObjectDBX Classes
 90
    32768
280
     0
281
     0
  0
CLASS
  1
LAYOUT
  2
AcDbLayout
  3
ObjectDBX Classes
 90
    32768
280
     0
281
     0
  0
CLASS
  1
ACDBPLACEHOLDER
  2
AcDbPlaceHolder
  3
ObjectDBX Classes
 90
    32768
280
     0
281
     0
  0
CLASS
  1
LAYOUT
  2
AcDbLayout
  3
ObjectDBX Classes
 90
    32768
280
     0
281
     0
  0
CLASS
  1
ACDBPLACEHOLDER
  2
AcDbPlaceHolder
  3
ObjectDBX Classes
 90
        0
280
     0
281
     0
  0
CLASS
  1
LAYOUT
  2
AcDbLayout
  3
ObjectDBX Classes
 90
        0
280
     0
281
     0
  0
ENDSEC
  0
SECTION
  2
TABLES
  0
TABLE
  2
VPORT
  5
8
102
{ACAD_XDICTIONARY
360
8C34E
102
}
330
0
100
AcDbSymbolTable
 70
     1
  0
VPORT
  5
4A360
330
8
100
AcDbSymbolTableRecord
100
AcDbViewportTableRecord
  2
*Active
 70
     0
 10
0.0
 20
0.0
 11
1.0
 21
1.0
 12
22.18744439680214
 22
22.98845520270523
 13
0.0
 23
0.0
 14
10.0
 24
10.0
 15
10.0
 25
10.0
 16
0.0
 26
0.0
 36
1.0
 17
0.0
 27
0.0
 37
0.0
 40
270.1735545396872
 41
1.705156950672645
 42
50.0
 43
0.0
 44
0.0
 50
0.0
 51
0.0
 71
     0
 72
  1000
 73
     1
 74
     1
 75
     0
 76
     0
 77
     0
 78
     0
281
     0
 65
     1
110
0.0
120
0.0
130
0.0
111
1.0
121
0.0
131
0.0
112
0.0
122
1.0
132
0.0
 79
     0
146
0.0
1001
ACAD_NAV_VCDISPLAY
1070
     3
  0
ENDTAB
  0
TABLE
  2
LTYPE
  5
5
330
0
100
AcDbSymbolTable
 70
     3
  0
LTYPE
  5
14
330
5
100
AcDbSymbolTableRecord
100
AcDbLinetypeTableRecord
  2
ByBlock
 70
     0
  3

 72
    65
 73
     0
 40
0.0
  0
LTYPE
  5
15
330
5
100
AcDbSymbolTableRecord
100
AcDbLinetypeTableRecord
  2
ByLayer
 70
     0
  3

 72
    65
 73
     0
 40
0.0
  0
LTYPE
  5
16
330
5
100
AcDbSymbolTableRecord
100
AcDbLinetypeTableRecord
  2
Continuous
 70
     0
  3
Solid line
 72
    65
 73
     0
 40
0.0
  0
LTYPE
  5
4A76E
330
5
100
AcDbSymbolTableRecord
100
AcDbLinetypeTableRecord
  2
CENTER2
 70
     0
  3
Center (.5x) ___ _ ___ _ ___ _ ___ _ ___ _ ___
 72
    65
 73
     4
 40
28.575
 49
19.05
 74
     0
 49
-3.174999999999998
 74
     0
 49
3.174999999999998
 74
     0
 49
-3.174999999999998
 74
     0
  0
LTYPE
  5
87B53
330
5
100
AcDbSymbolTableRecord
100
AcDbLinetypeTableRecord
  2
HIDDEN
 70
     0
  3
Hidden __ __ __ __ __ __ __ __ __ __ __ __ __ _
 72
    65
 73
     2
 40
9.524999999999996
 49
6.349999999999997
 74
     0
 49
-3.174999999999998
 74
     0
  0
ENDTAB
  0
TABLE
  2
LAYER
  5
2
102
{ACAD_XDICTIONARY
360
E2
102
}
330
0
100
AcDbSymbolTable
 70
    10
  0
LAYER
  5
10
102
{ACAD_XDICTIONARY
360
4A86C
102
}
330
2
100
AcDbSymbolTableRecord
100
AcDbLayerTableRecord
  2
0
 70
     0
 62
     7
  6
Continuous
370
    -3
390
F
  0
LAYER
  5
31B6
330
2
100
AcDbSymbolTableRecord
100
AcDbLayerTableRecord
  2
Defpoints
 70
     0
 62
     7
  6
Continuous
290
     0
370
    -3
390
F
  0
LAYER
  5
4A772
102
{ACAD_XDICTIONARY
360
4A773
102
}
330
2
100
AcDbSymbolTableRecord
100
AcDbLayerTableRecord
  2
1
 70
     0
 62
     4
  6
Continuous
370
    50
390
F
1001
AcAecLayerStandard
1000

1000
Contour
  0
LAYER
  5
4A774
102
{ACAD_XDICTIONARY
360
4A775
102
}
330
2
100
AcDbSymbolTableRecord
100
AcDbLayerTableRecord
  2
2
 70
     0
 62
     7
  6
Continuous
370
    25
390
F
1001
AcAecLayerStandard
1000

1000
Dimension milling
  0
LAYER
  5
4A776
102
{ACAD_XDICTIONARY
360
4A777
102
}
330
2
100
AcDbSymbolTableRecord
100
AcDbLayerTableRecord
  2
4
 70
     0
 62
     2
  6
CENTER2
370
    25
390
F
1001
AcAecLayerStandard
1000

1000
Center line
  0
LAYER
  5
4A778
102
{ACAD_XDICTIONARY
360
4A779
102
}
330
2
100
AcDbSymbolTableRecord
100
AcDbLayerTableRecord
  2
cut
 70
     0
 62
     1
  6
Continuous
370
    25
390
F
1001
AcAecLayerStandard
1000

1000
contour
  0
LAYER
  5
4A77A
102
{ACAD_XDICTIONARY
360
4A77B
102
}
330
2
100
AcDbSymbolTableRecord
100
AcDbLayerTableRecord
  2
nocut
 70
     0
 62
     7
  6
Continuous
370
    25
390
F
1001
AcAecLayerStandard
1000

1000
contour
  0
LAYER
  5
4A77E
102
{ACAD_XDICTIONARY
360
4A77F
102
}
330
2
100
AcDbSymbolTableRecord
100
AcDbLayerTableRecord
  2
sk2
 70
     0
 62
     7
  6
Continuous
370
    25
390
F
1001
AcAecLayerStandard
1000

1000
sk2 dimension
  0
LAYER
  5
4A782
102
{ACAD_XDICTIONARY
360
4A783
102
}
330
2
100
AcDbSymbolTableRecord
100
AcDbLayerTableRecord
  2
sk6
 70
     0
 62
     5
  6
Continuous
370
    35
390
F
1001
AcAecLayerStandard
1000

1000
sk6 text
  0
LAYER
  5
87B52
102
{ACAD_XDICTIONARY
360
8C34C
102
}
330
2
100
AcDbSymbolTableRecord
100
AcDbLayerTableRecord
  2
sk3
 70
     0
 62
     1
  6
HIDDEN
370
    35
390
F
1001
AcAecLayerStandard
1000

1000

  0
ENDTAB
  0
TABLE
  2
STYLE
  5
3
330
0
100
AcDbSymbolTable
 70
     2
  0
STYLE
  5
11
330
3
100
AcDbSymbolTableRecord
100
AcDbTextStyleTableRecord
  2
Standard
 70
     0
 40
0.0
 41
1.0
 50
0.0
 71
     0
 42
2.5
  3
txt.shx
  4
@extfont2.shx
  0
STYLE
  5
24A
330
3
100
AcDbSymbolTableRecord
100
AcDbTextStyleTableRecord
  2
simplex
 70
     0
 40
3.5
 41
1.0
 50
0.0
 71
     0
 42
3.5
  3
txt.shx
  4

  0
ENDTAB
  0
TABLE
  2
VIEW
  5
6
330
0
100
AcDbSymbolTable
 70
     0
  0
ENDTAB
  0
TABLE
  2
UCS
  5
7
330
0
100
AcDbSymbolTable
 70
     0
  0
ENDTAB
  0
TABLE
  2
APPID
  5
9
330
0
100
AcDbSymbolTable
 70
    31
  0
APPID
  5
12
330
9
100
AcDbSymbolTableRecord
100
AcDbRegAppTableRecord
  2
ACAD
 70
     0
  0
APPID
  5
D2
330
9
100
AcDbSymbolTableRecord
100
AcDbRegAppTableRecord
  2
AcAecLayerStandard
 70
     0
  0
APPID
  5
E6
330
9
100
AcDbSymbolTableRecord
100
AcDbRegAppTableRecord
  2
ACAD_DSTYLE_DIMTEXT_FILL
 70
     0
  0
APPID
  5
4C84
330
9
100
AcDbSymbolTableRecord
100
AcDbRegAppTableRecord
  2
ACAD_EXEMPT_FROM_CAD_STANDARDS
 70
     0
  0
APPID
  5
3493E
330
9
100
AcDbSymbolTableRecord
100
AcDbRegAppTableRecord
  2
DCO15
 70
     0
  0
APPID
  5
3BAB0
330
9
100
AcDbSymbolTableRecord
100
AcDbRegAppTableRecord
  2
ACAD_DSTYLE_DIMEXT_ENABLED
 70
     0
  0
APPID
  5
3BAB1
330
9
100
AcDbSymbolTableRecord
100
AcDbRegAppTableRecord
  2
ACAD_DSTYLE_DIMEXT_LENGTH
 70
     0
  0
APPID
  5
3BEB4
330
9
100
AcDbSymbolTableRecord
100
AcDbRegAppTableRecord
  2
ACAUTHENVIRON
 70
     0
  0
APPID
  5
3BEB7
330
9
100
AcDbSymbolTableRecord
100
AcDbRegAppTableRecord
  2
AcDbDynamicBlockTrueName
 70
     0
  0
APPID
  5
3BEB8
330
9
100
AcDbSymbolTableRecord
100
AcDbRegAppTableRecord
  2
AcDbDynamicBlockGUID
 70
     0
  0
APPID
  5
3BEBA
330
9
100
AcDbSymbolTableRecord
100
AcDbRegAppTableRecord
  2
AcDbBlockRepETag
 70
     0
  0
APPID
  5
4A453
330
9
100
AcDbSymbolTableRecord
100
AcDbRegAppTableRecord
  2
ACAD_PSEXT
 70
     0
  0
APPID
  5
4A454
330
9
100
AcDbSymbolTableRecord
100
AcDbRegAppTableRecord
  2
AcadAnnotative
 70
     0
  0
APPID
  5
4A455
330
9
100
AcDbSymbolTableRecord
100
AcDbRegAppTableRecord
  2
ACAD_DSTYLE_DIMJAG
 70
     0
  0
APPID
  5
4A456
330
9
100
AcDbSymbolTableRecord
100
AcDbRegAppTableRecord
  2
ACAD_DSTYLE_DIMTALN
 70
     0
  0
APPID
  5
4A457
330
9
100
AcDbSymbolTableRecord
100
AcDbRegAppTableRecord
  2
ACAD_NAV_VCDISPLAY
 70
     0
  0
APPID
  5
4A787
330
9
100
AcDbSymbolTableRecord
100
AcDbRegAppTableRecord
  2
ACAD_DSTYLE_DIMINSPECT
 70
     0
  0
APPID
  5
4A788
330
9
100
AcDbSymbolTableRecord
100
AcDbRegAppTableRecord
  2
GENIUS_GENDTOL_13
 70
     0
  0
APPID
  5
4A789
330
9
100
AcDbSymbolTableRecord
100
AcDbRegAppTableRecord
  2
ZWMCAD_GENSTANDARDFRAME_13_
 70
     0
  0
APPID
  5
4A78A
330
9
100
AcDbSymbolTableRecord
100
AcDbRegAppTableRecord
  2
ZW_RECESS_XDATA
 70
     0
  0
APPID
  5
4A78B
330
9
100
AcDbSymbolTableRecord
100
AcDbRegAppTableRecord
  2
ZW_FAC_XDATA
 70
     0
  0
APPID
  5
4A78C
330
9
100
AcDbSymbolTableRecord
100
AcDbRegAppTableRecord
  2
ZW_FLC_XDATA
 70
     0
  0
APPID
  5
4A78D
330
9
100
AcDbSymbolTableRecord
100
AcDbRegAppTableRecord
  2
ZW_SUPERPART
 70
     0
  0
APPID
  5
4A78E
330
9
100
AcDbSymbolTableRecord
100
AcDbRegAppTableRecord
  2
ZW_SUPERSYMBOL
 70
     0
  0
APPID
  5
4A78F
330
9
100
AcDbSymbolTableRecord
100
AcDbRegAppTableRecord
  2
ZW_SUPERSHAFT
 70
     0
  0
APPID
  5
4A790
330
9
100
AcDbSymbolTableRecord
100
AcDbRegAppTableRecord
  2
ZWMCAD_GENFRAME_13_
 70
     0
  0
APPID
  5
4A791
330
9
100
AcDbSymbolTableRecord
100
AcDbRegAppTableRecord
  2
ACAD_MLEADERVER
 70
     0
  0
APPID
  5
4A792
330
9
100
AcDbSymbolTableRecord
100
AcDbRegAppTableRecord
  2
ACAD_DSTYLE_DIMRADIAL_EXTENSION
 70
     0
  0
APPID
  5
885F1
330
9
100
AcDbSymbolTableRecord
100
AcDbRegAppTableRecord
  2
ZWMCAD_GENSCA_13_
 70
     0
  0
APPID
  5
885EF
330
9
100
AcDbSymbolTableRecord
100
AcDbRegAppTableRecord
  2
ACAD_DSTYLE_DIMRADIAL_EXTE
 70
     0
  0
APPID
  5
885EE
330
9
100
AcDbSymbolTableRecord
100
AcDbRegAppTableRecord
  2
ZWMCAD_GENSTANDARDFRAME_13
 70
     0
  0
ENDTAB
  0
TABLE
  2
DIMSTYLE
  5
A
330
0
100
AcDbSymbolTable
 70
     2
100
AcDbDimStyleTable
 71
    21
340
1BF
340
3527
340
90771
340
907A6
340
907AC
340
907B1
340
907B7
340
919EE
340
919F4
340
919F9
340
919FF
340
91A04
340
91A0A
340
91A0F
340
91A15
340
91A1A
340
91A20
340
91A25
340
91A2B
340
91A30
340
91A36
  0
DIMSTYLE
105
1BF
102
{ACAD_REACTORS
330
93EC9
330
93ECD
330
93ED9
330
93ED0
330
93ED6
330
93ED3
330
9417E
102
}
330
A
100
AcDbSymbolTableRecord
100
AcDbDimStyleTableRecord
  2
コピー - ISO-25
 70
     0
 40
0.0
 41
3.5
 42
0.0
 44
1.5
 73
     0
 74
     0
 77
     1
 78
     8
140
3.5
147
2.299999999999998
176
   256
177
   256
271
     2
178
   256
271
     2
272
     2
284
     8
340
24A
371
    -1
372
    -1
  0
DIMSTYLE
105
3527
330
A
100
AcDbSymbolTableRecord
100
AcDbDimStyleTableRecord
  2
STANDARD
 70
     0
 41
3.0
 47
0.001
 48
0.001
 71
     1
 73
     0
 74
     0
 77
     1
 78
     8
140
4.0
271
     3
272
     3
284
     8
340
11
341
34B1
342
34B1
343
34B1
344
34B1
  0
ENDTAB
  0
TABLE
  2
BLOCK_RECORD
  5
1
330
0
100
AcDbSymbolTable
 70
    11
  0
BLOCK_RECORD
  5
1F
102
{ACAD_XDICTIONARY
360
31EE
102
}
330
1
100
AcDbSymbolTableRecord
100
AcDbBlockTableRecord
  2
*Model_Space
340
22
  0
BLOCK_RECORD
  5
55
330
1
100
AcDbSymbolTableRecord
100
AcDbBlockTableRecord
  2
*Paper_Space
340
56
  0
BLOCK_RECORD
  5
50
330
1
100
AcDbSymbolTableRecord
100
AcDbBlockTableRecord
  2
*Paper_Space000000
340
51
  0
BLOCK_RECORD
  5
34B1
330
1
100
AcDbSymbolTableRecord
100
AcDbBlockTableRecord
  2
_OPEN
340
0
  0
BLOCK_RECORD
  5
4A6D6
102
{ACAD_XDICTIONARY
360
4A6D7
102
}
330
1
100
AcDbSymbolTableRecord
100
AcDbBlockTableRecord
  2
zero block
340
0
102
{BLKREFS
331
8BFE6
331
4A793
331
880DD
331
882D3
331
87B7F
331
87D7D
331
90190
331
903FC
331
90821
331
90A84
331
90E49
331
910AD
331
91473
331
916B3
331
91AA1
331
91CE2
331
93114
331
934B4
331
936F3
331
93AD2
331
93D08
331
8BD57
331
92098
331
922DA
331
9267F
331
928BF
331
92B61
331
92ED7
331
8FB3B
331
8FDCA
102
}
1001
AcDbDynamicBlockGUID
1000
{A89DF4EB-B2CB-439E-AC69-1EAC9F242D1C}
1001
AcDbBlockRepETag
1070
     1
1071
        7
1001
ACAD
1000
DesignCenter Data
1002
{
1070
     1
1070
     4
1002
}
  0
BLOCK_RECORD
  5
87D73
330
1
100
AcDbSymbolTableRecord
100
AcDbBlockTableRecord
  2
_None
340
0
102
{BLKREFS
331
8C250
331
8C292
331
8C2BE
331
8C2FE
331
8C332
331
87FA2
331
87FBD
331
87FC5
331
88042
331
88238
331
884B1
331
884F0
331
88512
331
885AA
331
87D72
331
87F63
331
9002A
331
9006F
331
900CE
331
90117
331
903C3
331
9062B
331
90673
331
906DD
331
90724
331
909A6
331
90CA0
331
90CEB
331
90D5B
331
90DBF
331
90FCE
331
912CA
331
91315
331
9135A
331
913E9
331
915B9
331
91895
331
918E5
331
91966
331
91989
331
91BE7
331
91EC5
331
91F15
331
91F6B
331
93052
331
93323
331
93367
331
933C4
331
9343C
331
9362F
331
93904
331
93948
331
9397A
331
939E2
331
93A5A
331
93CFD
331
93F26
331
93F64
331
93FB1
331
9403A
331
94071
331
8BC93
331
8BCED
331
8BF27
331
91FFC
331
921DE
331
924BE
331
9250E
331
9258F
331
925B2
331
9289C
331
92AD1
331
92B15
331
92D7E
331
92E18
331
92E5F
331
8FA29
331
8FA4D
331
8FAA7
331
8FD00
331
8A12B
331
8DEC1
102
}
  0
BLOCK_RECORD
  5
93EDC
330
1
100
AcDbSymbolTableRecord
100
AcDbBlockTableRecord
  2
*D17244
340
0
  0
BLOCK_RECORD
  5
93EF2
330
1
100
AcDbSymbolTableRecord
100
AcDbBlockTableRecord
  2
*D17465
340
0
  0
BLOCK_RECORD
  5
93EFE
330
1
100
AcDbSymbolTableRecord
100
AcDbBlockTableRecord
  2
*D17576
340
0
  0
BLOCK_RECORD
  5
93F0A
330
1
100
AcDbSymbolTableRecord
100
AcDbBlockTableRecord
  2
*D17687
340
0
  0
BLOCK_RECORD
  5
93F16
330
1
100
AcDbSymbolTableRecord
100
AcDbBlockTableRecord
  2
*D17798
340
0
  0
BLOCK_RECORD
  5
93F22
330
1
100
AcDbSymbolTableRecord
100
AcDbBlockTableRecord
  2
*D178109
340
0
  0
BLOCK_RECORD
  5
9417F
330
1
100
AcDbSymbolTableRecord
100
AcDbBlockTableRecord
  2
*D1310
340
0
  0
ENDTAB
  0
ENDSEC
  0
SECTION
  2
BLOCKS
  0
BLOCK
  5
20
330
1F
100
AcDbEntity
  8
0
100
AcDbBlockBegin
  2
*Model_Space
 70
     0
 10
0.0
 20
0.0
 30
0.0
  3
*Model_Space
  1

  0
ENDBLK
  5
21
330
1F
100
AcDbEntity
  8
0
100
AcDbBlockEnd
  0
BLOCK
  5
57
330
55
100
AcDbEntity
 67
     1
  8
0
100
AcDbBlockBegin
  2
*Paper_Space
 70
     0
 10
0.0
 20
0.0
 30
0.0
  3
*Paper_Space
  1

  0
ENDBLK
  5
58
330
55
100
AcDbEntity
 67
     1
  8
0
100
AcDbBlockEnd
  0
BLOCK
  5
52
330
50
100
AcDbEntity
  8
0
100
AcDbBlockBegin
  2
*Paper_Space000000
 70
     0
 10
0.0
 20
0.0
 30
0.0
  3
*Paper_Space000000
  1

  0
VIEWPORT
  5
6B
102
{ACAD_XDICTIONARY
360
87B05
102
}
330
50
100
AcDbEntity
  8
0
100
AcDbViewport
 10
264.3775031494645
 20
160.4455827878762
 30
0.0
 40
567.6219612953822
 41
282.2272140146125
 68
     1
 69
    -1
 12
264.3775031494645
 22
160.4455827878762
 13
0.0
 23
0.0
 14
10.0
 24
10.0
 15
10.0
 25
10.0
 16
0.0
 26
0.0
 36
1.0
 17
0.0
 27
0.0
 37
0.0
 42
50.0
 43
0.0
 44
0.0
 45
282.2272140146125
 50
0.0
 51
0.0
 72
  1000
 90
    32864
  1

281
     0
 71
     1
 74
     0
110
0.0
120
0.0
130
0.0
111
1.0
121
0.0
131
0.0
112
0.0
122
1.0
132
0.0
 79
     0
146
0.0
1001
ACAD
1000
MVIEW
1002
{
1070
    16
1010
0.0
1020
0.0
1030
0.0
1010
0.0
1020
0.0
1030
1.0
1040
0.0
1040
282.2272140146125
1040
264.3775031494645
1040
160.4455827878762
1040
50.0
1040
0.0
1040
0.0
1070
     0
1070
  1000
1070
     0
1070
     3
1070
     0
1070
     0
1070
     0
1070
     0
1040
0.0
1040
0.0
1040
0.0
1040
10.0
1040
10.0
1040
10.0
1040
10.0
1070
     0
1002
{
1002
}
1002
}
  0
VIEWPORT
  5
6D
102
{ACAD_XDICTIONARY
360
87B07
102
}
330
50
100
AcDbEntity
  8
0
100
AcDbViewport
 10
133.3499939441681
 20
101.5999939441681
 30
0.0
 40
213.3599903106689
 41
162.5599903106689
 68
     2
 69
    -1
 12
210.0
 22
148.5
 13
0.0
 23
0.0
 14
10.0
 24
10.0
 15
10.0
 25
10.0
 16
0.0
 26
0.0
 36
1.0
 17
0.0
 27
0.0
 37
0.0
 42
50.0
 43
0.0
 44
0.0
 45
324.0677920111345
 50
0.0
 51
0.0
 72
   100
 90
    32864
  1

281
     0
 71
     1
 74
     0
110
0.0
120
0.0
130
0.0
111
1.0
121
0.0
131
0.0
112
0.0
122
1.0
132
0.0
 79
     0
146
0.0
1001
ACAD
1000
MVIEW
1002
{
1070
    16
1010
0.0
1020
0.0
1030
0.0
1010
0.0
1020
0.0
1030
1.0
1040
0.0
1040
324.0677920111345
1040
210.0
1040
148.5
1040
50.0
1040
0.0
1040
0.0
1070
     0
1070
   100
1070
     0
1070
     3
1070
     0
1070
     0
1070
     0
1070
     0
1040
0.0
1040
0.0
1040
0.0
1040
10.0
1040
10.0
1040
10.0
1040
10.0
1070
     0
1002
{
1002
}
1002
}
  0
ENDBLK
  5
53
330
50
100
AcDbEntity
  8
0
100
AcDbBlockEnd
  0
BLOCK
  5
34B2
330
34B1
100
AcDbEntity
  8
0
100
AcDbBlockBegin
  2
_OPEN
 70
     0
 10
0.0
 20
0.0
 30
0.0
  3
_OPEN
  1

  0
LINE
  5
34B3
330
34B1
100
AcDbEntity
  8
0
  6
ByBlock
 62
     0
100
AcDbLine
 10
0.0
 20
0.0
 30
0.0
 11
-1.0
 21
0.1766666667
 31
0.0
  0
LINE
  5
34B4
330
34B1
100
AcDbEntity
  8
0
  6
ByBlock
 62
     0
100
AcDbLine
 10
-1.0
 20
-0.1766666667
 30
0.0
 11
0.0
 21
0.0
 31
0.0
  0
LINE
  5
34B5
330
34B1
100
AcDbEntity
  8
0
  6
ByBlock
 62
     0
100
AcDbLine
 10
-1.0
 20
0.0
 30
0.0
 11
0.0
 21
0.0
 31
0.0
  0
ENDBLK
  5
34B6
330
34B1
100
AcDbEntity
  8
0
  6
ByBlock
 62
     0
100
AcDbBlockEnd
  0
BLOCK
  5
4A6D9
330
4A6D6
100
AcDbEntity
  8
0
100
AcDbBlockBegin
  2
zero block
 70
     0
 10
0.0
 20
0.0
 30
0.0
  3
zero block
  1

  0
HATCH
  5
4A6DA
330
4A6D6
100
AcDbEntity
  8
0
 62
     7
100
AcDbHatch
 10
0.0
 20
0.0
 30
0.0
210
0.0
220
0.0
230
1.0
  2
SOLID
 70
     1
 71
     0
 91
        2
 92
        7
 72
     1
 73
     1
 93
        3
 10
0.0
 20
0.9999999999999875
 42
0.4142135623730915
 10
-1.0
 20
0.0
 42
0.0
 10
0.0
 20
0.0
 42
0.0
 97
        0
 92
        7
 72
     1
 73
     1
 93
        3
 10
1.000000000000007
 20
0.0
 42
0.0
 10
0.0
 20
0.0
 42
0.0
 10
0.0
 20
-1.0
 42
0.4142135623730974
 97
        0
 75
     0
 76
     1
 47
0.0090601366782909
 98
        2
 10
-0.380591363650975
 20
0.4885804701532896
 10
0.4350764810977559
 20
-0.4536738423704725
1001
AcDbBlockRepETag
1070
     1
1071
        0
1005
4A6DA
  0
LINE
  5
4A6DB
330
4A6D6
100
AcDbEntity
  8
0
 62
     7
 48
0.2
100
AcDbLine
 10
-1.0
 20
0.0
 30
0.0
 11
1.000000000000007
 21
0.0
 31
0.0
1001
AcDbBlockRepETag
1070
     1
1071
        1
1005
4A6DB
  0
LINE
  5
4A6DC
330
4A6D6
100
AcDbEntity
  8
0
 62
     7
 48
0.2
100
AcDbLine
 10
0.0
 20
-1.0
 30
0.0
 11
0.0
 21
0.9999999999999875
 31
0.0
1001
AcDbBlockRepETag
1070
     1
1071
        2
1005
4A6DC
  0
ARC
  5
4A6DD
330
4A6D6
100
AcDbEntity
  8
0
 62
     7
 48
0.2
100
AcDbCircle
 10
0.0
 20
0.0
 30
0.0
 40
1.0
100
AcDbArc
 50
270.0
 51
0.0
1001
AcDbBlockRepETag
1070
     1
1071
        3
1005
4A6DD
  0
ARC
  5
4A6DE
330
4A6D6
100
AcDbEntity
  8
0
 62
     7
 48
0.2
100
AcDbCircle
 10
0.0
 20
0.0
 30
0.0
 40
1.0
100
AcDbArc
 50
0.0
 51
90.0
1001
AcDbBlockRepETag
1070
     1
1071
        4
1005
4A6DE
  0
ARC
  5
4A6DF
330
4A6D6
100
AcDbEntity
  8
0
 62
     7
 48
0.2
100
AcDbCircle
 10
0.0
 20
0.0
 30
0.0
 40
1.0
100
AcDbArc
 50
180.0
 51
270.0
1001
AcDbBlockRepETag
1070
     1
1071
        5
1005
4A6DF
  0
ARC
  5
4A6E0
330
4A6D6
100
AcDbEntity
  8
0
 62
     7
 48
0.2
100
AcDbCircle
 10
0.0
 20
0.0
 30
0.0
 40
1.0
100
AcDbArc
 50
90.0
 51
180.0
1001
AcDbBlockRepETag
1070
     1
1071
        6
1005
4A6E0
  0
ENDBLK
  5
4A6E1
330
4A6D6
100
AcDbEntity
  8
0
100
AcDbBlockEnd
  0
BLOCK
  5
87D74
330
87D73
100
AcDbEntity
  8
0
100
AcDbBlockBegin
  2
_None
 70
     0
 10
0.0
 20
0.0
 30
0.0
  3
_None
  1

  0
ENDBLK
  5
87D75
330
87D73
100
AcDbEntity
  8
0
100
AcDbBlockEnd
  0
BLOCK
  5
93EE6
330
93EDC
100
AcDbEntity
  8
0
100
AcDbBlockBegin
  2
*D17244
 70
     1
 10
0.0
 20
0.0
 30
0.0
  3
*D17244
  1

  0
LINE
  5
94209
330
93EDC
100
AcDbEntity
  8
2
100
AcDbLine
 10
0.0
 20
46.4189999989
 30
0.0
 11
0.0
 21
111.4984637722732
 31
0.0
  0
LINE
  5
9420A
330
93EDC
100
AcDbEntity
  8
2
100
AcDbLine
 10
63.49999999999994
 20
75.39999999887512
 30
0.0
 11
63.49999999999994
 21
111.4984637722732
 31
0.0
  0
LINE
  5
9420B
330
93EDC
100
AcDbEntity
  8
2
100
AcDbLine
 10
3.5
 20
109.9984637722732
 30
0.0
 11
59.99999999999993
 21
109.9984637722732
 31
0.0
  0
SOLID
  5
9420C
330
93EDC
100
AcDbEntity
  8
2
100
AcDbTrace
 10
3.5
 20
110.5817971056065
 30
0.0
 11
3.5
 21
109.4151304389398
 31
0.0
 12
0.0
 22
109.9984637722732
 32
0.0
 13
0.0
 23
109.9984637722732
 33
0.0
  0
SOLID
  5
9420D
330
93EDC
100
AcDbEntity
  8
2
100
AcDbTrace
 10
59.99999999999993
 20
109.4151304389398
 30
0.0
 11
59.99999999999993
 21
110.5817971056065
 31
0.0
 12
63.49999999999994
 22
109.9984637722732
 32
0.0
 13
63.49999999999994
 23
109.9984637722732
 33
0.0
  0
MTEXT
  5
9420E
330
93EDC
100
AcDbEntity
  8
2
100
AcDbMText
 10
31.74999999999997
 20
114.0484637722732
 30
0.0
 40
3.5
 41
0.0
 71
     5
 72
     1
  1
\A1;63.5 [2.500"]
  7
simplex
 73
     1
 44
1.0
1001
ACAD
1000
MTEXTBEGIN
1070
    73
1070
     1
1070
    44
1040
1.0
1070
    74
1070
     0
1000
MTEXTEND
  0
POINT
  5
9420F
330
93EDC
100
AcDbEntity
  8
Defpoints
 62
     0
100
AcDbPoint
 10
0.0
 20
46.4189999989
 30
0.0
  0
POINT
  5
94210
330
93EDC
100
AcDbEntity
  8
Defpoints
 62
     0
100
AcDbPoint
 10
63.49999999999994
 20
75.39999999887512
 30
0.0
  0
POINT
  5
94211
330
93EDC
100
AcDbEntity
  8
Defpoints
 62
     0
100
AcDbPoint
 10
63.49999999999994
 20
109.9984637722732
 30
0.0
  0
ENDBLK
  5
93EE7
330
93EDC
100
AcDbEntity
  8
0
100
AcDbBlockEnd
  0
BLOCK
  5
93EFC
330
93EF2
100
AcDbEntity
  8
0
100
AcDbBlockBegin
  2
*D17465
 70
     1
 10
0.0
 20
0.0
 30
0.0
  3
*D17465
  1

  0
LINE
  5
941FF
330
93EF2
100
AcDbEntity
  8
2
100
AcDbLine
 10
55.29999999999995
 20
76.19999999889995
 30
0.0
 11
55.29999999999995
 21
101.5671669221002
 31
0.0
  0
LINE
  5
94200
330
93EF2
100
AcDbEntity
  8
2
100
AcDbLine
 10
63.49999999999994
 20
75.3999999989
 30
0.0
 11
63.49999999999994
 21
101.5671669221002
 31
0.0
  0
LINE
  5
94201
330
93EF2
100
AcDbEntity
  8
2
100
AcDbLine
 10
66.99999999999994
 20
100.0671669221002
 30
0.0
 11
119.4333333333333
 21
100.0671669221002
 31
0.0
  0
LINE
  5
94202
330
93EF2
100
AcDbEntity
  8
2
100
AcDbLine
 10
51.79999999999996
 20
100.0671669221002
 30
0.0
 11
48.29999999999995
 21
100.0671669221002
 31
0.0
  0
SOLID
  5
94203
330
93EF2
100
AcDbEntity
  8
2
100
AcDbTrace
 10
51.79999999999996
 20
99.48383358876688
 30
0.0
 11
51.79999999999996
 21
100.6505002554335
 31
0.0
 12
55.29999999999995
 22
100.0671669221002
 32
0.0
 13
55.29999999999995
 23
100.0671669221002
 33
0.0
  0
SOLID
  5
94204
330
93EF2
100
AcDbEntity
  8
2
100
AcDbTrace
 10
66.99999999999994
 20
100.6505002554335
 30
0.0
 11
66.99999999999994
 21
99.48383358876688
 31
0.0
 12
63.49999999999994
 22
100.0671669221002
 32
0.0
 13
63.49999999999994
 23
100.0671669221002
 33
0.0
  0
MTEXT
  5
94205
330
93EF2
100
AcDbEntity
  8
2
100
AcDbMText
 10
94.9666666666666
 20
104.1171669221002
 30
0.0
 40
3.5
 41
0.0
 71
     5
 72
     1
  1
\A1;8.2 [.323"](MAX)
  7
simplex
 73
     1
 44
1.0
1001
ACAD
1000
MTEXTBEGIN
1070
    73
1070
     1
1070
    44
1040
1.0
1070
    74
1070
     0
1000
MTEXTEND
  0
POINT
  5
94206
330
93EF2
100
AcDbEntity
  8
Defpoints
 62
     0
100
AcDbPoint
 10
55.29999999999995
 20
76.19999999889995
 30
0.0
  0
POINT
  5
94207
330
93EF2
100
AcDbEntity
  8
Defpoints
 62
     0
100
AcDbPoint
 10
63.49999999999994
 20
75.3999999989
 30
0.0
  0
POINT
  5
94208
330
93EF2
100
AcDbEntity
  8
Defpoints
 62
     0
100
AcDbPoint
 10
63.49999999999994
 20
100.0671669221002
 30
0.0
  0
ENDBLK
  5
93EFD
330
93EF2
100
AcDbEntity
  8
0
100
AcDbBlockEnd
  0
BLOCK
  5
93F08
330
93EFE
100
AcDbEntity
  8
0
100
AcDbBlockBegin
  2
*D17576
 70
     1
 10
0.0
 20
0.0
 30
0.0
  3
*D17576
  1

  0
LINE
  5
9401C
330
93EFE
100
AcDbEntity
  8
sk2
100
AcDbLine
 10
0.0
 20
-46.41899868210001
 30
0.0
 11
0.0
 21
-91.44251898993658
 31
0.0
  0
LINE
  5
9401D
330
93EFE
100
AcDbEntity
  8
sk2
100
AcDbLine
 10
42.00000000000001
 20
-26.99999867990002
 30
0.0
 11
42.00000000000001
 21
-91.44251898993658
 31
0.0
  0
LINE
  5
9401E
330
93EFE
100
AcDbEntity
  8
sk2
100
AcDbLine
 10
3.5
 20
-89.94251898993658
 30
0.0
 11
38.50000000000004
 21
-89.94251898993658
 31
0.0
  0
SOLID
  5
9401F
330
93EFE
100
AcDbEntity
  8
sk2
100
AcDbTrace
 10
3.5
 20
-89.35918565660326
 30
0.0
 11
3.5
 21
-90.52585232326991
 31
0.0
 12
0.0
 22
-89.94251898993658
 32
0.0
 13
0.0
 23
-89.94251898993658
 33
0.0
  0
SOLID
  5
94020
330
93EFE
100
AcDbEntity
  8
sk2
100
AcDbTrace
 10
38.50000000000004
 20
-90.52585232326991
 30
0.0
 11
38.50000000000004
 21
-89.35918565660326
 31
0.0
 12
42.00000000000001
 22
-89.94251898993658
 32
0.0
 13
42.00000000000001
 23
-89.94251898993658
 33
0.0
  0
MTEXT
  5
94021
330
93EFE
100
AcDbEntity
  8
sk2
100
AcDbMText
 10
21.00000000000001
 20
-85.89251898993659
 30
0.0
 40
3.5
 41
0.0
 71
     5
 72
     1
  1
\A1;42 [1.654"]
  7
simplex
 73
     1
 44
1.0
1001
ACAD
1000
MTEXTBEGIN
1070
    73
1070
     1
1070
    44
1040
1.0
1070
    74
1070
     0
1000
MTEXTEND
  0
POINT
  5
94022
330
93EFE
100
AcDbEntity
  8
Defpoints
 62
     0
100
AcDbPoint
 10
0.0
 20
-46.41899868210001
 30
0.0
  0
POINT
  5
94023
330
93EFE
100
AcDbEntity
  8
Defpoints
 62
     0
100
AcDbPoint
 10
42.00000000000001
 20
-26.99999867990002
 30
0.0
  0
POINT
  5
94024
330
93EFE
100
AcDbEntity
  8
Defpoints
 62
     0
100
AcDbPoint
 10
42.00000000000001
 20
-89.94251898993658
 30
0.0
  0
ENDBLK
  5
93F09
330
93EFE
100
AcDbEntity
  8
0
100
AcDbBlockEnd
  0
BLOCK
  5
93F14
330
93F0A
100
AcDbEntity
  8
0
100
AcDbBlockBegin
  2
*D17687
 70
     1
 10
0.0
 20
0.0
 30
0.0
  3
*D17687
  1

  0
LINE
  5
94025
330
93F0A
100
AcDbEntity
  8
sk2
100
AcDbLine
 10
2.0
 20
48.41900131789998
 30
0.0
 11
-21.05706845840904
 21
48.41900131789998
 31
0.0
  0
LINE
  5
94026
330
93F0A
100
AcDbEntity
  8
sk2
100
AcDbLine
 10
2.0
 20
-48.41899868210001
 30
0.0
 11
-21.05706845840905
 21
-48.41899868210001
 31
0.0
  0
LINE
  5
94027
330
93F0A
100
AcDbEntity
  8
sk2
100
AcDbLine
 10
-19.55706845840904
 20
44.91900131789998
 30
0.0
 11
-19.55706845840905
 21
-44.9189986821
 31
0.0
  0
SOLID
  5
94028
330
93F0A
100
AcDbEntity
  8
sk2
100
AcDbTrace
 10
-18.97373512507571
 20
44.91900131789998
 30
0.0
 11
-20.14040179174238
 21
44.91900131789998
 31
0.0
 12
-19.55706845840904
 22
48.41900131789998
 32
0.0
 13
-19.55706845840904
 23
48.41900131789998
 33
0.0
  0
SOLID
  5
94029
330
93F0A
100
AcDbEntity
  8
sk2
100
AcDbTrace
 10
-20.14040179174239
 20
-44.9189986821
 30
0.0
 11
-18.97373512507572
 21
-44.9189986821
 31
0.0
 12
-19.55706845840905
 22
-48.41899868210001
 32
0.0
 13
-19.55706845840905
 23
-48.41899868210001
 33
0.0
  0
MTEXT
  5
9402A
330
93F0A
100
AcDbEntity
  8
sk2
100
AcDbMText
 10
-23.60706845840905
 20
-0.0832933704160436
 30
0.0
 40
3.5
 41
0.0
 71
     5
 72
     1
  1
\A1;%%C96.838 [%%c3.813"]
  7
simplex
 11
0.0000000000000001
 21
1.0
 31
0.0
 73
     1
 44
1.0
1001
ACAD
1000
MTEXTBEGIN
1070
    73
1070
     1
1070
    44
1040
1.0
1070
    74
1070
     0
1000
MTEXTEND
  0
POINT
  5
9402B
330
93F0A
100
AcDbEntity
  8
Defpoints
 62
     0
100
AcDbPoint
 10
2.0
 20
48.41900131789998
 30
0.0
  0
POINT
  5
9402C
330
93F0A
100
AcDbEntity
  8
Defpoints
 62
     0
100
AcDbPoint
 10
2.0
 20
-48.41899868210001
 30
0.0
  0
POINT
  5
9402D
330
93F0A
100
AcDbEntity
  8
Defpoints
 62
     0
100
AcDbPoint
 10
-19.55706845840905
 20
-48.41899868210001
 30
0.0
  0
ENDBLK
  5
93F15
330
93F0A
100
AcDbEntity
  8
0
100
AcDbBlockEnd
  0
BLOCK
  5
93F20
330
93F16
100
AcDbEntity
  8
0
100
AcDbBlockBegin
  2
*D17798
 70
     1
 10
0.0
 20
0.0
 30
0.0
  3
*D17798
  1

  0
LINE
  5
9402E
330
93F16
100
AcDbEntity
  8
sk2
100
AcDbLine
 10
8.000000000000056
 20
19.05000131789995
 30
0.0
 11
-11.54004119204327
 21
19.05000131789995
 31
0.0
  0
LINE
  5
9402F
330
93F16
100
AcDbEntity
  8
sk2
100
AcDbLine
 10
8.000000000000056
 20
-19.0499986799
 30
0.0
 11
-11.54004119204327
 21
-19.0499986799
 31
0.0
  0
LINE
  5
94030
330
93F16
100
AcDbEntity
  8
sk2
100
AcDbLine
 10
-10.04004119204327
 20
15.55000131789995
 30
0.0
 11
-10.04004119204327
 21
-15.5499986799
 31
0.0
  0
SOLID
  5
94031
330
93F16
100
AcDbEntity
  8
sk2
100
AcDbTrace
 10
-9.456707858709943
 20
15.55000131789995
 30
0.0
 11
-10.62337452537661
 21
15.55000131789995
 31
0.0
 12
-10.04004119204327
 22
19.05000131789995
 32
0.0
 13
-10.04004119204327
 23
19.05000131789995
 33
0.0
  0
SOLID
  5
94032
330
93F16
100
AcDbEntity
  8
sk2
100
AcDbTrace
 10
-10.62337452537661
 20
-15.5499986799
 30
0.0
 11
-9.456707858709943
 21
-15.5499986799
 31
0.0
 12
-10.04004119204327
 22
-19.0499986799
 32
0.0
 13
-10.04004119204327
 23
-19.0499986799
 33
0.0
  0
MTEXT
  5
94033
330
93F16
100
AcDbEntity
  8
sk2
100
AcDbMText
 10
-14.09004119204327
 20
-0.3632059370738716
 30
0.0
 40
3.5
 41
0.0
 71
     5
 72
     1
  1
\A1;%%C38.1 [%%c1.500"]
  7
simplex
 11
0.0
 21
1.0
 31
0.0
 73
     1
 44
1.0
1001
ACAD
1000
MTEXTBEGIN
1070
    73
1070
     1
1070
    44
1040
1.0
1070
    74
1070
     0
1000
MTEXTEND
  0
POINT
  5
94034
330
93F16
100
AcDbEntity
  8
Defpoints
 62
     0
100
AcDbPoint
 10
8.000000000000056
 20
19.05000131789995
 30
0.0
  0
POINT
  5
94035
330
93F16
100
AcDbEntity
  8
Defpoints
 62
     0
100
AcDbPoint
 10
8.000000000000056
 20
-19.0499986799
 30
0.0
  0
POINT
  5
94036
330
93F16
100
AcDbEntity
  8
Defpoints
 62
     0
100
AcDbPoint
 10
-10.04004119204327
 20
-19.0499986799
 30
0.0
  0
ENDBLK
  5
93F21
330
93F16
100
AcDbEntity
  8
0
100
AcDbBlockEnd
  0
BLOCK
  5
93F2B
330
93F22
100
AcDbEntity
  8
0
100
AcDbBlockBegin
  2
*D178109
 70
     1
 10
0.0
 20
0.0
 30
0.0
  3
*D178109
  1

  0
LINE
  5
9406E
330
93F22
100
AcDbEntity
  8
2
100
AcDbLine
 10
62.69999999999999
 20
76.19999999889995
 30
0.0
 11
91.40679386709527
 21
76.19999999889995
 31
0.0
  0
LINE
  5
9406F
330
93F22
100
AcDbEntity
  8
2
100
AcDbLine
 10
89.90679386709526
 20
72.69999999889996
 30
0.0
 11
89.90679386709524
 21
-76.19999999889995
 31
0.0
  0
SOLID
  5
94070
330
93F22
100
AcDbEntity
  8
2
100
AcDbTrace
 10
90.49012720042858
 20
72.69999999889996
 30
0.0
 11
89.32346053376194
 21
72.69999999889996
 31
0.0
 12
89.90679386709526
 22
76.19999999889995
 32
0.0
 13
89.90679386709526
 23
76.19999999889995
 33
0.0
  0
INSERT
  5
94071
330
93F22
100
AcDbEntity
  8
2
100
AcDbBlockReference
  2
_None
 10
89.90679386709524
 20
-76.19999999889995
 30
0.0
 41
3.5
 42
3.5
 43
3.5
 50
270.0
  0
MTEXT
  5
94072
330
93F22
100
AcDbEntity
  8
2
100
AcDbMText
 10
85.85679386709525
 20
-1.749999999999999
 30
0.0
 40
3.5
 41
0.0
 71
     5
 72
     1
  1
\A1;%%C152.4 [%%c6.000"]
  7
simplex
 11
0.0000000000000001
 21
1.0
 31
0.0
 73
     1
 44
1.0
1001
ACAD
1000
MTEXTBEGIN
1070
    73
1070
     1
1070
    44
1040
1.0
1070
    74
1070
     0
1000
MTEXTEND
  0
POINT
  5
94073
330
93F22
100
AcDbEntity
  8
Defpoints
 62
     0
100
AcDbPoint
 10
62.69999999999999
 20
76.19999999889995
 30
0.0
  0
POINT
  5
94074
330
93F22
100
AcDbEntity
  8
Defpoints
 62
     0
100
AcDbPoint
 10
62.69999999999999
 20
-76.19999999889995
 30
0.0
  0
POINT
  5
94075
330
93F22
100
AcDbEntity
  8
Defpoints
 62
     0
100
AcDbPoint
 10
89.90679386709524
 20
-76.19999999889995
 30
0.0
  0
ENDBLK
  5
93F2C
330
93F22
100
AcDbEntity
  8
0
100
AcDbBlockEnd
  0
BLOCK
  5
94187
330
9417F
100
AcDbEntity
  8
0
100
AcDbBlockBegin
  2
*D1310
 70
     1
 10
0.0
 20
0.0
 30
0.0
  3
*D1310
  1

  0
LINE
  5
94189
330
9417F
100
AcDbEntity
  8
2
100
AcDbLine
 10
104.8282494429907
 20
94.44551679368029
 30
0.0
 11
66.61820056102799
 21
77.1713566438363
 31
0.0
  0
MTEXT
  5
9418A
330
9417F
100
AcDbEntity
  8
2
100
AcDbMText
 10
85.64947071591797
 20
90.21973588173546
 30
0.0
 40
3.5
 41
0.0
 71
     5
 72
     1
  1
\A1;R0.8 [R.031"]
  7
simplex
 11
0.9112094327972052
 21
0.411943405799141
 31
0.0
 73
     1
 44
1.0
1001
ACAD
1000
MTEXTBEGIN
1070
    73
1070
     1
1070
    44
1040
1.0
1070
    74
1070
     0
1000
MTEXTEND
  0
SOLID
  5
9418B
330
9417F
100
AcDbEntity
  8
2
100
AcDbTrace
 10
66.37790024097849
 20
77.70289547963469
 30
0.0
 11
66.85850088107748
 21
76.63981780803793
 31
0.0
 12
63.42896754623777
 22
75.72955472353931
 32
0.0
 13
63.42896754623777
 23
75.72955472353931
 33
0.0
  0
LINE
  5
9418C
330
9417F
100
AcDbEntity
  8
2
100
AcDbLine
 10
62.61000000000001
 20
75.3999999989
 30
0.0
 11
62.79000000000002
 21
75.3999999989
 31
0.0
  0
LINE
  5
9418D
330
9417F
100
AcDbEntity
  8
2
100
AcDbLine
 10
62.70000000000002
 20
75.30999999889998
 30
0.0
 11
62.70000000000002
 21
75.4899999989
 31
0.0
  0
POINT
  5
9418E
330
9417F
100
AcDbEntity
  8
Defpoints
 62
     0
100
AcDbPoint
 10
63.42896754623777
 20
75.72955472353931
 30
0.0
  0
POINT
  5
9418F
330
9417F
100
AcDbEntity
  8
Defpoints
 62
     0
100
AcDbPoint
 10
62.70000000000002
 20
75.3999999989
 30
0.0
  0
ENDBLK
  5
94188
330
9417F
100
AcDbEntity
  8
0
100
AcDbBlockEnd
  0
ENDSEC
  0
SECTION
  2
ENTITIES
  0
INSERT
  5
4A793
330
1F
100
AcDbEntity
  8
0
100
AcDbBlockReference
  2
zero block
 10
0.0
 20
0.0
 30
0.0
 50
180.0
  0
MTEXT
  5
93D07
330
1F
100
AcDbEntity
  8
sk6
100
AcDbMText
 10
4.121087638579608
 20
136.783224521334
 30
0.0
 40
3.5
 41
139.3353303764208
 71
     1
 72
     5
  1
WWX400UR6_0008EA
 73
     1
 44
0.9
1001
ACAD
1000
MTEXTBEGIN
1070
    73
1070
     1
1070
    44
1040
0.9
1070
    74
1070
     0
1000
MTEXTEND
1000
ACAD_MTEXT_DEFINED_HEIGHT_BEGIN
1070
    46
1040
3.48901801050149
1000
ACAD_MTEXT_DEFINED_HEIGHT_END
  0
LINE
  5
93D09
330
1F
100
AcDbEntity
  8
4
100
AcDbLine
 10
68.8369340559895
 20
0.0
 30
0.0
 11
-2.907861614760548
 21
0.0
 31
0.0
  0
LINE
  5
93D0A
330
1F
100
AcDbEntity
  8
1
100
AcDbLine
 10
52.02618060329996
 20
-75.39999868209998
 30
0.0
 11
55.71384718519993
 21
-75.39999868209998
 31
0.0
  0
LINE
  5
93D0B
330
1F
100
AcDbEntity
  8
1
100
AcDbLine
 10
51.97382338399996
 20
-75.3995417676
 30
0.0
 11
52.02618060329996
 21
-75.39999868209998
 31
0.0
  0
LINE
  5
93D0C
330
1F
100
AcDbEntity
  8
1
100
AcDbLine
 10
40.12828722129995
 20
-75.19277716479999
 30
0.0
 11
51.97382338399996
 21
-75.3995417676
 31
0.0
  0
LINE
  5
93D0D
330
1F
100
AcDbEntity
  8
1
100
AcDbLine
 10
49.43442703549999
 20
72.8149075536
 30
0.0
 11
51.70815514869997
 21
74.14286665920002
 31
0.0
  0
LINE
  5
93D0E
330
1F
100
AcDbEntity
  8
1
100
AcDbLine
 10
48.12606477260001
 20
72.72018503460003
 30
0.0
 11
48.89662520559994
 21
73.00743305560001
 31
0.0
  0
LINE
  5
93D0F
102
{ACAD_REACTORS
330
93ED5
102
}
330
1F
100
AcDbEntity
  8
1
100
AcDbLine
 10
13.43987587009997
 20
-48.41899868210001
 30
0.0
 11
2.0
 21
-48.41899868210001
 31
0.0
  0
LINE
  5
93D10
330
1F
100
AcDbEntity
  8
1
100
AcDbLine
 10
37.72318830769999
 20
-73.91396338839998
 30
0.0
 11
21.31282802729999
 21
-50.47754006399998
 31
0.0
  0
LINE
  5
93D11
330
1F
100
AcDbEntity
  8
1
100
AcDbLine
 10
0.0
 20
-46.4189973632
 30
0.0
 11
0.0
 21
-8.937498682099997
 31
0.0
  0
LINE
  5
93D12
330
1F
100
AcDbEntity
  8
1
100
AcDbLine
 10
0.0
 20
8.937501317899998
 30
0.0
 11
0.0
 21
46.4189999989
 31
0.0
  0
LINE
  5
93D13
330
1F
100
AcDbEntity
  8
1
100
AcDbLine
 10
37.72318830769999
 20
73.91396602410002
 30
0.0
 11
21.31282802729999
 21
50.47754269969999
 31
0.0
  0
LINE
  5
93D14
330
1F
100
AcDbEntity
  8
1
100
AcDbLine
 10
9.524999999999975
 20
6.937501317899999
 30
0.0
 11
9.524999999999975
 21
-6.937498682099999
 31
0.0
  0
LINE
  5
93D15
330
1F
100
AcDbEntity
  8
1
100
AcDbLine
 10
50.11289903739996
 20
65.46711302519998
 30
0.0
 11
50.07335066190001
 21
65.4288747164
 31
0.0
  0
LINE
  5
93D16
330
1F
100
AcDbEntity
  8
1
100
AcDbLine
 10
0.0
 20
8.937501317899998
 30
0.0
 11
1.0
 21
7.937501317899999
 31
0.0
  0
LINE
  5
93D17
330
1F
100
AcDbEntity
  8
1
100
AcDbLine
 10
8.524999999999977
 20
7.937501317899999
 30
0.0
 11
9.524999999999975
 21
6.937501317899999
 31
0.0
  0
LINE
  5
93D18
330
1F
100
AcDbEntity
  8
1
100
AcDbLine
 10
1.0
 20
-7.937498682099999
 30
0.0
 11
0.0
 21
-8.937498682099997
 31
0.0
  0
LINE
  5
93D19
330
1F
100
AcDbEntity
  8
1
100
AcDbLine
 10
1.0
 20
-7.937498682099999
 30
0.0
 11
8.524999999999977
 21
-7.937498682099999
 31
0.0
  0
LINE
  5
93D1A
330
1F
100
AcDbEntity
  8
1
100
AcDbLine
 10
9.524999999999975
 20
-6.937498682099999
 30
0.0
 11
8.524999999999977
 21
-7.937498682099999
 31
0.0
  0
LINE
  5
93D1B
330
1F
100
AcDbEntity
  8
1
100
AcDbLine
 10
1.0
 20
7.937501317899999
 30
0.0
 11
8.524999999999977
 21
7.937501317899999
 31
0.0
  0
LINE
  5
93D1C
330
1F
100
AcDbEntity
  8
1
100
AcDbLine
 10
47.81670095649995
 20
72.93139986919995
 30
0.0
 11
47.66400059199995
 21
74.48335361149999
 31
0.0
  0
LINE
  5
93D1D
330
1F
100
AcDbEntity
  8
1
100
AcDbLine
 10
51.97382338399996
 20
75.3936944175
 30
0.0
 11
51.97382338399996
 21
75.39954440330001
 31
0.0
  0
LINE
  5
93D1E
330
1F
100
AcDbEntity
  8
1
100
AcDbLine
 10
52.02618060329996
 20
75.40000131789998
 30
0.0
 11
52.02618060329996
 21
75.3939878626
 31
0.0
  0
LINE
  5
93D1F
330
1F
100
AcDbEntity
  8
1
100
AcDbLine
 10
61.56677218009996
 20
63.72517134330003
 30
0.0
 11
61.56677218009996
 21
60.7216594465
 31
0.0
  0
LINE
  5
93D20
330
1F
100
AcDbEntity
  8
1
100
AcDbLine
 10
61.71384718519994
 20
63.9856555225
 30
0.0
 11
61.71384718519994
 21
-69.39999850889996
 31
0.0
  0
LINE
  5
93D21
330
1F
100
AcDbEntity
  8
1
100
AcDbLine
 10
49.01749024929995
 20
66.7503896019
 30
0.0
 11
47.68170321819994
 21
69.23470158500004
 31
0.0
  0
LINE
  5
93D22
330
1F
100
AcDbEntity
  8
1
100
AcDbLine
 10
48.30193959459998
 20
68.95454994750003
 30
0.0
 11
50.11289903739996
 21
65.46711302519998
 31
0.0
  0
LINE
  5
93D23
330
1F
100
AcDbEntity
  8
1
100
AcDbLine
 10
13.43987587009997
 20
48.41900131789998
 30
0.0
 11
2.0
 21
48.41900131789998
 31
0.0
  0
LINE
  5
93D24
330
1F
100
AcDbEntity
  8
1
100
AcDbLine
 10
48.81466088349998
 20
72.64135297579997
 30
0.0
 11
49.43442703549999
 21
72.8149075536
 31
0.0
  0
LINE
  5
93D25
330
1F
100
AcDbEntity
  8
1
100
AcDbLine
 10
57.075478649
 20
67.1257118858
 30
0.0
 11
56.8873274151
 21
67.1257118858
 31
0.0
  0
LINE
  5
93D26
330
1F
100
AcDbEntity
  8
1
100
AcDbLine
 10
55.35027377089996
 20
67.2866086921
 30
0.0
 11
55.16212253699996
 21
67.2866086921
 31
0.0
  0
LINE
  5
93D27
330
1F
100
AcDbEntity
  8
1
100
AcDbLine
 10
55.55880865599999
 20
67.38946055209999
 30
0.0
 11
55.74695988989994
 21
67.38946055209999
 31
0.0
  0
LINE
  5
93D28
330
1F
100
AcDbEntity
  8
1
100
AcDbLine
 10
58.07665848659997
 20
68.54756449590002
 30
0.0
 11
57.88850725279997
 21
68.54756449590002
 31
0.0
  0
LINE
  5
93D29
330
1F
100
AcDbEntity
  8
1
100
AcDbLine
 10
57.90722615479996
 20
67.93494927030002
 30
0.0
 11
57.70752232309996
 21
67.93500026740002
 31
0.0
  0
LINE
  5
93D2A
330
1F
100
AcDbEntity
  8
1
100
AcDbLine
 10
49.01749024929995
 20
66.7503896019
 30
0.0
 11
36.63445447779998
 21
71.1697765321
 31
0.0
  0
LINE
  5
93D2B
330
1F
100
AcDbEntity
  8
1
100
AcDbLine
 10
48.0903044442
 20
69.52884045560001
 30
0.0
 11
47.23696876039993
 21
69.52884045560001
 31
0.0
  0
LINE
  5
93D2C
330
1F
100
AcDbEntity
  8
1
100
AcDbLine
 10
48.06679968609994
 20
69.57496075699999
 30
0.0
 11
47.18669104359998
 21
69.57496075699999
 31
0.0
  0
LINE
  5
93D2D
330
1F
100
AcDbEntity
  8
1
100
AcDbLine
 10
57.79389272379996
 20
69.6735953732
 30
0.0
 11
57.60574148989997
 21
69.6735953732
 31
0.0
  0
LINE
  5
93D2E
330
1F
100
AcDbEntity
  8
1
100
AcDbLine
 10
56.76779609339996
 20
70.0274620523
 30
0.0
 11
56.95594732729996
 21
70.0274620523
 31
0.0
  0
LINE
  5
93D2F
330
1F
100
AcDbEntity
  8
1
100
AcDbLine
 10
56.24142131019993
 20
70.44709813669995
 30
0.0
 11
56.05327007629995
 21
70.44709813669995
 31
0.0
  0
LINE
  5
93D30
330
1F
100
AcDbEntity
  8
1
100
AcDbLine
 10
46.59134236049999
 20
70.71090784099997
 30
0.0
 11
47.48913753559995
 21
70.71090784099997
 31
0.0
  0
LINE
  5
93D31
330
1F
100
AcDbEntity
  8
1
100
AcDbLine
 10
46.84724040639998
 20
71.76688798140003
 30
0.0
 11
47.77479105859995
 21
71.76688798140003
 31
0.0
  0
LINE
  5
93D32
330
1F
100
AcDbEntity
  8
1
100
AcDbLine
 10
48.84470187369996
 20
72.42338765609995
 30
0.0
 11
47.95137884209998
 21
72.42338765609995
 31
0.0
  0
LINE
  5
93D33
330
1F
100
AcDbEntity
  8
1
100
AcDbLine
 10
48.88835568039997
 20
72.44963649509998
 30
0.0
 11
47.99757932459995
 21
72.44963649509998
 31
0.0
  0
LINE
  5
93D34
330
1F
100
AcDbEntity
  8
1
100
AcDbLine
 10
54.79568106229994
 20
69.48197333410004
 30
0.0
 11
54.80723365159997
 21
69.48193156299999
 31
0.0
  0
LINE
  5
93D35
330
1F
100
AcDbEntity
  8
1
100
AcDbLine
 10
48.81466088349998
 20
72.64135297579997
 30
0.0
 11
48.12606477260001
 21
72.72018503460003
 31
0.0
  0
LINE
  5
93D36
330
1F
100
AcDbEntity
  8
1
100
AcDbLine
 10
48.30193959459998
 20
68.95454994750003
 30
0.0
 11
47.93974094569995
 21
69.03756236179997
 31
0.0
  0
LINE
  5
93D37
330
1F
100
AcDbEntity
  8
1
100
AcDbLine
 10
48.89662520559994
 20
73.00743305560001
 30
0.0
 11
49.1972533567
 21
72.92951373789998
 31
0.0
  0
LINE
  5
93D38
330
1F
100
AcDbEntity
  8
1
100
AcDbLine
 10
40.12828722129995
 20
75.19277980050003
 30
0.0
 11
51.97382338399996
 21
75.39954440330001
 31
0.0
  0
LINE
  5
93D39
330
1F
100
AcDbEntity
  8
1
100
AcDbLine
 10
51.97382338399996
 20
75.39954440330001
 30
0.0
 11
52.02618060329996
 21
75.40000131789998
 31
0.0
  0
LINE
  5
93D3A
330
1F
100
AcDbEntity
  8
1
100
AcDbLine
 10
52.02618060329996
 20
75.40000131789998
 30
0.0
 11
53.38512635819999
 21
75.40000131789998
 31
0.0
  0
LINE
  5
93D3B
330
1F
100
AcDbEntity
  8
1
100
AcDbLine
 10
54.19752157679994
 20
75.54116356029999
 30
0.0
 11
53.64495989459999
 21
75.54116356029999
 31
0.0
  0
LINE
  5
93D3C
330
1F
100
AcDbEntity
  8
1
100
AcDbLine
 10
54.93723732499995
 20
75.73354737689999
 30
0.0
 11
54.38555179759997
 21
75.73354737689999
 31
0.0
  0
LINE
  5
93D3D
330
1F
100
AcDbEntity
  8
1
100
AcDbLine
 10
54.96401954469996
 20
75.73332072510004
 30
0.0
 11
54.93723648329996
 21
75.73354737689999
 31
0.0
  0
LINE
  5
93D3E
330
1F
100
AcDbEntity
  8
nocut
100
AcDbLine
 10
61.71384718519999
 20
0.0
 30
0.0
 11
0.0
 21
0.0
 31
0.0
  0
LINE
  5
93D3F
330
1F
100
AcDbEntity
  8
sk3
100
AcDbLine
 10
0.9999998037999944
 20
19.55000131789995
 30
0.0
 11
0.0
 21
20.55000111159996
 31
0.0
  0
LINE
  5
93D40
330
1F
100
AcDbEntity
  8
nocut
100
AcDbLine
 10
0.0
 20
0.0
 30
0.0
 11
0.0
 21
46.4189999989
 31
0.0
  0
LINE
  5
93D41
330
1F
100
AcDbEntity
  8
sk3
100
AcDbLine
 10
0.9999998037999944
 20
7.937501317899999
 30
0.0
 11
0.9999998037999944
 21
19.55000131789995
 31
0.0
  0
LINE
  5
93D42
330
1F
100
AcDbEntity
  8
sk3
100
AcDbLine
 10
8.000000000000056
 20
7.937501317899999
 30
0.0
 11
8.000000000000056
 21
19.55000131789995
 31
0.0
  0
LINE
  5
93D6D
102
{ACAD_REACTORS
330
93ED8
102
}
330
1F
100
AcDbEntity
  8
sk3
100
AcDbLine
 10
8.000000000000056
 20
19.05000131789995
 30
0.0
 11
25.89046496530006
 21
19.05000131789995
 31
0.0
  0
LINE
  5
93D6E
330
1F
100
AcDbEntity
  8
sk3
100
AcDbLine
 10
39.28689076480003
 20
19.05000131789995
 30
0.0
 11
41.00000019079999
 21
19.05000131789995
 31
0.0
  0
LINE
  5
93D6F
330
1F
100
AcDbEntity
  8
sk3
100
AcDbLine
 10
0.9999998037999944
 20
19.55000131789995
 30
0.0
 11
8.000000000000056
 21
19.55000131789995
 31
0.0
  0
LINE
  5
93D70
330
1F
100
AcDbEntity
  8
sk3
100
AcDbLine
 10
29.17735573010003
 20
20.50000131789997
 30
0.0
 11
35.82264426990008
 21
20.50000131789997
 31
0.0
  0
LINE
  5
93D71
330
1F
100
AcDbEntity
  8
nocut
100
AcDbLine
 10
21.31282802740003
 20
50.47754138069996
 30
0.0
 11
37.72318830780007
 21
73.91396470509993
 31
0.0
  0
LINE
  5
93D72
330
1F
100
AcDbEntity
  8
sk3
100
AcDbLine
 10
36.16073887930003
 20
20.42504754749996
 30
0.0
 11
38.94879615550003
 21
19.12495508819995
 31
0.0
  0
LINE
  5
93D75
330
1F
100
AcDbEntity
  8
sk3
100
AcDbLine
 10
43.00000000000006
 20
28.00000131789995
 30
0.0
 11
55.7138471852
 21
28.00000131789995
 31
0.0
  0
LINE
  5
93D79
330
1F
100
AcDbEntity
  8
sk3
100
AcDbLine
 10
25.89046496530006
 20
19.05000131789995
 30
0.0
 11
25.89046496530006
 21
0.0000013189999777
 31
0.0
  0
LINE
  5
93D82
330
1F
100
AcDbEntity
  8
sk3
100
AcDbLine
 10
41.00000019079999
 20
19.05000131789995
 30
0.0
 11
41.00000019079999
 21
0.0000013189999777
 31
0.0
  0
LINE
  5
93D83
330
1F
100
AcDbEntity
  8
sk3
100
AcDbLine
 10
42.00000000000001
 20
0.0000013189999777
 30
0.0
 11
42.00000000000001
 21
27.00000131789997
 31
0.0
  0
LINE
  5
93D85
330
1F
100
AcDbEntity
  8
nocut
100
AcDbLine
 10
2.0
 20
48.4189999989
 30
0.0
 11
13.43987587009999
 21
48.4189999989
 31
0.0
  0
LINE
  5
93D9A
330
1F
100
AcDbEntity
  8
sk3
100
AcDbLine
 10
57.15507220040002
 20
59.57917854049992
 30
0.0
 11
59.06881782092026
 21
62.70595400606404
 31
0.0
  0
LINE
  5
93DAB
330
1F
100
AcDbEntity
  8
sk3
100
AcDbLine
 10
25.89046496530006
 20
19.05000131789995
 30
0.0
 11
28.83926112069998
 21
20.42504754749996
 31
0.0
  0
LINE
  5
93DB3
330
1F
100
AcDbEntity
  8
sk3
100
AcDbLine
 10
41.00000019079999
 20
19.05000131789995
 30
0.0
 11
42.00000000000001
 21
20.05000111699997
 31
0.0
  0
LINE
  5
93DB6
330
1F
100
AcDbEntity
  8
sk3
100
AcDbLine
 10
55.7138471852
 20
28.00000131789995
 30
0.0
 11
55.7138471852
 21
0.0000013189999777
 31
0.0
  0
LINE
  5
93DB7
330
1F
100
AcDbEntity
  8
sk3
100
AcDbLine
 10
56.71384718519999
 20
58.01307810409998
 30
0.0
 11
56.71384718519999
 21
0.0000013189999777
 31
0.0
  0
LINE
  5
93DB8
330
1F
100
AcDbEntity
  8
sk3
100
AcDbLine
 10
55.7138471852
 20
28.00000131789995
 30
0.0
 11
56.71384718519999
 21
29.00000131789994
 31
0.0
  0
LINE
  5
93DB9
330
1F
100
AcDbEntity
  8
nocut
100
AcDbLine
 10
61.71384718519999
 20
69.3999999989
 30
0.0
 11
61.71384718519999
 21
0.0000000000000142
 31
0.0
  0
LINE
  5
93E31
330
1F
100
AcDbEntity
  8
nocut
100
AcDbLine
 10
40.12828722129998
 20
75.19277848149994
 30
0.0
 11
51.97382338410003
 21
75.39954308429995
 31
0.0
  0
LINE
  5
93E32
330
1F
100
AcDbEntity
  8
nocut
100
AcDbLine
 10
52.02618060340004
 20
75.3999999989
 30
0.0
 11
55.7138471852
 21
75.3999999989
 31
0.0
  0
ARC
  5
93E35
330
1F
100
AcDbEntity
  8
1
100
AcDbCircle
 10
16.39791576159996
 20
-53.91899868210001
 30
0.0
 40
6.0
100
AcDbArc
 50
35.00000000000047
 51
109.1881364537007
  0
ARC
  5
93E36
330
1F
100
AcDbEntity
  8
1
100
AcDbCircle
 10
16.39791576159996
 20
53.91900131789999
 30
0.0
 40
6.0
100
AcDbArc
 50
250.8118635462993
 51
324.9999999999996
  0
ARC
  5
93E37
330
1F
100
AcDbEntity
  8
1
100
AcDbCircle
 10
55.71384718519993
 20
-69.39999868209998
 30
0.0
 40
6.0
100
AcDbArc
 50
270.0
 51
0.0
  0
ARC
  5
93E38
330
1F
100
AcDbEntity
  8
1
100
AcDbCircle
 10
13.43987587009997
 20
45.41900131789998
 30
0.0
 40
3.0
100
AcDbArc
 50
70.81186354629932
 51
90.0
  0
ARC
  5
93E39
330
1F
100
AcDbEntity
  8
1
100
AcDbCircle
 10
13.43987587009997
 20
-45.41899868210001
 30
0.0
 40
3.0
100
AcDbArc
 50
270.0
 51
289.1881364537007
  0
ARC
  5
93E3A
330
1F
100
AcDbEntity
  8
1
100
AcDbCircle
 10
40.18064444059996
 20
72.19323671500005
 30
0.0
 40
3.0
100
AcDbArc
 50
91.00000000000015
 51
144.9999999999995
  0
ARC
  5
93E3B
330
1F
100
AcDbEntity
  8
1
100
AcDbCircle
 10
40.18064444059996
 20
-72.1932340793
 30
0.0
 40
3.0
100
AcDbArc
 50
215.0000000000005
 51
268.9999999999998
  0
ARC
  5
93E3C
102
{ACAD_REACTORS
330
93ED5
102
}
330
1F
100
AcDbEntity
  8
1
100
AcDbCircle
 10
2.0
 20
46.41900131789998
 30
0.0
 40
2.0
100
AcDbArc
 50
90.0
 51
180.0
  0
ARC
  5
93E3D
102
{ACAD_REACTORS
330
93ED2
102
}
330
1F
100
AcDbEntity
  8
1
100
AcDbCircle
 10
2.0
 20
-46.41899868210001
 30
0.0
 40
2.0
100
AcDbArc
 50
180.0
 51
270.0
  0
ARC
  5
93E3E
330
1F
100
AcDbEntity
  8
nocut
100
AcDbCircle
 10
16.39791576160002
 20
53.9189999989
 30
0.0
 40
6.0
100
AcDbArc
 50
250.8118635462993
 51
324.9999999999996
  0
ARC
  5
93E3F
330
1F
100
AcDbEntity
  8
nocut
100
AcDbCircle
 10
55.7138471852
 20
69.3999999989
 30
0.0
 40
6.0
100
AcDbArc
 50
0.0
 51
90.0
  0
ARC
  5
93E40
330
1F
100
AcDbEntity
  8
nocut
100
AcDbCircle
 10
52.02618060340004
 20
72.3999999989
 30
0.0
 40
3.0
100
AcDbArc
 50
90.0
 51
91.00000000000015
  0
ARC
  5
93E41
330
1F
100
AcDbEntity
  8
nocut
100
AcDbCircle
 10
40.18064444059999
 20
72.19323539599996
 30
0.0
 40
3.0
100
AcDbArc
 50
91.00000000000015
 51
144.9999999999995
  0
ARC
  5
93E42
330
1F
100
AcDbEntity
  8
nocut
100
AcDbCircle
 10
13.43987587009999
 20
45.4189999989
 30
0.0
 40
3.0
100
AcDbArc
 50
70.81186354629932
 51
90.0
  0
ARC
  5
93E43
330
1F
100
AcDbEntity
  8
sk3
100
AcDbCircle
 10
59.71384718519999
 20
58.01307810409998
 30
0.0
 40
3.0
100
AcDbArc
 50
148.5312476589003
 51
180.0
  0
ARC
  5
93E46
102
{ACAD_REACTORS
330
93ECB
102
}
330
1F
100
AcDbEntity
  8
nocut
100
AcDbCircle
 10
2.0
 20
46.4189999989
 30
0.0
 40
2.0
100
AcDbArc
 50
90.0
 51
180.0
  0
ARC
  5
93E47
330
1F
100
AcDbEntity
  8
sk3
100
AcDbCircle
 10
43.00000000000006
 20
27.00000131789997
 30
0.0
 40
1.0
100
AcDbArc
 50
90.0
 51
180.0
  0
ARC
  5
93E4A
330
1F
100
AcDbEntity
  8
sk3
100
AcDbCircle
 10
29.17735573010003
 20
19.70000131789996
 30
0.0
 40
0.8
100
AcDbArc
 50
90.0
 51
114.9999999999997
  0
ARC
  5
93E4B
330
1F
100
AcDbEntity
  8
sk3
100
AcDbCircle
 10
39.28689076480003
 20
19.85000131789997
 30
0.0
 40
0.8
100
AcDbArc
 50
245.0000000000003
 51
270.0
  0
ARC
  5
93E4C
330
1F
100
AcDbEntity
  8
sk3
100
AcDbCircle
 10
35.82264426990008
 20
19.70000131789996
 30
0.0
 40
0.8
100
AcDbArc
 50
65.00000000000031
 51
90.0
  0
SPLINE
  5
93E4D
330
1F
100
AcDbEntity
  8
1
100
AcDbSpline
210
0.0
220
0.0
230
1.0
 70
     8
 71
     3
 72
    15
 73
    11
 74
     0
 42
0.000000001
 43
0.0000000001
 40
0.0
 40
0.0
 40
0.0
 40
0.0
 40
0.1246275983
 40
0.2493687812
 40
0.3743268631
 40
0.499488389
 40
0.6247628640000002
 40
0.7500137458000001
 40
0.8751083174999999
 40
1.0
 40
1.0
 40
1.0
 40
1.0
 10
54.79568106179994
 20
69.48198063899997
 30
0.0
 10
54.76028652809995
 20
69.48197816550004
 30
0.0
 10
54.68892716969995
 20
69.47025134679996
 30
0.0
 10
54.59353575399996
 20
69.4193356457
 30
0.0
 10
54.51922311849997
 20
69.34046392750002
 30
0.0
 10
54.47386651289997
 20
69.24191236709998
 30
0.0
 10
54.46214788189997
 20
69.13398158519999
 30
0.0
 10
54.48530539870001
 20
69.02791392079999
 30
0.0
 10
54.54082663869996
 20
68.9348487882
 30
0.0
 10
54.5959160972
 20
68.88774340769995
 30
0.0
 10
54.62624873049997
 20
68.86935810850002
 30
0.0
  0
SPLINE
  5
93E4E
330
1F
100
AcDbEntity
  8
1
100
AcDbSpline
210
0.0
220
0.0
230
1.0
 70
     8
 71
     3
 72
    11
 73
     7
 74
     0
 42
0.000000001
 43
0.0000000001
 40
0.0
 40
0.0
 40
0.0
 40
0.0
 40
0.2503031361
 40
0.5003543463
 40
0.7502267713
 40
1.0
 40
1.0
 40
1.0
 40
1.0
 10
53.84849191229996
 20
71.18301987219997
 30
0.0
 10
54.00627270699995
 20
71.33714400639998
 30
0.0
 10
54.35232952749993
 20
71.61554048070001
 30
0.0
 10
54.94100607479992
 20
71.92504881880005
 30
0.0
 10
55.57772932419999
 20
72.11559630009998
 30
0.0
 10
56.01919196029996
 20
72.1584577754
 30
0.0
 10
56.23929025629998
 20
72.15846090349998
 30
0.0
  0
SPLINE
  5
93E4F
330
1F
100
AcDbEntity
  8
1
100
AcDbSpline
210
0.0
220
0.0
230
1.0
 70
     8
 71
     3
 72
    15
 73
    11
 74
     0
 42
0.000000001
 43
0.0000000001
 40
0.0
 40
0.0
 40
0.0
 40
0.0
 40
0.1251731296
 40
0.2504210325
 40
0.3756832357
 40
0.5008557612
 40
0.6258752570000004
 40
0.7507163148
 40
0.8754016508999999
 40
1.0
 40
1.0
 40
1.0
 40
1.0
 10
54.90901449339995
 20
67.7433272312
 30
0.0
 10
54.89440859760001
 20
67.71847053409999
 30
0.0
 10
54.8716257785
 20
67.66463131720001
 30
0.0
 10
54.85959432179999
 20
67.57798630139999
 30
0.0
 10
54.87034474569998
 20
67.49111810419996
 30
0.0
 10
54.90319679829998
 20
67.41005269190003
 30
0.0
 10
54.95588110139994
 20
67.34034645579999
 30
0.0
 10
55.02481203089996
 20
67.28680756440002
 30
0.0
 10
55.10517096909996
 20
67.25312405030003
 30
0.0
 10
55.16287441439999
 20
67.24546554639999
 30
0.0
 10
55.19157235279997
 20
67.24546324409999
 30
0.0
  0
SPLINE
  5
93E50
330
1F
100
AcDbEntity
  8
1
100
AcDbSpline
210
0.0
220
0.0
230
1.0
 70
     8
 71
     3
 72
    11
 73
     7
 74
     0
 42
0.000000001
 43
0.0000000001
 40
0.0
 40
0.0
 40
0.0
 40
0.0
 40
0.250479597
 40
0.5005838958
 40
0.7503826295
 40
1.0
 40
1.0
 40
1.0
 40
1.0
 10
56.46148590699993
 20
66.96982446769999
 30
0.0
 10
56.42610493389998
 20
67.03290049190002
 30
0.0
 10
56.33830329509999
 20
67.15019793530001
 30
0.0
 10
56.16565036139992
 20
67.28511963029998
 30
0.0
 10
55.96395421139994
 20
67.37012396130001
 30
0.0
 10
55.81903242889996
 20
67.38946336380002
 30
0.0
 10
55.74695989029999
 20
67.38946015589999
 30
0.0
  0
SPLINE
  5
93E51
330
1F
100
AcDbEntity
  8
1
100
AcDbSpline
210
0.0
220
0.0
230
1.0
 70
     8
 71
     3
 72
    11
 73
     7
 74
     0
 42
0.000000001
 43
0.0000000001
 40
0.0
 40
0.0
 40
0.0
 40
0.0
 40
0.2504866026
 40
0.5005799296
 40
0.7503832890000001
 40
1.0
 40
1.0
 40
1.0
 40
1.0
 10
56.46148590699993
 20
66.96982446769999
 30
0.0
 10
56.47564106679991
 20
66.94458911859999
 30
0.0
 10
56.5107660521
 20
66.89766093079999
 30
0.0
 10
56.57984297129996
 20
66.84368942460003
 30
0.0
 10
56.66053173149999
 20
66.80967541480004
 30
0.0
 10
56.71851113219997
 20
66.8019442021
 30
0.0
 10
56.747344909
 20
66.80194195830001
 30
0.0
  0
SPLINE
  5
93E52
330
1F
100
AcDbEntity
  8
1
100
AcDbSpline
210
0.0
220
0.0
230
1.0
 70
     8
 71
     3
 72
    15
 73
    11
 74
     0
 42
0.000000001
 43
0.0000000001
 40
0.0
 40
0.0
 40
0.0
 40
0.0
 40
0.1250298983
 40
0.2501341916
 40
0.3752826454
 40
0.5004151761
 40
0.6254847165000001
 40
0.7504536048999999
 40
0.8752886665
 40
1.0
 40
1.0
 40
1.0
 40
1.0
 10
54.90901449339995
 20
67.7433272312
 30
0.0
 10
54.93614268300001
 20
67.78949469679995
 30
0.0
 10
54.98152500909998
 20
67.88741821000002
 30
0.0
 10
55.01985746779997
 20
68.04450152390001
 30
0.0
 10
55.02719032719994
 20
68.20613022740002
 30
0.0
 10
55.00319194559995
 20
68.36610696060001
 30
0.0
 10
54.94879626459999
 20
68.51837392390004
 30
0.0
 10
54.86603466679998
 20
68.65714990079999
 30
0.0
 10
54.75812255639993
 20
68.77713108250003
 30
0.0
 10
54.67192480899999
 20
68.84167279809995
 30
0.0
 10
54.62624873049997
 20
68.86935810850002
 30
0.0
  0
SPLINE
  5
93E53
330
1F
100
AcDbEntity
  8
1
100
AcDbSpline
210
0.0
220
0.0
230
1.0
 70
     8
 71
     3
 72
    15
 73
    11
 74
     0
 42
0.000000001
 43
0.0000000001
 40
0.0
 40
0.0
 40
0.0
 40
0.0
 40
0.1246781799
 40
0.249388496
 40
0.3741995334000001
 40
0.4991300796
 40
0.6241929622
 40
0.7493813053000002
 40
0.8746591581
 40
1.0
 40
1.0
 40
1.0
 40
1.0
 10
54.8072336519
 20
69.48192252490002
 30
0.0
 10
54.86020381579999
 20
69.48192479860001
 30
0.0
 10
54.96644791089995
 20
69.49230486170001
 30
0.0
 10
55.11958868819994
 20
69.53845472260002
 30
0.0
 10
55.26106048489999
 20
69.61341996440001
 30
0.0
 10
55.38547771519995
 20
69.71440086849998
 30
0.0
 10
55.48820136489997
 20
69.8375874532
 30
0.0
 10
55.56537065879997
 20
69.97838035400002
 30
0.0
 10
55.6141106888
 20
70.13141868299999
 30
0.0
 10
55.62642880859994
 20
70.23796840509999
 30
0.0
 10
55.62742856819998
 20
70.29121071859998
 30
0.0
  0
SPLINE
  5
93E54
330
1F
100
AcDbEntity
  8
1
100
AcDbSpline
210
0.0
220
0.0
230
1.0
 70
     8
 71
     3
 72
    23
 73
    19
 74
     0
 42
0.000000001
 43
0.0000000001
 40
0.0
 40
0.0
 40
0.0
 40
0.0
 40
0.0624853154
 40
0.1250168594
 40
0.1875931758
 40
0.2502017936
 40
0.3128309253
 40
0.3754659802
 40
0.4380920919
 40
0.5006951155000002
 40
0.5632629088000001
 40
0.625786385
 40
0.6882603120000002
 40
0.7506837727
 40
0.8130602532999999
 40
0.8753973456
 40
0.9377060879
 40
1.0
 40
1.0
 40
1.0
 40
1.0
 10
53.84849191229996
 20
71.18301987219997
 30
0.0
 10
53.72700564460001
 20
71.06434911849999
 30
0.0
 10
53.50120661519998
 20
70.80848143139998
 30
0.0
 10
53.22296561769997
 20
70.37912564070001
 30
0.0
 10
53.01073026619997
 20
69.91310615269998
 30
0.0
 10
52.86926007039998
 20
69.42072026080001
 30
0.0
 10
52.8016140396
 20
68.91273371149998
 30
0.0
 10
52.80928282719997
 20
68.40027478599997
 30
0.0
 10
52.89209571129998
 20
67.89456395330001
 30
0.0
 10
53.04824374159998
 20
67.40667661449998
 30
0.0
 10
53.27431125189995
 20
66.94729954449994
 30
0.0
 10
53.56535133149995
 20
66.5264972796
 30
0.0
 10
53.91499295229994
 20
66.15349244660001
 30
0.0
 10
54.31558334479992
 20
65.83646341820004
 30
0.0
 10
54.75833738709997
 20
65.58236456200001
 30
0.0
 10
55.23359275029998
 20
65.3967717333
 30
0.0
 10
55.73078453419999
 20
65.28376170399997
 30
0.0
 10
56.06998214159995
 20
65.2584592947
 30
0.0
 10
56.23929025629998
 20
65.2584617009
 30
0.0
  0
SPLINE
  5
93E55
330
1F
100
AcDbEntity
  8
1
100
AcDbSpline
210
0.0
220
0.0
230
1.0
 70
     8
 71
     3
 72
    11
 73
     7
 74
     0
 42
0.000000001
 43
0.0000000001
 40
0.0
 40
0.0
 40
0.0
 40
0.0
 40
0.2493724826
 40
0.4991082902000001
 40
0.7493605645
 40
1.0
 40
1.0
 40
1.0
 40
1.0
 10
55.95556230819994
 20
70.61498064610002
 30
0.0
 10
55.91337554289999
 20
70.61498392899999
 30
0.0
 10
55.82803163799997
 20
70.59818874289994
 30
0.0
 10
55.71979095639997
 20
70.5263704591
 30
0.0
 10
55.64646217519999
 20
70.41891319539994
 30
0.0
 10
55.62822461609994
 20
70.33360434330001
 30
0.0
 10
55.62742856819998
 20
70.29121071859998
 30
0.0
  0
SPLINE
  5
93E56
330
1F
100
AcDbEntity
  8
1
100
AcDbSpline
210
0.0
220
0.0
230
1.0
 70
     8
 71
     3
 72
     9
 73
     5
 74
     0
 42
0.000000001
 43
0.0000000001
 40
0.0
 40
0.0
 40
0.0
 40
0.0
 40
0.4998147769
 40
1.0
 40
1.0
 40
1.0
 40
1.0
 10
56.9559473268
 20
70.02746244849999
 30
0.0
 10
57.02477490439997
 20
70.02746551210004
 30
0.0
 10
57.16304268409993
 20
70.04503328210001
 30
0.0
 10
57.29242105329996
 20
70.09686652149998
 30
0.0
 10
57.3526334462
 20
70.13031391230004
 30
0.0
  0
SPLINE
  5
93E57
330
1F
100
AcDbEntity
  8
1
100
AcDbSpline
210
0.0
220
0.0
230
1.0
 70
     8
 71
     3
 72
     9
 73
     5
 74
     0
 42
0.000000001
 43
0.0000000001
 40
0.0
 40
0.0
 40
0.0
 40
0.0
 40
0.4998026049
 40
1.0
 40
1.0
 40
1.0
 40
1.0
 10
57.5113348644
 20
70.17145936029999
 30
0.0
 10
57.48379984689997
 20
70.17146156939998
 30
0.0
 10
57.42848280069996
 20
70.16443245699997
 30
0.0
 10
57.37672306379995
 20
70.14369545739999
 30
0.0
 10
57.3526334462
 20
70.13031391230004
 30
0.0
  0
SPLINE
  5
93E58
330
1F
100
AcDbEntity
  8
1
100
AcDbSpline
210
0.0
220
0.0
230
1.0
 70
     8
 71
     3
 72
    23
 73
    19
 74
     0
 42
0.000000001
 43
0.0000000001
 40
0.0
 40
0.0
 40
0.0
 40
0.0
 40
0.0622939121
 40
0.1246026544
 40
0.1869397467
 40
0.2493162273
 40
0.311739688
 40
0.374213615
 40
0.4367370912000001
 40
0.4993048845000001
 40
0.5619079081000004
 40
0.6245340198
 40
0.6871690747
 40
0.7497982064000001
 40
0.8124068241999998
 40
0.8749831406
 40
0.9375146845999999
 40
1.0
 40
1.0
 40
1.0
 40
1.0
 10
56.30964222329999
 20
72.15846090349998
 30
0.0
 10
56.47895033789996
 20
72.15846330969998
 30
0.0
 10
56.81814794529998
 20
72.13316090040001
 30
0.0
 10
57.31533972929995
 20
72.02015087109998
 30
0.0
 10
57.79059509249998
 20
71.83455804239994
 30
0.0
 10
58.23334913479992
 20
71.58045918620001
 30
0.0
 10
58.6339395272
 20
71.26343015780003
 30
0.0
 10
58.98358114809997
 20
70.89042532479999
 30
0.0
 10
59.27462122769996
 20
70.46962305990001
 30
0.0
 10
59.50068873800001
 20
70.01024598989997
 30
0.0
 10
59.65683676829996
 20
69.52235865109995
 30
0.0
 10
59.73964965239996
 20
69.01664781840003
 30
0.0
 10
59.74731843989997
 20
68.50418889290001
 30
0.0
 10
59.67967240919995
 20
67.99620234359998
 30
0.0
 10
59.53820221329997
 20
67.5038164517
 30
0.0
 10
59.32596686189999
 20
67.03779696370003
 30
0.0
 10
59.04772586439998
 20
66.60844117300001
 30
0.0
 10
58.82192683499994
 20
66.35257348589999
 30
0.0
 10
58.70044056729994
 20
66.23390273220002
 30
0.0
  0
SPLINE
  5
93E59
330
1F
100
AcDbEntity
  8
1
100
AcDbSpline
210
0.0
220
0.0
230
1.0
 70
     8
 71
     3
 72
    11
 73
     7
 74
     0
 42
0.000000001
 43
0.0000000001
 40
0.0
 40
0.0
 40
0.0
 40
0.0
 40
0.2497732287
 40
0.4996456537
 40
0.7496968639000002
 40
1.0
 40
1.0
 40
1.0
 40
1.0
 10
56.30964222329999
 20
65.2584617009
 30
0.0
 10
56.52974051929994
 20
65.25846482899999
 30
0.0
 10
56.97120315539996
 20
65.3013263043
 30
0.0
 10
57.60792640479997
 20
65.49187378559998
 30
0.0
 10
58.19660295209996
 20
65.80138212370002
 30
0.0
 10
58.54265977259996
 20
66.07977859800001
 30
0.0
 10
58.70044056729994
 20
66.23390273220002
 30
0.0
  0
SPLINE
  5
93E5A
330
1F
100
AcDbEntity
  8
1
100
AcDbSpline
210
0.0
220
0.0
230
1.0
 70
     8
 71
     3
 72
    23
 73
    19
 74
     0
 42
0.000000001
 43
0.0000000001
 40
0.0
 40
0.0
 40
0.0
 40
0.0
 40
0.0624853154
 40
0.1250168594
 40
0.1875931758
 40
0.2502017936
 40
0.3128309253
 40
0.3754659802
 40
0.4380920919
 40
0.5006951155000002
 40
0.5632629088000001
 40
0.625786385
 40
0.6882603120000002
 40
0.7506837727
 40
0.8130602532999999
 40
0.8753973456
 40
0.9377060879
 40
1.0
 40
1.0
 40
1.0
 40
1.0
 10
53.91884387929994
 20
71.18301987219997
 30
0.0
 10
53.79735761159998
 20
71.06434911849999
 30
0.0
 10
53.5715585822
 20
70.80848143139998
 30
0.0
 10
53.29331758469999
 20
70.37912564070001
 30
0.0
 10
53.08108223319994
 20
69.91310615269998
 30
0.0
 10
52.93961203729995
 20
69.42072026080001
 30
0.0
 10
52.87196600659996
 20
68.91273371149998
 30
0.0
 10
52.87963479409999
 20
68.40027478599997
 30
0.0
 10
52.96244767829995
 20
67.89456395330001
 30
0.0
 10
53.11859570859997
 20
67.40667661449998
 30
0.0
 10
53.34466321879995
 20
66.94729954449994
 30
0.0
 10
53.6357032985
 20
66.5264972796
 30
0.0
 10
53.98534491929996
 20
66.15349244660001
 30
0.0
 10
54.38593531179995
 20
65.83646341820004
 30
0.0
 10
54.82868935409992
 20
65.58236456200001
 30
0.0
 10
55.30394471729994
 20
65.3967717333
 30
0.0
 10
55.80113650120001
 20
65.28376170399997
 30
0.0
 10
56.14033410859994
 20
65.2584592947
 30
0.0
 10
56.30964222329999
 20
65.2584617009
 30
0.0
  0
SPLINE
  5
93E5B
330
1F
100
AcDbEntity
  8
1
100
AcDbSpline
210
0.0
220
0.0
230
1.0
 70
     8
 71
     3
 72
    11
 73
     7
 74
     0
 42
0.000000001
 43
0.0000000001
 40
0.0
 40
0.0
 40
0.0
 40
0.0
 40
0.2503031361
 40
0.5003543463
 40
0.7502267713
 40
1.0
 40
1.0
 40
1.0
 40
1.0
 10
53.91884387929994
 20
71.18301987219997
 30
0.0
 10
54.07662467399996
 20
71.33714400639998
 30
0.0
 10
54.42268149449994
 20
71.61554048070001
 30
0.0
 10
55.01135804169996
 20
71.92504881880005
 30
0.0
 10
55.64808129120002
 20
72.11559630009998
 30
0.0
 10
56.08954392729993
 20
72.1584577754
 30
0.0
 10
56.30964222329999
 20
72.15846090349998
 30
0.0
  0
SPLINE
  5
93E5C
330
1F
100
AcDbEntity
  8
1
100
AcDbSpline
210
0.0
220
0.0
230
1.0
 70
     8
 71
     3
 72
    27
 73
    23
 74
     0
 42
0.000000001
 43
0.0000000001
 40
0.0
 40
0.0
 40
0.0
 40
0.0
 40
0.0625116057
 40
0.0938263325
 40
0.1251571108
 40
0.1877782673
 40
0.2504266164
 40
0.2817904862
 40
0.3131516196
 40
0.3757780917
 40
0.4383587257000002
 40
0.5008783178
 40
0.5633309816
 40
0.625721028
 40
0.6880622581999999
 40
0.7192590464000001
 40
0.7504520005
 40
0.8127638618
 40
0.8750997509999999
 40
0.9063215679999998
 40
0.9375553329
 40
1.0
 40
1.0
 40
1.0
 40
1.0
 10
54.72223955029996
 20
70.39475392500003
 30
0.0
 10
54.61259094369999
 20
70.28764648780003
 30
0.0
 10
54.46332875149995
 20
70.11002765329999
 30
0.0
 10
54.30226971179997
 20
69.84838766780001
 30
0.0
 10
54.16731965819997
 20
69.57196472550004
 30
0.0
 10
54.05030282550001
 20
69.20351317440003
 30
0.0
 10
54.00715165769998
 20
68.81925572080001
 30
0.0
 10
54.01777253159995
 20
68.51159141379998
 30
0.0
 10
54.05827212889994
 20
68.20648174949997
 30
0.0
 10
54.16452213249993
 20
67.83479970740001
 30
0.0
 10
54.3760078069
 20
67.42270243629997
 30
0.0
 10
54.66340937319994
 20
67.05988851319998
 30
0.0
 10
55.01573598019995
 20
66.76042766699999
 30
0.0
 10
55.4193383926
 20
66.53581719090005
 30
0.0
 10
55.78596204849997
 20
66.41815963340002
 30
0.0
 10
56.08819878979996
 20
66.3686067461
 30
0.0
 10
56.39377951039995
 20
66.34902459519998
 30
0.0
 10
56.77719739309996
 20
66.38130651350002
 30
0.0
 10
57.14685369649996
 20
66.48830528650001
 30
0.0
 10
57.42546201779996
 20
66.61591776079998
 30
0.0
 10
57.69035991189998
 20
66.77032400749999
 30
0.0
 10
57.87113647409999
 20
66.91517593489999
 30
0.0
 10
57.98066766679994
 20
67.02216867940001
 30
0.0
  0
SPLINE
  5
93E5D
330
1F
100
AcDbEntity
  8
1
100
AcDbSpline
210
0.0
220
0.0
230
1.0
 70
     8
 71
     3
 72
    15
 73
    11
 74
     0
 42
0.000000001
 43
0.0000000001
 40
0.0
 40
0.0
 40
0.0
 40
0.0
 40
0.1250298983
 40
0.2501341916
 40
0.3752826454
 40
0.5004151761
 40
0.6254847165000001
 40
0.7504536048999999
 40
0.8752886665
 40
1.0
 40
1.0
 40
1.0
 40
1.0
 10
57.79389272379996
 20
69.6735953732
 30
0.0
 10
57.76676453419997
 20
69.62742790760001
 30
0.0
 10
57.72138220809996
 20
69.52950439440002
 30
0.0
 10
57.68304974929995
 20
69.37242108050003
 30
0.0
 10
57.67571688989995
 20
69.21079237700005
 30
0.0
 10
57.6997152715
 20
69.05081564379997
 30
0.0
 10
57.7541109526
 20
68.89854868050003
 30
0.0
 10
57.83687255039996
 20
68.75977270359999
 30
0.0
 10
57.94478466069995
 20
68.63979152190001
 30
0.0
 10
58.03098240809996
 20
68.5752498063
 30
0.0
 10
58.07665848659997
 20
68.54756449590002
 30
0.0
  0
SPLINE
  5
93E5E
330
1F
100
AcDbEntity
  8
1
100
AcDbSpline
210
0.0
220
0.0
230
1.0
 70
     8
 71
     3
 72
     9
 73
     5
 74
     0
 42
0.000000001
 43
0.0000000001
 40
0.0
 40
0.0
 40
0.0
 40
0.0
 40
0.5005248820000002
 40
1.0
 40
1.0
 40
1.0
 40
1.0
 10
56.05327007629995
 20
70.44709813669995
 30
0.0
 10
56.03282036420001
 20
70.48355520460003
 30
0.0
 10
55.97749274969999
 20
70.5491876687
 30
0.0
 10
55.90146824009996
 20
70.58910239829998
 30
0.0
 10
55.86152393869998
 20
70.60112070299997
 30
0.0
  0
SPLINE
  5
93E5F
330
1F
100
AcDbEntity
  8
1
100
AcDbSpline
210
0.0
220
0.0
230
1.0
 70
     8
 71
     3
 72
    11
 73
     7
 74
     0
 42
0.000000001
 43
0.0000000001
 40
0.0
 40
0.0
 40
0.0
 40
0.0
 40
0.2496191969
 40
0.4994188778
 40
0.749516275
 40
1.0
 40
1.0
 40
1.0
 40
1.0
 10
56.76779608819993
 20
70.02746619789997
 30
0.0
 10
56.69572307949994
 20
70.02746341850002
 30
0.0
 10
56.55079852019998
 20
70.04679218179996
 30
0.0
 10
56.34910870809996
 20
70.13180941820002
 30
0.0
 10
56.1764514578
 20
70.26672242890004
 30
0.0
 10
56.08865160429992
 20
70.38402112310001
 30
0.0
 10
56.05327007629995
 20
70.44709813669995
 30
0.0
  0
SPLINE
  5
93E60
330
1F
100
AcDbEntity
  8
1
100
AcDbSpline
210
0.0
220
0.0
230
1.0
 70
     8
 71
     3
 72
    15
 73
    11
 74
     0
 42
0.000000001
 43
0.0000000001
 40
0.0
 40
0.0
 40
0.0
 40
0.0
 40
0.1250896007
 40
0.2502772926
 40
0.3754811074
 40
0.5006438507
 40
0.6257008026
 40
0.750614293
 40
0.8753740304
 40
1.0
 40
1.0
 40
1.0
 40
1.0
 10
57.60574148989997
 20
69.6735953732
 30
0.0
 10
57.6183378776
 20
69.69503223679999
 30
0.0
 10
57.63874889239996
 20
69.7409483733
 30
0.0
 10
57.65313343179993
 20
69.81480040780002
 30
0.0
 10
57.65065241929995
 20
69.89004967929995
 30
0.0
 10
57.63141555210001
 20
69.96280599950001
 30
0.0
 10
57.59640683949999
 20
70.0293608183
 30
0.0
 10
57.54740118009999
 20
70.08630916389996
 30
0.0
 10
57.48694852079996
 20
70.13071922360001
 30
0.0
 10
57.44093927699996
 20
70.15048890349999
 30
0.0
 10
57.41721750439999
 20
70.1576241299
 30
0.0
  0
SPLINE
  5
93E61
330
1F
100
AcDbEntity
  8
1
100
AcDbSpline
210
0.0
220
0.0
230
1.0
 70
     8
 71
     3
 72
    15
 73
    11
 74
     0
 42
0.000000001
 43
0.0000000001
 40
0.0
 40
0.0
 40
0.0
 40
0.0
 40
0.1247076059
 40
0.2495476487
 40
0.3745148477
 40
0.4995848209000001
 40
0.6247177877000001
 40
0.7498645476000001
 40
0.874973839
 40
1.0
 40
1.0
 40
1.0
 40
1.0
 10
57.88850725279997
 20
68.54756449590002
 30
0.0
 10
57.84283248779996
 20
68.57524901009998
 30
0.0
 10
57.75663532310001
 20
68.63979214419996
 30
0.0
 10
57.64871930459998
 20
68.75977000429998
 30
0.0
 10
57.56595903189998
 20
68.89854893910001
 30
0.0
 10
57.51156114859998
 20
69.05081491370004
 30
0.0
 10
57.487565174
 20
69.21079181570002
 30
0.0
 10
57.49489547169996
 20
69.37242250410003
 30
0.0
 10
57.53323293609998
 20
69.52950474609997
 30
0.0
 10
57.57861408039997
 20
69.6274292352
 30
0.0
 10
57.60574148989997
 20
69.6735953732
 30
0.0
  0
SPLINE
  5
93E62
330
1F
100
AcDbEntity
  8
1
100
AcDbSpline
210
0.0
220
0.0
230
1.0
 70
     8
 71
     3
 72
    15
 73
    11
 74
     0
 42
0.000000001
 43
0.0000000001
 40
0.0
 40
0.0
 40
0.0
 40
0.0
 40
0.1251731296
 40
0.2504210325
 40
0.3756832357
 40
0.5008557612
 40
0.6258752570000004
 40
0.7507163148
 40
0.8754016508999999
 40
1.0
 40
1.0
 40
1.0
 40
1.0
 10
57.79389272379996
 20
69.6735953732
 30
0.0
 10
57.80849861959999
 20
69.69845207029999
 30
0.0
 10
57.83128143869999
 20
69.75229128720002
 30
0.0
 10
57.84331289539998
 20
69.83893630300002
 30
0.0
 10
57.83256247139997
 20
69.9258045002
 30
0.0
 10
57.79971041889996
 20
70.00686991250001
 30
0.0
 10
57.7470261158
 20
70.0765761486
 30
0.0
 10
57.67809518629997
 20
70.13011504000002
 30
0.0
 10
57.59773624809998
 20
70.16379855410002
 30
0.0
 10
57.5400328028
 20
70.17145705799999
 30
0.0
 10
57.5113348644
 20
70.17145936029999
 30
0.0
  0
SPLINE
  5
93E63
330
1F
100
AcDbEntity
  8
1
100
AcDbSpline
210
0.0
220
0.0
230
1.0
 70
     8
 71
     3
 72
    15
 73
    11
 74
     0
 42
0.000000001
 43
0.0000000001
 40
0.0
 40
0.0
 40
0.0
 40
0.0
 40
0.1253366272
 40
0.250619583
 40
0.3758057504
 40
0.5008689206
 40
0.6257995024000002
 40
0.7506090806999999
 40
0.8753225931000001
 40
1.0
 40
1.0
 40
1.0
 40
1.0
 10
56.8873274151
 20
67.1257118858
 30
0.0
 10
56.88832714229993
 20
67.17895247230001
 30
0.0
 10
56.90064687079996
 20
67.28550222710004
 30
0.0
 10
56.94938168780002
 20
67.43854199930004
 30
0.0
 10
57.02655418999999
 20
67.57933501560001
 30
0.0
 10
57.12927529899996
 20
67.70252284079998
 30
0.0
 10
57.25369342139996
 20
67.80350226079997
 30
0.0
 10
57.39516497559995
 20
67.87846992050001
 30
0.0
 10
57.54830745469996
 20
67.92461711779998
 30
0.0
 10
57.65455244239996
 20
67.93499709099997
 30
0.0
 10
57.70752234079998
 20
67.93500002649998
 30
0.0
  0
SPLINE
  5
93E64
330
1F
100
AcDbEntity
  8
1
100
AcDbSpline
210
0.0
220
0.0
230
1.0
 70
     8
 71
     3
 72
    11
 73
     7
 74
     0
 42
0.000000001
 43
0.0000000001
 40
0.0
 40
0.0
 40
0.0
 40
0.0
 40
0.250479597
 40
0.5005838958
 40
0.7503826295
 40
1.0
 40
1.0
 40
1.0
 40
1.0
 10
56.24142131019993
 20
70.44709813669995
 30
0.0
 10
56.27680228319997
 20
70.38402211250001
 30
0.0
 10
56.3646039221
 20
70.26672466910003
 30
0.0
 10
56.53725685579995
 20
70.13180297410002
 30
0.0
 10
56.73895300569999
 20
70.04679864309998
 30
0.0
 10
56.88387478819993
 20
70.02745924060002
 30
0.0
 10
56.9559473268
 20
70.02746244849999
 30
0.0
  0
SPLINE
  5
93E65
330
1F
100
AcDbEntity
  8
1
100
AcDbSpline
210
0.0
220
0.0
230
1.0
 70
     8
 71
     3
 72
     9
 73
     5
 74
     0
 42
0.000000001
 43
0.0000000001
 40
0.0
 40
0.0
 40
0.0
 40
0.0
 40
0.5001950127
 40
1.0
 40
1.0
 40
1.0
 40
1.0
 10
55.16212253699996
 20
67.2866086921
 30
0.0
 10
55.22233606019995
 20
67.32005671070003
 30
0.0
 10
55.35171394919996
 20
67.37189231010001
 30
0.0
 10
55.4899824868
 20
67.38945375219995
 30
0.0
 10
55.55880866119998
 20
67.3894564065
 30
0.0
  0
SPLINE
  5
93E66
330
1F
100
AcDbEntity
  8
1
100
AcDbSpline
210
0.0
220
0.0
230
1.0
 70
     8
 71
     3
 72
    15
 73
    11
 74
     0
 42
0.000000001
 43
0.0000000001
 40
0.0
 40
0.0
 40
0.0
 40
0.0
 40
0.1246275983
 40
0.2493687812
 40
0.3743268631
 40
0.499488389
 40
0.6247628640000002
 40
0.7500137458000001
 40
0.8751083174999999
 40
1.0
 40
1.0
 40
1.0
 40
1.0
 10
57.90722615529998
 20
67.93494196530002
 30
0.0
 10
57.94262068909995
 20
67.93494443890001
 30
0.0
 10
58.01398004739997
 20
67.94667125760003
 30
0.0
 10
58.10937146309999
 20
67.99758695870003
 30
0.0
 10
58.18368409869997
 20
68.07645867690002
 30
0.0
 10
58.22904070419998
 20
68.1750102373
 30
0.0
 10
58.24075933529996
 20
68.2829410192
 30
0.0
 10
58.21760181839993
 20
68.38900868359994
 30
0.0
 10
58.16208057849997
 20
68.48207381619997
 30
0.0
 10
58.10699111999998
 20
68.5291791967
 30
0.0
 10
58.07665848659997
 20
68.54756449590002
 30
0.0
  0
SPLINE
  5
93E67
330
1F
100
AcDbEntity
  8
1
100
AcDbSpline
210
0.0
220
0.0
230
1.0
 70
     8
 71
     3
 72
    15
 73
    11
 74
     0
 42
0.000000001
 43
0.0000000001
 40
0.0
 40
0.0
 40
0.0
 40
0.0
 40
0.1246345217
 40
0.2493730214
 40
0.3743322737
 40
0.4994940074
 40
0.6247675568
 40
0.7500176067000001
 40
0.8751071105999999
 40
1.0
 40
1.0
 40
1.0
 40
1.0
 10
57.72042525979996
 20
67.934944916
 30
0.0
 10
57.75576603249994
 20
67.93509510480004
 30
0.0
 10
57.82696505119996
 20
67.94707656910003
 30
0.0
 10
57.9220284256
 20
67.99823555660004
 30
0.0
 10
57.99600296419999
 20
68.07718390619999
 30
0.0
 10
58.04104929620002
 20
68.1756840564
 30
0.0
 10
58.05256652829996
 20
68.28345908080001
 30
0.0
 10
58.02930101549997
 20
68.38932159519996
 30
0.0
 10
57.97380515479995
 20
68.48219474699999
 30
0.0
 10
57.91879269729998
 20
68.52920779890002
 30
0.0
 10
57.88850725279997
 20
68.54756449590002
 30
0.0
  0
SPLINE
  5
93E68
330
1F
100
AcDbEntity
  8
1
100
AcDbSpline
210
0.0
220
0.0
230
1.0
 70
     8
 71
     3
 72
    15
 73
    11
 74
     0
 42
0.000000001
 43
0.0000000001
 40
0.0
 40
0.0
 40
0.0
 40
0.0
 40
0.1246781799
 40
0.249388496
 40
0.3741995334000001
 40
0.4991300796
 40
0.6241929622
 40
0.7493813053000002
 40
0.8746591581
 40
1.0
 40
1.0
 40
1.0
 40
1.0
 10
57.89567356519999
 20
67.93500007950001
 30
0.0
 10
57.84270340139993
 20
67.93499780579998
 30
0.0
 10
57.73645930629999
 20
67.92461774269998
 30
0.0
 10
57.58331852899999
 20
67.87846788179996
 30
0.0
 10
57.44184673219996
 20
67.80350264000003
 30
0.0
 10
57.31742950199998
 20
67.70252173590001
 30
0.0
 10
57.21470585219996
 20
67.57933515119998
 30
0.0
 10
57.13753655839997
 20
67.43854225040002
 30
0.0
 10
57.08879652839993
 20
67.28550392139999
 30
0.0
 10
57.07647840859994
 20
67.17895419929999
 30
0.0
 10
57.075478649
 20
67.1257118858
 30
0.0
  0
SPLINE
  5
93E69
330
1F
100
AcDbEntity
  8
1
100
AcDbSpline
210
0.0
220
0.0
230
1.0
 70
     8
 71
     3
 72
    11
 73
     7
 74
     0
 42
0.000000001
 43
0.0000000001
 40
0.0
 40
0.0
 40
0.0
 40
0.0
 40
0.2504866026
 40
0.5005799296
 40
0.7503832890000001
 40
1.0
 40
1.0
 40
1.0
 40
1.0
 10
56.24142131019993
 20
70.44709813669995
 30
0.0
 10
56.22726615029996
 20
70.47233348579997
 30
0.0
 10
56.19214116510001
 20
70.5192616736
 30
0.0
 10
56.12306424579998
 20
70.57323317980001
 30
0.0
 10
56.04237548569995
 20
70.6072471896
 30
0.0
 10
55.98439608489996
 20
70.61497840230003
 30
0.0
 10
55.95556230819994
 20
70.61498064610002
 30
0.0
  0
SPLINE
  5
93E6A
330
1F
100
AcDbEntity
  8
1
100
AcDbSpline
210
0.0
220
0.0
230
1.0
 70
     8
 71
     3
 72
    11
 73
     7
 74
     0
 42
0.000000001
 43
0.0000000001
 40
0.0
 40
0.0
 40
0.0
 40
0.0
 40
0.2493724826
 40
0.4991082902000001
 40
0.7493605645
 40
1.0
 40
1.0
 40
1.0
 40
1.0
 10
56.747344909
 20
66.80194195830001
 30
0.0
 10
56.78953167419996
 20
66.80193867539998
 30
0.0
 10
56.87487557909998
 20
66.81873386149999
 30
0.0
 10
56.98311626069994
 20
66.89055214530004
 30
0.0
 10
57.0564450419
 20
66.99800940900002
 30
0.0
 10
57.07468260109999
 20
67.08331826109994
 30
0.0
 10
57.075478649
 20
67.1257118858
 30
0.0
  0
SPLINE
  5
93E6B
330
1F
100
AcDbEntity
  8
1
100
AcDbSpline
210
0.0
220
0.0
230
1.0
 70
     8
 71
     3
 72
    11
 73
     7
 74
     0
 42
0.000000001
 43
0.0000000001
 40
0.0
 40
0.0
 40
0.0
 40
0.0
 40
0.2494300813
 40
0.4992617048
 40
0.7494793831000001
 40
1.0
 40
1.0
 40
1.0
 40
1.0
 10
56.65355190439999
 20
66.81587684329997
 30
0.0
 10
56.68644826649995
 20
66.82580302609998
 30
0.0
 10
56.74957289489999
 20
66.85637417489997
 30
0.0
 10
56.82504719569994
 20
66.92924430800002
 30
0.0
 10
56.87444766039996
 20
67.02195814320003
 30
0.0
 10
56.88667948749998
 20
67.09120642519997
 30
0.0
 10
56.8873274151
 20
67.1257118858
 30
0.0
  0
SPLINE
  5
93E6C
330
1F
100
AcDbEntity
  8
1
100
AcDbSpline
210
0.0
220
0.0
230
1.0
 70
     8
 71
     3
 72
     9
 73
     5
 74
     0
 42
0.000000001
 43
0.0000000001
 40
0.0
 40
0.0
 40
0.0
 40
0.0
 40
0.4998147769
 40
1.0
 40
1.0
 40
1.0
 40
1.0
 10
55.74695989029999
 20
67.38946015589999
 30
0.0
 10
55.67813231269994
 20
67.38945709230001
 30
0.0
 10
55.5398645331
 20
67.37188932230006
 30
0.0
 10
55.41048616389995
 20
67.32005608290001
 30
0.0
 10
55.35027377089996
 20
67.2866086921
 30
0.0
  0
SPLINE
  5
93E6D
330
1F
100
AcDbEntity
  8
1
100
AcDbSpline
210
0.0
220
0.0
230
1.0
 70
     8
 71
     3
 72
    27
 73
    23
 74
     0
 42
0.000000001
 43
0.0000000001
 40
0.0
 40
0.0
 40
0.0
 40
0.0
 40
0.0624446671
 40
0.093678432
 40
0.124900249
 40
0.1872361382
 40
0.2495479995
 40
0.2807409536
 40
0.3119377418
 40
0.374278972
 40
0.4366690184000002
 40
0.4991216822000001
 40
0.5616412743
 40
0.6242219083000001
 40
0.6868483804000001
 40
0.7182095138
 40
0.7495733836000003
 40
0.8122217326999997
 40
0.8748428891999997
 40
0.9061736674999998
 40
0.9374883943
 40
1.0
 40
1.0
 40
1.0
 40
1.0
 10
54.72223955029996
 20
70.39475392500003
 30
0.0
 10
54.83177074299999
 20
70.50174666949999
 30
0.0
 10
55.01254730519995
 20
70.64659859689999
 30
0.0
 10
55.27744519939997
 20
70.80100484359997
 30
0.0
 10
55.55605352059996
 20
70.92861731789998
 30
0.0
 10
55.92570982409995
 20
71.03561609089998
 30
0.0
 10
56.30912770670001
 20
71.06789800920005
 30
0.0
 10
56.61470842739999
 20
71.04831585829998
 30
0.0
 10
56.91694516870001
 20
70.99876297100002
 30
0.0
 10
57.28356882449998
 20
70.88110541349997
 30
0.0
 10
57.68717123699997
 20
70.6564949374
 30
0.0
 10
58.03949784399994
 20
70.35703409119999
 30
0.0
 10
58.32689941019999
 20
69.99422016809997
 30
0.0
 10
58.53838508459998
 20
69.58212289699997
 30
0.0
 10
58.64463508819994
 20
69.21044085490001
 30
0.0
 10
58.68513468549998
 20
68.90533119060001
 30
0.0
 10
58.69575555939997
 20
68.59766688359997
 30
0.0
 10
58.65260439159992
 20
68.21340943000001
 30
0.0
 10
58.53558755889998
 20
67.8449578789
 30
0.0
 10
58.40063750539997
 20
67.56853493660003
 30
0.0
 10
58.23957846569992
 20
67.30689495109999
 30
0.0
 10
58.09031627339994
 20
67.12927611660001
 30
0.0
 10
57.98066766679994
 20
67.02216867940001
 30
0.0
  0
SPLINE
  5
93E6E
330
1F
100
AcDbEntity
  8
1
100
AcDbSpline
210
0.0
220
0.0
230
1.0
 70
     8
 71
     3
 72
     9
 73
     5
 74
     0
 42
0.000000001
 43
0.0000000001
 40
0.0
 40
0.0
 40
0.0
 40
0.0
 40
0.4998026049
 40
1.0
 40
1.0
 40
1.0
 40
1.0
 10
55.19157235279997
 20
67.24546324409999
 30
0.0
 10
55.21910737019999
 20
67.245461035
 30
0.0
 10
55.27442441639994
 20
67.25249014740001
 30
0.0
 10
55.32618415339992
 20
67.273227147
 30
0.0
 10
55.35027377089996
 20
67.2866086921
 30
0.0
  0
SPLINE
  5
93E6F
330
1F
100
AcDbEntity
  8
1
100
AcDbSpline
210
0.0
220
0.0
230
1.0
 70
     8
 71
     3
 72
     8
 73
     4
 74
     0
 42
0.000000001
 43
0.0000000001
 40
0.0
 40
0.0
 40
0.0
 40
0.0
 40
1.0
 40
1.0
 40
1.0
 40
1.0
 10
55.09723287679996
 20
67.2592313138
 30
0.0
 10
55.1197178572
 20
67.26598096190002
 30
0.0
 10
55.14160007370001
 20
67.27520866600002
 30
0.0
 10
55.16212253699996
 20
67.2866086921
 30
0.0
  0
SPLINE
  5
93E70
330
1F
100
AcDbEntity
  8
1
100
AcDbSpline
210
0.0
220
0.0
230
1.0
 70
     8
 71
     3
 72
     9
 73
     5
 74
     0
 42
0.000000001
 43
0.0000000001
 40
0.0
 40
0.0
 40
0.0
 40
0.0
 40
0.2522519769
 40
1.0
 40
1.0
 40
1.0
 40
1.0
 10
63.49999999999994
 20
74.77899765300003
 30
0.0
 10
63.50041030069997
 20
74.6713227706
 30
0.0
 10
63.50121893499993
 20
74.24446564390001
 30
0.0
 10
63.49872319039997
 20
73.81760176540002
 30
0.0
 10
63.49493599699997
 20
73.49844233549998
 30
0.0
  0
SPLINE
  5
93E71
330
1F
100
AcDbEntity
  8
1
100
AcDbSpline
210
0.0
220
0.0
230
1.0
 70
     8
 71
     3
 72
    15
 73
    11
 74
     0
 42
0.000000001
 43
0.0000000001
 40
0.0
 40
0.0
 40
0.0
 40
0.0
 40
0.1258908974
 40
0.2515351824
 40
0.3767773539
 40
0.5015505753000003
 40
0.6260189870000003
 40
0.7504116941
 40
0.8749889615999999
 40
1.0
 40
1.0
 40
1.0
 40
1.0
 10
63.49999999999994
 20
74.77899765300003
 30
0.0
 10
63.4998085428
 20
74.82924159620004
 30
0.0
 10
63.4899675651
 20
74.9298567882
 30
0.0
 10
63.44718471569996
 20
75.07490970870003
 30
0.0
 10
63.3782057163
 20
75.20904040900001
 30
0.0
 10
63.28555153529999
 20
75.32745678100005
 30
0.0
 10
63.17240103149996
 20
75.42597509019998
 30
0.0
 10
63.04260494679994
 20
75.50110569880001
 30
0.0
 10
62.90068293749992
 20
75.55010383030003
 30
0.0
 10
62.80131966419997
 20
75.56407145790001
 30
0.0
 10
62.75147483409995
 20
75.56626669830001
 30
0.0
  0
SPLINE
  5
93E72
330
1F
100
AcDbEntity
  8
1
100
AcDbSpline
210
0.0
220
0.0
230
1.0
 70
     8
 71
     3
 72
     9
 73
     5
 74
     0
 42
0.000000001
 43
0.0000000001
 40
0.0
 40
0.0
 40
0.0
 40
0.0
 40
0.2501273821
 40
1.0
 40
1.0
 40
1.0
 40
1.0
 10
61.46847241319995
 20
75.62204129330002
 30
0.0
 10
61.57544636799997
 20
75.61745138240002
 30
0.0
 10
62.00312166279997
 20
75.59904030320002
 30
0.0
 10
62.43078667339995
 20
75.5803902815
 30
0.0
 10
62.75147483409995
 20
75.56626669830001
 30
0.0
  0
SPLINE
  5
93E73
330
1F
100
AcDbEntity
  8
1
100
AcDbSpline
210
0.0
220
0.0
230
1.0
 70
     8
 71
     3
 72
     9
 73
     5
 74
     0
 42
0.000000001
 43
0.0000000001
 40
0.0
 40
0.0
 40
0.0
 40
0.0
 40
0.2480572354
 40
1.0
 40
1.0
 40
1.0
 40
1.0
 10
54.96401954469996
 20
75.73332072510004
 30
0.0
 10
55.49744761199995
 20
75.72429731009998
 30
0.0
 10
57.6478716335
 20
75.6879615121
 30
0.0
 10
59.79828996679995
 20
75.65128974980002
 30
0.0
 10
61.4152801285
 20
75.6236366238
 30
0.0
  0
SPLINE
  5
93E74
330
1F
100
AcDbEntity
  8
1
100
AcDbSpline
210
0.0
220
0.0
230
1.0
 70
     8
 71
     3
 72
    11
 73
     7
 74
     0
 42
0.000000001
 43
0.0000000001
 40
0.0
 40
0.0
 40
0.0
 40
0.0
 40
0.1243900272
 40
0.2489570627
 40
0.4986651006000001
 40
1.0
 40
1.0
 40
1.0
 40
1.0
 10
53.64495989459999
 20
75.54116356029999
 30
0.0
 10
53.55837943269996
 20
75.49404098830001
 30
0.0
 10
53.38496095859994
 20
75.39997586519996
 30
0.0
 10
53.03781789919997
 20
75.21116268570003
 30
0.0
 10
52.42838922469996
 20
74.8793989161
 30
0.0
 10
51.90596577459996
 20
74.59427111849999
 30
0.0
 10
51.55734932409996
 20
74.40374062679996
 30
0.0
  0
LINE
  5
93E75
330
1F
100
AcDbEntity
  8
1
100
AcDbLine
 10
48.42630440659997
 20
72.6858132072
 30
0.0
 11
47.99757932459995
 21
72.44963649509998
 31
0.0
  0
SPLINE
  5
93E76
330
1F
100
AcDbEntity
  8
1
100
AcDbSpline
210
0.0
220
0.0
230
1.0
 70
     8
 71
     3
 72
     9
 73
     5
 74
     0
 42
0.000000001
 43
0.0000000001
 40
0.0
 40
0.0
 40
0.0
 40
0.0
 40
0.2497890141
 40
1.0
 40
1.0
 40
1.0
 40
1.0
 10
47.95137884209998
 20
72.42338765609995
 30
0.0
 10
47.859083236
 20
72.36933764590003
 30
0.0
 10
47.4899522756
 20
72.15233527550006
 30
0.0
 10
47.12225176479996
 20
71.93289922339997
 30
0.0
 10
46.84724040639998
 20
71.76688798140003
 30
0.0
  0
SPLINE
  5
93E77
330
1F
100
AcDbEntity
  8
1
100
AcDbSpline
210
0.0
220
0.0
230
1.0
 70
     8
 71
     3
 72
     9
 73
     5
 74
     0
 42
0.000000001
 43
0.0000000001
 40
0.0
 40
0.0
 40
0.0
 40
0.0
 40
0.5004166009000001
 40
1.0
 40
1.0
 40
1.0
 40
1.0
 10
46.84724040639998
 20
71.76688798140003
 30
0.0
 10
46.80748782059999
 20
71.74289124109998
 30
0.0
 10
46.73217976909994
 20
71.68773068740003
 30
0.0
 10
46.66789907749995
 20
71.62004593329995
 30
0.0
 10
46.63908068319995
 20
71.58373563410006
 30
0.0
  0
SPLINE
  5
93E78
330
1F
100
AcDbEntity
  8
1
100
AcDbSpline
210
0.0
220
0.0
230
1.0
 70
     8
 71
     3
 72
     9
 73
     5
 74
     0
 42
0.000000001
 43
0.0000000001
 40
0.0
 40
0.0
 40
0.0
 40
0.0
 40
0.2514746244999999
 40
1.0
 40
1.0
 40
1.0
 40
1.0
 10
46.6068654851
 20
70.62556548980001
 30
0.0
 10
46.65259223549997
 20
70.53948335640001
 30
0.0
 10
46.83494772849996
 20
70.19745098899996
 30
0.0
 10
47.01940307999996
 20
69.85653797910001
 30
0.0
 10
47.15866880739997
 20
69.60201334969998
 30
0.0
  0
SPLINE
  5
93E79
330
1F
100
AcDbEntity
  8
1
100
AcDbSpline
210
0.0
220
0.0
230
1.0
 70
     8
 71
     3
 72
    15
 73
    11
 74
     0
 42
0.000000001
 43
0.0000000001
 40
0.0
 40
0.0
 40
0.0
 40
0.0
 40
0.0306728881
 40
0.0613734024
 40
0.1229243671
 40
0.2465609883
 40
0.370836196
 40
0.4956927863000001
 40
0.7469522514
 40
1.0
 40
1.0
 40
1.0
 40
1.0
 10
63.05666741779997
 20
66.38163060019997
 30
0.0
 10
63.03026152019999
 20
66.33436537459999
 30
0.0
 10
62.97768245239996
 20
66.2396493114
 30
0.0
 10
62.87205777739996
 20
66.05011844590001
 30
0.0
 10
62.68643840560001
 20
65.71731506240005
 30
0.0
 10
62.41973807369999
 20
65.24061059719993
 30
0.0
 10
62.09768283779997
 20
64.66683527290001
 30
0.0
 10
61.66431425019993
 20
63.89721135420001
 30
0.0
 10
61.11757820329994
 20
62.9305685772
 30
0.0
 10
60.67758897989995
 20
62.15674833910004
 30
0.0
 10
60.45641285549999
 20
61.76869518970001
 30
0.0
  0
SPLINE
  5
93E7A
330
1F
100
AcDbEntity
  8
1
100
AcDbSpline
210
0.0
220
0.0
230
1.0
 70
     8
 71
     3
 72
    10
 73
     6
 74
     0
 42
0.000000001
 43
0.0000000001
 40
0.0
 40
0.0
 40
0.0
 40
0.0
 40
0.2504741689
 40
0.5017581817
 40
1.0
 40
1.0
 40
1.0
 40
1.0
 10
54.38555141989997
 20
75.7335471536
 30
0.0
 10
54.32109948629993
 20
75.73354629689998
 30
0.0
 10
54.19179665829997
 20
75.7250935244
 30
0.0
 10
53.93889727749996
 20
75.67510609160001
 30
0.0
 10
53.75756896909996
 20
75.60245255219998
 30
0.0
 10
53.64495989459999
 20
75.54116356029999
 30
0.0
  0
SPLINE
  5
93E7B
330
1F
100
AcDbEntity
  8
1
100
AcDbSpline
210
0.0
220
0.0
230
1.0
 70
     8
 71
     3
 72
    19
 73
    15
 74
     0
 42
0.000000001
 43
0.0000000001
 40
0.0
 40
0.0
 40
0.0
 40
0.0
 40
0.1285559336
 40
0.1922109121
 40
0.2551539131
 40
0.2862892044
 40
0.3171887844
 40
0.378899672
 40
0.4406892291000001
 40
0.5025529397000002
 40
0.6264981893
 40
0.7507265171
 40
0.8752298109999998
 40
1.0
 40
1.0
 40
1.0
 40
1.0
 10
63.25994032189999
 20
67.13676931079999
 30
0.0
 10
63.26338206949994
 20
67.4073076258
 30
0.0
 10
63.27102402379995
 20
67.8117785396
 30
0.0
 10
63.28624259639994
 20
68.34856497869998
 30
0.0
 10
63.29779582469999
 20
68.68033368250002
 30
0.0
 10
63.3082265612
 20
68.94315708879998
 30
0.0
 10
63.31953950139997
 20
69.20334817870003
 30
0.0
 10
63.33366564359995
 20
69.52799283729999
 30
0.0
 10
63.35037694239996
 20
69.91775421400001
 30
0.0
 10
63.37248031969995
 20
70.43838373700002
 30
0.0
 10
63.3996973192
 20
71.09032379730002
 30
0.0
 10
63.43169824499995
 20
71.87401058429998
 30
0.0
 10
63.4630498105
 20
72.65946117879997
 30
0.0
 10
63.48350064009998
 20
73.18368617269995
 30
0.0
 10
63.49361459109997
 20
73.44608401509998
 30
0.0
  0
SPLINE
  5
93E7C
330
1F
100
AcDbEntity
  8
1
100
AcDbSpline
210
0.0
220
0.0
230
1.0
 70
     8
 71
     3
 72
     8
 73
     4
 74
     0
 42
0.000000001
 43
0.0000000001
 40
0.0
 40
0.0
 40
0.0
 40
0.0
 40
1.0
 40
1.0
 40
1.0
 40
1.0
 10
63.49493599699997
 20
73.49844233549998
 30
0.0
 10
63.49472884839997
 20
73.48098523369998
 30
0.0
 10
63.49428701159997
 20
73.46352939169998
 30
0.0
 10
63.49361459109997
 20
73.44608401509998
 30
0.0
  0
SPLINE
  5
93E7D
330
1F
100
AcDbEntity
  8
1
100
AcDbSpline
210
0.0
220
0.0
230
1.0
 70
     8
 71
     3
 72
     8
 73
     4
 74
     0
 42
0.000000001
 43
0.0000000001
 40
0.0
 40
0.0
 40
0.0
 40
0.0
 40
1.0
 40
1.0
 40
1.0
 40
1.0
 10
61.46847241319995
 20
75.62204129330002
 30
0.0
 10
61.45074998489997
 20
75.62280170610003
 30
0.0
 10
61.43301626929993
 20
75.6233333074
 30
0.0
 10
61.4152801285
 20
75.6236366238
 30
0.0
  0
SPLINE
  5
93E7E
330
1F
100
AcDbEntity
  8
1
100
AcDbSpline
210
0.0
220
0.0
230
1.0
 70
     8
 71
     3
 72
     8
 73
     4
 74
     0
 42
0.000000001
 43
0.0000000001
 40
0.0
 40
0.0
 40
0.0
 40
0.0
 40
1.0
 40
1.0
 40
1.0
 40
1.0
 10
47.99757932459995
 20
72.44963649509998
 30
0.0
 10
47.98206682199998
 20
72.44108763880001
 30
0.0
 10
47.96666301069996
 20
72.43233834729998
 30
0.0
 10
47.95137884209998
 20
72.42338765609995
 30
0.0
  0
SPLINE
  5
93E7F
330
1F
100
AcDbEntity
  8
1
100
AcDbSpline
210
0.0
220
0.0
230
1.0
 70
     8
 71
     3
 72
    10
 73
     6
 74
     0
 42
0.000000001
 43
0.0000000001
 40
0.0
 40
0.0
 40
0.0
 40
0.0
 40
0.4914587778000001
 40
0.7454347154000001
 40
1.0
 40
1.0
 40
1.0
 40
1.0
 10
63.05666741779997
 20
66.38163060019997
 30
0.0
 10
63.11968924319993
 20
66.49443649080001
 30
0.0
 10
63.19418034659998
 20
66.67839607330001
 30
0.0
 10
63.24867320479995
 20
66.9360418725
 30
0.0
 10
63.25908889899995
 20
67.06984327269996
 30
0.0
 10
63.25994032189999
 20
67.13676931079999
 30
0.0
  0
SPLINE
  5
93E80
330
1F
100
AcDbEntity
  8
1
100
AcDbSpline
210
0.0
220
0.0
230
1.0
 70
     8
 71
     3
 72
    15
 73
    11
 74
     0
 42
0.000000001
 43
0.0000000001
 40
0.0
 40
0.0
 40
0.0
 40
0.0
 40
0.1306946342
 40
0.2579304275
 40
0.319720981
 40
0.381069448
 40
0.5040791646000004
 40
0.6274858758000002
 40
0.7512803479000001
 40
1.0
 40
1.0
 40
1.0
 40
1.0
 10
54.19752157679994
 20
75.54116356029999
 30
0.0
 10
53.96458765969999
 20
75.409335322
 30
0.0
 10
53.50569088349999
 20
75.14774095070004
 30
0.0
 10
52.938844301
 20
74.8200176727
 30
0.0
 10
52.49645015129996
 20
74.56079722530003
 30
0.0
 10
52.06172559569996
 20
74.30560836949997
 30
0.0
 10
51.51796733749995
 20
73.98690322699997
 30
0.0
 10
50.8637359105
 20
73.60377786449999
 30
0.0
 10
49.9870913188
 20
73.0910020567
 30
0.0
 10
49.32832363429998
 20
72.7062897408
 30
0.0
 10
48.88835568039997
 20
72.44963649509998
 30
0.0
  0
SPLINE
  5
93E81
330
1F
100
AcDbEntity
  8
1
100
AcDbSpline
210
0.0
220
0.0
230
1.0
 70
     8
 71
     3
 72
     9
 73
     5
 74
     0
 42
0.000000001
 43
0.0000000001
 40
0.0
 40
0.0
 40
0.0
 40
0.0
 40
0.2535359667
 40
1.0
 40
1.0
 40
1.0
 40
1.0
 10
47.77479105859995
 20
71.76688798140003
 30
0.0
 10
47.86543904560001
 20
71.82199760700001
 30
0.0
 10
48.22275504389995
 20
72.03972173599999
 30
0.0
 10
48.57918148689996
 20
72.25890623510003
 30
0.0
 10
48.84470187369996
 20
72.42338765609995
 30
0.0
  0
SPLINE
  5
93E82
330
1F
100
AcDbEntity
  8
1
100
AcDbSpline
210
0.0
220
0.0
230
1.0
 70
     8
 71
     3
 72
    15
 73
    11
 74
     0
 42
0.000000001
 43
0.0000000001
 40
0.0
 40
0.0
 40
0.0
 40
0.0
 40
0.1239267395
 40
0.2482216043
 40
0.3727500954
 40
0.4974990382000001
 40
0.6225909123
 40
0.7480783638
 40
0.8739268054000001
 40
1.0
 40
1.0
 40
1.0
 40
1.0
 10
47.77479105859995
 20
71.76688798140003
 30
0.0
 10
47.73232996629997
 20
71.74107367509998
 30
0.0
 10
47.6520400604
 20
71.68105027600001
 30
0.0
 10
47.55083717639997
 20
71.56989235330001
 30
0.0
 10
47.47228224939999
 20
71.4412691499
 30
0.0
 10
47.41933806839995
 20
71.29984277739999
 30
0.0
 10
47.39374771519999
 20
71.1506377369
 30
0.0
 10
47.39638121249993
 20
70.99883092000005
 30
0.0
 10
47.42712286199995
 20
70.84980313789998
 30
0.0
 10
47.46570430099999
 20
70.75570165940002
 30
0.0
 10
47.48913753559995
 20
70.71090784099997
 30
0.0
  0
SPLINE
  5
93E83
330
1F
100
AcDbEntity
  8
1
100
AcDbSpline
210
0.0
220
0.0
230
1.0
 70
     8
 71
     3
 72
     9
 73
     5
 74
     0
 42
0.000000001
 43
0.0000000001
 40
0.0
 40
0.0
 40
0.0
 40
0.0
 40
0.2465894638
 40
1.0
 40
1.0
 40
1.0
 40
1.0
 10
48.06679968609994
 20
69.57496075699999
 30
0.0
 10
48.02043083960001
 20
69.6688907921
 30
0.0
 10
47.83122214109994
 20
70.04922994949999
 30
0.0
 10
47.63749311449996
 20
70.42731861439998
 30
0.0
 10
47.48913753559995
 20
70.71090784099997
 30
0.0
  0
SPLINE
  5
93E84
330
1F
100
AcDbEntity
  8
1
100
AcDbSpline
210
0.0
220
0.0
230
1.0
 70
     8
 71
     3
 72
     9
 73
     5
 74
     0
 42
0.000000001
 43
0.0000000001
 40
0.0
 40
0.0
 40
0.0
 40
0.0
 40
0.247392162
 40
1.0
 40
1.0
 40
1.0
 40
1.0
 10
50.3353169068
 20
65.21991856429996
 30
0.0
 10
50.15183421249995
 20
65.57610545260001
 30
0.0
 10
49.40825145589997
 20
67.01488501890003
 30
0.0
 10
48.65781334469994
 20
68.45011526389999
 30
0.0
 10
48.0903044442
 20
69.52884045560001
 30
0.0
  0
SPLINE
  5
93E85
330
1F
100
AcDbEntity
  8
1
100
AcDbSpline
210
0.0
220
0.0
230
1.0
 70
     8
 71
     3
 72
     9
 73
     5
 74
     0
 42
0.000000001
 43
0.0000000001
 40
0.0
 40
0.0
 40
0.0
 40
0.0
 40
0.4992760475
 40
1.0
 40
1.0
 40
1.0
 40
1.0
 10
54.93723737899994
 20
75.73354722279998
 30
0.0
 10
54.80896009009999
 20
75.733546187
 30
0.0
 10
54.55084547870001
 20
75.7021162474
 30
0.0
 10
54.30948386449995
 20
75.60452827469998
 30
0.0
 10
54.19752157679994
 20
75.54116356029999
 30
0.0
  0
SPLINE
  5
93E86
330
1F
100
AcDbEntity
  8
1
100
AcDbSpline
210
0.0
220
0.0
230
1.0
 70
     8
 71
     3
 72
     8
 73
     4
 74
     0
 42
0.000000001
 43
0.0000000001
 40
0.0
 40
0.0
 40
0.0
 40
0.0
 40
1.0
 40
1.0
 40
1.0
 40
1.0
 10
48.06679968609994
 20
69.57496075699999
 30
0.0
 10
48.0744376097
 20
69.55948850599998
 30
0.0
 10
48.08227075239995
 20
69.54411095739999
 30
0.0
 10
48.0903044442
 20
69.52884045560001
 30
0.0
  0
SPLINE
  5
93E87
330
1F
100
AcDbEntity
  8
1
100
AcDbSpline
210
0.0
220
0.0
230
1.0
 70
     8
 71
     3
 72
     8
 73
     4
 74
     0
 42
0.000000001
 43
0.0000000001
 40
0.0
 40
0.0
 40
0.0
 40
0.0
 40
1.0
 40
1.0
 40
1.0
 40
1.0
 10
48.84470187369996
 20
72.42338765609995
 30
0.0
 10
48.85913602659994
 20
72.432329154
 30
0.0
 10
48.8736894333
 20
72.44108100860003
 30
0.0
 10
48.88835568039997
 20
72.44963649509998
 30
0.0
  0
SPLINE
  5
93E88
330
1F
100
AcDbEntity
  8
1
100
AcDbSpline
210
0.0
220
0.0
230
1.0
 70
     8
 71
     3
 72
    10
 73
     6
 74
     0
 42
0.000000001
 43
0.0000000001
 40
0.0
 40
0.0
 40
0.0
 40
0.0
 40
0.2406944394
 40
0.4952632854
 40
1.0
 40
1.0
 40
1.0
 40
1.0
 10
59.75362110279997
 20
62.27674392239999
 30
0.0
 10
59.46172632619997
 20
62.47731450309995
 30
0.0
 10
58.83685345589999
 20
62.85557443940001
 30
0.0
 10
57.50657620819993
 20
63.48837275840003
 30
0.0
 10
56.43589261339997
 20
63.82997086400003
 30
0.0
 10
55.71384718519993
 20
64.0038195539
 30
0.0
  0
SPLINE
  5
93E89
330
1F
100
AcDbEntity
  8
1
100
AcDbSpline
210
0.0
220
0.0
230
1.0
 70
     8
 71
     3
 72
    18
 73
    14
 74
     0
 42
0.000000001
 43
0.0000000001
 40
0.0
 40
0.0
 40
0.0
 40
0.0
 40
0.042769045
 40
0.0690509305
 40
0.0994157733
 40
0.1344752244
 40
0.174837768
 40
0.2211226047
 40
0.2739672414999999
 40
0.4019379117000001
 40
0.5638676929999999
 40
0.7634162488
 40
1.0
 40
1.0
 40
1.0
 40
1.0
 10
61.71384718519994
 20
60.36262294419995
 30
0.0
 10
61.71384718519994
 20
60.40241682890002
 30
0.0
 10
61.7008285535
 20
60.46667313760003
 30
0.0
 10
61.66687018010001
 20
60.55269690620002
 30
0.0
 10
61.62751170289997
 20
60.62860320649996
 30
0.0
 10
61.57498182839995
 20
60.7119316989
 30
0.0
 10
61.50807134149999
 20
60.80338958879997
 30
0.0
 10
61.42548779569995
 20
60.90359067100003
 30
0.0
 10
61.2832398992
 20
61.0599357589
 30
0.0
 10
61.05343373389996
 20
61.28150414300002
 30
0.0
 10
60.7066949833
 20
61.57703591729999
 30
0.0
 10
60.26597365879997
 20
61.91705685559997
 30
0.0
 10
59.93504536839996
 20
62.1520812933
 30
0.0
 10
59.75362110279997
 20
62.27674392239999
 30
0.0
  0
LINE
  5
93E8A
330
1F
100
AcDbEntity
  8
1
100
AcDbLine
 10
51.32481510209996
 20
74.83409323910001
 30
0.0
 11
51.20243635939999
 21
74.90714593199999
 31
0.0
  0
SPLINE
  5
93E8B
330
1F
100
AcDbEntity
  8
1
100
AcDbSpline
210
0.0
220
0.0
230
1.0
 70
     8
 71
     3
 72
    18
 73
    14
 74
     0
 42
0.000000001
 43
0.0000000001
 40
0.0
 40
0.0
 40
0.0
 40
0.0
 40
0.2145226691
 40
0.4077599174000003
 40
0.5770668417
 40
0.7201172142
 40
0.8349604523
 40
0.8813185626999999
 40
0.9201065025
 40
0.9512377155999999
 40
0.9747047258
 40
0.9906791278
 40
1.0
 40
1.0
 40
1.0
 40
1.0
 10
49.65094331079995
 20
75.11834781689998
 30
0.0
 10
49.56427230989999
 20
75.12174375869998
 30
0.0
 10
49.39956441679999
 20
75.12914510179993
 30
0.0
 10
49.16662987659996
 20
75.14274182410003
 30
0.0
 10
48.96274916999993
 20
75.1578366306
 30
0.0
 10
48.79076776659997
 20
75.17396396559998
 30
0.0
 10
48.66859256699996
 20
75.18864436859994
 30
0.0
 10
48.58868401399996
 20
75.20099574810001
 30
0.0
 10
48.54242378269995
 20
75.20958248990002
 30
0.0
 10
48.50567010189997
 20
75.21797903769999
 30
0.0
 10
48.47816354799998
 20
75.22636977510001
 30
0.0
 10
48.46036612229994
 20
75.23402141920001
 30
0.0
 10
48.45171830800001
 20
75.24103629629997
 30
0.0
 10
48.45052873969996
 20
75.24461231969997
 30
0.0
  0
SPLINE
  5
93E8C
330
1F
100
AcDbEntity
  8
1
100
AcDbSpline
210
0.0
220
0.0
230
1.0
 70
     8
 71
     3
 72
    15
 73
    11
 74
     0
 42
0.000000001
 43
0.0000000001
 40
0.0
 40
0.0
 40
0.0
 40
0.0
 40
0.0271129115
 40
0.0586756807
 40
0.1359834585
 40
0.2329850566
 40
0.3498533887
 40
0.4861448406
 40
0.6409068922
 40
1.0
 40
1.0
 40
1.0
 40
1.0
 10
51.20243635939999
 20
74.90714593199999
 30
0.0
 10
51.19021369399995
 20
74.9144266339
 30
0.0
 10
51.16275926539998
 20
74.92850801809999
 30
0.0
 10
51.09660937880001
 20
74.95541173879994
 30
0.0
 10
50.99265106829998
 20
74.9856517604
 30
0.0
 10
50.84299084459996
 20
75.01674384969994
 30
0.0
 10
50.66126974779995
 20
75.04438469219997
 30
0.0
 10
50.44855066969995
 20
75.06848780799998
 30
0.0
 10
50.10858255709996
 20
75.09723085889999
 30
0.0
 10
49.83922382509996
 20
75.11097054500004
 30
0.0
 10
49.65094331079995
 20
75.11834781689998
 30
0.0
  0
SPLINE
  5
93E8D
330
1F
100
AcDbEntity
  8
1
100
AcDbSpline
210
0.0
220
0.0
230
1.0
 70
     8
 71
     3
 72
     9
 73
     5
 74
     0
 42
0.000000001
 43
0.0000000001
 40
0.0
 40
0.0
 40
0.0
 40
0.0
 40
0.4740886455
 40
1.0
 40
1.0
 40
1.0
 40
1.0
 10
35.94349053839994
 20
67.90473494590003
 30
0.0
 10
36.22481024929994
 20
67.906815736
 30
0.0
 10
36.81828425499996
 20
67.90108004870001
 30
0.0
 10
37.41139469639995
 20
67.88100930169997
 30
0.0
 10
37.72318830769999
 20
67.86765767679998
 30
0.0
  0
SPLINE
  5
93E8E
330
1F
100
AcDbEntity
  8
1
100
AcDbSpline
210
0.0
220
0.0
230
1.0
 70
     8
 71
     3
 72
    18
 73
    14
 74
     0
 42
0.000000001
 43
0.0000000001
 40
0.0
 40
0.0
 40
0.0
 40
0.0
 40
0.1997848211
 40
0.3812934786
 40
0.5423777967
 40
0.6811561051
 40
0.7417208950000001
 40
0.7962112229000004
 40
0.8445672355999999
 40
0.8867901351
 40
0.9229964864999999
 40
0.9535006999
 40
1.0
 40
1.0
 40
1.0
 40
1.0
 10
35.94349053839994
 20
67.90473494590003
 30
0.0
 10
35.85076841059996
 20
67.79876842909999
 30
0.0
 10
35.67107322710001
 20
67.59889141709999
 30
0.0
 10
35.406276241
 20
67.32308284590004
 30
0.0
 10
35.1616897431
 20
67.08783136439999
 30
0.0
 10
34.96981913879999
 20
66.92108353179998
 30
0.0
 10
34.82851651210001
 20
66.81128934079999
 30
0.0
 10
34.73456735050002
 20
66.74460716840002
 30
0.0
 10
34.64807877649997
 20
66.68993066030004
 30
0.0
 10
34.56945197409993
 20
66.64740913380001
 30
0.0
 10
34.49856313819998
 20
66.61710658320004
 30
0.0
 10
34.42230079199999
 20
66.59498628850002
 30
0.0
 10
34.36481004019999
 20
66.59273766639997
 30
0.0
 10
34.33394477100002
 20
66.60375346840004
 30
0.0
  0
SPLINE
  5
93E8F
330
1F
100
AcDbEntity
  8
1
100
AcDbSpline
210
0.0
220
0.0
230
1.0
 70
     8
 71
     3
 72
     9
 73
     5
 74
     0
 42
0.000000001
 43
0.0000000001
 40
0.0
 40
0.0
 40
0.0
 40
0.0
 40
0.2387906461
 40
1.0
 40
1.0
 40
1.0
 40
1.0
 10
47.42278998499995
 20
72.71285714660002
 30
0.0
 10
47.45578695219996
 20
72.71765921690001
 30
0.0
 10
47.59433760489996
 20
72.73512205740002
 30
0.0
 10
47.73434197719999
 20
72.7414042949
 30
0.0
 10
47.84061670519998
 20
72.73934139739998
 30
0.0
  0
SPLINE
  5
93E90
330
1F
100
AcDbEntity
  8
1
100
AcDbSpline
210
0.0
220
0.0
230
1.0
 70
     8
 71
     3
 72
    12
 73
     8
 74
     0
 42
0.000000001
 43
0.0000000001
 40
0.0
 40
0.0
 40
0.0
 40
0.0
 40
0.375562025
 40
0.6494539576000001
 40
0.8514443385999999
 40
0.9315972985
 40
1.0
 40
1.0
 40
1.0
 40
1.0
 10
40.12828722129995
 20
67.4872530665
 30
0.0
 10
39.83030457599998
 20
67.55286653109999
 30
0.0
 10
39.3131632485
 20
67.6582798485
 30
0.0
 10
38.63093675629995
 20
67.77331297900002
 30
0.0
 10
38.18283748679994
 20
67.83184284050003
 30
0.0
 10
37.89919571889993
 20
67.85778723230004
 30
0.0
 10
37.77871039209998
 20
67.86528011030004
 30
0.0
 10
37.72318830769999
 20
67.86765767679998
 30
0.0
  0
SPLINE
  5
93E91
330
1F
100
AcDbEntity
  8
1
100
AcDbSpline
210
0.0
220
0.0
230
1.0
 70
     8
 71
     3
 72
     8
 73
     4
 74
     0
 42
0.000000001
 43
0.0000000001
 40
0.0
 40
0.0
 40
0.0
 40
0.0
 40
1.0
 40
1.0
 40
1.0
 40
1.0
 10
47.87723713209999
 20
72.95528128940003
 30
0.0
 10
47.85691130509996
 20
72.94770429480002
 30
0.0
 10
47.83672548159993
 20
72.93974064150001
 30
0.0
 10
47.81670095649995
 20
72.93139986919995
 30
0.0
  0
LINE
  5
93E92
330
1F
100
AcDbEntity
  8
1
100
AcDbLine
 10
52.02618060329996
 20
64.840988122
 30
0.0
 11
51.97382338399996
 21
64.85277956509998
 31
0.0
  0
SPLINE
  5
93E93
330
1F
100
AcDbEntity
  8
1
100
AcDbSpline
210
0.0
220
0.0
230
1.0
 70
     8
 71
     3
 72
     9
 73
     5
 74
     0
 42
0.000000001
 43
0.0000000001
 40
0.0
 40
0.0
 40
0.0
 40
0.0
 40
0.2494151577
 40
1.0
 40
1.0
 40
1.0
 40
1.0
 10
55.71384718519993
 20
64.0038195539
 30
0.0
 10
55.69264488989995
 20
64.0089244838
 30
0.0
 10
55.60760358260001
 20
64.0292536815
 30
0.0
 10
55.52242919369996
 20
64.04902627090002
 30
0.0
 10
55.4584272661
 20
64.06355000259996
 30
0.0
  0
SPLINE
  5
93E94
330
1F
100
AcDbEntity
  8
1
100
AcDbSpline
210
0.0
220
0.0
230
1.0
 70
     8
 71
     3
 72
     9
 73
     5
 74
     0
 42
0.000000001
 43
0.0000000001
 40
0.0
 40
0.0
 40
0.0
 40
0.0
 40
0.251096127
 40
1.0
 40
1.0
 40
1.0
 40
1.0
 10
49.78644802719995
 20
65.34276768120003
 30
0.0
 10
49.72130174269995
 20
65.460151935
 30
0.0
 10
49.46265263379996
 20
65.92808195960003
 30
0.0
 10
49.20711151049997
 20
66.39772981370004
 30
0.0
 10
49.01749024929995
 20
66.7503896019
 30
0.0
  0
SPLINE
  5
93E95
330
1F
100
AcDbEntity
  8
1
100
AcDbSpline
210
0.0
220
0.0
230
1.0
 70
     8
 71
     3
 72
    21
 73
    17
 74
     0
 42
0.000000001
 43
0.0000000001
 40
0.0
 40
0.0
 40
0.0
 40
0.0
 40
0.0617211052
 40
0.1235107892
 40
0.1854189198
 40
0.2474847718
 40
0.3097332271
 40
0.3721744039
 40
0.4348029851
 40
0.4975982306000001
 40
0.6232324063
 40
0.7490097514000002
 40
0.8119753197999999
 40
0.8748200221999999
 40
0.9375037383
 40
1.0
 40
1.0
 40
1.0
 40
1.0
 10
47.68170321819994
 20
69.23470158500004
 30
0.0
 10
47.59561426789995
 20
69.27574954670001
 30
0.0
 10
47.42923638749993
 20
69.37096456679999
 30
0.0
 10
47.20367922569994
 20
69.54926739379999
 30
0.0
 10
47.00641724819994
 20
69.7592432231
 30
0.0
 10
46.84154289369995
 20
69.99632693699999
 30
0.0
 10
46.71231165719996
 20
70.25548168350002
 30
0.0
 10
46.62122278509996
 20
70.53125802770003
 30
0.0
 10
46.57008270319994
 20
70.81804856659997
 30
0.0
 10
46.55642478089997
 20
71.20683643980004
 30
0.0
 10
46.64253398599996
 20
71.69163108480001
 30
0.0
 10
46.86047402449998
 20
72.13354098629998
 30
0.0
 10
47.10284096489997
 20
72.43892315429997
 30
0.0
 10
47.31536838459999
 20
72.63964513140002
 30
0.0
 10
47.5539390727
 20
72.80715652240002
 30
0.0
 10
47.72746403209999
 20
72.89448200949999
 30
0.0
 10
47.81670095649995
 20
72.93139986919995
 30
0.0
  0
SPLINE
  5
93E96
330
1F
100
AcDbEntity
  8
1
100
AcDbSpline
210
0.0
220
0.0
230
1.0
 70
     8
 71
     3
 72
     8
 73
     4
 74
     0
 42
0.000000001
 43
0.0000000001
 40
0.0
 40
0.0
 40
0.0
 40
0.0
 40
1.0
 40
1.0
 40
1.0
 40
1.0
 10
50.07335066190001
 20
65.4288747164
 30
0.0
 10
50.03226418029999
 20
65.3891492523
 30
0.0
 10
49.99264554179997
 20
65.34785039550001
 30
0.0
 10
49.95462120629998
 20
65.30518470230004
 30
0.0
  0
SPLINE
  5
93E97
330
1F
100
AcDbEntity
  8
1
100
AcDbSpline
210
0.0
220
0.0
230
1.0
 70
     8
 71
     3
 72
     9
 73
     5
 74
     0
 42
0.000000001
 43
0.0000000001
 40
0.0
 40
0.0
 40
0.0
 40
0.0
 40
0.2558703564
 40
1.0
 40
1.0
 40
1.0
 40
1.0
 10
47.84061670519998
 20
72.73934139739998
 30
0.0
 10
47.86501799459998
 20
72.73886774419998
 30
0.0
 10
47.96035807869998
 20
72.73583771770001
 30
0.0
 10
48.05554746460001
 20
72.72825801740002
 30
0.0
 10
48.12606477260001
 20
72.72018503460003
 30
0.0
  0
SPLINE
  5
93E98
330
1F
100
AcDbEntity
  8
1
100
AcDbSpline
210
0.0
220
0.0
230
1.0
 70
     8
 71
     3
 72
     9
 73
     5
 74
     0
 42
0.000000001
 43
0.0000000001
 40
0.0
 40
0.0
 40
0.0
 40
0.0
 40
0.2535882017
 40
1.0
 40
1.0
 40
1.0
 40
1.0
 10
47.28231266759997
 20
72.60288006849998
 30
0.0
 10
47.32074576819994
 20
72.60551234679997
 30
0.0
 10
47.47248895879994
 20
72.6129832517
 30
0.0
 10
47.62478727639996
 20
72.60904681810001
 30
0.0
 10
47.73779500429995
 20
72.5997554685
 30
0.0
  0
SPLINE
  5
93E99
330
1F
100
AcDbEntity
  8
1
100
AcDbSpline
210
0.0
220
0.0
230
1.0
 70
     8
 71
     3
 72
     9
 73
     5
 74
     0
 42
0.000000001
 43
0.0000000001
 40
0.0
 40
0.0
 40
0.0
 40
0.0
 40
0.2496162989
 40
1.0
 40
1.0
 40
1.0
 40
1.0
 10
47.76027152969999
 20
69.08845457449996
 30
0.0
 10
47.77497276600001
 20
69.08346343580001
 30
0.0
 10
47.83411990279996
 20
69.06421775300003
 30
0.0
 10
47.89424882579999
 20
69.04798871410003
 30
0.0
 10
47.93974094569995
 20
69.03756236179997
 30
0.0
  0
SPLINE
  5
93E9A
330
1F
100
AcDbEntity
  8
1
100
AcDbSpline
210
0.0
220
0.0
230
1.0
 70
     8
 71
     3
 72
     9
 73
     5
 74
     0
 42
0.000000001
 43
0.0000000001
 40
0.0
 40
0.0
 40
0.0
 40
0.0
 40
0.5435610942000002
 40
1.0
 40
1.0
 40
1.0
 40
1.0
 10
51.70815514869997
 20
74.14286665920002
 30
0.0
 10
51.69645976179999
 20
74.16415033789997
 30
0.0
 10
51.67617526809999
 20
74.20400252949997
 30
0.0
 10
51.6590943571
 20
74.24536704269994
 30
0.0
 10
51.65239074609994
 20
74.264626599
 30
0.0
  0
SPLINE
  5
93E9B
330
1F
100
AcDbEntity
  8
1
100
AcDbSpline
210
0.0
220
0.0
230
1.0
 70
     8
 71
     3
 72
     9
 73
     5
 74
     0
 42
0.000000001
 43
0.0000000001
 40
0.0
 40
0.0
 40
0.0
 40
0.0
 40
0.2474009401
 40
1.0
 40
1.0
 40
1.0
 40
1.0
 10
51.65239074609994
 20
74.264626599
 30
0.0
 10
51.62059669949994
 20
74.3085616937
 30
0.0
 10
51.496717851
 20
74.48945867000003
 30
0.0
 10
51.39184926510001
 20
74.683349894
 30
0.0
 10
51.32481510209996
 20
74.83409323910001
 30
0.0
  0
SPLINE
  5
93E9C
330
1F
100
AcDbEntity
  8
1
100
AcDbSpline
210
0.0
220
0.0
230
1.0
 70
     8
 71
     3
 72
     8
 73
     4
 74
     0
 42
0.000000001
 43
0.0000000001
 40
0.0
 40
0.0
 40
0.0
 40
0.0
 40
1.0
 40
1.0
 40
1.0
 40
1.0
 10
47.89299246289997
 20
72.73799728860002
 30
0.0
 10
47.84061300139995
 20
72.69265344170003
 30
0.0
 10
47.78885721359993
 20
72.64657771980004
 30
0.0
 10
47.73779500429995
 20
72.5997554685
 30
0.0
  0
SPLINE
  5
93E9D
330
1F
100
AcDbEntity
  8
1
100
AcDbSpline
210
0.0
220
0.0
230
1.0
 70
     8
 71
     3
 72
    29
 73
    25
 74
     0
 42
0.000000001
 43
0.0000000001
 40
0.0
 40
0.0
 40
0.0
 40
0.0
 40
0.001130521
 40
0.0024025275
 40
0.0040827917
 40
0.006294213
 40
0.0090891363
 40
0.0124917733
 40
0.0165136928
 40
0.0211602111
 40
0.0323306644
 40
0.0459936792
 40
0.0621173034
 40
0.0806556095
 40
0.1015516531
 40
0.1247389863
 40
0.1776794587
 40
0.2387870306
 40
0.3072626211
 40
0.3822136321
 40
0.4626682627000001
 40
0.6358873323
 40
0.8180797669
 40
1.0
 40
1.0
 40
1.0
 40
1.0
 10
48.45052873969996
 20
75.24461231969997
 30
0.0
 10
48.45010790999999
 20
75.24587739790002
 30
0.0
 10
48.44997315779997
 20
75.24890512669998
 30
0.0
 10
48.45263326329996
 20
75.25314122099998
 30
0.0
 10
48.45741576139992
 20
75.25697827869994
 30
0.0
 10
48.46437695039998
 20
75.26074327569999
 30
0.0
 10
48.47358606079996
 20
75.26445349220003
 30
0.0
 10
48.48507365169997
 20
75.26812389069997
 30
0.0
 10
48.49884536439997
 20
75.27174590750002
 30
0.0
 10
48.5216890701
 20
75.27682038729999
 30
0.0
 10
48.55595066339995
 20
75.28280965059997
 30
0.0
 10
48.60380162209998
 20
75.28942614160001
 30
0.0
 10
48.66043900879995
 20
75.29580209120002
 30
0.0
 10
48.72567440299997
 20
75.30193124320004
 30
0.0
 10
48.79929281239999
 20
75.30780612980004
 30
0.0
 10
48.91344679239995
 20
75.31564965269996
 30
0.0
 10
49.07505091389996
 20
75.32456486899997
 30
0.0
 10
49.29009933909998
 20
75.33398811570004
 30
0.0
 10
49.53115622830001
 20
75.3426248296
 30
0.0
 10
49.79506278439996
 20
75.35058998490001
 30
0.0
 10
50.18248266129996
 20
75.36070162819999
 30
0.0
 10
50.69638574899997
 20
75.3718542149
 30
0.0
 10
51.32995827139996
 20
75.38363770699999
 30
0.0
 10
51.75930526129997
 20
75.390581822
 30
0.0
 10
51.97382338399996
 20
75.3936944175
 30
0.0
  0
SPLINE
  5
93E9E
330
1F
100
AcDbEntity
  8
1
100
AcDbSpline
210
0.0
220
0.0
230
1.0
 70
     8
 71
     3
 72
     9
 73
     5
 74
     0
 42
0.000000001
 43
0.0000000001
 40
0.0
 40
0.0
 40
0.0
 40
0.0
 40
0.254778521
 40
1.0
 40
1.0
 40
1.0
 40
1.0
 10
52.85048812189995
 20
75.38856629910006
 30
0.0
 10
52.85886850019995
 20
75.36943174000007
 30
0.0
 10
52.89206778799997
 20
75.29446450429998
 30
0.0
 10
52.92660874689996
 20
75.22008457350003
 30
0.0
 10
52.9533624065
 20
75.16515247850003
 30
0.0
  0
SPLINE
  5
93E9F
330
1F
100
AcDbEntity
  8
1
100
AcDbSpline
210
0.0
220
0.0
230
1.0
 70
     8
 71
     3
 72
     8
 73
     4
 74
     0
 42
0.000000001
 43
0.0000000001
 40
0.0
 40
0.0
 40
0.0
 40
0.0
 40
1.0
 40
1.0
 40
1.0
 40
1.0
 10
51.97382338399996
 20
75.3936944175
 30
0.0
 10
51.99127422770001
 20
75.39394762419997
 30
0.0
 10
52.00872801789995
 20
75.39404548969995
 30
0.0
 10
52.02618060329996
 20
75.3939878626
 30
0.0
  0
LINE
  5
93EA0
330
1F
100
AcDbEntity
  8
1
100
AcDbLine
 10
52.85048812189995
 20
75.38856629910006
 30
0.0
 11
53.36493493679999
 21
75.3890351192
 31
0.0
  0
SPLINE
  5
93EA1
330
1F
100
AcDbEntity
  8
1
100
AcDbSpline
210
0.0
220
0.0
230
1.0
 70
     8
 71
     3
 72
    11
 73
     7
 74
     0
 42
0.000000001
 43
0.0000000001
 40
0.0
 40
0.0
 40
0.0
 40
0.0
 40
0.2515785079
 40
0.5022479722
 40
0.7517332656999999
 40
1.0
 40
1.0
 40
1.0
 40
1.0
 10
37.72318830769999
 20
72.76342273860001
 30
0.0
 10
37.85833430289996
 20
72.96113693570004
 30
0.0
 10
38.17455475499995
 20
73.3262679554
 30
0.0
 10
38.7582154178
 20
73.75064502169997
 30
0.0
 10
39.42001595889997
 20
74.0305167404
 30
0.0
 10
39.89224258259998
 20
74.11048464380002
 30
0.0
 10
40.12828722129995
 20
74.12223890660005
 30
0.0
  0
SPLINE
  5
93EA2
330
1F
100
AcDbEntity
  8
1
100
AcDbSpline
210
0.0
220
0.0
230
1.0
 70
     8
 71
     3
 72
     9
 73
     5
 74
     0
 42
0.000000001
 43
0.0000000001
 40
0.0
 40
0.0
 40
0.0
 40
0.0
 40
0.2616778514
 40
1.0
 40
1.0
 40
1.0
 40
1.0
 10
52.02618060329996
 20
75.3939878626
 30
0.0
 10
52.09624139919995
 20
75.39375652699999
 30
0.0
 10
52.36397743109995
 20
75.39270606230002
 30
0.0
 10
52.631712279
 20
75.39093952449997
 30
0.0
 10
52.82937777029997
 20
75.38879706360001
 30
0.0
  0
LINE
  5
93EA3
330
1F
100
AcDbEntity
  8
1
100
AcDbLine
 10
52.82937777029997
 20
75.38879706360001
 30
0.0
 11
52.85048812189995
 21
75.38856629910006
 31
0.0
  0
SPLINE
  5
93EA4
330
1F
100
AcDbEntity
  8
1
100
AcDbSpline
210
0.0
220
0.0
230
1.0
 70
     8
 71
     3
 72
     9
 73
     5
 74
     0
 42
0.000000001
 43
0.0000000001
 40
0.0
 40
0.0
 40
0.0
 40
0.0
 40
0.2520297082
 40
1.0
 40
1.0
 40
1.0
 40
1.0
 10
52.82937819399996
 20
75.3887968416
 30
0.0
 10
52.82229299569997
 20
75.35965905239999
 30
0.0
 10
52.79317730679998
 20
75.24429313929997
 30
0.0
 10
52.76003769049999
 20
75.1299398054
 30
0.0
 10
52.7329542883
 20
75.04516647399999
 30
0.0
  0
SPLINE
  5
93EA5
330
1F
100
AcDbEntity
  8
1
100
AcDbSpline
210
0.0
220
0.0
230
1.0
 70
     8
 71
     3
 72
     8
 73
     4
 74
     0
 42
0.000000001
 43
0.0000000001
 40
0.0
 40
0.0
 40
0.0
 40
0.0
 40
1.0
 40
1.0
 40
1.0
 40
1.0
 10
36.63445447779998
 20
71.1697765321
 30
0.0
 10
36.99722870159997
 20
71.70108553890003
 30
0.0
 10
37.3601428467
 20
72.23229903219999
 30
0.0
 10
37.72318830769999
 20
72.76342273860001
 30
0.0
  0
SPLINE
  5
93EA6
330
1F
100
AcDbEntity
  8
1
100
AcDbSpline
210
0.0
220
0.0
230
1.0
 70
     8
 71
     3
 72
    25
 73
    21
 74
     0
 42
0.000000001
 43
0.0000000001
 40
0.0
 40
0.0
 40
0.0
 40
0.0
 40
0.0073456688
 40
0.0148184113
 40
0.0232057397
 40
0.0330626828
 40
0.0447179794
 40
0.0583526183
 40
0.0740535348
 40
0.0918528559
 40
0.1337248848
 40
0.1837430173
 40
0.241475483
 40
0.306365298
 40
0.3777871192
 40
0.4550653832
 40
0.5374847193
 40
0.6243082694
 40
0.8080798037
 40
1.0
 40
1.0
 40
1.0
 40
1.0
 10
34.33394477100002
 20
66.60375346840004
 30
0.0
 10
34.32186622909995
 20
66.6080642951
 30
0.0
 10
34.29864818949994
 20
66.62084949000001
 30
0.0
 10
34.27201900539996
 20
66.6524024957
 30
0.0
 10
34.25463240539995
 20
66.69436502320002
 30
0.0
 10
34.24567370089994
 20
66.74608087030003
 30
0.0
 10
34.24471426339994
 20
66.80761103190002
 30
0.0
 10
34.25163546939997
 20
66.8789488539
 30
0.0
 10
34.26635384549996
 20
66.95998643769994
 30
0.0
 10
34.29807886979995
 20
67.08776596879997
 30
0.0
 10
34.35848444159999
 20
67.2697555666
 30
0.0
 10
34.45632592499999
 20
67.5120674739
 30
0.0
 10
34.58196619939997
 20
67.7861406957
 30
0.0
 10
34.73370813579999
 20
68.08909173660004
 30
0.0
 10
34.9097108574
 20
68.41789151419999
 30
0.0
 10
35.10791046679998
 20
68.76940004480002
 30
0.0
 10
35.32610414350001
 20
69.14041627180001
 30
0.0
 10
35.64677791809997
 20
69.66677193919998
 30
0.0
 10
36.08095838629996
 20
70.34771748759999
 30
0.0
 10
36.44551176749997
 20
70.89305631010001
 30
0.0
 10
36.63445447779998
 20
71.1697765321
 30
0.0
  0
SPLINE
  5
93EA7
330
1F
100
AcDbEntity
  8
1
100
AcDbSpline
210
0.0
220
0.0
230
1.0
 70
     8
 71
     3
 72
     9
 73
     5
 74
     0
 42
0.000000001
 43
0.0000000001
 40
0.0
 40
0.0
 40
0.0
 40
0.0
 40
0.2686454951
 40
1.0
 40
1.0
 40
1.0
 40
1.0
 10
47.73779500429995
 20
72.5997554685
 30
0.0
 10
47.70352962339996
 20
72.60879403250005
 30
0.0
 10
47.57500056149999
 20
72.6386069216
 30
0.0
 10
47.44300886319993
 20
72.6534842044
 30
0.0
 10
47.34655759899999
 20
72.65558265940001
 30
0.0
  0
SPLINE
  5
93EA8
330
1F
100
AcDbEntity
  8
1
100
AcDbSpline
210
0.0
220
0.0
230
1.0
 70
     8
 71
     3
 72
    11
 73
     7
 74
     0
 42
0.000000001
 43
0.0000000001
 40
0.0
 40
0.0
 40
0.0
 40
0.0
 40
0.2488805079
 40
0.4975459755
 40
0.7474445656000001
 40
1.0
 40
1.0
 40
1.0
 40
1.0
 10
48.89662520559994
 20
73.00743305560001
 30
0.0
 10
48.81344083339996
 20
73.02899347670003
 30
0.0
 10
48.64364304389994
 20
73.05972811750002
 30
0.0
 10
48.38469254179996
 20
73.06676232170002
 30
0.0
 10
48.126423854
 20
73.03401685369997
 30
0.0
 10
47.9589464201
 20
72.9857406077
 30
0.0
 10
47.87723713209999
 20
72.95528128940003
 30
0.0
  0
SPLINE
  5
93EA9
330
1F
100
AcDbEntity
  8
1
100
AcDbSpline
210
0.0
220
0.0
230
1.0
 70
     8
 71
     3
 72
     9
 73
     5
 74
     0
 42
0.000000001
 43
0.0000000001
 40
0.0
 40
0.0
 40
0.0
 40
0.0
 40
0.2545868665
 40
1.0
 40
1.0
 40
1.0
 40
1.0
 10
46.76463679689999
 20
71.70929853040002
 30
0.0
 10
46.75909691019995
 20
71.71454238490007
 30
0.0
 10
46.73743721739994
 20
71.73524578640002
 30
0.0
 10
46.71618674409995
 20
71.75637834669995
 30
0.0
 10
46.70061182079996
 20
71.7723864134
 30
0.0
  0
SPLINE
  5
93EAA
330
1F
100
AcDbEntity
  8
1
100
AcDbSpline
210
0.0
220
0.0
230
1.0
 70
     8
 71
     3
 72
     9
 73
     5
 74
     0
 42
0.000000001
 43
0.0000000001
 40
0.0
 40
0.0
 40
0.0
 40
0.0
 40
0.5222545818
 40
1.0
 40
1.0
 40
1.0
 40
1.0
 10
47.24102613439995
 20
72.00331508120001
 30
0.0
 10
47.18321126159998
 20
72.03463966340001
 30
0.0
 10
47.071166326
 20
72.0921876937
 30
0.0
 10
46.95617168379999
 20
72.14367655679996
 30
0.0
 10
46.90045396719995
 20
72.1663423883
 30
0.0
  0
ELLIPSE
  5
93EAB
330
1F
100
AcDbEntity
  8
1
100
AcDbEllipse
 10
328.870641812
 20
-5.667939977199977
 30
0.0
 11
325.207757334
 21
-80.124579621
 31
0.0
210
0.0
220
0.0
230
1.0
 40
0.0127732821
 41
2.592671571199999
 42
2.666629595400014
  0
ELLIPSE
  5
93EAC
330
1F
100
AcDbEntity
  8
1
100
AcDbEllipse
 10
305.8617532302999
 20
0.0000013179000007
 30
0.0
 11
305.6189714302
 21
-75.29836660159999
 31
0.0
210
0.0
220
0.0
230
1.0
 40
0.0128053716
 41
2.53418865169999
 42
2.554060319199989
  0
ELLIPSE
  5
93EAD
330
1F
100
AcDbEntity
  8
1
100
AcDbEllipse
 10
65.02181956620001
 20
0.1065026301000103
 30
0.0
 11
130.8926629096001
 21
5.276626405000002
 31
0.0
210
0.0
220
0.0
230
1.0
 40
0.5761090363
 41
1.6523826208
 42
1.680542844799999
  0
ELLIPSE
  5
93EAE
330
1F
100
AcDbEntity
  8
1
100
AcDbEllipse
 10
109.5555093221999
 20
0.5867450848000148
 30
0.0
 11
398.6455374542999
 21
6.684215105699997
 31
0.0
210
0.0
220
0.0
230
1.0
 40
0.190131847
 41
1.723492598099999
 42
1.742657851699996
  0
ELLIPSE
  5
93EAF
330
1F
100
AcDbEntity
  8
1
100
AcDbEllipse
 10
51.48283292779996
 20
72.43840069079997
 30
0.0
 11
2.292568200200002
 21
-0.5086636477000011
 31
0.0
210
0.0
220
0.0
230
1.0
 40
0.070005605
 41
3.236751771279239
 42
3.623084091178856
  0
ELLIPSE
  5
93EB0
330
1F
100
AcDbEntity
  8
1
100
AcDbEllipse
 10
43.44596480569992
 20
67.74450956919998
 30
0.0
 11
14.141239351
 21
8.814741274099999
 31
0.0
210
0.0
220
0.0
230
1.0
 40
0.091637225
 41
0.8957767478999889
 42
1.095619434899995
  0
LINE
  5
93EB1
330
1F
100
AcDbEntity
  8
sk3
100
AcDbLine
 10
0.9999998037999944
 20
-19.5499986799
 30
0.0
 11
0.0
 21
-20.5499984736
 31
0.0
  0
LINE
  5
93EB2
330
1F
100
AcDbEntity
  8
sk3
100
AcDbLine
 10
0.9999998037999944
 20
-7.937498682099999
 30
0.0
 11
0.9999998037999944
 21
-19.5499986799
 31
0.0
  0
LINE
  5
93EB3
330
1F
100
AcDbEntity
  8
sk3
100
AcDbLine
 10
8.000000000000056
 20
-7.937498682099999
 30
0.0
 11
8.000000000000056
 21
-19.5499986799
 31
0.0
  0
LINE
  5
93EB4
102
{ACAD_REACTORS
330
93ED8
102
}
330
1F
100
AcDbEntity
  8
sk3
100
AcDbLine
 10
8.000000000000056
 20
-19.0499986799
 30
0.0
 11
25.89046496530006
 21
-19.0499986799
 31
0.0
  0
LINE
  5
93EB5
330
1F
100
AcDbEntity
  8
sk3
100
AcDbLine
 10
39.28689076480003
 20
-19.0499986799
 30
0.0
 11
41.00000019079999
 21
-19.0499986799
 31
0.0
  0
LINE
  5
93EB6
330
1F
100
AcDbEntity
  8
sk3
100
AcDbLine
 10
0.9999998037999944
 20
-19.5499986799
 30
0.0
 11
8.000000000000056
 21
-19.5499986799
 31
0.0
  0
LINE
  5
93EB7
330
1F
100
AcDbEntity
  8
sk3
100
AcDbLine
 10
29.17735573010003
 20
-20.49999867990002
 30
0.0
 11
35.82264426990008
 21
-20.49999867990002
 31
0.0
  0
LINE
  5
93EB8
330
1F
100
AcDbEntity
  8
sk3
100
AcDbLine
 10
36.16073887930003
 20
-20.4250449095
 30
0.0
 11
38.94879615550003
 21
-19.1249524502
 31
0.0
  0
LINE
  5
93EB9
330
1F
100
AcDbEntity
  8
sk3
100
AcDbLine
 10
43.00000000000006
 20
-27.99999867989999
 30
0.0
 11
55.7138471852
 21
-27.99999867989999
 31
0.0
  0
LINE
  5
93EBA
330
1F
100
AcDbEntity
  8
sk3
100
AcDbLine
 10
25.89046496530006
 20
-19.0499986799
 30
0.0
 11
25.89046496530006
 21
0.0000013189999777
 31
0.0
  0
LINE
  5
93EBB
330
1F
100
AcDbEntity
  8
sk3
100
AcDbLine
 10
41.00000019079999
 20
-19.0499986799
 30
0.0
 11
41.00000019079999
 21
0.0000013189999777
 31
0.0
  0
LINE
  5
93EBC
330
1F
100
AcDbEntity
  8
sk3
100
AcDbLine
 10
42.00000000000001
 20
0.0000013189999777
 30
0.0
 11
42.00000000000001
 21
-26.99999867990002
 31
0.0
  0
LINE
  5
93EBD
330
1F
100
AcDbEntity
  8
sk3
100
AcDbLine
 10
57.15507220040002
 20
-59.57917590249997
 30
0.0
 11
61.56677218019993
 21
-66.78723694800004
 31
0.0
  0
LINE
  5
93EBE
330
1F
100
AcDbEntity
  8
sk3
100
AcDbLine
 10
25.89046496530006
 20
-19.0499986799
 30
0.0
 11
28.83926112069998
 21
-20.4250449095
 31
0.0
  0
LINE
  5
93EBF
330
1F
100
AcDbEntity
  8
sk3
100
AcDbLine
 10
41.00000019079999
 20
-19.0499986799
 30
0.0
 11
42.00000000000001
 21
-20.04999847900001
 31
0.0
  0
LINE
  5
93EC0
330
1F
100
AcDbEntity
  8
sk3
100
AcDbLine
 10
55.7138471852
 20
-27.99999867989999
 30
0.0
 11
55.7138471852
 21
0.0000013189999777
 31
0.0
  0
LINE
  5
93EC1
330
1F
100
AcDbEntity
  8
sk3
100
AcDbLine
 10
56.71384718519999
 20
-58.01307546610003
 30
0.0
 11
56.71384718519999
 21
0.0000013189999777
 31
0.0
  0
LINE
  5
93EC2
330
1F
100
AcDbEntity
  8
sk3
100
AcDbLine
 10
55.7138471852
 20
-27.99999867989999
 30
0.0
 11
56.71384718519999
 21
-28.99999867989999
 31
0.0
  0
ARC
  5
93EC3
330
1F
100
AcDbEntity
  8
sk3
100
AcDbCircle
 10
59.71384718519999
 20
-58.01307546610003
 30
0.0
 40
3.0
100
AcDbArc
 50
180.0
 51
211.4687523410996
  0
ARC
  5
93EC4
330
1F
100
AcDbEntity
  8
sk3
100
AcDbCircle
 10
60.7138471852
 20
-67.30927042679997
 30
0.0
 40
1.0
100
AcDbArc
 50
0.0
 51
31.46875234109965
  0
ARC
  5
93EC5
102
{ACAD_REACTORS
330
93ED2
102
}
330
1F
100
AcDbEntity
  8
sk3
100
AcDbCircle
 10
43.00000000000006
 20
-26.99999867990002
 30
0.0
 40
1.0
100
AcDbArc
 50
180.0
 51
270.0
  0
ARC
  5
93EC6
330
1F
100
AcDbEntity
  8
sk3
100
AcDbCircle
 10
29.17735573010003
 20
-19.6999986799
 30
0.0
 40
0.8
100
AcDbArc
 50
245.0000000000003
 51
270.0
  0
ARC
  5
93EC7
330
1F
100
AcDbEntity
  8
sk3
100
AcDbCircle
 10
39.28689076480003
 20
-19.84999867990001
 30
0.0
 40
0.8
100
AcDbArc
 50
90.0
 51
114.9999999999997
  0
ARC
  5
93EC8
330
1F
100
AcDbEntity
  8
sk3
100
AcDbCircle
 10
35.82264426990008
 20
-19.6999986799
 30
0.0
 40
0.8
100
AcDbArc
 50
270.0
 51
294.9999999999997
  0
DIMENSION
  5
93EC9
102
{ACAD_XDICTIONARY
360
93ECA
102
}
102
{ACAD_REACTORS
330
93ECB
102
}
330
1F
100
AcDbEntity
  8
2
100
AcDbDimension
  2
*D17244
 10
63.49999999999994
 20
109.9984637722732
 30
0.0
 11
31.74999999999997
 21
114.0484637722732
 31
0.0
 70
    32
 71
     5
 42
63.5
  3
コピー - ISO-25
100
AcDbAlignedDimension
 13
0.0
 23
46.4189999989
 33
0.0
 14
63.49999999999994
 24
75.39999999887512
 34
0.0
 50
0.0
100
AcDbRotatedDimension
1001
ACAD
1000
DSTYLE
1002
{
1070
   170
1070
     1
1070
   171
1070
     3
1070
   143
1040
0.0393700787401575
1070
   285
1070
     4
1070
     4
1000
"
1070
   271
1070
     8
1070
    40
1040
1.0
1002
}
1001
ACAD_DSTYLE_DIMINSPECT
1070
   393
1070
     0
1070
   394
1070
     0
1070
   395
1000

1070
   396
1000

  0
DIMENSION
  5
93ECD
330
1F
100
AcDbEntity
  8
2
100
AcDbDimension
  2
*D17465
 10
63.49999999999994
 20
100.0671669221002
 30
0.0
 11
94.9666666666666
 21
104.1171669221002
 31
0.0
 70
    32
  1
<>(MAX)
 71
     5
 42
8.200000000000001
  3
コピー - ISO-25
100
AcDbAlignedDimension
 13
55.29999999999995
 23
76.19999999889995
 33
0.0
 14
63.49999999999994
 24
75.3999999989
 34
0.0
 50
0.0
100
AcDbRotatedDimension
1001
ACAD
1000
DSTYLE
1002
{
1070
   170
1070
     1
1070
   171
1070
     3
1070
   143
1040
0.0393700787401575
1070
   285
1070
     4
1070
     4
1000
"
1070
   271
1070
     8
1070
    40
1040
1.0
1002
}
1001
ACAD_DSTYLE_DIMINSPECT
1070
   393
1070
     0
1070
   394
1070
     0
1070
   395
1000

1070
   396
1000

  0
DIMENSION
  5
93ED0
102
{ACAD_XDICTIONARY
360
93ED1
102
}
102
{ACAD_REACTORS
330
93ED2
102
}
330
1F
100
AcDbEntity
  8
sk2
100
AcDbDimension
  2
*D17576
 10
42.00000000000001
 20
-89.94251898993658
 30
0.0
 11
21.00000000000001
 21
-85.89251898993659
 31
0.0
 70
    32
 71
     5
 42
42.0
  3
コピー - ISO-25
100
AcDbAlignedDimension
 13
0.0
 23
-46.41899868210001
 33
0.0
 14
42.00000000000001
 24
-26.99999867990002
 34
0.0
 50
0.0
100
AcDbRotatedDimension
1001
ACAD
1000
DSTYLE
1002
{
1070
   170
1070
     1
1070
   171
1070
     3
1070
   143
1040
0.0393700787401575
1070
   285
1070
     4
1070
     4
1000
"
1070
   271
1070
     8
1070
    40
1040
1.0
1002
}
1001
ACAD_DSTYLE_DIMINSPECT
1070
   393
1070
     0
1070
   394
1070
     0
1070
   395
1000

1070
   396
1000

  0
DIMENSION
  5
93ED3
102
{ACAD_XDICTIONARY
360
93ED4
102
}
102
{ACAD_REACTORS
330
93ED5
102
}
330
1F
100
AcDbEntity
  8
sk2
100
AcDbDimension
  2
*D17687
 10
-19.55706845840905
 20
-48.41899868210001
 30
0.0
 11
-19.55706845840905
 21
-0.0832933704160439
 31
0.0
 70
   160
  1
%%C<>
 71
     5
 42
96.83799999999999
  3
コピー - ISO-25
100
AcDbAlignedDimension
 13
2.0
 23
48.41900131789998
 33
0.0
 14
2.0
 24
-48.41899868210001
 34
0.0
 50
90.0
100
AcDbRotatedDimension
1001
ACAD
1000
DSTYLE
1002
{
1070
   170
1070
     1
1070
   171
1070
     3
1070
   143
1040
0.0393700787401575
1070
   285
1070
     4
1070
     4
1000
%%c[]"
1070
   271
1070
     8
1070
    40
1040
1.0
1002
}
1001
ACAD_DSTYLE_DIMINSPECT
1070
   393
1070
     0
1070
   394
1070
     0
1070
   395
1000

1070
   396
1000

  0
DIMENSION
  5
93ED6
102
{ACAD_XDICTIONARY
360
93ED7
102
}
102
{ACAD_REACTORS
330
93ED8
102
}
330
1F
100
AcDbEntity
  8
sk2
100
AcDbDimension
  2
*D17798
 10
-10.04004119204327
 20
-19.0499986799
 30
0.0
 11
-10.04004119204327
 21
-0.3632059370738716
 31
0.0
 70
   160
  1
%%C<>
 71
     5
 42
38.0999999978
  3
コピー - ISO-25
100
AcDbAlignedDimension
 13
8.000000000000056
 23
19.05000131789995
 33
0.0
 14
8.000000000000056
 24
-19.0499986799
 34
0.0
 50
90.0
100
AcDbRotatedDimension
1001
ACAD
1000
DSTYLE
1002
{
1070
   170
1070
     1
1070
   171
1070
     3
1070
   143
1040
0.0393700787401575
1070
   285
1070
     4
1070
     4
1000
%%c[]"
1070
   271
1070
     8
1070
    40
1040
1.0
1002
}
1001
ACAD_DSTYLE_DIMINSPECT
1070
   393
1070
     0
1070
   394
1070
     0
1070
   395
1000

1070
   396
1000

  0
DIMENSION
  5
93ED9
330
1F
100
AcDbEntity
  8
2
100
AcDbDimension
  2
*D178109
 10
89.90679386709524
 20
-76.19999999889995
 30
0.0
 11
85.85679386709525
 21
-1.749999999999999
 31
0.0
 70
    32
  1
%%C<>
 71
     5
 42
152.3999999978
  3
コピー - ISO-25
100
AcDbAlignedDimension
 13
62.69999999999999
 23
76.19999999889995
 33
0.0
 14
62.69999999999999
 24
-76.19999999889995
 34
0.0
 50
90.0
100
AcDbRotatedDimension
1001
ACAD
1000
DSTYLE
1002
{
1070
   170
1070
     1
1070
   171
1070
     3
1070
   143
1040
0.0393700787401575
1070
   285
1070
     4
1070
     4
1000
%%c[]"
1070
   344
1005
87D73
1070
   271
1070
     8
1070
   173
1070
     1
1070
    40
1040
1.0
1070
    76
1070
     1
1002
}
1001
ACAD_DSTYLE_DIMINSPECT
1070
   393
1070
     0
1070
   394
1070
     0
1070
   395
1000

1070
   396
1000

  0
LINE
  5
93FFF
330
1F
100
AcDbEntity
  8
sk3
100
AcDbLine
 10
29.00000000014671
 20
20.29996312519997
 30
0.0
 11
29.00000000014671
 21
-20.30003687260002
 31
0.0
  0
LINE
  5
94000
330
1F
100
AcDbEntity
  8
sk3
100
AcDbLine
 10
35.99999999995072
 20
20.29996312519997
 30
0.0
 11
35.99999999995072
 21
-20.30003687260002
 31
0.0
  0
LINE
  5
94001
330
1F
100
AcDbEntity
  8
sk3
100
AcDbLine
 10
39.10953503484936
 20
-18.85003687260003
 30
0.0
 11
39.10953503484936
 21
18.84996312519998
 31
0.0
  0
LINE
  5
94118
330
1F
100
AcDbEntity
  8
cut
100
AcDbLine
 10
53.5740028863
 20
75.65719748599997
 30
0.0
 11
53.71080692260003
 21
75.73089283489998
 31
0.0
  0
LINE
  5
94119
330
1F
100
AcDbEntity
  8
cut
100
AcDbLine
 10
52.74802496940006
 20
75.21362684679997
 30
0.0
 11
53.26442228080001
 21
75.48971587619995
 31
0.0
  0
LINE
  5
9411A
330
1F
100
AcDbEntity
  8
cut
100
AcDbLine
 10
52.31604000249999
 20
74.98563216039997
 30
0.0
 11
52.74802496940006
 21
75.21362684679997
 31
0.0
  0
LINE
  5
9411B
330
1F
100
AcDbEntity
  8
cut
100
AcDbLine
 10
51.54106231610003
 20
74.57845569059998
 30
0.0
 11
52.31604000249999
 21
74.98563216039997
 31
0.0
  0
LINE
  5
9411C
330
1F
100
AcDbEntity
  8
cut
100
AcDbLine
 10
49.8433953417
 20
73.69181981719998
 30
0.0
 11
51.54106231610003
 21
74.57845569059998
 31
0.0
  0
LINE
  5
9411D
330
1F
100
AcDbEntity
  8
cut
100
AcDbLine
 10
48.8810150084
 20
73.19207443099998
 30
0.0
 11
49.8433953417
 21
73.69181981719998
 31
0.0
  0
LINE
  5
9411E
330
1F
100
AcDbEntity
  8
cut
100
AcDbLine
 10
47.73630522470003
 20
72.54918547139998
 30
0.0
 11
47.75675740729999
 21
72.5620086243
 31
0.0
  0
LINE
  5
9411F
330
1F
100
AcDbEntity
  8
cut
100
AcDbLine
 10
47.75535589850004
 20
72.56115671399999
 30
0.0
 11
47.77479105730001
 21
72.57257372939996
 31
0.0
  0
LINE
  5
94120
330
1F
100
AcDbEntity
  8
cut
100
AcDbLine
 10
47.77479105730001
 20
72.57257372930002
 30
0.0
 11
48.00638099369999
 21
72.7036336187
 31
0.0
  0
LINE
  5
94121
330
1F
100
AcDbEntity
  8
cut
100
AcDbLine
 10
48.00638099369999
 20
72.7036336187
 30
0.0
 11
48.24149331670006
 21
72.83598871639998
 31
0.0
  0
LINE
  5
94122
330
1F
100
AcDbEntity
  8
cut
100
AcDbLine
 10
48.24149331670006
 20
72.83598871639998
 30
0.0
 11
48.48012944450003
 21
72.9696349646
 31
0.0
  0
LINE
  5
94123
330
1F
100
AcDbEntity
  8
cut
100
AcDbLine
 10
48.48012944450003
 20
72.9696349646
 30
0.0
 11
48.72229504910003
 21
73.10455613209995
 31
0.0
  0
LINE
  5
94124
330
1F
100
AcDbEntity
  8
cut
100
AcDbLine
 10
53.90060317540005
 20
75.83422197879997
 30
0.0
 11
54.11442526940001
 21
75.95290522809995
 31
0.0
  0
LWPOLYLINE
  5
94125
330
1F
100
AcDbEntity
  8
cut
100
AcDbPolyline
 90
        6
 70
     0
 43
0.0
 10
48.72229504910003
 20
73.10455613209995
 10
48.85191200750004
 20
73.17647108079995
 10
48.85914888160002
 20
73.18041656930001
 10
48.86641167310003
 20
73.18433229049998
 10
48.87370038200001
 20
73.18821824439999
 10
48.8810150084
 20
73.19207443099998
  0
LINE
  5
94126
330
1F
100
AcDbEntity
  8
cut
100
AcDbLine
 10
53.81998709050002
 20
75.79002992659997
 30
0.0
 11
53.90060317540005
 21
75.83422197879997
 31
0.0
  0
LINE
  5
94127
330
1F
100
AcDbEntity
  8
cut
100
AcDbLine
 10
53.71080692260003
 20
75.73089283489998
 30
0.0
 11
53.81998709050002
 21
75.79002992659997
 31
0.0
  0
LINE
  5
94128
330
1F
100
AcDbEntity
  8
cut
100
AcDbLine
 10
53.29345485260002
 20
75.50538510749998
 30
0.0
 11
53.5740028863
 21
75.65719748599997
 31
0.0
  0
LINE
  5
94129
330
1F
100
AcDbEntity
  8
cut
100
AcDbLine
 10
53.26442228080001
 20
75.48971587619995
 30
0.0
 11
53.29345485260002
 21
75.50538510749998
 31
0.0
  0
LWPOLYLINE
  5
9412A
330
1F
100
AcDbEntity
  8
cut
100
AcDbPolyline
 90
       11
 70
     0
 43
0.0
 10
47.56836013660002
 20
72.39997297739996
 10
47.5838407028
 20
72.41800354520001
 10
47.59886732600003
 20
72.43444631479997
 10
47.61439173800002
 20
72.45044368840002
 10
47.63042524030001
 20
72.46600890169998
 10
47.64695653139996
 20
72.48112871899997
 10
47.66394737970003
 20
72.4957582289
 10
47.6814100653
 20
72.50990376719993
 10
47.69933230810003
 20
72.523558998
 10
47.71763903590001
 20
72.53666000160001
 10
47.73630522470003
 20
72.54918547139998
  0
LWPOLYLINE
  5
9412B
330
1F
100
AcDbEntity
  8
cut
100
AcDbPolyline
 90
       11
 70
     0
 43
0.0
 10
47.58183180480003
 20
72.41572633009996
 10
47.59571882600002
 20
72.4310803386
 10
47.61002441580004
 20
72.44603900779998
 10
47.62475624780003
 20
72.46061100149994
 10
47.63991824540002
 20
72.47480049249998
 10
47.65549933220003
 20
72.48859369009996
 10
47.67148468140002
 20
72.50197231229998
 10
47.68785749090002
 20
72.51491781609995
 10
47.70459305480001
 20
72.52741061209997
 10
47.7216646912
 20
72.53943084959995
 10
47.73905171270004
 20
72.55096297529997
  0
LINE
  5
9412C
330
1F
100
AcDbEntity
  8
cut
100
AcDbLine
 10
47.52875970430003
 20
72.34783576209998
 30
0.0
 11
47.54272577730003
 21
72.36733142279994
 31
0.0
  0
LINE
  5
9412D
330
1F
100
AcDbEntity
  8
cut
100
AcDbLine
 10
47.54173802869998
 20
72.36598861019996
 30
0.0
 11
47.55527605420005
 21
72.38377469289997
 31
0.0
  0
LINE
  5
9412E
330
1F
100
AcDbEntity
  8
cut
100
AcDbLine
 10
47.55531843640002
 20
72.38383491159999
 30
0.0
 11
47.56931619630003
 21
72.40112058459998
 31
0.0
  0
LWPOLYLINE
  5
9412F
330
1F
100
AcDbEntity
  8
cut
100
AcDbPolyline
 90
       40
 70
     0
 43
0.0
 10
59.09312821080002
 20
60.41040436769997
 10
59.07397959190004
 20
60.39729049299996
 10
59.05447121520005
 20
60.3847374475
 10
59.03460308060002
 20
60.37274523139997
 10
59.01434608470001
 20
60.36129872409998
 10
58.99372933090003
 20
60.35041304619999
 10
58.97284012940004
 20
60.34013355839999
 10
58.95168910050003
 20
60.33046908270001
 10
58.93026562380001
 20
60.32141079719997
 10
58.90862514890002
 20
60.3129775969
 10
58.88678302310005
 20
60.30517436469995
 10
58.86472389889999
 20
60.29799621770003
 10
58.84245718350005
 20
60.29144740200003
 10
58.81995672950004
 20
60.28552124459999
 10
58.79724868410002
 20
60.28022441859997
 10
58.77442089709997
 20
60.2755811898
 10
58.7514788983
 20
60.27159690819996
 10
58.72841715789999
 20
60.26826622389997
 10
58.70530693480001
 20
60.26559735209997
 10
58.68216947260001
 20
60.26359194469995
 10
58.65898352780003
 20
60.26224834979995
 10
58.63575662860004
 20
60.26156982689997
 10
58.61246738180003
 20
60.26155613989994
 10
58.58913718060003
 20
60.26220752489996
 10
58.56583773380001
 20
60.26352794919995
 10
58.54256201440003
 20
60.26552335009995
 10
58.51931704940003
 20
60.26818779029998
 10
58.4961956282
 20
60.27150742529999
 10
58.47322557030007
 20
60.27547916559996
 10
58.45037905619998
 20
60.28010610079997
 10
58.42766541760003
 20
60.28538365419996
 10
58.40506819880002
 20
60.2913144954
 10
58.38260385540005
 20
60.29789595489996
 10
58.36033108650005
 20
60.30511544819995
 10
58.33823856540002
 20
60.3129793471
 10
58.31633761869998
 20
60.32148127969997
 10
58.29472092470004
 20
60.3305895455
 10
58.27341937609999
 20
60.34029357769997
 10
58.25240208020002
 20
60.35060394309994
 10
58.23166903690006
 20
60.36152064160001
  0
LWPOLYLINE
  5
94130
330
1F
100
AcDbEntity
  8
cut
100
AcDbPolyline
 90
       11
 70
     0
 43
0.0
 10
47.43698388170005
 20
72.16645544739998
 10
47.44402241640003
 20
72.18601146250001
 10
47.45159021010002
 20
72.20533224639996
 10
47.45967807280002
 20
72.22440144429999
 10
47.46828180690002
 20
72.24321396019997
 10
47.4773984623
 20
72.26176751299998
 10
47.487025444
 20
72.28005929919998
 10
47.49716157569999
 20
72.29808442529996
 10
47.50780603569999
 20
72.31583747569999
 10
47.51895595079999
 20
72.33331012359997
 10
47.5306002416
 20
72.35048239939998
  0
LINE
  5
94131
330
1F
100
AcDbEntity
  8
cut
100
AcDbLine
 10
47.41889913080004
 20
72.10562287609997
 30
0.0
 11
47.4246897445
 21
72.12725022569998
 31
0.0
  0
LINE
  5
94132
330
1F
100
AcDbEntity
  8
cut
100
AcDbLine
 10
47.42453584980004
 20
72.1267177053
 30
0.0
 11
47.43112796220001
 21
72.14871129169996
 31
0.0
  0
LWPOLYLINE
  5
94133
330
1F
100
AcDbEntity
  8
cut
100
AcDbPolyline
 90
       11
 70
     0
 43
0.0
 10
47.4304850439
 20
72.14668337099998
 10
47.4381859885
 20
72.16991970099996
 10
47.44586396659999
 20
72.19086301719993
 10
47.45416175330003
 20
72.21155367680001
 10
47.4630511246
 20
72.23194261629998
 10
47.47252246780003
 20
72.25201371229997
 10
47.4825853956
 20
72.27178308840001
 10
47.4932405218
 20
72.2912500507
 10
47.50449888340003
 20
72.3104358187
 10
47.5163494433
 20
72.32931917309996
 10
47.52875970430003
 20
72.34783576209998
  0
LINE
  5
94134
330
1F
100
AcDbEntity
  8
cut
100
AcDbLine
 10
47.41376325339999
 20
72.08385296540001
 30
0.0
 11
47.41914428080004
 21
72.10659413099995
 31
0.0
  0
LINE
  5
94135
330
1F
100
AcDbEntity
  8
cut
100
AcDbLine
 10
63.05666741550002
 20
66.80158860040001
 30
0.0
 11
62.71273688449999
 21
66.21999988149998
 31
0.0
  0
LINE
  5
94136
330
1F
100
AcDbEntity
  8
cut
100
AcDbLine
 10
62.71273688449999
 20
66.21999988149998
 30
0.0
 11
62.46303243299999
 21
65.79933551659997
 31
0.0
  0
LINE
  5
94137
330
1F
100
AcDbEntity
  8
cut
100
AcDbLine
 10
62.46303243299999
 20
65.79933551659997
 30
0.0
 11
62.21328876260006
 21
65.37982869839999
 31
0.0
  0
LINE
  5
94138
330
1F
100
AcDbEntity
  8
cut
100
AcDbLine
 10
62.21328876260006
 20
65.37982869839999
 30
0.0
 11
61.91609595590003
 21
64.88209916199997
 31
0.0
  0
LINE
  5
94139
330
1F
100
AcDbEntity
  8
cut
100
AcDbLine
 10
61.91609595590003
 20
64.88209916199997
 30
0.0
 11
61.66731634139997
 21
64.4666149886
 31
0.0
  0
LINE
  5
9413A
330
1F
100
AcDbEntity
  8
cut
100
AcDbLine
 10
61.66731634139997
 20
64.4666149886
 30
0.0
 11
61.33472983409999
 21
63.91272308649996
 31
0.0
  0
LINE
  5
9413B
330
1F
100
AcDbEntity
  8
cut
100
AcDbLine
 10
61.33472983409999
 20
63.91272308649996
 30
0.0
 11
61.00184011810004
 21
63.35998760639995
 31
0.0
  0
LINE
  5
9413C
330
1F
100
AcDbEntity
  8
cut
100
AcDbLine
 10
61.00184011810004
 20
63.35998760639995
 30
0.0
 11
60.6691029079
 21
62.80905576949999
 31
0.0
  0
LINE
  5
9413D
330
1F
100
AcDbEntity
  8
cut
100
AcDbLine
 10
60.6691029079
 20
62.80905576949999
 30
0.0
 11
60.33609723560002
 21
62.25913247450001
 31
0.0
  0
LWPOLYLINE
  5
9413E
330
1F
100
AcDbEntity
  8
cut
100
AcDbPolyline
 90
        6
 70
     0
 43
0.0
 10
60.33609723560002
 20
62.25913247450001
 10
59.99783016210002
 20
61.70194974419996
 10
59.99350347180004
 20
61.6949412757
 10
59.98914433850004
 20
61.68795306829998
 10
59.98475276220003
 20
61.68098512199998
 10
59.9803287429
 20
61.67403743689999
  0
LINE
  5
9413F
330
1F
100
AcDbEntity
  8
cut
100
AcDbLine
 10
59.9803287429
 20
61.67403743689999
 30
0.0
 11
59.66922384940002
 21
61.19344223199998
 31
0.0
  0
LINE
  5
94140
330
1F
100
AcDbEntity
  8
cut
100
AcDbLine
 10
59.66922384940002
 20
61.19344223199998
 30
0.0
 11
59.3021356014
 21
60.6273801259
 31
0.0
  0
LWPOLYLINE
  5
94141
330
1F
100
AcDbEntity
  8
cut
100
AcDbPolyline
 90
       16
 70
     0
 43
0.0
 10
59.30213560159998
 20
60.62738012630001
 10
59.29103630590001
 20
60.61073749369995
 10
59.27950420580001
 20
60.5943714202
 10
59.26753930140003
 20
60.57828190559995
 10
59.25512721570001
 20
60.56245096329996
 10
59.24228232560003
 20
60.5468965801
 10
59.2290477618
 20
60.53167271619997
 10
59.21543578130004
 20
60.51679398429996
 10
59.20143412700006
 20
60.5022457718
 10
59.18704915880002
 20
60.4880382013
 10
59.17226722830005
 20
60.47415842969996
 10
59.15710198389999
 20
60.46061929999996
 10
59.14160072950003
 20
60.44746946380001
 10
59.12577923310003
 20
60.43472513829994
 10
59.10962172690003
 20
60.42237010619999
 10
59.09312821070002
 20
60.41040436759999
  0
LWPOLYLINE
  5
94142
330
1F
100
AcDbEntity
  8
cut
100
AcDbPolyline
 90
        9
 70
     0
 43
0.0
 10
47.39612161220001
 20
71.92091675659999
 10
47.39614721299997
 20
71.9269986864
 10
47.39667394459998
 20
71.9499186196
 10
47.39786830369999
 20
71.97267641519998
 10
47.39972935290004
 20
71.99521922739994
 10
47.40225802970004
 20
72.01759990209996
 10
47.40544070850003
 20
72.03982949839995
 10
47.40927497999999
 20
72.06191677110002
 10
47.41376325339999
 20
72.08385296540001
  0
LWPOLYLINE
  5
94143
330
1F
100
AcDbEntity
  8
cut
100
AcDbPolyline
 90
        9
 70
     0
 43
0.0
 10
47.3961201781
 20
71.92091675699998
 10
47.39638803
 20
71.94122260860002
 10
47.39723857060002
 20
71.96235409409997
 10
47.39867017010001
 20
71.98337392939999
 10
47.40067526650004
 20
72.0042601719
 10
47.40324494320001
 20
72.02499697689995
 10
47.40637271100005
 20
72.04557588169994
 10
47.41006178990002
 20
72.06601795099998
 10
47.41431782729997
 20
72.08635163139994
  0
LWPOLYLINE
  5
94144
330
1F
100
AcDbEntity
  8
cut
100
AcDbPolyline
 90
        5
 70
     0
 43
0.0
 10
47.40089738540003
 20
71.83531983889999
 10
47.39868237340002
 20
71.85824924989998
 10
47.39715142749999
 20
71.88116400149993
 10
47.39630454750002
 20
71.90406409389999
 10
47.39612161220001
 20
71.92091675659999
  0
LWPOLYLINE
  5
94145
330
1F
100
AcDbEntity
  8
cut
100
AcDbPolyline
 90
       16
 70
     0
 43
0.0
 10
47.4891375256
 20
71.55070455739997
 10
47.47985082650003
 20
71.5688072026
 10
47.47104222530007
 20
71.58707635219996
 10
47.46271172179999
 20
71.60551200610001
 10
47.45485399320003
 20
71.62413559930001
 10
47.4474743624
 20
71.64292569689997
 10
47.44058879820002
 20
71.66181799409997
 10
47.43420373770002
 20
71.68079531739994
 10
47.42831274369999
 20
71.69987484040001
 10
47.42291247340003
 20
71.71904377899995
 10
47.4179985524
 20
71.73831971349994
 10
47.41357535499999
 20
71.75768506369997
 10
47.40965266159999
 20
71.7770743039
 10
47.40623373220002
 20
71.79646559239995
 10
47.4033153068
 20
71.81588077099997
 10
47.40089738530005
 20
71.83531983979998
  0
LINE
  5
94146
330
1F
100
AcDbEntity
  8
cut
100
AcDbLine
 10
48.54957963569997
 20
69.4506351467
 30
0.0
 11
48.0903030977
 21
70.35569741979998
 31
0.0
  0
LINE
  5
94147
330
1F
100
AcDbEntity
  8
cut
100
AcDbLine
 10
48.92979420030004
 20
68.6971581084
 30
0.0
 11
48.54957963569997
 21
69.4506351467
 31
0.0
  0
LINE
  5
94148
330
1F
100
AcDbEntity
  8
cut
100
AcDbLine
 10
48.0903030977
 20
70.35569741989997
 30
0.0
 11
48.08246920910002
 21
70.37124977689996
 31
0.0
  0
LINE
  5
94149
330
1F
100
AcDbEntity
  8
cut
100
AcDbLine
 10
49.31586028860003
 20
67.92781722919993
 30
0.0
 11
48.92979420030004
 21
68.6971581084
 31
0.0
  0
LINE
  5
9414A
330
1F
100
AcDbEntity
  8
cut
100
AcDbLine
 10
49.63384984740006
 20
67.29085059959999
 30
0.0
 11
49.31586028860003
 21
67.92781722919993
 31
0.0
  0
LINE
  5
9414B
330
1F
100
AcDbEntity
  8
cut
100
AcDbLine
 10
50.3323732904
 20
65.88008991849996
 30
0.0
 11
49.63384984740006
 21
67.29085059959999
 31
0.0
  0
LINE
  5
9414C
330
1F
100
AcDbEntity
  8
cut
100
AcDbLine
 10
48.08246920910002
 20
70.37124977689996
 30
0.0
 11
48.07463451589999
 21
70.38712964119998
 31
0.0
  0
LINE
  5
9414D
330
1F
100
AcDbEntity
  8
cut
100
AcDbLine
 10
50.76702548480003
 20
64.99345107359999
 30
0.0
 11
50.3323732904
 21
65.88008991849996
 31
0.0
  0
LINE
  5
9414E
330
1F
100
AcDbEntity
  8
cut
100
AcDbLine
 10
50.9559083823
 20
64.60578761099997
 30
0.0
 11
50.76702548390002
 21
64.9934510754
 31
0.0
  0
LWPOLYLINE
  5
9414F
330
1F
100
AcDbEntity
  8
cut
100
AcDbPolyline
 90
        9
 70
     0
 43
0.0
 10
48.00469689789999
 20
70.53235791989999
 10
47.94207263060004
 20
70.66099672629997
 10
47.87892621630001
 20
70.78925343200002
 10
47.81525562260006
 20
70.91713044429997
 10
47.75106288180004
 20
71.04462535589998
 10
47.686354092
 20
71.17173094520001
 10
47.62113128560001
 20
71.29844480509994
 10
47.55539243000001
 20
71.42476934259995
 10
47.48913752530003
 20
71.55070455779998
  0
LINE
  5
94150
330
1F
100
AcDbEntity
  8
cut
100
AcDbLine
 10
48.07463451589999
 20
70.38712964119998
 30
0.0
 11
48.00469689789999
 21
70.53235791989999
 31
0.0
  0
LINE
  5
94151
330
1F
100
AcDbEntity
  8
cut
100
AcDbLine
 10
63.4949357221
 20
74.03578502879998
 30
0.0
 11
63.50000000000003
 21
75.3999999989
 31
0.0
  0
LINE
  5
94152
330
1F
100
AcDbEntity
  8
cut
100
AcDbLine
 10
63.4949357221
 20
74.03578502879998
 30
0.0
 11
63.49481348180002
 21
74.02689448619998
 31
0.0
  0
LINE
  5
94153
330
1F
100
AcDbEntity
  8
cut
100
AcDbLine
 10
63.26542787270003
 20
67.89478268059998
 30
0.0
 11
63.25994032209999
 21
67.5394861675
 31
0.0
  0
LINE
  5
94154
330
1F
100
AcDbEntity
  8
cut
100
AcDbLine
 10
63.49481348180002
 20
74.02689448619998
 30
0.0
 11
63.4944514573
 21
74.0090654882
 31
0.0
  0
LINE
  5
94155
330
1F
100
AcDbEntity
  8
cut
100
AcDbLine
 10
63.27312516570001
 20
68.2623562864
 30
0.0
 11
63.26542787270003
 21
67.89478268059998
 31
0.0
  0
LWPOLYLINE
  5
94156
330
1F
100
AcDbEntity
  8
cut
100
AcDbPolyline
 90
       25
 70
     0
 43
0.0
 10
63.25994032220004
 20
67.53948617449998
 10
63.25913174720003
 20
67.50595060230001
 10
63.25761407109999
 20
67.47263661779999
 10
63.25538729389997
 20
67.43954422099996
 10
63.2524412914
 20
67.40666594719994
 10
63.24878618780005
 20
67.3740092612
 10
63.24445235600004
 20
67.34159655679997
 10
63.2394379302
 20
67.30943547829998
 10
63.23374477619998
 20
67.2775183814
 10
63.227408864
 20
67.24584472790002
 10
63.22043384950003
 20
67.21441039639995
 10
63.21281607670002
 20
67.18321950820001
 10
63.20458054740001
 20
67.15228388979999
 10
63.19573871410002
 20
67.12160940609999
 10
63.18627912410002
 20
67.09119019209999
 10
63.17619242110001
 20
67.06102047959996
 10
63.16548008340001
 20
67.03109023139997
 10
63.15414063270001
 20
67.00140948469992
 10
63.14216027650005
 20
66.97200258250001
 10
63.12953901490002
 20
66.94286919469994
 10
63.11627684800001
 20
66.91400965139997
 10
63.10235998300001
 20
66.88544928569996
 10
63.08778382250003
 20
66.85719654179997
 10
63.07255296400003
 20
66.82924297549999
 10
63.05666740740004
 20
66.80158858679999
  0
LINE
  5
94157
330
1F
100
AcDbEntity
  8
cut
100
AcDbLine
 10
63.28125474450004
 20
68.57506146509996
 30
0.0
 11
63.27312516570001
 21
68.2623562864
 31
0.0
  0
LINE
  5
94158
330
1F
100
AcDbEntity
  8
cut
100
AcDbLine
 10
63.4944514573
 20
74.0090654882
 30
0.0
 11
63.49393270760001
 21
73.9911726066
 31
0.0
  0
LINE
  5
94159
330
1F
100
AcDbEntity
  8
cut
100
AcDbLine
 10
63.29011315200002
 20
68.86488003969997
 30
0.0
 11
63.28125474450004
 21
68.57506146509996
 31
0.0
  0
LINE
  5
9415A
330
1F
100
AcDbEntity
  8
cut
100
AcDbLine
 10
63.30021102709999
 20
69.15409272609998
 30
0.0
 11
63.29011315200002
 21
68.86488003969997
 31
0.0
  0
LINE
  5
9415B
330
1F
100
AcDbEntity
  8
cut
100
AcDbLine
 10
63.49393270760001
 20
73.9911726066
 30
0.0
 11
63.465984151
 21
73.25605780249998
 31
0.0
  0
LINE
  5
9415C
330
1F
100
AcDbEntity
  8
cut
100
AcDbLine
 10
63.465984151
 20
73.25605780249998
 30
0.0
 11
63.43209023800003
 21
72.38487821649994
 31
0.0
  0
LINE
  5
9415D
330
1F
100
AcDbEntity
  8
cut
100
AcDbLine
 10
63.43209023800003
 20
72.38487821649994
 30
0.0
 11
63.39787882670001
 21
71.52592153059998
 31
0.0
  0
LINE
  5
9415E
330
1F
100
AcDbEntity
  8
cut
100
AcDbLine
 10
63.39787882670001
 20
71.52592153059998
 30
0.0
 11
63.36392690610003
 21
70.69246201779998
 31
0.0
  0
LINE
  5
9415F
330
1F
100
AcDbEntity
  8
cut
100
AcDbLine
 10
63.31404953620003
 20
69.50074854269995
 30
0.0
 11
63.30021102709999
 21
69.15409272609998
 31
0.0
  0
LINE
  5
94160
330
1F
100
AcDbEntity
  8
cut
100
AcDbLine
 10
63.36392690610003
 20
70.69246201779998
 30
0.0
 11
63.33126391810001
 21
69.90795696849993
 31
0.0
  0
LINE
  5
94161
330
1F
100
AcDbEntity
  8
cut
100
AcDbLine
 10
63.32143853110004
 20
69.67545062549999
 30
0.0
 11
63.31404953620003
 21
69.50074854269995
 31
0.0
  0
LINE
  5
94162
330
1F
100
AcDbEntity
  8
cut
100
AcDbLine
 10
63.33126391810001
 20
69.90795696849993
 30
0.0
 11
63.32143853110004
 21
69.67545062549999
 31
0.0
  0
LINE
  5
94163
330
1F
100
AcDbEntity
  8
cut
100
AcDbLine
 10
57.22543832220001
 20
60.89405612149993
 30
0.0
 11
57.08788035320001
 21
60.96445850579994
 31
0.0
  0
LINE
  5
94164
330
1F
100
AcDbEntity
  8
cut
100
AcDbLine
 10
57.08788035320001
 20
60.96445850579994
 30
0.0
 11
57.07228235400001
 21
60.97256868169996
 31
0.0
  0
LWPOLYLINE
  5
94165
330
1F
100
AcDbEntity
  8
cut
100
AcDbPolyline
 90
        4
 70
     0
 43
0.0
 10
57.60929114470005
 20
60.69463961079998
 10
57.48221300350005
 20
60.76116416659999
 10
57.35426144880003
 20
60.8276340919
 10
57.22543832220001
 20
60.89405612149993
  0
LINE
  5
94166
330
1F
100
AcDbEntity
  8
cut
100
AcDbLine
 10
57.8608382354
 20
60.56146701590002
 30
0.0
 11
57.60929114470005
 21
60.69463961079998
 31
0.0
  0
LINE
  5
94167
330
1F
100
AcDbEntity
  8
cut
100
AcDbLine
 10
57.07228235400001
 20
60.97256868169996
 30
0.0
 11
57.0568557443
 21
60.98075042309996
 31
0.0
  0
LINE
  5
94168
330
1F
100
AcDbEntity
  8
cut
100
AcDbLine
 10
56.03880473850003
 20
61.53053718919995
 30
0.0
 11
53.14052240590005
 21
63.08727665239995
 31
0.0
  0
LINE
  5
94169
330
1F
100
AcDbEntity
  8
cut
100
AcDbLine
 10
56.24520259510004
 20
61.41920921249999
 30
0.0
 11
56.03880473850003
 21
61.53053718919995
 31
0.0
  0
LINE
  5
9416A
330
1F
100
AcDbEntity
  8
cut
100
AcDbLine
 10
56.51575174860003
 20
61.27317524419999
 30
0.0
 11
56.24520259510004
 21
61.41920921249999
 31
0.0
  0
LINE
  5
9416B
330
1F
100
AcDbEntity
  8
cut
100
AcDbLine
 10
56.78375342479998
 20
61.12839541659997
 30
0.0
 11
56.51575174860003
 21
61.27317524419999
 31
0.0
  0
LINE
  5
9416C
330
1F
100
AcDbEntity
  8
cut
100
AcDbLine
 10
57.0568557443
 20
60.98075042309996
 30
0.0
 11
56.78375342479998
 21
61.12839541659997
 31
0.0
  0
LINE
  5
9416D
330
1F
100
AcDbEntity
  8
cut
100
AcDbLine
 10
53.14052240590005
 20
63.08727665239995
 30
0.0
 11
52.99979081580002
 21
63.16324314189995
 31
0.0
  0
LWPOLYLINE
  5
9416E
330
1F
100
AcDbEntity
  8
cut
100
AcDbPolyline
 90
        4
 70
     0
 43
0.0
 10
58.23166903709998
 20
60.36152064149995
 10
58.1089248177
 20
60.4281971245
 10
57.98531455040002
 20
60.49484591599997
 10
57.8608382354
 20
60.56146701590002
  0
LINE
  5
9416F
330
1F
100
AcDbEntity
  8
cut
100
AcDbLine
 10
52.99979081580002
 20
63.16324314189995
 30
0.0
 11
52.86121723750003
 21
63.23882352079994
 31
0.0
  0
LINE
  5
94170
330
1F
100
AcDbEntity
  8
cut
100
AcDbLine
 10
52.86121723750003
 20
63.23882352079994
 30
0.0
 11
52.72337788540003
 21
63.31481747419997
 31
0.0
  0
LINE
  5
94171
330
1F
100
AcDbEntity
  8
cut
100
AcDbLine
 10
52.72337788540003
 20
63.31481747419997
 30
0.0
 11
52.58528522280002
 21
63.39169092139997
 31
0.0
  0
LINE
  5
94172
330
1F
100
AcDbEntity
  8
cut
100
AcDbLine
 10
52.58528522280002
 20
63.39169092139997
 30
0.0
 11
52.44766855900004
 21
63.4690831214
 31
0.0
  0
LINE
  5
94173
330
1F
100
AcDbEntity
  8
cut
100
AcDbLine
 10
52.44766855900004
 20
63.4690831214
 30
0.0
 11
52.30871426870002
 21
63.5479786175
 31
0.0
  0
LINE
  5
94174
330
1F
100
AcDbEntity
  8
cut
100
AcDbLine
 10
52.30871426870002
 20
63.5479786175
 30
0.0
 11
52.16791161600005
 21
63.62868213809997
 31
0.0
  0
LINE
  5
94175
330
1F
100
AcDbEntity
  8
cut
100
AcDbLine
 10
52.16791161600005
 20
63.62868213809997
 30
0.0
 11
52.03831807380002
 21
63.70363275409999
 31
0.0
  0
LINE
  5
94176
330
1F
100
AcDbEntity
  8
cut
100
AcDbLine
 10
52.03831807380002
 20
63.70363275409999
 30
0.0
 11
51.8806446925
 21
63.79570557669996
 31
0.0
  0
LINE
  5
94177
330
1F
100
AcDbEntity
  8
cut
100
AcDbLine
 10
51.8806446925
 20
63.79570557669996
 30
0.0
 11
51.7338902282
 21
63.88226362719996
 31
0.0
  0
LINE
  5
94178
330
1F
100
AcDbEntity
  8
cut
100
AcDbLine
 10
51.7338902282
 20
63.88226362719996
 30
0.0
 11
51.57383851970005
 21
63.97762143809996
 31
0.0
  0
LINE
  5
94179
330
1F
100
AcDbEntity
  8
cut
100
AcDbLine
 10
51.57383851970005
 20
63.97762143809996
 30
0.0
 11
51.49018395399999
 21
64.0278554148
 31
0.0
  0
LWPOLYLINE
  5
9417A
330
1F
100
AcDbEntity
  8
cut
100
AcDbPolyline
 90
       31
 70
     0
 43
0.0
 10
51.49018451790002
 20
64.02785507519997
 10
51.45790221050001
 20
64.04807496860001
 10
51.42721824790001
 20
64.06816050559996
 10
51.39813262989999
 20
64.08811168630001
 10
51.37074970410001
 20
64.10795228630002
 10
51.34496512299997
 20
64.12765853009995
 10
51.32046584460002
 20
64.14715909069997
 10
51.29723970780005
 20
64.1664193661
 10
51.27529887369998
 20
64.18547395819996
 10
51.25436678280003
 20
64.2043553461
 10
51.23443063819999
 20
64.22304574380001
 10
51.21550323670001
 20
64.24156293709995
 10
51.19734640970003
 20
64.25999276269999
 10
51.17994562310006
 20
64.27832915509997
 10
51.16331541080004
 20
64.29657817969996
 10
51.14726120560002
 20
64.31484386969997
 10
51.1317710606
 20
64.3331200202
 10
51.1168569227
 20
64.35141283589996
 10
51.1023600655
 20
64.36984496489998
 10
51.0882531814
 20
64.38843482429996
 10
51.07456357810004
 20
64.40716399689995
 10
51.06121445180001
 20
64.42609987869997
 10
51.04818314410003
 20
64.44526719039997
 10
51.03549231330001
 20
64.46464121139996
 10
51.0231331312
 20
64.4842151757
 10
51.01110327170002
 20
64.50398892290002
 10
50.99940506070002
 20
64.52396261339997
 10
50.98803664780003
 20
64.54412996309996
 10
50.97699741610004
 20
64.56448887729999
 10
50.96628798250001
 20
64.58504145069998
 10
50.95590834680004
 20
64.60578768329998
  0
LINE
  5
9417B
330
1F
100
AcDbEntity
  8
cut
100
AcDbLine
 10
55.07740151890001
 20
76.19999999889995
 30
0.0
 11
62.70000000000002
 21
76.19999999889995
 31
0.0
  0
ARC
  5
9417C
330
1F
100
AcDbEntity
  8
cut
100
AcDbCircle
 10
55.07740151890001
 20
74.19999999889995
 30
0.0
 40
2.0
100
AcDbArc
 50
90.0
 51
118.7826402803998
  0
ARC
  5
9417D
330
1F
100
AcDbEntity
  8
cut
100
AcDbCircle
 10
62.70000000000002
 20
75.3999999989
 30
0.0
 40
0.8
100
AcDbArc
 50
0.0
 51
90.0
  0
DIMENSION
  5
9417E
330
1F
100
AcDbEntity
  8
2
100
AcDbDimension
  2
*D1310
 10
62.70000000000002
 20
75.3999999989
 30
0.0
 11
74.35096210166712
 21
80.66721611436912
 31
0.0
 70
   164
 71
     5
 42
0.8
  3
コピー - ISO-25
100
AcDbRadialDimension
 15
63.42896754623777
 25
75.72955472353931
 35
0.0
 40
0.0
1001
ACAD
1000
DSTYLE
1002
{
1070
   170
1070
     1
1070
   171
1070
     3
1070
   143
1040
0.0393700787401575
1070
   285
1070
     4
1070
     4
1000
"
1070
   271
1070
     8
1070
    40
1040
1.0
1002
}
1001
ACAD_DSTYLE_DIMRADIAL_EXTENSION
1070
   387
1070
     1
1070
   388
1040
0.0
1070
   390
1040
1.570796326794896
1001
ACAD_DSTYLE_DIMINSPECT
1070
   396
1000

1070
   395
1000

1070
   394
1070
     1
1070
   393
1070
     0
1001
ZWMCAD_GENSTANDARDFRAME_13_
1070
   410
1000
GB
1070
   411
1000
ZwmFrameMain_
  0
VIEWPORT
  5
71
102
{ACAD_XDICTIONARY
360
87B09
102
}
330
55
100
AcDbEntity
 67
     1
  8
0
100
AcDbViewport
 10
150.1652135264906
 20
103.6581106594891
 30
0.0
 40
339.1973820494347
 41
168.6522697578383
 68
     1
 69
    -1
 12
150.1652135264906
 22
103.6581106594891
 13
0.0
 23
0.0
 14
10.0
 24
10.0
 15
10.0
 25
10.0
 16
0.0
 26
0.0
 36
1.0
 17
0.0
 27
0.0
 37
0.0
 42
50.0
 43
0.0
 44
0.0
 45
168.6522697578383
 50
0.0
 51
0.0
 72
  1000
 90
    32864
  1

281
     0
 71
     1
 74
     0
110
0.0
120
0.0
130
0.0
111
1.0
121
0.0
131
0.0
112
0.0
122
1.0
132
0.0
 79
     0
146
0.0
1001
ACAD
1000
MVIEW
1002
{
1070
    16
1010
0.0
1020
0.0
1030
0.0
1010
0.0
1020
0.0
1030
1.0
1040
0.0
1040
168.6522697578383
1040
150.1652135264906
1040
103.6581106594891
1040
50.0
1040
0.0
1040
0.0
1070
     0
1070
  1000
1070
     0
1070
     3
1070
     0
1070
     0
1070
     0
1070
     0
1040
0.0
1040
0.0
1040
0.0
1040
10.0
1040
10.0
1040
10.0
1040
10.0
1070
     0
1002
{
1002
}
1002
}
  0
VIEWPORT
  5
73
102
{ACAD_XDICTIONARY
360
87B0B
102
}
330
55
100
AcDbEntity
 67
     1
  8
0
100
AcDbViewport
 10
133.3499939441681
 20
101.5999939441681
 30
0.0
 40
213.3599903106689
 41
162.5599903106689
 68
     2
 69
    -1
 12
210.0
 22
148.5
 13
0.0
 23
0.0
 14
10.0
 24
10.0
 15
10.0
 25
10.0
 16
0.0
 26
0.0
 36
1.0
 17
0.0
 27
0.0
 37
0.0
 42
50.0
 43
0.0
 44
0.0
 45
324.0677920111345
 50
0.0
 51
0.0
 72
   100
 90
    32864
  1

281
     0
 71
     1
 74
     0
110
0.0
120
0.0
130
0.0
111
1.0
121
0.0
131
0.0
112
0.0
122
1.0
132
0.0
 79
     0
146
0.0
1001
ACAD
1000
MVIEW
1002
{
1070
    16
1010
0.0
1020
0.0
1030
0.0
1010
0.0
1020
0.0
1030
1.0
1040
0.0
1040
324.0677920111345
1040
210.0
1040
148.5
1040
50.0
1040
0.0
1040
0.0
1070
     0
1070
   100
1070
     0
1070
     3
1070
     0
1070
     0
1070
     0
1070
     0
1040
0.0
1040
0.0
1040
0.0
1040
10.0
1040
10.0
1040
10.0
1040
10.0
1070
     0
1002
{
1002
}
1002
}
  0
ENDSEC
  0
SECTION
  2
OBJECTS
  0
DICTIONARY
  5
C
330
0
100
AcDbDictionary
281
     1
  3
ACAD_2007HEADERVARS_RT
350
94216
  3
ACAD_CIP_PREVIOUS_PRODUCT_INFO
350
4A3C3
  3
ACAD_COLOR
350
85
  3
ACAD_DETAILVIEWSTYLE
350
4A3BB
  3
ACAD_GROUP
350
D
  3
ACAD_LAYOUT
350
1A
  3
ACAD_MATERIAL
350
84
  3
ACAD_MLEADERSTYLE
350
4A3B7
  3
ACAD_MLINESTYLE
350
17
  3
ACAD_PLOTSETTINGS
350
19
  3
ACAD_PLOTSTYLENAME
350
E
  3
ACAD_SCALELIST
350
4A3A5
  3
ACAD_SECTIONVIEWSTYLE
350
4A3B9
  3
ACAD_TABLESTYLE
350
A1
  3
ACAD_VISUALSTYLE
350
4A38C
  3
ACDB_RECOMPOSE_DATA
350
907A1
  3
ACDBHEADERROUNDTRIPXREC
350
94213
  3
AcDbVariableDictionary
350
5E
  3
ASE_INDEX_DICTIONARY
350
349E9
  3
DWGPROPS
350
94219
  0
DICTIONARY
  5
8C34E
330
8
100
AcDbDictionary
280
     1
281
     1
  3
ACAD_XREC_ROUNDTRIP
360
9421F
  0
DICTIONARY
  5
E2
330
2
100
AcDbDictionary
280
     1
281
     1
  3
ACAD_LAYERFILTERS
360
4A339
  3
ACAD_LAYERSTATES
360
3759A
  3
ACLYDICTIONARY
360
4A338
  0
DICTIONARY
  5
4A86C
330
10
100
AcDbDictionary
280
     1
281
     1
  3
ADSK_XREC_LAYER_RECONCILED
360
4A86D
  0
DICTIONARY
  5
4A773
330
4A772
100
AcDbDictionary
280
     1
281
     1
  3
ADSK_XREC_LAYER_RECONCILED
360
4A86E
  0
DICTIONARY
  5
4A775
330
4A774
100
AcDbDictionary
280
     1
281
     1
  3
ADSK_XREC_LAYER_RECONCILED
360
4A86F
  0
DICTIONARY
  5
4A777
330
4A776
100
AcDbDictionary
280
     1
281
     1
  3
ADSK_XREC_LAYER_RECONCILED
360
4A870
  0
DICTIONARY
  5
4A779
330
4A778
100
AcDbDictionary
280
     1
281
     1
  3
ADSK_XREC_LAYER_RECONCILED
360
4A871
  0
DICTIONARY
  5
4A77B
330
4A77A
100
AcDbDictionary
280
     1
281
     1
  3
ADSK_XREC_LAYER_RECONCILED
360
4A872
  0
DICTIONARY
  5
4A77F
330
4A77E
100
AcDbDictionary
280
     1
281
     1
  3
ADSK_XREC_LAYER_RECONCILED
360
4A874
  0
DICTIONARY
  5
4A783
330
4A782
100
AcDbDictionary
280
     1
281
     1
  3
ADSK_XREC_LAYER_RECONCILED
360
4A876
  0
DICTIONARY
  5
8C34C
330
87B52
100
AcDbDictionary
280
     1
281
     1
  3
ACAD_XREC_ROUNDTRIP
360
9421E
  0
DICTIONARY
  5
31EE
330
1F
100
AcDbDictionary
280
     1
281
     1
  3
ACAD_SORTENTS
360
31EF
  0
DICTIONARY
  5
4A6D7
330
4A6D6
100
AcDbDictionary
280
     1
281
     1
  3
ACAD_SORTENTS
360
4A6D8
  0
DICTIONARY
  5
87B05
330
6B
100
AcDbDictionary
280
     1
281
     1
  3
ACAD_XREC_ROUNDTRIP
360
9421C
  0
DICTIONARY
  5
87B07
330
6D
100
AcDbDictionary
280
     1
281
     1
  3
ACAD_XREC_ROUNDTRIP
360
9421D
  0
DICTIONARY
  5
93ECA
330
93EC9
100
AcDbDictionary
280
     1
281
     1
  3
ACAD_DIMASSOC
360
93ECB
  0
DICTIONARY
  5
93ED1
330
93ED0
100
AcDbDictionary
280
     1
281
     1
  3
ACAD_DIMASSOC
360
93ED2
  0
DICTIONARY
  5
93ED4
330
93ED3
100
AcDbDictionary
280
     1
281
     1
  3
ACAD_DIMASSOC
360
93ED5
  0
DICTIONARY
  5
93ED7
330
93ED6
100
AcDbDictionary
280
     1
281
     1
  3
ACAD_DIMASSOC
360
93ED8
  0
DICTIONARY
  5
87B09
330
71
100
AcDbDictionary
280
     1
281
     1
  3
ACAD_XREC_ROUNDTRIP
360
9421A
  0
DICTIONARY
  5
87B0B
330
73
100
AcDbDictionary
280
     1
281
     1
  3
ACAD_XREC_ROUNDTRIP
360
9421B
  0
DICTIONARY
  5
94216
102
{ACAD_REACTORS
330
C
102
}
330
C
100
AcDbDictionary
281
     1
  3
DIMTFILL
350
94217
  3
DIMTFILLCLR
350
94218
  0
XRECORD
  5
4A3C3
102
{ACAD_REACTORS
330
C
102
}
330
C
100
AcDbXrecord
280
     1
300
ACDLT
300
2020
300

  0
DICTIONARY
  5
85
102
{ACAD_REACTORS
330
C
102
}
330
C
100
AcDbDictionary
281
     1
  0
DICTIONARY
  5
4A3BB
102
{ACAD_REACTORS
330
C
102
}
330
C
100
AcDbDictionary
281
     1
  3
Metric50
350
4A3BC
  0
DICTIONARY
  5
D
102
{ACAD_REACTORS
330
C
102
}
330
C
100
AcDbDictionary
281
     1
  0
DICTIONARY
  5
1A
102
{ACAD_REACTORS
330
C
102
}
330
C
100
AcDbDictionary
281
     1
  3
Model
350
22
  3
レイアウト1
350
51
  3
レイアウト2
350
56
  0
DICTIONARY
  5
84
102
{ACAD_REACTORS
330
C
102
}
330
C
100
AcDbDictionary
281
     1
  3
ByBlock
350
4A37C
  3
ByLayer
350
4A374
  3
Global
350
4A384
  0
DICTIONARY
  5
4A3B7
102
{ACAD_REACTORS
330
C
102
}
330
C
100
AcDbDictionary
281
     1
  3
Standard
350
4A3B8
  0
DICTIONARY
  5
17
102
{ACAD_REACTORS
330
C
102
}
330
C
100
AcDbDictionary
281
     1
  3
Standard
350
18
  0
DICTIONARY
  5
19
102
{ACAD_REACTORS
330
C
102
}
330
C
100
AcDbDictionary
281
     1
  0
ACDBDICTIONARYWDFLT
  5
E
102
{ACAD_REACTORS
330
C
102
}
330
C
100
AcDbDictionary
281
     1
  3
Normal
350
F
100
AcDbDictionaryWithDefault
340
F
  0
DICTIONARY
  5
4A3A5
102
{ACAD_REACTORS
330
C
102
}
330
C
100
AcDbDictionary
281
     1
  3
A0
350
4A3A6
  3
A1
350
4A3A7
  3
A2
350
4A3A8
  3
A3
350
4A3A9
  3
A4
350
4A3AA
  3
A5
350
4A3AB
  3
A6
350
4A3AC
  3
A7
350
4A3AD
  3
A8
350
4A3AE
  3
A9
350
4A3AF
  3
B0
350
4A3B0
  3
B1
350
4A3B1
  3
B2
350
4A3B2
  3
B3
350
4A3B3
  3
B4
350
4A3B4
  3
B5
350
4A3B5
  3
B6
350
4A3B6
  0
DICTIONARY
  5
4A3B9
102
{ACAD_REACTORS
330
C
102
}
330
C
100
AcDbDictionary
281
     1
  3
Metric50
350
4A3BA
  0
DICTIONARY
  5
A1
102
{ACAD_REACTORS
330
C
102
}
330
C
100
AcDbDictionary
281
     1
  3
Standard
350
A2
  0
DICTIONARY
  5
4A38C
102
{ACAD_REACTORS
330
C
102
}
330
C
100
AcDbDictionary
281
     1
  3
2dWireframe
350
4A392
  3
Basic
350
4A391
  3
Brighten
350
4A398
  3
ColorChange
350
4A39C
  3
Conceptual
350
4A395
  3
Dim
350
4A397
  3
EdgeColorOff
350
4A3A4
  3
Facepattern
350
4A39B
  3
Flat
350
4A38D
  3
FlatWithEdges
350
4A38E
  3
Gouraud
350
4A38F
  3
GouraudWithEdges
350
4A390
  3
Hidden
350
4A394
  3
JitterOff
350
4A3A2
  3
Linepattern
350
4A39A
  3
OverhangOff
350
4A3A3
  3
Realistic
350
4A396
  3
Shaded
350
4A3A1
  3
Shaded with edges
350
4A3A0
  3
Shades of Gray
350
4A39D
  3
Sketchy
350
4A39E
  3
Thicken
350
4A399
  3
Wireframe
350
4A393
  3
X-Ray
350
4A39F
  0
XRECORD
  5
907A1
102
{ACAD_REACTORS
330
C
102
}
330
C
100
AcDbXrecord
280
     1
 90
        1
330
A2
  0
DICTIONARY
  5
94213
102
{ACAD_REACTORS
330
C
102
}
330
C
100
AcDbDictionary
281
     1
  3
COLORDICT
350
94214
  3
MATERIALDICT
350
94215
  0
DICTIONARY
  5
5E
102
{ACAD_REACTORS
330
C
102
}
330
C
100
AcDbDictionary
281
     1
  3
CANNOSCALE
350
94212
  3
CMLEADERSTYLE
350
4A6CE
  3
CTABLESTYLE
350
B8
  3
CVIEWDETAILSTYLE
350
4A6CF
  3
CVIEWSECTIONSTYLE
350
4A6D0
  3
DIMASSOC
350
5F
  3
HIDETEXT
350
63
  3
INDEXCTL
350
4A879
  3
LAYEREVAL
350
4A6D4
  3
LAYERNOTIFY
350
4A6D5
  3
LIGHTINGUNITS
350
4A6D3
  3
MSLTSCALE
350
4A6D1
  3
PROJECTNAME
350
31CE
  3
SORTENTS
350
4A878
  3
XCLIPFRAME
350
87AF9
  0
DICTIONARY
  5
349E9
102
{ACAD_REACTORS
330
C
102
}
330
C
100
AcDbDictionary
281
     1
  3
ASEBlockHierarchyIndexRecord
350
349EA
1001
DCO15
1040
1842496176.844
  0
XRECORD
  5
94219
102
{ACAD_REACTORS
330
C
102
}
330
C
100
AcDbXrecord
280
     1
  1
DWGPROPS COOKIE
  2

  3

  4

  6

  7

  8
zhangnw
  9

300
=
301
=
302
=
303
=
304
=
305
=
306
=
307
=
308
=
309
=
 40
0.0
 41
2455489.391063368
 42
2458948.452605452
  1

 90
        0
  0
XRECORD
  5
9421F
102
{ACAD_REACTORS
330
8C34E
102
}
330
8C34E
100
AcDbXrecord
280
     1
102
VTR_0.000_0.000_1.000_1.000_VISUALSTYLE
340
4A392
102
VTR_0.000_0.000_1.000_1.000_GRIDDISPLAY
 70
     3
102
VTR_0.000_0.000_1.000_1.000_GRIDMAJOR
 70
     5
102
VTR_0.000_0.000_1.000_1.000_DEFAULTLIGHTING
280
     1
102
VTR_0.000_0.000_1.000_1.000_DEFAULTLIGHTINGTYPE
 70
     1
102
VTR_0.000_0.000_1.000_1.000_BRIGHTNESS
141
0.0
102
VTR_0.000_0.000_1.000_1.000_CONTRAST
142
0.0
  0
DICTIONARY
  5
4A339
102
{ACAD_REACTORS
330
E2
102
}
330
E2
100
AcDbDictionary
281
     1
  0
DICTIONARY
  5
3759A
102
{ACAD_REACTORS
330
E2
102
}
330
E2
100
AcDbDictionary
281
     1
  0
DICTIONARY
  5
4A338
102
{ACAD_REACTORS
330
E2
102
}
330
E2
100
AcDbDictionary
281
     1
1001
ACAD
1000
<All
  0
XRECORD
  5
4A86D
102
{ACAD_REACTORS
330
4A86C
102
}
330
4A86C
100
AcDbXrecord
280
     1
290
     1
  0
XRECORD
  5
4A86E
102
{ACAD_REACTORS
330
4A773
102
}
330
4A773
100
AcDbXrecord
280
     1
290
     1
  0
XRECORD
  5
4A86F
102
{ACAD_REACTORS
330
4A775
102
}
330
4A775
100
AcDbXrecord
280
     1
290
     1
  0
XRECORD
  5
4A870
102
{ACAD_REACTORS
330
4A777
102
}
330
4A777
100
AcDbXrecord
280
     1
290
     1
  0
XRECORD
  5
4A871
102
{ACAD_REACTORS
330
4A779
102
}
330
4A779
100
AcDbXrecord
280
     1
290
     1
  0
XRECORD
  5
4A872
102
{ACAD_REACTORS
330
4A77B
102
}
330
4A77B
100
AcDbXrecord
280
     1
290
     1
  0
XRECORD
  5
4A874
102
{ACAD_REACTORS
330
4A77F
102
}
330
4A77F
100
AcDbXrecord
280
     1
290
     1
  0
XRECORD
  5
4A876
102
{ACAD_REACTORS
330
4A783
102
}
330
4A783
100
AcDbXrecord
280
     1
290
     1
  0
XRECORD
  5
9421E
102
{ACAD_REACTORS
330
8C34C
102
}
330
8C34C
100
AcDbXrecord
280
     1
102
MATERIAL
340
4A384
  0
SORTENTSTABLE
  5
31EF
102
{ACAD_REACTORS
330
31EE
102
}
330
31EE
100
AcDbSortentsTable
330
1F
  0
SORTENTSTABLE
  5
4A6D8
102
{ACAD_REACTORS
330
4A6D7
102
}
330
4A6D7
100
AcDbSortentsTable
330
4A6D6
  0
XRECORD
  5
9421C
102
{ACAD_REACTORS
330
87B05
102
}
330
87B05
100
AcDbXrecord
280
     1
102
GRIDDISPLAY
 70
     0
102
GRIDMAJOR
 70
     5
102
DEFAULTLIGHTING
280
     1
102
DEFAULTLIGHTINGTYPE
 70
     1
102
BRIGHTNESS
141
0.0
102
CONTRAST
142
0.0
  0
XRECORD
  5
9421D
102
{ACAD_REACTORS
330
87B07
102
}
330
87B07
100
AcDbXrecord
280
     1
102
GRIDDISPLAY
 70
     0
102
GRIDMAJOR
 70
     5
102
DEFAULTLIGHTING
280
     1
102
DEFAULTLIGHTINGTYPE
 70
     1
102
BRIGHTNESS
141
0.0
102
CONTRAST
142
0.0
  0
DIMASSOC
  5
93ECB
102
{ACAD_REACTORS
330
93ECA
102
}
330
93ECA
100
AcDbDimAssoc
330
93EC9
 90
        1
 70
     0
 71
     0
  1
AcDbOsnapPointRef
 72
     1
331
93E46
 73
     2
 91
        0
 40
3.141592653589792
 10
0.0
 20
0.0
 30
1.999999999999998E+50
 75
     0
  0
DIMASSOC
  5
93ED2
102
{ACAD_REACTORS
330
93ED1
102
}
330
93ED1
100
AcDbDimAssoc
330
93ED0
 90
        3
 70
     0
 71
     0
  1
AcDbOsnapPointRef
 72
    13
331
93E3D
 73
     2
 91
        0
 40
3.141592653589792
 10
0.0
 20
0.0
 30
1.999999999999998E+50
 75
     0
  1
AcDbOsnapPointRef
 72
    13
331
93EC5
 73
     2
 91
        0
 40
3.141592653589792
 10
0.0
 20
0.0
 30
1.999999999999998E+50
 75
     0
  0
DIMASSOC
  5
93ED5
102
{ACAD_REACTORS
330
93ED4
102
}
330
93ED4
100
AcDbDimAssoc
330
93ED3
 90
        3
 70
     0
 71
     0
  1
AcDbOsnapPointRef
 72
    13
331
93E3C
 73
     2
 91
        0
 40
1.570796326794896
 10
0.0
 20
0.0
 30
1.999999999999998E+50
 75
     0
  1
AcDbOsnapPointRef
 72
     1
331
93D0F
 73
     2
 91
        0
 40
0.9999999999999998
 10
0.0
 20
0.0
 30
1.999999999999998E+50
 75
     0
  0
DIMASSOC
  5
93ED8
102
{ACAD_REACTORS
330
93ED7
102
}
330
93ED7
100
AcDbDimAssoc
330
93ED6
 90
        3
 70
     0
 71
     0
  1
AcDbOsnapPointRef
 72
    13
331
93D6D
 73
     2
 91
        0
 40
0.0
 10
0.0
 20
0.0
 30
1.999999999999998E+50
 75
     0
  1
AcDbOsnapPointRef
 72
    13
331
93EB4
 73
     2
 91
        0
 40
0.0
 10
0.0
 20
0.0
 30
1.999999999999998E+50
 75
     0
  0
XRECORD
  5
9421A
102
{ACAD_REACTORS
330
87B09
102
}
330
87B09
100
AcDbXrecord
280
     1
102
GRIDDISPLAY
 70
     0
102
GRIDMAJOR
 70
     5
102
DEFAULTLIGHTING
280
     1
102
DEFAULTLIGHTINGTYPE
 70
     1
102
BRIGHTNESS
141
0.0
102
CONTRAST
142
0.0
  0
XRECORD
  5
9421B
102
{ACAD_REACTORS
330
87B0B
102
}
330
87B0B
100
AcDbXrecord
280
     1
102
GRIDDISPLAY
 70
     0
102
GRIDMAJOR
 70
     5
102
DEFAULTLIGHTING
280
     1
102
DEFAULTLIGHTINGTYPE
 70
     1
102
BRIGHTNESS
141
0.0
102
CONTRAST
142
0.0
  0
XRECORD
  5
94217
102
{ACAD_REACTORS
330
94216
102
}
330
94216
100
AcDbXrecord
280
     1
 70
     1
  0
XRECORD
  5
94218
102
{ACAD_REACTORS
330
94216
102
}
330
94216
100
AcDbXrecord
280
     1
1004
1800000001000000000000C1000000000000000000000000
  0
ACDBDETAILVIEWSTYLE
  5
4A3BC
102
{ACAD_XDICTIONARY
360
87B40
102
}
102
{ACAD_REACTORS
330
4A3BB
102
}
330
4A3BB
100
AcDbModelDocViewStyle
 70
     0
  3
Metric50
290
     0
100
AcDbDetailViewStyle
 70
     0
 71
     0
 90
        3
 71
     1
340
11
 40
5.0
340
0
 40
5.0
300

 40
0.0
280
     1
 71
     2
340
16
 90
       25
 71
     3
340
11
 40
5.0
 90
        0
 40
15.0
 90
        1
300
%<\AcVar ViewDetailId>% (%<\AcVar ViewScale \f "%sn">%)
 71
     4
340
16
 90
       25
340
16
 90
       25
280
     0
  0
LAYOUT
  5
22
102
{ACAD_REACTORS
330
1A
102
}
330
1A
100
AcDbPlotSettings
  1

  2
none_device
  4
ANSI_A_(8.50_x_11.00_Inches)
  6

 40
6.349999904632567
 41
19.04999923706055
 42
6.350006103515625
 43
19.04998779296875
 44
215.8999938964844
 45
279.3999938964844
 46
0.0
 47
0.0
 48
0.0
 49
0.0
140
0.0
141
0.0
142
1.0
143
78.436453180766
 70
 11952
 72
     0
 73
     1
 74
     0
  7

 75
     0
147
0.0127491741332998
148
0.0
149
0.0
100
AcDbLayout
  1
Model
 70
     1
 71
     0
 10
0.0
 20
0.0
 11
12.0
 21
9.0
 12
0.0
 22
0.0
 32
0.0
 14
0.0
 24
0.0
 34
0.0
 15
0.0
 25
0.0
 35
0.0
146
0.0
 13
0.0
 23
0.0
 33
0.0
 16
1.0
 26
0.0
 36
0.0
 17
0.0
 27
1.0
 37
0.0
 76
     0
330
1F
331
4A360
  0
LAYOUT
  5
51
102
{ACAD_REACTORS
330
1A
102
}
330
1A
100
AcDbPlotSettings
  1

  2
none_device
  4
Letter_(8.50_x_11.00_Inches)
  6

 40
6.349999904632567
 41
6.349999904632567
 42
6.350006103515625
 43
6.350006103515625
 44
215.8999938964844
 45
279.3999938964844
 46
0.0
 47
0.0
 48
0.0
 49
0.0
140
0.0
141
0.0
142
1.0
143
1.0
 70
   688
 72
     1
 73
     1
 74
     5
  7

 75
    16
147
1.0
148
0.0
149
0.0
100
AcDbLayout
  1
レイアウト1
 70
     1
 71
     1
 10
-6.350006103515625
 20
-6.349999904632567
 11
273.0499877929688
 21
209.5499939918518
 12
0.0
 22
0.0
 32
0.0
 14
26.66999878883364
 24
20.31999878883365
 34
0.0
 15
240.0299890995025
 25
182.8799890995025
 35
0.0
146
0.0
 13
0.0
 23
0.0
 33
0.0
 16
1.0
 26
0.0
 36
0.0
 17
0.0
 27
1.0
 37
0.0
 76
     0
330
50
331
6B
  0
LAYOUT
  5
56
102
{ACAD_REACTORS
330
1A
102
}
330
1A
100
AcDbPlotSettings
  1

  2
none_device
  4
Letter_(8.50_x_11.00_Inches)
  6

 40
6.349999904632567
 41
6.349999904632567
 42
6.350006103515625
 43
6.350006103515625
 44
215.8999938964844
 45
279.3999938964844
 46
0.0
 47
0.0
 48
0.0
 49
0.0
140
0.0
141
0.0
142
1.0
143
1.0
 70
   688
 72
     1
 73
     1
 74
     5
  7

 75
    16
147
1.0
148
0.0
149
0.0
100
AcDbLayout
  1
レイアウト2
 70
     1
 71
     2
 10
-6.350006103515625
 20
-6.349999904632567
 11
273.0499877929688
 21
209.5499939918518
 12
0.0
 22
0.0
 32
0.0
 14
26.66999878883364
 24
20.31999878883365
 34
0.0
 15
240.0299890995025
 25
182.8799890995025
 35
0.0
146
0.0
 13
0.0
 23
0.0
 33
0.0
 16
1.0
 26
0.0
 36
0.0
 17
0.0
 27
1.0
 37
0.0
 76
     0
330
55
331
71
  0
MATERIAL
  5
4A37C
102
{ACAD_XDICTIONARY
360
4A37D
102
}
102
{ACAD_REACTORS
330
84
102
}
330
84
100
AcDbMaterial
  1
ByBlock
 72
     0
 73
     2
 43
0.0008202099737533
 43
0.0
 43
0.0
 43
0.0
 43
0.0
 43
0.0008202099737533
 43
0.0
 43
0.0
 43
0.0
 43
0.0
 43
1.0
 43
0.0
 43
0.0
 43
0.0
 43
0.0
 43
1.0
 77
     0
 78
     2
 47
0.0008202099737533
 47
0.0
 47
0.0
 47
0.0
 47
0.0
 47
0.0008202099737533
 47
0.0
 47
0.0
 47
0.0
 47
0.0
 47
1.0
 47
0.0
 47
0.0
 47
0.0
 47
0.0
 47
1.0
171
     0
172
     2
 49
0.0008202099737533
 49
0.0
 49
0.0
 49
0.0
 49
0.0
 49
0.0008202099737533
 49
0.0
 49
0.0
 49
0.0
 49
0.0
 49
1.0
 49
0.0
 49
0.0
 49
0.0
 49
0.0
 49
1.0
175
     0
176
     2
142
0.0008202099737533
142
0.0
142
0.0
142
0.0
142
0.0
142
0.0008202099737533
142
0.0
142
0.0
142
0.0
142
0.0
142
1.0
142
0.0
142
0.0
142
0.0
142
0.0
142
1.0
179
     0
270
     2
144
0.0008202099737533
144
0.0
144
0.0
144
0.0
144
0.0
144
0.0008202099737533
144
0.0
144
0.0
144
0.0
144
0.0
144
1.0
144
0.0
144
0.0
144
0.0
144
0.0
144
1.0
274
     2
147
0.0008202099737533
147
0.0
147
0.0
147
0.0
147
0.0
147
0.0008202099737533
147
0.0
147
0.0
147
0.0
147
0.0
147
1.0
147
0.0
147
0.0
147
0.0
147
0.0
147
1.0
  0
MATERIAL
  5
4A374
102
{ACAD_XDICTIONARY
360
4A375
102
}
102
{ACAD_REACTORS
330
84
102
}
330
84
100
AcDbMaterial
  1
ByLayer
 72
     0
 73
     2
 43
0.0008202099737533
 43
0.0
 43
0.0
 43
0.0
 43
0.0
 43
0.0008202099737533
 43
0.0
 43
0.0
 43
0.0
 43
0.0
 43
1.0
 43
0.0
 43
0.0
 43
0.0
 43
0.0
 43
1.0
 77
     0
 78
     2
 47
0.0008202099737533
 47
0.0
 47
0.0
 47
0.0
 47
0.0
 47
0.0008202099737533
 47
0.0
 47
0.0
 47
0.0
 47
0.0
 47
1.0
 47
0.0
 47
0.0
 47
0.0
 47
0.0
 47
1.0
171
     0
172
     2
 49
0.0008202099737533
 49
0.0
 49
0.0
 49
0.0
 49
0.0
 49
0.0008202099737533
 49
0.0
 49
0.0
 49
0.0
 49
0.0
 49
1.0
 49
0.0
 49
0.0
 49
0.0
 49
0.0
 49
1.0
175
     0
176
     2
142
0.0008202099737533
142
0.0
142
0.0
142
0.0
142
0.0
142
0.0008202099737533
142
0.0
142
0.0
142
0.0
142
0.0
142
1.0
142
0.0
142
0.0
142
0.0
142
0.0
142
1.0
179
     0
270
     2
144
0.0008202099737533
144
0.0
144
0.0
144
0.0
144
0.0
144
0.0008202099737533
144
0.0
144
0.0
144
0.0
144
0.0
144
1.0
144
0.0
144
0.0
144
0.0
144
0.0
144
1.0
274
     2
147
0.0008202099737533
147
0.0
147
0.0
147
0.0
147
0.0
147
0.0008202099737533
147
0.0
147
0.0
147
0.0
147
0.0
147
1.0
147
0.0
147
0.0
147
0.0
147
0.0
147
1.0
  0
MATERIAL
  5
4A384
102
{ACAD_XDICTIONARY
360
4A385
102
}
102
{ACAD_REACTORS
330
84
102
}
330
84
100
AcDbMaterial
  1
Global
 72
     0
 73
     2
 43
0.0008202099737533
 43
0.0
 43
0.0
 43
0.0
 43
0.0
 43
0.0008202099737533
 43
0.0
 43
0.0
 43
0.0
 43
0.0
 43
1.0
 43
0.0
 43
0.0
 43
0.0
 43
0.0
 43
1.0
 77
     0
 78
     2
 47
0.0008202099737533
 47
0.0
 47
0.0
 47
0.0
 47
0.0
 47
0.0008202099737533
 47
0.0
 47
0.0
 47
0.0
 47
0.0
 47
1.0
 47
0.0
 47
0.0
 47
0.0
 47
0.0
 47
1.0
171
     0
172
     2
 49
0.0008202099737533
 49
0.0
 49
0.0
 49
0.0
 49
0.0
 49
0.0008202099737533
 49
0.0
 49
0.0
 49
0.0
 49
0.0
 49
1.0
 49
0.0
 49
0.0
 49
0.0
 49
0.0
 49
1.0
175
     0
176
     2
142
0.0008202099737533
142
0.0
142
0.0
142
0.0
142
0.0
142
0.0008202099737533
142
0.0
142
0.0
142
0.0
142
0.0
142
1.0
142
0.0
142
0.0
142
0.0
142
0.0
142
1.0
179
     0
270
     2
144
0.0008202099737533
144
0.0
144
0.0
144
0.0
144
0.0
144
0.0008202099737533
144
0.0
144
0.0
144
0.0
144
0.0
144
1.0
144
0.0
144
0.0
144
0.0
144
0.0
144
1.0
274
     2
147
0.0008202099737533
147
0.0
147
0.0
147
0.0
147
0.0
147
0.0008202099737533
147
0.0
147
0.0
147
0.0
147
0.0
147
1.0
147
0.0
147
0.0
147
0.0
147
0.0
147
1.0
  0
MLEADERSTYLE
  5
4A3B8
102
{ACAD_XDICTIONARY
360
8C353
102
}
102
{ACAD_REACTORS
330
4A3B7
102
}
330
4A3B7
100
AcDbMLeaderStyle
170
     2
171
     1
172
     0
 90
        2
 40
0.0
 41
0.0
173
     1
 91
-1056964608
340
14
 92
       -2
290
     1
 42
2.0
291
     1
 43
0.36
  3
Standard
 44
4.0
300

342
11
174
     1
178
     6
175
     1
176
     0
 93
-1056964608
 45
4.0
292
     0
297
     0
 46
4.0
 94
-1056964608
 47
1.0
 49
1.0
140
1.0
293
     1
141
0.0
294
     1
177
     0
142
1.0
295
     0
296
     0
143
0.125
1001
ACAD_MLEADERVER
1070
     2
  0
MLINESTYLE
  5
18
102
{ACAD_REACTORS
330
17
102
}
330
17
100
AcDbMlineStyle
  2
STANDARD
 70
     0
  3

 62
   256
 51
90.0
 52
90.0
 71
     2
 49
0.5
 62
   256
  6
BYLAYER
 49
-0.5
 62
   256
  6
BYLAYER
  0
ACDBPLACEHOLDER
  5
F
102
{ACAD_REACTORS
330
E
102
}
330
E
  0
SCALE
  5
4A3A6
102
{ACAD_REACTORS
330
4A3A5
102
}
330
4A3A5
100
AcDbScale
 70
     0
300
1:1
140
1.0
141
1.0
290
     1
  0
SCALE
  5
4A3A7
102
{ACAD_REACTORS
330
4A3A5
102
}
330
4A3A5
100
AcDbScale
 70
     0
300
1:2
140
1.0
141
2.0
290
     0
  0
SCALE
  5
4A3A8
102
{ACAD_REACTORS
330
4A3A5
102
}
330
4A3A5
100
AcDbScale
 70
     0
300
1:4
140
1.0
141
4.0
290
     0
  0
SCALE
  5
4A3A9
102
{ACAD_REACTORS
330
4A3A5
102
}
330
4A3A5
100
AcDbScale
 70
     0
300
1:5
140
1.0
141
5.0
290
     0
  0
SCALE
  5
4A3AA
102
{ACAD_REACTORS
330
4A3A5
102
}
330
4A3A5
100
AcDbScale
 70
     0
300
1:8
140
1.0
141
8.0
290
     0
  0
SCALE
  5
4A3AB
102
{ACAD_REACTORS
330
4A3A5
102
}
330
4A3A5
100
AcDbScale
 70
     0
300
1:10
140
1.0
141
10.0
290
     0
  0
SCALE
  5
4A3AC
102
{ACAD_REACTORS
330
4A3A5
102
}
330
4A3A5
100
AcDbScale
 70
     0
300
1:16
140
1.0
141
16.0
290
     0
  0
SCALE
  5
4A3AD
102
{ACAD_REACTORS
330
4A3A5
102
}
330
4A3A5
100
AcDbScale
 70
     0
300
1:20
140
1.0
141
20.0
290
     0
  0
SCALE
  5
4A3AE
102
{ACAD_REACTORS
330
4A3A5
102
}
330
4A3A5
100
AcDbScale
 70
     0
300
1:30
140
1.0
141
30.0
290
     0
  0
SCALE
  5
4A3AF
102
{ACAD_REACTORS
330
4A3A5
102
}
330
4A3A5
100
AcDbScale
 70
     0
300
1:40
140
1.0
141
40.0
290
     0
  0
SCALE
  5
4A3B0
102
{ACAD_REACTORS
330
4A3A5
102
}
330
4A3A5
100
AcDbScale
 70
     0
300
1:50
140
1.0
141
50.0
290
     0
  0
SCALE
  5
4A3B1
102
{ACAD_REACTORS
330
4A3A5
102
}
330
4A3A5
100
AcDbScale
 70
     0
300
1:100
140
1.0
141
100.0
290
     0
  0
SCALE
  5
4A3B2
102
{ACAD_REACTORS
330
4A3A5
102
}
330
4A3A5
100
AcDbScale
 70
     0
300
2:1
140
2.0
141
1.0
290
     0
  0
SCALE
  5
4A3B3
102
{ACAD_REACTORS
330
4A3A5
102
}
330
4A3A5
100
AcDbScale
 70
     0
300
4:1
140
4.0
141
1.0
290
     0
  0
SCALE
  5
4A3B4
102
{ACAD_REACTORS
330
4A3A5
102
}
330
4A3A5
100
AcDbScale
 70
     0
300
8:1
140
8.0
141
1.0
290
     0
  0
SCALE
  5
4A3B5
102
{ACAD_REACTORS
330
4A3A5
102
}
330
4A3A5
100
AcDbScale
 70
     0
300
10:1
140
10.0
141
1.0
290
     0
  0
SCALE
  5
4A3B6
102
{ACAD_REACTORS
330
4A3A5
102
}
330
4A3A5
100
AcDbScale
 70
     0
300
100:1
140
100.0
141
1.0
290
     0
  0
ACDBSECTIONVIEWSTYLE
  5
4A3BA
102
{ACAD_XDICTIONARY
360
87B3E
102
}
102
{ACAD_REACTORS
330
4A3B9
102
}
330
4A3B9
100
AcDbModelDocViewStyle
 70
     0
  3
Metric50
290
     0
100
AcDbSectionViewStyle
 70
     0
 71
     0
 90
      102
 71
     1
340
11
 40
5.0
340
0
340
0
 40
5.0
300
I, O, Q, S, X, Z
 40
10.0
 90
        0
 40
2.5
 90
        0
 71
     2
340
16
 90
       25
340
16
 90
       50
 40
5.0
 40
2.5
 40
5.0
 71
     3
340
11
 40
5.0
 90
        0
 40
15.0
 90
        1
300
%<\AcVar ViewSectionStartId>%-%<\AcVar ViewSectionEndId>% (%<\AcVar ViewScale \f "%sn">%)
 71
     4
300
ANSI31
 40
1.0
 90
        0
290
     0
290
     0
 90
        6
 40
0.0
 40
1.570796326794896
 40
0.2617993877991494
 40
1.308996938995747
 40
-0.2617993877991494
 40
1.832595714594044
  0
TABLESTYLE
  5
A2
102
{ACAD_XDICTIONARY
360
4CD9A
102
}
102
{ACAD_REACTORS
330
A1
102
}
330
A1
100
AcDbTableStyle
  3
Standard
 70
     0
 71
     0
 40
1.5
 41
1.5
280
     0
281
     0
  7
Standard
140
4.5
170
     2
 62
     0
 63
   257
283
     0
274
    -2
284
     1
 64
     0
275
    -2
285
     1
 65
     0
276
    -2
286
     1
 66
     0
277
    -2
287
     1
 67
     0
278
    -2
288
     1
 68
     0
279
    -2
289
     1
 69
     0
  7
Standard
140
6.0
170
     5
 62
     0
 63
   257
283
     0
274
    -2
284
     1
 64
     0
275
    -2
285
     1
 65
     0
276
    -2
286
     1
 66
     0
277
    -2
287
     1
 67
     0
278
    -2
288
     1
 68
     0
279
    -2
289
     1
 69
     0
  7
Standard
140
4.5
170
     5
 62
     0
 63
   257
283
     0
274
    -2
284
     1
 64
     0
275
    -2
285
     1
 65
     0
276
    -2
286
     1
 66
     0
277
    -2
287
     1
 67
     0
278
    -2
288
     1
 68
     0
279
    -2
289
     1
 69
     0
  0
VISUALSTYLE
  5
4A392
102
{ACAD_XDICTIONARY
360
87B18
102
}
102
{ACAD_REACTORS
330
4A38C
102
}
330
4A38C
100
AcDbVisualStyle
  2

 70
     4
 71
     0
 72
     2
 73
     0
 90
        0
 40
-0.6
 41
-30.0
 62
     5
 63
     7
 74
     1
 91
        4
 64
     7
 65
   257
 75
     1
175
     1
 42
1.0
 92
        0
 66
   257
 43
1.0
 76
     1
 77
     6
 78
     2
 67
     7
 79
     5
170
     0
171
     0
290
     0
174
     0
 93
        1
 44
0.0
173
     0
291
     0
 45
0.0
1001
ACAD
1000
AcDbSavedByObjectVersion
1070
     0
  0
VISUALSTYLE
  5
4A391
102
{ACAD_XDICTIONARY
360
87B16
102
}
102
{ACAD_REACTORS
330
4A38C
102
}
330
4A38C
100
AcDbVisualStyle
  2

 70
     7
 71
     1
 72
     0
 73
     1
 90
        0
 40
-0.6
 41
-30.0
 62
     5
 63
     7
 74
     0
 91
        4
 64
     7
 65
   257
 75
     1
175
     1
 42
1.0
 92
        8
 66
     7
 43
1.0
 76
     1
 77
     6
 78
     2
 67
     7
 79
     5
170
     0
171
     0
290
     0
174
     0
 93
        1
 44
0.0
173
     0
291
     1
 45
0.0
1001
ACAD
1000
AcDbSavedByObjectVersion
1070
     0
  0
VISUALSTYLE
  5
4A398
102
{ACAD_XDICTIONARY
360
87B24
102
}
102
{ACAD_REACTORS
330
4A38C
102
}
330
4A38C
100
AcDbVisualStyle
  2

 70
    12
 71
     2
 72
     2
 73
     0
 90
        0
 40
-0.6
 41
-30.0
 62
     5
 63
     7
 74
     1
 91
        4
 64
     7
 65
   257
 75
     1
175
     1
 42
1.0
 92
        8
 66
     7
 43
1.0
 76
     1
 77
     6
 78
     2
 67
     7
 79
     5
170
     0
171
     0
290
     0
174
     0
 93
        1
 44
50.0
173
     0
291
     1
 45
0.0
1001
ACAD
1000
AcDbSavedByObjectVersion
1070
     0
  0
VISUALSTYLE
  5
4A39C
102
{ACAD_XDICTIONARY
360
87B2C
102
}
102
{ACAD_REACTORS
330
4A38C
102
}
330
4A38C
100
AcDbVisualStyle
  2

 70
    16
 71
     2
 72
     2
 73
     3
 90
        0
 40
-0.6
 41
-30.0
 62
     5
 63
     8
 74
     1
 91
        4
 64
     7
 65
   257
 75
     1
175
     1
 42
1.0
 92
        8
 66
     8
 43
1.0
 76
     1
 77
     6
 78
     2
 67
     7
 79
     5
170
     0
171
     0
290
     0
174
     0
 93
        1
 44
0.0
173
     0
291
     1
 45
0.0
1001
ACAD
1000
AcDbSavedByObjectVersion
1070
     0
  0
VISUALSTYLE
  5
4A395
102
{ACAD_XDICTIONARY
360
87B1E
102
}
102
{ACAD_REACTORS
330
4A38C
102
}
330
4A38C
100
AcDbVisualStyle
  2

 70
     9
 71
     3
 72
     2
 73
     0
 90
        0
 40
-0.6
 41
-30.0
 62
     5
 63
     7
 74
     2
 91
        2
 64
     7
 65
   257
 75
     1
175
     1
 42
179.0
 92
        8
 66
     7
 43
1.0
 76
     1
 77
     6
 78
     2
 67
     7
 79
     3
170
     0
171
     0
290
     0
174
     0
 93
        1
 44
0.0
173
     0
291
     0
 45
0.0
1001
ACAD
1000
AcDbSavedByObjectVersion
1070
     0
  0
VISUALSTYLE
  5
4A397
102
{ACAD_XDICTIONARY
360
87B22
102
}
102
{ACAD_REACTORS
330
4A38C
102
}
330
4A38C
100
AcDbVisualStyle
  2

 70
    11
 71
     2
 72
     2
 73
     0
 90
        0
 40
-0.6
 41
-30.0
 62
     5
 63
     7
 74
     1
 91
        4
 64
     7
 65
   257
 75
     1
175
     1
 42
1.0
 92
        8
 66
     7
 43
1.0
 76
     1
 77
     6
 78
     2
 67
     7
 79
     5
170
     0
171
     0
290
     0
174
     0
 93
        1
 44
-50.0
173
     0
291
     1
 45
0.0
1001
ACAD
1000
AcDbSavedByObjectVersion
1070
     0
  0
VISUALSTYLE
  5
4A3A4
102
{ACAD_XDICTIONARY
360
87B3C
102
}
102
{ACAD_REACTORS
330
4A38C
102
}
330
4A38C
100
AcDbVisualStyle
  2

 70
    22
 71
     2
 72
     2
 73
     0
 90
        0
 40
-0.6
 41
-30.0
 62
     5
 63
     7
 74
     1
 91
        4
 64
     7
 65
   257
 75
     1
175
     1
 42
1.0
 92
        8
 66
     7
 43
1.0
 76
     1
 77
     6
 78
     2
 67
     7
 79
     5
170
     0
171
     0
290
     0
174
     0
 93
        1
 44
0.0
173
     0
291
     1
 45
0.0
1001
ACAD
1000
AcDbSavedByObjectVersion
1070
     0
  0
VISUALSTYLE
  5
4A39B
102
{ACAD_XDICTIONARY
360
87B2A
102
}
102
{ACAD_REACTORS
330
4A38C
102
}
330
4A38C
100
AcDbVisualStyle
  2

 70
    15
 71
     2
 72
     2
 73
     0
 90
        0
 40
-0.6
 41
-30.0
 62
     5
 63
     7
 74
     1
 91
        4
 64
     7
 65
   257
 75
     1
175
     1
 42
1.0
 92
        8
 66
     7
 43
1.0
 76
     1
 77
     6
 78
     2
 67
     7
 79
     5
170
     0
171
     0
290
     0
174
     0
 93
        1
 44
0.0
173
     0
291
     1
 45
0.0
1001
ACAD
1000
AcDbSavedByObjectVersion
1070
     0
  0
VISUALSTYLE
  5
4A38D
102
{ACAD_XDICTIONARY
360
87B0E
102
}
102
{ACAD_REACTORS
330
4A38C
102
}
330
4A38C
100
AcDbVisualStyle
  2

 70
     0
 71
     2
 72
     1
 73
     1
 90
        2
 40
-0.6
 41
30.0
 62
     5
 63
     7
 74
     0
 91
        0
 64
     7
 65
   257
 75
     1
175
     1
 42
1.0
 92
        8
 66
     7
 43
1.0
 76
     1
 77
     6
 78
     2
 67
     7
 79
     5
170
     0
171
     0
290
     0
174
     0
 93
       13
 44
0.0
173
     0
291
     1
 45
0.0
1001
ACAD
1000
AcDbSavedByObjectVersion
1070
     0
  0
VISUALSTYLE
  5
4A38E
102
{ACAD_XDICTIONARY
360
87B10
102
}
102
{ACAD_REACTORS
330
4A38C
102
}
330
4A38C
100
AcDbVisualStyle
  2

 70
     1
 71
     2
 72
     1
 73
     1
 90
        2
 40
-0.6
 41
30.0
 62
     5
 63
     7
 74
     1
 91
        0
 64
     7
 65
   257
 75
     1
175
     1
 42
1.0
 92
        0
 66
   257
 43
1.0
 76
     1
 77
     6
 78
     2
 67
     7
 79
     5
170
     0
171
     0
290
     0
174
     0
 93
       13
 44
0.0
173
     0
291
     1
 45
0.0
1001
ACAD
1000
AcDbSavedByObjectVersion
1070
     0
  0
VISUALSTYLE
  5
4A38F
102
{ACAD_XDICTIONARY
360
87B12
102
}
102
{ACAD_REACTORS
330
4A38C
102
}
330
4A38C
100
AcDbVisualStyle
  2

 70
     2
 71
     2
 72
     2
 73
     1
 90
        2
 40
-0.6
 41
30.0
 62
     5
 63
     7
 74
     0
 91
        0
 64
     7
 65
   257
 75
     1
175
     1
 42
1.0
 92
        0
 66
     7
 43
1.0
 76
     1
 77
     6
 78
     2
 67
     7
 79
     5
170
     0
171
     0
290
     0
174
     0
 93
       13
 44
0.0
173
     0
291
     1
 45
0.0
1001
ACAD
1000
AcDbSavedByObjectVersion
1070
     0
  0
VISUALSTYLE
  5
4A390
102
{ACAD_XDICTIONARY
360
87B14
102
}
102
{ACAD_REACTORS
330
4A38C
102
}
330
4A38C
100
AcDbVisualStyle
  2

 70
     3
 71
     2
 72
     2
 73
     1
 90
        2
 40
-0.6
 41
30.0
 62
     5
 63
     7
 74
     1
 91
        0
 64
     7
 65
   257
 75
     1
175
     1
 42
1.0
 92
        0
 66
   257
 43
1.0
 76
     1
 77
     6
 78
     2
 67
     7
 79
     5
170
     0
171
     0
290
     0
174
     0
 93
       13
 44
0.0
173
     0
291
     1
 45
0.0
1001
ACAD
1000
AcDbSavedByObjectVersion
1070
     0
  0
VISUALSTYLE
  5
4A394
102
{ACAD_XDICTIONARY
360
87B1C
102
}
102
{ACAD_REACTORS
330
4A38C
102
}
330
4A38C
100
AcDbVisualStyle
  2

 70
     6
 71
     1
 72
     2
 73
     2
 90
        0
 40
-0.6
 41
-30.0
 62
     5
 63
     7
 74
     2
 91
        2
 64
     7
 65
   257
 75
     2
175
     1
 42
40.0
 92
        0
 66
   257
 43
1.0
 76
     1
 77
     6
 78
     2
 67
     7
 79
     3
170
     0
171
     0
290
     0
174
     0
 93
        1
 44
0.0
173
     0
291
     0
 45
0.0
1001
ACAD
1000
AcDbSavedByObjectVersion
1070
     0
  0
VISUALSTYLE
  5
4A3A2
102
{ACAD_XDICTIONARY
360
87B38
102
}
102
{ACAD_REACTORS
330
4A38C
102
}
330
4A38C
100
AcDbVisualStyle
  2

 70
    20
 71
     2
 72
     2
 73
     0
 90
        0
 40
-0.6
 41
-30.0
 62
     5
 63
     7
 74
     1
 91
        4
 64
     7
 65
   257
 75
     1
175
     1
 42
1.0
 92
       10
 66
     7
 43
1.0
 76
     1
 77
     6
 78
     2
 67
     7
 79
     5
170
     0
171
     0
290
     0
174
     0
 93
        1
 44
0.0
173
     0
291
     1
 45
0.0
1001
ACAD
1000
AcDbSavedByObjectVersion
1070
     0
  0
VISUALSTYLE
  5
4A39A
102
{ACAD_XDICTIONARY
360
87B28
102
}
102
{ACAD_REACTORS
330
4A38C
102
}
330
4A38C
100
AcDbVisualStyle
  2

 70
    14
 71
     2
 72
     2
 73
     0
 90
        0
 40
-0.6
 41
-30.0
 62
     5
 63
     7
 74
     1
 91
        4
 64
     7
 65
   257
 75
     7
175
     7
 42
1.0
 92
        8
 66
     7
 43
1.0
 76
     1
 77
     6
 78
     2
 67
     7
 79
     5
170
     0
171
     0
290
     0
174
     0
 93
        1
 44
0.0
173
     0
291
     1
 45
0.0
1001
ACAD
1000
AcDbSavedByObjectVersion
1070
     0
  0
VISUALSTYLE
  5
4A3A3
102
{ACAD_XDICTIONARY
360
87B3A
102
}
102
{ACAD_REACTORS
330
4A38C
102
}
330
4A38C
100
AcDbVisualStyle
  2

 70
    21
 71
     2
 72
     2
 73
     0
 90
        0
 40
-0.6
 41
-30.0
 62
     5
 63
     7
 74
     1
 91
        4
 64
     7
 65
   257
 75
     1
175
     1
 42
1.0
 92
        9
 66
     7
 43
1.0
 76
     1
 77
     6
 78
     2
 67
     7
 79
     5
170
     0
171
     0
290
     0
174
     0
 93
        1
 44
0.0
173
     0
291
     1
 45
0.0
1001
ACAD
1000
AcDbSavedByObjectVersion
1070
     0
  0
VISUALSTYLE
  5
4A396
102
{ACAD_XDICTIONARY
360
87B20
102
}
102
{ACAD_REACTORS
330
4A38C
102
}
330
4A38C
100
AcDbVisualStyle
  2

 70
     8
 71
     2
 72
     3
 73
     0
 90
        2
 40
-0.6
 41
30.0
 62
     5
 63
     7
 74
     0
 91
        0
 64
     7
 65
   257
 75
     1
175
     1
 42
1.0
 92
        8
 66
   257
 43
1.0
 76
     1
 77
     6
 78
     2
 67
     7
 79
     3
170
     0
171
     0
290
     0
174
     0
 93
       13
 44
0.0
173
     0
291
     0
 45
0.0
1001
ACAD
1000
AcDbSavedByObjectVersion
1070
     0
  0
VISUALSTYLE
  5
4A3A1
102
{ACAD_XDICTIONARY
360
87B36
102
}
102
{ACAD_REACTORS
330
4A38C
102
}
330
4A38C
100
AcDbVisualStyle
  2

 70
    27
 71
     2
 72
     2
 73
     1
 90
        2
 40
-0.6
 41
30.0
 62
     5
 63
     7
 74
     0
 91
        4
 64
     7
 65
   257
 75
     1
175
     1
 42
1.0
 92
        8
 66
   257
 43
1.0
 76
     1
 77
     6
 78
     2
 67
     8
 79
     3
170
     0
171
     0
290
     0
174
     0
 93
        5
 44
0.0
173
     0
291
     0
 45
0.0
1001
ACAD
1000
AcDbSavedByObjectVersion
1070
     0
  0
VISUALSTYLE
  5
4A3A0
102
{ACAD_XDICTIONARY
360
87B34
102
}
102
{ACAD_REACTORS
330
4A38C
102
}
330
4A38C
100
AcDbVisualStyle
  2

 70
    26
 71
     2
 72
     2
 73
     1
 90
        2
 40
-0.6
 41
30.0
 62
     5
 63
     7
 74
     1
 91
        2
 64
     7
 65
   257
 75
     2
175
     1
 42
1.0
 92
        8
 66
   257
 43
1.0
 76
     1
 77
     6
 78
     2
 67
     7
 79
     3
170
     0
171
     0
290
     0
174
     0
 93
        5
 44
0.0
173
     0
291
     0
 45
0.0
1001
ACAD
1000
AcDbSavedByObjectVersion
1070
     0
  0
VISUALSTYLE
  5
4A39D
102
{ACAD_XDICTIONARY
360
87B2E
102
}
102
{ACAD_REACTORS
330
4A38C
102
}
330
4A38C
100
AcDbVisualStyle
  2

 70
    23
 71
     2
 72
     2
 73
     3
 90
        0
 40
-0.6
 41
-30.0
 62
     5
 63
     7
 74
     2
 91
        2
 64
     7
 65
     7
 75
     1
175
     1
 42
40.0
 92
        8
 66
     7
 43
1.0
 76
     1
 77
     6
 78
     2
 67
     7
 79
     3
170
     0
171
     0
290
     0
174
     0
 93
        1
 44
0.0
173
     0
291
     0
 45
0.0
1001
ACAD
1000
AcDbSavedByObjectVersion
1070
     0
  0
VISUALSTYLE
  5
4A39E
102
{ACAD_XDICTIONARY
360
87B30
102
}
102
{ACAD_REACTORS
330
4A38C
102
}
330
4A38C
100
AcDbVisualStyle
  2

 70
    24
 71
     1
 72
     2
 73
     2
 90
        0
 40
-0.6
 41
-30.0
 62
     5
 63
     7
 74
     2
 91
        2
 64
     7
 65
     7
 75
     1
175
     1
 42
40.0
 92
       11
 66
     7
 43
1.0
 76
     1
 77
     6
 78
     2
 67
     7
 79
     6
170
     0
171
     0
290
     0
174
     0
 93
        1
 44
0.0
173
     0
291
     0
 45
0.0
1001
ACAD
1000
AcDbSavedByObjectVersion
1070
     0
  0
VISUALSTYLE
  5
4A399
102
{ACAD_XDICTIONARY
360
87B26
102
}
102
{ACAD_REACTORS
330
4A38C
102
}
330
4A38C
100
AcDbVisualStyle
  2

 70
    13
 71
     2
 72
     2
 73
     0
 90
        0
 40
-0.6
 41
-30.0
 62
     5
 63
     7
 74
     1
 91
        4
 64
     7
 65
   257
 75
     1
175
     1
 42
1.0
 92
       12
 66
     7
 43
1.0
 76
     1
 77
     6
 78
     2
 67
     7
 79
     5
170
     0
171
     0
290
     0
174
     0
 93
        1
 44
0.0
173
     0
291
     1
 45
0.0
1001
ACAD
1000
AcDbSavedByObjectVersion
1070
     0
  0
VISUALSTYLE
  5
4A393
102
{ACAD_XDICTIONARY
360
87B1A
102
}
102
{ACAD_REACTORS
330
4A38C
102
}
330
4A38C
100
AcDbVisualStyle
  2

 70
     5
 71
     0
 72
     2
 73
     0
 90
        0
 40
-0.6
 41
-30.0
 62
     5
 63
     7
 74
     1
 91
        4
 64
     7
 65
   257
 75
     1
175
     1
 42
1.0
 92
        0
 66
   257
 43
1.0
 76
     1
 77
     6
 78
     2
 67
     7
 79
     3
170
     0
171
     0
290
     0
174
     0
 93
        1
 44
0.0
173
     0
291
     0
 45
0.0
1001
ACAD
1000
AcDbSavedByObjectVersion
1070
     0
  0
VISUALSTYLE
  5
4A39F
102
{ACAD_XDICTIONARY
360
87B32
102
}
102
{ACAD_REACTORS
330
4A38C
102
}
330
4A38C
100
AcDbVisualStyle
  2

 70
    25
 71
     2
 72
     2
 73
     1
 90
        1
 40
0.5
 41
-30.0
 62
     5
 63
     7
 74
     1
 91
        0
 64
     7
 65
   257
 75
     1
175
     1
 42
1.0
 92
        8
 66
     7
 43
1.0
 76
     1
 77
     6
 78
     2
 67
     7
 79
     3
170
     0
171
     0
290
     0
174
     0
 93
       13
 44
0.0
173
     0
291
     0
 45
0.0
1001
ACAD
1000
AcDbSavedByObjectVersion
1070
     0
  0
XRECORD
  5
94214
102
{ACAD_REACTORS
330
94213
102
}
330
94213
100
AcDbXrecord
280
     1
340
85
  0
XRECORD
  5
94215
102
{ACAD_REACTORS
330
94213
102
}
330
94213
100
AcDbXrecord
280
     1
340
84
  0
DICTIONARYVAR
  5
94212
102
{ACAD_REACTORS
330
5E
102
}
330
5E
100
DictionaryVariables
280
   100
  1
1:1
  0
DICTIONARYVAR
  5
4A6CE
102
{ACAD_REACTORS
330
5E
102
}
330
5E
100
DictionaryVariables
280
     0
  1
STANDARD
  0
DICTIONARYVAR
  5
B8
102
{ACAD_REACTORS
330
5E
102
}
330
5E
100
DictionaryVariables
280
     0
  1
STANDARD
  0
DICTIONARYVAR
  5
4A6CF
102
{ACAD_REACTORS
330
5E
102
}
330
5E
100
DictionaryVariables
280
     0
  1
Metric50
  0
DICTIONARYVAR
  5
4A6D0
102
{ACAD_REACTORS
330
5E
102
}
330
5E
100
DictionaryVariables
280
     0
  1
Metric50
  0
DICTIONARYVAR
  5
5F
102
{ACAD_REACTORS
330
5E
102
}
330
5E
100
DictionaryVariables
280
     0
  1
2
  0
DICTIONARYVAR
  5
63
102
{ACAD_REACTORS
330
5E
102
}
330
5E
100
DictionaryVariables
280
     0
  1
1
  0
DICTIONARYVAR
  5
4A879
102
{ACAD_REACTORS
330
5E
102
}
330
5E
100
DictionaryVariables
280
     0
  1
0
  0
DICTIONARYVAR
  5
4A6D4
102
{ACAD_REACTORS
330
5E
102
}
330
5E
100
DictionaryVariables
280
     0
  1
1
  0
DICTIONARYVAR
  5
4A6D5
102
{ACAD_REACTORS
330
5E
102
}
330
5E
100
DictionaryVariables
280
     0
  1
15
  0
DICTIONARYVAR
  5
4A6D3
102
{ACAD_REACTORS
330
5E
102
}
330
5E
100
DictionaryVariables
280
     0
  1
0
  0
DICTIONARYVAR
  5
4A6D1
102
{ACAD_REACTORS
330
5E
102
}
330
5E
100
DictionaryVariables
280
     0
  1
0
  0
DICTIONARYVAR
  5
31CE
102
{ACAD_REACTORS
330
5E
102
}
330
5E
100
DictionaryVariables
280
     0
  1

  0
DICTIONARYVAR
  5
4A878
102
{ACAD_REACTORS
330
5E
102
}
330
5E
100
DictionaryVariables
280
     0
  1
127
  0
DICTIONARYVAR
  5
87AF9
102
{ACAD_REACTORS
330
5E
102
}
330
5E
100
DictionaryVariables
280
     0
  1
2
  0
XRECORD
  5
349EA
102
{ACAD_REACTORS
330
349E9
102
}
330
349E9
100
AcDbXrecord
280
     1
330
0
330
0
330
0
330
0
330
0
330
0
330
0
330
0
330
0
330
0
330
0
330
0
330
0
330
0
330
0
330
0
330
0
330
0
330
0
330
0
330
0
330
0
330
0
330
0
330
0
330
0
330
0
330
0
330
0
330
0
330
0
330
0
330
0
330
0
330
0
330
0
330
0
330
0
330
0
330
0
330
0
330
0
330
0
330
0
330
0
330
0
330
0
330
0
330
0
330
0
330
0
330
0
330
0
330
0
330
0
330
0
330
0
330
0
330
0
330
0
330
0
330
0
330
0
330
0
330
0
330
0
330
0
330
0
330
0
330
0
330
0
330
0
330
0
330
0
330
0
330
0
330
0
330
0
330
0
330
0
330
0
330
0
330
0
330
0
330
0
330
0
330
0
330
0
330
0
330
0
330
0
330
0
330
0
330
0
330
0
330
0
330
0
330
0
330
0
330
0
330
0
330
0
330
0
330
0
330
0
330
0
330
0
330
0
330
0
330
0
  0
DICTIONARY
  5
87B40
330
4A3BC
100
AcDbDictionary
280
     1
281
     1
  3
ACAD_XREC_ROUNDTRIP
360
87B41
  0
DICTIONARY
  5
4A37D
330
4A37C
100
AcDbDictionary
280
     1
281
     1
  3
ACAD_XREC_ROUNDTRIP
360
94220
  0
DICTIONARY
  5
4A375
330
4A374
100
AcDbDictionary
280
     1
281
     1
  3
ACAD_XREC_ROUNDTRIP
360
94221
  0
DICTIONARY
  5
4A385
330
4A384
100
AcDbDictionary
280
     1
281
     1
  3
ACAD_XREC_ROUNDTRIP
360
94222
  0
DICTIONARY
  5
8C353
330
4A3B8
100
AcDbDictionary
280
     1
281
     1
  3
ACAD_XREC_ROUNDTRIP
360
94223
  0
DICTIONARY
  5
87B3E
330
4A3BA
100
AcDbDictionary
280
     1
281
     1
  3
ACAD_XREC_ROUNDTRIP
360
87B3F
  0
DICTIONARY
  5
4CD9A
330
A2
100
AcDbDictionary
280
     1
281
     1
  3
ACAD_ROUNDTRIP_2008_TABLESTYLE_CELLSTYLEMAP
360
94225
  3
ACAD_XREC_ROUNDTRIP
360
94224
  0
DICTIONARY
  5
87B18
330
4A392
100
AcDbDictionary
280
     1
281
     1
  3
ACAD_XREC_ROUNDTRIP
360
94226
  0
DICTIONARY
  5
87B16
330
4A391
100
AcDbDictionary
280
     1
281
     1
  3
ACAD_XREC_ROUNDTRIP
360
94227
  0
DICTIONARY
  5
87B24
330
4A398
100
AcDbDictionary
280
     1
281
     1
  3
ACAD_XREC_ROUNDTRIP
360
94228
  0
DICTIONARY
  5
87B2C
330
4A39C
100
AcDbDictionary
280
     1
281
     1
  3
ACAD_XREC_ROUNDTRIP
360
94229
  0
DICTIONARY
  5
87B1E
330
4A395
100
AcDbDictionary
280
     1
281
     1
  3
ACAD_XREC_ROUNDTRIP
360
9422A
  0
DICTIONARY
  5
87B22
330
4A397
100
AcDbDictionary
280
     1
281
     1
  3
ACAD_XREC_ROUNDTRIP
360
9422B
  0
DICTIONARY
  5
87B3C
330
4A3A4
100
AcDbDictionary
280
     1
281
     1
  3
ACAD_XREC_ROUNDTRIP
360
9422C
  0
DICTIONARY
  5
87B2A
330
4A39B
100
AcDbDictionary
280
     1
281
     1
  3
ACAD_XREC_ROUNDTRIP
360
9422D
  0
DICTIONARY
  5
87B0E
330
4A38D
100
AcDbDictionary
280
     1
281
     1
  3
ACAD_XREC_ROUNDTRIP
360
9422E
  0
DICTIONARY
  5
87B10
330
4A38E
100
AcDbDictionary
280
     1
281
     1
  3
ACAD_XREC_ROUNDTRIP
360
9422F
  0
DICTIONARY
  5
87B12
330
4A38F
100
AcDbDictionary
280
     1
281
     1
  3
ACAD_XREC_ROUNDTRIP
360
94230
  0
DICTIONARY
  5
87B14
330
4A390
100
AcDbDictionary
280
     1
281
     1
  3
ACAD_XREC_ROUNDTRIP
360
94231
  0
DICTIONARY
  5
87B1C
330
4A394
100
AcDbDictionary
280
     1
281
     1
  3
ACAD_XREC_ROUNDTRIP
360
94232
  0
DICTIONARY
  5
87B38
330
4A3A2
100
AcDbDictionary
280
     1
281
     1
  3
ACAD_XREC_ROUNDTRIP
360
94233
  0
DICTIONARY
  5
87B28
330
4A39A
100
AcDbDictionary
280
     1
281
     1
  3
ACAD_XREC_ROUNDTRIP
360
94234
  0
DICTIONARY
  5
87B3A
330
4A3A3
100
AcDbDictionary
280
     1
281
     1
  3
ACAD_XREC_ROUNDTRIP
360
94235
  0
DICTIONARY
  5
87B20
330
4A396
100
AcDbDictionary
280
     1
281
     1
  3
ACAD_XREC_ROUNDTRIP
360
94236
  0
DICTIONARY
  5
87B36
330
4A3A1
100
AcDbDictionary
280
     1
281
     1
  3
ACAD_XREC_ROUNDTRIP
360
94237
  0
DICTIONARY
  5
87B34
330
4A3A0
100
AcDbDictionary
280
     1
281
     1
  3
ACAD_XREC_ROUNDTRIP
360
94238
  0
DICTIONARY
  5
87B2E
330
4A39D
100
AcDbDictionary
280
     1
281
     1
  3
ACAD_XREC_ROUNDTRIP
360
94239
  0
DICTIONARY
  5
87B30
330
4A39E
100
AcDbDictionary
280
     1
281
     1
  3
ACAD_XREC_ROUNDTRIP
360
9423A
  0
DICTIONARY
  5
87B26
330
4A399
100
AcDbDictionary
280
     1
281
     1
  3
ACAD_XREC_ROUNDTRIP
360
9423B
  0
DICTIONARY
  5
87B1A
330
4A393
100
AcDbDictionary
280
     1
281
     1
  3
ACAD_XREC_ROUNDTRIP
360
9423C
  0
DICTIONARY
  5
87B32
330
4A39F
100
AcDbDictionary
280
     1
281
     1
  3
ACAD_XREC_ROUNDTRIP
360
9423D
  0
XRECORD
  5
87B41
102
{ACAD_REACTORS
330
87B40
102
}
330
87B40
100
AcDbXrecord
280
     1
102
DISPLAYNAME
  1
Metric50
102
FLAGS
 90
        0
  0
XRECORD
  5
94220
102
{ACAD_REACTORS
330
4A37D
102
}
330
4A37D
100
AcDbXrecord
280
     1
102
MATERIAL
148
0.0
149
0.0
149
0.0
 93
        0
 94
      127
282
     0
 72
     0
 77
     0
171
     0
175
     0
179
     0
273
     0
  0
XRECORD
  5
94221
102
{ACAD_REACTORS
330
4A375
102
}
330
4A375
100
AcDbXrecord
280
     1
102
MATERIAL
148
0.0
149
0.0
149
0.0
 93
        0
 94
      127
282
     0
 72
     0
 77
     0
171
     0
175
     0
179
     0
273
     0
  0
XRECORD
  5
94222
102
{ACAD_REACTORS
330
4A385
102
}
330
4A385
100
AcDbXrecord
280
     1
102
MATERIAL
148
0.0
149
0.0
149
0.0
 93
        0
 94
      127
282
     0
 72
     0
 77
     0
171
     0
175
     0
179
     0
273
     0
  0
XRECORD
  5
94223
102
{ACAD_REACTORS
330
8C353
102
}
330
8C353
100
AcDbXrecord
280
     1
102
ACAD_ROUNDTRIP_2010_MLEADER_STYLE
  0
XRECORD
  5
87B3F
102
{ACAD_REACTORS
330
87B3E
102
}
330
87B3E
100
AcDbXrecord
280
     1
102
DISPLAYNAME
  1
Metric50
102
FLAGS
 90
        0
  0
CELLSTYLEMAP
  5
94225
102
{ACAD_REACTORS
330
4CD9A
102
}
330
4CD9A
100
AcDbCellStyleMap
 90
        3
300
CELLSTYLE
  1
TABLEFORMAT_BEGIN
 90
        5
170
     1
 91
        0
 92
    32768
 62
   257
 93
        1
300
CONTENTFORMAT
  1
CONTENTFORMAT_BEGIN
 90
        0
 91
        0
 92
        4
 93
        0
300

 40
0.0
140
1.0
 94
        5
 62
     0
340
11
144
6.0
309
CONTENTFORMAT_END
171
     1
301
MARGIN
  1
CELLMARGIN_BEGIN
 40
1.5
 40
1.5
 40
1.5
 40
1.5
 40
0.18
 40
0.18
309
CELLMARGIN_END
 94
        6
 95
        1
302
GRIDFORMAT
  1
GRIDFORMAT_BEGIN
 90
        0
 91
        1
 62
     0
 92
       -2
340
0
 93
        0
 40
0.045
309
GRIDFORMAT_END
 95
        2
302
GRIDFORMAT
  1
GRIDFORMAT_BEGIN
 90
        0
 91
        1
 62
     0
 92
       -2
340
0
 93
        0
 40
0.045
309
GRIDFORMAT_END
 95
        4
302
GRIDFORMAT
  1
GRIDFORMAT_BEGIN
 90
        0
 91
        1
 62
     0
 92
       -2
340
0
 93
        0
 40
0.045
309
GRIDFORMAT_END
 95
        8
302
GRIDFORMAT
  1
GRIDFORMAT_BEGIN
 90
        0
 91
        1
 62
     0
 92
       -2
340
0
 93
        0
 40
0.045
309
GRIDFORMAT_END
 95
       16
302
GRIDFORMAT
  1
GRIDFORMAT_BEGIN
 90
        0
 91
        1
 62
     0
 92
       -2
340
0
 93
        0
 40
0.045
309
GRIDFORMAT_END
 95
       32
302
GRIDFORMAT
  1
GRIDFORMAT_BEGIN
 90
        0
 91
        1
 62
     0
 92
       -2
340
0
 93
        0
 40
0.045
309
GRIDFORMAT_END
309
TABLEFORMAT_END
  1
CELLSTYLE_BEGIN
 90
        1
 91
        1
300
_TITLE
309
CELLSTYLE_END
300
CELLSTYLE
  1
TABLEFORMAT_BEGIN
 90
        5
170
     1
 91
        0
 92
        0
 62
   257
 93
        1
300
CONTENTFORMAT
  1
CONTENTFORMAT_BEGIN
 90
        0
 91
        0
 92
        4
 93
        0
300

 40
0.0
140
1.0
 94
        5
 62
     0
340
11
144
4.5
309
CONTENTFORMAT_END
171
     1
301
MARGIN
  1
CELLMARGIN_BEGIN
 40
1.5
 40
1.5
 40
1.5
 40
1.5
 40
0.18
 40
0.18
309
CELLMARGIN_END
 94
        6
 95
        1
302
GRIDFORMAT
  1
GRIDFORMAT_BEGIN
 90
        0
 91
        1
 62
     0
 92
       -2
340
0
 93
        0
 40
0.045
309
GRIDFORMAT_END
 95
        2
302
GRIDFORMAT
  1
GRIDFORMAT_BEGIN
 90
        0
 91
        1
 62
     0
 92
       -2
340
0
 93
        0
 40
0.045
309
GRIDFORMAT_END
 95
        4
302
GRIDFORMAT
  1
GRIDFORMAT_BEGIN
 90
        0
 91
        1
 62
     0
 92
       -2
340
0
 93
        0
 40
0.045
309
GRIDFORMAT_END
 95
        8
302
GRIDFORMAT
  1
GRIDFORMAT_BEGIN
 90
        0
 91
        1
 62
     0
 92
       -2
340
0
 93
        0
 40
0.045
309
GRIDFORMAT_END
 95
       16
302
GRIDFORMAT
  1
GRIDFORMAT_BEGIN
 90
        0
 91
        1
 62
     0
 92
       -2
340
0
 93
        0
 40
0.045
309
GRIDFORMAT_END
 95
       32
302
GRIDFORMAT
  1
GRIDFORMAT_BEGIN
 90
        0
 91
        1
 62
     0
 92
       -2
340
0
 93
        0
 40
0.045
309
GRIDFORMAT_END
309
TABLEFORMAT_END
  1
CELLSTYLE_BEGIN
 90
        2
 91
        1
300
_HEADER
309
CELLSTYLE_END
300
CELLSTYLE
  1
TABLEFORMAT_BEGIN
 90
        5
170
     1
 91
        0
 92
        0
 62
   257
 93
        1
300
CONTENTFORMAT
  1
CONTENTFORMAT_BEGIN
 90
        0
 91
        0
 92
        4
 93
        0
300

 40
0.0
140
1.0
 94
        2
 62
     0
340
11
144
4.5
309
CONTENTFORMAT_END
171
     1
301
MARGIN
  1
CELLMARGIN_BEGIN
 40
1.5
 40
1.5
 40
1.5
 40
1.5
 40
0.18
 40
0.18
309
CELLMARGIN_END
 94
        6
 95
        1
302
GRIDFORMAT
  1
GRIDFORMAT_BEGIN
 90
        0
 91
        1
 62
     0
 92
       -2
340
0
 93
        0
 40
0.045
309
GRIDFORMAT_END
 95
        2
302
GRIDFORMAT
  1
GRIDFORMAT_BEGIN
 90
        0
 91
        1
 62
     0
 92
       -2
340
0
 93
        0
 40
0.045
309
GRIDFORMAT_END
 95
        4
302
GRIDFORMAT
  1
GRIDFORMAT_BEGIN
 90
        0
 91
        1
 62
     0
 92
       -2
340
0
 93
        0
 40
0.045
309
GRIDFORMAT_END
 95
        8
302
GRIDFORMAT
  1
GRIDFORMAT_BEGIN
 90
        0
 91
        1
 62
     0
 92
       -2
340
0
 93
        0
 40
0.045
309
GRIDFORMAT_END
 95
       16
302
GRIDFORMAT
  1
GRIDFORMAT_BEGIN
 90
        0
 91
        1
 62
     0
 92
       -2
340
0
 93
        0
 40
0.045
309
GRIDFORMAT_END
 95
       32
302
GRIDFORMAT
  1
GRIDFORMAT_BEGIN
 90
        0
 91
        1
 62
     0
 92
       -2
340
0
 93
        0
 40
0.045
309
GRIDFORMAT_END
309
TABLEFORMAT_END
  1
CELLSTYLE_BEGIN
 90
        3
 91
        2
300
_DATA
309
CELLSTYLE_END
  0
XRECORD
  5
94224
102
{ACAD_REACTORS
330
4CD9A
102
}
330
4CD9A
100
AcDbXrecord
280
     1
102
ACAD_ROUNDTRIP_PRE2007_TABLESTYLE
 90
        4
 91
        0
  1

 92
        4
 93
        0
  2

 94
        4
 95
        0
  3

  0
XRECORD
  5
94226
102
{ACAD_REACTORS
330
87B18
102
}
330
87B18
100
AcDbXrecord
280
     1
102
RTVSPropertyOp0
 70
     1
102
RTVSPropertyOp1
 70
     1
102
RTVSPropertyOp2
 70
     1
102
RTVSPropertyOp3
 70
     1
102
RTVSPropertyOp4
 70
     1
102
RTVSPropertyOp5
 70
     1
102
RTVSPropertyOp6
 70
     1
102
RTVSPropertyOp7
 70
     1
102
RTVSPropertyOp8
 70
     1
102
RTVSPropertyOp9
 70
     1
102
RTVSPropertyOp10
 70
     1
102
RTVSPropertyOp11
 70
     1
102
RTVSPropertyOp12
 70
     1
102
RTVSPropertyOp13
 70
     1
102
RTVSPropertyOp14
 70
     1
102
RTVSPropertyOp15
 70
     1
102
RTVSPropertyOp16
 70
     1
102
RTVSPropertyOp17
 70
     1
102
RTVSPropertyOp18
 70
     1
102
RTVSPropertyOp19
 70
     1
102
RTVSPropertyOp20
 70
     1
102
RTVSPropertyOp21
 70
     1
102
RTVSPropertyOp22
 70
     1
102
RTVSPropertyOp23
 70
     1
102
RTVSPropertyOp24
 70
     1
102
RTVSPropertyOp25
 70
     1
102
RTVSPropertyOp26
 70
     1
102
RTVSPropertyOp27
 70
     1
102
RTVSPropertyOp28
 70
     1
102
RTVSPropertyOp29
 70
     1
102
RTVSPropertyOp30
 70
     1
102
RTVSPropertyOp31
 70
     1
102
RTVSPropertyOp32
 70
     1
102
RTVSPropertyOp33
 70
     1
102
RTVSPropertyOp34
 70
     1
102
RTVSPropertyOp35
 70
     1
102
RTVSPropertyOp36
 70
     1
102
RTVSPropertyOp37
 70
     1
102
RTVSPropertyOp38
 70
     1
102
RTVSPropertyOp39
 70
     1
102
RTVSPropertyOp40
 70
     1
102
RTVSPropertyOp41
 70
     1
102
RTVSPropertyOp42
 70
     1
102
RTVSPropertyOp43
 70
     1
102
RTVSPropertyOp44
 70
     1
102
RTVSPropertyOp45
 70
     1
102
RTVSPropertyOp46
 70
     1
102
RTVSPropertyOp47
 70
     1
102
RTVSPropertyOp48
 70
     1
102
RTVSPropertyOp49
 70
     1
102
RTVSPropertyOp50
 70
     1
102
RTVSPropertyOp51
 70
     0
102
RTVSPropertyOp52
 70
     0
102
RTVSPropertyOp53
 70
     1
102
RTVSPropertyOp54
 70
     1
102
RTVSPropertyOp55
 70
     1
102
RTVSPropertyOp56
 70
     1
102
RTVSPropertyOp57
 70
     1
102
RTVSPost2010Prop28
280
     1
102
RTVSPost2010PropOp28
 70
     1
102
RTVSPost2010Prop29
280
     1
102
RTVSPost2010PropOp29
 70
     1
102
RTVSPost2010Prop30
280
     0
102
RTVSPost2010PropOp30
 70
     1
102
RTVSPost2010Prop31
280
     0
102
RTVSPost2010PropOp31
 70
     1
102
RTVSPost2010Prop32
280
     0
102
RTVSPost2010PropOp32
 70
     1
102
RTVSPost2010Prop33
280
     0
102
RTVSPost2010PropOp33
 70
     1
102
RTVSPost2010Prop34
280
     0
102
RTVSPost2010PropOp34
 70
     1
102
RTVSPost2010Prop35
280
     0
102
RTVSPost2010PropOp35
 70
     1
102
RTVSPost2010Prop36
280
     0
102
RTVSPost2010PropOp36
 70
     1
102
RTVSPost2010Prop37
 90
       50
102
RTVSPost2010PropOp37
 70
     1
102
RTVSPost2010Prop38
140
0.0
102
RTVSPost2010PropOp38
 70
     1
102
RTVSPost2010Prop39
140
1.0
102
RTVSPost2010PropOp39
 70
     1
102
RTVSPost2010Prop40
 90
        0
102
RTVSPost2010PropOp40
 70
     1
102
RTVSPost2010Prop41ColorIndex
 90
       18
102
RTVSPost2010Prop41ColorRGB
 90
        0
102
RTVSPost2010PropOp41
 70
     1
102
RTVSPost2010Prop42
 90
       50
102
RTVSPost2010PropOp42
 70
     1
102
RTVSPost2010Prop43
 90
        3
102
RTVSPost2010PropOp43
 70
     1
102
RTVSPost2010Prop44ColorIndex
 90
        5
102
RTVSPost2010Prop44ColorRGB
 90
      255
102
RTVSPost2010PropOp44
 70
     1
102
RTVSPost2010Prop45
280
     0
102
RTVSPost2010PropOp45
 70
     1
102
RTVSPost2010Prop46
 90
       50
102
RTVSPost2010PropOp46
 70
     1
102
RTVSPost2010Prop47
 90
       50
102
RTVSPost2010PropOp47
 70
     1
102
RTVSPost2010Prop48
 90
       50
102
RTVSPost2010PropOp48
 70
     1
102
RTVSPost2010Prop49
280
     0
102
RTVSPost2010PropOp49
 70
     1
102
RTVSPost2010Prop50
 90
       50
102
RTVSPost2010PropOp50
 70
     1
102
RTVSPost2010Prop51ColorIndex
 90
      256
102
RTVSPost2010Prop51ColorRGB
 90
-16777216
102
RTVSPost2010PropOp51
 70
     0
102
RTVSPost2010Prop52
140
1.0
102
RTVSPost2010PropOp52
 70
     0
102
RTVSPost2010Prop53
 90
        2
102
RTVSPost2010PropOp53
 70
     1
102
RTVSPost2010Prop54
  1
strokes_ogs.tif
102
RTVSPost2010PropOp54
 70
     1
102
RTVSPost2010Prop55
280
     0
102
RTVSPost2010PropOp55
 70
     1
102
RTVSPost2010Prop56
140
1.0
102
RTVSPost2010PropOp56
 70
     1
102
RTVSPost2010Prop57
140
1.0
102
RTVSPost2010PropOp57
 70
     1
  0
XRECORD
  5
94227
102
{ACAD_REACTORS
330
87B16
102
}
330
87B16
100
AcDbXrecord
280
     1
102
RTVSPropertyOp0
 70
     1
102
RTVSPropertyOp1
 70
     1
102
RTVSPropertyOp2
 70
     1
102
RTVSPropertyOp3
 70
     1
102
RTVSPropertyOp4
 70
     1
102
RTVSPropertyOp5
 70
     1
102
RTVSPropertyOp6
 70
     1
102
RTVSPropertyOp7
 70
     1
102
RTVSPropertyOp8
 70
     1
102
RTVSPropertyOp9
 70
     1
102
RTVSPropertyOp10
 70
     1
102
RTVSPropertyOp11
 70
     1
102
RTVSPropertyOp12
 70
     1
102
RTVSPropertyOp13
 70
     1
102
RTVSPropertyOp14
 70
     1
102
RTVSPropertyOp15
 70
     1
102
RTVSPropertyOp16
 70
     1
102
RTVSPropertyOp17
 70
     1
102
RTVSPropertyOp18
 70
     1
102
RTVSPropertyOp19
 70
     1
102
RTVSPropertyOp20
 70
     1
102
RTVSPropertyOp21
 70
     1
102
RTVSPropertyOp22
 70
     1
102
RTVSPropertyOp23
 70
     1
102
RTVSPropertyOp24
 70
     1
102
RTVSPropertyOp25
 70
     1
102
RTVSPropertyOp26
 70
     1
102
RTVSPropertyOp27
 70
     1
102
RTVSPropertyOp28
 70
     1
102
RTVSPropertyOp29
 70
     1
102
RTVSPropertyOp30
 70
     1
102
RTVSPropertyOp31
 70
     1
102
RTVSPropertyOp32
 70
     1
102
RTVSPropertyOp33
 70
     1
102
RTVSPropertyOp34
 70
     1
102
RTVSPropertyOp35
 70
     1
102
RTVSPropertyOp36
 70
     1
102
RTVSPropertyOp37
 70
     1
102
RTVSPropertyOp38
 70
     1
102
RTVSPropertyOp39
 70
     1
102
RTVSPropertyOp40
 70
     1
102
RTVSPropertyOp41
 70
     1
102
RTVSPropertyOp42
 70
     1
102
RTVSPropertyOp43
 70
     1
102
RTVSPropertyOp44
 70
     1
102
RTVSPropertyOp45
 70
     1
102
RTVSPropertyOp46
 70
     1
102
RTVSPropertyOp47
 70
     1
102
RTVSPropertyOp48
 70
     1
102
RTVSPropertyOp49
 70
     1
102
RTVSPropertyOp50
 70
     1
102
RTVSPropertyOp51
 70
     0
102
RTVSPropertyOp52
 70
     0
102
RTVSPropertyOp53
 70
     1
102
RTVSPropertyOp54
 70
     1
102
RTVSPropertyOp55
 70
     1
102
RTVSPropertyOp56
 70
     1
102
RTVSPropertyOp57
 70
     1
102
RTVSPost2010Prop28
280
     0
102
RTVSPost2010PropOp28
 70
     1
102
RTVSPost2010Prop29
280
     1
102
RTVSPost2010PropOp29
 70
     1
102
RTVSPost2010Prop30
280
     1
102
RTVSPost2010PropOp30
 70
     1
102
RTVSPost2010Prop31
280
     0
102
RTVSPost2010PropOp31
 70
     1
102
RTVSPost2010Prop32
280
     0
102
RTVSPost2010PropOp32
 70
     1
102
RTVSPost2010Prop33
280
     0
102
RTVSPost2010PropOp33
 70
     1
102
RTVSPost2010Prop34
280
     0
102
RTVSPost2010PropOp34
 70
     1
102
RTVSPost2010Prop35
280
     0
102
RTVSPost2010PropOp35
 70
     1
102
RTVSPost2010Prop36
280
     0
102
RTVSPost2010PropOp36
 70
     1
102
RTVSPost2010Prop37
 90
       50
102
RTVSPost2010PropOp37
 70
     1
102
RTVSPost2010Prop38
140
0.0
102
RTVSPost2010PropOp38
 70
     1
102
RTVSPost2010Prop39
140
1.0
102
RTVSPost2010PropOp39
 70
     1
102
RTVSPost2010Prop40
 90
        0
102
RTVSPost2010PropOp40
 70
     1
102
RTVSPost2010Prop41ColorIndex
 90
       18
102
RTVSPost2010Prop41ColorRGB
 90
        0
102
RTVSPost2010PropOp41
 70
     1
102
RTVSPost2010Prop42
 90
       50
102
RTVSPost2010PropOp42
 70
     1
102
RTVSPost2010Prop43
 90
        3
102
RTVSPost2010PropOp43
 70
     1
102
RTVSPost2010Prop44ColorIndex
 90
        5
102
RTVSPost2010Prop44ColorRGB
 90
      255
102
RTVSPost2010PropOp44
 70
     1
102
RTVSPost2010Prop45
280
     0
102
RTVSPost2010PropOp45
 70
     1
102
RTVSPost2010Prop46
 90
       50
102
RTVSPost2010PropOp46
 70
     1
102
RTVSPost2010Prop47
 90
       50
102
RTVSPost2010PropOp47
 70
     1
102
RTVSPost2010Prop48
 90
       50
102
RTVSPost2010PropOp48
 70
     1
102
RTVSPost2010Prop49
280
     0
102
RTVSPost2010PropOp49
 70
     1
102
RTVSPost2010Prop50
 90
       50
102
RTVSPost2010PropOp50
 70
     1
102
RTVSPost2010Prop51ColorIndex
 90
      256
102
RTVSPost2010Prop51ColorRGB
 90
-16777216
102
RTVSPost2010PropOp51
 70
     0
102
RTVSPost2010Prop52
140
1.0
102
RTVSPost2010PropOp52
 70
     0
102
RTVSPost2010Prop53
 90
        2
102
RTVSPost2010PropOp53
 70
     1
102
RTVSPost2010Prop54
  1
strokes_ogs.tif
102
RTVSPost2010PropOp54
 70
     1
102
RTVSPost2010Prop55
280
     0
102
RTVSPost2010PropOp55
 70
     1
102
RTVSPost2010Prop56
140
1.0
102
RTVSPost2010PropOp56
 70
     1
102
RTVSPost2010Prop57
140
1.0
102
RTVSPost2010PropOp57
 70
     1
  0
XRECORD
  5
94228
102
{ACAD_REACTORS
330
87B24
102
}
330
87B24
100
AcDbXrecord
280
     1
102
RTVSPropertyOp0
 70
     1
102
RTVSPropertyOp1
 70
     1
102
RTVSPropertyOp2
 70
     1
102
RTVSPropertyOp3
 70
     1
102
RTVSPropertyOp4
 70
     1
102
RTVSPropertyOp5
 70
     1
102
RTVSPropertyOp6
 70
     1
102
RTVSPropertyOp7
 70
     1
102
RTVSPropertyOp8
 70
     1
102
RTVSPropertyOp9
 70
     1
102
RTVSPropertyOp10
 70
     1
102
RTVSPropertyOp11
 70
     1
102
RTVSPropertyOp12
 70
     1
102
RTVSPropertyOp13
 70
     1
102
RTVSPropertyOp14
 70
     1
102
RTVSPropertyOp15
 70
     1
102
RTVSPropertyOp16
 70
     1
102
RTVSPropertyOp17
 70
     1
102
RTVSPropertyOp18
 70
     1
102
RTVSPropertyOp19
 70
     1
102
RTVSPropertyOp20
 70
     1
102
RTVSPropertyOp21
 70
     1
102
RTVSPropertyOp22
 70
     1
102
RTVSPropertyOp23
 70
     1
102
RTVSPropertyOp24
 70
     1
102
RTVSPropertyOp25
 70
     1
102
RTVSPropertyOp26
 70
     1
102
RTVSPropertyOp27
 70
     1
102
RTVSPropertyOp28
 70
     1
102
RTVSPropertyOp29
 70
     1
102
RTVSPropertyOp30
 70
     1
102
RTVSPropertyOp31
 70
     1
102
RTVSPropertyOp32
 70
     1
102
RTVSPropertyOp33
 70
     1
102
RTVSPropertyOp34
 70
     1
102
RTVSPropertyOp35
 70
     1
102
RTVSPropertyOp36
 70
     1
102
RTVSPropertyOp37
 70
     1
102
RTVSPropertyOp38
 70
     1
102
RTVSPropertyOp39
 70
     1
102
RTVSPropertyOp40
 70
     1
102
RTVSPropertyOp41
 70
     1
102
RTVSPropertyOp42
 70
     1
102
RTVSPropertyOp43
 70
     1
102
RTVSPropertyOp44
 70
     1
102
RTVSPropertyOp45
 70
     1
102
RTVSPropertyOp46
 70
     1
102
RTVSPropertyOp47
 70
     1
102
RTVSPropertyOp48
 70
     1
102
RTVSPropertyOp49
 70
     1
102
RTVSPropertyOp50
 70
     1
102
RTVSPropertyOp51
 70
     0
102
RTVSPropertyOp52
 70
     0
102
RTVSPropertyOp53
 70
     1
102
RTVSPropertyOp54
 70
     1
102
RTVSPropertyOp55
 70
     1
102
RTVSPropertyOp56
 70
     1
102
RTVSPropertyOp57
 70
     1
102
RTVSPost2010Prop28
280
     0
102
RTVSPost2010PropOp28
 70
     1
102
RTVSPost2010Prop29
280
     1
102
RTVSPost2010PropOp29
 70
     1
102
RTVSPost2010Prop30
280
     1
102
RTVSPost2010PropOp30
 70
     1
102
RTVSPost2010Prop31
280
     0
102
RTVSPost2010PropOp31
 70
     1
102
RTVSPost2010Prop32
280
     0
102
RTVSPost2010PropOp32
 70
     1
102
RTVSPost2010Prop33
280
     0
102
RTVSPost2010PropOp33
 70
     1
102
RTVSPost2010Prop34
280
     0
102
RTVSPost2010PropOp34
 70
     1
102
RTVSPost2010Prop35
280
     0
102
RTVSPost2010PropOp35
 70
     1
102
RTVSPost2010Prop36
280
     0
102
RTVSPost2010PropOp36
 70
     1
102
RTVSPost2010Prop37
 90
       50
102
RTVSPost2010PropOp37
 70
     1
102
RTVSPost2010Prop38
140
0.0
102
RTVSPost2010PropOp38
 70
     1
102
RTVSPost2010Prop39
140
1.0
102
RTVSPost2010PropOp39
 70
     1
102
RTVSPost2010Prop40
 90
        0
102
RTVSPost2010PropOp40
 70
     1
102
RTVSPost2010Prop41ColorIndex
 90
       18
102
RTVSPost2010Prop41ColorRGB
 90
        0
102
RTVSPost2010PropOp41
 70
     1
102
RTVSPost2010Prop42
 90
       50
102
RTVSPost2010PropOp42
 70
     1
102
RTVSPost2010Prop43
 90
        3
102
RTVSPost2010PropOp43
 70
     1
102
RTVSPost2010Prop44ColorIndex
 90
        5
102
RTVSPost2010Prop44ColorRGB
 90
      255
102
RTVSPost2010PropOp44
 70
     1
102
RTVSPost2010Prop45
280
     0
102
RTVSPost2010PropOp45
 70
     1
102
RTVSPost2010Prop46
 90
       50
102
RTVSPost2010PropOp46
 70
     1
102
RTVSPost2010Prop47
 90
       50
102
RTVSPost2010PropOp47
 70
     1
102
RTVSPost2010Prop48
 90
       50
102
RTVSPost2010PropOp48
 70
     1
102
RTVSPost2010Prop49
280
     0
102
RTVSPost2010PropOp49
 70
     1
102
RTVSPost2010Prop50
 90
       50
102
RTVSPost2010PropOp50
 70
     1
102
RTVSPost2010Prop51ColorIndex
 90
      256
102
RTVSPost2010Prop51ColorRGB
 90
-16777216
102
RTVSPost2010PropOp51
 70
     0
102
RTVSPost2010Prop52
140
1.0
102
RTVSPost2010PropOp52
 70
     0
102
RTVSPost2010Prop53
 90
        2
102
RTVSPost2010PropOp53
 70
     1
102
RTVSPost2010Prop54
  1
strokes_ogs.tif
102
RTVSPost2010PropOp54
 70
     1
102
RTVSPost2010Prop55
280
     0
102
RTVSPost2010PropOp55
 70
     1
102
RTVSPost2010Prop56
140
1.0
102
RTVSPost2010PropOp56
 70
     1
102
RTVSPost2010Prop57
140
1.0
102
RTVSPost2010PropOp57
 70
     1
  0
XRECORD
  5
94229
102
{ACAD_REACTORS
330
87B2C
102
}
330
87B2C
100
AcDbXrecord
280
     1
102
RTVSPropertyOp0
 70
     1
102
RTVSPropertyOp1
 70
     1
102
RTVSPropertyOp2
 70
     1
102
RTVSPropertyOp3
 70
     1
102
RTVSPropertyOp4
 70
     1
102
RTVSPropertyOp5
 70
     1
102
RTVSPropertyOp6
 70
     1
102
RTVSPropertyOp7
 70
     1
102
RTVSPropertyOp8
 70
     1
102
RTVSPropertyOp9
 70
     1
102
RTVSPropertyOp10
 70
     1
102
RTVSPropertyOp11
 70
     1
102
RTVSPropertyOp12
 70
     1
102
RTVSPropertyOp13
 70
     1
102
RTVSPropertyOp14
 70
     1
102
RTVSPropertyOp15
 70
     1
102
RTVSPropertyOp16
 70
     1
102
RTVSPropertyOp17
 70
     1
102
RTVSPropertyOp18
 70
     1
102
RTVSPropertyOp19
 70
     1
102
RTVSPropertyOp20
 70
     1
102
RTVSPropertyOp21
 70
     1
102
RTVSPropertyOp22
 70
     1
102
RTVSPropertyOp23
 70
     1
102
RTVSPropertyOp24
 70
     1
102
RTVSPropertyOp25
 70
     1
102
RTVSPropertyOp26
 70
     1
102
RTVSPropertyOp27
 70
     1
102
RTVSPropertyOp28
 70
     1
102
RTVSPropertyOp29
 70
     1
102
RTVSPropertyOp30
 70
     1
102
RTVSPropertyOp31
 70
     1
102
RTVSPropertyOp32
 70
     1
102
RTVSPropertyOp33
 70
     1
102
RTVSPropertyOp34
 70
     1
102
RTVSPropertyOp35
 70
     1
102
RTVSPropertyOp36
 70
     1
102
RTVSPropertyOp37
 70
     1
102
RTVSPropertyOp38
 70
     1
102
RTVSPropertyOp39
 70
     1
102
RTVSPropertyOp40
 70
     1
102
RTVSPropertyOp41
 70
     1
102
RTVSPropertyOp42
 70
     1
102
RTVSPropertyOp43
 70
     1
102
RTVSPropertyOp44
 70
     1
102
RTVSPropertyOp45
 70
     1
102
RTVSPropertyOp46
 70
     1
102
RTVSPropertyOp47
 70
     1
102
RTVSPropertyOp48
 70
     1
102
RTVSPropertyOp49
 70
     1
102
RTVSPropertyOp50
 70
     1
102
RTVSPropertyOp51
 70
     0
102
RTVSPropertyOp52
 70
     0
102
RTVSPropertyOp53
 70
     1
102
RTVSPropertyOp54
 70
     1
102
RTVSPropertyOp55
 70
     1
102
RTVSPropertyOp56
 70
     1
102
RTVSPropertyOp57
 70
     1
102
RTVSPost2010Prop28
280
     0
102
RTVSPost2010PropOp28
 70
     1
102
RTVSPost2010Prop29
280
     1
102
RTVSPost2010PropOp29
 70
     1
102
RTVSPost2010Prop30
280
     1
102
RTVSPost2010PropOp30
 70
     1
102
RTVSPost2010Prop31
280
     0
102
RTVSPost2010PropOp31
 70
     1
102
RTVSPost2010Prop32
280
     0
102
RTVSPost2010PropOp32
 70
     1
102
RTVSPost2010Prop33
280
     0
102
RTVSPost2010PropOp33
 70
     1
102
RTVSPost2010Prop34
280
     0
102
RTVSPost2010PropOp34
 70
     1
102
RTVSPost2010Prop35
280
     0
102
RTVSPost2010PropOp35
 70
     1
102
RTVSPost2010Prop36
280
     0
102
RTVSPost2010PropOp36
 70
     1
102
RTVSPost2010Prop37
 90
       50
102
RTVSPost2010PropOp37
 70
     1
102
RTVSPost2010Prop38
140
0.0
102
RTVSPost2010PropOp38
 70
     1
102
RTVSPost2010Prop39
140
1.0
102
RTVSPost2010PropOp39
 70
     1
102
RTVSPost2010Prop40
 90
        0
102
RTVSPost2010PropOp40
 70
     1
102
RTVSPost2010Prop41ColorIndex
 90
       18
102
RTVSPost2010Prop41ColorRGB
 90
        0
102
RTVSPost2010PropOp41
 70
     1
102
RTVSPost2010Prop42
 90
       50
102
RTVSPost2010PropOp42
 70
     1
102
RTVSPost2010Prop43
 90
        3
102
RTVSPost2010PropOp43
 70
     1
102
RTVSPost2010Prop44ColorIndex
 90
        5
102
RTVSPost2010Prop44ColorRGB
 90
      255
102
RTVSPost2010PropOp44
 70
     1
102
RTVSPost2010Prop45
280
     0
102
RTVSPost2010PropOp45
 70
     1
102
RTVSPost2010Prop46
 90
       50
102
RTVSPost2010PropOp46
 70
     1
102
RTVSPost2010Prop47
 90
       50
102
RTVSPost2010PropOp47
 70
     1
102
RTVSPost2010Prop48
 90
       50
102
RTVSPost2010PropOp48
 70
     1
102
RTVSPost2010Prop49
280
     0
102
RTVSPost2010PropOp49
 70
     1
102
RTVSPost2010Prop50
 90
       50
102
RTVSPost2010PropOp50
 70
     1
102
RTVSPost2010Prop51ColorIndex
 90
      256
102
RTVSPost2010Prop51ColorRGB
 90
-16777216
102
RTVSPost2010PropOp51
 70
     0
102
RTVSPost2010Prop52
140
1.0
102
RTVSPost2010PropOp52
 70
     0
102
RTVSPost2010Prop53
 90
        2
102
RTVSPost2010PropOp53
 70
     1
102
RTVSPost2010Prop54
  1
strokes_ogs.tif
102
RTVSPost2010PropOp54
 70
     1
102
RTVSPost2010Prop55
280
     0
102
RTVSPost2010PropOp55
 70
     1
102
RTVSPost2010Prop56
140
1.0
102
RTVSPost2010PropOp56
 70
     1
102
RTVSPost2010Prop57
140
1.0
102
RTVSPost2010PropOp57
 70
     1
  0
XRECORD
  5
9422A
102
{ACAD_REACTORS
330
87B1E
102
}
330
87B1E
100
AcDbXrecord
280
     1
102
RTVSPropertyOp0
 70
     1
102
RTVSPropertyOp1
 70
     1
102
RTVSPropertyOp2
 70
     1
102
RTVSPropertyOp3
 70
     1
102
RTVSPropertyOp4
 70
     1
102
RTVSPropertyOp5
 70
     1
102
RTVSPropertyOp6
 70
     1
102
RTVSPropertyOp7
 70
     1
102
RTVSPropertyOp8
 70
     1
102
RTVSPropertyOp9
 70
     1
102
RTVSPropertyOp10
 70
     1
102
RTVSPropertyOp11
 70
     1
102
RTVSPropertyOp12
 70
     1
102
RTVSPropertyOp13
 70
     1
102
RTVSPropertyOp14
 70
     1
102
RTVSPropertyOp15
 70
     1
102
RTVSPropertyOp16
 70
     1
102
RTVSPropertyOp17
 70
     1
102
RTVSPropertyOp18
 70
     1
102
RTVSPropertyOp19
 70
     1
102
RTVSPropertyOp20
 70
     1
102
RTVSPropertyOp21
 70
     1
102
RTVSPropertyOp22
 70
     1
102
RTVSPropertyOp23
 70
     1
102
RTVSPropertyOp24
 70
     1
102
RTVSPropertyOp25
 70
     1
102
RTVSPropertyOp26
 70
     1
102
RTVSPropertyOp27
 70
     1
102
RTVSPropertyOp28
 70
     1
102
RTVSPropertyOp29
 70
     1
102
RTVSPropertyOp30
 70
     1
102
RTVSPropertyOp31
 70
     1
102
RTVSPropertyOp32
 70
     1
102
RTVSPropertyOp33
 70
     1
102
RTVSPropertyOp34
 70
     1
102
RTVSPropertyOp35
 70
     1
102
RTVSPropertyOp36
 70
     1
102
RTVSPropertyOp37
 70
     1
102
RTVSPropertyOp38
 70
     1
102
RTVSPropertyOp39
 70
     1
102
RTVSPropertyOp40
 70
     1
102
RTVSPropertyOp41
 70
     1
102
RTVSPropertyOp42
 70
     1
102
RTVSPropertyOp43
 70
     1
102
RTVSPropertyOp44
 70
     1
102
RTVSPropertyOp45
 70
     1
102
RTVSPropertyOp46
 70
     1
102
RTVSPropertyOp47
 70
     1
102
RTVSPropertyOp48
 70
     1
102
RTVSPropertyOp49
 70
     1
102
RTVSPropertyOp50
 70
     1
102
RTVSPropertyOp51
 70
     0
102
RTVSPropertyOp52
 70
     0
102
RTVSPropertyOp53
 70
     1
102
RTVSPropertyOp54
 70
     1
102
RTVSPropertyOp55
 70
     1
102
RTVSPropertyOp56
 70
     1
102
RTVSPropertyOp57
 70
     1
102
RTVSPost2010Prop28
280
     0
102
RTVSPost2010PropOp28
 70
     1
102
RTVSPost2010Prop29
280
     1
102
RTVSPost2010PropOp29
 70
     1
102
RTVSPost2010Prop30
280
     1
102
RTVSPost2010PropOp30
 70
     1
102
RTVSPost2010Prop31
280
     0
102
RTVSPost2010PropOp31
 70
     1
102
RTVSPost2010Prop32
280
     0
102
RTVSPost2010PropOp32
 70
     1
102
RTVSPost2010Prop33
280
     0
102
RTVSPost2010PropOp33
 70
     1
102
RTVSPost2010Prop34
280
     0
102
RTVSPost2010PropOp34
 70
     1
102
RTVSPost2010Prop35
280
     0
102
RTVSPost2010PropOp35
 70
     1
102
RTVSPost2010Prop36
280
     0
102
RTVSPost2010PropOp36
 70
     1
102
RTVSPost2010Prop37
 90
       50
102
RTVSPost2010PropOp37
 70
     1
102
RTVSPost2010Prop38
140
0.0
102
RTVSPost2010PropOp38
 70
     1
102
RTVSPost2010Prop39
140
1.0
102
RTVSPost2010PropOp39
 70
     1
102
RTVSPost2010Prop40
 90
        0
102
RTVSPost2010PropOp40
 70
     1
102
RTVSPost2010Prop41ColorIndex
 90
       18
102
RTVSPost2010Prop41ColorRGB
 90
        0
102
RTVSPost2010PropOp41
 70
     1
102
RTVSPost2010Prop42
 90
       50
102
RTVSPost2010PropOp42
 70
     1
102
RTVSPost2010Prop43
 90
        3
102
RTVSPost2010PropOp43
 70
     1
102
RTVSPost2010Prop44ColorIndex
 90
        5
102
RTVSPost2010Prop44ColorRGB
 90
      255
102
RTVSPost2010PropOp44
 70
     1
102
RTVSPost2010Prop45
280
     0
102
RTVSPost2010PropOp45
 70
     1
102
RTVSPost2010Prop46
 90
       50
102
RTVSPost2010PropOp46
 70
     1
102
RTVSPost2010Prop47
 90
       50
102
RTVSPost2010PropOp47
 70
     1
102
RTVSPost2010Prop48
 90
       50
102
RTVSPost2010PropOp48
 70
     1
102
RTVSPost2010Prop49
280
     0
102
RTVSPost2010PropOp49
 70
     1
102
RTVSPost2010Prop50
 90
       50
102
RTVSPost2010PropOp50
 70
     1
102
RTVSPost2010Prop51ColorIndex
 90
      256
102
RTVSPost2010Prop51ColorRGB
 90
-16777216
102
RTVSPost2010PropOp51
 70
     0
102
RTVSPost2010Prop52
140
1.0
102
RTVSPost2010PropOp52
 70
     0
102
RTVSPost2010Prop53
 90
        2
102
RTVSPost2010PropOp53
 70
     1
102
RTVSPost2010Prop54
  1
strokes_ogs.tif
102
RTVSPost2010PropOp54
 70
     1
102
RTVSPost2010Prop55
280
     0
102
RTVSPost2010PropOp55
 70
     1
102
RTVSPost2010Prop56
140
1.0
102
RTVSPost2010PropOp56
 70
     1
102
RTVSPost2010Prop57
140
1.0
102
RTVSPost2010PropOp57
 70
     1
  0
XRECORD
  5
9422B
102
{ACAD_REACTORS
330
87B22
102
}
330
87B22
100
AcDbXrecord
280
     1
102
RTVSPropertyOp0
 70
     1
102
RTVSPropertyOp1
 70
     1
102
RTVSPropertyOp2
 70
     1
102
RTVSPropertyOp3
 70
     1
102
RTVSPropertyOp4
 70
     1
102
RTVSPropertyOp5
 70
     1
102
RTVSPropertyOp6
 70
     1
102
RTVSPropertyOp7
 70
     1
102
RTVSPropertyOp8
 70
     1
102
RTVSPropertyOp9
 70
     1
102
RTVSPropertyOp10
 70
     1
102
RTVSPropertyOp11
 70
     1
102
RTVSPropertyOp12
 70
     1
102
RTVSPropertyOp13
 70
     1
102
RTVSPropertyOp14
 70
     1
102
RTVSPropertyOp15
 70
     1
102
RTVSPropertyOp16
 70
     1
102
RTVSPropertyOp17
 70
     1
102
RTVSPropertyOp18
 70
     1
102
RTVSPropertyOp19
 70
     1
102
RTVSPropertyOp20
 70
     1
102
RTVSPropertyOp21
 70
     1
102
RTVSPropertyOp22
 70
     1
102
RTVSPropertyOp23
 70
     1
102
RTVSPropertyOp24
 70
     1
102
RTVSPropertyOp25
 70
     1
102
RTVSPropertyOp26
 70
     1
102
RTVSPropertyOp27
 70
     1
102
RTVSPropertyOp28
 70
     1
102
RTVSPropertyOp29
 70
     1
102
RTVSPropertyOp30
 70
     1
102
RTVSPropertyOp31
 70
     1
102
RTVSPropertyOp32
 70
     1
102
RTVSPropertyOp33
 70
     1
102
RTVSPropertyOp34
 70
     1
102
RTVSPropertyOp35
 70
     1
102
RTVSPropertyOp36
 70
     1
102
RTVSPropertyOp37
 70
     1
102
RTVSPropertyOp38
 70
     1
102
RTVSPropertyOp39
 70
     1
102
RTVSPropertyOp40
 70
     1
102
RTVSPropertyOp41
 70
     1
102
RTVSPropertyOp42
 70
     1
102
RTVSPropertyOp43
 70
     1
102
RTVSPropertyOp44
 70
     1
102
RTVSPropertyOp45
 70
     1
102
RTVSPropertyOp46
 70
     1
102
RTVSPropertyOp47
 70
     1
102
RTVSPropertyOp48
 70
     1
102
RTVSPropertyOp49
 70
     1
102
RTVSPropertyOp50
 70
     1
102
RTVSPropertyOp51
 70
     0
102
RTVSPropertyOp52
 70
     0
102
RTVSPropertyOp53
 70
     1
102
RTVSPropertyOp54
 70
     1
102
RTVSPropertyOp55
 70
     1
102
RTVSPropertyOp56
 70
     1
102
RTVSPropertyOp57
 70
     1
102
RTVSPost2010Prop28
280
     0
102
RTVSPost2010PropOp28
 70
     1
102
RTVSPost2010Prop29
280
     1
102
RTVSPost2010PropOp29
 70
     1
102
RTVSPost2010Prop30
280
     1
102
RTVSPost2010PropOp30
 70
     1
102
RTVSPost2010Prop31
280
     0
102
RTVSPost2010PropOp31
 70
     1
102
RTVSPost2010Prop32
280
     0
102
RTVSPost2010PropOp32
 70
     1
102
RTVSPost2010Prop33
280
     0
102
RTVSPost2010PropOp33
 70
     1
102
RTVSPost2010Prop34
280
     0
102
RTVSPost2010PropOp34
 70
     1
102
RTVSPost2010Prop35
280
     0
102
RTVSPost2010PropOp35
 70
     1
102
RTVSPost2010Prop36
280
     0
102
RTVSPost2010PropOp36
 70
     1
102
RTVSPost2010Prop37
 90
       50
102
RTVSPost2010PropOp37
 70
     1
102
RTVSPost2010Prop38
140
0.0
102
RTVSPost2010PropOp38
 70
     1
102
RTVSPost2010Prop39
140
1.0
102
RTVSPost2010PropOp39
 70
     1
102
RTVSPost2010Prop40
 90
        0
102
RTVSPost2010PropOp40
 70
     1
102
RTVSPost2010Prop41ColorIndex
 90
       18
102
RTVSPost2010Prop41ColorRGB
 90
        0
102
RTVSPost2010PropOp41
 70
     1
102
RTVSPost2010Prop42
 90
       50
102
RTVSPost2010PropOp42
 70
     1
102
RTVSPost2010Prop43
 90
        3
102
RTVSPost2010PropOp43
 70
     1
102
RTVSPost2010Prop44ColorIndex
 90
        5
102
RTVSPost2010Prop44ColorRGB
 90
      255
102
RTVSPost2010PropOp44
 70
     1
102
RTVSPost2010Prop45
280
     0
102
RTVSPost2010PropOp45
 70
     1
102
RTVSPost2010Prop46
 90
       50
102
RTVSPost2010PropOp46
 70
     1
102
RTVSPost2010Prop47
 90
       50
102
RTVSPost2010PropOp47
 70
     1
102
RTVSPost2010Prop48
 90
       50
102
RTVSPost2010PropOp48
 70
     1
102
RTVSPost2010Prop49
280
     0
102
RTVSPost2010PropOp49
 70
     1
102
RTVSPost2010Prop50
 90
       50
102
RTVSPost2010PropOp50
 70
     1
102
RTVSPost2010Prop51ColorIndex
 90
      256
102
RTVSPost2010Prop51ColorRGB
 90
-16777216
102
RTVSPost2010PropOp51
 70
     0
102
RTVSPost2010Prop52
140
1.0
102
RTVSPost2010PropOp52
 70
     0
102
RTVSPost2010Prop53
 90
        2
102
RTVSPost2010PropOp53
 70
     1
102
RTVSPost2010Prop54
  1
strokes_ogs.tif
102
RTVSPost2010PropOp54
 70
     1
102
RTVSPost2010Prop55
280
     0
102
RTVSPost2010PropOp55
 70
     1
102
RTVSPost2010Prop56
140
1.0
102
RTVSPost2010PropOp56
 70
     1
102
RTVSPost2010Prop57
140
1.0
102
RTVSPost2010PropOp57
 70
     1
  0
XRECORD
  5
9422C
102
{ACAD_REACTORS
330
87B3C
102
}
330
87B3C
100
AcDbXrecord
280
     1
102
RTVSPropertyOp0
 70
     0
102
RTVSPropertyOp1
 70
     0
102
RTVSPropertyOp2
 70
     0
102
RTVSPropertyOp3
 70
     0
102
RTVSPropertyOp4
 70
     0
102
RTVSPropertyOp5
 70
     0
102
RTVSPropertyOp6
 70
     0
102
RTVSPropertyOp7
 70
     0
102
RTVSPropertyOp8
 70
     0
102
RTVSPropertyOp9
 70
     0
102
RTVSPropertyOp10
 70
     0
102
RTVSPropertyOp11
 70
     0
102
RTVSPropertyOp12
 70
     0
102
RTVSPropertyOp13
 70
     0
102
RTVSPropertyOp14
 70
     2
102
RTVSPropertyOp15
 70
     0
102
RTVSPropertyOp16
 70
     0
102
RTVSPropertyOp17
 70
     0
102
RTVSPropertyOp18
 70
     0
102
RTVSPropertyOp19
 70
     0
102
RTVSPropertyOp20
 70
     0
102
RTVSPropertyOp21
 70
     0
102
RTVSPropertyOp22
 70
     0
102
RTVSPropertyOp23
 70
     0
102
RTVSPropertyOp24
 70
     0
102
RTVSPropertyOp25
 70
     0
102
RTVSPropertyOp26
 70
     0
102
RTVSPropertyOp27
 70
     0
102
RTVSPropertyOp28
 70
     1
102
RTVSPropertyOp29
 70
     1
102
RTVSPropertyOp30
 70
     1
102
RTVSPropertyOp31
 70
     1
102
RTVSPropertyOp32
 70
     1
102
RTVSPropertyOp33
 70
     1
102
RTVSPropertyOp34
 70
     1
102
RTVSPropertyOp35
 70
     1
102
RTVSPropertyOp36
 70
     1
102
RTVSPropertyOp37
 70
     0
102
RTVSPropertyOp38
 70
     0
102
RTVSPropertyOp39
 70
     0
102
RTVSPropertyOp40
 70
     0
102
RTVSPropertyOp41
 70
     0
102
RTVSPropertyOp42
 70
     0
102
RTVSPropertyOp43
 70
     0
102
RTVSPropertyOp44
 70
     0
102
RTVSPropertyOp45
 70
     1
102
RTVSPropertyOp46
 70
     0
102
RTVSPropertyOp47
 70
     0
102
RTVSPropertyOp48
 70
     0
102
RTVSPropertyOp49
 70
     1
102
RTVSPropertyOp50
 70
     0
102
RTVSPropertyOp51
 70
     0
102
RTVSPropertyOp52
 70
     0
102
RTVSPropertyOp53
 70
     0
102
RTVSPropertyOp54
 70
     0
102
RTVSPropertyOp55
 70
     1
102
RTVSPropertyOp56
 70
     0
102
RTVSPropertyOp57
 70
     0
102
RTVSPost2010Prop28
280
     0
102
RTVSPost2010PropOp28
 70
     1
102
RTVSPost2010Prop29
280
     1
102
RTVSPost2010PropOp29
 70
     1
102
RTVSPost2010Prop30
280
     1
102
RTVSPost2010PropOp30
 70
     1
102
RTVSPost2010Prop31
280
     0
102
RTVSPost2010PropOp31
 70
     1
102
RTVSPost2010Prop32
280
     0
102
RTVSPost2010PropOp32
 70
     1
102
RTVSPost2010Prop33
280
     0
102
RTVSPost2010PropOp33
 70
     1
102
RTVSPost2010Prop34
280
     0
102
RTVSPost2010PropOp34
 70
     1
102
RTVSPost2010Prop35
280
     0
102
RTVSPost2010PropOp35
 70
     1
102
RTVSPost2010Prop36
280
     0
102
RTVSPost2010PropOp36
 70
     1
102
RTVSPost2010Prop37
 90
       50
102
RTVSPost2010PropOp37
 70
     0
102
RTVSPost2010Prop38
140
0.0
102
RTVSPost2010PropOp38
 70
     0
102
RTVSPost2010Prop39
140
1.0
102
RTVSPost2010PropOp39
 70
     0
102
RTVSPost2010Prop40
 90
        0
102
RTVSPost2010PropOp40
 70
     0
102
RTVSPost2010Prop41ColorIndex
 90
       18
102
RTVSPost2010Prop41ColorRGB
 90
        0
102
RTVSPost2010PropOp41
 70
     0
102
RTVSPost2010Prop42
 90
       50
102
RTVSPost2010PropOp42
 70
     0
102
RTVSPost2010Prop43
 90
        3
102
RTVSPost2010PropOp43
 70
     0
102
RTVSPost2010Prop44ColorIndex
 90
        5
102
RTVSPost2010Prop44ColorRGB
 90
      255
102
RTVSPost2010PropOp44
 70
     0
102
RTVSPost2010Prop45
280
     0
102
RTVSPost2010PropOp45
 70
     1
102
RTVSPost2010Prop46
 90
       50
102
RTVSPost2010PropOp46
 70
     0
102
RTVSPost2010Prop47
 90
       50
102
RTVSPost2010PropOp47
 70
     0
102
RTVSPost2010Prop48
 90
       50
102
RTVSPost2010PropOp48
 70
     0
102
RTVSPost2010Prop49
280
     0
102
RTVSPost2010PropOp49
 70
     1
102
RTVSPost2010Prop50
 90
       50
102
RTVSPost2010PropOp50
 70
     0
102
RTVSPost2010Prop51ColorIndex
 90
      256
102
RTVSPost2010Prop51ColorRGB
 90
-16777216
102
RTVSPost2010PropOp51
 70
     0
102
RTVSPost2010Prop52
140
1.0
102
RTVSPost2010PropOp52
 70
     0
102
RTVSPost2010Prop53
 90
        2
102
RTVSPost2010PropOp53
 70
     0
102
RTVSPost2010Prop54
  1
strokes_ogs.tif
102
RTVSPost2010PropOp54
 70
     0
102
RTVSPost2010Prop55
280
     0
102
RTVSPost2010PropOp55
 70
     1
102
RTVSPost2010Prop56
140
1.0
102
RTVSPost2010PropOp56
 70
     0
102
RTVSPost2010Prop57
140
1.0
102
RTVSPost2010PropOp57
 70
     0
  0
XRECORD
  5
9422D
102
{ACAD_REACTORS
330
87B2A
102
}
330
87B2A
100
AcDbXrecord
280
     1
102
RTVSPropertyOp0
 70
     1
102
RTVSPropertyOp1
 70
     1
102
RTVSPropertyOp2
 70
     1
102
RTVSPropertyOp3
 70
     1
102
RTVSPropertyOp4
 70
     1
102
RTVSPropertyOp5
 70
     1
102
RTVSPropertyOp6
 70
     1
102
RTVSPropertyOp7
 70
     1
102
RTVSPropertyOp8
 70
     1
102
RTVSPropertyOp9
 70
     1
102
RTVSPropertyOp10
 70
     1
102
RTVSPropertyOp11
 70
     1
102
RTVSPropertyOp12
 70
     1
102
RTVSPropertyOp13
 70
     1
102
RTVSPropertyOp14
 70
     1
102
RTVSPropertyOp15
 70
     1
102
RTVSPropertyOp16
 70
     1
102
RTVSPropertyOp17
 70
     1
102
RTVSPropertyOp18
 70
     1
102
RTVSPropertyOp19
 70
     1
102
RTVSPropertyOp20
 70
     1
102
RTVSPropertyOp21
 70
     1
102
RTVSPropertyOp22
 70
     1
102
RTVSPropertyOp23
 70
     1
102
RTVSPropertyOp24
 70
     1
102
RTVSPropertyOp25
 70
     1
102
RTVSPropertyOp26
 70
     1
102
RTVSPropertyOp27
 70
     1
102
RTVSPropertyOp28
 70
     1
102
RTVSPropertyOp29
 70
     1
102
RTVSPropertyOp30
 70
     1
102
RTVSPropertyOp31
 70
     1
102
RTVSPropertyOp32
 70
     1
102
RTVSPropertyOp33
 70
     1
102
RTVSPropertyOp34
 70
     1
102
RTVSPropertyOp35
 70
     1
102
RTVSPropertyOp36
 70
     1
102
RTVSPropertyOp37
 70
     1
102
RTVSPropertyOp38
 70
     1
102
RTVSPropertyOp39
 70
     1
102
RTVSPropertyOp40
 70
     1
102
RTVSPropertyOp41
 70
     1
102
RTVSPropertyOp42
 70
     1
102
RTVSPropertyOp43
 70
     1
102
RTVSPropertyOp44
 70
     1
102
RTVSPropertyOp45
 70
     1
102
RTVSPropertyOp46
 70
     1
102
RTVSPropertyOp47
 70
     1
102
RTVSPropertyOp48
 70
     1
102
RTVSPropertyOp49
 70
     1
102
RTVSPropertyOp50
 70
     1
102
RTVSPropertyOp51
 70
     0
102
RTVSPropertyOp52
 70
     0
102
RTVSPropertyOp53
 70
     1
102
RTVSPropertyOp54
 70
     1
102
RTVSPropertyOp55
 70
     1
102
RTVSPropertyOp56
 70
     1
102
RTVSPropertyOp57
 70
     1
102
RTVSPost2010Prop28
280
     0
102
RTVSPost2010PropOp28
 70
     1
102
RTVSPost2010Prop29
280
     1
102
RTVSPost2010PropOp29
 70
     1
102
RTVSPost2010Prop30
280
     1
102
RTVSPost2010PropOp30
 70
     1
102
RTVSPost2010Prop31
280
     0
102
RTVSPost2010PropOp31
 70
     1
102
RTVSPost2010Prop32
280
     0
102
RTVSPost2010PropOp32
 70
     1
102
RTVSPost2010Prop33
280
     0
102
RTVSPost2010PropOp33
 70
     1
102
RTVSPost2010Prop34
280
     0
102
RTVSPost2010PropOp34
 70
     1
102
RTVSPost2010Prop35
280
     0
102
RTVSPost2010PropOp35
 70
     1
102
RTVSPost2010Prop36
280
     0
102
RTVSPost2010PropOp36
 70
     1
102
RTVSPost2010Prop37
 90
       50
102
RTVSPost2010PropOp37
 70
     1
102
RTVSPost2010Prop38
140
0.0
102
RTVSPost2010PropOp38
 70
     1
102
RTVSPost2010Prop39
140
1.0
102
RTVSPost2010PropOp39
 70
     1
102
RTVSPost2010Prop40
 90
        0
102
RTVSPost2010PropOp40
 70
     1
102
RTVSPost2010Prop41ColorIndex
 90
       18
102
RTVSPost2010Prop41ColorRGB
 90
        0
102
RTVSPost2010PropOp41
 70
     1
102
RTVSPost2010Prop42
 90
       50
102
RTVSPost2010PropOp42
 70
     1
102
RTVSPost2010Prop43
 90
        3
102
RTVSPost2010PropOp43
 70
     1
102
RTVSPost2010Prop44ColorIndex
 90
        5
102
RTVSPost2010Prop44ColorRGB
 90
      255
102
RTVSPost2010PropOp44
 70
     1
102
RTVSPost2010Prop45
280
     0
102
RTVSPost2010PropOp45
 70
     1
102
RTVSPost2010Prop46
 90
       50
102
RTVSPost2010PropOp46
 70
     1
102
RTVSPost2010Prop47
 90
       50
102
RTVSPost2010PropOp47
 70
     1
102
RTVSPost2010Prop48
 90
       50
102
RTVSPost2010PropOp48
 70
     1
102
RTVSPost2010Prop49
280
     0
102
RTVSPost2010PropOp49
 70
     1
102
RTVSPost2010Prop50
 90
       50
102
RTVSPost2010PropOp50
 70
     1
102
RTVSPost2010Prop51ColorIndex
 90
      256
102
RTVSPost2010Prop51ColorRGB
 90
-16777216
102
RTVSPost2010PropOp51
 70
     0
102
RTVSPost2010Prop52
140
1.0
102
RTVSPost2010PropOp52
 70
     0
102
RTVSPost2010Prop53
 90
        2
102
RTVSPost2010PropOp53
 70
     1
102
RTVSPost2010Prop54
  1
strokes_ogs.tif
102
RTVSPost2010PropOp54
 70
     1
102
RTVSPost2010Prop55
280
     0
102
RTVSPost2010PropOp55
 70
     1
102
RTVSPost2010Prop56
140
1.0
102
RTVSPost2010PropOp56
 70
     1
102
RTVSPost2010Prop57
140
1.0
102
RTVSPost2010PropOp57
 70
     1
  0
XRECORD
  5
9422E
102
{ACAD_REACTORS
330
87B0E
102
}
330
87B0E
100
AcDbXrecord
280
     1
102
RTVSPropertyOp0
 70
     1
102
RTVSPropertyOp1
 70
     1
102
RTVSPropertyOp2
 70
     1
102
RTVSPropertyOp3
 70
     1
102
RTVSPropertyOp4
 70
     1
102
RTVSPropertyOp5
 70
     1
102
RTVSPropertyOp6
 70
     1
102
RTVSPropertyOp7
 70
     1
102
RTVSPropertyOp8
 70
     1
102
RTVSPropertyOp9
 70
     1
102
RTVSPropertyOp10
 70
     1
102
RTVSPropertyOp11
 70
     1
102
RTVSPropertyOp12
 70
     1
102
RTVSPropertyOp13
 70
     1
102
RTVSPropertyOp14
 70
     1
102
RTVSPropertyOp15
 70
     1
102
RTVSPropertyOp16
 70
     1
102
RTVSPropertyOp17
 70
     1
102
RTVSPropertyOp18
 70
     1
102
RTVSPropertyOp19
 70
     1
102
RTVSPropertyOp20
 70
     1
102
RTVSPropertyOp21
 70
     1
102
RTVSPropertyOp22
 70
     1
102
RTVSPropertyOp23
 70
     1
102
RTVSPropertyOp24
 70
     1
102
RTVSPropertyOp25
 70
     1
102
RTVSPropertyOp26
 70
     1
102
RTVSPropertyOp27
 70
     1
102
RTVSPropertyOp28
 70
     1
102
RTVSPropertyOp29
 70
     1
102
RTVSPropertyOp30
 70
     1
102
RTVSPropertyOp31
 70
     1
102
RTVSPropertyOp32
 70
     1
102
RTVSPropertyOp33
 70
     1
102
RTVSPropertyOp34
 70
     1
102
RTVSPropertyOp35
 70
     1
102
RTVSPropertyOp36
 70
     1
102
RTVSPropertyOp37
 70
     1
102
RTVSPropertyOp38
 70
     1
102
RTVSPropertyOp39
 70
     1
102
RTVSPropertyOp40
 70
     1
102
RTVSPropertyOp41
 70
     1
102
RTVSPropertyOp42
 70
     1
102
RTVSPropertyOp43
 70
     1
102
RTVSPropertyOp44
 70
     1
102
RTVSPropertyOp45
 70
     1
102
RTVSPropertyOp46
 70
     1
102
RTVSPropertyOp47
 70
     1
102
RTVSPropertyOp48
 70
     1
102
RTVSPropertyOp49
 70
     1
102
RTVSPropertyOp50
 70
     1
102
RTVSPropertyOp51
 70
     0
102
RTVSPropertyOp52
 70
     0
102
RTVSPropertyOp53
 70
     1
102
RTVSPropertyOp54
 70
     1
102
RTVSPropertyOp55
 70
     1
102
RTVSPropertyOp56
 70
     1
102
RTVSPropertyOp57
 70
     1
102
RTVSPost2010Prop28
280
     0
102
RTVSPost2010PropOp28
 70
     1
102
RTVSPost2010Prop29
280
     1
102
RTVSPost2010PropOp29
 70
     1
102
RTVSPost2010Prop30
280
     1
102
RTVSPost2010PropOp30
 70
     1
102
RTVSPost2010Prop31
280
     0
102
RTVSPost2010PropOp31
 70
     1
102
RTVSPost2010Prop32
280
     0
102
RTVSPost2010PropOp32
 70
     1
102
RTVSPost2010Prop33
280
     0
102
RTVSPost2010PropOp33
 70
     1
102
RTVSPost2010Prop34
280
     0
102
RTVSPost2010PropOp34
 70
     1
102
RTVSPost2010Prop35
280
     0
102
RTVSPost2010PropOp35
 70
     1
102
RTVSPost2010Prop36
280
     0
102
RTVSPost2010PropOp36
 70
     1
102
RTVSPost2010Prop37
 90
       50
102
RTVSPost2010PropOp37
 70
     1
102
RTVSPost2010Prop38
140
0.0
102
RTVSPost2010PropOp38
 70
     1
102
RTVSPost2010Prop39
140
1.0
102
RTVSPost2010PropOp39
 70
     1
102
RTVSPost2010Prop40
 90
        0
102
RTVSPost2010PropOp40
 70
     1
102
RTVSPost2010Prop41ColorIndex
 90
       18
102
RTVSPost2010Prop41ColorRGB
 90
        0
102
RTVSPost2010PropOp41
 70
     1
102
RTVSPost2010Prop42
 90
       50
102
RTVSPost2010PropOp42
 70
     1
102
RTVSPost2010Prop43
 90
        3
102
RTVSPost2010PropOp43
 70
     1
102
RTVSPost2010Prop44ColorIndex
 90
        5
102
RTVSPost2010Prop44ColorRGB
 90
      255
102
RTVSPost2010PropOp44
 70
     1
102
RTVSPost2010Prop45
280
     0
102
RTVSPost2010PropOp45
 70
     1
102
RTVSPost2010Prop46
 90
       50
102
RTVSPost2010PropOp46
 70
     1
102
RTVSPost2010Prop47
 90
       50
102
RTVSPost2010PropOp47
 70
     1
102
RTVSPost2010Prop48
 90
       50
102
RTVSPost2010PropOp48
 70
     1
102
RTVSPost2010Prop49
280
     0
102
RTVSPost2010PropOp49
 70
     1
102
RTVSPost2010Prop50
 90
       50
102
RTVSPost2010PropOp50
 70
     1
102
RTVSPost2010Prop51ColorIndex
 90
      256
102
RTVSPost2010Prop51ColorRGB
 90
-16777216
102
RTVSPost2010PropOp51
 70
     0
102
RTVSPost2010Prop52
140
1.0
102
RTVSPost2010PropOp52
 70
     0
102
RTVSPost2010Prop53
 90
        2
102
RTVSPost2010PropOp53
 70
     1
102
RTVSPost2010Prop54
  1
strokes_ogs.tif
102
RTVSPost2010PropOp54
 70
     1
102
RTVSPost2010Prop55
280
     0
102
RTVSPost2010PropOp55
 70
     1
102
RTVSPost2010Prop56
140
1.0
102
RTVSPost2010PropOp56
 70
     1
102
RTVSPost2010Prop57
140
1.0
102
RTVSPost2010PropOp57
 70
     1
  0
XRECORD
  5
9422F
102
{ACAD_REACTORS
330
87B10
102
}
330
87B10
100
AcDbXrecord
280
     1
102
RTVSPropertyOp0
 70
     1
102
RTVSPropertyOp1
 70
     1
102
RTVSPropertyOp2
 70
     1
102
RTVSPropertyOp3
 70
     1
102
RTVSPropertyOp4
 70
     1
102
RTVSPropertyOp5
 70
     1
102
RTVSPropertyOp6
 70
     1
102
RTVSPropertyOp7
 70
     1
102
RTVSPropertyOp8
 70
     1
102
RTVSPropertyOp9
 70
     1
102
RTVSPropertyOp10
 70
     1
102
RTVSPropertyOp11
 70
     1
102
RTVSPropertyOp12
 70
     1
102
RTVSPropertyOp13
 70
     1
102
RTVSPropertyOp14
 70
     1
102
RTVSPropertyOp15
 70
     1
102
RTVSPropertyOp16
 70
     1
102
RTVSPropertyOp17
 70
     1
102
RTVSPropertyOp18
 70
     1
102
RTVSPropertyOp19
 70
     1
102
RTVSPropertyOp20
 70
     1
102
RTVSPropertyOp21
 70
     1
102
RTVSPropertyOp22
 70
     1
102
RTVSPropertyOp23
 70
     1
102
RTVSPropertyOp24
 70
     1
102
RTVSPropertyOp25
 70
     1
102
RTVSPropertyOp26
 70
     1
102
RTVSPropertyOp27
 70
     1
102
RTVSPropertyOp28
 70
     1
102
RTVSPropertyOp29
 70
     1
102
RTVSPropertyOp30
 70
     1
102
RTVSPropertyOp31
 70
     1
102
RTVSPropertyOp32
 70
     1
102
RTVSPropertyOp33
 70
     1
102
RTVSPropertyOp34
 70
     1
102
RTVSPropertyOp35
 70
     1
102
RTVSPropertyOp36
 70
     1
102
RTVSPropertyOp37
 70
     1
102
RTVSPropertyOp38
 70
     1
102
RTVSPropertyOp39
 70
     1
102
RTVSPropertyOp40
 70
     1
102
RTVSPropertyOp41
 70
     1
102
RTVSPropertyOp42
 70
     1
102
RTVSPropertyOp43
 70
     1
102
RTVSPropertyOp44
 70
     1
102
RTVSPropertyOp45
 70
     1
102
RTVSPropertyOp46
 70
     1
102
RTVSPropertyOp47
 70
     1
102
RTVSPropertyOp48
 70
     1
102
RTVSPropertyOp49
 70
     1
102
RTVSPropertyOp50
 70
     1
102
RTVSPropertyOp51
 70
     0
102
RTVSPropertyOp52
 70
     0
102
RTVSPropertyOp53
 70
     1
102
RTVSPropertyOp54
 70
     1
102
RTVSPropertyOp55
 70
     1
102
RTVSPropertyOp56
 70
     1
102
RTVSPropertyOp57
 70
     1
102
RTVSPost2010Prop28
280
     0
102
RTVSPost2010PropOp28
 70
     1
102
RTVSPost2010Prop29
280
     1
102
RTVSPost2010PropOp29
 70
     1
102
RTVSPost2010Prop30
280
     1
102
RTVSPost2010PropOp30
 70
     1
102
RTVSPost2010Prop31
280
     0
102
RTVSPost2010PropOp31
 70
     1
102
RTVSPost2010Prop32
280
     0
102
RTVSPost2010PropOp32
 70
     1
102
RTVSPost2010Prop33
280
     0
102
RTVSPost2010PropOp33
 70
     1
102
RTVSPost2010Prop34
280
     0
102
RTVSPost2010PropOp34
 70
     1
102
RTVSPost2010Prop35
280
     0
102
RTVSPost2010PropOp35
 70
     1
102
RTVSPost2010Prop36
280
     0
102
RTVSPost2010PropOp36
 70
     1
102
RTVSPost2010Prop37
 90
       50
102
RTVSPost2010PropOp37
 70
     1
102
RTVSPost2010Prop38
140
0.0
102
RTVSPost2010PropOp38
 70
     1
102
RTVSPost2010Prop39
140
1.0
102
RTVSPost2010PropOp39
 70
     1
102
RTVSPost2010Prop40
 90
        0
102
RTVSPost2010PropOp40
 70
     1
102
RTVSPost2010Prop41ColorIndex
 90
       18
102
RTVSPost2010Prop41ColorRGB
 90
        0
102
RTVSPost2010PropOp41
 70
     1
102
RTVSPost2010Prop42
 90
       50
102
RTVSPost2010PropOp42
 70
     1
102
RTVSPost2010Prop43
 90
        3
102
RTVSPost2010PropOp43
 70
     1
102
RTVSPost2010Prop44ColorIndex
 90
        5
102
RTVSPost2010Prop44ColorRGB
 90
      255
102
RTVSPost2010PropOp44
 70
     1
102
RTVSPost2010Prop45
280
     0
102
RTVSPost2010PropOp45
 70
     1
102
RTVSPost2010Prop46
 90
       50
102
RTVSPost2010PropOp46
 70
     1
102
RTVSPost2010Prop47
 90
       50
102
RTVSPost2010PropOp47
 70
     1
102
RTVSPost2010Prop48
 90
       50
102
RTVSPost2010PropOp48
 70
     1
102
RTVSPost2010Prop49
280
     0
102
RTVSPost2010PropOp49
 70
     1
102
RTVSPost2010Prop50
 90
       50
102
RTVSPost2010PropOp50
 70
     1
102
RTVSPost2010Prop51ColorIndex
 90
      256
102
RTVSPost2010Prop51ColorRGB
 90
-16777216
102
RTVSPost2010PropOp51
 70
     0
102
RTVSPost2010Prop52
140
1.0
102
RTVSPost2010PropOp52
 70
     0
102
RTVSPost2010Prop53
 90
        2
102
RTVSPost2010PropOp53
 70
     1
102
RTVSPost2010Prop54
  1
strokes_ogs.tif
102
RTVSPost2010PropOp54
 70
     1
102
RTVSPost2010Prop55
280
     0
102
RTVSPost2010PropOp55
 70
     1
102
RTVSPost2010Prop56
140
1.0
102
RTVSPost2010PropOp56
 70
     1
102
RTVSPost2010Prop57
140
1.0
102
RTVSPost2010PropOp57
 70
     1
  0
XRECORD
  5
94230
102
{ACAD_REACTORS
330
87B12
102
}
330
87B12
100
AcDbXrecord
280
     1
102
RTVSPropertyOp0
 70
     1
102
RTVSPropertyOp1
 70
     1
102
RTVSPropertyOp2
 70
     1
102
RTVSPropertyOp3
 70
     1
102
RTVSPropertyOp4
 70
     1
102
RTVSPropertyOp5
 70
     1
102
RTVSPropertyOp6
 70
     1
102
RTVSPropertyOp7
 70
     1
102
RTVSPropertyOp8
 70
     1
102
RTVSPropertyOp9
 70
     1
102
RTVSPropertyOp10
 70
     1
102
RTVSPropertyOp11
 70
     1
102
RTVSPropertyOp12
 70
     1
102
RTVSPropertyOp13
 70
     1
102
RTVSPropertyOp14
 70
     1
102
RTVSPropertyOp15
 70
     1
102
RTVSPropertyOp16
 70
     1
102
RTVSPropertyOp17
 70
     1
102
RTVSPropertyOp18
 70
     1
102
RTVSPropertyOp19
 70
     1
102
RTVSPropertyOp20
 70
     1
102
RTVSPropertyOp21
 70
     1
102
RTVSPropertyOp22
 70
     1
102
RTVSPropertyOp23
 70
     1
102
RTVSPropertyOp24
 70
     1
102
RTVSPropertyOp25
 70
     1
102
RTVSPropertyOp26
 70
     1
102
RTVSPropertyOp27
 70
     1
102
RTVSPropertyOp28
 70
     1
102
RTVSPropertyOp29
 70
     1
102
RTVSPropertyOp30
 70
     1
102
RTVSPropertyOp31
 70
     1
102
RTVSPropertyOp32
 70
     1
102
RTVSPropertyOp33
 70
     1
102
RTVSPropertyOp34
 70
     1
102
RTVSPropertyOp35
 70
     1
102
RTVSPropertyOp36
 70
     1
102
RTVSPropertyOp37
 70
     1
102
RTVSPropertyOp38
 70
     1
102
RTVSPropertyOp39
 70
     1
102
RTVSPropertyOp40
 70
     1
102
RTVSPropertyOp41
 70
     1
102
RTVSPropertyOp42
 70
     1
102
RTVSPropertyOp43
 70
     1
102
RTVSPropertyOp44
 70
     1
102
RTVSPropertyOp45
 70
     1
102
RTVSPropertyOp46
 70
     1
102
RTVSPropertyOp47
 70
     1
102
RTVSPropertyOp48
 70
     1
102
RTVSPropertyOp49
 70
     1
102
RTVSPropertyOp50
 70
     1
102
RTVSPropertyOp51
 70
     0
102
RTVSPropertyOp52
 70
     0
102
RTVSPropertyOp53
 70
     1
102
RTVSPropertyOp54
 70
     1
102
RTVSPropertyOp55
 70
     1
102
RTVSPropertyOp56
 70
     1
102
RTVSPropertyOp57
 70
     1
102
RTVSPost2010Prop28
280
     0
102
RTVSPost2010PropOp28
 70
     1
102
RTVSPost2010Prop29
280
     1
102
RTVSPost2010PropOp29
 70
     1
102
RTVSPost2010Prop30
280
     1
102
RTVSPost2010PropOp30
 70
     1
102
RTVSPost2010Prop31
280
     0
102
RTVSPost2010PropOp31
 70
     1
102
RTVSPost2010Prop32
280
     0
102
RTVSPost2010PropOp32
 70
     1
102
RTVSPost2010Prop33
280
     0
102
RTVSPost2010PropOp33
 70
     1
102
RTVSPost2010Prop34
280
     0
102
RTVSPost2010PropOp34
 70
     1
102
RTVSPost2010Prop35
280
     0
102
RTVSPost2010PropOp35
 70
     1
102
RTVSPost2010Prop36
280
     0
102
RTVSPost2010PropOp36
 70
     1
102
RTVSPost2010Prop37
 90
       50
102
RTVSPost2010PropOp37
 70
     1
102
RTVSPost2010Prop38
140
0.0
102
RTVSPost2010PropOp38
 70
     1
102
RTVSPost2010Prop39
140
1.0
102
RTVSPost2010PropOp39
 70
     1
102
RTVSPost2010Prop40
 90
        0
102
RTVSPost2010PropOp40
 70
     1
102
RTVSPost2010Prop41ColorIndex
 90
       18
102
RTVSPost2010Prop41ColorRGB
 90
        0
102
RTVSPost2010PropOp41
 70
     1
102
RTVSPost2010Prop42
 90
       50
102
RTVSPost2010PropOp42
 70
     1
102
RTVSPost2010Prop43
 90
        3
102
RTVSPost2010PropOp43
 70
     1
102
RTVSPost2010Prop44ColorIndex
 90
        5
102
RTVSPost2010Prop44ColorRGB
 90
      255
102
RTVSPost2010PropOp44
 70
     1
102
RTVSPost2010Prop45
280
     0
102
RTVSPost2010PropOp45
 70
     1
102
RTVSPost2010Prop46
 90
       50
102
RTVSPost2010PropOp46
 70
     1
102
RTVSPost2010Prop47
 90
       50
102
RTVSPost2010PropOp47
 70
     1
102
RTVSPost2010Prop48
 90
       50
102
RTVSPost2010PropOp48
 70
     1
102
RTVSPost2010Prop49
280
     0
102
RTVSPost2010PropOp49
 70
     1
102
RTVSPost2010Prop50
 90
       50
102
RTVSPost2010PropOp50
 70
     1
102
RTVSPost2010Prop51ColorIndex
 90
      256
102
RTVSPost2010Prop51ColorRGB
 90
-16777216
102
RTVSPost2010PropOp51
 70
     0
102
RTVSPost2010Prop52
140
1.0
102
RTVSPost2010PropOp52
 70
     0
102
RTVSPost2010Prop53
 90
        2
102
RTVSPost2010PropOp53
 70
     1
102
RTVSPost2010Prop54
  1
strokes_ogs.tif
102
RTVSPost2010PropOp54
 70
     1
102
RTVSPost2010Prop55
280
     0
102
RTVSPost2010PropOp55
 70
     1
102
RTVSPost2010Prop56
140
1.0
102
RTVSPost2010PropOp56
 70
     1
102
RTVSPost2010Prop57
140
1.0
102
RTVSPost2010PropOp57
 70
     1
  0
XRECORD
  5
94231
102
{ACAD_REACTORS
330
87B14
102
}
330
87B14
100
AcDbXrecord
280
     1
102
RTVSPropertyOp0
 70
     1
102
RTVSPropertyOp1
 70
     1
102
RTVSPropertyOp2
 70
     1
102
RTVSPropertyOp3
 70
     1
102
RTVSPropertyOp4
 70
     1
102
RTVSPropertyOp5
 70
     1
102
RTVSPropertyOp6
 70
     1
102
RTVSPropertyOp7
 70
     1
102
RTVSPropertyOp8
 70
     1
102
RTVSPropertyOp9
 70
     1
102
RTVSPropertyOp10
 70
     1
102
RTVSPropertyOp11
 70
     1
102
RTVSPropertyOp12
 70
     1
102
RTVSPropertyOp13
 70
     1
102
RTVSPropertyOp14
 70
     1
102
RTVSPropertyOp15
 70
     1
102
RTVSPropertyOp16
 70
     1
102
RTVSPropertyOp17
 70
     1
102
RTVSPropertyOp18
 70
     1
102
RTVSPropertyOp19
 70
     1
102
RTVSPropertyOp20
 70
     1
102
RTVSPropertyOp21
 70
     1
102
RTVSPropertyOp22
 70
     1
102
RTVSPropertyOp23
 70
     1
102
RTVSPropertyOp24
 70
     1
102
RTVSPropertyOp25
 70
     1
102
RTVSPropertyOp26
 70
     1
102
RTVSPropertyOp27
 70
     1
102
RTVSPropertyOp28
 70
     1
102
RTVSPropertyOp29
 70
     1
102
RTVSPropertyOp30
 70
     1
102
RTVSPropertyOp31
 70
     1
102
RTVSPropertyOp32
 70
     1
102
RTVSPropertyOp33
 70
     1
102
RTVSPropertyOp34
 70
     1
102
RTVSPropertyOp35
 70
     1
102
RTVSPropertyOp36
 70
     1
102
RTVSPropertyOp37
 70
     1
102
RTVSPropertyOp38
 70
     1
102
RTVSPropertyOp39
 70
     1
102
RTVSPropertyOp40
 70
     1
102
RTVSPropertyOp41
 70
     1
102
RTVSPropertyOp42
 70
     1
102
RTVSPropertyOp43
 70
     1
102
RTVSPropertyOp44
 70
     1
102
RTVSPropertyOp45
 70
     1
102
RTVSPropertyOp46
 70
     1
102
RTVSPropertyOp47
 70
     1
102
RTVSPropertyOp48
 70
     1
102
RTVSPropertyOp49
 70
     1
102
RTVSPropertyOp50
 70
     1
102
RTVSPropertyOp51
 70
     0
102
RTVSPropertyOp52
 70
     0
102
RTVSPropertyOp53
 70
     1
102
RTVSPropertyOp54
 70
     1
102
RTVSPropertyOp55
 70
     1
102
RTVSPropertyOp56
 70
     1
102
RTVSPropertyOp57
 70
     1
102
RTVSPost2010Prop28
280
     0
102
RTVSPost2010PropOp28
 70
     1
102
RTVSPost2010Prop29
280
     1
102
RTVSPost2010PropOp29
 70
     1
102
RTVSPost2010Prop30
280
     1
102
RTVSPost2010PropOp30
 70
     1
102
RTVSPost2010Prop31
280
     0
102
RTVSPost2010PropOp31
 70
     1
102
RTVSPost2010Prop32
280
     0
102
RTVSPost2010PropOp32
 70
     1
102
RTVSPost2010Prop33
280
     0
102
RTVSPost2010PropOp33
 70
     1
102
RTVSPost2010Prop34
280
     0
102
RTVSPost2010PropOp34
 70
     1
102
RTVSPost2010Prop35
280
     0
102
RTVSPost2010PropOp35
 70
     1
102
RTVSPost2010Prop36
280
     0
102
RTVSPost2010PropOp36
 70
     1
102
RTVSPost2010Prop37
 90
       50
102
RTVSPost2010PropOp37
 70
     1
102
RTVSPost2010Prop38
140
0.0
102
RTVSPost2010PropOp38
 70
     1
102
RTVSPost2010Prop39
140
1.0
102
RTVSPost2010PropOp39
 70
     1
102
RTVSPost2010Prop40
 90
        0
102
RTVSPost2010PropOp40
 70
     1
102
RTVSPost2010Prop41ColorIndex
 90
       18
102
RTVSPost2010Prop41ColorRGB
 90
        0
102
RTVSPost2010PropOp41
 70
     1
102
RTVSPost2010Prop42
 90
       50
102
RTVSPost2010PropOp42
 70
     1
102
RTVSPost2010Prop43
 90
        3
102
RTVSPost2010PropOp43
 70
     1
102
RTVSPost2010Prop44ColorIndex
 90
        5
102
RTVSPost2010Prop44ColorRGB
 90
      255
102
RTVSPost2010PropOp44
 70
     1
102
RTVSPost2010Prop45
280
     0
102
RTVSPost2010PropOp45
 70
     1
102
RTVSPost2010Prop46
 90
       50
102
RTVSPost2010PropOp46
 70
     1
102
RTVSPost2010Prop47
 90
       50
102
RTVSPost2010PropOp47
 70
     1
102
RTVSPost2010Prop48
 90
       50
102
RTVSPost2010PropOp48
 70
     1
102
RTVSPost2010Prop49
280
     0
102
RTVSPost2010PropOp49
 70
     1
102
RTVSPost2010Prop50
 90
       50
102
RTVSPost2010PropOp50
 70
     1
102
RTVSPost2010Prop51ColorIndex
 90
      256
102
RTVSPost2010Prop51ColorRGB
 90
-16777216
102
RTVSPost2010PropOp51
 70
     0
102
RTVSPost2010Prop52
140
1.0
102
RTVSPost2010PropOp52
 70
     0
102
RTVSPost2010Prop53
 90
        2
102
RTVSPost2010PropOp53
 70
     1
102
RTVSPost2010Prop54
  1
strokes_ogs.tif
102
RTVSPost2010PropOp54
 70
     1
102
RTVSPost2010Prop55
280
     0
102
RTVSPost2010PropOp55
 70
     1
102
RTVSPost2010Prop56
140
1.0
102
RTVSPost2010PropOp56
 70
     1
102
RTVSPost2010Prop57
140
1.0
102
RTVSPost2010PropOp57
 70
     1
  0
XRECORD
  5
94232
102
{ACAD_REACTORS
330
87B1C
102
}
330
87B1C
100
AcDbXrecord
280
     1
102
RTVSPropertyOp0
 70
     1
102
RTVSPropertyOp1
 70
     1
102
RTVSPropertyOp2
 70
     1
102
RTVSPropertyOp3
 70
     1
102
RTVSPropertyOp4
 70
     1
102
RTVSPropertyOp5
 70
     1
102
RTVSPropertyOp6
 70
     1
102
RTVSPropertyOp7
 70
     1
102
RTVSPropertyOp8
 70
     1
102
RTVSPropertyOp9
 70
     1
102
RTVSPropertyOp10
 70
     1
102
RTVSPropertyOp11
 70
     1
102
RTVSPropertyOp12
 70
     1
102
RTVSPropertyOp13
 70
     1
102
RTVSPropertyOp14
 70
     1
102
RTVSPropertyOp15
 70
     1
102
RTVSPropertyOp16
 70
     1
102
RTVSPropertyOp17
 70
     1
102
RTVSPropertyOp18
 70
     1
102
RTVSPropertyOp19
 70
     1
102
RTVSPropertyOp20
 70
     1
102
RTVSPropertyOp21
 70
     1
102
RTVSPropertyOp22
 70
     1
102
RTVSPropertyOp23
 70
     1
102
RTVSPropertyOp24
 70
     1
102
RTVSPropertyOp25
 70
     1
102
RTVSPropertyOp26
 70
     1
102
RTVSPropertyOp27
 70
     1
102
RTVSPropertyOp28
 70
     1
102
RTVSPropertyOp29
 70
     1
102
RTVSPropertyOp30
 70
     1
102
RTVSPropertyOp31
 70
     1
102
RTVSPropertyOp32
 70
     1
102
RTVSPropertyOp33
 70
     1
102
RTVSPropertyOp34
 70
     1
102
RTVSPropertyOp35
 70
     1
102
RTVSPropertyOp36
 70
     1
102
RTVSPropertyOp37
 70
     1
102
RTVSPropertyOp38
 70
     1
102
RTVSPropertyOp39
 70
     1
102
RTVSPropertyOp40
 70
     1
102
RTVSPropertyOp41
 70
     1
102
RTVSPropertyOp42
 70
     1
102
RTVSPropertyOp43
 70
     1
102
RTVSPropertyOp44
 70
     1
102
RTVSPropertyOp45
 70
     1
102
RTVSPropertyOp46
 70
     1
102
RTVSPropertyOp47
 70
     1
102
RTVSPropertyOp48
 70
     1
102
RTVSPropertyOp49
 70
     1
102
RTVSPropertyOp50
 70
     1
102
RTVSPropertyOp51
 70
     0
102
RTVSPropertyOp52
 70
     0
102
RTVSPropertyOp53
 70
     1
102
RTVSPropertyOp54
 70
     1
102
RTVSPropertyOp55
 70
     1
102
RTVSPropertyOp56
 70
     1
102
RTVSPropertyOp57
 70
     1
102
RTVSPost2010Prop28
280
     0
102
RTVSPost2010PropOp28
 70
     1
102
RTVSPost2010Prop29
280
     1
102
RTVSPost2010PropOp29
 70
     1
102
RTVSPost2010Prop30
280
     1
102
RTVSPost2010PropOp30
 70
     1
102
RTVSPost2010Prop31
280
     0
102
RTVSPost2010PropOp31
 70
     1
102
RTVSPost2010Prop32
280
     0
102
RTVSPost2010PropOp32
 70
     1
102
RTVSPost2010Prop33
280
     0
102
RTVSPost2010PropOp33
 70
     1
102
RTVSPost2010Prop34
280
     0
102
RTVSPost2010PropOp34
 70
     1
102
RTVSPost2010Prop35
280
     0
102
RTVSPost2010PropOp35
 70
     1
102
RTVSPost2010Prop36
280
     0
102
RTVSPost2010PropOp36
 70
     1
102
RTVSPost2010Prop37
 90
       50
102
RTVSPost2010PropOp37
 70
     1
102
RTVSPost2010Prop38
140
0.0
102
RTVSPost2010PropOp38
 70
     1
102
RTVSPost2010Prop39
140
1.0
102
RTVSPost2010PropOp39
 70
     1
102
RTVSPost2010Prop40
 90
        0
102
RTVSPost2010PropOp40
 70
     1
102
RTVSPost2010Prop41ColorIndex
 90
       18
102
RTVSPost2010Prop41ColorRGB
 90
        0
102
RTVSPost2010PropOp41
 70
     1
102
RTVSPost2010Prop42
 90
       50
102
RTVSPost2010PropOp42
 70
     1
102
RTVSPost2010Prop43
 90
        3
102
RTVSPost2010PropOp43
 70
     1
102
RTVSPost2010Prop44ColorIndex
 90
        5
102
RTVSPost2010Prop44ColorRGB
 90
      255
102
RTVSPost2010PropOp44
 70
     1
102
RTVSPost2010Prop45
280
     0
102
RTVSPost2010PropOp45
 70
     1
102
RTVSPost2010Prop46
 90
       50
102
RTVSPost2010PropOp46
 70
     1
102
RTVSPost2010Prop47
 90
       50
102
RTVSPost2010PropOp47
 70
     1
102
RTVSPost2010Prop48
 90
       50
102
RTVSPost2010PropOp48
 70
     1
102
RTVSPost2010Prop49
280
     0
102
RTVSPost2010PropOp49
 70
     1
102
RTVSPost2010Prop50
 90
       50
102
RTVSPost2010PropOp50
 70
     1
102
RTVSPost2010Prop51ColorIndex
 90
      256
102
RTVSPost2010Prop51ColorRGB
 90
-16777216
102
RTVSPost2010PropOp51
 70
     0
102
RTVSPost2010Prop52
140
1.0
102
RTVSPost2010PropOp52
 70
     0
102
RTVSPost2010Prop53
 90
        2
102
RTVSPost2010PropOp53
 70
     1
102
RTVSPost2010Prop54
  1
strokes_ogs.tif
102
RTVSPost2010PropOp54
 70
     1
102
RTVSPost2010Prop55
280
     0
102
RTVSPost2010PropOp55
 70
     1
102
RTVSPost2010Prop56
140
1.0
102
RTVSPost2010PropOp56
 70
     1
102
RTVSPost2010Prop57
140
1.0
102
RTVSPost2010PropOp57
 70
     1
  0
XRECORD
  5
94233
102
{ACAD_REACTORS
330
87B38
102
}
330
87B38
100
AcDbXrecord
280
     1
102
RTVSPropertyOp0
 70
     0
102
RTVSPropertyOp1
 70
     0
102
RTVSPropertyOp2
 70
     0
102
RTVSPropertyOp3
 70
     0
102
RTVSPropertyOp4
 70
     0
102
RTVSPropertyOp5
 70
     0
102
RTVSPropertyOp6
 70
     0
102
RTVSPropertyOp7
 70
     0
102
RTVSPropertyOp8
 70
     0
102
RTVSPropertyOp9
 70
     0
102
RTVSPropertyOp10
 70
     0
102
RTVSPropertyOp11
 70
     0
102
RTVSPropertyOp12
 70
     0
102
RTVSPropertyOp13
 70
     0
102
RTVSPropertyOp14
 70
     2
102
RTVSPropertyOp15
 70
     0
102
RTVSPropertyOp16
 70
     0
102
RTVSPropertyOp17
 70
     0
102
RTVSPropertyOp18
 70
     0
102
RTVSPropertyOp19
 70
     0
102
RTVSPropertyOp20
 70
     0
102
RTVSPropertyOp21
 70
     0
102
RTVSPropertyOp22
 70
     0
102
RTVSPropertyOp23
 70
     0
102
RTVSPropertyOp24
 70
     0
102
RTVSPropertyOp25
 70
     0
102
RTVSPropertyOp26
 70
     0
102
RTVSPropertyOp27
 70
     0
102
RTVSPropertyOp28
 70
     1
102
RTVSPropertyOp29
 70
     1
102
RTVSPropertyOp30
 70
     1
102
RTVSPropertyOp31
 70
     1
102
RTVSPropertyOp32
 70
     1
102
RTVSPropertyOp33
 70
     1
102
RTVSPropertyOp34
 70
     1
102
RTVSPropertyOp35
 70
     1
102
RTVSPropertyOp36
 70
     1
102
RTVSPropertyOp37
 70
     0
102
RTVSPropertyOp38
 70
     0
102
RTVSPropertyOp39
 70
     0
102
RTVSPropertyOp40
 70
     0
102
RTVSPropertyOp41
 70
     0
102
RTVSPropertyOp42
 70
     0
102
RTVSPropertyOp43
 70
     0
102
RTVSPropertyOp44
 70
     0
102
RTVSPropertyOp45
 70
     1
102
RTVSPropertyOp46
 70
     0
102
RTVSPropertyOp47
 70
     0
102
RTVSPropertyOp48
 70
     0
102
RTVSPropertyOp49
 70
     1
102
RTVSPropertyOp50
 70
     0
102
RTVSPropertyOp51
 70
     0
102
RTVSPropertyOp52
 70
     0
102
RTVSPropertyOp53
 70
     0
102
RTVSPropertyOp54
 70
     0
102
RTVSPropertyOp55
 70
     1
102
RTVSPropertyOp56
 70
     0
102
RTVSPropertyOp57
 70
     0
102
RTVSPost2010Prop28
280
     0
102
RTVSPost2010PropOp28
 70
     1
102
RTVSPost2010Prop29
280
     1
102
RTVSPost2010PropOp29
 70
     1
102
RTVSPost2010Prop30
280
     1
102
RTVSPost2010PropOp30
 70
     1
102
RTVSPost2010Prop31
280
     0
102
RTVSPost2010PropOp31
 70
     1
102
RTVSPost2010Prop32
280
     0
102
RTVSPost2010PropOp32
 70
     1
102
RTVSPost2010Prop33
280
     0
102
RTVSPost2010PropOp33
 70
     1
102
RTVSPost2010Prop34
280
     0
102
RTVSPost2010PropOp34
 70
     1
102
RTVSPost2010Prop35
280
     0
102
RTVSPost2010PropOp35
 70
     1
102
RTVSPost2010Prop36
280
     0
102
RTVSPost2010PropOp36
 70
     1
102
RTVSPost2010Prop37
 90
       50
102
RTVSPost2010PropOp37
 70
     0
102
RTVSPost2010Prop38
140
0.0
102
RTVSPost2010PropOp38
 70
     0
102
RTVSPost2010Prop39
140
1.0
102
RTVSPost2010PropOp39
 70
     0
102
RTVSPost2010Prop40
 90
        0
102
RTVSPost2010PropOp40
 70
     0
102
RTVSPost2010Prop41ColorIndex
 90
       18
102
RTVSPost2010Prop41ColorRGB
 90
        0
102
RTVSPost2010PropOp41
 70
     0
102
RTVSPost2010Prop42
 90
       50
102
RTVSPost2010PropOp42
 70
     0
102
RTVSPost2010Prop43
 90
        3
102
RTVSPost2010PropOp43
 70
     0
102
RTVSPost2010Prop44ColorIndex
 90
        5
102
RTVSPost2010Prop44ColorRGB
 90
      255
102
RTVSPost2010PropOp44
 70
     0
102
RTVSPost2010Prop45
280
     0
102
RTVSPost2010PropOp45
 70
     1
102
RTVSPost2010Prop46
 90
       50
102
RTVSPost2010PropOp46
 70
     0
102
RTVSPost2010Prop47
 90
       50
102
RTVSPost2010PropOp47
 70
     0
102
RTVSPost2010Prop48
 90
       50
102
RTVSPost2010PropOp48
 70
     0
102
RTVSPost2010Prop49
280
     0
102
RTVSPost2010PropOp49
 70
     1
102
RTVSPost2010Prop50
 90
       50
102
RTVSPost2010PropOp50
 70
     0
102
RTVSPost2010Prop51ColorIndex
 90
      256
102
RTVSPost2010Prop51ColorRGB
 90
-16777216
102
RTVSPost2010PropOp51
 70
     0
102
RTVSPost2010Prop52
140
1.0
102
RTVSPost2010PropOp52
 70
     0
102
RTVSPost2010Prop53
 90
        2
102
RTVSPost2010PropOp53
 70
     0
102
RTVSPost2010Prop54
  1
strokes_ogs.tif
102
RTVSPost2010PropOp54
 70
     0
102
RTVSPost2010Prop55
280
     0
102
RTVSPost2010PropOp55
 70
     1
102
RTVSPost2010Prop56
140
1.0
102
RTVSPost2010PropOp56
 70
     0
102
RTVSPost2010Prop57
140
1.0
102
RTVSPost2010PropOp57
 70
     0
  0
XRECORD
  5
94234
102
{ACAD_REACTORS
330
87B28
102
}
330
87B28
100
AcDbXrecord
280
     1
102
RTVSPropertyOp0
 70
     1
102
RTVSPropertyOp1
 70
     1
102
RTVSPropertyOp2
 70
     1
102
RTVSPropertyOp3
 70
     1
102
RTVSPropertyOp4
 70
     1
102
RTVSPropertyOp5
 70
     1
102
RTVSPropertyOp6
 70
     1
102
RTVSPropertyOp7
 70
     1
102
RTVSPropertyOp8
 70
     1
102
RTVSPropertyOp9
 70
     1
102
RTVSPropertyOp10
 70
     1
102
RTVSPropertyOp11
 70
     1
102
RTVSPropertyOp12
 70
     1
102
RTVSPropertyOp13
 70
     1
102
RTVSPropertyOp14
 70
     1
102
RTVSPropertyOp15
 70
     1
102
RTVSPropertyOp16
 70
     1
102
RTVSPropertyOp17
 70
     1
102
RTVSPropertyOp18
 70
     1
102
RTVSPropertyOp19
 70
     1
102
RTVSPropertyOp20
 70
     1
102
RTVSPropertyOp21
 70
     1
102
RTVSPropertyOp22
 70
     1
102
RTVSPropertyOp23
 70
     1
102
RTVSPropertyOp24
 70
     1
102
RTVSPropertyOp25
 70
     1
102
RTVSPropertyOp26
 70
     1
102
RTVSPropertyOp27
 70
     1
102
RTVSPropertyOp28
 70
     1
102
RTVSPropertyOp29
 70
     1
102
RTVSPropertyOp30
 70
     1
102
RTVSPropertyOp31
 70
     1
102
RTVSPropertyOp32
 70
     1
102
RTVSPropertyOp33
 70
     1
102
RTVSPropertyOp34
 70
     1
102
RTVSPropertyOp35
 70
     1
102
RTVSPropertyOp36
 70
     1
102
RTVSPropertyOp37
 70
     1
102
RTVSPropertyOp38
 70
     1
102
RTVSPropertyOp39
 70
     1
102
RTVSPropertyOp40
 70
     1
102
RTVSPropertyOp41
 70
     1
102
RTVSPropertyOp42
 70
     1
102
RTVSPropertyOp43
 70
     1
102
RTVSPropertyOp44
 70
     1
102
RTVSPropertyOp45
 70
     1
102
RTVSPropertyOp46
 70
     1
102
RTVSPropertyOp47
 70
     1
102
RTVSPropertyOp48
 70
     1
102
RTVSPropertyOp49
 70
     1
102
RTVSPropertyOp50
 70
     1
102
RTVSPropertyOp51
 70
     0
102
RTVSPropertyOp52
 70
     0
102
RTVSPropertyOp53
 70
     1
102
RTVSPropertyOp54
 70
     1
102
RTVSPropertyOp55
 70
     1
102
RTVSPropertyOp56
 70
     1
102
RTVSPropertyOp57
 70
     1
102
RTVSPost2010Prop28
280
     0
102
RTVSPost2010PropOp28
 70
     1
102
RTVSPost2010Prop29
280
     1
102
RTVSPost2010PropOp29
 70
     1
102
RTVSPost2010Prop30
280
     1
102
RTVSPost2010PropOp30
 70
     1
102
RTVSPost2010Prop31
280
     0
102
RTVSPost2010PropOp31
 70
     1
102
RTVSPost2010Prop32
280
     0
102
RTVSPost2010PropOp32
 70
     1
102
RTVSPost2010Prop33
280
     0
102
RTVSPost2010PropOp33
 70
     1
102
RTVSPost2010Prop34
280
     0
102
RTVSPost2010PropOp34
 70
     1
102
RTVSPost2010Prop35
280
     0
102
RTVSPost2010PropOp35
 70
     1
102
RTVSPost2010Prop36
280
     0
102
RTVSPost2010PropOp36
 70
     1
102
RTVSPost2010Prop37
 90
       50
102
RTVSPost2010PropOp37
 70
     1
102
RTVSPost2010Prop38
140
0.0
102
RTVSPost2010PropOp38
 70
     1
102
RTVSPost2010Prop39
140
1.0
102
RTVSPost2010PropOp39
 70
     1
102
RTVSPost2010Prop40
 90
        0
102
RTVSPost2010PropOp40
 70
     1
102
RTVSPost2010Prop41ColorIndex
 90
       18
102
RTVSPost2010Prop41ColorRGB
 90
        0
102
RTVSPost2010PropOp41
 70
     1
102
RTVSPost2010Prop42
 90
       50
102
RTVSPost2010PropOp42
 70
     1
102
RTVSPost2010Prop43
 90
        3
102
RTVSPost2010PropOp43
 70
     1
102
RTVSPost2010Prop44ColorIndex
 90
        5
102
RTVSPost2010Prop44ColorRGB
 90
      255
102
RTVSPost2010PropOp44
 70
     1
102
RTVSPost2010Prop45
280
     0
102
RTVSPost2010PropOp45
 70
     1
102
RTVSPost2010Prop46
 90
       50
102
RTVSPost2010PropOp46
 70
     1
102
RTVSPost2010Prop47
 90
       50
102
RTVSPost2010PropOp47
 70
     1
102
RTVSPost2010Prop48
 90
       50
102
RTVSPost2010PropOp48
 70
     1
102
RTVSPost2010Prop49
280
     0
102
RTVSPost2010PropOp49
 70
     1
102
RTVSPost2010Prop50
 90
       50
102
RTVSPost2010PropOp50
 70
     1
102
RTVSPost2010Prop51ColorIndex
 90
      256
102
RTVSPost2010Prop51ColorRGB
 90
-16777216
102
RTVSPost2010PropOp51
 70
     0
102
RTVSPost2010Prop52
140
1.0
102
RTVSPost2010PropOp52
 70
     0
102
RTVSPost2010Prop53
 90
        2
102
RTVSPost2010PropOp53
 70
     1
102
RTVSPost2010Prop54
  1
strokes_ogs.tif
102
RTVSPost2010PropOp54
 70
     1
102
RTVSPost2010Prop55
280
     0
102
RTVSPost2010PropOp55
 70
     1
102
RTVSPost2010Prop56
140
1.0
102
RTVSPost2010PropOp56
 70
     1
102
RTVSPost2010Prop57
140
1.0
102
RTVSPost2010PropOp57
 70
     1
  0
XRECORD
  5
94235
102
{ACAD_REACTORS
330
87B3A
102
}
330
87B3A
100
AcDbXrecord
280
     1
102
RTVSPropertyOp0
 70
     0
102
RTVSPropertyOp1
 70
     0
102
RTVSPropertyOp2
 70
     0
102
RTVSPropertyOp3
 70
     0
102
RTVSPropertyOp4
 70
     0
102
RTVSPropertyOp5
 70
     0
102
RTVSPropertyOp6
 70
     0
102
RTVSPropertyOp7
 70
     0
102
RTVSPropertyOp8
 70
     0
102
RTVSPropertyOp9
 70
     0
102
RTVSPropertyOp10
 70
     0
102
RTVSPropertyOp11
 70
     0
102
RTVSPropertyOp12
 70
     0
102
RTVSPropertyOp13
 70
     0
102
RTVSPropertyOp14
 70
     2
102
RTVSPropertyOp15
 70
     0
102
RTVSPropertyOp16
 70
     0
102
RTVSPropertyOp17
 70
     0
102
RTVSPropertyOp18
 70
     0
102
RTVSPropertyOp19
 70
     0
102
RTVSPropertyOp20
 70
     0
102
RTVSPropertyOp21
 70
     0
102
RTVSPropertyOp22
 70
     0
102
RTVSPropertyOp23
 70
     0
102
RTVSPropertyOp24
 70
     0
102
RTVSPropertyOp25
 70
     0
102
RTVSPropertyOp26
 70
     0
102
RTVSPropertyOp27
 70
     0
102
RTVSPropertyOp28
 70
     1
102
RTVSPropertyOp29
 70
     1
102
RTVSPropertyOp30
 70
     1
102
RTVSPropertyOp31
 70
     1
102
RTVSPropertyOp32
 70
     1
102
RTVSPropertyOp33
 70
     1
102
RTVSPropertyOp34
 70
     1
102
RTVSPropertyOp35
 70
     1
102
RTVSPropertyOp36
 70
     1
102
RTVSPropertyOp37
 70
     0
102
RTVSPropertyOp38
 70
     0
102
RTVSPropertyOp39
 70
     0
102
RTVSPropertyOp40
 70
     0
102
RTVSPropertyOp41
 70
     0
102
RTVSPropertyOp42
 70
     0
102
RTVSPropertyOp43
 70
     0
102
RTVSPropertyOp44
 70
     0
102
RTVSPropertyOp45
 70
     1
102
RTVSPropertyOp46
 70
     0
102
RTVSPropertyOp47
 70
     0
102
RTVSPropertyOp48
 70
     0
102
RTVSPropertyOp49
 70
     1
102
RTVSPropertyOp50
 70
     0
102
RTVSPropertyOp51
 70
     0
102
RTVSPropertyOp52
 70
     0
102
RTVSPropertyOp53
 70
     0
102
RTVSPropertyOp54
 70
     0
102
RTVSPropertyOp55
 70
     1
102
RTVSPropertyOp56
 70
     0
102
RTVSPropertyOp57
 70
     0
102
RTVSPost2010Prop28
280
     0
102
RTVSPost2010PropOp28
 70
     1
102
RTVSPost2010Prop29
280
     1
102
RTVSPost2010PropOp29
 70
     1
102
RTVSPost2010Prop30
280
     1
102
RTVSPost2010PropOp30
 70
     1
102
RTVSPost2010Prop31
280
     0
102
RTVSPost2010PropOp31
 70
     1
102
RTVSPost2010Prop32
280
     0
102
RTVSPost2010PropOp32
 70
     1
102
RTVSPost2010Prop33
280
     0
102
RTVSPost2010PropOp33
 70
     1
102
RTVSPost2010Prop34
280
     0
102
RTVSPost2010PropOp34
 70
     1
102
RTVSPost2010Prop35
280
     0
102
RTVSPost2010PropOp35
 70
     1
102
RTVSPost2010Prop36
280
     0
102
RTVSPost2010PropOp36
 70
     1
102
RTVSPost2010Prop37
 90
       50
102
RTVSPost2010PropOp37
 70
     0
102
RTVSPost2010Prop38
140
0.0
102
RTVSPost2010PropOp38
 70
     0
102
RTVSPost2010Prop39
140
1.0
102
RTVSPost2010PropOp39
 70
     0
102
RTVSPost2010Prop40
 90
        0
102
RTVSPost2010PropOp40
 70
     0
102
RTVSPost2010Prop41ColorIndex
 90
       18
102
RTVSPost2010Prop41ColorRGB
 90
        0
102
RTVSPost2010PropOp41
 70
     0
102
RTVSPost2010Prop42
 90
       50
102
RTVSPost2010PropOp42
 70
     0
102
RTVSPost2010Prop43
 90
        3
102
RTVSPost2010PropOp43
 70
     0
102
RTVSPost2010Prop44ColorIndex
 90
        5
102
RTVSPost2010Prop44ColorRGB
 90
      255
102
RTVSPost2010PropOp44
 70
     0
102
RTVSPost2010Prop45
280
     0
102
RTVSPost2010PropOp45
 70
     1
102
RTVSPost2010Prop46
 90
       50
102
RTVSPost2010PropOp46
 70
     0
102
RTVSPost2010Prop47
 90
       50
102
RTVSPost2010PropOp47
 70
     0
102
RTVSPost2010Prop48
 90
       50
102
RTVSPost2010PropOp48
 70
     0
102
RTVSPost2010Prop49
280
     0
102
RTVSPost2010PropOp49
 70
     1
102
RTVSPost2010Prop50
 90
       50
102
RTVSPost2010PropOp50
 70
     0
102
RTVSPost2010Prop51ColorIndex
 90
      256
102
RTVSPost2010Prop51ColorRGB
 90
-16777216
102
RTVSPost2010PropOp51
 70
     0
102
RTVSPost2010Prop52
140
1.0
102
RTVSPost2010PropOp52
 70
     0
102
RTVSPost2010Prop53
 90
        2
102
RTVSPost2010PropOp53
 70
     0
102
RTVSPost2010Prop54
  1
strokes_ogs.tif
102
RTVSPost2010PropOp54
 70
     0
102
RTVSPost2010Prop55
280
     0
102
RTVSPost2010PropOp55
 70
     1
102
RTVSPost2010Prop56
140
1.0
102
RTVSPost2010PropOp56
 70
     0
102
RTVSPost2010Prop57
140
1.0
102
RTVSPost2010PropOp57
 70
     0
  0
XRECORD
  5
94236
102
{ACAD_REACTORS
330
87B20
102
}
330
87B20
100
AcDbXrecord
280
     1
102
RTVSPropertyOp0
 70
     1
102
RTVSPropertyOp1
 70
     1
102
RTVSPropertyOp2
 70
     1
102
RTVSPropertyOp3
 70
     1
102
RTVSPropertyOp4
 70
     1
102
RTVSPropertyOp5
 70
     1
102
RTVSPropertyOp6
 70
     1
102
RTVSPropertyOp7
 70
     1
102
RTVSPropertyOp8
 70
     1
102
RTVSPropertyOp9
 70
     1
102
RTVSPropertyOp10
 70
     1
102
RTVSPropertyOp11
 70
     1
102
RTVSPropertyOp12
 70
     1
102
RTVSPropertyOp13
 70
     1
102
RTVSPropertyOp14
 70
     1
102
RTVSPropertyOp15
 70
     1
102
RTVSPropertyOp16
 70
     1
102
RTVSPropertyOp17
 70
     1
102
RTVSPropertyOp18
 70
     1
102
RTVSPropertyOp19
 70
     1
102
RTVSPropertyOp20
 70
     1
102
RTVSPropertyOp21
 70
     1
102
RTVSPropertyOp22
 70
     1
102
RTVSPropertyOp23
 70
     1
102
RTVSPropertyOp24
 70
     1
102
RTVSPropertyOp25
 70
     1
102
RTVSPropertyOp26
 70
     1
102
RTVSPropertyOp27
 70
     1
102
RTVSPropertyOp28
 70
     1
102
RTVSPropertyOp29
 70
     1
102
RTVSPropertyOp30
 70
     1
102
RTVSPropertyOp31
 70
     1
102
RTVSPropertyOp32
 70
     1
102
RTVSPropertyOp33
 70
     1
102
RTVSPropertyOp34
 70
     1
102
RTVSPropertyOp35
 70
     1
102
RTVSPropertyOp36
 70
     1
102
RTVSPropertyOp37
 70
     1
102
RTVSPropertyOp38
 70
     1
102
RTVSPropertyOp39
 70
     1
102
RTVSPropertyOp40
 70
     1
102
RTVSPropertyOp41
 70
     1
102
RTVSPropertyOp42
 70
     1
102
RTVSPropertyOp43
 70
     1
102
RTVSPropertyOp44
 70
     1
102
RTVSPropertyOp45
 70
     1
102
RTVSPropertyOp46
 70
     1
102
RTVSPropertyOp47
 70
     1
102
RTVSPropertyOp48
 70
     1
102
RTVSPropertyOp49
 70
     1
102
RTVSPropertyOp50
 70
     1
102
RTVSPropertyOp51
 70
     0
102
RTVSPropertyOp52
 70
     0
102
RTVSPropertyOp53
 70
     1
102
RTVSPropertyOp54
 70
     1
102
RTVSPropertyOp55
 70
     1
102
RTVSPropertyOp56
 70
     1
102
RTVSPropertyOp57
 70
     1
102
RTVSPost2010Prop28
280
     0
102
RTVSPost2010PropOp28
 70
     1
102
RTVSPost2010Prop29
280
     1
102
RTVSPost2010PropOp29
 70
     1
102
RTVSPost2010Prop30
280
     1
102
RTVSPost2010PropOp30
 70
     1
102
RTVSPost2010Prop31
280
     0
102
RTVSPost2010PropOp31
 70
     1
102
RTVSPost2010Prop32
280
     0
102
RTVSPost2010PropOp32
 70
     1
102
RTVSPost2010Prop33
280
     0
102
RTVSPost2010PropOp33
 70
     1
102
RTVSPost2010Prop34
280
     0
102
RTVSPost2010PropOp34
 70
     1
102
RTVSPost2010Prop35
280
     0
102
RTVSPost2010PropOp35
 70
     1
102
RTVSPost2010Prop36
280
     0
102
RTVSPost2010PropOp36
 70
     1
102
RTVSPost2010Prop37
 90
       50
102
RTVSPost2010PropOp37
 70
     1
102
RTVSPost2010Prop38
140
0.0
102
RTVSPost2010PropOp38
 70
     1
102
RTVSPost2010Prop39
140
1.0
102
RTVSPost2010PropOp39
 70
     1
102
RTVSPost2010Prop40
 90
        0
102
RTVSPost2010PropOp40
 70
     1
102
RTVSPost2010Prop41ColorIndex
 90
       18
102
RTVSPost2010Prop41ColorRGB
 90
        0
102
RTVSPost2010PropOp41
 70
     1
102
RTVSPost2010Prop42
 90
       50
102
RTVSPost2010PropOp42
 70
     1
102
RTVSPost2010Prop43
 90
        3
102
RTVSPost2010PropOp43
 70
     1
102
RTVSPost2010Prop44ColorIndex
 90
        5
102
RTVSPost2010Prop44ColorRGB
 90
      255
102
RTVSPost2010PropOp44
 70
     1
102
RTVSPost2010Prop45
280
     0
102
RTVSPost2010PropOp45
 70
     1
102
RTVSPost2010Prop46
 90
       50
102
RTVSPost2010PropOp46
 70
     1
102
RTVSPost2010Prop47
 90
       50
102
RTVSPost2010PropOp47
 70
     1
102
RTVSPost2010Prop48
 90
       50
102
RTVSPost2010PropOp48
 70
     1
102
RTVSPost2010Prop49
280
     0
102
RTVSPost2010PropOp49
 70
     1
102
RTVSPost2010Prop50
 90
       50
102
RTVSPost2010PropOp50
 70
     1
102
RTVSPost2010Prop51ColorIndex
 90
      256
102
RTVSPost2010Prop51ColorRGB
 90
-16777216
102
RTVSPost2010PropOp51
 70
     0
102
RTVSPost2010Prop52
140
1.0
102
RTVSPost2010PropOp52
 70
     0
102
RTVSPost2010Prop53
 90
        2
102
RTVSPost2010PropOp53
 70
     1
102
RTVSPost2010Prop54
  1
strokes_ogs.tif
102
RTVSPost2010PropOp54
 70
     1
102
RTVSPost2010Prop55
280
     0
102
RTVSPost2010PropOp55
 70
     1
102
RTVSPost2010Prop56
140
1.0
102
RTVSPost2010PropOp56
 70
     1
102
RTVSPost2010Prop57
140
1.0
102
RTVSPost2010PropOp57
 70
     1
  0
XRECORD
  5
94237
102
{ACAD_REACTORS
330
87B36
102
}
330
87B36
100
AcDbXrecord
280
     1
102
RTVSPropertyOp0
 70
     1
102
RTVSPropertyOp1
 70
     1
102
RTVSPropertyOp2
 70
     1
102
RTVSPropertyOp3
 70
     1
102
RTVSPropertyOp4
 70
     1
102
RTVSPropertyOp5
 70
     1
102
RTVSPropertyOp6
 70
     1
102
RTVSPropertyOp7
 70
     1
102
RTVSPropertyOp8
 70
     1
102
RTVSPropertyOp9
 70
     1
102
RTVSPropertyOp10
 70
     1
102
RTVSPropertyOp11
 70
     1
102
RTVSPropertyOp12
 70
     1
102
RTVSPropertyOp13
 70
     1
102
RTVSPropertyOp14
 70
     1
102
RTVSPropertyOp15
 70
     1
102
RTVSPropertyOp16
 70
     1
102
RTVSPropertyOp17
 70
     1
102
RTVSPropertyOp18
 70
     1
102
RTVSPropertyOp19
 70
     1
102
RTVSPropertyOp20
 70
     1
102
RTVSPropertyOp21
 70
     1
102
RTVSPropertyOp22
 70
     1
102
RTVSPropertyOp23
 70
     1
102
RTVSPropertyOp24
 70
     1
102
RTVSPropertyOp25
 70
     1
102
RTVSPropertyOp26
 70
     1
102
RTVSPropertyOp27
 70
     1
102
RTVSPropertyOp28
 70
     1
102
RTVSPropertyOp29
 70
     1
102
RTVSPropertyOp30
 70
     1
102
RTVSPropertyOp31
 70
     1
102
RTVSPropertyOp32
 70
     1
102
RTVSPropertyOp33
 70
     1
102
RTVSPropertyOp34
 70
     1
102
RTVSPropertyOp35
 70
     1
102
RTVSPropertyOp36
 70
     1
102
RTVSPropertyOp37
 70
     1
102
RTVSPropertyOp38
 70
     1
102
RTVSPropertyOp39
 70
     1
102
RTVSPropertyOp40
 70
     1
102
RTVSPropertyOp41
 70
     1
102
RTVSPropertyOp42
 70
     1
102
RTVSPropertyOp43
 70
     1
102
RTVSPropertyOp44
 70
     1
102
RTVSPropertyOp45
 70
     1
102
RTVSPropertyOp46
 70
     1
102
RTVSPropertyOp47
 70
     1
102
RTVSPropertyOp48
 70
     1
102
RTVSPropertyOp49
 70
     1
102
RTVSPropertyOp50
 70
     1
102
RTVSPropertyOp51
 70
     0
102
RTVSPropertyOp52
 70
     0
102
RTVSPropertyOp53
 70
     1
102
RTVSPropertyOp54
 70
     1
102
RTVSPropertyOp55
 70
     1
102
RTVSPropertyOp56
 70
     1
102
RTVSPropertyOp57
 70
     1
102
RTVSPost2010Prop28
280
     0
102
RTVSPost2010PropOp28
 70
     1
102
RTVSPost2010Prop29
280
     1
102
RTVSPost2010PropOp29
 70
     1
102
RTVSPost2010Prop30
280
     1
102
RTVSPost2010PropOp30
 70
     1
102
RTVSPost2010Prop31
280
     0
102
RTVSPost2010PropOp31
 70
     1
102
RTVSPost2010Prop32
280
     0
102
RTVSPost2010PropOp32
 70
     1
102
RTVSPost2010Prop33
280
     0
102
RTVSPost2010PropOp33
 70
     1
102
RTVSPost2010Prop34
280
     0
102
RTVSPost2010PropOp34
 70
     1
102
RTVSPost2010Prop35
280
     0
102
RTVSPost2010PropOp35
 70
     1
102
RTVSPost2010Prop36
280
     0
102
RTVSPost2010PropOp36
 70
     1
102
RTVSPost2010Prop37
 90
       50
102
RTVSPost2010PropOp37
 70
     1
102
RTVSPost2010Prop38
140
0.0
102
RTVSPost2010PropOp38
 70
     1
102
RTVSPost2010Prop39
140
1.0
102
RTVSPost2010PropOp39
 70
     1
102
RTVSPost2010Prop40
 90
        0
102
RTVSPost2010PropOp40
 70
     1
102
RTVSPost2010Prop41ColorIndex
 90
       18
102
RTVSPost2010Prop41ColorRGB
 90
        0
102
RTVSPost2010PropOp41
 70
     1
102
RTVSPost2010Prop42
 90
       50
102
RTVSPost2010PropOp42
 70
     1
102
RTVSPost2010Prop43
 90
        3
102
RTVSPost2010PropOp43
 70
     1
102
RTVSPost2010Prop44ColorIndex
 90
        5
102
RTVSPost2010Prop44ColorRGB
 90
      255
102
RTVSPost2010PropOp44
 70
     1
102
RTVSPost2010Prop45
280
     0
102
RTVSPost2010PropOp45
 70
     1
102
RTVSPost2010Prop46
 90
       50
102
RTVSPost2010PropOp46
 70
     1
102
RTVSPost2010Prop47
 90
       50
102
RTVSPost2010PropOp47
 70
     1
102
RTVSPost2010Prop48
 90
       50
102
RTVSPost2010PropOp48
 70
     1
102
RTVSPost2010Prop49
280
     0
102
RTVSPost2010PropOp49
 70
     1
102
RTVSPost2010Prop50
 90
       50
102
RTVSPost2010PropOp50
 70
     1
102
RTVSPost2010Prop51ColorIndex
 90
      256
102
RTVSPost2010Prop51ColorRGB
 90
-16777216
102
RTVSPost2010PropOp51
 70
     0
102
RTVSPost2010Prop52
140
1.0
102
RTVSPost2010PropOp52
 70
     0
102
RTVSPost2010Prop53
 90
        2
102
RTVSPost2010PropOp53
 70
     1
102
RTVSPost2010Prop54
  1
strokes_ogs.tif
102
RTVSPost2010PropOp54
 70
     1
102
RTVSPost2010Prop55
280
     0
102
RTVSPost2010PropOp55
 70
     1
102
RTVSPost2010Prop56
140
1.0
102
RTVSPost2010PropOp56
 70
     1
102
RTVSPost2010Prop57
140
1.0
102
RTVSPost2010PropOp57
 70
     1
  0
XRECORD
  5
94238
102
{ACAD_REACTORS
330
87B34
102
}
330
87B34
100
AcDbXrecord
280
     1
102
RTVSPropertyOp0
 70
     1
102
RTVSPropertyOp1
 70
     1
102
RTVSPropertyOp2
 70
     1
102
RTVSPropertyOp3
 70
     1
102
RTVSPropertyOp4
 70
     1
102
RTVSPropertyOp5
 70
     1
102
RTVSPropertyOp6
 70
     1
102
RTVSPropertyOp7
 70
     1
102
RTVSPropertyOp8
 70
     1
102
RTVSPropertyOp9
 70
     1
102
RTVSPropertyOp10
 70
     1
102
RTVSPropertyOp11
 70
     1
102
RTVSPropertyOp12
 70
     1
102
RTVSPropertyOp13
 70
     1
102
RTVSPropertyOp14
 70
     1
102
RTVSPropertyOp15
 70
     1
102
RTVSPropertyOp16
 70
     1
102
RTVSPropertyOp17
 70
     1
102
RTVSPropertyOp18
 70
     1
102
RTVSPropertyOp19
 70
     1
102
RTVSPropertyOp20
 70
     1
102
RTVSPropertyOp21
 70
     1
102
RTVSPropertyOp22
 70
     1
102
RTVSPropertyOp23
 70
     1
102
RTVSPropertyOp24
 70
     1
102
RTVSPropertyOp25
 70
     1
102
RTVSPropertyOp26
 70
     1
102
RTVSPropertyOp27
 70
     1
102
RTVSPropertyOp28
 70
     1
102
RTVSPropertyOp29
 70
     1
102
RTVSPropertyOp30
 70
     1
102
RTVSPropertyOp31
 70
     1
102
RTVSPropertyOp32
 70
     1
102
RTVSPropertyOp33
 70
     1
102
RTVSPropertyOp34
 70
     1
102
RTVSPropertyOp35
 70
     1
102
RTVSPropertyOp36
 70
     1
102
RTVSPropertyOp37
 70
     1
102
RTVSPropertyOp38
 70
     1
102
RTVSPropertyOp39
 70
     1
102
RTVSPropertyOp40
 70
     1
102
RTVSPropertyOp41
 70
     1
102
RTVSPropertyOp42
 70
     1
102
RTVSPropertyOp43
 70
     1
102
RTVSPropertyOp44
 70
     1
102
RTVSPropertyOp45
 70
     1
102
RTVSPropertyOp46
 70
     1
102
RTVSPropertyOp47
 70
     1
102
RTVSPropertyOp48
 70
     1
102
RTVSPropertyOp49
 70
     1
102
RTVSPropertyOp50
 70
     1
102
RTVSPropertyOp51
 70
     0
102
RTVSPropertyOp52
 70
     0
102
RTVSPropertyOp53
 70
     1
102
RTVSPropertyOp54
 70
     1
102
RTVSPropertyOp55
 70
     1
102
RTVSPropertyOp56
 70
     1
102
RTVSPropertyOp57
 70
     1
102
RTVSPost2010Prop28
280
     0
102
RTVSPost2010PropOp28
 70
     1
102
RTVSPost2010Prop29
280
     1
102
RTVSPost2010PropOp29
 70
     1
102
RTVSPost2010Prop30
280
     1
102
RTVSPost2010PropOp30
 70
     1
102
RTVSPost2010Prop31
280
     0
102
RTVSPost2010PropOp31
 70
     1
102
RTVSPost2010Prop32
280
     0
102
RTVSPost2010PropOp32
 70
     1
102
RTVSPost2010Prop33
280
     0
102
RTVSPost2010PropOp33
 70
     1
102
RTVSPost2010Prop34
280
     0
102
RTVSPost2010PropOp34
 70
     1
102
RTVSPost2010Prop35
280
     0
102
RTVSPost2010PropOp35
 70
     1
102
RTVSPost2010Prop36
280
     0
102
RTVSPost2010PropOp36
 70
     1
102
RTVSPost2010Prop37
 90
       50
102
RTVSPost2010PropOp37
 70
     1
102
RTVSPost2010Prop38
140
0.0
102
RTVSPost2010PropOp38
 70
     1
102
RTVSPost2010Prop39
140
1.0
102
RTVSPost2010PropOp39
 70
     1
102
RTVSPost2010Prop40
 90
        0
102
RTVSPost2010PropOp40
 70
     1
102
RTVSPost2010Prop41ColorIndex
 90
       18
102
RTVSPost2010Prop41ColorRGB
 90
        0
102
RTVSPost2010PropOp41
 70
     1
102
RTVSPost2010Prop42
 90
       50
102
RTVSPost2010PropOp42
 70
     1
102
RTVSPost2010Prop43
 90
        3
102
RTVSPost2010PropOp43
 70
     1
102
RTVSPost2010Prop44ColorIndex
 90
        5
102
RTVSPost2010Prop44ColorRGB
 90
      255
102
RTVSPost2010PropOp44
 70
     1
102
RTVSPost2010Prop45
280
     0
102
RTVSPost2010PropOp45
 70
     1
102
RTVSPost2010Prop46
 90
       50
102
RTVSPost2010PropOp46
 70
     1
102
RTVSPost2010Prop47
 90
       50
102
RTVSPost2010PropOp47
 70
     1
102
RTVSPost2010Prop48
 90
       50
102
RTVSPost2010PropOp48
 70
     1
102
RTVSPost2010Prop49
280
     0
102
RTVSPost2010PropOp49
 70
     1
102
RTVSPost2010Prop50
 90
       50
102
RTVSPost2010PropOp50
 70
     1
102
RTVSPost2010Prop51ColorIndex
 90
      256
102
RTVSPost2010Prop51ColorRGB
 90
-16777216
102
RTVSPost2010PropOp51
 70
     0
102
RTVSPost2010Prop52
140
1.0
102
RTVSPost2010PropOp52
 70
     0
102
RTVSPost2010Prop53
 90
        2
102
RTVSPost2010PropOp53
 70
     1
102
RTVSPost2010Prop54
  1
strokes_ogs.tif
102
RTVSPost2010PropOp54
 70
     1
102
RTVSPost2010Prop55
280
     0
102
RTVSPost2010PropOp55
 70
     1
102
RTVSPost2010Prop56
140
1.0
102
RTVSPost2010PropOp56
 70
     1
102
RTVSPost2010Prop57
140
1.0
102
RTVSPost2010PropOp57
 70
     1
  0
XRECORD
  5
94239
102
{ACAD_REACTORS
330
87B2E
102
}
330
87B2E
100
AcDbXrecord
280
     1
102
RTVSPropertyOp0
 70
     1
102
RTVSPropertyOp1
 70
     1
102
RTVSPropertyOp2
 70
     1
102
RTVSPropertyOp3
 70
     1
102
RTVSPropertyOp4
 70
     1
102
RTVSPropertyOp5
 70
     1
102
RTVSPropertyOp6
 70
     1
102
RTVSPropertyOp7
 70
     1
102
RTVSPropertyOp8
 70
     1
102
RTVSPropertyOp9
 70
     1
102
RTVSPropertyOp10
 70
     1
102
RTVSPropertyOp11
 70
     1
102
RTVSPropertyOp12
 70
     1
102
RTVSPropertyOp13
 70
     1
102
RTVSPropertyOp14
 70
     1
102
RTVSPropertyOp15
 70
     1
102
RTVSPropertyOp16
 70
     1
102
RTVSPropertyOp17
 70
     1
102
RTVSPropertyOp18
 70
     1
102
RTVSPropertyOp19
 70
     1
102
RTVSPropertyOp20
 70
     1
102
RTVSPropertyOp21
 70
     1
102
RTVSPropertyOp22
 70
     1
102
RTVSPropertyOp23
 70
     1
102
RTVSPropertyOp24
 70
     1
102
RTVSPropertyOp25
 70
     1
102
RTVSPropertyOp26
 70
     1
102
RTVSPropertyOp27
 70
     1
102
RTVSPropertyOp28
 70
     1
102
RTVSPropertyOp29
 70
     1
102
RTVSPropertyOp30
 70
     1
102
RTVSPropertyOp31
 70
     1
102
RTVSPropertyOp32
 70
     1
102
RTVSPropertyOp33
 70
     1
102
RTVSPropertyOp34
 70
     1
102
RTVSPropertyOp35
 70
     1
102
RTVSPropertyOp36
 70
     1
102
RTVSPropertyOp37
 70
     1
102
RTVSPropertyOp38
 70
     1
102
RTVSPropertyOp39
 70
     1
102
RTVSPropertyOp40
 70
     1
102
RTVSPropertyOp41
 70
     1
102
RTVSPropertyOp42
 70
     1
102
RTVSPropertyOp43
 70
     1
102
RTVSPropertyOp44
 70
     1
102
RTVSPropertyOp45
 70
     1
102
RTVSPropertyOp46
 70
     1
102
RTVSPropertyOp47
 70
     1
102
RTVSPropertyOp48
 70
     1
102
RTVSPropertyOp49
 70
     1
102
RTVSPropertyOp50
 70
     1
102
RTVSPropertyOp51
 70
     0
102
RTVSPropertyOp52
 70
     0
102
RTVSPropertyOp53
 70
     1
102
RTVSPropertyOp54
 70
     1
102
RTVSPropertyOp55
 70
     1
102
RTVSPropertyOp56
 70
     1
102
RTVSPropertyOp57
 70
     1
102
RTVSPost2010Prop28
280
     0
102
RTVSPost2010PropOp28
 70
     1
102
RTVSPost2010Prop29
280
     1
102
RTVSPost2010PropOp29
 70
     1
102
RTVSPost2010Prop30
280
     1
102
RTVSPost2010PropOp30
 70
     1
102
RTVSPost2010Prop31
280
     0
102
RTVSPost2010PropOp31
 70
     1
102
RTVSPost2010Prop32
280
     0
102
RTVSPost2010PropOp32
 70
     1
102
RTVSPost2010Prop33
280
     0
102
RTVSPost2010PropOp33
 70
     1
102
RTVSPost2010Prop34
280
     0
102
RTVSPost2010PropOp34
 70
     1
102
RTVSPost2010Prop35
280
     0
102
RTVSPost2010PropOp35
 70
     1
102
RTVSPost2010Prop36
280
     0
102
RTVSPost2010PropOp36
 70
     1
102
RTVSPost2010Prop37
 90
       50
102
RTVSPost2010PropOp37
 70
     1
102
RTVSPost2010Prop38
140
0.0
102
RTVSPost2010PropOp38
 70
     1
102
RTVSPost2010Prop39
140
1.0
102
RTVSPost2010PropOp39
 70
     1
102
RTVSPost2010Prop40
 90
        0
102
RTVSPost2010PropOp40
 70
     1
102
RTVSPost2010Prop41ColorIndex
 90
       18
102
RTVSPost2010Prop41ColorRGB
 90
        0
102
RTVSPost2010PropOp41
 70
     1
102
RTVSPost2010Prop42
 90
       50
102
RTVSPost2010PropOp42
 70
     1
102
RTVSPost2010Prop43
 90
        3
102
RTVSPost2010PropOp43
 70
     1
102
RTVSPost2010Prop44ColorIndex
 90
        5
102
RTVSPost2010Prop44ColorRGB
 90
      255
102
RTVSPost2010PropOp44
 70
     1
102
RTVSPost2010Prop45
280
     0
102
RTVSPost2010PropOp45
 70
     1
102
RTVSPost2010Prop46
 90
       50
102
RTVSPost2010PropOp46
 70
     1
102
RTVSPost2010Prop47
 90
       50
102
RTVSPost2010PropOp47
 70
     1
102
RTVSPost2010Prop48
 90
       50
102
RTVSPost2010PropOp48
 70
     1
102
RTVSPost2010Prop49
280
     0
102
RTVSPost2010PropOp49
 70
     1
102
RTVSPost2010Prop50
 90
       50
102
RTVSPost2010PropOp50
 70
     1
102
RTVSPost2010Prop51ColorIndex
 90
      256
102
RTVSPost2010Prop51ColorRGB
 90
-16777216
102
RTVSPost2010PropOp51
 70
     0
102
RTVSPost2010Prop52
140
1.0
102
RTVSPost2010PropOp52
 70
     0
102
RTVSPost2010Prop53
 90
        2
102
RTVSPost2010PropOp53
 70
     1
102
RTVSPost2010Prop54
  1
strokes_ogs.tif
102
RTVSPost2010PropOp54
 70
     1
102
RTVSPost2010Prop55
280
     0
102
RTVSPost2010PropOp55
 70
     1
102
RTVSPost2010Prop56
140
1.0
102
RTVSPost2010PropOp56
 70
     1
102
RTVSPost2010Prop57
140
1.0
102
RTVSPost2010PropOp57
 70
     1
  0
XRECORD
  5
9423A
102
{ACAD_REACTORS
330
87B30
102
}
330
87B30
100
AcDbXrecord
280
     1
102
RTVSPropertyOp0
 70
     1
102
RTVSPropertyOp1
 70
     1
102
RTVSPropertyOp2
 70
     1
102
RTVSPropertyOp3
 70
     1
102
RTVSPropertyOp4
 70
     1
102
RTVSPropertyOp5
 70
     1
102
RTVSPropertyOp6
 70
     1
102
RTVSPropertyOp7
 70
     1
102
RTVSPropertyOp8
 70
     1
102
RTVSPropertyOp9
 70
     1
102
RTVSPropertyOp10
 70
     1
102
RTVSPropertyOp11
 70
     1
102
RTVSPropertyOp12
 70
     1
102
RTVSPropertyOp13
 70
     1
102
RTVSPropertyOp14
 70
     1
102
RTVSPropertyOp15
 70
     1
102
RTVSPropertyOp16
 70
     1
102
RTVSPropertyOp17
 70
     1
102
RTVSPropertyOp18
 70
     1
102
RTVSPropertyOp19
 70
     1
102
RTVSPropertyOp20
 70
     1
102
RTVSPropertyOp21
 70
     1
102
RTVSPropertyOp22
 70
     1
102
RTVSPropertyOp23
 70
     1
102
RTVSPropertyOp24
 70
     1
102
RTVSPropertyOp25
 70
     1
102
RTVSPropertyOp26
 70
     1
102
RTVSPropertyOp27
 70
     1
102
RTVSPropertyOp28
 70
     1
102
RTVSPropertyOp29
 70
     1
102
RTVSPropertyOp30
 70
     1
102
RTVSPropertyOp31
 70
     1
102
RTVSPropertyOp32
 70
     1
102
RTVSPropertyOp33
 70
     1
102
RTVSPropertyOp34
 70
     1
102
RTVSPropertyOp35
 70
     1
102
RTVSPropertyOp36
 70
     1
102
RTVSPropertyOp37
 70
     1
102
RTVSPropertyOp38
 70
     1
102
RTVSPropertyOp39
 70
     1
102
RTVSPropertyOp40
 70
     1
102
RTVSPropertyOp41
 70
     1
102
RTVSPropertyOp42
 70
     1
102
RTVSPropertyOp43
 70
     1
102
RTVSPropertyOp44
 70
     1
102
RTVSPropertyOp45
 70
     1
102
RTVSPropertyOp46
 70
     1
102
RTVSPropertyOp47
 70
     1
102
RTVSPropertyOp48
 70
     1
102
RTVSPropertyOp49
 70
     1
102
RTVSPropertyOp50
 70
     1
102
RTVSPropertyOp51
 70
     0
102
RTVSPropertyOp52
 70
     0
102
RTVSPropertyOp53
 70
     1
102
RTVSPropertyOp54
 70
     1
102
RTVSPropertyOp55
 70
     1
102
RTVSPropertyOp56
 70
     1
102
RTVSPropertyOp57
 70
     1
102
RTVSPost2010Prop28
280
     0
102
RTVSPost2010PropOp28
 70
     1
102
RTVSPost2010Prop29
280
     1
102
RTVSPost2010PropOp29
 70
     1
102
RTVSPost2010Prop30
280
     1
102
RTVSPost2010PropOp30
 70
     1
102
RTVSPost2010Prop31
280
     0
102
RTVSPost2010PropOp31
 70
     1
102
RTVSPost2010Prop32
280
     0
102
RTVSPost2010PropOp32
 70
     1
102
RTVSPost2010Prop33
280
     0
102
RTVSPost2010PropOp33
 70
     1
102
RTVSPost2010Prop34
280
     0
102
RTVSPost2010PropOp34
 70
     1
102
RTVSPost2010Prop35
280
     0
102
RTVSPost2010PropOp35
 70
     1
102
RTVSPost2010Prop36
280
     0
102
RTVSPost2010PropOp36
 70
     1
102
RTVSPost2010Prop37
 90
       50
102
RTVSPost2010PropOp37
 70
     1
102
RTVSPost2010Prop38
140
0.0
102
RTVSPost2010PropOp38
 70
     1
102
RTVSPost2010Prop39
140
1.0
102
RTVSPost2010PropOp39
 70
     1
102
RTVSPost2010Prop40
 90
        0
102
RTVSPost2010PropOp40
 70
     1
102
RTVSPost2010Prop41ColorIndex
 90
       18
102
RTVSPost2010Prop41ColorRGB
 90
        0
102
RTVSPost2010PropOp41
 70
     1
102
RTVSPost2010Prop42
 90
       50
102
RTVSPost2010PropOp42
 70
     1
102
RTVSPost2010Prop43
 90
        3
102
RTVSPost2010PropOp43
 70
     1
102
RTVSPost2010Prop44ColorIndex
 90
        5
102
RTVSPost2010Prop44ColorRGB
 90
      255
102
RTVSPost2010PropOp44
 70
     1
102
RTVSPost2010Prop45
280
     0
102
RTVSPost2010PropOp45
 70
     1
102
RTVSPost2010Prop46
 90
       50
102
RTVSPost2010PropOp46
 70
     1
102
RTVSPost2010Prop47
 90
       50
102
RTVSPost2010PropOp47
 70
     1
102
RTVSPost2010Prop48
 90
       50
102
RTVSPost2010PropOp48
 70
     1
102
RTVSPost2010Prop49
280
     0
102
RTVSPost2010PropOp49
 70
     1
102
RTVSPost2010Prop50
 90
       50
102
RTVSPost2010PropOp50
 70
     1
102
RTVSPost2010Prop51ColorIndex
 90
      256
102
RTVSPost2010Prop51ColorRGB
 90
-16777216
102
RTVSPost2010PropOp51
 70
     0
102
RTVSPost2010Prop52
140
1.0
102
RTVSPost2010PropOp52
 70
     0
102
RTVSPost2010Prop53
 90
        2
102
RTVSPost2010PropOp53
 70
     1
102
RTVSPost2010Prop54
  1
strokes_ogs.tif
102
RTVSPost2010PropOp54
 70
     1
102
RTVSPost2010Prop55
280
     0
102
RTVSPost2010PropOp55
 70
     1
102
RTVSPost2010Prop56
140
1.0
102
RTVSPost2010PropOp56
 70
     1
102
RTVSPost2010Prop57
140
1.0
102
RTVSPost2010PropOp57
 70
     1
  0
XRECORD
  5
9423B
102
{ACAD_REACTORS
330
87B26
102
}
330
87B26
100
AcDbXrecord
280
     1
102
RTVSPropertyOp0
 70
     1
102
RTVSPropertyOp1
 70
     1
102
RTVSPropertyOp2
 70
     1
102
RTVSPropertyOp3
 70
     1
102
RTVSPropertyOp4
 70
     1
102
RTVSPropertyOp5
 70
     1
102
RTVSPropertyOp6
 70
     1
102
RTVSPropertyOp7
 70
     1
102
RTVSPropertyOp8
 70
     1
102
RTVSPropertyOp9
 70
     1
102
RTVSPropertyOp10
 70
     1
102
RTVSPropertyOp11
 70
     1
102
RTVSPropertyOp12
 70
     1
102
RTVSPropertyOp13
 70
     1
102
RTVSPropertyOp14
 70
     1
102
RTVSPropertyOp15
 70
     1
102
RTVSPropertyOp16
 70
     1
102
RTVSPropertyOp17
 70
     1
102
RTVSPropertyOp18
 70
     1
102
RTVSPropertyOp19
 70
     1
102
RTVSPropertyOp20
 70
     1
102
RTVSPropertyOp21
 70
     1
102
RTVSPropertyOp22
 70
     1
102
RTVSPropertyOp23
 70
     1
102
RTVSPropertyOp24
 70
     1
102
RTVSPropertyOp25
 70
     1
102
RTVSPropertyOp26
 70
     1
102
RTVSPropertyOp27
 70
     1
102
RTVSPropertyOp28
 70
     1
102
RTVSPropertyOp29
 70
     1
102
RTVSPropertyOp30
 70
     1
102
RTVSPropertyOp31
 70
     1
102
RTVSPropertyOp32
 70
     1
102
RTVSPropertyOp33
 70
     1
102
RTVSPropertyOp34
 70
     1
102
RTVSPropertyOp35
 70
     1
102
RTVSPropertyOp36
 70
     1
102
RTVSPropertyOp37
 70
     1
102
RTVSPropertyOp38
 70
     1
102
RTVSPropertyOp39
 70
     1
102
RTVSPropertyOp40
 70
     1
102
RTVSPropertyOp41
 70
     1
102
RTVSPropertyOp42
 70
     1
102
RTVSPropertyOp43
 70
     1
102
RTVSPropertyOp44
 70
     1
102
RTVSPropertyOp45
 70
     1
102
RTVSPropertyOp46
 70
     1
102
RTVSPropertyOp47
 70
     1
102
RTVSPropertyOp48
 70
     1
102
RTVSPropertyOp49
 70
     1
102
RTVSPropertyOp50
 70
     1
102
RTVSPropertyOp51
 70
     0
102
RTVSPropertyOp52
 70
     0
102
RTVSPropertyOp53
 70
     1
102
RTVSPropertyOp54
 70
     1
102
RTVSPropertyOp55
 70
     1
102
RTVSPropertyOp56
 70
     1
102
RTVSPropertyOp57
 70
     1
102
RTVSPost2010Prop28
280
     0
102
RTVSPost2010PropOp28
 70
     1
102
RTVSPost2010Prop29
280
     1
102
RTVSPost2010PropOp29
 70
     1
102
RTVSPost2010Prop30
280
     1
102
RTVSPost2010PropOp30
 70
     1
102
RTVSPost2010Prop31
280
     0
102
RTVSPost2010PropOp31
 70
     1
102
RTVSPost2010Prop32
280
     0
102
RTVSPost2010PropOp32
 70
     1
102
RTVSPost2010Prop33
280
     0
102
RTVSPost2010PropOp33
 70
     1
102
RTVSPost2010Prop34
280
     0
102
RTVSPost2010PropOp34
 70
     1
102
RTVSPost2010Prop35
280
     0
102
RTVSPost2010PropOp35
 70
     1
102
RTVSPost2010Prop36
280
     0
102
RTVSPost2010PropOp36
 70
     1
102
RTVSPost2010Prop37
 90
       50
102
RTVSPost2010PropOp37
 70
     1
102
RTVSPost2010Prop38
140
0.0
102
RTVSPost2010PropOp38
 70
     1
102
RTVSPost2010Prop39
140
1.0
102
RTVSPost2010PropOp39
 70
     1
102
RTVSPost2010Prop40
 90
        0
102
RTVSPost2010PropOp40
 70
     1
102
RTVSPost2010Prop41ColorIndex
 90
       18
102
RTVSPost2010Prop41ColorRGB
 90
        0
102
RTVSPost2010PropOp41
 70
     1
102
RTVSPost2010Prop42
 90
       50
102
RTVSPost2010PropOp42
 70
     1
102
RTVSPost2010Prop43
 90
        3
102
RTVSPost2010PropOp43
 70
     1
102
RTVSPost2010Prop44ColorIndex
 90
        5
102
RTVSPost2010Prop44ColorRGB
 90
      255
102
RTVSPost2010PropOp44
 70
     1
102
RTVSPost2010Prop45
280
     0
102
RTVSPost2010PropOp45
 70
     1
102
RTVSPost2010Prop46
 90
       50
102
RTVSPost2010PropOp46
 70
     1
102
RTVSPost2010Prop47
 90
       50
102
RTVSPost2010PropOp47
 70
     1
102
RTVSPost2010Prop48
 90
       50
102
RTVSPost2010PropOp48
 70
     1
102
RTVSPost2010Prop49
280
     0
102
RTVSPost2010PropOp49
 70
     1
102
RTVSPost2010Prop50
 90
       50
102
RTVSPost2010PropOp50
 70
     1
102
RTVSPost2010Prop51ColorIndex
 90
      256
102
RTVSPost2010Prop51ColorRGB
 90
-16777216
102
RTVSPost2010PropOp51
 70
     0
102
RTVSPost2010Prop52
140
1.0
102
RTVSPost2010PropOp52
 70
     0
102
RTVSPost2010Prop53
 90
        2
102
RTVSPost2010PropOp53
 70
     1
102
RTVSPost2010Prop54
  1
strokes_ogs.tif
102
RTVSPost2010PropOp54
 70
     1
102
RTVSPost2010Prop55
280
     0
102
RTVSPost2010PropOp55
 70
     1
102
RTVSPost2010Prop56
140
1.0
102
RTVSPost2010PropOp56
 70
     1
102
RTVSPost2010Prop57
140
1.0
102
RTVSPost2010PropOp57
 70
     1
  0
XRECORD
  5
9423C
102
{ACAD_REACTORS
330
87B1A
102
}
330
87B1A
100
AcDbXrecord
280
     1
102
RTVSPropertyOp0
 70
     1
102
RTVSPropertyOp1
 70
     1
102
RTVSPropertyOp2
 70
     1
102
RTVSPropertyOp3
 70
     1
102
RTVSPropertyOp4
 70
     1
102
RTVSPropertyOp5
 70
     1
102
RTVSPropertyOp6
 70
     1
102
RTVSPropertyOp7
 70
     1
102
RTVSPropertyOp8
 70
     1
102
RTVSPropertyOp9
 70
     1
102
RTVSPropertyOp10
 70
     1
102
RTVSPropertyOp11
 70
     1
102
RTVSPropertyOp12
 70
     1
102
RTVSPropertyOp13
 70
     1
102
RTVSPropertyOp14
 70
     1
102
RTVSPropertyOp15
 70
     1
102
RTVSPropertyOp16
 70
     1
102
RTVSPropertyOp17
 70
     1
102
RTVSPropertyOp18
 70
     1
102
RTVSPropertyOp19
 70
     1
102
RTVSPropertyOp20
 70
     1
102
RTVSPropertyOp21
 70
     1
102
RTVSPropertyOp22
 70
     1
102
RTVSPropertyOp23
 70
     1
102
RTVSPropertyOp24
 70
     1
102
RTVSPropertyOp25
 70
     1
102
RTVSPropertyOp26
 70
     1
102
RTVSPropertyOp27
 70
     1
102
RTVSPropertyOp28
 70
     1
102
RTVSPropertyOp29
 70
     1
102
RTVSPropertyOp30
 70
     1
102
RTVSPropertyOp31
 70
     1
102
RTVSPropertyOp32
 70
     1
102
RTVSPropertyOp33
 70
     1
102
RTVSPropertyOp34
 70
     1
102
RTVSPropertyOp35
 70
     1
102
RTVSPropertyOp36
 70
     1
102
RTVSPropertyOp37
 70
     1
102
RTVSPropertyOp38
 70
     1
102
RTVSPropertyOp39
 70
     1
102
RTVSPropertyOp40
 70
     1
102
RTVSPropertyOp41
 70
     1
102
RTVSPropertyOp42
 70
     1
102
RTVSPropertyOp43
 70
     1
102
RTVSPropertyOp44
 70
     1
102
RTVSPropertyOp45
 70
     1
102
RTVSPropertyOp46
 70
     1
102
RTVSPropertyOp47
 70
     1
102
RTVSPropertyOp48
 70
     1
102
RTVSPropertyOp49
 70
     1
102
RTVSPropertyOp50
 70
     1
102
RTVSPropertyOp51
 70
     0
102
RTVSPropertyOp52
 70
     0
102
RTVSPropertyOp53
 70
     1
102
RTVSPropertyOp54
 70
     1
102
RTVSPropertyOp55
 70
     1
102
RTVSPropertyOp56
 70
     1
102
RTVSPropertyOp57
 70
     1
102
RTVSPost2010Prop28
280
     0
102
RTVSPost2010PropOp28
 70
     1
102
RTVSPost2010Prop29
280
     1
102
RTVSPost2010PropOp29
 70
     1
102
RTVSPost2010Prop30
280
     1
102
RTVSPost2010PropOp30
 70
     1
102
RTVSPost2010Prop31
280
     0
102
RTVSPost2010PropOp31
 70
     1
102
RTVSPost2010Prop32
280
     0
102
RTVSPost2010PropOp32
 70
     1
102
RTVSPost2010Prop33
280
     0
102
RTVSPost2010PropOp33
 70
     1
102
RTVSPost2010Prop34
280
     0
102
RTVSPost2010PropOp34
 70
     1
102
RTVSPost2010Prop35
280
     0
102
RTVSPost2010PropOp35
 70
     1
102
RTVSPost2010Prop36
280
     0
102
RTVSPost2010PropOp36
 70
     1
102
RTVSPost2010Prop37
 90
       50
102
RTVSPost2010PropOp37
 70
     1
102
RTVSPost2010Prop38
140
0.0
102
RTVSPost2010PropOp38
 70
     1
102
RTVSPost2010Prop39
140
1.0
102
RTVSPost2010PropOp39
 70
     1
102
RTVSPost2010Prop40
 90
        0
102
RTVSPost2010PropOp40
 70
     1
102
RTVSPost2010Prop41ColorIndex
 90
       18
102
RTVSPost2010Prop41ColorRGB
 90
        0
102
RTVSPost2010PropOp41
 70
     1
102
RTVSPost2010Prop42
 90
       50
102
RTVSPost2010PropOp42
 70
     1
102
RTVSPost2010Prop43
 90
        3
102
RTVSPost2010PropOp43
 70
     1
102
RTVSPost2010Prop44ColorIndex
 90
        5
102
RTVSPost2010Prop44ColorRGB
 90
      255
102
RTVSPost2010PropOp44
 70
     1
102
RTVSPost2010Prop45
280
     0
102
RTVSPost2010PropOp45
 70
     1
102
RTVSPost2010Prop46
 90
       50
102
RTVSPost2010PropOp46
 70
     1
102
RTVSPost2010Prop47
 90
       50
102
RTVSPost2010PropOp47
 70
     1
102
RTVSPost2010Prop48
 90
       50
102
RTVSPost2010PropOp48
 70
     1
102
RTVSPost2010Prop49
280
     0
102
RTVSPost2010PropOp49
 70
     1
102
RTVSPost2010Prop50
 90
       50
102
RTVSPost2010PropOp50
 70
     1
102
RTVSPost2010Prop51ColorIndex
 90
      256
102
RTVSPost2010Prop51ColorRGB
 90
-16777216
102
RTVSPost2010PropOp51
 70
     0
102
RTVSPost2010Prop52
140
1.0
102
RTVSPost2010PropOp52
 70
     0
102
RTVSPost2010Prop53
 90
        2
102
RTVSPost2010PropOp53
 70
     1
102
RTVSPost2010Prop54
  1
strokes_ogs.tif
102
RTVSPost2010PropOp54
 70
     1
102
RTVSPost2010Prop55
280
     0
102
RTVSPost2010PropOp55
 70
     1
102
RTVSPost2010Prop56
140
1.0
102
RTVSPost2010PropOp56
 70
     1
102
RTVSPost2010Prop57
140
1.0
102
RTVSPost2010PropOp57
 70
     1
  0
XRECORD
  5
9423D
102
{ACAD_REACTORS
330
87B32
102
}
330
87B32
100
AcDbXrecord
280
     1
102
RTVSPropertyOp0
 70
     1
102
RTVSPropertyOp1
 70
     1
102
RTVSPropertyOp2
 70
     1
102
RTVSPropertyOp3
 70
     1
102
RTVSPropertyOp4
 70
     1
102
RTVSPropertyOp5
 70
     1
102
RTVSPropertyOp6
 70
     1
102
RTVSPropertyOp7
 70
     1
102
RTVSPropertyOp8
 70
     1
102
RTVSPropertyOp9
 70
     1
102
RTVSPropertyOp10
 70
     1
102
RTVSPropertyOp11
 70
     1
102
RTVSPropertyOp12
 70
     1
102
RTVSPropertyOp13
 70
     1
102
RTVSPropertyOp14
 70
     1
102
RTVSPropertyOp15
 70
     1
102
RTVSPropertyOp16
 70
     1
102
RTVSPropertyOp17
 70
     1
102
RTVSPropertyOp18
 70
     1
102
RTVSPropertyOp19
 70
     1
102
RTVSPropertyOp20
 70
     1
102
RTVSPropertyOp21
 70
     1
102
RTVSPropertyOp22
 70
     1
102
RTVSPropertyOp23
 70
     1
102
RTVSPropertyOp24
 70
     1
102
RTVSPropertyOp25
 70
     1
102
RTVSPropertyOp26
 70
     1
102
RTVSPropertyOp27
 70
     1
102
RTVSPropertyOp28
 70
     1
102
RTVSPropertyOp29
 70
     1
102
RTVSPropertyOp30
 70
     1
102
RTVSPropertyOp31
 70
     1
102
RTVSPropertyOp32
 70
     1
102
RTVSPropertyOp33
 70
     1
102
RTVSPropertyOp34
 70
     1
102
RTVSPropertyOp35
 70
     1
102
RTVSPropertyOp36
 70
     1
102
RTVSPropertyOp37
 70
     1
102
RTVSPropertyOp38
 70
     1
102
RTVSPropertyOp39
 70
     1
102
RTVSPropertyOp40
 70
     1
102
RTVSPropertyOp41
 70
     1
102
RTVSPropertyOp42
 70
     1
102
RTVSPropertyOp43
 70
     1
102
RTVSPropertyOp44
 70
     1
102
RTVSPropertyOp45
 70
     1
102
RTVSPropertyOp46
 70
     1
102
RTVSPropertyOp47
 70
     1
102
RTVSPropertyOp48
 70
     1
102
RTVSPropertyOp49
 70
     1
102
RTVSPropertyOp50
 70
     1
102
RTVSPropertyOp51
 70
     0
102
RTVSPropertyOp52
 70
     0
102
RTVSPropertyOp53
 70
     1
102
RTVSPropertyOp54
 70
     1
102
RTVSPropertyOp55
 70
     1
102
RTVSPropertyOp56
 70
     1
102
RTVSPropertyOp57
 70
     1
102
RTVSPost2010Prop28
280
     0
102
RTVSPost2010PropOp28
 70
     1
102
RTVSPost2010Prop29
280
     1
102
RTVSPost2010PropOp29
 70
     1
102
RTVSPost2010Prop30
280
     1
102
RTVSPost2010PropOp30
 70
     1
102
RTVSPost2010Prop31
280
     0
102
RTVSPost2010PropOp31
 70
     1
102
RTVSPost2010Prop32
280
     0
102
RTVSPost2010PropOp32
 70
     1
102
RTVSPost2010Prop33
280
     0
102
RTVSPost2010PropOp33
 70
     1
102
RTVSPost2010Prop34
280
     0
102
RTVSPost2010PropOp34
 70
     1
102
RTVSPost2010Prop35
280
     0
102
RTVSPost2010PropOp35
 70
     1
102
RTVSPost2010Prop36
280
     0
102
RTVSPost2010PropOp36
 70
     1
102
RTVSPost2010Prop37
 90
       50
102
RTVSPost2010PropOp37
 70
     1
102
RTVSPost2010Prop38
140
0.0
102
RTVSPost2010PropOp38
 70
     1
102
RTVSPost2010Prop39
140
1.0
102
RTVSPost2010PropOp39
 70
     1
102
RTVSPost2010Prop40
 90
        0
102
RTVSPost2010PropOp40
 70
     1
102
RTVSPost2010Prop41ColorIndex
 90
       18
102
RTVSPost2010Prop41ColorRGB
 90
        0
102
RTVSPost2010PropOp41
 70
     1
102
RTVSPost2010Prop42
 90
       50
102
RTVSPost2010PropOp42
 70
     1
102
RTVSPost2010Prop43
 90
        3
102
RTVSPost2010PropOp43
 70
     1
102
RTVSPost2010Prop44ColorIndex
 90
        5
102
RTVSPost2010Prop44ColorRGB
 90
      255
102
RTVSPost2010PropOp44
 70
     1
102
RTVSPost2010Prop45
280
     0
102
RTVSPost2010PropOp45
 70
     1
102
RTVSPost2010Prop46
 90
       50
102
RTVSPost2010PropOp46
 70
     1
102
RTVSPost2010Prop47
 90
       50
102
RTVSPost2010PropOp47
 70
     1
102
RTVSPost2010Prop48
 90
       50
102
RTVSPost2010PropOp48
 70
     1
102
RTVSPost2010Prop49
280
     0
102
RTVSPost2010PropOp49
 70
     1
102
RTVSPost2010Prop50
 90
       50
102
RTVSPost2010PropOp50
 70
     1
102
RTVSPost2010Prop51ColorIndex
 90
      256
102
RTVSPost2010Prop51ColorRGB
 90
-16777216
102
RTVSPost2010PropOp51
 70
     0
102
RTVSPost2010Prop52
140
1.0
102
RTVSPost2010PropOp52
 70
     0
102
RTVSPost2010Prop53
 90
        2
102
RTVSPost2010PropOp53
 70
     1
102
RTVSPost2010Prop54
  1
strokes_ogs.tif
102
RTVSPost2010PropOp54
 70
     1
102
RTVSPost2010Prop55
280
     0
102
RTVSPost2010PropOp55
 70
     1
102
RTVSPost2010Prop56
140
1.0
102
RTVSPost2010PropOp56
 70
     1
102
RTVSPost2010Prop57
140
1.0
102
RTVSPost2010PropOp57
 70
     1
  0
ENDSEC
  0
EOF
