  0
SECTION
  2
HEADER
  9
$ACADVER
  1
AC1015
  9
$ACADMAINTVER
 70
    20
  9
$DWGCODEPAGE
  3
ANSI_932
  9
$INSBASE
 10
0.0
 20
0.0
 30
0.0
  9
$EXTMIN
 10
-26.70827197655644
 20
-81.58404088002523
 30
0.0
  9
$EXTMAX
 10
119.4333333333333
 20
113.2895884739311
 30
0.0
  9
$LIMMIN
 10
0.0
 20
0.0
  9
$LIMMAX
 10
420.0
 20
297.0
  9
$ORTHOMODE
 70
     0
  9
$REGENMODE
 70
     1
  9
$FILLMODE
 70
     1
  9
$QTEXTMODE
 70
     0
  9
$MIRRTEXT
 70
     1
  9
$LTSCALE
 40
1.0
  9
$ATTMODE
 70
     1
  9
$TEXTSIZE
 40
3.5
  9
$TRACEWID
 40
1.0
  9
$TEXTSTYLE
  7
simplex
  9
$CLAYER
  8
0
  9
$CELTYPE
  6
ByLayer
  9
$CECOLOR
 62
   256
  9
$CELTSCALE
 40
1.0
  9
$DISPSILH
 70
     0
  9
$DIMSCALE
 40
0.0
  9
$DIMASZ
 40
3.5
  9
$DIMEXO
 40
0.0
  9
$DIMDLI
 40
0.38
  9
$DIMRND
 40
0.0
  9
$DIMDLE
 40
0.0
  9
$DIMEXE
 40
1.5
  9
$DIMTP
 40
0.0
  9
$DIMTM
 40
0.0
  9
$DIMTXT
 40
3.5
  9
$DIMCEN
 40
0.09
  9
$DIMTSZ
 40
0.0
  9
$DIMTOL
 70
     0
  9
$DIMLIM
 70
     0
  9
$DIMTIH
 70
     0
  9
$DIMTOH
 70
     0
  9
$DIMSE1
 70
     0
  9
$DIMSE2
 70
     0
  9
$DIMTAD
 70
     1
  9
$DIMZIN
 70
     8
  9
$DIMBLK
  1

  9
$DIMASO
 70
     1
  9
$DIMSHO
 70
     1
  9
$DIMPOST
  1

  9
$DIMAPOST
  1

  9
$DIMALT
 70
     0
  9
$DIMALTD
 70
     2
  9
$DIMALTF
 40
25.4
  9
$DIMLFAC
 40
1.0
  9
$DIMTOFL
 70
     0
  9
$DIMTVP
 40
0.0
  9
$DIMTIX
 70
     0
  9
$DIMSOXD
 70
     0
  9
$DIMSAH
 70
     0
  9
$DIMBLK1
  1

  9
$DIMBLK2
  1

  9
$DIMSTYLE
  2
コピー - ISO-25
  9
$DIMCLRD
 70
   256
  9
$DIMCLRE
 70
   256
  9
$DIMCLRT
 70
   256
  9
$DIMTFAC
 40
1.0
  9
$DIMGAP
 40
2.299999999999998
  9
$DIMJUST
 70
     0
  9
$DIMSD1
 70
     0
  9
$DIMSD2
 70
     0
  9
$DIMTOLJ
 70
     1
  9
$DIMTZIN
 70
     8
  9
$DIMALTZ
 70
     0
  9
$DIMALTTZ
 70
     0
  9
$DIMUPT
 70
     0
  9
$DIMDEC
 70
     2
  9
$DIMTDEC
 70
     2
  9
$DIMALTU
 70
     2
  9
$DIMALTTD
 70
     2
  9
$DIMTXSTY
  7
simplex
  9
$DIMAUNIT
 70
     0
  9
$DIMADEC
 70
     0
  9
$DIMALTRND
 40
0.0
  9
$DIMAZIN
 70
     0
  9
$DIMDSEP
 70
    46
  9
$DIMATFIT
 70
     3
  9
$DIMFRAC
 70
     0
  9
$DIMLDRBLK
  1

  9
$DIMLUNIT
 70
     2
  9
$DIMLWD
 70
    -1
  9
$DIMLWE
 70
    -1
  9
$DIMTMOVE
 70
     0
  9
$LUNITS
 70
     2
  9
$LUPREC
 70
     4
  9
$SKETCHINC
 40
1.0
  9
$FILLETRAD
 40
0.8
  9
$AUNITS
 70
     0
  9
$AUPREC
 70
     0
  9
$MENU
  1
.
  9
$ELEVATION
 40
0.0
  9
$PELEVATION
 40
0.0
  9
$THICKNESS
 40
0.0
  9
$LIMCHECK
 70
     0
  9
$CHAMFERA
 40
10.0
  9
$CHAMFERB
 40
10.0
  9
$CHAMFERC
 40
20.0
  9
$CHAMFERD
 40
0.0
  9
$SKPOLY
 70
     0
  9
$TDCREATE
 40
2455489.391063368
  9
$TDUCREATE
 40
2455489.057730035
  9
$TDUPDATE
 40
2458948.453469699
  9
$TDUUPDATE
 40
2458948.120136366
  9
$TDINDWG
 40
2.589359375
  9
$TDUSRTIMER
 40
2.589306817
  9
$USRTIMER
 70
     1
  9
$ANGBASE
 50
0.0
  9
$ANGDIR
 70
     0
  9
$PDMODE
 70
     0
  9
$PDSIZE
 40
0.0
  9
$PLINEWID
 40
0.0
  9
$SPLFRAME
 70
     0
  9
$SPLINETYPE
 70
     6
  9
$SPLINESEGS
 70
     8
  9
$HANDSEED
  5
93C57
  9
$SURFTAB1
 70
     6
  9
$SURFTAB2
 70
     6
  9
$SURFTYPE
 70
     6
  9
$SURFU
 70
     6
  9
$SURFV
 70
     6
  9
$UCSBASE
  2

  9
$UCSNAME
  2

  9
$UCSORG
 10
0.0
 20
0.0
 30
0.0
  9
$UCSXDIR
 10
1.0
 20
0.0
 30
0.0
  9
$UCSYDIR
 10
0.0
 20
1.0
 30
0.0
  9
$UCSORTHOREF
  2

  9
$UCSORTHOVIEW
 70
     0
  9
$UCSORGTOP
 10
0.0
 20
0.0
 30
0.0
  9
$UCSORGBOTTOM
 10
0.0
 20
0.0
 30
0.0
  9
$UCSORGLEFT
 10
0.0
 20
0.0
 30
0.0
  9
$UCSORGRIGHT
 10
0.0
 20
0.0
 30
0.0
  9
$UCSORGFRONT
 10
0.0
 20
0.0
 30
0.0
  9
$UCSORGBACK
 10
0.0
 20
0.0
 30
0.0
  9
$PUCSBASE
  2

  9
$PUCSNAME
  2

  9
$PUCSORG
 10
0.0
 20
0.0
 30
0.0
  9
$PUCSXDIR
 10
1.0
 20
0.0
 30
0.0
  9
$PUCSYDIR
 10
0.0
 20
1.0
 30
0.0
  9
$PUCSORTHOREF
  2

  9
$PUCSORTHOVIEW
 70
     0
  9
$PUCSORGTOP
 10
0.0
 20
0.0
 30
0.0
  9
$PUCSORGBOTTOM
 10
0.0
 20
0.0
 30
0.0
  9
$PUCSORGLEFT
 10
0.0
 20
0.0
 30
0.0
  9
$PUCSORGRIGHT
 10
0.0
 20
0.0
 30
0.0
  9
$PUCSORGFRONT
 10
0.0
 20
0.0
 30
0.0
  9
$PUCSORGBACK
 10
0.0
 20
0.0
 30
0.0
  9
$USERI1
 70
     0
  9
$USERI2
 70
     0
  9
$USERI3
 70
     0
  9
$USERI4
 70
     0
  9
$USERI5
 70
     0
  9
$USERR1
 40
0.0
  9
$USERR2
 40
0.0
  9
$USERR3
 40
0.0
  9
$USERR4
 40
0.0
  9
$USERR5
 40
0.0
  9
$WORLDVIEW
 70
     1
  9
$SHADEDGE
 70
     3
  9
$SHADEDIF
 70
    70
  9
$TILEMODE
 70
     1
  9
$MAXACTVP
 70
    64
  9
$PINSBASE
 10
0.0
 20
0.0
 30
0.0
  9
$PLIMCHECK
 70
     0
  9
$PEXTMIN
 10
26.66999878883364
 20
20.31999878883365
 30
0.0
  9
$PEXTMAX
 10
240.0299890995025
 20
182.8799890995025
 30
0.0
  9
$PLIMMIN
 10
-6.350006103515625
 20
-6.349999904632567
  9
$PLIMMAX
 10
273.0499877929688
 20
209.5499939918518
  9
$UNITMODE
 70
     0
  9
$VISRETAIN
 70
     1
  9
$PLINEGEN
 70
     0
  9
$PSLTSCALE
 70
     1
  9
$TREEDEPTH
 70
  3020
  9
$CMLSTYLE
  2
Standard
  9
$CMLJUST
 70
     0
  9
$CMLSCALE
 40
20.0
  9
$PROXYGRAPHICS
 70
     1
  9
$MEASUREMENT
 70
     1
  9
$CELWEIGHT
370
    -1
  9
$ENDCAPS
280
     0
  9
$JOINSTYLE
280
     0
  9
$LWDISPLAY
290
     0
  9
$INSUNITS
 70
     4
  9
$HYPERLINKBASE
  1

  9
$STYLESHEET
  1

  9
$XEDIT
290
     1
  9
$CEPSNTYPE
380
     0
  9
$PSTYLEMODE
290
     1
  9
$FINGERPRINTGUID
  2
{8DAAC581-8961-4C2D-B48B-0FC682B8737C}
  9
$VERSIONGUID
  2
{736FFD72-4B43-471B-9179-E17F84DFA34F}
  9
$EXTNAMES
290
     1
  9
$PSVPSCALE
 40
0.0
  9
$OLESTARTUP
290
     0
  0
ENDSEC
  0
SECTION
  2
CLASSES
  0
CLASS
  1
ACDBDICTIONARYWDFLT
  2
AcDbDictionaryWithDefault
  3
ObjectDBX Classes
 90
        0
280
     0
281
     0
  0
CLASS
  1
ACDBPLACEHOLDER
  2
AcDbPlaceHolder
  3
ObjectDBX Classes
 90
    32768
280
     0
281
     0
  0
CLASS
  1
LAYOUT
  2
AcDbLayout
  3
ObjectDBX Classes
 90
    32768
280
     0
281
     0
  0
CLASS
  1
DICTIONARYVAR
  2
AcDbDictionaryVar
  3
ObjectDBX Classes
 90
        0
280
     0
281
     0
  0
CLASS
  1
TABLESTYLE
  2
AcDbTableStyle
  3
ObjectDBX Classes
 90
     4095
280
     0
281
     0
  0
CLASS
  1
SORTENTSTABLE
  2
AcDbSortentsTable
  3
ObjectDBX Classes
 90
        0
280
     0
281
     0
  0
CLASS
  1
DIMASSOC
  2
AcDbDimAssoc
  3
"AcDbDimAssoc|Product Desc:     AcDim ARX App For Dimension|Company:          Autodesk, Inc.|WEB Address:      www.autodesk.com"
 90
        0
280
     0
281
     0
  0
CLASS
  1
ACAD_EVALUATION_GRAPH
  2
AcDbEvalGraph
  3
ObjectDBX Classes
 90
    33921
280
     0
281
     0
  0
CLASS
  1
ACAECUSTOBJ
  2
AcAeEditorObj
  3
AcAeEditorObj
 90
    33792
280
     0
281
     0
  0
CLASS
  1
ACDB_DYNAMICBLOCKPURGEPREVENTER_VERSION
  2
AcDbDynamicBlockPurgePreventer
  3
ObjectDBX Classes
 90
    33921
280
     0
281
     0
  0
CLASS
  1
MATERIAL
  2
AcDbMaterial
  3
ObjectDBX Classes
 90
     1153
280
     0
281
     0
  0
CLASS
  1
VISUALSTYLE
  2
AcDbVisualStyle
  3
ObjectDBX Classes
 90
     4095
280
     0
281
     0
  0
CLASS
  1
SCALE
  2
AcDbScale
  3
ObjectDBX Classes
 90
     1153
280
     0
281
     0
  0
CLASS
  1
MLEADERSTYLE
  2
AcDbMLeaderStyle
  3
ACDB_MLEADERSTYLE_CLASS
 90
     4095
280
     0
281
     0
  0
CLASS
  1
ACDBSECTIONVIEWSTYLE
  2
AcDbSectionViewStyle
  3
ObjectDBX Classes
 90
     1025
280
     0
281
     0
  0
CLASS
  1
ACDBDETAILVIEWSTYLE
  2
AcDbDetailViewStyle
  3
ObjectDBX Classes
 90
     1025
280
     0
281
     0
  0
CLASS
  1
CELLSTYLEMAP
  2
AcDbCellStyleMap
  3
ObjectDBX Classes
 90
     1152
280
     0
281
     0
  0
CLASS
  1
ACDBPLACEHOLDER
  2
AcDbPlaceHolder
  3
ObjectDBX Classes
 90
    32768
280
     0
281
     0
  0
CLASS
  1
LAYOUT
  2
AcDbLayout
  3
ObjectDBX Classes
 90
    32768
280
     0
281
     0
  0
CLASS
  1
ACDBPLACEHOLDER
  2
AcDbPlaceHolder
  3
ObjectDBX Classes
 90
    32768
280
     0
281
     0
  0
CLASS
  1
LAYOUT
  2
AcDbLayout
  3
ObjectDBX Classes
 90
    32768
280
     0
281
     0
  0
CLASS
  1
ACDBPLACEHOLDER
  2
AcDbPlaceHolder
  3
ObjectDBX Classes
 90
    32768
280
     0
281
     0
  0
CLASS
  1
LAYOUT
  2
AcDbLayout
  3
ObjectDBX Classes
 90
    32768
280
     0
281
     0
  0
CLASS
  1
ACDBPLACEHOLDER
  2
AcDbPlaceHolder
  3
ObjectDBX Classes
 90
    32768
280
     0
281
     0
  0
CLASS
  1
LAYOUT
  2
AcDbLayout
  3
ObjectDBX Classes
 90
    32768
280
     0
281
     0
  0
CLASS
  1
ACDBPLACEHOLDER
  2
AcDbPlaceHolder
  3
ObjectDBX Classes
 90
        0
280
     0
281
     0
  0
CLASS
  1
LAYOUT
  2
AcDbLayout
  3
ObjectDBX Classes
 90
        0
280
     0
281
     0
  0
ENDSEC
  0
SECTION
  2
TABLES
  0
TABLE
  2
VPORT
  5
8
102
{ACAD_XDICTIONARY
360
8C34E
102
}
330
0
100
AcDbSymbolTable
 70
     1
  0
VPORT
  5
4A360
330
8
100
AcDbSymbolTableRecord
100
AcDbViewportTableRecord
  2
*Active
 70
     0
 10
0.0
 20
0.0
 11
1.0
 21
1.0
 12
15.68266964907444
 22
18.404529202488
 13
0.0
 23
0.0
 14
10.0
 24
10.0
 15
10.0
 25
10.0
 16
0.0
 26
0.0
 36
1.0
 17
0.0
 27
0.0
 37
0.0
 40
209.741965769489
 41
1.705156950672645
 42
50.0
 43
0.0
 44
0.0
 50
0.0
 51
0.0
 71
     0
 72
  1000
 73
     1
 74
     1
 75
     0
 76
     0
 77
     0
 78
     0
281
     0
 65
     1
110
0.0
120
0.0
130
0.0
111
1.0
121
0.0
131
0.0
112
0.0
122
1.0
132
0.0
 79
     0
146
0.0
1001
ACAD_NAV_VCDISPLAY
1070
     3
  0
ENDTAB
  0
TABLE
  2
LTYPE
  5
5
330
0
100
AcDbSymbolTable
 70
     3
  0
LTYPE
  5
14
330
5
100
AcDbSymbolTableRecord
100
AcDbLinetypeTableRecord
  2
ByBlock
 70
     0
  3

 72
    65
 73
     0
 40
0.0
  0
LTYPE
  5
15
330
5
100
AcDbSymbolTableRecord
100
AcDbLinetypeTableRecord
  2
ByLayer
 70
     0
  3

 72
    65
 73
     0
 40
0.0
  0
LTYPE
  5
16
330
5
100
AcDbSymbolTableRecord
100
AcDbLinetypeTableRecord
  2
Continuous
 70
     0
  3
Solid line
 72
    65
 73
     0
 40
0.0
  0
LTYPE
  5
4A76E
330
5
100
AcDbSymbolTableRecord
100
AcDbLinetypeTableRecord
  2
CENTER2
 70
     0
  3
Center (.5x) ___ _ ___ _ ___ _ ___ _ ___ _ ___
 72
    65
 73
     4
 40
28.575
 49
19.05
 74
     0
 49
-3.174999999999998
 74
     0
 49
3.174999999999998
 74
     0
 49
-3.174999999999998
 74
     0
  0
LTYPE
  5
87B53
330
5
100
AcDbSymbolTableRecord
100
AcDbLinetypeTableRecord
  2
HIDDEN
 70
     0
  3
Hidden __ __ __ __ __ __ __ __ __ __ __ __ __ _
 72
    65
 73
     2
 40
9.524999999999996
 49
6.349999999999997
 74
     0
 49
-3.174999999999998
 74
     0
  0
ENDTAB
  0
TABLE
  2
LAYER
  5
2
102
{ACAD_XDICTIONARY
360
E2
102
}
330
0
100
AcDbSymbolTable
 70
    10
  0
LAYER
  5
10
102
{ACAD_XDICTIONARY
360
4A86C
102
}
330
2
100
AcDbSymbolTableRecord
100
AcDbLayerTableRecord
  2
0
 70
     0
 62
     7
  6
Continuous
370
    -3
390
F
  0
LAYER
  5
31B6
330
2
100
AcDbSymbolTableRecord
100
AcDbLayerTableRecord
  2
Defpoints
 70
     0
 62
     7
  6
Continuous
290
     0
370
    -3
390
F
  0
LAYER
  5
4A772
102
{ACAD_XDICTIONARY
360
4A773
102
}
330
2
100
AcDbSymbolTableRecord
100
AcDbLayerTableRecord
  2
1
 70
     0
 62
     4
  6
Continuous
370
    50
390
F
1001
AcAecLayerStandard
1000

1000
Contour
  0
LAYER
  5
4A774
102
{ACAD_XDICTIONARY
360
4A775
102
}
330
2
100
AcDbSymbolTableRecord
100
AcDbLayerTableRecord
  2
2
 70
     0
 62
     7
  6
Continuous
370
    25
390
F
1001
AcAecLayerStandard
1000

1000
Dimension milling
  0
LAYER
  5
4A776
102
{ACAD_XDICTIONARY
360
4A777
102
}
330
2
100
AcDbSymbolTableRecord
100
AcDbLayerTableRecord
  2
4
 70
     0
 62
     2
  6
CENTER2
370
    25
390
F
1001
AcAecLayerStandard
1000

1000
Center line
  0
LAYER
  5
4A778
102
{ACAD_XDICTIONARY
360
4A779
102
}
330
2
100
AcDbSymbolTableRecord
100
AcDbLayerTableRecord
  2
cut
 70
     0
 62
     1
  6
Continuous
370
    25
390
F
1001
AcAecLayerStandard
1000

1000
contour
  0
LAYER
  5
4A77A
102
{ACAD_XDICTIONARY
360
4A77B
102
}
330
2
100
AcDbSymbolTableRecord
100
AcDbLayerTableRecord
  2
nocut
 70
     0
 62
     7
  6
Continuous
370
    25
390
F
1001
AcAecLayerStandard
1000

1000
contour
  0
LAYER
  5
4A77E
102
{ACAD_XDICTIONARY
360
4A77F
102
}
330
2
100
AcDbSymbolTableRecord
100
AcDbLayerTableRecord
  2
sk2
 70
     0
 62
     7
  6
Continuous
370
    25
390
F
1001
AcAecLayerStandard
1000

1000
sk2 dimension
  0
LAYER
  5
4A782
102
{ACAD_XDICTIONARY
360
4A783
102
}
330
2
100
AcDbSymbolTableRecord
100
AcDbLayerTableRecord
  2
sk6
 70
     0
 62
     5
  6
Continuous
370
    35
390
F
1001
AcAecLayerStandard
1000

1000
sk6 text
  0
LAYER
  5
87B52
102
{ACAD_XDICTIONARY
360
8C34C
102
}
330
2
100
AcDbSymbolTableRecord
100
AcDbLayerTableRecord
  2
sk3
 70
     0
 62
     1
  6
HIDDEN
370
    35
390
F
1001
AcAecLayerStandard
1000

1000

  0
ENDTAB
  0
TABLE
  2
STYLE
  5
3
330
0
100
AcDbSymbolTable
 70
     2
  0
STYLE
  5
11
330
3
100
AcDbSymbolTableRecord
100
AcDbTextStyleTableRecord
  2
Standard
 70
     0
 40
0.0
 41
1.0
 50
0.0
 71
     0
 42
2.5
  3
txt.shx
  4
@extfont2.shx
  0
STYLE
  5
24A
330
3
100
AcDbSymbolTableRecord
100
AcDbTextStyleTableRecord
  2
simplex
 70
     0
 40
3.5
 41
1.0
 50
0.0
 71
     0
 42
3.5
  3
txt.shx
  4

  0
ENDTAB
  0
TABLE
  2
VIEW
  5
6
330
0
100
AcDbSymbolTable
 70
     0
  0
ENDTAB
  0
TABLE
  2
UCS
  5
7
330
0
100
AcDbSymbolTable
 70
     0
  0
ENDTAB
  0
TABLE
  2
APPID
  5
9
330
0
100
AcDbSymbolTable
 70
    31
  0
APPID
  5
12
330
9
100
AcDbSymbolTableRecord
100
AcDbRegAppTableRecord
  2
ACAD
 70
     0
  0
APPID
  5
D2
330
9
100
AcDbSymbolTableRecord
100
AcDbRegAppTableRecord
  2
AcAecLayerStandard
 70
     0
  0
APPID
  5
E6
330
9
100
AcDbSymbolTableRecord
100
AcDbRegAppTableRecord
  2
ACAD_DSTYLE_DIMTEXT_FILL
 70
     0
  0
APPID
  5
4C84
330
9
100
AcDbSymbolTableRecord
100
AcDbRegAppTableRecord
  2
ACAD_EXEMPT_FROM_CAD_STANDARDS
 70
     0
  0
APPID
  5
3493E
330
9
100
AcDbSymbolTableRecord
100
AcDbRegAppTableRecord
  2
DCO15
 70
     0
  0
APPID
  5
3BAB0
330
9
100
AcDbSymbolTableRecord
100
AcDbRegAppTableRecord
  2
ACAD_DSTYLE_DIMEXT_ENABLED
 70
     0
  0
APPID
  5
3BAB1
330
9
100
AcDbSymbolTableRecord
100
AcDbRegAppTableRecord
  2
ACAD_DSTYLE_DIMEXT_LENGTH
 70
     0
  0
APPID
  5
3BEB4
330
9
100
AcDbSymbolTableRecord
100
AcDbRegAppTableRecord
  2
ACAUTHENVIRON
 70
     0
  0
APPID
  5
3BEB7
330
9
100
AcDbSymbolTableRecord
100
AcDbRegAppTableRecord
  2
AcDbDynamicBlockTrueName
 70
     0
  0
APPID
  5
3BEB8
330
9
100
AcDbSymbolTableRecord
100
AcDbRegAppTableRecord
  2
AcDbDynamicBlockGUID
 70
     0
  0
APPID
  5
3BEBA
330
9
100
AcDbSymbolTableRecord
100
AcDbRegAppTableRecord
  2
AcDbBlockRepETag
 70
     0
  0
APPID
  5
4A453
330
9
100
AcDbSymbolTableRecord
100
AcDbRegAppTableRecord
  2
ACAD_PSEXT
 70
     0
  0
APPID
  5
4A454
330
9
100
AcDbSymbolTableRecord
100
AcDbRegAppTableRecord
  2
AcadAnnotative
 70
     0
  0
APPID
  5
4A455
330
9
100
AcDbSymbolTableRecord
100
AcDbRegAppTableRecord
  2
ACAD_DSTYLE_DIMJAG
 70
     0
  0
APPID
  5
4A456
330
9
100
AcDbSymbolTableRecord
100
AcDbRegAppTableRecord
  2
ACAD_DSTYLE_DIMTALN
 70
     0
  0
APPID
  5
4A457
330
9
100
AcDbSymbolTableRecord
100
AcDbRegAppTableRecord
  2
ACAD_NAV_VCDISPLAY
 70
     0
  0
APPID
  5
4A787
330
9
100
AcDbSymbolTableRecord
100
AcDbRegAppTableRecord
  2
ACAD_DSTYLE_DIMINSPECT
 70
     0
  0
APPID
  5
4A788
330
9
100
AcDbSymbolTableRecord
100
AcDbRegAppTableRecord
  2
GENIUS_GENDTOL_13
 70
     0
  0
APPID
  5
4A789
330
9
100
AcDbSymbolTableRecord
100
AcDbRegAppTableRecord
  2
ZWMCAD_GENSTANDARDFRAME_13_
 70
     0
  0
APPID
  5
4A78A
330
9
100
AcDbSymbolTableRecord
100
AcDbRegAppTableRecord
  2
ZW_RECESS_XDATA
 70
     0
  0
APPID
  5
4A78B
330
9
100
AcDbSymbolTableRecord
100
AcDbRegAppTableRecord
  2
ZW_FAC_XDATA
 70
     0
  0
APPID
  5
4A78C
330
9
100
AcDbSymbolTableRecord
100
AcDbRegAppTableRecord
  2
ZW_FLC_XDATA
 70
     0
  0
APPID
  5
4A78D
330
9
100
AcDbSymbolTableRecord
100
AcDbRegAppTableRecord
  2
ZW_SUPERPART
 70
     0
  0
APPID
  5
4A78E
330
9
100
AcDbSymbolTableRecord
100
AcDbRegAppTableRecord
  2
ZW_SUPERSYMBOL
 70
     0
  0
APPID
  5
4A78F
330
9
100
AcDbSymbolTableRecord
100
AcDbRegAppTableRecord
  2
ZW_SUPERSHAFT
 70
     0
  0
APPID
  5
4A790
330
9
100
AcDbSymbolTableRecord
100
AcDbRegAppTableRecord
  2
ZWMCAD_GENFRAME_13_
 70
     0
  0
APPID
  5
4A791
330
9
100
AcDbSymbolTableRecord
100
AcDbRegAppTableRecord
  2
ACAD_MLEADERVER
 70
     0
  0
APPID
  5
4A792
330
9
100
AcDbSymbolTableRecord
100
AcDbRegAppTableRecord
  2
ACAD_DSTYLE_DIMRADIAL_EXTENSION
 70
     0
  0
APPID
  5
885F1
330
9
100
AcDbSymbolTableRecord
100
AcDbRegAppTableRecord
  2
ZWMCAD_GENSCA_13_
 70
     0
  0
APPID
  5
885EF
330
9
100
AcDbSymbolTableRecord
100
AcDbRegAppTableRecord
  2
ACAD_DSTYLE_DIMRADIAL_EXTE
 70
     0
  0
APPID
  5
885EE
330
9
100
AcDbSymbolTableRecord
100
AcDbRegAppTableRecord
  2
ZWMCAD_GENSTANDARDFRAME_13
 70
     0
  0
ENDTAB
  0
TABLE
  2
DIMSTYLE
  5
A
330
0
100
AcDbSymbolTable
 70
     2
100
AcDbDimStyleTable
 71
    21
340
1BF
340
3527
340
90771
340
907A6
340
907AC
340
907B1
340
907B7
340
919EE
340
919F4
340
919F9
340
919FF
340
91A04
340
91A0A
340
91A0F
340
91A15
340
91A1A
340
91A20
340
91A25
340
91A2B
340
91A30
340
91A36
  0
DIMSTYLE
105
1BF
102
{ACAD_REACTORS
330
93820
330
938CD
330
9382A
330
93826
330
93829
330
93823
330
93BBB
102
}
330
A
100
AcDbSymbolTableRecord
100
AcDbDimStyleTableRecord
  2
コピー - ISO-25
 70
     0
 40
0.0
 41
3.5
 42
0.0
 44
1.5
 73
     0
 74
     0
 77
     1
 78
     8
140
3.5
147
2.299999999999998
176
   256
177
   256
271
     2
178
   256
271
     2
272
     2
284
     8
340
24A
371
    -1
372
    -1
  0
DIMSTYLE
105
3527
330
A
100
AcDbSymbolTableRecord
100
AcDbDimStyleTableRecord
  2
STANDARD
 70
     0
 41
3.0
 47
0.001
 48
0.001
 71
     1
 73
     0
 74
     0
 77
     1
 78
     8
140
4.0
271
     3
272
     3
284
     8
340
11
341
34B1
342
34B1
343
34B1
344
34B1
  0
ENDTAB
  0
TABLE
  2
BLOCK_RECORD
  5
1
330
0
100
AcDbSymbolTable
 70
    11
  0
BLOCK_RECORD
  5
1F
102
{ACAD_XDICTIONARY
360
31EE
102
}
330
1
100
AcDbSymbolTableRecord
100
AcDbBlockTableRecord
  2
*Model_Space
340
22
  0
BLOCK_RECORD
  5
55
330
1
100
AcDbSymbolTableRecord
100
AcDbBlockTableRecord
  2
*Paper_Space
340
56
  0
BLOCK_RECORD
  5
50
330
1
100
AcDbSymbolTableRecord
100
AcDbBlockTableRecord
  2
*Paper_Space000000
340
51
  0
BLOCK_RECORD
  5
34B1
330
1
100
AcDbSymbolTableRecord
100
AcDbBlockTableRecord
  2
_OPEN
340
0
  0
BLOCK_RECORD
  5
4A6D6
102
{ACAD_XDICTIONARY
360
4A6D7
102
}
330
1
100
AcDbSymbolTableRecord
100
AcDbBlockTableRecord
  2
zero block
340
0
102
{BLKREFS
331
8BFE6
331
4A793
331
880DD
331
882D3
331
87B7F
331
87D7D
331
90190
331
903FC
331
90821
331
90A84
331
90E49
331
910AD
331
91473
331
916B3
331
91AA1
331
91CE2
331
93114
331
934B4
331
936F3
331
8BD57
331
92098
331
922DA
331
9267F
331
928BF
331
92B61
331
92ED7
331
8FB3B
331
8FDCA
102
}
1001
AcDbDynamicBlockGUID
1000
{A89DF4EB-B2CB-439E-AC69-1EAC9F242D1C}
1001
AcDbBlockRepETag
1070
     1
1071
        7
1001
ACAD
1000
DesignCenter Data
1002
{
1070
     1
1070
     4
1002
}
  0
BLOCK_RECORD
  5
87D73
330
1
100
AcDbSymbolTableRecord
100
AcDbBlockTableRecord
  2
_None
340
0
102
{BLKREFS
331
8C250
331
8C292
331
8C2BE
331
8C2FE
331
8C332
331
87FA2
331
87FBD
331
87FC5
331
88042
331
88238
331
884B1
331
884F0
331
88512
331
885AA
331
87D72
331
87F63
331
9002A
331
9006F
331
900CE
331
90117
331
903C3
331
9062B
331
90673
331
906DD
331
90724
331
909A6
331
90CA0
331
90CEB
331
90D5B
331
90DBF
331
90FCE
331
912CA
331
91315
331
9135A
331
913E9
331
915B9
331
91895
331
918E5
331
91966
331
91989
331
91BE7
331
91EC5
331
91F15
331
91F6B
331
93052
331
93323
331
93367
331
933C4
331
9343C
331
9362F
331
93904
331
93948
331
9397A
331
939E2
331
93A5A
331
93AA2
331
8BC93
331
8BCED
331
8BF27
331
91FFC
331
921DE
331
924BE
331
9250E
331
9258F
331
925B2
331
9289C
331
92AD1
331
92B15
331
92D7E
331
92E18
331
92E5F
331
8FA29
331
8FA4D
331
8FAA7
331
8FD00
331
8A12B
331
8DEC1
102
}
  0
BLOCK_RECORD
  5
938D0
330
1
100
AcDbSymbolTableRecord
100
AcDbBlockTableRecord
  2
*D15644
340
0
  0
BLOCK_RECORD
  5
938DC
330
1
100
AcDbSymbolTableRecord
100
AcDbBlockTableRecord
  2
*D15755
340
0
  0
BLOCK_RECORD
  5
938E8
330
1
100
AcDbSymbolTableRecord
100
AcDbBlockTableRecord
  2
*D15866
340
0
  0
BLOCK_RECORD
  5
938F4
330
1
100
AcDbSymbolTableRecord
100
AcDbBlockTableRecord
  2
*D15977
340
0
  0
BLOCK_RECORD
  5
93900
330
1
100
AcDbSymbolTableRecord
100
AcDbBlockTableRecord
  2
*D16088
340
0
  0
BLOCK_RECORD
  5
93915
330
1
100
AcDbSymbolTableRecord
100
AcDbBlockTableRecord
  2
*D162109
340
0
  0
BLOCK_RECORD
  5
93BBC
330
1
100
AcDbSymbolTableRecord
100
AcDbBlockTableRecord
  2
*D1310
340
0
  0
ENDTAB
  0
ENDSEC
  0
SECTION
  2
BLOCKS
  0
BLOCK
  5
20
330
1F
100
AcDbEntity
  8
0
100
AcDbBlockBegin
  2
*Model_Space
 70
     0
 10
0.0
 20
0.0
 30
0.0
  3
*Model_Space
  1

  0
ENDBLK
  5
21
330
1F
100
AcDbEntity
  8
0
100
AcDbBlockEnd
  0
BLOCK
  5
57
330
55
100
AcDbEntity
 67
     1
  8
0
100
AcDbBlockBegin
  2
*Paper_Space
 70
     0
 10
0.0
 20
0.0
 30
0.0
  3
*Paper_Space
  1

  0
ENDBLK
  5
58
330
55
100
AcDbEntity
 67
     1
  8
0
100
AcDbBlockEnd
  0
BLOCK
  5
52
330
50
100
AcDbEntity
  8
0
100
AcDbBlockBegin
  2
*Paper_Space000000
 70
     0
 10
0.0
 20
0.0
 30
0.0
  3
*Paper_Space000000
  1

  0
VIEWPORT
  5
6B
102
{ACAD_XDICTIONARY
360
87B05
102
}
330
50
100
AcDbEntity
  8
0
100
AcDbViewport
 10
264.3775031494645
 20
160.4455827878762
 30
0.0
 40
567.6219612953822
 41
282.2272140146125
 68
     1
 69
    -1
 12
264.3775031494645
 22
160.4455827878762
 13
0.0
 23
0.0
 14
10.0
 24
10.0
 15
10.0
 25
10.0
 16
0.0
 26
0.0
 36
1.0
 17
0.0
 27
0.0
 37
0.0
 42
50.0
 43
0.0
 44
0.0
 45
282.2272140146125
 50
0.0
 51
0.0
 72
  1000
 90
    32864
  1

281
     0
 71
     1
 74
     0
110
0.0
120
0.0
130
0.0
111
1.0
121
0.0
131
0.0
112
0.0
122
1.0
132
0.0
 79
     0
146
0.0
1001
ACAD
1000
MVIEW
1002
{
1070
    16
1010
0.0
1020
0.0
1030
0.0
1010
0.0
1020
0.0
1030
1.0
1040
0.0
1040
282.2272140146125
1040
264.3775031494645
1040
160.4455827878762
1040
50.0
1040
0.0
1040
0.0
1070
     0
1070
  1000
1070
     0
1070
     3
1070
     0
1070
     0
1070
     0
1070
     0
1040
0.0
1040
0.0
1040
0.0
1040
10.0
1040
10.0
1040
10.0
1040
10.0
1070
     0
1002
{
1002
}
1002
}
  0
VIEWPORT
  5
6D
102
{ACAD_XDICTIONARY
360
87B07
102
}
330
50
100
AcDbEntity
  8
0
100
AcDbViewport
 10
133.3499939441681
 20
101.5999939441681
 30
0.0
 40
213.3599903106689
 41
162.5599903106689
 68
     2
 69
    -1
 12
210.0
 22
148.5
 13
0.0
 23
0.0
 14
10.0
 24
10.0
 15
10.0
 25
10.0
 16
0.0
 26
0.0
 36
1.0
 17
0.0
 27
0.0
 37
0.0
 42
50.0
 43
0.0
 44
0.0
 45
324.0677920111345
 50
0.0
 51
0.0
 72
   100
 90
    32864
  1

281
     0
 71
     1
 74
     0
110
0.0
120
0.0
130
0.0
111
1.0
121
0.0
131
0.0
112
0.0
122
1.0
132
0.0
 79
     0
146
0.0
1001
ACAD
1000
MVIEW
1002
{
1070
    16
1010
0.0
1020
0.0
1030
0.0
1010
0.0
1020
0.0
1030
1.0
1040
0.0
1040
324.0677920111345
1040
210.0
1040
148.5
1040
50.0
1040
0.0
1040
0.0
1070
     0
1070
   100
1070
     0
1070
     3
1070
     0
1070
     0
1070
     0
1070
     0
1040
0.0
1040
0.0
1040
0.0
1040
10.0
1040
10.0
1040
10.0
1040
10.0
1070
     0
1002
{
1002
}
1002
}
  0
ENDBLK
  5
53
330
50
100
AcDbEntity
  8
0
100
AcDbBlockEnd
  0
BLOCK
  5
34B2
330
34B1
100
AcDbEntity
  8
0
100
AcDbBlockBegin
  2
_OPEN
 70
     0
 10
0.0
 20
0.0
 30
0.0
  3
_OPEN
  1

  0
LINE
  5
34B3
330
34B1
100
AcDbEntity
  8
0
  6
ByBlock
 62
     0
100
AcDbLine
 10
0.0
 20
0.0
 30
0.0
 11
-1.0
 21
0.1766666667
 31
0.0
  0
LINE
  5
34B4
330
34B1
100
AcDbEntity
  8
0
  6
ByBlock
 62
     0
100
AcDbLine
 10
-1.0
 20
-0.1766666667
 30
0.0
 11
0.0
 21
0.0
 31
0.0
  0
LINE
  5
34B5
330
34B1
100
AcDbEntity
  8
0
  6
ByBlock
 62
     0
100
AcDbLine
 10
-1.0
 20
0.0
 30
0.0
 11
0.0
 21
0.0
 31
0.0
  0
ENDBLK
  5
34B6
330
34B1
100
AcDbEntity
  8
0
  6
ByBlock
 62
     0
100
AcDbBlockEnd
  0
BLOCK
  5
4A6D9
330
4A6D6
100
AcDbEntity
  8
0
100
AcDbBlockBegin
  2
zero block
 70
     0
 10
0.0
 20
0.0
 30
0.0
  3
zero block
  1

  0
HATCH
  5
4A6DA
330
4A6D6
100
AcDbEntity
  8
0
 62
     7
100
AcDbHatch
 10
0.0
 20
0.0
 30
0.0
210
0.0
220
0.0
230
1.0
  2
SOLID
 70
     1
 71
     0
 91
        2
 92
        7
 72
     1
 73
     1
 93
        3
 10
0.0
 20
0.9999999999999875
 42
0.4142135623730915
 10
-1.0
 20
0.0
 42
0.0
 10
0.0
 20
0.0
 42
0.0
 97
        0
 92
        7
 72
     1
 73
     1
 93
        3
 10
1.000000000000007
 20
0.0
 42
0.0
 10
0.0
 20
0.0
 42
0.0
 10
0.0
 20
-1.0
 42
0.4142135623730974
 97
        0
 75
     0
 76
     1
 47
0.0090601366782909
 98
        2
 10
-0.380591363650975
 20
0.4885804701532896
 10
0.4350764810977559
 20
-0.4536738423704725
1001
AcDbBlockRepETag
1070
     1
1071
        0
1005
4A6DA
  0
LINE
  5
4A6DB
330
4A6D6
100
AcDbEntity
  8
0
 62
     7
 48
0.2
100
AcDbLine
 10
-1.0
 20
0.0
 30
0.0
 11
1.000000000000007
 21
0.0
 31
0.0
1001
AcDbBlockRepETag
1070
     1
1071
        1
1005
4A6DB
  0
LINE
  5
4A6DC
330
4A6D6
100
AcDbEntity
  8
0
 62
     7
 48
0.2
100
AcDbLine
 10
0.0
 20
-1.0
 30
0.0
 11
0.0
 21
0.9999999999999875
 31
0.0
1001
AcDbBlockRepETag
1070
     1
1071
        2
1005
4A6DC
  0
ARC
  5
4A6DD
330
4A6D6
100
AcDbEntity
  8
0
 62
     7
 48
0.2
100
AcDbCircle
 10
0.0
 20
0.0
 30
0.0
 40
1.0
100
AcDbArc
 50
270.0
 51
0.0
1001
AcDbBlockRepETag
1070
     1
1071
        3
1005
4A6DD
  0
ARC
  5
4A6DE
330
4A6D6
100
AcDbEntity
  8
0
 62
     7
 48
0.2
100
AcDbCircle
 10
0.0
 20
0.0
 30
0.0
 40
1.0
100
AcDbArc
 50
0.0
 51
90.0
1001
AcDbBlockRepETag
1070
     1
1071
        4
1005
4A6DE
  0
ARC
  5
4A6DF
330
4A6D6
100
AcDbEntity
  8
0
 62
     7
 48
0.2
100
AcDbCircle
 10
0.0
 20
0.0
 30
0.0
 40
1.0
100
AcDbArc
 50
180.0
 51
270.0
1001
AcDbBlockRepETag
1070
     1
1071
        5
1005
4A6DF
  0
ARC
  5
4A6E0
330
4A6D6
100
AcDbEntity
  8
0
 62
     7
 48
0.2
100
AcDbCircle
 10
0.0
 20
0.0
 30
0.0
 40
1.0
100
AcDbArc
 50
90.0
 51
180.0
1001
AcDbBlockRepETag
1070
     1
1071
        6
1005
4A6E0
  0
ENDBLK
  5
4A6E1
330
4A6D6
100
AcDbEntity
  8
0
100
AcDbBlockEnd
  0
BLOCK
  5
87D74
330
87D73
100
AcDbEntity
  8
0
100
AcDbBlockBegin
  2
_None
 70
     0
 10
0.0
 20
0.0
 30
0.0
  3
_None
  1

  0
ENDBLK
  5
87D75
330
87D73
100
AcDbEntity
  8
0
100
AcDbBlockEnd
  0
BLOCK
  5
938DA
330
938D0
100
AcDbEntity
  8
0
100
AcDbBlockBegin
  2
*D15644
 70
     1
 10
0.0
 20
0.0
 30
0.0
  3
*D15644
  1

  0
LINE
  5
93C22
330
938D0
100
AcDbEntity
  8
2
100
AcDbLine
 10
0.0
 20
46.41899999889999
 30
0.0
 11
0.0
 21
91.75954955284298
 31
0.0
  0
LINE
  5
93C23
330
938D0
100
AcDbEntity
  8
2
100
AcDbLine
 10
63.5
 20
62.6999999989
 30
0.0
 11
63.5
 21
91.75954955284298
 31
0.0
  0
LINE
  5
93C24
330
938D0
100
AcDbEntity
  8
2
100
AcDbLine
 10
3.5
 20
90.25954955284298
 30
0.0
 11
60.0
 21
90.25954955284298
 31
0.0
  0
SOLID
  5
93C25
330
938D0
100
AcDbEntity
  8
2
100
AcDbTrace
 10
3.5
 20
90.84288288617631
 30
0.0
 11
3.5
 21
89.67621621950966
 31
0.0
 12
0.0
 22
90.25954955284298
 32
0.0
 13
0.0
 23
90.25954955284298
 33
0.0
  0
SOLID
  5
93C26
330
938D0
100
AcDbEntity
  8
2
100
AcDbTrace
 10
60.0
 20
89.67621621950966
 30
0.0
 11
60.0
 21
90.84288288617631
 31
0.0
 12
63.5
 22
90.25954955284298
 32
0.0
 13
63.5
 23
90.25954955284298
 33
0.0
  0
MTEXT
  5
93C27
330
938D0
100
AcDbEntity
  8
2
100
AcDbMText
 10
31.75
 20
94.30954955284297
 30
0.0
 40
3.5
 41
0.0
 71
     5
 72
     1
  1
\A1;63.5 [2.500"]
  7
simplex
 73
     1
 44
1.0
1001
ACAD
1000
MTEXTBEGIN
1070
    73
1070
     1
1070
    44
1040
1.0
1070
    74
1070
     0
1000
MTEXTEND
  0
POINT
  5
93C28
330
938D0
100
AcDbEntity
  8
Defpoints
 62
     0
100
AcDbPoint
 10
0.0
 20
46.41899999889999
 30
0.0
  0
POINT
  5
93C29
330
938D0
100
AcDbEntity
  8
Defpoints
 62
     0
100
AcDbPoint
 10
63.5
 20
62.6999999989
 30
0.0
  0
POINT
  5
93C2A
330
938D0
100
AcDbEntity
  8
Defpoints
 62
     0
100
AcDbPoint
 10
63.5
 20
90.25954955284298
 30
0.0
  0
ENDBLK
  5
938DB
330
938D0
100
AcDbEntity
  8
0
100
AcDbBlockEnd
  0
BLOCK
  5
938E6
330
938DC
100
AcDbEntity
  8
0
100
AcDbBlockBegin
  2
*D15755
 70
     1
 10
0.0
 20
0.0
 30
0.0
  3
*D15755
  1

  0
LINE
  5
93A3C
330
938DC
100
AcDbEntity
  8
sk2
100
AcDbLine
 10
0.0
 20
-46.41896180840001
 30
0.0
 11
0.0
 21
-81.58404088002523
 31
0.0
  0
LINE
  5
93A3D
330
938DC
100
AcDbEntity
  8
sk2
100
AcDbLine
 10
41.99999999999996
 20
-26.99996180620002
 30
0.0
 11
41.99999999999996
 21
-81.58404088002523
 31
0.0
  0
LINE
  5
93A3E
330
938DC
100
AcDbEntity
  8
sk2
100
AcDbLine
 10
3.5
 20
-80.08404088002523
 30
0.0
 11
38.49999999999996
 21
-80.08404088002523
 31
0.0
  0
SOLID
  5
93A3F
330
938DC
100
AcDbEntity
  8
sk2
100
AcDbTrace
 10
3.5
 20
-79.5007075466919
 30
0.0
 11
3.5
 21
-80.66737421335856
 31
0.0
 12
0.0
 22
-80.08404088002523
 32
0.0
 13
0.0
 23
-80.08404088002523
 33
0.0
  0
SOLID
  5
93A40
330
938DC
100
AcDbEntity
  8
sk2
100
AcDbTrace
 10
38.49999999999996
 20
-80.66737421335856
 30
0.0
 11
38.49999999999996
 21
-79.5007075466919
 31
0.0
 12
41.99999999999996
 22
-80.08404088002523
 32
0.0
 13
41.99999999999996
 23
-80.08404088002523
 33
0.0
  0
MTEXT
  5
93A41
330
938DC
100
AcDbEntity
  8
sk2
100
AcDbMText
 10
20.99999999999999
 20
-76.03404088002523
 30
0.0
 40
3.5
 41
0.0
 71
     5
 72
     1
  1
\A1;42 [1.654"]
  7
simplex
 73
     1
 44
1.0
1001
ACAD
1000
MTEXTBEGIN
1070
    73
1070
     1
1070
    44
1040
1.0
1070
    74
1070
     0
1000
MTEXTEND
  0
POINT
  5
93A42
330
938DC
100
AcDbEntity
  8
Defpoints
 62
     0
100
AcDbPoint
 10
0.0
 20
-46.41896180840001
 30
0.0
  0
POINT
  5
93A43
330
938DC
100
AcDbEntity
  8
Defpoints
 62
     0
100
AcDbPoint
 10
41.99999999999996
 20
-26.99996180620002
 30
0.0
  0
POINT
  5
93A44
330
938DC
100
AcDbEntity
  8
Defpoints
 62
     0
100
AcDbPoint
 10
41.99999999999996
 20
-80.08404088002523
 30
0.0
  0
ENDBLK
  5
938E7
330
938DC
100
AcDbEntity
  8
0
100
AcDbBlockEnd
  0
BLOCK
  5
938F2
330
938E8
100
AcDbEntity
  8
0
100
AcDbBlockBegin
  2
*D15866
 70
     1
 10
0.0
 20
0.0
 30
0.0
  3
*D15866
  1

  0
LINE
  5
93A45
330
938E8
100
AcDbEntity
  8
sk2
100
AcDbLine
 10
7.999999999999971
 20
19.05003819160002
 30
0.0
 11
-11.6095496897193
 21
19.05003819160002
 31
0.0
  0
LINE
  5
93A46
330
938E8
100
AcDbEntity
  8
sk2
100
AcDbLine
 10
7.999999999999971
 20
-19.0499618062
 30
0.0
 11
-11.6095496897193
 21
-19.0499618062
 31
0.0
  0
LINE
  5
93A47
330
938E8
100
AcDbEntity
  8
sk2
100
AcDbLine
 10
-10.1095496897193
 20
15.55003819160002
 30
0.0
 11
-10.1095496897193
 21
-15.5499618062
 31
0.0
  0
SOLID
  5
93A48
330
938E8
100
AcDbEntity
  8
sk2
100
AcDbTrace
 10
-9.526216356385962
 20
15.55003819160002
 30
0.0
 11
-10.69288302305263
 21
15.55003819160002
 31
0.0
 12
-10.1095496897193
 22
19.05003819160002
 32
0.0
 13
-10.1095496897193
 23
19.05003819160002
 33
0.0
  0
SOLID
  5
93A49
330
938E8
100
AcDbEntity
  8
sk2
100
AcDbTrace
 10
-10.69288302305263
 20
-15.5499618062
 30
0.0
 11
-9.526216356385962
 21
-15.5499618062
 31
0.0
 12
-10.1095496897193
 22
-19.0499618062
 32
0.0
 13
-10.1095496897193
 23
-19.0499618062
 33
0.0
  0
MTEXT
  5
93A4A
330
938E8
100
AcDbEntity
  8
sk2
100
AcDbMText
 10
-14.1595496897193
 20
0.8613675503907812
 30
0.0
 40
3.5
 41
0.0
 71
     5
 72
     1
  1
\A1;%%C38.1 [%%c1.500"]
  7
simplex
 11
0.0
 21
1.0
 31
0.0
 73
     1
 44
1.0
1001
ACAD
1000
MTEXTBEGIN
1070
    73
1070
     1
1070
    44
1040
1.0
1070
    74
1070
     0
1000
MTEXTEND
  0
POINT
  5
93A4B
330
938E8
100
AcDbEntity
  8
Defpoints
 62
     0
100
AcDbPoint
 10
7.999999999999971
 20
19.05003819160002
 30
0.0
  0
POINT
  5
93A4C
330
938E8
100
AcDbEntity
  8
Defpoints
 62
     0
100
AcDbPoint
 10
7.999999999999971
 20
-19.0499618062
 30
0.0
  0
POINT
  5
93A4D
330
938E8
100
AcDbEntity
  8
Defpoints
 62
     0
100
AcDbPoint
 10
-10.1095496897193
 20
-19.0499618062
 30
0.0
  0
ENDBLK
  5
938F3
330
938E8
100
AcDbEntity
  8
0
100
AcDbBlockEnd
  0
BLOCK
  5
938FE
330
938F4
100
AcDbEntity
  8
0
100
AcDbBlockBegin
  2
*D15977
 70
     1
 10
0.0
 20
0.0
 30
0.0
  3
*D15977
  1

  0
LINE
  5
93A4E
330
938F4
100
AcDbEntity
  8
sk2
100
AcDbLine
 10
2.0
 20
48.41903819159998
 30
0.0
 11
-22.40827197655644
 21
48.41903819159998
 31
0.0
  0
LINE
  5
93A4F
330
938F4
100
AcDbEntity
  8
sk2
100
AcDbLine
 10
2.0
 20
-48.41896180840001
 30
0.0
 11
-22.40827197655645
 21
-48.41896180840001
 31
0.0
  0
LINE
  5
93A50
330
938F4
100
AcDbEntity
  8
sk2
100
AcDbLine
 10
-20.90827197655644
 20
44.9190381916
 30
0.0
 11
-20.90827197655645
 21
-44.91896180840001
 31
0.0
  0
SOLID
  5
93A51
330
938F4
100
AcDbEntity
  8
sk2
100
AcDbTrace
 10
-20.32493864322311
 20
44.9190381916
 30
0.0
 11
-21.49160530988977
 21
44.9190381916
 31
0.0
 12
-20.90827197655644
 22
48.41903819159998
 32
0.0
 13
-20.90827197655644
 23
48.41903819159998
 33
0.0
  0
SOLID
  5
93A52
330
938F4
100
AcDbEntity
  8
sk2
100
AcDbTrace
 10
-21.49160530988978
 20
-44.91896180840001
 30
0.0
 11
-20.32493864322312
 21
-44.91896180840001
 31
0.0
 12
-20.90827197655645
 22
-48.41896180840001
 32
0.0
 13
-20.90827197655645
 23
-48.41896180840001
 33
0.0
  0
MTEXT
  5
93A53
330
938F4
100
AcDbEntity
  8
sk2
100
AcDbMText
 10
-24.95827197655644
 20
0.0000381915999913
 30
0.0
 40
3.5
 41
0.0
 71
     5
 72
     1
  1
\A1;%%C96.838 [%%c3.813"]
  7
simplex
 11
0.0000000000000001
 21
1.0
 31
0.0
 73
     1
 44
1.0
1001
ACAD
1000
MTEXTBEGIN
1070
    73
1070
     1
1070
    44
1040
1.0
1070
    74
1070
     0
1000
MTEXTEND
  0
POINT
  5
93A54
330
938F4
100
AcDbEntity
  8
Defpoints
 62
     0
100
AcDbPoint
 10
2.0
 20
48.41903819159998
 30
0.0
  0
POINT
  5
93A55
330
938F4
100
AcDbEntity
  8
Defpoints
 62
     0
100
AcDbPoint
 10
2.0
 20
-48.41896180840001
 30
0.0
  0
POINT
  5
93A56
330
938F4
100
AcDbEntity
  8
Defpoints
 62
     0
100
AcDbPoint
 10
-20.90827197655645
 20
-48.41896180840001
 30
0.0
  0
ENDBLK
  5
938FF
330
938F4
100
AcDbEntity
  8
0
100
AcDbBlockEnd
  0
BLOCK
  5
93909
330
93900
100
AcDbEntity
  8
0
100
AcDbBlockBegin
  2
*D16088
 70
     1
 10
0.0
 20
0.0
 30
0.0
  3
*D16088
  1

  0
LINE
  5
93A9F
330
93900
100
AcDbEntity
  8
2
100
AcDbLine
 10
62.70000000000002
 20
63.4999999989
 30
0.0
 11
91.66787328498443
 21
63.4999999989
 31
0.0
  0
LINE
  5
93AA0
330
93900
100
AcDbEntity
  8
2
100
AcDbLine
 10
90.16787328498443
 20
59.9999999989
 30
0.0
 11
90.16787328498443
 21
-63.49999999890002
 31
0.0
  0
SOLID
  5
93AA1
330
93900
100
AcDbEntity
  8
2
100
AcDbTrace
 10
90.75120661831775
 20
59.9999999989
 30
0.0
 11
89.58453995165111
 21
59.9999999989
 31
0.0
 12
90.16787328498443
 22
63.4999999989
 32
0.0
 13
90.16787328498443
 23
63.4999999989
 33
0.0
  0
INSERT
  5
93AA2
330
93900
100
AcDbEntity
  8
2
100
AcDbBlockReference
  2
_None
 10
90.16787328498443
 20
-63.49999999890002
 30
0.0
 41
3.5
 42
3.5
 43
3.5
 50
270.0
  0
MTEXT
  5
93AA3
330
93900
100
AcDbEntity
  8
2
100
AcDbMText
 10
86.11787328498444
 20
-1.75000000000001
 30
0.0
 40
3.5
 41
0.0
 71
     5
 72
     1
  1
\A1;%%C127 [%%c5.000"]
  7
simplex
 11
0.0
 21
1.0
 31
0.0
 73
     1
 44
1.0
1001
ACAD
1000
MTEXTBEGIN
1070
    73
1070
     1
1070
    44
1040
1.0
1070
    74
1070
     0
1000
MTEXTEND
  0
POINT
  5
93AA4
330
93900
100
AcDbEntity
  8
Defpoints
 62
     0
100
AcDbPoint
 10
62.70000000000002
 20
63.4999999989
 30
0.0
  0
POINT
  5
93AA5
330
93900
100
AcDbEntity
  8
Defpoints
 62
     0
100
AcDbPoint
 10
62.70000000000002
 20
-63.49999999890002
 30
0.0
  0
POINT
  5
93AA6
330
93900
100
AcDbEntity
  8
Defpoints
 62
     0
100
AcDbPoint
 10
90.16787328498443
 20
-63.49999999890002
 30
0.0
  0
ENDBLK
  5
9390A
330
93900
100
AcDbEntity
  8
0
100
AcDbBlockEnd
  0
BLOCK
  5
9391F
330
93915
100
AcDbEntity
  8
0
100
AcDbBlockBegin
  2
*D162109
 70
     1
 10
0.0
 20
0.0
 30
0.0
  3
*D162109
  1

  0
LINE
  5
93C18
330
93915
100
AcDbEntity
  8
2
100
AcDbLine
 10
55.30000000000001
 20
63.49999999890002
 30
0.0
 11
55.30000000000001
 21
83.66556481856957
 31
0.0
  0
LINE
  5
93C19
330
93915
100
AcDbEntity
  8
2
100
AcDbLine
 10
63.50000000000003
 20
62.69999999890605
 30
0.0
 11
63.50000000000003
 21
83.66556481856957
 31
0.0
  0
LINE
  5
93C1A
330
93915
100
AcDbEntity
  8
2
100
AcDbLine
 10
67.00000000000002
 20
82.16556481856956
 30
0.0
 11
119.4333333333333
 21
82.16556481856956
 31
0.0
  0
LINE
  5
93C1B
330
93915
100
AcDbEntity
  8
2
100
AcDbLine
 10
51.80000000000001
 20
82.16556481856956
 30
0.0
 11
48.30000000000001
 21
82.16556481856956
 31
0.0
  0
SOLID
  5
93C1C
330
93915
100
AcDbEntity
  8
2
100
AcDbTrace
 10
51.80000000000001
 20
81.58223148523623
 30
0.0
 11
51.80000000000001
 21
82.7488981519029
 31
0.0
 12
55.30000000000001
 22
82.16556481856956
 32
0.0
 13
55.30000000000001
 23
82.16556481856956
 33
0.0
  0
SOLID
  5
93C1D
330
93915
100
AcDbEntity
  8
2
100
AcDbTrace
 10
67.00000000000002
 20
82.7488981519029
 30
0.0
 11
67.00000000000002
 21
81.58223148523623
 31
0.0
 12
63.50000000000003
 22
82.16556481856956
 32
0.0
 13
63.50000000000003
 23
82.16556481856956
 33
0.0
  0
MTEXT
  5
93C1E
330
93915
100
AcDbEntity
  8
2
100
AcDbMText
 10
94.96666666666669
 20
86.21556481856956
 30
0.0
 40
3.5
 41
0.0
 71
     5
 72
     1
  1
\A1;8.2 [.323"](MAX)
  7
simplex
 73
     1
 44
1.0
1001
ACAD
1000
MTEXTBEGIN
1070
    73
1070
     1
1070
    44
1040
1.0
1070
    74
1070
     0
1000
MTEXTEND
  0
POINT
  5
93C1F
330
93915
100
AcDbEntity
  8
Defpoints
 62
     0
100
AcDbPoint
 10
55.30000000000001
 20
63.49999999890002
 30
0.0
  0
POINT
  5
93C20
330
93915
100
AcDbEntity
  8
Defpoints
 62
     0
100
AcDbPoint
 10
63.50000000000003
 20
62.69999999890605
 30
0.0
  0
POINT
  5
93C21
330
93915
100
AcDbEntity
  8
Defpoints
 62
     0
100
AcDbPoint
 10
63.50000000000003
 20
82.16556481856956
 30
0.0
  0
ENDBLK
  5
93920
330
93915
100
AcDbEntity
  8
0
100
AcDbBlockEnd
  0
BLOCK
  5
93BC4
330
93BBC
100
AcDbEntity
  8
0
100
AcDbBlockBegin
  2
*D1310
 70
     1
 10
0.0
 20
0.0
 30
0.0
  3
*D1310
  1

  0
LINE
  5
93BD7
330
93BBC
100
AcDbEntity
  8
2
100
AcDbLine
 10
107.6477878635644
 20
73.52670204906842
 30
0.0
 11
66.88043592963217
 21
63.70695354213847
 31
0.0
  0
MTEXT
  5
93BD8
330
93BBC
100
AcDbEntity
  8
2
100
AcDbMText
 10
88.01704236793332
 20
72.96402179924936
 30
0.0
 40
3.5
 41
0.0
 71
     5
 72
     1
  1
\A1;R0.8 [R.031"]
  7
simplex
 11
0.9721944022400382
 21
0.2341752426135922
 31
0.0
 73
     1
 44
1.0
1001
ACAD
1000
MTEXTBEGIN
1070
    73
1070
     1
1070
    44
1040
1.0
1070
    74
1070
     0
1000
MTEXTEND
  0
SOLID
  5
93BD9
330
93BBC
100
AcDbEntity
  8
2
100
AcDbTrace
 10
66.74383370477425
 20
64.27406694344515
 30
0.0
 11
67.01703815449009
 21
63.13984014083175
 31
0.0
 12
63.47775552179204
 22
62.88734019299088
 32
0.0
 13
63.47775552179204
 23
62.88734019299088
 33
0.0
  0
LINE
  5
93BDA
330
93BBC
100
AcDbEntity
  8
2
100
AcDbLine
 10
62.61000000000001
 20
62.6999999989
 30
0.0
 11
62.79000000000002
 21
62.6999999989
 31
0.0
  0
LINE
  5
93BDB
330
93BBC
100
AcDbEntity
  8
2
100
AcDbLine
 10
62.70000000000002
 20
62.6099999989
 30
0.0
 11
62.70000000000002
 21
62.7899999989
 31
0.0
  0
POINT
  5
93BDC
330
93BBC
100
AcDbEntity
  8
Defpoints
 62
     0
100
AcDbPoint
 10
63.47775552179204
 20
62.88734019299088
 30
0.0
  0
POINT
  5
93BDD
330
93BBC
100
AcDbEntity
  8
Defpoints
 62
     0
100
AcDbPoint
 10
62.70000000000002
 20
62.6999999989
 30
0.0
  0
ENDBLK
  5
93BC5
330
93BBC
100
AcDbEntity
  8
0
100
AcDbBlockEnd
  0
ENDSEC
  0
SECTION
  2
ENTITIES
  0
INSERT
  5
4A793
330
1F
100
AcDbEntity
  8
0
100
AcDbBlockReference
  2
zero block
 10
0.0
 20
0.0
 30
0.0
 50
180.0
  0
MTEXT
  5
936F2
330
1F
100
AcDbEntity
  8
sk6
100
AcDbMText
 10
4.031653806490851
 20
113.2895884739311
 30
0.0
 40
3.5
 41
139.3353303764208
 71
     1
 72
     5
  1
WWX400UR5_0012EA
 73
     1
 44
0.9
1001
ACAD
1000
MTEXTBEGIN
1070
    73
1070
     1
1070
    44
1040
0.9
1070
    74
1070
     0
1000
MTEXTEND
1000
ACAD_MTEXT_DEFINED_HEIGHT_BEGIN
1070
    46
1040
3.48901801050149
1000
ACAD_MTEXT_DEFINED_HEIGHT_END
  0
LINE
  5
936F4
330
1F
100
AcDbEntity
  8
4
100
AcDbLine
 10
68.83693405598953
 20
0.0
 30
0.0
 11
-2.907861614760548
 21
0.0
 31
0.0
  0
LINE
  5
936F5
330
1F
100
AcDbEntity
  8
nocut
100
AcDbLine
 10
0.0
 20
0.0
 30
0.0
 11
0.0
 21
46.41899999889999
 31
0.0
  0
LINE
  5
936F6
330
1F
100
AcDbEntity
  8
sk3
100
AcDbLine
 10
0.9999996684000224
 20
7.937538191599967
 30
0.0
 11
0.9999996684000224
 21
19.55003819160002
 31
0.0
  0
LINE
  5
936F7
330
1F
100
AcDbEntity
  8
nocut
100
AcDbLine
 10
61.71366150669999
 20
0.0
 30
0.0
 11
0.0
 21
0.0
 31
0.0
  0
LINE
  5
936F8
330
1F
100
AcDbEntity
  8
sk3
100
AcDbLine
 10
0.9999996684000224
 20
19.55003819160002
 30
0.0
 11
0.0
 21
20.55003784300001
 31
0.0
  0
LINE
  5
936F9
330
1F
100
AcDbEntity
  8
sk3
100
AcDbLine
 10
7.999999999999971
 20
7.937538191599967
 30
0.0
 11
7.999999999999971
 21
19.55003819160002
 31
0.0
  0
LINE
  5
936FA
330
1F
100
AcDbEntity
  8
nocut
100
AcDbLine
 10
19.83937437979998
 20
49.00408773320002
 30
0.0
 11
38.32569488670001
 21
61.94834870580002
 31
0.0
  0
LINE
  5
93723
102
{ACAD_REACTORS
330
93828
102
}
330
1F
100
AcDbEntity
  8
sk3
100
AcDbLine
 10
7.999999999999971
 20
19.05003819160002
 30
0.0
 11
25.89046496530003
 21
19.05003819160002
 31
0.0
  0
LINE
  5
93724
330
1F
100
AcDbEntity
  8
sk3
100
AcDbLine
 10
39.2868907649
 20
19.05003819160002
 30
0.0
 11
41.00000032339996
 21
19.05003819160002
 31
0.0
  0
LINE
  5
93725
330
1F
100
AcDbEntity
  8
sk3
100
AcDbLine
 10
0.9999996684000224
 20
19.55003819160002
 30
0.0
 11
7.999999999999971
 21
19.55003819160002
 31
0.0
  0
LINE
  5
93726
330
1F
100
AcDbEntity
  8
sk3
100
AcDbLine
 10
29.17735573019999
 20
20.50003819160004
 30
0.0
 11
35.82264426990003
 21
20.50003819160004
 31
0.0
  0
LINE
  5
93727
330
1F
100
AcDbEntity
  8
sk3
100
AcDbLine
 10
25.89046496530003
 20
19.05003819160002
 30
0.0
 11
25.89046496530003
 21
0.0000381927000035
 31
0.0
  0
LINE
  5
9372A
330
1F
100
AcDbEntity
  8
sk3
100
AcDbLine
 10
36.16073887930003
 20
20.42508442120001
 30
0.0
 11
38.94879615549999
 21
19.12499196200001
 31
0.0
  0
LINE
  5
9372E
330
1F
100
AcDbEntity
  8
sk3
100
AcDbLine
 10
42.99999999999997
 20
28.00003819160004
 30
0.0
 11
55.71366150669999
 21
28.00003819160004
 31
0.0
  0
LINE
  5
93737
330
1F
100
AcDbEntity
  8
sk3
100
AcDbLine
 10
41.00000032339996
 20
19.05003819160002
 30
0.0
 11
41.00000032339996
 21
0.0000381927000035
 31
0.0
  0
LINE
  5
9373B
330
1F
100
AcDbEntity
  8
sk3
100
AcDbLine
 10
25.89046496530003
 20
19.05003819160002
 30
0.0
 11
28.83926112079999
 21
20.42508442120001
 31
0.0
  0
LINE
  5
9373C
330
1F
100
AcDbEntity
  8
sk3
100
AcDbLine
 10
41.99999999999996
 20
0.0000381927000035
 30
0.0
 11
41.99999999999996
 21
27.00003819160004
 31
0.0
  0
LINE
  5
9374B
330
1F
100
AcDbEntity
  8
sk3
100
AcDbLine
 10
57.15714532490004
 20
46.9250695011
 30
0.0
 11
60.73118428722742
 21
52.74566806682553
 31
0.0
  0
LINE
  5
93765
330
1F
100
AcDbEntity
  8
sk3
100
AcDbLine
 10
41.00000032339996
 20
19.05003819160002
 30
0.0
 11
41.99999999999996
 21
20.05003785130002
 31
0.0
  0
LINE
  5
93766
330
1F
100
AcDbEntity
  8
nocut
100
AcDbLine
 10
2.0
 20
48.41899999889999
 30
0.0
 11
13.43987587019998
 21
48.41899999889999
 31
0.0
  0
LINE
  5
93768
330
1F
100
AcDbEntity
  8
sk3
100
AcDbLine
 10
55.71366150669999
 20
28.00003819160004
 30
0.0
 11
56.71366150669999
 21
29.00003819160004
 31
0.0
  0
LINE
  5
9376B
330
1F
100
AcDbEntity
  8
sk3
100
AcDbLine
 10
55.71366150669999
 20
28.00003819160004
 30
0.0
 11
55.71366150669999
 21
0.0000381927000035
 31
0.0
  0
LINE
  5
9376C
330
1F
100
AcDbEntity
  8
sk3
100
AcDbLine
 10
56.71366150669999
 20
45.35528448019999
 30
0.0
 11
56.71366150669999
 21
0.0000381927000035
 31
0.0
  0
LINE
  5
937D3
330
1F
100
AcDbEntity
  8
nocut
100
AcDbLine
 10
61.71366150669999
 20
56.69999999889999
 30
0.0
 11
61.71366150669999
 21
0.0
 31
0.0
  0
LINE
  5
937F5
330
1F
100
AcDbEntity
  8
nocut
100
AcDbLine
 10
39.99406697639998
 20
62.4904356584
 30
0.0
 11
51.97382338409997
 21
62.6995430844
 31
0.0
  0
LINE
  5
937F6
330
1F
100
AcDbEntity
  8
nocut
100
AcDbLine
 10
52.02618060339997
 20
62.6999999989
 30
0.0
 11
55.71366150669999
 21
62.6999999989
 31
0.0
  0
ARC
  5
937F9
330
1F
100
AcDbEntity
  8
nocut
100
AcDbCircle
 10
16.39791576170003
 20
53.91899999889999
 30
0.0
 40
6.0
100
AcDbArc
 50
250.8118635462993
 51
304.9999999999991
  0
ARC
  5
937FA
330
1F
100
AcDbEntity
  8
nocut
100
AcDbCircle
 10
55.71366150669999
 20
56.69999999889999
 30
0.0
 40
6.0
100
AcDbArc
 50
0.0
 51
90.0
  0
ARC
  5
937FB
330
1F
100
AcDbEntity
  8
nocut
100
AcDbCircle
 10
52.02618060339997
 20
59.69999999889999
 30
0.0
 40
3.0
100
AcDbArc
 50
90.0
 51
91.00000000000015
  0
ARC
  5
937FC
330
1F
100
AcDbEntity
  8
nocut
100
AcDbCircle
 10
40.04642419569997
 20
59.49089257300001
 30
0.0
 40
3.0
100
AcDbArc
 50
91.00000000000015
 51
124.9999999999991
  0
ARC
  5
937FD
330
1F
100
AcDbEntity
  8
nocut
100
AcDbCircle
 10
13.43987587019998
 20
45.4189999989
 30
0.0
 40
3.0
100
AcDbArc
 50
70.81186354629932
 51
90.0
  0
ARC
  5
937FE
330
1F
100
AcDbEntity
  8
sk3
100
AcDbCircle
 10
59.71366150669999
 20
45.35528448019999
 30
0.0
 40
3.0
100
AcDbArc
 50
148.4487064692989
 51
180.0
  0
ARC
  5
93801
102
{ACAD_REACTORS
330
93822
102
}
330
1F
100
AcDbEntity
  8
nocut
100
AcDbCircle
 10
2.0
 20
46.41899999889999
 30
0.0
 40
2.0
100
AcDbArc
 50
90.0
 51
180.0
  0
ARC
  5
93802
330
1F
100
AcDbEntity
  8
sk3
100
AcDbCircle
 10
42.99999999999997
 20
27.00003819160004
 30
0.0
 40
1.0
100
AcDbArc
 50
90.0
 51
180.0
  0
ARC
  5
93805
330
1F
100
AcDbEntity
  8
sk3
100
AcDbCircle
 10
29.17735573019999
 20
19.70003819160003
 30
0.0
 40
0.8
100
AcDbArc
 50
90.0
 51
114.9999999999997
  0
ARC
  5
93806
330
1F
100
AcDbEntity
  8
sk3
100
AcDbCircle
 10
39.2868907649
 20
19.85003819160002
 30
0.0
 40
0.8
100
AcDbArc
 50
245.0000000000003
 51
270.0
  0
ARC
  5
93807
330
1F
100
AcDbEntity
  8
sk3
100
AcDbCircle
 10
35.82264426990003
 20
19.70003819160003
 30
0.0
 40
0.8
100
AcDbArc
 50
65.0000000000003
 51
90.0
  0
LINE
  5
93808
330
1F
100
AcDbEntity
  8
sk3
100
AcDbLine
 10
0.9999996684000224
 20
-7.937461808400001
 30
0.0
 11
0.9999996684000224
 21
-19.5499618062
 31
0.0
  0
LINE
  5
93809
330
1F
100
AcDbEntity
  8
sk3
100
AcDbLine
 10
0.9999996684000224
 20
-19.5499618062
 30
0.0
 11
0.0
 21
-20.54996145760001
 31
0.0
  0
LINE
  5
9380A
330
1F
100
AcDbEntity
  8
sk3
100
AcDbLine
 10
7.999999999999971
 20
-7.937461808400001
 30
0.0
 11
7.999999999999971
 21
-19.5499618062
 31
0.0
  0
LINE
  5
9380B
102
{ACAD_REACTORS
330
93828
102
}
330
1F
100
AcDbEntity
  8
sk3
100
AcDbLine
 10
7.999999999999971
 20
-19.0499618062
 30
0.0
 11
25.89046496530003
 21
-19.0499618062
 31
0.0
  0
LINE
  5
9380C
330
1F
100
AcDbEntity
  8
sk3
100
AcDbLine
 10
39.2868907649
 20
-19.0499618062
 30
0.0
 11
41.00000032339996
 21
-19.0499618062
 31
0.0
  0
LINE
  5
9380D
330
1F
100
AcDbEntity
  8
sk3
100
AcDbLine
 10
0.9999996684000224
 20
-19.5499618062
 30
0.0
 11
7.999999999999971
 21
-19.5499618062
 31
0.0
  0
LINE
  5
9380E
330
1F
100
AcDbEntity
  8
sk3
100
AcDbLine
 10
29.17735573019999
 20
-20.49996180620002
 30
0.0
 11
35.82264426990003
 21
-20.49996180620002
 31
0.0
  0
LINE
  5
9380F
330
1F
100
AcDbEntity
  8
sk3
100
AcDbLine
 10
25.89046496530003
 20
-19.0499618062
 30
0.0
 11
25.89046496530003
 21
0.0000381927000035
 31
0.0
  0
LINE
  5
93810
330
1F
100
AcDbEntity
  8
sk3
100
AcDbLine
 10
36.16073887930003
 20
-20.42500803580001
 30
0.0
 11
38.94879615549999
 21
-19.12491557659999
 31
0.0
  0
LINE
  5
93811
330
1F
100
AcDbEntity
  8
sk3
100
AcDbLine
 10
42.99999999999997
 20
-27.99996180620002
 30
0.0
 11
55.71366150669999
 21
-27.99996180620002
 31
0.0
  0
LINE
  5
93812
330
1F
100
AcDbEntity
  8
sk3
100
AcDbLine
 10
41.00000032339996
 20
-19.0499618062
 30
0.0
 11
41.00000032339996
 21
0.0000381927000035
 31
0.0
  0
LINE
  5
93813
330
1F
100
AcDbEntity
  8
sk3
100
AcDbLine
 10
25.89046496530003
 20
-19.0499618062
 30
0.0
 11
28.83926112079999
 21
-20.42500803580001
 31
0.0
  0
LINE
  5
93814
330
1F
100
AcDbEntity
  8
sk3
100
AcDbLine
 10
41.99999999999996
 20
0.0000381927000035
 30
0.0
 11
41.99999999999996
 21
-26.99996180620002
 31
0.0
  0
LINE
  5
93815
330
1F
100
AcDbEntity
  8
sk3
100
AcDbLine
 10
57.15714532490004
 20
-46.92499311569999
 30
0.0
 11
61.56583356730003
 21
-54.1048825156
 31
0.0
  0
LINE
  5
93816
330
1F
100
AcDbEntity
  8
sk3
100
AcDbLine
 10
41.00000032339996
 20
-19.0499618062
 30
0.0
 11
41.99999999999996
 21
-20.0499614659
 31
0.0
  0
LINE
  5
93817
330
1F
100
AcDbEntity
  8
sk3
100
AcDbLine
 10
55.71366150669999
 20
-27.99996180620002
 30
0.0
 11
56.71366150669999
 21
-28.99996180620002
 31
0.0
  0
LINE
  5
93818
330
1F
100
AcDbEntity
  8
sk3
100
AcDbLine
 10
55.71366150669999
 20
-27.99996180620002
 30
0.0
 11
55.71366150669999
 21
0.0000381927000035
 31
0.0
  0
LINE
  5
93819
330
1F
100
AcDbEntity
  8
sk3
100
AcDbLine
 10
56.71366150669999
 20
-45.3552080948
 30
0.0
 11
56.71366150669999
 21
0.0000381927000035
 31
0.0
  0
ARC
  5
9381A
330
1F
100
AcDbEntity
  8
sk3
100
AcDbCircle
 10
59.71366150669999
 20
-45.3552080948
 30
0.0
 40
3.0
100
AcDbArc
 50
180.0
 51
211.5512935307011
  0
ARC
  5
9381B
330
1F
100
AcDbEntity
  8
sk3
100
AcDbCircle
 10
60.71366150669999
 20
-54.6281441893
 30
0.0
 40
1.0
100
AcDbArc
 50
0.0
 51
31.55129353070107
  0
ARC
  5
9381C
102
{ACAD_REACTORS
330
93825
102
}
330
1F
100
AcDbEntity
  8
sk3
100
AcDbCircle
 10
42.99999999999997
 20
-26.99996180620002
 30
0.0
 40
1.0
100
AcDbArc
 50
180.0
 51
270.0
  0
ARC
  5
9381D
330
1F
100
AcDbEntity
  8
sk3
100
AcDbCircle
 10
29.17735573019999
 20
-19.69996180620004
 30
0.0
 40
0.8
100
AcDbArc
 50
245.0000000000003
 51
270.0
  0
ARC
  5
9381E
330
1F
100
AcDbEntity
  8
sk3
100
AcDbCircle
 10
39.2868907649
 20
-19.84996180620001
 30
0.0
 40
0.8
100
AcDbArc
 50
90.0
 51
114.9999999999997
  0
ARC
  5
9381F
330
1F
100
AcDbEntity
  8
sk3
100
AcDbCircle
 10
35.82264426990003
 20
-19.69996180620004
 30
0.0
 40
0.8
100
AcDbArc
 50
270.0
 51
294.9999999999997
  0
DIMENSION
  5
93820
102
{ACAD_XDICTIONARY
360
93821
102
}
102
{ACAD_REACTORS
330
93822
102
}
330
1F
100
AcDbEntity
  8
2
100
AcDbDimension
  2
*D15644
 10
63.5
 20
90.25954955284298
 30
0.0
 11
31.75
 21
94.30954955284297
 31
0.0
 70
    32
 71
     5
 42
63.5
  3
コピー - ISO-25
100
AcDbAlignedDimension
 13
0.0
 23
46.41899999889999
 33
0.0
 14
63.5
 24
62.6999999989
 34
0.0
 50
0.0
100
AcDbRotatedDimension
1001
ACAD
1000
DSTYLE
1002
{
1070
   170
1070
     1
1070
   171
1070
     3
1070
   143
1040
0.0393700787401575
1070
   285
1070
     4
1070
     4
1000
"
1070
   271
1070
     8
1070
    40
1040
1.0
1002
}
1001
ACAD_DSTYLE_DIMINSPECT
1070
   393
1070
     0
1070
   394
1070
     0
1070
   395
1000

1070
   396
1000

  0
DIMENSION
  5
93823
102
{ACAD_XDICTIONARY
360
93824
102
}
102
{ACAD_REACTORS
330
93825
102
}
330
1F
100
AcDbEntity
  8
sk2
100
AcDbDimension
  2
*D15755
 10
41.99999999999996
 20
-80.08404088002523
 30
0.0
 11
20.99999999999999
 21
-76.03404088002523
 31
0.0
 70
    32
 71
     5
 42
42.0
  3
コピー - ISO-25
100
AcDbAlignedDimension
 13
0.0
 23
-46.41896180840001
 33
0.0
 14
41.99999999999996
 24
-26.99996180620002
 34
0.0
 50
0.0
100
AcDbRotatedDimension
1001
ACAD
1000
DSTYLE
1002
{
1070
   170
1070
     1
1070
   171
1070
     3
1070
   143
1040
0.0393700787401575
1070
   285
1070
     4
1070
     4
1000
"
1070
   271
1070
     8
1070
    40
1040
1.0
1002
}
1001
ACAD_DSTYLE_DIMINSPECT
1070
   393
1070
     0
1070
   394
1070
     0
1070
   395
1000

1070
   396
1000

  0
DIMENSION
  5
93826
102
{ACAD_XDICTIONARY
360
93827
102
}
102
{ACAD_REACTORS
330
93828
102
}
330
1F
100
AcDbEntity
  8
sk2
100
AcDbDimension
  2
*D15866
 10
-10.1095496897193
 20
-19.0499618062
 30
0.0
 11
-10.1095496897193
 21
0.8613675503907812
 31
0.0
 70
   160
  1
%%C<>
 71
     5
 42
38.0999999978
  3
コピー - ISO-25
100
AcDbAlignedDimension
 13
7.999999999999971
 23
19.05003819160002
 33
0.0
 14
7.999999999999971
 24
-19.0499618062
 34
0.0
 50
90.0
100
AcDbRotatedDimension
1001
ACAD
1000
DSTYLE
1002
{
1070
   170
1070
     1
1070
   171
1070
     3
1070
   143
1040
0.0393700787401575
1070
   285
1070
     4
1070
     4
1000
%%c[]"
1070
   271
1070
     8
1070
    40
1040
1.0
1002
}
1001
ACAD_DSTYLE_DIMINSPECT
1070
   393
1070
     0
1070
   394
1070
     0
1070
   395
1000

1070
   396
1000

  0
DIMENSION
  5
93829
330
1F
100
AcDbEntity
  8
sk2
100
AcDbDimension
  2
*D15977
 10
-20.90827197655645
 20
-48.41896180840001
 30
0.0
 11
-24.95827197655644
 21
0.0000381915999913
 31
0.0
 70
    32
  1
%%C<>
 71
     5
 42
96.83799999999999
  3
コピー - ISO-25
100
AcDbAlignedDimension
 13
2.0
 23
48.41903819159998
 33
0.0
 14
2.0
 24
-48.41896180840001
 34
0.0
 50
90.0
100
AcDbRotatedDimension
1001
ACAD
1000
DSTYLE
1002
{
1070
   170
1070
     1
1070
   171
1070
     3
1070
   143
1040
0.0393700787401575
1070
   285
1070
     4
1070
     4
1000
%%c[]"
1070
   271
1070
     8
1070
    40
1040
1.0
1002
}
1001
ACAD_DSTYLE_DIMINSPECT
1070
   393
1070
     0
1070
   394
1070
     0
1070
   395
1000

1070
   396
1000

  0
DIMENSION
  5
9382A
330
1F
100
AcDbEntity
  8
2
100
AcDbDimension
  2
*D16088
 10
90.16787328498443
 20
-63.49999999890002
 30
0.0
 11
86.11787328498444
 21
-1.75000000000001
 31
0.0
 70
    32
  1
%%C<>
 71
     5
 42
126.9999999978
  3
コピー - ISO-25
100
AcDbAlignedDimension
 13
62.70000000000002
 23
63.4999999989
 33
0.0
 14
62.70000000000002
 24
-63.49999999890002
 34
0.0
 50
90.0
100
AcDbRotatedDimension
1001
ACAD
1000
DSTYLE
1002
{
1070
   170
1070
     1
1070
   171
1070
     3
1070
   143
1040
0.0393700787401575
1070
   285
1070
     4
1070
     4
1000
%%c[]"
1070
   344
1005
87D73
1070
   271
1070
     8
1070
   173
1070
     1
1070
    40
1040
1.0
1070
    76
1070
     1
1002
}
1001
ACAD_DSTYLE_DIMINSPECT
1070
   393
1070
     0
1070
   394
1070
     0
1070
   395
1000

1070
   396
1000

  0
LINE
  5
9382D
330
1F
100
AcDbEntity
  8
1
100
AcDbLine
 10
52.02618060329999
 20
-62.69996180839999
 30
0.0
 11
55.71258193589997
 21
-62.69996180839999
 31
0.0
  0
LINE
  5
9382E
330
1F
100
AcDbEntity
  8
1
100
AcDbLine
 10
51.97382338400004
 20
-62.69950489380001
 30
0.0
 11
52.02618060329999
 21
-62.69996180839999
 31
0.0
  0
LINE
  5
9382F
330
1F
100
AcDbEntity
  8
1
100
AcDbLine
 10
39.99406697640004
 20
-62.49039746790001
 30
0.0
 11
51.97382338400004
 21
-62.69950489380001
 31
0.0
  0
LINE
  5
93830
330
1F
100
AcDbEntity
  8
1
100
AcDbLine
 10
13.43987587009999
 20
-48.41896180839999
 30
0.0
 11
2.0
 21
-48.41896180839999
 31
0.0
  0
LINE
  5
93831
330
1F
100
AcDbEntity
  8
1
100
AcDbLine
 10
38.32569488660002
 20
-61.94831051529996
 30
0.0
 11
19.83937437969999
 21
-49.00404954259997
 31
0.0
  0
LINE
  5
93832
330
1F
100
AcDbEntity
  8
1
100
AcDbLine
 10
0.0
 20
46.41899999889999
 30
0.0
 11
0.0
 21
8.937538191599998
 31
0.0
  0
LINE
  5
93833
330
1F
100
AcDbEntity
  8
1
100
AcDbLine
 10
0.0
 20
-46.41896180839997
 30
0.0
 11
0.0
 21
-8.937461808400001
 31
0.0
  0
LINE
  5
93834
330
1F
100
AcDbEntity
  8
1
100
AcDbLine
 10
38.32569488660002
 20
61.9483868986
 30
0.0
 11
19.83937437969999
 21
49.00412592589997
 31
0.0
  0
LINE
  5
93835
330
1F
100
AcDbEntity
  8
1
100
AcDbLine
 10
49.42032478670004
 20
59.87227327959998
 30
0.0
 11
51.70378875679995
 21
61.18267713700003
 31
0.0
  0
LINE
  5
93836
330
1F
100
AcDbEntity
  8
1
100
AcDbLine
 10
48.11128941379999
 20
59.78447256369996
 30
0.0
 11
48.88395996940002
 21
60.0694139289
 31
0.0
  0
LINE
  5
93837
330
1F
100
AcDbEntity
  8
1
100
AcDbLine
 10
9.525000000000003
 20
6.937538191599997
 30
0.0
 11
9.525000000000003
 21
-6.937461808400001
 31
0.0
  0
LINE
  5
93838
330
1F
100
AcDbEntity
  8
1
100
AcDbLine
 10
0.0
 20
8.937538191599998
 30
0.0
 11
1.0
 21
7.937538191599997
 31
0.0
  0
LINE
  5
93839
330
1F
100
AcDbEntity
  8
1
100
AcDbLine
 10
8.525000000000002
 20
7.937538191599997
 30
0.0
 11
9.525000000000003
 21
6.937538191599997
 31
0.0
  0
LINE
  5
9383A
330
1F
100
AcDbEntity
  8
1
100
AcDbLine
 10
1.0
 20
-7.937461808400001
 30
0.0
 11
0.0
 21
-8.937461808400001
 31
0.0
  0
LINE
  5
9383B
330
1F
100
AcDbEntity
  8
1
100
AcDbLine
 10
1.0
 20
-7.937461808400001
 30
0.0
 11
8.525000000000002
 21
-7.937461808400001
 31
0.0
  0
LINE
  5
9383C
330
1F
100
AcDbEntity
  8
1
100
AcDbLine
 10
9.525000000000003
 20
-6.937461808400001
 30
0.0
 11
8.525000000000002
 21
-7.937461808400001
 31
0.0
  0
LINE
  5
9383D
330
1F
100
AcDbEntity
  8
1
100
AcDbLine
 10
1.0
 20
7.937538191599997
 30
0.0
 11
8.525000000000002
 21
7.937538191599997
 31
0.0
  0
LINE
  5
9383E
330
1F
100
AcDbEntity
  8
1
100
AcDbLine
 10
47.68047894140003
 20
61.35462215630004
 30
0.0
 11
47.80350608530002
 21
60.00182916060002
 31
0.0
  0
LINE
  5
9383F
330
1F
100
AcDbEntity
  8
1
100
AcDbLine
 10
61.71258193589998
 20
51.0882340736
 30
0.0
 11
61.71258193589998
 21
-56.69996048129998
 31
0.0
  0
LINE
  5
93840
330
1F
100
AcDbEntity
  8
1
100
AcDbLine
 10
47.7196682957
 20
56.15751882929997
 30
0.0
 11
47.64124617239995
 21
56.30600583990001
 31
0.0
  0
LINE
  5
93841
330
1F
100
AcDbEntity
  8
1
100
AcDbLine
 10
13.43987587009999
 20
48.41903819159998
 30
0.0
 11
2.0
 21
48.41903819159998
 31
0.0
  0
LINE
  5
93842
330
1F
100
AcDbEntity
  8
1
100
AcDbLine
 10
48.7992870268
 20
59.70101350260001
 30
0.0
 11
49.42032478670004
 21
59.87227327959998
 31
0.0
  0
LINE
  5
93843
330
1F
100
AcDbEntity
  8
1
100
AcDbLine
 10
57.01920431070004
 20
54.12591451869996
 30
0.0
 11
56.83105307680003
 21
54.12591451869996
 31
0.0
  0
LINE
  5
93844
330
1F
100
AcDbEntity
  8
1
100
AcDbLine
 10
55.29523357120003
 20
54.29967172579999
 30
0.0
 11
55.10708233740004
 21
54.29967172579999
 31
0.0
  0
LINE
  5
93845
330
1F
100
AcDbEntity
  8
1
100
AcDbLine
 10
55.49843237270002
 20
54.39958535890004
 30
0.0
 11
55.68658360660001
 21
54.39958535890004
 31
0.0
  0
LINE
  5
93846
330
1F
100
AcDbEntity
  8
1
100
AcDbLine
 10
57.65111058270001
 20
54.92908714809996
 30
0.0
 11
57.83926181659999
 21
54.92908714809996
 31
0.0
  0
LINE
  5
93847
330
1F
100
AcDbEntity
  8
1
100
AcDbLine
 10
58.03084350080005
 20
55.54026224580002
 30
0.0
 11
57.8426922669
 21
55.54026224580002
 31
0.0
  0
LINE
  5
93848
330
1F
100
AcDbEntity
  8
1
100
AcDbLine
 10
57.85933133850003
 20
54.92892262869997
 30
0.0
 11
57.83926182680001
 21
54.92907284030001
 31
0.0
  0
LINE
  5
93849
330
1F
100
AcDbEntity
  8
1
100
AcDbLine
 10
41.60489946330002
 20
56.49842376909997
 30
0.0
 11
36.00626375730005
 21
58.5441688042
 31
0.0
  0
LINE
  5
9384A
330
1F
100
AcDbEntity
  8
1
100
AcDbLine
 10
48.05200564609998
 20
56.59710617789999
 30
0.0
 11
47.20589615920002
 21
56.59710617789999
 31
0.0
  0
LINE
  5
9384B
330
1F
100
AcDbEntity
  8
1
100
AcDbLine
 10
48.0288417266
 20
56.64340902300001
 30
0.0
 11
47.15567533780003
 21
56.64340902300001
 31
0.0
  0
LINE
  5
9384C
330
1F
100
AcDbEntity
  8
1
100
AcDbLine
 10
57.75639056340001
 20
56.6683707372
 30
0.0
 11
57.56823932950002
 21
56.6683707372
 31
0.0
  0
LINE
  5
9384D
330
1F
100
AcDbEntity
  8
1
100
AcDbLine
 10
56.73901068230006
 20
57.02845354699999
 30
0.0
 11
56.92716191609999
 21
57.02845354699999
 31
0.0
  0
LINE
  5
9384E
330
1F
100
AcDbEntity
  8
1
100
AcDbLine
 10
56.20966681810003
 20
57.45342898419997
 30
0.0
 11
56.02151558429998
 21
57.45342898419997
 31
0.0
  0
LINE
  5
9384F
330
1F
100
AcDbEntity
  8
1
100
AcDbLine
 10
46.56290839079995
 20
57.7837110402
 30
0.0
 11
47.45957393779995
 21
57.7837110402
 31
0.0
  0
LINE
  5
93850
330
1F
100
AcDbEntity
  8
1
100
AcDbLine
 10
46.82545701009999
 20
58.8374418281
 30
0.0
 11
47.75300766239999
 21
58.8374418281
 31
0.0
  0
LINE
  5
93851
330
1F
100
AcDbEntity
  8
1
100
AcDbLine
 10
48.82773042190004
 20
59.48576846320005
 30
0.0
 11
47.93440739030003
 21
59.48576846320005
 31
0.0
  0
LINE
  5
93852
330
1F
100
AcDbEntity
  8
1
100
AcDbLine
 10
48.87157658800001
 20
59.51168060420001
 30
0.0
 11
47.98080023220004
 21
59.51168060420001
 31
0.0
  0
LINE
  5
93853
330
1F
100
AcDbEntity
  8
1
100
AcDbLine
 10
54.75441418420004
 20
56.49911627709997
 30
0.0
 11
54.7744836959
 21
56.49896606560002
 31
0.0
  0
LINE
  5
93854
330
1F
100
AcDbEntity
  8
1
100
AcDbLine
 10
48.7992870268
 20
59.70101350260001
 30
0.0
 11
48.11128941379999
 21
59.78447256369996
 31
0.0
  0
LINE
  5
93855
330
1F
100
AcDbEntity
  8
1
100
AcDbLine
 10
48.88395996940002
 20
60.0694139289
 30
0.0
 11
49.18400474170002
 21
59.98914189119999
 31
0.0
  0
LINE
  5
93856
330
1F
100
AcDbEntity
  8
1
100
AcDbLine
 10
39.99406697640004
 20
62.49047385120004
 30
0.0
 11
51.97382338400004
 21
62.69958127709998
 31
0.0
  0
LINE
  5
93857
330
1F
100
AcDbEntity
  8
1
100
AcDbLine
 10
51.97382338400004
 20
62.69958127709998
 30
0.0
 11
52.02618060329999
 21
62.70003819160002
 31
0.0
  0
LINE
  5
93858
330
1F
100
AcDbEntity
  8
1
100
AcDbLine
 10
54.20339363210004
 20
62.56233039219999
 30
0.0
 11
53.65083194990003
 21
62.56233039219999
 31
0.0
  0
LINE
  5
93859
330
1F
100
AcDbEntity
  8
1
100
AcDbLine
 10
52.02618060329999
 20
62.70003819160002
 30
0.0
 11
54.00172113370004
 21
62.70003819160002
 31
0.0
  0
LINE
  5
9385A
330
1F
100
AcDbEntity
  8
1
100
AcDbLine
 10
54.93309288150001
 20
62.74929973879999
 30
0.0
 11
54.38176696820002
 21
62.74929973879999
 31
0.0
  0
LINE
  5
9385B
330
1F
100
AcDbEntity
  8
1
100
AcDbLine
 10
54.97128804329998
 20
62.74883846799998
 30
0.0
 11
54.93309189470004
 21
62.74929973879999
 31
0.0
  0
ARC
  5
9385C
330
1F
100
AcDbEntity
  8
1
100
AcDbCircle
 10
16.39791576159999
 20
-53.91896180839997
 30
0.0
 40
6.0
100
AcDbArc
 50
55.00000000000088
 51
109.1881364537007
  0
ARC
  5
9385D
330
1F
100
AcDbEntity
  8
1
100
AcDbCircle
 10
16.39791576159999
 20
53.91903819159999
 30
0.0
 40
6.0
100
AcDbArc
 50
250.8118635462993
 51
304.9999999999991
  0
ARC
  5
9385E
330
1F
100
AcDbEntity
  8
1
100
AcDbCircle
 10
55.71258193589997
 20
-56.69996180839999
 30
0.0
 40
6.0
100
AcDbArc
 50
270.0
 51
0.0
  0
ARC
  5
9385F
330
1F
100
AcDbEntity
  8
1
100
AcDbCircle
 10
13.43987587009999
 20
45.41903819159998
 30
0.0
 40
3.0
100
AcDbArc
 50
70.81186354629932
 51
90.0
  0
ARC
  5
93860
330
1F
100
AcDbEntity
  8
1
100
AcDbCircle
 10
13.43987587009999
 20
-45.41896180839997
 30
0.0
 40
3.0
100
AcDbArc
 50
270.0
 51
289.1881364537007
  0
ARC
  5
93861
330
1F
100
AcDbEntity
  8
1
100
AcDbCircle
 10
40.04642419569996
 20
59.49093076569997
 30
0.0
 40
3.0
100
AcDbArc
 50
91.00000000000015
 51
124.9999999999991
  0
ARC
  5
93862
330
1F
100
AcDbEntity
  8
1
100
AcDbCircle
 10
40.04642419569996
 20
-59.49085438239996
 30
0.0
 40
3.0
100
AcDbArc
 50
235.0000000000009
 51
268.9999999999998
  0
ARC
  5
93863
330
1F
100
AcDbEntity
  8
1
100
AcDbCircle
 10
2.0
 20
46.41903819159998
 30
0.0
 40
2.0
100
AcDbArc
 50
90.0
 51
180.0
  0
ARC
  5
93864
330
1F
100
AcDbEntity
  8
1
100
AcDbCircle
 10
2.0
 20
-46.41896180839997
 30
0.0
 40
2.0
100
AcDbArc
 50
180.0
 51
270.0
  0
SPLINE
  5
93865
330
1F
100
AcDbEntity
  8
1
100
AcDbSpline
210
0.0
220
0.0
230
1.0
 70
     8
 71
     3
 72
    15
 73
    11
 74
     0
 42
0.000000001
 43
0.0000000001
 40
0.0
 40
0.0
 40
0.0
 40
0.0
 40
0.1246304384
 40
0.2493699612
 40
0.3743252833
 40
0.499483901
 40
0.6247566023
 40
0.7500077536000001
 40
0.8751047216999998
 40
1.0
 40
1.0
 40
1.0
 40
1.0
 10
54.75441418300002
 20
56.49912774430003
 30
0.0
 10
54.71911877800002
 20
56.49912389080003
 30
0.0
 10
54.64796347569993
 20
56.4874664151
 30
0.0
 10
54.55278056929998
 20
56.43683096190007
 30
0.0
 10
54.47850508730002
 20
56.35836296829999
 30
0.0
 10
54.43296514050004
 20
56.26024762340001
 30
0.0
 10
54.42083517910001
 20
56.15268281759999
 30
0.0
 10
54.44338891140003
 20
56.04680937330003
 30
0.0
 10
54.49819094649999
 20
55.95368400489999
 30
0.0
 10
54.5527913044
 20
55.90633495880003
 30
0.0
 10
54.58290202190003
 20
55.88777665999997
 30
0.0
  0
SPLINE
  5
93866
330
1F
100
AcDbEntity
  8
1
100
AcDbSpline
210
0.0
220
0.0
230
1.0
 70
     8
 71
     3
 72
    11
 73
     7
 74
     0
 42
0.000000001
 43
0.0000000001
 40
0.0
 40
0.0
 40
0.0
 40
0.0
 40
0.2502986171999999
 40
0.5003484797
 40
0.750222939
 40
1.0
 40
1.0
 40
1.0
 40
1.0
 10
53.8222279375
 20
58.20633811809999
 30
0.0
 10
53.97961809319999
 20
58.35781561740002
 30
0.0
 10
54.32408437239999
 20
58.63126218659997
 30
0.0
 10
54.90845454390004
 20
58.93504656520001
 30
0.0
 10
55.53951751420001
 20
59.12197875639996
 30
0.0
 10
55.97672215840001
 20
59.1640148889
 30
0.0
 10
56.1947094091
 20
59.1640186484
 30
0.0
  0
SPLINE
  5
93867
330
1F
100
AcDbEntity
  8
1
100
AcDbSpline
210
0.0
220
0.0
230
1.0
 70
     8
 71
     3
 72
     9
 73
     5
 74
     0
 42
0.000000001
 43
0.0000000001
 40
0.0
 40
0.0
 40
0.0
 40
0.0
 40
0.4998449386
 40
1.0
 40
1.0
 40
1.0
 40
1.0
 10
54.8573549594
 20
54.75966816859997
 30
0.0
 10
54.83792360449999
 20
54.72715242520003
 30
0.0
 10
54.81011469659998
 20
54.65482126850002
 30
0.0
 10
54.80854270130001
 20
54.57734947120004
 30
0.0
 10
54.81423722850006
 20
54.53987675450001
 30
0.0
  0
SPLINE
  5
93868
330
1F
100
AcDbEntity
  8
1
100
AcDbSpline
210
0.0
220
0.0
230
1.0
 70
     8
 71
     3
 72
     9
 73
     5
 74
     0
 42
0.000000001
 43
0.0000000001
 40
0.0
 40
0.0
 40
0.0
 40
0.0
 40
0.5001642066
 40
1.0
 40
1.0
 40
1.0
 40
1.0
 10
54.97828167920002
 20
54.30179106569998
 30
0.0
 10
55.00256926839997
 20
54.28811353389999
 30
0.0
 10
55.05484826960007
 20
54.26689480780003
 30
0.0
 10
55.1108112161
 20
54.2597041448
 30
0.0
 10
55.13866694929999
 20
54.25970155719999
 30
0.0
  0
SPLINE
  5
93869
330
1F
100
AcDbEntity
  8
1
100
AcDbSpline
210
0.0
220
0.0
230
1.0
 70
     8
 71
     3
 72
    11
 73
     7
 74
     0
 42
0.000000001
 43
0.0000000001
 40
0.0
 40
0.0
 40
0.0
 40
0.0
 40
0.2504834789
 40
0.5005896864000002
 40
0.7503866725
 40
1.0
 40
1.0
 40
1.0
 40
1.0
 10
56.40407870460004
 20
53.97460992170003
 30
0.0
 10
56.36892049909997
 20
54.03838963499997
 30
0.0
 10
56.28125554990001
 20
54.15710209789999
 30
0.0
 10
56.10799926130003
 20
54.29379426699998
 30
0.0
 10
55.90510243000003
 20
54.37997485520003
 30
0.0
 10
55.7591588416
 20
54.39958846709997
 30
0.0
 10
55.68658360769996
 20
54.39958466580002
 30
0.0
  0
SPLINE
  5
9386A
330
1F
100
AcDbEntity
  8
1
100
AcDbSpline
210
0.0
220
0.0
230
1.0
 70
     8
 71
     3
 72
    11
 73
     7
 74
     0
 42
0.000000001
 43
0.0000000001
 40
0.0
 40
0.0
 40
0.0
 40
0.0
 40
0.2504908634
 40
0.5005858159000001
 40
0.7503873364000003
 40
1.0
 40
1.0
 40
1.0
 40
1.0
 10
56.40407870460004
 20
53.97460992170003
 30
0.0
 10
56.4181447632
 20
53.94909299959998
 30
0.0
 10
56.45321509100003
 20
53.90159871979999
 30
0.0
 10
56.52253345400001
 20
53.84691889600002
 30
0.0
 10
56.60370248590002
 20
53.81243438510002
 30
0.0
 10
56.66209064810002
 20
53.80459307150004
 30
0.0
 10
56.69112553980003
 20
53.80459113100005
 30
0.0
  0
SPLINE
  5
9386B
330
1F
100
AcDbEntity
  8
1
100
AcDbSpline
210
0.0
220
0.0
230
1.0
 70
     8
 71
     3
 72
    15
 73
    11
 74
     0
 42
0.000000001
 43
0.0000000001
 40
0.0
 40
0.0
 40
0.0
 40
0.0
 40
0.1250244541
 40
0.2501248302
 40
0.37527125
 40
0.5004037052000001
 40
0.6254749111
 40
0.7504467277
 40
0.8752853109
 40
1.0
 40
1.0
 40
1.0
 40
1.0
 10
54.8573549594
 20
54.75966816859997
 30
0.0
 10
54.8848230339
 20
54.80563227510002
 30
0.0
 10
54.93092657810004
 20
54.90321541619998
 30
0.0
 10
54.97041638760001
 20
55.0600088389
 30
0.0
 10
54.97894089189998
 20
55.22157848049999
 30
0.0
 10
54.95612285990003
 20
55.38172959419997
 30
0.0
 10
54.90285163740001
 20
55.53439763869999
 30
0.0
 10
54.8211159761
 20
55.67378651090002
 30
0.0
 10
54.71409205869997
 20
55.79456870400004
 30
0.0
 10
54.62837278390001
 20
55.85975142339997
 30
0.0
 10
54.58290202190003
 20
55.88777665999997
 30
0.0
  0
SPLINE
  5
9386C
330
1F
100
AcDbEntity
  8
1
100
AcDbSpline
210
0.0
220
0.0
230
1.0
 70
     8
 71
     3
 72
    15
 73
    11
 74
     0
 42
0.000000001
 43
0.0000000001
 40
0.0
 40
0.0
 40
0.0
 40
0.0
 40
0.1246842477
 40
0.2493945342
 40
0.3742054064
 40
0.4991349038
 40
0.6241960857
 40
0.7493825705
 40
0.8746592648999998
 40
1.0
 40
1.0
 40
1.0
 40
1.0
 10
54.77448369679999
 20
56.49895227799998
 30
0.0
 10
54.82720337529997
 20
56.4989557063
 30
0.0
 10
54.9329398363
 20
56.5092347056
 30
0.0
 10
55.0854063006
 20
56.55495104479999
 30
0.0
 10
55.22636612540001
 20
56.62922598510004
 30
0.0
 10
55.35050623309999
 20
56.72931534680002
 30
0.0
 10
55.45324160510003
 20
56.85147779179996
 30
0.0
 10
55.53074787220001
 20
56.99119587040001
 30
0.0
 10
55.58016406740003
 20
57.14319976379997
 30
0.0
 10
55.59315544140005
 20
57.24914524950001
 30
0.0
 10
55.59454121199999
 20
57.30212438709997
 30
0.0
  0
SPLINE
  5
9386D
330
1F
100
AcDbEntity
  8
1
100
AcDbSpline
210
0.0
220
0.0
230
1.0
 70
     8
 71
     3
 72
    11
 73
     7
 74
     0
 42
0.000000001
 43
0.0000000001
 40
0.0
 40
0.0
 40
0.0
 40
0.0
 40
0.2496945136
 40
0.4996234071
 40
0.7497529677000001
 40
1.0
 40
1.0
 40
1.0
 40
1.0
 10
53.8222279375
 20
58.20633811809999
 30
0.0
 10
53.66471268080003
 20
58.05474021760004
 30
0.0
 10
53.37781184429999
 20
57.72039186490001
 30
0.0
 10
53.05062183989996
 20
57.14689432920003
 30
0.0
 10
52.8374011009
 20
56.5214987447
 30
0.0
 10
52.77650361630001
 20
56.08451890339999
 30
0.0
 10
52.76692424260001
 20
55.86562861179998
 30
0.0
  0
SPLINE
  5
9386E
330
1F
100
AcDbEntity
  8
1
100
AcDbSpline
210
0.0
220
0.0
230
1.0
 70
     8
 71
     3
 72
    11
 73
     7
 74
     0
 42
0.000000001
 43
0.0000000001
 40
0.0
 40
0.0
 40
0.0
 40
0.0
 40
0.2493755305
 40
0.4991112164000004
 40
0.7493606683000003
 40
1.0
 40
1.0
 40
1.0
 40
1.0
 10
55.92261998289998
 20
57.6234477748
 30
0.0
 10
55.88063235460001
 20
57.62345058100002
 30
0.0
 10
55.7957003434
 20
57.60681834469997
 30
0.0
 10
55.68779705879999
 20
57.5356583792
 30
0.0
 10
55.61433935870002
 20
57.42907269399999
 30
0.0
 10
55.5956446671
 20
57.34431037420002
 30
0.0
 10
55.59454121199999
 20
57.30212438709997
 30
0.0
  0
SPLINE
  5
9386F
330
1F
100
AcDbEntity
  8
1
100
AcDbSpline
210
0.0
220
0.0
230
1.0
 70
     8
 71
     3
 72
     9
 73
     5
 74
     0
 42
0.000000001
 43
0.0000000001
 40
0.0
 40
0.0
 40
0.0
 40
0.0
 40
0.4998186394000001
 40
1.0
 40
1.0
 40
1.0
 40
1.0
 10
56.92716191500003
 20
57.02845424000002
 30
0.0
 10
56.99498313950003
 20
57.02845779229999
 30
0.0
 10
57.13121193780004
 20
57.04550980139996
 30
0.0
 10
57.2589373625
 20
57.0958515629
 30
0.0
 10
57.31851195150003
 20
57.12836717999998
 30
0.0
  0
SPLINE
  5
93870
330
1F
100
AcDbEntity
  8
1
100
AcDbSpline
210
0.0
220
0.0
230
1.0
 70
     8
 71
     3
 72
     9
 73
     5
 74
     0
 42
0.000000001
 43
0.0000000001
 40
0.0
 40
0.0
 40
0.0
 40
0.0
 40
0.4998088258
 40
1.0
 40
1.0
 40
1.0
 40
1.0
 10
57.4750785734
 20
57.16833734859999
 30
0.0
 10
57.44794602140004
 20
57.16833986900001
 30
0.0
 10
57.39344476510004
 20
57.16151577850003
 30
0.0
 10
57.34234629100004
 20
57.14137588510003
 30
0.0
 10
57.31851195150003
 20
57.12836717999998
 30
0.0
  0
SPLINE
  5
93871
330
1F
100
AcDbEntity
  8
1
100
AcDbSpline
210
0.0
220
0.0
230
1.0
 70
     8
 71
     3
 72
    23
 73
    19
 74
     0
 42
0.000000001
 43
0.0000000001
 40
0.0
 40
0.0
 40
0.0
 40
0.0
 40
0.0622940519
 40
0.1246030292
 40
0.186940525
 40
0.2493176198
 40
0.3117419092
 40
0.3742168395
 40
0.4367414122000002
 40
0.4993102793000002
 40
0.5619142164000001
 40
0.6245409377000001
 40
0.6871761679999999
 40
0.749804942
 40
0.8124126254
 40
0.8749874436
 40
0.9375169845999998
 40
1.0
 40
1.0
 40
1.0
 40
1.0
 10
56.26506137610004
 20
59.1640186484
 30
0.0
 10
56.4348981921
 20
59.16402157750001
 30
0.0
 10
56.77515868069999
 20
59.13855994750001
 30
0.0
 10
57.273835735
 20
59.02484622540002
 30
0.0
 10
57.75037145310003
 20
58.83811389479999
 30
0.0
 10
58.1941061642
 20
58.5824912145
 30
0.0
 10
58.5952956651
 20
58.26362257430002
 30
0.0
 10
58.94508678830003
 20
57.88854657569999
 30
0.0
 10
59.23577578630002
 20
57.46553842869996
 30
0.0
 10
59.46095966160001
 20
57.0039270171
 30
0.0
 10
59.61568017770001
 20
56.51388894910002
 30
0.0
 10
59.69653130899999
 20
56.00622501470001
 30
0.0
 10
59.70173614230001
 20
55.49212294940002
 30
0.0
 10
59.63117719300001
 20
54.98290957950001
 30
0.0
 10
59.4864186051
 20
54.48980977170002
 30
0.0
 10
59.2706106816
 20
54.02367259980001
 30
0.0
 10
58.98862242629999
 20
53.59486180359997
 30
0.0
 10
58.760283326
 20
53.33983028959998
 30
0.0
 10
58.63754284770003
 20
53.2217007877
 30
0.0
  0
SPLINE
  5
93872
330
1F
100
AcDbEntity
  8
1
100
AcDbSpline
210
0.0
220
0.0
230
1.0
 70
     8
 71
     3
 72
     9
 73
     5
 74
     0
 42
0.000000001
 43
0.0000000001
 40
0.0
 40
0.0
 40
0.0
 40
0.0
 40
0.4997309727000001
 40
1.0
 40
1.0
 40
1.0
 40
1.0
 10
57.38007486300003
 20
52.45127510959996
 30
0.0
 10
57.61363176280005
 20
52.53196900490003
 30
0.0
 10
58.06476224350004
 20
52.74491930869998
 30
0.0
 10
58.45931010320001
 20
53.05016369069999
 30
0.0
 10
58.63754284770003
 20
53.2217007877
 30
0.0
  0
SPLINE
  5
93873
330
1F
100
AcDbEntity
  8
1
100
AcDbSpline
210
0.0
220
0.0
230
1.0
 70
     8
 71
     3
 72
    11
 73
     7
 74
     0
 42
0.000000001
 43
0.0000000001
 40
0.0
 40
0.0
 40
0.0
 40
0.0
 40
0.2496942371
 40
0.4996232642000001
 40
0.7497530204000002
 40
1.0
 40
1.0
 40
1.0
 40
1.0
 10
53.89257990440004
 20
58.20633811809999
 30
0.0
 10
53.7347949875
 20
58.05448068769996
 30
0.0
 10
53.44745047720002
 20
57.71950452010003
 30
0.0
 10
53.11997527159999
 20
57.14485229570001
 30
0.0
 10
52.90689570629999
 20
56.51819878420003
 30
0.0
 10
52.84639153069999
 20
56.08039038030007
 30
0.0
 10
52.83708153260002
 20
55.86111283990003
 30
0.0
  0
SPLINE
  5
93874
330
1F
100
AcDbEntity
  8
1
100
AcDbSpline
210
0.0
220
0.0
230
1.0
 70
     8
 71
     3
 72
    11
 73
     7
 74
     0
 42
0.000000001
 43
0.0000000001
 40
0.0
 40
0.0
 40
0.0
 40
0.0
 40
0.2502986171999999
 40
0.5003484797
 40
0.750222939
 40
1.0
 40
1.0
 40
1.0
 40
1.0
 10
53.89257990440004
 20
58.20633811809999
 30
0.0
 10
54.04997006020002
 20
58.35781561740002
 30
0.0
 10
54.39443633930003
 20
58.63126218659997
 30
0.0
 10
54.9788065109
 20
58.93504656520001
 30
0.0
 10
55.60986948120003
 20
59.12197875639996
 30
0.0
 10
56.04707412540003
 20
59.1640148889
 30
0.0
 10
56.26506137610004
 20
59.1640186484
 30
0.0
  0
SPLINE
  5
93875
330
1F
100
AcDbEntity
  8
1
100
AcDbSpline
210
0.0
220
0.0
230
1.0
 70
     8
 71
     3
 72
    11
 73
     7
 74
     0
 42
0.000000001
 43
0.0000000001
 40
0.0
 40
0.0
 40
0.0
 40
0.0
 40
0.2496920015
 40
0.4996205074000001
 40
0.7497541165000003
 40
1.0
 40
1.0
 40
1.0
 40
1.0
 10
54.69014077050005
 20
57.41241472630001
 30
0.0
 10
54.57974211820001
 20
57.30616340660002
 30
0.0
 10
54.37921355410001
 20
57.07118342770001
 30
0.0
 10
54.1531116856
 20
56.66722961930002
 30
0.0
 10
54.00957266290001
 20
56.22676701979997
 30
0.0
 10
53.97270101120003
 20
55.91961196999999
 30
0.0
 10
53.96931877440002
 20
55.76608660240002
 30
0.0
  0
SPLINE
  5
93876
330
1F
100
AcDbEntity
  8
1
100
AcDbSpline
210
0.0
220
0.0
230
1.0
 70
     8
 71
     3
 72
    11
 73
     7
 74
     0
 42
0.000000001
 43
0.0000000001
 40
0.0
 40
0.0
 40
0.0
 40
0.0
 40
0.2498302116
 40
0.4996745558
 40
0.7496896676000003
 40
1.0
 40
1.0
 40
1.0
 40
1.0
 10
55.78388380759996
 20
53.42257807180001
 30
0.0
 10
55.97120260020003
 20
53.37935575440003
 30
0.0
 10
56.35832481120003
 20
53.3394136785
 30
0.0
 10
56.93473381730004
 20
53.42442590590001
 30
0.0
 10
57.47297664970003
 20
53.6484482997
 30
0.0
 10
57.78482701470003
 20
53.8820598881
 30
0.0
 10
57.92360475220002
 20
54.01562417950003
 30
0.0
  0
SPLINE
  5
93877
330
1F
100
AcDbEntity
  8
1
100
AcDbSpline
210
0.0
220
0.0
230
1.0
 70
     8
 71
     3
 72
    15
 73
    11
 74
     0
 42
0.000000001
 43
0.0000000001
 40
0.0
 40
0.0
 40
0.0
 40
0.0
 40
0.1250244541
 40
0.2501248302
 40
0.37527125
 40
0.5004037052000001
 40
0.6254749111
 40
0.7504467277
 40
0.8752853109
 40
1.0
 40
1.0
 40
1.0
 40
1.0
 10
57.75639056340001
 20
56.6683707372
 30
0.0
 10
57.72892248880001
 20
56.62240663070003
 30
0.0
 10
57.68281894460002
 20
56.52482348959999
 30
0.0
 10
57.6433291351
 20
56.36803006690001
 30
0.0
 10
57.6348046308
 20
56.20646042529997
 30
0.0
 10
57.65762266280003
 20
56.04630931159999
 30
0.0
 10
57.71089388529998
 20
55.89364126709999
 30
0.0
 10
57.79262954660001
 20
55.75425239490003
 30
0.0
 10
57.89965346399998
 20
55.63347020180002
 30
0.0
 10
57.9853727388
 20
55.5682874825
 30
0.0
 10
58.03084350080005
 20
55.54026224580002
 30
0.0
  0
SPLINE
  5
93878
330
1F
100
AcDbEntity
  8
1
100
AcDbSpline
210
0.0
220
0.0
230
1.0
 70
     8
 71
     3
 72
     9
 73
     5
 74
     0
 42
0.000000001
 43
0.0000000001
 40
0.0
 40
0.0
 40
0.0
 40
0.0
 40
0.5005292913
 40
1.0
 40
1.0
 40
1.0
 40
1.0
 10
56.02151558429998
 20
57.45342898419997
 30
0.0
 10
56.00114428380003
 20
57.49038410429999
 30
0.0
 10
55.94563593050001
 20
57.55698800409998
 30
0.0
 10
55.86892407960002
 20
57.59744638639999
 30
0.0
 10
55.82860175930004
 20
57.6095813466
 30
0.0
  0
SPLINE
  5
93879
330
1F
100
AcDbEntity
  8
1
100
AcDbSpline
210
0.0
220
0.0
230
1.0
 70
     8
 71
     3
 72
    11
 73
     7
 74
     0
 42
0.000000001
 43
0.0000000001
 40
0.0
 40
0.0
 40
0.0
 40
0.0
 40
0.249615292
 40
0.4994129842000001
 40
0.7495122954000001
 40
1.0
 40
1.0
 40
1.0
 40
1.0
 10
56.73901067929996
 20
57.02845788630002
 30
0.0
 10
56.66643493090001
 20
57.02845607709996
 30
0.0
 10
56.5204887367
 20
57.0480574843
 30
0.0
 10
56.31759786220001
 20
57.13425076169999
 30
0.0
 10
56.14433766850002
 20
57.27093464180001
 30
0.0
 10
56.05667435530003
 20
57.3896482448
 30
0.0
 10
56.02151558429998
 20
57.45342898419997
 30
0.0
  0
SPLINE
  5
9387A
330
1F
100
AcDbEntity
  8
1
100
AcDbSpline
210
0.0
220
0.0
230
1.0
 70
     8
 71
     3
 72
    15
 73
    11
 74
     0
 42
0.000000001
 43
0.0000000001
 40
0.0
 40
0.0
 40
0.0
 40
0.0
 40
0.1250860605
 40
0.250271331
 40
0.3754753388
 40
0.5006392242000001
 40
0.6256979620000001
 40
0.7506130420999999
 40
0.8753737545999998
 40
1.0
 40
1.0
 40
1.0
 40
1.0
 10
57.56823932950002
 20
56.6683707372
 30
0.0
 10
57.58104186210002
 20
56.68979404350004
 30
0.0
 10
57.60185165100003
 20
56.7357427406
 30
0.0
 10
57.61674226300002
 20
56.80978858729996
 30
0.0
 10
57.61464727069998
 20
56.88533945369997
 30
0.0
 10
57.5956560667
 20
56.95846036179999
 30
0.0
 10
57.56074820839995
 20
57.02539590140002
 30
0.0
 10
57.51170633540002
 20
57.08269562379999
 30
0.0
 10
57.45110192640002
 20
57.12738758190003
 30
0.0
 10
57.40493358590001
 20
57.14727755810002
 30
0.0
 10
57.38112578410003
 20
57.15445255680002
 30
0.0
  0
SPLINE
  5
9387B
330
1F
100
AcDbEntity
  8
1
100
AcDbSpline
210
0.0
220
0.0
230
1.0
 70
     8
 71
     3
 72
    15
 73
    11
 74
     0
 42
0.000000001
 43
0.0000000001
 40
0.0
 40
0.0
 40
0.0
 40
0.0
 40
0.1247109613
 40
0.249554526
 40
0.3745246532
 40
0.4995962918
 40
0.6247291832000002
 40
0.7498739091
 40
0.8749792829999998
 40
1.0
 40
1.0
 40
1.0
 40
1.0
 10
57.8426922669
 20
55.54026224580002
 30
0.0
 10
57.79722281260004
 20
55.56828667649999
 30
0.0
 10
57.71150413080003
 20
55.63347080999999
 30
0.0
 10
57.60447628110004
 20
55.75424971069995
 30
0.0
 10
57.52274196650003
 20
55.89364153090001
 30
0.0
 10
57.46946853450001
 20
56.04630860299997
 30
0.0
 10
57.4466529108
 20
56.2064598677
 30
0.0
 10
57.45517486800006
 20
56.36803151310004
 30
0.0
 10
57.4946696752
 20
56.52482382679997
 30
0.0
 10
57.54077204480005
 20
56.62240795249998
 30
0.0
 10
57.56823932950002
 20
56.6683707372
 30
0.0
  0
SPLINE
  5
9387C
330
1F
100
AcDbEntity
  8
1
100
AcDbSpline
210
0.0
220
0.0
230
1.0
 70
     8
 71
     3
 72
    15
 73
    11
 74
     0
 42
0.000000001
 43
0.0000000001
 40
0.0
 40
0.0
 40
0.0
 40
0.0
 40
0.1251694004
 40
0.250415789
 40
0.3756784782
 40
0.5008526875000002
 40
0.6258739863000004
 40
0.7507162538
 40
0.8754019187
 40
1.0
 40
1.0
 40
1.0
 40
1.0
 10
57.75639056340001
 20
56.6683707372
 30
0.0
 10
57.77123132999998
 20
56.69320475240003
 30
0.0
 10
57.79446944300005
 20
56.74707716330003
 30
0.0
 10
57.8070644007
 20
56.83395775460001
 30
0.0
 10
57.79671766439999
 20
56.92119131049996
 30
0.0
 10
57.76408583750001
 20
57.00268465560004
 30
0.0
 10
57.71143870720003
 20
57.0728126677
 30
0.0
 10
57.64238469390003
 20
57.12670444690001
 30
0.0
 10
57.56178485519999
 20
57.16062200070004
 30
0.0
 10
57.50387707270002
 20
57.16833467350006
 30
0.0
 10
57.4750785734
 20
57.16833734859999
 30
0.0
  0
SPLINE
  5
9387D
330
1F
100
AcDbEntity
  8
1
100
AcDbSpline
210
0.0
220
0.0
230
1.0
 70
     8
 71
     3
 72
    15
 73
    11
 74
     0
 42
0.000000001
 43
0.0000000001
 40
0.0
 40
0.0
 40
0.0
 40
0.0
 40
0.125336195
 40
0.2506180829
 40
0.3758020535
 40
0.50086343
 40
0.6257926877000001
 40
0.7506022611
 40
0.8753145052
 40
1.0
 40
1.0
 40
1.0
 40
1.0
 10
56.83105307680003
 20
54.12591451869996
 30
0.0
 10
56.83243879890003
 20
54.17889179900003
 30
0.0
 10
56.8454318502
 20
54.28483718299997
 30
0.0
 10
56.89484257910002
 20
54.43684237990003
 30
0.0
 10
56.97235208010003
 20
54.57656037130004
 30
0.0
 10
57.07508453250003
 20
54.69872394369996
 30
0.0
 10
57.1992252126
 20
54.79881214510005
 30
0.0
 10
57.34018436630001
 20
54.8730889184
 30
0.0
 10
57.49265254770003
 20
54.91880412950003
 30
0.0
 10
57.5983903368
 20
54.9290819715
 30
0.0
 10
57.65111060400002
 20
54.92908647420001
 30
0.0
  0
SPLINE
  5
9387E
330
1F
100
AcDbEntity
  8
1
100
AcDbSpline
210
0.0
220
0.0
230
1.0
 70
     8
 71
     3
 72
    11
 73
     7
 74
     0
 42
0.000000001
 43
0.0000000001
 40
0.0
 40
0.0
 40
0.0
 40
0.0
 40
0.2504834789
 40
0.5005896864000002
 40
0.7503866725
 40
1.0
 40
1.0
 40
1.0
 40
1.0
 10
56.20966681810003
 20
57.45342898419997
 30
0.0
 10
56.24482502359999
 20
57.38964927089999
 30
0.0
 10
56.33248997279998
 20
57.27093680789998
 30
0.0
 10
56.50574626150003
 20
57.13424463879999
 30
0.0
 10
56.70864309269996
 20
57.04806405060002
 30
0.0
 10
56.85458668110001
 20
57.02845043870002
 30
0.0
 10
56.92716191500003
 20
57.02845424000002
 30
0.0
  0
SPLINE
  5
9387F
330
1F
100
AcDbEntity
  8
1
100
AcDbSpline
210
0.0
220
0.0
230
1.0
 70
     8
 71
     3
 72
     9
 73
     5
 74
     0
 42
0.000000001
 43
0.0000000001
 40
0.0
 40
0.0
 40
0.0
 40
0.0
 40
0.5001905236000001
 40
1.0
 40
1.0
 40
1.0
 40
1.0
 10
55.10708233740004
 20
54.29967172579999
 30
0.0
 10
55.16665797259996
 20
54.33218791389997
 30
0.0
 10
55.29438289819998
 20
54.38253134829999
 30
0.0
 10
55.43061244579996
 20
54.39957932890003
 30
0.0
 10
55.49843237560001
 20
54.39958101950002
 30
0.0
  0
SPLINE
  5
93880
330
1F
100
AcDbEntity
  8
1
100
AcDbSpline
210
0.0
220
0.0
230
1.0
 70
     8
 71
     3
 72
    15
 73
    11
 74
     0
 42
0.000000001
 43
0.0000000001
 40
0.0
 40
0.0
 40
0.0
 40
0.0
 40
0.1246304384
 40
0.2493699612
 40
0.3743252833
 40
0.499483901
 40
0.6247566023
 40
0.7500077536000001
 40
0.8751047216999998
 40
1.0
 40
1.0
 40
1.0
 40
1.0
 10
57.85933133969999
 20
54.9289111615
 30
0.0
 10
57.89462674469999
 20
54.928915015
 30
0.0
 10
57.96578204700002
 20
54.94057249069999
 30
0.0
 10
58.06096495339997
 20
54.99120794389999
 30
0.0
 10
58.13524043539999
 20
55.06967593749998
 30
0.0
 10
58.18078038220003
 20
55.16779128239999
 30
0.0
 10
58.19291034359999
 20
55.2753560882
 30
0.0
 10
58.17035661130001
 20
55.38122953250002
 30
0.0
 10
58.11555457620002
 20
55.47435490090002
 30
0.0
 10
58.0609542183
 20
55.52170394709996
 30
0.0
 10
58.03084350080005
 20
55.54026224580002
 30
0.0
  0
SPLINE
  5
93881
330
1F
100
AcDbEntity
  8
1
100
AcDbSpline
210
0.0
220
0.0
230
1.0
 70
     8
 71
     3
 72
    15
 73
    11
 74
     0
 42
0.000000001
 43
0.0000000001
 40
0.0
 40
0.0
 40
0.0
 40
0.0
 40
0.1246438697
 40
0.2493836577
 40
0.3743425564
 40
0.4995020732000003
 40
0.6247718644
 40
0.7500187151000001
 40
0.875106614
 40
1.0
 40
1.0
 40
1.0
 40
1.0
 10
57.67617750030003
 20
54.92895034130002
 30
0.0
 10
57.71126751060005
 20
54.9294946909
 30
0.0
 10
57.78182338270003
 20
54.94209180350002
 30
0.0
 10
57.87580336179999
 20
54.99360227120003
 30
0.0
 10
57.94881565380004
 20
55.0723651957
 30
0.0
 10
57.9932389724
 20
55.17027740350004
 30
0.0
 10
58.00459706609996
 20
55.27727072489998
 30
0.0
 10
57.98167041740001
 20
55.38239414940004
 30
0.0
 10
57.92694196900001
 20
55.47480354310003
 30
0.0
 10
57.8726276829
 20
55.52181199160003
 30
0.0
 10
57.8426922669
 20
55.54026224580002
 30
0.0
  0
SPLINE
  5
93882
330
1F
100
AcDbEntity
  8
1
100
AcDbSpline
210
0.0
220
0.0
230
1.0
 70
     8
 71
     3
 72
    15
 73
    11
 74
     0
 42
0.000000001
 43
0.0000000001
 40
0.0
 40
0.0
 40
0.0
 40
0.0
 40
0.1246842477
 40
0.2493945342
 40
0.3742054064
 40
0.4991349038
 40
0.6241960857
 40
0.7493825705
 40
0.8746592648999998
 40
1.0
 40
1.0
 40
1.0
 40
1.0
 10
57.83926182590001
 20
54.92908662789999
 30
0.0
 10
57.78654214740001
 20
54.92908319959997
 30
0.0
 10
57.68080568640002
 20
54.91880420020001
 30
0.0
 10
57.52833922210001
 20
54.87308786100006
 30
0.0
 10
57.38737939729997
 20
54.79881292069999
 30
0.0
 10
57.26323928960002
 20
54.69872355900005
 30
0.0
 10
57.16050391770004
 20
54.57656111400003
 30
0.0
 10
57.0829976505
 20
54.43684303540003
 30
0.0
 10
57.03358145530003
 20
54.284839142
 30
0.0
 10
57.02059008130001
 20
54.17889365630002
 30
0.0
 10
57.01920431070004
 20
54.12591451869996
 30
0.0
  0
SPLINE
  5
93883
330
1F
100
AcDbEntity
  8
1
100
AcDbSpline
210
0.0
220
0.0
230
1.0
 70
     8
 71
     3
 72
    11
 73
     7
 74
     0
 42
0.000000001
 43
0.0000000001
 40
0.0
 40
0.0
 40
0.0
 40
0.0
 40
0.2504908634
 40
0.5005858159000001
 40
0.7503873364000003
 40
1.0
 40
1.0
 40
1.0
 40
1.0
 10
56.20966681810003
 20
57.45342898419997
 30
0.0
 10
56.19560075950002
 20
57.47894590619999
 30
0.0
 10
56.16053043170004
 20
57.52644018609998
 30
0.0
 10
56.0912120687
 20
57.58112000980002
 30
0.0
 10
56.01004303679999
 20
57.6156045207
 30
0.0
 10
55.9516548746
 20
57.6234458343
 30
0.0
 10
55.92261998289998
 20
57.6234477748
 30
0.0
  0
SPLINE
  5
93884
330
1F
100
AcDbEntity
  8
1
100
AcDbSpline
210
0.0
220
0.0
230
1.0
 70
     8
 71
     3
 72
    11
 73
     7
 74
     0
 42
0.000000001
 43
0.0000000001
 40
0.0
 40
0.0
 40
0.0
 40
0.0
 40
0.2493755305
 40
0.4991112164000004
 40
0.7493606683000003
 40
1.0
 40
1.0
 40
1.0
 40
1.0
 10
56.69112553980003
 20
53.80459113100005
 30
0.0
 10
56.7331131681
 20
53.80458832480001
 30
0.0
 10
56.81804517929997
 20
53.8212205611
 30
0.0
 10
56.92594846390004
 20
53.89238052659997
 30
0.0
 10
56.99940616400002
 20
53.99896621179998
 30
0.0
 10
57.0181008556
 20
54.08372853170003
 30
0.0
 10
57.01920431070004
 20
54.12591451869996
 30
0.0
  0
SPLINE
  5
93885
330
1F
100
AcDbEntity
  8
1
100
AcDbSpline
210
0.0
220
0.0
230
1.0
 70
     8
 71
     3
 72
    11
 73
     7
 74
     0
 42
0.000000001
 43
0.0000000001
 40
0.0
 40
0.0
 40
0.0
 40
0.0
 40
0.2494321702
 40
0.4992633889000003
 40
0.7494789283
 40
1.0
 40
1.0
 40
1.0
 40
1.0
 10
56.597192433
 20
53.818483714
 30
0.0
 10
56.62991265690003
 20
53.82834046480001
 30
0.0
 10
56.69271661710005
 20
53.85865508260001
 30
0.0
 10
56.76798474240005
 20
53.93088072120001
 30
0.0
 10
56.81754529470001
 20
54.02283238729999
 30
0.0
 10
56.83015563120003
 20
54.09160444320001
 30
0.0
 10
56.83105307680003
 20
54.12591451869996
 30
0.0
  0
SPLINE
  5
93886
330
1F
100
AcDbEntity
  8
1
100
AcDbSpline
210
0.0
220
0.0
230
1.0
 70
     8
 71
     3
 72
     9
 73
     5
 74
     0
 42
0.000000001
 43
0.0000000001
 40
0.0
 40
0.0
 40
0.0
 40
0.0
 40
0.4998186394000001
 40
1.0
 40
1.0
 40
1.0
 40
1.0
 10
55.68658360769996
 20
54.39958466580002
 30
0.0
 10
55.61876238319999
 20
54.39958111349999
 30
0.0
 10
55.48253358490003
 20
54.38252910440001
 30
0.0
 10
55.3548081602
 20
54.33218734289997
 30
0.0
 10
55.29523357120003
 20
54.29967172579999
 30
0.0
  0
SPLINE
  5
93887
330
1F
100
AcDbEntity
  8
1
100
AcDbSpline
210
0.0
220
0.0
230
1.0
 70
     8
 71
     3
 72
    27
 73
    23
 74
     0
 42
0.000000001
 43
0.0000000001
 40
0.0
 40
0.0
 40
0.0
 40
0.0
 40
0.062442188
 40
0.0936748499
 40
0.1248957099
 40
0.1872302589
 40
0.2495417129
 40
0.280734838
 40
0.3119320409
 40
0.3742747638
 40
0.4366669789000003
 40
0.4991221560000004
 40
0.5616442224
 40
0.6242269160000001
 40
0.6868547205
 40
0.718216178
 40
0.7495801259000002
 40
0.8122278889
 40
0.8748475579
 40
0.9061773237999998
 40
0.9374909068
 40
1.0
 40
1.0
 40
1.0
 40
1.0
 10
54.69014077050005
 20
57.41241472630001
 30
0.0
 10
54.8004581904
 20
57.51858786530004
 30
0.0
 10
54.98229869880001
 20
57.6620880936
 30
0.0
 10
55.24832793319998
 20
57.8145145557
 30
0.0
 10
55.52787084230002
 20
57.94004633300001
 30
0.0
 10
55.89830807640002
 20
58.04428564550001
 30
0.0
 10
56.28195222739996
 20
58.07370682039998
 30
0.0
 10
56.58737884490004
 20
58.05184646829999
 30
0.0
 10
56.88924278640005
 20
58.00004087690004
 30
0.0
 10
57.25498898610002
 20
57.87965198310003
 30
0.0
 10
57.65692240519999
 20
57.65203830659998
 30
0.0
 10
58.00702948339997
 20
57.34995925629998
 30
0.0
 10
58.29174647940003
 20
56.98501337970005
 30
0.0
 10
58.50018677240004
 20
56.57135163539997
 30
0.0
 10
58.60369321100003
 20
56.19888693810001
 30
0.0
 10
58.64194160909997
 20
55.89348260619998
 30
0.0
 10
58.65029309640002
 20
55.585748801
 30
0.0
 10
58.60430976080003
 20
55.2018248493
 30
0.0
 10
58.4845785232
 20
54.83425412289999
 30
0.0
 10
58.34759300660003
 20
54.55884412470003
 30
0.0
 10
58.1846088275
 20
54.29841247839997
 30
0.0
 10
58.03404037449999
 20
54.12191108040001
 30
0.0
 10
57.92360475220002
 20
54.01562417950003
 30
0.0
  0
SPLINE
  5
93888
330
1F
100
AcDbEntity
  8
1
100
AcDbSpline
210
0.0
220
0.0
230
1.0
 70
     8
 71
     3
 72
     9
 73
     5
 74
     0
 42
0.000000001
 43
0.0000000001
 40
0.0
 40
0.0
 40
0.0
 40
0.0
 40
0.4998088258
 40
1.0
 40
1.0
 40
1.0
 40
1.0
 10
55.13866694929999
 20
54.25970155719999
 30
0.0
 10
55.16579950130003
 20
54.25969903679996
 30
0.0
 10
55.22030075760003
 20
54.26652312729999
 30
0.0
 10
55.27139923170003
 20
54.28666302070003
 30
0.0
 10
55.29523357120003
 20
54.29967172579999
 30
0.0
  0
SPLINE
  5
93889
330
1F
100
AcDbEntity
  8
1
100
AcDbSpline
210
0.0
220
0.0
230
1.0
 70
     8
 71
     3
 72
     8
 73
     4
 74
     0
 42
0.000000001
 43
0.0000000001
 40
0.0
 40
0.0
 40
0.0
 40
0.0
 40
1.0
 40
1.0
 40
1.0
 40
1.0
 10
55.04441552609995
 20
54.27349688310004
 30
0.0
 10
55.06609565359999
 20
54.28001182530003
 30
0.0
 10
55.08721152540002
 20
54.28882630119999
 30
0.0
 10
55.10708233740004
 20
54.29967172579999
 30
0.0
  0
SPLINE
  5
9388A
330
1F
100
AcDbEntity
  8
1
100
AcDbSpline
210
0.0
220
0.0
230
1.0
 70
     8
 71
     3
 72
     9
 73
     5
 74
     0
 42
0.000000001
 43
0.0000000001
 40
0.0
 40
0.0
 40
0.0
 40
0.0
 40
0.2522411209
 40
1.0
 40
1.0
 40
1.0
 40
1.0
 10
63.50000000000003
 20
61.73220603309998
 30
0.0
 10
63.49961609530001
 20
61.62452089970003
 30
0.0
 10
63.49727614710005
 20
61.19761079430002
 30
0.0
 10
63.49163175420002
 20
60.77071831250002
 30
0.0
 10
63.48549073910001
 20
60.451547015
 30
0.0
  0
SPLINE
  5
9388B
330
1F
100
AcDbEntity
  8
1
100
AcDbSpline
210
0.0
220
0.0
230
1.0
 70
     8
 71
     3
 72
    15
 73
    11
 74
     0
 42
0.000000001
 43
0.0000000001
 40
0.0
 40
0.0
 40
0.0
 40
0.0
 40
0.1258918786
 40
0.2515382791
 40
0.3767836997
 40
0.5015604625
 40
0.6260310766
 40
0.7504233070000002
 40
0.8749965882999999
 40
1.0
 40
1.0
 40
1.0
 40
1.0
 10
63.50000000000003
 20
61.73220603309998
 30
0.0
 10
63.50017913870003
 20
61.78245439589999
 30
0.0
 10
63.49108042780002
 20
61.88314859440002
 30
0.0
 10
63.44936848720002
 20
62.02852799579999
 30
0.0
 10
63.3813808312
 20
62.16318097679996
 30
0.0
 10
63.28960330660001
 20
62.28229731319999
 30
0.0
 10
63.17718335949999
 20
62.38166925539999
 30
0.0
 10
63.04794564179999
 20
62.45777771500002
 30
0.0
 10
62.90638918830004
 20
62.5078432998
 30
0.0
 10
62.8071301527
 20
62.5225566857
 30
0.0
 10
62.75730225999999
 20
62.52512536830002
 30
0.0
  0
SPLINE
  5
9388C
330
1F
100
AcDbEntity
  8
1
100
AcDbSpline
210
0.0
220
0.0
230
1.0
 70
     8
 71
     3
 72
     9
 73
     5
 74
     0
 42
0.000000001
 43
0.0000000001
 40
0.0
 40
0.0
 40
0.0
 40
0.0
 40
0.2501265367
 40
1.0
 40
1.0
 40
1.0
 40
1.0
 10
61.47474619780004
 20
62.5903872041
 30
0.0
 10
61.58168353890002
 20
62.58501654490004
 30
0.0
 10
62.00921293450003
 20
62.56347367420004
 30
0.0
 10
62.4367282496
 20
62.54165131069999
 30
0.0
 10
62.75730225999999
 20
62.52512536830002
 30
0.0
  0
SPLINE
  5
9388D
330
1F
100
AcDbEntity
  8
1
100
AcDbSpline
210
0.0
220
0.0
230
1.0
 70
     8
 71
     3
 72
     9
 73
     5
 74
     0
 42
0.000000001
 43
0.0000000001
 40
0.0
 40
0.0
 40
0.0
 40
0.0
 40
0.2480570521
 40
1.0
 40
1.0
 40
1.0
 40
1.0
 10
54.97128804329998
 20
62.74883846799998
 30
0.0
 10
55.50463536560002
 20
62.7359662793
 30
0.0
 10
57.65473617580003
 20
62.68413206040001
 30
0.0
 10
59.80482541050005
 20
62.63181864690007
 30
0.0
 10
61.42156711070001
 20
62.59237060729997
 30
0.0
  0
SPLINE
  5
9388E
330
1F
100
AcDbEntity
  8
1
100
AcDbSpline
210
0.0
220
0.0
230
1.0
 70
     8
 71
     3
 72
    11
 73
     7
 74
     0
 42
0.000000001
 43
0.0000000001
 40
0.0
 40
0.0
 40
0.0
 40
0.0
 40
0.1243917079
 40
0.2489598433
 40
0.4986686692000001
 40
1.0
 40
1.0
 40
1.0
 40
1.0
 10
53.65083194990003
 20
62.56233039219999
 30
0.0
 10
53.56400569920001
 20
62.51588410210001
 30
0.0
 10
53.39009940230003
 20
62.42317011240004
 30
0.0
 10
53.04197450320001
 20
62.23706851540002
 30
0.0
 10
52.43082387229996
 20
61.9100715868
 30
0.0
 10
51.90691563050004
 20
61.62903951139997
 30
0.0
 10
51.55730610039999
 20
61.44124594949999
 30
0.0
  0
LINE
  5
9388F
330
1F
100
AcDbEntity
  8
1
100
AcDbLine
 10
48.41631348550001
 20
59.74747160440004
 30
0.0
 11
47.98080023220004
 21
59.51168060420001
 31
0.0
  0
SPLINE
  5
93890
330
1F
100
AcDbEntity
  8
1
100
AcDbSpline
210
0.0
220
0.0
230
1.0
 70
     8
 71
     3
 72
     9
 73
     5
 74
     0
 42
0.000000001
 43
0.0000000001
 40
0.0
 40
0.0
 40
0.0
 40
0.0
 40
0.2497981005
 40
1.0
 40
1.0
 40
1.0
 40
1.0
 10
47.93440739030003
 20
59.48576846320005
 30
0.0
 10
47.84171672670001
 20
59.43239198500002
 30
0.0
 10
47.47100866000002
 20
59.21809896490003
 30
0.0
 10
47.10169550309995
 20
59.00139245300001
 30
0.0
 10
46.82545701009999
 20
58.8374418281
 30
0.0
  0
SPLINE
  5
93891
330
1F
100
AcDbEntity
  8
1
100
AcDbSpline
210
0.0
220
0.0
230
1.0
 70
     8
 71
     3
 72
     9
 73
     5
 74
     0
 42
0.000000001
 43
0.0000000001
 40
0.0
 40
0.0
 40
0.0
 40
0.0
 40
0.5004232654000002
 40
1.0
 40
1.0
 40
1.0
 40
1.0
 10
46.82545701009999
 20
58.8374418281
 30
0.0
 10
46.78487879050002
 20
58.81335820240003
 30
0.0
 10
46.7079992447
 20
58.75775437909998
 30
0.0
 10
46.6424528464
 20
58.68916070880003
 30
0.0
 10
46.61310721439999
 20
58.65231074310003
 30
0.0
  0
SPLINE
  5
93892
330
1F
100
AcDbEntity
  8
1
100
AcDbSpline
210
0.0
220
0.0
230
1.0
 70
     8
 71
     3
 72
     9
 73
     5
 74
     0
 42
0.000000001
 43
0.0000000001
 40
0.0
 40
0.0
 40
0.0
 40
0.0
 40
0.2514500103
 40
1.0
 40
1.0
 40
1.0
 40
1.0
 10
46.57897688080001
 20
57.6936232139
 30
0.0
 10
46.6232276762
 20
57.6088313277
 30
0.0
 10
46.79971606749997
 20
57.27188391650003
 30
0.0
 10
46.97824086999998
 20
56.93600294650003
 30
0.0
 10
47.11303923370005
 20
56.68520741090002
 30
0.0
  0
SPLINE
  5
93893
330
1F
100
AcDbEntity
  8
1
100
AcDbSpline
210
0.0
220
0.0
230
1.0
 70
     8
 71
     3
 72
    13
 73
     9
 74
     0
 42
0.000000001
 43
0.0000000001
 40
0.0
 40
0.0
 40
0.0
 40
0.0
 40
0.0618662172
 40
0.1237918251
 40
0.2479507537
 40
0.4973639762
 40
0.7480865371
 40
1.0
 40
1.0
 40
1.0
 40
1.0
 10
62.99473990730004
 20
53.33705876660004
 30
0.0
 10
62.96750541170005
 20
53.28915986700001
 30
0.0
 10
62.9132701266
 20
53.19316860850005
 30
0.0
 10
62.80431621300002
 20
53.00108441819997
 30
0.0
 10
62.61283365659997
 20
52.66377644600003
 30
0.0
 10
62.33769919230004
 20
52.18060262539999
 30
0.0
 10
62.00544391949998
 20
51.59901957930002
 30
0.0
 10
61.7828426481
 20
51.21062260699999
 30
0.0
 10
61.67115374150004
 20
51.01603554220002
 30
0.0
  0
SPLINE
  5
93894
330
1F
100
AcDbEntity
  8
1
100
AcDbSpline
210
0.0
220
0.0
230
1.0
 70
     8
 71
     3
 72
    10
 73
     6
 74
     0
 42
0.000000001
 43
0.0000000001
 40
0.0
 40
0.0
 40
0.0
 40
0.0
 40
0.2504956211
 40
0.5018011071
 40
1.0
 40
1.0
 40
1.0
 40
1.0
 10
54.38176625400004
 20
62.74929936869998
 30
0.0
 10
54.31822676760001
 20
62.74929855619999
 30
0.0
 10
54.19075998320002
 20
62.74108489350003
 30
0.0
 10
53.9413366858
 20
62.6925249535
 30
0.0
 10
53.7622613563
 20
62.62193774009999
 30
0.0
 10
53.65083194990003
 20
62.56233039219999
 30
0.0
  0
SPLINE
  5
93895
330
1F
100
AcDbEntity
  8
1
100
AcDbSpline
210
0.0
220
0.0
230
1.0
 70
     8
 71
     3
 72
    19
 73
    15
 74
     0
 42
0.000000001
 43
0.0000000001
 40
0.0
 40
0.0
 40
0.0
 40
0.0
 40
0.1285388192
 40
0.1921897523
 40
0.2551317365
 40
0.2862676573
 40
0.3171685581
 40
0.3788823307
 40
0.4406745556000001
 40
0.502540726
 40
0.6264902725
 40
0.7507220686000001
 40
0.8752280015999998
 40
1.0
 40
1.0
 40
1.0
 40
1.0
 10
63.20357648749999
 20
54.09058894970002
 30
0.0
 10
63.20901375630004
 20
54.3611090525
 30
0.0
 10
63.21963924220003
 20
54.76554364450002
 30
0.0
 10
63.23881635680002
 20
55.30225694130002
 30
0.0
 10
63.25281632640005
 20
55.63398415470003
 30
0.0
 10
63.26518530059999
 20
55.89677465040002
 30
0.0
 10
63.27841709550003
 20
56.15693414009999
 30
0.0
 10
63.29493750140002
 20
56.4815410593
 30
0.0
 10
63.3145233726
 20
56.87125844429996
 30
0.0
 10
63.34046644679997
 20
57.39182812440002
 30
0.0
 10
63.3724915786
 20
58.04369331899998
 30
0.0
 10
63.41027234690002
 20
58.82729140190004
 30
0.0
 10
63.44741676409999
 20
59.61265311039999
 30
0.0
 10
63.47173393560004
 20
60.13682050380001
 30
0.0
 10
63.48378316190004
 20
60.3991895376
 30
0.0
  0
SPLINE
  5
93896
330
1F
100
AcDbEntity
  8
1
100
AcDbSpline
210
0.0
220
0.0
230
1.0
 70
     8
 71
     3
 72
     8
 73
     4
 74
     0
 42
0.000000001
 43
0.0000000001
 40
0.0
 40
0.0
 40
0.0
 40
0.0
 40
1.0
 40
1.0
 40
1.0
 40
1.0
 10
63.48549073910001
 20
60.451547015
 30
0.0
 10
63.48515482810004
 20
60.43408847450002
 30
0.0
 10
63.48458424470003
 20
60.4166329243
 30
0.0
 10
63.48378316190004
 20
60.3991895376
 30
0.0
  0
SPLINE
  5
93897
330
1F
100
AcDbEntity
  8
1
100
AcDbSpline
210
0.0
220
0.0
230
1.0
 70
     8
 71
     3
 72
     8
 73
     4
 74
     0
 42
0.000000001
 43
0.0000000001
 40
0.0
 40
0.0
 40
0.0
 40
0.0
 40
1.0
 40
1.0
 40
1.0
 40
1.0
 10
61.47474619780004
 20
62.5903872041
 30
0.0
 10
61.45702983960004
 20
62.59127696360001
 30
0.0
 10
61.43930051989997
 20
62.59193791709996
 30
0.0
 10
61.42156711070001
 20
62.59237060729997
 30
0.0
  0
SPLINE
  5
93898
330
1F
100
AcDbEntity
  8
1
100
AcDbSpline
210
0.0
220
0.0
230
1.0
 70
     8
 71
     3
 72
     8
 73
     4
 74
     0
 42
0.000000001
 43
0.0000000001
 40
0.0
 40
0.0
 40
0.0
 40
0.0
 40
1.0
 40
1.0
 40
1.0
 40
1.0
 10
47.98080023220004
 20
59.51168060420001
 30
0.0
 10
47.96522508589997
 20
59.50324477979999
 30
0.0
 10
47.94975717000002
 20
59.49460772650001
 30
0.0
 10
47.93440739030003
 20
59.48576846320005
 30
0.0
  0
SPLINE
  5
93899
330
1F
100
AcDbEntity
  8
1
100
AcDbSpline
210
0.0
220
0.0
230
1.0
 70
     8
 71
     3
 72
    10
 73
     6
 74
     0
 42
0.000000001
 43
0.0000000001
 40
0.0
 40
0.0
 40
0.0
 40
0.0
 40
0.4914203704000001
 40
0.7454102189000002
 40
1.0
 40
1.0
 40
1.0
 40
1.0
 10
62.99473990730004
 20
53.33705876660004
 30
0.0
 10
63.05859647140002
 20
53.44936703870001
 30
0.0
 10
63.13444321469996
 20
53.63274485259999
 30
0.0
 10
63.19082959440001
 20
53.88995453260001
 30
0.0
 10
63.20223149440002
 20
54.02367158999997
 30
0.0
 10
63.20357648749999
 20
54.09058894970002
 30
0.0
  0
SPLINE
  5
9389A
330
1F
100
AcDbEntity
  8
1
100
AcDbSpline
210
0.0
220
0.0
230
1.0
 70
     8
 71
     3
 72
    15
 73
    11
 74
     0
 42
0.000000001
 43
0.0000000001
 40
0.0
 40
0.0
 40
0.0
 40
0.0
 40
0.1307038809
 40
0.2579424596
 40
0.3197319543
 40
0.3810788457
 40
0.5040857668
 40
0.6274901417000001
 40
0.7512827351000002
 40
1.0
 40
1.0
 40
1.0
 40
1.0
 10
54.20339363210004
 20
62.56233039219999
 30
0.0
 10
53.96949926819999
 20
62.43224825880002
 30
0.0
 10
53.50869696319998
 20
62.17411909510001
 30
0.0
 10
52.93944353480006
 20
61.85072601519998
 30
0.0
 10
52.49514048850002
 20
61.59492755050003
 30
0.0
 10
52.05854391340003
 20
61.34311156869999
 30
0.0
 10
51.51245041249999
 20
61.02862038299996
 30
0.0
 10
50.8554117756
 20
60.65056077820003
 30
0.0
 10
49.9750085611
 20
60.14456416170002
 30
0.0
 10
49.31342335880001
 20
59.76493934729999
 30
0.0
 10
48.87157658800001
 20
59.51168060420001
 30
0.0
  0
SPLINE
  5
9389B
330
1F
100
AcDbEntity
  8
1
100
AcDbSpline
210
0.0
220
0.0
230
1.0
 70
     8
 71
     3
 72
     9
 73
     5
 74
     0
 42
0.000000001
 43
0.0000000001
 40
0.0
 40
0.0
 40
0.0
 40
0.0
 40
0.2535419861
 40
1.0
 40
1.0
 40
1.0
 40
1.0
 10
47.75300766239999
 20
58.8374418281
 30
0.0
 10
47.8440588827
 20
58.89186495030003
 30
0.0
 10
48.20296218710004
 20
59.1068734136
 30
0.0
 10
48.56099782330002
 20
59.32333071330003
 30
0.0
 10
48.82773042190004
 20
59.48576846320005
 30
0.0
  0
SPLINE
  5
9389C
330
1F
100
AcDbEntity
  8
1
100
AcDbSpline
210
0.0
220
0.0
230
1.0
 70
     8
 71
     3
 72
    15
 73
    11
 74
     0
 42
0.000000001
 43
0.0000000001
 40
0.0
 40
0.0
 40
0.0
 40
0.0
 40
0.1239257758
 40
0.2482183203
 40
0.3727435437
 40
0.4974889787
 40
0.6225785607
 40
0.7480662821
 40
0.8739186256999998
 40
1.0
 40
1.0
 40
1.0
 40
1.0
 10
47.75300766239999
 20
58.8374418281
 30
0.0
 10
47.71035774769996
 20
58.81194912729999
 30
0.0
 10
47.62962754010001
 20
58.75253454270001
 30
0.0
 10
47.52760743810003
 20
58.6421456529
 30
0.0
 10
47.44810574970003
 20
58.51412359560002
 30
0.0
 10
47.39411969070002
 20
58.37310811909997
 30
0.0
 10
47.36742970789999
 20
58.22411009020004
 30
0.0
 10
47.36894388489996
 20
58.07229912020002
 30
0.0
 10
47.39858611579999
 20
57.9230559506
 30
0.0
 10
47.43647209680003
 20
57.82867585009999
 30
0.0
 10
47.45957393779995
 20
57.7837110402
 30
0.0
  0
SPLINE
  5
9389D
330
1F
100
AcDbEntity
  8
1
100
AcDbSpline
210
0.0
220
0.0
230
1.0
 70
     8
 71
     3
 72
     9
 73
     5
 74
     0
 42
0.000000001
 43
0.0000000001
 40
0.0
 40
0.0
 40
0.0
 40
0.0
 40
0.2466058637
 40
1.0
 40
1.0
 40
1.0
 40
1.0
 10
48.0288417266
 20
56.64340902300001
 30
0.0
 10
47.98316804160001
 20
56.73769701040002
 30
0.0
 10
47.79678233659999
 20
57.11946906450002
 30
0.0
 10
47.60584323989997
 20
57.49901635549996
 30
0.0
 10
47.45957393779995
 20
57.7837110402
 30
0.0
  0
LINE
  5
9389E
330
1F
100
AcDbEntity
  8
1
100
AcDbLine
 10
48.29565950620002
 20
56.12504340300002
 30
0.0
 11
48.05200564609998
 21
56.59710617789999
 31
0.0
  0
SPLINE
  5
9389F
330
1F
100
AcDbEntity
  8
1
100
AcDbSpline
210
0.0
220
0.0
230
1.0
 70
     8
 71
     3
 72
     9
 73
     5
 74
     0
 42
0.000000001
 43
0.0000000001
 40
0.0
 40
0.0
 40
0.0
 40
0.0
 40
0.4994031114000001
 40
1.0
 40
1.0
 40
1.0
 40
1.0
 10
54.93309297110002
 20
62.74929949880003
 30
0.0
 10
54.80666919009999
 20
62.74929867810003
 30
0.0
 10
54.55238376420002
 20
62.71873800550001
 30
0.0
 10
54.31414375540001
 20
62.6239249174
 30
0.0
 10
54.20339363210004
 20
62.56233039219999
 30
0.0
  0
SPLINE
  5
938A0
330
1F
100
AcDbEntity
  8
1
100
AcDbSpline
210
0.0
220
0.0
230
1.0
 70
     8
 71
     3
 72
     8
 73
     4
 74
     0
 42
0.000000001
 43
0.0000000001
 40
0.0
 40
0.0
 40
0.0
 40
0.0
 40
1.0
 40
1.0
 40
1.0
 40
1.0
 10
48.0288417266
 20
56.64340902300001
 30
0.0
 10
48.03636533510005
 20
56.62787741200002
 30
0.0
 10
48.04408482370003
 20
56.61243902490003
 30
0.0
 10
48.05200564609998
 20
56.59710617789999
 30
0.0
  0
SPLINE
  5
938A1
330
1F
100
AcDbEntity
  8
1
100
AcDbSpline
210
0.0
220
0.0
230
1.0
 70
     8
 71
     3
 72
     8
 73
     4
 74
     0
 42
0.000000001
 43
0.0000000001
 40
0.0
 40
0.0
 40
0.0
 40
0.0
 40
1.0
 40
1.0
 40
1.0
 40
1.0
 10
48.82773042190004
 20
59.48576846320005
 30
0.0
 10
48.84223013269999
 20
59.49459865639997
 30
0.0
 10
48.85684768159999
 20
59.5032382559
 30
0.0
 10
48.87157658800001
 20
59.51168060420001
 30
0.0
  0
SPLINE
  5
938A2
330
1F
100
AcDbEntity
  8
1
100
AcDbSpline
210
0.0
220
0.0
230
1.0
 70
     8
 71
     3
 72
    12
 73
     8
 74
     0
 42
0.000000001
 43
0.0000000001
 40
0.0
 40
0.0
 40
0.0
 40
0.0
 40
0.2211756907
 40
0.3620555504
 40
0.5110360813
 40
0.7796248187999999
 40
1.0
 40
1.0
 40
1.0
 40
1.0
 10
58.94268923410002
 20
52.18619270579999
 30
0.0
 10
58.68017911009999
 20
52.17189867660001
 30
0.0
 10
58.24621239919997
 20
52.20317539519998
 30
0.0
 10
57.65493102330001
 20
52.34653367549999
 30
0.0
 10
57.03129080010004
 20
52.57819064970004
 30
0.0
 10
56.36500189199998
 20
52.94990940170002
 30
0.0
 10
55.90689535650003
 20
53.31074573450003
 30
0.0
 10
55.71258193589997
 20
53.486412399
 30
0.0
  0
SPLINE
  5
938A3
330
1F
100
AcDbEntity
  8
1
100
AcDbSpline
210
0.0
220
0.0
230
1.0
 70
     8
 71
     3
 72
    14
 73
    10
 74
     0
 42
0.000000001
 43
0.0000000001
 40
0.0
 40
0.0
 40
0.0
 40
0.0
 40
0.1869127721
 40
0.2934438411
 40
0.4104698883
 40
0.5391371893
 40
0.6802213512000001
 40
0.8339770601999999
 40
1.0
 40
1.0
 40
1.0
 40
1.0
 10
61.71258193589998
 20
50.61803131470004
 30
0.0
 10
61.71258193589998
 20
50.78006723190004
 30
0.0
 10
61.677784601
 20
51.03515297680001
 30
0.0
 10
61.57480270060003
 20
51.37605453789999
 30
0.0
 10
61.45773001760002
 20
51.65865414690004
 30
0.0
 10
61.3017871003
 20
51.95591726490004
 30
0.0
 10
61.10516348590002
 20
52.26641349819998
 30
0.0
 10
60.8670274432
 20
52.58759812340001
 30
0.0
 10
60.68735809969999
 20
52.79899756609999
 30
0.0
 10
60.59099147390006
 20
52.9059006873
 30
0.0
  0
SPLINE
  5
938A4
330
1F
100
AcDbEntity
  8
1
100
AcDbSpline
210
0.0
220
0.0
230
1.0
 70
     8
 71
     3
 72
     9
 73
     5
 74
     0
 42
0.000000001
 43
0.0000000001
 40
0.0
 40
0.0
 40
0.0
 40
0.0
 40
0.2571013295
 40
1.0
 40
1.0
 40
1.0
 40
1.0
 10
51.35477907280002
 20
61.81202341139997
 30
0.0
 10
51.34325361540001
 20
61.82042537640001
 30
0.0
 10
51.29849000170001
 20
61.85319389830002
 30
0.0
 10
51.25396764500002
 20
61.88629143540001
 30
0.0
 10
51.22100373750001
 20
61.91102751920002
 30
0.0
  0
SPLINE
  5
938A5
330
1F
100
AcDbEntity
  8
1
100
AcDbSpline
210
0.0
220
0.0
230
1.0
 70
     8
 71
     3
 72
    18
 73
    14
 74
     0
 42
0.000000001
 43
0.0000000001
 40
0.0
 40
0.0
 40
0.0
 40
0.0
 40
0.2106095981
 40
0.4007574152
 40
0.5678855928000001
 40
0.7097594748999999
 40
0.8245419906999998
 40
0.8713454170999998
 40
0.9109412861
 40
0.9433060148
 40
0.9685445959
 40
0.9870465235999999
 40
1.0
 40
1.0
 40
1.0
 40
1.0
 10
49.64793424360003
 20
62.22275960840001
 30
0.0
 10
49.55957361350002
 20
62.22851428100004
 30
0.0
 10
49.39152543030004
 20
62.2409142399
 30
0.0
 10
49.15380209150001
 20
62.26331532200003
 30
0.0
 10
48.94536906280003
 20
62.2879925358
 30
0.0
 10
48.76912063379997
 20
62.3142860592
 30
0.0
 10
48.64372435920003
 20
62.33820648449999
 30
0.0
 10
48.56155125540002
 20
62.35833542300001
 30
0.0
 10
48.5136126032
 20
62.3723993853
 30
0.0
 10
48.475162864
 20
62.38631714739998
 30
0.0
 10
48.44619318210002
 20
62.40017281900001
 30
0.0
 10
48.42646011120002
 20
62.41362157019999
 30
0.0
 10
48.41813485269998
 20
62.42475357619999
 30
0.0
 10
48.41668149460005
 20
62.43000217780004
 30
0.0
  0
SPLINE
  5
938A6
330
1F
100
AcDbEntity
  8
1
100
AcDbSpline
210
0.0
220
0.0
230
1.0
 70
     8
 71
     3
 72
    14
 73
    10
 74
     0
 42
0.000000001
 43
0.0000000001
 40
0.0
 40
0.0
 40
0.0
 40
0.0
 40
0.0650451467
 40
0.1459802155
 40
0.2443823662
 40
0.3609458931
 40
0.495655676
 40
0.6478937743
 40
1.0
 40
1.0
 40
1.0
 40
1.0
 10
51.22100373750001
 20
61.91102751920002
 30
0.0
 10
51.19295469700002
 20
61.93207549170002
 30
0.0
 10
51.12444848939997
 20
61.9718506478
 30
0.0
 10
51.00212169640006
 20
62.02137976970004
 30
0.0
 10
50.84896745550006
 20
62.06672419740003
 30
0.0
 10
50.66483344540003
 20
62.10762141229995
 30
0.0
 10
50.45026094980002
 20
62.14391557079999
 30
0.0
 10
50.10851313989999
 20
62.1881154444
 30
0.0
 10
49.83736518140003
 20
62.21042241530007
 30
0.0
 10
49.64793424360003
 20
62.22275960840001
 30
0.0
  0
SPLINE
  5
938A7
330
1F
100
AcDbEntity
  8
1
100
AcDbSpline
210
0.0
220
0.0
230
1.0
 70
     8
 71
     3
 72
     9
 73
     5
 74
     0
 42
0.000000001
 43
0.0000000001
 40
0.0
 40
0.0
 40
0.0
 40
0.0
 40
0.2491798201
 40
1.0
 40
1.0
 40
1.0
 40
1.0
 10
37.4619606757
 20
56.24519067810003
 30
0.0
 10
37.53365332580003
 20
56.26298566709998
 30
0.0
 10
37.82141843030004
 20
56.33419596220001
 30
0.0
 10
38.10938224470002
 20
56.40460297729998
 30
0.0
 10
38.32569488660002
 20
56.45703684120004
 30
0.0
  0
SPLINE
  5
938A8
330
1F
100
AcDbEntity
  8
1
100
AcDbSpline
210
0.0
220
0.0
230
1.0
 70
     8
 71
     3
 72
    18
 73
    14
 74
     0
 42
0.000000001
 43
0.0000000001
 40
0.0
 40
0.0
 40
0.0
 40
0.0
 40
0.1676449649
 40
0.3266272107
 40
0.4752403624000002
 40
0.6116247836
 40
0.7338275261
 40
0.7890218625
 40
0.8399927908
 40
0.8865813957
 40
0.9287067203999999
 40
0.9664291626
 40
1.0
 40
1.0
 40
1.0
 40
1.0
 10
35.56289444220002
 20
55.2447089189
 30
0.0
 10
35.4086365977
 20
55.16327279740004
 30
0.0
 10
35.10530643800005
 20
55.00979483780003
 30
0.0
 10
34.65546002730003
 20
54.80414178209996
 30
0.0
 10
34.226783805
 20
54.63142796830003
 30
0.0
 10
33.82546605550003
 20
54.49485388369996
 30
0.0
 10
33.50951558249998
 20
54.41096670019998
 30
0.0
 10
33.27597825699999
 20
54.3666025401
 30
0.0
 10
33.11832327780003
 20
54.34566391020003
 30
0.0
 10
32.973156709
 20
54.33623626209997
 30
0.0
 10
32.84142418480005
 20
54.3386813728
 30
0.0
 10
32.72407075530001
 20
54.3532246157
 30
0.0
 10
32.65199917290002
 20
54.37225373249997
 30
0.0
 10
32.61919053390002
 20
54.38424230859998
 30
0.0
  0
SPLINE
  5
938A9
330
1F
100
AcDbEntity
  8
1
100
AcDbSpline
210
0.0
220
0.0
230
1.0
 70
     8
 71
     3
 72
     9
 73
     5
 74
     0
 42
0.000000001
 43
0.0000000001
 40
0.0
 40
0.0
 40
0.0
 40
0.0
 40
0.2499549155
 40
1.0
 40
1.0
 40
1.0
 40
1.0
 10
35.56289444220002
 20
55.2447089189
 30
0.0
 10
35.72105003700003
 20
55.32820274880002
 30
0.0
 10
36.35385970290001
 20
55.66209967429999
 30
0.0
 10
36.98695671039999
 20
55.99545198890003
 30
0.0
 10
37.4619606757
 20
56.24519067810003
 30
0.0
  0
SPLINE
  5
938AA
330
1F
100
AcDbEntity
  8
1
100
AcDbSpline
210
0.0
220
0.0
230
1.0
 70
     8
 71
     3
 72
     9
 73
     5
 74
     0
 42
0.000000001
 43
0.0000000001
 40
0.0
 40
0.0
 40
0.0
 40
0.0
 40
0.2383983778
 40
1.0
 40
1.0
 40
1.0
 40
1.0
 10
47.40053381600003
 20
59.78085407630003
 30
0.0
 10
47.43408617050002
 20
59.78560814130002
 30
0.0
 10
47.57519654990002
 20
59.80280438570003
 30
0.0
 10
47.71776804389996
 20
59.80840173199998
 30
0.0
 10
47.82598976489999
 20
59.80556197010002
 30
0.0
  0
SPLINE
  5
938AB
330
1F
100
AcDbEntity
  8
1
100
AcDbSpline
210
0.0
220
0.0
230
1.0
 70
     8
 71
     3
 72
    11
 73
     7
 74
     0
 42
0.000000001
 43
0.0000000001
 40
0.0
 40
0.0
 40
0.0
 40
0.0
 40
0.2866877352
 40
0.5515295509
 40
0.7894743262000004
 40
1.0
 40
1.0
 40
1.0
 40
1.0
 10
39.99406697640004
 20
56.5871113754
 30
0.0
 10
39.83387621260003
 20
56.59590407509999
 30
0.0
 10
39.52501069210004
 20
56.60235151330002
 30
0.0
 10
39.08338353190001
 20
56.5809582941
 30
0.0
 10
38.68672565940002
 20
56.53334441769998
 30
0.0
 10
38.44019040940001
 20
56.48479038629999
 30
0.0
 10
38.32569488660002
 20
56.45703684120004
 30
0.0
  0
SPLINE
  5
938AC
330
1F
100
AcDbEntity
  8
1
100
AcDbSpline
210
0.0
220
0.0
230
1.0
 70
     8
 71
     3
 72
     8
 73
     4
 74
     0
 42
0.000000001
 43
0.0000000001
 40
0.0
 40
0.0
 40
0.0
 40
0.0
 40
1.0
 40
1.0
 40
1.0
 40
1.0
 10
47.85738681890004
 20
60.02273493670002
 30
0.0
 10
47.83931190900003
 20
60.01606940679996
 30
0.0
 10
47.82134667330001
 20
60.00909862280003
 30
0.0
 10
47.80350608530002
 20
60.00182916060002
 30
0.0
  0
LINE
  5
938AD
330
1F
100
AcDbEntity
  8
1
100
AcDbLine
 10
52.02618060329999
 20
55.91327308069995
 30
0.0
 11
51.97382338400004
 21
55.9164481879
 31
0.0
  0
SPLINE
  5
938AE
330
1F
100
AcDbEntity
  8
1
100
AcDbSpline
210
0.0
220
0.0
230
1.0
 70
     8
 71
     3
 72
     9
 73
     5
 74
     0
 42
0.000000001
 43
0.0000000001
 40
0.0
 40
0.0
 40
0.0
 40
0.0
 40
0.2484336769
 40
1.0
 40
1.0
 40
1.0
 40
1.0
 10
54.24241739520002
 20
55.73616666860001
 30
0.0
 10
54.13083115190002
 20
55.74902125229996
 30
0.0
 10
53.68135953629999
 20
55.79800633180004
 30
0.0
 10
53.23066136080004
 20
55.83579866810002
 30
0.0
 10
52.89155763890002
 20
55.85762437070001
 30
0.0
  0
SPLINE
  5
938AF
330
1F
100
AcDbEntity
  8
1
100
AcDbSpline
210
0.0
220
0.0
230
1.0
 70
     8
 71
     3
 72
     9
 73
     5
 74
     0
 42
0.000000001
 43
0.0000000001
 40
0.0
 40
0.0
 40
0.0
 40
0.0
 40
0.5429717296000001
 40
1.0
 40
1.0
 40
1.0
 40
1.0
 10
55.71258193589997
 20
53.486412399
 30
0.0
 10
55.3487018736
 20
53.81537370590002
 30
0.0
 10
54.75871917439999
 20
54.51715981379997
 30
0.0
 10
54.3691964653
 20
55.34322120320004
 30
0.0
 10
54.24241739520002
 20
55.73616666860001
 30
0.0
  0
SPLINE
  5
938B0
330
1F
100
AcDbEntity
  8
1
100
AcDbSpline
210
0.0
220
0.0
230
1.0
 70
     8
 71
     3
 72
    21
 73
    17
 74
     0
 42
0.000000001
 43
0.0000000001
 40
0.0
 40
0.0
 40
0.0
 40
0.0
 40
0.0617235743
 40
0.1235167301
 40
0.1854290818
 40
0.2474993932
 40
0.3097522612
 40
0.3721973085
 40
0.4348288353
 40
0.4976258867000001
 40
0.6232595754
 40
0.749030842
 40
0.8119917709
 40
0.8748311153999999
 40
0.9375091916
 40
1.0
 40
1.0
 40
1.0
 40
1.0
 10
47.64124617239995
 20
56.30600583990001
 30
0.0
 10
47.55546142510005
 20
56.34770361100002
 30
0.0
 10
47.38978918850003
 20
56.4441750705
 30
0.0
 10
47.16555430130003
 20
56.6241818175
 30
0.0
 10
46.96984731720002
 20
56.83564930039999
 30
0.0
 10
46.80672712609998
 20
57.07398206790002
 30
0.0
 10
46.67941095220001
 20
57.33411800489999
 30
0.0
 10
46.59035851460001
 20
57.6105893828
 30
0.0
 10
46.54133544100003
 20
57.89777501830004
 30
0.0
 10
46.53054475590002
 20
58.28667547819996
 30
0.0
 10
46.62022183800002
 20
58.77083617220002
 30
0.0
 10
46.8414184523
 20
59.21112934749999
 30
0.0
 10
47.08603094499998
 20
59.51470518440004
 30
0.0
 10
47.30003548240003
 20
59.71383434310003
 30
0.0
 10
47.53983506540001
 20
59.87955854110002
 30
0.0
 10
47.71399960319999
 20
59.96558147410002
 30
0.0
 10
47.80350608530002
 20
60.00182916060002
 30
0.0
  0
SPLINE
  5
938B1
330
1F
100
AcDbEntity
  8
1
100
AcDbSpline
210
0.0
220
0.0
230
1.0
 70
     8
 71
     3
 72
     9
 73
     5
 74
     0
 42
0.000000001
 43
0.0000000001
 40
0.0
 40
0.0
 40
0.0
 40
0.0
 40
0.2558762112
 40
1.0
 40
1.0
 40
1.0
 40
1.0
 10
47.82598976489999
 20
59.80556197010002
 30
0.0
 10
47.85038677030001
 20
59.80492178730003
 30
0.0
 10
47.94569992260003
 20
59.8012424893
 30
0.0
 10
48.04083160510001
 20
59.7930196029
 30
0.0
 10
48.11128941379999
 20
59.78447256369996
 30
0.0
  0
SPLINE
  5
938B2
330
1F
100
AcDbEntity
  8
1
100
AcDbSpline
210
0.0
220
0.0
230
1.0
 70
     8
 71
     3
 72
     9
 73
     5
 74
     0
 42
0.000000001
 43
0.0000000001
 40
0.0
 40
0.0
 40
0.0
 40
0.0
 40
0.2536624481
 40
1.0
 40
1.0
 40
1.0
 40
1.0
 10
47.25956471569998
 20
59.67109826429997
 30
0.0
 10
47.29862129839997
 20
59.6736041643
 30
0.0
 10
47.45277080730002
 20
59.68048109900003
 30
0.0
 10
47.60743824240003
 20
59.67559040010002
 30
0.0
 10
47.72213638960002
 20
59.66539489619997
 30
0.0
  0
SPLINE
  5
938B3
330
1F
100
AcDbEntity
  8
1
100
AcDbSpline
210
0.0
220
0.0
230
1.0
 70
     8
 71
     3
 72
     9
 73
     5
 74
     0
 42
0.000000001
 43
0.0000000001
 40
0.0
 40
0.0
 40
0.0
 40
0.0
 40
0.5434710936
 40
1.0
 40
1.0
 40
1.0
 40
1.0
 10
51.70378875679995
 20
61.18267713700003
 30
0.0
 10
51.69224992420001
 20
61.20408203139998
 30
0.0
 10
51.67225690969999
 20
61.24415461579999
 30
0.0
 10
51.65548393350005
 20
61.28571576019997
 30
0.0
 10
51.648923531
 20
61.30506043640004
 30
0.0
  0
SPLINE
  5
938B4
330
1F
100
AcDbEntity
  8
1
100
AcDbSpline
210
0.0
220
0.0
230
1.0
 70
     8
 71
     3
 72
     9
 73
     5
 74
     0
 42
0.000000001
 43
0.0000000001
 40
0.0
 40
0.0
 40
0.0
 40
0.0
 40
0.2476531573
 40
1.0
 40
1.0
 40
1.0
 40
1.0
 10
51.648923531
 20
61.30506043640004
 30
0.0
 10
51.6208299893
 20
61.34450145570003
 30
0.0
 10
51.51109358780002
 20
61.50636796150003
 30
0.0
 10
51.41654074190004
 20
61.67851039039998
 30
0.0
 10
51.35477907280002
 20
61.81202341139997
 30
0.0
  0
SPLINE
  5
938B5
330
1F
100
AcDbEntity
  8
1
100
AcDbSpline
210
0.0
220
0.0
230
1.0
 70
     8
 71
     3
 72
     8
 73
     4
 74
     0
 42
0.000000001
 43
0.0000000001
 40
0.0
 40
0.0
 40
0.0
 40
0.0
 40
1.0
 40
1.0
 40
1.0
 40
1.0
 10
47.87985306380003
 20
59.80382483340001
 30
0.0
 10
47.82662738649998
 20
59.7584368243
 30
0.0
 10
47.77403127250003
 20
59.7122986831
 30
0.0
 10
47.72213638960002
 20
59.66539489619997
 30
0.0
  0
SPLINE
  5
938B6
330
1F
100
AcDbEntity
  8
1
100
AcDbSpline
210
0.0
220
0.0
230
1.0
 70
     8
 71
     3
 72
     9
 73
     5
 74
     0
 42
0.000000001
 43
0.0000000001
 40
0.0
 40
0.0
 40
0.0
 40
0.0
 40
0.2537157532999999
 40
1.0
 40
1.0
 40
1.0
 40
1.0
 10
52.75384881589999
 20
62.64894431310001
 30
0.0
 10
52.76141906149999
 20
62.63180917200003
 30
0.0
 10
52.7911191359
 20
62.5642117313
 30
0.0
 10
52.82030450260001
 20
62.4963884822
 30
0.0
 10
52.84182954970001
 20
62.44566544100003
 30
0.0
  0
SPLINE
  5
938B7
330
1F
100
AcDbEntity
  8
1
100
AcDbSpline
210
0.0
220
0.0
230
1.0
 70
     8
 71
     3
 72
     9
 73
     5
 74
     0
 42
0.000000001
 43
0.0000000001
 40
0.0
 40
0.0
 40
0.0
 40
0.0
 40
0.2553536849
 40
1.0
 40
1.0
 40
1.0
 40
1.0
 10
52.8418295516
 20
62.44566543680004
 30
0.0
 10
52.85110954109999
 20
62.42379746409999
 30
0.0
 10
52.8878286833
 20
62.33832146770002
 30
0.0
 10
52.92620860020001
 20
62.25354858780001
 30
0.0
 10
52.95608006870001
 20
62.19104542479996
 30
0.0
  0
SPLINE
  5
938B8
330
1F
100
AcDbEntity
  8
1
100
AcDbSpline
210
0.0
220
0.0
230
1.0
 70
     8
 71
     3
 72
    11
 73
     7
 74
     0
 42
0.000000001
 43
0.0000000001
 40
0.0
 40
0.0
 40
0.0
 40
0.0
 40
0.2511426911
 40
0.5015336536000003
 40
0.7511417856999999
 40
1.0
 40
1.0
 40
1.0
 40
1.0
 10
38.32569488660002
 20
60.28703185170001
 30
0.0
 10
38.44647672420004
 20
60.37758312100002
 30
0.0
 10
38.7009142995
 20
60.54150417970003
 30
0.0
 10
39.11294425060001
 20
60.7297944593
 30
0.0
 10
39.54660092480006
 20
60.85608151820004
 30
0.0
 10
39.84475900780005
 20
60.89678954669999
 30
0.0
 10
39.99406697640004
 20
60.9058576397
 30
0.0
  0
SPLINE
  5
938B9
330
1F
100
AcDbEntity
  8
1
100
AcDbSpline
210
0.0
220
0.0
230
1.0
 70
     8
 71
     3
 72
     8
 73
     4
 74
     0
 42
0.000000001
 43
0.0000000001
 40
0.0
 40
0.0
 40
0.0
 40
0.0
 40
1.0
 40
1.0
 40
1.0
 40
1.0
 10
51.97382338400004
 20
62.6600854998
 30
0.0
 10
51.99127503769996
 20
62.66024761240004
 30
0.0
 10
52.0087289107
 20
62.66024981849999
 30
0.0
 10
52.02618060329999
 20
62.6600919652
 30
0.0
  0
SPLINE
  5
938BA
330
1F
100
AcDbEntity
  8
1
100
AcDbSpline
210
0.0
220
0.0
230
1.0
 70
     8
 71
     3
 72
     9
 73
     5
 74
     0
 42
0.000000001
 43
0.0000000001
 40
0.0
 40
0.0
 40
0.0
 40
0.0
 40
0.2596092207
 40
1.0
 40
1.0
 40
1.0
 40
1.0
 10
52.02618060329999
 20
62.6600919652
 30
0.0
 10
52.08915546910001
 20
62.65952234740002
 30
0.0
 10
52.33172753539998
 20
62.65699333780005
 30
0.0
 10
52.57428819589997
 20
62.65307361030004
 30
0.0
 10
52.75384881589999
 20
62.64894431310001
 30
0.0
  0
SPLINE
  5
938BB
330
1F
100
AcDbEntity
  8
1
100
AcDbSpline
210
0.0
220
0.0
230
1.0
 70
     8
 71
     3
 72
     9
 73
     5
 74
     0
 42
0.000000001
 43
0.0000000001
 40
0.0
 40
0.0
 40
0.0
 40
0.0
 40
0.2497924267
 40
1.0
 40
1.0
 40
1.0
 40
1.0
 10
52.75384881589999
 20
62.64894431310001
 30
0.0
 10
52.8449930931
 20
62.64923007130001
 30
0.0
 10
53.20987335899999
 20
62.65030905330004
 30
0.0
 10
53.57475441120001
 20
62.65112631380002
 30
0.0
 10
53.84849117710004
 20
62.6515755809
 30
0.0
  0
SPLINE
  5
938BC
330
1F
100
AcDbEntity
  8
1
100
AcDbSpline
210
0.0
220
0.0
230
1.0
 70
     8
 71
     3
 72
     9
 73
     5
 74
     0
 42
0.000000001
 43
0.0000000001
 40
0.0
 40
0.0
 40
0.0
 40
0.0
 40
0.2521556899
 40
1.0
 40
1.0
 40
1.0
 40
1.0
 10
52.84182954970001
 20
62.44566544100003
 30
0.0
 10
52.83409675539999
 20
62.41402192479999
 30
0.0
 10
52.80224705110001
 20
62.28882251869997
 30
0.0
 10
52.76566210339999
 20
62.1648235009
 30
0.0
 10
52.73559528409998
 20
62.0730112676
 30
0.0
  0
SPLINE
  5
938BD
330
1F
100
AcDbEntity
  8
1
100
AcDbSpline
210
0.0
220
0.0
230
1.0
 70
     8
 71
     3
 72
    27
 73
    23
 74
     0
 42
0.000000001
 43
0.0000000001
 40
0.0
 40
0.0
 40
0.0
 40
0.0
 40
0.0146681602
 40
0.028119101
 40
0.0408849776
 40
0.0536184266
 40
0.0669858797
 40
0.0815522098
 40
0.0977300499
 40
0.1157768359
 40
0.1358278836
 40
0.157936951
 40
0.1820956212
 40
0.2082491167
 40
0.2662068141
 40
0.3310338067
 40
0.4018470108
 40
0.4777711929
 40
0.5579978609000003
 40
0.6417838175
 40
0.8174212763999999
 40
1.0
 40
1.0
 40
1.0
 40
1.0
 10
32.61919053390002
 20
54.38424230859998
 30
0.0
 10
32.59252834169999
 20
54.393984917
 30
0.0
 10
32.5426631307
 20
54.41657719900003
 30
0.0
 10
32.47786369720002
 20
54.46300089499998
 30
0.0
 10
32.42780740700002
 20
54.5203585056
 30
0.0
 10
32.39352279780002
 20
54.58815906789998
 30
0.0
 10
32.37527704890005
 20
54.66536913989997
 30
0.0
 10
32.37269363240003
 20
54.75116676589998
 30
0.0
 10
32.38529925290001
 20
54.84507601419998
 30
0.0
 10
32.41260574470003
 20
54.94673508650002
 30
0.0
 10
32.45416008930002
 20
55.05575759510001
 30
0.0
 10
32.50951903239999
 20
55.17167276989997
 30
0.0
 10
32.57814947290002
 20
55.29396675089998
 30
0.0
 10
32.69046389390005
 20
55.47094568590002
 30
0.0
 10
32.86150225970003
 20
55.70334725150003
 30
0.0
 10
33.10239490550002
 20
55.99050907530003
 30
0.0
 10
33.38054559499997
 20
56.29112832020003
 30
0.0
 10
33.69099120360002
 20
56.601965456
 30
0.0
 10
34.02922623650002
 20
56.92018514830003
 30
0.0
 10
34.51955371290001
 20
57.35802812920001
 30
0.0
 10
35.1765626003
 20
57.906145952
 30
0.0
 10
35.72404338390001
 20
58.33160679490003
 30
0.0
 10
36.0062798658
 20
58.54418064689999
 30
0.0
  0
SPLINE
  5
938BE
330
1F
100
AcDbEntity
  8
1
100
AcDbSpline
210
0.0
220
0.0
230
1.0
 70
     8
 71
     3
 72
    11
 73
     7
 74
     0
 42
0.000000001
 43
0.0000000001
 40
0.0
 40
0.0
 40
0.0
 40
0.0
 40
0.1913665237
 40
0.4069664696000002
 40
0.6648760000000003
 40
1.0
 40
1.0
 40
1.0
 40
1.0
 10
60.59099147390006
 20
52.9059006873
 30
0.0
 10
60.51098521050002
 20
52.81990316709998
 30
0.0
 10
60.32515186240003
 20
52.65095558229999
 30
0.0
 10
59.97755729560001
 20
52.43286848860002
 30
0.0
 10
59.51133841780003
 20
52.25363090510001
 30
0.0
 10
59.1480806739
 20
52.19737654589997
 30
0.0
 10
58.94268923410002
 20
52.18619270579999
 30
0.0
  0
SPLINE
  5
938BF
330
1F
100
AcDbEntity
  8
1
100
AcDbSpline
210
0.0
220
0.0
230
1.0
 70
     8
 71
     3
 72
     9
 73
     5
 74
     0
 42
0.000000001
 43
0.0000000001
 40
0.0
 40
0.0
 40
0.0
 40
0.0
 40
0.5262972963000001
 40
1.0
 40
1.0
 40
1.0
 40
1.0
 10
47.72213638960002
 20
59.66539489619997
 30
0.0
 10
47.65406705559999
 20
59.68393558799998
 30
0.0
 10
47.5224755265
 20
59.71146274740004
 30
0.0
 10
47.3885817485
 20
59.72292962030003
 30
0.0
 10
47.32510476639999
 20
59.72460174659999
 30
0.0
  0
SPLINE
  5
938C0
330
1F
100
AcDbEntity
  8
1
100
AcDbSpline
210
0.0
220
0.0
230
1.0
 70
     8
 71
     3
 72
     9
 73
     5
 74
     0
 42
0.000000001
 43
0.0000000001
 40
0.0
 40
0.0
 40
0.0
 40
0.0
 40
0.2547247119
 40
1.0
 40
1.0
 40
1.0
 40
1.0
 10
46.7420388916
 20
58.78016824360003
 30
0.0
 10
46.73638237010002
 20
58.78560873319996
 30
0.0
 10
46.71428346900003
 20
58.80707839320002
 30
0.0
 10
46.6926219735
 20
58.82899944030002
 30
0.0
 10
46.6767629871
 20
58.84560571659999
 30
0.0
  0
SPLINE
  5
938C1
330
1F
100
AcDbEntity
  8
1
100
AcDbSpline
210
0.0
220
0.0
230
1.0
 70
     8
 71
     3
 72
    11
 73
     7
 74
     0
 42
0.000000001
 43
0.0000000001
 40
0.0
 40
0.0
 40
0.0
 40
0.0
 40
0.2488733632
 40
0.4975232762
 40
0.7474177416
 40
1.0
 40
1.0
 40
1.0
 40
1.0
 10
48.88395996940002
 20
60.0694139289
 30
0.0
 10
48.80036910340002
 20
60.09177728850004
 30
0.0
 10
48.62961383909999
 20
60.12397609190003
 30
0.0
 10
48.36889992410003
 20
60.13268846459998
 30
0.0
 10
48.1086443477
 20
60.10105509129997
 30
0.0
 10
47.93978289190002
 20
60.05312034310001
 30
0.0
 10
47.85738681890004
 20
60.02273493670002
 30
0.0
  0
SPLINE
  5
938C2
330
1F
100
AcDbEntity
  8
1
100
AcDbSpline
210
0.0
220
0.0
230
1.0
 70
     8
 71
     3
 72
     9
 73
     5
 74
     0
 42
0.000000001
 43
0.0000000001
 40
0.0
 40
0.0
 40
0.0
 40
0.0
 40
0.5225808528
 40
1.0
 40
1.0
 40
1.0
 40
1.0
 10
47.22036501929998
 20
59.070556263
 30
0.0
 10
47.16219827910001
 20
59.1026409153
 30
0.0
 10
47.04950486530001
 20
59.16157022290001
 30
0.0
 10
46.93375983679999
 20
59.21434382000001
 30
0.0
 10
46.87769116569998
 20
59.23756759519999
 30
0.0
  0
SPLINE
  5
938C3
330
1F
100
AcDbEntity
  8
1
100
AcDbSpline
210
0.0
220
0.0
230
1.0
 70
     8
 71
     3
 72
    28
 73
    24
 74
     0
 42
0.000000001
 43
0.0000000001
 40
0.0
 40
0.0
 40
0.0
 40
0.0
 40
0.0018564507
 40
0.0037451661
 40
0.0058782263
 40
0.008406361
 40
0.0149630739
 40
0.0237906428
 40
0.0350060862
 40
0.0486414955
 40
0.0646891698
 40
0.0831181996
 40
0.1038816986
 40
0.1269203904
 40
0.1795349252
 40
0.2403035937
 40
0.3084477353
 40
0.3830895279
 40
0.4632682745000001
 40
0.5479551706
 40
0.6360675307000001
 40
0.8180510810999999
 40
1.0
 40
1.0
 40
1.0
 40
1.0
 10
48.41668149460005
 20
62.43000217780004
 30
0.0
 10
48.4160884681
 20
62.43214381119996
 30
0.0
 10
48.41559539750003
 20
62.43671505220003
 30
0.0
 10
48.4174961555
 20
62.44363505010004
 30
0.0
 10
48.42184982810002
 20
62.45026772959999
 30
0.0
 10
48.43157832749998
 20
62.45962936450002
 30
0.0
 10
48.45030336740004
 20
62.47052040589998
 30
0.0
 10
48.4798824049
 20
62.48235827540002
 30
0.0
 10
48.5185633804
 20
62.49389760389997
 30
0.0
 10
48.56623468009999
 20
62.5050980404
 30
0.0
 10
48.62281484860003
 20
62.51591952700001
 30
0.0
 10
48.6881206757
 20
62.52633453110004
 30
0.0
 10
48.76194561480002
 20
62.53632697110003
 30
0.0
 10
48.87659071769999
 20
62.54966659609998
 30
0.0
 10
49.03920919790002
 20
62.56479202749999
 30
0.0
 10
49.25593375880001
 20
62.58061553150003
 30
0.0
 10
49.49918537030001
 20
62.59484149320003
 30
0.0
 10
49.76578057650002
 20
62.60756228289999
 30
0.0
 10
50.05225701259999
 20
62.61887098600006
 30
0.0
 10
50.35491544250001
 20
62.62886340219999
 30
0.0
 10
50.77943827250002
 20
62.64064707420003
 30
0.0
 10
51.3204334831
 20
62.65208288400002
 30
0.0
 10
51.75603489710002
 20
62.65806240909999
 30
0.0
 10
51.97382338400004
 20
62.6600854998
 30
0.0
  0
SPLINE
  5
938C4
330
1F
100
AcDbEntity
  8
1
100
AcDbSpline
210
0.0
220
0.0
230
1.0
 70
     8
 71
     3
 72
     8
 73
     4
 74
     0
 42
0.000000001
 43
0.0000000001
 40
0.0
 40
0.0
 40
0.0
 40
0.0
 40
1.0
 40
1.0
 40
1.0
 40
1.0
 10
38.32569488660002
 20
60.28703185170001
 30
0.0
 10
37.55191655710004
 20
59.70692302690004
 30
0.0
 10
36.77875475530001
 20
59.12599077859997
 30
0.0
 10
36.00626375730005
 20
58.5441688042
 30
0.0
  0
ELLIPSE
  5
938C5
330
1F
100
AcDbEntity
  8
1
100
AcDbEllipse
 10
654.0061206786
 20
-12.56984710779997
 30
0.0
 11
750.9040994774001
 21
-70.25862557029999
 31
0.0
210
0.0
220
0.0
230
1.0
 40
0.026944065
 41
2.503519387799996
 42
2.530711767599997
  0
ELLIPSE
  5
938C6
330
1F
100
AcDbEntity
  8
1
100
AcDbEllipse
 10
519.5643247437999
 20
0.0000381915999981
 30
0.0
 11
643.1216002259999
 21
-60.17537579359999
 31
0.0
210
0.0
220
0.0
230
1.0
 40
0.0273865739
 41
2.385314927599996
 42
2.387272511999997
  0
ELLIPSE
  5
938C7
330
1F
100
AcDbEntity
  8
1
100
AcDbEllipse
 10
58.70347616390003
 20
56.1790929228
 30
0.0
 11
4.649644897
 21
2.2090773844
 31
0.0
210
0.0
220
0.0
230
1.0
 40
0.7329238506000007
 41
4.331434140979585
 42
4.770746114679585
  0
ELLIPSE
  5
938C8
330
1F
100
AcDbEntity
  8
1
100
AcDbEllipse
 10
67.37102214810002
 20
0.0954021233000333
 30
0.0
 11
109.0684144861004
 21
4.71570899640001
 31
0.0
210
0.0
220
0.0
230
1.0
 40
0.5754430464999995
 41
1.693254319699996
 42
1.727393892299998
  0
ELLIPSE
  5
938C9
330
1F
100
AcDbEntity
  8
1
100
AcDbEllipse
 10
116.3829853545
 20
0.4954955470000188
 30
0.0
 11
334.1324797072009
 21
5.623761962500014
 31
0.0
210
0.0
220
0.0
230
1.0
 40
0.189473975
 41
1.774697900099998
 42
1.798264642399996
  0
ELLIPSE
  5
938CA
330
1F
100
AcDbEntity
  8
1
100
AcDbEllipse
 10
51.46589894739998
 20
59.48091635649999
 30
0.0
 11
2.288747837500001
 21
-0.5259726216000007
 31
0.0
210
0.0
220
0.0
230
1.0
 40
0.0705372385
 41
3.236884533979318
 42
3.623216853879417
  0
ELLIPSE
  5
938CB
330
1F
100
AcDbEntity
  8
1
100
AcDbEllipse
 10
43.39463940039999
 20
54.84908954299998
 30
0.0
 11
14.2058580168
 21
8.7041597898
 31
0.0
210
0.0
220
0.0
230
1.0
 40
0.0916754991
 41
0.8957917465000246
 42
1.095634858400013
  0
DIMENSION
  5
938CD
330
1F
100
AcDbEntity
  8
2
100
AcDbDimension
  2
*D162109
 10
63.50000000000003
 20
82.16556481856956
 30
0.0
 11
94.96666666666669
 21
86.21556481856956
 31
0.0
 70
    32
  1
<>(MAX)
 71
     5
 42
8.200000000000001
  3
コピー - ISO-25
100
AcDbAlignedDimension
 13
55.30000000000001
 23
63.49999999890002
 33
0.0
 14
63.50000000000003
 24
62.69999999890605
 34
0.0
 50
0.0
100
AcDbRotatedDimension
1001
ACAD
1000
DSTYLE
1002
{
1070
   170
1070
     1
1070
   171
1070
     3
1070
   143
1040
0.0393700787401575
1070
   285
1070
     4
1070
     4
1000
"
1070
   271
1070
     8
1070
    40
1040
1.0
1002
}
1001
ACAD_DSTYLE_DIMINSPECT
1070
   393
1070
     0
1070
   394
1070
     0
1070
   395
1000

1070
   396
1000

  0
LINE
  5
93A30
330
1F
100
AcDbEntity
  8
sk3
100
AcDbLine
 10
29.00000000014669
 20
20.2999999989
 30
0.0
 11
29.00000000014669
 21
-20.29999999889999
 31
0.0
  0
LINE
  5
93A31
330
1F
100
AcDbEntity
  8
sk3
100
AcDbLine
 10
35.99999999995069
 20
20.2999999989
 30
0.0
 11
35.99999999995069
 21
-20.2999999989
 31
0.0
  0
LINE
  5
93A32
330
1F
100
AcDbEntity
  8
sk3
100
AcDbLine
 10
39.10953503484933
 20
-18.8499999989
 30
0.0
 11
39.10953503484933
 21
18.8499999989
 31
0.0
  0
LINE
  5
93B4F
330
1F
100
AcDbEntity
  8
cut
100
AcDbLine
 10
51.35766064660001
 20
61.7952081684
 30
0.0
 11
52.52444982740001
 21
62.40179550230003
 31
0.0
  0
LINE
  5
93B50
330
1F
100
AcDbEntity
  8
cut
100
AcDbLine
 10
50.03354155150003
 20
61.1121857502
 30
0.0
 11
51.35766064660001
 21
61.7952081684
 31
0.0
  0
LINE
  5
93B51
330
1F
100
AcDbEntity
  8
cut
100
AcDbLine
 10
48.87853810560002
 20
60.520526737
 30
0.0
 11
50.03354155150003
 21
61.1121857502
 31
0.0
  0
LINE
  5
93B52
330
1F
100
AcDbEntity
  8
cut
100
AcDbLine
 10
47.7330372943
 20
59.88498897240001
 30
0.0
 11
47.753528175
 21
59.89771290150002
 31
0.0
  0
LINE
  5
93B53
330
1F
100
AcDbEntity
  8
cut
100
AcDbLine
 10
47.75212393170003
 20
59.89686730150001
 30
0.0
 11
47.77159717670001
 21
59.90819182530001
 31
0.0
  0
LINE
  5
93B54
330
1F
100
AcDbEntity
  8
cut
100
AcDbLine
 10
47.77159717670001
 20
59.90819182530001
 30
0.0
 11
48.00299423260003
 21
60.0377371435
 31
0.0
  0
LINE
  5
93B55
330
1F
100
AcDbEntity
  8
cut
100
AcDbLine
 10
48.00299423260003
 20
60.0377371435
 30
0.0
 11
48.23811247490002
 21
60.16856763110002
 31
0.0
  0
LINE
  5
93B56
330
1F
100
AcDbEntity
  8
cut
100
AcDbLine
 10
48.23811247490002
 20
60.16856763110002
 30
0.0
 11
48.4769533102
 21
60.30067887690001
 31
0.0
  0
LINE
  5
93B57
330
1F
100
AcDbEntity
  8
cut
100
AcDbLine
 10
48.4769533102
 20
60.30067887690001
 30
0.0
 11
48.71952236550001
 21
60.43405323720003
 31
0.0
  0
LINE
  5
93B58
330
1F
100
AcDbEntity
  8
cut
100
AcDbLine
 10
53.8762347514
 20
63.12200690550003
 30
0.0
 11
54.11711816210001
 21
63.25496654230002
 31
0.0
  0
LWPOLYLINE
  5
93B59
330
1F
100
AcDbEntity
  8
cut
100
AcDbPolyline
 90
        6
 70
     0
 43
0.0
 10
48.71952236550001
 20
60.43405323720003
 10
48.8494165141
 20
60.50513564320002
 10
48.85665580729999
 20
60.50902702570002
 10
48.86392250360001
 20
60.51288933550001
 10
48.87121660310004
 20
60.5167225726
 10
48.87853810560002
 20
60.520526737
  0
LINE
  5
93B5A
330
1F
100
AcDbEntity
  8
cut
100
AcDbLine
 10
53.79516652720003
 20
63.07795586980001
 30
0.0
 11
53.8762347514
 21
63.12200690550003
 31
0.0
  0
LWPOLYLINE
  5
93B5B
330
1F
100
AcDbEntity
  8
cut
100
AcDbPolyline
 90
        3
 70
     0
 43
0.0
 10
53.26589420709999
 20
62.79365358090001
 10
53.65807982120003
 20
63.00433406470003
 10
53.79516652720003
 20
63.07795586980001
  0
LINE
  5
93B5C
330
1F
100
AcDbEntity
  8
cut
100
AcDbLine
 10
52.96708382590001
 20
62.63458324800001
 30
0.0
 11
53.26589420709999
 21
62.79365358090001
 31
0.0
  0
LINE
  5
93B5D
330
1F
100
AcDbEntity
  8
cut
100
AcDbLine
 10
52.66379584710001
 20
62.47468596360002
 30
0.0
 11
52.96708382590001
 21
62.63458324800001
 31
0.0
  0
LINE
  5
93B5E
330
1F
100
AcDbEntity
  8
cut
100
AcDbLine
 10
52.52444982740001
 20
62.40179550230003
 30
0.0
 11
52.66379584710001
 21
62.47468596360002
 31
0.0
  0
LWPOLYLINE
  5
93B5F
330
1F
100
AcDbEntity
  8
cut
100
AcDbPolyline
 90
       11
 70
     0
 43
0.0
 10
47.56484354790001
 20
59.73674785940002
 10
47.5803399645
 20
59.75466793200002
 10
47.59538560670002
 20
59.771012157
 10
47.61093049150002
 20
59.78691178910001
 10
47.626985917
 20
59.8023799953
 10
47.64354058520001
 20
59.8174036085
 10
47.6605568214
 20
59.83193760210003
 10
47.6780470545
 20
59.84598836220001
 10
47.69599885569999
 20
59.85954950270002
 10
47.71433726459999
 20
59.87255683790002
 10
47.7330372943
 20
59.88498897240001
  0
LWPOLYLINE
  5
93B60
330
1F
100
AcDbEntity
  8
cut
100
AcDbPolyline
 90
       11
 70
     0
 43
0.0
 10
47.5783319422
 20
59.75240817300002
 10
47.59223644740003
 20
59.76767001999998
 10
47.60656045160001
 20
59.7825373201
 10
47.62131183650001
 20
59.7970186585
 10
47.63649472620002
 20
59.81111814370001
 10
47.65209821510004
 20
59.82482197760001
 10
47.66810764030004
 20
59.83811188520002
 10
47.68450633440003
 20
59.85096931800001
 10
47.70126961229999
 20
59.86337463209999
 10
47.71837078490004
 20
59.87530791000001
 10
47.73578917760001
 20
59.88675351090002
  0
LINE
  5
93B61
330
1F
100
AcDbEntity
  8
cut
100
AcDbLine
 10
47.52519140330003
 20
59.6849058831
 30
0.0
 11
47.53917793139999
 21
59.70429546560001
 31
0.0
  0
LINE
  5
93B62
330
1F
100
AcDbEntity
  8
cut
100
AcDbLine
 10
47.5381854123
 20
59.70295537790001
 30
0.0
 11
47.55173986729999
 21
59.72063954250001
 31
0.0
  0
LINE
  5
93B63
330
1F
100
AcDbEntity
  8
cut
100
AcDbLine
 10
47.55178585090002
 20
59.7207038211
 30
0.0
 11
47.56579734500002
 21
59.73788463960001
 31
0.0
  0
LWPOLYLINE
  5
93B64
330
1F
100
AcDbEntity
  8
cut
100
AcDbPolyline
 90
       37
 70
     0
 43
0.0
 10
59.07702055800001
 20
47.74941279980001
 10
59.05626857770002
 20
47.735311536
 10
59.03508286610002
 20
47.72186066390003
 10
59.0134634232
 20
47.70906018339998
 10
58.9913704546
 20
47.6968886143
 10
58.96884375459999
 20
47.68536743680002
 10
58.94600270690003
 20
47.674561092
 10
58.92285409250002
 20
47.66448072810002
 10
58.89939113040004
 20
47.6551151969
 10
58.87571286060003
 20
47.64649549570001
 10
58.8518477981
 20
47.63863209030001
 10
58.827767428
 20
47.63151451500002
 10
58.80348524630003
 20
47.6251423692
 10
58.77898818680001
 20
47.61950951520001
 10
58.75428931560003
 20
47.61462209070001
 10
58.72944132720002
 20
47.61049810829999
 10
58.70442852070002
 20
47.60713764900001
 10
58.67926659700001
 20
47.60454063190002
 10
58.65405535299998
 20
47.60272482650001
 10
58.62879430080003
 20
47.60169670570003
 10
58.60348392830003
 20
47.60144979669998
 10
58.57822549659999
 20
47.60198245070003
 10
58.55303502740003
 20
47.60329773990004
 10
58.52789649900003
 20
47.60539259220002
 10
58.50286310730002
 20
47.60825614240002
 10
58.47794788270002
 20
47.61188494419999
 10
58.45313779470001
 20
47.61628244390002
 10
58.42844694830002
 20
47.62144811560003
 10
58.4038462698
 20
47.6273886938
 10
58.37936483270002
 20
47.63409744390003
 10
58.35510396290001
 20
47.64155363650003
 10
58.3310553402
 20
47.64976600280003
 10
58.30722728480001
 20
47.65872581159999
 10
58.28374608260003
 20
47.66838614070002
 10
58.26065382900003
 20
47.6787313494
 10
58.23790842850002
 20
47.68977707830001
 10
58.21550988130002
 20
47.70152332750001
  0
LWPOLYLINE
  5
93B65
330
1F
100
AcDbEntity
  8
cut
100
AcDbPolyline
 90
       11
 70
     0
 43
0.0
 10
47.42677545750001
 20
59.48487331870001
 10
47.43449155760004
 20
59.50797897020001
 10
47.4421844452
 20
59.52880871800002
 10
47.45049653350003
 20
59.5493860635
 10
47.45939987549999
 20
59.56966261870003
 10
47.46888474650003
 20
59.58962235380003
 10
47.47896087100001
 20
59.6092812985
 10
47.48962947630001
 20
59.62863915370003
 10
47.50090164950001
 20
59.6477172333
 10
47.51276630340001
 20
59.66649422329999
 10
47.52519140330003
 20
59.6849058831
  0
LWPOLYLINE
  5
93B66
330
1F
100
AcDbEntity
  8
cut
100
AcDbPolyline
 90
       11
 70
     0
 43
0.0
 10
47.43328906870003
 20
59.50453952260001
 10
47.44034184319999
 20
59.52398979669999
 10
47.44792342240003
 20
59.54320527210001
 10
47.4560246896
 20
59.56216984260001
 10
47.46464149690004
 20
59.58087845390004
 10
47.47377093819999
 20
59.5993288143
 10
47.48341049590002
 20
59.61751815109999
 10
47.49355920600004
 20
59.63544176540001
 10
47.5042164927
 20
59.65309447720002
 10
47.51537970170002
 20
59.67046814580001
 10
47.5270378639
 20
59.68754278950001
  0
LINE
  5
93B67
330
1F
100
AcDbEntity
  8
cut
100
AcDbLine
 10
47.4100025146
 20
59.42236680970001
 30
0.0
 11
47.41540338330003
 21
59.4449954217
 31
0.0
  0
LINE
  5
93B68
330
1F
100
AcDbEntity
  8
cut
100
AcDbLine
 10
47.41515604630001
 20
59.44402370150001
 30
0.0
 11
47.42096357209999
 21
59.4655374346
 31
0.0
  0
LINE
  5
93B69
330
1F
100
AcDbEntity
  8
cut
100
AcDbLine
 10
47.42081089630001
 20
59.46501340700002
 30
0.0
 11
47.42741796450003
 21
59.4868844035
 31
0.0
  0
LWPOLYLINE
  5
93B6A
330
1F
100
AcDbEntity
  8
cut
100
AcDbPolyline
 90
        9
 70
     0
 43
0.0
 10
47.39220490420004
 20
59.25940050080001
 10
47.39249464350004
 20
59.28043626659999
 10
47.39336702840001
 20
59.30147281010002
 10
47.3948197727
 20
59.32239516190001
 10
47.39684521280003
 20
59.343181662
 10
47.39943434120005
 20
59.3638167564
 10
47.40258061940003
 20
59.38429230909999
 10
47.40628738510003
 20
59.40462985589999
 10
47.41056044490004
 20
59.42485835010001
  0
LINE
  5
93B6B
330
1F
100
AcDbEntity
  8
cut
100
AcDbLine
 10
62.45314033830003
 20
53.09763065240002
 30
0.0
 11
62.20287003150002
 21
52.68056064110002
 31
0.0
  0
LINE
  5
93B6C
330
1F
100
AcDbEntity
  8
cut
100
AcDbLine
 10
62.20287003150002
 20
52.68056064110002
 30
0.0
 11
61.98793131850004
 21
52.32341748520003
 31
0.0
  0
LINE
  5
93B6D
330
1F
100
AcDbEntity
  8
cut
100
AcDbLine
 10
61.98793131850004
 20
52.32341748520003
 30
0.0
 11
61.7391767348
 21
51.91124494510001
 31
0.0
  0
LINE
  5
93B6E
330
1F
100
AcDbEntity
  8
cut
100
AcDbLine
 10
61.7391767348
 20
51.91124494510001
 30
0.0
 11
61.48966968070002
 21
51.49900688850002
 31
0.0
  0
LINE
  5
93B6F
330
1F
100
AcDbEntity
  8
cut
100
AcDbLine
 10
61.48966968070002
 20
51.49900688850002
 30
0.0
 11
61.23970805770003
 21
51.08714545700003
 31
0.0
  0
LINE
  5
93B70
330
1F
100
AcDbEntity
  8
cut
100
AcDbLine
 10
61.23970805770003
 20
51.08714545700003
 30
0.0
 11
60.98959928470003
 21
50.67611743910001
 31
0.0
  0
LINE
  5
93B71
330
1F
100
AcDbEntity
  8
cut
100
AcDbLine
 10
60.98959928470003
 20
50.67611743910001
 30
0.0
 11
60.7395430914
 21
50.26620229409999
 31
0.0
  0
LINE
  5
93B72
330
1F
100
AcDbEntity
  8
cut
100
AcDbLine
 10
60.7395430914
 20
50.26620229409999
 30
0.0
 11
60.40588164120004
 21
49.72075582940003
 31
0.0
  0
LINE
  5
93B73
330
1F
100
AcDbEntity
  8
cut
100
AcDbLine
 10
60.40588164120004
 20
49.72075582940003
 30
0.0
 11
60.07129468380004
 21
49.1754594911
 31
0.0
  0
LWPOLYLINE
  5
93B74
330
1F
100
AcDbEntity
  8
cut
100
AcDbPolyline
 90
        6
 70
     0
 43
0.0
 10
60.07129468380004
 20
49.1754594911
 10
59.9831512671
 20
49.032111629
 10
59.97882119020002
 20
49.02517940630001
 10
59.97445566920004
 20
49.0182625977
 10
59.97005470440004
 20
49.01136120300002
 10
59.9656182955
 20
49.00447522230003
  0
LWPOLYLINE
  5
93B75
330
1F
100
AcDbEntity
  8
cut
100
AcDbPolyline
 90
        3
 70
     0
 43
0.0
 10
59.9656182955
 20
49.00447522230003
 10
59.88283108430002
 20
48.87791866380002
 10
59.28626157110002
 20
47.96539948030003
  0
LWPOLYLINE
  5
93B76
330
1F
100
AcDbEntity
  8
cut
100
AcDbPolyline
 90
       16
 70
     0
 43
0.0
 10
59.2862615714
 20
47.96539948070003
 10
59.27515238120003
 20
47.9488426134
 10
59.26360985600005
 20
47.93255935800002
 10
59.25163399590002
 20
47.91654971460001
 10
59.23921052450001
 20
47.90079567680002
 10
59.22635371810002
 20
47.885315251
 10
59.21310640550001
 20
47.87016245590002
 10
59.19948086010004
 20
47.85535182750002
 10
59.18546480850003
 20
47.84086882999999
 10
59.17106425820001
 20
47.82672387399999
 10
59.15626558010004
 20
47.81290417210001
 10
59.14108240330002
 20
47.7994225118
 10
59.12556162310004
 20
47.78632766700002
 10
59.10971887130003
 20
47.7736358957
 10
59.0935385161
 20
47.76133093980003
 10
59.07702055750002
 20
47.74941279950001
  0
LWPOLYLINE
  5
93B77
330
1F
100
AcDbEntity
  8
cut
100
AcDbPolyline
 90
        5
 70
     0
 43
0.0
 10
47.39688915330003
 20
59.17496301800003
 10
47.39469968209998
 20
59.19780548300002
 10
47.39319385370003
 20
59.2206296886
 10
47.39237166790002
 20
59.2434356347
 10
47.39220608850003
 20
59.25940050050002
  0
LWPOLYLINE
  5
93B78
330
1F
100
AcDbEntity
  8
cut
100
AcDbPolyline
 90
        9
 70
     0
 43
0.0
 10
47.39220608850003
 20
59.25940050050002
 10
47.3922387809
 20
59.26627222160003
 10
47.39278953670003
 20
59.2890905491
 10
47.39400696670002
 20
59.3117439162
 10
47.39588992299998
 20
59.33417908360002
 10
47.3984395536
 20
59.35644929070003
 10
47.40164233370004
 20
59.37856755430002
 10
47.40549584940004
 20
59.40054315370002
 10
47.4100025146
 20
59.42236680970001
  0
LINE
  5
93B79
330
1F
100
AcDbEntity
  8
cut
100
AcDbLine
 10
63.04773834830001
 20
54.09432846410003
 30
0.0
 11
62.81021152150003
 21
53.69513760000001
 31
0.0
  0
LINE
  5
93B7A
330
1F
100
AcDbEntity
  8
cut
100
AcDbLine
 10
62.81021152150003
 20
53.69513760000001
 30
0.0
 11
62.5603713907
 21
53.27675031900003
 31
0.0
  0
LINE
  5
93B7B
330
1F
100
AcDbEntity
  8
cut
100
AcDbLine
 10
62.5603713907
 20
53.27675031900003
 30
0.0
 11
62.45314033830003
 21
53.09763065240002
 31
0.0
  0
LINE
  5
93B7C
330
1F
100
AcDbEntity
  8
cut
100
AcDbLine
 10
57.21024478120003
 20
48.23129997410001
 30
0.0
 11
57.06456325060003
 21
48.30536035640003
 31
0.0
  0
LWPOLYLINE
  5
93B7D
330
1F
100
AcDbEntity
  8
cut
100
AcDbPolyline
 90
        4
 70
     0
 43
0.0
 10
57.59443749660003
 20
48.0328828911
 10
57.46734024479999
 20
48.09907199210002
 10
57.33927530150003
 20
48.16520840710001
 10
57.21024478120003
 20
48.23129997410001
  0
LINE
  5
93B7E
330
1F
100
AcDbEntity
  8
cut
100
AcDbLine
 10
57.06456325060003
 20
48.30536035640003
 30
0.0
 11
57.04906020920002
 21
48.31343908800002
 31
0.0
  0
LINE
  5
93B7F
330
1F
100
AcDbEntity
  8
cut
100
AcDbLine
 10
57.84574161310001
 20
47.90039365990003
 30
0.0
 11
57.59443749660003
 21
48.0328828911
 31
0.0
  0
LINE
  5
93B80
330
1F
100
AcDbEntity
  8
cut
100
AcDbLine
 10
53.4276741577
 20
50.2484788778
 30
0.0
 11
53.20805823100002
 21
50.3653199144
 31
0.0
  0
LINE
  5
93B81
330
1F
100
AcDbEntity
  8
cut
100
AcDbLine
 10
57.04906020920002
 20
48.31343908800002
 30
0.0
 11
57.0337395602
 21
48.32158288780003
 31
0.0
  0
LINE
  5
93B82
330
1F
100
AcDbEntity
  8
cut
100
AcDbLine
 10
55.35274848180001
 20
49.22183401529999
 30
0.0
 11
53.4276741577
 21
50.2484788778
 31
0.0
  0
LINE
  5
93B83
330
1F
100
AcDbEntity
  8
cut
100
AcDbLine
 10
55.50074240920003
 20
49.14273265580002
 30
0.0
 11
55.35274848180001
 21
49.22183401529999
 31
0.0
  0
LINE
  5
93B84
330
1F
100
AcDbEntity
  8
cut
100
AcDbLine
 10
55.66051838440003
 20
49.05729873950003
 30
0.0
 11
55.50074240920003
 21
49.14273265580002
 31
0.0
  0
LINE
  5
93B85
330
1F
100
AcDbEntity
  8
cut
100
AcDbLine
 10
55.83437823870003
 20
48.96429378690001
 30
0.0
 11
55.66051838440003
 21
49.05729873950003
 31
0.0
  0
LINE
  5
93B86
330
1F
100
AcDbEntity
  8
cut
100
AcDbLine
 10
53.20805823100002
 20
50.3653199144
 30
0.0
 11
53.06739090180002
 21
50.44042872540001
 31
0.0
  0
LINE
  5
93B87
330
1F
100
AcDbEntity
  8
cut
100
AcDbLine
 10
56.12513271100002
 20
48.80866483920001
 30
0.0
 11
55.83437823870003
 21
48.96429378690001
 31
0.0
  0
LINE
  5
93B88
330
1F
100
AcDbEntity
  8
cut
100
AcDbLine
 10
56.32064411340002
 20
48.70395943760001
 30
0.0
 11
56.12513271100002
 21
48.80866483920001
 31
0.0
  0
LINE
  5
93B89
330
1F
100
AcDbEntity
  8
cut
100
AcDbLine
 10
56.50062152360002
 20
48.60752391740001
 30
0.0
 11
56.32064411340002
 21
48.70395943760001
 31
0.0
  0
LINE
  5
93B8A
330
1F
100
AcDbEntity
  8
cut
100
AcDbLine
 10
56.76845865050001
 20
48.4639231769
 30
0.0
 11
56.50062152360002
 21
48.60752391740001
 31
0.0
  0
LWPOLYLINE
  5
93B8B
330
1F
100
AcDbEntity
  8
cut
100
AcDbPolyline
 90
        3
 70
     0
 43
0.0
 10
57.0337395602
 20
48.32158288780003
 10
56.9455966145
 20
48.36888960070002
 10
56.76845865050001
 20
48.4639231769
  0
LINE
  5
93B8C
330
1F
100
AcDbEntity
  8
cut
100
AcDbLine
 10
53.06739090180002
 20
50.44042872540001
 30
0.0
 11
52.95020400930003
 21
50.5035855783
 31
0.0
  0
LWPOLYLINE
  5
93B8D
330
1F
100
AcDbEntity
  8
cut
100
AcDbPolyline
 90
        4
 70
     0
 43
0.0
 10
58.21550988180002
 20
47.70152332720002
 10
58.09321302549999
 20
47.76783477150003
 10
57.9699569359
 20
47.83412488240003
 10
57.84574161310001
 20
47.90039365990003
  0
LINE
  5
93B8E
330
1F
100
AcDbEntity
  8
cut
100
AcDbLine
 10
52.95020400930003
 20
50.5035855783
 30
0.0
 11
52.82351305170002
 21
50.57259345690003
 31
0.0
  0
LINE
  5
93B8F
330
1F
100
AcDbEntity
  8
cut
100
AcDbLine
 10
52.82351305170002
 20
50.57259345690003
 30
0.0
 11
52.69333501420002
 21
50.6442186342
 31
0.0
  0
LINE
  5
93B90
330
1F
100
AcDbEntity
  8
cut
100
AcDbLine
 10
52.69333501420002
 20
50.6442186342
 30
0.0
 11
52.56473671480001
 21
50.71568076030001
 31
0.0
  0
LINE
  5
93B91
330
1F
100
AcDbEntity
  8
cut
100
AcDbLine
 10
52.56473671480001
 20
50.71568076030001
 30
0.0
 11
52.43698192000002
 21
50.78739231470001
 31
0.0
  0
LINE
  5
93B92
330
1F
100
AcDbEntity
  8
cut
100
AcDbLine
 10
52.43698192000002
 20
50.78739231470001
 30
0.0
 11
52.30861555250001
 21
50.8601382658
 31
0.0
  0
LINE
  5
93B93
330
1F
100
AcDbEntity
  8
cut
100
AcDbLine
 10
52.30861555250001
 20
50.8601382658
 30
0.0
 11
52.17907321120002
 21
50.9342404075
 31
0.0
  0
LINE
  5
93B94
330
1F
100
AcDbEntity
  8
cut
100
AcDbLine
 10
52.17907321120002
 20
50.9342404075
 30
0.0
 11
52.0483191373
 21
51.00973498290002
 31
0.0
  0
LINE
  5
93B95
330
1F
100
AcDbEntity
  8
cut
100
AcDbLine
 10
52.0483191373
 20
51.00973498290002
 30
0.0
 11
51.91676471000001
 21
51.08640292710001
 31
0.0
  0
LINE
  5
93B96
330
1F
100
AcDbEntity
  8
cut
100
AcDbLine
 10
51.91676471000001
 20
51.08640292710001
 30
0.0
 11
51.78488081840001
 21
51.16398351500001
 31
0.0
  0
LINE
  5
93B97
330
1F
100
AcDbEntity
  8
cut
100
AcDbLine
 10
51.78488081840001
 20
51.16398351500001
 30
0.0
 11
51.65306566530003
 21
51.2422427023
 31
0.0
  0
LWPOLYLINE
  5
93B98
330
1F
100
AcDbEntity
  8
cut
100
AcDbPolyline
 90
        3
 70
     0
 43
0.0
 10
51.65306566530003
 20
51.2422427023
 10
51.52176421200003
 20
51.3209091511
 10
51.4781414757
 20
51.34720326060002
  0
LWPOLYLINE
  5
93B99
330
1F
100
AcDbEntity
  8
cut
100
AcDbPolyline
 90
       31
 70
     0
 43
0.0
 10
51.47814214320002
 20
51.3472028576
 10
51.4452145125
 20
51.36790759780001
 10
51.4139945061
 20
51.38842588
 10
51.38448212400001
 20
51.4087577044
 10
51.35679392580001
 20
51.4289266535
 10
51.3308133518
 20
51.44890914480001
 10
51.3061907239
 20
51.46863443029999
 10
51.2829114152
 20
51.4880647926
 10
51.26099005240003
 20
51.50723794910001
 10
51.2401208375
 20
51.5261963048
 10
51.22028954460001
 20
51.54492039360002
 10
51.20151039940004
 20
51.5634296816
 10
51.18352028110003
 20
51.58182497110002
 10
51.16630319690003
 20
51.6000989352
 10
51.1498751396
 20
51.61825890080002
 10
51.13402096650003
 20
51.6364276516
 10
51.11872705100005
 20
51.6545979167
 10
51.10400701980001
 20
51.6727769668
 10
51.0896866102
 20
51.69110939780001
 10
51.07573193470003
 20
51.7096210759
 10
51.06217688080003
 20
51.72828613480001
 10
51.04894884880002
 20
51.7471715711
 10
51.0360234307
 20
51.76630589860002
 10
51.0234250345
 20
51.7856606034
 10
51.0111542849
 20
51.80521714070002
 10
50.99920941979999
 20
51.8249764703
 10
50.98759220120005
 20
51.84493763240002
 10
50.97630854060003
 20
51.86507920280003
 10
50.96536040830002
 20
51.88539404010001
 10
50.9547458339
 20
51.90588928570003
 10
50.94446481750001
 20
51.92656493970003
  0
LWPOLYLINE
  5
93B9A
330
1F
100
AcDbEntity
  8
cut
100
AcDbPolyline
 90
       16
 70
     0
 43
0.0
 10
47.484820954
 20
58.8911347801
 10
47.47554524920001
 20
58.90922073980003
 10
47.46674950610002
 20
58.92746825980001
 10
47.45843372450003
 20
58.9458773402
 10
47.45059276760001
 20
58.96446947980003
 10
47.4432317723
 20
58.98322317970002
 10
47.43636614959998
 20
59.0020739431
 10
47.4300023473
 20
59.02100459470003
 10
47.42413391760003
 20
59.04003230970002
 10
47.41875692799999
 20
59.05914411689999
 10
47.41386703850003
 20
59.07835761610003
 10
47.40946858920003
 20
59.09765520749999
 10
47.4055706673
 20
59.11697112060004
 10
47.4021763018
 20
59.1362834318
 10
47.39928246380002
 20
59.15561406460003
 10
47.3968891532
 20
59.174963019
  0
LINE
  5
93B9B
330
1F
100
AcDbEntity
  8
cut
100
AcDbLine
 10
48.4672409666
 20
56.9388083498
 30
0.0
 11
48.08472922840002
 21
57.69574679090002
 31
0.0
  0
LINE
  5
93B9C
330
1F
100
AcDbEntity
  8
cut
100
AcDbLine
 10
48.84644491479999
 20
56.18446740470003
 30
0.0
 11
48.4672409666
 21
56.9388083498
 31
0.0
  0
LINE
  5
93B9D
330
1F
100
AcDbEntity
  8
cut
100
AcDbLine
 10
48.08472922840002
 20
57.69574679090002
 30
0.0
 11
48.07690579830002
 21
57.71134944800002
 31
0.0
  0
LINE
  5
93B9E
330
1F
100
AcDbEntity
  8
cut
100
AcDbLine
 10
49.22984552449999
 20
55.4173900511
 30
0.0
 11
48.84644491479999
 21
56.18446740470003
 31
0.0
  0
LINE
  5
93B9F
330
1F
100
AcDbEntity
  8
cut
100
AcDbLine
 10
49.54475642810002
 20
54.78396457170001
 30
0.0
 11
49.22984552449999
 21
55.4173900511
 31
0.0
  0
LINE
  5
93BA0
330
1F
100
AcDbEntity
  8
cut
100
AcDbLine
 10
49.87107403909998
 20
54.12422703909999
 30
0.0
 11
49.54475642810002
 21
54.78396457170001
 31
0.0
  0
LINE
  5
93BA1
330
1F
100
AcDbEntity
  8
cut
100
AcDbLine
 10
48.07690579830002
 20
57.71134944800002
 30
0.0
 11
48.06908745670003
 21
57.72726786450003
 31
0.0
  0
LINE
  5
93BA2
330
1F
100
AcDbEntity
  8
cut
100
AcDbLine
 10
50.52265506160001
 20
52.79559450640002
 30
0.0
 11
49.87107403909998
 21
54.12422703909999
 31
0.0
  0
LINE
  5
93BA3
330
1F
100
AcDbEntity
  8
cut
100
AcDbLine
 10
50.75597462920004
 20
52.3158113274
 30
0.0
 11
50.52265506160001
 21
52.79559450640002
 31
0.0
  0
LWPOLYLINE
  5
93BA4
330
1F
100
AcDbEntity
  8
cut
100
AcDbPolyline
 90
        9
 70
     0
 43
0.0
 10
48.00086319900003
 20
57.8696034525
 10
47.9395488407
 20
57.99606422810001
 10
47.87733112880002
 20
58.1228843668
 10
47.8142187106
 20
58.2500719077
 10
47.7502029388
 20
58.37761881170002
 10
47.6852578714
 20
58.5055009628
 10
47.61937486090002
 20
58.63371032220001
 10
47.55256255479999
 20
58.7622549285
 10
47.4848209531
 20
58.89113478190001
  0
LINE
  5
93BA5
330
1F
100
AcDbEntity
  8
cut
100
AcDbLine
 10
50.94446485569999
 20
51.92656486130002
 30
0.0
 11
50.75597462819999
 21
52.31581132940003
 31
0.0
  0
LINE
  5
93BA6
330
1F
100
AcDbEntity
  8
cut
100
AcDbLine
 10
48.06908745670003
 20
57.72726786450003
 30
0.0
 11
48.00086319900003
 21
57.8696034525
 31
0.0
  0
LINE
  5
93BA7
330
1F
100
AcDbEntity
  8
cut
100
AcDbLine
 10
63.49357405270001
 20
61.33215522400003
 30
0.0
 11
63.5
 21
62.6999999989
 31
0.0
  0
LINE
  5
93BA8
330
1F
100
AcDbEntity
  8
cut
100
AcDbLine
 10
63.49357405270001
 20
61.33215522400003
 30
0.0
 11
63.49344257320002
 21
61.3232562743
 31
0.0
  0
LINE
  5
93BA9
330
1F
100
AcDbEntity
  8
cut
100
AcDbLine
 10
63.2568313181
 20
55.14051214990002
 30
0.0
 11
63.25181409960001
 21
54.83073432380002
 31
0.0
  0
LINE
  5
93BAA
330
1F
100
AcDbEntity
  8
cut
100
AcDbLine
 10
63.26324528030003
 20
55.4481486693
 30
0.0
 11
63.2568313181
 21
55.14051214990002
 31
0.0
  0
LINE
  5
93BAB
330
1F
100
AcDbEntity
  8
cut
100
AcDbLine
 10
63.49344257320002
 20
61.3232562743
 30
0.0
 11
63.4930620223
 21
61.3054104341
 31
0.0
  0
LWPOLYLINE
  5
93BAC
330
1F
100
AcDbEntity
  8
cut
100
AcDbPolyline
 90
       25
 70
     0
 43
0.0
 10
63.25181409970003
 20
54.83073432820001
 10
63.25096826180001
 20
54.79719045250002
 10
63.24941270720001
 20
54.7638729914
 10
63.24714743590002
 20
54.73078194480001
 10
63.2441620039
 20
54.6979092207
 10
63.24046685520002
 20
54.6652629112
 10
63.23609332220001
 20
54.6328672928
 10
63.23103953150003
 20
54.60073004320004
 10
63.2253073564
 20
54.56884348480002
 10
63.21893374970002
 20
54.53720886080001
 10
63.21192246940004
 20
54.50582235700003
 10
63.20426975730001
 20
54.47468778780001
 10
63.1960012918
 20
54.44381783919999
 10
63.1871290171
 20
54.41321978060003
 10
63.17764098900003
 20
54.3828863427
 10
63.16752705280003
 20
54.35280840400004
 10
63.15678898150004
 20
54.32297609120002
 10
63.14542500220003
 20
54.2933992776
 10
63.1334196405
 20
54.26409846190001
 10
63.12077326280004
 20
54.23507314610001
 10
63.10748550280004
 20
54.20632382820002
 10
63.09353978770002
 20
54.1778725004
 10
63.07893059350003
 20
54.1497264935
 10
63.0636634443
 20
54.12187847680002
 10
63.04773834010004
 20
54.09432845030003
  0
LINE
  5
93BAD
330
1F
100
AcDbEntity
  8
cut
100
AcDbLine
 10
63.2710288682
 20
55.75401351580001
 30
0.0
 11
63.26324528030003
 21
55.4481486693
 31
0.0
  0
LINE
  5
93BAE
330
1F
100
AcDbEntity
  8
cut
100
AcDbLine
 10
63.28006963520002
 20
56.05573990719999
 30
0.0
 11
63.2710288682
 21
55.75401351580001
 31
0.0
  0
LINE
  5
93BAF
330
1F
100
AcDbEntity
  8
cut
100
AcDbLine
 10
63.4930620223
 20
61.3054104341
 30
0.0
 11
63.49252468220001
 21
61.2875006726
 31
0.0
  0
LINE
  5
93BB0
330
1F
100
AcDbEntity
  8
cut
100
AcDbLine
 10
63.29038901770002
 20
56.35443152940002
 30
0.0
 11
63.28006963520002
 21
56.05573990719999
 31
0.0
  0
LINE
  5
93BB1
330
1F
100
AcDbEntity
  8
cut
100
AcDbLine
 10
63.49252468220001
 20
61.2875006726
 30
0.0
 11
63.46379179280003
 21
60.55114721590001
 31
0.0
  0
LINE
  5
93BB2
330
1F
100
AcDbEntity
  8
cut
100
AcDbLine
 10
63.46379179280003
 20
60.55114721590001
 30
0.0
 11
63.43325310830003
 21
59.78476582270002
 31
0.0
  0
LINE
  5
93BB3
330
1F
100
AcDbEntity
  8
cut
100
AcDbLine
 10
63.3016338596
 20
56.64260781020002
 30
0.0
 11
63.29038901770002
 21
56.35443152940002
 31
0.0
  0
LINE
  5
93BB4
330
1F
100
AcDbEntity
  8
cut
100
AcDbLine
 10
63.43325310830003
 20
59.78476582270002
 30
0.0
 11
63.39923803569999
 21
58.94897665440002
 31
0.0
  0
LINE
  5
93BB5
330
1F
100
AcDbEntity
  8
cut
100
AcDbLine
 10
63.39923803569999
 20
58.94897665440002
 30
0.0
 11
63.36484613380003
 21
58.12203204440002
 31
0.0
  0
LWPOLYLINE
  5
93BB6
330
1F
100
AcDbEntity
  8
cut
100
AcDbPolyline
 90
        4
 70
     0
 43
0.0
 10
63.36484613380003
 20
58.12203204440002
 10
63.31528407120003
 20
56.96081852490003
 10
63.31370684830003
 20
56.92456435780002
 10
63.31044068549999
 20
56.84937353860003
  0
LINE
  5
93BB7
330
1F
100
AcDbEntity
  8
cut
100
AcDbLine
 10
63.31044068549999
 20
56.84937353860003
 30
0.0
 11
63.3016338596
 21
56.64260781020002
 31
0.0
  0
LINE
  5
93BB8
330
1F
100
AcDbEntity
  8
cut
100
AcDbLine
 10
55.0763326489
 20
63.49999999890002
 30
0.0
 11
62.70000000000002
 21
63.49999999890002
 31
0.0
  0
ARC
  5
93BB9
330
1F
100
AcDbEntity
  8
cut
100
AcDbCircle
 10
55.0763326489
 20
61.49999999890003
 30
0.0
 40
2.0
100
AcDbArc
 50
90.0
 51
118.6597549810999
  0
ARC
  5
93BBA
330
1F
100
AcDbEntity
  8
cut
100
AcDbCircle
 10
62.70000000000002
 20
62.6999999989
 30
0.0
 40
0.8
100
AcDbArc
 50
0.0
 51
90.0
  0
DIMENSION
  5
93BBB
330
1F
100
AcDbEntity
  8
2
100
AcDbDimension
  2
*D1310
 10
62.70000000000002
 20
62.6999999989
 30
0.0
 11
80.34072900820659
 21
66.94917278353968
 31
0.0
 70
   164
 71
     5
 42
0.8
  3
コピー - ISO-25
100
AcDbRadialDimension
 15
63.47775552179204
 25
62.88734019299088
 35
0.0
 40
0.0
1001
ACAD
1000
DSTYLE
1002
{
1070
   170
1070
     1
1070
   171
1070
     3
1070
   143
1040
0.0393700787401575
1070
   285
1070
     4
1070
     4
1000
"
1070
   271
1070
     8
1070
    40
1040
1.0
1002
}
1001
ACAD_DSTYLE_DIMRADIAL_EXTENSION
1070
   387
1070
     1
1070
   388
1040
0.0
1070
   390
1040
1.570796326794896
1001
ACAD_DSTYLE_DIMINSPECT
1070
   396
1000

1070
   395
1000

1070
   394
1070
     1
1070
   393
1070
     0
1001
ZWMCAD_GENSTANDARDFRAME_13_
1070
   410
1000
GB
1070
   411
1000
ZwmFrameMain_
  0
VIEWPORT
  5
71
102
{ACAD_XDICTIONARY
360
87B09
102
}
330
55
100
AcDbEntity
 67
     1
  8
0
100
AcDbViewport
 10
150.1652135264906
 20
103.6581106594891
 30
0.0
 40
339.1973820494347
 41
168.6522697578383
 68
     1
 69
    -1
 12
150.1652135264906
 22
103.6581106594891
 13
0.0
 23
0.0
 14
10.0
 24
10.0
 15
10.0
 25
10.0
 16
0.0
 26
0.0
 36
1.0
 17
0.0
 27
0.0
 37
0.0
 42
50.0
 43
0.0
 44
0.0
 45
168.6522697578383
 50
0.0
 51
0.0
 72
  1000
 90
    32864
  1

281
     0
 71
     1
 74
     0
110
0.0
120
0.0
130
0.0
111
1.0
121
0.0
131
0.0
112
0.0
122
1.0
132
0.0
 79
     0
146
0.0
1001
ACAD
1000
MVIEW
1002
{
1070
    16
1010
0.0
1020
0.0
1030
0.0
1010
0.0
1020
0.0
1030
1.0
1040
0.0
1040
168.6522697578383
1040
150.1652135264906
1040
103.6581106594891
1040
50.0
1040
0.0
1040
0.0
1070
     0
1070
  1000
1070
     0
1070
     3
1070
     0
1070
     0
1070
     0
1070
     0
1040
0.0
1040
0.0
1040
0.0
1040
10.0
1040
10.0
1040
10.0
1040
10.0
1070
     0
1002
{
1002
}
1002
}
  0
VIEWPORT
  5
73
102
{ACAD_XDICTIONARY
360
87B0B
102
}
330
55
100
AcDbEntity
 67
     1
  8
0
100
AcDbViewport
 10
133.3499939441681
 20
101.5999939441681
 30
0.0
 40
213.3599903106689
 41
162.5599903106689
 68
     2
 69
    -1
 12
210.0
 22
148.5
 13
0.0
 23
0.0
 14
10.0
 24
10.0
 15
10.0
 25
10.0
 16
0.0
 26
0.0
 36
1.0
 17
0.0
 27
0.0
 37
0.0
 42
50.0
 43
0.0
 44
0.0
 45
324.0677920111345
 50
0.0
 51
0.0
 72
   100
 90
    32864
  1

281
     0
 71
     1
 74
     0
110
0.0
120
0.0
130
0.0
111
1.0
121
0.0
131
0.0
112
0.0
122
1.0
132
0.0
 79
     0
146
0.0
1001
ACAD
1000
MVIEW
1002
{
1070
    16
1010
0.0
1020
0.0
1030
0.0
1010
0.0
1020
0.0
1030
1.0
1040
0.0
1040
324.0677920111345
1040
210.0
1040
148.5
1040
50.0
1040
0.0
1040
0.0
1070
     0
1070
   100
1070
     0
1070
     3
1070
     0
1070
     0
1070
     0
1070
     0
1040
0.0
1040
0.0
1040
0.0
1040
10.0
1040
10.0
1040
10.0
1040
10.0
1070
     0
1002
{
1002
}
1002
}
  0
ENDSEC
  0
SECTION
  2
OBJECTS
  0
DICTIONARY
  5
C
330
0
100
AcDbDictionary
281
     1
  3
ACAD_2007HEADERVARS_RT
350
93C2F
  3
ACAD_CIP_PREVIOUS_PRODUCT_INFO
350
4A3C3
  3
ACAD_COLOR
350
85
  3
ACAD_DETAILVIEWSTYLE
350
4A3BB
  3
ACAD_GROUP
350
D
  3
ACAD_LAYOUT
350
1A
  3
ACAD_MATERIAL
350
84
  3
ACAD_MLEADERSTYLE
350
4A3B7
  3
ACAD_MLINESTYLE
350
17
  3
ACAD_PLOTSETTINGS
350
19
  3
ACAD_PLOTSTYLENAME
350
E
  3
ACAD_SCALELIST
350
4A3A5
  3
ACAD_SECTIONVIEWSTYLE
350
4A3B9
  3
ACAD_TABLESTYLE
350
A1
  3
ACAD_VISUALSTYLE
350
4A38C
  3
ACDB_RECOMPOSE_DATA
350
907A1
  3
ACDBHEADERROUNDTRIPXREC
350
93C2C
  3
AcDbVariableDictionary
350
5E
  3
ASE_INDEX_DICTIONARY
350
349E9
  3
DWGPROPS
350
93C32
  0
DICTIONARY
  5
8C34E
330
8
100
AcDbDictionary
280
     1
281
     1
  3
ACAD_XREC_ROUNDTRIP
360
93C38
  0
DICTIONARY
  5
E2
330
2
100
AcDbDictionary
280
     1
281
     1
  3
ACAD_LAYERFILTERS
360
4A339
  3
ACAD_LAYERSTATES
360
3759A
  3
ACLYDICTIONARY
360
4A338
  0
DICTIONARY
  5
4A86C
330
10
100
AcDbDictionary
280
     1
281
     1
  3
ADSK_XREC_LAYER_RECONCILED
360
4A86D
  0
DICTIONARY
  5
4A773
330
4A772
100
AcDbDictionary
280
     1
281
     1
  3
ADSK_XREC_LAYER_RECONCILED
360
4A86E
  0
DICTIONARY
  5
4A775
330
4A774
100
AcDbDictionary
280
     1
281
     1
  3
ADSK_XREC_LAYER_RECONCILED
360
4A86F
  0
DICTIONARY
  5
4A777
330
4A776
100
AcDbDictionary
280
     1
281
     1
  3
ADSK_XREC_LAYER_RECONCILED
360
4A870
  0
DICTIONARY
  5
4A779
330
4A778
100
AcDbDictionary
280
     1
281
     1
  3
ADSK_XREC_LAYER_RECONCILED
360
4A871
  0
DICTIONARY
  5
4A77B
330
4A77A
100
AcDbDictionary
280
     1
281
     1
  3
ADSK_XREC_LAYER_RECONCILED
360
4A872
  0
DICTIONARY
  5
4A77F
330
4A77E
100
AcDbDictionary
280
     1
281
     1
  3
ADSK_XREC_LAYER_RECONCILED
360
4A874
  0
DICTIONARY
  5
4A783
330
4A782
100
AcDbDictionary
280
     1
281
     1
  3
ADSK_XREC_LAYER_RECONCILED
360
4A876
  0
DICTIONARY
  5
8C34C
330
87B52
100
AcDbDictionary
280
     1
281
     1
  3
ACAD_XREC_ROUNDTRIP
360
93C37
  0
DICTIONARY
  5
31EE
330
1F
100
AcDbDictionary
280
     1
281
     1
  3
ACAD_SORTENTS
360
31EF
  0
DICTIONARY
  5
4A6D7
330
4A6D6
100
AcDbDictionary
280
     1
281
     1
  3
ACAD_SORTENTS
360
4A6D8
  0
DICTIONARY
  5
87B05
330
6B
100
AcDbDictionary
280
     1
281
     1
  3
ACAD_XREC_ROUNDTRIP
360
93C35
  0
DICTIONARY
  5
87B07
330
6D
100
AcDbDictionary
280
     1
281
     1
  3
ACAD_XREC_ROUNDTRIP
360
93C36
  0
DICTIONARY
  5
93821
330
93820
100
AcDbDictionary
280
     1
281
     1
  3
ACAD_DIMASSOC
360
93822
  0
DICTIONARY
  5
93824
330
93823
100
AcDbDictionary
280
     1
281
     1
  3
ACAD_DIMASSOC
360
93825
  0
DICTIONARY
  5
93827
330
93826
100
AcDbDictionary
280
     1
281
     1
  3
ACAD_DIMASSOC
360
93828
  0
DICTIONARY
  5
87B09
330
71
100
AcDbDictionary
280
     1
281
     1
  3
ACAD_XREC_ROUNDTRIP
360
93C33
  0
DICTIONARY
  5
87B0B
330
73
100
AcDbDictionary
280
     1
281
     1
  3
ACAD_XREC_ROUNDTRIP
360
93C34
  0
DICTIONARY
  5
93C2F
102
{ACAD_REACTORS
330
C
102
}
330
C
100
AcDbDictionary
281
     1
  3
DIMTFILL
350
93C30
  3
DIMTFILLCLR
350
93C31
  0
XRECORD
  5
4A3C3
102
{ACAD_REACTORS
330
C
102
}
330
C
100
AcDbXrecord
280
     1
300
ACDLT
300
2020
300

  0
DICTIONARY
  5
85
102
{ACAD_REACTORS
330
C
102
}
330
C
100
AcDbDictionary
281
     1
  0
DICTIONARY
  5
4A3BB
102
{ACAD_REACTORS
330
C
102
}
330
C
100
AcDbDictionary
281
     1
  3
Metric50
350
4A3BC
  0
DICTIONARY
  5
D
102
{ACAD_REACTORS
330
C
102
}
330
C
100
AcDbDictionary
281
     1
  0
DICTIONARY
  5
1A
102
{ACAD_REACTORS
330
C
102
}
330
C
100
AcDbDictionary
281
     1
  3
Model
350
22
  3
レイアウト1
350
51
  3
レイアウト2
350
56
  0
DICTIONARY
  5
84
102
{ACAD_REACTORS
330
C
102
}
330
C
100
AcDbDictionary
281
     1
  3
ByBlock
350
4A37C
  3
ByLayer
350
4A374
  3
Global
350
4A384
  0
DICTIONARY
  5
4A3B7
102
{ACAD_REACTORS
330
C
102
}
330
C
100
AcDbDictionary
281
     1
  3
Standard
350
4A3B8
  0
DICTIONARY
  5
17
102
{ACAD_REACTORS
330
C
102
}
330
C
100
AcDbDictionary
281
     1
  3
Standard
350
18
  0
DICTIONARY
  5
19
102
{ACAD_REACTORS
330
C
102
}
330
C
100
AcDbDictionary
281
     1
  0
ACDBDICTIONARYWDFLT
  5
E
102
{ACAD_REACTORS
330
C
102
}
330
C
100
AcDbDictionary
281
     1
  3
Normal
350
F
100
AcDbDictionaryWithDefault
340
F
  0
DICTIONARY
  5
4A3A5
102
{ACAD_REACTORS
330
C
102
}
330
C
100
AcDbDictionary
281
     1
  3
A0
350
4A3A6
  3
A1
350
4A3A7
  3
A2
350
4A3A8
  3
A3
350
4A3A9
  3
A4
350
4A3AA
  3
A5
350
4A3AB
  3
A6
350
4A3AC
  3
A7
350
4A3AD
  3
A8
350
4A3AE
  3
A9
350
4A3AF
  3
B0
350
4A3B0
  3
B1
350
4A3B1
  3
B2
350
4A3B2
  3
B3
350
4A3B3
  3
B4
350
4A3B4
  3
B5
350
4A3B5
  3
B6
350
4A3B6
  0
DICTIONARY
  5
4A3B9
102
{ACAD_REACTORS
330
C
102
}
330
C
100
AcDbDictionary
281
     1
  3
Metric50
350
4A3BA
  0
DICTIONARY
  5
A1
102
{ACAD_REACTORS
330
C
102
}
330
C
100
AcDbDictionary
281
     1
  3
Standard
350
A2
  0
DICTIONARY
  5
4A38C
102
{ACAD_REACTORS
330
C
102
}
330
C
100
AcDbDictionary
281
     1
  3
2dWireframe
350
4A392
  3
Basic
350
4A391
  3
Brighten
350
4A398
  3
ColorChange
350
4A39C
  3
Conceptual
350
4A395
  3
Dim
350
4A397
  3
EdgeColorOff
350
4A3A4
  3
Facepattern
350
4A39B
  3
Flat
350
4A38D
  3
FlatWithEdges
350
4A38E
  3
Gouraud
350
4A38F
  3
GouraudWithEdges
350
4A390
  3
Hidden
350
4A394
  3
JitterOff
350
4A3A2
  3
Linepattern
350
4A39A
  3
OverhangOff
350
4A3A3
  3
Realistic
350
4A396
  3
Shaded
350
4A3A1
  3
Shaded with edges
350
4A3A0
  3
Shades of Gray
350
4A39D
  3
Sketchy
350
4A39E
  3
Thicken
350
4A399
  3
Wireframe
350
4A393
  3
X-Ray
350
4A39F
  0
XRECORD
  5
907A1
102
{ACAD_REACTORS
330
C
102
}
330
C
100
AcDbXrecord
280
     1
 90
        1
330
A2
  0
DICTIONARY
  5
93C2C
102
{ACAD_REACTORS
330
C
102
}
330
C
100
AcDbDictionary
281
     1
  3
COLORDICT
350
93C2D
  3
MATERIALDICT
350
93C2E
  0
DICTIONARY
  5
5E
102
{ACAD_REACTORS
330
C
102
}
330
C
100
AcDbDictionary
281
     1
  3
CANNOSCALE
350
93C2B
  3
CMLEADERSTYLE
350
4A6CE
  3
CTABLESTYLE
350
B8
  3
CVIEWDETAILSTYLE
350
4A6CF
  3
CVIEWSECTIONSTYLE
350
4A6D0
  3
DIMASSOC
350
5F
  3
HIDETEXT
350
63
  3
INDEXCTL
350
4A879
  3
LAYEREVAL
350
4A6D4
  3
LAYERNOTIFY
350
4A6D5
  3
LIGHTINGUNITS
350
4A6D3
  3
MSLTSCALE
350
4A6D1
  3
PROJECTNAME
350
31CE
  3
SORTENTS
350
4A878
  3
XCLIPFRAME
350
87AF9
  0
DICTIONARY
  5
349E9
102
{ACAD_REACTORS
330
C
102
}
330
C
100
AcDbDictionary
281
     1
  3
ASEBlockHierarchyIndexRecord
350
349EA
1001
DCO15
1040
1842496176.844
  0
XRECORD
  5
93C32
102
{ACAD_REACTORS
330
C
102
}
330
C
100
AcDbXrecord
280
     1
  1
DWGPROPS COOKIE
  2

  3

  4

  6

  7

  8
zhangnw
  9

300
=
301
=
302
=
303
=
304
=
305
=
306
=
307
=
308
=
309
=
 40
0.0
 41
2455489.391063368
 42
2458948.453469699
  1

 90
        0
  0
XRECORD
  5
93C38
102
{ACAD_REACTORS
330
8C34E
102
}
330
8C34E
100
AcDbXrecord
280
     1
102
VTR_0.000_0.000_1.000_1.000_VISUALSTYLE
340
4A392
102
VTR_0.000_0.000_1.000_1.000_GRIDDISPLAY
 70
     3
102
VTR_0.000_0.000_1.000_1.000_GRIDMAJOR
 70
     5
102
VTR_0.000_0.000_1.000_1.000_DEFAULTLIGHTING
280
     1
102
VTR_0.000_0.000_1.000_1.000_DEFAULTLIGHTINGTYPE
 70
     1
102
VTR_0.000_0.000_1.000_1.000_BRIGHTNESS
141
0.0
102
VTR_0.000_0.000_1.000_1.000_CONTRAST
142
0.0
  0
DICTIONARY
  5
4A339
102
{ACAD_REACTORS
330
E2
102
}
330
E2
100
AcDbDictionary
281
     1
  0
DICTIONARY
  5
3759A
102
{ACAD_REACTORS
330
E2
102
}
330
E2
100
AcDbDictionary
281
     1
  0
DICTIONARY
  5
4A338
102
{ACAD_REACTORS
330
E2
102
}
330
E2
100
AcDbDictionary
281
     1
1001
ACAD
1000
<All
  0
XRECORD
  5
4A86D
102
{ACAD_REACTORS
330
4A86C
102
}
330
4A86C
100
AcDbXrecord
280
     1
290
     1
  0
XRECORD
  5
4A86E
102
{ACAD_REACTORS
330
4A773
102
}
330
4A773
100
AcDbXrecord
280
     1
290
     1
  0
XRECORD
  5
4A86F
102
{ACAD_REACTORS
330
4A775
102
}
330
4A775
100
AcDbXrecord
280
     1
290
     1
  0
XRECORD
  5
4A870
102
{ACAD_REACTORS
330
4A777
102
}
330
4A777
100
AcDbXrecord
280
     1
290
     1
  0
XRECORD
  5
4A871
102
{ACAD_REACTORS
330
4A779
102
}
330
4A779
100
AcDbXrecord
280
     1
290
     1
  0
XRECORD
  5
4A872
102
{ACAD_REACTORS
330
4A77B
102
}
330
4A77B
100
AcDbXrecord
280
     1
290
     1
  0
XRECORD
  5
4A874
102
{ACAD_REACTORS
330
4A77F
102
}
330
4A77F
100
AcDbXrecord
280
     1
290
     1
  0
XRECORD
  5
4A876
102
{ACAD_REACTORS
330
4A783
102
}
330
4A783
100
AcDbXrecord
280
     1
290
     1
  0
XRECORD
  5
93C37
102
{ACAD_REACTORS
330
8C34C
102
}
330
8C34C
100
AcDbXrecord
280
     1
102
MATERIAL
340
4A384
  0
SORTENTSTABLE
  5
31EF
102
{ACAD_REACTORS
330
31EE
102
}
330
31EE
100
AcDbSortentsTable
330
1F
  0
SORTENTSTABLE
  5
4A6D8
102
{ACAD_REACTORS
330
4A6D7
102
}
330
4A6D7
100
AcDbSortentsTable
330
4A6D6
  0
XRECORD
  5
93C35
102
{ACAD_REACTORS
330
87B05
102
}
330
87B05
100
AcDbXrecord
280
     1
102
GRIDDISPLAY
 70
     0
102
GRIDMAJOR
 70
     5
102
DEFAULTLIGHTING
280
     1
102
DEFAULTLIGHTINGTYPE
 70
     1
102
BRIGHTNESS
141
0.0
102
CONTRAST
142
0.0
  0
XRECORD
  5
93C36
102
{ACAD_REACTORS
330
87B07
102
}
330
87B07
100
AcDbXrecord
280
     1
102
GRIDDISPLAY
 70
     0
102
GRIDMAJOR
 70
     5
102
DEFAULTLIGHTING
280
     1
102
DEFAULTLIGHTINGTYPE
 70
     1
102
BRIGHTNESS
141
0.0
102
CONTRAST
142
0.0
  0
DIMASSOC
  5
93822
102
{ACAD_REACTORS
330
93821
102
}
330
93821
100
AcDbDimAssoc
330
93820
 90
        1
 70
     0
 71
     0
  1
AcDbOsnapPointRef
 72
     1
331
93801
 73
     2
 91
        0
 40
3.141592653589792
 10
0.0
 20
0.0
 30
1.999999999999998E+50
 75
     0
  0
DIMASSOC
  5
93825
102
{ACAD_REACTORS
330
93824
102
}
330
93824
100
AcDbDimAssoc
330
93823
 90
        2
 70
     0
 71
     0
  1
AcDbOsnapPointRef
 72
    13
331
9381C
 73
     2
 91
        0
 40
3.141592653589792
 10
0.0
 20
0.0
 30
1.999999999999998E+50
 75
     0
  0
DIMASSOC
  5
93828
102
{ACAD_REACTORS
330
93827
102
}
330
93827
100
AcDbDimAssoc
330
93826
 90
        3
 70
     0
 71
     0
  1
AcDbOsnapPointRef
 72
    13
331
93723
 73
     2
 91
        0
 40
0.0
 10
0.0
 20
0.0
 30
1.999999999999998E+50
 75
     0
  1
AcDbOsnapPointRef
 72
    13
331
9380B
 73
     2
 91
        0
 40
0.0
 10
0.0
 20
0.0
 30
1.999999999999998E+50
 75
     0
  0
XRECORD
  5
93C33
102
{ACAD_REACTORS
330
87B09
102
}
330
87B09
100
AcDbXrecord
280
     1
102
GRIDDISPLAY
 70
     0
102
GRIDMAJOR
 70
     5
102
DEFAULTLIGHTING
280
     1
102
DEFAULTLIGHTINGTYPE
 70
     1
102
BRIGHTNESS
141
0.0
102
CONTRAST
142
0.0
  0
XRECORD
  5
93C34
102
{ACAD_REACTORS
330
87B0B
102
}
330
87B0B
100
AcDbXrecord
280
     1
102
GRIDDISPLAY
 70
     0
102
GRIDMAJOR
 70
     5
102
DEFAULTLIGHTING
280
     1
102
DEFAULTLIGHTINGTYPE
 70
     1
102
BRIGHTNESS
141
0.0
102
CONTRAST
142
0.0
  0
XRECORD
  5
93C30
102
{ACAD_REACTORS
330
93C2F
102
}
330
93C2F
100
AcDbXrecord
280
     1
 70
     1
  0
XRECORD
  5
93C31
102
{ACAD_REACTORS
330
93C2F
102
}
330
93C2F
100
AcDbXrecord
280
     1
1004
1800000001000000000000C1000000000000000000000000
  0
ACDBDETAILVIEWSTYLE
  5
4A3BC
102
{ACAD_XDICTIONARY
360
87B40
102
}
102
{ACAD_REACTORS
330
4A3BB
102
}
330
4A3BB
100
AcDbModelDocViewStyle
 70
     0
  3
Metric50
290
     0
100
AcDbDetailViewStyle
 70
     0
 71
     0
 90
        3
 71
     1
340
11
 40
5.0
340
0
 40
5.0
300

 40
0.0
280
     1
 71
     2
340
16
 90
       25
 71
     3
340
11
 40
5.0
 90
        0
 40
15.0
 90
        1
300
%<\AcVar ViewDetailId>% (%<\AcVar ViewScale \f "%sn">%)
 71
     4
340
16
 90
       25
340
16
 90
       25
280
     0
  0
LAYOUT
  5
22
102
{ACAD_REACTORS
330
1A
102
}
330
1A
100
AcDbPlotSettings
  1

  2
none_device
  4
ANSI_A_(8.50_x_11.00_Inches)
  6

 40
6.349999904632567
 41
19.04999923706055
 42
6.350006103515625
 43
19.04998779296875
 44
215.8999938964844
 45
279.3999938964844
 46
0.0
 47
0.0
 48
0.0
 49
0.0
140
0.0
141
0.0
142
1.0
143
78.436453180766
 70
 11952
 72
     0
 73
     1
 74
     0
  7

 75
     0
147
0.0127491741332998
148
0.0
149
0.0
100
AcDbLayout
  1
Model
 70
     1
 71
     0
 10
0.0
 20
0.0
 11
12.0
 21
9.0
 12
0.0
 22
0.0
 32
0.0
 14
0.0
 24
0.0
 34
0.0
 15
0.0
 25
0.0
 35
0.0
146
0.0
 13
0.0
 23
0.0
 33
0.0
 16
1.0
 26
0.0
 36
0.0
 17
0.0
 27
1.0
 37
0.0
 76
     0
330
1F
331
4A360
  0
LAYOUT
  5
51
102
{ACAD_REACTORS
330
1A
102
}
330
1A
100
AcDbPlotSettings
  1

  2
none_device
  4
Letter_(8.50_x_11.00_Inches)
  6

 40
6.349999904632567
 41
6.349999904632567
 42
6.350006103515625
 43
6.350006103515625
 44
215.8999938964844
 45
279.3999938964844
 46
0.0
 47
0.0
 48
0.0
 49
0.0
140
0.0
141
0.0
142
1.0
143
1.0
 70
   688
 72
     1
 73
     1
 74
     5
  7

 75
    16
147
1.0
148
0.0
149
0.0
100
AcDbLayout
  1
レイアウト1
 70
     1
 71
     1
 10
-6.350006103515625
 20
-6.349999904632567
 11
273.0499877929688
 21
209.5499939918518
 12
0.0
 22
0.0
 32
0.0
 14
26.66999878883364
 24
20.31999878883365
 34
0.0
 15
240.0299890995025
 25
182.8799890995025
 35
0.0
146
0.0
 13
0.0
 23
0.0
 33
0.0
 16
1.0
 26
0.0
 36
0.0
 17
0.0
 27
1.0
 37
0.0
 76
     0
330
50
331
6B
  0
LAYOUT
  5
56
102
{ACAD_REACTORS
330
1A
102
}
330
1A
100
AcDbPlotSettings
  1

  2
none_device
  4
Letter_(8.50_x_11.00_Inches)
  6

 40
6.349999904632567
 41
6.349999904632567
 42
6.350006103515625
 43
6.350006103515625
 44
215.8999938964844
 45
279.3999938964844
 46
0.0
 47
0.0
 48
0.0
 49
0.0
140
0.0
141
0.0
142
1.0
143
1.0
 70
   688
 72
     1
 73
     1
 74
     5
  7

 75
    16
147
1.0
148
0.0
149
0.0
100
AcDbLayout
  1
レイアウト2
 70
     1
 71
     2
 10
-6.350006103515625
 20
-6.349999904632567
 11
273.0499877929688
 21
209.5499939918518
 12
0.0
 22
0.0
 32
0.0
 14
26.66999878883364
 24
20.31999878883365
 34
0.0
 15
240.0299890995025
 25
182.8799890995025
 35
0.0
146
0.0
 13
0.0
 23
0.0
 33
0.0
 16
1.0
 26
0.0
 36
0.0
 17
0.0
 27
1.0
 37
0.0
 76
     0
330
55
331
71
  0
MATERIAL
  5
4A37C
102
{ACAD_XDICTIONARY
360
4A37D
102
}
102
{ACAD_REACTORS
330
84
102
}
330
84
100
AcDbMaterial
  1
ByBlock
 72
     0
 73
     2
 43
0.0008202099737533
 43
0.0
 43
0.0
 43
0.0
 43
0.0
 43
0.0008202099737533
 43
0.0
 43
0.0
 43
0.0
 43
0.0
 43
1.0
 43
0.0
 43
0.0
 43
0.0
 43
0.0
 43
1.0
 77
     0
 78
     2
 47
0.0008202099737533
 47
0.0
 47
0.0
 47
0.0
 47
0.0
 47
0.0008202099737533
 47
0.0
 47
0.0
 47
0.0
 47
0.0
 47
1.0
 47
0.0
 47
0.0
 47
0.0
 47
0.0
 47
1.0
171
     0
172
     2
 49
0.0008202099737533
 49
0.0
 49
0.0
 49
0.0
 49
0.0
 49
0.0008202099737533
 49
0.0
 49
0.0
 49
0.0
 49
0.0
 49
1.0
 49
0.0
 49
0.0
 49
0.0
 49
0.0
 49
1.0
175
     0
176
     2
142
0.0008202099737533
142
0.0
142
0.0
142
0.0
142
0.0
142
0.0008202099737533
142
0.0
142
0.0
142
0.0
142
0.0
142
1.0
142
0.0
142
0.0
142
0.0
142
0.0
142
1.0
179
     0
270
     2
144
0.0008202099737533
144
0.0
144
0.0
144
0.0
144
0.0
144
0.0008202099737533
144
0.0
144
0.0
144
0.0
144
0.0
144
1.0
144
0.0
144
0.0
144
0.0
144
0.0
144
1.0
274
     2
147
0.0008202099737533
147
0.0
147
0.0
147
0.0
147
0.0
147
0.0008202099737533
147
0.0
147
0.0
147
0.0
147
0.0
147
1.0
147
0.0
147
0.0
147
0.0
147
0.0
147
1.0
  0
MATERIAL
  5
4A374
102
{ACAD_XDICTIONARY
360
4A375
102
}
102
{ACAD_REACTORS
330
84
102
}
330
84
100
AcDbMaterial
  1
ByLayer
 72
     0
 73
     2
 43
0.0008202099737533
 43
0.0
 43
0.0
 43
0.0
 43
0.0
 43
0.0008202099737533
 43
0.0
 43
0.0
 43
0.0
 43
0.0
 43
1.0
 43
0.0
 43
0.0
 43
0.0
 43
0.0
 43
1.0
 77
     0
 78
     2
 47
0.0008202099737533
 47
0.0
 47
0.0
 47
0.0
 47
0.0
 47
0.0008202099737533
 47
0.0
 47
0.0
 47
0.0
 47
0.0
 47
1.0
 47
0.0
 47
0.0
 47
0.0
 47
0.0
 47
1.0
171
     0
172
     2
 49
0.0008202099737533
 49
0.0
 49
0.0
 49
0.0
 49
0.0
 49
0.0008202099737533
 49
0.0
 49
0.0
 49
0.0
 49
0.0
 49
1.0
 49
0.0
 49
0.0
 49
0.0
 49
0.0
 49
1.0
175
     0
176
     2
142
0.0008202099737533
142
0.0
142
0.0
142
0.0
142
0.0
142
0.0008202099737533
142
0.0
142
0.0
142
0.0
142
0.0
142
1.0
142
0.0
142
0.0
142
0.0
142
0.0
142
1.0
179
     0
270
     2
144
0.0008202099737533
144
0.0
144
0.0
144
0.0
144
0.0
144
0.0008202099737533
144
0.0
144
0.0
144
0.0
144
0.0
144
1.0
144
0.0
144
0.0
144
0.0
144
0.0
144
1.0
274
     2
147
0.0008202099737533
147
0.0
147
0.0
147
0.0
147
0.0
147
0.0008202099737533
147
0.0
147
0.0
147
0.0
147
0.0
147
1.0
147
0.0
147
0.0
147
0.0
147
0.0
147
1.0
  0
MATERIAL
  5
4A384
102
{ACAD_XDICTIONARY
360
4A385
102
}
102
{ACAD_REACTORS
330
84
102
}
330
84
100
AcDbMaterial
  1
Global
 72
     0
 73
     2
 43
0.0008202099737533
 43
0.0
 43
0.0
 43
0.0
 43
0.0
 43
0.0008202099737533
 43
0.0
 43
0.0
 43
0.0
 43
0.0
 43
1.0
 43
0.0
 43
0.0
 43
0.0
 43
0.0
 43
1.0
 77
     0
 78
     2
 47
0.0008202099737533
 47
0.0
 47
0.0
 47
0.0
 47
0.0
 47
0.0008202099737533
 47
0.0
 47
0.0
 47
0.0
 47
0.0
 47
1.0
 47
0.0
 47
0.0
 47
0.0
 47
0.0
 47
1.0
171
     0
172
     2
 49
0.0008202099737533
 49
0.0
 49
0.0
 49
0.0
 49
0.0
 49
0.0008202099737533
 49
0.0
 49
0.0
 49
0.0
 49
0.0
 49
1.0
 49
0.0
 49
0.0
 49
0.0
 49
0.0
 49
1.0
175
     0
176
     2
142
0.0008202099737533
142
0.0
142
0.0
142
0.0
142
0.0
142
0.0008202099737533
142
0.0
142
0.0
142
0.0
142
0.0
142
1.0
142
0.0
142
0.0
142
0.0
142
0.0
142
1.0
179
     0
270
     2
144
0.0008202099737533
144
0.0
144
0.0
144
0.0
144
0.0
144
0.0008202099737533
144
0.0
144
0.0
144
0.0
144
0.0
144
1.0
144
0.0
144
0.0
144
0.0
144
0.0
144
1.0
274
     2
147
0.0008202099737533
147
0.0
147
0.0
147
0.0
147
0.0
147
0.0008202099737533
147
0.0
147
0.0
147
0.0
147
0.0
147
1.0
147
0.0
147
0.0
147
0.0
147
0.0
147
1.0
  0
MLEADERSTYLE
  5
4A3B8
102
{ACAD_XDICTIONARY
360
8C353
102
}
102
{ACAD_REACTORS
330
4A3B7
102
}
330
4A3B7
100
AcDbMLeaderStyle
170
     2
171
     1
172
     0
 90
        2
 40
0.0
 41
0.0
173
     1
 91
-1056964608
340
14
 92
       -2
290
     1
 42
2.0
291
     1
 43
0.36
  3
Standard
 44
4.0
300

342
11
174
     1
178
     6
175
     1
176
     0
 93
-1056964608
 45
4.0
292
     0
297
     0
 46
4.0
 94
-1056964608
 47
1.0
 49
1.0
140
1.0
293
     1
141
0.0
294
     1
177
     0
142
1.0
295
     0
296
     0
143
0.125
1001
ACAD_MLEADERVER
1070
     2
  0
MLINESTYLE
  5
18
102
{ACAD_REACTORS
330
17
102
}
330
17
100
AcDbMlineStyle
  2
STANDARD
 70
     0
  3

 62
   256
 51
90.0
 52
90.0
 71
     2
 49
0.5
 62
   256
  6
BYLAYER
 49
-0.5
 62
   256
  6
BYLAYER
  0
ACDBPLACEHOLDER
  5
F
102
{ACAD_REACTORS
330
E
102
}
330
E
  0
SCALE
  5
4A3A6
102
{ACAD_REACTORS
330
4A3A5
102
}
330
4A3A5
100
AcDbScale
 70
     0
300
1:1
140
1.0
141
1.0
290
     1
  0
SCALE
  5
4A3A7
102
{ACAD_REACTORS
330
4A3A5
102
}
330
4A3A5
100
AcDbScale
 70
     0
300
1:2
140
1.0
141
2.0
290
     0
  0
SCALE
  5
4A3A8
102
{ACAD_REACTORS
330
4A3A5
102
}
330
4A3A5
100
AcDbScale
 70
     0
300
1:4
140
1.0
141
4.0
290
     0
  0
SCALE
  5
4A3A9
102
{ACAD_REACTORS
330
4A3A5
102
}
330
4A3A5
100
AcDbScale
 70
     0
300
1:5
140
1.0
141
5.0
290
     0
  0
SCALE
  5
4A3AA
102
{ACAD_REACTORS
330
4A3A5
102
}
330
4A3A5
100
AcDbScale
 70
     0
300
1:8
140
1.0
141
8.0
290
     0
  0
SCALE
  5
4A3AB
102
{ACAD_REACTORS
330
4A3A5
102
}
330
4A3A5
100
AcDbScale
 70
     0
300
1:10
140
1.0
141
10.0
290
     0
  0
SCALE
  5
4A3AC
102
{ACAD_REACTORS
330
4A3A5
102
}
330
4A3A5
100
AcDbScale
 70
     0
300
1:16
140
1.0
141
16.0
290
     0
  0
SCALE
  5
4A3AD
102
{ACAD_REACTORS
330
4A3A5
102
}
330
4A3A5
100
AcDbScale
 70
     0
300
1:20
140
1.0
141
20.0
290
     0
  0
SCALE
  5
4A3AE
102
{ACAD_REACTORS
330
4A3A5
102
}
330
4A3A5
100
AcDbScale
 70
     0
300
1:30
140
1.0
141
30.0
290
     0
  0
SCALE
  5
4A3AF
102
{ACAD_REACTORS
330
4A3A5
102
}
330
4A3A5
100
AcDbScale
 70
     0
300
1:40
140
1.0
141
40.0
290
     0
  0
SCALE
  5
4A3B0
102
{ACAD_REACTORS
330
4A3A5
102
}
330
4A3A5
100
AcDbScale
 70
     0
300
1:50
140
1.0
141
50.0
290
     0
  0
SCALE
  5
4A3B1
102
{ACAD_REACTORS
330
4A3A5
102
}
330
4A3A5
100
AcDbScale
 70
     0
300
1:100
140
1.0
141
100.0
290
     0
  0
SCALE
  5
4A3B2
102
{ACAD_REACTORS
330
4A3A5
102
}
330
4A3A5
100
AcDbScale
 70
     0
300
2:1
140
2.0
141
1.0
290
     0
  0
SCALE
  5
4A3B3
102
{ACAD_REACTORS
330
4A3A5
102
}
330
4A3A5
100
AcDbScale
 70
     0
300
4:1
140
4.0
141
1.0
290
     0
  0
SCALE
  5
4A3B4
102
{ACAD_REACTORS
330
4A3A5
102
}
330
4A3A5
100
AcDbScale
 70
     0
300
8:1
140
8.0
141
1.0
290
     0
  0
SCALE
  5
4A3B5
102
{ACAD_REACTORS
330
4A3A5
102
}
330
4A3A5
100
AcDbScale
 70
     0
300
10:1
140
10.0
141
1.0
290
     0
  0
SCALE
  5
4A3B6
102
{ACAD_REACTORS
330
4A3A5
102
}
330
4A3A5
100
AcDbScale
 70
     0
300
100:1
140
100.0
141
1.0
290
     0
  0
ACDBSECTIONVIEWSTYLE
  5
4A3BA
102
{ACAD_XDICTIONARY
360
87B3E
102
}
102
{ACAD_REACTORS
330
4A3B9
102
}
330
4A3B9
100
AcDbModelDocViewStyle
 70
     0
  3
Metric50
290
     0
100
AcDbSectionViewStyle
 70
     0
 71
     0
 90
      102
 71
     1
340
11
 40
5.0
340
0
340
0
 40
5.0
300
I, O, Q, S, X, Z
 40
10.0
 90
        0
 40
2.5
 90
        0
 71
     2
340
16
 90
       25
340
16
 90
       50
 40
5.0
 40
2.5
 40
5.0
 71
     3
340
11
 40
5.0
 90
        0
 40
15.0
 90
        1
300
%<\AcVar ViewSectionStartId>%-%<\AcVar ViewSectionEndId>% (%<\AcVar ViewScale \f "%sn">%)
 71
     4
300
ANSI31
 40
1.0
 90
        0
290
     0
290
     0
 90
        6
 40
0.0
 40
1.570796326794896
 40
0.2617993877991494
 40
1.308996938995747
 40
-0.2617993877991494
 40
1.832595714594044
  0
TABLESTYLE
  5
A2
102
{ACAD_XDICTIONARY
360
4CD9A
102
}
102
{ACAD_REACTORS
330
A1
102
}
330
A1
100
AcDbTableStyle
  3
Standard
 70
     0
 71
     0
 40
1.5
 41
1.5
280
     0
281
     0
  7
Standard
140
4.5
170
     2
 62
     0
 63
   257
283
     0
274
    -2
284
     1
 64
     0
275
    -2
285
     1
 65
     0
276
    -2
286
     1
 66
     0
277
    -2
287
     1
 67
     0
278
    -2
288
     1
 68
     0
279
    -2
289
     1
 69
     0
  7
Standard
140
6.0
170
     5
 62
     0
 63
   257
283
     0
274
    -2
284
     1
 64
     0
275
    -2
285
     1
 65
     0
276
    -2
286
     1
 66
     0
277
    -2
287
     1
 67
     0
278
    -2
288
     1
 68
     0
279
    -2
289
     1
 69
     0
  7
Standard
140
4.5
170
     5
 62
     0
 63
   257
283
     0
274
    -2
284
     1
 64
     0
275
    -2
285
     1
 65
     0
276
    -2
286
     1
 66
     0
277
    -2
287
     1
 67
     0
278
    -2
288
     1
 68
     0
279
    -2
289
     1
 69
     0
  0
VISUALSTYLE
  5
4A392
102
{ACAD_XDICTIONARY
360
87B18
102
}
102
{ACAD_REACTORS
330
4A38C
102
}
330
4A38C
100
AcDbVisualStyle
  2

 70
     4
 71
     0
 72
     2
 73
     0
 90
        0
 40
-0.6
 41
-30.0
 62
     5
 63
     7
 74
     1
 91
        4
 64
     7
 65
   257
 75
     1
175
     1
 42
1.0
 92
        0
 66
   257
 43
1.0
 76
     1
 77
     6
 78
     2
 67
     7
 79
     5
170
     0
171
     0
290
     0
174
     0
 93
        1
 44
0.0
173
     0
291
     0
 45
0.0
1001
ACAD
1000
AcDbSavedByObjectVersion
1070
     0
  0
VISUALSTYLE
  5
4A391
102
{ACAD_XDICTIONARY
360
87B16
102
}
102
{ACAD_REACTORS
330
4A38C
102
}
330
4A38C
100
AcDbVisualStyle
  2

 70
     7
 71
     1
 72
     0
 73
     1
 90
        0
 40
-0.6
 41
-30.0
 62
     5
 63
     7
 74
     0
 91
        4
 64
     7
 65
   257
 75
     1
175
     1
 42
1.0
 92
        8
 66
     7
 43
1.0
 76
     1
 77
     6
 78
     2
 67
     7
 79
     5
170
     0
171
     0
290
     0
174
     0
 93
        1
 44
0.0
173
     0
291
     1
 45
0.0
1001
ACAD
1000
AcDbSavedByObjectVersion
1070
     0
  0
VISUALSTYLE
  5
4A398
102
{ACAD_XDICTIONARY
360
87B24
102
}
102
{ACAD_REACTORS
330
4A38C
102
}
330
4A38C
100
AcDbVisualStyle
  2

 70
    12
 71
     2
 72
     2
 73
     0
 90
        0
 40
-0.6
 41
-30.0
 62
     5
 63
     7
 74
     1
 91
        4
 64
     7
 65
   257
 75
     1
175
     1
 42
1.0
 92
        8
 66
     7
 43
1.0
 76
     1
 77
     6
 78
     2
 67
     7
 79
     5
170
     0
171
     0
290
     0
174
     0
 93
        1
 44
50.0
173
     0
291
     1
 45
0.0
1001
ACAD
1000
AcDbSavedByObjectVersion
1070
     0
  0
VISUALSTYLE
  5
4A39C
102
{ACAD_XDICTIONARY
360
87B2C
102
}
102
{ACAD_REACTORS
330
4A38C
102
}
330
4A38C
100
AcDbVisualStyle
  2

 70
    16
 71
     2
 72
     2
 73
     3
 90
        0
 40
-0.6
 41
-30.0
 62
     5
 63
     8
 74
     1
 91
        4
 64
     7
 65
   257
 75
     1
175
     1
 42
1.0
 92
        8
 66
     8
 43
1.0
 76
     1
 77
     6
 78
     2
 67
     7
 79
     5
170
     0
171
     0
290
     0
174
     0
 93
        1
 44
0.0
173
     0
291
     1
 45
0.0
1001
ACAD
1000
AcDbSavedByObjectVersion
1070
     0
  0
VISUALSTYLE
  5
4A395
102
{ACAD_XDICTIONARY
360
87B1E
102
}
102
{ACAD_REACTORS
330
4A38C
102
}
330
4A38C
100
AcDbVisualStyle
  2

 70
     9
 71
     3
 72
     2
 73
     0
 90
        0
 40
-0.6
 41
-30.0
 62
     5
 63
     7
 74
     2
 91
        2
 64
     7
 65
   257
 75
     1
175
     1
 42
179.0
 92
        8
 66
     7
 43
1.0
 76
     1
 77
     6
 78
     2
 67
     7
 79
     3
170
     0
171
     0
290
     0
174
     0
 93
        1
 44
0.0
173
     0
291
     0
 45
0.0
1001
ACAD
1000
AcDbSavedByObjectVersion
1070
     0
  0
VISUALSTYLE
  5
4A397
102
{ACAD_XDICTIONARY
360
87B22
102
}
102
{ACAD_REACTORS
330
4A38C
102
}
330
4A38C
100
AcDbVisualStyle
  2

 70
    11
 71
     2
 72
     2
 73
     0
 90
        0
 40
-0.6
 41
-30.0
 62
     5
 63
     7
 74
     1
 91
        4
 64
     7
 65
   257
 75
     1
175
     1
 42
1.0
 92
        8
 66
     7
 43
1.0
 76
     1
 77
     6
 78
     2
 67
     7
 79
     5
170
     0
171
     0
290
     0
174
     0
 93
        1
 44
-50.0
173
     0
291
     1
 45
0.0
1001
ACAD
1000
AcDbSavedByObjectVersion
1070
     0
  0
VISUALSTYLE
  5
4A3A4
102
{ACAD_XDICTIONARY
360
87B3C
102
}
102
{ACAD_REACTORS
330
4A38C
102
}
330
4A38C
100
AcDbVisualStyle
  2

 70
    22
 71
     2
 72
     2
 73
     0
 90
        0
 40
-0.6
 41
-30.0
 62
     5
 63
     7
 74
     1
 91
        4
 64
     7
 65
   257
 75
     1
175
     1
 42
1.0
 92
        8
 66
     7
 43
1.0
 76
     1
 77
     6
 78
     2
 67
     7
 79
     5
170
     0
171
     0
290
     0
174
     0
 93
        1
 44
0.0
173
     0
291
     1
 45
0.0
1001
ACAD
1000
AcDbSavedByObjectVersion
1070
     0
  0
VISUALSTYLE
  5
4A39B
102
{ACAD_XDICTIONARY
360
87B2A
102
}
102
{ACAD_REACTORS
330
4A38C
102
}
330
4A38C
100
AcDbVisualStyle
  2

 70
    15
 71
     2
 72
     2
 73
     0
 90
        0
 40
-0.6
 41
-30.0
 62
     5
 63
     7
 74
     1
 91
        4
 64
     7
 65
   257
 75
     1
175
     1
 42
1.0
 92
        8
 66
     7
 43
1.0
 76
     1
 77
     6
 78
     2
 67
     7
 79
     5
170
     0
171
     0
290
     0
174
     0
 93
        1
 44
0.0
173
     0
291
     1
 45
0.0
1001
ACAD
1000
AcDbSavedByObjectVersion
1070
     0
  0
VISUALSTYLE
  5
4A38D
102
{ACAD_XDICTIONARY
360
87B0E
102
}
102
{ACAD_REACTORS
330
4A38C
102
}
330
4A38C
100
AcDbVisualStyle
  2

 70
     0
 71
     2
 72
     1
 73
     1
 90
        2
 40
-0.6
 41
30.0
 62
     5
 63
     7
 74
     0
 91
        0
 64
     7
 65
   257
 75
     1
175
     1
 42
1.0
 92
        8
 66
     7
 43
1.0
 76
     1
 77
     6
 78
     2
 67
     7
 79
     5
170
     0
171
     0
290
     0
174
     0
 93
       13
 44
0.0
173
     0
291
     1
 45
0.0
1001
ACAD
1000
AcDbSavedByObjectVersion
1070
     0
  0
VISUALSTYLE
  5
4A38E
102
{ACAD_XDICTIONARY
360
87B10
102
}
102
{ACAD_REACTORS
330
4A38C
102
}
330
4A38C
100
AcDbVisualStyle
  2

 70
     1
 71
     2
 72
     1
 73
     1
 90
        2
 40
-0.6
 41
30.0
 62
     5
 63
     7
 74
     1
 91
        0
 64
     7
 65
   257
 75
     1
175
     1
 42
1.0
 92
        0
 66
   257
 43
1.0
 76
     1
 77
     6
 78
     2
 67
     7
 79
     5
170
     0
171
     0
290
     0
174
     0
 93
       13
 44
0.0
173
     0
291
     1
 45
0.0
1001
ACAD
1000
AcDbSavedByObjectVersion
1070
     0
  0
VISUALSTYLE
  5
4A38F
102
{ACAD_XDICTIONARY
360
87B12
102
}
102
{ACAD_REACTORS
330
4A38C
102
}
330
4A38C
100
AcDbVisualStyle
  2

 70
     2
 71
     2
 72
     2
 73
     1
 90
        2
 40
-0.6
 41
30.0
 62
     5
 63
     7
 74
     0
 91
        0
 64
     7
 65
   257
 75
     1
175
     1
 42
1.0
 92
        0
 66
     7
 43
1.0
 76
     1
 77
     6
 78
     2
 67
     7
 79
     5
170
     0
171
     0
290
     0
174
     0
 93
       13
 44
0.0
173
     0
291
     1
 45
0.0
1001
ACAD
1000
AcDbSavedByObjectVersion
1070
     0
  0
VISUALSTYLE
  5
4A390
102
{ACAD_XDICTIONARY
360
87B14
102
}
102
{ACAD_REACTORS
330
4A38C
102
}
330
4A38C
100
AcDbVisualStyle
  2

 70
     3
 71
     2
 72
     2
 73
     1
 90
        2
 40
-0.6
 41
30.0
 62
     5
 63
     7
 74
     1
 91
        0
 64
     7
 65
   257
 75
     1
175
     1
 42
1.0
 92
        0
 66
   257
 43
1.0
 76
     1
 77
     6
 78
     2
 67
     7
 79
     5
170
     0
171
     0
290
     0
174
     0
 93
       13
 44
0.0
173
     0
291
     1
 45
0.0
1001
ACAD
1000
AcDbSavedByObjectVersion
1070
     0
  0
VISUALSTYLE
  5
4A394
102
{ACAD_XDICTIONARY
360
87B1C
102
}
102
{ACAD_REACTORS
330
4A38C
102
}
330
4A38C
100
AcDbVisualStyle
  2

 70
     6
 71
     1
 72
     2
 73
     2
 90
        0
 40
-0.6
 41
-30.0
 62
     5
 63
     7
 74
     2
 91
        2
 64
     7
 65
   257
 75
     2
175
     1
 42
40.0
 92
        0
 66
   257
 43
1.0
 76
     1
 77
     6
 78
     2
 67
     7
 79
     3
170
     0
171
     0
290
     0
174
     0
 93
        1
 44
0.0
173
     0
291
     0
 45
0.0
1001
ACAD
1000
AcDbSavedByObjectVersion
1070
     0
  0
VISUALSTYLE
  5
4A3A2
102
{ACAD_XDICTIONARY
360
87B38
102
}
102
{ACAD_REACTORS
330
4A38C
102
}
330
4A38C
100
AcDbVisualStyle
  2

 70
    20
 71
     2
 72
     2
 73
     0
 90
        0
 40
-0.6
 41
-30.0
 62
     5
 63
     7
 74
     1
 91
        4
 64
     7
 65
   257
 75
     1
175
     1
 42
1.0
 92
       10
 66
     7
 43
1.0
 76
     1
 77
     6
 78
     2
 67
     7
 79
     5
170
     0
171
     0
290
     0
174
     0
 93
        1
 44
0.0
173
     0
291
     1
 45
0.0
1001
ACAD
1000
AcDbSavedByObjectVersion
1070
     0
  0
VISUALSTYLE
  5
4A39A
102
{ACAD_XDICTIONARY
360
87B28
102
}
102
{ACAD_REACTORS
330
4A38C
102
}
330
4A38C
100
AcDbVisualStyle
  2

 70
    14
 71
     2
 72
     2
 73
     0
 90
        0
 40
-0.6
 41
-30.0
 62
     5
 63
     7
 74
     1
 91
        4
 64
     7
 65
   257
 75
     7
175
     7
 42
1.0
 92
        8
 66
     7
 43
1.0
 76
     1
 77
     6
 78
     2
 67
     7
 79
     5
170
     0
171
     0
290
     0
174
     0
 93
        1
 44
0.0
173
     0
291
     1
 45
0.0
1001
ACAD
1000
AcDbSavedByObjectVersion
1070
     0
  0
VISUALSTYLE
  5
4A3A3
102
{ACAD_XDICTIONARY
360
87B3A
102
}
102
{ACAD_REACTORS
330
4A38C
102
}
330
4A38C
100
AcDbVisualStyle
  2

 70
    21
 71
     2
 72
     2
 73
     0
 90
        0
 40
-0.6
 41
-30.0
 62
     5
 63
     7
 74
     1
 91
        4
 64
     7
 65
   257
 75
     1
175
     1
 42
1.0
 92
        9
 66
     7
 43
1.0
 76
     1
 77
     6
 78
     2
 67
     7
 79
     5
170
     0
171
     0
290
     0
174
     0
 93
        1
 44
0.0
173
     0
291
     1
 45
0.0
1001
ACAD
1000
AcDbSavedByObjectVersion
1070
     0
  0
VISUALSTYLE
  5
4A396
102
{ACAD_XDICTIONARY
360
87B20
102
}
102
{ACAD_REACTORS
330
4A38C
102
}
330
4A38C
100
AcDbVisualStyle
  2

 70
     8
 71
     2
 72
     3
 73
     0
 90
        2
 40
-0.6
 41
30.0
 62
     5
 63
     7
 74
     0
 91
        0
 64
     7
 65
   257
 75
     1
175
     1
 42
1.0
 92
        8
 66
   257
 43
1.0
 76
     1
 77
     6
 78
     2
 67
     7
 79
     3
170
     0
171
     0
290
     0
174
     0
 93
       13
 44
0.0
173
     0
291
     0
 45
0.0
1001
ACAD
1000
AcDbSavedByObjectVersion
1070
     0
  0
VISUALSTYLE
  5
4A3A1
102
{ACAD_XDICTIONARY
360
87B36
102
}
102
{ACAD_REACTORS
330
4A38C
102
}
330
4A38C
100
AcDbVisualStyle
  2

 70
    27
 71
     2
 72
     2
 73
     1
 90
        2
 40
-0.6
 41
30.0
 62
     5
 63
     7
 74
     0
 91
        4
 64
     7
 65
   257
 75
     1
175
     1
 42
1.0
 92
        8
 66
   257
 43
1.0
 76
     1
 77
     6
 78
     2
 67
     8
 79
     3
170
     0
171
     0
290
     0
174
     0
 93
        5
 44
0.0
173
     0
291
     0
 45
0.0
1001
ACAD
1000
AcDbSavedByObjectVersion
1070
     0
  0
VISUALSTYLE
  5
4A3A0
102
{ACAD_XDICTIONARY
360
87B34
102
}
102
{ACAD_REACTORS
330
4A38C
102
}
330
4A38C
100
AcDbVisualStyle
  2

 70
    26
 71
     2
 72
     2
 73
     1
 90
        2
 40
-0.6
 41
30.0
 62
     5
 63
     7
 74
     1
 91
        2
 64
     7
 65
   257
 75
     2
175
     1
 42
1.0
 92
        8
 66
   257
 43
1.0
 76
     1
 77
     6
 78
     2
 67
     7
 79
     3
170
     0
171
     0
290
     0
174
     0
 93
        5
 44
0.0
173
     0
291
     0
 45
0.0
1001
ACAD
1000
AcDbSavedByObjectVersion
1070
     0
  0
VISUALSTYLE
  5
4A39D
102
{ACAD_XDICTIONARY
360
87B2E
102
}
102
{ACAD_REACTORS
330
4A38C
102
}
330
4A38C
100
AcDbVisualStyle
  2

 70
    23
 71
     2
 72
     2
 73
     3
 90
        0
 40
-0.6
 41
-30.0
 62
     5
 63
     7
 74
     2
 91
        2
 64
     7
 65
     7
 75
     1
175
     1
 42
40.0
 92
        8
 66
     7
 43
1.0
 76
     1
 77
     6
 78
     2
 67
     7
 79
     3
170
     0
171
     0
290
     0
174
     0
 93
        1
 44
0.0
173
     0
291
     0
 45
0.0
1001
ACAD
1000
AcDbSavedByObjectVersion
1070
     0
  0
VISUALSTYLE
  5
4A39E
102
{ACAD_XDICTIONARY
360
87B30
102
}
102
{ACAD_REACTORS
330
4A38C
102
}
330
4A38C
100
AcDbVisualStyle
  2

 70
    24
 71
     1
 72
     2
 73
     2
 90
        0
 40
-0.6
 41
-30.0
 62
     5
 63
     7
 74
     2
 91
        2
 64
     7
 65
     7
 75
     1
175
     1
 42
40.0
 92
       11
 66
     7
 43
1.0
 76
     1
 77
     6
 78
     2
 67
     7
 79
     6
170
     0
171
     0
290
     0
174
     0
 93
        1
 44
0.0
173
     0
291
     0
 45
0.0
1001
ACAD
1000
AcDbSavedByObjectVersion
1070
     0
  0
VISUALSTYLE
  5
4A399
102
{ACAD_XDICTIONARY
360
87B26
102
}
102
{ACAD_REACTORS
330
4A38C
102
}
330
4A38C
100
AcDbVisualStyle
  2

 70
    13
 71
     2
 72
     2
 73
     0
 90
        0
 40
-0.6
 41
-30.0
 62
     5
 63
     7
 74
     1
 91
        4
 64
     7
 65
   257
 75
     1
175
     1
 42
1.0
 92
       12
 66
     7
 43
1.0
 76
     1
 77
     6
 78
     2
 67
     7
 79
     5
170
     0
171
     0
290
     0
174
     0
 93
        1
 44
0.0
173
     0
291
     1
 45
0.0
1001
ACAD
1000
AcDbSavedByObjectVersion
1070
     0
  0
VISUALSTYLE
  5
4A393
102
{ACAD_XDICTIONARY
360
87B1A
102
}
102
{ACAD_REACTORS
330
4A38C
102
}
330
4A38C
100
AcDbVisualStyle
  2

 70
     5
 71
     0
 72
     2
 73
     0
 90
        0
 40
-0.6
 41
-30.0
 62
     5
 63
     7
 74
     1
 91
        4
 64
     7
 65
   257
 75
     1
175
     1
 42
1.0
 92
        0
 66
   257
 43
1.0
 76
     1
 77
     6
 78
     2
 67
     7
 79
     3
170
     0
171
     0
290
     0
174
     0
 93
        1
 44
0.0
173
     0
291
     0
 45
0.0
1001
ACAD
1000
AcDbSavedByObjectVersion
1070
     0
  0
VISUALSTYLE
  5
4A39F
102
{ACAD_XDICTIONARY
360
87B32
102
}
102
{ACAD_REACTORS
330
4A38C
102
}
330
4A38C
100
AcDbVisualStyle
  2

 70
    25
 71
     2
 72
     2
 73
     1
 90
        1
 40
0.5
 41
-30.0
 62
     5
 63
     7
 74
     1
 91
        0
 64
     7
 65
   257
 75
     1
175
     1
 42
1.0
 92
        8
 66
     7
 43
1.0
 76
     1
 77
     6
 78
     2
 67
     7
 79
     3
170
     0
171
     0
290
     0
174
     0
 93
       13
 44
0.0
173
     0
291
     0
 45
0.0
1001
ACAD
1000
AcDbSavedByObjectVersion
1070
     0
  0
XRECORD
  5
93C2D
102
{ACAD_REACTORS
330
93C2C
102
}
330
93C2C
100
AcDbXrecord
280
     1
340
85
  0
XRECORD
  5
93C2E
102
{ACAD_REACTORS
330
93C2C
102
}
330
93C2C
100
AcDbXrecord
280
     1
340
84
  0
DICTIONARYVAR
  5
93C2B
102
{ACAD_REACTORS
330
5E
102
}
330
5E
100
DictionaryVariables
280
   100
  1
1:1
  0
DICTIONARYVAR
  5
4A6CE
102
{ACAD_REACTORS
330
5E
102
}
330
5E
100
DictionaryVariables
280
     0
  1
STANDARD
  0
DICTIONARYVAR
  5
B8
102
{ACAD_REACTORS
330
5E
102
}
330
5E
100
DictionaryVariables
280
     0
  1
STANDARD
  0
DICTIONARYVAR
  5
4A6CF
102
{ACAD_REACTORS
330
5E
102
}
330
5E
100
DictionaryVariables
280
     0
  1
Metric50
  0
DICTIONARYVAR
  5
4A6D0
102
{ACAD_REACTORS
330
5E
102
}
330
5E
100
DictionaryVariables
280
     0
  1
Metric50
  0
DICTIONARYVAR
  5
5F
102
{ACAD_REACTORS
330
5E
102
}
330
5E
100
DictionaryVariables
280
     0
  1
2
  0
DICTIONARYVAR
  5
63
102
{ACAD_REACTORS
330
5E
102
}
330
5E
100
DictionaryVariables
280
     0
  1
1
  0
DICTIONARYVAR
  5
4A879
102
{ACAD_REACTORS
330
5E
102
}
330
5E
100
DictionaryVariables
280
     0
  1
0
  0
DICTIONARYVAR
  5
4A6D4
102
{ACAD_REACTORS
330
5E
102
}
330
5E
100
DictionaryVariables
280
     0
  1
1
  0
DICTIONARYVAR
  5
4A6D5
102
{ACAD_REACTORS
330
5E
102
}
330
5E
100
DictionaryVariables
280
     0
  1
15
  0
DICTIONARYVAR
  5
4A6D3
102
{ACAD_REACTORS
330
5E
102
}
330
5E
100
DictionaryVariables
280
     0
  1
0
  0
DICTIONARYVAR
  5
4A6D1
102
{ACAD_REACTORS
330
5E
102
}
330
5E
100
DictionaryVariables
280
     0
  1
0
  0
DICTIONARYVAR
  5
31CE
102
{ACAD_REACTORS
330
5E
102
}
330
5E
100
DictionaryVariables
280
     0
  1

  0
DICTIONARYVAR
  5
4A878
102
{ACAD_REACTORS
330
5E
102
}
330
5E
100
DictionaryVariables
280
     0
  1
127
  0
DICTIONARYVAR
  5
87AF9
102
{ACAD_REACTORS
330
5E
102
}
330
5E
100
DictionaryVariables
280
     0
  1
2
  0
XRECORD
  5
349EA
102
{ACAD_REACTORS
330
349E9
102
}
330
349E9
100
AcDbXrecord
280
     1
330
0
330
0
330
0
330
0
330
0
330
0
330
0
330
0
330
0
330
0
330
0
330
0
330
0
330
0
330
0
330
0
330
0
330
0
330
0
330
0
330
0
330
0
330
0
330
0
330
0
330
0
330
0
330
0
330
0
330
0
330
0
330
0
330
0
330
0
330
0
330
0
330
0
330
0
330
0
330
0
330
0
330
0
330
0
330
0
330
0
330
0
330
0
330
0
330
0
330
0
330
0
330
0
330
0
330
0
330
0
330
0
330
0
330
0
330
0
330
0
330
0
330
0
330
0
330
0
330
0
330
0
330
0
330
0
330
0
330
0
330
0
330
0
330
0
330
0
330
0
330
0
330
0
330
0
330
0
330
0
330
0
330
0
330
0
330
0
330
0
330
0
330
0
330
0
330
0
330
0
330
0
330
0
330
0
330
0
330
0
330
0
330
0
330
0
330
0
330
0
330
0
330
0
330
0
330
0
330
0
330
0
330
0
330
0
330
0
330
0
  0
DICTIONARY
  5
87B40
330
4A3BC
100
AcDbDictionary
280
     1
281
     1
  3
ACAD_XREC_ROUNDTRIP
360
87B41
  0
DICTIONARY
  5
4A37D
330
4A37C
100
AcDbDictionary
280
     1
281
     1
  3
ACAD_XREC_ROUNDTRIP
360
93C39
  0
DICTIONARY
  5
4A375
330
4A374
100
AcDbDictionary
280
     1
281
     1
  3
ACAD_XREC_ROUNDTRIP
360
93C3A
  0
DICTIONARY
  5
4A385
330
4A384
100
AcDbDictionary
280
     1
281
     1
  3
ACAD_XREC_ROUNDTRIP
360
93C3B
  0
DICTIONARY
  5
8C353
330
4A3B8
100
AcDbDictionary
280
     1
281
     1
  3
ACAD_XREC_ROUNDTRIP
360
93C3C
  0
DICTIONARY
  5
87B3E
330
4A3BA
100
AcDbDictionary
280
     1
281
     1
  3
ACAD_XREC_ROUNDTRIP
360
87B3F
  0
DICTIONARY
  5
4CD9A
330
A2
100
AcDbDictionary
280
     1
281
     1
  3
ACAD_ROUNDTRIP_2008_TABLESTYLE_CELLSTYLEMAP
360
93C3E
  3
ACAD_XREC_ROUNDTRIP
360
93C3D
  0
DICTIONARY
  5
87B18
330
4A392
100
AcDbDictionary
280
     1
281
     1
  3
ACAD_XREC_ROUNDTRIP
360
93C3F
  0
DICTIONARY
  5
87B16
330
4A391
100
AcDbDictionary
280
     1
281
     1
  3
ACAD_XREC_ROUNDTRIP
360
93C40
  0
DICTIONARY
  5
87B24
330
4A398
100
AcDbDictionary
280
     1
281
     1
  3
ACAD_XREC_ROUNDTRIP
360
93C41
  0
DICTIONARY
  5
87B2C
330
4A39C
100
AcDbDictionary
280
     1
281
     1
  3
ACAD_XREC_ROUNDTRIP
360
93C42
  0
DICTIONARY
  5
87B1E
330
4A395
100
AcDbDictionary
280
     1
281
     1
  3
ACAD_XREC_ROUNDTRIP
360
93C43
  0
DICTIONARY
  5
87B22
330
4A397
100
AcDbDictionary
280
     1
281
     1
  3
ACAD_XREC_ROUNDTRIP
360
93C44
  0
DICTIONARY
  5
87B3C
330
4A3A4
100
AcDbDictionary
280
     1
281
     1
  3
ACAD_XREC_ROUNDTRIP
360
93C45
  0
DICTIONARY
  5
87B2A
330
4A39B
100
AcDbDictionary
280
     1
281
     1
  3
ACAD_XREC_ROUNDTRIP
360
93C46
  0
DICTIONARY
  5
87B0E
330
4A38D
100
AcDbDictionary
280
     1
281
     1
  3
ACAD_XREC_ROUNDTRIP
360
93C47
  0
DICTIONARY
  5
87B10
330
4A38E
100
AcDbDictionary
280
     1
281
     1
  3
ACAD_XREC_ROUNDTRIP
360
93C48
  0
DICTIONARY
  5
87B12
330
4A38F
100
AcDbDictionary
280
     1
281
     1
  3
ACAD_XREC_ROUNDTRIP
360
93C49
  0
DICTIONARY
  5
87B14
330
4A390
100
AcDbDictionary
280
     1
281
     1
  3
ACAD_XREC_ROUNDTRIP
360
93C4A
  0
DICTIONARY
  5
87B1C
330
4A394
100
AcDbDictionary
280
     1
281
     1
  3
ACAD_XREC_ROUNDTRIP
360
93C4B
  0
DICTIONARY
  5
87B38
330
4A3A2
100
AcDbDictionary
280
     1
281
     1
  3
ACAD_XREC_ROUNDTRIP
360
93C4C
  0
DICTIONARY
  5
87B28
330
4A39A
100
AcDbDictionary
280
     1
281
     1
  3
ACAD_XREC_ROUNDTRIP
360
93C4D
  0
DICTIONARY
  5
87B3A
330
4A3A3
100
AcDbDictionary
280
     1
281
     1
  3
ACAD_XREC_ROUNDTRIP
360
93C4E
  0
DICTIONARY
  5
87B20
330
4A396
100
AcDbDictionary
280
     1
281
     1
  3
ACAD_XREC_ROUNDTRIP
360
93C4F
  0
DICTIONARY
  5
87B36
330
4A3A1
100
AcDbDictionary
280
     1
281
     1
  3
ACAD_XREC_ROUNDTRIP
360
93C50
  0
DICTIONARY
  5
87B34
330
4A3A0
100
AcDbDictionary
280
     1
281
     1
  3
ACAD_XREC_ROUNDTRIP
360
93C51
  0
DICTIONARY
  5
87B2E
330
4A39D
100
AcDbDictionary
280
     1
281
     1
  3
ACAD_XREC_ROUNDTRIP
360
93C52
  0
DICTIONARY
  5
87B30
330
4A39E
100
AcDbDictionary
280
     1
281
     1
  3
ACAD_XREC_ROUNDTRIP
360
93C53
  0
DICTIONARY
  5
87B26
330
4A399
100
AcDbDictionary
280
     1
281
     1
  3
ACAD_XREC_ROUNDTRIP
360
93C54
  0
DICTIONARY
  5
87B1A
330
4A393
100
AcDbDictionary
280
     1
281
     1
  3
ACAD_XREC_ROUNDTRIP
360
93C55
  0
DICTIONARY
  5
87B32
330
4A39F
100
AcDbDictionary
280
     1
281
     1
  3
ACAD_XREC_ROUNDTRIP
360
93C56
  0
XRECORD
  5
87B41
102
{ACAD_REACTORS
330
87B40
102
}
330
87B40
100
AcDbXrecord
280
     1
102
DISPLAYNAME
  1
Metric50
102
FLAGS
 90
        0
  0
XRECORD
  5
93C39
102
{ACAD_REACTORS
330
4A37D
102
}
330
4A37D
100
AcDbXrecord
280
     1
102
MATERIAL
148
0.0
149
0.0
149
0.0
 93
        0
 94
      127
282
     0
 72
     0
 77
     0
171
     0
175
     0
179
     0
273
     0
  0
XRECORD
  5
93C3A
102
{ACAD_REACTORS
330
4A375
102
}
330
4A375
100
AcDbXrecord
280
     1
102
MATERIAL
148
0.0
149
0.0
149
0.0
 93
        0
 94
      127
282
     0
 72
     0
 77
     0
171
     0
175
     0
179
     0
273
     0
  0
XRECORD
  5
93C3B
102
{ACAD_REACTORS
330
4A385
102
}
330
4A385
100
AcDbXrecord
280
     1
102
MATERIAL
148
0.0
149
0.0
149
0.0
 93
        0
 94
      127
282
     0
 72
     0
 77
     0
171
     0
175
     0
179
     0
273
     0
  0
XRECORD
  5
93C3C
102
{ACAD_REACTORS
330
8C353
102
}
330
8C353
100
AcDbXrecord
280
     1
102
ACAD_ROUNDTRIP_2010_MLEADER_STYLE
  0
XRECORD
  5
87B3F
102
{ACAD_REACTORS
330
87B3E
102
}
330
87B3E
100
AcDbXrecord
280
     1
102
DISPLAYNAME
  1
Metric50
102
FLAGS
 90
        0
  0
CELLSTYLEMAP
  5
93C3E
102
{ACAD_REACTORS
330
4CD9A
102
}
330
4CD9A
100
AcDbCellStyleMap
 90
        3
300
CELLSTYLE
  1
TABLEFORMAT_BEGIN
 90
        5
170
     1
 91
        0
 92
    32768
 62
   257
 93
        1
300
CONTENTFORMAT
  1
CONTENTFORMAT_BEGIN
 90
        0
 91
        0
 92
        4
 93
        0
300

 40
0.0
140
1.0
 94
        5
 62
     0
340
11
144
6.0
309
CONTENTFORMAT_END
171
     1
301
MARGIN
  1
CELLMARGIN_BEGIN
 40
1.5
 40
1.5
 40
1.5
 40
1.5
 40
0.18
 40
0.18
309
CELLMARGIN_END
 94
        6
 95
        1
302
GRIDFORMAT
  1
GRIDFORMAT_BEGIN
 90
        0
 91
        1
 62
     0
 92
       -2
340
0
 93
        0
 40
0.045
309
GRIDFORMAT_END
 95
        2
302
GRIDFORMAT
  1
GRIDFORMAT_BEGIN
 90
        0
 91
        1
 62
     0
 92
       -2
340
0
 93
        0
 40
0.045
309
GRIDFORMAT_END
 95
        4
302
GRIDFORMAT
  1
GRIDFORMAT_BEGIN
 90
        0
 91
        1
 62
     0
 92
       -2
340
0
 93
        0
 40
0.045
309
GRIDFORMAT_END
 95
        8
302
GRIDFORMAT
  1
GRIDFORMAT_BEGIN
 90
        0
 91
        1
 62
     0
 92
       -2
340
0
 93
        0
 40
0.045
309
GRIDFORMAT_END
 95
       16
302
GRIDFORMAT
  1
GRIDFORMAT_BEGIN
 90
        0
 91
        1
 62
     0
 92
       -2
340
0
 93
        0
 40
0.045
309
GRIDFORMAT_END
 95
       32
302
GRIDFORMAT
  1
GRIDFORMAT_BEGIN
 90
        0
 91
        1
 62
     0
 92
       -2
340
0
 93
        0
 40
0.045
309
GRIDFORMAT_END
309
TABLEFORMAT_END
  1
CELLSTYLE_BEGIN
 90
        1
 91
        1
300
_TITLE
309
CELLSTYLE_END
300
CELLSTYLE
  1
TABLEFORMAT_BEGIN
 90
        5
170
     1
 91
        0
 92
        0
 62
   257
 93
        1
300
CONTENTFORMAT
  1
CONTENTFORMAT_BEGIN
 90
        0
 91
        0
 92
        4
 93
        0
300

 40
0.0
140
1.0
 94
        5
 62
     0
340
11
144
4.5
309
CONTENTFORMAT_END
171
     1
301
MARGIN
  1
CELLMARGIN_BEGIN
 40
1.5
 40
1.5
 40
1.5
 40
1.5
 40
0.18
 40
0.18
309
CELLMARGIN_END
 94
        6
 95
        1
302
GRIDFORMAT
  1
GRIDFORMAT_BEGIN
 90
        0
 91
        1
 62
     0
 92
       -2
340
0
 93
        0
 40
0.045
309
GRIDFORMAT_END
 95
        2
302
GRIDFORMAT
  1
GRIDFORMAT_BEGIN
 90
        0
 91
        1
 62
     0
 92
       -2
340
0
 93
        0
 40
0.045
309
GRIDFORMAT_END
 95
        4
302
GRIDFORMAT
  1
GRIDFORMAT_BEGIN
 90
        0
 91
        1
 62
     0
 92
       -2
340
0
 93
        0
 40
0.045
309
GRIDFORMAT_END
 95
        8
302
GRIDFORMAT
  1
GRIDFORMAT_BEGIN
 90
        0
 91
        1
 62
     0
 92
       -2
340
0
 93
        0
 40
0.045
309
GRIDFORMAT_END
 95
       16
302
GRIDFORMAT
  1
GRIDFORMAT_BEGIN
 90
        0
 91
        1
 62
     0
 92
       -2
340
0
 93
        0
 40
0.045
309
GRIDFORMAT_END
 95
       32
302
GRIDFORMAT
  1
GRIDFORMAT_BEGIN
 90
        0
 91
        1
 62
     0
 92
       -2
340
0
 93
        0
 40
0.045
309
GRIDFORMAT_END
309
TABLEFORMAT_END
  1
CELLSTYLE_BEGIN
 90
        2
 91
        1
300
_HEADER
309
CELLSTYLE_END
300
CELLSTYLE
  1
TABLEFORMAT_BEGIN
 90
        5
170
     1
 91
        0
 92
        0
 62
   257
 93
        1
300
CONTENTFORMAT
  1
CONTENTFORMAT_BEGIN
 90
        0
 91
        0
 92
        4
 93
        0
300

 40
0.0
140
1.0
 94
        2
 62
     0
340
11
144
4.5
309
CONTENTFORMAT_END
171
     1
301
MARGIN
  1
CELLMARGIN_BEGIN
 40
1.5
 40
1.5
 40
1.5
 40
1.5
 40
0.18
 40
0.18
309
CELLMARGIN_END
 94
        6
 95
        1
302
GRIDFORMAT
  1
GRIDFORMAT_BEGIN
 90
        0
 91
        1
 62
     0
 92
       -2
340
0
 93
        0
 40
0.045
309
GRIDFORMAT_END
 95
        2
302
GRIDFORMAT
  1
GRIDFORMAT_BEGIN
 90
        0
 91
        1
 62
     0
 92
       -2
340
0
 93
        0
 40
0.045
309
GRIDFORMAT_END
 95
        4
302
GRIDFORMAT
  1
GRIDFORMAT_BEGIN
 90
        0
 91
        1
 62
     0
 92
       -2
340
0
 93
        0
 40
0.045
309
GRIDFORMAT_END
 95
        8
302
GRIDFORMAT
  1
GRIDFORMAT_BEGIN
 90
        0
 91
        1
 62
     0
 92
       -2
340
0
 93
        0
 40
0.045
309
GRIDFORMAT_END
 95
       16
302
GRIDFORMAT
  1
GRIDFORMAT_BEGIN
 90
        0
 91
        1
 62
     0
 92
       -2
340
0
 93
        0
 40
0.045
309
GRIDFORMAT_END
 95
       32
302
GRIDFORMAT
  1
GRIDFORMAT_BEGIN
 90
        0
 91
        1
 62
     0
 92
       -2
340
0
 93
        0
 40
0.045
309
GRIDFORMAT_END
309
TABLEFORMAT_END
  1
CELLSTYLE_BEGIN
 90
        3
 91
        2
300
_DATA
309
CELLSTYLE_END
  0
XRECORD
  5
93C3D
102
{ACAD_REACTORS
330
4CD9A
102
}
330
4CD9A
100
AcDbXrecord
280
     1
102
ACAD_ROUNDTRIP_PRE2007_TABLESTYLE
 90
        4
 91
        0
  1

 92
        4
 93
        0
  2

 94
        4
 95
        0
  3

  0
XRECORD
  5
93C3F
102
{ACAD_REACTORS
330
87B18
102
}
330
87B18
100
AcDbXrecord
280
     1
102
RTVSPropertyOp0
 70
     1
102
RTVSPropertyOp1
 70
     1
102
RTVSPropertyOp2
 70
     1
102
RTVSPropertyOp3
 70
     1
102
RTVSPropertyOp4
 70
     1
102
RTVSPropertyOp5
 70
     1
102
RTVSPropertyOp6
 70
     1
102
RTVSPropertyOp7
 70
     1
102
RTVSPropertyOp8
 70
     1
102
RTVSPropertyOp9
 70
     1
102
RTVSPropertyOp10
 70
     1
102
RTVSPropertyOp11
 70
     1
102
RTVSPropertyOp12
 70
     1
102
RTVSPropertyOp13
 70
     1
102
RTVSPropertyOp14
 70
     1
102
RTVSPropertyOp15
 70
     1
102
RTVSPropertyOp16
 70
     1
102
RTVSPropertyOp17
 70
     1
102
RTVSPropertyOp18
 70
     1
102
RTVSPropertyOp19
 70
     1
102
RTVSPropertyOp20
 70
     1
102
RTVSPropertyOp21
 70
     1
102
RTVSPropertyOp22
 70
     1
102
RTVSPropertyOp23
 70
     1
102
RTVSPropertyOp24
 70
     1
102
RTVSPropertyOp25
 70
     1
102
RTVSPropertyOp26
 70
     1
102
RTVSPropertyOp27
 70
     1
102
RTVSPropertyOp28
 70
     1
102
RTVSPropertyOp29
 70
     1
102
RTVSPropertyOp30
 70
     1
102
RTVSPropertyOp31
 70
     1
102
RTVSPropertyOp32
 70
     1
102
RTVSPropertyOp33
 70
     1
102
RTVSPropertyOp34
 70
     1
102
RTVSPropertyOp35
 70
     1
102
RTVSPropertyOp36
 70
     1
102
RTVSPropertyOp37
 70
     1
102
RTVSPropertyOp38
 70
     1
102
RTVSPropertyOp39
 70
     1
102
RTVSPropertyOp40
 70
     1
102
RTVSPropertyOp41
 70
     1
102
RTVSPropertyOp42
 70
     1
102
RTVSPropertyOp43
 70
     1
102
RTVSPropertyOp44
 70
     1
102
RTVSPropertyOp45
 70
     1
102
RTVSPropertyOp46
 70
     1
102
RTVSPropertyOp47
 70
     1
102
RTVSPropertyOp48
 70
     1
102
RTVSPropertyOp49
 70
     1
102
RTVSPropertyOp50
 70
     1
102
RTVSPropertyOp51
 70
     0
102
RTVSPropertyOp52
 70
     0
102
RTVSPropertyOp53
 70
     1
102
RTVSPropertyOp54
 70
     1
102
RTVSPropertyOp55
 70
     1
102
RTVSPropertyOp56
 70
     1
102
RTVSPropertyOp57
 70
     1
102
RTVSPost2010Prop28
280
     1
102
RTVSPost2010PropOp28
 70
     1
102
RTVSPost2010Prop29
280
     1
102
RTVSPost2010PropOp29
 70
     1
102
RTVSPost2010Prop30
280
     0
102
RTVSPost2010PropOp30
 70
     1
102
RTVSPost2010Prop31
280
     0
102
RTVSPost2010PropOp31
 70
     1
102
RTVSPost2010Prop32
280
     0
102
RTVSPost2010PropOp32
 70
     1
102
RTVSPost2010Prop33
280
     0
102
RTVSPost2010PropOp33
 70
     1
102
RTVSPost2010Prop34
280
     0
102
RTVSPost2010PropOp34
 70
     1
102
RTVSPost2010Prop35
280
     0
102
RTVSPost2010PropOp35
 70
     1
102
RTVSPost2010Prop36
280
     0
102
RTVSPost2010PropOp36
 70
     1
102
RTVSPost2010Prop37
 90
       50
102
RTVSPost2010PropOp37
 70
     1
102
RTVSPost2010Prop38
140
0.0
102
RTVSPost2010PropOp38
 70
     1
102
RTVSPost2010Prop39
140
1.0
102
RTVSPost2010PropOp39
 70
     1
102
RTVSPost2010Prop40
 90
        0
102
RTVSPost2010PropOp40
 70
     1
102
RTVSPost2010Prop41ColorIndex
 90
       18
102
RTVSPost2010Prop41ColorRGB
 90
        0
102
RTVSPost2010PropOp41
 70
     1
102
RTVSPost2010Prop42
 90
       50
102
RTVSPost2010PropOp42
 70
     1
102
RTVSPost2010Prop43
 90
        3
102
RTVSPost2010PropOp43
 70
     1
102
RTVSPost2010Prop44ColorIndex
 90
        5
102
RTVSPost2010Prop44ColorRGB
 90
      255
102
RTVSPost2010PropOp44
 70
     1
102
RTVSPost2010Prop45
280
     0
102
RTVSPost2010PropOp45
 70
     1
102
RTVSPost2010Prop46
 90
       50
102
RTVSPost2010PropOp46
 70
     1
102
RTVSPost2010Prop47
 90
       50
102
RTVSPost2010PropOp47
 70
     1
102
RTVSPost2010Prop48
 90
       50
102
RTVSPost2010PropOp48
 70
     1
102
RTVSPost2010Prop49
280
     0
102
RTVSPost2010PropOp49
 70
     1
102
RTVSPost2010Prop50
 90
       50
102
RTVSPost2010PropOp50
 70
     1
102
RTVSPost2010Prop51ColorIndex
 90
      256
102
RTVSPost2010Prop51ColorRGB
 90
-16777216
102
RTVSPost2010PropOp51
 70
     0
102
RTVSPost2010Prop52
140
1.0
102
RTVSPost2010PropOp52
 70
     0
102
RTVSPost2010Prop53
 90
        2
102
RTVSPost2010PropOp53
 70
     1
102
RTVSPost2010Prop54
  1
strokes_ogs.tif
102
RTVSPost2010PropOp54
 70
     1
102
RTVSPost2010Prop55
280
     0
102
RTVSPost2010PropOp55
 70
     1
102
RTVSPost2010Prop56
140
1.0
102
RTVSPost2010PropOp56
 70
     1
102
RTVSPost2010Prop57
140
1.0
102
RTVSPost2010PropOp57
 70
     1
  0
XRECORD
  5
93C40
102
{ACAD_REACTORS
330
87B16
102
}
330
87B16
100
AcDbXrecord
280
     1
102
RTVSPropertyOp0
 70
     1
102
RTVSPropertyOp1
 70
     1
102
RTVSPropertyOp2
 70
     1
102
RTVSPropertyOp3
 70
     1
102
RTVSPropertyOp4
 70
     1
102
RTVSPropertyOp5
 70
     1
102
RTVSPropertyOp6
 70
     1
102
RTVSPropertyOp7
 70
     1
102
RTVSPropertyOp8
 70
     1
102
RTVSPropertyOp9
 70
     1
102
RTVSPropertyOp10
 70
     1
102
RTVSPropertyOp11
 70
     1
102
RTVSPropertyOp12
 70
     1
102
RTVSPropertyOp13
 70
     1
102
RTVSPropertyOp14
 70
     1
102
RTVSPropertyOp15
 70
     1
102
RTVSPropertyOp16
 70
     1
102
RTVSPropertyOp17
 70
     1
102
RTVSPropertyOp18
 70
     1
102
RTVSPropertyOp19
 70
     1
102
RTVSPropertyOp20
 70
     1
102
RTVSPropertyOp21
 70
     1
102
RTVSPropertyOp22
 70
     1
102
RTVSPropertyOp23
 70
     1
102
RTVSPropertyOp24
 70
     1
102
RTVSPropertyOp25
 70
     1
102
RTVSPropertyOp26
 70
     1
102
RTVSPropertyOp27
 70
     1
102
RTVSPropertyOp28
 70
     1
102
RTVSPropertyOp29
 70
     1
102
RTVSPropertyOp30
 70
     1
102
RTVSPropertyOp31
 70
     1
102
RTVSPropertyOp32
 70
     1
102
RTVSPropertyOp33
 70
     1
102
RTVSPropertyOp34
 70
     1
102
RTVSPropertyOp35
 70
     1
102
RTVSPropertyOp36
 70
     1
102
RTVSPropertyOp37
 70
     1
102
RTVSPropertyOp38
 70
     1
102
RTVSPropertyOp39
 70
     1
102
RTVSPropertyOp40
 70
     1
102
RTVSPropertyOp41
 70
     1
102
RTVSPropertyOp42
 70
     1
102
RTVSPropertyOp43
 70
     1
102
RTVSPropertyOp44
 70
     1
102
RTVSPropertyOp45
 70
     1
102
RTVSPropertyOp46
 70
     1
102
RTVSPropertyOp47
 70
     1
102
RTVSPropertyOp48
 70
     1
102
RTVSPropertyOp49
 70
     1
102
RTVSPropertyOp50
 70
     1
102
RTVSPropertyOp51
 70
     0
102
RTVSPropertyOp52
 70
     0
102
RTVSPropertyOp53
 70
     1
102
RTVSPropertyOp54
 70
     1
102
RTVSPropertyOp55
 70
     1
102
RTVSPropertyOp56
 70
     1
102
RTVSPropertyOp57
 70
     1
102
RTVSPost2010Prop28
280
     0
102
RTVSPost2010PropOp28
 70
     1
102
RTVSPost2010Prop29
280
     1
102
RTVSPost2010PropOp29
 70
     1
102
RTVSPost2010Prop30
280
     1
102
RTVSPost2010PropOp30
 70
     1
102
RTVSPost2010Prop31
280
     0
102
RTVSPost2010PropOp31
 70
     1
102
RTVSPost2010Prop32
280
     0
102
RTVSPost2010PropOp32
 70
     1
102
RTVSPost2010Prop33
280
     0
102
RTVSPost2010PropOp33
 70
     1
102
RTVSPost2010Prop34
280
     0
102
RTVSPost2010PropOp34
 70
     1
102
RTVSPost2010Prop35
280
     0
102
RTVSPost2010PropOp35
 70
     1
102
RTVSPost2010Prop36
280
     0
102
RTVSPost2010PropOp36
 70
     1
102
RTVSPost2010Prop37
 90
       50
102
RTVSPost2010PropOp37
 70
     1
102
RTVSPost2010Prop38
140
0.0
102
RTVSPost2010PropOp38
 70
     1
102
RTVSPost2010Prop39
140
1.0
102
RTVSPost2010PropOp39
 70
     1
102
RTVSPost2010Prop40
 90
        0
102
RTVSPost2010PropOp40
 70
     1
102
RTVSPost2010Prop41ColorIndex
 90
       18
102
RTVSPost2010Prop41ColorRGB
 90
        0
102
RTVSPost2010PropOp41
 70
     1
102
RTVSPost2010Prop42
 90
       50
102
RTVSPost2010PropOp42
 70
     1
102
RTVSPost2010Prop43
 90
        3
102
RTVSPost2010PropOp43
 70
     1
102
RTVSPost2010Prop44ColorIndex
 90
        5
102
RTVSPost2010Prop44ColorRGB
 90
      255
102
RTVSPost2010PropOp44
 70
     1
102
RTVSPost2010Prop45
280
     0
102
RTVSPost2010PropOp45
 70
     1
102
RTVSPost2010Prop46
 90
       50
102
RTVSPost2010PropOp46
 70
     1
102
RTVSPost2010Prop47
 90
       50
102
RTVSPost2010PropOp47
 70
     1
102
RTVSPost2010Prop48
 90
       50
102
RTVSPost2010PropOp48
 70
     1
102
RTVSPost2010Prop49
280
     0
102
RTVSPost2010PropOp49
 70
     1
102
RTVSPost2010Prop50
 90
       50
102
RTVSPost2010PropOp50
 70
     1
102
RTVSPost2010Prop51ColorIndex
 90
      256
102
RTVSPost2010Prop51ColorRGB
 90
-16777216
102
RTVSPost2010PropOp51
 70
     0
102
RTVSPost2010Prop52
140
1.0
102
RTVSPost2010PropOp52
 70
     0
102
RTVSPost2010Prop53
 90
        2
102
RTVSPost2010PropOp53
 70
     1
102
RTVSPost2010Prop54
  1
strokes_ogs.tif
102
RTVSPost2010PropOp54
 70
     1
102
RTVSPost2010Prop55
280
     0
102
RTVSPost2010PropOp55
 70
     1
102
RTVSPost2010Prop56
140
1.0
102
RTVSPost2010PropOp56
 70
     1
102
RTVSPost2010Prop57
140
1.0
102
RTVSPost2010PropOp57
 70
     1
  0
XRECORD
  5
93C41
102
{ACAD_REACTORS
330
87B24
102
}
330
87B24
100
AcDbXrecord
280
     1
102
RTVSPropertyOp0
 70
     1
102
RTVSPropertyOp1
 70
     1
102
RTVSPropertyOp2
 70
     1
102
RTVSPropertyOp3
 70
     1
102
RTVSPropertyOp4
 70
     1
102
RTVSPropertyOp5
 70
     1
102
RTVSPropertyOp6
 70
     1
102
RTVSPropertyOp7
 70
     1
102
RTVSPropertyOp8
 70
     1
102
RTVSPropertyOp9
 70
     1
102
RTVSPropertyOp10
 70
     1
102
RTVSPropertyOp11
 70
     1
102
RTVSPropertyOp12
 70
     1
102
RTVSPropertyOp13
 70
     1
102
RTVSPropertyOp14
 70
     1
102
RTVSPropertyOp15
 70
     1
102
RTVSPropertyOp16
 70
     1
102
RTVSPropertyOp17
 70
     1
102
RTVSPropertyOp18
 70
     1
102
RTVSPropertyOp19
 70
     1
102
RTVSPropertyOp20
 70
     1
102
RTVSPropertyOp21
 70
     1
102
RTVSPropertyOp22
 70
     1
102
RTVSPropertyOp23
 70
     1
102
RTVSPropertyOp24
 70
     1
102
RTVSPropertyOp25
 70
     1
102
RTVSPropertyOp26
 70
     1
102
RTVSPropertyOp27
 70
     1
102
RTVSPropertyOp28
 70
     1
102
RTVSPropertyOp29
 70
     1
102
RTVSPropertyOp30
 70
     1
102
RTVSPropertyOp31
 70
     1
102
RTVSPropertyOp32
 70
     1
102
RTVSPropertyOp33
 70
     1
102
RTVSPropertyOp34
 70
     1
102
RTVSPropertyOp35
 70
     1
102
RTVSPropertyOp36
 70
     1
102
RTVSPropertyOp37
 70
     1
102
RTVSPropertyOp38
 70
     1
102
RTVSPropertyOp39
 70
     1
102
RTVSPropertyOp40
 70
     1
102
RTVSPropertyOp41
 70
     1
102
RTVSPropertyOp42
 70
     1
102
RTVSPropertyOp43
 70
     1
102
RTVSPropertyOp44
 70
     1
102
RTVSPropertyOp45
 70
     1
102
RTVSPropertyOp46
 70
     1
102
RTVSPropertyOp47
 70
     1
102
RTVSPropertyOp48
 70
     1
102
RTVSPropertyOp49
 70
     1
102
RTVSPropertyOp50
 70
     1
102
RTVSPropertyOp51
 70
     0
102
RTVSPropertyOp52
 70
     0
102
RTVSPropertyOp53
 70
     1
102
RTVSPropertyOp54
 70
     1
102
RTVSPropertyOp55
 70
     1
102
RTVSPropertyOp56
 70
     1
102
RTVSPropertyOp57
 70
     1
102
RTVSPost2010Prop28
280
     0
102
RTVSPost2010PropOp28
 70
     1
102
RTVSPost2010Prop29
280
     1
102
RTVSPost2010PropOp29
 70
     1
102
RTVSPost2010Prop30
280
     1
102
RTVSPost2010PropOp30
 70
     1
102
RTVSPost2010Prop31
280
     0
102
RTVSPost2010PropOp31
 70
     1
102
RTVSPost2010Prop32
280
     0
102
RTVSPost2010PropOp32
 70
     1
102
RTVSPost2010Prop33
280
     0
102
RTVSPost2010PropOp33
 70
     1
102
RTVSPost2010Prop34
280
     0
102
RTVSPost2010PropOp34
 70
     1
102
RTVSPost2010Prop35
280
     0
102
RTVSPost2010PropOp35
 70
     1
102
RTVSPost2010Prop36
280
     0
102
RTVSPost2010PropOp36
 70
     1
102
RTVSPost2010Prop37
 90
       50
102
RTVSPost2010PropOp37
 70
     1
102
RTVSPost2010Prop38
140
0.0
102
RTVSPost2010PropOp38
 70
     1
102
RTVSPost2010Prop39
140
1.0
102
RTVSPost2010PropOp39
 70
     1
102
RTVSPost2010Prop40
 90
        0
102
RTVSPost2010PropOp40
 70
     1
102
RTVSPost2010Prop41ColorIndex
 90
       18
102
RTVSPost2010Prop41ColorRGB
 90
        0
102
RTVSPost2010PropOp41
 70
     1
102
RTVSPost2010Prop42
 90
       50
102
RTVSPost2010PropOp42
 70
     1
102
RTVSPost2010Prop43
 90
        3
102
RTVSPost2010PropOp43
 70
     1
102
RTVSPost2010Prop44ColorIndex
 90
        5
102
RTVSPost2010Prop44ColorRGB
 90
      255
102
RTVSPost2010PropOp44
 70
     1
102
RTVSPost2010Prop45
280
     0
102
RTVSPost2010PropOp45
 70
     1
102
RTVSPost2010Prop46
 90
       50
102
RTVSPost2010PropOp46
 70
     1
102
RTVSPost2010Prop47
 90
       50
102
RTVSPost2010PropOp47
 70
     1
102
RTVSPost2010Prop48
 90
       50
102
RTVSPost2010PropOp48
 70
     1
102
RTVSPost2010Prop49
280
     0
102
RTVSPost2010PropOp49
 70
     1
102
RTVSPost2010Prop50
 90
       50
102
RTVSPost2010PropOp50
 70
     1
102
RTVSPost2010Prop51ColorIndex
 90
      256
102
RTVSPost2010Prop51ColorRGB
 90
-16777216
102
RTVSPost2010PropOp51
 70
     0
102
RTVSPost2010Prop52
140
1.0
102
RTVSPost2010PropOp52
 70
     0
102
RTVSPost2010Prop53
 90
        2
102
RTVSPost2010PropOp53
 70
     1
102
RTVSPost2010Prop54
  1
strokes_ogs.tif
102
RTVSPost2010PropOp54
 70
     1
102
RTVSPost2010Prop55
280
     0
102
RTVSPost2010PropOp55
 70
     1
102
RTVSPost2010Prop56
140
1.0
102
RTVSPost2010PropOp56
 70
     1
102
RTVSPost2010Prop57
140
1.0
102
RTVSPost2010PropOp57
 70
     1
  0
XRECORD
  5
93C42
102
{ACAD_REACTORS
330
87B2C
102
}
330
87B2C
100
AcDbXrecord
280
     1
102
RTVSPropertyOp0
 70
     1
102
RTVSPropertyOp1
 70
     1
102
RTVSPropertyOp2
 70
     1
102
RTVSPropertyOp3
 70
     1
102
RTVSPropertyOp4
 70
     1
102
RTVSPropertyOp5
 70
     1
102
RTVSPropertyOp6
 70
     1
102
RTVSPropertyOp7
 70
     1
102
RTVSPropertyOp8
 70
     1
102
RTVSPropertyOp9
 70
     1
102
RTVSPropertyOp10
 70
     1
102
RTVSPropertyOp11
 70
     1
102
RTVSPropertyOp12
 70
     1
102
RTVSPropertyOp13
 70
     1
102
RTVSPropertyOp14
 70
     1
102
RTVSPropertyOp15
 70
     1
102
RTVSPropertyOp16
 70
     1
102
RTVSPropertyOp17
 70
     1
102
RTVSPropertyOp18
 70
     1
102
RTVSPropertyOp19
 70
     1
102
RTVSPropertyOp20
 70
     1
102
RTVSPropertyOp21
 70
     1
102
RTVSPropertyOp22
 70
     1
102
RTVSPropertyOp23
 70
     1
102
RTVSPropertyOp24
 70
     1
102
RTVSPropertyOp25
 70
     1
102
RTVSPropertyOp26
 70
     1
102
RTVSPropertyOp27
 70
     1
102
RTVSPropertyOp28
 70
     1
102
RTVSPropertyOp29
 70
     1
102
RTVSPropertyOp30
 70
     1
102
RTVSPropertyOp31
 70
     1
102
RTVSPropertyOp32
 70
     1
102
RTVSPropertyOp33
 70
     1
102
RTVSPropertyOp34
 70
     1
102
RTVSPropertyOp35
 70
     1
102
RTVSPropertyOp36
 70
     1
102
RTVSPropertyOp37
 70
     1
102
RTVSPropertyOp38
 70
     1
102
RTVSPropertyOp39
 70
     1
102
RTVSPropertyOp40
 70
     1
102
RTVSPropertyOp41
 70
     1
102
RTVSPropertyOp42
 70
     1
102
RTVSPropertyOp43
 70
     1
102
RTVSPropertyOp44
 70
     1
102
RTVSPropertyOp45
 70
     1
102
RTVSPropertyOp46
 70
     1
102
RTVSPropertyOp47
 70
     1
102
RTVSPropertyOp48
 70
     1
102
RTVSPropertyOp49
 70
     1
102
RTVSPropertyOp50
 70
     1
102
RTVSPropertyOp51
 70
     0
102
RTVSPropertyOp52
 70
     0
102
RTVSPropertyOp53
 70
     1
102
RTVSPropertyOp54
 70
     1
102
RTVSPropertyOp55
 70
     1
102
RTVSPropertyOp56
 70
     1
102
RTVSPropertyOp57
 70
     1
102
RTVSPost2010Prop28
280
     0
102
RTVSPost2010PropOp28
 70
     1
102
RTVSPost2010Prop29
280
     1
102
RTVSPost2010PropOp29
 70
     1
102
RTVSPost2010Prop30
280
     1
102
RTVSPost2010PropOp30
 70
     1
102
RTVSPost2010Prop31
280
     0
102
RTVSPost2010PropOp31
 70
     1
102
RTVSPost2010Prop32
280
     0
102
RTVSPost2010PropOp32
 70
     1
102
RTVSPost2010Prop33
280
     0
102
RTVSPost2010PropOp33
 70
     1
102
RTVSPost2010Prop34
280
     0
102
RTVSPost2010PropOp34
 70
     1
102
RTVSPost2010Prop35
280
     0
102
RTVSPost2010PropOp35
 70
     1
102
RTVSPost2010Prop36
280
     0
102
RTVSPost2010PropOp36
 70
     1
102
RTVSPost2010Prop37
 90
       50
102
RTVSPost2010PropOp37
 70
     1
102
RTVSPost2010Prop38
140
0.0
102
RTVSPost2010PropOp38
 70
     1
102
RTVSPost2010Prop39
140
1.0
102
RTVSPost2010PropOp39
 70
     1
102
RTVSPost2010Prop40
 90
        0
102
RTVSPost2010PropOp40
 70
     1
102
RTVSPost2010Prop41ColorIndex
 90
       18
102
RTVSPost2010Prop41ColorRGB
 90
        0
102
RTVSPost2010PropOp41
 70
     1
102
RTVSPost2010Prop42
 90
       50
102
RTVSPost2010PropOp42
 70
     1
102
RTVSPost2010Prop43
 90
        3
102
RTVSPost2010PropOp43
 70
     1
102
RTVSPost2010Prop44ColorIndex
 90
        5
102
RTVSPost2010Prop44ColorRGB
 90
      255
102
RTVSPost2010PropOp44
 70
     1
102
RTVSPost2010Prop45
280
     0
102
RTVSPost2010PropOp45
 70
     1
102
RTVSPost2010Prop46
 90
       50
102
RTVSPost2010PropOp46
 70
     1
102
RTVSPost2010Prop47
 90
       50
102
RTVSPost2010PropOp47
 70
     1
102
RTVSPost2010Prop48
 90
       50
102
RTVSPost2010PropOp48
 70
     1
102
RTVSPost2010Prop49
280
     0
102
RTVSPost2010PropOp49
 70
     1
102
RTVSPost2010Prop50
 90
       50
102
RTVSPost2010PropOp50
 70
     1
102
RTVSPost2010Prop51ColorIndex
 90
      256
102
RTVSPost2010Prop51ColorRGB
 90
-16777216
102
RTVSPost2010PropOp51
 70
     0
102
RTVSPost2010Prop52
140
1.0
102
RTVSPost2010PropOp52
 70
     0
102
RTVSPost2010Prop53
 90
        2
102
RTVSPost2010PropOp53
 70
     1
102
RTVSPost2010Prop54
  1
strokes_ogs.tif
102
RTVSPost2010PropOp54
 70
     1
102
RTVSPost2010Prop55
280
     0
102
RTVSPost2010PropOp55
 70
     1
102
RTVSPost2010Prop56
140
1.0
102
RTVSPost2010PropOp56
 70
     1
102
RTVSPost2010Prop57
140
1.0
102
RTVSPost2010PropOp57
 70
     1
  0
XRECORD
  5
93C43
102
{ACAD_REACTORS
330
87B1E
102
}
330
87B1E
100
AcDbXrecord
280
     1
102
RTVSPropertyOp0
 70
     1
102
RTVSPropertyOp1
 70
     1
102
RTVSPropertyOp2
 70
     1
102
RTVSPropertyOp3
 70
     1
102
RTVSPropertyOp4
 70
     1
102
RTVSPropertyOp5
 70
     1
102
RTVSPropertyOp6
 70
     1
102
RTVSPropertyOp7
 70
     1
102
RTVSPropertyOp8
 70
     1
102
RTVSPropertyOp9
 70
     1
102
RTVSPropertyOp10
 70
     1
102
RTVSPropertyOp11
 70
     1
102
RTVSPropertyOp12
 70
     1
102
RTVSPropertyOp13
 70
     1
102
RTVSPropertyOp14
 70
     1
102
RTVSPropertyOp15
 70
     1
102
RTVSPropertyOp16
 70
     1
102
RTVSPropertyOp17
 70
     1
102
RTVSPropertyOp18
 70
     1
102
RTVSPropertyOp19
 70
     1
102
RTVSPropertyOp20
 70
     1
102
RTVSPropertyOp21
 70
     1
102
RTVSPropertyOp22
 70
     1
102
RTVSPropertyOp23
 70
     1
102
RTVSPropertyOp24
 70
     1
102
RTVSPropertyOp25
 70
     1
102
RTVSPropertyOp26
 70
     1
102
RTVSPropertyOp27
 70
     1
102
RTVSPropertyOp28
 70
     1
102
RTVSPropertyOp29
 70
     1
102
RTVSPropertyOp30
 70
     1
102
RTVSPropertyOp31
 70
     1
102
RTVSPropertyOp32
 70
     1
102
RTVSPropertyOp33
 70
     1
102
RTVSPropertyOp34
 70
     1
102
RTVSPropertyOp35
 70
     1
102
RTVSPropertyOp36
 70
     1
102
RTVSPropertyOp37
 70
     1
102
RTVSPropertyOp38
 70
     1
102
RTVSPropertyOp39
 70
     1
102
RTVSPropertyOp40
 70
     1
102
RTVSPropertyOp41
 70
     1
102
RTVSPropertyOp42
 70
     1
102
RTVSPropertyOp43
 70
     1
102
RTVSPropertyOp44
 70
     1
102
RTVSPropertyOp45
 70
     1
102
RTVSPropertyOp46
 70
     1
102
RTVSPropertyOp47
 70
     1
102
RTVSPropertyOp48
 70
     1
102
RTVSPropertyOp49
 70
     1
102
RTVSPropertyOp50
 70
     1
102
RTVSPropertyOp51
 70
     0
102
RTVSPropertyOp52
 70
     0
102
RTVSPropertyOp53
 70
     1
102
RTVSPropertyOp54
 70
     1
102
RTVSPropertyOp55
 70
     1
102
RTVSPropertyOp56
 70
     1
102
RTVSPropertyOp57
 70
     1
102
RTVSPost2010Prop28
280
     0
102
RTVSPost2010PropOp28
 70
     1
102
RTVSPost2010Prop29
280
     1
102
RTVSPost2010PropOp29
 70
     1
102
RTVSPost2010Prop30
280
     1
102
RTVSPost2010PropOp30
 70
     1
102
RTVSPost2010Prop31
280
     0
102
RTVSPost2010PropOp31
 70
     1
102
RTVSPost2010Prop32
280
     0
102
RTVSPost2010PropOp32
 70
     1
102
RTVSPost2010Prop33
280
     0
102
RTVSPost2010PropOp33
 70
     1
102
RTVSPost2010Prop34
280
     0
102
RTVSPost2010PropOp34
 70
     1
102
RTVSPost2010Prop35
280
     0
102
RTVSPost2010PropOp35
 70
     1
102
RTVSPost2010Prop36
280
     0
102
RTVSPost2010PropOp36
 70
     1
102
RTVSPost2010Prop37
 90
       50
102
RTVSPost2010PropOp37
 70
     1
102
RTVSPost2010Prop38
140
0.0
102
RTVSPost2010PropOp38
 70
     1
102
RTVSPost2010Prop39
140
1.0
102
RTVSPost2010PropOp39
 70
     1
102
RTVSPost2010Prop40
 90
        0
102
RTVSPost2010PropOp40
 70
     1
102
RTVSPost2010Prop41ColorIndex
 90
       18
102
RTVSPost2010Prop41ColorRGB
 90
        0
102
RTVSPost2010PropOp41
 70
     1
102
RTVSPost2010Prop42
 90
       50
102
RTVSPost2010PropOp42
 70
     1
102
RTVSPost2010Prop43
 90
        3
102
RTVSPost2010PropOp43
 70
     1
102
RTVSPost2010Prop44ColorIndex
 90
        5
102
RTVSPost2010Prop44ColorRGB
 90
      255
102
RTVSPost2010PropOp44
 70
     1
102
RTVSPost2010Prop45
280
     0
102
RTVSPost2010PropOp45
 70
     1
102
RTVSPost2010Prop46
 90
       50
102
RTVSPost2010PropOp46
 70
     1
102
RTVSPost2010Prop47
 90
       50
102
RTVSPost2010PropOp47
 70
     1
102
RTVSPost2010Prop48
 90
       50
102
RTVSPost2010PropOp48
 70
     1
102
RTVSPost2010Prop49
280
     0
102
RTVSPost2010PropOp49
 70
     1
102
RTVSPost2010Prop50
 90
       50
102
RTVSPost2010PropOp50
 70
     1
102
RTVSPost2010Prop51ColorIndex
 90
      256
102
RTVSPost2010Prop51ColorRGB
 90
-16777216
102
RTVSPost2010PropOp51
 70
     0
102
RTVSPost2010Prop52
140
1.0
102
RTVSPost2010PropOp52
 70
     0
102
RTVSPost2010Prop53
 90
        2
102
RTVSPost2010PropOp53
 70
     1
102
RTVSPost2010Prop54
  1
strokes_ogs.tif
102
RTVSPost2010PropOp54
 70
     1
102
RTVSPost2010Prop55
280
     0
102
RTVSPost2010PropOp55
 70
     1
102
RTVSPost2010Prop56
140
1.0
102
RTVSPost2010PropOp56
 70
     1
102
RTVSPost2010Prop57
140
1.0
102
RTVSPost2010PropOp57
 70
     1
  0
XRECORD
  5
93C44
102
{ACAD_REACTORS
330
87B22
102
}
330
87B22
100
AcDbXrecord
280
     1
102
RTVSPropertyOp0
 70
     1
102
RTVSPropertyOp1
 70
     1
102
RTVSPropertyOp2
 70
     1
102
RTVSPropertyOp3
 70
     1
102
RTVSPropertyOp4
 70
     1
102
RTVSPropertyOp5
 70
     1
102
RTVSPropertyOp6
 70
     1
102
RTVSPropertyOp7
 70
     1
102
RTVSPropertyOp8
 70
     1
102
RTVSPropertyOp9
 70
     1
102
RTVSPropertyOp10
 70
     1
102
RTVSPropertyOp11
 70
     1
102
RTVSPropertyOp12
 70
     1
102
RTVSPropertyOp13
 70
     1
102
RTVSPropertyOp14
 70
     1
102
RTVSPropertyOp15
 70
     1
102
RTVSPropertyOp16
 70
     1
102
RTVSPropertyOp17
 70
     1
102
RTVSPropertyOp18
 70
     1
102
RTVSPropertyOp19
 70
     1
102
RTVSPropertyOp20
 70
     1
102
RTVSPropertyOp21
 70
     1
102
RTVSPropertyOp22
 70
     1
102
RTVSPropertyOp23
 70
     1
102
RTVSPropertyOp24
 70
     1
102
RTVSPropertyOp25
 70
     1
102
RTVSPropertyOp26
 70
     1
102
RTVSPropertyOp27
 70
     1
102
RTVSPropertyOp28
 70
     1
102
RTVSPropertyOp29
 70
     1
102
RTVSPropertyOp30
 70
     1
102
RTVSPropertyOp31
 70
     1
102
RTVSPropertyOp32
 70
     1
102
RTVSPropertyOp33
 70
     1
102
RTVSPropertyOp34
 70
     1
102
RTVSPropertyOp35
 70
     1
102
RTVSPropertyOp36
 70
     1
102
RTVSPropertyOp37
 70
     1
102
RTVSPropertyOp38
 70
     1
102
RTVSPropertyOp39
 70
     1
102
RTVSPropertyOp40
 70
     1
102
RTVSPropertyOp41
 70
     1
102
RTVSPropertyOp42
 70
     1
102
RTVSPropertyOp43
 70
     1
102
RTVSPropertyOp44
 70
     1
102
RTVSPropertyOp45
 70
     1
102
RTVSPropertyOp46
 70
     1
102
RTVSPropertyOp47
 70
     1
102
RTVSPropertyOp48
 70
     1
102
RTVSPropertyOp49
 70
     1
102
RTVSPropertyOp50
 70
     1
102
RTVSPropertyOp51
 70
     0
102
RTVSPropertyOp52
 70
     0
102
RTVSPropertyOp53
 70
     1
102
RTVSPropertyOp54
 70
     1
102
RTVSPropertyOp55
 70
     1
102
RTVSPropertyOp56
 70
     1
102
RTVSPropertyOp57
 70
     1
102
RTVSPost2010Prop28
280
     0
102
RTVSPost2010PropOp28
 70
     1
102
RTVSPost2010Prop29
280
     1
102
RTVSPost2010PropOp29
 70
     1
102
RTVSPost2010Prop30
280
     1
102
RTVSPost2010PropOp30
 70
     1
102
RTVSPost2010Prop31
280
     0
102
RTVSPost2010PropOp31
 70
     1
102
RTVSPost2010Prop32
280
     0
102
RTVSPost2010PropOp32
 70
     1
102
RTVSPost2010Prop33
280
     0
102
RTVSPost2010PropOp33
 70
     1
102
RTVSPost2010Prop34
280
     0
102
RTVSPost2010PropOp34
 70
     1
102
RTVSPost2010Prop35
280
     0
102
RTVSPost2010PropOp35
 70
     1
102
RTVSPost2010Prop36
280
     0
102
RTVSPost2010PropOp36
 70
     1
102
RTVSPost2010Prop37
 90
       50
102
RTVSPost2010PropOp37
 70
     1
102
RTVSPost2010Prop38
140
0.0
102
RTVSPost2010PropOp38
 70
     1
102
RTVSPost2010Prop39
140
1.0
102
RTVSPost2010PropOp39
 70
     1
102
RTVSPost2010Prop40
 90
        0
102
RTVSPost2010PropOp40
 70
     1
102
RTVSPost2010Prop41ColorIndex
 90
       18
102
RTVSPost2010Prop41ColorRGB
 90
        0
102
RTVSPost2010PropOp41
 70
     1
102
RTVSPost2010Prop42
 90
       50
102
RTVSPost2010PropOp42
 70
     1
102
RTVSPost2010Prop43
 90
        3
102
RTVSPost2010PropOp43
 70
     1
102
RTVSPost2010Prop44ColorIndex
 90
        5
102
RTVSPost2010Prop44ColorRGB
 90
      255
102
RTVSPost2010PropOp44
 70
     1
102
RTVSPost2010Prop45
280
     0
102
RTVSPost2010PropOp45
 70
     1
102
RTVSPost2010Prop46
 90
       50
102
RTVSPost2010PropOp46
 70
     1
102
RTVSPost2010Prop47
 90
       50
102
RTVSPost2010PropOp47
 70
     1
102
RTVSPost2010Prop48
 90
       50
102
RTVSPost2010PropOp48
 70
     1
102
RTVSPost2010Prop49
280
     0
102
RTVSPost2010PropOp49
 70
     1
102
RTVSPost2010Prop50
 90
       50
102
RTVSPost2010PropOp50
 70
     1
102
RTVSPost2010Prop51ColorIndex
 90
      256
102
RTVSPost2010Prop51ColorRGB
 90
-16777216
102
RTVSPost2010PropOp51
 70
     0
102
RTVSPost2010Prop52
140
1.0
102
RTVSPost2010PropOp52
 70
     0
102
RTVSPost2010Prop53
 90
        2
102
RTVSPost2010PropOp53
 70
     1
102
RTVSPost2010Prop54
  1
strokes_ogs.tif
102
RTVSPost2010PropOp54
 70
     1
102
RTVSPost2010Prop55
280
     0
102
RTVSPost2010PropOp55
 70
     1
102
RTVSPost2010Prop56
140
1.0
102
RTVSPost2010PropOp56
 70
     1
102
RTVSPost2010Prop57
140
1.0
102
RTVSPost2010PropOp57
 70
     1
  0
XRECORD
  5
93C45
102
{ACAD_REACTORS
330
87B3C
102
}
330
87B3C
100
AcDbXrecord
280
     1
102
RTVSPropertyOp0
 70
     0
102
RTVSPropertyOp1
 70
     0
102
RTVSPropertyOp2
 70
     0
102
RTVSPropertyOp3
 70
     0
102
RTVSPropertyOp4
 70
     0
102
RTVSPropertyOp5
 70
     0
102
RTVSPropertyOp6
 70
     0
102
RTVSPropertyOp7
 70
     0
102
RTVSPropertyOp8
 70
     0
102
RTVSPropertyOp9
 70
     0
102
RTVSPropertyOp10
 70
     0
102
RTVSPropertyOp11
 70
     0
102
RTVSPropertyOp12
 70
     0
102
RTVSPropertyOp13
 70
     0
102
RTVSPropertyOp14
 70
     2
102
RTVSPropertyOp15
 70
     0
102
RTVSPropertyOp16
 70
     0
102
RTVSPropertyOp17
 70
     0
102
RTVSPropertyOp18
 70
     0
102
RTVSPropertyOp19
 70
     0
102
RTVSPropertyOp20
 70
     0
102
RTVSPropertyOp21
 70
     0
102
RTVSPropertyOp22
 70
     0
102
RTVSPropertyOp23
 70
     0
102
RTVSPropertyOp24
 70
     0
102
RTVSPropertyOp25
 70
     0
102
RTVSPropertyOp26
 70
     0
102
RTVSPropertyOp27
 70
     0
102
RTVSPropertyOp28
 70
     1
102
RTVSPropertyOp29
 70
     1
102
RTVSPropertyOp30
 70
     1
102
RTVSPropertyOp31
 70
     1
102
RTVSPropertyOp32
 70
     1
102
RTVSPropertyOp33
 70
     1
102
RTVSPropertyOp34
 70
     1
102
RTVSPropertyOp35
 70
     1
102
RTVSPropertyOp36
 70
     1
102
RTVSPropertyOp37
 70
     0
102
RTVSPropertyOp38
 70
     0
102
RTVSPropertyOp39
 70
     0
102
RTVSPropertyOp40
 70
     0
102
RTVSPropertyOp41
 70
     0
102
RTVSPropertyOp42
 70
     0
102
RTVSPropertyOp43
 70
     0
102
RTVSPropertyOp44
 70
     0
102
RTVSPropertyOp45
 70
     1
102
RTVSPropertyOp46
 70
     0
102
RTVSPropertyOp47
 70
     0
102
RTVSPropertyOp48
 70
     0
102
RTVSPropertyOp49
 70
     1
102
RTVSPropertyOp50
 70
     0
102
RTVSPropertyOp51
 70
     0
102
RTVSPropertyOp52
 70
     0
102
RTVSPropertyOp53
 70
     0
102
RTVSPropertyOp54
 70
     0
102
RTVSPropertyOp55
 70
     1
102
RTVSPropertyOp56
 70
     0
102
RTVSPropertyOp57
 70
     0
102
RTVSPost2010Prop28
280
     0
102
RTVSPost2010PropOp28
 70
     1
102
RTVSPost2010Prop29
280
     1
102
RTVSPost2010PropOp29
 70
     1
102
RTVSPost2010Prop30
280
     1
102
RTVSPost2010PropOp30
 70
     1
102
RTVSPost2010Prop31
280
     0
102
RTVSPost2010PropOp31
 70
     1
102
RTVSPost2010Prop32
280
     0
102
RTVSPost2010PropOp32
 70
     1
102
RTVSPost2010Prop33
280
     0
102
RTVSPost2010PropOp33
 70
     1
102
RTVSPost2010Prop34
280
     0
102
RTVSPost2010PropOp34
 70
     1
102
RTVSPost2010Prop35
280
     0
102
RTVSPost2010PropOp35
 70
     1
102
RTVSPost2010Prop36
280
     0
102
RTVSPost2010PropOp36
 70
     1
102
RTVSPost2010Prop37
 90
       50
102
RTVSPost2010PropOp37
 70
     0
102
RTVSPost2010Prop38
140
0.0
102
RTVSPost2010PropOp38
 70
     0
102
RTVSPost2010Prop39
140
1.0
102
RTVSPost2010PropOp39
 70
     0
102
RTVSPost2010Prop40
 90
        0
102
RTVSPost2010PropOp40
 70
     0
102
RTVSPost2010Prop41ColorIndex
 90
       18
102
RTVSPost2010Prop41ColorRGB
 90
        0
102
RTVSPost2010PropOp41
 70
     0
102
RTVSPost2010Prop42
 90
       50
102
RTVSPost2010PropOp42
 70
     0
102
RTVSPost2010Prop43
 90
        3
102
RTVSPost2010PropOp43
 70
     0
102
RTVSPost2010Prop44ColorIndex
 90
        5
102
RTVSPost2010Prop44ColorRGB
 90
      255
102
RTVSPost2010PropOp44
 70
     0
102
RTVSPost2010Prop45
280
     0
102
RTVSPost2010PropOp45
 70
     1
102
RTVSPost2010Prop46
 90
       50
102
RTVSPost2010PropOp46
 70
     0
102
RTVSPost2010Prop47
 90
       50
102
RTVSPost2010PropOp47
 70
     0
102
RTVSPost2010Prop48
 90
       50
102
RTVSPost2010PropOp48
 70
     0
102
RTVSPost2010Prop49
280
     0
102
RTVSPost2010PropOp49
 70
     1
102
RTVSPost2010Prop50
 90
       50
102
RTVSPost2010PropOp50
 70
     0
102
RTVSPost2010Prop51ColorIndex
 90
      256
102
RTVSPost2010Prop51ColorRGB
 90
-16777216
102
RTVSPost2010PropOp51
 70
     0
102
RTVSPost2010Prop52
140
1.0
102
RTVSPost2010PropOp52
 70
     0
102
RTVSPost2010Prop53
 90
        2
102
RTVSPost2010PropOp53
 70
     0
102
RTVSPost2010Prop54
  1
strokes_ogs.tif
102
RTVSPost2010PropOp54
 70
     0
102
RTVSPost2010Prop55
280
     0
102
RTVSPost2010PropOp55
 70
     1
102
RTVSPost2010Prop56
140
1.0
102
RTVSPost2010PropOp56
 70
     0
102
RTVSPost2010Prop57
140
1.0
102
RTVSPost2010PropOp57
 70
     0
  0
XRECORD
  5
93C46
102
{ACAD_REACTORS
330
87B2A
102
}
330
87B2A
100
AcDbXrecord
280
     1
102
RTVSPropertyOp0
 70
     1
102
RTVSPropertyOp1
 70
     1
102
RTVSPropertyOp2
 70
     1
102
RTVSPropertyOp3
 70
     1
102
RTVSPropertyOp4
 70
     1
102
RTVSPropertyOp5
 70
     1
102
RTVSPropertyOp6
 70
     1
102
RTVSPropertyOp7
 70
     1
102
RTVSPropertyOp8
 70
     1
102
RTVSPropertyOp9
 70
     1
102
RTVSPropertyOp10
 70
     1
102
RTVSPropertyOp11
 70
     1
102
RTVSPropertyOp12
 70
     1
102
RTVSPropertyOp13
 70
     1
102
RTVSPropertyOp14
 70
     1
102
RTVSPropertyOp15
 70
     1
102
RTVSPropertyOp16
 70
     1
102
RTVSPropertyOp17
 70
     1
102
RTVSPropertyOp18
 70
     1
102
RTVSPropertyOp19
 70
     1
102
RTVSPropertyOp20
 70
     1
102
RTVSPropertyOp21
 70
     1
102
RTVSPropertyOp22
 70
     1
102
RTVSPropertyOp23
 70
     1
102
RTVSPropertyOp24
 70
     1
102
RTVSPropertyOp25
 70
     1
102
RTVSPropertyOp26
 70
     1
102
RTVSPropertyOp27
 70
     1
102
RTVSPropertyOp28
 70
     1
102
RTVSPropertyOp29
 70
     1
102
RTVSPropertyOp30
 70
     1
102
RTVSPropertyOp31
 70
     1
102
RTVSPropertyOp32
 70
     1
102
RTVSPropertyOp33
 70
     1
102
RTVSPropertyOp34
 70
     1
102
RTVSPropertyOp35
 70
     1
102
RTVSPropertyOp36
 70
     1
102
RTVSPropertyOp37
 70
     1
102
RTVSPropertyOp38
 70
     1
102
RTVSPropertyOp39
 70
     1
102
RTVSPropertyOp40
 70
     1
102
RTVSPropertyOp41
 70
     1
102
RTVSPropertyOp42
 70
     1
102
RTVSPropertyOp43
 70
     1
102
RTVSPropertyOp44
 70
     1
102
RTVSPropertyOp45
 70
     1
102
RTVSPropertyOp46
 70
     1
102
RTVSPropertyOp47
 70
     1
102
RTVSPropertyOp48
 70
     1
102
RTVSPropertyOp49
 70
     1
102
RTVSPropertyOp50
 70
     1
102
RTVSPropertyOp51
 70
     0
102
RTVSPropertyOp52
 70
     0
102
RTVSPropertyOp53
 70
     1
102
RTVSPropertyOp54
 70
     1
102
RTVSPropertyOp55
 70
     1
102
RTVSPropertyOp56
 70
     1
102
RTVSPropertyOp57
 70
     1
102
RTVSPost2010Prop28
280
     0
102
RTVSPost2010PropOp28
 70
     1
102
RTVSPost2010Prop29
280
     1
102
RTVSPost2010PropOp29
 70
     1
102
RTVSPost2010Prop30
280
     1
102
RTVSPost2010PropOp30
 70
     1
102
RTVSPost2010Prop31
280
     0
102
RTVSPost2010PropOp31
 70
     1
102
RTVSPost2010Prop32
280
     0
102
RTVSPost2010PropOp32
 70
     1
102
RTVSPost2010Prop33
280
     0
102
RTVSPost2010PropOp33
 70
     1
102
RTVSPost2010Prop34
280
     0
102
RTVSPost2010PropOp34
 70
     1
102
RTVSPost2010Prop35
280
     0
102
RTVSPost2010PropOp35
 70
     1
102
RTVSPost2010Prop36
280
     0
102
RTVSPost2010PropOp36
 70
     1
102
RTVSPost2010Prop37
 90
       50
102
RTVSPost2010PropOp37
 70
     1
102
RTVSPost2010Prop38
140
0.0
102
RTVSPost2010PropOp38
 70
     1
102
RTVSPost2010Prop39
140
1.0
102
RTVSPost2010PropOp39
 70
     1
102
RTVSPost2010Prop40
 90
        0
102
RTVSPost2010PropOp40
 70
     1
102
RTVSPost2010Prop41ColorIndex
 90
       18
102
RTVSPost2010Prop41ColorRGB
 90
        0
102
RTVSPost2010PropOp41
 70
     1
102
RTVSPost2010Prop42
 90
       50
102
RTVSPost2010PropOp42
 70
     1
102
RTVSPost2010Prop43
 90
        3
102
RTVSPost2010PropOp43
 70
     1
102
RTVSPost2010Prop44ColorIndex
 90
        5
102
RTVSPost2010Prop44ColorRGB
 90
      255
102
RTVSPost2010PropOp44
 70
     1
102
RTVSPost2010Prop45
280
     0
102
RTVSPost2010PropOp45
 70
     1
102
RTVSPost2010Prop46
 90
       50
102
RTVSPost2010PropOp46
 70
     1
102
RTVSPost2010Prop47
 90
       50
102
RTVSPost2010PropOp47
 70
     1
102
RTVSPost2010Prop48
 90
       50
102
RTVSPost2010PropOp48
 70
     1
102
RTVSPost2010Prop49
280
     0
102
RTVSPost2010PropOp49
 70
     1
102
RTVSPost2010Prop50
 90
       50
102
RTVSPost2010PropOp50
 70
     1
102
RTVSPost2010Prop51ColorIndex
 90
      256
102
RTVSPost2010Prop51ColorRGB
 90
-16777216
102
RTVSPost2010PropOp51
 70
     0
102
RTVSPost2010Prop52
140
1.0
102
RTVSPost2010PropOp52
 70
     0
102
RTVSPost2010Prop53
 90
        2
102
RTVSPost2010PropOp53
 70
     1
102
RTVSPost2010Prop54
  1
strokes_ogs.tif
102
RTVSPost2010PropOp54
 70
     1
102
RTVSPost2010Prop55
280
     0
102
RTVSPost2010PropOp55
 70
     1
102
RTVSPost2010Prop56
140
1.0
102
RTVSPost2010PropOp56
 70
     1
102
RTVSPost2010Prop57
140
1.0
102
RTVSPost2010PropOp57
 70
     1
  0
XRECORD
  5
93C47
102
{ACAD_REACTORS
330
87B0E
102
}
330
87B0E
100
AcDbXrecord
280
     1
102
RTVSPropertyOp0
 70
     1
102
RTVSPropertyOp1
 70
     1
102
RTVSPropertyOp2
 70
     1
102
RTVSPropertyOp3
 70
     1
102
RTVSPropertyOp4
 70
     1
102
RTVSPropertyOp5
 70
     1
102
RTVSPropertyOp6
 70
     1
102
RTVSPropertyOp7
 70
     1
102
RTVSPropertyOp8
 70
     1
102
RTVSPropertyOp9
 70
     1
102
RTVSPropertyOp10
 70
     1
102
RTVSPropertyOp11
 70
     1
102
RTVSPropertyOp12
 70
     1
102
RTVSPropertyOp13
 70
     1
102
RTVSPropertyOp14
 70
     1
102
RTVSPropertyOp15
 70
     1
102
RTVSPropertyOp16
 70
     1
102
RTVSPropertyOp17
 70
     1
102
RTVSPropertyOp18
 70
     1
102
RTVSPropertyOp19
 70
     1
102
RTVSPropertyOp20
 70
     1
102
RTVSPropertyOp21
 70
     1
102
RTVSPropertyOp22
 70
     1
102
RTVSPropertyOp23
 70
     1
102
RTVSPropertyOp24
 70
     1
102
RTVSPropertyOp25
 70
     1
102
RTVSPropertyOp26
 70
     1
102
RTVSPropertyOp27
 70
     1
102
RTVSPropertyOp28
 70
     1
102
RTVSPropertyOp29
 70
     1
102
RTVSPropertyOp30
 70
     1
102
RTVSPropertyOp31
 70
     1
102
RTVSPropertyOp32
 70
     1
102
RTVSPropertyOp33
 70
     1
102
RTVSPropertyOp34
 70
     1
102
RTVSPropertyOp35
 70
     1
102
RTVSPropertyOp36
 70
     1
102
RTVSPropertyOp37
 70
     1
102
RTVSPropertyOp38
 70
     1
102
RTVSPropertyOp39
 70
     1
102
RTVSPropertyOp40
 70
     1
102
RTVSPropertyOp41
 70
     1
102
RTVSPropertyOp42
 70
     1
102
RTVSPropertyOp43
 70
     1
102
RTVSPropertyOp44
 70
     1
102
RTVSPropertyOp45
 70
     1
102
RTVSPropertyOp46
 70
     1
102
RTVSPropertyOp47
 70
     1
102
RTVSPropertyOp48
 70
     1
102
RTVSPropertyOp49
 70
     1
102
RTVSPropertyOp50
 70
     1
102
RTVSPropertyOp51
 70
     0
102
RTVSPropertyOp52
 70
     0
102
RTVSPropertyOp53
 70
     1
102
RTVSPropertyOp54
 70
     1
102
RTVSPropertyOp55
 70
     1
102
RTVSPropertyOp56
 70
     1
102
RTVSPropertyOp57
 70
     1
102
RTVSPost2010Prop28
280
     0
102
RTVSPost2010PropOp28
 70
     1
102
RTVSPost2010Prop29
280
     1
102
RTVSPost2010PropOp29
 70
     1
102
RTVSPost2010Prop30
280
     1
102
RTVSPost2010PropOp30
 70
     1
102
RTVSPost2010Prop31
280
     0
102
RTVSPost2010PropOp31
 70
     1
102
RTVSPost2010Prop32
280
     0
102
RTVSPost2010PropOp32
 70
     1
102
RTVSPost2010Prop33
280
     0
102
RTVSPost2010PropOp33
 70
     1
102
RTVSPost2010Prop34
280
     0
102
RTVSPost2010PropOp34
 70
     1
102
RTVSPost2010Prop35
280
     0
102
RTVSPost2010PropOp35
 70
     1
102
RTVSPost2010Prop36
280
     0
102
RTVSPost2010PropOp36
 70
     1
102
RTVSPost2010Prop37
 90
       50
102
RTVSPost2010PropOp37
 70
     1
102
RTVSPost2010Prop38
140
0.0
102
RTVSPost2010PropOp38
 70
     1
102
RTVSPost2010Prop39
140
1.0
102
RTVSPost2010PropOp39
 70
     1
102
RTVSPost2010Prop40
 90
        0
102
RTVSPost2010PropOp40
 70
     1
102
RTVSPost2010Prop41ColorIndex
 90
       18
102
RTVSPost2010Prop41ColorRGB
 90
        0
102
RTVSPost2010PropOp41
 70
     1
102
RTVSPost2010Prop42
 90
       50
102
RTVSPost2010PropOp42
 70
     1
102
RTVSPost2010Prop43
 90
        3
102
RTVSPost2010PropOp43
 70
     1
102
RTVSPost2010Prop44ColorIndex
 90
        5
102
RTVSPost2010Prop44ColorRGB
 90
      255
102
RTVSPost2010PropOp44
 70
     1
102
RTVSPost2010Prop45
280
     0
102
RTVSPost2010PropOp45
 70
     1
102
RTVSPost2010Prop46
 90
       50
102
RTVSPost2010PropOp46
 70
     1
102
RTVSPost2010Prop47
 90
       50
102
RTVSPost2010PropOp47
 70
     1
102
RTVSPost2010Prop48
 90
       50
102
RTVSPost2010PropOp48
 70
     1
102
RTVSPost2010Prop49
280
     0
102
RTVSPost2010PropOp49
 70
     1
102
RTVSPost2010Prop50
 90
       50
102
RTVSPost2010PropOp50
 70
     1
102
RTVSPost2010Prop51ColorIndex
 90
      256
102
RTVSPost2010Prop51ColorRGB
 90
-16777216
102
RTVSPost2010PropOp51
 70
     0
102
RTVSPost2010Prop52
140
1.0
102
RTVSPost2010PropOp52
 70
     0
102
RTVSPost2010Prop53
 90
        2
102
RTVSPost2010PropOp53
 70
     1
102
RTVSPost2010Prop54
  1
strokes_ogs.tif
102
RTVSPost2010PropOp54
 70
     1
102
RTVSPost2010Prop55
280
     0
102
RTVSPost2010PropOp55
 70
     1
102
RTVSPost2010Prop56
140
1.0
102
RTVSPost2010PropOp56
 70
     1
102
RTVSPost2010Prop57
140
1.0
102
RTVSPost2010PropOp57
 70
     1
  0
XRECORD
  5
93C48
102
{ACAD_REACTORS
330
87B10
102
}
330
87B10
100
AcDbXrecord
280
     1
102
RTVSPropertyOp0
 70
     1
102
RTVSPropertyOp1
 70
     1
102
RTVSPropertyOp2
 70
     1
102
RTVSPropertyOp3
 70
     1
102
RTVSPropertyOp4
 70
     1
102
RTVSPropertyOp5
 70
     1
102
RTVSPropertyOp6
 70
     1
102
RTVSPropertyOp7
 70
     1
102
RTVSPropertyOp8
 70
     1
102
RTVSPropertyOp9
 70
     1
102
RTVSPropertyOp10
 70
     1
102
RTVSPropertyOp11
 70
     1
102
RTVSPropertyOp12
 70
     1
102
RTVSPropertyOp13
 70
     1
102
RTVSPropertyOp14
 70
     1
102
RTVSPropertyOp15
 70
     1
102
RTVSPropertyOp16
 70
     1
102
RTVSPropertyOp17
 70
     1
102
RTVSPropertyOp18
 70
     1
102
RTVSPropertyOp19
 70
     1
102
RTVSPropertyOp20
 70
     1
102
RTVSPropertyOp21
 70
     1
102
RTVSPropertyOp22
 70
     1
102
RTVSPropertyOp23
 70
     1
102
RTVSPropertyOp24
 70
     1
102
RTVSPropertyOp25
 70
     1
102
RTVSPropertyOp26
 70
     1
102
RTVSPropertyOp27
 70
     1
102
RTVSPropertyOp28
 70
     1
102
RTVSPropertyOp29
 70
     1
102
RTVSPropertyOp30
 70
     1
102
RTVSPropertyOp31
 70
     1
102
RTVSPropertyOp32
 70
     1
102
RTVSPropertyOp33
 70
     1
102
RTVSPropertyOp34
 70
     1
102
RTVSPropertyOp35
 70
     1
102
RTVSPropertyOp36
 70
     1
102
RTVSPropertyOp37
 70
     1
102
RTVSPropertyOp38
 70
     1
102
RTVSPropertyOp39
 70
     1
102
RTVSPropertyOp40
 70
     1
102
RTVSPropertyOp41
 70
     1
102
RTVSPropertyOp42
 70
     1
102
RTVSPropertyOp43
 70
     1
102
RTVSPropertyOp44
 70
     1
102
RTVSPropertyOp45
 70
     1
102
RTVSPropertyOp46
 70
     1
102
RTVSPropertyOp47
 70
     1
102
RTVSPropertyOp48
 70
     1
102
RTVSPropertyOp49
 70
     1
102
RTVSPropertyOp50
 70
     1
102
RTVSPropertyOp51
 70
     0
102
RTVSPropertyOp52
 70
     0
102
RTVSPropertyOp53
 70
     1
102
RTVSPropertyOp54
 70
     1
102
RTVSPropertyOp55
 70
     1
102
RTVSPropertyOp56
 70
     1
102
RTVSPropertyOp57
 70
     1
102
RTVSPost2010Prop28
280
     0
102
RTVSPost2010PropOp28
 70
     1
102
RTVSPost2010Prop29
280
     1
102
RTVSPost2010PropOp29
 70
     1
102
RTVSPost2010Prop30
280
     1
102
RTVSPost2010PropOp30
 70
     1
102
RTVSPost2010Prop31
280
     0
102
RTVSPost2010PropOp31
 70
     1
102
RTVSPost2010Prop32
280
     0
102
RTVSPost2010PropOp32
 70
     1
102
RTVSPost2010Prop33
280
     0
102
RTVSPost2010PropOp33
 70
     1
102
RTVSPost2010Prop34
280
     0
102
RTVSPost2010PropOp34
 70
     1
102
RTVSPost2010Prop35
280
     0
102
RTVSPost2010PropOp35
 70
     1
102
RTVSPost2010Prop36
280
     0
102
RTVSPost2010PropOp36
 70
     1
102
RTVSPost2010Prop37
 90
       50
102
RTVSPost2010PropOp37
 70
     1
102
RTVSPost2010Prop38
140
0.0
102
RTVSPost2010PropOp38
 70
     1
102
RTVSPost2010Prop39
140
1.0
102
RTVSPost2010PropOp39
 70
     1
102
RTVSPost2010Prop40
 90
        0
102
RTVSPost2010PropOp40
 70
     1
102
RTVSPost2010Prop41ColorIndex
 90
       18
102
RTVSPost2010Prop41ColorRGB
 90
        0
102
RTVSPost2010PropOp41
 70
     1
102
RTVSPost2010Prop42
 90
       50
102
RTVSPost2010PropOp42
 70
     1
102
RTVSPost2010Prop43
 90
        3
102
RTVSPost2010PropOp43
 70
     1
102
RTVSPost2010Prop44ColorIndex
 90
        5
102
RTVSPost2010Prop44ColorRGB
 90
      255
102
RTVSPost2010PropOp44
 70
     1
102
RTVSPost2010Prop45
280
     0
102
RTVSPost2010PropOp45
 70
     1
102
RTVSPost2010Prop46
 90
       50
102
RTVSPost2010PropOp46
 70
     1
102
RTVSPost2010Prop47
 90
       50
102
RTVSPost2010PropOp47
 70
     1
102
RTVSPost2010Prop48
 90
       50
102
RTVSPost2010PropOp48
 70
     1
102
RTVSPost2010Prop49
280
     0
102
RTVSPost2010PropOp49
 70
     1
102
RTVSPost2010Prop50
 90
       50
102
RTVSPost2010PropOp50
 70
     1
102
RTVSPost2010Prop51ColorIndex
 90
      256
102
RTVSPost2010Prop51ColorRGB
 90
-16777216
102
RTVSPost2010PropOp51
 70
     0
102
RTVSPost2010Prop52
140
1.0
102
RTVSPost2010PropOp52
 70
     0
102
RTVSPost2010Prop53
 90
        2
102
RTVSPost2010PropOp53
 70
     1
102
RTVSPost2010Prop54
  1
strokes_ogs.tif
102
RTVSPost2010PropOp54
 70
     1
102
RTVSPost2010Prop55
280
     0
102
RTVSPost2010PropOp55
 70
     1
102
RTVSPost2010Prop56
140
1.0
102
RTVSPost2010PropOp56
 70
     1
102
RTVSPost2010Prop57
140
1.0
102
RTVSPost2010PropOp57
 70
     1
  0
XRECORD
  5
93C49
102
{ACAD_REACTORS
330
87B12
102
}
330
87B12
100
AcDbXrecord
280
     1
102
RTVSPropertyOp0
 70
     1
102
RTVSPropertyOp1
 70
     1
102
RTVSPropertyOp2
 70
     1
102
RTVSPropertyOp3
 70
     1
102
RTVSPropertyOp4
 70
     1
102
RTVSPropertyOp5
 70
     1
102
RTVSPropertyOp6
 70
     1
102
RTVSPropertyOp7
 70
     1
102
RTVSPropertyOp8
 70
     1
102
RTVSPropertyOp9
 70
     1
102
RTVSPropertyOp10
 70
     1
102
RTVSPropertyOp11
 70
     1
102
RTVSPropertyOp12
 70
     1
102
RTVSPropertyOp13
 70
     1
102
RTVSPropertyOp14
 70
     1
102
RTVSPropertyOp15
 70
     1
102
RTVSPropertyOp16
 70
     1
102
RTVSPropertyOp17
 70
     1
102
RTVSPropertyOp18
 70
     1
102
RTVSPropertyOp19
 70
     1
102
RTVSPropertyOp20
 70
     1
102
RTVSPropertyOp21
 70
     1
102
RTVSPropertyOp22
 70
     1
102
RTVSPropertyOp23
 70
     1
102
RTVSPropertyOp24
 70
     1
102
RTVSPropertyOp25
 70
     1
102
RTVSPropertyOp26
 70
     1
102
RTVSPropertyOp27
 70
     1
102
RTVSPropertyOp28
 70
     1
102
RTVSPropertyOp29
 70
     1
102
RTVSPropertyOp30
 70
     1
102
RTVSPropertyOp31
 70
     1
102
RTVSPropertyOp32
 70
     1
102
RTVSPropertyOp33
 70
     1
102
RTVSPropertyOp34
 70
     1
102
RTVSPropertyOp35
 70
     1
102
RTVSPropertyOp36
 70
     1
102
RTVSPropertyOp37
 70
     1
102
RTVSPropertyOp38
 70
     1
102
RTVSPropertyOp39
 70
     1
102
RTVSPropertyOp40
 70
     1
102
RTVSPropertyOp41
 70
     1
102
RTVSPropertyOp42
 70
     1
102
RTVSPropertyOp43
 70
     1
102
RTVSPropertyOp44
 70
     1
102
RTVSPropertyOp45
 70
     1
102
RTVSPropertyOp46
 70
     1
102
RTVSPropertyOp47
 70
     1
102
RTVSPropertyOp48
 70
     1
102
RTVSPropertyOp49
 70
     1
102
RTVSPropertyOp50
 70
     1
102
RTVSPropertyOp51
 70
     0
102
RTVSPropertyOp52
 70
     0
102
RTVSPropertyOp53
 70
     1
102
RTVSPropertyOp54
 70
     1
102
RTVSPropertyOp55
 70
     1
102
RTVSPropertyOp56
 70
     1
102
RTVSPropertyOp57
 70
     1
102
RTVSPost2010Prop28
280
     0
102
RTVSPost2010PropOp28
 70
     1
102
RTVSPost2010Prop29
280
     1
102
RTVSPost2010PropOp29
 70
     1
102
RTVSPost2010Prop30
280
     1
102
RTVSPost2010PropOp30
 70
     1
102
RTVSPost2010Prop31
280
     0
102
RTVSPost2010PropOp31
 70
     1
102
RTVSPost2010Prop32
280
     0
102
RTVSPost2010PropOp32
 70
     1
102
RTVSPost2010Prop33
280
     0
102
RTVSPost2010PropOp33
 70
     1
102
RTVSPost2010Prop34
280
     0
102
RTVSPost2010PropOp34
 70
     1
102
RTVSPost2010Prop35
280
     0
102
RTVSPost2010PropOp35
 70
     1
102
RTVSPost2010Prop36
280
     0
102
RTVSPost2010PropOp36
 70
     1
102
RTVSPost2010Prop37
 90
       50
102
RTVSPost2010PropOp37
 70
     1
102
RTVSPost2010Prop38
140
0.0
102
RTVSPost2010PropOp38
 70
     1
102
RTVSPost2010Prop39
140
1.0
102
RTVSPost2010PropOp39
 70
     1
102
RTVSPost2010Prop40
 90
        0
102
RTVSPost2010PropOp40
 70
     1
102
RTVSPost2010Prop41ColorIndex
 90
       18
102
RTVSPost2010Prop41ColorRGB
 90
        0
102
RTVSPost2010PropOp41
 70
     1
102
RTVSPost2010Prop42
 90
       50
102
RTVSPost2010PropOp42
 70
     1
102
RTVSPost2010Prop43
 90
        3
102
RTVSPost2010PropOp43
 70
     1
102
RTVSPost2010Prop44ColorIndex
 90
        5
102
RTVSPost2010Prop44ColorRGB
 90
      255
102
RTVSPost2010PropOp44
 70
     1
102
RTVSPost2010Prop45
280
     0
102
RTVSPost2010PropOp45
 70
     1
102
RTVSPost2010Prop46
 90
       50
102
RTVSPost2010PropOp46
 70
     1
102
RTVSPost2010Prop47
 90
       50
102
RTVSPost2010PropOp47
 70
     1
102
RTVSPost2010Prop48
 90
       50
102
RTVSPost2010PropOp48
 70
     1
102
RTVSPost2010Prop49
280
     0
102
RTVSPost2010PropOp49
 70
     1
102
RTVSPost2010Prop50
 90
       50
102
RTVSPost2010PropOp50
 70
     1
102
RTVSPost2010Prop51ColorIndex
 90
      256
102
RTVSPost2010Prop51ColorRGB
 90
-16777216
102
RTVSPost2010PropOp51
 70
     0
102
RTVSPost2010Prop52
140
1.0
102
RTVSPost2010PropOp52
 70
     0
102
RTVSPost2010Prop53
 90
        2
102
RTVSPost2010PropOp53
 70
     1
102
RTVSPost2010Prop54
  1
strokes_ogs.tif
102
RTVSPost2010PropOp54
 70
     1
102
RTVSPost2010Prop55
280
     0
102
RTVSPost2010PropOp55
 70
     1
102
RTVSPost2010Prop56
140
1.0
102
RTVSPost2010PropOp56
 70
     1
102
RTVSPost2010Prop57
140
1.0
102
RTVSPost2010PropOp57
 70
     1
  0
XRECORD
  5
93C4A
102
{ACAD_REACTORS
330
87B14
102
}
330
87B14
100
AcDbXrecord
280
     1
102
RTVSPropertyOp0
 70
     1
102
RTVSPropertyOp1
 70
     1
102
RTVSPropertyOp2
 70
     1
102
RTVSPropertyOp3
 70
     1
102
RTVSPropertyOp4
 70
     1
102
RTVSPropertyOp5
 70
     1
102
RTVSPropertyOp6
 70
     1
102
RTVSPropertyOp7
 70
     1
102
RTVSPropertyOp8
 70
     1
102
RTVSPropertyOp9
 70
     1
102
RTVSPropertyOp10
 70
     1
102
RTVSPropertyOp11
 70
     1
102
RTVSPropertyOp12
 70
     1
102
RTVSPropertyOp13
 70
     1
102
RTVSPropertyOp14
 70
     1
102
RTVSPropertyOp15
 70
     1
102
RTVSPropertyOp16
 70
     1
102
RTVSPropertyOp17
 70
     1
102
RTVSPropertyOp18
 70
     1
102
RTVSPropertyOp19
 70
     1
102
RTVSPropertyOp20
 70
     1
102
RTVSPropertyOp21
 70
     1
102
RTVSPropertyOp22
 70
     1
102
RTVSPropertyOp23
 70
     1
102
RTVSPropertyOp24
 70
     1
102
RTVSPropertyOp25
 70
     1
102
RTVSPropertyOp26
 70
     1
102
RTVSPropertyOp27
 70
     1
102
RTVSPropertyOp28
 70
     1
102
RTVSPropertyOp29
 70
     1
102
RTVSPropertyOp30
 70
     1
102
RTVSPropertyOp31
 70
     1
102
RTVSPropertyOp32
 70
     1
102
RTVSPropertyOp33
 70
     1
102
RTVSPropertyOp34
 70
     1
102
RTVSPropertyOp35
 70
     1
102
RTVSPropertyOp36
 70
     1
102
RTVSPropertyOp37
 70
     1
102
RTVSPropertyOp38
 70
     1
102
RTVSPropertyOp39
 70
     1
102
RTVSPropertyOp40
 70
     1
102
RTVSPropertyOp41
 70
     1
102
RTVSPropertyOp42
 70
     1
102
RTVSPropertyOp43
 70
     1
102
RTVSPropertyOp44
 70
     1
102
RTVSPropertyOp45
 70
     1
102
RTVSPropertyOp46
 70
     1
102
RTVSPropertyOp47
 70
     1
102
RTVSPropertyOp48
 70
     1
102
RTVSPropertyOp49
 70
     1
102
RTVSPropertyOp50
 70
     1
102
RTVSPropertyOp51
 70
     0
102
RTVSPropertyOp52
 70
     0
102
RTVSPropertyOp53
 70
     1
102
RTVSPropertyOp54
 70
     1
102
RTVSPropertyOp55
 70
     1
102
RTVSPropertyOp56
 70
     1
102
RTVSPropertyOp57
 70
     1
102
RTVSPost2010Prop28
280
     0
102
RTVSPost2010PropOp28
 70
     1
102
RTVSPost2010Prop29
280
     1
102
RTVSPost2010PropOp29
 70
     1
102
RTVSPost2010Prop30
280
     1
102
RTVSPost2010PropOp30
 70
     1
102
RTVSPost2010Prop31
280
     0
102
RTVSPost2010PropOp31
 70
     1
102
RTVSPost2010Prop32
280
     0
102
RTVSPost2010PropOp32
 70
     1
102
RTVSPost2010Prop33
280
     0
102
RTVSPost2010PropOp33
 70
     1
102
RTVSPost2010Prop34
280
     0
102
RTVSPost2010PropOp34
 70
     1
102
RTVSPost2010Prop35
280
     0
102
RTVSPost2010PropOp35
 70
     1
102
RTVSPost2010Prop36
280
     0
102
RTVSPost2010PropOp36
 70
     1
102
RTVSPost2010Prop37
 90
       50
102
RTVSPost2010PropOp37
 70
     1
102
RTVSPost2010Prop38
140
0.0
102
RTVSPost2010PropOp38
 70
     1
102
RTVSPost2010Prop39
140
1.0
102
RTVSPost2010PropOp39
 70
     1
102
RTVSPost2010Prop40
 90
        0
102
RTVSPost2010PropOp40
 70
     1
102
RTVSPost2010Prop41ColorIndex
 90
       18
102
RTVSPost2010Prop41ColorRGB
 90
        0
102
RTVSPost2010PropOp41
 70
     1
102
RTVSPost2010Prop42
 90
       50
102
RTVSPost2010PropOp42
 70
     1
102
RTVSPost2010Prop43
 90
        3
102
RTVSPost2010PropOp43
 70
     1
102
RTVSPost2010Prop44ColorIndex
 90
        5
102
RTVSPost2010Prop44ColorRGB
 90
      255
102
RTVSPost2010PropOp44
 70
     1
102
RTVSPost2010Prop45
280
     0
102
RTVSPost2010PropOp45
 70
     1
102
RTVSPost2010Prop46
 90
       50
102
RTVSPost2010PropOp46
 70
     1
102
RTVSPost2010Prop47
 90
       50
102
RTVSPost2010PropOp47
 70
     1
102
RTVSPost2010Prop48
 90
       50
102
RTVSPost2010PropOp48
 70
     1
102
RTVSPost2010Prop49
280
     0
102
RTVSPost2010PropOp49
 70
     1
102
RTVSPost2010Prop50
 90
       50
102
RTVSPost2010PropOp50
 70
     1
102
RTVSPost2010Prop51ColorIndex
 90
      256
102
RTVSPost2010Prop51ColorRGB
 90
-16777216
102
RTVSPost2010PropOp51
 70
     0
102
RTVSPost2010Prop52
140
1.0
102
RTVSPost2010PropOp52
 70
     0
102
RTVSPost2010Prop53
 90
        2
102
RTVSPost2010PropOp53
 70
     1
102
RTVSPost2010Prop54
  1
strokes_ogs.tif
102
RTVSPost2010PropOp54
 70
     1
102
RTVSPost2010Prop55
280
     0
102
RTVSPost2010PropOp55
 70
     1
102
RTVSPost2010Prop56
140
1.0
102
RTVSPost2010PropOp56
 70
     1
102
RTVSPost2010Prop57
140
1.0
102
RTVSPost2010PropOp57
 70
     1
  0
XRECORD
  5
93C4B
102
{ACAD_REACTORS
330
87B1C
102
}
330
87B1C
100
AcDbXrecord
280
     1
102
RTVSPropertyOp0
 70
     1
102
RTVSPropertyOp1
 70
     1
102
RTVSPropertyOp2
 70
     1
102
RTVSPropertyOp3
 70
     1
102
RTVSPropertyOp4
 70
     1
102
RTVSPropertyOp5
 70
     1
102
RTVSPropertyOp6
 70
     1
102
RTVSPropertyOp7
 70
     1
102
RTVSPropertyOp8
 70
     1
102
RTVSPropertyOp9
 70
     1
102
RTVSPropertyOp10
 70
     1
102
RTVSPropertyOp11
 70
     1
102
RTVSPropertyOp12
 70
     1
102
RTVSPropertyOp13
 70
     1
102
RTVSPropertyOp14
 70
     1
102
RTVSPropertyOp15
 70
     1
102
RTVSPropertyOp16
 70
     1
102
RTVSPropertyOp17
 70
     1
102
RTVSPropertyOp18
 70
     1
102
RTVSPropertyOp19
 70
     1
102
RTVSPropertyOp20
 70
     1
102
RTVSPropertyOp21
 70
     1
102
RTVSPropertyOp22
 70
     1
102
RTVSPropertyOp23
 70
     1
102
RTVSPropertyOp24
 70
     1
102
RTVSPropertyOp25
 70
     1
102
RTVSPropertyOp26
 70
     1
102
RTVSPropertyOp27
 70
     1
102
RTVSPropertyOp28
 70
     1
102
RTVSPropertyOp29
 70
     1
102
RTVSPropertyOp30
 70
     1
102
RTVSPropertyOp31
 70
     1
102
RTVSPropertyOp32
 70
     1
102
RTVSPropertyOp33
 70
     1
102
RTVSPropertyOp34
 70
     1
102
RTVSPropertyOp35
 70
     1
102
RTVSPropertyOp36
 70
     1
102
RTVSPropertyOp37
 70
     1
102
RTVSPropertyOp38
 70
     1
102
RTVSPropertyOp39
 70
     1
102
RTVSPropertyOp40
 70
     1
102
RTVSPropertyOp41
 70
     1
102
RTVSPropertyOp42
 70
     1
102
RTVSPropertyOp43
 70
     1
102
RTVSPropertyOp44
 70
     1
102
RTVSPropertyOp45
 70
     1
102
RTVSPropertyOp46
 70
     1
102
RTVSPropertyOp47
 70
     1
102
RTVSPropertyOp48
 70
     1
102
RTVSPropertyOp49
 70
     1
102
RTVSPropertyOp50
 70
     1
102
RTVSPropertyOp51
 70
     0
102
RTVSPropertyOp52
 70
     0
102
RTVSPropertyOp53
 70
     1
102
RTVSPropertyOp54
 70
     1
102
RTVSPropertyOp55
 70
     1
102
RTVSPropertyOp56
 70
     1
102
RTVSPropertyOp57
 70
     1
102
RTVSPost2010Prop28
280
     0
102
RTVSPost2010PropOp28
 70
     1
102
RTVSPost2010Prop29
280
     1
102
RTVSPost2010PropOp29
 70
     1
102
RTVSPost2010Prop30
280
     1
102
RTVSPost2010PropOp30
 70
     1
102
RTVSPost2010Prop31
280
     0
102
RTVSPost2010PropOp31
 70
     1
102
RTVSPost2010Prop32
280
     0
102
RTVSPost2010PropOp32
 70
     1
102
RTVSPost2010Prop33
280
     0
102
RTVSPost2010PropOp33
 70
     1
102
RTVSPost2010Prop34
280
     0
102
RTVSPost2010PropOp34
 70
     1
102
RTVSPost2010Prop35
280
     0
102
RTVSPost2010PropOp35
 70
     1
102
RTVSPost2010Prop36
280
     0
102
RTVSPost2010PropOp36
 70
     1
102
RTVSPost2010Prop37
 90
       50
102
RTVSPost2010PropOp37
 70
     1
102
RTVSPost2010Prop38
140
0.0
102
RTVSPost2010PropOp38
 70
     1
102
RTVSPost2010Prop39
140
1.0
102
RTVSPost2010PropOp39
 70
     1
102
RTVSPost2010Prop40
 90
        0
102
RTVSPost2010PropOp40
 70
     1
102
RTVSPost2010Prop41ColorIndex
 90
       18
102
RTVSPost2010Prop41ColorRGB
 90
        0
102
RTVSPost2010PropOp41
 70
     1
102
RTVSPost2010Prop42
 90
       50
102
RTVSPost2010PropOp42
 70
     1
102
RTVSPost2010Prop43
 90
        3
102
RTVSPost2010PropOp43
 70
     1
102
RTVSPost2010Prop44ColorIndex
 90
        5
102
RTVSPost2010Prop44ColorRGB
 90
      255
102
RTVSPost2010PropOp44
 70
     1
102
RTVSPost2010Prop45
280
     0
102
RTVSPost2010PropOp45
 70
     1
102
RTVSPost2010Prop46
 90
       50
102
RTVSPost2010PropOp46
 70
     1
102
RTVSPost2010Prop47
 90
       50
102
RTVSPost2010PropOp47
 70
     1
102
RTVSPost2010Prop48
 90
       50
102
RTVSPost2010PropOp48
 70
     1
102
RTVSPost2010Prop49
280
     0
102
RTVSPost2010PropOp49
 70
     1
102
RTVSPost2010Prop50
 90
       50
102
RTVSPost2010PropOp50
 70
     1
102
RTVSPost2010Prop51ColorIndex
 90
      256
102
RTVSPost2010Prop51ColorRGB
 90
-16777216
102
RTVSPost2010PropOp51
 70
     0
102
RTVSPost2010Prop52
140
1.0
102
RTVSPost2010PropOp52
 70
     0
102
RTVSPost2010Prop53
 90
        2
102
RTVSPost2010PropOp53
 70
     1
102
RTVSPost2010Prop54
  1
strokes_ogs.tif
102
RTVSPost2010PropOp54
 70
     1
102
RTVSPost2010Prop55
280
     0
102
RTVSPost2010PropOp55
 70
     1
102
RTVSPost2010Prop56
140
1.0
102
RTVSPost2010PropOp56
 70
     1
102
RTVSPost2010Prop57
140
1.0
102
RTVSPost2010PropOp57
 70
     1
  0
XRECORD
  5
93C4C
102
{ACAD_REACTORS
330
87B38
102
}
330
87B38
100
AcDbXrecord
280
     1
102
RTVSPropertyOp0
 70
     0
102
RTVSPropertyOp1
 70
     0
102
RTVSPropertyOp2
 70
     0
102
RTVSPropertyOp3
 70
     0
102
RTVSPropertyOp4
 70
     0
102
RTVSPropertyOp5
 70
     0
102
RTVSPropertyOp6
 70
     0
102
RTVSPropertyOp7
 70
     0
102
RTVSPropertyOp8
 70
     0
102
RTVSPropertyOp9
 70
     0
102
RTVSPropertyOp10
 70
     0
102
RTVSPropertyOp11
 70
     0
102
RTVSPropertyOp12
 70
     0
102
RTVSPropertyOp13
 70
     0
102
RTVSPropertyOp14
 70
     2
102
RTVSPropertyOp15
 70
     0
102
RTVSPropertyOp16
 70
     0
102
RTVSPropertyOp17
 70
     0
102
RTVSPropertyOp18
 70
     0
102
RTVSPropertyOp19
 70
     0
102
RTVSPropertyOp20
 70
     0
102
RTVSPropertyOp21
 70
     0
102
RTVSPropertyOp22
 70
     0
102
RTVSPropertyOp23
 70
     0
102
RTVSPropertyOp24
 70
     0
102
RTVSPropertyOp25
 70
     0
102
RTVSPropertyOp26
 70
     0
102
RTVSPropertyOp27
 70
     0
102
RTVSPropertyOp28
 70
     1
102
RTVSPropertyOp29
 70
     1
102
RTVSPropertyOp30
 70
     1
102
RTVSPropertyOp31
 70
     1
102
RTVSPropertyOp32
 70
     1
102
RTVSPropertyOp33
 70
     1
102
RTVSPropertyOp34
 70
     1
102
RTVSPropertyOp35
 70
     1
102
RTVSPropertyOp36
 70
     1
102
RTVSPropertyOp37
 70
     0
102
RTVSPropertyOp38
 70
     0
102
RTVSPropertyOp39
 70
     0
102
RTVSPropertyOp40
 70
     0
102
RTVSPropertyOp41
 70
     0
102
RTVSPropertyOp42
 70
     0
102
RTVSPropertyOp43
 70
     0
102
RTVSPropertyOp44
 70
     0
102
RTVSPropertyOp45
 70
     1
102
RTVSPropertyOp46
 70
     0
102
RTVSPropertyOp47
 70
     0
102
RTVSPropertyOp48
 70
     0
102
RTVSPropertyOp49
 70
     1
102
RTVSPropertyOp50
 70
     0
102
RTVSPropertyOp51
 70
     0
102
RTVSPropertyOp52
 70
     0
102
RTVSPropertyOp53
 70
     0
102
RTVSPropertyOp54
 70
     0
102
RTVSPropertyOp55
 70
     1
102
RTVSPropertyOp56
 70
     0
102
RTVSPropertyOp57
 70
     0
102
RTVSPost2010Prop28
280
     0
102
RTVSPost2010PropOp28
 70
     1
102
RTVSPost2010Prop29
280
     1
102
RTVSPost2010PropOp29
 70
     1
102
RTVSPost2010Prop30
280
     1
102
RTVSPost2010PropOp30
 70
     1
102
RTVSPost2010Prop31
280
     0
102
RTVSPost2010PropOp31
 70
     1
102
RTVSPost2010Prop32
280
     0
102
RTVSPost2010PropOp32
 70
     1
102
RTVSPost2010Prop33
280
     0
102
RTVSPost2010PropOp33
 70
     1
102
RTVSPost2010Prop34
280
     0
102
RTVSPost2010PropOp34
 70
     1
102
RTVSPost2010Prop35
280
     0
102
RTVSPost2010PropOp35
 70
     1
102
RTVSPost2010Prop36
280
     0
102
RTVSPost2010PropOp36
 70
     1
102
RTVSPost2010Prop37
 90
       50
102
RTVSPost2010PropOp37
 70
     0
102
RTVSPost2010Prop38
140
0.0
102
RTVSPost2010PropOp38
 70
     0
102
RTVSPost2010Prop39
140
1.0
102
RTVSPost2010PropOp39
 70
     0
102
RTVSPost2010Prop40
 90
        0
102
RTVSPost2010PropOp40
 70
     0
102
RTVSPost2010Prop41ColorIndex
 90
       18
102
RTVSPost2010Prop41ColorRGB
 90
        0
102
RTVSPost2010PropOp41
 70
     0
102
RTVSPost2010Prop42
 90
       50
102
RTVSPost2010PropOp42
 70
     0
102
RTVSPost2010Prop43
 90
        3
102
RTVSPost2010PropOp43
 70
     0
102
RTVSPost2010Prop44ColorIndex
 90
        5
102
RTVSPost2010Prop44ColorRGB
 90
      255
102
RTVSPost2010PropOp44
 70
     0
102
RTVSPost2010Prop45
280
     0
102
RTVSPost2010PropOp45
 70
     1
102
RTVSPost2010Prop46
 90
       50
102
RTVSPost2010PropOp46
 70
     0
102
RTVSPost2010Prop47
 90
       50
102
RTVSPost2010PropOp47
 70
     0
102
RTVSPost2010Prop48
 90
       50
102
RTVSPost2010PropOp48
 70
     0
102
RTVSPost2010Prop49
280
     0
102
RTVSPost2010PropOp49
 70
     1
102
RTVSPost2010Prop50
 90
       50
102
RTVSPost2010PropOp50
 70
     0
102
RTVSPost2010Prop51ColorIndex
 90
      256
102
RTVSPost2010Prop51ColorRGB
 90
-16777216
102
RTVSPost2010PropOp51
 70
     0
102
RTVSPost2010Prop52
140
1.0
102
RTVSPost2010PropOp52
 70
     0
102
RTVSPost2010Prop53
 90
        2
102
RTVSPost2010PropOp53
 70
     0
102
RTVSPost2010Prop54
  1
strokes_ogs.tif
102
RTVSPost2010PropOp54
 70
     0
102
RTVSPost2010Prop55
280
     0
102
RTVSPost2010PropOp55
 70
     1
102
RTVSPost2010Prop56
140
1.0
102
RTVSPost2010PropOp56
 70
     0
102
RTVSPost2010Prop57
140
1.0
102
RTVSPost2010PropOp57
 70
     0
  0
XRECORD
  5
93C4D
102
{ACAD_REACTORS
330
87B28
102
}
330
87B28
100
AcDbXrecord
280
     1
102
RTVSPropertyOp0
 70
     1
102
RTVSPropertyOp1
 70
     1
102
RTVSPropertyOp2
 70
     1
102
RTVSPropertyOp3
 70
     1
102
RTVSPropertyOp4
 70
     1
102
RTVSPropertyOp5
 70
     1
102
RTVSPropertyOp6
 70
     1
102
RTVSPropertyOp7
 70
     1
102
RTVSPropertyOp8
 70
     1
102
RTVSPropertyOp9
 70
     1
102
RTVSPropertyOp10
 70
     1
102
RTVSPropertyOp11
 70
     1
102
RTVSPropertyOp12
 70
     1
102
RTVSPropertyOp13
 70
     1
102
RTVSPropertyOp14
 70
     1
102
RTVSPropertyOp15
 70
     1
102
RTVSPropertyOp16
 70
     1
102
RTVSPropertyOp17
 70
     1
102
RTVSPropertyOp18
 70
     1
102
RTVSPropertyOp19
 70
     1
102
RTVSPropertyOp20
 70
     1
102
RTVSPropertyOp21
 70
     1
102
RTVSPropertyOp22
 70
     1
102
RTVSPropertyOp23
 70
     1
102
RTVSPropertyOp24
 70
     1
102
RTVSPropertyOp25
 70
     1
102
RTVSPropertyOp26
 70
     1
102
RTVSPropertyOp27
 70
     1
102
RTVSPropertyOp28
 70
     1
102
RTVSPropertyOp29
 70
     1
102
RTVSPropertyOp30
 70
     1
102
RTVSPropertyOp31
 70
     1
102
RTVSPropertyOp32
 70
     1
102
RTVSPropertyOp33
 70
     1
102
RTVSPropertyOp34
 70
     1
102
RTVSPropertyOp35
 70
     1
102
RTVSPropertyOp36
 70
     1
102
RTVSPropertyOp37
 70
     1
102
RTVSPropertyOp38
 70
     1
102
RTVSPropertyOp39
 70
     1
102
RTVSPropertyOp40
 70
     1
102
RTVSPropertyOp41
 70
     1
102
RTVSPropertyOp42
 70
     1
102
RTVSPropertyOp43
 70
     1
102
RTVSPropertyOp44
 70
     1
102
RTVSPropertyOp45
 70
     1
102
RTVSPropertyOp46
 70
     1
102
RTVSPropertyOp47
 70
     1
102
RTVSPropertyOp48
 70
     1
102
RTVSPropertyOp49
 70
     1
102
RTVSPropertyOp50
 70
     1
102
RTVSPropertyOp51
 70
     0
102
RTVSPropertyOp52
 70
     0
102
RTVSPropertyOp53
 70
     1
102
RTVSPropertyOp54
 70
     1
102
RTVSPropertyOp55
 70
     1
102
RTVSPropertyOp56
 70
     1
102
RTVSPropertyOp57
 70
     1
102
RTVSPost2010Prop28
280
     0
102
RTVSPost2010PropOp28
 70
     1
102
RTVSPost2010Prop29
280
     1
102
RTVSPost2010PropOp29
 70
     1
102
RTVSPost2010Prop30
280
     1
102
RTVSPost2010PropOp30
 70
     1
102
RTVSPost2010Prop31
280
     0
102
RTVSPost2010PropOp31
 70
     1
102
RTVSPost2010Prop32
280
     0
102
RTVSPost2010PropOp32
 70
     1
102
RTVSPost2010Prop33
280
     0
102
RTVSPost2010PropOp33
 70
     1
102
RTVSPost2010Prop34
280
     0
102
RTVSPost2010PropOp34
 70
     1
102
RTVSPost2010Prop35
280
     0
102
RTVSPost2010PropOp35
 70
     1
102
RTVSPost2010Prop36
280
     0
102
RTVSPost2010PropOp36
 70
     1
102
RTVSPost2010Prop37
 90
       50
102
RTVSPost2010PropOp37
 70
     1
102
RTVSPost2010Prop38
140
0.0
102
RTVSPost2010PropOp38
 70
     1
102
RTVSPost2010Prop39
140
1.0
102
RTVSPost2010PropOp39
 70
     1
102
RTVSPost2010Prop40
 90
        0
102
RTVSPost2010PropOp40
 70
     1
102
RTVSPost2010Prop41ColorIndex
 90
       18
102
RTVSPost2010Prop41ColorRGB
 90
        0
102
RTVSPost2010PropOp41
 70
     1
102
RTVSPost2010Prop42
 90
       50
102
RTVSPost2010PropOp42
 70
     1
102
RTVSPost2010Prop43
 90
        3
102
RTVSPost2010PropOp43
 70
     1
102
RTVSPost2010Prop44ColorIndex
 90
        5
102
RTVSPost2010Prop44ColorRGB
 90
      255
102
RTVSPost2010PropOp44
 70
     1
102
RTVSPost2010Prop45
280
     0
102
RTVSPost2010PropOp45
 70
     1
102
RTVSPost2010Prop46
 90
       50
102
RTVSPost2010PropOp46
 70
     1
102
RTVSPost2010Prop47
 90
       50
102
RTVSPost2010PropOp47
 70
     1
102
RTVSPost2010Prop48
 90
       50
102
RTVSPost2010PropOp48
 70
     1
102
RTVSPost2010Prop49
280
     0
102
RTVSPost2010PropOp49
 70
     1
102
RTVSPost2010Prop50
 90
       50
102
RTVSPost2010PropOp50
 70
     1
102
RTVSPost2010Prop51ColorIndex
 90
      256
102
RTVSPost2010Prop51ColorRGB
 90
-16777216
102
RTVSPost2010PropOp51
 70
     0
102
RTVSPost2010Prop52
140
1.0
102
RTVSPost2010PropOp52
 70
     0
102
RTVSPost2010Prop53
 90
        2
102
RTVSPost2010PropOp53
 70
     1
102
RTVSPost2010Prop54
  1
strokes_ogs.tif
102
RTVSPost2010PropOp54
 70
     1
102
RTVSPost2010Prop55
280
     0
102
RTVSPost2010PropOp55
 70
     1
102
RTVSPost2010Prop56
140
1.0
102
RTVSPost2010PropOp56
 70
     1
102
RTVSPost2010Prop57
140
1.0
102
RTVSPost2010PropOp57
 70
     1
  0
XRECORD
  5
93C4E
102
{ACAD_REACTORS
330
87B3A
102
}
330
87B3A
100
AcDbXrecord
280
     1
102
RTVSPropertyOp0
 70
     0
102
RTVSPropertyOp1
 70
     0
102
RTVSPropertyOp2
 70
     0
102
RTVSPropertyOp3
 70
     0
102
RTVSPropertyOp4
 70
     0
102
RTVSPropertyOp5
 70
     0
102
RTVSPropertyOp6
 70
     0
102
RTVSPropertyOp7
 70
     0
102
RTVSPropertyOp8
 70
     0
102
RTVSPropertyOp9
 70
     0
102
RTVSPropertyOp10
 70
     0
102
RTVSPropertyOp11
 70
     0
102
RTVSPropertyOp12
 70
     0
102
RTVSPropertyOp13
 70
     0
102
RTVSPropertyOp14
 70
     2
102
RTVSPropertyOp15
 70
     0
102
RTVSPropertyOp16
 70
     0
102
RTVSPropertyOp17
 70
     0
102
RTVSPropertyOp18
 70
     0
102
RTVSPropertyOp19
 70
     0
102
RTVSPropertyOp20
 70
     0
102
RTVSPropertyOp21
 70
     0
102
RTVSPropertyOp22
 70
     0
102
RTVSPropertyOp23
 70
     0
102
RTVSPropertyOp24
 70
     0
102
RTVSPropertyOp25
 70
     0
102
RTVSPropertyOp26
 70
     0
102
RTVSPropertyOp27
 70
     0
102
RTVSPropertyOp28
 70
     1
102
RTVSPropertyOp29
 70
     1
102
RTVSPropertyOp30
 70
     1
102
RTVSPropertyOp31
 70
     1
102
RTVSPropertyOp32
 70
     1
102
RTVSPropertyOp33
 70
     1
102
RTVSPropertyOp34
 70
     1
102
RTVSPropertyOp35
 70
     1
102
RTVSPropertyOp36
 70
     1
102
RTVSPropertyOp37
 70
     0
102
RTVSPropertyOp38
 70
     0
102
RTVSPropertyOp39
 70
     0
102
RTVSPropertyOp40
 70
     0
102
RTVSPropertyOp41
 70
     0
102
RTVSPropertyOp42
 70
     0
102
RTVSPropertyOp43
 70
     0
102
RTVSPropertyOp44
 70
     0
102
RTVSPropertyOp45
 70
     1
102
RTVSPropertyOp46
 70
     0
102
RTVSPropertyOp47
 70
     0
102
RTVSPropertyOp48
 70
     0
102
RTVSPropertyOp49
 70
     1
102
RTVSPropertyOp50
 70
     0
102
RTVSPropertyOp51
 70
     0
102
RTVSPropertyOp52
 70
     0
102
RTVSPropertyOp53
 70
     0
102
RTVSPropertyOp54
 70
     0
102
RTVSPropertyOp55
 70
     1
102
RTVSPropertyOp56
 70
     0
102
RTVSPropertyOp57
 70
     0
102
RTVSPost2010Prop28
280
     0
102
RTVSPost2010PropOp28
 70
     1
102
RTVSPost2010Prop29
280
     1
102
RTVSPost2010PropOp29
 70
     1
102
RTVSPost2010Prop30
280
     1
102
RTVSPost2010PropOp30
 70
     1
102
RTVSPost2010Prop31
280
     0
102
RTVSPost2010PropOp31
 70
     1
102
RTVSPost2010Prop32
280
     0
102
RTVSPost2010PropOp32
 70
     1
102
RTVSPost2010Prop33
280
     0
102
RTVSPost2010PropOp33
 70
     1
102
RTVSPost2010Prop34
280
     0
102
RTVSPost2010PropOp34
 70
     1
102
RTVSPost2010Prop35
280
     0
102
RTVSPost2010PropOp35
 70
     1
102
RTVSPost2010Prop36
280
     0
102
RTVSPost2010PropOp36
 70
     1
102
RTVSPost2010Prop37
 90
       50
102
RTVSPost2010PropOp37
 70
     0
102
RTVSPost2010Prop38
140
0.0
102
RTVSPost2010PropOp38
 70
     0
102
RTVSPost2010Prop39
140
1.0
102
RTVSPost2010PropOp39
 70
     0
102
RTVSPost2010Prop40
 90
        0
102
RTVSPost2010PropOp40
 70
     0
102
RTVSPost2010Prop41ColorIndex
 90
       18
102
RTVSPost2010Prop41ColorRGB
 90
        0
102
RTVSPost2010PropOp41
 70
     0
102
RTVSPost2010Prop42
 90
       50
102
RTVSPost2010PropOp42
 70
     0
102
RTVSPost2010Prop43
 90
        3
102
RTVSPost2010PropOp43
 70
     0
102
RTVSPost2010Prop44ColorIndex
 90
        5
102
RTVSPost2010Prop44ColorRGB
 90
      255
102
RTVSPost2010PropOp44
 70
     0
102
RTVSPost2010Prop45
280
     0
102
RTVSPost2010PropOp45
 70
     1
102
RTVSPost2010Prop46
 90
       50
102
RTVSPost2010PropOp46
 70
     0
102
RTVSPost2010Prop47
 90
       50
102
RTVSPost2010PropOp47
 70
     0
102
RTVSPost2010Prop48
 90
       50
102
RTVSPost2010PropOp48
 70
     0
102
RTVSPost2010Prop49
280
     0
102
RTVSPost2010PropOp49
 70
     1
102
RTVSPost2010Prop50
 90
       50
102
RTVSPost2010PropOp50
 70
     0
102
RTVSPost2010Prop51ColorIndex
 90
      256
102
RTVSPost2010Prop51ColorRGB
 90
-16777216
102
RTVSPost2010PropOp51
 70
     0
102
RTVSPost2010Prop52
140
1.0
102
RTVSPost2010PropOp52
 70
     0
102
RTVSPost2010Prop53
 90
        2
102
RTVSPost2010PropOp53
 70
     0
102
RTVSPost2010Prop54
  1
strokes_ogs.tif
102
RTVSPost2010PropOp54
 70
     0
102
RTVSPost2010Prop55
280
     0
102
RTVSPost2010PropOp55
 70
     1
102
RTVSPost2010Prop56
140
1.0
102
RTVSPost2010PropOp56
 70
     0
102
RTVSPost2010Prop57
140
1.0
102
RTVSPost2010PropOp57
 70
     0
  0
XRECORD
  5
93C4F
102
{ACAD_REACTORS
330
87B20
102
}
330
87B20
100
AcDbXrecord
280
     1
102
RTVSPropertyOp0
 70
     1
102
RTVSPropertyOp1
 70
     1
102
RTVSPropertyOp2
 70
     1
102
RTVSPropertyOp3
 70
     1
102
RTVSPropertyOp4
 70
     1
102
RTVSPropertyOp5
 70
     1
102
RTVSPropertyOp6
 70
     1
102
RTVSPropertyOp7
 70
     1
102
RTVSPropertyOp8
 70
     1
102
RTVSPropertyOp9
 70
     1
102
RTVSPropertyOp10
 70
     1
102
RTVSPropertyOp11
 70
     1
102
RTVSPropertyOp12
 70
     1
102
RTVSPropertyOp13
 70
     1
102
RTVSPropertyOp14
 70
     1
102
RTVSPropertyOp15
 70
     1
102
RTVSPropertyOp16
 70
     1
102
RTVSPropertyOp17
 70
     1
102
RTVSPropertyOp18
 70
     1
102
RTVSPropertyOp19
 70
     1
102
RTVSPropertyOp20
 70
     1
102
RTVSPropertyOp21
 70
     1
102
RTVSPropertyOp22
 70
     1
102
RTVSPropertyOp23
 70
     1
102
RTVSPropertyOp24
 70
     1
102
RTVSPropertyOp25
 70
     1
102
RTVSPropertyOp26
 70
     1
102
RTVSPropertyOp27
 70
     1
102
RTVSPropertyOp28
 70
     1
102
RTVSPropertyOp29
 70
     1
102
RTVSPropertyOp30
 70
     1
102
RTVSPropertyOp31
 70
     1
102
RTVSPropertyOp32
 70
     1
102
RTVSPropertyOp33
 70
     1
102
RTVSPropertyOp34
 70
     1
102
RTVSPropertyOp35
 70
     1
102
RTVSPropertyOp36
 70
     1
102
RTVSPropertyOp37
 70
     1
102
RTVSPropertyOp38
 70
     1
102
RTVSPropertyOp39
 70
     1
102
RTVSPropertyOp40
 70
     1
102
RTVSPropertyOp41
 70
     1
102
RTVSPropertyOp42
 70
     1
102
RTVSPropertyOp43
 70
     1
102
RTVSPropertyOp44
 70
     1
102
RTVSPropertyOp45
 70
     1
102
RTVSPropertyOp46
 70
     1
102
RTVSPropertyOp47
 70
     1
102
RTVSPropertyOp48
 70
     1
102
RTVSPropertyOp49
 70
     1
102
RTVSPropertyOp50
 70
     1
102
RTVSPropertyOp51
 70
     0
102
RTVSPropertyOp52
 70
     0
102
RTVSPropertyOp53
 70
     1
102
RTVSPropertyOp54
 70
     1
102
RTVSPropertyOp55
 70
     1
102
RTVSPropertyOp56
 70
     1
102
RTVSPropertyOp57
 70
     1
102
RTVSPost2010Prop28
280
     0
102
RTVSPost2010PropOp28
 70
     1
102
RTVSPost2010Prop29
280
     1
102
RTVSPost2010PropOp29
 70
     1
102
RTVSPost2010Prop30
280
     1
102
RTVSPost2010PropOp30
 70
     1
102
RTVSPost2010Prop31
280
     0
102
RTVSPost2010PropOp31
 70
     1
102
RTVSPost2010Prop32
280
     0
102
RTVSPost2010PropOp32
 70
     1
102
RTVSPost2010Prop33
280
     0
102
RTVSPost2010PropOp33
 70
     1
102
RTVSPost2010Prop34
280
     0
102
RTVSPost2010PropOp34
 70
     1
102
RTVSPost2010Prop35
280
     0
102
RTVSPost2010PropOp35
 70
     1
102
RTVSPost2010Prop36
280
     0
102
RTVSPost2010PropOp36
 70
     1
102
RTVSPost2010Prop37
 90
       50
102
RTVSPost2010PropOp37
 70
     1
102
RTVSPost2010Prop38
140
0.0
102
RTVSPost2010PropOp38
 70
     1
102
RTVSPost2010Prop39
140
1.0
102
RTVSPost2010PropOp39
 70
     1
102
RTVSPost2010Prop40
 90
        0
102
RTVSPost2010PropOp40
 70
     1
102
RTVSPost2010Prop41ColorIndex
 90
       18
102
RTVSPost2010Prop41ColorRGB
 90
        0
102
RTVSPost2010PropOp41
 70
     1
102
RTVSPost2010Prop42
 90
       50
102
RTVSPost2010PropOp42
 70
     1
102
RTVSPost2010Prop43
 90
        3
102
RTVSPost2010PropOp43
 70
     1
102
RTVSPost2010Prop44ColorIndex
 90
        5
102
RTVSPost2010Prop44ColorRGB
 90
      255
102
RTVSPost2010PropOp44
 70
     1
102
RTVSPost2010Prop45
280
     0
102
RTVSPost2010PropOp45
 70
     1
102
RTVSPost2010Prop46
 90
       50
102
RTVSPost2010PropOp46
 70
     1
102
RTVSPost2010Prop47
 90
       50
102
RTVSPost2010PropOp47
 70
     1
102
RTVSPost2010Prop48
 90
       50
102
RTVSPost2010PropOp48
 70
     1
102
RTVSPost2010Prop49
280
     0
102
RTVSPost2010PropOp49
 70
     1
102
RTVSPost2010Prop50
 90
       50
102
RTVSPost2010PropOp50
 70
     1
102
RTVSPost2010Prop51ColorIndex
 90
      256
102
RTVSPost2010Prop51ColorRGB
 90
-16777216
102
RTVSPost2010PropOp51
 70
     0
102
RTVSPost2010Prop52
140
1.0
102
RTVSPost2010PropOp52
 70
     0
102
RTVSPost2010Prop53
 90
        2
102
RTVSPost2010PropOp53
 70
     1
102
RTVSPost2010Prop54
  1
strokes_ogs.tif
102
RTVSPost2010PropOp54
 70
     1
102
RTVSPost2010Prop55
280
     0
102
RTVSPost2010PropOp55
 70
     1
102
RTVSPost2010Prop56
140
1.0
102
RTVSPost2010PropOp56
 70
     1
102
RTVSPost2010Prop57
140
1.0
102
RTVSPost2010PropOp57
 70
     1
  0
XRECORD
  5
93C50
102
{ACAD_REACTORS
330
87B36
102
}
330
87B36
100
AcDbXrecord
280
     1
102
RTVSPropertyOp0
 70
     1
102
RTVSPropertyOp1
 70
     1
102
RTVSPropertyOp2
 70
     1
102
RTVSPropertyOp3
 70
     1
102
RTVSPropertyOp4
 70
     1
102
RTVSPropertyOp5
 70
     1
102
RTVSPropertyOp6
 70
     1
102
RTVSPropertyOp7
 70
     1
102
RTVSPropertyOp8
 70
     1
102
RTVSPropertyOp9
 70
     1
102
RTVSPropertyOp10
 70
     1
102
RTVSPropertyOp11
 70
     1
102
RTVSPropertyOp12
 70
     1
102
RTVSPropertyOp13
 70
     1
102
RTVSPropertyOp14
 70
     1
102
RTVSPropertyOp15
 70
     1
102
RTVSPropertyOp16
 70
     1
102
RTVSPropertyOp17
 70
     1
102
RTVSPropertyOp18
 70
     1
102
RTVSPropertyOp19
 70
     1
102
RTVSPropertyOp20
 70
     1
102
RTVSPropertyOp21
 70
     1
102
RTVSPropertyOp22
 70
     1
102
RTVSPropertyOp23
 70
     1
102
RTVSPropertyOp24
 70
     1
102
RTVSPropertyOp25
 70
     1
102
RTVSPropertyOp26
 70
     1
102
RTVSPropertyOp27
 70
     1
102
RTVSPropertyOp28
 70
     1
102
RTVSPropertyOp29
 70
     1
102
RTVSPropertyOp30
 70
     1
102
RTVSPropertyOp31
 70
     1
102
RTVSPropertyOp32
 70
     1
102
RTVSPropertyOp33
 70
     1
102
RTVSPropertyOp34
 70
     1
102
RTVSPropertyOp35
 70
     1
102
RTVSPropertyOp36
 70
     1
102
RTVSPropertyOp37
 70
     1
102
RTVSPropertyOp38
 70
     1
102
RTVSPropertyOp39
 70
     1
102
RTVSPropertyOp40
 70
     1
102
RTVSPropertyOp41
 70
     1
102
RTVSPropertyOp42
 70
     1
102
RTVSPropertyOp43
 70
     1
102
RTVSPropertyOp44
 70
     1
102
RTVSPropertyOp45
 70
     1
102
RTVSPropertyOp46
 70
     1
102
RTVSPropertyOp47
 70
     1
102
RTVSPropertyOp48
 70
     1
102
RTVSPropertyOp49
 70
     1
102
RTVSPropertyOp50
 70
     1
102
RTVSPropertyOp51
 70
     0
102
RTVSPropertyOp52
 70
     0
102
RTVSPropertyOp53
 70
     1
102
RTVSPropertyOp54
 70
     1
102
RTVSPropertyOp55
 70
     1
102
RTVSPropertyOp56
 70
     1
102
RTVSPropertyOp57
 70
     1
102
RTVSPost2010Prop28
280
     0
102
RTVSPost2010PropOp28
 70
     1
102
RTVSPost2010Prop29
280
     1
102
RTVSPost2010PropOp29
 70
     1
102
RTVSPost2010Prop30
280
     1
102
RTVSPost2010PropOp30
 70
     1
102
RTVSPost2010Prop31
280
     0
102
RTVSPost2010PropOp31
 70
     1
102
RTVSPost2010Prop32
280
     0
102
RTVSPost2010PropOp32
 70
     1
102
RTVSPost2010Prop33
280
     0
102
RTVSPost2010PropOp33
 70
     1
102
RTVSPost2010Prop34
280
     0
102
RTVSPost2010PropOp34
 70
     1
102
RTVSPost2010Prop35
280
     0
102
RTVSPost2010PropOp35
 70
     1
102
RTVSPost2010Prop36
280
     0
102
RTVSPost2010PropOp36
 70
     1
102
RTVSPost2010Prop37
 90
       50
102
RTVSPost2010PropOp37
 70
     1
102
RTVSPost2010Prop38
140
0.0
102
RTVSPost2010PropOp38
 70
     1
102
RTVSPost2010Prop39
140
1.0
102
RTVSPost2010PropOp39
 70
     1
102
RTVSPost2010Prop40
 90
        0
102
RTVSPost2010PropOp40
 70
     1
102
RTVSPost2010Prop41ColorIndex
 90
       18
102
RTVSPost2010Prop41ColorRGB
 90
        0
102
RTVSPost2010PropOp41
 70
     1
102
RTVSPost2010Prop42
 90
       50
102
RTVSPost2010PropOp42
 70
     1
102
RTVSPost2010Prop43
 90
        3
102
RTVSPost2010PropOp43
 70
     1
102
RTVSPost2010Prop44ColorIndex
 90
        5
102
RTVSPost2010Prop44ColorRGB
 90
      255
102
RTVSPost2010PropOp44
 70
     1
102
RTVSPost2010Prop45
280
     0
102
RTVSPost2010PropOp45
 70
     1
102
RTVSPost2010Prop46
 90
       50
102
RTVSPost2010PropOp46
 70
     1
102
RTVSPost2010Prop47
 90
       50
102
RTVSPost2010PropOp47
 70
     1
102
RTVSPost2010Prop48
 90
       50
102
RTVSPost2010PropOp48
 70
     1
102
RTVSPost2010Prop49
280
     0
102
RTVSPost2010PropOp49
 70
     1
102
RTVSPost2010Prop50
 90
       50
102
RTVSPost2010PropOp50
 70
     1
102
RTVSPost2010Prop51ColorIndex
 90
      256
102
RTVSPost2010Prop51ColorRGB
 90
-16777216
102
RTVSPost2010PropOp51
 70
     0
102
RTVSPost2010Prop52
140
1.0
102
RTVSPost2010PropOp52
 70
     0
102
RTVSPost2010Prop53
 90
        2
102
RTVSPost2010PropOp53
 70
     1
102
RTVSPost2010Prop54
  1
strokes_ogs.tif
102
RTVSPost2010PropOp54
 70
     1
102
RTVSPost2010Prop55
280
     0
102
RTVSPost2010PropOp55
 70
     1
102
RTVSPost2010Prop56
140
1.0
102
RTVSPost2010PropOp56
 70
     1
102
RTVSPost2010Prop57
140
1.0
102
RTVSPost2010PropOp57
 70
     1
  0
XRECORD
  5
93C51
102
{ACAD_REACTORS
330
87B34
102
}
330
87B34
100
AcDbXrecord
280
     1
102
RTVSPropertyOp0
 70
     1
102
RTVSPropertyOp1
 70
     1
102
RTVSPropertyOp2
 70
     1
102
RTVSPropertyOp3
 70
     1
102
RTVSPropertyOp4
 70
     1
102
RTVSPropertyOp5
 70
     1
102
RTVSPropertyOp6
 70
     1
102
RTVSPropertyOp7
 70
     1
102
RTVSPropertyOp8
 70
     1
102
RTVSPropertyOp9
 70
     1
102
RTVSPropertyOp10
 70
     1
102
RTVSPropertyOp11
 70
     1
102
RTVSPropertyOp12
 70
     1
102
RTVSPropertyOp13
 70
     1
102
RTVSPropertyOp14
 70
     1
102
RTVSPropertyOp15
 70
     1
102
RTVSPropertyOp16
 70
     1
102
RTVSPropertyOp17
 70
     1
102
RTVSPropertyOp18
 70
     1
102
RTVSPropertyOp19
 70
     1
102
RTVSPropertyOp20
 70
     1
102
RTVSPropertyOp21
 70
     1
102
RTVSPropertyOp22
 70
     1
102
RTVSPropertyOp23
 70
     1
102
RTVSPropertyOp24
 70
     1
102
RTVSPropertyOp25
 70
     1
102
RTVSPropertyOp26
 70
     1
102
RTVSPropertyOp27
 70
     1
102
RTVSPropertyOp28
 70
     1
102
RTVSPropertyOp29
 70
     1
102
RTVSPropertyOp30
 70
     1
102
RTVSPropertyOp31
 70
     1
102
RTVSPropertyOp32
 70
     1
102
RTVSPropertyOp33
 70
     1
102
RTVSPropertyOp34
 70
     1
102
RTVSPropertyOp35
 70
     1
102
RTVSPropertyOp36
 70
     1
102
RTVSPropertyOp37
 70
     1
102
RTVSPropertyOp38
 70
     1
102
RTVSPropertyOp39
 70
     1
102
RTVSPropertyOp40
 70
     1
102
RTVSPropertyOp41
 70
     1
102
RTVSPropertyOp42
 70
     1
102
RTVSPropertyOp43
 70
     1
102
RTVSPropertyOp44
 70
     1
102
RTVSPropertyOp45
 70
     1
102
RTVSPropertyOp46
 70
     1
102
RTVSPropertyOp47
 70
     1
102
RTVSPropertyOp48
 70
     1
102
RTVSPropertyOp49
 70
     1
102
RTVSPropertyOp50
 70
     1
102
RTVSPropertyOp51
 70
     0
102
RTVSPropertyOp52
 70
     0
102
RTVSPropertyOp53
 70
     1
102
RTVSPropertyOp54
 70
     1
102
RTVSPropertyOp55
 70
     1
102
RTVSPropertyOp56
 70
     1
102
RTVSPropertyOp57
 70
     1
102
RTVSPost2010Prop28
280
     0
102
RTVSPost2010PropOp28
 70
     1
102
RTVSPost2010Prop29
280
     1
102
RTVSPost2010PropOp29
 70
     1
102
RTVSPost2010Prop30
280
     1
102
RTVSPost2010PropOp30
 70
     1
102
RTVSPost2010Prop31
280
     0
102
RTVSPost2010PropOp31
 70
     1
102
RTVSPost2010Prop32
280
     0
102
RTVSPost2010PropOp32
 70
     1
102
RTVSPost2010Prop33
280
     0
102
RTVSPost2010PropOp33
 70
     1
102
RTVSPost2010Prop34
280
     0
102
RTVSPost2010PropOp34
 70
     1
102
RTVSPost2010Prop35
280
     0
102
RTVSPost2010PropOp35
 70
     1
102
RTVSPost2010Prop36
280
     0
102
RTVSPost2010PropOp36
 70
     1
102
RTVSPost2010Prop37
 90
       50
102
RTVSPost2010PropOp37
 70
     1
102
RTVSPost2010Prop38
140
0.0
102
RTVSPost2010PropOp38
 70
     1
102
RTVSPost2010Prop39
140
1.0
102
RTVSPost2010PropOp39
 70
     1
102
RTVSPost2010Prop40
 90
        0
102
RTVSPost2010PropOp40
 70
     1
102
RTVSPost2010Prop41ColorIndex
 90
       18
102
RTVSPost2010Prop41ColorRGB
 90
        0
102
RTVSPost2010PropOp41
 70
     1
102
RTVSPost2010Prop42
 90
       50
102
RTVSPost2010PropOp42
 70
     1
102
RTVSPost2010Prop43
 90
        3
102
RTVSPost2010PropOp43
 70
     1
102
RTVSPost2010Prop44ColorIndex
 90
        5
102
RTVSPost2010Prop44ColorRGB
 90
      255
102
RTVSPost2010PropOp44
 70
     1
102
RTVSPost2010Prop45
280
     0
102
RTVSPost2010PropOp45
 70
     1
102
RTVSPost2010Prop46
 90
       50
102
RTVSPost2010PropOp46
 70
     1
102
RTVSPost2010Prop47
 90
       50
102
RTVSPost2010PropOp47
 70
     1
102
RTVSPost2010Prop48
 90
       50
102
RTVSPost2010PropOp48
 70
     1
102
RTVSPost2010Prop49
280
     0
102
RTVSPost2010PropOp49
 70
     1
102
RTVSPost2010Prop50
 90
       50
102
RTVSPost2010PropOp50
 70
     1
102
RTVSPost2010Prop51ColorIndex
 90
      256
102
RTVSPost2010Prop51ColorRGB
 90
-16777216
102
RTVSPost2010PropOp51
 70
     0
102
RTVSPost2010Prop52
140
1.0
102
RTVSPost2010PropOp52
 70
     0
102
RTVSPost2010Prop53
 90
        2
102
RTVSPost2010PropOp53
 70
     1
102
RTVSPost2010Prop54
  1
strokes_ogs.tif
102
RTVSPost2010PropOp54
 70
     1
102
RTVSPost2010Prop55
280
     0
102
RTVSPost2010PropOp55
 70
     1
102
RTVSPost2010Prop56
140
1.0
102
RTVSPost2010PropOp56
 70
     1
102
RTVSPost2010Prop57
140
1.0
102
RTVSPost2010PropOp57
 70
     1
  0
XRECORD
  5
93C52
102
{ACAD_REACTORS
330
87B2E
102
}
330
87B2E
100
AcDbXrecord
280
     1
102
RTVSPropertyOp0
 70
     1
102
RTVSPropertyOp1
 70
     1
102
RTVSPropertyOp2
 70
     1
102
RTVSPropertyOp3
 70
     1
102
RTVSPropertyOp4
 70
     1
102
RTVSPropertyOp5
 70
     1
102
RTVSPropertyOp6
 70
     1
102
RTVSPropertyOp7
 70
     1
102
RTVSPropertyOp8
 70
     1
102
RTVSPropertyOp9
 70
     1
102
RTVSPropertyOp10
 70
     1
102
RTVSPropertyOp11
 70
     1
102
RTVSPropertyOp12
 70
     1
102
RTVSPropertyOp13
 70
     1
102
RTVSPropertyOp14
 70
     1
102
RTVSPropertyOp15
 70
     1
102
RTVSPropertyOp16
 70
     1
102
RTVSPropertyOp17
 70
     1
102
RTVSPropertyOp18
 70
     1
102
RTVSPropertyOp19
 70
     1
102
RTVSPropertyOp20
 70
     1
102
RTVSPropertyOp21
 70
     1
102
RTVSPropertyOp22
 70
     1
102
RTVSPropertyOp23
 70
     1
102
RTVSPropertyOp24
 70
     1
102
RTVSPropertyOp25
 70
     1
102
RTVSPropertyOp26
 70
     1
102
RTVSPropertyOp27
 70
     1
102
RTVSPropertyOp28
 70
     1
102
RTVSPropertyOp29
 70
     1
102
RTVSPropertyOp30
 70
     1
102
RTVSPropertyOp31
 70
     1
102
RTVSPropertyOp32
 70
     1
102
RTVSPropertyOp33
 70
     1
102
RTVSPropertyOp34
 70
     1
102
RTVSPropertyOp35
 70
     1
102
RTVSPropertyOp36
 70
     1
102
RTVSPropertyOp37
 70
     1
102
RTVSPropertyOp38
 70
     1
102
RTVSPropertyOp39
 70
     1
102
RTVSPropertyOp40
 70
     1
102
RTVSPropertyOp41
 70
     1
102
RTVSPropertyOp42
 70
     1
102
RTVSPropertyOp43
 70
     1
102
RTVSPropertyOp44
 70
     1
102
RTVSPropertyOp45
 70
     1
102
RTVSPropertyOp46
 70
     1
102
RTVSPropertyOp47
 70
     1
102
RTVSPropertyOp48
 70
     1
102
RTVSPropertyOp49
 70
     1
102
RTVSPropertyOp50
 70
     1
102
RTVSPropertyOp51
 70
     0
102
RTVSPropertyOp52
 70
     0
102
RTVSPropertyOp53
 70
     1
102
RTVSPropertyOp54
 70
     1
102
RTVSPropertyOp55
 70
     1
102
RTVSPropertyOp56
 70
     1
102
RTVSPropertyOp57
 70
     1
102
RTVSPost2010Prop28
280
     0
102
RTVSPost2010PropOp28
 70
     1
102
RTVSPost2010Prop29
280
     1
102
RTVSPost2010PropOp29
 70
     1
102
RTVSPost2010Prop30
280
     1
102
RTVSPost2010PropOp30
 70
     1
102
RTVSPost2010Prop31
280
     0
102
RTVSPost2010PropOp31
 70
     1
102
RTVSPost2010Prop32
280
     0
102
RTVSPost2010PropOp32
 70
     1
102
RTVSPost2010Prop33
280
     0
102
RTVSPost2010PropOp33
 70
     1
102
RTVSPost2010Prop34
280
     0
102
RTVSPost2010PropOp34
 70
     1
102
RTVSPost2010Prop35
280
     0
102
RTVSPost2010PropOp35
 70
     1
102
RTVSPost2010Prop36
280
     0
102
RTVSPost2010PropOp36
 70
     1
102
RTVSPost2010Prop37
 90
       50
102
RTVSPost2010PropOp37
 70
     1
102
RTVSPost2010Prop38
140
0.0
102
RTVSPost2010PropOp38
 70
     1
102
RTVSPost2010Prop39
140
1.0
102
RTVSPost2010PropOp39
 70
     1
102
RTVSPost2010Prop40
 90
        0
102
RTVSPost2010PropOp40
 70
     1
102
RTVSPost2010Prop41ColorIndex
 90
       18
102
RTVSPost2010Prop41ColorRGB
 90
        0
102
RTVSPost2010PropOp41
 70
     1
102
RTVSPost2010Prop42
 90
       50
102
RTVSPost2010PropOp42
 70
     1
102
RTVSPost2010Prop43
 90
        3
102
RTVSPost2010PropOp43
 70
     1
102
RTVSPost2010Prop44ColorIndex
 90
        5
102
RTVSPost2010Prop44ColorRGB
 90
      255
102
RTVSPost2010PropOp44
 70
     1
102
RTVSPost2010Prop45
280
     0
102
RTVSPost2010PropOp45
 70
     1
102
RTVSPost2010Prop46
 90
       50
102
RTVSPost2010PropOp46
 70
     1
102
RTVSPost2010Prop47
 90
       50
102
RTVSPost2010PropOp47
 70
     1
102
RTVSPost2010Prop48
 90
       50
102
RTVSPost2010PropOp48
 70
     1
102
RTVSPost2010Prop49
280
     0
102
RTVSPost2010PropOp49
 70
     1
102
RTVSPost2010Prop50
 90
       50
102
RTVSPost2010PropOp50
 70
     1
102
RTVSPost2010Prop51ColorIndex
 90
      256
102
RTVSPost2010Prop51ColorRGB
 90
-16777216
102
RTVSPost2010PropOp51
 70
     0
102
RTVSPost2010Prop52
140
1.0
102
RTVSPost2010PropOp52
 70
     0
102
RTVSPost2010Prop53
 90
        2
102
RTVSPost2010PropOp53
 70
     1
102
RTVSPost2010Prop54
  1
strokes_ogs.tif
102
RTVSPost2010PropOp54
 70
     1
102
RTVSPost2010Prop55
280
     0
102
RTVSPost2010PropOp55
 70
     1
102
RTVSPost2010Prop56
140
1.0
102
RTVSPost2010PropOp56
 70
     1
102
RTVSPost2010Prop57
140
1.0
102
RTVSPost2010PropOp57
 70
     1
  0
XRECORD
  5
93C53
102
{ACAD_REACTORS
330
87B30
102
}
330
87B30
100
AcDbXrecord
280
     1
102
RTVSPropertyOp0
 70
     1
102
RTVSPropertyOp1
 70
     1
102
RTVSPropertyOp2
 70
     1
102
RTVSPropertyOp3
 70
     1
102
RTVSPropertyOp4
 70
     1
102
RTVSPropertyOp5
 70
     1
102
RTVSPropertyOp6
 70
     1
102
RTVSPropertyOp7
 70
     1
102
RTVSPropertyOp8
 70
     1
102
RTVSPropertyOp9
 70
     1
102
RTVSPropertyOp10
 70
     1
102
RTVSPropertyOp11
 70
     1
102
RTVSPropertyOp12
 70
     1
102
RTVSPropertyOp13
 70
     1
102
RTVSPropertyOp14
 70
     1
102
RTVSPropertyOp15
 70
     1
102
RTVSPropertyOp16
 70
     1
102
RTVSPropertyOp17
 70
     1
102
RTVSPropertyOp18
 70
     1
102
RTVSPropertyOp19
 70
     1
102
RTVSPropertyOp20
 70
     1
102
RTVSPropertyOp21
 70
     1
102
RTVSPropertyOp22
 70
     1
102
RTVSPropertyOp23
 70
     1
102
RTVSPropertyOp24
 70
     1
102
RTVSPropertyOp25
 70
     1
102
RTVSPropertyOp26
 70
     1
102
RTVSPropertyOp27
 70
     1
102
RTVSPropertyOp28
 70
     1
102
RTVSPropertyOp29
 70
     1
102
RTVSPropertyOp30
 70
     1
102
RTVSPropertyOp31
 70
     1
102
RTVSPropertyOp32
 70
     1
102
RTVSPropertyOp33
 70
     1
102
RTVSPropertyOp34
 70
     1
102
RTVSPropertyOp35
 70
     1
102
RTVSPropertyOp36
 70
     1
102
RTVSPropertyOp37
 70
     1
102
RTVSPropertyOp38
 70
     1
102
RTVSPropertyOp39
 70
     1
102
RTVSPropertyOp40
 70
     1
102
RTVSPropertyOp41
 70
     1
102
RTVSPropertyOp42
 70
     1
102
RTVSPropertyOp43
 70
     1
102
RTVSPropertyOp44
 70
     1
102
RTVSPropertyOp45
 70
     1
102
RTVSPropertyOp46
 70
     1
102
RTVSPropertyOp47
 70
     1
102
RTVSPropertyOp48
 70
     1
102
RTVSPropertyOp49
 70
     1
102
RTVSPropertyOp50
 70
     1
102
RTVSPropertyOp51
 70
     0
102
RTVSPropertyOp52
 70
     0
102
RTVSPropertyOp53
 70
     1
102
RTVSPropertyOp54
 70
     1
102
RTVSPropertyOp55
 70
     1
102
RTVSPropertyOp56
 70
     1
102
RTVSPropertyOp57
 70
     1
102
RTVSPost2010Prop28
280
     0
102
RTVSPost2010PropOp28
 70
     1
102
RTVSPost2010Prop29
280
     1
102
RTVSPost2010PropOp29
 70
     1
102
RTVSPost2010Prop30
280
     1
102
RTVSPost2010PropOp30
 70
     1
102
RTVSPost2010Prop31
280
     0
102
RTVSPost2010PropOp31
 70
     1
102
RTVSPost2010Prop32
280
     0
102
RTVSPost2010PropOp32
 70
     1
102
RTVSPost2010Prop33
280
     0
102
RTVSPost2010PropOp33
 70
     1
102
RTVSPost2010Prop34
280
     0
102
RTVSPost2010PropOp34
 70
     1
102
RTVSPost2010Prop35
280
     0
102
RTVSPost2010PropOp35
 70
     1
102
RTVSPost2010Prop36
280
     0
102
RTVSPost2010PropOp36
 70
     1
102
RTVSPost2010Prop37
 90
       50
102
RTVSPost2010PropOp37
 70
     1
102
RTVSPost2010Prop38
140
0.0
102
RTVSPost2010PropOp38
 70
     1
102
RTVSPost2010Prop39
140
1.0
102
RTVSPost2010PropOp39
 70
     1
102
RTVSPost2010Prop40
 90
        0
102
RTVSPost2010PropOp40
 70
     1
102
RTVSPost2010Prop41ColorIndex
 90
       18
102
RTVSPost2010Prop41ColorRGB
 90
        0
102
RTVSPost2010PropOp41
 70
     1
102
RTVSPost2010Prop42
 90
       50
102
RTVSPost2010PropOp42
 70
     1
102
RTVSPost2010Prop43
 90
        3
102
RTVSPost2010PropOp43
 70
     1
102
RTVSPost2010Prop44ColorIndex
 90
        5
102
RTVSPost2010Prop44ColorRGB
 90
      255
102
RTVSPost2010PropOp44
 70
     1
102
RTVSPost2010Prop45
280
     0
102
RTVSPost2010PropOp45
 70
     1
102
RTVSPost2010Prop46
 90
       50
102
RTVSPost2010PropOp46
 70
     1
102
RTVSPost2010Prop47
 90
       50
102
RTVSPost2010PropOp47
 70
     1
102
RTVSPost2010Prop48
 90
       50
102
RTVSPost2010PropOp48
 70
     1
102
RTVSPost2010Prop49
280
     0
102
RTVSPost2010PropOp49
 70
     1
102
RTVSPost2010Prop50
 90
       50
102
RTVSPost2010PropOp50
 70
     1
102
RTVSPost2010Prop51ColorIndex
 90
      256
102
RTVSPost2010Prop51ColorRGB
 90
-16777216
102
RTVSPost2010PropOp51
 70
     0
102
RTVSPost2010Prop52
140
1.0
102
RTVSPost2010PropOp52
 70
     0
102
RTVSPost2010Prop53
 90
        2
102
RTVSPost2010PropOp53
 70
     1
102
RTVSPost2010Prop54
  1
strokes_ogs.tif
102
RTVSPost2010PropOp54
 70
     1
102
RTVSPost2010Prop55
280
     0
102
RTVSPost2010PropOp55
 70
     1
102
RTVSPost2010Prop56
140
1.0
102
RTVSPost2010PropOp56
 70
     1
102
RTVSPost2010Prop57
140
1.0
102
RTVSPost2010PropOp57
 70
     1
  0
XRECORD
  5
93C54
102
{ACAD_REACTORS
330
87B26
102
}
330
87B26
100
AcDbXrecord
280
     1
102
RTVSPropertyOp0
 70
     1
102
RTVSPropertyOp1
 70
     1
102
RTVSPropertyOp2
 70
     1
102
RTVSPropertyOp3
 70
     1
102
RTVSPropertyOp4
 70
     1
102
RTVSPropertyOp5
 70
     1
102
RTVSPropertyOp6
 70
     1
102
RTVSPropertyOp7
 70
     1
102
RTVSPropertyOp8
 70
     1
102
RTVSPropertyOp9
 70
     1
102
RTVSPropertyOp10
 70
     1
102
RTVSPropertyOp11
 70
     1
102
RTVSPropertyOp12
 70
     1
102
RTVSPropertyOp13
 70
     1
102
RTVSPropertyOp14
 70
     1
102
RTVSPropertyOp15
 70
     1
102
RTVSPropertyOp16
 70
     1
102
RTVSPropertyOp17
 70
     1
102
RTVSPropertyOp18
 70
     1
102
RTVSPropertyOp19
 70
     1
102
RTVSPropertyOp20
 70
     1
102
RTVSPropertyOp21
 70
     1
102
RTVSPropertyOp22
 70
     1
102
RTVSPropertyOp23
 70
     1
102
RTVSPropertyOp24
 70
     1
102
RTVSPropertyOp25
 70
     1
102
RTVSPropertyOp26
 70
     1
102
RTVSPropertyOp27
 70
     1
102
RTVSPropertyOp28
 70
     1
102
RTVSPropertyOp29
 70
     1
102
RTVSPropertyOp30
 70
     1
102
RTVSPropertyOp31
 70
     1
102
RTVSPropertyOp32
 70
     1
102
RTVSPropertyOp33
 70
     1
102
RTVSPropertyOp34
 70
     1
102
RTVSPropertyOp35
 70
     1
102
RTVSPropertyOp36
 70
     1
102
RTVSPropertyOp37
 70
     1
102
RTVSPropertyOp38
 70
     1
102
RTVSPropertyOp39
 70
     1
102
RTVSPropertyOp40
 70
     1
102
RTVSPropertyOp41
 70
     1
102
RTVSPropertyOp42
 70
     1
102
RTVSPropertyOp43
 70
     1
102
RTVSPropertyOp44
 70
     1
102
RTVSPropertyOp45
 70
     1
102
RTVSPropertyOp46
 70
     1
102
RTVSPropertyOp47
 70
     1
102
RTVSPropertyOp48
 70
     1
102
RTVSPropertyOp49
 70
     1
102
RTVSPropertyOp50
 70
     1
102
RTVSPropertyOp51
 70
     0
102
RTVSPropertyOp52
 70
     0
102
RTVSPropertyOp53
 70
     1
102
RTVSPropertyOp54
 70
     1
102
RTVSPropertyOp55
 70
     1
102
RTVSPropertyOp56
 70
     1
102
RTVSPropertyOp57
 70
     1
102
RTVSPost2010Prop28
280
     0
102
RTVSPost2010PropOp28
 70
     1
102
RTVSPost2010Prop29
280
     1
102
RTVSPost2010PropOp29
 70
     1
102
RTVSPost2010Prop30
280
     1
102
RTVSPost2010PropOp30
 70
     1
102
RTVSPost2010Prop31
280
     0
102
RTVSPost2010PropOp31
 70
     1
102
RTVSPost2010Prop32
280
     0
102
RTVSPost2010PropOp32
 70
     1
102
RTVSPost2010Prop33
280
     0
102
RTVSPost2010PropOp33
 70
     1
102
RTVSPost2010Prop34
280
     0
102
RTVSPost2010PropOp34
 70
     1
102
RTVSPost2010Prop35
280
     0
102
RTVSPost2010PropOp35
 70
     1
102
RTVSPost2010Prop36
280
     0
102
RTVSPost2010PropOp36
 70
     1
102
RTVSPost2010Prop37
 90
       50
102
RTVSPost2010PropOp37
 70
     1
102
RTVSPost2010Prop38
140
0.0
102
RTVSPost2010PropOp38
 70
     1
102
RTVSPost2010Prop39
140
1.0
102
RTVSPost2010PropOp39
 70
     1
102
RTVSPost2010Prop40
 90
        0
102
RTVSPost2010PropOp40
 70
     1
102
RTVSPost2010Prop41ColorIndex
 90
       18
102
RTVSPost2010Prop41ColorRGB
 90
        0
102
RTVSPost2010PropOp41
 70
     1
102
RTVSPost2010Prop42
 90
       50
102
RTVSPost2010PropOp42
 70
     1
102
RTVSPost2010Prop43
 90
        3
102
RTVSPost2010PropOp43
 70
     1
102
RTVSPost2010Prop44ColorIndex
 90
        5
102
RTVSPost2010Prop44ColorRGB
 90
      255
102
RTVSPost2010PropOp44
 70
     1
102
RTVSPost2010Prop45
280
     0
102
RTVSPost2010PropOp45
 70
     1
102
RTVSPost2010Prop46
 90
       50
102
RTVSPost2010PropOp46
 70
     1
102
RTVSPost2010Prop47
 90
       50
102
RTVSPost2010PropOp47
 70
     1
102
RTVSPost2010Prop48
 90
       50
102
RTVSPost2010PropOp48
 70
     1
102
RTVSPost2010Prop49
280
     0
102
RTVSPost2010PropOp49
 70
     1
102
RTVSPost2010Prop50
 90
       50
102
RTVSPost2010PropOp50
 70
     1
102
RTVSPost2010Prop51ColorIndex
 90
      256
102
RTVSPost2010Prop51ColorRGB
 90
-16777216
102
RTVSPost2010PropOp51
 70
     0
102
RTVSPost2010Prop52
140
1.0
102
RTVSPost2010PropOp52
 70
     0
102
RTVSPost2010Prop53
 90
        2
102
RTVSPost2010PropOp53
 70
     1
102
RTVSPost2010Prop54
  1
strokes_ogs.tif
102
RTVSPost2010PropOp54
 70
     1
102
RTVSPost2010Prop55
280
     0
102
RTVSPost2010PropOp55
 70
     1
102
RTVSPost2010Prop56
140
1.0
102
RTVSPost2010PropOp56
 70
     1
102
RTVSPost2010Prop57
140
1.0
102
RTVSPost2010PropOp57
 70
     1
  0
XRECORD
  5
93C55
102
{ACAD_REACTORS
330
87B1A
102
}
330
87B1A
100
AcDbXrecord
280
     1
102
RTVSPropertyOp0
 70
     1
102
RTVSPropertyOp1
 70
     1
102
RTVSPropertyOp2
 70
     1
102
RTVSPropertyOp3
 70
     1
102
RTVSPropertyOp4
 70
     1
102
RTVSPropertyOp5
 70
     1
102
RTVSPropertyOp6
 70
     1
102
RTVSPropertyOp7
 70
     1
102
RTVSPropertyOp8
 70
     1
102
RTVSPropertyOp9
 70
     1
102
RTVSPropertyOp10
 70
     1
102
RTVSPropertyOp11
 70
     1
102
RTVSPropertyOp12
 70
     1
102
RTVSPropertyOp13
 70
     1
102
RTVSPropertyOp14
 70
     1
102
RTVSPropertyOp15
 70
     1
102
RTVSPropertyOp16
 70
     1
102
RTVSPropertyOp17
 70
     1
102
RTVSPropertyOp18
 70
     1
102
RTVSPropertyOp19
 70
     1
102
RTVSPropertyOp20
 70
     1
102
RTVSPropertyOp21
 70
     1
102
RTVSPropertyOp22
 70
     1
102
RTVSPropertyOp23
 70
     1
102
RTVSPropertyOp24
 70
     1
102
RTVSPropertyOp25
 70
     1
102
RTVSPropertyOp26
 70
     1
102
RTVSPropertyOp27
 70
     1
102
RTVSPropertyOp28
 70
     1
102
RTVSPropertyOp29
 70
     1
102
RTVSPropertyOp30
 70
     1
102
RTVSPropertyOp31
 70
     1
102
RTVSPropertyOp32
 70
     1
102
RTVSPropertyOp33
 70
     1
102
RTVSPropertyOp34
 70
     1
102
RTVSPropertyOp35
 70
     1
102
RTVSPropertyOp36
 70
     1
102
RTVSPropertyOp37
 70
     1
102
RTVSPropertyOp38
 70
     1
102
RTVSPropertyOp39
 70
     1
102
RTVSPropertyOp40
 70
     1
102
RTVSPropertyOp41
 70
     1
102
RTVSPropertyOp42
 70
     1
102
RTVSPropertyOp43
 70
     1
102
RTVSPropertyOp44
 70
     1
102
RTVSPropertyOp45
 70
     1
102
RTVSPropertyOp46
 70
     1
102
RTVSPropertyOp47
 70
     1
102
RTVSPropertyOp48
 70
     1
102
RTVSPropertyOp49
 70
     1
102
RTVSPropertyOp50
 70
     1
102
RTVSPropertyOp51
 70
     0
102
RTVSPropertyOp52
 70
     0
102
RTVSPropertyOp53
 70
     1
102
RTVSPropertyOp54
 70
     1
102
RTVSPropertyOp55
 70
     1
102
RTVSPropertyOp56
 70
     1
102
RTVSPropertyOp57
 70
     1
102
RTVSPost2010Prop28
280
     0
102
RTVSPost2010PropOp28
 70
     1
102
RTVSPost2010Prop29
280
     1
102
RTVSPost2010PropOp29
 70
     1
102
RTVSPost2010Prop30
280
     1
102
RTVSPost2010PropOp30
 70
     1
102
RTVSPost2010Prop31
280
     0
102
RTVSPost2010PropOp31
 70
     1
102
RTVSPost2010Prop32
280
     0
102
RTVSPost2010PropOp32
 70
     1
102
RTVSPost2010Prop33
280
     0
102
RTVSPost2010PropOp33
 70
     1
102
RTVSPost2010Prop34
280
     0
102
RTVSPost2010PropOp34
 70
     1
102
RTVSPost2010Prop35
280
     0
102
RTVSPost2010PropOp35
 70
     1
102
RTVSPost2010Prop36
280
     0
102
RTVSPost2010PropOp36
 70
     1
102
RTVSPost2010Prop37
 90
       50
102
RTVSPost2010PropOp37
 70
     1
102
RTVSPost2010Prop38
140
0.0
102
RTVSPost2010PropOp38
 70
     1
102
RTVSPost2010Prop39
140
1.0
102
RTVSPost2010PropOp39
 70
     1
102
RTVSPost2010Prop40
 90
        0
102
RTVSPost2010PropOp40
 70
     1
102
RTVSPost2010Prop41ColorIndex
 90
       18
102
RTVSPost2010Prop41ColorRGB
 90
        0
102
RTVSPost2010PropOp41
 70
     1
102
RTVSPost2010Prop42
 90
       50
102
RTVSPost2010PropOp42
 70
     1
102
RTVSPost2010Prop43
 90
        3
102
RTVSPost2010PropOp43
 70
     1
102
RTVSPost2010Prop44ColorIndex
 90
        5
102
RTVSPost2010Prop44ColorRGB
 90
      255
102
RTVSPost2010PropOp44
 70
     1
102
RTVSPost2010Prop45
280
     0
102
RTVSPost2010PropOp45
 70
     1
102
RTVSPost2010Prop46
 90
       50
102
RTVSPost2010PropOp46
 70
     1
102
RTVSPost2010Prop47
 90
       50
102
RTVSPost2010PropOp47
 70
     1
102
RTVSPost2010Prop48
 90
       50
102
RTVSPost2010PropOp48
 70
     1
102
RTVSPost2010Prop49
280
     0
102
RTVSPost2010PropOp49
 70
     1
102
RTVSPost2010Prop50
 90
       50
102
RTVSPost2010PropOp50
 70
     1
102
RTVSPost2010Prop51ColorIndex
 90
      256
102
RTVSPost2010Prop51ColorRGB
 90
-16777216
102
RTVSPost2010PropOp51
 70
     0
102
RTVSPost2010Prop52
140
1.0
102
RTVSPost2010PropOp52
 70
     0
102
RTVSPost2010Prop53
 90
        2
102
RTVSPost2010PropOp53
 70
     1
102
RTVSPost2010Prop54
  1
strokes_ogs.tif
102
RTVSPost2010PropOp54
 70
     1
102
RTVSPost2010Prop55
280
     0
102
RTVSPost2010PropOp55
 70
     1
102
RTVSPost2010Prop56
140
1.0
102
RTVSPost2010PropOp56
 70
     1
102
RTVSPost2010Prop57
140
1.0
102
RTVSPost2010PropOp57
 70
     1
  0
XRECORD
  5
93C56
102
{ACAD_REACTORS
330
87B32
102
}
330
87B32
100
AcDbXrecord
280
     1
102
RTVSPropertyOp0
 70
     1
102
RTVSPropertyOp1
 70
     1
102
RTVSPropertyOp2
 70
     1
102
RTVSPropertyOp3
 70
     1
102
RTVSPropertyOp4
 70
     1
102
RTVSPropertyOp5
 70
     1
102
RTVSPropertyOp6
 70
     1
102
RTVSPropertyOp7
 70
     1
102
RTVSPropertyOp8
 70
     1
102
RTVSPropertyOp9
 70
     1
102
RTVSPropertyOp10
 70
     1
102
RTVSPropertyOp11
 70
     1
102
RTVSPropertyOp12
 70
     1
102
RTVSPropertyOp13
 70
     1
102
RTVSPropertyOp14
 70
     1
102
RTVSPropertyOp15
 70
     1
102
RTVSPropertyOp16
 70
     1
102
RTVSPropertyOp17
 70
     1
102
RTVSPropertyOp18
 70
     1
102
RTVSPropertyOp19
 70
     1
102
RTVSPropertyOp20
 70
     1
102
RTVSPropertyOp21
 70
     1
102
RTVSPropertyOp22
 70
     1
102
RTVSPropertyOp23
 70
     1
102
RTVSPropertyOp24
 70
     1
102
RTVSPropertyOp25
 70
     1
102
RTVSPropertyOp26
 70
     1
102
RTVSPropertyOp27
 70
     1
102
RTVSPropertyOp28
 70
     1
102
RTVSPropertyOp29
 70
     1
102
RTVSPropertyOp30
 70
     1
102
RTVSPropertyOp31
 70
     1
102
RTVSPropertyOp32
 70
     1
102
RTVSPropertyOp33
 70
     1
102
RTVSPropertyOp34
 70
     1
102
RTVSPropertyOp35
 70
     1
102
RTVSPropertyOp36
 70
     1
102
RTVSPropertyOp37
 70
     1
102
RTVSPropertyOp38
 70
     1
102
RTVSPropertyOp39
 70
     1
102
RTVSPropertyOp40
 70
     1
102
RTVSPropertyOp41
 70
     1
102
RTVSPropertyOp42
 70
     1
102
RTVSPropertyOp43
 70
     1
102
RTVSPropertyOp44
 70
     1
102
RTVSPropertyOp45
 70
     1
102
RTVSPropertyOp46
 70
     1
102
RTVSPropertyOp47
 70
     1
102
RTVSPropertyOp48
 70
     1
102
RTVSPropertyOp49
 70
     1
102
RTVSPropertyOp50
 70
     1
102
RTVSPropertyOp51
 70
     0
102
RTVSPropertyOp52
 70
     0
102
RTVSPropertyOp53
 70
     1
102
RTVSPropertyOp54
 70
     1
102
RTVSPropertyOp55
 70
     1
102
RTVSPropertyOp56
 70
     1
102
RTVSPropertyOp57
 70
     1
102
RTVSPost2010Prop28
280
     0
102
RTVSPost2010PropOp28
 70
     1
102
RTVSPost2010Prop29
280
     1
102
RTVSPost2010PropOp29
 70
     1
102
RTVSPost2010Prop30
280
     1
102
RTVSPost2010PropOp30
 70
     1
102
RTVSPost2010Prop31
280
     0
102
RTVSPost2010PropOp31
 70
     1
102
RTVSPost2010Prop32
280
     0
102
RTVSPost2010PropOp32
 70
     1
102
RTVSPost2010Prop33
280
     0
102
RTVSPost2010PropOp33
 70
     1
102
RTVSPost2010Prop34
280
     0
102
RTVSPost2010PropOp34
 70
     1
102
RTVSPost2010Prop35
280
     0
102
RTVSPost2010PropOp35
 70
     1
102
RTVSPost2010Prop36
280
     0
102
RTVSPost2010PropOp36
 70
     1
102
RTVSPost2010Prop37
 90
       50
102
RTVSPost2010PropOp37
 70
     1
102
RTVSPost2010Prop38
140
0.0
102
RTVSPost2010PropOp38
 70
     1
102
RTVSPost2010Prop39
140
1.0
102
RTVSPost2010PropOp39
 70
     1
102
RTVSPost2010Prop40
 90
        0
102
RTVSPost2010PropOp40
 70
     1
102
RTVSPost2010Prop41ColorIndex
 90
       18
102
RTVSPost2010Prop41ColorRGB
 90
        0
102
RTVSPost2010PropOp41
 70
     1
102
RTVSPost2010Prop42
 90
       50
102
RTVSPost2010PropOp42
 70
     1
102
RTVSPost2010Prop43
 90
        3
102
RTVSPost2010PropOp43
 70
     1
102
RTVSPost2010Prop44ColorIndex
 90
        5
102
RTVSPost2010Prop44ColorRGB
 90
      255
102
RTVSPost2010PropOp44
 70
     1
102
RTVSPost2010Prop45
280
     0
102
RTVSPost2010PropOp45
 70
     1
102
RTVSPost2010Prop46
 90
       50
102
RTVSPost2010PropOp46
 70
     1
102
RTVSPost2010Prop47
 90
       50
102
RTVSPost2010PropOp47
 70
     1
102
RTVSPost2010Prop48
 90
       50
102
RTVSPost2010PropOp48
 70
     1
102
RTVSPost2010Prop49
280
     0
102
RTVSPost2010PropOp49
 70
     1
102
RTVSPost2010Prop50
 90
       50
102
RTVSPost2010PropOp50
 70
     1
102
RTVSPost2010Prop51ColorIndex
 90
      256
102
RTVSPost2010Prop51ColorRGB
 90
-16777216
102
RTVSPost2010PropOp51
 70
     0
102
RTVSPost2010Prop52
140
1.0
102
RTVSPost2010PropOp52
 70
     0
102
RTVSPost2010Prop53
 90
        2
102
RTVSPost2010PropOp53
 70
     1
102
RTVSPost2010Prop54
  1
strokes_ogs.tif
102
RTVSPost2010PropOp54
 70
     1
102
RTVSPost2010Prop55
280
     0
102
RTVSPost2010PropOp55
 70
     1
102
RTVSPost2010Prop56
140
1.0
102
RTVSPost2010PropOp56
 70
     1
102
RTVSPost2010Prop57
140
1.0
102
RTVSPost2010PropOp57
 70
     1
  0
ENDSEC
  0
EOF
