  0
SECTION
  2
HEADER
  9
$ACADVER
  1
AC1015
  9
$ACADMAINTVER
 70
    20
  9
$DWGCODEPAGE
  3
ANSI_932
  9
$INSBASE
 10
0.0
 20
0.0
 30
0.0
  9
$EXTMIN
 10
-26.70827197655644
 20
-81.58404088002523
 30
0.0
  9
$EXTMAX
 10
119.4333333333333
 20
113.2895884739311
 30
0.0
  9
$LIMMIN
 10
0.0
 20
0.0
  9
$LIMMAX
 10
420.0
 20
297.0
  9
$ORTHOMODE
 70
     1
  9
$REGENMODE
 70
     1
  9
$FILLMODE
 70
     1
  9
$QTEXTMODE
 70
     0
  9
$MIRRTEXT
 70
     1
  9
$LTSCALE
 40
1.0
  9
$ATTMODE
 70
     1
  9
$TEXTSIZE
 40
3.5
  9
$TRACEWID
 40
1.0
  9
$TEXTSTYLE
  7
simplex
  9
$CLAYER
  8
0
  9
$CELTYPE
  6
ByLayer
  9
$CECOLOR
 62
   256
  9
$CELTSCALE
 40
1.0
  9
$DISPSILH
 70
     0
  9
$DIMSCALE
 40
0.0
  9
$DIMASZ
 40
3.5
  9
$DIMEXO
 40
0.0
  9
$DIMDLI
 40
0.38
  9
$DIMRND
 40
0.0
  9
$DIMDLE
 40
0.0
  9
$DIMEXE
 40
1.5
  9
$DIMTP
 40
0.0
  9
$DIMTM
 40
0.0
  9
$DIMTXT
 40
3.5
  9
$DIMCEN
 40
0.09
  9
$DIMTSZ
 40
0.0
  9
$DIMTOL
 70
     0
  9
$DIMLIM
 70
     0
  9
$DIMTIH
 70
     0
  9
$DIMTOH
 70
     0
  9
$DIMSE1
 70
     0
  9
$DIMSE2
 70
     0
  9
$DIMTAD
 70
     1
  9
$DIMZIN
 70
     8
  9
$DIMBLK
  1

  9
$DIMASO
 70
     1
  9
$DIMSHO
 70
     1
  9
$DIMPOST
  1

  9
$DIMAPOST
  1

  9
$DIMALT
 70
     0
  9
$DIMALTD
 70
     2
  9
$DIMALTF
 40
25.4
  9
$DIMLFAC
 40
1.0
  9
$DIMTOFL
 70
     0
  9
$DIMTVP
 40
0.0
  9
$DIMTIX
 70
     0
  9
$DIMSOXD
 70
     0
  9
$DIMSAH
 70
     0
  9
$DIMBLK1
  1

  9
$DIMBLK2
  1

  9
$DIMSTYLE
  2
コピー - ISO-25
  9
$DIMCLRD
 70
   256
  9
$DIMCLRE
 70
   256
  9
$DIMCLRT
 70
   256
  9
$DIMTFAC
 40
1.0
  9
$DIMGAP
 40
2.299999999999998
  9
$DIMJUST
 70
     0
  9
$DIMSD1
 70
     0
  9
$DIMSD2
 70
     0
  9
$DIMTOLJ
 70
     1
  9
$DIMTZIN
 70
     8
  9
$DIMALTZ
 70
     0
  9
$DIMALTTZ
 70
     0
  9
$DIMUPT
 70
     0
  9
$DIMDEC
 70
     2
  9
$DIMTDEC
 70
     2
  9
$DIMALTU
 70
     2
  9
$DIMALTTD
 70
     2
  9
$DIMTXSTY
  7
simplex
  9
$DIMAUNIT
 70
     0
  9
$DIMADEC
 70
     0
  9
$DIMALTRND
 40
0.0
  9
$DIMAZIN
 70
     0
  9
$DIMDSEP
 70
    46
  9
$DIMATFIT
 70
     3
  9
$DIMFRAC
 70
     0
  9
$DIMLDRBLK
  1

  9
$DIMLUNIT
 70
     2
  9
$DIMLWD
 70
    -1
  9
$DIMLWE
 70
    -1
  9
$DIMTMOVE
 70
     0
  9
$LUNITS
 70
     2
  9
$LUPREC
 70
     4
  9
$SKETCHINC
 40
1.0
  9
$FILLETRAD
 40
0.8
  9
$AUNITS
 70
     0
  9
$AUPREC
 70
     0
  9
$MENU
  1
.
  9
$ELEVATION
 40
0.0
  9
$PELEVATION
 40
0.0
  9
$THICKNESS
 40
0.0
  9
$LIMCHECK
 70
     0
  9
$CHAMFERA
 40
10.0
  9
$CHAMFERB
 40
10.0
  9
$CHAMFERC
 40
20.0
  9
$CHAMFERD
 40
0.0
  9
$SKPOLY
 70
     0
  9
$TDCREATE
 40
2455489.391063368
  9
$TDUCREATE
 40
2455489.057730035
  9
$TDUPDATE
 40
2458948.454649305
  9
$TDUUPDATE
 40
2458948.121315972
  9
$TDINDWG
 40
2.588926944
  9
$TDUSRTIMER
 40
2.588874491
  9
$USRTIMER
 70
     1
  9
$ANGBASE
 50
0.0
  9
$ANGDIR
 70
     0
  9
$PDMODE
 70
     0
  9
$PDSIZE
 40
0.0
  9
$PLINEWID
 40
0.0
  9
$SPLFRAME
 70
     0
  9
$SPLINETYPE
 70
     6
  9
$SPLINESEGS
 70
     8
  9
$HANDSEED
  5
93052
  9
$SURFTAB1
 70
     6
  9
$SURFTAB2
 70
     6
  9
$SURFTYPE
 70
     6
  9
$SURFU
 70
     6
  9
$SURFV
 70
     6
  9
$UCSBASE
  2

  9
$UCSNAME
  2

  9
$UCSORG
 10
0.0
 20
0.0
 30
0.0
  9
$UCSXDIR
 10
1.0
 20
0.0
 30
0.0
  9
$UCSYDIR
 10
0.0
 20
1.0
 30
0.0
  9
$UCSORTHOREF
  2

  9
$UCSORTHOVIEW
 70
     0
  9
$UCSORGTOP
 10
0.0
 20
0.0
 30
0.0
  9
$UCSORGBOTTOM
 10
0.0
 20
0.0
 30
0.0
  9
$UCSORGLEFT
 10
0.0
 20
0.0
 30
0.0
  9
$UCSORGRIGHT
 10
0.0
 20
0.0
 30
0.0
  9
$UCSORGFRONT
 10
0.0
 20
0.0
 30
0.0
  9
$UCSORGBACK
 10
0.0
 20
0.0
 30
0.0
  9
$PUCSBASE
  2

  9
$PUCSNAME
  2

  9
$PUCSORG
 10
0.0
 20
0.0
 30
0.0
  9
$PUCSXDIR
 10
1.0
 20
0.0
 30
0.0
  9
$PUCSYDIR
 10
0.0
 20
1.0
 30
0.0
  9
$PUCSORTHOREF
  2

  9
$PUCSORTHOVIEW
 70
     0
  9
$PUCSORGTOP
 10
0.0
 20
0.0
 30
0.0
  9
$PUCSORGBOTTOM
 10
0.0
 20
0.0
 30
0.0
  9
$PUCSORGLEFT
 10
0.0
 20
0.0
 30
0.0
  9
$PUCSORGRIGHT
 10
0.0
 20
0.0
 30
0.0
  9
$PUCSORGFRONT
 10
0.0
 20
0.0
 30
0.0
  9
$PUCSORGBACK
 10
0.0
 20
0.0
 30
0.0
  9
$USERI1
 70
     0
  9
$USERI2
 70
     0
  9
$USERI3
 70
     0
  9
$USERI4
 70
     0
  9
$USERI5
 70
     0
  9
$USERR1
 40
0.0
  9
$USERR2
 40
0.0
  9
$USERR3
 40
0.0
  9
$USERR4
 40
0.0
  9
$USERR5
 40
0.0
  9
$WORLDVIEW
 70
     1
  9
$SHADEDGE
 70
     3
  9
$SHADEDIF
 70
    70
  9
$TILEMODE
 70
     1
  9
$MAXACTVP
 70
    64
  9
$PINSBASE
 10
0.0
 20
0.0
 30
0.0
  9
$PLIMCHECK
 70
     0
  9
$PEXTMIN
 10
26.66999878883364
 20
20.31999878883365
 30
0.0
  9
$PEXTMAX
 10
240.0299890995025
 20
182.8799890995025
 30
0.0
  9
$PLIMMIN
 10
-6.350006103515625
 20
-6.349999904632567
  9
$PLIMMAX
 10
273.0499877929688
 20
209.5499939918518
  9
$UNITMODE
 70
     0
  9
$VISRETAIN
 70
     1
  9
$PLINEGEN
 70
     0
  9
$PSLTSCALE
 70
     1
  9
$TREEDEPTH
 70
  3020
  9
$CMLSTYLE
  2
Standard
  9
$CMLJUST
 70
     0
  9
$CMLSCALE
 40
20.0
  9
$PROXYGRAPHICS
 70
     1
  9
$MEASUREMENT
 70
     1
  9
$CELWEIGHT
370
    -1
  9
$ENDCAPS
280
     0
  9
$JOINSTYLE
280
     0
  9
$LWDISPLAY
290
     0
  9
$INSUNITS
 70
     4
  9
$HYPERLINKBASE
  1

  9
$STYLESHEET
  1

  9
$XEDIT
290
     1
  9
$CEPSNTYPE
380
     0
  9
$PSTYLEMODE
290
     1
  9
$FINGERPRINTGUID
  2
{F7A71C39-2D68-4716-B14B-3D4DCE9EB4BE}
  9
$VERSIONGUID
  2
{19745927-22B3-499E-9C6A-C878801A2825}
  9
$EXTNAMES
290
     1
  9
$PSVPSCALE
 40
0.0
  9
$OLESTARTUP
290
     0
  0
ENDSEC
  0
SECTION
  2
CLASSES
  0
CLASS
  1
ACDBDICTIONARYWDFLT
  2
AcDbDictionaryWithDefault
  3
ObjectDBX Classes
 90
        0
280
     0
281
     0
  0
CLASS
  1
ACDBPLACEHOLDER
  2
AcDbPlaceHolder
  3
ObjectDBX Classes
 90
    32768
280
     0
281
     0
  0
CLASS
  1
LAYOUT
  2
AcDbLayout
  3
ObjectDBX Classes
 90
    32768
280
     0
281
     0
  0
CLASS
  1
DICTIONARYVAR
  2
AcDbDictionaryVar
  3
ObjectDBX Classes
 90
        0
280
     0
281
     0
  0
CLASS
  1
TABLESTYLE
  2
AcDbTableStyle
  3
ObjectDBX Classes
 90
     4095
280
     0
281
     0
  0
CLASS
  1
SORTENTSTABLE
  2
AcDbSortentsTable
  3
ObjectDBX Classes
 90
        0
280
     0
281
     0
  0
CLASS
  1
DIMASSOC
  2
AcDbDimAssoc
  3
"AcDbDimAssoc|Product Desc:     AcDim ARX App For Dimension|Company:          Autodesk, Inc.|WEB Address:      www.autodesk.com"
 90
        0
280
     0
281
     0
  0
CLASS
  1
ACAD_EVALUATION_GRAPH
  2
AcDbEvalGraph
  3
ObjectDBX Classes
 90
    33921
280
     0
281
     0
  0
CLASS
  1
ACAECUSTOBJ
  2
AcAeEditorObj
  3
AcAeEditorObj
 90
    33792
280
     0
281
     0
  0
CLASS
  1
ACDB_DYNAMICBLOCKPURGEPREVENTER_VERSION
  2
AcDbDynamicBlockPurgePreventer
  3
ObjectDBX Classes
 90
    33921
280
     0
281
     0
  0
CLASS
  1
MATERIAL
  2
AcDbMaterial
  3
ObjectDBX Classes
 90
     1153
280
     0
281
     0
  0
CLASS
  1
VISUALSTYLE
  2
AcDbVisualStyle
  3
ObjectDBX Classes
 90
     4095
280
     0
281
     0
  0
CLASS
  1
SCALE
  2
AcDbScale
  3
ObjectDBX Classes
 90
     1153
280
     0
281
     0
  0
CLASS
  1
MLEADERSTYLE
  2
AcDbMLeaderStyle
  3
ACDB_MLEADERSTYLE_CLASS
 90
     4095
280
     0
281
     0
  0
CLASS
  1
ACDBSECTIONVIEWSTYLE
  2
AcDbSectionViewStyle
  3
ObjectDBX Classes
 90
     1025
280
     0
281
     0
  0
CLASS
  1
ACDBDETAILVIEWSTYLE
  2
AcDbDetailViewStyle
  3
ObjectDBX Classes
 90
     1025
280
     0
281
     0
  0
CLASS
  1
CELLSTYLEMAP
  2
AcDbCellStyleMap
  3
ObjectDBX Classes
 90
     1152
280
     0
281
     0
  0
CLASS
  1
ACDBPLACEHOLDER
  2
AcDbPlaceHolder
  3
ObjectDBX Classes
 90
    32768
280
     0
281
     0
  0
CLASS
  1
LAYOUT
  2
AcDbLayout
  3
ObjectDBX Classes
 90
    32768
280
     0
281
     0
  0
CLASS
  1
ACDBPLACEHOLDER
  2
AcDbPlaceHolder
  3
ObjectDBX Classes
 90
    32768
280
     0
281
     0
  0
CLASS
  1
LAYOUT
  2
AcDbLayout
  3
ObjectDBX Classes
 90
    32768
280
     0
281
     0
  0
CLASS
  1
ACDBPLACEHOLDER
  2
AcDbPlaceHolder
  3
ObjectDBX Classes
 90
    32768
280
     0
281
     0
  0
CLASS
  1
LAYOUT
  2
AcDbLayout
  3
ObjectDBX Classes
 90
    32768
280
     0
281
     0
  0
CLASS
  1
ACDBPLACEHOLDER
  2
AcDbPlaceHolder
  3
ObjectDBX Classes
 90
    32768
280
     0
281
     0
  0
CLASS
  1
LAYOUT
  2
AcDbLayout
  3
ObjectDBX Classes
 90
    32768
280
     0
281
     0
  0
CLASS
  1
ACDBPLACEHOLDER
  2
AcDbPlaceHolder
  3
ObjectDBX Classes
 90
        0
280
     0
281
     0
  0
CLASS
  1
LAYOUT
  2
AcDbLayout
  3
ObjectDBX Classes
 90
        0
280
     0
281
     0
  0
ENDSEC
  0
SECTION
  2
TABLES
  0
TABLE
  2
VPORT
  5
8
102
{ACAD_XDICTIONARY
360
8C34E
102
}
330
0
100
AcDbSymbolTable
 70
     1
  0
VPORT
  5
4A360
330
8
100
AcDbSymbolTableRecord
100
AcDbViewportTableRecord
  2
*Active
 70
     0
 10
0.0
 20
0.0
 11
1.0
 21
1.0
 12
27.48466324660359
 22
17.77118901959861
 13
0.0
 23
0.0
 14
10.0
 24
10.0
 15
10.0
 25
10.0
 16
0.0
 26
0.0
 36
1.0
 17
0.0
 27
0.0
 37
0.0
 40
196.8939454819993
 41
1.705156950672646
 42
50.0
 43
0.0
 44
0.0
 50
0.0
 51
0.0
 71
     0
 72
  1000
 73
     1
 74
     1
 75
     0
 76
     0
 77
     0
 78
     0
281
     0
 65
     1
110
0.0
120
0.0
130
0.0
111
1.0
121
0.0
131
0.0
112
0.0
122
1.0
132
0.0
 79
     0
146
0.0
1001
ACAD_NAV_VCDISPLAY
1070
     3
  0
ENDTAB
  0
TABLE
  2
LTYPE
  5
5
330
0
100
AcDbSymbolTable
 70
     3
  0
LTYPE
  5
14
330
5
100
AcDbSymbolTableRecord
100
AcDbLinetypeTableRecord
  2
ByBlock
 70
     0
  3

 72
    65
 73
     0
 40
0.0
  0
LTYPE
  5
15
330
5
100
AcDbSymbolTableRecord
100
AcDbLinetypeTableRecord
  2
ByLayer
 70
     0
  3

 72
    65
 73
     0
 40
0.0
  0
LTYPE
  5
16
330
5
100
AcDbSymbolTableRecord
100
AcDbLinetypeTableRecord
  2
Continuous
 70
     0
  3
Solid line
 72
    65
 73
     0
 40
0.0
  0
LTYPE
  5
4A76E
330
5
100
AcDbSymbolTableRecord
100
AcDbLinetypeTableRecord
  2
CENTER2
 70
     0
  3
Center (.5x) ___ _ ___ _ ___ _ ___ _ ___ _ ___
 72
    65
 73
     4
 40
28.575
 49
19.05
 74
     0
 49
-3.174999999999998
 74
     0
 49
3.174999999999998
 74
     0
 49
-3.174999999999998
 74
     0
  0
LTYPE
  5
87B53
330
5
100
AcDbSymbolTableRecord
100
AcDbLinetypeTableRecord
  2
HIDDEN
 70
     0
  3
Hidden __ __ __ __ __ __ __ __ __ __ __ __ __ _
 72
    65
 73
     2
 40
9.524999999999996
 49
6.349999999999997
 74
     0
 49
-3.174999999999998
 74
     0
  0
ENDTAB
  0
TABLE
  2
LAYER
  5
2
102
{ACAD_XDICTIONARY
360
E2
102
}
330
0
100
AcDbSymbolTable
 70
    10
  0
LAYER
  5
10
102
{ACAD_XDICTIONARY
360
4A86C
102
}
330
2
100
AcDbSymbolTableRecord
100
AcDbLayerTableRecord
  2
0
 70
     0
 62
     7
  6
Continuous
370
    -3
390
F
  0
LAYER
  5
31B6
330
2
100
AcDbSymbolTableRecord
100
AcDbLayerTableRecord
  2
Defpoints
 70
     0
 62
     7
  6
Continuous
290
     0
370
    -3
390
F
  0
LAYER
  5
4A772
102
{ACAD_XDICTIONARY
360
4A773
102
}
330
2
100
AcDbSymbolTableRecord
100
AcDbLayerTableRecord
  2
1
 70
     0
 62
     4
  6
Continuous
370
    50
390
F
1001
AcAecLayerStandard
1000

1000
Contour
  0
LAYER
  5
4A774
102
{ACAD_XDICTIONARY
360
4A775
102
}
330
2
100
AcDbSymbolTableRecord
100
AcDbLayerTableRecord
  2
2
 70
     0
 62
     7
  6
Continuous
370
    25
390
F
1001
AcAecLayerStandard
1000

1000
Dimension milling
  0
LAYER
  5
4A776
102
{ACAD_XDICTIONARY
360
4A777
102
}
330
2
100
AcDbSymbolTableRecord
100
AcDbLayerTableRecord
  2
4
 70
     0
 62
     2
  6
CENTER2
370
    25
390
F
1001
AcAecLayerStandard
1000

1000
Center line
  0
LAYER
  5
4A778
102
{ACAD_XDICTIONARY
360
4A779
102
}
330
2
100
AcDbSymbolTableRecord
100
AcDbLayerTableRecord
  2
cut
 70
     0
 62
     1
  6
Continuous
370
    25
390
F
1001
AcAecLayerStandard
1000

1000
contour
  0
LAYER
  5
4A77A
102
{ACAD_XDICTIONARY
360
4A77B
102
}
330
2
100
AcDbSymbolTableRecord
100
AcDbLayerTableRecord
  2
nocut
 70
     0
 62
     7
  6
Continuous
370
    25
390
F
1001
AcAecLayerStandard
1000

1000
contour
  0
LAYER
  5
4A77E
102
{ACAD_XDICTIONARY
360
4A77F
102
}
330
2
100
AcDbSymbolTableRecord
100
AcDbLayerTableRecord
  2
sk2
 70
     0
 62
     7
  6
Continuous
370
    25
390
F
1001
AcAecLayerStandard
1000

1000
sk2 dimension
  0
LAYER
  5
4A782
102
{ACAD_XDICTIONARY
360
4A783
102
}
330
2
100
AcDbSymbolTableRecord
100
AcDbLayerTableRecord
  2
sk6
 70
     0
 62
     5
  6
Continuous
370
    35
390
F
1001
AcAecLayerStandard
1000

1000
sk6 text
  0
LAYER
  5
87B52
102
{ACAD_XDICTIONARY
360
8C34C
102
}
330
2
100
AcDbSymbolTableRecord
100
AcDbLayerTableRecord
  2
sk3
 70
     0
 62
     1
  6
HIDDEN
370
    35
390
F
1001
AcAecLayerStandard
1000

1000

  0
ENDTAB
  0
TABLE
  2
STYLE
  5
3
330
0
100
AcDbSymbolTable
 70
     2
  0
STYLE
  5
11
330
3
100
AcDbSymbolTableRecord
100
AcDbTextStyleTableRecord
  2
Standard
 70
     0
 40
0.0
 41
1.0
 50
0.0
 71
     0
 42
2.5
  3
txt.shx
  4
@extfont2.shx
  0
STYLE
  5
24A
330
3
100
AcDbSymbolTableRecord
100
AcDbTextStyleTableRecord
  2
simplex
 70
     0
 40
3.5
 41
1.0
 50
0.0
 71
     0
 42
3.5
  3
txt.shx
  4

  0
ENDTAB
  0
TABLE
  2
VIEW
  5
6
330
0
100
AcDbSymbolTable
 70
     0
  0
ENDTAB
  0
TABLE
  2
UCS
  5
7
330
0
100
AcDbSymbolTable
 70
     0
  0
ENDTAB
  0
TABLE
  2
APPID
  5
9
330
0
100
AcDbSymbolTable
 70
    31
  0
APPID
  5
12
330
9
100
AcDbSymbolTableRecord
100
AcDbRegAppTableRecord
  2
ACAD
 70
     0
  0
APPID
  5
D2
330
9
100
AcDbSymbolTableRecord
100
AcDbRegAppTableRecord
  2
AcAecLayerStandard
 70
     0
  0
APPID
  5
E6
330
9
100
AcDbSymbolTableRecord
100
AcDbRegAppTableRecord
  2
ACAD_DSTYLE_DIMTEXT_FILL
 70
     0
  0
APPID
  5
4C84
330
9
100
AcDbSymbolTableRecord
100
AcDbRegAppTableRecord
  2
ACAD_EXEMPT_FROM_CAD_STANDARDS
 70
     0
  0
APPID
  5
3493E
330
9
100
AcDbSymbolTableRecord
100
AcDbRegAppTableRecord
  2
DCO15
 70
     0
  0
APPID
  5
3BAB0
330
9
100
AcDbSymbolTableRecord
100
AcDbRegAppTableRecord
  2
ACAD_DSTYLE_DIMEXT_ENABLED
 70
     0
  0
APPID
  5
3BAB1
330
9
100
AcDbSymbolTableRecord
100
AcDbRegAppTableRecord
  2
ACAD_DSTYLE_DIMEXT_LENGTH
 70
     0
  0
APPID
  5
3BEB4
330
9
100
AcDbSymbolTableRecord
100
AcDbRegAppTableRecord
  2
ACAUTHENVIRON
 70
     0
  0
APPID
  5
3BEB7
330
9
100
AcDbSymbolTableRecord
100
AcDbRegAppTableRecord
  2
AcDbDynamicBlockTrueName
 70
     0
  0
APPID
  5
3BEB8
330
9
100
AcDbSymbolTableRecord
100
AcDbRegAppTableRecord
  2
AcDbDynamicBlockGUID
 70
     0
  0
APPID
  5
3BEBA
330
9
100
AcDbSymbolTableRecord
100
AcDbRegAppTableRecord
  2
AcDbBlockRepETag
 70
     0
  0
APPID
  5
4A453
330
9
100
AcDbSymbolTableRecord
100
AcDbRegAppTableRecord
  2
ACAD_PSEXT
 70
     0
  0
APPID
  5
4A454
330
9
100
AcDbSymbolTableRecord
100
AcDbRegAppTableRecord
  2
AcadAnnotative
 70
     0
  0
APPID
  5
4A455
330
9
100
AcDbSymbolTableRecord
100
AcDbRegAppTableRecord
  2
ACAD_DSTYLE_DIMJAG
 70
     0
  0
APPID
  5
4A456
330
9
100
AcDbSymbolTableRecord
100
AcDbRegAppTableRecord
  2
ACAD_DSTYLE_DIMTALN
 70
     0
  0
APPID
  5
4A457
330
9
100
AcDbSymbolTableRecord
100
AcDbRegAppTableRecord
  2
ACAD_NAV_VCDISPLAY
 70
     0
  0
APPID
  5
4A787
330
9
100
AcDbSymbolTableRecord
100
AcDbRegAppTableRecord
  2
ACAD_DSTYLE_DIMINSPECT
 70
     0
  0
APPID
  5
4A788
330
9
100
AcDbSymbolTableRecord
100
AcDbRegAppTableRecord
  2
GENIUS_GENDTOL_13
 70
     0
  0
APPID
  5
4A789
330
9
100
AcDbSymbolTableRecord
100
AcDbRegAppTableRecord
  2
ZWMCAD_GENSTANDARDFRAME_13_
 70
     0
  0
APPID
  5
4A78A
330
9
100
AcDbSymbolTableRecord
100
AcDbRegAppTableRecord
  2
ZW_RECESS_XDATA
 70
     0
  0
APPID
  5
4A78B
330
9
100
AcDbSymbolTableRecord
100
AcDbRegAppTableRecord
  2
ZW_FAC_XDATA
 70
     0
  0
APPID
  5
4A78C
330
9
100
AcDbSymbolTableRecord
100
AcDbRegAppTableRecord
  2
ZW_FLC_XDATA
 70
     0
  0
APPID
  5
4A78D
330
9
100
AcDbSymbolTableRecord
100
AcDbRegAppTableRecord
  2
ZW_SUPERPART
 70
     0
  0
APPID
  5
4A78E
330
9
100
AcDbSymbolTableRecord
100
AcDbRegAppTableRecord
  2
ZW_SUPERSYMBOL
 70
     0
  0
APPID
  5
4A78F
330
9
100
AcDbSymbolTableRecord
100
AcDbRegAppTableRecord
  2
ZW_SUPERSHAFT
 70
     0
  0
APPID
  5
4A790
330
9
100
AcDbSymbolTableRecord
100
AcDbRegAppTableRecord
  2
ZWMCAD_GENFRAME_13_
 70
     0
  0
APPID
  5
4A791
330
9
100
AcDbSymbolTableRecord
100
AcDbRegAppTableRecord
  2
ACAD_MLEADERVER
 70
     0
  0
APPID
  5
4A792
330
9
100
AcDbSymbolTableRecord
100
AcDbRegAppTableRecord
  2
ACAD_DSTYLE_DIMRADIAL_EXTENSION
 70
     0
  0
APPID
  5
885F1
330
9
100
AcDbSymbolTableRecord
100
AcDbRegAppTableRecord
  2
ZWMCAD_GENSCA_13_
 70
     0
  0
APPID
  5
885EF
330
9
100
AcDbSymbolTableRecord
100
AcDbRegAppTableRecord
  2
ACAD_DSTYLE_DIMRADIAL_EXTE
 70
     0
  0
APPID
  5
885EE
330
9
100
AcDbSymbolTableRecord
100
AcDbRegAppTableRecord
  2
ZWMCAD_GENSTANDARDFRAME_13
 70
     0
  0
ENDTAB
  0
TABLE
  2
DIMSTYLE
  5
A
330
0
100
AcDbSymbolTable
 70
     2
100
AcDbDimStyleTable
 71
    21
340
1BF
340
3527
340
90771
340
907A6
340
907AC
340
907B1
340
907B7
340
919EE
340
919F4
340
919F9
340
919FF
340
91A04
340
91A0A
340
91A0F
340
91A15
340
91A1A
340
91A20
340
91A25
340
91A2B
340
91A30
340
91A36
  0
DIMSTYLE
105
1BF
102
{ACAD_REACTORS
330
92A8C
330
92A9C
330
92A98
330
92A92
330
92A95
330
92A8F
330
92FC0
102
}
330
A
100
AcDbSymbolTableRecord
100
AcDbDimStyleTableRecord
  2
コピー - ISO-25
 70
     0
 40
0.0
 41
3.5
 42
0.0
 44
1.5
 73
     0
 74
     0
 77
     1
 78
     8
140
3.5
147
2.299999999999998
176
   256
177
   256
271
     2
178
   256
271
     2
272
     2
284
     8
340
24A
371
    -1
372
    -1
  0
DIMSTYLE
105
3527
330
A
100
AcDbSymbolTableRecord
100
AcDbDimStyleTableRecord
  2
STANDARD
 70
     0
 41
3.0
 47
0.001
 48
0.001
 71
     1
 73
     0
 74
     0
 77
     1
 78
     8
140
4.0
271
     3
272
     3
284
     8
340
11
341
34B1
342
34B1
343
34B1
344
34B1
  0
ENDTAB
  0
TABLE
  2
BLOCK_RECORD
  5
1
330
0
100
AcDbSymbolTable
 70
    11
  0
BLOCK_RECORD
  5
1F
102
{ACAD_XDICTIONARY
360
31EE
102
}
330
1
100
AcDbSymbolTableRecord
100
AcDbBlockTableRecord
  2
*Model_Space
340
22
  0
BLOCK_RECORD
  5
55
330
1
100
AcDbSymbolTableRecord
100
AcDbBlockTableRecord
  2
*Paper_Space
340
56
  0
BLOCK_RECORD
  5
50
330
1
100
AcDbSymbolTableRecord
100
AcDbBlockTableRecord
  2
*Paper_Space000000
340
51
  0
BLOCK_RECORD
  5
34B1
330
1
100
AcDbSymbolTableRecord
100
AcDbBlockTableRecord
  2
_OPEN
340
0
  0
BLOCK_RECORD
  5
4A6D6
102
{ACAD_XDICTIONARY
360
4A6D7
102
}
330
1
100
AcDbSymbolTableRecord
100
AcDbBlockTableRecord
  2
zero block
340
0
102
{BLKREFS
331
87B7F
331
87D7D
331
90190
331
903FC
331
90821
331
90A84
331
90E49
331
910AD
331
91473
331
916B3
331
91AA1
331
91CE2
331
92098
331
922DA
331
9267F
331
928BF
331
92B61
331
8FB3B
331
8FDCA
331
8BD57
331
8BFE6
331
4A793
331
880DD
331
882D3
102
}
1001
AcDbDynamicBlockGUID
1000
{A89DF4EB-B2CB-439E-AC69-1EAC9F242D1C}
1001
AcDbBlockRepETag
1070
     1
1071
        7
1001
ACAD
1000
DesignCenter Data
1002
{
1070
     1
1070
     4
1002
}
  0
BLOCK_RECORD
  5
87D73
330
1
100
AcDbSymbolTableRecord
100
AcDbBlockTableRecord
  2
_None
340
0
102
{BLKREFS
331
87D72
331
87F63
331
9002A
331
9006F
331
900CE
331
90117
331
903C3
331
9062B
331
90673
331
906DD
331
90724
331
909A6
331
90CA0
331
90CEB
331
90D5B
331
90DBF
331
90FCE
331
912CA
331
91315
331
9135A
331
913E9
331
915B9
331
91895
331
918E5
331
91966
331
91989
331
91BE7
331
91EC5
331
91F15
331
91F6B
331
91FFC
331
921DE
331
924BE
331
9250E
331
9258F
331
925B2
331
9289C
331
92AD1
331
92B15
331
92D7E
331
92E18
331
92E5F
331
92EA7
331
8FA29
331
8FA4D
331
8FAA7
331
8FD00
331
8BC93
331
8BCED
331
8BF27
331
8DEC1
331
8A12B
331
8C250
331
8C292
331
8C2BE
331
8C2FE
331
8C332
331
87FA2
331
87FBD
331
87FC5
331
88042
331
88238
331
884B1
331
884F0
331
88512
331
885AA
102
}
  0
BLOCK_RECORD
  5
92A9D
330
1
100
AcDbSymbolTableRecord
100
AcDbBlockTableRecord
  2
*D11644
340
0
  0
BLOCK_RECORD
  5
92AA9
330
1
100
AcDbSymbolTableRecord
100
AcDbBlockTableRecord
  2
*D11755
340
0
  0
BLOCK_RECORD
  5
92AB5
330
1
100
AcDbSymbolTableRecord
100
AcDbBlockTableRecord
  2
*D11866
340
0
  0
BLOCK_RECORD
  5
92AC1
330
1
100
AcDbSymbolTableRecord
100
AcDbBlockTableRecord
  2
*D11977
340
0
  0
BLOCK_RECORD
  5
92ACD
330
1
100
AcDbSymbolTableRecord
100
AcDbBlockTableRecord
  2
*D12088
340
0
  0
BLOCK_RECORD
  5
92AE2
330
1
100
AcDbSymbolTableRecord
100
AcDbBlockTableRecord
  2
*D122109
340
0
  0
BLOCK_RECORD
  5
92FC1
330
1
100
AcDbSymbolTableRecord
100
AcDbBlockTableRecord
  2
*D1310
340
0
  0
ENDTAB
  0
ENDSEC
  0
SECTION
  2
BLOCKS
  0
BLOCK
  5
20
330
1F
100
AcDbEntity
  8
0
100
AcDbBlockBegin
  2
*Model_Space
 70
     0
 10
0.0
 20
0.0
 30
0.0
  3
*Model_Space
  1

  0
ENDBLK
  5
21
330
1F
100
AcDbEntity
  8
0
100
AcDbBlockEnd
  0
BLOCK
  5
57
330
55
100
AcDbEntity
 67
     1
  8
0
100
AcDbBlockBegin
  2
*Paper_Space
 70
     0
 10
0.0
 20
0.0
 30
0.0
  3
*Paper_Space
  1

  0
ENDBLK
  5
58
330
55
100
AcDbEntity
 67
     1
  8
0
100
AcDbBlockEnd
  0
BLOCK
  5
52
330
50
100
AcDbEntity
  8
0
100
AcDbBlockBegin
  2
*Paper_Space000000
 70
     0
 10
0.0
 20
0.0
 30
0.0
  3
*Paper_Space000000
  1

  0
VIEWPORT
  5
6B
102
{ACAD_XDICTIONARY
360
87B05
102
}
330
50
100
AcDbEntity
  8
0
100
AcDbViewport
 10
264.3775031494645
 20
160.4455827878762
 30
0.0
 40
567.6219612953822
 41
282.2272140146125
 68
     1
 69
    -1
 12
264.3775031494645
 22
160.4455827878762
 13
0.0
 23
0.0
 14
10.0
 24
10.0
 15
10.0
 25
10.0
 16
0.0
 26
0.0
 36
1.0
 17
0.0
 27
0.0
 37
0.0
 42
50.0
 43
0.0
 44
0.0
 45
282.2272140146125
 50
0.0
 51
0.0
 72
  1000
 90
    32864
  1

281
     0
 71
     1
 74
     0
110
0.0
120
0.0
130
0.0
111
1.0
121
0.0
131
0.0
112
0.0
122
1.0
132
0.0
 79
     0
146
0.0
1001
ACAD
1000
MVIEW
1002
{
1070
    16
1010
0.0
1020
0.0
1030
0.0
1010
0.0
1020
0.0
1030
1.0
1040
0.0
1040
282.2272140146125
1040
264.3775031494645
1040
160.4455827878762
1040
50.0
1040
0.0
1040
0.0
1070
     0
1070
  1000
1070
     0
1070
     3
1070
     0
1070
     0
1070
     0
1070
     0
1040
0.0
1040
0.0
1040
0.0
1040
10.0
1040
10.0
1040
10.0
1040
10.0
1070
     0
1002
{
1002
}
1002
}
  0
VIEWPORT
  5
6D
102
{ACAD_XDICTIONARY
360
87B07
102
}
330
50
100
AcDbEntity
  8
0
100
AcDbViewport
 10
133.3499939441681
 20
101.5999939441681
 30
0.0
 40
213.3599903106689
 41
162.5599903106689
 68
     2
 69
    -1
 12
210.0
 22
148.5
 13
0.0
 23
0.0
 14
10.0
 24
10.0
 15
10.0
 25
10.0
 16
0.0
 26
0.0
 36
1.0
 17
0.0
 27
0.0
 37
0.0
 42
50.0
 43
0.0
 44
0.0
 45
324.0677920111345
 50
0.0
 51
0.0
 72
   100
 90
    32864
  1

281
     0
 71
     1
 74
     0
110
0.0
120
0.0
130
0.0
111
1.0
121
0.0
131
0.0
112
0.0
122
1.0
132
0.0
 79
     0
146
0.0
1001
ACAD
1000
MVIEW
1002
{
1070
    16
1010
0.0
1020
0.0
1030
0.0
1010
0.0
1020
0.0
1030
1.0
1040
0.0
1040
324.0677920111345
1040
210.0
1040
148.5
1040
50.0
1040
0.0
1040
0.0
1070
     0
1070
   100
1070
     0
1070
     3
1070
     0
1070
     0
1070
     0
1070
     0
1040
0.0
1040
0.0
1040
0.0
1040
10.0
1040
10.0
1040
10.0
1040
10.0
1070
     0
1002
{
1002
}
1002
}
  0
ENDBLK
  5
53
330
50
100
AcDbEntity
  8
0
100
AcDbBlockEnd
  0
BLOCK
  5
34B2
330
34B1
100
AcDbEntity
  8
0
100
AcDbBlockBegin
  2
_OPEN
 70
     0
 10
0.0
 20
0.0
 30
0.0
  3
_OPEN
  1

  0
LINE
  5
34B3
330
34B1
100
AcDbEntity
  8
0
  6
ByBlock
 62
     0
100
AcDbLine
 10
0.0
 20
0.0
 30
0.0
 11
-1.0
 21
0.1766666667
 31
0.0
  0
LINE
  5
34B4
330
34B1
100
AcDbEntity
  8
0
  6
ByBlock
 62
     0
100
AcDbLine
 10
-1.0
 20
-0.1766666667
 30
0.0
 11
0.0
 21
0.0
 31
0.0
  0
LINE
  5
34B5
330
34B1
100
AcDbEntity
  8
0
  6
ByBlock
 62
     0
100
AcDbLine
 10
-1.0
 20
0.0
 30
0.0
 11
0.0
 21
0.0
 31
0.0
  0
ENDBLK
  5
34B6
330
34B1
100
AcDbEntity
  8
0
  6
ByBlock
 62
     0
100
AcDbBlockEnd
  0
BLOCK
  5
4A6D9
330
4A6D6
100
AcDbEntity
  8
0
100
AcDbBlockBegin
  2
zero block
 70
     0
 10
0.0
 20
0.0
 30
0.0
  3
zero block
  1

  0
HATCH
  5
4A6DA
330
4A6D6
100
AcDbEntity
  8
0
 62
     7
100
AcDbHatch
 10
0.0
 20
0.0
 30
0.0
210
0.0
220
0.0
230
1.0
  2
SOLID
 70
     1
 71
     0
 91
        2
 92
        7
 72
     1
 73
     1
 93
        3
 10
0.0
 20
0.9999999999999875
 42
0.4142135623730915
 10
-1.0
 20
0.0
 42
0.0
 10
0.0
 20
0.0
 42
0.0
 97
        0
 92
        7
 72
     1
 73
     1
 93
        3
 10
1.000000000000007
 20
0.0
 42
0.0
 10
0.0
 20
0.0
 42
0.0
 10
0.0
 20
-1.0
 42
0.4142135623730974
 97
        0
 75
     0
 76
     1
 47
0.0090601366782909
 98
        2
 10
-0.380591363650975
 20
0.4885804701532896
 10
0.4350764810977559
 20
-0.4536738423704725
1001
AcDbBlockRepETag
1070
     1
1071
        0
1005
4A6DA
  0
LINE
  5
4A6DB
330
4A6D6
100
AcDbEntity
  8
0
 62
     7
 48
0.2
100
AcDbLine
 10
-1.0
 20
0.0
 30
0.0
 11
1.000000000000007
 21
0.0
 31
0.0
1001
AcDbBlockRepETag
1070
     1
1071
        1
1005
4A6DB
  0
LINE
  5
4A6DC
330
4A6D6
100
AcDbEntity
  8
0
 62
     7
 48
0.2
100
AcDbLine
 10
0.0
 20
-1.0
 30
0.0
 11
0.0
 21
0.9999999999999875
 31
0.0
1001
AcDbBlockRepETag
1070
     1
1071
        2
1005
4A6DC
  0
ARC
  5
4A6DD
330
4A6D6
100
AcDbEntity
  8
0
 62
     7
 48
0.2
100
AcDbCircle
 10
0.0
 20
0.0
 30
0.0
 40
1.0
100
AcDbArc
 50
270.0
 51
0.0
1001
AcDbBlockRepETag
1070
     1
1071
        3
1005
4A6DD
  0
ARC
  5
4A6DE
330
4A6D6
100
AcDbEntity
  8
0
 62
     7
 48
0.2
100
AcDbCircle
 10
0.0
 20
0.0
 30
0.0
 40
1.0
100
AcDbArc
 50
0.0
 51
90.0
1001
AcDbBlockRepETag
1070
     1
1071
        4
1005
4A6DE
  0
ARC
  5
4A6DF
330
4A6D6
100
AcDbEntity
  8
0
 62
     7
 48
0.2
100
AcDbCircle
 10
0.0
 20
0.0
 30
0.0
 40
1.0
100
AcDbArc
 50
180.0
 51
270.0
1001
AcDbBlockRepETag
1070
     1
1071
        5
1005
4A6DF
  0
ARC
  5
4A6E0
330
4A6D6
100
AcDbEntity
  8
0
 62
     7
 48
0.2
100
AcDbCircle
 10
0.0
 20
0.0
 30
0.0
 40
1.0
100
AcDbArc
 50
90.0
 51
180.0
1001
AcDbBlockRepETag
1070
     1
1071
        6
1005
4A6E0
  0
ENDBLK
  5
4A6E1
330
4A6D6
100
AcDbEntity
  8
0
100
AcDbBlockEnd
  0
BLOCK
  5
87D74
330
87D73
100
AcDbEntity
  8
0
100
AcDbBlockBegin
  2
_None
 70
     0
 10
0.0
 20
0.0
 30
0.0
  3
_None
  1

  0
ENDBLK
  5
87D75
330
87D73
100
AcDbEntity
  8
0
100
AcDbBlockEnd
  0
BLOCK
  5
92AA7
330
92A9D
100
AcDbEntity
  8
0
100
AcDbBlockBegin
  2
*D11644
 70
     1
 10
0.0
 20
0.0
 30
0.0
  3
*D11644
  1

  0
LINE
  5
9301D
330
92A9D
100
AcDbEntity
  8
2
100
AcDbLine
 10
0.0
 20
46.41899999889999
 30
0.0
 11
0.0
 21
91.75954955284298
 31
0.0
  0
LINE
  5
9301E
330
92A9D
100
AcDbEntity
  8
2
100
AcDbLine
 10
63.50000000000001
 20
62.6999999989
 30
0.0
 11
63.50000000000001
 21
91.75954955284298
 31
0.0
  0
LINE
  5
9301F
330
92A9D
100
AcDbEntity
  8
2
100
AcDbLine
 10
3.5
 20
90.25954955284298
 30
0.0
 11
60.00000000000001
 21
90.25954955284298
 31
0.0
  0
SOLID
  5
93020
330
92A9D
100
AcDbEntity
  8
2
100
AcDbTrace
 10
3.5
 20
90.84288288617631
 30
0.0
 11
3.5
 21
89.67621621950966
 31
0.0
 12
0.0
 22
90.25954955284298
 32
0.0
 13
0.0
 23
90.25954955284298
 33
0.0
  0
SOLID
  5
93021
330
92A9D
100
AcDbEntity
  8
2
100
AcDbTrace
 10
60.00000000000001
 20
89.67621621950966
 30
0.0
 11
60.00000000000001
 21
90.84288288617631
 31
0.0
 12
63.50000000000001
 22
90.25954955284298
 32
0.0
 13
63.50000000000001
 23
90.25954955284298
 33
0.0
  0
MTEXT
  5
93022
330
92A9D
100
AcDbEntity
  8
2
100
AcDbMText
 10
31.75000000000001
 20
94.30954955284297
 30
0.0
 40
3.5
 41
0.0
 71
     5
 72
     1
  1
\A1;63.5 [2.500"]
  7
simplex
 73
     1
 44
1.0
1001
ACAD
1000
MTEXTBEGIN
1070
    73
1070
     1
1070
    44
1040
1.0
1070
    74
1070
     0
1000
MTEXTEND
  0
POINT
  5
93023
330
92A9D
100
AcDbEntity
  8
Defpoints
 62
     0
100
AcDbPoint
 10
0.0
 20
46.41899999889999
 30
0.0
  0
POINT
  5
93024
330
92A9D
100
AcDbEntity
  8
Defpoints
 62
     0
100
AcDbPoint
 10
63.50000000000001
 20
62.6999999989
 30
0.0
  0
POINT
  5
93025
330
92A9D
100
AcDbEntity
  8
Defpoints
 62
     0
100
AcDbPoint
 10
63.50000000000001
 20
90.25954955284298
 30
0.0
  0
ENDBLK
  5
92AA8
330
92A9D
100
AcDbEntity
  8
0
100
AcDbBlockEnd
  0
BLOCK
  5
92AB3
330
92AA9
100
AcDbEntity
  8
0
100
AcDbBlockBegin
  2
*D11755
 70
     1
 10
0.0
 20
0.0
 30
0.0
  3
*D11755
  1

  0
LINE
  5
92E41
330
92AA9
100
AcDbEntity
  8
sk2
100
AcDbLine
 10
0.0
 20
-46.41896180840001
 30
0.0
 11
0.0
 21
-81.58404088002523
 31
0.0
  0
LINE
  5
92E42
330
92AA9
100
AcDbEntity
  8
sk2
100
AcDbLine
 10
42.0
 20
-26.99996180620002
 30
0.0
 11
42.0
 21
-81.58404088002523
 31
0.0
  0
LINE
  5
92E43
330
92AA9
100
AcDbEntity
  8
sk2
100
AcDbLine
 10
3.5
 20
-80.08404088002523
 30
0.0
 11
38.5
 21
-80.08404088002523
 31
0.0
  0
SOLID
  5
92E44
330
92AA9
100
AcDbEntity
  8
sk2
100
AcDbTrace
 10
3.5
 20
-79.5007075466919
 30
0.0
 11
3.5
 21
-80.66737421335856
 31
0.0
 12
0.0
 22
-80.08404088002523
 32
0.0
 13
0.0
 23
-80.08404088002523
 33
0.0
  0
SOLID
  5
92E45
330
92AA9
100
AcDbEntity
  8
sk2
100
AcDbTrace
 10
38.5
 20
-80.66737421335856
 30
0.0
 11
38.5
 21
-79.5007075466919
 31
0.0
 12
42.0
 22
-80.08404088002523
 32
0.0
 13
42.0
 23
-80.08404088002523
 33
0.0
  0
MTEXT
  5
92E46
330
92AA9
100
AcDbEntity
  8
sk2
100
AcDbMText
 10
21.0
 20
-76.03404088002523
 30
0.0
 40
3.5
 41
0.0
 71
     5
 72
     1
  1
\A1;42 [1.654"]
  7
simplex
 73
     1
 44
1.0
1001
ACAD
1000
MTEXTBEGIN
1070
    73
1070
     1
1070
    44
1040
1.0
1070
    74
1070
     0
1000
MTEXTEND
  0
POINT
  5
92E47
330
92AA9
100
AcDbEntity
  8
Defpoints
 62
     0
100
AcDbPoint
 10
0.0
 20
-46.41896180840001
 30
0.0
  0
POINT
  5
92E48
330
92AA9
100
AcDbEntity
  8
Defpoints
 62
     0
100
AcDbPoint
 10
42.0
 20
-26.99996180620002
 30
0.0
  0
POINT
  5
92E49
330
92AA9
100
AcDbEntity
  8
Defpoints
 62
     0
100
AcDbPoint
 10
42.0
 20
-80.08404088002523
 30
0.0
  0
ENDBLK
  5
92AB4
330
92AA9
100
AcDbEntity
  8
0
100
AcDbBlockEnd
  0
BLOCK
  5
92ABF
330
92AB5
100
AcDbEntity
  8
0
100
AcDbBlockBegin
  2
*D11866
 70
     1
 10
0.0
 20
0.0
 30
0.0
  3
*D11866
  1

  0
LINE
  5
92E4A
330
92AB5
100
AcDbEntity
  8
sk2
100
AcDbLine
 10
8.0
 20
19.05003819160002
 30
0.0
 11
-11.6095496897193
 21
19.05003819160002
 31
0.0
  0
LINE
  5
92E4B
330
92AB5
100
AcDbEntity
  8
sk2
100
AcDbLine
 10
8.0
 20
-19.0499618062
 30
0.0
 11
-11.6095496897193
 21
-19.0499618062
 31
0.0
  0
LINE
  5
92E4C
330
92AB5
100
AcDbEntity
  8
sk2
100
AcDbLine
 10
-10.1095496897193
 20
15.55003819160002
 30
0.0
 11
-10.1095496897193
 21
-15.5499618062
 31
0.0
  0
SOLID
  5
92E4D
330
92AB5
100
AcDbEntity
  8
sk2
100
AcDbTrace
 10
-9.526216356385962
 20
15.55003819160002
 30
0.0
 11
-10.69288302305263
 21
15.55003819160002
 31
0.0
 12
-10.1095496897193
 22
19.05003819160002
 32
0.0
 13
-10.1095496897193
 23
19.05003819160002
 33
0.0
  0
SOLID
  5
92E4E
330
92AB5
100
AcDbEntity
  8
sk2
100
AcDbTrace
 10
-10.69288302305263
 20
-15.5499618062
 30
0.0
 11
-9.526216356385962
 21
-15.5499618062
 31
0.0
 12
-10.1095496897193
 22
-19.0499618062
 32
0.0
 13
-10.1095496897193
 23
-19.0499618062
 33
0.0
  0
MTEXT
  5
92E4F
330
92AB5
100
AcDbEntity
  8
sk2
100
AcDbMText
 10
-14.1595496897193
 20
0.8613675503907812
 30
0.0
 40
3.5
 41
0.0
 71
     5
 72
     1
  1
\A1;%%C38.1 [%%c1.500"]
  7
simplex
 11
0.0
 21
1.0
 31
0.0
 73
     1
 44
1.0
1001
ACAD
1000
MTEXTBEGIN
1070
    73
1070
     1
1070
    44
1040
1.0
1070
    74
1070
     0
1000
MTEXTEND
  0
POINT
  5
92E50
330
92AB5
100
AcDbEntity
  8
Defpoints
 62
     0
100
AcDbPoint
 10
8.0
 20
19.05003819160002
 30
0.0
  0
POINT
  5
92E51
330
92AB5
100
AcDbEntity
  8
Defpoints
 62
     0
100
AcDbPoint
 10
8.0
 20
-19.0499618062
 30
0.0
  0
POINT
  5
92E52
330
92AB5
100
AcDbEntity
  8
Defpoints
 62
     0
100
AcDbPoint
 10
-10.1095496897193
 20
-19.0499618062
 30
0.0
  0
ENDBLK
  5
92AC0
330
92AB5
100
AcDbEntity
  8
0
100
AcDbBlockEnd
  0
BLOCK
  5
92ACB
330
92AC1
100
AcDbEntity
  8
0
100
AcDbBlockBegin
  2
*D11977
 70
     1
 10
0.0
 20
0.0
 30
0.0
  3
*D11977
  1

  0
LINE
  5
92E53
330
92AC1
100
AcDbEntity
  8
sk2
100
AcDbLine
 10
2.0
 20
48.41903819159998
 30
0.0
 11
-22.40827197655644
 21
48.41903819159998
 31
0.0
  0
LINE
  5
92E54
330
92AC1
100
AcDbEntity
  8
sk2
100
AcDbLine
 10
2.0
 20
-48.41896180840001
 30
0.0
 11
-22.40827197655645
 21
-48.41896180840001
 31
0.0
  0
LINE
  5
92E55
330
92AC1
100
AcDbEntity
  8
sk2
100
AcDbLine
 10
-20.90827197655644
 20
44.9190381916
 30
0.0
 11
-20.90827197655645
 21
-44.91896180840001
 31
0.0
  0
SOLID
  5
92E56
330
92AC1
100
AcDbEntity
  8
sk2
100
AcDbTrace
 10
-20.32493864322311
 20
44.9190381916
 30
0.0
 11
-21.49160530988977
 21
44.9190381916
 31
0.0
 12
-20.90827197655644
 22
48.41903819159998
 32
0.0
 13
-20.90827197655644
 23
48.41903819159998
 33
0.0
  0
SOLID
  5
92E57
330
92AC1
100
AcDbEntity
  8
sk2
100
AcDbTrace
 10
-21.49160530988978
 20
-44.91896180840001
 30
0.0
 11
-20.32493864322312
 21
-44.91896180840001
 31
0.0
 12
-20.90827197655645
 22
-48.41896180840001
 32
0.0
 13
-20.90827197655645
 23
-48.41896180840001
 33
0.0
  0
MTEXT
  5
92E58
330
92AC1
100
AcDbEntity
  8
sk2
100
AcDbMText
 10
-24.95827197655644
 20
0.0000381915999913
 30
0.0
 40
3.5
 41
0.0
 71
     5
 72
     1
  1
\A1;%%C96.838 [%%c3.813"]
  7
simplex
 11
0.0000000000000001
 21
1.0
 31
0.0
 73
     1
 44
1.0
1001
ACAD
1000
MTEXTBEGIN
1070
    73
1070
     1
1070
    44
1040
1.0
1070
    74
1070
     0
1000
MTEXTEND
  0
POINT
  5
92E59
330
92AC1
100
AcDbEntity
  8
Defpoints
 62
     0
100
AcDbPoint
 10
2.0
 20
48.41903819159998
 30
0.0
  0
POINT
  5
92E5A
330
92AC1
100
AcDbEntity
  8
Defpoints
 62
     0
100
AcDbPoint
 10
2.0
 20
-48.41896180840001
 30
0.0
  0
POINT
  5
92E5B
330
92AC1
100
AcDbEntity
  8
Defpoints
 62
     0
100
AcDbPoint
 10
-20.90827197655645
 20
-48.41896180840001
 30
0.0
  0
ENDBLK
  5
92ACC
330
92AC1
100
AcDbEntity
  8
0
100
AcDbBlockEnd
  0
BLOCK
  5
92AD6
330
92ACD
100
AcDbEntity
  8
0
100
AcDbBlockBegin
  2
*D12088
 70
     1
 10
0.0
 20
0.0
 30
0.0
  3
*D12088
  1

  0
LINE
  5
92EA4
330
92ACD
100
AcDbEntity
  8
2
100
AcDbLine
 10
62.69999999999999
 20
63.4999999989
 30
0.0
 11
91.66787328498442
 21
63.4999999989
 31
0.0
  0
LINE
  5
92EA5
330
92ACD
100
AcDbEntity
  8
2
100
AcDbLine
 10
90.16787328498439
 20
59.9999999989
 30
0.0
 11
90.16787328498439
 21
-63.49999999890002
 31
0.0
  0
SOLID
  5
92EA6
330
92ACD
100
AcDbEntity
  8
2
100
AcDbTrace
 10
90.75120661831773
 20
59.9999999989
 30
0.0
 11
89.58453995165108
 21
59.9999999989
 31
0.0
 12
90.16787328498439
 22
63.4999999989
 32
0.0
 13
90.16787328498439
 23
63.4999999989
 33
0.0
  0
INSERT
  5
92EA7
330
92ACD
100
AcDbEntity
  8
2
100
AcDbBlockReference
  2
_None
 10
90.16787328498439
 20
-63.49999999890002
 30
0.0
 41
3.5
 42
3.5
 43
3.5
 50
270.0
  0
MTEXT
  5
92EA8
330
92ACD
100
AcDbEntity
  8
2
100
AcDbMText
 10
86.11787328498442
 20
-1.75000000000001
 30
0.0
 40
3.5
 41
0.0
 71
     5
 72
     1
  1
\A1;%%C127 [%%c5.000"]
  7
simplex
 11
0.0000000000000001
 21
1.0
 31
0.0
 73
     1
 44
1.0
1001
ACAD
1000
MTEXTBEGIN
1070
    73
1070
     1
1070
    44
1040
1.0
1070
    74
1070
     0
1000
MTEXTEND
  0
POINT
  5
92EA9
330
92ACD
100
AcDbEntity
  8
Defpoints
 62
     0
100
AcDbPoint
 10
62.69999999999999
 20
63.4999999989
 30
0.0
  0
POINT
  5
92EAA
330
92ACD
100
AcDbEntity
  8
Defpoints
 62
     0
100
AcDbPoint
 10
62.69999999999999
 20
-63.49999999890002
 30
0.0
  0
POINT
  5
92EAB
330
92ACD
100
AcDbEntity
  8
Defpoints
 62
     0
100
AcDbPoint
 10
90.16787328498439
 20
-63.49999999890002
 30
0.0
  0
ENDBLK
  5
92AD7
330
92ACD
100
AcDbEntity
  8
0
100
AcDbBlockEnd
  0
BLOCK
  5
92AEC
330
92AE2
100
AcDbEntity
  8
0
100
AcDbBlockBegin
  2
*D122109
 70
     1
 10
0.0
 20
0.0
 30
0.0
  3
*D122109
  1

  0
LINE
  5
93013
330
92AE2
100
AcDbEntity
  8
2
100
AcDbLine
 10
55.29999999999995
 20
63.49999999890002
 30
0.0
 11
55.29999999999995
 21
81.37126654498798
 31
0.0
  0
LINE
  5
93014
330
92AE2
100
AcDbEntity
  8
2
100
AcDbLine
 10
63.50000000000001
 20
62.69999999890365
 30
0.0
 11
63.50000000000001
 21
81.37126654498798
 31
0.0
  0
LINE
  5
93015
330
92AE2
100
AcDbEntity
  8
2
100
AcDbLine
 10
67.00000000000001
 20
79.87126654498799
 30
0.0
 11
119.4333333333333
 21
79.87126654498799
 31
0.0
  0
LINE
  5
93016
330
92AE2
100
AcDbEntity
  8
2
100
AcDbLine
 10
51.79999999999996
 20
79.87126654498799
 30
0.0
 11
48.29999999999995
 21
79.87126654498799
 31
0.0
  0
SOLID
  5
93017
330
92AE2
100
AcDbEntity
  8
2
100
AcDbTrace
 10
51.79999999999996
 20
79.28793321165466
 30
0.0
 11
51.79999999999996
 21
80.45459987832131
 31
0.0
 12
55.29999999999995
 22
79.87126654498799
 32
0.0
 13
55.29999999999995
 23
79.87126654498799
 33
0.0
  0
SOLID
  5
93018
330
92AE2
100
AcDbEntity
  8
2
100
AcDbTrace
 10
67.00000000000001
 20
80.45459987832131
 30
0.0
 11
67.00000000000001
 21
79.28793321165466
 31
0.0
 12
63.50000000000001
 22
79.87126654498799
 32
0.0
 13
63.50000000000001
 23
79.87126654498799
 33
0.0
  0
MTEXT
  5
93019
330
92AE2
100
AcDbEntity
  8
2
100
AcDbMText
 10
94.96666666666667
 20
83.92126654498799
 30
0.0
 40
3.5
 41
0.0
 71
     5
 72
     1
  1
\A1;8.2 [.323"](MAX)
  7
simplex
 73
     1
 44
1.0
1001
ACAD
1000
MTEXTBEGIN
1070
    73
1070
     1
1070
    44
1040
1.0
1070
    74
1070
     0
1000
MTEXTEND
  0
POINT
  5
9301A
330
92AE2
100
AcDbEntity
  8
Defpoints
 62
     0
100
AcDbPoint
 10
55.29999999999995
 20
63.49999999890002
 30
0.0
  0
POINT
  5
9301B
330
92AE2
100
AcDbEntity
  8
Defpoints
 62
     0
100
AcDbPoint
 10
63.50000000000001
 20
62.69999999890365
 30
0.0
  0
POINT
  5
9301C
330
92AE2
100
AcDbEntity
  8
Defpoints
 62
     0
100
AcDbPoint
 10
63.50000000000001
 20
79.87126654498799
 30
0.0
  0
ENDBLK
  5
92AED
330
92AE2
100
AcDbEntity
  8
0
100
AcDbBlockEnd
  0
BLOCK
  5
92FC9
330
92FC1
100
AcDbEntity
  8
0
100
AcDbBlockBegin
  2
*D1310
 70
     1
 10
0.0
 20
0.0
 30
0.0
  3
*D1310
  1

  0
LINE
  5
92FD2
330
92FC1
100
AcDbEntity
  8
2
100
AcDbLine
 10
107.8120979825589
 20
72.82026317349719
 30
0.0
 11
66.89571783687824
 21
63.64125014275225
 31
0.0
  0
MTEXT
  5
92FD3
330
92FC1
100
AcDbEntity
  8
2
100
AcDbMText
 10
88.17494119621521
 20
72.56560433047315
 30
0.0
 40
3.5
 41
0.0
 71
     5
 72
     1
  1
\A1;R0.8 [R.031"]
  7
simplex
 11
0.9757483341577287
 21
0.2188953822912159
 31
0.0
 73
     1
 44
1.0
1001
ACAD
1000
MTEXTBEGIN
1070
    73
1070
     1
1070
    44
1040
1.0
1070
    74
1070
     0
1000
MTEXTEND
  0
SOLID
  5
92FD4
330
92FC1
100
AcDbEntity
  8
2
100
AcDbTrace
 10
66.76802886387505
 20
64.21043667101091
 30
0.0
 11
67.02340680988145
 21
63.07206361449356
 31
0.0
 12
63.4805986673262
 22
62.87511630473298
 32
0.0
 13
63.4805986673262
 23
62.87511630473298
 33
0.0
  0
LINE
  5
92FD5
330
92FC1
100
AcDbEntity
  8
2
100
AcDbLine
 10
62.61000000000001
 20
62.6999999989
 30
0.0
 11
62.79000000000002
 21
62.6999999989
 31
0.0
  0
LINE
  5
92FD6
330
92FC1
100
AcDbEntity
  8
2
100
AcDbLine
 10
62.70000000000002
 20
62.6099999989
 30
0.0
 11
62.70000000000002
 21
62.7899999989
 31
0.0
  0
POINT
  5
92FD7
330
92FC1
100
AcDbEntity
  8
Defpoints
 62
     0
100
AcDbPoint
 10
63.4805986673262
 20
62.87511630473298
 30
0.0
  0
POINT
  5
92FD8
330
92FC1
100
AcDbEntity
  8
Defpoints
 62
     0
100
AcDbPoint
 10
62.70000000000002
 20
62.6999999989
 30
0.0
  0
ENDBLK
  5
92FCA
330
92FC1
100
AcDbEntity
  8
0
100
AcDbBlockEnd
  0
ENDSEC
  0
SECTION
  2
ENTITIES
  0
INSERT
  5
4A793
330
1F
100
AcDbEntity
  8
0
100
AcDbBlockReference
  2
zero block
 10
0.0
 20
0.0
 30
0.0
 50
180.0
  0
MTEXT
  5
928BE
330
1F
100
AcDbEntity
  8
sk6
100
AcDbMText
 10
1.976352313824918
 20
113.2895884739311
 30
0.0
 40
3.5
 41
139.3353303764208
 71
     1
 72
     5
  1
WWX400UR5_0006EA
 73
     1
 44
0.9
1001
ACAD
1000
MTEXTBEGIN
1070
    73
1070
     1
1070
    44
1040
0.9
1070
    74
1070
     0
1000
MTEXTEND
1000
ACAD_MTEXT_DEFINED_HEIGHT_BEGIN
1070
    46
1040
3.48901801050149
1000
ACAD_MTEXT_DEFINED_HEIGHT_END
  0
LINE
  5
928C0
330
1F
100
AcDbEntity
  8
4
100
AcDbLine
 10
68.8369340559895
 20
0.0
 30
0.0
 11
-2.907861614760548
 21
0.0
 31
0.0
  0
LINE
  5
928C1
330
1F
100
AcDbEntity
  8
1
100
AcDbLine
 10
52.02618060330003
 20
-62.69996180840002
 30
0.0
 11
55.71366150659997
 21
-62.69996180840002
 31
0.0
  0
LINE
  5
928C2
330
1F
100
AcDbEntity
  8
1
100
AcDbLine
 10
51.973823384
 20
-62.69950489380001
 30
0.0
 11
52.02618060330003
 21
-62.69996180840002
 31
0.0
  0
LINE
  5
928C3
330
1F
100
AcDbEntity
  8
1
100
AcDbLine
 10
39.99406697639995
 20
-62.49039746790001
 30
0.0
 11
51.973823384
 21
-62.69950489380001
 31
0.0
  0
LINE
  5
928C4
102
{ACAD_REACTORS
330
92A97
102
}
330
1F
100
AcDbEntity
  8
1
100
AcDbLine
 10
13.43987587009997
 20
-48.41896180840001
 30
0.0
 11
2.0
 21
-48.41896180840001
 31
0.0
  0
LINE
  5
928C5
330
1F
100
AcDbEntity
  8
1
100
AcDbLine
 10
38.32569488659999
 20
-61.94831051530004
 30
0.0
 11
19.83937437970002
 21
-49.00404954260003
 31
0.0
  0
LINE
  5
928C6
330
1F
100
AcDbEntity
  8
1
100
AcDbLine
 10
0.0
 20
46.41899999889999
 30
0.0
 11
0.0
 21
8.937538191599966
 31
0.0
  0
LINE
  5
928C7
330
1F
100
AcDbEntity
  8
1
100
AcDbLine
 10
0.0
 20
-46.41896180840001
 30
0.0
 11
0.0
 21
-8.937461808400001
 31
0.0
  0
LINE
  5
928C8
330
1F
100
AcDbEntity
  8
1
100
AcDbLine
 10
38.32569488659999
 20
61.94838689859992
 30
0.0
 11
19.83937437970002
 21
49.0041259258999
 31
0.0
  0
LINE
  5
928C9
330
1F
100
AcDbEntity
  8
1
100
AcDbLine
 10
49.4323465283
 20
60.16062098749993
 30
0.0
 11
51.70749144529998
 21
61.48605667589992
 31
0.0
  0
LINE
  5
928CA
330
1F
100
AcDbEntity
  8
1
100
AcDbLine
 10
48.12388407400002
 20
60.0668960716
 30
0.0
 11
48.89474977169993
 21
60.35381251399996
 31
0.0
  0
LINE
  5
928CB
330
1F
100
AcDbEntity
  8
1
100
AcDbLine
 10
9.524999999999975
 20
6.937538191599967
 30
0.0
 11
9.524999999999975
 21
-6.937461808400001
 31
0.0
  0
LINE
  5
928CC
330
1F
100
AcDbEntity
  8
1
100
AcDbLine
 10
0.0
 20
8.937538191599966
 30
0.0
 11
1.0
 21
7.937538191599967
 31
0.0
  0
LINE
  5
928CD
330
1F
100
AcDbEntity
  8
1
100
AcDbLine
 10
50.10300490729997
 20
52.81198146729995
 30
0.0
 11
50.06341589399999
 21
52.77378526499997
 31
0.0
  0
LINE
  5
928CE
330
1F
100
AcDbEntity
  8
1
100
AcDbLine
 10
8.524999999999977
 20
7.937538191599967
 30
0.0
 11
9.524999999999975
 21
6.937538191599967
 31
0.0
  0
LINE
  5
928CF
330
1F
100
AcDbEntity
  8
1
100
AcDbLine
 10
1.0
 20
-7.937461808400001
 30
0.0
 11
0.0
 21
-8.937461808400001
 31
0.0
  0
LINE
  5
928D0
330
1F
100
AcDbEntity
  8
1
100
AcDbLine
 10
1.0
 20
-7.937461808400001
 30
0.0
 11
8.524999999999977
 21
-7.937461808400001
 31
0.0
  0
LINE
  5
928D1
330
1F
100
AcDbEntity
  8
1
100
AcDbLine
 10
9.524999999999975
 20
-6.937461808400001
 30
0.0
 11
8.524999999999977
 21
-7.937461808400001
 31
0.0
  0
LINE
  5
928D2
330
1F
100
AcDbEntity
  8
1
100
AcDbLine
 10
1.0
 20
7.937538191599967
 30
0.0
 11
8.524999999999977
 21
7.937538191599967
 31
0.0
  0
LINE
  5
928D3
330
1F
100
AcDbEntity
  8
1
100
AcDbLine
 10
47.81474532129999
 20
60.27899708799997
 30
0.0
 11
47.66717434560002
 21
61.79538091429989
 31
0.0
  0
LINE
  5
928D4
330
1F
100
AcDbEntity
  8
1
100
AcDbLine
 10
61.5658335672
 20
51.07696763869994
 30
0.0
 11
61.5658335672
 21
47.7491418519
 31
0.0
  0
LINE
  5
928D5
330
1F
100
AcDbEntity
  8
1
100
AcDbLine
 10
61.71366150659998
 20
51.33814934149993
 30
0.0
 11
61.71366150659998
 21
-56.69996059790003
 31
0.0
  0
LINE
  5
928D6
330
1F
100
AcDbEntity
  8
1
100
AcDbLine
 10
49.00896140220002
 20
54.09662924159999
 30
0.0
 11
47.6758168115
 21
56.58241240499997
 31
0.0
  0
LINE
  5
928D7
330
1F
100
AcDbEntity
  8
1
100
AcDbLine
 10
48.29575487939997
 20
56.30148360859992
 30
0.0
 11
50.10300490729997
 21
52.81198146729995
 31
0.0
  0
LINE
  5
928D8
330
1F
100
AcDbEntity
  8
1
100
AcDbLine
 10
13.43987587009997
 20
48.41903819159998
 30
0.0
 11
2.0
 21
48.41903819159998
 31
0.0
  0
LINE
  5
928D9
330
1F
100
AcDbEntity
  8
1
100
AcDbLine
 10
48.81239600499998
 20
59.98739666499993
 30
0.0
 11
49.4323465283
 21
60.16062098749993
 31
0.0
  0
LINE
  5
928DA
330
1F
100
AcDbEntity
  8
1
100
AcDbLine
 10
57.06734422389996
 20
54.46316474549997
 30
0.0
 11
56.87919299009997
 21
54.46316474549997
 31
0.0
  0
LINE
  5
928DB
330
1F
100
AcDbEntity
  8
1
100
AcDbLine
 10
55.3423114193
 20
54.62591619679996
 30
0.0
 11
55.15416018539998
 21
54.62591619679996
 31
0.0
  0
LINE
  5
928DC
330
1F
100
AcDbEntity
  8
1
100
AcDbLine
 10
55.55007834089997
 20
54.72834199939994
 30
0.0
 11
55.7382295748
 21
54.72834199939994
 31
0.0
  0
LINE
  5
928DD
330
1F
100
AcDbEntity
  8
1
100
AcDbLine
 10
57.69937087159997
 20
55.27157135909998
 30
0.0
 11
57.88752210549995
 21
55.27157135909998
 31
0.0
  0
LINE
  5
928DE
330
1F
100
AcDbEntity
  8
1
100
AcDbLine
 10
58.07003539580001
 20
55.88394019229996
 30
0.0
 11
57.88188416189999
 21
55.88394019229996
 31
0.0
  0
LINE
  5
928DF
330
1F
100
AcDbEntity
  8
1
100
AcDbLine
 10
57.90030263720002
 20
55.27150796859995
 30
0.0
 11
57.88752211459996
 21
55.27156131519994
 31
0.0
  0
LINE
  5
928E0
330
1F
100
AcDbEntity
  8
1
100
AcDbLine
 10
48.29575487939997
 20
56.30148360859992
 30
0.0
 11
47.93364471149999
 21
56.38489298969997
 31
0.0
  0
LINE
  5
928E1
330
1F
100
AcDbEntity
  8
1
100
AcDbLine
 10
49.00896140220002
 20
54.09662924159999
 30
0.0
 11
35.7051299327
 21
58.86092473709997
 31
0.0
  0
LINE
  5
928E2
330
1F
100
AcDbEntity
  8
1
100
AcDbLine
 10
48.08473057340001
 20
56.87611420479999
 30
0.0
 11
47.23257279360001
 21
56.87611420479999
 31
0.0
  0
LINE
  5
928E3
330
1F
100
AcDbEntity
  8
1
100
AcDbLine
 10
48.06127487080003
 20
56.92226098019997
 30
0.0
 11
47.18217012719996
 21
56.92226098019997
 31
0.0
  0
LINE
  5
928E4
330
1F
100
AcDbEntity
  8
1
100
AcDbLine
 10
57.78846714330001
 20
57.01027442249993
 30
0.0
 11
57.60031590939997
 21
57.01027442249993
 31
0.0
  0
LINE
  5
928E5
330
1F
100
AcDbEntity
  8
1
100
AcDbLine
 10
56.76362437359999
 20
57.36504128789992
 30
0.0
 11
56.9517756075
 21
57.36504128789992
 31
0.0
  0
LINE
  5
928E6
330
1F
100
AcDbEntity
  8
1
100
AcDbLine
 10
56.23681911009999
 20
57.78544577809999
 30
0.0
 11
56.04866787619994
 21
57.78544577809999
 31
0.0
  0
LINE
  5
928E7
330
1F
100
AcDbEntity
  8
1
100
AcDbLine
 10
46.58722420080002
 20
58.05883977439997
 30
0.0
 11
47.48482094949998
 21
58.05883977439997
 31
0.0
  0
LINE
  5
928E8
330
1F
100
AcDbEntity
  8
1
100
AcDbLine
 10
46.84404651130001
 20
59.11449920609992
 30
0.0
 11
47.77159716359999
 21
59.11449920609992
 31
0.0
  0
LINE
  5
928E9
330
1F
100
AcDbEntity
  8
1
100
AcDbLine
 10
48.84220543309999
 20
59.76982279169997
 30
0.0
 11
47.94888240149997
 21
59.76982279169997
 31
0.0
  0
LINE
  5
928EA
330
1F
100
AcDbEntity
  8
1
100
AcDbLine
 10
48.88588712529998
 20
59.79602317759996
 30
0.0
 11
47.9951107695
 21
59.79602317759996
 31
0.0
  0
LINE
  5
928EB
330
1F
100
AcDbEntity
  8
1
100
AcDbLine
 10
54.78970254509992
 20
56.82187531869998
 30
0.0
 11
54.8024830677
 21
56.82182197209998
 31
0.0
  0
LINE
  5
928EC
330
1F
100
AcDbEntity
  8
1
100
AcDbLine
 10
48.81239600499998
 20
59.98739666499993
 30
0.0
 11
48.12388407400002
 21
60.0668960716
 31
0.0
  0
LINE
  5
928ED
330
1F
100
AcDbEntity
  8
1
100
AcDbLine
 10
48.89474977169993
 20
60.35381251399996
 30
0.0
 11
49.19529488789999
 21
60.27555373749994
 31
0.0
  0
LINE
  5
928EE
330
1F
100
AcDbEntity
  8
1
100
AcDbLine
 10
39.99406697639995
 20
62.49047385119998
 30
0.0
 11
50.28087136729999
 21
62.67003068969994
 31
0.0
  0
LINE
  5
928EF
330
1F
100
AcDbEntity
  8
1
100
AcDbLine
 10
54.19833722569999
 20
62.88166740769995
 30
0.0
 11
53.64577554339996
 21
62.88166740769995
 31
0.0
  0
LINE
  5
928F0
330
1F
100
AcDbEntity
  8
1
100
AcDbLine
 10
54.93661096990003
 20
63.07326617689994
 30
0.0
 11
54.38497781080003
 21
63.07326617689994
 31
0.0
  0
LINE
  5
928F1
330
1F
100
AcDbEntity
  8
1
100
AcDbLine
 10
54.96503908840001
 20
63.07301078870001
 30
0.0
 11
54.93661010020001
 21
63.07326617689994
 31
0.0
  0
LINE
  5
928F2
330
1F
100
AcDbEntity
  8
nocut
100
AcDbLine
 10
0.0
 20
0.0
 30
0.0
 11
0.0
 21
46.41899999889999
 31
0.0
  0
LINE
  5
928F3
330
1F
100
AcDbEntity
  8
sk3
100
AcDbLine
 10
0.9999996684000224
 20
7.937538191599967
 30
0.0
 11
0.9999996684000224
 21
19.55003819160002
 31
0.0
  0
LINE
  5
928F4
330
1F
100
AcDbEntity
  8
nocut
100
AcDbLine
 10
61.71366150670002
 20
0.0
 30
0.0
 11
0.0
 21
0.0
 31
0.0
  0
LINE
  5
928F5
330
1F
100
AcDbEntity
  8
sk3
100
AcDbLine
 10
0.9999996684000224
 20
19.55003819160002
 30
0.0
 11
0.0
 21
20.55003784300001
 31
0.0
  0
LINE
  5
928F6
330
1F
100
AcDbEntity
  8
sk3
100
AcDbLine
 10
8.0
 20
7.937538191599967
 30
0.0
 11
8.0
 21
19.55003819160002
 31
0.0
  0
LINE
  5
928F7
330
1F
100
AcDbEntity
  8
nocut
100
AcDbLine
 10
19.8393743798
 20
49.00408773320002
 30
0.0
 11
38.32569488670003
 21
61.94834870580002
 31
0.0
  0
LINE
  5
92920
102
{ACAD_REACTORS
330
92A94
102
}
330
1F
100
AcDbEntity
  8
sk3
100
AcDbLine
 10
8.0
 20
19.05003819160002
 30
0.0
 11
25.89046496530003
 21
19.05003819160002
 31
0.0
  0
LINE
  5
92921
330
1F
100
AcDbEntity
  8
sk3
100
AcDbLine
 10
39.28689076490002
 20
19.05003819160002
 30
0.0
 11
41.0000003234
 21
19.05003819160002
 31
0.0
  0
LINE
  5
92922
330
1F
100
AcDbEntity
  8
sk3
100
AcDbLine
 10
0.9999996684000224
 20
19.55003819160002
 30
0.0
 11
8.0
 21
19.55003819160002
 31
0.0
  0
LINE
  5
92923
330
1F
100
AcDbEntity
  8
sk3
100
AcDbLine
 10
29.17735573020002
 20
20.50003819160004
 30
0.0
 11
35.82264426990003
 21
20.50003819160004
 31
0.0
  0
LINE
  5
92924
330
1F
100
AcDbEntity
  8
sk3
100
AcDbLine
 10
25.89046496530003
 20
19.05003819160002
 30
0.0
 11
25.89046496530003
 21
0.0000381927000035
 31
0.0
  0
LINE
  5
92927
330
1F
100
AcDbEntity
  8
sk3
100
AcDbLine
 10
36.16073887930003
 20
20.42508442120001
 30
0.0
 11
38.94879615549996
 21
19.12499196200001
 31
0.0
  0
LINE
  5
9292B
330
1F
100
AcDbEntity
  8
sk3
100
AcDbLine
 10
42.99999999999999
 20
28.00003819160004
 30
0.0
 11
55.71366150670002
 21
28.00003819160004
 31
0.0
  0
LINE
  5
92934
330
1F
100
AcDbEntity
  8
sk3
100
AcDbLine
 10
41.0000003234
 20
19.05003819160002
 30
0.0
 11
41.0000003234
 21
0.0000381927000035
 31
0.0
  0
LINE
  5
92938
330
1F
100
AcDbEntity
  8
sk3
100
AcDbLine
 10
25.89046496530003
 20
19.05003819160002
 30
0.0
 11
28.83926112080002
 21
20.42508442120001
 31
0.0
  0
LINE
  5
92939
330
1F
100
AcDbEntity
  8
sk3
100
AcDbLine
 10
42.0
 20
0.0000381927000035
 30
0.0
 11
42.0
 21
27.00003819160004
 31
0.0
  0
LINE
  5
92948
330
1F
100
AcDbEntity
  8
sk3
100
AcDbLine
 10
57.15714532490004
 20
46.9250695011
 30
0.0
 11
58.93239487107837
 21
49.8162005355423
 31
0.0
  0
LINE
  5
92962
330
1F
100
AcDbEntity
  8
sk3
100
AcDbLine
 10
41.0000003234
 20
19.05003819160002
 30
0.0
 11
42.0
 21
20.05003785130002
 31
0.0
  0
LINE
  5
92963
330
1F
100
AcDbEntity
  8
nocut
100
AcDbLine
 10
2.0
 20
48.41899999889999
 30
0.0
 11
13.43987587020001
 21
48.41899999889999
 31
0.0
  0
LINE
  5
92965
330
1F
100
AcDbEntity
  8
sk3
100
AcDbLine
 10
55.71366150670002
 20
28.00003819160004
 30
0.0
 11
56.71366150670002
 21
29.00003819160004
 31
0.0
  0
LINE
  5
92968
330
1F
100
AcDbEntity
  8
sk3
100
AcDbLine
 10
55.71366150670002
 20
28.00003819160004
 30
0.0
 11
55.71366150670002
 21
0.0000381927000035
 31
0.0
  0
LINE
  5
92969
330
1F
100
AcDbEntity
  8
sk3
100
AcDbLine
 10
56.71366150670002
 20
45.35528448019999
 30
0.0
 11
56.71366150670002
 21
0.0000381927000035
 31
0.0
  0
LINE
  5
929D0
330
1F
100
AcDbEntity
  8
nocut
100
AcDbLine
 10
61.71366150670002
 20
56.69999999889999
 30
0.0
 11
61.71366150670002
 21
0.0
 31
0.0
  0
LINE
  5
929F2
330
1F
100
AcDbEntity
  8
nocut
100
AcDbLine
 10
39.99406697640001
 20
62.4904356584
 30
0.0
 11
51.9738233841
 21
62.6995430844
 31
0.0
  0
LINE
  5
929F3
330
1F
100
AcDbEntity
  8
nocut
100
AcDbLine
 10
52.0261806034
 20
62.6999999989
 30
0.0
 11
55.71366150670002
 21
62.6999999989
 31
0.0
  0
ARC
  5
929F6
330
1F
100
AcDbEntity
  8
1
100
AcDbCircle
 10
16.39791576159999
 20
-53.91896180840001
 30
0.0
 40
6.0
100
AcDbArc
 50
55.00000000000088
 51
109.1881364537007
  0
ARC
  5
929F7
330
1F
100
AcDbEntity
  8
1
100
AcDbCircle
 10
16.39791576159999
 20
53.91903819159999
 30
0.0
 40
6.0
100
AcDbArc
 50
250.8118635462993
 51
304.9999999999991
  0
ARC
  5
929F8
330
1F
100
AcDbEntity
  8
1
100
AcDbCircle
 10
55.71366150659997
 20
-56.69996180840001
 30
0.0
 40
6.0
100
AcDbArc
 50
270.0
 51
0.0
  0
ARC
  5
929F9
330
1F
100
AcDbEntity
  8
1
100
AcDbCircle
 10
13.43987587009997
 20
45.41903819159998
 30
0.0
 40
3.0
100
AcDbArc
 50
70.81186354629932
 51
90.0
  0
ARC
  5
929FA
330
1F
100
AcDbEntity
  8
1
100
AcDbCircle
 10
13.43987587009997
 20
-45.41896180840001
 30
0.0
 40
3.0
100
AcDbArc
 50
270.0
 51
289.1881364537007
  0
ARC
  5
929FB
330
1F
100
AcDbEntity
  8
1
100
AcDbCircle
 10
40.04642419569996
 20
59.49093076569997
 30
0.0
 40
3.0
100
AcDbArc
 50
91.00000000000015
 51
124.9999999999991
  0
ARC
  5
929FC
330
1F
100
AcDbEntity
  8
1
100
AcDbCircle
 10
40.04642419569996
 20
-59.4908543824
 30
0.0
 40
3.0
100
AcDbArc
 50
235.0000000000008
 51
268.9999999999998
  0
ARC
  5
929FD
102
{ACAD_REACTORS
330
92A97
102
}
330
1F
100
AcDbEntity
  8
1
100
AcDbCircle
 10
2.0
 20
46.41903819159998
 30
0.0
 40
2.0
100
AcDbArc
 50
90.0
 51
180.0
  0
ARC
  5
929FE
102
{ACAD_REACTORS
330
92A91
102
}
330
1F
100
AcDbEntity
  8
1
100
AcDbCircle
 10
2.0
 20
-46.41896180840001
 30
0.0
 40
2.0
100
AcDbArc
 50
180.0
 51
270.0
  0
ARC
  5
929FF
330
1F
100
AcDbEntity
  8
nocut
100
AcDbCircle
 10
16.3979157617
 20
53.91899999889999
 30
0.0
 40
6.0
100
AcDbArc
 50
250.8118635462993
 51
304.9999999999991
  0
ARC
  5
92A00
330
1F
100
AcDbEntity
  8
nocut
100
AcDbCircle
 10
55.71366150670002
 20
56.69999999889999
 30
0.0
 40
6.0
100
AcDbArc
 50
0.0
 51
90.0
  0
ARC
  5
92A01
330
1F
100
AcDbEntity
  8
nocut
100
AcDbCircle
 10
52.0261806034
 20
59.69999999889999
 30
0.0
 40
3.0
100
AcDbArc
 50
90.0
 51
91.00000000000015
  0
ARC
  5
92A02
330
1F
100
AcDbEntity
  8
nocut
100
AcDbCircle
 10
40.04642419569999
 20
59.49089257300001
 30
0.0
 40
3.0
100
AcDbArc
 50
91.00000000000015
 51
124.9999999999991
  0
ARC
  5
92A03
330
1F
100
AcDbEntity
  8
nocut
100
AcDbCircle
 10
13.43987587020001
 20
45.4189999989
 30
0.0
 40
3.0
100
AcDbArc
 50
70.81186354629932
 51
90.0
  0
ARC
  5
92A04
330
1F
100
AcDbEntity
  8
sk3
100
AcDbCircle
 10
59.71366150670002
 20
45.35528448019999
 30
0.0
 40
3.0
100
AcDbArc
 50
148.4487064692989
 51
180.0
  0
ARC
  5
92A07
102
{ACAD_REACTORS
330
92A8E
102
}
330
1F
100
AcDbEntity
  8
nocut
100
AcDbCircle
 10
2.0
 20
46.41899999889999
 30
0.0
 40
2.0
100
AcDbArc
 50
90.0
 51
180.0
  0
ARC
  5
92A08
330
1F
100
AcDbEntity
  8
sk3
100
AcDbCircle
 10
42.99999999999999
 20
27.00003819160004
 30
0.0
 40
1.0
100
AcDbArc
 50
90.0
 51
180.0
  0
ARC
  5
92A0B
330
1F
100
AcDbEntity
  8
sk3
100
AcDbCircle
 10
29.17735573020002
 20
19.70003819160003
 30
0.0
 40
0.8
100
AcDbArc
 50
90.0
 51
114.9999999999997
  0
ARC
  5
92A0C
330
1F
100
AcDbEntity
  8
sk3
100
AcDbCircle
 10
39.28689076490002
 20
19.85003819160002
 30
0.0
 40
0.8
100
AcDbArc
 50
245.0000000000003
 51
270.0
  0
ARC
  5
92A0D
330
1F
100
AcDbEntity
  8
sk3
100
AcDbCircle
 10
35.82264426990003
 20
19.70003819160003
 30
0.0
 40
0.8
100
AcDbArc
 50
65.00000000000031
 51
90.0
  0
SPLINE
  5
92A0E
330
1F
100
AcDbEntity
  8
1
100
AcDbSpline
210
0.0
220
0.0
230
1.0
 70
     8
 71
     3
 72
    15
 73
    11
 74
     0
 42
0.000000001
 43
0.0000000001
 40
0.0
 40
0.0
 40
0.0
 40
0.0
 40
0.124628042
 40
0.2493689782
 40
0.374326657
 40
0.4994877589000001
 40
0.6247619744000003
 40
0.7500128916
 40
0.875107805
 40
1.0
 40
1.0
 40
1.0
 40
1.0
 10
54.7897025445
 20
56.82188328459999
 30
0.0
 10
54.7543222914
 20
56.82188058979999
 30
0.0
 10
54.6829923459
 20
56.81016379749998
 30
0.0
 10
54.58763095199998
 20
56.75928852839994
 30
0.0
 10
54.51332359959997
 20
56.68047505049996
 30
0.0
 10
54.46794042209996
 20
56.58198637589991
 30
0.0
 10
54.45616232459997
 20
56.47410826669993
 30
0.0
 10
54.47923263559999
 20
56.36806840029997
 30
0.0
 10
54.53465010729996
 20
56.27499426369998
 30
0.0
 10
54.58966909209999
 20
56.22785347679997
 30
0.0
 10
54.61996978650001
 20
56.20944309499993
 30
0.0
  0
SPLINE
  5
92A0F
330
1F
100
AcDbEntity
  8
1
100
AcDbSpline
210
0.0
220
0.0
230
1.0
 70
     8
 71
     3
 72
    11
 73
     7
 74
     0
 42
0.000000001
 43
0.0000000001
 40
0.0
 40
0.0
 40
0.0
 40
0.0
 40
0.2503024846
 40
0.5003534996
 40
0.7502262174
 40
1.0
 40
1.0
 40
1.0
 40
1.0
 10
53.84467354759994
 20
58.52381910379993
 30
0.0
 10
54.00239990810002
 20
58.67756080609995
 30
0.0
 10
54.34823040809999
 20
58.95524160259999
 30
0.0
 10
54.93628849299994
 20
59.26392179619995
 30
0.0
 10
55.57219654099998
 20
59.45394598469992
 30
0.0
 10
56.01304528039998
 20
59.49668793559991
 30
0.0
 10
56.23283923889999
 20
59.49669119170001
 30
0.0
  0
SPLINE
  5
92A10
330
1F
100
AcDbEntity
  8
1
100
AcDbSpline
210
0.0
220
0.0
230
1.0
 70
     8
 71
     3
 72
    15
 73
    11
 74
     0
 42
0.000000001
 43
0.0000000001
 40
0.0
 40
0.0
 40
0.0
 40
0.0
 40
0.1251725936
 40
0.2504202795
 40
0.3756825537
 40
0.5008553217000004
 40
0.6258750764
 40
0.7507163071999999
 40
0.875401689
 40
1.0
 40
1.0
 40
1.0
 40
1.0
 10
54.901538039
 20
55.08310886479996
 30
0.0
 10
54.88689831119994
 20
55.05825530569993
 30
0.0
 10
54.86404995089998
 20
55.00441107439996
 30
0.0
 10
54.85193745659994
 20
54.91773187289992
 30
0.0
 10
54.86262989199997
 20
54.83081088999993
 30
0.0
 10
54.89545037659997
 20
54.74968375929996
 30
0.0
 10
54.94812945049996
 20
54.67991674739995
 30
0.0
 10
55.01707820119998
 20
54.62632703789997
 30
0.0
 10
55.09747189759996
 20
54.59260982779993
 30
0.0
 10
55.15520480179997
 20
54.58494353209998
 30
0.0
 10
55.1839172388
 20
54.58494117229996
 30
0.0
  0
SPLINE
  5
92A11
330
1F
100
AcDbEntity
  8
1
100
AcDbSpline
210
0.0
220
0.0
230
1.0
 70
     8
 71
     3
 72
    11
 73
     7
 74
     0
 42
0.000000001
 43
0.0000000001
 40
0.0
 40
0.0
 40
0.0
 40
0.0
 40
0.2504801591
 40
0.5005847326000003
 40
0.7503832134000003
 40
1.0
 40
1.0
 40
1.0
 40
1.0
 10
56.45318607220001
 20
54.30793750919995
 30
0.0
 10
56.41783669339996
 20
54.37111497609992
 30
0.0
 10
56.33005387729998
 20
54.48861620019993
 30
0.0
 10
56.15731320880001
 20
54.62379260539997
 30
0.0
 10
55.95544367880001
 20
54.70896602599996
 30
0.0
 10
55.81037459089998
 20
54.72834487499993
 30
0.0
 10
55.73822957529994
 20
54.72834156349994
 30
0.0
  0
SPLINE
  5
92A12
330
1F
100
AcDbEntity
  8
1
100
AcDbSpline
210
0.0
220
0.0
230
1.0
 70
     8
 71
     3
 72
    11
 73
     7
 74
     0
 42
0.000000001
 43
0.0000000001
 40
0.0
 40
0.0
 40
0.0
 40
0.0
 40
0.2504872201
 40
0.5005807783
 40
0.7503838721
 40
1.0
 40
1.0
 40
1.0
 40
1.0
 10
56.45318607220001
 20
54.30793750919995
 30
0.0
 10
56.46732859540001
 20
54.28266156889996
 30
0.0
 10
56.50244605349996
 20
54.23565185579995
 30
0.0
 10
56.57155808279998
 20
54.18157845209996
 30
0.0
 10
56.65231619359996
 20
54.14749679509996
 30
0.0
 10
56.71035452249999
 20
54.13974976659999
 30
0.0
 10
56.73921729549999
 20
54.13974755809991
 30
0.0
  0
SPLINE
  5
92A13
330
1F
100
AcDbEntity
  8
1
100
AcDbSpline
210
0.0
220
0.0
230
1.0
 70
     8
 71
     3
 72
    15
 73
    11
 74
     0
 42
0.000000001
 43
0.0000000001
 40
0.0
 40
0.0
 40
0.0
 40
0.0
 40
0.1250291137
 40
0.2501328437
 40
0.3752810063
 40
0.5004135278000002
 40
0.6254833094
 40
0.7504526195000001
 40
0.8752881866999999
 40
1.0
 40
1.0
 40
1.0
 40
1.0
 10
54.901538039
 20
55.08310886479996
 30
0.0
 10
54.92871532229996
 20
55.12924716899991
 30
0.0
 10
54.9742017806
 20
55.22712194319995
 30
0.0
 10
55.01270122559997
 20
55.38416399569995
 30
0.0
 10
55.02020591059999
 20
55.54578473189995
 30
0.0
 10
54.99637762029998
 20
55.70578714789995
 30
0.0
 10
54.94214386969996
 20
55.85811245189994
 30
0.0
 10
54.85952990229996
 20
55.99697726149996
 30
0.0
 10
54.75174547810002
 20
56.11707433339994
 30
0.0
 10
54.66561641969996
 20
56.18170868299992
 30
0.0
 10
54.61996978650001
 20
56.20944309499993
 30
0.0
  0
SPLINE
  5
92A14
330
1F
100
AcDbEntity
  8
1
100
AcDbSpline
210
0.0
220
0.0
230
1.0
 70
     8
 71
     3
 72
    15
 73
    11
 74
     0
 42
0.000000001
 43
0.0000000001
 40
0.0
 40
0.0
 40
0.0
 40
0.0
 40
0.1246791034
 40
0.2493893991
 40
0.3742004069
 40
0.4991307947000001
 40
0.6241934254000002
 40
0.7493814951000001
 40
0.8746591760999999
 40
1.0
 40
1.0
 40
1.0
 40
1.0
 10
54.8024830682
 20
56.82181215529998
 30
0.0
 10
54.8554171425
 20
56.82181462149997
 30
0.0
 10
54.96158806630001
 20
56.83218006059996
 30
0.0
 10
55.11463168569997
 20
56.87826732969994
 30
0.0
 10
55.25602980209999
 20
56.95313287249994
 30
0.0
 10
55.38040733869997
 20
57.0539850647
 30
0.0
 10
55.48313307989997
 20
57.17702386599992
 30
0.0
 10
55.5603514933
 20
57.3176617882
 30
0.0
 10
55.60918965409996
 20
57.47055113499992
 30
0.0
 10
55.62160531240003
 20
57.57701399739993
 30
0.0
 10
55.62266095839999
 20
57.63021854179992
 30
0.0
  0
SPLINE
  5
92A15
330
1F
100
AcDbEntity
  8
1
100
AcDbSpline
210
0.0
220
0.0
230
1.0
 70
     8
 71
     3
 72
    23
 73
    19
 74
     0
 42
0.000000001
 43
0.0000000001
 40
0.0
 40
0.0
 40
0.0
 40
0.0
 40
0.0624849837
 40
0.1250162392
 40
0.1875923402
 40
0.250200824
 40
0.3128299048
 40
0.3754649856
 40
0.4380911855
 40
0.500694341
 40
0.5632622889
 40
0.6257859229000001
 40
0.6882599940000002
 40
0.7506835737000001
 40
0.8130601422999998
 40
0.8753972923
 40
0.9377060680999999
 40
1.0
 40
1.0
 40
1.0
 40
1.0
 10
53.84467354759994
 20
58.52381910379993
 30
0.0
 10
53.72300638209998
 20
58.40522562919996
 30
0.0
 10
53.49684114079997
 20
58.14947704519993
 30
0.0
 10
53.21806023779996
 20
57.72019790299999
 30
0.0
 10
53.00531044029998
 20
57.25415980739994
 30
0.0
 10
52.86336696409995
 20
56.76166965339993
 30
0.0
 10
52.7953019029
 20
56.25350520510001
 30
0.0
 10
52.8026164341
 20
55.74080865669998
 30
0.0
 10
52.88514744669999
 20
55.23481578499995
 30
0.0
 10
53.0410905608
 20
54.74661815079996
 30
0.0
 10
53.26703146329998
 20
54.28691892419998
 30
0.0
 10
53.55802157919999
 20
53.86579874809996
 30
0.0
 10
53.9076852595
 20
53.49249551789993
 30
0.0
 10
54.30836238479997
 20
53.17520151689993
 30
0.0
 10
54.75125803589997
 20
52.92088321159996
 30
0.0
 10
55.2266981038
 20
52.73512629559995
 30
0.0
 10
55.72410405659997
 20
52.62201494429993
 30
0.0
 10
56.06345490059999
 20
52.59668958639997
 30
0.0
 10
56.23283923889999
 20
52.59669209559993
 30
0.0
  0
SPLINE
  5
92A16
330
1F
100
AcDbEntity
  8
1
100
AcDbSpline
210
0.0
220
0.0
230
1.0
 70
     8
 71
     3
 72
    11
 73
     7
 74
     0
 42
0.000000001
 43
0.0000000001
 40
0.0
 40
0.0
 40
0.0
 40
0.0
 40
0.2493729203
 40
0.4991087073
 40
0.7493605746
 40
1.0
 40
1.0
 40
1.0
 40
1.0
 10
55.95078788679995
 20
57.95363572919995
 30
0.0
 10
55.9086298289
 20
57.95363895499995
 30
0.0
 10
55.82334531080003
 20
57.93686729149992
 30
0.0
 10
55.71515311299997
 20
57.86514408929996
 30
0.0
 10
55.64180535840002
 20
57.75781256079993
 30
0.0
 10
55.6235015108
 20
57.67258237249993
 30
0.0
 10
55.62266095839999
 20
57.63021854179992
 30
0.0
  0
SPLINE
  5
92A17
330
1F
100
AcDbEntity
  8
1
100
AcDbSpline
210
0.0
220
0.0
230
1.0
 70
     8
 71
     3
 72
     9
 73
     5
 74
     0
 42
0.000000001
 43
0.0000000001
 40
0.0
 40
0.0
 40
0.0
 40
0.0
 40
0.4998153354000002
 40
1.0
 40
1.0
 40
1.0
 40
1.0
 10
56.95177560699999
 20
57.36504172379993
 30
0.0
 10
57.02045811239997
 20
57.36504487639995
 30
0.0
 10
57.15843191119994
 20
57.38253778939995
 30
0.0
 10
57.28757266169997
 20
57.43415472319997
 30
0.0
 10
57.347693763
 20
57.46746709049992
 30
0.0
  0
SPLINE
  5
92A18
330
1F
100
AcDbEntity
  8
1
100
AcDbSpline
210
0.0
220
0.0
230
1.0
 70
     8
 71
     3
 72
     9
 73
     5
 74
     0
 42
0.000000001
 43
0.0000000001
 40
0.0
 40
0.0
 40
0.0
 40
0.0
 40
0.4998034857000003
 40
1.0
 40
1.0
 40
1.0
 40
1.0
 10
57.50608794359999
 20
57.50844211499989
 30
0.0
 10
57.47861094479997
 20
57.50844437329998
 30
0.0
 10
57.42341151869998
 20
57.50144500739995
 30
0.0
 10
57.37174684209998
 20
57.48079460749996
 30
0.0
 10
57.347693763
 20
57.46746709049992
 30
0.0
  0
SPLINE
  5
92A19
330
1F
100
AcDbEntity
  8
1
100
AcDbSpline
210
0.0
220
0.0
230
1.0
 70
     8
 71
     3
 72
    23
 73
    19
 74
     0
 42
0.000000001
 43
0.0000000001
 40
0.0
 40
0.0
 40
0.0
 40
0.0
 40
0.0622939319
 40
0.1246027077
 40
0.1869398577
 40
0.2493164263
 40
0.311740006
 40
0.3742140771
 40
0.4367377111
 40
0.4993056590000001
 40
0.5619088145000001
 40
0.6245350144
 40
0.6871700952
 40
0.7497991759999999
 40
0.8124076598
 40
0.8749837607999999
 40
0.9375150163
 40
1.0
 40
1.0
 40
1.0
 40
1.0
 10
56.30319120589996
 20
59.49669119170001
 30
0.0
 10
56.47257554409998
 20
59.49669370089989
 30
0.0
 10
56.8119263881
 20
59.47136834300001
 30
0.0
 10
57.30933234089997
 20
59.35825699169997
 30
0.0
 10
57.7847724088
 20
59.17250007569997
 30
0.0
 10
58.22766805990003
 20
58.91818177039993
 30
0.0
 10
58.62834518529997
 20
58.60088776939996
 30
0.0
 10
58.97800886549998
 20
58.22758453919997
 30
0.0
 10
59.2689989814
 20
57.8064643632
 30
0.0
 10
59.49493988389996
 20
57.34676513649997
 30
0.0
 10
59.65088299799996
 20
56.85856750230001
 30
0.0
 10
59.73341401059997
 20
56.35257463059995
 30
0.0
 10
59.74072854180001
 20
55.83987808219998
 30
0.0
 10
59.67266348060002
 20
55.3317136339
 30
0.0
 10
59.53072000439994
 20
54.83922347989993
 30
0.0
 10
59.31797020689998
 20
54.37318538429996
 30
0.0
 10
59.0391893039
 20
53.94390624209997
 30
0.0
 10
58.81302406259994
 20
53.68815765809994
 30
0.0
 10
58.69135689709998
 20
53.56956418349994
 30
0.0
  0
SPLINE
  5
92A1A
330
1F
100
AcDbEntity
  8
1
100
AcDbSpline
210
0.0
220
0.0
230
1.0
 70
     8
 71
     3
 72
    11
 73
     7
 74
     0
 42
0.000000001
 43
0.0000000001
 40
0.0
 40
0.0
 40
0.0
 40
0.0
 40
0.2497737826
 40
0.4996465004
 40
0.7496975154000002
 40
1.0
 40
1.0
 40
1.0
 40
1.0
 10
56.30319120580001
 20
52.59669209559993
 30
0.0
 10
56.52298516430001
 20
52.59669535169995
 30
0.0
 10
56.96383390369999
 20
52.63943730259994
 30
0.0
 10
57.59974195179996
 20
52.82946149109992
 30
0.0
 10
58.18780003669997
 20
53.13814168469995
 30
0.0
 10
58.53363053659996
 20
53.41582248119998
 30
0.0
 10
58.69135689709998
 20
53.56956418349994
 30
0.0
  0
SPLINE
  5
92A1B
330
1F
100
AcDbEntity
  8
1
100
AcDbSpline
210
0.0
220
0.0
230
1.0
 70
     8
 71
     3
 72
    23
 73
    19
 74
     0
 42
0.000000001
 43
0.0000000001
 40
0.0
 40
0.0
 40
0.0
 40
0.0
 40
0.0624849837
 40
0.1250162392
 40
0.1875923402
 40
0.250200824
 40
0.3128299048
 40
0.3754649856
 40
0.4380911855
 40
0.500694341
 40
0.5632622889
 40
0.6257859229000001
 40
0.6882599940000002
 40
0.7506835737000001
 40
0.8130601422999998
 40
0.8753972923
 40
0.9377060680999999
 40
1.0
 40
1.0
 40
1.0
 40
1.0
 10
53.91502551459996
 20
58.52381910379993
 30
0.0
 10
53.7933583491
 20
58.40522562919996
 30
0.0
 10
53.56719310779999
 20
58.14947704519993
 30
0.0
 10
53.28841220479995
 20
57.72019790299999
 30
0.0
 10
53.07566240729999
 20
57.25415980739994
 30
0.0
 10
52.93371893109998
 20
56.76166965339993
 30
0.0
 10
52.86565386989997
 20
56.25350520510001
 30
0.0
 10
52.87296840109997
 20
55.74080865669998
 30
0.0
 10
52.95549941369995
 20
55.23481578499995
 30
0.0
 10
53.11144252779996
 20
54.74661815079996
 30
0.0
 10
53.33738343029995
 20
54.28691892419998
 30
0.0
 10
53.62837354619995
 20
53.86579874809996
 30
0.0
 10
53.97803722639998
 20
53.49249551789993
 30
0.0
 10
54.37871435179999
 20
53.17520151689993
 30
0.0
 10
54.8216100029
 20
52.92088321159996
 30
0.0
 10
55.29705007080003
 20
52.73512629559995
 30
0.0
 10
55.79445602359999
 20
52.62201494429993
 30
0.0
 10
56.13380686759999
 20
52.59668958639997
 30
0.0
 10
56.30319120580001
 20
52.59669209559993
 30
0.0
  0
SPLINE
  5
92A1C
330
1F
100
AcDbEntity
  8
1
100
AcDbSpline
210
0.0
220
0.0
230
1.0
 70
     8
 71
     3
 72
    11
 73
     7
 74
     0
 42
0.000000001
 43
0.0000000001
 40
0.0
 40
0.0
 40
0.0
 40
0.0
 40
0.2503024846
 40
0.5003534996
 40
0.7502262174
 40
1.0
 40
1.0
 40
1.0
 40
1.0
 10
53.91502551459996
 20
58.52381910379993
 30
0.0
 10
54.07275187509998
 20
58.67756080609995
 30
0.0
 10
54.41858237499997
 20
58.95524160259999
 30
0.0
 10
55.00664045989998
 20
59.26392179619995
 30
0.0
 10
55.64254850799994
 20
59.45394598469992
 30
0.0
 10
56.0833972474
 20
59.49668793559991
 30
0.0
 10
56.30319120589996
 20
59.49669119170001
 30
0.0
  0
SPLINE
  5
92A1D
330
1F
100
AcDbEntity
  8
1
100
AcDbSpline
210
0.0
220
0.0
230
1.0
 70
     8
 71
     3
 72
    27
 73
    23
 74
     0
 42
0.000000001
 43
0.0000000001
 40
0.0
 40
0.0
 40
0.0
 40
0.0
 40
0.0625112439
 40
0.0938258063
 40
0.1251564393
 40
0.1877773832
 40
0.2504256501
 40
0.2817895323
 40
0.3131507136
 40
0.3757773797
 40
0.4383583121
 40
0.5008782614000003
 40
0.5633312872000003
 40
0.6257216450000001
 40
0.6880630885
 40
0.7192599354000003
 40
0.750452913
 40
0.8127647132999998
 40
0.8751004072
 40
0.9063220856
 40
0.9375556909
 40
1.0
 40
1.0
 40
1.0
 40
1.0
 10
54.71758255909998
 20
57.73473484159993
 30
0.0
 10
54.60782011470001
 20
57.62774533779996
 30
0.0
 10
54.45836909109999
 20
57.45028700169996
 30
0.0
 10
54.29703195590001
 20
57.18882033709995
 30
0.0
 10
54.16178798999999
 20
56.91254249329993
 30
0.0
 10
54.04437942339999
 20
56.54421668129997
 30
0.0
 10
54.00081979139994
 20
56.16000600709996
 30
0.0
 10
54.01111352009996
 20
55.85233063679992
 30
0.0
 10
54.05128869759995
 20
55.54717745559996
 30
0.0
 10
54.15714351859998
 20
55.17538131800002
 30
0.0
 10
54.36819085239999
 20
54.76305709699992
 30
0.0
 10
54.65520635439998
 20
54.39993457579998
 30
0.0
 10
55.00721416369998
 20
54.10009524219996
 30
0.0
 10
55.41057732499997
 20
53.87505102699996
 30
0.0
 10
55.77707572299999
 20
53.75699928999996
 30
0.0
 10
56.07925974379997
 20
53.70712146029994
 30
0.0
 10
56.3848192843
 20
53.68721079079993
 30
0.0
 10
56.76827109119995
 20
53.71908038089991
 30
0.0
 10
57.1380412365
 20
53.82568168439996
 30
0.0
 10
57.41678524279996
 20
53.95299461599996
 30
0.0
 10
57.68184714360001
 20
54.10711595919996
 30
0.0
 10
57.86277770849995
 20
54.25177350239993
 30
0.0
 10
57.97242262319997
 20
54.35864844569998
 30
0.0
  0
SPLINE
  5
92A1E
330
1F
100
AcDbEntity
  8
1
100
AcDbSpline
210
0.0
220
0.0
230
1.0
 70
     8
 71
     3
 72
    15
 73
    11
 74
     0
 42
0.000000001
 43
0.0000000001
 40
0.0
 40
0.0
 40
0.0
 40
0.0
 40
0.1250291137
 40
0.2501328437
 40
0.3752810063
 40
0.5004135278000002
 40
0.6254833094
 40
0.7504526195000001
 40
0.8752881866999999
 40
1.0
 40
1.0
 40
1.0
 40
1.0
 10
57.78846714330001
 20
57.01027442249993
 30
0.0
 10
57.76128985999998
 20
56.96413611829996
 30
0.0
 10
57.71580340169997
 20
56.86626134409998
 30
0.0
 10
57.67730395669997
 20
56.70921929159998
 30
0.0
 10
57.66979927169995
 20
56.54759855539992
 30
0.0
 10
57.69362756209996
 20
56.38759613939999
 30
0.0
 10
57.74786131259997
 20
56.23527083549998
 30
0.0
 10
57.83047527999997
 20
56.09640602579997
 30
0.0
 10
57.93825970419994
 20
55.9763089539
 30
0.0
 10
58.0243887627
 20
55.91167460429996
 30
0.0
 10
58.07003539580001
 20
55.88394019229996
 30
0.0
  0
SPLINE
  5
92A1F
330
1F
100
AcDbEntity
  8
1
100
AcDbSpline
210
0.0
220
0.0
230
1.0
 70
     8
 71
     3
 72
     9
 73
     5
 74
     0
 42
0.000000001
 43
0.0000000001
 40
0.0
 40
0.0
 40
0.0
 40
0.0
 40
0.5005255196000002
 40
1.0
 40
1.0
 40
1.0
 40
1.0
 10
56.04866787619994
 20
57.78544577809999
 30
0.0
 10
56.02822910310003
 20
57.82197456449996
 30
0.0
 10
55.972874982
 20
57.88774670499993
 30
0.0
 10
55.89675144779994
 20
57.92773963379993
 30
0.0
 10
55.85675269049994
 20
57.93977476859992
 30
0.0
  0
SPLINE
  5
92A20
330
1F
100
AcDbEntity
  8
1
100
AcDbSpline
210
0.0
220
0.0
230
1.0
 70
     8
 71
     3
 72
    11
 73
     7
 74
     0
 42
0.000000001
 43
0.0000000001
 40
0.0
 40
0.0
 40
0.0
 40
0.0
 40
0.2496186349
 40
0.4994180276
 40
0.7495156989
 40
1.0
 40
1.0
 40
1.0
 40
1.0
 10
56.76362436879998
 20
57.36504546659999
 30
0.0
 10
56.69147887619999
 20
57.36504282149994
 30
0.0
 10
56.54640703199999
 20
57.38441076629992
 30
0.0
 10
56.34454379169993
 20
57.46959708789994
 30
0.0
 10
56.17179886240001
 20
57.60476485589991
 30
0.0
 10
56.08401781160001
 20
57.72226731659997
 30
0.0
 10
56.04866787619994
 20
57.78544577809999
 30
0.0
  0
SPLINE
  5
92A21
330
1F
100
AcDbEntity
  8
1
100
AcDbSpline
210
0.0
220
0.0
230
1.0
 70
     8
 71
     3
 72
    15
 73
    11
 74
     0
 42
0.000000001
 43
0.0000000001
 40
0.0
 40
0.0
 40
0.0
 40
0.0
 40
0.1250890822
 40
0.2502764197
 40
0.3754802557
 40
0.5006431616000003
 40
0.6257003732000001
 40
0.7506140991
 40
0.8753739854
 40
1.0
 40
1.0
 40
1.0
 40
1.0
 10
57.60031590939997
 20
57.01027442249993
 30
0.0
 10
57.61294176019996
 20
57.03170906489997
 30
0.0
 10
57.63340989399999
 20
57.07762922119997
 30
0.0
 10
57.64786740189999
 20
57.15150797659998
 30
0.0
 10
57.64544265649999
 20
57.22679950519996
 30
0.0
 10
57.62624241520001
 20
57.29960738349998
 30
0.0
 10
57.5912499557
 20
57.36621651390001
 30
0.0
 10
57.5422411457
 20
57.42321554419997
 30
0.0
 10
57.4817688309
 20
57.46766700119994
 30
0.0
 10
57.43573808189996
 20
57.48745505479996
 30
0.0
 10
57.41200456029996
 20
57.49459666139994
 30
0.0
  0
SPLINE
  5
92A22
330
1F
100
AcDbEntity
  8
1
100
AcDbSpline
210
0.0
220
0.0
230
1.0
 70
     8
 71
     3
 72
    15
 73
    11
 74
     0
 42
0.000000001
 43
0.0000000001
 40
0.0
 40
0.0
 40
0.0
 40
0.0
 40
0.1247080857
 40
0.2495486341
 40
0.3745162549
 40
0.4995864691
 40
0.6247194269
 40
0.7498658955
 40
0.8749746234999998
 40
1.0
 40
1.0
 40
1.0
 40
1.0
 10
57.88188416189999
 20
55.88394019229996
 30
0.0
 10
57.83623884139997
 20
55.91167380669997
 30
0.0
 10
57.75011036709997
 20
55.97630957409994
 30
0.0
 10
57.6423220314
 20
56.09640332869997
 30
0.0
 10
57.55970939219998
 20
56.23527109479997
 30
0.0
 10
57.50547343829999
 20
56.38759541239996
 30
0.0
 10
57.48164755509996
 20
56.54759799469996
 30
0.0
 10
57.48914968060001
 20
56.70922071849997
 30
0.0
 10
57.52765413009996
 20
56.86626169369997
 30
0.0
 10
57.5731394077
 20
56.96413744519997
 30
0.0
 10
57.60031590939997
 20
57.01027442249993
 30
0.0
  0
SPLINE
  5
92A23
330
1F
100
AcDbEntity
  8
1
100
AcDbSpline
210
0.0
220
0.0
230
1.0
 70
     8
 71
     3
 72
    15
 73
    11
 74
     0
 42
0.000000001
 43
0.0000000001
 40
0.0
 40
0.0
 40
0.0
 40
0.0
 40
0.1251725936
 40
0.2504202795
 40
0.3756825537
 40
0.5008553217000004
 40
0.6258750764
 40
0.7507163071999999
 40
0.875401689
 40
1.0
 40
1.0
 40
1.0
 40
1.0
 10
57.78846714330001
 20
57.01027442249993
 30
0.0
 10
57.8031068711
 20
57.03512798159998
 30
0.0
 10
57.82595523150003
 20
57.08897221289991
 30
0.0
 10
57.8380677257
 20
57.17565141439996
 30
0.0
 10
57.82737529029997
 20
57.26257239729999
 30
0.0
 10
57.7945548057
 20
57.34369952799998
 30
0.0
 10
57.7418757318
 20
57.41346653989994
 30
0.0
 10
57.67292698109997
 20
57.46705624939996
 30
0.0
 10
57.59253328479997
 20
57.50077345949994
 30
0.0
 10
57.53480038049997
 20
57.50843975519996
 30
0.0
 10
57.50608794359999
 20
57.50844211499989
 30
0.0
  0
SPLINE
  5
92A24
330
1F
100
AcDbEntity
  8
1
100
AcDbSpline
210
0.0
220
0.0
230
1.0
 70
     8
 71
     3
 72
    15
 73
    11
 74
     0
 42
0.000000001
 43
0.0000000001
 40
0.0
 40
0.0
 40
0.0
 40
0.0
 40
0.1253365613
 40
0.250619357
 40
0.3758052015
 40
0.5008681055
 40
0.6257984884000001
 40
0.7506080606000002
 40
0.8753213701000001
 40
1.0
 40
1.0
 40
1.0
 40
1.0
 10
56.87919299009997
 20
54.46316474549997
 30
0.0
 10
56.88024860139996
 20
54.51636754379997
 30
0.0
 10
56.89266587819997
 20
54.62283041879992
 30
0.0
 10
56.94149878859995
 20
54.77572118779999
 30
0.0
 10
57.01872041229996
 20
54.91635919629992
 30
0.0
 10
57.12144355639996
 20
55.03939922189998
 30
0.0
 10
57.24582193689997
 20
55.14024997909995
 30
0.0
 10
57.38721974709998
 20
55.21511785509996
 30
0.0
 10
57.54026507219997
 20
55.26120268699997
 30
0.0
 10
57.64643695400002
 20
55.27156787609992
 30
0.0
 10
57.69937089019999
 20
55.27157106739996
 30
0.0
  0
SPLINE
  5
92A25
330
1F
100
AcDbEntity
  8
1
100
AcDbSpline
210
0.0
220
0.0
230
1.0
 70
     8
 71
     3
 72
    11
 73
     7
 74
     0
 42
0.000000001
 43
0.0000000001
 40
0.0
 40
0.0
 40
0.0
 40
0.0
 40
0.2504801591
 40
0.5005847326000003
 40
0.7503832134000003
 40
1.0
 40
1.0
 40
1.0
 40
1.0
 10
56.23681911009999
 20
57.78544577809999
 30
0.0
 10
56.27216848889997
 20
57.72226831119995
 30
0.0
 10
56.35995130499998
 20
57.60476708709997
 30
0.0
 10
56.53269197359998
 20
57.46959068189993
 30
0.0
 10
56.73456150349995
 20
57.38441726129996
 30
0.0
 10
56.87963059139996
 20
57.3650384123
 30
0.0
 10
56.95177560699999
 20
57.36504172379993
 30
0.0
  0
SPLINE
  5
92A26
330
1F
100
AcDbEntity
  8
1
100
AcDbSpline
210
0.0
220
0.0
230
1.0
 70
     8
 71
     3
 72
     9
 73
     5
 74
     0
 42
0.000000001
 43
0.0000000001
 40
0.0
 40
0.0
 40
0.0
 40
0.0
 40
0.5001943717000003
 40
1.0
 40
1.0
 40
1.0
 40
1.0
 10
55.15416018539998
 20
54.62591619679996
 30
0.0
 10
55.21428240560002
 20
54.6592291841
 30
0.0
 10
55.34342267199996
 20
54.71084837559992
 30
0.0
 10
55.48139722889999
 20
54.7283353026
 30
0.0
 10
55.55007834580003
 20
54.7283378207
 30
0.0
  0
SPLINE
  5
92A27
330
1F
100
AcDbEntity
  8
1
100
AcDbSpline
210
0.0
220
0.0
230
1.0
 70
     8
 71
     3
 72
    15
 73
    11
 74
     0
 42
0.000000001
 43
0.0000000001
 40
0.0
 40
0.0
 40
0.0
 40
0.0
 40
0.124628042
 40
0.2493689782
 40
0.374326657
 40
0.4994877589000001
 40
0.6247619744000003
 40
0.7500128916
 40
0.875107805
 40
1.0
 40
1.0
 40
1.0
 40
1.0
 10
57.9003026378
 20
55.27150000269997
 30
0.0
 10
57.93568289089995
 20
55.27150269749993
 30
0.0
 10
58.00701283650003
 20
55.2832194898
 30
0.0
 10
58.10237423040002
 20
55.3340947589
 30
0.0
 10
58.17668158269999
 20
55.41290823679997
 30
0.0
 10
58.22206476019999
 20
55.51139691139995
 30
0.0
 10
58.23384285769996
 20
55.61927502059994
 30
0.0
 10
58.21077254669996
 20
55.72531488699995
 30
0.0
 10
58.15535507499999
 20
55.81838902359995
 30
0.0
 10
58.10033609029995
 20
55.86552981049997
 30
0.0
 10
58.07003539580001
 20
55.88394019229996
 30
0.0
  0
SPLINE
  5
92A28
330
1F
100
AcDbEntity
  8
1
100
AcDbSpline
210
0.0
220
0.0
230
1.0
 70
     8
 71
     3
 72
    15
 73
    11
 74
     0
 42
0.000000001
 43
0.0000000001
 40
0.0
 40
0.0
 40
0.0
 40
0.0
 40
0.1246357826
 40
0.2493742916
 40
0.3743333544
 40
0.4994947161
 40
0.6247677847
 40
0.7500175045999999
 40
0.8751069288
 40
1.0
 40
1.0
 40
1.0
 40
1.0
 10
57.71386587490002
 20
55.27150472269993
 30
0.0
 10
57.74917747630002
 20
55.27169466469995
 30
0.0
 10
57.82030351140001
 20
55.28373491189994
 30
0.0
 10
57.91524954479999
 20
55.33491721009992
 30
0.0
 10
57.98912615689992
 20
55.41382952689996
 30
0.0
 10
58.03411827399997
 20
55.51225177449992
 30
0.0
 10
58.0456378234
 20
55.61993257429991
 30
0.0
 10
58.02243300069999
 20
55.72571276959997
 30
0.0
 10
57.96704582959995
 20
55.81854254909995
 30
0.0
 10
57.91212483229998
 20
55.86556628049997
 30
0.0
 10
57.88188416189999
 20
55.88394019229996
 30
0.0
  0
SPLINE
  5
92A29
330
1F
100
AcDbEntity
  8
1
100
AcDbSpline
210
0.0
220
0.0
230
1.0
 70
     8
 71
     3
 72
    15
 73
    11
 74
     0
 42
0.000000001
 43
0.0000000001
 40
0.0
 40
0.0
 40
0.0
 40
0.0
 40
0.1246791034
 40
0.2493893991
 40
0.3742004069
 40
0.4991307947000001
 40
0.6241934254000002
 40
0.7493814951000001
 40
0.8746591760999999
 40
1.0
 40
1.0
 40
1.0
 40
1.0
 10
57.88752211409995
 20
55.27157113199995
 30
0.0
 10
57.8345880398
 20
55.27156866579996
 30
0.0
 10
57.72841711599994
 20
55.26120322669997
 30
0.0
 10
57.57537349659997
 20
55.21511595759996
 30
0.0
 10
57.43397538019997
 20
55.14025041479998
 30
0.0
 10
57.30959784359999
 20
55.03939822259996
 30
0.0
 10
57.20687210239997
 20
54.91635942129994
 30
0.0
 10
57.12965368909999
 20
54.77572149909995
 30
0.0
 10
57.0808155282
 20
54.62283215229994
 30
0.0
 10
57.06839987000001
 20
54.51636928989994
 30
0.0
 10
57.06734422389996
 20
54.46316474549997
 30
0.0
  0
SPLINE
  5
92A2A
330
1F
100
AcDbEntity
  8
1
100
AcDbSpline
210
0.0
220
0.0
230
1.0
 70
     8
 71
     3
 72
    11
 73
     7
 74
     0
 42
0.000000001
 43
0.0000000001
 40
0.0
 40
0.0
 40
0.0
 40
0.0
 40
0.2504872201
 40
0.5005807783
 40
0.7503838721
 40
1.0
 40
1.0
 40
1.0
 40
1.0
 10
56.23681911009999
 20
57.78544577809999
 30
0.0
 10
56.22267658689998
 20
57.81072171839996
 30
0.0
 10
56.18755912879999
 20
57.8577314315
 30
0.0
 10
56.11844709949997
 20
57.91180483519996
 30
0.0
 10
56.03768898869997
 20
57.94588649219996
 30
0.0
 10
55.97965065979995
 20
57.95363352069999
 30
0.0
 10
55.95078788679995
 20
57.95363572919995
 30
0.0
  0
SPLINE
  5
92A2B
330
1F
100
AcDbEntity
  8
1
100
AcDbSpline
210
0.0
220
0.0
230
1.0
 70
     8
 71
     3
 72
    11
 73
     7
 74
     0
 42
0.000000001
 43
0.0000000001
 40
0.0
 40
0.0
 40
0.0
 40
0.0
 40
0.2493729203
 40
0.4991087073
 40
0.7493605746
 40
1.0
 40
1.0
 40
1.0
 40
1.0
 10
56.73921729549999
 20
54.13974755809991
 30
0.0
 10
56.78137535339999
 20
54.13974433229999
 30
0.0
 10
56.86665987150004
 20
54.15651599579994
 30
0.0
 10
56.9748520693
 20
54.22823919809996
 30
0.0
 10
57.04819982389995
 20
54.33557072649993
 30
0.0
 10
57.06650367149999
 20
54.42080091479997
 30
0.0
 10
57.06734422389996
 20
54.46316474549997
 30
0.0
  0
SPLINE
  5
92A2C
330
1F
100
AcDbEntity
  8
1
100
AcDbSpline
210
0.0
220
0.0
230
1.0
 70
     8
 71
     3
 72
    11
 73
     7
 74
     0
 42
0.000000001
 43
0.0000000001
 40
0.0
 40
0.0
 40
0.0
 40
0.0
 40
0.24943038
 40
0.4992619436
 40
0.7494793126000002
 40
1.0
 40
1.0
 40
1.0
 40
1.0
 10
56.645404343
 20
54.15367641869998
 30
0.0
 10
56.67827528919997
 20
54.16359259709996
 30
0.0
 10
56.74135364889997
 20
54.19412672769992
 30
0.0
 10
56.81679832700003
 20
54.26690380639995
 30
0.0
 10
56.86622218549996
 20
54.35950766709996
 30
0.0
 10
56.87850891479996
 20
54.42868736099994
 30
0.0
 10
56.87919299009997
 20
54.46316474549997
 30
0.0
  0
SPLINE
  5
92A2D
330
1F
100
AcDbEntity
  8
1
100
AcDbSpline
210
0.0
220
0.0
230
1.0
 70
     8
 71
     3
 72
     9
 73
     5
 74
     0
 42
0.000000001
 43
0.0000000001
 40
0.0
 40
0.0
 40
0.0
 40
0.0
 40
0.4998153354000002
 40
1.0
 40
1.0
 40
1.0
 40
1.0
 10
55.73822957529994
 20
54.72834156349994
 30
0.0
 10
55.66954706989998
 20
54.72833841089992
 30
0.0
 10
55.5315732711
 20
54.71084549789996
 30
0.0
 10
55.40243252069996
 20
54.65922856409996
 30
0.0
 10
55.3423114193
 20
54.62591619679996
 30
0.0
  0
SPLINE
  5
92A2E
330
1F
100
AcDbEntity
  8
1
100
AcDbSpline
210
0.0
220
0.0
230
1.0
 70
     8
 71
     3
 72
    27
 73
    23
 74
     0
 42
0.000000001
 43
0.0000000001
 40
0.0
 40
0.0
 40
0.0
 40
0.0
 40
0.0624443091
 40
0.0936779144
 40
0.1248995928
 40
0.1872352867
 40
0.249547087
 40
0.2807400646
 40
0.3119369115
 40
0.374278355
 40
0.4366687128000001
 40
0.4991217386
 40
0.5616416879
 40
0.6242226203
 40
0.6868492864000002
 40
0.7182104677
 40
0.7495743499
 40
0.8122226168
 40
0.8748435606999999
 40
0.9061741937
 40
0.9374887561000001
 40
1.0
 40
1.0
 40
1.0
 40
1.0
 10
54.71758255909998
 20
57.73473484159993
 30
0.0
 10
54.82722747380001
 20
57.84160978489992
 30
0.0
 10
55.00815803879999
 20
57.98626732809996
 30
0.0
 10
55.2732199395
 20
58.14038867129993
 30
0.0
 10
55.55196394580002
 20
58.26770160289992
 30
0.0
 10
55.92173409119999
 20
58.37430290639996
 30
0.0
 10
56.30518589799999
 20
58.40617249649993
 30
0.0
 10
56.61074543849998
 20
58.38626182699993
 30
0.0
 10
56.91292945939995
 20
58.33638399729998
 30
0.0
 10
57.27942785739998
 20
58.21833226029998
 30
0.0
 10
57.68279101859997
 20
57.99328804509997
 30
0.0
 10
58.03479882799996
 20
57.69344871149995
 30
0.0
 10
58.32181432990001
 20
57.33032619029994
 30
0.0
 10
58.53286166380001
 20
56.91800196929996
 30
0.0
 10
58.63871648470001
 20
56.54620583169997
 30
0.0
 10
58.67889166229996
 20
56.24105265049998
 30
0.0
 10
58.68918539089997
 20
55.93337728019996
 30
0.0
 10
58.64562575899999
 20
55.54916660599996
 30
0.0
 10
58.5282171923
 20
55.18084079409998
 30
0.0
 10
58.3929732264
 20
54.90456295019992
 30
0.0
 10
58.23163609119996
 20
54.64309628559991
 30
0.0
 10
58.08218506759994
 20
54.46563794949994
 30
0.0
 10
57.97242262319997
 20
54.35864844569998
 30
0.0
  0
SPLINE
  5
92A2F
330
1F
100
AcDbEntity
  8
1
100
AcDbSpline
210
0.0
220
0.0
230
1.0
 70
     8
 71
     3
 72
     9
 73
     5
 74
     0
 42
0.000000001
 43
0.0000000001
 40
0.0
 40
0.0
 40
0.0
 40
0.0
 40
0.4998034857000003
 40
1.0
 40
1.0
 40
1.0
 40
1.0
 10
55.1839172388
 20
54.58494117229996
 30
0.0
 10
55.21139423749997
 20
54.58493891399995
 30
0.0
 10
55.2665936636
 20
54.59193827989995
 30
0.0
 10
55.31825834019997
 20
54.61258867979994
 30
0.0
 10
55.3423114193
 20
54.62591619679996
 30
0.0
  0
SPLINE
  5
92A30
330
1F
100
AcDbEntity
  8
1
100
AcDbSpline
210
0.0
220
0.0
230
1.0
 70
     8
 71
     3
 72
     8
 73
     4
 74
     0
 42
0.000000001
 43
0.0000000001
 40
0.0
 40
0.0
 40
0.0
 40
0.0
 40
1.0
 40
1.0
 40
1.0
 40
1.0
 10
55.08959071909998
 20
54.59871324469997
 30
0.0
 10
55.11195957849998
 20
54.60542909449997
 30
0.0
 10
55.13373129189996
 20
54.61459679669996
 30
0.0
 10
55.15416018539998
 20
54.62591619679996
 30
0.0
  0
SPLINE
  5
92A31
330
1F
100
AcDbEntity
  8
1
100
AcDbSpline
210
0.0
220
0.0
230
1.0
 70
     8
 71
     3
 72
     9
 73
     5
 74
     0
 42
0.000000001
 43
0.0000000001
 40
0.0
 40
0.0
 40
0.0
 40
0.0
 40
0.2522504115
 40
1.0
 40
1.0
 40
1.0
 40
1.0
 10
63.49999999999994
 20
62.10970126460002
 30
0.0
 10
63.50029580589995
 20
62.00202453900001
 30
0.0
 10
63.50065054319998
 20
61.57515832569997
 30
0.0
 10
63.49770086989997
 20
61.14828887489993
 30
0.0
 10
63.49357432629997
 20
60.82912665149994
 30
0.0
  0
SPLINE
  5
92A32
330
1F
100
AcDbEntity
  8
1
100
AcDbSpline
210
0.0
220
0.0
230
1.0
 70
     8
 71
     3
 72
    15
 73
    11
 74
     0
 42
0.000000001
 43
0.0000000001
 40
0.0
 40
0.0
 40
0.0
 40
0.0
 40
0.1258910455
 40
0.2515356407
 40
0.3767782836
 40
0.5015520162
 40
0.6260207435
 40
0.750413378
 40
0.8749900659000001
 40
1.0
 40
1.0
 40
1.0
 40
1.0
 10
63.49999999999994
 20
62.10970126460002
 30
0.0
 10
63.49986196919997
 20
62.15994601529995
 30
0.0
 10
63.49012796789998
 20
62.26057293839993
 30
0.0
 10
63.44749936249996
 20
62.40567341969996
 30
0.0
 10
63.37866304749997
 20
62.53987987299995
 30
0.0
 10
63.28613493569998
 20
62.65839756229996
 30
0.0
 10
63.17308936759996
 20
62.75703927619996
 30
0.0
 10
63.04337333699999
 20
62.83231111859992
 30
0.0
 10
62.9015035432
 20
62.88146331289993
 30
0.0
 10
62.80215495810001
 20
62.89553850329999
 30
0.0
 10
62.75231240009997
 20
62.89778759019991
 30
0.0
  0
SPLINE
  5
92A33
330
1F
100
AcDbEntity
  8
1
100
AcDbSpline
210
0.0
220
0.0
230
1.0
 70
     8
 71
     3
 72
     9
 73
     5
 74
     0
 42
0.000000001
 43
0.0000000001
 40
0.0
 40
0.0
 40
0.0
 40
0.0
 40
0.2501272684
 40
1.0
 40
1.0
 40
1.0
 40
1.0
 10
61.46937001359997
 20
62.954930161
 30
0.0
 10
61.57633904399998
 20
62.95022767329998
 30
0.0
 10
62.00399471559999
 20
62.93136501949994
 30
0.0
 10
62.43163959240003
 20
62.91225757369999
 30
0.0
 10
62.75231240009997
 20
62.89778759019991
 30
0.0
  0
SPLINE
  5
92A34
330
1F
100
AcDbEntity
  8
1
100
AcDbSpline
210
0.0
220
0.0
230
1.0
 70
     8
 71
     3
 72
     9
 73
     5
 74
     0
 42
0.000000001
 43
0.0000000001
 40
0.0
 40
0.0
 40
0.0
 40
0.0
 40
0.2480572129
 40
1.0
 40
1.0
 40
1.0
 40
1.0
 10
54.96503908840001
 20
63.07301078870001
 30
0.0
 10
55.4984572661
 20
63.06343246089992
 30
0.0
 10
57.64884170029993
 20
63.02486211659998
 30
0.0
 10
59.79921972519997
 20
62.98593515349996
 30
0.0
 10
61.41617945499996
 20
62.95658144579991
 30
0.0
  0
SPLINE
  5
92A35
330
1F
100
AcDbEntity
  8
1
100
AcDbSpline
210
0.0
220
0.0
230
1.0
 70
     8
 71
     3
 72
    11
 73
     7
 74
     0
 42
0.000000001
 43
0.0000000001
 40
0.0
 40
0.0
 40
0.0
 40
0.0
 40
0.1243902714
 40
0.2489574667
 40
0.498665619
 40
1.0
 40
1.0
 40
1.0
 40
1.0
 10
53.64577554339996
 20
62.88166740769995
 30
0.0
 10
53.55915945869998
 20
62.83464234249994
 30
0.0
 10
53.38567028299998
 20
62.74077203009992
 30
0.0
 10
53.03838492209997
 20
62.55234981379993
 30
0.0
 10
52.4287066782
 20
62.22127334729997
 30
0.0
 10
51.90606803039997
 20
61.9367360855
 30
0.0
 10
51.55730764799995
 20
61.74660021439994
 30
0.0
  0
LINE
  5
92A36
330
1F
100
AcDbEntity
  8
1
100
AcDbLine
 10
48.42481317879997
 20
60.03214947679992
 30
0.0
 11
47.9951107695
 21
59.79602317759996
 31
0.0
  0
SPLINE
  5
92A37
330
1F
100
AcDbEntity
  8
1
100
AcDbSpline
210
0.0
220
0.0
230
1.0
 70
     8
 71
     3
 72
     9
 73
     5
 74
     0
 42
0.000000001
 43
0.0000000001
 40
0.0
 40
0.0
 40
0.0
 40
0.0
 40
0.2497903311
 40
1.0
 40
1.0
 40
1.0
 40
1.0
 10
47.94888240149997
 20
59.76982279169997
 30
0.0
 10
47.85652953419996
 20
59.71586970339995
 30
0.0
 10
47.48716997719998
 20
59.49925722519991
 30
0.0
 10
47.11923572769999
 20
59.28021394409999
 30
0.0
 10
46.84404651130001
 20
59.11449920609992
 30
0.0
  0
SPLINE
  5
92A38
330
1F
100
AcDbEntity
  8
1
100
AcDbSpline
210
0.0
220
0.0
230
1.0
 70
     8
 71
     3
 72
     9
 73
     5
 74
     0
 42
0.000000001
 43
0.0000000001
 40
0.0
 40
0.0
 40
0.0
 40
0.0
 40
0.5004175533
 40
1.0
 40
1.0
 40
1.0
 40
1.0
 10
46.84404651130001
 20
59.11449920609992
 30
0.0
 10
46.80418078409997
 20
59.09049267479995
 30
0.0
 10
46.72865688679997
 20
59.03527610649994
 30
0.0
 10
46.6642008059
 20
58.96747214769991
 30
0.0
 10
46.63530877189996
 20
58.93109058369997
 30
0.0
  0
SPLINE
  5
92A39
330
1F
100
AcDbEntity
  8
1
100
AcDbSpline
210
0.0
220
0.0
230
1.0
 70
     8
 71
     3
 72
     9
 73
     5
 74
     0
 42
0.000000001
 43
0.0000000001
 40
0.0
 40
0.0
 40
0.0
 40
0.0
 40
0.2514710115
 40
1.0
 40
1.0
 40
1.0
 40
1.0
 10
46.60268838069998
 20
57.97301539309994
 30
0.0
 10
46.64820620959996
 20
57.88710796019994
 30
0.0
 10
46.82973146040001
 20
57.54576359309992
 30
0.0
 10
47.01334787869996
 20
57.20553110829995
 30
0.0
 10
47.15198192039998
 20
56.95151054819994
 30
0.0
  0
SPLINE
  5
92A3A
330
1F
100
AcDbEntity
  8
1
100
AcDbSpline
210
0.0
220
0.0
230
1.0
 70
     8
 71
     3
 72
    15
 73
    11
 74
     0
 42
0.000000001
 43
0.0000000001
 40
0.0
 40
0.0
 40
0.0
 40
0.0
 40
0.0306499166
 40
0.061331899
 40
0.122851997
 40
0.2464458681
 40
0.3707021765
 40
0.4955598939
 40
0.7468641268999999
 40
1.0
 40
1.0
 40
1.0
 40
1.0
 10
63.04773835099997
 20
53.71262574789994
 30
0.0
 10
63.02002192189997
 20
53.66314078739996
 30
0.0
 10
62.96483077939999
 20
53.56396775109992
 30
0.0
 10
62.85393689720002
 20
53.3655086389
 30
0.0
 10
62.65902044749998
 20
53.01697494029999
 30
0.0
 10
62.37890516369998
 20
52.51768835989995
 30
0.0
 10
62.04057181589996
 20
51.91667141669993
 30
0.0
 10
61.58516033749998
 20
51.11035924209999
 30
0.0
 10
61.01046749379997
 20
50.09751363609995
 30
0.0
 10
60.54789757689997
 20
49.28670629479994
 30
0.0
 10
60.31534228240002
 20
48.8800770117999
 30
0.0
  0
SPLINE
  5
92A3B
330
1F
100
AcDbEntity
  8
1
100
AcDbSpline
210
0.0
220
0.0
230
1.0
 70
     8
 71
     3
 72
    10
 73
     6
 74
     0
 42
0.000000001
 43
0.0000000001
 40
0.0
 40
0.0
 40
0.0
 40
0.0
 40
0.2504772958
 40
0.5017643659000001
 40
1.0
 40
1.0
 40
1.0
 40
1.0
 10
54.38497738759997
 20
63.0732659323
 30
0.0
 10
54.32065696389996
 20
63.07326507009996
 30
0.0
 10
54.19161879379998
 20
63.06484701069995
 30
0.0
 10
53.93922016080001
 20
63.01506655189996
 30
0.0
 10
53.75821570389996
 20
62.94271271909996
 30
0.0
 10
53.64577554339996
 20
62.88166740769995
 30
0.0
  0
SPLINE
  5
92A3C
330
1F
100
AcDbEntity
  8
1
100
AcDbSpline
210
0.0
220
0.0
230
1.0
 70
     8
 71
     3
 72
    19
 73
    15
 74
     0
 42
0.000000001
 43
0.0000000001
 40
0.0
 40
0.0
 40
0.0
 40
0.0
 40
0.1285534654
 40
0.1922078605
 40
0.2551507149
 40
0.2862860969
 40
0.3171858674
 40
0.3788971711
 40
0.4406871129
 40
0.5025511783
 40
0.6264970476000002
 40
0.7507258756000002
 40
0.8752295501
 40
1.0
 40
1.0
 40
1.0
 40
1.0
 10
63.25181409939996
 20
54.46753511739995
 30
0.0
 10
63.25554354279995
 20
54.73807172499992
 30
0.0
 10
63.26361564349998
 20
55.14253877529994
 30
0.0
 10
63.27940495589996
 20
55.67931649039995
 30
0.0
 10
63.29131095040001
 20
56.0110803381
 30
0.0
 10
63.30202113800002
 20
56.27389989119993
 30
0.0
 10
63.31361073379998
 20
56.53408730789992
 30
0.0
 10
63.32808207329998
 20
56.85872762709998
 30
0.0
 10
63.34520781769999
 20
57.24848398389997
 30
0.0
 10
63.36786478970001
 20
57.76910664579997
 30
0.0
 10
63.39577500979991
 20
58.42103812469996
 30
0.0
 10
63.42860925270001
 20
59.20471478219996
 30
0.0
 10
63.46079601110004
 20
59.99015522699996
 30
0.0
 10
63.48180427459997
 20
60.51437369549994
 30
0.0
 10
63.49219724599997
 20
60.77676827489995
 30
0.0
  0
SPLINE
  5
92A3D
330
1F
100
AcDbEntity
  8
1
100
AcDbSpline
210
0.0
220
0.0
230
1.0
 70
     8
 71
     3
 72
     8
 73
     4
 74
     0
 42
0.000000001
 43
0.0000000001
 40
0.0
 40
0.0
 40
0.0
 40
0.0
 40
1.0
 40
1.0
 40
1.0
 40
1.0
 10
63.49357432629997
 20
60.82912665149994
 30
0.0
 10
63.49334861479997
 20
60.81166928289995
 30
0.0
 10
63.49288821649998
 20
60.7942134237999
 30
0.0
 10
63.49219724599997
 20
60.77676827489995
 30
0.0
  0
SPLINE
  5
92A3E
330
1F
100
AcDbEntity
  8
1
100
AcDbSpline
210
0.0
220
0.0
230
1.0
 70
     8
 71
     3
 72
     8
 73
     4
 74
     0
 42
0.000000001
 43
0.0000000001
 40
0.0
 40
0.0
 40
0.0
 40
0.0
 40
1.0
 40
1.0
 40
1.0
 40
1.0
 10
61.46937001359997
 20
62.954930161
 30
0.0
 10
61.45164840149999
 20
62.95570922439996
 30
0.0
 10
61.43391526089999
 20
62.95625947639996
 30
0.0
 10
61.41617945499996
 20
62.95658144579991
 30
0.0
  0
SPLINE
  5
92A3F
330
1F
100
AcDbEntity
  8
1
100
AcDbSpline
210
0.0
220
0.0
230
1.0
 70
     8
 71
     3
 72
     8
 73
     4
 74
     0
 42
0.000000001
 43
0.0000000001
 40
0.0
 40
0.0
 40
0.0
 40
0.0
 40
1.0
 40
1.0
 40
1.0
 40
1.0
 10
47.9951107695
 20
59.79602317759996
 30
0.0
 10
47.97958918409999
 20
59.7874905882
 30
0.0
 10
47.96417607989996
 20
59.77875744859993
 30
0.0
 10
47.94888240149997
 20
59.76982279169997
 30
0.0
  0
SPLINE
  5
92A40
330
1F
100
AcDbEntity
  8
1
100
AcDbSpline
210
0.0
220
0.0
230
1.0
 70
     8
 71
     3
 72
    10
 73
     6
 74
     0
 42
0.000000001
 43
0.0000000001
 40
0.0
 40
0.0
 40
0.0
 40
0.0
 40
0.4914532320000001
 40
0.7454311788
 40
1.0
 40
1.0
 40
1.0
 40
1.0
 10
63.04773835099997
 20
53.71262574789994
 30
0.0
 10
63.11088074509996
 20
53.82536028719993
 30
0.0
 10
63.18556754819997
 20
54.00923662139994
 30
0.0
 10
63.24033359979996
 20
54.26682040989998
 30
0.0
 10
63.25089151419996
 20
54.40061010349996
 30
0.0
 10
63.25181409939996
 20
54.46753511739995
 30
0.0
  0
SPLINE
  5
92A41
330
1F
100
AcDbEntity
  8
1
100
AcDbSpline
210
0.0
220
0.0
230
1.0
 70
     8
 71
     3
 72
    15
 73
    11
 74
     0
 42
0.000000001
 43
0.0000000001
 40
0.0
 40
0.0
 40
0.0
 40
0.0
 40
0.1306959746
 40
0.2579321716
 40
0.3197225716
 40
0.3810708103
 40
0.5040801217000001
 40
0.6274864941000004
 40
0.7512806939
 40
1.0
 40
1.0
 40
1.0
 40
1.0
 10
54.19833722569999
 20
62.88166740769995
 30
0.0
 10
53.96526404990003
 20
62.75009046760001
 30
0.0
 10
53.50609098369995
 20
62.48899480719996
 30
0.0
 10
52.93889543400002
 20
62.16189469929997
 30
0.0
 10
52.49622451759996
 20
61.90316671009997
 30
0.0
 10
52.06122853810001
 20
61.64846325629996
 30
0.0
 10
51.51713169169994
 20
61.33036456339993
 30
0.0
 10
50.86249324569997
 20
60.94796823689996
 30
0.0
 10
49.9853036898
 20
60.43616805089992
 30
0.0
 10
49.32612749099996
 20
60.05218790239998
 30
0.0
 10
48.88588712529998
 20
59.79602317759996
 30
0.0
  0
SPLINE
  5
92A42
330
1F
100
AcDbEntity
  8
1
100
AcDbSpline
210
0.0
220
0.0
230
1.0
 70
     8
 71
     3
 72
     9
 73
     5
 74
     0
 42
0.000000001
 43
0.0000000001
 40
0.0
 40
0.0
 40
0.0
 40
0.0
 40
0.2535368389999999
 40
1.0
 40
1.0
 40
1.0
 40
1.0
 10
47.77159716359999
 20
59.11449920609992
 30
0.0
 10
47.8623035965
 20
59.16951004369995
 30
0.0
 10
48.21984966759996
 20
59.38684337899996
 30
0.0
 10
48.57650934939994
 20
59.60563544179994
 30
0.0
 10
48.84220543309999
 20
59.76982279169997
 30
0.0
  0
SPLINE
  5
92A43
330
1F
100
AcDbEntity
  8
1
100
AcDbSpline
210
0.0
220
0.0
230
1.0
 70
     8
 71
     3
 72
    15
 73
    11
 74
     0
 42
0.000000001
 43
0.0000000001
 40
0.0
 40
0.0
 40
0.0
 40
0.0
 40
0.1239265941
 40
0.2482211204
 40
0.3727491386
 40
0.497497576
 40
0.6225891218000001
 40
0.7480766155
 40
0.8739256233
 40
1.0
 40
1.0
 40
1.0
 40
1.0
 10
47.77159716359999
 20
59.11449920609992
 30
0.0
 10
47.72910870199996
 20
59.08873117859996
 30
0.0
 10
47.64875504009999
 20
59.02879534869997
 30
0.0
 10
47.54743398869999
 20
58.91774792089996
 30
0.0
 10
47.46874229439995
 20
58.78921094869999
 30
0.0
 10
47.41564772009996
 20
58.64784333549997
 30
0.0
 10
47.38989874039996
 20
58.49866763429997
 30
0.0
 10
47.39237086809999
 20
58.34685970439996
 30
0.0
 10
47.4229541129
 20
58.19780036499991
 30
0.0
 10
47.46143541409998
 20
58.10365839749993
 30
0.0
 10
47.48482094949998
 20
58.05883977439997
 30
0.0
  0
SPLINE
  5
92A44
330
1F
100
AcDbEntity
  8
1
100
AcDbSpline
210
0.0
220
0.0
230
1.0
 70
     8
 71
     3
 72
     9
 73
     5
 74
     0
 42
0.000000001
 43
0.0000000001
 40
0.0
 40
0.0
 40
0.0
 40
0.0
 40
0.2465918247
 40
1.0
 40
1.0
 40
1.0
 40
1.0
 10
48.06127487080003
 20
56.92226098019997
 30
0.0
 10
48.01500608330003
 20
57.01624294189996
 30
0.0
 10
47.82620373119999
 20
57.39678998919997
 30
0.0
 10
47.63287626009995
 20
57.77509022309992
 30
0.0
 10
47.48482094949998
 20
58.05883977439997
 30
0.0
  0
SPLINE
  5
92A45
330
1F
100
AcDbEntity
  8
1
100
AcDbSpline
210
0.0
220
0.0
230
1.0
 70
     8
 71
     3
 72
     9
 73
     5
 74
     0
 42
0.000000001
 43
0.0000000001
 40
0.0
 40
0.0
 40
0.0
 40
0.0
 40
0.2472653207
 40
1.0
 40
1.0
 40
1.0
 40
1.0
 10
50.40010995169996
 20
52.41868997769994
 30
0.0
 10
50.21105691309998
 20
52.7870012556
 30
0.0
 10
49.4443946188
 20
54.27546891709997
 30
0.0
 10
48.67031775569994
 20
55.76011018949997
 30
0.0
 10
48.08473057340001
 20
56.87611420479999
 30
0.0
  0
SPLINE
  5
92A46
330
1F
100
AcDbEntity
  8
1
100
AcDbSpline
210
0.0
220
0.0
230
1.0
 70
     8
 71
     3
 72
     9
 73
     5
 74
     0
 42
0.000000001
 43
0.0000000001
 40
0.0
 40
0.0
 40
0.0
 40
0.0
 40
0.4992946582
 40
1.0
 40
1.0
 40
1.0
 40
1.0
 10
54.93661102909999
 20
63.07326600949996
 30
0.0
 10
54.80860086279995
 20
63.07326498759993
 30
0.0
 10
54.55103846930001
 20
63.04196110029998
 30
0.0
 10
54.31012585209998
 20
62.94477550819998
 30
0.0
 10
54.19833722569999
 20
62.88166740769995
 30
0.0
  0
SPLINE
  5
92A47
330
1F
100
AcDbEntity
  8
1
100
AcDbSpline
210
0.0
220
0.0
230
1.0
 70
     8
 71
     3
 72
     8
 73
     4
 74
     0
 42
0.000000001
 43
0.0000000001
 40
0.0
 40
0.0
 40
0.0
 40
0.0
 40
1.0
 40
1.0
 40
1.0
 40
1.0
 10
48.06127487080003
 20
56.92226098019997
 30
0.0
 10
48.06889634069995
 20
56.9067801188
 30
0.0
 10
48.0767131256
 20
56.89139374679996
 30
0.0
 10
48.08473057340001
 20
56.87611420479999
 30
0.0
  0
SPLINE
  5
92A48
330
1F
100
AcDbEntity
  8
1
100
AcDbSpline
210
0.0
220
0.0
230
1.0
 70
     8
 71
     3
 72
     8
 73
     4
 74
     0
 42
0.000000001
 43
0.0000000001
 40
0.0
 40
0.0
 40
0.0
 40
0.0
 40
1.0
 40
1.0
 40
1.0
 40
1.0
 10
48.84220543309999
 20
59.76982279169997
 30
0.0
 10
48.85664908799999
 20
59.77874827299995
 30
0.0
 10
48.87121179309996
 20
59.78748397329995
 30
0.0
 10
48.88588712529998
 20
59.79602317759996
 30
0.0
  0
SPLINE
  5
92A49
330
1F
100
AcDbEntity
  8
1
100
AcDbSpline
210
0.0
220
0.0
230
1.0
 70
     8
 71
     3
 72
    10
 73
     6
 74
     0
 42
0.000000001
 43
0.0000000001
 40
0.0
 40
0.0
 40
0.0
 40
0.0
 40
0.2496156701
 40
0.5040091531000001
 40
1.0
 40
1.0
 40
1.0
 40
1.0
 10
59.25344438619998
 20
49.61482226629993
 30
0.0
 10
58.9828401163
 20
49.79133702809996
 30
0.0
 10
58.41972290839999
 20
50.12272084159995
 30
0.0
 10
57.25270134299996
 20
50.68480580979995
 30
0.0
 10
56.33191789849997
 20
51.00651424519996
 30
0.0
 10
55.71366150659997
 20
51.17940936800001
 30
0.0
  0
SPLINE
  5
92A4A
330
1F
100
AcDbEntity
  8
1
100
AcDbSpline
210
0.0
220
0.0
230
1.0
 70
     8
 71
     3
 72
    19
 73
    15
 74
     0
 42
0.000000001
 43
0.0000000001
 40
0.0
 40
0.0
 40
0.0
 40
0.0
 40
0.0385820308
 40
0.0634379679
 40
0.0929378899
 40
0.1277507411
 40
0.1685226331
 40
0.2158873005
 40
0.2704610981
 40
0.3328205943
 40
0.4034595319000001
 40
0.5707158483
 40
0.7717071075000001
 40
1.0
 40
1.0
 40
1.0
 40
1.0
 10
61.71366150659998
 20
47.40842132519996
 30
0.0
 10
61.71366150659998
 20
47.45161828689997
 30
0.0
 10
61.69570231849997
 20
47.52239990339997
 30
0.0
 10
61.65182042959997
 20
47.61660775749992
 30
0.0
 10
61.600183765
 20
47.70234186409997
 30
0.0
 10
61.53123873409999
 20
47.79776676279998
 30
0.0
 10
61.44333896639995
 20
47.90382463129996
 30
0.0
 10
61.33484506259996
 20
48.02120381279994
 30
0.0
 10
61.20404362009996
 20
48.15061693289992
 30
0.0
 10
61.04928860989996
 20
48.29264487449997
 30
0.0
 10
60.79439830199999
 20
48.51190002529992
 30
0.0
 10
60.40818490879996
 20
48.81606680949992
 30
0.0
 10
59.86657787359995
 20
49.20712030179991
 30
0.0
 10
59.46752528099995
 20
49.47517761789992
 30
0.0
 10
59.25344438619998
 20
49.61482226629993
 30
0.0
  0
LINE
  5
92A4B
330
1F
100
AcDbEntity
  8
1
100
AcDbLine
 10
51.32900840089996
 20
62.16847673859994
 30
0.0
 11
51.20492660459996
 21
62.24548413149992
 31
0.0
  0
SPLINE
  5
92A4C
330
1F
100
AcDbEntity
  8
1
100
AcDbSpline
210
0.0
220
0.0
230
1.0
 70
     8
 71
     3
 72
    20
 73
    16
 74
     0
 42
0.000000001
 43
0.0000000001
 40
0.0
 40
0.0
 40
0.0
 40
0.0
 40
0.215241308
 40
0.409079084
 40
0.5788380294
 40
0.7221567258000002
 40
0.7832640599
 40
0.8370474279000001
 40
0.8833271873999999
 40
0.9219585683
 40
0.9528411837
 40
0.9759431496999999
 40
0.9913839918
 40
0.9964220967000001
 40
1.0
 40
1.0
 40
1.0
 40
1.0
 10
49.65136519029994
 20
62.46296995819999
 30
0.0
 10
49.56478959330002
 20
62.46631770979996
 30
0.0
 10
49.40028052819997
 20
62.47358879289993
 30
0.0
 10
49.1676512455
 20
62.48680918199993
 30
0.0
 10
48.96411460369995
 20
62.50133308209996
 30
0.0
 10
48.81407551319995
 20
62.51468147219997
 30
0.0
 10
48.71073856499998
 20
62.52585868229997
 30
0.0
 10
48.64635059289998
 20
62.533810636
 30
0.0
 10
48.59107654779996
 20
62.54171566199993
 30
0.0
 10
48.54512768999999
 20
62.54951761479997
 30
0.0
 10
48.50858832400001
 20
62.55711474699994
 30
0.0
 10
48.48166879859997
 20
62.56447364389996
 30
0.0
 10
48.46513216479997
 20
62.57082602889997
 30
0.0
 10
48.45711754339999
 20
62.57630078619995
 30
0.0
 10
48.45489076959996
 20
62.57915269289997
 30
0.0
 10
48.45443272819999
 20
62.58051811419996
 30
0.0
  0
SPLINE
  5
92A4D
330
1F
100
AcDbEntity
  8
1
100
AcDbSpline
210
0.0
220
0.0
230
1.0
 70
     8
 71
     3
 72
    14
 73
    10
 74
     0
 42
0.000000001
 43
0.0000000001
 40
0.0
 40
0.0
 40
0.0
 40
0.0
 40
0.0594675428
 40
0.1371959176
 40
0.2343238796
 40
0.3511205922
 40
0.4872071837
 40
0.6416739171
 40
1.0
 40
1.0
 40
1.0
 40
1.0
 10
51.20492660459996
 20
62.24548413149992
 30
0.0
 10
51.17832219830001
 20
62.26192751509993
 30
0.0
 10
51.1121097106
 20
62.29182575679992
 30
0.0
 10
50.99407388419996
 20
62.32763616549997
 30
0.0
 10
50.84395689129998
 20
62.35987062529993
 30
0.0
 10
50.66203347199996
 20
62.38832873259997
 30
0.0
 10
50.44916690579999
 20
62.41293724509993
 30
0.0
 10
50.10911040629997
 20
62.44202612059996
 30
0.0
 10
49.83967944889997
 20
62.45568800829992
 30
0.0
 10
49.65136519029994
 20
62.46296995819999
 30
0.0
  0
SPLINE
  5
92A4E
330
1F
100
AcDbEntity
  8
1
100
AcDbSpline
210
0.0
220
0.0
230
1.0
 70
     8
 71
     3
 72
     9
 73
     5
 74
     0
 42
0.000000001
 43
0.0000000001
 40
0.0
 40
0.0
 40
0.0
 40
0.0
 40
0.4764204556000001
 40
1.0
 40
1.0
 40
1.0
 40
1.0
 10
34.73294446950002
 20
55.57341500209997
 30
0.0
 10
35.30458975630001
 20
55.50404088229999
 30
0.0
 10
36.50315164469998
 20
55.34756846979996
 30
0.0
 10
37.69965339509997
 20
55.17627505489996
 30
0.0
 10
38.32569488659999
 20
55.08376496519995
 30
0.0
  0
SPLINE
  5
92A4F
330
1F
100
AcDbEntity
  8
1
100
AcDbSpline
210
0.0
220
0.0
230
1.0
 70
     8
 71
     3
 72
    18
 73
    14
 74
     0
 42
0.000000001
 43
0.0000000001
 40
0.0
 40
0.0
 40
0.0
 40
0.0
 40
0.1709018837
 40
0.3323478949
 40
0.4825497551
 40
0.6195564531000001
 40
0.7413424593000002
 40
0.7959222145
 40
0.8460085044999999
 40
0.8914497434999999
 40
0.9321746728
 40
0.9682615906999998
 40
1.0
 40
1.0
 40
1.0
 40
1.0
 10
34.73294446950002
 20
55.57341500209997
 30
0.0
 10
34.5904894327
 20
55.49926202019996
 30
0.0
 10
34.31117753639995
 20
55.35937545629995
 30
0.0
 10
33.89852911650002
 20
55.17110820719996
 30
0.0
 10
33.50775430990001
 20
55.01241812539993
 30
0.0
 10
33.1445286055
 20
54.88623394159997
 30
0.0
 10
32.86036299450002
 20
54.80770209469993
 30
0.0
 10
32.65174394959996
 20
54.76531151919992
 30
0.0
 10
32.5121108939
 20
54.74472771999995
 30
0.0
 10
32.38437555709999
 20
54.73442825809995
 30
0.0
 10
32.26931803529999
 20
54.73470757889996
 30
0.0
 10
32.1676983093
 20
54.74574967759997
 30
0.0
 10
32.10556707389998
 20
54.76139950249994
 30
0.0
 10
32.07748815219998
 20
54.77145483959997
 30
0.0
  0
SPLINE
  5
92A50
330
1F
100
AcDbEntity
  8
1
100
AcDbSpline
210
0.0
220
0.0
230
1.0
 70
     8
 71
     3
 72
     9
 73
     5
 74
     0
 42
0.000000001
 43
0.0000000001
 40
0.0
 40
0.0
 40
0.0
 40
0.0
 40
0.2387458703
 40
1.0
 40
1.0
 40
1.0
 40
1.0
 10
47.41973240649996
 20
60.06012760289995
 30
0.0
 10
47.45279544829998
 20
60.06491825109996
 30
0.0
 10
47.59164860959997
 20
60.08232569759996
 30
0.0
 10
47.73195447479998
 20
60.08850334339996
 30
0.0
 10
47.8384565243
 20
60.08633118849997
 30
0.0
  0
SPLINE
  5
92A51
330
1F
100
AcDbEntity
  8
1
100
AcDbSpline
210
0.0
220
0.0
230
1.0
 70
     8
 71
     3
 72
     9
 73
     5
 74
     0
 42
0.000000001
 43
0.0000000001
 40
0.0
 40
0.0
 40
0.0
 40
0.0
 40
0.5800835117
 40
1.0
 40
1.0
 40
1.0
 40
1.0
 10
39.99406697639995
 20
54.76640916139995
 30
0.0
 10
39.67355507959997
 20
54.83811215039995
 30
0.0
 10
39.11904991990002
 20
54.95312595039997
 30
0.0
 10
38.56089121459996
 20
55.04901002689996
 30
0.0
 10
38.32569488659999
 20
55.08376496519995
 30
0.0
  0
SPLINE
  5
92A52
330
1F
100
AcDbEntity
  8
1
100
AcDbSpline
210
0.0
220
0.0
230
1.0
 70
     8
 71
     3
 72
     8
 73
     4
 74
     0
 42
0.000000001
 43
0.0000000001
 40
0.0
 40
0.0
 40
0.0
 40
0.0
 40
1.0
 40
1.0
 40
1.0
 40
1.0
 10
47.87432378720001
 20
60.30244478179996
 30
0.0
 10
47.85432214549996
 20
60.29500019469996
 30
0.0
 10
47.83445589279994
 20
60.28718127519993
 30
0.0
 10
47.81474532129999
 20
60.27899708799997
 30
0.0
  0
SPLINE
  5
92A53
330
1F
100
AcDbEntity
  8
1
100
AcDbSpline
210
0.0
220
0.0
230
1.0
 70
     8
 71
     3
 72
     9
 73
     5
 74
     0
 42
0.000000001
 43
0.0000000001
 40
0.0
 40
0.0
 40
0.0
 40
0.0
 40
0.4948884205
 40
1.0
 40
1.0
 40
1.0
 40
1.0
 10
50.2808713713
 20
62.67003069129997
 30
0.0
 10
50.56014519369995
 20
62.67490548409998
 30
0.0
 10
51.1244694454
 20
62.68432154929995
 30
0.0
 10
51.68878263479996
 20
62.69437766479994
 30
0.0
 10
51.973823384
 20
62.69947611839993
 30
0.0
  0
LINE
  5
92A54
330
1F
100
AcDbEntity
  8
1
100
AcDbLine
 10
52.02618060330003
 20
52.04873489279997
 30
0.0
 11
51.973823384
 21
52.06070060579996
 31
0.0
  0
SPLINE
  5
92A55
330
1F
100
AcDbEntity
  8
1
100
AcDbSpline
210
0.0
220
0.0
230
1.0
 70
     8
 71
     3
 72
     8
 73
     4
 74
     0
 42
0.000000001
 43
0.0000000001
 40
0.0
 40
0.0
 40
0.0
 40
0.0
 40
1.0
 40
1.0
 40
1.0
 40
1.0
 10
51.973823384
 20
62.69947611839993
 30
0.0
 10
51.99127373069996
 20
62.69978824849999
 30
0.0
 10
52.00872746699997
 20
62.69994809539999
 30
0.0
 10
52.02618060330003
 20
62.69995548829995
 30
0.0
  0
SPLINE
  5
92A56
330
1F
100
AcDbEntity
  8
1
100
AcDbSpline
210
0.0
220
0.0
230
1.0
 70
     8
 71
     3
 72
     9
 73
     5
 74
     0
 42
0.000000001
 43
0.0000000001
 40
0.0
 40
0.0
 40
0.0
 40
0.0
 40
0.2482634383
 40
1.0
 40
1.0
 40
1.0
 40
1.0
 10
55.71366150659997
 20
51.17940936800001
 30
0.0
 10
55.64046188419997
 20
51.19987960959996
 30
0.0
 10
55.34514873109998
 20
51.28065425769996
 30
0.0
 10
55.04796644399999
 20
51.35460671819997
 30
0.0
 10
54.82367258459999
 20
51.40619724909996
 30
0.0
  0
LINE
  5
92A57
330
1F
100
AcDbEntity
  8
1
100
AcDbLine
 10
52.02618060330003
 20
62.69995548829995
 30
0.0
 11
52.34123226399997
 21
62.70003819459997
 31
0.0
  0
SPLINE
  5
92A58
330
1F
100
AcDbEntity
  8
1
100
AcDbSpline
210
0.0
220
0.0
230
1.0
 70
     8
 71
     3
 72
     9
 73
     5
 74
     0
 42
0.000000001
 43
0.0000000001
 40
0.0
 40
0.0
 40
0.0
 40
0.0
 40
0.2510809205
 40
1.0
 40
1.0
 40
1.0
 40
1.0
 10
49.85747289709998
 20
52.54200933819999
 30
0.0
 10
49.78549601909998
 20
52.67159238549997
 30
0.0
 10
49.49981017449999
 20
53.18823810839997
 30
0.0
 10
49.2179292427
 20
53.7069875305
 30
0.0
 10
49.00896140220002
 20
54.09662924159999
 30
0.0
  0
SPLINE
  5
92A59
330
1F
100
AcDbEntity
  8
1
100
AcDbSpline
210
0.0
220
0.0
230
1.0
 70
     8
 71
     3
 72
    21
 73
    17
 74
     0
 42
0.000000001
 43
0.0000000001
 40
0.0
 40
0.0
 40
0.0
 40
0.0
 40
0.0617214919
 40
0.1235116552
 40
0.1854204068
 40
0.2474868585
 40
0.3097359703
 40
0.3721777119
 40
0.4348066891000001
 40
0.4976021888
 40
0.6232363134000001
 40
0.7490127654000001
 40
0.8119776823
 40
0.8748215998999999
 40
0.9375044946999999
 40
1.0
 40
1.0
 40
1.0
 40
1.0
 10
47.6758168115
 20
56.58241240499997
 30
0.0
 10
47.5897713707
 20
56.62355421329992
 30
0.0
 10
47.42349455299995
 20
56.71895060329994
 30
0.0
 10
47.1981272928
 20
56.89749984359996
 30
0.0
 10
47.00108882709996
 20
57.10769137379998
 30
0.0
 10
46.83646708459997
 20
57.34495615649993
 30
0.0
 10
46.70751124309997
 20
57.60425307319994
 30
0.0
 10
46.61671549929996
 20
57.88013054429995
 30
0.0
 10
46.56588089979999
 20
58.16697906359994
 30
0.0
 10
46.5526360206
 20
58.55578436289992
 30
0.0
 10
46.63925884890001
 20
59.04048976819995
 30
0.0
 10
46.85767117189999
 20
59.48216676509996
 30
0.0
 10
47.10036045009996
 20
59.78729138909999
 30
0.0
 10
47.31310326349995
 20
59.98778268139999
 30
0.0
 10
47.55185124359996
 20
60.15503782089997
 30
0.0
 10
47.72546918009999
 20
60.24217570239994
 30
0.0
 10
47.81474532129999
 20
60.27899708799997
 30
0.0
  0
SPLINE
  5
92A5A
330
1F
100
AcDbEntity
  8
1
100
AcDbSpline
210
0.0
220
0.0
230
1.0
 70
     8
 71
     3
 72
     8
 73
     4
 74
     0
 42
0.000000001
 43
0.0000000001
 40
0.0
 40
0.0
 40
0.0
 40
0.0
 40
1.0
 40
1.0
 40
1.0
 40
1.0
 10
50.06341589399999
 20
52.77378526499997
 30
0.0
 10
49.98929361929999
 20
52.70227074189996
 30
0.0
 10
49.91987150389996
 20
52.62557087999994
 30
0.0
 10
49.8558787357
 20
52.54486546369996
 30
0.0
  0
SPLINE
  5
92A5B
330
1F
100
AcDbEntity
  8
1
100
AcDbSpline
210
0.0
220
0.0
230
1.0
 70
     8
 71
     3
 72
     9
 73
     5
 74
     0
 42
0.000000001
 43
0.0000000001
 40
0.0
 40
0.0
 40
0.0
 40
0.0
 40
0.2558711969
 40
1.0
 40
1.0
 40
1.0
 40
1.0
 10
47.8384565243
 20
60.08633118849997
 30
0.0
 10
47.86285727199998
 20
60.08583352479996
 30
0.0
 10
47.95819377009997
 20
60.08270987989992
 30
0.0
 10
48.05337512900003
 20
60.07503742549999
 30
0.0
 10
48.12388407400002
 20
60.0668960716
 30
0.0
  0
SPLINE
  5
92A5C
330
1F
100
AcDbEntity
  8
1
100
AcDbSpline
210
0.0
220
0.0
230
1.0
 70
     8
 71
     3
 72
     9
 73
     5
 74
     0
 42
0.000000001
 43
0.0000000001
 40
0.0
 40
0.0
 40
0.0
 40
0.0
 40
0.2535977447
 40
1.0
 40
1.0
 40
1.0
 40
1.0
 10
47.27908960219997
 20
59.95015994149994
 30
0.0
 10
47.31760334199996
 20
59.95277231419997
 30
0.0
 10
47.46965762179996
 20
59.96015240859996
 30
0.0
 10
47.6222612368
 20
59.95607906769992
 30
0.0
 10
47.73548635199998
 20
59.94666100159996
 30
0.0
  0
SPLINE
  5
92A5D
330
1F
100
AcDbEntity
  8
1
100
AcDbSpline
210
0.0
220
0.0
230
1.0
 70
     8
 71
     3
 72
     9
 73
     5
 74
     0
 42
0.000000001
 43
0.0000000001
 40
0.0
 40
0.0
 40
0.0
 40
0.0
 40
0.2496167566
 40
1.0
 40
1.0
 40
1.0
 40
1.0
 10
47.7542930047
 20
56.43596052369996
 30
0.0
 10
47.76898382809998
 20
56.43095556749994
 30
0.0
 10
47.82808975789999
 20
56.41165377129992
 30
0.0
 10
47.88817998779996
 20
56.39536545029994
 30
0.0
 10
47.93364471149999
 20
56.38489298969997
 30
0.0
  0
SPLINE
  5
92A5E
330
1F
100
AcDbEntity
  8
1
100
AcDbSpline
210
0.0
220
0.0
230
1.0
 70
     8
 71
     3
 72
     9
 73
     5
 74
     0
 42
0.000000001
 43
0.0000000001
 40
0.0
 40
0.0
 40
0.0
 40
0.0
 40
0.5435501151
 40
1.0
 40
1.0
 40
1.0
 40
1.0
 10
51.70749144529998
 20
61.48605667589992
 30
0.0
 10
51.69581924970001
 20
61.50735828629994
 30
0.0
 10
51.67557687799996
 20
61.54724225579996
 30
0.0
 10
51.6585390683
 20
61.58863457509992
 30
0.0
 10
51.6518553893
 20
61.60790606939996
 30
0.0
  0
SPLINE
  5
92A5F
330
1F
100
AcDbEntity
  8
1
100
AcDbSpline
210
0.0
220
0.0
230
1.0
 70
     8
 71
     3
 72
     9
 73
     5
 74
     0
 42
0.000000001
 43
0.0000000001
 40
0.0
 40
0.0
 40
0.0
 40
0.0
 40
0.2474348227
 40
1.0
 40
1.0
 40
1.0
 40
1.0
 10
51.6518553893
 20
61.60790606939996
 30
0.0
 10
51.62059040349999
 20
61.65120506769993
 30
0.0
 10
51.49872367450001
 20
61.82939849659998
 30
0.0
 10
51.39532631009996
 20
62.02019577409997
 30
0.0
 10
51.32900840089996
 20
62.16847673859994
 30
0.0
  0
SPLINE
  5
92A60
330
1F
100
AcDbEntity
  8
1
100
AcDbSpline
210
0.0
220
0.0
230
1.0
 70
     8
 71
     3
 72
     8
 73
     4
 74
     0
 42
0.000000001
 43
0.0000000001
 40
0.0
 40
0.0
 40
0.0
 40
0.0
 40
1.0
 40
1.0
 40
1.0
 40
1.0
 10
47.89108147909995
 20
60.08496222289996
 30
0.0
 10
47.8385682347
 20
60.03960156469997
 30
0.0
 10
47.78667981329999
 20
59.99350606189995
 30
0.0
 10
47.73548635199998
 20
59.94666100159996
 30
0.0
  0
SPLINE
  5
92A61
330
1F
100
AcDbEntity
  8
1
100
AcDbSpline
210
0.0
220
0.0
230
1.0
 70
     8
 71
     3
 72
     9
 73
     5
 74
     0
 42
0.000000001
 43
0.0000000001
 40
0.0
 40
0.0
 40
0.0
 40
0.0
 40
0.2541928781
 40
1.0
 40
1.0
 40
1.0
 40
1.0
 10
52.86442882820001
 20
62.69946901639997
 30
0.0
 10
52.8717206549
 20
62.68297744419997
 30
0.0
 10
52.90065077669999
 20
62.61820788069996
 30
0.0
 10
52.93062993589995
 20
62.55390300929995
 30
0.0
 10
52.9537424983
 20
62.50631317169997
 30
0.0
  0
SPLINE
  5
92A62
330
1F
100
AcDbEntity
  8
1
100
AcDbSpline
210
0.0
220
0.0
230
1.0
 70
     8
 71
     3
 72
    25
 73
    21
 74
     0
 42
0.000000001
 43
0.0000000001
 40
0.0
 40
0.0
 40
0.0
 40
0.0
 40
0.0012547941
 40
0.0025578353
 40
0.0041255204
 40
0.0060883915
 40
0.011429415
 40
0.0188319181
 40
0.0400579563
 40
0.0699202504
 40
0.088063718
 40
0.1083203256
 40
0.1550598553
 40
0.209876896
 40
0.2724531301
 40
0.3424212078
 40
0.4193695427000001
 40
0.5923634767000002
 40
0.7874061045000002
 40
1.0
 40
1.0
 40
1.0
 40
1.0
 10
48.45443272819999
 20
62.58051811419996
 30
0.0
 10
48.4541884029
 20
62.58124644759996
 30
0.0
 10
48.45398872949999
 20
62.5828659806
 30
0.0
 10
48.45491099140001
 20
62.58529879679997
 30
0.0
 10
48.45687885369994
 20
62.58755887709996
 30
0.0
 10
48.46126877759996
 20
62.59079880339992
 30
0.0
 10
48.46955997169994
 20
62.59449120299994
 30
0.0
 10
48.48943547859999
 20
62.60062170859992
 30
0.0
 10
48.52472486049999
 20
62.60723653379996
 30
0.0
 10
48.5667371102
 20
62.61274772819994
 30
0.0
 10
48.6083074613
 20
62.61710373379997
 30
0.0
 10
48.66022166379997
 20
62.62178768809995
 30
0.0
 10
48.73461132239999
 20
62.62716290359996
 30
0.0
 10
48.83493716319996
 20
62.63288302449995
 30
0.0
 10
48.94952596989998
 20
62.63815457339998
 30
0.0
 10
49.07769210769996
 20
62.64301947639996
 30
0.0
 10
49.27345178939996
 20
62.64926706029995
 30
0.0
 10
49.54580164749994
 20
62.6560874119
 30
0.0
 10
49.901207718
 20
62.66329943029994
 30
0.0
 10
50.15073501009993
 20
62.66775912929992
 30
0.0
 10
50.2808713713
 20
62.67003069129997
 30
0.0
  0
LINE
  5
92A63
330
1F
100
AcDbEntity
  8
1
100
AcDbLine
 10
52.86442882820001
 20
62.69946901639997
 30
0.0
 11
53.30977480509996
 21
62.69956469409997
 31
0.0
  0
SPLINE
  5
92A64
330
1F
100
AcDbEntity
  8
1
100
AcDbSpline
210
0.0
220
0.0
230
1.0
 70
     8
 71
     3
 72
    11
 73
     7
 74
     0
 42
0.000000001
 43
0.0000000001
 40
0.0
 40
0.0
 40
0.0
 40
0.0
 40
0.2511467341
 40
0.5015338611
 40
0.7511380118000001
 40
1.0
 40
1.0
 40
1.0
 40
1.0
 10
38.32569488659999
 20
60.8009629788
 30
0.0
 10
38.44676421959997
 20
60.89040082669997
 30
0.0
 10
38.70171485709994
 20
61.05192195849997
 30
0.0
 10
39.11409117609998
 20
61.23627730559995
 30
0.0
 10
39.54752823119998
 20
61.35857545819998
 30
0.0
 10
39.84512500369999
 20
61.39679773579995
 30
0.0
 10
39.99406697639995
 20
61.40472518779994
 30
0.0
  0
LINE
  5
92A65
330
1F
100
AcDbEntity
  8
1
100
AcDbLine
 10
52.82250882900001
 20
62.69957567809996
 30
0.0
 11
52.86442882820001
 21
62.69946901639997
 31
0.0
  0
SPLINE
  5
92A66
330
1F
100
AcDbEntity
  8
1
100
AcDbSpline
210
0.0
220
0.0
230
1.0
 70
     8
 71
     3
 72
     9
 73
     5
 74
     0
 42
0.000000001
 43
0.0000000001
 40
0.0
 40
0.0
 40
0.0
 40
0.0
 40
0.2518937203
 40
1.0
 40
1.0
 40
1.0
 40
1.0
 10
52.82250927819996
 20
62.69957543189995
 30
0.0
 10
52.81586319989997
 20
62.67306199599993
 30
0.0
 10
52.78864180540001
 20
62.56801739329993
 30
0.0
 10
52.75806243929998
 20
62.46384082489996
 30
0.0
 10
52.73327069109999
 20
62.38653989889995
 30
0.0
  0
SPLINE
  5
92A67
330
1F
100
AcDbEntity
  8
1
100
AcDbSpline
210
0.0
220
0.0
230
1.0
 70
     8
 71
     3
 72
     9
 73
     5
 74
     0
 42
0.000000001
 43
0.0000000001
 40
0.0
 40
0.0
 40
0.0
 40
0.0
 40
0.2585303691
 40
1.0
 40
1.0
 40
1.0
 40
1.0
 10
52.34123226399997
 20
62.70003819459997
 30
0.0
 10
52.38270715699997
 20
62.70003819869997
 30
0.0
 10
52.54313275379996
 20
62.70001358269996
 30
0.0
 10
52.7035584504
 20
62.69986074249992
 30
0.0
 10
52.82250882900001
 20
62.69957567809996
 30
0.0
  0
SPLINE
  5
92A68
330
1F
100
AcDbEntity
  8
1
100
AcDbSpline
210
0.0
220
0.0
230
1.0
 70
     8
 71
     3
 72
     9
 73
     5
 74
     0
 42
0.000000001
 43
0.0000000001
 40
0.0
 40
0.0
 40
0.0
 40
0.0
 40
0.2687096821
 40
1.0
 40
1.0
 40
1.0
 40
1.0
 10
47.73548635199998
 20
59.94666100159996
 30
0.0
 10
47.70115092150001
 20
59.95576053179995
 30
0.0
 10
47.57238304029999
 20
59.98577736919997
 30
0.0
 10
47.4401220377
 20
60.00079825779998
 30
0.0
 10
47.34347712079999
 20
60.00296918359993
 30
0.0
  0
SPLINE
  5
92A69
330
1F
100
AcDbEntity
  8
1
100
AcDbSpline
210
0.0
220
0.0
230
1.0
 70
     8
 71
     3
 72
    27
 73
    23
 74
     0
 42
0.000000001
 43
0.0000000001
 40
0.0
 40
0.0
 40
0.0
 40
0.0
 40
0.0131736563
 40
0.0251007431
 40
0.036455223
 40
0.0480353158
 40
0.0605914034
 40
0.0746858736
 40
0.0906779237
 40
0.1087603411
 40
0.1290055637
 40
0.1514145924
 40
0.1759409677
 40
0.2025006383
 40
0.2613001929
 40
0.3269284552
 40
0.3984557332
 40
0.4750032482
 40
0.5557722807
 40
0.6400417289
 40
0.81655546
 40
1.0
 40
1.0
 40
1.0
 40
1.0
 10
32.07748815219998
 20
54.77145483959997
 30
0.0
 10
32.05334753659997
 20
54.78009983069999
 30
0.0
 10
32.00853728029995
 20
54.8005223313
 30
0.0
 10
31.9517700495
 20
54.84432274809993
 30
0.0
 10
31.9107302365
 20
54.89951838149993
 30
0.0
 10
31.88651118619998
 20
54.96512950079999
 30
0.0
 10
31.87890964709998
 20
55.03978718909995
 30
0.0
 10
31.88707203849998
 20
55.12280330589993
 30
0.0
 10
31.91039465900002
 20
55.21389600649995
 30
0.0
 10
31.94838154069998
 20
55.3127588219
 30
0.0
 10
32.00052183579999
 20
55.41899596289994
 30
0.0
 10
32.06629241569999
 20
55.5321139606
 30
0.0
 10
32.14510038290001
 20
55.65157761829992
 30
0.0
 10
32.2710264909
 20
55.82453919789998
 30
0.0
 10
32.45774658400002
 20
56.05179754179991
 30
0.0
 10
32.7154457515
 20
56.33315105699994
 30
0.0
 10
33.00879754459999
 20
56.62819113999994
 30
0.0
 10
33.33290660779994
 20
56.93383295859995
 30
0.0
 10
33.68337059919998
 20
57.24742269169997
 30
0.0
 10
34.18840473580002
 20
57.67982772629996
 30
0.0
 10
34.86093223749998
 20
58.22356817459994
 30
0.0
 10
35.4183723809
 20
58.64816671689998
 30
0.0
 10
35.7051299327
 20
58.86092473709997
 30
0.0
  0
SPLINE
  5
92A6A
330
1F
100
AcDbEntity
  8
1
100
AcDbSpline
210
0.0
220
0.0
230
1.0
 70
     8
 71
     3
 72
    11
 73
     7
 74
     0
 42
0.000000001
 43
0.0000000001
 40
0.0
 40
0.0
 40
0.0
 40
0.0
 40
0.2488794741
 40
0.4975427007000003
 40
0.7474406971
 40
1.0
 40
1.0
 40
1.0
 40
1.0
 10
48.89474977169993
 20
60.35381251399996
 30
0.0
 10
48.81150633869999
 20
60.37548822549997
 30
0.0
 10
48.64156976289996
 20
60.40643298789993
 30
0.0
 10
48.38236437919993
 20
60.41370774209998
 30
0.0
 10
48.12380898560002
 20
60.38112139009996
 30
0.0
 10
47.95613204830003
 20
60.33289371859995
 30
0.0
 10
47.87432378720001
 20
60.30244478179996
 30
0.0
  0
SPLINE
  5
92A6B
330
1F
100
AcDbEntity
  8
1
100
AcDbSpline
210
0.0
220
0.0
230
1.0
 70
     8
 71
     3
 72
     8
 73
     4
 74
     0
 42
0.000000001
 43
0.0000000001
 40
0.0
 40
0.0
 40
0.0
 40
0.0
 40
1.0
 40
1.0
 40
1.0
 40
1.0
 10
35.7051299327
 20
58.86092473709997
 30
0.0
 10
36.57797033269998
 20
59.50852335959996
 30
0.0
 10
37.45151296189999
 20
60.15517640259997
 30
0.0
 10
38.32569488659999
 20
60.8009629788
 30
0.0
  0
SPLINE
  5
92A6C
330
1F
100
AcDbEntity
  8
1
100
AcDbSpline
210
0.0
220
0.0
230
1.0
 70
     8
 71
     3
 72
     9
 73
     5
 74
     0
 42
0.000000001
 43
0.0000000001
 40
0.0
 40
0.0
 40
0.0
 40
0.0
 40
0.2546071312
 40
1.0
 40
1.0
 40
1.0
 40
1.0
 10
46.76132492599996
 20
59.05695492089996
 30
0.0
 10
46.75576757159996
 20
59.06222744769995
 30
0.0
 10
46.73404199959998
 20
59.08304262279994
 30
0.0
 10
46.71272971429999
 20
59.10429021579993
 30
0.0
 10
46.6971119314
 20
59.12038557489997
 30
0.0
  0
SPLINE
  5
92A6D
330
1F
100
AcDbEntity
  8
1
100
AcDbSpline
210
0.0
220
0.0
230
1.0
 70
     8
 71
     3
 72
     9
 73
     5
 74
     0
 42
0.000000001
 43
0.0000000001
 40
0.0
 40
0.0
 40
0.0
 40
0.0
 40
0.5223029637
 40
1.0
 40
1.0
 40
1.0
 40
1.0
 10
47.23800163589999
 20
59.35044547709996
 30
0.0
 10
47.18013374970001
 20
59.38188153049996
 30
0.0
 10
47.06798857819999
 20
59.43962724129995
 30
0.0
 10
46.9528814852
 20
59.49130452429996
 30
0.0
 10
46.89711082209998
 20
59.51405130579995
 30
0.0
  0
ELLIPSE
  5
92A6E
330
1F
100
AcDbEntity
  8
1
100
AcDbEllipse
 10
272.8467161794999
 20
-4.680239735800028
 30
0.0
 11
268.5407365875
 21
-66.4648091783
 31
0.0
210
0.0
220
0.0
230
1.0
 40
0.0128545632
 41
2.539750989600003
 42
2.623327117699997
  0
ELLIPSE
  5
92A6F
330
1F
100
AcDbEntity
  8
1
100
AcDbEllipse
 10
253.9334636325
 20
0.0000381915999981
 30
0.0
 11
252.986712250701
 21
-62.61518631960022
 31
0.0
210
0.0
220
0.0
230
1.0
 40
0.0128865628
 41
2.479969753299993
 42
2.498104992699978
  0
ELLIPSE
  5
92A70
330
1F
100
AcDbEntity
  8
1
100
AcDbEllipse
 10
63.4839668565
 20
0.0895800070999826
 30
0.0
 11
108.877472195
 21
4.4351672719
 31
0.0
210
0.0
220
0.0
230
1.0
 40
0.5760158936
 41
1.659177563099999
 42
1.693083358199998
  0
ELLIPSE
  5
92A71
330
1F
100
AcDbEntity
  8
1
100
AcDbEllipse
 10
103.5151611938
 20
0.4892076585999521
 30
0.0
 11
331.9935543119009
 21
5.569731773800015
 31
0.0
210
0.0
220
0.0
230
1.0
 40
0.1900372849
 41
1.736631038199998
 42
1.760126518899999
  0
ELLIPSE
  5
92A72
330
1F
100
AcDbEntity
  8
1
100
AcDbEllipse
 10
51.48035092830003
 20
59.78197189659997
 30
0.0
 11
2.2920253177
 21
-0.5111607719000001
 31
0.0
210
0.0
220
0.0
230
1.0
 40
0.070082318
 41
3.236770658279576
 42
3.623102978179506
  0
ELLIPSE
  5
92A73
330
1F
100
AcDbEntity
  8
1
100
AcDbEllipse
 10
43.43849637219999
 20
55.09701273219995
 30
0.0
 11
14.1506056979
 21
8.7988285625
 31
0.0
210
0.0
220
0.0
230
1.0
 40
0.0916427511
 41
0.8957785242000177
 42
1.095621636000005
  0
LINE
  5
92A74
330
1F
100
AcDbEntity
  8
sk3
100
AcDbLine
 10
0.9999996684000224
 20
-7.937461808400001
 30
0.0
 11
0.9999996684000224
 21
-19.5499618062
 31
0.0
  0
LINE
  5
92A75
330
1F
100
AcDbEntity
  8
sk3
100
AcDbLine
 10
0.9999996684000224
 20
-19.5499618062
 30
0.0
 11
0.0
 21
-20.54996145760001
 31
0.0
  0
LINE
  5
92A76
330
1F
100
AcDbEntity
  8
sk3
100
AcDbLine
 10
8.0
 20
-7.937461808400001
 30
0.0
 11
8.0
 21
-19.5499618062
 31
0.0
  0
LINE
  5
92A77
102
{ACAD_REACTORS
330
92A94
102
}
330
1F
100
AcDbEntity
  8
sk3
100
AcDbLine
 10
8.0
 20
-19.0499618062
 30
0.0
 11
25.89046496530003
 21
-19.0499618062
 31
0.0
  0
LINE
  5
92A78
330
1F
100
AcDbEntity
  8
sk3
100
AcDbLine
 10
39.28689076490002
 20
-19.0499618062
 30
0.0
 11
41.0000003234
 21
-19.0499618062
 31
0.0
  0
LINE
  5
92A79
330
1F
100
AcDbEntity
  8
sk3
100
AcDbLine
 10
0.9999996684000224
 20
-19.5499618062
 30
0.0
 11
8.0
 21
-19.5499618062
 31
0.0
  0
LINE
  5
92A7A
330
1F
100
AcDbEntity
  8
sk3
100
AcDbLine
 10
29.17735573020002
 20
-20.49996180620002
 30
0.0
 11
35.82264426990003
 21
-20.49996180620002
 31
0.0
  0
LINE
  5
92A7B
330
1F
100
AcDbEntity
  8
sk3
100
AcDbLine
 10
25.89046496530003
 20
-19.0499618062
 30
0.0
 11
25.89046496530003
 21
0.0000381927000035
 31
0.0
  0
LINE
  5
92A7C
330
1F
100
AcDbEntity
  8
sk3
100
AcDbLine
 10
36.16073887930003
 20
-20.42500803580001
 30
0.0
 11
38.94879615549996
 21
-19.12491557659999
 31
0.0
  0
LINE
  5
92A7D
330
1F
100
AcDbEntity
  8
sk3
100
AcDbLine
 10
42.99999999999999
 20
-27.99996180620002
 30
0.0
 11
55.71366150670002
 21
-27.99996180620002
 31
0.0
  0
LINE
  5
92A7E
330
1F
100
AcDbEntity
  8
sk3
100
AcDbLine
 10
41.0000003234
 20
-19.0499618062
 30
0.0
 11
41.0000003234
 21
0.0000381927000035
 31
0.0
  0
LINE
  5
92A7F
330
1F
100
AcDbEntity
  8
sk3
100
AcDbLine
 10
25.89046496530003
 20
-19.0499618062
 30
0.0
 11
28.83926112080002
 21
-20.42500803580001
 31
0.0
  0
LINE
  5
92A80
330
1F
100
AcDbEntity
  8
sk3
100
AcDbLine
 10
42.0
 20
0.0000381927000035
 30
0.0
 11
42.0
 21
-26.99996180620002
 31
0.0
  0
LINE
  5
92A81
330
1F
100
AcDbEntity
  8
sk3
100
AcDbLine
 10
57.15714532490004
 20
-46.92499311569999
 30
0.0
 11
61.56583356730003
 21
-54.1048825156
 31
0.0
  0
LINE
  5
92A82
330
1F
100
AcDbEntity
  8
sk3
100
AcDbLine
 10
41.0000003234
 20
-19.0499618062
 30
0.0
 11
42.0
 21
-20.0499614659
 31
0.0
  0
LINE
  5
92A83
330
1F
100
AcDbEntity
  8
sk3
100
AcDbLine
 10
55.71366150670002
 20
-27.99996180620002
 30
0.0
 11
56.71366150670002
 21
-28.99996180620002
 31
0.0
  0
LINE
  5
92A84
330
1F
100
AcDbEntity
  8
sk3
100
AcDbLine
 10
55.71366150670002
 20
-27.99996180620002
 30
0.0
 11
55.71366150670002
 21
0.0000381927000035
 31
0.0
  0
LINE
  5
92A85
330
1F
100
AcDbEntity
  8
sk3
100
AcDbLine
 10
56.71366150670002
 20
-45.3552080948
 30
0.0
 11
56.71366150670002
 21
0.0000381927000035
 31
0.0
  0
ARC
  5
92A86
330
1F
100
AcDbEntity
  8
sk3
100
AcDbCircle
 10
59.71366150670002
 20
-45.3552080948
 30
0.0
 40
3.0
100
AcDbArc
 50
180.0
 51
211.551293530701
  0
ARC
  5
92A87
330
1F
100
AcDbEntity
  8
sk3
100
AcDbCircle
 10
60.71366150670002
 20
-54.6281441893
 30
0.0
 40
1.0
100
AcDbArc
 50
0.0
 51
31.55129353070109
  0
ARC
  5
92A88
102
{ACAD_REACTORS
330
92A91
102
}
330
1F
100
AcDbEntity
  8
sk3
100
AcDbCircle
 10
42.99999999999999
 20
-26.99996180620002
 30
0.0
 40
1.0
100
AcDbArc
 50
180.0
 51
270.0
  0
ARC
  5
92A89
330
1F
100
AcDbEntity
  8
sk3
100
AcDbCircle
 10
29.17735573020002
 20
-19.69996180620004
 30
0.0
 40
0.8
100
AcDbArc
 50
245.0000000000003
 51
270.0
  0
ARC
  5
92A8A
330
1F
100
AcDbEntity
  8
sk3
100
AcDbCircle
 10
39.28689076490002
 20
-19.84996180620001
 30
0.0
 40
0.8
100
AcDbArc
 50
90.0
 51
114.9999999999997
  0
ARC
  5
92A8B
330
1F
100
AcDbEntity
  8
sk3
100
AcDbCircle
 10
35.82264426990003
 20
-19.69996180620004
 30
0.0
 40
0.8
100
AcDbArc
 50
270.0
 51
294.9999999999997
  0
DIMENSION
  5
92A8C
102
{ACAD_XDICTIONARY
360
92A8D
102
}
102
{ACAD_REACTORS
330
92A8E
102
}
330
1F
100
AcDbEntity
  8
2
100
AcDbDimension
  2
*D11644
 10
63.50000000000001
 20
90.25954955284298
 30
0.0
 11
31.75000000000001
 21
94.30954955284297
 31
0.0
 70
    32
 71
     5
 42
63.5
  3
コピー - ISO-25
100
AcDbAlignedDimension
 13
0.0
 23
46.41899999889999
 33
0.0
 14
63.50000000000001
 24
62.6999999989
 34
0.0
 50
0.0
100
AcDbRotatedDimension
1001
ACAD
1000
DSTYLE
1002
{
1070
   170
1070
     1
1070
   171
1070
     3
1070
   143
1040
0.0393700787401575
1070
   285
1070
     4
1070
     4
1000
"
1070
   271
1070
     8
1070
    40
1040
1.0
1002
}
1001
ACAD_DSTYLE_DIMINSPECT
1070
   393
1070
     0
1070
   394
1070
     0
1070
   395
1000

1070
   396
1000

  0
DIMENSION
  5
92A8F
102
{ACAD_XDICTIONARY
360
92A90
102
}
102
{ACAD_REACTORS
330
92A91
102
}
330
1F
100
AcDbEntity
  8
sk2
100
AcDbDimension
  2
*D11755
 10
42.0
 20
-80.08404088002523
 30
0.0
 11
21.0
 21
-76.03404088002523
 31
0.0
 70
    32
 71
     5
 42
42.0
  3
コピー - ISO-25
100
AcDbAlignedDimension
 13
0.0
 23
-46.41896180840001
 33
0.0
 14
42.0
 24
-26.99996180620002
 34
0.0
 50
0.0
100
AcDbRotatedDimension
1001
ACAD
1000
DSTYLE
1002
{
1070
   170
1070
     1
1070
   171
1070
     3
1070
   143
1040
0.0393700787401575
1070
   285
1070
     4
1070
     4
1000
"
1070
   271
1070
     8
1070
    40
1040
1.0
1002
}
1001
ACAD_DSTYLE_DIMINSPECT
1070
   393
1070
     0
1070
   394
1070
     0
1070
   395
1000

1070
   396
1000

  0
DIMENSION
  5
92A92
102
{ACAD_XDICTIONARY
360
92A93
102
}
102
{ACAD_REACTORS
330
92A94
102
}
330
1F
100
AcDbEntity
  8
sk2
100
AcDbDimension
  2
*D11866
 10
-10.1095496897193
 20
-19.0499618062
 30
0.0
 11
-10.1095496897193
 21
0.8613675503907812
 31
0.0
 70
   160
  1
%%C<>
 71
     5
 42
38.0999999978
  3
コピー - ISO-25
100
AcDbAlignedDimension
 13
8.0
 23
19.05003819160002
 33
0.0
 14
8.0
 24
-19.0499618062
 34
0.0
 50
90.0
100
AcDbRotatedDimension
1001
ACAD
1000
DSTYLE
1002
{
1070
   170
1070
     1
1070
   171
1070
     3
1070
   143
1040
0.0393700787401575
1070
   285
1070
     4
1070
     4
1000
%%c[]"
1070
   271
1070
     8
1070
    40
1040
1.0
1002
}
1001
ACAD_DSTYLE_DIMINSPECT
1070
   393
1070
     0
1070
   394
1070
     0
1070
   395
1000

1070
   396
1000

  0
DIMENSION
  5
92A95
102
{ACAD_XDICTIONARY
360
92A96
102
}
102
{ACAD_REACTORS
330
92A97
102
}
330
1F
100
AcDbEntity
  8
sk2
100
AcDbDimension
  2
*D11977
 10
-20.90827197655645
 20
-48.41896180840001
 30
0.0
 11
-24.95827197655644
 21
0.0000381915999913
 31
0.0
 70
    32
  1
%%C<>
 71
     5
 42
96.83799999999999
  3
コピー - ISO-25
100
AcDbAlignedDimension
 13
2.0
 23
48.41903819159998
 33
0.0
 14
2.0
 24
-48.41896180840001
 34
0.0
 50
90.0
100
AcDbRotatedDimension
1001
ACAD
1000
DSTYLE
1002
{
1070
   170
1070
     1
1070
   171
1070
     3
1070
   143
1040
0.0393700787401575
1070
   285
1070
     4
1070
     4
1000
%%c[]"
1070
   271
1070
     8
1070
    40
1040
1.0
1002
}
1001
ACAD_DSTYLE_DIMINSPECT
1070
   393
1070
     0
1070
   394
1070
     0
1070
   395
1000

1070
   396
1000

  0
DIMENSION
  5
92A98
330
1F
100
AcDbEntity
  8
2
100
AcDbDimension
  2
*D12088
 10
90.16787328498439
 20
-63.49999999890002
 30
0.0
 11
86.11787328498442
 21
-1.75000000000001
 31
0.0
 70
    32
  1
%%C<>
 71
     5
 42
126.9999999978
  3
コピー - ISO-25
100
AcDbAlignedDimension
 13
62.69999999999999
 23
63.4999999989
 33
0.0
 14
62.69999999999999
 24
-63.49999999890002
 34
0.0
 50
90.0
100
AcDbRotatedDimension
1001
ACAD
1000
DSTYLE
1002
{
1070
   170
1070
     1
1070
   171
1070
     3
1070
   143
1040
0.0393700787401575
1070
   285
1070
     4
1070
     4
1000
%%c[]"
1070
   344
1005
87D73
1070
   271
1070
     8
1070
   173
1070
     1
1070
    40
1040
1.0
1070
    76
1070
     1
1002
}
1001
ACAD_DSTYLE_DIMINSPECT
1070
   393
1070
     0
1070
   394
1070
     0
1070
   395
1000

1070
   396
1000

  0
DIMENSION
  5
92A9C
330
1F
100
AcDbEntity
  8
2
100
AcDbDimension
  2
*D122109
 10
63.50000000000001
 20
79.87126654498799
 30
0.0
 11
94.96666666666667
 21
83.92126654498799
 31
0.0
 70
    32
  1
<>(MAX)
 71
     5
 42
8.200000000000001
  3
コピー - ISO-25
100
AcDbAlignedDimension
 13
55.29999999999995
 23
63.49999999890002
 33
0.0
 14
63.50000000000001
 24
62.69999999890365
 34
0.0
 50
0.0
100
AcDbRotatedDimension
1001
ACAD
1000
DSTYLE
1002
{
1070
   170
1070
     1
1070
   171
1070
     3
1070
   143
1040
0.0393700787401575
1070
   285
1070
     4
1070
     4
1000
"
1070
   271
1070
     8
1070
    40
1040
1.0
1002
}
1001
ACAD_DSTYLE_DIMINSPECT
1070
   393
1070
     0
1070
   394
1070
     0
1070
   395
1000

1070
   396
1000

  0
LINE
  5
92DCD
330
1F
100
AcDbEntity
  8
sk3
100
AcDbLine
 10
29.00000000014669
 20
20.2999999989
 30
0.0
 11
29.00000000014669
 21
-20.29999999889999
 31
0.0
  0
LINE
  5
92DCE
330
1F
100
AcDbEntity
  8
sk3
100
AcDbLine
 10
35.99999999995069
 20
20.2999999989
 30
0.0
 11
35.99999999995069
 21
-20.2999999989
 31
0.0
  0
LINE
  5
92DCF
330
1F
100
AcDbEntity
  8
sk3
100
AcDbLine
 10
39.10953503484933
 20
-18.8499999989
 30
0.0
 11
39.10953503484933
 21
18.8499999989
 31
0.0
  0
LINE
  5
92F54
330
1F
100
AcDbEntity
  8
cut
100
AcDbLine
 10
51.35766064660001
 20
61.7952081684
 30
0.0
 11
52.52444982740001
 21
62.40179550230003
 31
0.0
  0
LINE
  5
92F55
330
1F
100
AcDbEntity
  8
cut
100
AcDbLine
 10
50.03354155150003
 20
61.1121857502
 30
0.0
 11
51.35766064660001
 21
61.7952081684
 31
0.0
  0
LINE
  5
92F56
330
1F
100
AcDbEntity
  8
cut
100
AcDbLine
 10
48.87853810560002
 20
60.520526737
 30
0.0
 11
50.03354155150003
 21
61.1121857502
 31
0.0
  0
LINE
  5
92F57
330
1F
100
AcDbEntity
  8
cut
100
AcDbLine
 10
47.7330372943
 20
59.88498897240001
 30
0.0
 11
47.753528175
 21
59.89771290150002
 31
0.0
  0
LINE
  5
92F58
330
1F
100
AcDbEntity
  8
cut
100
AcDbLine
 10
47.75212393170003
 20
59.89686730150001
 30
0.0
 11
47.77159717670001
 21
59.90819182530001
 31
0.0
  0
LINE
  5
92F59
330
1F
100
AcDbEntity
  8
cut
100
AcDbLine
 10
47.77159717670001
 20
59.90819182530001
 30
0.0
 11
48.00299423260003
 21
60.0377371435
 31
0.0
  0
LINE
  5
92F5A
330
1F
100
AcDbEntity
  8
cut
100
AcDbLine
 10
48.00299423260003
 20
60.0377371435
 30
0.0
 11
48.23811247490002
 21
60.16856763110002
 31
0.0
  0
LINE
  5
92F5B
330
1F
100
AcDbEntity
  8
cut
100
AcDbLine
 10
48.23811247490002
 20
60.16856763110002
 30
0.0
 11
48.4769533102
 21
60.30067887690001
 31
0.0
  0
LINE
  5
92F5C
330
1F
100
AcDbEntity
  8
cut
100
AcDbLine
 10
48.4769533102
 20
60.30067887690001
 30
0.0
 11
48.71952236550001
 21
60.43405323720003
 31
0.0
  0
LINE
  5
92F5D
330
1F
100
AcDbEntity
  8
cut
100
AcDbLine
 10
53.8762347514
 20
63.12200690550003
 30
0.0
 11
54.11711816210001
 21
63.25496654230002
 31
0.0
  0
LWPOLYLINE
  5
92F5E
330
1F
100
AcDbEntity
  8
cut
100
AcDbPolyline
 90
        6
 70
     0
 43
0.0
 10
48.71952236550001
 20
60.43405323720003
 10
48.8494165141
 20
60.50513564320002
 10
48.85665580729999
 20
60.50902702570002
 10
48.86392250360001
 20
60.51288933550001
 10
48.87121660310004
 20
60.5167225726
 10
48.87853810560002
 20
60.520526737
  0
LINE
  5
92F5F
330
1F
100
AcDbEntity
  8
cut
100
AcDbLine
 10
53.79516652720003
 20
63.07795586980001
 30
0.0
 11
53.8762347514
 21
63.12200690550003
 31
0.0
  0
LWPOLYLINE
  5
92F60
330
1F
100
AcDbEntity
  8
cut
100
AcDbPolyline
 90
        3
 70
     0
 43
0.0
 10
53.26589420709999
 20
62.79365358090001
 10
53.65807982120003
 20
63.00433406470003
 10
53.79516652720003
 20
63.07795586980001
  0
LINE
  5
92F61
330
1F
100
AcDbEntity
  8
cut
100
AcDbLine
 10
52.96708382590001
 20
62.63458324800001
 30
0.0
 11
53.26589420709999
 21
62.79365358090001
 31
0.0
  0
LINE
  5
92F62
330
1F
100
AcDbEntity
  8
cut
100
AcDbLine
 10
52.66379584710001
 20
62.47468596360002
 30
0.0
 11
52.96708382590001
 21
62.63458324800001
 31
0.0
  0
LINE
  5
92F63
330
1F
100
AcDbEntity
  8
cut
100
AcDbLine
 10
52.52444982740001
 20
62.40179550230003
 30
0.0
 11
52.66379584710001
 21
62.47468596360002
 31
0.0
  0
LWPOLYLINE
  5
92F64
330
1F
100
AcDbEntity
  8
cut
100
AcDbPolyline
 90
       11
 70
     0
 43
0.0
 10
47.56484354790001
 20
59.73674785940002
 10
47.5803399645
 20
59.75466793200002
 10
47.59538560670002
 20
59.771012157
 10
47.61093049150002
 20
59.78691178910001
 10
47.626985917
 20
59.8023799953
 10
47.64354058520001
 20
59.8174036085
 10
47.6605568214
 20
59.83193760210003
 10
47.6780470545
 20
59.84598836220001
 10
47.69599885569999
 20
59.85954950270002
 10
47.71433726459999
 20
59.87255683790002
 10
47.7330372943
 20
59.88498897240001
  0
LWPOLYLINE
  5
92F65
330
1F
100
AcDbEntity
  8
cut
100
AcDbPolyline
 90
       11
 70
     0
 43
0.0
 10
47.5783319422
 20
59.75240817300002
 10
47.59223644740003
 20
59.76767001999998
 10
47.60656045160001
 20
59.7825373201
 10
47.62131183650001
 20
59.7970186585
 10
47.63649472620002
 20
59.81111814370001
 10
47.65209821510004
 20
59.82482197760001
 10
47.66810764030004
 20
59.83811188520002
 10
47.68450633440003
 20
59.85096931800001
 10
47.70126961229999
 20
59.86337463209999
 10
47.71837078490004
 20
59.87530791000001
 10
47.73578917760001
 20
59.88675351090002
  0
LINE
  5
92F66
330
1F
100
AcDbEntity
  8
cut
100
AcDbLine
 10
47.52519140330003
 20
59.6849058831
 30
0.0
 11
47.53917793139999
 21
59.70429546560001
 31
0.0
  0
LINE
  5
92F67
330
1F
100
AcDbEntity
  8
cut
100
AcDbLine
 10
47.5381854123
 20
59.70295537790001
 30
0.0
 11
47.55173986729999
 21
59.72063954250001
 31
0.0
  0
LINE
  5
92F68
330
1F
100
AcDbEntity
  8
cut
100
AcDbLine
 10
47.55178585090002
 20
59.7207038211
 30
0.0
 11
47.56579734500002
 21
59.73788463960001
 31
0.0
  0
LWPOLYLINE
  5
92F69
330
1F
100
AcDbEntity
  8
cut
100
AcDbPolyline
 90
       37
 70
     0
 43
0.0
 10
59.07702055800001
 20
47.74941279980001
 10
59.05626857770002
 20
47.735311536
 10
59.03508286610002
 20
47.72186066390003
 10
59.0134634232
 20
47.70906018339998
 10
58.9913704546
 20
47.6968886143
 10
58.96884375459999
 20
47.68536743680002
 10
58.94600270690003
 20
47.674561092
 10
58.92285409250002
 20
47.66448072810002
 10
58.89939113040004
 20
47.6551151969
 10
58.87571286060003
 20
47.64649549570001
 10
58.8518477981
 20
47.63863209030001
 10
58.827767428
 20
47.63151451500002
 10
58.80348524630003
 20
47.6251423692
 10
58.77898818680001
 20
47.61950951520001
 10
58.75428931560003
 20
47.61462209070001
 10
58.72944132720002
 20
47.61049810829999
 10
58.70442852070002
 20
47.60713764900001
 10
58.67926659700001
 20
47.60454063190002
 10
58.65405535299998
 20
47.60272482650001
 10
58.62879430080003
 20
47.60169670570003
 10
58.60348392830003
 20
47.60144979669998
 10
58.57822549659999
 20
47.60198245070003
 10
58.55303502740003
 20
47.60329773990004
 10
58.52789649900003
 20
47.60539259220002
 10
58.50286310730002
 20
47.60825614240002
 10
58.47794788270002
 20
47.61188494419999
 10
58.45313779470001
 20
47.61628244390002
 10
58.42844694830002
 20
47.62144811560003
 10
58.4038462698
 20
47.6273886938
 10
58.37936483270002
 20
47.63409744390003
 10
58.35510396290001
 20
47.64155363650003
 10
58.3310553402
 20
47.64976600280003
 10
58.30722728480001
 20
47.65872581159999
 10
58.28374608260003
 20
47.66838614070002
 10
58.26065382900003
 20
47.6787313494
 10
58.23790842850002
 20
47.68977707830001
 10
58.21550988130002
 20
47.70152332750001
  0
LWPOLYLINE
  5
92F6A
330
1F
100
AcDbEntity
  8
cut
100
AcDbPolyline
 90
       11
 70
     0
 43
0.0
 10
47.42677545750001
 20
59.48487331870001
 10
47.43449155760004
 20
59.50797897020001
 10
47.4421844452
 20
59.52880871800002
 10
47.45049653350003
 20
59.5493860635
 10
47.45939987549999
 20
59.56966261870003
 10
47.46888474650003
 20
59.58962235380003
 10
47.47896087100001
 20
59.6092812985
 10
47.48962947630001
 20
59.62863915370003
 10
47.50090164950001
 20
59.6477172333
 10
47.51276630340001
 20
59.66649422329999
 10
47.52519140330003
 20
59.6849058831
  0
LWPOLYLINE
  5
92F6B
330
1F
100
AcDbEntity
  8
cut
100
AcDbPolyline
 90
       11
 70
     0
 43
0.0
 10
47.43328906870003
 20
59.50453952260001
 10
47.44034184319999
 20
59.52398979669999
 10
47.44792342240003
 20
59.54320527210001
 10
47.4560246896
 20
59.56216984260001
 10
47.46464149690004
 20
59.58087845390004
 10
47.47377093819999
 20
59.5993288143
 10
47.48341049590002
 20
59.61751815109999
 10
47.49355920600004
 20
59.63544176540001
 10
47.5042164927
 20
59.65309447720002
 10
47.51537970170002
 20
59.67046814580001
 10
47.5270378639
 20
59.68754278950001
  0
LINE
  5
92F6C
330
1F
100
AcDbEntity
  8
cut
100
AcDbLine
 10
47.4100025146
 20
59.42236680970001
 30
0.0
 11
47.41540338330003
 21
59.4449954217
 31
0.0
  0
LINE
  5
92F6D
330
1F
100
AcDbEntity
  8
cut
100
AcDbLine
 10
47.41515604630001
 20
59.44402370150001
 30
0.0
 11
47.42096357209999
 21
59.4655374346
 31
0.0
  0
LINE
  5
92F6E
330
1F
100
AcDbEntity
  8
cut
100
AcDbLine
 10
47.42081089630001
 20
59.46501340700002
 30
0.0
 11
47.42741796450003
 21
59.4868844035
 31
0.0
  0
LWPOLYLINE
  5
92F6F
330
1F
100
AcDbEntity
  8
cut
100
AcDbPolyline
 90
        9
 70
     0
 43
0.0
 10
47.39220490420004
 20
59.25940050080001
 10
47.39249464350004
 20
59.28043626659999
 10
47.39336702840001
 20
59.30147281010002
 10
47.3948197727
 20
59.32239516190001
 10
47.39684521280003
 20
59.343181662
 10
47.39943434120005
 20
59.3638167564
 10
47.40258061940003
 20
59.38429230909999
 10
47.40628738510003
 20
59.40462985589999
 10
47.41056044490004
 20
59.42485835010001
  0
LINE
  5
92F70
330
1F
100
AcDbEntity
  8
cut
100
AcDbLine
 10
62.45314033830003
 20
53.09763065240002
 30
0.0
 11
62.20287003150002
 21
52.68056064110002
 31
0.0
  0
LINE
  5
92F71
330
1F
100
AcDbEntity
  8
cut
100
AcDbLine
 10
62.20287003150002
 20
52.68056064110002
 30
0.0
 11
61.98793131850004
 21
52.32341748520003
 31
0.0
  0
LINE
  5
92F72
330
1F
100
AcDbEntity
  8
cut
100
AcDbLine
 10
61.98793131850004
 20
52.32341748520003
 30
0.0
 11
61.7391767348
 21
51.91124494510001
 31
0.0
  0
LINE
  5
92F73
330
1F
100
AcDbEntity
  8
cut
100
AcDbLine
 10
61.7391767348
 20
51.91124494510001
 30
0.0
 11
61.48966968070002
 21
51.49900688850002
 31
0.0
  0
LINE
  5
92F74
330
1F
100
AcDbEntity
  8
cut
100
AcDbLine
 10
61.48966968070002
 20
51.49900688850002
 30
0.0
 11
61.23970805770003
 21
51.08714545700003
 31
0.0
  0
LINE
  5
92F75
330
1F
100
AcDbEntity
  8
cut
100
AcDbLine
 10
61.23970805770003
 20
51.08714545700003
 30
0.0
 11
60.98959928470003
 21
50.67611743910001
 31
0.0
  0
LINE
  5
92F76
330
1F
100
AcDbEntity
  8
cut
100
AcDbLine
 10
60.98959928470003
 20
50.67611743910001
 30
0.0
 11
60.7395430914
 21
50.26620229409999
 31
0.0
  0
LINE
  5
92F77
330
1F
100
AcDbEntity
  8
cut
100
AcDbLine
 10
60.7395430914
 20
50.26620229409999
 30
0.0
 11
60.40588164120004
 21
49.72075582940003
 31
0.0
  0
LINE
  5
92F78
330
1F
100
AcDbEntity
  8
cut
100
AcDbLine
 10
60.40588164120004
 20
49.72075582940003
 30
0.0
 11
60.07129468380004
 21
49.1754594911
 31
0.0
  0
LWPOLYLINE
  5
92F79
330
1F
100
AcDbEntity
  8
cut
100
AcDbPolyline
 90
        6
 70
     0
 43
0.0
 10
60.07129468380004
 20
49.1754594911
 10
59.9831512671
 20
49.032111629
 10
59.97882119020002
 20
49.02517940630001
 10
59.97445566920004
 20
49.0182625977
 10
59.97005470440004
 20
49.01136120300002
 10
59.9656182955
 20
49.00447522230003
  0
LWPOLYLINE
  5
92F7A
330
1F
100
AcDbEntity
  8
cut
100
AcDbPolyline
 90
        3
 70
     0
 43
0.0
 10
59.9656182955
 20
49.00447522230003
 10
59.88283108430002
 20
48.87791866380002
 10
59.28626157110002
 20
47.96539948030003
  0
LWPOLYLINE
  5
92F7B
330
1F
100
AcDbEntity
  8
cut
100
AcDbPolyline
 90
       16
 70
     0
 43
0.0
 10
59.2862615714
 20
47.96539948070003
 10
59.27515238120003
 20
47.9488426134
 10
59.26360985600005
 20
47.93255935800002
 10
59.25163399590002
 20
47.91654971460001
 10
59.23921052450001
 20
47.90079567680002
 10
59.22635371810002
 20
47.885315251
 10
59.21310640550001
 20
47.87016245590002
 10
59.19948086010004
 20
47.85535182750002
 10
59.18546480850003
 20
47.84086882999999
 10
59.17106425820001
 20
47.82672387399999
 10
59.15626558010004
 20
47.81290417210001
 10
59.14108240330002
 20
47.7994225118
 10
59.12556162310004
 20
47.78632766700002
 10
59.10971887130003
 20
47.7736358957
 10
59.0935385161
 20
47.76133093980003
 10
59.07702055750002
 20
47.74941279950001
  0
LWPOLYLINE
  5
92F7C
330
1F
100
AcDbEntity
  8
cut
100
AcDbPolyline
 90
        5
 70
     0
 43
0.0
 10
47.39688915330003
 20
59.17496301800003
 10
47.39469968209998
 20
59.19780548300002
 10
47.39319385370003
 20
59.2206296886
 10
47.39237166790002
 20
59.2434356347
 10
47.39220608850003
 20
59.25940050050002
  0
LWPOLYLINE
  5
92F7D
330
1F
100
AcDbEntity
  8
cut
100
AcDbPolyline
 90
        9
 70
     0
 43
0.0
 10
47.39220608850003
 20
59.25940050050002
 10
47.3922387809
 20
59.26627222160003
 10
47.39278953670003
 20
59.2890905491
 10
47.39400696670002
 20
59.3117439162
 10
47.39588992299998
 20
59.33417908360002
 10
47.3984395536
 20
59.35644929070003
 10
47.40164233370004
 20
59.37856755430002
 10
47.40549584940004
 20
59.40054315370002
 10
47.4100025146
 20
59.42236680970001
  0
LINE
  5
92F7E
330
1F
100
AcDbEntity
  8
cut
100
AcDbLine
 10
63.04773834830001
 20
54.09432846410003
 30
0.0
 11
62.81021152150003
 21
53.69513760000001
 31
0.0
  0
LINE
  5
92F7F
330
1F
100
AcDbEntity
  8
cut
100
AcDbLine
 10
62.81021152150003
 20
53.69513760000001
 30
0.0
 11
62.5603713907
 21
53.27675031900003
 31
0.0
  0
LINE
  5
92F80
330
1F
100
AcDbEntity
  8
cut
100
AcDbLine
 10
62.5603713907
 20
53.27675031900003
 30
0.0
 11
62.45314033830003
 21
53.09763065240002
 31
0.0
  0
LINE
  5
92F81
330
1F
100
AcDbEntity
  8
cut
100
AcDbLine
 10
57.21024478120003
 20
48.23129997410001
 30
0.0
 11
57.06456325060003
 21
48.30536035640003
 31
0.0
  0
LWPOLYLINE
  5
92F82
330
1F
100
AcDbEntity
  8
cut
100
AcDbPolyline
 90
        4
 70
     0
 43
0.0
 10
57.59443749660003
 20
48.0328828911
 10
57.46734024479999
 20
48.09907199210002
 10
57.33927530150003
 20
48.16520840710001
 10
57.21024478120003
 20
48.23129997410001
  0
LINE
  5
92F83
330
1F
100
AcDbEntity
  8
cut
100
AcDbLine
 10
57.06456325060003
 20
48.30536035640003
 30
0.0
 11
57.04906020920002
 21
48.31343908800002
 31
0.0
  0
LINE
  5
92F84
330
1F
100
AcDbEntity
  8
cut
100
AcDbLine
 10
57.84574161310001
 20
47.90039365990003
 30
0.0
 11
57.59443749660003
 21
48.0328828911
 31
0.0
  0
LINE
  5
92F85
330
1F
100
AcDbEntity
  8
cut
100
AcDbLine
 10
53.4276741577
 20
50.2484788778
 30
0.0
 11
53.20805823100002
 21
50.3653199144
 31
0.0
  0
LINE
  5
92F86
330
1F
100
AcDbEntity
  8
cut
100
AcDbLine
 10
57.04906020920002
 20
48.31343908800002
 30
0.0
 11
57.0337395602
 21
48.32158288780003
 31
0.0
  0
LINE
  5
92F87
330
1F
100
AcDbEntity
  8
cut
100
AcDbLine
 10
55.35274848180001
 20
49.22183401529999
 30
0.0
 11
53.4276741577
 21
50.2484788778
 31
0.0
  0
LINE
  5
92F88
330
1F
100
AcDbEntity
  8
cut
100
AcDbLine
 10
55.50074240920003
 20
49.14273265580002
 30
0.0
 11
55.35274848180001
 21
49.22183401529999
 31
0.0
  0
LINE
  5
92F89
330
1F
100
AcDbEntity
  8
cut
100
AcDbLine
 10
55.66051838440003
 20
49.05729873950003
 30
0.0
 11
55.50074240920003
 21
49.14273265580002
 31
0.0
  0
LINE
  5
92F8A
330
1F
100
AcDbEntity
  8
cut
100
AcDbLine
 10
55.83437823870003
 20
48.96429378690001
 30
0.0
 11
55.66051838440003
 21
49.05729873950003
 31
0.0
  0
LINE
  5
92F8B
330
1F
100
AcDbEntity
  8
cut
100
AcDbLine
 10
53.20805823100002
 20
50.3653199144
 30
0.0
 11
53.06739090180002
 21
50.44042872540001
 31
0.0
  0
LINE
  5
92F8C
330
1F
100
AcDbEntity
  8
cut
100
AcDbLine
 10
56.12513271100002
 20
48.80866483920001
 30
0.0
 11
55.83437823870003
 21
48.96429378690001
 31
0.0
  0
LINE
  5
92F8D
330
1F
100
AcDbEntity
  8
cut
100
AcDbLine
 10
56.32064411340002
 20
48.70395943760001
 30
0.0
 11
56.12513271100002
 21
48.80866483920001
 31
0.0
  0
LINE
  5
92F8E
330
1F
100
AcDbEntity
  8
cut
100
AcDbLine
 10
56.50062152360002
 20
48.60752391740001
 30
0.0
 11
56.32064411340002
 21
48.70395943760001
 31
0.0
  0
LINE
  5
92F8F
330
1F
100
AcDbEntity
  8
cut
100
AcDbLine
 10
56.76845865050001
 20
48.4639231769
 30
0.0
 11
56.50062152360002
 21
48.60752391740001
 31
0.0
  0
LWPOLYLINE
  5
92F90
330
1F
100
AcDbEntity
  8
cut
100
AcDbPolyline
 90
        3
 70
     0
 43
0.0
 10
57.0337395602
 20
48.32158288780003
 10
56.9455966145
 20
48.36888960070002
 10
56.76845865050001
 20
48.4639231769
  0
LINE
  5
92F91
330
1F
100
AcDbEntity
  8
cut
100
AcDbLine
 10
53.06739090180002
 20
50.44042872540001
 30
0.0
 11
52.95020400930003
 21
50.5035855783
 31
0.0
  0
LWPOLYLINE
  5
92F92
330
1F
100
AcDbEntity
  8
cut
100
AcDbPolyline
 90
        4
 70
     0
 43
0.0
 10
58.21550988180002
 20
47.70152332720002
 10
58.09321302549999
 20
47.76783477150003
 10
57.9699569359
 20
47.83412488240003
 10
57.84574161310001
 20
47.90039365990003
  0
LINE
  5
92F93
330
1F
100
AcDbEntity
  8
cut
100
AcDbLine
 10
52.95020400930003
 20
50.5035855783
 30
0.0
 11
52.82351305170002
 21
50.57259345690003
 31
0.0
  0
LINE
  5
92F94
330
1F
100
AcDbEntity
  8
cut
100
AcDbLine
 10
52.82351305170002
 20
50.57259345690003
 30
0.0
 11
52.69333501420002
 21
50.6442186342
 31
0.0
  0
LINE
  5
92F95
330
1F
100
AcDbEntity
  8
cut
100
AcDbLine
 10
52.69333501420002
 20
50.6442186342
 30
0.0
 11
52.56473671480001
 21
50.71568076030001
 31
0.0
  0
LINE
  5
92F96
330
1F
100
AcDbEntity
  8
cut
100
AcDbLine
 10
52.56473671480001
 20
50.71568076030001
 30
0.0
 11
52.43698192000002
 21
50.78739231470001
 31
0.0
  0
LINE
  5
92F97
330
1F
100
AcDbEntity
  8
cut
100
AcDbLine
 10
52.43698192000002
 20
50.78739231470001
 30
0.0
 11
52.30861555250001
 21
50.8601382658
 31
0.0
  0
LINE
  5
92F98
330
1F
100
AcDbEntity
  8
cut
100
AcDbLine
 10
52.30861555250001
 20
50.8601382658
 30
0.0
 11
52.17907321120002
 21
50.9342404075
 31
0.0
  0
LINE
  5
92F99
330
1F
100
AcDbEntity
  8
cut
100
AcDbLine
 10
52.17907321120002
 20
50.9342404075
 30
0.0
 11
52.0483191373
 21
51.00973498290002
 31
0.0
  0
LINE
  5
92F9A
330
1F
100
AcDbEntity
  8
cut
100
AcDbLine
 10
52.0483191373
 20
51.00973498290002
 30
0.0
 11
51.91676471000001
 21
51.08640292710001
 31
0.0
  0
LINE
  5
92F9B
330
1F
100
AcDbEntity
  8
cut
100
AcDbLine
 10
51.91676471000001
 20
51.08640292710001
 30
0.0
 11
51.78488081840001
 21
51.16398351500001
 31
0.0
  0
LINE
  5
92F9C
330
1F
100
AcDbEntity
  8
cut
100
AcDbLine
 10
51.78488081840001
 20
51.16398351500001
 30
0.0
 11
51.65306566530003
 21
51.2422427023
 31
0.0
  0
LWPOLYLINE
  5
92F9D
330
1F
100
AcDbEntity
  8
cut
100
AcDbPolyline
 90
        3
 70
     0
 43
0.0
 10
51.65306566530003
 20
51.2422427023
 10
51.52176421200003
 20
51.3209091511
 10
51.4781414757
 20
51.34720326060002
  0
LWPOLYLINE
  5
92F9E
330
1F
100
AcDbEntity
  8
cut
100
AcDbPolyline
 90
       31
 70
     0
 43
0.0
 10
51.47814214320002
 20
51.3472028576
 10
51.4452145125
 20
51.36790759780001
 10
51.4139945061
 20
51.38842588
 10
51.38448212400001
 20
51.4087577044
 10
51.35679392580001
 20
51.4289266535
 10
51.3308133518
 20
51.44890914480001
 10
51.3061907239
 20
51.46863443029999
 10
51.2829114152
 20
51.4880647926
 10
51.26099005240003
 20
51.50723794910001
 10
51.2401208375
 20
51.5261963048
 10
51.22028954460001
 20
51.54492039360002
 10
51.20151039940004
 20
51.5634296816
 10
51.18352028110003
 20
51.58182497110002
 10
51.16630319690003
 20
51.6000989352
 10
51.1498751396
 20
51.61825890080002
 10
51.13402096650003
 20
51.6364276516
 10
51.11872705100005
 20
51.6545979167
 10
51.10400701980001
 20
51.6727769668
 10
51.0896866102
 20
51.69110939780001
 10
51.07573193470003
 20
51.7096210759
 10
51.06217688080003
 20
51.72828613480001
 10
51.04894884880002
 20
51.7471715711
 10
51.0360234307
 20
51.76630589860002
 10
51.0234250345
 20
51.7856606034
 10
51.0111542849
 20
51.80521714070002
 10
50.99920941979999
 20
51.8249764703
 10
50.98759220120005
 20
51.84493763240002
 10
50.97630854060003
 20
51.86507920280003
 10
50.96536040830002
 20
51.88539404010001
 10
50.9547458339
 20
51.90588928570003
 10
50.94446481750001
 20
51.92656493970003
  0
LWPOLYLINE
  5
92F9F
330
1F
100
AcDbEntity
  8
cut
100
AcDbPolyline
 90
       16
 70
     0
 43
0.0
 10
47.484820954
 20
58.8911347801
 10
47.47554524920001
 20
58.90922073980003
 10
47.46674950610002
 20
58.92746825980001
 10
47.45843372450003
 20
58.9458773402
 10
47.45059276760001
 20
58.96446947980003
 10
47.4432317723
 20
58.98322317970002
 10
47.43636614959998
 20
59.0020739431
 10
47.4300023473
 20
59.02100459470003
 10
47.42413391760003
 20
59.04003230970002
 10
47.41875692799999
 20
59.05914411689999
 10
47.41386703850003
 20
59.07835761610003
 10
47.40946858920003
 20
59.09765520749999
 10
47.4055706673
 20
59.11697112060004
 10
47.4021763018
 20
59.1362834318
 10
47.39928246380002
 20
59.15561406460003
 10
47.3968891532
 20
59.174963019
  0
LINE
  5
92FA0
330
1F
100
AcDbEntity
  8
cut
100
AcDbLine
 10
48.4672409666
 20
56.9388083498
 30
0.0
 11
48.08472922840002
 21
57.69574679090002
 31
0.0
  0
LINE
  5
92FA1
330
1F
100
AcDbEntity
  8
cut
100
AcDbLine
 10
48.84644491479999
 20
56.18446740470003
 30
0.0
 11
48.4672409666
 21
56.9388083498
 31
0.0
  0
LINE
  5
92FA2
330
1F
100
AcDbEntity
  8
cut
100
AcDbLine
 10
48.08472922840002
 20
57.69574679090002
 30
0.0
 11
48.07690579830002
 21
57.71134944800002
 31
0.0
  0
LINE
  5
92FA3
330
1F
100
AcDbEntity
  8
cut
100
AcDbLine
 10
49.22984552449999
 20
55.4173900511
 30
0.0
 11
48.84644491479999
 21
56.18446740470003
 31
0.0
  0
LINE
  5
92FA4
330
1F
100
AcDbEntity
  8
cut
100
AcDbLine
 10
49.54475642810002
 20
54.78396457170001
 30
0.0
 11
49.22984552449999
 21
55.4173900511
 31
0.0
  0
LINE
  5
92FA5
330
1F
100
AcDbEntity
  8
cut
100
AcDbLine
 10
49.87107403909998
 20
54.12422703909999
 30
0.0
 11
49.54475642810002
 21
54.78396457170001
 31
0.0
  0
LINE
  5
92FA6
330
1F
100
AcDbEntity
  8
cut
100
AcDbLine
 10
48.07690579830002
 20
57.71134944800002
 30
0.0
 11
48.06908745670003
 21
57.72726786450003
 31
0.0
  0
LINE
  5
92FA7
330
1F
100
AcDbEntity
  8
cut
100
AcDbLine
 10
50.52265506160001
 20
52.79559450640002
 30
0.0
 11
49.87107403909998
 21
54.12422703909999
 31
0.0
  0
LINE
  5
92FA8
330
1F
100
AcDbEntity
  8
cut
100
AcDbLine
 10
50.75597462920004
 20
52.3158113274
 30
0.0
 11
50.52265506160001
 21
52.79559450640002
 31
0.0
  0
LWPOLYLINE
  5
92FA9
330
1F
100
AcDbEntity
  8
cut
100
AcDbPolyline
 90
        9
 70
     0
 43
0.0
 10
48.00086319900003
 20
57.8696034525
 10
47.9395488407
 20
57.99606422810001
 10
47.87733112880002
 20
58.1228843668
 10
47.8142187106
 20
58.2500719077
 10
47.7502029388
 20
58.37761881170002
 10
47.6852578714
 20
58.5055009628
 10
47.61937486090002
 20
58.63371032220001
 10
47.55256255479999
 20
58.7622549285
 10
47.4848209531
 20
58.89113478190001
  0
LINE
  5
92FAA
330
1F
100
AcDbEntity
  8
cut
100
AcDbLine
 10
50.94446485569999
 20
51.92656486130002
 30
0.0
 11
50.75597462819999
 21
52.31581132940003
 31
0.0
  0
LINE
  5
92FAB
330
1F
100
AcDbEntity
  8
cut
100
AcDbLine
 10
48.06908745670003
 20
57.72726786450003
 30
0.0
 11
48.00086319900003
 21
57.8696034525
 31
0.0
  0
LINE
  5
92FAC
330
1F
100
AcDbEntity
  8
cut
100
AcDbLine
 10
63.49357405270001
 20
61.33215522400003
 30
0.0
 11
63.5
 21
62.6999999989
 31
0.0
  0
LINE
  5
92FAD
330
1F
100
AcDbEntity
  8
cut
100
AcDbLine
 10
63.49357405270001
 20
61.33215522400003
 30
0.0
 11
63.49344257320002
 21
61.3232562743
 31
0.0
  0
LINE
  5
92FAE
330
1F
100
AcDbEntity
  8
cut
100
AcDbLine
 10
63.2568313181
 20
55.14051214990002
 30
0.0
 11
63.25181409960001
 21
54.83073432380002
 31
0.0
  0
LINE
  5
92FAF
330
1F
100
AcDbEntity
  8
cut
100
AcDbLine
 10
63.26324528030003
 20
55.4481486693
 30
0.0
 11
63.2568313181
 21
55.14051214990002
 31
0.0
  0
LINE
  5
92FB0
330
1F
100
AcDbEntity
  8
cut
100
AcDbLine
 10
63.49344257320002
 20
61.3232562743
 30
0.0
 11
63.4930620223
 21
61.3054104341
 31
0.0
  0
LWPOLYLINE
  5
92FB1
330
1F
100
AcDbEntity
  8
cut
100
AcDbPolyline
 90
       25
 70
     0
 43
0.0
 10
63.25181409970003
 20
54.83073432820001
 10
63.25096826180001
 20
54.79719045250002
 10
63.24941270720001
 20
54.7638729914
 10
63.24714743590002
 20
54.73078194480001
 10
63.2441620039
 20
54.6979092207
 10
63.24046685520002
 20
54.6652629112
 10
63.23609332220001
 20
54.6328672928
 10
63.23103953150003
 20
54.60073004320004
 10
63.2253073564
 20
54.56884348480002
 10
63.21893374970002
 20
54.53720886080001
 10
63.21192246940004
 20
54.50582235700003
 10
63.20426975730001
 20
54.47468778780001
 10
63.1960012918
 20
54.44381783919999
 10
63.1871290171
 20
54.41321978060003
 10
63.17764098900003
 20
54.3828863427
 10
63.16752705280003
 20
54.35280840400004
 10
63.15678898150004
 20
54.32297609120002
 10
63.14542500220003
 20
54.2933992776
 10
63.1334196405
 20
54.26409846190001
 10
63.12077326280004
 20
54.23507314610001
 10
63.10748550280004
 20
54.20632382820002
 10
63.09353978770002
 20
54.1778725004
 10
63.07893059350003
 20
54.1497264935
 10
63.0636634443
 20
54.12187847680002
 10
63.04773834010004
 20
54.09432845030003
  0
LINE
  5
92FB2
330
1F
100
AcDbEntity
  8
cut
100
AcDbLine
 10
63.2710288682
 20
55.75401351580001
 30
0.0
 11
63.26324528030003
 21
55.4481486693
 31
0.0
  0
LINE
  5
92FB3
330
1F
100
AcDbEntity
  8
cut
100
AcDbLine
 10
63.28006963520002
 20
56.05573990719999
 30
0.0
 11
63.2710288682
 21
55.75401351580001
 31
0.0
  0
LINE
  5
92FB4
330
1F
100
AcDbEntity
  8
cut
100
AcDbLine
 10
63.4930620223
 20
61.3054104341
 30
0.0
 11
63.49252468220001
 21
61.2875006726
 31
0.0
  0
LINE
  5
92FB5
330
1F
100
AcDbEntity
  8
cut
100
AcDbLine
 10
63.29038901770002
 20
56.35443152940002
 30
0.0
 11
63.28006963520002
 21
56.05573990719999
 31
0.0
  0
LINE
  5
92FB6
330
1F
100
AcDbEntity
  8
cut
100
AcDbLine
 10
63.49252468220001
 20
61.2875006726
 30
0.0
 11
63.46379179280003
 21
60.55114721590001
 31
0.0
  0
LINE
  5
92FB7
330
1F
100
AcDbEntity
  8
cut
100
AcDbLine
 10
63.46379179280003
 20
60.55114721590001
 30
0.0
 11
63.43325310830003
 21
59.78476582270002
 31
0.0
  0
LINE
  5
92FB8
330
1F
100
AcDbEntity
  8
cut
100
AcDbLine
 10
63.3016338596
 20
56.64260781020002
 30
0.0
 11
63.29038901770002
 21
56.35443152940002
 31
0.0
  0
LINE
  5
92FB9
330
1F
100
AcDbEntity
  8
cut
100
AcDbLine
 10
63.43325310830003
 20
59.78476582270002
 30
0.0
 11
63.39923803569999
 21
58.94897665440002
 31
0.0
  0
LINE
  5
92FBA
330
1F
100
AcDbEntity
  8
cut
100
AcDbLine
 10
63.39923803569999
 20
58.94897665440002
 30
0.0
 11
63.36484613380003
 21
58.12203204440002
 31
0.0
  0
LWPOLYLINE
  5
92FBB
330
1F
100
AcDbEntity
  8
cut
100
AcDbPolyline
 90
        4
 70
     0
 43
0.0
 10
63.36484613380003
 20
58.12203204440002
 10
63.31528407120003
 20
56.96081852490003
 10
63.31370684830003
 20
56.92456435780002
 10
63.31044068549999
 20
56.84937353860003
  0
LINE
  5
92FBC
330
1F
100
AcDbEntity
  8
cut
100
AcDbLine
 10
63.31044068549999
 20
56.84937353860003
 30
0.0
 11
63.3016338596
 21
56.64260781020002
 31
0.0
  0
LINE
  5
92FBD
330
1F
100
AcDbEntity
  8
cut
100
AcDbLine
 10
55.0763326489
 20
63.49999999890002
 30
0.0
 11
62.70000000000002
 21
63.49999999890002
 31
0.0
  0
ARC
  5
92FBE
330
1F
100
AcDbEntity
  8
cut
100
AcDbCircle
 10
55.0763326489
 20
61.49999999890003
 30
0.0
 40
2.0
100
AcDbArc
 50
90.0
 51
118.6597549810999
  0
ARC
  5
92FBF
330
1F
100
AcDbEntity
  8
cut
100
AcDbCircle
 10
62.70000000000002
 20
62.6999999989
 30
0.0
 40
0.8
100
AcDbArc
 50
0.0
 51
90.0
  0
DIMENSION
  5
92FC0
330
1F
100
AcDbEntity
  8
2
100
AcDbDimension
  2
*D1310
 10
62.70000000000002
 20
62.6999999989
 30
0.0
 11
82.02468994403895
 21
67.03522174089872
 31
0.0
 70
   164
 71
     5
 42
0.8
  3
コピー - ISO-25
100
AcDbRadialDimension
 15
63.4805986673262
 25
62.87511630473298
 35
0.0
 40
0.0
1001
ACAD
1000
DSTYLE
1002
{
1070
   170
1070
     1
1070
   171
1070
     3
1070
   143
1040
0.0393700787401575
1070
   285
1070
     4
1070
     4
1000
"
1070
   271
1070
     8
1070
    40
1040
1.0
1002
}
1001
ACAD_DSTYLE_DIMRADIAL_EXTENSION
1070
   387
1070
     1
1070
   388
1040
0.0
1070
   390
1040
1.570796326794896
1001
ACAD_DSTYLE_DIMINSPECT
1070
   396
1000

1070
   395
1000

1070
   394
1070
     1
1070
   393
1070
     0
1001
ZWMCAD_GENSTANDARDFRAME_13_
1070
   410
1000
GB
1070
   411
1000
ZwmFrameMain_
  0
VIEWPORT
  5
71
102
{ACAD_XDICTIONARY
360
87B09
102
}
330
55
100
AcDbEntity
 67
     1
  8
0
100
AcDbViewport
 10
150.1652135264906
 20
103.6581106594891
 30
0.0
 40
339.1973820494347
 41
168.6522697578383
 68
     1
 69
    -1
 12
150.1652135264906
 22
103.6581106594891
 13
0.0
 23
0.0
 14
10.0
 24
10.0
 15
10.0
 25
10.0
 16
0.0
 26
0.0
 36
1.0
 17
0.0
 27
0.0
 37
0.0
 42
50.0
 43
0.0
 44
0.0
 45
168.6522697578383
 50
0.0
 51
0.0
 72
  1000
 90
    32864
  1

281
     0
 71
     1
 74
     0
110
0.0
120
0.0
130
0.0
111
1.0
121
0.0
131
0.0
112
0.0
122
1.0
132
0.0
 79
     0
146
0.0
1001
ACAD
1000
MVIEW
1002
{
1070
    16
1010
0.0
1020
0.0
1030
0.0
1010
0.0
1020
0.0
1030
1.0
1040
0.0
1040
168.6522697578383
1040
150.1652135264906
1040
103.6581106594891
1040
50.0
1040
0.0
1040
0.0
1070
     0
1070
  1000
1070
     0
1070
     3
1070
     0
1070
     0
1070
     0
1070
     0
1040
0.0
1040
0.0
1040
0.0
1040
10.0
1040
10.0
1040
10.0
1040
10.0
1070
     0
1002
{
1002
}
1002
}
  0
VIEWPORT
  5
73
102
{ACAD_XDICTIONARY
360
87B0B
102
}
330
55
100
AcDbEntity
 67
     1
  8
0
100
AcDbViewport
 10
133.3499939441681
 20
101.5999939441681
 30
0.0
 40
213.3599903106689
 41
162.5599903106689
 68
     2
 69
    -1
 12
210.0
 22
148.5
 13
0.0
 23
0.0
 14
10.0
 24
10.0
 15
10.0
 25
10.0
 16
0.0
 26
0.0
 36
1.0
 17
0.0
 27
0.0
 37
0.0
 42
50.0
 43
0.0
 44
0.0
 45
324.0677920111345
 50
0.0
 51
0.0
 72
   100
 90
    32864
  1

281
     0
 71
     1
 74
     0
110
0.0
120
0.0
130
0.0
111
1.0
121
0.0
131
0.0
112
0.0
122
1.0
132
0.0
 79
     0
146
0.0
1001
ACAD
1000
MVIEW
1002
{
1070
    16
1010
0.0
1020
0.0
1030
0.0
1010
0.0
1020
0.0
1030
1.0
1040
0.0
1040
324.0677920111345
1040
210.0
1040
148.5
1040
50.0
1040
0.0
1040
0.0
1070
     0
1070
   100
1070
     0
1070
     3
1070
     0
1070
     0
1070
     0
1070
     0
1040
0.0
1040
0.0
1040
0.0
1040
10.0
1040
10.0
1040
10.0
1040
10.0
1070
     0
1002
{
1002
}
1002
}
  0
ENDSEC
  0
SECTION
  2
OBJECTS
  0
DICTIONARY
  5
C
330
0
100
AcDbDictionary
281
     1
  3
ACAD_2007HEADERVARS_RT
350
9302A
  3
ACAD_CIP_PREVIOUS_PRODUCT_INFO
350
4A3C3
  3
ACAD_COLOR
350
85
  3
ACAD_DETAILVIEWSTYLE
350
4A3BB
  3
ACAD_GROUP
350
D
  3
ACAD_LAYOUT
350
1A
  3
ACAD_MATERIAL
350
84
  3
ACAD_MLEADERSTYLE
350
4A3B7
  3
ACAD_MLINESTYLE
350
17
  3
ACAD_PLOTSETTINGS
350
19
  3
ACAD_PLOTSTYLENAME
350
E
  3
ACAD_SCALELIST
350
4A3A5
  3
ACAD_SECTIONVIEWSTYLE
350
4A3B9
  3
ACAD_TABLESTYLE
350
A1
  3
ACAD_VISUALSTYLE
350
4A38C
  3
ACDB_RECOMPOSE_DATA
350
907A1
  3
ACDBHEADERROUNDTRIPXREC
350
93027
  3
AcDbVariableDictionary
350
5E
  3
ASE_INDEX_DICTIONARY
350
349E9
  3
DWGPROPS
350
9302D
  0
DICTIONARY
  5
8C34E
330
8
100
AcDbDictionary
280
     1
281
     1
  3
ACAD_XREC_ROUNDTRIP
360
93033
  0
DICTIONARY
  5
E2
330
2
100
AcDbDictionary
280
     1
281
     1
  3
ACAD_LAYERFILTERS
360
4A339
  3
ACAD_LAYERSTATES
360
3759A
  3
ACLYDICTIONARY
360
4A338
  0
DICTIONARY
  5
4A86C
330
10
100
AcDbDictionary
280
     1
281
     1
  3
ADSK_XREC_LAYER_RECONCILED
360
4A86D
  0
DICTIONARY
  5
4A773
330
4A772
100
AcDbDictionary
280
     1
281
     1
  3
ADSK_XREC_LAYER_RECONCILED
360
4A86E
  0
DICTIONARY
  5
4A775
330
4A774
100
AcDbDictionary
280
     1
281
     1
  3
ADSK_XREC_LAYER_RECONCILED
360
4A86F
  0
DICTIONARY
  5
4A777
330
4A776
100
AcDbDictionary
280
     1
281
     1
  3
ADSK_XREC_LAYER_RECONCILED
360
4A870
  0
DICTIONARY
  5
4A779
330
4A778
100
AcDbDictionary
280
     1
281
     1
  3
ADSK_XREC_LAYER_RECONCILED
360
4A871
  0
DICTIONARY
  5
4A77B
330
4A77A
100
AcDbDictionary
280
     1
281
     1
  3
ADSK_XREC_LAYER_RECONCILED
360
4A872
  0
DICTIONARY
  5
4A77F
330
4A77E
100
AcDbDictionary
280
     1
281
     1
  3
ADSK_XREC_LAYER_RECONCILED
360
4A874
  0
DICTIONARY
  5
4A783
330
4A782
100
AcDbDictionary
280
     1
281
     1
  3
ADSK_XREC_LAYER_RECONCILED
360
4A876
  0
DICTIONARY
  5
8C34C
330
87B52
100
AcDbDictionary
280
     1
281
     1
  3
ACAD_XREC_ROUNDTRIP
360
93032
  0
DICTIONARY
  5
31EE
330
1F
100
AcDbDictionary
280
     1
281
     1
  3
ACAD_SORTENTS
360
31EF
  0
DICTIONARY
  5
4A6D7
330
4A6D6
100
AcDbDictionary
280
     1
281
     1
  3
ACAD_SORTENTS
360
4A6D8
  0
DICTIONARY
  5
87B05
330
6B
100
AcDbDictionary
280
     1
281
     1
  3
ACAD_XREC_ROUNDTRIP
360
93030
  0
DICTIONARY
  5
87B07
330
6D
100
AcDbDictionary
280
     1
281
     1
  3
ACAD_XREC_ROUNDTRIP
360
93031
  0
DICTIONARY
  5
92A8D
330
92A8C
100
AcDbDictionary
280
     1
281
     1
  3
ACAD_DIMASSOC
360
92A8E
  0
DICTIONARY
  5
92A90
330
92A8F
100
AcDbDictionary
280
     1
281
     1
  3
ACAD_DIMASSOC
360
92A91
  0
DICTIONARY
  5
92A93
330
92A92
100
AcDbDictionary
280
     1
281
     1
  3
ACAD_DIMASSOC
360
92A94
  0
DICTIONARY
  5
92A96
330
92A95
100
AcDbDictionary
280
     1
281
     1
  3
ACAD_DIMASSOC
360
92A97
  0
DICTIONARY
  5
87B09
330
71
100
AcDbDictionary
280
     1
281
     1
  3
ACAD_XREC_ROUNDTRIP
360
9302E
  0
DICTIONARY
  5
87B0B
330
73
100
AcDbDictionary
280
     1
281
     1
  3
ACAD_XREC_ROUNDTRIP
360
9302F
  0
DICTIONARY
  5
9302A
102
{ACAD_REACTORS
330
C
102
}
330
C
100
AcDbDictionary
281
     1
  3
DIMTFILL
350
9302B
  3
DIMTFILLCLR
350
9302C
  0
XRECORD
  5
4A3C3
102
{ACAD_REACTORS
330
C
102
}
330
C
100
AcDbXrecord
280
     1
300
ACDLT
300
2020
300

  0
DICTIONARY
  5
85
102
{ACAD_REACTORS
330
C
102
}
330
C
100
AcDbDictionary
281
     1
  0
DICTIONARY
  5
4A3BB
102
{ACAD_REACTORS
330
C
102
}
330
C
100
AcDbDictionary
281
     1
  3
Metric50
350
4A3BC
  0
DICTIONARY
  5
D
102
{ACAD_REACTORS
330
C
102
}
330
C
100
AcDbDictionary
281
     1
  0
DICTIONARY
  5
1A
102
{ACAD_REACTORS
330
C
102
}
330
C
100
AcDbDictionary
281
     1
  3
Model
350
22
  3
レイアウト1
350
51
  3
レイアウト2
350
56
  0
DICTIONARY
  5
84
102
{ACAD_REACTORS
330
C
102
}
330
C
100
AcDbDictionary
281
     1
  3
ByBlock
350
4A37C
  3
ByLayer
350
4A374
  3
Global
350
4A384
  0
DICTIONARY
  5
4A3B7
102
{ACAD_REACTORS
330
C
102
}
330
C
100
AcDbDictionary
281
     1
  3
Standard
350
4A3B8
  0
DICTIONARY
  5
17
102
{ACAD_REACTORS
330
C
102
}
330
C
100
AcDbDictionary
281
     1
  3
Standard
350
18
  0
DICTIONARY
  5
19
102
{ACAD_REACTORS
330
C
102
}
330
C
100
AcDbDictionary
281
     1
  0
ACDBDICTIONARYWDFLT
  5
E
102
{ACAD_REACTORS
330
C
102
}
330
C
100
AcDbDictionary
281
     1
  3
Normal
350
F
100
AcDbDictionaryWithDefault
340
F
  0
DICTIONARY
  5
4A3A5
102
{ACAD_REACTORS
330
C
102
}
330
C
100
AcDbDictionary
281
     1
  3
A0
350
4A3A6
  3
A1
350
4A3A7
  3
A2
350
4A3A8
  3
A3
350
4A3A9
  3
A4
350
4A3AA
  3
A5
350
4A3AB
  3
A6
350
4A3AC
  3
A7
350
4A3AD
  3
A8
350
4A3AE
  3
A9
350
4A3AF
  3
B0
350
4A3B0
  3
B1
350
4A3B1
  3
B2
350
4A3B2
  3
B3
350
4A3B3
  3
B4
350
4A3B4
  3
B5
350
4A3B5
  3
B6
350
4A3B6
  0
DICTIONARY
  5
4A3B9
102
{ACAD_REACTORS
330
C
102
}
330
C
100
AcDbDictionary
281
     1
  3
Metric50
350
4A3BA
  0
DICTIONARY
  5
A1
102
{ACAD_REACTORS
330
C
102
}
330
C
100
AcDbDictionary
281
     1
  3
Standard
350
A2
  0
DICTIONARY
  5
4A38C
102
{ACAD_REACTORS
330
C
102
}
330
C
100
AcDbDictionary
281
     1
  3
2dWireframe
350
4A392
  3
Basic
350
4A391
  3
Brighten
350
4A398
  3
ColorChange
350
4A39C
  3
Conceptual
350
4A395
  3
Dim
350
4A397
  3
EdgeColorOff
350
4A3A4
  3
Facepattern
350
4A39B
  3
Flat
350
4A38D
  3
FlatWithEdges
350
4A38E
  3
Gouraud
350
4A38F
  3
GouraudWithEdges
350
4A390
  3
Hidden
350
4A394
  3
JitterOff
350
4A3A2
  3
Linepattern
350
4A39A
  3
OverhangOff
350
4A3A3
  3
Realistic
350
4A396
  3
Shaded
350
4A3A1
  3
Shaded with edges
350
4A3A0
  3
Shades of Gray
350
4A39D
  3
Sketchy
350
4A39E
  3
Thicken
350
4A399
  3
Wireframe
350
4A393
  3
X-Ray
350
4A39F
  0
XRECORD
  5
907A1
102
{ACAD_REACTORS
330
C
102
}
330
C
100
AcDbXrecord
280
     1
 90
        1
330
A2
  0
DICTIONARY
  5
93027
102
{ACAD_REACTORS
330
C
102
}
330
C
100
AcDbDictionary
281
     1
  3
COLORDICT
350
93028
  3
MATERIALDICT
350
93029
  0
DICTIONARY
  5
5E
102
{ACAD_REACTORS
330
C
102
}
330
C
100
AcDbDictionary
281
     1
  3
CANNOSCALE
350
93026
  3
CMLEADERSTYLE
350
4A6CE
  3
CTABLESTYLE
350
B8
  3
CVIEWDETAILSTYLE
350
4A6CF
  3
CVIEWSECTIONSTYLE
350
4A6D0
  3
DIMASSOC
350
5F
  3
HIDETEXT
350
63
  3
INDEXCTL
350
4A879
  3
LAYEREVAL
350
4A6D4
  3
LAYERNOTIFY
350
4A6D5
  3
LIGHTINGUNITS
350
4A6D3
  3
MSLTSCALE
350
4A6D1
  3
PROJECTNAME
350
31CE
  3
SORTENTS
350
4A878
  3
XCLIPFRAME
350
87AF9
  0
DICTIONARY
  5
349E9
102
{ACAD_REACTORS
330
C
102
}
330
C
100
AcDbDictionary
281
     1
  3
ASEBlockHierarchyIndexRecord
350
349EA
1001
DCO15
1040
1842496176.844
  0
XRECORD
  5
9302D
102
{ACAD_REACTORS
330
C
102
}
330
C
100
AcDbXrecord
280
     1
  1
DWGPROPS COOKIE
  2

  3

  4

  6

  7

  8
zhangnw
  9

300
=
301
=
302
=
303
=
304
=
305
=
306
=
307
=
308
=
309
=
 40
0.0
 41
2455489.391063368
 42
2458948.454649306
  1

 90
        0
  0
XRECORD
  5
93033
102
{ACAD_REACTORS
330
8C34E
102
}
330
8C34E
100
AcDbXrecord
280
     1
102
VTR_0.000_0.000_1.000_1.000_VISUALSTYLE
340
4A392
102
VTR_0.000_0.000_1.000_1.000_GRIDDISPLAY
 70
     3
102
VTR_0.000_0.000_1.000_1.000_GRIDMAJOR
 70
     5
102
VTR_0.000_0.000_1.000_1.000_DEFAULTLIGHTING
280
     1
102
VTR_0.000_0.000_1.000_1.000_DEFAULTLIGHTINGTYPE
 70
     1
102
VTR_0.000_0.000_1.000_1.000_BRIGHTNESS
141
0.0
102
VTR_0.000_0.000_1.000_1.000_CONTRAST
142
0.0
  0
DICTIONARY
  5
4A339
102
{ACAD_REACTORS
330
E2
102
}
330
E2
100
AcDbDictionary
281
     1
  0
DICTIONARY
  5
3759A
102
{ACAD_REACTORS
330
E2
102
}
330
E2
100
AcDbDictionary
281
     1
  0
DICTIONARY
  5
4A338
102
{ACAD_REACTORS
330
E2
102
}
330
E2
100
AcDbDictionary
281
     1
1001
ACAD
1000
<All
  0
XRECORD
  5
4A86D
102
{ACAD_REACTORS
330
4A86C
102
}
330
4A86C
100
AcDbXrecord
280
     1
290
     1
  0
XRECORD
  5
4A86E
102
{ACAD_REACTORS
330
4A773
102
}
330
4A773
100
AcDbXrecord
280
     1
290
     1
  0
XRECORD
  5
4A86F
102
{ACAD_REACTORS
330
4A775
102
}
330
4A775
100
AcDbXrecord
280
     1
290
     1
  0
XRECORD
  5
4A870
102
{ACAD_REACTORS
330
4A777
102
}
330
4A777
100
AcDbXrecord
280
     1
290
     1
  0
XRECORD
  5
4A871
102
{ACAD_REACTORS
330
4A779
102
}
330
4A779
100
AcDbXrecord
280
     1
290
     1
  0
XRECORD
  5
4A872
102
{ACAD_REACTORS
330
4A77B
102
}
330
4A77B
100
AcDbXrecord
280
     1
290
     1
  0
XRECORD
  5
4A874
102
{ACAD_REACTORS
330
4A77F
102
}
330
4A77F
100
AcDbXrecord
280
     1
290
     1
  0
XRECORD
  5
4A876
102
{ACAD_REACTORS
330
4A783
102
}
330
4A783
100
AcDbXrecord
280
     1
290
     1
  0
XRECORD
  5
93032
102
{ACAD_REACTORS
330
8C34C
102
}
330
8C34C
100
AcDbXrecord
280
     1
102
MATERIAL
340
4A384
  0
SORTENTSTABLE
  5
31EF
102
{ACAD_REACTORS
330
31EE
102
}
330
31EE
100
AcDbSortentsTable
330
1F
  0
SORTENTSTABLE
  5
4A6D8
102
{ACAD_REACTORS
330
4A6D7
102
}
330
4A6D7
100
AcDbSortentsTable
330
4A6D6
  0
XRECORD
  5
93030
102
{ACAD_REACTORS
330
87B05
102
}
330
87B05
100
AcDbXrecord
280
     1
102
GRIDDISPLAY
 70
     0
102
GRIDMAJOR
 70
     5
102
DEFAULTLIGHTING
280
     1
102
DEFAULTLIGHTINGTYPE
 70
     1
102
BRIGHTNESS
141
0.0
102
CONTRAST
142
0.0
  0
XRECORD
  5
93031
102
{ACAD_REACTORS
330
87B07
102
}
330
87B07
100
AcDbXrecord
280
     1
102
GRIDDISPLAY
 70
     0
102
GRIDMAJOR
 70
     5
102
DEFAULTLIGHTING
280
     1
102
DEFAULTLIGHTINGTYPE
 70
     1
102
BRIGHTNESS
141
0.0
102
CONTRAST
142
0.0
  0
DIMASSOC
  5
92A8E
102
{ACAD_REACTORS
330
92A8D
102
}
330
92A8D
100
AcDbDimAssoc
330
92A8C
 90
        1
 70
     0
 71
     0
  1
AcDbOsnapPointRef
 72
     1
331
92A07
 73
     2
 91
        0
 40
3.141592653589792
 10
0.0
 20
0.0
 30
1.999999999999998E+50
 75
     0
  0
DIMASSOC
  5
92A91
102
{ACAD_REACTORS
330
92A90
102
}
330
92A90
100
AcDbDimAssoc
330
92A8F
 90
        3
 70
     0
 71
     0
  1
AcDbOsnapPointRef
 72
    13
331
929FE
 73
     2
 91
        0
 40
3.141592653589792
 10
0.0
 20
0.0
 30
1.999999999999998E+50
 75
     0
  1
AcDbOsnapPointRef
 72
    13
331
92A88
 73
     2
 91
        0
 40
3.141592653589792
 10
0.0
 20
0.0
 30
1.999999999999998E+50
 75
     0
  0
DIMASSOC
  5
92A94
102
{ACAD_REACTORS
330
92A93
102
}
330
92A93
100
AcDbDimAssoc
330
92A92
 90
        3
 70
     0
 71
     0
  1
AcDbOsnapPointRef
 72
    13
331
92920
 73
     2
 91
        0
 40
0.0
 10
0.0
 20
0.0
 30
1.999999999999998E+50
 75
     0
  1
AcDbOsnapPointRef
 72
    13
331
92A77
 73
     2
 91
        0
 40
0.0
 10
0.0
 20
0.0
 30
1.999999999999998E+50
 75
     0
  0
DIMASSOC
  5
92A97
102
{ACAD_REACTORS
330
92A96
102
}
330
92A96
100
AcDbDimAssoc
330
92A95
 90
        3
 70
     0
 71
     0
  1
AcDbOsnapPointRef
 72
    13
331
929FD
 73
     2
 91
        0
 40
1.570796326794896
 10
0.0
 20
0.0
 30
1.999999999999998E+50
 75
     0
  1
AcDbOsnapPointRef
 72
     1
331
928C4
 73
     2
 91
        0
 40
1.0
 10
0.0
 20
0.0
 30
1.999999999999998E+50
 75
     0
  0
XRECORD
  5
9302E
102
{ACAD_REACTORS
330
87B09
102
}
330
87B09
100
AcDbXrecord
280
     1
102
GRIDDISPLAY
 70
     0
102
GRIDMAJOR
 70
     5
102
DEFAULTLIGHTING
280
     1
102
DEFAULTLIGHTINGTYPE
 70
     1
102
BRIGHTNESS
141
0.0
102
CONTRAST
142
0.0
  0
XRECORD
  5
9302F
102
{ACAD_REACTORS
330
87B0B
102
}
330
87B0B
100
AcDbXrecord
280
     1
102
GRIDDISPLAY
 70
     0
102
GRIDMAJOR
 70
     5
102
DEFAULTLIGHTING
280
     1
102
DEFAULTLIGHTINGTYPE
 70
     1
102
BRIGHTNESS
141
0.0
102
CONTRAST
142
0.0
  0
XRECORD
  5
9302B
102
{ACAD_REACTORS
330
9302A
102
}
330
9302A
100
AcDbXrecord
280
     1
 70
     1
  0
XRECORD
  5
9302C
102
{ACAD_REACTORS
330
9302A
102
}
330
9302A
100
AcDbXrecord
280
     1
1004
1800000001000000000000C1000000000000000000000000
  0
ACDBDETAILVIEWSTYLE
  5
4A3BC
102
{ACAD_XDICTIONARY
360
87B40
102
}
102
{ACAD_REACTORS
330
4A3BB
102
}
330
4A3BB
100
AcDbModelDocViewStyle
 70
     0
  3
Metric50
290
     0
100
AcDbDetailViewStyle
 70
     0
 71
     0
 90
        3
 71
     1
340
11
 40
5.0
340
0
 40
5.0
300

 40
0.0
280
     1
 71
     2
340
16
 90
       25
 71
     3
340
11
 40
5.0
 90
        0
 40
15.0
 90
        1
300
%<\AcVar ViewDetailId>% (%<\AcVar ViewScale \f "%sn">%)
 71
     4
340
16
 90
       25
340
16
 90
       25
280
     0
  0
LAYOUT
  5
22
102
{ACAD_REACTORS
330
1A
102
}
330
1A
100
AcDbPlotSettings
  1

  2
none_device
  4
ANSI_A_(8.50_x_11.00_Inches)
  6

 40
6.349999904632567
 41
19.04999923706055
 42
6.350006103515625
 43
19.04998779296875
 44
215.8999938964844
 45
279.3999938964844
 46
0.0
 47
0.0
 48
0.0
 49
0.0
140
0.0
141
0.0
142
1.0
143
78.436453180766
 70
 11952
 72
     0
 73
     1
 74
     0
  7

 75
     0
147
0.0127491741332998
148
0.0
149
0.0
100
AcDbLayout
  1
Model
 70
     1
 71
     0
 10
0.0
 20
0.0
 11
12.0
 21
9.0
 12
0.0
 22
0.0
 32
0.0
 14
0.0
 24
0.0
 34
0.0
 15
0.0
 25
0.0
 35
0.0
146
0.0
 13
0.0
 23
0.0
 33
0.0
 16
1.0
 26
0.0
 36
0.0
 17
0.0
 27
1.0
 37
0.0
 76
     0
330
1F
331
4A360
  0
LAYOUT
  5
51
102
{ACAD_REACTORS
330
1A
102
}
330
1A
100
AcDbPlotSettings
  1

  2
none_device
  4
Letter_(8.50_x_11.00_Inches)
  6

 40
6.349999904632567
 41
6.349999904632567
 42
6.350006103515625
 43
6.350006103515625
 44
215.8999938964844
 45
279.3999938964844
 46
0.0
 47
0.0
 48
0.0
 49
0.0
140
0.0
141
0.0
142
1.0
143
1.0
 70
   688
 72
     1
 73
     1
 74
     5
  7

 75
    16
147
1.0
148
0.0
149
0.0
100
AcDbLayout
  1
レイアウト1
 70
     1
 71
     1
 10
-6.350006103515625
 20
-6.349999904632567
 11
273.0499877929688
 21
209.5499939918518
 12
0.0
 22
0.0
 32
0.0
 14
26.66999878883364
 24
20.31999878883365
 34
0.0
 15
240.0299890995025
 25
182.8799890995025
 35
0.0
146
0.0
 13
0.0
 23
0.0
 33
0.0
 16
1.0
 26
0.0
 36
0.0
 17
0.0
 27
1.0
 37
0.0
 76
     0
330
50
331
6B
  0
LAYOUT
  5
56
102
{ACAD_REACTORS
330
1A
102
}
330
1A
100
AcDbPlotSettings
  1

  2
none_device
  4
Letter_(8.50_x_11.00_Inches)
  6

 40
6.349999904632567
 41
6.349999904632567
 42
6.350006103515625
 43
6.350006103515625
 44
215.8999938964844
 45
279.3999938964844
 46
0.0
 47
0.0
 48
0.0
 49
0.0
140
0.0
141
0.0
142
1.0
143
1.0
 70
   688
 72
     1
 73
     1
 74
     5
  7

 75
    16
147
1.0
148
0.0
149
0.0
100
AcDbLayout
  1
レイアウト2
 70
     1
 71
     2
 10
-6.350006103515625
 20
-6.349999904632567
 11
273.0499877929688
 21
209.5499939918518
 12
0.0
 22
0.0
 32
0.0
 14
26.66999878883364
 24
20.31999878883365
 34
0.0
 15
240.0299890995025
 25
182.8799890995025
 35
0.0
146
0.0
 13
0.0
 23
0.0
 33
0.0
 16
1.0
 26
0.0
 36
0.0
 17
0.0
 27
1.0
 37
0.0
 76
     0
330
55
331
71
  0
MATERIAL
  5
4A37C
102
{ACAD_XDICTIONARY
360
4A37D
102
}
102
{ACAD_REACTORS
330
84
102
}
330
84
100
AcDbMaterial
  1
ByBlock
 72
     0
 73
     2
 43
0.0008202099737533
 43
0.0
 43
0.0
 43
0.0
 43
0.0
 43
0.0008202099737533
 43
0.0
 43
0.0
 43
0.0
 43
0.0
 43
1.0
 43
0.0
 43
0.0
 43
0.0
 43
0.0
 43
1.0
 77
     0
 78
     2
 47
0.0008202099737533
 47
0.0
 47
0.0
 47
0.0
 47
0.0
 47
0.0008202099737533
 47
0.0
 47
0.0
 47
0.0
 47
0.0
 47
1.0
 47
0.0
 47
0.0
 47
0.0
 47
0.0
 47
1.0
171
     0
172
     2
 49
0.0008202099737533
 49
0.0
 49
0.0
 49
0.0
 49
0.0
 49
0.0008202099737533
 49
0.0
 49
0.0
 49
0.0
 49
0.0
 49
1.0
 49
0.0
 49
0.0
 49
0.0
 49
0.0
 49
1.0
175
     0
176
     2
142
0.0008202099737533
142
0.0
142
0.0
142
0.0
142
0.0
142
0.0008202099737533
142
0.0
142
0.0
142
0.0
142
0.0
142
1.0
142
0.0
142
0.0
142
0.0
142
0.0
142
1.0
179
     0
270
     2
144
0.0008202099737533
144
0.0
144
0.0
144
0.0
144
0.0
144
0.0008202099737533
144
0.0
144
0.0
144
0.0
144
0.0
144
1.0
144
0.0
144
0.0
144
0.0
144
0.0
144
1.0
274
     2
147
0.0008202099737533
147
0.0
147
0.0
147
0.0
147
0.0
147
0.0008202099737533
147
0.0
147
0.0
147
0.0
147
0.0
147
1.0
147
0.0
147
0.0
147
0.0
147
0.0
147
1.0
  0
MATERIAL
  5
4A374
102
{ACAD_XDICTIONARY
360
4A375
102
}
102
{ACAD_REACTORS
330
84
102
}
330
84
100
AcDbMaterial
  1
ByLayer
 72
     0
 73
     2
 43
0.0008202099737533
 43
0.0
 43
0.0
 43
0.0
 43
0.0
 43
0.0008202099737533
 43
0.0
 43
0.0
 43
0.0
 43
0.0
 43
1.0
 43
0.0
 43
0.0
 43
0.0
 43
0.0
 43
1.0
 77
     0
 78
     2
 47
0.0008202099737533
 47
0.0
 47
0.0
 47
0.0
 47
0.0
 47
0.0008202099737533
 47
0.0
 47
0.0
 47
0.0
 47
0.0
 47
1.0
 47
0.0
 47
0.0
 47
0.0
 47
0.0
 47
1.0
171
     0
172
     2
 49
0.0008202099737533
 49
0.0
 49
0.0
 49
0.0
 49
0.0
 49
0.0008202099737533
 49
0.0
 49
0.0
 49
0.0
 49
0.0
 49
1.0
 49
0.0
 49
0.0
 49
0.0
 49
0.0
 49
1.0
175
     0
176
     2
142
0.0008202099737533
142
0.0
142
0.0
142
0.0
142
0.0
142
0.0008202099737533
142
0.0
142
0.0
142
0.0
142
0.0
142
1.0
142
0.0
142
0.0
142
0.0
142
0.0
142
1.0
179
     0
270
     2
144
0.0008202099737533
144
0.0
144
0.0
144
0.0
144
0.0
144
0.0008202099737533
144
0.0
144
0.0
144
0.0
144
0.0
144
1.0
144
0.0
144
0.0
144
0.0
144
0.0
144
1.0
274
     2
147
0.0008202099737533
147
0.0
147
0.0
147
0.0
147
0.0
147
0.0008202099737533
147
0.0
147
0.0
147
0.0
147
0.0
147
1.0
147
0.0
147
0.0
147
0.0
147
0.0
147
1.0
  0
MATERIAL
  5
4A384
102
{ACAD_XDICTIONARY
360
4A385
102
}
102
{ACAD_REACTORS
330
84
102
}
330
84
100
AcDbMaterial
  1
Global
 72
     0
 73
     2
 43
0.0008202099737533
 43
0.0
 43
0.0
 43
0.0
 43
0.0
 43
0.0008202099737533
 43
0.0
 43
0.0
 43
0.0
 43
0.0
 43
1.0
 43
0.0
 43
0.0
 43
0.0
 43
0.0
 43
1.0
 77
     0
 78
     2
 47
0.0008202099737533
 47
0.0
 47
0.0
 47
0.0
 47
0.0
 47
0.0008202099737533
 47
0.0
 47
0.0
 47
0.0
 47
0.0
 47
1.0
 47
0.0
 47
0.0
 47
0.0
 47
0.0
 47
1.0
171
     0
172
     2
 49
0.0008202099737533
 49
0.0
 49
0.0
 49
0.0
 49
0.0
 49
0.0008202099737533
 49
0.0
 49
0.0
 49
0.0
 49
0.0
 49
1.0
 49
0.0
 49
0.0
 49
0.0
 49
0.0
 49
1.0
175
     0
176
     2
142
0.0008202099737533
142
0.0
142
0.0
142
0.0
142
0.0
142
0.0008202099737533
142
0.0
142
0.0
142
0.0
142
0.0
142
1.0
142
0.0
142
0.0
142
0.0
142
0.0
142
1.0
179
     0
270
     2
144
0.0008202099737533
144
0.0
144
0.0
144
0.0
144
0.0
144
0.0008202099737533
144
0.0
144
0.0
144
0.0
144
0.0
144
1.0
144
0.0
144
0.0
144
0.0
144
0.0
144
1.0
274
     2
147
0.0008202099737533
147
0.0
147
0.0
147
0.0
147
0.0
147
0.0008202099737533
147
0.0
147
0.0
147
0.0
147
0.0
147
1.0
147
0.0
147
0.0
147
0.0
147
0.0
147
1.0
  0
MLEADERSTYLE
  5
4A3B8
102
{ACAD_XDICTIONARY
360
8C353
102
}
102
{ACAD_REACTORS
330
4A3B7
102
}
330
4A3B7
100
AcDbMLeaderStyle
170
     2
171
     1
172
     0
 90
        2
 40
0.0
 41
0.0
173
     1
 91
-1056964608
340
14
 92
       -2
290
     1
 42
2.0
291
     1
 43
0.36
  3
Standard
 44
4.0
300

342
11
174
     1
178
     6
175
     1
176
     0
 93
-1056964608
 45
4.0
292
     0
297
     0
 46
4.0
 94
-1056964608
 47
1.0
 49
1.0
140
1.0
293
     1
141
0.0
294
     1
177
     0
142
1.0
295
     0
296
     0
143
0.125
1001
ACAD_MLEADERVER
1070
     2
  0
MLINESTYLE
  5
18
102
{ACAD_REACTORS
330
17
102
}
330
17
100
AcDbMlineStyle
  2
STANDARD
 70
     0
  3

 62
   256
 51
90.0
 52
90.0
 71
     2
 49
0.5
 62
   256
  6
BYLAYER
 49
-0.5
 62
   256
  6
BYLAYER
  0
ACDBPLACEHOLDER
  5
F
102
{ACAD_REACTORS
330
E
102
}
330
E
  0
SCALE
  5
4A3A6
102
{ACAD_REACTORS
330
4A3A5
102
}
330
4A3A5
100
AcDbScale
 70
     0
300
1:1
140
1.0
141
1.0
290
     1
  0
SCALE
  5
4A3A7
102
{ACAD_REACTORS
330
4A3A5
102
}
330
4A3A5
100
AcDbScale
 70
     0
300
1:2
140
1.0
141
2.0
290
     0
  0
SCALE
  5
4A3A8
102
{ACAD_REACTORS
330
4A3A5
102
}
330
4A3A5
100
AcDbScale
 70
     0
300
1:4
140
1.0
141
4.0
290
     0
  0
SCALE
  5
4A3A9
102
{ACAD_REACTORS
330
4A3A5
102
}
330
4A3A5
100
AcDbScale
 70
     0
300
1:5
140
1.0
141
5.0
290
     0
  0
SCALE
  5
4A3AA
102
{ACAD_REACTORS
330
4A3A5
102
}
330
4A3A5
100
AcDbScale
 70
     0
300
1:8
140
1.0
141
8.0
290
     0
  0
SCALE
  5
4A3AB
102
{ACAD_REACTORS
330
4A3A5
102
}
330
4A3A5
100
AcDbScale
 70
     0
300
1:10
140
1.0
141
10.0
290
     0
  0
SCALE
  5
4A3AC
102
{ACAD_REACTORS
330
4A3A5
102
}
330
4A3A5
100
AcDbScale
 70
     0
300
1:16
140
1.0
141
16.0
290
     0
  0
SCALE
  5
4A3AD
102
{ACAD_REACTORS
330
4A3A5
102
}
330
4A3A5
100
AcDbScale
 70
     0
300
1:20
140
1.0
141
20.0
290
     0
  0
SCALE
  5
4A3AE
102
{ACAD_REACTORS
330
4A3A5
102
}
330
4A3A5
100
AcDbScale
 70
     0
300
1:30
140
1.0
141
30.0
290
     0
  0
SCALE
  5
4A3AF
102
{ACAD_REACTORS
330
4A3A5
102
}
330
4A3A5
100
AcDbScale
 70
     0
300
1:40
140
1.0
141
40.0
290
     0
  0
SCALE
  5
4A3B0
102
{ACAD_REACTORS
330
4A3A5
102
}
330
4A3A5
100
AcDbScale
 70
     0
300
1:50
140
1.0
141
50.0
290
     0
  0
SCALE
  5
4A3B1
102
{ACAD_REACTORS
330
4A3A5
102
}
330
4A3A5
100
AcDbScale
 70
     0
300
1:100
140
1.0
141
100.0
290
     0
  0
SCALE
  5
4A3B2
102
{ACAD_REACTORS
330
4A3A5
102
}
330
4A3A5
100
AcDbScale
 70
     0
300
2:1
140
2.0
141
1.0
290
     0
  0
SCALE
  5
4A3B3
102
{ACAD_REACTORS
330
4A3A5
102
}
330
4A3A5
100
AcDbScale
 70
     0
300
4:1
140
4.0
141
1.0
290
     0
  0
SCALE
  5
4A3B4
102
{ACAD_REACTORS
330
4A3A5
102
}
330
4A3A5
100
AcDbScale
 70
     0
300
8:1
140
8.0
141
1.0
290
     0
  0
SCALE
  5
4A3B5
102
{ACAD_REACTORS
330
4A3A5
102
}
330
4A3A5
100
AcDbScale
 70
     0
300
10:1
140
10.0
141
1.0
290
     0
  0
SCALE
  5
4A3B6
102
{ACAD_REACTORS
330
4A3A5
102
}
330
4A3A5
100
AcDbScale
 70
     0
300
100:1
140
100.0
141
1.0
290
     0
  0
ACDBSECTIONVIEWSTYLE
  5
4A3BA
102
{ACAD_XDICTIONARY
360
87B3E
102
}
102
{ACAD_REACTORS
330
4A3B9
102
}
330
4A3B9
100
AcDbModelDocViewStyle
 70
     0
  3
Metric50
290
     0
100
AcDbSectionViewStyle
 70
     0
 71
     0
 90
      102
 71
     1
340
11
 40
5.0
340
0
340
0
 40
5.0
300
I, O, Q, S, X, Z
 40
10.0
 90
        0
 40
2.5
 90
        0
 71
     2
340
16
 90
       25
340
16
 90
       50
 40
5.0
 40
2.5
 40
5.0
 71
     3
340
11
 40
5.0
 90
        0
 40
15.0
 90
        1
300
%<\AcVar ViewSectionStartId>%-%<\AcVar ViewSectionEndId>% (%<\AcVar ViewScale \f "%sn">%)
 71
     4
300
ANSI31
 40
1.0
 90
        0
290
     0
290
     0
 90
        6
 40
0.0
 40
1.570796326794896
 40
0.2617993877991494
 40
1.308996938995747
 40
-0.2617993877991494
 40
1.832595714594044
  0
TABLESTYLE
  5
A2
102
{ACAD_XDICTIONARY
360
4CD9A
102
}
102
{ACAD_REACTORS
330
A1
102
}
330
A1
100
AcDbTableStyle
  3
Standard
 70
     0
 71
     0
 40
1.5
 41
1.5
280
     0
281
     0
  7
Standard
140
4.5
170
     2
 62
     0
 63
   257
283
     0
274
    -2
284
     1
 64
     0
275
    -2
285
     1
 65
     0
276
    -2
286
     1
 66
     0
277
    -2
287
     1
 67
     0
278
    -2
288
     1
 68
     0
279
    -2
289
     1
 69
     0
  7
Standard
140
6.0
170
     5
 62
     0
 63
   257
283
     0
274
    -2
284
     1
 64
     0
275
    -2
285
     1
 65
     0
276
    -2
286
     1
 66
     0
277
    -2
287
     1
 67
     0
278
    -2
288
     1
 68
     0
279
    -2
289
     1
 69
     0
  7
Standard
140
4.5
170
     5
 62
     0
 63
   257
283
     0
274
    -2
284
     1
 64
     0
275
    -2
285
     1
 65
     0
276
    -2
286
     1
 66
     0
277
    -2
287
     1
 67
     0
278
    -2
288
     1
 68
     0
279
    -2
289
     1
 69
     0
  0
VISUALSTYLE
  5
4A392
102
{ACAD_XDICTIONARY
360
87B18
102
}
102
{ACAD_REACTORS
330
4A38C
102
}
330
4A38C
100
AcDbVisualStyle
  2

 70
     4
 71
     0
 72
     2
 73
     0
 90
        0
 40
-0.6
 41
-30.0
 62
     5
 63
     7
 74
     1
 91
        4
 64
     7
 65
   257
 75
     1
175
     1
 42
1.0
 92
        0
 66
   257
 43
1.0
 76
     1
 77
     6
 78
     2
 67
     7
 79
     5
170
     0
171
     0
290
     0
174
     0
 93
        1
 44
0.0
173
     0
291
     0
 45
0.0
1001
ACAD
1000
AcDbSavedByObjectVersion
1070
     0
  0
VISUALSTYLE
  5
4A391
102
{ACAD_XDICTIONARY
360
87B16
102
}
102
{ACAD_REACTORS
330
4A38C
102
}
330
4A38C
100
AcDbVisualStyle
  2

 70
     7
 71
     1
 72
     0
 73
     1
 90
        0
 40
-0.6
 41
-30.0
 62
     5
 63
     7
 74
     0
 91
        4
 64
     7
 65
   257
 75
     1
175
     1
 42
1.0
 92
        8
 66
     7
 43
1.0
 76
     1
 77
     6
 78
     2
 67
     7
 79
     5
170
     0
171
     0
290
     0
174
     0
 93
        1
 44
0.0
173
     0
291
     1
 45
0.0
1001
ACAD
1000
AcDbSavedByObjectVersion
1070
     0
  0
VISUALSTYLE
  5
4A398
102
{ACAD_XDICTIONARY
360
87B24
102
}
102
{ACAD_REACTORS
330
4A38C
102
}
330
4A38C
100
AcDbVisualStyle
  2

 70
    12
 71
     2
 72
     2
 73
     0
 90
        0
 40
-0.6
 41
-30.0
 62
     5
 63
     7
 74
     1
 91
        4
 64
     7
 65
   257
 75
     1
175
     1
 42
1.0
 92
        8
 66
     7
 43
1.0
 76
     1
 77
     6
 78
     2
 67
     7
 79
     5
170
     0
171
     0
290
     0
174
     0
 93
        1
 44
50.0
173
     0
291
     1
 45
0.0
1001
ACAD
1000
AcDbSavedByObjectVersion
1070
     0
  0
VISUALSTYLE
  5
4A39C
102
{ACAD_XDICTIONARY
360
87B2C
102
}
102
{ACAD_REACTORS
330
4A38C
102
}
330
4A38C
100
AcDbVisualStyle
  2

 70
    16
 71
     2
 72
     2
 73
     3
 90
        0
 40
-0.6
 41
-30.0
 62
     5
 63
     8
 74
     1
 91
        4
 64
     7
 65
   257
 75
     1
175
     1
 42
1.0
 92
        8
 66
     8
 43
1.0
 76
     1
 77
     6
 78
     2
 67
     7
 79
     5
170
     0
171
     0
290
     0
174
     0
 93
        1
 44
0.0
173
     0
291
     1
 45
0.0
1001
ACAD
1000
AcDbSavedByObjectVersion
1070
     0
  0
VISUALSTYLE
  5
4A395
102
{ACAD_XDICTIONARY
360
87B1E
102
}
102
{ACAD_REACTORS
330
4A38C
102
}
330
4A38C
100
AcDbVisualStyle
  2

 70
     9
 71
     3
 72
     2
 73
     0
 90
        0
 40
-0.6
 41
-30.0
 62
     5
 63
     7
 74
     2
 91
        2
 64
     7
 65
   257
 75
     1
175
     1
 42
179.0
 92
        8
 66
     7
 43
1.0
 76
     1
 77
     6
 78
     2
 67
     7
 79
     3
170
     0
171
     0
290
     0
174
     0
 93
        1
 44
0.0
173
     0
291
     0
 45
0.0
1001
ACAD
1000
AcDbSavedByObjectVersion
1070
     0
  0
VISUALSTYLE
  5
4A397
102
{ACAD_XDICTIONARY
360
87B22
102
}
102
{ACAD_REACTORS
330
4A38C
102
}
330
4A38C
100
AcDbVisualStyle
  2

 70
    11
 71
     2
 72
     2
 73
     0
 90
        0
 40
-0.6
 41
-30.0
 62
     5
 63
     7
 74
     1
 91
        4
 64
     7
 65
   257
 75
     1
175
     1
 42
1.0
 92
        8
 66
     7
 43
1.0
 76
     1
 77
     6
 78
     2
 67
     7
 79
     5
170
     0
171
     0
290
     0
174
     0
 93
        1
 44
-50.0
173
     0
291
     1
 45
0.0
1001
ACAD
1000
AcDbSavedByObjectVersion
1070
     0
  0
VISUALSTYLE
  5
4A3A4
102
{ACAD_XDICTIONARY
360
87B3C
102
}
102
{ACAD_REACTORS
330
4A38C
102
}
330
4A38C
100
AcDbVisualStyle
  2

 70
    22
 71
     2
 72
     2
 73
     0
 90
        0
 40
-0.6
 41
-30.0
 62
     5
 63
     7
 74
     1
 91
        4
 64
     7
 65
   257
 75
     1
175
     1
 42
1.0
 92
        8
 66
     7
 43
1.0
 76
     1
 77
     6
 78
     2
 67
     7
 79
     5
170
     0
171
     0
290
     0
174
     0
 93
        1
 44
0.0
173
     0
291
     1
 45
0.0
1001
ACAD
1000
AcDbSavedByObjectVersion
1070
     0
  0
VISUALSTYLE
  5
4A39B
102
{ACAD_XDICTIONARY
360
87B2A
102
}
102
{ACAD_REACTORS
330
4A38C
102
}
330
4A38C
100
AcDbVisualStyle
  2

 70
    15
 71
     2
 72
     2
 73
     0
 90
        0
 40
-0.6
 41
-30.0
 62
     5
 63
     7
 74
     1
 91
        4
 64
     7
 65
   257
 75
     1
175
     1
 42
1.0
 92
        8
 66
     7
 43
1.0
 76
     1
 77
     6
 78
     2
 67
     7
 79
     5
170
     0
171
     0
290
     0
174
     0
 93
        1
 44
0.0
173
     0
291
     1
 45
0.0
1001
ACAD
1000
AcDbSavedByObjectVersion
1070
     0
  0
VISUALSTYLE
  5
4A38D
102
{ACAD_XDICTIONARY
360
87B0E
102
}
102
{ACAD_REACTORS
330
4A38C
102
}
330
4A38C
100
AcDbVisualStyle
  2

 70
     0
 71
     2
 72
     1
 73
     1
 90
        2
 40
-0.6
 41
30.0
 62
     5
 63
     7
 74
     0
 91
        0
 64
     7
 65
   257
 75
     1
175
     1
 42
1.0
 92
        8
 66
     7
 43
1.0
 76
     1
 77
     6
 78
     2
 67
     7
 79
     5
170
     0
171
     0
290
     0
174
     0
 93
       13
 44
0.0
173
     0
291
     1
 45
0.0
1001
ACAD
1000
AcDbSavedByObjectVersion
1070
     0
  0
VISUALSTYLE
  5
4A38E
102
{ACAD_XDICTIONARY
360
87B10
102
}
102
{ACAD_REACTORS
330
4A38C
102
}
330
4A38C
100
AcDbVisualStyle
  2

 70
     1
 71
     2
 72
     1
 73
     1
 90
        2
 40
-0.6
 41
30.0
 62
     5
 63
     7
 74
     1
 91
        0
 64
     7
 65
   257
 75
     1
175
     1
 42
1.0
 92
        0
 66
   257
 43
1.0
 76
     1
 77
     6
 78
     2
 67
     7
 79
     5
170
     0
171
     0
290
     0
174
     0
 93
       13
 44
0.0
173
     0
291
     1
 45
0.0
1001
ACAD
1000
AcDbSavedByObjectVersion
1070
     0
  0
VISUALSTYLE
  5
4A38F
102
{ACAD_XDICTIONARY
360
87B12
102
}
102
{ACAD_REACTORS
330
4A38C
102
}
330
4A38C
100
AcDbVisualStyle
  2

 70
     2
 71
     2
 72
     2
 73
     1
 90
        2
 40
-0.6
 41
30.0
 62
     5
 63
     7
 74
     0
 91
        0
 64
     7
 65
   257
 75
     1
175
     1
 42
1.0
 92
        0
 66
     7
 43
1.0
 76
     1
 77
     6
 78
     2
 67
     7
 79
     5
170
     0
171
     0
290
     0
174
     0
 93
       13
 44
0.0
173
     0
291
     1
 45
0.0
1001
ACAD
1000
AcDbSavedByObjectVersion
1070
     0
  0
VISUALSTYLE
  5
4A390
102
{ACAD_XDICTIONARY
360
87B14
102
}
102
{ACAD_REACTORS
330
4A38C
102
}
330
4A38C
100
AcDbVisualStyle
  2

 70
     3
 71
     2
 72
     2
 73
     1
 90
        2
 40
-0.6
 41
30.0
 62
     5
 63
     7
 74
     1
 91
        0
 64
     7
 65
   257
 75
     1
175
     1
 42
1.0
 92
        0
 66
   257
 43
1.0
 76
     1
 77
     6
 78
     2
 67
     7
 79
     5
170
     0
171
     0
290
     0
174
     0
 93
       13
 44
0.0
173
     0
291
     1
 45
0.0
1001
ACAD
1000
AcDbSavedByObjectVersion
1070
     0
  0
VISUALSTYLE
  5
4A394
102
{ACAD_XDICTIONARY
360
87B1C
102
}
102
{ACAD_REACTORS
330
4A38C
102
}
330
4A38C
100
AcDbVisualStyle
  2

 70
     6
 71
     1
 72
     2
 73
     2
 90
        0
 40
-0.6
 41
-30.0
 62
     5
 63
     7
 74
     2
 91
        2
 64
     7
 65
   257
 75
     2
175
     1
 42
40.0
 92
        0
 66
   257
 43
1.0
 76
     1
 77
     6
 78
     2
 67
     7
 79
     3
170
     0
171
     0
290
     0
174
     0
 93
        1
 44
0.0
173
     0
291
     0
 45
0.0
1001
ACAD
1000
AcDbSavedByObjectVersion
1070
     0
  0
VISUALSTYLE
  5
4A3A2
102
{ACAD_XDICTIONARY
360
87B38
102
}
102
{ACAD_REACTORS
330
4A38C
102
}
330
4A38C
100
AcDbVisualStyle
  2

 70
    20
 71
     2
 72
     2
 73
     0
 90
        0
 40
-0.6
 41
-30.0
 62
     5
 63
     7
 74
     1
 91
        4
 64
     7
 65
   257
 75
     1
175
     1
 42
1.0
 92
       10
 66
     7
 43
1.0
 76
     1
 77
     6
 78
     2
 67
     7
 79
     5
170
     0
171
     0
290
     0
174
     0
 93
        1
 44
0.0
173
     0
291
     1
 45
0.0
1001
ACAD
1000
AcDbSavedByObjectVersion
1070
     0
  0
VISUALSTYLE
  5
4A39A
102
{ACAD_XDICTIONARY
360
87B28
102
}
102
{ACAD_REACTORS
330
4A38C
102
}
330
4A38C
100
AcDbVisualStyle
  2

 70
    14
 71
     2
 72
     2
 73
     0
 90
        0
 40
-0.6
 41
-30.0
 62
     5
 63
     7
 74
     1
 91
        4
 64
     7
 65
   257
 75
     7
175
     7
 42
1.0
 92
        8
 66
     7
 43
1.0
 76
     1
 77
     6
 78
     2
 67
     7
 79
     5
170
     0
171
     0
290
     0
174
     0
 93
        1
 44
0.0
173
     0
291
     1
 45
0.0
1001
ACAD
1000
AcDbSavedByObjectVersion
1070
     0
  0
VISUALSTYLE
  5
4A3A3
102
{ACAD_XDICTIONARY
360
87B3A
102
}
102
{ACAD_REACTORS
330
4A38C
102
}
330
4A38C
100
AcDbVisualStyle
  2

 70
    21
 71
     2
 72
     2
 73
     0
 90
        0
 40
-0.6
 41
-30.0
 62
     5
 63
     7
 74
     1
 91
        4
 64
     7
 65
   257
 75
     1
175
     1
 42
1.0
 92
        9
 66
     7
 43
1.0
 76
     1
 77
     6
 78
     2
 67
     7
 79
     5
170
     0
171
     0
290
     0
174
     0
 93
        1
 44
0.0
173
     0
291
     1
 45
0.0
1001
ACAD
1000
AcDbSavedByObjectVersion
1070
     0
  0
VISUALSTYLE
  5
4A396
102
{ACAD_XDICTIONARY
360
87B20
102
}
102
{ACAD_REACTORS
330
4A38C
102
}
330
4A38C
100
AcDbVisualStyle
  2

 70
     8
 71
     2
 72
     3
 73
     0
 90
        2
 40
-0.6
 41
30.0
 62
     5
 63
     7
 74
     0
 91
        0
 64
     7
 65
   257
 75
     1
175
     1
 42
1.0
 92
        8
 66
   257
 43
1.0
 76
     1
 77
     6
 78
     2
 67
     7
 79
     3
170
     0
171
     0
290
     0
174
     0
 93
       13
 44
0.0
173
     0
291
     0
 45
0.0
1001
ACAD
1000
AcDbSavedByObjectVersion
1070
     0
  0
VISUALSTYLE
  5
4A3A1
102
{ACAD_XDICTIONARY
360
87B36
102
}
102
{ACAD_REACTORS
330
4A38C
102
}
330
4A38C
100
AcDbVisualStyle
  2

 70
    27
 71
     2
 72
     2
 73
     1
 90
        2
 40
-0.6
 41
30.0
 62
     5
 63
     7
 74
     0
 91
        4
 64
     7
 65
   257
 75
     1
175
     1
 42
1.0
 92
        8
 66
   257
 43
1.0
 76
     1
 77
     6
 78
     2
 67
     8
 79
     3
170
     0
171
     0
290
     0
174
     0
 93
        5
 44
0.0
173
     0
291
     0
 45
0.0
1001
ACAD
1000
AcDbSavedByObjectVersion
1070
     0
  0
VISUALSTYLE
  5
4A3A0
102
{ACAD_XDICTIONARY
360
87B34
102
}
102
{ACAD_REACTORS
330
4A38C
102
}
330
4A38C
100
AcDbVisualStyle
  2

 70
    26
 71
     2
 72
     2
 73
     1
 90
        2
 40
-0.6
 41
30.0
 62
     5
 63
     7
 74
     1
 91
        2
 64
     7
 65
   257
 75
     2
175
     1
 42
1.0
 92
        8
 66
   257
 43
1.0
 76
     1
 77
     6
 78
     2
 67
     7
 79
     3
170
     0
171
     0
290
     0
174
     0
 93
        5
 44
0.0
173
     0
291
     0
 45
0.0
1001
ACAD
1000
AcDbSavedByObjectVersion
1070
     0
  0
VISUALSTYLE
  5
4A39D
102
{ACAD_XDICTIONARY
360
87B2E
102
}
102
{ACAD_REACTORS
330
4A38C
102
}
330
4A38C
100
AcDbVisualStyle
  2

 70
    23
 71
     2
 72
     2
 73
     3
 90
        0
 40
-0.6
 41
-30.0
 62
     5
 63
     7
 74
     2
 91
        2
 64
     7
 65
     7
 75
     1
175
     1
 42
40.0
 92
        8
 66
     7
 43
1.0
 76
     1
 77
     6
 78
     2
 67
     7
 79
     3
170
     0
171
     0
290
     0
174
     0
 93
        1
 44
0.0
173
     0
291
     0
 45
0.0
1001
ACAD
1000
AcDbSavedByObjectVersion
1070
     0
  0
VISUALSTYLE
  5
4A39E
102
{ACAD_XDICTIONARY
360
87B30
102
}
102
{ACAD_REACTORS
330
4A38C
102
}
330
4A38C
100
AcDbVisualStyle
  2

 70
    24
 71
     1
 72
     2
 73
     2
 90
        0
 40
-0.6
 41
-30.0
 62
     5
 63
     7
 74
     2
 91
        2
 64
     7
 65
     7
 75
     1
175
     1
 42
40.0
 92
       11
 66
     7
 43
1.0
 76
     1
 77
     6
 78
     2
 67
     7
 79
     6
170
     0
171
     0
290
     0
174
     0
 93
        1
 44
0.0
173
     0
291
     0
 45
0.0
1001
ACAD
1000
AcDbSavedByObjectVersion
1070
     0
  0
VISUALSTYLE
  5
4A399
102
{ACAD_XDICTIONARY
360
87B26
102
}
102
{ACAD_REACTORS
330
4A38C
102
}
330
4A38C
100
AcDbVisualStyle
  2

 70
    13
 71
     2
 72
     2
 73
     0
 90
        0
 40
-0.6
 41
-30.0
 62
     5
 63
     7
 74
     1
 91
        4
 64
     7
 65
   257
 75
     1
175
     1
 42
1.0
 92
       12
 66
     7
 43
1.0
 76
     1
 77
     6
 78
     2
 67
     7
 79
     5
170
     0
171
     0
290
     0
174
     0
 93
        1
 44
0.0
173
     0
291
     1
 45
0.0
1001
ACAD
1000
AcDbSavedByObjectVersion
1070
     0
  0
VISUALSTYLE
  5
4A393
102
{ACAD_XDICTIONARY
360
87B1A
102
}
102
{ACAD_REACTORS
330
4A38C
102
}
330
4A38C
100
AcDbVisualStyle
  2

 70
     5
 71
     0
 72
     2
 73
     0
 90
        0
 40
-0.6
 41
-30.0
 62
     5
 63
     7
 74
     1
 91
        4
 64
     7
 65
   257
 75
     1
175
     1
 42
1.0
 92
        0
 66
   257
 43
1.0
 76
     1
 77
     6
 78
     2
 67
     7
 79
     3
170
     0
171
     0
290
     0
174
     0
 93
        1
 44
0.0
173
     0
291
     0
 45
0.0
1001
ACAD
1000
AcDbSavedByObjectVersion
1070
     0
  0
VISUALSTYLE
  5
4A39F
102
{ACAD_XDICTIONARY
360
87B32
102
}
102
{ACAD_REACTORS
330
4A38C
102
}
330
4A38C
100
AcDbVisualStyle
  2

 70
    25
 71
     2
 72
     2
 73
     1
 90
        1
 40
0.5
 41
-30.0
 62
     5
 63
     7
 74
     1
 91
        0
 64
     7
 65
   257
 75
     1
175
     1
 42
1.0
 92
        8
 66
     7
 43
1.0
 76
     1
 77
     6
 78
     2
 67
     7
 79
     3
170
     0
171
     0
290
     0
174
     0
 93
       13
 44
0.0
173
     0
291
     0
 45
0.0
1001
ACAD
1000
AcDbSavedByObjectVersion
1070
     0
  0
XRECORD
  5
93028
102
{ACAD_REACTORS
330
93027
102
}
330
93027
100
AcDbXrecord
280
     1
340
85
  0
XRECORD
  5
93029
102
{ACAD_REACTORS
330
93027
102
}
330
93027
100
AcDbXrecord
280
     1
340
84
  0
DICTIONARYVAR
  5
93026
102
{ACAD_REACTORS
330
5E
102
}
330
5E
100
DictionaryVariables
280
   100
  1
1:1
  0
DICTIONARYVAR
  5
4A6CE
102
{ACAD_REACTORS
330
5E
102
}
330
5E
100
DictionaryVariables
280
     0
  1
STANDARD
  0
DICTIONARYVAR
  5
B8
102
{ACAD_REACTORS
330
5E
102
}
330
5E
100
DictionaryVariables
280
     0
  1
STANDARD
  0
DICTIONARYVAR
  5
4A6CF
102
{ACAD_REACTORS
330
5E
102
}
330
5E
100
DictionaryVariables
280
     0
  1
Metric50
  0
DICTIONARYVAR
  5
4A6D0
102
{ACAD_REACTORS
330
5E
102
}
330
5E
100
DictionaryVariables
280
     0
  1
Metric50
  0
DICTIONARYVAR
  5
5F
102
{ACAD_REACTORS
330
5E
102
}
330
5E
100
DictionaryVariables
280
     0
  1
2
  0
DICTIONARYVAR
  5
63
102
{ACAD_REACTORS
330
5E
102
}
330
5E
100
DictionaryVariables
280
     0
  1
1
  0
DICTIONARYVAR
  5
4A879
102
{ACAD_REACTORS
330
5E
102
}
330
5E
100
DictionaryVariables
280
     0
  1
0
  0
DICTIONARYVAR
  5
4A6D4
102
{ACAD_REACTORS
330
5E
102
}
330
5E
100
DictionaryVariables
280
     0
  1
1
  0
DICTIONARYVAR
  5
4A6D5
102
{ACAD_REACTORS
330
5E
102
}
330
5E
100
DictionaryVariables
280
     0
  1
15
  0
DICTIONARYVAR
  5
4A6D3
102
{ACAD_REACTORS
330
5E
102
}
330
5E
100
DictionaryVariables
280
     0
  1
0
  0
DICTIONARYVAR
  5
4A6D1
102
{ACAD_REACTORS
330
5E
102
}
330
5E
100
DictionaryVariables
280
     0
  1
0
  0
DICTIONARYVAR
  5
31CE
102
{ACAD_REACTORS
330
5E
102
}
330
5E
100
DictionaryVariables
280
     0
  1

  0
DICTIONARYVAR
  5
4A878
102
{ACAD_REACTORS
330
5E
102
}
330
5E
100
DictionaryVariables
280
     0
  1
127
  0
DICTIONARYVAR
  5
87AF9
102
{ACAD_REACTORS
330
5E
102
}
330
5E
100
DictionaryVariables
280
     0
  1
2
  0
XRECORD
  5
349EA
102
{ACAD_REACTORS
330
349E9
102
}
330
349E9
100
AcDbXrecord
280
     1
330
0
330
0
330
0
330
0
330
0
330
0
330
0
330
0
330
0
330
0
330
0
330
0
330
0
330
0
330
0
330
0
330
0
330
0
330
0
330
0
330
0
330
0
330
0
330
0
330
0
330
0
330
0
330
0
330
0
330
0
330
0
330
0
330
0
330
0
330
0
330
0
330
0
330
0
330
0
330
0
330
0
330
0
330
0
330
0
330
0
330
0
330
0
330
0
330
0
330
0
330
0
330
0
330
0
330
0
330
0
330
0
330
0
330
0
330
0
330
0
330
0
330
0
330
0
330
0
330
0
330
0
330
0
330
0
330
0
330
0
330
0
330
0
330
0
330
0
330
0
330
0
330
0
330
0
330
0
330
0
330
0
330
0
330
0
330
0
330
0
330
0
330
0
330
0
330
0
330
0
330
0
330
0
330
0
330
0
330
0
330
0
330
0
330
0
330
0
330
0
330
0
330
0
330
0
330
0
330
0
330
0
330
0
330
0
330
0
330
0
  0
DICTIONARY
  5
87B40
330
4A3BC
100
AcDbDictionary
280
     1
281
     1
  3
ACAD_XREC_ROUNDTRIP
360
87B41
  0
DICTIONARY
  5
4A37D
330
4A37C
100
AcDbDictionary
280
     1
281
     1
  3
ACAD_XREC_ROUNDTRIP
360
93034
  0
DICTIONARY
  5
4A375
330
4A374
100
AcDbDictionary
280
     1
281
     1
  3
ACAD_XREC_ROUNDTRIP
360
93035
  0
DICTIONARY
  5
4A385
330
4A384
100
AcDbDictionary
280
     1
281
     1
  3
ACAD_XREC_ROUNDTRIP
360
93036
  0
DICTIONARY
  5
8C353
330
4A3B8
100
AcDbDictionary
280
     1
281
     1
  3
ACAD_XREC_ROUNDTRIP
360
93037
  0
DICTIONARY
  5
87B3E
330
4A3BA
100
AcDbDictionary
280
     1
281
     1
  3
ACAD_XREC_ROUNDTRIP
360
87B3F
  0
DICTIONARY
  5
4CD9A
330
A2
100
AcDbDictionary
280
     1
281
     1
  3
ACAD_ROUNDTRIP_2008_TABLESTYLE_CELLSTYLEMAP
360
93039
  3
ACAD_XREC_ROUNDTRIP
360
93038
  0
DICTIONARY
  5
87B18
330
4A392
100
AcDbDictionary
280
     1
281
     1
  3
ACAD_XREC_ROUNDTRIP
360
9303A
  0
DICTIONARY
  5
87B16
330
4A391
100
AcDbDictionary
280
     1
281
     1
  3
ACAD_XREC_ROUNDTRIP
360
9303B
  0
DICTIONARY
  5
87B24
330
4A398
100
AcDbDictionary
280
     1
281
     1
  3
ACAD_XREC_ROUNDTRIP
360
9303C
  0
DICTIONARY
  5
87B2C
330
4A39C
100
AcDbDictionary
280
     1
281
     1
  3
ACAD_XREC_ROUNDTRIP
360
9303D
  0
DICTIONARY
  5
87B1E
330
4A395
100
AcDbDictionary
280
     1
281
     1
  3
ACAD_XREC_ROUNDTRIP
360
9303E
  0
DICTIONARY
  5
87B22
330
4A397
100
AcDbDictionary
280
     1
281
     1
  3
ACAD_XREC_ROUNDTRIP
360
9303F
  0
DICTIONARY
  5
87B3C
330
4A3A4
100
AcDbDictionary
280
     1
281
     1
  3
ACAD_XREC_ROUNDTRIP
360
93040
  0
DICTIONARY
  5
87B2A
330
4A39B
100
AcDbDictionary
280
     1
281
     1
  3
ACAD_XREC_ROUNDTRIP
360
93041
  0
DICTIONARY
  5
87B0E
330
4A38D
100
AcDbDictionary
280
     1
281
     1
  3
ACAD_XREC_ROUNDTRIP
360
93042
  0
DICTIONARY
  5
87B10
330
4A38E
100
AcDbDictionary
280
     1
281
     1
  3
ACAD_XREC_ROUNDTRIP
360
93043
  0
DICTIONARY
  5
87B12
330
4A38F
100
AcDbDictionary
280
     1
281
     1
  3
ACAD_XREC_ROUNDTRIP
360
93044
  0
DICTIONARY
  5
87B14
330
4A390
100
AcDbDictionary
280
     1
281
     1
  3
ACAD_XREC_ROUNDTRIP
360
93045
  0
DICTIONARY
  5
87B1C
330
4A394
100
AcDbDictionary
280
     1
281
     1
  3
ACAD_XREC_ROUNDTRIP
360
93046
  0
DICTIONARY
  5
87B38
330
4A3A2
100
AcDbDictionary
280
     1
281
     1
  3
ACAD_XREC_ROUNDTRIP
360
93047
  0
DICTIONARY
  5
87B28
330
4A39A
100
AcDbDictionary
280
     1
281
     1
  3
ACAD_XREC_ROUNDTRIP
360
93048
  0
DICTIONARY
  5
87B3A
330
4A3A3
100
AcDbDictionary
280
     1
281
     1
  3
ACAD_XREC_ROUNDTRIP
360
93049
  0
DICTIONARY
  5
87B20
330
4A396
100
AcDbDictionary
280
     1
281
     1
  3
ACAD_XREC_ROUNDTRIP
360
9304A
  0
DICTIONARY
  5
87B36
330
4A3A1
100
AcDbDictionary
280
     1
281
     1
  3
ACAD_XREC_ROUNDTRIP
360
9304B
  0
DICTIONARY
  5
87B34
330
4A3A0
100
AcDbDictionary
280
     1
281
     1
  3
ACAD_XREC_ROUNDTRIP
360
9304C
  0
DICTIONARY
  5
87B2E
330
4A39D
100
AcDbDictionary
280
     1
281
     1
  3
ACAD_XREC_ROUNDTRIP
360
9304D
  0
DICTIONARY
  5
87B30
330
4A39E
100
AcDbDictionary
280
     1
281
     1
  3
ACAD_XREC_ROUNDTRIP
360
9304E
  0
DICTIONARY
  5
87B26
330
4A399
100
AcDbDictionary
280
     1
281
     1
  3
ACAD_XREC_ROUNDTRIP
360
9304F
  0
DICTIONARY
  5
87B1A
330
4A393
100
AcDbDictionary
280
     1
281
     1
  3
ACAD_XREC_ROUNDTRIP
360
93050
  0
DICTIONARY
  5
87B32
330
4A39F
100
AcDbDictionary
280
     1
281
     1
  3
ACAD_XREC_ROUNDTRIP
360
93051
  0
XRECORD
  5
87B41
102
{ACAD_REACTORS
330
87B40
102
}
330
87B40
100
AcDbXrecord
280
     1
102
DISPLAYNAME
  1
Metric50
102
FLAGS
 90
        0
  0
XRECORD
  5
93034
102
{ACAD_REACTORS
330
4A37D
102
}
330
4A37D
100
AcDbXrecord
280
     1
102
MATERIAL
148
0.0
149
0.0
149
0.0
 93
        0
 94
      127
282
     0
 72
     0
 77
     0
171
     0
175
     0
179
     0
273
     0
  0
XRECORD
  5
93035
102
{ACAD_REACTORS
330
4A375
102
}
330
4A375
100
AcDbXrecord
280
     1
102
MATERIAL
148
0.0
149
0.0
149
0.0
 93
        0
 94
      127
282
     0
 72
     0
 77
     0
171
     0
175
     0
179
     0
273
     0
  0
XRECORD
  5
93036
102
{ACAD_REACTORS
330
4A385
102
}
330
4A385
100
AcDbXrecord
280
     1
102
MATERIAL
148
0.0
149
0.0
149
0.0
 93
        0
 94
      127
282
     0
 72
     0
 77
     0
171
     0
175
     0
179
     0
273
     0
  0
XRECORD
  5
93037
102
{ACAD_REACTORS
330
8C353
102
}
330
8C353
100
AcDbXrecord
280
     1
102
ACAD_ROUNDTRIP_2010_MLEADER_STYLE
  0
XRECORD
  5
87B3F
102
{ACAD_REACTORS
330
87B3E
102
}
330
87B3E
100
AcDbXrecord
280
     1
102
DISPLAYNAME
  1
Metric50
102
FLAGS
 90
        0
  0
CELLSTYLEMAP
  5
93039
102
{ACAD_REACTORS
330
4CD9A
102
}
330
4CD9A
100
AcDbCellStyleMap
 90
        3
300
CELLSTYLE
  1
TABLEFORMAT_BEGIN
 90
        5
170
     1
 91
        0
 92
    32768
 62
   257
 93
        1
300
CONTENTFORMAT
  1
CONTENTFORMAT_BEGIN
 90
        0
 91
        0
 92
        4
 93
        0
300

 40
0.0
140
1.0
 94
        5
 62
     0
340
11
144
6.0
309
CONTENTFORMAT_END
171
     1
301
MARGIN
  1
CELLMARGIN_BEGIN
 40
1.5
 40
1.5
 40
1.5
 40
1.5
 40
0.18
 40
0.18
309
CELLMARGIN_END
 94
        6
 95
        1
302
GRIDFORMAT
  1
GRIDFORMAT_BEGIN
 90
        0
 91
        1
 62
     0
 92
       -2
340
0
 93
        0
 40
0.045
309
GRIDFORMAT_END
 95
        2
302
GRIDFORMAT
  1
GRIDFORMAT_BEGIN
 90
        0
 91
        1
 62
     0
 92
       -2
340
0
 93
        0
 40
0.045
309
GRIDFORMAT_END
 95
        4
302
GRIDFORMAT
  1
GRIDFORMAT_BEGIN
 90
        0
 91
        1
 62
     0
 92
       -2
340
0
 93
        0
 40
0.045
309
GRIDFORMAT_END
 95
        8
302
GRIDFORMAT
  1
GRIDFORMAT_BEGIN
 90
        0
 91
        1
 62
     0
 92
       -2
340
0
 93
        0
 40
0.045
309
GRIDFORMAT_END
 95
       16
302
GRIDFORMAT
  1
GRIDFORMAT_BEGIN
 90
        0
 91
        1
 62
     0
 92
       -2
340
0
 93
        0
 40
0.045
309
GRIDFORMAT_END
 95
       32
302
GRIDFORMAT
  1
GRIDFORMAT_BEGIN
 90
        0
 91
        1
 62
     0
 92
       -2
340
0
 93
        0
 40
0.045
309
GRIDFORMAT_END
309
TABLEFORMAT_END
  1
CELLSTYLE_BEGIN
 90
        1
 91
        1
300
_TITLE
309
CELLSTYLE_END
300
CELLSTYLE
  1
TABLEFORMAT_BEGIN
 90
        5
170
     1
 91
        0
 92
        0
 62
   257
 93
        1
300
CONTENTFORMAT
  1
CONTENTFORMAT_BEGIN
 90
        0
 91
        0
 92
        4
 93
        0
300

 40
0.0
140
1.0
 94
        5
 62
     0
340
11
144
4.5
309
CONTENTFORMAT_END
171
     1
301
MARGIN
  1
CELLMARGIN_BEGIN
 40
1.5
 40
1.5
 40
1.5
 40
1.5
 40
0.18
 40
0.18
309
CELLMARGIN_END
 94
        6
 95
        1
302
GRIDFORMAT
  1
GRIDFORMAT_BEGIN
 90
        0
 91
        1
 62
     0
 92
       -2
340
0
 93
        0
 40
0.045
309
GRIDFORMAT_END
 95
        2
302
GRIDFORMAT
  1
GRIDFORMAT_BEGIN
 90
        0
 91
        1
 62
     0
 92
       -2
340
0
 93
        0
 40
0.045
309
GRIDFORMAT_END
 95
        4
302
GRIDFORMAT
  1
GRIDFORMAT_BEGIN
 90
        0
 91
        1
 62
     0
 92
       -2
340
0
 93
        0
 40
0.045
309
GRIDFORMAT_END
 95
        8
302
GRIDFORMAT
  1
GRIDFORMAT_BEGIN
 90
        0
 91
        1
 62
     0
 92
       -2
340
0
 93
        0
 40
0.045
309
GRIDFORMAT_END
 95
       16
302
GRIDFORMAT
  1
GRIDFORMAT_BEGIN
 90
        0
 91
        1
 62
     0
 92
       -2
340
0
 93
        0
 40
0.045
309
GRIDFORMAT_END
 95
       32
302
GRIDFORMAT
  1
GRIDFORMAT_BEGIN
 90
        0
 91
        1
 62
     0
 92
       -2
340
0
 93
        0
 40
0.045
309
GRIDFORMAT_END
309
TABLEFORMAT_END
  1
CELLSTYLE_BEGIN
 90
        2
 91
        1
300
_HEADER
309
CELLSTYLE_END
300
CELLSTYLE
  1
TABLEFORMAT_BEGIN
 90
        5
170
     1
 91
        0
 92
        0
 62
   257
 93
        1
300
CONTENTFORMAT
  1
CONTENTFORMAT_BEGIN
 90
        0
 91
        0
 92
        4
 93
        0
300

 40
0.0
140
1.0
 94
        2
 62
     0
340
11
144
4.5
309
CONTENTFORMAT_END
171
     1
301
MARGIN
  1
CELLMARGIN_BEGIN
 40
1.5
 40
1.5
 40
1.5
 40
1.5
 40
0.18
 40
0.18
309
CELLMARGIN_END
 94
        6
 95
        1
302
GRIDFORMAT
  1
GRIDFORMAT_BEGIN
 90
        0
 91
        1
 62
     0
 92
       -2
340
0
 93
        0
 40
0.045
309
GRIDFORMAT_END
 95
        2
302
GRIDFORMAT
  1
GRIDFORMAT_BEGIN
 90
        0
 91
        1
 62
     0
 92
       -2
340
0
 93
        0
 40
0.045
309
GRIDFORMAT_END
 95
        4
302
GRIDFORMAT
  1
GRIDFORMAT_BEGIN
 90
        0
 91
        1
 62
     0
 92
       -2
340
0
 93
        0
 40
0.045
309
GRIDFORMAT_END
 95
        8
302
GRIDFORMAT
  1
GRIDFORMAT_BEGIN
 90
        0
 91
        1
 62
     0
 92
       -2
340
0
 93
        0
 40
0.045
309
GRIDFORMAT_END
 95
       16
302
GRIDFORMAT
  1
GRIDFORMAT_BEGIN
 90
        0
 91
        1
 62
     0
 92
       -2
340
0
 93
        0
 40
0.045
309
GRIDFORMAT_END
 95
       32
302
GRIDFORMAT
  1
GRIDFORMAT_BEGIN
 90
        0
 91
        1
 62
     0
 92
       -2
340
0
 93
        0
 40
0.045
309
GRIDFORMAT_END
309
TABLEFORMAT_END
  1
CELLSTYLE_BEGIN
 90
        3
 91
        2
300
_DATA
309
CELLSTYLE_END
  0
XRECORD
  5
93038
102
{ACAD_REACTORS
330
4CD9A
102
}
330
4CD9A
100
AcDbXrecord
280
     1
102
ACAD_ROUNDTRIP_PRE2007_TABLESTYLE
 90
        4
 91
        0
  1

 92
        4
 93
        0
  2

 94
        4
 95
        0
  3

  0
XRECORD
  5
9303A
102
{ACAD_REACTORS
330
87B18
102
}
330
87B18
100
AcDbXrecord
280
     1
102
RTVSPropertyOp0
 70
     1
102
RTVSPropertyOp1
 70
     1
102
RTVSPropertyOp2
 70
     1
102
RTVSPropertyOp3
 70
     1
102
RTVSPropertyOp4
 70
     1
102
RTVSPropertyOp5
 70
     1
102
RTVSPropertyOp6
 70
     1
102
RTVSPropertyOp7
 70
     1
102
RTVSPropertyOp8
 70
     1
102
RTVSPropertyOp9
 70
     1
102
RTVSPropertyOp10
 70
     1
102
RTVSPropertyOp11
 70
     1
102
RTVSPropertyOp12
 70
     1
102
RTVSPropertyOp13
 70
     1
102
RTVSPropertyOp14
 70
     1
102
RTVSPropertyOp15
 70
     1
102
RTVSPropertyOp16
 70
     1
102
RTVSPropertyOp17
 70
     1
102
RTVSPropertyOp18
 70
     1
102
RTVSPropertyOp19
 70
     1
102
RTVSPropertyOp20
 70
     1
102
RTVSPropertyOp21
 70
     1
102
RTVSPropertyOp22
 70
     1
102
RTVSPropertyOp23
 70
     1
102
RTVSPropertyOp24
 70
     1
102
RTVSPropertyOp25
 70
     1
102
RTVSPropertyOp26
 70
     1
102
RTVSPropertyOp27
 70
     1
102
RTVSPropertyOp28
 70
     1
102
RTVSPropertyOp29
 70
     1
102
RTVSPropertyOp30
 70
     1
102
RTVSPropertyOp31
 70
     1
102
RTVSPropertyOp32
 70
     1
102
RTVSPropertyOp33
 70
     1
102
RTVSPropertyOp34
 70
     1
102
RTVSPropertyOp35
 70
     1
102
RTVSPropertyOp36
 70
     1
102
RTVSPropertyOp37
 70
     1
102
RTVSPropertyOp38
 70
     1
102
RTVSPropertyOp39
 70
     1
102
RTVSPropertyOp40
 70
     1
102
RTVSPropertyOp41
 70
     1
102
RTVSPropertyOp42
 70
     1
102
RTVSPropertyOp43
 70
     1
102
RTVSPropertyOp44
 70
     1
102
RTVSPropertyOp45
 70
     1
102
RTVSPropertyOp46
 70
     1
102
RTVSPropertyOp47
 70
     1
102
RTVSPropertyOp48
 70
     1
102
RTVSPropertyOp49
 70
     1
102
RTVSPropertyOp50
 70
     1
102
RTVSPropertyOp51
 70
     0
102
RTVSPropertyOp52
 70
     0
102
RTVSPropertyOp53
 70
     1
102
RTVSPropertyOp54
 70
     1
102
RTVSPropertyOp55
 70
     1
102
RTVSPropertyOp56
 70
     1
102
RTVSPropertyOp57
 70
     1
102
RTVSPost2010Prop28
280
     1
102
RTVSPost2010PropOp28
 70
     1
102
RTVSPost2010Prop29
280
     1
102
RTVSPost2010PropOp29
 70
     1
102
RTVSPost2010Prop30
280
     0
102
RTVSPost2010PropOp30
 70
     1
102
RTVSPost2010Prop31
280
     0
102
RTVSPost2010PropOp31
 70
     1
102
RTVSPost2010Prop32
280
     0
102
RTVSPost2010PropOp32
 70
     1
102
RTVSPost2010Prop33
280
     0
102
RTVSPost2010PropOp33
 70
     1
102
RTVSPost2010Prop34
280
     0
102
RTVSPost2010PropOp34
 70
     1
102
RTVSPost2010Prop35
280
     0
102
RTVSPost2010PropOp35
 70
     1
102
RTVSPost2010Prop36
280
     0
102
RTVSPost2010PropOp36
 70
     1
102
RTVSPost2010Prop37
 90
       50
102
RTVSPost2010PropOp37
 70
     1
102
RTVSPost2010Prop38
140
0.0
102
RTVSPost2010PropOp38
 70
     1
102
RTVSPost2010Prop39
140
1.0
102
RTVSPost2010PropOp39
 70
     1
102
RTVSPost2010Prop40
 90
        0
102
RTVSPost2010PropOp40
 70
     1
102
RTVSPost2010Prop41ColorIndex
 90
       18
102
RTVSPost2010Prop41ColorRGB
 90
        0
102
RTVSPost2010PropOp41
 70
     1
102
RTVSPost2010Prop42
 90
       50
102
RTVSPost2010PropOp42
 70
     1
102
RTVSPost2010Prop43
 90
        3
102
RTVSPost2010PropOp43
 70
     1
102
RTVSPost2010Prop44ColorIndex
 90
        5
102
RTVSPost2010Prop44ColorRGB
 90
      255
102
RTVSPost2010PropOp44
 70
     1
102
RTVSPost2010Prop45
280
     0
102
RTVSPost2010PropOp45
 70
     1
102
RTVSPost2010Prop46
 90
       50
102
RTVSPost2010PropOp46
 70
     1
102
RTVSPost2010Prop47
 90
       50
102
RTVSPost2010PropOp47
 70
     1
102
RTVSPost2010Prop48
 90
       50
102
RTVSPost2010PropOp48
 70
     1
102
RTVSPost2010Prop49
280
     0
102
RTVSPost2010PropOp49
 70
     1
102
RTVSPost2010Prop50
 90
       50
102
RTVSPost2010PropOp50
 70
     1
102
RTVSPost2010Prop51ColorIndex
 90
      256
102
RTVSPost2010Prop51ColorRGB
 90
-16777216
102
RTVSPost2010PropOp51
 70
     0
102
RTVSPost2010Prop52
140
1.0
102
RTVSPost2010PropOp52
 70
     0
102
RTVSPost2010Prop53
 90
        2
102
RTVSPost2010PropOp53
 70
     1
102
RTVSPost2010Prop54
  1
strokes_ogs.tif
102
RTVSPost2010PropOp54
 70
     1
102
RTVSPost2010Prop55
280
     0
102
RTVSPost2010PropOp55
 70
     1
102
RTVSPost2010Prop56
140
1.0
102
RTVSPost2010PropOp56
 70
     1
102
RTVSPost2010Prop57
140
1.0
102
RTVSPost2010PropOp57
 70
     1
  0
XRECORD
  5
9303B
102
{ACAD_REACTORS
330
87B16
102
}
330
87B16
100
AcDbXrecord
280
     1
102
RTVSPropertyOp0
 70
     1
102
RTVSPropertyOp1
 70
     1
102
RTVSPropertyOp2
 70
     1
102
RTVSPropertyOp3
 70
     1
102
RTVSPropertyOp4
 70
     1
102
RTVSPropertyOp5
 70
     1
102
RTVSPropertyOp6
 70
     1
102
RTVSPropertyOp7
 70
     1
102
RTVSPropertyOp8
 70
     1
102
RTVSPropertyOp9
 70
     1
102
RTVSPropertyOp10
 70
     1
102
RTVSPropertyOp11
 70
     1
102
RTVSPropertyOp12
 70
     1
102
RTVSPropertyOp13
 70
     1
102
RTVSPropertyOp14
 70
     1
102
RTVSPropertyOp15
 70
     1
102
RTVSPropertyOp16
 70
     1
102
RTVSPropertyOp17
 70
     1
102
RTVSPropertyOp18
 70
     1
102
RTVSPropertyOp19
 70
     1
102
RTVSPropertyOp20
 70
     1
102
RTVSPropertyOp21
 70
     1
102
RTVSPropertyOp22
 70
     1
102
RTVSPropertyOp23
 70
     1
102
RTVSPropertyOp24
 70
     1
102
RTVSPropertyOp25
 70
     1
102
RTVSPropertyOp26
 70
     1
102
RTVSPropertyOp27
 70
     1
102
RTVSPropertyOp28
 70
     1
102
RTVSPropertyOp29
 70
     1
102
RTVSPropertyOp30
 70
     1
102
RTVSPropertyOp31
 70
     1
102
RTVSPropertyOp32
 70
     1
102
RTVSPropertyOp33
 70
     1
102
RTVSPropertyOp34
 70
     1
102
RTVSPropertyOp35
 70
     1
102
RTVSPropertyOp36
 70
     1
102
RTVSPropertyOp37
 70
     1
102
RTVSPropertyOp38
 70
     1
102
RTVSPropertyOp39
 70
     1
102
RTVSPropertyOp40
 70
     1
102
RTVSPropertyOp41
 70
     1
102
RTVSPropertyOp42
 70
     1
102
RTVSPropertyOp43
 70
     1
102
RTVSPropertyOp44
 70
     1
102
RTVSPropertyOp45
 70
     1
102
RTVSPropertyOp46
 70
     1
102
RTVSPropertyOp47
 70
     1
102
RTVSPropertyOp48
 70
     1
102
RTVSPropertyOp49
 70
     1
102
RTVSPropertyOp50
 70
     1
102
RTVSPropertyOp51
 70
     0
102
RTVSPropertyOp52
 70
     0
102
RTVSPropertyOp53
 70
     1
102
RTVSPropertyOp54
 70
     1
102
RTVSPropertyOp55
 70
     1
102
RTVSPropertyOp56
 70
     1
102
RTVSPropertyOp57
 70
     1
102
RTVSPost2010Prop28
280
     0
102
RTVSPost2010PropOp28
 70
     1
102
RTVSPost2010Prop29
280
     1
102
RTVSPost2010PropOp29
 70
     1
102
RTVSPost2010Prop30
280
     1
102
RTVSPost2010PropOp30
 70
     1
102
RTVSPost2010Prop31
280
     0
102
RTVSPost2010PropOp31
 70
     1
102
RTVSPost2010Prop32
280
     0
102
RTVSPost2010PropOp32
 70
     1
102
RTVSPost2010Prop33
280
     0
102
RTVSPost2010PropOp33
 70
     1
102
RTVSPost2010Prop34
280
     0
102
RTVSPost2010PropOp34
 70
     1
102
RTVSPost2010Prop35
280
     0
102
RTVSPost2010PropOp35
 70
     1
102
RTVSPost2010Prop36
280
     0
102
RTVSPost2010PropOp36
 70
     1
102
RTVSPost2010Prop37
 90
       50
102
RTVSPost2010PropOp37
 70
     1
102
RTVSPost2010Prop38
140
0.0
102
RTVSPost2010PropOp38
 70
     1
102
RTVSPost2010Prop39
140
1.0
102
RTVSPost2010PropOp39
 70
     1
102
RTVSPost2010Prop40
 90
        0
102
RTVSPost2010PropOp40
 70
     1
102
RTVSPost2010Prop41ColorIndex
 90
       18
102
RTVSPost2010Prop41ColorRGB
 90
        0
102
RTVSPost2010PropOp41
 70
     1
102
RTVSPost2010Prop42
 90
       50
102
RTVSPost2010PropOp42
 70
     1
102
RTVSPost2010Prop43
 90
        3
102
RTVSPost2010PropOp43
 70
     1
102
RTVSPost2010Prop44ColorIndex
 90
        5
102
RTVSPost2010Prop44ColorRGB
 90
      255
102
RTVSPost2010PropOp44
 70
     1
102
RTVSPost2010Prop45
280
     0
102
RTVSPost2010PropOp45
 70
     1
102
RTVSPost2010Prop46
 90
       50
102
RTVSPost2010PropOp46
 70
     1
102
RTVSPost2010Prop47
 90
       50
102
RTVSPost2010PropOp47
 70
     1
102
RTVSPost2010Prop48
 90
       50
102
RTVSPost2010PropOp48
 70
     1
102
RTVSPost2010Prop49
280
     0
102
RTVSPost2010PropOp49
 70
     1
102
RTVSPost2010Prop50
 90
       50
102
RTVSPost2010PropOp50
 70
     1
102
RTVSPost2010Prop51ColorIndex
 90
      256
102
RTVSPost2010Prop51ColorRGB
 90
-16777216
102
RTVSPost2010PropOp51
 70
     0
102
RTVSPost2010Prop52
140
1.0
102
RTVSPost2010PropOp52
 70
     0
102
RTVSPost2010Prop53
 90
        2
102
RTVSPost2010PropOp53
 70
     1
102
RTVSPost2010Prop54
  1
strokes_ogs.tif
102
RTVSPost2010PropOp54
 70
     1
102
RTVSPost2010Prop55
280
     0
102
RTVSPost2010PropOp55
 70
     1
102
RTVSPost2010Prop56
140
1.0
102
RTVSPost2010PropOp56
 70
     1
102
RTVSPost2010Prop57
140
1.0
102
RTVSPost2010PropOp57
 70
     1
  0
XRECORD
  5
9303C
102
{ACAD_REACTORS
330
87B24
102
}
330
87B24
100
AcDbXrecord
280
     1
102
RTVSPropertyOp0
 70
     1
102
RTVSPropertyOp1
 70
     1
102
RTVSPropertyOp2
 70
     1
102
RTVSPropertyOp3
 70
     1
102
RTVSPropertyOp4
 70
     1
102
RTVSPropertyOp5
 70
     1
102
RTVSPropertyOp6
 70
     1
102
RTVSPropertyOp7
 70
     1
102
RTVSPropertyOp8
 70
     1
102
RTVSPropertyOp9
 70
     1
102
RTVSPropertyOp10
 70
     1
102
RTVSPropertyOp11
 70
     1
102
RTVSPropertyOp12
 70
     1
102
RTVSPropertyOp13
 70
     1
102
RTVSPropertyOp14
 70
     1
102
RTVSPropertyOp15
 70
     1
102
RTVSPropertyOp16
 70
     1
102
RTVSPropertyOp17
 70
     1
102
RTVSPropertyOp18
 70
     1
102
RTVSPropertyOp19
 70
     1
102
RTVSPropertyOp20
 70
     1
102
RTVSPropertyOp21
 70
     1
102
RTVSPropertyOp22
 70
     1
102
RTVSPropertyOp23
 70
     1
102
RTVSPropertyOp24
 70
     1
102
RTVSPropertyOp25
 70
     1
102
RTVSPropertyOp26
 70
     1
102
RTVSPropertyOp27
 70
     1
102
RTVSPropertyOp28
 70
     1
102
RTVSPropertyOp29
 70
     1
102
RTVSPropertyOp30
 70
     1
102
RTVSPropertyOp31
 70
     1
102
RTVSPropertyOp32
 70
     1
102
RTVSPropertyOp33
 70
     1
102
RTVSPropertyOp34
 70
     1
102
RTVSPropertyOp35
 70
     1
102
RTVSPropertyOp36
 70
     1
102
RTVSPropertyOp37
 70
     1
102
RTVSPropertyOp38
 70
     1
102
RTVSPropertyOp39
 70
     1
102
RTVSPropertyOp40
 70
     1
102
RTVSPropertyOp41
 70
     1
102
RTVSPropertyOp42
 70
     1
102
RTVSPropertyOp43
 70
     1
102
RTVSPropertyOp44
 70
     1
102
RTVSPropertyOp45
 70
     1
102
RTVSPropertyOp46
 70
     1
102
RTVSPropertyOp47
 70
     1
102
RTVSPropertyOp48
 70
     1
102
RTVSPropertyOp49
 70
     1
102
RTVSPropertyOp50
 70
     1
102
RTVSPropertyOp51
 70
     0
102
RTVSPropertyOp52
 70
     0
102
RTVSPropertyOp53
 70
     1
102
RTVSPropertyOp54
 70
     1
102
RTVSPropertyOp55
 70
     1
102
RTVSPropertyOp56
 70
     1
102
RTVSPropertyOp57
 70
     1
102
RTVSPost2010Prop28
280
     0
102
RTVSPost2010PropOp28
 70
     1
102
RTVSPost2010Prop29
280
     1
102
RTVSPost2010PropOp29
 70
     1
102
RTVSPost2010Prop30
280
     1
102
RTVSPost2010PropOp30
 70
     1
102
RTVSPost2010Prop31
280
     0
102
RTVSPost2010PropOp31
 70
     1
102
RTVSPost2010Prop32
280
     0
102
RTVSPost2010PropOp32
 70
     1
102
RTVSPost2010Prop33
280
     0
102
RTVSPost2010PropOp33
 70
     1
102
RTVSPost2010Prop34
280
     0
102
RTVSPost2010PropOp34
 70
     1
102
RTVSPost2010Prop35
280
     0
102
RTVSPost2010PropOp35
 70
     1
102
RTVSPost2010Prop36
280
     0
102
RTVSPost2010PropOp36
 70
     1
102
RTVSPost2010Prop37
 90
       50
102
RTVSPost2010PropOp37
 70
     1
102
RTVSPost2010Prop38
140
0.0
102
RTVSPost2010PropOp38
 70
     1
102
RTVSPost2010Prop39
140
1.0
102
RTVSPost2010PropOp39
 70
     1
102
RTVSPost2010Prop40
 90
        0
102
RTVSPost2010PropOp40
 70
     1
102
RTVSPost2010Prop41ColorIndex
 90
       18
102
RTVSPost2010Prop41ColorRGB
 90
        0
102
RTVSPost2010PropOp41
 70
     1
102
RTVSPost2010Prop42
 90
       50
102
RTVSPost2010PropOp42
 70
     1
102
RTVSPost2010Prop43
 90
        3
102
RTVSPost2010PropOp43
 70
     1
102
RTVSPost2010Prop44ColorIndex
 90
        5
102
RTVSPost2010Prop44ColorRGB
 90
      255
102
RTVSPost2010PropOp44
 70
     1
102
RTVSPost2010Prop45
280
     0
102
RTVSPost2010PropOp45
 70
     1
102
RTVSPost2010Prop46
 90
       50
102
RTVSPost2010PropOp46
 70
     1
102
RTVSPost2010Prop47
 90
       50
102
RTVSPost2010PropOp47
 70
     1
102
RTVSPost2010Prop48
 90
       50
102
RTVSPost2010PropOp48
 70
     1
102
RTVSPost2010Prop49
280
     0
102
RTVSPost2010PropOp49
 70
     1
102
RTVSPost2010Prop50
 90
       50
102
RTVSPost2010PropOp50
 70
     1
102
RTVSPost2010Prop51ColorIndex
 90
      256
102
RTVSPost2010Prop51ColorRGB
 90
-16777216
102
RTVSPost2010PropOp51
 70
     0
102
RTVSPost2010Prop52
140
1.0
102
RTVSPost2010PropOp52
 70
     0
102
RTVSPost2010Prop53
 90
        2
102
RTVSPost2010PropOp53
 70
     1
102
RTVSPost2010Prop54
  1
strokes_ogs.tif
102
RTVSPost2010PropOp54
 70
     1
102
RTVSPost2010Prop55
280
     0
102
RTVSPost2010PropOp55
 70
     1
102
RTVSPost2010Prop56
140
1.0
102
RTVSPost2010PropOp56
 70
     1
102
RTVSPost2010Prop57
140
1.0
102
RTVSPost2010PropOp57
 70
     1
  0
XRECORD
  5
9303D
102
{ACAD_REACTORS
330
87B2C
102
}
330
87B2C
100
AcDbXrecord
280
     1
102
RTVSPropertyOp0
 70
     1
102
RTVSPropertyOp1
 70
     1
102
RTVSPropertyOp2
 70
     1
102
RTVSPropertyOp3
 70
     1
102
RTVSPropertyOp4
 70
     1
102
RTVSPropertyOp5
 70
     1
102
RTVSPropertyOp6
 70
     1
102
RTVSPropertyOp7
 70
     1
102
RTVSPropertyOp8
 70
     1
102
RTVSPropertyOp9
 70
     1
102
RTVSPropertyOp10
 70
     1
102
RTVSPropertyOp11
 70
     1
102
RTVSPropertyOp12
 70
     1
102
RTVSPropertyOp13
 70
     1
102
RTVSPropertyOp14
 70
     1
102
RTVSPropertyOp15
 70
     1
102
RTVSPropertyOp16
 70
     1
102
RTVSPropertyOp17
 70
     1
102
RTVSPropertyOp18
 70
     1
102
RTVSPropertyOp19
 70
     1
102
RTVSPropertyOp20
 70
     1
102
RTVSPropertyOp21
 70
     1
102
RTVSPropertyOp22
 70
     1
102
RTVSPropertyOp23
 70
     1
102
RTVSPropertyOp24
 70
     1
102
RTVSPropertyOp25
 70
     1
102
RTVSPropertyOp26
 70
     1
102
RTVSPropertyOp27
 70
     1
102
RTVSPropertyOp28
 70
     1
102
RTVSPropertyOp29
 70
     1
102
RTVSPropertyOp30
 70
     1
102
RTVSPropertyOp31
 70
     1
102
RTVSPropertyOp32
 70
     1
102
RTVSPropertyOp33
 70
     1
102
RTVSPropertyOp34
 70
     1
102
RTVSPropertyOp35
 70
     1
102
RTVSPropertyOp36
 70
     1
102
RTVSPropertyOp37
 70
     1
102
RTVSPropertyOp38
 70
     1
102
RTVSPropertyOp39
 70
     1
102
RTVSPropertyOp40
 70
     1
102
RTVSPropertyOp41
 70
     1
102
RTVSPropertyOp42
 70
     1
102
RTVSPropertyOp43
 70
     1
102
RTVSPropertyOp44
 70
     1
102
RTVSPropertyOp45
 70
     1
102
RTVSPropertyOp46
 70
     1
102
RTVSPropertyOp47
 70
     1
102
RTVSPropertyOp48
 70
     1
102
RTVSPropertyOp49
 70
     1
102
RTVSPropertyOp50
 70
     1
102
RTVSPropertyOp51
 70
     0
102
RTVSPropertyOp52
 70
     0
102
RTVSPropertyOp53
 70
     1
102
RTVSPropertyOp54
 70
     1
102
RTVSPropertyOp55
 70
     1
102
RTVSPropertyOp56
 70
     1
102
RTVSPropertyOp57
 70
     1
102
RTVSPost2010Prop28
280
     0
102
RTVSPost2010PropOp28
 70
     1
102
RTVSPost2010Prop29
280
     1
102
RTVSPost2010PropOp29
 70
     1
102
RTVSPost2010Prop30
280
     1
102
RTVSPost2010PropOp30
 70
     1
102
RTVSPost2010Prop31
280
     0
102
RTVSPost2010PropOp31
 70
     1
102
RTVSPost2010Prop32
280
     0
102
RTVSPost2010PropOp32
 70
     1
102
RTVSPost2010Prop33
280
     0
102
RTVSPost2010PropOp33
 70
     1
102
RTVSPost2010Prop34
280
     0
102
RTVSPost2010PropOp34
 70
     1
102
RTVSPost2010Prop35
280
     0
102
RTVSPost2010PropOp35
 70
     1
102
RTVSPost2010Prop36
280
     0
102
RTVSPost2010PropOp36
 70
     1
102
RTVSPost2010Prop37
 90
       50
102
RTVSPost2010PropOp37
 70
     1
102
RTVSPost2010Prop38
140
0.0
102
RTVSPost2010PropOp38
 70
     1
102
RTVSPost2010Prop39
140
1.0
102
RTVSPost2010PropOp39
 70
     1
102
RTVSPost2010Prop40
 90
        0
102
RTVSPost2010PropOp40
 70
     1
102
RTVSPost2010Prop41ColorIndex
 90
       18
102
RTVSPost2010Prop41ColorRGB
 90
        0
102
RTVSPost2010PropOp41
 70
     1
102
RTVSPost2010Prop42
 90
       50
102
RTVSPost2010PropOp42
 70
     1
102
RTVSPost2010Prop43
 90
        3
102
RTVSPost2010PropOp43
 70
     1
102
RTVSPost2010Prop44ColorIndex
 90
        5
102
RTVSPost2010Prop44ColorRGB
 90
      255
102
RTVSPost2010PropOp44
 70
     1
102
RTVSPost2010Prop45
280
     0
102
RTVSPost2010PropOp45
 70
     1
102
RTVSPost2010Prop46
 90
       50
102
RTVSPost2010PropOp46
 70
     1
102
RTVSPost2010Prop47
 90
       50
102
RTVSPost2010PropOp47
 70
     1
102
RTVSPost2010Prop48
 90
       50
102
RTVSPost2010PropOp48
 70
     1
102
RTVSPost2010Prop49
280
     0
102
RTVSPost2010PropOp49
 70
     1
102
RTVSPost2010Prop50
 90
       50
102
RTVSPost2010PropOp50
 70
     1
102
RTVSPost2010Prop51ColorIndex
 90
      256
102
RTVSPost2010Prop51ColorRGB
 90
-16777216
102
RTVSPost2010PropOp51
 70
     0
102
RTVSPost2010Prop52
140
1.0
102
RTVSPost2010PropOp52
 70
     0
102
RTVSPost2010Prop53
 90
        2
102
RTVSPost2010PropOp53
 70
     1
102
RTVSPost2010Prop54
  1
strokes_ogs.tif
102
RTVSPost2010PropOp54
 70
     1
102
RTVSPost2010Prop55
280
     0
102
RTVSPost2010PropOp55
 70
     1
102
RTVSPost2010Prop56
140
1.0
102
RTVSPost2010PropOp56
 70
     1
102
RTVSPost2010Prop57
140
1.0
102
RTVSPost2010PropOp57
 70
     1
  0
XRECORD
  5
9303E
102
{ACAD_REACTORS
330
87B1E
102
}
330
87B1E
100
AcDbXrecord
280
     1
102
RTVSPropertyOp0
 70
     1
102
RTVSPropertyOp1
 70
     1
102
RTVSPropertyOp2
 70
     1
102
RTVSPropertyOp3
 70
     1
102
RTVSPropertyOp4
 70
     1
102
RTVSPropertyOp5
 70
     1
102
RTVSPropertyOp6
 70
     1
102
RTVSPropertyOp7
 70
     1
102
RTVSPropertyOp8
 70
     1
102
RTVSPropertyOp9
 70
     1
102
RTVSPropertyOp10
 70
     1
102
RTVSPropertyOp11
 70
     1
102
RTVSPropertyOp12
 70
     1
102
RTVSPropertyOp13
 70
     1
102
RTVSPropertyOp14
 70
     1
102
RTVSPropertyOp15
 70
     1
102
RTVSPropertyOp16
 70
     1
102
RTVSPropertyOp17
 70
     1
102
RTVSPropertyOp18
 70
     1
102
RTVSPropertyOp19
 70
     1
102
RTVSPropertyOp20
 70
     1
102
RTVSPropertyOp21
 70
     1
102
RTVSPropertyOp22
 70
     1
102
RTVSPropertyOp23
 70
     1
102
RTVSPropertyOp24
 70
     1
102
RTVSPropertyOp25
 70
     1
102
RTVSPropertyOp26
 70
     1
102
RTVSPropertyOp27
 70
     1
102
RTVSPropertyOp28
 70
     1
102
RTVSPropertyOp29
 70
     1
102
RTVSPropertyOp30
 70
     1
102
RTVSPropertyOp31
 70
     1
102
RTVSPropertyOp32
 70
     1
102
RTVSPropertyOp33
 70
     1
102
RTVSPropertyOp34
 70
     1
102
RTVSPropertyOp35
 70
     1
102
RTVSPropertyOp36
 70
     1
102
RTVSPropertyOp37
 70
     1
102
RTVSPropertyOp38
 70
     1
102
RTVSPropertyOp39
 70
     1
102
RTVSPropertyOp40
 70
     1
102
RTVSPropertyOp41
 70
     1
102
RTVSPropertyOp42
 70
     1
102
RTVSPropertyOp43
 70
     1
102
RTVSPropertyOp44
 70
     1
102
RTVSPropertyOp45
 70
     1
102
RTVSPropertyOp46
 70
     1
102
RTVSPropertyOp47
 70
     1
102
RTVSPropertyOp48
 70
     1
102
RTVSPropertyOp49
 70
     1
102
RTVSPropertyOp50
 70
     1
102
RTVSPropertyOp51
 70
     0
102
RTVSPropertyOp52
 70
     0
102
RTVSPropertyOp53
 70
     1
102
RTVSPropertyOp54
 70
     1
102
RTVSPropertyOp55
 70
     1
102
RTVSPropertyOp56
 70
     1
102
RTVSPropertyOp57
 70
     1
102
RTVSPost2010Prop28
280
     0
102
RTVSPost2010PropOp28
 70
     1
102
RTVSPost2010Prop29
280
     1
102
RTVSPost2010PropOp29
 70
     1
102
RTVSPost2010Prop30
280
     1
102
RTVSPost2010PropOp30
 70
     1
102
RTVSPost2010Prop31
280
     0
102
RTVSPost2010PropOp31
 70
     1
102
RTVSPost2010Prop32
280
     0
102
RTVSPost2010PropOp32
 70
     1
102
RTVSPost2010Prop33
280
     0
102
RTVSPost2010PropOp33
 70
     1
102
RTVSPost2010Prop34
280
     0
102
RTVSPost2010PropOp34
 70
     1
102
RTVSPost2010Prop35
280
     0
102
RTVSPost2010PropOp35
 70
     1
102
RTVSPost2010Prop36
280
     0
102
RTVSPost2010PropOp36
 70
     1
102
RTVSPost2010Prop37
 90
       50
102
RTVSPost2010PropOp37
 70
     1
102
RTVSPost2010Prop38
140
0.0
102
RTVSPost2010PropOp38
 70
     1
102
RTVSPost2010Prop39
140
1.0
102
RTVSPost2010PropOp39
 70
     1
102
RTVSPost2010Prop40
 90
        0
102
RTVSPost2010PropOp40
 70
     1
102
RTVSPost2010Prop41ColorIndex
 90
       18
102
RTVSPost2010Prop41ColorRGB
 90
        0
102
RTVSPost2010PropOp41
 70
     1
102
RTVSPost2010Prop42
 90
       50
102
RTVSPost2010PropOp42
 70
     1
102
RTVSPost2010Prop43
 90
        3
102
RTVSPost2010PropOp43
 70
     1
102
RTVSPost2010Prop44ColorIndex
 90
        5
102
RTVSPost2010Prop44ColorRGB
 90
      255
102
RTVSPost2010PropOp44
 70
     1
102
RTVSPost2010Prop45
280
     0
102
RTVSPost2010PropOp45
 70
     1
102
RTVSPost2010Prop46
 90
       50
102
RTVSPost2010PropOp46
 70
     1
102
RTVSPost2010Prop47
 90
       50
102
RTVSPost2010PropOp47
 70
     1
102
RTVSPost2010Prop48
 90
       50
102
RTVSPost2010PropOp48
 70
     1
102
RTVSPost2010Prop49
280
     0
102
RTVSPost2010PropOp49
 70
     1
102
RTVSPost2010Prop50
 90
       50
102
RTVSPost2010PropOp50
 70
     1
102
RTVSPost2010Prop51ColorIndex
 90
      256
102
RTVSPost2010Prop51ColorRGB
 90
-16777216
102
RTVSPost2010PropOp51
 70
     0
102
RTVSPost2010Prop52
140
1.0
102
RTVSPost2010PropOp52
 70
     0
102
RTVSPost2010Prop53
 90
        2
102
RTVSPost2010PropOp53
 70
     1
102
RTVSPost2010Prop54
  1
strokes_ogs.tif
102
RTVSPost2010PropOp54
 70
     1
102
RTVSPost2010Prop55
280
     0
102
RTVSPost2010PropOp55
 70
     1
102
RTVSPost2010Prop56
140
1.0
102
RTVSPost2010PropOp56
 70
     1
102
RTVSPost2010Prop57
140
1.0
102
RTVSPost2010PropOp57
 70
     1
  0
XRECORD
  5
9303F
102
{ACAD_REACTORS
330
87B22
102
}
330
87B22
100
AcDbXrecord
280
     1
102
RTVSPropertyOp0
 70
     1
102
RTVSPropertyOp1
 70
     1
102
RTVSPropertyOp2
 70
     1
102
RTVSPropertyOp3
 70
     1
102
RTVSPropertyOp4
 70
     1
102
RTVSPropertyOp5
 70
     1
102
RTVSPropertyOp6
 70
     1
102
RTVSPropertyOp7
 70
     1
102
RTVSPropertyOp8
 70
     1
102
RTVSPropertyOp9
 70
     1
102
RTVSPropertyOp10
 70
     1
102
RTVSPropertyOp11
 70
     1
102
RTVSPropertyOp12
 70
     1
102
RTVSPropertyOp13
 70
     1
102
RTVSPropertyOp14
 70
     1
102
RTVSPropertyOp15
 70
     1
102
RTVSPropertyOp16
 70
     1
102
RTVSPropertyOp17
 70
     1
102
RTVSPropertyOp18
 70
     1
102
RTVSPropertyOp19
 70
     1
102
RTVSPropertyOp20
 70
     1
102
RTVSPropertyOp21
 70
     1
102
RTVSPropertyOp22
 70
     1
102
RTVSPropertyOp23
 70
     1
102
RTVSPropertyOp24
 70
     1
102
RTVSPropertyOp25
 70
     1
102
RTVSPropertyOp26
 70
     1
102
RTVSPropertyOp27
 70
     1
102
RTVSPropertyOp28
 70
     1
102
RTVSPropertyOp29
 70
     1
102
RTVSPropertyOp30
 70
     1
102
RTVSPropertyOp31
 70
     1
102
RTVSPropertyOp32
 70
     1
102
RTVSPropertyOp33
 70
     1
102
RTVSPropertyOp34
 70
     1
102
RTVSPropertyOp35
 70
     1
102
RTVSPropertyOp36
 70
     1
102
RTVSPropertyOp37
 70
     1
102
RTVSPropertyOp38
 70
     1
102
RTVSPropertyOp39
 70
     1
102
RTVSPropertyOp40
 70
     1
102
RTVSPropertyOp41
 70
     1
102
RTVSPropertyOp42
 70
     1
102
RTVSPropertyOp43
 70
     1
102
RTVSPropertyOp44
 70
     1
102
RTVSPropertyOp45
 70
     1
102
RTVSPropertyOp46
 70
     1
102
RTVSPropertyOp47
 70
     1
102
RTVSPropertyOp48
 70
     1
102
RTVSPropertyOp49
 70
     1
102
RTVSPropertyOp50
 70
     1
102
RTVSPropertyOp51
 70
     0
102
RTVSPropertyOp52
 70
     0
102
RTVSPropertyOp53
 70
     1
102
RTVSPropertyOp54
 70
     1
102
RTVSPropertyOp55
 70
     1
102
RTVSPropertyOp56
 70
     1
102
RTVSPropertyOp57
 70
     1
102
RTVSPost2010Prop28
280
     0
102
RTVSPost2010PropOp28
 70
     1
102
RTVSPost2010Prop29
280
     1
102
RTVSPost2010PropOp29
 70
     1
102
RTVSPost2010Prop30
280
     1
102
RTVSPost2010PropOp30
 70
     1
102
RTVSPost2010Prop31
280
     0
102
RTVSPost2010PropOp31
 70
     1
102
RTVSPost2010Prop32
280
     0
102
RTVSPost2010PropOp32
 70
     1
102
RTVSPost2010Prop33
280
     0
102
RTVSPost2010PropOp33
 70
     1
102
RTVSPost2010Prop34
280
     0
102
RTVSPost2010PropOp34
 70
     1
102
RTVSPost2010Prop35
280
     0
102
RTVSPost2010PropOp35
 70
     1
102
RTVSPost2010Prop36
280
     0
102
RTVSPost2010PropOp36
 70
     1
102
RTVSPost2010Prop37
 90
       50
102
RTVSPost2010PropOp37
 70
     1
102
RTVSPost2010Prop38
140
0.0
102
RTVSPost2010PropOp38
 70
     1
102
RTVSPost2010Prop39
140
1.0
102
RTVSPost2010PropOp39
 70
     1
102
RTVSPost2010Prop40
 90
        0
102
RTVSPost2010PropOp40
 70
     1
102
RTVSPost2010Prop41ColorIndex
 90
       18
102
RTVSPost2010Prop41ColorRGB
 90
        0
102
RTVSPost2010PropOp41
 70
     1
102
RTVSPost2010Prop42
 90
       50
102
RTVSPost2010PropOp42
 70
     1
102
RTVSPost2010Prop43
 90
        3
102
RTVSPost2010PropOp43
 70
     1
102
RTVSPost2010Prop44ColorIndex
 90
        5
102
RTVSPost2010Prop44ColorRGB
 90
      255
102
RTVSPost2010PropOp44
 70
     1
102
RTVSPost2010Prop45
280
     0
102
RTVSPost2010PropOp45
 70
     1
102
RTVSPost2010Prop46
 90
       50
102
RTVSPost2010PropOp46
 70
     1
102
RTVSPost2010Prop47
 90
       50
102
RTVSPost2010PropOp47
 70
     1
102
RTVSPost2010Prop48
 90
       50
102
RTVSPost2010PropOp48
 70
     1
102
RTVSPost2010Prop49
280
     0
102
RTVSPost2010PropOp49
 70
     1
102
RTVSPost2010Prop50
 90
       50
102
RTVSPost2010PropOp50
 70
     1
102
RTVSPost2010Prop51ColorIndex
 90
      256
102
RTVSPost2010Prop51ColorRGB
 90
-16777216
102
RTVSPost2010PropOp51
 70
     0
102
RTVSPost2010Prop52
140
1.0
102
RTVSPost2010PropOp52
 70
     0
102
RTVSPost2010Prop53
 90
        2
102
RTVSPost2010PropOp53
 70
     1
102
RTVSPost2010Prop54
  1
strokes_ogs.tif
102
RTVSPost2010PropOp54
 70
     1
102
RTVSPost2010Prop55
280
     0
102
RTVSPost2010PropOp55
 70
     1
102
RTVSPost2010Prop56
140
1.0
102
RTVSPost2010PropOp56
 70
     1
102
RTVSPost2010Prop57
140
1.0
102
RTVSPost2010PropOp57
 70
     1
  0
XRECORD
  5
93040
102
{ACAD_REACTORS
330
87B3C
102
}
330
87B3C
100
AcDbXrecord
280
     1
102
RTVSPropertyOp0
 70
     0
102
RTVSPropertyOp1
 70
     0
102
RTVSPropertyOp2
 70
     0
102
RTVSPropertyOp3
 70
     0
102
RTVSPropertyOp4
 70
     0
102
RTVSPropertyOp5
 70
     0
102
RTVSPropertyOp6
 70
     0
102
RTVSPropertyOp7
 70
     0
102
RTVSPropertyOp8
 70
     0
102
RTVSPropertyOp9
 70
     0
102
RTVSPropertyOp10
 70
     0
102
RTVSPropertyOp11
 70
     0
102
RTVSPropertyOp12
 70
     0
102
RTVSPropertyOp13
 70
     0
102
RTVSPropertyOp14
 70
     2
102
RTVSPropertyOp15
 70
     0
102
RTVSPropertyOp16
 70
     0
102
RTVSPropertyOp17
 70
     0
102
RTVSPropertyOp18
 70
     0
102
RTVSPropertyOp19
 70
     0
102
RTVSPropertyOp20
 70
     0
102
RTVSPropertyOp21
 70
     0
102
RTVSPropertyOp22
 70
     0
102
RTVSPropertyOp23
 70
     0
102
RTVSPropertyOp24
 70
     0
102
RTVSPropertyOp25
 70
     0
102
RTVSPropertyOp26
 70
     0
102
RTVSPropertyOp27
 70
     0
102
RTVSPropertyOp28
 70
     1
102
RTVSPropertyOp29
 70
     1
102
RTVSPropertyOp30
 70
     1
102
RTVSPropertyOp31
 70
     1
102
RTVSPropertyOp32
 70
     1
102
RTVSPropertyOp33
 70
     1
102
RTVSPropertyOp34
 70
     1
102
RTVSPropertyOp35
 70
     1
102
RTVSPropertyOp36
 70
     1
102
RTVSPropertyOp37
 70
     0
102
RTVSPropertyOp38
 70
     0
102
RTVSPropertyOp39
 70
     0
102
RTVSPropertyOp40
 70
     0
102
RTVSPropertyOp41
 70
     0
102
RTVSPropertyOp42
 70
     0
102
RTVSPropertyOp43
 70
     0
102
RTVSPropertyOp44
 70
     0
102
RTVSPropertyOp45
 70
     1
102
RTVSPropertyOp46
 70
     0
102
RTVSPropertyOp47
 70
     0
102
RTVSPropertyOp48
 70
     0
102
RTVSPropertyOp49
 70
     1
102
RTVSPropertyOp50
 70
     0
102
RTVSPropertyOp51
 70
     0
102
RTVSPropertyOp52
 70
     0
102
RTVSPropertyOp53
 70
     0
102
RTVSPropertyOp54
 70
     0
102
RTVSPropertyOp55
 70
     1
102
RTVSPropertyOp56
 70
     0
102
RTVSPropertyOp57
 70
     0
102
RTVSPost2010Prop28
280
     0
102
RTVSPost2010PropOp28
 70
     1
102
RTVSPost2010Prop29
280
     1
102
RTVSPost2010PropOp29
 70
     1
102
RTVSPost2010Prop30
280
     1
102
RTVSPost2010PropOp30
 70
     1
102
RTVSPost2010Prop31
280
     0
102
RTVSPost2010PropOp31
 70
     1
102
RTVSPost2010Prop32
280
     0
102
RTVSPost2010PropOp32
 70
     1
102
RTVSPost2010Prop33
280
     0
102
RTVSPost2010PropOp33
 70
     1
102
RTVSPost2010Prop34
280
     0
102
RTVSPost2010PropOp34
 70
     1
102
RTVSPost2010Prop35
280
     0
102
RTVSPost2010PropOp35
 70
     1
102
RTVSPost2010Prop36
280
     0
102
RTVSPost2010PropOp36
 70
     1
102
RTVSPost2010Prop37
 90
       50
102
RTVSPost2010PropOp37
 70
     0
102
RTVSPost2010Prop38
140
0.0
102
RTVSPost2010PropOp38
 70
     0
102
RTVSPost2010Prop39
140
1.0
102
RTVSPost2010PropOp39
 70
     0
102
RTVSPost2010Prop40
 90
        0
102
RTVSPost2010PropOp40
 70
     0
102
RTVSPost2010Prop41ColorIndex
 90
       18
102
RTVSPost2010Prop41ColorRGB
 90
        0
102
RTVSPost2010PropOp41
 70
     0
102
RTVSPost2010Prop42
 90
       50
102
RTVSPost2010PropOp42
 70
     0
102
RTVSPost2010Prop43
 90
        3
102
RTVSPost2010PropOp43
 70
     0
102
RTVSPost2010Prop44ColorIndex
 90
        5
102
RTVSPost2010Prop44ColorRGB
 90
      255
102
RTVSPost2010PropOp44
 70
     0
102
RTVSPost2010Prop45
280
     0
102
RTVSPost2010PropOp45
 70
     1
102
RTVSPost2010Prop46
 90
       50
102
RTVSPost2010PropOp46
 70
     0
102
RTVSPost2010Prop47
 90
       50
102
RTVSPost2010PropOp47
 70
     0
102
RTVSPost2010Prop48
 90
       50
102
RTVSPost2010PropOp48
 70
     0
102
RTVSPost2010Prop49
280
     0
102
RTVSPost2010PropOp49
 70
     1
102
RTVSPost2010Prop50
 90
       50
102
RTVSPost2010PropOp50
 70
     0
102
RTVSPost2010Prop51ColorIndex
 90
      256
102
RTVSPost2010Prop51ColorRGB
 90
-16777216
102
RTVSPost2010PropOp51
 70
     0
102
RTVSPost2010Prop52
140
1.0
102
RTVSPost2010PropOp52
 70
     0
102
RTVSPost2010Prop53
 90
        2
102
RTVSPost2010PropOp53
 70
     0
102
RTVSPost2010Prop54
  1
strokes_ogs.tif
102
RTVSPost2010PropOp54
 70
     0
102
RTVSPost2010Prop55
280
     0
102
RTVSPost2010PropOp55
 70
     1
102
RTVSPost2010Prop56
140
1.0
102
RTVSPost2010PropOp56
 70
     0
102
RTVSPost2010Prop57
140
1.0
102
RTVSPost2010PropOp57
 70
     0
  0
XRECORD
  5
93041
102
{ACAD_REACTORS
330
87B2A
102
}
330
87B2A
100
AcDbXrecord
280
     1
102
RTVSPropertyOp0
 70
     1
102
RTVSPropertyOp1
 70
     1
102
RTVSPropertyOp2
 70
     1
102
RTVSPropertyOp3
 70
     1
102
RTVSPropertyOp4
 70
     1
102
RTVSPropertyOp5
 70
     1
102
RTVSPropertyOp6
 70
     1
102
RTVSPropertyOp7
 70
     1
102
RTVSPropertyOp8
 70
     1
102
RTVSPropertyOp9
 70
     1
102
RTVSPropertyOp10
 70
     1
102
RTVSPropertyOp11
 70
     1
102
RTVSPropertyOp12
 70
     1
102
RTVSPropertyOp13
 70
     1
102
RTVSPropertyOp14
 70
     1
102
RTVSPropertyOp15
 70
     1
102
RTVSPropertyOp16
 70
     1
102
RTVSPropertyOp17
 70
     1
102
RTVSPropertyOp18
 70
     1
102
RTVSPropertyOp19
 70
     1
102
RTVSPropertyOp20
 70
     1
102
RTVSPropertyOp21
 70
     1
102
RTVSPropertyOp22
 70
     1
102
RTVSPropertyOp23
 70
     1
102
RTVSPropertyOp24
 70
     1
102
RTVSPropertyOp25
 70
     1
102
RTVSPropertyOp26
 70
     1
102
RTVSPropertyOp27
 70
     1
102
RTVSPropertyOp28
 70
     1
102
RTVSPropertyOp29
 70
     1
102
RTVSPropertyOp30
 70
     1
102
RTVSPropertyOp31
 70
     1
102
RTVSPropertyOp32
 70
     1
102
RTVSPropertyOp33
 70
     1
102
RTVSPropertyOp34
 70
     1
102
RTVSPropertyOp35
 70
     1
102
RTVSPropertyOp36
 70
     1
102
RTVSPropertyOp37
 70
     1
102
RTVSPropertyOp38
 70
     1
102
RTVSPropertyOp39
 70
     1
102
RTVSPropertyOp40
 70
     1
102
RTVSPropertyOp41
 70
     1
102
RTVSPropertyOp42
 70
     1
102
RTVSPropertyOp43
 70
     1
102
RTVSPropertyOp44
 70
     1
102
RTVSPropertyOp45
 70
     1
102
RTVSPropertyOp46
 70
     1
102
RTVSPropertyOp47
 70
     1
102
RTVSPropertyOp48
 70
     1
102
RTVSPropertyOp49
 70
     1
102
RTVSPropertyOp50
 70
     1
102
RTVSPropertyOp51
 70
     0
102
RTVSPropertyOp52
 70
     0
102
RTVSPropertyOp53
 70
     1
102
RTVSPropertyOp54
 70
     1
102
RTVSPropertyOp55
 70
     1
102
RTVSPropertyOp56
 70
     1
102
RTVSPropertyOp57
 70
     1
102
RTVSPost2010Prop28
280
     0
102
RTVSPost2010PropOp28
 70
     1
102
RTVSPost2010Prop29
280
     1
102
RTVSPost2010PropOp29
 70
     1
102
RTVSPost2010Prop30
280
     1
102
RTVSPost2010PropOp30
 70
     1
102
RTVSPost2010Prop31
280
     0
102
RTVSPost2010PropOp31
 70
     1
102
RTVSPost2010Prop32
280
     0
102
RTVSPost2010PropOp32
 70
     1
102
RTVSPost2010Prop33
280
     0
102
RTVSPost2010PropOp33
 70
     1
102
RTVSPost2010Prop34
280
     0
102
RTVSPost2010PropOp34
 70
     1
102
RTVSPost2010Prop35
280
     0
102
RTVSPost2010PropOp35
 70
     1
102
RTVSPost2010Prop36
280
     0
102
RTVSPost2010PropOp36
 70
     1
102
RTVSPost2010Prop37
 90
       50
102
RTVSPost2010PropOp37
 70
     1
102
RTVSPost2010Prop38
140
0.0
102
RTVSPost2010PropOp38
 70
     1
102
RTVSPost2010Prop39
140
1.0
102
RTVSPost2010PropOp39
 70
     1
102
RTVSPost2010Prop40
 90
        0
102
RTVSPost2010PropOp40
 70
     1
102
RTVSPost2010Prop41ColorIndex
 90
       18
102
RTVSPost2010Prop41ColorRGB
 90
        0
102
RTVSPost2010PropOp41
 70
     1
102
RTVSPost2010Prop42
 90
       50
102
RTVSPost2010PropOp42
 70
     1
102
RTVSPost2010Prop43
 90
        3
102
RTVSPost2010PropOp43
 70
     1
102
RTVSPost2010Prop44ColorIndex
 90
        5
102
RTVSPost2010Prop44ColorRGB
 90
      255
102
RTVSPost2010PropOp44
 70
     1
102
RTVSPost2010Prop45
280
     0
102
RTVSPost2010PropOp45
 70
     1
102
RTVSPost2010Prop46
 90
       50
102
RTVSPost2010PropOp46
 70
     1
102
RTVSPost2010Prop47
 90
       50
102
RTVSPost2010PropOp47
 70
     1
102
RTVSPost2010Prop48
 90
       50
102
RTVSPost2010PropOp48
 70
     1
102
RTVSPost2010Prop49
280
     0
102
RTVSPost2010PropOp49
 70
     1
102
RTVSPost2010Prop50
 90
       50
102
RTVSPost2010PropOp50
 70
     1
102
RTVSPost2010Prop51ColorIndex
 90
      256
102
RTVSPost2010Prop51ColorRGB
 90
-16777216
102
RTVSPost2010PropOp51
 70
     0
102
RTVSPost2010Prop52
140
1.0
102
RTVSPost2010PropOp52
 70
     0
102
RTVSPost2010Prop53
 90
        2
102
RTVSPost2010PropOp53
 70
     1
102
RTVSPost2010Prop54
  1
strokes_ogs.tif
102
RTVSPost2010PropOp54
 70
     1
102
RTVSPost2010Prop55
280
     0
102
RTVSPost2010PropOp55
 70
     1
102
RTVSPost2010Prop56
140
1.0
102
RTVSPost2010PropOp56
 70
     1
102
RTVSPost2010Prop57
140
1.0
102
RTVSPost2010PropOp57
 70
     1
  0
XRECORD
  5
93042
102
{ACAD_REACTORS
330
87B0E
102
}
330
87B0E
100
AcDbXrecord
280
     1
102
RTVSPropertyOp0
 70
     1
102
RTVSPropertyOp1
 70
     1
102
RTVSPropertyOp2
 70
     1
102
RTVSPropertyOp3
 70
     1
102
RTVSPropertyOp4
 70
     1
102
RTVSPropertyOp5
 70
     1
102
RTVSPropertyOp6
 70
     1
102
RTVSPropertyOp7
 70
     1
102
RTVSPropertyOp8
 70
     1
102
RTVSPropertyOp9
 70
     1
102
RTVSPropertyOp10
 70
     1
102
RTVSPropertyOp11
 70
     1
102
RTVSPropertyOp12
 70
     1
102
RTVSPropertyOp13
 70
     1
102
RTVSPropertyOp14
 70
     1
102
RTVSPropertyOp15
 70
     1
102
RTVSPropertyOp16
 70
     1
102
RTVSPropertyOp17
 70
     1
102
RTVSPropertyOp18
 70
     1
102
RTVSPropertyOp19
 70
     1
102
RTVSPropertyOp20
 70
     1
102
RTVSPropertyOp21
 70
     1
102
RTVSPropertyOp22
 70
     1
102
RTVSPropertyOp23
 70
     1
102
RTVSPropertyOp24
 70
     1
102
RTVSPropertyOp25
 70
     1
102
RTVSPropertyOp26
 70
     1
102
RTVSPropertyOp27
 70
     1
102
RTVSPropertyOp28
 70
     1
102
RTVSPropertyOp29
 70
     1
102
RTVSPropertyOp30
 70
     1
102
RTVSPropertyOp31
 70
     1
102
RTVSPropertyOp32
 70
     1
102
RTVSPropertyOp33
 70
     1
102
RTVSPropertyOp34
 70
     1
102
RTVSPropertyOp35
 70
     1
102
RTVSPropertyOp36
 70
     1
102
RTVSPropertyOp37
 70
     1
102
RTVSPropertyOp38
 70
     1
102
RTVSPropertyOp39
 70
     1
102
RTVSPropertyOp40
 70
     1
102
RTVSPropertyOp41
 70
     1
102
RTVSPropertyOp42
 70
     1
102
RTVSPropertyOp43
 70
     1
102
RTVSPropertyOp44
 70
     1
102
RTVSPropertyOp45
 70
     1
102
RTVSPropertyOp46
 70
     1
102
RTVSPropertyOp47
 70
     1
102
RTVSPropertyOp48
 70
     1
102
RTVSPropertyOp49
 70
     1
102
RTVSPropertyOp50
 70
     1
102
RTVSPropertyOp51
 70
     0
102
RTVSPropertyOp52
 70
     0
102
RTVSPropertyOp53
 70
     1
102
RTVSPropertyOp54
 70
     1
102
RTVSPropertyOp55
 70
     1
102
RTVSPropertyOp56
 70
     1
102
RTVSPropertyOp57
 70
     1
102
RTVSPost2010Prop28
280
     0
102
RTVSPost2010PropOp28
 70
     1
102
RTVSPost2010Prop29
280
     1
102
RTVSPost2010PropOp29
 70
     1
102
RTVSPost2010Prop30
280
     1
102
RTVSPost2010PropOp30
 70
     1
102
RTVSPost2010Prop31
280
     0
102
RTVSPost2010PropOp31
 70
     1
102
RTVSPost2010Prop32
280
     0
102
RTVSPost2010PropOp32
 70
     1
102
RTVSPost2010Prop33
280
     0
102
RTVSPost2010PropOp33
 70
     1
102
RTVSPost2010Prop34
280
     0
102
RTVSPost2010PropOp34
 70
     1
102
RTVSPost2010Prop35
280
     0
102
RTVSPost2010PropOp35
 70
     1
102
RTVSPost2010Prop36
280
     0
102
RTVSPost2010PropOp36
 70
     1
102
RTVSPost2010Prop37
 90
       50
102
RTVSPost2010PropOp37
 70
     1
102
RTVSPost2010Prop38
140
0.0
102
RTVSPost2010PropOp38
 70
     1
102
RTVSPost2010Prop39
140
1.0
102
RTVSPost2010PropOp39
 70
     1
102
RTVSPost2010Prop40
 90
        0
102
RTVSPost2010PropOp40
 70
     1
102
RTVSPost2010Prop41ColorIndex
 90
       18
102
RTVSPost2010Prop41ColorRGB
 90
        0
102
RTVSPost2010PropOp41
 70
     1
102
RTVSPost2010Prop42
 90
       50
102
RTVSPost2010PropOp42
 70
     1
102
RTVSPost2010Prop43
 90
        3
102
RTVSPost2010PropOp43
 70
     1
102
RTVSPost2010Prop44ColorIndex
 90
        5
102
RTVSPost2010Prop44ColorRGB
 90
      255
102
RTVSPost2010PropOp44
 70
     1
102
RTVSPost2010Prop45
280
     0
102
RTVSPost2010PropOp45
 70
     1
102
RTVSPost2010Prop46
 90
       50
102
RTVSPost2010PropOp46
 70
     1
102
RTVSPost2010Prop47
 90
       50
102
RTVSPost2010PropOp47
 70
     1
102
RTVSPost2010Prop48
 90
       50
102
RTVSPost2010PropOp48
 70
     1
102
RTVSPost2010Prop49
280
     0
102
RTVSPost2010PropOp49
 70
     1
102
RTVSPost2010Prop50
 90
       50
102
RTVSPost2010PropOp50
 70
     1
102
RTVSPost2010Prop51ColorIndex
 90
      256
102
RTVSPost2010Prop51ColorRGB
 90
-16777216
102
RTVSPost2010PropOp51
 70
     0
102
RTVSPost2010Prop52
140
1.0
102
RTVSPost2010PropOp52
 70
     0
102
RTVSPost2010Prop53
 90
        2
102
RTVSPost2010PropOp53
 70
     1
102
RTVSPost2010Prop54
  1
strokes_ogs.tif
102
RTVSPost2010PropOp54
 70
     1
102
RTVSPost2010Prop55
280
     0
102
RTVSPost2010PropOp55
 70
     1
102
RTVSPost2010Prop56
140
1.0
102
RTVSPost2010PropOp56
 70
     1
102
RTVSPost2010Prop57
140
1.0
102
RTVSPost2010PropOp57
 70
     1
  0
XRECORD
  5
93043
102
{ACAD_REACTORS
330
87B10
102
}
330
87B10
100
AcDbXrecord
280
     1
102
RTVSPropertyOp0
 70
     1
102
RTVSPropertyOp1
 70
     1
102
RTVSPropertyOp2
 70
     1
102
RTVSPropertyOp3
 70
     1
102
RTVSPropertyOp4
 70
     1
102
RTVSPropertyOp5
 70
     1
102
RTVSPropertyOp6
 70
     1
102
RTVSPropertyOp7
 70
     1
102
RTVSPropertyOp8
 70
     1
102
RTVSPropertyOp9
 70
     1
102
RTVSPropertyOp10
 70
     1
102
RTVSPropertyOp11
 70
     1
102
RTVSPropertyOp12
 70
     1
102
RTVSPropertyOp13
 70
     1
102
RTVSPropertyOp14
 70
     1
102
RTVSPropertyOp15
 70
     1
102
RTVSPropertyOp16
 70
     1
102
RTVSPropertyOp17
 70
     1
102
RTVSPropertyOp18
 70
     1
102
RTVSPropertyOp19
 70
     1
102
RTVSPropertyOp20
 70
     1
102
RTVSPropertyOp21
 70
     1
102
RTVSPropertyOp22
 70
     1
102
RTVSPropertyOp23
 70
     1
102
RTVSPropertyOp24
 70
     1
102
RTVSPropertyOp25
 70
     1
102
RTVSPropertyOp26
 70
     1
102
RTVSPropertyOp27
 70
     1
102
RTVSPropertyOp28
 70
     1
102
RTVSPropertyOp29
 70
     1
102
RTVSPropertyOp30
 70
     1
102
RTVSPropertyOp31
 70
     1
102
RTVSPropertyOp32
 70
     1
102
RTVSPropertyOp33
 70
     1
102
RTVSPropertyOp34
 70
     1
102
RTVSPropertyOp35
 70
     1
102
RTVSPropertyOp36
 70
     1
102
RTVSPropertyOp37
 70
     1
102
RTVSPropertyOp38
 70
     1
102
RTVSPropertyOp39
 70
     1
102
RTVSPropertyOp40
 70
     1
102
RTVSPropertyOp41
 70
     1
102
RTVSPropertyOp42
 70
     1
102
RTVSPropertyOp43
 70
     1
102
RTVSPropertyOp44
 70
     1
102
RTVSPropertyOp45
 70
     1
102
RTVSPropertyOp46
 70
     1
102
RTVSPropertyOp47
 70
     1
102
RTVSPropertyOp48
 70
     1
102
RTVSPropertyOp49
 70
     1
102
RTVSPropertyOp50
 70
     1
102
RTVSPropertyOp51
 70
     0
102
RTVSPropertyOp52
 70
     0
102
RTVSPropertyOp53
 70
     1
102
RTVSPropertyOp54
 70
     1
102
RTVSPropertyOp55
 70
     1
102
RTVSPropertyOp56
 70
     1
102
RTVSPropertyOp57
 70
     1
102
RTVSPost2010Prop28
280
     0
102
RTVSPost2010PropOp28
 70
     1
102
RTVSPost2010Prop29
280
     1
102
RTVSPost2010PropOp29
 70
     1
102
RTVSPost2010Prop30
280
     1
102
RTVSPost2010PropOp30
 70
     1
102
RTVSPost2010Prop31
280
     0
102
RTVSPost2010PropOp31
 70
     1
102
RTVSPost2010Prop32
280
     0
102
RTVSPost2010PropOp32
 70
     1
102
RTVSPost2010Prop33
280
     0
102
RTVSPost2010PropOp33
 70
     1
102
RTVSPost2010Prop34
280
     0
102
RTVSPost2010PropOp34
 70
     1
102
RTVSPost2010Prop35
280
     0
102
RTVSPost2010PropOp35
 70
     1
102
RTVSPost2010Prop36
280
     0
102
RTVSPost2010PropOp36
 70
     1
102
RTVSPost2010Prop37
 90
       50
102
RTVSPost2010PropOp37
 70
     1
102
RTVSPost2010Prop38
140
0.0
102
RTVSPost2010PropOp38
 70
     1
102
RTVSPost2010Prop39
140
1.0
102
RTVSPost2010PropOp39
 70
     1
102
RTVSPost2010Prop40
 90
        0
102
RTVSPost2010PropOp40
 70
     1
102
RTVSPost2010Prop41ColorIndex
 90
       18
102
RTVSPost2010Prop41ColorRGB
 90
        0
102
RTVSPost2010PropOp41
 70
     1
102
RTVSPost2010Prop42
 90
       50
102
RTVSPost2010PropOp42
 70
     1
102
RTVSPost2010Prop43
 90
        3
102
RTVSPost2010PropOp43
 70
     1
102
RTVSPost2010Prop44ColorIndex
 90
        5
102
RTVSPost2010Prop44ColorRGB
 90
      255
102
RTVSPost2010PropOp44
 70
     1
102
RTVSPost2010Prop45
280
     0
102
RTVSPost2010PropOp45
 70
     1
102
RTVSPost2010Prop46
 90
       50
102
RTVSPost2010PropOp46
 70
     1
102
RTVSPost2010Prop47
 90
       50
102
RTVSPost2010PropOp47
 70
     1
102
RTVSPost2010Prop48
 90
       50
102
RTVSPost2010PropOp48
 70
     1
102
RTVSPost2010Prop49
280
     0
102
RTVSPost2010PropOp49
 70
     1
102
RTVSPost2010Prop50
 90
       50
102
RTVSPost2010PropOp50
 70
     1
102
RTVSPost2010Prop51ColorIndex
 90
      256
102
RTVSPost2010Prop51ColorRGB
 90
-16777216
102
RTVSPost2010PropOp51
 70
     0
102
RTVSPost2010Prop52
140
1.0
102
RTVSPost2010PropOp52
 70
     0
102
RTVSPost2010Prop53
 90
        2
102
RTVSPost2010PropOp53
 70
     1
102
RTVSPost2010Prop54
  1
strokes_ogs.tif
102
RTVSPost2010PropOp54
 70
     1
102
RTVSPost2010Prop55
280
     0
102
RTVSPost2010PropOp55
 70
     1
102
RTVSPost2010Prop56
140
1.0
102
RTVSPost2010PropOp56
 70
     1
102
RTVSPost2010Prop57
140
1.0
102
RTVSPost2010PropOp57
 70
     1
  0
XRECORD
  5
93044
102
{ACAD_REACTORS
330
87B12
102
}
330
87B12
100
AcDbXrecord
280
     1
102
RTVSPropertyOp0
 70
     1
102
RTVSPropertyOp1
 70
     1
102
RTVSPropertyOp2
 70
     1
102
RTVSPropertyOp3
 70
     1
102
RTVSPropertyOp4
 70
     1
102
RTVSPropertyOp5
 70
     1
102
RTVSPropertyOp6
 70
     1
102
RTVSPropertyOp7
 70
     1
102
RTVSPropertyOp8
 70
     1
102
RTVSPropertyOp9
 70
     1
102
RTVSPropertyOp10
 70
     1
102
RTVSPropertyOp11
 70
     1
102
RTVSPropertyOp12
 70
     1
102
RTVSPropertyOp13
 70
     1
102
RTVSPropertyOp14
 70
     1
102
RTVSPropertyOp15
 70
     1
102
RTVSPropertyOp16
 70
     1
102
RTVSPropertyOp17
 70
     1
102
RTVSPropertyOp18
 70
     1
102
RTVSPropertyOp19
 70
     1
102
RTVSPropertyOp20
 70
     1
102
RTVSPropertyOp21
 70
     1
102
RTVSPropertyOp22
 70
     1
102
RTVSPropertyOp23
 70
     1
102
RTVSPropertyOp24
 70
     1
102
RTVSPropertyOp25
 70
     1
102
RTVSPropertyOp26
 70
     1
102
RTVSPropertyOp27
 70
     1
102
RTVSPropertyOp28
 70
     1
102
RTVSPropertyOp29
 70
     1
102
RTVSPropertyOp30
 70
     1
102
RTVSPropertyOp31
 70
     1
102
RTVSPropertyOp32
 70
     1
102
RTVSPropertyOp33
 70
     1
102
RTVSPropertyOp34
 70
     1
102
RTVSPropertyOp35
 70
     1
102
RTVSPropertyOp36
 70
     1
102
RTVSPropertyOp37
 70
     1
102
RTVSPropertyOp38
 70
     1
102
RTVSPropertyOp39
 70
     1
102
RTVSPropertyOp40
 70
     1
102
RTVSPropertyOp41
 70
     1
102
RTVSPropertyOp42
 70
     1
102
RTVSPropertyOp43
 70
     1
102
RTVSPropertyOp44
 70
     1
102
RTVSPropertyOp45
 70
     1
102
RTVSPropertyOp46
 70
     1
102
RTVSPropertyOp47
 70
     1
102
RTVSPropertyOp48
 70
     1
102
RTVSPropertyOp49
 70
     1
102
RTVSPropertyOp50
 70
     1
102
RTVSPropertyOp51
 70
     0
102
RTVSPropertyOp52
 70
     0
102
RTVSPropertyOp53
 70
     1
102
RTVSPropertyOp54
 70
     1
102
RTVSPropertyOp55
 70
     1
102
RTVSPropertyOp56
 70
     1
102
RTVSPropertyOp57
 70
     1
102
RTVSPost2010Prop28
280
     0
102
RTVSPost2010PropOp28
 70
     1
102
RTVSPost2010Prop29
280
     1
102
RTVSPost2010PropOp29
 70
     1
102
RTVSPost2010Prop30
280
     1
102
RTVSPost2010PropOp30
 70
     1
102
RTVSPost2010Prop31
280
     0
102
RTVSPost2010PropOp31
 70
     1
102
RTVSPost2010Prop32
280
     0
102
RTVSPost2010PropOp32
 70
     1
102
RTVSPost2010Prop33
280
     0
102
RTVSPost2010PropOp33
 70
     1
102
RTVSPost2010Prop34
280
     0
102
RTVSPost2010PropOp34
 70
     1
102
RTVSPost2010Prop35
280
     0
102
RTVSPost2010PropOp35
 70
     1
102
RTVSPost2010Prop36
280
     0
102
RTVSPost2010PropOp36
 70
     1
102
RTVSPost2010Prop37
 90
       50
102
RTVSPost2010PropOp37
 70
     1
102
RTVSPost2010Prop38
140
0.0
102
RTVSPost2010PropOp38
 70
     1
102
RTVSPost2010Prop39
140
1.0
102
RTVSPost2010PropOp39
 70
     1
102
RTVSPost2010Prop40
 90
        0
102
RTVSPost2010PropOp40
 70
     1
102
RTVSPost2010Prop41ColorIndex
 90
       18
102
RTVSPost2010Prop41ColorRGB
 90
        0
102
RTVSPost2010PropOp41
 70
     1
102
RTVSPost2010Prop42
 90
       50
102
RTVSPost2010PropOp42
 70
     1
102
RTVSPost2010Prop43
 90
        3
102
RTVSPost2010PropOp43
 70
     1
102
RTVSPost2010Prop44ColorIndex
 90
        5
102
RTVSPost2010Prop44ColorRGB
 90
      255
102
RTVSPost2010PropOp44
 70
     1
102
RTVSPost2010Prop45
280
     0
102
RTVSPost2010PropOp45
 70
     1
102
RTVSPost2010Prop46
 90
       50
102
RTVSPost2010PropOp46
 70
     1
102
RTVSPost2010Prop47
 90
       50
102
RTVSPost2010PropOp47
 70
     1
102
RTVSPost2010Prop48
 90
       50
102
RTVSPost2010PropOp48
 70
     1
102
RTVSPost2010Prop49
280
     0
102
RTVSPost2010PropOp49
 70
     1
102
RTVSPost2010Prop50
 90
       50
102
RTVSPost2010PropOp50
 70
     1
102
RTVSPost2010Prop51ColorIndex
 90
      256
102
RTVSPost2010Prop51ColorRGB
 90
-16777216
102
RTVSPost2010PropOp51
 70
     0
102
RTVSPost2010Prop52
140
1.0
102
RTVSPost2010PropOp52
 70
     0
102
RTVSPost2010Prop53
 90
        2
102
RTVSPost2010PropOp53
 70
     1
102
RTVSPost2010Prop54
  1
strokes_ogs.tif
102
RTVSPost2010PropOp54
 70
     1
102
RTVSPost2010Prop55
280
     0
102
RTVSPost2010PropOp55
 70
     1
102
RTVSPost2010Prop56
140
1.0
102
RTVSPost2010PropOp56
 70
     1
102
RTVSPost2010Prop57
140
1.0
102
RTVSPost2010PropOp57
 70
     1
  0
XRECORD
  5
93045
102
{ACAD_REACTORS
330
87B14
102
}
330
87B14
100
AcDbXrecord
280
     1
102
RTVSPropertyOp0
 70
     1
102
RTVSPropertyOp1
 70
     1
102
RTVSPropertyOp2
 70
     1
102
RTVSPropertyOp3
 70
     1
102
RTVSPropertyOp4
 70
     1
102
RTVSPropertyOp5
 70
     1
102
RTVSPropertyOp6
 70
     1
102
RTVSPropertyOp7
 70
     1
102
RTVSPropertyOp8
 70
     1
102
RTVSPropertyOp9
 70
     1
102
RTVSPropertyOp10
 70
     1
102
RTVSPropertyOp11
 70
     1
102
RTVSPropertyOp12
 70
     1
102
RTVSPropertyOp13
 70
     1
102
RTVSPropertyOp14
 70
     1
102
RTVSPropertyOp15
 70
     1
102
RTVSPropertyOp16
 70
     1
102
RTVSPropertyOp17
 70
     1
102
RTVSPropertyOp18
 70
     1
102
RTVSPropertyOp19
 70
     1
102
RTVSPropertyOp20
 70
     1
102
RTVSPropertyOp21
 70
     1
102
RTVSPropertyOp22
 70
     1
102
RTVSPropertyOp23
 70
     1
102
RTVSPropertyOp24
 70
     1
102
RTVSPropertyOp25
 70
     1
102
RTVSPropertyOp26
 70
     1
102
RTVSPropertyOp27
 70
     1
102
RTVSPropertyOp28
 70
     1
102
RTVSPropertyOp29
 70
     1
102
RTVSPropertyOp30
 70
     1
102
RTVSPropertyOp31
 70
     1
102
RTVSPropertyOp32
 70
     1
102
RTVSPropertyOp33
 70
     1
102
RTVSPropertyOp34
 70
     1
102
RTVSPropertyOp35
 70
     1
102
RTVSPropertyOp36
 70
     1
102
RTVSPropertyOp37
 70
     1
102
RTVSPropertyOp38
 70
     1
102
RTVSPropertyOp39
 70
     1
102
RTVSPropertyOp40
 70
     1
102
RTVSPropertyOp41
 70
     1
102
RTVSPropertyOp42
 70
     1
102
RTVSPropertyOp43
 70
     1
102
RTVSPropertyOp44
 70
     1
102
RTVSPropertyOp45
 70
     1
102
RTVSPropertyOp46
 70
     1
102
RTVSPropertyOp47
 70
     1
102
RTVSPropertyOp48
 70
     1
102
RTVSPropertyOp49
 70
     1
102
RTVSPropertyOp50
 70
     1
102
RTVSPropertyOp51
 70
     0
102
RTVSPropertyOp52
 70
     0
102
RTVSPropertyOp53
 70
     1
102
RTVSPropertyOp54
 70
     1
102
RTVSPropertyOp55
 70
     1
102
RTVSPropertyOp56
 70
     1
102
RTVSPropertyOp57
 70
     1
102
RTVSPost2010Prop28
280
     0
102
RTVSPost2010PropOp28
 70
     1
102
RTVSPost2010Prop29
280
     1
102
RTVSPost2010PropOp29
 70
     1
102
RTVSPost2010Prop30
280
     1
102
RTVSPost2010PropOp30
 70
     1
102
RTVSPost2010Prop31
280
     0
102
RTVSPost2010PropOp31
 70
     1
102
RTVSPost2010Prop32
280
     0
102
RTVSPost2010PropOp32
 70
     1
102
RTVSPost2010Prop33
280
     0
102
RTVSPost2010PropOp33
 70
     1
102
RTVSPost2010Prop34
280
     0
102
RTVSPost2010PropOp34
 70
     1
102
RTVSPost2010Prop35
280
     0
102
RTVSPost2010PropOp35
 70
     1
102
RTVSPost2010Prop36
280
     0
102
RTVSPost2010PropOp36
 70
     1
102
RTVSPost2010Prop37
 90
       50
102
RTVSPost2010PropOp37
 70
     1
102
RTVSPost2010Prop38
140
0.0
102
RTVSPost2010PropOp38
 70
     1
102
RTVSPost2010Prop39
140
1.0
102
RTVSPost2010PropOp39
 70
     1
102
RTVSPost2010Prop40
 90
        0
102
RTVSPost2010PropOp40
 70
     1
102
RTVSPost2010Prop41ColorIndex
 90
       18
102
RTVSPost2010Prop41ColorRGB
 90
        0
102
RTVSPost2010PropOp41
 70
     1
102
RTVSPost2010Prop42
 90
       50
102
RTVSPost2010PropOp42
 70
     1
102
RTVSPost2010Prop43
 90
        3
102
RTVSPost2010PropOp43
 70
     1
102
RTVSPost2010Prop44ColorIndex
 90
        5
102
RTVSPost2010Prop44ColorRGB
 90
      255
102
RTVSPost2010PropOp44
 70
     1
102
RTVSPost2010Prop45
280
     0
102
RTVSPost2010PropOp45
 70
     1
102
RTVSPost2010Prop46
 90
       50
102
RTVSPost2010PropOp46
 70
     1
102
RTVSPost2010Prop47
 90
       50
102
RTVSPost2010PropOp47
 70
     1
102
RTVSPost2010Prop48
 90
       50
102
RTVSPost2010PropOp48
 70
     1
102
RTVSPost2010Prop49
280
     0
102
RTVSPost2010PropOp49
 70
     1
102
RTVSPost2010Prop50
 90
       50
102
RTVSPost2010PropOp50
 70
     1
102
RTVSPost2010Prop51ColorIndex
 90
      256
102
RTVSPost2010Prop51ColorRGB
 90
-16777216
102
RTVSPost2010PropOp51
 70
     0
102
RTVSPost2010Prop52
140
1.0
102
RTVSPost2010PropOp52
 70
     0
102
RTVSPost2010Prop53
 90
        2
102
RTVSPost2010PropOp53
 70
     1
102
RTVSPost2010Prop54
  1
strokes_ogs.tif
102
RTVSPost2010PropOp54
 70
     1
102
RTVSPost2010Prop55
280
     0
102
RTVSPost2010PropOp55
 70
     1
102
RTVSPost2010Prop56
140
1.0
102
RTVSPost2010PropOp56
 70
     1
102
RTVSPost2010Prop57
140
1.0
102
RTVSPost2010PropOp57
 70
     1
  0
XRECORD
  5
93046
102
{ACAD_REACTORS
330
87B1C
102
}
330
87B1C
100
AcDbXrecord
280
     1
102
RTVSPropertyOp0
 70
     1
102
RTVSPropertyOp1
 70
     1
102
RTVSPropertyOp2
 70
     1
102
RTVSPropertyOp3
 70
     1
102
RTVSPropertyOp4
 70
     1
102
RTVSPropertyOp5
 70
     1
102
RTVSPropertyOp6
 70
     1
102
RTVSPropertyOp7
 70
     1
102
RTVSPropertyOp8
 70
     1
102
RTVSPropertyOp9
 70
     1
102
RTVSPropertyOp10
 70
     1
102
RTVSPropertyOp11
 70
     1
102
RTVSPropertyOp12
 70
     1
102
RTVSPropertyOp13
 70
     1
102
RTVSPropertyOp14
 70
     1
102
RTVSPropertyOp15
 70
     1
102
RTVSPropertyOp16
 70
     1
102
RTVSPropertyOp17
 70
     1
102
RTVSPropertyOp18
 70
     1
102
RTVSPropertyOp19
 70
     1
102
RTVSPropertyOp20
 70
     1
102
RTVSPropertyOp21
 70
     1
102
RTVSPropertyOp22
 70
     1
102
RTVSPropertyOp23
 70
     1
102
RTVSPropertyOp24
 70
     1
102
RTVSPropertyOp25
 70
     1
102
RTVSPropertyOp26
 70
     1
102
RTVSPropertyOp27
 70
     1
102
RTVSPropertyOp28
 70
     1
102
RTVSPropertyOp29
 70
     1
102
RTVSPropertyOp30
 70
     1
102
RTVSPropertyOp31
 70
     1
102
RTVSPropertyOp32
 70
     1
102
RTVSPropertyOp33
 70
     1
102
RTVSPropertyOp34
 70
     1
102
RTVSPropertyOp35
 70
     1
102
RTVSPropertyOp36
 70
     1
102
RTVSPropertyOp37
 70
     1
102
RTVSPropertyOp38
 70
     1
102
RTVSPropertyOp39
 70
     1
102
RTVSPropertyOp40
 70
     1
102
RTVSPropertyOp41
 70
     1
102
RTVSPropertyOp42
 70
     1
102
RTVSPropertyOp43
 70
     1
102
RTVSPropertyOp44
 70
     1
102
RTVSPropertyOp45
 70
     1
102
RTVSPropertyOp46
 70
     1
102
RTVSPropertyOp47
 70
     1
102
RTVSPropertyOp48
 70
     1
102
RTVSPropertyOp49
 70
     1
102
RTVSPropertyOp50
 70
     1
102
RTVSPropertyOp51
 70
     0
102
RTVSPropertyOp52
 70
     0
102
RTVSPropertyOp53
 70
     1
102
RTVSPropertyOp54
 70
     1
102
RTVSPropertyOp55
 70
     1
102
RTVSPropertyOp56
 70
     1
102
RTVSPropertyOp57
 70
     1
102
RTVSPost2010Prop28
280
     0
102
RTVSPost2010PropOp28
 70
     1
102
RTVSPost2010Prop29
280
     1
102
RTVSPost2010PropOp29
 70
     1
102
RTVSPost2010Prop30
280
     1
102
RTVSPost2010PropOp30
 70
     1
102
RTVSPost2010Prop31
280
     0
102
RTVSPost2010PropOp31
 70
     1
102
RTVSPost2010Prop32
280
     0
102
RTVSPost2010PropOp32
 70
     1
102
RTVSPost2010Prop33
280
     0
102
RTVSPost2010PropOp33
 70
     1
102
RTVSPost2010Prop34
280
     0
102
RTVSPost2010PropOp34
 70
     1
102
RTVSPost2010Prop35
280
     0
102
RTVSPost2010PropOp35
 70
     1
102
RTVSPost2010Prop36
280
     0
102
RTVSPost2010PropOp36
 70
     1
102
RTVSPost2010Prop37
 90
       50
102
RTVSPost2010PropOp37
 70
     1
102
RTVSPost2010Prop38
140
0.0
102
RTVSPost2010PropOp38
 70
     1
102
RTVSPost2010Prop39
140
1.0
102
RTVSPost2010PropOp39
 70
     1
102
RTVSPost2010Prop40
 90
        0
102
RTVSPost2010PropOp40
 70
     1
102
RTVSPost2010Prop41ColorIndex
 90
       18
102
RTVSPost2010Prop41ColorRGB
 90
        0
102
RTVSPost2010PropOp41
 70
     1
102
RTVSPost2010Prop42
 90
       50
102
RTVSPost2010PropOp42
 70
     1
102
RTVSPost2010Prop43
 90
        3
102
RTVSPost2010PropOp43
 70
     1
102
RTVSPost2010Prop44ColorIndex
 90
        5
102
RTVSPost2010Prop44ColorRGB
 90
      255
102
RTVSPost2010PropOp44
 70
     1
102
RTVSPost2010Prop45
280
     0
102
RTVSPost2010PropOp45
 70
     1
102
RTVSPost2010Prop46
 90
       50
102
RTVSPost2010PropOp46
 70
     1
102
RTVSPost2010Prop47
 90
       50
102
RTVSPost2010PropOp47
 70
     1
102
RTVSPost2010Prop48
 90
       50
102
RTVSPost2010PropOp48
 70
     1
102
RTVSPost2010Prop49
280
     0
102
RTVSPost2010PropOp49
 70
     1
102
RTVSPost2010Prop50
 90
       50
102
RTVSPost2010PropOp50
 70
     1
102
RTVSPost2010Prop51ColorIndex
 90
      256
102
RTVSPost2010Prop51ColorRGB
 90
-16777216
102
RTVSPost2010PropOp51
 70
     0
102
RTVSPost2010Prop52
140
1.0
102
RTVSPost2010PropOp52
 70
     0
102
RTVSPost2010Prop53
 90
        2
102
RTVSPost2010PropOp53
 70
     1
102
RTVSPost2010Prop54
  1
strokes_ogs.tif
102
RTVSPost2010PropOp54
 70
     1
102
RTVSPost2010Prop55
280
     0
102
RTVSPost2010PropOp55
 70
     1
102
RTVSPost2010Prop56
140
1.0
102
RTVSPost2010PropOp56
 70
     1
102
RTVSPost2010Prop57
140
1.0
102
RTVSPost2010PropOp57
 70
     1
  0
XRECORD
  5
93047
102
{ACAD_REACTORS
330
87B38
102
}
330
87B38
100
AcDbXrecord
280
     1
102
RTVSPropertyOp0
 70
     0
102
RTVSPropertyOp1
 70
     0
102
RTVSPropertyOp2
 70
     0
102
RTVSPropertyOp3
 70
     0
102
RTVSPropertyOp4
 70
     0
102
RTVSPropertyOp5
 70
     0
102
RTVSPropertyOp6
 70
     0
102
RTVSPropertyOp7
 70
     0
102
RTVSPropertyOp8
 70
     0
102
RTVSPropertyOp9
 70
     0
102
RTVSPropertyOp10
 70
     0
102
RTVSPropertyOp11
 70
     0
102
RTVSPropertyOp12
 70
     0
102
RTVSPropertyOp13
 70
     0
102
RTVSPropertyOp14
 70
     2
102
RTVSPropertyOp15
 70
     0
102
RTVSPropertyOp16
 70
     0
102
RTVSPropertyOp17
 70
     0
102
RTVSPropertyOp18
 70
     0
102
RTVSPropertyOp19
 70
     0
102
RTVSPropertyOp20
 70
     0
102
RTVSPropertyOp21
 70
     0
102
RTVSPropertyOp22
 70
     0
102
RTVSPropertyOp23
 70
     0
102
RTVSPropertyOp24
 70
     0
102
RTVSPropertyOp25
 70
     0
102
RTVSPropertyOp26
 70
     0
102
RTVSPropertyOp27
 70
     0
102
RTVSPropertyOp28
 70
     1
102
RTVSPropertyOp29
 70
     1
102
RTVSPropertyOp30
 70
     1
102
RTVSPropertyOp31
 70
     1
102
RTVSPropertyOp32
 70
     1
102
RTVSPropertyOp33
 70
     1
102
RTVSPropertyOp34
 70
     1
102
RTVSPropertyOp35
 70
     1
102
RTVSPropertyOp36
 70
     1
102
RTVSPropertyOp37
 70
     0
102
RTVSPropertyOp38
 70
     0
102
RTVSPropertyOp39
 70
     0
102
RTVSPropertyOp40
 70
     0
102
RTVSPropertyOp41
 70
     0
102
RTVSPropertyOp42
 70
     0
102
RTVSPropertyOp43
 70
     0
102
RTVSPropertyOp44
 70
     0
102
RTVSPropertyOp45
 70
     1
102
RTVSPropertyOp46
 70
     0
102
RTVSPropertyOp47
 70
     0
102
RTVSPropertyOp48
 70
     0
102
RTVSPropertyOp49
 70
     1
102
RTVSPropertyOp50
 70
     0
102
RTVSPropertyOp51
 70
     0
102
RTVSPropertyOp52
 70
     0
102
RTVSPropertyOp53
 70
     0
102
RTVSPropertyOp54
 70
     0
102
RTVSPropertyOp55
 70
     1
102
RTVSPropertyOp56
 70
     0
102
RTVSPropertyOp57
 70
     0
102
RTVSPost2010Prop28
280
     0
102
RTVSPost2010PropOp28
 70
     1
102
RTVSPost2010Prop29
280
     1
102
RTVSPost2010PropOp29
 70
     1
102
RTVSPost2010Prop30
280
     1
102
RTVSPost2010PropOp30
 70
     1
102
RTVSPost2010Prop31
280
     0
102
RTVSPost2010PropOp31
 70
     1
102
RTVSPost2010Prop32
280
     0
102
RTVSPost2010PropOp32
 70
     1
102
RTVSPost2010Prop33
280
     0
102
RTVSPost2010PropOp33
 70
     1
102
RTVSPost2010Prop34
280
     0
102
RTVSPost2010PropOp34
 70
     1
102
RTVSPost2010Prop35
280
     0
102
RTVSPost2010PropOp35
 70
     1
102
RTVSPost2010Prop36
280
     0
102
RTVSPost2010PropOp36
 70
     1
102
RTVSPost2010Prop37
 90
       50
102
RTVSPost2010PropOp37
 70
     0
102
RTVSPost2010Prop38
140
0.0
102
RTVSPost2010PropOp38
 70
     0
102
RTVSPost2010Prop39
140
1.0
102
RTVSPost2010PropOp39
 70
     0
102
RTVSPost2010Prop40
 90
        0
102
RTVSPost2010PropOp40
 70
     0
102
RTVSPost2010Prop41ColorIndex
 90
       18
102
RTVSPost2010Prop41ColorRGB
 90
        0
102
RTVSPost2010PropOp41
 70
     0
102
RTVSPost2010Prop42
 90
       50
102
RTVSPost2010PropOp42
 70
     0
102
RTVSPost2010Prop43
 90
        3
102
RTVSPost2010PropOp43
 70
     0
102
RTVSPost2010Prop44ColorIndex
 90
        5
102
RTVSPost2010Prop44ColorRGB
 90
      255
102
RTVSPost2010PropOp44
 70
     0
102
RTVSPost2010Prop45
280
     0
102
RTVSPost2010PropOp45
 70
     1
102
RTVSPost2010Prop46
 90
       50
102
RTVSPost2010PropOp46
 70
     0
102
RTVSPost2010Prop47
 90
       50
102
RTVSPost2010PropOp47
 70
     0
102
RTVSPost2010Prop48
 90
       50
102
RTVSPost2010PropOp48
 70
     0
102
RTVSPost2010Prop49
280
     0
102
RTVSPost2010PropOp49
 70
     1
102
RTVSPost2010Prop50
 90
       50
102
RTVSPost2010PropOp50
 70
     0
102
RTVSPost2010Prop51ColorIndex
 90
      256
102
RTVSPost2010Prop51ColorRGB
 90
-16777216
102
RTVSPost2010PropOp51
 70
     0
102
RTVSPost2010Prop52
140
1.0
102
RTVSPost2010PropOp52
 70
     0
102
RTVSPost2010Prop53
 90
        2
102
RTVSPost2010PropOp53
 70
     0
102
RTVSPost2010Prop54
  1
strokes_ogs.tif
102
RTVSPost2010PropOp54
 70
     0
102
RTVSPost2010Prop55
280
     0
102
RTVSPost2010PropOp55
 70
     1
102
RTVSPost2010Prop56
140
1.0
102
RTVSPost2010PropOp56
 70
     0
102
RTVSPost2010Prop57
140
1.0
102
RTVSPost2010PropOp57
 70
     0
  0
XRECORD
  5
93048
102
{ACAD_REACTORS
330
87B28
102
}
330
87B28
100
AcDbXrecord
280
     1
102
RTVSPropertyOp0
 70
     1
102
RTVSPropertyOp1
 70
     1
102
RTVSPropertyOp2
 70
     1
102
RTVSPropertyOp3
 70
     1
102
RTVSPropertyOp4
 70
     1
102
RTVSPropertyOp5
 70
     1
102
RTVSPropertyOp6
 70
     1
102
RTVSPropertyOp7
 70
     1
102
RTVSPropertyOp8
 70
     1
102
RTVSPropertyOp9
 70
     1
102
RTVSPropertyOp10
 70
     1
102
RTVSPropertyOp11
 70
     1
102
RTVSPropertyOp12
 70
     1
102
RTVSPropertyOp13
 70
     1
102
RTVSPropertyOp14
 70
     1
102
RTVSPropertyOp15
 70
     1
102
RTVSPropertyOp16
 70
     1
102
RTVSPropertyOp17
 70
     1
102
RTVSPropertyOp18
 70
     1
102
RTVSPropertyOp19
 70
     1
102
RTVSPropertyOp20
 70
     1
102
RTVSPropertyOp21
 70
     1
102
RTVSPropertyOp22
 70
     1
102
RTVSPropertyOp23
 70
     1
102
RTVSPropertyOp24
 70
     1
102
RTVSPropertyOp25
 70
     1
102
RTVSPropertyOp26
 70
     1
102
RTVSPropertyOp27
 70
     1
102
RTVSPropertyOp28
 70
     1
102
RTVSPropertyOp29
 70
     1
102
RTVSPropertyOp30
 70
     1
102
RTVSPropertyOp31
 70
     1
102
RTVSPropertyOp32
 70
     1
102
RTVSPropertyOp33
 70
     1
102
RTVSPropertyOp34
 70
     1
102
RTVSPropertyOp35
 70
     1
102
RTVSPropertyOp36
 70
     1
102
RTVSPropertyOp37
 70
     1
102
RTVSPropertyOp38
 70
     1
102
RTVSPropertyOp39
 70
     1
102
RTVSPropertyOp40
 70
     1
102
RTVSPropertyOp41
 70
     1
102
RTVSPropertyOp42
 70
     1
102
RTVSPropertyOp43
 70
     1
102
RTVSPropertyOp44
 70
     1
102
RTVSPropertyOp45
 70
     1
102
RTVSPropertyOp46
 70
     1
102
RTVSPropertyOp47
 70
     1
102
RTVSPropertyOp48
 70
     1
102
RTVSPropertyOp49
 70
     1
102
RTVSPropertyOp50
 70
     1
102
RTVSPropertyOp51
 70
     0
102
RTVSPropertyOp52
 70
     0
102
RTVSPropertyOp53
 70
     1
102
RTVSPropertyOp54
 70
     1
102
RTVSPropertyOp55
 70
     1
102
RTVSPropertyOp56
 70
     1
102
RTVSPropertyOp57
 70
     1
102
RTVSPost2010Prop28
280
     0
102
RTVSPost2010PropOp28
 70
     1
102
RTVSPost2010Prop29
280
     1
102
RTVSPost2010PropOp29
 70
     1
102
RTVSPost2010Prop30
280
     1
102
RTVSPost2010PropOp30
 70
     1
102
RTVSPost2010Prop31
280
     0
102
RTVSPost2010PropOp31
 70
     1
102
RTVSPost2010Prop32
280
     0
102
RTVSPost2010PropOp32
 70
     1
102
RTVSPost2010Prop33
280
     0
102
RTVSPost2010PropOp33
 70
     1
102
RTVSPost2010Prop34
280
     0
102
RTVSPost2010PropOp34
 70
     1
102
RTVSPost2010Prop35
280
     0
102
RTVSPost2010PropOp35
 70
     1
102
RTVSPost2010Prop36
280
     0
102
RTVSPost2010PropOp36
 70
     1
102
RTVSPost2010Prop37
 90
       50
102
RTVSPost2010PropOp37
 70
     1
102
RTVSPost2010Prop38
140
0.0
102
RTVSPost2010PropOp38
 70
     1
102
RTVSPost2010Prop39
140
1.0
102
RTVSPost2010PropOp39
 70
     1
102
RTVSPost2010Prop40
 90
        0
102
RTVSPost2010PropOp40
 70
     1
102
RTVSPost2010Prop41ColorIndex
 90
       18
102
RTVSPost2010Prop41ColorRGB
 90
        0
102
RTVSPost2010PropOp41
 70
     1
102
RTVSPost2010Prop42
 90
       50
102
RTVSPost2010PropOp42
 70
     1
102
RTVSPost2010Prop43
 90
        3
102
RTVSPost2010PropOp43
 70
     1
102
RTVSPost2010Prop44ColorIndex
 90
        5
102
RTVSPost2010Prop44ColorRGB
 90
      255
102
RTVSPost2010PropOp44
 70
     1
102
RTVSPost2010Prop45
280
     0
102
RTVSPost2010PropOp45
 70
     1
102
RTVSPost2010Prop46
 90
       50
102
RTVSPost2010PropOp46
 70
     1
102
RTVSPost2010Prop47
 90
       50
102
RTVSPost2010PropOp47
 70
     1
102
RTVSPost2010Prop48
 90
       50
102
RTVSPost2010PropOp48
 70
     1
102
RTVSPost2010Prop49
280
     0
102
RTVSPost2010PropOp49
 70
     1
102
RTVSPost2010Prop50
 90
       50
102
RTVSPost2010PropOp50
 70
     1
102
RTVSPost2010Prop51ColorIndex
 90
      256
102
RTVSPost2010Prop51ColorRGB
 90
-16777216
102
RTVSPost2010PropOp51
 70
     0
102
RTVSPost2010Prop52
140
1.0
102
RTVSPost2010PropOp52
 70
     0
102
RTVSPost2010Prop53
 90
        2
102
RTVSPost2010PropOp53
 70
     1
102
RTVSPost2010Prop54
  1
strokes_ogs.tif
102
RTVSPost2010PropOp54
 70
     1
102
RTVSPost2010Prop55
280
     0
102
RTVSPost2010PropOp55
 70
     1
102
RTVSPost2010Prop56
140
1.0
102
RTVSPost2010PropOp56
 70
     1
102
RTVSPost2010Prop57
140
1.0
102
RTVSPost2010PropOp57
 70
     1
  0
XRECORD
  5
93049
102
{ACAD_REACTORS
330
87B3A
102
}
330
87B3A
100
AcDbXrecord
280
     1
102
RTVSPropertyOp0
 70
     0
102
RTVSPropertyOp1
 70
     0
102
RTVSPropertyOp2
 70
     0
102
RTVSPropertyOp3
 70
     0
102
RTVSPropertyOp4
 70
     0
102
RTVSPropertyOp5
 70
     0
102
RTVSPropertyOp6
 70
     0
102
RTVSPropertyOp7
 70
     0
102
RTVSPropertyOp8
 70
     0
102
RTVSPropertyOp9
 70
     0
102
RTVSPropertyOp10
 70
     0
102
RTVSPropertyOp11
 70
     0
102
RTVSPropertyOp12
 70
     0
102
RTVSPropertyOp13
 70
     0
102
RTVSPropertyOp14
 70
     2
102
RTVSPropertyOp15
 70
     0
102
RTVSPropertyOp16
 70
     0
102
RTVSPropertyOp17
 70
     0
102
RTVSPropertyOp18
 70
     0
102
RTVSPropertyOp19
 70
     0
102
RTVSPropertyOp20
 70
     0
102
RTVSPropertyOp21
 70
     0
102
RTVSPropertyOp22
 70
     0
102
RTVSPropertyOp23
 70
     0
102
RTVSPropertyOp24
 70
     0
102
RTVSPropertyOp25
 70
     0
102
RTVSPropertyOp26
 70
     0
102
RTVSPropertyOp27
 70
     0
102
RTVSPropertyOp28
 70
     1
102
RTVSPropertyOp29
 70
     1
102
RTVSPropertyOp30
 70
     1
102
RTVSPropertyOp31
 70
     1
102
RTVSPropertyOp32
 70
     1
102
RTVSPropertyOp33
 70
     1
102
RTVSPropertyOp34
 70
     1
102
RTVSPropertyOp35
 70
     1
102
RTVSPropertyOp36
 70
     1
102
RTVSPropertyOp37
 70
     0
102
RTVSPropertyOp38
 70
     0
102
RTVSPropertyOp39
 70
     0
102
RTVSPropertyOp40
 70
     0
102
RTVSPropertyOp41
 70
     0
102
RTVSPropertyOp42
 70
     0
102
RTVSPropertyOp43
 70
     0
102
RTVSPropertyOp44
 70
     0
102
RTVSPropertyOp45
 70
     1
102
RTVSPropertyOp46
 70
     0
102
RTVSPropertyOp47
 70
     0
102
RTVSPropertyOp48
 70
     0
102
RTVSPropertyOp49
 70
     1
102
RTVSPropertyOp50
 70
     0
102
RTVSPropertyOp51
 70
     0
102
RTVSPropertyOp52
 70
     0
102
RTVSPropertyOp53
 70
     0
102
RTVSPropertyOp54
 70
     0
102
RTVSPropertyOp55
 70
     1
102
RTVSPropertyOp56
 70
     0
102
RTVSPropertyOp57
 70
     0
102
RTVSPost2010Prop28
280
     0
102
RTVSPost2010PropOp28
 70
     1
102
RTVSPost2010Prop29
280
     1
102
RTVSPost2010PropOp29
 70
     1
102
RTVSPost2010Prop30
280
     1
102
RTVSPost2010PropOp30
 70
     1
102
RTVSPost2010Prop31
280
     0
102
RTVSPost2010PropOp31
 70
     1
102
RTVSPost2010Prop32
280
     0
102
RTVSPost2010PropOp32
 70
     1
102
RTVSPost2010Prop33
280
     0
102
RTVSPost2010PropOp33
 70
     1
102
RTVSPost2010Prop34
280
     0
102
RTVSPost2010PropOp34
 70
     1
102
RTVSPost2010Prop35
280
     0
102
RTVSPost2010PropOp35
 70
     1
102
RTVSPost2010Prop36
280
     0
102
RTVSPost2010PropOp36
 70
     1
102
RTVSPost2010Prop37
 90
       50
102
RTVSPost2010PropOp37
 70
     0
102
RTVSPost2010Prop38
140
0.0
102
RTVSPost2010PropOp38
 70
     0
102
RTVSPost2010Prop39
140
1.0
102
RTVSPost2010PropOp39
 70
     0
102
RTVSPost2010Prop40
 90
        0
102
RTVSPost2010PropOp40
 70
     0
102
RTVSPost2010Prop41ColorIndex
 90
       18
102
RTVSPost2010Prop41ColorRGB
 90
        0
102
RTVSPost2010PropOp41
 70
     0
102
RTVSPost2010Prop42
 90
       50
102
RTVSPost2010PropOp42
 70
     0
102
RTVSPost2010Prop43
 90
        3
102
RTVSPost2010PropOp43
 70
     0
102
RTVSPost2010Prop44ColorIndex
 90
        5
102
RTVSPost2010Prop44ColorRGB
 90
      255
102
RTVSPost2010PropOp44
 70
     0
102
RTVSPost2010Prop45
280
     0
102
RTVSPost2010PropOp45
 70
     1
102
RTVSPost2010Prop46
 90
       50
102
RTVSPost2010PropOp46
 70
     0
102
RTVSPost2010Prop47
 90
       50
102
RTVSPost2010PropOp47
 70
     0
102
RTVSPost2010Prop48
 90
       50
102
RTVSPost2010PropOp48
 70
     0
102
RTVSPost2010Prop49
280
     0
102
RTVSPost2010PropOp49
 70
     1
102
RTVSPost2010Prop50
 90
       50
102
RTVSPost2010PropOp50
 70
     0
102
RTVSPost2010Prop51ColorIndex
 90
      256
102
RTVSPost2010Prop51ColorRGB
 90
-16777216
102
RTVSPost2010PropOp51
 70
     0
102
RTVSPost2010Prop52
140
1.0
102
RTVSPost2010PropOp52
 70
     0
102
RTVSPost2010Prop53
 90
        2
102
RTVSPost2010PropOp53
 70
     0
102
RTVSPost2010Prop54
  1
strokes_ogs.tif
102
RTVSPost2010PropOp54
 70
     0
102
RTVSPost2010Prop55
280
     0
102
RTVSPost2010PropOp55
 70
     1
102
RTVSPost2010Prop56
140
1.0
102
RTVSPost2010PropOp56
 70
     0
102
RTVSPost2010Prop57
140
1.0
102
RTVSPost2010PropOp57
 70
     0
  0
XRECORD
  5
9304A
102
{ACAD_REACTORS
330
87B20
102
}
330
87B20
100
AcDbXrecord
280
     1
102
RTVSPropertyOp0
 70
     1
102
RTVSPropertyOp1
 70
     1
102
RTVSPropertyOp2
 70
     1
102
RTVSPropertyOp3
 70
     1
102
RTVSPropertyOp4
 70
     1
102
RTVSPropertyOp5
 70
     1
102
RTVSPropertyOp6
 70
     1
102
RTVSPropertyOp7
 70
     1
102
RTVSPropertyOp8
 70
     1
102
RTVSPropertyOp9
 70
     1
102
RTVSPropertyOp10
 70
     1
102
RTVSPropertyOp11
 70
     1
102
RTVSPropertyOp12
 70
     1
102
RTVSPropertyOp13
 70
     1
102
RTVSPropertyOp14
 70
     1
102
RTVSPropertyOp15
 70
     1
102
RTVSPropertyOp16
 70
     1
102
RTVSPropertyOp17
 70
     1
102
RTVSPropertyOp18
 70
     1
102
RTVSPropertyOp19
 70
     1
102
RTVSPropertyOp20
 70
     1
102
RTVSPropertyOp21
 70
     1
102
RTVSPropertyOp22
 70
     1
102
RTVSPropertyOp23
 70
     1
102
RTVSPropertyOp24
 70
     1
102
RTVSPropertyOp25
 70
     1
102
RTVSPropertyOp26
 70
     1
102
RTVSPropertyOp27
 70
     1
102
RTVSPropertyOp28
 70
     1
102
RTVSPropertyOp29
 70
     1
102
RTVSPropertyOp30
 70
     1
102
RTVSPropertyOp31
 70
     1
102
RTVSPropertyOp32
 70
     1
102
RTVSPropertyOp33
 70
     1
102
RTVSPropertyOp34
 70
     1
102
RTVSPropertyOp35
 70
     1
102
RTVSPropertyOp36
 70
     1
102
RTVSPropertyOp37
 70
     1
102
RTVSPropertyOp38
 70
     1
102
RTVSPropertyOp39
 70
     1
102
RTVSPropertyOp40
 70
     1
102
RTVSPropertyOp41
 70
     1
102
RTVSPropertyOp42
 70
     1
102
RTVSPropertyOp43
 70
     1
102
RTVSPropertyOp44
 70
     1
102
RTVSPropertyOp45
 70
     1
102
RTVSPropertyOp46
 70
     1
102
RTVSPropertyOp47
 70
     1
102
RTVSPropertyOp48
 70
     1
102
RTVSPropertyOp49
 70
     1
102
RTVSPropertyOp50
 70
     1
102
RTVSPropertyOp51
 70
     0
102
RTVSPropertyOp52
 70
     0
102
RTVSPropertyOp53
 70
     1
102
RTVSPropertyOp54
 70
     1
102
RTVSPropertyOp55
 70
     1
102
RTVSPropertyOp56
 70
     1
102
RTVSPropertyOp57
 70
     1
102
RTVSPost2010Prop28
280
     0
102
RTVSPost2010PropOp28
 70
     1
102
RTVSPost2010Prop29
280
     1
102
RTVSPost2010PropOp29
 70
     1
102
RTVSPost2010Prop30
280
     1
102
RTVSPost2010PropOp30
 70
     1
102
RTVSPost2010Prop31
280
     0
102
RTVSPost2010PropOp31
 70
     1
102
RTVSPost2010Prop32
280
     0
102
RTVSPost2010PropOp32
 70
     1
102
RTVSPost2010Prop33
280
     0
102
RTVSPost2010PropOp33
 70
     1
102
RTVSPost2010Prop34
280
     0
102
RTVSPost2010PropOp34
 70
     1
102
RTVSPost2010Prop35
280
     0
102
RTVSPost2010PropOp35
 70
     1
102
RTVSPost2010Prop36
280
     0
102
RTVSPost2010PropOp36
 70
     1
102
RTVSPost2010Prop37
 90
       50
102
RTVSPost2010PropOp37
 70
     1
102
RTVSPost2010Prop38
140
0.0
102
RTVSPost2010PropOp38
 70
     1
102
RTVSPost2010Prop39
140
1.0
102
RTVSPost2010PropOp39
 70
     1
102
RTVSPost2010Prop40
 90
        0
102
RTVSPost2010PropOp40
 70
     1
102
RTVSPost2010Prop41ColorIndex
 90
       18
102
RTVSPost2010Prop41ColorRGB
 90
        0
102
RTVSPost2010PropOp41
 70
     1
102
RTVSPost2010Prop42
 90
       50
102
RTVSPost2010PropOp42
 70
     1
102
RTVSPost2010Prop43
 90
        3
102
RTVSPost2010PropOp43
 70
     1
102
RTVSPost2010Prop44ColorIndex
 90
        5
102
RTVSPost2010Prop44ColorRGB
 90
      255
102
RTVSPost2010PropOp44
 70
     1
102
RTVSPost2010Prop45
280
     0
102
RTVSPost2010PropOp45
 70
     1
102
RTVSPost2010Prop46
 90
       50
102
RTVSPost2010PropOp46
 70
     1
102
RTVSPost2010Prop47
 90
       50
102
RTVSPost2010PropOp47
 70
     1
102
RTVSPost2010Prop48
 90
       50
102
RTVSPost2010PropOp48
 70
     1
102
RTVSPost2010Prop49
280
     0
102
RTVSPost2010PropOp49
 70
     1
102
RTVSPost2010Prop50
 90
       50
102
RTVSPost2010PropOp50
 70
     1
102
RTVSPost2010Prop51ColorIndex
 90
      256
102
RTVSPost2010Prop51ColorRGB
 90
-16777216
102
RTVSPost2010PropOp51
 70
     0
102
RTVSPost2010Prop52
140
1.0
102
RTVSPost2010PropOp52
 70
     0
102
RTVSPost2010Prop53
 90
        2
102
RTVSPost2010PropOp53
 70
     1
102
RTVSPost2010Prop54
  1
strokes_ogs.tif
102
RTVSPost2010PropOp54
 70
     1
102
RTVSPost2010Prop55
280
     0
102
RTVSPost2010PropOp55
 70
     1
102
RTVSPost2010Prop56
140
1.0
102
RTVSPost2010PropOp56
 70
     1
102
RTVSPost2010Prop57
140
1.0
102
RTVSPost2010PropOp57
 70
     1
  0
XRECORD
  5
9304B
102
{ACAD_REACTORS
330
87B36
102
}
330
87B36
100
AcDbXrecord
280
     1
102
RTVSPropertyOp0
 70
     1
102
RTVSPropertyOp1
 70
     1
102
RTVSPropertyOp2
 70
     1
102
RTVSPropertyOp3
 70
     1
102
RTVSPropertyOp4
 70
     1
102
RTVSPropertyOp5
 70
     1
102
RTVSPropertyOp6
 70
     1
102
RTVSPropertyOp7
 70
     1
102
RTVSPropertyOp8
 70
     1
102
RTVSPropertyOp9
 70
     1
102
RTVSPropertyOp10
 70
     1
102
RTVSPropertyOp11
 70
     1
102
RTVSPropertyOp12
 70
     1
102
RTVSPropertyOp13
 70
     1
102
RTVSPropertyOp14
 70
     1
102
RTVSPropertyOp15
 70
     1
102
RTVSPropertyOp16
 70
     1
102
RTVSPropertyOp17
 70
     1
102
RTVSPropertyOp18
 70
     1
102
RTVSPropertyOp19
 70
     1
102
RTVSPropertyOp20
 70
     1
102
RTVSPropertyOp21
 70
     1
102
RTVSPropertyOp22
 70
     1
102
RTVSPropertyOp23
 70
     1
102
RTVSPropertyOp24
 70
     1
102
RTVSPropertyOp25
 70
     1
102
RTVSPropertyOp26
 70
     1
102
RTVSPropertyOp27
 70
     1
102
RTVSPropertyOp28
 70
     1
102
RTVSPropertyOp29
 70
     1
102
RTVSPropertyOp30
 70
     1
102
RTVSPropertyOp31
 70
     1
102
RTVSPropertyOp32
 70
     1
102
RTVSPropertyOp33
 70
     1
102
RTVSPropertyOp34
 70
     1
102
RTVSPropertyOp35
 70
     1
102
RTVSPropertyOp36
 70
     1
102
RTVSPropertyOp37
 70
     1
102
RTVSPropertyOp38
 70
     1
102
RTVSPropertyOp39
 70
     1
102
RTVSPropertyOp40
 70
     1
102
RTVSPropertyOp41
 70
     1
102
RTVSPropertyOp42
 70
     1
102
RTVSPropertyOp43
 70
     1
102
RTVSPropertyOp44
 70
     1
102
RTVSPropertyOp45
 70
     1
102
RTVSPropertyOp46
 70
     1
102
RTVSPropertyOp47
 70
     1
102
RTVSPropertyOp48
 70
     1
102
RTVSPropertyOp49
 70
     1
102
RTVSPropertyOp50
 70
     1
102
RTVSPropertyOp51
 70
     0
102
RTVSPropertyOp52
 70
     0
102
RTVSPropertyOp53
 70
     1
102
RTVSPropertyOp54
 70
     1
102
RTVSPropertyOp55
 70
     1
102
RTVSPropertyOp56
 70
     1
102
RTVSPropertyOp57
 70
     1
102
RTVSPost2010Prop28
280
     0
102
RTVSPost2010PropOp28
 70
     1
102
RTVSPost2010Prop29
280
     1
102
RTVSPost2010PropOp29
 70
     1
102
RTVSPost2010Prop30
280
     1
102
RTVSPost2010PropOp30
 70
     1
102
RTVSPost2010Prop31
280
     0
102
RTVSPost2010PropOp31
 70
     1
102
RTVSPost2010Prop32
280
     0
102
RTVSPost2010PropOp32
 70
     1
102
RTVSPost2010Prop33
280
     0
102
RTVSPost2010PropOp33
 70
     1
102
RTVSPost2010Prop34
280
     0
102
RTVSPost2010PropOp34
 70
     1
102
RTVSPost2010Prop35
280
     0
102
RTVSPost2010PropOp35
 70
     1
102
RTVSPost2010Prop36
280
     0
102
RTVSPost2010PropOp36
 70
     1
102
RTVSPost2010Prop37
 90
       50
102
RTVSPost2010PropOp37
 70
     1
102
RTVSPost2010Prop38
140
0.0
102
RTVSPost2010PropOp38
 70
     1
102
RTVSPost2010Prop39
140
1.0
102
RTVSPost2010PropOp39
 70
     1
102
RTVSPost2010Prop40
 90
        0
102
RTVSPost2010PropOp40
 70
     1
102
RTVSPost2010Prop41ColorIndex
 90
       18
102
RTVSPost2010Prop41ColorRGB
 90
        0
102
RTVSPost2010PropOp41
 70
     1
102
RTVSPost2010Prop42
 90
       50
102
RTVSPost2010PropOp42
 70
     1
102
RTVSPost2010Prop43
 90
        3
102
RTVSPost2010PropOp43
 70
     1
102
RTVSPost2010Prop44ColorIndex
 90
        5
102
RTVSPost2010Prop44ColorRGB
 90
      255
102
RTVSPost2010PropOp44
 70
     1
102
RTVSPost2010Prop45
280
     0
102
RTVSPost2010PropOp45
 70
     1
102
RTVSPost2010Prop46
 90
       50
102
RTVSPost2010PropOp46
 70
     1
102
RTVSPost2010Prop47
 90
       50
102
RTVSPost2010PropOp47
 70
     1
102
RTVSPost2010Prop48
 90
       50
102
RTVSPost2010PropOp48
 70
     1
102
RTVSPost2010Prop49
280
     0
102
RTVSPost2010PropOp49
 70
     1
102
RTVSPost2010Prop50
 90
       50
102
RTVSPost2010PropOp50
 70
     1
102
RTVSPost2010Prop51ColorIndex
 90
      256
102
RTVSPost2010Prop51ColorRGB
 90
-16777216
102
RTVSPost2010PropOp51
 70
     0
102
RTVSPost2010Prop52
140
1.0
102
RTVSPost2010PropOp52
 70
     0
102
RTVSPost2010Prop53
 90
        2
102
RTVSPost2010PropOp53
 70
     1
102
RTVSPost2010Prop54
  1
strokes_ogs.tif
102
RTVSPost2010PropOp54
 70
     1
102
RTVSPost2010Prop55
280
     0
102
RTVSPost2010PropOp55
 70
     1
102
RTVSPost2010Prop56
140
1.0
102
RTVSPost2010PropOp56
 70
     1
102
RTVSPost2010Prop57
140
1.0
102
RTVSPost2010PropOp57
 70
     1
  0
XRECORD
  5
9304C
102
{ACAD_REACTORS
330
87B34
102
}
330
87B34
100
AcDbXrecord
280
     1
102
RTVSPropertyOp0
 70
     1
102
RTVSPropertyOp1
 70
     1
102
RTVSPropertyOp2
 70
     1
102
RTVSPropertyOp3
 70
     1
102
RTVSPropertyOp4
 70
     1
102
RTVSPropertyOp5
 70
     1
102
RTVSPropertyOp6
 70
     1
102
RTVSPropertyOp7
 70
     1
102
RTVSPropertyOp8
 70
     1
102
RTVSPropertyOp9
 70
     1
102
RTVSPropertyOp10
 70
     1
102
RTVSPropertyOp11
 70
     1
102
RTVSPropertyOp12
 70
     1
102
RTVSPropertyOp13
 70
     1
102
RTVSPropertyOp14
 70
     1
102
RTVSPropertyOp15
 70
     1
102
RTVSPropertyOp16
 70
     1
102
RTVSPropertyOp17
 70
     1
102
RTVSPropertyOp18
 70
     1
102
RTVSPropertyOp19
 70
     1
102
RTVSPropertyOp20
 70
     1
102
RTVSPropertyOp21
 70
     1
102
RTVSPropertyOp22
 70
     1
102
RTVSPropertyOp23
 70
     1
102
RTVSPropertyOp24
 70
     1
102
RTVSPropertyOp25
 70
     1
102
RTVSPropertyOp26
 70
     1
102
RTVSPropertyOp27
 70
     1
102
RTVSPropertyOp28
 70
     1
102
RTVSPropertyOp29
 70
     1
102
RTVSPropertyOp30
 70
     1
102
RTVSPropertyOp31
 70
     1
102
RTVSPropertyOp32
 70
     1
102
RTVSPropertyOp33
 70
     1
102
RTVSPropertyOp34
 70
     1
102
RTVSPropertyOp35
 70
     1
102
RTVSPropertyOp36
 70
     1
102
RTVSPropertyOp37
 70
     1
102
RTVSPropertyOp38
 70
     1
102
RTVSPropertyOp39
 70
     1
102
RTVSPropertyOp40
 70
     1
102
RTVSPropertyOp41
 70
     1
102
RTVSPropertyOp42
 70
     1
102
RTVSPropertyOp43
 70
     1
102
RTVSPropertyOp44
 70
     1
102
RTVSPropertyOp45
 70
     1
102
RTVSPropertyOp46
 70
     1
102
RTVSPropertyOp47
 70
     1
102
RTVSPropertyOp48
 70
     1
102
RTVSPropertyOp49
 70
     1
102
RTVSPropertyOp50
 70
     1
102
RTVSPropertyOp51
 70
     0
102
RTVSPropertyOp52
 70
     0
102
RTVSPropertyOp53
 70
     1
102
RTVSPropertyOp54
 70
     1
102
RTVSPropertyOp55
 70
     1
102
RTVSPropertyOp56
 70
     1
102
RTVSPropertyOp57
 70
     1
102
RTVSPost2010Prop28
280
     0
102
RTVSPost2010PropOp28
 70
     1
102
RTVSPost2010Prop29
280
     1
102
RTVSPost2010PropOp29
 70
     1
102
RTVSPost2010Prop30
280
     1
102
RTVSPost2010PropOp30
 70
     1
102
RTVSPost2010Prop31
280
     0
102
RTVSPost2010PropOp31
 70
     1
102
RTVSPost2010Prop32
280
     0
102
RTVSPost2010PropOp32
 70
     1
102
RTVSPost2010Prop33
280
     0
102
RTVSPost2010PropOp33
 70
     1
102
RTVSPost2010Prop34
280
     0
102
RTVSPost2010PropOp34
 70
     1
102
RTVSPost2010Prop35
280
     0
102
RTVSPost2010PropOp35
 70
     1
102
RTVSPost2010Prop36
280
     0
102
RTVSPost2010PropOp36
 70
     1
102
RTVSPost2010Prop37
 90
       50
102
RTVSPost2010PropOp37
 70
     1
102
RTVSPost2010Prop38
140
0.0
102
RTVSPost2010PropOp38
 70
     1
102
RTVSPost2010Prop39
140
1.0
102
RTVSPost2010PropOp39
 70
     1
102
RTVSPost2010Prop40
 90
        0
102
RTVSPost2010PropOp40
 70
     1
102
RTVSPost2010Prop41ColorIndex
 90
       18
102
RTVSPost2010Prop41ColorRGB
 90
        0
102
RTVSPost2010PropOp41
 70
     1
102
RTVSPost2010Prop42
 90
       50
102
RTVSPost2010PropOp42
 70
     1
102
RTVSPost2010Prop43
 90
        3
102
RTVSPost2010PropOp43
 70
     1
102
RTVSPost2010Prop44ColorIndex
 90
        5
102
RTVSPost2010Prop44ColorRGB
 90
      255
102
RTVSPost2010PropOp44
 70
     1
102
RTVSPost2010Prop45
280
     0
102
RTVSPost2010PropOp45
 70
     1
102
RTVSPost2010Prop46
 90
       50
102
RTVSPost2010PropOp46
 70
     1
102
RTVSPost2010Prop47
 90
       50
102
RTVSPost2010PropOp47
 70
     1
102
RTVSPost2010Prop48
 90
       50
102
RTVSPost2010PropOp48
 70
     1
102
RTVSPost2010Prop49
280
     0
102
RTVSPost2010PropOp49
 70
     1
102
RTVSPost2010Prop50
 90
       50
102
RTVSPost2010PropOp50
 70
     1
102
RTVSPost2010Prop51ColorIndex
 90
      256
102
RTVSPost2010Prop51ColorRGB
 90
-16777216
102
RTVSPost2010PropOp51
 70
     0
102
RTVSPost2010Prop52
140
1.0
102
RTVSPost2010PropOp52
 70
     0
102
RTVSPost2010Prop53
 90
        2
102
RTVSPost2010PropOp53
 70
     1
102
RTVSPost2010Prop54
  1
strokes_ogs.tif
102
RTVSPost2010PropOp54
 70
     1
102
RTVSPost2010Prop55
280
     0
102
RTVSPost2010PropOp55
 70
     1
102
RTVSPost2010Prop56
140
1.0
102
RTVSPost2010PropOp56
 70
     1
102
RTVSPost2010Prop57
140
1.0
102
RTVSPost2010PropOp57
 70
     1
  0
XRECORD
  5
9304D
102
{ACAD_REACTORS
330
87B2E
102
}
330
87B2E
100
AcDbXrecord
280
     1
102
RTVSPropertyOp0
 70
     1
102
RTVSPropertyOp1
 70
     1
102
RTVSPropertyOp2
 70
     1
102
RTVSPropertyOp3
 70
     1
102
RTVSPropertyOp4
 70
     1
102
RTVSPropertyOp5
 70
     1
102
RTVSPropertyOp6
 70
     1
102
RTVSPropertyOp7
 70
     1
102
RTVSPropertyOp8
 70
     1
102
RTVSPropertyOp9
 70
     1
102
RTVSPropertyOp10
 70
     1
102
RTVSPropertyOp11
 70
     1
102
RTVSPropertyOp12
 70
     1
102
RTVSPropertyOp13
 70
     1
102
RTVSPropertyOp14
 70
     1
102
RTVSPropertyOp15
 70
     1
102
RTVSPropertyOp16
 70
     1
102
RTVSPropertyOp17
 70
     1
102
RTVSPropertyOp18
 70
     1
102
RTVSPropertyOp19
 70
     1
102
RTVSPropertyOp20
 70
     1
102
RTVSPropertyOp21
 70
     1
102
RTVSPropertyOp22
 70
     1
102
RTVSPropertyOp23
 70
     1
102
RTVSPropertyOp24
 70
     1
102
RTVSPropertyOp25
 70
     1
102
RTVSPropertyOp26
 70
     1
102
RTVSPropertyOp27
 70
     1
102
RTVSPropertyOp28
 70
     1
102
RTVSPropertyOp29
 70
     1
102
RTVSPropertyOp30
 70
     1
102
RTVSPropertyOp31
 70
     1
102
RTVSPropertyOp32
 70
     1
102
RTVSPropertyOp33
 70
     1
102
RTVSPropertyOp34
 70
     1
102
RTVSPropertyOp35
 70
     1
102
RTVSPropertyOp36
 70
     1
102
RTVSPropertyOp37
 70
     1
102
RTVSPropertyOp38
 70
     1
102
RTVSPropertyOp39
 70
     1
102
RTVSPropertyOp40
 70
     1
102
RTVSPropertyOp41
 70
     1
102
RTVSPropertyOp42
 70
     1
102
RTVSPropertyOp43
 70
     1
102
RTVSPropertyOp44
 70
     1
102
RTVSPropertyOp45
 70
     1
102
RTVSPropertyOp46
 70
     1
102
RTVSPropertyOp47
 70
     1
102
RTVSPropertyOp48
 70
     1
102
RTVSPropertyOp49
 70
     1
102
RTVSPropertyOp50
 70
     1
102
RTVSPropertyOp51
 70
     0
102
RTVSPropertyOp52
 70
     0
102
RTVSPropertyOp53
 70
     1
102
RTVSPropertyOp54
 70
     1
102
RTVSPropertyOp55
 70
     1
102
RTVSPropertyOp56
 70
     1
102
RTVSPropertyOp57
 70
     1
102
RTVSPost2010Prop28
280
     0
102
RTVSPost2010PropOp28
 70
     1
102
RTVSPost2010Prop29
280
     1
102
RTVSPost2010PropOp29
 70
     1
102
RTVSPost2010Prop30
280
     1
102
RTVSPost2010PropOp30
 70
     1
102
RTVSPost2010Prop31
280
     0
102
RTVSPost2010PropOp31
 70
     1
102
RTVSPost2010Prop32
280
     0
102
RTVSPost2010PropOp32
 70
     1
102
RTVSPost2010Prop33
280
     0
102
RTVSPost2010PropOp33
 70
     1
102
RTVSPost2010Prop34
280
     0
102
RTVSPost2010PropOp34
 70
     1
102
RTVSPost2010Prop35
280
     0
102
RTVSPost2010PropOp35
 70
     1
102
RTVSPost2010Prop36
280
     0
102
RTVSPost2010PropOp36
 70
     1
102
RTVSPost2010Prop37
 90
       50
102
RTVSPost2010PropOp37
 70
     1
102
RTVSPost2010Prop38
140
0.0
102
RTVSPost2010PropOp38
 70
     1
102
RTVSPost2010Prop39
140
1.0
102
RTVSPost2010PropOp39
 70
     1
102
RTVSPost2010Prop40
 90
        0
102
RTVSPost2010PropOp40
 70
     1
102
RTVSPost2010Prop41ColorIndex
 90
       18
102
RTVSPost2010Prop41ColorRGB
 90
        0
102
RTVSPost2010PropOp41
 70
     1
102
RTVSPost2010Prop42
 90
       50
102
RTVSPost2010PropOp42
 70
     1
102
RTVSPost2010Prop43
 90
        3
102
RTVSPost2010PropOp43
 70
     1
102
RTVSPost2010Prop44ColorIndex
 90
        5
102
RTVSPost2010Prop44ColorRGB
 90
      255
102
RTVSPost2010PropOp44
 70
     1
102
RTVSPost2010Prop45
280
     0
102
RTVSPost2010PropOp45
 70
     1
102
RTVSPost2010Prop46
 90
       50
102
RTVSPost2010PropOp46
 70
     1
102
RTVSPost2010Prop47
 90
       50
102
RTVSPost2010PropOp47
 70
     1
102
RTVSPost2010Prop48
 90
       50
102
RTVSPost2010PropOp48
 70
     1
102
RTVSPost2010Prop49
280
     0
102
RTVSPost2010PropOp49
 70
     1
102
RTVSPost2010Prop50
 90
       50
102
RTVSPost2010PropOp50
 70
     1
102
RTVSPost2010Prop51ColorIndex
 90
      256
102
RTVSPost2010Prop51ColorRGB
 90
-16777216
102
RTVSPost2010PropOp51
 70
     0
102
RTVSPost2010Prop52
140
1.0
102
RTVSPost2010PropOp52
 70
     0
102
RTVSPost2010Prop53
 90
        2
102
RTVSPost2010PropOp53
 70
     1
102
RTVSPost2010Prop54
  1
strokes_ogs.tif
102
RTVSPost2010PropOp54
 70
     1
102
RTVSPost2010Prop55
280
     0
102
RTVSPost2010PropOp55
 70
     1
102
RTVSPost2010Prop56
140
1.0
102
RTVSPost2010PropOp56
 70
     1
102
RTVSPost2010Prop57
140
1.0
102
RTVSPost2010PropOp57
 70
     1
  0
XRECORD
  5
9304E
102
{ACAD_REACTORS
330
87B30
102
}
330
87B30
100
AcDbXrecord
280
     1
102
RTVSPropertyOp0
 70
     1
102
RTVSPropertyOp1
 70
     1
102
RTVSPropertyOp2
 70
     1
102
RTVSPropertyOp3
 70
     1
102
RTVSPropertyOp4
 70
     1
102
RTVSPropertyOp5
 70
     1
102
RTVSPropertyOp6
 70
     1
102
RTVSPropertyOp7
 70
     1
102
RTVSPropertyOp8
 70
     1
102
RTVSPropertyOp9
 70
     1
102
RTVSPropertyOp10
 70
     1
102
RTVSPropertyOp11
 70
     1
102
RTVSPropertyOp12
 70
     1
102
RTVSPropertyOp13
 70
     1
102
RTVSPropertyOp14
 70
     1
102
RTVSPropertyOp15
 70
     1
102
RTVSPropertyOp16
 70
     1
102
RTVSPropertyOp17
 70
     1
102
RTVSPropertyOp18
 70
     1
102
RTVSPropertyOp19
 70
     1
102
RTVSPropertyOp20
 70
     1
102
RTVSPropertyOp21
 70
     1
102
RTVSPropertyOp22
 70
     1
102
RTVSPropertyOp23
 70
     1
102
RTVSPropertyOp24
 70
     1
102
RTVSPropertyOp25
 70
     1
102
RTVSPropertyOp26
 70
     1
102
RTVSPropertyOp27
 70
     1
102
RTVSPropertyOp28
 70
     1
102
RTVSPropertyOp29
 70
     1
102
RTVSPropertyOp30
 70
     1
102
RTVSPropertyOp31
 70
     1
102
RTVSPropertyOp32
 70
     1
102
RTVSPropertyOp33
 70
     1
102
RTVSPropertyOp34
 70
     1
102
RTVSPropertyOp35
 70
     1
102
RTVSPropertyOp36
 70
     1
102
RTVSPropertyOp37
 70
     1
102
RTVSPropertyOp38
 70
     1
102
RTVSPropertyOp39
 70
     1
102
RTVSPropertyOp40
 70
     1
102
RTVSPropertyOp41
 70
     1
102
RTVSPropertyOp42
 70
     1
102
RTVSPropertyOp43
 70
     1
102
RTVSPropertyOp44
 70
     1
102
RTVSPropertyOp45
 70
     1
102
RTVSPropertyOp46
 70
     1
102
RTVSPropertyOp47
 70
     1
102
RTVSPropertyOp48
 70
     1
102
RTVSPropertyOp49
 70
     1
102
RTVSPropertyOp50
 70
     1
102
RTVSPropertyOp51
 70
     0
102
RTVSPropertyOp52
 70
     0
102
RTVSPropertyOp53
 70
     1
102
RTVSPropertyOp54
 70
     1
102
RTVSPropertyOp55
 70
     1
102
RTVSPropertyOp56
 70
     1
102
RTVSPropertyOp57
 70
     1
102
RTVSPost2010Prop28
280
     0
102
RTVSPost2010PropOp28
 70
     1
102
RTVSPost2010Prop29
280
     1
102
RTVSPost2010PropOp29
 70
     1
102
RTVSPost2010Prop30
280
     1
102
RTVSPost2010PropOp30
 70
     1
102
RTVSPost2010Prop31
280
     0
102
RTVSPost2010PropOp31
 70
     1
102
RTVSPost2010Prop32
280
     0
102
RTVSPost2010PropOp32
 70
     1
102
RTVSPost2010Prop33
280
     0
102
RTVSPost2010PropOp33
 70
     1
102
RTVSPost2010Prop34
280
     0
102
RTVSPost2010PropOp34
 70
     1
102
RTVSPost2010Prop35
280
     0
102
RTVSPost2010PropOp35
 70
     1
102
RTVSPost2010Prop36
280
     0
102
RTVSPost2010PropOp36
 70
     1
102
RTVSPost2010Prop37
 90
       50
102
RTVSPost2010PropOp37
 70
     1
102
RTVSPost2010Prop38
140
0.0
102
RTVSPost2010PropOp38
 70
     1
102
RTVSPost2010Prop39
140
1.0
102
RTVSPost2010PropOp39
 70
     1
102
RTVSPost2010Prop40
 90
        0
102
RTVSPost2010PropOp40
 70
     1
102
RTVSPost2010Prop41ColorIndex
 90
       18
102
RTVSPost2010Prop41ColorRGB
 90
        0
102
RTVSPost2010PropOp41
 70
     1
102
RTVSPost2010Prop42
 90
       50
102
RTVSPost2010PropOp42
 70
     1
102
RTVSPost2010Prop43
 90
        3
102
RTVSPost2010PropOp43
 70
     1
102
RTVSPost2010Prop44ColorIndex
 90
        5
102
RTVSPost2010Prop44ColorRGB
 90
      255
102
RTVSPost2010PropOp44
 70
     1
102
RTVSPost2010Prop45
280
     0
102
RTVSPost2010PropOp45
 70
     1
102
RTVSPost2010Prop46
 90
       50
102
RTVSPost2010PropOp46
 70
     1
102
RTVSPost2010Prop47
 90
       50
102
RTVSPost2010PropOp47
 70
     1
102
RTVSPost2010Prop48
 90
       50
102
RTVSPost2010PropOp48
 70
     1
102
RTVSPost2010Prop49
280
     0
102
RTVSPost2010PropOp49
 70
     1
102
RTVSPost2010Prop50
 90
       50
102
RTVSPost2010PropOp50
 70
     1
102
RTVSPost2010Prop51ColorIndex
 90
      256
102
RTVSPost2010Prop51ColorRGB
 90
-16777216
102
RTVSPost2010PropOp51
 70
     0
102
RTVSPost2010Prop52
140
1.0
102
RTVSPost2010PropOp52
 70
     0
102
RTVSPost2010Prop53
 90
        2
102
RTVSPost2010PropOp53
 70
     1
102
RTVSPost2010Prop54
  1
strokes_ogs.tif
102
RTVSPost2010PropOp54
 70
     1
102
RTVSPost2010Prop55
280
     0
102
RTVSPost2010PropOp55
 70
     1
102
RTVSPost2010Prop56
140
1.0
102
RTVSPost2010PropOp56
 70
     1
102
RTVSPost2010Prop57
140
1.0
102
RTVSPost2010PropOp57
 70
     1
  0
XRECORD
  5
9304F
102
{ACAD_REACTORS
330
87B26
102
}
330
87B26
100
AcDbXrecord
280
     1
102
RTVSPropertyOp0
 70
     1
102
RTVSPropertyOp1
 70
     1
102
RTVSPropertyOp2
 70
     1
102
RTVSPropertyOp3
 70
     1
102
RTVSPropertyOp4
 70
     1
102
RTVSPropertyOp5
 70
     1
102
RTVSPropertyOp6
 70
     1
102
RTVSPropertyOp7
 70
     1
102
RTVSPropertyOp8
 70
     1
102
RTVSPropertyOp9
 70
     1
102
RTVSPropertyOp10
 70
     1
102
RTVSPropertyOp11
 70
     1
102
RTVSPropertyOp12
 70
     1
102
RTVSPropertyOp13
 70
     1
102
RTVSPropertyOp14
 70
     1
102
RTVSPropertyOp15
 70
     1
102
RTVSPropertyOp16
 70
     1
102
RTVSPropertyOp17
 70
     1
102
RTVSPropertyOp18
 70
     1
102
RTVSPropertyOp19
 70
     1
102
RTVSPropertyOp20
 70
     1
102
RTVSPropertyOp21
 70
     1
102
RTVSPropertyOp22
 70
     1
102
RTVSPropertyOp23
 70
     1
102
RTVSPropertyOp24
 70
     1
102
RTVSPropertyOp25
 70
     1
102
RTVSPropertyOp26
 70
     1
102
RTVSPropertyOp27
 70
     1
102
RTVSPropertyOp28
 70
     1
102
RTVSPropertyOp29
 70
     1
102
RTVSPropertyOp30
 70
     1
102
RTVSPropertyOp31
 70
     1
102
RTVSPropertyOp32
 70
     1
102
RTVSPropertyOp33
 70
     1
102
RTVSPropertyOp34
 70
     1
102
RTVSPropertyOp35
 70
     1
102
RTVSPropertyOp36
 70
     1
102
RTVSPropertyOp37
 70
     1
102
RTVSPropertyOp38
 70
     1
102
RTVSPropertyOp39
 70
     1
102
RTVSPropertyOp40
 70
     1
102
RTVSPropertyOp41
 70
     1
102
RTVSPropertyOp42
 70
     1
102
RTVSPropertyOp43
 70
     1
102
RTVSPropertyOp44
 70
     1
102
RTVSPropertyOp45
 70
     1
102
RTVSPropertyOp46
 70
     1
102
RTVSPropertyOp47
 70
     1
102
RTVSPropertyOp48
 70
     1
102
RTVSPropertyOp49
 70
     1
102
RTVSPropertyOp50
 70
     1
102
RTVSPropertyOp51
 70
     0
102
RTVSPropertyOp52
 70
     0
102
RTVSPropertyOp53
 70
     1
102
RTVSPropertyOp54
 70
     1
102
RTVSPropertyOp55
 70
     1
102
RTVSPropertyOp56
 70
     1
102
RTVSPropertyOp57
 70
     1
102
RTVSPost2010Prop28
280
     0
102
RTVSPost2010PropOp28
 70
     1
102
RTVSPost2010Prop29
280
     1
102
RTVSPost2010PropOp29
 70
     1
102
RTVSPost2010Prop30
280
     1
102
RTVSPost2010PropOp30
 70
     1
102
RTVSPost2010Prop31
280
     0
102
RTVSPost2010PropOp31
 70
     1
102
RTVSPost2010Prop32
280
     0
102
RTVSPost2010PropOp32
 70
     1
102
RTVSPost2010Prop33
280
     0
102
RTVSPost2010PropOp33
 70
     1
102
RTVSPost2010Prop34
280
     0
102
RTVSPost2010PropOp34
 70
     1
102
RTVSPost2010Prop35
280
     0
102
RTVSPost2010PropOp35
 70
     1
102
RTVSPost2010Prop36
280
     0
102
RTVSPost2010PropOp36
 70
     1
102
RTVSPost2010Prop37
 90
       50
102
RTVSPost2010PropOp37
 70
     1
102
RTVSPost2010Prop38
140
0.0
102
RTVSPost2010PropOp38
 70
     1
102
RTVSPost2010Prop39
140
1.0
102
RTVSPost2010PropOp39
 70
     1
102
RTVSPost2010Prop40
 90
        0
102
RTVSPost2010PropOp40
 70
     1
102
RTVSPost2010Prop41ColorIndex
 90
       18
102
RTVSPost2010Prop41ColorRGB
 90
        0
102
RTVSPost2010PropOp41
 70
     1
102
RTVSPost2010Prop42
 90
       50
102
RTVSPost2010PropOp42
 70
     1
102
RTVSPost2010Prop43
 90
        3
102
RTVSPost2010PropOp43
 70
     1
102
RTVSPost2010Prop44ColorIndex
 90
        5
102
RTVSPost2010Prop44ColorRGB
 90
      255
102
RTVSPost2010PropOp44
 70
     1
102
RTVSPost2010Prop45
280
     0
102
RTVSPost2010PropOp45
 70
     1
102
RTVSPost2010Prop46
 90
       50
102
RTVSPost2010PropOp46
 70
     1
102
RTVSPost2010Prop47
 90
       50
102
RTVSPost2010PropOp47
 70
     1
102
RTVSPost2010Prop48
 90
       50
102
RTVSPost2010PropOp48
 70
     1
102
RTVSPost2010Prop49
280
     0
102
RTVSPost2010PropOp49
 70
     1
102
RTVSPost2010Prop50
 90
       50
102
RTVSPost2010PropOp50
 70
     1
102
RTVSPost2010Prop51ColorIndex
 90
      256
102
RTVSPost2010Prop51ColorRGB
 90
-16777216
102
RTVSPost2010PropOp51
 70
     0
102
RTVSPost2010Prop52
140
1.0
102
RTVSPost2010PropOp52
 70
     0
102
RTVSPost2010Prop53
 90
        2
102
RTVSPost2010PropOp53
 70
     1
102
RTVSPost2010Prop54
  1
strokes_ogs.tif
102
RTVSPost2010PropOp54
 70
     1
102
RTVSPost2010Prop55
280
     0
102
RTVSPost2010PropOp55
 70
     1
102
RTVSPost2010Prop56
140
1.0
102
RTVSPost2010PropOp56
 70
     1
102
RTVSPost2010Prop57
140
1.0
102
RTVSPost2010PropOp57
 70
     1
  0
XRECORD
  5
93050
102
{ACAD_REACTORS
330
87B1A
102
}
330
87B1A
100
AcDbXrecord
280
     1
102
RTVSPropertyOp0
 70
     1
102
RTVSPropertyOp1
 70
     1
102
RTVSPropertyOp2
 70
     1
102
RTVSPropertyOp3
 70
     1
102
RTVSPropertyOp4
 70
     1
102
RTVSPropertyOp5
 70
     1
102
RTVSPropertyOp6
 70
     1
102
RTVSPropertyOp7
 70
     1
102
RTVSPropertyOp8
 70
     1
102
RTVSPropertyOp9
 70
     1
102
RTVSPropertyOp10
 70
     1
102
RTVSPropertyOp11
 70
     1
102
RTVSPropertyOp12
 70
     1
102
RTVSPropertyOp13
 70
     1
102
RTVSPropertyOp14
 70
     1
102
RTVSPropertyOp15
 70
     1
102
RTVSPropertyOp16
 70
     1
102
RTVSPropertyOp17
 70
     1
102
RTVSPropertyOp18
 70
     1
102
RTVSPropertyOp19
 70
     1
102
RTVSPropertyOp20
 70
     1
102
RTVSPropertyOp21
 70
     1
102
RTVSPropertyOp22
 70
     1
102
RTVSPropertyOp23
 70
     1
102
RTVSPropertyOp24
 70
     1
102
RTVSPropertyOp25
 70
     1
102
RTVSPropertyOp26
 70
     1
102
RTVSPropertyOp27
 70
     1
102
RTVSPropertyOp28
 70
     1
102
RTVSPropertyOp29
 70
     1
102
RTVSPropertyOp30
 70
     1
102
RTVSPropertyOp31
 70
     1
102
RTVSPropertyOp32
 70
     1
102
RTVSPropertyOp33
 70
     1
102
RTVSPropertyOp34
 70
     1
102
RTVSPropertyOp35
 70
     1
102
RTVSPropertyOp36
 70
     1
102
RTVSPropertyOp37
 70
     1
102
RTVSPropertyOp38
 70
     1
102
RTVSPropertyOp39
 70
     1
102
RTVSPropertyOp40
 70
     1
102
RTVSPropertyOp41
 70
     1
102
RTVSPropertyOp42
 70
     1
102
RTVSPropertyOp43
 70
     1
102
RTVSPropertyOp44
 70
     1
102
RTVSPropertyOp45
 70
     1
102
RTVSPropertyOp46
 70
     1
102
RTVSPropertyOp47
 70
     1
102
RTVSPropertyOp48
 70
     1
102
RTVSPropertyOp49
 70
     1
102
RTVSPropertyOp50
 70
     1
102
RTVSPropertyOp51
 70
     0
102
RTVSPropertyOp52
 70
     0
102
RTVSPropertyOp53
 70
     1
102
RTVSPropertyOp54
 70
     1
102
RTVSPropertyOp55
 70
     1
102
RTVSPropertyOp56
 70
     1
102
RTVSPropertyOp57
 70
     1
102
RTVSPost2010Prop28
280
     0
102
RTVSPost2010PropOp28
 70
     1
102
RTVSPost2010Prop29
280
     1
102
RTVSPost2010PropOp29
 70
     1
102
RTVSPost2010Prop30
280
     1
102
RTVSPost2010PropOp30
 70
     1
102
RTVSPost2010Prop31
280
     0
102
RTVSPost2010PropOp31
 70
     1
102
RTVSPost2010Prop32
280
     0
102
RTVSPost2010PropOp32
 70
     1
102
RTVSPost2010Prop33
280
     0
102
RTVSPost2010PropOp33
 70
     1
102
RTVSPost2010Prop34
280
     0
102
RTVSPost2010PropOp34
 70
     1
102
RTVSPost2010Prop35
280
     0
102
RTVSPost2010PropOp35
 70
     1
102
RTVSPost2010Prop36
280
     0
102
RTVSPost2010PropOp36
 70
     1
102
RTVSPost2010Prop37
 90
       50
102
RTVSPost2010PropOp37
 70
     1
102
RTVSPost2010Prop38
140
0.0
102
RTVSPost2010PropOp38
 70
     1
102
RTVSPost2010Prop39
140
1.0
102
RTVSPost2010PropOp39
 70
     1
102
RTVSPost2010Prop40
 90
        0
102
RTVSPost2010PropOp40
 70
     1
102
RTVSPost2010Prop41ColorIndex
 90
       18
102
RTVSPost2010Prop41ColorRGB
 90
        0
102
RTVSPost2010PropOp41
 70
     1
102
RTVSPost2010Prop42
 90
       50
102
RTVSPost2010PropOp42
 70
     1
102
RTVSPost2010Prop43
 90
        3
102
RTVSPost2010PropOp43
 70
     1
102
RTVSPost2010Prop44ColorIndex
 90
        5
102
RTVSPost2010Prop44ColorRGB
 90
      255
102
RTVSPost2010PropOp44
 70
     1
102
RTVSPost2010Prop45
280
     0
102
RTVSPost2010PropOp45
 70
     1
102
RTVSPost2010Prop46
 90
       50
102
RTVSPost2010PropOp46
 70
     1
102
RTVSPost2010Prop47
 90
       50
102
RTVSPost2010PropOp47
 70
     1
102
RTVSPost2010Prop48
 90
       50
102
RTVSPost2010PropOp48
 70
     1
102
RTVSPost2010Prop49
280
     0
102
RTVSPost2010PropOp49
 70
     1
102
RTVSPost2010Prop50
 90
       50
102
RTVSPost2010PropOp50
 70
     1
102
RTVSPost2010Prop51ColorIndex
 90
      256
102
RTVSPost2010Prop51ColorRGB
 90
-16777216
102
RTVSPost2010PropOp51
 70
     0
102
RTVSPost2010Prop52
140
1.0
102
RTVSPost2010PropOp52
 70
     0
102
RTVSPost2010Prop53
 90
        2
102
RTVSPost2010PropOp53
 70
     1
102
RTVSPost2010Prop54
  1
strokes_ogs.tif
102
RTVSPost2010PropOp54
 70
     1
102
RTVSPost2010Prop55
280
     0
102
RTVSPost2010PropOp55
 70
     1
102
RTVSPost2010Prop56
140
1.0
102
RTVSPost2010PropOp56
 70
     1
102
RTVSPost2010Prop57
140
1.0
102
RTVSPost2010PropOp57
 70
     1
  0
XRECORD
  5
93051
102
{ACAD_REACTORS
330
87B32
102
}
330
87B32
100
AcDbXrecord
280
     1
102
RTVSPropertyOp0
 70
     1
102
RTVSPropertyOp1
 70
     1
102
RTVSPropertyOp2
 70
     1
102
RTVSPropertyOp3
 70
     1
102
RTVSPropertyOp4
 70
     1
102
RTVSPropertyOp5
 70
     1
102
RTVSPropertyOp6
 70
     1
102
RTVSPropertyOp7
 70
     1
102
RTVSPropertyOp8
 70
     1
102
RTVSPropertyOp9
 70
     1
102
RTVSPropertyOp10
 70
     1
102
RTVSPropertyOp11
 70
     1
102
RTVSPropertyOp12
 70
     1
102
RTVSPropertyOp13
 70
     1
102
RTVSPropertyOp14
 70
     1
102
RTVSPropertyOp15
 70
     1
102
RTVSPropertyOp16
 70
     1
102
RTVSPropertyOp17
 70
     1
102
RTVSPropertyOp18
 70
     1
102
RTVSPropertyOp19
 70
     1
102
RTVSPropertyOp20
 70
     1
102
RTVSPropertyOp21
 70
     1
102
RTVSPropertyOp22
 70
     1
102
RTVSPropertyOp23
 70
     1
102
RTVSPropertyOp24
 70
     1
102
RTVSPropertyOp25
 70
     1
102
RTVSPropertyOp26
 70
     1
102
RTVSPropertyOp27
 70
     1
102
RTVSPropertyOp28
 70
     1
102
RTVSPropertyOp29
 70
     1
102
RTVSPropertyOp30
 70
     1
102
RTVSPropertyOp31
 70
     1
102
RTVSPropertyOp32
 70
     1
102
RTVSPropertyOp33
 70
     1
102
RTVSPropertyOp34
 70
     1
102
RTVSPropertyOp35
 70
     1
102
RTVSPropertyOp36
 70
     1
102
RTVSPropertyOp37
 70
     1
102
RTVSPropertyOp38
 70
     1
102
RTVSPropertyOp39
 70
     1
102
RTVSPropertyOp40
 70
     1
102
RTVSPropertyOp41
 70
     1
102
RTVSPropertyOp42
 70
     1
102
RTVSPropertyOp43
 70
     1
102
RTVSPropertyOp44
 70
     1
102
RTVSPropertyOp45
 70
     1
102
RTVSPropertyOp46
 70
     1
102
RTVSPropertyOp47
 70
     1
102
RTVSPropertyOp48
 70
     1
102
RTVSPropertyOp49
 70
     1
102
RTVSPropertyOp50
 70
     1
102
RTVSPropertyOp51
 70
     0
102
RTVSPropertyOp52
 70
     0
102
RTVSPropertyOp53
 70
     1
102
RTVSPropertyOp54
 70
     1
102
RTVSPropertyOp55
 70
     1
102
RTVSPropertyOp56
 70
     1
102
RTVSPropertyOp57
 70
     1
102
RTVSPost2010Prop28
280
     0
102
RTVSPost2010PropOp28
 70
     1
102
RTVSPost2010Prop29
280
     1
102
RTVSPost2010PropOp29
 70
     1
102
RTVSPost2010Prop30
280
     1
102
RTVSPost2010PropOp30
 70
     1
102
RTVSPost2010Prop31
280
     0
102
RTVSPost2010PropOp31
 70
     1
102
RTVSPost2010Prop32
280
     0
102
RTVSPost2010PropOp32
 70
     1
102
RTVSPost2010Prop33
280
     0
102
RTVSPost2010PropOp33
 70
     1
102
RTVSPost2010Prop34
280
     0
102
RTVSPost2010PropOp34
 70
     1
102
RTVSPost2010Prop35
280
     0
102
RTVSPost2010PropOp35
 70
     1
102
RTVSPost2010Prop36
280
     0
102
RTVSPost2010PropOp36
 70
     1
102
RTVSPost2010Prop37
 90
       50
102
RTVSPost2010PropOp37
 70
     1
102
RTVSPost2010Prop38
140
0.0
102
RTVSPost2010PropOp38
 70
     1
102
RTVSPost2010Prop39
140
1.0
102
RTVSPost2010PropOp39
 70
     1
102
RTVSPost2010Prop40
 90
        0
102
RTVSPost2010PropOp40
 70
     1
102
RTVSPost2010Prop41ColorIndex
 90
       18
102
RTVSPost2010Prop41ColorRGB
 90
        0
102
RTVSPost2010PropOp41
 70
     1
102
RTVSPost2010Prop42
 90
       50
102
RTVSPost2010PropOp42
 70
     1
102
RTVSPost2010Prop43
 90
        3
102
RTVSPost2010PropOp43
 70
     1
102
RTVSPost2010Prop44ColorIndex
 90
        5
102
RTVSPost2010Prop44ColorRGB
 90
      255
102
RTVSPost2010PropOp44
 70
     1
102
RTVSPost2010Prop45
280
     0
102
RTVSPost2010PropOp45
 70
     1
102
RTVSPost2010Prop46
 90
       50
102
RTVSPost2010PropOp46
 70
     1
102
RTVSPost2010Prop47
 90
       50
102
RTVSPost2010PropOp47
 70
     1
102
RTVSPost2010Prop48
 90
       50
102
RTVSPost2010PropOp48
 70
     1
102
RTVSPost2010Prop49
280
     0
102
RTVSPost2010PropOp49
 70
     1
102
RTVSPost2010Prop50
 90
       50
102
RTVSPost2010PropOp50
 70
     1
102
RTVSPost2010Prop51ColorIndex
 90
      256
102
RTVSPost2010Prop51ColorRGB
 90
-16777216
102
RTVSPost2010PropOp51
 70
     0
102
RTVSPost2010Prop52
140
1.0
102
RTVSPost2010PropOp52
 70
     0
102
RTVSPost2010Prop53
 90
        2
102
RTVSPost2010PropOp53
 70
     1
102
RTVSPost2010Prop54
  1
strokes_ogs.tif
102
RTVSPost2010PropOp54
 70
     1
102
RTVSPost2010Prop55
280
     0
102
RTVSPost2010PropOp55
 70
     1
102
RTVSPost2010Prop56
140
1.0
102
RTVSPost2010PropOp56
 70
     1
102
RTVSPost2010Prop57
140
1.0
102
RTVSPost2010PropOp57
 70
     1
  0
ENDSEC
  0
EOF
