  0
SECTION
  2
HEADER
  9
$ACADVER
  1
AC1015
  9
$ACADMAINTVER
 70
    20
  9
$DWGCODEPAGE
  3
ANSI_932
  9
$INSBASE
 10
0.0
 20
0.0
 30
0.0
  9
$EXTMIN
 10
-25.91753199580573
 20
-67.36312418500563
 30
0.0
  9
$EXTMAX
 10
119.4333333333334
 20
102.6757286116273
 30
0.0
  9
$LIMMIN
 10
0.0
 20
0.0
  9
$LIMMAX
 10
420.0
 20
297.0
  9
$ORTHOMODE
 70
     1
  9
$REGENMODE
 70
     1
  9
$FILLMODE
 70
     1
  9
$QTEXTMODE
 70
     0
  9
$MIRRTEXT
 70
     1
  9
$LTSCALE
 40
1.0
  9
$ATTMODE
 70
     1
  9
$TEXTSIZE
 40
3.5
  9
$TRACEWID
 40
1.0
  9
$TEXTSTYLE
  7
simplex
  9
$CLAYER
  8
0
  9
$CELTYPE
  6
ByLayer
  9
$CECOLOR
 62
   256
  9
$CELTSCALE
 40
1.0
  9
$DISPSILH
 70
     0
  9
$DIMSCALE
 40
0.0
  9
$DIMASZ
 40
3.5
  9
$DIMEXO
 40
0.0
  9
$DIMDLI
 40
0.38
  9
$DIMRND
 40
0.0
  9
$DIMDLE
 40
0.0
  9
$DIMEXE
 40
1.5
  9
$DIMTP
 40
0.0
  9
$DIMTM
 40
0.0
  9
$DIMTXT
 40
3.5
  9
$DIMCEN
 40
0.09
  9
$DIMTSZ
 40
0.0
  9
$DIMTOL
 70
     0
  9
$DIMLIM
 70
     0
  9
$DIMTIH
 70
     0
  9
$DIMTOH
 70
     0
  9
$DIMSE1
 70
     0
  9
$DIMSE2
 70
     0
  9
$DIMTAD
 70
     1
  9
$DIMZIN
 70
     8
  9
$DIMBLK
  1

  9
$DIMASO
 70
     1
  9
$DIMSHO
 70
     1
  9
$DIMPOST
  1

  9
$DIMAPOST
  1

  9
$DIMALT
 70
     0
  9
$DIMALTD
 70
     2
  9
$DIMALTF
 40
25.4
  9
$DIMLFAC
 40
1.0
  9
$DIMTOFL
 70
     0
  9
$DIMTVP
 40
0.0
  9
$DIMTIX
 70
     0
  9
$DIMSOXD
 70
     0
  9
$DIMSAH
 70
     0
  9
$DIMBLK1
  1

  9
$DIMBLK2
  1

  9
$DIMSTYLE
  2
コピー - ISO-25
  9
$DIMCLRD
 70
   256
  9
$DIMCLRE
 70
   256
  9
$DIMCLRT
 70
   256
  9
$DIMTFAC
 40
1.0
  9
$DIMGAP
 40
2.299999999999998
  9
$DIMJUST
 70
     0
  9
$DIMSD1
 70
     0
  9
$DIMSD2
 70
     0
  9
$DIMTOLJ
 70
     1
  9
$DIMTZIN
 70
     8
  9
$DIMALTZ
 70
     0
  9
$DIMALTTZ
 70
     0
  9
$DIMUPT
 70
     0
  9
$DIMDEC
 70
     2
  9
$DIMTDEC
 70
     2
  9
$DIMALTU
 70
     2
  9
$DIMALTTD
 70
     2
  9
$DIMTXSTY
  7
simplex
  9
$DIMAUNIT
 70
     0
  9
$DIMADEC
 70
     0
  9
$DIMALTRND
 40
0.0
  9
$DIMAZIN
 70
     0
  9
$DIMDSEP
 70
    46
  9
$DIMATFIT
 70
     3
  9
$DIMFRAC
 70
     0
  9
$DIMLDRBLK
  1

  9
$DIMLUNIT
 70
     2
  9
$DIMLWD
 70
    -1
  9
$DIMLWE
 70
    -1
  9
$DIMTMOVE
 70
     0
  9
$LUNITS
 70
     2
  9
$LUPREC
 70
     4
  9
$SKETCHINC
 40
1.0
  9
$FILLETRAD
 40
0.8
  9
$AUNITS
 70
     0
  9
$AUPREC
 70
     0
  9
$MENU
  1
.
  9
$ELEVATION
 40
0.0
  9
$PELEVATION
 40
0.0
  9
$THICKNESS
 40
0.0
  9
$LIMCHECK
 70
     0
  9
$CHAMFERA
 40
10.0
  9
$CHAMFERB
 40
10.0
  9
$CHAMFERC
 40
20.0
  9
$CHAMFERD
 40
0.0
  9
$SKPOLY
 70
     0
  9
$TDCREATE
 40
2455489.391063368
  9
$TDUCREATE
 40
2455489.057730035
  9
$TDUPDATE
 40
2458948.455865625
  9
$TDUUPDATE
 40
2458948.122532292
  9
$TDINDWG
 40
2.588100509
  9
$TDUSRTIMER
 40
2.588047593
  9
$USRTIMER
 70
     1
  9
$ANGBASE
 50
0.0
  9
$ANGDIR
 70
     0
  9
$PDMODE
 70
     0
  9
$PDSIZE
 40
0.0
  9
$PLINEWID
 40
0.0
  9
$SPLFRAME
 70
     0
  9
$SPLINETYPE
 70
     6
  9
$SPLINESEGS
 70
     8
  9
$HANDSEED
  5
92AF9
  9
$SURFTAB1
 70
     6
  9
$SURFTAB2
 70
     6
  9
$SURFTYPE
 70
     6
  9
$SURFU
 70
     6
  9
$SURFV
 70
     6
  9
$UCSBASE
  2

  9
$UCSNAME
  2

  9
$UCSORG
 10
0.0
 20
0.0
 30
0.0
  9
$UCSXDIR
 10
1.0
 20
0.0
 30
0.0
  9
$UCSYDIR
 10
0.0
 20
1.0
 30
0.0
  9
$UCSORTHOREF
  2

  9
$UCSORTHOVIEW
 70
     0
  9
$UCSORGTOP
 10
0.0
 20
0.0
 30
0.0
  9
$UCSORGBOTTOM
 10
0.0
 20
0.0
 30
0.0
  9
$UCSORGLEFT
 10
0.0
 20
0.0
 30
0.0
  9
$UCSORGRIGHT
 10
0.0
 20
0.0
 30
0.0
  9
$UCSORGFRONT
 10
0.0
 20
0.0
 30
0.0
  9
$UCSORGBACK
 10
0.0
 20
0.0
 30
0.0
  9
$PUCSBASE
  2

  9
$PUCSNAME
  2

  9
$PUCSORG
 10
0.0
 20
0.0
 30
0.0
  9
$PUCSXDIR
 10
1.0
 20
0.0
 30
0.0
  9
$PUCSYDIR
 10
0.0
 20
1.0
 30
0.0
  9
$PUCSORTHOREF
  2

  9
$PUCSORTHOVIEW
 70
     0
  9
$PUCSORGTOP
 10
0.0
 20
0.0
 30
0.0
  9
$PUCSORGBOTTOM
 10
0.0
 20
0.0
 30
0.0
  9
$PUCSORGLEFT
 10
0.0
 20
0.0
 30
0.0
  9
$PUCSORGRIGHT
 10
0.0
 20
0.0
 30
0.0
  9
$PUCSORGFRONT
 10
0.0
 20
0.0
 30
0.0
  9
$PUCSORGBACK
 10
0.0
 20
0.0
 30
0.0
  9
$USERI1
 70
     0
  9
$USERI2
 70
     0
  9
$USERI3
 70
     0
  9
$USERI4
 70
     0
  9
$USERI5
 70
     0
  9
$USERR1
 40
0.0
  9
$USERR2
 40
0.0
  9
$USERR3
 40
0.0
  9
$USERR4
 40
0.0
  9
$USERR5
 40
0.0
  9
$WORLDVIEW
 70
     1
  9
$SHADEDGE
 70
     3
  9
$SHADEDIF
 70
    70
  9
$TILEMODE
 70
     1
  9
$MAXACTVP
 70
    64
  9
$PINSBASE
 10
0.0
 20
0.0
 30
0.0
  9
$PLIMCHECK
 70
     0
  9
$PEXTMIN
 10
26.66999878883364
 20
20.31999878883365
 30
0.0
  9
$PEXTMAX
 10
240.0299890995025
 20
182.8799890995025
 30
0.0
  9
$PLIMMIN
 10
-6.350006103515625
 20
-6.349999904632567
  9
$PLIMMAX
 10
273.0499877929688
 20
209.5499939918518
  9
$UNITMODE
 70
     0
  9
$VISRETAIN
 70
     1
  9
$PLINEGEN
 70
     0
  9
$PSLTSCALE
 70
     1
  9
$TREEDEPTH
 70
  3020
  9
$CMLSTYLE
  2
Standard
  9
$CMLJUST
 70
     0
  9
$CMLSCALE
 40
20.0
  9
$PROXYGRAPHICS
 70
     1
  9
$MEASUREMENT
 70
     1
  9
$CELWEIGHT
370
    -1
  9
$ENDCAPS
280
     0
  9
$JOINSTYLE
280
     0
  9
$LWDISPLAY
290
     0
  9
$INSUNITS
 70
     4
  9
$HYPERLINKBASE
  1

  9
$STYLESHEET
  1

  9
$XEDIT
290
     1
  9
$CEPSNTYPE
380
     0
  9
$PSTYLEMODE
290
     1
  9
$FINGERPRINTGUID
  2
{E4387D2F-32DA-41E7-BF0E-AF8D7339245E}
  9
$VERSIONGUID
  2
{A849CAD4-874B-40DE-B5D0-785FCFF521AB}
  9
$EXTNAMES
290
     1
  9
$PSVPSCALE
 40
0.0
  9
$OLESTARTUP
290
     0
  0
ENDSEC
  0
SECTION
  2
CLASSES
  0
CLASS
  1
ACDBDICTIONARYWDFLT
  2
AcDbDictionaryWithDefault
  3
ObjectDBX Classes
 90
        0
280
     0
281
     0
  0
CLASS
  1
ACDBPLACEHOLDER
  2
AcDbPlaceHolder
  3
ObjectDBX Classes
 90
    32768
280
     0
281
     0
  0
CLASS
  1
LAYOUT
  2
AcDbLayout
  3
ObjectDBX Classes
 90
    32768
280
     0
281
     0
  0
CLASS
  1
DICTIONARYVAR
  2
AcDbDictionaryVar
  3
ObjectDBX Classes
 90
        0
280
     0
281
     0
  0
CLASS
  1
TABLESTYLE
  2
AcDbTableStyle
  3
ObjectDBX Classes
 90
     4095
280
     0
281
     0
  0
CLASS
  1
SORTENTSTABLE
  2
AcDbSortentsTable
  3
ObjectDBX Classes
 90
        0
280
     0
281
     0
  0
CLASS
  1
DIMASSOC
  2
AcDbDimAssoc
  3
"AcDbDimAssoc|Product Desc:     AcDim ARX App For Dimension|Company:          Autodesk, Inc.|WEB Address:      www.autodesk.com"
 90
        0
280
     0
281
     0
  0
CLASS
  1
ACAD_EVALUATION_GRAPH
  2
AcDbEvalGraph
  3
ObjectDBX Classes
 90
    33921
280
     0
281
     0
  0
CLASS
  1
ACAECUSTOBJ
  2
AcAeEditorObj
  3
AcAeEditorObj
 90
    33792
280
     0
281
     0
  0
CLASS
  1
ACDB_DYNAMICBLOCKPURGEPREVENTER_VERSION
  2
AcDbDynamicBlockPurgePreventer
  3
ObjectDBX Classes
 90
    33921
280
     0
281
     0
  0
CLASS
  1
MATERIAL
  2
AcDbMaterial
  3
ObjectDBX Classes
 90
     1153
280
     0
281
     0
  0
CLASS
  1
VISUALSTYLE
  2
AcDbVisualStyle
  3
ObjectDBX Classes
 90
     4095
280
     0
281
     0
  0
CLASS
  1
SCALE
  2
AcDbScale
  3
ObjectDBX Classes
 90
     1153
280
     0
281
     0
  0
CLASS
  1
MLEADERSTYLE
  2
AcDbMLeaderStyle
  3
ACDB_MLEADERSTYLE_CLASS
 90
     4095
280
     0
281
     0
  0
CLASS
  1
ACDBSECTIONVIEWSTYLE
  2
AcDbSectionViewStyle
  3
ObjectDBX Classes
 90
     1025
280
     0
281
     0
  0
CLASS
  1
ACDBDETAILVIEWSTYLE
  2
AcDbDetailViewStyle
  3
ObjectDBX Classes
 90
     1025
280
     0
281
     0
  0
CLASS
  1
CELLSTYLEMAP
  2
AcDbCellStyleMap
  3
ObjectDBX Classes
 90
     1152
280
     0
281
     0
  0
CLASS
  1
ACDBPLACEHOLDER
  2
AcDbPlaceHolder
  3
ObjectDBX Classes
 90
    32768
280
     0
281
     0
  0
CLASS
  1
LAYOUT
  2
AcDbLayout
  3
ObjectDBX Classes
 90
    32768
280
     0
281
     0
  0
CLASS
  1
ACDBPLACEHOLDER
  2
AcDbPlaceHolder
  3
ObjectDBX Classes
 90
    32768
280
     0
281
     0
  0
CLASS
  1
LAYOUT
  2
AcDbLayout
  3
ObjectDBX Classes
 90
    32768
280
     0
281
     0
  0
CLASS
  1
ACDBPLACEHOLDER
  2
AcDbPlaceHolder
  3
ObjectDBX Classes
 90
    32768
280
     0
281
     0
  0
CLASS
  1
LAYOUT
  2
AcDbLayout
  3
ObjectDBX Classes
 90
    32768
280
     0
281
     0
  0
CLASS
  1
ACDBPLACEHOLDER
  2
AcDbPlaceHolder
  3
ObjectDBX Classes
 90
    32768
280
     0
281
     0
  0
CLASS
  1
LAYOUT
  2
AcDbLayout
  3
ObjectDBX Classes
 90
    32768
280
     0
281
     0
  0
CLASS
  1
ACDBPLACEHOLDER
  2
AcDbPlaceHolder
  3
ObjectDBX Classes
 90
    32768
280
     0
281
     0
  0
CLASS
  1
LAYOUT
  2
AcDbLayout
  3
ObjectDBX Classes
 90
    32768
280
     0
281
     0
  0
CLASS
  1
ACDBPLACEHOLDER
  2
AcDbPlaceHolder
  3
ObjectDBX Classes
 90
    32768
280
     0
281
     0
  0
CLASS
  1
LAYOUT
  2
AcDbLayout
  3
ObjectDBX Classes
 90
    32768
280
     0
281
     0
  0
CLASS
  1
ACDBPLACEHOLDER
  2
AcDbPlaceHolder
  3
ObjectDBX Classes
 90
        0
280
     0
281
     0
  0
CLASS
  1
LAYOUT
  2
AcDbLayout
  3
ObjectDBX Classes
 90
        0
280
     0
281
     0
  0
ENDSEC
  0
SECTION
  2
TABLES
  0
TABLE
  2
VPORT
  5
8
102
{ACAD_XDICTIONARY
360
8C34E
102
}
330
0
100
AcDbSymbolTable
 70
     1
  0
VPORT
  5
4A360
330
8
100
AcDbSymbolTableRecord
100
AcDbViewportTableRecord
  2
*Active
 70
     0
 10
0.0
 20
0.0
 11
1.0
 21
1.0
 12
32.13869451405154
 22
8.56423937774886
 13
0.0
 23
0.0
 14
10.0
 24
10.0
 15
10.0
 25
10.0
 16
0.0
 26
0.0
 36
1.0
 17
0.0
 27
0.0
 37
0.0
 40
205.640582885939
 41
1.705156950672645
 42
50.0
 43
0.0
 44
0.0
 50
0.0
 51
0.0
 71
     0
 72
  1000
 73
     1
 74
     1
 75
     0
 76
     0
 77
     0
 78
     0
281
     0
 65
     1
110
0.0
120
0.0
130
0.0
111
1.0
121
0.0
131
0.0
112
0.0
122
1.0
132
0.0
 79
     0
146
0.0
1001
ACAD_NAV_VCDISPLAY
1070
     3
  0
ENDTAB
  0
TABLE
  2
LTYPE
  5
5
330
0
100
AcDbSymbolTable
 70
     3
  0
LTYPE
  5
14
330
5
100
AcDbSymbolTableRecord
100
AcDbLinetypeTableRecord
  2
ByBlock
 70
     0
  3

 72
    65
 73
     0
 40
0.0
  0
LTYPE
  5
15
330
5
100
AcDbSymbolTableRecord
100
AcDbLinetypeTableRecord
  2
ByLayer
 70
     0
  3

 72
    65
 73
     0
 40
0.0
  0
LTYPE
  5
16
330
5
100
AcDbSymbolTableRecord
100
AcDbLinetypeTableRecord
  2
Continuous
 70
     0
  3
Solid line
 72
    65
 73
     0
 40
0.0
  0
LTYPE
  5
4A76E
330
5
100
AcDbSymbolTableRecord
100
AcDbLinetypeTableRecord
  2
CENTER2
 70
     0
  3
Center (.5x) ___ _ ___ _ ___ _ ___ _ ___ _ ___
 72
    65
 73
     4
 40
28.575
 49
19.05
 74
     0
 49
-3.174999999999998
 74
     0
 49
3.174999999999998
 74
     0
 49
-3.174999999999998
 74
     0
  0
LTYPE
  5
87B53
330
5
100
AcDbSymbolTableRecord
100
AcDbLinetypeTableRecord
  2
HIDDEN
 70
     0
  3
Hidden __ __ __ __ __ __ __ __ __ __ __ __ __ _
 72
    65
 73
     2
 40
9.524999999999996
 49
6.349999999999997
 74
     0
 49
-3.174999999999998
 74
     0
  0
ENDTAB
  0
TABLE
  2
LAYER
  5
2
102
{ACAD_XDICTIONARY
360
E2
102
}
330
0
100
AcDbSymbolTable
 70
    10
  0
LAYER
  5
10
102
{ACAD_XDICTIONARY
360
4A86C
102
}
330
2
100
AcDbSymbolTableRecord
100
AcDbLayerTableRecord
  2
0
 70
     0
 62
     7
  6
Continuous
370
    -3
390
F
  0
LAYER
  5
31B6
330
2
100
AcDbSymbolTableRecord
100
AcDbLayerTableRecord
  2
Defpoints
 70
     0
 62
     7
  6
Continuous
290
     0
370
    -3
390
F
  0
LAYER
  5
4A772
102
{ACAD_XDICTIONARY
360
4A773
102
}
330
2
100
AcDbSymbolTableRecord
100
AcDbLayerTableRecord
  2
1
 70
     0
 62
     4
  6
Continuous
370
    50
390
F
1001
AcAecLayerStandard
1000

1000
Contour
  0
LAYER
  5
4A774
102
{ACAD_XDICTIONARY
360
4A775
102
}
330
2
100
AcDbSymbolTableRecord
100
AcDbLayerTableRecord
  2
2
 70
     0
 62
     7
  6
Continuous
370
    25
390
F
1001
AcAecLayerStandard
1000

1000
Dimension milling
  0
LAYER
  5
4A776
102
{ACAD_XDICTIONARY
360
4A777
102
}
330
2
100
AcDbSymbolTableRecord
100
AcDbLayerTableRecord
  2
4
 70
     0
 62
     2
  6
CENTER2
370
    25
390
F
1001
AcAecLayerStandard
1000

1000
Center line
  0
LAYER
  5
4A778
102
{ACAD_XDICTIONARY
360
4A779
102
}
330
2
100
AcDbSymbolTableRecord
100
AcDbLayerTableRecord
  2
cut
 70
     0
 62
     1
  6
Continuous
370
    25
390
F
1001
AcAecLayerStandard
1000

1000
contour
  0
LAYER
  5
4A77A
102
{ACAD_XDICTIONARY
360
4A77B
102
}
330
2
100
AcDbSymbolTableRecord
100
AcDbLayerTableRecord
  2
nocut
 70
     0
 62
     7
  6
Continuous
370
    25
390
F
1001
AcAecLayerStandard
1000

1000
contour
  0
LAYER
  5
4A77E
102
{ACAD_XDICTIONARY
360
4A77F
102
}
330
2
100
AcDbSymbolTableRecord
100
AcDbLayerTableRecord
  2
sk2
 70
     0
 62
     7
  6
Continuous
370
    25
390
F
1001
AcAecLayerStandard
1000

1000
sk2 dimension
  0
LAYER
  5
4A782
102
{ACAD_XDICTIONARY
360
4A783
102
}
330
2
100
AcDbSymbolTableRecord
100
AcDbLayerTableRecord
  2
sk6
 70
     0
 62
     5
  6
Continuous
370
    35
390
F
1001
AcAecLayerStandard
1000

1000
sk6 text
  0
LAYER
  5
87B52
102
{ACAD_XDICTIONARY
360
8C34C
102
}
330
2
100
AcDbSymbolTableRecord
100
AcDbLayerTableRecord
  2
sk3
 70
     0
 62
     1
  6
HIDDEN
370
    35
390
F
1001
AcAecLayerStandard
1000

1000

  0
ENDTAB
  0
TABLE
  2
STYLE
  5
3
330
0
100
AcDbSymbolTable
 70
     2
  0
STYLE
  5
11
330
3
100
AcDbSymbolTableRecord
100
AcDbTextStyleTableRecord
  2
Standard
 70
     0
 40
0.0
 41
1.0
 50
0.0
 71
     0
 42
2.5
  3
txt.shx
  4
@extfont2.shx
  0
STYLE
  5
24A
330
3
100
AcDbSymbolTableRecord
100
AcDbTextStyleTableRecord
  2
simplex
 70
     0
 40
3.5
 41
1.0
 50
0.0
 71
     0
 42
3.5
  3
txt.shx
  4

  0
ENDTAB
  0
TABLE
  2
VIEW
  5
6
330
0
100
AcDbSymbolTable
 70
     0
  0
ENDTAB
  0
TABLE
  2
UCS
  5
7
330
0
100
AcDbSymbolTable
 70
     0
  0
ENDTAB
  0
TABLE
  2
APPID
  5
9
330
0
100
AcDbSymbolTable
 70
    31
  0
APPID
  5
12
330
9
100
AcDbSymbolTableRecord
100
AcDbRegAppTableRecord
  2
ACAD
 70
     0
  0
APPID
  5
D2
330
9
100
AcDbSymbolTableRecord
100
AcDbRegAppTableRecord
  2
AcAecLayerStandard
 70
     0
  0
APPID
  5
E6
330
9
100
AcDbSymbolTableRecord
100
AcDbRegAppTableRecord
  2
ACAD_DSTYLE_DIMTEXT_FILL
 70
     0
  0
APPID
  5
4C84
330
9
100
AcDbSymbolTableRecord
100
AcDbRegAppTableRecord
  2
ACAD_EXEMPT_FROM_CAD_STANDARDS
 70
     0
  0
APPID
  5
3493E
330
9
100
AcDbSymbolTableRecord
100
AcDbRegAppTableRecord
  2
DCO15
 70
     0
  0
APPID
  5
3BAB0
330
9
100
AcDbSymbolTableRecord
100
AcDbRegAppTableRecord
  2
ACAD_DSTYLE_DIMEXT_ENABLED
 70
     0
  0
APPID
  5
3BAB1
330
9
100
AcDbSymbolTableRecord
100
AcDbRegAppTableRecord
  2
ACAD_DSTYLE_DIMEXT_LENGTH
 70
     0
  0
APPID
  5
3BEB4
330
9
100
AcDbSymbolTableRecord
100
AcDbRegAppTableRecord
  2
ACAUTHENVIRON
 70
     0
  0
APPID
  5
3BEB7
330
9
100
AcDbSymbolTableRecord
100
AcDbRegAppTableRecord
  2
AcDbDynamicBlockTrueName
 70
     0
  0
APPID
  5
3BEB8
330
9
100
AcDbSymbolTableRecord
100
AcDbRegAppTableRecord
  2
AcDbDynamicBlockGUID
 70
     0
  0
APPID
  5
3BEBA
330
9
100
AcDbSymbolTableRecord
100
AcDbRegAppTableRecord
  2
AcDbBlockRepETag
 70
     0
  0
APPID
  5
4A453
330
9
100
AcDbSymbolTableRecord
100
AcDbRegAppTableRecord
  2
ACAD_PSEXT
 70
     0
  0
APPID
  5
4A454
330
9
100
AcDbSymbolTableRecord
100
AcDbRegAppTableRecord
  2
AcadAnnotative
 70
     0
  0
APPID
  5
4A455
330
9
100
AcDbSymbolTableRecord
100
AcDbRegAppTableRecord
  2
ACAD_DSTYLE_DIMJAG
 70
     0
  0
APPID
  5
4A456
330
9
100
AcDbSymbolTableRecord
100
AcDbRegAppTableRecord
  2
ACAD_DSTYLE_DIMTALN
 70
     0
  0
APPID
  5
4A457
330
9
100
AcDbSymbolTableRecord
100
AcDbRegAppTableRecord
  2
ACAD_NAV_VCDISPLAY
 70
     0
  0
APPID
  5
4A787
330
9
100
AcDbSymbolTableRecord
100
AcDbRegAppTableRecord
  2
ACAD_DSTYLE_DIMINSPECT
 70
     0
  0
APPID
  5
4A788
330
9
100
AcDbSymbolTableRecord
100
AcDbRegAppTableRecord
  2
GENIUS_GENDTOL_13
 70
     0
  0
APPID
  5
4A789
330
9
100
AcDbSymbolTableRecord
100
AcDbRegAppTableRecord
  2
ZWMCAD_GENSTANDARDFRAME_13_
 70
     0
  0
APPID
  5
4A78A
330
9
100
AcDbSymbolTableRecord
100
AcDbRegAppTableRecord
  2
ZW_RECESS_XDATA
 70
     0
  0
APPID
  5
4A78B
330
9
100
AcDbSymbolTableRecord
100
AcDbRegAppTableRecord
  2
ZW_FAC_XDATA
 70
     0
  0
APPID
  5
4A78C
330
9
100
AcDbSymbolTableRecord
100
AcDbRegAppTableRecord
  2
ZW_FLC_XDATA
 70
     0
  0
APPID
  5
4A78D
330
9
100
AcDbSymbolTableRecord
100
AcDbRegAppTableRecord
  2
ZW_SUPERPART
 70
     0
  0
APPID
  5
4A78E
330
9
100
AcDbSymbolTableRecord
100
AcDbRegAppTableRecord
  2
ZW_SUPERSYMBOL
 70
     0
  0
APPID
  5
4A78F
330
9
100
AcDbSymbolTableRecord
100
AcDbRegAppTableRecord
  2
ZW_SUPERSHAFT
 70
     0
  0
APPID
  5
4A790
330
9
100
AcDbSymbolTableRecord
100
AcDbRegAppTableRecord
  2
ZWMCAD_GENFRAME_13_
 70
     0
  0
APPID
  5
4A791
330
9
100
AcDbSymbolTableRecord
100
AcDbRegAppTableRecord
  2
ACAD_MLEADERVER
 70
     0
  0
APPID
  5
4A792
330
9
100
AcDbSymbolTableRecord
100
AcDbRegAppTableRecord
  2
ACAD_DSTYLE_DIMRADIAL_EXTENSION
 70
     0
  0
APPID
  5
885F1
330
9
100
AcDbSymbolTableRecord
100
AcDbRegAppTableRecord
  2
ZWMCAD_GENSCA_13_
 70
     0
  0
APPID
  5
885EF
330
9
100
AcDbSymbolTableRecord
100
AcDbRegAppTableRecord
  2
ACAD_DSTYLE_DIMRADIAL_EXTE
 70
     0
  0
APPID
  5
885EE
330
9
100
AcDbSymbolTableRecord
100
AcDbRegAppTableRecord
  2
ZWMCAD_GENSTANDARDFRAME_13
 70
     0
  0
ENDTAB
  0
TABLE
  2
DIMSTYLE
  5
A
330
0
100
AcDbSymbolTable
 70
     2
100
AcDbDimStyleTable
 71
    21
340
1BF
340
3527
340
90771
340
907A6
340
907AC
340
907B1
340
907B7
340
919EE
340
919F4
340
919F9
340
919FF
340
91A04
340
91A0A
340
91A0F
340
91A15
340
91A1A
340
91A20
340
91A25
340
91A2B
340
91A30
340
91A36
  0
DIMSTYLE
105
1BF
102
{ACAD_REACTORS
330
928A6
330
928A7
330
928AA
330
928AB
330
928AC
330
92950
330
929C0
102
}
330
A
100
AcDbSymbolTableRecord
100
AcDbDimStyleTableRecord
  2
コピー - ISO-25
 70
     0
 40
0.0
 41
3.5
 42
0.0
 44
1.5
 73
     0
 74
     0
 77
     1
 78
     8
140
3.5
147
2.299999999999998
176
   256
177
   256
271
     2
178
   256
271
     2
272
     2
284
     8
340
24A
371
    -1
372
    -1
  0
DIMSTYLE
105
3527
330
A
100
AcDbSymbolTableRecord
100
AcDbDimStyleTableRecord
  2
STANDARD
 70
     0
 41
3.0
 47
0.001
 48
0.001
 71
     1
 73
     0
 74
     0
 77
     1
 78
     8
140
4.0
271
     3
272
     3
284
     8
340
11
341
34B1
342
34B1
343
34B1
344
34B1
  0
ENDTAB
  0
TABLE
  2
BLOCK_RECORD
  5
1
330
0
100
AcDbSymbolTable
 70
    11
  0
BLOCK_RECORD
  5
1F
102
{ACAD_XDICTIONARY
360
31EE
102
}
330
1
100
AcDbSymbolTableRecord
100
AcDbBlockTableRecord
  2
*Model_Space
340
22
  0
BLOCK_RECORD
  5
55
330
1
100
AcDbSymbolTableRecord
100
AcDbBlockTableRecord
  2
*Paper_Space
340
56
  0
BLOCK_RECORD
  5
50
330
1
100
AcDbSymbolTableRecord
100
AcDbBlockTableRecord
  2
*Paper_Space00000000
340
51
  0
BLOCK_RECORD
  5
34B1
330
1
100
AcDbSymbolTableRecord
100
AcDbBlockTableRecord
  2
_OPEN
340
0
  0
BLOCK_RECORD
  5
4A6D6
102
{ACAD_XDICTIONARY
360
4A6D7
102
}
330
1
100
AcDbSymbolTableRecord
100
AcDbBlockTableRecord
  2
zero block
340
0
102
{BLKREFS
331
8BFE6
331
92098
331
922DA
331
8BD57
331
8FB3B
331
8FDCA
331
4A793
331
880DD
331
882D3
331
87B7F
331
87D7D
331
90190
331
903FC
331
90821
331
90A84
331
90E49
331
910AD
331
91473
331
916B3
331
91AA1
331
91CE2
102
}
1001
AcDbDynamicBlockGUID
1000
{A89DF4EB-B2CB-439E-AC69-1EAC9F242D1C}
1001
AcDbBlockRepETag
1070
     1
1071
        7
1001
ACAD
1000
DesignCenter Data
1002
{
1070
     1
1070
     4
1002
}
  0
BLOCK_RECORD
  5
87D73
330
1
100
AcDbSymbolTableRecord
100
AcDbBlockTableRecord
  2
_None
340
0
102
{BLKREFS
331
8C250
331
8C292
331
8C2BE
331
8C2FE
331
8C332
331
91FFC
331
921DE
331
924BE
331
9250E
331
9258F
331
925B2
331
926FE
331
929C5
331
92A16
331
8BC93
331
8BCED
331
8BF27
331
8FA29
331
8FA4D
331
8FAA7
331
8FD00
331
8A12B
331
8DEC1
331
87FA2
331
87FBD
331
87FC5
331
88042
331
88238
331
884B1
331
884F0
331
88512
331
885AA
331
87D72
331
87F63
331
9002A
331
9006F
331
900CE
331
90117
331
903C3
331
9062B
331
90673
331
906DD
331
90724
331
909A6
331
90CA0
331
90CEB
331
90D5B
331
90DBF
331
90FCE
331
912CA
331
91315
331
9135A
331
913E9
331
915B9
331
91895
331
918E5
331
91966
331
91989
331
91BE7
331
91EC5
331
91F15
331
91F6B
102
}
  0
BLOCK_RECORD
  5
929C1
330
1
100
AcDbSymbolTableRecord
100
AcDbBlockTableRecord
  2
*D1944
340
0
  0
BLOCK_RECORD
  5
929CC
330
1
100
AcDbSymbolTableRecord
100
AcDbBlockTableRecord
  2
*D2055
340
0
  0
BLOCK_RECORD
  5
929D8
330
1
100
AcDbSymbolTableRecord
100
AcDbBlockTableRecord
  2
*D2166
340
0
  0
BLOCK_RECORD
  5
929E4
330
1
100
AcDbSymbolTableRecord
100
AcDbBlockTableRecord
  2
*D2277
340
0
  0
BLOCK_RECORD
  5
929F0
330
1
100
AcDbSymbolTableRecord
100
AcDbBlockTableRecord
  2
*D2388
340
0
  0
BLOCK_RECORD
  5
929FC
330
1
100
AcDbSymbolTableRecord
100
AcDbBlockTableRecord
  2
*D2499
340
0
  0
BLOCK_RECORD
  5
92A09
330
1
100
AcDbSymbolTableRecord
100
AcDbBlockTableRecord
  2
*D251010
340
0
  0
ENDTAB
  0
ENDSEC
  0
SECTION
  2
BLOCKS
  0
BLOCK
  5
20
330
1F
100
AcDbEntity
  8
0
100
AcDbBlockBegin
  2
*Model_Space
 70
     0
 10
0.0
 20
0.0
 30
0.0
  3
*Model_Space
  1

  0
ENDBLK
  5
21
330
1F
100
AcDbEntity
  8
0
100
AcDbBlockEnd
  0
BLOCK
  5
57
330
55
100
AcDbEntity
 67
     1
  8
0
100
AcDbBlockBegin
  2
*Paper_Space
 70
     0
 10
0.0
 20
0.0
 30
0.0
  3
*Paper_Space
  1

  0
ENDBLK
  5
58
330
55
100
AcDbEntity
 67
     1
  8
0
100
AcDbBlockEnd
  0
BLOCK
  5
52
330
50
100
AcDbEntity
  8
0
100
AcDbBlockBegin
  2
*Paper_Space00000000
 70
     0
 10
0.0
 20
0.0
 30
0.0
  3
*Paper_Space00000000
  1

  0
VIEWPORT
  5
6B
102
{ACAD_XDICTIONARY
360
87B05
102
}
330
50
100
AcDbEntity
  8
0
100
AcDbViewport
 10
264.3775031494645
 20
160.4455827878762
 30
0.0
 40
567.6219612953822
 41
282.2272140146125
 68
     1
 69
    -1
 12
264.3775031494645
 22
160.4455827878762
 13
0.0
 23
0.0
 14
10.0
 24
10.0
 15
10.0
 25
10.0
 16
0.0
 26
0.0
 36
1.0
 17
0.0
 27
0.0
 37
0.0
 42
50.0
 43
0.0
 44
0.0
 45
282.2272140146125
 50
0.0
 51
0.0
 72
  1000
 90
    32864
  1

281
     0
 71
     1
 74
     0
110
0.0
120
0.0
130
0.0
111
1.0
121
0.0
131
0.0
112
0.0
122
1.0
132
0.0
 79
     0
146
0.0
1001
ACAD
1000
MVIEW
1002
{
1070
    16
1010
0.0
1020
0.0
1030
0.0
1010
0.0
1020
0.0
1030
1.0
1040
0.0
1040
282.2272140146125
1040
264.3775031494645
1040
160.4455827878762
1040
50.0
1040
0.0
1040
0.0
1070
     0
1070
  1000
1070
     0
1070
     3
1070
     0
1070
     0
1070
     0
1070
     0
1040
0.0
1040
0.0
1040
0.0
1040
10.0
1040
10.0
1040
10.0
1040
10.0
1070
     0
1002
{
1002
}
1002
}
  0
VIEWPORT
  5
6D
102
{ACAD_XDICTIONARY
360
87B07
102
}
330
50
100
AcDbEntity
  8
0
100
AcDbViewport
 10
133.3499939441681
 20
101.5999939441681
 30
0.0
 40
213.3599903106689
 41
162.5599903106689
 68
     2
 69
    -1
 12
210.0
 22
148.5
 13
0.0
 23
0.0
 14
10.0
 24
10.0
 15
10.0
 25
10.0
 16
0.0
 26
0.0
 36
1.0
 17
0.0
 27
0.0
 37
0.0
 42
50.0
 43
0.0
 44
0.0
 45
324.0677920111345
 50
0.0
 51
0.0
 72
   100
 90
    32864
  1

281
     0
 71
     1
 74
     0
110
0.0
120
0.0
130
0.0
111
1.0
121
0.0
131
0.0
112
0.0
122
1.0
132
0.0
 79
     0
146
0.0
1001
ACAD
1000
MVIEW
1002
{
1070
    16
1010
0.0
1020
0.0
1030
0.0
1010
0.0
1020
0.0
1030
1.0
1040
0.0
1040
324.0677920111345
1040
210.0
1040
148.5
1040
50.0
1040
0.0
1040
0.0
1070
     0
1070
   100
1070
     0
1070
     3
1070
     0
1070
     0
1070
     0
1070
     0
1040
0.0
1040
0.0
1040
0.0
1040
10.0
1040
10.0
1040
10.0
1040
10.0
1070
     0
1002
{
1002
}
1002
}
  0
ENDBLK
  5
53
330
50
100
AcDbEntity
  8
0
100
AcDbBlockEnd
  0
BLOCK
  5
34B2
330
34B1
100
AcDbEntity
  8
0
100
AcDbBlockBegin
  2
_OPEN
 70
     0
 10
0.0
 20
0.0
 30
0.0
  3
_OPEN
  1

  0
LINE
  5
34B3
330
34B1
100
AcDbEntity
  8
0
  6
ByBlock
 62
     0
100
AcDbLine
 10
0.0
 20
0.0
 30
0.0
 11
-1.0
 21
0.1766666667
 31
0.0
  0
LINE
  5
34B4
330
34B1
100
AcDbEntity
  8
0
  6
ByBlock
 62
     0
100
AcDbLine
 10
-1.0
 20
-0.1766666667
 30
0.0
 11
0.0
 21
0.0
 31
0.0
  0
LINE
  5
34B5
330
34B1
100
AcDbEntity
  8
0
  6
ByBlock
 62
     0
100
AcDbLine
 10
-1.0
 20
0.0
 30
0.0
 11
0.0
 21
0.0
 31
0.0
  0
ENDBLK
  5
34B6
330
34B1
100
AcDbEntity
  8
0
  6
ByBlock
 62
     0
100
AcDbBlockEnd
  0
BLOCK
  5
4A6D9
330
4A6D6
100
AcDbEntity
  8
0
100
AcDbBlockBegin
  2
zero block
 70
     0
 10
0.0
 20
0.0
 30
0.0
  3
zero block
  1

  0
HATCH
  5
4A6DA
330
4A6D6
100
AcDbEntity
  8
0
 62
     7
100
AcDbHatch
 10
0.0
 20
0.0
 30
0.0
210
0.0
220
0.0
230
1.0
  2
SOLID
 70
     1
 71
     0
 91
        2
 92
        7
 72
     1
 73
     1
 93
        3
 10
0.0
 20
0.9999999999999875
 42
0.4142135623730915
 10
-1.0
 20
0.0
 42
0.0
 10
0.0
 20
0.0
 42
0.0
 97
        0
 92
        7
 72
     1
 73
     1
 93
        3
 10
1.000000000000007
 20
0.0
 42
0.0
 10
0.0
 20
0.0
 42
0.0
 10
0.0
 20
-1.0
 42
0.4142135623730974
 97
        0
 75
     0
 76
     1
 47
0.0090601366782909
 98
        2
 10
-0.380591363650975
 20
0.4885804701532896
 10
0.4350764810977559
 20
-0.4536738423704725
1001
AcDbBlockRepETag
1070
     1
1071
        0
1005
4A6DA
  0
LINE
  5
4A6DB
330
4A6D6
100
AcDbEntity
  8
0
 62
     7
 48
0.2
100
AcDbLine
 10
-1.0
 20
0.0
 30
0.0
 11
1.000000000000007
 21
0.0
 31
0.0
1001
AcDbBlockRepETag
1070
     1
1071
        1
1005
4A6DB
  0
LINE
  5
4A6DC
330
4A6D6
100
AcDbEntity
  8
0
 62
     7
 48
0.2
100
AcDbLine
 10
0.0
 20
-1.0
 30
0.0
 11
0.0
 21
0.9999999999999875
 31
0.0
1001
AcDbBlockRepETag
1070
     1
1071
        2
1005
4A6DC
  0
ARC
  5
4A6DD
330
4A6D6
100
AcDbEntity
  8
0
 62
     7
 48
0.2
100
AcDbCircle
 10
0.0
 20
0.0
 30
0.0
 40
1.0
100
AcDbArc
 50
270.0
 51
0.0
1001
AcDbBlockRepETag
1070
     1
1071
        3
1005
4A6DD
  0
ARC
  5
4A6DE
330
4A6D6
100
AcDbEntity
  8
0
 62
     7
 48
0.2
100
AcDbCircle
 10
0.0
 20
0.0
 30
0.0
 40
1.0
100
AcDbArc
 50
0.0
 51
90.0
1001
AcDbBlockRepETag
1070
     1
1071
        4
1005
4A6DE
  0
ARC
  5
4A6DF
330
4A6D6
100
AcDbEntity
  8
0
 62
     7
 48
0.2
100
AcDbCircle
 10
0.0
 20
0.0
 30
0.0
 40
1.0
100
AcDbArc
 50
180.0
 51
270.0
1001
AcDbBlockRepETag
1070
     1
1071
        5
1005
4A6DF
  0
ARC
  5
4A6E0
330
4A6D6
100
AcDbEntity
  8
0
 62
     7
 48
0.2
100
AcDbCircle
 10
0.0
 20
0.0
 30
0.0
 40
1.0
100
AcDbArc
 50
90.0
 51
180.0
1001
AcDbBlockRepETag
1070
     1
1071
        6
1005
4A6E0
  0
ENDBLK
  5
4A6E1
330
4A6D6
100
AcDbEntity
  8
0
100
AcDbBlockEnd
  0
BLOCK
  5
87D74
330
87D73
100
AcDbEntity
  8
0
100
AcDbBlockBegin
  2
_None
 70
     0
 10
0.0
 20
0.0
 30
0.0
  3
_None
  1

  0
ENDBLK
  5
87D75
330
87D73
100
AcDbEntity
  8
0
100
AcDbBlockEnd
  0
BLOCK
  5
929CA
330
929C1
100
AcDbEntity
  8
0
100
AcDbBlockBegin
  2
*D1944
 70
     1
 10
0.0
 20
0.0
 30
0.0
  3
*D1944
  1

  0
LINE
  5
92A13
330
929C1
100
AcDbEntity
  8
2
100
AcDbLine
 10
62.70000000000004
 20
50.79999999889998
 30
0.0
 11
91.15552348087021
 21
50.79999999889998
 31
0.0
  0
LINE
  5
92A14
330
929C1
100
AcDbEntity
  8
2
100
AcDbLine
 10
89.65552348087021
 20
47.29999999889996
 30
0.0
 11
89.65552348087021
 21
-50.7999999989
 31
0.0
  0
SOLID
  5
92A15
330
929C1
100
AcDbEntity
  8
2
100
AcDbTrace
 10
90.23885681420354
 20
47.29999999889996
 30
0.0
 11
89.07219014753689
 21
47.29999999889996
 31
0.0
 12
89.65552348087021
 22
50.79999999889998
 32
0.0
 13
89.65552348087021
 23
50.79999999889998
 33
0.0
  0
INSERT
  5
92A16
330
929C1
100
AcDbEntity
  8
2
100
AcDbBlockReference
  2
_None
 10
89.65552348087021
 20
-50.7999999989
 30
0.0
 41
3.5
 42
3.5
 43
3.5
 50
270.0
  0
MTEXT
  5
92A17
330
929C1
100
AcDbEntity
  8
2
100
AcDbMText
 10
85.6055234808702
 20
-1.750000000000014
 30
0.0
 40
3.5
 41
0.0
 71
     5
 72
     1
  1
\A1;%%C101.6 [%%c4.000"]
  7
simplex
 11
0.0
 21
1.0
 31
0.0
 73
     1
 44
1.0
1001
ACAD
1000
MTEXTBEGIN
1070
    73
1070
     1
1070
    44
1040
1.0
1070
    74
1070
     0
1000
MTEXTEND
  0
POINT
  5
92A18
330
929C1
100
AcDbEntity
  8
Defpoints
 62
     0
100
AcDbPoint
 10
62.70000000000004
 20
50.79999999889998
 30
0.0
  0
POINT
  5
92A19
330
929C1
100
AcDbEntity
  8
Defpoints
 62
     0
100
AcDbPoint
 10
62.70000000000004
 20
-50.7999999989
 30
0.0
  0
POINT
  5
92A1A
330
929C1
100
AcDbEntity
  8
Defpoints
 62
     0
100
AcDbPoint
 10
89.65552348087021
 20
-50.7999999989
 30
0.0
  0
ENDBLK
  5
929CB
330
929C1
100
AcDbEntity
  8
0
100
AcDbBlockEnd
  0
BLOCK
  5
929D6
330
929CC
100
AcDbEntity
  8
0
100
AcDbBlockBegin
  2
*D2055
 70
     1
 10
0.0
 20
0.0
 30
0.0
  3
*D2055
  1

  0
LINE
  5
92A1B
330
929CC
100
AcDbEntity
  8
sk2
100
AcDbLine
 10
8.0
 20
19.0499999989
 30
0.0
 11
-11.33416996484118
 21
19.0499999989
 31
0.0
  0
LINE
  5
92A1C
330
929CC
100
AcDbEntity
  8
sk2
100
AcDbLine
 10
8.0
 20
-19.0499999989
 30
0.0
 11
-11.33416996484118
 21
-19.0499999989
 31
0.0
  0
LINE
  5
92A1D
330
929CC
100
AcDbEntity
  8
sk2
100
AcDbLine
 10
-9.83416996484118
 20
15.5499999989
 30
0.0
 11
-9.83416996484118
 21
-15.5499999989
 31
0.0
  0
SOLID
  5
92A1E
330
929CC
100
AcDbEntity
  8
sk2
100
AcDbTrace
 10
-9.250836631507846
 20
15.5499999989
 30
0.0
 11
-10.41750329817451
 21
15.5499999989
 31
0.0
 12
-9.83416996484118
 22
19.0499999989
 32
0.0
 13
-9.83416996484118
 23
19.0499999989
 33
0.0
  0
SOLID
  5
92A1F
330
929CC
100
AcDbEntity
  8
sk2
100
AcDbTrace
 10
-10.41750329817451
 20
-15.5499999989
 30
0.0
 11
-9.250836631507846
 21
-15.5499999989
 31
0.0
 12
-9.83416996484118
 22
-19.0499999989
 32
0.0
 13
-9.83416996484118
 23
-19.0499999989
 33
0.0
  0
MTEXT
  5
92A20
330
929CC
100
AcDbEntity
  8
sk2
100
AcDbMText
 10
-13.88416996484117
 20
0.2603551642845332
 30
0.0
 40
3.5
 41
0.0
 71
     5
 72
     1
  1
\A1;%%C38.1 [%%c1.500"]
  7
simplex
 11
0.0
 21
1.0
 31
0.0
 73
     1
 44
1.0
1001
ACAD
1000
MTEXTBEGIN
1070
    73
1070
     1
1070
    44
1040
1.0
1070
    74
1070
     0
1000
MTEXTEND
  0
POINT
  5
92A21
330
929CC
100
AcDbEntity
  8
Defpoints
 62
     0
100
AcDbPoint
 10
8.0
 20
19.0499999989
 30
0.0
  0
POINT
  5
92A22
330
929CC
100
AcDbEntity
  8
Defpoints
 62
     0
100
AcDbPoint
 10
8.0
 20
-19.0499999989
 30
0.0
  0
POINT
  5
92A23
330
929CC
100
AcDbEntity
  8
Defpoints
 62
     0
100
AcDbPoint
 10
-9.83416996484118
 20
-19.0499999989
 30
0.0
  0
ENDBLK
  5
929D7
330
929CC
100
AcDbEntity
  8
0
100
AcDbBlockEnd
  0
BLOCK
  5
929E2
330
929D8
100
AcDbEntity
  8
0
100
AcDbBlockBegin
  2
*D2166
 70
     1
 10
0.0
 20
0.0
 30
0.0
  3
*D2166
  1

  0
LINE
  5
92A24
330
929D8
100
AcDbEntity
  8
sk2
100
AcDbLine
 10
7.837200600799974
 20
44.4500063856999
 30
0.0
 11
-21.61753199580573
 21
44.4500063856999
 31
0.0
  0
LINE
  5
92A25
330
929D8
100
AcDbEntity
  8
sk2
100
AcDbLine
 10
7.837200600799974
 20
-44.44999361430004
 30
0.0
 11
-21.61753199580574
 21
-44.44999361430004
 31
0.0
  0
LINE
  5
92A26
330
929D8
100
AcDbEntity
  8
sk2
100
AcDbLine
 10
-20.11753199580573
 20
40.95000638569991
 30
0.0
 11
-20.11753199580574
 21
-40.94999361430004
 31
0.0
  0
SOLID
  5
92A27
330
929D8
100
AcDbEntity
  8
sk2
100
AcDbTrace
 10
-19.5341986624724
 20
40.95000638569991
 30
0.0
 11
-20.70086532913906
 21
40.95000638569991
 31
0.0
 12
-20.11753199580573
 22
44.4500063856999
 32
0.0
 13
-20.11753199580573
 23
44.4500063856999
 33
0.0
  0
SOLID
  5
92A28
330
929D8
100
AcDbEntity
  8
sk2
100
AcDbTrace
 10
-20.70086532913907
 20
-40.94999361430004
 30
0.0
 11
-19.5341986624724
 21
-40.94999361430004
 31
0.0
 12
-20.11753199580574
 22
-44.44999361430004
 32
0.0
 13
-20.11753199580574
 23
-44.44999361430004
 33
0.0
  0
MTEXT
  5
92A29
330
929D8
100
AcDbEntity
  8
sk2
100
AcDbMText
 10
-24.16753199580573
 20
0.0000063856999478
 30
0.0
 40
3.5
 41
0.0
 71
     5
 72
     1
  1
\A1;%%C88.9 [%%c3.500"]
  7
simplex
 11
0.0000000000000001
 21
1.0
 31
0.0
 73
     1
 44
1.0
1001
ACAD
1000
MTEXTBEGIN
1070
    73
1070
     1
1070
    44
1040
1.0
1070
    74
1070
     0
1000
MTEXTEND
  0
POINT
  5
92A2A
330
929D8
100
AcDbEntity
  8
Defpoints
 62
     0
100
AcDbPoint
 10
7.837200600799974
 20
44.4500063856999
 30
0.0
  0
POINT
  5
92A2B
330
929D8
100
AcDbEntity
  8
Defpoints
 62
     0
100
AcDbPoint
 10
7.837200600799974
 20
-44.44999361430004
 30
0.0
  0
POINT
  5
92A2C
330
929D8
100
AcDbEntity
  8
Defpoints
 62
     0
100
AcDbPoint
 10
-20.11753199580574
 20
-44.44999361430004
 30
0.0
  0
ENDBLK
  5
929E3
330
929D8
100
AcDbEntity
  8
0
100
AcDbBlockEnd
  0
BLOCK
  5
929EE
330
929E4
100
AcDbEntity
  8
0
100
AcDbBlockBegin
  2
*D2277
 70
     1
 10
0.0
 20
0.0
 30
0.0
  3
*D2277
  1

  0
LINE
  5
92AC4
330
929E4
100
AcDbEntity
  8
2
100
AcDbLine
 10
0.0
 20
42.44999999889993
 30
0.0
 11
0.0
 21
80.49442999719628
 31
0.0
  0
LINE
  5
92AC5
330
929E4
100
AcDbEntity
  8
2
100
AcDbLine
 10
63.50000000000012
 20
49.99999999890002
 30
0.0
 11
63.50000000000012
 21
80.49442999719628
 31
0.0
  0
LINE
  5
92AC6
330
929E4
100
AcDbEntity
  8
2
100
AcDbLine
 10
3.5
 20
78.99442999719628
 30
0.0
 11
60.00000000000011
 21
78.99442999719628
 31
0.0
  0
SOLID
  5
92AC7
330
929E4
100
AcDbEntity
  8
2
100
AcDbTrace
 10
3.5
 20
79.57776333052961
 30
0.0
 11
3.5
 21
78.41109666386294
 31
0.0
 12
0.0
 22
78.99442999719628
 32
0.0
 13
0.0
 23
78.99442999719628
 33
0.0
  0
SOLID
  5
92AC8
330
929E4
100
AcDbEntity
  8
2
100
AcDbTrace
 10
60.00000000000011
 20
78.41109666386294
 30
0.0
 11
60.00000000000011
 21
79.57776333052961
 31
0.0
 12
63.50000000000012
 22
78.99442999719628
 32
0.0
 13
63.50000000000012
 23
78.99442999719628
 33
0.0
  0
MTEXT
  5
92AC9
330
929E4
100
AcDbEntity
  8
2
100
AcDbMText
 10
31.75000000000006
 20
83.04442999719627
 30
0.0
 40
3.5
 41
0.0
 71
     5
 72
     1
  1
\A1;63.5 [2.500"]
  7
simplex
 73
     1
 44
1.0
1001
ACAD
1000
MTEXTBEGIN
1070
    73
1070
     1
1070
    44
1040
1.0
1070
    74
1070
     0
1000
MTEXTEND
  0
POINT
  5
92ACA
330
929E4
100
AcDbEntity
  8
Defpoints
 62
     0
100
AcDbPoint
 10
0.0
 20
42.44999999889993
 30
0.0
  0
POINT
  5
92ACB
330
929E4
100
AcDbEntity
  8
Defpoints
 62
     0
100
AcDbPoint
 10
63.50000000000012
 20
49.99999999890002
 30
0.0
  0
POINT
  5
92ACC
330
929E4
100
AcDbEntity
  8
Defpoints
 62
     0
100
AcDbPoint
 10
63.50000000000012
 20
78.99442999719628
 30
0.0
  0
ENDBLK
  5
929EF
330
929E4
100
AcDbEntity
  8
0
100
AcDbBlockEnd
  0
BLOCK
  5
929FA
330
929F0
100
AcDbEntity
  8
0
100
AcDbBlockBegin
  2
*D2388
 70
     1
 10
0.0
 20
0.0
 30
0.0
  3
*D2388
  1

  0
LINE
  5
92A36
330
929F0
100
AcDbEntity
  8
sk2
100
AcDbLine
 10
0.0
 20
-42.44999170410003
 30
0.0
 11
0.0
 21
-67.36312418500563
 31
0.0
  0
LINE
  5
92A37
330
929F0
100
AcDbEntity
  8
sk2
100
AcDbLine
 10
42.0
 20
-26.9999999989
 30
0.0
 11
42.0
 21
-67.36312418500563
 31
0.0
  0
LINE
  5
92A38
330
929F0
100
AcDbEntity
  8
sk2
100
AcDbLine
 10
3.5
 20
-65.86312418500563
 30
0.0
 11
38.5
 21
-65.86312418500563
 31
0.0
  0
SOLID
  5
92A39
330
929F0
100
AcDbEntity
  8
sk2
100
AcDbTrace
 10
3.5
 20
-65.2797908516723
 30
0.0
 11
3.5
 21
-66.44645751833896
 31
0.0
 12
0.0
 22
-65.86312418500563
 32
0.0
 13
0.0
 23
-65.86312418500563
 33
0.0
  0
SOLID
  5
92A3A
330
929F0
100
AcDbEntity
  8
sk2
100
AcDbTrace
 10
38.5
 20
-66.44645751833896
 30
0.0
 11
38.5
 21
-65.2797908516723
 31
0.0
 12
42.0
 22
-65.86312418500563
 32
0.0
 13
42.0
 23
-65.86312418500563
 33
0.0
  0
MTEXT
  5
92A3B
330
929F0
100
AcDbEntity
  8
sk2
100
AcDbMText
 10
21.0
 20
-61.81312418500564
 30
0.0
 40
3.5
 41
0.0
 71
     5
 72
     1
  1
\A1;42 [1.654"]
  7
simplex
 73
     1
 44
1.0
1001
ACAD
1000
MTEXTBEGIN
1070
    73
1070
     1
1070
    44
1040
1.0
1070
    74
1070
     0
1000
MTEXTEND
  0
POINT
  5
92A3C
330
929F0
100
AcDbEntity
  8
Defpoints
 62
     0
100
AcDbPoint
 10
0.0
 20
-42.44999170410003
 30
0.0
  0
POINT
  5
92A3D
330
929F0
100
AcDbEntity
  8
Defpoints
 62
     0
100
AcDbPoint
 10
42.0
 20
-26.9999999989
 30
0.0
  0
POINT
  5
92A3E
330
929F0
100
AcDbEntity
  8
Defpoints
 62
     0
100
AcDbPoint
 10
42.0
 20
-65.86312418500563
 30
0.0
  0
ENDBLK
  5
929FB
330
929F0
100
AcDbEntity
  8
0
100
AcDbBlockEnd
  0
BLOCK
  5
92A07
330
929FC
100
AcDbEntity
  8
0
100
AcDbBlockBegin
  2
*D2499
 70
     1
 10
0.0
 20
0.0
 30
0.0
  3
*D2499
  1

  0
LINE
  5
92ABA
330
929FC
100
AcDbEntity
  8
2
100
AcDbLine
 10
55.30000000000007
 20
50.79999999889998
 30
0.0
 11
55.30000000000007
 21
71.06566153280346
 31
0.0
  0
LINE
  5
92ABB
330
929FC
100
AcDbEntity
  8
2
100
AcDbLine
 10
63.50000000000012
 20
49.99999999890002
 30
0.0
 11
63.50000000000012
 21
71.06566153280346
 31
0.0
  0
LINE
  5
92ABC
330
929FC
100
AcDbEntity
  8
2
100
AcDbLine
 10
67.00000000000011
 20
69.56566153280346
 30
0.0
 11
119.4333333333334
 21
69.56566153280346
 31
0.0
  0
LINE
  5
92ABD
330
929FC
100
AcDbEntity
  8
2
100
AcDbLine
 10
51.80000000000006
 20
69.56566153280346
 30
0.0
 11
48.30000000000007
 21
69.56566153280346
 31
0.0
  0
SOLID
  5
92ABE
330
929FC
100
AcDbEntity
  8
2
100
AcDbTrace
 10
51.80000000000006
 20
68.98232819947013
 30
0.0
 11
51.80000000000006
 21
70.14899486613678
 31
0.0
 12
55.30000000000007
 22
69.56566153280346
 32
0.0
 13
55.30000000000007
 23
69.56566153280346
 33
0.0
  0
SOLID
  5
92ABF
330
929FC
100
AcDbEntity
  8
2
100
AcDbTrace
 10
67.00000000000011
 20
70.14899486613678
 30
0.0
 11
67.00000000000011
 21
68.98232819947013
 31
0.0
 12
63.50000000000012
 22
69.56566153280346
 32
0.0
 13
63.50000000000012
 23
69.56566153280346
 33
0.0
  0
MTEXT
  5
92AC0
330
929FC
100
AcDbEntity
  8
2
100
AcDbMText
 10
94.96666666666678
 20
73.61566153280346
 30
0.0
 40
3.5
 41
0.0
 71
     5
 72
     1
  1
\A1;8.2 [.323"](MAX)
  7
simplex
 73
     1
 44
1.0
1001
ACAD
1000
MTEXTBEGIN
1070
    73
1070
     1
1070
    44
1040
1.0
1070
    74
1070
     0
1000
MTEXTEND
  0
POINT
  5
92AC1
330
929FC
100
AcDbEntity
  8
Defpoints
 62
     0
100
AcDbPoint
 10
55.30000000000007
 20
50.79999999889998
 30
0.0
  0
POINT
  5
92AC2
330
929FC
100
AcDbEntity
  8
Defpoints
 62
     0
100
AcDbPoint
 10
63.50000000000012
 20
49.99999999890002
 30
0.0
  0
POINT
  5
92AC3
330
929FC
100
AcDbEntity
  8
Defpoints
 62
     0
100
AcDbPoint
 10
63.50000000000012
 20
69.56566153280346
 30
0.0
  0
ENDBLK
  5
92A08
330
929FC
100
AcDbEntity
  8
0
100
AcDbBlockEnd
  0
BLOCK
  5
92A11
330
92A09
100
AcDbEntity
  8
0
100
AcDbBlockBegin
  2
*D251010
 70
     1
 10
0.0
 20
0.0
 30
0.0
  3
*D251010
  1

  0
LINE
  5
92A49
330
92A09
100
AcDbEntity
  8
2
100
AcDbLine
 10
107.7062447564847
 20
60.58107007855195
 30
0.0
 11
66.88587279999028
 21
50.9841081750176
 31
0.0
  0
MTEXT
  5
92A4A
330
92A09
100
AcDbEntity
  8
2
100
AcDbMText
 10
88.07271907747162
 20
60.12560637054439
 30
0.0
 40
3.5
 41
0.0
 71
     5
 72
     1
  1
\A1;R0.8 [R.031"]
  7
simplex
 11
0.9734587906954152
 21
0.228862366538975
 31
0.0
 73
     1
 44
1.0
1001
ACAD
1000
MTEXTBEGIN
1070
    73
1070
     1
1070
    44
1040
1.0
1070
    74
1070
     0
1000
MTEXTEND
  0
SOLID
  5
92A4B
330
92A09
100
AcDbEntity
  8
2
100
AcDbTrace
 10
66.75236975284254
 20
51.55195913625659
 30
0.0
 11
67.01937584713802
 21
50.41625721377862
 31
0.0
 12
63.47876703255632
 22
50.18308989213117
 32
0.0
 13
63.47876703255632
 23
50.18308989213117
 33
0.0
  0
LINE
  5
92A4C
330
92A09
100
AcDbEntity
  8
2
100
AcDbLine
 10
62.61000000000002
 20
49.99999999890002
 30
0.0
 11
62.79000000000005
 21
49.99999999890002
 31
0.0
  0
LINE
  5
92A4D
330
92A09
100
AcDbEntity
  8
2
100
AcDbLine
 10
62.70000000000004
 20
49.90999999890002
 30
0.0
 11
62.70000000000004
 21
50.08999999890002
 31
0.0
  0
POINT
  5
92A4E
330
92A09
100
AcDbEntity
  8
Defpoints
 62
     0
100
AcDbPoint
 10
63.47876703255632
 20
50.18308989213117
 30
0.0
  0
POINT
  5
92A4F
330
92A09
100
AcDbEntity
  8
Defpoints
 62
     0
100
AcDbPoint
 10
62.70000000000004
 20
49.99999999890002
 30
0.0
  0
ENDBLK
  5
92A12
330
92A09
100
AcDbEntity
  8
0
100
AcDbBlockEnd
  0
ENDSEC
  0
SECTION
  2
ENTITIES
  0
INSERT
  5
4A793
330
1F
100
AcDbEntity
  8
0
100
AcDbBlockReference
  2
zero block
 10
0.0
 20
0.0
 30
0.0
 50
180.0
  0
MTEXT
  5
922D9
330
1F
100
AcDbEntity
  8
sk6
100
AcDbMText
 10
2.74624750861713
 20
102.6757286116273
 30
0.0
 40
3.5
 41
139.3353303764208
 71
     1
 72
     5
  1
WWX400UR4_0009EA
 73
     1
 44
0.9
1001
ACAD
1000
MTEXTBEGIN
1070
    73
1070
     1
1070
    44
1040
0.9
1070
    74
1070
     0
1000
MTEXTEND
1000
ACAD_MTEXT_DEFINED_HEIGHT_BEGIN
1070
    46
1040
3.48901801050149
1000
ACAD_MTEXT_DEFINED_HEIGHT_END
  0
LINE
  5
92869
330
1F
100
AcDbEntity
  8
4
100
AcDbLine
 10
68.83693405598956
 20
0.0
 30
0.0
 11
-2.907861614760575
 21
0.0
 31
0.0
  0
LINE
  5
9286A
330
1F
100
AcDbEntity
  8
nocut
100
AcDbLine
 10
0.0
 20
0.0
 30
0.0
 11
0.0
 21
42.44999999889993
 31
0.0
  0
LINE
  5
9286B
330
1F
100
AcDbEntity
  8
sk3
100
AcDbLine
 10
0.9999999044000558
 20
7.937506385699946
 30
0.0
 11
0.9999999044000558
 21
19.5499999989
 31
0.0
  0
LINE
  5
9286C
330
1F
100
AcDbEntity
  8
nocut
100
AcDbLine
 10
61.71340946179999
 20
0.0
 30
0.0
 11
0.0
 21
0.0
 31
0.0
  0
LINE
  5
9286D
330
1F
100
AcDbEntity
  8
sk3
100
AcDbLine
 10
0.9999999044000558
 20
19.5499999989
 30
0.0
 11
0.0
 21
20.54999989839999
 31
0.0
  0
LINE
  5
9286E
330
1F
100
AcDbEntity
  8
sk3
100
AcDbLine
 10
8.0
 20
7.937506385699946
 30
0.0
 11
8.0
 21
19.5499999989
 31
0.0
  0
LINE
  5
9286F
330
1F
100
AcDbEntity
  8
nocut
100
AcDbLine
 10
25.28450007520007
 20
45.15614758319997
 30
0.0
 11
37.44576409039996
 21
49.58248569580003
 31
0.0
  0
LINE
  5
92870
330
1F
100
AcDbEntity
  8
sk3
100
AcDbLine
 10
25.89046496530011
 20
19.0499999989
 30
0.0
 11
25.89046496530011
 21
0.0
 31
0.0
  0
LINE
  5
92871
102
{ACAD_REACTORS
330
928A9
102
}
330
1F
100
AcDbEntity
  8
sk3
100
AcDbLine
 10
8.0
 20
19.0499999989
 30
0.0
 11
25.89046496530011
 21
19.0499999989
 31
0.0
  0
LINE
  5
92872
330
1F
100
AcDbEntity
  8
sk3
100
AcDbLine
 10
39.28689076490002
 20
19.0499999989
 30
0.0
 11
41.00000001139995
 21
19.0499999989
 31
0.0
  0
LINE
  5
92873
330
1F
100
AcDbEntity
  8
sk3
100
AcDbLine
 10
0.9999999044000558
 20
19.5499999989
 30
0.0
 11
8.0
 21
19.5499999989
 31
0.0
  0
LINE
  5
92874
330
1F
100
AcDbEntity
  8
sk3
100
AcDbLine
 10
29.17735573009998
 20
20.49999999889999
 30
0.0
 11
35.82264426990003
 21
20.49999999889999
 31
0.0
  0
LINE
  5
92875
330
1F
100
AcDbEntity
  8
sk3
100
AcDbLine
 10
36.16073887929997
 20
20.42504622850001
 30
0.0
 11
38.94879615550008
 21
19.12495376929999
 31
0.0
  0
LINE
  5
92876
330
1F
100
AcDbEntity
  8
sk3
100
AcDbLine
 10
43.0000000000001
 20
27.9999999989
 30
0.0
 11
55.71340946179996
 21
27.9999999989
 31
0.0
  0
LINE
  5
92877
330
1F
100
AcDbEntity
  8
sk3
100
AcDbLine
 10
25.89046496530011
 20
19.0499999989
 30
0.0
 11
28.83926112080008
 21
20.42504622850001
 31
0.0
  0
LINE
  5
92878
330
1F
100
AcDbEntity
  8
sk3
100
AcDbLine
 10
41.00000001139995
 20
19.0499999989
 30
0.0
 11
41.00000001139995
 21
0.0
 31
0.0
  0
LINE
  5
92879
330
1F
100
AcDbEntity
  8
sk3
100
AcDbLine
 10
42.0
 20
0.0
 30
0.0
 11
42.0
 21
26.9999999989
 31
0.0
  0
LINE
  5
9287A
330
1F
100
AcDbEntity
  8
sk3
100
AcDbLine
 10
41.00000001139995
 20
19.0499999989
 30
0.0
 11
42.0
 21
20.04999998689999
 31
0.0
  0
LINE
  5
9287B
330
1F
100
AcDbEntity
  8
sk3
100
AcDbLine
 10
55.71340946179996
 20
27.9999999989
 30
0.0
 11
56.71340946179999
 21
28.99999999889999
 31
0.0
  0
LINE
  5
9287C
330
1F
100
AcDbEntity
  8
sk3
100
AcDbLine
 10
57.16001868490002
 20
34.30093006869999
 30
0.0
 11
60.80814467829566
 21
40.21578575653521
 31
0.0
  0
LINE
  5
9287D
330
1F
100
AcDbEntity
  8
nocut
100
AcDbLine
 10
2.0
 20
44.44999999889995
 30
0.0
 11
13.67440120159995
 21
44.44999999889995
 31
0.0
  0
LINE
  5
9287E
330
1F
100
AcDbEntity
  8
sk3
100
AcDbLine
 10
55.71340946179996
 20
27.9999999989
 30
0.0
 11
55.71340946179996
 21
0.0
 31
0.0
  0
LINE
  5
9287F
330
1F
100
AcDbEntity
  8
nocut
100
AcDbLine
 10
38.41946730109999
 20
49.7629509189
 30
0.0
 11
51.9738233841
 21
49.99954308440004
 31
0.0
  0
LINE
  5
92880
330
1F
100
AcDbEntity
  8
nocut
100
AcDbLine
 10
52.0261806034
 20
49.99999999890002
 30
0.0
 11
55.71340946179996
 21
49.99999999890002
 31
0.0
  0
LINE
  5
92881
330
1F
100
AcDbEntity
  8
sk3
100
AcDbLine
 10
56.71340946179999
 20
32.7260664108
 30
0.0
 11
56.71340946179999
 21
0.0
 31
0.0
  0
LINE
  5
92882
330
1F
100
AcDbEntity
  8
nocut
100
AcDbLine
 10
61.71340946179999
 20
43.99999999889999
 30
0.0
 11
61.71340946179999
 21
0.0
 31
0.0
  0
ARC
  5
92883
330
1F
100
AcDbEntity
  8
nocut
100
AcDbCircle
 10
18.44409720869998
 20
63.94999999889996
 30
0.0
 40
20.0
100
AcDbArc
 50
258.0312544452983
 51
290.0000000000037
  0
ARC
  5
92884
330
1F
100
AcDbEntity
  8
nocut
100
AcDbCircle
 10
55.71340946179996
 20
43.99999999889999
 30
0.0
 40
6.0
100
AcDbArc
 50
0.0
 51
90.0
  0
ARC
  5
92885
330
1F
100
AcDbEntity
  8
nocut
100
AcDbCircle
 10
52.0261806034
 20
46.99999999890002
 30
0.0
 40
3.0
100
AcDbArc
 50
90.0
 51
91.00000000000177
  0
ARC
  5
92886
330
1F
100
AcDbEntity
  8
nocut
100
AcDbCircle
 10
38.47182452039999
 20
46.76340783339997
 30
0.0
 40
3.0
100
AcDbArc
 50
91.00000000000177
 51
110.0000000000037
  0
ARC
  5
92887
330
1F
100
AcDbEntity
  8
nocut
100
AcDbCircle
 10
13.67440120159995
 20
41.44999999889996
 30
0.0
 40
3.0
100
AcDbArc
 50
78.0312544452983
 51
90.0
  0
ARC
  5
92888
330
1F
100
AcDbEntity
  8
sk3
100
AcDbCircle
 10
59.71340946179996
 20
32.7260664108
 30
0.0
 40
3.0
100
AcDbArc
 50
148.3348161917031
 51
180.0
  0
ARC
  5
92889
330
1F
100
AcDbEntity
  8
nocut
100
AcDbCircle
 10
2.0
 20
42.44999999889993
 30
0.0
 40
2.0
100
AcDbArc
 50
90.0
 51
180.0
  0
ARC
  5
9288A
330
1F
100
AcDbEntity
  8
sk3
100
AcDbCircle
 10
43.0000000000001
 20
26.9999999989
 30
0.0
 40
1.0
100
AcDbArc
 50
90.0
 51
180.0
  0
ARC
  5
9288B
330
1F
100
AcDbEntity
  8
sk3
100
AcDbCircle
 10
29.17735573009998
 20
19.69999999890001
 30
0.0
 40
0.8
100
AcDbArc
 50
90.0
 51
115.0
  0
ARC
  5
9288C
330
1F
100
AcDbEntity
  8
sk3
100
AcDbCircle
 10
39.28689076490002
 20
19.84999999890002
 30
0.0
 40
0.8
100
AcDbArc
 50
244.9999999999999
 51
270.0
  0
ARC
  5
9288D
330
1F
100
AcDbEntity
  8
sk3
100
AcDbCircle
 10
35.82264426990003
 20
19.69999999890001
 30
0.0
 40
0.8
100
AcDbArc
 50
64.99999999999996
 51
90.0
  0
LINE
  5
9288E
330
1F
100
AcDbEntity
  8
sk3
100
AcDbLine
 10
0.9999999044000558
 20
-7.937493614300053
 30
0.0
 11
0.9999999044000558
 21
-19.5499999989
 31
0.0
  0
LINE
  5
9288F
330
1F
100
AcDbEntity
  8
sk3
100
AcDbLine
 10
0.9999999044000558
 20
-19.5499999989
 30
0.0
 11
0.0
 21
-20.54999989839999
 31
0.0
  0
LINE
  5
92890
330
1F
100
AcDbEntity
  8
sk3
100
AcDbLine
 10
8.0
 20
-7.937493614300053
 30
0.0
 11
8.0
 21
-19.5499999989
 31
0.0
  0
LINE
  5
92891
330
1F
100
AcDbEntity
  8
sk3
100
AcDbLine
 10
25.89046496530011
 20
-19.0499999989
 30
0.0
 11
25.89046496530011
 21
0.0
 31
0.0
  0
LINE
  5
92892
102
{ACAD_REACTORS
330
928A9
102
}
330
1F
100
AcDbEntity
  8
sk3
100
AcDbLine
 10
8.0
 20
-19.0499999989
 30
0.0
 11
25.89046496530011
 21
-19.0499999989
 31
0.0
  0
LINE
  5
92893
330
1F
100
AcDbEntity
  8
sk3
100
AcDbLine
 10
39.28689076490002
 20
-19.0499999989
 30
0.0
 11
41.00000001139995
 21
-19.0499999989
 31
0.0
  0
LINE
  5
92894
330
1F
100
AcDbEntity
  8
sk3
100
AcDbLine
 10
0.9999999044000558
 20
-19.5499999989
 30
0.0
 11
8.0
 21
-19.5499999989
 31
0.0
  0
LINE
  5
92895
330
1F
100
AcDbEntity
  8
sk3
100
AcDbLine
 10
29.17735573009998
 20
-20.49999999889999
 30
0.0
 11
35.82264426990003
 21
-20.49999999889999
 31
0.0
  0
LINE
  5
92896
330
1F
100
AcDbEntity
  8
sk3
100
AcDbLine
 10
36.16073887929997
 20
-20.42504622850001
 30
0.0
 11
38.94879615550008
 21
-19.12495376929999
 31
0.0
  0
LINE
  5
92897
330
1F
100
AcDbEntity
  8
sk3
100
AcDbLine
 10
43.0000000000001
 20
-27.9999999989
 30
0.0
 11
55.71340946179996
 21
-27.9999999989
 31
0.0
  0
LINE
  5
92898
330
1F
100
AcDbEntity
  8
sk3
100
AcDbLine
 10
25.89046496530011
 20
-19.0499999989
 30
0.0
 11
28.83926112080008
 21
-20.42504622850001
 31
0.0
  0
LINE
  5
92899
330
1F
100
AcDbEntity
  8
sk3
100
AcDbLine
 10
41.00000001139995
 20
-19.0499999989
 30
0.0
 11
41.00000001139995
 21
0.0
 31
0.0
  0
LINE
  5
9289A
330
1F
100
AcDbEntity
  8
sk3
100
AcDbLine
 10
42.0
 20
0.0
 30
0.0
 11
42.0
 21
-26.9999999989
 31
0.0
  0
LINE
  5
9289B
330
1F
100
AcDbEntity
  8
sk3
100
AcDbLine
 10
41.00000001139995
 20
-19.0499999989
 30
0.0
 11
42.0
 21
-20.04999998689999
 31
0.0
  0
LINE
  5
9289C
330
1F
100
AcDbEntity
  8
sk3
100
AcDbLine
 10
55.71340946179996
 20
-27.9999999989
 30
0.0
 11
56.71340946179999
 21
-28.99999999889999
 31
0.0
  0
LINE
  5
9289D
330
1F
100
AcDbEntity
  8
sk3
100
AcDbLine
 10
57.16001868490002
 20
-34.30093006869999
 30
0.0
 11
61.56453972070003
 21
-41.44215993520001
 31
0.0
  0
LINE
  5
9289E
330
1F
100
AcDbEntity
  8
sk3
100
AcDbLine
 10
55.71340946179996
 20
-27.9999999989
 30
0.0
 11
55.71340946179996
 21
0.0
 31
0.0
  0
LINE
  5
9289F
330
1F
100
AcDbEntity
  8
sk3
100
AcDbLine
 10
56.71340946179999
 20
-32.7260664108
 30
0.0
 11
56.71340946179999
 21
0.0
 31
0.0
  0
ARC
  5
928A0
330
1F
100
AcDbEntity
  8
sk3
100
AcDbCircle
 10
59.71340946179996
 20
-32.7260664108
 30
0.0
 40
3.0
100
AcDbArc
 50
180.0
 51
211.6651838082968
  0
ARC
  5
928A1
330
1F
100
AcDbEntity
  8
sk3
100
AcDbCircle
 10
60.71340946179996
 20
-41.9671144879
 30
0.0
 40
1.0
100
AcDbArc
 50
0.0
 51
31.66518380829684
  0
ARC
  5
928A2
102
{ACAD_REACTORS
330
928AE
102
}
330
1F
100
AcDbEntity
  8
sk3
100
AcDbCircle
 10
43.0000000000001
 20
-26.9999999989
 30
0.0
 40
1.0
100
AcDbArc
 50
180.0
 51
270.0
  0
ARC
  5
928A3
330
1F
100
AcDbEntity
  8
sk3
100
AcDbCircle
 10
29.17735573009998
 20
-19.69999999890001
 30
0.0
 40
0.8
100
AcDbArc
 50
244.9999999999999
 51
270.0
  0
ARC
  5
928A4
330
1F
100
AcDbEntity
  8
sk3
100
AcDbCircle
 10
39.28689076490002
 20
-19.84999999890002
 30
0.0
 40
0.8
100
AcDbArc
 50
90.0
 51
115.0
  0
ARC
  5
928A5
330
1F
100
AcDbEntity
  8
sk3
100
AcDbCircle
 10
35.82264426990003
 20
-19.69999999890001
 30
0.0
 40
0.8
100
AcDbArc
 50
270.0
 51
295.0
  0
DIMENSION
  5
928A6
330
1F
100
AcDbEntity
  8
2
100
AcDbDimension
  2
*D1944
 10
89.65552348087021
 20
-50.7999999989
 30
0.0
 11
85.6055234808702
 21
-1.750000000000014
 31
0.0
 70
    32
  1
%%C<>
 71
     5
 42
101.5999999978
  3
コピー - ISO-25
100
AcDbAlignedDimension
 13
62.70000000000004
 23
50.79999999889998
 33
0.0
 14
62.70000000000004
 24
-50.7999999989
 34
0.0
 50
90.0
100
AcDbRotatedDimension
1001
ACAD
1000
DSTYLE
1002
{
1070
   170
1070
     1
1070
   171
1070
     3
1070
   143
1040
0.0393700787401575
1070
   285
1070
     4
1070
     4
1000
%%c[]"
1070
   344
1005
87D73
1070
   271
1070
     8
1070
   173
1070
     1
1070
    40
1040
1.0
1070
    76
1070
     1
1002
}
1001
ACAD_DSTYLE_DIMINSPECT
1070
   393
1070
     0
1070
   394
1070
     0
1070
   395
1000

1070
   396
1000

  0
DIMENSION
  5
928A7
102
{ACAD_XDICTIONARY
360
928A8
102
}
102
{ACAD_REACTORS
330
928A9
102
}
330
1F
100
AcDbEntity
  8
sk2
100
AcDbDimension
  2
*D2055
 10
-9.83416996484118
 20
-19.0499999989
 30
0.0
 11
-9.83416996484118
 21
0.2603551642845332
 31
0.0
 70
   160
  1
%%C<>
 71
     5
 42
38.0999999978
  3
コピー - ISO-25
100
AcDbAlignedDimension
 13
8.0
 23
19.0499999989
 33
0.0
 14
8.0
 24
-19.0499999989
 34
0.0
 50
90.0
100
AcDbRotatedDimension
1001
ACAD
1000
DSTYLE
1002
{
1070
   170
1070
     1
1070
   171
1070
     3
1070
   143
1040
0.0393700787401575
1070
   285
1070
     4
1070
     4
1000
%%c[]"
1070
   271
1070
     8
1070
    40
1040
1.0
1002
}
1001
ACAD_DSTYLE_DIMINSPECT
1070
   393
1070
     0
1070
   394
1070
     0
1070
   395
1000

1070
   396
1000

  0
DIMENSION
  5
928AA
330
1F
100
AcDbEntity
  8
sk2
100
AcDbDimension
  2
*D2166
 10
-20.11753199580574
 20
-44.44999361430004
 30
0.0
 11
-20.11753199580573
 21
0.0000063856999475
 31
0.0
 70
   160
  1
%%C<>
 71
     5
 42
88.9
  3
コピー - ISO-25
100
AcDbAlignedDimension
 13
7.837200600799974
 23
44.4500063856999
 33
0.0
 14
7.837200600799974
 24
-44.44999361430004
 34
0.0
 50
90.0
100
AcDbRotatedDimension
1001
ACAD
1000
DSTYLE
1002
{
1070
   170
1070
     1
1070
   171
1070
     3
1070
   143
1040
0.0393700787401575
1070
   285
1070
     4
1070
     4
1000
%%c[]"
1070
   271
1070
     8
1070
    40
1040
1.0
1002
}
1001
ACAD_DSTYLE_DIMINSPECT
1070
   393
1070
     0
1070
   394
1070
     0
1070
   395
1000

1070
   396
1000

  0
DIMENSION
  5
928AB
330
1F
100
AcDbEntity
  8
2
100
AcDbDimension
  2
*D2277
 10
63.50000000000012
 20
78.99442999719628
 30
0.0
 11
31.75000000000006
 21
83.04442999719627
 31
0.0
 70
    32
 71
     5
 42
63.5
  3
コピー - ISO-25
100
AcDbAlignedDimension
 13
0.0
 23
42.44999999889993
 33
0.0
 14
63.50000000000012
 24
49.99999999890002
 34
0.0
 50
0.0
100
AcDbRotatedDimension
1001
ACAD
1000
DSTYLE
1002
{
1070
   170
1070
     1
1070
   171
1070
     3
1070
   143
1040
0.0393700787401575
1070
   285
1070
     4
1070
     4
1000
"
1070
   271
1070
     8
1070
    40
1040
1.0
1002
}
1001
ACAD_DSTYLE_DIMINSPECT
1070
   393
1070
     0
1070
   394
1070
     0
1070
   395
1000

1070
   396
1000

  0
DIMENSION
  5
928AC
102
{ACAD_XDICTIONARY
360
928AD
102
}
102
{ACAD_REACTORS
330
928AE
102
}
330
1F
100
AcDbEntity
  8
sk2
100
AcDbDimension
  2
*D2388
 10
42.0
 20
-65.86312418500563
 30
0.0
 11
21.0
 21
-61.81312418500564
 31
0.0
 70
    32
 71
     5
 42
42.0
  3
コピー - ISO-25
100
AcDbAlignedDimension
 13
0.0
 23
-42.44999170410003
 33
0.0
 14
42.0
 24
-26.9999999989
 34
0.0
 50
0.0
100
AcDbRotatedDimension
1001
ACAD
1000
DSTYLE
1002
{
1070
   170
1070
     1
1070
   171
1070
     3
1070
   143
1040
0.0393700787401575
1070
   285
1070
     4
1070
     4
1000
"
1070
   271
1070
     8
1070
    40
1040
1.0
1002
}
1001
ACAD_DSTYLE_DIMINSPECT
1070
   393
1070
     0
1070
   394
1070
     0
1070
   395
1000

1070
   396
1000

  0
LINE
  5
928AF
330
1F
100
AcDbEntity
  8
1
100
AcDbLine
 10
52.02618060330006
 20
-50.00000000110003
 30
0.0
 11
55.71340946170003
 21
-50.00000000110003
 31
0.0
  0
LINE
  5
928B0
330
1F
100
AcDbEntity
  8
1
100
AcDbLine
 10
51.97382338399996
 20
-49.99954308660003
 30
0.0
 11
52.02618060330006
 21
-50.00000000110003
 31
0.0
  0
LINE
  5
928B1
330
1F
100
AcDbEntity
  8
1
100
AcDbLine
 10
38.41946730100005
 20
-49.76295092109999
 30
0.0
 11
51.97382338399996
 21
-49.99954308660003
 31
0.0
  0
LINE
  5
928B2
330
1F
100
AcDbEntity
  8
1
100
AcDbLine
 10
37.44576409030003
 20
-49.58248569800002
 30
0.0
 11
25.28450007510003
 21
-45.15614758540002
 31
0.0
  0
LINE
  5
928B3
330
1F
100
AcDbEntity
  8
1
100
AcDbLine
 10
13.67440120150002
 20
-44.45000000110002
 30
0.0
 11
2.0
 21
-44.45000000110002
 31
0.0
  0
LINE
  5
928B4
330
1F
100
AcDbEntity
  8
1
100
AcDbLine
 10
0.0
 20
42.44999361209994
 30
0.0
 11
0.0
 21
8.937499998899966
 31
0.0
  0
LINE
  5
928B5
330
1F
100
AcDbEntity
  8
1
100
AcDbLine
 10
0.0
 20
-42.4499980909
 30
0.0
 11
0.0
 21
-8.937500001100033
 31
0.0
  0
LINE
  5
928B6
330
1F
100
AcDbEntity
  8
1
100
AcDbLine
 10
37.44576409030003
 20
49.58248569579996
 30
0.0
 11
25.28450007510003
 21
45.15614758319997
 31
0.0
  0
LINE
  5
928B7
330
1F
100
AcDbEntity
  8
1
100
AcDbLine
 10
9.524999999999975
 20
6.937499998899965
 30
0.0
 11
9.524999999999975
 21
-6.937500001100032
 31
0.0
  0
LINE
  5
928B8
330
1F
100
AcDbEntity
  8
1
100
AcDbLine
 10
48.12093056519995
 20
47.41908445339999
 30
0.0
 11
48.89221299410007
 21
47.70554709209995
 31
0.0
  0
LINE
  5
928B9
330
1F
100
AcDbEntity
  8
1
100
AcDbLine
 10
0.0
 20
8.937499998899966
 30
0.0
 11
1.0
 21
7.937499998899965
 31
0.0
  0
LINE
  5
928BA
330
1F
100
AcDbEntity
  8
1
100
AcDbLine
 10
49.42952826659996
 20
47.51144545709997
 30
0.0
 11
51.70659732040006
 21
48.83342429159995
 31
0.0
  0
LINE
  5
928BB
330
1F
100
AcDbEntity
  8
1
100
AcDbLine
 10
8.524999999999977
 20
7.937499998899965
 30
0.0
 11
9.524999999999975
 21
6.937499998899965
 31
0.0
  0
LINE
  5
928BC
330
1F
100
AcDbEntity
  8
1
100
AcDbLine
 10
1.0
 20
-7.937500001100032
 30
0.0
 11
0.0
 21
-8.937500001100033
 31
0.0
  0
LINE
  5
928BD
330
1F
100
AcDbEntity
  8
1
100
AcDbLine
 10
8.524999999999977
 20
-7.937500001100032
 30
0.0
 11
1.0
 21
-7.937500001100032
 31
0.0
  0
LINE
  5
928BE
330
1F
100
AcDbEntity
  8
1
100
AcDbLine
 10
9.524999999999975
 20
-6.937500001100032
 30
0.0
 11
8.524999999999977
 21
-7.937500001100032
 31
0.0
  0
LINE
  5
928BF
330
1F
100
AcDbEntity
  8
1
100
AcDbLine
 10
1.0
 20
7.937499998899965
 30
0.0
 11
8.524999999999977
 21
7.937499998899965
 31
0.0
  0
LINE
  5
928C0
330
1F
100
AcDbEntity
  8
1
100
AcDbLine
 10
47.67154361410007
 20
49.09884238249998
 30
0.0
 11
47.81210181070004
 21
47.63238806539999
 31
0.0
  0
LINE
  5
928C1
330
1F
100
AcDbEntity
  8
1
100
AcDbLine
 10
61.71340946170005
 20
38.6980940702
 30
0.0
 11
61.71340946170005
 21
-43.99999841770003
 31
0.0
  0
LINE
  5
928C2
330
1F
100
AcDbEntity
  8
1
100
AcDbLine
 10
47.77235808510011
 20
43.74032556289998
 30
0.0
 11
47.66779960760003
 21
43.93597331029996
 31
0.0
  0
LINE
  5
928C3
330
1F
100
AcDbEntity
  8
1
100
AcDbLine
 10
48.80932627330003
 20
47.33867291899996
 30
0.0
 11
49.42952826659996
 21
47.51144545709997
 31
0.0
  0
LINE
  5
928C4
330
1F
100
AcDbEntity
  8
1
100
AcDbLine
 10
57.05623595710004
 20
41.80270741949999
 30
0.0
 11
56.86808472330007
 21
41.80270741949999
 31
0.0
  0
LINE
  5
928C5
330
1F
100
AcDbEntity
  8
1
100
AcDbLine
 10
55.33144157000004
 20
41.96799389829997
 30
0.0
 11
55.1432903361
 21
41.96799389829997
 31
0.0
  0
LINE
  5
928C6
330
1F
100
AcDbEntity
  8
1
100
AcDbLine
 10
55.53815794140007
 20
42.06983860979994
 30
0.0
 11
55.72630917530013
 21
42.06983860979994
 31
0.0
  0
LINE
  5
928C7
330
1F
100
AcDbEntity
  8
1
100
AcDbLine
 10
57.6882378125
 20
42.60990867299997
 30
0.0
 11
57.87638904640004
 21
42.60990867299997
 31
0.0
  0
LINE
  5
928C8
330
1F
100
AcDbEntity
  8
1
100
AcDbLine
 10
58.06099129189999
 20
43.22200773959997
 30
0.0
 11
57.87284005800007
 21
43.22200773959997
 31
0.0
  0
LINE
  5
928C9
330
1F
100
AcDbEntity
  8
1
100
AcDbLine
 10
48.07713951710013
 20
44.2290777243
 30
0.0
 11
47.22637314300004
 21
44.2290777243
 31
0.0
  0
LINE
  5
928CA
330
1F
100
AcDbEntity
  8
1
100
AcDbLine
 10
48.05375091949997
 20
44.27526060479997
 30
0.0
 11
47.17598517589999
 21
44.27526060479997
 31
0.0
  0
LINE
  5
928CB
330
1F
100
AcDbEntity
  8
1
100
AcDbLine
 10
57.7810605753001
 20
44.34875457459997
 30
0.0
 11
57.59290934140006
 21
44.34875457459997
 31
0.0
  0
LINE
  5
928CC
330
1F
100
AcDbEntity
  8
1
100
AcDbLine
 10
13.67440120150002
 20
44.44999999889995
 30
0.0
 11
2.0
 21
44.44999999889995
 31
0.0
  0
LINE
  5
928CD
330
1F
100
AcDbEntity
  8
1
100
AcDbLine
 10
56.75793340020004
 20
44.70474982709998
 30
0.0
 11
56.94608463409998
 21
44.70474982709998
 31
0.0
  0
LINE
  5
928CE
330
1F
100
AcDbEntity
  8
1
100
AcDbLine
 10
56.23054098570004
 20
45.12620548799997
 30
0.0
 11
56.04238975179999
 21
45.12620548799997
 31
0.0
  0
LINE
  5
928CF
330
1F
100
AcDbEntity
  8
1
100
AcDbLine
 10
46.58159468630002
 20
45.41270085459996
 30
0.0
 11
47.4789497518001
 21
45.41270085459996
 31
0.0
  0
LINE
  5
928D0
330
1F
100
AcDbEntity
  8
1
100
AcDbLine
 10
57.89084815930005
 20
42.60982617429999
 30
0.0
 11
57.87638905599999
 21
42.60989755849997
 31
0.0
  0
LINE
  5
928D1
330
1F
100
AcDbEntity
  8
1
100
AcDbLine
 10
54.78154565010004
 20
44.16476226259996
 30
0.0
 11
54.7960047534001
 21
44.16469087839999
 31
0.0
  0
LINE
  5
928D2
330
1F
100
AcDbEntity
  8
1
100
AcDbLine
 10
47.96056532630005
 20
43.72976568669996
 30
0.0
 11
47.92533967460006
 21
43.7379351718
 31
0.0
  0
LINE
  5
928D3
330
1F
100
AcDbEntity
  8
1
100
AcDbLine
 10
41.68725116560006
 20
44.07807597759995
 30
0.0
 11
33.87089415909998
 21
46.89031869059994
 31
0.0
  0
LINE
  5
928D4
330
1F
100
AcDbEntity
  8
1
100
AcDbLine
 10
38.41946730100005
 20
49.7629509189
 30
0.0
 11
48.92627401960011
 21
49.94634791229998
 31
0.0
  0
LINE
  5
928D5
330
1F
100
AcDbEntity
  8
1
100
AcDbLine
 10
46.83970949700007
 20
46.46791991999998
 30
0.0
 11
47.76726014920007
 21
46.46791991999998
 31
0.0
  0
LINE
  5
928D6
330
1F
100
AcDbEntity
  8
1
100
AcDbLine
 10
48.83881982579999
 20
47.12163456139996
 30
0.0
 11
47.94549679420003
 21
47.12163456139996
 31
0.0
  0
LINE
  5
928D7
330
1F
100
AcDbEntity
  8
1
100
AcDbLine
 10
48.88253955460005
 20
47.14776866279999
 30
0.0
 11
47.99176319879996
 21
47.14776866279999
 31
0.0
  0
LINE
  5
928D8
330
1F
100
AcDbEntity
  8
1
100
AcDbLine
 10
54.1994690893
 20
50.22536525909998
 30
0.0
 11
53.6469074071
 21
50.22536525909998
 31
0.0
  0
LINE
  5
928D9
330
1F
100
AcDbEntity
  8
1
100
AcDbLine
 10
54.93577045680002
 20
50.41589327629997
 30
0.0
 11
54.38420860100007
 21
50.41589327629997
 31
0.0
  0
LINE
  5
928DA
330
1F
100
AcDbEntity
  8
1
100
AcDbLine
 10
54.96644827940008
 20
50.41559583119997
 30
0.0
 11
54.93576955269997
 21
50.41589327629997
 31
0.0
  0
LINE
  5
928DB
330
1F
100
AcDbEntity
  8
1
100
AcDbLine
 10
48.80932627330003
 20
47.33867291899996
 30
0.0
 11
48.12093056519995
 21
47.41908445339999
 31
0.0
  0
LINE
  5
928DC
330
1F
100
AcDbEntity
  8
1
100
AcDbLine
 10
48.89221299410007
 20
47.70554709209995
 30
0.0
 11
49.1926440164001
 21
47.62682441489994
 31
0.0
  0
ARC
  5
928DD
330
1F
100
AcDbEntity
  8
1
100
AcDbCircle
 10
18.44409720860005
 20
-63.95000000110002
 30
0.0
 40
20.0
100
AcDbArc
 50
69.99999999999629
 51
101.9687455547017
  0
ARC
  5
928DE
330
1F
100
AcDbEntity
  8
1
100
AcDbCircle
 10
18.44409720860005
 20
63.94999999889996
 30
0.0
 40
20.0
100
AcDbArc
 50
258.0312544452983
 51
290.0000000000037
  0
ARC
  5
928DF
330
1F
100
AcDbEntity
  8
1
100
AcDbCircle
 10
55.71340946170003
 20
-44.00000000110003
 30
0.0
 40
6.0
100
AcDbArc
 50
270.0
 51
0.0
  0
ARC
  5
928E0
330
1F
100
AcDbEntity
  8
1
100
AcDbCircle
 10
13.67440120150002
 20
41.44999999889996
 30
0.0
 40
3.0
100
AcDbArc
 50
78.0312544452983
 51
90.0
  0
ARC
  5
928E1
330
1F
100
AcDbEntity
  8
1
100
AcDbCircle
 10
13.67440120150002
 20
-41.45000000110002
 30
0.0
 40
3.0
100
AcDbArc
 50
270.0
 51
281.9687455547017
  0
ARC
  5
928E2
330
1F
100
AcDbEntity
  8
1
100
AcDbCircle
 10
38.47182452030006
 20
46.76340783339997
 30
0.0
 40
3.0
100
AcDbArc
 50
91.00000000000177
 51
110.0000000000037
  0
ARC
  5
928E3
330
1F
100
AcDbEntity
  8
1
100
AcDbCircle
 10
38.47182452030006
 20
-46.76340783560002
 30
0.0
 40
3.0
100
AcDbArc
 50
249.9999999999963
 51
268.9999999999983
  0
ARC
  5
928E4
330
1F
100
AcDbEntity
  8
1
100
AcDbCircle
 10
2.0
 20
42.44999999889993
 30
0.0
 40
2.0
100
AcDbArc
 50
90.0
 51
180.0
  0
ARC
  5
928E5
330
1F
100
AcDbEntity
  8
1
100
AcDbCircle
 10
2.0
 20
-42.45000000110002
 30
0.0
 40
2.0
100
AcDbArc
 50
180.0
 51
270.0
  0
SPLINE
  5
928E6
330
1F
100
AcDbEntity
  8
1
100
AcDbSpline
210
0.0
220
0.0
230
1.0
 70
     8
 71
     3
 72
    15
 73
    11
 74
     0
 42
0.000000001
 43
0.0000000001
 40
0.0
 40
0.0
 40
0.0
 40
0.0
 40
0.1246286297
 40
0.2493692327
 40
0.3743263633
 40
0.4994868881000001
 40
0.6247607511
 40
0.7500117186000002
 40
0.8751071011
 40
1.0
 40
1.0
 40
1.0
 40
1.0
 10
54.78154564940007
 20
44.16477109829995
 30
0.0
 10
54.74618492400009
 20
44.16476811329997
 30
0.0
 10
54.67489518950003
 20
44.15306501139997
 30
0.0
 10
54.5795748572001
 20
44.10224499789999
 30
0.0
 10
54.50527476679996
 20
44.02351111619998
 30
0.0
 10
54.45985534120007
 20
43.92510840929996
 30
0.0
 10
54.44799604199999
 20
43.81730235359998
 30
0.0
 10
54.47094722739996
 20
43.71130059809995
 30
0.0
 10
54.52622288999998
 20
43.61821432729995
 30
0.0
 10
54.58114551400001
 20
43.5710252904
 30
0.0
 10
54.61140251750009
 20
43.55258069729996
 30
0.0
  0
SPLINE
  5
928E7
330
1F
100
AcDbEntity
  8
1
100
AcDbSpline
210
0.0
220
0.0
230
1.0
 70
     8
 71
     3
 72
    11
 73
     7
 74
     0
 42
0.000000001
 43
0.0000000001
 40
0.0
 40
0.0
 40
0.0
 40
0.0
 40
0.250301594
 40
0.5003523427000001
 40
0.7502254609000003
 40
1.0
 40
1.0
 40
1.0
 40
1.0
 10
53.83947115519993
 20
45.86792880989998
 30
0.0
 10
53.99712207490006
 20
46.02114819189996
 30
0.0
 10
54.34264156000007
 20
46.29785176039996
 30
0.0
 10
54.92985289340004
 20
46.60540145829997
 30
0.0
 10
55.56464608920009
 20
46.79471142919999
 30
0.0
 10
56.00465563449994
 20
46.83729028029993
 30
0.0
 10
56.2240335524001
 20
46.83729369029999
 30
0.0
  0
SPLINE
  5
928E8
330
1F
100
AcDbEntity
  8
1
100
AcDbSpline
210
0.0
220
0.0
230
1.0
 70
     8
 71
     3
 72
     9
 73
     5
 74
     0
 42
0.000000001
 43
0.0000000001
 40
0.0
 40
0.0
 40
0.0
 40
0.0
 40
0.4998496524
 40
1.0
 40
1.0
 40
1.0
 40
1.0
 10
54.89133323409999
 20
42.42583386229995
 30
0.0
 10
54.87576977510002
 20
42.39949996239997
 30
0.0
 10
54.85186679479999
 20
42.34219288909996
 30
0.0
 10
54.84468445670007
 20
42.28052200479999
 30
0.0
 10
54.845358981
 20
42.24992189579995
 30
0.0
  0
SPLINE
  5
928E9
330
1F
100
AcDbEntity
  8
1
100
AcDbSpline
210
0.0
220
0.0
230
1.0
 70
     8
 71
     3
 72
     8
 73
     4
 74
     0
 42
0.000000001
 43
0.0000000001
 40
0.0
 40
0.0
 40
0.0
 40
0.0
 40
1.0
 40
1.0
 40
1.0
 40
1.0
 10
55.0714324974
 20
41.94360399069998
 30
0.0
 10
55.10415451630001
 20
41.93284390909997
 30
0.0
 10
55.13902192850004
 20
41.92725423059997
 30
0.0
 10
55.17346768100003
 20
41.92725130959995
 30
0.0
  0
SPLINE
  5
928EA
330
1F
100
AcDbEntity
  8
1
100
AcDbSpline
210
0.0
220
0.0
230
1.0
 70
     8
 71
     3
 72
    11
 73
     7
 74
     0
 42
0.000000001
 43
0.0000000001
 40
0.0
 40
0.0
 40
0.0
 40
0.0
 40
0.2504809262
 40
0.5005858755000001
 40
0.750384011
 40
1.0
 40
1.0
 40
1.0
 40
1.0
 10
56.44185282370006
 20
41.64838294889997
 30
0.0
 10
56.40654691910004
 20
41.71169909469995
 30
0.0
 10
56.31879031550011
 20
41.82947901249995
 30
0.0
 10
56.14593011990007
 20
41.96500390449997
 30
0.0
 10
55.94382372800009
 20
42.05040874159999
 30
0.0
 10
55.7985532668
 20
42.06984156089998
 30
0.0
 10
55.72630917590004
 20
42.06983811779998
 30
0.0
  0
SPLINE
  5
928EB
330
1F
100
AcDbEntity
  8
1
100
AcDbSpline
210
0.0
220
0.0
230
1.0
 70
     8
 71
     3
 72
    11
 73
     7
 74
     0
 42
0.000000001
 43
0.0000000001
 40
0.0
 40
0.0
 40
0.0
 40
0.0
 40
0.2504880625
 40
0.5005819384
 40
0.7503846693999999
 40
1.0
 40
1.0
 40
1.0
 40
1.0
 10
56.44185282370006
 20
41.64838294889997
 30
0.0
 10
56.45597795840001
 20
41.62305151799995
 30
0.0
 10
56.49108493460005
 20
41.57593031009997
 30
0.0
 10
56.56024479600012
 20
41.52171749049998
 30
0.0
 10
56.64109765039995
 20
41.48754325779997
 30
0.0
 10
56.69921653660003
 20
41.47977457769999
 30
0.0
 10
56.72811894710003
 20
41.47977242189995
 30
0.0
  0
SPLINE
  5
928EC
330
1F
100
AcDbEntity
  8
1
100
AcDbSpline
210
0.0
220
0.0
230
1.0
 70
     8
 71
     3
 72
    15
 73
    11
 74
     0
 42
0.000000001
 43
0.0000000001
 40
0.0
 40
0.0
 40
0.0
 40
0.0
 40
0.125028041
 40
0.2501310002
 40
0.3752787635
 40
0.5004112717
 40
0.6254813822
 40
0.7504512691
 40
0.8752875286
 40
1.0
 40
1.0
 40
1.0
 40
1.0
 10
54.89133323409999
 20
42.42583386229995
 30
0.0
 10
54.91857757880007
 20
42.47193221669997
 30
0.0
 10
54.9642063038001
 20
42.5697401827
 30
0.0
 10
55.00293395050005
 20
42.72672553989997
 30
0.0
 10
55.01067350999996
 20
42.88833508619996
 30
0.0
 10
54.98707778100004
 20
43.0483723154
 30
0.0
 10
54.93306549200007
 20
43.20077709039998
 30
0.0
 10
54.85065348990008
 20
43.33976307889996
 30
0.0
 10
54.7430438138
 20
43.46001835229997
 30
0.0
 10
54.65700881379996
 20
43.52477921399994
 30
0.0
 10
54.61140251750009
 20
43.55258069729996
 30
0.0
  0
SPLINE
  5
928ED
330
1F
100
AcDbEntity
  8
1
100
AcDbSpline
210
0.0
220
0.0
230
1.0
 70
     8
 71
     3
 72
    15
 73
    11
 74
     0
 42
0.000000001
 43
0.0000000001
 40
0.0
 40
0.0
 40
0.0
 40
0.0
 40
0.124680339
 40
0.2493906157
 40
0.3742015863
 40
0.4991317614
 40
0.6241940515
 40
0.7493817505
 40
0.8746591993
 40
1.0
 40
1.0
 40
1.0
 40
1.0
 10
54.79600475400002
 20
44.16468004979996
 30
0.0
 10
54.84888948060007
 20
44.16468276459997
 30
0.0
 10
54.95496037040004
 20
44.17502824179999
 30
0.0
 10
55.10787114180004
 20
44.22102999619997
 30
0.0
 10
55.24916846480004
 20
44.29575934619998
 30
0.0
 10
55.37349159830011
 20
44.39643568429996
 30
0.0
 10
55.4762199797001
 20
44.51927253559996
 30
0.0
 10
55.5535052468
 20
44.65969861109999
 30
0.0
 10
55.60247720090001
 20
44.81238421319995
 30
0.0
 10
55.61502593670002
 20
44.91872819859998
 30
0.0
 10
55.61615785219998
 20
44.97188101739999
 30
0.0
  0
SPLINE
  5
928EE
330
1F
100
AcDbEntity
  8
1
100
AcDbSpline
210
0.0
220
0.0
230
1.0
 70
     8
 71
     3
 72
    11
 73
     7
 74
     0
 42
0.000000001
 43
0.0000000001
 40
0.0
 40
0.0
 40
0.0
 40
0.0
 40
0.2496924787
 40
0.4996248253
 40
0.7497569474
 40
1.0
 40
1.0
 40
1.0
 40
1.0
 10
53.83947115519993
 20
45.86792880989998
 30
0.0
 10
53.67849400839997
 20
45.7114767004
 30
0.0
 10
53.38634460590004
 20
45.36584224179995
 30
0.0
 10
53.05768772860004
 20
44.77259850959998
 30
0.0
 10
52.85002999690004
 20
44.12646247149996
 30
0.0
 10
52.79767897609996
 20
43.67628421689992
 30
0.0
 10
52.79352444080006
 20
43.45134841739997
 30
0.0
  0
SPLINE
  5
928EF
330
1F
100
AcDbEntity
  8
1
100
AcDbSpline
210
0.0
220
0.0
230
1.0
 70
     8
 71
     3
 72
    11
 73
     7
 74
     0
 42
0.000000001
 43
0.0000000001
 40
0.0
 40
0.0
 40
0.0
 40
0.0
 40
0.2493735195
 40
0.4991092802
 40
0.7493605911
 40
1.0
 40
1.0
 40
1.0
 40
1.0
 10
55.94427486230006
 20
45.29481601499997
 30
0.0
 10
55.90215604900003
 20
45.29481915669992
 30
0.0
 10
55.81695271140006
 20
45.27807963209993
 30
0.0
 10
55.70882687829999
 20
45.20648631439995
 30
0.0
 10
55.6354533978
 20
45.09932662459998
 30
0.0
 10
55.61705914190008
 20
45.01420404209993
 30
0.0
 10
55.61615785219998
 20
44.97188101739999
 30
0.0
  0
SPLINE
  5
928F0
330
1F
100
AcDbEntity
  8
1
100
AcDbSpline
210
0.0
220
0.0
230
1.0
 70
     8
 71
     3
 72
     9
 73
     5
 74
     0
 42
0.000000001
 43
0.0000000001
 40
0.0
 40
0.0
 40
0.0
 40
0.0
 40
0.4998160979
 40
1.0
 40
1.0
 40
1.0
 40
1.0
 10
56.94608463339999
 20
44.70475031909995
 30
0.0
 10
57.01456881550007
 20
44.70475358299995
 30
0.0
 10
57.15214074940003
 20
44.7221444379
 30
0.0
 10
57.28095629610003
 20
44.77346637529996
 30
0.0
 10
57.34095223940006
 20
44.80659453859999
 30
0.0
  0
SPLINE
  5
928F1
330
1F
100
AcDbEntity
  8
1
100
AcDbSpline
210
0.0
220
0.0
230
1.0
 70
     8
 71
     3
 72
     9
 73
     5
 74
     0
 42
0.000000001
 43
0.0000000001
 40
0.0
 40
0.0
 40
0.0
 40
0.0
 40
0.4998046985000001
 40
1.0
 40
1.0
 40
1.0
 40
1.0
 10
57.49892612840006
 20
44.84733712729997
 30
0.0
 10
57.47152844470008
 20
44.84733945059992
 30
0.0
 10
57.41648980290007
 20
44.84038064569999
 30
0.0
 10
57.36495522500002
 20
44.81984834849996
 30
0.0
 10
57.34095223940006
 20
44.80659453859999
 30
0.0
  0
SPLINE
  5
928F2
330
1F
100
AcDbEntity
  8
1
100
AcDbSpline
210
0.0
220
0.0
230
1.0
 70
     8
 71
     3
 72
    23
 73
    19
 74
     0
 42
0.000000001
 43
0.0000000001
 40
0.0
 40
0.0
 40
0.0
 40
0.0
 40
0.0622939592
 40
0.124602781
 40
0.1869400101
 40
0.2493166994
 40
0.3117404419
 40
0.3742147104
 40
0.4367385602000002
 40
0.4993067197000002
 40
0.5619100552000002
 40
0.6245363756
 40
0.6871714914
 40
0.7498005022
 40
0.8124088025
 40
0.8749846087999999
 40
0.9375154697999999
 40
1.0
 40
1.0
 40
1.0
 40
1.0
 10
56.29438551940006
 20
46.83729369029999
 30
0.0
 10
56.46387405610003
 20
46.83729632479995
 30
0.0
 10
56.80343437630006
 20
46.81193959399997
 30
0.0
 10
57.3011330810001
 20
46.69868966309997
 30
0.0
 10
57.77682557970003
 20
46.51270833109999
 30
0.0
 10
58.21991468919997
 20
46.25808990409995
 30
0.0
 10
58.62071018390007
 20
45.94043354829994
 30
0.0
 10
58.97040374420011
 20
45.56672229379995
 30
0.0
 10
59.26132520380008
 20
45.1451674675
 30
0.0
 10
59.4870926031
 20
44.68502786459999
 30
0.0
 10
59.64275510950006
 20
44.19640617379999
 30
0.0
 10
59.7249002789
 20
43.69002800069995
 30
0.0
 10
59.73173000600002
 20
43.17700701599997
 30
0.0
 10
59.66309161900007
 20
42.66859993659998
 30
0.0
 10
59.52050072029997
 20
42.17596798249997
 30
0.0
 10
59.30704733240009
 20
41.70990534359996
 30
0.0
 10
59.02752818500005
 20
41.28073202869996
 30
0.0
 10
58.80086233029999
 20
41.02514704949999
 30
0.0
 10
58.67894791660001
 20
40.90665962699995
 30
0.0
  0
SPLINE
  5
928F3
330
1F
100
AcDbEntity
  8
1
100
AcDbSpline
210
0.0
220
0.0
230
1.0
 70
     8
 71
     3
 72
     9
 73
     5
 74
     0
 42
0.000000001
 43
0.0000000001
 40
0.0
 40
0.0
 40
0.0
 40
0.0
 40
0.499754389
 40
1.0
 40
1.0
 40
1.0
 40
1.0
 10
57.61697797650003
 20
40.20391274059995
 30
0.0
 10
57.8134120927001
 20
40.28643174019999
 30
0.0
 10
58.19184766950002
 20
40.4887840925
 30
0.0
 10
58.52600745230006
 20
40.7580182904
 30
0.0
 10
58.67894791660001
 20
40.90665962699995
 30
0.0
  0
SPLINE
  5
928F4
330
1F
100
AcDbEntity
  8
1
100
AcDbSpline
210
0.0
220
0.0
230
1.0
 70
     8
 71
     3
 72
    11
 73
     7
 74
     0
 42
0.000000001
 43
0.0000000001
 40
0.0
 40
0.0
 40
0.0
 40
0.0
 40
0.2496922274
 40
0.4996247260000001
 40
0.7497570444
 40
1.0
 40
1.0
 40
1.0
 40
1.0
 10
53.90982312220001
 20
45.86792880989998
 30
0.0
 10
53.74857812260007
 20
45.71121637689997
 30
0.0
 10
53.45599151140004
 20
45.36495015009996
 30
0.0
 10
53.12707172520004
 20
44.77054528889996
 30
0.0
 10
52.91959058650002
 20
44.12315112329998
 30
0.0
 10
52.86766402420004
 20
43.67215267509997
 30
0.0
 10
52.86379602550005
 20
43.44683723259996
 30
0.0
  0
SPLINE
  5
928F5
330
1F
100
AcDbEntity
  8
1
100
AcDbSpline
210
0.0
220
0.0
230
1.0
 70
     8
 71
     3
 72
    11
 73
     7
 74
     0
 42
0.000000001
 43
0.0000000001
 40
0.0
 40
0.0
 40
0.0
 40
0.0
 40
0.250301594
 40
0.5003523427000001
 40
0.7502254609000003
 40
1.0
 40
1.0
 40
1.0
 40
1.0
 10
53.90982312220001
 20
45.86792880989998
 30
0.0
 10
54.06747404190003
 20
46.02114819189996
 30
0.0
 10
54.41299352690009
 20
46.29785176039996
 30
0.0
 10
55.0002048604
 20
46.60540145829997
 30
0.0
 10
55.63499805610002
 20
46.79471142919999
 30
0.0
 10
56.07500760150003
 20
46.83729028029993
 30
0.0
 10
56.29438551940006
 20
46.83729369029999
 30
0.0
  0
SPLINE
  5
928F6
330
1F
100
AcDbEntity
  8
1
100
AcDbSpline
210
0.0
220
0.0
230
1.0
 70
     8
 71
     3
 72
    11
 73
     7
 74
     0
 42
0.000000001
 43
0.0000000001
 40
0.0
 40
0.0
 40
0.0
 40
0.0
 40
0.2496882862
 40
0.4996223420000003
 40
0.7497600942
 40
1.0
 40
1.0
 40
1.0
 40
1.0
 10
54.7112323442001
 20
45.07772735759992
 30
0.0
 10
54.59662171030004
 20
44.96633840709995
 30
0.0
 10
54.38955658259999
 20
44.71917458809992
 30
0.0
 10
54.16102194330004
 20
44.29350623029995
 30
0.0
 10
54.02319231310002
 20
43.83008365539999
 30
0.0
 10
53.99574631860002
 20
43.50835289889996
 30
0.0
 10
53.99839175249997
 20
43.34819958679996
 30
0.0
  0
SPLINE
  5
928F7
330
1F
100
AcDbEntity
  8
1
100
AcDbSpline
210
0.0
220
0.0
230
1.0
 70
     8
 71
     3
 72
    11
 73
     7
 74
     0
 42
0.000000001
 43
0.0000000001
 40
0.0
 40
0.0
 40
0.0
 40
0.0
 40
0.2498061954
 40
0.4996567525000001
 40
0.7496847478000001
 40
1.0
 40
1.0
 40
1.0
 40
1.0
 10
55.95794253280008
 20
41.06725661309996
 30
0.0
 10
56.1365042555001
 20
41.03782309179999
 30
0.0
 10
56.50198759550004
 20
41.02076883149996
 30
0.0
 10
57.04025827840006
 20
41.12310360719996
 30
0.0
 10
57.54059773130006
 20
41.34729399309995
 30
0.0
 10
57.83111994830004
 20
41.57047500499999
 30
0.0
 10
57.96116146520001
 20
41.69686107929999
 30
0.0
  0
SPLINE
  5
928F8
330
1F
100
AcDbEntity
  8
1
100
AcDbSpline
210
0.0
220
0.0
230
1.0
 70
     8
 71
     3
 72
    15
 73
    11
 74
     0
 42
0.000000001
 43
0.0000000001
 40
0.0
 40
0.0
 40
0.0
 40
0.0
 40
0.125028041
 40
0.2501310002
 40
0.3752787635
 40
0.5004112717
 40
0.6254813822
 40
0.7504512691
 40
0.8752875286
 40
1.0
 40
1.0
 40
1.0
 40
1.0
 10
57.7810605753001
 20
44.34875457459997
 30
0.0
 10
57.7538162305001
 20
44.30265622019999
 30
0.0
 10
57.7081875056
 20
44.20484825419996
 30
0.0
 10
57.66945985879999
 20
44.04786289699996
 30
0.0
 10
57.66172029929997
 20
43.88625335069995
 30
0.0
 10
57.68531602840005
 20
43.72621612149996
 30
0.0
 10
57.73932831740001
 20
43.57381134649995
 30
0.0
 10
57.82174031950001
 20
43.43482535799997
 30
0.0
 10
57.92934999550005
 20
43.31457008459998
 30
0.0
 10
58.01538499560003
 20
43.24980922289998
 30
0.0
 10
58.06099129189999
 20
43.22200773959997
 30
0.0
  0
SPLINE
  5
928F9
330
1F
100
AcDbEntity
  8
1
100
AcDbSpline
210
0.0
220
0.0
230
1.0
 70
     8
 71
     3
 72
     9
 73
     5
 74
     0
 42
0.000000001
 43
0.0000000001
 40
0.0
 40
0.0
 40
0.0
 40
0.0
 40
0.5005263902000002
 40
1.0
 40
1.0
 40
1.0
 40
1.0
 10
56.04238975179999
 20
45.12620548799997
 30
0.0
 10
56.02196613140006
 20
45.16283236219993
 30
0.0
 10
55.96657601900004
 20
45.22879564809993
 30
0.0
 10
55.89031707780009
 20
45.26889557389995
 30
0.0
 10
55.8502438544
 20
45.28095370919999
 30
0.0
  0
SPLINE
  5
928FA
330
1F
100
AcDbEntity
  8
1
100
AcDbSpline
210
0.0
220
0.0
230
1.0
 70
     8
 71
     3
 72
    11
 73
     7
 74
     0
 42
0.000000001
 43
0.0000000001
 40
0.0
 40
0.0
 40
0.0
 40
0.0
 40
0.2496178661
 40
0.4994168656000002
 40
0.7495149126000003
 40
1.0
 40
1.0
 40
1.0
 40
1.0
 10
56.75793339569998
 20
44.70475404809995
 30
0.0
 10
56.6856888187001
 20
44.70475158989994
 30
0.0
 10
56.54041563159999
 20
44.72417316469996
 30
0.0
 10
56.33831545970007
 20
44.80959088159994
 30
0.0
 10
56.16545108180003
 20
44.94510720649993
 30
0.0
 10
56.07769621490001
 20
45.06288834049996
 30
0.0
 10
56.04238975179999
 20
45.12620548799997
 30
0.0
  0
SPLINE
  5
928FB
330
1F
100
AcDbEntity
  8
1
100
AcDbSpline
210
0.0
220
0.0
230
1.0
 70
     8
 71
     3
 72
    15
 73
    11
 74
     0
 42
0.000000001
 43
0.0000000001
 40
0.0
 40
0.0
 40
0.0
 40
0.0
 40
0.1250883725
 40
0.2502752249
 40
0.3754790892
 40
0.5006422172000004
 40
0.6256997839000002
 40
0.7506138325000001
 40
0.8753739228
 40
1.0
 40
1.0
 40
1.0
 40
1.0
 10
57.59290934140006
 20
44.34875457459997
 30
0.0
 10
57.60557548740007
 20
44.37018612289998
 30
0.0
 10
57.62612175470008
 20
44.41611167569999
 30
0.0
 10
57.6406791042001
 20
44.49002686339997
 30
0.0
 10
57.63833136760002
 20
44.56537610919997
 30
0.0
 10
57.61918126970011
 20
44.63825445589997
 30
0.0
 10
57.58421107920003
 20
44.70493784199997
 30
0.0
 10
57.53519798529999
 20
44.76200617899997
 30
0.0
 10
57.47469879920004
 20
44.80651424059994
 30
0.0
 10
57.42863863960007
 20
44.82632741199995
 30
0.0
 10
57.40488904920005
 20
44.83347773449998
 30
0.0
  0
SPLINE
  5
928FC
330
1F
100
AcDbEntity
  8
1
100
AcDbSpline
210
0.0
220
0.0
230
1.0
 70
     8
 71
     3
 72
    15
 73
    11
 74
     0
 42
0.000000001
 43
0.0000000001
 40
0.0
 40
0.0
 40
0.0
 40
0.0
 40
0.1247087438
 40
0.2495499846
 40
0.374518182
 40
0.4995887253000002
 40
0.6247216697
 40
0.749867739
 40
0.8749756962000001
 40
1.0
 40
1.0
 40
1.0
 40
1.0
 10
57.87284005800007
 20
43.22200773959997
 30
0.0
 10
57.82723507319996
 20
43.24980842339999
 30
0.0
 10
57.74120065940008
 20
43.31457070199999
 30
0.0
 10
57.633587067
 20
43.43482266379999
 30
0.0
 10
57.55117639739999
 20
43.57381160689995
 30
0.0
 10
57.49716190360004
 20
43.72621539869996
 30
0.0
 10
57.47356858199998
 20
43.88625279069997
 30
0.0
 10
57.48130558470005
 20
44.04786432829996
 30
0.0
 10
57.52003823450003
 20
44.20484860099996
 30
0.0
 10
57.56566578019999
 20
44.30265754589997
 30
0.0
 10
57.59290934140006
 20
44.34875457459997
 30
0.0
  0
SPLINE
  5
928FD
330
1F
100
AcDbEntity
  8
1
100
AcDbSpline
210
0.0
220
0.0
230
1.0
 70
     8
 71
     3
 72
    15
 73
    11
 74
     0
 42
0.000000001
 43
0.0000000001
 40
0.0
 40
0.0
 40
0.0
 40
0.0
 40
0.12517186
 40
0.2504192486
 40
0.3756816193
 40
0.500854719
 40
0.6258748281999999
 40
0.7507162961000004
 40
0.8754017411999999
 40
1.0
 40
1.0
 40
1.0
 40
1.0
 10
57.7810605753001
 20
44.34875457459997
 30
0.0
 10
57.79574656819999
 20
44.37360377209998
 30
0.0
 10
57.81868457820007
 20
44.42745473359999
 30
0.0
 10
57.83090796260001
 20
44.51418054639995
 30
0.0
 10
57.82029491360003
 20
44.60117362719995
 30
0.0
 10
57.78751768190011
 20
44.6823851154
 30
0.0
 10
57.73484582720005
 20
44.75223522599996
 30
0.0
 10
57.66587275620008
 20
44.80589443599996
 30
0.0
 10
57.58543156000007
 20
44.83965773399996
 30
0.0
 10
57.52765838480002
 20
44.84733469079998
 30
0.0
 10
57.49892612840006
 20
44.84733712729997
 30
0.0
  0
SPLINE
  5
928FE
330
1F
100
AcDbEntity
  8
1
100
AcDbSpline
210
0.0
220
0.0
230
1.0
 70
     8
 71
     3
 72
    15
 73
    11
 74
     0
 42
0.000000001
 43
0.0000000001
 40
0.0
 40
0.0
 40
0.0
 40
0.0
 40
0.1253364732
 40
0.2506190534
 40
0.37580446
 40
0.5008670042
 40
0.6257971196000001
 40
0.7506066865000001
 40
0.8753197295999999
 40
1.0
 40
1.0
 40
1.0
 40
1.0
 10
56.86808472330007
 20
41.80270741949999
 30
0.0
 10
56.8692166011
 20
41.85585846629999
 30
0.0
 10
56.88176696890002
 20
41.96220243719993
 30
0.0
 10
56.93073362179997
 20
42.11488943319998
 30
0.0
 10
57.0080221029
 20
42.25531555509997
 30
0.0
 10
57.11074781100013
 20
42.37815360869996
 30
0.0
 10
57.23507172369998
 20
42.47882857749996
 30
0.0
 10
57.37636865450007
 20
42.55356014489996
 30
0.0
 10
57.52928113610003
 20
42.59955976899997
 30
0.0
 10
57.63535307179996
 20
42.60990478069999
 30
0.0
 10
57.68823783220009
 20
42.60990830509995
 30
0.0
  0
SPLINE
  5
928FF
330
1F
100
AcDbEntity
  8
1
100
AcDbSpline
210
0.0
220
0.0
230
1.0
 70
     8
 71
     3
 72
    11
 73
     7
 74
     0
 42
0.000000001
 43
0.0000000001
 40
0.0
 40
0.0
 40
0.0
 40
0.0
 40
0.2504809262
 40
0.5005858755000001
 40
0.750384011
 40
1.0
 40
1.0
 40
1.0
 40
1.0
 10
56.23054098570004
 20
45.12620548799997
 30
0.0
 10
56.2658468902
 20
45.06288934219996
 30
0.0
 10
56.35360349380005
 20
44.94510942439996
 30
0.0
 10
56.52646368950001
 20
44.80958453239992
 30
0.0
 10
56.7285700814001
 20
44.72417969529994
 30
0.0
 10
56.87384054250003
 20
44.70474687599996
 30
0.0
 10
56.94608463339999
 20
44.70475031909995
 30
0.0
  0
SPLINE
  5
92900
330
1F
100
AcDbEntity
  8
1
100
AcDbSpline
210
0.0
220
0.0
230
1.0
 70
     8
 71
     3
 72
     9
 73
     5
 74
     0
 42
0.000000001
 43
0.0000000001
 40
0.0
 40
0.0
 40
0.0
 40
0.0
 40
0.5001934921000001
 40
1.0
 40
1.0
 40
1.0
 40
1.0
 10
55.1432903361
 20
41.96799389829997
 30
0.0
 10
55.20328738230012
 20
42.00112267059995
 30
0.0
 10
55.3321024403001
 20
42.05244672779996
 30
0.0
 10
55.46967513190009
 20
42.06983205849996
 30
0.0
 10
55.53815794590001
 20
42.06983438879999
 30
0.0
  0
SPLINE
  5
92901
330
1F
100
AcDbEntity
  8
1
100
AcDbSpline
210
0.0
220
0.0
230
1.0
 70
     8
 71
     3
 72
    15
 73
    11
 74
     0
 42
0.000000001
 43
0.0000000001
 40
0.0
 40
0.0
 40
0.0
 40
0.0
 40
0.1246286297
 40
0.2493692327
 40
0.3743263633
 40
0.4994868881000001
 40
0.6247607511
 40
0.7500117186000002
 40
0.8751071011
 40
1.0
 40
1.0
 40
1.0
 40
1.0
 10
57.89084816000002
 20
42.60981733859995
 30
0.0
 10
57.92620888540011
 20
42.60982032359999
 30
0.0
 10
57.9974986198
 20
42.62152342549998
 30
0.0
 10
58.09281895219999
 20
42.67234343899995
 30
0.0
 10
58.16711904259999
 20
42.75107732069995
 30
0.0
 10
58.21253846820003
 20
42.84948002759998
 30
0.0
 10
58.22439776730004
 20
42.95728608329997
 30
0.0
 10
58.20144658200002
 20
43.06328783879999
 30
0.0
 10
58.14617091940011
 20
43.15637410959996
 30
0.0
 10
58.09124829540007
 20
43.20356314649996
 30
0.0
 10
58.06099129189999
 20
43.22200773959997
 30
0.0
  0
SPLINE
  5
92902
330
1F
100
AcDbEntity
  8
1
100
AcDbSpline
210
0.0
220
0.0
230
1.0
 70
     8
 71
     3
 72
    15
 73
    11
 74
     0
 42
0.000000001
 43
0.0000000001
 40
0.0
 40
0.0
 40
0.0
 40
0.0
 40
0.1246375717
 40
0.2493761774
 40
0.3743350482
 40
0.4994959254
 40
0.6247683031
 40
0.7500175027
 40
0.8751067386999999
 40
1.0
 40
1.0
 40
1.0
 40
1.0
 10
57.70499080580009
 20
42.60982572159996
 30
0.0
 10
57.74025906420002
 20
42.61007869409996
 30
0.0
 10
57.81127543740002
 20
42.62221454069996
 30
0.0
 10
57.90604146359999
 20
42.67344269039997
 30
0.0
 10
57.97976355699995
 20
42.75231055719996
 30
0.0
 10
58.02466351230009
 20
42.85062289929999
 30
0.0
 10
58.03617341569998
 20
42.95816556769998
 30
0.0
 10
58.01304554909997
 20
43.06382096899992
 30
0.0
 10
57.95780794660004
 20
43.15657957159999
 30
0.0
 10
57.90301663920002
 20
43.20361217169997
 30
0.0
 10
57.87284005800007
 20
43.22200773959997
 30
0.0
  0
SPLINE
  5
92903
330
1F
100
AcDbEntity
  8
1
100
AcDbSpline
210
0.0
220
0.0
230
1.0
 70
     8
 71
     3
 72
    15
 73
    11
 74
     0
 42
0.000000001
 43
0.0000000001
 40
0.0
 40
0.0
 40
0.0
 40
0.0
 40
0.124680339
 40
0.2493906157
 40
0.3742015863
 40
0.4991317614
 40
0.6241940515
 40
0.7493817505
 40
0.8746591993
 40
1.0
 40
1.0
 40
1.0
 40
1.0
 10
57.87638905540006
 20
42.60990838709995
 30
0.0
 10
57.82350432870011
 20
42.60990567229995
 30
0.0
 10
57.71743343900005
 20
42.59956019509997
 30
0.0
 10
57.56452266760003
 20
42.55355844069998
 30
0.0
 10
57.42322534460004
 20
42.47882909069994
 30
0.0
 10
57.29890221110008
 20
42.37815275259996
 30
0.0
 10
57.1961738297001
 20
42.25531590130001
 30
0.0
 10
57.11888856250005
 20
42.11488982589997
 30
0.0
 10
57.06991660850007
 20
41.96220422369997
 30
0.0
 10
57.05736787269995
 20
41.85586023829995
 30
0.0
 10
57.05623595710004
 20
41.80270741949999
 30
0.0
  0
SPLINE
  5
92904
330
1F
100
AcDbEntity
  8
1
100
AcDbSpline
210
0.0
220
0.0
230
1.0
 70
     8
 71
     3
 72
    11
 73
     7
 74
     0
 42
0.000000001
 43
0.0000000001
 40
0.0
 40
0.0
 40
0.0
 40
0.0
 40
0.2504880625
 40
0.5005819384
 40
0.7503846693999999
 40
1.0
 40
1.0
 40
1.0
 40
1.0
 10
56.23054098570004
 20
45.12620548799997
 30
0.0
 10
56.21641585100007
 20
45.15153691889996
 30
0.0
 10
56.18130887469999
 20
45.1986581268
 30
0.0
 10
56.11214901330004
 20
45.25287094649995
 30
0.0
 10
56.03129615900002
 20
45.28704517909995
 30
0.0
 10
55.97317727280007
 20
45.29481385919996
 30
0.0
 10
55.94427486230006
 20
45.29481601499997
 30
0.0
  0
SPLINE
  5
92905
330
1F
100
AcDbEntity
  8
1
100
AcDbSpline
210
0.0
220
0.0
230
1.0
 70
     8
 71
     3
 72
    11
 73
     7
 74
     0
 42
0.000000001
 43
0.0000000001
 40
0.0
 40
0.0
 40
0.0
 40
0.0
 40
0.2493735195
 40
0.4991092802
 40
0.7493605911
 40
1.0
 40
1.0
 40
1.0
 40
1.0
 10
56.72811894710003
 20
41.47977242189995
 30
0.0
 10
56.77023776040005
 20
41.47976928019994
 30
0.0
 10
56.85544109800003
 20
41.49650880479994
 30
0.0
 10
56.9635669311
 20
41.56810212249999
 30
0.0
 10
57.03694041150003
 20
41.67526181229999
 30
0.0
 10
57.05533466740007
 20
41.76038439489997
 30
0.0
 10
57.05623595710004
 20
41.80270741949999
 30
0.0
  0
SPLINE
  5
92906
330
1F
100
AcDbEntity
  8
1
100
AcDbSpline
210
0.0
220
0.0
230
1.0
 70
     8
 71
     3
 72
    11
 73
     7
 74
     0
 42
0.000000001
 43
0.0000000001
 40
0.0
 40
0.0
 40
0.0
 40
0.0
 40
0.2494307897
 40
0.4992622723000001
 40
0.7494792189
 40
1.0
 40
1.0
 40
1.0
 40
1.0
 10
56.63427859140006
 20
41.49369300719995
 30
0.0
 10
56.66711480549997
 20
41.50359550649992
 30
0.0
 10
56.7301299352
 20
41.53407905159997
 30
0.0
 10
56.80553406240004
 20
41.60672899829996
 30
0.0
 10
56.85498972870004
 20
41.69918257209996
 30
0.0
 10
56.86735132870001
 20
41.76826846629999
 30
0.0
 10
56.86808472330007
 20
41.80270741949999
 30
0.0
  0
SPLINE
  5
92907
330
1F
100
AcDbEntity
  8
1
100
AcDbSpline
210
0.0
220
0.0
230
1.0
 70
     8
 71
     3
 72
     9
 73
     5
 74
     0
 42
0.000000001
 43
0.0000000001
 40
0.0
 40
0.0
 40
0.0
 40
0.0
 40
0.4998160979
 40
1.0
 40
1.0
 40
1.0
 40
1.0
 10
55.72630917590004
 20
42.06983811779998
 30
0.0
 10
55.65782499390014
 20
42.06983485389996
 30
0.0
 10
55.52025305990003
 20
42.05244399899996
 30
0.0
 10
55.39143751330005
 20
42.00112206159997
 30
0.0
 10
55.33144157000004
 20
41.96799389829997
 30
0.0
  0
SPLINE
  5
92908
330
1F
100
AcDbEntity
  8
1
100
AcDbSpline
210
0.0
220
0.0
230
1.0
 70
     8
 71
     3
 72
    27
 73
    23
 74
     0
 42
0.000000001
 43
0.0000000001
 40
0.0
 40
0.0
 40
0.0
 40
0.0
 40
0.0624438201
 40
0.0936772075
 40
0.1248986966
 40
0.1872341248
 40
0.2495458429
 40
0.2807388533
 40
0.311935781
 40
0.3742775171
 40
0.4366683014000003
 40
0.4991218222000002
 40
0.5616422596000003
 40
0.6242235990000001
 40
0.6868505293000001
 40
0.7182117754
 40
0.7495756739
 40
0.8122238272
 40
0.8748444794999999
 40
0.9061749135999999
 40
0.9374892509999998
 40
1.0
 40
1.0
 40
1.0
 40
1.0
 10
54.7112323442001
 20
45.07772735759992
 30
0.0
 10
54.82103251650006
 20
45.18444106769999
 30
0.0
 10
55.0021732714
 20
45.32883261689995
 30
0.0
 10
55.26745888090011
 20
45.48256420739995
 30
0.0
 10
55.54638785569999
 20
45.60946742349996
 30
0.0
 10
55.91631294090007
 20
45.7155251817
 30
0.0
 10
56.2998104124
 20
45.74683105439993
 30
0.0
 10
56.60534043409995
 20
45.72647133239995
 30
0.0
 10
56.90745182580006
 20
45.67614939319997
 30
0.0
 10
57.27377831540001
 20
45.55755902509996
 30
0.0
 10
57.67681367050011
 20
45.33192229919996
 30
0.0
 10
58.02838502810004
 20
45.03156612299995
 30
0.0
 10
58.31487224430009
 20
44.6680224154
 30
0.0
 10
58.52531997050005
 20
44.25538871279997
 30
0.0
 10
58.630634375
 20
43.88343729149997
 30
0.0
 10
58.67036599089999
 20
43.57822518579996
 30
0.0
 10
58.68021248850006
 20
43.27053526089997
 30
0.0
 10
58.63609456070004
 20
42.88638924439996
 30
0.0
 10
58.51815070370003
 20
42.51823600109998
 30
0.0
 10
58.38250520489999
 20
42.24215702049995
 30
0.0
 10
58.22078820689999
 20
41.98092777149994
 30
0.0
 10
58.07107932409997
 20
41.80368916789999
 30
0.0
 10
57.96116146520001
 20
41.69686107929999
 30
0.0
  0
SPLINE
  5
92909
330
1F
100
AcDbEntity
  8
1
100
AcDbSpline
210
0.0
220
0.0
230
1.0
 70
     8
 71
     3
 72
     9
 73
     5
 74
     0
 42
0.000000001
 43
0.0000000001
 40
0.0
 40
0.0
 40
0.0
 40
0.0
 40
0.4998046985000001
 40
1.0
 40
1.0
 40
1.0
 40
1.0
 10
55.17346768100003
 20
41.92725130959995
 30
0.0
 10
55.2008653647
 20
41.92724898629998
 30
0.0
 10
55.25590400650003
 20
41.93420779119997
 30
0.0
 10
55.30743858440008
 20
41.95474008839997
 30
0.0
 10
55.33144157000004
 20
41.96799389829997
 30
0.0
  0
SPLINE
  5
9290A
330
1F
100
AcDbEntity
  8
1
100
AcDbSpline
210
0.0
220
0.0
230
1.0
 70
     8
 71
     3
 72
     8
 73
     4
 74
     0
 42
0.000000001
 43
0.0000000001
 40
0.0
 40
0.0
 40
0.0
 40
0.0
 40
1.0
 40
1.0
 40
1.0
 40
1.0
 10
55.07915873319996
 20
41.94102881509997
 30
0.0
 10
55.10136889880005
 20
41.94769844009996
 30
0.0
 10
55.12298956239998
 20
41.9567843513
 30
0.0
 10
55.1432903361
 20
41.96799389829997
 30
0.0
  0
SPLINE
  5
9290B
330
1F
100
AcDbEntity
  8
1
100
AcDbSpline
210
0.0
220
0.0
230
1.0
 70
     8
 71
     3
 72
     9
 73
     5
 74
     0
 42
0.000000001
 43
0.0000000001
 40
0.0
 40
0.0
 40
0.0
 40
0.0
 40
0.2522482717
 40
1.0
 40
1.0
 40
1.0
 40
1.0
 10
63.5
 20
49.4400034693
 30
0.0
 10
63.50013928630005
 20
49.33232442309992
 30
0.0
 10
63.49987351950005
 20
48.90544657789996
 30
0.0
 10
63.49630331100001
 20
48.4785702992
 30
0.0
 10
63.49171286940009
 20
48.15940484709995
 30
0.0
  0
SPLINE
  5
9290C
330
1F
100
AcDbEntity
  8
1
100
AcDbSpline
210
0.0
220
0.0
230
1.0
 70
     8
 71
     3
 72
    15
 73
    11
 74
     0
 42
0.000000001
 43
0.0000000001
 40
0.0
 40
0.0
 40
0.0
 40
0.0
 40
0.1258912443
 40
0.2515362607
 40
0.3767795465
 40
0.5015539775
 40
0.6260231372999999
 40
0.7504156747000002
 40
0.8749915729999997
 40
1.0
 40
1.0
 40
1.0
 40
1.0
 10
63.5
 20
49.4400034693
 30
0.0
 10
63.49993500550009
 20
49.49024923099996
 30
0.0
 10
63.49034726240006
 20
49.59089200489994
 30
0.0
 10
63.44792959260008
 20
49.73605723459996
 30
0.0
 10
63.37928845930004
 20
49.87036699509996
 30
0.0
 10
63.28693285990005
 20
49.98902296719997
 30
0.0
 10
63.17403095249995
 20
50.08783319399999
 30
0.0
 10
63.04442460030009
 20
50.16329796559996
 30
0.0
 10
62.90262645130008
 20
50.21266067489995
 30
0.0
 10
62.80329813040009
 20
50.22688288009999
 30
0.0
 10
62.75345877090001
 20
50.22920557199999
 30
0.0
  0
SPLINE
  5
9290D
330
1F
100
AcDbEntity
  8
1
100
AcDbSpline
210
0.0
220
0.0
230
1.0
 70
     8
 71
     3
 72
     9
 73
     5
 74
     0
 42
0.000000001
 43
0.0000000001
 40
0.0
 40
0.0
 40
0.0
 40
0.0
 40
0.2501271085
 40
1.0
 40
1.0
 40
1.0
 40
1.0
 10
61.47060080580001
 20
50.28821808139998
 30
0.0
 10
61.5775629113001
 20
50.28336170809995
 30
0.0
 10
62.00519098860002
 20
50.26388177869995
 30
0.0
 10
62.43280755300009
 20
50.24414906269999
 30
0.0
 10
62.75345877090001
 20
50.22920557199999
 30
0.0
  0
SPLINE
  5
9290E
330
1F
100
AcDbEntity
  8
1
100
AcDbSpline
210
0.0
220
0.0
230
1.0
 70
     8
 71
     3
 72
     9
 73
     5
 74
     0
 42
0.000000001
 43
0.0000000001
 40
0.0
 40
0.0
 40
0.0
 40
0.0
 40
0.2480571801
 40
1.0
 40
1.0
 40
1.0
 40
1.0
 10
54.96644827940008
 20
50.41559583119997
 30
0.0
 10
55.4998519830001
 20
50.40525894659999
 30
0.0
 10
57.6501784797
 20
50.36363401289998
 30
0.0
 10
59.80049751160002
 20
50.32162422779999
 30
0.0
 10
61.4174127031
 20
50.28994585359999
 30
0.0
  0
SPLINE
  5
9290F
330
1F
100
AcDbEntity
  8
1
100
AcDbSpline
210
0.0
220
0.0
230
1.0
 70
     8
 71
     3
 72
    11
 73
     7
 74
     0
 42
0.000000001
 43
0.0000000001
 40
0.0
 40
0.0
 40
0.0
 40
0.0
 40
0.1243906053
 40
0.2489580189
 40
0.4986663276
 40
1.0
 40
1.0
 40
1.0
 40
1.0
 10
53.6469074071
 20
50.22536525909998
 30
0.0
 10
53.56024289010008
 20
50.17847357119996
 30
0.0
 10
53.38665759340006
 20
50.08486973369997
 30
0.0
 10
53.03917876649996
 20
49.89698230489995
 30
0.0
 10
52.42916122430006
 20
49.56684597809992
 30
0.0
 10
51.9062300029001
 20
49.28311649399994
 30
0.0
 10
51.55727393580002
 20
49.0935204141
 30
0.0
  0
LINE
  5
92910
330
1F
100
AcDbEntity
  8
1
100
AcDbLine
 10
48.4228023587001
 20
47.38382321849996
 30
0.0
 11
47.99176319879996
 21
47.14776866279999
 31
0.0
  0
SPLINE
  5
92911
330
1F
100
AcDbEntity
  8
1
100
AcDbSpline
210
0.0
220
0.0
230
1.0
 70
     8
 71
     3
 72
     9
 73
     5
 74
     0
 42
0.000000001
 43
0.0000000001
 40
0.0
 40
0.0
 40
0.0
 40
0.0
 40
0.2497921276
 40
1.0
 40
1.0
 40
1.0
 40
1.0
 10
47.94549679420003
 20
47.12163456139996
 30
0.0
 10
47.85306581660006
 20
47.06781406609997
 30
0.0
 10
47.48339443170005
 20
46.85173496699997
 30
0.0
 10
47.11514133499997
 20
46.63322901799995
 30
0.0
 10
46.83970949700007
 20
46.46791991999998
 30
0.0
  0
SPLINE
  5
92912
330
1F
100
AcDbEntity
  8
1
100
AcDbSpline
210
0.0
220
0.0
230
1.0
 70
     8
 71
     3
 72
     9
 73
     5
 74
     0
 42
0.000000001
 43
0.0000000001
 40
0.0
 40
0.0
 40
0.0
 40
0.0
 40
0.5004189035000001
 40
1.0
 40
1.0
 40
1.0
 40
1.0
 10
46.83970949700007
 20
46.46791991999998
 30
0.0
 10
46.79966447620006
 20
46.44388563869995
 30
0.0
 10
46.72380126209998
 20
46.38855458749998
 30
0.0
 10
46.65907636910002
 20
46.32053503579999
 30
0.0
 10
46.63007385850005
 20
46.28402740489995
 30
0.0
  0
SPLINE
  5
92913
330
1F
100
AcDbEntity
  8
1
100
AcDbSpline
210
0.0
220
0.0
230
1.0
 70
     8
 71
     3
 72
     9
 73
     5
 74
     0
 42
0.000000001
 43
0.0000000001
 40
0.0
 40
0.0
 40
0.0
 40
0.0
 40
0.2514664261
 40
1.0
 40
1.0
 40
1.0
 40
1.0
 10
46.59728045109999
 20
45.32569765899995
 30
0.0
 10
46.64250367950001
 20
45.24004921110003
 30
0.0
 10
46.82285765020004
 20
44.89972594699998
 30
0.0
 10
47.00529004860004
 20
44.5605039504
 30
0.0
 10
47.14303205890007
 20
44.30723232269996
 30
0.0
  0
SPLINE
  5
92914
330
1F
100
AcDbEntity
  8
1
100
AcDbSpline
210
0.0
220
0.0
230
1.0
 70
     8
 71
     3
 72
    13
 73
     9
 74
     0
 42
0.000000001
 43
0.0000000001
 40
0.0
 40
0.0
 40
0.0
 40
0.0
 40
0.0618421705
 40
0.1237509472
 40
0.2478866604
 40
0.4972846003
 40
0.7480307153
 40
1.0
 40
1.0
 40
1.0
 40
1.0
 10
63.03553268800009
 20
41.04334201729995
 30
0.0
 10
63.00745530910001
 20
40.99338638499998
 30
0.0
 10
62.95154381300005
 20
40.89326788049996
 30
0.0
 10
62.83919906040001
 20
40.69291470909999
 30
0.0
 10
62.64172376170005
 20
40.34104243949999
 30
0.0
 10
62.35792027360004
 20
39.83696184219997
 30
0.0
 10
62.01511650880002
 20
39.23016062299999
 30
0.0
 10
61.78540507679997
 20
38.82490061369998
 30
0.0
 10
61.67013598699998
 20
38.6218536536
 30
0.0
  0
SPLINE
  5
92915
330
1F
100
AcDbEntity
  8
1
100
AcDbSpline
210
0.0
220
0.0
230
1.0
 70
     8
 71
     3
 72
    10
 73
     6
 74
     0
 42
0.000000001
 43
0.0000000001
 40
0.0
 40
0.0
 40
0.0
 40
0.0
 40
0.2504815494
 40
0.5017728216
 40
1.0
 40
1.0
 40
1.0
 40
1.0
 10
54.38420811360003
 20
50.41589300239997
 30
0.0
 10
54.32006748720005
 20
50.41589213949999
 30
0.0
 10
54.19139113300015
 20
50.40752140189994
 30
0.0
 10
53.93967724830009
 20
50.35802324149995
 30
0.0
 10
53.75911602609995
 20
50.28607812899998
 30
0.0
 10
53.6469074071
 20
50.22536525909998
 30
0.0
  0
SPLINE
  5
92916
330
1F
100
AcDbEntity
  8
1
100
AcDbSpline
210
0.0
220
0.0
230
1.0
 70
     8
 71
     3
 72
    19
 73
    15
 74
     0
 42
0.000000001
 43
0.0000000001
 40
0.0
 40
0.0
 40
0.0
 40
0.0
 40
0.1285500918
 40
0.1922036895
 40
0.2551463433999999
 40
0.2862818495
 40
0.3171818804
 40
0.3788937527
 40
0.4406842205
 40
0.5025487707
 40
0.6264954870000004
 40
0.7507249987000001
 40
0.8752291934
 40
1.0
 40
1.0
 40
1.0
 40
1.0
 10
63.24070554140007
 20
41.79793647789997
 30
0.0
 10
63.24482826949997
 20
42.06847025099997
 30
0.0
 10
63.25348838240007
 20
42.47293127139997
 30
0.0
 10
63.27005788640008
 20
43.00969606789998
 30
0.0
 10
63.2824461079
 20
43.34145266369998
 30
0.0
 10
63.29353830180004
 20
43.60426646349996
 30
0.0
 10
63.30550608310001
 20
43.86444837779996
 30
0.0
 10
63.32044930480003
 20
44.18908216449998
 30
0.0
 10
63.33814159370001
 20
44.57883093829997
 30
0.0
 10
63.3615553257
 20
45.09944325809994
 30
0.0
 10
63.39041317320003
 20
45.75136180019995
 30
0.0
 10
63.42438655560011
 20
46.53502316119994
 30
0.0
 10
63.45771501720003
 20
47.3204482786
 30
0.0
 10
63.47948529030009
 20
47.84465685709995
 30
0.0
 10
63.49025968110003
 20
48.10704649059992
 30
0.0
  0
SPLINE
  5
92917
330
1F
100
AcDbEntity
  8
1
100
AcDbSpline
210
0.0
220
0.0
230
1.0
 70
     8
 71
     3
 72
     8
 73
     4
 74
     0
 42
0.000000001
 43
0.0000000001
 40
0.0
 40
0.0
 40
0.0
 40
0.0
 40
1.0
 40
1.0
 40
1.0
 40
1.0
 10
63.49171286940009
 20
48.15940484709995
 30
0.0
 10
63.49146178160004
 20
48.14194714629997
 30
0.0
 10
63.49097600950006
 20
48.12449129599997
 30
0.0
 10
63.49025968110003
 20
48.10704649059992
 30
0.0
  0
SPLINE
  5
92918
330
1F
100
AcDbEntity
  8
1
100
AcDbSpline
210
0.0
220
0.0
230
1.0
 70
     8
 71
     3
 72
     8
 73
     4
 74
     0
 42
0.000000001
 43
0.0000000001
 40
0.0
 40
0.0
 40
0.0
 40
0.0
 40
1.0
 40
1.0
 40
1.0
 40
1.0
 10
61.47060080580001
 20
50.28821808139998
 30
0.0
 10
61.45288034170005
 20
50.28902263909998
 30
0.0
 10
61.43514801900003
 20
50.28959838579999
 30
0.0
 10
61.4174127031
 20
50.28994585359999
 30
0.0
  0
SPLINE
  5
92919
330
1F
100
AcDbEntity
  8
1
100
AcDbSpline
210
0.0
220
0.0
230
1.0
 70
     8
 71
     3
 72
     8
 73
     4
 74
     0
 42
0.000000001
 43
0.0000000001
 40
0.0
 40
0.0
 40
0.0
 40
0.0
 40
1.0
 40
1.0
 40
1.0
 40
1.0
 10
47.99176319879996
 20
47.14776866279999
 30
0.0
 10
47.97622922519996
 20
47.13925832639995
 30
0.0
 10
47.96080344510005
 20
47.13054728269995
 30
0.0
 10
47.94549679420003
 20
47.12163456139996
 30
0.0
  0
SPLINE
  5
9291A
330
1F
100
AcDbEntity
  8
1
100
AcDbSpline
210
0.0
220
0.0
230
1.0
 70
     8
 71
     3
 72
    10
 73
     6
 74
     0
 42
0.000000001
 43
0.0000000001
 40
0.0
 40
0.0
 40
0.0
 40
0.0
 40
0.4914456555
 40
0.7454263468000001
 40
1.0
 40
1.0
 40
1.0
 40
1.0
 10
63.03553268800009
 20
41.04334201729995
 30
0.0
 10
63.09883977930008
 20
41.1559788054
 30
0.0
 10
63.17379396720003
 20
41.33974099689996
 30
0.0
 10
63.22893336780009
 20
41.59723954429995
 30
0.0
 10
63.23968567860003
 20
41.73101298769998
 30
0.0
 10
63.24070554140007
 20
41.79793647789997
 30
0.0
  0
SPLINE
  5
9291B
330
1F
100
AcDbEntity
  8
1
100
AcDbSpline
210
0.0
220
0.0
230
1.0
 70
     8
 71
     3
 72
    15
 73
    11
 74
     0
 42
0.000000001
 43
0.0000000001
 40
0.0
 40
0.0
 40
0.0
 40
0.0
 40
0.1306978029
 40
0.2579345507
 40
0.3197247414
 40
0.3810726685
 40
0.5040814271000002
 40
0.6274873376
 40
0.751281166
 40
1.0
 40
1.0
 40
1.0
 40
1.0
 10
54.1994690893
 20
50.22536525909998
 30
0.0
 10
53.96620597560001
 20
50.09413208669997
 30
0.0
 10
53.50665607180008
 20
49.83371864629997
 30
0.0
 10
52.93898455260012
 20
49.5074710307
 30
0.0
 10
52.49593614210005
 20
49.24941672540001
 30
0.0
 10
52.06056995769995
 20
48.99537729669997
 30
0.0
 10
51.5160112996001
 20
48.67810821799997
 30
0.0
 10
50.86081770680005
 20
48.29670920259996
 30
0.0
 10
49.98288485590001
 20
47.78624365459996
 30
0.0
 10
49.32315147120005
 20
47.4032650995
 30
0.0
 10
48.88253955460005
 20
47.14776866279999
 30
0.0
  0
SPLINE
  5
9291C
330
1F
100
AcDbEntity
  8
1
100
AcDbSpline
210
0.0
220
0.0
230
1.0
 70
     8
 71
     3
 72
     9
 73
     5
 74
     0
 42
0.000000001
 43
0.0000000001
 40
0.0
 40
0.0
 40
0.0
 40
0.0
 40
0.253538029
 40
1.0
 40
1.0
 40
1.0
 40
1.0
 10
47.76726014920007
 20
46.46791991999998
 30
0.0
 10
47.85804630890004
 20
46.52279561169996
 30
0.0
 10
48.21590622270004
 20
46.73959433029994
 30
0.0
 10
48.57288406949999
 20
46.95784951999995
 30
0.0
 10
48.83881982579999
 20
47.12163456139996
 30
0.0
  0
SPLINE
  5
9291D
330
1F
100
AcDbEntity
  8
1
100
AcDbSpline
210
0.0
220
0.0
230
1.0
 70
     8
 71
     3
 72
    15
 73
    11
 74
     0
 42
0.000000001
 43
0.0000000001
 40
0.0
 40
0.0
 40
0.0
 40
0.0
 40
0.1239263988
 40
0.2482204645
 40
0.3727478374
 40
0.4974955837
 40
0.6225866795
 40
0.7480742292000003
 40
0.8739240088999999
 40
1.0
 40
1.0
 40
1.0
 40
1.0
 10
47.76726014920007
 20
46.46791991999998
 30
0.0
 10
47.7247343534001
 20
46.4422152038
 30
0.0
 10
47.64429368730008
 20
46.38239919360001
 30
0.0
 10
47.54281128910007
 20
46.27150301969993
 30
0.0
 10
47.46393278020002
 20
46.14308416469993
 30
0.0
 10
47.41063271680002
 20
46.00179713799997
 30
0.0
 10
47.3846669423001
 20
45.85266181959997
 30
0.0
 10
47.38691847339999
 20
45.70085264849995
 30
0.0
 10
47.41728512249993
 20
45.55175044509996
 30
0.0
 10
47.45562946460006
 20
45.45755330269996
 30
0.0
 10
47.4789497518001
 20
45.41270085459996
 30
0.0
  0
SPLINE
  5
9291E
330
1F
100
AcDbEntity
  8
1
100
AcDbSpline
210
0.0
220
0.0
230
1.0
 70
     8
 71
     3
 72
     9
 73
     5
 74
     0
 42
0.000000001
 43
0.0000000001
 40
0.0
 40
0.0
 40
0.0
 40
0.0
 40
0.2465950541
 40
1.0
 40
1.0
 40
1.0
 40
1.0
 10
48.05375091949997
 20
44.27526060479997
 30
0.0
 10
48.00761900290002
 20
44.36931337629999
 30
0.0
 10
47.81937248510007
 20
44.75014389919997
 30
0.0
 10
47.6265943121001
 20
45.12873265479997
 30
0.0
 10
47.4789497518001
 20
45.41270085459996
 30
0.0
  0
LINE
  5
9291F
330
1F
100
AcDbEntity
  8
1
100
AcDbLine
 10
48.3493466543
 20
43.7079501627
 30
0.0
 11
48.07713951710013
 21
44.2290777243
 31
0.0
  0
SPLINE
  5
92920
330
1F
100
AcDbEntity
  8
1
100
AcDbSpline
210
0.0
220
0.0
230
1.0
 70
     8
 71
     3
 72
     9
 73
     5
 74
     0
 42
0.000000001
 43
0.0000000001
 40
0.0
 40
0.0
 40
0.0
 40
0.0
 40
0.4993199409000001
 40
1.0
 40
1.0
 40
1.0
 40
1.0
 10
54.9357705231
 20
50.41589309099999
 30
0.0
 10
54.80812557110003
 20
50.41589209829999
 30
0.0
 10
54.55131797850004
 20
50.38476012769995
 30
0.0
 10
54.31101971850001
 20
50.28812332959995
 30
0.0
 10
54.1994690893
 20
50.22536525909998
 30
0.0
  0
SPLINE
  5
92921
330
1F
100
AcDbEntity
  8
1
100
AcDbSpline
210
0.0
220
0.0
230
1.0
 70
     8
 71
     3
 72
     8
 73
     4
 74
     0
 42
0.000000001
 43
0.0000000001
 40
0.0
 40
0.0
 40
0.0
 40
0.0
 40
1.0
 40
1.0
 40
1.0
 40
1.0
 10
48.05375091949997
 20
44.27526060479997
 30
0.0
 10
48.06134988209999
 20
44.25976800129999
 30
0.0
 10
48.06914429050005
 20
44.24436959619995
 30
0.0
 10
48.07713951710013
 20
44.2290777243
 30
0.0
  0
SPLINE
  5
92922
330
1F
100
AcDbEntity
  8
1
100
AcDbSpline
210
0.0
220
0.0
230
1.0
 70
     8
 71
     3
 72
     8
 73
     4
 74
     0
 42
0.000000001
 43
0.0000000001
 40
0.0
 40
0.0
 40
0.0
 40
0.0
 40
1.0
 40
1.0
 40
1.0
 40
1.0
 10
48.83881982579999
 20
47.12163456139996
 30
0.0
 10
48.85327644260008
 20
47.1305381313
 30
0.0
 10
48.86785183109997
 20
47.13925173239994
 30
0.0
 10
48.88253955460005
 20
47.14776866279999
 30
0.0
  0
SPLINE
  5
92923
330
1F
100
AcDbEntity
  8
1
100
AcDbSpline
210
0.0
220
0.0
230
1.0
 70
     8
 71
     3
 72
    12
 73
     8
 74
     0
 42
0.000000001
 43
0.0000000001
 40
0.0
 40
0.0
 40
0.0
 40
0.0
 40
0.224009075
 40
0.3611956471
 40
0.5055547811
 40
0.7737029983000001
 40
1.0
 40
1.0
 40
1.0
 40
1.0
 10
58.85403913150003
 20
40.05279755129999
 30
0.0
 10
58.59703461369996
 20
40.03872393709996
 30
0.0
 10
58.17864582080005
 20
40.06629274799997
 30
0.0
 10
57.61169278700004
 20
40.19657046779996
 30
0.0
 10
57.01468999860003
 20
40.40665989599997
 30
0.0
 10
56.3627938116
 20
40.75369190599997
 30
0.0
 10
55.90890724530003
 20
41.09878064649996
 30
0.0
 10
55.71340946170003
 20
41.2702163443
 30
0.0
  0
SPLINE
  5
92924
330
1F
100
AcDbEntity
  8
1
100
AcDbSpline
210
0.0
220
0.0
230
1.0
 70
     8
 71
     3
 72
     9
 73
     5
 74
     0
 42
0.000000001
 43
0.0000000001
 40
0.0
 40
0.0
 40
0.0
 40
0.0
 40
0.2514189744
 40
1.0
 40
1.0
 40
1.0
 40
1.0
 10
58.46049359530002
 20
40.05480588569997
 30
0.0
 10
58.46876781499998
 20
40.05599079879996
 30
0.0
 10
58.50166848159995
 20
40.06076925179999
 30
0.0
 10
58.53453137250006
 20
40.06580766409999
 30
0.0
 10
58.55910865190003
 20
40.06972300359999
 30
0.0
  0
SPLINE
  5
92925
330
1F
100
AcDbEntity
  8
1
100
AcDbSpline
210
0.0
220
0.0
230
1.0
 70
     8
 71
     3
 72
    15
 73
    11
 74
     0
 42
0.000000001
 43
0.0000000001
 40
0.0
 40
0.0
 40
0.0
 40
0.0
 40
0.0872144351
 40
0.1827928244
 40
0.288422569
 40
0.4055243759
 40
0.5351154902000001
 40
0.6776615334999999
 40
0.8329457801
 40
1.0
 40
1.0
 40
1.0
 40
1.0
 10
61.71340946170005
 20
38.22974755849998
 30
0.0
 10
61.71340946170005
 20
38.31146585719995
 30
0.0
 10
61.70069909769996
 20
38.48290864529997
 30
0.0
 10
61.645379381
 20
38.74810711079997
 30
0.0
 10
61.55017412740003
 20
39.03142348789998
 30
0.0
 10
61.41242961919999
 20
39.33202235939996
 30
0.0
 10
61.23007026280003
 20
39.64840487329997
 30
0.0
 10
61.00200194460001
 20
39.97809519879999
 30
0.0
 10
60.72855954610009
 20
40.31758632919997
 30
0.0
 10
60.5240935585
 20
40.54017920109996
 30
0.0
 10
60.41499080309995
 20
40.65241641719995
 30
0.0
  0
LINE
  5
92926
330
1F
100
AcDbEntity
  8
1
100
AcDbLine
 10
51.33477177270004
 20
49.5038258166
 30
0.0
 11
51.20836091750003
 21
49.58621064109997
 31
0.0
  0
SPLINE
  5
92927
330
1F
100
AcDbEntity
  8
1
100
AcDbSpline
210
0.0
220
0.0
230
1.0
 70
     8
 71
     3
 72
    21
 73
    17
 74
     0
 42
0.000000001
 43
0.0000000001
 40
0.0
 40
0.0
 40
0.0
 40
0.0
 40
0.2164478906
 40
0.4112879426
 40
0.5817972984000001
 40
0.6571598426
 40
0.7255608749000002
 40
0.7867557711
 40
0.8405261812999999
 40
0.8866822931999999
 40
0.9250660798
 40
0.9555575752999999
 40
0.9780899364999999
 40
0.9927029993000001
 40
0.9971633658
 40
1.0
 40
1.0
 40
1.0
 40
1.0
 10
49.65213611010006
 20
49.8109860386
 30
0.0
 10
49.56574461399998
 20
49.81420531439994
 30
0.0
 10
49.40161534300012
 20
49.82115857380001
 30
0.0
 10
49.169568755
 20
49.83360948829994
 30
0.0
 10
48.99392046570007
 20
49.84520904479996
 30
0.0
 10
48.86877132510004
 20
49.85491584019996
 30
0.0
 10
48.78720902810004
 20
49.86193095279998
 30
0.0
 10
48.7143026425
 20
49.86891574570001
 30
0.0
 10
48.6503187001
 20
49.87580541919999
 30
0.0
 10
48.59548005940007
 20
49.88253166169993
 30
0.0
 10
48.55000677120006
 20
49.8890370629
 30
0.0
 10
48.51398534950011
 20
49.89522522749997
 30
0.0
 10
48.48767029899999
 20
49.90106053149998
 30
0.0
 10
48.47161142000004
 20
49.90594817919998
 30
0.0
 10
48.4639415836001
 20
49.91005979559997
 30
0.0
 10
48.46175426809996
 20
49.91225673449998
 30
0.0
 10
48.46138855180004
 20
49.91332906629997
 30
0.0
  0
SPLINE
  5
92928
330
1F
100
AcDbEntity
  8
1
100
AcDbSpline
210
0.0
220
0.0
230
1.0
 70
     8
 71
     3
 72
    14
 73
    10
 74
     0
 42
0.000000001
 43
0.0000000001
 40
0.0
 40
0.0
 40
0.0
 40
0.0
 40
0.0606304767
 40
0.1389220934
 40
0.2362055323
 40
0.3528866038
 40
0.4886790715
 40
0.6427310223
 40
1.0
 40
1.0
 40
1.0
 40
1.0
 10
51.20836091750003
 20
49.58621064109997
 30
0.0
 10
51.18151093460006
 20
49.60359185309993
 30
0.0
 10
51.11487548150001
 20
49.63533540229995
 30
0.0
 10
50.9960032102
 20
49.67317299859995
 30
0.0
 10
50.84538617290002
 20
49.70686362250001
 30
0.0
 10
50.66316860380005
 20
49.73626065739995
 30
0.0
 10
50.45013457319999
 20
49.76136573999998
 30
0.0
 10
50.10997821379999
 20
49.7906252527
 30
0.0
 10
49.84047793720003
 20
49.80396759169997
 30
0.0
 10
49.65213611010006
 20
49.8109860386
 30
0.0
  0
SPLINE
  5
92929
330
1F
100
AcDbEntity
  8
1
100
AcDbSpline
210
0.0
220
0.0
230
1.0
 70
     8
 71
     3
 72
     9
 73
     5
 74
     0
 42
0.000000001
 43
0.0000000001
 40
0.0
 40
0.0
 40
0.0
 40
0.0
 40
0.2492264255
 40
1.0
 40
1.0
 40
1.0
 40
1.0
 10
35.20127841810006
 20
44.03634764559995
 30
0.0
 10
35.38769252500003
 20
44.05395860419996
 30
0.0
 10
36.13571390820005
 20
44.12408579069998
 30
0.0
 10
36.88392971330006
 20
44.1921360154
 30
0.0
 10
37.44576409030003
 20
44.24216198959996
 30
0.0
  0
SPLINE
  5
9292A
330
1F
100
AcDbEntity
  8
1
100
AcDbSpline
210
0.0
220
0.0
230
1.0
 70
     8
 71
     3
 72
    17
 73
    13
 74
     0
 42
0.000000001
 43
0.0000000001
 40
0.0
 40
0.0
 40
0.0
 40
0.0
 40
0.1486441705
 40
0.2936093522
 40
0.433860508
 40
0.5680558251
 40
0.6944196969
 40
0.8105870568
 40
0.8639449384999997
 40
0.9135764201
 40
0.9590533126
 40
1.0
 40
1.0
 40
1.0
 40
1.0
 10
33.44055846740003
 20
43.58528395119998
 30
0.0
 10
33.2296202471
 20
43.53115683659999
 30
0.0
 10
32.81136563430005
 20
43.43034046909997
 30
0.0
 10
32.18884142370007
 20
43.30134573929997
 30
0.0
 10
31.58289889700006
 20
43.19847819739996
 30
0.0
 10
31.00015109490005
 20
43.12449934979997
 30
0.0
 10
30.44954275459998
 20
43.08286448399996
 30
0.0
 10
30.01556769870001
 20
43.07821516529998
 30
0.0
 10
29.69492729640002
 20
43.09724841839996
 30
0.0
 10
29.47872546510007
 20
43.12244740769996
 30
0.0
 10
29.28269636380003
 20
43.15954333069996
 30
0.0
 10
29.16069132680002
 20
43.19452647709996
 30
0.0
 10
29.104244268
 20
43.21483494549997
 30
0.0
  0
SPLINE
  5
9292B
330
1F
100
AcDbEntity
  8
1
100
AcDbSpline
210
0.0
220
0.0
230
1.0
 70
     8
 71
     3
 72
     8
 73
     4
 74
     0
 42
0.000000001
 43
0.0000000001
 40
0.0
 40
0.0
 40
0.0
 40
0.0
 40
1.0
 40
1.0
 40
1.0
 40
1.0
 10
33.44055846740003
 20
43.58528395119998
 30
0.0
 10
34.02740576940006
 20
43.73586999079996
 30
0.0
 10
34.61431337860006
 20
43.88622118669997
 30
0.0
 10
35.20127841810006
 20
44.03634764559995
 30
0.0
  0
SPLINE
  5
9292C
330
1F
100
AcDbEntity
  8
1
100
AcDbSpline
210
0.0
220
0.0
230
1.0
 70
     8
 71
     3
 72
     9
 73
     5
 74
     0
 42
0.000000001
 43
0.0000000001
 40
0.0
 40
0.0
 40
0.0
 40
0.0
 40
0.2386870756
 40
1.0
 40
1.0
 40
1.0
 40
1.0
 10
47.41526963880004
 20
47.41303747299997
 30
0.0
 10
47.44844680399999
 20
47.41782107229999
 30
0.0
 10
47.5878133479
 20
47.43518207339997
 30
0.0
 10
47.72863489960001
 20
47.44122035679999
 30
0.0
 10
47.83552537690002
 20
47.43889750630001
 30
0.0
  0
SPLINE
  5
9292D
330
1F
100
AcDbEntity
  8
1
100
AcDbSpline
210
0.0
220
0.0
230
1.0
 70
     8
 71
     3
 72
     8
 73
     4
 74
     0
 42
0.000000001
 43
0.0000000001
 40
0.0
 40
0.0
 40
0.0
 40
0.0
 40
1.0
 40
1.0
 40
1.0
 40
1.0
 10
47.87047240620006
 20
47.65528585419997
 30
0.0
 10
47.85087972860003
 20
47.64800896529997
 30
0.0
 10
47.83141658190004
 20
47.64037341079995
 30
0.0
 10
47.81210181070004
 20
47.63238806539999
 30
0.0
  0
SPLINE
  5
9292E
330
1F
100
AcDbEntity
  8
1
100
AcDbSpline
210
0.0
220
0.0
230
1.0
 70
     8
 71
     3
 72
     9
 73
     5
 74
     0
 42
0.000000001
 43
0.0000000001
 40
0.0
 40
0.0
 40
0.0
 40
0.0
 40
0.5197632248
 40
1.0
 40
1.0
 40
1.0
 40
1.0
 10
38.41946730100005
 20
44.25666884089997
 30
0.0
 10
38.25089228990009
 20
44.26582789529994
 30
0.0
 10
37.92584945620002
 20
44.27233416259996
 30
0.0
 10
37.60113450950007
 20
44.25599623839997
 30
0.0
 10
37.44576409030003
 20
44.24216198959996
 30
0.0
  0
SPLINE
  5
9292F
330
1F
100
AcDbEntity
  8
1
100
AcDbSpline
210
0.0
220
0.0
230
1.0
 70
     8
 71
     3
 72
    12
 73
     8
 74
     0
 42
0.000000001
 43
0.0000000001
 40
0.0
 40
0.0
 40
0.0
 40
0.0
 40
0.0876612514
 40
0.1915670173
 40
0.4378355585
 40
0.7157970404000002
 40
1.0
 40
1.0
 40
1.0
 40
1.0
 10
48.92627412420004
 20
49.94634789989999
 30
0.0
 10
49.01531936590004
 20
49.94790223359996
 30
0.0
 10
49.20992928910004
 20
49.95019701899996
 30
0.0
 10
49.65473229830003
 20
49.95351130329999
 30
0.0
 10
50.29287075420007
 20
49.95749307099996
 30
0.0
 10
51.1141419452
 20
49.96718313649996
 30
0.0
 10
51.68516657120004
 20
49.97833285119998
 30
0.0
 10
51.97382338399996
 20
49.98500507450001
 30
0.0
  0
LINE
  5
92930
330
1F
100
AcDbEntity
  8
1
100
AcDbLine
 10
52.02618060330006
 20
43.5002237088
 30
0.0
 11
51.97382338399996
 21
43.50337566359999
 31
0.0
  0
SPLINE
  5
92931
330
1F
100
AcDbEntity
  8
1
100
AcDbSpline
210
0.0
220
0.0
230
1.0
 70
     8
 71
     3
 72
     8
 73
     4
 74
     0
 42
0.000000001
 43
0.0000000001
 40
0.0
 40
0.0
 40
0.0
 40
0.0
 40
1.0
 40
1.0
 40
1.0
 40
1.0
 10
51.97382338399996
 20
49.98500507450001
 30
0.0
 10
51.99127300440011
 20
49.98540841770001
 30
0.0
 10
52.00872665760005
 20
49.98566430809995
 30
0.0
 10
52.02618060330006
 20
49.98577255269998
 30
0.0
  0
SPLINE
  5
92932
330
1F
100
AcDbEntity
  8
1
100
AcDbSpline
210
0.0
220
0.0
230
1.0
 70
     8
 71
     3
 72
     9
 73
     5
 74
     0
 42
0.000000001
 43
0.0000000001
 40
0.0
 40
0.0
 40
0.0
 40
0.0
 40
0.2485534184
 40
1.0
 40
1.0
 40
1.0
 40
1.0
 10
54.29019606680004
 20
43.31482455869997
 30
0.0
 10
54.17134952370009
 20
43.32916632899997
 30
0.0
 10
53.69280592470011
 20
43.38357358169997
 30
0.0
 10
53.21273622770002
 20
43.42463122789999
 30
0.0
 10
52.85155619609998
 20
43.44765463219996
 30
0.0
  0
SPLINE
  5
92933
330
1F
100
AcDbEntity
  8
1
100
AcDbSpline
210
0.0
220
0.0
230
1.0
 70
     8
 71
     3
 72
     9
 73
     5
 74
     0
 42
0.000000001
 43
0.0000000001
 40
0.0
 40
0.0
 40
0.0
 40
0.0
 40
0.2612182031
 40
1.0
 40
1.0
 40
1.0
 40
1.0
 10
52.02618060330006
 20
49.98577255269998
 30
0.0
 10
52.0944385004001
 20
49.98619586929999
 30
0.0
 10
52.35574331760005
 20
49.98802208769996
 30
0.0
 10
52.61704233679996
 20
49.99058776149997
 30
0.0
 10
52.81008340730011
 20
49.99262937079999
 30
0.0
  0
LINE
  5
92934
330
1F
100
AcDbEntity
  8
1
100
AcDbLine
 10
52.81008340730011
 20
49.99262937079999
 30
0.0
 11
52.88782467010003
 21
49.99343837769997
 31
0.0
  0
LINE
  5
92935
330
1F
100
AcDbEntity
  8
1
100
AcDbLine
 10
52.88782467010003
 20
49.99343837769997
 30
0.0
 11
53.21706693150009
 21
49.99315582509996
 31
0.0
  0
SPLINE
  5
92936
330
1F
100
AcDbEntity
  8
1
100
AcDbSpline
210
0.0
220
0.0
230
1.0
 70
     8
 71
     3
 72
     9
 73
     5
 74
     0
 42
0.000000001
 43
0.0000000001
 40
0.0
 40
0.0
 40
0.0
 40
0.0
 40
0.5392951505
 40
1.0
 40
1.0
 40
1.0
 40
1.0
 10
55.71340946170003
 20
41.2702163443
 30
0.0
 10
55.37419281850009
 20
41.56768182369996
 30
0.0
 10
54.81452042689999
 20
42.20426951099997
 30
0.0
 10
54.42592123070006
 20
42.95409161659998
 30
0.0
 10
54.29019606680004
 20
43.31482455869997
 30
0.0
  0
SPLINE
  5
92937
330
1F
100
AcDbEntity
  8
1
100
AcDbSpline
210
0.0
220
0.0
230
1.0
 70
     8
 71
     3
 72
    23
 73
    19
 74
     0
 42
0.000000001
 43
0.0000000001
 40
0.0
 40
0.0
 40
0.0
 40
0.0
 40
0.061683355
 40
0.1234354713
 40
0.185306494
 40
0.2473348818
 40
0.309545692
 40
0.3719493763
 40
0.4345396834000001
 40
0.4972961208
 40
0.5601854372
 40
0.6231628589
 40
0.6861773789
 40
0.7491742116
 40
0.8120986333999999
 40
0.8749021256999998
 40
0.9375448052000001
 40
1.0
 40
1.0
 40
1.0
 40
1.0
 10
47.66779960760003
 20
43.93597331029996
 30
0.0
 10
47.58181187870003
 20
43.97723889579995
 30
0.0
 10
47.4156828798001
 20
44.07289919849995
 30
0.0
 10
47.19056660780006
 20
44.25177041059995
 30
0.0
 10
46.99383094170001
 20
44.4622560236
 30
0.0
 10
46.82957480390007
 20
44.69978037179997
 30
0.0
 10
46.70097265269999
 20
44.9592554125
 30
0.0
 10
46.61058194580005
 20
45.23528457319996
 30
0.0
 10
46.56018120190004
 20
45.52217260349999
 30
0.0
 10
46.55067826600009
 20
45.81404176869995
 30
0.0
 10
46.58234325830004
 20
46.10494473079994
 30
0.0
 10
46.6545829693
 20
46.38891786439995
 30
0.0
 10
46.765979239
 20
46.66012109069998
 30
0.0
 10
46.91445331329997
 20
46.91285592259992
 30
0.0
 10
47.09702779260009
 20
47.14176135409997
 30
0.0
 10
47.3100229155001
 20
47.34192205899995
 30
0.0
 10
47.54902646729999
 20
47.5088274414
 30
0.0
 10
47.72277264540003
 20
47.5956986068
 30
0.0
 10
47.81210181070004
 20
47.63238806539999
 30
0.0
  0
SPLINE
  5
92938
330
1F
100
AcDbEntity
  8
1
100
AcDbSpline
210
0.0
220
0.0
230
1.0
 70
     8
 71
     3
 72
     9
 73
     5
 74
     0
 42
0.000000001
 43
0.0000000001
 40
0.0
 40
0.0
 40
0.0
 40
0.0
 40
0.2558725668
 40
1.0
 40
1.0
 40
1.0
 40
1.0
 10
47.83552537690002
 20
47.43889750630001
 30
0.0
 10
47.8599258757
 20
47.43836725599999
 30
0.0
 10
47.95525932350005
 20
47.43511694839997
 30
0.0
 10
48.05043172650004
 20
47.42731942599999
 30
0.0
 10
48.12093056519995
 20
47.41908445339999
 30
0.0
  0
SPLINE
  5
92939
330
1F
100
AcDbEntity
  8
1
100
AcDbSpline
210
0.0
220
0.0
230
1.0
 70
     8
 71
     3
 72
     9
 73
     5
 74
     0
 42
0.000000001
 43
0.0000000001
 40
0.0
 40
0.0
 40
0.0
 40
0.0
 40
0.2536114462
 40
1.0
 40
1.0
 40
1.0
 40
1.0
 10
47.27450575980003
 20
47.30311394829993
 30
0.0
 10
47.31314645589997
 20
47.30570149599997
 30
0.0
 10
47.4656916079
 20
47.31296541929999
 30
0.0
 10
47.61877909280007
 20
47.30871083929996
 30
0.0
 10
47.73235029969996
 20
47.29911593299997
 30
0.0
  0
SPLINE
  5
9293A
330
1F
100
AcDbEntity
  8
1
100
AcDbSpline
210
0.0
220
0.0
230
1.0
 70
     8
 71
     3
 72
     9
 73
     5
 74
     0
 42
0.000000001
 43
0.0000000001
 40
0.0
 40
0.0
 40
0.0
 40
0.0
 40
0.24961736
 40
1.0
 40
1.0
 40
1.0
 40
1.0
 10
47.7461469735
 20
43.78924584099997
 30
0.0
 10
47.76082368620006
 20
43.7842216402
 30
0.0
 10
47.81987375649999
 20
43.76484159389996
 30
0.0
 10
47.87991170790006
 20
43.74847076389996
 30
0.0
 10
47.92533967460006
 20
43.7379351718
 30
0.0
  0
SPLINE
  5
9293B
330
1F
100
AcDbEntity
  8
1
100
AcDbSpline
210
0.0
220
0.0
230
1.0
 70
     8
 71
     3
 72
     8
 73
     4
 74
     0
 42
0.000000001
 43
0.0000000001
 40
0.0
 40
0.0
 40
0.0
 40
0.0
 40
1.0
 40
1.0
 40
1.0
 40
1.0
 10
47.88848092160002
 20
47.43748283329995
 30
0.0
 10
47.83578621449999
 20
47.39210591689999
 30
0.0
 10
47.7837179695
 20
47.34598979759993
 30
0.0
 10
47.73235029969996
 20
47.29911593299997
 30
0.0
  0
SPLINE
  5
9293C
330
1F
100
AcDbEntity
  8
1
100
AcDbSpline
210
0.0
220
0.0
230
1.0
 70
     8
 71
     3
 72
     9
 73
     5
 74
     0
 42
0.000000001
 43
0.0000000001
 40
0.0
 40
0.0
 40
0.0
 40
0.0
 40
0.5435318997000002
 40
1.0
 40
1.0
 40
1.0
 40
1.0
 10
51.70659732040006
 20
48.83342429159995
 30
0.0
 10
51.6949557767
 20
48.85474976069996
 30
0.0
 10
51.67477071740006
 20
48.89467730369995
 30
0.0
 10
51.65779380290008
 20
48.93610865259995
 30
0.0
 10
51.65113847400004
 20
48.95539707009999
 30
0.0
  0
SPLINE
  5
9293D
330
1F
100
AcDbEntity
  8
1
100
AcDbSpline
210
0.0
220
0.0
230
1.0
 70
     8
 71
     3
 72
     9
 73
     5
 74
     0
 42
0.000000001
 43
0.0000000001
 40
0.0
 40
0.0
 40
0.0
 40
0.0
 40
0.2474836919
 40
1.0
 40
1.0
 40
1.0
 40
1.0
 10
51.65113847400004
 20
48.95539707009999
 30
0.0
 10
51.62059660039995
 20
48.99782744469996
 30
0.0
 10
51.50149227560007
 20
49.17233605809997
 30
0.0
 10
51.40008632220008
 20
49.35889907219997
 30
0.0
 10
51.33477177270004
 20
49.5038258166
 30
0.0
  0
SPLINE
  5
9293E
330
1F
100
AcDbEntity
  8
1
100
AcDbSpline
210
0.0
220
0.0
230
1.0
 70
     8
 71
     3
 72
     8
 73
     4
 74
     0
 42
0.000000001
 43
0.0000000001
 40
0.0
 40
0.0
 40
0.0
 40
0.0
 40
1.0
 40
1.0
 40
1.0
 40
1.0
 10
37.44576409030003
 20
48.35966952689996
 30
0.0
 10
36.25321234830006
 20
47.87215086769998
 30
0.0
 10
35.06155865330004
 20
47.38242859999997
 30
0.0
 10
33.87089415909998
 20
46.89031869059994
 30
0.0
  0
SPLINE
  5
9293F
330
1F
100
AcDbEntity
  8
1
100
AcDbSpline
210
0.0
220
0.0
230
1.0
 70
     8
 71
     3
 72
     9
 73
     5
 74
     0
 42
0.000000001
 43
0.0000000001
 40
0.0
 40
0.0
 40
0.0
 40
0.0
 40
0.2531502161
 40
1.0
 40
1.0
 40
1.0
 40
1.0
 10
52.88782467010003
 20
49.99343837769997
 30
0.0
 10
52.89327162420001
 20
49.98133805489993
 30
0.0
 10
52.91493385789999
 20
49.9336048829
 30
0.0
 10
52.9372112579
 20
49.88614962409997
 30
0.0
 10
52.9542634477
 20
49.85090968269997
 30
0.0
  0
SPLINE
  5
92940
330
1F
100
AcDbEntity
  8
1
100
AcDbSpline
210
0.0
220
0.0
230
1.0
 70
     8
 71
     3
 72
    21
 73
    17
 74
     0
 42
0.000000001
 43
0.0000000001
 40
0.0
 40
0.0
 40
0.0
 40
0.0
 40
0.0034469282
 40
0.0073142684
 40
0.0124680946
 40
0.0193006626
 40
0.0385613762
 40
0.0656609148
 40
0.1007355419
 40
0.1438143611
 40
0.194874896
 40
0.2538691248
 40
0.3953577797999999
 40
0.567540684
 40
0.7694657345
 40
1.0
 40
1.0
 40
1.0
 40
1.0
 10
48.46138855180004
 20
49.91332906629997
 30
0.0
 10
48.46121425370006
 20
49.9138401327
 30
0.0
 10
48.46115317329998
 20
49.91506905519992
 30
0.0
 10
48.46226777830008
 20
49.91677177679996
 30
0.0
 10
48.46425832390004
 20
49.91828482759996
 30
0.0
 10
48.46864300779998
 20
49.92050008689996
 30
0.0
 10
48.47665476780004
 20
49.92292943379999
 30
0.0
 10
48.48913737780003
 20
49.92555454410001
 30
0.0
 10
48.50544631909997
 20
49.9280427887
 30
0.0
 10
48.52555079000001
 20
49.93040421279999
 30
0.0
 10
48.54943925370003
 20
49.93262108419997
 30
0.0
 10
48.58873549470001
 20
49.93556326789995
 30
0.0
 10
48.6470350943
 20
49.93871109059996
 30
0.0
 10
48.72774763369999
 20
49.9417871193
 30
0.0
 10
48.82243277560007
 20
49.9443707296
 30
0.0
 10
48.89016577740004
 20
49.94571760880001
 30
0.0
 10
48.92627412420004
 20
49.94634789989999
 30
0.0
  0
SPLINE
  5
92941
330
1F
100
AcDbEntity
  8
1
100
AcDbSpline
210
0.0
220
0.0
230
1.0
 70
     8
 71
     3
 72
     9
 73
     5
 74
     0
 42
0.000000001
 43
0.0000000001
 40
0.0
 40
0.0
 40
0.0
 40
0.0
 40
0.2516367534
 40
1.0
 40
1.0
 40
1.0
 40
1.0
 10
52.81008462630007
 20
49.99262865269992
 30
0.0
 10
52.80427536859995
 20
49.97056540559999
 30
0.0
 10
52.7806033388
 20
49.8830419875
 30
0.0
 10
52.75458323290002
 20
49.79615240839996
 30
0.0
 10
52.73376920249996
 20
49.73157161439996
 30
0.0
  0
SPLINE
  5
92942
330
1F
100
AcDbEntity
  8
1
100
AcDbSpline
210
0.0
220
0.0
230
1.0
 70
     8
 71
     3
 72
     9
 73
     5
 74
     0
 42
0.000000001
 43
0.0000000001
 40
0.0
 40
0.0
 40
0.0
 40
0.0
 40
0.5008459565
 40
1.0
 40
1.0
 40
1.0
 40
1.0
 10
37.44576409030003
 20
48.35966952689996
 30
0.0
 10
37.60064010810004
 20
48.42298329839997
 30
0.0
 10
37.92062613100006
 20
48.52458991059996
 30
0.0
 10
38.25300797920011
 20
48.5724067978
 30
0.0
 10
38.41946730100005
 20
48.58229043729999
 30
0.0
  0
SPLINE
  5
92943
330
1F
100
AcDbEntity
  8
1
100
AcDbSpline
210
0.0
220
0.0
230
1.0
 70
     8
 71
     3
 72
    11
 73
     7
 74
     0
 42
0.000000001
 43
0.0000000001
 40
0.0
 40
0.0
 40
0.0
 40
0.0
 40
0.1941200544
 40
0.4138086192000002
 40
0.6738997764
 40
1.0
 40
1.0
 40
1.0
 40
1.0
 10
60.41499080309995
 20
40.65241641719995
 30
0.0
 10
60.33233383410003
 20
40.57965477719995
 30
0.0
 10
60.14419658370003
 20
40.43759645589998
 30
0.0
 10
59.80573304690008
 20
40.25646154659997
 30
0.0
 10
59.37032850590004
 20
40.11016103399993
 30
0.0
 10
59.03875193839997
 20
40.06291245829996
 30
0.0
 10
58.85403913150003
 20
40.05279755129999
 30
0.0
  0
SPLINE
  5
92944
330
1F
100
AcDbEntity
  8
1
100
AcDbSpline
210
0.0
220
0.0
230
1.0
 70
     8
 71
     3
 72
    30
 73
    26
 74
     0
 42
0.000000001
 43
0.0000000001
 40
0.0
 40
0.0
 40
0.0
 40
0.0
 40
0.0203597987
 40
0.029691343
 40
0.0384826651
 40
0.0546057058
 40
0.0693317451
 40
0.0835802567
 40
0.0984145264
 40
0.114740434
 40
0.1331249886
 40
0.1538258275
 40
0.1768818257
 40
0.2021957877
 40
0.2296089209
 40
0.2589351816
 40
0.2899788044
 40
0.3564894876
 40
0.4278628031000001
 40
0.5030661495000001
 40
0.5812994437
 40
0.6619392849
 40
0.7444948317
 40
0.8285695020999998
 40
1.0
 40
1.0
 40
1.0
 40
1.0
 10
29.104244268
 20
43.21483494549997
 30
0.0
 10
29.06040345210011
 20
43.23060795199999
 30
0.0
 10
28.99750310470006
 20
43.25695040489995
 30
0.0
 10
28.92049508349998
 20
43.29985854599996
 30
0.0
 10
28.85543474949998
 20
43.34366059039999
 30
0.0
 10
28.78744551969999
 20
43.404874052
 30
0.0
 10
28.72963718840003
 20
43.49196037639996
 30
0.0
 10
28.70068877810002
 20
43.58954876859999
 30
0.0
 10
28.70147144910004
 20
43.6947689813
 30
0.0
 10
28.73021936769999
 20
43.80534545519997
 30
0.0
 10
28.7846243071001
 20
43.92048258899996
 30
0.0
 10
28.86285475730005
 20
44.03964288509996
 30
0.0
 10
28.96307056340004
 20
44.16215352979998
 30
0.0
 10
29.08332753410002
 20
44.28730614999998
 30
0.0
 10
29.2217068228
 20
44.41437313469996
 30
0.0
 10
29.37633108160003
 20
44.54272168889996
 30
0.0
 10
29.60716804540004
 20
44.71895372959997
 30
0.0
 10
29.92623832360005
 20
44.93764252159997
 30
0.0
 10
30.34125572599999
 20
45.19389497179996
 30
0.0
 10
30.78864029010003
 20
45.44808595349996
 30
0.0
 10
31.26186737750004
 20
45.69919822610001
 30
0.0
 10
31.75591671970006
 20
45.94660351210001
 30
0.0
 10
32.26684140960003
 20
46.1898935913
 30
0.0
 10
32.97095769819998
 20
46.51045520709999
 30
0.0
 10
33.50858456909998
 20
46.74057358269999
 30
0.0
 10
33.87114420019998
 20
46.8904219977
 30
0.0
  0
SPLINE
  5
92945
330
1F
100
AcDbEntity
  8
1
100
AcDbSpline
210
0.0
220
0.0
230
1.0
 70
     8
 71
     3
 72
     9
 73
     5
 74
     0
 42
0.000000001
 43
0.0000000001
 40
0.0
 40
0.0
 40
0.0
 40
0.0
 40
0.25463458
 40
1.0
 40
1.0
 40
1.0
 40
1.0
 10
46.75682795900002
 20
46.41043660739994
 30
0.0
 10
46.75124712030004
 20
46.41574811219992
 30
0.0
 10
46.72943303600002
 20
46.43671521619995
 30
0.0
 10
46.70803778560002
 20
46.45811915269995
 30
0.0
 10
46.69236255380008
 20
46.47433314419997
 30
0.0
  0
SPLINE
  5
92946
330
1F
100
AcDbEntity
  8
1
100
AcDbSpline
210
0.0
220
0.0
230
1.0
 70
     8
 71
     3
 72
     9
 73
     5
 74
     0
 42
0.000000001
 43
0.0000000001
 40
0.0
 40
0.0
 40
0.0
 40
0.0
 40
0.5258267556
 40
1.0
 40
1.0
 40
1.0
 40
1.0
 10
47.73235029969996
 20
47.29911593299997
 30
0.0
 10
47.66492814529999
 20
47.31709570959998
 30
0.0
 10
47.53454012100006
 20
47.34373302149998
 30
0.0
 10
47.40195765090002
 20
47.35462546249999
 30
0.0
 10
47.33905091799999
 20
47.35609197129997
 30
0.0
  0
SPLINE
  5
92947
330
1F
100
AcDbEntity
  8
1
100
AcDbSpline
210
0.0
220
0.0
230
1.0
 70
     8
 71
     3
 72
     9
 73
     5
 74
     0
 42
0.000000001
 43
0.0000000001
 40
0.0
 40
0.0
 40
0.0
 40
0.0
 40
0.5223694535
 40
1.0
 40
1.0
 40
1.0
 40
1.0
 10
47.23386792180007
 20
46.70321513689997
 30
0.0
 10
47.1759549479001
 20
46.73481696569996
 30
0.0
 10
47.06368167330004
 20
46.7927768138
 30
0.0
 10
46.94847182260001
 20
46.844739972
 30
0.0
 10
46.89264593860002
 20
46.86759651879997
 30
0.0
  0
SPLINE
  5
92948
330
1F
100
AcDbEntity
  8
1
100
AcDbSpline
210
0.0
220
0.0
230
1.0
 70
     8
 71
     3
 72
    11
 73
     7
 74
     0
 42
0.000000001
 43
0.0000000001
 40
0.0
 40
0.0
 40
0.0
 40
0.0
 40
0.2488782931
 40
0.4975385556000001
 40
0.7474361728
 40
1.0
 40
1.0
 40
1.0
 40
1.0
 10
48.89221299410007
 20
47.70554709209995
 30
0.0
 10
48.80889772190005
 20
47.72737839709998
 30
0.0
 10
48.6387889665
 20
47.75860136099999
 30
0.0
 10
48.37926311870001
 20
47.76622318770001
 30
0.0
 10
48.120343101
 20
47.73385931899997
 30
0.0
 10
47.95240717229999
 20
47.6857171305
 30
0.0
 10
47.87047240620006
 20
47.65528585419997
 30
0.0
  0
ELLIPSE
  5
92949
330
1F
100
AcDbEntity
  8
1
100
AcDbEllipse
 10
545.3983803728996
 20
-10.57576115770001
 30
0.0
 11
631.6591984838001
 21
-56.25745192450001
 31
0.0
210
0.0
220
0.0
230
1.0
 40
0.0255655989
 41
2.469585740899995
 42
2.504735463799998
  0
ELLIPSE
  5
9294A
330
1F
100
AcDbEntity
  8
1
100
AcDbEllipse
 10
426.5753564548997
 20
-0.0000000011000338
 30
0.0
 11
538.8451998063004
 21
-47.99232099990002
 31
0.0
210
0.0
220
0.0
230
1.0
 40
0.0260302981
 41
2.339537192599999
 42
2.341665627499998
  0
ELLIPSE
  5
9294B
330
1F
100
AcDbEntity
  8
1
100
AcDbEllipse
 10
58.79068809
 20
44.05532073449998
 30
0.0
 11
4.642181060000002
 21
2.219022486999997
 31
0.0
210
0.0
220
0.0
230
1.0
 40
0.7328447864000004
 41
4.328340564279581
 42
4.711980506079578
  0
ELLIPSE
  5
9294C
330
1F
100
AcDbEntity
  8
1
100
AcDbEllipse
 10
61.87442999220002
 20
0.0724729381999794
 30
0.0
 11
86.85895064270047
 21
3.588373897500016
 31
0.0
210
0.0
220
0.0
230
1.0
 40
0.5758869974000001
 41
1.668616797099998
 42
1.711216760299999
  0
ELLIPSE
  5
9294D
330
1F
100
AcDbEntity
  8
1
100
AcDbEllipse
 10
97.24176816750002
 20
0.3914806147999741
 30
0.0
 11
265.3030899897018
 21
4.454247708200028
 31
0.0
210
0.0
220
0.0
230
1.0
 40
0.1899078622999998
 41
1.755555285699998
 42
1.791182079599996
  0
ELLIPSE
  5
9294E
330
1F
100
AcDbEntity
  8
1
100
AcDbEllipse
 10
51.47698013550007
 20
47.12986860739994
 30
0.0
 11
2.2912788819
 21
-0.5145734649000009
 31
0.0
210
0.0
220
0.0
230
1.0
 40
0.0701871493
 41
3.236796615279763
 42
3.623128935079506
  0
ELLIPSE
  5
9294F
330
1F
100
AcDbEntity
  8
1
100
AcDbEllipse
 10
43.42832441720008
 20
42.45712823199999
 30
0.0
 11
14.16338226030001
 21
8.777059342800006
 31
0.0
210
0.0
220
0.0
230
1.0
 40
0.0916503009
 41
0.8957815453999808
 42
1.095624657200032
  0
DIMENSION
  5
92950
330
1F
100
AcDbEntity
  8
2
100
AcDbDimension
  2
*D2499
 10
63.50000000000012
 20
69.56566153280346
 30
0.0
 11
94.96666666666678
 21
73.61566153280346
 31
0.0
 70
    32
  1
<>(MAX)
 71
     5
 42
8.200000000000001
  3
コピー - ISO-25
100
AcDbAlignedDimension
 13
55.30000000000007
 23
50.79999999889998
 33
0.0
 14
63.50000000000012
 24
49.99999999890002
 34
0.0
 50
0.0
100
AcDbRotatedDimension
1001
ACAD
1000
DSTYLE
1002
{
1070
   170
1070
     1
1070
   171
1070
     3
1070
   143
1040
0.0393700787401575
1070
   285
1070
     4
1070
     4
1000
"
1070
   271
1070
     8
1070
    40
1040
1.0
1002
}
1001
ACAD_DSTYLE_DIMINSPECT
1070
   393
1070
     0
1070
   394
1070
     0
1070
   395
1000

1070
   396
1000

  0
LINE
  5
92951
330
1F
100
AcDbEntity
  8
sk3
100
AcDbLine
 10
29.00000000014677
 20
20.29999999890001
 30
0.0
 11
29.00000000014677
 21
-20.29999999889998
 31
0.0
  0
LINE
  5
92952
330
1F
100
AcDbEntity
  8
sk3
100
AcDbLine
 10
35.99999999995066
 20
20.29999999890001
 30
0.0
 11
35.99999999995066
 21
-20.29999999890001
 31
0.0
  0
LINE
  5
92953
330
1F
100
AcDbEntity
  8
sk3
100
AcDbLine
 10
39.1095350348494
 20
-18.84999999889999
 30
0.0
 11
39.1095350348494
 21
18.84999999889999
 31
0.0
  0
LINE
  5
92954
330
1F
100
AcDbEntity
  8
cut
100
AcDbLine
 10
47.74605423640003
 20
47.24684923279999
 30
0.0
 11
47.76726014660003
 21
47.25903691690001
 31
0.0
  0
LINE
  5
92955
330
1F
100
AcDbEntity
  8
cut
100
AcDbLine
 10
47.76726014630003
 20
47.25903691670004
 30
0.0
 11
47.99837786890008
 21
47.3863620047
 31
0.0
  0
LINE
  5
92956
330
1F
100
AcDbEntity
  8
cut
100
AcDbLine
 10
54.09361746630009
 20
50.54292201089999
 30
0.0
 11
54.12066551810004
 21
50.55772170359995
 31
0.0
  0
LINE
  5
92957
330
1F
100
AcDbEntity
  8
cut
100
AcDbLine
 10
53.90639320080004
 20
50.4400960981
 30
0.0
 11
54.09361746630009
 21
50.54292201089999
 31
0.0
  0
LINE
  5
92958
330
1F
100
AcDbEntity
  8
cut
100
AcDbLine
 10
47.99837786890008
 20
47.3863620047
 30
0.0
 11
48.23349737720002
 21
47.51495291549997
 31
0.0
  0
LINE
  5
92959
330
1F
100
AcDbEntity
  8
cut
100
AcDbLine
 10
48.23349737720002
 20
47.51495291549997
 30
0.0
 11
48.47261996489999
 21
47.64480482480002
 31
0.0
  0
LINE
  5
9295A
330
1F
100
AcDbEntity
  8
cut
100
AcDbLine
 10
53.82561092270009
 20
50.39631226889998
 30
0.0
 11
53.90639320080004
 21
50.4400960981
 31
0.0
  0
LINE
  5
9295B
330
1F
100
AcDbEntity
  8
cut
100
AcDbLine
 10
48.47261996489999
 20
47.64480482480002
 30
0.0
 11
48.71575080700006
 21
47.77589843649995
 31
0.0
  0
LINE
  5
9295C
330
1F
100
AcDbEntity
  8
cut
100
AcDbLine
 10
53.71616711700005
 20
50.33775407979994
 30
0.0
 11
53.82561092270009
 21
50.39631226889998
 31
0.0
  0
LWPOLYLINE
  5
9295D
330
1F
100
AcDbEntity
  8
cut
100
AcDbPolyline
 90
        6
 70
     0
 43
0.0
 10
48.71575080700006
 20
47.77589843649995
 10
48.84603181670001
 20
47.84575258559999
 10
48.85327420170006
 20
47.84956499889999
 10
48.86054615499995
 20
47.85334932669996
 10
48.8678476765
 20
47.85710556909998
 10
48.87517876630011
 20
47.86083372590002
  0
LINE
  5
9295E
330
1F
100
AcDbEntity
  8
cut
100
AcDbLine
 10
53.60635700570004
 20
50.27939262369994
 30
0.0
 11
53.71616711700005
 21
50.33775407979994
 31
0.0
  0
LINE
  5
9295F
330
1F
100
AcDbEntity
  8
cut
100
AcDbLine
 10
53.18080214029999
 20
50.05290674940004
 30
0.0
 11
53.60635700570004
 21
50.27939262369994
 31
0.0
  0
LINE
  5
92960
330
1F
100
AcDbEntity
  8
cut
100
AcDbLine
 10
52.79083482220006
 20
49.84841376490003
 30
0.0
 11
53.18080214029999
 21
50.05290674940004
 31
0.0
  0
LINE
  5
92961
330
1F
100
AcDbEntity
  8
cut
100
AcDbLine
 10
52.47631955090003
 20
49.68578189010003
 30
0.0
 11
52.79083482220006
 21
49.84841376490003
 31
0.0
  0
LINE
  5
92962
330
1F
100
AcDbEntity
  8
cut
100
AcDbLine
 10
51.5398786119
 20
49.20597001300001
 30
0.0
 11
52.47631955090003
 21
49.68578189010003
 31
0.0
  0
LINE
  5
92963
330
1F
100
AcDbEntity
  8
cut
100
AcDbLine
 10
50.60812789450007
 20
48.73238328639996
 30
0.0
 11
51.5398786119
 21
49.20597001300001
 31
0.0
  0
LINE
  5
92964
330
1F
100
AcDbEntity
  8
cut
100
AcDbLine
 10
49.47697465919997
 20
48.16221847979996
 30
0.0
 11
50.60812789450007
 21
48.73238328639996
 31
0.0
  0
LINE
  5
92965
330
1F
100
AcDbEntity
  8
cut
100
AcDbLine
 10
48.87517876630011
 20
47.86083372590002
 30
0.0
 11
49.47697465919997
 21
48.16221847979996
 31
0.0
  0
LINE
  5
92966
330
1F
100
AcDbEntity
  8
cut
100
AcDbLine
 10
47.72532060469997
 20
47.23401948510002
 30
0.0
 11
47.74775074980004
 21
47.24786493439999
 31
0.0
  0
LWPOLYLINE
  5
92967
330
1F
100
AcDbEntity
  8
cut
100
AcDbPolyline
 90
       10
 70
     0
 43
0.0
 10
47.56104393740009
 20
47.09050343659998
 10
47.5778930491
 20
47.10965120959997
 10
47.59426257660003
 20
47.12702598970003
 10
47.61127489030002
 20
47.1439471425
 10
47.62890831590005
 20
47.16039050339997
 10
47.64710886380011
 20
47.17627985839999
 10
47.66589015200007
 20
47.19161915540001
 10
47.6852385625001
 20
47.20640444639996
 10
47.70505925160001
 20
47.22054767380001
 10
47.72532060469997
 20
47.23401948510002
  0
LWPOLYLINE
  5
92968
330
1F
100
AcDbEntity
  8
cut
100
AcDbPolyline
 90
       10
 70
     0
 43
0.0
 10
47.57563644900003
 20
47.10715861060005
 10
47.59072453710007
 20
47.123364422
 10
47.60631183640009
 20
47.13912629889995
 10
47.62239956860002
 20
47.15444606609998
 10
47.63897930359997
 20
47.16931113369997
 10
47.65604019859995
 20
47.18370530839997
 10
47.67356745280006
 20
47.19761058369994
 10
47.69153043409994
 20
47.21100169970003
 10
47.70989455260006
 20
47.22385158360004
 10
47.72863308210003
 20
47.23613885859998
  0
LINE
  5
92969
330
1F
100
AcDbEntity
  8
cut
100
AcDbLine
 10
47.51853388589995
 20
47.03537725229995
 30
0.0
 11
47.53336857899999
 21
47.05586842069999
 31
0.0
  0
LINE
  5
9296A
330
1F
100
AcDbEntity
  8
cut
100
AcDbLine
 10
47.53246505200002
 20
47.05466165909996
 30
0.0
 11
47.54700629690012
 21
47.07347199470001
 31
0.0
  0
LINE
  5
9296B
330
1F
100
AcDbEntity
  8
cut
100
AcDbLine
 10
47.54694805190013
 20
47.0733991135
 30
0.0
 11
47.56214463360003
 21
47.09179863780002
 31
0.0
  0
LWPOLYLINE
  5
9296C
330
1F
100
AcDbEntity
  8
cut
100
AcDbPolyline
 90
       11
 70
     0
 43
0.0
 10
47.42219566560004
 20
46.84107161850005
 10
47.42929508300004
 20
46.86204396780005
 10
47.4370211401
 20
46.88277329399999
 10
47.44536029760014
 20
46.9032339322
 10
47.45429797940004
 20
46.92340061279998
 10
47.46382300360003
 20
46.94325408679996
 10
47.47393776570003
 20
46.96279918680001
 10
47.48464805540002
 20
46.98204676589995
 10
47.49595669970005
 20
47.00100126479997
 10
47.50785467370007
 20
47.01964147580002
 10
47.5203299896001
 20
47.0379397789
  0
LWPOLYLINE
  5
9296D
330
1F
100
AcDbEntity
  8
cut
100
AcDbPolyline
 90
       37
 70
     0
 43
0.0
 10
59.05500934360009
 20
35.115153459
 10
59.0342703084001
 20
35.10119245479998
 10
59.01309587940011
 20
35.08787418490002
 10
58.9914860568
 20
35.07519864940003
 10
58.96940123870002
 20
35.0631442193
 10
58.94688102700001
 20
35.05173252360001
 10
58.92404422640004
 20
35.0410284491
 10
58.90089736829998
 20
35.0310429525
 10
58.87743392139999
 20
35.0217650772
 10
58.85375309630001
 20
35.01322683979998
 10
58.82988311290011
 20
35.005438554
 10
58.80579575119998
 20
34.99838990600004
 10
58.78150556280012
 20
34.99208197159999
 10
58.75699968030005
 20
34.9865088199
 10
58.73229097100001
 20
34.98167638179999
 10
58.70743258790003
 20
34.97760352540002
 10
58.6824088646
 20
34.9742905199
 10
58.65723546750007
 20
34.97173709609999
 10
58.63201254950002
 20
34.96996131350002
 10
58.60673953550008
 20
34.96896983260001
 10
58.58141700060002
 20
34.96875599290002
 10
58.55614682340001
 20
34.96931787350002
 10
58.53094501340001
 20
34.9706586996
 10
58.50579556119999
 20
34.97277524589998
 10
58.48075231690007
 20
34.97565591590002
 10
58.45582814730004
 20
34.97929739520001
 10
58.43101018570007
 20
34.9837029981
 10
58.4063136819001
 20
34.9888710704
 10
58.38170988860008
 20
34.99480826369998
 10
58.35722755319999
 20
35.00150792650001
 10
58.3329681670001
 20
35.0089484497
 10
58.3089235952001
 20
35.01713835549998
 10
58.28510197270009
 20
35.0260691217
 10
58.26162919609997
 20
35.03569357310002
 10
58.23854723069995
 20
35.04599598459999
 10
58.21581411120007
 20
35.0569920813
 10
58.1934298376001
 20
35.06868186310001
  0
LINE
  5
9296E
330
1F
100
AcDbEntity
  8
cut
100
AcDbLine
 10
47.3994761819
 20
46.75130715250001
 30
0.0
 11
47.40474561320001
 21
46.77696839440004
 31
0.0
  0
LINE
  5
9296F
330
1F
100
AcDbEntity
  8
cut
100
AcDbLine
 10
47.40426236270002
 20
46.77478852129996
 30
0.0
 11
47.40991327460005
 21
46.79850723869998
 31
0.0
  0
LINE
  5
92970
330
1F
100
AcDbEntity
  8
cut
100
AcDbLine
 10
47.40981023350002
 20
46.7980931692
 30
0.0
 11
47.41609944590003
 21
46.82115159510003
 31
0.0
  0
LWPOLYLINE
  5
92971
330
1F
100
AcDbEntity
  8
cut
100
AcDbPolyline
 90
       11
 70
     0
 43
0.0
 10
47.41573227829997
 20
46.81988349429996
 10
47.42312858680008
 20
46.84395304449997
 10
47.43089906920011
 20
46.8665082718
 10
47.43939478490005
 20
46.88878003910002
 10
47.4486224397
 20
46.91078305039996
 10
47.45857532759996
 20
46.93250260170002
 10
47.46921722290005
 20
46.95385734320001
 10
47.48055305030003
 20
46.97484571720003
 10
47.49257788500004
 20
46.99546928130001
 10
47.50524072710002
 20
47.0156513589
 10
47.51853388589995
 20
47.03537725229995
  0
LWPOLYLINE
  5
92972
330
1F
100
AcDbEntity
  8
cut
100
AcDbPolyline
 90
        8
 70
     0
 43
0.0
 10
47.38688226370004
 20
46.61465617389995
 10
47.38692022930002
 20
46.62223083669997
 10
47.38748246560009
 20
46.64477645380002
 10
47.38871293780003
 20
46.66720405040002
 10
47.39060650210001
 20
46.68945285549995
 10
47.39315945129999
 20
46.71153230650003
 10
47.39636843730011
 20
46.733469393
 10
47.40023067280003
 20
46.75528409999998
  0
LWPOLYLINE
  5
92973
330
1F
100
AcDbEntity
  8
cut
100
AcDbPolyline
 90
        7
 70
     0
 43
0.0
 10
47.38688253840005
 20
46.61465617380001
 10
47.3870590483001
 20
46.63070646609996
 10
47.3879951358
 20
46.65542616939999
 10
47.38970812800005
 20
46.67987222179999
 10
47.39219231289996
 20
46.70392520629997
 10
47.39545340239998
 20
46.7277045399
 10
47.3994761819
 20
46.75130715250001
  0
LWPOLYLINE
  5
92974
330
1F
100
AcDbEntity
  8
cut
100
AcDbPolyline
 90
        5
 70
     0
 43
0.0
 10
47.39143960319995
 20
46.53196567190002
 10
47.38912788549997
 20
46.55664758899995
 10
47.38762542310007
 20
46.58131717580004
 10
47.38693221620006
 20
46.60597443260002
 10
47.38688253840005
 20
46.61465617380001
  0
LINE
  5
92975
330
1F
100
AcDbEntity
  8
cut
100
AcDbLine
 10
63.03553268460007
 20
41.3850603163
 30
0.0
 11
62.83310007170006
 21
41.04810187499999
 31
0.0
  0
LINE
  5
92976
330
1F
100
AcDbEntity
  8
cut
100
AcDbLine
 10
62.8331000718
 20
41.04810187519999
 30
0.0
 11
62.6535019639
 21
40.75017109539999
 31
0.0
  0
LINE
  5
92977
330
1F
100
AcDbEntity
  8
cut
100
AcDbLine
 10
62.6535019639
 20
40.75017109539999
 30
0.0
 11
62.46732437060007
 21
40.44233195219999
 31
0.0
  0
LINE
  5
92978
330
1F
100
AcDbEntity
  8
cut
100
AcDbLine
 10
62.46732437060007
 20
40.44233195219999
 30
0.0
 11
62.27455748120006
 21
40.12458927109999
 31
0.0
  0
LINE
  5
92979
330
1F
100
AcDbEntity
  8
cut
100
AcDbLine
 10
62.27455748120006
 20
40.12458927109999
 30
0.0
 11
62.07516205319996
 21
39.79696235490003
 31
0.0
  0
LINE
  5
9297A
330
1F
100
AcDbEntity
  8
cut
100
AcDbLine
 10
62.07516205319996
 20
39.79696235490003
 30
0.0
 11
61.80718624730002
 21
39.35820566119998
 31
0.0
  0
LINE
  5
9297B
330
1F
100
AcDbEntity
  8
cut
100
AcDbLine
 10
61.80718624730002
 20
39.35820566119998
 30
0.0
 11
61.55775633180008
 21
38.95138591630001
 31
0.0
  0
LINE
  5
9297C
330
1F
100
AcDbEntity
  8
cut
100
AcDbLine
 10
61.55775633180008
 20
38.95138591630001
 30
0.0
 11
61.30762642139996
 21
38.5448737152
 31
0.0
  0
LINE
  5
9297D
330
1F
100
AcDbEntity
  8
cut
100
AcDbLine
 10
61.30762642139996
 20
38.5448737152
 30
0.0
 11
61.0570757424001
 21
38.13907437209997
 31
0.0
  0
LINE
  5
9297E
330
1F
100
AcDbEntity
  8
cut
100
AcDbLine
 10
61.0570757424001
 20
38.13907437209997
 30
0.0
 11
60.80632949330004
 21
37.73430725530003
 31
0.0
  0
LINE
  5
9297F
330
1F
100
AcDbEntity
  8
cut
100
AcDbLine
 10
60.80632949330004
 20
37.73430725530003
 30
0.0
 11
60.55533552400003
 21
37.3304462168
 31
0.0
  0
LINE
  5
92980
330
1F
100
AcDbEntity
  8
cut
100
AcDbLine
 10
60.55533552400003
 20
37.3304462168
 30
0.0
 11
60.30386363970013
 21
36.92708900310001
 31
0.0
  0
LINE
  5
92981
330
1F
100
AcDbEntity
  8
cut
100
AcDbLine
 10
60.30386363970013
 20
36.92708900310001
 30
0.0
 11
60.05164366790006
 21
36.52377906629999
 31
0.0
  0
LWPOLYLINE
  5
92982
330
1F
100
AcDbEntity
  8
cut
100
AcDbPolyline
 90
        6
 70
     0
 43
0.0
 10
60.05164366790006
 20
36.52377906629999
 10
59.9630938545
 20
36.3825119607
 10
59.9587605718001
 20
36.37570780429999
 10
59.95438679910001
 20
36.36891116940001
 10
59.94997253650002
 20
36.36212205609999
 10
59.94551778400012
 20
36.35534046440003
  0
LINE
  5
92983
330
1F
100
AcDbEntity
  8
cut
100
AcDbLine
 10
59.55500889079996
 20
35.7683868627
 30
0.0
 11
59.26456933979999
 21
35.32936749449999
 31
0.0
  0
LINE
  5
92984
330
1F
100
AcDbEntity
  8
cut
100
AcDbLine
 10
59.94551778400012
 20
36.35534046440003
 30
0.0
 11
59.55500889079996
 21
35.7683868627
 31
0.0
  0
LWPOLYLINE
  5
92985
330
1F
100
AcDbEntity
  8
cut
100
AcDbPolyline
 90
       16
 70
     0
 43
0.0
 10
59.26456934019995
 20
35.32936749499999
 10
59.25345154679996
 20
35.31296747299999
 10
59.24189915620003
 20
35.29683528709997
 10
59.22991216839999
 20
35.28097093720001
 10
59.21747650750001
 20
35.26535636220001
 10
59.20460624940004
 20
35.2500096232
 10
59.19134362140005
 20
35.23498490400001
 10
59.17770091850013
 20
35.22029660850001
 10
59.16366584570003
 20
35.20593033290001
 10
59.14924374470001
 20
35.19189704920001
 10
59.13442102160002
 20
35.178184069
 10
59.11921127020002
 20
35.16480408069998
 10
59.10366061430011
 20
35.15180612180002
 10
59.08778442830009
 20
35.139206538
 10
59.07156733790009
 20
35.1269889836
 10
59.0550093429
 20
35.1151534585
  0
LINE
  5
92986
330
1F
100
AcDbEntity
  8
cut
100
AcDbLine
 10
57.18957267780012
 20
35.59312240240001
 30
0.0
 11
57.04338744680001
 21
35.66642127310001
 31
0.0
  0
LWPOLYLINE
  5
92987
330
1F
100
AcDbEntity
  8
cut
100
AcDbPolyline
 90
        4
 70
     0
 43
0.0
 10
57.57435806010005
 20
35.3966675925
 10
57.4472136472001
 20
35.46220160299998
 10
57.31895099700011
 20
35.5276832804
 10
57.18957267780012
 20
35.59312240240001
  0
LINE
  5
92988
330
1F
100
AcDbEntity
  8
cut
100
AcDbLine
 10
57.04338744680001
 20
35.66642127310001
 30
0.0
 11
57.02789709600006
 21
35.67437798310002
 31
0.0
  0
LINE
  5
92989
330
1F
100
AcDbEntity
  8
cut
100
AcDbLine
 10
57.8253075832
 20
35.2655012374
 30
0.0
 11
57.57435806010005
 21
35.3966675925
 31
0.0
  0
LINE
  5
9298A
330
1F
100
AcDbEntity
  8
cut
100
AcDbLine
 10
57.02789709600006
 20
35.67437798310002
 30
0.0
 11
57.01260763770005
 21
35.68238909869999
 31
0.0
  0
LINE
  5
9298B
330
1F
100
AcDbEntity
  8
cut
100
AcDbLine
 10
56.29967655020004
 20
36.05932762839998
 30
0.0
 11
53.28795167639999
 21
37.64740623479998
 31
0.0
  0
LINE
  5
9298C
330
1F
100
AcDbEntity
  8
cut
100
AcDbLine
 10
56.47895687870004
 20
35.96458775150001
 30
0.0
 11
56.29967655020004
 21
36.05932762839998
 31
0.0
  0
LINE
  5
9298D
330
1F
100
AcDbEntity
  8
cut
100
AcDbLine
 10
53.28795167639999
 20
37.64740623479998
 30
0.0
 11
53.09373751379997
 21
37.7497807494
 31
0.0
  0
LWPOLYLINE
  5
9298E
330
1F
100
AcDbEntity
  8
cut
100
AcDbPolyline
 90
        3
 70
     0
 43
0.0
 10
56.7465687568
 20
35.8231110474
 10
56.65753947640006
 20
35.8701859027
 10
56.47895687870004
 20
35.96458775150001
  0
LWPOLYLINE
  5
9298F
330
1F
100
AcDbEntity
  8
cut
100
AcDbPolyline
 90
        3
 70
     0
 43
0.0
 10
57.01260763760013
 20
35.68238909869999
 10
56.92410278810007
 20
35.72921255330002
 10
56.7465687568
 20
35.8231110474
  0
LINE
  5
92990
330
1F
100
AcDbEntity
  8
cut
100
AcDbLine
 10
53.09373751379997
 20
37.7497807494
 30
0.0
 11
52.96443792650006
 21
37.8186233902
 31
0.0
  0
LWPOLYLINE
  5
92991
330
1F
100
AcDbEntity
  8
cut
100
AcDbPolyline
 90
        4
 70
     0
 43
0.0
 10
58.19342983830007
 20
35.06868186270001
 10
58.07183038449998
 20
35.13430154420002
 10
57.94912296610004
 20
35.19990800240001
 10
57.8253075832
 20
35.2655012374
  0
LINE
  5
92992
330
1F
100
AcDbEntity
  8
cut
100
AcDbLine
 10
52.96443792650006
 20
37.8186233902
 30
0.0
 11
52.83432461170002
 21
37.88873167810002
 31
0.0
  0
LINE
  5
92993
330
1F
100
AcDbEntity
  8
cut
100
AcDbLine
 10
52.83432461170002
 20
37.88873167810002
 30
0.0
 11
52.70399334010004
 21
37.95982594720002
 31
0.0
  0
LINE
  5
92994
330
1F
100
AcDbEntity
  8
cut
100
AcDbLine
 10
52.70399334010004
 20
37.95982594720002
 30
0.0
 11
52.57567754110003
 21
38.03060193389999
 31
0.0
  0
LINE
  5
92995
330
1F
100
AcDbEntity
  8
cut
100
AcDbLine
 10
52.57567754110003
 20
38.03060193389999
 30
0.0
 11
52.45420761070011
 21
38.09830073679999
 31
0.0
  0
LINE
  5
92996
330
1F
100
AcDbEntity
  8
cut
100
AcDbLine
 10
52.45420761070011
 20
38.09830073679999
 30
0.0
 11
52.28993913429996
 21
38.1909796667
 31
0.0
  0
LINE
  5
92997
330
1F
100
AcDbEntity
  8
cut
100
AcDbLine
 10
52.28993913429996
 20
38.1909796667
 30
0.0
 11
52.14876708530003
 21
38.2716177284
 31
0.0
  0
LINE
  5
92998
330
1F
100
AcDbEntity
  8
cut
100
AcDbLine
 10
52.14876708530003
 20
38.2716177284
 30
0.0
 11
52.02251163369999
 21
38.34449774019999
 31
0.0
  0
LINE
  5
92999
330
1F
100
AcDbEntity
  8
cut
100
AcDbLine
 10
52.02251163369999
 20
38.34449774019999
 30
0.0
 11
51.90249895330009
 21
38.41444748409998
 31
0.0
  0
LINE
  5
9299A
330
1F
100
AcDbEntity
  8
cut
100
AcDbLine
 10
51.90249895330009
 20
38.41444748409998
 30
0.0
 11
51.78243577039996
 21
38.4850803015
 31
0.0
  0
LINE
  5
9299B
330
1F
100
AcDbEntity
  8
cut
100
AcDbLine
 10
51.78243577039996
 20
38.4850803015
 30
0.0
 11
51.66161033760011
 21
38.55682080080001
 31
0.0
  0
LINE
  5
9299C
330
1F
100
AcDbEntity
  8
cut
100
AcDbLine
 10
51.66161033760011
 20
38.55682080080001
 30
0.0
 11
51.54124600220007
 21
38.62894388659999
 31
0.0
  0
LINE
  5
9299D
330
1F
100
AcDbEntity
  8
cut
100
AcDbLine
 10
51.54124600220007
 20
38.62894388659999
 30
0.0
 11
51.46170111050003
 21
38.6769693251
 31
0.0
  0
LWPOLYLINE
  5
9299E
330
1F
100
AcDbEntity
  8
cut
100
AcDbPolyline
 90
       37
 70
     0
 43
0.0
 10
51.4617011207
 20
38.67696931899999
 10
51.44146065360008
 20
38.68947563010002
 10
51.4215965571001
 20
38.70217294
 10
51.40210883120005
 20
38.71506124869998
 10
51.38301363080007
 20
38.7281403298
 10
51.36429480089997
 20
38.7414104097
 10
51.34590387650007
 20
38.75487216740001
 10
51.32783557300001
 20
38.7685229848
 10
51.31009517480004
 20
38.78236548010003
 10
51.2926500699001
 20
38.79640818670001
 10
51.27549676020009
 20
38.8106464786
 10
51.25863874380002
 20
38.8250849818
 10
51.24205390229995
 20
38.8397461077
 10
51.22573610539996
 20
38.85463138270001
 10
51.20969148360007
 20
38.86973928049997
 10
51.19391630999996
 20
38.88508763299999
 10
51.17840697420014
 20
38.9006805692
 10
51.16316708680006
 20
38.91651396010002
 10
51.14820375260014
 20
38.9325932518
 10
51.13351485830002
 20
38.94892538790001
 10
51.11910251730001
 20
38.96550342479998
 10
51.10498017420002
 20
38.9823119772
 10
51.09114808569994
 20
38.99935551830001
 10
51.07760599510005
 20
39.01662957500001
 10
51.06436657670006
 20
39.03410534260002
 10
51.05143525220011
 20
39.0517782229
 10
51.03880659990011
 20
39.06965281409997
 10
51.02647702900004
 20
39.08771410690003
 10
51.01444666120007
 20
39.10596076510001
 10
51.00271537469996
 20
39.12439412490002
 10
50.99127921390004
 20
39.143003185
 10
50.98013714680007
 20
39.16178674330001
 10
50.96929020530012
 20
39.18074600200001
 10
50.95873752890009
 20
39.1998735661
 10
50.94847883090006
 20
39.21916697090001
 10
50.93851439790011
 20
39.23862868110001
 10
50.92884423010001
 20
39.25825869690001
  0
LWPOLYLINE
  5
9299F
330
1F
100
AcDbEntity
  8
cut
100
AcDbPolyline
 90
       16
 70
     0
 43
0.0
 10
47.47894974050007
 20
46.24942999249998
 10
47.46968790250003
 20
46.26748287349999
 10
47.46090879719996
 20
46.28568999459997
 10
47.45261242479999
 20
46.30405135550001
 10
47.44479391900006
 20
46.32258855649996
 10
47.43745814600003
 20
46.34127999749995
 10
47.43061970420001
 20
46.36006087790002
 10
47.42428506730004
 20
46.37891401749999
 10
47.41844776150003
 20
46.39785659659998
 10
47.41310296359993
 20
46.4168753546
 10
47.4082463843
 20
46.43598792580003
 10
47.4038823129
 20
46.455176676
 10
47.40001879450003
 20
46.47437544209998
 10
47.39665851090001
 20
46.49356216999996
 10
47.39379878040007
 20
46.51275891380004
 10
47.39143960300009
 20
46.53196567359997
  0
LINE
  5
929A0
330
1F
100
AcDbEntity
  8
cut
100
AcDbLine
 10
48.45864996810007
 20
44.2944232593
 30
0.0
 11
48.07713817380011
 21
45.0540730523
 31
0.0
  0
LINE
  5
929A1
330
1F
100
AcDbEntity
  8
cut
100
AcDbLine
 10
48.83671850589998
 20
43.53739916269996
 30
0.0
 11
48.45864996810007
 21
44.2944232593
 31
0.0
  0
LINE
  5
929A2
330
1F
100
AcDbEntity
  8
cut
100
AcDbLine
 10
48.07713817380011
 20
45.0540730523
 30
0.0
 11
48.06933030779998
 21
45.0697390327
 31
0.0
  0
LINE
  5
929A3
330
1F
100
AcDbEntity
  8
cut
100
AcDbLine
 10
49.14176988259999
 20
42.92322289180001
 30
0.0
 11
48.83671850589998
 21
43.53739916269996
 31
0.0
  0
LINE
  5
929A4
330
1F
100
AcDbEntity
  8
cut
100
AcDbLine
 10
49.45351768860007
 20
42.29239027790001
 30
0.0
 11
49.14176988259999
 21
42.92322289180001
 31
0.0
  0
LINE
  5
929A5
330
1F
100
AcDbEntity
  8
cut
100
AcDbLine
 10
49.77580463059997
 20
41.63676434129999
 30
0.0
 11
49.45351768860007
 21
42.29239027790001
 31
0.0
  0
LINE
  5
929A6
330
1F
100
AcDbEntity
  8
cut
100
AcDbLine
 10
48.06933030779998
 20
45.0697390327
 30
0.0
 11
48.06153433420002
 21
45.08570690610002
 31
0.0
  0
LINE
  5
929A7
330
1F
100
AcDbEntity
  8
cut
100
AcDbLine
 10
50.40835753149996
 20
40.33869950990001
 30
0.0
 11
49.77580463059997
 21
41.63676434129999
 31
0.0
  0
LWPOLYLINE
  5
929A8
330
1F
100
AcDbEntity
  8
cut
100
AcDbPolyline
 90
        9
 70
     0
 43
0.0
 10
47.99408594800013
 20
45.22723441229999
 10
47.93338078359999
 20
45.35305938200003
 10
47.87163476010005
 20
45.47945158110002
 10
47.80886087179999
 20
45.60642162409997
 10
47.74504612450003
 20
45.73395889639999
 10
47.68015153580006
 20
45.86203155409998
 10
47.61416411150003
 20
45.99062898250003
 10
47.54709684589999
 20
46.1197617963
 10
47.47894973890004
 20
46.24942999549995
  0
LINE
  5
929A9
330
1F
100
AcDbEntity
  8
cut
100
AcDbLine
 10
50.7408912085001
 20
39.64979540869999
 30
0.0
 11
50.40835753149996
 21
40.33869950990001
 31
0.0
  0
LINE
  5
929AA
330
1F
100
AcDbEntity
  8
cut
100
AcDbLine
 10
50.92884427160004
 20
39.258258611
 30
0.0
 11
50.7408912075001
 21
39.64979541090001
 31
0.0
  0
LINE
  5
929AB
330
1F
100
AcDbEntity
  8
cut
100
AcDbLine
 10
48.06153433420002
 20
45.08570690610002
 30
0.0
 11
47.99408594800013
 21
45.22723441229999
 31
0.0
  0
LINE
  5
929AC
330
1F
100
AcDbEntity
  8
cut
100
AcDbLine
 10
55.07482190410008
 20
50.79999999889998
 30
0.0
 11
62.70000000000004
 21
50.79999999889998
 31
0.0
  0
LINE
  5
929AD
330
1F
100
AcDbEntity
  8
cut
100
AcDbLine
 10
63.49171259540003
 20
48.62742310690005
 30
0.0
 11
63.50000000000012
 21
49.99999999890002
 31
0.0
  0
LINE
  5
929AE
330
1F
100
AcDbEntity
  8
cut
100
AcDbLine
 10
63.49171259540003
 20
48.62742310690005
 30
0.0
 11
63.49156848540006
 21
48.6185132571
 31
0.0
  0
LINE
  5
929AF
330
1F
100
AcDbEntity
  8
cut
100
AcDbLine
 10
63.24617919470006
 20
42.4290658535
 30
0.0
 11
63.24070554170011
 21
42.11927917469999
 31
0.0
  0
LINE
  5
929B0
330
1F
100
AcDbEntity
  8
cut
100
AcDbLine
 10
63.25304341280014
 20
42.73671024459996
 30
0.0
 11
63.24617919470006
 21
42.4290658535
 31
0.0
  0
LINE
  5
929B1
330
1F
100
AcDbEntity
  8
cut
100
AcDbLine
 10
63.49156848540006
 20
48.6185132571
 30
0.0
 11
63.49116260829998
 21
48.60064557970003
 31
0.0
  0
LWPOLYLINE
  5
929B2
330
1F
100
AcDbEntity
  8
cut
100
AcDbPolyline
 90
       25
 70
     0
 43
0.0
 10
63.24070554180003
 20
42.11927918319998
 10
63.23980988110008
 20
42.0858807413
 10
63.23821817290002
 20
42.05275564929999
 10
63.23593041700007
 20
42.01990390709997
 10
63.23293666050005
 20
41.98733332719998
 10
63.22924685650002
 20
41.95503609720001
 10
63.2248908639
 20
41.9229887792
 10
63.21987088030003
 20
41.89119790979996
 10
63.21418470800006
 20
41.85965695239999
 10
63.20785561380001
 20
41.82832285949999
 10
63.20088941560005
 20
41.797186409
 10
63.1932802954001
 20
41.7662568231
 10
63.18503406520004
 20
41.7355187213
 10
63.17615755520012
 20
41.7049600349
 10
63.16664393530004
 20
41.67459283280002
 10
63.15647852650011
 20
41.6444379406
 10
63.14565816319998
 20
41.61448001139999
 10
63.134186011
 20
41.58473439209998
 10
63.12205688910001
 20
41.5552679499
 10
63.10926695
 20
41.5260809528
 10
63.09582004109994
 20
41.4971731328
 10
63.08172252350004
 20
41.468610552
 10
63.06697651750003
 20
41.44041523109999
 10
63.05157990270004
 20
41.4125651495
 10
63.0355326791
 20
41.38506030720001
  0
LINE
  5
929B3
330
1F
100
AcDbEntity
  8
cut
100
AcDbLine
 10
63.26127022930005
 20
43.04258319549997
 30
0.0
 11
63.25304341280014
 21
42.73671024459996
 31
0.0
  0
LINE
  5
929B4
330
1F
100
AcDbEntity
  8
cut
100
AcDbLine
 10
63.27074317340009
 20
43.34433656819999
 30
0.0
 11
63.26127022930005
 21
43.04258319549997
 31
0.0
  0
LINE
  5
929B5
330
1F
100
AcDbEntity
  8
cut
100
AcDbLine
 10
63.49116260829998
 20
48.60064557970003
 30
0.0
 11
63.4905998552
 21
48.58271393169997
 31
0.0
  0
LINE
  5
929B6
330
1F
100
AcDbEntity
  8
cut
100
AcDbLine
 10
63.28148218529998
 20
43.64302452469999
 30
0.0
 11
63.27074317340009
 21
43.34433656819999
 31
0.0
  0
LINE
  5
929B7
330
1F
100
AcDbEntity
  8
cut
100
AcDbLine
 10
63.4905998552
 20
48.58271393169997
 30
0.0
 11
63.4607900008001
 21
47.84463696829997
 31
0.0
  0
LINE
  5
929B8
330
1F
100
AcDbEntity
  8
cut
100
AcDbLine
 10
63.4607900008001
 20
47.84463696829997
 30
0.0
 11
63.42508234280001
 21
46.97927799019999
 31
0.0
  0
LINE
  5
929B9
330
1F
100
AcDbEntity
  8
cut
100
AcDbLine
 10
63.29312693010013
 20
43.93128010819999
 30
0.0
 11
63.28148218529998
 21
43.64302452469999
 31
0.0
  0
LINE
  5
929BA
330
1F
100
AcDbEntity
  8
cut
100
AcDbLine
 10
63.42508234280001
 20
46.97927799019999
 30
0.0
 11
63.3909862741001
 21
46.17027295929999
 31
0.0
  0
LINE
  5
929BB
330
1F
100
AcDbEntity
  8
cut
100
AcDbLine
 10
63.3909862741001
 20
46.17027295929999
 30
0.0
 11
63.3560934620001
 21
45.35896876299996
 31
0.0
  0
LINE
  5
929BC
330
1F
100
AcDbEntity
  8
cut
100
AcDbLine
 10
63.3560934620001
 20
45.35896876299996
 30
0.0
 11
63.31514640870011
 21
44.42744710970001
 31
0.0
  0
LWPOLYLINE
  5
929BD
330
1F
100
AcDbEntity
  8
cut
100
AcDbPolyline
 90
        4
 70
     0
 43
0.0
 10
63.31514640870011
 20
44.42744710970001
 10
63.30722022760006
 20
44.24979228010002
 10
63.30559220940006
 20
44.2134943907
 10
63.29312693010013
 20
43.93128010819999
  0
ARC
  5
929BE
330
1F
100
AcDbEntity
  8
cut
100
AcDbCircle
 10
55.07482190410008
 20
48.79999999889998
 30
0.0
 40
2.0
100
AcDbArc
 50
90.0
 51
118.494748856002
  0
ARC
  5
929BF
330
1F
100
AcDbEntity
  8
cut
100
AcDbCircle
 10
62.70000000000004
 20
49.99999999890002
 30
0.0
 40
0.8
100
AcDbArc
 50
0.0
 51
90.0
  0
DIMENSION
  5
929C0
330
1F
100
AcDbEntity
  8
2
100
AcDbDimension
  2
*D251010
 10
62.70000000000004
 20
49.99999999890002
 30
0.0
 11
78.34957646052703
 21
53.67925087045506
 31
0.0
 70
   164
 71
     5
 42
0.8
  3
コピー - ISO-25
100
AcDbRadialDimension
 15
63.47876703255632
 25
50.18308989213117
 35
0.0
 40
0.0
1001
ACAD
1000
DSTYLE
1002
{
1070
   170
1070
     1
1070
   171
1070
     3
1070
   143
1040
0.0393700787401575
1070
   285
1070
     4
1070
     4
1000
"
1070
   271
1070
     8
1070
    40
1040
1.0
1002
}
1001
ACAD_DSTYLE_DIMRADIAL_EXTENSION
1070
   387
1070
     1
1070
   388
1040
0.0
1070
   390
1040
1.570796326794896
1001
ACAD_DSTYLE_DIMINSPECT
1070
   396
1000

1070
   395
1000

1070
   394
1070
     1
1070
   393
1070
     0
1001
ZWMCAD_GENSTANDARDFRAME_13_
1070
   410
1000
GB
1070
   411
1000
ZwmFrameMain_
  0
VIEWPORT
  5
71
102
{ACAD_XDICTIONARY
360
87B09
102
}
330
55
100
AcDbEntity
 67
     1
  8
0
100
AcDbViewport
 10
150.1652135264906
 20
103.6581106594891
 30
0.0
 40
339.1973820494347
 41
168.6522697578383
 68
     1
 69
    -1
 12
150.1652135264906
 22
103.6581106594891
 13
0.0
 23
0.0
 14
10.0
 24
10.0
 15
10.0
 25
10.0
 16
0.0
 26
0.0
 36
1.0
 17
0.0
 27
0.0
 37
0.0
 42
50.0
 43
0.0
 44
0.0
 45
168.6522697578383
 50
0.0
 51
0.0
 72
  1000
 90
    32864
  1

281
     0
 71
     1
 74
     0
110
0.0
120
0.0
130
0.0
111
1.0
121
0.0
131
0.0
112
0.0
122
1.0
132
0.0
 79
     0
146
0.0
1001
ACAD
1000
MVIEW
1002
{
1070
    16
1010
0.0
1020
0.0
1030
0.0
1010
0.0
1020
0.0
1030
1.0
1040
0.0
1040
168.6522697578383
1040
150.1652135264906
1040
103.6581106594891
1040
50.0
1040
0.0
1040
0.0
1070
     0
1070
  1000
1070
     0
1070
     3
1070
     0
1070
     0
1070
     0
1070
     0
1040
0.0
1040
0.0
1040
0.0
1040
10.0
1040
10.0
1040
10.0
1040
10.0
1070
     0
1002
{
1002
}
1002
}
  0
VIEWPORT
  5
73
102
{ACAD_XDICTIONARY
360
87B0B
102
}
330
55
100
AcDbEntity
 67
     1
  8
0
100
AcDbViewport
 10
133.3499939441681
 20
101.5999939441681
 30
0.0
 40
213.3599903106689
 41
162.5599903106689
 68
     2
 69
    -1
 12
210.0
 22
148.5
 13
0.0
 23
0.0
 14
10.0
 24
10.0
 15
10.0
 25
10.0
 16
0.0
 26
0.0
 36
1.0
 17
0.0
 27
0.0
 37
0.0
 42
50.0
 43
0.0
 44
0.0
 45
324.0677920111345
 50
0.0
 51
0.0
 72
   100
 90
    32864
  1

281
     0
 71
     1
 74
     0
110
0.0
120
0.0
130
0.0
111
1.0
121
0.0
131
0.0
112
0.0
122
1.0
132
0.0
 79
     0
146
0.0
1001
ACAD
1000
MVIEW
1002
{
1070
    16
1010
0.0
1020
0.0
1030
0.0
1010
0.0
1020
0.0
1030
1.0
1040
0.0
1040
324.0677920111345
1040
210.0
1040
148.5
1040
50.0
1040
0.0
1040
0.0
1070
     0
1070
   100
1070
     0
1070
     3
1070
     0
1070
     0
1070
     0
1070
     0
1040
0.0
1040
0.0
1040
0.0
1040
10.0
1040
10.0
1040
10.0
1040
10.0
1070
     0
1002
{
1002
}
1002
}
  0
ENDSEC
  0
SECTION
  2
OBJECTS
  0
DICTIONARY
  5
C
330
0
100
AcDbDictionary
281
     1
  3
ACAD_2007HEADERVARS_RT
350
92AD1
  3
ACAD_CIP_PREVIOUS_PRODUCT_INFO
350
4A3C3
  3
ACAD_COLOR
350
85
  3
ACAD_DETAILVIEWSTYLE
350
4A3BB
  3
ACAD_GROUP
350
D
  3
ACAD_LAYOUT
350
1A
  3
ACAD_MATERIAL
350
84
  3
ACAD_MLEADERSTYLE
350
4A3B7
  3
ACAD_MLINESTYLE
350
17
  3
ACAD_PLOTSETTINGS
350
19
  3
ACAD_PLOTSTYLENAME
350
E
  3
ACAD_SCALELIST
350
4A3A5
  3
ACAD_SECTIONVIEWSTYLE
350
4A3B9
  3
ACAD_TABLESTYLE
350
A1
  3
ACAD_VISUALSTYLE
350
4A38C
  3
ACDB_RECOMPOSE_DATA
350
907A1
  3
ACDBHEADERROUNDTRIPXREC
350
92ACE
  3
AcDbVariableDictionary
350
5E
  3
ASE_INDEX_DICTIONARY
350
349E9
  3
DWGPROPS
350
92AD4
  0
DICTIONARY
  5
8C34E
330
8
100
AcDbDictionary
280
     1
281
     1
  3
ACAD_XREC_ROUNDTRIP
360
92ADA
  0
DICTIONARY
  5
E2
330
2
100
AcDbDictionary
280
     1
281
     1
  3
ACAD_LAYERFILTERS
360
4A339
  3
ACAD_LAYERSTATES
360
3759A
  3
ACLYDICTIONARY
360
4A338
  0
DICTIONARY
  5
4A86C
330
10
100
AcDbDictionary
280
     1
281
     1
  3
ADSK_XREC_LAYER_RECONCILED
360
4A86D
  0
DICTIONARY
  5
4A773
330
4A772
100
AcDbDictionary
280
     1
281
     1
  3
ADSK_XREC_LAYER_RECONCILED
360
4A86E
  0
DICTIONARY
  5
4A775
330
4A774
100
AcDbDictionary
280
     1
281
     1
  3
ADSK_XREC_LAYER_RECONCILED
360
4A86F
  0
DICTIONARY
  5
4A777
330
4A776
100
AcDbDictionary
280
     1
281
     1
  3
ADSK_XREC_LAYER_RECONCILED
360
4A870
  0
DICTIONARY
  5
4A779
330
4A778
100
AcDbDictionary
280
     1
281
     1
  3
ADSK_XREC_LAYER_RECONCILED
360
4A871
  0
DICTIONARY
  5
4A77B
330
4A77A
100
AcDbDictionary
280
     1
281
     1
  3
ADSK_XREC_LAYER_RECONCILED
360
4A872
  0
DICTIONARY
  5
4A77F
330
4A77E
100
AcDbDictionary
280
     1
281
     1
  3
ADSK_XREC_LAYER_RECONCILED
360
4A874
  0
DICTIONARY
  5
4A783
330
4A782
100
AcDbDictionary
280
     1
281
     1
  3
ADSK_XREC_LAYER_RECONCILED
360
4A876
  0
DICTIONARY
  5
8C34C
330
87B52
100
AcDbDictionary
280
     1
281
     1
  3
ACAD_XREC_ROUNDTRIP
360
92AD9
  0
DICTIONARY
  5
31EE
330
1F
100
AcDbDictionary
280
     1
281
     1
  3
ACAD_SORTENTS
360
31EF
  0
DICTIONARY
  5
4A6D7
330
4A6D6
100
AcDbDictionary
280
     1
281
     1
  3
ACAD_SORTENTS
360
4A6D8
  0
DICTIONARY
  5
87B05
330
6B
100
AcDbDictionary
280
     1
281
     1
  3
ACAD_XREC_ROUNDTRIP
360
92AD7
  0
DICTIONARY
  5
87B07
330
6D
100
AcDbDictionary
280
     1
281
     1
  3
ACAD_XREC_ROUNDTRIP
360
92AD8
  0
DICTIONARY
  5
928A8
330
928A7
100
AcDbDictionary
280
     1
281
     1
  3
ACAD_DIMASSOC
360
928A9
  0
DICTIONARY
  5
928AD
330
928AC
100
AcDbDictionary
280
     1
281
     1
  3
ACAD_DIMASSOC
360
928AE
  0
DICTIONARY
  5
87B09
330
71
100
AcDbDictionary
280
     1
281
     1
  3
ACAD_XREC_ROUNDTRIP
360
92AD5
  0
DICTIONARY
  5
87B0B
330
73
100
AcDbDictionary
280
     1
281
     1
  3
ACAD_XREC_ROUNDTRIP
360
92AD6
  0
DICTIONARY
  5
92AD1
102
{ACAD_REACTORS
330
C
102
}
330
C
100
AcDbDictionary
281
     1
  3
DIMTFILL
350
92AD2
  3
DIMTFILLCLR
350
92AD3
  0
XRECORD
  5
4A3C3
102
{ACAD_REACTORS
330
C
102
}
330
C
100
AcDbXrecord
280
     1
300
ACDLT
300
2020
300

  0
DICTIONARY
  5
85
102
{ACAD_REACTORS
330
C
102
}
330
C
100
AcDbDictionary
281
     1
  0
DICTIONARY
  5
4A3BB
102
{ACAD_REACTORS
330
C
102
}
330
C
100
AcDbDictionary
281
     1
  3
Metric50
350
4A3BC
  0
DICTIONARY
  5
D
102
{ACAD_REACTORS
330
C
102
}
330
C
100
AcDbDictionary
281
     1
  0
DICTIONARY
  5
1A
102
{ACAD_REACTORS
330
C
102
}
330
C
100
AcDbDictionary
281
     1
  3
Model
350
22
  3
レイアウト1
350
51
  3
レイアウト2
350
56
  0
DICTIONARY
  5
84
102
{ACAD_REACTORS
330
C
102
}
330
C
100
AcDbDictionary
281
     1
  3
ByBlock
350
4A37C
  3
ByLayer
350
4A374
  3
Global
350
4A384
  0
DICTIONARY
  5
4A3B7
102
{ACAD_REACTORS
330
C
102
}
330
C
100
AcDbDictionary
281
     1
  3
Standard
350
4A3B8
  0
DICTIONARY
  5
17
102
{ACAD_REACTORS
330
C
102
}
330
C
100
AcDbDictionary
281
     1
  3
Standard
350
18
  0
DICTIONARY
  5
19
102
{ACAD_REACTORS
330
C
102
}
330
C
100
AcDbDictionary
281
     1
  0
ACDBDICTIONARYWDFLT
  5
E
102
{ACAD_REACTORS
330
C
102
}
330
C
100
AcDbDictionary
281
     1
  3
Normal
350
F
100
AcDbDictionaryWithDefault
340
F
  0
DICTIONARY
  5
4A3A5
102
{ACAD_REACTORS
330
C
102
}
330
C
100
AcDbDictionary
281
     1
  3
A0
350
4A3A6
  3
A1
350
4A3A7
  3
A2
350
4A3A8
  3
A3
350
4A3A9
  3
A4
350
4A3AA
  3
A5
350
4A3AB
  3
A6
350
4A3AC
  3
A7
350
4A3AD
  3
A8
350
4A3AE
  3
A9
350
4A3AF
  3
B0
350
4A3B0
  3
B1
350
4A3B1
  3
B2
350
4A3B2
  3
B3
350
4A3B3
  3
B4
350
4A3B4
  3
B5
350
4A3B5
  3
B6
350
4A3B6
  0
DICTIONARY
  5
4A3B9
102
{ACAD_REACTORS
330
C
102
}
330
C
100
AcDbDictionary
281
     1
  3
Metric50
350
4A3BA
  0
DICTIONARY
  5
A1
102
{ACAD_REACTORS
330
C
102
}
330
C
100
AcDbDictionary
281
     1
  3
Standard
350
A2
  0
DICTIONARY
  5
4A38C
102
{ACAD_REACTORS
330
C
102
}
330
C
100
AcDbDictionary
281
     1
  3
2dWireframe
350
4A392
  3
Basic
350
4A391
  3
Brighten
350
4A398
  3
ColorChange
350
4A39C
  3
Conceptual
350
4A395
  3
Dim
350
4A397
  3
EdgeColorOff
350
4A3A4
  3
Facepattern
350
4A39B
  3
Flat
350
4A38D
  3
FlatWithEdges
350
4A38E
  3
Gouraud
350
4A38F
  3
GouraudWithEdges
350
4A390
  3
Hidden
350
4A394
  3
JitterOff
350
4A3A2
  3
Linepattern
350
4A39A
  3
OverhangOff
350
4A3A3
  3
Realistic
350
4A396
  3
Shaded
350
4A3A1
  3
Shaded with edges
350
4A3A0
  3
Shades of Gray
350
4A39D
  3
Sketchy
350
4A39E
  3
Thicken
350
4A399
  3
Wireframe
350
4A393
  3
X-Ray
350
4A39F
  0
XRECORD
  5
907A1
102
{ACAD_REACTORS
330
C
102
}
330
C
100
AcDbXrecord
280
     1
 90
        1
330
A2
  0
DICTIONARY
  5
92ACE
102
{ACAD_REACTORS
330
C
102
}
330
C
100
AcDbDictionary
281
     1
  3
COLORDICT
350
92ACF
  3
MATERIALDICT
350
92AD0
  0
DICTIONARY
  5
5E
102
{ACAD_REACTORS
330
C
102
}
330
C
100
AcDbDictionary
281
     1
  3
CANNOSCALE
350
92ACD
  3
CMLEADERSTYLE
350
4A6CE
  3
CTABLESTYLE
350
B8
  3
CVIEWDETAILSTYLE
350
4A6CF
  3
CVIEWSECTIONSTYLE
350
4A6D0
  3
DIMASSOC
350
5F
  3
HIDETEXT
350
63
  3
INDEXCTL
350
4A879
  3
LAYEREVAL
350
4A6D4
  3
LAYERNOTIFY
350
4A6D5
  3
LIGHTINGUNITS
350
4A6D3
  3
MSLTSCALE
350
4A6D1
  3
PROJECTNAME
350
31CE
  3
SORTENTS
350
4A878
  3
XCLIPFRAME
350
87AF9
  0
DICTIONARY
  5
349E9
102
{ACAD_REACTORS
330
C
102
}
330
C
100
AcDbDictionary
281
     1
  3
ASEBlockHierarchyIndexRecord
350
349EA
1001
DCO15
1040
1842496176.844
  0
XRECORD
  5
92AD4
102
{ACAD_REACTORS
330
C
102
}
330
C
100
AcDbXrecord
280
     1
  1
DWGPROPS COOKIE
  2

  3

  4

  6

  7

  8
zhangnw
  9

300
=
301
=
302
=
303
=
304
=
305
=
306
=
307
=
308
=
309
=
 40
0.0
 41
2455489.391063368
 42
2458948.455865625
  1

 90
        0
  0
XRECORD
  5
92ADA
102
{ACAD_REACTORS
330
8C34E
102
}
330
8C34E
100
AcDbXrecord
280
     1
102
VTR_0.000_0.000_1.000_1.000_VISUALSTYLE
340
4A392
102
VTR_0.000_0.000_1.000_1.000_GRIDDISPLAY
 70
     3
102
VTR_0.000_0.000_1.000_1.000_GRIDMAJOR
 70
     5
102
VTR_0.000_0.000_1.000_1.000_DEFAULTLIGHTING
280
     1
102
VTR_0.000_0.000_1.000_1.000_DEFAULTLIGHTINGTYPE
 70
     1
102
VTR_0.000_0.000_1.000_1.000_BRIGHTNESS
141
0.0
102
VTR_0.000_0.000_1.000_1.000_CONTRAST
142
0.0
  0
DICTIONARY
  5
4A339
102
{ACAD_REACTORS
330
E2
102
}
330
E2
100
AcDbDictionary
281
     1
  0
DICTIONARY
  5
3759A
102
{ACAD_REACTORS
330
E2
102
}
330
E2
100
AcDbDictionary
281
     1
  0
DICTIONARY
  5
4A338
102
{ACAD_REACTORS
330
E2
102
}
330
E2
100
AcDbDictionary
281
     1
1001
ACAD
1000
<All
  0
XRECORD
  5
4A86D
102
{ACAD_REACTORS
330
4A86C
102
}
330
4A86C
100
AcDbXrecord
280
     1
290
     1
  0
XRECORD
  5
4A86E
102
{ACAD_REACTORS
330
4A773
102
}
330
4A773
100
AcDbXrecord
280
     1
290
     1
  0
XRECORD
  5
4A86F
102
{ACAD_REACTORS
330
4A775
102
}
330
4A775
100
AcDbXrecord
280
     1
290
     1
  0
XRECORD
  5
4A870
102
{ACAD_REACTORS
330
4A777
102
}
330
4A777
100
AcDbXrecord
280
     1
290
     1
  0
XRECORD
  5
4A871
102
{ACAD_REACTORS
330
4A779
102
}
330
4A779
100
AcDbXrecord
280
     1
290
     1
  0
XRECORD
  5
4A872
102
{ACAD_REACTORS
330
4A77B
102
}
330
4A77B
100
AcDbXrecord
280
     1
290
     1
  0
XRECORD
  5
4A874
102
{ACAD_REACTORS
330
4A77F
102
}
330
4A77F
100
AcDbXrecord
280
     1
290
     1
  0
XRECORD
  5
4A876
102
{ACAD_REACTORS
330
4A783
102
}
330
4A783
100
AcDbXrecord
280
     1
290
     1
  0
XRECORD
  5
92AD9
102
{ACAD_REACTORS
330
8C34C
102
}
330
8C34C
100
AcDbXrecord
280
     1
102
MATERIAL
340
4A384
  0
SORTENTSTABLE
  5
31EF
102
{ACAD_REACTORS
330
31EE
102
}
330
31EE
100
AcDbSortentsTable
330
1F
  0
SORTENTSTABLE
  5
4A6D8
102
{ACAD_REACTORS
330
4A6D7
102
}
330
4A6D7
100
AcDbSortentsTable
330
4A6D6
  0
XRECORD
  5
92AD7
102
{ACAD_REACTORS
330
87B05
102
}
330
87B05
100
AcDbXrecord
280
     1
102
GRIDDISPLAY
 70
     0
102
GRIDMAJOR
 70
     5
102
DEFAULTLIGHTING
280
     1
102
DEFAULTLIGHTINGTYPE
 70
     1
102
BRIGHTNESS
141
0.0
102
CONTRAST
142
0.0
  0
XRECORD
  5
92AD8
102
{ACAD_REACTORS
330
87B07
102
}
330
87B07
100
AcDbXrecord
280
     1
102
GRIDDISPLAY
 70
     0
102
GRIDMAJOR
 70
     5
102
DEFAULTLIGHTING
280
     1
102
DEFAULTLIGHTINGTYPE
 70
     1
102
BRIGHTNESS
141
0.0
102
CONTRAST
142
0.0
  0
DIMASSOC
  5
928A9
102
{ACAD_REACTORS
330
928A8
102
}
330
928A8
100
AcDbDimAssoc
330
928A7
 90
        3
 70
     0
 71
     0
  1
AcDbOsnapPointRef
 72
    13
331
92871
 73
     2
 91
        0
 40
0.0
 10
0.0
 20
0.0
 30
1.999999999999998E+50
 75
     0
  1
AcDbOsnapPointRef
 72
    13
331
92892
 73
     2
 91
        0
 40
0.0
 10
0.0
 20
0.0
 30
1.999999999999998E+50
 75
     0
  0
DIMASSOC
  5
928AE
102
{ACAD_REACTORS
330
928AD
102
}
330
928AD
100
AcDbDimAssoc
330
928AC
 90
        2
 70
     0
 71
     0
  1
AcDbOsnapPointRef
 72
    13
331
928A2
 73
     2
 91
        0
 40
3.141592653589792
 10
0.0
 20
0.0
 30
1.999999999999998E+50
 75
     0
  0
XRECORD
  5
92AD5
102
{ACAD_REACTORS
330
87B09
102
}
330
87B09
100
AcDbXrecord
280
     1
102
GRIDDISPLAY
 70
     0
102
GRIDMAJOR
 70
     5
102
DEFAULTLIGHTING
280
     1
102
DEFAULTLIGHTINGTYPE
 70
     1
102
BRIGHTNESS
141
0.0
102
CONTRAST
142
0.0
  0
XRECORD
  5
92AD6
102
{ACAD_REACTORS
330
87B0B
102
}
330
87B0B
100
AcDbXrecord
280
     1
102
GRIDDISPLAY
 70
     0
102
GRIDMAJOR
 70
     5
102
DEFAULTLIGHTING
280
     1
102
DEFAULTLIGHTINGTYPE
 70
     1
102
BRIGHTNESS
141
0.0
102
CONTRAST
142
0.0
  0
XRECORD
  5
92AD2
102
{ACAD_REACTORS
330
92AD1
102
}
330
92AD1
100
AcDbXrecord
280
     1
 70
     1
  0
XRECORD
  5
92AD3
102
{ACAD_REACTORS
330
92AD1
102
}
330
92AD1
100
AcDbXrecord
280
     1
1004
1800000001000000000000C1000000000000000000000000
  0
ACDBDETAILVIEWSTYLE
  5
4A3BC
102
{ACAD_XDICTIONARY
360
87B40
102
}
102
{ACAD_REACTORS
330
4A3BB
102
}
330
4A3BB
100
AcDbModelDocViewStyle
 70
     0
  3
Metric50
290
     0
100
AcDbDetailViewStyle
 70
     0
 71
     0
 90
        3
 71
     1
340
11
 40
5.0
340
0
 40
5.0
300

 40
0.0
280
     1
 71
     2
340
16
 90
       25
 71
     3
340
11
 40
5.0
 90
        0
 40
15.0
 90
        1
300
%<\AcVar ViewDetailId>% (%<\AcVar ViewScale \f "%sn">%)
 71
     4
340
16
 90
       25
340
16
 90
       25
280
     0
  0
LAYOUT
  5
22
102
{ACAD_REACTORS
330
1A
102
}
330
1A
100
AcDbPlotSettings
  1

  2
none_device
  4
ANSI_A_(8.50_x_11.00_Inches)
  6

 40
6.349999904632567
 41
19.04999923706055
 42
6.350006103515625
 43
19.04998779296875
 44
215.8999938964844
 45
279.3999938964844
 46
0.0
 47
0.0
 48
0.0
 49
0.0
140
0.0
141
0.0
142
1.0
143
78.436453180766
 70
 11952
 72
     0
 73
     1
 74
     0
  7

 75
     0
147
0.0127491741332998
148
0.0
149
0.0
100
AcDbLayout
  1
Model
 70
     1
 71
     0
 10
0.0
 20
0.0
 11
12.0
 21
9.0
 12
0.0
 22
0.0
 32
0.0
 14
0.0
 24
0.0
 34
0.0
 15
0.0
 25
0.0
 35
0.0
146
0.0
 13
0.0
 23
0.0
 33
0.0
 16
1.0
 26
0.0
 36
0.0
 17
0.0
 27
1.0
 37
0.0
 76
     0
330
1F
331
4A360
  0
LAYOUT
  5
51
102
{ACAD_REACTORS
330
1A
102
}
330
1A
100
AcDbPlotSettings
  1

  2
none_device
  4
Letter_(8.50_x_11.00_Inches)
  6

 40
6.349999904632567
 41
6.349999904632567
 42
6.350006103515625
 43
6.350006103515625
 44
215.8999938964844
 45
279.3999938964844
 46
0.0
 47
0.0
 48
0.0
 49
0.0
140
0.0
141
0.0
142
1.0
143
1.0
 70
   688
 72
     1
 73
     1
 74
     5
  7

 75
    16
147
1.0
148
0.0
149
0.0
100
AcDbLayout
  1
レイアウト1
 70
     1
 71
     1
 10
-6.350006103515625
 20
-6.349999904632567
 11
273.0499877929688
 21
209.5499939918518
 12
0.0
 22
0.0
 32
0.0
 14
26.66999878883364
 24
20.31999878883365
 34
0.0
 15
240.0299890995025
 25
182.8799890995025
 35
0.0
146
0.0
 13
0.0
 23
0.0
 33
0.0
 16
1.0
 26
0.0
 36
0.0
 17
0.0
 27
1.0
 37
0.0
 76
     0
330
50
331
6B
  0
LAYOUT
  5
56
102
{ACAD_REACTORS
330
1A
102
}
330
1A
100
AcDbPlotSettings
  1

  2
none_device
  4
Letter_(8.50_x_11.00_Inches)
  6

 40
6.349999904632567
 41
6.349999904632567
 42
6.350006103515625
 43
6.350006103515625
 44
215.8999938964844
 45
279.3999938964844
 46
0.0
 47
0.0
 48
0.0
 49
0.0
140
0.0
141
0.0
142
1.0
143
1.0
 70
   688
 72
     1
 73
     1
 74
     5
  7

 75
    16
147
1.0
148
0.0
149
0.0
100
AcDbLayout
  1
レイアウト2
 70
     1
 71
     2
 10
-6.350006103515625
 20
-6.349999904632567
 11
273.0499877929688
 21
209.5499939918518
 12
0.0
 22
0.0
 32
0.0
 14
26.66999878883364
 24
20.31999878883365
 34
0.0
 15
240.0299890995025
 25
182.8799890995025
 35
0.0
146
0.0
 13
0.0
 23
0.0
 33
0.0
 16
1.0
 26
0.0
 36
0.0
 17
0.0
 27
1.0
 37
0.0
 76
     0
330
55
331
71
  0
MATERIAL
  5
4A37C
102
{ACAD_XDICTIONARY
360
4A37D
102
}
102
{ACAD_REACTORS
330
84
102
}
330
84
100
AcDbMaterial
  1
ByBlock
 72
     0
 73
     2
 43
0.0008202099737533
 43
0.0
 43
0.0
 43
0.0
 43
0.0
 43
0.0008202099737533
 43
0.0
 43
0.0
 43
0.0
 43
0.0
 43
1.0
 43
0.0
 43
0.0
 43
0.0
 43
0.0
 43
1.0
 77
     0
 78
     2
 47
0.0008202099737533
 47
0.0
 47
0.0
 47
0.0
 47
0.0
 47
0.0008202099737533
 47
0.0
 47
0.0
 47
0.0
 47
0.0
 47
1.0
 47
0.0
 47
0.0
 47
0.0
 47
0.0
 47
1.0
171
     0
172
     2
 49
0.0008202099737533
 49
0.0
 49
0.0
 49
0.0
 49
0.0
 49
0.0008202099737533
 49
0.0
 49
0.0
 49
0.0
 49
0.0
 49
1.0
 49
0.0
 49
0.0
 49
0.0
 49
0.0
 49
1.0
175
     0
176
     2
142
0.0008202099737533
142
0.0
142
0.0
142
0.0
142
0.0
142
0.0008202099737533
142
0.0
142
0.0
142
0.0
142
0.0
142
1.0
142
0.0
142
0.0
142
0.0
142
0.0
142
1.0
179
     0
270
     2
144
0.0008202099737533
144
0.0
144
0.0
144
0.0
144
0.0
144
0.0008202099737533
144
0.0
144
0.0
144
0.0
144
0.0
144
1.0
144
0.0
144
0.0
144
0.0
144
0.0
144
1.0
274
     2
147
0.0008202099737533
147
0.0
147
0.0
147
0.0
147
0.0
147
0.0008202099737533
147
0.0
147
0.0
147
0.0
147
0.0
147
1.0
147
0.0
147
0.0
147
0.0
147
0.0
147
1.0
  0
MATERIAL
  5
4A374
102
{ACAD_XDICTIONARY
360
4A375
102
}
102
{ACAD_REACTORS
330
84
102
}
330
84
100
AcDbMaterial
  1
ByLayer
 72
     0
 73
     2
 43
0.0008202099737533
 43
0.0
 43
0.0
 43
0.0
 43
0.0
 43
0.0008202099737533
 43
0.0
 43
0.0
 43
0.0
 43
0.0
 43
1.0
 43
0.0
 43
0.0
 43
0.0
 43
0.0
 43
1.0
 77
     0
 78
     2
 47
0.0008202099737533
 47
0.0
 47
0.0
 47
0.0
 47
0.0
 47
0.0008202099737533
 47
0.0
 47
0.0
 47
0.0
 47
0.0
 47
1.0
 47
0.0
 47
0.0
 47
0.0
 47
0.0
 47
1.0
171
     0
172
     2
 49
0.0008202099737533
 49
0.0
 49
0.0
 49
0.0
 49
0.0
 49
0.0008202099737533
 49
0.0
 49
0.0
 49
0.0
 49
0.0
 49
1.0
 49
0.0
 49
0.0
 49
0.0
 49
0.0
 49
1.0
175
     0
176
     2
142
0.0008202099737533
142
0.0
142
0.0
142
0.0
142
0.0
142
0.0008202099737533
142
0.0
142
0.0
142
0.0
142
0.0
142
1.0
142
0.0
142
0.0
142
0.0
142
0.0
142
1.0
179
     0
270
     2
144
0.0008202099737533
144
0.0
144
0.0
144
0.0
144
0.0
144
0.0008202099737533
144
0.0
144
0.0
144
0.0
144
0.0
144
1.0
144
0.0
144
0.0
144
0.0
144
0.0
144
1.0
274
     2
147
0.0008202099737533
147
0.0
147
0.0
147
0.0
147
0.0
147
0.0008202099737533
147
0.0
147
0.0
147
0.0
147
0.0
147
1.0
147
0.0
147
0.0
147
0.0
147
0.0
147
1.0
  0
MATERIAL
  5
4A384
102
{ACAD_XDICTIONARY
360
4A385
102
}
102
{ACAD_REACTORS
330
84
102
}
330
84
100
AcDbMaterial
  1
Global
 72
     0
 73
     2
 43
0.0008202099737533
 43
0.0
 43
0.0
 43
0.0
 43
0.0
 43
0.0008202099737533
 43
0.0
 43
0.0
 43
0.0
 43
0.0
 43
1.0
 43
0.0
 43
0.0
 43
0.0
 43
0.0
 43
1.0
 77
     0
 78
     2
 47
0.0008202099737533
 47
0.0
 47
0.0
 47
0.0
 47
0.0
 47
0.0008202099737533
 47
0.0
 47
0.0
 47
0.0
 47
0.0
 47
1.0
 47
0.0
 47
0.0
 47
0.0
 47
0.0
 47
1.0
171
     0
172
     2
 49
0.0008202099737533
 49
0.0
 49
0.0
 49
0.0
 49
0.0
 49
0.0008202099737533
 49
0.0
 49
0.0
 49
0.0
 49
0.0
 49
1.0
 49
0.0
 49
0.0
 49
0.0
 49
0.0
 49
1.0
175
     0
176
     2
142
0.0008202099737533
142
0.0
142
0.0
142
0.0
142
0.0
142
0.0008202099737533
142
0.0
142
0.0
142
0.0
142
0.0
142
1.0
142
0.0
142
0.0
142
0.0
142
0.0
142
1.0
179
     0
270
     2
144
0.0008202099737533
144
0.0
144
0.0
144
0.0
144
0.0
144
0.0008202099737533
144
0.0
144
0.0
144
0.0
144
0.0
144
1.0
144
0.0
144
0.0
144
0.0
144
0.0
144
1.0
274
     2
147
0.0008202099737533
147
0.0
147
0.0
147
0.0
147
0.0
147
0.0008202099737533
147
0.0
147
0.0
147
0.0
147
0.0
147
1.0
147
0.0
147
0.0
147
0.0
147
0.0
147
1.0
  0
MLEADERSTYLE
  5
4A3B8
102
{ACAD_XDICTIONARY
360
8C353
102
}
102
{ACAD_REACTORS
330
4A3B7
102
}
330
4A3B7
100
AcDbMLeaderStyle
170
     2
171
     1
172
     0
 90
        2
 40
0.0
 41
0.0
173
     1
 91
-1056964608
340
14
 92
       -2
290
     1
 42
2.0
291
     1
 43
0.36
  3
Standard
 44
4.0
300

342
11
174
     1
178
     6
175
     1
176
     0
 93
-1056964608
 45
4.0
292
     0
297
     0
 46
4.0
 94
-1056964608
 47
1.0
 49
1.0
140
1.0
293
     1
141
0.0
294
     1
177
     0
142
1.0
295
     0
296
     0
143
0.125
1001
ACAD_MLEADERVER
1070
     2
  0
MLINESTYLE
  5
18
102
{ACAD_REACTORS
330
17
102
}
330
17
100
AcDbMlineStyle
  2
STANDARD
 70
     0
  3

 62
   256
 51
90.0
 52
90.0
 71
     2
 49
0.5
 62
   256
  6
BYLAYER
 49
-0.5
 62
   256
  6
BYLAYER
  0
ACDBPLACEHOLDER
  5
F
102
{ACAD_REACTORS
330
E
102
}
330
E
  0
SCALE
  5
4A3A6
102
{ACAD_REACTORS
330
4A3A5
102
}
330
4A3A5
100
AcDbScale
 70
     0
300
1:1
140
1.0
141
1.0
290
     1
  0
SCALE
  5
4A3A7
102
{ACAD_REACTORS
330
4A3A5
102
}
330
4A3A5
100
AcDbScale
 70
     0
300
1:2
140
1.0
141
2.0
290
     0
  0
SCALE
  5
4A3A8
102
{ACAD_REACTORS
330
4A3A5
102
}
330
4A3A5
100
AcDbScale
 70
     0
300
1:4
140
1.0
141
4.0
290
     0
  0
SCALE
  5
4A3A9
102
{ACAD_REACTORS
330
4A3A5
102
}
330
4A3A5
100
AcDbScale
 70
     0
300
1:5
140
1.0
141
5.0
290
     0
  0
SCALE
  5
4A3AA
102
{ACAD_REACTORS
330
4A3A5
102
}
330
4A3A5
100
AcDbScale
 70
     0
300
1:8
140
1.0
141
8.0
290
     0
  0
SCALE
  5
4A3AB
102
{ACAD_REACTORS
330
4A3A5
102
}
330
4A3A5
100
AcDbScale
 70
     0
300
1:10
140
1.0
141
10.0
290
     0
  0
SCALE
  5
4A3AC
102
{ACAD_REACTORS
330
4A3A5
102
}
330
4A3A5
100
AcDbScale
 70
     0
300
1:16
140
1.0
141
16.0
290
     0
  0
SCALE
  5
4A3AD
102
{ACAD_REACTORS
330
4A3A5
102
}
330
4A3A5
100
AcDbScale
 70
     0
300
1:20
140
1.0
141
20.0
290
     0
  0
SCALE
  5
4A3AE
102
{ACAD_REACTORS
330
4A3A5
102
}
330
4A3A5
100
AcDbScale
 70
     0
300
1:30
140
1.0
141
30.0
290
     0
  0
SCALE
  5
4A3AF
102
{ACAD_REACTORS
330
4A3A5
102
}
330
4A3A5
100
AcDbScale
 70
     0
300
1:40
140
1.0
141
40.0
290
     0
  0
SCALE
  5
4A3B0
102
{ACAD_REACTORS
330
4A3A5
102
}
330
4A3A5
100
AcDbScale
 70
     0
300
1:50
140
1.0
141
50.0
290
     0
  0
SCALE
  5
4A3B1
102
{ACAD_REACTORS
330
4A3A5
102
}
330
4A3A5
100
AcDbScale
 70
     0
300
1:100
140
1.0
141
100.0
290
     0
  0
SCALE
  5
4A3B2
102
{ACAD_REACTORS
330
4A3A5
102
}
330
4A3A5
100
AcDbScale
 70
     0
300
2:1
140
2.0
141
1.0
290
     0
  0
SCALE
  5
4A3B3
102
{ACAD_REACTORS
330
4A3A5
102
}
330
4A3A5
100
AcDbScale
 70
     0
300
4:1
140
4.0
141
1.0
290
     0
  0
SCALE
  5
4A3B4
102
{ACAD_REACTORS
330
4A3A5
102
}
330
4A3A5
100
AcDbScale
 70
     0
300
8:1
140
8.0
141
1.0
290
     0
  0
SCALE
  5
4A3B5
102
{ACAD_REACTORS
330
4A3A5
102
}
330
4A3A5
100
AcDbScale
 70
     0
300
10:1
140
10.0
141
1.0
290
     0
  0
SCALE
  5
4A3B6
102
{ACAD_REACTORS
330
4A3A5
102
}
330
4A3A5
100
AcDbScale
 70
     0
300
100:1
140
100.0
141
1.0
290
     0
  0
ACDBSECTIONVIEWSTYLE
  5
4A3BA
102
{ACAD_XDICTIONARY
360
87B3E
102
}
102
{ACAD_REACTORS
330
4A3B9
102
}
330
4A3B9
100
AcDbModelDocViewStyle
 70
     0
  3
Metric50
290
     0
100
AcDbSectionViewStyle
 70
     0
 71
     0
 90
      102
 71
     1
340
11
 40
5.0
340
0
340
0
 40
5.0
300
I, O, Q, S, X, Z
 40
10.0
 90
        0
 40
2.5
 90
        0
 71
     2
340
16
 90
       25
340
16
 90
       50
 40
5.0
 40
2.5
 40
5.0
 71
     3
340
11
 40
5.0
 90
        0
 40
15.0
 90
        1
300
%<\AcVar ViewSectionStartId>%-%<\AcVar ViewSectionEndId>% (%<\AcVar ViewScale \f "%sn">%)
 71
     4
300
ANSI31
 40
1.0
 90
        0
290
     0
290
     0
 90
        6
 40
0.0
 40
1.570796326794896
 40
0.2617993877991494
 40
1.308996938995747
 40
-0.2617993877991494
 40
1.832595714594044
  0
TABLESTYLE
  5
A2
102
{ACAD_XDICTIONARY
360
4CD9A
102
}
102
{ACAD_REACTORS
330
A1
102
}
330
A1
100
AcDbTableStyle
  3
Standard
 70
     0
 71
     0
 40
1.5
 41
1.5
280
     0
281
     0
  7
Standard
140
4.5
170
     2
 62
     0
 63
   257
283
     0
274
    -2
284
     1
 64
     0
275
    -2
285
     1
 65
     0
276
    -2
286
     1
 66
     0
277
    -2
287
     1
 67
     0
278
    -2
288
     1
 68
     0
279
    -2
289
     1
 69
     0
  7
Standard
140
6.0
170
     5
 62
     0
 63
   257
283
     0
274
    -2
284
     1
 64
     0
275
    -2
285
     1
 65
     0
276
    -2
286
     1
 66
     0
277
    -2
287
     1
 67
     0
278
    -2
288
     1
 68
     0
279
    -2
289
     1
 69
     0
  7
Standard
140
4.5
170
     5
 62
     0
 63
   257
283
     0
274
    -2
284
     1
 64
     0
275
    -2
285
     1
 65
     0
276
    -2
286
     1
 66
     0
277
    -2
287
     1
 67
     0
278
    -2
288
     1
 68
     0
279
    -2
289
     1
 69
     0
  0
VISUALSTYLE
  5
4A392
102
{ACAD_XDICTIONARY
360
87B18
102
}
102
{ACAD_REACTORS
330
4A38C
102
}
330
4A38C
100
AcDbVisualStyle
  2

 70
     4
 71
     0
 72
     2
 73
     0
 90
        0
 40
-0.6
 41
-30.0
 62
     5
 63
     7
 74
     1
 91
        4
 64
     7
 65
   257
 75
     1
175
     1
 42
1.0
 92
        0
 66
   257
 43
1.0
 76
     1
 77
     6
 78
     2
 67
     7
 79
     5
170
     0
171
     0
290
     0
174
     0
 93
        1
 44
0.0
173
     0
291
     0
 45
0.0
1001
ACAD
1000
AcDbSavedByObjectVersion
1070
     0
  0
VISUALSTYLE
  5
4A391
102
{ACAD_XDICTIONARY
360
87B16
102
}
102
{ACAD_REACTORS
330
4A38C
102
}
330
4A38C
100
AcDbVisualStyle
  2

 70
     7
 71
     1
 72
     0
 73
     1
 90
        0
 40
-0.6
 41
-30.0
 62
     5
 63
     7
 74
     0
 91
        4
 64
     7
 65
   257
 75
     1
175
     1
 42
1.0
 92
        8
 66
     7
 43
1.0
 76
     1
 77
     6
 78
     2
 67
     7
 79
     5
170
     0
171
     0
290
     0
174
     0
 93
        1
 44
0.0
173
     0
291
     1
 45
0.0
1001
ACAD
1000
AcDbSavedByObjectVersion
1070
     0
  0
VISUALSTYLE
  5
4A398
102
{ACAD_XDICTIONARY
360
87B24
102
}
102
{ACAD_REACTORS
330
4A38C
102
}
330
4A38C
100
AcDbVisualStyle
  2

 70
    12
 71
     2
 72
     2
 73
     0
 90
        0
 40
-0.6
 41
-30.0
 62
     5
 63
     7
 74
     1
 91
        4
 64
     7
 65
   257
 75
     1
175
     1
 42
1.0
 92
        8
 66
     7
 43
1.0
 76
     1
 77
     6
 78
     2
 67
     7
 79
     5
170
     0
171
     0
290
     0
174
     0
 93
        1
 44
50.0
173
     0
291
     1
 45
0.0
1001
ACAD
1000
AcDbSavedByObjectVersion
1070
     0
  0
VISUALSTYLE
  5
4A39C
102
{ACAD_XDICTIONARY
360
87B2C
102
}
102
{ACAD_REACTORS
330
4A38C
102
}
330
4A38C
100
AcDbVisualStyle
  2

 70
    16
 71
     2
 72
     2
 73
     3
 90
        0
 40
-0.6
 41
-30.0
 62
     5
 63
     8
 74
     1
 91
        4
 64
     7
 65
   257
 75
     1
175
     1
 42
1.0
 92
        8
 66
     8
 43
1.0
 76
     1
 77
     6
 78
     2
 67
     7
 79
     5
170
     0
171
     0
290
     0
174
     0
 93
        1
 44
0.0
173
     0
291
     1
 45
0.0
1001
ACAD
1000
AcDbSavedByObjectVersion
1070
     0
  0
VISUALSTYLE
  5
4A395
102
{ACAD_XDICTIONARY
360
87B1E
102
}
102
{ACAD_REACTORS
330
4A38C
102
}
330
4A38C
100
AcDbVisualStyle
  2

 70
     9
 71
     3
 72
     2
 73
     0
 90
        0
 40
-0.6
 41
-30.0
 62
     5
 63
     7
 74
     2
 91
        2
 64
     7
 65
   257
 75
     1
175
     1
 42
179.0
 92
        8
 66
     7
 43
1.0
 76
     1
 77
     6
 78
     2
 67
     7
 79
     3
170
     0
171
     0
290
     0
174
     0
 93
        1
 44
0.0
173
     0
291
     0
 45
0.0
1001
ACAD
1000
AcDbSavedByObjectVersion
1070
     0
  0
VISUALSTYLE
  5
4A397
102
{ACAD_XDICTIONARY
360
87B22
102
}
102
{ACAD_REACTORS
330
4A38C
102
}
330
4A38C
100
AcDbVisualStyle
  2

 70
    11
 71
     2
 72
     2
 73
     0
 90
        0
 40
-0.6
 41
-30.0
 62
     5
 63
     7
 74
     1
 91
        4
 64
     7
 65
   257
 75
     1
175
     1
 42
1.0
 92
        8
 66
     7
 43
1.0
 76
     1
 77
     6
 78
     2
 67
     7
 79
     5
170
     0
171
     0
290
     0
174
     0
 93
        1
 44
-50.0
173
     0
291
     1
 45
0.0
1001
ACAD
1000
AcDbSavedByObjectVersion
1070
     0
  0
VISUALSTYLE
  5
4A3A4
102
{ACAD_XDICTIONARY
360
87B3C
102
}
102
{ACAD_REACTORS
330
4A38C
102
}
330
4A38C
100
AcDbVisualStyle
  2

 70
    22
 71
     2
 72
     2
 73
     0
 90
        0
 40
-0.6
 41
-30.0
 62
     5
 63
     7
 74
     1
 91
        4
 64
     7
 65
   257
 75
     1
175
     1
 42
1.0
 92
        8
 66
     7
 43
1.0
 76
     1
 77
     6
 78
     2
 67
     7
 79
     5
170
     0
171
     0
290
     0
174
     0
 93
        1
 44
0.0
173
     0
291
     1
 45
0.0
1001
ACAD
1000
AcDbSavedByObjectVersion
1070
     0
  0
VISUALSTYLE
  5
4A39B
102
{ACAD_XDICTIONARY
360
87B2A
102
}
102
{ACAD_REACTORS
330
4A38C
102
}
330
4A38C
100
AcDbVisualStyle
  2

 70
    15
 71
     2
 72
     2
 73
     0
 90
        0
 40
-0.6
 41
-30.0
 62
     5
 63
     7
 74
     1
 91
        4
 64
     7
 65
   257
 75
     1
175
     1
 42
1.0
 92
        8
 66
     7
 43
1.0
 76
     1
 77
     6
 78
     2
 67
     7
 79
     5
170
     0
171
     0
290
     0
174
     0
 93
        1
 44
0.0
173
     0
291
     1
 45
0.0
1001
ACAD
1000
AcDbSavedByObjectVersion
1070
     0
  0
VISUALSTYLE
  5
4A38D
102
{ACAD_XDICTIONARY
360
87B0E
102
}
102
{ACAD_REACTORS
330
4A38C
102
}
330
4A38C
100
AcDbVisualStyle
  2

 70
     0
 71
     2
 72
     1
 73
     1
 90
        2
 40
-0.6
 41
30.0
 62
     5
 63
     7
 74
     0
 91
        0
 64
     7
 65
   257
 75
     1
175
     1
 42
1.0
 92
        8
 66
     7
 43
1.0
 76
     1
 77
     6
 78
     2
 67
     7
 79
     5
170
     0
171
     0
290
     0
174
     0
 93
       13
 44
0.0
173
     0
291
     1
 45
0.0
1001
ACAD
1000
AcDbSavedByObjectVersion
1070
     0
  0
VISUALSTYLE
  5
4A38E
102
{ACAD_XDICTIONARY
360
87B10
102
}
102
{ACAD_REACTORS
330
4A38C
102
}
330
4A38C
100
AcDbVisualStyle
  2

 70
     1
 71
     2
 72
     1
 73
     1
 90
        2
 40
-0.6
 41
30.0
 62
     5
 63
     7
 74
     1
 91
        0
 64
     7
 65
   257
 75
     1
175
     1
 42
1.0
 92
        0
 66
   257
 43
1.0
 76
     1
 77
     6
 78
     2
 67
     7
 79
     5
170
     0
171
     0
290
     0
174
     0
 93
       13
 44
0.0
173
     0
291
     1
 45
0.0
1001
ACAD
1000
AcDbSavedByObjectVersion
1070
     0
  0
VISUALSTYLE
  5
4A38F
102
{ACAD_XDICTIONARY
360
87B12
102
}
102
{ACAD_REACTORS
330
4A38C
102
}
330
4A38C
100
AcDbVisualStyle
  2

 70
     2
 71
     2
 72
     2
 73
     1
 90
        2
 40
-0.6
 41
30.0
 62
     5
 63
     7
 74
     0
 91
        0
 64
     7
 65
   257
 75
     1
175
     1
 42
1.0
 92
        0
 66
     7
 43
1.0
 76
     1
 77
     6
 78
     2
 67
     7
 79
     5
170
     0
171
     0
290
     0
174
     0
 93
       13
 44
0.0
173
     0
291
     1
 45
0.0
1001
ACAD
1000
AcDbSavedByObjectVersion
1070
     0
  0
VISUALSTYLE
  5
4A390
102
{ACAD_XDICTIONARY
360
87B14
102
}
102
{ACAD_REACTORS
330
4A38C
102
}
330
4A38C
100
AcDbVisualStyle
  2

 70
     3
 71
     2
 72
     2
 73
     1
 90
        2
 40
-0.6
 41
30.0
 62
     5
 63
     7
 74
     1
 91
        0
 64
     7
 65
   257
 75
     1
175
     1
 42
1.0
 92
        0
 66
   257
 43
1.0
 76
     1
 77
     6
 78
     2
 67
     7
 79
     5
170
     0
171
     0
290
     0
174
     0
 93
       13
 44
0.0
173
     0
291
     1
 45
0.0
1001
ACAD
1000
AcDbSavedByObjectVersion
1070
     0
  0
VISUALSTYLE
  5
4A394
102
{ACAD_XDICTIONARY
360
87B1C
102
}
102
{ACAD_REACTORS
330
4A38C
102
}
330
4A38C
100
AcDbVisualStyle
  2

 70
     6
 71
     1
 72
     2
 73
     2
 90
        0
 40
-0.6
 41
-30.0
 62
     5
 63
     7
 74
     2
 91
        2
 64
     7
 65
   257
 75
     2
175
     1
 42
40.0
 92
        0
 66
   257
 43
1.0
 76
     1
 77
     6
 78
     2
 67
     7
 79
     3
170
     0
171
     0
290
     0
174
     0
 93
        1
 44
0.0
173
     0
291
     0
 45
0.0
1001
ACAD
1000
AcDbSavedByObjectVersion
1070
     0
  0
VISUALSTYLE
  5
4A3A2
102
{ACAD_XDICTIONARY
360
87B38
102
}
102
{ACAD_REACTORS
330
4A38C
102
}
330
4A38C
100
AcDbVisualStyle
  2

 70
    20
 71
     2
 72
     2
 73
     0
 90
        0
 40
-0.6
 41
-30.0
 62
     5
 63
     7
 74
     1
 91
        4
 64
     7
 65
   257
 75
     1
175
     1
 42
1.0
 92
       10
 66
     7
 43
1.0
 76
     1
 77
     6
 78
     2
 67
     7
 79
     5
170
     0
171
     0
290
     0
174
     0
 93
        1
 44
0.0
173
     0
291
     1
 45
0.0
1001
ACAD
1000
AcDbSavedByObjectVersion
1070
     0
  0
VISUALSTYLE
  5
4A39A
102
{ACAD_XDICTIONARY
360
87B28
102
}
102
{ACAD_REACTORS
330
4A38C
102
}
330
4A38C
100
AcDbVisualStyle
  2

 70
    14
 71
     2
 72
     2
 73
     0
 90
        0
 40
-0.6
 41
-30.0
 62
     5
 63
     7
 74
     1
 91
        4
 64
     7
 65
   257
 75
     7
175
     7
 42
1.0
 92
        8
 66
     7
 43
1.0
 76
     1
 77
     6
 78
     2
 67
     7
 79
     5
170
     0
171
     0
290
     0
174
     0
 93
        1
 44
0.0
173
     0
291
     1
 45
0.0
1001
ACAD
1000
AcDbSavedByObjectVersion
1070
     0
  0
VISUALSTYLE
  5
4A3A3
102
{ACAD_XDICTIONARY
360
87B3A
102
}
102
{ACAD_REACTORS
330
4A38C
102
}
330
4A38C
100
AcDbVisualStyle
  2

 70
    21
 71
     2
 72
     2
 73
     0
 90
        0
 40
-0.6
 41
-30.0
 62
     5
 63
     7
 74
     1
 91
        4
 64
     7
 65
   257
 75
     1
175
     1
 42
1.0
 92
        9
 66
     7
 43
1.0
 76
     1
 77
     6
 78
     2
 67
     7
 79
     5
170
     0
171
     0
290
     0
174
     0
 93
        1
 44
0.0
173
     0
291
     1
 45
0.0
1001
ACAD
1000
AcDbSavedByObjectVersion
1070
     0
  0
VISUALSTYLE
  5
4A396
102
{ACAD_XDICTIONARY
360
87B20
102
}
102
{ACAD_REACTORS
330
4A38C
102
}
330
4A38C
100
AcDbVisualStyle
  2

 70
     8
 71
     2
 72
     3
 73
     0
 90
        2
 40
-0.6
 41
30.0
 62
     5
 63
     7
 74
     0
 91
        0
 64
     7
 65
   257
 75
     1
175
     1
 42
1.0
 92
        8
 66
   257
 43
1.0
 76
     1
 77
     6
 78
     2
 67
     7
 79
     3
170
     0
171
     0
290
     0
174
     0
 93
       13
 44
0.0
173
     0
291
     0
 45
0.0
1001
ACAD
1000
AcDbSavedByObjectVersion
1070
     0
  0
VISUALSTYLE
  5
4A3A1
102
{ACAD_XDICTIONARY
360
87B36
102
}
102
{ACAD_REACTORS
330
4A38C
102
}
330
4A38C
100
AcDbVisualStyle
  2

 70
    27
 71
     2
 72
     2
 73
     1
 90
        2
 40
-0.6
 41
30.0
 62
     5
 63
     7
 74
     0
 91
        4
 64
     7
 65
   257
 75
     1
175
     1
 42
1.0
 92
        8
 66
   257
 43
1.0
 76
     1
 77
     6
 78
     2
 67
     8
 79
     3
170
     0
171
     0
290
     0
174
     0
 93
        5
 44
0.0
173
     0
291
     0
 45
0.0
1001
ACAD
1000
AcDbSavedByObjectVersion
1070
     0
  0
VISUALSTYLE
  5
4A3A0
102
{ACAD_XDICTIONARY
360
87B34
102
}
102
{ACAD_REACTORS
330
4A38C
102
}
330
4A38C
100
AcDbVisualStyle
  2

 70
    26
 71
     2
 72
     2
 73
     1
 90
        2
 40
-0.6
 41
30.0
 62
     5
 63
     7
 74
     1
 91
        2
 64
     7
 65
   257
 75
     2
175
     1
 42
1.0
 92
        8
 66
   257
 43
1.0
 76
     1
 77
     6
 78
     2
 67
     7
 79
     3
170
     0
171
     0
290
     0
174
     0
 93
        5
 44
0.0
173
     0
291
     0
 45
0.0
1001
ACAD
1000
AcDbSavedByObjectVersion
1070
     0
  0
VISUALSTYLE
  5
4A39D
102
{ACAD_XDICTIONARY
360
87B2E
102
}
102
{ACAD_REACTORS
330
4A38C
102
}
330
4A38C
100
AcDbVisualStyle
  2

 70
    23
 71
     2
 72
     2
 73
     3
 90
        0
 40
-0.6
 41
-30.0
 62
     5
 63
     7
 74
     2
 91
        2
 64
     7
 65
     7
 75
     1
175
     1
 42
40.0
 92
        8
 66
     7
 43
1.0
 76
     1
 77
     6
 78
     2
 67
     7
 79
     3
170
     0
171
     0
290
     0
174
     0
 93
        1
 44
0.0
173
     0
291
     0
 45
0.0
1001
ACAD
1000
AcDbSavedByObjectVersion
1070
     0
  0
VISUALSTYLE
  5
4A39E
102
{ACAD_XDICTIONARY
360
87B30
102
}
102
{ACAD_REACTORS
330
4A38C
102
}
330
4A38C
100
AcDbVisualStyle
  2

 70
    24
 71
     1
 72
     2
 73
     2
 90
        0
 40
-0.6
 41
-30.0
 62
     5
 63
     7
 74
     2
 91
        2
 64
     7
 65
     7
 75
     1
175
     1
 42
40.0
 92
       11
 66
     7
 43
1.0
 76
     1
 77
     6
 78
     2
 67
     7
 79
     6
170
     0
171
     0
290
     0
174
     0
 93
        1
 44
0.0
173
     0
291
     0
 45
0.0
1001
ACAD
1000
AcDbSavedByObjectVersion
1070
     0
  0
VISUALSTYLE
  5
4A399
102
{ACAD_XDICTIONARY
360
87B26
102
}
102
{ACAD_REACTORS
330
4A38C
102
}
330
4A38C
100
AcDbVisualStyle
  2

 70
    13
 71
     2
 72
     2
 73
     0
 90
        0
 40
-0.6
 41
-30.0
 62
     5
 63
     7
 74
     1
 91
        4
 64
     7
 65
   257
 75
     1
175
     1
 42
1.0
 92
       12
 66
     7
 43
1.0
 76
     1
 77
     6
 78
     2
 67
     7
 79
     5
170
     0
171
     0
290
     0
174
     0
 93
        1
 44
0.0
173
     0
291
     1
 45
0.0
1001
ACAD
1000
AcDbSavedByObjectVersion
1070
     0
  0
VISUALSTYLE
  5
4A393
102
{ACAD_XDICTIONARY
360
87B1A
102
}
102
{ACAD_REACTORS
330
4A38C
102
}
330
4A38C
100
AcDbVisualStyle
  2

 70
     5
 71
     0
 72
     2
 73
     0
 90
        0
 40
-0.6
 41
-30.0
 62
     5
 63
     7
 74
     1
 91
        4
 64
     7
 65
   257
 75
     1
175
     1
 42
1.0
 92
        0
 66
   257
 43
1.0
 76
     1
 77
     6
 78
     2
 67
     7
 79
     3
170
     0
171
     0
290
     0
174
     0
 93
        1
 44
0.0
173
     0
291
     0
 45
0.0
1001
ACAD
1000
AcDbSavedByObjectVersion
1070
     0
  0
VISUALSTYLE
  5
4A39F
102
{ACAD_XDICTIONARY
360
87B32
102
}
102
{ACAD_REACTORS
330
4A38C
102
}
330
4A38C
100
AcDbVisualStyle
  2

 70
    25
 71
     2
 72
     2
 73
     1
 90
        1
 40
0.5
 41
-30.0
 62
     5
 63
     7
 74
     1
 91
        0
 64
     7
 65
   257
 75
     1
175
     1
 42
1.0
 92
        8
 66
     7
 43
1.0
 76
     1
 77
     6
 78
     2
 67
     7
 79
     3
170
     0
171
     0
290
     0
174
     0
 93
       13
 44
0.0
173
     0
291
     0
 45
0.0
1001
ACAD
1000
AcDbSavedByObjectVersion
1070
     0
  0
XRECORD
  5
92ACF
102
{ACAD_REACTORS
330
92ACE
102
}
330
92ACE
100
AcDbXrecord
280
     1
340
85
  0
XRECORD
  5
92AD0
102
{ACAD_REACTORS
330
92ACE
102
}
330
92ACE
100
AcDbXrecord
280
     1
340
84
  0
DICTIONARYVAR
  5
92ACD
102
{ACAD_REACTORS
330
5E
102
}
330
5E
100
DictionaryVariables
280
   100
  1
1:1
  0
DICTIONARYVAR
  5
4A6CE
102
{ACAD_REACTORS
330
5E
102
}
330
5E
100
DictionaryVariables
280
     0
  1
STANDARD
  0
DICTIONARYVAR
  5
B8
102
{ACAD_REACTORS
330
5E
102
}
330
5E
100
DictionaryVariables
280
     0
  1
STANDARD
  0
DICTIONARYVAR
  5
4A6CF
102
{ACAD_REACTORS
330
5E
102
}
330
5E
100
DictionaryVariables
280
     0
  1
Metric50
  0
DICTIONARYVAR
  5
4A6D0
102
{ACAD_REACTORS
330
5E
102
}
330
5E
100
DictionaryVariables
280
     0
  1
Metric50
  0
DICTIONARYVAR
  5
5F
102
{ACAD_REACTORS
330
5E
102
}
330
5E
100
DictionaryVariables
280
     0
  1
2
  0
DICTIONARYVAR
  5
63
102
{ACAD_REACTORS
330
5E
102
}
330
5E
100
DictionaryVariables
280
     0
  1
1
  0
DICTIONARYVAR
  5
4A879
102
{ACAD_REACTORS
330
5E
102
}
330
5E
100
DictionaryVariables
280
     0
  1
0
  0
DICTIONARYVAR
  5
4A6D4
102
{ACAD_REACTORS
330
5E
102
}
330
5E
100
DictionaryVariables
280
     0
  1
1
  0
DICTIONARYVAR
  5
4A6D5
102
{ACAD_REACTORS
330
5E
102
}
330
5E
100
DictionaryVariables
280
     0
  1
15
  0
DICTIONARYVAR
  5
4A6D3
102
{ACAD_REACTORS
330
5E
102
}
330
5E
100
DictionaryVariables
280
     0
  1
0
  0
DICTIONARYVAR
  5
4A6D1
102
{ACAD_REACTORS
330
5E
102
}
330
5E
100
DictionaryVariables
280
     0
  1
0
  0
DICTIONARYVAR
  5
31CE
102
{ACAD_REACTORS
330
5E
102
}
330
5E
100
DictionaryVariables
280
     0
  1

  0
DICTIONARYVAR
  5
4A878
102
{ACAD_REACTORS
330
5E
102
}
330
5E
100
DictionaryVariables
280
     0
  1
127
  0
DICTIONARYVAR
  5
87AF9
102
{ACAD_REACTORS
330
5E
102
}
330
5E
100
DictionaryVariables
280
     0
  1
2
  0
XRECORD
  5
349EA
102
{ACAD_REACTORS
330
349E9
102
}
330
349E9
100
AcDbXrecord
280
     1
330
0
330
0
330
0
330
0
330
0
330
0
330
0
330
0
330
0
330
0
330
0
330
0
330
0
330
0
330
0
330
0
330
0
330
0
330
0
330
0
330
0
330
0
330
0
330
0
330
0
330
0
330
0
330
0
330
0
330
0
330
0
330
0
330
0
330
0
330
0
330
0
330
0
330
0
330
0
330
0
330
0
330
0
330
0
330
0
330
0
330
0
330
0
330
0
330
0
330
0
330
0
330
0
330
0
330
0
330
0
330
0
330
0
330
0
330
0
330
0
330
0
330
0
330
0
330
0
330
0
330
0
330
0
330
0
330
0
330
0
330
0
330
0
330
0
330
0
330
0
330
0
330
0
330
0
330
0
330
0
330
0
330
0
330
0
330
0
330
0
330
0
330
0
330
0
330
0
330
0
330
0
330
0
330
0
330
0
330
0
330
0
330
0
330
0
330
0
330
0
330
0
330
0
330
0
330
0
330
0
330
0
330
0
330
0
330
0
330
0
  0
DICTIONARY
  5
87B40
330
4A3BC
100
AcDbDictionary
280
     1
281
     1
  3
ACAD_XREC_ROUNDTRIP
360
87B41
  0
DICTIONARY
  5
4A37D
330
4A37C
100
AcDbDictionary
280
     1
281
     1
  3
ACAD_XREC_ROUNDTRIP
360
92ADB
  0
DICTIONARY
  5
4A375
330
4A374
100
AcDbDictionary
280
     1
281
     1
  3
ACAD_XREC_ROUNDTRIP
360
92ADC
  0
DICTIONARY
  5
4A385
330
4A384
100
AcDbDictionary
280
     1
281
     1
  3
ACAD_XREC_ROUNDTRIP
360
92ADD
  0
DICTIONARY
  5
8C353
330
4A3B8
100
AcDbDictionary
280
     1
281
     1
  3
ACAD_XREC_ROUNDTRIP
360
92ADE
  0
DICTIONARY
  5
87B3E
330
4A3BA
100
AcDbDictionary
280
     1
281
     1
  3
ACAD_XREC_ROUNDTRIP
360
87B3F
  0
DICTIONARY
  5
4CD9A
330
A2
100
AcDbDictionary
280
     1
281
     1
  3
ACAD_ROUNDTRIP_2008_TABLESTYLE_CELLSTYLEMAP
360
92AE0
  3
ACAD_XREC_ROUNDTRIP
360
92ADF
  0
DICTIONARY
  5
87B18
330
4A392
100
AcDbDictionary
280
     1
281
     1
  3
ACAD_XREC_ROUNDTRIP
360
92AE1
  0
DICTIONARY
  5
87B16
330
4A391
100
AcDbDictionary
280
     1
281
     1
  3
ACAD_XREC_ROUNDTRIP
360
92AE2
  0
DICTIONARY
  5
87B24
330
4A398
100
AcDbDictionary
280
     1
281
     1
  3
ACAD_XREC_ROUNDTRIP
360
92AE3
  0
DICTIONARY
  5
87B2C
330
4A39C
100
AcDbDictionary
280
     1
281
     1
  3
ACAD_XREC_ROUNDTRIP
360
92AE4
  0
DICTIONARY
  5
87B1E
330
4A395
100
AcDbDictionary
280
     1
281
     1
  3
ACAD_XREC_ROUNDTRIP
360
92AE5
  0
DICTIONARY
  5
87B22
330
4A397
100
AcDbDictionary
280
     1
281
     1
  3
ACAD_XREC_ROUNDTRIP
360
92AE6
  0
DICTIONARY
  5
87B3C
330
4A3A4
100
AcDbDictionary
280
     1
281
     1
  3
ACAD_XREC_ROUNDTRIP
360
92AE7
  0
DICTIONARY
  5
87B2A
330
4A39B
100
AcDbDictionary
280
     1
281
     1
  3
ACAD_XREC_ROUNDTRIP
360
92AE8
  0
DICTIONARY
  5
87B0E
330
4A38D
100
AcDbDictionary
280
     1
281
     1
  3
ACAD_XREC_ROUNDTRIP
360
92AE9
  0
DICTIONARY
  5
87B10
330
4A38E
100
AcDbDictionary
280
     1
281
     1
  3
ACAD_XREC_ROUNDTRIP
360
92AEA
  0
DICTIONARY
  5
87B12
330
4A38F
100
AcDbDictionary
280
     1
281
     1
  3
ACAD_XREC_ROUNDTRIP
360
92AEB
  0
DICTIONARY
  5
87B14
330
4A390
100
AcDbDictionary
280
     1
281
     1
  3
ACAD_XREC_ROUNDTRIP
360
92AEC
  0
DICTIONARY
  5
87B1C
330
4A394
100
AcDbDictionary
280
     1
281
     1
  3
ACAD_XREC_ROUNDTRIP
360
92AED
  0
DICTIONARY
  5
87B38
330
4A3A2
100
AcDbDictionary
280
     1
281
     1
  3
ACAD_XREC_ROUNDTRIP
360
92AEE
  0
DICTIONARY
  5
87B28
330
4A39A
100
AcDbDictionary
280
     1
281
     1
  3
ACAD_XREC_ROUNDTRIP
360
92AEF
  0
DICTIONARY
  5
87B3A
330
4A3A3
100
AcDbDictionary
280
     1
281
     1
  3
ACAD_XREC_ROUNDTRIP
360
92AF0
  0
DICTIONARY
  5
87B20
330
4A396
100
AcDbDictionary
280
     1
281
     1
  3
ACAD_XREC_ROUNDTRIP
360
92AF1
  0
DICTIONARY
  5
87B36
330
4A3A1
100
AcDbDictionary
280
     1
281
     1
  3
ACAD_XREC_ROUNDTRIP
360
92AF2
  0
DICTIONARY
  5
87B34
330
4A3A0
100
AcDbDictionary
280
     1
281
     1
  3
ACAD_XREC_ROUNDTRIP
360
92AF3
  0
DICTIONARY
  5
87B2E
330
4A39D
100
AcDbDictionary
280
     1
281
     1
  3
ACAD_XREC_ROUNDTRIP
360
92AF4
  0
DICTIONARY
  5
87B30
330
4A39E
100
AcDbDictionary
280
     1
281
     1
  3
ACAD_XREC_ROUNDTRIP
360
92AF5
  0
DICTIONARY
  5
87B26
330
4A399
100
AcDbDictionary
280
     1
281
     1
  3
ACAD_XREC_ROUNDTRIP
360
92AF6
  0
DICTIONARY
  5
87B1A
330
4A393
100
AcDbDictionary
280
     1
281
     1
  3
ACAD_XREC_ROUNDTRIP
360
92AF7
  0
DICTIONARY
  5
87B32
330
4A39F
100
AcDbDictionary
280
     1
281
     1
  3
ACAD_XREC_ROUNDTRIP
360
92AF8
  0
XRECORD
  5
87B41
102
{ACAD_REACTORS
330
87B40
102
}
330
87B40
100
AcDbXrecord
280
     1
102
DISPLAYNAME
  1
Metric50
102
FLAGS
 90
        0
  0
XRECORD
  5
92ADB
102
{ACAD_REACTORS
330
4A37D
102
}
330
4A37D
100
AcDbXrecord
280
     1
102
MATERIAL
148
0.0
149
0.0
149
0.0
 93
        0
 94
      127
282
     0
 72
     0
 77
     0
171
     0
175
     0
179
     0
273
     0
  0
XRECORD
  5
92ADC
102
{ACAD_REACTORS
330
4A375
102
}
330
4A375
100
AcDbXrecord
280
     1
102
MATERIAL
148
0.0
149
0.0
149
0.0
 93
        0
 94
      127
282
     0
 72
     0
 77
     0
171
     0
175
     0
179
     0
273
     0
  0
XRECORD
  5
92ADD
102
{ACAD_REACTORS
330
4A385
102
}
330
4A385
100
AcDbXrecord
280
     1
102
MATERIAL
148
0.0
149
0.0
149
0.0
 93
        0
 94
      127
282
     0
 72
     0
 77
     0
171
     0
175
     0
179
     0
273
     0
  0
XRECORD
  5
92ADE
102
{ACAD_REACTORS
330
8C353
102
}
330
8C353
100
AcDbXrecord
280
     1
102
ACAD_ROUNDTRIP_2010_MLEADER_STYLE
  0
XRECORD
  5
87B3F
102
{ACAD_REACTORS
330
87B3E
102
}
330
87B3E
100
AcDbXrecord
280
     1
102
DISPLAYNAME
  1
Metric50
102
FLAGS
 90
        0
  0
CELLSTYLEMAP
  5
92AE0
102
{ACAD_REACTORS
330
4CD9A
102
}
330
4CD9A
100
AcDbCellStyleMap
 90
        3
300
CELLSTYLE
  1
TABLEFORMAT_BEGIN
 90
        5
170
     1
 91
        0
 92
    32768
 62
   257
 93
        1
300
CONTENTFORMAT
  1
CONTENTFORMAT_BEGIN
 90
        0
 91
        0
 92
        4
 93
        0
300

 40
0.0
140
1.0
 94
        5
 62
     0
340
11
144
6.0
309
CONTENTFORMAT_END
171
     1
301
MARGIN
  1
CELLMARGIN_BEGIN
 40
1.5
 40
1.5
 40
1.5
 40
1.5
 40
0.18
 40
0.18
309
CELLMARGIN_END
 94
        6
 95
        1
302
GRIDFORMAT
  1
GRIDFORMAT_BEGIN
 90
        0
 91
        1
 62
     0
 92
       -2
340
0
 93
        0
 40
0.045
309
GRIDFORMAT_END
 95
        2
302
GRIDFORMAT
  1
GRIDFORMAT_BEGIN
 90
        0
 91
        1
 62
     0
 92
       -2
340
0
 93
        0
 40
0.045
309
GRIDFORMAT_END
 95
        4
302
GRIDFORMAT
  1
GRIDFORMAT_BEGIN
 90
        0
 91
        1
 62
     0
 92
       -2
340
0
 93
        0
 40
0.045
309
GRIDFORMAT_END
 95
        8
302
GRIDFORMAT
  1
GRIDFORMAT_BEGIN
 90
        0
 91
        1
 62
     0
 92
       -2
340
0
 93
        0
 40
0.045
309
GRIDFORMAT_END
 95
       16
302
GRIDFORMAT
  1
GRIDFORMAT_BEGIN
 90
        0
 91
        1
 62
     0
 92
       -2
340
0
 93
        0
 40
0.045
309
GRIDFORMAT_END
 95
       32
302
GRIDFORMAT
  1
GRIDFORMAT_BEGIN
 90
        0
 91
        1
 62
     0
 92
       -2
340
0
 93
        0
 40
0.045
309
GRIDFORMAT_END
309
TABLEFORMAT_END
  1
CELLSTYLE_BEGIN
 90
        1
 91
        1
300
_TITLE
309
CELLSTYLE_END
300
CELLSTYLE
  1
TABLEFORMAT_BEGIN
 90
        5
170
     1
 91
        0
 92
        0
 62
   257
 93
        1
300
CONTENTFORMAT
  1
CONTENTFORMAT_BEGIN
 90
        0
 91
        0
 92
        4
 93
        0
300

 40
0.0
140
1.0
 94
        5
 62
     0
340
11
144
4.5
309
CONTENTFORMAT_END
171
     1
301
MARGIN
  1
CELLMARGIN_BEGIN
 40
1.5
 40
1.5
 40
1.5
 40
1.5
 40
0.18
 40
0.18
309
CELLMARGIN_END
 94
        6
 95
        1
302
GRIDFORMAT
  1
GRIDFORMAT_BEGIN
 90
        0
 91
        1
 62
     0
 92
       -2
340
0
 93
        0
 40
0.045
309
GRIDFORMAT_END
 95
        2
302
GRIDFORMAT
  1
GRIDFORMAT_BEGIN
 90
        0
 91
        1
 62
     0
 92
       -2
340
0
 93
        0
 40
0.045
309
GRIDFORMAT_END
 95
        4
302
GRIDFORMAT
  1
GRIDFORMAT_BEGIN
 90
        0
 91
        1
 62
     0
 92
       -2
340
0
 93
        0
 40
0.045
309
GRIDFORMAT_END
 95
        8
302
GRIDFORMAT
  1
GRIDFORMAT_BEGIN
 90
        0
 91
        1
 62
     0
 92
       -2
340
0
 93
        0
 40
0.045
309
GRIDFORMAT_END
 95
       16
302
GRIDFORMAT
  1
GRIDFORMAT_BEGIN
 90
        0
 91
        1
 62
     0
 92
       -2
340
0
 93
        0
 40
0.045
309
GRIDFORMAT_END
 95
       32
302
GRIDFORMAT
  1
GRIDFORMAT_BEGIN
 90
        0
 91
        1
 62
     0
 92
       -2
340
0
 93
        0
 40
0.045
309
GRIDFORMAT_END
309
TABLEFORMAT_END
  1
CELLSTYLE_BEGIN
 90
        2
 91
        1
300
_HEADER
309
CELLSTYLE_END
300
CELLSTYLE
  1
TABLEFORMAT_BEGIN
 90
        5
170
     1
 91
        0
 92
        0
 62
   257
 93
        1
300
CONTENTFORMAT
  1
CONTENTFORMAT_BEGIN
 90
        0
 91
        0
 92
        4
 93
        0
300

 40
0.0
140
1.0
 94
        2
 62
     0
340
11
144
4.5
309
CONTENTFORMAT_END
171
     1
301
MARGIN
  1
CELLMARGIN_BEGIN
 40
1.5
 40
1.5
 40
1.5
 40
1.5
 40
0.18
 40
0.18
309
CELLMARGIN_END
 94
        6
 95
        1
302
GRIDFORMAT
  1
GRIDFORMAT_BEGIN
 90
        0
 91
        1
 62
     0
 92
       -2
340
0
 93
        0
 40
0.045
309
GRIDFORMAT_END
 95
        2
302
GRIDFORMAT
  1
GRIDFORMAT_BEGIN
 90
        0
 91
        1
 62
     0
 92
       -2
340
0
 93
        0
 40
0.045
309
GRIDFORMAT_END
 95
        4
302
GRIDFORMAT
  1
GRIDFORMAT_BEGIN
 90
        0
 91
        1
 62
     0
 92
       -2
340
0
 93
        0
 40
0.045
309
GRIDFORMAT_END
 95
        8
302
GRIDFORMAT
  1
GRIDFORMAT_BEGIN
 90
        0
 91
        1
 62
     0
 92
       -2
340
0
 93
        0
 40
0.045
309
GRIDFORMAT_END
 95
       16
302
GRIDFORMAT
  1
GRIDFORMAT_BEGIN
 90
        0
 91
        1
 62
     0
 92
       -2
340
0
 93
        0
 40
0.045
309
GRIDFORMAT_END
 95
       32
302
GRIDFORMAT
  1
GRIDFORMAT_BEGIN
 90
        0
 91
        1
 62
     0
 92
       -2
340
0
 93
        0
 40
0.045
309
GRIDFORMAT_END
309
TABLEFORMAT_END
  1
CELLSTYLE_BEGIN
 90
        3
 91
        2
300
_DATA
309
CELLSTYLE_END
  0
XRECORD
  5
92ADF
102
{ACAD_REACTORS
330
4CD9A
102
}
330
4CD9A
100
AcDbXrecord
280
     1
102
ACAD_ROUNDTRIP_PRE2007_TABLESTYLE
 90
        4
 91
        0
  1

 92
        4
 93
        0
  2

 94
        4
 95
        0
  3

  0
XRECORD
  5
92AE1
102
{ACAD_REACTORS
330
87B18
102
}
330
87B18
100
AcDbXrecord
280
     1
102
RTVSPropertyOp0
 70
     1
102
RTVSPropertyOp1
 70
     1
102
RTVSPropertyOp2
 70
     1
102
RTVSPropertyOp3
 70
     1
102
RTVSPropertyOp4
 70
     1
102
RTVSPropertyOp5
 70
     1
102
RTVSPropertyOp6
 70
     1
102
RTVSPropertyOp7
 70
     1
102
RTVSPropertyOp8
 70
     1
102
RTVSPropertyOp9
 70
     1
102
RTVSPropertyOp10
 70
     1
102
RTVSPropertyOp11
 70
     1
102
RTVSPropertyOp12
 70
     1
102
RTVSPropertyOp13
 70
     1
102
RTVSPropertyOp14
 70
     1
102
RTVSPropertyOp15
 70
     1
102
RTVSPropertyOp16
 70
     1
102
RTVSPropertyOp17
 70
     1
102
RTVSPropertyOp18
 70
     1
102
RTVSPropertyOp19
 70
     1
102
RTVSPropertyOp20
 70
     1
102
RTVSPropertyOp21
 70
     1
102
RTVSPropertyOp22
 70
     1
102
RTVSPropertyOp23
 70
     1
102
RTVSPropertyOp24
 70
     1
102
RTVSPropertyOp25
 70
     1
102
RTVSPropertyOp26
 70
     1
102
RTVSPropertyOp27
 70
     1
102
RTVSPropertyOp28
 70
     1
102
RTVSPropertyOp29
 70
     1
102
RTVSPropertyOp30
 70
     1
102
RTVSPropertyOp31
 70
     1
102
RTVSPropertyOp32
 70
     1
102
RTVSPropertyOp33
 70
     1
102
RTVSPropertyOp34
 70
     1
102
RTVSPropertyOp35
 70
     1
102
RTVSPropertyOp36
 70
     1
102
RTVSPropertyOp37
 70
     1
102
RTVSPropertyOp38
 70
     1
102
RTVSPropertyOp39
 70
     1
102
RTVSPropertyOp40
 70
     1
102
RTVSPropertyOp41
 70
     1
102
RTVSPropertyOp42
 70
     1
102
RTVSPropertyOp43
 70
     1
102
RTVSPropertyOp44
 70
     1
102
RTVSPropertyOp45
 70
     1
102
RTVSPropertyOp46
 70
     1
102
RTVSPropertyOp47
 70
     1
102
RTVSPropertyOp48
 70
     1
102
RTVSPropertyOp49
 70
     1
102
RTVSPropertyOp50
 70
     1
102
RTVSPropertyOp51
 70
     0
102
RTVSPropertyOp52
 70
     0
102
RTVSPropertyOp53
 70
     1
102
RTVSPropertyOp54
 70
     1
102
RTVSPropertyOp55
 70
     1
102
RTVSPropertyOp56
 70
     1
102
RTVSPropertyOp57
 70
     1
102
RTVSPost2010Prop28
280
     1
102
RTVSPost2010PropOp28
 70
     1
102
RTVSPost2010Prop29
280
     1
102
RTVSPost2010PropOp29
 70
     1
102
RTVSPost2010Prop30
280
     0
102
RTVSPost2010PropOp30
 70
     1
102
RTVSPost2010Prop31
280
     0
102
RTVSPost2010PropOp31
 70
     1
102
RTVSPost2010Prop32
280
     0
102
RTVSPost2010PropOp32
 70
     1
102
RTVSPost2010Prop33
280
     0
102
RTVSPost2010PropOp33
 70
     1
102
RTVSPost2010Prop34
280
     0
102
RTVSPost2010PropOp34
 70
     1
102
RTVSPost2010Prop35
280
     0
102
RTVSPost2010PropOp35
 70
     1
102
RTVSPost2010Prop36
280
     0
102
RTVSPost2010PropOp36
 70
     1
102
RTVSPost2010Prop37
 90
       50
102
RTVSPost2010PropOp37
 70
     1
102
RTVSPost2010Prop38
140
0.0
102
RTVSPost2010PropOp38
 70
     1
102
RTVSPost2010Prop39
140
1.0
102
RTVSPost2010PropOp39
 70
     1
102
RTVSPost2010Prop40
 90
        0
102
RTVSPost2010PropOp40
 70
     1
102
RTVSPost2010Prop41ColorIndex
 90
       18
102
RTVSPost2010Prop41ColorRGB
 90
        0
102
RTVSPost2010PropOp41
 70
     1
102
RTVSPost2010Prop42
 90
       50
102
RTVSPost2010PropOp42
 70
     1
102
RTVSPost2010Prop43
 90
        3
102
RTVSPost2010PropOp43
 70
     1
102
RTVSPost2010Prop44ColorIndex
 90
        5
102
RTVSPost2010Prop44ColorRGB
 90
      255
102
RTVSPost2010PropOp44
 70
     1
102
RTVSPost2010Prop45
280
     0
102
RTVSPost2010PropOp45
 70
     1
102
RTVSPost2010Prop46
 90
       50
102
RTVSPost2010PropOp46
 70
     1
102
RTVSPost2010Prop47
 90
       50
102
RTVSPost2010PropOp47
 70
     1
102
RTVSPost2010Prop48
 90
       50
102
RTVSPost2010PropOp48
 70
     1
102
RTVSPost2010Prop49
280
     0
102
RTVSPost2010PropOp49
 70
     1
102
RTVSPost2010Prop50
 90
       50
102
RTVSPost2010PropOp50
 70
     1
102
RTVSPost2010Prop51ColorIndex
 90
      256
102
RTVSPost2010Prop51ColorRGB
 90
-16777216
102
RTVSPost2010PropOp51
 70
     0
102
RTVSPost2010Prop52
140
1.0
102
RTVSPost2010PropOp52
 70
     0
102
RTVSPost2010Prop53
 90
        2
102
RTVSPost2010PropOp53
 70
     1
102
RTVSPost2010Prop54
  1
strokes_ogs.tif
102
RTVSPost2010PropOp54
 70
     1
102
RTVSPost2010Prop55
280
     0
102
RTVSPost2010PropOp55
 70
     1
102
RTVSPost2010Prop56
140
1.0
102
RTVSPost2010PropOp56
 70
     1
102
RTVSPost2010Prop57
140
1.0
102
RTVSPost2010PropOp57
 70
     1
  0
XRECORD
  5
92AE2
102
{ACAD_REACTORS
330
87B16
102
}
330
87B16
100
AcDbXrecord
280
     1
102
RTVSPropertyOp0
 70
     1
102
RTVSPropertyOp1
 70
     1
102
RTVSPropertyOp2
 70
     1
102
RTVSPropertyOp3
 70
     1
102
RTVSPropertyOp4
 70
     1
102
RTVSPropertyOp5
 70
     1
102
RTVSPropertyOp6
 70
     1
102
RTVSPropertyOp7
 70
     1
102
RTVSPropertyOp8
 70
     1
102
RTVSPropertyOp9
 70
     1
102
RTVSPropertyOp10
 70
     1
102
RTVSPropertyOp11
 70
     1
102
RTVSPropertyOp12
 70
     1
102
RTVSPropertyOp13
 70
     1
102
RTVSPropertyOp14
 70
     1
102
RTVSPropertyOp15
 70
     1
102
RTVSPropertyOp16
 70
     1
102
RTVSPropertyOp17
 70
     1
102
RTVSPropertyOp18
 70
     1
102
RTVSPropertyOp19
 70
     1
102
RTVSPropertyOp20
 70
     1
102
RTVSPropertyOp21
 70
     1
102
RTVSPropertyOp22
 70
     1
102
RTVSPropertyOp23
 70
     1
102
RTVSPropertyOp24
 70
     1
102
RTVSPropertyOp25
 70
     1
102
RTVSPropertyOp26
 70
     1
102
RTVSPropertyOp27
 70
     1
102
RTVSPropertyOp28
 70
     1
102
RTVSPropertyOp29
 70
     1
102
RTVSPropertyOp30
 70
     1
102
RTVSPropertyOp31
 70
     1
102
RTVSPropertyOp32
 70
     1
102
RTVSPropertyOp33
 70
     1
102
RTVSPropertyOp34
 70
     1
102
RTVSPropertyOp35
 70
     1
102
RTVSPropertyOp36
 70
     1
102
RTVSPropertyOp37
 70
     1
102
RTVSPropertyOp38
 70
     1
102
RTVSPropertyOp39
 70
     1
102
RTVSPropertyOp40
 70
     1
102
RTVSPropertyOp41
 70
     1
102
RTVSPropertyOp42
 70
     1
102
RTVSPropertyOp43
 70
     1
102
RTVSPropertyOp44
 70
     1
102
RTVSPropertyOp45
 70
     1
102
RTVSPropertyOp46
 70
     1
102
RTVSPropertyOp47
 70
     1
102
RTVSPropertyOp48
 70
     1
102
RTVSPropertyOp49
 70
     1
102
RTVSPropertyOp50
 70
     1
102
RTVSPropertyOp51
 70
     0
102
RTVSPropertyOp52
 70
     0
102
RTVSPropertyOp53
 70
     1
102
RTVSPropertyOp54
 70
     1
102
RTVSPropertyOp55
 70
     1
102
RTVSPropertyOp56
 70
     1
102
RTVSPropertyOp57
 70
     1
102
RTVSPost2010Prop28
280
     0
102
RTVSPost2010PropOp28
 70
     1
102
RTVSPost2010Prop29
280
     1
102
RTVSPost2010PropOp29
 70
     1
102
RTVSPost2010Prop30
280
     1
102
RTVSPost2010PropOp30
 70
     1
102
RTVSPost2010Prop31
280
     0
102
RTVSPost2010PropOp31
 70
     1
102
RTVSPost2010Prop32
280
     0
102
RTVSPost2010PropOp32
 70
     1
102
RTVSPost2010Prop33
280
     0
102
RTVSPost2010PropOp33
 70
     1
102
RTVSPost2010Prop34
280
     0
102
RTVSPost2010PropOp34
 70
     1
102
RTVSPost2010Prop35
280
     0
102
RTVSPost2010PropOp35
 70
     1
102
RTVSPost2010Prop36
280
     0
102
RTVSPost2010PropOp36
 70
     1
102
RTVSPost2010Prop37
 90
       50
102
RTVSPost2010PropOp37
 70
     1
102
RTVSPost2010Prop38
140
0.0
102
RTVSPost2010PropOp38
 70
     1
102
RTVSPost2010Prop39
140
1.0
102
RTVSPost2010PropOp39
 70
     1
102
RTVSPost2010Prop40
 90
        0
102
RTVSPost2010PropOp40
 70
     1
102
RTVSPost2010Prop41ColorIndex
 90
       18
102
RTVSPost2010Prop41ColorRGB
 90
        0
102
RTVSPost2010PropOp41
 70
     1
102
RTVSPost2010Prop42
 90
       50
102
RTVSPost2010PropOp42
 70
     1
102
RTVSPost2010Prop43
 90
        3
102
RTVSPost2010PropOp43
 70
     1
102
RTVSPost2010Prop44ColorIndex
 90
        5
102
RTVSPost2010Prop44ColorRGB
 90
      255
102
RTVSPost2010PropOp44
 70
     1
102
RTVSPost2010Prop45
280
     0
102
RTVSPost2010PropOp45
 70
     1
102
RTVSPost2010Prop46
 90
       50
102
RTVSPost2010PropOp46
 70
     1
102
RTVSPost2010Prop47
 90
       50
102
RTVSPost2010PropOp47
 70
     1
102
RTVSPost2010Prop48
 90
       50
102
RTVSPost2010PropOp48
 70
     1
102
RTVSPost2010Prop49
280
     0
102
RTVSPost2010PropOp49
 70
     1
102
RTVSPost2010Prop50
 90
       50
102
RTVSPost2010PropOp50
 70
     1
102
RTVSPost2010Prop51ColorIndex
 90
      256
102
RTVSPost2010Prop51ColorRGB
 90
-16777216
102
RTVSPost2010PropOp51
 70
     0
102
RTVSPost2010Prop52
140
1.0
102
RTVSPost2010PropOp52
 70
     0
102
RTVSPost2010Prop53
 90
        2
102
RTVSPost2010PropOp53
 70
     1
102
RTVSPost2010Prop54
  1
strokes_ogs.tif
102
RTVSPost2010PropOp54
 70
     1
102
RTVSPost2010Prop55
280
     0
102
RTVSPost2010PropOp55
 70
     1
102
RTVSPost2010Prop56
140
1.0
102
RTVSPost2010PropOp56
 70
     1
102
RTVSPost2010Prop57
140
1.0
102
RTVSPost2010PropOp57
 70
     1
  0
XRECORD
  5
92AE3
102
{ACAD_REACTORS
330
87B24
102
}
330
87B24
100
AcDbXrecord
280
     1
102
RTVSPropertyOp0
 70
     1
102
RTVSPropertyOp1
 70
     1
102
RTVSPropertyOp2
 70
     1
102
RTVSPropertyOp3
 70
     1
102
RTVSPropertyOp4
 70
     1
102
RTVSPropertyOp5
 70
     1
102
RTVSPropertyOp6
 70
     1
102
RTVSPropertyOp7
 70
     1
102
RTVSPropertyOp8
 70
     1
102
RTVSPropertyOp9
 70
     1
102
RTVSPropertyOp10
 70
     1
102
RTVSPropertyOp11
 70
     1
102
RTVSPropertyOp12
 70
     1
102
RTVSPropertyOp13
 70
     1
102
RTVSPropertyOp14
 70
     1
102
RTVSPropertyOp15
 70
     1
102
RTVSPropertyOp16
 70
     1
102
RTVSPropertyOp17
 70
     1
102
RTVSPropertyOp18
 70
     1
102
RTVSPropertyOp19
 70
     1
102
RTVSPropertyOp20
 70
     1
102
RTVSPropertyOp21
 70
     1
102
RTVSPropertyOp22
 70
     1
102
RTVSPropertyOp23
 70
     1
102
RTVSPropertyOp24
 70
     1
102
RTVSPropertyOp25
 70
     1
102
RTVSPropertyOp26
 70
     1
102
RTVSPropertyOp27
 70
     1
102
RTVSPropertyOp28
 70
     1
102
RTVSPropertyOp29
 70
     1
102
RTVSPropertyOp30
 70
     1
102
RTVSPropertyOp31
 70
     1
102
RTVSPropertyOp32
 70
     1
102
RTVSPropertyOp33
 70
     1
102
RTVSPropertyOp34
 70
     1
102
RTVSPropertyOp35
 70
     1
102
RTVSPropertyOp36
 70
     1
102
RTVSPropertyOp37
 70
     1
102
RTVSPropertyOp38
 70
     1
102
RTVSPropertyOp39
 70
     1
102
RTVSPropertyOp40
 70
     1
102
RTVSPropertyOp41
 70
     1
102
RTVSPropertyOp42
 70
     1
102
RTVSPropertyOp43
 70
     1
102
RTVSPropertyOp44
 70
     1
102
RTVSPropertyOp45
 70
     1
102
RTVSPropertyOp46
 70
     1
102
RTVSPropertyOp47
 70
     1
102
RTVSPropertyOp48
 70
     1
102
RTVSPropertyOp49
 70
     1
102
RTVSPropertyOp50
 70
     1
102
RTVSPropertyOp51
 70
     0
102
RTVSPropertyOp52
 70
     0
102
RTVSPropertyOp53
 70
     1
102
RTVSPropertyOp54
 70
     1
102
RTVSPropertyOp55
 70
     1
102
RTVSPropertyOp56
 70
     1
102
RTVSPropertyOp57
 70
     1
102
RTVSPost2010Prop28
280
     0
102
RTVSPost2010PropOp28
 70
     1
102
RTVSPost2010Prop29
280
     1
102
RTVSPost2010PropOp29
 70
     1
102
RTVSPost2010Prop30
280
     1
102
RTVSPost2010PropOp30
 70
     1
102
RTVSPost2010Prop31
280
     0
102
RTVSPost2010PropOp31
 70
     1
102
RTVSPost2010Prop32
280
     0
102
RTVSPost2010PropOp32
 70
     1
102
RTVSPost2010Prop33
280
     0
102
RTVSPost2010PropOp33
 70
     1
102
RTVSPost2010Prop34
280
     0
102
RTVSPost2010PropOp34
 70
     1
102
RTVSPost2010Prop35
280
     0
102
RTVSPost2010PropOp35
 70
     1
102
RTVSPost2010Prop36
280
     0
102
RTVSPost2010PropOp36
 70
     1
102
RTVSPost2010Prop37
 90
       50
102
RTVSPost2010PropOp37
 70
     1
102
RTVSPost2010Prop38
140
0.0
102
RTVSPost2010PropOp38
 70
     1
102
RTVSPost2010Prop39
140
1.0
102
RTVSPost2010PropOp39
 70
     1
102
RTVSPost2010Prop40
 90
        0
102
RTVSPost2010PropOp40
 70
     1
102
RTVSPost2010Prop41ColorIndex
 90
       18
102
RTVSPost2010Prop41ColorRGB
 90
        0
102
RTVSPost2010PropOp41
 70
     1
102
RTVSPost2010Prop42
 90
       50
102
RTVSPost2010PropOp42
 70
     1
102
RTVSPost2010Prop43
 90
        3
102
RTVSPost2010PropOp43
 70
     1
102
RTVSPost2010Prop44ColorIndex
 90
        5
102
RTVSPost2010Prop44ColorRGB
 90
      255
102
RTVSPost2010PropOp44
 70
     1
102
RTVSPost2010Prop45
280
     0
102
RTVSPost2010PropOp45
 70
     1
102
RTVSPost2010Prop46
 90
       50
102
RTVSPost2010PropOp46
 70
     1
102
RTVSPost2010Prop47
 90
       50
102
RTVSPost2010PropOp47
 70
     1
102
RTVSPost2010Prop48
 90
       50
102
RTVSPost2010PropOp48
 70
     1
102
RTVSPost2010Prop49
280
     0
102
RTVSPost2010PropOp49
 70
     1
102
RTVSPost2010Prop50
 90
       50
102
RTVSPost2010PropOp50
 70
     1
102
RTVSPost2010Prop51ColorIndex
 90
      256
102
RTVSPost2010Prop51ColorRGB
 90
-16777216
102
RTVSPost2010PropOp51
 70
     0
102
RTVSPost2010Prop52
140
1.0
102
RTVSPost2010PropOp52
 70
     0
102
RTVSPost2010Prop53
 90
        2
102
RTVSPost2010PropOp53
 70
     1
102
RTVSPost2010Prop54
  1
strokes_ogs.tif
102
RTVSPost2010PropOp54
 70
     1
102
RTVSPost2010Prop55
280
     0
102
RTVSPost2010PropOp55
 70
     1
102
RTVSPost2010Prop56
140
1.0
102
RTVSPost2010PropOp56
 70
     1
102
RTVSPost2010Prop57
140
1.0
102
RTVSPost2010PropOp57
 70
     1
  0
XRECORD
  5
92AE4
102
{ACAD_REACTORS
330
87B2C
102
}
330
87B2C
100
AcDbXrecord
280
     1
102
RTVSPropertyOp0
 70
     1
102
RTVSPropertyOp1
 70
     1
102
RTVSPropertyOp2
 70
     1
102
RTVSPropertyOp3
 70
     1
102
RTVSPropertyOp4
 70
     1
102
RTVSPropertyOp5
 70
     1
102
RTVSPropertyOp6
 70
     1
102
RTVSPropertyOp7
 70
     1
102
RTVSPropertyOp8
 70
     1
102
RTVSPropertyOp9
 70
     1
102
RTVSPropertyOp10
 70
     1
102
RTVSPropertyOp11
 70
     1
102
RTVSPropertyOp12
 70
     1
102
RTVSPropertyOp13
 70
     1
102
RTVSPropertyOp14
 70
     1
102
RTVSPropertyOp15
 70
     1
102
RTVSPropertyOp16
 70
     1
102
RTVSPropertyOp17
 70
     1
102
RTVSPropertyOp18
 70
     1
102
RTVSPropertyOp19
 70
     1
102
RTVSPropertyOp20
 70
     1
102
RTVSPropertyOp21
 70
     1
102
RTVSPropertyOp22
 70
     1
102
RTVSPropertyOp23
 70
     1
102
RTVSPropertyOp24
 70
     1
102
RTVSPropertyOp25
 70
     1
102
RTVSPropertyOp26
 70
     1
102
RTVSPropertyOp27
 70
     1
102
RTVSPropertyOp28
 70
     1
102
RTVSPropertyOp29
 70
     1
102
RTVSPropertyOp30
 70
     1
102
RTVSPropertyOp31
 70
     1
102
RTVSPropertyOp32
 70
     1
102
RTVSPropertyOp33
 70
     1
102
RTVSPropertyOp34
 70
     1
102
RTVSPropertyOp35
 70
     1
102
RTVSPropertyOp36
 70
     1
102
RTVSPropertyOp37
 70
     1
102
RTVSPropertyOp38
 70
     1
102
RTVSPropertyOp39
 70
     1
102
RTVSPropertyOp40
 70
     1
102
RTVSPropertyOp41
 70
     1
102
RTVSPropertyOp42
 70
     1
102
RTVSPropertyOp43
 70
     1
102
RTVSPropertyOp44
 70
     1
102
RTVSPropertyOp45
 70
     1
102
RTVSPropertyOp46
 70
     1
102
RTVSPropertyOp47
 70
     1
102
RTVSPropertyOp48
 70
     1
102
RTVSPropertyOp49
 70
     1
102
RTVSPropertyOp50
 70
     1
102
RTVSPropertyOp51
 70
     0
102
RTVSPropertyOp52
 70
     0
102
RTVSPropertyOp53
 70
     1
102
RTVSPropertyOp54
 70
     1
102
RTVSPropertyOp55
 70
     1
102
RTVSPropertyOp56
 70
     1
102
RTVSPropertyOp57
 70
     1
102
RTVSPost2010Prop28
280
     0
102
RTVSPost2010PropOp28
 70
     1
102
RTVSPost2010Prop29
280
     1
102
RTVSPost2010PropOp29
 70
     1
102
RTVSPost2010Prop30
280
     1
102
RTVSPost2010PropOp30
 70
     1
102
RTVSPost2010Prop31
280
     0
102
RTVSPost2010PropOp31
 70
     1
102
RTVSPost2010Prop32
280
     0
102
RTVSPost2010PropOp32
 70
     1
102
RTVSPost2010Prop33
280
     0
102
RTVSPost2010PropOp33
 70
     1
102
RTVSPost2010Prop34
280
     0
102
RTVSPost2010PropOp34
 70
     1
102
RTVSPost2010Prop35
280
     0
102
RTVSPost2010PropOp35
 70
     1
102
RTVSPost2010Prop36
280
     0
102
RTVSPost2010PropOp36
 70
     1
102
RTVSPost2010Prop37
 90
       50
102
RTVSPost2010PropOp37
 70
     1
102
RTVSPost2010Prop38
140
0.0
102
RTVSPost2010PropOp38
 70
     1
102
RTVSPost2010Prop39
140
1.0
102
RTVSPost2010PropOp39
 70
     1
102
RTVSPost2010Prop40
 90
        0
102
RTVSPost2010PropOp40
 70
     1
102
RTVSPost2010Prop41ColorIndex
 90
       18
102
RTVSPost2010Prop41ColorRGB
 90
        0
102
RTVSPost2010PropOp41
 70
     1
102
RTVSPost2010Prop42
 90
       50
102
RTVSPost2010PropOp42
 70
     1
102
RTVSPost2010Prop43
 90
        3
102
RTVSPost2010PropOp43
 70
     1
102
RTVSPost2010Prop44ColorIndex
 90
        5
102
RTVSPost2010Prop44ColorRGB
 90
      255
102
RTVSPost2010PropOp44
 70
     1
102
RTVSPost2010Prop45
280
     0
102
RTVSPost2010PropOp45
 70
     1
102
RTVSPost2010Prop46
 90
       50
102
RTVSPost2010PropOp46
 70
     1
102
RTVSPost2010Prop47
 90
       50
102
RTVSPost2010PropOp47
 70
     1
102
RTVSPost2010Prop48
 90
       50
102
RTVSPost2010PropOp48
 70
     1
102
RTVSPost2010Prop49
280
     0
102
RTVSPost2010PropOp49
 70
     1
102
RTVSPost2010Prop50
 90
       50
102
RTVSPost2010PropOp50
 70
     1
102
RTVSPost2010Prop51ColorIndex
 90
      256
102
RTVSPost2010Prop51ColorRGB
 90
-16777216
102
RTVSPost2010PropOp51
 70
     0
102
RTVSPost2010Prop52
140
1.0
102
RTVSPost2010PropOp52
 70
     0
102
RTVSPost2010Prop53
 90
        2
102
RTVSPost2010PropOp53
 70
     1
102
RTVSPost2010Prop54
  1
strokes_ogs.tif
102
RTVSPost2010PropOp54
 70
     1
102
RTVSPost2010Prop55
280
     0
102
RTVSPost2010PropOp55
 70
     1
102
RTVSPost2010Prop56
140
1.0
102
RTVSPost2010PropOp56
 70
     1
102
RTVSPost2010Prop57
140
1.0
102
RTVSPost2010PropOp57
 70
     1
  0
XRECORD
  5
92AE5
102
{ACAD_REACTORS
330
87B1E
102
}
330
87B1E
100
AcDbXrecord
280
     1
102
RTVSPropertyOp0
 70
     1
102
RTVSPropertyOp1
 70
     1
102
RTVSPropertyOp2
 70
     1
102
RTVSPropertyOp3
 70
     1
102
RTVSPropertyOp4
 70
     1
102
RTVSPropertyOp5
 70
     1
102
RTVSPropertyOp6
 70
     1
102
RTVSPropertyOp7
 70
     1
102
RTVSPropertyOp8
 70
     1
102
RTVSPropertyOp9
 70
     1
102
RTVSPropertyOp10
 70
     1
102
RTVSPropertyOp11
 70
     1
102
RTVSPropertyOp12
 70
     1
102
RTVSPropertyOp13
 70
     1
102
RTVSPropertyOp14
 70
     1
102
RTVSPropertyOp15
 70
     1
102
RTVSPropertyOp16
 70
     1
102
RTVSPropertyOp17
 70
     1
102
RTVSPropertyOp18
 70
     1
102
RTVSPropertyOp19
 70
     1
102
RTVSPropertyOp20
 70
     1
102
RTVSPropertyOp21
 70
     1
102
RTVSPropertyOp22
 70
     1
102
RTVSPropertyOp23
 70
     1
102
RTVSPropertyOp24
 70
     1
102
RTVSPropertyOp25
 70
     1
102
RTVSPropertyOp26
 70
     1
102
RTVSPropertyOp27
 70
     1
102
RTVSPropertyOp28
 70
     1
102
RTVSPropertyOp29
 70
     1
102
RTVSPropertyOp30
 70
     1
102
RTVSPropertyOp31
 70
     1
102
RTVSPropertyOp32
 70
     1
102
RTVSPropertyOp33
 70
     1
102
RTVSPropertyOp34
 70
     1
102
RTVSPropertyOp35
 70
     1
102
RTVSPropertyOp36
 70
     1
102
RTVSPropertyOp37
 70
     1
102
RTVSPropertyOp38
 70
     1
102
RTVSPropertyOp39
 70
     1
102
RTVSPropertyOp40
 70
     1
102
RTVSPropertyOp41
 70
     1
102
RTVSPropertyOp42
 70
     1
102
RTVSPropertyOp43
 70
     1
102
RTVSPropertyOp44
 70
     1
102
RTVSPropertyOp45
 70
     1
102
RTVSPropertyOp46
 70
     1
102
RTVSPropertyOp47
 70
     1
102
RTVSPropertyOp48
 70
     1
102
RTVSPropertyOp49
 70
     1
102
RTVSPropertyOp50
 70
     1
102
RTVSPropertyOp51
 70
     0
102
RTVSPropertyOp52
 70
     0
102
RTVSPropertyOp53
 70
     1
102
RTVSPropertyOp54
 70
     1
102
RTVSPropertyOp55
 70
     1
102
RTVSPropertyOp56
 70
     1
102
RTVSPropertyOp57
 70
     1
102
RTVSPost2010Prop28
280
     0
102
RTVSPost2010PropOp28
 70
     1
102
RTVSPost2010Prop29
280
     1
102
RTVSPost2010PropOp29
 70
     1
102
RTVSPost2010Prop30
280
     1
102
RTVSPost2010PropOp30
 70
     1
102
RTVSPost2010Prop31
280
     0
102
RTVSPost2010PropOp31
 70
     1
102
RTVSPost2010Prop32
280
     0
102
RTVSPost2010PropOp32
 70
     1
102
RTVSPost2010Prop33
280
     0
102
RTVSPost2010PropOp33
 70
     1
102
RTVSPost2010Prop34
280
     0
102
RTVSPost2010PropOp34
 70
     1
102
RTVSPost2010Prop35
280
     0
102
RTVSPost2010PropOp35
 70
     1
102
RTVSPost2010Prop36
280
     0
102
RTVSPost2010PropOp36
 70
     1
102
RTVSPost2010Prop37
 90
       50
102
RTVSPost2010PropOp37
 70
     1
102
RTVSPost2010Prop38
140
0.0
102
RTVSPost2010PropOp38
 70
     1
102
RTVSPost2010Prop39
140
1.0
102
RTVSPost2010PropOp39
 70
     1
102
RTVSPost2010Prop40
 90
        0
102
RTVSPost2010PropOp40
 70
     1
102
RTVSPost2010Prop41ColorIndex
 90
       18
102
RTVSPost2010Prop41ColorRGB
 90
        0
102
RTVSPost2010PropOp41
 70
     1
102
RTVSPost2010Prop42
 90
       50
102
RTVSPost2010PropOp42
 70
     1
102
RTVSPost2010Prop43
 90
        3
102
RTVSPost2010PropOp43
 70
     1
102
RTVSPost2010Prop44ColorIndex
 90
        5
102
RTVSPost2010Prop44ColorRGB
 90
      255
102
RTVSPost2010PropOp44
 70
     1
102
RTVSPost2010Prop45
280
     0
102
RTVSPost2010PropOp45
 70
     1
102
RTVSPost2010Prop46
 90
       50
102
RTVSPost2010PropOp46
 70
     1
102
RTVSPost2010Prop47
 90
       50
102
RTVSPost2010PropOp47
 70
     1
102
RTVSPost2010Prop48
 90
       50
102
RTVSPost2010PropOp48
 70
     1
102
RTVSPost2010Prop49
280
     0
102
RTVSPost2010PropOp49
 70
     1
102
RTVSPost2010Prop50
 90
       50
102
RTVSPost2010PropOp50
 70
     1
102
RTVSPost2010Prop51ColorIndex
 90
      256
102
RTVSPost2010Prop51ColorRGB
 90
-16777216
102
RTVSPost2010PropOp51
 70
     0
102
RTVSPost2010Prop52
140
1.0
102
RTVSPost2010PropOp52
 70
     0
102
RTVSPost2010Prop53
 90
        2
102
RTVSPost2010PropOp53
 70
     1
102
RTVSPost2010Prop54
  1
strokes_ogs.tif
102
RTVSPost2010PropOp54
 70
     1
102
RTVSPost2010Prop55
280
     0
102
RTVSPost2010PropOp55
 70
     1
102
RTVSPost2010Prop56
140
1.0
102
RTVSPost2010PropOp56
 70
     1
102
RTVSPost2010Prop57
140
1.0
102
RTVSPost2010PropOp57
 70
     1
  0
XRECORD
  5
92AE6
102
{ACAD_REACTORS
330
87B22
102
}
330
87B22
100
AcDbXrecord
280
     1
102
RTVSPropertyOp0
 70
     1
102
RTVSPropertyOp1
 70
     1
102
RTVSPropertyOp2
 70
     1
102
RTVSPropertyOp3
 70
     1
102
RTVSPropertyOp4
 70
     1
102
RTVSPropertyOp5
 70
     1
102
RTVSPropertyOp6
 70
     1
102
RTVSPropertyOp7
 70
     1
102
RTVSPropertyOp8
 70
     1
102
RTVSPropertyOp9
 70
     1
102
RTVSPropertyOp10
 70
     1
102
RTVSPropertyOp11
 70
     1
102
RTVSPropertyOp12
 70
     1
102
RTVSPropertyOp13
 70
     1
102
RTVSPropertyOp14
 70
     1
102
RTVSPropertyOp15
 70
     1
102
RTVSPropertyOp16
 70
     1
102
RTVSPropertyOp17
 70
     1
102
RTVSPropertyOp18
 70
     1
102
RTVSPropertyOp19
 70
     1
102
RTVSPropertyOp20
 70
     1
102
RTVSPropertyOp21
 70
     1
102
RTVSPropertyOp22
 70
     1
102
RTVSPropertyOp23
 70
     1
102
RTVSPropertyOp24
 70
     1
102
RTVSPropertyOp25
 70
     1
102
RTVSPropertyOp26
 70
     1
102
RTVSPropertyOp27
 70
     1
102
RTVSPropertyOp28
 70
     1
102
RTVSPropertyOp29
 70
     1
102
RTVSPropertyOp30
 70
     1
102
RTVSPropertyOp31
 70
     1
102
RTVSPropertyOp32
 70
     1
102
RTVSPropertyOp33
 70
     1
102
RTVSPropertyOp34
 70
     1
102
RTVSPropertyOp35
 70
     1
102
RTVSPropertyOp36
 70
     1
102
RTVSPropertyOp37
 70
     1
102
RTVSPropertyOp38
 70
     1
102
RTVSPropertyOp39
 70
     1
102
RTVSPropertyOp40
 70
     1
102
RTVSPropertyOp41
 70
     1
102
RTVSPropertyOp42
 70
     1
102
RTVSPropertyOp43
 70
     1
102
RTVSPropertyOp44
 70
     1
102
RTVSPropertyOp45
 70
     1
102
RTVSPropertyOp46
 70
     1
102
RTVSPropertyOp47
 70
     1
102
RTVSPropertyOp48
 70
     1
102
RTVSPropertyOp49
 70
     1
102
RTVSPropertyOp50
 70
     1
102
RTVSPropertyOp51
 70
     0
102
RTVSPropertyOp52
 70
     0
102
RTVSPropertyOp53
 70
     1
102
RTVSPropertyOp54
 70
     1
102
RTVSPropertyOp55
 70
     1
102
RTVSPropertyOp56
 70
     1
102
RTVSPropertyOp57
 70
     1
102
RTVSPost2010Prop28
280
     0
102
RTVSPost2010PropOp28
 70
     1
102
RTVSPost2010Prop29
280
     1
102
RTVSPost2010PropOp29
 70
     1
102
RTVSPost2010Prop30
280
     1
102
RTVSPost2010PropOp30
 70
     1
102
RTVSPost2010Prop31
280
     0
102
RTVSPost2010PropOp31
 70
     1
102
RTVSPost2010Prop32
280
     0
102
RTVSPost2010PropOp32
 70
     1
102
RTVSPost2010Prop33
280
     0
102
RTVSPost2010PropOp33
 70
     1
102
RTVSPost2010Prop34
280
     0
102
RTVSPost2010PropOp34
 70
     1
102
RTVSPost2010Prop35
280
     0
102
RTVSPost2010PropOp35
 70
     1
102
RTVSPost2010Prop36
280
     0
102
RTVSPost2010PropOp36
 70
     1
102
RTVSPost2010Prop37
 90
       50
102
RTVSPost2010PropOp37
 70
     1
102
RTVSPost2010Prop38
140
0.0
102
RTVSPost2010PropOp38
 70
     1
102
RTVSPost2010Prop39
140
1.0
102
RTVSPost2010PropOp39
 70
     1
102
RTVSPost2010Prop40
 90
        0
102
RTVSPost2010PropOp40
 70
     1
102
RTVSPost2010Prop41ColorIndex
 90
       18
102
RTVSPost2010Prop41ColorRGB
 90
        0
102
RTVSPost2010PropOp41
 70
     1
102
RTVSPost2010Prop42
 90
       50
102
RTVSPost2010PropOp42
 70
     1
102
RTVSPost2010Prop43
 90
        3
102
RTVSPost2010PropOp43
 70
     1
102
RTVSPost2010Prop44ColorIndex
 90
        5
102
RTVSPost2010Prop44ColorRGB
 90
      255
102
RTVSPost2010PropOp44
 70
     1
102
RTVSPost2010Prop45
280
     0
102
RTVSPost2010PropOp45
 70
     1
102
RTVSPost2010Prop46
 90
       50
102
RTVSPost2010PropOp46
 70
     1
102
RTVSPost2010Prop47
 90
       50
102
RTVSPost2010PropOp47
 70
     1
102
RTVSPost2010Prop48
 90
       50
102
RTVSPost2010PropOp48
 70
     1
102
RTVSPost2010Prop49
280
     0
102
RTVSPost2010PropOp49
 70
     1
102
RTVSPost2010Prop50
 90
       50
102
RTVSPost2010PropOp50
 70
     1
102
RTVSPost2010Prop51ColorIndex
 90
      256
102
RTVSPost2010Prop51ColorRGB
 90
-16777216
102
RTVSPost2010PropOp51
 70
     0
102
RTVSPost2010Prop52
140
1.0
102
RTVSPost2010PropOp52
 70
     0
102
RTVSPost2010Prop53
 90
        2
102
RTVSPost2010PropOp53
 70
     1
102
RTVSPost2010Prop54
  1
strokes_ogs.tif
102
RTVSPost2010PropOp54
 70
     1
102
RTVSPost2010Prop55
280
     0
102
RTVSPost2010PropOp55
 70
     1
102
RTVSPost2010Prop56
140
1.0
102
RTVSPost2010PropOp56
 70
     1
102
RTVSPost2010Prop57
140
1.0
102
RTVSPost2010PropOp57
 70
     1
  0
XRECORD
  5
92AE7
102
{ACAD_REACTORS
330
87B3C
102
}
330
87B3C
100
AcDbXrecord
280
     1
102
RTVSPropertyOp0
 70
     0
102
RTVSPropertyOp1
 70
     0
102
RTVSPropertyOp2
 70
     0
102
RTVSPropertyOp3
 70
     0
102
RTVSPropertyOp4
 70
     0
102
RTVSPropertyOp5
 70
     0
102
RTVSPropertyOp6
 70
     0
102
RTVSPropertyOp7
 70
     0
102
RTVSPropertyOp8
 70
     0
102
RTVSPropertyOp9
 70
     0
102
RTVSPropertyOp10
 70
     0
102
RTVSPropertyOp11
 70
     0
102
RTVSPropertyOp12
 70
     0
102
RTVSPropertyOp13
 70
     0
102
RTVSPropertyOp14
 70
     2
102
RTVSPropertyOp15
 70
     0
102
RTVSPropertyOp16
 70
     0
102
RTVSPropertyOp17
 70
     0
102
RTVSPropertyOp18
 70
     0
102
RTVSPropertyOp19
 70
     0
102
RTVSPropertyOp20
 70
     0
102
RTVSPropertyOp21
 70
     0
102
RTVSPropertyOp22
 70
     0
102
RTVSPropertyOp23
 70
     0
102
RTVSPropertyOp24
 70
     0
102
RTVSPropertyOp25
 70
     0
102
RTVSPropertyOp26
 70
     0
102
RTVSPropertyOp27
 70
     0
102
RTVSPropertyOp28
 70
     1
102
RTVSPropertyOp29
 70
     1
102
RTVSPropertyOp30
 70
     1
102
RTVSPropertyOp31
 70
     1
102
RTVSPropertyOp32
 70
     1
102
RTVSPropertyOp33
 70
     1
102
RTVSPropertyOp34
 70
     1
102
RTVSPropertyOp35
 70
     1
102
RTVSPropertyOp36
 70
     1
102
RTVSPropertyOp37
 70
     0
102
RTVSPropertyOp38
 70
     0
102
RTVSPropertyOp39
 70
     0
102
RTVSPropertyOp40
 70
     0
102
RTVSPropertyOp41
 70
     0
102
RTVSPropertyOp42
 70
     0
102
RTVSPropertyOp43
 70
     0
102
RTVSPropertyOp44
 70
     0
102
RTVSPropertyOp45
 70
     1
102
RTVSPropertyOp46
 70
     0
102
RTVSPropertyOp47
 70
     0
102
RTVSPropertyOp48
 70
     0
102
RTVSPropertyOp49
 70
     1
102
RTVSPropertyOp50
 70
     0
102
RTVSPropertyOp51
 70
     0
102
RTVSPropertyOp52
 70
     0
102
RTVSPropertyOp53
 70
     0
102
RTVSPropertyOp54
 70
     0
102
RTVSPropertyOp55
 70
     1
102
RTVSPropertyOp56
 70
     0
102
RTVSPropertyOp57
 70
     0
102
RTVSPost2010Prop28
280
     0
102
RTVSPost2010PropOp28
 70
     1
102
RTVSPost2010Prop29
280
     1
102
RTVSPost2010PropOp29
 70
     1
102
RTVSPost2010Prop30
280
     1
102
RTVSPost2010PropOp30
 70
     1
102
RTVSPost2010Prop31
280
     0
102
RTVSPost2010PropOp31
 70
     1
102
RTVSPost2010Prop32
280
     0
102
RTVSPost2010PropOp32
 70
     1
102
RTVSPost2010Prop33
280
     0
102
RTVSPost2010PropOp33
 70
     1
102
RTVSPost2010Prop34
280
     0
102
RTVSPost2010PropOp34
 70
     1
102
RTVSPost2010Prop35
280
     0
102
RTVSPost2010PropOp35
 70
     1
102
RTVSPost2010Prop36
280
     0
102
RTVSPost2010PropOp36
 70
     1
102
RTVSPost2010Prop37
 90
       50
102
RTVSPost2010PropOp37
 70
     0
102
RTVSPost2010Prop38
140
0.0
102
RTVSPost2010PropOp38
 70
     0
102
RTVSPost2010Prop39
140
1.0
102
RTVSPost2010PropOp39
 70
     0
102
RTVSPost2010Prop40
 90
        0
102
RTVSPost2010PropOp40
 70
     0
102
RTVSPost2010Prop41ColorIndex
 90
       18
102
RTVSPost2010Prop41ColorRGB
 90
        0
102
RTVSPost2010PropOp41
 70
     0
102
RTVSPost2010Prop42
 90
       50
102
RTVSPost2010PropOp42
 70
     0
102
RTVSPost2010Prop43
 90
        3
102
RTVSPost2010PropOp43
 70
     0
102
RTVSPost2010Prop44ColorIndex
 90
        5
102
RTVSPost2010Prop44ColorRGB
 90
      255
102
RTVSPost2010PropOp44
 70
     0
102
RTVSPost2010Prop45
280
     0
102
RTVSPost2010PropOp45
 70
     1
102
RTVSPost2010Prop46
 90
       50
102
RTVSPost2010PropOp46
 70
     0
102
RTVSPost2010Prop47
 90
       50
102
RTVSPost2010PropOp47
 70
     0
102
RTVSPost2010Prop48
 90
       50
102
RTVSPost2010PropOp48
 70
     0
102
RTVSPost2010Prop49
280
     0
102
RTVSPost2010PropOp49
 70
     1
102
RTVSPost2010Prop50
 90
       50
102
RTVSPost2010PropOp50
 70
     0
102
RTVSPost2010Prop51ColorIndex
 90
      256
102
RTVSPost2010Prop51ColorRGB
 90
-16777216
102
RTVSPost2010PropOp51
 70
     0
102
RTVSPost2010Prop52
140
1.0
102
RTVSPost2010PropOp52
 70
     0
102
RTVSPost2010Prop53
 90
        2
102
RTVSPost2010PropOp53
 70
     0
102
RTVSPost2010Prop54
  1
strokes_ogs.tif
102
RTVSPost2010PropOp54
 70
     0
102
RTVSPost2010Prop55
280
     0
102
RTVSPost2010PropOp55
 70
     1
102
RTVSPost2010Prop56
140
1.0
102
RTVSPost2010PropOp56
 70
     0
102
RTVSPost2010Prop57
140
1.0
102
RTVSPost2010PropOp57
 70
     0
  0
XRECORD
  5
92AE8
102
{ACAD_REACTORS
330
87B2A
102
}
330
87B2A
100
AcDbXrecord
280
     1
102
RTVSPropertyOp0
 70
     1
102
RTVSPropertyOp1
 70
     1
102
RTVSPropertyOp2
 70
     1
102
RTVSPropertyOp3
 70
     1
102
RTVSPropertyOp4
 70
     1
102
RTVSPropertyOp5
 70
     1
102
RTVSPropertyOp6
 70
     1
102
RTVSPropertyOp7
 70
     1
102
RTVSPropertyOp8
 70
     1
102
RTVSPropertyOp9
 70
     1
102
RTVSPropertyOp10
 70
     1
102
RTVSPropertyOp11
 70
     1
102
RTVSPropertyOp12
 70
     1
102
RTVSPropertyOp13
 70
     1
102
RTVSPropertyOp14
 70
     1
102
RTVSPropertyOp15
 70
     1
102
RTVSPropertyOp16
 70
     1
102
RTVSPropertyOp17
 70
     1
102
RTVSPropertyOp18
 70
     1
102
RTVSPropertyOp19
 70
     1
102
RTVSPropertyOp20
 70
     1
102
RTVSPropertyOp21
 70
     1
102
RTVSPropertyOp22
 70
     1
102
RTVSPropertyOp23
 70
     1
102
RTVSPropertyOp24
 70
     1
102
RTVSPropertyOp25
 70
     1
102
RTVSPropertyOp26
 70
     1
102
RTVSPropertyOp27
 70
     1
102
RTVSPropertyOp28
 70
     1
102
RTVSPropertyOp29
 70
     1
102
RTVSPropertyOp30
 70
     1
102
RTVSPropertyOp31
 70
     1
102
RTVSPropertyOp32
 70
     1
102
RTVSPropertyOp33
 70
     1
102
RTVSPropertyOp34
 70
     1
102
RTVSPropertyOp35
 70
     1
102
RTVSPropertyOp36
 70
     1
102
RTVSPropertyOp37
 70
     1
102
RTVSPropertyOp38
 70
     1
102
RTVSPropertyOp39
 70
     1
102
RTVSPropertyOp40
 70
     1
102
RTVSPropertyOp41
 70
     1
102
RTVSPropertyOp42
 70
     1
102
RTVSPropertyOp43
 70
     1
102
RTVSPropertyOp44
 70
     1
102
RTVSPropertyOp45
 70
     1
102
RTVSPropertyOp46
 70
     1
102
RTVSPropertyOp47
 70
     1
102
RTVSPropertyOp48
 70
     1
102
RTVSPropertyOp49
 70
     1
102
RTVSPropertyOp50
 70
     1
102
RTVSPropertyOp51
 70
     0
102
RTVSPropertyOp52
 70
     0
102
RTVSPropertyOp53
 70
     1
102
RTVSPropertyOp54
 70
     1
102
RTVSPropertyOp55
 70
     1
102
RTVSPropertyOp56
 70
     1
102
RTVSPropertyOp57
 70
     1
102
RTVSPost2010Prop28
280
     0
102
RTVSPost2010PropOp28
 70
     1
102
RTVSPost2010Prop29
280
     1
102
RTVSPost2010PropOp29
 70
     1
102
RTVSPost2010Prop30
280
     1
102
RTVSPost2010PropOp30
 70
     1
102
RTVSPost2010Prop31
280
     0
102
RTVSPost2010PropOp31
 70
     1
102
RTVSPost2010Prop32
280
     0
102
RTVSPost2010PropOp32
 70
     1
102
RTVSPost2010Prop33
280
     0
102
RTVSPost2010PropOp33
 70
     1
102
RTVSPost2010Prop34
280
     0
102
RTVSPost2010PropOp34
 70
     1
102
RTVSPost2010Prop35
280
     0
102
RTVSPost2010PropOp35
 70
     1
102
RTVSPost2010Prop36
280
     0
102
RTVSPost2010PropOp36
 70
     1
102
RTVSPost2010Prop37
 90
       50
102
RTVSPost2010PropOp37
 70
     1
102
RTVSPost2010Prop38
140
0.0
102
RTVSPost2010PropOp38
 70
     1
102
RTVSPost2010Prop39
140
1.0
102
RTVSPost2010PropOp39
 70
     1
102
RTVSPost2010Prop40
 90
        0
102
RTVSPost2010PropOp40
 70
     1
102
RTVSPost2010Prop41ColorIndex
 90
       18
102
RTVSPost2010Prop41ColorRGB
 90
        0
102
RTVSPost2010PropOp41
 70
     1
102
RTVSPost2010Prop42
 90
       50
102
RTVSPost2010PropOp42
 70
     1
102
RTVSPost2010Prop43
 90
        3
102
RTVSPost2010PropOp43
 70
     1
102
RTVSPost2010Prop44ColorIndex
 90
        5
102
RTVSPost2010Prop44ColorRGB
 90
      255
102
RTVSPost2010PropOp44
 70
     1
102
RTVSPost2010Prop45
280
     0
102
RTVSPost2010PropOp45
 70
     1
102
RTVSPost2010Prop46
 90
       50
102
RTVSPost2010PropOp46
 70
     1
102
RTVSPost2010Prop47
 90
       50
102
RTVSPost2010PropOp47
 70
     1
102
RTVSPost2010Prop48
 90
       50
102
RTVSPost2010PropOp48
 70
     1
102
RTVSPost2010Prop49
280
     0
102
RTVSPost2010PropOp49
 70
     1
102
RTVSPost2010Prop50
 90
       50
102
RTVSPost2010PropOp50
 70
     1
102
RTVSPost2010Prop51ColorIndex
 90
      256
102
RTVSPost2010Prop51ColorRGB
 90
-16777216
102
RTVSPost2010PropOp51
 70
     0
102
RTVSPost2010Prop52
140
1.0
102
RTVSPost2010PropOp52
 70
     0
102
RTVSPost2010Prop53
 90
        2
102
RTVSPost2010PropOp53
 70
     1
102
RTVSPost2010Prop54
  1
strokes_ogs.tif
102
RTVSPost2010PropOp54
 70
     1
102
RTVSPost2010Prop55
280
     0
102
RTVSPost2010PropOp55
 70
     1
102
RTVSPost2010Prop56
140
1.0
102
RTVSPost2010PropOp56
 70
     1
102
RTVSPost2010Prop57
140
1.0
102
RTVSPost2010PropOp57
 70
     1
  0
XRECORD
  5
92AE9
102
{ACAD_REACTORS
330
87B0E
102
}
330
87B0E
100
AcDbXrecord
280
     1
102
RTVSPropertyOp0
 70
     1
102
RTVSPropertyOp1
 70
     1
102
RTVSPropertyOp2
 70
     1
102
RTVSPropertyOp3
 70
     1
102
RTVSPropertyOp4
 70
     1
102
RTVSPropertyOp5
 70
     1
102
RTVSPropertyOp6
 70
     1
102
RTVSPropertyOp7
 70
     1
102
RTVSPropertyOp8
 70
     1
102
RTVSPropertyOp9
 70
     1
102
RTVSPropertyOp10
 70
     1
102
RTVSPropertyOp11
 70
     1
102
RTVSPropertyOp12
 70
     1
102
RTVSPropertyOp13
 70
     1
102
RTVSPropertyOp14
 70
     1
102
RTVSPropertyOp15
 70
     1
102
RTVSPropertyOp16
 70
     1
102
RTVSPropertyOp17
 70
     1
102
RTVSPropertyOp18
 70
     1
102
RTVSPropertyOp19
 70
     1
102
RTVSPropertyOp20
 70
     1
102
RTVSPropertyOp21
 70
     1
102
RTVSPropertyOp22
 70
     1
102
RTVSPropertyOp23
 70
     1
102
RTVSPropertyOp24
 70
     1
102
RTVSPropertyOp25
 70
     1
102
RTVSPropertyOp26
 70
     1
102
RTVSPropertyOp27
 70
     1
102
RTVSPropertyOp28
 70
     1
102
RTVSPropertyOp29
 70
     1
102
RTVSPropertyOp30
 70
     1
102
RTVSPropertyOp31
 70
     1
102
RTVSPropertyOp32
 70
     1
102
RTVSPropertyOp33
 70
     1
102
RTVSPropertyOp34
 70
     1
102
RTVSPropertyOp35
 70
     1
102
RTVSPropertyOp36
 70
     1
102
RTVSPropertyOp37
 70
     1
102
RTVSPropertyOp38
 70
     1
102
RTVSPropertyOp39
 70
     1
102
RTVSPropertyOp40
 70
     1
102
RTVSPropertyOp41
 70
     1
102
RTVSPropertyOp42
 70
     1
102
RTVSPropertyOp43
 70
     1
102
RTVSPropertyOp44
 70
     1
102
RTVSPropertyOp45
 70
     1
102
RTVSPropertyOp46
 70
     1
102
RTVSPropertyOp47
 70
     1
102
RTVSPropertyOp48
 70
     1
102
RTVSPropertyOp49
 70
     1
102
RTVSPropertyOp50
 70
     1
102
RTVSPropertyOp51
 70
     0
102
RTVSPropertyOp52
 70
     0
102
RTVSPropertyOp53
 70
     1
102
RTVSPropertyOp54
 70
     1
102
RTVSPropertyOp55
 70
     1
102
RTVSPropertyOp56
 70
     1
102
RTVSPropertyOp57
 70
     1
102
RTVSPost2010Prop28
280
     0
102
RTVSPost2010PropOp28
 70
     1
102
RTVSPost2010Prop29
280
     1
102
RTVSPost2010PropOp29
 70
     1
102
RTVSPost2010Prop30
280
     1
102
RTVSPost2010PropOp30
 70
     1
102
RTVSPost2010Prop31
280
     0
102
RTVSPost2010PropOp31
 70
     1
102
RTVSPost2010Prop32
280
     0
102
RTVSPost2010PropOp32
 70
     1
102
RTVSPost2010Prop33
280
     0
102
RTVSPost2010PropOp33
 70
     1
102
RTVSPost2010Prop34
280
     0
102
RTVSPost2010PropOp34
 70
     1
102
RTVSPost2010Prop35
280
     0
102
RTVSPost2010PropOp35
 70
     1
102
RTVSPost2010Prop36
280
     0
102
RTVSPost2010PropOp36
 70
     1
102
RTVSPost2010Prop37
 90
       50
102
RTVSPost2010PropOp37
 70
     1
102
RTVSPost2010Prop38
140
0.0
102
RTVSPost2010PropOp38
 70
     1
102
RTVSPost2010Prop39
140
1.0
102
RTVSPost2010PropOp39
 70
     1
102
RTVSPost2010Prop40
 90
        0
102
RTVSPost2010PropOp40
 70
     1
102
RTVSPost2010Prop41ColorIndex
 90
       18
102
RTVSPost2010Prop41ColorRGB
 90
        0
102
RTVSPost2010PropOp41
 70
     1
102
RTVSPost2010Prop42
 90
       50
102
RTVSPost2010PropOp42
 70
     1
102
RTVSPost2010Prop43
 90
        3
102
RTVSPost2010PropOp43
 70
     1
102
RTVSPost2010Prop44ColorIndex
 90
        5
102
RTVSPost2010Prop44ColorRGB
 90
      255
102
RTVSPost2010PropOp44
 70
     1
102
RTVSPost2010Prop45
280
     0
102
RTVSPost2010PropOp45
 70
     1
102
RTVSPost2010Prop46
 90
       50
102
RTVSPost2010PropOp46
 70
     1
102
RTVSPost2010Prop47
 90
       50
102
RTVSPost2010PropOp47
 70
     1
102
RTVSPost2010Prop48
 90
       50
102
RTVSPost2010PropOp48
 70
     1
102
RTVSPost2010Prop49
280
     0
102
RTVSPost2010PropOp49
 70
     1
102
RTVSPost2010Prop50
 90
       50
102
RTVSPost2010PropOp50
 70
     1
102
RTVSPost2010Prop51ColorIndex
 90
      256
102
RTVSPost2010Prop51ColorRGB
 90
-16777216
102
RTVSPost2010PropOp51
 70
     0
102
RTVSPost2010Prop52
140
1.0
102
RTVSPost2010PropOp52
 70
     0
102
RTVSPost2010Prop53
 90
        2
102
RTVSPost2010PropOp53
 70
     1
102
RTVSPost2010Prop54
  1
strokes_ogs.tif
102
RTVSPost2010PropOp54
 70
     1
102
RTVSPost2010Prop55
280
     0
102
RTVSPost2010PropOp55
 70
     1
102
RTVSPost2010Prop56
140
1.0
102
RTVSPost2010PropOp56
 70
     1
102
RTVSPost2010Prop57
140
1.0
102
RTVSPost2010PropOp57
 70
     1
  0
XRECORD
  5
92AEA
102
{ACAD_REACTORS
330
87B10
102
}
330
87B10
100
AcDbXrecord
280
     1
102
RTVSPropertyOp0
 70
     1
102
RTVSPropertyOp1
 70
     1
102
RTVSPropertyOp2
 70
     1
102
RTVSPropertyOp3
 70
     1
102
RTVSPropertyOp4
 70
     1
102
RTVSPropertyOp5
 70
     1
102
RTVSPropertyOp6
 70
     1
102
RTVSPropertyOp7
 70
     1
102
RTVSPropertyOp8
 70
     1
102
RTVSPropertyOp9
 70
     1
102
RTVSPropertyOp10
 70
     1
102
RTVSPropertyOp11
 70
     1
102
RTVSPropertyOp12
 70
     1
102
RTVSPropertyOp13
 70
     1
102
RTVSPropertyOp14
 70
     1
102
RTVSPropertyOp15
 70
     1
102
RTVSPropertyOp16
 70
     1
102
RTVSPropertyOp17
 70
     1
102
RTVSPropertyOp18
 70
     1
102
RTVSPropertyOp19
 70
     1
102
RTVSPropertyOp20
 70
     1
102
RTVSPropertyOp21
 70
     1
102
RTVSPropertyOp22
 70
     1
102
RTVSPropertyOp23
 70
     1
102
RTVSPropertyOp24
 70
     1
102
RTVSPropertyOp25
 70
     1
102
RTVSPropertyOp26
 70
     1
102
RTVSPropertyOp27
 70
     1
102
RTVSPropertyOp28
 70
     1
102
RTVSPropertyOp29
 70
     1
102
RTVSPropertyOp30
 70
     1
102
RTVSPropertyOp31
 70
     1
102
RTVSPropertyOp32
 70
     1
102
RTVSPropertyOp33
 70
     1
102
RTVSPropertyOp34
 70
     1
102
RTVSPropertyOp35
 70
     1
102
RTVSPropertyOp36
 70
     1
102
RTVSPropertyOp37
 70
     1
102
RTVSPropertyOp38
 70
     1
102
RTVSPropertyOp39
 70
     1
102
RTVSPropertyOp40
 70
     1
102
RTVSPropertyOp41
 70
     1
102
RTVSPropertyOp42
 70
     1
102
RTVSPropertyOp43
 70
     1
102
RTVSPropertyOp44
 70
     1
102
RTVSPropertyOp45
 70
     1
102
RTVSPropertyOp46
 70
     1
102
RTVSPropertyOp47
 70
     1
102
RTVSPropertyOp48
 70
     1
102
RTVSPropertyOp49
 70
     1
102
RTVSPropertyOp50
 70
     1
102
RTVSPropertyOp51
 70
     0
102
RTVSPropertyOp52
 70
     0
102
RTVSPropertyOp53
 70
     1
102
RTVSPropertyOp54
 70
     1
102
RTVSPropertyOp55
 70
     1
102
RTVSPropertyOp56
 70
     1
102
RTVSPropertyOp57
 70
     1
102
RTVSPost2010Prop28
280
     0
102
RTVSPost2010PropOp28
 70
     1
102
RTVSPost2010Prop29
280
     1
102
RTVSPost2010PropOp29
 70
     1
102
RTVSPost2010Prop30
280
     1
102
RTVSPost2010PropOp30
 70
     1
102
RTVSPost2010Prop31
280
     0
102
RTVSPost2010PropOp31
 70
     1
102
RTVSPost2010Prop32
280
     0
102
RTVSPost2010PropOp32
 70
     1
102
RTVSPost2010Prop33
280
     0
102
RTVSPost2010PropOp33
 70
     1
102
RTVSPost2010Prop34
280
     0
102
RTVSPost2010PropOp34
 70
     1
102
RTVSPost2010Prop35
280
     0
102
RTVSPost2010PropOp35
 70
     1
102
RTVSPost2010Prop36
280
     0
102
RTVSPost2010PropOp36
 70
     1
102
RTVSPost2010Prop37
 90
       50
102
RTVSPost2010PropOp37
 70
     1
102
RTVSPost2010Prop38
140
0.0
102
RTVSPost2010PropOp38
 70
     1
102
RTVSPost2010Prop39
140
1.0
102
RTVSPost2010PropOp39
 70
     1
102
RTVSPost2010Prop40
 90
        0
102
RTVSPost2010PropOp40
 70
     1
102
RTVSPost2010Prop41ColorIndex
 90
       18
102
RTVSPost2010Prop41ColorRGB
 90
        0
102
RTVSPost2010PropOp41
 70
     1
102
RTVSPost2010Prop42
 90
       50
102
RTVSPost2010PropOp42
 70
     1
102
RTVSPost2010Prop43
 90
        3
102
RTVSPost2010PropOp43
 70
     1
102
RTVSPost2010Prop44ColorIndex
 90
        5
102
RTVSPost2010Prop44ColorRGB
 90
      255
102
RTVSPost2010PropOp44
 70
     1
102
RTVSPost2010Prop45
280
     0
102
RTVSPost2010PropOp45
 70
     1
102
RTVSPost2010Prop46
 90
       50
102
RTVSPost2010PropOp46
 70
     1
102
RTVSPost2010Prop47
 90
       50
102
RTVSPost2010PropOp47
 70
     1
102
RTVSPost2010Prop48
 90
       50
102
RTVSPost2010PropOp48
 70
     1
102
RTVSPost2010Prop49
280
     0
102
RTVSPost2010PropOp49
 70
     1
102
RTVSPost2010Prop50
 90
       50
102
RTVSPost2010PropOp50
 70
     1
102
RTVSPost2010Prop51ColorIndex
 90
      256
102
RTVSPost2010Prop51ColorRGB
 90
-16777216
102
RTVSPost2010PropOp51
 70
     0
102
RTVSPost2010Prop52
140
1.0
102
RTVSPost2010PropOp52
 70
     0
102
RTVSPost2010Prop53
 90
        2
102
RTVSPost2010PropOp53
 70
     1
102
RTVSPost2010Prop54
  1
strokes_ogs.tif
102
RTVSPost2010PropOp54
 70
     1
102
RTVSPost2010Prop55
280
     0
102
RTVSPost2010PropOp55
 70
     1
102
RTVSPost2010Prop56
140
1.0
102
RTVSPost2010PropOp56
 70
     1
102
RTVSPost2010Prop57
140
1.0
102
RTVSPost2010PropOp57
 70
     1
  0
XRECORD
  5
92AEB
102
{ACAD_REACTORS
330
87B12
102
}
330
87B12
100
AcDbXrecord
280
     1
102
RTVSPropertyOp0
 70
     1
102
RTVSPropertyOp1
 70
     1
102
RTVSPropertyOp2
 70
     1
102
RTVSPropertyOp3
 70
     1
102
RTVSPropertyOp4
 70
     1
102
RTVSPropertyOp5
 70
     1
102
RTVSPropertyOp6
 70
     1
102
RTVSPropertyOp7
 70
     1
102
RTVSPropertyOp8
 70
     1
102
RTVSPropertyOp9
 70
     1
102
RTVSPropertyOp10
 70
     1
102
RTVSPropertyOp11
 70
     1
102
RTVSPropertyOp12
 70
     1
102
RTVSPropertyOp13
 70
     1
102
RTVSPropertyOp14
 70
     1
102
RTVSPropertyOp15
 70
     1
102
RTVSPropertyOp16
 70
     1
102
RTVSPropertyOp17
 70
     1
102
RTVSPropertyOp18
 70
     1
102
RTVSPropertyOp19
 70
     1
102
RTVSPropertyOp20
 70
     1
102
RTVSPropertyOp21
 70
     1
102
RTVSPropertyOp22
 70
     1
102
RTVSPropertyOp23
 70
     1
102
RTVSPropertyOp24
 70
     1
102
RTVSPropertyOp25
 70
     1
102
RTVSPropertyOp26
 70
     1
102
RTVSPropertyOp27
 70
     1
102
RTVSPropertyOp28
 70
     1
102
RTVSPropertyOp29
 70
     1
102
RTVSPropertyOp30
 70
     1
102
RTVSPropertyOp31
 70
     1
102
RTVSPropertyOp32
 70
     1
102
RTVSPropertyOp33
 70
     1
102
RTVSPropertyOp34
 70
     1
102
RTVSPropertyOp35
 70
     1
102
RTVSPropertyOp36
 70
     1
102
RTVSPropertyOp37
 70
     1
102
RTVSPropertyOp38
 70
     1
102
RTVSPropertyOp39
 70
     1
102
RTVSPropertyOp40
 70
     1
102
RTVSPropertyOp41
 70
     1
102
RTVSPropertyOp42
 70
     1
102
RTVSPropertyOp43
 70
     1
102
RTVSPropertyOp44
 70
     1
102
RTVSPropertyOp45
 70
     1
102
RTVSPropertyOp46
 70
     1
102
RTVSPropertyOp47
 70
     1
102
RTVSPropertyOp48
 70
     1
102
RTVSPropertyOp49
 70
     1
102
RTVSPropertyOp50
 70
     1
102
RTVSPropertyOp51
 70
     0
102
RTVSPropertyOp52
 70
     0
102
RTVSPropertyOp53
 70
     1
102
RTVSPropertyOp54
 70
     1
102
RTVSPropertyOp55
 70
     1
102
RTVSPropertyOp56
 70
     1
102
RTVSPropertyOp57
 70
     1
102
RTVSPost2010Prop28
280
     0
102
RTVSPost2010PropOp28
 70
     1
102
RTVSPost2010Prop29
280
     1
102
RTVSPost2010PropOp29
 70
     1
102
RTVSPost2010Prop30
280
     1
102
RTVSPost2010PropOp30
 70
     1
102
RTVSPost2010Prop31
280
     0
102
RTVSPost2010PropOp31
 70
     1
102
RTVSPost2010Prop32
280
     0
102
RTVSPost2010PropOp32
 70
     1
102
RTVSPost2010Prop33
280
     0
102
RTVSPost2010PropOp33
 70
     1
102
RTVSPost2010Prop34
280
     0
102
RTVSPost2010PropOp34
 70
     1
102
RTVSPost2010Prop35
280
     0
102
RTVSPost2010PropOp35
 70
     1
102
RTVSPost2010Prop36
280
     0
102
RTVSPost2010PropOp36
 70
     1
102
RTVSPost2010Prop37
 90
       50
102
RTVSPost2010PropOp37
 70
     1
102
RTVSPost2010Prop38
140
0.0
102
RTVSPost2010PropOp38
 70
     1
102
RTVSPost2010Prop39
140
1.0
102
RTVSPost2010PropOp39
 70
     1
102
RTVSPost2010Prop40
 90
        0
102
RTVSPost2010PropOp40
 70
     1
102
RTVSPost2010Prop41ColorIndex
 90
       18
102
RTVSPost2010Prop41ColorRGB
 90
        0
102
RTVSPost2010PropOp41
 70
     1
102
RTVSPost2010Prop42
 90
       50
102
RTVSPost2010PropOp42
 70
     1
102
RTVSPost2010Prop43
 90
        3
102
RTVSPost2010PropOp43
 70
     1
102
RTVSPost2010Prop44ColorIndex
 90
        5
102
RTVSPost2010Prop44ColorRGB
 90
      255
102
RTVSPost2010PropOp44
 70
     1
102
RTVSPost2010Prop45
280
     0
102
RTVSPost2010PropOp45
 70
     1
102
RTVSPost2010Prop46
 90
       50
102
RTVSPost2010PropOp46
 70
     1
102
RTVSPost2010Prop47
 90
       50
102
RTVSPost2010PropOp47
 70
     1
102
RTVSPost2010Prop48
 90
       50
102
RTVSPost2010PropOp48
 70
     1
102
RTVSPost2010Prop49
280
     0
102
RTVSPost2010PropOp49
 70
     1
102
RTVSPost2010Prop50
 90
       50
102
RTVSPost2010PropOp50
 70
     1
102
RTVSPost2010Prop51ColorIndex
 90
      256
102
RTVSPost2010Prop51ColorRGB
 90
-16777216
102
RTVSPost2010PropOp51
 70
     0
102
RTVSPost2010Prop52
140
1.0
102
RTVSPost2010PropOp52
 70
     0
102
RTVSPost2010Prop53
 90
        2
102
RTVSPost2010PropOp53
 70
     1
102
RTVSPost2010Prop54
  1
strokes_ogs.tif
102
RTVSPost2010PropOp54
 70
     1
102
RTVSPost2010Prop55
280
     0
102
RTVSPost2010PropOp55
 70
     1
102
RTVSPost2010Prop56
140
1.0
102
RTVSPost2010PropOp56
 70
     1
102
RTVSPost2010Prop57
140
1.0
102
RTVSPost2010PropOp57
 70
     1
  0
XRECORD
  5
92AEC
102
{ACAD_REACTORS
330
87B14
102
}
330
87B14
100
AcDbXrecord
280
     1
102
RTVSPropertyOp0
 70
     1
102
RTVSPropertyOp1
 70
     1
102
RTVSPropertyOp2
 70
     1
102
RTVSPropertyOp3
 70
     1
102
RTVSPropertyOp4
 70
     1
102
RTVSPropertyOp5
 70
     1
102
RTVSPropertyOp6
 70
     1
102
RTVSPropertyOp7
 70
     1
102
RTVSPropertyOp8
 70
     1
102
RTVSPropertyOp9
 70
     1
102
RTVSPropertyOp10
 70
     1
102
RTVSPropertyOp11
 70
     1
102
RTVSPropertyOp12
 70
     1
102
RTVSPropertyOp13
 70
     1
102
RTVSPropertyOp14
 70
     1
102
RTVSPropertyOp15
 70
     1
102
RTVSPropertyOp16
 70
     1
102
RTVSPropertyOp17
 70
     1
102
RTVSPropertyOp18
 70
     1
102
RTVSPropertyOp19
 70
     1
102
RTVSPropertyOp20
 70
     1
102
RTVSPropertyOp21
 70
     1
102
RTVSPropertyOp22
 70
     1
102
RTVSPropertyOp23
 70
     1
102
RTVSPropertyOp24
 70
     1
102
RTVSPropertyOp25
 70
     1
102
RTVSPropertyOp26
 70
     1
102
RTVSPropertyOp27
 70
     1
102
RTVSPropertyOp28
 70
     1
102
RTVSPropertyOp29
 70
     1
102
RTVSPropertyOp30
 70
     1
102
RTVSPropertyOp31
 70
     1
102
RTVSPropertyOp32
 70
     1
102
RTVSPropertyOp33
 70
     1
102
RTVSPropertyOp34
 70
     1
102
RTVSPropertyOp35
 70
     1
102
RTVSPropertyOp36
 70
     1
102
RTVSPropertyOp37
 70
     1
102
RTVSPropertyOp38
 70
     1
102
RTVSPropertyOp39
 70
     1
102
RTVSPropertyOp40
 70
     1
102
RTVSPropertyOp41
 70
     1
102
RTVSPropertyOp42
 70
     1
102
RTVSPropertyOp43
 70
     1
102
RTVSPropertyOp44
 70
     1
102
RTVSPropertyOp45
 70
     1
102
RTVSPropertyOp46
 70
     1
102
RTVSPropertyOp47
 70
     1
102
RTVSPropertyOp48
 70
     1
102
RTVSPropertyOp49
 70
     1
102
RTVSPropertyOp50
 70
     1
102
RTVSPropertyOp51
 70
     0
102
RTVSPropertyOp52
 70
     0
102
RTVSPropertyOp53
 70
     1
102
RTVSPropertyOp54
 70
     1
102
RTVSPropertyOp55
 70
     1
102
RTVSPropertyOp56
 70
     1
102
RTVSPropertyOp57
 70
     1
102
RTVSPost2010Prop28
280
     0
102
RTVSPost2010PropOp28
 70
     1
102
RTVSPost2010Prop29
280
     1
102
RTVSPost2010PropOp29
 70
     1
102
RTVSPost2010Prop30
280
     1
102
RTVSPost2010PropOp30
 70
     1
102
RTVSPost2010Prop31
280
     0
102
RTVSPost2010PropOp31
 70
     1
102
RTVSPost2010Prop32
280
     0
102
RTVSPost2010PropOp32
 70
     1
102
RTVSPost2010Prop33
280
     0
102
RTVSPost2010PropOp33
 70
     1
102
RTVSPost2010Prop34
280
     0
102
RTVSPost2010PropOp34
 70
     1
102
RTVSPost2010Prop35
280
     0
102
RTVSPost2010PropOp35
 70
     1
102
RTVSPost2010Prop36
280
     0
102
RTVSPost2010PropOp36
 70
     1
102
RTVSPost2010Prop37
 90
       50
102
RTVSPost2010PropOp37
 70
     1
102
RTVSPost2010Prop38
140
0.0
102
RTVSPost2010PropOp38
 70
     1
102
RTVSPost2010Prop39
140
1.0
102
RTVSPost2010PropOp39
 70
     1
102
RTVSPost2010Prop40
 90
        0
102
RTVSPost2010PropOp40
 70
     1
102
RTVSPost2010Prop41ColorIndex
 90
       18
102
RTVSPost2010Prop41ColorRGB
 90
        0
102
RTVSPost2010PropOp41
 70
     1
102
RTVSPost2010Prop42
 90
       50
102
RTVSPost2010PropOp42
 70
     1
102
RTVSPost2010Prop43
 90
        3
102
RTVSPost2010PropOp43
 70
     1
102
RTVSPost2010Prop44ColorIndex
 90
        5
102
RTVSPost2010Prop44ColorRGB
 90
      255
102
RTVSPost2010PropOp44
 70
     1
102
RTVSPost2010Prop45
280
     0
102
RTVSPost2010PropOp45
 70
     1
102
RTVSPost2010Prop46
 90
       50
102
RTVSPost2010PropOp46
 70
     1
102
RTVSPost2010Prop47
 90
       50
102
RTVSPost2010PropOp47
 70
     1
102
RTVSPost2010Prop48
 90
       50
102
RTVSPost2010PropOp48
 70
     1
102
RTVSPost2010Prop49
280
     0
102
RTVSPost2010PropOp49
 70
     1
102
RTVSPost2010Prop50
 90
       50
102
RTVSPost2010PropOp50
 70
     1
102
RTVSPost2010Prop51ColorIndex
 90
      256
102
RTVSPost2010Prop51ColorRGB
 90
-16777216
102
RTVSPost2010PropOp51
 70
     0
102
RTVSPost2010Prop52
140
1.0
102
RTVSPost2010PropOp52
 70
     0
102
RTVSPost2010Prop53
 90
        2
102
RTVSPost2010PropOp53
 70
     1
102
RTVSPost2010Prop54
  1
strokes_ogs.tif
102
RTVSPost2010PropOp54
 70
     1
102
RTVSPost2010Prop55
280
     0
102
RTVSPost2010PropOp55
 70
     1
102
RTVSPost2010Prop56
140
1.0
102
RTVSPost2010PropOp56
 70
     1
102
RTVSPost2010Prop57
140
1.0
102
RTVSPost2010PropOp57
 70
     1
  0
XRECORD
  5
92AED
102
{ACAD_REACTORS
330
87B1C
102
}
330
87B1C
100
AcDbXrecord
280
     1
102
RTVSPropertyOp0
 70
     1
102
RTVSPropertyOp1
 70
     1
102
RTVSPropertyOp2
 70
     1
102
RTVSPropertyOp3
 70
     1
102
RTVSPropertyOp4
 70
     1
102
RTVSPropertyOp5
 70
     1
102
RTVSPropertyOp6
 70
     1
102
RTVSPropertyOp7
 70
     1
102
RTVSPropertyOp8
 70
     1
102
RTVSPropertyOp9
 70
     1
102
RTVSPropertyOp10
 70
     1
102
RTVSPropertyOp11
 70
     1
102
RTVSPropertyOp12
 70
     1
102
RTVSPropertyOp13
 70
     1
102
RTVSPropertyOp14
 70
     1
102
RTVSPropertyOp15
 70
     1
102
RTVSPropertyOp16
 70
     1
102
RTVSPropertyOp17
 70
     1
102
RTVSPropertyOp18
 70
     1
102
RTVSPropertyOp19
 70
     1
102
RTVSPropertyOp20
 70
     1
102
RTVSPropertyOp21
 70
     1
102
RTVSPropertyOp22
 70
     1
102
RTVSPropertyOp23
 70
     1
102
RTVSPropertyOp24
 70
     1
102
RTVSPropertyOp25
 70
     1
102
RTVSPropertyOp26
 70
     1
102
RTVSPropertyOp27
 70
     1
102
RTVSPropertyOp28
 70
     1
102
RTVSPropertyOp29
 70
     1
102
RTVSPropertyOp30
 70
     1
102
RTVSPropertyOp31
 70
     1
102
RTVSPropertyOp32
 70
     1
102
RTVSPropertyOp33
 70
     1
102
RTVSPropertyOp34
 70
     1
102
RTVSPropertyOp35
 70
     1
102
RTVSPropertyOp36
 70
     1
102
RTVSPropertyOp37
 70
     1
102
RTVSPropertyOp38
 70
     1
102
RTVSPropertyOp39
 70
     1
102
RTVSPropertyOp40
 70
     1
102
RTVSPropertyOp41
 70
     1
102
RTVSPropertyOp42
 70
     1
102
RTVSPropertyOp43
 70
     1
102
RTVSPropertyOp44
 70
     1
102
RTVSPropertyOp45
 70
     1
102
RTVSPropertyOp46
 70
     1
102
RTVSPropertyOp47
 70
     1
102
RTVSPropertyOp48
 70
     1
102
RTVSPropertyOp49
 70
     1
102
RTVSPropertyOp50
 70
     1
102
RTVSPropertyOp51
 70
     0
102
RTVSPropertyOp52
 70
     0
102
RTVSPropertyOp53
 70
     1
102
RTVSPropertyOp54
 70
     1
102
RTVSPropertyOp55
 70
     1
102
RTVSPropertyOp56
 70
     1
102
RTVSPropertyOp57
 70
     1
102
RTVSPost2010Prop28
280
     0
102
RTVSPost2010PropOp28
 70
     1
102
RTVSPost2010Prop29
280
     1
102
RTVSPost2010PropOp29
 70
     1
102
RTVSPost2010Prop30
280
     1
102
RTVSPost2010PropOp30
 70
     1
102
RTVSPost2010Prop31
280
     0
102
RTVSPost2010PropOp31
 70
     1
102
RTVSPost2010Prop32
280
     0
102
RTVSPost2010PropOp32
 70
     1
102
RTVSPost2010Prop33
280
     0
102
RTVSPost2010PropOp33
 70
     1
102
RTVSPost2010Prop34
280
     0
102
RTVSPost2010PropOp34
 70
     1
102
RTVSPost2010Prop35
280
     0
102
RTVSPost2010PropOp35
 70
     1
102
RTVSPost2010Prop36
280
     0
102
RTVSPost2010PropOp36
 70
     1
102
RTVSPost2010Prop37
 90
       50
102
RTVSPost2010PropOp37
 70
     1
102
RTVSPost2010Prop38
140
0.0
102
RTVSPost2010PropOp38
 70
     1
102
RTVSPost2010Prop39
140
1.0
102
RTVSPost2010PropOp39
 70
     1
102
RTVSPost2010Prop40
 90
        0
102
RTVSPost2010PropOp40
 70
     1
102
RTVSPost2010Prop41ColorIndex
 90
       18
102
RTVSPost2010Prop41ColorRGB
 90
        0
102
RTVSPost2010PropOp41
 70
     1
102
RTVSPost2010Prop42
 90
       50
102
RTVSPost2010PropOp42
 70
     1
102
RTVSPost2010Prop43
 90
        3
102
RTVSPost2010PropOp43
 70
     1
102
RTVSPost2010Prop44ColorIndex
 90
        5
102
RTVSPost2010Prop44ColorRGB
 90
      255
102
RTVSPost2010PropOp44
 70
     1
102
RTVSPost2010Prop45
280
     0
102
RTVSPost2010PropOp45
 70
     1
102
RTVSPost2010Prop46
 90
       50
102
RTVSPost2010PropOp46
 70
     1
102
RTVSPost2010Prop47
 90
       50
102
RTVSPost2010PropOp47
 70
     1
102
RTVSPost2010Prop48
 90
       50
102
RTVSPost2010PropOp48
 70
     1
102
RTVSPost2010Prop49
280
     0
102
RTVSPost2010PropOp49
 70
     1
102
RTVSPost2010Prop50
 90
       50
102
RTVSPost2010PropOp50
 70
     1
102
RTVSPost2010Prop51ColorIndex
 90
      256
102
RTVSPost2010Prop51ColorRGB
 90
-16777216
102
RTVSPost2010PropOp51
 70
     0
102
RTVSPost2010Prop52
140
1.0
102
RTVSPost2010PropOp52
 70
     0
102
RTVSPost2010Prop53
 90
        2
102
RTVSPost2010PropOp53
 70
     1
102
RTVSPost2010Prop54
  1
strokes_ogs.tif
102
RTVSPost2010PropOp54
 70
     1
102
RTVSPost2010Prop55
280
     0
102
RTVSPost2010PropOp55
 70
     1
102
RTVSPost2010Prop56
140
1.0
102
RTVSPost2010PropOp56
 70
     1
102
RTVSPost2010Prop57
140
1.0
102
RTVSPost2010PropOp57
 70
     1
  0
XRECORD
  5
92AEE
102
{ACAD_REACTORS
330
87B38
102
}
330
87B38
100
AcDbXrecord
280
     1
102
RTVSPropertyOp0
 70
     0
102
RTVSPropertyOp1
 70
     0
102
RTVSPropertyOp2
 70
     0
102
RTVSPropertyOp3
 70
     0
102
RTVSPropertyOp4
 70
     0
102
RTVSPropertyOp5
 70
     0
102
RTVSPropertyOp6
 70
     0
102
RTVSPropertyOp7
 70
     0
102
RTVSPropertyOp8
 70
     0
102
RTVSPropertyOp9
 70
     0
102
RTVSPropertyOp10
 70
     0
102
RTVSPropertyOp11
 70
     0
102
RTVSPropertyOp12
 70
     0
102
RTVSPropertyOp13
 70
     0
102
RTVSPropertyOp14
 70
     2
102
RTVSPropertyOp15
 70
     0
102
RTVSPropertyOp16
 70
     0
102
RTVSPropertyOp17
 70
     0
102
RTVSPropertyOp18
 70
     0
102
RTVSPropertyOp19
 70
     0
102
RTVSPropertyOp20
 70
     0
102
RTVSPropertyOp21
 70
     0
102
RTVSPropertyOp22
 70
     0
102
RTVSPropertyOp23
 70
     0
102
RTVSPropertyOp24
 70
     0
102
RTVSPropertyOp25
 70
     0
102
RTVSPropertyOp26
 70
     0
102
RTVSPropertyOp27
 70
     0
102
RTVSPropertyOp28
 70
     1
102
RTVSPropertyOp29
 70
     1
102
RTVSPropertyOp30
 70
     1
102
RTVSPropertyOp31
 70
     1
102
RTVSPropertyOp32
 70
     1
102
RTVSPropertyOp33
 70
     1
102
RTVSPropertyOp34
 70
     1
102
RTVSPropertyOp35
 70
     1
102
RTVSPropertyOp36
 70
     1
102
RTVSPropertyOp37
 70
     0
102
RTVSPropertyOp38
 70
     0
102
RTVSPropertyOp39
 70
     0
102
RTVSPropertyOp40
 70
     0
102
RTVSPropertyOp41
 70
     0
102
RTVSPropertyOp42
 70
     0
102
RTVSPropertyOp43
 70
     0
102
RTVSPropertyOp44
 70
     0
102
RTVSPropertyOp45
 70
     1
102
RTVSPropertyOp46
 70
     0
102
RTVSPropertyOp47
 70
     0
102
RTVSPropertyOp48
 70
     0
102
RTVSPropertyOp49
 70
     1
102
RTVSPropertyOp50
 70
     0
102
RTVSPropertyOp51
 70
     0
102
RTVSPropertyOp52
 70
     0
102
RTVSPropertyOp53
 70
     0
102
RTVSPropertyOp54
 70
     0
102
RTVSPropertyOp55
 70
     1
102
RTVSPropertyOp56
 70
     0
102
RTVSPropertyOp57
 70
     0
102
RTVSPost2010Prop28
280
     0
102
RTVSPost2010PropOp28
 70
     1
102
RTVSPost2010Prop29
280
     1
102
RTVSPost2010PropOp29
 70
     1
102
RTVSPost2010Prop30
280
     1
102
RTVSPost2010PropOp30
 70
     1
102
RTVSPost2010Prop31
280
     0
102
RTVSPost2010PropOp31
 70
     1
102
RTVSPost2010Prop32
280
     0
102
RTVSPost2010PropOp32
 70
     1
102
RTVSPost2010Prop33
280
     0
102
RTVSPost2010PropOp33
 70
     1
102
RTVSPost2010Prop34
280
     0
102
RTVSPost2010PropOp34
 70
     1
102
RTVSPost2010Prop35
280
     0
102
RTVSPost2010PropOp35
 70
     1
102
RTVSPost2010Prop36
280
     0
102
RTVSPost2010PropOp36
 70
     1
102
RTVSPost2010Prop37
 90
       50
102
RTVSPost2010PropOp37
 70
     0
102
RTVSPost2010Prop38
140
0.0
102
RTVSPost2010PropOp38
 70
     0
102
RTVSPost2010Prop39
140
1.0
102
RTVSPost2010PropOp39
 70
     0
102
RTVSPost2010Prop40
 90
        0
102
RTVSPost2010PropOp40
 70
     0
102
RTVSPost2010Prop41ColorIndex
 90
       18
102
RTVSPost2010Prop41ColorRGB
 90
        0
102
RTVSPost2010PropOp41
 70
     0
102
RTVSPost2010Prop42
 90
       50
102
RTVSPost2010PropOp42
 70
     0
102
RTVSPost2010Prop43
 90
        3
102
RTVSPost2010PropOp43
 70
     0
102
RTVSPost2010Prop44ColorIndex
 90
        5
102
RTVSPost2010Prop44ColorRGB
 90
      255
102
RTVSPost2010PropOp44
 70
     0
102
RTVSPost2010Prop45
280
     0
102
RTVSPost2010PropOp45
 70
     1
102
RTVSPost2010Prop46
 90
       50
102
RTVSPost2010PropOp46
 70
     0
102
RTVSPost2010Prop47
 90
       50
102
RTVSPost2010PropOp47
 70
     0
102
RTVSPost2010Prop48
 90
       50
102
RTVSPost2010PropOp48
 70
     0
102
RTVSPost2010Prop49
280
     0
102
RTVSPost2010PropOp49
 70
     1
102
RTVSPost2010Prop50
 90
       50
102
RTVSPost2010PropOp50
 70
     0
102
RTVSPost2010Prop51ColorIndex
 90
      256
102
RTVSPost2010Prop51ColorRGB
 90
-16777216
102
RTVSPost2010PropOp51
 70
     0
102
RTVSPost2010Prop52
140
1.0
102
RTVSPost2010PropOp52
 70
     0
102
RTVSPost2010Prop53
 90
        2
102
RTVSPost2010PropOp53
 70
     0
102
RTVSPost2010Prop54
  1
strokes_ogs.tif
102
RTVSPost2010PropOp54
 70
     0
102
RTVSPost2010Prop55
280
     0
102
RTVSPost2010PropOp55
 70
     1
102
RTVSPost2010Prop56
140
1.0
102
RTVSPost2010PropOp56
 70
     0
102
RTVSPost2010Prop57
140
1.0
102
RTVSPost2010PropOp57
 70
     0
  0
XRECORD
  5
92AEF
102
{ACAD_REACTORS
330
87B28
102
}
330
87B28
100
AcDbXrecord
280
     1
102
RTVSPropertyOp0
 70
     1
102
RTVSPropertyOp1
 70
     1
102
RTVSPropertyOp2
 70
     1
102
RTVSPropertyOp3
 70
     1
102
RTVSPropertyOp4
 70
     1
102
RTVSPropertyOp5
 70
     1
102
RTVSPropertyOp6
 70
     1
102
RTVSPropertyOp7
 70
     1
102
RTVSPropertyOp8
 70
     1
102
RTVSPropertyOp9
 70
     1
102
RTVSPropertyOp10
 70
     1
102
RTVSPropertyOp11
 70
     1
102
RTVSPropertyOp12
 70
     1
102
RTVSPropertyOp13
 70
     1
102
RTVSPropertyOp14
 70
     1
102
RTVSPropertyOp15
 70
     1
102
RTVSPropertyOp16
 70
     1
102
RTVSPropertyOp17
 70
     1
102
RTVSPropertyOp18
 70
     1
102
RTVSPropertyOp19
 70
     1
102
RTVSPropertyOp20
 70
     1
102
RTVSPropertyOp21
 70
     1
102
RTVSPropertyOp22
 70
     1
102
RTVSPropertyOp23
 70
     1
102
RTVSPropertyOp24
 70
     1
102
RTVSPropertyOp25
 70
     1
102
RTVSPropertyOp26
 70
     1
102
RTVSPropertyOp27
 70
     1
102
RTVSPropertyOp28
 70
     1
102
RTVSPropertyOp29
 70
     1
102
RTVSPropertyOp30
 70
     1
102
RTVSPropertyOp31
 70
     1
102
RTVSPropertyOp32
 70
     1
102
RTVSPropertyOp33
 70
     1
102
RTVSPropertyOp34
 70
     1
102
RTVSPropertyOp35
 70
     1
102
RTVSPropertyOp36
 70
     1
102
RTVSPropertyOp37
 70
     1
102
RTVSPropertyOp38
 70
     1
102
RTVSPropertyOp39
 70
     1
102
RTVSPropertyOp40
 70
     1
102
RTVSPropertyOp41
 70
     1
102
RTVSPropertyOp42
 70
     1
102
RTVSPropertyOp43
 70
     1
102
RTVSPropertyOp44
 70
     1
102
RTVSPropertyOp45
 70
     1
102
RTVSPropertyOp46
 70
     1
102
RTVSPropertyOp47
 70
     1
102
RTVSPropertyOp48
 70
     1
102
RTVSPropertyOp49
 70
     1
102
RTVSPropertyOp50
 70
     1
102
RTVSPropertyOp51
 70
     0
102
RTVSPropertyOp52
 70
     0
102
RTVSPropertyOp53
 70
     1
102
RTVSPropertyOp54
 70
     1
102
RTVSPropertyOp55
 70
     1
102
RTVSPropertyOp56
 70
     1
102
RTVSPropertyOp57
 70
     1
102
RTVSPost2010Prop28
280
     0
102
RTVSPost2010PropOp28
 70
     1
102
RTVSPost2010Prop29
280
     1
102
RTVSPost2010PropOp29
 70
     1
102
RTVSPost2010Prop30
280
     1
102
RTVSPost2010PropOp30
 70
     1
102
RTVSPost2010Prop31
280
     0
102
RTVSPost2010PropOp31
 70
     1
102
RTVSPost2010Prop32
280
     0
102
RTVSPost2010PropOp32
 70
     1
102
RTVSPost2010Prop33
280
     0
102
RTVSPost2010PropOp33
 70
     1
102
RTVSPost2010Prop34
280
     0
102
RTVSPost2010PropOp34
 70
     1
102
RTVSPost2010Prop35
280
     0
102
RTVSPost2010PropOp35
 70
     1
102
RTVSPost2010Prop36
280
     0
102
RTVSPost2010PropOp36
 70
     1
102
RTVSPost2010Prop37
 90
       50
102
RTVSPost2010PropOp37
 70
     1
102
RTVSPost2010Prop38
140
0.0
102
RTVSPost2010PropOp38
 70
     1
102
RTVSPost2010Prop39
140
1.0
102
RTVSPost2010PropOp39
 70
     1
102
RTVSPost2010Prop40
 90
        0
102
RTVSPost2010PropOp40
 70
     1
102
RTVSPost2010Prop41ColorIndex
 90
       18
102
RTVSPost2010Prop41ColorRGB
 90
        0
102
RTVSPost2010PropOp41
 70
     1
102
RTVSPost2010Prop42
 90
       50
102
RTVSPost2010PropOp42
 70
     1
102
RTVSPost2010Prop43
 90
        3
102
RTVSPost2010PropOp43
 70
     1
102
RTVSPost2010Prop44ColorIndex
 90
        5
102
RTVSPost2010Prop44ColorRGB
 90
      255
102
RTVSPost2010PropOp44
 70
     1
102
RTVSPost2010Prop45
280
     0
102
RTVSPost2010PropOp45
 70
     1
102
RTVSPost2010Prop46
 90
       50
102
RTVSPost2010PropOp46
 70
     1
102
RTVSPost2010Prop47
 90
       50
102
RTVSPost2010PropOp47
 70
     1
102
RTVSPost2010Prop48
 90
       50
102
RTVSPost2010PropOp48
 70
     1
102
RTVSPost2010Prop49
280
     0
102
RTVSPost2010PropOp49
 70
     1
102
RTVSPost2010Prop50
 90
       50
102
RTVSPost2010PropOp50
 70
     1
102
RTVSPost2010Prop51ColorIndex
 90
      256
102
RTVSPost2010Prop51ColorRGB
 90
-16777216
102
RTVSPost2010PropOp51
 70
     0
102
RTVSPost2010Prop52
140
1.0
102
RTVSPost2010PropOp52
 70
     0
102
RTVSPost2010Prop53
 90
        2
102
RTVSPost2010PropOp53
 70
     1
102
RTVSPost2010Prop54
  1
strokes_ogs.tif
102
RTVSPost2010PropOp54
 70
     1
102
RTVSPost2010Prop55
280
     0
102
RTVSPost2010PropOp55
 70
     1
102
RTVSPost2010Prop56
140
1.0
102
RTVSPost2010PropOp56
 70
     1
102
RTVSPost2010Prop57
140
1.0
102
RTVSPost2010PropOp57
 70
     1
  0
XRECORD
  5
92AF0
102
{ACAD_REACTORS
330
87B3A
102
}
330
87B3A
100
AcDbXrecord
280
     1
102
RTVSPropertyOp0
 70
     0
102
RTVSPropertyOp1
 70
     0
102
RTVSPropertyOp2
 70
     0
102
RTVSPropertyOp3
 70
     0
102
RTVSPropertyOp4
 70
     0
102
RTVSPropertyOp5
 70
     0
102
RTVSPropertyOp6
 70
     0
102
RTVSPropertyOp7
 70
     0
102
RTVSPropertyOp8
 70
     0
102
RTVSPropertyOp9
 70
     0
102
RTVSPropertyOp10
 70
     0
102
RTVSPropertyOp11
 70
     0
102
RTVSPropertyOp12
 70
     0
102
RTVSPropertyOp13
 70
     0
102
RTVSPropertyOp14
 70
     2
102
RTVSPropertyOp15
 70
     0
102
RTVSPropertyOp16
 70
     0
102
RTVSPropertyOp17
 70
     0
102
RTVSPropertyOp18
 70
     0
102
RTVSPropertyOp19
 70
     0
102
RTVSPropertyOp20
 70
     0
102
RTVSPropertyOp21
 70
     0
102
RTVSPropertyOp22
 70
     0
102
RTVSPropertyOp23
 70
     0
102
RTVSPropertyOp24
 70
     0
102
RTVSPropertyOp25
 70
     0
102
RTVSPropertyOp26
 70
     0
102
RTVSPropertyOp27
 70
     0
102
RTVSPropertyOp28
 70
     1
102
RTVSPropertyOp29
 70
     1
102
RTVSPropertyOp30
 70
     1
102
RTVSPropertyOp31
 70
     1
102
RTVSPropertyOp32
 70
     1
102
RTVSPropertyOp33
 70
     1
102
RTVSPropertyOp34
 70
     1
102
RTVSPropertyOp35
 70
     1
102
RTVSPropertyOp36
 70
     1
102
RTVSPropertyOp37
 70
     0
102
RTVSPropertyOp38
 70
     0
102
RTVSPropertyOp39
 70
     0
102
RTVSPropertyOp40
 70
     0
102
RTVSPropertyOp41
 70
     0
102
RTVSPropertyOp42
 70
     0
102
RTVSPropertyOp43
 70
     0
102
RTVSPropertyOp44
 70
     0
102
RTVSPropertyOp45
 70
     1
102
RTVSPropertyOp46
 70
     0
102
RTVSPropertyOp47
 70
     0
102
RTVSPropertyOp48
 70
     0
102
RTVSPropertyOp49
 70
     1
102
RTVSPropertyOp50
 70
     0
102
RTVSPropertyOp51
 70
     0
102
RTVSPropertyOp52
 70
     0
102
RTVSPropertyOp53
 70
     0
102
RTVSPropertyOp54
 70
     0
102
RTVSPropertyOp55
 70
     1
102
RTVSPropertyOp56
 70
     0
102
RTVSPropertyOp57
 70
     0
102
RTVSPost2010Prop28
280
     0
102
RTVSPost2010PropOp28
 70
     1
102
RTVSPost2010Prop29
280
     1
102
RTVSPost2010PropOp29
 70
     1
102
RTVSPost2010Prop30
280
     1
102
RTVSPost2010PropOp30
 70
     1
102
RTVSPost2010Prop31
280
     0
102
RTVSPost2010PropOp31
 70
     1
102
RTVSPost2010Prop32
280
     0
102
RTVSPost2010PropOp32
 70
     1
102
RTVSPost2010Prop33
280
     0
102
RTVSPost2010PropOp33
 70
     1
102
RTVSPost2010Prop34
280
     0
102
RTVSPost2010PropOp34
 70
     1
102
RTVSPost2010Prop35
280
     0
102
RTVSPost2010PropOp35
 70
     1
102
RTVSPost2010Prop36
280
     0
102
RTVSPost2010PropOp36
 70
     1
102
RTVSPost2010Prop37
 90
       50
102
RTVSPost2010PropOp37
 70
     0
102
RTVSPost2010Prop38
140
0.0
102
RTVSPost2010PropOp38
 70
     0
102
RTVSPost2010Prop39
140
1.0
102
RTVSPost2010PropOp39
 70
     0
102
RTVSPost2010Prop40
 90
        0
102
RTVSPost2010PropOp40
 70
     0
102
RTVSPost2010Prop41ColorIndex
 90
       18
102
RTVSPost2010Prop41ColorRGB
 90
        0
102
RTVSPost2010PropOp41
 70
     0
102
RTVSPost2010Prop42
 90
       50
102
RTVSPost2010PropOp42
 70
     0
102
RTVSPost2010Prop43
 90
        3
102
RTVSPost2010PropOp43
 70
     0
102
RTVSPost2010Prop44ColorIndex
 90
        5
102
RTVSPost2010Prop44ColorRGB
 90
      255
102
RTVSPost2010PropOp44
 70
     0
102
RTVSPost2010Prop45
280
     0
102
RTVSPost2010PropOp45
 70
     1
102
RTVSPost2010Prop46
 90
       50
102
RTVSPost2010PropOp46
 70
     0
102
RTVSPost2010Prop47
 90
       50
102
RTVSPost2010PropOp47
 70
     0
102
RTVSPost2010Prop48
 90
       50
102
RTVSPost2010PropOp48
 70
     0
102
RTVSPost2010Prop49
280
     0
102
RTVSPost2010PropOp49
 70
     1
102
RTVSPost2010Prop50
 90
       50
102
RTVSPost2010PropOp50
 70
     0
102
RTVSPost2010Prop51ColorIndex
 90
      256
102
RTVSPost2010Prop51ColorRGB
 90
-16777216
102
RTVSPost2010PropOp51
 70
     0
102
RTVSPost2010Prop52
140
1.0
102
RTVSPost2010PropOp52
 70
     0
102
RTVSPost2010Prop53
 90
        2
102
RTVSPost2010PropOp53
 70
     0
102
RTVSPost2010Prop54
  1
strokes_ogs.tif
102
RTVSPost2010PropOp54
 70
     0
102
RTVSPost2010Prop55
280
     0
102
RTVSPost2010PropOp55
 70
     1
102
RTVSPost2010Prop56
140
1.0
102
RTVSPost2010PropOp56
 70
     0
102
RTVSPost2010Prop57
140
1.0
102
RTVSPost2010PropOp57
 70
     0
  0
XRECORD
  5
92AF1
102
{ACAD_REACTORS
330
87B20
102
}
330
87B20
100
AcDbXrecord
280
     1
102
RTVSPropertyOp0
 70
     1
102
RTVSPropertyOp1
 70
     1
102
RTVSPropertyOp2
 70
     1
102
RTVSPropertyOp3
 70
     1
102
RTVSPropertyOp4
 70
     1
102
RTVSPropertyOp5
 70
     1
102
RTVSPropertyOp6
 70
     1
102
RTVSPropertyOp7
 70
     1
102
RTVSPropertyOp8
 70
     1
102
RTVSPropertyOp9
 70
     1
102
RTVSPropertyOp10
 70
     1
102
RTVSPropertyOp11
 70
     1
102
RTVSPropertyOp12
 70
     1
102
RTVSPropertyOp13
 70
     1
102
RTVSPropertyOp14
 70
     1
102
RTVSPropertyOp15
 70
     1
102
RTVSPropertyOp16
 70
     1
102
RTVSPropertyOp17
 70
     1
102
RTVSPropertyOp18
 70
     1
102
RTVSPropertyOp19
 70
     1
102
RTVSPropertyOp20
 70
     1
102
RTVSPropertyOp21
 70
     1
102
RTVSPropertyOp22
 70
     1
102
RTVSPropertyOp23
 70
     1
102
RTVSPropertyOp24
 70
     1
102
RTVSPropertyOp25
 70
     1
102
RTVSPropertyOp26
 70
     1
102
RTVSPropertyOp27
 70
     1
102
RTVSPropertyOp28
 70
     1
102
RTVSPropertyOp29
 70
     1
102
RTVSPropertyOp30
 70
     1
102
RTVSPropertyOp31
 70
     1
102
RTVSPropertyOp32
 70
     1
102
RTVSPropertyOp33
 70
     1
102
RTVSPropertyOp34
 70
     1
102
RTVSPropertyOp35
 70
     1
102
RTVSPropertyOp36
 70
     1
102
RTVSPropertyOp37
 70
     1
102
RTVSPropertyOp38
 70
     1
102
RTVSPropertyOp39
 70
     1
102
RTVSPropertyOp40
 70
     1
102
RTVSPropertyOp41
 70
     1
102
RTVSPropertyOp42
 70
     1
102
RTVSPropertyOp43
 70
     1
102
RTVSPropertyOp44
 70
     1
102
RTVSPropertyOp45
 70
     1
102
RTVSPropertyOp46
 70
     1
102
RTVSPropertyOp47
 70
     1
102
RTVSPropertyOp48
 70
     1
102
RTVSPropertyOp49
 70
     1
102
RTVSPropertyOp50
 70
     1
102
RTVSPropertyOp51
 70
     0
102
RTVSPropertyOp52
 70
     0
102
RTVSPropertyOp53
 70
     1
102
RTVSPropertyOp54
 70
     1
102
RTVSPropertyOp55
 70
     1
102
RTVSPropertyOp56
 70
     1
102
RTVSPropertyOp57
 70
     1
102
RTVSPost2010Prop28
280
     0
102
RTVSPost2010PropOp28
 70
     1
102
RTVSPost2010Prop29
280
     1
102
RTVSPost2010PropOp29
 70
     1
102
RTVSPost2010Prop30
280
     1
102
RTVSPost2010PropOp30
 70
     1
102
RTVSPost2010Prop31
280
     0
102
RTVSPost2010PropOp31
 70
     1
102
RTVSPost2010Prop32
280
     0
102
RTVSPost2010PropOp32
 70
     1
102
RTVSPost2010Prop33
280
     0
102
RTVSPost2010PropOp33
 70
     1
102
RTVSPost2010Prop34
280
     0
102
RTVSPost2010PropOp34
 70
     1
102
RTVSPost2010Prop35
280
     0
102
RTVSPost2010PropOp35
 70
     1
102
RTVSPost2010Prop36
280
     0
102
RTVSPost2010PropOp36
 70
     1
102
RTVSPost2010Prop37
 90
       50
102
RTVSPost2010PropOp37
 70
     1
102
RTVSPost2010Prop38
140
0.0
102
RTVSPost2010PropOp38
 70
     1
102
RTVSPost2010Prop39
140
1.0
102
RTVSPost2010PropOp39
 70
     1
102
RTVSPost2010Prop40
 90
        0
102
RTVSPost2010PropOp40
 70
     1
102
RTVSPost2010Prop41ColorIndex
 90
       18
102
RTVSPost2010Prop41ColorRGB
 90
        0
102
RTVSPost2010PropOp41
 70
     1
102
RTVSPost2010Prop42
 90
       50
102
RTVSPost2010PropOp42
 70
     1
102
RTVSPost2010Prop43
 90
        3
102
RTVSPost2010PropOp43
 70
     1
102
RTVSPost2010Prop44ColorIndex
 90
        5
102
RTVSPost2010Prop44ColorRGB
 90
      255
102
RTVSPost2010PropOp44
 70
     1
102
RTVSPost2010Prop45
280
     0
102
RTVSPost2010PropOp45
 70
     1
102
RTVSPost2010Prop46
 90
       50
102
RTVSPost2010PropOp46
 70
     1
102
RTVSPost2010Prop47
 90
       50
102
RTVSPost2010PropOp47
 70
     1
102
RTVSPost2010Prop48
 90
       50
102
RTVSPost2010PropOp48
 70
     1
102
RTVSPost2010Prop49
280
     0
102
RTVSPost2010PropOp49
 70
     1
102
RTVSPost2010Prop50
 90
       50
102
RTVSPost2010PropOp50
 70
     1
102
RTVSPost2010Prop51ColorIndex
 90
      256
102
RTVSPost2010Prop51ColorRGB
 90
-16777216
102
RTVSPost2010PropOp51
 70
     0
102
RTVSPost2010Prop52
140
1.0
102
RTVSPost2010PropOp52
 70
     0
102
RTVSPost2010Prop53
 90
        2
102
RTVSPost2010PropOp53
 70
     1
102
RTVSPost2010Prop54
  1
strokes_ogs.tif
102
RTVSPost2010PropOp54
 70
     1
102
RTVSPost2010Prop55
280
     0
102
RTVSPost2010PropOp55
 70
     1
102
RTVSPost2010Prop56
140
1.0
102
RTVSPost2010PropOp56
 70
     1
102
RTVSPost2010Prop57
140
1.0
102
RTVSPost2010PropOp57
 70
     1
  0
XRECORD
  5
92AF2
102
{ACAD_REACTORS
330
87B36
102
}
330
87B36
100
AcDbXrecord
280
     1
102
RTVSPropertyOp0
 70
     1
102
RTVSPropertyOp1
 70
     1
102
RTVSPropertyOp2
 70
     1
102
RTVSPropertyOp3
 70
     1
102
RTVSPropertyOp4
 70
     1
102
RTVSPropertyOp5
 70
     1
102
RTVSPropertyOp6
 70
     1
102
RTVSPropertyOp7
 70
     1
102
RTVSPropertyOp8
 70
     1
102
RTVSPropertyOp9
 70
     1
102
RTVSPropertyOp10
 70
     1
102
RTVSPropertyOp11
 70
     1
102
RTVSPropertyOp12
 70
     1
102
RTVSPropertyOp13
 70
     1
102
RTVSPropertyOp14
 70
     1
102
RTVSPropertyOp15
 70
     1
102
RTVSPropertyOp16
 70
     1
102
RTVSPropertyOp17
 70
     1
102
RTVSPropertyOp18
 70
     1
102
RTVSPropertyOp19
 70
     1
102
RTVSPropertyOp20
 70
     1
102
RTVSPropertyOp21
 70
     1
102
RTVSPropertyOp22
 70
     1
102
RTVSPropertyOp23
 70
     1
102
RTVSPropertyOp24
 70
     1
102
RTVSPropertyOp25
 70
     1
102
RTVSPropertyOp26
 70
     1
102
RTVSPropertyOp27
 70
     1
102
RTVSPropertyOp28
 70
     1
102
RTVSPropertyOp29
 70
     1
102
RTVSPropertyOp30
 70
     1
102
RTVSPropertyOp31
 70
     1
102
RTVSPropertyOp32
 70
     1
102
RTVSPropertyOp33
 70
     1
102
RTVSPropertyOp34
 70
     1
102
RTVSPropertyOp35
 70
     1
102
RTVSPropertyOp36
 70
     1
102
RTVSPropertyOp37
 70
     1
102
RTVSPropertyOp38
 70
     1
102
RTVSPropertyOp39
 70
     1
102
RTVSPropertyOp40
 70
     1
102
RTVSPropertyOp41
 70
     1
102
RTVSPropertyOp42
 70
     1
102
RTVSPropertyOp43
 70
     1
102
RTVSPropertyOp44
 70
     1
102
RTVSPropertyOp45
 70
     1
102
RTVSPropertyOp46
 70
     1
102
RTVSPropertyOp47
 70
     1
102
RTVSPropertyOp48
 70
     1
102
RTVSPropertyOp49
 70
     1
102
RTVSPropertyOp50
 70
     1
102
RTVSPropertyOp51
 70
     0
102
RTVSPropertyOp52
 70
     0
102
RTVSPropertyOp53
 70
     1
102
RTVSPropertyOp54
 70
     1
102
RTVSPropertyOp55
 70
     1
102
RTVSPropertyOp56
 70
     1
102
RTVSPropertyOp57
 70
     1
102
RTVSPost2010Prop28
280
     0
102
RTVSPost2010PropOp28
 70
     1
102
RTVSPost2010Prop29
280
     1
102
RTVSPost2010PropOp29
 70
     1
102
RTVSPost2010Prop30
280
     1
102
RTVSPost2010PropOp30
 70
     1
102
RTVSPost2010Prop31
280
     0
102
RTVSPost2010PropOp31
 70
     1
102
RTVSPost2010Prop32
280
     0
102
RTVSPost2010PropOp32
 70
     1
102
RTVSPost2010Prop33
280
     0
102
RTVSPost2010PropOp33
 70
     1
102
RTVSPost2010Prop34
280
     0
102
RTVSPost2010PropOp34
 70
     1
102
RTVSPost2010Prop35
280
     0
102
RTVSPost2010PropOp35
 70
     1
102
RTVSPost2010Prop36
280
     0
102
RTVSPost2010PropOp36
 70
     1
102
RTVSPost2010Prop37
 90
       50
102
RTVSPost2010PropOp37
 70
     1
102
RTVSPost2010Prop38
140
0.0
102
RTVSPost2010PropOp38
 70
     1
102
RTVSPost2010Prop39
140
1.0
102
RTVSPost2010PropOp39
 70
     1
102
RTVSPost2010Prop40
 90
        0
102
RTVSPost2010PropOp40
 70
     1
102
RTVSPost2010Prop41ColorIndex
 90
       18
102
RTVSPost2010Prop41ColorRGB
 90
        0
102
RTVSPost2010PropOp41
 70
     1
102
RTVSPost2010Prop42
 90
       50
102
RTVSPost2010PropOp42
 70
     1
102
RTVSPost2010Prop43
 90
        3
102
RTVSPost2010PropOp43
 70
     1
102
RTVSPost2010Prop44ColorIndex
 90
        5
102
RTVSPost2010Prop44ColorRGB
 90
      255
102
RTVSPost2010PropOp44
 70
     1
102
RTVSPost2010Prop45
280
     0
102
RTVSPost2010PropOp45
 70
     1
102
RTVSPost2010Prop46
 90
       50
102
RTVSPost2010PropOp46
 70
     1
102
RTVSPost2010Prop47
 90
       50
102
RTVSPost2010PropOp47
 70
     1
102
RTVSPost2010Prop48
 90
       50
102
RTVSPost2010PropOp48
 70
     1
102
RTVSPost2010Prop49
280
     0
102
RTVSPost2010PropOp49
 70
     1
102
RTVSPost2010Prop50
 90
       50
102
RTVSPost2010PropOp50
 70
     1
102
RTVSPost2010Prop51ColorIndex
 90
      256
102
RTVSPost2010Prop51ColorRGB
 90
-16777216
102
RTVSPost2010PropOp51
 70
     0
102
RTVSPost2010Prop52
140
1.0
102
RTVSPost2010PropOp52
 70
     0
102
RTVSPost2010Prop53
 90
        2
102
RTVSPost2010PropOp53
 70
     1
102
RTVSPost2010Prop54
  1
strokes_ogs.tif
102
RTVSPost2010PropOp54
 70
     1
102
RTVSPost2010Prop55
280
     0
102
RTVSPost2010PropOp55
 70
     1
102
RTVSPost2010Prop56
140
1.0
102
RTVSPost2010PropOp56
 70
     1
102
RTVSPost2010Prop57
140
1.0
102
RTVSPost2010PropOp57
 70
     1
  0
XRECORD
  5
92AF3
102
{ACAD_REACTORS
330
87B34
102
}
330
87B34
100
AcDbXrecord
280
     1
102
RTVSPropertyOp0
 70
     1
102
RTVSPropertyOp1
 70
     1
102
RTVSPropertyOp2
 70
     1
102
RTVSPropertyOp3
 70
     1
102
RTVSPropertyOp4
 70
     1
102
RTVSPropertyOp5
 70
     1
102
RTVSPropertyOp6
 70
     1
102
RTVSPropertyOp7
 70
     1
102
RTVSPropertyOp8
 70
     1
102
RTVSPropertyOp9
 70
     1
102
RTVSPropertyOp10
 70
     1
102
RTVSPropertyOp11
 70
     1
102
RTVSPropertyOp12
 70
     1
102
RTVSPropertyOp13
 70
     1
102
RTVSPropertyOp14
 70
     1
102
RTVSPropertyOp15
 70
     1
102
RTVSPropertyOp16
 70
     1
102
RTVSPropertyOp17
 70
     1
102
RTVSPropertyOp18
 70
     1
102
RTVSPropertyOp19
 70
     1
102
RTVSPropertyOp20
 70
     1
102
RTVSPropertyOp21
 70
     1
102
RTVSPropertyOp22
 70
     1
102
RTVSPropertyOp23
 70
     1
102
RTVSPropertyOp24
 70
     1
102
RTVSPropertyOp25
 70
     1
102
RTVSPropertyOp26
 70
     1
102
RTVSPropertyOp27
 70
     1
102
RTVSPropertyOp28
 70
     1
102
RTVSPropertyOp29
 70
     1
102
RTVSPropertyOp30
 70
     1
102
RTVSPropertyOp31
 70
     1
102
RTVSPropertyOp32
 70
     1
102
RTVSPropertyOp33
 70
     1
102
RTVSPropertyOp34
 70
     1
102
RTVSPropertyOp35
 70
     1
102
RTVSPropertyOp36
 70
     1
102
RTVSPropertyOp37
 70
     1
102
RTVSPropertyOp38
 70
     1
102
RTVSPropertyOp39
 70
     1
102
RTVSPropertyOp40
 70
     1
102
RTVSPropertyOp41
 70
     1
102
RTVSPropertyOp42
 70
     1
102
RTVSPropertyOp43
 70
     1
102
RTVSPropertyOp44
 70
     1
102
RTVSPropertyOp45
 70
     1
102
RTVSPropertyOp46
 70
     1
102
RTVSPropertyOp47
 70
     1
102
RTVSPropertyOp48
 70
     1
102
RTVSPropertyOp49
 70
     1
102
RTVSPropertyOp50
 70
     1
102
RTVSPropertyOp51
 70
     0
102
RTVSPropertyOp52
 70
     0
102
RTVSPropertyOp53
 70
     1
102
RTVSPropertyOp54
 70
     1
102
RTVSPropertyOp55
 70
     1
102
RTVSPropertyOp56
 70
     1
102
RTVSPropertyOp57
 70
     1
102
RTVSPost2010Prop28
280
     0
102
RTVSPost2010PropOp28
 70
     1
102
RTVSPost2010Prop29
280
     1
102
RTVSPost2010PropOp29
 70
     1
102
RTVSPost2010Prop30
280
     1
102
RTVSPost2010PropOp30
 70
     1
102
RTVSPost2010Prop31
280
     0
102
RTVSPost2010PropOp31
 70
     1
102
RTVSPost2010Prop32
280
     0
102
RTVSPost2010PropOp32
 70
     1
102
RTVSPost2010Prop33
280
     0
102
RTVSPost2010PropOp33
 70
     1
102
RTVSPost2010Prop34
280
     0
102
RTVSPost2010PropOp34
 70
     1
102
RTVSPost2010Prop35
280
     0
102
RTVSPost2010PropOp35
 70
     1
102
RTVSPost2010Prop36
280
     0
102
RTVSPost2010PropOp36
 70
     1
102
RTVSPost2010Prop37
 90
       50
102
RTVSPost2010PropOp37
 70
     1
102
RTVSPost2010Prop38
140
0.0
102
RTVSPost2010PropOp38
 70
     1
102
RTVSPost2010Prop39
140
1.0
102
RTVSPost2010PropOp39
 70
     1
102
RTVSPost2010Prop40
 90
        0
102
RTVSPost2010PropOp40
 70
     1
102
RTVSPost2010Prop41ColorIndex
 90
       18
102
RTVSPost2010Prop41ColorRGB
 90
        0
102
RTVSPost2010PropOp41
 70
     1
102
RTVSPost2010Prop42
 90
       50
102
RTVSPost2010PropOp42
 70
     1
102
RTVSPost2010Prop43
 90
        3
102
RTVSPost2010PropOp43
 70
     1
102
RTVSPost2010Prop44ColorIndex
 90
        5
102
RTVSPost2010Prop44ColorRGB
 90
      255
102
RTVSPost2010PropOp44
 70
     1
102
RTVSPost2010Prop45
280
     0
102
RTVSPost2010PropOp45
 70
     1
102
RTVSPost2010Prop46
 90
       50
102
RTVSPost2010PropOp46
 70
     1
102
RTVSPost2010Prop47
 90
       50
102
RTVSPost2010PropOp47
 70
     1
102
RTVSPost2010Prop48
 90
       50
102
RTVSPost2010PropOp48
 70
     1
102
RTVSPost2010Prop49
280
     0
102
RTVSPost2010PropOp49
 70
     1
102
RTVSPost2010Prop50
 90
       50
102
RTVSPost2010PropOp50
 70
     1
102
RTVSPost2010Prop51ColorIndex
 90
      256
102
RTVSPost2010Prop51ColorRGB
 90
-16777216
102
RTVSPost2010PropOp51
 70
     0
102
RTVSPost2010Prop52
140
1.0
102
RTVSPost2010PropOp52
 70
     0
102
RTVSPost2010Prop53
 90
        2
102
RTVSPost2010PropOp53
 70
     1
102
RTVSPost2010Prop54
  1
strokes_ogs.tif
102
RTVSPost2010PropOp54
 70
     1
102
RTVSPost2010Prop55
280
     0
102
RTVSPost2010PropOp55
 70
     1
102
RTVSPost2010Prop56
140
1.0
102
RTVSPost2010PropOp56
 70
     1
102
RTVSPost2010Prop57
140
1.0
102
RTVSPost2010PropOp57
 70
     1
  0
XRECORD
  5
92AF4
102
{ACAD_REACTORS
330
87B2E
102
}
330
87B2E
100
AcDbXrecord
280
     1
102
RTVSPropertyOp0
 70
     1
102
RTVSPropertyOp1
 70
     1
102
RTVSPropertyOp2
 70
     1
102
RTVSPropertyOp3
 70
     1
102
RTVSPropertyOp4
 70
     1
102
RTVSPropertyOp5
 70
     1
102
RTVSPropertyOp6
 70
     1
102
RTVSPropertyOp7
 70
     1
102
RTVSPropertyOp8
 70
     1
102
RTVSPropertyOp9
 70
     1
102
RTVSPropertyOp10
 70
     1
102
RTVSPropertyOp11
 70
     1
102
RTVSPropertyOp12
 70
     1
102
RTVSPropertyOp13
 70
     1
102
RTVSPropertyOp14
 70
     1
102
RTVSPropertyOp15
 70
     1
102
RTVSPropertyOp16
 70
     1
102
RTVSPropertyOp17
 70
     1
102
RTVSPropertyOp18
 70
     1
102
RTVSPropertyOp19
 70
     1
102
RTVSPropertyOp20
 70
     1
102
RTVSPropertyOp21
 70
     1
102
RTVSPropertyOp22
 70
     1
102
RTVSPropertyOp23
 70
     1
102
RTVSPropertyOp24
 70
     1
102
RTVSPropertyOp25
 70
     1
102
RTVSPropertyOp26
 70
     1
102
RTVSPropertyOp27
 70
     1
102
RTVSPropertyOp28
 70
     1
102
RTVSPropertyOp29
 70
     1
102
RTVSPropertyOp30
 70
     1
102
RTVSPropertyOp31
 70
     1
102
RTVSPropertyOp32
 70
     1
102
RTVSPropertyOp33
 70
     1
102
RTVSPropertyOp34
 70
     1
102
RTVSPropertyOp35
 70
     1
102
RTVSPropertyOp36
 70
     1
102
RTVSPropertyOp37
 70
     1
102
RTVSPropertyOp38
 70
     1
102
RTVSPropertyOp39
 70
     1
102
RTVSPropertyOp40
 70
     1
102
RTVSPropertyOp41
 70
     1
102
RTVSPropertyOp42
 70
     1
102
RTVSPropertyOp43
 70
     1
102
RTVSPropertyOp44
 70
     1
102
RTVSPropertyOp45
 70
     1
102
RTVSPropertyOp46
 70
     1
102
RTVSPropertyOp47
 70
     1
102
RTVSPropertyOp48
 70
     1
102
RTVSPropertyOp49
 70
     1
102
RTVSPropertyOp50
 70
     1
102
RTVSPropertyOp51
 70
     0
102
RTVSPropertyOp52
 70
     0
102
RTVSPropertyOp53
 70
     1
102
RTVSPropertyOp54
 70
     1
102
RTVSPropertyOp55
 70
     1
102
RTVSPropertyOp56
 70
     1
102
RTVSPropertyOp57
 70
     1
102
RTVSPost2010Prop28
280
     0
102
RTVSPost2010PropOp28
 70
     1
102
RTVSPost2010Prop29
280
     1
102
RTVSPost2010PropOp29
 70
     1
102
RTVSPost2010Prop30
280
     1
102
RTVSPost2010PropOp30
 70
     1
102
RTVSPost2010Prop31
280
     0
102
RTVSPost2010PropOp31
 70
     1
102
RTVSPost2010Prop32
280
     0
102
RTVSPost2010PropOp32
 70
     1
102
RTVSPost2010Prop33
280
     0
102
RTVSPost2010PropOp33
 70
     1
102
RTVSPost2010Prop34
280
     0
102
RTVSPost2010PropOp34
 70
     1
102
RTVSPost2010Prop35
280
     0
102
RTVSPost2010PropOp35
 70
     1
102
RTVSPost2010Prop36
280
     0
102
RTVSPost2010PropOp36
 70
     1
102
RTVSPost2010Prop37
 90
       50
102
RTVSPost2010PropOp37
 70
     1
102
RTVSPost2010Prop38
140
0.0
102
RTVSPost2010PropOp38
 70
     1
102
RTVSPost2010Prop39
140
1.0
102
RTVSPost2010PropOp39
 70
     1
102
RTVSPost2010Prop40
 90
        0
102
RTVSPost2010PropOp40
 70
     1
102
RTVSPost2010Prop41ColorIndex
 90
       18
102
RTVSPost2010Prop41ColorRGB
 90
        0
102
RTVSPost2010PropOp41
 70
     1
102
RTVSPost2010Prop42
 90
       50
102
RTVSPost2010PropOp42
 70
     1
102
RTVSPost2010Prop43
 90
        3
102
RTVSPost2010PropOp43
 70
     1
102
RTVSPost2010Prop44ColorIndex
 90
        5
102
RTVSPost2010Prop44ColorRGB
 90
      255
102
RTVSPost2010PropOp44
 70
     1
102
RTVSPost2010Prop45
280
     0
102
RTVSPost2010PropOp45
 70
     1
102
RTVSPost2010Prop46
 90
       50
102
RTVSPost2010PropOp46
 70
     1
102
RTVSPost2010Prop47
 90
       50
102
RTVSPost2010PropOp47
 70
     1
102
RTVSPost2010Prop48
 90
       50
102
RTVSPost2010PropOp48
 70
     1
102
RTVSPost2010Prop49
280
     0
102
RTVSPost2010PropOp49
 70
     1
102
RTVSPost2010Prop50
 90
       50
102
RTVSPost2010PropOp50
 70
     1
102
RTVSPost2010Prop51ColorIndex
 90
      256
102
RTVSPost2010Prop51ColorRGB
 90
-16777216
102
RTVSPost2010PropOp51
 70
     0
102
RTVSPost2010Prop52
140
1.0
102
RTVSPost2010PropOp52
 70
     0
102
RTVSPost2010Prop53
 90
        2
102
RTVSPost2010PropOp53
 70
     1
102
RTVSPost2010Prop54
  1
strokes_ogs.tif
102
RTVSPost2010PropOp54
 70
     1
102
RTVSPost2010Prop55
280
     0
102
RTVSPost2010PropOp55
 70
     1
102
RTVSPost2010Prop56
140
1.0
102
RTVSPost2010PropOp56
 70
     1
102
RTVSPost2010Prop57
140
1.0
102
RTVSPost2010PropOp57
 70
     1
  0
XRECORD
  5
92AF5
102
{ACAD_REACTORS
330
87B30
102
}
330
87B30
100
AcDbXrecord
280
     1
102
RTVSPropertyOp0
 70
     1
102
RTVSPropertyOp1
 70
     1
102
RTVSPropertyOp2
 70
     1
102
RTVSPropertyOp3
 70
     1
102
RTVSPropertyOp4
 70
     1
102
RTVSPropertyOp5
 70
     1
102
RTVSPropertyOp6
 70
     1
102
RTVSPropertyOp7
 70
     1
102
RTVSPropertyOp8
 70
     1
102
RTVSPropertyOp9
 70
     1
102
RTVSPropertyOp10
 70
     1
102
RTVSPropertyOp11
 70
     1
102
RTVSPropertyOp12
 70
     1
102
RTVSPropertyOp13
 70
     1
102
RTVSPropertyOp14
 70
     1
102
RTVSPropertyOp15
 70
     1
102
RTVSPropertyOp16
 70
     1
102
RTVSPropertyOp17
 70
     1
102
RTVSPropertyOp18
 70
     1
102
RTVSPropertyOp19
 70
     1
102
RTVSPropertyOp20
 70
     1
102
RTVSPropertyOp21
 70
     1
102
RTVSPropertyOp22
 70
     1
102
RTVSPropertyOp23
 70
     1
102
RTVSPropertyOp24
 70
     1
102
RTVSPropertyOp25
 70
     1
102
RTVSPropertyOp26
 70
     1
102
RTVSPropertyOp27
 70
     1
102
RTVSPropertyOp28
 70
     1
102
RTVSPropertyOp29
 70
     1
102
RTVSPropertyOp30
 70
     1
102
RTVSPropertyOp31
 70
     1
102
RTVSPropertyOp32
 70
     1
102
RTVSPropertyOp33
 70
     1
102
RTVSPropertyOp34
 70
     1
102
RTVSPropertyOp35
 70
     1
102
RTVSPropertyOp36
 70
     1
102
RTVSPropertyOp37
 70
     1
102
RTVSPropertyOp38
 70
     1
102
RTVSPropertyOp39
 70
     1
102
RTVSPropertyOp40
 70
     1
102
RTVSPropertyOp41
 70
     1
102
RTVSPropertyOp42
 70
     1
102
RTVSPropertyOp43
 70
     1
102
RTVSPropertyOp44
 70
     1
102
RTVSPropertyOp45
 70
     1
102
RTVSPropertyOp46
 70
     1
102
RTVSPropertyOp47
 70
     1
102
RTVSPropertyOp48
 70
     1
102
RTVSPropertyOp49
 70
     1
102
RTVSPropertyOp50
 70
     1
102
RTVSPropertyOp51
 70
     0
102
RTVSPropertyOp52
 70
     0
102
RTVSPropertyOp53
 70
     1
102
RTVSPropertyOp54
 70
     1
102
RTVSPropertyOp55
 70
     1
102
RTVSPropertyOp56
 70
     1
102
RTVSPropertyOp57
 70
     1
102
RTVSPost2010Prop28
280
     0
102
RTVSPost2010PropOp28
 70
     1
102
RTVSPost2010Prop29
280
     1
102
RTVSPost2010PropOp29
 70
     1
102
RTVSPost2010Prop30
280
     1
102
RTVSPost2010PropOp30
 70
     1
102
RTVSPost2010Prop31
280
     0
102
RTVSPost2010PropOp31
 70
     1
102
RTVSPost2010Prop32
280
     0
102
RTVSPost2010PropOp32
 70
     1
102
RTVSPost2010Prop33
280
     0
102
RTVSPost2010PropOp33
 70
     1
102
RTVSPost2010Prop34
280
     0
102
RTVSPost2010PropOp34
 70
     1
102
RTVSPost2010Prop35
280
     0
102
RTVSPost2010PropOp35
 70
     1
102
RTVSPost2010Prop36
280
     0
102
RTVSPost2010PropOp36
 70
     1
102
RTVSPost2010Prop37
 90
       50
102
RTVSPost2010PropOp37
 70
     1
102
RTVSPost2010Prop38
140
0.0
102
RTVSPost2010PropOp38
 70
     1
102
RTVSPost2010Prop39
140
1.0
102
RTVSPost2010PropOp39
 70
     1
102
RTVSPost2010Prop40
 90
        0
102
RTVSPost2010PropOp40
 70
     1
102
RTVSPost2010Prop41ColorIndex
 90
       18
102
RTVSPost2010Prop41ColorRGB
 90
        0
102
RTVSPost2010PropOp41
 70
     1
102
RTVSPost2010Prop42
 90
       50
102
RTVSPost2010PropOp42
 70
     1
102
RTVSPost2010Prop43
 90
        3
102
RTVSPost2010PropOp43
 70
     1
102
RTVSPost2010Prop44ColorIndex
 90
        5
102
RTVSPost2010Prop44ColorRGB
 90
      255
102
RTVSPost2010PropOp44
 70
     1
102
RTVSPost2010Prop45
280
     0
102
RTVSPost2010PropOp45
 70
     1
102
RTVSPost2010Prop46
 90
       50
102
RTVSPost2010PropOp46
 70
     1
102
RTVSPost2010Prop47
 90
       50
102
RTVSPost2010PropOp47
 70
     1
102
RTVSPost2010Prop48
 90
       50
102
RTVSPost2010PropOp48
 70
     1
102
RTVSPost2010Prop49
280
     0
102
RTVSPost2010PropOp49
 70
     1
102
RTVSPost2010Prop50
 90
       50
102
RTVSPost2010PropOp50
 70
     1
102
RTVSPost2010Prop51ColorIndex
 90
      256
102
RTVSPost2010Prop51ColorRGB
 90
-16777216
102
RTVSPost2010PropOp51
 70
     0
102
RTVSPost2010Prop52
140
1.0
102
RTVSPost2010PropOp52
 70
     0
102
RTVSPost2010Prop53
 90
        2
102
RTVSPost2010PropOp53
 70
     1
102
RTVSPost2010Prop54
  1
strokes_ogs.tif
102
RTVSPost2010PropOp54
 70
     1
102
RTVSPost2010Prop55
280
     0
102
RTVSPost2010PropOp55
 70
     1
102
RTVSPost2010Prop56
140
1.0
102
RTVSPost2010PropOp56
 70
     1
102
RTVSPost2010Prop57
140
1.0
102
RTVSPost2010PropOp57
 70
     1
  0
XRECORD
  5
92AF6
102
{ACAD_REACTORS
330
87B26
102
}
330
87B26
100
AcDbXrecord
280
     1
102
RTVSPropertyOp0
 70
     1
102
RTVSPropertyOp1
 70
     1
102
RTVSPropertyOp2
 70
     1
102
RTVSPropertyOp3
 70
     1
102
RTVSPropertyOp4
 70
     1
102
RTVSPropertyOp5
 70
     1
102
RTVSPropertyOp6
 70
     1
102
RTVSPropertyOp7
 70
     1
102
RTVSPropertyOp8
 70
     1
102
RTVSPropertyOp9
 70
     1
102
RTVSPropertyOp10
 70
     1
102
RTVSPropertyOp11
 70
     1
102
RTVSPropertyOp12
 70
     1
102
RTVSPropertyOp13
 70
     1
102
RTVSPropertyOp14
 70
     1
102
RTVSPropertyOp15
 70
     1
102
RTVSPropertyOp16
 70
     1
102
RTVSPropertyOp17
 70
     1
102
RTVSPropertyOp18
 70
     1
102
RTVSPropertyOp19
 70
     1
102
RTVSPropertyOp20
 70
     1
102
RTVSPropertyOp21
 70
     1
102
RTVSPropertyOp22
 70
     1
102
RTVSPropertyOp23
 70
     1
102
RTVSPropertyOp24
 70
     1
102
RTVSPropertyOp25
 70
     1
102
RTVSPropertyOp26
 70
     1
102
RTVSPropertyOp27
 70
     1
102
RTVSPropertyOp28
 70
     1
102
RTVSPropertyOp29
 70
     1
102
RTVSPropertyOp30
 70
     1
102
RTVSPropertyOp31
 70
     1
102
RTVSPropertyOp32
 70
     1
102
RTVSPropertyOp33
 70
     1
102
RTVSPropertyOp34
 70
     1
102
RTVSPropertyOp35
 70
     1
102
RTVSPropertyOp36
 70
     1
102
RTVSPropertyOp37
 70
     1
102
RTVSPropertyOp38
 70
     1
102
RTVSPropertyOp39
 70
     1
102
RTVSPropertyOp40
 70
     1
102
RTVSPropertyOp41
 70
     1
102
RTVSPropertyOp42
 70
     1
102
RTVSPropertyOp43
 70
     1
102
RTVSPropertyOp44
 70
     1
102
RTVSPropertyOp45
 70
     1
102
RTVSPropertyOp46
 70
     1
102
RTVSPropertyOp47
 70
     1
102
RTVSPropertyOp48
 70
     1
102
RTVSPropertyOp49
 70
     1
102
RTVSPropertyOp50
 70
     1
102
RTVSPropertyOp51
 70
     0
102
RTVSPropertyOp52
 70
     0
102
RTVSPropertyOp53
 70
     1
102
RTVSPropertyOp54
 70
     1
102
RTVSPropertyOp55
 70
     1
102
RTVSPropertyOp56
 70
     1
102
RTVSPropertyOp57
 70
     1
102
RTVSPost2010Prop28
280
     0
102
RTVSPost2010PropOp28
 70
     1
102
RTVSPost2010Prop29
280
     1
102
RTVSPost2010PropOp29
 70
     1
102
RTVSPost2010Prop30
280
     1
102
RTVSPost2010PropOp30
 70
     1
102
RTVSPost2010Prop31
280
     0
102
RTVSPost2010PropOp31
 70
     1
102
RTVSPost2010Prop32
280
     0
102
RTVSPost2010PropOp32
 70
     1
102
RTVSPost2010Prop33
280
     0
102
RTVSPost2010PropOp33
 70
     1
102
RTVSPost2010Prop34
280
     0
102
RTVSPost2010PropOp34
 70
     1
102
RTVSPost2010Prop35
280
     0
102
RTVSPost2010PropOp35
 70
     1
102
RTVSPost2010Prop36
280
     0
102
RTVSPost2010PropOp36
 70
     1
102
RTVSPost2010Prop37
 90
       50
102
RTVSPost2010PropOp37
 70
     1
102
RTVSPost2010Prop38
140
0.0
102
RTVSPost2010PropOp38
 70
     1
102
RTVSPost2010Prop39
140
1.0
102
RTVSPost2010PropOp39
 70
     1
102
RTVSPost2010Prop40
 90
        0
102
RTVSPost2010PropOp40
 70
     1
102
RTVSPost2010Prop41ColorIndex
 90
       18
102
RTVSPost2010Prop41ColorRGB
 90
        0
102
RTVSPost2010PropOp41
 70
     1
102
RTVSPost2010Prop42
 90
       50
102
RTVSPost2010PropOp42
 70
     1
102
RTVSPost2010Prop43
 90
        3
102
RTVSPost2010PropOp43
 70
     1
102
RTVSPost2010Prop44ColorIndex
 90
        5
102
RTVSPost2010Prop44ColorRGB
 90
      255
102
RTVSPost2010PropOp44
 70
     1
102
RTVSPost2010Prop45
280
     0
102
RTVSPost2010PropOp45
 70
     1
102
RTVSPost2010Prop46
 90
       50
102
RTVSPost2010PropOp46
 70
     1
102
RTVSPost2010Prop47
 90
       50
102
RTVSPost2010PropOp47
 70
     1
102
RTVSPost2010Prop48
 90
       50
102
RTVSPost2010PropOp48
 70
     1
102
RTVSPost2010Prop49
280
     0
102
RTVSPost2010PropOp49
 70
     1
102
RTVSPost2010Prop50
 90
       50
102
RTVSPost2010PropOp50
 70
     1
102
RTVSPost2010Prop51ColorIndex
 90
      256
102
RTVSPost2010Prop51ColorRGB
 90
-16777216
102
RTVSPost2010PropOp51
 70
     0
102
RTVSPost2010Prop52
140
1.0
102
RTVSPost2010PropOp52
 70
     0
102
RTVSPost2010Prop53
 90
        2
102
RTVSPost2010PropOp53
 70
     1
102
RTVSPost2010Prop54
  1
strokes_ogs.tif
102
RTVSPost2010PropOp54
 70
     1
102
RTVSPost2010Prop55
280
     0
102
RTVSPost2010PropOp55
 70
     1
102
RTVSPost2010Prop56
140
1.0
102
RTVSPost2010PropOp56
 70
     1
102
RTVSPost2010Prop57
140
1.0
102
RTVSPost2010PropOp57
 70
     1
  0
XRECORD
  5
92AF7
102
{ACAD_REACTORS
330
87B1A
102
}
330
87B1A
100
AcDbXrecord
280
     1
102
RTVSPropertyOp0
 70
     1
102
RTVSPropertyOp1
 70
     1
102
RTVSPropertyOp2
 70
     1
102
RTVSPropertyOp3
 70
     1
102
RTVSPropertyOp4
 70
     1
102
RTVSPropertyOp5
 70
     1
102
RTVSPropertyOp6
 70
     1
102
RTVSPropertyOp7
 70
     1
102
RTVSPropertyOp8
 70
     1
102
RTVSPropertyOp9
 70
     1
102
RTVSPropertyOp10
 70
     1
102
RTVSPropertyOp11
 70
     1
102
RTVSPropertyOp12
 70
     1
102
RTVSPropertyOp13
 70
     1
102
RTVSPropertyOp14
 70
     1
102
RTVSPropertyOp15
 70
     1
102
RTVSPropertyOp16
 70
     1
102
RTVSPropertyOp17
 70
     1
102
RTVSPropertyOp18
 70
     1
102
RTVSPropertyOp19
 70
     1
102
RTVSPropertyOp20
 70
     1
102
RTVSPropertyOp21
 70
     1
102
RTVSPropertyOp22
 70
     1
102
RTVSPropertyOp23
 70
     1
102
RTVSPropertyOp24
 70
     1
102
RTVSPropertyOp25
 70
     1
102
RTVSPropertyOp26
 70
     1
102
RTVSPropertyOp27
 70
     1
102
RTVSPropertyOp28
 70
     1
102
RTVSPropertyOp29
 70
     1
102
RTVSPropertyOp30
 70
     1
102
RTVSPropertyOp31
 70
     1
102
RTVSPropertyOp32
 70
     1
102
RTVSPropertyOp33
 70
     1
102
RTVSPropertyOp34
 70
     1
102
RTVSPropertyOp35
 70
     1
102
RTVSPropertyOp36
 70
     1
102
RTVSPropertyOp37
 70
     1
102
RTVSPropertyOp38
 70
     1
102
RTVSPropertyOp39
 70
     1
102
RTVSPropertyOp40
 70
     1
102
RTVSPropertyOp41
 70
     1
102
RTVSPropertyOp42
 70
     1
102
RTVSPropertyOp43
 70
     1
102
RTVSPropertyOp44
 70
     1
102
RTVSPropertyOp45
 70
     1
102
RTVSPropertyOp46
 70
     1
102
RTVSPropertyOp47
 70
     1
102
RTVSPropertyOp48
 70
     1
102
RTVSPropertyOp49
 70
     1
102
RTVSPropertyOp50
 70
     1
102
RTVSPropertyOp51
 70
     0
102
RTVSPropertyOp52
 70
     0
102
RTVSPropertyOp53
 70
     1
102
RTVSPropertyOp54
 70
     1
102
RTVSPropertyOp55
 70
     1
102
RTVSPropertyOp56
 70
     1
102
RTVSPropertyOp57
 70
     1
102
RTVSPost2010Prop28
280
     0
102
RTVSPost2010PropOp28
 70
     1
102
RTVSPost2010Prop29
280
     1
102
RTVSPost2010PropOp29
 70
     1
102
RTVSPost2010Prop30
280
     1
102
RTVSPost2010PropOp30
 70
     1
102
RTVSPost2010Prop31
280
     0
102
RTVSPost2010PropOp31
 70
     1
102
RTVSPost2010Prop32
280
     0
102
RTVSPost2010PropOp32
 70
     1
102
RTVSPost2010Prop33
280
     0
102
RTVSPost2010PropOp33
 70
     1
102
RTVSPost2010Prop34
280
     0
102
RTVSPost2010PropOp34
 70
     1
102
RTVSPost2010Prop35
280
     0
102
RTVSPost2010PropOp35
 70
     1
102
RTVSPost2010Prop36
280
     0
102
RTVSPost2010PropOp36
 70
     1
102
RTVSPost2010Prop37
 90
       50
102
RTVSPost2010PropOp37
 70
     1
102
RTVSPost2010Prop38
140
0.0
102
RTVSPost2010PropOp38
 70
     1
102
RTVSPost2010Prop39
140
1.0
102
RTVSPost2010PropOp39
 70
     1
102
RTVSPost2010Prop40
 90
        0
102
RTVSPost2010PropOp40
 70
     1
102
RTVSPost2010Prop41ColorIndex
 90
       18
102
RTVSPost2010Prop41ColorRGB
 90
        0
102
RTVSPost2010PropOp41
 70
     1
102
RTVSPost2010Prop42
 90
       50
102
RTVSPost2010PropOp42
 70
     1
102
RTVSPost2010Prop43
 90
        3
102
RTVSPost2010PropOp43
 70
     1
102
RTVSPost2010Prop44ColorIndex
 90
        5
102
RTVSPost2010Prop44ColorRGB
 90
      255
102
RTVSPost2010PropOp44
 70
     1
102
RTVSPost2010Prop45
280
     0
102
RTVSPost2010PropOp45
 70
     1
102
RTVSPost2010Prop46
 90
       50
102
RTVSPost2010PropOp46
 70
     1
102
RTVSPost2010Prop47
 90
       50
102
RTVSPost2010PropOp47
 70
     1
102
RTVSPost2010Prop48
 90
       50
102
RTVSPost2010PropOp48
 70
     1
102
RTVSPost2010Prop49
280
     0
102
RTVSPost2010PropOp49
 70
     1
102
RTVSPost2010Prop50
 90
       50
102
RTVSPost2010PropOp50
 70
     1
102
RTVSPost2010Prop51ColorIndex
 90
      256
102
RTVSPost2010Prop51ColorRGB
 90
-16777216
102
RTVSPost2010PropOp51
 70
     0
102
RTVSPost2010Prop52
140
1.0
102
RTVSPost2010PropOp52
 70
     0
102
RTVSPost2010Prop53
 90
        2
102
RTVSPost2010PropOp53
 70
     1
102
RTVSPost2010Prop54
  1
strokes_ogs.tif
102
RTVSPost2010PropOp54
 70
     1
102
RTVSPost2010Prop55
280
     0
102
RTVSPost2010PropOp55
 70
     1
102
RTVSPost2010Prop56
140
1.0
102
RTVSPost2010PropOp56
 70
     1
102
RTVSPost2010Prop57
140
1.0
102
RTVSPost2010PropOp57
 70
     1
  0
XRECORD
  5
92AF8
102
{ACAD_REACTORS
330
87B32
102
}
330
87B32
100
AcDbXrecord
280
     1
102
RTVSPropertyOp0
 70
     1
102
RTVSPropertyOp1
 70
     1
102
RTVSPropertyOp2
 70
     1
102
RTVSPropertyOp3
 70
     1
102
RTVSPropertyOp4
 70
     1
102
RTVSPropertyOp5
 70
     1
102
RTVSPropertyOp6
 70
     1
102
RTVSPropertyOp7
 70
     1
102
RTVSPropertyOp8
 70
     1
102
RTVSPropertyOp9
 70
     1
102
RTVSPropertyOp10
 70
     1
102
RTVSPropertyOp11
 70
     1
102
RTVSPropertyOp12
 70
     1
102
RTVSPropertyOp13
 70
     1
102
RTVSPropertyOp14
 70
     1
102
RTVSPropertyOp15
 70
     1
102
RTVSPropertyOp16
 70
     1
102
RTVSPropertyOp17
 70
     1
102
RTVSPropertyOp18
 70
     1
102
RTVSPropertyOp19
 70
     1
102
RTVSPropertyOp20
 70
     1
102
RTVSPropertyOp21
 70
     1
102
RTVSPropertyOp22
 70
     1
102
RTVSPropertyOp23
 70
     1
102
RTVSPropertyOp24
 70
     1
102
RTVSPropertyOp25
 70
     1
102
RTVSPropertyOp26
 70
     1
102
RTVSPropertyOp27
 70
     1
102
RTVSPropertyOp28
 70
     1
102
RTVSPropertyOp29
 70
     1
102
RTVSPropertyOp30
 70
     1
102
RTVSPropertyOp31
 70
     1
102
RTVSPropertyOp32
 70
     1
102
RTVSPropertyOp33
 70
     1
102
RTVSPropertyOp34
 70
     1
102
RTVSPropertyOp35
 70
     1
102
RTVSPropertyOp36
 70
     1
102
RTVSPropertyOp37
 70
     1
102
RTVSPropertyOp38
 70
     1
102
RTVSPropertyOp39
 70
     1
102
RTVSPropertyOp40
 70
     1
102
RTVSPropertyOp41
 70
     1
102
RTVSPropertyOp42
 70
     1
102
RTVSPropertyOp43
 70
     1
102
RTVSPropertyOp44
 70
     1
102
RTVSPropertyOp45
 70
     1
102
RTVSPropertyOp46
 70
     1
102
RTVSPropertyOp47
 70
     1
102
RTVSPropertyOp48
 70
     1
102
RTVSPropertyOp49
 70
     1
102
RTVSPropertyOp50
 70
     1
102
RTVSPropertyOp51
 70
     0
102
RTVSPropertyOp52
 70
     0
102
RTVSPropertyOp53
 70
     1
102
RTVSPropertyOp54
 70
     1
102
RTVSPropertyOp55
 70
     1
102
RTVSPropertyOp56
 70
     1
102
RTVSPropertyOp57
 70
     1
102
RTVSPost2010Prop28
280
     0
102
RTVSPost2010PropOp28
 70
     1
102
RTVSPost2010Prop29
280
     1
102
RTVSPost2010PropOp29
 70
     1
102
RTVSPost2010Prop30
280
     1
102
RTVSPost2010PropOp30
 70
     1
102
RTVSPost2010Prop31
280
     0
102
RTVSPost2010PropOp31
 70
     1
102
RTVSPost2010Prop32
280
     0
102
RTVSPost2010PropOp32
 70
     1
102
RTVSPost2010Prop33
280
     0
102
RTVSPost2010PropOp33
 70
     1
102
RTVSPost2010Prop34
280
     0
102
RTVSPost2010PropOp34
 70
     1
102
RTVSPost2010Prop35
280
     0
102
RTVSPost2010PropOp35
 70
     1
102
RTVSPost2010Prop36
280
     0
102
RTVSPost2010PropOp36
 70
     1
102
RTVSPost2010Prop37
 90
       50
102
RTVSPost2010PropOp37
 70
     1
102
RTVSPost2010Prop38
140
0.0
102
RTVSPost2010PropOp38
 70
     1
102
RTVSPost2010Prop39
140
1.0
102
RTVSPost2010PropOp39
 70
     1
102
RTVSPost2010Prop40
 90
        0
102
RTVSPost2010PropOp40
 70
     1
102
RTVSPost2010Prop41ColorIndex
 90
       18
102
RTVSPost2010Prop41ColorRGB
 90
        0
102
RTVSPost2010PropOp41
 70
     1
102
RTVSPost2010Prop42
 90
       50
102
RTVSPost2010PropOp42
 70
     1
102
RTVSPost2010Prop43
 90
        3
102
RTVSPost2010PropOp43
 70
     1
102
RTVSPost2010Prop44ColorIndex
 90
        5
102
RTVSPost2010Prop44ColorRGB
 90
      255
102
RTVSPost2010PropOp44
 70
     1
102
RTVSPost2010Prop45
280
     0
102
RTVSPost2010PropOp45
 70
     1
102
RTVSPost2010Prop46
 90
       50
102
RTVSPost2010PropOp46
 70
     1
102
RTVSPost2010Prop47
 90
       50
102
RTVSPost2010PropOp47
 70
     1
102
RTVSPost2010Prop48
 90
       50
102
RTVSPost2010PropOp48
 70
     1
102
RTVSPost2010Prop49
280
     0
102
RTVSPost2010PropOp49
 70
     1
102
RTVSPost2010Prop50
 90
       50
102
RTVSPost2010PropOp50
 70
     1
102
RTVSPost2010Prop51ColorIndex
 90
      256
102
RTVSPost2010Prop51ColorRGB
 90
-16777216
102
RTVSPost2010PropOp51
 70
     0
102
RTVSPost2010Prop52
140
1.0
102
RTVSPost2010PropOp52
 70
     0
102
RTVSPost2010Prop53
 90
        2
102
RTVSPost2010PropOp53
 70
     1
102
RTVSPost2010Prop54
  1
strokes_ogs.tif
102
RTVSPost2010PropOp54
 70
     1
102
RTVSPost2010Prop55
280
     0
102
RTVSPost2010PropOp55
 70
     1
102
RTVSPost2010Prop56
140
1.0
102
RTVSPost2010PropOp56
 70
     1
102
RTVSPost2010Prop57
140
1.0
102
RTVSPost2010PropOp57
 70
     1
  0
ENDSEC
  0
EOF
