  0
SECTION
  2
HEADER
  9
$ACADVER
  1
AC1015
  9
$ACADMAINTVER
 70
    20
  9
$DWGCODEPAGE
  3
ANSI_932
  9
$INSBASE
 10
0.0
 20
0.0
 30
0.0
  9
$EXTMIN
 10
-25.91753199580573
 20
-67.36312418500563
 30
0.0
  9
$EXTMAX
 10
119.4333333333334
 20
102.6757286116273
 30
0.0
  9
$LIMMIN
 10
0.0
 20
0.0
  9
$LIMMAX
 10
420.0
 20
297.0
  9
$ORTHOMODE
 70
     1
  9
$REGENMODE
 70
     1
  9
$FILLMODE
 70
     1
  9
$QTEXTMODE
 70
     0
  9
$MIRRTEXT
 70
     1
  9
$LTSCALE
 40
1.0
  9
$ATTMODE
 70
     1
  9
$TEXTSIZE
 40
3.5
  9
$TRACEWID
 40
1.0
  9
$TEXTSTYLE
  7
simplex
  9
$CLAYER
  8
0
  9
$CELTYPE
  6
ByLayer
  9
$CECOLOR
 62
   256
  9
$CELTSCALE
 40
1.0
  9
$DISPSILH
 70
     0
  9
$DIMSCALE
 40
0.0
  9
$DIMASZ
 40
3.5
  9
$DIMEXO
 40
0.0
  9
$DIMDLI
 40
0.38
  9
$DIMRND
 40
0.0
  9
$DIMDLE
 40
0.0
  9
$DIMEXE
 40
1.5
  9
$DIMTP
 40
0.0
  9
$DIMTM
 40
0.0
  9
$DIMTXT
 40
3.5
  9
$DIMCEN
 40
0.09
  9
$DIMTSZ
 40
0.0
  9
$DIMTOL
 70
     0
  9
$DIMLIM
 70
     0
  9
$DIMTIH
 70
     0
  9
$DIMTOH
 70
     0
  9
$DIMSE1
 70
     0
  9
$DIMSE2
 70
     0
  9
$DIMTAD
 70
     1
  9
$DIMZIN
 70
     8
  9
$DIMBLK
  1

  9
$DIMASO
 70
     1
  9
$DIMSHO
 70
     1
  9
$DIMPOST
  1

  9
$DIMAPOST
  1

  9
$DIMALT
 70
     0
  9
$DIMALTD
 70
     2
  9
$DIMALTF
 40
25.4
  9
$DIMLFAC
 40
1.0
  9
$DIMTOFL
 70
     0
  9
$DIMTVP
 40
0.0
  9
$DIMTIX
 70
     0
  9
$DIMSOXD
 70
     0
  9
$DIMSAH
 70
     0
  9
$DIMBLK1
  1

  9
$DIMBLK2
  1

  9
$DIMSTYLE
  2
コピー - ISO-25
  9
$DIMCLRD
 70
   256
  9
$DIMCLRE
 70
   256
  9
$DIMCLRT
 70
   256
  9
$DIMTFAC
 40
1.0
  9
$DIMGAP
 40
2.299999999999998
  9
$DIMJUST
 70
     0
  9
$DIMSD1
 70
     0
  9
$DIMSD2
 70
     0
  9
$DIMTOLJ
 70
     1
  9
$DIMTZIN
 70
     8
  9
$DIMALTZ
 70
     0
  9
$DIMALTTZ
 70
     0
  9
$DIMUPT
 70
     0
  9
$DIMDEC
 70
     2
  9
$DIMTDEC
 70
     2
  9
$DIMALTU
 70
     2
  9
$DIMALTTD
 70
     2
  9
$DIMTXSTY
  7
simplex
  9
$DIMAUNIT
 70
     0
  9
$DIMADEC
 70
     0
  9
$DIMALTRND
 40
0.0
  9
$DIMAZIN
 70
     0
  9
$DIMDSEP
 70
    46
  9
$DIMATFIT
 70
     3
  9
$DIMFRAC
 70
     0
  9
$DIMLDRBLK
  1

  9
$DIMLUNIT
 70
     2
  9
$DIMLWD
 70
    -1
  9
$DIMLWE
 70
    -1
  9
$DIMTMOVE
 70
     0
  9
$LUNITS
 70
     2
  9
$LUPREC
 70
     4
  9
$SKETCHINC
 40
1.0
  9
$FILLETRAD
 40
0.8
  9
$AUNITS
 70
     0
  9
$AUPREC
 70
     0
  9
$MENU
  1
.
  9
$ELEVATION
 40
0.0
  9
$PELEVATION
 40
0.0
  9
$THICKNESS
 40
0.0
  9
$LIMCHECK
 70
     0
  9
$CHAMFERA
 40
10.0
  9
$CHAMFERB
 40
10.0
  9
$CHAMFERC
 40
20.0
  9
$CHAMFERD
 40
0.0
  9
$SKPOLY
 70
     0
  9
$TDCREATE
 40
2455489.391063368
  9
$TDUCREATE
 40
2455489.057730035
  9
$TDUPDATE
 40
2458948.456353056
  9
$TDUUPDATE
 40
2458948.123019722
  9
$TDINDWG
 40
2.589725683
  9
$TDUSRTIMER
 40
2.589672581
  9
$USRTIMER
 70
     1
  9
$ANGBASE
 50
0.0
  9
$ANGDIR
 70
     0
  9
$PDMODE
 70
     0
  9
$PDSIZE
 40
0.0
  9
$PLINEWID
 40
0.0
  9
$SPLFRAME
 70
     0
  9
$SPLINETYPE
 70
     6
  9
$SPLINESEGS
 70
     8
  9
$HANDSEED
  5
9223D
  9
$SURFTAB1
 70
     6
  9
$SURFTAB2
 70
     6
  9
$SURFTYPE
 70
     6
  9
$SURFU
 70
     6
  9
$SURFV
 70
     6
  9
$UCSBASE
  2

  9
$UCSNAME
  2

  9
$UCSORG
 10
0.0
 20
0.0
 30
0.0
  9
$UCSXDIR
 10
1.0
 20
0.0
 30
0.0
  9
$UCSYDIR
 10
0.0
 20
1.0
 30
0.0
  9
$UCSORTHOREF
  2

  9
$UCSORTHOVIEW
 70
     0
  9
$UCSORGTOP
 10
0.0
 20
0.0
 30
0.0
  9
$UCSORGBOTTOM
 10
0.0
 20
0.0
 30
0.0
  9
$UCSORGLEFT
 10
0.0
 20
0.0
 30
0.0
  9
$UCSORGRIGHT
 10
0.0
 20
0.0
 30
0.0
  9
$UCSORGFRONT
 10
0.0
 20
0.0
 30
0.0
  9
$UCSORGBACK
 10
0.0
 20
0.0
 30
0.0
  9
$PUCSBASE
  2

  9
$PUCSNAME
  2

  9
$PUCSORG
 10
0.0
 20
0.0
 30
0.0
  9
$PUCSXDIR
 10
1.0
 20
0.0
 30
0.0
  9
$PUCSYDIR
 10
0.0
 20
1.0
 30
0.0
  9
$PUCSORTHOREF
  2

  9
$PUCSORTHOVIEW
 70
     0
  9
$PUCSORGTOP
 10
0.0
 20
0.0
 30
0.0
  9
$PUCSORGBOTTOM
 10
0.0
 20
0.0
 30
0.0
  9
$PUCSORGLEFT
 10
0.0
 20
0.0
 30
0.0
  9
$PUCSORGRIGHT
 10
0.0
 20
0.0
 30
0.0
  9
$PUCSORGFRONT
 10
0.0
 20
0.0
 30
0.0
  9
$PUCSORGBACK
 10
0.0
 20
0.0
 30
0.0
  9
$USERI1
 70
     0
  9
$USERI2
 70
     0
  9
$USERI3
 70
     0
  9
$USERI4
 70
     0
  9
$USERI5
 70
     0
  9
$USERR1
 40
0.0
  9
$USERR2
 40
0.0
  9
$USERR3
 40
0.0
  9
$USERR4
 40
0.0
  9
$USERR5
 40
0.0
  9
$WORLDVIEW
 70
     1
  9
$SHADEDGE
 70
     3
  9
$SHADEDIF
 70
    70
  9
$TILEMODE
 70
     1
  9
$MAXACTVP
 70
    64
  9
$PINSBASE
 10
0.0
 20
0.0
 30
0.0
  9
$PLIMCHECK
 70
     0
  9
$PEXTMIN
 10
26.66999878883364
 20
20.31999878883365
 30
0.0
  9
$PEXTMAX
 10
240.0299890995025
 20
182.8799890995025
 30
0.0
  9
$PLIMMIN
 10
-6.350006103515625
 20
-6.349999904632567
  9
$PLIMMAX
 10
273.0499877929688
 20
209.5499939918518
  9
$UNITMODE
 70
     0
  9
$VISRETAIN
 70
     1
  9
$PLINEGEN
 70
     0
  9
$PSLTSCALE
 70
     1
  9
$TREEDEPTH
 70
  3020
  9
$CMLSTYLE
  2
Standard
  9
$CMLJUST
 70
     0
  9
$CMLSCALE
 40
20.0
  9
$PROXYGRAPHICS
 70
     1
  9
$MEASUREMENT
 70
     1
  9
$CELWEIGHT
370
    -1
  9
$ENDCAPS
280
     0
  9
$JOINSTYLE
280
     0
  9
$LWDISPLAY
290
     0
  9
$INSUNITS
 70
     4
  9
$HYPERLINKBASE
  1

  9
$STYLESHEET
  1

  9
$XEDIT
290
     1
  9
$CEPSNTYPE
380
     0
  9
$PSTYLEMODE
290
     1
  9
$FINGERPRINTGUID
  2
{88B0BF8F-3122-4ABE-9582-66DC5F18B876}
  9
$VERSIONGUID
  2
{96910227-BF34-456C-BD97-6188490C5ABA}
  9
$EXTNAMES
290
     1
  9
$PSVPSCALE
 40
0.0
  9
$OLESTARTUP
290
     0
  0
ENDSEC
  0
SECTION
  2
CLASSES
  0
CLASS
  1
ACDBDICTIONARYWDFLT
  2
AcDbDictionaryWithDefault
  3
ObjectDBX Classes
 90
        0
280
     0
281
     0
  0
CLASS
  1
ACDBPLACEHOLDER
  2
AcDbPlaceHolder
  3
ObjectDBX Classes
 90
    32768
280
     0
281
     0
  0
CLASS
  1
LAYOUT
  2
AcDbLayout
  3
ObjectDBX Classes
 90
    32768
280
     0
281
     0
  0
CLASS
  1
DICTIONARYVAR
  2
AcDbDictionaryVar
  3
ObjectDBX Classes
 90
        0
280
     0
281
     0
  0
CLASS
  1
TABLESTYLE
  2
AcDbTableStyle
  3
ObjectDBX Classes
 90
     4095
280
     0
281
     0
  0
CLASS
  1
SORTENTSTABLE
  2
AcDbSortentsTable
  3
ObjectDBX Classes
 90
        0
280
     0
281
     0
  0
CLASS
  1
DIMASSOC
  2
AcDbDimAssoc
  3
"AcDbDimAssoc|Product Desc:     AcDim ARX App For Dimension|Company:          Autodesk, Inc.|WEB Address:      www.autodesk.com"
 90
        0
280
     0
281
     0
  0
CLASS
  1
ACAD_EVALUATION_GRAPH
  2
AcDbEvalGraph
  3
ObjectDBX Classes
 90
    33921
280
     0
281
     0
  0
CLASS
  1
ACAECUSTOBJ
  2
AcAeEditorObj
  3
AcAeEditorObj
 90
    33792
280
     0
281
     0
  0
CLASS
  1
ACDB_DYNAMICBLOCKPURGEPREVENTER_VERSION
  2
AcDbDynamicBlockPurgePreventer
  3
ObjectDBX Classes
 90
    33921
280
     0
281
     0
  0
CLASS
  1
MATERIAL
  2
AcDbMaterial
  3
ObjectDBX Classes
 90
     1153
280
     0
281
     0
  0
CLASS
  1
VISUALSTYLE
  2
AcDbVisualStyle
  3
ObjectDBX Classes
 90
     4095
280
     0
281
     0
  0
CLASS
  1
SCALE
  2
AcDbScale
  3
ObjectDBX Classes
 90
     1153
280
     0
281
     0
  0
CLASS
  1
MLEADERSTYLE
  2
AcDbMLeaderStyle
  3
ACDB_MLEADERSTYLE_CLASS
 90
     4095
280
     0
281
     0
  0
CLASS
  1
ACDBSECTIONVIEWSTYLE
  2
AcDbSectionViewStyle
  3
ObjectDBX Classes
 90
     1025
280
     0
281
     0
  0
CLASS
  1
ACDBDETAILVIEWSTYLE
  2
AcDbDetailViewStyle
  3
ObjectDBX Classes
 90
     1025
280
     0
281
     0
  0
CLASS
  1
CELLSTYLEMAP
  2
AcDbCellStyleMap
  3
ObjectDBX Classes
 90
     1152
280
     0
281
     0
  0
CLASS
  1
ACDBPLACEHOLDER
  2
AcDbPlaceHolder
  3
ObjectDBX Classes
 90
    32768
280
     0
281
     0
  0
CLASS
  1
LAYOUT
  2
AcDbLayout
  3
ObjectDBX Classes
 90
    32768
280
     0
281
     0
  0
CLASS
  1
ACDBPLACEHOLDER
  2
AcDbPlaceHolder
  3
ObjectDBX Classes
 90
    32768
280
     0
281
     0
  0
CLASS
  1
LAYOUT
  2
AcDbLayout
  3
ObjectDBX Classes
 90
    32768
280
     0
281
     0
  0
CLASS
  1
ACDBPLACEHOLDER
  2
AcDbPlaceHolder
  3
ObjectDBX Classes
 90
    32768
280
     0
281
     0
  0
CLASS
  1
LAYOUT
  2
AcDbLayout
  3
ObjectDBX Classes
 90
    32768
280
     0
281
     0
  0
CLASS
  1
ACDBPLACEHOLDER
  2
AcDbPlaceHolder
  3
ObjectDBX Classes
 90
    32768
280
     0
281
     0
  0
CLASS
  1
LAYOUT
  2
AcDbLayout
  3
ObjectDBX Classes
 90
    32768
280
     0
281
     0
  0
CLASS
  1
ACDBPLACEHOLDER
  2
AcDbPlaceHolder
  3
ObjectDBX Classes
 90
    32768
280
     0
281
     0
  0
CLASS
  1
LAYOUT
  2
AcDbLayout
  3
ObjectDBX Classes
 90
    32768
280
     0
281
     0
  0
CLASS
  1
ACDBPLACEHOLDER
  2
AcDbPlaceHolder
  3
ObjectDBX Classes
 90
        0
280
     0
281
     0
  0
CLASS
  1
LAYOUT
  2
AcDbLayout
  3
ObjectDBX Classes
 90
        0
280
     0
281
     0
  0
ENDSEC
  0
SECTION
  2
TABLES
  0
TABLE
  2
VPORT
  5
8
102
{ACAD_XDICTIONARY
360
8C34E
102
}
330
0
100
AcDbSymbolTable
 70
     1
  0
VPORT
  5
4A360
330
8
100
AcDbSymbolTableRecord
100
AcDbViewportTableRecord
  2
*Active
 70
     0
 10
0.0
 20
0.0
 11
1.0
 21
1.0
 12
37.31272765520306
 22
18.08332329039398
 13
0.0
 23
0.0
 14
10.0
 24
10.0
 15
10.0
 25
10.0
 16
0.0
 26
0.0
 36
1.0
 17
0.0
 27
0.0
 37
0.0
 40
168.370363021456
 41
1.705156950672645
 42
50.0
 43
0.0
 44
0.0
 50
0.0
 51
0.0
 71
     0
 72
  1000
 73
     1
 74
     1
 75
     0
 76
     0
 77
     0
 78
     0
281
     0
 65
     1
110
0.0
120
0.0
130
0.0
111
1.0
121
0.0
131
0.0
112
0.0
122
1.0
132
0.0
 79
     0
146
0.0
1001
ACAD_NAV_VCDISPLAY
1070
     3
  0
ENDTAB
  0
TABLE
  2
LTYPE
  5
5
330
0
100
AcDbSymbolTable
 70
     3
  0
LTYPE
  5
14
330
5
100
AcDbSymbolTableRecord
100
AcDbLinetypeTableRecord
  2
ByBlock
 70
     0
  3

 72
    65
 73
     0
 40
0.0
  0
LTYPE
  5
15
330
5
100
AcDbSymbolTableRecord
100
AcDbLinetypeTableRecord
  2
ByLayer
 70
     0
  3

 72
    65
 73
     0
 40
0.0
  0
LTYPE
  5
16
330
5
100
AcDbSymbolTableRecord
100
AcDbLinetypeTableRecord
  2
Continuous
 70
     0
  3
Solid line
 72
    65
 73
     0
 40
0.0
  0
LTYPE
  5
4A76E
330
5
100
AcDbSymbolTableRecord
100
AcDbLinetypeTableRecord
  2
CENTER2
 70
     0
  3
Center (.5x) ___ _ ___ _ ___ _ ___ _ ___ _ ___
 72
    65
 73
     4
 40
28.575
 49
19.05
 74
     0
 49
-3.174999999999998
 74
     0
 49
3.174999999999998
 74
     0
 49
-3.174999999999998
 74
     0
  0
LTYPE
  5
87B53
330
5
100
AcDbSymbolTableRecord
100
AcDbLinetypeTableRecord
  2
HIDDEN
 70
     0
  3
Hidden __ __ __ __ __ __ __ __ __ __ __ __ __ _
 72
    65
 73
     2
 40
9.524999999999996
 49
6.349999999999997
 74
     0
 49
-3.174999999999998
 74
     0
  0
ENDTAB
  0
TABLE
  2
LAYER
  5
2
102
{ACAD_XDICTIONARY
360
E2
102
}
330
0
100
AcDbSymbolTable
 70
    10
  0
LAYER
  5
10
102
{ACAD_XDICTIONARY
360
4A86C
102
}
330
2
100
AcDbSymbolTableRecord
100
AcDbLayerTableRecord
  2
0
 70
     0
 62
     7
  6
Continuous
370
    -3
390
F
  0
LAYER
  5
31B6
330
2
100
AcDbSymbolTableRecord
100
AcDbLayerTableRecord
  2
Defpoints
 70
     0
 62
     7
  6
Continuous
290
     0
370
    -3
390
F
  0
LAYER
  5
4A772
102
{ACAD_XDICTIONARY
360
4A773
102
}
330
2
100
AcDbSymbolTableRecord
100
AcDbLayerTableRecord
  2
1
 70
     0
 62
     4
  6
Continuous
370
    50
390
F
1001
AcAecLayerStandard
1000

1000
Contour
  0
LAYER
  5
4A774
102
{ACAD_XDICTIONARY
360
4A775
102
}
330
2
100
AcDbSymbolTableRecord
100
AcDbLayerTableRecord
  2
2
 70
     0
 62
     7
  6
Continuous
370
    25
390
F
1001
AcAecLayerStandard
1000

1000
Dimension milling
  0
LAYER
  5
4A776
102
{ACAD_XDICTIONARY
360
4A777
102
}
330
2
100
AcDbSymbolTableRecord
100
AcDbLayerTableRecord
  2
4
 70
     0
 62
     2
  6
CENTER2
370
    25
390
F
1001
AcAecLayerStandard
1000

1000
Center line
  0
LAYER
  5
4A778
102
{ACAD_XDICTIONARY
360
4A779
102
}
330
2
100
AcDbSymbolTableRecord
100
AcDbLayerTableRecord
  2
cut
 70
     0
 62
     1
  6
Continuous
370
    25
390
F
1001
AcAecLayerStandard
1000

1000
contour
  0
LAYER
  5
4A77A
102
{ACAD_XDICTIONARY
360
4A77B
102
}
330
2
100
AcDbSymbolTableRecord
100
AcDbLayerTableRecord
  2
nocut
 70
     0
 62
     7
  6
Continuous
370
    25
390
F
1001
AcAecLayerStandard
1000

1000
contour
  0
LAYER
  5
4A77E
102
{ACAD_XDICTIONARY
360
4A77F
102
}
330
2
100
AcDbSymbolTableRecord
100
AcDbLayerTableRecord
  2
sk2
 70
     0
 62
     7
  6
Continuous
370
    25
390
F
1001
AcAecLayerStandard
1000

1000
sk2 dimension
  0
LAYER
  5
4A782
102
{ACAD_XDICTIONARY
360
4A783
102
}
330
2
100
AcDbSymbolTableRecord
100
AcDbLayerTableRecord
  2
sk6
 70
     0
 62
     5
  6
Continuous
370
    35
390
F
1001
AcAecLayerStandard
1000

1000
sk6 text
  0
LAYER
  5
87B52
102
{ACAD_XDICTIONARY
360
8C34C
102
}
330
2
100
AcDbSymbolTableRecord
100
AcDbLayerTableRecord
  2
sk3
 70
     0
 62
     1
  6
HIDDEN
370
    35
390
F
1001
AcAecLayerStandard
1000

1000

  0
ENDTAB
  0
TABLE
  2
STYLE
  5
3
330
0
100
AcDbSymbolTable
 70
     2
  0
STYLE
  5
11
330
3
100
AcDbSymbolTableRecord
100
AcDbTextStyleTableRecord
  2
Standard
 70
     0
 40
0.0
 41
1.0
 50
0.0
 71
     0
 42
2.5
  3
txt.shx
  4
@extfont2.shx
  0
STYLE
  5
24A
330
3
100
AcDbSymbolTableRecord
100
AcDbTextStyleTableRecord
  2
simplex
 70
     0
 40
3.5
 41
1.0
 50
0.0
 71
     0
 42
3.5
  3
txt.shx
  4

  0
ENDTAB
  0
TABLE
  2
VIEW
  5
6
330
0
100
AcDbSymbolTable
 70
     0
  0
ENDTAB
  0
TABLE
  2
UCS
  5
7
330
0
100
AcDbSymbolTable
 70
     0
  0
ENDTAB
  0
TABLE
  2
APPID
  5
9
330
0
100
AcDbSymbolTable
 70
    31
  0
APPID
  5
12
330
9
100
AcDbSymbolTableRecord
100
AcDbRegAppTableRecord
  2
ACAD
 70
     0
  0
APPID
  5
D2
330
9
100
AcDbSymbolTableRecord
100
AcDbRegAppTableRecord
  2
AcAecLayerStandard
 70
     0
  0
APPID
  5
E6
330
9
100
AcDbSymbolTableRecord
100
AcDbRegAppTableRecord
  2
ACAD_DSTYLE_DIMTEXT_FILL
 70
     0
  0
APPID
  5
4C84
330
9
100
AcDbSymbolTableRecord
100
AcDbRegAppTableRecord
  2
ACAD_EXEMPT_FROM_CAD_STANDARDS
 70
     0
  0
APPID
  5
3493E
330
9
100
AcDbSymbolTableRecord
100
AcDbRegAppTableRecord
  2
DCO15
 70
     0
  0
APPID
  5
3BAB0
330
9
100
AcDbSymbolTableRecord
100
AcDbRegAppTableRecord
  2
ACAD_DSTYLE_DIMEXT_ENABLED
 70
     0
  0
APPID
  5
3BAB1
330
9
100
AcDbSymbolTableRecord
100
AcDbRegAppTableRecord
  2
ACAD_DSTYLE_DIMEXT_LENGTH
 70
     0
  0
APPID
  5
3BEB4
330
9
100
AcDbSymbolTableRecord
100
AcDbRegAppTableRecord
  2
ACAUTHENVIRON
 70
     0
  0
APPID
  5
3BEB7
330
9
100
AcDbSymbolTableRecord
100
AcDbRegAppTableRecord
  2
AcDbDynamicBlockTrueName
 70
     0
  0
APPID
  5
3BEB8
330
9
100
AcDbSymbolTableRecord
100
AcDbRegAppTableRecord
  2
AcDbDynamicBlockGUID
 70
     0
  0
APPID
  5
3BEBA
330
9
100
AcDbSymbolTableRecord
100
AcDbRegAppTableRecord
  2
AcDbBlockRepETag
 70
     0
  0
APPID
  5
4A453
330
9
100
AcDbSymbolTableRecord
100
AcDbRegAppTableRecord
  2
ACAD_PSEXT
 70
     0
  0
APPID
  5
4A454
330
9
100
AcDbSymbolTableRecord
100
AcDbRegAppTableRecord
  2
AcadAnnotative
 70
     0
  0
APPID
  5
4A455
330
9
100
AcDbSymbolTableRecord
100
AcDbRegAppTableRecord
  2
ACAD_DSTYLE_DIMJAG
 70
     0
  0
APPID
  5
4A456
330
9
100
AcDbSymbolTableRecord
100
AcDbRegAppTableRecord
  2
ACAD_DSTYLE_DIMTALN
 70
     0
  0
APPID
  5
4A457
330
9
100
AcDbSymbolTableRecord
100
AcDbRegAppTableRecord
  2
ACAD_NAV_VCDISPLAY
 70
     0
  0
APPID
  5
4A787
330
9
100
AcDbSymbolTableRecord
100
AcDbRegAppTableRecord
  2
ACAD_DSTYLE_DIMINSPECT
 70
     0
  0
APPID
  5
4A788
330
9
100
AcDbSymbolTableRecord
100
AcDbRegAppTableRecord
  2
GENIUS_GENDTOL_13
 70
     0
  0
APPID
  5
4A789
330
9
100
AcDbSymbolTableRecord
100
AcDbRegAppTableRecord
  2
ZWMCAD_GENSTANDARDFRAME_13_
 70
     0
  0
APPID
  5
4A78A
330
9
100
AcDbSymbolTableRecord
100
AcDbRegAppTableRecord
  2
ZW_RECESS_XDATA
 70
     0
  0
APPID
  5
4A78B
330
9
100
AcDbSymbolTableRecord
100
AcDbRegAppTableRecord
  2
ZW_FAC_XDATA
 70
     0
  0
APPID
  5
4A78C
330
9
100
AcDbSymbolTableRecord
100
AcDbRegAppTableRecord
  2
ZW_FLC_XDATA
 70
     0
  0
APPID
  5
4A78D
330
9
100
AcDbSymbolTableRecord
100
AcDbRegAppTableRecord
  2
ZW_SUPERPART
 70
     0
  0
APPID
  5
4A78E
330
9
100
AcDbSymbolTableRecord
100
AcDbRegAppTableRecord
  2
ZW_SUPERSYMBOL
 70
     0
  0
APPID
  5
4A78F
330
9
100
AcDbSymbolTableRecord
100
AcDbRegAppTableRecord
  2
ZW_SUPERSHAFT
 70
     0
  0
APPID
  5
4A790
330
9
100
AcDbSymbolTableRecord
100
AcDbRegAppTableRecord
  2
ZWMCAD_GENFRAME_13_
 70
     0
  0
APPID
  5
4A791
330
9
100
AcDbSymbolTableRecord
100
AcDbRegAppTableRecord
  2
ACAD_MLEADERVER
 70
     0
  0
APPID
  5
4A792
330
9
100
AcDbSymbolTableRecord
100
AcDbRegAppTableRecord
  2
ACAD_DSTYLE_DIMRADIAL_EXTENSION
 70
     0
  0
APPID
  5
885F1
330
9
100
AcDbSymbolTableRecord
100
AcDbRegAppTableRecord
  2
ZWMCAD_GENSCA_13_
 70
     0
  0
APPID
  5
885EF
330
9
100
AcDbSymbolTableRecord
100
AcDbRegAppTableRecord
  2
ACAD_DSTYLE_DIMRADIAL_EXTE
 70
     0
  0
APPID
  5
885EE
330
9
100
AcDbSymbolTableRecord
100
AcDbRegAppTableRecord
  2
ZWMCAD_GENSTANDARDFRAME_13
 70
     0
  0
ENDTAB
  0
TABLE
  2
DIMSTYLE
  5
A
330
0
100
AcDbSymbolTable
 70
     2
100
AcDbDimStyleTable
 71
    21
340
1BF
340
3527
340
90771
340
907A6
340
907AC
340
907B1
340
907B7
340
919EE
340
919F4
340
919F9
340
919FF
340
91A04
340
91A0A
340
91A0F
340
91A15
340
91A1A
340
91A20
340
91A25
340
91A2B
340
91A30
340
91A36
  0
DIMSTYLE
105
1BF
102
{ACAD_REACTORS
330
91EBB
330
91EBA
330
91E14
330
91EBE
330
91E17
330
91E1A
330
921B2
102
}
330
A
100
AcDbSymbolTableRecord
100
AcDbDimStyleTableRecord
  2
コピー - ISO-25
 70
     0
 40
0.0
 41
3.5
 42
0.0
 44
1.5
 73
     0
 74
     0
 77
     1
 78
     8
140
3.5
147
2.299999999999998
176
   256
177
   256
271
     2
178
   256
271
     2
272
     2
284
     8
340
24A
371
    -1
372
    -1
  0
DIMSTYLE
105
3527
330
A
100
AcDbSymbolTableRecord
100
AcDbDimStyleTableRecord
  2
STANDARD
 70
     0
 41
3.0
 47
0.001
 48
0.001
 71
     1
 73
     0
 74
     0
 77
     1
 78
     8
140
4.0
271
     3
272
     3
284
     8
340
11
341
34B1
342
34B1
343
34B1
344
34B1
  0
ENDTAB
  0
TABLE
  2
BLOCK_RECORD
  5
1
330
0
100
AcDbSymbolTable
 70
    11
  0
BLOCK_RECORD
  5
1F
102
{ACAD_XDICTIONARY
360
31EE
102
}
330
1
100
AcDbSymbolTableRecord
100
AcDbBlockTableRecord
  2
*Model_Space
340
22
  0
BLOCK_RECORD
  5
55
330
1
100
AcDbSymbolTableRecord
100
AcDbBlockTableRecord
  2
*Paper_Space
340
56
  0
BLOCK_RECORD
  5
50
330
1
100
AcDbSymbolTableRecord
100
AcDbBlockTableRecord
  2
*Paper_Space0000000
340
51
  0
BLOCK_RECORD
  5
34B1
330
1
100
AcDbSymbolTableRecord
100
AcDbBlockTableRecord
  2
_OPEN
340
0
  0
BLOCK_RECORD
  5
4A6D6
102
{ACAD_XDICTIONARY
360
4A6D7
102
}
330
1
100
AcDbSymbolTableRecord
100
AcDbBlockTableRecord
  2
zero block
340
0
102
{BLKREFS
331
4A793
331
90190
331
903FC
331
90821
331
90A84
331
90E49
331
910AD
331
91473
331
916B3
331
91AA1
331
91CE2
331
8FB3B
331
8FDCA
331
8BD57
331
880DD
331
882D3
331
87B7F
331
87D7D
331
8BFE6
102
}
1001
AcDbDynamicBlockGUID
1000
{A89DF4EB-B2CB-439E-AC69-1EAC9F242D1C}
1001
AcDbBlockRepETag
1070
     1
1071
        7
1001
ACAD
1000
DesignCenter Data
1002
{
1070
     1
1070
     4
1002
}
  0
BLOCK_RECORD
  5
87D73
330
1
100
AcDbSymbolTableRecord
100
AcDbBlockTableRecord
  2
_None
340
0
102
{BLKREFS
331
8DEC1
331
8A12B
331
9002A
331
9006F
331
900CE
331
90117
331
903C3
331
9062B
331
90673
331
906DD
331
90724
331
909A6
331
90CA0
331
90CEB
331
90D5B
331
90DBF
331
90FCE
331
912CA
331
91315
331
9135A
331
913E9
331
915B9
331
91895
331
918E5
331
91966
331
91989
331
91BE7
331
91EC5
331
91F15
331
91F6B
331
91FFC
331
92098
331
8FA29
331
8FA4D
331
8FAA7
331
8FD00
331
8BC93
331
8BCED
331
8BF27
331
87FA2
331
87FBD
331
87FC5
331
88042
331
88238
331
884B1
331
884F0
331
88512
331
885AA
331
87D72
331
87F63
331
8C250
331
8C292
331
8C2BE
331
8C2FE
331
8C332
102
}
  0
BLOCK_RECORD
  5
91EC1
330
1
100
AcDbSymbolTableRecord
100
AcDbBlockTableRecord
  2
*D84444
340
0
  0
BLOCK_RECORD
  5
91ECC
330
1
100
AcDbSymbolTableRecord
100
AcDbBlockTableRecord
  2
*D85555
340
0
  0
BLOCK_RECORD
  5
91ED8
330
1
100
AcDbSymbolTableRecord
100
AcDbBlockTableRecord
  2
*D86666
340
0
  0
BLOCK_RECORD
  5
91EEE
330
1
100
AcDbSymbolTableRecord
100
AcDbBlockTableRecord
  2
*D88887
340
0
  0
BLOCK_RECORD
  5
91EFA
330
1
100
AcDbSymbolTableRecord
100
AcDbBlockTableRecord
  2
*D89998
340
0
  0
BLOCK_RECORD
  5
91F06
330
1
100
AcDbSymbolTableRecord
100
AcDbBlockTableRecord
  2
*D9010109
340
0
  0
BLOCK_RECORD
  5
921B3
330
1
100
AcDbSymbolTableRecord
100
AcDbBlockTableRecord
  2
*D1310
340
0
  0
ENDTAB
  0
ENDSEC
  0
SECTION
  2
BLOCKS
  0
BLOCK
  5
20
330
1F
100
AcDbEntity
  8
0
100
AcDbBlockBegin
  2
*Model_Space
 70
     0
 10
0.0
 20
0.0
 30
0.0
  3
*Model_Space
  1

  0
ENDBLK
  5
21
330
1F
100
AcDbEntity
  8
0
100
AcDbBlockEnd
  0
BLOCK
  5
57
330
55
100
AcDbEntity
 67
     1
  8
0
100
AcDbBlockBegin
  2
*Paper_Space
 70
     0
 10
0.0
 20
0.0
 30
0.0
  3
*Paper_Space
  1

  0
ENDBLK
  5
58
330
55
100
AcDbEntity
 67
     1
  8
0
100
AcDbBlockEnd
  0
BLOCK
  5
52
330
50
100
AcDbEntity
  8
0
100
AcDbBlockBegin
  2
*Paper_Space0000000
 70
     0
 10
0.0
 20
0.0
 30
0.0
  3
*Paper_Space0000000
  1

  0
VIEWPORT
  5
6B
102
{ACAD_XDICTIONARY
360
87B05
102
}
330
50
100
AcDbEntity
  8
0
100
AcDbViewport
 10
264.3775031494645
 20
160.4455827878762
 30
0.0
 40
567.6219612953822
 41
282.2272140146125
 68
     1
 69
    -1
 12
264.3775031494645
 22
160.4455827878762
 13
0.0
 23
0.0
 14
10.0
 24
10.0
 15
10.0
 25
10.0
 16
0.0
 26
0.0
 36
1.0
 17
0.0
 27
0.0
 37
0.0
 42
50.0
 43
0.0
 44
0.0
 45
282.2272140146125
 50
0.0
 51
0.0
 72
  1000
 90
    32864
  1

281
     0
 71
     1
 74
     0
110
0.0
120
0.0
130
0.0
111
1.0
121
0.0
131
0.0
112
0.0
122
1.0
132
0.0
 79
     0
146
0.0
1001
ACAD
1000
MVIEW
1002
{
1070
    16
1010
0.0
1020
0.0
1030
0.0
1010
0.0
1020
0.0
1030
1.0
1040
0.0
1040
282.2272140146125
1040
264.3775031494645
1040
160.4455827878762
1040
50.0
1040
0.0
1040
0.0
1070
     0
1070
  1000
1070
     0
1070
     3
1070
     0
1070
     0
1070
     0
1070
     0
1040
0.0
1040
0.0
1040
0.0
1040
10.0
1040
10.0
1040
10.0
1040
10.0
1070
     0
1002
{
1002
}
1002
}
  0
VIEWPORT
  5
6D
102
{ACAD_XDICTIONARY
360
87B07
102
}
330
50
100
AcDbEntity
  8
0
100
AcDbViewport
 10
133.3499939441681
 20
101.5999939441681
 30
0.0
 40
213.3599903106689
 41
162.5599903106689
 68
     2
 69
    -1
 12
210.0
 22
148.5
 13
0.0
 23
0.0
 14
10.0
 24
10.0
 15
10.0
 25
10.0
 16
0.0
 26
0.0
 36
1.0
 17
0.0
 27
0.0
 37
0.0
 42
50.0
 43
0.0
 44
0.0
 45
324.0677920111345
 50
0.0
 51
0.0
 72
   100
 90
    32864
  1

281
     0
 71
     1
 74
     0
110
0.0
120
0.0
130
0.0
111
1.0
121
0.0
131
0.0
112
0.0
122
1.0
132
0.0
 79
     0
146
0.0
1001
ACAD
1000
MVIEW
1002
{
1070
    16
1010
0.0
1020
0.0
1030
0.0
1010
0.0
1020
0.0
1030
1.0
1040
0.0
1040
324.0677920111345
1040
210.0
1040
148.5
1040
50.0
1040
0.0
1040
0.0
1070
     0
1070
   100
1070
     0
1070
     3
1070
     0
1070
     0
1070
     0
1070
     0
1040
0.0
1040
0.0
1040
0.0
1040
10.0
1040
10.0
1040
10.0
1040
10.0
1070
     0
1002
{
1002
}
1002
}
  0
ENDBLK
  5
53
330
50
100
AcDbEntity
  8
0
100
AcDbBlockEnd
  0
BLOCK
  5
34B2
330
34B1
100
AcDbEntity
  8
0
100
AcDbBlockBegin
  2
_OPEN
 70
     0
 10
0.0
 20
0.0
 30
0.0
  3
_OPEN
  1

  0
LINE
  5
34B3
330
34B1
100
AcDbEntity
  8
0
  6
ByBlock
 62
     0
100
AcDbLine
 10
0.0
 20
0.0
 30
0.0
 11
-1.0
 21
0.1766666667
 31
0.0
  0
LINE
  5
34B4
330
34B1
100
AcDbEntity
  8
0
  6
ByBlock
 62
     0
100
AcDbLine
 10
-1.0
 20
-0.1766666667
 30
0.0
 11
0.0
 21
0.0
 31
0.0
  0
LINE
  5
34B5
330
34B1
100
AcDbEntity
  8
0
  6
ByBlock
 62
     0
100
AcDbLine
 10
-1.0
 20
0.0
 30
0.0
 11
0.0
 21
0.0
 31
0.0
  0
ENDBLK
  5
34B6
330
34B1
100
AcDbEntity
  8
0
  6
ByBlock
 62
     0
100
AcDbBlockEnd
  0
BLOCK
  5
4A6D9
330
4A6D6
100
AcDbEntity
  8
0
100
AcDbBlockBegin
  2
zero block
 70
     0
 10
0.0
 20
0.0
 30
0.0
  3
zero block
  1

  0
HATCH
  5
4A6DA
330
4A6D6
100
AcDbEntity
  8
0
 62
     7
100
AcDbHatch
 10
0.0
 20
0.0
 30
0.0
210
0.0
220
0.0
230
1.0
  2
SOLID
 70
     1
 71
     0
 91
        2
 92
        7
 72
     1
 73
     1
 93
        3
 10
0.0
 20
0.9999999999999875
 42
0.4142135623730915
 10
-1.0
 20
0.0
 42
0.0
 10
0.0
 20
0.0
 42
0.0
 97
        0
 92
        7
 72
     1
 73
     1
 93
        3
 10
1.000000000000007
 20
0.0
 42
0.0
 10
0.0
 20
0.0
 42
0.0
 10
0.0
 20
-1.0
 42
0.4142135623730974
 97
        0
 75
     0
 76
     1
 47
0.0090601366782909
 98
        2
 10
-0.380591363650975
 20
0.4885804701532896
 10
0.4350764810977559
 20
-0.4536738423704725
1001
AcDbBlockRepETag
1070
     1
1071
        0
1005
4A6DA
  0
LINE
  5
4A6DB
330
4A6D6
100
AcDbEntity
  8
0
 62
     7
 48
0.2
100
AcDbLine
 10
-1.0
 20
0.0
 30
0.0
 11
1.000000000000007
 21
0.0
 31
0.0
1001
AcDbBlockRepETag
1070
     1
1071
        1
1005
4A6DB
  0
LINE
  5
4A6DC
330
4A6D6
100
AcDbEntity
  8
0
 62
     7
 48
0.2
100
AcDbLine
 10
0.0
 20
-1.0
 30
0.0
 11
0.0
 21
0.9999999999999875
 31
0.0
1001
AcDbBlockRepETag
1070
     1
1071
        2
1005
4A6DC
  0
ARC
  5
4A6DD
330
4A6D6
100
AcDbEntity
  8
0
 62
     7
 48
0.2
100
AcDbCircle
 10
0.0
 20
0.0
 30
0.0
 40
1.0
100
AcDbArc
 50
270.0
 51
0.0
1001
AcDbBlockRepETag
1070
     1
1071
        3
1005
4A6DD
  0
ARC
  5
4A6DE
330
4A6D6
100
AcDbEntity
  8
0
 62
     7
 48
0.2
100
AcDbCircle
 10
0.0
 20
0.0
 30
0.0
 40
1.0
100
AcDbArc
 50
0.0
 51
90.0
1001
AcDbBlockRepETag
1070
     1
1071
        4
1005
4A6DE
  0
ARC
  5
4A6DF
330
4A6D6
100
AcDbEntity
  8
0
 62
     7
 48
0.2
100
AcDbCircle
 10
0.0
 20
0.0
 30
0.0
 40
1.0
100
AcDbArc
 50
180.0
 51
270.0
1001
AcDbBlockRepETag
1070
     1
1071
        5
1005
4A6DF
  0
ARC
  5
4A6E0
330
4A6D6
100
AcDbEntity
  8
0
 62
     7
 48
0.2
100
AcDbCircle
 10
0.0
 20
0.0
 30
0.0
 40
1.0
100
AcDbArc
 50
90.0
 51
180.0
1001
AcDbBlockRepETag
1070
     1
1071
        6
1005
4A6E0
  0
ENDBLK
  5
4A6E1
330
4A6D6
100
AcDbEntity
  8
0
100
AcDbBlockEnd
  0
BLOCK
  5
87D74
330
87D73
100
AcDbEntity
  8
0
100
AcDbBlockBegin
  2
_None
 70
     0
 10
0.0
 20
0.0
 30
0.0
  3
_None
  1

  0
ENDBLK
  5
87D75
330
87D73
100
AcDbEntity
  8
0
100
AcDbBlockEnd
  0
BLOCK
  5
91ECA
330
91EC1
100
AcDbEntity
  8
0
100
AcDbBlockBegin
  2
*D84444
 70
     1
 10
0.0
 20
0.0
 30
0.0
  3
*D84444
  1

  0
LINE
  5
92095
330
91EC1
100
AcDbEntity
  8
2
100
AcDbLine
 10
62.70000000000002
 20
50.79999999889999
 30
0.0
 11
91.15552348087021
 21
50.79999999889999
 31
0.0
  0
LINE
  5
92096
330
91EC1
100
AcDbEntity
  8
2
100
AcDbLine
 10
89.65552348087021
 20
47.29999999889999
 30
0.0
 11
89.65552348087021
 21
-50.7999999989
 31
0.0
  0
SOLID
  5
92097
330
91EC1
100
AcDbEntity
  8
2
100
AcDbTrace
 10
90.23885681420354
 20
47.29999999889999
 30
0.0
 11
89.07219014753689
 21
47.29999999889999
 31
0.0
 12
89.65552348087021
 22
50.79999999889999
 32
0.0
 13
89.65552348087021
 23
50.79999999889999
 33
0.0
  0
INSERT
  5
92098
330
91EC1
100
AcDbEntity
  8
2
100
AcDbBlockReference
  2
_None
 10
89.65552348087021
 20
-50.7999999989
 30
0.0
 41
3.5
 42
3.5
 43
3.5
 50
270.0
  0
MTEXT
  5
92099
330
91EC1
100
AcDbEntity
  8
2
100
AcDbMText
 10
85.6055234808702
 20
-1.750000000000006
 30
0.0
 40
3.5
 41
0.0
 71
     5
 72
     1
  1
\A1;%%C101.6 [%%c4.000"]
  7
simplex
 11
0.0
 21
1.0
 31
0.0
 73
     1
 44
1.0
1001
ACAD
1000
MTEXTBEGIN
1070
    73
1070
     1
1070
    44
1040
1.0
1070
    74
1070
     0
1000
MTEXTEND
  0
POINT
  5
9209A
330
91EC1
100
AcDbEntity
  8
Defpoints
 62
     0
100
AcDbPoint
 10
62.70000000000002
 20
50.79999999889999
 30
0.0
  0
POINT
  5
9209B
330
91EC1
100
AcDbEntity
  8
Defpoints
 62
     0
100
AcDbPoint
 10
62.70000000000002
 20
-50.7999999989
 30
0.0
  0
POINT
  5
9209C
330
91EC1
100
AcDbEntity
  8
Defpoints
 62
     0
100
AcDbPoint
 10
89.65552348087021
 20
-50.7999999989
 30
0.0
  0
ENDBLK
  5
91ECB
330
91EC1
100
AcDbEntity
  8
0
100
AcDbBlockEnd
  0
BLOCK
  5
91ED6
330
91ECC
100
AcDbEntity
  8
0
100
AcDbBlockBegin
  2
*D85555
 70
     1
 10
0.0
 20
0.0
 30
0.0
  3
*D85555
  1

  0
LINE
  5
92001
330
91ECC
100
AcDbEntity
  8
sk2
100
AcDbLine
 10
8.0
 20
19.0499999989
 30
0.0
 11
-11.33416996484121
 21
19.0499999989
 31
0.0
  0
LINE
  5
92002
330
91ECC
100
AcDbEntity
  8
sk2
100
AcDbLine
 10
8.0
 20
-19.0499999989
 30
0.0
 11
-11.33416996484121
 21
-19.0499999989
 31
0.0
  0
LINE
  5
92003
330
91ECC
100
AcDbEntity
  8
sk2
100
AcDbLine
 10
-9.834169964841207
 20
15.5499999989
 30
0.0
 11
-9.834169964841207
 21
-15.5499999989
 31
0.0
  0
SOLID
  5
92004
330
91ECC
100
AcDbEntity
  8
sk2
100
AcDbTrace
 10
-9.250836631507873
 20
15.5499999989
 30
0.0
 11
-10.41750329817454
 21
15.5499999989
 31
0.0
 12
-9.834169964841207
 22
19.0499999989
 32
0.0
 13
-9.834169964841207
 23
19.0499999989
 33
0.0
  0
SOLID
  5
92005
330
91ECC
100
AcDbEntity
  8
sk2
100
AcDbTrace
 10
-10.41750329817454
 20
-15.5499999989
 30
0.0
 11
-9.250836631507873
 21
-15.5499999989
 31
0.0
 12
-9.834169964841207
 22
-19.0499999989
 32
0.0
 13
-9.834169964841207
 23
-19.0499999989
 33
0.0
  0
MTEXT
  5
92006
330
91ECC
100
AcDbEntity
  8
sk2
100
AcDbMText
 10
-13.8841699648412
 20
0.260355164284519
 30
0.0
 40
3.5
 41
0.0
 71
     5
 72
     1
  1
\A1;%%C38.1 [%%c1.500"]
  7
simplex
 11
0.0
 21
1.0
 31
0.0
 73
     1
 44
1.0
1001
ACAD
1000
MTEXTBEGIN
1070
    73
1070
     1
1070
    44
1040
1.0
1070
    74
1070
     0
1000
MTEXTEND
  0
POINT
  5
92007
330
91ECC
100
AcDbEntity
  8
Defpoints
 62
     0
100
AcDbPoint
 10
8.0
 20
19.0499999989
 30
0.0
  0
POINT
  5
92008
330
91ECC
100
AcDbEntity
  8
Defpoints
 62
     0
100
AcDbPoint
 10
8.0
 20
-19.0499999989
 30
0.0
  0
POINT
  5
92009
330
91ECC
100
AcDbEntity
  8
Defpoints
 62
     0
100
AcDbPoint
 10
-9.834169964841207
 20
-19.0499999989
 30
0.0
  0
ENDBLK
  5
91ED7
330
91ECC
100
AcDbEntity
  8
0
100
AcDbBlockEnd
  0
BLOCK
  5
91EE2
330
91ED8
100
AcDbEntity
  8
0
100
AcDbBlockBegin
  2
*D86666
 70
     1
 10
0.0
 20
0.0
 30
0.0
  3
*D86666
  1

  0
LINE
  5
9200A
330
91ED8
100
AcDbEntity
  8
sk2
100
AcDbLine
 10
7.837200600800002
 20
44.45000638569992
 30
0.0
 11
-21.61753199580573
 21
44.45000638569992
 31
0.0
  0
LINE
  5
9200B
330
91ED8
100
AcDbEntity
  8
sk2
100
AcDbLine
 10
7.837200600800002
 20
-44.44999361430004
 30
0.0
 11
-21.61753199580574
 21
-44.44999361430004
 31
0.0
  0
LINE
  5
9200C
330
91ED8
100
AcDbEntity
  8
sk2
100
AcDbLine
 10
-20.11753199580573
 20
40.95000638569993
 30
0.0
 11
-20.11753199580574
 21
-40.94999361430004
 31
0.0
  0
SOLID
  5
9200D
330
91ED8
100
AcDbEntity
  8
sk2
100
AcDbTrace
 10
-19.5341986624724
 20
40.95000638569993
 30
0.0
 11
-20.70086532913906
 21
40.95000638569993
 31
0.0
 12
-20.11753199580573
 22
44.45000638569992
 32
0.0
 13
-20.11753199580573
 23
44.45000638569992
 33
0.0
  0
SOLID
  5
9200E
330
91ED8
100
AcDbEntity
  8
sk2
100
AcDbTrace
 10
-20.70086532913907
 20
-40.94999361430004
 30
0.0
 11
-19.5341986624724
 21
-40.94999361430004
 31
0.0
 12
-20.11753199580574
 22
-44.44999361430004
 32
0.0
 13
-20.11753199580574
 23
-44.44999361430004
 33
0.0
  0
MTEXT
  5
9200F
330
91ED8
100
AcDbEntity
  8
sk2
100
AcDbMText
 10
-24.16753199580573
 20
0.0000063856999478
 30
0.0
 40
3.5
 41
0.0
 71
     5
 72
     1
  1
\A1;%%C88.9 [%%c3.500"]
  7
simplex
 11
0.0000000000000001
 21
1.0
 31
0.0
 73
     1
 44
1.0
1001
ACAD
1000
MTEXTBEGIN
1070
    73
1070
     1
1070
    44
1040
1.0
1070
    74
1070
     0
1000
MTEXTEND
  0
POINT
  5
92010
330
91ED8
100
AcDbEntity
  8
Defpoints
 62
     0
100
AcDbPoint
 10
7.837200600800002
 20
44.45000638569992
 30
0.0
  0
POINT
  5
92011
330
91ED8
100
AcDbEntity
  8
Defpoints
 62
     0
100
AcDbPoint
 10
7.837200600800002
 20
-44.44999361430004
 30
0.0
  0
POINT
  5
92012
330
91ED8
100
AcDbEntity
  8
Defpoints
 62
     0
100
AcDbPoint
 10
-20.11753199580574
 20
-44.44999361430004
 30
0.0
  0
ENDBLK
  5
91EE3
330
91ED8
100
AcDbEntity
  8
0
100
AcDbBlockEnd
  0
BLOCK
  5
91EF8
330
91EEE
100
AcDbEntity
  8
0
100
AcDbBlockBegin
  2
*D88887
 70
     1
 10
0.0
 20
0.0
 30
0.0
  3
*D88887
  1

  0
LINE
  5
92207
330
91EEE
100
AcDbEntity
  8
2
100
AcDbLine
 10
55.29999999999998
 20
50.79999999889998
 30
0.0
 11
55.29999999999998
 21
69.2211918572458
 31
0.0
  0
LINE
  5
92208
330
91EEE
100
AcDbEntity
  8
2
100
AcDbLine
 10
63.50000000000012
 20
49.99999999890002
 30
0.0
 11
63.50000000000012
 21
69.2211918572458
 31
0.0
  0
LINE
  5
92209
330
91EEE
100
AcDbEntity
  8
2
100
AcDbLine
 10
67.00000000000011
 20
67.7211918572458
 30
0.0
 11
119.4333333333334
 21
67.7211918572458
 31
0.0
  0
LINE
  5
9220A
330
91EEE
100
AcDbEntity
  8
2
100
AcDbLine
 10
51.79999999999998
 20
67.7211918572458
 30
0.0
 11
48.29999999999998
 21
67.7211918572458
 31
0.0
  0
SOLID
  5
9220B
330
91EEE
100
AcDbEntity
  8
2
100
AcDbTrace
 10
51.79999999999998
 20
67.13785852391247
 30
0.0
 11
51.79999999999998
 21
68.30452519057913
 31
0.0
 12
55.29999999999998
 22
67.7211918572458
 32
0.0
 13
55.29999999999998
 23
67.7211918572458
 33
0.0
  0
SOLID
  5
9220C
330
91EEE
100
AcDbEntity
  8
2
100
AcDbTrace
 10
67.00000000000011
 20
68.30452519057913
 30
0.0
 11
67.00000000000011
 21
67.13785852391247
 31
0.0
 12
63.50000000000012
 22
67.7211918572458
 32
0.0
 13
63.50000000000012
 23
67.7211918572458
 33
0.0
  0
MTEXT
  5
9220D
330
91EEE
100
AcDbEntity
  8
2
100
AcDbMText
 10
94.96666666666678
 20
71.77119185724579
 30
0.0
 40
3.5
 41
0.0
 71
     5
 72
     1
  1
\A1;8.2 [.323"](MAX)
  7
simplex
 73
     1
 44
1.0
1001
ACAD
1000
MTEXTBEGIN
1070
    73
1070
     1
1070
    44
1040
1.0
1070
    74
1070
     0
1000
MTEXTEND
  0
POINT
  5
9220E
330
91EEE
100
AcDbEntity
  8
Defpoints
 62
     0
100
AcDbPoint
 10
55.29999999999998
 20
50.79999999889998
 30
0.0
  0
POINT
  5
9220F
330
91EEE
100
AcDbEntity
  8
Defpoints
 62
     0
100
AcDbPoint
 10
63.50000000000012
 20
49.99999999890002
 30
0.0
  0
POINT
  5
92210
330
91EEE
100
AcDbEntity
  8
Defpoints
 62
     0
100
AcDbPoint
 10
63.50000000000012
 20
67.7211918572458
 30
0.0
  0
ENDBLK
  5
91EF9
330
91EEE
100
AcDbEntity
  8
0
100
AcDbBlockEnd
  0
BLOCK
  5
91F04
330
91EFA
100
AcDbEntity
  8
0
100
AcDbBlockBegin
  2
*D89998
 70
     1
 10
0.0
 20
0.0
 30
0.0
  3
*D89998
  1

  0
LINE
  5
921FE
330
91EFA
100
AcDbEntity
  8
2
100
AcDbLine
 10
0.0
 20
42.44999999889997
 30
0.0
 11
0.0
 21
80.49442999719628
 31
0.0
  0
LINE
  5
921FF
330
91EFA
100
AcDbEntity
  8
2
100
AcDbLine
 10
63.50000000000012
 20
49.99999999890002
 30
0.0
 11
63.50000000000012
 21
80.49442999719628
 31
0.0
  0
LINE
  5
92200
330
91EFA
100
AcDbEntity
  8
2
100
AcDbLine
 10
3.5
 20
78.99442999719628
 30
0.0
 11
60.00000000000011
 21
78.99442999719628
 31
0.0
  0
SOLID
  5
92201
330
91EFA
100
AcDbEntity
  8
2
100
AcDbTrace
 10
3.5
 20
79.57776333052961
 30
0.0
 11
3.5
 21
78.41109666386294
 31
0.0
 12
0.0
 22
78.99442999719628
 32
0.0
 13
0.0
 23
78.99442999719628
 33
0.0
  0
SOLID
  5
92202
330
91EFA
100
AcDbEntity
  8
2
100
AcDbTrace
 10
60.00000000000011
 20
78.41109666386294
 30
0.0
 11
60.00000000000011
 21
79.57776333052961
 31
0.0
 12
63.50000000000012
 22
78.99442999719628
 32
0.0
 13
63.50000000000012
 23
78.99442999719628
 33
0.0
  0
MTEXT
  5
92203
330
91EFA
100
AcDbEntity
  8
2
100
AcDbMText
 10
31.75000000000006
 20
83.04442999719627
 30
0.0
 40
3.5
 41
0.0
 71
     5
 72
     1
  1
\A1;63.5 [2.500"]
  7
simplex
 73
     1
 44
1.0
1001
ACAD
1000
MTEXTBEGIN
1070
    73
1070
     1
1070
    44
1040
1.0
1070
    74
1070
     0
1000
MTEXTEND
  0
POINT
  5
92204
330
91EFA
100
AcDbEntity
  8
Defpoints
 62
     0
100
AcDbPoint
 10
0.0
 20
42.44999999889997
 30
0.0
  0
POINT
  5
92205
330
91EFA
100
AcDbEntity
  8
Defpoints
 62
     0
100
AcDbPoint
 10
63.50000000000012
 20
49.99999999890002
 30
0.0
  0
POINT
  5
92206
330
91EFA
100
AcDbEntity
  8
Defpoints
 62
     0
100
AcDbPoint
 10
63.50000000000012
 20
78.99442999719628
 30
0.0
  0
ENDBLK
  5
91F05
330
91EFA
100
AcDbEntity
  8
0
100
AcDbBlockEnd
  0
BLOCK
  5
91F10
330
91F06
100
AcDbEntity
  8
0
100
AcDbBlockBegin
  2
*D9010109
 70
     1
 10
0.0
 20
0.0
 30
0.0
  3
*D9010109
  1

  0
LINE
  5
9202D
330
91F06
100
AcDbEntity
  8
sk2
100
AcDbLine
 10
0.0
 20
-42.44999170410003
 30
0.0
 11
0.0
 21
-67.36312418500563
 31
0.0
  0
LINE
  5
9202E
330
91F06
100
AcDbEntity
  8
sk2
100
AcDbLine
 10
42.0
 20
-26.9999999989
 30
0.0
 11
42.0
 21
-67.36312418500563
 31
0.0
  0
LINE
  5
9202F
330
91F06
100
AcDbEntity
  8
sk2
100
AcDbLine
 10
3.5
 20
-65.86312418500563
 30
0.0
 11
38.5
 21
-65.86312418500563
 31
0.0
  0
SOLID
  5
92030
330
91F06
100
AcDbEntity
  8
sk2
100
AcDbTrace
 10
3.5
 20
-65.2797908516723
 30
0.0
 11
3.5
 21
-66.44645751833896
 31
0.0
 12
0.0
 22
-65.86312418500563
 32
0.0
 13
0.0
 23
-65.86312418500563
 33
0.0
  0
SOLID
  5
92031
330
91F06
100
AcDbEntity
  8
sk2
100
AcDbTrace
 10
38.5
 20
-66.44645751833896
 30
0.0
 11
38.5
 21
-65.2797908516723
 31
0.0
 12
42.0
 22
-65.86312418500563
 32
0.0
 13
42.0
 23
-65.86312418500563
 33
0.0
  0
MTEXT
  5
92032
330
91F06
100
AcDbEntity
  8
sk2
100
AcDbMText
 10
21.0
 20
-61.81312418500564
 30
0.0
 40
3.5
 41
0.0
 71
     5
 72
     1
  1
\A1;42 [1.654"]
  7
simplex
 73
     1
 44
1.0
1001
ACAD
1000
MTEXTBEGIN
1070
    73
1070
     1
1070
    44
1040
1.0
1070
    74
1070
     0
1000
MTEXTEND
  0
POINT
  5
92033
330
91F06
100
AcDbEntity
  8
Defpoints
 62
     0
100
AcDbPoint
 10
0.0
 20
-42.44999170410003
 30
0.0
  0
POINT
  5
92034
330
91F06
100
AcDbEntity
  8
Defpoints
 62
     0
100
AcDbPoint
 10
42.0
 20
-26.9999999989
 30
0.0
  0
POINT
  5
92035
330
91F06
100
AcDbEntity
  8
Defpoints
 62
     0
100
AcDbPoint
 10
42.0
 20
-65.86312418500563
 30
0.0
  0
ENDBLK
  5
91F11
330
91F06
100
AcDbEntity
  8
0
100
AcDbBlockEnd
  0
BLOCK
  5
921BB
330
921B3
100
AcDbEntity
  8
0
100
AcDbBlockBegin
  2
*D1310
 70
     1
 10
0.0
 20
0.0
 30
0.0
  3
*D1310
  1

  0
LINE
  5
921BD
330
921B3
100
AcDbEntity
  8
2
100
AcDbLine
 10
107.7062447564847
 20
60.58107007855195
 30
0.0
 11
66.88587279999028
 21
50.9841081750176
 31
0.0
  0
MTEXT
  5
921BE
330
921B3
100
AcDbEntity
  8
2
100
AcDbMText
 10
88.07271907747162
 20
60.1256063705444
 30
0.0
 40
3.5
 41
0.0
 71
     5
 72
     1
  1
\A1;R0.8 [R.031"]
  7
simplex
 11
0.9734587906954152
 21
0.228862366538975
 31
0.0
 73
     1
 44
1.0
1001
ACAD
1000
MTEXTBEGIN
1070
    73
1070
     1
1070
    44
1040
1.0
1070
    74
1070
     0
1000
MTEXTEND
  0
SOLID
  5
921BF
330
921B3
100
AcDbEntity
  8
2
100
AcDbTrace
 10
66.75236975284254
 20
51.55195913625659
 30
0.0
 11
67.01937584713802
 21
50.41625721377862
 31
0.0
 12
63.47876703255632
 22
50.18308989213118
 32
0.0
 13
63.47876703255632
 23
50.18308989213118
 33
0.0
  0
LINE
  5
921C0
330
921B3
100
AcDbEntity
  8
2
100
AcDbLine
 10
62.61000000000003
 20
49.99999999890002
 30
0.0
 11
62.79000000000005
 21
49.99999999890002
 31
0.0
  0
LINE
  5
921C1
330
921B3
100
AcDbEntity
  8
2
100
AcDbLine
 10
62.70000000000004
 20
49.90999999890002
 30
0.0
 11
62.70000000000004
 21
50.08999999890002
 31
0.0
  0
POINT
  5
921C2
330
921B3
100
AcDbEntity
  8
Defpoints
 62
     0
100
AcDbPoint
 10
63.47876703255632
 20
50.18308989213118
 30
0.0
  0
POINT
  5
921C3
330
921B3
100
AcDbEntity
  8
Defpoints
 62
     0
100
AcDbPoint
 10
62.70000000000004
 20
49.99999999890002
 30
0.0
  0
ENDBLK
  5
921BC
330
921B3
100
AcDbEntity
  8
0
100
AcDbBlockEnd
  0
ENDSEC
  0
SECTION
  2
ENTITIES
  0
INSERT
  5
4A793
330
1F
100
AcDbEntity
  8
0
100
AcDbBlockReference
  2
zero block
 10
0.0
 20
0.0
 30
0.0
 50
180.0
  0
MTEXT
  5
91CE1
330
1F
100
AcDbEntity
  8
sk6
100
AcDbMText
 10
4.076903602291678
 20
102.6757286116273
 30
0.0
 40
3.5
 41
139.3353303764208
 71
     1
 72
     5
  1
WWX400UR4_0007EA
 73
     1
 44
0.9
1001
ACAD
1000
MTEXTBEGIN
1070
    73
1070
     1
1070
    44
1040
0.9
1070
    74
1070
     0
1000
MTEXTEND
1000
ACAD_MTEXT_DEFINED_HEIGHT_BEGIN
1070
    46
1040
3.48901801050149
1000
ACAD_MTEXT_DEFINED_HEIGHT_END
  0
LINE
  5
91CE3
330
1F
100
AcDbEntity
  8
4
100
AcDbLine
 10
68.83693405598953
 20
0.0
 30
0.0
 11
-2.907861614760518
 21
0.0
 31
0.0
  0
LINE
  5
91CE4
330
1F
100
AcDbEntity
  8
nocut
100
AcDbLine
 10
0.0
 20
0.0
 30
0.0
 11
0.0
 21
42.44999999889997
 31
0.0
  0
LINE
  5
91CE5
330
1F
100
AcDbEntity
  8
sk3
100
AcDbLine
 10
0.9999999044000276
 20
7.937506385699946
 30
0.0
 11
0.9999999044000276
 21
19.5499999989
 31
0.0
  0
LINE
  5
91CE6
330
1F
100
AcDbEntity
  8
nocut
100
AcDbLine
 10
61.71340946179999
 20
0.0
 30
0.0
 11
0.0
 21
0.0
 31
0.0
  0
LINE
  5
91CE7
330
1F
100
AcDbEntity
  8
sk3
100
AcDbLine
 10
0.9999999044000276
 20
19.5499999989
 30
0.0
 11
0.0
 21
20.54999989839999
 31
0.0
  0
LINE
  5
91CE8
330
1F
100
AcDbEntity
  8
sk3
100
AcDbLine
 10
8.0
 20
7.937506385699946
 30
0.0
 11
8.0
 21
19.5499999989
 31
0.0
  0
LINE
  5
91CE9
330
1F
100
AcDbEntity
  8
nocut
100
AcDbLine
 10
25.28450007520002
 20
45.15614758319997
 30
0.0
 11
37.44576409039999
 21
49.58248569580003
 31
0.0
  0
LINE
  5
91D15
330
1F
100
AcDbEntity
  8
sk3
100
AcDbLine
 10
25.89046496530003
 20
19.0499999989
 30
0.0
 11
25.89046496530003
 21
0.0
 31
0.0
  0
LINE
  5
91D16
102
{ACAD_REACTORS
330
91E19
102
}
330
1F
100
AcDbEntity
  8
sk3
100
AcDbLine
 10
8.0
 20
19.0499999989
 30
0.0
 11
25.89046496530003
 21
19.0499999989
 31
0.0
  0
LINE
  5
91D17
330
1F
100
AcDbEntity
  8
sk3
100
AcDbLine
 10
39.2868907649
 20
19.0499999989
 30
0.0
 11
41.00000001139995
 21
19.0499999989
 31
0.0
  0
LINE
  5
91D18
330
1F
100
AcDbEntity
  8
sk3
100
AcDbLine
 10
0.9999999044000276
 20
19.5499999989
 30
0.0
 11
8.0
 21
19.5499999989
 31
0.0
  0
LINE
  5
91D1B
330
1F
100
AcDbEntity
  8
sk3
100
AcDbLine
 10
29.17735573010001
 20
20.49999999889999
 30
0.0
 11
35.8226442699
 21
20.49999999889999
 31
0.0
  0
LINE
  5
91D1C
330
1F
100
AcDbEntity
  8
sk3
100
AcDbLine
 10
36.1607388793
 20
20.42504622850001
 30
0.0
 11
38.94879615550005
 21
19.12495376929999
 31
0.0
  0
LINE
  5
91D20
330
1F
100
AcDbEntity
  8
sk3
100
AcDbLine
 10
43.00000000000003
 20
27.9999999989
 30
0.0
 11
55.71340946179996
 21
27.9999999989
 31
0.0
  0
LINE
  5
91D21
330
1F
100
AcDbEntity
  8
sk3
100
AcDbLine
 10
25.89046496530003
 20
19.0499999989
 30
0.0
 11
28.83926112080002
 21
20.42504622850001
 31
0.0
  0
LINE
  5
91D29
330
1F
100
AcDbEntity
  8
sk3
100
AcDbLine
 10
41.00000001139995
 20
19.0499999989
 30
0.0
 11
41.00000001139995
 21
0.0
 31
0.0
  0
LINE
  5
91D2A
330
1F
100
AcDbEntity
  8
sk3
100
AcDbLine
 10
42.0
 20
0.0
 30
0.0
 11
42.0
 21
26.9999999989
 31
0.0
  0
LINE
  5
91D2F
330
1F
100
AcDbEntity
  8
sk3
100
AcDbLine
 10
41.00000001139995
 20
19.0499999989
 30
0.0
 11
42.0
 21
20.04999998689999
 31
0.0
  0
LINE
  5
91D37
330
1F
100
AcDbEntity
  8
sk3
100
AcDbLine
 10
55.71340946179996
 20
27.9999999989
 30
0.0
 11
56.71340946179999
 21
28.99999999889999
 31
0.0
  0
LINE
  5
91D4E
330
1F
100
AcDbEntity
  8
sk3
100
AcDbLine
 10
57.1600186849
 20
34.30093006869999
 30
0.0
 11
59.31043160983813
 21
37.78748238166599
 31
0.0
  0
LINE
  5
91D65
330
1F
100
AcDbEntity
  8
nocut
100
AcDbLine
 10
2.0
 20
44.44999999889996
 30
0.0
 11
13.6744012016
 21
44.44999999889996
 31
0.0
  0
LINE
  5
91D9E
330
1F
100
AcDbEntity
  8
sk3
100
AcDbLine
 10
55.71340946179996
 20
27.9999999989
 30
0.0
 11
55.71340946179996
 21
0.0
 31
0.0
  0
LINE
  5
91D9F
330
1F
100
AcDbEntity
  8
nocut
100
AcDbLine
 10
38.41946730109999
 20
49.76295091889998
 30
0.0
 11
51.97382338410003
 21
49.99954308440003
 31
0.0
  0
LINE
  5
91DA0
330
1F
100
AcDbEntity
  8
nocut
100
AcDbLine
 10
52.02618060339995
 20
49.99999999889999
 30
0.0
 11
55.71340946179996
 21
49.99999999889999
 31
0.0
  0
LINE
  5
91DC9
330
1F
100
AcDbEntity
  8
sk3
100
AcDbLine
 10
56.71340946179999
 20
32.7260664108
 30
0.0
 11
56.71340946179999
 21
0.0
 31
0.0
  0
LINE
  5
91DCC
330
1F
100
AcDbEntity
  8
nocut
100
AcDbLine
 10
61.71340946179999
 20
43.99999999889999
 30
0.0
 11
61.71340946179999
 21
0.0
 31
0.0
  0
ARC
  5
91DED
330
1F
100
AcDbEntity
  8
nocut
100
AcDbCircle
 10
18.44409720870004
 20
63.94999999889996
 30
0.0
 40
20.0
100
AcDbArc
 50
258.0312544452999
 51
290.0
  0
ARC
  5
91DEE
330
1F
100
AcDbEntity
  8
nocut
100
AcDbCircle
 10
55.71340946179996
 20
43.99999999889999
 30
0.0
 40
6.0
100
AcDbArc
 50
0.0
 51
90.0
  0
ARC
  5
91DEF
330
1F
100
AcDbEntity
  8
nocut
100
AcDbCircle
 10
52.02618060339995
 20
46.99999999889999
 30
0.0
 40
3.0
100
AcDbArc
 50
90.0
 51
91.00000000000015
  0
ARC
  5
91DF0
330
1F
100
AcDbEntity
  8
nocut
100
AcDbCircle
 10
38.47182452040004
 20
46.76340783339997
 30
0.0
 40
3.0
100
AcDbArc
 50
91.00000000000015
 51
110.0
  0
ARC
  5
91DF1
330
1F
100
AcDbEntity
  8
nocut
100
AcDbCircle
 10
13.6744012016
 20
41.44999999889996
 30
0.0
 40
3.0
100
AcDbArc
 50
78.03125444529992
 51
90.0
  0
ARC
  5
91DF2
330
1F
100
AcDbEntity
  8
sk3
100
AcDbCircle
 10
59.71340946179996
 20
32.7260664108
 30
0.0
 40
3.0
100
AcDbArc
 50
148.3348161917011
 51
180.0
  0
ARC
  5
91DF5
330
1F
100
AcDbEntity
  8
nocut
100
AcDbCircle
 10
2.0
 20
42.44999999889997
 30
0.0
 40
2.0
100
AcDbArc
 50
90.0
 51
180.0
  0
ARC
  5
91DF6
330
1F
100
AcDbEntity
  8
sk3
100
AcDbCircle
 10
43.00000000000003
 20
26.9999999989
 30
0.0
 40
1.0
100
AcDbArc
 50
90.0
 51
180.0
  0
ARC
  5
91DF9
330
1F
100
AcDbEntity
  8
sk3
100
AcDbCircle
 10
29.17735573010001
 20
19.69999999890001
 30
0.0
 40
0.8
100
AcDbArc
 50
90.0
 51
114.9999999999997
  0
ARC
  5
91DFA
330
1F
100
AcDbEntity
  8
sk3
100
AcDbCircle
 10
39.2868907649
 20
19.84999999890002
 30
0.0
 40
0.8
100
AcDbArc
 50
245.0000000000003
 51
270.0
  0
ARC
  5
91DFB
330
1F
100
AcDbEntity
  8
sk3
100
AcDbCircle
 10
35.8226442699
 20
19.69999999890001
 30
0.0
 40
0.8
100
AcDbArc
 50
65.0000000000003
 51
90.0
  0
LINE
  5
91DFC
330
1F
100
AcDbEntity
  8
sk3
100
AcDbLine
 10
0.9999999044000276
 20
-7.937493614300053
 30
0.0
 11
0.9999999044000276
 21
-19.5499999989
 31
0.0
  0
LINE
  5
91DFD
330
1F
100
AcDbEntity
  8
sk3
100
AcDbLine
 10
0.9999999044000276
 20
-19.5499999989
 30
0.0
 11
0.0
 21
-20.54999989839999
 31
0.0
  0
LINE
  5
91DFE
330
1F
100
AcDbEntity
  8
sk3
100
AcDbLine
 10
8.0
 20
-7.937493614300053
 30
0.0
 11
8.0
 21
-19.5499999989
 31
0.0
  0
LINE
  5
91DFF
330
1F
100
AcDbEntity
  8
sk3
100
AcDbLine
 10
25.89046496530003
 20
-19.0499999989
 30
0.0
 11
25.89046496530003
 21
-0.0000000000000142
 31
0.0
  0
LINE
  5
91E00
102
{ACAD_REACTORS
330
91E19
102
}
330
1F
100
AcDbEntity
  8
sk3
100
AcDbLine
 10
8.0
 20
-19.0499999989
 30
0.0
 11
25.89046496530003
 21
-19.0499999989
 31
0.0
  0
LINE
  5
91E01
330
1F
100
AcDbEntity
  8
sk3
100
AcDbLine
 10
39.2868907649
 20
-19.0499999989
 30
0.0
 11
41.00000001139995
 21
-19.0499999989
 31
0.0
  0
LINE
  5
91E02
330
1F
100
AcDbEntity
  8
sk3
100
AcDbLine
 10
0.9999999044000276
 20
-19.5499999989
 30
0.0
 11
8.0
 21
-19.5499999989
 31
0.0
  0
LINE
  5
91E03
330
1F
100
AcDbEntity
  8
sk3
100
AcDbLine
 10
29.17735573010001
 20
-20.49999999889999
 30
0.0
 11
35.8226442699
 21
-20.49999999889999
 31
0.0
  0
LINE
  5
91E04
330
1F
100
AcDbEntity
  8
sk3
100
AcDbLine
 10
36.1607388793
 20
-20.42504622850001
 30
0.0
 11
38.94879615550005
 21
-19.12495376929999
 31
0.0
  0
LINE
  5
91E05
330
1F
100
AcDbEntity
  8
sk3
100
AcDbLine
 10
43.00000000000003
 20
-27.9999999989
 30
0.0
 11
55.71340946179996
 21
-27.9999999989
 31
0.0
  0
LINE
  5
91E06
330
1F
100
AcDbEntity
  8
sk3
100
AcDbLine
 10
25.89046496530003
 20
-19.0499999989
 30
0.0
 11
28.83926112080002
 21
-20.42504622850001
 31
0.0
  0
LINE
  5
91E07
330
1F
100
AcDbEntity
  8
sk3
100
AcDbLine
 10
41.00000001139995
 20
-19.0499999989
 30
0.0
 11
41.00000001139995
 21
-0.0000000000000142
 31
0.0
  0
LINE
  5
91E08
330
1F
100
AcDbEntity
  8
sk3
100
AcDbLine
 10
42.0
 20
-0.0000000000000142
 30
0.0
 11
42.0
 21
-26.9999999989
 31
0.0
  0
LINE
  5
91E09
330
1F
100
AcDbEntity
  8
sk3
100
AcDbLine
 10
41.00000001139995
 20
-19.0499999989
 30
0.0
 11
42.0
 21
-20.04999998689999
 31
0.0
  0
LINE
  5
91E0A
330
1F
100
AcDbEntity
  8
sk3
100
AcDbLine
 10
55.71340946179996
 20
-27.9999999989
 30
0.0
 11
56.71340946179999
 21
-28.99999999889999
 31
0.0
  0
LINE
  5
91E0B
330
1F
100
AcDbEntity
  8
sk3
100
AcDbLine
 10
57.1600186849
 20
-34.30093006869999
 30
0.0
 11
61.56453972070003
 21
-41.44215993520001
 31
0.0
  0
LINE
  5
91E0C
330
1F
100
AcDbEntity
  8
sk3
100
AcDbLine
 10
55.71340946179996
 20
-27.9999999989
 30
0.0
 11
55.71340946179996
 21
-0.0000000000000142
 31
0.0
  0
LINE
  5
91E0D
330
1F
100
AcDbEntity
  8
sk3
100
AcDbLine
 10
56.71340946179999
 20
-32.7260664108
 30
0.0
 11
56.71340946179999
 21
-0.0000000000000142
 31
0.0
  0
ARC
  5
91E0E
330
1F
100
AcDbEntity
  8
sk3
100
AcDbCircle
 10
59.71340946179996
 20
-32.7260664108
 30
0.0
 40
3.0
100
AcDbArc
 50
180.0
 51
211.6651838082989
  0
ARC
  5
91E0F
330
1F
100
AcDbEntity
  8
sk3
100
AcDbCircle
 10
60.71340946179996
 20
-41.9671144879
 30
0.0
 40
1.0
100
AcDbArc
 50
0.0
 51
31.66518380829892
  0
ARC
  5
91E10
102
{ACAD_REACTORS
330
91EC0
102
}
330
1F
100
AcDbEntity
  8
sk3
100
AcDbCircle
 10
43.00000000000003
 20
-26.9999999989
 30
0.0
 40
1.0
100
AcDbArc
 50
180.0
 51
270.0
  0
ARC
  5
91E11
330
1F
100
AcDbEntity
  8
sk3
100
AcDbCircle
 10
29.17735573010001
 20
-19.69999999890001
 30
0.0
 40
0.8
100
AcDbArc
 50
245.0000000000003
 51
270.0
  0
ARC
  5
91E12
330
1F
100
AcDbEntity
  8
sk3
100
AcDbCircle
 10
39.2868907649
 20
-19.84999999890002
 30
0.0
 40
0.8
100
AcDbArc
 50
90.0
 51
114.9999999999997
  0
ARC
  5
91E13
330
1F
100
AcDbEntity
  8
sk3
100
AcDbCircle
 10
35.8226442699
 20
-19.69999999890001
 30
0.0
 40
0.8
100
AcDbArc
 50
270.0
 51
294.9999999999997
  0
DIMENSION
  5
91E14
330
1F
100
AcDbEntity
  8
2
100
AcDbDimension
  2
*D84444
 10
89.65552348087021
 20
-50.7999999989
 30
0.0
 11
85.6055234808702
 21
-1.750000000000006
 31
0.0
 70
    32
  1
%%C<>
 71
     5
 42
101.5999999978
  3
コピー - ISO-25
100
AcDbAlignedDimension
 13
62.70000000000002
 23
50.79999999889999
 33
0.0
 14
62.70000000000002
 24
-50.7999999989
 34
0.0
 50
90.0
100
AcDbRotatedDimension
1001
ACAD
1000
DSTYLE
1002
{
1070
   170
1070
     1
1070
   171
1070
     3
1070
   143
1040
0.0393700787401575
1070
   285
1070
     4
1070
     4
1000
%%c[]"
1070
   344
1005
87D73
1070
   271
1070
     8
1070
   173
1070
     1
1070
    40
1040
1.0
1070
    76
1070
     1
1002
}
1001
ACAD_DSTYLE_DIMINSPECT
1070
   393
1070
     0
1070
   394
1070
     0
1070
   395
1000

1070
   396
1000

  0
DIMENSION
  5
91E17
102
{ACAD_XDICTIONARY
360
91E18
102
}
102
{ACAD_REACTORS
330
91E19
102
}
330
1F
100
AcDbEntity
  8
sk2
100
AcDbDimension
  2
*D85555
 10
-9.834169964841207
 20
-19.0499999989
 30
0.0
 11
-9.834169964841207
 21
0.260355164284519
 31
0.0
 70
   160
  1
%%C<>
 71
     5
 42
38.0999999978
  3
コピー - ISO-25
100
AcDbAlignedDimension
 13
8.0
 23
19.0499999989
 33
0.0
 14
8.0
 24
-19.0499999989
 34
0.0
 50
90.0
100
AcDbRotatedDimension
1001
ACAD
1000
DSTYLE
1002
{
1070
   170
1070
     1
1070
   171
1070
     3
1070
   143
1040
0.0393700787401575
1070
   285
1070
     4
1070
     4
1000
%%c[]"
1070
   271
1070
     8
1070
    40
1040
1.0
1002
}
1001
ACAD_DSTYLE_DIMINSPECT
1070
   393
1070
     0
1070
   394
1070
     0
1070
   395
1000

1070
   396
1000

  0
DIMENSION
  5
91E1A
330
1F
100
AcDbEntity
  8
sk2
100
AcDbDimension
  2
*D86666
 10
-20.11753199580574
 20
-44.44999361430004
 30
0.0
 11
-20.11753199580573
 21
0.0000063856999475
 31
0.0
 70
   160
  1
%%C<>
 71
     5
 42
88.9
  3
コピー - ISO-25
100
AcDbAlignedDimension
 13
7.837200600800002
 23
44.45000638569992
 33
0.0
 14
7.837200600800002
 24
-44.44999361430004
 34
0.0
 50
90.0
100
AcDbRotatedDimension
1001
ACAD
1000
DSTYLE
1002
{
1070
   170
1070
     1
1070
   171
1070
     3
1070
   143
1040
0.0393700787401575
1070
   285
1070
     4
1070
     4
1000
%%c[]"
1070
   271
1070
     8
1070
    40
1040
1.0
1002
}
1001
ACAD_DSTYLE_DIMINSPECT
1070
   393
1070
     0
1070
   394
1070
     0
1070
   395
1000

1070
   396
1000

  0
LINE
  5
91E1B
330
1F
100
AcDbEntity
  8
1
100
AcDbLine
 10
52.0261806034
 20
-49.99999361430003
 30
0.0
 11
55.71340946179996
 21
-49.99999361430003
 31
0.0
  0
LINE
  5
91E1C
330
1F
100
AcDbEntity
  8
1
100
AcDbLine
 10
51.9738233841
 20
-49.9995366998
 30
0.0
 11
52.0261806034
 21
-49.99999361430003
 31
0.0
  0
LINE
  5
91E1D
330
1F
100
AcDbEntity
  8
1
100
AcDbLine
 10
38.41946730109999
 20
-49.76294453430003
 30
0.0
 11
51.9738233841
 21
-49.9995366998
 31
0.0
  0
LINE
  5
91E1E
330
1F
100
AcDbEntity
  8
1
100
AcDbLine
 10
37.44576409040003
 20
-49.58247931120005
 30
0.0
 11
25.28450007519999
 21
-45.15614119860003
 31
0.0
  0
LINE
  5
91E1F
330
1F
100
AcDbEntity
  8
1
100
AcDbLine
 10
13.67440120159995
 20
-44.44999361430004
 30
0.0
 11
2.0
 21
-44.44999361430004
 31
0.0
  0
LINE
  5
91E20
102
{ACAD_REACTORS
330
91EBD
102
}
330
1F
100
AcDbEntity
  8
1
100
AcDbLine
 10
0.0
 20
42.44999999889997
 30
0.0
 11
0.0
 21
8.937506385699974
 31
0.0
  0
LINE
  5
91E21
102
{ACAD_REACTORS
330
91EC0
102
}
330
1F
100
AcDbEntity
  8
1
100
AcDbLine
 10
0.0
 20
-42.44999170410003
 30
0.0
 11
0.0
 21
-8.937493614300024
 31
0.0
  0
LINE
  5
91E22
330
1F
100
AcDbEntity
  8
1
100
AcDbLine
 10
37.44576409040003
 20
49.58249208249995
 30
0.0
 11
25.28450007519999
 21
45.15615396989992
 31
0.0
  0
LINE
  5
91E23
330
1F
100
AcDbEntity
  8
1
100
AcDbLine
 10
9.525000000000003
 20
6.937506385699973
 30
0.0
 11
9.525000000000003
 21
-6.937493614300022
 31
0.0
  0
LINE
  5
91E24
330
1F
100
AcDbEntity
  8
1
100
AcDbLine
 10
48.1209305653
 20
47.41909084019996
 30
0.0
 11
48.8922129942
 21
47.70555347879994
 31
0.0
  0
LINE
  5
91E25
330
1F
100
AcDbEntity
  8
1
100
AcDbLine
 10
0.0
 20
8.937506385699974
 30
0.0
 11
1.0
 21
7.937506385699973
 31
0.0
  0
LINE
  5
91E26
330
1F
100
AcDbEntity
  8
1
100
AcDbLine
 10
49.4295282666
 20
47.51145184389995
 30
0.0
 11
51.70659732050001
 21
48.83343067839999
 31
0.0
  0
LINE
  5
91E27
330
1F
100
AcDbEntity
  8
1
100
AcDbLine
 10
8.525000000000002
 20
7.937506385699973
 30
0.0
 11
9.525000000000003
 21
6.937506385699973
 31
0.0
  0
LINE
  5
91E28
330
1F
100
AcDbEntity
  8
1
100
AcDbLine
 10
1.0
 20
-7.937493614300022
 30
0.0
 11
0.0
 21
-8.937493614300024
 31
0.0
  0
LINE
  5
91E29
330
1F
100
AcDbEntity
  8
1
100
AcDbLine
 10
8.525000000000002
 20
-7.937493614300022
 30
0.0
 11
1.0
 21
-7.937493614300022
 31
0.0
  0
LINE
  5
91E2A
330
1F
100
AcDbEntity
  8
1
100
AcDbLine
 10
9.525000000000003
 20
-6.937493614300022
 30
0.0
 11
8.525000000000002
 21
-7.937493614300022
 31
0.0
  0
LINE
  5
91E2B
330
1F
100
AcDbEntity
  8
1
100
AcDbLine
 10
1.0
 20
7.937506385699973
 30
0.0
 11
8.525000000000002
 21
7.937506385699973
 31
0.0
  0
LINE
  5
91E2C
330
1F
100
AcDbEntity
  8
1
100
AcDbLine
 10
47.81210181080001
 20
47.6323944521999
 30
0.0
 11
47.6715436142
 21
49.09884876929996
 31
0.0
  0
LINE
  5
91E2D
330
1F
100
AcDbEntity
  8
1
100
AcDbLine
 10
61.56453972070003
 20
38.43595034809997
 30
0.0
 11
61.56453972070003
 21
35.77744900439993
 31
0.0
  0
LINE
  5
91E2E
330
1F
100
AcDbEntity
  8
1
100
AcDbLine
 10
61.71340946179999
 20
38.69810045699998
 30
0.0
 11
61.71340946179999
 21
-43.99999261000002
 31
0.0
  0
LINE
  5
91E2F
330
1F
100
AcDbEntity
  8
1
100
AcDbLine
 10
48.59470044480002
 20
42.20158131149995
 30
0.0
 11
47.66779960769997
 21
43.93597969709995
 31
0.0
  0
LINE
  5
91E30
330
1F
100
AcDbEntity
  8
1
100
AcDbLine
 10
48.28732820460004
 20
43.65398967199999
 30
0.0
 11
49.0878078983
 21
42.10279218409996
 31
0.0
  0
LINE
  5
91E31
330
1F
100
AcDbEntity
  8
1
100
AcDbLine
 10
48.80932627340001
 20
47.33867930579996
 30
0.0
 11
49.4295282666
 21
47.51145184389995
 31
0.0
  0
LINE
  5
91E32
330
1F
100
AcDbEntity
  8
1
100
AcDbLine
 10
57.05623595719996
 20
41.8027138062999
 30
0.0
 11
56.8680847233
 21
41.8027138062999
 31
0.0
  0
LINE
  5
91E33
330
1F
100
AcDbEntity
  8
1
100
AcDbLine
 10
55.33144157010003
 20
41.96800028509996
 30
0.0
 11
55.14329033620004
 21
41.96800028509996
 31
0.0
  0
LINE
  5
91E34
330
1F
100
AcDbEntity
  8
1
100
AcDbLine
 10
55.53815794150001
 20
42.06984499659998
 30
0.0
 11
55.72630917539999
 21
42.06984499659998
 31
0.0
  0
LINE
  5
91E35
330
1F
100
AcDbEntity
  8
1
100
AcDbLine
 10
57.6882378126
 20
42.60991505979997
 30
0.0
 11
57.87638904649998
 21
42.60991505979997
 31
0.0
  0
LINE
  5
91E36
330
1F
100
AcDbEntity
  8
1
100
AcDbLine
 10
58.06099129189999
 20
43.22201412639995
 30
0.0
 11
57.87284005810001
 21
43.22201412639995
 31
0.0
  0
LINE
  5
91E37
330
1F
100
AcDbEntity
  8
1
100
AcDbLine
 10
48.07713951710002
 20
44.22908411109998
 30
0.0
 11
47.22637314300004
 21
44.22908411109998
 31
0.0
  0
LINE
  5
91E38
330
1F
100
AcDbEntity
  8
1
100
AcDbLine
 10
48.05375091960002
 20
44.27526699159996
 30
0.0
 11
47.17598517600004
 21
44.27526699159996
 31
0.0
  0
LINE
  5
91E39
330
1F
100
AcDbEntity
  8
1
100
AcDbLine
 10
57.78106057539996
 20
44.34876096139997
 30
0.0
 11
57.5929093415
 21
44.34876096139997
 31
0.0
  0
LINE
  5
91E3A
330
1F
100
AcDbEntity
  8
1
100
AcDbLine
 10
13.67440120159995
 20
44.45000638569999
 30
0.0
 11
2.0
 21
44.45000638569999
 31
0.0
  0
LINE
  5
91E3B
330
1F
100
AcDbEntity
  8
1
100
AcDbLine
 10
56.75793340030003
 20
44.70475621389996
 30
0.0
 11
56.94608463420002
 21
44.70475621389996
 31
0.0
  0
LINE
  5
91E3C
330
1F
100
AcDbEntity
  8
1
100
AcDbLine
 10
56.23054098570004
 20
45.12621187469989
 30
0.0
 11
56.04238975190003
 21
45.12621187469989
 31
0.0
  0
LINE
  5
91E3D
330
1F
100
AcDbEntity
  8
1
100
AcDbLine
 10
46.58159468640002
 20
45.41270724139994
 30
0.0
 11
47.47894975190003
 21
45.41270724139994
 31
0.0
  0
LINE
  5
91E3E
330
1F
100
AcDbEntity
  8
1
100
AcDbLine
 10
57.89084815929999
 20
42.60983256099993
 30
0.0
 11
57.87638905599999
 21
42.60990394529996
 31
0.0
  0
LINE
  5
91E3F
330
1F
100
AcDbEntity
  8
1
100
AcDbLine
 10
54.78154565019996
 20
44.16476864939997
 30
0.0
 11
54.79600475350004
 21
44.16469726509992
 31
0.0
  0
LINE
  5
91E40
330
1F
100
AcDbEntity
  8
1
100
AcDbLine
 10
48.28732820460004
 20
43.65398967199999
 30
0.0
 11
47.92533967470001
 21
43.73794155859999
 31
0.0
  0
LINE
  5
91E41
330
1F
100
AcDbEntity
  8
1
100
AcDbLine
 10
44.80684900339997
 20
42.95588112319999
 30
0.0
 11
33.87114899860002
 21
46.89043050779995
 31
0.0
  0
LINE
  5
91E42
330
1F
100
AcDbEntity
  8
1
100
AcDbLine
 10
38.41946730109999
 20
49.76295730559994
 30
0.0
 11
48.92627401970003
 21
49.94635429909997
 31
0.0
  0
LINE
  5
91E43
330
1F
100
AcDbEntity
  8
1
100
AcDbLine
 10
46.83970949710004
 20
46.46792630679996
 30
0.0
 11
47.7672601493
 21
46.46792630679996
 31
0.0
  0
LINE
  5
91E44
330
1F
100
AcDbEntity
  8
1
100
AcDbLine
 10
48.83881982589997
 20
47.12164094819994
 30
0.0
 11
47.94549679429996
 21
47.12164094819994
 31
0.0
  0
LINE
  5
91E45
330
1F
100
AcDbEntity
  8
1
100
AcDbLine
 10
48.88253955470003
 20
47.14777504959997
 30
0.0
 11
47.9917631989
 21
47.14777504959997
 31
0.0
  0
LINE
  5
91E46
330
1F
100
AcDbEntity
  8
1
100
AcDbLine
 10
54.1994690894
 20
50.22537164579992
 30
0.0
 11
53.6469074071
 21
50.22537164579992
 31
0.0
  0
LINE
  5
91E47
330
1F
100
AcDbEntity
  8
1
100
AcDbLine
 10
54.93577045689999
 20
50.41589966299998
 30
0.0
 11
54.38420860109999
 21
50.41589966299998
 31
0.0
  0
LINE
  5
91E48
330
1F
100
AcDbEntity
  8
1
100
AcDbLine
 10
54.96644827949999
 20
50.41560221789999
 30
0.0
 11
54.93576955280002
 21
50.41589966299998
 31
0.0
  0
LINE
  5
91E49
330
1F
100
AcDbEntity
  8
1
100
AcDbLine
 10
48.80932627340001
 20
47.33867930579996
 30
0.0
 11
48.1209305653
 21
47.41909084019996
 31
0.0
  0
LINE
  5
91E4A
330
1F
100
AcDbEntity
  8
1
100
AcDbLine
 10
48.8922129942
 20
47.70555347879994
 30
0.0
 11
49.19264401650004
 21
47.62683080169992
 31
0.0
  0
ARC
  5
91E4B
330
1F
100
AcDbEntity
  8
1
100
AcDbCircle
 10
18.44409720869998
 20
-63.94999361430004
 30
0.0
 40
20.0
100
AcDbArc
 50
69.99999999999996
 51
101.9687455547001
  0
ARC
  5
91E4C
330
1F
100
AcDbEntity
  8
1
100
AcDbCircle
 10
18.44409720869998
 20
63.9500063857
 30
0.0
 40
20.0
100
AcDbArc
 50
258.0312544452999
 51
290.0
  0
ARC
  5
91E4D
330
1F
100
AcDbEntity
  8
1
100
AcDbCircle
 10
55.71340946179996
 20
-43.99999361430002
 30
0.0
 40
6.0
100
AcDbArc
 50
270.0
 51
0.0
  0
ARC
  5
91E4E
330
1F
100
AcDbEntity
  8
1
100
AcDbCircle
 10
13.67440120159995
 20
41.45000638569999
 30
0.0
 40
3.0
100
AcDbArc
 50
78.03125444529992
 51
90.0
  0
ARC
  5
91E4F
330
1F
100
AcDbEntity
  8
1
100
AcDbCircle
 10
13.67440120159995
 20
-41.44999361430004
 30
0.0
 40
3.0
100
AcDbArc
 50
270.0
 51
281.9687455547001
  0
ARC
  5
91E50
330
1F
100
AcDbEntity
  8
1
100
AcDbCircle
 10
38.47182452039999
 20
46.76341422019995
 30
0.0
 40
3.0
100
AcDbArc
 50
91.00000000000015
 51
110.0
  0
ARC
  5
91E51
330
1F
100
AcDbEntity
  8
1
100
AcDbCircle
 10
38.47182452039999
 20
-46.76340144880003
 30
0.0
 40
3.0
100
AcDbArc
 50
250.0
 51
268.9999999999998
  0
ARC
  5
91E52
330
1F
100
AcDbEntity
  8
1
100
AcDbCircle
 10
2.0
 20
42.45000638569999
 30
0.0
 40
2.0
100
AcDbArc
 50
90.0
 51
180.0
  0
ARC
  5
91E53
330
1F
100
AcDbEntity
  8
1
100
AcDbCircle
 10
2.0
 20
-42.44999361430004
 30
0.0
 40
2.0
100
AcDbArc
 50
180.0
 51
270.0
  0
SPLINE
  5
91E54
330
1F
100
AcDbEntity
  8
1
100
AcDbSpline
210
0.0
220
0.0
230
1.0
 70
     8
 71
     3
 72
    15
 73
    11
 74
     0
 42
0.000000001
 43
0.0000000001
 40
0.0
 40
0.0
 40
0.0
 40
0.0
 40
0.1246286297
 40
0.2493692327
 40
0.3743263633
 40
0.4994868881000001
 40
0.6247607511
 40
0.7500117186000002
 40
0.8751071011
 40
1.0
 40
1.0
 40
1.0
 40
1.0
 10
54.78154564949999
 20
44.16477748509996
 30
0.0
 10
54.74618492409994
 20
44.16477450009992
 30
0.0
 10
54.67489518960002
 20
44.15307139809995
 30
0.0
 10
54.57957485730003
 20
44.10225138459995
 30
0.0
 10
54.50527476690002
 20
44.02351750289997
 30
0.0
 10
54.4598553413
 20
43.92511479599996
 30
0.0
 10
54.44799604210004
 20
43.81730874039996
 30
0.0
 10
54.47094722750001
 20
43.71130698489994
 30
0.0
 10
54.52622288999998
 20
43.61822071409998
 30
0.0
 10
54.58114551400001
 20
43.57103167719995
 30
0.0
 10
54.61140251760003
 20
43.55258708409993
 30
0.0
  0
SPLINE
  5
91E55
330
1F
100
AcDbEntity
  8
1
100
AcDbSpline
210
0.0
220
0.0
230
1.0
 70
     8
 71
     3
 72
    11
 73
     7
 74
     0
 42
0.000000001
 43
0.0000000001
 40
0.0
 40
0.0
 40
0.0
 40
0.0
 40
0.250301594
 40
0.5003523427000001
 40
0.7502254609000003
 40
1.0
 40
1.0
 40
1.0
 40
1.0
 10
53.83947115530003
 20
45.86793519669996
 30
0.0
 10
53.99712207499999
 20
46.02115457869993
 30
0.0
 10
54.34264156000001
 20
46.29785814719992
 30
0.0
 10
54.92985289350002
 20
46.60540784509996
 30
0.0
 10
55.56464608920004
 20
46.79471781589997
 30
0.0
 10
56.0046556346
 20
46.83729666709993
 30
0.0
 10
56.22403355249996
 20
46.83730007709995
 30
0.0
  0
SPLINE
  5
91E56
330
1F
100
AcDbEntity
  8
1
100
AcDbSpline
210
0.0
220
0.0
230
1.0
 70
     8
 71
     3
 72
    15
 73
    11
 74
     0
 42
0.000000001
 43
0.0000000001
 40
0.0
 40
0.0
 40
0.0
 40
0.0
 40
0.12517186
 40
0.2504192486
 40
0.3756816193
 40
0.500854719
 40
0.6258748281999999
 40
0.7507162961000004
 40
0.8754017411999999
 40
1.0
 40
1.0
 40
1.0
 40
1.0
 10
54.89133323420002
 20
42.42584024909999
 30
0.0
 10
54.87664724130002
 20
42.40099105149996
 30
0.0
 10
54.85370923120001
 20
42.34714009009993
 30
0.0
 10
54.84148584679996
 20
42.26041427729998
 30
0.0
 10
54.85209889589999
 20
42.17342119649996
 30
0.0
 10
54.88487612749998
 20
42.09220970829997
 30
0.0
 10
54.93754798219999
 20
42.02235959769999
 30
0.0
 10
55.0065210532
 20
41.96870038769995
 30
0.0
 10
55.08696224940003
 20
41.93493708959997
 30
0.0
 10
55.1447354247
 20
41.92726013289997
 30
0.0
 10
55.17346768100003
 20
41.92725769639993
 30
0.0
  0
SPLINE
  5
91E57
330
1F
100
AcDbEntity
  8
1
100
AcDbSpline
210
0.0
220
0.0
230
1.0
 70
     8
 71
     3
 72
    11
 73
     7
 74
     0
 42
0.000000001
 43
0.0000000001
 40
0.0
 40
0.0
 40
0.0
 40
0.0
 40
0.2504809262
 40
0.5005858755000001
 40
0.750384011
 40
1.0
 40
1.0
 40
1.0
 40
1.0
 10
56.44185282379999
 20
41.64838933569996
 30
0.0
 10
56.40654691920001
 20
41.71170548149992
 30
0.0
 10
56.31879031559996
 20
41.82948539929995
 30
0.0
 10
56.14593012
 20
41.96501029129993
 30
0.0
 10
55.94382372810002
 20
42.05041512839996
 30
0.0
 10
55.79855326689999
 20
42.06984794769996
 30
0.0
 10
55.72630917600003
 20
42.06984450459994
 30
0.0
  0
SPLINE
  5
91E58
330
1F
100
AcDbEntity
  8
1
100
AcDbSpline
210
0.0
220
0.0
230
1.0
 70
     8
 71
     3
 72
    11
 73
     7
 74
     0
 42
0.000000001
 43
0.0000000001
 40
0.0
 40
0.0
 40
0.0
 40
0.0
 40
0.2504880625
 40
0.5005819384
 40
0.7503846693999999
 40
1.0
 40
1.0
 40
1.0
 40
1.0
 10
56.44185282379999
 20
41.64838933569996
 30
0.0
 10
56.45597795840001
 20
41.62305790479993
 30
0.0
 10
56.49108493469999
 20
41.57593669679997
 30
0.0
 10
56.5602447961
 20
41.52172387719994
 30
0.0
 10
56.6410976504
 20
41.48754964459995
 30
0.0
 10
56.69921653670002
 20
41.47978096449995
 30
0.0
 10
56.72811894710003
 20
41.47977880859992
 30
0.0
  0
SPLINE
  5
91E59
330
1F
100
AcDbEntity
  8
1
100
AcDbSpline
210
0.0
220
0.0
230
1.0
 70
     8
 71
     3
 72
    15
 73
    11
 74
     0
 42
0.000000001
 43
0.0000000001
 40
0.0
 40
0.0
 40
0.0
 40
0.0
 40
0.125028041
 40
0.2501310002
 40
0.3752787635
 40
0.5004112717
 40
0.6254813822
 40
0.7504512691
 40
0.8752875286
 40
1.0
 40
1.0
 40
1.0
 40
1.0
 10
54.89133323420002
 20
42.42584024909999
 30
0.0
 10
54.9185775789
 20
42.47193860349997
 30
0.0
 10
54.96420630379995
 20
42.56974656939994
 30
0.0
 10
55.00293395059998
 20
42.72673192669995
 30
0.0
 10
55.01067351009999
 20
42.88834147299993
 30
0.0
 10
54.98707778109997
 20
43.04837870219992
 30
0.0
 10
54.93306549210001
 20
43.20078347719996
 30
0.0
 10
54.85065349
 20
43.33976946569996
 30
0.0
 10
54.74304381390004
 20
43.46002473909996
 30
0.0
 10
54.6570088139
 20
43.52478560079996
 30
0.0
 10
54.61140251760003
 20
43.55258708409993
 30
0.0
  0
SPLINE
  5
91E5A
330
1F
100
AcDbEntity
  8
1
100
AcDbSpline
210
0.0
220
0.0
230
1.0
 70
     8
 71
     3
 72
    15
 73
    11
 74
     0
 42
0.000000001
 43
0.0000000001
 40
0.0
 40
0.0
 40
0.0
 40
0.0
 40
0.124680339
 40
0.2493906157
 40
0.3742015863
 40
0.4991317614
 40
0.6241940515
 40
0.7493817505
 40
0.8746591993
 40
1.0
 40
1.0
 40
1.0
 40
1.0
 10
54.79600475400002
 20
44.16468643659995
 30
0.0
 10
54.84888948070004
 20
44.16468915139996
 30
0.0
 10
54.95496037039998
 20
44.1750346286
 30
0.0
 10
55.10787114190003
 20
44.22103638299997
 30
0.0
 10
55.24916846489998
 20
44.29576573289998
 30
0.0
 10
55.3734915983
 20
44.39644207099994
 30
0.0
 10
55.47621997980002
 20
44.51927892229996
 30
0.0
 10
55.55350524689996
 20
44.65970499779992
 30
0.0
 10
55.60247720100001
 20
44.81239059999999
 30
0.0
 10
55.6150259368
 20
44.91873458529997
 30
0.0
 10
55.61615785230003
 20
44.97188740419997
 30
0.0
  0
SPLINE
  5
91E5B
330
1F
100
AcDbEntity
  8
1
100
AcDbSpline
210
0.0
220
0.0
230
1.0
 70
     8
 71
     3
 72
    15
 73
    11
 74
     0
 42
0.000000001
 43
0.0000000001
 40
0.0
 40
0.0
 40
0.0
 40
0.0
 40
0.1248739824
 40
0.2498821241
 40
0.3749905068
 40
0.5001412370000004
 40
0.6252693013
 40
0.7503143411
 40
0.8752314974999999
 40
1.0
 40
1.0
 40
1.0
 40
1.0
 10
53.83947115530003
 20
45.86793519669996
 30
0.0
 10
53.65912073190003
 20
45.69265438969992
 30
0.0
 10
53.33576255939999
 20
45.30080010909998
 30
0.0
 10
52.99077423440002
 20
44.62248967729997
 30
0.0
 10
52.8007891784
 20
43.88466661979996
 30
0.0
 10
52.77525793090001
 20
43.12304780439993
 30
0.0
 10
52.91527334530004
 20
42.37410193459996
 30
0.0
 10
53.21426396960004
 20
41.67370585929996
 30
0.0
 10
53.6575380795
 20
41.05576120659995
 30
0.0
 10
54.0362536609
 20
40.71768543809993
 30
0.0
 10
54.2409370889
 20
40.57192013649991
 30
0.0
  0
SPLINE
  5
91E5C
330
1F
100
AcDbEntity
  8
1
100
AcDbSpline
210
0.0
220
0.0
230
1.0
 70
     8
 71
     3
 72
     9
 73
     5
 74
     0
 42
0.000000001
 43
0.0000000001
 40
0.0
 40
0.0
 40
0.0
 40
0.0
 40
0.5000440625
 40
1.0
 40
1.0
 40
1.0
 40
1.0
 10
55.36061510030004
 20
40.04832374289995
 30
0.0
 10
55.50128530329999
 20
40.01154900969996
 30
0.0
 10
55.78759309640003
 20
39.95592151749995
 30
0.0
 10
56.0786614909
 20
39.93729887369998
 30
0.0
 10
56.22403355249996
 20
39.93730113339998
 30
0.0
  0
SPLINE
  5
91E5D
330
1F
100
AcDbEntity
  8
1
100
AcDbSpline
210
0.0
220
0.0
230
1.0
 70
     8
 71
     3
 72
    11
 73
     7
 74
     0
 42
0.000000001
 43
0.0000000001
 40
0.0
 40
0.0
 40
0.0
 40
0.0
 40
0.2493735195
 40
0.4991092802
 40
0.7493605911
 40
1.0
 40
1.0
 40
1.0
 40
1.0
 10
55.94427486239998
 20
45.29482240179996
 30
0.0
 10
55.90215604909997
 20
45.29482554349996
 30
0.0
 10
55.8169527114
 20
45.27808601889996
 30
0.0
 10
55.70882687829999
 20
45.20649270119995
 30
0.0
 10
55.6354533979
 20
45.09933301139996
 30
0.0
 10
55.617059142
 20
45.01421042879993
 30
0.0
 10
55.61615785230003
 20
44.97188740419997
 30
0.0
  0
SPLINE
  5
91E5E
330
1F
100
AcDbEntity
  8
1
100
AcDbSpline
210
0.0
220
0.0
230
1.0
 70
     8
 71
     3
 72
     9
 73
     5
 74
     0
 42
0.000000001
 43
0.0000000001
 40
0.0
 40
0.0
 40
0.0
 40
0.0
 40
0.4998160979
 40
1.0
 40
1.0
 40
1.0
 40
1.0
 10
56.94608463349999
 20
44.70475670589999
 30
0.0
 10
57.01456881560001
 20
44.70475996979994
 30
0.0
 10
57.15214074950001
 20
44.72215082469992
 30
0.0
 10
57.28095629620002
 20
44.77347276209993
 30
0.0
 10
57.34095223949998
 20
44.80660092539998
 30
0.0
  0
SPLINE
  5
91E5F
330
1F
100
AcDbEntity
  8
1
100
AcDbSpline
210
0.0
220
0.0
230
1.0
 70
     8
 71
     3
 72
     9
 73
     5
 74
     0
 42
0.000000001
 43
0.0000000001
 40
0.0
 40
0.0
 40
0.0
 40
0.0
 40
0.4998046985000001
 40
1.0
 40
1.0
 40
1.0
 40
1.0
 10
57.4989261285
 20
44.84734351409993
 30
0.0
 10
57.47152844480002
 20
44.84734583739995
 30
0.0
 10
57.41648980300005
 20
44.84038703249999
 30
0.0
 10
57.36495522510001
 20
44.81985473529997
 30
0.0
 10
57.34095223949998
 20
44.80660092539998
 30
0.0
  0
SPLINE
  5
91E60
330
1F
100
AcDbEntity
  8
1
100
AcDbSpline
210
0.0
220
0.0
230
1.0
 70
     8
 71
     3
 72
    23
 73
    19
 74
     0
 42
0.000000001
 43
0.0000000001
 40
0.0
 40
0.0
 40
0.0
 40
0.0
 40
0.0622939592
 40
0.124602781
 40
0.1869400101
 40
0.2493166994
 40
0.3117404419
 40
0.3742147104
 40
0.4367385602000002
 40
0.4993067197000002
 40
0.5619100552000002
 40
0.6245363756
 40
0.6871714914
 40
0.7498005022
 40
0.8124088025
 40
0.8749846087999999
 40
0.9375154697999999
 40
1.0
 40
1.0
 40
1.0
 40
1.0
 10
56.29438551949998
 20
46.83730007709995
 30
0.0
 10
56.46387405620004
 20
46.83730271159996
 30
0.0
 10
56.80343437640004
 20
46.81194598079994
 30
0.0
 10
57.30113308099999
 20
46.69869604989995
 30
0.0
 10
57.7768255798
 20
46.51271471789995
 30
0.0
 10
58.21991468929996
 20
46.25809629089992
 30
0.0
 10
58.62071018399999
 20
45.94043993499993
 30
0.0
 10
58.97040374429996
 20
45.56672868059993
 30
0.0
 10
59.26132520390002
 20
45.14517385429999
 30
0.0
 10
59.48709260320003
 20
44.68503425139996
 30
0.0
 10
59.64275510960003
 20
44.19641256049996
 30
0.0
 10
59.724900279
 20
43.69003438749999
 30
0.0
 10
59.73173000610001
 20
43.17701340270001
 30
0.0
 10
59.66309161899999
 20
42.66860632339997
 30
0.0
 10
59.52050072039998
 20
42.17597436929994
 30
0.0
 10
59.30704733250002
 20
41.70991173039996
 30
0.0
 10
59.02752818510004
 20
41.28073841549993
 30
0.0
 10
58.80086233039998
 20
41.02515343629987
 30
0.0
 10
58.6789479167
 20
40.90666601379992
 30
0.0
  0
SPLINE
  5
91E61
330
1F
100
AcDbEntity
  8
1
100
AcDbSpline
210
0.0
220
0.0
230
1.0
 70
     8
 71
     3
 72
    11
 73
     7
 74
     0
 42
0.000000001
 43
0.0000000001
 40
0.0
 40
0.0
 40
0.0
 40
0.0
 40
0.2497745391
 40
0.4996476573
 40
0.7496984059999999
 40
1.0
 40
1.0
 40
1.0
 40
1.0
 10
56.29438551949998
 20
39.93730113339998
 30
0.0
 10
56.51376343730004
 20
39.93730454339996
 30
0.0
 10
56.9537729827
 20
39.97988339449997
 30
0.0
 10
57.5885661785
 20
40.16919336529993
 30
0.0
 10
58.17577751190004
 20
40.47674306329994
 30
0.0
 10
58.52129699699998
 20
40.75344663179996
 30
0.0
 10
58.6789479167
 20
40.90666601379992
 30
0.0
  0
SPLINE
  5
91E62
330
1F
100
AcDbEntity
  8
1
100
AcDbSpline
210
0.0
220
0.0
230
1.0
 70
     8
 71
     3
 72
    15
 73
    11
 74
     0
 42
0.000000001
 43
0.0000000001
 40
0.0
 40
0.0
 40
0.0
 40
0.0
 40
0.1248838219
 40
0.2499051414
 40
0.3750263268
 40
0.5001858796000001
 40
0.6253152487
 40
0.7503521124
 40
0.8752526439
 40
1.0
 40
1.0
 40
1.0
 40
1.0
 10
53.9098231223
 20
45.86793519669996
 30
0.0
 10
53.72473745249997
 20
45.68805225029993
 30
0.0
 10
53.3938797413
 20
45.28474582149994
 30
0.0
 10
53.04573281760003
 20
44.58528703039998
 30
0.0
 10
52.86159892720002
 20
43.82502829329992
 30
0.0
 10
52.85113631329998
 20
43.04272621159994
 30
0.0
 10
53.01474438640003
 20
42.27782539029997
 30
0.0
 10
53.34431848909996
 20
41.56892422659999
 30
0.0
 10
53.8228067032
 20
40.95213532669996
 30
0.0
 10
54.22629102010001
 20
40.62230797319998
 30
0.0
 10
54.4430029312
 20
40.48264759369994
 30
0.0
  0
SPLINE
  5
91E63
330
1F
100
AcDbEntity
  8
1
100
AcDbSpline
210
0.0
220
0.0
230
1.0
 70
     8
 71
     3
 72
     9
 73
     5
 74
     0
 42
0.000000001
 43
0.0000000001
 40
0.0
 40
0.0
 40
0.0
 40
0.0
 40
0.5000636206
 40
1.0
 40
1.0
 40
1.0
 40
1.0
 10
55.25881357359998
 20
40.09819194789995
 30
0.0
 10
55.42576586480004
 20
40.04504320319997
 30
0.0
 10
55.7683278352
 20
39.96436383159997
 30
0.0
 10
56.11922206309998
 20
39.93729841069998
 30
0.0
 10
56.29438551949998
 20
39.93730113339998
 30
0.0
  0
SPLINE
  5
91E64
330
1F
100
AcDbEntity
  8
1
100
AcDbSpline
210
0.0
220
0.0
230
1.0
 70
     8
 71
     3
 72
    11
 73
     7
 74
     0
 42
0.000000001
 43
0.0000000001
 40
0.0
 40
0.0
 40
0.0
 40
0.0
 40
0.250301594
 40
0.5003523427000001
 40
0.7502254609000003
 40
1.0
 40
1.0
 40
1.0
 40
1.0
 10
53.9098231223
 20
45.86793519669996
 30
0.0
 10
54.06747404190003
 20
46.02115457869993
 30
0.0
 10
54.41299352700003
 20
46.29785814719992
 30
0.0
 10
55.00020486050004
 20
46.60540784509996
 30
0.0
 10
55.63499805620001
 20
46.79471781589997
 30
0.0
 10
56.07500760159997
 20
46.83729666709993
 30
0.0
 10
56.29438551949998
 20
46.83730007709995
 30
0.0
  0
SPLINE
  5
91E65
330
1F
100
AcDbEntity
  8
1
100
AcDbSpline
210
0.0
220
0.0
230
1.0
 70
     8
 71
     3
 72
    27
 73
    23
 74
     0
 42
0.000000001
 43
0.0000000001
 40
0.0
 40
0.0
 40
0.0
 40
0.0
 40
0.062510749
 40
0.0938250864
 40
0.1251555205
 40
0.1877761728
 40
0.2504243261
 40
0.2817882246
 40
0.3131494707
 40
0.375776401
 40
0.4383577404
 40
0.5008781778
 40
0.5633316986
 40
0.6257224829
 40
0.6880642190000003
 40
0.7192611467
 40
0.7504541571
 40
0.8127658752
 40
0.8751013033999999
 40
0.9063227924999999
 40
0.9375561798999999
 40
1.0
 40
1.0
 40
1.0
 40
1.0
 10
54.71123234430002
 20
45.07773374439998
 30
0.0
 10
54.60131448530001
 20
44.97090565579995
 30
0.0
 10
54.45160560260001
 20
44.79366705219994
 30
0.0
 10
54.28988860449997
 20
44.53243780319994
 30
0.0
 10
54.15424310569999
 20
44.25635882259992
 30
0.0
 10
54.03629924869999
 20
43.88820557929998
 30
0.0
 10
53.99218132089997
 20
43.50405956279994
 30
0.0
 10
54.00202781850004
 20
43.19636963789995
 30
0.0
 10
54.04175943450002
 20
42.89115753219997
 30
0.0
 10
54.14707383890004
 20
42.51920611089992
 30
0.0
 10
54.3575215651
 20
42.10657240829997
 30
0.0
 10
54.64400878140003
 20
41.74302870069996
 30
0.0
 10
54.99558013890004
 20
41.44267252449995
 30
0.0
 10
55.39861549400001
 20
41.21703579859999
 30
0.0
 10
55.76494198359999
 20
41.0984454304
 30
0.0
 10
56.06705337529998
 20
41.04812349129995
 30
0.0
 10
56.37258339699997
 20
41.02776376929996
 30
0.0
 10
56.75608086860001
 20
41.05906964199997
 30
0.0
 10
57.12600595380002
 20
41.16512740019996
 30
0.0
 10
57.40493492859997
 20
41.29203061629996
 30
0.0
 10
57.67022053800002
 20
41.44576220679996
 30
0.0
 10
57.85136129300003
 20
41.59015375599998
 30
0.0
 10
57.9611614653
 20
41.69686746609996
 30
0.0
  0
SPLINE
  5
91E66
330
1F
100
AcDbEntity
  8
1
100
AcDbSpline
210
0.0
220
0.0
230
1.0
 70
     8
 71
     3
 72
    15
 73
    11
 74
     0
 42
0.000000001
 43
0.0000000001
 40
0.0
 40
0.0
 40
0.0
 40
0.0
 40
0.125028041
 40
0.2501310002
 40
0.3752787635
 40
0.5004112717
 40
0.6254813822
 40
0.7504512691
 40
0.8752875286
 40
1.0
 40
1.0
 40
1.0
 40
1.0
 10
57.78106057539996
 20
44.34876096139997
 30
0.0
 10
57.75381623060003
 20
44.30266260699997
 30
0.0
 10
57.70818750570003
 20
44.20485464099996
 30
0.0
 10
57.66945985890004
 20
44.04786928379993
 30
0.0
 10
57.66172029940003
 20
43.88625973749995
 30
0.0
 10
57.68531602850003
 20
43.72622250829997
 30
0.0
 10
57.73932831749998
 20
43.57381773329993
 30
0.0
 10
57.8217403196
 20
43.43483174469993
 30
0.0
 10
57.92934999559998
 20
43.31457647139997
 30
0.0
 10
58.0153849957
 20
43.24981560969994
 30
0.0
 10
58.06099129189999
 20
43.22201412639995
 30
0.0
  0
SPLINE
  5
91E67
330
1F
100
AcDbEntity
  8
1
100
AcDbSpline
210
0.0
220
0.0
230
1.0
 70
     8
 71
     3
 72
     9
 73
     5
 74
     0
 42
0.000000001
 43
0.0000000001
 40
0.0
 40
0.0
 40
0.0
 40
0.0
 40
0.5005263902000002
 40
1.0
 40
1.0
 40
1.0
 40
1.0
 10
56.04238975190003
 20
45.12621187469989
 30
0.0
 10
56.02196613149999
 20
45.16283874899992
 30
0.0
 10
55.96657601909999
 20
45.22880203489992
 30
0.0
 10
55.89031707790002
 20
45.2689019607
 30
0.0
 10
55.85024385449997
 20
45.28096009589996
 30
0.0
  0
SPLINE
  5
91E68
330
1F
100
AcDbEntity
  8
1
100
AcDbSpline
210
0.0
220
0.0
230
1.0
 70
     8
 71
     3
 72
    11
 73
     7
 74
     0
 42
0.000000001
 43
0.0000000001
 40
0.0
 40
0.0
 40
0.0
 40
0.0
 40
0.2496178661
 40
0.4994168656000002
 40
0.7495149126000003
 40
1.0
 40
1.0
 40
1.0
 40
1.0
 10
56.75793339580003
 20
44.70476043489995
 30
0.0
 10
56.68568881879997
 20
44.70475797669993
 30
0.0
 10
56.54041563159999
 20
44.72417955149992
 30
0.0
 10
56.33831545970004
 20
44.80959726839997
 30
0.0
 10
56.16545108190003
 20
44.94511359329997
 30
0.0
 10
56.07769621500001
 20
45.06289472719997
 30
0.0
 10
56.04238975190003
 20
45.12621187469989
 30
0.0
  0
SPLINE
  5
91E69
330
1F
100
AcDbEntity
  8
1
100
AcDbSpline
210
0.0
220
0.0
230
1.0
 70
     8
 71
     3
 72
    15
 73
    11
 74
     0
 42
0.000000001
 43
0.0000000001
 40
0.0
 40
0.0
 40
0.0
 40
0.0
 40
0.1250883725
 40
0.2502752249
 40
0.3754790892
 40
0.5006422172000004
 40
0.6256997839000002
 40
0.7506138325000001
 40
0.8753739228
 40
1.0
 40
1.0
 40
1.0
 40
1.0
 10
57.5929093415
 20
44.34876096139997
 30
0.0
 10
57.6055754875
 20
44.37019250969992
 30
0.0
 10
57.62612175480001
 20
44.41611806239992
 30
0.0
 10
57.64067910429996
 20
44.49003325009996
 30
0.0
 10
57.6383313677
 20
44.56538249599995
 30
0.0
 10
57.61918126980003
 20
44.63826084259998
 30
0.0
 10
57.58421107930002
 20
44.7049442287999
 30
0.0
 10
57.53519798539997
 20
44.76201256579995
 30
0.0
 10
57.47469879919997
 20
44.80652062739991
 30
0.0
 10
57.42863863970001
 20
44.82633379879993
 30
0.0
 10
57.40488904929996
 20
44.83348412119997
 30
0.0
  0
SPLINE
  5
91E6A
330
1F
100
AcDbEntity
  8
1
100
AcDbSpline
210
0.0
220
0.0
230
1.0
 70
     8
 71
     3
 72
    15
 73
    11
 74
     0
 42
0.000000001
 43
0.0000000001
 40
0.0
 40
0.0
 40
0.0
 40
0.0
 40
0.1247087438
 40
0.2495499846
 40
0.374518182
 40
0.4995887253000002
 40
0.6247216697
 40
0.749867739
 40
0.8749756962000001
 40
1.0
 40
1.0
 40
1.0
 40
1.0
 10
57.87284005810001
 20
43.22201412639995
 30
0.0
 10
57.8272350733
 20
43.24981481019998
 30
0.0
 10
57.74120065949998
 20
43.31457708879995
 30
0.0
 10
57.6335870671
 20
43.43482905059992
 30
0.0
 10
57.5511763975
 20
43.57381799359997
 30
0.0
 10
57.49716190370002
 20
43.72622178549997
 30
0.0
 10
57.47356858199998
 20
43.88625917749997
 30
0.0
 10
57.48130558479999
 20
44.04787071509995
 30
0.0
 10
57.5200382346
 20
44.20485498779996
 30
0.0
 10
57.56566578019999
 20
44.30266393269995
 30
0.0
 10
57.5929093415
 20
44.34876096139997
 30
0.0
  0
SPLINE
  5
91E6B
330
1F
100
AcDbEntity
  8
1
100
AcDbSpline
210
0.0
220
0.0
230
1.0
 70
     8
 71
     3
 72
    15
 73
    11
 74
     0
 42
0.000000001
 43
0.0000000001
 40
0.0
 40
0.0
 40
0.0
 40
0.0
 40
0.12517186
 40
0.2504192486
 40
0.3756816193
 40
0.500854719
 40
0.6258748281999999
 40
0.7507162961000004
 40
0.8754017411999999
 40
1.0
 40
1.0
 40
1.0
 40
1.0
 10
57.78106057539996
 20
44.34876096139997
 30
0.0
 10
57.79574656819999
 20
44.37361015889993
 30
0.0
 10
57.8186845783
 20
44.42746112039995
 30
0.0
 10
57.83090796269999
 20
44.51418693309991
 30
0.0
 10
57.82029491359998
 20
44.60118001399993
 30
0.0
 10
57.78751768199999
 20
44.68239150219992
 30
0.0
 10
57.73484582730003
 20
44.75224161279995
 30
0.0
 10
57.66587275630001
 20
44.80590082279994
 30
0.0
 10
57.5854315601
 20
44.83966412079992
 30
0.0
 10
57.52765838490001
 20
44.84734107759996
 30
0.0
 10
57.4989261285
 20
44.84734351409993
 30
0.0
  0
SPLINE
  5
91E6C
330
1F
100
AcDbEntity
  8
1
100
AcDbSpline
210
0.0
220
0.0
230
1.0
 70
     8
 71
     3
 72
    15
 73
    11
 74
     0
 42
0.000000001
 43
0.0000000001
 40
0.0
 40
0.0
 40
0.0
 40
0.0
 40
0.1253364732
 40
0.2506190534
 40
0.37580446
 40
0.5008670042
 40
0.6257971196000001
 40
0.7506066865000001
 40
0.8753197295999999
 40
1.0
 40
1.0
 40
1.0
 40
1.0
 10
56.8680847233
 20
41.8027138062999
 30
0.0
 10
56.8692166011
 20
41.85586485299999
 30
0.0
 10
56.88176696900001
 20
41.96220882399993
 30
0.0
 10
56.93073362189999
 20
42.11489581999996
 30
0.0
 10
57.00802210300003
 20
42.25532194189995
 30
0.0
 10
57.11074781109999
 20
42.37815999549993
 30
0.0
 10
57.23507172379999
 20
42.47883496429998
 30
0.0
 10
57.37636865450003
 20
42.55356653159995
 30
0.0
 10
57.52928113620003
 20
42.59956615579992
 30
0.0
 10
57.6353530719
 20
42.60991116749996
 30
0.0
 10
57.6882378322
 20
42.60991469189995
 30
0.0
  0
SPLINE
  5
91E6D
330
1F
100
AcDbEntity
  8
1
100
AcDbSpline
210
0.0
220
0.0
230
1.0
 70
     8
 71
     3
 72
    11
 73
     7
 74
     0
 42
0.000000001
 43
0.0000000001
 40
0.0
 40
0.0
 40
0.0
 40
0.0
 40
0.2504809262
 40
0.5005858755000001
 40
0.750384011
 40
1.0
 40
1.0
 40
1.0
 40
1.0
 10
56.23054098570004
 20
45.12621187469989
 30
0.0
 10
56.2658468903
 20
45.06289572899993
 30
0.0
 10
56.35360349390004
 20
44.94511581119994
 30
0.0
 10
56.52646368960001
 20
44.80959091909997
 30
0.0
 10
56.72857008149996
 20
44.72418608209998
 30
0.0
 10
56.87384054260002
 20
44.70475326279998
 30
0.0
 10
56.94608463349999
 20
44.70475670589999
 30
0.0
  0
SPLINE
  5
91E6E
330
1F
100
AcDbEntity
  8
1
100
AcDbSpline
210
0.0
220
0.0
230
1.0
 70
     8
 71
     3
 72
     9
 73
     5
 74
     0
 42
0.000000001
 43
0.0000000001
 40
0.0
 40
0.0
 40
0.0
 40
0.0
 40
0.5001934921000001
 40
1.0
 40
1.0
 40
1.0
 40
1.0
 10
55.14329033620004
 20
41.96800028509996
 30
0.0
 10
55.20328738239999
 20
42.00112905739993
 30
0.0
 10
55.33210244039998
 20
42.05245311459996
 30
0.0
 10
55.46967513190003
 20
42.06983844529996
 30
0.0
 10
55.53815794600001
 20
42.06984077549996
 30
0.0
  0
SPLINE
  5
91E6F
330
1F
100
AcDbEntity
  8
1
100
AcDbSpline
210
0.0
220
0.0
230
1.0
 70
     8
 71
     3
 72
    15
 73
    11
 74
     0
 42
0.000000001
 43
0.0000000001
 40
0.0
 40
0.0
 40
0.0
 40
0.0
 40
0.1246286297
 40
0.2493692327
 40
0.3743263633
 40
0.4994868881000001
 40
0.6247607511
 40
0.7500117186000002
 40
0.8751071011
 40
1.0
 40
1.0
 40
1.0
 40
1.0
 10
57.89084816009999
 20
42.60982372539999
 30
0.0
 10
57.9262088854
 20
42.60982671039997
 30
0.0
 10
57.9974986199
 20
42.62152981229994
 30
0.0
 10
58.09281895230004
 20
42.67234982579995
 30
0.0
 10
58.16711904259999
 20
42.75108370749999
 30
0.0
 10
58.21253846820003
 20
42.8494864143999
 30
0.0
 10
58.22439776740004
 20
42.95729247009993
 30
0.0
 10
58.20144658210001
 20
43.06329422559993
 30
0.0
 10
58.14617091949997
 20
43.15638049639996
 30
0.0
 10
58.0912482955
 20
43.20356953329993
 30
0.0
 10
58.06099129189999
 20
43.22201412639995
 30
0.0
  0
SPLINE
  5
91E70
330
1F
100
AcDbEntity
  8
1
100
AcDbSpline
210
0.0
220
0.0
230
1.0
 70
     8
 71
     3
 72
    15
 73
    11
 74
     0
 42
0.000000001
 43
0.0000000001
 40
0.0
 40
0.0
 40
0.0
 40
0.0
 40
0.1246375717
 40
0.2493761774
 40
0.3743350482
 40
0.4994959254
 40
0.6247683031
 40
0.7500175027
 40
0.8751067386999999
 40
1.0
 40
1.0
 40
1.0
 40
1.0
 10
57.70499080589996
 20
42.60983210839995
 30
0.0
 10
57.74025906430001
 20
42.61008508089996
 30
0.0
 10
57.8112754375
 20
42.62222092749996
 30
0.0
 10
57.90604146370004
 20
42.67344907719993
 30
0.0
 10
57.9797635571
 20
42.75231694399994
 30
0.0
 10
58.02466351240004
 20
42.85062928609996
 30
0.0
 10
58.03617341580003
 20
42.95817195439993
 30
0.0
 10
58.0130455492
 20
43.06382735579993
 30
0.0
 10
57.95780794670003
 20
43.15658595839997
 30
0.0
 10
57.90301663930001
 20
43.2036185584999
 30
0.0
 10
57.87284005810001
 20
43.22201412639995
 30
0.0
  0
SPLINE
  5
91E71
330
1F
100
AcDbEntity
  8
1
100
AcDbSpline
210
0.0
220
0.0
230
1.0
 70
     8
 71
     3
 72
    15
 73
    11
 74
     0
 42
0.000000001
 43
0.0000000001
 40
0.0
 40
0.0
 40
0.0
 40
0.0
 40
0.124680339
 40
0.2493906157
 40
0.3742015863
 40
0.4991317614
 40
0.6241940515
 40
0.7493817505
 40
0.8746591993
 40
1.0
 40
1.0
 40
1.0
 40
1.0
 10
57.8763890555
 20
42.60991477389999
 30
0.0
 10
57.82350432880003
 20
42.60991205909997
 30
0.0
 10
57.71743343909998
 20
42.59956658189993
 30
0.0
 10
57.5645226676
 20
42.55356482749997
 30
0.0
 10
57.42322534470003
 20
42.47883547749998
 30
0.0
 10
57.29890221120001
 20
42.37815913939996
 30
0.0
 10
57.19617382980004
 20
42.25532228809996
 30
0.0
 10
57.11888856260003
 20
42.11489621259995
 30
0.0
 10
57.06991660859999
 20
41.96221061049995
 30
0.0
 10
57.0573678728
 20
41.85586662509993
 30
0.0
 10
57.05623595719996
 20
41.8027138062999
 30
0.0
  0
SPLINE
  5
91E72
330
1F
100
AcDbEntity
  8
1
100
AcDbSpline
210
0.0
220
0.0
230
1.0
 70
     8
 71
     3
 72
    11
 73
     7
 74
     0
 42
0.000000001
 43
0.0000000001
 40
0.0
 40
0.0
 40
0.0
 40
0.0
 40
0.2504880625
 40
0.5005819384
 40
0.7503846693999999
 40
1.0
 40
1.0
 40
1.0
 40
1.0
 10
56.23054098570004
 20
45.12621187469989
 30
0.0
 10
56.21641585110001
 20
45.15154330569996
 30
0.0
 10
56.18130887480003
 20
45.19866451359999
 30
0.0
 10
56.11214901339997
 20
45.25287733319996
 30
0.0
 10
56.03129615910001
 20
45.28705156589999
 30
0.0
 10
55.97317727289999
 20
45.29482024599992
 30
0.0
 10
55.94427486239998
 20
45.29482240179996
 30
0.0
  0
SPLINE
  5
91E73
330
1F
100
AcDbEntity
  8
1
100
AcDbSpline
210
0.0
220
0.0
230
1.0
 70
     8
 71
     3
 72
    11
 73
     7
 74
     0
 42
0.000000001
 43
0.0000000001
 40
0.0
 40
0.0
 40
0.0
 40
0.0
 40
0.2493735195
 40
0.4991092802
 40
0.7493605911
 40
1.0
 40
1.0
 40
1.0
 40
1.0
 10
56.72811894710003
 20
41.47977880859992
 30
0.0
 10
56.77023776050003
 20
41.47977566699998
 30
0.0
 10
56.85544109810003
 20
41.49651519159997
 30
0.0
 10
56.96356693120002
 20
41.56810850929995
 30
0.0
 10
57.03694041159997
 20
41.67526819909997
 30
0.0
 10
57.05533466750001
 20
41.76039078159996
 30
0.0
 10
57.05623595719996
 20
41.8027138062999
 30
0.0
  0
SPLINE
  5
91E74
330
1F
100
AcDbEntity
  8
1
100
AcDbSpline
210
0.0
220
0.0
230
1.0
 70
     8
 71
     3
 72
    11
 73
     7
 74
     0
 42
0.000000001
 43
0.0000000001
 40
0.0
 40
0.0
 40
0.0
 40
0.0
 40
0.2494307897
 40
0.4992622723000001
 40
0.7494792189
 40
1.0
 40
1.0
 40
1.0
 40
1.0
 10
56.6342785915
 20
41.49369939399995
 30
0.0
 10
56.66711480560002
 20
41.50360189329993
 30
0.0
 10
56.7301299353
 20
41.53408543839995
 30
0.0
 10
56.80553406249998
 20
41.60673538509993
 30
0.0
 10
56.85498972879997
 20
41.69918895889995
 30
0.0
 10
56.86735132879999
 20
41.76827485299995
 30
0.0
 10
56.8680847233
 20
41.8027138062999
 30
0.0
  0
SPLINE
  5
91E75
330
1F
100
AcDbEntity
  8
1
100
AcDbSpline
210
0.0
220
0.0
230
1.0
 70
     8
 71
     3
 72
     9
 73
     5
 74
     0
 42
0.000000001
 43
0.0000000001
 40
0.0
 40
0.0
 40
0.0
 40
0.0
 40
0.4998160979
 40
1.0
 40
1.0
 40
1.0
 40
1.0
 10
55.72630917600003
 20
42.06984450459994
 30
0.0
 10
55.65782499390002
 20
42.06984124069996
 30
0.0
 10
55.52025306
 20
42.05245038579997
 30
0.0
 10
55.39143751339997
 20
42.00112844839995
 30
0.0
 10
55.33144157010003
 20
41.96800028509996
 30
0.0
  0
SPLINE
  5
91E76
330
1F
100
AcDbEntity
  8
1
100
AcDbSpline
210
0.0
220
0.0
230
1.0
 70
     8
 71
     3
 72
    27
 73
    23
 74
     0
 42
0.000000001
 43
0.0000000001
 40
0.0
 40
0.0
 40
0.0
 40
0.0
 40
0.0624438201
 40
0.0936772075
 40
0.1248986966
 40
0.1872341248
 40
0.2495458429
 40
0.2807388533
 40
0.311935781
 40
0.3742775171
 40
0.4366683014000003
 40
0.4991218222000002
 40
0.5616422596000003
 40
0.6242235990000001
 40
0.6868505293000001
 40
0.7182117754
 40
0.7495756739
 40
0.8122238272
 40
0.8748444794999999
 40
0.9061749135999999
 40
0.9374892509999998
 40
1.0
 40
1.0
 40
1.0
 40
1.0
 10
54.71123234430002
 20
45.07773374439998
 30
0.0
 10
54.82103251649999
 20
45.18444745449996
 30
0.0
 10
55.0021732715
 20
45.32883900369998
 30
0.0
 10
55.26745888100004
 20
45.48257059419992
 30
0.0
 10
55.54638785579999
 20
45.60947381029992
 30
0.0
 10
55.916312941
 20
45.71553156849993
 30
0.0
 10
56.29981041249997
 20
45.74683744119997
 30
0.0
 10
56.6053404342
 20
45.72647771909996
 30
0.0
 10
56.90745182590001
 20
45.67615577999996
 30
0.0
 10
57.27377831550001
 20
45.55756541189995
 30
0.0
 10
57.67681367059998
 20
45.33192868599992
 30
0.0
 10
58.02838502810001
 20
45.03157250979998
 30
0.0
 10
58.31487224440002
 20
44.66802880219993
 30
0.0
 10
58.52531997059998
 20
44.25539509959995
 30
0.0
 10
58.6306343751
 20
43.88344367829993
 30
0.0
 10
58.67036599100003
 20
43.57823157259995
 30
0.0
 10
58.68021248859998
 20
43.27054164759996
 30
0.0
 10
58.63609456080002
 20
42.88639563119995
 30
0.0
 10
58.51815070380002
 20
42.51824238789995
 30
0.0
 10
58.38250520499997
 20
42.24216340729995
 30
0.0
 10
58.22078820699999
 20
41.98093415819997
 30
0.0
 10
58.07107932420001
 20
41.80369555469993
 30
0.0
 10
57.9611614653
 20
41.69686746609996
 30
0.0
  0
SPLINE
  5
91E77
330
1F
100
AcDbEntity
  8
1
100
AcDbSpline
210
0.0
220
0.0
230
1.0
 70
     8
 71
     3
 72
     9
 73
     5
 74
     0
 42
0.000000001
 43
0.0000000001
 40
0.0
 40
0.0
 40
0.0
 40
0.0
 40
0.4998046985000001
 40
1.0
 40
1.0
 40
1.0
 40
1.0
 10
55.17346768100003
 20
41.92725769639993
 30
0.0
 10
55.20086536480004
 20
41.92725537309994
 30
0.0
 10
55.25590400650003
 20
41.93421417799996
 30
0.0
 10
55.3074385844
 20
41.95474647519996
 30
0.0
 10
55.33144157010003
 20
41.96800028509996
 30
0.0
  0
SPLINE
  5
91E78
330
1F
100
AcDbEntity
  8
1
100
AcDbSpline
210
0.0
220
0.0
230
1.0
 70
     8
 71
     3
 72
     8
 73
     4
 74
     0
 42
0.000000001
 43
0.0000000001
 40
0.0
 40
0.0
 40
0.0
 40
0.0
 40
1.0
 40
1.0
 40
1.0
 40
1.0
 10
55.07915873329999
 20
41.94103520189995
 30
0.0
 10
55.10136889890003
 20
41.94770482689998
 30
0.0
 10
55.12298956249998
 20
41.95679073809995
 30
0.0
 10
55.14329033620004
 20
41.96800028509996
 30
0.0
  0
SPLINE
  5
91E79
330
1F
100
AcDbEntity
  8
1
100
AcDbSpline
210
0.0
220
0.0
230
1.0
 70
     8
 71
     3
 72
     9
 73
     5
 74
     0
 42
0.000000001
 43
0.0000000001
 40
0.0
 40
0.0
 40
0.0
 40
0.0
 40
0.2522482717
 40
1.0
 40
1.0
 40
1.0
 40
1.0
 10
63.5
 20
49.44000985609998
 30
0.0
 10
63.50013928640004
 20
49.33233080989996
 30
0.0
 10
63.49987351960002
 20
48.90545296459996
 30
0.0
 10
63.49630331110001
 20
48.47857668589997
 30
0.0
 10
63.49171286950003
 20
48.15941123379993
 30
0.0
  0
SPLINE
  5
91E7A
330
1F
100
AcDbEntity
  8
1
100
AcDbSpline
210
0.0
220
0.0
230
1.0
 70
     8
 71
     3
 72
    15
 73
    11
 74
     0
 42
0.000000001
 43
0.0000000001
 40
0.0
 40
0.0
 40
0.0
 40
0.0
 40
0.1258912443
 40
0.2515362607
 40
0.3767795465
 40
0.5015539775
 40
0.6260231372999999
 40
0.7504156747000002
 40
0.8749915729999997
 40
1.0
 40
1.0
 40
1.0
 40
1.0
 10
63.5
 20
49.44000985609998
 30
0.0
 10
63.49993500550005
 20
49.49025561779993
 30
0.0
 10
63.4903472625
 20
49.59089839169994
 30
0.0
 10
63.44792959270001
 20
49.73606362139996
 30
0.0
 10
63.37928845940002
 20
49.87037338189995
 30
0.0
 10
63.28693285989999
 20
49.98902935389995
 30
0.0
 10
63.17403095259999
 20
50.08783958079995
 30
0.0
 10
63.04442460040002
 20
50.16330435239993
 30
0.0
 10
62.90262645130002
 20
50.21266706169993
 30
0.0
 10
62.80329813050002
 20
50.22688926679997
 30
0.0
 10
62.75345877100001
 20
50.22921195879994
 30
0.0
  0
SPLINE
  5
91E7B
330
1F
100
AcDbEntity
  8
1
100
AcDbSpline
210
0.0
220
0.0
230
1.0
 70
     8
 71
     3
 72
     9
 73
     5
 74
     0
 42
0.000000001
 43
0.0000000001
 40
0.0
 40
0.0
 40
0.0
 40
0.0
 40
0.2501271085
 40
1.0
 40
1.0
 40
1.0
 40
1.0
 10
61.47060080590001
 20
50.28822446819996
 30
0.0
 10
61.57756291140003
 20
50.28336809489994
 30
0.0
 10
62.0051909887
 20
50.26388816549992
 30
0.0
 10
62.43280755310003
 20
50.24415544949997
 30
0.0
 10
62.75345877100001
 20
50.22921195879994
 30
0.0
  0
SPLINE
  5
91E7C
330
1F
100
AcDbEntity
  8
1
100
AcDbSpline
210
0.0
220
0.0
230
1.0
 70
     8
 71
     3
 72
     9
 73
     5
 74
     0
 42
0.000000001
 43
0.0000000001
 40
0.0
 40
0.0
 40
0.0
 40
0.0
 40
0.2480571801
 40
1.0
 40
1.0
 40
1.0
 40
1.0
 10
54.96644827949999
 20
50.41560221789999
 30
0.0
 10
55.49985198310003
 20
50.40526533339996
 30
0.0
 10
57.65017847980004
 20
50.36364039969996
 30
0.0
 10
59.80049751170003
 20
50.32163061459996
 30
0.0
 10
61.4174127032
 20
50.28995224039997
 30
0.0
  0
SPLINE
  5
91E7D
330
1F
100
AcDbEntity
  8
1
100
AcDbSpline
210
0.0
220
0.0
230
1.0
 70
     8
 71
     3
 72
    11
 73
     7
 74
     0
 42
0.000000001
 43
0.0000000001
 40
0.0
 40
0.0
 40
0.0
 40
0.0
 40
0.1243906053
 40
0.2489580189
 40
0.4986663276
 40
1.0
 40
1.0
 40
1.0
 40
1.0
 10
53.6469074071
 20
50.22537164579992
 30
0.0
 10
53.56024289020002
 20
50.17847995789995
 30
0.0
 10
53.3866575935
 20
50.08487612049997
 30
0.0
 10
53.03917876649999
 20
49.89698869159994
 30
0.0
 10
52.4291612244
 20
49.56685236489997
 30
0.0
 10
51.90623000300002
 20
49.28312288079993
 30
0.0
 10
51.55727393590002
 20
49.09352680089997
 30
0.0
  0
LINE
  5
91E7E
330
1F
100
AcDbEntity
  8
1
100
AcDbLine
 10
48.42280235880003
 20
47.38382960529995
 30
0.0
 11
47.9917631989
 21
47.14777504959997
 31
0.0
  0
SPLINE
  5
91E7F
330
1F
100
AcDbEntity
  8
1
100
AcDbSpline
210
0.0
220
0.0
230
1.0
 70
     8
 71
     3
 72
     9
 73
     5
 74
     0
 42
0.000000001
 43
0.0000000001
 40
0.0
 40
0.0
 40
0.0
 40
0.0
 40
0.2497921276
 40
1.0
 40
1.0
 40
1.0
 40
1.0
 10
47.94549679429996
 20
47.12164094819994
 30
0.0
 10
47.85306581669997
 20
47.06782045279996
 30
0.0
 10
47.48339443179996
 20
46.85174135379995
 30
0.0
 10
47.11514133499997
 20
46.63323540479999
 30
0.0
 10
46.83970949710004
 20
46.46792630679996
 30
0.0
  0
SPLINE
  5
91E80
330
1F
100
AcDbEntity
  8
1
100
AcDbSpline
210
0.0
220
0.0
230
1.0
 70
     8
 71
     3
 72
     9
 73
     5
 74
     0
 42
0.000000001
 43
0.0000000001
 40
0.0
 40
0.0
 40
0.0
 40
0.0
 40
0.5004189035000001
 40
1.0
 40
1.0
 40
1.0
 40
1.0
 10
46.83970949710004
 20
46.46792630679996
 30
0.0
 10
46.7996644763
 20
46.44389202549993
 30
0.0
 10
46.72380126220001
 20
46.38856097429996
 30
0.0
 10
46.65907636920002
 20
46.32054142259996
 30
0.0
 10
46.63007385859997
 20
46.28403379169995
 30
0.0
  0
SPLINE
  5
91E81
330
1F
100
AcDbEntity
  8
1
100
AcDbSpline
210
0.0
220
0.0
230
1.0
 70
     8
 71
     3
 72
     9
 73
     5
 74
     0
 42
0.000000001
 43
0.0000000001
 40
0.0
 40
0.0
 40
0.0
 40
0.0
 40
0.2514664261
 40
1.0
 40
1.0
 40
1.0
 40
1.0
 10
46.59728045119999
 20
45.32570404579995
 30
0.0
 10
46.6425036796
 20
45.24005559789995
 30
0.0
 10
46.82285765030002
 20
44.89973233379996
 30
0.0
 10
47.00529004870002
 20
44.56051033719993
 30
0.0
 10
47.14303205890002
 20
44.30723870949996
 30
0.0
  0
SPLINE
  5
91E82
330
1F
100
AcDbEntity
  8
1
100
AcDbSpline
210
0.0
220
0.0
230
1.0
 70
     8
 71
     3
 72
    15
 73
    11
 74
     0
 42
0.000000001
 43
0.0000000001
 40
0.0
 40
0.0
 40
0.0
 40
0.0
 40
0.0307102258
 40
0.0614394981
 40
0.1230395241
 40
0.2467452558
 40
0.3710515111999999
 40
0.495906994
 40
0.7470948624
 40
1.0
 40
1.0
 40
1.0
 40
1.0
 10
63.03553268809998
 20
41.04334840409999
 30
0.0
 10
63.0110009982
 20
40.99970130729992
 30
0.0
 10
62.96215411200001
 20
40.91225004779997
 30
0.0
 10
62.86406695490001
 20
40.73726811079992
 30
0.0
 10
62.6917417459
 20
40.43008875369991
 30
0.0
 10
62.44422961460003
 20
39.99015762899992
 30
0.0
 10
62.1454647493
 20
39.46073198719992
 30
0.0
 10
61.74364559649998
 20
38.75081044169994
 30
0.0
 10
61.23694629699997
 20
37.85933601189996
 30
0.0
 10
60.82931286339999
 20
37.14569928809996
 30
0.0
 10
60.62444861609996
 20
36.78786772149996
 30
0.0
  0
SPLINE
  5
91E83
330
1F
100
AcDbEntity
  8
1
100
AcDbSpline
210
0.0
220
0.0
230
1.0
 70
     8
 71
     3
 72
    10
 73
     6
 74
     0
 42
0.000000001
 43
0.0000000001
 40
0.0
 40
0.0
 40
0.0
 40
0.0
 40
0.2504815494
 40
0.5017728216
 40
1.0
 40
1.0
 40
1.0
 40
1.0
 10
54.38420811370002
 20
50.41589938919995
 30
0.0
 10
54.32006748730003
 20
50.41589852629988
 30
0.0
 10
54.1913911331
 20
50.40752778869998
 30
0.0
 10
53.93967724840003
 20
50.35802962829993
 30
0.0
 10
53.75911602609999
 20
50.28608451569997
 30
0.0
 10
53.6469074071
 20
50.22537164579992
 30
0.0
  0
SPLINE
  5
91E84
330
1F
100
AcDbEntity
  8
1
100
AcDbSpline
210
0.0
220
0.0
230
1.0
 70
     8
 71
     3
 72
    19
 73
    15
 74
     0
 42
0.000000001
 43
0.0000000001
 40
0.0
 40
0.0
 40
0.0
 40
0.0
 40
0.1285500918
 40
0.1922036895
 40
0.2551463433999999
 40
0.2862818495
 40
0.3171818804
 40
0.3788937527
 40
0.4406842205
 40
0.5025487707
 40
0.6264954870000004
 40
0.7507249987000001
 40
0.8752291934
 40
1.0
 40
1.0
 40
1.0
 40
1.0
 10
63.24070554150001
 20
41.79794286469993
 30
0.0
 10
63.24482826960002
 20
42.06847663769994
 30
0.0
 10
63.2534883825
 20
42.47293765819995
 30
0.0
 10
63.27005788650001
 20
43.00970245469993
 30
0.0
 10
63.28244610800004
 20
43.34145905049992
 30
0.0
 10
63.29353830190001
 20
43.60427285029994
 30
0.0
 10
63.30550608320003
 20
43.86445476459996
 30
0.0
 10
63.32044930480003
 20
44.18908855129993
 30
0.0
 10
63.33814159380001
 20
44.57883732509995
 30
0.0
 10
63.3615553258
 20
45.0994496448999
 30
0.0
 10
63.39041317330003
 20
45.75136818699998
 30
0.0
 10
63.42438655570003
 20
46.53502954799997
 30
0.0
 10
63.45771501730002
 20
47.32045466539998
 30
0.0
 10
63.47948529030003
 20
47.84466324389996
 30
0.0
 10
63.49025968120002
 20
48.10705287739992
 30
0.0
  0
SPLINE
  5
91E85
330
1F
100
AcDbEntity
  8
1
100
AcDbSpline
210
0.0
220
0.0
230
1.0
 70
     8
 71
     3
 72
     8
 73
     4
 74
     0
 42
0.000000001
 43
0.0000000001
 40
0.0
 40
0.0
 40
0.0
 40
0.0
 40
1.0
 40
1.0
 40
1.0
 40
1.0
 10
63.49171286950003
 20
48.15941123379993
 30
0.0
 10
63.49146178170002
 20
48.14195353309996
 30
0.0
 10
63.49097600960003
 20
48.12449768279996
 30
0.0
 10
63.49025968120002
 20
48.10705287739992
 30
0.0
  0
SPLINE
  5
91E86
330
1F
100
AcDbEntity
  8
1
100
AcDbSpline
210
0.0
220
0.0
230
1.0
 70
     8
 71
     3
 72
     8
 73
     4
 74
     0
 42
0.000000001
 43
0.0000000001
 40
0.0
 40
0.0
 40
0.0
 40
0.0
 40
1.0
 40
1.0
 40
1.0
 40
1.0
 10
61.47060080590001
 20
50.28822446819996
 30
0.0
 10
61.45288034179998
 20
50.28902902589996
 30
0.0
 10
61.43514801909997
 20
50.28960477259996
 30
0.0
 10
61.4174127032
 20
50.28995224039997
 30
0.0
  0
SPLINE
  5
91E87
330
1F
100
AcDbEntity
  8
1
100
AcDbSpline
210
0.0
220
0.0
230
1.0
 70
     8
 71
     3
 72
     8
 73
     4
 74
     0
 42
0.000000001
 43
0.0000000001
 40
0.0
 40
0.0
 40
0.0
 40
0.0
 40
1.0
 40
1.0
 40
1.0
 40
1.0
 10
47.9917631989
 20
47.14777504959997
 30
0.0
 10
47.97622922530002
 20
47.13926471309995
 30
0.0
 10
47.96080344519999
 20
47.13055366939996
 30
0.0
 10
47.94549679429996
 20
47.12164094819994
 30
0.0
  0
SPLINE
  5
91E88
330
1F
100
AcDbEntity
  8
1
100
AcDbSpline
210
0.0
220
0.0
230
1.0
 70
     8
 71
     3
 72
    10
 73
     6
 74
     0
 42
0.000000001
 43
0.0000000001
 40
0.0
 40
0.0
 40
0.0
 40
0.0
 40
0.4914456555
 40
0.7454263468000001
 40
1.0
 40
1.0
 40
1.0
 40
1.0
 10
63.03553268809998
 20
41.04334840409999
 30
0.0
 10
63.0988397794
 20
41.15598519219996
 30
0.0
 10
63.17379396720003
 20
41.33974738369997
 30
0.0
 10
63.22893336790002
 20
41.59724593109999
 30
0.0
 10
63.23968567859997
 20
41.73101937449999
 30
0.0
 10
63.24070554150001
 20
41.79794286469993
 30
0.0
  0
SPLINE
  5
91E89
330
1F
100
AcDbEntity
  8
1
100
AcDbSpline
210
0.0
220
0.0
230
1.0
 70
     8
 71
     3
 72
    15
 73
    11
 74
     0
 42
0.000000001
 43
0.0000000001
 40
0.0
 40
0.0
 40
0.0
 40
0.0
 40
0.1306978029
 40
0.2579345507
 40
0.3197247414
 40
0.3810726685
 40
0.5040814271000002
 40
0.6274873376
 40
0.751281166
 40
1.0
 40
1.0
 40
1.0
 40
1.0
 10
54.1994690894
 20
50.22537164579992
 30
0.0
 10
53.96620597570001
 20
50.09413847339996
 30
0.0
 10
53.50665607189999
 20
49.83372503309997
 30
0.0
 10
52.9389845526
 20
49.50747741749998
 30
0.0
 10
52.49593614219996
 20
49.24942311219993
 30
0.0
 10
52.0605699578
 20
48.99538368349997
 30
0.0
 10
51.51601129969996
 20
48.67811460479996
 30
0.0
 10
50.86081770690004
 20
48.29671558929996
 30
0.0
 10
49.98288485599999
 20
47.78625004139994
 30
0.0
 10
49.32315147129997
 20
47.40327148619994
 30
0.0
 10
48.88253955470003
 20
47.14777504959997
 30
0.0
  0
SPLINE
  5
91E8A
330
1F
100
AcDbEntity
  8
1
100
AcDbSpline
210
0.0
220
0.0
230
1.0
 70
     8
 71
     3
 72
     9
 73
     5
 74
     0
 42
0.000000001
 43
0.0000000001
 40
0.0
 40
0.0
 40
0.0
 40
0.0
 40
0.253538029
 40
1.0
 40
1.0
 40
1.0
 40
1.0
 10
47.7672601493
 20
46.46792630679996
 30
0.0
 10
47.85804630900003
 20
46.52280199849991
 30
0.0
 10
48.21590622280004
 20
46.73960071709998
 30
0.0
 10
48.57288406960003
 20
46.95785590679995
 30
0.0
 10
48.83881982589997
 20
47.12164094819994
 30
0.0
  0
SPLINE
  5
91E8B
330
1F
100
AcDbEntity
  8
1
100
AcDbSpline
210
0.0
220
0.0
230
1.0
 70
     8
 71
     3
 72
    15
 73
    11
 74
     0
 42
0.000000001
 43
0.0000000001
 40
0.0
 40
0.0
 40
0.0
 40
0.0
 40
0.1239263988
 40
0.2482204645
 40
0.3727478374
 40
0.4974955837
 40
0.6225866795
 40
0.7480742292000003
 40
0.8739240088999999
 40
1.0
 40
1.0
 40
1.0
 40
1.0
 10
47.7672601493
 20
46.46792630679996
 30
0.0
 10
47.72473435350002
 20
46.44222159059991
 30
0.0
 10
47.64429368740002
 20
46.38240558039998
 30
0.0
 10
47.54281128920001
 20
46.27150940639999
 30
0.0
 10
47.46393278030001
 20
46.14309055149997
 30
0.0
 10
47.41063271689999
 20
46.00180352469997
 30
0.0
 10
47.38466694240003
 20
45.85266820639995
 30
0.0
 10
47.38691847350003
 20
45.70085903529994
 30
0.0
 10
47.41728512259999
 20
45.55175683189996
 30
0.0
 10
47.4556294646
 20
45.45755968949996
 30
0.0
 10
47.47894975190003
 20
45.41270724139994
 30
0.0
  0
SPLINE
  5
91E8C
330
1F
100
AcDbEntity
  8
1
100
AcDbSpline
210
0.0
220
0.0
230
1.0
 70
     8
 71
     3
 72
     9
 73
     5
 74
     0
 42
0.000000001
 43
0.0000000001
 40
0.0
 40
0.0
 40
0.0
 40
0.0
 40
0.2465950541
 40
1.0
 40
1.0
 40
1.0
 40
1.0
 10
48.05375091960002
 20
44.27526699159996
 30
0.0
 10
48.007619003
 20
44.36931976299994
 30
0.0
 10
47.81937248520001
 20
44.75015028599997
 30
0.0
 10
47.62659431219996
 20
45.12873904159997
 30
0.0
 10
47.47894975190003
 20
45.41270724139994
 30
0.0
  0
SPLINE
  5
91E8D
330
1F
100
AcDbEntity
  8
1
100
AcDbSpline
210
0.0
220
0.0
230
1.0
 70
     8
 71
     3
 72
     9
 73
     5
 74
     0
 42
0.000000001
 43
0.0000000001
 40
0.0
 40
0.0
 40
0.0
 40
0.0
 40
0.2489356163
 40
1.0
 40
1.0
 40
1.0
 40
1.0
 10
49.19511451289999
 20
42.08125487679999
 30
0.0
 10
49.10270321900004
 20
42.25966387219992
 30
0.0
 10
48.73110384770001
 20
42.97615760549994
 30
0.0
 10
48.35801342689999
 20
43.69187759059991
 30
0.0
 10
48.07713951710002
 20
44.22908411109998
 30
0.0
  0
SPLINE
  5
91E8E
330
1F
100
AcDbEntity
  8
1
100
AcDbSpline
210
0.0
220
0.0
230
1.0
 70
     8
 71
     3
 72
     9
 73
     5
 74
     0
 42
0.000000001
 43
0.0000000001
 40
0.0
 40
0.0
 40
0.0
 40
0.0
 40
0.4993199409000001
 40
1.0
 40
1.0
 40
1.0
 40
1.0
 10
54.9357705232
 20
50.41589947779996
 30
0.0
 10
54.80812557120003
 20
50.41589848509996
 30
0.0
 10
54.55131797860002
 20
50.3847665145
 30
0.0
 10
54.31101971859999
 20
50.28812971639993
 30
0.0
 10
54.1994690894
 20
50.22537164579992
 30
0.0
  0
SPLINE
  5
91E8F
330
1F
100
AcDbEntity
  8
1
100
AcDbSpline
210
0.0
220
0.0
230
1.0
 70
     8
 71
     3
 72
     8
 73
     4
 74
     0
 42
0.000000001
 43
0.0000000001
 40
0.0
 40
0.0
 40
0.0
 40
0.0
 40
1.0
 40
1.0
 40
1.0
 40
1.0
 10
48.05375091960002
 20
44.27526699159996
 30
0.0
 10
48.06134988219998
 20
44.25977438809993
 30
0.0
 10
48.06914429059997
 20
44.24437598299998
 30
0.0
 10
48.07713951710002
 20
44.22908411109998
 30
0.0
  0
SPLINE
  5
91E90
330
1F
100
AcDbEntity
  8
1
100
AcDbSpline
210
0.0
220
0.0
230
1.0
 70
     8
 71
     3
 72
     8
 73
     4
 74
     0
 42
0.000000001
 43
0.0000000001
 40
0.0
 40
0.0
 40
0.0
 40
0.0
 40
1.0
 40
1.0
 40
1.0
 40
1.0
 10
48.83881982589997
 20
47.12164094819994
 30
0.0
 10
48.85327644270001
 20
47.13054451809989
 30
0.0
 10
48.86785183109997
 20
47.13925811919992
 30
0.0
 10
48.88253955470003
 20
47.14777504959997
 30
0.0
  0
SPLINE
  5
91E91
330
1F
100
AcDbEntity
  8
1
100
AcDbSpline
210
0.0
220
0.0
230
1.0
 70
     8
 71
     3
 72
    22
 73
    18
 74
     0
 42
0.000000001
 43
0.0000000001
 40
0.0
 40
0.0
 40
0.0
 40
0.0
 40
0.0186621948
 40
0.0297225075
 40
0.0421807547
 40
0.0562093655
 40
0.0719658296
 40
0.1092076019
 40
0.1548610785
 40
0.2094850485
 40
0.2730641332
 40
0.3448307835
 40
0.4232508236000001
 40
0.5062562534000003
 40
0.6774302072000003
 40
0.8445016480999999
 40
1.0
 40
1.0
 40
1.0
 40
1.0
 10
61.71340946179999
 20
35.35634490659996
 30
0.0
 10
61.71340946179999
 20
35.40393779979999
 30
0.0
 10
61.70060416860002
 20
35.47983529439998
 30
0.0
 10
61.66594608330001
 20
35.58169201399997
 30
0.0
 10
61.62653652609996
 20
35.66914054879997
 30
0.0
 10
61.57447074750002
 20
35.76355052649993
 30
0.0
 10
61.4818489571
 20
35.90735105919995
 30
0.0
 10
61.32679057789999
 20
36.10607977839996
 30
0.0
 10
61.08848227880002
 20
36.36374864239993
 30
0.0
 10
60.78525802280001
 20
36.65163006239996
 30
0.0
 10
60.41704340400002
 20
36.9667326652
 30
0.0
 10
59.9881284261
 20
37.30343892419992
 30
0.0
 10
59.50753235449997
 20
37.65389157059994
 30
0.0
 10
58.80714718920001
 20
38.13252302479995
 30
0.0
 10
57.89618584269999
 20
38.70284289289995
 30
0.0
 10
56.80064936970001
 20
39.32419118209995
 30
0.0
 10
56.06940055249999
 20
39.70155068529996
 30
0.0
 10
55.71340946179996
 20
39.87627182629993
 30
0.0
  0
LINE
  5
91E92
330
1F
100
AcDbEntity
  8
1
100
AcDbLine
 10
51.33477177280004
 20
49.50383220339997
 30
0.0
 11
51.20836091749999
 21
49.58621702790001
 31
0.0
  0
SPLINE
  5
91E93
330
1F
100
AcDbEntity
  8
1
100
AcDbSpline
210
0.0
220
0.0
230
1.0
 70
     8
 71
     3
 72
     9
 73
     5
 74
     0
 42
0.000000001
 43
0.0000000001
 40
0.0
 40
0.0
 40
0.0
 40
0.0
 40
0.2459638765
 40
1.0
 40
1.0
 40
1.0
 40
1.0
 10
51.9738233841
 20
41.41502080099994
 30
0.0
 10
51.80697595679997
 20
41.46611838349993
 30
0.0
 10
51.12618886850004
 20
41.66576887879992
 30
0.0
 10
50.43560808030004
 20
41.83220316389993
 30
0.0
 10
49.911148749
 20
41.93759032649992
 30
0.0
  0
SPLINE
  5
91E94
330
1F
100
AcDbEntity
  8
1
100
AcDbSpline
210
0.0
220
0.0
230
1.0
 70
     8
 71
     3
 72
    21
 73
    17
 74
     0
 42
0.000000001
 43
0.0000000001
 40
0.0
 40
0.0
 40
0.0
 40
0.0
 40
0.2164478916
 40
0.4112879442000001
 40
0.5817972993
 40
0.6571598426
 40
0.7255608733
 40
0.7867557690000001
 40
0.8405261799999998
 40
0.8866822921999998
 40
0.9250660792999999
 40
0.955557575
 40
0.9780899363999999
 40
0.9927029993000001
 40
0.9971633659
 40
1.0
 40
1.0
 40
1.0
 40
1.0
 10
49.65213611020001
 20
49.81099242539997
 30
0.0
 10
49.56574461370003
 20
49.81421170119998
 30
0.0
 10
49.40161534200001
 20
49.82116496069997
 30
0.0
 10
49.1695687536
 20
49.83361587519997
 30
0.0
 10
48.9939204648
 20
49.84521543169993
 30
0.0
 10
48.86877132540002
 20
49.85492222699999
 30
0.0
 10
48.78720902970002
 20
49.86193733949995
 30
0.0
 10
48.71430264449998
 20
49.86892213229996
 30
0.0
 10
48.65031870190001
 20
49.87581180579994
 30
0.0
 10
48.59548006059998
 20
49.88253804839999
 30
0.0
 10
48.55000677200003
 20
49.88904344949995
 30
0.0
 10
48.51398534999998
 20
49.89523161429993
 30
0.0
 10
48.48767029920002
 20
49.90106691819995
 30
0.0
 10
48.47161142020002
 20
49.90595456599996
 30
0.0
 10
48.46394158370003
 20
49.91006618229995
 30
0.0
 10
48.46175426830001
 20
49.91226312129995
 30
0.0
 10
48.46138855190003
 20
49.91333545299998
 30
0.0
  0
SPLINE
  5
91E95
330
1F
100
AcDbEntity
  8
1
100
AcDbSpline
210
0.0
220
0.0
230
1.0
 70
     8
 71
     3
 72
    14
 73
    10
 74
     0
 42
0.000000001
 43
0.0000000001
 40
0.0
 40
0.0
 40
0.0
 40
0.0
 40
0.0606304767
 40
0.1389220934
 40
0.2362055323
 40
0.3528866038
 40
0.4886790715
 40
0.6427310223
 40
1.0
 40
1.0
 40
1.0
 40
1.0
 10
51.20836091749999
 20
49.58621702790001
 30
0.0
 10
51.18151093469997
 20
49.60359823989993
 30
0.0
 10
51.11487548159999
 20
49.63534178909995
 30
0.0
 10
50.99600321030004
 20
49.67317938539999
 30
0.0
 10
50.84538617300001
 20
49.70687000929999
 30
0.0
 10
50.66316860390003
 20
49.73626704419993
 30
0.0
 10
50.45013457330004
 20
49.76137212679995
 30
0.0
 10
50.10997821390003
 20
49.79063163939994
 30
0.0
 10
49.84047793730002
 20
49.80397397849995
 30
0.0
 10
49.65213611020001
 20
49.81099242539997
 30
0.0
  0
SPLINE
  5
91E96
330
1F
100
AcDbEntity
  8
1
100
AcDbSpline
210
0.0
220
0.0
230
1.0
 70
     8
 71
     3
 72
     9
 73
     5
 74
     0
 42
0.000000001
 43
0.0000000001
 40
0.0
 40
0.0
 40
0.0
 40
0.0
 40
0.2477828738
 40
1.0
 40
1.0
 40
1.0
 40
1.0
 10
36.28372166179997
 20
44.50235450729993
 30
0.0
 10
36.37972902690001
 20
44.49100707899996
 30
0.0
 10
36.76716433420001
 20
44.4449542834999
 30
0.0
 10
37.15448088060004
 20
44.39790354909997
 30
0.0
 10
37.44576409040003
 20
44.36200441509996
 30
0.0
  0
SPLINE
  5
91E97
330
1F
100
AcDbEntity
  8
1
100
AcDbSpline
210
0.0
220
0.0
230
1.0
 70
     8
 71
     3
 72
     9
 73
     5
 74
     0
 42
0.000000001
 43
0.0000000001
 40
0.0
 40
0.0
 40
0.0
 40
0.0
 40
0.2386870263
 40
1.0
 40
1.0
 40
1.0
 40
1.0
 10
47.41526871789999
 20
47.41304372659995
 30
0.0
 10
47.44844594769999
 20
47.41782734629995
 30
0.0
 10
47.58781279309999
 20
47.43518843319995
 30
0.0
 10
47.72863465699997
 20
47.44122674879995
 30
0.0
 10
47.83552537700001
 20
47.43890389309991
 30
0.0
  0
SPLINE
  5
91E98
330
1F
100
AcDbEntity
  8
1
100
AcDbSpline
210
0.0
220
0.0
230
1.0
 70
     8
 71
     3
 72
    20
 73
    16
 74
     0
 42
0.000000001
 43
0.0000000001
 40
0.0
 40
0.0
 40
0.0
 40
0.0
 40
0.1442797723
 40
0.2869753499
 40
0.4268221807
 40
0.5622866538000002
 40
0.6277628515
 40
0.6912987531
 40
0.7524727222
 40
0.8107603337
 40
0.8655063403999998
 40
0.9159096960000001
 40
0.9610405333999999
 40
0.9813429600999999
 40
1.0
 40
1.0
 40
1.0
 40
1.0
 10
36.28372166179997
 20
44.50235450729993
 30
0.0
 10
35.95249208940004
 20
44.37427973999999
 30
0.0
 10
35.2886153277
 20
44.13238679119993
 30
0.0
 10
34.28769578220002
 20
43.81229018589997
 30
0.0
 10
33.295071082
 20
43.54038444419994
 30
0.0
 10
32.47627390400001
 20
43.35643464729995
 30
0.0
 10
31.83569656260002
 20
43.24007270289999
 30
0.0
 10
31.37269367440001
 20
43.17047500089997
 30
0.0
 10
30.9251090674
 20
43.11901352529995
 30
0.0
 10
30.49734651170002
 20
43.08740854009996
 30
0.0
 10
30.09496339960004
 20
43.07763768899993
 30
0.0
 10
29.72508217730004
 20
43.09193315099995
 30
0.0
 10
29.4415012229
 20
43.12680261189991
 30
0.0
 10
29.23925374679999
 20
43.17146147549997
 30
0.0
 10
29.14734393290002
 20
43.19933449649997
 30
0.0
 10
29.1041336008
 20
43.21488170459995
 30
0.0
  0
SPLINE
  5
91E99
330
1F
100
AcDbEntity
  8
1
100
AcDbSpline
210
0.0
220
0.0
230
1.0
 70
     8
 71
     3
 72
     8
 73
     4
 74
     0
 42
0.000000001
 43
0.0000000001
 40
0.0
 40
0.0
 40
0.0
 40
0.0
 40
1.0
 40
1.0
 40
1.0
 40
1.0
 10
47.8704724062
 20
47.65529224089998
 30
0.0
 10
47.85087972870003
 20
47.64801535209997
 30
0.0
 10
47.83141658199997
 20
47.64037979759993
 30
0.0
 10
47.81210181080001
 20
47.6323944521999
 30
0.0
  0
SPLINE
  5
91E9A
330
1F
100
AcDbEntity
  8
1
100
AcDbSpline
210
0.0
220
0.0
230
1.0
 70
     8
 71
     3
 72
     9
 73
     5
 74
     0
 42
0.000000001
 43
0.0000000001
 40
0.0
 40
0.0
 40
0.0
 40
0.0
 40
0.5376465922
 40
1.0
 40
1.0
 40
1.0
 40
1.0
 10
38.41946730109999
 20
44.20644221039995
 30
0.0
 10
38.24594186949997
 20
44.24000339859992
 30
0.0
 10
37.92214461520001
 20
44.29716004129992
 30
0.0
 10
37.59661269409998
 20
44.34341311269995
 30
0.0
 10
37.44576409040003
 20
44.36200441509996
 30
0.0
  0
SPLINE
  5
91E9B
330
1F
100
AcDbEntity
  8
1
100
AcDbSpline
210
0.0
220
0.0
230
1.0
 70
     8
 71
     3
 72
    12
 73
     8
 74
     0
 42
0.000000001
 43
0.0000000001
 40
0.0
 40
0.0
 40
0.0
 40
0.0
 40
0.0876612514
 40
0.1915670173
 40
0.4378355585
 40
0.7157970404000002
 40
1.0
 40
1.0
 40
1.0
 40
1.0
 10
48.92627412429999
 20
49.94635428669997
 30
0.0
 10
49.01531936589996
 20
49.9479086204
 30
0.0
 10
49.20992928909999
 20
49.95020340579995
 30
0.0
 10
49.6547322984
 20
49.95351769009996
 30
0.0
 10
50.2928707543
 20
49.95749945769997
 30
0.0
 10
51.11414194529999
 20
49.96718952329993
 30
0.0
 10
51.68516657129996
 20
49.97833923789997
 30
0.0
 10
51.9738233841
 20
49.98501146129993
 30
0.0
  0
LINE
  5
91E9C
330
1F
100
AcDbEntity
  8
1
100
AcDbLine
 10
52.0261806034
 20
41.39881925549993
 30
0.0
 11
51.9738233841
 21
41.41502080099994
 31
0.0
  0
SPLINE
  5
91E9D
330
1F
100
AcDbEntity
  8
1
100
AcDbSpline
210
0.0
220
0.0
230
1.0
 70
     8
 71
     3
 72
     8
 73
     4
 74
     0
 42
0.000000001
 43
0.0000000001
 40
0.0
 40
0.0
 40
0.0
 40
0.0
 40
1.0
 40
1.0
 40
1.0
 40
1.0
 10
51.9738233841
 20
49.98501146129993
 30
0.0
 10
51.99127300449998
 20
49.98541480449998
 30
0.0
 10
52.00872665769995
 20
49.98567069489993
 30
0.0
 10
52.0261806034
 20
49.98577893949995
 30
0.0
  0
SPLINE
  5
91E9E
330
1F
100
AcDbEntity
  8
1
100
AcDbSpline
210
0.0
220
0.0
230
1.0
 70
     8
 71
     3
 72
     9
 73
     5
 74
     0
 42
0.000000001
 43
0.0000000001
 40
0.0
 40
0.0
 40
0.0
 40
0.0
 40
0.2612182031
 40
1.0
 40
1.0
 40
1.0
 40
1.0
 10
52.0261806034
 20
49.98577893949995
 30
0.0
 10
52.09443850050002
 20
49.98620225609997
 30
0.0
 10
52.35574331769999
 20
49.9880284745
 30
0.0
 10
52.6170423369
 20
49.99059414829995
 30
0.0
 10
52.81008340739997
 20
49.99263575759997
 30
0.0
  0
LINE
  5
91E9F
330
1F
100
AcDbEntity
  8
1
100
AcDbLine
 10
52.81008340739997
 20
49.99263575759997
 30
0.0
 11
52.88781012930002
 21
49.99344461569998
 31
0.0
  0
LINE
  5
91EA0
330
1F
100
AcDbEntity
  8
1
100
AcDbLine
 10
52.88781012930002
 20
49.99344461569998
 30
0.0
 11
53.2170666416
 21
49.99316205299996
 31
0.0
  0
SPLINE
  5
91EA1
330
1F
100
AcDbEntity
  8
1
100
AcDbSpline
210
0.0
220
0.0
230
1.0
 70
     8
 71
     3
 72
     9
 73
     5
 74
     0
 42
0.000000001
 43
0.0000000001
 40
0.0
 40
0.0
 40
0.0
 40
0.0
 40
0.2444514924
 40
1.0
 40
1.0
 40
1.0
 40
1.0
 10
55.11483650880001
 20
40.16942488029992
 30
0.0
 10
54.87133520970002
 20
40.2884228162999
 30
0.0
 10
53.86625629149998
 20
40.7566300518
 30
0.0
 10
52.82569276370002
 20
41.14885963629993
 30
0.0
 10
52.0261806034
 20
41.39881925549993
 30
0.0
  0
SPLINE
  5
91EA2
330
1F
100
AcDbEntity
  8
1
100
AcDbSpline
210
0.0
220
0.0
230
1.0
 70
     8
 71
     3
 72
    23
 73
    19
 74
     0
 42
0.000000001
 43
0.0000000001
 40
0.0
 40
0.0
 40
0.0
 40
0.0
 40
0.061683355
 40
0.1234354713
 40
0.185306494
 40
0.2473348818
 40
0.309545692
 40
0.3719493763
 40
0.4345396834000001
 40
0.4972961208
 40
0.5601854372
 40
0.6231628589
 40
0.6861773789
 40
0.7491742116
 40
0.8120986333999999
 40
0.8749021256999998
 40
0.9375448052000001
 40
1.0
 40
1.0
 40
1.0
 40
1.0
 10
47.66779960769997
 20
43.93597969709995
 30
0.0
 10
47.5818118788
 20
43.97724528259996
 30
0.0
 10
47.41568287980004
 20
44.07290558529992
 30
0.0
 10
47.19056660789997
 20
44.25177679739997
 30
0.0
 10
46.9938309418
 20
44.46226241039997
 30
0.0
 10
46.82957480399999
 20
44.69978675859997
 30
0.0
 10
46.70097265280003
 20
44.95926179919993
 30
0.0
 10
46.61058194589997
 20
45.23529095999996
 30
0.0
 10
46.56018120200002
 20
45.52217899029995
 30
0.0
 10
46.55067826610003
 20
45.8140481554
 30
0.0
 10
46.5823432583
 20
46.10495111759994
 30
0.0
 10
46.6545829693
 20
46.38892425119993
 30
0.0
 10
46.76597923909997
 20
46.66012747749997
 30
0.0
 10
46.91445331339997
 20
46.91286230939995
 30
0.0
 10
47.09702779269997
 20
47.14176774079996
 30
0.0
 10
47.31002291560002
 20
47.34192844569995
 30
0.0
 10
47.54902646739997
 20
47.50883382819997
 30
0.0
 10
47.72277264550001
 20
47.59570499359996
 30
0.0
 10
47.81210181080001
 20
47.6323944521999
 30
0.0
  0
SPLINE
  5
91EA3
330
1F
100
AcDbEntity
  8
1
100
AcDbSpline
210
0.0
220
0.0
230
1.0
 70
     8
 71
     3
 72
     9
 73
     5
 74
     0
 42
0.000000001
 43
0.0000000001
 40
0.0
 40
0.0
 40
0.0
 40
0.0
 40
0.2558725668
 40
1.0
 40
1.0
 40
1.0
 40
1.0
 10
47.83552537700001
 20
47.43890389309991
 30
0.0
 10
47.8599258758
 20
47.43837364269999
 30
0.0
 10
47.95525932359999
 20
47.43512333519995
 30
0.0
 10
48.05043172659998
 20
47.42732581279997
 30
0.0
 10
48.1209305653
 20
47.41909084019996
 30
0.0
  0
SPLINE
  5
91EA4
330
1F
100
AcDbEntity
  8
1
100
AcDbSpline
210
0.0
220
0.0
230
1.0
 70
     8
 71
     3
 72
     9
 73
     5
 74
     0
 42
0.000000001
 43
0.0000000001
 40
0.0
 40
0.0
 40
0.0
 40
0.0
 40
0.2536114458
 40
1.0
 40
1.0
 40
1.0
 40
1.0
 10
47.27450576040001
 20
47.30312033509996
 30
0.0
 10
47.31314645640003
 20
47.30570788279996
 30
0.0
 10
47.4656916082
 20
47.31297180599996
 30
0.0
 10
47.61877909289998
 20
47.30871722609996
 30
0.0
 10
47.73235029969995
 20
47.29912231969993
 30
0.0
  0
SPLINE
  5
91EA5
330
1F
100
AcDbEntity
  8
1
100
AcDbSpline
210
0.0
220
0.0
230
1.0
 70
     8
 71
     3
 72
     9
 73
     5
 74
     0
 42
0.000000001
 43
0.0000000001
 40
0.0
 40
0.0
 40
0.0
 40
0.0
 40
0.24961736
 40
1.0
 40
1.0
 40
1.0
 40
1.0
 10
47.74614697690004
 20
43.78925222659996
 30
0.0
 10
47.7608236894
 20
43.78422802589997
 30
0.0
 10
47.81987375859997
 20
43.76484798019996
 30
0.0
 10
47.87991170880002
 20
43.74847715049995
 30
0.0
 10
47.92533967470001
 20
43.73794155859999
 30
0.0
  0
SPLINE
  5
91EA6
330
1F
100
AcDbEntity
  8
1
100
AcDbSpline
210
0.0
220
0.0
230
1.0
 70
     8
 71
     3
 72
     9
 73
     5
 74
     0
 42
0.000000001
 43
0.0000000001
 40
0.0
 40
0.0
 40
0.0
 40
0.0
 40
0.5435318997000002
 40
1.0
 40
1.0
 40
1.0
 40
1.0
 10
51.70659732050001
 20
48.83343067839999
 30
0.0
 10
51.69495577679999
 20
48.85475614739997
 30
0.0
 10
51.67477071740001
 20
48.8946836905
 30
0.0
 10
51.657793803
 20
48.93611503939993
 30
0.0
 10
51.65113847409998
 20
48.95540345679997
 30
0.0
  0
SPLINE
  5
91EA7
330
1F
100
AcDbEntity
  8
1
100
AcDbSpline
210
0.0
220
0.0
230
1.0
 70
     8
 71
     3
 72
     9
 73
     5
 74
     0
 42
0.000000001
 43
0.0000000001
 40
0.0
 40
0.0
 40
0.0
 40
0.0
 40
0.2474836919
 40
1.0
 40
1.0
 40
1.0
 40
1.0
 10
51.65113847409998
 20
48.95540345679997
 30
0.0
 10
51.62059660049999
 20
48.99783383149994
 30
0.0
 10
51.5014922757
 20
49.17234244489995
 30
0.0
 10
51.40008632229999
 20
49.35890545899994
 30
0.0
 10
51.33477177280004
 20
49.50383220339997
 30
0.0
  0
SPLINE
  5
91EA8
330
1F
100
AcDbEntity
  8
1
100
AcDbSpline
210
0.0
220
0.0
230
1.0
 70
     8
 71
     3
 72
     8
 73
     4
 74
     0
 42
0.000000001
 43
0.0000000001
 40
0.0
 40
0.0
 40
0.0
 40
0.0
 40
1.0
 40
1.0
 40
1.0
 40
1.0
 10
47.88848165870001
 20
47.43748985699997
 30
0.0
 10
47.83578669989998
 20
47.39211273549996
 30
0.0
 10
47.78371820940003
 20
47.34599640319996
 30
0.0
 10
47.73235029969995
 20
47.29912231969993
 30
0.0
  0
SPLINE
  5
91EA9
330
1F
100
AcDbEntity
  8
1
100
AcDbSpline
210
0.0
220
0.0
230
1.0
 70
     8
 71
     3
 72
     9
 73
     5
 74
     0
 42
0.000000001
 43
0.0000000001
 40
0.0
 40
0.0
 40
0.0
 40
0.0
 40
0.2531542795
 40
1.0
 40
1.0
 40
1.0
 40
1.0
 10
52.88781012930002
 20
49.99344461569998
 30
0.0
 10
52.89325706399999
 20
49.98134355609995
 30
0.0
 10
52.91492121150003
 20
49.93360928459996
 30
0.0
 10
52.93720767440004
 20
49.88615624759993
 30
0.0
 10
52.95426663410001
 20
49.85091834129995
 30
0.0
  0
SPLINE
  5
91EAA
330
1F
100
AcDbEntity
  8
1
100
AcDbSpline
210
0.0
220
0.0
230
1.0
 70
     8
 71
     3
 72
    21
 73
    17
 74
     0
 42
0.000000001
 43
0.0000000001
 40
0.0
 40
0.0
 40
0.0
 40
0.0
 40
0.0034469282
 40
0.0073142685
 40
0.0124680948
 40
0.0193006627
 40
0.0385613762
 40
0.0656609149
 40
0.1007355419
 40
0.1438143612
 40
0.194874896
 40
0.2538691249
 40
0.3953577797999999
 40
0.567540684
 40
0.7694657345
 40
1.0
 40
1.0
 40
1.0
 40
1.0
 10
48.46138855190003
 20
49.91333545299998
 30
0.0
 10
48.46121425379999
 20
49.91384651949997
 30
0.0
 10
48.46115317330003
 20
49.91507544189996
 30
0.0
 10
48.46226777840001
 20
49.91677816359995
 30
0.0
 10
48.46425832400001
 20
49.91829121429995
 30
0.0
 10
48.46864300790002
 20
49.92050647369993
 30
0.0
 10
48.47665476790002
 20
49.92293582059992
 30
0.0
 10
48.48913737790002
 20
49.92556093079993
 30
0.0
 10
48.50544631920001
 20
49.92804917549997
 30
0.0
 10
48.5255507901
 20
49.93041059959998
 30
0.0
 10
48.54943925380002
 20
49.93262747099997
 30
0.0
 10
48.58873549470001
 20
49.93556965459996
 30
0.0
 10
48.64703509439999
 20
49.93871747739993
 30
0.0
 10
48.72774763369999
 20
49.94179350599992
 30
0.0
 10
48.82243277560002
 20
49.94437711629993
 30
0.0
 10
48.89016577749998
 20
49.94572399559991
 30
0.0
 10
48.92627412429999
 20
49.94635428669997
 30
0.0
  0
SPLINE
  5
91EAB
330
1F
100
AcDbEntity
  8
1
100
AcDbSpline
210
0.0
220
0.0
230
1.0
 70
     8
 71
     3
 72
     9
 73
     5
 74
     0
 42
0.000000001
 43
0.0000000001
 40
0.0
 40
0.0
 40
0.0
 40
0.0
 40
0.2516367532999999
 40
1.0
 40
1.0
 40
1.0
 40
1.0
 10
52.81008462630001
 20
49.99263503949996
 30
0.0
 10
52.80427536859995
 20
49.97057179239996
 30
0.0
 10
52.7806033388
 20
49.88304837409994
 30
0.0
 10
52.75458323280004
 20
49.79615879499997
 30
0.0
 10
52.73376920230004
 20
49.73157800099997
 30
0.0
  0
SPLINE
  5
91EAC
330
1F
100
AcDbEntity
  8
1
100
AcDbSpline
210
0.0
220
0.0
230
1.0
 70
     8
 71
     3
 72
     9
 73
     5
 74
     0
 42
0.000000001
 43
0.0000000001
 40
0.0
 40
0.0
 40
0.0
 40
0.0
 40
0.5008459565
 40
1.0
 40
1.0
 40
1.0
 40
1.0
 10
37.44576409040003
 20
48.35967591369993
 30
0.0
 10
37.60064010809998
 20
48.42298968519996
 30
0.0
 10
37.9206261311
 20
48.52459629739994
 30
0.0
 10
38.25300797929997
 20
48.57241318459998
 30
0.0
 10
38.41946730109999
 20
48.58229682409998
 30
0.0
  0
SPLINE
  5
91EAD
330
1F
100
AcDbEntity
  8
1
100
AcDbSpline
210
0.0
220
0.0
230
1.0
 70
     8
 71
     3
 72
    30
 73
    26
 74
     0
 42
0.000000001
 43
0.0000000001
 40
0.0
 40
0.0
 40
0.0
 40
0.0
 40
0.0203583695
 40
0.0296885949
 40
0.0384786543
 40
0.054600525
 40
0.0693258821
 40
0.0835744409
 40
0.0984089969
 40
0.1147356781
 40
0.133122425
 40
0.1538237316
 40
0.1768805133
 40
0.2021964729
 40
0.2296100825
 40
0.2589362569
 40
0.2899811932
 40
0.3564920298
 40
0.4278662759000003
 40
0.5030690474
 40
0.5813026804
 40
0.6619417575
 40
0.744497281
 40
0.8285712543
 40
1.0
 40
1.0
 40
1.0
 40
1.0
 10
29.1041336008
 20
43.21488170459995
 30
0.0
 10
29.06029691280003
 20
43.23065427739996
 30
0.0
 10
28.99740383580001
 20
43.25699623509993
 30
0.0
 10
28.92041302280001
 20
43.29991386399991
 30
0.0
 10
28.85537151720001
 20
43.34372621669993
 30
0.0
 10
28.78739614390003
 20
43.40493969679996
 30
0.0
 10
28.72959587999998
 20
43.49202795259995
 30
0.0
 10
28.7006913283
 20
43.58962654009992
 30
0.0
 10
28.70147831580002
 20
43.69484457739995
 30
0.0
 10
28.73023950980002
 20
43.80542551999993
 30
0.0
 10
28.7846723481
 20
43.92055510559996
 30
0.0
 10
28.86290387670002
 20
44.03972028009992
 30
0.0
 10
28.96312852700001
 20
44.16223084639996
 30
0.0
 10
29.0833995031
 20
44.28737614309992
 30
0.0
 10
29.22178144980004
 20
44.41444343339995
 30
0.0
 10
29.376405852
 20
44.54279301299997
 30
0.0
 10
29.60725007720001
 20
44.71901290779995
 30
0.0
 10
29.92631672490001
 20
44.93770511579994
 30
0.0
 10
30.3413351525
 20
45.19394328339997
 30
0.0
 10
30.78871117130001
 20
45.44813527389996
 30
0.0
 10
31.26193285890003
 20
45.69923431809994
 30
0.0
 10
31.75597088620004
 20
45.94663965159995
 30
0.0
 10
32.26688704540001
 20
46.18991834519995
 30
0.0
 10
32.97098477940003
 20
46.51047647359999
 30
0.0
 10
33.50859898960002
 20
46.74058607309993
 30
0.0
 10
33.87114899860002
 20
46.89043050779995
 30
0.0
  0
SPLINE
  5
91EAE
330
1F
100
AcDbEntity
  8
1
100
AcDbSpline
210
0.0
220
0.0
230
1.0
 70
     8
 71
     3
 72
     8
 73
     4
 74
     0
 42
0.000000001
 43
0.0000000001
 40
0.0
 40
0.0
 40
0.0
 40
0.0
 40
1.0
 40
1.0
 40
1.0
 40
1.0
 10
33.87114899860002
 20
46.89043050779995
 30
0.0
 10
35.0617285383
 20
47.38250529369994
 30
0.0
 10
36.25329744150003
 20
47.87219204079995
 30
0.0
 10
37.44576409040003
 20
48.35967591369993
 30
0.0
  0
SPLINE
  5
91EAF
330
1F
100
AcDbEntity
  8
1
100
AcDbSpline
210
0.0
220
0.0
230
1.0
 70
     8
 71
     3
 72
     9
 73
     5
 74
     0
 42
0.000000001
 43
0.0000000001
 40
0.0
 40
0.0
 40
0.0
 40
0.0
 40
0.5258267584000002
 40
1.0
 40
1.0
 40
1.0
 40
1.0
 10
47.73235029969995
 20
47.29912231969993
 30
0.0
 10
47.66492815569999
 20
47.31710209359997
 30
0.0
 10
47.53454015259999
 20
47.34373940409997
 30
0.0
 10
47.40195770399997
 20
47.35463184229994
 30
0.0
 10
47.3390509816
 20
47.35609835699998
 30
0.0
  0
SPLINE
  5
91EB0
330
1F
100
AcDbEntity
  8
1
100
AcDbSpline
210
0.0
220
0.0
230
1.0
 70
     8
 71
     3
 72
    11
 73
     7
 74
     0
 42
0.000000001
 43
0.0000000001
 40
0.0
 40
0.0
 40
0.0
 40
0.0
 40
0.2488782931
 40
0.4975385556000001
 40
0.7474361728
 40
1.0
 40
1.0
 40
1.0
 40
1.0
 10
48.8922129942
 20
47.70555347879994
 30
0.0
 10
48.80889772199997
 20
47.72738478379991
 30
0.0
 10
48.63878896659997
 20
47.75860774779997
 30
0.0
 10
48.3792631188
 20
47.76622957449998
 30
0.0
 10
48.1203431011
 20
47.73386570579996
 30
0.0
 10
47.9524071724
 20
47.68572351729996
 30
0.0
 10
47.8704724062
 20
47.65529224089998
 30
0.0
  0
SPLINE
  5
91EB1
330
1F
100
AcDbEntity
  8
1
100
AcDbSpline
210
0.0
220
0.0
230
1.0
 70
     8
 71
     3
 72
     9
 73
     5
 74
     0
 42
0.000000001
 43
0.0000000001
 40
0.0
 40
0.0
 40
0.0
 40
0.0
 40
0.2546345774
 40
1.0
 40
1.0
 40
1.0
 40
1.0
 10
46.75682796390002
 20
46.41044298959993
 30
0.0
 10
46.7512471279
 20
46.41575449179995
 30
0.0
 10
46.72943305390004
 20
46.43672158559994
 30
0.0
 10
46.7080378135
 20
46.45812551159994
 30
0.0
 10
46.69236258869998
 20
46.47433949499995
 30
0.0
  0
SPLINE
  5
91EB2
330
1F
100
AcDbEntity
  8
1
100
AcDbSpline
210
0.0
220
0.0
230
1.0
 70
     8
 71
     3
 72
     9
 73
     5
 74
     0
 42
0.000000001
 43
0.0000000001
 40
0.0
 40
0.0
 40
0.0
 40
0.0
 40
0.5223694529000003
 40
1.0
 40
1.0
 40
1.0
 40
1.0
 10
47.2338679106
 20
46.70322153009997
 30
0.0
 10
47.17595493929996
 20
46.73482335749993
 30
0.0
 10
47.06368166889999
 20
46.79278320239993
 30
0.0
 10
46.94847182320001
 20
46.84474635849997
 30
0.0
 10
46.89264594139999
 20
46.86760290439994
 30
0.0
  0
ELLIPSE
  5
91EB3
330
1F
100
AcDbEntity
  8
1
100
AcDbEllipse
 10
230.4126529354
 20
-3.896610431200056
 30
0.0
 11
224.5318264056
 21
-52.83835896660001
 31
0.0
210
0.0
220
0.0
230
1.0
 40
0.0240043904
 41
2.510250019799995
 42
2.6021283383
  0
ELLIPSE
  5
91EB4
330
1F
100
AcDbEntity
  8
1
100
AcDbEllipse
 10
110.226584751
 20
0.0000063856999759
 30
0.0
 11
82.03666781749998
 21
-49.47772247580001
 31
0.0
210
0.0
220
0.0
230
1.0
 40
0.0878629081
 41
2.349314674099999
 42
2.359096628400001
  0
ELLIPSE
  5
91EB5
330
1F
100
AcDbEntity
  8
1
100
AcDbEllipse
 10
61.87442999229997
 20
0.0724793249999607
 30
0.0
 11
86.85895064270027
 21
3.588373897500008
 31
0.0
210
0.0
220
0.0
230
1.0
 40
0.5758869974000002
 41
1.6686167971
 42
1.711216760299999
  0
ELLIPSE
  5
91EB6
330
1F
100
AcDbEntity
  8
1
100
AcDbEllipse
 10
97.24176816759994
 20
0.3914870015999554
 30
0.0
 11
265.303089989701
 21
4.454247708200012
 31
0.0
210
0.0
220
0.0
230
1.0
 40
0.1899078622999998
 41
1.755555285699998
 42
1.791182079599995
  0
ELLIPSE
  5
91EB7
330
1F
100
AcDbEntity
  8
1
100
AcDbEllipse
 10
51.4769801356
 20
47.12987499419992
 30
0.0
 11
2.2912788819
 21
-0.5145734649000008
 31
0.0
210
0.0
220
0.0
230
1.0
 40
0.0701871493
 41
3.236796615279588
 42
3.623128935079602
  0
ELLIPSE
  5
91EB8
330
1F
100
AcDbEntity
  8
1
100
AcDbEllipse
 10
43.42832441730002
 20
42.45713461879993
 30
0.0
 11
14.16338226030001
 21
8.777059342800006
 31
0.0
210
0.0
220
0.0
230
1.0
 40
0.0916503009
 41
0.8957815453999973
 42
1.095624657200005
  0
DIMENSION
  5
91EBA
330
1F
100
AcDbEntity
  8
2
100
AcDbDimension
  2
*D88887
 10
63.50000000000012
 20
67.7211918572458
 30
0.0
 11
94.96666666666678
 21
71.77119185724579
 31
0.0
 70
    32
  1
<>(MAX)
 71
     5
 42
8.200000000000001
  3
コピー - ISO-25
100
AcDbAlignedDimension
 13
55.29999999999998
 23
50.79999999889998
 33
0.0
 14
63.50000000000012
 24
49.99999999890002
 34
0.0
 50
0.0
100
AcDbRotatedDimension
1001
ACAD
1000
DSTYLE
1002
{
1070
   170
1070
     1
1070
   171
1070
     3
1070
   143
1040
0.0393700787401575
1070
   285
1070
     4
1070
     4
1000
"
1070
   271
1070
     8
1070
    40
1040
1.0
1002
}
1001
ACAD_DSTYLE_DIMINSPECT
1070
   393
1070
     0
1070
   394
1070
     0
1070
   395
1000

1070
   396
1000

  0
DIMENSION
  5
91EBB
102
{ACAD_XDICTIONARY
360
91EBC
102
}
102
{ACAD_REACTORS
330
91EBD
102
}
330
1F
100
AcDbEntity
  8
2
100
AcDbDimension
  2
*D89998
 10
63.50000000000012
 20
78.99442999719628
 30
0.0
 11
31.75000000000006
 21
83.04442999719627
 31
0.0
 70
    32
 71
     5
 42
63.5
  3
コピー - ISO-25
100
AcDbAlignedDimension
 13
0.0
 23
42.44999999889997
 33
0.0
 14
63.50000000000012
 24
49.99999999890002
 34
0.0
 50
0.0
100
AcDbRotatedDimension
1001
ACAD
1000
DSTYLE
1002
{
1070
   170
1070
     1
1070
   171
1070
     3
1070
   143
1040
0.0393700787401575
1070
   285
1070
     4
1070
     4
1000
"
1070
   271
1070
     8
1070
    40
1040
1.0
1002
}
1001
ACAD_DSTYLE_DIMINSPECT
1070
   393
1070
     0
1070
   394
1070
     0
1070
   395
1000

1070
   396
1000

  0
DIMENSION
  5
91EBE
102
{ACAD_XDICTIONARY
360
91EBF
102
}
102
{ACAD_REACTORS
330
91EC0
102
}
330
1F
100
AcDbEntity
  8
sk2
100
AcDbDimension
  2
*D9010109
 10
42.0
 20
-65.86312418500563
 30
0.0
 11
21.0
 21
-61.81312418500564
 31
0.0
 70
    32
 71
     5
 42
42.0
  3
コピー - ISO-25
100
AcDbAlignedDimension
 13
0.0
 23
-42.44999170410003
 33
0.0
 14
42.0
 24
-26.9999999989
 34
0.0
 50
0.0
100
AcDbRotatedDimension
1001
ACAD
1000
DSTYLE
1002
{
1070
   170
1070
     1
1070
   171
1070
     3
1070
   143
1040
0.0393700787401575
1070
   285
1070
     4
1070
     4
1000
"
1070
   271
1070
     8
1070
    40
1040
1.0
1002
}
1001
ACAD_DSTYLE_DIMINSPECT
1070
   393
1070
     0
1070
   394
1070
     0
1070
   395
1000

1070
   396
1000

  0
LINE
  5
91FCB
330
1F
100
AcDbEntity
  8
sk3
100
AcDbLine
 10
29.00000000014669
 20
20.29999999889998
 30
0.0
 11
29.00000000014669
 21
-20.2999999989
 31
0.0
  0
LINE
  5
91FCC
330
1F
100
AcDbEntity
  8
sk3
100
AcDbLine
 10
35.99999999995069
 20
20.29999999889998
 30
0.0
 11
35.99999999995069
 21
-20.29999999890001
 31
0.0
  0
LINE
  5
91FCD
330
1F
100
AcDbEntity
  8
sk3
100
AcDbLine
 10
39.10953503484933
 20
-18.84999999890002
 30
0.0
 11
39.10953503484933
 21
18.84999999889999
 31
0.0
  0
LINE
  5
92146
330
1F
100
AcDbEntity
  8
cut
100
AcDbLine
 10
47.74605423640003
 20
47.24684923279999
 30
0.0
 11
47.76726014660004
 21
47.25903691690001
 31
0.0
  0
LINE
  5
92147
330
1F
100
AcDbEntity
  8
cut
100
AcDbLine
 10
47.76726014630003
 20
47.25903691670004
 30
0.0
 11
47.99837786890008
 21
47.3863620047
 31
0.0
  0
LINE
  5
92148
330
1F
100
AcDbEntity
  8
cut
100
AcDbLine
 10
54.09361746630009
 20
50.54292201089999
 30
0.0
 11
54.12066551810004
 21
50.55772170359995
 31
0.0
  0
LINE
  5
92149
330
1F
100
AcDbEntity
  8
cut
100
AcDbLine
 10
53.90639320080004
 20
50.4400960981
 30
0.0
 11
54.09361746630009
 21
50.54292201089999
 31
0.0
  0
LINE
  5
9214A
330
1F
100
AcDbEntity
  8
cut
100
AcDbLine
 10
47.99837786890008
 20
47.3863620047
 30
0.0
 11
48.23349737720002
 21
47.51495291549997
 31
0.0
  0
LINE
  5
9214B
330
1F
100
AcDbEntity
  8
cut
100
AcDbLine
 10
48.23349737720002
 20
47.51495291549997
 30
0.0
 11
48.47261996489999
 21
47.64480482480002
 31
0.0
  0
LINE
  5
9214C
330
1F
100
AcDbEntity
  8
cut
100
AcDbLine
 10
53.82561092270009
 20
50.39631226889998
 30
0.0
 11
53.90639320080004
 21
50.4400960981
 31
0.0
  0
LINE
  5
9214D
330
1F
100
AcDbEntity
  8
cut
100
AcDbLine
 10
48.47261996489999
 20
47.64480482480002
 30
0.0
 11
48.71575080700006
 21
47.77589843649996
 31
0.0
  0
LINE
  5
9214E
330
1F
100
AcDbEntity
  8
cut
100
AcDbLine
 10
53.71616711700005
 20
50.33775407979994
 30
0.0
 11
53.82561092270009
 21
50.39631226889998
 31
0.0
  0
LWPOLYLINE
  5
9214F
330
1F
100
AcDbEntity
  8
cut
100
AcDbPolyline
 90
        6
 70
     0
 43
0.0
 10
48.71575080700006
 20
47.77589843649996
 10
48.84603181670001
 20
47.84575258559999
 10
48.85327420170006
 20
47.84956499889999
 10
48.86054615499995
 20
47.85334932669996
 10
48.8678476765
 20
47.85710556909998
 10
48.87517876630011
 20
47.86083372590002
  0
LINE
  5
92150
330
1F
100
AcDbEntity
  8
cut
100
AcDbLine
 10
53.60635700570004
 20
50.27939262369994
 30
0.0
 11
53.71616711700005
 21
50.33775407979994
 31
0.0
  0
LINE
  5
92151
330
1F
100
AcDbEntity
  8
cut
100
AcDbLine
 10
53.18080214029999
 20
50.05290674940004
 30
0.0
 11
53.60635700570004
 21
50.27939262369994
 31
0.0
  0
LINE
  5
92152
330
1F
100
AcDbEntity
  8
cut
100
AcDbLine
 10
52.79083482220006
 20
49.84841376490003
 30
0.0
 11
53.18080214029999
 21
50.05290674940004
 31
0.0
  0
LINE
  5
92153
330
1F
100
AcDbEntity
  8
cut
100
AcDbLine
 10
52.47631955090003
 20
49.68578189010003
 30
0.0
 11
52.79083482220006
 21
49.84841376490003
 31
0.0
  0
LINE
  5
92154
330
1F
100
AcDbEntity
  8
cut
100
AcDbLine
 10
51.5398786119
 20
49.20597001300001
 30
0.0
 11
52.47631955090003
 21
49.68578189010003
 31
0.0
  0
LINE
  5
92155
330
1F
100
AcDbEntity
  8
cut
100
AcDbLine
 10
50.60812789450007
 20
48.73238328639996
 30
0.0
 11
51.5398786119
 21
49.20597001300001
 31
0.0
  0
LINE
  5
92156
330
1F
100
AcDbEntity
  8
cut
100
AcDbLine
 10
49.47697465919997
 20
48.16221847979996
 30
0.0
 11
50.60812789450007
 21
48.73238328639996
 31
0.0
  0
LINE
  5
92157
330
1F
100
AcDbEntity
  8
cut
100
AcDbLine
 10
48.87517876630011
 20
47.86083372590002
 30
0.0
 11
49.47697465919997
 21
48.16221847979996
 31
0.0
  0
LINE
  5
92158
330
1F
100
AcDbEntity
  8
cut
100
AcDbLine
 10
47.72532060469997
 20
47.23401948510002
 30
0.0
 11
47.74775074980004
 21
47.2478649344
 31
0.0
  0
LWPOLYLINE
  5
92159
330
1F
100
AcDbEntity
  8
cut
100
AcDbPolyline
 90
       10
 70
     0
 43
0.0
 10
47.56104393740009
 20
47.09050343659998
 10
47.5778930491
 20
47.10965120959997
 10
47.59426257660003
 20
47.12702598970003
 10
47.61127489030002
 20
47.1439471425
 10
47.62890831590005
 20
47.16039050339997
 10
47.64710886380011
 20
47.17627985839999
 10
47.66589015200007
 20
47.19161915540001
 10
47.6852385625001
 20
47.20640444639996
 10
47.70505925160001
 20
47.22054767380001
 10
47.72532060469997
 20
47.23401948510002
  0
LWPOLYLINE
  5
9215A
330
1F
100
AcDbEntity
  8
cut
100
AcDbPolyline
 90
       10
 70
     0
 43
0.0
 10
47.57563644900004
 20
47.10715861060005
 10
47.59072453710007
 20
47.123364422
 10
47.60631183640009
 20
47.13912629889995
 10
47.62239956860002
 20
47.15444606609998
 10
47.63897930359997
 20
47.16931113369997
 10
47.65604019859995
 20
47.18370530839997
 10
47.67356745280006
 20
47.19761058369994
 10
47.69153043409994
 20
47.21100169970003
 10
47.70989455260006
 20
47.22385158360004
 10
47.72863308210003
 20
47.23613885859998
  0
LINE
  5
9215B
330
1F
100
AcDbEntity
  8
cut
100
AcDbLine
 10
47.51853388589995
 20
47.03537725229995
 30
0.0
 11
47.533368579
 21
47.05586842069999
 31
0.0
  0
LINE
  5
9215C
330
1F
100
AcDbEntity
  8
cut
100
AcDbLine
 10
47.53246505200002
 20
47.05466165909996
 30
0.0
 11
47.54700629690012
 21
47.07347199470001
 31
0.0
  0
LINE
  5
9215D
330
1F
100
AcDbEntity
  8
cut
100
AcDbLine
 10
47.54694805190013
 20
47.0733991135
 30
0.0
 11
47.56214463360003
 21
47.09179863780002
 31
0.0
  0
LWPOLYLINE
  5
9215E
330
1F
100
AcDbEntity
  8
cut
100
AcDbPolyline
 90
       11
 70
     0
 43
0.0
 10
47.42219566560004
 20
46.84107161850005
 10
47.42929508300004
 20
46.86204396780005
 10
47.4370211401
 20
46.88277329399999
 10
47.44536029760014
 20
46.9032339322
 10
47.45429797940004
 20
46.92340061279998
 10
47.46382300360004
 20
46.94325408679997
 10
47.47393776570003
 20
46.96279918680001
 10
47.48464805540003
 20
46.98204676589995
 10
47.49595669970005
 20
47.00100126479997
 10
47.50785467370007
 20
47.01964147580002
 10
47.5203299896001
 20
47.0379397789
  0
LWPOLYLINE
  5
9215F
330
1F
100
AcDbEntity
  8
cut
100
AcDbPolyline
 90
       37
 70
     0
 43
0.0
 10
59.05500934360009
 20
35.115153459
 10
59.0342703084001
 20
35.10119245479998
 10
59.01309587940011
 20
35.08787418490002
 10
58.9914860568
 20
35.07519864940003
 10
58.96940123870002
 20
35.0631442193
 10
58.94688102700001
 20
35.05173252360001
 10
58.92404422640004
 20
35.0410284491
 10
58.90089736829998
 20
35.0310429525
 10
58.87743392139999
 20
35.0217650772
 10
58.85375309630001
 20
35.01322683979998
 10
58.82988311290011
 20
35.005438554
 10
58.80579575119998
 20
34.99838990600004
 10
58.78150556280012
 20
34.99208197159999
 10
58.75699968030005
 20
34.9865088199
 10
58.73229097100001
 20
34.98167638179999
 10
58.70743258790003
 20
34.97760352540002
 10
58.6824088646
 20
34.9742905199
 10
58.65723546750007
 20
34.97173709609999
 10
58.63201254950002
 20
34.96996131350002
 10
58.60673953550008
 20
34.96896983260001
 10
58.58141700060002
 20
34.96875599290002
 10
58.55614682340001
 20
34.96931787350002
 10
58.53094501340001
 20
34.9706586996
 10
58.50579556119999
 20
34.97277524589998
 10
58.48075231690007
 20
34.97565591590002
 10
58.45582814730004
 20
34.97929739520001
 10
58.43101018570007
 20
34.9837029981
 10
58.4063136819001
 20
34.9888710704
 10
58.38170988860008
 20
34.99480826369998
 10
58.35722755319999
 20
35.00150792650001
 10
58.3329681670001
 20
35.0089484497
 10
58.3089235952001
 20
35.01713835549998
 10
58.28510197270009
 20
35.0260691217
 10
58.26162919609997
 20
35.03569357310002
 10
58.23854723069995
 20
35.04599598459999
 10
58.21581411120007
 20
35.0569920813
 10
58.1934298376001
 20
35.06868186310001
  0
LINE
  5
92160
330
1F
100
AcDbEntity
  8
cut
100
AcDbLine
 10
47.3994761819
 20
46.75130715250002
 30
0.0
 11
47.40474561320001
 21
46.77696839440004
 31
0.0
  0
LINE
  5
92161
330
1F
100
AcDbEntity
  8
cut
100
AcDbLine
 10
47.40426236270002
 20
46.77478852129996
 30
0.0
 11
47.40991327460005
 21
46.79850723869998
 31
0.0
  0
LINE
  5
92162
330
1F
100
AcDbEntity
  8
cut
100
AcDbLine
 10
47.40981023350002
 20
46.7980931692
 30
0.0
 11
47.41609944590003
 21
46.82115159510003
 31
0.0
  0
LWPOLYLINE
  5
92163
330
1F
100
AcDbEntity
  8
cut
100
AcDbPolyline
 90
       11
 70
     0
 43
0.0
 10
47.41573227829997
 20
46.81988349429996
 10
47.42312858680008
 20
46.84395304449997
 10
47.43089906920011
 20
46.8665082718
 10
47.43939478490005
 20
46.88878003910002
 10
47.4486224397
 20
46.91078305039996
 10
47.45857532759997
 20
46.93250260170002
 10
47.46921722290005
 20
46.95385734320001
 10
47.48055305030003
 20
46.97484571720003
 10
47.49257788500004
 20
46.99546928130001
 10
47.50524072710003
 20
47.0156513589
 10
47.51853388589995
 20
47.03537725229995
  0
LWPOLYLINE
  5
92164
330
1F
100
AcDbEntity
  8
cut
100
AcDbPolyline
 90
        8
 70
     0
 43
0.0
 10
47.38688226370004
 20
46.61465617389995
 10
47.38692022930002
 20
46.62223083669998
 10
47.38748246560009
 20
46.64477645380002
 10
47.38871293780004
 20
46.66720405040002
 10
47.39060650210001
 20
46.68945285549995
 10
47.39315945129999
 20
46.71153230650003
 10
47.39636843730011
 20
46.733469393
 10
47.40023067280003
 20
46.75528409999998
  0
LWPOLYLINE
  5
92165
330
1F
100
AcDbEntity
  8
cut
100
AcDbPolyline
 90
        7
 70
     0
 43
0.0
 10
47.38688253840006
 20
46.61465617380001
 10
47.3870590483001
 20
46.63070646609996
 10
47.3879951358
 20
46.6554261694
 10
47.38970812800005
 20
46.67987222179999
 10
47.39219231289996
 20
46.70392520629997
 10
47.39545340239998
 20
46.7277045399
 10
47.3994761819
 20
46.75130715250002
  0
LWPOLYLINE
  5
92166
330
1F
100
AcDbEntity
  8
cut
100
AcDbPolyline
 90
        5
 70
     0
 43
0.0
 10
47.39143960319995
 20
46.53196567190002
 10
47.38912788549997
 20
46.55664758899995
 10
47.38762542310007
 20
46.58131717580004
 10
47.38693221620007
 20
46.60597443260002
 10
47.38688253840006
 20
46.61465617380001
  0
LINE
  5
92167
330
1F
100
AcDbEntity
  8
cut
100
AcDbLine
 10
63.03553268460007
 20
41.3850603163
 30
0.0
 11
62.83310007170006
 21
41.04810187499999
 31
0.0
  0
LINE
  5
92168
330
1F
100
AcDbEntity
  8
cut
100
AcDbLine
 10
62.8331000718
 20
41.04810187519999
 30
0.0
 11
62.6535019639
 21
40.75017109539999
 31
0.0
  0
LINE
  5
92169
330
1F
100
AcDbEntity
  8
cut
100
AcDbLine
 10
62.6535019639
 20
40.75017109539999
 30
0.0
 11
62.46732437060007
 21
40.44233195219999
 31
0.0
  0
LINE
  5
9216A
330
1F
100
AcDbEntity
  8
cut
100
AcDbLine
 10
62.46732437060007
 20
40.44233195219999
 30
0.0
 11
62.27455748120006
 21
40.12458927109999
 31
0.0
  0
LINE
  5
9216B
330
1F
100
AcDbEntity
  8
cut
100
AcDbLine
 10
62.27455748120006
 20
40.12458927109999
 30
0.0
 11
62.07516205319996
 21
39.79696235490003
 31
0.0
  0
LINE
  5
9216C
330
1F
100
AcDbEntity
  8
cut
100
AcDbLine
 10
62.07516205319996
 20
39.79696235490003
 30
0.0
 11
61.80718624730002
 21
39.35820566119998
 31
0.0
  0
LINE
  5
9216D
330
1F
100
AcDbEntity
  8
cut
100
AcDbLine
 10
61.80718624730002
 20
39.35820566119998
 30
0.0
 11
61.55775633180008
 21
38.95138591630001
 31
0.0
  0
LINE
  5
9216E
330
1F
100
AcDbEntity
  8
cut
100
AcDbLine
 10
61.55775633180008
 20
38.95138591630001
 30
0.0
 11
61.30762642139996
 21
38.5448737152
 31
0.0
  0
LINE
  5
9216F
330
1F
100
AcDbEntity
  8
cut
100
AcDbLine
 10
61.30762642139996
 20
38.5448737152
 30
0.0
 11
61.0570757424001
 21
38.13907437209997
 31
0.0
  0
LINE
  5
92170
330
1F
100
AcDbEntity
  8
cut
100
AcDbLine
 10
61.0570757424001
 20
38.13907437209997
 30
0.0
 11
60.80632949330004
 21
37.73430725530003
 31
0.0
  0
LINE
  5
92171
330
1F
100
AcDbEntity
  8
cut
100
AcDbLine
 10
60.80632949330004
 20
37.73430725530003
 30
0.0
 11
60.55533552400003
 21
37.3304462168
 31
0.0
  0
LINE
  5
92172
330
1F
100
AcDbEntity
  8
cut
100
AcDbLine
 10
60.55533552400003
 20
37.3304462168
 30
0.0
 11
60.30386363970013
 21
36.92708900310001
 31
0.0
  0
LINE
  5
92173
330
1F
100
AcDbEntity
  8
cut
100
AcDbLine
 10
60.30386363970013
 20
36.92708900310001
 30
0.0
 11
60.05164366790006
 21
36.52377906629999
 31
0.0
  0
LWPOLYLINE
  5
92174
330
1F
100
AcDbEntity
  8
cut
100
AcDbPolyline
 90
        6
 70
     0
 43
0.0
 10
60.05164366790006
 20
36.52377906629999
 10
59.9630938545
 20
36.3825119607
 10
59.9587605718001
 20
36.37570780429999
 10
59.95438679910001
 20
36.36891116940001
 10
59.94997253650002
 20
36.36212205609999
 10
59.94551778400012
 20
36.35534046440003
  0
LINE
  5
92175
330
1F
100
AcDbEntity
  8
cut
100
AcDbLine
 10
59.55500889079996
 20
35.7683868627
 30
0.0
 11
59.26456933979999
 21
35.32936749449999
 31
0.0
  0
LINE
  5
92176
330
1F
100
AcDbEntity
  8
cut
100
AcDbLine
 10
59.94551778400012
 20
36.35534046440003
 30
0.0
 11
59.55500889079996
 21
35.7683868627
 31
0.0
  0
LWPOLYLINE
  5
92177
330
1F
100
AcDbEntity
  8
cut
100
AcDbPolyline
 90
       16
 70
     0
 43
0.0
 10
59.26456934019995
 20
35.32936749499999
 10
59.25345154679996
 20
35.31296747299999
 10
59.24189915620003
 20
35.29683528709997
 10
59.22991216839999
 20
35.28097093720001
 10
59.21747650750001
 20
35.26535636220001
 10
59.20460624940004
 20
35.2500096232
 10
59.19134362140005
 20
35.23498490400001
 10
59.17770091850013
 20
35.22029660850001
 10
59.16366584570004
 20
35.20593033290001
 10
59.14924374470001
 20
35.19189704920001
 10
59.13442102160002
 20
35.178184069
 10
59.11921127020002
 20
35.16480408069998
 10
59.10366061430011
 20
35.15180612180002
 10
59.08778442830009
 20
35.139206538
 10
59.07156733790009
 20
35.1269889836
 10
59.0550093429
 20
35.1151534585
  0
LINE
  5
92178
330
1F
100
AcDbEntity
  8
cut
100
AcDbLine
 10
57.18957267780012
 20
35.59312240240001
 30
0.0
 11
57.04338744680001
 21
35.66642127310001
 31
0.0
  0
LWPOLYLINE
  5
92179
330
1F
100
AcDbEntity
  8
cut
100
AcDbPolyline
 90
        4
 70
     0
 43
0.0
 10
57.57435806010005
 20
35.3966675925
 10
57.4472136472001
 20
35.46220160299998
 10
57.31895099700011
 20
35.5276832804
 10
57.18957267780012
 20
35.59312240240001
  0
LINE
  5
9217A
330
1F
100
AcDbEntity
  8
cut
100
AcDbLine
 10
57.04338744680001
 20
35.66642127310001
 30
0.0
 11
57.02789709600006
 21
35.67437798310002
 31
0.0
  0
LINE
  5
9217B
330
1F
100
AcDbEntity
  8
cut
100
AcDbLine
 10
57.8253075832
 20
35.2655012374
 30
0.0
 11
57.57435806010005
 21
35.3966675925
 31
0.0
  0
LINE
  5
9217C
330
1F
100
AcDbEntity
  8
cut
100
AcDbLine
 10
57.02789709600006
 20
35.67437798310002
 30
0.0
 11
57.01260763770005
 21
35.68238909869999
 31
0.0
  0
LINE
  5
9217D
330
1F
100
AcDbEntity
  8
cut
100
AcDbLine
 10
56.29967655020004
 20
36.05932762839998
 30
0.0
 11
53.28795167639999
 21
37.64740623479998
 31
0.0
  0
LINE
  5
9217E
330
1F
100
AcDbEntity
  8
cut
100
AcDbLine
 10
56.47895687870004
 20
35.96458775150001
 30
0.0
 11
56.29967655020004
 21
36.05932762839998
 31
0.0
  0
LINE
  5
9217F
330
1F
100
AcDbEntity
  8
cut
100
AcDbLine
 10
53.28795167639999
 20
37.64740623479998
 30
0.0
 11
53.09373751379997
 21
37.7497807494
 31
0.0
  0
LWPOLYLINE
  5
92180
330
1F
100
AcDbEntity
  8
cut
100
AcDbPolyline
 90
        3
 70
     0
 43
0.0
 10
56.7465687568
 20
35.8231110474
 10
56.65753947640006
 20
35.8701859027
 10
56.47895687870004
 20
35.96458775150001
  0
LWPOLYLINE
  5
92181
330
1F
100
AcDbEntity
  8
cut
100
AcDbPolyline
 90
        3
 70
     0
 43
0.0
 10
57.01260763760013
 20
35.68238909869999
 10
56.92410278810007
 20
35.72921255330002
 10
56.7465687568
 20
35.8231110474
  0
LINE
  5
92182
330
1F
100
AcDbEntity
  8
cut
100
AcDbLine
 10
53.09373751379997
 20
37.7497807494
 30
0.0
 11
52.96443792650006
 21
37.8186233902
 31
0.0
  0
LWPOLYLINE
  5
92183
330
1F
100
AcDbEntity
  8
cut
100
AcDbPolyline
 90
        4
 70
     0
 43
0.0
 10
58.19342983830007
 20
35.06868186270001
 10
58.07183038449999
 20
35.13430154420002
 10
57.94912296610004
 20
35.19990800240001
 10
57.8253075832
 20
35.2655012374
  0
LINE
  5
92184
330
1F
100
AcDbEntity
  8
cut
100
AcDbLine
 10
52.96443792650006
 20
37.8186233902
 30
0.0
 11
52.83432461170002
 21
37.88873167810002
 31
0.0
  0
LINE
  5
92185
330
1F
100
AcDbEntity
  8
cut
100
AcDbLine
 10
52.83432461170002
 20
37.88873167810002
 30
0.0
 11
52.70399334010004
 21
37.95982594720002
 31
0.0
  0
LINE
  5
92186
330
1F
100
AcDbEntity
  8
cut
100
AcDbLine
 10
52.70399334010004
 20
37.95982594720002
 30
0.0
 11
52.57567754110004
 21
38.03060193389999
 31
0.0
  0
LINE
  5
92187
330
1F
100
AcDbEntity
  8
cut
100
AcDbLine
 10
52.57567754110004
 20
38.03060193389999
 30
0.0
 11
52.45420761070011
 21
38.09830073679999
 31
0.0
  0
LINE
  5
92188
330
1F
100
AcDbEntity
  8
cut
100
AcDbLine
 10
52.45420761070011
 20
38.09830073679999
 30
0.0
 11
52.28993913429996
 21
38.1909796667
 31
0.0
  0
LINE
  5
92189
330
1F
100
AcDbEntity
  8
cut
100
AcDbLine
 10
52.28993913429996
 20
38.1909796667
 30
0.0
 11
52.14876708530004
 21
38.2716177284
 31
0.0
  0
LINE
  5
9218A
330
1F
100
AcDbEntity
  8
cut
100
AcDbLine
 10
52.14876708530004
 20
38.2716177284
 30
0.0
 11
52.02251163369999
 21
38.34449774019999
 31
0.0
  0
LINE
  5
9218B
330
1F
100
AcDbEntity
  8
cut
100
AcDbLine
 10
52.02251163369999
 20
38.34449774019999
 30
0.0
 11
51.90249895330009
 21
38.41444748409998
 31
0.0
  0
LINE
  5
9218C
330
1F
100
AcDbEntity
  8
cut
100
AcDbLine
 10
51.90249895330009
 20
38.41444748409998
 30
0.0
 11
51.78243577039996
 21
38.4850803015
 31
0.0
  0
LINE
  5
9218D
330
1F
100
AcDbEntity
  8
cut
100
AcDbLine
 10
51.78243577039996
 20
38.4850803015
 30
0.0
 11
51.66161033760011
 21
38.55682080080001
 31
0.0
  0
LINE
  5
9218E
330
1F
100
AcDbEntity
  8
cut
100
AcDbLine
 10
51.66161033760011
 20
38.55682080080001
 30
0.0
 11
51.54124600220007
 21
38.62894388659999
 31
0.0
  0
LINE
  5
9218F
330
1F
100
AcDbEntity
  8
cut
100
AcDbLine
 10
51.54124600220007
 20
38.62894388659999
 30
0.0
 11
51.46170111050003
 21
38.6769693251
 31
0.0
  0
LWPOLYLINE
  5
92190
330
1F
100
AcDbEntity
  8
cut
100
AcDbPolyline
 90
       37
 70
     0
 43
0.0
 10
51.4617011207
 20
38.67696931899999
 10
51.44146065360008
 20
38.68947563010002
 10
51.4215965571001
 20
38.70217294
 10
51.40210883120005
 20
38.71506124869998
 10
51.38301363080007
 20
38.7281403298
 10
51.36429480089997
 20
38.7414104097
 10
51.34590387650007
 20
38.75487216740001
 10
51.32783557300001
 20
38.7685229848
 10
51.31009517480004
 20
38.78236548010003
 10
51.2926500699001
 20
38.79640818670001
 10
51.27549676020009
 20
38.8106464786
 10
51.25863874380002
 20
38.8250849818
 10
51.24205390229996
 20
38.8397461077
 10
51.22573610539996
 20
38.85463138270001
 10
51.20969148360007
 20
38.86973928049997
 10
51.19391630999996
 20
38.88508763299999
 10
51.17840697420014
 20
38.9006805692
 10
51.16316708680006
 20
38.91651396010002
 10
51.14820375260014
 20
38.9325932518
 10
51.13351485830002
 20
38.94892538790001
 10
51.11910251730001
 20
38.96550342479998
 10
51.10498017420002
 20
38.9823119772
 10
51.09114808569994
 20
38.99935551830001
 10
51.07760599510005
 20
39.01662957500001
 10
51.06436657670007
 20
39.03410534260002
 10
51.05143525220011
 20
39.0517782229
 10
51.03880659990011
 20
39.06965281409997
 10
51.02647702900004
 20
39.08771410690003
 10
51.01444666120007
 20
39.10596076510001
 10
51.00271537469996
 20
39.12439412490002
 10
50.99127921390004
 20
39.143003185
 10
50.98013714680007
 20
39.16178674330001
 10
50.96929020530012
 20
39.18074600200001
 10
50.95873752890009
 20
39.1998735661
 10
50.94847883090006
 20
39.21916697090001
 10
50.93851439790011
 20
39.23862868110001
 10
50.92884423010001
 20
39.25825869690001
  0
LWPOLYLINE
  5
92191
330
1F
100
AcDbEntity
  8
cut
100
AcDbPolyline
 90
       16
 70
     0
 43
0.0
 10
47.47894974050007
 20
46.24942999249998
 10
47.46968790250003
 20
46.26748287349999
 10
47.46090879719996
 20
46.28568999459997
 10
47.45261242479999
 20
46.30405135550001
 10
47.44479391900006
 20
46.32258855649996
 10
47.43745814600003
 20
46.34127999749995
 10
47.43061970420001
 20
46.36006087790002
 10
47.42428506730004
 20
46.37891401749999
 10
47.41844776150003
 20
46.39785659659998
 10
47.41310296359994
 20
46.4168753546
 10
47.4082463843
 20
46.43598792580003
 10
47.4038823129
 20
46.455176676
 10
47.40001879450004
 20
46.47437544209998
 10
47.39665851090001
 20
46.49356216999996
 10
47.39379878040007
 20
46.51275891380004
 10
47.39143960300009
 20
46.53196567359997
  0
LINE
  5
92192
330
1F
100
AcDbEntity
  8
cut
100
AcDbLine
 10
48.45864996810007
 20
44.2944232593
 30
0.0
 11
48.07713817380011
 21
45.0540730523
 31
0.0
  0
LINE
  5
92193
330
1F
100
AcDbEntity
  8
cut
100
AcDbLine
 10
48.83671850589998
 20
43.53739916269997
 30
0.0
 11
48.45864996810007
 21
44.2944232593
 31
0.0
  0
LINE
  5
92194
330
1F
100
AcDbEntity
  8
cut
100
AcDbLine
 10
48.07713817380011
 20
45.0540730523
 30
0.0
 11
48.06933030779998
 21
45.0697390327
 31
0.0
  0
LINE
  5
92195
330
1F
100
AcDbEntity
  8
cut
100
AcDbLine
 10
49.14176988259999
 20
42.92322289180001
 30
0.0
 11
48.83671850589998
 21
43.53739916269997
 31
0.0
  0
LINE
  5
92196
330
1F
100
AcDbEntity
  8
cut
100
AcDbLine
 10
49.45351768860007
 20
42.29239027790001
 30
0.0
 11
49.14176988259999
 21
42.92322289180001
 31
0.0
  0
LINE
  5
92197
330
1F
100
AcDbEntity
  8
cut
100
AcDbLine
 10
49.77580463059997
 20
41.63676434129999
 30
0.0
 11
49.45351768860007
 21
42.29239027790001
 31
0.0
  0
LINE
  5
92198
330
1F
100
AcDbEntity
  8
cut
100
AcDbLine
 10
48.06933030779998
 20
45.0697390327
 30
0.0
 11
48.06153433420002
 21
45.08570690610002
 31
0.0
  0
LINE
  5
92199
330
1F
100
AcDbEntity
  8
cut
100
AcDbLine
 10
50.40835753149996
 20
40.33869950990001
 30
0.0
 11
49.77580463059997
 21
41.63676434129999
 31
0.0
  0
LWPOLYLINE
  5
9219A
330
1F
100
AcDbEntity
  8
cut
100
AcDbPolyline
 90
        9
 70
     0
 43
0.0
 10
47.99408594800013
 20
45.22723441229999
 10
47.93338078359999
 20
45.35305938200003
 10
47.87163476010005
 20
45.47945158110002
 10
47.80886087179999
 20
45.60642162409998
 10
47.74504612450003
 20
45.73395889639999
 10
47.68015153580006
 20
45.86203155409998
 10
47.61416411150003
 20
45.99062898250003
 10
47.54709684589999
 20
46.1197617963
 10
47.47894973890004
 20
46.24942999549995
  0
LINE
  5
9219B
330
1F
100
AcDbEntity
  8
cut
100
AcDbLine
 10
50.7408912085001
 20
39.64979540869999
 30
0.0
 11
50.40835753149996
 21
40.33869950990001
 31
0.0
  0
LINE
  5
9219C
330
1F
100
AcDbEntity
  8
cut
100
AcDbLine
 10
50.92884427160004
 20
39.258258611
 30
0.0
 11
50.7408912075001
 21
39.64979541090001
 31
0.0
  0
LINE
  5
9219D
330
1F
100
AcDbEntity
  8
cut
100
AcDbLine
 10
48.06153433420002
 20
45.08570690610002
 30
0.0
 11
47.99408594800013
 21
45.22723441229999
 31
0.0
  0
LINE
  5
9219E
330
1F
100
AcDbEntity
  8
cut
100
AcDbLine
 10
55.07482190410008
 20
50.79999999889998
 30
0.0
 11
62.70000000000004
 21
50.79999999889998
 31
0.0
  0
LINE
  5
9219F
330
1F
100
AcDbEntity
  8
cut
100
AcDbLine
 10
63.49171259540003
 20
48.62742310690005
 30
0.0
 11
63.50000000000012
 21
49.99999999890002
 31
0.0
  0
LINE
  5
921A0
330
1F
100
AcDbEntity
  8
cut
100
AcDbLine
 10
63.49171259540003
 20
48.62742310690005
 30
0.0
 11
63.49156848540007
 21
48.6185132571
 31
0.0
  0
LINE
  5
921A1
330
1F
100
AcDbEntity
  8
cut
100
AcDbLine
 10
63.24617919470006
 20
42.4290658535
 30
0.0
 11
63.24070554170011
 21
42.1192791747
 31
0.0
  0
LINE
  5
921A2
330
1F
100
AcDbEntity
  8
cut
100
AcDbLine
 10
63.25304341280014
 20
42.73671024459996
 30
0.0
 11
63.24617919470006
 21
42.4290658535
 31
0.0
  0
LINE
  5
921A3
330
1F
100
AcDbEntity
  8
cut
100
AcDbLine
 10
63.49156848540007
 20
48.6185132571
 30
0.0
 11
63.49116260829998
 21
48.60064557970003
 31
0.0
  0
LWPOLYLINE
  5
921A4
330
1F
100
AcDbEntity
  8
cut
100
AcDbPolyline
 90
       25
 70
     0
 43
0.0
 10
63.24070554180003
 20
42.11927918319998
 10
63.23980988110008
 20
42.0858807413
 10
63.23821817290002
 20
42.05275564929999
 10
63.23593041700007
 20
42.01990390709997
 10
63.23293666050005
 20
41.98733332719998
 10
63.22924685650002
 20
41.95503609720001
 10
63.2248908639
 20
41.9229887792
 10
63.21987088030004
 20
41.89119790979997
 10
63.21418470800006
 20
41.85965695239999
 10
63.20785561380001
 20
41.82832285949999
 10
63.20088941560005
 20
41.797186409
 10
63.1932802954001
 20
41.7662568231
 10
63.18503406520004
 20
41.7355187213
 10
63.17615755520012
 20
41.7049600349
 10
63.16664393530004
 20
41.67459283280002
 10
63.15647852650011
 20
41.6444379406
 10
63.14565816319998
 20
41.61448001139999
 10
63.134186011
 20
41.58473439209998
 10
63.12205688910001
 20
41.5552679499
 10
63.10926695
 20
41.5260809528
 10
63.09582004109994
 20
41.4971731328
 10
63.08172252350004
 20
41.468610552
 10
63.06697651750004
 20
41.44041523109999
 10
63.05157990270004
 20
41.4125651495
 10
63.0355326791
 20
41.38506030720001
  0
LINE
  5
921A5
330
1F
100
AcDbEntity
  8
cut
100
AcDbLine
 10
63.26127022930005
 20
43.04258319549997
 30
0.0
 11
63.25304341280014
 21
42.73671024459996
 31
0.0
  0
LINE
  5
921A6
330
1F
100
AcDbEntity
  8
cut
100
AcDbLine
 10
63.27074317340009
 20
43.34433656819999
 30
0.0
 11
63.26127022930005
 21
43.04258319549997
 31
0.0
  0
LINE
  5
921A7
330
1F
100
AcDbEntity
  8
cut
100
AcDbLine
 10
63.49116260829998
 20
48.60064557970003
 30
0.0
 11
63.4905998552
 21
48.58271393169997
 31
0.0
  0
LINE
  5
921A8
330
1F
100
AcDbEntity
  8
cut
100
AcDbLine
 10
63.28148218529998
 20
43.64302452469999
 30
0.0
 11
63.27074317340009
 21
43.34433656819999
 31
0.0
  0
LINE
  5
921A9
330
1F
100
AcDbEntity
  8
cut
100
AcDbLine
 10
63.4905998552
 20
48.58271393169997
 30
0.0
 11
63.4607900008001
 21
47.84463696829998
 31
0.0
  0
LINE
  5
921AA
330
1F
100
AcDbEntity
  8
cut
100
AcDbLine
 10
63.4607900008001
 20
47.84463696829998
 30
0.0
 11
63.42508234280001
 21
46.97927799019999
 31
0.0
  0
LINE
  5
921AB
330
1F
100
AcDbEntity
  8
cut
100
AcDbLine
 10
63.29312693010013
 20
43.93128010819999
 30
0.0
 11
63.28148218529998
 21
43.64302452469999
 31
0.0
  0
LINE
  5
921AC
330
1F
100
AcDbEntity
  8
cut
100
AcDbLine
 10
63.42508234280001
 20
46.97927799019999
 30
0.0
 11
63.3909862741001
 21
46.17027295929999
 31
0.0
  0
LINE
  5
921AD
330
1F
100
AcDbEntity
  8
cut
100
AcDbLine
 10
63.3909862741001
 20
46.17027295929999
 30
0.0
 11
63.3560934620001
 21
45.35896876299996
 31
0.0
  0
LINE
  5
921AE
330
1F
100
AcDbEntity
  8
cut
100
AcDbLine
 10
63.3560934620001
 20
45.35896876299996
 30
0.0
 11
63.31514640870011
 21
44.42744710970001
 31
0.0
  0
LWPOLYLINE
  5
921AF
330
1F
100
AcDbEntity
  8
cut
100
AcDbPolyline
 90
        4
 70
     0
 43
0.0
 10
63.31514640870011
 20
44.42744710970001
 10
63.30722022760006
 20
44.24979228010002
 10
63.30559220940006
 20
44.2134943907
 10
63.29312693010013
 20
43.93128010819999
  0
ARC
  5
921B0
330
1F
100
AcDbEntity
  8
cut
100
AcDbCircle
 10
55.07482190410008
 20
48.79999999889998
 30
0.0
 40
2.0
100
AcDbArc
 50
90.0
 51
118.494748856002
  0
ARC
  5
921B1
330
1F
100
AcDbEntity
  8
cut
100
AcDbCircle
 10
62.70000000000004
 20
49.99999999890002
 30
0.0
 40
0.8
100
AcDbArc
 50
0.0
 51
90.0
  0
DIMENSION
  5
921B2
330
1F
100
AcDbEntity
  8
2
100
AcDbDimension
  2
*D1310
 10
62.70000000000004
 20
49.99999999890002
 30
0.0
 11
78.34957646052703
 21
53.67925087045506
 31
0.0
 70
   164
 71
     5
 42
0.8
  3
コピー - ISO-25
100
AcDbRadialDimension
 15
63.47876703255632
 25
50.18308989213118
 35
0.0
 40
0.0
1001
ACAD
1000
DSTYLE
1002
{
1070
   170
1070
     1
1070
   171
1070
     3
1070
   143
1040
0.0393700787401575
1070
   285
1070
     4
1070
     4
1000
"
1070
   271
1070
     8
1070
    40
1040
1.0
1002
}
1001
ACAD_DSTYLE_DIMRADIAL_EXTENSION
1070
   387
1070
     1
1070
   388
1040
0.0
1070
   390
1040
1.570796326794896
1001
ACAD_DSTYLE_DIMINSPECT
1070
   396
1000

1070
   395
1000

1070
   394
1070
     1
1070
   393
1070
     0
1001
ZWMCAD_GENSTANDARDFRAME_13_
1070
   410
1000
GB
1070
   411
1000
ZwmFrameMain_
  0
VIEWPORT
  5
71
102
{ACAD_XDICTIONARY
360
87B09
102
}
330
55
100
AcDbEntity
 67
     1
  8
0
100
AcDbViewport
 10
150.1652135264906
 20
103.6581106594891
 30
0.0
 40
339.1973820494347
 41
168.6522697578383
 68
     1
 69
    -1
 12
150.1652135264906
 22
103.6581106594891
 13
0.0
 23
0.0
 14
10.0
 24
10.0
 15
10.0
 25
10.0
 16
0.0
 26
0.0
 36
1.0
 17
0.0
 27
0.0
 37
0.0
 42
50.0
 43
0.0
 44
0.0
 45
168.6522697578383
 50
0.0
 51
0.0
 72
  1000
 90
    32864
  1

281
     0
 71
     1
 74
     0
110
0.0
120
0.0
130
0.0
111
1.0
121
0.0
131
0.0
112
0.0
122
1.0
132
0.0
 79
     0
146
0.0
1001
ACAD
1000
MVIEW
1002
{
1070
    16
1010
0.0
1020
0.0
1030
0.0
1010
0.0
1020
0.0
1030
1.0
1040
0.0
1040
168.6522697578383
1040
150.1652135264906
1040
103.6581106594891
1040
50.0
1040
0.0
1040
0.0
1070
     0
1070
  1000
1070
     0
1070
     3
1070
     0
1070
     0
1070
     0
1070
     0
1040
0.0
1040
0.0
1040
0.0
1040
10.0
1040
10.0
1040
10.0
1040
10.0
1070
     0
1002
{
1002
}
1002
}
  0
VIEWPORT
  5
73
102
{ACAD_XDICTIONARY
360
87B0B
102
}
330
55
100
AcDbEntity
 67
     1
  8
0
100
AcDbViewport
 10
133.3499939441681
 20
101.5999939441681
 30
0.0
 40
213.3599903106689
 41
162.5599903106689
 68
     2
 69
    -1
 12
210.0
 22
148.5
 13
0.0
 23
0.0
 14
10.0
 24
10.0
 15
10.0
 25
10.0
 16
0.0
 26
0.0
 36
1.0
 17
0.0
 27
0.0
 37
0.0
 42
50.0
 43
0.0
 44
0.0
 45
324.0677920111345
 50
0.0
 51
0.0
 72
   100
 90
    32864
  1

281
     0
 71
     1
 74
     0
110
0.0
120
0.0
130
0.0
111
1.0
121
0.0
131
0.0
112
0.0
122
1.0
132
0.0
 79
     0
146
0.0
1001
ACAD
1000
MVIEW
1002
{
1070
    16
1010
0.0
1020
0.0
1030
0.0
1010
0.0
1020
0.0
1030
1.0
1040
0.0
1040
324.0677920111345
1040
210.0
1040
148.5
1040
50.0
1040
0.0
1040
0.0
1070
     0
1070
   100
1070
     0
1070
     3
1070
     0
1070
     0
1070
     0
1070
     0
1040
0.0
1040
0.0
1040
0.0
1040
10.0
1040
10.0
1040
10.0
1040
10.0
1070
     0
1002
{
1002
}
1002
}
  0
ENDSEC
  0
SECTION
  2
OBJECTS
  0
DICTIONARY
  5
C
330
0
100
AcDbDictionary
281
     1
  3
ACAD_2007HEADERVARS_RT
350
92215
  3
ACAD_CIP_PREVIOUS_PRODUCT_INFO
350
4A3C3
  3
ACAD_COLOR
350
85
  3
ACAD_DETAILVIEWSTYLE
350
4A3BB
  3
ACAD_GROUP
350
D
  3
ACAD_LAYOUT
350
1A
  3
ACAD_MATERIAL
350
84
  3
ACAD_MLEADERSTYLE
350
4A3B7
  3
ACAD_MLINESTYLE
350
17
  3
ACAD_PLOTSETTINGS
350
19
  3
ACAD_PLOTSTYLENAME
350
E
  3
ACAD_SCALELIST
350
4A3A5
  3
ACAD_SECTIONVIEWSTYLE
350
4A3B9
  3
ACAD_TABLESTYLE
350
A1
  3
ACAD_VISUALSTYLE
350
4A38C
  3
ACDB_RECOMPOSE_DATA
350
907A1
  3
ACDBHEADERROUNDTRIPXREC
350
92212
  3
AcDbVariableDictionary
350
5E
  3
ASE_INDEX_DICTIONARY
350
349E9
  3
DWGPROPS
350
92218
  0
DICTIONARY
  5
8C34E
330
8
100
AcDbDictionary
280
     1
281
     1
  3
ACAD_XREC_ROUNDTRIP
360
9221E
  0
DICTIONARY
  5
E2
330
2
100
AcDbDictionary
280
     1
281
     1
  3
ACAD_LAYERFILTERS
360
4A339
  3
ACAD_LAYERSTATES
360
3759A
  3
ACLYDICTIONARY
360
4A338
  0
DICTIONARY
  5
4A86C
330
10
100
AcDbDictionary
280
     1
281
     1
  3
ADSK_XREC_LAYER_RECONCILED
360
4A86D
  0
DICTIONARY
  5
4A773
330
4A772
100
AcDbDictionary
280
     1
281
     1
  3
ADSK_XREC_LAYER_RECONCILED
360
4A86E
  0
DICTIONARY
  5
4A775
330
4A774
100
AcDbDictionary
280
     1
281
     1
  3
ADSK_XREC_LAYER_RECONCILED
360
4A86F
  0
DICTIONARY
  5
4A777
330
4A776
100
AcDbDictionary
280
     1
281
     1
  3
ADSK_XREC_LAYER_RECONCILED
360
4A870
  0
DICTIONARY
  5
4A779
330
4A778
100
AcDbDictionary
280
     1
281
     1
  3
ADSK_XREC_LAYER_RECONCILED
360
4A871
  0
DICTIONARY
  5
4A77B
330
4A77A
100
AcDbDictionary
280
     1
281
     1
  3
ADSK_XREC_LAYER_RECONCILED
360
4A872
  0
DICTIONARY
  5
4A77F
330
4A77E
100
AcDbDictionary
280
     1
281
     1
  3
ADSK_XREC_LAYER_RECONCILED
360
4A874
  0
DICTIONARY
  5
4A783
330
4A782
100
AcDbDictionary
280
     1
281
     1
  3
ADSK_XREC_LAYER_RECONCILED
360
4A876
  0
DICTIONARY
  5
8C34C
330
87B52
100
AcDbDictionary
280
     1
281
     1
  3
ACAD_XREC_ROUNDTRIP
360
9221D
  0
DICTIONARY
  5
31EE
330
1F
100
AcDbDictionary
280
     1
281
     1
  3
ACAD_SORTENTS
360
31EF
  0
DICTIONARY
  5
4A6D7
330
4A6D6
100
AcDbDictionary
280
     1
281
     1
  3
ACAD_SORTENTS
360
4A6D8
  0
DICTIONARY
  5
87B05
330
6B
100
AcDbDictionary
280
     1
281
     1
  3
ACAD_XREC_ROUNDTRIP
360
9221B
  0
DICTIONARY
  5
87B07
330
6D
100
AcDbDictionary
280
     1
281
     1
  3
ACAD_XREC_ROUNDTRIP
360
9221C
  0
DICTIONARY
  5
91E18
330
91E17
100
AcDbDictionary
280
     1
281
     1
  3
ACAD_DIMASSOC
360
91E19
  0
DICTIONARY
  5
91EBC
330
91EBB
100
AcDbDictionary
280
     1
281
     1
  3
ACAD_DIMASSOC
360
91EBD
  0
DICTIONARY
  5
91EBF
330
91EBE
100
AcDbDictionary
280
     1
281
     1
  3
ACAD_DIMASSOC
360
91EC0
  0
DICTIONARY
  5
87B09
330
71
100
AcDbDictionary
280
     1
281
     1
  3
ACAD_XREC_ROUNDTRIP
360
92219
  0
DICTIONARY
  5
87B0B
330
73
100
AcDbDictionary
280
     1
281
     1
  3
ACAD_XREC_ROUNDTRIP
360
9221A
  0
DICTIONARY
  5
92215
102
{ACAD_REACTORS
330
C
102
}
330
C
100
AcDbDictionary
281
     1
  3
DIMTFILL
350
92216
  3
DIMTFILLCLR
350
92217
  0
XRECORD
  5
4A3C3
102
{ACAD_REACTORS
330
C
102
}
330
C
100
AcDbXrecord
280
     1
300
ACDLT
300
2020
300

  0
DICTIONARY
  5
85
102
{ACAD_REACTORS
330
C
102
}
330
C
100
AcDbDictionary
281
     1
  0
DICTIONARY
  5
4A3BB
102
{ACAD_REACTORS
330
C
102
}
330
C
100
AcDbDictionary
281
     1
  3
Metric50
350
4A3BC
  0
DICTIONARY
  5
D
102
{ACAD_REACTORS
330
C
102
}
330
C
100
AcDbDictionary
281
     1
  0
DICTIONARY
  5
1A
102
{ACAD_REACTORS
330
C
102
}
330
C
100
AcDbDictionary
281
     1
  3
Model
350
22
  3
レイアウト1
350
51
  3
レイアウト2
350
56
  0
DICTIONARY
  5
84
102
{ACAD_REACTORS
330
C
102
}
330
C
100
AcDbDictionary
281
     1
  3
ByBlock
350
4A37C
  3
ByLayer
350
4A374
  3
Global
350
4A384
  0
DICTIONARY
  5
4A3B7
102
{ACAD_REACTORS
330
C
102
}
330
C
100
AcDbDictionary
281
     1
  3
Standard
350
4A3B8
  0
DICTIONARY
  5
17
102
{ACAD_REACTORS
330
C
102
}
330
C
100
AcDbDictionary
281
     1
  3
Standard
350
18
  0
DICTIONARY
  5
19
102
{ACAD_REACTORS
330
C
102
}
330
C
100
AcDbDictionary
281
     1
  0
ACDBDICTIONARYWDFLT
  5
E
102
{ACAD_REACTORS
330
C
102
}
330
C
100
AcDbDictionary
281
     1
  3
Normal
350
F
100
AcDbDictionaryWithDefault
340
F
  0
DICTIONARY
  5
4A3A5
102
{ACAD_REACTORS
330
C
102
}
330
C
100
AcDbDictionary
281
     1
  3
A0
350
4A3A6
  3
A1
350
4A3A7
  3
A2
350
4A3A8
  3
A3
350
4A3A9
  3
A4
350
4A3AA
  3
A5
350
4A3AB
  3
A6
350
4A3AC
  3
A7
350
4A3AD
  3
A8
350
4A3AE
  3
A9
350
4A3AF
  3
B0
350
4A3B0
  3
B1
350
4A3B1
  3
B2
350
4A3B2
  3
B3
350
4A3B3
  3
B4
350
4A3B4
  3
B5
350
4A3B5
  3
B6
350
4A3B6
  0
DICTIONARY
  5
4A3B9
102
{ACAD_REACTORS
330
C
102
}
330
C
100
AcDbDictionary
281
     1
  3
Metric50
350
4A3BA
  0
DICTIONARY
  5
A1
102
{ACAD_REACTORS
330
C
102
}
330
C
100
AcDbDictionary
281
     1
  3
Standard
350
A2
  0
DICTIONARY
  5
4A38C
102
{ACAD_REACTORS
330
C
102
}
330
C
100
AcDbDictionary
281
     1
  3
2dWireframe
350
4A392
  3
Basic
350
4A391
  3
Brighten
350
4A398
  3
ColorChange
350
4A39C
  3
Conceptual
350
4A395
  3
Dim
350
4A397
  3
EdgeColorOff
350
4A3A4
  3
Facepattern
350
4A39B
  3
Flat
350
4A38D
  3
FlatWithEdges
350
4A38E
  3
Gouraud
350
4A38F
  3
GouraudWithEdges
350
4A390
  3
Hidden
350
4A394
  3
JitterOff
350
4A3A2
  3
Linepattern
350
4A39A
  3
OverhangOff
350
4A3A3
  3
Realistic
350
4A396
  3
Shaded
350
4A3A1
  3
Shaded with edges
350
4A3A0
  3
Shades of Gray
350
4A39D
  3
Sketchy
350
4A39E
  3
Thicken
350
4A399
  3
Wireframe
350
4A393
  3
X-Ray
350
4A39F
  0
XRECORD
  5
907A1
102
{ACAD_REACTORS
330
C
102
}
330
C
100
AcDbXrecord
280
     1
 90
        1
330
A2
  0
DICTIONARY
  5
92212
102
{ACAD_REACTORS
330
C
102
}
330
C
100
AcDbDictionary
281
     1
  3
COLORDICT
350
92213
  3
MATERIALDICT
350
92214
  0
DICTIONARY
  5
5E
102
{ACAD_REACTORS
330
C
102
}
330
C
100
AcDbDictionary
281
     1
  3
CANNOSCALE
350
92211
  3
CMLEADERSTYLE
350
4A6CE
  3
CTABLESTYLE
350
B8
  3
CVIEWDETAILSTYLE
350
4A6CF
  3
CVIEWSECTIONSTYLE
350
4A6D0
  3
DIMASSOC
350
5F
  3
HIDETEXT
350
63
  3
INDEXCTL
350
4A879
  3
LAYEREVAL
350
4A6D4
  3
LAYERNOTIFY
350
4A6D5
  3
LIGHTINGUNITS
350
4A6D3
  3
MSLTSCALE
350
4A6D1
  3
PROJECTNAME
350
31CE
  3
SORTENTS
350
4A878
  3
XCLIPFRAME
350
87AF9
  0
DICTIONARY
  5
349E9
102
{ACAD_REACTORS
330
C
102
}
330
C
100
AcDbDictionary
281
     1
  3
ASEBlockHierarchyIndexRecord
350
349EA
1001
DCO15
1040
1842496176.844
  0
XRECORD
  5
92218
102
{ACAD_REACTORS
330
C
102
}
330
C
100
AcDbXrecord
280
     1
  1
DWGPROPS COOKIE
  2

  3

  4

  6

  7

  8
zhangnw
  9

300
=
301
=
302
=
303
=
304
=
305
=
306
=
307
=
308
=
309
=
 40
0.0
 41
2455489.391063368
 42
2458948.456353056
  1

 90
        0
  0
XRECORD
  5
9221E
102
{ACAD_REACTORS
330
8C34E
102
}
330
8C34E
100
AcDbXrecord
280
     1
102
VTR_0.000_0.000_1.000_1.000_VISUALSTYLE
340
4A392
102
VTR_0.000_0.000_1.000_1.000_GRIDDISPLAY
 70
     3
102
VTR_0.000_0.000_1.000_1.000_GRIDMAJOR
 70
     5
102
VTR_0.000_0.000_1.000_1.000_DEFAULTLIGHTING
280
     1
102
VTR_0.000_0.000_1.000_1.000_DEFAULTLIGHTINGTYPE
 70
     1
102
VTR_0.000_0.000_1.000_1.000_BRIGHTNESS
141
0.0
102
VTR_0.000_0.000_1.000_1.000_CONTRAST
142
0.0
  0
DICTIONARY
  5
4A339
102
{ACAD_REACTORS
330
E2
102
}
330
E2
100
AcDbDictionary
281
     1
  0
DICTIONARY
  5
3759A
102
{ACAD_REACTORS
330
E2
102
}
330
E2
100
AcDbDictionary
281
     1
  0
DICTIONARY
  5
4A338
102
{ACAD_REACTORS
330
E2
102
}
330
E2
100
AcDbDictionary
281
     1
1001
ACAD
1000
<All
  0
XRECORD
  5
4A86D
102
{ACAD_REACTORS
330
4A86C
102
}
330
4A86C
100
AcDbXrecord
280
     1
290
     1
  0
XRECORD
  5
4A86E
102
{ACAD_REACTORS
330
4A773
102
}
330
4A773
100
AcDbXrecord
280
     1
290
     1
  0
XRECORD
  5
4A86F
102
{ACAD_REACTORS
330
4A775
102
}
330
4A775
100
AcDbXrecord
280
     1
290
     1
  0
XRECORD
  5
4A870
102
{ACAD_REACTORS
330
4A777
102
}
330
4A777
100
AcDbXrecord
280
     1
290
     1
  0
XRECORD
  5
4A871
102
{ACAD_REACTORS
330
4A779
102
}
330
4A779
100
AcDbXrecord
280
     1
290
     1
  0
XRECORD
  5
4A872
102
{ACAD_REACTORS
330
4A77B
102
}
330
4A77B
100
AcDbXrecord
280
     1
290
     1
  0
XRECORD
  5
4A874
102
{ACAD_REACTORS
330
4A77F
102
}
330
4A77F
100
AcDbXrecord
280
     1
290
     1
  0
XRECORD
  5
4A876
102
{ACAD_REACTORS
330
4A783
102
}
330
4A783
100
AcDbXrecord
280
     1
290
     1
  0
XRECORD
  5
9221D
102
{ACAD_REACTORS
330
8C34C
102
}
330
8C34C
100
AcDbXrecord
280
     1
102
MATERIAL
340
4A384
  0
SORTENTSTABLE
  5
31EF
102
{ACAD_REACTORS
330
31EE
102
}
330
31EE
100
AcDbSortentsTable
330
1F
  0
SORTENTSTABLE
  5
4A6D8
102
{ACAD_REACTORS
330
4A6D7
102
}
330
4A6D7
100
AcDbSortentsTable
330
4A6D6
  0
XRECORD
  5
9221B
102
{ACAD_REACTORS
330
87B05
102
}
330
87B05
100
AcDbXrecord
280
     1
102
GRIDDISPLAY
 70
     0
102
GRIDMAJOR
 70
     5
102
DEFAULTLIGHTING
280
     1
102
DEFAULTLIGHTINGTYPE
 70
     1
102
BRIGHTNESS
141
0.0
102
CONTRAST
142
0.0
  0
XRECORD
  5
9221C
102
{ACAD_REACTORS
330
87B07
102
}
330
87B07
100
AcDbXrecord
280
     1
102
GRIDDISPLAY
 70
     0
102
GRIDMAJOR
 70
     5
102
DEFAULTLIGHTING
280
     1
102
DEFAULTLIGHTINGTYPE
 70
     1
102
BRIGHTNESS
141
0.0
102
CONTRAST
142
0.0
  0
DIMASSOC
  5
91E19
102
{ACAD_REACTORS
330
91E18
102
}
330
91E18
100
AcDbDimAssoc
330
91E17
 90
        3
 70
     0
 71
     0
  1
AcDbOsnapPointRef
 72
    13
331
91D16
 73
     2
 91
        0
 40
0.0
 10
0.0
 20
0.0
 30
1.999999999999998E+50
 75
     0
  1
AcDbOsnapPointRef
 72
    13
331
91E00
 73
     2
 91
        0
 40
0.0
 10
0.0
 20
0.0
 30
1.999999999999998E+50
 75
     0
  0
DIMASSOC
  5
91EBD
102
{ACAD_REACTORS
330
91EBC
102
}
330
91EBC
100
AcDbDimAssoc
330
91EBB
 90
        1
 70
     0
 71
     0
  1
AcDbOsnapPointRef
 72
    13
331
91E20
 73
     2
 91
        0
 40
0.0
 10
0.0
 20
0.0
 30
1.999999999999998E+50
 75
     0
  0
DIMASSOC
  5
91EC0
102
{ACAD_REACTORS
330
91EBF
102
}
330
91EBF
100
AcDbDimAssoc
330
91EBE
 90
        3
 70
     0
 71
     0
  1
AcDbOsnapPointRef
 72
    13
331
91E21
 73
     2
 91
        0
 40
0.0
 10
0.0
 20
0.0
 30
1.999999999999998E+50
 75
     0
  1
AcDbOsnapPointRef
 72
    13
331
91E10
 73
     2
 91
        0
 40
3.141592653589792
 10
0.0
 20
0.0
 30
1.999999999999998E+50
 75
     0
  0
XRECORD
  5
92219
102
{ACAD_REACTORS
330
87B09
102
}
330
87B09
100
AcDbXrecord
280
     1
102
GRIDDISPLAY
 70
     0
102
GRIDMAJOR
 70
     5
102
DEFAULTLIGHTING
280
     1
102
DEFAULTLIGHTINGTYPE
 70
     1
102
BRIGHTNESS
141
0.0
102
CONTRAST
142
0.0
  0
XRECORD
  5
9221A
102
{ACAD_REACTORS
330
87B0B
102
}
330
87B0B
100
AcDbXrecord
280
     1
102
GRIDDISPLAY
 70
     0
102
GRIDMAJOR
 70
     5
102
DEFAULTLIGHTING
280
     1
102
DEFAULTLIGHTINGTYPE
 70
     1
102
BRIGHTNESS
141
0.0
102
CONTRAST
142
0.0
  0
XRECORD
  5
92216
102
{ACAD_REACTORS
330
92215
102
}
330
92215
100
AcDbXrecord
280
     1
 70
     1
  0
XRECORD
  5
92217
102
{ACAD_REACTORS
330
92215
102
}
330
92215
100
AcDbXrecord
280
     1
1004
1800000001000000000000C1000000000000000000000000
  0
ACDBDETAILVIEWSTYLE
  5
4A3BC
102
{ACAD_XDICTIONARY
360
87B40
102
}
102
{ACAD_REACTORS
330
4A3BB
102
}
330
4A3BB
100
AcDbModelDocViewStyle
 70
     0
  3
Metric50
290
     0
100
AcDbDetailViewStyle
 70
     0
 71
     0
 90
        3
 71
     1
340
11
 40
5.0
340
0
 40
5.0
300

 40
0.0
280
     1
 71
     2
340
16
 90
       25
 71
     3
340
11
 40
5.0
 90
        0
 40
15.0
 90
        1
300
%<\AcVar ViewDetailId>% (%<\AcVar ViewScale \f "%sn">%)
 71
     4
340
16
 90
       25
340
16
 90
       25
280
     0
  0
LAYOUT
  5
22
102
{ACAD_REACTORS
330
1A
102
}
330
1A
100
AcDbPlotSettings
  1

  2
none_device
  4
ANSI_A_(8.50_x_11.00_Inches)
  6

 40
6.349999904632567
 41
19.04999923706055
 42
6.350006103515625
 43
19.04998779296875
 44
215.8999938964844
 45
279.3999938964844
 46
0.0
 47
0.0
 48
0.0
 49
0.0
140
0.0
141
0.0
142
1.0
143
78.436453180766
 70
 11952
 72
     0
 73
     1
 74
     0
  7

 75
     0
147
0.0127491741332998
148
0.0
149
0.0
100
AcDbLayout
  1
Model
 70
     1
 71
     0
 10
0.0
 20
0.0
 11
12.0
 21
9.0
 12
0.0
 22
0.0
 32
0.0
 14
0.0
 24
0.0
 34
0.0
 15
0.0
 25
0.0
 35
0.0
146
0.0
 13
0.0
 23
0.0
 33
0.0
 16
1.0
 26
0.0
 36
0.0
 17
0.0
 27
1.0
 37
0.0
 76
     0
330
1F
331
4A360
  0
LAYOUT
  5
51
102
{ACAD_REACTORS
330
1A
102
}
330
1A
100
AcDbPlotSettings
  1

  2
none_device
  4
Letter_(8.50_x_11.00_Inches)
  6

 40
6.349999904632567
 41
6.349999904632567
 42
6.350006103515625
 43
6.350006103515625
 44
215.8999938964844
 45
279.3999938964844
 46
0.0
 47
0.0
 48
0.0
 49
0.0
140
0.0
141
0.0
142
1.0
143
1.0
 70
   688
 72
     1
 73
     1
 74
     5
  7

 75
    16
147
1.0
148
0.0
149
0.0
100
AcDbLayout
  1
レイアウト1
 70
     1
 71
     1
 10
-6.350006103515625
 20
-6.349999904632567
 11
273.0499877929688
 21
209.5499939918518
 12
0.0
 22
0.0
 32
0.0
 14
26.66999878883364
 24
20.31999878883365
 34
0.0
 15
240.0299890995025
 25
182.8799890995025
 35
0.0
146
0.0
 13
0.0
 23
0.0
 33
0.0
 16
1.0
 26
0.0
 36
0.0
 17
0.0
 27
1.0
 37
0.0
 76
     0
330
50
331
6B
  0
LAYOUT
  5
56
102
{ACAD_REACTORS
330
1A
102
}
330
1A
100
AcDbPlotSettings
  1

  2
none_device
  4
Letter_(8.50_x_11.00_Inches)
  6

 40
6.349999904632567
 41
6.349999904632567
 42
6.350006103515625
 43
6.350006103515625
 44
215.8999938964844
 45
279.3999938964844
 46
0.0
 47
0.0
 48
0.0
 49
0.0
140
0.0
141
0.0
142
1.0
143
1.0
 70
   688
 72
     1
 73
     1
 74
     5
  7

 75
    16
147
1.0
148
0.0
149
0.0
100
AcDbLayout
  1
レイアウト2
 70
     1
 71
     2
 10
-6.350006103515625
 20
-6.349999904632567
 11
273.0499877929688
 21
209.5499939918518
 12
0.0
 22
0.0
 32
0.0
 14
26.66999878883364
 24
20.31999878883365
 34
0.0
 15
240.0299890995025
 25
182.8799890995025
 35
0.0
146
0.0
 13
0.0
 23
0.0
 33
0.0
 16
1.0
 26
0.0
 36
0.0
 17
0.0
 27
1.0
 37
0.0
 76
     0
330
55
331
71
  0
MATERIAL
  5
4A37C
102
{ACAD_XDICTIONARY
360
4A37D
102
}
102
{ACAD_REACTORS
330
84
102
}
330
84
100
AcDbMaterial
  1
ByBlock
 72
     0
 73
     2
 43
0.0008202099737533
 43
0.0
 43
0.0
 43
0.0
 43
0.0
 43
0.0008202099737533
 43
0.0
 43
0.0
 43
0.0
 43
0.0
 43
1.0
 43
0.0
 43
0.0
 43
0.0
 43
0.0
 43
1.0
 77
     0
 78
     2
 47
0.0008202099737533
 47
0.0
 47
0.0
 47
0.0
 47
0.0
 47
0.0008202099737533
 47
0.0
 47
0.0
 47
0.0
 47
0.0
 47
1.0
 47
0.0
 47
0.0
 47
0.0
 47
0.0
 47
1.0
171
     0
172
     2
 49
0.0008202099737533
 49
0.0
 49
0.0
 49
0.0
 49
0.0
 49
0.0008202099737533
 49
0.0
 49
0.0
 49
0.0
 49
0.0
 49
1.0
 49
0.0
 49
0.0
 49
0.0
 49
0.0
 49
1.0
175
     0
176
     2
142
0.0008202099737533
142
0.0
142
0.0
142
0.0
142
0.0
142
0.0008202099737533
142
0.0
142
0.0
142
0.0
142
0.0
142
1.0
142
0.0
142
0.0
142
0.0
142
0.0
142
1.0
179
     0
270
     2
144
0.0008202099737533
144
0.0
144
0.0
144
0.0
144
0.0
144
0.0008202099737533
144
0.0
144
0.0
144
0.0
144
0.0
144
1.0
144
0.0
144
0.0
144
0.0
144
0.0
144
1.0
274
     2
147
0.0008202099737533
147
0.0
147
0.0
147
0.0
147
0.0
147
0.0008202099737533
147
0.0
147
0.0
147
0.0
147
0.0
147
1.0
147
0.0
147
0.0
147
0.0
147
0.0
147
1.0
  0
MATERIAL
  5
4A374
102
{ACAD_XDICTIONARY
360
4A375
102
}
102
{ACAD_REACTORS
330
84
102
}
330
84
100
AcDbMaterial
  1
ByLayer
 72
     0
 73
     2
 43
0.0008202099737533
 43
0.0
 43
0.0
 43
0.0
 43
0.0
 43
0.0008202099737533
 43
0.0
 43
0.0
 43
0.0
 43
0.0
 43
1.0
 43
0.0
 43
0.0
 43
0.0
 43
0.0
 43
1.0
 77
     0
 78
     2
 47
0.0008202099737533
 47
0.0
 47
0.0
 47
0.0
 47
0.0
 47
0.0008202099737533
 47
0.0
 47
0.0
 47
0.0
 47
0.0
 47
1.0
 47
0.0
 47
0.0
 47
0.0
 47
0.0
 47
1.0
171
     0
172
     2
 49
0.0008202099737533
 49
0.0
 49
0.0
 49
0.0
 49
0.0
 49
0.0008202099737533
 49
0.0
 49
0.0
 49
0.0
 49
0.0
 49
1.0
 49
0.0
 49
0.0
 49
0.0
 49
0.0
 49
1.0
175
     0
176
     2
142
0.0008202099737533
142
0.0
142
0.0
142
0.0
142
0.0
142
0.0008202099737533
142
0.0
142
0.0
142
0.0
142
0.0
142
1.0
142
0.0
142
0.0
142
0.0
142
0.0
142
1.0
179
     0
270
     2
144
0.0008202099737533
144
0.0
144
0.0
144
0.0
144
0.0
144
0.0008202099737533
144
0.0
144
0.0
144
0.0
144
0.0
144
1.0
144
0.0
144
0.0
144
0.0
144
0.0
144
1.0
274
     2
147
0.0008202099737533
147
0.0
147
0.0
147
0.0
147
0.0
147
0.0008202099737533
147
0.0
147
0.0
147
0.0
147
0.0
147
1.0
147
0.0
147
0.0
147
0.0
147
0.0
147
1.0
  0
MATERIAL
  5
4A384
102
{ACAD_XDICTIONARY
360
4A385
102
}
102
{ACAD_REACTORS
330
84
102
}
330
84
100
AcDbMaterial
  1
Global
 72
     0
 73
     2
 43
0.0008202099737533
 43
0.0
 43
0.0
 43
0.0
 43
0.0
 43
0.0008202099737533
 43
0.0
 43
0.0
 43
0.0
 43
0.0
 43
1.0
 43
0.0
 43
0.0
 43
0.0
 43
0.0
 43
1.0
 77
     0
 78
     2
 47
0.0008202099737533
 47
0.0
 47
0.0
 47
0.0
 47
0.0
 47
0.0008202099737533
 47
0.0
 47
0.0
 47
0.0
 47
0.0
 47
1.0
 47
0.0
 47
0.0
 47
0.0
 47
0.0
 47
1.0
171
     0
172
     2
 49
0.0008202099737533
 49
0.0
 49
0.0
 49
0.0
 49
0.0
 49
0.0008202099737533
 49
0.0
 49
0.0
 49
0.0
 49
0.0
 49
1.0
 49
0.0
 49
0.0
 49
0.0
 49
0.0
 49
1.0
175
     0
176
     2
142
0.0008202099737533
142
0.0
142
0.0
142
0.0
142
0.0
142
0.0008202099737533
142
0.0
142
0.0
142
0.0
142
0.0
142
1.0
142
0.0
142
0.0
142
0.0
142
0.0
142
1.0
179
     0
270
     2
144
0.0008202099737533
144
0.0
144
0.0
144
0.0
144
0.0
144
0.0008202099737533
144
0.0
144
0.0
144
0.0
144
0.0
144
1.0
144
0.0
144
0.0
144
0.0
144
0.0
144
1.0
274
     2
147
0.0008202099737533
147
0.0
147
0.0
147
0.0
147
0.0
147
0.0008202099737533
147
0.0
147
0.0
147
0.0
147
0.0
147
1.0
147
0.0
147
0.0
147
0.0
147
0.0
147
1.0
  0
MLEADERSTYLE
  5
4A3B8
102
{ACAD_XDICTIONARY
360
8C353
102
}
102
{ACAD_REACTORS
330
4A3B7
102
}
330
4A3B7
100
AcDbMLeaderStyle
170
     2
171
     1
172
     0
 90
        2
 40
0.0
 41
0.0
173
     1
 91
-1056964608
340
14
 92
       -2
290
     1
 42
2.0
291
     1
 43
0.36
  3
Standard
 44
4.0
300

342
11
174
     1
178
     6
175
     1
176
     0
 93
-1056964608
 45
4.0
292
     0
297
     0
 46
4.0
 94
-1056964608
 47
1.0
 49
1.0
140
1.0
293
     1
141
0.0
294
     1
177
     0
142
1.0
295
     0
296
     0
143
0.125
1001
ACAD_MLEADERVER
1070
     2
  0
MLINESTYLE
  5
18
102
{ACAD_REACTORS
330
17
102
}
330
17
100
AcDbMlineStyle
  2
STANDARD
 70
     0
  3

 62
   256
 51
90.0
 52
90.0
 71
     2
 49
0.5
 62
   256
  6
BYLAYER
 49
-0.5
 62
   256
  6
BYLAYER
  0
ACDBPLACEHOLDER
  5
F
102
{ACAD_REACTORS
330
E
102
}
330
E
  0
SCALE
  5
4A3A6
102
{ACAD_REACTORS
330
4A3A5
102
}
330
4A3A5
100
AcDbScale
 70
     0
300
1:1
140
1.0
141
1.0
290
     1
  0
SCALE
  5
4A3A7
102
{ACAD_REACTORS
330
4A3A5
102
}
330
4A3A5
100
AcDbScale
 70
     0
300
1:2
140
1.0
141
2.0
290
     0
  0
SCALE
  5
4A3A8
102
{ACAD_REACTORS
330
4A3A5
102
}
330
4A3A5
100
AcDbScale
 70
     0
300
1:4
140
1.0
141
4.0
290
     0
  0
SCALE
  5
4A3A9
102
{ACAD_REACTORS
330
4A3A5
102
}
330
4A3A5
100
AcDbScale
 70
     0
300
1:5
140
1.0
141
5.0
290
     0
  0
SCALE
  5
4A3AA
102
{ACAD_REACTORS
330
4A3A5
102
}
330
4A3A5
100
AcDbScale
 70
     0
300
1:8
140
1.0
141
8.0
290
     0
  0
SCALE
  5
4A3AB
102
{ACAD_REACTORS
330
4A3A5
102
}
330
4A3A5
100
AcDbScale
 70
     0
300
1:10
140
1.0
141
10.0
290
     0
  0
SCALE
  5
4A3AC
102
{ACAD_REACTORS
330
4A3A5
102
}
330
4A3A5
100
AcDbScale
 70
     0
300
1:16
140
1.0
141
16.0
290
     0
  0
SCALE
  5
4A3AD
102
{ACAD_REACTORS
330
4A3A5
102
}
330
4A3A5
100
AcDbScale
 70
     0
300
1:20
140
1.0
141
20.0
290
     0
  0
SCALE
  5
4A3AE
102
{ACAD_REACTORS
330
4A3A5
102
}
330
4A3A5
100
AcDbScale
 70
     0
300
1:30
140
1.0
141
30.0
290
     0
  0
SCALE
  5
4A3AF
102
{ACAD_REACTORS
330
4A3A5
102
}
330
4A3A5
100
AcDbScale
 70
     0
300
1:40
140
1.0
141
40.0
290
     0
  0
SCALE
  5
4A3B0
102
{ACAD_REACTORS
330
4A3A5
102
}
330
4A3A5
100
AcDbScale
 70
     0
300
1:50
140
1.0
141
50.0
290
     0
  0
SCALE
  5
4A3B1
102
{ACAD_REACTORS
330
4A3A5
102
}
330
4A3A5
100
AcDbScale
 70
     0
300
1:100
140
1.0
141
100.0
290
     0
  0
SCALE
  5
4A3B2
102
{ACAD_REACTORS
330
4A3A5
102
}
330
4A3A5
100
AcDbScale
 70
     0
300
2:1
140
2.0
141
1.0
290
     0
  0
SCALE
  5
4A3B3
102
{ACAD_REACTORS
330
4A3A5
102
}
330
4A3A5
100
AcDbScale
 70
     0
300
4:1
140
4.0
141
1.0
290
     0
  0
SCALE
  5
4A3B4
102
{ACAD_REACTORS
330
4A3A5
102
}
330
4A3A5
100
AcDbScale
 70
     0
300
8:1
140
8.0
141
1.0
290
     0
  0
SCALE
  5
4A3B5
102
{ACAD_REACTORS
330
4A3A5
102
}
330
4A3A5
100
AcDbScale
 70
     0
300
10:1
140
10.0
141
1.0
290
     0
  0
SCALE
  5
4A3B6
102
{ACAD_REACTORS
330
4A3A5
102
}
330
4A3A5
100
AcDbScale
 70
     0
300
100:1
140
100.0
141
1.0
290
     0
  0
ACDBSECTIONVIEWSTYLE
  5
4A3BA
102
{ACAD_XDICTIONARY
360
87B3E
102
}
102
{ACAD_REACTORS
330
4A3B9
102
}
330
4A3B9
100
AcDbModelDocViewStyle
 70
     0
  3
Metric50
290
     0
100
AcDbSectionViewStyle
 70
     0
 71
     0
 90
      102
 71
     1
340
11
 40
5.0
340
0
340
0
 40
5.0
300
I, O, Q, S, X, Z
 40
10.0
 90
        0
 40
2.5
 90
        0
 71
     2
340
16
 90
       25
340
16
 90
       50
 40
5.0
 40
2.5
 40
5.0
 71
     3
340
11
 40
5.0
 90
        0
 40
15.0
 90
        1
300
%<\AcVar ViewSectionStartId>%-%<\AcVar ViewSectionEndId>% (%<\AcVar ViewScale \f "%sn">%)
 71
     4
300
ANSI31
 40
1.0
 90
        0
290
     0
290
     0
 90
        6
 40
0.0
 40
1.570796326794896
 40
0.2617993877991494
 40
1.308996938995747
 40
-0.2617993877991494
 40
1.832595714594044
  0
TABLESTYLE
  5
A2
102
{ACAD_XDICTIONARY
360
4CD9A
102
}
102
{ACAD_REACTORS
330
A1
102
}
330
A1
100
AcDbTableStyle
  3
Standard
 70
     0
 71
     0
 40
1.5
 41
1.5
280
     0
281
     0
  7
Standard
140
4.5
170
     2
 62
     0
 63
   257
283
     0
274
    -2
284
     1
 64
     0
275
    -2
285
     1
 65
     0
276
    -2
286
     1
 66
     0
277
    -2
287
     1
 67
     0
278
    -2
288
     1
 68
     0
279
    -2
289
     1
 69
     0
  7
Standard
140
6.0
170
     5
 62
     0
 63
   257
283
     0
274
    -2
284
     1
 64
     0
275
    -2
285
     1
 65
     0
276
    -2
286
     1
 66
     0
277
    -2
287
     1
 67
     0
278
    -2
288
     1
 68
     0
279
    -2
289
     1
 69
     0
  7
Standard
140
4.5
170
     5
 62
     0
 63
   257
283
     0
274
    -2
284
     1
 64
     0
275
    -2
285
     1
 65
     0
276
    -2
286
     1
 66
     0
277
    -2
287
     1
 67
     0
278
    -2
288
     1
 68
     0
279
    -2
289
     1
 69
     0
  0
VISUALSTYLE
  5
4A392
102
{ACAD_XDICTIONARY
360
87B18
102
}
102
{ACAD_REACTORS
330
4A38C
102
}
330
4A38C
100
AcDbVisualStyle
  2

 70
     4
 71
     0
 72
     2
 73
     0
 90
        0
 40
-0.6
 41
-30.0
 62
     5
 63
     7
 74
     1
 91
        4
 64
     7
 65
   257
 75
     1
175
     1
 42
1.0
 92
        0
 66
   257
 43
1.0
 76
     1
 77
     6
 78
     2
 67
     7
 79
     5
170
     0
171
     0
290
     0
174
     0
 93
        1
 44
0.0
173
     0
291
     0
 45
0.0
1001
ACAD
1000
AcDbSavedByObjectVersion
1070
     0
  0
VISUALSTYLE
  5
4A391
102
{ACAD_XDICTIONARY
360
87B16
102
}
102
{ACAD_REACTORS
330
4A38C
102
}
330
4A38C
100
AcDbVisualStyle
  2

 70
     7
 71
     1
 72
     0
 73
     1
 90
        0
 40
-0.6
 41
-30.0
 62
     5
 63
     7
 74
     0
 91
        4
 64
     7
 65
   257
 75
     1
175
     1
 42
1.0
 92
        8
 66
     7
 43
1.0
 76
     1
 77
     6
 78
     2
 67
     7
 79
     5
170
     0
171
     0
290
     0
174
     0
 93
        1
 44
0.0
173
     0
291
     1
 45
0.0
1001
ACAD
1000
AcDbSavedByObjectVersion
1070
     0
  0
VISUALSTYLE
  5
4A398
102
{ACAD_XDICTIONARY
360
87B24
102
}
102
{ACAD_REACTORS
330
4A38C
102
}
330
4A38C
100
AcDbVisualStyle
  2

 70
    12
 71
     2
 72
     2
 73
     0
 90
        0
 40
-0.6
 41
-30.0
 62
     5
 63
     7
 74
     1
 91
        4
 64
     7
 65
   257
 75
     1
175
     1
 42
1.0
 92
        8
 66
     7
 43
1.0
 76
     1
 77
     6
 78
     2
 67
     7
 79
     5
170
     0
171
     0
290
     0
174
     0
 93
        1
 44
50.0
173
     0
291
     1
 45
0.0
1001
ACAD
1000
AcDbSavedByObjectVersion
1070
     0
  0
VISUALSTYLE
  5
4A39C
102
{ACAD_XDICTIONARY
360
87B2C
102
}
102
{ACAD_REACTORS
330
4A38C
102
}
330
4A38C
100
AcDbVisualStyle
  2

 70
    16
 71
     2
 72
     2
 73
     3
 90
        0
 40
-0.6
 41
-30.0
 62
     5
 63
     8
 74
     1
 91
        4
 64
     7
 65
   257
 75
     1
175
     1
 42
1.0
 92
        8
 66
     8
 43
1.0
 76
     1
 77
     6
 78
     2
 67
     7
 79
     5
170
     0
171
     0
290
     0
174
     0
 93
        1
 44
0.0
173
     0
291
     1
 45
0.0
1001
ACAD
1000
AcDbSavedByObjectVersion
1070
     0
  0
VISUALSTYLE
  5
4A395
102
{ACAD_XDICTIONARY
360
87B1E
102
}
102
{ACAD_REACTORS
330
4A38C
102
}
330
4A38C
100
AcDbVisualStyle
  2

 70
     9
 71
     3
 72
     2
 73
     0
 90
        0
 40
-0.6
 41
-30.0
 62
     5
 63
     7
 74
     2
 91
        2
 64
     7
 65
   257
 75
     1
175
     1
 42
179.0
 92
        8
 66
     7
 43
1.0
 76
     1
 77
     6
 78
     2
 67
     7
 79
     3
170
     0
171
     0
290
     0
174
     0
 93
        1
 44
0.0
173
     0
291
     0
 45
0.0
1001
ACAD
1000
AcDbSavedByObjectVersion
1070
     0
  0
VISUALSTYLE
  5
4A397
102
{ACAD_XDICTIONARY
360
87B22
102
}
102
{ACAD_REACTORS
330
4A38C
102
}
330
4A38C
100
AcDbVisualStyle
  2

 70
    11
 71
     2
 72
     2
 73
     0
 90
        0
 40
-0.6
 41
-30.0
 62
     5
 63
     7
 74
     1
 91
        4
 64
     7
 65
   257
 75
     1
175
     1
 42
1.0
 92
        8
 66
     7
 43
1.0
 76
     1
 77
     6
 78
     2
 67
     7
 79
     5
170
     0
171
     0
290
     0
174
     0
 93
        1
 44
-50.0
173
     0
291
     1
 45
0.0
1001
ACAD
1000
AcDbSavedByObjectVersion
1070
     0
  0
VISUALSTYLE
  5
4A3A4
102
{ACAD_XDICTIONARY
360
87B3C
102
}
102
{ACAD_REACTORS
330
4A38C
102
}
330
4A38C
100
AcDbVisualStyle
  2

 70
    22
 71
     2
 72
     2
 73
     0
 90
        0
 40
-0.6
 41
-30.0
 62
     5
 63
     7
 74
     1
 91
        4
 64
     7
 65
   257
 75
     1
175
     1
 42
1.0
 92
        8
 66
     7
 43
1.0
 76
     1
 77
     6
 78
     2
 67
     7
 79
     5
170
     0
171
     0
290
     0
174
     0
 93
        1
 44
0.0
173
     0
291
     1
 45
0.0
1001
ACAD
1000
AcDbSavedByObjectVersion
1070
     0
  0
VISUALSTYLE
  5
4A39B
102
{ACAD_XDICTIONARY
360
87B2A
102
}
102
{ACAD_REACTORS
330
4A38C
102
}
330
4A38C
100
AcDbVisualStyle
  2

 70
    15
 71
     2
 72
     2
 73
     0
 90
        0
 40
-0.6
 41
-30.0
 62
     5
 63
     7
 74
     1
 91
        4
 64
     7
 65
   257
 75
     1
175
     1
 42
1.0
 92
        8
 66
     7
 43
1.0
 76
     1
 77
     6
 78
     2
 67
     7
 79
     5
170
     0
171
     0
290
     0
174
     0
 93
        1
 44
0.0
173
     0
291
     1
 45
0.0
1001
ACAD
1000
AcDbSavedByObjectVersion
1070
     0
  0
VISUALSTYLE
  5
4A38D
102
{ACAD_XDICTIONARY
360
87B0E
102
}
102
{ACAD_REACTORS
330
4A38C
102
}
330
4A38C
100
AcDbVisualStyle
  2

 70
     0
 71
     2
 72
     1
 73
     1
 90
        2
 40
-0.6
 41
30.0
 62
     5
 63
     7
 74
     0
 91
        0
 64
     7
 65
   257
 75
     1
175
     1
 42
1.0
 92
        8
 66
     7
 43
1.0
 76
     1
 77
     6
 78
     2
 67
     7
 79
     5
170
     0
171
     0
290
     0
174
     0
 93
       13
 44
0.0
173
     0
291
     1
 45
0.0
1001
ACAD
1000
AcDbSavedByObjectVersion
1070
     0
  0
VISUALSTYLE
  5
4A38E
102
{ACAD_XDICTIONARY
360
87B10
102
}
102
{ACAD_REACTORS
330
4A38C
102
}
330
4A38C
100
AcDbVisualStyle
  2

 70
     1
 71
     2
 72
     1
 73
     1
 90
        2
 40
-0.6
 41
30.0
 62
     5
 63
     7
 74
     1
 91
        0
 64
     7
 65
   257
 75
     1
175
     1
 42
1.0
 92
        0
 66
   257
 43
1.0
 76
     1
 77
     6
 78
     2
 67
     7
 79
     5
170
     0
171
     0
290
     0
174
     0
 93
       13
 44
0.0
173
     0
291
     1
 45
0.0
1001
ACAD
1000
AcDbSavedByObjectVersion
1070
     0
  0
VISUALSTYLE
  5
4A38F
102
{ACAD_XDICTIONARY
360
87B12
102
}
102
{ACAD_REACTORS
330
4A38C
102
}
330
4A38C
100
AcDbVisualStyle
  2

 70
     2
 71
     2
 72
     2
 73
     1
 90
        2
 40
-0.6
 41
30.0
 62
     5
 63
     7
 74
     0
 91
        0
 64
     7
 65
   257
 75
     1
175
     1
 42
1.0
 92
        0
 66
     7
 43
1.0
 76
     1
 77
     6
 78
     2
 67
     7
 79
     5
170
     0
171
     0
290
     0
174
     0
 93
       13
 44
0.0
173
     0
291
     1
 45
0.0
1001
ACAD
1000
AcDbSavedByObjectVersion
1070
     0
  0
VISUALSTYLE
  5
4A390
102
{ACAD_XDICTIONARY
360
87B14
102
}
102
{ACAD_REACTORS
330
4A38C
102
}
330
4A38C
100
AcDbVisualStyle
  2

 70
     3
 71
     2
 72
     2
 73
     1
 90
        2
 40
-0.6
 41
30.0
 62
     5
 63
     7
 74
     1
 91
        0
 64
     7
 65
   257
 75
     1
175
     1
 42
1.0
 92
        0
 66
   257
 43
1.0
 76
     1
 77
     6
 78
     2
 67
     7
 79
     5
170
     0
171
     0
290
     0
174
     0
 93
       13
 44
0.0
173
     0
291
     1
 45
0.0
1001
ACAD
1000
AcDbSavedByObjectVersion
1070
     0
  0
VISUALSTYLE
  5
4A394
102
{ACAD_XDICTIONARY
360
87B1C
102
}
102
{ACAD_REACTORS
330
4A38C
102
}
330
4A38C
100
AcDbVisualStyle
  2

 70
     6
 71
     1
 72
     2
 73
     2
 90
        0
 40
-0.6
 41
-30.0
 62
     5
 63
     7
 74
     2
 91
        2
 64
     7
 65
   257
 75
     2
175
     1
 42
40.0
 92
        0
 66
   257
 43
1.0
 76
     1
 77
     6
 78
     2
 67
     7
 79
     3
170
     0
171
     0
290
     0
174
     0
 93
        1
 44
0.0
173
     0
291
     0
 45
0.0
1001
ACAD
1000
AcDbSavedByObjectVersion
1070
     0
  0
VISUALSTYLE
  5
4A3A2
102
{ACAD_XDICTIONARY
360
87B38
102
}
102
{ACAD_REACTORS
330
4A38C
102
}
330
4A38C
100
AcDbVisualStyle
  2

 70
    20
 71
     2
 72
     2
 73
     0
 90
        0
 40
-0.6
 41
-30.0
 62
     5
 63
     7
 74
     1
 91
        4
 64
     7
 65
   257
 75
     1
175
     1
 42
1.0
 92
       10
 66
     7
 43
1.0
 76
     1
 77
     6
 78
     2
 67
     7
 79
     5
170
     0
171
     0
290
     0
174
     0
 93
        1
 44
0.0
173
     0
291
     1
 45
0.0
1001
ACAD
1000
AcDbSavedByObjectVersion
1070
     0
  0
VISUALSTYLE
  5
4A39A
102
{ACAD_XDICTIONARY
360
87B28
102
}
102
{ACAD_REACTORS
330
4A38C
102
}
330
4A38C
100
AcDbVisualStyle
  2

 70
    14
 71
     2
 72
     2
 73
     0
 90
        0
 40
-0.6
 41
-30.0
 62
     5
 63
     7
 74
     1
 91
        4
 64
     7
 65
   257
 75
     7
175
     7
 42
1.0
 92
        8
 66
     7
 43
1.0
 76
     1
 77
     6
 78
     2
 67
     7
 79
     5
170
     0
171
     0
290
     0
174
     0
 93
        1
 44
0.0
173
     0
291
     1
 45
0.0
1001
ACAD
1000
AcDbSavedByObjectVersion
1070
     0
  0
VISUALSTYLE
  5
4A3A3
102
{ACAD_XDICTIONARY
360
87B3A
102
}
102
{ACAD_REACTORS
330
4A38C
102
}
330
4A38C
100
AcDbVisualStyle
  2

 70
    21
 71
     2
 72
     2
 73
     0
 90
        0
 40
-0.6
 41
-30.0
 62
     5
 63
     7
 74
     1
 91
        4
 64
     7
 65
   257
 75
     1
175
     1
 42
1.0
 92
        9
 66
     7
 43
1.0
 76
     1
 77
     6
 78
     2
 67
     7
 79
     5
170
     0
171
     0
290
     0
174
     0
 93
        1
 44
0.0
173
     0
291
     1
 45
0.0
1001
ACAD
1000
AcDbSavedByObjectVersion
1070
     0
  0
VISUALSTYLE
  5
4A396
102
{ACAD_XDICTIONARY
360
87B20
102
}
102
{ACAD_REACTORS
330
4A38C
102
}
330
4A38C
100
AcDbVisualStyle
  2

 70
     8
 71
     2
 72
     3
 73
     0
 90
        2
 40
-0.6
 41
30.0
 62
     5
 63
     7
 74
     0
 91
        0
 64
     7
 65
   257
 75
     1
175
     1
 42
1.0
 92
        8
 66
   257
 43
1.0
 76
     1
 77
     6
 78
     2
 67
     7
 79
     3
170
     0
171
     0
290
     0
174
     0
 93
       13
 44
0.0
173
     0
291
     0
 45
0.0
1001
ACAD
1000
AcDbSavedByObjectVersion
1070
     0
  0
VISUALSTYLE
  5
4A3A1
102
{ACAD_XDICTIONARY
360
87B36
102
}
102
{ACAD_REACTORS
330
4A38C
102
}
330
4A38C
100
AcDbVisualStyle
  2

 70
    27
 71
     2
 72
     2
 73
     1
 90
        2
 40
-0.6
 41
30.0
 62
     5
 63
     7
 74
     0
 91
        4
 64
     7
 65
   257
 75
     1
175
     1
 42
1.0
 92
        8
 66
   257
 43
1.0
 76
     1
 77
     6
 78
     2
 67
     8
 79
     3
170
     0
171
     0
290
     0
174
     0
 93
        5
 44
0.0
173
     0
291
     0
 45
0.0
1001
ACAD
1000
AcDbSavedByObjectVersion
1070
     0
  0
VISUALSTYLE
  5
4A3A0
102
{ACAD_XDICTIONARY
360
87B34
102
}
102
{ACAD_REACTORS
330
4A38C
102
}
330
4A38C
100
AcDbVisualStyle
  2

 70
    26
 71
     2
 72
     2
 73
     1
 90
        2
 40
-0.6
 41
30.0
 62
     5
 63
     7
 74
     1
 91
        2
 64
     7
 65
   257
 75
     2
175
     1
 42
1.0
 92
        8
 66
   257
 43
1.0
 76
     1
 77
     6
 78
     2
 67
     7
 79
     3
170
     0
171
     0
290
     0
174
     0
 93
        5
 44
0.0
173
     0
291
     0
 45
0.0
1001
ACAD
1000
AcDbSavedByObjectVersion
1070
     0
  0
VISUALSTYLE
  5
4A39D
102
{ACAD_XDICTIONARY
360
87B2E
102
}
102
{ACAD_REACTORS
330
4A38C
102
}
330
4A38C
100
AcDbVisualStyle
  2

 70
    23
 71
     2
 72
     2
 73
     3
 90
        0
 40
-0.6
 41
-30.0
 62
     5
 63
     7
 74
     2
 91
        2
 64
     7
 65
     7
 75
     1
175
     1
 42
40.0
 92
        8
 66
     7
 43
1.0
 76
     1
 77
     6
 78
     2
 67
     7
 79
     3
170
     0
171
     0
290
     0
174
     0
 93
        1
 44
0.0
173
     0
291
     0
 45
0.0
1001
ACAD
1000
AcDbSavedByObjectVersion
1070
     0
  0
VISUALSTYLE
  5
4A39E
102
{ACAD_XDICTIONARY
360
87B30
102
}
102
{ACAD_REACTORS
330
4A38C
102
}
330
4A38C
100
AcDbVisualStyle
  2

 70
    24
 71
     1
 72
     2
 73
     2
 90
        0
 40
-0.6
 41
-30.0
 62
     5
 63
     7
 74
     2
 91
        2
 64
     7
 65
     7
 75
     1
175
     1
 42
40.0
 92
       11
 66
     7
 43
1.0
 76
     1
 77
     6
 78
     2
 67
     7
 79
     6
170
     0
171
     0
290
     0
174
     0
 93
        1
 44
0.0
173
     0
291
     0
 45
0.0
1001
ACAD
1000
AcDbSavedByObjectVersion
1070
     0
  0
VISUALSTYLE
  5
4A399
102
{ACAD_XDICTIONARY
360
87B26
102
}
102
{ACAD_REACTORS
330
4A38C
102
}
330
4A38C
100
AcDbVisualStyle
  2

 70
    13
 71
     2
 72
     2
 73
     0
 90
        0
 40
-0.6
 41
-30.0
 62
     5
 63
     7
 74
     1
 91
        4
 64
     7
 65
   257
 75
     1
175
     1
 42
1.0
 92
       12
 66
     7
 43
1.0
 76
     1
 77
     6
 78
     2
 67
     7
 79
     5
170
     0
171
     0
290
     0
174
     0
 93
        1
 44
0.0
173
     0
291
     1
 45
0.0
1001
ACAD
1000
AcDbSavedByObjectVersion
1070
     0
  0
VISUALSTYLE
  5
4A393
102
{ACAD_XDICTIONARY
360
87B1A
102
}
102
{ACAD_REACTORS
330
4A38C
102
}
330
4A38C
100
AcDbVisualStyle
  2

 70
     5
 71
     0
 72
     2
 73
     0
 90
        0
 40
-0.6
 41
-30.0
 62
     5
 63
     7
 74
     1
 91
        4
 64
     7
 65
   257
 75
     1
175
     1
 42
1.0
 92
        0
 66
   257
 43
1.0
 76
     1
 77
     6
 78
     2
 67
     7
 79
     3
170
     0
171
     0
290
     0
174
     0
 93
        1
 44
0.0
173
     0
291
     0
 45
0.0
1001
ACAD
1000
AcDbSavedByObjectVersion
1070
     0
  0
VISUALSTYLE
  5
4A39F
102
{ACAD_XDICTIONARY
360
87B32
102
}
102
{ACAD_REACTORS
330
4A38C
102
}
330
4A38C
100
AcDbVisualStyle
  2

 70
    25
 71
     2
 72
     2
 73
     1
 90
        1
 40
0.5
 41
-30.0
 62
     5
 63
     7
 74
     1
 91
        0
 64
     7
 65
   257
 75
     1
175
     1
 42
1.0
 92
        8
 66
     7
 43
1.0
 76
     1
 77
     6
 78
     2
 67
     7
 79
     3
170
     0
171
     0
290
     0
174
     0
 93
       13
 44
0.0
173
     0
291
     0
 45
0.0
1001
ACAD
1000
AcDbSavedByObjectVersion
1070
     0
  0
XRECORD
  5
92213
102
{ACAD_REACTORS
330
92212
102
}
330
92212
100
AcDbXrecord
280
     1
340
85
  0
XRECORD
  5
92214
102
{ACAD_REACTORS
330
92212
102
}
330
92212
100
AcDbXrecord
280
     1
340
84
  0
DICTIONARYVAR
  5
92211
102
{ACAD_REACTORS
330
5E
102
}
330
5E
100
DictionaryVariables
280
   100
  1
1:1
  0
DICTIONARYVAR
  5
4A6CE
102
{ACAD_REACTORS
330
5E
102
}
330
5E
100
DictionaryVariables
280
     0
  1
STANDARD
  0
DICTIONARYVAR
  5
B8
102
{ACAD_REACTORS
330
5E
102
}
330
5E
100
DictionaryVariables
280
     0
  1
STANDARD
  0
DICTIONARYVAR
  5
4A6CF
102
{ACAD_REACTORS
330
5E
102
}
330
5E
100
DictionaryVariables
280
     0
  1
Metric50
  0
DICTIONARYVAR
  5
4A6D0
102
{ACAD_REACTORS
330
5E
102
}
330
5E
100
DictionaryVariables
280
     0
  1
Metric50
  0
DICTIONARYVAR
  5
5F
102
{ACAD_REACTORS
330
5E
102
}
330
5E
100
DictionaryVariables
280
     0
  1
2
  0
DICTIONARYVAR
  5
63
102
{ACAD_REACTORS
330
5E
102
}
330
5E
100
DictionaryVariables
280
     0
  1
1
  0
DICTIONARYVAR
  5
4A879
102
{ACAD_REACTORS
330
5E
102
}
330
5E
100
DictionaryVariables
280
     0
  1
0
  0
DICTIONARYVAR
  5
4A6D4
102
{ACAD_REACTORS
330
5E
102
}
330
5E
100
DictionaryVariables
280
     0
  1
1
  0
DICTIONARYVAR
  5
4A6D5
102
{ACAD_REACTORS
330
5E
102
}
330
5E
100
DictionaryVariables
280
     0
  1
15
  0
DICTIONARYVAR
  5
4A6D3
102
{ACAD_REACTORS
330
5E
102
}
330
5E
100
DictionaryVariables
280
     0
  1
0
  0
DICTIONARYVAR
  5
4A6D1
102
{ACAD_REACTORS
330
5E
102
}
330
5E
100
DictionaryVariables
280
     0
  1
0
  0
DICTIONARYVAR
  5
31CE
102
{ACAD_REACTORS
330
5E
102
}
330
5E
100
DictionaryVariables
280
     0
  1

  0
DICTIONARYVAR
  5
4A878
102
{ACAD_REACTORS
330
5E
102
}
330
5E
100
DictionaryVariables
280
     0
  1
127
  0
DICTIONARYVAR
  5
87AF9
102
{ACAD_REACTORS
330
5E
102
}
330
5E
100
DictionaryVariables
280
     0
  1
2
  0
XRECORD
  5
349EA
102
{ACAD_REACTORS
330
349E9
102
}
330
349E9
100
AcDbXrecord
280
     1
330
0
330
0
330
0
330
0
330
0
330
0
330
0
330
0
330
0
330
0
330
0
330
0
330
0
330
0
330
0
330
0
330
0
330
0
330
0
330
0
330
0
330
0
330
0
330
0
330
0
330
0
330
0
330
0
330
0
330
0
330
0
330
0
330
0
330
0
330
0
330
0
330
0
330
0
330
0
330
0
330
0
330
0
330
0
330
0
330
0
330
0
330
0
330
0
330
0
330
0
330
0
330
0
330
0
330
0
330
0
330
0
330
0
330
0
330
0
330
0
330
0
330
0
330
0
330
0
330
0
330
0
330
0
330
0
330
0
330
0
330
0
330
0
330
0
330
0
330
0
330
0
330
0
330
0
330
0
330
0
330
0
330
0
330
0
330
0
330
0
330
0
330
0
330
0
330
0
330
0
330
0
330
0
330
0
330
0
330
0
330
0
330
0
330
0
330
0
330
0
330
0
330
0
330
0
330
0
330
0
330
0
330
0
330
0
330
0
330
0
  0
DICTIONARY
  5
87B40
330
4A3BC
100
AcDbDictionary
280
     1
281
     1
  3
ACAD_XREC_ROUNDTRIP
360
87B41
  0
DICTIONARY
  5
4A37D
330
4A37C
100
AcDbDictionary
280
     1
281
     1
  3
ACAD_XREC_ROUNDTRIP
360
9221F
  0
DICTIONARY
  5
4A375
330
4A374
100
AcDbDictionary
280
     1
281
     1
  3
ACAD_XREC_ROUNDTRIP
360
92220
  0
DICTIONARY
  5
4A385
330
4A384
100
AcDbDictionary
280
     1
281
     1
  3
ACAD_XREC_ROUNDTRIP
360
92221
  0
DICTIONARY
  5
8C353
330
4A3B8
100
AcDbDictionary
280
     1
281
     1
  3
ACAD_XREC_ROUNDTRIP
360
92222
  0
DICTIONARY
  5
87B3E
330
4A3BA
100
AcDbDictionary
280
     1
281
     1
  3
ACAD_XREC_ROUNDTRIP
360
87B3F
  0
DICTIONARY
  5
4CD9A
330
A2
100
AcDbDictionary
280
     1
281
     1
  3
ACAD_ROUNDTRIP_2008_TABLESTYLE_CELLSTYLEMAP
360
92224
  3
ACAD_XREC_ROUNDTRIP
360
92223
  0
DICTIONARY
  5
87B18
330
4A392
100
AcDbDictionary
280
     1
281
     1
  3
ACAD_XREC_ROUNDTRIP
360
92225
  0
DICTIONARY
  5
87B16
330
4A391
100
AcDbDictionary
280
     1
281
     1
  3
ACAD_XREC_ROUNDTRIP
360
92226
  0
DICTIONARY
  5
87B24
330
4A398
100
AcDbDictionary
280
     1
281
     1
  3
ACAD_XREC_ROUNDTRIP
360
92227
  0
DICTIONARY
  5
87B2C
330
4A39C
100
AcDbDictionary
280
     1
281
     1
  3
ACAD_XREC_ROUNDTRIP
360
92228
  0
DICTIONARY
  5
87B1E
330
4A395
100
AcDbDictionary
280
     1
281
     1
  3
ACAD_XREC_ROUNDTRIP
360
92229
  0
DICTIONARY
  5
87B22
330
4A397
100
AcDbDictionary
280
     1
281
     1
  3
ACAD_XREC_ROUNDTRIP
360
9222A
  0
DICTIONARY
  5
87B3C
330
4A3A4
100
AcDbDictionary
280
     1
281
     1
  3
ACAD_XREC_ROUNDTRIP
360
9222B
  0
DICTIONARY
  5
87B2A
330
4A39B
100
AcDbDictionary
280
     1
281
     1
  3
ACAD_XREC_ROUNDTRIP
360
9222C
  0
DICTIONARY
  5
87B0E
330
4A38D
100
AcDbDictionary
280
     1
281
     1
  3
ACAD_XREC_ROUNDTRIP
360
9222D
  0
DICTIONARY
  5
87B10
330
4A38E
100
AcDbDictionary
280
     1
281
     1
  3
ACAD_XREC_ROUNDTRIP
360
9222E
  0
DICTIONARY
  5
87B12
330
4A38F
100
AcDbDictionary
280
     1
281
     1
  3
ACAD_XREC_ROUNDTRIP
360
9222F
  0
DICTIONARY
  5
87B14
330
4A390
100
AcDbDictionary
280
     1
281
     1
  3
ACAD_XREC_ROUNDTRIP
360
92230
  0
DICTIONARY
  5
87B1C
330
4A394
100
AcDbDictionary
280
     1
281
     1
  3
ACAD_XREC_ROUNDTRIP
360
92231
  0
DICTIONARY
  5
87B38
330
4A3A2
100
AcDbDictionary
280
     1
281
     1
  3
ACAD_XREC_ROUNDTRIP
360
92232
  0
DICTIONARY
  5
87B28
330
4A39A
100
AcDbDictionary
280
     1
281
     1
  3
ACAD_XREC_ROUNDTRIP
360
92233
  0
DICTIONARY
  5
87B3A
330
4A3A3
100
AcDbDictionary
280
     1
281
     1
  3
ACAD_XREC_ROUNDTRIP
360
92234
  0
DICTIONARY
  5
87B20
330
4A396
100
AcDbDictionary
280
     1
281
     1
  3
ACAD_XREC_ROUNDTRIP
360
92235
  0
DICTIONARY
  5
87B36
330
4A3A1
100
AcDbDictionary
280
     1
281
     1
  3
ACAD_XREC_ROUNDTRIP
360
92236
  0
DICTIONARY
  5
87B34
330
4A3A0
100
AcDbDictionary
280
     1
281
     1
  3
ACAD_XREC_ROUNDTRIP
360
92237
  0
DICTIONARY
  5
87B2E
330
4A39D
100
AcDbDictionary
280
     1
281
     1
  3
ACAD_XREC_ROUNDTRIP
360
92238
  0
DICTIONARY
  5
87B30
330
4A39E
100
AcDbDictionary
280
     1
281
     1
  3
ACAD_XREC_ROUNDTRIP
360
92239
  0
DICTIONARY
  5
87B26
330
4A399
100
AcDbDictionary
280
     1
281
     1
  3
ACAD_XREC_ROUNDTRIP
360
9223A
  0
DICTIONARY
  5
87B1A
330
4A393
100
AcDbDictionary
280
     1
281
     1
  3
ACAD_XREC_ROUNDTRIP
360
9223B
  0
DICTIONARY
  5
87B32
330
4A39F
100
AcDbDictionary
280
     1
281
     1
  3
ACAD_XREC_ROUNDTRIP
360
9223C
  0
XRECORD
  5
87B41
102
{ACAD_REACTORS
330
87B40
102
}
330
87B40
100
AcDbXrecord
280
     1
102
DISPLAYNAME
  1
Metric50
102
FLAGS
 90
        0
  0
XRECORD
  5
9221F
102
{ACAD_REACTORS
330
4A37D
102
}
330
4A37D
100
AcDbXrecord
280
     1
102
MATERIAL
148
0.0
149
0.0
149
0.0
 93
        0
 94
      127
282
     0
 72
     0
 77
     0
171
     0
175
     0
179
     0
273
     0
  0
XRECORD
  5
92220
102
{ACAD_REACTORS
330
4A375
102
}
330
4A375
100
AcDbXrecord
280
     1
102
MATERIAL
148
0.0
149
0.0
149
0.0
 93
        0
 94
      127
282
     0
 72
     0
 77
     0
171
     0
175
     0
179
     0
273
     0
  0
XRECORD
  5
92221
102
{ACAD_REACTORS
330
4A385
102
}
330
4A385
100
AcDbXrecord
280
     1
102
MATERIAL
148
0.0
149
0.0
149
0.0
 93
        0
 94
      127
282
     0
 72
     0
 77
     0
171
     0
175
     0
179
     0
273
     0
  0
XRECORD
  5
92222
102
{ACAD_REACTORS
330
8C353
102
}
330
8C353
100
AcDbXrecord
280
     1
102
ACAD_ROUNDTRIP_2010_MLEADER_STYLE
  0
XRECORD
  5
87B3F
102
{ACAD_REACTORS
330
87B3E
102
}
330
87B3E
100
AcDbXrecord
280
     1
102
DISPLAYNAME
  1
Metric50
102
FLAGS
 90
        0
  0
CELLSTYLEMAP
  5
92224
102
{ACAD_REACTORS
330
4CD9A
102
}
330
4CD9A
100
AcDbCellStyleMap
 90
        3
300
CELLSTYLE
  1
TABLEFORMAT_BEGIN
 90
        5
170
     1
 91
        0
 92
    32768
 62
   257
 93
        1
300
CONTENTFORMAT
  1
CONTENTFORMAT_BEGIN
 90
        0
 91
        0
 92
        4
 93
        0
300

 40
0.0
140
1.0
 94
        5
 62
     0
340
11
144
6.0
309
CONTENTFORMAT_END
171
     1
301
MARGIN
  1
CELLMARGIN_BEGIN
 40
1.5
 40
1.5
 40
1.5
 40
1.5
 40
0.18
 40
0.18
309
CELLMARGIN_END
 94
        6
 95
        1
302
GRIDFORMAT
  1
GRIDFORMAT_BEGIN
 90
        0
 91
        1
 62
     0
 92
       -2
340
0
 93
        0
 40
0.045
309
GRIDFORMAT_END
 95
        2
302
GRIDFORMAT
  1
GRIDFORMAT_BEGIN
 90
        0
 91
        1
 62
     0
 92
       -2
340
0
 93
        0
 40
0.045
309
GRIDFORMAT_END
 95
        4
302
GRIDFORMAT
  1
GRIDFORMAT_BEGIN
 90
        0
 91
        1
 62
     0
 92
       -2
340
0
 93
        0
 40
0.045
309
GRIDFORMAT_END
 95
        8
302
GRIDFORMAT
  1
GRIDFORMAT_BEGIN
 90
        0
 91
        1
 62
     0
 92
       -2
340
0
 93
        0
 40
0.045
309
GRIDFORMAT_END
 95
       16
302
GRIDFORMAT
  1
GRIDFORMAT_BEGIN
 90
        0
 91
        1
 62
     0
 92
       -2
340
0
 93
        0
 40
0.045
309
GRIDFORMAT_END
 95
       32
302
GRIDFORMAT
  1
GRIDFORMAT_BEGIN
 90
        0
 91
        1
 62
     0
 92
       -2
340
0
 93
        0
 40
0.045
309
GRIDFORMAT_END
309
TABLEFORMAT_END
  1
CELLSTYLE_BEGIN
 90
        1
 91
        1
300
_TITLE
309
CELLSTYLE_END
300
CELLSTYLE
  1
TABLEFORMAT_BEGIN
 90
        5
170
     1
 91
        0
 92
        0
 62
   257
 93
        1
300
CONTENTFORMAT
  1
CONTENTFORMAT_BEGIN
 90
        0
 91
        0
 92
        4
 93
        0
300

 40
0.0
140
1.0
 94
        5
 62
     0
340
11
144
4.5
309
CONTENTFORMAT_END
171
     1
301
MARGIN
  1
CELLMARGIN_BEGIN
 40
1.5
 40
1.5
 40
1.5
 40
1.5
 40
0.18
 40
0.18
309
CELLMARGIN_END
 94
        6
 95
        1
302
GRIDFORMAT
  1
GRIDFORMAT_BEGIN
 90
        0
 91
        1
 62
     0
 92
       -2
340
0
 93
        0
 40
0.045
309
GRIDFORMAT_END
 95
        2
302
GRIDFORMAT
  1
GRIDFORMAT_BEGIN
 90
        0
 91
        1
 62
     0
 92
       -2
340
0
 93
        0
 40
0.045
309
GRIDFORMAT_END
 95
        4
302
GRIDFORMAT
  1
GRIDFORMAT_BEGIN
 90
        0
 91
        1
 62
     0
 92
       -2
340
0
 93
        0
 40
0.045
309
GRIDFORMAT_END
 95
        8
302
GRIDFORMAT
  1
GRIDFORMAT_BEGIN
 90
        0
 91
        1
 62
     0
 92
       -2
340
0
 93
        0
 40
0.045
309
GRIDFORMAT_END
 95
       16
302
GRIDFORMAT
  1
GRIDFORMAT_BEGIN
 90
        0
 91
        1
 62
     0
 92
       -2
340
0
 93
        0
 40
0.045
309
GRIDFORMAT_END
 95
       32
302
GRIDFORMAT
  1
GRIDFORMAT_BEGIN
 90
        0
 91
        1
 62
     0
 92
       -2
340
0
 93
        0
 40
0.045
309
GRIDFORMAT_END
309
TABLEFORMAT_END
  1
CELLSTYLE_BEGIN
 90
        2
 91
        1
300
_HEADER
309
CELLSTYLE_END
300
CELLSTYLE
  1
TABLEFORMAT_BEGIN
 90
        5
170
     1
 91
        0
 92
        0
 62
   257
 93
        1
300
CONTENTFORMAT
  1
CONTENTFORMAT_BEGIN
 90
        0
 91
        0
 92
        4
 93
        0
300

 40
0.0
140
1.0
 94
        2
 62
     0
340
11
144
4.5
309
CONTENTFORMAT_END
171
     1
301
MARGIN
  1
CELLMARGIN_BEGIN
 40
1.5
 40
1.5
 40
1.5
 40
1.5
 40
0.18
 40
0.18
309
CELLMARGIN_END
 94
        6
 95
        1
302
GRIDFORMAT
  1
GRIDFORMAT_BEGIN
 90
        0
 91
        1
 62
     0
 92
       -2
340
0
 93
        0
 40
0.045
309
GRIDFORMAT_END
 95
        2
302
GRIDFORMAT
  1
GRIDFORMAT_BEGIN
 90
        0
 91
        1
 62
     0
 92
       -2
340
0
 93
        0
 40
0.045
309
GRIDFORMAT_END
 95
        4
302
GRIDFORMAT
  1
GRIDFORMAT_BEGIN
 90
        0
 91
        1
 62
     0
 92
       -2
340
0
 93
        0
 40
0.045
309
GRIDFORMAT_END
 95
        8
302
GRIDFORMAT
  1
GRIDFORMAT_BEGIN
 90
        0
 91
        1
 62
     0
 92
       -2
340
0
 93
        0
 40
0.045
309
GRIDFORMAT_END
 95
       16
302
GRIDFORMAT
  1
GRIDFORMAT_BEGIN
 90
        0
 91
        1
 62
     0
 92
       -2
340
0
 93
        0
 40
0.045
309
GRIDFORMAT_END
 95
       32
302
GRIDFORMAT
  1
GRIDFORMAT_BEGIN
 90
        0
 91
        1
 62
     0
 92
       -2
340
0
 93
        0
 40
0.045
309
GRIDFORMAT_END
309
TABLEFORMAT_END
  1
CELLSTYLE_BEGIN
 90
        3
 91
        2
300
_DATA
309
CELLSTYLE_END
  0
XRECORD
  5
92223
102
{ACAD_REACTORS
330
4CD9A
102
}
330
4CD9A
100
AcDbXrecord
280
     1
102
ACAD_ROUNDTRIP_PRE2007_TABLESTYLE
 90
        4
 91
        0
  1

 92
        4
 93
        0
  2

 94
        4
 95
        0
  3

  0
XRECORD
  5
92225
102
{ACAD_REACTORS
330
87B18
102
}
330
87B18
100
AcDbXrecord
280
     1
102
RTVSPropertyOp0
 70
     1
102
RTVSPropertyOp1
 70
     1
102
RTVSPropertyOp2
 70
     1
102
RTVSPropertyOp3
 70
     1
102
RTVSPropertyOp4
 70
     1
102
RTVSPropertyOp5
 70
     1
102
RTVSPropertyOp6
 70
     1
102
RTVSPropertyOp7
 70
     1
102
RTVSPropertyOp8
 70
     1
102
RTVSPropertyOp9
 70
     1
102
RTVSPropertyOp10
 70
     1
102
RTVSPropertyOp11
 70
     1
102
RTVSPropertyOp12
 70
     1
102
RTVSPropertyOp13
 70
     1
102
RTVSPropertyOp14
 70
     1
102
RTVSPropertyOp15
 70
     1
102
RTVSPropertyOp16
 70
     1
102
RTVSPropertyOp17
 70
     1
102
RTVSPropertyOp18
 70
     1
102
RTVSPropertyOp19
 70
     1
102
RTVSPropertyOp20
 70
     1
102
RTVSPropertyOp21
 70
     1
102
RTVSPropertyOp22
 70
     1
102
RTVSPropertyOp23
 70
     1
102
RTVSPropertyOp24
 70
     1
102
RTVSPropertyOp25
 70
     1
102
RTVSPropertyOp26
 70
     1
102
RTVSPropertyOp27
 70
     1
102
RTVSPropertyOp28
 70
     1
102
RTVSPropertyOp29
 70
     1
102
RTVSPropertyOp30
 70
     1
102
RTVSPropertyOp31
 70
     1
102
RTVSPropertyOp32
 70
     1
102
RTVSPropertyOp33
 70
     1
102
RTVSPropertyOp34
 70
     1
102
RTVSPropertyOp35
 70
     1
102
RTVSPropertyOp36
 70
     1
102
RTVSPropertyOp37
 70
     1
102
RTVSPropertyOp38
 70
     1
102
RTVSPropertyOp39
 70
     1
102
RTVSPropertyOp40
 70
     1
102
RTVSPropertyOp41
 70
     1
102
RTVSPropertyOp42
 70
     1
102
RTVSPropertyOp43
 70
     1
102
RTVSPropertyOp44
 70
     1
102
RTVSPropertyOp45
 70
     1
102
RTVSPropertyOp46
 70
     1
102
RTVSPropertyOp47
 70
     1
102
RTVSPropertyOp48
 70
     1
102
RTVSPropertyOp49
 70
     1
102
RTVSPropertyOp50
 70
     1
102
RTVSPropertyOp51
 70
     0
102
RTVSPropertyOp52
 70
     0
102
RTVSPropertyOp53
 70
     1
102
RTVSPropertyOp54
 70
     1
102
RTVSPropertyOp55
 70
     1
102
RTVSPropertyOp56
 70
     1
102
RTVSPropertyOp57
 70
     1
102
RTVSPost2010Prop28
280
     1
102
RTVSPost2010PropOp28
 70
     1
102
RTVSPost2010Prop29
280
     1
102
RTVSPost2010PropOp29
 70
     1
102
RTVSPost2010Prop30
280
     0
102
RTVSPost2010PropOp30
 70
     1
102
RTVSPost2010Prop31
280
     0
102
RTVSPost2010PropOp31
 70
     1
102
RTVSPost2010Prop32
280
     0
102
RTVSPost2010PropOp32
 70
     1
102
RTVSPost2010Prop33
280
     0
102
RTVSPost2010PropOp33
 70
     1
102
RTVSPost2010Prop34
280
     0
102
RTVSPost2010PropOp34
 70
     1
102
RTVSPost2010Prop35
280
     0
102
RTVSPost2010PropOp35
 70
     1
102
RTVSPost2010Prop36
280
     0
102
RTVSPost2010PropOp36
 70
     1
102
RTVSPost2010Prop37
 90
       50
102
RTVSPost2010PropOp37
 70
     1
102
RTVSPost2010Prop38
140
0.0
102
RTVSPost2010PropOp38
 70
     1
102
RTVSPost2010Prop39
140
1.0
102
RTVSPost2010PropOp39
 70
     1
102
RTVSPost2010Prop40
 90
        0
102
RTVSPost2010PropOp40
 70
     1
102
RTVSPost2010Prop41ColorIndex
 90
       18
102
RTVSPost2010Prop41ColorRGB
 90
        0
102
RTVSPost2010PropOp41
 70
     1
102
RTVSPost2010Prop42
 90
       50
102
RTVSPost2010PropOp42
 70
     1
102
RTVSPost2010Prop43
 90
        3
102
RTVSPost2010PropOp43
 70
     1
102
RTVSPost2010Prop44ColorIndex
 90
        5
102
RTVSPost2010Prop44ColorRGB
 90
      255
102
RTVSPost2010PropOp44
 70
     1
102
RTVSPost2010Prop45
280
     0
102
RTVSPost2010PropOp45
 70
     1
102
RTVSPost2010Prop46
 90
       50
102
RTVSPost2010PropOp46
 70
     1
102
RTVSPost2010Prop47
 90
       50
102
RTVSPost2010PropOp47
 70
     1
102
RTVSPost2010Prop48
 90
       50
102
RTVSPost2010PropOp48
 70
     1
102
RTVSPost2010Prop49
280
     0
102
RTVSPost2010PropOp49
 70
     1
102
RTVSPost2010Prop50
 90
       50
102
RTVSPost2010PropOp50
 70
     1
102
RTVSPost2010Prop51ColorIndex
 90
      256
102
RTVSPost2010Prop51ColorRGB
 90
-16777216
102
RTVSPost2010PropOp51
 70
     0
102
RTVSPost2010Prop52
140
1.0
102
RTVSPost2010PropOp52
 70
     0
102
RTVSPost2010Prop53
 90
        2
102
RTVSPost2010PropOp53
 70
     1
102
RTVSPost2010Prop54
  1
strokes_ogs.tif
102
RTVSPost2010PropOp54
 70
     1
102
RTVSPost2010Prop55
280
     0
102
RTVSPost2010PropOp55
 70
     1
102
RTVSPost2010Prop56
140
1.0
102
RTVSPost2010PropOp56
 70
     1
102
RTVSPost2010Prop57
140
1.0
102
RTVSPost2010PropOp57
 70
     1
  0
XRECORD
  5
92226
102
{ACAD_REACTORS
330
87B16
102
}
330
87B16
100
AcDbXrecord
280
     1
102
RTVSPropertyOp0
 70
     1
102
RTVSPropertyOp1
 70
     1
102
RTVSPropertyOp2
 70
     1
102
RTVSPropertyOp3
 70
     1
102
RTVSPropertyOp4
 70
     1
102
RTVSPropertyOp5
 70
     1
102
RTVSPropertyOp6
 70
     1
102
RTVSPropertyOp7
 70
     1
102
RTVSPropertyOp8
 70
     1
102
RTVSPropertyOp9
 70
     1
102
RTVSPropertyOp10
 70
     1
102
RTVSPropertyOp11
 70
     1
102
RTVSPropertyOp12
 70
     1
102
RTVSPropertyOp13
 70
     1
102
RTVSPropertyOp14
 70
     1
102
RTVSPropertyOp15
 70
     1
102
RTVSPropertyOp16
 70
     1
102
RTVSPropertyOp17
 70
     1
102
RTVSPropertyOp18
 70
     1
102
RTVSPropertyOp19
 70
     1
102
RTVSPropertyOp20
 70
     1
102
RTVSPropertyOp21
 70
     1
102
RTVSPropertyOp22
 70
     1
102
RTVSPropertyOp23
 70
     1
102
RTVSPropertyOp24
 70
     1
102
RTVSPropertyOp25
 70
     1
102
RTVSPropertyOp26
 70
     1
102
RTVSPropertyOp27
 70
     1
102
RTVSPropertyOp28
 70
     1
102
RTVSPropertyOp29
 70
     1
102
RTVSPropertyOp30
 70
     1
102
RTVSPropertyOp31
 70
     1
102
RTVSPropertyOp32
 70
     1
102
RTVSPropertyOp33
 70
     1
102
RTVSPropertyOp34
 70
     1
102
RTVSPropertyOp35
 70
     1
102
RTVSPropertyOp36
 70
     1
102
RTVSPropertyOp37
 70
     1
102
RTVSPropertyOp38
 70
     1
102
RTVSPropertyOp39
 70
     1
102
RTVSPropertyOp40
 70
     1
102
RTVSPropertyOp41
 70
     1
102
RTVSPropertyOp42
 70
     1
102
RTVSPropertyOp43
 70
     1
102
RTVSPropertyOp44
 70
     1
102
RTVSPropertyOp45
 70
     1
102
RTVSPropertyOp46
 70
     1
102
RTVSPropertyOp47
 70
     1
102
RTVSPropertyOp48
 70
     1
102
RTVSPropertyOp49
 70
     1
102
RTVSPropertyOp50
 70
     1
102
RTVSPropertyOp51
 70
     0
102
RTVSPropertyOp52
 70
     0
102
RTVSPropertyOp53
 70
     1
102
RTVSPropertyOp54
 70
     1
102
RTVSPropertyOp55
 70
     1
102
RTVSPropertyOp56
 70
     1
102
RTVSPropertyOp57
 70
     1
102
RTVSPost2010Prop28
280
     0
102
RTVSPost2010PropOp28
 70
     1
102
RTVSPost2010Prop29
280
     1
102
RTVSPost2010PropOp29
 70
     1
102
RTVSPost2010Prop30
280
     1
102
RTVSPost2010PropOp30
 70
     1
102
RTVSPost2010Prop31
280
     0
102
RTVSPost2010PropOp31
 70
     1
102
RTVSPost2010Prop32
280
     0
102
RTVSPost2010PropOp32
 70
     1
102
RTVSPost2010Prop33
280
     0
102
RTVSPost2010PropOp33
 70
     1
102
RTVSPost2010Prop34
280
     0
102
RTVSPost2010PropOp34
 70
     1
102
RTVSPost2010Prop35
280
     0
102
RTVSPost2010PropOp35
 70
     1
102
RTVSPost2010Prop36
280
     0
102
RTVSPost2010PropOp36
 70
     1
102
RTVSPost2010Prop37
 90
       50
102
RTVSPost2010PropOp37
 70
     1
102
RTVSPost2010Prop38
140
0.0
102
RTVSPost2010PropOp38
 70
     1
102
RTVSPost2010Prop39
140
1.0
102
RTVSPost2010PropOp39
 70
     1
102
RTVSPost2010Prop40
 90
        0
102
RTVSPost2010PropOp40
 70
     1
102
RTVSPost2010Prop41ColorIndex
 90
       18
102
RTVSPost2010Prop41ColorRGB
 90
        0
102
RTVSPost2010PropOp41
 70
     1
102
RTVSPost2010Prop42
 90
       50
102
RTVSPost2010PropOp42
 70
     1
102
RTVSPost2010Prop43
 90
        3
102
RTVSPost2010PropOp43
 70
     1
102
RTVSPost2010Prop44ColorIndex
 90
        5
102
RTVSPost2010Prop44ColorRGB
 90
      255
102
RTVSPost2010PropOp44
 70
     1
102
RTVSPost2010Prop45
280
     0
102
RTVSPost2010PropOp45
 70
     1
102
RTVSPost2010Prop46
 90
       50
102
RTVSPost2010PropOp46
 70
     1
102
RTVSPost2010Prop47
 90
       50
102
RTVSPost2010PropOp47
 70
     1
102
RTVSPost2010Prop48
 90
       50
102
RTVSPost2010PropOp48
 70
     1
102
RTVSPost2010Prop49
280
     0
102
RTVSPost2010PropOp49
 70
     1
102
RTVSPost2010Prop50
 90
       50
102
RTVSPost2010PropOp50
 70
     1
102
RTVSPost2010Prop51ColorIndex
 90
      256
102
RTVSPost2010Prop51ColorRGB
 90
-16777216
102
RTVSPost2010PropOp51
 70
     0
102
RTVSPost2010Prop52
140
1.0
102
RTVSPost2010PropOp52
 70
     0
102
RTVSPost2010Prop53
 90
        2
102
RTVSPost2010PropOp53
 70
     1
102
RTVSPost2010Prop54
  1
strokes_ogs.tif
102
RTVSPost2010PropOp54
 70
     1
102
RTVSPost2010Prop55
280
     0
102
RTVSPost2010PropOp55
 70
     1
102
RTVSPost2010Prop56
140
1.0
102
RTVSPost2010PropOp56
 70
     1
102
RTVSPost2010Prop57
140
1.0
102
RTVSPost2010PropOp57
 70
     1
  0
XRECORD
  5
92227
102
{ACAD_REACTORS
330
87B24
102
}
330
87B24
100
AcDbXrecord
280
     1
102
RTVSPropertyOp0
 70
     1
102
RTVSPropertyOp1
 70
     1
102
RTVSPropertyOp2
 70
     1
102
RTVSPropertyOp3
 70
     1
102
RTVSPropertyOp4
 70
     1
102
RTVSPropertyOp5
 70
     1
102
RTVSPropertyOp6
 70
     1
102
RTVSPropertyOp7
 70
     1
102
RTVSPropertyOp8
 70
     1
102
RTVSPropertyOp9
 70
     1
102
RTVSPropertyOp10
 70
     1
102
RTVSPropertyOp11
 70
     1
102
RTVSPropertyOp12
 70
     1
102
RTVSPropertyOp13
 70
     1
102
RTVSPropertyOp14
 70
     1
102
RTVSPropertyOp15
 70
     1
102
RTVSPropertyOp16
 70
     1
102
RTVSPropertyOp17
 70
     1
102
RTVSPropertyOp18
 70
     1
102
RTVSPropertyOp19
 70
     1
102
RTVSPropertyOp20
 70
     1
102
RTVSPropertyOp21
 70
     1
102
RTVSPropertyOp22
 70
     1
102
RTVSPropertyOp23
 70
     1
102
RTVSPropertyOp24
 70
     1
102
RTVSPropertyOp25
 70
     1
102
RTVSPropertyOp26
 70
     1
102
RTVSPropertyOp27
 70
     1
102
RTVSPropertyOp28
 70
     1
102
RTVSPropertyOp29
 70
     1
102
RTVSPropertyOp30
 70
     1
102
RTVSPropertyOp31
 70
     1
102
RTVSPropertyOp32
 70
     1
102
RTVSPropertyOp33
 70
     1
102
RTVSPropertyOp34
 70
     1
102
RTVSPropertyOp35
 70
     1
102
RTVSPropertyOp36
 70
     1
102
RTVSPropertyOp37
 70
     1
102
RTVSPropertyOp38
 70
     1
102
RTVSPropertyOp39
 70
     1
102
RTVSPropertyOp40
 70
     1
102
RTVSPropertyOp41
 70
     1
102
RTVSPropertyOp42
 70
     1
102
RTVSPropertyOp43
 70
     1
102
RTVSPropertyOp44
 70
     1
102
RTVSPropertyOp45
 70
     1
102
RTVSPropertyOp46
 70
     1
102
RTVSPropertyOp47
 70
     1
102
RTVSPropertyOp48
 70
     1
102
RTVSPropertyOp49
 70
     1
102
RTVSPropertyOp50
 70
     1
102
RTVSPropertyOp51
 70
     0
102
RTVSPropertyOp52
 70
     0
102
RTVSPropertyOp53
 70
     1
102
RTVSPropertyOp54
 70
     1
102
RTVSPropertyOp55
 70
     1
102
RTVSPropertyOp56
 70
     1
102
RTVSPropertyOp57
 70
     1
102
RTVSPost2010Prop28
280
     0
102
RTVSPost2010PropOp28
 70
     1
102
RTVSPost2010Prop29
280
     1
102
RTVSPost2010PropOp29
 70
     1
102
RTVSPost2010Prop30
280
     1
102
RTVSPost2010PropOp30
 70
     1
102
RTVSPost2010Prop31
280
     0
102
RTVSPost2010PropOp31
 70
     1
102
RTVSPost2010Prop32
280
     0
102
RTVSPost2010PropOp32
 70
     1
102
RTVSPost2010Prop33
280
     0
102
RTVSPost2010PropOp33
 70
     1
102
RTVSPost2010Prop34
280
     0
102
RTVSPost2010PropOp34
 70
     1
102
RTVSPost2010Prop35
280
     0
102
RTVSPost2010PropOp35
 70
     1
102
RTVSPost2010Prop36
280
     0
102
RTVSPost2010PropOp36
 70
     1
102
RTVSPost2010Prop37
 90
       50
102
RTVSPost2010PropOp37
 70
     1
102
RTVSPost2010Prop38
140
0.0
102
RTVSPost2010PropOp38
 70
     1
102
RTVSPost2010Prop39
140
1.0
102
RTVSPost2010PropOp39
 70
     1
102
RTVSPost2010Prop40
 90
        0
102
RTVSPost2010PropOp40
 70
     1
102
RTVSPost2010Prop41ColorIndex
 90
       18
102
RTVSPost2010Prop41ColorRGB
 90
        0
102
RTVSPost2010PropOp41
 70
     1
102
RTVSPost2010Prop42
 90
       50
102
RTVSPost2010PropOp42
 70
     1
102
RTVSPost2010Prop43
 90
        3
102
RTVSPost2010PropOp43
 70
     1
102
RTVSPost2010Prop44ColorIndex
 90
        5
102
RTVSPost2010Prop44ColorRGB
 90
      255
102
RTVSPost2010PropOp44
 70
     1
102
RTVSPost2010Prop45
280
     0
102
RTVSPost2010PropOp45
 70
     1
102
RTVSPost2010Prop46
 90
       50
102
RTVSPost2010PropOp46
 70
     1
102
RTVSPost2010Prop47
 90
       50
102
RTVSPost2010PropOp47
 70
     1
102
RTVSPost2010Prop48
 90
       50
102
RTVSPost2010PropOp48
 70
     1
102
RTVSPost2010Prop49
280
     0
102
RTVSPost2010PropOp49
 70
     1
102
RTVSPost2010Prop50
 90
       50
102
RTVSPost2010PropOp50
 70
     1
102
RTVSPost2010Prop51ColorIndex
 90
      256
102
RTVSPost2010Prop51ColorRGB
 90
-16777216
102
RTVSPost2010PropOp51
 70
     0
102
RTVSPost2010Prop52
140
1.0
102
RTVSPost2010PropOp52
 70
     0
102
RTVSPost2010Prop53
 90
        2
102
RTVSPost2010PropOp53
 70
     1
102
RTVSPost2010Prop54
  1
strokes_ogs.tif
102
RTVSPost2010PropOp54
 70
     1
102
RTVSPost2010Prop55
280
     0
102
RTVSPost2010PropOp55
 70
     1
102
RTVSPost2010Prop56
140
1.0
102
RTVSPost2010PropOp56
 70
     1
102
RTVSPost2010Prop57
140
1.0
102
RTVSPost2010PropOp57
 70
     1
  0
XRECORD
  5
92228
102
{ACAD_REACTORS
330
87B2C
102
}
330
87B2C
100
AcDbXrecord
280
     1
102
RTVSPropertyOp0
 70
     1
102
RTVSPropertyOp1
 70
     1
102
RTVSPropertyOp2
 70
     1
102
RTVSPropertyOp3
 70
     1
102
RTVSPropertyOp4
 70
     1
102
RTVSPropertyOp5
 70
     1
102
RTVSPropertyOp6
 70
     1
102
RTVSPropertyOp7
 70
     1
102
RTVSPropertyOp8
 70
     1
102
RTVSPropertyOp9
 70
     1
102
RTVSPropertyOp10
 70
     1
102
RTVSPropertyOp11
 70
     1
102
RTVSPropertyOp12
 70
     1
102
RTVSPropertyOp13
 70
     1
102
RTVSPropertyOp14
 70
     1
102
RTVSPropertyOp15
 70
     1
102
RTVSPropertyOp16
 70
     1
102
RTVSPropertyOp17
 70
     1
102
RTVSPropertyOp18
 70
     1
102
RTVSPropertyOp19
 70
     1
102
RTVSPropertyOp20
 70
     1
102
RTVSPropertyOp21
 70
     1
102
RTVSPropertyOp22
 70
     1
102
RTVSPropertyOp23
 70
     1
102
RTVSPropertyOp24
 70
     1
102
RTVSPropertyOp25
 70
     1
102
RTVSPropertyOp26
 70
     1
102
RTVSPropertyOp27
 70
     1
102
RTVSPropertyOp28
 70
     1
102
RTVSPropertyOp29
 70
     1
102
RTVSPropertyOp30
 70
     1
102
RTVSPropertyOp31
 70
     1
102
RTVSPropertyOp32
 70
     1
102
RTVSPropertyOp33
 70
     1
102
RTVSPropertyOp34
 70
     1
102
RTVSPropertyOp35
 70
     1
102
RTVSPropertyOp36
 70
     1
102
RTVSPropertyOp37
 70
     1
102
RTVSPropertyOp38
 70
     1
102
RTVSPropertyOp39
 70
     1
102
RTVSPropertyOp40
 70
     1
102
RTVSPropertyOp41
 70
     1
102
RTVSPropertyOp42
 70
     1
102
RTVSPropertyOp43
 70
     1
102
RTVSPropertyOp44
 70
     1
102
RTVSPropertyOp45
 70
     1
102
RTVSPropertyOp46
 70
     1
102
RTVSPropertyOp47
 70
     1
102
RTVSPropertyOp48
 70
     1
102
RTVSPropertyOp49
 70
     1
102
RTVSPropertyOp50
 70
     1
102
RTVSPropertyOp51
 70
     0
102
RTVSPropertyOp52
 70
     0
102
RTVSPropertyOp53
 70
     1
102
RTVSPropertyOp54
 70
     1
102
RTVSPropertyOp55
 70
     1
102
RTVSPropertyOp56
 70
     1
102
RTVSPropertyOp57
 70
     1
102
RTVSPost2010Prop28
280
     0
102
RTVSPost2010PropOp28
 70
     1
102
RTVSPost2010Prop29
280
     1
102
RTVSPost2010PropOp29
 70
     1
102
RTVSPost2010Prop30
280
     1
102
RTVSPost2010PropOp30
 70
     1
102
RTVSPost2010Prop31
280
     0
102
RTVSPost2010PropOp31
 70
     1
102
RTVSPost2010Prop32
280
     0
102
RTVSPost2010PropOp32
 70
     1
102
RTVSPost2010Prop33
280
     0
102
RTVSPost2010PropOp33
 70
     1
102
RTVSPost2010Prop34
280
     0
102
RTVSPost2010PropOp34
 70
     1
102
RTVSPost2010Prop35
280
     0
102
RTVSPost2010PropOp35
 70
     1
102
RTVSPost2010Prop36
280
     0
102
RTVSPost2010PropOp36
 70
     1
102
RTVSPost2010Prop37
 90
       50
102
RTVSPost2010PropOp37
 70
     1
102
RTVSPost2010Prop38
140
0.0
102
RTVSPost2010PropOp38
 70
     1
102
RTVSPost2010Prop39
140
1.0
102
RTVSPost2010PropOp39
 70
     1
102
RTVSPost2010Prop40
 90
        0
102
RTVSPost2010PropOp40
 70
     1
102
RTVSPost2010Prop41ColorIndex
 90
       18
102
RTVSPost2010Prop41ColorRGB
 90
        0
102
RTVSPost2010PropOp41
 70
     1
102
RTVSPost2010Prop42
 90
       50
102
RTVSPost2010PropOp42
 70
     1
102
RTVSPost2010Prop43
 90
        3
102
RTVSPost2010PropOp43
 70
     1
102
RTVSPost2010Prop44ColorIndex
 90
        5
102
RTVSPost2010Prop44ColorRGB
 90
      255
102
RTVSPost2010PropOp44
 70
     1
102
RTVSPost2010Prop45
280
     0
102
RTVSPost2010PropOp45
 70
     1
102
RTVSPost2010Prop46
 90
       50
102
RTVSPost2010PropOp46
 70
     1
102
RTVSPost2010Prop47
 90
       50
102
RTVSPost2010PropOp47
 70
     1
102
RTVSPost2010Prop48
 90
       50
102
RTVSPost2010PropOp48
 70
     1
102
RTVSPost2010Prop49
280
     0
102
RTVSPost2010PropOp49
 70
     1
102
RTVSPost2010Prop50
 90
       50
102
RTVSPost2010PropOp50
 70
     1
102
RTVSPost2010Prop51ColorIndex
 90
      256
102
RTVSPost2010Prop51ColorRGB
 90
-16777216
102
RTVSPost2010PropOp51
 70
     0
102
RTVSPost2010Prop52
140
1.0
102
RTVSPost2010PropOp52
 70
     0
102
RTVSPost2010Prop53
 90
        2
102
RTVSPost2010PropOp53
 70
     1
102
RTVSPost2010Prop54
  1
strokes_ogs.tif
102
RTVSPost2010PropOp54
 70
     1
102
RTVSPost2010Prop55
280
     0
102
RTVSPost2010PropOp55
 70
     1
102
RTVSPost2010Prop56
140
1.0
102
RTVSPost2010PropOp56
 70
     1
102
RTVSPost2010Prop57
140
1.0
102
RTVSPost2010PropOp57
 70
     1
  0
XRECORD
  5
92229
102
{ACAD_REACTORS
330
87B1E
102
}
330
87B1E
100
AcDbXrecord
280
     1
102
RTVSPropertyOp0
 70
     1
102
RTVSPropertyOp1
 70
     1
102
RTVSPropertyOp2
 70
     1
102
RTVSPropertyOp3
 70
     1
102
RTVSPropertyOp4
 70
     1
102
RTVSPropertyOp5
 70
     1
102
RTVSPropertyOp6
 70
     1
102
RTVSPropertyOp7
 70
     1
102
RTVSPropertyOp8
 70
     1
102
RTVSPropertyOp9
 70
     1
102
RTVSPropertyOp10
 70
     1
102
RTVSPropertyOp11
 70
     1
102
RTVSPropertyOp12
 70
     1
102
RTVSPropertyOp13
 70
     1
102
RTVSPropertyOp14
 70
     1
102
RTVSPropertyOp15
 70
     1
102
RTVSPropertyOp16
 70
     1
102
RTVSPropertyOp17
 70
     1
102
RTVSPropertyOp18
 70
     1
102
RTVSPropertyOp19
 70
     1
102
RTVSPropertyOp20
 70
     1
102
RTVSPropertyOp21
 70
     1
102
RTVSPropertyOp22
 70
     1
102
RTVSPropertyOp23
 70
     1
102
RTVSPropertyOp24
 70
     1
102
RTVSPropertyOp25
 70
     1
102
RTVSPropertyOp26
 70
     1
102
RTVSPropertyOp27
 70
     1
102
RTVSPropertyOp28
 70
     1
102
RTVSPropertyOp29
 70
     1
102
RTVSPropertyOp30
 70
     1
102
RTVSPropertyOp31
 70
     1
102
RTVSPropertyOp32
 70
     1
102
RTVSPropertyOp33
 70
     1
102
RTVSPropertyOp34
 70
     1
102
RTVSPropertyOp35
 70
     1
102
RTVSPropertyOp36
 70
     1
102
RTVSPropertyOp37
 70
     1
102
RTVSPropertyOp38
 70
     1
102
RTVSPropertyOp39
 70
     1
102
RTVSPropertyOp40
 70
     1
102
RTVSPropertyOp41
 70
     1
102
RTVSPropertyOp42
 70
     1
102
RTVSPropertyOp43
 70
     1
102
RTVSPropertyOp44
 70
     1
102
RTVSPropertyOp45
 70
     1
102
RTVSPropertyOp46
 70
     1
102
RTVSPropertyOp47
 70
     1
102
RTVSPropertyOp48
 70
     1
102
RTVSPropertyOp49
 70
     1
102
RTVSPropertyOp50
 70
     1
102
RTVSPropertyOp51
 70
     0
102
RTVSPropertyOp52
 70
     0
102
RTVSPropertyOp53
 70
     1
102
RTVSPropertyOp54
 70
     1
102
RTVSPropertyOp55
 70
     1
102
RTVSPropertyOp56
 70
     1
102
RTVSPropertyOp57
 70
     1
102
RTVSPost2010Prop28
280
     0
102
RTVSPost2010PropOp28
 70
     1
102
RTVSPost2010Prop29
280
     1
102
RTVSPost2010PropOp29
 70
     1
102
RTVSPost2010Prop30
280
     1
102
RTVSPost2010PropOp30
 70
     1
102
RTVSPost2010Prop31
280
     0
102
RTVSPost2010PropOp31
 70
     1
102
RTVSPost2010Prop32
280
     0
102
RTVSPost2010PropOp32
 70
     1
102
RTVSPost2010Prop33
280
     0
102
RTVSPost2010PropOp33
 70
     1
102
RTVSPost2010Prop34
280
     0
102
RTVSPost2010PropOp34
 70
     1
102
RTVSPost2010Prop35
280
     0
102
RTVSPost2010PropOp35
 70
     1
102
RTVSPost2010Prop36
280
     0
102
RTVSPost2010PropOp36
 70
     1
102
RTVSPost2010Prop37
 90
       50
102
RTVSPost2010PropOp37
 70
     1
102
RTVSPost2010Prop38
140
0.0
102
RTVSPost2010PropOp38
 70
     1
102
RTVSPost2010Prop39
140
1.0
102
RTVSPost2010PropOp39
 70
     1
102
RTVSPost2010Prop40
 90
        0
102
RTVSPost2010PropOp40
 70
     1
102
RTVSPost2010Prop41ColorIndex
 90
       18
102
RTVSPost2010Prop41ColorRGB
 90
        0
102
RTVSPost2010PropOp41
 70
     1
102
RTVSPost2010Prop42
 90
       50
102
RTVSPost2010PropOp42
 70
     1
102
RTVSPost2010Prop43
 90
        3
102
RTVSPost2010PropOp43
 70
     1
102
RTVSPost2010Prop44ColorIndex
 90
        5
102
RTVSPost2010Prop44ColorRGB
 90
      255
102
RTVSPost2010PropOp44
 70
     1
102
RTVSPost2010Prop45
280
     0
102
RTVSPost2010PropOp45
 70
     1
102
RTVSPost2010Prop46
 90
       50
102
RTVSPost2010PropOp46
 70
     1
102
RTVSPost2010Prop47
 90
       50
102
RTVSPost2010PropOp47
 70
     1
102
RTVSPost2010Prop48
 90
       50
102
RTVSPost2010PropOp48
 70
     1
102
RTVSPost2010Prop49
280
     0
102
RTVSPost2010PropOp49
 70
     1
102
RTVSPost2010Prop50
 90
       50
102
RTVSPost2010PropOp50
 70
     1
102
RTVSPost2010Prop51ColorIndex
 90
      256
102
RTVSPost2010Prop51ColorRGB
 90
-16777216
102
RTVSPost2010PropOp51
 70
     0
102
RTVSPost2010Prop52
140
1.0
102
RTVSPost2010PropOp52
 70
     0
102
RTVSPost2010Prop53
 90
        2
102
RTVSPost2010PropOp53
 70
     1
102
RTVSPost2010Prop54
  1
strokes_ogs.tif
102
RTVSPost2010PropOp54
 70
     1
102
RTVSPost2010Prop55
280
     0
102
RTVSPost2010PropOp55
 70
     1
102
RTVSPost2010Prop56
140
1.0
102
RTVSPost2010PropOp56
 70
     1
102
RTVSPost2010Prop57
140
1.0
102
RTVSPost2010PropOp57
 70
     1
  0
XRECORD
  5
9222A
102
{ACAD_REACTORS
330
87B22
102
}
330
87B22
100
AcDbXrecord
280
     1
102
RTVSPropertyOp0
 70
     1
102
RTVSPropertyOp1
 70
     1
102
RTVSPropertyOp2
 70
     1
102
RTVSPropertyOp3
 70
     1
102
RTVSPropertyOp4
 70
     1
102
RTVSPropertyOp5
 70
     1
102
RTVSPropertyOp6
 70
     1
102
RTVSPropertyOp7
 70
     1
102
RTVSPropertyOp8
 70
     1
102
RTVSPropertyOp9
 70
     1
102
RTVSPropertyOp10
 70
     1
102
RTVSPropertyOp11
 70
     1
102
RTVSPropertyOp12
 70
     1
102
RTVSPropertyOp13
 70
     1
102
RTVSPropertyOp14
 70
     1
102
RTVSPropertyOp15
 70
     1
102
RTVSPropertyOp16
 70
     1
102
RTVSPropertyOp17
 70
     1
102
RTVSPropertyOp18
 70
     1
102
RTVSPropertyOp19
 70
     1
102
RTVSPropertyOp20
 70
     1
102
RTVSPropertyOp21
 70
     1
102
RTVSPropertyOp22
 70
     1
102
RTVSPropertyOp23
 70
     1
102
RTVSPropertyOp24
 70
     1
102
RTVSPropertyOp25
 70
     1
102
RTVSPropertyOp26
 70
     1
102
RTVSPropertyOp27
 70
     1
102
RTVSPropertyOp28
 70
     1
102
RTVSPropertyOp29
 70
     1
102
RTVSPropertyOp30
 70
     1
102
RTVSPropertyOp31
 70
     1
102
RTVSPropertyOp32
 70
     1
102
RTVSPropertyOp33
 70
     1
102
RTVSPropertyOp34
 70
     1
102
RTVSPropertyOp35
 70
     1
102
RTVSPropertyOp36
 70
     1
102
RTVSPropertyOp37
 70
     1
102
RTVSPropertyOp38
 70
     1
102
RTVSPropertyOp39
 70
     1
102
RTVSPropertyOp40
 70
     1
102
RTVSPropertyOp41
 70
     1
102
RTVSPropertyOp42
 70
     1
102
RTVSPropertyOp43
 70
     1
102
RTVSPropertyOp44
 70
     1
102
RTVSPropertyOp45
 70
     1
102
RTVSPropertyOp46
 70
     1
102
RTVSPropertyOp47
 70
     1
102
RTVSPropertyOp48
 70
     1
102
RTVSPropertyOp49
 70
     1
102
RTVSPropertyOp50
 70
     1
102
RTVSPropertyOp51
 70
     0
102
RTVSPropertyOp52
 70
     0
102
RTVSPropertyOp53
 70
     1
102
RTVSPropertyOp54
 70
     1
102
RTVSPropertyOp55
 70
     1
102
RTVSPropertyOp56
 70
     1
102
RTVSPropertyOp57
 70
     1
102
RTVSPost2010Prop28
280
     0
102
RTVSPost2010PropOp28
 70
     1
102
RTVSPost2010Prop29
280
     1
102
RTVSPost2010PropOp29
 70
     1
102
RTVSPost2010Prop30
280
     1
102
RTVSPost2010PropOp30
 70
     1
102
RTVSPost2010Prop31
280
     0
102
RTVSPost2010PropOp31
 70
     1
102
RTVSPost2010Prop32
280
     0
102
RTVSPost2010PropOp32
 70
     1
102
RTVSPost2010Prop33
280
     0
102
RTVSPost2010PropOp33
 70
     1
102
RTVSPost2010Prop34
280
     0
102
RTVSPost2010PropOp34
 70
     1
102
RTVSPost2010Prop35
280
     0
102
RTVSPost2010PropOp35
 70
     1
102
RTVSPost2010Prop36
280
     0
102
RTVSPost2010PropOp36
 70
     1
102
RTVSPost2010Prop37
 90
       50
102
RTVSPost2010PropOp37
 70
     1
102
RTVSPost2010Prop38
140
0.0
102
RTVSPost2010PropOp38
 70
     1
102
RTVSPost2010Prop39
140
1.0
102
RTVSPost2010PropOp39
 70
     1
102
RTVSPost2010Prop40
 90
        0
102
RTVSPost2010PropOp40
 70
     1
102
RTVSPost2010Prop41ColorIndex
 90
       18
102
RTVSPost2010Prop41ColorRGB
 90
        0
102
RTVSPost2010PropOp41
 70
     1
102
RTVSPost2010Prop42
 90
       50
102
RTVSPost2010PropOp42
 70
     1
102
RTVSPost2010Prop43
 90
        3
102
RTVSPost2010PropOp43
 70
     1
102
RTVSPost2010Prop44ColorIndex
 90
        5
102
RTVSPost2010Prop44ColorRGB
 90
      255
102
RTVSPost2010PropOp44
 70
     1
102
RTVSPost2010Prop45
280
     0
102
RTVSPost2010PropOp45
 70
     1
102
RTVSPost2010Prop46
 90
       50
102
RTVSPost2010PropOp46
 70
     1
102
RTVSPost2010Prop47
 90
       50
102
RTVSPost2010PropOp47
 70
     1
102
RTVSPost2010Prop48
 90
       50
102
RTVSPost2010PropOp48
 70
     1
102
RTVSPost2010Prop49
280
     0
102
RTVSPost2010PropOp49
 70
     1
102
RTVSPost2010Prop50
 90
       50
102
RTVSPost2010PropOp50
 70
     1
102
RTVSPost2010Prop51ColorIndex
 90
      256
102
RTVSPost2010Prop51ColorRGB
 90
-16777216
102
RTVSPost2010PropOp51
 70
     0
102
RTVSPost2010Prop52
140
1.0
102
RTVSPost2010PropOp52
 70
     0
102
RTVSPost2010Prop53
 90
        2
102
RTVSPost2010PropOp53
 70
     1
102
RTVSPost2010Prop54
  1
strokes_ogs.tif
102
RTVSPost2010PropOp54
 70
     1
102
RTVSPost2010Prop55
280
     0
102
RTVSPost2010PropOp55
 70
     1
102
RTVSPost2010Prop56
140
1.0
102
RTVSPost2010PropOp56
 70
     1
102
RTVSPost2010Prop57
140
1.0
102
RTVSPost2010PropOp57
 70
     1
  0
XRECORD
  5
9222B
102
{ACAD_REACTORS
330
87B3C
102
}
330
87B3C
100
AcDbXrecord
280
     1
102
RTVSPropertyOp0
 70
     0
102
RTVSPropertyOp1
 70
     0
102
RTVSPropertyOp2
 70
     0
102
RTVSPropertyOp3
 70
     0
102
RTVSPropertyOp4
 70
     0
102
RTVSPropertyOp5
 70
     0
102
RTVSPropertyOp6
 70
     0
102
RTVSPropertyOp7
 70
     0
102
RTVSPropertyOp8
 70
     0
102
RTVSPropertyOp9
 70
     0
102
RTVSPropertyOp10
 70
     0
102
RTVSPropertyOp11
 70
     0
102
RTVSPropertyOp12
 70
     0
102
RTVSPropertyOp13
 70
     0
102
RTVSPropertyOp14
 70
     2
102
RTVSPropertyOp15
 70
     0
102
RTVSPropertyOp16
 70
     0
102
RTVSPropertyOp17
 70
     0
102
RTVSPropertyOp18
 70
     0
102
RTVSPropertyOp19
 70
     0
102
RTVSPropertyOp20
 70
     0
102
RTVSPropertyOp21
 70
     0
102
RTVSPropertyOp22
 70
     0
102
RTVSPropertyOp23
 70
     0
102
RTVSPropertyOp24
 70
     0
102
RTVSPropertyOp25
 70
     0
102
RTVSPropertyOp26
 70
     0
102
RTVSPropertyOp27
 70
     0
102
RTVSPropertyOp28
 70
     1
102
RTVSPropertyOp29
 70
     1
102
RTVSPropertyOp30
 70
     1
102
RTVSPropertyOp31
 70
     1
102
RTVSPropertyOp32
 70
     1
102
RTVSPropertyOp33
 70
     1
102
RTVSPropertyOp34
 70
     1
102
RTVSPropertyOp35
 70
     1
102
RTVSPropertyOp36
 70
     1
102
RTVSPropertyOp37
 70
     0
102
RTVSPropertyOp38
 70
     0
102
RTVSPropertyOp39
 70
     0
102
RTVSPropertyOp40
 70
     0
102
RTVSPropertyOp41
 70
     0
102
RTVSPropertyOp42
 70
     0
102
RTVSPropertyOp43
 70
     0
102
RTVSPropertyOp44
 70
     0
102
RTVSPropertyOp45
 70
     1
102
RTVSPropertyOp46
 70
     0
102
RTVSPropertyOp47
 70
     0
102
RTVSPropertyOp48
 70
     0
102
RTVSPropertyOp49
 70
     1
102
RTVSPropertyOp50
 70
     0
102
RTVSPropertyOp51
 70
     0
102
RTVSPropertyOp52
 70
     0
102
RTVSPropertyOp53
 70
     0
102
RTVSPropertyOp54
 70
     0
102
RTVSPropertyOp55
 70
     1
102
RTVSPropertyOp56
 70
     0
102
RTVSPropertyOp57
 70
     0
102
RTVSPost2010Prop28
280
     0
102
RTVSPost2010PropOp28
 70
     1
102
RTVSPost2010Prop29
280
     1
102
RTVSPost2010PropOp29
 70
     1
102
RTVSPost2010Prop30
280
     1
102
RTVSPost2010PropOp30
 70
     1
102
RTVSPost2010Prop31
280
     0
102
RTVSPost2010PropOp31
 70
     1
102
RTVSPost2010Prop32
280
     0
102
RTVSPost2010PropOp32
 70
     1
102
RTVSPost2010Prop33
280
     0
102
RTVSPost2010PropOp33
 70
     1
102
RTVSPost2010Prop34
280
     0
102
RTVSPost2010PropOp34
 70
     1
102
RTVSPost2010Prop35
280
     0
102
RTVSPost2010PropOp35
 70
     1
102
RTVSPost2010Prop36
280
     0
102
RTVSPost2010PropOp36
 70
     1
102
RTVSPost2010Prop37
 90
       50
102
RTVSPost2010PropOp37
 70
     0
102
RTVSPost2010Prop38
140
0.0
102
RTVSPost2010PropOp38
 70
     0
102
RTVSPost2010Prop39
140
1.0
102
RTVSPost2010PropOp39
 70
     0
102
RTVSPost2010Prop40
 90
        0
102
RTVSPost2010PropOp40
 70
     0
102
RTVSPost2010Prop41ColorIndex
 90
       18
102
RTVSPost2010Prop41ColorRGB
 90
        0
102
RTVSPost2010PropOp41
 70
     0
102
RTVSPost2010Prop42
 90
       50
102
RTVSPost2010PropOp42
 70
     0
102
RTVSPost2010Prop43
 90
        3
102
RTVSPost2010PropOp43
 70
     0
102
RTVSPost2010Prop44ColorIndex
 90
        5
102
RTVSPost2010Prop44ColorRGB
 90
      255
102
RTVSPost2010PropOp44
 70
     0
102
RTVSPost2010Prop45
280
     0
102
RTVSPost2010PropOp45
 70
     1
102
RTVSPost2010Prop46
 90
       50
102
RTVSPost2010PropOp46
 70
     0
102
RTVSPost2010Prop47
 90
       50
102
RTVSPost2010PropOp47
 70
     0
102
RTVSPost2010Prop48
 90
       50
102
RTVSPost2010PropOp48
 70
     0
102
RTVSPost2010Prop49
280
     0
102
RTVSPost2010PropOp49
 70
     1
102
RTVSPost2010Prop50
 90
       50
102
RTVSPost2010PropOp50
 70
     0
102
RTVSPost2010Prop51ColorIndex
 90
      256
102
RTVSPost2010Prop51ColorRGB
 90
-16777216
102
RTVSPost2010PropOp51
 70
     0
102
RTVSPost2010Prop52
140
1.0
102
RTVSPost2010PropOp52
 70
     0
102
RTVSPost2010Prop53
 90
        2
102
RTVSPost2010PropOp53
 70
     0
102
RTVSPost2010Prop54
  1
strokes_ogs.tif
102
RTVSPost2010PropOp54
 70
     0
102
RTVSPost2010Prop55
280
     0
102
RTVSPost2010PropOp55
 70
     1
102
RTVSPost2010Prop56
140
1.0
102
RTVSPost2010PropOp56
 70
     0
102
RTVSPost2010Prop57
140
1.0
102
RTVSPost2010PropOp57
 70
     0
  0
XRECORD
  5
9222C
102
{ACAD_REACTORS
330
87B2A
102
}
330
87B2A
100
AcDbXrecord
280
     1
102
RTVSPropertyOp0
 70
     1
102
RTVSPropertyOp1
 70
     1
102
RTVSPropertyOp2
 70
     1
102
RTVSPropertyOp3
 70
     1
102
RTVSPropertyOp4
 70
     1
102
RTVSPropertyOp5
 70
     1
102
RTVSPropertyOp6
 70
     1
102
RTVSPropertyOp7
 70
     1
102
RTVSPropertyOp8
 70
     1
102
RTVSPropertyOp9
 70
     1
102
RTVSPropertyOp10
 70
     1
102
RTVSPropertyOp11
 70
     1
102
RTVSPropertyOp12
 70
     1
102
RTVSPropertyOp13
 70
     1
102
RTVSPropertyOp14
 70
     1
102
RTVSPropertyOp15
 70
     1
102
RTVSPropertyOp16
 70
     1
102
RTVSPropertyOp17
 70
     1
102
RTVSPropertyOp18
 70
     1
102
RTVSPropertyOp19
 70
     1
102
RTVSPropertyOp20
 70
     1
102
RTVSPropertyOp21
 70
     1
102
RTVSPropertyOp22
 70
     1
102
RTVSPropertyOp23
 70
     1
102
RTVSPropertyOp24
 70
     1
102
RTVSPropertyOp25
 70
     1
102
RTVSPropertyOp26
 70
     1
102
RTVSPropertyOp27
 70
     1
102
RTVSPropertyOp28
 70
     1
102
RTVSPropertyOp29
 70
     1
102
RTVSPropertyOp30
 70
     1
102
RTVSPropertyOp31
 70
     1
102
RTVSPropertyOp32
 70
     1
102
RTVSPropertyOp33
 70
     1
102
RTVSPropertyOp34
 70
     1
102
RTVSPropertyOp35
 70
     1
102
RTVSPropertyOp36
 70
     1
102
RTVSPropertyOp37
 70
     1
102
RTVSPropertyOp38
 70
     1
102
RTVSPropertyOp39
 70
     1
102
RTVSPropertyOp40
 70
     1
102
RTVSPropertyOp41
 70
     1
102
RTVSPropertyOp42
 70
     1
102
RTVSPropertyOp43
 70
     1
102
RTVSPropertyOp44
 70
     1
102
RTVSPropertyOp45
 70
     1
102
RTVSPropertyOp46
 70
     1
102
RTVSPropertyOp47
 70
     1
102
RTVSPropertyOp48
 70
     1
102
RTVSPropertyOp49
 70
     1
102
RTVSPropertyOp50
 70
     1
102
RTVSPropertyOp51
 70
     0
102
RTVSPropertyOp52
 70
     0
102
RTVSPropertyOp53
 70
     1
102
RTVSPropertyOp54
 70
     1
102
RTVSPropertyOp55
 70
     1
102
RTVSPropertyOp56
 70
     1
102
RTVSPropertyOp57
 70
     1
102
RTVSPost2010Prop28
280
     0
102
RTVSPost2010PropOp28
 70
     1
102
RTVSPost2010Prop29
280
     1
102
RTVSPost2010PropOp29
 70
     1
102
RTVSPost2010Prop30
280
     1
102
RTVSPost2010PropOp30
 70
     1
102
RTVSPost2010Prop31
280
     0
102
RTVSPost2010PropOp31
 70
     1
102
RTVSPost2010Prop32
280
     0
102
RTVSPost2010PropOp32
 70
     1
102
RTVSPost2010Prop33
280
     0
102
RTVSPost2010PropOp33
 70
     1
102
RTVSPost2010Prop34
280
     0
102
RTVSPost2010PropOp34
 70
     1
102
RTVSPost2010Prop35
280
     0
102
RTVSPost2010PropOp35
 70
     1
102
RTVSPost2010Prop36
280
     0
102
RTVSPost2010PropOp36
 70
     1
102
RTVSPost2010Prop37
 90
       50
102
RTVSPost2010PropOp37
 70
     1
102
RTVSPost2010Prop38
140
0.0
102
RTVSPost2010PropOp38
 70
     1
102
RTVSPost2010Prop39
140
1.0
102
RTVSPost2010PropOp39
 70
     1
102
RTVSPost2010Prop40
 90
        0
102
RTVSPost2010PropOp40
 70
     1
102
RTVSPost2010Prop41ColorIndex
 90
       18
102
RTVSPost2010Prop41ColorRGB
 90
        0
102
RTVSPost2010PropOp41
 70
     1
102
RTVSPost2010Prop42
 90
       50
102
RTVSPost2010PropOp42
 70
     1
102
RTVSPost2010Prop43
 90
        3
102
RTVSPost2010PropOp43
 70
     1
102
RTVSPost2010Prop44ColorIndex
 90
        5
102
RTVSPost2010Prop44ColorRGB
 90
      255
102
RTVSPost2010PropOp44
 70
     1
102
RTVSPost2010Prop45
280
     0
102
RTVSPost2010PropOp45
 70
     1
102
RTVSPost2010Prop46
 90
       50
102
RTVSPost2010PropOp46
 70
     1
102
RTVSPost2010Prop47
 90
       50
102
RTVSPost2010PropOp47
 70
     1
102
RTVSPost2010Prop48
 90
       50
102
RTVSPost2010PropOp48
 70
     1
102
RTVSPost2010Prop49
280
     0
102
RTVSPost2010PropOp49
 70
     1
102
RTVSPost2010Prop50
 90
       50
102
RTVSPost2010PropOp50
 70
     1
102
RTVSPost2010Prop51ColorIndex
 90
      256
102
RTVSPost2010Prop51ColorRGB
 90
-16777216
102
RTVSPost2010PropOp51
 70
     0
102
RTVSPost2010Prop52
140
1.0
102
RTVSPost2010PropOp52
 70
     0
102
RTVSPost2010Prop53
 90
        2
102
RTVSPost2010PropOp53
 70
     1
102
RTVSPost2010Prop54
  1
strokes_ogs.tif
102
RTVSPost2010PropOp54
 70
     1
102
RTVSPost2010Prop55
280
     0
102
RTVSPost2010PropOp55
 70
     1
102
RTVSPost2010Prop56
140
1.0
102
RTVSPost2010PropOp56
 70
     1
102
RTVSPost2010Prop57
140
1.0
102
RTVSPost2010PropOp57
 70
     1
  0
XRECORD
  5
9222D
102
{ACAD_REACTORS
330
87B0E
102
}
330
87B0E
100
AcDbXrecord
280
     1
102
RTVSPropertyOp0
 70
     1
102
RTVSPropertyOp1
 70
     1
102
RTVSPropertyOp2
 70
     1
102
RTVSPropertyOp3
 70
     1
102
RTVSPropertyOp4
 70
     1
102
RTVSPropertyOp5
 70
     1
102
RTVSPropertyOp6
 70
     1
102
RTVSPropertyOp7
 70
     1
102
RTVSPropertyOp8
 70
     1
102
RTVSPropertyOp9
 70
     1
102
RTVSPropertyOp10
 70
     1
102
RTVSPropertyOp11
 70
     1
102
RTVSPropertyOp12
 70
     1
102
RTVSPropertyOp13
 70
     1
102
RTVSPropertyOp14
 70
     1
102
RTVSPropertyOp15
 70
     1
102
RTVSPropertyOp16
 70
     1
102
RTVSPropertyOp17
 70
     1
102
RTVSPropertyOp18
 70
     1
102
RTVSPropertyOp19
 70
     1
102
RTVSPropertyOp20
 70
     1
102
RTVSPropertyOp21
 70
     1
102
RTVSPropertyOp22
 70
     1
102
RTVSPropertyOp23
 70
     1
102
RTVSPropertyOp24
 70
     1
102
RTVSPropertyOp25
 70
     1
102
RTVSPropertyOp26
 70
     1
102
RTVSPropertyOp27
 70
     1
102
RTVSPropertyOp28
 70
     1
102
RTVSPropertyOp29
 70
     1
102
RTVSPropertyOp30
 70
     1
102
RTVSPropertyOp31
 70
     1
102
RTVSPropertyOp32
 70
     1
102
RTVSPropertyOp33
 70
     1
102
RTVSPropertyOp34
 70
     1
102
RTVSPropertyOp35
 70
     1
102
RTVSPropertyOp36
 70
     1
102
RTVSPropertyOp37
 70
     1
102
RTVSPropertyOp38
 70
     1
102
RTVSPropertyOp39
 70
     1
102
RTVSPropertyOp40
 70
     1
102
RTVSPropertyOp41
 70
     1
102
RTVSPropertyOp42
 70
     1
102
RTVSPropertyOp43
 70
     1
102
RTVSPropertyOp44
 70
     1
102
RTVSPropertyOp45
 70
     1
102
RTVSPropertyOp46
 70
     1
102
RTVSPropertyOp47
 70
     1
102
RTVSPropertyOp48
 70
     1
102
RTVSPropertyOp49
 70
     1
102
RTVSPropertyOp50
 70
     1
102
RTVSPropertyOp51
 70
     0
102
RTVSPropertyOp52
 70
     0
102
RTVSPropertyOp53
 70
     1
102
RTVSPropertyOp54
 70
     1
102
RTVSPropertyOp55
 70
     1
102
RTVSPropertyOp56
 70
     1
102
RTVSPropertyOp57
 70
     1
102
RTVSPost2010Prop28
280
     0
102
RTVSPost2010PropOp28
 70
     1
102
RTVSPost2010Prop29
280
     1
102
RTVSPost2010PropOp29
 70
     1
102
RTVSPost2010Prop30
280
     1
102
RTVSPost2010PropOp30
 70
     1
102
RTVSPost2010Prop31
280
     0
102
RTVSPost2010PropOp31
 70
     1
102
RTVSPost2010Prop32
280
     0
102
RTVSPost2010PropOp32
 70
     1
102
RTVSPost2010Prop33
280
     0
102
RTVSPost2010PropOp33
 70
     1
102
RTVSPost2010Prop34
280
     0
102
RTVSPost2010PropOp34
 70
     1
102
RTVSPost2010Prop35
280
     0
102
RTVSPost2010PropOp35
 70
     1
102
RTVSPost2010Prop36
280
     0
102
RTVSPost2010PropOp36
 70
     1
102
RTVSPost2010Prop37
 90
       50
102
RTVSPost2010PropOp37
 70
     1
102
RTVSPost2010Prop38
140
0.0
102
RTVSPost2010PropOp38
 70
     1
102
RTVSPost2010Prop39
140
1.0
102
RTVSPost2010PropOp39
 70
     1
102
RTVSPost2010Prop40
 90
        0
102
RTVSPost2010PropOp40
 70
     1
102
RTVSPost2010Prop41ColorIndex
 90
       18
102
RTVSPost2010Prop41ColorRGB
 90
        0
102
RTVSPost2010PropOp41
 70
     1
102
RTVSPost2010Prop42
 90
       50
102
RTVSPost2010PropOp42
 70
     1
102
RTVSPost2010Prop43
 90
        3
102
RTVSPost2010PropOp43
 70
     1
102
RTVSPost2010Prop44ColorIndex
 90
        5
102
RTVSPost2010Prop44ColorRGB
 90
      255
102
RTVSPost2010PropOp44
 70
     1
102
RTVSPost2010Prop45
280
     0
102
RTVSPost2010PropOp45
 70
     1
102
RTVSPost2010Prop46
 90
       50
102
RTVSPost2010PropOp46
 70
     1
102
RTVSPost2010Prop47
 90
       50
102
RTVSPost2010PropOp47
 70
     1
102
RTVSPost2010Prop48
 90
       50
102
RTVSPost2010PropOp48
 70
     1
102
RTVSPost2010Prop49
280
     0
102
RTVSPost2010PropOp49
 70
     1
102
RTVSPost2010Prop50
 90
       50
102
RTVSPost2010PropOp50
 70
     1
102
RTVSPost2010Prop51ColorIndex
 90
      256
102
RTVSPost2010Prop51ColorRGB
 90
-16777216
102
RTVSPost2010PropOp51
 70
     0
102
RTVSPost2010Prop52
140
1.0
102
RTVSPost2010PropOp52
 70
     0
102
RTVSPost2010Prop53
 90
        2
102
RTVSPost2010PropOp53
 70
     1
102
RTVSPost2010Prop54
  1
strokes_ogs.tif
102
RTVSPost2010PropOp54
 70
     1
102
RTVSPost2010Prop55
280
     0
102
RTVSPost2010PropOp55
 70
     1
102
RTVSPost2010Prop56
140
1.0
102
RTVSPost2010PropOp56
 70
     1
102
RTVSPost2010Prop57
140
1.0
102
RTVSPost2010PropOp57
 70
     1
  0
XRECORD
  5
9222E
102
{ACAD_REACTORS
330
87B10
102
}
330
87B10
100
AcDbXrecord
280
     1
102
RTVSPropertyOp0
 70
     1
102
RTVSPropertyOp1
 70
     1
102
RTVSPropertyOp2
 70
     1
102
RTVSPropertyOp3
 70
     1
102
RTVSPropertyOp4
 70
     1
102
RTVSPropertyOp5
 70
     1
102
RTVSPropertyOp6
 70
     1
102
RTVSPropertyOp7
 70
     1
102
RTVSPropertyOp8
 70
     1
102
RTVSPropertyOp9
 70
     1
102
RTVSPropertyOp10
 70
     1
102
RTVSPropertyOp11
 70
     1
102
RTVSPropertyOp12
 70
     1
102
RTVSPropertyOp13
 70
     1
102
RTVSPropertyOp14
 70
     1
102
RTVSPropertyOp15
 70
     1
102
RTVSPropertyOp16
 70
     1
102
RTVSPropertyOp17
 70
     1
102
RTVSPropertyOp18
 70
     1
102
RTVSPropertyOp19
 70
     1
102
RTVSPropertyOp20
 70
     1
102
RTVSPropertyOp21
 70
     1
102
RTVSPropertyOp22
 70
     1
102
RTVSPropertyOp23
 70
     1
102
RTVSPropertyOp24
 70
     1
102
RTVSPropertyOp25
 70
     1
102
RTVSPropertyOp26
 70
     1
102
RTVSPropertyOp27
 70
     1
102
RTVSPropertyOp28
 70
     1
102
RTVSPropertyOp29
 70
     1
102
RTVSPropertyOp30
 70
     1
102
RTVSPropertyOp31
 70
     1
102
RTVSPropertyOp32
 70
     1
102
RTVSPropertyOp33
 70
     1
102
RTVSPropertyOp34
 70
     1
102
RTVSPropertyOp35
 70
     1
102
RTVSPropertyOp36
 70
     1
102
RTVSPropertyOp37
 70
     1
102
RTVSPropertyOp38
 70
     1
102
RTVSPropertyOp39
 70
     1
102
RTVSPropertyOp40
 70
     1
102
RTVSPropertyOp41
 70
     1
102
RTVSPropertyOp42
 70
     1
102
RTVSPropertyOp43
 70
     1
102
RTVSPropertyOp44
 70
     1
102
RTVSPropertyOp45
 70
     1
102
RTVSPropertyOp46
 70
     1
102
RTVSPropertyOp47
 70
     1
102
RTVSPropertyOp48
 70
     1
102
RTVSPropertyOp49
 70
     1
102
RTVSPropertyOp50
 70
     1
102
RTVSPropertyOp51
 70
     0
102
RTVSPropertyOp52
 70
     0
102
RTVSPropertyOp53
 70
     1
102
RTVSPropertyOp54
 70
     1
102
RTVSPropertyOp55
 70
     1
102
RTVSPropertyOp56
 70
     1
102
RTVSPropertyOp57
 70
     1
102
RTVSPost2010Prop28
280
     0
102
RTVSPost2010PropOp28
 70
     1
102
RTVSPost2010Prop29
280
     1
102
RTVSPost2010PropOp29
 70
     1
102
RTVSPost2010Prop30
280
     1
102
RTVSPost2010PropOp30
 70
     1
102
RTVSPost2010Prop31
280
     0
102
RTVSPost2010PropOp31
 70
     1
102
RTVSPost2010Prop32
280
     0
102
RTVSPost2010PropOp32
 70
     1
102
RTVSPost2010Prop33
280
     0
102
RTVSPost2010PropOp33
 70
     1
102
RTVSPost2010Prop34
280
     0
102
RTVSPost2010PropOp34
 70
     1
102
RTVSPost2010Prop35
280
     0
102
RTVSPost2010PropOp35
 70
     1
102
RTVSPost2010Prop36
280
     0
102
RTVSPost2010PropOp36
 70
     1
102
RTVSPost2010Prop37
 90
       50
102
RTVSPost2010PropOp37
 70
     1
102
RTVSPost2010Prop38
140
0.0
102
RTVSPost2010PropOp38
 70
     1
102
RTVSPost2010Prop39
140
1.0
102
RTVSPost2010PropOp39
 70
     1
102
RTVSPost2010Prop40
 90
        0
102
RTVSPost2010PropOp40
 70
     1
102
RTVSPost2010Prop41ColorIndex
 90
       18
102
RTVSPost2010Prop41ColorRGB
 90
        0
102
RTVSPost2010PropOp41
 70
     1
102
RTVSPost2010Prop42
 90
       50
102
RTVSPost2010PropOp42
 70
     1
102
RTVSPost2010Prop43
 90
        3
102
RTVSPost2010PropOp43
 70
     1
102
RTVSPost2010Prop44ColorIndex
 90
        5
102
RTVSPost2010Prop44ColorRGB
 90
      255
102
RTVSPost2010PropOp44
 70
     1
102
RTVSPost2010Prop45
280
     0
102
RTVSPost2010PropOp45
 70
     1
102
RTVSPost2010Prop46
 90
       50
102
RTVSPost2010PropOp46
 70
     1
102
RTVSPost2010Prop47
 90
       50
102
RTVSPost2010PropOp47
 70
     1
102
RTVSPost2010Prop48
 90
       50
102
RTVSPost2010PropOp48
 70
     1
102
RTVSPost2010Prop49
280
     0
102
RTVSPost2010PropOp49
 70
     1
102
RTVSPost2010Prop50
 90
       50
102
RTVSPost2010PropOp50
 70
     1
102
RTVSPost2010Prop51ColorIndex
 90
      256
102
RTVSPost2010Prop51ColorRGB
 90
-16777216
102
RTVSPost2010PropOp51
 70
     0
102
RTVSPost2010Prop52
140
1.0
102
RTVSPost2010PropOp52
 70
     0
102
RTVSPost2010Prop53
 90
        2
102
RTVSPost2010PropOp53
 70
     1
102
RTVSPost2010Prop54
  1
strokes_ogs.tif
102
RTVSPost2010PropOp54
 70
     1
102
RTVSPost2010Prop55
280
     0
102
RTVSPost2010PropOp55
 70
     1
102
RTVSPost2010Prop56
140
1.0
102
RTVSPost2010PropOp56
 70
     1
102
RTVSPost2010Prop57
140
1.0
102
RTVSPost2010PropOp57
 70
     1
  0
XRECORD
  5
9222F
102
{ACAD_REACTORS
330
87B12
102
}
330
87B12
100
AcDbXrecord
280
     1
102
RTVSPropertyOp0
 70
     1
102
RTVSPropertyOp1
 70
     1
102
RTVSPropertyOp2
 70
     1
102
RTVSPropertyOp3
 70
     1
102
RTVSPropertyOp4
 70
     1
102
RTVSPropertyOp5
 70
     1
102
RTVSPropertyOp6
 70
     1
102
RTVSPropertyOp7
 70
     1
102
RTVSPropertyOp8
 70
     1
102
RTVSPropertyOp9
 70
     1
102
RTVSPropertyOp10
 70
     1
102
RTVSPropertyOp11
 70
     1
102
RTVSPropertyOp12
 70
     1
102
RTVSPropertyOp13
 70
     1
102
RTVSPropertyOp14
 70
     1
102
RTVSPropertyOp15
 70
     1
102
RTVSPropertyOp16
 70
     1
102
RTVSPropertyOp17
 70
     1
102
RTVSPropertyOp18
 70
     1
102
RTVSPropertyOp19
 70
     1
102
RTVSPropertyOp20
 70
     1
102
RTVSPropertyOp21
 70
     1
102
RTVSPropertyOp22
 70
     1
102
RTVSPropertyOp23
 70
     1
102
RTVSPropertyOp24
 70
     1
102
RTVSPropertyOp25
 70
     1
102
RTVSPropertyOp26
 70
     1
102
RTVSPropertyOp27
 70
     1
102
RTVSPropertyOp28
 70
     1
102
RTVSPropertyOp29
 70
     1
102
RTVSPropertyOp30
 70
     1
102
RTVSPropertyOp31
 70
     1
102
RTVSPropertyOp32
 70
     1
102
RTVSPropertyOp33
 70
     1
102
RTVSPropertyOp34
 70
     1
102
RTVSPropertyOp35
 70
     1
102
RTVSPropertyOp36
 70
     1
102
RTVSPropertyOp37
 70
     1
102
RTVSPropertyOp38
 70
     1
102
RTVSPropertyOp39
 70
     1
102
RTVSPropertyOp40
 70
     1
102
RTVSPropertyOp41
 70
     1
102
RTVSPropertyOp42
 70
     1
102
RTVSPropertyOp43
 70
     1
102
RTVSPropertyOp44
 70
     1
102
RTVSPropertyOp45
 70
     1
102
RTVSPropertyOp46
 70
     1
102
RTVSPropertyOp47
 70
     1
102
RTVSPropertyOp48
 70
     1
102
RTVSPropertyOp49
 70
     1
102
RTVSPropertyOp50
 70
     1
102
RTVSPropertyOp51
 70
     0
102
RTVSPropertyOp52
 70
     0
102
RTVSPropertyOp53
 70
     1
102
RTVSPropertyOp54
 70
     1
102
RTVSPropertyOp55
 70
     1
102
RTVSPropertyOp56
 70
     1
102
RTVSPropertyOp57
 70
     1
102
RTVSPost2010Prop28
280
     0
102
RTVSPost2010PropOp28
 70
     1
102
RTVSPost2010Prop29
280
     1
102
RTVSPost2010PropOp29
 70
     1
102
RTVSPost2010Prop30
280
     1
102
RTVSPost2010PropOp30
 70
     1
102
RTVSPost2010Prop31
280
     0
102
RTVSPost2010PropOp31
 70
     1
102
RTVSPost2010Prop32
280
     0
102
RTVSPost2010PropOp32
 70
     1
102
RTVSPost2010Prop33
280
     0
102
RTVSPost2010PropOp33
 70
     1
102
RTVSPost2010Prop34
280
     0
102
RTVSPost2010PropOp34
 70
     1
102
RTVSPost2010Prop35
280
     0
102
RTVSPost2010PropOp35
 70
     1
102
RTVSPost2010Prop36
280
     0
102
RTVSPost2010PropOp36
 70
     1
102
RTVSPost2010Prop37
 90
       50
102
RTVSPost2010PropOp37
 70
     1
102
RTVSPost2010Prop38
140
0.0
102
RTVSPost2010PropOp38
 70
     1
102
RTVSPost2010Prop39
140
1.0
102
RTVSPost2010PropOp39
 70
     1
102
RTVSPost2010Prop40
 90
        0
102
RTVSPost2010PropOp40
 70
     1
102
RTVSPost2010Prop41ColorIndex
 90
       18
102
RTVSPost2010Prop41ColorRGB
 90
        0
102
RTVSPost2010PropOp41
 70
     1
102
RTVSPost2010Prop42
 90
       50
102
RTVSPost2010PropOp42
 70
     1
102
RTVSPost2010Prop43
 90
        3
102
RTVSPost2010PropOp43
 70
     1
102
RTVSPost2010Prop44ColorIndex
 90
        5
102
RTVSPost2010Prop44ColorRGB
 90
      255
102
RTVSPost2010PropOp44
 70
     1
102
RTVSPost2010Prop45
280
     0
102
RTVSPost2010PropOp45
 70
     1
102
RTVSPost2010Prop46
 90
       50
102
RTVSPost2010PropOp46
 70
     1
102
RTVSPost2010Prop47
 90
       50
102
RTVSPost2010PropOp47
 70
     1
102
RTVSPost2010Prop48
 90
       50
102
RTVSPost2010PropOp48
 70
     1
102
RTVSPost2010Prop49
280
     0
102
RTVSPost2010PropOp49
 70
     1
102
RTVSPost2010Prop50
 90
       50
102
RTVSPost2010PropOp50
 70
     1
102
RTVSPost2010Prop51ColorIndex
 90
      256
102
RTVSPost2010Prop51ColorRGB
 90
-16777216
102
RTVSPost2010PropOp51
 70
     0
102
RTVSPost2010Prop52
140
1.0
102
RTVSPost2010PropOp52
 70
     0
102
RTVSPost2010Prop53
 90
        2
102
RTVSPost2010PropOp53
 70
     1
102
RTVSPost2010Prop54
  1
strokes_ogs.tif
102
RTVSPost2010PropOp54
 70
     1
102
RTVSPost2010Prop55
280
     0
102
RTVSPost2010PropOp55
 70
     1
102
RTVSPost2010Prop56
140
1.0
102
RTVSPost2010PropOp56
 70
     1
102
RTVSPost2010Prop57
140
1.0
102
RTVSPost2010PropOp57
 70
     1
  0
XRECORD
  5
92230
102
{ACAD_REACTORS
330
87B14
102
}
330
87B14
100
AcDbXrecord
280
     1
102
RTVSPropertyOp0
 70
     1
102
RTVSPropertyOp1
 70
     1
102
RTVSPropertyOp2
 70
     1
102
RTVSPropertyOp3
 70
     1
102
RTVSPropertyOp4
 70
     1
102
RTVSPropertyOp5
 70
     1
102
RTVSPropertyOp6
 70
     1
102
RTVSPropertyOp7
 70
     1
102
RTVSPropertyOp8
 70
     1
102
RTVSPropertyOp9
 70
     1
102
RTVSPropertyOp10
 70
     1
102
RTVSPropertyOp11
 70
     1
102
RTVSPropertyOp12
 70
     1
102
RTVSPropertyOp13
 70
     1
102
RTVSPropertyOp14
 70
     1
102
RTVSPropertyOp15
 70
     1
102
RTVSPropertyOp16
 70
     1
102
RTVSPropertyOp17
 70
     1
102
RTVSPropertyOp18
 70
     1
102
RTVSPropertyOp19
 70
     1
102
RTVSPropertyOp20
 70
     1
102
RTVSPropertyOp21
 70
     1
102
RTVSPropertyOp22
 70
     1
102
RTVSPropertyOp23
 70
     1
102
RTVSPropertyOp24
 70
     1
102
RTVSPropertyOp25
 70
     1
102
RTVSPropertyOp26
 70
     1
102
RTVSPropertyOp27
 70
     1
102
RTVSPropertyOp28
 70
     1
102
RTVSPropertyOp29
 70
     1
102
RTVSPropertyOp30
 70
     1
102
RTVSPropertyOp31
 70
     1
102
RTVSPropertyOp32
 70
     1
102
RTVSPropertyOp33
 70
     1
102
RTVSPropertyOp34
 70
     1
102
RTVSPropertyOp35
 70
     1
102
RTVSPropertyOp36
 70
     1
102
RTVSPropertyOp37
 70
     1
102
RTVSPropertyOp38
 70
     1
102
RTVSPropertyOp39
 70
     1
102
RTVSPropertyOp40
 70
     1
102
RTVSPropertyOp41
 70
     1
102
RTVSPropertyOp42
 70
     1
102
RTVSPropertyOp43
 70
     1
102
RTVSPropertyOp44
 70
     1
102
RTVSPropertyOp45
 70
     1
102
RTVSPropertyOp46
 70
     1
102
RTVSPropertyOp47
 70
     1
102
RTVSPropertyOp48
 70
     1
102
RTVSPropertyOp49
 70
     1
102
RTVSPropertyOp50
 70
     1
102
RTVSPropertyOp51
 70
     0
102
RTVSPropertyOp52
 70
     0
102
RTVSPropertyOp53
 70
     1
102
RTVSPropertyOp54
 70
     1
102
RTVSPropertyOp55
 70
     1
102
RTVSPropertyOp56
 70
     1
102
RTVSPropertyOp57
 70
     1
102
RTVSPost2010Prop28
280
     0
102
RTVSPost2010PropOp28
 70
     1
102
RTVSPost2010Prop29
280
     1
102
RTVSPost2010PropOp29
 70
     1
102
RTVSPost2010Prop30
280
     1
102
RTVSPost2010PropOp30
 70
     1
102
RTVSPost2010Prop31
280
     0
102
RTVSPost2010PropOp31
 70
     1
102
RTVSPost2010Prop32
280
     0
102
RTVSPost2010PropOp32
 70
     1
102
RTVSPost2010Prop33
280
     0
102
RTVSPost2010PropOp33
 70
     1
102
RTVSPost2010Prop34
280
     0
102
RTVSPost2010PropOp34
 70
     1
102
RTVSPost2010Prop35
280
     0
102
RTVSPost2010PropOp35
 70
     1
102
RTVSPost2010Prop36
280
     0
102
RTVSPost2010PropOp36
 70
     1
102
RTVSPost2010Prop37
 90
       50
102
RTVSPost2010PropOp37
 70
     1
102
RTVSPost2010Prop38
140
0.0
102
RTVSPost2010PropOp38
 70
     1
102
RTVSPost2010Prop39
140
1.0
102
RTVSPost2010PropOp39
 70
     1
102
RTVSPost2010Prop40
 90
        0
102
RTVSPost2010PropOp40
 70
     1
102
RTVSPost2010Prop41ColorIndex
 90
       18
102
RTVSPost2010Prop41ColorRGB
 90
        0
102
RTVSPost2010PropOp41
 70
     1
102
RTVSPost2010Prop42
 90
       50
102
RTVSPost2010PropOp42
 70
     1
102
RTVSPost2010Prop43
 90
        3
102
RTVSPost2010PropOp43
 70
     1
102
RTVSPost2010Prop44ColorIndex
 90
        5
102
RTVSPost2010Prop44ColorRGB
 90
      255
102
RTVSPost2010PropOp44
 70
     1
102
RTVSPost2010Prop45
280
     0
102
RTVSPost2010PropOp45
 70
     1
102
RTVSPost2010Prop46
 90
       50
102
RTVSPost2010PropOp46
 70
     1
102
RTVSPost2010Prop47
 90
       50
102
RTVSPost2010PropOp47
 70
     1
102
RTVSPost2010Prop48
 90
       50
102
RTVSPost2010PropOp48
 70
     1
102
RTVSPost2010Prop49
280
     0
102
RTVSPost2010PropOp49
 70
     1
102
RTVSPost2010Prop50
 90
       50
102
RTVSPost2010PropOp50
 70
     1
102
RTVSPost2010Prop51ColorIndex
 90
      256
102
RTVSPost2010Prop51ColorRGB
 90
-16777216
102
RTVSPost2010PropOp51
 70
     0
102
RTVSPost2010Prop52
140
1.0
102
RTVSPost2010PropOp52
 70
     0
102
RTVSPost2010Prop53
 90
        2
102
RTVSPost2010PropOp53
 70
     1
102
RTVSPost2010Prop54
  1
strokes_ogs.tif
102
RTVSPost2010PropOp54
 70
     1
102
RTVSPost2010Prop55
280
     0
102
RTVSPost2010PropOp55
 70
     1
102
RTVSPost2010Prop56
140
1.0
102
RTVSPost2010PropOp56
 70
     1
102
RTVSPost2010Prop57
140
1.0
102
RTVSPost2010PropOp57
 70
     1
  0
XRECORD
  5
92231
102
{ACAD_REACTORS
330
87B1C
102
}
330
87B1C
100
AcDbXrecord
280
     1
102
RTVSPropertyOp0
 70
     1
102
RTVSPropertyOp1
 70
     1
102
RTVSPropertyOp2
 70
     1
102
RTVSPropertyOp3
 70
     1
102
RTVSPropertyOp4
 70
     1
102
RTVSPropertyOp5
 70
     1
102
RTVSPropertyOp6
 70
     1
102
RTVSPropertyOp7
 70
     1
102
RTVSPropertyOp8
 70
     1
102
RTVSPropertyOp9
 70
     1
102
RTVSPropertyOp10
 70
     1
102
RTVSPropertyOp11
 70
     1
102
RTVSPropertyOp12
 70
     1
102
RTVSPropertyOp13
 70
     1
102
RTVSPropertyOp14
 70
     1
102
RTVSPropertyOp15
 70
     1
102
RTVSPropertyOp16
 70
     1
102
RTVSPropertyOp17
 70
     1
102
RTVSPropertyOp18
 70
     1
102
RTVSPropertyOp19
 70
     1
102
RTVSPropertyOp20
 70
     1
102
RTVSPropertyOp21
 70
     1
102
RTVSPropertyOp22
 70
     1
102
RTVSPropertyOp23
 70
     1
102
RTVSPropertyOp24
 70
     1
102
RTVSPropertyOp25
 70
     1
102
RTVSPropertyOp26
 70
     1
102
RTVSPropertyOp27
 70
     1
102
RTVSPropertyOp28
 70
     1
102
RTVSPropertyOp29
 70
     1
102
RTVSPropertyOp30
 70
     1
102
RTVSPropertyOp31
 70
     1
102
RTVSPropertyOp32
 70
     1
102
RTVSPropertyOp33
 70
     1
102
RTVSPropertyOp34
 70
     1
102
RTVSPropertyOp35
 70
     1
102
RTVSPropertyOp36
 70
     1
102
RTVSPropertyOp37
 70
     1
102
RTVSPropertyOp38
 70
     1
102
RTVSPropertyOp39
 70
     1
102
RTVSPropertyOp40
 70
     1
102
RTVSPropertyOp41
 70
     1
102
RTVSPropertyOp42
 70
     1
102
RTVSPropertyOp43
 70
     1
102
RTVSPropertyOp44
 70
     1
102
RTVSPropertyOp45
 70
     1
102
RTVSPropertyOp46
 70
     1
102
RTVSPropertyOp47
 70
     1
102
RTVSPropertyOp48
 70
     1
102
RTVSPropertyOp49
 70
     1
102
RTVSPropertyOp50
 70
     1
102
RTVSPropertyOp51
 70
     0
102
RTVSPropertyOp52
 70
     0
102
RTVSPropertyOp53
 70
     1
102
RTVSPropertyOp54
 70
     1
102
RTVSPropertyOp55
 70
     1
102
RTVSPropertyOp56
 70
     1
102
RTVSPropertyOp57
 70
     1
102
RTVSPost2010Prop28
280
     0
102
RTVSPost2010PropOp28
 70
     1
102
RTVSPost2010Prop29
280
     1
102
RTVSPost2010PropOp29
 70
     1
102
RTVSPost2010Prop30
280
     1
102
RTVSPost2010PropOp30
 70
     1
102
RTVSPost2010Prop31
280
     0
102
RTVSPost2010PropOp31
 70
     1
102
RTVSPost2010Prop32
280
     0
102
RTVSPost2010PropOp32
 70
     1
102
RTVSPost2010Prop33
280
     0
102
RTVSPost2010PropOp33
 70
     1
102
RTVSPost2010Prop34
280
     0
102
RTVSPost2010PropOp34
 70
     1
102
RTVSPost2010Prop35
280
     0
102
RTVSPost2010PropOp35
 70
     1
102
RTVSPost2010Prop36
280
     0
102
RTVSPost2010PropOp36
 70
     1
102
RTVSPost2010Prop37
 90
       50
102
RTVSPost2010PropOp37
 70
     1
102
RTVSPost2010Prop38
140
0.0
102
RTVSPost2010PropOp38
 70
     1
102
RTVSPost2010Prop39
140
1.0
102
RTVSPost2010PropOp39
 70
     1
102
RTVSPost2010Prop40
 90
        0
102
RTVSPost2010PropOp40
 70
     1
102
RTVSPost2010Prop41ColorIndex
 90
       18
102
RTVSPost2010Prop41ColorRGB
 90
        0
102
RTVSPost2010PropOp41
 70
     1
102
RTVSPost2010Prop42
 90
       50
102
RTVSPost2010PropOp42
 70
     1
102
RTVSPost2010Prop43
 90
        3
102
RTVSPost2010PropOp43
 70
     1
102
RTVSPost2010Prop44ColorIndex
 90
        5
102
RTVSPost2010Prop44ColorRGB
 90
      255
102
RTVSPost2010PropOp44
 70
     1
102
RTVSPost2010Prop45
280
     0
102
RTVSPost2010PropOp45
 70
     1
102
RTVSPost2010Prop46
 90
       50
102
RTVSPost2010PropOp46
 70
     1
102
RTVSPost2010Prop47
 90
       50
102
RTVSPost2010PropOp47
 70
     1
102
RTVSPost2010Prop48
 90
       50
102
RTVSPost2010PropOp48
 70
     1
102
RTVSPost2010Prop49
280
     0
102
RTVSPost2010PropOp49
 70
     1
102
RTVSPost2010Prop50
 90
       50
102
RTVSPost2010PropOp50
 70
     1
102
RTVSPost2010Prop51ColorIndex
 90
      256
102
RTVSPost2010Prop51ColorRGB
 90
-16777216
102
RTVSPost2010PropOp51
 70
     0
102
RTVSPost2010Prop52
140
1.0
102
RTVSPost2010PropOp52
 70
     0
102
RTVSPost2010Prop53
 90
        2
102
RTVSPost2010PropOp53
 70
     1
102
RTVSPost2010Prop54
  1
strokes_ogs.tif
102
RTVSPost2010PropOp54
 70
     1
102
RTVSPost2010Prop55
280
     0
102
RTVSPost2010PropOp55
 70
     1
102
RTVSPost2010Prop56
140
1.0
102
RTVSPost2010PropOp56
 70
     1
102
RTVSPost2010Prop57
140
1.0
102
RTVSPost2010PropOp57
 70
     1
  0
XRECORD
  5
92232
102
{ACAD_REACTORS
330
87B38
102
}
330
87B38
100
AcDbXrecord
280
     1
102
RTVSPropertyOp0
 70
     0
102
RTVSPropertyOp1
 70
     0
102
RTVSPropertyOp2
 70
     0
102
RTVSPropertyOp3
 70
     0
102
RTVSPropertyOp4
 70
     0
102
RTVSPropertyOp5
 70
     0
102
RTVSPropertyOp6
 70
     0
102
RTVSPropertyOp7
 70
     0
102
RTVSPropertyOp8
 70
     0
102
RTVSPropertyOp9
 70
     0
102
RTVSPropertyOp10
 70
     0
102
RTVSPropertyOp11
 70
     0
102
RTVSPropertyOp12
 70
     0
102
RTVSPropertyOp13
 70
     0
102
RTVSPropertyOp14
 70
     2
102
RTVSPropertyOp15
 70
     0
102
RTVSPropertyOp16
 70
     0
102
RTVSPropertyOp17
 70
     0
102
RTVSPropertyOp18
 70
     0
102
RTVSPropertyOp19
 70
     0
102
RTVSPropertyOp20
 70
     0
102
RTVSPropertyOp21
 70
     0
102
RTVSPropertyOp22
 70
     0
102
RTVSPropertyOp23
 70
     0
102
RTVSPropertyOp24
 70
     0
102
RTVSPropertyOp25
 70
     0
102
RTVSPropertyOp26
 70
     0
102
RTVSPropertyOp27
 70
     0
102
RTVSPropertyOp28
 70
     1
102
RTVSPropertyOp29
 70
     1
102
RTVSPropertyOp30
 70
     1
102
RTVSPropertyOp31
 70
     1
102
RTVSPropertyOp32
 70
     1
102
RTVSPropertyOp33
 70
     1
102
RTVSPropertyOp34
 70
     1
102
RTVSPropertyOp35
 70
     1
102
RTVSPropertyOp36
 70
     1
102
RTVSPropertyOp37
 70
     0
102
RTVSPropertyOp38
 70
     0
102
RTVSPropertyOp39
 70
     0
102
RTVSPropertyOp40
 70
     0
102
RTVSPropertyOp41
 70
     0
102
RTVSPropertyOp42
 70
     0
102
RTVSPropertyOp43
 70
     0
102
RTVSPropertyOp44
 70
     0
102
RTVSPropertyOp45
 70
     1
102
RTVSPropertyOp46
 70
     0
102
RTVSPropertyOp47
 70
     0
102
RTVSPropertyOp48
 70
     0
102
RTVSPropertyOp49
 70
     1
102
RTVSPropertyOp50
 70
     0
102
RTVSPropertyOp51
 70
     0
102
RTVSPropertyOp52
 70
     0
102
RTVSPropertyOp53
 70
     0
102
RTVSPropertyOp54
 70
     0
102
RTVSPropertyOp55
 70
     1
102
RTVSPropertyOp56
 70
     0
102
RTVSPropertyOp57
 70
     0
102
RTVSPost2010Prop28
280
     0
102
RTVSPost2010PropOp28
 70
     1
102
RTVSPost2010Prop29
280
     1
102
RTVSPost2010PropOp29
 70
     1
102
RTVSPost2010Prop30
280
     1
102
RTVSPost2010PropOp30
 70
     1
102
RTVSPost2010Prop31
280
     0
102
RTVSPost2010PropOp31
 70
     1
102
RTVSPost2010Prop32
280
     0
102
RTVSPost2010PropOp32
 70
     1
102
RTVSPost2010Prop33
280
     0
102
RTVSPost2010PropOp33
 70
     1
102
RTVSPost2010Prop34
280
     0
102
RTVSPost2010PropOp34
 70
     1
102
RTVSPost2010Prop35
280
     0
102
RTVSPost2010PropOp35
 70
     1
102
RTVSPost2010Prop36
280
     0
102
RTVSPost2010PropOp36
 70
     1
102
RTVSPost2010Prop37
 90
       50
102
RTVSPost2010PropOp37
 70
     0
102
RTVSPost2010Prop38
140
0.0
102
RTVSPost2010PropOp38
 70
     0
102
RTVSPost2010Prop39
140
1.0
102
RTVSPost2010PropOp39
 70
     0
102
RTVSPost2010Prop40
 90
        0
102
RTVSPost2010PropOp40
 70
     0
102
RTVSPost2010Prop41ColorIndex
 90
       18
102
RTVSPost2010Prop41ColorRGB
 90
        0
102
RTVSPost2010PropOp41
 70
     0
102
RTVSPost2010Prop42
 90
       50
102
RTVSPost2010PropOp42
 70
     0
102
RTVSPost2010Prop43
 90
        3
102
RTVSPost2010PropOp43
 70
     0
102
RTVSPost2010Prop44ColorIndex
 90
        5
102
RTVSPost2010Prop44ColorRGB
 90
      255
102
RTVSPost2010PropOp44
 70
     0
102
RTVSPost2010Prop45
280
     0
102
RTVSPost2010PropOp45
 70
     1
102
RTVSPost2010Prop46
 90
       50
102
RTVSPost2010PropOp46
 70
     0
102
RTVSPost2010Prop47
 90
       50
102
RTVSPost2010PropOp47
 70
     0
102
RTVSPost2010Prop48
 90
       50
102
RTVSPost2010PropOp48
 70
     0
102
RTVSPost2010Prop49
280
     0
102
RTVSPost2010PropOp49
 70
     1
102
RTVSPost2010Prop50
 90
       50
102
RTVSPost2010PropOp50
 70
     0
102
RTVSPost2010Prop51ColorIndex
 90
      256
102
RTVSPost2010Prop51ColorRGB
 90
-16777216
102
RTVSPost2010PropOp51
 70
     0
102
RTVSPost2010Prop52
140
1.0
102
RTVSPost2010PropOp52
 70
     0
102
RTVSPost2010Prop53
 90
        2
102
RTVSPost2010PropOp53
 70
     0
102
RTVSPost2010Prop54
  1
strokes_ogs.tif
102
RTVSPost2010PropOp54
 70
     0
102
RTVSPost2010Prop55
280
     0
102
RTVSPost2010PropOp55
 70
     1
102
RTVSPost2010Prop56
140
1.0
102
RTVSPost2010PropOp56
 70
     0
102
RTVSPost2010Prop57
140
1.0
102
RTVSPost2010PropOp57
 70
     0
  0
XRECORD
  5
92233
102
{ACAD_REACTORS
330
87B28
102
}
330
87B28
100
AcDbXrecord
280
     1
102
RTVSPropertyOp0
 70
     1
102
RTVSPropertyOp1
 70
     1
102
RTVSPropertyOp2
 70
     1
102
RTVSPropertyOp3
 70
     1
102
RTVSPropertyOp4
 70
     1
102
RTVSPropertyOp5
 70
     1
102
RTVSPropertyOp6
 70
     1
102
RTVSPropertyOp7
 70
     1
102
RTVSPropertyOp8
 70
     1
102
RTVSPropertyOp9
 70
     1
102
RTVSPropertyOp10
 70
     1
102
RTVSPropertyOp11
 70
     1
102
RTVSPropertyOp12
 70
     1
102
RTVSPropertyOp13
 70
     1
102
RTVSPropertyOp14
 70
     1
102
RTVSPropertyOp15
 70
     1
102
RTVSPropertyOp16
 70
     1
102
RTVSPropertyOp17
 70
     1
102
RTVSPropertyOp18
 70
     1
102
RTVSPropertyOp19
 70
     1
102
RTVSPropertyOp20
 70
     1
102
RTVSPropertyOp21
 70
     1
102
RTVSPropertyOp22
 70
     1
102
RTVSPropertyOp23
 70
     1
102
RTVSPropertyOp24
 70
     1
102
RTVSPropertyOp25
 70
     1
102
RTVSPropertyOp26
 70
     1
102
RTVSPropertyOp27
 70
     1
102
RTVSPropertyOp28
 70
     1
102
RTVSPropertyOp29
 70
     1
102
RTVSPropertyOp30
 70
     1
102
RTVSPropertyOp31
 70
     1
102
RTVSPropertyOp32
 70
     1
102
RTVSPropertyOp33
 70
     1
102
RTVSPropertyOp34
 70
     1
102
RTVSPropertyOp35
 70
     1
102
RTVSPropertyOp36
 70
     1
102
RTVSPropertyOp37
 70
     1
102
RTVSPropertyOp38
 70
     1
102
RTVSPropertyOp39
 70
     1
102
RTVSPropertyOp40
 70
     1
102
RTVSPropertyOp41
 70
     1
102
RTVSPropertyOp42
 70
     1
102
RTVSPropertyOp43
 70
     1
102
RTVSPropertyOp44
 70
     1
102
RTVSPropertyOp45
 70
     1
102
RTVSPropertyOp46
 70
     1
102
RTVSPropertyOp47
 70
     1
102
RTVSPropertyOp48
 70
     1
102
RTVSPropertyOp49
 70
     1
102
RTVSPropertyOp50
 70
     1
102
RTVSPropertyOp51
 70
     0
102
RTVSPropertyOp52
 70
     0
102
RTVSPropertyOp53
 70
     1
102
RTVSPropertyOp54
 70
     1
102
RTVSPropertyOp55
 70
     1
102
RTVSPropertyOp56
 70
     1
102
RTVSPropertyOp57
 70
     1
102
RTVSPost2010Prop28
280
     0
102
RTVSPost2010PropOp28
 70
     1
102
RTVSPost2010Prop29
280
     1
102
RTVSPost2010PropOp29
 70
     1
102
RTVSPost2010Prop30
280
     1
102
RTVSPost2010PropOp30
 70
     1
102
RTVSPost2010Prop31
280
     0
102
RTVSPost2010PropOp31
 70
     1
102
RTVSPost2010Prop32
280
     0
102
RTVSPost2010PropOp32
 70
     1
102
RTVSPost2010Prop33
280
     0
102
RTVSPost2010PropOp33
 70
     1
102
RTVSPost2010Prop34
280
     0
102
RTVSPost2010PropOp34
 70
     1
102
RTVSPost2010Prop35
280
     0
102
RTVSPost2010PropOp35
 70
     1
102
RTVSPost2010Prop36
280
     0
102
RTVSPost2010PropOp36
 70
     1
102
RTVSPost2010Prop37
 90
       50
102
RTVSPost2010PropOp37
 70
     1
102
RTVSPost2010Prop38
140
0.0
102
RTVSPost2010PropOp38
 70
     1
102
RTVSPost2010Prop39
140
1.0
102
RTVSPost2010PropOp39
 70
     1
102
RTVSPost2010Prop40
 90
        0
102
RTVSPost2010PropOp40
 70
     1
102
RTVSPost2010Prop41ColorIndex
 90
       18
102
RTVSPost2010Prop41ColorRGB
 90
        0
102
RTVSPost2010PropOp41
 70
     1
102
RTVSPost2010Prop42
 90
       50
102
RTVSPost2010PropOp42
 70
     1
102
RTVSPost2010Prop43
 90
        3
102
RTVSPost2010PropOp43
 70
     1
102
RTVSPost2010Prop44ColorIndex
 90
        5
102
RTVSPost2010Prop44ColorRGB
 90
      255
102
RTVSPost2010PropOp44
 70
     1
102
RTVSPost2010Prop45
280
     0
102
RTVSPost2010PropOp45
 70
     1
102
RTVSPost2010Prop46
 90
       50
102
RTVSPost2010PropOp46
 70
     1
102
RTVSPost2010Prop47
 90
       50
102
RTVSPost2010PropOp47
 70
     1
102
RTVSPost2010Prop48
 90
       50
102
RTVSPost2010PropOp48
 70
     1
102
RTVSPost2010Prop49
280
     0
102
RTVSPost2010PropOp49
 70
     1
102
RTVSPost2010Prop50
 90
       50
102
RTVSPost2010PropOp50
 70
     1
102
RTVSPost2010Prop51ColorIndex
 90
      256
102
RTVSPost2010Prop51ColorRGB
 90
-16777216
102
RTVSPost2010PropOp51
 70
     0
102
RTVSPost2010Prop52
140
1.0
102
RTVSPost2010PropOp52
 70
     0
102
RTVSPost2010Prop53
 90
        2
102
RTVSPost2010PropOp53
 70
     1
102
RTVSPost2010Prop54
  1
strokes_ogs.tif
102
RTVSPost2010PropOp54
 70
     1
102
RTVSPost2010Prop55
280
     0
102
RTVSPost2010PropOp55
 70
     1
102
RTVSPost2010Prop56
140
1.0
102
RTVSPost2010PropOp56
 70
     1
102
RTVSPost2010Prop57
140
1.0
102
RTVSPost2010PropOp57
 70
     1
  0
XRECORD
  5
92234
102
{ACAD_REACTORS
330
87B3A
102
}
330
87B3A
100
AcDbXrecord
280
     1
102
RTVSPropertyOp0
 70
     0
102
RTVSPropertyOp1
 70
     0
102
RTVSPropertyOp2
 70
     0
102
RTVSPropertyOp3
 70
     0
102
RTVSPropertyOp4
 70
     0
102
RTVSPropertyOp5
 70
     0
102
RTVSPropertyOp6
 70
     0
102
RTVSPropertyOp7
 70
     0
102
RTVSPropertyOp8
 70
     0
102
RTVSPropertyOp9
 70
     0
102
RTVSPropertyOp10
 70
     0
102
RTVSPropertyOp11
 70
     0
102
RTVSPropertyOp12
 70
     0
102
RTVSPropertyOp13
 70
     0
102
RTVSPropertyOp14
 70
     2
102
RTVSPropertyOp15
 70
     0
102
RTVSPropertyOp16
 70
     0
102
RTVSPropertyOp17
 70
     0
102
RTVSPropertyOp18
 70
     0
102
RTVSPropertyOp19
 70
     0
102
RTVSPropertyOp20
 70
     0
102
RTVSPropertyOp21
 70
     0
102
RTVSPropertyOp22
 70
     0
102
RTVSPropertyOp23
 70
     0
102
RTVSPropertyOp24
 70
     0
102
RTVSPropertyOp25
 70
     0
102
RTVSPropertyOp26
 70
     0
102
RTVSPropertyOp27
 70
     0
102
RTVSPropertyOp28
 70
     1
102
RTVSPropertyOp29
 70
     1
102
RTVSPropertyOp30
 70
     1
102
RTVSPropertyOp31
 70
     1
102
RTVSPropertyOp32
 70
     1
102
RTVSPropertyOp33
 70
     1
102
RTVSPropertyOp34
 70
     1
102
RTVSPropertyOp35
 70
     1
102
RTVSPropertyOp36
 70
     1
102
RTVSPropertyOp37
 70
     0
102
RTVSPropertyOp38
 70
     0
102
RTVSPropertyOp39
 70
     0
102
RTVSPropertyOp40
 70
     0
102
RTVSPropertyOp41
 70
     0
102
RTVSPropertyOp42
 70
     0
102
RTVSPropertyOp43
 70
     0
102
RTVSPropertyOp44
 70
     0
102
RTVSPropertyOp45
 70
     1
102
RTVSPropertyOp46
 70
     0
102
RTVSPropertyOp47
 70
     0
102
RTVSPropertyOp48
 70
     0
102
RTVSPropertyOp49
 70
     1
102
RTVSPropertyOp50
 70
     0
102
RTVSPropertyOp51
 70
     0
102
RTVSPropertyOp52
 70
     0
102
RTVSPropertyOp53
 70
     0
102
RTVSPropertyOp54
 70
     0
102
RTVSPropertyOp55
 70
     1
102
RTVSPropertyOp56
 70
     0
102
RTVSPropertyOp57
 70
     0
102
RTVSPost2010Prop28
280
     0
102
RTVSPost2010PropOp28
 70
     1
102
RTVSPost2010Prop29
280
     1
102
RTVSPost2010PropOp29
 70
     1
102
RTVSPost2010Prop30
280
     1
102
RTVSPost2010PropOp30
 70
     1
102
RTVSPost2010Prop31
280
     0
102
RTVSPost2010PropOp31
 70
     1
102
RTVSPost2010Prop32
280
     0
102
RTVSPost2010PropOp32
 70
     1
102
RTVSPost2010Prop33
280
     0
102
RTVSPost2010PropOp33
 70
     1
102
RTVSPost2010Prop34
280
     0
102
RTVSPost2010PropOp34
 70
     1
102
RTVSPost2010Prop35
280
     0
102
RTVSPost2010PropOp35
 70
     1
102
RTVSPost2010Prop36
280
     0
102
RTVSPost2010PropOp36
 70
     1
102
RTVSPost2010Prop37
 90
       50
102
RTVSPost2010PropOp37
 70
     0
102
RTVSPost2010Prop38
140
0.0
102
RTVSPost2010PropOp38
 70
     0
102
RTVSPost2010Prop39
140
1.0
102
RTVSPost2010PropOp39
 70
     0
102
RTVSPost2010Prop40
 90
        0
102
RTVSPost2010PropOp40
 70
     0
102
RTVSPost2010Prop41ColorIndex
 90
       18
102
RTVSPost2010Prop41ColorRGB
 90
        0
102
RTVSPost2010PropOp41
 70
     0
102
RTVSPost2010Prop42
 90
       50
102
RTVSPost2010PropOp42
 70
     0
102
RTVSPost2010Prop43
 90
        3
102
RTVSPost2010PropOp43
 70
     0
102
RTVSPost2010Prop44ColorIndex
 90
        5
102
RTVSPost2010Prop44ColorRGB
 90
      255
102
RTVSPost2010PropOp44
 70
     0
102
RTVSPost2010Prop45
280
     0
102
RTVSPost2010PropOp45
 70
     1
102
RTVSPost2010Prop46
 90
       50
102
RTVSPost2010PropOp46
 70
     0
102
RTVSPost2010Prop47
 90
       50
102
RTVSPost2010PropOp47
 70
     0
102
RTVSPost2010Prop48
 90
       50
102
RTVSPost2010PropOp48
 70
     0
102
RTVSPost2010Prop49
280
     0
102
RTVSPost2010PropOp49
 70
     1
102
RTVSPost2010Prop50
 90
       50
102
RTVSPost2010PropOp50
 70
     0
102
RTVSPost2010Prop51ColorIndex
 90
      256
102
RTVSPost2010Prop51ColorRGB
 90
-16777216
102
RTVSPost2010PropOp51
 70
     0
102
RTVSPost2010Prop52
140
1.0
102
RTVSPost2010PropOp52
 70
     0
102
RTVSPost2010Prop53
 90
        2
102
RTVSPost2010PropOp53
 70
     0
102
RTVSPost2010Prop54
  1
strokes_ogs.tif
102
RTVSPost2010PropOp54
 70
     0
102
RTVSPost2010Prop55
280
     0
102
RTVSPost2010PropOp55
 70
     1
102
RTVSPost2010Prop56
140
1.0
102
RTVSPost2010PropOp56
 70
     0
102
RTVSPost2010Prop57
140
1.0
102
RTVSPost2010PropOp57
 70
     0
  0
XRECORD
  5
92235
102
{ACAD_REACTORS
330
87B20
102
}
330
87B20
100
AcDbXrecord
280
     1
102
RTVSPropertyOp0
 70
     1
102
RTVSPropertyOp1
 70
     1
102
RTVSPropertyOp2
 70
     1
102
RTVSPropertyOp3
 70
     1
102
RTVSPropertyOp4
 70
     1
102
RTVSPropertyOp5
 70
     1
102
RTVSPropertyOp6
 70
     1
102
RTVSPropertyOp7
 70
     1
102
RTVSPropertyOp8
 70
     1
102
RTVSPropertyOp9
 70
     1
102
RTVSPropertyOp10
 70
     1
102
RTVSPropertyOp11
 70
     1
102
RTVSPropertyOp12
 70
     1
102
RTVSPropertyOp13
 70
     1
102
RTVSPropertyOp14
 70
     1
102
RTVSPropertyOp15
 70
     1
102
RTVSPropertyOp16
 70
     1
102
RTVSPropertyOp17
 70
     1
102
RTVSPropertyOp18
 70
     1
102
RTVSPropertyOp19
 70
     1
102
RTVSPropertyOp20
 70
     1
102
RTVSPropertyOp21
 70
     1
102
RTVSPropertyOp22
 70
     1
102
RTVSPropertyOp23
 70
     1
102
RTVSPropertyOp24
 70
     1
102
RTVSPropertyOp25
 70
     1
102
RTVSPropertyOp26
 70
     1
102
RTVSPropertyOp27
 70
     1
102
RTVSPropertyOp28
 70
     1
102
RTVSPropertyOp29
 70
     1
102
RTVSPropertyOp30
 70
     1
102
RTVSPropertyOp31
 70
     1
102
RTVSPropertyOp32
 70
     1
102
RTVSPropertyOp33
 70
     1
102
RTVSPropertyOp34
 70
     1
102
RTVSPropertyOp35
 70
     1
102
RTVSPropertyOp36
 70
     1
102
RTVSPropertyOp37
 70
     1
102
RTVSPropertyOp38
 70
     1
102
RTVSPropertyOp39
 70
     1
102
RTVSPropertyOp40
 70
     1
102
RTVSPropertyOp41
 70
     1
102
RTVSPropertyOp42
 70
     1
102
RTVSPropertyOp43
 70
     1
102
RTVSPropertyOp44
 70
     1
102
RTVSPropertyOp45
 70
     1
102
RTVSPropertyOp46
 70
     1
102
RTVSPropertyOp47
 70
     1
102
RTVSPropertyOp48
 70
     1
102
RTVSPropertyOp49
 70
     1
102
RTVSPropertyOp50
 70
     1
102
RTVSPropertyOp51
 70
     0
102
RTVSPropertyOp52
 70
     0
102
RTVSPropertyOp53
 70
     1
102
RTVSPropertyOp54
 70
     1
102
RTVSPropertyOp55
 70
     1
102
RTVSPropertyOp56
 70
     1
102
RTVSPropertyOp57
 70
     1
102
RTVSPost2010Prop28
280
     0
102
RTVSPost2010PropOp28
 70
     1
102
RTVSPost2010Prop29
280
     1
102
RTVSPost2010PropOp29
 70
     1
102
RTVSPost2010Prop30
280
     1
102
RTVSPost2010PropOp30
 70
     1
102
RTVSPost2010Prop31
280
     0
102
RTVSPost2010PropOp31
 70
     1
102
RTVSPost2010Prop32
280
     0
102
RTVSPost2010PropOp32
 70
     1
102
RTVSPost2010Prop33
280
     0
102
RTVSPost2010PropOp33
 70
     1
102
RTVSPost2010Prop34
280
     0
102
RTVSPost2010PropOp34
 70
     1
102
RTVSPost2010Prop35
280
     0
102
RTVSPost2010PropOp35
 70
     1
102
RTVSPost2010Prop36
280
     0
102
RTVSPost2010PropOp36
 70
     1
102
RTVSPost2010Prop37
 90
       50
102
RTVSPost2010PropOp37
 70
     1
102
RTVSPost2010Prop38
140
0.0
102
RTVSPost2010PropOp38
 70
     1
102
RTVSPost2010Prop39
140
1.0
102
RTVSPost2010PropOp39
 70
     1
102
RTVSPost2010Prop40
 90
        0
102
RTVSPost2010PropOp40
 70
     1
102
RTVSPost2010Prop41ColorIndex
 90
       18
102
RTVSPost2010Prop41ColorRGB
 90
        0
102
RTVSPost2010PropOp41
 70
     1
102
RTVSPost2010Prop42
 90
       50
102
RTVSPost2010PropOp42
 70
     1
102
RTVSPost2010Prop43
 90
        3
102
RTVSPost2010PropOp43
 70
     1
102
RTVSPost2010Prop44ColorIndex
 90
        5
102
RTVSPost2010Prop44ColorRGB
 90
      255
102
RTVSPost2010PropOp44
 70
     1
102
RTVSPost2010Prop45
280
     0
102
RTVSPost2010PropOp45
 70
     1
102
RTVSPost2010Prop46
 90
       50
102
RTVSPost2010PropOp46
 70
     1
102
RTVSPost2010Prop47
 90
       50
102
RTVSPost2010PropOp47
 70
     1
102
RTVSPost2010Prop48
 90
       50
102
RTVSPost2010PropOp48
 70
     1
102
RTVSPost2010Prop49
280
     0
102
RTVSPost2010PropOp49
 70
     1
102
RTVSPost2010Prop50
 90
       50
102
RTVSPost2010PropOp50
 70
     1
102
RTVSPost2010Prop51ColorIndex
 90
      256
102
RTVSPost2010Prop51ColorRGB
 90
-16777216
102
RTVSPost2010PropOp51
 70
     0
102
RTVSPost2010Prop52
140
1.0
102
RTVSPost2010PropOp52
 70
     0
102
RTVSPost2010Prop53
 90
        2
102
RTVSPost2010PropOp53
 70
     1
102
RTVSPost2010Prop54
  1
strokes_ogs.tif
102
RTVSPost2010PropOp54
 70
     1
102
RTVSPost2010Prop55
280
     0
102
RTVSPost2010PropOp55
 70
     1
102
RTVSPost2010Prop56
140
1.0
102
RTVSPost2010PropOp56
 70
     1
102
RTVSPost2010Prop57
140
1.0
102
RTVSPost2010PropOp57
 70
     1
  0
XRECORD
  5
92236
102
{ACAD_REACTORS
330
87B36
102
}
330
87B36
100
AcDbXrecord
280
     1
102
RTVSPropertyOp0
 70
     1
102
RTVSPropertyOp1
 70
     1
102
RTVSPropertyOp2
 70
     1
102
RTVSPropertyOp3
 70
     1
102
RTVSPropertyOp4
 70
     1
102
RTVSPropertyOp5
 70
     1
102
RTVSPropertyOp6
 70
     1
102
RTVSPropertyOp7
 70
     1
102
RTVSPropertyOp8
 70
     1
102
RTVSPropertyOp9
 70
     1
102
RTVSPropertyOp10
 70
     1
102
RTVSPropertyOp11
 70
     1
102
RTVSPropertyOp12
 70
     1
102
RTVSPropertyOp13
 70
     1
102
RTVSPropertyOp14
 70
     1
102
RTVSPropertyOp15
 70
     1
102
RTVSPropertyOp16
 70
     1
102
RTVSPropertyOp17
 70
     1
102
RTVSPropertyOp18
 70
     1
102
RTVSPropertyOp19
 70
     1
102
RTVSPropertyOp20
 70
     1
102
RTVSPropertyOp21
 70
     1
102
RTVSPropertyOp22
 70
     1
102
RTVSPropertyOp23
 70
     1
102
RTVSPropertyOp24
 70
     1
102
RTVSPropertyOp25
 70
     1
102
RTVSPropertyOp26
 70
     1
102
RTVSPropertyOp27
 70
     1
102
RTVSPropertyOp28
 70
     1
102
RTVSPropertyOp29
 70
     1
102
RTVSPropertyOp30
 70
     1
102
RTVSPropertyOp31
 70
     1
102
RTVSPropertyOp32
 70
     1
102
RTVSPropertyOp33
 70
     1
102
RTVSPropertyOp34
 70
     1
102
RTVSPropertyOp35
 70
     1
102
RTVSPropertyOp36
 70
     1
102
RTVSPropertyOp37
 70
     1
102
RTVSPropertyOp38
 70
     1
102
RTVSPropertyOp39
 70
     1
102
RTVSPropertyOp40
 70
     1
102
RTVSPropertyOp41
 70
     1
102
RTVSPropertyOp42
 70
     1
102
RTVSPropertyOp43
 70
     1
102
RTVSPropertyOp44
 70
     1
102
RTVSPropertyOp45
 70
     1
102
RTVSPropertyOp46
 70
     1
102
RTVSPropertyOp47
 70
     1
102
RTVSPropertyOp48
 70
     1
102
RTVSPropertyOp49
 70
     1
102
RTVSPropertyOp50
 70
     1
102
RTVSPropertyOp51
 70
     0
102
RTVSPropertyOp52
 70
     0
102
RTVSPropertyOp53
 70
     1
102
RTVSPropertyOp54
 70
     1
102
RTVSPropertyOp55
 70
     1
102
RTVSPropertyOp56
 70
     1
102
RTVSPropertyOp57
 70
     1
102
RTVSPost2010Prop28
280
     0
102
RTVSPost2010PropOp28
 70
     1
102
RTVSPost2010Prop29
280
     1
102
RTVSPost2010PropOp29
 70
     1
102
RTVSPost2010Prop30
280
     1
102
RTVSPost2010PropOp30
 70
     1
102
RTVSPost2010Prop31
280
     0
102
RTVSPost2010PropOp31
 70
     1
102
RTVSPost2010Prop32
280
     0
102
RTVSPost2010PropOp32
 70
     1
102
RTVSPost2010Prop33
280
     0
102
RTVSPost2010PropOp33
 70
     1
102
RTVSPost2010Prop34
280
     0
102
RTVSPost2010PropOp34
 70
     1
102
RTVSPost2010Prop35
280
     0
102
RTVSPost2010PropOp35
 70
     1
102
RTVSPost2010Prop36
280
     0
102
RTVSPost2010PropOp36
 70
     1
102
RTVSPost2010Prop37
 90
       50
102
RTVSPost2010PropOp37
 70
     1
102
RTVSPost2010Prop38
140
0.0
102
RTVSPost2010PropOp38
 70
     1
102
RTVSPost2010Prop39
140
1.0
102
RTVSPost2010PropOp39
 70
     1
102
RTVSPost2010Prop40
 90
        0
102
RTVSPost2010PropOp40
 70
     1
102
RTVSPost2010Prop41ColorIndex
 90
       18
102
RTVSPost2010Prop41ColorRGB
 90
        0
102
RTVSPost2010PropOp41
 70
     1
102
RTVSPost2010Prop42
 90
       50
102
RTVSPost2010PropOp42
 70
     1
102
RTVSPost2010Prop43
 90
        3
102
RTVSPost2010PropOp43
 70
     1
102
RTVSPost2010Prop44ColorIndex
 90
        5
102
RTVSPost2010Prop44ColorRGB
 90
      255
102
RTVSPost2010PropOp44
 70
     1
102
RTVSPost2010Prop45
280
     0
102
RTVSPost2010PropOp45
 70
     1
102
RTVSPost2010Prop46
 90
       50
102
RTVSPost2010PropOp46
 70
     1
102
RTVSPost2010Prop47
 90
       50
102
RTVSPost2010PropOp47
 70
     1
102
RTVSPost2010Prop48
 90
       50
102
RTVSPost2010PropOp48
 70
     1
102
RTVSPost2010Prop49
280
     0
102
RTVSPost2010PropOp49
 70
     1
102
RTVSPost2010Prop50
 90
       50
102
RTVSPost2010PropOp50
 70
     1
102
RTVSPost2010Prop51ColorIndex
 90
      256
102
RTVSPost2010Prop51ColorRGB
 90
-16777216
102
RTVSPost2010PropOp51
 70
     0
102
RTVSPost2010Prop52
140
1.0
102
RTVSPost2010PropOp52
 70
     0
102
RTVSPost2010Prop53
 90
        2
102
RTVSPost2010PropOp53
 70
     1
102
RTVSPost2010Prop54
  1
strokes_ogs.tif
102
RTVSPost2010PropOp54
 70
     1
102
RTVSPost2010Prop55
280
     0
102
RTVSPost2010PropOp55
 70
     1
102
RTVSPost2010Prop56
140
1.0
102
RTVSPost2010PropOp56
 70
     1
102
RTVSPost2010Prop57
140
1.0
102
RTVSPost2010PropOp57
 70
     1
  0
XRECORD
  5
92237
102
{ACAD_REACTORS
330
87B34
102
}
330
87B34
100
AcDbXrecord
280
     1
102
RTVSPropertyOp0
 70
     1
102
RTVSPropertyOp1
 70
     1
102
RTVSPropertyOp2
 70
     1
102
RTVSPropertyOp3
 70
     1
102
RTVSPropertyOp4
 70
     1
102
RTVSPropertyOp5
 70
     1
102
RTVSPropertyOp6
 70
     1
102
RTVSPropertyOp7
 70
     1
102
RTVSPropertyOp8
 70
     1
102
RTVSPropertyOp9
 70
     1
102
RTVSPropertyOp10
 70
     1
102
RTVSPropertyOp11
 70
     1
102
RTVSPropertyOp12
 70
     1
102
RTVSPropertyOp13
 70
     1
102
RTVSPropertyOp14
 70
     1
102
RTVSPropertyOp15
 70
     1
102
RTVSPropertyOp16
 70
     1
102
RTVSPropertyOp17
 70
     1
102
RTVSPropertyOp18
 70
     1
102
RTVSPropertyOp19
 70
     1
102
RTVSPropertyOp20
 70
     1
102
RTVSPropertyOp21
 70
     1
102
RTVSPropertyOp22
 70
     1
102
RTVSPropertyOp23
 70
     1
102
RTVSPropertyOp24
 70
     1
102
RTVSPropertyOp25
 70
     1
102
RTVSPropertyOp26
 70
     1
102
RTVSPropertyOp27
 70
     1
102
RTVSPropertyOp28
 70
     1
102
RTVSPropertyOp29
 70
     1
102
RTVSPropertyOp30
 70
     1
102
RTVSPropertyOp31
 70
     1
102
RTVSPropertyOp32
 70
     1
102
RTVSPropertyOp33
 70
     1
102
RTVSPropertyOp34
 70
     1
102
RTVSPropertyOp35
 70
     1
102
RTVSPropertyOp36
 70
     1
102
RTVSPropertyOp37
 70
     1
102
RTVSPropertyOp38
 70
     1
102
RTVSPropertyOp39
 70
     1
102
RTVSPropertyOp40
 70
     1
102
RTVSPropertyOp41
 70
     1
102
RTVSPropertyOp42
 70
     1
102
RTVSPropertyOp43
 70
     1
102
RTVSPropertyOp44
 70
     1
102
RTVSPropertyOp45
 70
     1
102
RTVSPropertyOp46
 70
     1
102
RTVSPropertyOp47
 70
     1
102
RTVSPropertyOp48
 70
     1
102
RTVSPropertyOp49
 70
     1
102
RTVSPropertyOp50
 70
     1
102
RTVSPropertyOp51
 70
     0
102
RTVSPropertyOp52
 70
     0
102
RTVSPropertyOp53
 70
     1
102
RTVSPropertyOp54
 70
     1
102
RTVSPropertyOp55
 70
     1
102
RTVSPropertyOp56
 70
     1
102
RTVSPropertyOp57
 70
     1
102
RTVSPost2010Prop28
280
     0
102
RTVSPost2010PropOp28
 70
     1
102
RTVSPost2010Prop29
280
     1
102
RTVSPost2010PropOp29
 70
     1
102
RTVSPost2010Prop30
280
     1
102
RTVSPost2010PropOp30
 70
     1
102
RTVSPost2010Prop31
280
     0
102
RTVSPost2010PropOp31
 70
     1
102
RTVSPost2010Prop32
280
     0
102
RTVSPost2010PropOp32
 70
     1
102
RTVSPost2010Prop33
280
     0
102
RTVSPost2010PropOp33
 70
     1
102
RTVSPost2010Prop34
280
     0
102
RTVSPost2010PropOp34
 70
     1
102
RTVSPost2010Prop35
280
     0
102
RTVSPost2010PropOp35
 70
     1
102
RTVSPost2010Prop36
280
     0
102
RTVSPost2010PropOp36
 70
     1
102
RTVSPost2010Prop37
 90
       50
102
RTVSPost2010PropOp37
 70
     1
102
RTVSPost2010Prop38
140
0.0
102
RTVSPost2010PropOp38
 70
     1
102
RTVSPost2010Prop39
140
1.0
102
RTVSPost2010PropOp39
 70
     1
102
RTVSPost2010Prop40
 90
        0
102
RTVSPost2010PropOp40
 70
     1
102
RTVSPost2010Prop41ColorIndex
 90
       18
102
RTVSPost2010Prop41ColorRGB
 90
        0
102
RTVSPost2010PropOp41
 70
     1
102
RTVSPost2010Prop42
 90
       50
102
RTVSPost2010PropOp42
 70
     1
102
RTVSPost2010Prop43
 90
        3
102
RTVSPost2010PropOp43
 70
     1
102
RTVSPost2010Prop44ColorIndex
 90
        5
102
RTVSPost2010Prop44ColorRGB
 90
      255
102
RTVSPost2010PropOp44
 70
     1
102
RTVSPost2010Prop45
280
     0
102
RTVSPost2010PropOp45
 70
     1
102
RTVSPost2010Prop46
 90
       50
102
RTVSPost2010PropOp46
 70
     1
102
RTVSPost2010Prop47
 90
       50
102
RTVSPost2010PropOp47
 70
     1
102
RTVSPost2010Prop48
 90
       50
102
RTVSPost2010PropOp48
 70
     1
102
RTVSPost2010Prop49
280
     0
102
RTVSPost2010PropOp49
 70
     1
102
RTVSPost2010Prop50
 90
       50
102
RTVSPost2010PropOp50
 70
     1
102
RTVSPost2010Prop51ColorIndex
 90
      256
102
RTVSPost2010Prop51ColorRGB
 90
-16777216
102
RTVSPost2010PropOp51
 70
     0
102
RTVSPost2010Prop52
140
1.0
102
RTVSPost2010PropOp52
 70
     0
102
RTVSPost2010Prop53
 90
        2
102
RTVSPost2010PropOp53
 70
     1
102
RTVSPost2010Prop54
  1
strokes_ogs.tif
102
RTVSPost2010PropOp54
 70
     1
102
RTVSPost2010Prop55
280
     0
102
RTVSPost2010PropOp55
 70
     1
102
RTVSPost2010Prop56
140
1.0
102
RTVSPost2010PropOp56
 70
     1
102
RTVSPost2010Prop57
140
1.0
102
RTVSPost2010PropOp57
 70
     1
  0
XRECORD
  5
92238
102
{ACAD_REACTORS
330
87B2E
102
}
330
87B2E
100
AcDbXrecord
280
     1
102
RTVSPropertyOp0
 70
     1
102
RTVSPropertyOp1
 70
     1
102
RTVSPropertyOp2
 70
     1
102
RTVSPropertyOp3
 70
     1
102
RTVSPropertyOp4
 70
     1
102
RTVSPropertyOp5
 70
     1
102
RTVSPropertyOp6
 70
     1
102
RTVSPropertyOp7
 70
     1
102
RTVSPropertyOp8
 70
     1
102
RTVSPropertyOp9
 70
     1
102
RTVSPropertyOp10
 70
     1
102
RTVSPropertyOp11
 70
     1
102
RTVSPropertyOp12
 70
     1
102
RTVSPropertyOp13
 70
     1
102
RTVSPropertyOp14
 70
     1
102
RTVSPropertyOp15
 70
     1
102
RTVSPropertyOp16
 70
     1
102
RTVSPropertyOp17
 70
     1
102
RTVSPropertyOp18
 70
     1
102
RTVSPropertyOp19
 70
     1
102
RTVSPropertyOp20
 70
     1
102
RTVSPropertyOp21
 70
     1
102
RTVSPropertyOp22
 70
     1
102
RTVSPropertyOp23
 70
     1
102
RTVSPropertyOp24
 70
     1
102
RTVSPropertyOp25
 70
     1
102
RTVSPropertyOp26
 70
     1
102
RTVSPropertyOp27
 70
     1
102
RTVSPropertyOp28
 70
     1
102
RTVSPropertyOp29
 70
     1
102
RTVSPropertyOp30
 70
     1
102
RTVSPropertyOp31
 70
     1
102
RTVSPropertyOp32
 70
     1
102
RTVSPropertyOp33
 70
     1
102
RTVSPropertyOp34
 70
     1
102
RTVSPropertyOp35
 70
     1
102
RTVSPropertyOp36
 70
     1
102
RTVSPropertyOp37
 70
     1
102
RTVSPropertyOp38
 70
     1
102
RTVSPropertyOp39
 70
     1
102
RTVSPropertyOp40
 70
     1
102
RTVSPropertyOp41
 70
     1
102
RTVSPropertyOp42
 70
     1
102
RTVSPropertyOp43
 70
     1
102
RTVSPropertyOp44
 70
     1
102
RTVSPropertyOp45
 70
     1
102
RTVSPropertyOp46
 70
     1
102
RTVSPropertyOp47
 70
     1
102
RTVSPropertyOp48
 70
     1
102
RTVSPropertyOp49
 70
     1
102
RTVSPropertyOp50
 70
     1
102
RTVSPropertyOp51
 70
     0
102
RTVSPropertyOp52
 70
     0
102
RTVSPropertyOp53
 70
     1
102
RTVSPropertyOp54
 70
     1
102
RTVSPropertyOp55
 70
     1
102
RTVSPropertyOp56
 70
     1
102
RTVSPropertyOp57
 70
     1
102
RTVSPost2010Prop28
280
     0
102
RTVSPost2010PropOp28
 70
     1
102
RTVSPost2010Prop29
280
     1
102
RTVSPost2010PropOp29
 70
     1
102
RTVSPost2010Prop30
280
     1
102
RTVSPost2010PropOp30
 70
     1
102
RTVSPost2010Prop31
280
     0
102
RTVSPost2010PropOp31
 70
     1
102
RTVSPost2010Prop32
280
     0
102
RTVSPost2010PropOp32
 70
     1
102
RTVSPost2010Prop33
280
     0
102
RTVSPost2010PropOp33
 70
     1
102
RTVSPost2010Prop34
280
     0
102
RTVSPost2010PropOp34
 70
     1
102
RTVSPost2010Prop35
280
     0
102
RTVSPost2010PropOp35
 70
     1
102
RTVSPost2010Prop36
280
     0
102
RTVSPost2010PropOp36
 70
     1
102
RTVSPost2010Prop37
 90
       50
102
RTVSPost2010PropOp37
 70
     1
102
RTVSPost2010Prop38
140
0.0
102
RTVSPost2010PropOp38
 70
     1
102
RTVSPost2010Prop39
140
1.0
102
RTVSPost2010PropOp39
 70
     1
102
RTVSPost2010Prop40
 90
        0
102
RTVSPost2010PropOp40
 70
     1
102
RTVSPost2010Prop41ColorIndex
 90
       18
102
RTVSPost2010Prop41ColorRGB
 90
        0
102
RTVSPost2010PropOp41
 70
     1
102
RTVSPost2010Prop42
 90
       50
102
RTVSPost2010PropOp42
 70
     1
102
RTVSPost2010Prop43
 90
        3
102
RTVSPost2010PropOp43
 70
     1
102
RTVSPost2010Prop44ColorIndex
 90
        5
102
RTVSPost2010Prop44ColorRGB
 90
      255
102
RTVSPost2010PropOp44
 70
     1
102
RTVSPost2010Prop45
280
     0
102
RTVSPost2010PropOp45
 70
     1
102
RTVSPost2010Prop46
 90
       50
102
RTVSPost2010PropOp46
 70
     1
102
RTVSPost2010Prop47
 90
       50
102
RTVSPost2010PropOp47
 70
     1
102
RTVSPost2010Prop48
 90
       50
102
RTVSPost2010PropOp48
 70
     1
102
RTVSPost2010Prop49
280
     0
102
RTVSPost2010PropOp49
 70
     1
102
RTVSPost2010Prop50
 90
       50
102
RTVSPost2010PropOp50
 70
     1
102
RTVSPost2010Prop51ColorIndex
 90
      256
102
RTVSPost2010Prop51ColorRGB
 90
-16777216
102
RTVSPost2010PropOp51
 70
     0
102
RTVSPost2010Prop52
140
1.0
102
RTVSPost2010PropOp52
 70
     0
102
RTVSPost2010Prop53
 90
        2
102
RTVSPost2010PropOp53
 70
     1
102
RTVSPost2010Prop54
  1
strokes_ogs.tif
102
RTVSPost2010PropOp54
 70
     1
102
RTVSPost2010Prop55
280
     0
102
RTVSPost2010PropOp55
 70
     1
102
RTVSPost2010Prop56
140
1.0
102
RTVSPost2010PropOp56
 70
     1
102
RTVSPost2010Prop57
140
1.0
102
RTVSPost2010PropOp57
 70
     1
  0
XRECORD
  5
92239
102
{ACAD_REACTORS
330
87B30
102
}
330
87B30
100
AcDbXrecord
280
     1
102
RTVSPropertyOp0
 70
     1
102
RTVSPropertyOp1
 70
     1
102
RTVSPropertyOp2
 70
     1
102
RTVSPropertyOp3
 70
     1
102
RTVSPropertyOp4
 70
     1
102
RTVSPropertyOp5
 70
     1
102
RTVSPropertyOp6
 70
     1
102
RTVSPropertyOp7
 70
     1
102
RTVSPropertyOp8
 70
     1
102
RTVSPropertyOp9
 70
     1
102
RTVSPropertyOp10
 70
     1
102
RTVSPropertyOp11
 70
     1
102
RTVSPropertyOp12
 70
     1
102
RTVSPropertyOp13
 70
     1
102
RTVSPropertyOp14
 70
     1
102
RTVSPropertyOp15
 70
     1
102
RTVSPropertyOp16
 70
     1
102
RTVSPropertyOp17
 70
     1
102
RTVSPropertyOp18
 70
     1
102
RTVSPropertyOp19
 70
     1
102
RTVSPropertyOp20
 70
     1
102
RTVSPropertyOp21
 70
     1
102
RTVSPropertyOp22
 70
     1
102
RTVSPropertyOp23
 70
     1
102
RTVSPropertyOp24
 70
     1
102
RTVSPropertyOp25
 70
     1
102
RTVSPropertyOp26
 70
     1
102
RTVSPropertyOp27
 70
     1
102
RTVSPropertyOp28
 70
     1
102
RTVSPropertyOp29
 70
     1
102
RTVSPropertyOp30
 70
     1
102
RTVSPropertyOp31
 70
     1
102
RTVSPropertyOp32
 70
     1
102
RTVSPropertyOp33
 70
     1
102
RTVSPropertyOp34
 70
     1
102
RTVSPropertyOp35
 70
     1
102
RTVSPropertyOp36
 70
     1
102
RTVSPropertyOp37
 70
     1
102
RTVSPropertyOp38
 70
     1
102
RTVSPropertyOp39
 70
     1
102
RTVSPropertyOp40
 70
     1
102
RTVSPropertyOp41
 70
     1
102
RTVSPropertyOp42
 70
     1
102
RTVSPropertyOp43
 70
     1
102
RTVSPropertyOp44
 70
     1
102
RTVSPropertyOp45
 70
     1
102
RTVSPropertyOp46
 70
     1
102
RTVSPropertyOp47
 70
     1
102
RTVSPropertyOp48
 70
     1
102
RTVSPropertyOp49
 70
     1
102
RTVSPropertyOp50
 70
     1
102
RTVSPropertyOp51
 70
     0
102
RTVSPropertyOp52
 70
     0
102
RTVSPropertyOp53
 70
     1
102
RTVSPropertyOp54
 70
     1
102
RTVSPropertyOp55
 70
     1
102
RTVSPropertyOp56
 70
     1
102
RTVSPropertyOp57
 70
     1
102
RTVSPost2010Prop28
280
     0
102
RTVSPost2010PropOp28
 70
     1
102
RTVSPost2010Prop29
280
     1
102
RTVSPost2010PropOp29
 70
     1
102
RTVSPost2010Prop30
280
     1
102
RTVSPost2010PropOp30
 70
     1
102
RTVSPost2010Prop31
280
     0
102
RTVSPost2010PropOp31
 70
     1
102
RTVSPost2010Prop32
280
     0
102
RTVSPost2010PropOp32
 70
     1
102
RTVSPost2010Prop33
280
     0
102
RTVSPost2010PropOp33
 70
     1
102
RTVSPost2010Prop34
280
     0
102
RTVSPost2010PropOp34
 70
     1
102
RTVSPost2010Prop35
280
     0
102
RTVSPost2010PropOp35
 70
     1
102
RTVSPost2010Prop36
280
     0
102
RTVSPost2010PropOp36
 70
     1
102
RTVSPost2010Prop37
 90
       50
102
RTVSPost2010PropOp37
 70
     1
102
RTVSPost2010Prop38
140
0.0
102
RTVSPost2010PropOp38
 70
     1
102
RTVSPost2010Prop39
140
1.0
102
RTVSPost2010PropOp39
 70
     1
102
RTVSPost2010Prop40
 90
        0
102
RTVSPost2010PropOp40
 70
     1
102
RTVSPost2010Prop41ColorIndex
 90
       18
102
RTVSPost2010Prop41ColorRGB
 90
        0
102
RTVSPost2010PropOp41
 70
     1
102
RTVSPost2010Prop42
 90
       50
102
RTVSPost2010PropOp42
 70
     1
102
RTVSPost2010Prop43
 90
        3
102
RTVSPost2010PropOp43
 70
     1
102
RTVSPost2010Prop44ColorIndex
 90
        5
102
RTVSPost2010Prop44ColorRGB
 90
      255
102
RTVSPost2010PropOp44
 70
     1
102
RTVSPost2010Prop45
280
     0
102
RTVSPost2010PropOp45
 70
     1
102
RTVSPost2010Prop46
 90
       50
102
RTVSPost2010PropOp46
 70
     1
102
RTVSPost2010Prop47
 90
       50
102
RTVSPost2010PropOp47
 70
     1
102
RTVSPost2010Prop48
 90
       50
102
RTVSPost2010PropOp48
 70
     1
102
RTVSPost2010Prop49
280
     0
102
RTVSPost2010PropOp49
 70
     1
102
RTVSPost2010Prop50
 90
       50
102
RTVSPost2010PropOp50
 70
     1
102
RTVSPost2010Prop51ColorIndex
 90
      256
102
RTVSPost2010Prop51ColorRGB
 90
-16777216
102
RTVSPost2010PropOp51
 70
     0
102
RTVSPost2010Prop52
140
1.0
102
RTVSPost2010PropOp52
 70
     0
102
RTVSPost2010Prop53
 90
        2
102
RTVSPost2010PropOp53
 70
     1
102
RTVSPost2010Prop54
  1
strokes_ogs.tif
102
RTVSPost2010PropOp54
 70
     1
102
RTVSPost2010Prop55
280
     0
102
RTVSPost2010PropOp55
 70
     1
102
RTVSPost2010Prop56
140
1.0
102
RTVSPost2010PropOp56
 70
     1
102
RTVSPost2010Prop57
140
1.0
102
RTVSPost2010PropOp57
 70
     1
  0
XRECORD
  5
9223A
102
{ACAD_REACTORS
330
87B26
102
}
330
87B26
100
AcDbXrecord
280
     1
102
RTVSPropertyOp0
 70
     1
102
RTVSPropertyOp1
 70
     1
102
RTVSPropertyOp2
 70
     1
102
RTVSPropertyOp3
 70
     1
102
RTVSPropertyOp4
 70
     1
102
RTVSPropertyOp5
 70
     1
102
RTVSPropertyOp6
 70
     1
102
RTVSPropertyOp7
 70
     1
102
RTVSPropertyOp8
 70
     1
102
RTVSPropertyOp9
 70
     1
102
RTVSPropertyOp10
 70
     1
102
RTVSPropertyOp11
 70
     1
102
RTVSPropertyOp12
 70
     1
102
RTVSPropertyOp13
 70
     1
102
RTVSPropertyOp14
 70
     1
102
RTVSPropertyOp15
 70
     1
102
RTVSPropertyOp16
 70
     1
102
RTVSPropertyOp17
 70
     1
102
RTVSPropertyOp18
 70
     1
102
RTVSPropertyOp19
 70
     1
102
RTVSPropertyOp20
 70
     1
102
RTVSPropertyOp21
 70
     1
102
RTVSPropertyOp22
 70
     1
102
RTVSPropertyOp23
 70
     1
102
RTVSPropertyOp24
 70
     1
102
RTVSPropertyOp25
 70
     1
102
RTVSPropertyOp26
 70
     1
102
RTVSPropertyOp27
 70
     1
102
RTVSPropertyOp28
 70
     1
102
RTVSPropertyOp29
 70
     1
102
RTVSPropertyOp30
 70
     1
102
RTVSPropertyOp31
 70
     1
102
RTVSPropertyOp32
 70
     1
102
RTVSPropertyOp33
 70
     1
102
RTVSPropertyOp34
 70
     1
102
RTVSPropertyOp35
 70
     1
102
RTVSPropertyOp36
 70
     1
102
RTVSPropertyOp37
 70
     1
102
RTVSPropertyOp38
 70
     1
102
RTVSPropertyOp39
 70
     1
102
RTVSPropertyOp40
 70
     1
102
RTVSPropertyOp41
 70
     1
102
RTVSPropertyOp42
 70
     1
102
RTVSPropertyOp43
 70
     1
102
RTVSPropertyOp44
 70
     1
102
RTVSPropertyOp45
 70
     1
102
RTVSPropertyOp46
 70
     1
102
RTVSPropertyOp47
 70
     1
102
RTVSPropertyOp48
 70
     1
102
RTVSPropertyOp49
 70
     1
102
RTVSPropertyOp50
 70
     1
102
RTVSPropertyOp51
 70
     0
102
RTVSPropertyOp52
 70
     0
102
RTVSPropertyOp53
 70
     1
102
RTVSPropertyOp54
 70
     1
102
RTVSPropertyOp55
 70
     1
102
RTVSPropertyOp56
 70
     1
102
RTVSPropertyOp57
 70
     1
102
RTVSPost2010Prop28
280
     0
102
RTVSPost2010PropOp28
 70
     1
102
RTVSPost2010Prop29
280
     1
102
RTVSPost2010PropOp29
 70
     1
102
RTVSPost2010Prop30
280
     1
102
RTVSPost2010PropOp30
 70
     1
102
RTVSPost2010Prop31
280
     0
102
RTVSPost2010PropOp31
 70
     1
102
RTVSPost2010Prop32
280
     0
102
RTVSPost2010PropOp32
 70
     1
102
RTVSPost2010Prop33
280
     0
102
RTVSPost2010PropOp33
 70
     1
102
RTVSPost2010Prop34
280
     0
102
RTVSPost2010PropOp34
 70
     1
102
RTVSPost2010Prop35
280
     0
102
RTVSPost2010PropOp35
 70
     1
102
RTVSPost2010Prop36
280
     0
102
RTVSPost2010PropOp36
 70
     1
102
RTVSPost2010Prop37
 90
       50
102
RTVSPost2010PropOp37
 70
     1
102
RTVSPost2010Prop38
140
0.0
102
RTVSPost2010PropOp38
 70
     1
102
RTVSPost2010Prop39
140
1.0
102
RTVSPost2010PropOp39
 70
     1
102
RTVSPost2010Prop40
 90
        0
102
RTVSPost2010PropOp40
 70
     1
102
RTVSPost2010Prop41ColorIndex
 90
       18
102
RTVSPost2010Prop41ColorRGB
 90
        0
102
RTVSPost2010PropOp41
 70
     1
102
RTVSPost2010Prop42
 90
       50
102
RTVSPost2010PropOp42
 70
     1
102
RTVSPost2010Prop43
 90
        3
102
RTVSPost2010PropOp43
 70
     1
102
RTVSPost2010Prop44ColorIndex
 90
        5
102
RTVSPost2010Prop44ColorRGB
 90
      255
102
RTVSPost2010PropOp44
 70
     1
102
RTVSPost2010Prop45
280
     0
102
RTVSPost2010PropOp45
 70
     1
102
RTVSPost2010Prop46
 90
       50
102
RTVSPost2010PropOp46
 70
     1
102
RTVSPost2010Prop47
 90
       50
102
RTVSPost2010PropOp47
 70
     1
102
RTVSPost2010Prop48
 90
       50
102
RTVSPost2010PropOp48
 70
     1
102
RTVSPost2010Prop49
280
     0
102
RTVSPost2010PropOp49
 70
     1
102
RTVSPost2010Prop50
 90
       50
102
RTVSPost2010PropOp50
 70
     1
102
RTVSPost2010Prop51ColorIndex
 90
      256
102
RTVSPost2010Prop51ColorRGB
 90
-16777216
102
RTVSPost2010PropOp51
 70
     0
102
RTVSPost2010Prop52
140
1.0
102
RTVSPost2010PropOp52
 70
     0
102
RTVSPost2010Prop53
 90
        2
102
RTVSPost2010PropOp53
 70
     1
102
RTVSPost2010Prop54
  1
strokes_ogs.tif
102
RTVSPost2010PropOp54
 70
     1
102
RTVSPost2010Prop55
280
     0
102
RTVSPost2010PropOp55
 70
     1
102
RTVSPost2010Prop56
140
1.0
102
RTVSPost2010PropOp56
 70
     1
102
RTVSPost2010Prop57
140
1.0
102
RTVSPost2010PropOp57
 70
     1
  0
XRECORD
  5
9223B
102
{ACAD_REACTORS
330
87B1A
102
}
330
87B1A
100
AcDbXrecord
280
     1
102
RTVSPropertyOp0
 70
     1
102
RTVSPropertyOp1
 70
     1
102
RTVSPropertyOp2
 70
     1
102
RTVSPropertyOp3
 70
     1
102
RTVSPropertyOp4
 70
     1
102
RTVSPropertyOp5
 70
     1
102
RTVSPropertyOp6
 70
     1
102
RTVSPropertyOp7
 70
     1
102
RTVSPropertyOp8
 70
     1
102
RTVSPropertyOp9
 70
     1
102
RTVSPropertyOp10
 70
     1
102
RTVSPropertyOp11
 70
     1
102
RTVSPropertyOp12
 70
     1
102
RTVSPropertyOp13
 70
     1
102
RTVSPropertyOp14
 70
     1
102
RTVSPropertyOp15
 70
     1
102
RTVSPropertyOp16
 70
     1
102
RTVSPropertyOp17
 70
     1
102
RTVSPropertyOp18
 70
     1
102
RTVSPropertyOp19
 70
     1
102
RTVSPropertyOp20
 70
     1
102
RTVSPropertyOp21
 70
     1
102
RTVSPropertyOp22
 70
     1
102
RTVSPropertyOp23
 70
     1
102
RTVSPropertyOp24
 70
     1
102
RTVSPropertyOp25
 70
     1
102
RTVSPropertyOp26
 70
     1
102
RTVSPropertyOp27
 70
     1
102
RTVSPropertyOp28
 70
     1
102
RTVSPropertyOp29
 70
     1
102
RTVSPropertyOp30
 70
     1
102
RTVSPropertyOp31
 70
     1
102
RTVSPropertyOp32
 70
     1
102
RTVSPropertyOp33
 70
     1
102
RTVSPropertyOp34
 70
     1
102
RTVSPropertyOp35
 70
     1
102
RTVSPropertyOp36
 70
     1
102
RTVSPropertyOp37
 70
     1
102
RTVSPropertyOp38
 70
     1
102
RTVSPropertyOp39
 70
     1
102
RTVSPropertyOp40
 70
     1
102
RTVSPropertyOp41
 70
     1
102
RTVSPropertyOp42
 70
     1
102
RTVSPropertyOp43
 70
     1
102
RTVSPropertyOp44
 70
     1
102
RTVSPropertyOp45
 70
     1
102
RTVSPropertyOp46
 70
     1
102
RTVSPropertyOp47
 70
     1
102
RTVSPropertyOp48
 70
     1
102
RTVSPropertyOp49
 70
     1
102
RTVSPropertyOp50
 70
     1
102
RTVSPropertyOp51
 70
     0
102
RTVSPropertyOp52
 70
     0
102
RTVSPropertyOp53
 70
     1
102
RTVSPropertyOp54
 70
     1
102
RTVSPropertyOp55
 70
     1
102
RTVSPropertyOp56
 70
     1
102
RTVSPropertyOp57
 70
     1
102
RTVSPost2010Prop28
280
     0
102
RTVSPost2010PropOp28
 70
     1
102
RTVSPost2010Prop29
280
     1
102
RTVSPost2010PropOp29
 70
     1
102
RTVSPost2010Prop30
280
     1
102
RTVSPost2010PropOp30
 70
     1
102
RTVSPost2010Prop31
280
     0
102
RTVSPost2010PropOp31
 70
     1
102
RTVSPost2010Prop32
280
     0
102
RTVSPost2010PropOp32
 70
     1
102
RTVSPost2010Prop33
280
     0
102
RTVSPost2010PropOp33
 70
     1
102
RTVSPost2010Prop34
280
     0
102
RTVSPost2010PropOp34
 70
     1
102
RTVSPost2010Prop35
280
     0
102
RTVSPost2010PropOp35
 70
     1
102
RTVSPost2010Prop36
280
     0
102
RTVSPost2010PropOp36
 70
     1
102
RTVSPost2010Prop37
 90
       50
102
RTVSPost2010PropOp37
 70
     1
102
RTVSPost2010Prop38
140
0.0
102
RTVSPost2010PropOp38
 70
     1
102
RTVSPost2010Prop39
140
1.0
102
RTVSPost2010PropOp39
 70
     1
102
RTVSPost2010Prop40
 90
        0
102
RTVSPost2010PropOp40
 70
     1
102
RTVSPost2010Prop41ColorIndex
 90
       18
102
RTVSPost2010Prop41ColorRGB
 90
        0
102
RTVSPost2010PropOp41
 70
     1
102
RTVSPost2010Prop42
 90
       50
102
RTVSPost2010PropOp42
 70
     1
102
RTVSPost2010Prop43
 90
        3
102
RTVSPost2010PropOp43
 70
     1
102
RTVSPost2010Prop44ColorIndex
 90
        5
102
RTVSPost2010Prop44ColorRGB
 90
      255
102
RTVSPost2010PropOp44
 70
     1
102
RTVSPost2010Prop45
280
     0
102
RTVSPost2010PropOp45
 70
     1
102
RTVSPost2010Prop46
 90
       50
102
RTVSPost2010PropOp46
 70
     1
102
RTVSPost2010Prop47
 90
       50
102
RTVSPost2010PropOp47
 70
     1
102
RTVSPost2010Prop48
 90
       50
102
RTVSPost2010PropOp48
 70
     1
102
RTVSPost2010Prop49
280
     0
102
RTVSPost2010PropOp49
 70
     1
102
RTVSPost2010Prop50
 90
       50
102
RTVSPost2010PropOp50
 70
     1
102
RTVSPost2010Prop51ColorIndex
 90
      256
102
RTVSPost2010Prop51ColorRGB
 90
-16777216
102
RTVSPost2010PropOp51
 70
     0
102
RTVSPost2010Prop52
140
1.0
102
RTVSPost2010PropOp52
 70
     0
102
RTVSPost2010Prop53
 90
        2
102
RTVSPost2010PropOp53
 70
     1
102
RTVSPost2010Prop54
  1
strokes_ogs.tif
102
RTVSPost2010PropOp54
 70
     1
102
RTVSPost2010Prop55
280
     0
102
RTVSPost2010PropOp55
 70
     1
102
RTVSPost2010Prop56
140
1.0
102
RTVSPost2010PropOp56
 70
     1
102
RTVSPost2010Prop57
140
1.0
102
RTVSPost2010PropOp57
 70
     1
  0
XRECORD
  5
9223C
102
{ACAD_REACTORS
330
87B32
102
}
330
87B32
100
AcDbXrecord
280
     1
102
RTVSPropertyOp0
 70
     1
102
RTVSPropertyOp1
 70
     1
102
RTVSPropertyOp2
 70
     1
102
RTVSPropertyOp3
 70
     1
102
RTVSPropertyOp4
 70
     1
102
RTVSPropertyOp5
 70
     1
102
RTVSPropertyOp6
 70
     1
102
RTVSPropertyOp7
 70
     1
102
RTVSPropertyOp8
 70
     1
102
RTVSPropertyOp9
 70
     1
102
RTVSPropertyOp10
 70
     1
102
RTVSPropertyOp11
 70
     1
102
RTVSPropertyOp12
 70
     1
102
RTVSPropertyOp13
 70
     1
102
RTVSPropertyOp14
 70
     1
102
RTVSPropertyOp15
 70
     1
102
RTVSPropertyOp16
 70
     1
102
RTVSPropertyOp17
 70
     1
102
RTVSPropertyOp18
 70
     1
102
RTVSPropertyOp19
 70
     1
102
RTVSPropertyOp20
 70
     1
102
RTVSPropertyOp21
 70
     1
102
RTVSPropertyOp22
 70
     1
102
RTVSPropertyOp23
 70
     1
102
RTVSPropertyOp24
 70
     1
102
RTVSPropertyOp25
 70
     1
102
RTVSPropertyOp26
 70
     1
102
RTVSPropertyOp27
 70
     1
102
RTVSPropertyOp28
 70
     1
102
RTVSPropertyOp29
 70
     1
102
RTVSPropertyOp30
 70
     1
102
RTVSPropertyOp31
 70
     1
102
RTVSPropertyOp32
 70
     1
102
RTVSPropertyOp33
 70
     1
102
RTVSPropertyOp34
 70
     1
102
RTVSPropertyOp35
 70
     1
102
RTVSPropertyOp36
 70
     1
102
RTVSPropertyOp37
 70
     1
102
RTVSPropertyOp38
 70
     1
102
RTVSPropertyOp39
 70
     1
102
RTVSPropertyOp40
 70
     1
102
RTVSPropertyOp41
 70
     1
102
RTVSPropertyOp42
 70
     1
102
RTVSPropertyOp43
 70
     1
102
RTVSPropertyOp44
 70
     1
102
RTVSPropertyOp45
 70
     1
102
RTVSPropertyOp46
 70
     1
102
RTVSPropertyOp47
 70
     1
102
RTVSPropertyOp48
 70
     1
102
RTVSPropertyOp49
 70
     1
102
RTVSPropertyOp50
 70
     1
102
RTVSPropertyOp51
 70
     0
102
RTVSPropertyOp52
 70
     0
102
RTVSPropertyOp53
 70
     1
102
RTVSPropertyOp54
 70
     1
102
RTVSPropertyOp55
 70
     1
102
RTVSPropertyOp56
 70
     1
102
RTVSPropertyOp57
 70
     1
102
RTVSPost2010Prop28
280
     0
102
RTVSPost2010PropOp28
 70
     1
102
RTVSPost2010Prop29
280
     1
102
RTVSPost2010PropOp29
 70
     1
102
RTVSPost2010Prop30
280
     1
102
RTVSPost2010PropOp30
 70
     1
102
RTVSPost2010Prop31
280
     0
102
RTVSPost2010PropOp31
 70
     1
102
RTVSPost2010Prop32
280
     0
102
RTVSPost2010PropOp32
 70
     1
102
RTVSPost2010Prop33
280
     0
102
RTVSPost2010PropOp33
 70
     1
102
RTVSPost2010Prop34
280
     0
102
RTVSPost2010PropOp34
 70
     1
102
RTVSPost2010Prop35
280
     0
102
RTVSPost2010PropOp35
 70
     1
102
RTVSPost2010Prop36
280
     0
102
RTVSPost2010PropOp36
 70
     1
102
RTVSPost2010Prop37
 90
       50
102
RTVSPost2010PropOp37
 70
     1
102
RTVSPost2010Prop38
140
0.0
102
RTVSPost2010PropOp38
 70
     1
102
RTVSPost2010Prop39
140
1.0
102
RTVSPost2010PropOp39
 70
     1
102
RTVSPost2010Prop40
 90
        0
102
RTVSPost2010PropOp40
 70
     1
102
RTVSPost2010Prop41ColorIndex
 90
       18
102
RTVSPost2010Prop41ColorRGB
 90
        0
102
RTVSPost2010PropOp41
 70
     1
102
RTVSPost2010Prop42
 90
       50
102
RTVSPost2010PropOp42
 70
     1
102
RTVSPost2010Prop43
 90
        3
102
RTVSPost2010PropOp43
 70
     1
102
RTVSPost2010Prop44ColorIndex
 90
        5
102
RTVSPost2010Prop44ColorRGB
 90
      255
102
RTVSPost2010PropOp44
 70
     1
102
RTVSPost2010Prop45
280
     0
102
RTVSPost2010PropOp45
 70
     1
102
RTVSPost2010Prop46
 90
       50
102
RTVSPost2010PropOp46
 70
     1
102
RTVSPost2010Prop47
 90
       50
102
RTVSPost2010PropOp47
 70
     1
102
RTVSPost2010Prop48
 90
       50
102
RTVSPost2010PropOp48
 70
     1
102
RTVSPost2010Prop49
280
     0
102
RTVSPost2010PropOp49
 70
     1
102
RTVSPost2010Prop50
 90
       50
102
RTVSPost2010PropOp50
 70
     1
102
RTVSPost2010Prop51ColorIndex
 90
      256
102
RTVSPost2010Prop51ColorRGB
 90
-16777216
102
RTVSPost2010PropOp51
 70
     0
102
RTVSPost2010Prop52
140
1.0
102
RTVSPost2010PropOp52
 70
     0
102
RTVSPost2010Prop53
 90
        2
102
RTVSPost2010PropOp53
 70
     1
102
RTVSPost2010Prop54
  1
strokes_ogs.tif
102
RTVSPost2010PropOp54
 70
     1
102
RTVSPost2010Prop55
280
     0
102
RTVSPost2010PropOp55
 70
     1
102
RTVSPost2010Prop56
140
1.0
102
RTVSPost2010PropOp56
 70
     1
102
RTVSPost2010Prop57
140
1.0
102
RTVSPost2010PropOp57
 70
     1
  0
ENDSEC
  0
EOF
