  0
SECTION
  2
HEADER
  9
$ACADVER
  1
AC1015
  9
$ACADMAINTVER
 70
    20
  9
$DWGCODEPAGE
  3
ANSI_932
  9
$INSBASE
 10
0.0
 20
0.0
 30
0.0
  9
$EXTMIN
 10
-35.61345902791494
 20
-51.5114707344605
 30
0.0
  9
$EXTMAX
 10
106.7333333333333
 20
91.42741623478693
 30
0.0
  9
$LIMMIN
 10
0.0
 20
0.0
  9
$LIMMAX
 10
420.0
 20
297.0
  9
$ORTHOMODE
 70
     1
  9
$REGENMODE
 70
     1
  9
$FILLMODE
 70
     1
  9
$QTEXTMODE
 70
     0
  9
$MIRRTEXT
 70
     1
  9
$LTSCALE
 40
1.0
  9
$ATTMODE
 70
     1
  9
$TEXTSIZE
 40
3.5
  9
$TRACEWID
 40
1.0
  9
$TEXTSTYLE
  7
simplex
  9
$CLAYER
  8
0
  9
$CELTYPE
  6
ByLayer
  9
$CECOLOR
 62
   256
  9
$CELTSCALE
 40
1.0
  9
$DISPSILH
 70
     0
  9
$DIMSCALE
 40
0.0
  9
$DIMASZ
 40
3.5
  9
$DIMEXO
 40
0.0
  9
$DIMDLI
 40
0.38
  9
$DIMRND
 40
0.0
  9
$DIMDLE
 40
0.0
  9
$DIMEXE
 40
1.5
  9
$DIMTP
 40
0.0
  9
$DIMTM
 40
0.0
  9
$DIMTXT
 40
3.5
  9
$DIMCEN
 40
0.09
  9
$DIMTSZ
 40
0.0
  9
$DIMTOL
 70
     0
  9
$DIMLIM
 70
     0
  9
$DIMTIH
 70
     0
  9
$DIMTOH
 70
     0
  9
$DIMSE1
 70
     0
  9
$DIMSE2
 70
     0
  9
$DIMTAD
 70
     1
  9
$DIMZIN
 70
     8
  9
$DIMBLK
  1

  9
$DIMASO
 70
     1
  9
$DIMSHO
 70
     1
  9
$DIMPOST
  1

  9
$DIMAPOST
  1

  9
$DIMALT
 70
     0
  9
$DIMALTD
 70
     2
  9
$DIMALTF
 40
25.4
  9
$DIMLFAC
 40
1.0
  9
$DIMTOFL
 70
     0
  9
$DIMTVP
 40
0.0
  9
$DIMTIX
 70
     0
  9
$DIMSOXD
 70
     0
  9
$DIMSAH
 70
     0
  9
$DIMBLK1
  1

  9
$DIMBLK2
  1

  9
$DIMSTYLE
  2
コピー - ISO-25
  9
$DIMCLRD
 70
   256
  9
$DIMCLRE
 70
   256
  9
$DIMCLRT
 70
   256
  9
$DIMTFAC
 40
1.0
  9
$DIMGAP
 40
2.299999999999998
  9
$DIMJUST
 70
     0
  9
$DIMSD1
 70
     0
  9
$DIMSD2
 70
     0
  9
$DIMTOLJ
 70
     1
  9
$DIMTZIN
 70
     8
  9
$DIMALTZ
 70
     0
  9
$DIMALTTZ
 70
     0
  9
$DIMUPT
 70
     0
  9
$DIMDEC
 70
     2
  9
$DIMTDEC
 70
     2
  9
$DIMALTU
 70
     2
  9
$DIMALTTD
 70
     2
  9
$DIMTXSTY
  7
simplex
  9
$DIMAUNIT
 70
     0
  9
$DIMADEC
 70
     0
  9
$DIMALTRND
 40
0.0
  9
$DIMAZIN
 70
     0
  9
$DIMDSEP
 70
    46
  9
$DIMATFIT
 70
     3
  9
$DIMFRAC
 70
     0
  9
$DIMLDRBLK
  1

  9
$DIMLUNIT
 70
     2
  9
$DIMLWD
 70
    -1
  9
$DIMLWE
 70
    -1
  9
$DIMTMOVE
 70
     0
  9
$LUNITS
 70
     2
  9
$LUPREC
 70
     4
  9
$SKETCHINC
 40
1.0
  9
$FILLETRAD
 40
0.8
  9
$AUNITS
 70
     0
  9
$AUPREC
 70
     0
  9
$MENU
  1
.
  9
$ELEVATION
 40
0.0
  9
$PELEVATION
 40
0.0
  9
$THICKNESS
 40
0.0
  9
$LIMCHECK
 70
     0
  9
$CHAMFERA
 40
10.0
  9
$CHAMFERB
 40
10.0
  9
$CHAMFERC
 40
20.0
  9
$CHAMFERD
 40
0.0
  9
$SKPOLY
 70
     0
  9
$TDCREATE
 40
2455489.391063368
  9
$TDUCREATE
 40
2455489.057730035
  9
$TDUPDATE
 40
2458948.457726343
  9
$TDUUPDATE
 40
2458948.124393009
  9
$TDINDWG
 40
2.494721157
  9
$TDUSRTIMER
 40
2.494669387
  9
$USRTIMER
 70
     1
  9
$ANGBASE
 50
0.0
  9
$ANGDIR
 70
     0
  9
$PDMODE
 70
     0
  9
$PDSIZE
 40
0.0
  9
$PLINEWID
 40
0.0
  9
$SPLFRAME
 70
     0
  9
$SPLINETYPE
 70
     6
  9
$SPLINESEGS
 70
     8
  9
$HANDSEED
  5
87F2B
  9
$SURFTAB1
 70
     6
  9
$SURFTAB2
 70
     6
  9
$SURFTYPE
 70
     6
  9
$SURFU
 70
     6
  9
$SURFV
 70
     6
  9
$UCSBASE
  2

  9
$UCSNAME
  2

  9
$UCSORG
 10
0.0
 20
0.0
 30
0.0
  9
$UCSXDIR
 10
1.0
 20
0.0
 30
0.0
  9
$UCSYDIR
 10
0.0
 20
1.0
 30
0.0
  9
$UCSORTHOREF
  2

  9
$UCSORTHOVIEW
 70
     0
  9
$UCSORGTOP
 10
0.0
 20
0.0
 30
0.0
  9
$UCSORGBOTTOM
 10
0.0
 20
0.0
 30
0.0
  9
$UCSORGLEFT
 10
0.0
 20
0.0
 30
0.0
  9
$UCSORGRIGHT
 10
0.0
 20
0.0
 30
0.0
  9
$UCSORGFRONT
 10
0.0
 20
0.0
 30
0.0
  9
$UCSORGBACK
 10
0.0
 20
0.0
 30
0.0
  9
$PUCSBASE
  2

  9
$PUCSNAME
  2

  9
$PUCSORG
 10
0.0
 20
0.0
 30
0.0
  9
$PUCSXDIR
 10
1.0
 20
0.0
 30
0.0
  9
$PUCSYDIR
 10
0.0
 20
1.0
 30
0.0
  9
$PUCSORTHOREF
  2

  9
$PUCSORTHOVIEW
 70
     0
  9
$PUCSORGTOP
 10
0.0
 20
0.0
 30
0.0
  9
$PUCSORGBOTTOM
 10
0.0
 20
0.0
 30
0.0
  9
$PUCSORGLEFT
 10
0.0
 20
0.0
 30
0.0
  9
$PUCSORGRIGHT
 10
0.0
 20
0.0
 30
0.0
  9
$PUCSORGFRONT
 10
0.0
 20
0.0
 30
0.0
  9
$PUCSORGBACK
 10
0.0
 20
0.0
 30
0.0
  9
$USERI1
 70
     0
  9
$USERI2
 70
     0
  9
$USERI3
 70
     0
  9
$USERI4
 70
     0
  9
$USERI5
 70
     0
  9
$USERR1
 40
0.0
  9
$USERR2
 40
0.0
  9
$USERR3
 40
0.0
  9
$USERR4
 40
0.0
  9
$USERR5
 40
0.0
  9
$WORLDVIEW
 70
     1
  9
$SHADEDGE
 70
     3
  9
$SHADEDIF
 70
    70
  9
$TILEMODE
 70
     1
  9
$MAXACTVP
 70
    64
  9
$PINSBASE
 10
0.0
 20
0.0
 30
0.0
  9
$PLIMCHECK
 70
     0
  9
$PEXTMIN
 10
26.66999878883364
 20
20.31999878883365
 30
0.0
  9
$PEXTMAX
 10
240.0299890995025
 20
182.8799890995025
 30
0.0
  9
$PLIMMIN
 10
-6.350006103515625
 20
-6.349999904632567
  9
$PLIMMAX
 10
273.0499877929688
 20
209.5499939918518
  9
$UNITMODE
 70
     0
  9
$VISRETAIN
 70
     1
  9
$PLINEGEN
 70
     0
  9
$PSLTSCALE
 70
     1
  9
$TREEDEPTH
 70
  3020
  9
$CMLSTYLE
  2
Standard
  9
$CMLJUST
 70
     0
  9
$CMLSCALE
 40
20.0
  9
$PROXYGRAPHICS
 70
     1
  9
$MEASUREMENT
 70
     1
  9
$CELWEIGHT
370
    -1
  9
$ENDCAPS
280
     0
  9
$JOINSTYLE
280
     0
  9
$LWDISPLAY
290
     0
  9
$INSUNITS
 70
     4
  9
$HYPERLINKBASE
  1

  9
$STYLESHEET
  1

  9
$XEDIT
290
     1
  9
$CEPSNTYPE
380
     0
  9
$PSTYLEMODE
290
     1
  9
$FINGERPRINTGUID
  2
{F96DED27-3EEA-42DD-82F0-F4C1ED02D16C}
  9
$VERSIONGUID
  2
{0FF092F0-EC2C-4F53-951C-86D655BA78FA}
  9
$EXTNAMES
290
     1
  9
$PSVPSCALE
 40
0.0
  9
$OLESTARTUP
290
     0
  0
ENDSEC
  0
SECTION
  2
CLASSES
  0
CLASS
  1
ACDBDICTIONARYWDFLT
  2
AcDbDictionaryWithDefault
  3
ObjectDBX Classes
 90
        0
280
     0
281
     0
  0
CLASS
  1
ACDBPLACEHOLDER
  2
AcDbPlaceHolder
  3
ObjectDBX Classes
 90
    32768
280
     0
281
     0
  0
CLASS
  1
LAYOUT
  2
AcDbLayout
  3
ObjectDBX Classes
 90
    32768
280
     0
281
     0
  0
CLASS
  1
DICTIONARYVAR
  2
AcDbDictionaryVar
  3
ObjectDBX Classes
 90
        0
280
     0
281
     0
  0
CLASS
  1
TABLESTYLE
  2
AcDbTableStyle
  3
ObjectDBX Classes
 90
     4095
280
     0
281
     0
  0
CLASS
  1
SORTENTSTABLE
  2
AcDbSortentsTable
  3
ObjectDBX Classes
 90
        0
280
     0
281
     0
  0
CLASS
  1
DIMASSOC
  2
AcDbDimAssoc
  3
"AcDbDimAssoc|Product Desc:     AcDim ARX App For Dimension|Company:          Autodesk, Inc.|WEB Address:      www.autodesk.com"
 90
        0
280
     0
281
     0
  0
CLASS
  1
ACAD_EVALUATION_GRAPH
  2
AcDbEvalGraph
  3
ObjectDBX Classes
 90
    33921
280
     0
281
     0
  0
CLASS
  1
ACAECUSTOBJ
  2
AcAeEditorObj
  3
AcAeEditorObj
 90
    33792
280
     0
281
     0
  0
CLASS
  1
ACDB_DYNAMICBLOCKPURGEPREVENTER_VERSION
  2
AcDbDynamicBlockPurgePreventer
  3
ObjectDBX Classes
 90
    33921
280
     0
281
     0
  0
CLASS
  1
MATERIAL
  2
AcDbMaterial
  3
ObjectDBX Classes
 90
     1153
280
     0
281
     0
  0
CLASS
  1
VISUALSTYLE
  2
AcDbVisualStyle
  3
ObjectDBX Classes
 90
     4095
280
     0
281
     0
  0
CLASS
  1
SCALE
  2
AcDbScale
  3
ObjectDBX Classes
 90
     1153
280
     0
281
     0
  0
CLASS
  1
MLEADERSTYLE
  2
AcDbMLeaderStyle
  3
ACDB_MLEADERSTYLE_CLASS
 90
     4095
280
     0
281
     0
  0
CLASS
  1
ACDBSECTIONVIEWSTYLE
  2
AcDbSectionViewStyle
  3
ObjectDBX Classes
 90
     1025
280
     0
281
     0
  0
CLASS
  1
ACDBDETAILVIEWSTYLE
  2
AcDbDetailViewStyle
  3
ObjectDBX Classes
 90
     1025
280
     0
281
     0
  0
CLASS
  1
CELLSTYLEMAP
  2
AcDbCellStyleMap
  3
ObjectDBX Classes
 90
     1152
280
     0
281
     0
  0
CLASS
  1
ACDBPLACEHOLDER
  2
AcDbPlaceHolder
  3
ObjectDBX Classes
 90
    32768
280
     0
281
     0
  0
CLASS
  1
LAYOUT
  2
AcDbLayout
  3
ObjectDBX Classes
 90
    32768
280
     0
281
     0
  0
CLASS
  1
ACDBPLACEHOLDER
  2
AcDbPlaceHolder
  3
ObjectDBX Classes
 90
    32768
280
     0
281
     0
  0
CLASS
  1
LAYOUT
  2
AcDbLayout
  3
ObjectDBX Classes
 90
    32768
280
     0
281
     0
  0
CLASS
  1
ACDBPLACEHOLDER
  2
AcDbPlaceHolder
  3
ObjectDBX Classes
 90
        0
280
     0
281
     0
  0
CLASS
  1
LAYOUT
  2
AcDbLayout
  3
ObjectDBX Classes
 90
        0
280
     0
281
     0
  0
ENDSEC
  0
SECTION
  2
TABLES
  0
TABLE
  2
VPORT
  5
8
102
{ACAD_XDICTIONARY
360
87E93
102
}
330
0
100
AcDbSymbolTable
 70
     1
  0
VPORT
  5
4A360
330
8
100
AcDbSymbolTableRecord
100
AcDbViewportTableRecord
  2
*Active
 70
     0
 10
0.0
 20
0.0
 11
1.0
 21
1.0
 12
27.59810342291817
 22
20.28941310337833
 13
0.0
 23
0.0
 14
10.0
 24
10.0
 15
10.0
 25
10.0
 16
0.0
 26
0.0
 36
1.0
 17
0.0
 27
0.0
 37
0.0
 40
157.8454734724533
 41
1.705156950672645
 42
50.0
 43
0.0
 44
0.0
 50
0.0
 51
0.0
 71
     0
 72
  1000
 73
     1
 74
     1
 75
     0
 76
     0
 77
     0
 78
     0
281
     0
 65
     1
110
0.0
120
0.0
130
0.0
111
1.0
121
0.0
131
0.0
112
0.0
122
1.0
132
0.0
 79
     0
146
0.0
1001
ACAD_NAV_VCDISPLAY
1070
     3
  0
ENDTAB
  0
TABLE
  2
LTYPE
  5
5
330
0
100
AcDbSymbolTable
 70
     3
  0
LTYPE
  5
14
330
5
100
AcDbSymbolTableRecord
100
AcDbLinetypeTableRecord
  2
ByBlock
 70
     0
  3

 72
    65
 73
     0
 40
0.0
  0
LTYPE
  5
15
330
5
100
AcDbSymbolTableRecord
100
AcDbLinetypeTableRecord
  2
ByLayer
 70
     0
  3

 72
    65
 73
     0
 40
0.0
  0
LTYPE
  5
16
330
5
100
AcDbSymbolTableRecord
100
AcDbLinetypeTableRecord
  2
Continuous
 70
     0
  3
Solid line
 72
    65
 73
     0
 40
0.0
  0
LTYPE
  5
4A76E
330
5
100
AcDbSymbolTableRecord
100
AcDbLinetypeTableRecord
  2
CENTER2
 70
     0
  3
Center (.5x) ___ _ ___ _ ___ _ ___ _ ___ _ ___
 72
    65
 73
     4
 40
28.575
 49
19.05
 74
     0
 49
-3.174999999999998
 74
     0
 49
3.174999999999998
 74
     0
 49
-3.174999999999998
 74
     0
  0
LTYPE
  5
876F6
330
5
100
AcDbSymbolTableRecord
100
AcDbLinetypeTableRecord
  2
HIDDEN
 70
     0
  3
Hidden __ __ __ __ __ __ __ __ __ __ __ __ __ _
 72
    65
 73
     2
 40
9.524999999999996
 49
6.349999999999997
 74
     0
 49
-3.174999999999998
 74
     0
  0
ENDTAB
  0
TABLE
  2
LAYER
  5
2
102
{ACAD_XDICTIONARY
360
E2
102
}
330
0
100
AcDbSymbolTable
 70
    10
  0
LAYER
  5
10
102
{ACAD_XDICTIONARY
360
4A86C
102
}
330
2
100
AcDbSymbolTableRecord
100
AcDbLayerTableRecord
  2
0
 70
     0
 62
     7
  6
Continuous
370
    -3
390
F
  0
LAYER
  5
31B6
330
2
100
AcDbSymbolTableRecord
100
AcDbLayerTableRecord
  2
Defpoints
 70
     0
 62
     7
  6
Continuous
290
     0
370
    -3
390
F
  0
LAYER
  5
4A772
102
{ACAD_XDICTIONARY
360
4A773
102
}
330
2
100
AcDbSymbolTableRecord
100
AcDbLayerTableRecord
  2
1
 70
     0
 62
     4
  6
Continuous
370
    50
390
F
1001
AcAecLayerStandard
1000

1000
Contour
  0
LAYER
  5
4A774
102
{ACAD_XDICTIONARY
360
4A775
102
}
330
2
100
AcDbSymbolTableRecord
100
AcDbLayerTableRecord
  2
2
 70
     0
 62
     7
  6
Continuous
370
    25
390
F
1001
AcAecLayerStandard
1000

1000
Dimension milling
  0
LAYER
  5
4A776
102
{ACAD_XDICTIONARY
360
4A777
102
}
330
2
100
AcDbSymbolTableRecord
100
AcDbLayerTableRecord
  2
4
 70
     0
 62
     2
  6
CENTER2
370
    25
390
F
1001
AcAecLayerStandard
1000

1000
Center line
  0
LAYER
  5
4A778
102
{ACAD_XDICTIONARY
360
4A779
102
}
330
2
100
AcDbSymbolTableRecord
100
AcDbLayerTableRecord
  2
cut
 70
     0
 62
     1
  6
Continuous
370
    25
390
F
1001
AcAecLayerStandard
1000

1000
contour
  0
LAYER
  5
4A77A
102
{ACAD_XDICTIONARY
360
4A77B
102
}
330
2
100
AcDbSymbolTableRecord
100
AcDbLayerTableRecord
  2
nocut
 70
     0
 62
     7
  6
Continuous
370
    25
390
F
1001
AcAecLayerStandard
1000

1000
contour
  0
LAYER
  5
4A77E
102
{ACAD_XDICTIONARY
360
4A77F
102
}
330
2
100
AcDbSymbolTableRecord
100
AcDbLayerTableRecord
  2
sk2
 70
     0
 62
     7
  6
Continuous
370
    25
390
F
1001
AcAecLayerStandard
1000

1000
sk2 dimension
  0
LAYER
  5
4A782
102
{ACAD_XDICTIONARY
360
4A783
102
}
330
2
100
AcDbSymbolTableRecord
100
AcDbLayerTableRecord
  2
sk6
 70
     0
 62
     5
  6
Continuous
370
    35
390
F
1001
AcAecLayerStandard
1000

1000
sk6 text
  0
LAYER
  5
876F4
102
{ACAD_XDICTIONARY
360
87E91
102
}
330
2
100
AcDbSymbolTableRecord
100
AcDbLayerTableRecord
  2
sk3
 70
     0
 62
     1
  6
HIDDEN
370
    35
390
F
1001
AcAecLayerStandard
1000

1000

  0
ENDTAB
  0
TABLE
  2
STYLE
  5
3
330
0
100
AcDbSymbolTable
 70
     2
  0
STYLE
  5
11
330
3
100
AcDbSymbolTableRecord
100
AcDbTextStyleTableRecord
  2
Standard
 70
     0
 40
0.0
 41
1.0
 50
0.0
 71
     0
 42
2.5
  3
txt.shx
  4
@extfont2.shx
  0
STYLE
  5
24A
330
3
100
AcDbSymbolTableRecord
100
AcDbTextStyleTableRecord
  2
simplex
 70
     0
 40
3.5
 41
1.0
 50
0.0
 71
     0
 42
3.5
  3
txt.shx
  4

  0
ENDTAB
  0
TABLE
  2
VIEW
  5
6
330
0
100
AcDbSymbolTable
 70
     0
  0
ENDTAB
  0
TABLE
  2
UCS
  5
7
330
0
100
AcDbSymbolTable
 70
     0
  0
ENDTAB
  0
TABLE
  2
APPID
  5
9
330
0
100
AcDbSymbolTable
 70
    28
  0
APPID
  5
12
330
9
100
AcDbSymbolTableRecord
100
AcDbRegAppTableRecord
  2
ACAD
 70
     0
  0
APPID
  5
D2
330
9
100
AcDbSymbolTableRecord
100
AcDbRegAppTableRecord
  2
AcAecLayerStandard
 70
     0
  0
APPID
  5
E6
330
9
100
AcDbSymbolTableRecord
100
AcDbRegAppTableRecord
  2
ACAD_DSTYLE_DIMTEXT_FILL
 70
     0
  0
APPID
  5
4C84
330
9
100
AcDbSymbolTableRecord
100
AcDbRegAppTableRecord
  2
ACAD_EXEMPT_FROM_CAD_STANDARDS
 70
     0
  0
APPID
  5
3493E
330
9
100
AcDbSymbolTableRecord
100
AcDbRegAppTableRecord
  2
DCO15
 70
     0
  0
APPID
  5
3BAB0
330
9
100
AcDbSymbolTableRecord
100
AcDbRegAppTableRecord
  2
ACAD_DSTYLE_DIMEXT_ENABLED
 70
     0
  0
APPID
  5
3BAB1
330
9
100
AcDbSymbolTableRecord
100
AcDbRegAppTableRecord
  2
ACAD_DSTYLE_DIMEXT_LENGTH
 70
     0
  0
APPID
  5
3BEB4
330
9
100
AcDbSymbolTableRecord
100
AcDbRegAppTableRecord
  2
ACAUTHENVIRON
 70
     0
  0
APPID
  5
3BEB7
330
9
100
AcDbSymbolTableRecord
100
AcDbRegAppTableRecord
  2
AcDbDynamicBlockTrueName
 70
     0
  0
APPID
  5
3BEB8
330
9
100
AcDbSymbolTableRecord
100
AcDbRegAppTableRecord
  2
AcDbDynamicBlockGUID
 70
     0
  0
APPID
  5
3BEBA
330
9
100
AcDbSymbolTableRecord
100
AcDbRegAppTableRecord
  2
AcDbBlockRepETag
 70
     0
  0
APPID
  5
4A453
330
9
100
AcDbSymbolTableRecord
100
AcDbRegAppTableRecord
  2
ACAD_PSEXT
 70
     0
  0
APPID
  5
4A454
330
9
100
AcDbSymbolTableRecord
100
AcDbRegAppTableRecord
  2
AcadAnnotative
 70
     0
  0
APPID
  5
4A455
330
9
100
AcDbSymbolTableRecord
100
AcDbRegAppTableRecord
  2
ACAD_DSTYLE_DIMJAG
 70
     0
  0
APPID
  5
4A456
330
9
100
AcDbSymbolTableRecord
100
AcDbRegAppTableRecord
  2
ACAD_DSTYLE_DIMTALN
 70
     0
  0
APPID
  5
4A457
330
9
100
AcDbSymbolTableRecord
100
AcDbRegAppTableRecord
  2
ACAD_NAV_VCDISPLAY
 70
     0
  0
APPID
  5
4A787
330
9
100
AcDbSymbolTableRecord
100
AcDbRegAppTableRecord
  2
ACAD_DSTYLE_DIMINSPECT
 70
     0
  0
APPID
  5
4A788
330
9
100
AcDbSymbolTableRecord
100
AcDbRegAppTableRecord
  2
GENIUS_GENDTOL_13
 70
     0
  0
APPID
  5
4A789
330
9
100
AcDbSymbolTableRecord
100
AcDbRegAppTableRecord
  2
ZWMCAD_GENSTANDARDFRAME_13_
 70
     0
  0
APPID
  5
4A78A
330
9
100
AcDbSymbolTableRecord
100
AcDbRegAppTableRecord
  2
ZW_RECESS_XDATA
 70
     0
  0
APPID
  5
4A78B
330
9
100
AcDbSymbolTableRecord
100
AcDbRegAppTableRecord
  2
ZW_FAC_XDATA
 70
     0
  0
APPID
  5
4A78C
330
9
100
AcDbSymbolTableRecord
100
AcDbRegAppTableRecord
  2
ZW_FLC_XDATA
 70
     0
  0
APPID
  5
4A78D
330
9
100
AcDbSymbolTableRecord
100
AcDbRegAppTableRecord
  2
ZW_SUPERPART
 70
     0
  0
APPID
  5
4A78E
330
9
100
AcDbSymbolTableRecord
100
AcDbRegAppTableRecord
  2
ZW_SUPERSYMBOL
 70
     0
  0
APPID
  5
4A78F
330
9
100
AcDbSymbolTableRecord
100
AcDbRegAppTableRecord
  2
ZW_SUPERSHAFT
 70
     0
  0
APPID
  5
4A790
330
9
100
AcDbSymbolTableRecord
100
AcDbRegAppTableRecord
  2
ZWMCAD_GENFRAME_13_
 70
     0
  0
APPID
  5
4A791
330
9
100
AcDbSymbolTableRecord
100
AcDbRegAppTableRecord
  2
ACAD_MLEADERVER
 70
     0
  0
APPID
  5
4A792
330
9
100
AcDbSymbolTableRecord
100
AcDbRegAppTableRecord
  2
ACAD_DSTYLE_DIMRADIAL_EXTENSION
 70
     0
  0
ENDTAB
  0
TABLE
  2
DIMSTYLE
  5
A
330
0
100
AcDbSymbolTable
 70
     2
100
AcDbDimStyleTable
 71
     2
340
1BF
340
3527
  0
DIMSTYLE
105
1BF
102
{ACAD_REACTORS
330
87CBF
330
87CC2
330
87CC3
330
87CC4
330
87CC7
330
87CC8
330
87DC9
102
}
330
A
100
AcDbSymbolTableRecord
100
AcDbDimStyleTableRecord
  2
コピー - ISO-25
 70
     0
 40
0.0
 41
3.5
 42
0.0
 44
1.5
 73
     0
 74
     0
 77
     1
 78
     8
140
3.5
147
2.299999999999998
176
   256
177
   256
271
     2
178
   256
271
     2
272
     2
284
     8
340
24A
371
    -1
372
    -1
  0
DIMSTYLE
105
3527
330
A
100
AcDbSymbolTableRecord
100
AcDbDimStyleTableRecord
  2
STANDARD
 70
     0
 41
3.0
 47
0.001
 48
0.001
 71
     1
 73
     0
 74
     0
 77
     1
 78
     8
140
4.0
271
     3
272
     3
284
     8
340
11
341
34B1
342
34B1
343
34B1
344
34B1
  0
ENDTAB
  0
TABLE
  2
BLOCK_RECORD
  5
1
330
0
100
AcDbSymbolTable
 70
    11
  0
BLOCK_RECORD
  5
1F
102
{ACAD_XDICTIONARY
360
31EE
102
}
330
1
100
AcDbSymbolTableRecord
100
AcDbBlockTableRecord
  2
*Model_Space
340
22
  0
BLOCK_RECORD
  5
55
330
1
100
AcDbSymbolTableRecord
100
AcDbBlockTableRecord
  2
*Paper_Space
340
56
  0
BLOCK_RECORD
  5
50
330
1
100
AcDbSymbolTableRecord
100
AcDbBlockTableRecord
  2
*Paper_Space0000
340
51
  0
BLOCK_RECORD
  5
34B1
330
1
100
AcDbSymbolTableRecord
100
AcDbBlockTableRecord
  2
_OPEN
340
0
  0
BLOCK_RECORD
  5
4A6D6
102
{ACAD_XDICTIONARY
360
4A6D7
102
}
330
1
100
AcDbSymbolTableRecord
100
AcDbBlockTableRecord
  2
zero block
340
0
102
{BLKREFS
331
87720
331
878CB
331
4A793
102
}
1001
AcDbDynamicBlockGUID
1000
{A89DF4EB-B2CB-439E-AC69-1EAC9F242D1C}
1001
AcDbBlockRepETag
1070
     1
1071
        7
1001
ACAD
1000
DesignCenter Data
1002
{
1070
     1
1070
     4
1002
}
  0
BLOCK_RECORD
  5
8778B
330
1
100
AcDbSymbolTableRecord
100
AcDbBlockTableRecord
  2
_None
340
0
102
{BLKREFS
331
8778A
331
87A30
331
87A7C
331
87B44
331
87DE9
331
87E35
102
}
  0
BLOCK_RECORD
  5
87DCC
330
1
100
AcDbSymbolTableRecord
100
AcDbBlockTableRecord
  2
*D3944
340
0
  0
BLOCK_RECORD
  5
87DD8
330
1
100
AcDbSymbolTableRecord
100
AcDbBlockTableRecord
  2
*D4055
340
0
  0
BLOCK_RECORD
  5
87DE5
330
1
100
AcDbSymbolTableRecord
100
AcDbBlockTableRecord
  2
*D4166
340
0
  0
BLOCK_RECORD
  5
87DF0
330
1
100
AcDbSymbolTableRecord
100
AcDbBlockTableRecord
  2
*D4277
340
0
  0
BLOCK_RECORD
  5
87DFD
330
1
100
AcDbSymbolTableRecord
100
AcDbBlockTableRecord
  2
*D4388
340
0
  0
BLOCK_RECORD
  5
87E09
330
1
100
AcDbSymbolTableRecord
100
AcDbBlockTableRecord
  2
*D4499
340
0
  0
BLOCK_RECORD
  5
87E15
330
1
100
AcDbSymbolTableRecord
100
AcDbBlockTableRecord
  2
*D451010
340
0
  0
ENDTAB
  0
ENDSEC
  0
SECTION
  2
BLOCKS
  0
BLOCK
  5
20
330
1F
100
AcDbEntity
  8
0
100
AcDbBlockBegin
  2
*Model_Space
 70
     0
 10
0.0
 20
0.0
 30
0.0
  3
*Model_Space
  1

  0
ENDBLK
  5
21
330
1F
100
AcDbEntity
  8
0
100
AcDbBlockEnd
  0
BLOCK
  5
57
330
55
100
AcDbEntity
 67
     1
  8
0
100
AcDbBlockBegin
  2
*Paper_Space
 70
     0
 10
0.0
 20
0.0
 30
0.0
  3
*Paper_Space
  1

  0
ENDBLK
  5
58
330
55
100
AcDbEntity
 67
     1
  8
0
100
AcDbBlockEnd
  0
BLOCK
  5
52
330
50
100
AcDbEntity
  8
0
100
AcDbBlockBegin
  2
*Paper_Space0000
 70
     0
 10
0.0
 20
0.0
 30
0.0
  3
*Paper_Space0000
  1

  0
VIEWPORT
  5
6B
102
{ACAD_XDICTIONARY
360
87699
102
}
330
50
100
AcDbEntity
  8
0
100
AcDbViewport
 10
264.3775031494645
 20
160.4455827878762
 30
0.0
 40
567.6219612953822
 41
282.2272140146125
 68
     1
 69
    -1
 12
264.3775031494645
 22
160.4455827878762
 13
0.0
 23
0.0
 14
10.0
 24
10.0
 15
10.0
 25
10.0
 16
0.0
 26
0.0
 36
1.0
 17
0.0
 27
0.0
 37
0.0
 42
50.0
 43
0.0
 44
0.0
 45
282.2272140146125
 50
0.0
 51
0.0
 72
  1000
 90
    32864
  1

281
     0
 71
     1
 74
     0
110
0.0
120
0.0
130
0.0
111
1.0
121
0.0
131
0.0
112
0.0
122
1.0
132
0.0
 79
     0
146
0.0
1001
ACAD
1000
MVIEW
1002
{
1070
    16
1010
0.0
1020
0.0
1030
0.0
1010
0.0
1020
0.0
1030
1.0
1040
0.0
1040
282.2272140146125
1040
264.3775031494645
1040
160.4455827878762
1040
50.0
1040
0.0
1040
0.0
1070
     0
1070
  1000
1070
     0
1070
     3
1070
     0
1070
     0
1070
     0
1070
     0
1040
0.0
1040
0.0
1040
0.0
1040
10.0
1040
10.0
1040
10.0
1040
10.0
1070
     0
1002
{
1002
}
1002
}
  0
VIEWPORT
  5
6D
102
{ACAD_XDICTIONARY
360
8769B
102
}
330
50
100
AcDbEntity
  8
0
100
AcDbViewport
 10
133.3499939441681
 20
101.5999939441681
 30
0.0
 40
213.3599903106689
 41
162.5599903106689
 68
     2
 69
    -1
 12
210.0
 22
148.5
 13
0.0
 23
0.0
 14
10.0
 24
10.0
 15
10.0
 25
10.0
 16
0.0
 26
0.0
 36
1.0
 17
0.0
 27
0.0
 37
0.0
 42
50.0
 43
0.0
 44
0.0
 45
324.0677920111345
 50
0.0
 51
0.0
 72
   100
 90
    32864
  1

281
     0
 71
     1
 74
     0
110
0.0
120
0.0
130
0.0
111
1.0
121
0.0
131
0.0
112
0.0
122
1.0
132
0.0
 79
     0
146
0.0
1001
ACAD
1000
MVIEW
1002
{
1070
    16
1010
0.0
1020
0.0
1030
0.0
1010
0.0
1020
0.0
1030
1.0
1040
0.0
1040
324.0677920111345
1040
210.0
1040
148.5
1040
50.0
1040
0.0
1040
0.0
1070
     0
1070
   100
1070
     0
1070
     3
1070
     0
1070
     0
1070
     0
1070
     0
1040
0.0
1040
0.0
1040
0.0
1040
10.0
1040
10.0
1040
10.0
1040
10.0
1070
     0
1002
{
1002
}
1002
}
  0
ENDBLK
  5
53
330
50
100
AcDbEntity
  8
0
100
AcDbBlockEnd
  0
BLOCK
  5
34B2
330
34B1
100
AcDbEntity
  8
0
100
AcDbBlockBegin
  2
_OPEN
 70
     0
 10
0.0
 20
0.0
 30
0.0
  3
_OPEN
  1

  0
LINE
  5
34B3
330
34B1
100
AcDbEntity
  8
0
  6
ByBlock
 62
     0
100
AcDbLine
 10
0.0
 20
0.0
 30
0.0
 11
-1.0
 21
0.1766666667
 31
0.0
  0
LINE
  5
34B4
330
34B1
100
AcDbEntity
  8
0
  6
ByBlock
 62
     0
100
AcDbLine
 10
-1.0
 20
-0.1766666667
 30
0.0
 11
0.0
 21
0.0
 31
0.0
  0
LINE
  5
34B5
330
34B1
100
AcDbEntity
  8
0
  6
ByBlock
 62
     0
100
AcDbLine
 10
-1.0
 20
0.0
 30
0.0
 11
0.0
 21
0.0
 31
0.0
  0
ENDBLK
  5
34B6
330
34B1
100
AcDbEntity
  8
0
  6
ByBlock
 62
     0
100
AcDbBlockEnd
  0
BLOCK
  5
4A6D9
330
4A6D6
100
AcDbEntity
  8
0
100
AcDbBlockBegin
  2
zero block
 70
     0
 10
0.0
 20
0.0
 30
0.0
  3
zero block
  1

  0
HATCH
  5
4A6DA
330
4A6D6
100
AcDbEntity
  8
0
 62
     7
100
AcDbHatch
 10
0.0
 20
0.0
 30
0.0
210
0.0
220
0.0
230
1.0
  2
SOLID
 70
     1
 71
     0
 91
        2
 92
        7
 72
     1
 73
     1
 93
        3
 10
0.0
 20
0.9999999999999875
 42
0.4142135623730915
 10
-1.0
 20
0.0
 42
0.0
 10
0.0
 20
0.0
 42
0.0
 97
        0
 92
        7
 72
     1
 73
     1
 93
        3
 10
1.000000000000007
 20
0.0
 42
0.0
 10
0.0
 20
0.0
 42
0.0
 10
0.0
 20
-1.0
 42
0.4142135623730974
 97
        0
 75
     0
 76
     1
 47
0.0090601366782909
 98
        2
 10
-0.380591363650975
 20
0.4885804701532896
 10
0.4350764810977559
 20
-0.4536738423704725
1001
AcDbBlockRepETag
1070
     1
1071
        0
1005
4A6DA
  0
LINE
  5
4A6DB
330
4A6D6
100
AcDbEntity
  8
0
 62
     7
 48
0.2
100
AcDbLine
 10
-1.0
 20
0.0
 30
0.0
 11
1.000000000000007
 21
0.0
 31
0.0
1001
AcDbBlockRepETag
1070
     1
1071
        1
1005
4A6DB
  0
LINE
  5
4A6DC
330
4A6D6
100
AcDbEntity
  8
0
 62
     7
 48
0.2
100
AcDbLine
 10
0.0
 20
-1.0
 30
0.0
 11
0.0
 21
0.9999999999999875
 31
0.0
1001
AcDbBlockRepETag
1070
     1
1071
        2
1005
4A6DC
  0
ARC
  5
4A6DD
330
4A6D6
100
AcDbEntity
  8
0
 62
     7
 48
0.2
100
AcDbCircle
 10
0.0
 20
0.0
 30
0.0
 40
1.0
100
AcDbArc
 50
270.0
 51
0.0
1001
AcDbBlockRepETag
1070
     1
1071
        3
1005
4A6DD
  0
ARC
  5
4A6DE
330
4A6D6
100
AcDbEntity
  8
0
 62
     7
 48
0.2
100
AcDbCircle
 10
0.0
 20
0.0
 30
0.0
 40
1.0
100
AcDbArc
 50
0.0
 51
90.0
1001
AcDbBlockRepETag
1070
     1
1071
        4
1005
4A6DE
  0
ARC
  5
4A6DF
330
4A6D6
100
AcDbEntity
  8
0
 62
     7
 48
0.2
100
AcDbCircle
 10
0.0
 20
0.0
 30
0.0
 40
1.0
100
AcDbArc
 50
180.0
 51
270.0
1001
AcDbBlockRepETag
1070
     1
1071
        5
1005
4A6DF
  0
ARC
  5
4A6E0
330
4A6D6
100
AcDbEntity
  8
0
 62
     7
 48
0.2
100
AcDbCircle
 10
0.0
 20
0.0
 30
0.0
 40
1.0
100
AcDbArc
 50
90.0
 51
180.0
1001
AcDbBlockRepETag
1070
     1
1071
        6
1005
4A6E0
  0
ENDBLK
  5
4A6E1
330
4A6D6
100
AcDbEntity
  8
0
100
AcDbBlockEnd
  0
BLOCK
  5
8778C
330
8778B
100
AcDbEntity
  8
0
100
AcDbBlockBegin
  2
_None
 70
     0
 10
0.0
 20
0.0
 30
0.0
  3
_None
  1

  0
ENDBLK
  5
8778D
330
8778B
100
AcDbEntity
  8
0
100
AcDbBlockEnd
  0
BLOCK
  5
87DD6
330
87DCC
100
AcDbEntity
  8
0
100
AcDbBlockBegin
  2
*D3944
 70
     1
 10
0.0
 20
0.0
 30
0.0
  3
*D3944
  1

  0
LINE
  5
87EF9
330
87DCC
100
AcDbEntity
  8
2
100
AcDbLine
 10
0.0
 20
26.28149999889999
 30
0.0
 11
0.0
 21
71.3351448400974
 31
0.0
  0
LINE
  5
87EFA
330
87DCC
100
AcDbEntity
  8
2
100
AcDbLine
 10
50.80000000000001
 20
37.29999999890364
 30
0.0
 11
50.80000000000001
 21
71.3351448400974
 31
0.0
  0
LINE
  5
87EFB
330
87DCC
100
AcDbEntity
  8
2
100
AcDbLine
 10
3.5
 20
69.8351448400974
 30
0.0
 11
47.30000000000001
 21
69.8351448400974
 31
0.0
  0
SOLID
  5
87EFC
330
87DCC
100
AcDbEntity
  8
2
100
AcDbTrace
 10
3.5
 20
70.41847817343072
 30
0.0
 11
3.5
 21
69.25181150676407
 31
0.0
 12
0.0
 22
69.8351448400974
 32
0.0
 13
0.0
 23
69.8351448400974
 33
0.0
  0
SOLID
  5
87EFD
330
87DCC
100
AcDbEntity
  8
2
100
AcDbTrace
 10
47.30000000000001
 20
69.25181150676407
 30
0.0
 11
47.30000000000001
 21
70.41847817343072
 31
0.0
 12
50.80000000000001
 22
69.8351448400974
 32
0.0
 13
50.80000000000001
 23
69.8351448400974
 33
0.0
  0
MTEXT
  5
87EFE
330
87DCC
100
AcDbEntity
  8
2
100
AcDbMText
 10
25.66273903550535
 20
73.88514484009739
 30
0.0
 40
3.5
 41
0.0
 71
     5
 72
     1
  1
\A1;50.8 [2.000"]
  7
simplex
 73
     1
 44
1.0
1001
ACAD
1000
MTEXTBEGIN
1070
    73
1070
     1
1070
    44
1040
1.0
1070
    74
1070
     0
1000
MTEXTEND
  0
POINT
  5
87EFF
330
87DCC
100
AcDbEntity
  8
Defpoints
 62
     0
100
AcDbPoint
 10
0.0
 20
26.28149999889999
 30
0.0
  0
POINT
  5
87F00
330
87DCC
100
AcDbEntity
  8
Defpoints
 62
     0
100
AcDbPoint
 10
50.80000000000001
 20
37.29999999890364
 30
0.0
  0
POINT
  5
87F01
330
87DCC
100
AcDbEntity
  8
Defpoints
 62
     0
100
AcDbPoint
 10
50.80000000000001
 20
69.8351448400974
 30
0.0
  0
ENDBLK
  5
87DD7
330
87DCC
100
AcDbEntity
  8
0
100
AcDbBlockEnd
  0
BLOCK
  5
87DE3
330
87DD8
100
AcDbEntity
  8
0
100
AcDbBlockBegin
  2
*D4055
 70
     1
 10
0.0
 20
0.0
 30
0.0
  3
*D4055
  1

  0
LINE
  5
87EEF
330
87DD8
100
AcDbEntity
  8
2
100
AcDbLine
 10
42.59999999999997
 20
38.09999999889999
 30
0.0
 11
42.59999999999997
 21
61.41922213148585
 31
0.0
  0
LINE
  5
87EF0
330
87DD8
100
AcDbEntity
  8
2
100
AcDbLine
 10
50.80000000000001
 20
37.29999999890001
 30
0.0
 11
50.80000000000001
 21
61.41922213148585
 31
0.0
  0
LINE
  5
87EF1
330
87DD8
100
AcDbEntity
  8
2
100
AcDbLine
 10
54.30000000000001
 20
59.91922213148586
 30
0.0
 11
106.7333333333333
 21
59.91922213148586
 31
0.0
  0
LINE
  5
87EF2
330
87DD8
100
AcDbEntity
  8
2
100
AcDbLine
 10
39.09999999999996
 20
59.91922213148586
 30
0.0
 11
35.59999999999997
 21
59.91922213148586
 31
0.0
  0
SOLID
  5
87EF3
330
87DD8
100
AcDbEntity
  8
2
100
AcDbTrace
 10
39.09999999999996
 20
59.33588879815252
 30
0.0
 11
39.09999999999996
 21
60.5025554648192
 31
0.0
 12
42.59999999999997
 22
59.91922213148586
 32
0.0
 13
42.59999999999997
 23
59.91922213148586
 33
0.0
  0
SOLID
  5
87EF4
330
87DD8
100
AcDbEntity
  8
2
100
AcDbTrace
 10
54.30000000000001
 20
60.5025554648192
 30
0.0
 11
54.30000000000001
 21
59.33588879815252
 31
0.0
 12
50.80000000000001
 22
59.91922213148586
 32
0.0
 13
50.80000000000001
 23
59.91922213148586
 33
0.0
  0
MTEXT
  5
87EF5
330
87DD8
100
AcDbEntity
  8
2
100
AcDbMText
 10
82.2666666666667
 20
63.96922213148585
 30
0.0
 40
3.5
 41
0.0
 71
     5
 72
     1
  1
\A1;8.2 [.323"](MAX)
  7
simplex
 73
     1
 44
1.0
1001
ACAD
1000
MTEXTBEGIN
1070
    73
1070
     1
1070
    44
1040
1.0
1070
    74
1070
     0
1000
MTEXTEND
  0
POINT
  5
87EF6
330
87DD8
100
AcDbEntity
  8
Defpoints
 62
     0
100
AcDbPoint
 10
42.59999999999997
 20
38.09999999889999
 30
0.0
  0
POINT
  5
87EF7
330
87DD8
100
AcDbEntity
  8
Defpoints
 62
     0
100
AcDbPoint
 10
50.80000000000001
 20
37.29999999890001
 30
0.0
  0
POINT
  5
87EF8
330
87DD8
100
AcDbEntity
  8
Defpoints
 62
     0
100
AcDbPoint
 10
50.80000000000001
 20
59.91922213148586
 30
0.0
  0
ENDBLK
  5
87DE4
330
87DD8
100
AcDbEntity
  8
0
100
AcDbBlockEnd
  0
BLOCK
  5
87DEE
330
87DE5
100
AcDbEntity
  8
0
100
AcDbBlockBegin
  2
*D4166
 70
     1
 10
0.0
 20
0.0
 30
0.0
  3
*D4166
  1

  0
LINE
  5
87E32
330
87DE5
100
AcDbEntity
  8
2
100
AcDbLine
 10
50.0
 20
38.09999999890003
 30
0.0
 11
72.20766079186768
 21
38.09999999890003
 31
0.0
  0
LINE
  5
87E33
330
87DE5
100
AcDbEntity
  8
2
100
AcDbLine
 10
70.70766079186768
 20
34.59999999890002
 30
0.0
 11
70.70766079186768
 21
-38.09999999889999
 31
0.0
  0
SOLID
  5
87E34
330
87DE5
100
AcDbEntity
  8
2
100
AcDbTrace
 10
71.29099412520101
 20
34.59999999890002
 30
0.0
 11
70.12432745853435
 21
34.59999999890002
 31
0.0
 12
70.70766079186768
 22
38.09999999890003
 32
0.0
 13
70.70766079186768
 23
38.09999999890003
 33
0.0
  0
INSERT
  5
87E35
330
87DE5
100
AcDbEntity
  8
2
100
AcDbBlockReference
  2
_None
 10
70.70766079186768
 20
-38.09999999889999
 30
0.0
 41
3.5
 42
3.5
 43
3.5
 50
270.0
  0
MTEXT
  5
87E36
330
87DE5
100
AcDbEntity
  8
2
100
AcDbMText
 10
66.65766079186767
 20
-1.749999999999985
 30
0.0
 40
3.5
 41
0.0
 71
     5
 72
     1
  1
\A1;%%C76.2 [%%c3.000"]
  7
simplex
 11
0.0
 21
1.0
 31
0.0
 73
     1
 44
1.0
1001
ACAD
1000
MTEXTBEGIN
1070
    73
1070
     1
1070
    44
1040
1.0
1070
    74
1070
     0
1000
MTEXTEND
  0
POINT
  5
87E37
330
87DE5
100
AcDbEntity
  8
Defpoints
 62
     0
100
AcDbPoint
 10
50.0
 20
38.09999999890003
 30
0.0
  0
POINT
  5
87E38
330
87DE5
100
AcDbEntity
  8
Defpoints
 62
     0
100
AcDbPoint
 10
50.0
 20
-38.09999999889999
 30
0.0
  0
POINT
  5
87E39
330
87DE5
100
AcDbEntity
  8
Defpoints
 62
     0
100
AcDbPoint
 10
70.70766079186768
 20
-38.09999999889999
 30
0.0
  0
ENDBLK
  5
87DEF
330
87DE5
100
AcDbEntity
  8
0
100
AcDbBlockEnd
  0
BLOCK
  5
87DFB
330
87DF0
100
AcDbEntity
  8
0
100
AcDbBlockBegin
  2
*D4277
 70
     1
 10
0.0
 20
0.0
 30
0.0
  3
*D4277
  1

  0
LINE
  5
87E3A
330
87DF0
100
AcDbEntity
  8
sk2
100
AcDbLine
 10
0.0
 20
-26.28147774479999
 30
0.0
 11
0.0
 21
-51.5114707344605
 31
0.0
  0
LINE
  5
87E3B
330
87DF0
100
AcDbEntity
  8
sk2
100
AcDbLine
 10
24.0
 20
-12.3999999989
 30
0.0
 11
24.0
 21
-51.5114707344605
 31
0.0
  0
LINE
  5
87E3C
330
87DF0
100
AcDbEntity
  8
sk2
100
AcDbLine
 10
24.0
 20
-50.01147073446048
 30
0.0
 11
60.09999999999998
 21
-50.01147073446048
 31
0.0
  0
LINE
  5
87E3D
330
87DF0
100
AcDbEntity
  8
sk2
100
AcDbLine
 10
3.5
 20
-50.01147073446048
 30
0.0
 11
20.5
 21
-50.01147073446048
 31
0.0
  0
SOLID
  5
87E3E
330
87DF0
100
AcDbEntity
  8
sk2
100
AcDbTrace
 10
3.5
 20
-49.42813740112715
 30
0.0
 11
3.5
 21
-50.59480406779382
 31
0.0
 12
0.0
 22
-50.01147073446048
 32
0.0
 13
0.0
 23
-50.01147073446048
 33
0.0
  0
SOLID
  5
87E3F
330
87DF0
100
AcDbEntity
  8
sk2
100
AcDbTrace
 10
20.5
 20
-50.59480406779382
 30
0.0
 11
20.5
 21
-49.42813740112715
 31
0.0
 12
24.0
 22
-50.01147073446048
 32
0.0
 13
24.0
 23
-50.01147073446048
 33
0.0
  0
MTEXT
  5
87E40
330
87DF0
100
AcDbEntity
  8
sk2
100
AcDbMText
 10
43.79999999999999
 20
-45.9614707344605
 30
0.0
 40
3.5
 41
0.0
 71
     5
 72
     1
  1
\A1;24 [.945"]
  7
simplex
 73
     1
 44
1.0
1001
ACAD
1000
MTEXTBEGIN
1070
    73
1070
     1
1070
    44
1040
1.0
1070
    74
1070
     0
1000
MTEXTEND
  0
POINT
  5
87E41
330
87DF0
100
AcDbEntity
  8
Defpoints
 62
     0
100
AcDbPoint
 10
0.0
 20
-26.28147774479999
 30
0.0
  0
POINT
  5
87E42
330
87DF0
100
AcDbEntity
  8
Defpoints
 62
     0
100
AcDbPoint
 10
24.0
 20
-12.3999999989
 30
0.0
  0
POINT
  5
87E43
330
87DF0
100
AcDbEntity
  8
Defpoints
 62
     0
100
AcDbPoint
 10
24.0
 20
-50.01147073446048
 30
0.0
  0
ENDBLK
  5
87DFC
330
87DF0
100
AcDbEntity
  8
0
100
AcDbBlockEnd
  0
BLOCK
  5
87E07
330
87DFD
100
AcDbEntity
  8
0
100
AcDbBlockBegin
  2
*D4388
 70
     1
 10
0.0
 20
0.0
 30
0.0
  3
*D4388
  1

  0
LINE
  5
87E44
330
87DFD
100
AcDbEntity
  8
sk2
100
AcDbLine
 10
1.5
 20
27.78152225520005
 30
0.0
 11
-31.31345902791494
 21
27.78152225520005
 31
0.0
  0
LINE
  5
87E45
330
87DFD
100
AcDbEntity
  8
sk2
100
AcDbLine
 10
1.5
 20
-27.78147774479999
 30
0.0
 11
-31.31345902791494
 21
-27.78147774479998
 31
0.0
  0
LINE
  5
87E46
330
87DFD
100
AcDbEntity
  8
sk2
100
AcDbLine
 10
-29.81345902791495
 20
24.28152225520005
 30
0.0
 11
-29.81345902791495
 21
-24.28147774479998
 31
0.0
  0
SOLID
  5
87E47
330
87DFD
100
AcDbEntity
  8
sk2
100
AcDbTrace
 10
-29.23012569458161
 20
24.28152225520005
 30
0.0
 11
-30.39679236124829
 21
24.28152225520005
 31
0.0
 12
-29.81345902791495
 22
27.78152225520005
 32
0.0
 13
-29.81345902791495
 23
27.78152225520005
 33
0.0
  0
SOLID
  5
87E48
330
87DFD
100
AcDbEntity
  8
sk2
100
AcDbTrace
 10
-30.39679236124829
 20
-24.28147774479998
 30
0.0
 11
-29.23012569458161
 21
-24.28147774479998
 31
0.0
 12
-29.81345902791495
 22
-27.78147774479998
 32
0.0
 13
-29.81345902791495
 23
-27.78147774479998
 33
0.0
  0
MTEXT
  5
87E49
330
87DFD
100
AcDbEntity
  8
sk2
100
AcDbMText
 10
-33.86345902791494
 20
0.0000222552000333
 30
0.0
 40
3.5
 41
0.0
 71
     5
 72
     1
  1
\A1;%%C55.563 [%%c2.188"]
  7
simplex
 11
0.0000000000000001
 21
1.0
 31
0.0
 73
     1
 44
1.0
1001
ACAD
1000
MTEXTBEGIN
1070
    73
1070
     1
1070
    44
1040
1.0
1070
    74
1070
     0
1000
MTEXTEND
  0
POINT
  5
87E4A
330
87DFD
100
AcDbEntity
  8
Defpoints
 62
     0
100
AcDbPoint
 10
1.5
 20
27.78152225520005
 30
0.0
  0
POINT
  5
87E4B
330
87DFD
100
AcDbEntity
  8
Defpoints
 62
     0
100
AcDbPoint
 10
1.5
 20
-27.78147774479999
 30
0.0
  0
POINT
  5
87E4C
330
87DFD
100
AcDbEntity
  8
Defpoints
 62
     0
100
AcDbPoint
 10
-29.81345902791495
 20
-27.78147774479998
 30
0.0
  0
ENDBLK
  5
87E08
330
87DFD
100
AcDbEntity
  8
0
100
AcDbBlockEnd
  0
BLOCK
  5
87E13
330
87E09
100
AcDbEntity
  8
0
100
AcDbBlockBegin
  2
*D4499
 70
     1
 10
0.0
 20
0.0
 30
0.0
  3
*D4499
  1

  0
LINE
  5
87E4D
330
87E09
100
AcDbEntity
  8
sk2
100
AcDbLine
 10
4.0
 20
12.69999999890001
 30
0.0
 11
-21.35445918191135
 21
12.69999999890001
 31
0.0
  0
LINE
  5
87E4E
330
87E09
100
AcDbEntity
  8
sk2
100
AcDbLine
 10
4.0
 20
-12.69999999890001
 30
0.0
 11
-21.35445918191135
 21
-12.69999999890001
 31
0.0
  0
LINE
  5
87E4F
330
87E09
100
AcDbEntity
  8
sk2
100
AcDbLine
 10
-19.85445918191135
 20
9.199999998900011
 30
0.0
 11
-19.85445918191135
 21
-9.199999998900008
 31
0.0
  0
SOLID
  5
87E50
330
87E09
100
AcDbEntity
  8
sk2
100
AcDbTrace
 10
-19.27112584857802
 20
9.199999998900011
 30
0.0
 11
-20.43779251524469
 21
9.199999998900011
 31
0.0
 12
-19.85445918191135
 22
12.69999999890001
 32
0.0
 13
-19.85445918191135
 23
12.69999999890001
 33
0.0
  0
SOLID
  5
87E51
330
87E09
100
AcDbEntity
  8
sk2
100
AcDbTrace
 10
-20.43779251524469
 20
-9.199999998900008
 30
0.0
 11
-19.27112584857802
 21
-9.199999998900008
 31
0.0
 12
-19.85445918191135
 22
-12.69999999890001
 32
0.0
 13
-19.85445918191135
 23
-12.69999999890001
 33
0.0
  0
MTEXT
  5
87E52
330
87E09
100
AcDbEntity
  8
sk2
100
AcDbMText
 10
-23.90445918191135
 20
-1.255485715559927
 30
0.0
 40
3.5
 41
0.0
 71
     5
 72
     1
  1
\A1;%%C25.4 [%%c1.000"]
  7
simplex
 11
0.0
 21
1.0
 31
0.0
 73
     1
 44
1.0
1001
ACAD
1000
MTEXTBEGIN
1070
    73
1070
     1
1070
    44
1040
1.0
1070
    74
1070
     0
1000
MTEXTEND
  0
POINT
  5
87E53
330
87E09
100
AcDbEntity
  8
Defpoints
 62
     0
100
AcDbPoint
 10
4.0
 20
12.69999999890001
 30
0.0
  0
POINT
  5
87E54
330
87E09
100
AcDbEntity
  8
Defpoints
 62
     0
100
AcDbPoint
 10
4.0
 20
-12.69999999890001
 30
0.0
  0
POINT
  5
87E55
330
87E09
100
AcDbEntity
  8
Defpoints
 62
     0
100
AcDbPoint
 10
-19.85445918191135
 20
-12.69999999890001
 30
0.0
  0
ENDBLK
  5
87E14
330
87E09
100
AcDbEntity
  8
0
100
AcDbBlockEnd
  0
BLOCK
  5
87E1D
330
87E15
100
AcDbEntity
  8
0
100
AcDbBlockBegin
  2
*D451010
 70
     1
 10
0.0
 20
0.0
 30
0.0
  3
*D451010
  1

  0
LINE
  5
87E56
330
87E15
100
AcDbEntity
  8
2
100
AcDbLine
 10
93.37994034390822
 20
53.29068124986839
 30
0.0
 11
54.03461593681625
 21
38.78723711596915
 31
0.0
  0
MTEXT
  5
87E57
330
87E15
100
AcDbEntity
  8
2
100
AcDbMText
 10
73.94850315554792
 20
50.44427534547153
 30
0.0
 40
3.5
 41
0.0
 71
     5
 72
     1
  1
\A1;R0.8 [R.031"]
  7
simplex
 11
0.9382827760037836
 21
0.3458690969928274
 31
0.0
 73
     1
 44
1.0
1001
ACAD
1000
MTEXTBEGIN
1070
    73
1070
     1
1070
    44
1040
1.0
1070
    74
1070
     0
1000
MTEXTEND
  0
SOLID
  5
87E58
330
87E15
100
AcDbEntity
  8
2
100
AcDbTrace
 10
53.83285896357044
 20
39.33456873530472
 30
0.0
 11
54.23637291006207
 21
38.23990549663363
 31
0.0
 12
50.75062622080301
 22
37.57669527649426
 32
0.0
 13
50.75062622080301
 23
37.57669527649426
 33
0.0
  0
LINE
  5
87E59
330
87E15
100
AcDbEntity
  8
2
100
AcDbLine
 10
49.90999999999999
 20
37.29999999890001
 30
0.0
 11
50.09
 21
37.29999999890001
 31
0.0
  0
LINE
  5
87E5A
330
87E15
100
AcDbEntity
  8
2
100
AcDbLine
 10
50.0
 20
37.2099999989
 30
0.0
 11
50.0
 21
37.38999999890001
 31
0.0
  0
POINT
  5
87E5B
330
87E15
100
AcDbEntity
  8
Defpoints
 62
     0
100
AcDbPoint
 10
50.75062622080301
 20
37.57669527649426
 30
0.0
  0
POINT
  5
87E5C
330
87E15
100
AcDbEntity
  8
Defpoints
 62
     0
100
AcDbPoint
 10
50.0
 20
37.29999999890001
 30
0.0
  0
ENDBLK
  5
87E1E
330
87E15
100
AcDbEntity
  8
0
100
AcDbBlockEnd
  0
ENDSEC
  0
SECTION
  2
ENTITIES
  0
INSERT
  5
4A793
330
1F
100
AcDbEntity
  8
0
100
AcDbBlockReference
  2
zero block
 10
0.0
 20
0.0
 30
0.0
 50
180.0
  0
MTEXT
  5
87C85
330
1F
100
AcDbEntity
  8
sk6
  6
Continuous
 62
     5
100
AcDbMText
 10
-1.985830796132544
 20
91.42741623478693
 30
0.0
 40
3.5
 41
41.65
 71
     1
 72
     1
  1
WWX400UR3_0007CA
 73
     1
 44
0.9
1001
ACAD
1000
MTEXTBEGIN
1070
    73
1070
     1
1070
    44
1040
0.9
1070
    74
1070
     0
1000
MTEXTEND
1000
ACAD_MTEXT_DEFINED_HEIGHT_BEGIN
1070
    46
1040
3.48901801050149
1000
ACAD_MTEXT_DEFINED_HEIGHT_END
  0
LINE
  5
87C86
330
1F
100
AcDbEntity
  8
4
100
AcDbLine
 10
53.13927052441488
 20
0.0
 30
0.0
 11
-2.907861614760518
 21
0.0
 31
0.0
  0
LINE
  5
87C87
330
1F
100
AcDbEntity
  8
nocut
100
AcDbLine
 10
0.0
 20
0.0
 30
0.0
 11
0.0
 21
26.28149999889999
 31
0.0
  0
LINE
  5
87C88
330
1F
100
AcDbEntity
  8
sk3
100
AcDbLine
 10
0.9999999754999747
 20
4.762522255200025
 30
0.0
 11
0.9999999754999747
 21
13.19999999890001
 31
0.0
  0
LINE
  5
87C89
330
1F
100
AcDbEntity
  8
sk3
100
AcDbLine
 10
4.0
 20
4.762522255200025
 30
0.0
 11
4.0
 21
13.19999999890001
 31
0.0
  0
LINE
  5
87C8A
330
1F
100
AcDbEntity
  8
sk3
100
AcDbLine
 10
0.9999999754999747
 20
13.19999999890001
 30
0.0
 11
0.0
 21
14.19999997259998
 31
0.0
  0
LINE
  5
87C8B
330
1F
100
AcDbEntity
  8
nocut
100
AcDbLine
 10
49.01307488679996
 20
0.0
 30
0.0
 11
0.0
 21
0.0
 31
0.0
  0
LINE
  5
87C8C
330
1F
100
AcDbEntity
  8
sk3
100
AcDbLine
 10
12.92774653969997
 20
12.69999999890001
 30
0.0
 11
12.92774653969997
 21
0.0
 31
0.0
  0
LINE
  5
87C8D
330
1F
100
AcDbEntity
  8
nocut
100
AcDbLine
 10
16.25464141969996
 20
28.6852333402
 30
0.0
 11
25.43603783110001
 21
36.3893396827
 31
0.0
  0
LINE
  5
87C8E
330
1F
100
AcDbEntity
  8
sk3
100
AcDbLine
 10
24.40000000000003
 20
6.849999998899987
 30
0.0
 11
31.4999999195
 21
6.849999998899987
 31
0.0
  0
LINE
  5
87C8F
330
1F
100
AcDbEntity
  8
sk3
100
AcDbLine
 10
32.40000000000004
 20
9.999999998899994
 30
0.0
 11
44.01307488679996
 21
9.999999998899994
 31
0.0
  0
LINE
  5
87C90
102
{ACAD_REACTORS
330
87CCA
102
}
330
1F
100
AcDbEntity
  8
sk3
100
AcDbLine
 10
4.0
 20
12.69999999890001
 30
0.0
 11
12.92774653969997
 21
12.69999999890001
 31
0.0
  0
LINE
  5
87C91
330
1F
100
AcDbEntity
  8
sk3
100
AcDbLine
 10
0.9999999754999747
 20
13.19999999890001
 30
0.0
 11
4.0
 21
13.19999999890001
 31
0.0
  0
LINE
  5
87C92
330
1F
100
AcDbEntity
  8
sk3
100
AcDbLine
 10
14.17735573009997
 20
13.19999999890001
 30
0.0
 11
23.19999999999999
 21
13.19999999890001
 31
0.0
  0
LINE
  5
87C93
330
1F
100
AcDbEntity
  8
sk3
100
AcDbLine
 10
24.0
 20
0.0
 30
0.0
 11
24.0
 21
12.3999999989
 31
0.0
  0
LINE
  5
87C94
330
1F
100
AcDbEntity
  8
sk3
100
AcDbLine
 10
12.92774653969997
 20
12.69999999890001
 30
0.0
 11
13.83926112070003
 21
13.12504622849999
 31
0.0
  0
LINE
  5
87C95
330
1F
100
AcDbEntity
  8
sk3
100
AcDbLine
 10
31.4999999195
 20
6.849999998899987
 30
0.0
 11
31.4999999195
 21
0.0
 31
0.0
  0
LINE
  5
87C96
330
1F
100
AcDbEntity
  8
sk3
100
AcDbLine
 10
32.0
 20
0.0
 30
0.0
 11
32.0
 21
9.599999998899987
 31
0.0
  0
LINE
  5
87C97
330
1F
100
AcDbEntity
  8
nocut
100
AcDbLine
 10
1.5
 20
27.78149999889999
 30
0.0
 11
9.439875870099966
 21
27.78149999889999
 31
0.0
  0
LINE
  5
87C98
330
1F
100
AcDbEntity
  8
sk3
100
AcDbLine
 10
31.4999999195
 20
6.849999998899987
 30
0.0
 11
32.0
 21
7.350000085299996
 31
0.0
  0
LINE
  5
87C99
330
1F
100
AcDbEntity
  8
sk3
100
AcDbLine
 10
44.46450064589996
 20
21.7586174204
 30
0.0
 11
47.14263090801359
 21
26.0712763902383
 31
0.0
  0
LINE
  5
87C9A
330
1F
100
AcDbEntity
  8
sk3
100
AcDbLine
 10
44.01307488679996
 20
0.0
 30
0.0
 11
44.01307488679996
 21
20.17597111160002
 31
0.0
  0
LINE
  5
87C9B
330
1F
100
AcDbEntity
  8
nocut
100
AcDbLine
 10
27.31204344090003
 20
37.09074943880001
 30
0.0
 11
39.27382338399997
 21
37.2995430844
 31
0.0
  0
LINE
  5
87C9C
330
1F
100
AcDbEntity
  8
nocut
100
AcDbLine
 10
39.32618060329998
 20
37.29999999890001
 30
0.0
 11
43.01307488679998
 21
37.29999999890001
 31
0.0
  0
LINE
  5
87C9D
330
1F
100
AcDbEntity
  8
nocut
100
AcDbLine
 10
49.01307488679996
 20
31.29999999890002
 30
0.0
 11
49.01307488679996
 21
0.0
 31
0.0
  0
ARC
  5
87C9E
330
1F
100
AcDbEntity
  8
nocut
100
AcDbCircle
 10
12.39791576160002
 20
33.28149999889999
 30
0.0
 40
6.0
100
AcDbArc
 50
250.8118635462992
 51
310.0000000000001
  0
ARC
  5
87C9F
330
1F
100
AcDbEntity
  8
nocut
100
AcDbCircle
 10
43.01307488679998
 20
31.29999999890002
 30
0.0
 40
6.0
100
AcDbArc
 50
0.0
 51
90.0
  0
ARC
  5
87CA0
330
1F
100
AcDbEntity
  8
nocut
100
AcDbCircle
 10
39.32618060329998
 20
34.29999999890002
 30
0.0
 40
3.0
100
AcDbArc
 50
90.0
 51
91.00000000000015
  0
ARC
  5
87CA1
330
1F
100
AcDbEntity
  8
nocut
100
AcDbCircle
 10
27.36440066020004
 20
34.09120635340002
 30
0.0
 40
3.0
100
AcDbArc
 50
91.00000000000015
 51
130.0000000000001
  0
ARC
  5
87CA2
330
1F
100
AcDbEntity
  8
nocut
100
AcDbCircle
 10
9.439875870099966
 20
24.78149999889999
 30
0.0
 40
3.0
100
AcDbArc
 50
70.81186354629926
 51
90.0
  0
ARC
  5
87CA3
330
1F
100
AcDbEntity
  8
sk3
100
AcDbCircle
 10
47.01307488679996
 20
20.17597111160002
 30
0.0
 40
3.0
100
AcDbArc
 50
148.1600158132994
 51
180.0
  0
ARC
  5
87CA4
102
{ACAD_REACTORS
330
87CC1
102
}
330
1F
100
AcDbEntity
  8
nocut
100
AcDbCircle
 10
1.5
 20
26.28149999889999
 30
0.0
 40
1.5
100
AcDbArc
 50
90.0
 51
180.0
  0
ARC
  5
87CA5
330
1F
100
AcDbEntity
  8
sk3
100
AcDbCircle
 10
23.19999999999999
 20
12.3999999989
 30
0.0
 40
0.8
100
AcDbArc
 50
0.0
 51
90.0
  0
ARC
  5
87CA6
330
1F
100
AcDbEntity
  8
sk3
100
AcDbCircle
 10
14.17735573009997
 20
12.3999999989
 30
0.0
 40
0.8
100
AcDbArc
 50
90.0
 51
114.9999999999997
  0
ARC
  5
87CA7
330
1F
100
AcDbEntity
  8
sk3
100
AcDbCircle
 10
32.40000000000004
 20
9.599999998899987
 30
0.0
 40
0.4
100
AcDbArc
 50
90.0
 51
180.0
  0
ARC
  5
87CA8
330
1F
100
AcDbEntity
  8
sk3
100
AcDbCircle
 10
24.40000000000003
 20
7.249999998899992
 30
0.0
 40
0.4
100
AcDbArc
 50
180.0
 51
270.0
  0
LINE
  5
87CA9
330
1F
100
AcDbEntity
  8
sk3
100
AcDbLine
 10
0.9999999754999747
 20
-4.762477744799952
 30
0.0
 11
0.9999999754999747
 21
-13.19999999890001
 31
0.0
  0
LINE
  5
87CAA
330
1F
100
AcDbEntity
  8
sk3
100
AcDbLine
 10
4.0
 20
-4.762477744799952
 30
0.0
 11
4.0
 21
-13.19999999890001
 31
0.0
  0
LINE
  5
87CAB
330
1F
100
AcDbEntity
  8
sk3
100
AcDbLine
 10
0.9999999754999747
 20
-13.19999999890001
 30
0.0
 11
0.0
 21
-14.19999997259998
 31
0.0
  0
LINE
  5
87CAC
330
1F
100
AcDbEntity
  8
sk3
100
AcDbLine
 10
12.92774653969997
 20
-12.69999999890001
 30
0.0
 11
12.92774653969997
 21
0.0
 31
0.0
  0
LINE
  5
87CAD
330
1F
100
AcDbEntity
  8
sk3
100
AcDbLine
 10
24.40000000000003
 20
-6.849999998899987
 30
0.0
 11
31.4999999195
 21
-6.849999998899987
 31
0.0
  0
LINE
  5
87CAE
330
1F
100
AcDbEntity
  8
sk3
100
AcDbLine
 10
32.40000000000004
 20
-9.999999998899994
 30
0.0
 11
44.01307488679996
 21
-9.999999998899994
 31
0.0
  0
LINE
  5
87CAF
102
{ACAD_REACTORS
330
87CCA
102
}
330
1F
100
AcDbEntity
  8
sk3
100
AcDbLine
 10
4.0
 20
-12.69999999890001
 30
0.0
 11
12.92774653969997
 21
-12.69999999890001
 31
0.0
  0
LINE
  5
87CB0
330
1F
100
AcDbEntity
  8
sk3
100
AcDbLine
 10
0.9999999754999747
 20
-13.19999999890001
 30
0.0
 11
4.0
 21
-13.19999999890001
 31
0.0
  0
LINE
  5
87CB1
330
1F
100
AcDbEntity
  8
sk3
100
AcDbLine
 10
14.17735573009997
 20
-13.19999999890001
 30
0.0
 11
23.19999999999999
 21
-13.19999999890001
 31
0.0
  0
LINE
  5
87CB2
102
{ACAD_REACTORS
330
87CC6
102
}
330
1F
100
AcDbEntity
  8
sk3
100
AcDbLine
 10
24.0
 20
0.0
 30
0.0
 11
24.0
 21
-12.3999999989
 31
0.0
  0
LINE
  5
87CB3
330
1F
100
AcDbEntity
  8
sk3
100
AcDbLine
 10
12.92774653969997
 20
-12.69999999890001
 30
0.0
 11
13.83926112070003
 21
-13.12504622849997
 31
0.0
  0
LINE
  5
87CB4
330
1F
100
AcDbEntity
  8
sk3
100
AcDbLine
 10
31.4999999195
 20
-6.849999998899987
 30
0.0
 11
31.4999999195
 21
0.0
 31
0.0
  0
LINE
  5
87CB5
330
1F
100
AcDbEntity
  8
sk3
100
AcDbLine
 10
32.0
 20
0.0
 30
0.0
 11
32.0
 21
-9.599999998899987
 31
0.0
  0
LINE
  5
87CB6
330
1F
100
AcDbEntity
  8
sk3
100
AcDbLine
 10
31.4999999195
 20
-6.849999998899987
 30
0.0
 11
32.0
 21
-7.350000085299996
 31
0.0
  0
LINE
  5
87CB7
330
1F
100
AcDbEntity
  8
sk3
100
AcDbLine
 10
44.46450064589996
 20
-21.75861742039999
 30
0.0
 11
48.86259963369997
 21
-28.8409842934
 31
0.0
  0
LINE
  5
87CB8
330
1F
100
AcDbEntity
  8
sk3
100
AcDbLine
 10
44.01307488679996
 20
0.0
 30
0.0
 11
44.01307488679996
 21
-20.17597111160001
 31
0.0
  0
ARC
  5
87CB9
330
1F
100
AcDbEntity
  8
sk3
100
AcDbCircle
 10
47.01307488679996
 20
-20.17597111160001
 30
0.0
 40
3.0
100
AcDbArc
 50
180.0
 51
211.8399841867006
  0
ARC
  5
87CBA
330
1F
100
AcDbEntity
  8
sk3
100
AcDbCircle
 10
48.01307488679999
 20
-29.368533063
 30
0.0
 40
1.0
100
AcDbArc
 50
0.0
 51
31.83998418670055
  0
ARC
  5
87CBB
330
1F
100
AcDbEntity
  8
sk3
100
AcDbCircle
 10
23.19999999999999
 20
-12.3999999989
 30
0.0
 40
0.8
100
AcDbArc
 50
270.0
 51
0.0
  0
ARC
  5
87CBC
330
1F
100
AcDbEntity
  8
sk3
100
AcDbCircle
 10
14.17735573009997
 20
-12.3999999989
 30
0.0
 40
0.8
100
AcDbArc
 50
245.0000000000003
 51
270.0
  0
ARC
  5
87CBD
330
1F
100
AcDbEntity
  8
sk3
100
AcDbCircle
 10
32.40000000000004
 20
-9.599999998899987
 30
0.0
 40
0.4
100
AcDbArc
 50
180.0
 51
270.0
  0
ARC
  5
87CBE
330
1F
100
AcDbEntity
  8
sk3
100
AcDbCircle
 10
24.40000000000003
 20
-7.249999998899992
 30
0.0
 40
0.4
100
AcDbArc
 50
90.0
 51
180.0
  0
DIMENSION
  5
87CBF
102
{ACAD_XDICTIONARY
360
87CC0
102
}
102
{ACAD_REACTORS
330
87CC1
102
}
330
1F
100
AcDbEntity
  8
2
100
AcDbDimension
  2
*D3944
 10
50.80000000000001
 20
69.8351448400974
 30
0.0
 11
25.66273903550535
 21
69.8351448400974
 31
0.0
 70
   160
 71
     5
 42
50.8
  3
コピー - ISO-25
100
AcDbAlignedDimension
 13
0.0
 23
26.28149999889999
 33
0.0
 14
50.80000000000001
 24
37.29999999890364
 34
0.0
 50
0.0
100
AcDbRotatedDimension
1001
ACAD
1000
DSTYLE
1002
{
1070
   170
1070
     1
1070
   171
1070
     3
1070
   143
1040
0.0393700787401575
1070
   285
1070
     4
1070
     4
1000
"
1070
   271
1070
     8
1070
    40
1040
1.0
1002
}
1001
ACAD_DSTYLE_DIMINSPECT
1070
   393
1070
     0
1070
   394
1070
     0
1070
   395
1000

1070
   396
1000

  0
DIMENSION
  5
87CC2
330
1F
100
AcDbEntity
  8
2
100
AcDbDimension
  2
*D4055
 10
50.80000000000001
 20
59.91922213148586
 30
0.0
 11
82.2666666666667
 21
59.91922213148586
 31
0.0
 70
   160
  1
<>(MAX)
 71
     5
 42
8.200000000000001
  3
コピー - ISO-25
100
AcDbAlignedDimension
 13
42.59999999999997
 23
38.09999999889999
 33
0.0
 14
50.80000000000001
 24
37.29999999890001
 34
0.0
 50
0.0
100
AcDbRotatedDimension
1001
ACAD
1000
DSTYLE
1002
{
1070
   170
1070
     1
1070
   171
1070
     3
1070
   143
1040
0.0393700787401575
1070
   285
1070
     4
1070
     4
1000
"
1070
   271
1070
     8
1070
    40
1040
1.0
1002
}
1001
ACAD_DSTYLE_DIMINSPECT
1070
   393
1070
     0
1070
   394
1070
     0
1070
   395
1000

1070
   396
1000

  0
DIMENSION
  5
87CC3
330
1F
100
AcDbEntity
  8
2
100
AcDbDimension
  2
*D4166
 10
70.70766079186768
 20
-38.09999999889999
 30
0.0
 11
66.65766079186767
 21
-1.749999999999985
 31
0.0
 70
    32
  1
%%C<>
 71
     5
 42
76.19999999779999
  3
コピー - ISO-25
100
AcDbAlignedDimension
 13
50.0
 23
38.09999999890003
 33
0.0
 14
50.0
 24
-38.09999999889999
 34
0.0
 50
90.0
100
AcDbRotatedDimension
1001
ACAD
1000
DSTYLE
1002
{
1070
   170
1070
     1
1070
   171
1070
     3
1070
   143
1040
0.0393700787401575
1070
   285
1070
     4
1070
     4
1000
%%c[]"
1070
   344
1005
8778B
1070
   271
1070
     8
1070
   173
1070
     1
1070
    40
1040
1.0
1070
    76
1070
     1
1002
}
1001
ACAD_DSTYLE_DIMINSPECT
1070
   393
1070
     0
1070
   394
1070
     0
1070
   395
1000

1070
   396
1000

  0
DIMENSION
  5
87CC4
102
{ACAD_XDICTIONARY
360
87CC5
102
}
102
{ACAD_REACTORS
330
87CC6
102
}
330
1F
100
AcDbEntity
  8
sk2
100
AcDbDimension
  2
*D4277
 10
24.0
 20
-50.01147073446048
 30
0.0
 11
43.79999999999999
 21
-45.9614707344605
 31
0.0
 70
    32
 71
     5
 42
24.0
  3
コピー - ISO-25
100
AcDbAlignedDimension
 13
0.0
 23
-26.28147774479999
 33
0.0
 14
24.0
 24
-12.3999999989
 34
0.0
 50
0.0
100
AcDbRotatedDimension
1001
ACAD
1000
DSTYLE
1002
{
1070
   170
1070
     1
1070
   171
1070
     3
1070
   143
1040
0.0393700787401575
1070
   285
1070
     4
1070
     4
1000
"
1070
   271
1070
     8
1070
    40
1040
1.0
1002
}
1001
ACAD_DSTYLE_DIMINSPECT
1070
   393
1070
     0
1070
   394
1070
     0
1070
   395
1000

1070
   396
1000

  0
DIMENSION
  5
87CC7
330
1F
100
AcDbEntity
  8
sk2
100
AcDbDimension
  2
*D4388
 10
-29.81345902791495
 20
-27.78147774479998
 30
0.0
 11
-33.86345902791494
 21
0.0000222552000333
 31
0.0
 70
    32
  1
%%C<>
 71
     5
 42
55.563
  3
コピー - ISO-25
100
AcDbAlignedDimension
 13
1.5
 23
27.78152225520005
 33
0.0
 14
1.5
 24
-27.78147774479999
 34
0.0
 50
90.0
100
AcDbRotatedDimension
1001
ACAD
1000
DSTYLE
1002
{
1070
   170
1070
     1
1070
   171
1070
     3
1070
   143
1040
0.0393700787401575
1070
   285
1070
     4
1070
     4
1000
%%c[]"
1070
   271
1070
     8
1070
    40
1040
1.0
1002
}
1001
ACAD_DSTYLE_DIMINSPECT
1070
   393
1070
     0
1070
   394
1070
     0
1070
   395
1000

1070
   396
1000

  0
DIMENSION
  5
87CC8
102
{ACAD_XDICTIONARY
360
87CC9
102
}
102
{ACAD_REACTORS
330
87CCA
102
}
330
1F
100
AcDbEntity
  8
sk2
100
AcDbDimension
  2
*D4499
 10
-19.85445918191135
 20
-12.69999999890001
 30
0.0
 11
-19.85445918191135
 21
-1.255485715559927
 31
0.0
 70
   160
  1
%%C<>
 71
     5
 42
25.3999999978
  3
コピー - ISO-25
100
AcDbAlignedDimension
 13
4.0
 23
12.69999999890001
 33
0.0
 14
4.0
 24
-12.69999999890001
 34
0.0
 50
90.0
100
AcDbRotatedDimension
1001
ACAD
1000
DSTYLE
1002
{
1070
   170
1070
     1
1070
   171
1070
     3
1070
   143
1040
0.0393700787401575
1070
   285
1070
     4
1070
     4
1000
%%c[]"
1070
   271
1070
     8
1070
    40
1040
1.0
1002
}
1001
ACAD_DSTYLE_DIMINSPECT
1070
   393
1070
     0
1070
   394
1070
     0
1070
   395
1000

1070
   396
1000

  0
LINE
  5
87CCB
330
1F
100
AcDbEntity
  8
1
100
AcDbLine
 10
39.32618060340003
 20
-37.30000000110003
 30
0.0
 11
43.01307488679998
 21
-37.30000000110003
 31
0.0
  0
LINE
  5
87CCC
330
1F
100
AcDbEntity
  8
1
100
AcDbLine
 10
39.27382338409996
 20
-37.29954308660001
 30
0.0
 11
39.32618060340003
 21
-37.30000000110003
 31
0.0
  0
LINE
  5
87CCD
330
1F
100
AcDbEntity
  8
1
100
AcDbLine
 10
27.31204344100002
 20
-37.09074944099999
 30
0.0
 11
39.27382338409996
 21
-37.29954308660001
 31
0.0
  0
LINE
  5
87CCE
330
1F
100
AcDbEntity
  8
1
100
AcDbLine
 10
25.4360378312
 20
-36.38933968490003
 30
0.0
 11
16.25464141980001
 21
-28.68523334240004
 31
0.0
  0
LINE
  5
87CCF
330
1F
100
AcDbEntity
  8
1
100
AcDbLine
 10
9.439875870100022
 20
-27.78150000110003
 30
0.0
 11
1.5
 21
-27.78150000110003
 31
0.0
  0
LINE
  5
87CD0
330
1F
100
AcDbEntity
  8
1
100
AcDbLine
 10
0.0
 20
26.28147774259996
 30
0.0
 11
0.0
 21
5.262499998899983
 31
0.0
  0
LINE
  5
87CD1
330
1F
100
AcDbEntity
  8
1
100
AcDbLine
 10
0.0
 20
-26.28150000110003
 30
0.0
 11
0.0
 21
-5.262500001100021
 31
0.0
  0
LINE
  5
87CD2
330
1F
100
AcDbEntity
  8
1
100
AcDbLine
 10
5.560000000000002
 20
3.762499998899983
 30
0.0
 11
5.560000000000002
 21
-3.762500001099993
 31
0.0
  0
LINE
  5
87CD3
330
1F
100
AcDbEntity
  8
1
100
AcDbLine
 10
25.4360378312
 20
36.38933968270001
 30
0.0
 11
16.25464141980001
 21
28.68523334009998
 31
0.0
  0
LINE
  5
87CD4
330
1F
100
AcDbEntity
  8
1
100
AcDbLine
 10
0.0
 20
5.262499998899983
 30
0.0
 11
0.5
 21
4.762499998899983
 31
0.0
  0
LINE
  5
87CD5
330
1F
100
AcDbEntity
  8
1
100
AcDbLine
 10
4.560000000000001
 20
4.762499998899983
 30
0.0
 11
5.560000000000002
 21
3.762499998899983
 31
0.0
  0
LINE
  5
87CD6
330
1F
100
AcDbEntity
  8
1
100
AcDbLine
 10
36.72579790010002
 20
34.87585269429999
 30
0.0
 11
39.00544450229995
 21
36.19319790470001
 31
0.0
  0
LINE
  5
87CD7
330
1F
100
AcDbEntity
  8
1
100
AcDbLine
 10
35.41702204450003
 20
34.7853199729
 30
0.0
 11
36.18886195880004
 21
35.07117344489998
 31
0.0
  0
LINE
  5
87CD8
330
1F
100
AcDbEntity
  8
1
100
AcDbLine
 10
0.5
 20
-4.762500001100021
 30
0.0
 11
0.0
 21
-5.262500001100021
 31
0.0
  0
LINE
  5
87CD9
330
1F
100
AcDbEntity
  8
1
100
AcDbLine
 10
5.560000000000002
 20
-3.762500001099993
 30
0.0
 11
4.560000000000001
 21
-4.762500001100021
 31
0.0
  0
LINE
  5
87CDA
330
1F
100
AcDbEntity
  8
1
100
AcDbLine
 10
4.560000000000001
 20
-4.762500001100021
 30
0.0
 11
0.5
 21
-4.762500001100021
 31
0.0
  0
LINE
  5
87CDB
330
1F
100
AcDbEntity
  8
1
100
AcDbLine
 10
0.5
 20
4.762499998899983
 30
0.0
 11
4.560000000000001
 21
4.762499998899983
 31
0.0
  0
LINE
  5
87CDC
330
1F
100
AcDbEntity
  8
1
100
AcDbLine
 10
34.97765376949997
 20
36.39516324679997
 30
0.0
 11
35.10861111290007
 21
35.00023859209998
 31
0.0
  0
LINE
  5
87CDD
330
1F
100
AcDbEntity
  8
1
100
AcDbLine
 10
48.86259963379996
 20
25.81066465669997
 30
0.0
 11
48.86259963379996
 21
24.15507621629999
 31
0.0
  0
LINE
  5
87CDE
330
1F
100
AcDbEntity
  8
1
100
AcDbLine
 10
49.01307488679996
 20
26.07447870740002
 30
0.0
 11
49.01307488679996
 21
-31.2999981282
 31
0.0
  0
LINE
  5
87CDF
330
1F
100
AcDbEntity
  8
1
100
AcDbLine
 10
36.02432512410003
 20
29.29763345779998
 30
0.0
 11
34.95710587020005
 21
31.30406334659999
 31
0.0
  0
LINE
  5
87CE0
330
1F
100
AcDbEntity
  8
1
100
AcDbLine
 10
35.5760850337
 20
31.02064862919995
 30
0.0
 11
36.48389595570001
 21
29.25288788610001
 31
0.0
  0
LINE
  5
87CE1
330
1F
100
AcDbEntity
  8
1
100
AcDbLine
 10
9.439875870100022
 20
27.78149999889999
 30
0.0
 11
1.5
 21
27.78149999889999
 31
0.0
  0
LINE
  5
87CE2
330
1F
100
AcDbEntity
  8
1
100
AcDbLine
 10
44.34136927090003
 20
29.15201344209997
 30
0.0
 11
44.15321803710003
 21
29.15201344209997
 31
0.0
  0
LINE
  5
87CE3
330
1F
100
AcDbEntity
  8
1
100
AcDbLine
 10
42.61690019939999
 20
29.3206969183
 30
0.0
 11
42.4287489655
 21
29.3206969183
 31
0.0
  0
LINE
  5
87CE4
330
1F
100
AcDbEntity
  8
1
100
AcDbLine
 10
42.8222072561
 20
29.4217652493
 30
0.0
 11
43.01035848999998
 21
29.4217652493
 31
0.0
  0
LINE
  5
87CE5
330
1F
100
AcDbEntity
  8
1
100
AcDbLine
 10
44.97333515090002
 20
29.95759928009997
 30
0.0
 11
45.16148638479996
 21
29.95759928009997
 31
0.0
  0
LINE
  5
87CE6
330
1F
100
AcDbEntity
  8
1
100
AcDbLine
 10
45.34888771790003
 20
30.56933198
 30
0.0
 11
45.16073648399998
 21
30.56933198
 31
0.0
  0
LINE
  5
87CE7
330
1F
100
AcDbEntity
  8
1
100
AcDbLine
 10
45.17819515500002
 20
29.95748724869998
 30
0.0
 11
45.16148639480002
 21
29.95758681529996
 31
0.0
  0
LINE
  5
87CE8
330
1F
100
AcDbEntity
  8
1
100
AcDbLine
 10
35.5760850337
 20
31.02064862919995
 30
0.0
 11
35.21426076450007
 21
31.10532732319999
 31
0.0
  0
LINE
  5
87CE9
330
1F
100
AcDbEntity
  8
1
100
AcDbLine
 10
34.54761197340002
 20
29.44122700029996
 30
0.0
 11
23.55840320400006
 21
33.41972693239998
 31
0.0
  0
LINE
  5
87CEA
330
1F
100
AcDbEntity
  8
1
100
AcDbLine
 10
36.10525990640002
 20
34.70368623559997
 30
0.0
 11
36.72579790010002
 21
34.87585269429999
 31
0.0
  0
LINE
  5
87CEB
330
1F
100
AcDbEntity
  8
1
100
AcDbLine
 10
35.36701733339999
 20
31.59636280340001
 30
0.0
 11
34.51826941650006
 21
31.59636280340001
 31
0.0
  0
LINE
  5
87CEC
330
1F
100
AcDbEntity
  8
1
100
AcDbLine
 10
35.34371875500005
 20
31.6425939187
 30
0.0
 11
34.46777588460003
 21
31.6425939187
 31
0.0
  0
LINE
  5
87CED
330
1F
100
AcDbEntity
  8
1
100
AcDbLine
 10
45.07115263420002
 20
31.69662803060003
 30
0.0
 11
44.88300140029997
 21
31.69662803060003
 31
0.0
  0
LINE
  5
87CEE
330
1F
100
AcDbEntity
  8
1
100
AcDbLine
 10
44.05032756889992
 20
32.05426566330002
 30
0.0
 11
44.23847880280003
 21
32.05426566330002
 31
0.0
  0
LINE
  5
87CEF
330
1F
100
AcDbEntity
  8
1
100
AcDbLine
 10
43.52215062699996
 20
32.47713149910001
 30
0.0
 11
43.33399939309996
 21
32.47713149910001
 31
0.0
  0
LINE
  5
87CF0
330
1F
100
AcDbEntity
  8
1
100
AcDbLine
 10
33.87399149890001
 20
32.78118491699999
 30
0.0
 11
34.77113463880005
 21
32.78118491699999
 31
0.0
  0
LINE
  5
87CF1
330
1F
100
AcDbEntity
  8
1
100
AcDbLine
 10
34.13394955500002
 20
33.83581024970003
 30
0.0
 11
35.06150020730002
 21
33.83581024970003
 31
0.0
  0
LINE
  5
87CF2
330
1F
100
AcDbEntity
  8
1
100
AcDbLine
 10
36.1343313305
 20
34.48736632599994
 30
0.0
 11
35.2410082989
 21
34.48736632599994
 31
0.0
  0
LINE
  5
87CF3
330
1F
100
AcDbEntity
  8
1
100
AcDbLine
 10
36.17810188640004
 20
34.51341150239997
 30
0.0
 11
35.28732553060007
 21
34.51341150239997
 31
0.0
  0
LINE
  5
87CF4
330
1F
100
AcDbEntity
  8
1
100
AcDbLine
 10
42.07064213779999
 20
31.51854366389999
 30
0.0
 11
42.08735089799995
 21
31.51844409729999
 31
0.0
  0
LINE
  5
87CF5
330
1F
100
AcDbEntity
  8
1
100
AcDbLine
 10
36.10525990640002
 20
34.70368623559997
 30
0.0
 11
35.41702204450003
 21
34.7853199729
 31
0.0
  0
LINE
  5
87CF6
330
1F
100
AcDbEntity
  8
1
100
AcDbLine
 10
36.18886195880004
 20
35.07117344489998
 30
0.0
 11
36.48913901029999
 21
34.99182929200003
 31
0.0
  0
LINE
  5
87CF7
330
1F
100
AcDbEntity
  8
1
100
AcDbLine
 10
27.31204344100002
 20
37.09074943879997
 30
0.0
 11
35.7767562683
 21
37.23850155080001
 31
0.0
  0
LINE
  5
87CF8
330
1F
100
AcDbEntity
  8
1
100
AcDbLine
 10
41.50101659569997
 20
37.58021200849997
 30
0.0
 11
40.94845491339998
 21
37.58021200849997
 31
0.0
  0
LINE
  5
87CF9
330
1F
100
AcDbEntity
  8
1
100
AcDbLine
 10
42.23467245179995
 20
37.76930934549998
 30
0.0
 11
41.68320564359999
 21
37.76930934549998
 31
0.0
  0
LINE
  5
87CFA
330
1F
100
AcDbEntity
  8
1
100
AcDbLine
 10
42.26836493450004
 20
37.76895050969998
 30
0.0
 11
42.23467150870003
 21
37.76930934549998
 31
0.0
  0
ARC
  5
87CFB
330
1F
100
AcDbEntity
  8
1
100
AcDbCircle
 10
12.3979157617
 20
-33.28150000110003
 30
0.0
 40
6.0
100
AcDbArc
 50
49.99999999999991
 51
109.1881364537007
  0
ARC
  5
87CFC
330
1F
100
AcDbEntity
  8
1
100
AcDbCircle
 10
12.3979157617
 20
33.28149999889999
 30
0.0
 40
6.0
100
AcDbArc
 50
250.8118635462992
 51
310.0000000000001
  0
ARC
  5
87CFD
330
1F
100
AcDbEntity
  8
1
100
AcDbCircle
 10
43.01307488679998
 20
-31.30000000110002
 30
0.0
 40
6.0
100
AcDbArc
 50
270.0
 51
0.0
  0
ARC
  5
87CFE
330
1F
100
AcDbEntity
  8
1
100
AcDbCircle
 10
9.439875870100022
 20
24.78149999889999
 30
0.0
 40
3.0
100
AcDbArc
 50
70.81186354629926
 51
90.0
  0
ARC
  5
87CFF
330
1F
100
AcDbEntity
  8
1
100
AcDbCircle
 10
9.439875870100022
 20
-24.78150000110003
 30
0.0
 40
3.0
100
AcDbArc
 50
270.0
 51
289.1881364537007
  0
ARC
  5
87D00
330
1F
100
AcDbEntity
  8
1
100
AcDbCircle
 10
27.36440066030002
 20
34.09120635330002
 30
0.0
 40
3.0
100
AcDbArc
 50
91.00000000000015
 51
130.0000000000001
  0
ARC
  5
87D01
330
1F
100
AcDbEntity
  8
1
100
AcDbCircle
 10
27.36440066030002
 20
-34.09120635560004
 30
0.0
 40
3.0
100
AcDbArc
 50
229.9999999999998
 51
268.9999999999998
  0
ARC
  5
87D02
330
1F
100
AcDbEntity
  8
1
100
AcDbCircle
 10
1.5
 20
26.28149999889999
 30
0.0
 40
1.5
100
AcDbArc
 50
90.0
 51
180.0
  0
ARC
  5
87D03
330
1F
100
AcDbEntity
  8
1
100
AcDbCircle
 10
1.5
 20
-26.28150000110003
 30
0.0
 40
1.5
100
AcDbArc
 50
180.0
 51
270.0
  0
SPLINE
  5
87D04
330
1F
100
AcDbEntity
  8
1
100
AcDbSpline
210
0.0
220
0.0
230
1.0
 70
     8
 71
     3
 72
    15
 73
    11
 74
     0
 42
0.000000001
 43
0.0000000001
 40
0.0
 40
0.0
 40
0.0
 40
0.0
 40
0.1246293835
 40
0.2493695473
 40
0.3743259483
 40
0.4994857045
 40
0.6247590985000003
 40
0.7500101368000001
 40
0.875106152
 40
1.0
 40
1.0
 40
1.0
 40
1.0
 10
42.07064213679996
 20
31.51855360479996
 30
0.0
 10
42.03530759409995
 20
31.51855025310002
 30
0.0
 10
41.964071758
 20
31.50686547059999
 30
0.0
 10
41.86880649659997
 20
31.45611948459997
 30
0.0
 10
41.79451621129999
 20
31.37749224630002
 30
0.0
 10
41.74904834239993
 20
31.27920476029996
 30
0.0
 10
41.73708037609997
 20
31.1714953629
 30
0.0
 10
41.75987206049994
 20
31.06554488540002
 30
0.0
 10
41.81495774389996
 20
30.97244266770001
 30
0.0
 10
41.86975118179996
 20
30.92518923760001
 30
0.0
 10
41.89994957489996
 20
30.90669893250004
 30
0.0
  0
SPLINE
  5
87D05
330
1F
100
AcDbEntity
  8
1
100
AcDbSpline
210
0.0
220
0.0
230
1.0
 70
     8
 71
     3
 72
    11
 73
     7
 74
     0
 42
0.000000001
 43
0.0000000001
 40
0.0
 40
0.0
 40
0.0
 40
0.0
 40
0.2503004004
 40
0.500350793
 40
0.7502244484000001
 40
1.0
 40
1.0
 40
1.0
 40
1.0
 10
41.13253017300002
 20
33.22334214290002
 30
0.0
 10
41.29007812310002
 20
33.37586234460001
 30
0.0
 10
41.63517782250004
 20
33.65125821459995
 30
0.0
 10
42.22125194599994
 20
33.95729565859999
 30
0.0
 10
42.85455013909993
 20
34.14565045520003
 30
0.0
 10
43.293434983
 20
34.188011241
 30
0.0
 10
43.51225529409997
 20
34.18801482080002
 30
0.0
  0
SPLINE
  5
87D06
330
1F
100
AcDbEntity
  8
1
100
AcDbSpline
210
0.0
220
0.0
230
1.0
 70
     8
 71
     3
 72
    15
 73
    11
 74
     0
 42
0.000000001
 43
0.0000000001
 40
0.0
 40
0.0
 40
0.0
 40
0.0
 40
0.1251708752
 40
0.2504178639
 40
0.3756803631
 40
0.5008539075
 40
0.6258744928
 40
0.7507162801
 40
0.8754018118999999
 40
1.0
 40
1.0
 40
1.0
 40
1.0
 10
42.17768465859996
 20
29.77940288189998
 30
0.0
 10
42.16293663040004
 20
29.75455966040002
 30
0.0
 10
42.13987837070003
 20
29.70069990479996
 30
0.0
 10
42.12750616689999
 20
29.61391184169997
 30
0.0
 10
42.13801261060001
 20
29.52682224250002
 30
0.0
 10
42.17073169290006
 20
29.44549771790003
 30
0.0
 10
42.22339374389997
 20
29.37553620369996
 30
0.0
 10
42.29239933470006
 20
29.32178378900002
 30
0.0
 10
42.37290416510001
 20
29.28795867730002
 30
0.0
 10
42.4307313136
 20
29.2802674145
 30
0.0
 10
42.45949013210003
 20
29.28026487899998
 30
0.0
  0
SPLINE
  5
87D07
330
1F
100
AcDbEntity
  8
1
100
AcDbSpline
210
0.0
220
0.0
230
1.0
 70
     8
 71
     3
 72
    11
 73
     7
 74
     0
 42
0.000000001
 43
0.0000000001
 40
0.0
 40
0.0
 40
0.0
 40
0.0
 40
0.2504819519
 40
0.5005874052000002
 40
0.7503850791
 40
1.0
 40
1.0
 40
1.0
 40
1.0
 10
43.72668666579992
 20
28.99889941349997
 30
0.0
 10
43.69143954289993
 20
29.06240143049999
 30
0.0
 10
43.6037189428
 20
29.18055508529997
 30
0.0
 10
43.43069929160003
 20
29.31654756660002
 30
0.0
 10
43.22827572160003
 20
29.4022630428
 30
0.0
 10
43.08273536319996
 20
29.42176828059999
 30
0.0
 10
43.0103584908
 20
29.42176467889996
 30
0.0
  0
SPLINE
  5
87D08
330
1F
100
AcDbEntity
  8
1
100
AcDbSpline
210
0.0
220
0.0
230
1.0
 70
     8
 71
     3
 72
    11
 73
     7
 74
     0
 42
0.000000001
 43
0.0000000001
 40
0.0
 40
0.0
 40
0.0
 40
0.0
 40
0.2504891883
 40
0.5005834931999999
 40
0.7503857384
 40
1.0
 40
1.0
 40
1.0
 40
1.0
 10
43.72668666579992
 20
28.99889941349997
 30
0.0
 10
43.74078828929998
 20
28.97349360830002
 30
0.0
 10
43.77588086900003
 20
28.92622288319998
 30
0.0
 10
43.84510453970006
 20
28.87182299470001
 30
0.0
 10
43.92608426489998
 20
28.83752450569999
 30
0.0
 10
43.98431112029991
 20
28.82972675029995
 30
0.0
 10
44.0132666532
 20
28.82972467349997
 30
0.0
  0
SPLINE
  5
87D09
330
1F
100
AcDbEntity
  8
1
100
AcDbSpline
210
0.0
220
0.0
230
1.0
 70
     8
 71
     3
 72
    15
 73
    11
 74
     0
 42
0.000000001
 43
0.0000000001
 40
0.0
 40
0.0
 40
0.0
 40
0.0
 40
0.125026603
 40
0.2501285277
 40
0.3752757539
 40
0.5004082424
 40
0.6254787929
 40
0.7504494531999999
 40
0.8752866427
 40
1.0
 40
1.0
 40
1.0
 40
1.0
 10
42.17768465859996
 20
29.77940288189998
 30
0.0
 10
42.20501879070002
 20
29.82544753919999
 30
0.0
 10
42.25083803509995
 20
29.92316563759998
 30
0.0
 10
42.28987139830002
 20
30.08007448399999
 30
0.0
 10
42.29792572070004
 20
30.24166849229999
 30
0.0
 10
42.27464175889998
 20
30.40175184419999
 30
0.0
 10
42.22092646239995
 20
30.55426261939998
 30
0.0
 10
42.13878541829996
 20
30.69341055139998
 30
0.0
 10
42.03141030700004
 20
30.81387744970003
 30
0.0
 10
41.94550165669993
 20
30.87880765070001
 30
0.0
 10
41.89994957489996
 20
30.90669893250004
 30
0.0
  0
SPLINE
  5
87D0A
330
1F
100
AcDbEntity
  8
1
100
AcDbSpline
210
0.0
220
0.0
230
1.0
 70
     8
 71
     3
 72
    15
 73
    11
 74
     0
 42
0.000000001
 43
0.0000000001
 40
0.0
 40
0.0
 40
0.0
 40
0.0
 40
0.1246819468
 40
0.2493922141
 40
0.3742031403
 40
0.4991330377000003
 40
0.6241948778000001
 40
0.7493820855
 40
0.8746592278000001
 40
1.0
 40
1.0
 40
1.0
 40
1.0
 10
42.08735089870002
 20
31.51843200569998
 30
0.0
 10
42.1401694649
 20
31.51843502789998
 30
0.0
 10
42.24610627049997
 20
31.52875380430002
 30
0.0
 10
42.39883893650005
 20
31.57464103820001
 30
0.0
 10
42.54000104299999
 20
31.64918803259999
 30
0.0
 10
42.66425100730002
 20
31.74962885950002
 30
0.0
 10
42.76698253079999
 20
31.8721951807
 30
0.0
 10
42.84435686689993
 20
32.01233735129998
 30
0.0
 10
42.89350749630003
 20
32.16474973580003
 30
0.0
 10
42.90623411890003
 20
32.2709341472
 30
0.0
 10
42.90746802189993
 20
32.32401747049997
 30
0.0
  0
SPLINE
  5
87D0B
330
1F
100
AcDbEntity
  8
1
100
AcDbSpline
210
0.0
220
0.0
230
1.0
 70
     8
 71
     3
 72
    17
 73
    13
 74
     0
 42
0.000000001
 43
0.0000000001
 40
0.0
 40
0.0
 40
0.0
 40
0.0
 40
0.124783314
 40
0.2496737262
 40
0.3746619514
 40
0.4372411069
 40
0.4998314333
 40
0.6249068635000004
 40
0.7499654424
 40
0.8125352899999999
 40
0.8750865458999999
 40
1.0
 40
1.0
 40
1.0
 40
1.0
 10
41.13253017300002
 20
33.22334214290002
 30
0.0
 10
40.9884003176
 20
33.08381183099996
 30
0.0
 10
40.72392829839997
 20
32.77864669820001
 30
0.0
 10
40.41319858949997
 20
32.25934409200002
 30
0.0
 10
40.23301117709997
 20
31.78745836249996
 30
0.0
 10
40.13964874650002
 20
31.39584111779996
 30
0.0
 10
40.08061550340005
 20
30.99744447869999
 30
0.0
 10
40.07224702570003
 20
30.49206472479999
 30
0.0
 10
40.15164720520002
 20
29.99293262360001
 30
0.0
 10
40.26617557549997
 20
29.60690383229999
 30
0.0
 10
40.41367374650002
 20
29.2325929033
 30
0.0
 10
40.56079242369997
 20
28.96726233209999
 30
0.0
 10
40.67312464959996
 20
28.80080640009996
 30
0.0
  0
SPLINE
  5
87D0C
330
1F
100
AcDbEntity
  8
1
100
AcDbSpline
210
0.0
220
0.0
230
1.0
 70
     8
 71
     3
 72
    11
 73
     7
 74
     0
 42
0.000000001
 43
0.0000000001
 40
0.0
 40
0.0
 40
0.0
 40
0.0
 40
0.2493743244
 40
0.4991100527000001
 40
0.749360618
 40
1.0
 40
1.0
 40
1.0
 40
1.0
 10
43.23557063960004
 20
32.64630623909997
 30
0.0
 10
43.19350442580002
 20
32.64630925629999
 30
0.0
 10
43.10840988549995
 20
32.6296127761
 30
0.0
 10
43.00037315389992
 20
32.55819336529996
 30
0.0
 10
42.92696557699996
 20
32.45126390240003
 30
0.0
 10
42.90845053099997
 20
32.36628566580004
 30
0.0
 10
42.90746802189993
 20
32.32401747049997
 30
0.0
  0
SPLINE
  5
87D0D
330
1F
100
AcDbEntity
  8
1
100
AcDbSpline
210
0.0
220
0.0
230
1.0
 70
     8
 71
     3
 72
     9
 73
     5
 74
     0
 42
0.000000001
 43
0.0000000001
 40
0.0
 40
0.0
 40
0.0
 40
0.0
 40
0.4998171182
 40
1.0
 40
1.0
 40
1.0
 40
1.0
 10
44.23847880199995
 20
32.05426623359997
 30
0.0
 10
44.30669716909998
 20
32.05426962829998
 30
0.0
 10
44.44373052749995
 20
32.07152419409998
 30
0.0
 10
44.57210954460004
 20
32.1224520282
 30
0.0
 10
44.63193709340004
 20
32.15533399429998
 30
0.0
  0
SPLINE
  5
87D0E
330
1F
100
AcDbEntity
  8
1
100
AcDbSpline
210
0.0
220
0.0
230
1.0
 70
     8
 71
     3
 72
     9
 73
     5
 74
     0
 42
0.000000001
 43
0.0000000001
 40
0.0
 40
0.0
 40
0.0
 40
0.0
 40
0.4998063396
 40
1.0
 40
1.0
 40
1.0
 40
1.0
 10
44.78934716069995
 20
32.19576603349995
 30
0.0
 10
44.76205578300005
 20
32.1957684397
 30
0.0
 10
44.70723262360002
 20
32.18886381019999
 30
0.0
 10
44.65587268000001
 20
32.16848929080001
 30
0.0
 10
44.63193709340004
 20
32.15533399429998
 30
0.0
  0
SPLINE
  5
87D0F
330
1F
100
AcDbEntity
  8
1
100
AcDbSpline
210
0.0
220
0.0
230
1.0
 70
     8
 71
     3
 72
    23
 73
    19
 74
     0
 42
0.000000001
 43
0.0000000001
 40
0.0
 40
0.0
 40
0.0
 40
0.0
 40
0.0622939961
 40
0.1246028799
 40
0.1869402155
 40
0.249317067
 40
0.3117410283
 40
0.3742155618
 40
0.4367397012
 40
0.4993081443
 40
0.5619117211
 40
0.6245382025000003
 40
0.6871733647
 40
0.7498022812000002
 40
0.8124103347
 40
0.8749857454
 40
0.9375160772999999
 40
1.0
 40
1.0
 40
1.0
 40
1.0
 10
43.58260726110006
 20
34.18801482080002
 30
0.0
 10
43.75223544820005
 20
34.18801759589999
 30
0.0
 10
44.09207651629997
 20
34.1626188109
 30
0.0
 10
44.59016754239995
 20
34.04918302319996
 30
0.0
 10
45.06619824519996
 20
33.86290072669996
 30
0.0
 10
45.50954641279997
 20
33.6078798266
 30
0.0
 10
45.91050019620001
 20
33.28973758629999
 30
0.0
 10
46.26023330369998
 20
32.9154792802
 30
0.0
 10
46.55106210370003
 20
32.49334180800001
 30
0.0
 10
46.77659619090002
 20
32.03261202539997
 30
0.0
 10
46.93188173770004
 20
31.54342221789999
 30
0.0
 10
47.01350884150002
 20
31.03652810209999
 30
0.0
 10
47.01968785410002
 20
30.52307301619997
 30
0.0
 10
46.95028015800001
 20
30.01434176759997
 30
0.0
 10
46.80682075939995
 20
29.52152108679999
 30
0.0
 10
46.5924237859
 20
29.05542717429998
 30
0.0
 10
46.31191487949997
 20
28.62639759259996
 30
0.0
 10
46.08457809129999
 20
28.37103331299997
 30
0.0
 10
45.96233238220003
 20
28.25268876969997
 30
0.0
  0
SPLINE
  5
87D10
330
1F
100
AcDbEntity
  8
1
100
AcDbSpline
210
0.0
220
0.0
230
1.0
 70
     8
 71
     3
 72
     9
 73
     5
 74
     0
 42
0.000000001
 43
0.0000000001
 40
0.0
 40
0.0
 40
0.0
 40
0.0
 40
0.4997563346
 40
1.0
 40
1.0
 40
1.0
 40
1.0
 10
44.90995059400006
 20
27.55663413829998
 30
0.0
 10
45.10444316369998
 20
27.63868273439996
 30
0.0
 10
45.47920082329993
 20
27.83937712160001
 30
0.0
 10
45.8105203713
 20
28.10572145900002
 30
0.0
 10
45.96233238220003
 20
28.25268876969997
 30
0.0
  0
SPLINE
  5
87D11
330
1F
100
AcDbEntity
  8
1
100
AcDbSpline
210
0.0
220
0.0
230
1.0
 70
     8
 71
     3
 72
    17
 73
    13
 74
     0
 42
0.000000001
 43
0.0000000001
 40
0.0
 40
0.0
 40
0.0
 40
0.0
 40
0.1247836653
 40
0.2496747814
 40
0.3746638058
 40
0.4372437368
 40
0.4998347536
 40
0.6249103982000001
 40
0.7499684493000001
 40
0.8125380992
 40
0.8750889152999999
 40
1.0
 40
1.0
 40
1.0
 40
1.0
 10
41.20288213999996
 20
33.22334214290002
 30
0.0
 10
41.05827755599995
 20
33.08335225229999
 30
0.0
 10
40.7930119351
 20
32.77709270109999
 30
0.0
 10
40.48169897560001
 20
32.25579281399999
 30
0.0
 10
40.30159275320005
 20
31.78207350649998
 30
0.0
 10
40.20865585689995
 20
31.3889867746
 30
0.0
 10
40.15028956839995
 20
30.98914665319998
 30
0.0
 10
40.14320292560006
 20
30.48206512119995
 30
0.0
 10
40.22445118630002
 20
29.98152800860002
 30
0.0
 10
40.34074781669994
 20
29.5946430548
 30
0.0
 10
40.49018876399997
 20
29.21968042669997
 30
0.0
 10
40.63894425810002
 20
28.95410887780002
 30
0.0
 10
40.75241304259996
 20
28.78762987340001
 30
0.0
  0
SPLINE
  5
87D12
330
1F
100
AcDbEntity
  8
1
100
AcDbSpline
210
0.0
220
0.0
230
1.0
 70
     8
 71
     3
 72
    11
 73
     7
 74
     0
 42
0.000000001
 43
0.0000000001
 40
0.0
 40
0.0
 40
0.0
 40
0.0
 40
0.2503004004
 40
0.500350793
 40
0.7502244484000001
 40
1.0
 40
1.0
 40
1.0
 40
1.0
 10
41.20288213999996
 20
33.22334214290002
 30
0.0
 10
41.36043009009995
 20
33.37586234460001
 30
0.0
 10
41.70552978940003
 20
33.65125821459995
 30
0.0
 10
42.29160391299996
 20
33.95729565859999
 30
0.0
 10
42.92490210609996
 20
34.14565045520003
 30
0.0
 10
43.36378695000002
 20
34.188011241
 30
0.0
 10
43.58260726110006
 20
34.18801482080002
 30
0.0
  0
SPLINE
  5
87D13
330
1F
100
AcDbEntity
  8
1
100
AcDbSpline
210
0.0
220
0.0
230
1.0
 70
     8
 71
     3
 72
    27
 73
    23
 74
     0
 42
0.000000001
 43
0.0000000001
 40
0.0
 40
0.0
 40
0.0
 40
0.0
 40
0.0625100854
 40
0.0938241208
 40
0.1251542875
 40
0.1877745471
 40
0.2504225458
 40
0.2817864651
 40
0.3131477969
 40
0.3757750794
 40
0.4383569629000001
 40
0.5008780541000001
 40
0.5633322387
 40
0.6257235956000004
 40
0.6880657258000003
 40
0.7192627629000004
 40
0.7504558183
 40
0.8127674285999999
 40
0.8751025026
 40
0.9063237387999999
 40
0.9375568347999999
 40
1.0
 40
1.0
 40
1.0
 40
1.0
 10
42.00275045689994
 20
32.43164603259996
 30
0.0
 10
41.89262467369997
 20
32.32503463810001
 30
0.0
 10
41.74257069849995
 20
32.14809112430001
 30
0.0
 10
41.58034513349996
 20
31.88718094359999
 30
0.0
 10
41.44416193709997
 20
31.61136941390002
 30
0.0
 10
41.32550105439998
 20
31.24344868799997
 30
0.0
 10
41.2806350234
 20
30.8593906138
 30
0.0
 10
41.28988209119993
 20
30.55168221249997
 30
0.0
 10
41.32901909320003
 20
30.24639215540002
 30
0.0
 10
41.43360885589999
 20
29.87423386049997
 30
0.0
 10
41.64325225939996
 20
29.46118675950002
 30
0.0
 10
41.92903048680006
 20
29.09707977890003
 30
0.0
 10
42.28001571639999
 20
28.79603191630001
 30
0.0
 10
42.6826103815
 20
28.56960184040002
 30
0.0
 10
43.04870524289998
 20
28.45028997379998
 30
0.0
 10
43.35071828080002
 20
28.39937298830005
 30
0.0
 10
43.65620771630005
 20
28.37841149639999
 30
0.0
 10
44.03976510299997
 20
28.40896174719998
 30
0.0
 10
44.40989660579997
 20
28.51429066560001
 30
0.0
 10
44.68907254970003
 20
28.64064433779997
 30
0.0
 10
44.95465709319995
 20
28.79385304959998
 30
0.0
 10
45.13607894789998
 20
28.93788761829998
 30
0.0
 10
45.24608683590003
 20
29.04438487999997
 30
0.0
  0
SPLINE
  5
87D14
330
1F
100
AcDbEntity
  8
1
100
AcDbSpline
210
0.0
220
0.0
230
1.0
 70
     8
 71
     3
 72
    15
 73
    11
 74
     0
 42
0.000000001
 43
0.0000000001
 40
0.0
 40
0.0
 40
0.0
 40
0.0
 40
0.125026603
 40
0.2501285277
 40
0.3752757539
 40
0.5004082424
 40
0.6254787929
 40
0.7504494531999999
 40
0.8752866427
 40
1.0
 40
1.0
 40
1.0
 40
1.0
 10
45.07115263420002
 20
31.69662803060003
 30
0.0
 10
45.04381850199997
 20
31.65058337340001
 30
0.0
 10
44.99799925770003
 20
31.55286527499998
 30
0.0
 10
44.95896589450008
 20
31.39595642849994
 30
0.0
 10
44.95091157209998
 20
31.23436242019997
 30
0.0
 10
44.97419553389994
 20
31.0742790683
 30
0.0
 10
45.02791083040007
 20
30.92176829309997
 30
0.0
 10
45.11005187449995
 20
30.7826203612
 30
0.0
 10
45.21742698579997
 20
30.66215346279998
 30
0.0
 10
45.30333563599998
 20
30.59722326189998
 30
0.0
 10
45.34888771790003
 20
30.56933198
 30
0.0
  0
SPLINE
  5
87D15
330
1F
100
AcDbEntity
  8
1
100
AcDbSpline
210
0.0
220
0.0
230
1.0
 70
     8
 71
     3
 72
     9
 73
     5
 74
     0
 42
0.000000001
 43
0.0000000001
 40
0.0
 40
0.0
 40
0.0
 40
0.0
 40
0.5005275551000004
 40
1.0
 40
1.0
 40
1.0
 40
1.0
 10
43.33399939309996
 20
32.47713149910001
 30
0.0
 10
43.31359644179996
 20
32.51388991949999
 30
0.0
 10
43.25815853619997
 20
32.58010975749997
 30
0.0
 10
43.18171804809996
 20
32.62035326210001
 30
0.0
 10
43.14154497950005
 20
32.63244221189999
 30
0.0
  0
SPLINE
  5
87D16
330
1F
100
AcDbEntity
  8
1
100
AcDbSpline
210
0.0
220
0.0
230
1.0
 70
     8
 71
     3
 72
    11
 73
     7
 74
     0
 42
0.000000001
 43
0.0000000001
 40
0.0
 40
0.0
 40
0.0
 40
0.0
 40
0.2496168348
 40
0.4994153088
 40
0.7495138612000001
 40
1.0
 40
1.0
 40
1.0
 40
1.0
 10
44.05032756500003
 20
32.05426993609999
 30
0.0
 10
43.97795019470004
 20
32.05426773389999
 30
0.0
 10
43.83240715510004
 20
32.07376130970005
 30
0.0
 10
43.62998970509994
 20
32.15948961119997
 30
0.0
 10
43.45696598009999
 20
32.29547362880001
 30
0.0
 10
43.36924707739996
 20
32.4136284706
 30
0.0
 10
43.33399939309996
 20
32.47713149910001
 30
0.0
  0
SPLINE
  5
87D17
330
1F
100
AcDbEntity
  8
1
100
AcDbSpline
210
0.0
220
0.0
230
1.0
 70
     8
 71
     3
 72
    15
 73
    11
 74
     0
 42
0.000000001
 43
0.0000000001
 40
0.0
 40
0.0
 40
0.0
 40
0.0
 40
0.1250874197
 40
0.250273621
 40
0.3754775216
 40
0.5006409471
 40
0.6256989901
 40
0.7506134720000001
 40
0.8753738368999998
 40
1.0
 40
1.0
 40
1.0
 40
1.0
 10
44.88300140029997
 20
31.69662803060003
 30
0.0
 10
44.89572158529995
 20
31.71805532709996
 30
0.0
 10
44.91637266259992
 20
31.76398793310004
 30
0.0
 10
44.9310639911
 20
31.83795177479996
 30
0.0
 10
44.92881963000002
 20
31.91337828609997
 30
0.0
 10
44.90973687320003
 20
31.98635105499997
 30
0.0
 10
44.8747966208
 20
32.05313398150001
 30
0.0
 10
44.82577782779997
 20
32.11029524220001
 30
0.0
 10
44.76524262479996
 20
32.15487919280001
 30
0.0
 10
44.7191430259
 20
32.17472603009995
 30
0.0
 10
44.69537188590003
 20
32.18188802310002
 30
0.0
  0
SPLINE
  5
87D18
330
1F
100
AcDbEntity
  8
1
100
AcDbSpline
210
0.0
220
0.0
230
1.0
 70
     8
 71
     3
 72
    15
 73
    11
 74
     0
 42
0.000000001
 43
0.0000000001
 40
0.0
 40
0.0
 40
0.0
 40
0.0
 40
0.1247096296
 40
0.2495518004
 40
0.3745207713
 40
0.4995917546000002
 40
0.6247246792
 40
0.7498702116000004
 40
0.8749771341
 40
1.0
 40
1.0
 40
1.0
 40
1.0
 10
45.16073648399998
 20
30.56933198
 30
0.0
 10
45.11518571209996
 20
30.59722245980001
 30
0.0
 10
45.02927765090004
 20
30.66215407659999
 30
0.0
 10
44.92189861679996
 20
30.78261767100002
 30
0.0
 10
44.83975891090006
 20
30.92176855490001
 30
0.0
 10
44.78604140770002
 20
31.07427835119998
 30
0.0
 10
44.76275985369993
 20
31.23436186119997
 30
0.0
 10
44.7708116232
 20
31.3959578658
 30
0.0
 10
44.80984998730002
 20
31.55286561789998
 30
0.0
 10
44.85566805419995
 20
31.65058469749997
 30
0.0
 10
44.88300140029997
 20
31.69662803060003
 30
0.0
  0
SPLINE
  5
87D19
330
1F
100
AcDbEntity
  8
1
100
AcDbSpline
210
0.0
220
0.0
230
1.0
 70
     8
 71
     3
 72
    15
 73
    11
 74
     0
 42
0.000000001
 43
0.0000000001
 40
0.0
 40
0.0
 40
0.0
 40
0.0
 40
0.1251708752
 40
0.2504178639
 40
0.3756803631
 40
0.5008539075
 40
0.6258744928
 40
0.7507162801
 40
0.8754018118999999
 40
1.0
 40
1.0
 40
1.0
 40
1.0
 10
45.07115263420002
 20
31.69662803060003
 30
0.0
 10
45.08590066239998
 20
31.72147125220005
 30
0.0
 10
45.10895892209997
 20
31.77533100779996
 30
0.0
 10
45.12133112590004
 20
31.8621190709
 30
0.0
 10
45.11082468219996
 20
31.94920867009998
 30
0.0
 10
45.07810559979996
 20
32.03053319460001
 30
0.0
 10
45.02544354889994
 20
32.10049470879997
 30
0.0
 10
44.95643795810003
 20
32.15424712349997
 30
0.0
 10
44.87593312759996
 20
32.18807223529998
 30
0.0
 10
44.81810597920001
 20
32.19576349799999
 30
0.0
 10
44.78934716069995
 20
32.19576603349995
 30
0.0
  0
SPLINE
  5
87D1A
330
1F
100
AcDbEntity
  8
1
100
AcDbSpline
210
0.0
220
0.0
230
1.0
 70
     8
 71
     3
 72
    15
 73
    11
 74
     0
 42
0.000000001
 43
0.0000000001
 40
0.0
 40
0.0
 40
0.0
 40
0.0
 40
0.1253363587
 40
0.2506186562
 40
0.3758034818
 40
0.5008655515
 40
0.6257953163000001
 40
0.7506048813
 40
0.8753175871999998
 40
1.0
 40
1.0
 40
1.0
 40
1.0
 10
44.15321803710003
 20
29.15201344209997
 30
0.0
 10
44.15445189800005
 20
29.20509495880002
 30
0.0
 10
44.1671801708
 20
29.31127932029999
 30
0.0
 10
44.21632543200002
 20
29.46369306169997
 30
0.0
 10
44.29370298860002
 20
29.60383522509997
 30
0.0
 10
44.39643173859995
 20
29.72640271869997
 30
0.0
 10
44.52068239739998
 20
29.82684226209997
 30
0.0
 10
44.66184399829995
 20
29.90139131929996
 30
0.0
 10
44.81457837870005
 20
29.94727682909999
 30
0.0
 10
44.92051634559999
 20
29.95759485730001
 30
0.0
 10
44.97333517150003
 20
29.95759879860002
 30
0.0
  0
SPLINE
  5
87D1B
330
1F
100
AcDbEntity
  8
1
100
AcDbSpline
210
0.0
220
0.0
230
1.0
 70
     8
 71
     3
 72
    11
 73
     7
 74
     0
 42
0.000000001
 43
0.0000000001
 40
0.0
 40
0.0
 40
0.0
 40
0.0
 40
0.2504819519
 40
0.5005874052000002
 40
0.7503850791
 40
1.0
 40
1.0
 40
1.0
 40
1.0
 10
43.52215062699996
 20
32.47713149910001
 30
0.0
 10
43.55739774989999
 20
32.41362948200002
 30
0.0
 10
43.64511835
 20
32.29547582729995
 30
0.0
 10
43.81813800119997
 20
32.15948334599997
 30
0.0
 10
44.02056157119995
 20
32.07376786979998
 30
0.0
 10
44.16610192960002
 20
32.05426263199999
 30
0.0
 10
44.23847880199995
 20
32.05426623359997
 30
0.0
  0
SPLINE
  5
87D1C
330
1F
100
AcDbEntity
  8
1
100
AcDbSpline
210
0.0
220
0.0
230
1.0
 70
     8
 71
     3
 72
     9
 73
     5
 74
     0
 42
0.000000001
 43
0.0000000001
 40
0.0
 40
0.0
 40
0.0
 40
0.0
 40
0.5001923073
 40
1.0
 40
1.0
 40
1.0
 40
1.0
 10
42.4287489655
 20
29.3206969183
 30
0.0
 10
42.48857759519999
 20
29.35357947840003
 30
0.0
 10
42.61695611849996
 20
29.40450925039998
 30
0.0
 10
42.75399023239997
 20
29.42175890080005
 30
0.0
 10
42.82220726000002
 20
29.42176097639995
 30
0.0
  0
SPLINE
  5
87D1D
330
1F
100
AcDbEntity
  8
1
100
AcDbSpline
210
0.0
220
0.0
230
1.0
 70
     8
 71
     3
 72
    15
 73
    11
 74
     0
 42
0.000000001
 43
0.0000000001
 40
0.0
 40
0.0
 40
0.0
 40
0.0
 40
0.1246293835
 40
0.2493695473
 40
0.3743259483
 40
0.4994857045
 40
0.6247590985000003
 40
0.7500101368000001
 40
0.875106152
 40
1.0
 40
1.0
 40
1.0
 40
1.0
 10
45.17819515599995
 20
29.95747730779996
 30
0.0
 10
45.21352969870003
 20
29.95748065950002
 30
0.0
 10
45.28476553479999
 20
29.96916544199999
 30
0.0
 10
45.38003079619993
 20
30.0199114279
 30
0.0
 10
45.45432108140005
 20
30.09853866630003
 30
0.0
 10
45.49978895039997
 20
30.19682615219999
 30
0.0
 10
45.51175691669999
 20
30.30453554969998
 30
0.0
 10
45.48896523229995
 20
30.41048602709995
 30
0.0
 10
45.43387954890005
 20
30.50358824489999
 30
0.0
 10
45.37908611099999
 20
30.5508416749
 30
0.0
 10
45.34888771790003
 20
30.56933198
 30
0.0
  0
SPLINE
  5
87D1E
330
1F
100
AcDbEntity
  8
1
100
AcDbSpline
210
0.0
220
0.0
230
1.0
 70
     8
 71
     3
 72
    15
 73
    11
 74
     0
 42
0.000000001
 43
0.0000000001
 40
0.0
 40
0.0
 40
0.0
 40
0.0
 40
0.1246400608
 40
0.2493789673
 40
0.3743377152
 40
0.4994979937
 40
0.6247693851000001
 40
0.7500177582
 40
0.8751065924
 40
1.0
 40
1.0
 40
1.0
 40
1.0
 10
44.99327253739994
 20
29.95749378880002
 30
0.0
 10
45.02847589669999
 20
29.95784796500004
 30
0.0
 10
45.09932601140002
 20
29.97014130659997
 30
0.0
 10
45.19381277899998
 20
30.02145774270001
 30
0.0
 10
45.26728784320003
 20
30.10027517919996
 30
0.0
 10
45.31202941729996
 20
30.19843353139999
 30
0.0
 10
45.32350165439992
 20
30.30577300029998
 30
0.0
 10
45.30046533239993
 20
30.4112374286
 30
0.0
 10
45.24543009130002
 20
30.50387764749999
 30
0.0
 10
45.19082160110002
 20
30.55091103320001
 30
0.0
 10
45.16073648399998
 20
30.56933198
 30
0.0
  0
SPLINE
  5
87D1F
330
1F
100
AcDbEntity
  8
1
100
AcDbSpline
210
0.0
220
0.0
230
1.0
 70
     8
 71
     3
 72
    15
 73
    11
 74
     0
 42
0.000000001
 43
0.0000000001
 40
0.0
 40
0.0
 40
0.0
 40
0.0
 40
0.1246819468
 40
0.2493922141
 40
0.3742031403
 40
0.4991330377000003
 40
0.6241948778000001
 40
0.7493820855
 40
0.8746592278000001
 40
1.0
 40
1.0
 40
1.0
 40
1.0
 10
45.16148639410004
 20
29.95759890689998
 30
0.0
 10
45.10866782779999
 20
29.95759588459995
 30
0.0
 10
45.00273102230003
 20
29.94727710830004
 30
0.0
 10
44.84999835629997
 20
29.90138987430002
 30
0.0
 10
44.70883624979999
 20
29.82684288000001
 30
0.0
 10
44.58458628550005
 20
29.72640205299999
 30
0.0
 10
44.48185476199994
 20
29.60383573189999
 30
0.0
 10
44.40448042590003
 20
29.46369356130002
 30
0.0
 10
44.35532979649996
 20
29.31128117680002
 30
0.0
 10
44.34260317389997
 20
29.20509676540002
 30
0.0
 10
44.34136927090003
 20
29.15201344209997
 30
0.0
  0
SPLINE
  5
87D20
330
1F
100
AcDbEntity
  8
1
100
AcDbSpline
210
0.0
220
0.0
230
1.0
 70
     8
 71
     3
 72
    11
 73
     7
 74
     0
 42
0.000000001
 43
0.0000000001
 40
0.0
 40
0.0
 40
0.0
 40
0.0
 40
0.2504891883
 40
0.5005834931999999
 40
0.7503857384
 40
1.0
 40
1.0
 40
1.0
 40
1.0
 10
43.52215062699996
 20
32.47713149910001
 30
0.0
 10
43.50804900349999
 20
32.50253730429998
 30
0.0
 10
43.47295642380004
 20
32.54980802930001
 30
0.0
 10
43.40373275310002
 20
32.60420791789997
 30
0.0
 10
43.32275302790002
 20
32.63850640689995
 30
0.0
 10
43.26452617250004
 20
32.64630416229997
 30
0.0
 10
43.23557063960004
 20
32.64630623909997
 30
0.0
  0
SPLINE
  5
87D21
330
1F
100
AcDbEntity
  8
1
100
AcDbSpline
210
0.0
220
0.0
230
1.0
 70
     8
 71
     3
 72
    11
 73
     7
 74
     0
 42
0.000000001
 43
0.0000000001
 40
0.0
 40
0.0
 40
0.0
 40
0.0
 40
0.2493743244
 40
0.4991100527000001
 40
0.749360618
 40
1.0
 40
1.0
 40
1.0
 40
1.0
 10
44.0132666532
 20
28.82972467349997
 30
0.0
 10
44.05533286699998
 20
28.82972165619995
 30
0.0
 10
44.14042740730002
 20
28.84641813649999
 30
0.0
 10
44.24846413890003
 20
28.91783754719998
 30
0.0
 10
44.32187171579997
 20
29.02476701020001
 30
0.0
 10
44.34038676180006
 20
29.10974524679999
 30
0.0
 10
44.34136927090003
 20
29.15201344209997
 30
0.0
  0
SPLINE
  5
87D22
330
1F
100
AcDbEntity
  8
1
100
AcDbSpline
210
0.0
220
0.0
230
1.0
 70
     8
 71
     3
 72
    11
 73
     7
 74
     0
 42
0.000000001
 43
0.0000000001
 40
0.0
 40
0.0
 40
0.0
 40
0.0
 40
0.2494313411
 40
0.4992627166000001
 40
0.7494790982
 40
1.0
 40
1.0
 40
1.0
 40
1.0
 10
43.91938932349995
 20
28.84363409479997
 30
0.0
 10
43.95217900979996
 20
28.8535182552
 30
0.0
 10
44.01510943349999
 20
28.88393403730001
 30
0.0
 10
44.09045911229998
 20
28.95641373219999
 30
0.0
 10
44.13995709869992
 20
29.04866597629999
 30
0.0
 10
44.15241871519998
 20
29.11762608759999
 30
0.0
 10
44.15321803710003
 20
29.15201344209997
 30
0.0
  0
SPLINE
  5
87D23
330
1F
100
AcDbEntity
  8
1
100
AcDbSpline
210
0.0
220
0.0
230
1.0
 70
     8
 71
     3
 72
     9
 73
     5
 74
     0
 42
0.000000001
 43
0.0000000001
 40
0.0
 40
0.0
 40
0.0
 40
0.0
 40
0.4998171182
 40
1.0
 40
1.0
 40
1.0
 40
1.0
 10
43.0103584908
 20
29.42176467889996
 30
0.0
 10
42.94214012370002
 20
29.42176128419998
 30
0.0
 10
42.80510676529996
 20
29.40450671849996
 30
0.0
 10
42.67672774820003
 20
29.3535788844
 30
0.0
 10
42.61690019939999
 20
29.3206969183
 30
0.0
  0
SPLINE
  5
87D24
330
1F
100
AcDbEntity
  8
1
100
AcDbSpline
210
0.0
220
0.0
230
1.0
 70
     8
 71
     3
 72
    27
 73
    23
 74
     0
 42
0.000000001
 43
0.0000000001
 40
0.0
 40
0.0
 40
0.0
 40
0.0
 40
0.0624431652
 40
0.0936762612
 40
0.1248974974
 40
0.1872325714
 40
0.2495441817
 40
0.2807372371000001
 40
0.3119342742
 40
0.3742764044
 40
0.4366677613000002
 40
0.4991219459
 40
0.5616430371
 40
0.6242249206000002
 40
0.6868522031000001
 40
0.7182135349
 40
0.7495774542
 40
0.8122254529
 40
0.8748457124999998
 40
0.9061758791999999
 40
0.9374899146
 40
1.0
 40
1.0
 40
1.0
 40
1.0
 10
42.00275045689994
 20
32.43164603259996
 30
0.0
 10
42.11275834479994
 20
32.53814329419995
 30
0.0
 10
42.29418019960002
 20
32.68217786289999
 30
0.0
 10
42.55976474310003
 20
32.83538657469998
 30
0.0
 10
42.83894068689995
 20
32.96174024689995
 30
0.0
 10
43.20907218980003
 20
33.0670691654
 30
0.0
 10
43.59262957649995
 20
33.09761941619999
 30
0.0
 10
43.89811901200004
 20
33.07665792430003
 30
0.0
 10
44.20013204989992
 20
33.0257409388
 30
0.0
 10
44.56622691130002
 20
32.9064290722
 30
0.0
 10
44.96882157639999
 20
32.67999899629999
 30
0.0
 10
45.31980680600002
 20
32.37895113370001
 30
0.0
 10
45.60558503330002
 20
32.01484415309997
 30
0.0
 10
45.81522843689998
 20
31.60179705209997
 30
0.0
 10
45.91981819959997
 20
31.22963875719998
 30
0.0
 10
45.95895520159999
 20
30.92434870009995
 30
0.0
 10
45.96820226940002
 20
30.61664029869999
 30
0.0
 10
45.9233362384
 20
30.23258222450002
 30
0.0
 10
45.80467535570003
 20
29.86466149859999
 30
0.0
 10
45.66849215930004
 20
29.58884996900001
 30
0.0
 10
45.50626659430003
 20
29.32793978830004
 30
0.0
 10
45.35621261909994
 20
29.15099627449999
 30
0.0
 10
45.24608683590003
 20
29.04438487999997
 30
0.0
  0
SPLINE
  5
87D25
330
1F
100
AcDbEntity
  8
1
100
AcDbSpline
210
0.0
220
0.0
230
1.0
 70
     8
 71
     3
 72
     9
 73
     5
 74
     0
 42
0.000000001
 43
0.0000000001
 40
0.0
 40
0.0
 40
0.0
 40
0.0
 40
0.4998063396
 40
1.0
 40
1.0
 40
1.0
 40
1.0
 10
42.45949013210003
 20
29.28026487899998
 30
0.0
 10
42.48678150979997
 20
29.28026247290001
 30
0.0
 10
42.54160466919995
 20
29.28716710230002
 30
0.0
 10
42.5929646128
 20
29.30754162179997
 30
0.0
 10
42.61690019939999
 20
29.3206969183
 30
0.0
  0
SPLINE
  5
87D26
330
1F
100
AcDbEntity
  8
1
100
AcDbSpline
210
0.0
220
0.0
230
1.0
 70
     8
 71
     3
 72
     8
 73
     4
 74
     0
 42
0.000000001
 43
0.0000000001
 40
0.0
 40
0.0
 40
0.0
 40
0.0
 40
1.0
 40
1.0
 40
1.0
 40
1.0
 10
42.36520447689996
 20
29.29404959400003
 30
0.0
 10
42.38720203870002
 20
29.30065722759994
 30
0.0
 10
42.40862027770003
 20
29.30963394069997
 30
0.0
 10
42.4287489655
 20
29.3206969183
 30
0.0
  0
SPLINE
  5
87D27
330
1F
100
AcDbEntity
  8
1
100
AcDbSpline
210
0.0
220
0.0
230
1.0
 70
     8
 71
     3
 72
     9
 73
     5
 74
     0
 42
0.000000001
 43
0.0000000001
 40
0.0
 40
0.0
 40
0.0
 40
0.0
 40
0.2522454042
 40
1.0
 40
1.0
 40
1.0
 40
1.0
 10
50.80000000000001
 20
36.7768994372
 30
0.0
 10
50.79992950640002
 20
36.6692176415
 30
0.0
 10
50.79883208009995
 20
36.24232563700001
 30
0.0
 10
50.79443019210001
 20
35.81544163759996
 30
0.0
 10
50.78921801449998
 20
35.49627292720001
 30
0.0
  0
SPLINE
  5
87D28
330
1F
100
AcDbEntity
  8
1
100
AcDbSpline
210
0.0
220
0.0
230
1.0
 70
     8
 71
     3
 72
    15
 73
    11
 74
     0
 42
0.000000001
 43
0.0000000001
 40
0.0
 40
0.0
 40
0.0
 40
0.0
 40
0.1258915043
 40
0.25153708
 40
0.3767812244
 40
0.5015565909000001
 40
0.6260263322000002
 40
0.7504187433000002
 40
0.8749935881
 40
1.0
 40
1.0
 40
1.0
 40
1.0
 10
50.80000000000001
 20
36.7768994372
 30
0.0
 10
50.80003289409997
 20
36.82714638569999
 30
0.0
 10
50.7906412085
 20
36.9278100672
 30
0.0
 10
50.7485063904
 20
37.0730615895
 30
0.0
 10
50.68012708240003
 20
37.20750935669997
 30
0.0
 10
50.58800300579997
 20
37.3263502627
 30
0.0
 10
50.47529402259993
 20
37.42538600580001
 30
0.0
 10
50.34583510599997
 20
37.50110909530001
 30
0.0
 10
50.20413345879997
 20
37.55075377979998
 30
0.0
 10
50.10483263240002
 20
37.56517297419995
 30
0.0
 10
50.05499772740001
 20
37.56759430759999
 30
0.0
  0
SPLINE
  5
87D29
330
1F
100
AcDbEntity
  8
1
100
AcDbSpline
210
0.0
220
0.0
230
1.0
 70
     8
 71
     3
 72
     9
 73
     5
 74
     0
 42
0.000000001
 43
0.0000000001
 40
0.0
 40
0.0
 40
0.0
 40
0.0
 40
0.2501268862
 40
1.0
 40
1.0
 40
1.0
 40
1.0
 10
48.77225716989993
 20
37.62911279019997
 30
0.0
 10
48.87920964470004
 20
37.62405018890002
 30
0.0
 10
49.30679934550004
 20
37.60374302400001
 30
0.0
 10
49.73437653490003
 20
37.58317236110001
 30
0.0
 10
50.05499772740001
 20
37.56759430759999
 30
0.0
  0
SPLINE
  5
87D2A
330
1F
100
AcDbEntity
  8
1
100
AcDbSpline
210
0.0
220
0.0
230
1.0
 70
     8
 71
     3
 72
     9
 73
     5
 74
     0
 42
0.000000001
 43
0.0000000001
 40
0.0
 40
0.0
 40
0.0
 40
0.0
 40
0.2480571321
 40
1.0
 40
1.0
 40
1.0
 40
1.0
 10
42.26836493450004
 20
37.76895050969998
 30
0.0
 10
42.80174751019996
 20
37.75759700990004
 30
0.0
 10
44.95198943489993
 20
37.71187832310002
 30
0.0
 10
47.10222235429995
 20
37.66573695150001
 30
0.0
 10
48.71907253300003
 20
37.63094306819997
 30
0.0
  0
SPLINE
  5
87D2B
330
1F
100
AcDbEntity
  8
1
100
AcDbSpline
210
0.0
220
0.0
230
1.0
 70
     8
 71
     3
 72
    11
 73
     7
 74
     0
 42
0.000000001
 43
0.0000000001
 40
0.0
 40
0.0
 40
0.0
 40
0.0
 40
0.1243910754
 40
0.2489587935
 40
0.4986673199000001
 40
1.0
 40
1.0
 40
1.0
 40
1.0
 10
40.94845491339998
 20
37.58021200849997
 30
0.0
 10
40.86172959499998
 20
37.53350118389997
 30
0.0
 10
40.68802370789994
 20
37.44025869170001
 30
0.0
 10
40.3403020937
 20
37.25309646859998
 30
0.0
 10
39.72985885280002
 20
36.9242350649
 30
0.0
 10
39.20656041590003
 20
36.64160104250001
 30
0.0
 10
38.85735871569995
 20
36.4527370113
 30
0.0
  0
LINE
  5
87D2C
330
1F
100
AcDbEntity
  8
1
100
AcDbLine
 10
35.72015756759999
 20
34.74936477539998
 30
0.0
 11
35.28732553060007
 21
34.51341150239997
 31
0.0
  0
SPLINE
  5
87D2D
330
1F
100
AcDbEntity
  8
1
100
AcDbSpline
210
0.0
220
0.0
230
1.0
 70
     8
 71
     3
 72
     9
 73
     5
 74
     0
 42
0.000000001
 43
0.0000000001
 40
0.0
 40
0.0
 40
0.0
 40
0.0
 40
0.2497945285
 40
1.0
 40
1.0
 40
1.0
 40
1.0
 10
35.2410082989
 20
34.48736632599994
 30
0.0
 10
35.14847293630004
 20
34.43372371599996
 30
0.0
 10
34.77838483620002
 20
34.21836018029998
 30
0.0
 10
34.40970563470006
 20
34.00057512400001
 30
0.0
 10
34.13394955500002
 20
33.83581024970003
 30
0.0
  0
SPLINE
  5
87D2E
330
1F
100
AcDbEntity
  8
1
100
AcDbSpline
210
0.0
220
0.0
230
1.0
 70
     8
 71
     3
 72
     9
 73
     5
 74
     0
 42
0.000000001
 43
0.0000000001
 40
0.0
 40
0.0
 40
0.0
 40
0.0
 40
0.5004207099000002
 40
1.0
 40
1.0
 40
1.0
 40
1.0
 10
34.13394955500002
 20
33.83581024970003
 30
0.0
 10
34.09366247779997
 20
33.81173863090001
 30
0.0
 10
34.01734118690001
 20
33.75625287659997
 30
0.0
 10
33.95225386750002
 20
33.68794148819998
 30
0.0
 10
33.92310263069999
 20
33.65126320589999
 30
0.0
  0
SPLINE
  5
87D2F
330
1F
100
AcDbEntity
  8
1
100
AcDbSpline
210
0.0
220
0.0
230
1.0
 70
     8
 71
     3
 72
     9
 73
     5
 74
     0
 42
0.000000001
 43
0.0000000001
 40
0.0
 40
0.0
 40
0.0
 40
0.0
 40
0.2514597274
 40
1.0
 40
1.0
 40
1.0
 40
1.0
 10
33.88996050650007
 20
32.69282880469999
 30
0.0
 10
33.93478626300004
 20
32.60753546709995
 30
0.0
 10
34.11356019940001
 20
32.26861186249997
 30
0.0
 10
34.29439510690003
 20
31.93077517290003
 30
0.0
 10
34.43093356130004
 20
31.67853028979997
 30
0.0
  0
SPLINE
  5
87D30
330
1F
100
AcDbEntity
  8
1
100
AcDbSpline
210
0.0
220
0.0
230
1.0
 70
     8
 71
     3
 72
    14
 73
    10
 74
     0
 42
0.000000001
 43
0.0000000001
 40
0.0
 40
0.0
 40
0.0
 40
0.0
 40
0.0615973553
 40
0.1233167968
 40
0.2471940491
 40
0.3715806136
 40
0.4964390899000001
 40
0.7474506159000001
 40
1.0
 40
1.0
 40
1.0
 40
1.0
 10
50.31917510600004
 20
28.38082106299997
 30
0.0
 10
50.27890044169999
 20
28.30949589689998
 30
0.0
 10
50.19866335569997
 20
28.16648321770002
 30
0.0
 10
50.037235066
 20
27.88013998259997
 30
0.0
 10
49.83458433919997
 20
27.52118649679997
 30
0.0
 10
49.5901251131
 20
27.08941993389996
 30
0.0
 10
49.26177042840004
 20
26.51087775509998
 30
0.0
 10
48.84817218410001
 20
25.784753293
 30
0.0
 10
48.51567401909996
 20
25.20351446390002
 30
0.0
 10
48.34867049480005
 20
24.91214900930002
 30
0.0
  0
SPLINE
  5
87D31
330
1F
100
AcDbEntity
  8
1
100
AcDbSpline
210
0.0
220
0.0
230
1.0
 70
     8
 71
     3
 72
    10
 73
     6
 74
     0
 42
0.000000001
 43
0.0000000001
 40
0.0
 40
0.0
 40
0.0
 40
0.0
 40
0.2504872163
 40
0.5017841586000003
 40
1.0
 40
1.0
 40
1.0
 40
1.0
 10
41.68320506699996
 20
37.76930903249999
 30
0.0
 10
41.61930544970004
 20
37.76930818060001
 30
0.0
 10
41.49111406040002
 20
37.76100062809999
 30
0.0
 10
41.24031829829999
 20
37.71187965829998
 30
0.0
 10
41.06035206660004
 20
37.64048054830005
 30
0.0
 10
40.94845491339998
 20
37.58021200849997
 30
0.0
  0
SPLINE
  5
87D32
330
1F
100
AcDbEntity
  8
1
100
AcDbSpline
210
0.0
220
0.0
230
1.0
 70
     8
 71
     3
 72
    19
 73
    15
 74
     0
 42
0.000000001
 43
0.0000000001
 40
0.0
 40
0.0
 40
0.0
 40
0.0
 40
0.1285455711
 40
0.1921981002
 40
0.2551404855
 40
0.286276158
 40
0.3171765377
 40
0.3788891721
 40
0.4406803446
 40
0.5025455446000004
 40
0.6264933959000001
 40
0.7507238236
 40
0.8752287154999999
 40
1.0
 40
1.0
 40
1.0
 40
1.0
 10
50.5258176265
 20
29.13499094119996
 30
0.0
 10
50.53046744979996
 20
29.40552000860004
 30
0.0
 10
50.53991563090001
 20
29.80997159190001
 30
0.0
 10
50.55753074440002
 20
30.34671727660002
 30
0.0
 10
50.57056524790005
 20
30.67846304170001
 30
0.0
 10
50.58216940779994
 20
30.94126825030003
 30
0.0
 10
50.59464403499998
 20
31.2014419187
 30
0.0
 10
50.61021967699996
 20
31.52606586270001
 30
0.0
 10
50.62867125460002
 20
31.9158031677
 30
0.0
 10
50.65309920330003
 20
32.43639988229998
 30
0.0
 10
50.68322706970002
 20
33.08829890220002
 30
0.0
 10
50.71872713810006
 20
33.87193713669998
 30
0.0
 10
50.75358572210001
 20
34.65733908029998
 30
0.0
 10
50.77637724939997
 20
35.18153264729999
 30
0.0
 10
50.78766282320003
 20
35.44391477319996
 30
0.0
  0
SPLINE
  5
87D33
330
1F
100
AcDbEntity
  8
1
100
AcDbSpline
210
0.0
220
0.0
230
1.0
 70
     8
 71
     3
 72
     8
 73
     4
 74
     0
 42
0.000000001
 43
0.0000000001
 40
0.0
 40
0.0
 40
0.0
 40
0.0
 40
1.0
 40
1.0
 40
1.0
 40
1.0
 10
50.78921801449998
 20
35.49627292720001
 30
0.0
 10
50.78893291560007
 20
35.47881483969999
 30
0.0
 10
50.78841313650002
 20
35.46135905970004
 30
0.0
 10
50.78766282320003
 20
35.44391477319996
 30
0.0
  0
SPLINE
  5
87D34
330
1F
100
AcDbEntity
  8
1
100
AcDbSpline
210
0.0
220
0.0
230
1.0
 70
     8
 71
     3
 72
     8
 73
     4
 74
     0
 42
0.000000001
 43
0.0000000001
 40
0.0
 40
0.0
 40
0.0
 40
0.0
 40
1.0
 40
1.0
 40
1.0
 40
1.0
 10
48.77225716989993
 20
37.62911279019997
 30
0.0
 10
48.75453830239997
 20
37.62995151369997
 30
0.0
 10
48.73680713410005
 20
37.63056142760002
 30
0.0
 10
48.71907253300003
 20
37.63094306819997
 30
0.0
  0
SPLINE
  5
87D35
330
1F
100
AcDbEntity
  8
1
100
AcDbSpline
210
0.0
220
0.0
230
1.0
 70
     8
 71
     3
 72
     8
 73
     4
 74
     0
 42
0.000000001
 43
0.0000000001
 40
0.0
 40
0.0
 40
0.0
 40
0.0
 40
1.0
 40
1.0
 40
1.0
 40
1.0
 10
35.28732553060007
 20
34.51341150239997
 30
0.0
 10
35.27177500450007
 20
34.50493101880002
 30
0.0
 10
35.25633228599998
 20
34.49624961819998
 30
0.0
 10
35.2410082989
 20
34.48736632599994
 30
0.0
  0
SPLINE
  5
87D36
330
1F
100
AcDbEntity
  8
1
100
AcDbSpline
210
0.0
220
0.0
230
1.0
 70
     8
 71
     3
 72
    10
 73
     6
 74
     0
 42
0.000000001
 43
0.0000000001
 40
0.0
 40
0.0
 40
0.0
 40
0.0
 40
0.4914355096
 40
0.7454198756999999
 40
1.0
 40
1.0
 40
1.0
 40
1.0
 10
50.31917510600004
 20
28.38082106299997
 30
0.0
 10
50.38270270999999
 20
28.49332645519999
 30
0.0
 10
50.45801500459997
 20
28.67693505039999
 30
0.0
 10
50.51365458140003
 20
28.93431850040002
 30
0.0
 10
50.52466739199997
 20
29.06806971740001
 30
0.0
 10
50.5258176265
 20
29.13499094119996
 30
0.0
  0
SPLINE
  5
87D37
330
1F
100
AcDbEntity
  8
1
100
AcDbSpline
210
0.0
220
0.0
230
1.0
 70
     8
 71
     3
 72
    15
 73
    11
 74
     0
 42
0.000000001
 43
0.0000000001
 40
0.0
 40
0.0
 40
0.0
 40
0.0
 40
0.1307002462
 40
0.25793773
 40
0.3197276409
 40
0.3810751515999999
 40
0.5040831716
 40
0.6274884648
 40
0.7512817967000001
 40
1.0
 40
1.0
 40
1.0
 40
1.0
 10
41.50101659569997
 20
37.58021200849997
 30
0.0
 10
41.26749970020006
 20
37.44944000050001
 30
0.0
 10
40.80744629269998
 20
37.18994175740002
 30
0.0
 10
40.23913880630002
 20
36.86483778870002
 30
0.0
 10
39.79558600340005
 20
36.60768726090001
 30
0.0
 10
39.35972517040005
 20
36.35453864099995
 30
0.0
 10
38.81454946470006
 20
36.0383825096
 30
0.0
 10
38.15861411519995
 20
35.65832141049995
 30
0.0
 10
37.27968811320007
 20
35.14964631320001
 30
0.0
 10
36.619210248
 20
34.76801141740002
 30
0.0
 10
36.17810188640004
 20
34.51341150239997
 30
0.0
  0
SPLINE
  5
87D38
330
1F
100
AcDbEntity
  8
1
100
AcDbSpline
210
0.0
220
0.0
230
1.0
 70
     8
 71
     3
 72
     9
 73
     5
 74
     0
 42
0.000000001
 43
0.0000000001
 40
0.0
 40
0.0
 40
0.0
 40
0.0
 40
0.2535396194
 40
1.0
 40
1.0
 40
1.0
 40
1.0
 10
35.06150020730002
 20
33.83581024970003
 30
0.0
 10
35.15239291220007
 20
33.89050463020004
 30
0.0
 10
35.510672236
 20
34.10658611829999
 30
0.0
 10
35.86807527530004
 20
34.32412103330003
 30
0.0
 10
36.1343313305
 20
34.48736632599994
 30
0.0
  0
SPLINE
  5
87D39
330
1F
100
AcDbEntity
  8
1
100
AcDbSpline
210
0.0
220
0.0
230
1.0
 70
     8
 71
     3
 72
    15
 73
    11
 74
     0
 42
0.000000001
 43
0.0000000001
 40
0.0
 40
0.0
 40
0.0
 40
0.0
 40
0.1239261435
 40
0.2482195959
 40
0.3727461054
 40
0.4974929253
 40
0.6225834159
 40
0.7480710372
 40
0.8739218478999999
 40
1.0
 40
1.0
 40
1.0
 40
1.0
 10
35.06150020730002
 20
33.83581024970003
 30
0.0
 10
35.01892451930002
 20
33.81019047219999
 30
0.0
 10
34.93836752070001
 20
33.75053525029998
 30
0.0
 10
34.83666922340001
 20
33.63984216489999
 30
0.0
 10
34.75754060680003
 20
33.51158204629999
 30
0.0
 10
34.70396532150005
 20
33.37040349840001
 30
0.0
 10
34.6777090814
 20
33.22132280219998
 30
0.0
 10
34.67966495670004
 20
33.06951247539999
 30
0.0
 10
34.70974121769997
 20
32.92035332200001
 30
0.0
 10
34.74790187660005
 20
32.82608254819999
 30
0.0
 10
34.77113463880005
 20
32.78118491699999
 30
0.0
  0
SPLINE
  5
87D3A
330
1F
100
AcDbEntity
  8
1
100
AcDbSpline
210
0.0
220
0.0
230
1.0
 70
     8
 71
     3
 72
     9
 73
     5
 74
     0
 42
0.000000001
 43
0.0000000001
 40
0.0
 40
0.0
 40
0.0
 40
0.0
 40
0.2465993856
 40
1.0
 40
1.0
 40
1.0
 40
1.0
 10
35.34371875500005
 20
31.6425939187
 30
0.0
 10
35.29777043920001
 20
31.73674127589996
 30
0.0
 10
35.11026951050002
 20
32.11795043229998
 30
0.0
 10
34.9182281903
 20
32.49692461400001
 30
0.0
 10
34.77113463880005
 20
32.78118491699999
 30
0.0
  0
SPLINE
  5
87D3B
330
1F
100
AcDbEntity
  8
1
100
AcDbSpline
210
0.0
220
0.0
230
1.0
 70
     8
 71
     3
 72
     9
 73
     5
 74
     0
 42
0.000000001
 43
0.0000000001
 40
0.0
 40
0.0
 40
0.0
 40
0.0
 40
0.248815937
 40
1.0
 40
1.0
 40
1.0
 40
1.0
 10
36.5855236219
 20
29.24296823259998
 30
0.0
 10
36.48489502720003
 20
29.43837911320001
 30
0.0
 10
36.08000956300003
 20
30.22350768679999
 30
0.0
 10
35.67331562890001
 20
31.00770305180002
 30
0.0
 10
35.36701733339999
 20
31.59636280340001
 30
0.0
  0
SPLINE
  5
87D3C
330
1F
100
AcDbEntity
  8
1
100
AcDbSpline
210
0.0
220
0.0
230
1.0
 70
     8
 71
     3
 72
     9
 73
     5
 74
     0
 42
0.000000001
 43
0.0000000001
 40
0.0
 40
0.0
 40
0.0
 40
0.0
 40
0.4993535376
 40
1.0
 40
1.0
 40
1.0
 40
1.0
 10
42.23467252749997
 20
37.7693091372
 30
0.0
 10
42.10751714749995
 20
37.7693082008
 30
0.0
 10
41.85172100879998
 20
37.73840591919996
 30
0.0
 10
41.61224716799995
 20
37.64250234199997
 30
0.0
 10
41.50101659569997
 20
37.58021200849997
 30
0.0
  0
SPLINE
  5
87D3D
330
1F
100
AcDbEntity
  8
1
100
AcDbSpline
210
0.0
220
0.0
230
1.0
 70
     8
 71
     3
 72
     8
 73
     4
 74
     0
 42
0.000000001
 43
0.0000000001
 40
0.0
 40
0.0
 40
0.0
 40
0.0
 40
1.0
 40
1.0
 40
1.0
 40
1.0
 10
35.34371875500005
 20
31.6425939187
 30
0.0
 10
35.35128752560002
 20
31.62708562999998
 30
0.0
 10
35.35905191670003
 20
31.6116711491
 30
0.0
 10
35.36701733339999
 20
31.59636280340001
 30
0.0
  0
SPLINE
  5
87D3E
330
1F
100
AcDbEntity
  8
1
100
AcDbSpline
210
0.0
220
0.0
230
1.0
 70
     8
 71
     3
 72
     8
 73
     4
 74
     0
 42
0.000000001
 43
0.0000000001
 40
0.0
 40
0.0
 40
0.0
 40
0.0
 40
1.0
 40
1.0
 40
1.0
 40
1.0
 10
36.1343313305
 20
34.48736632599994
 30
0.0
 10
36.14880526949998
 20
34.49624049949998
 30
0.0
 10
36.16339760620002
 20
34.50492445299996
 30
0.0
 10
36.17810188640004
 20
34.51341150239997
 30
0.0
  0
SPLINE
  5
87D3F
330
1F
100
AcDbEntity
  8
1
100
AcDbSpline
210
0.0
220
0.0
230
1.0
 70
     8
 71
     3
 72
     9
 73
     5
 74
     0
 42
0.000000001
 43
0.0000000001
 40
0.0
 40
0.0
 40
0.0
 40
0.0
 40
0.5047350035
 40
1.0
 40
1.0
 40
1.0
 40
1.0
 10
46.16555451760001
 20
26.81058365699998
 30
0.0
 10
45.68426414409997
 20
27.14791412800001
 30
0.0
 10
44.66717826429999
 20
27.72913440500001
 30
0.0
 10
43.56854303779994
 20
28.13142529050002
 30
0.0
 10
43.01307488679998
 20
28.28649550940001
 30
0.0
  0
SPLINE
  5
87D40
330
1F
100
AcDbEntity
  8
1
100
AcDbSpline
210
0.0
220
0.0
230
1.0
 70
     8
 71
     3
 72
    18
 73
    14
 74
     0
 42
0.000000001
 43
0.0000000001
 40
0.0
 40
0.0
 40
0.0
 40
0.0
 40
0.0634145525
 40
0.1007856172
 40
0.1425915159
 40
0.1892126497
 40
0.2409015507999999
 40
0.2977767461
 40
0.3598177877
 40
0.4985956909000003
 40
0.654491803
 40
0.8232438073
 40
1.0
 40
1.0
 40
1.0
 40
1.0
 10
49.01307488679996
 20
23.59470140090001
 30
0.0
 10
49.01307488679996
 20
23.68773847740005
 30
0.0
 10
48.98787837470003
 20
23.83581989369996
 30
0.0
 10
48.91960745369994
 20
24.03361929179998
 30
0.0
 10
48.84258253110004
 20
24.20170226980001
 30
0.0
 10
48.741727416
 20
24.38102466880001
 30
0.0
 10
48.6164198311
 20
24.57131346620002
 30
0.0
 10
48.46641296409996
 20
24.7718415999
 30
0.0
 10
48.22446495700001
 20
25.06253630490002
 30
0.0
 10
47.86213432689993
 20
25.44104738279995
 30
0.0
 10
47.35877867310006
 20
25.89870445320002
 30
0.0
 10
46.78692984130004
 20
26.36198070340004
 30
0.0
 10
46.37791195880004
 20
26.66174495249997
 30
0.0
 10
46.16555451760001
 20
26.81058365699998
 30
0.0
  0
SPLINE
  5
87D41
330
1F
100
AcDbEntity
  8
1
100
AcDbSpline
210
0.0
220
0.0
230
1.0
 70
     8
 71
     3
 72
    26
 73
    22
 74
     0
 42
0.000000001
 43
0.0000000001
 40
0.0
 40
0.0
 40
0.0
 40
0.0
 40
0.2186876303
 40
0.4153584529
 40
0.5045481431000001
 40
0.5872013356
 40
0.6630142570000001
 40
0.731705752
 40
0.7930187672
 40
0.8467218910999998
 40
0.8926110498999999
 40
0.9305111451000001
 40
0.946419125
 40
0.9602782128000001
 40
0.9720760153
 40
0.9818015785
 40
0.9894481711999999
 40
0.9950123854
 40
0.9985016168000001
 40
0.9994834758999999
 40
1.0
 40
1.0
 40
1.0
 40
1.0
 10
36.95380432710005
 20
37.16683255209998
 30
0.0
 10
36.86785964530003
 20
37.1696497634
 30
0.0
 10
36.70464420790006
 20
37.17567653709997
 30
0.0
 10
36.50644989710003
 20
37.18464888700001
 30
0.0
 10
36.36173767740003
 20
37.19211669180001
 30
0.0
 10
36.26450665790004
 20
37.19753351289997
 30
0.0
 10
36.1753446675
 20
37.20287104729997
 30
0.0
 10
36.09458029650006
 20
37.20805189389998
 30
0.0
 10
36.02251360410003
 20
37.2130022863
 30
0.0
 10
35.95941434450003
 20
37.21765228310002
 30
0.0
 10
35.90552035060007
 20
37.22193875629998
 30
0.0
 10
35.86646440200002
 20
37.2253269701
 30
0.0
 10
35.8399753324
 20
37.22784080630001
 30
0.0
 10
35.82371564930003
 20
37.22949123419997
 30
0.0
 10
35.80988374910004
 20
37.23101264119995
 30
0.0
 10
35.79850407420003
 20
37.23240120659998
 30
0.0
 10
35.78955398160002
 20
37.23364310859998
 30
0.0
 10
35.78311637480005
 20
37.2347412732
 30
0.0
 10
35.77919233279999
 20
37.23559235669998
 30
0.0
 10
35.7774111841
 20
37.23626331929998
 30
0.0
 10
35.77685393190001
 20
37.23660677619998
 30
0.0
 10
35.77678597020002
 20
37.23679817229997
 30
0.0
  0
SPLINE
  5
87D42
330
1F
100
AcDbEntity
  8
1
100
AcDbSpline
210
0.0
220
0.0
230
1.0
 70
     8
 71
     3
 72
    14
 73
    10
 74
     0
 42
0.000000001
 43
0.0000000001
 40
0.0
 40
0.0
 40
0.0
 40
0.0
 40
0.0621779964
 40
0.1411830409
 40
0.238633329
 40
0.3551359225
 40
0.4905334890999999
 40
0.6440525171
 40
1.0
 40
1.0
 40
1.0
 40
1.0
 10
38.51297464430003
 20
36.93712650439997
 30
0.0
 10
38.48580719390003
 20
36.95570228450001
 30
0.0
 10
38.41865605700002
 20
36.98975751089998
 30
0.0
 10
38.29872050679995
 20
37.02997542080004
 30
0.0
 10
38.1475017721
 20
37.06511303459999
 30
0.0
 10
37.96496311210001
 20
37.0951324147
 30
0.0
 10
37.75178108239999
 20
37.12016835749998
 30
0.0
 10
37.41159224850004
 20
37.1485357462
 30
0.0
 10
37.14210691320005
 20
37.16066002229999
 30
0.0
 10
36.95380432710005
 20
37.16683255209998
 30
0.0
  0
SPLINE
  5
87D43
330
1F
100
AcDbEntity
  8
1
100
AcDbSpline
210
0.0
220
0.0
230
1.0
 70
     8
 71
     3
 72
     9
 73
     5
 74
     0
 42
0.000000001
 43
0.0000000001
 40
0.0
 40
0.0
 40
0.0
 40
0.0
 40
0.2594899378
 40
1.0
 40
1.0
 40
1.0
 40
1.0
 10
38.64254006010003
 20
36.84754838310005
 30
0.0
 10
38.63135837340003
 20
36.85533307010003
 30
0.0
 10
38.5882552878
 20
36.88531557279997
 30
0.0
 10
38.54507019560003
 20
36.91518112880003
 30
0.0
 10
38.51297464430003
 20
36.93712650439997
 30
0.0
  0
SPLINE
  5
87D44
330
1F
100
AcDbEntity
  8
1
100
AcDbSpline
210
0.0
220
0.0
230
1.0
 70
     8
 71
     3
 72
     9
 73
     5
 74
     0
 42
0.000000001
 43
0.0000000001
 40
0.0
 40
0.0
 40
0.0
 40
0.0
 40
0.2474396456
 40
1.0
 40
1.0
 40
1.0
 40
1.0
 10
24.11636594550004
 20
29.97153227919999
 30
0.0
 10
24.2251317285
 20
29.98613481070004
 30
0.0
 10
24.66478528430002
 20
30.04448814359999
 30
0.0
 10
25.104772798
 20
30.10031674059999
 30
0.0
 10
25.4360378312
 20
30.14110838039997
 30
0.0
  0
SPLINE
  5
87D45
330
1F
100
AcDbEntity
  8
1
100
AcDbSpline
210
0.0
220
0.0
230
1.0
 70
     8
 71
     3
 72
    16
 73
    12
 74
     0
 42
0.000000001
 43
0.0000000001
 40
0.0
 40
0.0
 40
0.0
 40
0.0
 40
0.1637039748
 40
0.3187205651
 40
0.4637833562
 40
0.5976120286
 40
0.7189501225
 40
0.8266880993999999
 40
0.8752677629999999
 40
0.9202813255999997
 40
1.0
 40
1.0
 40
1.0
 40
1.0
 10
23.89509208729998
 20
29.83733971439999
 30
0.0
 10
23.74925634790003
 20
29.74888253290001
 30
0.0
 10
23.46119336210001
 20
29.58333222629999
 30
0.0
 10
23.02980517290001
 20
29.36504747400002
 30
0.0
 10
22.61458206680004
 20
29.18543160929997
 30
0.0
 10
22.22082292980002
 20
29.0468851766
 30
0.0
 10
21.85434139900002
 20
28.95177315040001
 30
0.0
 10
21.56738225220005
 20
28.90909468830005
 30
0.0
 10
21.35747979659999
 20
28.90132080859999
 30
0.0
 10
21.17709925740002
 20
28.91006310560002
 30
0.0
 10
21.04788148930004
 20
28.93533911069997
 30
0.0
 10
20.96978223630003
 20
28.96361468979998
 30
0.0
  0
LINE
  5
87D46
330
1F
100
AcDbEntity
  8
1
100
AcDbLine
 10
23.89509208729998
 20
29.83733971439999
 30
0.0
 11
24.11636594550004
 21
29.97153227919999
 31
0.0
  0
SPLINE
  5
87D47
330
1F
100
AcDbEntity
  8
1
100
AcDbSpline
210
0.0
220
0.0
230
1.0
 70
     8
 71
     3
 72
     9
 73
     5
 74
     0
 42
0.000000001
 43
0.0000000001
 40
0.0
 40
0.0
 40
0.0
 40
0.0
 40
0.238592028
 40
1.0
 40
1.0
 40
1.0
 40
1.0
 10
34.70910647590006
 20
34.7802129916
 30
0.0
 10
34.74245237620005
 20
34.78499170770002
 30
0.0
 10
34.88258366530005
 20
34.80230712669996
 30
0.0
 10
35.02417487880008
 20
34.8081670549
 30
0.0
 10
35.13164760070004
 20
34.80563947369998
 30
0.0
  0
SPLINE
  5
87D48
330
1F
100
AcDbEntity
  8
1
100
AcDbSpline
210
0.0
220
0.0
230
1.0
 70
     8
 71
     3
 72
     8
 73
     4
 74
     0
 42
0.000000001
 43
0.0000000001
 40
0.0
 40
0.0
 40
0.0
 40
0.0
 40
1.0
 40
1.0
 40
1.0
 40
1.0
 10
35.16538596250001
 20
35.022416791
 30
0.0
 10
35.14633306700006
 20
35.015360347
 30
0.0
 10
35.12740245740002
 20
35.00796462599996
 30
0.0
 10
35.10861111290007
 20
35.00023859209998
 30
0.0
  0
SPLINE
  5
87D49
330
1F
100
AcDbEntity
  8
1
100
AcDbSpline
210
0.0
220
0.0
230
1.0
 70
     8
 71
     3
 72
    11
 73
     7
 74
     0
 42
0.000000001
 43
0.0000000001
 40
0.0
 40
0.0
 40
0.0
 40
0.0
 40
0.2934641045
 40
0.5614586096
 40
0.7974421793000001
 40
1.0
 40
1.0
 40
1.0
 40
1.0
 10
27.31204344100002
 20
30.1377217373
 30
0.0
 10
27.12904516740002
 20
30.15517950280001
 30
0.0
 10
26.77809282110002
 20
30.18046205499999
 30
0.0
 10
26.2785056422
 20
30.19232743080002
 30
0.0
 10
25.83589682320002
 20
30.18006425729996
 30
0.0
 10
25.56197107150001
 20
30.15661567170001
 30
0.0
 10
25.4360378312
 20
30.14110838039997
 30
0.0
  0
SPLINE
  5
87D4A
330
1F
100
AcDbEntity
  8
1
100
AcDbSpline
210
0.0
220
0.0
230
1.0
 70
     8
 71
     3
 72
    18
 73
    14
 74
     0
 42
0.000000001
 43
0.0000000001
 40
0.0
 40
0.0
 40
0.0
 40
0.0
 40
0.0152040864
 40
0.0392918303
 40
0.0719703823
 40
0.1128425469
 40
0.1614173176
 40
0.217120182
 40
0.3472560554
 40
0.4973749058
 40
0.6609039844
 40
0.8308432248
 40
1.0
 40
1.0
 40
1.0
 40
1.0
 10
35.79857592750006
 20
37.23888239689998
 30
0.0
 10
35.81618939979995
 20
37.2391899623
 30
0.0
 10
35.86172194620002
 20
37.23859719689997
 30
0.0
 10
35.94508220660003
 20
37.23664513309998
 30
0.0
 10
36.05816311530003
 20
37.23327088410001
 30
0.0
 10
36.19959349680005
 20
37.22885827339999
 30
0.0
 10
36.36769216230005
 20
37.22370328809998
 30
0.0
 10
36.63918449740004
 20
37.21597277459998
 30
0.0
 10
37.02834140860006
 20
37.20697313990001
 30
0.0
 10
37.54249661340003
 20
37.20024720650002
 30
0.0
 10
38.10281837530005
 20
37.19967229630001
 30
0.0
 10
38.68515687470006
 20
37.2067707441
 30
0.0
 10
39.07793322750001
 20
37.21687247719998
 30
0.0
 10
39.27382338409996
 20
37.22321656049999
 30
0.0
  0
LINE
  5
87D4B
330
1F
100
AcDbEntity
  8
1
100
AcDbLine
 10
39.27382338409996
 20
37.22321656049999
 30
0.0
 11
39.32618060340003
 21
37.22449593080003
 31
0.0
  0
LINE
  5
87D4C
330
1F
100
AcDbEntity
  8
1
100
AcDbLine
 10
39.32618060340003
 20
28.97482092730001
 30
0.0
 11
39.27382338409996
 21
28.980068015
 31
0.0
  0
SPLINE
  5
87D4D
330
1F
100
AcDbEntity
  8
1
100
AcDbSpline
210
0.0
220
0.0
230
1.0
 70
     8
 71
     3
 72
     9
 73
     5
 74
     0
 42
0.000000001
 43
0.0000000001
 40
0.0
 40
0.0
 40
0.0
 40
0.0
 40
0.2606030761
 40
1.0
 40
1.0
 40
1.0
 40
1.0
 10
39.32618060340003
 20
37.22449593080003
 30
0.0
 10
39.39184700159997
 20
37.2255784781
 30
0.0
 10
39.64381619060004
 20
37.2302921472
 30
0.0
 10
39.89574448189996
 20
37.23714018119998
 30
0.0
 10
40.08198014520002
 20
37.24330038169997
 30
0.0
  0
LINE
  5
87D4E
330
1F
100
AcDbEntity
  8
1
100
AcDbLine
 10
40.08198014520002
 20
37.24330038169997
 30
0.0
 11
40.23527616540002
 21
37.24838045599998
 31
0.0
  0
LINE
  5
87D4F
330
1F
100
AcDbEntity
  8
1
100
AcDbLine
 10
40.23527616540002
 20
37.24838045599998
 30
0.0
 11
40.33112002959994
 21
37.24812081219997
 31
0.0
  0
SPLINE
  5
87D50
330
1F
100
AcDbEntity
  8
1
100
AcDbSpline
210
0.0
220
0.0
230
1.0
 70
     8
 71
     3
 72
     9
 73
     5
 74
     0
 42
0.000000001
 43
0.0000000001
 40
0.0
 40
0.0
 40
0.0
 40
0.0
 40
0.2462891892
 40
1.0
 40
1.0
 40
1.0
 40
1.0
 10
43.01307488679998
 20
28.28649550940001
 30
0.0
 10
42.72743376120001
 20
28.36623803239999
 30
0.0
 10
41.56111984909995
 20
28.66600978979997
 30
0.0
 10
40.36940999899996
 20
28.86802133090004
 30
0.0
 10
39.46656623050001
 20
28.96045055720002
 30
0.0
  0
SPLINE
  5
87D51
330
1F
100
AcDbEntity
  8
1
100
AcDbSpline
210
0.0
220
0.0
230
1.0
 70
     8
 71
     3
 72
    21
 73
    17
 74
     0
 42
0.000000001
 43
0.0000000001
 40
0.0
 40
0.0
 40
0.0
 40
0.0
 40
0.0617225681
 40
0.1235142337
 40
0.1854251221
 40
0.2474933096
 40
0.3097445347
 40
0.372188157
 40
0.4348182185000001
 40
0.4976146646000001
 40
0.6232486398
 40
0.7490225215000002
 40
0.8119853942
 40
0.8748265278999999
 40
0.9375070352999999
 40
1.0
 40
1.0
 40
1.0
 40
1.0
 10
34.95710587020005
 20
31.30406334659999
 30
0.0
 10
34.87119605480001
 20
31.34549500059998
 30
0.0
 10
34.70526551650005
 20
31.44150618270001
 30
0.0
 10
34.48047810100002
 20
31.62080089719998
 30
0.0
 10
34.28417899440001
 20
31.83170532299998
 30
0.0
 10
34.1203708319
 20
32.06954441060003
 30
0.0
 10
33.99226414630005
 20
32.3292796938
 30
0.0
 10
33.90245191550003
 20
32.60549209679998
 30
0.0
 10
33.85256342190003
 20
32.89251561500001
 30
0.0
 10
33.84065148150006
 20
33.28137567229996
 30
0.0
 10
33.92892011730004
 20
33.76578418550001
 30
0.0
 10
34.14881311780006
 20
34.20673115719998
 30
0.0
 10
34.3925641569
 20
34.51100361349998
 30
0.0
 10
34.60598534910003
 20
34.71075808660002
 30
0.0
 10
34.84527810930001
 20
34.87722710479996
 30
0.0
 10
35.01921394810006
 20
34.96371825899999
 30
0.0
 10
35.10861111290007
 20
35.00023859209998
 30
0.0
  0
SPLINE
  5
87D52
330
1F
100
AcDbEntity
  8
1
100
AcDbSpline
210
0.0
220
0.0
230
1.0
 70
     8
 71
     3
 72
     9
 73
     5
 74
     0
 42
0.000000001
 43
0.0000000001
 40
0.0
 40
0.0
 40
0.0
 40
0.0
 40
0.2558746683
 40
1.0
 40
1.0
 40
1.0
 40
1.0
 10
35.13164760070004
 20
34.80563947369998
 30
0.0
 10
35.15604772580001
 20
34.80506562299999
 30
0.0
 10
35.25137683430006
 20
34.8016457098
 30
0.0
 10
35.34653696770005
 20
34.7936803968
 30
0.0
 10
35.41702204450003
 20
34.7853199729
 30
0.0
  0
SPLINE
  5
87D53
330
1F
100
AcDbEntity
  8
1
100
AcDbSpline
210
0.0
220
0.0
230
1.0
 70
     8
 71
     3
 72
     9
 73
     5
 74
     0
 42
0.000000001
 43
0.0000000001
 40
0.0
 40
0.0
 40
0.0
 40
0.0
 40
0.2536273259
 40
1.0
 40
1.0
 40
1.0
 40
1.0
 10
34.56856831569997
 20
34.67038961619997
 30
0.0
 10
34.60736757940003
 20
34.67294067750001
 30
0.0
 10
34.76052592620006
 20
34.68004027840001
 30
0.0
 10
34.91421641860006
 20
34.67553875200002
 30
0.0
 10
35.02821801220006
 20
34.66570739979997
 30
0.0
  0
SPLINE
  5
87D54
330
1F
100
AcDbEntity
  8
1
100
AcDbSpline
210
0.0
220
0.0
230
1.0
 70
     8
 71
     3
 72
     9
 73
     5
 74
     0
 42
0.000000001
 43
0.0000000001
 40
0.0
 40
0.0
 40
0.0
 40
0.0
 40
0.2496181561
 40
1.0
 40
1.0
 40
1.0
 40
1.0
 10
35.03528133890001
 20
31.15696330220001
 30
0.0
 10
35.04993911899999
 20
31.15191332639999
 30
0.0
 10
35.1089142633
 20
31.13242853780001
 30
0.0
 10
35.16888211480006
 20
31.11594740909996
 30
0.0
 10
35.21426076450007
 20
31.10532732319999
 30
0.0
  0
SPLINE
  5
87D55
330
1F
100
AcDbEntity
  8
1
100
AcDbSpline
210
0.0
220
0.0
230
1.0
 70
     8
 71
     3
 72
     9
 73
     5
 74
     0
 42
0.000000001
 43
0.0000000001
 40
0.0
 40
0.0
 40
0.0
 40
0.0
 40
0.5435085839
 40
1.0
 40
1.0
 40
1.0
 40
1.0
 10
39.00544450229995
 20
36.19319790470001
 30
0.0
 10
38.99384287780004
 20
36.21455449770001
 30
0.0
 10
38.9737319294
 20
36.2545385534
 30
0.0
 10
38.95683376969998
 20
36.29602058319998
 30
0.0
 10
38.95021530530005
 20
36.31533102649999
 30
0.0
  0
SPLINE
  5
87D56
330
1F
100
AcDbEntity
  8
1
100
AcDbSpline
210
0.0
220
0.0
230
1.0
 70
     8
 71
     3
 72
     9
 73
     5
 74
     0
 42
0.000000001
 43
0.0000000001
 40
0.0
 40
0.0
 40
0.0
 40
0.0
 40
0.2475436299
 40
1.0
 40
1.0
 40
1.0
 40
1.0
 10
38.95021530530005
 20
36.31533102649999
 30
0.0
 10
38.92063418240002
 20
36.35659418419996
 30
0.0
 10
38.80520943410004
 20
36.52617092569997
 30
0.0
 10
38.70649145990001
 20
36.70709419280001
 30
0.0
 10
38.64254006010003
 20
36.84754838310005
 30
0.0
  0
SPLINE
  5
87D57
330
1F
100
AcDbEntity
  8
1
100
AcDbSpline
210
0.0
220
0.0
230
1.0
 70
     8
 71
     3
 72
     8
 73
     4
 74
     0
 42
0.000000001
 43
0.0000000001
 40
0.0
 40
0.0
 40
0.0
 40
0.0
 40
1.0
 40
1.0
 40
1.0
 40
1.0
 10
35.18510998670001
 20
34.80420266279995
 30
0.0
 10
35.13216106630006
 20
34.75878639560004
 30
0.0
 10
35.07983961290006
 20
34.71262686099996
 30
0.0
 10
35.02821801220006
 20
34.66570739979997
 30
0.0
  0
LINE
  5
87D58
330
1F
100
AcDbEntity
  8
1
100
AcDbLine
 10
40.23527616540002
 20
37.24838045599998
 30
0.0
 11
40.25494332649997
 21
37.20707323859997
 31
0.0
  0
SPLINE
  5
87D59
330
1F
100
AcDbEntity
  8
1
100
AcDbSpline
210
0.0
220
0.0
230
1.0
 70
     8
 71
     3
 72
     8
 73
     4
 74
     0
 42
0.000000001
 43
0.0000000001
 40
0.0
 40
0.0
 40
0.0
 40
0.0
 40
1.0
 40
1.0
 40
1.0
 40
1.0
 10
25.4360378312
 20
35.11736361759998
 30
0.0
 10
24.8091287524
 20
34.55262698569996
 30
0.0
 10
24.18320198009997
 20
33.98679742699997
 30
0.0
 10
23.55840320400006
 20
33.41972693239998
 30
0.0
  0
SPLINE
  5
87D5A
330
1F
100
AcDbEntity
  8
1
100
AcDbSpline
210
0.0
220
0.0
230
1.0
 70
     8
 71
     3
 72
     9
 73
     5
 74
     0
 42
0.000000001
 43
0.0000000001
 40
0.0
 40
0.0
 40
0.0
 40
0.0
 40
0.2510396218
 40
1.0
 40
1.0
 40
1.0
 40
1.0
 10
40.08198283769996
 20
37.24329856400004
 30
0.0
 10
40.07821853450002
 20
37.23025537210002
 30
0.0
 10
40.06301302859998
 20
37.17835971089997
 30
0.0
 10
40.04696457149997
 20
37.12671087779998
 30
0.0
 10
40.03446668249995
 20
37.08818569499996
 30
0.0
  0
SPLINE
  5
87D5B
330
1F
100
AcDbEntity
  8
1
100
AcDbSpline
210
0.0
220
0.0
230
1.0
 70
     8
 71
     3
 72
    11
 73
     7
 74
     0
 42
0.000000001
 43
0.0000000001
 40
0.0
 40
0.0
 40
0.0
 40
0.0
 40
0.0621192676
 40
0.2458991011
 40
0.5583370292000001
 40
1.0
 40
1.0
 40
1.0
 40
1.0
 10
35.77678597020002
 20
37.23679817229997
 30
0.0
 10
35.77663293550001
 20
37.23722915339997
 30
0.0
 10
35.77935645810004
 20
37.23797467310004
 30
0.0
 10
35.78250723550003
 20
37.23821450599999
 30
0.0
 10
35.78995889840002
 20
37.23873391099997
 30
0.0
 10
35.79532473839999
 20
37.2388256248
 30
0.0
 10
35.79857592750006
 20
37.23888239689998
 30
0.0
  0
SPLINE
  5
87D5C
330
1F
100
AcDbEntity
  8
1
100
AcDbSpline
210
0.0
220
0.0
230
1.0
 70
     8
 71
     3
 72
     9
 73
     5
 74
     0
 42
0.000000001
 43
0.0000000001
 40
0.0
 40
0.0
 40
0.0
 40
0.0
 40
0.2689462858
 40
1.0
 40
1.0
 40
1.0
 40
1.0
 10
35.02821801220006
 20
34.66570739979997
 30
0.0
 10
34.99362951020004
 20
34.675010996
 30
0.0
 10
34.86400202800002
 20
34.70569524919998
 30
0.0
 10
34.73078195150004
 20
34.72118863770001
 30
0.0
 10
34.63345060840004
 20
34.72357999209997
 30
0.0
  0
SPLINE
  5
87D5D
330
1F
100
AcDbEntity
  8
1
100
AcDbSpline
210
0.0
220
0.0
230
1.0
 70
     8
 71
     3
 72
    11
 73
     7
 74
     0
 42
0.000000001
 43
0.0000000001
 40
0.0
 40
0.0
 40
0.0
 40
0.0
 40
0.2512857035
 40
0.5017493982
 40
0.7513145224
 40
1.0
 40
1.0
 40
1.0
 40
1.0
 10
25.4360378312
 20
35.11736361759998
 30
0.0
 10
25.5652609325
 20
35.23377127770004
 30
0.0
 10
25.84261202200006
 20
35.44574798860001
 30
0.0
 10
26.30375125670003
 20
35.69099070319996
 30
0.0
 10
26.79746607630006
 20
35.85599671790004
 30
0.0
 10
27.14029324810002
 20
35.90873074110003
 30
0.0
 10
27.31204344100002
 20
35.92006395599995
 30
0.0
  0
SPLINE
  5
87D5E
330
1F
100
AcDbEntity
  8
1
100
AcDbSpline
210
0.0
220
0.0
230
1.0
 70
     8
 71
     3
 72
     9
 73
     5
 74
     0
 42
0.000000001
 43
0.0000000001
 40
0.0
 40
0.0
 40
0.0
 40
0.0
 40
0.2546722453
 40
1.0
 40
1.0
 40
1.0
 40
1.0
 10
34.05085126810002
 20
33.77841179949999
 30
0.0
 10
34.04523828790002
 20
33.78377649759997
 30
0.0
 10
34.02330310660005
 20
33.80495087580002
 30
0.0
 10
34.00179440300002
 20
33.82656816839997
 30
0.0
 10
33.986040656
 20
33.8429440587
 30
0.0
  0
SPLINE
  5
87D5F
330
1F
100
AcDbEntity
  8
1
100
AcDbSpline
210
0.0
220
0.0
230
1.0
 70
     8
 71
     3
 72
    11
 73
     7
 74
     0
 42
0.000000001
 43
0.0000000001
 40
0.0
 40
0.0
 40
0.0
 40
0.0
 40
0.2488769283
 40
0.4975329244
 40
0.7474298843000004
 40
1.0
 40
1.0
 40
1.0
 40
1.0
 10
36.18886195880004
 20
35.07117344489998
 30
0.0
 10
36.10545307310002
 20
35.09321311569997
 30
0.0
 10
35.93511914900008
 20
35.12480766179996
 30
0.0
 10
35.67517113449998
 20
35.13290225040004
 30
0.0
 10
35.41577261250001
 20
35.1008273012
 30
0.0
 10
35.24748783310002
 20
35.05282409830002
 30
0.0
 10
35.16538596250001
 20
35.022416791
 30
0.0
  0
SPLINE
  5
87D60
330
1F
100
AcDbEntity
  8
1
100
AcDbSpline
210
0.0
220
0.0
230
1.0
 70
     8
 71
     3
 72
     9
 73
     5
 74
     0
 42
0.000000001
 43
0.0000000001
 40
0.0
 40
0.0
 40
0.0
 40
0.0
 40
0.2662662156
 40
1.0
 40
1.0
 40
1.0
 40
1.0
 10
34.52838030320004
 20
34.0702368421
 30
0.0
 10
34.49881295189999
 20
34.08642914480001
 30
0.0
 10
34.38708708790006
 20
34.1459644837
 30
0.0
 10
34.27250097629997
 20
34.20031613770003
 30
0.0
 10
34.18658910650004
 20
34.23565174999996
 30
0.0
  0
SPLINE
  5
87D61
330
1F
100
AcDbEntity
  8
1
100
AcDbSpline
210
0.0
220
0.0
230
1.0
 70
     8
 71
     3
 72
    24
 73
    20
 74
     0
 42
0.000000001
 43
0.0000000001
 40
0.0
 40
0.0
 40
0.0
 40
0.0
 40
0.0334695227
 40
0.0491351933
 40
0.0645610491
 40
0.0801845002
 40
0.0964371981
 40
0.1321926486
 40
0.1523123734
 40
0.1741170715
 40
0.22302373
 40
0.2790589341
 40
0.3418171215
 40
0.4106457554
 40
0.4847849835
 40
0.5634565855
 40
0.6459107867000001
 40
0.8193634675
 40
1.0
 40
1.0
 40
1.0
 40
1.0
 10
20.96978223630003
 20
28.96361468979998
 30
0.0
 10
20.90997026010001
 20
28.98526942009997
 30
0.0
 10
20.82499369400006
 20
29.02835561710002
 30
0.0
 10
20.73299178180002
 20
29.11036671439999
 30
0.0
 10
20.67808048860002
 20
29.18078875669997
 30
0.0
 10
20.63652266209999
 20
29.26106567589997
 30
0.0
 10
20.59808339040001
 20
29.38431947050002
 30
0.0
 10
20.58999256470006
 20
29.52326738240003
 30
0.0
 10
20.60632267030002
 20
29.67007949379999
 30
0.0
 10
20.64221676760002
 20
29.83922917089998
 30
0.0
 10
20.722054953
 20
30.0674407347
 30
0.0
 10
20.86160299860001
 20
30.35450058040003
 30
0.0
 10
21.04461660480001
 20
30.66094492569999
 30
0.0
 10
21.26673436430002
 20
30.98297908509997
 30
0.0
 10
21.52345272060003
 20
31.31714177680001
 30
0.0
 10
21.81028812419999
 20
31.66029026819999
 30
0.0
 10
22.23452883880003
 20
32.13410471009999
 30
0.0
 10
22.8143214227
 20
32.72810667009995
 30
0.0
 10
23.3045941721
 20
33.18936818199998
 30
0.0
 10
23.55881327980001
 20
33.42009871579998
 30
0.0
  0
ELLIPSE
  5
87D62
330
1F
100
AcDbEntity
  8
1
100
AcDbEllipse
 10
280.5597809247
 20
-5.737497471800026
 30
0.0
 11
334.5554642609
 21
-40.80553800269997
 31
0.0
210
0.0
220
0.0
230
1.0
 40
0.0225479297
 41
2.379095247499994
 42
2.432202486399996
  0
ELLIPSE
  5
87D63
330
1F
100
AcDbEntity
  8
1
100
AcDbEllipse
 10
233.4950406285
 20
-0.0000000011000054
 30
0.0
 11
300.6156487362
 21
-36.6663003372
 31
0.0
210
0.0
220
0.0
230
1.0
 40
0.0227744083
 41
2.275166196100002
 42
2.275777747700002
  0
ELLIPSE
  5
87D64
330
1F
100
AcDbEntity
  8
1
100
AcDbEllipse
 10
47.38644871999997
 20
0.0551335724000239
 30
0.0
 11
64.8319285069
 21
2.7284554872
 31
0.0
210
0.0
220
0.0
230
1.0
 40
0.5757114083000002
 41
1.681814958199999
 42
1.739102756999999
  0
ELLIPSE
  5
87D65
330
1F
100
AcDbEntity
  8
1
100
AcDbEllipse
 10
77.68377191359997
 20
0.2935049472999651
 30
0.0
 11
198.5157751405005
 21
3.336275950900007
 31
0.0
210
0.0
220
0.0
230
1.0
 40
0.1897341249
 41
1.784428477199999
 42
1.8241529098
  0
ELLIPSE
  5
87D66
330
1F
100
AcDbEntity
  8
1
100
AcDbEllipse
 10
38.77250257030005
 20
34.49035321669998
 30
0.0
 11
2.290270677599998
 21
-0.5191456327000004
 31
0.0
210
0.0
220
0.0
230
1.0
 40
0.0703275822
 41
3.236831654079696
 42
3.623163973979925
  0
ELLIPSE
  5
87D67
330
1F
100
AcDbEntity
  8
1
100
AcDbEllipse
 10
30.71475951200006
 20
29.8340046343
 30
0.0
 11
14.1804563124
 21
8.747853867099999
 31
0.0
210
0.0
220
0.0
230
1.0
 40
0.0916604116
 41
0.8957857476000008
 42
1.095628728599994
  0
LINE
  5
87D68
330
1F
100
AcDbEntity
  8
sk3
100
AcDbLine
 10
14.00000000005636
 20
12.99999999890001
 30
0.0
 11
14.00000000005636
 21
-12.99999999889999
 31
0.0
  0
LINE
  5
87D69
330
1F
100
AcDbEntity
  8
cut
100
AcDbLine
 10
35.01976038979999
 20
34.60933855689999
 30
0.0
 11
35.04219000469996
 21
34.6228251229
 31
0.0
  0
LINE
  5
87D6A
330
1F
100
AcDbEntity
  8
cut
100
AcDbLine
 10
35.04046713450001
 20
34.62185316879999
 30
0.0
 11
35.06150023609999
 21
34.63361344289999
 31
0.0
  0
LINE
  5
87D6B
330
1F
100
AcDbEntity
  8
cut
100
AcDbLine
 10
41.20322816719997
 20
37.74040046849999
 30
0.0
 11
41.40828430689999
 21
37.8520670856
 31
0.0
  0
LINE
  5
87D6C
330
1F
100
AcDbEntity
  8
cut
100
AcDbLine
 10
41.40828430689999
 20
37.8520670856
 30
0.0
 11
41.42535612789996
 21
37.86129468280001
 31
0.0
  0
LINE
  5
87D6D
330
1F
100
AcDbEntity
  8
cut
100
AcDbLine
 10
35.06150021309998
 20
34.63361343049998
 30
0.0
 11
35.29216305969996
 21
34.75746963570002
 31
0.0
  0
LINE
  5
87D6E
330
1F
100
AcDbEntity
  8
cut
100
AcDbLine
 10
41.132038542
 20
37.7021604942
 30
0.0
 11
41.20322816719997
 21
37.74040046849999
 31
0.0
  0
LINE
  5
87D6F
330
1F
100
AcDbEntity
  8
cut
100
AcDbLine
 10
35.29216305969996
 20
34.75746963570002
 30
0.0
 11
35.52724986899998
 21
34.88255918050001
 31
0.0
  0
LINE
  5
87D70
330
1F
100
AcDbEntity
  8
cut
100
AcDbLine
 10
41.0276778464
 20
37.64681525039998
 30
0.0
 11
41.132038542
 21
37.7021604942
 31
0.0
  0
LINE
  5
87D71
330
1F
100
AcDbEntity
  8
cut
100
AcDbLine
 10
35.52724986899998
 20
34.88255918050001
 30
0.0
 11
35.76676139669996
 21
35.00887715959998
 31
0.0
  0
LINE
  5
87D72
330
1F
100
AcDbEntity
  8
cut
100
AcDbLine
 10
35.76676139669996
 20
35.00887715959998
 30
0.0
 11
36.01070066509999
 21
35.13640395239999
 31
0.0
  0
LINE
  5
87D73
330
1F
100
AcDbEntity
  8
cut
100
AcDbLine
 10
40.47697874059998
 20
37.35713775509998
 30
0.0
 11
41.0276778464
 21
37.64681525039998
 31
0.0
  0
LWPOLYLINE
  5
87D74
330
1F
100
AcDbEntity
  8
cut
100
AcDbPolyline
 90
        6
 70
     0
 43
0.0
 10
36.01070066509999
 20
35.13640395239999
 10
36.14154332719997
 20
35.20433905089999
 10
36.14878909909999
 20
35.20802963220001
 10
36.15606782889998
 20
35.2116936242
 10
36.16337951649997
 20
35.2153310267
 10
36.17072416189998
 20
35.2189418399
  0
LINE
  5
87D75
330
1F
100
AcDbEntity
  8
cut
100
AcDbLine
 10
40.14200331279996
 20
37.1838524818
 30
0.0
 11
40.47697874059998
 21
37.35713775509998
 31
0.0
  0
LINE
  5
87D76
330
1F
100
AcDbEntity
  8
cut
100
AcDbLine
 10
39.9187762728
 20
37.06993309769999
 30
0.0
 11
40.14200331279996
 21
37.1838524818
 31
0.0
  0
LINE
  5
87D77
330
1F
100
AcDbEntity
  8
cut
100
AcDbLine
 10
39.26151431399997
 20
36.73892069660002
 30
0.0
 11
39.9187762728
 21
37.06993309769999
 31
0.0
  0
LINE
  5
87D78
330
1F
100
AcDbEntity
  8
cut
100
AcDbLine
 10
38.35946654959997
 20
36.28933794860001
 30
0.0
 11
39.26151431399997
 21
36.73892069660002
 31
0.0
  0
LINE
  5
87D79
330
1F
100
AcDbEntity
  8
cut
100
AcDbLine
 10
37.39784950119997
 20
35.8156388628
 30
0.0
 11
38.35946654959997
 21
36.28933794860001
 31
0.0
  0
LINE
  5
87D7A
330
1F
100
AcDbEntity
  8
cut
100
AcDbLine
 10
36.6019098586
 20
35.42766112089998
 30
0.0
 11
37.39784950119997
 21
35.8156388628
 31
0.0
  0
LINE
  5
87D7B
330
1F
100
AcDbEntity
  8
cut
100
AcDbLine
 10
36.17072416189998
 20
35.2189418399
 30
0.0
 11
36.6019098586
 21
35.42766112089998
 31
0.0
  0
LWPOLYLINE
  5
87D7C
330
1F
100
AcDbEntity
  8
cut
100
AcDbPolyline
 90
        8
 70
     0
 43
0.0
 10
34.88507591869999
 20
34.50095069189999
 10
34.90340698719996
 20
34.51899973950001
 10
34.92152557169999
 20
34.53567501169999
 10
34.94019697989998
 20
34.5517367317
 10
34.95944731919997
 20
34.56717483759998
 10
34.97925048209999
 20
34.5819993913
 10
34.99938000200001
 20
34.59606960729999
 10
35.01976038979999
 20
34.60933855689999
  0
LWPOLYLINE
  5
87D7D
330
1F
100
AcDbEntity
  8
cut
100
AcDbPolyline
 90
        8
 70
     0
 43
0.0
 10
34.90081420459998
 20
34.51654245270001
 10
34.91702133969997
 20
34.53165033880001
 10
34.93368512669997
 20
34.5462635307
 10
34.95079651629996
 20
34.56037524710001
 10
34.96834143139998
 20
34.5739755141
 10
34.98628568369998
 20
34.58704158719999
 10
35.00459005709999
 20
34.5995475295
 10
35.02322379829998
 20
34.61147363510001
  0
LINE
  5
87D7E
330
1F
100
AcDbEntity
  8
cut
100
AcDbLine
 10
34.853317957
 20
34.46633583500001
 30
0.0
 11
34.86983127099998
 21
34.4849020284
 31
0.0
  0
LINE
  5
87D7F
330
1F
100
AcDbEntity
  8
cut
100
AcDbLine
 10
34.86930317989996
 20
34.48433015109998
 30
0.0
 11
34.88598937119997
 21
34.50188188660002
 31
0.0
  0
LINE
  5
87D80
330
1F
100
AcDbEntity
  8
cut
100
AcDbLine
 10
34.6886664184
 20
34.11065053530001
 30
0.0
 11
34.69309461009999
 21
34.13588753079998
 31
0.0
  0
LINE
  5
87D81
330
1F
100
AcDbEntity
  8
cut
100
AcDbLine
 10
34.69283557849998
 20
34.1345490427
 30
0.0
 11
34.69777942529999
 21
34.1581046121
 31
0.0
  0
LWPOLYLINE
  5
87D82
330
1F
100
AcDbEntity
  8
cut
100
AcDbPolyline
 90
       16
 70
     0
 43
0.0
 10
34.69762051839999
 20
34.15739994379999
 10
34.70348706489998
 20
34.181346233
 10
34.7098742659
 20
34.2041490175
 10
34.71692148649996
 20
34.22644679960001
 10
34.72464826849999
 20
34.2483057452
 10
34.73302900599998
 20
34.26979946419999
 10
34.74205457099998
 20
34.2909418568
 10
34.75173409149997
 20
34.31171902279999
 10
34.76206934599999
 20
34.3321628715
 10
34.77305220029999
 20
34.3522783466
 10
34.78469078879996
 20
34.37206050429998
 10
34.79701129270001
 20
34.39152642240002
 10
34.80999716279999
 20
34.41067561430001
 10
34.82366494849998
 20
34.42950856660002
 10
34.83809047919996
 20
34.44804381630002
 10
34.853317957
 20
34.46633583500001
  0
LWPOLYLINE
  5
87D83
330
1F
100
AcDbEntity
  8
cut
100
AcDbPolyline
 90
       16
 70
     0
 43
0.0
 10
34.7027945886
 20
34.17873656890002
 10
34.70861035939999
 20
34.19986808869999
 10
34.71506973939998
 20
34.2207979536
 10
34.72217672939998
 20
34.24153780559999
 10
34.72993299879997
 20
34.26209186400001
 10
34.73833089109998
 20
34.28243465740003
 10
34.747360418
 20
34.30253329120001
 10
34.75701157819999
 20
34.32235699490002
 10
34.76727431639998
 20
34.3418834924
 10
34.77813856369997
 20
34.36109263150001
 10
34.78959232919996
 20
34.37996288790002
 10
34.8016159323
 20
34.39846724980001
 10
34.81418777029998
 20
34.4165773334
 10
34.82729111189997
 20
34.43427102859999
 10
34.84092871249999
 20
34.4515513216
 10
34.85510819899996
 20
34.46842747209999
  0
LWPOLYLINE
  5
87D84
330
1F
100
AcDbEntity
  8
cut
100
AcDbPolyline
 90
       34
 70
     0
 43
0.0
 10
46.32552390589999
 20
22.54499540929999
 10
46.30292582769999
 20
22.53013050980002
 10
46.27981279079998
 20
22.51601412639999
 10
46.25618479499999
 20
22.50264625900002
 10
46.23199344349997
 20
22.49000038650001
 10
46.2072871332
 20
22.47810303009999
 10
46.18221105499998
 20
22.46703375339999
 10
46.15676994859998
 20
22.45680527459999
 10
46.13095907429999
 20
22.4474048756
 10
46.1049094036
 20
22.43887396549999
 10
46.07866301639996
 20
22.4312250193
 10
46.0521778327
 20
22.42444556210001
 10
46.02545858379997
 20
22.4185395776
 10
45.99847602129996
 20
22.4134985128
 10
45.97125939349999
 20
22.4093309207
 10
45.94390117659997
 20
22.40606644390002
 10
45.91637763789996
 20
22.4037107277
 10
45.88871251009996
 20
22.40225812669999
 10
45.86106946770001
 20
22.40172134720001
 10
45.83347063689998
 20
22.40210994
 10
45.8058938914
 20
22.4034143543
 10
45.77843652729996
 20
22.4056186434
 10
45.7511296834
 20
22.408718959
 10
45.72394222099997
 20
22.4127191494
 10
45.69687802029998
 20
22.41761481329999
 10
45.66989367809997
 20
22.4234141185
 10
45.64303259759998
 20
22.43010889710001
 10
45.61642886949999
 20
22.4376702447
 10
45.59007623049999
 20
22.44610759279999
 10
45.56398094379997
 20
22.45541150990002
 10
45.53829588989997
 20
22.4655247968
 10
45.51307202889996
 20
22.4764283874
 10
45.48825840059995
 20
22.48814134790002
 10
45.46385500509996
 20
22.50066367829999
  0
LWPOLYLINE
  5
87D85
330
1F
100
AcDbEntity
  8
cut
100
AcDbPolyline
 90
        5
 70
     0
 43
0.0
 10
34.68418991829998
 20
33.9168006214
 10
34.68194459680002
 20
33.9406417285
 10
34.68049614450001
 20
33.96463458679999
 10
34.67984456129997
 20
33.9887791962
 10
34.67980370599998
 20
33.99720055079999
  0
LWPOLYLINE
  5
87D86
330
1F
100
AcDbEntity
  8
cut
100
AcDbPolyline
 90
        7
 70
     0
 43
0.0
 10
34.67979645590001
 20
33.9972005562
 10
34.67983436680002
 20
34.00467641220001
 10
34.68038763759998
 20
34.02670603190002
 10
34.68160189860001
 20
34.04870335429999
 10
34.68347901619998
 20
34.07063307730002
 10
34.6860199464
 20
34.09248068049999
 10
34.68922541719996
 20
34.11423683910002
  0
LWPOLYLINE
  5
87D87
330
1F
100
AcDbEntity
  8
cut
100
AcDbPolyline
 90
        6
 70
     0
 43
0.0
 10
34.67980370599998
 20
33.99720055079999
 10
34.67998368939999
 20
34.01316017119999
 10
34.68091968669998
 20
34.03769289740001
 10
34.6826710268
 20
34.0621235319
 10
34.68526105119997
 20
34.08643807939998
 10
34.6886664184
 20
34.11065053530001
  0
LINE
  5
87D88
330
1F
100
AcDbEntity
  8
cut
100
AcDbLine
 10
44.46214631499998
 20
23.01209090089998
 30
0.0
 11
44.31501520859998
 21
23.08348191919998
 31
0.0
  0
LINE
  5
87D89
330
1F
100
AcDbEntity
  8
cut
100
AcDbLine
 10
44.31501520859998
 20
23.08348191919998
 30
0.0
 11
44.29954191649995
 21
23.09116446599998
 31
0.0
  0
LINE
  5
87D8A
330
1F
100
AcDbEntity
  8
cut
100
AcDbLine
 10
44.29954191649995
 20
23.09116446599998
 30
0.0
 11
44.28430738929996
 21
23.09888075960001
 31
0.0
  0
LINE
  5
87D8B
330
1F
100
AcDbEntity
  8
cut
100
AcDbLine
 10
44.28430738929996
 20
23.09888075960001
 30
0.0
 11
42.77441715749996
 21
23.8717775609
 31
0.0
  0
LINE
  5
87D8C
330
1F
100
AcDbEntity
  8
cut
100
AcDbLine
 10
42.77441715749996
 20
23.8717775609
 30
0.0
 11
41.93242941939995
 21
24.3034693562
 31
0.0
  0
LINE
  5
87D8D
330
1F
100
AcDbEntity
  8
cut
100
AcDbLine
 10
41.93242941939995
 20
24.3034693562
 30
0.0
 11
41.73777115289996
 21
24.40339616300001
 31
0.0
  0
LWPOLYLINE
  5
87D8E
330
1F
100
AcDbEntity
  8
cut
100
AcDbPolyline
 90
        6
 70
     0
 43
0.0
 10
45.09851932869998
 20
22.69260508509999
 10
44.97400104969996
 20
22.75657814749999
 10
44.84811125039995
 20
22.8205406573
 10
44.72083996849996
 20
22.88445151900001
 10
44.59218388309998
 20
22.94829703400001
 10
44.46214631499998
 20
23.01209090089998
  0
LINE
  5
87D8F
330
1F
100
AcDbEntity
  8
cut
100
AcDbLine
 10
41.73777115289996
 20
24.40339616300001
 30
0.0
 11
40.88984159769998
 21
24.8390743864
 31
0.0
  0
LINE
  5
87D90
330
1F
100
AcDbEntity
  8
cut
100
AcDbLine
 10
40.88984159769998
 20
24.8390743864
 30
0.0
 11
40.36785082839998
 21
25.10787154579998
 31
0.0
  0
LINE
  5
87D91
330
1F
100
AcDbEntity
  8
cut
100
AcDbLine
 10
40.36785082839998
 20
25.10787154579998
 30
0.0
 11
40.23868074969995
 21
25.1753135251
 31
0.0
  0
LWPOLYLINE
  5
87D92
330
1F
100
AcDbEntity
  8
cut
100
AcDbPolyline
 90
        4
 70
     0
 43
0.0
 10
45.46385500639999
 20
22.50066367759999
 10
45.3434479675
 20
22.5646546994
 10
45.2216694082
 20
22.62863516849998
 10
45.09851932869998
 20
22.69260508509999
  0
LINE
  5
87D93
330
1F
100
AcDbEntity
  8
cut
100
AcDbLine
 10
40.23868074969995
 20
25.1753135251
 30
0.0
 11
40.10870322709999
 21
25.24416780779998
 31
0.0
  0
LINE
  5
87D94
330
1F
100
AcDbEntity
  8
cut
100
AcDbLine
 10
40.10870322709999
 20
25.24416780779998
 30
0.0
 11
39.97851483649998
 21
25.31416139390001
 31
0.0
  0
LINE
  5
87D95
330
1F
100
AcDbEntity
  8
cut
100
AcDbLine
 10
39.97851483649998
 20
25.31416139390001
 30
0.0
 11
39.85034744429999
 21
25.38399061370002
 31
0.0
  0
LINE
  5
87D96
330
1F
100
AcDbEntity
  8
cut
100
AcDbLine
 10
39.85034744429999
 20
25.38399061370002
 30
0.0
 11
39.72904390770001
 21
25.4509006678
 31
0.0
  0
LINE
  5
87D97
330
1F
100
AcDbEntity
  8
cut
100
AcDbLine
 10
39.72904390770001
 20
25.4509006678
 30
0.0
 11
39.6166995168
 21
25.51362747720001
 31
0.0
  0
LINE
  5
87D98
330
1F
100
AcDbEntity
  8
cut
100
AcDbLine
 10
39.6166995168
 20
25.51362747720001
 30
0.0
 11
39.51613139039998
 21
25.5703471217
 31
0.0
  0
LINE
  5
87D99
330
1F
100
AcDbEntity
  8
cut
100
AcDbLine
 10
39.51613139039998
 20
25.5703471217
 30
0.0
 11
39.3812416207
 21
25.64725951110001
 31
0.0
  0
LINE
  5
87D9A
330
1F
100
AcDbEntity
  8
cut
100
AcDbLine
 10
39.3812416207
 20
25.64725951110001
 30
0.0
 11
39.25840354019999
 21
25.71813570649999
 31
0.0
  0
LINE
  5
87D9B
330
1F
100
AcDbEntity
  8
cut
100
AcDbLine
 10
39.25840354019999
 20
25.71813570649999
 30
0.0
 11
39.13897248789997
 21
25.78781399669998
 31
0.0
  0
LINE
  5
87D9C
330
1F
100
AcDbEntity
  8
cut
100
AcDbLine
 10
39.13897248789997
 20
25.78781399669998
 30
0.0
 11
39.0189643839
 21
25.85858542279999
 31
0.0
  0
LINE
  5
87D9D
330
1F
100
AcDbEntity
  8
cut
100
AcDbLine
 10
39.0189643839
 20
25.85858542279999
 30
0.0
 11
38.89863959189998
 21
25.93030100109999
 31
0.0
  0
LWPOLYLINE
  5
87D9E
330
1F
100
AcDbEntity
  8
cut
100
AcDbPolyline
 90
        3
 70
     0
 43
0.0
 10
38.89863959189998
 20
25.93030100109999
 10
38.77922914719997
 20
26.0022172592
 10
38.73970674410001
 20
26.02618613660002
  0
LWPOLYLINE
  5
87D9F
330
1F
100
AcDbEntity
  8
cut
100
AcDbPolyline
 90
       25
 70
     0
 43
0.0
 10
38.739706775
 20
26.02618611790001
 10
38.7101997943
 20
26.04464145490002
 10
38.68135505709998
 20
26.0635970269
 10
38.65317256309996
 20
26.08305283390001
 10
38.6256715966
 20
26.10300782499999
 10
38.5988328734
 20
26.12346305099999
 10
38.5725985412
 20
26.14442166480001
 10
38.54694806999999
 20
26.16587357189999
 10
38.5219019898
 20
26.1878288668
 10
38.49746403719996
 20
26.21032098559999
 10
38.47362854229999
 20
26.2333510865
 10
38.45040117489998
 20
26.25691801139999
 10
38.42780268199999
 20
26.28105172240001
 10
38.40582905419998
 20
26.3057771387
 10
38.3844843007
 20
26.33106934110001
 10
38.36380119629996
 20
26.35688353499998
 10
38.34378656609999
 20
26.38322872510001
 10
38.32443358489996
 20
26.41009590660002
 10
38.30575455219997
 20
26.43741327019998
 10
38.2877501418
 20
26.46518147230001
 10
38.2704196798
 20
26.49339985649999
 10
38.25377344499998
 20
26.5219946435
 10
38.23781486339999
 20
26.55094124050001
 10
38.22254050899997
 20
26.5802642404
 10
38.2079503816
 20
26.60996364320002
  0
LWPOLYLINE
  5
87DA0
330
1F
100
AcDbEntity
  8
cut
100
AcDbPolyline
 90
       13
 70
     0
 43
0.0
 10
34.77113463889998
 20
33.6366480497
 10
34.75964862949999
 20
33.65916797790001
 10
34.74892836179999
 20
33.68188676950001
 10
34.73897383579998
 20
33.70480442429999
 10
34.72978100389997
 20
33.72795031550001
 10
34.72135391360001
 20
33.75129507
 10
34.71370470779999
 20
33.7747505685
 10
34.7068366716
 20
33.7983182637
 10
34.70074651979999
 20
33.821996703
 10
34.69543653950001
 20
33.84569340919998
 10
34.69090749309997
 20
33.86937755650001
 10
34.68715861829998
 20
33.89307997060001
 10
34.68418991499999
 20
33.91680065169999
  0
LINE
  5
87DA1
330
1F
100
AcDbEntity
  8
cut
100
AcDbLine
 10
35.57590673619998
 20
32.0243158019
 30
0.0
 11
35.36312057069998
 21
32.45072645779999
 31
0.0
  0
LINE
  5
87DA2
330
1F
100
AcDbEntity
  8
cut
100
AcDbLine
 10
35.36312057069998
 20
32.45072645779999
 30
0.0
 11
35.35534465299998
 21
32.46661076280001
 31
0.0
  0
LWPOLYLINE
  5
87DA3
330
1F
100
AcDbEntity
  8
cut
100
AcDbPolyline
 90
        8
 70
     0
 43
0.0
 10
37.02091219479999
 20
29.08647494589999
 10
36.81638234469998
 20
29.5070241914
 10
36.6112120545
 20
29.9272847499
 10
36.40539114219996
 20
30.34725271720001
 10
36.19892978989998
 20
30.76693199759998
 10
35.99185854409999
 20
31.1863343037
 10
35.78418758689998
 20
31.6054635399
 10
35.57590673619998
 20
32.0243158019
  0
LWPOLYLINE
  5
87DA4
330
1F
100
AcDbEntity
  8
cut
100
AcDbPolyline
 90
        9
 70
     0
 43
0.0
 10
35.2851787502
 20
32.6147495422
 10
35.2253844703
 20
32.73941904360001
 10
35.16433525119999
 20
32.8649796405
 10
35.10205152169997
 20
32.99144645030001
 10
35.03851285299999
 20
33.11880435559999
 10
34.97365795849999
 20
33.2470080045
 10
34.90746640909998
 20
33.3760422798
 10
34.83995863399997
 20
33.50592229859998
 10
34.77113463289996
 20
33.63664806099999
  0
LINE
  5
87DA5
330
1F
100
AcDbEntity
  8
cut
100
AcDbLine
 10
37.65642882289995
 20
27.76862270640001
 30
0.0
 11
37.02091219479999
 21
29.08647494589999
 31
0.0
  0
LWPOLYLINE
  5
87DA6
330
1F
100
AcDbEntity
  8
cut
100
AcDbPolyline
 90
        3
 70
     0
 43
0.0
 10
35.35534465299998
 20
32.46661076280001
 10
35.3475886357
 20
32.48277982439998
 10
35.2851787502
 20
32.6147495422
  0
LINE
  5
87DA7
330
1F
100
AcDbEntity
  8
cut
100
AcDbLine
 10
38.02071797279999
 20
27.0049804738
 30
0.0
 11
37.65642882289995
 21
27.76862270640001
 31
0.0
  0
LINE
  5
87DA8
330
1F
100
AcDbEntity
  8
cut
100
AcDbLine
 10
38.20795042999998
 20
26.6099635418
 30
0.0
 11
38.02071797159999
 21
27.0049804764
 31
0.0
  0
LINE
  5
87DA9
330
1F
100
AcDbEntity
  8
cut
100
AcDbLine
 10
50.31917510180001
 20
28.6737882823
 30
0.0
 11
50.14014218549998
 21
28.3800240386
 31
0.0
  0
LINE
  5
87DAA
330
1F
100
AcDbEntity
  8
cut
100
AcDbLine
 10
50.14014218549998
 20
28.3800240386
 30
0.0
 11
49.93528310459999
 21
28.0454717913
 31
0.0
  0
LINE
  5
87DAB
330
1F
100
AcDbEntity
  8
cut
100
AcDbLine
 10
49.93528310459999
 20
28.0454717913
 30
0.0
 11
49.74824229429998
 21
27.74151294780001
 31
0.0
  0
LINE
  5
87DAC
330
1F
100
AcDbEntity
  8
cut
100
AcDbLine
 10
49.74824229429998
 20
27.74151294780001
 30
0.0
 11
49.55489984509998
 21
27.42870464550001
 31
0.0
  0
LINE
  5
87DAD
330
1F
100
AcDbEntity
  8
cut
100
AcDbLine
 10
49.55489984509998
 20
27.42870464550001
 30
0.0
 11
49.35518862639996
 21
27.10708671649999
 31
0.0
  0
LWPOLYLINE
  5
87DAE
330
1F
100
AcDbEntity
  8
cut
100
AcDbPolyline
 90
        9
 70
     0
 43
0.0
 10
49.35518862639996
 20
27.10708671649999
 10
49.03241377259996
 20
26.5903124795
 10
48.811110997
 20
26.23812861490002
 10
48.58904059759999
 20
25.88642005910001
 10
48.366201977
 20
25.53518472169998
 10
48.14259573259996
 20
25.18442469300001
 10
47.91822365589999
 20
24.83414624349999
 10
47.69308634409997
 20
24.48435146349999
 10
47.46718319999999
 20
24.13503826269999
  0
LWPOLYLINE
  5
87DAF
330
1F
100
AcDbEntity
  8
cut
100
AcDbPolyline
 90
        6
 70
     0
 43
0.0
 10
47.46718319999999
 20
24.13503826269999
 10
47.23623236129995
 20
23.77966718939999
 10
47.2318998668
 20
23.7731203303
 10
47.22751673989996
 20
23.7665660641
 10
47.22308298079997
 20
23.76000439060002
 10
47.2185985895
 20
23.7534353099
  0
LINE
  5
87DB0
330
1F
100
AcDbEntity
  8
cut
100
AcDbLine
 10
46.67683469089999
 20
22.96408525749999
 30
0.0
 11
46.53551072199999
 21
22.75519339249999
 31
0.0
  0
LINE
  5
87DB1
330
1F
100
AcDbEntity
  8
cut
100
AcDbLine
 10
46.82356083649998
 20
23.17954201589998
 30
0.0
 11
46.67683469089999
 21
22.96408525749999
 31
0.0
  0
LINE
  5
87DB2
330
1F
100
AcDbEntity
  8
cut
100
AcDbLine
 10
46.97569370430001
 20
23.4015596676
 30
0.0
 11
46.82356083649998
 21
23.17954201589998
 31
0.0
  0
LINE
  5
87DB3
330
1F
100
AcDbEntity
  8
cut
100
AcDbLine
 10
47.2185985895
 20
23.7534353099
 30
0.0
 11
46.97569370430001
 21
23.4015596676
 31
0.0
  0
LWPOLYLINE
  5
87DB4
330
1F
100
AcDbEntity
  8
cut
100
AcDbPolyline
 90
       13
 70
     0
 43
0.0
 10
46.53551072259996
 20
22.75519339349998
 10
46.52154170529995
 20
22.73516841130001
 10
46.50690199449999
 20
22.71555892640002
 10
46.49159159039996
 20
22.69636493889999
 10
46.47559326039996
 20
22.67756096099998
 10
46.45892423699999
 20
22.65917248049999
 10
46.44163621809997
 20
22.64127596029999
 10
46.42372749919997
 20
22.62387412980002
 10
46.40519978489995
 20
22.6069642596
 10
46.38610988669997
 20
22.5906146245
 10
46.36647674179999
 20
22.57484798300001
 10
46.34628141299997
 20
22.5596415766
 10
46.32552390029997
 20
22.5449954055
  0
LINE
  5
87DB5
330
1F
100
AcDbEntity
  8
cut
100
AcDbLine
 10
42.37290086899998
 20
38.09999999889999
 30
0.0
 11
50.0
 21
38.09999999889999
 31
0.0
  0
LINE
  5
87DB6
330
1F
100
AcDbEntity
  8
cut
100
AcDbLine
 10
50.78921774239997
 20
35.9213747291
 30
0.0
 11
50.79999999999998
 21
37.29999999890001
 31
0.0
  0
LINE
  5
87DB7
330
1F
100
AcDbEntity
  8
cut
100
AcDbLine
 10
50.5319030427
 20
29.71444572120002
 30
0.0
 11
50.52581762669996
 21
29.40475069849998
 31
0.0
  0
LINE
  5
87DB8
330
1F
100
AcDbEntity
  8
cut
100
AcDbLine
 10
50.78921774239997
 20
35.9213747291
 30
0.0
 11
50.78885641759999
 21
35.9035117719
 31
0.0
  0
LINE
  5
87DB9
330
1F
100
AcDbEntity
  8
cut
100
AcDbLine
 10
50.5393694709
 20
30.0219997282
 30
0.0
 11
50.5319030427
 21
29.71444572120002
 31
0.0
  0
LWPOLYLINE
  5
87DBA
330
1F
100
AcDbEntity
  8
cut
100
AcDbPolyline
 90
       25
 70
     0
 43
0.0
 10
50.5258176268
 20
29.40475070669999
 10
50.52485631709998
 20
29.3713934063
 10
50.52319835939997
 20
29.33831035490002
 10
50.52084375379997
 20
29.3055015523
 10
50.51778228399996
 20
29.27297248089999
 10
50.51402416629997
 20
29.2407176584
 10
50.50960004949999
 20
29.2087206377
 10
50.50451188379997
 20
29.17698814319999
 10
50.49875771909999
 20
29.14551345059999
 10
50.49236235459996
 20
29.1142599403
 10
50.48533155469996
 20
29.08321889670001
 10
50.47765955489996
 20
29.0523990353
 10
50.46935386099996
 20
29.0217898832
 10
50.46042237689997
 20
28.9913830328
 10
50.4508571985
 20
28.96118689169998
 10
50.44064212009996
 20
28.93121620950001
 10
50.42977470229999
 20
28.90145631669998
 10
50.4182573844
 20
28.8719218828
 10
50.4060812782
 20
28.84267166620001
 10
50.39324331769996
 20
28.8137055558
 10
50.37974656879995
 20
28.78502366260001
 10
50.36559134119997
 20
28.7566850785
 10
50.35077773809995
 20
28.72870950070001
 10
50.33530565619997
 20
28.70107723199999
 10
50.3191750957
 20
28.67378827230002
  0
LINE
  5
87DBB
330
1F
100
AcDbEntity
  8
cut
100
AcDbLine
 10
50.54818758389997
 20
30.3277754419
 30
0.0
 11
50.5393694709
 21
30.0219997282
 31
0.0
  0
LINE
  5
87DBC
330
1F
100
AcDbEntity
  8
cut
100
AcDbLine
 10
50.78885641759999
 20
35.9035117719
 30
0.0
 11
50.78833810109999
 21
35.88558477390001
 31
0.0
  0
LINE
  5
87DBD
330
1F
100
AcDbEntity
  8
cut
100
AcDbLine
 10
50.55823571649998
 20
30.6294552258
 30
0.0
 11
50.54818758389997
 21
30.3277754419
 31
0.0
  0
LINE
  5
87DBE
330
1F
100
AcDbEntity
  8
cut
100
AcDbLine
 10
50.56953126739998
 20
30.9280190364
 30
0.0
 11
50.55823571649998
 21
30.6294552258
 31
0.0
  0
LINE
  5
87DBF
330
1F
100
AcDbEntity
  8
cut
100
AcDbLine
 10
50.78833810109999
 20
35.88558477390001
 30
0.0
 11
50.78766279309997
 21
35.86759373519999
 31
0.0
  0
LINE
  5
87DC0
330
1F
100
AcDbEntity
  8
cut
100
AcDbLine
 10
50.78766279309997
 20
35.86759373519999
 30
0.0
 11
50.75238040879997
 21
35.0336052488
 31
0.0
  0
LINE
  5
87DC1
330
1F
100
AcDbEntity
  8
cut
100
AcDbLine
 10
50.75238040879997
 20
35.0336052488
 30
0.0
 11
50.71531914789996
 21
34.17552989460001
 31
0.0
  0
LINE
  5
87DC2
330
1F
100
AcDbEntity
  8
cut
100
AcDbLine
 10
50.58170592709998
 20
31.21628301289999
 30
0.0
 11
50.56953126739998
 21
30.9280190364
 31
0.0
  0
LINE
  5
87DC3
330
1F
100
AcDbEntity
  8
cut
100
AcDbLine
 10
50.71531914789996
 20
34.17552989460001
 30
0.0
 11
50.68073463919997
 21
33.3904053016
 31
0.0
  0
LINE
  5
87DC4
330
1F
100
AcDbEntity
  8
cut
100
AcDbLine
 10
50.68073463919997
 20
33.3904053016
 30
0.0
 11
50.63858307079996
 21
32.45280074829998
 31
0.0
  0
LINE
  5
87DC5
330
1F
100
AcDbEntity
  8
cut
100
AcDbLine
 10
50.63858307079996
 20
32.45280074829998
 30
0.0
 11
50.59469346369997
 21
31.4987836933
 31
0.0
  0
LINE
  5
87DC6
330
1F
100
AcDbEntity
  8
cut
100
AcDbLine
 10
50.59469346369997
 20
31.4987836933
 30
0.0
 11
50.58170592709998
 21
31.21628301289999
 31
0.0
  0
ARC
  5
87DC7
330
1F
100
AcDbEntity
  8
cut
100
AcDbCircle
 10
42.37290086899998
 20
36.0999999989
 30
0.0
 40
2.0
100
AcDbArc
 50
90.0
 51
118.279449516799
  0
ARC
  5
87DC8
102
{ACAD_REACTORS
330
87DCB
102
}
330
1F
100
AcDbEntity
  8
cut
100
AcDbCircle
 10
50.0
 20
37.29999999890001
 30
0.0
 40
0.8
100
AcDbArc
 50
0.0
 51
90.0
  0
DIMENSION
  5
87DC9
102
{ACAD_XDICTIONARY
360
87DCA
102
}
102
{ACAD_REACTORS
330
87DCB
102
}
330
1F
100
AcDbEntity
  8
2
100
AcDbDimension
  2
*D451010
 10
50.0
 20
37.29999999890001
 30
0.0
 11
62.31270312451986
 21
41.83869944018764
 31
0.0
 70
   164
 71
     5
 42
0.8
  3
コピー - ISO-25
100
AcDbRadialDimension
 15
50.75062622080301
 25
37.57669527649426
 35
0.0
 40
0.0
1001
ACAD
1000
DSTYLE
1002
{
1070
   170
1070
     1
1070
   171
1070
     3
1070
   143
1040
0.0393700787401575
1070
   285
1070
     4
1070
     4
1000
"
1070
   271
1070
     8
1070
    40
1040
1.0
1002
}
1001
ACAD_DSTYLE_DIMRADIAL_EXTENSION
1070
   387
1070
     1
1070
   388
1040
0.0
1070
   390
1040
1.570796326794896
1001
ACAD_DSTYLE_DIMINSPECT
1070
   396
1000

1070
   395
1000

1070
   394
1070
     1
1070
   393
1070
     0
1001
ZWMCAD_GENSTANDARDFRAME_13_
1070
   410
1000
GB
1070
   411
1000

  0
VIEWPORT
  5
71
102
{ACAD_XDICTIONARY
360
8769D
102
}
330
55
100
AcDbEntity
 67
     1
  8
0
100
AcDbViewport
 10
150.1652135264906
 20
103.6581106594891
 30
0.0
 40
339.1973820494347
 41
168.6522697578383
 68
     1
 69
    -1
 12
150.1652135264906
 22
103.6581106594891
 13
0.0
 23
0.0
 14
10.0
 24
10.0
 15
10.0
 25
10.0
 16
0.0
 26
0.0
 36
1.0
 17
0.0
 27
0.0
 37
0.0
 42
50.0
 43
0.0
 44
0.0
 45
168.6522697578383
 50
0.0
 51
0.0
 72
  1000
 90
    32864
  1

281
     0
 71
     1
 74
     0
110
0.0
120
0.0
130
0.0
111
1.0
121
0.0
131
0.0
112
0.0
122
1.0
132
0.0
 79
     0
146
0.0
1001
ACAD
1000
MVIEW
1002
{
1070
    16
1010
0.0
1020
0.0
1030
0.0
1010
0.0
1020
0.0
1030
1.0
1040
0.0
1040
168.6522697578383
1040
150.1652135264906
1040
103.6581106594891
1040
50.0
1040
0.0
1040
0.0
1070
     0
1070
  1000
1070
     0
1070
     3
1070
     0
1070
     0
1070
     0
1070
     0
1040
0.0
1040
0.0
1040
0.0
1040
10.0
1040
10.0
1040
10.0
1040
10.0
1070
     0
1002
{
1002
}
1002
}
  0
VIEWPORT
  5
73
102
{ACAD_XDICTIONARY
360
8769F
102
}
330
55
100
AcDbEntity
 67
     1
  8
0
100
AcDbViewport
 10
133.3499939441681
 20
101.5999939441681
 30
0.0
 40
213.3599903106689
 41
162.5599903106689
 68
     2
 69
    -1
 12
210.0
 22
148.5
 13
0.0
 23
0.0
 14
10.0
 24
10.0
 15
10.0
 25
10.0
 16
0.0
 26
0.0
 36
1.0
 17
0.0
 27
0.0
 37
0.0
 42
50.0
 43
0.0
 44
0.0
 45
324.0677920111345
 50
0.0
 51
0.0
 72
   100
 90
    32864
  1

281
     0
 71
     1
 74
     0
110
0.0
120
0.0
130
0.0
111
1.0
121
0.0
131
0.0
112
0.0
122
1.0
132
0.0
 79
     0
146
0.0
1001
ACAD
1000
MVIEW
1002
{
1070
    16
1010
0.0
1020
0.0
1030
0.0
1010
0.0
1020
0.0
1030
1.0
1040
0.0
1040
324.0677920111345
1040
210.0
1040
148.5
1040
50.0
1040
0.0
1040
0.0
1070
     0
1070
   100
1070
     0
1070
     3
1070
     0
1070
     0
1070
     0
1070
     0
1040
0.0
1040
0.0
1040
0.0
1040
10.0
1040
10.0
1040
10.0
1040
10.0
1070
     0
1002
{
1002
}
1002
}
  0
ENDSEC
  0
SECTION
  2
OBJECTS
  0
DICTIONARY
  5
C
330
0
100
AcDbDictionary
281
     1
  3
ACAD_CIP_PREVIOUS_PRODUCT_INFO
350
4A3C3
  3
ACAD_COLOR
350
85
  3
ACAD_DETAILVIEWSTYLE
350
4A3BB
  3
ACAD_GROUP
350
D
  3
ACAD_LAYOUT
350
1A
  3
ACAD_MATERIAL
350
84
  3
ACAD_MLEADERSTYLE
350
4A3B7
  3
ACAD_MLINESTYLE
350
17
  3
ACAD_PLOTSETTINGS
350
19
  3
ACAD_PLOTSTYLENAME
350
E
  3
ACAD_SCALELIST
350
4A3A5
  3
ACAD_SECTIONVIEWSTYLE
350
4A3B9
  3
ACAD_TABLESTYLE
350
A1
  3
ACAD_VISUALSTYLE
350
4A38C
  3
ACDB_RECOMPOSE_DATA
350
8768B
  3
ACDBHEADERROUNDTRIPXREC
350
87F03
  3
AcDbVariableDictionary
350
5E
  3
ASE_INDEX_DICTIONARY
350
349E9
  3
DWGPROPS
350
87F06
  0
DICTIONARY
  5
87E93
330
8
100
AcDbDictionary
280
     1
281
     1
  3
ACAD_XREC_ROUNDTRIP
360
87F0C
  0
DICTIONARY
  5
E2
330
2
100
AcDbDictionary
280
     1
281
     1
  3
ACAD_LAYERFILTERS
360
4A339
  3
ACAD_LAYERSTATES
360
3759A
  3
ACLYDICTIONARY
360
4A338
  0
DICTIONARY
  5
4A86C
330
10
100
AcDbDictionary
280
     1
281
     1
  3
ADSK_XREC_LAYER_RECONCILED
360
4A86D
  0
DICTIONARY
  5
4A773
330
4A772
100
AcDbDictionary
280
     1
281
     1
  3
ADSK_XREC_LAYER_RECONCILED
360
4A86E
  0
DICTIONARY
  5
4A775
330
4A774
100
AcDbDictionary
280
     1
281
     1
  3
ADSK_XREC_LAYER_RECONCILED
360
4A86F
  0
DICTIONARY
  5
4A777
330
4A776
100
AcDbDictionary
280
     1
281
     1
  3
ADSK_XREC_LAYER_RECONCILED
360
4A870
  0
DICTIONARY
  5
4A779
330
4A778
100
AcDbDictionary
280
     1
281
     1
  3
ADSK_XREC_LAYER_RECONCILED
360
4A871
  0
DICTIONARY
  5
4A77B
330
4A77A
100
AcDbDictionary
280
     1
281
     1
  3
ADSK_XREC_LAYER_RECONCILED
360
4A872
  0
DICTIONARY
  5
4A77F
330
4A77E
100
AcDbDictionary
280
     1
281
     1
  3
ADSK_XREC_LAYER_RECONCILED
360
4A874
  0
DICTIONARY
  5
4A783
330
4A782
100
AcDbDictionary
280
     1
281
     1
  3
ADSK_XREC_LAYER_RECONCILED
360
4A876
  0
DICTIONARY
  5
87E91
330
876F4
100
AcDbDictionary
280
     1
281
     1
  3
ACAD_XREC_ROUNDTRIP
360
87F0B
  0
DICTIONARY
  5
31EE
330
1F
100
AcDbDictionary
280
     1
281
     1
  3
ACAD_SORTENTS
360
31EF
  0
DICTIONARY
  5
4A6D7
330
4A6D6
100
AcDbDictionary
280
     1
281
     1
  3
ACAD_SORTENTS
360
4A6D8
  0
DICTIONARY
  5
87699
330
6B
100
AcDbDictionary
280
     1
281
     1
  3
ACAD_XREC_ROUNDTRIP
360
87F09
  0
DICTIONARY
  5
8769B
330
6D
100
AcDbDictionary
280
     1
281
     1
  3
ACAD_XREC_ROUNDTRIP
360
87F0A
  0
DICTIONARY
  5
87CC0
330
87CBF
100
AcDbDictionary
280
     1
281
     1
  3
ACAD_DIMASSOC
360
87CC1
  0
DICTIONARY
  5
87CC5
330
87CC4
100
AcDbDictionary
280
     1
281
     1
  3
ACAD_DIMASSOC
360
87CC6
  0
DICTIONARY
  5
87CC9
330
87CC8
100
AcDbDictionary
280
     1
281
     1
  3
ACAD_DIMASSOC
360
87CCA
  0
DICTIONARY
  5
87DCA
330
87DC9
100
AcDbDictionary
280
     1
281
     1
  3
ACAD_DIMASSOC
360
87DCB
  0
DICTIONARY
  5
8769D
330
71
100
AcDbDictionary
280
     1
281
     1
  3
ACAD_XREC_ROUNDTRIP
360
87F07
  0
DICTIONARY
  5
8769F
330
73
100
AcDbDictionary
280
     1
281
     1
  3
ACAD_XREC_ROUNDTRIP
360
87F08
  0
XRECORD
  5
4A3C3
102
{ACAD_REACTORS
330
C
102
}
330
C
100
AcDbXrecord
280
     1
300
ACDLT
300
2020
300

  0
DICTIONARY
  5
85
102
{ACAD_REACTORS
330
C
102
}
330
C
100
AcDbDictionary
281
     1
  0
DICTIONARY
  5
4A3BB
102
{ACAD_REACTORS
330
C
102
}
330
C
100
AcDbDictionary
281
     1
  3
Metric50
350
4A3BC
  0
DICTIONARY
  5
D
102
{ACAD_REACTORS
330
C
102
}
330
C
100
AcDbDictionary
281
     1
  0
DICTIONARY
  5
1A
102
{ACAD_REACTORS
330
C
102
}
330
C
100
AcDbDictionary
281
     1
  3
Model
350
22
  3
レイアウト1
350
51
  3
レイアウト2
350
56
  0
DICTIONARY
  5
84
102
{ACAD_REACTORS
330
C
102
}
330
C
100
AcDbDictionary
281
     1
  3
ByBlock
350
4A37C
  3
ByLayer
350
4A374
  3
Global
350
4A384
  0
DICTIONARY
  5
4A3B7
102
{ACAD_REACTORS
330
C
102
}
330
C
100
AcDbDictionary
281
     1
  3
Standard
350
4A3B8
  0
DICTIONARY
  5
17
102
{ACAD_REACTORS
330
C
102
}
330
C
100
AcDbDictionary
281
     1
  3
Standard
350
18
  0
DICTIONARY
  5
19
102
{ACAD_REACTORS
330
C
102
}
330
C
100
AcDbDictionary
281
     1
  0
ACDBDICTIONARYWDFLT
  5
E
102
{ACAD_REACTORS
330
C
102
}
330
C
100
AcDbDictionary
281
     1
  3
Normal
350
F
100
AcDbDictionaryWithDefault
340
F
  0
DICTIONARY
  5
4A3A5
102
{ACAD_REACTORS
330
C
102
}
330
C
100
AcDbDictionary
281
     1
  3
A0
350
4A3A6
  3
A1
350
4A3A7
  3
A2
350
4A3A8
  3
A3
350
4A3A9
  3
A4
350
4A3AA
  3
A5
350
4A3AB
  3
A6
350
4A3AC
  3
A7
350
4A3AD
  3
A8
350
4A3AE
  3
A9
350
4A3AF
  3
B0
350
4A3B0
  3
B1
350
4A3B1
  3
B2
350
4A3B2
  3
B3
350
4A3B3
  3
B4
350
4A3B4
  3
B5
350
4A3B5
  3
B6
350
4A3B6
  0
DICTIONARY
  5
4A3B9
102
{ACAD_REACTORS
330
C
102
}
330
C
100
AcDbDictionary
281
     1
  3
Metric50
350
4A3BA
  0
DICTIONARY
  5
A1
102
{ACAD_REACTORS
330
C
102
}
330
C
100
AcDbDictionary
281
     1
  3
Standard
350
A2
  0
DICTIONARY
  5
4A38C
102
{ACAD_REACTORS
330
C
102
}
330
C
100
AcDbDictionary
281
     1
  3
2dWireframe
350
4A392
  3
Basic
350
4A391
  3
Brighten
350
4A398
  3
ColorChange
350
4A39C
  3
Conceptual
350
4A395
  3
Dim
350
4A397
  3
EdgeColorOff
350
4A3A4
  3
Facepattern
350
4A39B
  3
Flat
350
4A38D
  3
FlatWithEdges
350
4A38E
  3
Gouraud
350
4A38F
  3
GouraudWithEdges
350
4A390
  3
Hidden
350
4A394
  3
JitterOff
350
4A3A2
  3
Linepattern
350
4A39A
  3
OverhangOff
350
4A3A3
  3
Realistic
350
4A396
  3
Shaded
350
4A3A1
  3
Shaded with edges
350
4A3A0
  3
Shades of Gray
350
4A39D
  3
Sketchy
350
4A39E
  3
Thicken
350
4A399
  3
Wireframe
350
4A393
  3
X-Ray
350
4A39F
  0
XRECORD
  5
8768B
102
{ACAD_REACTORS
330
C
102
}
330
C
100
AcDbXrecord
280
     1
 90
        1
330
A2
  0
DICTIONARY
  5
87F03
102
{ACAD_REACTORS
330
C
102
}
330
C
100
AcDbDictionary
281
     1
  3
COLORDICT
350
87F04
  3
MATERIALDICT
350
87F05
  0
DICTIONARY
  5
5E
102
{ACAD_REACTORS
330
C
102
}
330
C
100
AcDbDictionary
281
     1
  3
CANNOSCALE
350
87F02
  3
CMLEADERSTYLE
350
4A6CE
  3
CTABLESTYLE
350
B8
  3
CVIEWDETAILSTYLE
350
4A6CF
  3
CVIEWSECTIONSTYLE
350
4A6D0
  3
DIMASSOC
350
5F
  3
HIDETEXT
350
63
  3
INDEXCTL
350
4A879
  3
LAYEREVAL
350
4A6D4
  3
LAYERNOTIFY
350
4A6D5
  3
LIGHTINGUNITS
350
4A6D3
  3
MSLTSCALE
350
4A6D1
  3
PROJECTNAME
350
31CE
  3
SORTENTS
350
4A878
  3
XCLIPFRAME
350
5A559
  0
DICTIONARY
  5
349E9
102
{ACAD_REACTORS
330
C
102
}
330
C
100
AcDbDictionary
281
     1
  3
ASEBlockHierarchyIndexRecord
350
349EA
1001
DCO15
1040
1842496176.844
  0
XRECORD
  5
87F06
102
{ACAD_REACTORS
330
C
102
}
330
C
100
AcDbXrecord
280
     1
  1
DWGPROPS COOKIE
  2

  3

  4

  6

  7

  8
zhangnw
  9

300
=
301
=
302
=
303
=
304
=
305
=
306
=
307
=
308
=
309
=
 40
0.0
 41
2455489.391063368
 42
2458948.457726343
  1

 90
        0
  0
XRECORD
  5
87F0C
102
{ACAD_REACTORS
330
87E93
102
}
330
87E93
100
AcDbXrecord
280
     1
102
VTR_0.000_0.000_1.000_1.000_VISUALSTYLE
340
4A392
102
VTR_0.000_0.000_1.000_1.000_GRIDDISPLAY
 70
     3
102
VTR_0.000_0.000_1.000_1.000_GRIDMAJOR
 70
     5
102
VTR_0.000_0.000_1.000_1.000_DEFAULTLIGHTING
280
     1
102
VTR_0.000_0.000_1.000_1.000_DEFAULTLIGHTINGTYPE
 70
     1
102
VTR_0.000_0.000_1.000_1.000_BRIGHTNESS
141
0.0
102
VTR_0.000_0.000_1.000_1.000_CONTRAST
142
0.0
  0
DICTIONARY
  5
4A339
102
{ACAD_REACTORS
330
E2
102
}
330
E2
100
AcDbDictionary
281
     1
  0
DICTIONARY
  5
3759A
102
{ACAD_REACTORS
330
E2
102
}
330
E2
100
AcDbDictionary
281
     1
  0
DICTIONARY
  5
4A338
102
{ACAD_REACTORS
330
E2
102
}
330
E2
100
AcDbDictionary
281
     1
1001
ACAD
1000
<All
  0
XRECORD
  5
4A86D
102
{ACAD_REACTORS
330
4A86C
102
}
330
4A86C
100
AcDbXrecord
280
     1
290
     1
  0
XRECORD
  5
4A86E
102
{ACAD_REACTORS
330
4A773
102
}
330
4A773
100
AcDbXrecord
280
     1
290
     1
  0
XRECORD
  5
4A86F
102
{ACAD_REACTORS
330
4A775
102
}
330
4A775
100
AcDbXrecord
280
     1
290
     1
  0
XRECORD
  5
4A870
102
{ACAD_REACTORS
330
4A777
102
}
330
4A777
100
AcDbXrecord
280
     1
290
     1
  0
XRECORD
  5
4A871
102
{ACAD_REACTORS
330
4A779
102
}
330
4A779
100
AcDbXrecord
280
     1
290
     1
  0
XRECORD
  5
4A872
102
{ACAD_REACTORS
330
4A77B
102
}
330
4A77B
100
AcDbXrecord
280
     1
290
     1
  0
XRECORD
  5
4A874
102
{ACAD_REACTORS
330
4A77F
102
}
330
4A77F
100
AcDbXrecord
280
     1
290
     1
  0
XRECORD
  5
4A876
102
{ACAD_REACTORS
330
4A783
102
}
330
4A783
100
AcDbXrecord
280
     1
290
     1
  0
XRECORD
  5
87F0B
102
{ACAD_REACTORS
330
87E91
102
}
330
87E91
100
AcDbXrecord
280
     1
102
MATERIAL
340
4A384
  0
SORTENTSTABLE
  5
31EF
102
{ACAD_REACTORS
330
31EE
102
}
330
31EE
100
AcDbSortentsTable
330
1F
  0
SORTENTSTABLE
  5
4A6D8
102
{ACAD_REACTORS
330
4A6D7
102
}
330
4A6D7
100
AcDbSortentsTable
330
4A6D6
  0
XRECORD
  5
87F09
102
{ACAD_REACTORS
330
87699
102
}
330
87699
100
AcDbXrecord
280
     1
102
GRIDDISPLAY
 70
     0
102
GRIDMAJOR
 70
     5
102
DEFAULTLIGHTING
280
     1
102
DEFAULTLIGHTINGTYPE
 70
     1
102
BRIGHTNESS
141
0.0
102
CONTRAST
142
0.0
  0
XRECORD
  5
87F0A
102
{ACAD_REACTORS
330
8769B
102
}
330
8769B
100
AcDbXrecord
280
     1
102
GRIDDISPLAY
 70
     0
102
GRIDMAJOR
 70
     5
102
DEFAULTLIGHTING
280
     1
102
DEFAULTLIGHTINGTYPE
 70
     1
102
BRIGHTNESS
141
0.0
102
CONTRAST
142
0.0
  0
DIMASSOC
  5
87CC1
102
{ACAD_REACTORS
330
87CC0
102
}
330
87CC0
100
AcDbDimAssoc
330
87CBF
 90
        1
 70
     0
 71
     0
  1
AcDbOsnapPointRef
 72
     1
331
87CA4
 73
     2
 91
        0
 40
3.141592653589792
 10
0.0
 20
0.0
 30
1.999999999999998E+50
 75
     0
  0
DIMASSOC
  5
87CC6
102
{ACAD_REACTORS
330
87CC5
102
}
330
87CC5
100
AcDbDimAssoc
330
87CC4
 90
        2
 70
     0
 71
     0
  1
AcDbOsnapPointRef
 72
     1
331
87CB2
 73
     2
 91
        0
 40
1.0
 10
0.0
 20
0.0
 30
1.999999999999998E+50
 75
     0
  0
DIMASSOC
  5
87CCA
102
{ACAD_REACTORS
330
87CC9
102
}
330
87CC9
100
AcDbDimAssoc
330
87CC8
 90
        3
 70
     0
 71
     0
  1
AcDbOsnapPointRef
 72
    13
331
87C90
 73
     2
 91
        0
 40
0.0
 10
0.0
 20
0.0
 30
1.999999999999998E+50
 75
     0
  1
AcDbOsnapPointRef
 72
    13
331
87CAF
 73
     2
 91
        0
 40
0.0
 10
0.0
 20
0.0
 30
1.999999999999998E+50
 75
     0
  0
DIMASSOC
  5
87DCB
102
{ACAD_REACTORS
330
87DCA
102
}
330
87DCA
100
AcDbDimAssoc
330
87DC9
 90
        2
 70
     0
 71
     0
  1
AcDbOsnapPointRef
 72
     3
331
87DC8
 73
     2
 91
        0
 40
0.0
 10
0.0
 20
0.0
 30
0.0
 75
     0
  0
XRECORD
  5
87F07
102
{ACAD_REACTORS
330
8769D
102
}
330
8769D
100
AcDbXrecord
280
     1
102
GRIDDISPLAY
 70
     0
102
GRIDMAJOR
 70
     5
102
DEFAULTLIGHTING
280
     1
102
DEFAULTLIGHTINGTYPE
 70
     1
102
BRIGHTNESS
141
0.0
102
CONTRAST
142
0.0
  0
XRECORD
  5
87F08
102
{ACAD_REACTORS
330
8769F
102
}
330
8769F
100
AcDbXrecord
280
     1
102
GRIDDISPLAY
 70
     0
102
GRIDMAJOR
 70
     5
102
DEFAULTLIGHTING
280
     1
102
DEFAULTLIGHTINGTYPE
 70
     1
102
BRIGHTNESS
141
0.0
102
CONTRAST
142
0.0
  0
ACDBDETAILVIEWSTYLE
  5
4A3BC
102
{ACAD_XDICTIONARY
360
876D4
102
}
102
{ACAD_REACTORS
330
4A3BB
102
}
330
4A3BB
100
AcDbModelDocViewStyle
 70
     0
  3
Metric50
290
     0
100
AcDbDetailViewStyle
 70
     0
 71
     0
 90
        3
 71
     1
340
11
 40
5.0
340
0
 40
5.0
300

 40
0.0
280
     1
 71
     2
340
16
 90
       25
 71
     3
340
11
 40
5.0
 90
        0
 40
15.0
 90
        1
300
%<\AcVar ViewDetailId>% (%<\AcVar ViewScale \f "%sn">%)
 71
     4
340
16
 90
       25
340
16
 90
       25
280
     0
  0
LAYOUT
  5
22
102
{ACAD_REACTORS
330
1A
102
}
330
1A
100
AcDbPlotSettings
  1

  2
none_device
  4
ANSI_A_(8.50_x_11.00_Inches)
  6

 40
6.349999904632567
 41
19.04999923706055
 42
6.350006103515625
 43
19.04998779296875
 44
215.8999938964844
 45
279.3999938964844
 46
0.0
 47
0.0
 48
0.0
 49
0.0
140
0.0
141
0.0
142
1.0
143
78.436453180766
 70
 11952
 72
     0
 73
     1
 74
     0
  7

 75
     0
147
0.0127491741332998
148
0.0
149
0.0
100
AcDbLayout
  1
Model
 70
     1
 71
     0
 10
0.0
 20
0.0
 11
12.0
 21
9.0
 12
0.0
 22
0.0
 32
0.0
 14
0.0
 24
0.0
 34
0.0
 15
0.0
 25
0.0
 35
0.0
146
0.0
 13
0.0
 23
0.0
 33
0.0
 16
1.0
 26
0.0
 36
0.0
 17
0.0
 27
1.0
 37
0.0
 76
     0
330
1F
331
4A360
  0
LAYOUT
  5
51
102
{ACAD_REACTORS
330
1A
102
}
330
1A
100
AcDbPlotSettings
  1

  2
none_device
  4
Letter_(8.50_x_11.00_Inches)
  6

 40
6.349999904632567
 41
6.349999904632567
 42
6.350006103515625
 43
6.350006103515625
 44
215.8999938964844
 45
279.3999938964844
 46
0.0
 47
0.0
 48
0.0
 49
0.0
140
0.0
141
0.0
142
1.0
143
1.0
 70
   688
 72
     1
 73
     1
 74
     5
  7

 75
    16
147
1.0
148
0.0
149
0.0
100
AcDbLayout
  1
レイアウト1
 70
     1
 71
     1
 10
-6.350006103515625
 20
-6.349999904632567
 11
273.0499877929688
 21
209.5499939918518
 12
0.0
 22
0.0
 32
0.0
 14
26.66999878883364
 24
20.31999878883365
 34
0.0
 15
240.0299890995025
 25
182.8799890995025
 35
0.0
146
0.0
 13
0.0
 23
0.0
 33
0.0
 16
1.0
 26
0.0
 36
0.0
 17
0.0
 27
1.0
 37
0.0
 76
     0
330
50
331
6B
  0
LAYOUT
  5
56
102
{ACAD_REACTORS
330
1A
102
}
330
1A
100
AcDbPlotSettings
  1

  2
none_device
  4
Letter_(8.50_x_11.00_Inches)
  6

 40
6.349999904632567
 41
6.349999904632567
 42
6.350006103515625
 43
6.350006103515625
 44
215.8999938964844
 45
279.3999938964844
 46
0.0
 47
0.0
 48
0.0
 49
0.0
140
0.0
141
0.0
142
1.0
143
1.0
 70
   688
 72
     1
 73
     1
 74
     5
  7

 75
    16
147
1.0
148
0.0
149
0.0
100
AcDbLayout
  1
レイアウト2
 70
     1
 71
     2
 10
-6.350006103515625
 20
-6.349999904632567
 11
273.0499877929688
 21
209.5499939918518
 12
0.0
 22
0.0
 32
0.0
 14
26.66999878883364
 24
20.31999878883365
 34
0.0
 15
240.0299890995025
 25
182.8799890995025
 35
0.0
146
0.0
 13
0.0
 23
0.0
 33
0.0
 16
1.0
 26
0.0
 36
0.0
 17
0.0
 27
1.0
 37
0.0
 76
     0
330
55
331
71
  0
MATERIAL
  5
4A37C
102
{ACAD_XDICTIONARY
360
4A37D
102
}
102
{ACAD_REACTORS
330
84
102
}
330
84
100
AcDbMaterial
  1
ByBlock
 72
     0
 73
     2
 43
0.0008202099737533
 43
0.0
 43
0.0
 43
0.0
 43
0.0
 43
0.0008202099737533
 43
0.0
 43
0.0
 43
0.0
 43
0.0
 43
1.0
 43
0.0
 43
0.0
 43
0.0
 43
0.0
 43
1.0
 77
     0
 78
     2
 47
0.0008202099737533
 47
0.0
 47
0.0
 47
0.0
 47
0.0
 47
0.0008202099737533
 47
0.0
 47
0.0
 47
0.0
 47
0.0
 47
1.0
 47
0.0
 47
0.0
 47
0.0
 47
0.0
 47
1.0
171
     0
172
     2
 49
0.0008202099737533
 49
0.0
 49
0.0
 49
0.0
 49
0.0
 49
0.0008202099737533
 49
0.0
 49
0.0
 49
0.0
 49
0.0
 49
1.0
 49
0.0
 49
0.0
 49
0.0
 49
0.0
 49
1.0
175
     0
176
     2
142
0.0008202099737533
142
0.0
142
0.0
142
0.0
142
0.0
142
0.0008202099737533
142
0.0
142
0.0
142
0.0
142
0.0
142
1.0
142
0.0
142
0.0
142
0.0
142
0.0
142
1.0
179
     0
270
     2
144
0.0008202099737533
144
0.0
144
0.0
144
0.0
144
0.0
144
0.0008202099737533
144
0.0
144
0.0
144
0.0
144
0.0
144
1.0
144
0.0
144
0.0
144
0.0
144
0.0
144
1.0
274
     2
147
0.0008202099737533
147
0.0
147
0.0
147
0.0
147
0.0
147
0.0008202099737533
147
0.0
147
0.0
147
0.0
147
0.0
147
1.0
147
0.0
147
0.0
147
0.0
147
0.0
147
1.0
  0
MATERIAL
  5
4A374
102
{ACAD_XDICTIONARY
360
4A375
102
}
102
{ACAD_REACTORS
330
84
102
}
330
84
100
AcDbMaterial
  1
ByLayer
 72
     0
 73
     2
 43
0.0008202099737533
 43
0.0
 43
0.0
 43
0.0
 43
0.0
 43
0.0008202099737533
 43
0.0
 43
0.0
 43
0.0
 43
0.0
 43
1.0
 43
0.0
 43
0.0
 43
0.0
 43
0.0
 43
1.0
 77
     0
 78
     2
 47
0.0008202099737533
 47
0.0
 47
0.0
 47
0.0
 47
0.0
 47
0.0008202099737533
 47
0.0
 47
0.0
 47
0.0
 47
0.0
 47
1.0
 47
0.0
 47
0.0
 47
0.0
 47
0.0
 47
1.0
171
     0
172
     2
 49
0.0008202099737533
 49
0.0
 49
0.0
 49
0.0
 49
0.0
 49
0.0008202099737533
 49
0.0
 49
0.0
 49
0.0
 49
0.0
 49
1.0
 49
0.0
 49
0.0
 49
0.0
 49
0.0
 49
1.0
175
     0
176
     2
142
0.0008202099737533
142
0.0
142
0.0
142
0.0
142
0.0
142
0.0008202099737533
142
0.0
142
0.0
142
0.0
142
0.0
142
1.0
142
0.0
142
0.0
142
0.0
142
0.0
142
1.0
179
     0
270
     2
144
0.0008202099737533
144
0.0
144
0.0
144
0.0
144
0.0
144
0.0008202099737533
144
0.0
144
0.0
144
0.0
144
0.0
144
1.0
144
0.0
144
0.0
144
0.0
144
0.0
144
1.0
274
     2
147
0.0008202099737533
147
0.0
147
0.0
147
0.0
147
0.0
147
0.0008202099737533
147
0.0
147
0.0
147
0.0
147
0.0
147
1.0
147
0.0
147
0.0
147
0.0
147
0.0
147
1.0
  0
MATERIAL
  5
4A384
102
{ACAD_XDICTIONARY
360
4A385
102
}
102
{ACAD_REACTORS
330
84
102
}
330
84
100
AcDbMaterial
  1
Global
 72
     0
 73
     2
 43
0.0008202099737533
 43
0.0
 43
0.0
 43
0.0
 43
0.0
 43
0.0008202099737533
 43
0.0
 43
0.0
 43
0.0
 43
0.0
 43
1.0
 43
0.0
 43
0.0
 43
0.0
 43
0.0
 43
1.0
 77
     0
 78
     2
 47
0.0008202099737533
 47
0.0
 47
0.0
 47
0.0
 47
0.0
 47
0.0008202099737533
 47
0.0
 47
0.0
 47
0.0
 47
0.0
 47
1.0
 47
0.0
 47
0.0
 47
0.0
 47
0.0
 47
1.0
171
     0
172
     2
 49
0.0008202099737533
 49
0.0
 49
0.0
 49
0.0
 49
0.0
 49
0.0008202099737533
 49
0.0
 49
0.0
 49
0.0
 49
0.0
 49
1.0
 49
0.0
 49
0.0
 49
0.0
 49
0.0
 49
1.0
175
     0
176
     2
142
0.0008202099737533
142
0.0
142
0.0
142
0.0
142
0.0
142
0.0008202099737533
142
0.0
142
0.0
142
0.0
142
0.0
142
1.0
142
0.0
142
0.0
142
0.0
142
0.0
142
1.0
179
     0
270
     2
144
0.0008202099737533
144
0.0
144
0.0
144
0.0
144
0.0
144
0.0008202099737533
144
0.0
144
0.0
144
0.0
144
0.0
144
1.0
144
0.0
144
0.0
144
0.0
144
0.0
144
1.0
274
     2
147
0.0008202099737533
147
0.0
147
0.0
147
0.0
147
0.0
147
0.0008202099737533
147
0.0
147
0.0
147
0.0
147
0.0
147
1.0
147
0.0
147
0.0
147
0.0
147
0.0
147
1.0
  0
MLEADERSTYLE
  5
4A3B8
102
{ACAD_XDICTIONARY
360
87E98
102
}
102
{ACAD_REACTORS
330
4A3B7
102
}
330
4A3B7
100
AcDbMLeaderStyle
170
     2
171
     1
172
     0
 90
        2
 40
0.0
 41
0.0
173
     1
 91
-1056964608
340
14
 92
       -2
290
     1
 42
2.0
291
     1
 43
0.36
  3
Standard
 44
4.0
300

342
11
174
     1
178
     6
175
     1
176
     0
 93
-1056964608
 45
4.0
292
     0
297
     0
 46
4.0
 94
-1056964608
 47
1.0
 49
1.0
140
1.0
293
     1
141
0.0
294
     1
177
     0
142
1.0
295
     0
296
     0
143
0.125
1001
ACAD_MLEADERVER
1070
     2
  0
MLINESTYLE
  5
18
102
{ACAD_REACTORS
330
17
102
}
330
17
100
AcDbMlineStyle
  2
STANDARD
 70
     0
  3

 62
   256
 51
90.0
 52
90.0
 71
     2
 49
0.5
 62
   256
  6
BYLAYER
 49
-0.5
 62
   256
  6
BYLAYER
  0
ACDBPLACEHOLDER
  5
F
102
{ACAD_REACTORS
330
E
102
}
330
E
  0
SCALE
  5
4A3A6
102
{ACAD_REACTORS
330
4A3A5
102
}
330
4A3A5
100
AcDbScale
 70
     0
300
1:1
140
1.0
141
1.0
290
     1
  0
SCALE
  5
4A3A7
102
{ACAD_REACTORS
330
4A3A5
102
}
330
4A3A5
100
AcDbScale
 70
     0
300
1:2
140
1.0
141
2.0
290
     0
  0
SCALE
  5
4A3A8
102
{ACAD_REACTORS
330
4A3A5
102
}
330
4A3A5
100
AcDbScale
 70
     0
300
1:4
140
1.0
141
4.0
290
     0
  0
SCALE
  5
4A3A9
102
{ACAD_REACTORS
330
4A3A5
102
}
330
4A3A5
100
AcDbScale
 70
     0
300
1:5
140
1.0
141
5.0
290
     0
  0
SCALE
  5
4A3AA
102
{ACAD_REACTORS
330
4A3A5
102
}
330
4A3A5
100
AcDbScale
 70
     0
300
1:8
140
1.0
141
8.0
290
     0
  0
SCALE
  5
4A3AB
102
{ACAD_REACTORS
330
4A3A5
102
}
330
4A3A5
100
AcDbScale
 70
     0
300
1:10
140
1.0
141
10.0
290
     0
  0
SCALE
  5
4A3AC
102
{ACAD_REACTORS
330
4A3A5
102
}
330
4A3A5
100
AcDbScale
 70
     0
300
1:16
140
1.0
141
16.0
290
     0
  0
SCALE
  5
4A3AD
102
{ACAD_REACTORS
330
4A3A5
102
}
330
4A3A5
100
AcDbScale
 70
     0
300
1:20
140
1.0
141
20.0
290
     0
  0
SCALE
  5
4A3AE
102
{ACAD_REACTORS
330
4A3A5
102
}
330
4A3A5
100
AcDbScale
 70
     0
300
1:30
140
1.0
141
30.0
290
     0
  0
SCALE
  5
4A3AF
102
{ACAD_REACTORS
330
4A3A5
102
}
330
4A3A5
100
AcDbScale
 70
     0
300
1:40
140
1.0
141
40.0
290
     0
  0
SCALE
  5
4A3B0
102
{ACAD_REACTORS
330
4A3A5
102
}
330
4A3A5
100
AcDbScale
 70
     0
300
1:50
140
1.0
141
50.0
290
     0
  0
SCALE
  5
4A3B1
102
{ACAD_REACTORS
330
4A3A5
102
}
330
4A3A5
100
AcDbScale
 70
     0
300
1:100
140
1.0
141
100.0
290
     0
  0
SCALE
  5
4A3B2
102
{ACAD_REACTORS
330
4A3A5
102
}
330
4A3A5
100
AcDbScale
 70
     0
300
2:1
140
2.0
141
1.0
290
     0
  0
SCALE
  5
4A3B3
102
{ACAD_REACTORS
330
4A3A5
102
}
330
4A3A5
100
AcDbScale
 70
     0
300
4:1
140
4.0
141
1.0
290
     0
  0
SCALE
  5
4A3B4
102
{ACAD_REACTORS
330
4A3A5
102
}
330
4A3A5
100
AcDbScale
 70
     0
300
8:1
140
8.0
141
1.0
290
     0
  0
SCALE
  5
4A3B5
102
{ACAD_REACTORS
330
4A3A5
102
}
330
4A3A5
100
AcDbScale
 70
     0
300
10:1
140
10.0
141
1.0
290
     0
  0
SCALE
  5
4A3B6
102
{ACAD_REACTORS
330
4A3A5
102
}
330
4A3A5
100
AcDbScale
 70
     0
300
100:1
140
100.0
141
1.0
290
     0
  0
ACDBSECTIONVIEWSTYLE
  5
4A3BA
102
{ACAD_XDICTIONARY
360
876D2
102
}
102
{ACAD_REACTORS
330
4A3B9
102
}
330
4A3B9
100
AcDbModelDocViewStyle
 70
     0
  3
Metric50
290
     0
100
AcDbSectionViewStyle
 70
     0
 71
     0
 90
      102
 71
     1
340
11
 40
5.0
340
0
340
0
 40
5.0
300
I, O, Q, S, X, Z
 40
10.0
 90
        0
 40
2.5
 90
        0
 71
     2
340
16
 90
       25
340
16
 90
       50
 40
5.0
 40
2.5
 40
5.0
 71
     3
340
11
 40
5.0
 90
        0
 40
15.0
 90
        1
300
%<\AcVar ViewSectionStartId>%-%<\AcVar ViewSectionEndId>% (%<\AcVar ViewScale \f "%sn">%)
 71
     4
300
ANSI31
 40
1.0
 90
        0
290
     0
290
     0
 90
        6
 40
0.0
 40
1.570796326794896
 40
0.2617993877991494
 40
1.308996938995747
 40
-0.2617993877991494
 40
1.832595714594044
  0
TABLESTYLE
  5
A2
102
{ACAD_XDICTIONARY
360
4CD9A
102
}
102
{ACAD_REACTORS
330
A1
102
}
330
A1
100
AcDbTableStyle
  3
Standard
 70
     0
 71
     0
 40
1.5
 41
1.5
280
     0
281
     0
  7
Standard
140
4.5
170
     2
 62
     0
 63
   257
283
     0
274
    -2
284
     1
 64
     0
275
    -2
285
     1
 65
     0
276
    -2
286
     1
 66
     0
277
    -2
287
     1
 67
     0
278
    -2
288
     1
 68
     0
279
    -2
289
     1
 69
     0
  7
Standard
140
6.0
170
     5
 62
     0
 63
   257
283
     0
274
    -2
284
     1
 64
     0
275
    -2
285
     1
 65
     0
276
    -2
286
     1
 66
     0
277
    -2
287
     1
 67
     0
278
    -2
288
     1
 68
     0
279
    -2
289
     1
 69
     0
  7
Standard
140
4.5
170
     5
 62
     0
 63
   257
283
     0
274
    -2
284
     1
 64
     0
275
    -2
285
     1
 65
     0
276
    -2
286
     1
 66
     0
277
    -2
287
     1
 67
     0
278
    -2
288
     1
 68
     0
279
    -2
289
     1
 69
     0
  0
VISUALSTYLE
  5
4A392
102
{ACAD_XDICTIONARY
360
876AC
102
}
102
{ACAD_REACTORS
330
4A38C
102
}
330
4A38C
100
AcDbVisualStyle
  2

 70
     4
 71
     0
 72
     2
 73
     0
 90
        0
 40
-0.6
 41
-30.0
 62
     5
 63
     7
 74
     1
 91
        4
 64
     7
 65
   257
 75
     1
175
     1
 42
1.0
 92
        0
 66
   257
 43
1.0
 76
     1
 77
     6
 78
     2
 67
     7
 79
     5
170
     0
171
     0
290
     0
174
     0
 93
        1
 44
0.0
173
     0
291
     0
 45
0.0
1001
ACAD
1000
AcDbSavedByObjectVersion
1070
     0
  0
VISUALSTYLE
  5
4A391
102
{ACAD_XDICTIONARY
360
876AA
102
}
102
{ACAD_REACTORS
330
4A38C
102
}
330
4A38C
100
AcDbVisualStyle
  2

 70
     7
 71
     1
 72
     0
 73
     1
 90
        0
 40
-0.6
 41
-30.0
 62
     5
 63
     7
 74
     0
 91
        4
 64
     7
 65
   257
 75
     1
175
     1
 42
1.0
 92
        8
 66
     7
 43
1.0
 76
     1
 77
     6
 78
     2
 67
     7
 79
     5
170
     0
171
     0
290
     0
174
     0
 93
        1
 44
0.0
173
     0
291
     1
 45
0.0
1001
ACAD
1000
AcDbSavedByObjectVersion
1070
     0
  0
VISUALSTYLE
  5
4A398
102
{ACAD_XDICTIONARY
360
876B8
102
}
102
{ACAD_REACTORS
330
4A38C
102
}
330
4A38C
100
AcDbVisualStyle
  2

 70
    12
 71
     2
 72
     2
 73
     0
 90
        0
 40
-0.6
 41
-30.0
 62
     5
 63
     7
 74
     1
 91
        4
 64
     7
 65
   257
 75
     1
175
     1
 42
1.0
 92
        8
 66
     7
 43
1.0
 76
     1
 77
     6
 78
     2
 67
     7
 79
     5
170
     0
171
     0
290
     0
174
     0
 93
        1
 44
50.0
173
     0
291
     1
 45
0.0
1001
ACAD
1000
AcDbSavedByObjectVersion
1070
     0
  0
VISUALSTYLE
  5
4A39C
102
{ACAD_XDICTIONARY
360
876C0
102
}
102
{ACAD_REACTORS
330
4A38C
102
}
330
4A38C
100
AcDbVisualStyle
  2

 70
    16
 71
     2
 72
     2
 73
     3
 90
        0
 40
-0.6
 41
-30.0
 62
     5
 63
     8
 74
     1
 91
        4
 64
     7
 65
   257
 75
     1
175
     1
 42
1.0
 92
        8
 66
     8
 43
1.0
 76
     1
 77
     6
 78
     2
 67
     7
 79
     5
170
     0
171
     0
290
     0
174
     0
 93
        1
 44
0.0
173
     0
291
     1
 45
0.0
1001
ACAD
1000
AcDbSavedByObjectVersion
1070
     0
  0
VISUALSTYLE
  5
4A395
102
{ACAD_XDICTIONARY
360
876B2
102
}
102
{ACAD_REACTORS
330
4A38C
102
}
330
4A38C
100
AcDbVisualStyle
  2

 70
     9
 71
     3
 72
     2
 73
     0
 90
        0
 40
-0.6
 41
-30.0
 62
     5
 63
     7
 74
     2
 91
        2
 64
     7
 65
   257
 75
     1
175
     1
 42
179.0
 92
        8
 66
     7
 43
1.0
 76
     1
 77
     6
 78
     2
 67
     7
 79
     3
170
     0
171
     0
290
     0
174
     0
 93
        1
 44
0.0
173
     0
291
     0
 45
0.0
1001
ACAD
1000
AcDbSavedByObjectVersion
1070
     0
  0
VISUALSTYLE
  5
4A397
102
{ACAD_XDICTIONARY
360
876B6
102
}
102
{ACAD_REACTORS
330
4A38C
102
}
330
4A38C
100
AcDbVisualStyle
  2

 70
    11
 71
     2
 72
     2
 73
     0
 90
        0
 40
-0.6
 41
-30.0
 62
     5
 63
     7
 74
     1
 91
        4
 64
     7
 65
   257
 75
     1
175
     1
 42
1.0
 92
        8
 66
     7
 43
1.0
 76
     1
 77
     6
 78
     2
 67
     7
 79
     5
170
     0
171
     0
290
     0
174
     0
 93
        1
 44
-50.0
173
     0
291
     1
 45
0.0
1001
ACAD
1000
AcDbSavedByObjectVersion
1070
     0
  0
VISUALSTYLE
  5
4A3A4
102
{ACAD_XDICTIONARY
360
876D0
102
}
102
{ACAD_REACTORS
330
4A38C
102
}
330
4A38C
100
AcDbVisualStyle
  2

 70
    22
 71
     2
 72
     2
 73
     0
 90
        0
 40
-0.6
 41
-30.0
 62
     5
 63
     7
 74
     1
 91
        4
 64
     7
 65
   257
 75
     1
175
     1
 42
1.0
 92
        8
 66
     7
 43
1.0
 76
     1
 77
     6
 78
     2
 67
     7
 79
     5
170
     0
171
     0
290
     0
174
     0
 93
        1
 44
0.0
173
     0
291
     1
 45
0.0
1001
ACAD
1000
AcDbSavedByObjectVersion
1070
     0
  0
VISUALSTYLE
  5
4A39B
102
{ACAD_XDICTIONARY
360
876BE
102
}
102
{ACAD_REACTORS
330
4A38C
102
}
330
4A38C
100
AcDbVisualStyle
  2

 70
    15
 71
     2
 72
     2
 73
     0
 90
        0
 40
-0.6
 41
-30.0
 62
     5
 63
     7
 74
     1
 91
        4
 64
     7
 65
   257
 75
     1
175
     1
 42
1.0
 92
        8
 66
     7
 43
1.0
 76
     1
 77
     6
 78
     2
 67
     7
 79
     5
170
     0
171
     0
290
     0
174
     0
 93
        1
 44
0.0
173
     0
291
     1
 45
0.0
1001
ACAD
1000
AcDbSavedByObjectVersion
1070
     0
  0
VISUALSTYLE
  5
4A38D
102
{ACAD_XDICTIONARY
360
876A2
102
}
102
{ACAD_REACTORS
330
4A38C
102
}
330
4A38C
100
AcDbVisualStyle
  2

 70
     0
 71
     2
 72
     1
 73
     1
 90
        2
 40
-0.6
 41
30.0
 62
     5
 63
     7
 74
     0
 91
        0
 64
     7
 65
   257
 75
     1
175
     1
 42
1.0
 92
        8
 66
     7
 43
1.0
 76
     1
 77
     6
 78
     2
 67
     7
 79
     5
170
     0
171
     0
290
     0
174
     0
 93
       13
 44
0.0
173
     0
291
     1
 45
0.0
1001
ACAD
1000
AcDbSavedByObjectVersion
1070
     0
  0
VISUALSTYLE
  5
4A38E
102
{ACAD_XDICTIONARY
360
876A4
102
}
102
{ACAD_REACTORS
330
4A38C
102
}
330
4A38C
100
AcDbVisualStyle
  2

 70
     1
 71
     2
 72
     1
 73
     1
 90
        2
 40
-0.6
 41
30.0
 62
     5
 63
     7
 74
     1
 91
        0
 64
     7
 65
   257
 75
     1
175
     1
 42
1.0
 92
        0
 66
   257
 43
1.0
 76
     1
 77
     6
 78
     2
 67
     7
 79
     5
170
     0
171
     0
290
     0
174
     0
 93
       13
 44
0.0
173
     0
291
     1
 45
0.0
1001
ACAD
1000
AcDbSavedByObjectVersion
1070
     0
  0
VISUALSTYLE
  5
4A38F
102
{ACAD_XDICTIONARY
360
876A6
102
}
102
{ACAD_REACTORS
330
4A38C
102
}
330
4A38C
100
AcDbVisualStyle
  2

 70
     2
 71
     2
 72
     2
 73
     1
 90
        2
 40
-0.6
 41
30.0
 62
     5
 63
     7
 74
     0
 91
        0
 64
     7
 65
   257
 75
     1
175
     1
 42
1.0
 92
        0
 66
     7
 43
1.0
 76
     1
 77
     6
 78
     2
 67
     7
 79
     5
170
     0
171
     0
290
     0
174
     0
 93
       13
 44
0.0
173
     0
291
     1
 45
0.0
1001
ACAD
1000
AcDbSavedByObjectVersion
1070
     0
  0
VISUALSTYLE
  5
4A390
102
{ACAD_XDICTIONARY
360
876A8
102
}
102
{ACAD_REACTORS
330
4A38C
102
}
330
4A38C
100
AcDbVisualStyle
  2

 70
     3
 71
     2
 72
     2
 73
     1
 90
        2
 40
-0.6
 41
30.0
 62
     5
 63
     7
 74
     1
 91
        0
 64
     7
 65
   257
 75
     1
175
     1
 42
1.0
 92
        0
 66
   257
 43
1.0
 76
     1
 77
     6
 78
     2
 67
     7
 79
     5
170
     0
171
     0
290
     0
174
     0
 93
       13
 44
0.0
173
     0
291
     1
 45
0.0
1001
ACAD
1000
AcDbSavedByObjectVersion
1070
     0
  0
VISUALSTYLE
  5
4A394
102
{ACAD_XDICTIONARY
360
876B0
102
}
102
{ACAD_REACTORS
330
4A38C
102
}
330
4A38C
100
AcDbVisualStyle
  2

 70
     6
 71
     1
 72
     2
 73
     2
 90
        0
 40
-0.6
 41
-30.0
 62
     5
 63
     7
 74
     2
 91
        2
 64
     7
 65
   257
 75
     2
175
     1
 42
40.0
 92
        0
 66
   257
 43
1.0
 76
     1
 77
     6
 78
     2
 67
     7
 79
     3
170
     0
171
     0
290
     0
174
     0
 93
        1
 44
0.0
173
     0
291
     0
 45
0.0
1001
ACAD
1000
AcDbSavedByObjectVersion
1070
     0
  0
VISUALSTYLE
  5
4A3A2
102
{ACAD_XDICTIONARY
360
876CC
102
}
102
{ACAD_REACTORS
330
4A38C
102
}
330
4A38C
100
AcDbVisualStyle
  2

 70
    20
 71
     2
 72
     2
 73
     0
 90
        0
 40
-0.6
 41
-30.0
 62
     5
 63
     7
 74
     1
 91
        4
 64
     7
 65
   257
 75
     1
175
     1
 42
1.0
 92
       10
 66
     7
 43
1.0
 76
     1
 77
     6
 78
     2
 67
     7
 79
     5
170
     0
171
     0
290
     0
174
     0
 93
        1
 44
0.0
173
     0
291
     1
 45
0.0
1001
ACAD
1000
AcDbSavedByObjectVersion
1070
     0
  0
VISUALSTYLE
  5
4A39A
102
{ACAD_XDICTIONARY
360
876BC
102
}
102
{ACAD_REACTORS
330
4A38C
102
}
330
4A38C
100
AcDbVisualStyle
  2

 70
    14
 71
     2
 72
     2
 73
     0
 90
        0
 40
-0.6
 41
-30.0
 62
     5
 63
     7
 74
     1
 91
        4
 64
     7
 65
   257
 75
     7
175
     7
 42
1.0
 92
        8
 66
     7
 43
1.0
 76
     1
 77
     6
 78
     2
 67
     7
 79
     5
170
     0
171
     0
290
     0
174
     0
 93
        1
 44
0.0
173
     0
291
     1
 45
0.0
1001
ACAD
1000
AcDbSavedByObjectVersion
1070
     0
  0
VISUALSTYLE
  5
4A3A3
102
{ACAD_XDICTIONARY
360
876CE
102
}
102
{ACAD_REACTORS
330
4A38C
102
}
330
4A38C
100
AcDbVisualStyle
  2

 70
    21
 71
     2
 72
     2
 73
     0
 90
        0
 40
-0.6
 41
-30.0
 62
     5
 63
     7
 74
     1
 91
        4
 64
     7
 65
   257
 75
     1
175
     1
 42
1.0
 92
        9
 66
     7
 43
1.0
 76
     1
 77
     6
 78
     2
 67
     7
 79
     5
170
     0
171
     0
290
     0
174
     0
 93
        1
 44
0.0
173
     0
291
     1
 45
0.0
1001
ACAD
1000
AcDbSavedByObjectVersion
1070
     0
  0
VISUALSTYLE
  5
4A396
102
{ACAD_XDICTIONARY
360
876B4
102
}
102
{ACAD_REACTORS
330
4A38C
102
}
330
4A38C
100
AcDbVisualStyle
  2

 70
     8
 71
     2
 72
     3
 73
     0
 90
        2
 40
-0.6
 41
30.0
 62
     5
 63
     7
 74
     0
 91
        0
 64
     7
 65
   257
 75
     1
175
     1
 42
1.0
 92
        8
 66
   257
 43
1.0
 76
     1
 77
     6
 78
     2
 67
     7
 79
     3
170
     0
171
     0
290
     0
174
     0
 93
       13
 44
0.0
173
     0
291
     0
 45
0.0
1001
ACAD
1000
AcDbSavedByObjectVersion
1070
     0
  0
VISUALSTYLE
  5
4A3A1
102
{ACAD_XDICTIONARY
360
876CA
102
}
102
{ACAD_REACTORS
330
4A38C
102
}
330
4A38C
100
AcDbVisualStyle
  2

 70
    27
 71
     2
 72
     2
 73
     1
 90
        2
 40
-0.6
 41
30.0
 62
     5
 63
     7
 74
     0
 91
        4
 64
     7
 65
   257
 75
     1
175
     1
 42
1.0
 92
        8
 66
   257
 43
1.0
 76
     1
 77
     6
 78
     2
 67
     8
 79
     3
170
     0
171
     0
290
     0
174
     0
 93
        5
 44
0.0
173
     0
291
     0
 45
0.0
1001
ACAD
1000
AcDbSavedByObjectVersion
1070
     0
  0
VISUALSTYLE
  5
4A3A0
102
{ACAD_XDICTIONARY
360
876C8
102
}
102
{ACAD_REACTORS
330
4A38C
102
}
330
4A38C
100
AcDbVisualStyle
  2

 70
    26
 71
     2
 72
     2
 73
     1
 90
        2
 40
-0.6
 41
30.0
 62
     5
 63
     7
 74
     1
 91
        2
 64
     7
 65
   257
 75
     2
175
     1
 42
1.0
 92
        8
 66
   257
 43
1.0
 76
     1
 77
     6
 78
     2
 67
     7
 79
     3
170
     0
171
     0
290
     0
174
     0
 93
        5
 44
0.0
173
     0
291
     0
 45
0.0
1001
ACAD
1000
AcDbSavedByObjectVersion
1070
     0
  0
VISUALSTYLE
  5
4A39D
102
{ACAD_XDICTIONARY
360
876C2
102
}
102
{ACAD_REACTORS
330
4A38C
102
}
330
4A38C
100
AcDbVisualStyle
  2

 70
    23
 71
     2
 72
     2
 73
     3
 90
        0
 40
-0.6
 41
-30.0
 62
     5
 63
     7
 74
     2
 91
        2
 64
     7
 65
     7
 75
     1
175
     1
 42
40.0
 92
        8
 66
     7
 43
1.0
 76
     1
 77
     6
 78
     2
 67
     7
 79
     3
170
     0
171
     0
290
     0
174
     0
 93
        1
 44
0.0
173
     0
291
     0
 45
0.0
1001
ACAD
1000
AcDbSavedByObjectVersion
1070
     0
  0
VISUALSTYLE
  5
4A39E
102
{ACAD_XDICTIONARY
360
876C4
102
}
102
{ACAD_REACTORS
330
4A38C
102
}
330
4A38C
100
AcDbVisualStyle
  2

 70
    24
 71
     1
 72
     2
 73
     2
 90
        0
 40
-0.6
 41
-30.0
 62
     5
 63
     7
 74
     2
 91
        2
 64
     7
 65
     7
 75
     1
175
     1
 42
40.0
 92
       11
 66
     7
 43
1.0
 76
     1
 77
     6
 78
     2
 67
     7
 79
     6
170
     0
171
     0
290
     0
174
     0
 93
        1
 44
0.0
173
     0
291
     0
 45
0.0
1001
ACAD
1000
AcDbSavedByObjectVersion
1070
     0
  0
VISUALSTYLE
  5
4A399
102
{ACAD_XDICTIONARY
360
876BA
102
}
102
{ACAD_REACTORS
330
4A38C
102
}
330
4A38C
100
AcDbVisualStyle
  2

 70
    13
 71
     2
 72
     2
 73
     0
 90
        0
 40
-0.6
 41
-30.0
 62
     5
 63
     7
 74
     1
 91
        4
 64
     7
 65
   257
 75
     1
175
     1
 42
1.0
 92
       12
 66
     7
 43
1.0
 76
     1
 77
     6
 78
     2
 67
     7
 79
     5
170
     0
171
     0
290
     0
174
     0
 93
        1
 44
0.0
173
     0
291
     1
 45
0.0
1001
ACAD
1000
AcDbSavedByObjectVersion
1070
     0
  0
VISUALSTYLE
  5
4A393
102
{ACAD_XDICTIONARY
360
876AE
102
}
102
{ACAD_REACTORS
330
4A38C
102
}
330
4A38C
100
AcDbVisualStyle
  2

 70
     5
 71
     0
 72
     2
 73
     0
 90
        0
 40
-0.6
 41
-30.0
 62
     5
 63
     7
 74
     1
 91
        4
 64
     7
 65
   257
 75
     1
175
     1
 42
1.0
 92
        0
 66
   257
 43
1.0
 76
     1
 77
     6
 78
     2
 67
     7
 79
     3
170
     0
171
     0
290
     0
174
     0
 93
        1
 44
0.0
173
     0
291
     0
 45
0.0
1001
ACAD
1000
AcDbSavedByObjectVersion
1070
     0
  0
VISUALSTYLE
  5
4A39F
102
{ACAD_XDICTIONARY
360
876C6
102
}
102
{ACAD_REACTORS
330
4A38C
102
}
330
4A38C
100
AcDbVisualStyle
  2

 70
    25
 71
     2
 72
     2
 73
     1
 90
        1
 40
0.5
 41
-30.0
 62
     5
 63
     7
 74
     1
 91
        0
 64
     7
 65
   257
 75
     1
175
     1
 42
1.0
 92
        8
 66
     7
 43
1.0
 76
     1
 77
     6
 78
     2
 67
     7
 79
     3
170
     0
171
     0
290
     0
174
     0
 93
       13
 44
0.0
173
     0
291
     0
 45
0.0
1001
ACAD
1000
AcDbSavedByObjectVersion
1070
     0
  0
XRECORD
  5
87F04
102
{ACAD_REACTORS
330
87F03
102
}
330
87F03
100
AcDbXrecord
280
     1
340
85
  0
XRECORD
  5
87F05
102
{ACAD_REACTORS
330
87F03
102
}
330
87F03
100
AcDbXrecord
280
     1
340
84
  0
DICTIONARYVAR
  5
87F02
102
{ACAD_REACTORS
330
5E
102
}
330
5E
100
DictionaryVariables
280
   100
  1
1:1
  0
DICTIONARYVAR
  5
4A6CE
102
{ACAD_REACTORS
330
5E
102
}
330
5E
100
DictionaryVariables
280
     0
  1
STANDARD
  0
DICTIONARYVAR
  5
B8
102
{ACAD_REACTORS
330
5E
102
}
330
5E
100
DictionaryVariables
280
     0
  1
STANDARD
  0
DICTIONARYVAR
  5
4A6CF
102
{ACAD_REACTORS
330
5E
102
}
330
5E
100
DictionaryVariables
280
     0
  1
Metric50
  0
DICTIONARYVAR
  5
4A6D0
102
{ACAD_REACTORS
330
5E
102
}
330
5E
100
DictionaryVariables
280
     0
  1
Metric50
  0
DICTIONARYVAR
  5
5F
102
{ACAD_REACTORS
330
5E
102
}
330
5E
100
DictionaryVariables
280
     0
  1
2
  0
DICTIONARYVAR
  5
63
102
{ACAD_REACTORS
330
5E
102
}
330
5E
100
DictionaryVariables
280
     0
  1
1
  0
DICTIONARYVAR
  5
4A879
102
{ACAD_REACTORS
330
5E
102
}
330
5E
100
DictionaryVariables
280
     0
  1
0
  0
DICTIONARYVAR
  5
4A6D4
102
{ACAD_REACTORS
330
5E
102
}
330
5E
100
DictionaryVariables
280
     0
  1
1
  0
DICTIONARYVAR
  5
4A6D5
102
{ACAD_REACTORS
330
5E
102
}
330
5E
100
DictionaryVariables
280
     0
  1
15
  0
DICTIONARYVAR
  5
4A6D3
102
{ACAD_REACTORS
330
5E
102
}
330
5E
100
DictionaryVariables
280
     0
  1
0
  0
DICTIONARYVAR
  5
4A6D1
102
{ACAD_REACTORS
330
5E
102
}
330
5E
100
DictionaryVariables
280
     0
  1
0
  0
DICTIONARYVAR
  5
31CE
102
{ACAD_REACTORS
330
5E
102
}
330
5E
100
DictionaryVariables
280
     0
  1

  0
DICTIONARYVAR
  5
4A878
102
{ACAD_REACTORS
330
5E
102
}
330
5E
100
DictionaryVariables
280
     0
  1
127
  0
DICTIONARYVAR
  5
5A559
102
{ACAD_REACTORS
330
5E
102
}
330
5E
100
DictionaryVariables
280
     0
  1
2
  0
XRECORD
  5
349EA
102
{ACAD_REACTORS
330
349E9
102
}
330
349E9
100
AcDbXrecord
280
     1
330
0
330
0
330
0
330
0
330
0
330
0
330
0
330
0
330
0
330
0
330
0
330
0
330
0
330
0
330
0
330
0
330
0
330
0
330
0
330
0
330
0
330
0
330
0
330
0
330
0
330
0
330
0
330
0
330
0
330
0
330
0
330
0
330
0
330
0
330
0
330
0
330
0
330
0
330
0
330
0
330
0
330
0
330
0
330
0
330
0
330
0
330
0
330
0
330
0
330
0
330
0
330
0
330
0
330
0
330
0
330
0
330
0
330
0
330
0
330
0
330
0
330
0
330
0
330
0
330
0
330
0
330
0
330
0
330
0
330
0
330
0
330
0
330
0
330
0
330
0
330
0
330
0
330
0
330
0
330
0
330
0
330
0
330
0
330
0
330
0
330
0
330
0
330
0
330
0
330
0
330
0
330
0
330
0
330
0
330
0
330
0
330
0
330
0
330
0
330
0
330
0
330
0
330
0
330
0
330
0
330
0
330
0
330
0
330
0
330
0
  0
DICTIONARY
  5
876D4
330
4A3BC
100
AcDbDictionary
280
     1
281
     1
  3
ACAD_XREC_ROUNDTRIP
360
876D5
  0
DICTIONARY
  5
4A37D
330
4A37C
100
AcDbDictionary
280
     1
281
     1
  3
ACAD_XREC_ROUNDTRIP
360
87F0D
  0
DICTIONARY
  5
4A375
330
4A374
100
AcDbDictionary
280
     1
281
     1
  3
ACAD_XREC_ROUNDTRIP
360
87F0E
  0
DICTIONARY
  5
4A385
330
4A384
100
AcDbDictionary
280
     1
281
     1
  3
ACAD_XREC_ROUNDTRIP
360
87F0F
  0
DICTIONARY
  5
87E98
330
4A3B8
100
AcDbDictionary
280
     1
281
     1
  3
ACAD_XREC_ROUNDTRIP
360
87F10
  0
DICTIONARY
  5
876D2
330
4A3BA
100
AcDbDictionary
280
     1
281
     1
  3
ACAD_XREC_ROUNDTRIP
360
876D3
  0
DICTIONARY
  5
4CD9A
330
A2
100
AcDbDictionary
280
     1
281
     1
  3
ACAD_ROUNDTRIP_2008_TABLESTYLE_CELLSTYLEMAP
360
87F12
  3
ACAD_XREC_ROUNDTRIP
360
87F11
  0
DICTIONARY
  5
876AC
330
4A392
100
AcDbDictionary
280
     1
281
     1
  3
ACAD_XREC_ROUNDTRIP
360
87F13
  0
DICTIONARY
  5
876AA
330
4A391
100
AcDbDictionary
280
     1
281
     1
  3
ACAD_XREC_ROUNDTRIP
360
87F14
  0
DICTIONARY
  5
876B8
330
4A398
100
AcDbDictionary
280
     1
281
     1
  3
ACAD_XREC_ROUNDTRIP
360
87F15
  0
DICTIONARY
  5
876C0
330
4A39C
100
AcDbDictionary
280
     1
281
     1
  3
ACAD_XREC_ROUNDTRIP
360
87F16
  0
DICTIONARY
  5
876B2
330
4A395
100
AcDbDictionary
280
     1
281
     1
  3
ACAD_XREC_ROUNDTRIP
360
87F17
  0
DICTIONARY
  5
876B6
330
4A397
100
AcDbDictionary
280
     1
281
     1
  3
ACAD_XREC_ROUNDTRIP
360
87F18
  0
DICTIONARY
  5
876D0
330
4A3A4
100
AcDbDictionary
280
     1
281
     1
  3
ACAD_XREC_ROUNDTRIP
360
87F19
  0
DICTIONARY
  5
876BE
330
4A39B
100
AcDbDictionary
280
     1
281
     1
  3
ACAD_XREC_ROUNDTRIP
360
87F1A
  0
DICTIONARY
  5
876A2
330
4A38D
100
AcDbDictionary
280
     1
281
     1
  3
ACAD_XREC_ROUNDTRIP
360
87F1B
  0
DICTIONARY
  5
876A4
330
4A38E
100
AcDbDictionary
280
     1
281
     1
  3
ACAD_XREC_ROUNDTRIP
360
87F1C
  0
DICTIONARY
  5
876A6
330
4A38F
100
AcDbDictionary
280
     1
281
     1
  3
ACAD_XREC_ROUNDTRIP
360
87F1D
  0
DICTIONARY
  5
876A8
330
4A390
100
AcDbDictionary
280
     1
281
     1
  3
ACAD_XREC_ROUNDTRIP
360
87F1E
  0
DICTIONARY
  5
876B0
330
4A394
100
AcDbDictionary
280
     1
281
     1
  3
ACAD_XREC_ROUNDTRIP
360
87F1F
  0
DICTIONARY
  5
876CC
330
4A3A2
100
AcDbDictionary
280
     1
281
     1
  3
ACAD_XREC_ROUNDTRIP
360
87F20
  0
DICTIONARY
  5
876BC
330
4A39A
100
AcDbDictionary
280
     1
281
     1
  3
ACAD_XREC_ROUNDTRIP
360
87F21
  0
DICTIONARY
  5
876CE
330
4A3A3
100
AcDbDictionary
280
     1
281
     1
  3
ACAD_XREC_ROUNDTRIP
360
87F22
  0
DICTIONARY
  5
876B4
330
4A396
100
AcDbDictionary
280
     1
281
     1
  3
ACAD_XREC_ROUNDTRIP
360
87F23
  0
DICTIONARY
  5
876CA
330
4A3A1
100
AcDbDictionary
280
     1
281
     1
  3
ACAD_XREC_ROUNDTRIP
360
87F24
  0
DICTIONARY
  5
876C8
330
4A3A0
100
AcDbDictionary
280
     1
281
     1
  3
ACAD_XREC_ROUNDTRIP
360
87F25
  0
DICTIONARY
  5
876C2
330
4A39D
100
AcDbDictionary
280
     1
281
     1
  3
ACAD_XREC_ROUNDTRIP
360
87F26
  0
DICTIONARY
  5
876C4
330
4A39E
100
AcDbDictionary
280
     1
281
     1
  3
ACAD_XREC_ROUNDTRIP
360
87F27
  0
DICTIONARY
  5
876BA
330
4A399
100
AcDbDictionary
280
     1
281
     1
  3
ACAD_XREC_ROUNDTRIP
360
87F28
  0
DICTIONARY
  5
876AE
330
4A393
100
AcDbDictionary
280
     1
281
     1
  3
ACAD_XREC_ROUNDTRIP
360
87F29
  0
DICTIONARY
  5
876C6
330
4A39F
100
AcDbDictionary
280
     1
281
     1
  3
ACAD_XREC_ROUNDTRIP
360
87F2A
  0
XRECORD
  5
876D5
102
{ACAD_REACTORS
330
876D4
102
}
330
876D4
100
AcDbXrecord
280
     1
102
DISPLAYNAME
  1
Metric50
102
FLAGS
 90
        0
  0
XRECORD
  5
87F0D
102
{ACAD_REACTORS
330
4A37D
102
}
330
4A37D
100
AcDbXrecord
280
     1
102
MATERIAL
148
0.0
149
0.0
149
0.0
 93
        0
 94
      127
282
     0
 72
     0
 77
     0
171
     0
175
     0
179
     0
273
     0
  0
XRECORD
  5
87F0E
102
{ACAD_REACTORS
330
4A375
102
}
330
4A375
100
AcDbXrecord
280
     1
102
MATERIAL
148
0.0
149
0.0
149
0.0
 93
        0
 94
      127
282
     0
 72
     0
 77
     0
171
     0
175
     0
179
     0
273
     0
  0
XRECORD
  5
87F0F
102
{ACAD_REACTORS
330
4A385
102
}
330
4A385
100
AcDbXrecord
280
     1
102
MATERIAL
148
0.0
149
0.0
149
0.0
 93
        0
 94
      127
282
     0
 72
     0
 77
     0
171
     0
175
     0
179
     0
273
     0
  0
XRECORD
  5
87F10
102
{ACAD_REACTORS
330
87E98
102
}
330
87E98
100
AcDbXrecord
280
     1
102
ACAD_ROUNDTRIP_2010_MLEADER_STYLE
  0
XRECORD
  5
876D3
102
{ACAD_REACTORS
330
876D2
102
}
330
876D2
100
AcDbXrecord
280
     1
102
DISPLAYNAME
  1
Metric50
102
FLAGS
 90
        0
  0
CELLSTYLEMAP
  5
87F12
102
{ACAD_REACTORS
330
4CD9A
102
}
330
4CD9A
100
AcDbCellStyleMap
 90
        3
300
CELLSTYLE
  1
TABLEFORMAT_BEGIN
 90
        5
170
     1
 91
        0
 92
    32768
 62
   257
 93
        1
300
CONTENTFORMAT
  1
CONTENTFORMAT_BEGIN
 90
        0
 91
        0
 92
        4
 93
        0
300

 40
0.0
140
1.0
 94
        5
 62
     0
340
11
144
6.0
309
CONTENTFORMAT_END
171
     1
301
MARGIN
  1
CELLMARGIN_BEGIN
 40
1.5
 40
1.5
 40
1.5
 40
1.5
 40
0.18
 40
0.18
309
CELLMARGIN_END
 94
        6
 95
        1
302
GRIDFORMAT
  1
GRIDFORMAT_BEGIN
 90
        0
 91
        1
 62
     0
 92
       -2
340
0
 93
        0
 40
0.045
309
GRIDFORMAT_END
 95
        2
302
GRIDFORMAT
  1
GRIDFORMAT_BEGIN
 90
        0
 91
        1
 62
     0
 92
       -2
340
0
 93
        0
 40
0.045
309
GRIDFORMAT_END
 95
        4
302
GRIDFORMAT
  1
GRIDFORMAT_BEGIN
 90
        0
 91
        1
 62
     0
 92
       -2
340
0
 93
        0
 40
0.045
309
GRIDFORMAT_END
 95
        8
302
GRIDFORMAT
  1
GRIDFORMAT_BEGIN
 90
        0
 91
        1
 62
     0
 92
       -2
340
0
 93
        0
 40
0.045
309
GRIDFORMAT_END
 95
       16
302
GRIDFORMAT
  1
GRIDFORMAT_BEGIN
 90
        0
 91
        1
 62
     0
 92
       -2
340
0
 93
        0
 40
0.045
309
GRIDFORMAT_END
 95
       32
302
GRIDFORMAT
  1
GRIDFORMAT_BEGIN
 90
        0
 91
        1
 62
     0
 92
       -2
340
0
 93
        0
 40
0.045
309
GRIDFORMAT_END
309
TABLEFORMAT_END
  1
CELLSTYLE_BEGIN
 90
        1
 91
        1
300
_TITLE
309
CELLSTYLE_END
300
CELLSTYLE
  1
TABLEFORMAT_BEGIN
 90
        5
170
     1
 91
        0
 92
        0
 62
   257
 93
        1
300
CONTENTFORMAT
  1
CONTENTFORMAT_BEGIN
 90
        0
 91
        0
 92
        4
 93
        0
300

 40
0.0
140
1.0
 94
        5
 62
     0
340
11
144
4.5
309
CONTENTFORMAT_END
171
     1
301
MARGIN
  1
CELLMARGIN_BEGIN
 40
1.5
 40
1.5
 40
1.5
 40
1.5
 40
0.18
 40
0.18
309
CELLMARGIN_END
 94
        6
 95
        1
302
GRIDFORMAT
  1
GRIDFORMAT_BEGIN
 90
        0
 91
        1
 62
     0
 92
       -2
340
0
 93
        0
 40
0.045
309
GRIDFORMAT_END
 95
        2
302
GRIDFORMAT
  1
GRIDFORMAT_BEGIN
 90
        0
 91
        1
 62
     0
 92
       -2
340
0
 93
        0
 40
0.045
309
GRIDFORMAT_END
 95
        4
302
GRIDFORMAT
  1
GRIDFORMAT_BEGIN
 90
        0
 91
        1
 62
     0
 92
       -2
340
0
 93
        0
 40
0.045
309
GRIDFORMAT_END
 95
        8
302
GRIDFORMAT
  1
GRIDFORMAT_BEGIN
 90
        0
 91
        1
 62
     0
 92
       -2
340
0
 93
        0
 40
0.045
309
GRIDFORMAT_END
 95
       16
302
GRIDFORMAT
  1
GRIDFORMAT_BEGIN
 90
        0
 91
        1
 62
     0
 92
       -2
340
0
 93
        0
 40
0.045
309
GRIDFORMAT_END
 95
       32
302
GRIDFORMAT
  1
GRIDFORMAT_BEGIN
 90
        0
 91
        1
 62
     0
 92
       -2
340
0
 93
        0
 40
0.045
309
GRIDFORMAT_END
309
TABLEFORMAT_END
  1
CELLSTYLE_BEGIN
 90
        2
 91
        1
300
_HEADER
309
CELLSTYLE_END
300
CELLSTYLE
  1
TABLEFORMAT_BEGIN
 90
        5
170
     1
 91
        0
 92
        0
 62
   257
 93
        1
300
CONTENTFORMAT
  1
CONTENTFORMAT_BEGIN
 90
        0
 91
        0
 92
        4
 93
        0
300

 40
0.0
140
1.0
 94
        2
 62
     0
340
11
144
4.5
309
CONTENTFORMAT_END
171
     1
301
MARGIN
  1
CELLMARGIN_BEGIN
 40
1.5
 40
1.5
 40
1.5
 40
1.5
 40
0.18
 40
0.18
309
CELLMARGIN_END
 94
        6
 95
        1
302
GRIDFORMAT
  1
GRIDFORMAT_BEGIN
 90
        0
 91
        1
 62
     0
 92
       -2
340
0
 93
        0
 40
0.045
309
GRIDFORMAT_END
 95
        2
302
GRIDFORMAT
  1
GRIDFORMAT_BEGIN
 90
        0
 91
        1
 62
     0
 92
       -2
340
0
 93
        0
 40
0.045
309
GRIDFORMAT_END
 95
        4
302
GRIDFORMAT
  1
GRIDFORMAT_BEGIN
 90
        0
 91
        1
 62
     0
 92
       -2
340
0
 93
        0
 40
0.045
309
GRIDFORMAT_END
 95
        8
302
GRIDFORMAT
  1
GRIDFORMAT_BEGIN
 90
        0
 91
        1
 62
     0
 92
       -2
340
0
 93
        0
 40
0.045
309
GRIDFORMAT_END
 95
       16
302
GRIDFORMAT
  1
GRIDFORMAT_BEGIN
 90
        0
 91
        1
 62
     0
 92
       -2
340
0
 93
        0
 40
0.045
309
GRIDFORMAT_END
 95
       32
302
GRIDFORMAT
  1
GRIDFORMAT_BEGIN
 90
        0
 91
        1
 62
     0
 92
       -2
340
0
 93
        0
 40
0.045
309
GRIDFORMAT_END
309
TABLEFORMAT_END
  1
CELLSTYLE_BEGIN
 90
        3
 91
        2
300
_DATA
309
CELLSTYLE_END
  0
XRECORD
  5
87F11
102
{ACAD_REACTORS
330
4CD9A
102
}
330
4CD9A
100
AcDbXrecord
280
     1
102
ACAD_ROUNDTRIP_PRE2007_TABLESTYLE
 90
        4
 91
        0
  1

 92
        4
 93
        0
  2

 94
        4
 95
        0
  3

  0
XRECORD
  5
87F13
102
{ACAD_REACTORS
330
876AC
102
}
330
876AC
100
AcDbXrecord
280
     1
102
RTVSPropertyOp0
 70
     1
102
RTVSPropertyOp1
 70
     1
102
RTVSPropertyOp2
 70
     1
102
RTVSPropertyOp3
 70
     1
102
RTVSPropertyOp4
 70
     1
102
RTVSPropertyOp5
 70
     1
102
RTVSPropertyOp6
 70
     1
102
RTVSPropertyOp7
 70
     1
102
RTVSPropertyOp8
 70
     1
102
RTVSPropertyOp9
 70
     1
102
RTVSPropertyOp10
 70
     1
102
RTVSPropertyOp11
 70
     1
102
RTVSPropertyOp12
 70
     1
102
RTVSPropertyOp13
 70
     1
102
RTVSPropertyOp14
 70
     1
102
RTVSPropertyOp15
 70
     1
102
RTVSPropertyOp16
 70
     1
102
RTVSPropertyOp17
 70
     1
102
RTVSPropertyOp18
 70
     1
102
RTVSPropertyOp19
 70
     1
102
RTVSPropertyOp20
 70
     1
102
RTVSPropertyOp21
 70
     1
102
RTVSPropertyOp22
 70
     1
102
RTVSPropertyOp23
 70
     1
102
RTVSPropertyOp24
 70
     1
102
RTVSPropertyOp25
 70
     1
102
RTVSPropertyOp26
 70
     1
102
RTVSPropertyOp27
 70
     1
102
RTVSPropertyOp28
 70
     1
102
RTVSPropertyOp29
 70
     1
102
RTVSPropertyOp30
 70
     1
102
RTVSPropertyOp31
 70
     1
102
RTVSPropertyOp32
 70
     1
102
RTVSPropertyOp33
 70
     1
102
RTVSPropertyOp34
 70
     1
102
RTVSPropertyOp35
 70
     1
102
RTVSPropertyOp36
 70
     1
102
RTVSPropertyOp37
 70
     1
102
RTVSPropertyOp38
 70
     1
102
RTVSPropertyOp39
 70
     1
102
RTVSPropertyOp40
 70
     1
102
RTVSPropertyOp41
 70
     1
102
RTVSPropertyOp42
 70
     1
102
RTVSPropertyOp43
 70
     1
102
RTVSPropertyOp44
 70
     1
102
RTVSPropertyOp45
 70
     1
102
RTVSPropertyOp46
 70
     1
102
RTVSPropertyOp47
 70
     1
102
RTVSPropertyOp48
 70
     1
102
RTVSPropertyOp49
 70
     1
102
RTVSPropertyOp50
 70
     1
102
RTVSPropertyOp51
 70
     0
102
RTVSPropertyOp52
 70
     0
102
RTVSPropertyOp53
 70
     1
102
RTVSPropertyOp54
 70
     1
102
RTVSPropertyOp55
 70
     1
102
RTVSPropertyOp56
 70
     1
102
RTVSPropertyOp57
 70
     1
102
RTVSPost2010Prop28
280
     1
102
RTVSPost2010PropOp28
 70
     1
102
RTVSPost2010Prop29
280
     1
102
RTVSPost2010PropOp29
 70
     1
102
RTVSPost2010Prop30
280
     0
102
RTVSPost2010PropOp30
 70
     1
102
RTVSPost2010Prop31
280
     0
102
RTVSPost2010PropOp31
 70
     1
102
RTVSPost2010Prop32
280
     0
102
RTVSPost2010PropOp32
 70
     1
102
RTVSPost2010Prop33
280
     0
102
RTVSPost2010PropOp33
 70
     1
102
RTVSPost2010Prop34
280
     0
102
RTVSPost2010PropOp34
 70
     1
102
RTVSPost2010Prop35
280
     0
102
RTVSPost2010PropOp35
 70
     1
102
RTVSPost2010Prop36
280
     0
102
RTVSPost2010PropOp36
 70
     1
102
RTVSPost2010Prop37
 90
       50
102
RTVSPost2010PropOp37
 70
     1
102
RTVSPost2010Prop38
140
0.0
102
RTVSPost2010PropOp38
 70
     1
102
RTVSPost2010Prop39
140
1.0
102
RTVSPost2010PropOp39
 70
     1
102
RTVSPost2010Prop40
 90
        0
102
RTVSPost2010PropOp40
 70
     1
102
RTVSPost2010Prop41ColorIndex
 90
       18
102
RTVSPost2010Prop41ColorRGB
 90
        0
102
RTVSPost2010PropOp41
 70
     1
102
RTVSPost2010Prop42
 90
       50
102
RTVSPost2010PropOp42
 70
     1
102
RTVSPost2010Prop43
 90
        3
102
RTVSPost2010PropOp43
 70
     1
102
RTVSPost2010Prop44ColorIndex
 90
        5
102
RTVSPost2010Prop44ColorRGB
 90
      255
102
RTVSPost2010PropOp44
 70
     1
102
RTVSPost2010Prop45
280
     0
102
RTVSPost2010PropOp45
 70
     1
102
RTVSPost2010Prop46
 90
       50
102
RTVSPost2010PropOp46
 70
     1
102
RTVSPost2010Prop47
 90
       50
102
RTVSPost2010PropOp47
 70
     1
102
RTVSPost2010Prop48
 90
       50
102
RTVSPost2010PropOp48
 70
     1
102
RTVSPost2010Prop49
280
     0
102
RTVSPost2010PropOp49
 70
     1
102
RTVSPost2010Prop50
 90
       50
102
RTVSPost2010PropOp50
 70
     1
102
RTVSPost2010Prop51ColorIndex
 90
      256
102
RTVSPost2010Prop51ColorRGB
 90
-16777216
102
RTVSPost2010PropOp51
 70
     0
102
RTVSPost2010Prop52
140
1.0
102
RTVSPost2010PropOp52
 70
     0
102
RTVSPost2010Prop53
 90
        2
102
RTVSPost2010PropOp53
 70
     1
102
RTVSPost2010Prop54
  1
strokes_ogs.tif
102
RTVSPost2010PropOp54
 70
     1
102
RTVSPost2010Prop55
280
     0
102
RTVSPost2010PropOp55
 70
     1
102
RTVSPost2010Prop56
140
1.0
102
RTVSPost2010PropOp56
 70
     1
102
RTVSPost2010Prop57
140
1.0
102
RTVSPost2010PropOp57
 70
     1
  0
XRECORD
  5
87F14
102
{ACAD_REACTORS
330
876AA
102
}
330
876AA
100
AcDbXrecord
280
     1
102
RTVSPropertyOp0
 70
     1
102
RTVSPropertyOp1
 70
     1
102
RTVSPropertyOp2
 70
     1
102
RTVSPropertyOp3
 70
     1
102
RTVSPropertyOp4
 70
     1
102
RTVSPropertyOp5
 70
     1
102
RTVSPropertyOp6
 70
     1
102
RTVSPropertyOp7
 70
     1
102
RTVSPropertyOp8
 70
     1
102
RTVSPropertyOp9
 70
     1
102
RTVSPropertyOp10
 70
     1
102
RTVSPropertyOp11
 70
     1
102
RTVSPropertyOp12
 70
     1
102
RTVSPropertyOp13
 70
     1
102
RTVSPropertyOp14
 70
     1
102
RTVSPropertyOp15
 70
     1
102
RTVSPropertyOp16
 70
     1
102
RTVSPropertyOp17
 70
     1
102
RTVSPropertyOp18
 70
     1
102
RTVSPropertyOp19
 70
     1
102
RTVSPropertyOp20
 70
     1
102
RTVSPropertyOp21
 70
     1
102
RTVSPropertyOp22
 70
     1
102
RTVSPropertyOp23
 70
     1
102
RTVSPropertyOp24
 70
     1
102
RTVSPropertyOp25
 70
     1
102
RTVSPropertyOp26
 70
     1
102
RTVSPropertyOp27
 70
     1
102
RTVSPropertyOp28
 70
     1
102
RTVSPropertyOp29
 70
     1
102
RTVSPropertyOp30
 70
     1
102
RTVSPropertyOp31
 70
     1
102
RTVSPropertyOp32
 70
     1
102
RTVSPropertyOp33
 70
     1
102
RTVSPropertyOp34
 70
     1
102
RTVSPropertyOp35
 70
     1
102
RTVSPropertyOp36
 70
     1
102
RTVSPropertyOp37
 70
     1
102
RTVSPropertyOp38
 70
     1
102
RTVSPropertyOp39
 70
     1
102
RTVSPropertyOp40
 70
     1
102
RTVSPropertyOp41
 70
     1
102
RTVSPropertyOp42
 70
     1
102
RTVSPropertyOp43
 70
     1
102
RTVSPropertyOp44
 70
     1
102
RTVSPropertyOp45
 70
     1
102
RTVSPropertyOp46
 70
     1
102
RTVSPropertyOp47
 70
     1
102
RTVSPropertyOp48
 70
     1
102
RTVSPropertyOp49
 70
     1
102
RTVSPropertyOp50
 70
     1
102
RTVSPropertyOp51
 70
     0
102
RTVSPropertyOp52
 70
     0
102
RTVSPropertyOp53
 70
     1
102
RTVSPropertyOp54
 70
     1
102
RTVSPropertyOp55
 70
     1
102
RTVSPropertyOp56
 70
     1
102
RTVSPropertyOp57
 70
     1
102
RTVSPost2010Prop28
280
     0
102
RTVSPost2010PropOp28
 70
     1
102
RTVSPost2010Prop29
280
     1
102
RTVSPost2010PropOp29
 70
     1
102
RTVSPost2010Prop30
280
     1
102
RTVSPost2010PropOp30
 70
     1
102
RTVSPost2010Prop31
280
     0
102
RTVSPost2010PropOp31
 70
     1
102
RTVSPost2010Prop32
280
     0
102
RTVSPost2010PropOp32
 70
     1
102
RTVSPost2010Prop33
280
     0
102
RTVSPost2010PropOp33
 70
     1
102
RTVSPost2010Prop34
280
     0
102
RTVSPost2010PropOp34
 70
     1
102
RTVSPost2010Prop35
280
     0
102
RTVSPost2010PropOp35
 70
     1
102
RTVSPost2010Prop36
280
     0
102
RTVSPost2010PropOp36
 70
     1
102
RTVSPost2010Prop37
 90
       50
102
RTVSPost2010PropOp37
 70
     1
102
RTVSPost2010Prop38
140
0.0
102
RTVSPost2010PropOp38
 70
     1
102
RTVSPost2010Prop39
140
1.0
102
RTVSPost2010PropOp39
 70
     1
102
RTVSPost2010Prop40
 90
        0
102
RTVSPost2010PropOp40
 70
     1
102
RTVSPost2010Prop41ColorIndex
 90
       18
102
RTVSPost2010Prop41ColorRGB
 90
        0
102
RTVSPost2010PropOp41
 70
     1
102
RTVSPost2010Prop42
 90
       50
102
RTVSPost2010PropOp42
 70
     1
102
RTVSPost2010Prop43
 90
        3
102
RTVSPost2010PropOp43
 70
     1
102
RTVSPost2010Prop44ColorIndex
 90
        5
102
RTVSPost2010Prop44ColorRGB
 90
      255
102
RTVSPost2010PropOp44
 70
     1
102
RTVSPost2010Prop45
280
     0
102
RTVSPost2010PropOp45
 70
     1
102
RTVSPost2010Prop46
 90
       50
102
RTVSPost2010PropOp46
 70
     1
102
RTVSPost2010Prop47
 90
       50
102
RTVSPost2010PropOp47
 70
     1
102
RTVSPost2010Prop48
 90
       50
102
RTVSPost2010PropOp48
 70
     1
102
RTVSPost2010Prop49
280
     0
102
RTVSPost2010PropOp49
 70
     1
102
RTVSPost2010Prop50
 90
       50
102
RTVSPost2010PropOp50
 70
     1
102
RTVSPost2010Prop51ColorIndex
 90
      256
102
RTVSPost2010Prop51ColorRGB
 90
-16777216
102
RTVSPost2010PropOp51
 70
     0
102
RTVSPost2010Prop52
140
1.0
102
RTVSPost2010PropOp52
 70
     0
102
RTVSPost2010Prop53
 90
        2
102
RTVSPost2010PropOp53
 70
     1
102
RTVSPost2010Prop54
  1
strokes_ogs.tif
102
RTVSPost2010PropOp54
 70
     1
102
RTVSPost2010Prop55
280
     0
102
RTVSPost2010PropOp55
 70
     1
102
RTVSPost2010Prop56
140
1.0
102
RTVSPost2010PropOp56
 70
     1
102
RTVSPost2010Prop57
140
1.0
102
RTVSPost2010PropOp57
 70
     1
  0
XRECORD
  5
87F15
102
{ACAD_REACTORS
330
876B8
102
}
330
876B8
100
AcDbXrecord
280
     1
102
RTVSPropertyOp0
 70
     1
102
RTVSPropertyOp1
 70
     1
102
RTVSPropertyOp2
 70
     1
102
RTVSPropertyOp3
 70
     1
102
RTVSPropertyOp4
 70
     1
102
RTVSPropertyOp5
 70
     1
102
RTVSPropertyOp6
 70
     1
102
RTVSPropertyOp7
 70
     1
102
RTVSPropertyOp8
 70
     1
102
RTVSPropertyOp9
 70
     1
102
RTVSPropertyOp10
 70
     1
102
RTVSPropertyOp11
 70
     1
102
RTVSPropertyOp12
 70
     1
102
RTVSPropertyOp13
 70
     1
102
RTVSPropertyOp14
 70
     1
102
RTVSPropertyOp15
 70
     1
102
RTVSPropertyOp16
 70
     1
102
RTVSPropertyOp17
 70
     1
102
RTVSPropertyOp18
 70
     1
102
RTVSPropertyOp19
 70
     1
102
RTVSPropertyOp20
 70
     1
102
RTVSPropertyOp21
 70
     1
102
RTVSPropertyOp22
 70
     1
102
RTVSPropertyOp23
 70
     1
102
RTVSPropertyOp24
 70
     1
102
RTVSPropertyOp25
 70
     1
102
RTVSPropertyOp26
 70
     1
102
RTVSPropertyOp27
 70
     1
102
RTVSPropertyOp28
 70
     1
102
RTVSPropertyOp29
 70
     1
102
RTVSPropertyOp30
 70
     1
102
RTVSPropertyOp31
 70
     1
102
RTVSPropertyOp32
 70
     1
102
RTVSPropertyOp33
 70
     1
102
RTVSPropertyOp34
 70
     1
102
RTVSPropertyOp35
 70
     1
102
RTVSPropertyOp36
 70
     1
102
RTVSPropertyOp37
 70
     1
102
RTVSPropertyOp38
 70
     1
102
RTVSPropertyOp39
 70
     1
102
RTVSPropertyOp40
 70
     1
102
RTVSPropertyOp41
 70
     1
102
RTVSPropertyOp42
 70
     1
102
RTVSPropertyOp43
 70
     1
102
RTVSPropertyOp44
 70
     1
102
RTVSPropertyOp45
 70
     1
102
RTVSPropertyOp46
 70
     1
102
RTVSPropertyOp47
 70
     1
102
RTVSPropertyOp48
 70
     1
102
RTVSPropertyOp49
 70
     1
102
RTVSPropertyOp50
 70
     1
102
RTVSPropertyOp51
 70
     0
102
RTVSPropertyOp52
 70
     0
102
RTVSPropertyOp53
 70
     1
102
RTVSPropertyOp54
 70
     1
102
RTVSPropertyOp55
 70
     1
102
RTVSPropertyOp56
 70
     1
102
RTVSPropertyOp57
 70
     1
102
RTVSPost2010Prop28
280
     0
102
RTVSPost2010PropOp28
 70
     1
102
RTVSPost2010Prop29
280
     1
102
RTVSPost2010PropOp29
 70
     1
102
RTVSPost2010Prop30
280
     1
102
RTVSPost2010PropOp30
 70
     1
102
RTVSPost2010Prop31
280
     0
102
RTVSPost2010PropOp31
 70
     1
102
RTVSPost2010Prop32
280
     0
102
RTVSPost2010PropOp32
 70
     1
102
RTVSPost2010Prop33
280
     0
102
RTVSPost2010PropOp33
 70
     1
102
RTVSPost2010Prop34
280
     0
102
RTVSPost2010PropOp34
 70
     1
102
RTVSPost2010Prop35
280
     0
102
RTVSPost2010PropOp35
 70
     1
102
RTVSPost2010Prop36
280
     0
102
RTVSPost2010PropOp36
 70
     1
102
RTVSPost2010Prop37
 90
       50
102
RTVSPost2010PropOp37
 70
     1
102
RTVSPost2010Prop38
140
0.0
102
RTVSPost2010PropOp38
 70
     1
102
RTVSPost2010Prop39
140
1.0
102
RTVSPost2010PropOp39
 70
     1
102
RTVSPost2010Prop40
 90
        0
102
RTVSPost2010PropOp40
 70
     1
102
RTVSPost2010Prop41ColorIndex
 90
       18
102
RTVSPost2010Prop41ColorRGB
 90
        0
102
RTVSPost2010PropOp41
 70
     1
102
RTVSPost2010Prop42
 90
       50
102
RTVSPost2010PropOp42
 70
     1
102
RTVSPost2010Prop43
 90
        3
102
RTVSPost2010PropOp43
 70
     1
102
RTVSPost2010Prop44ColorIndex
 90
        5
102
RTVSPost2010Prop44ColorRGB
 90
      255
102
RTVSPost2010PropOp44
 70
     1
102
RTVSPost2010Prop45
280
     0
102
RTVSPost2010PropOp45
 70
     1
102
RTVSPost2010Prop46
 90
       50
102
RTVSPost2010PropOp46
 70
     1
102
RTVSPost2010Prop47
 90
       50
102
RTVSPost2010PropOp47
 70
     1
102
RTVSPost2010Prop48
 90
       50
102
RTVSPost2010PropOp48
 70
     1
102
RTVSPost2010Prop49
280
     0
102
RTVSPost2010PropOp49
 70
     1
102
RTVSPost2010Prop50
 90
       50
102
RTVSPost2010PropOp50
 70
     1
102
RTVSPost2010Prop51ColorIndex
 90
      256
102
RTVSPost2010Prop51ColorRGB
 90
-16777216
102
RTVSPost2010PropOp51
 70
     0
102
RTVSPost2010Prop52
140
1.0
102
RTVSPost2010PropOp52
 70
     0
102
RTVSPost2010Prop53
 90
        2
102
RTVSPost2010PropOp53
 70
     1
102
RTVSPost2010Prop54
  1
strokes_ogs.tif
102
RTVSPost2010PropOp54
 70
     1
102
RTVSPost2010Prop55
280
     0
102
RTVSPost2010PropOp55
 70
     1
102
RTVSPost2010Prop56
140
1.0
102
RTVSPost2010PropOp56
 70
     1
102
RTVSPost2010Prop57
140
1.0
102
RTVSPost2010PropOp57
 70
     1
  0
XRECORD
  5
87F16
102
{ACAD_REACTORS
330
876C0
102
}
330
876C0
100
AcDbXrecord
280
     1
102
RTVSPropertyOp0
 70
     1
102
RTVSPropertyOp1
 70
     1
102
RTVSPropertyOp2
 70
     1
102
RTVSPropertyOp3
 70
     1
102
RTVSPropertyOp4
 70
     1
102
RTVSPropertyOp5
 70
     1
102
RTVSPropertyOp6
 70
     1
102
RTVSPropertyOp7
 70
     1
102
RTVSPropertyOp8
 70
     1
102
RTVSPropertyOp9
 70
     1
102
RTVSPropertyOp10
 70
     1
102
RTVSPropertyOp11
 70
     1
102
RTVSPropertyOp12
 70
     1
102
RTVSPropertyOp13
 70
     1
102
RTVSPropertyOp14
 70
     1
102
RTVSPropertyOp15
 70
     1
102
RTVSPropertyOp16
 70
     1
102
RTVSPropertyOp17
 70
     1
102
RTVSPropertyOp18
 70
     1
102
RTVSPropertyOp19
 70
     1
102
RTVSPropertyOp20
 70
     1
102
RTVSPropertyOp21
 70
     1
102
RTVSPropertyOp22
 70
     1
102
RTVSPropertyOp23
 70
     1
102
RTVSPropertyOp24
 70
     1
102
RTVSPropertyOp25
 70
     1
102
RTVSPropertyOp26
 70
     1
102
RTVSPropertyOp27
 70
     1
102
RTVSPropertyOp28
 70
     1
102
RTVSPropertyOp29
 70
     1
102
RTVSPropertyOp30
 70
     1
102
RTVSPropertyOp31
 70
     1
102
RTVSPropertyOp32
 70
     1
102
RTVSPropertyOp33
 70
     1
102
RTVSPropertyOp34
 70
     1
102
RTVSPropertyOp35
 70
     1
102
RTVSPropertyOp36
 70
     1
102
RTVSPropertyOp37
 70
     1
102
RTVSPropertyOp38
 70
     1
102
RTVSPropertyOp39
 70
     1
102
RTVSPropertyOp40
 70
     1
102
RTVSPropertyOp41
 70
     1
102
RTVSPropertyOp42
 70
     1
102
RTVSPropertyOp43
 70
     1
102
RTVSPropertyOp44
 70
     1
102
RTVSPropertyOp45
 70
     1
102
RTVSPropertyOp46
 70
     1
102
RTVSPropertyOp47
 70
     1
102
RTVSPropertyOp48
 70
     1
102
RTVSPropertyOp49
 70
     1
102
RTVSPropertyOp50
 70
     1
102
RTVSPropertyOp51
 70
     0
102
RTVSPropertyOp52
 70
     0
102
RTVSPropertyOp53
 70
     1
102
RTVSPropertyOp54
 70
     1
102
RTVSPropertyOp55
 70
     1
102
RTVSPropertyOp56
 70
     1
102
RTVSPropertyOp57
 70
     1
102
RTVSPost2010Prop28
280
     0
102
RTVSPost2010PropOp28
 70
     1
102
RTVSPost2010Prop29
280
     1
102
RTVSPost2010PropOp29
 70
     1
102
RTVSPost2010Prop30
280
     1
102
RTVSPost2010PropOp30
 70
     1
102
RTVSPost2010Prop31
280
     0
102
RTVSPost2010PropOp31
 70
     1
102
RTVSPost2010Prop32
280
     0
102
RTVSPost2010PropOp32
 70
     1
102
RTVSPost2010Prop33
280
     0
102
RTVSPost2010PropOp33
 70
     1
102
RTVSPost2010Prop34
280
     0
102
RTVSPost2010PropOp34
 70
     1
102
RTVSPost2010Prop35
280
     0
102
RTVSPost2010PropOp35
 70
     1
102
RTVSPost2010Prop36
280
     0
102
RTVSPost2010PropOp36
 70
     1
102
RTVSPost2010Prop37
 90
       50
102
RTVSPost2010PropOp37
 70
     1
102
RTVSPost2010Prop38
140
0.0
102
RTVSPost2010PropOp38
 70
     1
102
RTVSPost2010Prop39
140
1.0
102
RTVSPost2010PropOp39
 70
     1
102
RTVSPost2010Prop40
 90
        0
102
RTVSPost2010PropOp40
 70
     1
102
RTVSPost2010Prop41ColorIndex
 90
       18
102
RTVSPost2010Prop41ColorRGB
 90
        0
102
RTVSPost2010PropOp41
 70
     1
102
RTVSPost2010Prop42
 90
       50
102
RTVSPost2010PropOp42
 70
     1
102
RTVSPost2010Prop43
 90
        3
102
RTVSPost2010PropOp43
 70
     1
102
RTVSPost2010Prop44ColorIndex
 90
        5
102
RTVSPost2010Prop44ColorRGB
 90
      255
102
RTVSPost2010PropOp44
 70
     1
102
RTVSPost2010Prop45
280
     0
102
RTVSPost2010PropOp45
 70
     1
102
RTVSPost2010Prop46
 90
       50
102
RTVSPost2010PropOp46
 70
     1
102
RTVSPost2010Prop47
 90
       50
102
RTVSPost2010PropOp47
 70
     1
102
RTVSPost2010Prop48
 90
       50
102
RTVSPost2010PropOp48
 70
     1
102
RTVSPost2010Prop49
280
     0
102
RTVSPost2010PropOp49
 70
     1
102
RTVSPost2010Prop50
 90
       50
102
RTVSPost2010PropOp50
 70
     1
102
RTVSPost2010Prop51ColorIndex
 90
      256
102
RTVSPost2010Prop51ColorRGB
 90
-16777216
102
RTVSPost2010PropOp51
 70
     0
102
RTVSPost2010Prop52
140
1.0
102
RTVSPost2010PropOp52
 70
     0
102
RTVSPost2010Prop53
 90
        2
102
RTVSPost2010PropOp53
 70
     1
102
RTVSPost2010Prop54
  1
strokes_ogs.tif
102
RTVSPost2010PropOp54
 70
     1
102
RTVSPost2010Prop55
280
     0
102
RTVSPost2010PropOp55
 70
     1
102
RTVSPost2010Prop56
140
1.0
102
RTVSPost2010PropOp56
 70
     1
102
RTVSPost2010Prop57
140
1.0
102
RTVSPost2010PropOp57
 70
     1
  0
XRECORD
  5
87F17
102
{ACAD_REACTORS
330
876B2
102
}
330
876B2
100
AcDbXrecord
280
     1
102
RTVSPropertyOp0
 70
     1
102
RTVSPropertyOp1
 70
     1
102
RTVSPropertyOp2
 70
     1
102
RTVSPropertyOp3
 70
     1
102
RTVSPropertyOp4
 70
     1
102
RTVSPropertyOp5
 70
     1
102
RTVSPropertyOp6
 70
     1
102
RTVSPropertyOp7
 70
     1
102
RTVSPropertyOp8
 70
     1
102
RTVSPropertyOp9
 70
     1
102
RTVSPropertyOp10
 70
     1
102
RTVSPropertyOp11
 70
     1
102
RTVSPropertyOp12
 70
     1
102
RTVSPropertyOp13
 70
     1
102
RTVSPropertyOp14
 70
     1
102
RTVSPropertyOp15
 70
     1
102
RTVSPropertyOp16
 70
     1
102
RTVSPropertyOp17
 70
     1
102
RTVSPropertyOp18
 70
     1
102
RTVSPropertyOp19
 70
     1
102
RTVSPropertyOp20
 70
     1
102
RTVSPropertyOp21
 70
     1
102
RTVSPropertyOp22
 70
     1
102
RTVSPropertyOp23
 70
     1
102
RTVSPropertyOp24
 70
     1
102
RTVSPropertyOp25
 70
     1
102
RTVSPropertyOp26
 70
     1
102
RTVSPropertyOp27
 70
     1
102
RTVSPropertyOp28
 70
     1
102
RTVSPropertyOp29
 70
     1
102
RTVSPropertyOp30
 70
     1
102
RTVSPropertyOp31
 70
     1
102
RTVSPropertyOp32
 70
     1
102
RTVSPropertyOp33
 70
     1
102
RTVSPropertyOp34
 70
     1
102
RTVSPropertyOp35
 70
     1
102
RTVSPropertyOp36
 70
     1
102
RTVSPropertyOp37
 70
     1
102
RTVSPropertyOp38
 70
     1
102
RTVSPropertyOp39
 70
     1
102
RTVSPropertyOp40
 70
     1
102
RTVSPropertyOp41
 70
     1
102
RTVSPropertyOp42
 70
     1
102
RTVSPropertyOp43
 70
     1
102
RTVSPropertyOp44
 70
     1
102
RTVSPropertyOp45
 70
     1
102
RTVSPropertyOp46
 70
     1
102
RTVSPropertyOp47
 70
     1
102
RTVSPropertyOp48
 70
     1
102
RTVSPropertyOp49
 70
     1
102
RTVSPropertyOp50
 70
     1
102
RTVSPropertyOp51
 70
     0
102
RTVSPropertyOp52
 70
     0
102
RTVSPropertyOp53
 70
     1
102
RTVSPropertyOp54
 70
     1
102
RTVSPropertyOp55
 70
     1
102
RTVSPropertyOp56
 70
     1
102
RTVSPropertyOp57
 70
     1
102
RTVSPost2010Prop28
280
     0
102
RTVSPost2010PropOp28
 70
     1
102
RTVSPost2010Prop29
280
     1
102
RTVSPost2010PropOp29
 70
     1
102
RTVSPost2010Prop30
280
     1
102
RTVSPost2010PropOp30
 70
     1
102
RTVSPost2010Prop31
280
     0
102
RTVSPost2010PropOp31
 70
     1
102
RTVSPost2010Prop32
280
     0
102
RTVSPost2010PropOp32
 70
     1
102
RTVSPost2010Prop33
280
     0
102
RTVSPost2010PropOp33
 70
     1
102
RTVSPost2010Prop34
280
     0
102
RTVSPost2010PropOp34
 70
     1
102
RTVSPost2010Prop35
280
     0
102
RTVSPost2010PropOp35
 70
     1
102
RTVSPost2010Prop36
280
     0
102
RTVSPost2010PropOp36
 70
     1
102
RTVSPost2010Prop37
 90
       50
102
RTVSPost2010PropOp37
 70
     1
102
RTVSPost2010Prop38
140
0.0
102
RTVSPost2010PropOp38
 70
     1
102
RTVSPost2010Prop39
140
1.0
102
RTVSPost2010PropOp39
 70
     1
102
RTVSPost2010Prop40
 90
        0
102
RTVSPost2010PropOp40
 70
     1
102
RTVSPost2010Prop41ColorIndex
 90
       18
102
RTVSPost2010Prop41ColorRGB
 90
        0
102
RTVSPost2010PropOp41
 70
     1
102
RTVSPost2010Prop42
 90
       50
102
RTVSPost2010PropOp42
 70
     1
102
RTVSPost2010Prop43
 90
        3
102
RTVSPost2010PropOp43
 70
     1
102
RTVSPost2010Prop44ColorIndex
 90
        5
102
RTVSPost2010Prop44ColorRGB
 90
      255
102
RTVSPost2010PropOp44
 70
     1
102
RTVSPost2010Prop45
280
     0
102
RTVSPost2010PropOp45
 70
     1
102
RTVSPost2010Prop46
 90
       50
102
RTVSPost2010PropOp46
 70
     1
102
RTVSPost2010Prop47
 90
       50
102
RTVSPost2010PropOp47
 70
     1
102
RTVSPost2010Prop48
 90
       50
102
RTVSPost2010PropOp48
 70
     1
102
RTVSPost2010Prop49
280
     0
102
RTVSPost2010PropOp49
 70
     1
102
RTVSPost2010Prop50
 90
       50
102
RTVSPost2010PropOp50
 70
     1
102
RTVSPost2010Prop51ColorIndex
 90
      256
102
RTVSPost2010Prop51ColorRGB
 90
-16777216
102
RTVSPost2010PropOp51
 70
     0
102
RTVSPost2010Prop52
140
1.0
102
RTVSPost2010PropOp52
 70
     0
102
RTVSPost2010Prop53
 90
        2
102
RTVSPost2010PropOp53
 70
     1
102
RTVSPost2010Prop54
  1
strokes_ogs.tif
102
RTVSPost2010PropOp54
 70
     1
102
RTVSPost2010Prop55
280
     0
102
RTVSPost2010PropOp55
 70
     1
102
RTVSPost2010Prop56
140
1.0
102
RTVSPost2010PropOp56
 70
     1
102
RTVSPost2010Prop57
140
1.0
102
RTVSPost2010PropOp57
 70
     1
  0
XRECORD
  5
87F18
102
{ACAD_REACTORS
330
876B6
102
}
330
876B6
100
AcDbXrecord
280
     1
102
RTVSPropertyOp0
 70
     1
102
RTVSPropertyOp1
 70
     1
102
RTVSPropertyOp2
 70
     1
102
RTVSPropertyOp3
 70
     1
102
RTVSPropertyOp4
 70
     1
102
RTVSPropertyOp5
 70
     1
102
RTVSPropertyOp6
 70
     1
102
RTVSPropertyOp7
 70
     1
102
RTVSPropertyOp8
 70
     1
102
RTVSPropertyOp9
 70
     1
102
RTVSPropertyOp10
 70
     1
102
RTVSPropertyOp11
 70
     1
102
RTVSPropertyOp12
 70
     1
102
RTVSPropertyOp13
 70
     1
102
RTVSPropertyOp14
 70
     1
102
RTVSPropertyOp15
 70
     1
102
RTVSPropertyOp16
 70
     1
102
RTVSPropertyOp17
 70
     1
102
RTVSPropertyOp18
 70
     1
102
RTVSPropertyOp19
 70
     1
102
RTVSPropertyOp20
 70
     1
102
RTVSPropertyOp21
 70
     1
102
RTVSPropertyOp22
 70
     1
102
RTVSPropertyOp23
 70
     1
102
RTVSPropertyOp24
 70
     1
102
RTVSPropertyOp25
 70
     1
102
RTVSPropertyOp26
 70
     1
102
RTVSPropertyOp27
 70
     1
102
RTVSPropertyOp28
 70
     1
102
RTVSPropertyOp29
 70
     1
102
RTVSPropertyOp30
 70
     1
102
RTVSPropertyOp31
 70
     1
102
RTVSPropertyOp32
 70
     1
102
RTVSPropertyOp33
 70
     1
102
RTVSPropertyOp34
 70
     1
102
RTVSPropertyOp35
 70
     1
102
RTVSPropertyOp36
 70
     1
102
RTVSPropertyOp37
 70
     1
102
RTVSPropertyOp38
 70
     1
102
RTVSPropertyOp39
 70
     1
102
RTVSPropertyOp40
 70
     1
102
RTVSPropertyOp41
 70
     1
102
RTVSPropertyOp42
 70
     1
102
RTVSPropertyOp43
 70
     1
102
RTVSPropertyOp44
 70
     1
102
RTVSPropertyOp45
 70
     1
102
RTVSPropertyOp46
 70
     1
102
RTVSPropertyOp47
 70
     1
102
RTVSPropertyOp48
 70
     1
102
RTVSPropertyOp49
 70
     1
102
RTVSPropertyOp50
 70
     1
102
RTVSPropertyOp51
 70
     0
102
RTVSPropertyOp52
 70
     0
102
RTVSPropertyOp53
 70
     1
102
RTVSPropertyOp54
 70
     1
102
RTVSPropertyOp55
 70
     1
102
RTVSPropertyOp56
 70
     1
102
RTVSPropertyOp57
 70
     1
102
RTVSPost2010Prop28
280
     0
102
RTVSPost2010PropOp28
 70
     1
102
RTVSPost2010Prop29
280
     1
102
RTVSPost2010PropOp29
 70
     1
102
RTVSPost2010Prop30
280
     1
102
RTVSPost2010PropOp30
 70
     1
102
RTVSPost2010Prop31
280
     0
102
RTVSPost2010PropOp31
 70
     1
102
RTVSPost2010Prop32
280
     0
102
RTVSPost2010PropOp32
 70
     1
102
RTVSPost2010Prop33
280
     0
102
RTVSPost2010PropOp33
 70
     1
102
RTVSPost2010Prop34
280
     0
102
RTVSPost2010PropOp34
 70
     1
102
RTVSPost2010Prop35
280
     0
102
RTVSPost2010PropOp35
 70
     1
102
RTVSPost2010Prop36
280
     0
102
RTVSPost2010PropOp36
 70
     1
102
RTVSPost2010Prop37
 90
       50
102
RTVSPost2010PropOp37
 70
     1
102
RTVSPost2010Prop38
140
0.0
102
RTVSPost2010PropOp38
 70
     1
102
RTVSPost2010Prop39
140
1.0
102
RTVSPost2010PropOp39
 70
     1
102
RTVSPost2010Prop40
 90
        0
102
RTVSPost2010PropOp40
 70
     1
102
RTVSPost2010Prop41ColorIndex
 90
       18
102
RTVSPost2010Prop41ColorRGB
 90
        0
102
RTVSPost2010PropOp41
 70
     1
102
RTVSPost2010Prop42
 90
       50
102
RTVSPost2010PropOp42
 70
     1
102
RTVSPost2010Prop43
 90
        3
102
RTVSPost2010PropOp43
 70
     1
102
RTVSPost2010Prop44ColorIndex
 90
        5
102
RTVSPost2010Prop44ColorRGB
 90
      255
102
RTVSPost2010PropOp44
 70
     1
102
RTVSPost2010Prop45
280
     0
102
RTVSPost2010PropOp45
 70
     1
102
RTVSPost2010Prop46
 90
       50
102
RTVSPost2010PropOp46
 70
     1
102
RTVSPost2010Prop47
 90
       50
102
RTVSPost2010PropOp47
 70
     1
102
RTVSPost2010Prop48
 90
       50
102
RTVSPost2010PropOp48
 70
     1
102
RTVSPost2010Prop49
280
     0
102
RTVSPost2010PropOp49
 70
     1
102
RTVSPost2010Prop50
 90
       50
102
RTVSPost2010PropOp50
 70
     1
102
RTVSPost2010Prop51ColorIndex
 90
      256
102
RTVSPost2010Prop51ColorRGB
 90
-16777216
102
RTVSPost2010PropOp51
 70
     0
102
RTVSPost2010Prop52
140
1.0
102
RTVSPost2010PropOp52
 70
     0
102
RTVSPost2010Prop53
 90
        2
102
RTVSPost2010PropOp53
 70
     1
102
RTVSPost2010Prop54
  1
strokes_ogs.tif
102
RTVSPost2010PropOp54
 70
     1
102
RTVSPost2010Prop55
280
     0
102
RTVSPost2010PropOp55
 70
     1
102
RTVSPost2010Prop56
140
1.0
102
RTVSPost2010PropOp56
 70
     1
102
RTVSPost2010Prop57
140
1.0
102
RTVSPost2010PropOp57
 70
     1
  0
XRECORD
  5
87F19
102
{ACAD_REACTORS
330
876D0
102
}
330
876D0
100
AcDbXrecord
280
     1
102
RTVSPropertyOp0
 70
     0
102
RTVSPropertyOp1
 70
     0
102
RTVSPropertyOp2
 70
     0
102
RTVSPropertyOp3
 70
     0
102
RTVSPropertyOp4
 70
     0
102
RTVSPropertyOp5
 70
     0
102
RTVSPropertyOp6
 70
     0
102
RTVSPropertyOp7
 70
     0
102
RTVSPropertyOp8
 70
     0
102
RTVSPropertyOp9
 70
     0
102
RTVSPropertyOp10
 70
     0
102
RTVSPropertyOp11
 70
     0
102
RTVSPropertyOp12
 70
     0
102
RTVSPropertyOp13
 70
     0
102
RTVSPropertyOp14
 70
     2
102
RTVSPropertyOp15
 70
     0
102
RTVSPropertyOp16
 70
     0
102
RTVSPropertyOp17
 70
     0
102
RTVSPropertyOp18
 70
     0
102
RTVSPropertyOp19
 70
     0
102
RTVSPropertyOp20
 70
     0
102
RTVSPropertyOp21
 70
     0
102
RTVSPropertyOp22
 70
     0
102
RTVSPropertyOp23
 70
     0
102
RTVSPropertyOp24
 70
     0
102
RTVSPropertyOp25
 70
     0
102
RTVSPropertyOp26
 70
     0
102
RTVSPropertyOp27
 70
     0
102
RTVSPropertyOp28
 70
     1
102
RTVSPropertyOp29
 70
     1
102
RTVSPropertyOp30
 70
     1
102
RTVSPropertyOp31
 70
     1
102
RTVSPropertyOp32
 70
     1
102
RTVSPropertyOp33
 70
     1
102
RTVSPropertyOp34
 70
     1
102
RTVSPropertyOp35
 70
     1
102
RTVSPropertyOp36
 70
     1
102
RTVSPropertyOp37
 70
     0
102
RTVSPropertyOp38
 70
     0
102
RTVSPropertyOp39
 70
     0
102
RTVSPropertyOp40
 70
     0
102
RTVSPropertyOp41
 70
     0
102
RTVSPropertyOp42
 70
     0
102
RTVSPropertyOp43
 70
     0
102
RTVSPropertyOp44
 70
     0
102
RTVSPropertyOp45
 70
     1
102
RTVSPropertyOp46
 70
     0
102
RTVSPropertyOp47
 70
     0
102
RTVSPropertyOp48
 70
     0
102
RTVSPropertyOp49
 70
     1
102
RTVSPropertyOp50
 70
     0
102
RTVSPropertyOp51
 70
     0
102
RTVSPropertyOp52
 70
     0
102
RTVSPropertyOp53
 70
     0
102
RTVSPropertyOp54
 70
     0
102
RTVSPropertyOp55
 70
     1
102
RTVSPropertyOp56
 70
     0
102
RTVSPropertyOp57
 70
     0
102
RTVSPost2010Prop28
280
     0
102
RTVSPost2010PropOp28
 70
     1
102
RTVSPost2010Prop29
280
     1
102
RTVSPost2010PropOp29
 70
     1
102
RTVSPost2010Prop30
280
     1
102
RTVSPost2010PropOp30
 70
     1
102
RTVSPost2010Prop31
280
     0
102
RTVSPost2010PropOp31
 70
     1
102
RTVSPost2010Prop32
280
     0
102
RTVSPost2010PropOp32
 70
     1
102
RTVSPost2010Prop33
280
     0
102
RTVSPost2010PropOp33
 70
     1
102
RTVSPost2010Prop34
280
     0
102
RTVSPost2010PropOp34
 70
     1
102
RTVSPost2010Prop35
280
     0
102
RTVSPost2010PropOp35
 70
     1
102
RTVSPost2010Prop36
280
     0
102
RTVSPost2010PropOp36
 70
     1
102
RTVSPost2010Prop37
 90
       50
102
RTVSPost2010PropOp37
 70
     0
102
RTVSPost2010Prop38
140
0.0
102
RTVSPost2010PropOp38
 70
     0
102
RTVSPost2010Prop39
140
1.0
102
RTVSPost2010PropOp39
 70
     0
102
RTVSPost2010Prop40
 90
        0
102
RTVSPost2010PropOp40
 70
     0
102
RTVSPost2010Prop41ColorIndex
 90
       18
102
RTVSPost2010Prop41ColorRGB
 90
        0
102
RTVSPost2010PropOp41
 70
     0
102
RTVSPost2010Prop42
 90
       50
102
RTVSPost2010PropOp42
 70
     0
102
RTVSPost2010Prop43
 90
        3
102
RTVSPost2010PropOp43
 70
     0
102
RTVSPost2010Prop44ColorIndex
 90
        5
102
RTVSPost2010Prop44ColorRGB
 90
      255
102
RTVSPost2010PropOp44
 70
     0
102
RTVSPost2010Prop45
280
     0
102
RTVSPost2010PropOp45
 70
     1
102
RTVSPost2010Prop46
 90
       50
102
RTVSPost2010PropOp46
 70
     0
102
RTVSPost2010Prop47
 90
       50
102
RTVSPost2010PropOp47
 70
     0
102
RTVSPost2010Prop48
 90
       50
102
RTVSPost2010PropOp48
 70
     0
102
RTVSPost2010Prop49
280
     0
102
RTVSPost2010PropOp49
 70
     1
102
RTVSPost2010Prop50
 90
       50
102
RTVSPost2010PropOp50
 70
     0
102
RTVSPost2010Prop51ColorIndex
 90
      256
102
RTVSPost2010Prop51ColorRGB
 90
-16777216
102
RTVSPost2010PropOp51
 70
     0
102
RTVSPost2010Prop52
140
1.0
102
RTVSPost2010PropOp52
 70
     0
102
RTVSPost2010Prop53
 90
        2
102
RTVSPost2010PropOp53
 70
     0
102
RTVSPost2010Prop54
  1
strokes_ogs.tif
102
RTVSPost2010PropOp54
 70
     0
102
RTVSPost2010Prop55
280
     0
102
RTVSPost2010PropOp55
 70
     1
102
RTVSPost2010Prop56
140
1.0
102
RTVSPost2010PropOp56
 70
     0
102
RTVSPost2010Prop57
140
1.0
102
RTVSPost2010PropOp57
 70
     0
  0
XRECORD
  5
87F1A
102
{ACAD_REACTORS
330
876BE
102
}
330
876BE
100
AcDbXrecord
280
     1
102
RTVSPropertyOp0
 70
     1
102
RTVSPropertyOp1
 70
     1
102
RTVSPropertyOp2
 70
     1
102
RTVSPropertyOp3
 70
     1
102
RTVSPropertyOp4
 70
     1
102
RTVSPropertyOp5
 70
     1
102
RTVSPropertyOp6
 70
     1
102
RTVSPropertyOp7
 70
     1
102
RTVSPropertyOp8
 70
     1
102
RTVSPropertyOp9
 70
     1
102
RTVSPropertyOp10
 70
     1
102
RTVSPropertyOp11
 70
     1
102
RTVSPropertyOp12
 70
     1
102
RTVSPropertyOp13
 70
     1
102
RTVSPropertyOp14
 70
     1
102
RTVSPropertyOp15
 70
     1
102
RTVSPropertyOp16
 70
     1
102
RTVSPropertyOp17
 70
     1
102
RTVSPropertyOp18
 70
     1
102
RTVSPropertyOp19
 70
     1
102
RTVSPropertyOp20
 70
     1
102
RTVSPropertyOp21
 70
     1
102
RTVSPropertyOp22
 70
     1
102
RTVSPropertyOp23
 70
     1
102
RTVSPropertyOp24
 70
     1
102
RTVSPropertyOp25
 70
     1
102
RTVSPropertyOp26
 70
     1
102
RTVSPropertyOp27
 70
     1
102
RTVSPropertyOp28
 70
     1
102
RTVSPropertyOp29
 70
     1
102
RTVSPropertyOp30
 70
     1
102
RTVSPropertyOp31
 70
     1
102
RTVSPropertyOp32
 70
     1
102
RTVSPropertyOp33
 70
     1
102
RTVSPropertyOp34
 70
     1
102
RTVSPropertyOp35
 70
     1
102
RTVSPropertyOp36
 70
     1
102
RTVSPropertyOp37
 70
     1
102
RTVSPropertyOp38
 70
     1
102
RTVSPropertyOp39
 70
     1
102
RTVSPropertyOp40
 70
     1
102
RTVSPropertyOp41
 70
     1
102
RTVSPropertyOp42
 70
     1
102
RTVSPropertyOp43
 70
     1
102
RTVSPropertyOp44
 70
     1
102
RTVSPropertyOp45
 70
     1
102
RTVSPropertyOp46
 70
     1
102
RTVSPropertyOp47
 70
     1
102
RTVSPropertyOp48
 70
     1
102
RTVSPropertyOp49
 70
     1
102
RTVSPropertyOp50
 70
     1
102
RTVSPropertyOp51
 70
     0
102
RTVSPropertyOp52
 70
     0
102
RTVSPropertyOp53
 70
     1
102
RTVSPropertyOp54
 70
     1
102
RTVSPropertyOp55
 70
     1
102
RTVSPropertyOp56
 70
     1
102
RTVSPropertyOp57
 70
     1
102
RTVSPost2010Prop28
280
     0
102
RTVSPost2010PropOp28
 70
     1
102
RTVSPost2010Prop29
280
     1
102
RTVSPost2010PropOp29
 70
     1
102
RTVSPost2010Prop30
280
     1
102
RTVSPost2010PropOp30
 70
     1
102
RTVSPost2010Prop31
280
     0
102
RTVSPost2010PropOp31
 70
     1
102
RTVSPost2010Prop32
280
     0
102
RTVSPost2010PropOp32
 70
     1
102
RTVSPost2010Prop33
280
     0
102
RTVSPost2010PropOp33
 70
     1
102
RTVSPost2010Prop34
280
     0
102
RTVSPost2010PropOp34
 70
     1
102
RTVSPost2010Prop35
280
     0
102
RTVSPost2010PropOp35
 70
     1
102
RTVSPost2010Prop36
280
     0
102
RTVSPost2010PropOp36
 70
     1
102
RTVSPost2010Prop37
 90
       50
102
RTVSPost2010PropOp37
 70
     1
102
RTVSPost2010Prop38
140
0.0
102
RTVSPost2010PropOp38
 70
     1
102
RTVSPost2010Prop39
140
1.0
102
RTVSPost2010PropOp39
 70
     1
102
RTVSPost2010Prop40
 90
        0
102
RTVSPost2010PropOp40
 70
     1
102
RTVSPost2010Prop41ColorIndex
 90
       18
102
RTVSPost2010Prop41ColorRGB
 90
        0
102
RTVSPost2010PropOp41
 70
     1
102
RTVSPost2010Prop42
 90
       50
102
RTVSPost2010PropOp42
 70
     1
102
RTVSPost2010Prop43
 90
        3
102
RTVSPost2010PropOp43
 70
     1
102
RTVSPost2010Prop44ColorIndex
 90
        5
102
RTVSPost2010Prop44ColorRGB
 90
      255
102
RTVSPost2010PropOp44
 70
     1
102
RTVSPost2010Prop45
280
     0
102
RTVSPost2010PropOp45
 70
     1
102
RTVSPost2010Prop46
 90
       50
102
RTVSPost2010PropOp46
 70
     1
102
RTVSPost2010Prop47
 90
       50
102
RTVSPost2010PropOp47
 70
     1
102
RTVSPost2010Prop48
 90
       50
102
RTVSPost2010PropOp48
 70
     1
102
RTVSPost2010Prop49
280
     0
102
RTVSPost2010PropOp49
 70
     1
102
RTVSPost2010Prop50
 90
       50
102
RTVSPost2010PropOp50
 70
     1
102
RTVSPost2010Prop51ColorIndex
 90
      256
102
RTVSPost2010Prop51ColorRGB
 90
-16777216
102
RTVSPost2010PropOp51
 70
     0
102
RTVSPost2010Prop52
140
1.0
102
RTVSPost2010PropOp52
 70
     0
102
RTVSPost2010Prop53
 90
        2
102
RTVSPost2010PropOp53
 70
     1
102
RTVSPost2010Prop54
  1
strokes_ogs.tif
102
RTVSPost2010PropOp54
 70
     1
102
RTVSPost2010Prop55
280
     0
102
RTVSPost2010PropOp55
 70
     1
102
RTVSPost2010Prop56
140
1.0
102
RTVSPost2010PropOp56
 70
     1
102
RTVSPost2010Prop57
140
1.0
102
RTVSPost2010PropOp57
 70
     1
  0
XRECORD
  5
87F1B
102
{ACAD_REACTORS
330
876A2
102
}
330
876A2
100
AcDbXrecord
280
     1
102
RTVSPropertyOp0
 70
     1
102
RTVSPropertyOp1
 70
     1
102
RTVSPropertyOp2
 70
     1
102
RTVSPropertyOp3
 70
     1
102
RTVSPropertyOp4
 70
     1
102
RTVSPropertyOp5
 70
     1
102
RTVSPropertyOp6
 70
     1
102
RTVSPropertyOp7
 70
     1
102
RTVSPropertyOp8
 70
     1
102
RTVSPropertyOp9
 70
     1
102
RTVSPropertyOp10
 70
     1
102
RTVSPropertyOp11
 70
     1
102
RTVSPropertyOp12
 70
     1
102
RTVSPropertyOp13
 70
     1
102
RTVSPropertyOp14
 70
     1
102
RTVSPropertyOp15
 70
     1
102
RTVSPropertyOp16
 70
     1
102
RTVSPropertyOp17
 70
     1
102
RTVSPropertyOp18
 70
     1
102
RTVSPropertyOp19
 70
     1
102
RTVSPropertyOp20
 70
     1
102
RTVSPropertyOp21
 70
     1
102
RTVSPropertyOp22
 70
     1
102
RTVSPropertyOp23
 70
     1
102
RTVSPropertyOp24
 70
     1
102
RTVSPropertyOp25
 70
     1
102
RTVSPropertyOp26
 70
     1
102
RTVSPropertyOp27
 70
     1
102
RTVSPropertyOp28
 70
     1
102
RTVSPropertyOp29
 70
     1
102
RTVSPropertyOp30
 70
     1
102
RTVSPropertyOp31
 70
     1
102
RTVSPropertyOp32
 70
     1
102
RTVSPropertyOp33
 70
     1
102
RTVSPropertyOp34
 70
     1
102
RTVSPropertyOp35
 70
     1
102
RTVSPropertyOp36
 70
     1
102
RTVSPropertyOp37
 70
     1
102
RTVSPropertyOp38
 70
     1
102
RTVSPropertyOp39
 70
     1
102
RTVSPropertyOp40
 70
     1
102
RTVSPropertyOp41
 70
     1
102
RTVSPropertyOp42
 70
     1
102
RTVSPropertyOp43
 70
     1
102
RTVSPropertyOp44
 70
     1
102
RTVSPropertyOp45
 70
     1
102
RTVSPropertyOp46
 70
     1
102
RTVSPropertyOp47
 70
     1
102
RTVSPropertyOp48
 70
     1
102
RTVSPropertyOp49
 70
     1
102
RTVSPropertyOp50
 70
     1
102
RTVSPropertyOp51
 70
     0
102
RTVSPropertyOp52
 70
     0
102
RTVSPropertyOp53
 70
     1
102
RTVSPropertyOp54
 70
     1
102
RTVSPropertyOp55
 70
     1
102
RTVSPropertyOp56
 70
     1
102
RTVSPropertyOp57
 70
     1
102
RTVSPost2010Prop28
280
     0
102
RTVSPost2010PropOp28
 70
     1
102
RTVSPost2010Prop29
280
     1
102
RTVSPost2010PropOp29
 70
     1
102
RTVSPost2010Prop30
280
     1
102
RTVSPost2010PropOp30
 70
     1
102
RTVSPost2010Prop31
280
     0
102
RTVSPost2010PropOp31
 70
     1
102
RTVSPost2010Prop32
280
     0
102
RTVSPost2010PropOp32
 70
     1
102
RTVSPost2010Prop33
280
     0
102
RTVSPost2010PropOp33
 70
     1
102
RTVSPost2010Prop34
280
     0
102
RTVSPost2010PropOp34
 70
     1
102
RTVSPost2010Prop35
280
     0
102
RTVSPost2010PropOp35
 70
     1
102
RTVSPost2010Prop36
280
     0
102
RTVSPost2010PropOp36
 70
     1
102
RTVSPost2010Prop37
 90
       50
102
RTVSPost2010PropOp37
 70
     1
102
RTVSPost2010Prop38
140
0.0
102
RTVSPost2010PropOp38
 70
     1
102
RTVSPost2010Prop39
140
1.0
102
RTVSPost2010PropOp39
 70
     1
102
RTVSPost2010Prop40
 90
        0
102
RTVSPost2010PropOp40
 70
     1
102
RTVSPost2010Prop41ColorIndex
 90
       18
102
RTVSPost2010Prop41ColorRGB
 90
        0
102
RTVSPost2010PropOp41
 70
     1
102
RTVSPost2010Prop42
 90
       50
102
RTVSPost2010PropOp42
 70
     1
102
RTVSPost2010Prop43
 90
        3
102
RTVSPost2010PropOp43
 70
     1
102
RTVSPost2010Prop44ColorIndex
 90
        5
102
RTVSPost2010Prop44ColorRGB
 90
      255
102
RTVSPost2010PropOp44
 70
     1
102
RTVSPost2010Prop45
280
     0
102
RTVSPost2010PropOp45
 70
     1
102
RTVSPost2010Prop46
 90
       50
102
RTVSPost2010PropOp46
 70
     1
102
RTVSPost2010Prop47
 90
       50
102
RTVSPost2010PropOp47
 70
     1
102
RTVSPost2010Prop48
 90
       50
102
RTVSPost2010PropOp48
 70
     1
102
RTVSPost2010Prop49
280
     0
102
RTVSPost2010PropOp49
 70
     1
102
RTVSPost2010Prop50
 90
       50
102
RTVSPost2010PropOp50
 70
     1
102
RTVSPost2010Prop51ColorIndex
 90
      256
102
RTVSPost2010Prop51ColorRGB
 90
-16777216
102
RTVSPost2010PropOp51
 70
     0
102
RTVSPost2010Prop52
140
1.0
102
RTVSPost2010PropOp52
 70
     0
102
RTVSPost2010Prop53
 90
        2
102
RTVSPost2010PropOp53
 70
     1
102
RTVSPost2010Prop54
  1
strokes_ogs.tif
102
RTVSPost2010PropOp54
 70
     1
102
RTVSPost2010Prop55
280
     0
102
RTVSPost2010PropOp55
 70
     1
102
RTVSPost2010Prop56
140
1.0
102
RTVSPost2010PropOp56
 70
     1
102
RTVSPost2010Prop57
140
1.0
102
RTVSPost2010PropOp57
 70
     1
  0
XRECORD
  5
87F1C
102
{ACAD_REACTORS
330
876A4
102
}
330
876A4
100
AcDbXrecord
280
     1
102
RTVSPropertyOp0
 70
     1
102
RTVSPropertyOp1
 70
     1
102
RTVSPropertyOp2
 70
     1
102
RTVSPropertyOp3
 70
     1
102
RTVSPropertyOp4
 70
     1
102
RTVSPropertyOp5
 70
     1
102
RTVSPropertyOp6
 70
     1
102
RTVSPropertyOp7
 70
     1
102
RTVSPropertyOp8
 70
     1
102
RTVSPropertyOp9
 70
     1
102
RTVSPropertyOp10
 70
     1
102
RTVSPropertyOp11
 70
     1
102
RTVSPropertyOp12
 70
     1
102
RTVSPropertyOp13
 70
     1
102
RTVSPropertyOp14
 70
     1
102
RTVSPropertyOp15
 70
     1
102
RTVSPropertyOp16
 70
     1
102
RTVSPropertyOp17
 70
     1
102
RTVSPropertyOp18
 70
     1
102
RTVSPropertyOp19
 70
     1
102
RTVSPropertyOp20
 70
     1
102
RTVSPropertyOp21
 70
     1
102
RTVSPropertyOp22
 70
     1
102
RTVSPropertyOp23
 70
     1
102
RTVSPropertyOp24
 70
     1
102
RTVSPropertyOp25
 70
     1
102
RTVSPropertyOp26
 70
     1
102
RTVSPropertyOp27
 70
     1
102
RTVSPropertyOp28
 70
     1
102
RTVSPropertyOp29
 70
     1
102
RTVSPropertyOp30
 70
     1
102
RTVSPropertyOp31
 70
     1
102
RTVSPropertyOp32
 70
     1
102
RTVSPropertyOp33
 70
     1
102
RTVSPropertyOp34
 70
     1
102
RTVSPropertyOp35
 70
     1
102
RTVSPropertyOp36
 70
     1
102
RTVSPropertyOp37
 70
     1
102
RTVSPropertyOp38
 70
     1
102
RTVSPropertyOp39
 70
     1
102
RTVSPropertyOp40
 70
     1
102
RTVSPropertyOp41
 70
     1
102
RTVSPropertyOp42
 70
     1
102
RTVSPropertyOp43
 70
     1
102
RTVSPropertyOp44
 70
     1
102
RTVSPropertyOp45
 70
     1
102
RTVSPropertyOp46
 70
     1
102
RTVSPropertyOp47
 70
     1
102
RTVSPropertyOp48
 70
     1
102
RTVSPropertyOp49
 70
     1
102
RTVSPropertyOp50
 70
     1
102
RTVSPropertyOp51
 70
     0
102
RTVSPropertyOp52
 70
     0
102
RTVSPropertyOp53
 70
     1
102
RTVSPropertyOp54
 70
     1
102
RTVSPropertyOp55
 70
     1
102
RTVSPropertyOp56
 70
     1
102
RTVSPropertyOp57
 70
     1
102
RTVSPost2010Prop28
280
     0
102
RTVSPost2010PropOp28
 70
     1
102
RTVSPost2010Prop29
280
     1
102
RTVSPost2010PropOp29
 70
     1
102
RTVSPost2010Prop30
280
     1
102
RTVSPost2010PropOp30
 70
     1
102
RTVSPost2010Prop31
280
     0
102
RTVSPost2010PropOp31
 70
     1
102
RTVSPost2010Prop32
280
     0
102
RTVSPost2010PropOp32
 70
     1
102
RTVSPost2010Prop33
280
     0
102
RTVSPost2010PropOp33
 70
     1
102
RTVSPost2010Prop34
280
     0
102
RTVSPost2010PropOp34
 70
     1
102
RTVSPost2010Prop35
280
     0
102
RTVSPost2010PropOp35
 70
     1
102
RTVSPost2010Prop36
280
     0
102
RTVSPost2010PropOp36
 70
     1
102
RTVSPost2010Prop37
 90
       50
102
RTVSPost2010PropOp37
 70
     1
102
RTVSPost2010Prop38
140
0.0
102
RTVSPost2010PropOp38
 70
     1
102
RTVSPost2010Prop39
140
1.0
102
RTVSPost2010PropOp39
 70
     1
102
RTVSPost2010Prop40
 90
        0
102
RTVSPost2010PropOp40
 70
     1
102
RTVSPost2010Prop41ColorIndex
 90
       18
102
RTVSPost2010Prop41ColorRGB
 90
        0
102
RTVSPost2010PropOp41
 70
     1
102
RTVSPost2010Prop42
 90
       50
102
RTVSPost2010PropOp42
 70
     1
102
RTVSPost2010Prop43
 90
        3
102
RTVSPost2010PropOp43
 70
     1
102
RTVSPost2010Prop44ColorIndex
 90
        5
102
RTVSPost2010Prop44ColorRGB
 90
      255
102
RTVSPost2010PropOp44
 70
     1
102
RTVSPost2010Prop45
280
     0
102
RTVSPost2010PropOp45
 70
     1
102
RTVSPost2010Prop46
 90
       50
102
RTVSPost2010PropOp46
 70
     1
102
RTVSPost2010Prop47
 90
       50
102
RTVSPost2010PropOp47
 70
     1
102
RTVSPost2010Prop48
 90
       50
102
RTVSPost2010PropOp48
 70
     1
102
RTVSPost2010Prop49
280
     0
102
RTVSPost2010PropOp49
 70
     1
102
RTVSPost2010Prop50
 90
       50
102
RTVSPost2010PropOp50
 70
     1
102
RTVSPost2010Prop51ColorIndex
 90
      256
102
RTVSPost2010Prop51ColorRGB
 90
-16777216
102
RTVSPost2010PropOp51
 70
     0
102
RTVSPost2010Prop52
140
1.0
102
RTVSPost2010PropOp52
 70
     0
102
RTVSPost2010Prop53
 90
        2
102
RTVSPost2010PropOp53
 70
     1
102
RTVSPost2010Prop54
  1
strokes_ogs.tif
102
RTVSPost2010PropOp54
 70
     1
102
RTVSPost2010Prop55
280
     0
102
RTVSPost2010PropOp55
 70
     1
102
RTVSPost2010Prop56
140
1.0
102
RTVSPost2010PropOp56
 70
     1
102
RTVSPost2010Prop57
140
1.0
102
RTVSPost2010PropOp57
 70
     1
  0
XRECORD
  5
87F1D
102
{ACAD_REACTORS
330
876A6
102
}
330
876A6
100
AcDbXrecord
280
     1
102
RTVSPropertyOp0
 70
     1
102
RTVSPropertyOp1
 70
     1
102
RTVSPropertyOp2
 70
     1
102
RTVSPropertyOp3
 70
     1
102
RTVSPropertyOp4
 70
     1
102
RTVSPropertyOp5
 70
     1
102
RTVSPropertyOp6
 70
     1
102
RTVSPropertyOp7
 70
     1
102
RTVSPropertyOp8
 70
     1
102
RTVSPropertyOp9
 70
     1
102
RTVSPropertyOp10
 70
     1
102
RTVSPropertyOp11
 70
     1
102
RTVSPropertyOp12
 70
     1
102
RTVSPropertyOp13
 70
     1
102
RTVSPropertyOp14
 70
     1
102
RTVSPropertyOp15
 70
     1
102
RTVSPropertyOp16
 70
     1
102
RTVSPropertyOp17
 70
     1
102
RTVSPropertyOp18
 70
     1
102
RTVSPropertyOp19
 70
     1
102
RTVSPropertyOp20
 70
     1
102
RTVSPropertyOp21
 70
     1
102
RTVSPropertyOp22
 70
     1
102
RTVSPropertyOp23
 70
     1
102
RTVSPropertyOp24
 70
     1
102
RTVSPropertyOp25
 70
     1
102
RTVSPropertyOp26
 70
     1
102
RTVSPropertyOp27
 70
     1
102
RTVSPropertyOp28
 70
     1
102
RTVSPropertyOp29
 70
     1
102
RTVSPropertyOp30
 70
     1
102
RTVSPropertyOp31
 70
     1
102
RTVSPropertyOp32
 70
     1
102
RTVSPropertyOp33
 70
     1
102
RTVSPropertyOp34
 70
     1
102
RTVSPropertyOp35
 70
     1
102
RTVSPropertyOp36
 70
     1
102
RTVSPropertyOp37
 70
     1
102
RTVSPropertyOp38
 70
     1
102
RTVSPropertyOp39
 70
     1
102
RTVSPropertyOp40
 70
     1
102
RTVSPropertyOp41
 70
     1
102
RTVSPropertyOp42
 70
     1
102
RTVSPropertyOp43
 70
     1
102
RTVSPropertyOp44
 70
     1
102
RTVSPropertyOp45
 70
     1
102
RTVSPropertyOp46
 70
     1
102
RTVSPropertyOp47
 70
     1
102
RTVSPropertyOp48
 70
     1
102
RTVSPropertyOp49
 70
     1
102
RTVSPropertyOp50
 70
     1
102
RTVSPropertyOp51
 70
     0
102
RTVSPropertyOp52
 70
     0
102
RTVSPropertyOp53
 70
     1
102
RTVSPropertyOp54
 70
     1
102
RTVSPropertyOp55
 70
     1
102
RTVSPropertyOp56
 70
     1
102
RTVSPropertyOp57
 70
     1
102
RTVSPost2010Prop28
280
     0
102
RTVSPost2010PropOp28
 70
     1
102
RTVSPost2010Prop29
280
     1
102
RTVSPost2010PropOp29
 70
     1
102
RTVSPost2010Prop30
280
     1
102
RTVSPost2010PropOp30
 70
     1
102
RTVSPost2010Prop31
280
     0
102
RTVSPost2010PropOp31
 70
     1
102
RTVSPost2010Prop32
280
     0
102
RTVSPost2010PropOp32
 70
     1
102
RTVSPost2010Prop33
280
     0
102
RTVSPost2010PropOp33
 70
     1
102
RTVSPost2010Prop34
280
     0
102
RTVSPost2010PropOp34
 70
     1
102
RTVSPost2010Prop35
280
     0
102
RTVSPost2010PropOp35
 70
     1
102
RTVSPost2010Prop36
280
     0
102
RTVSPost2010PropOp36
 70
     1
102
RTVSPost2010Prop37
 90
       50
102
RTVSPost2010PropOp37
 70
     1
102
RTVSPost2010Prop38
140
0.0
102
RTVSPost2010PropOp38
 70
     1
102
RTVSPost2010Prop39
140
1.0
102
RTVSPost2010PropOp39
 70
     1
102
RTVSPost2010Prop40
 90
        0
102
RTVSPost2010PropOp40
 70
     1
102
RTVSPost2010Prop41ColorIndex
 90
       18
102
RTVSPost2010Prop41ColorRGB
 90
        0
102
RTVSPost2010PropOp41
 70
     1
102
RTVSPost2010Prop42
 90
       50
102
RTVSPost2010PropOp42
 70
     1
102
RTVSPost2010Prop43
 90
        3
102
RTVSPost2010PropOp43
 70
     1
102
RTVSPost2010Prop44ColorIndex
 90
        5
102
RTVSPost2010Prop44ColorRGB
 90
      255
102
RTVSPost2010PropOp44
 70
     1
102
RTVSPost2010Prop45
280
     0
102
RTVSPost2010PropOp45
 70
     1
102
RTVSPost2010Prop46
 90
       50
102
RTVSPost2010PropOp46
 70
     1
102
RTVSPost2010Prop47
 90
       50
102
RTVSPost2010PropOp47
 70
     1
102
RTVSPost2010Prop48
 90
       50
102
RTVSPost2010PropOp48
 70
     1
102
RTVSPost2010Prop49
280
     0
102
RTVSPost2010PropOp49
 70
     1
102
RTVSPost2010Prop50
 90
       50
102
RTVSPost2010PropOp50
 70
     1
102
RTVSPost2010Prop51ColorIndex
 90
      256
102
RTVSPost2010Prop51ColorRGB
 90
-16777216
102
RTVSPost2010PropOp51
 70
     0
102
RTVSPost2010Prop52
140
1.0
102
RTVSPost2010PropOp52
 70
     0
102
RTVSPost2010Prop53
 90
        2
102
RTVSPost2010PropOp53
 70
     1
102
RTVSPost2010Prop54
  1
strokes_ogs.tif
102
RTVSPost2010PropOp54
 70
     1
102
RTVSPost2010Prop55
280
     0
102
RTVSPost2010PropOp55
 70
     1
102
RTVSPost2010Prop56
140
1.0
102
RTVSPost2010PropOp56
 70
     1
102
RTVSPost2010Prop57
140
1.0
102
RTVSPost2010PropOp57
 70
     1
  0
XRECORD
  5
87F1E
102
{ACAD_REACTORS
330
876A8
102
}
330
876A8
100
AcDbXrecord
280
     1
102
RTVSPropertyOp0
 70
     1
102
RTVSPropertyOp1
 70
     1
102
RTVSPropertyOp2
 70
     1
102
RTVSPropertyOp3
 70
     1
102
RTVSPropertyOp4
 70
     1
102
RTVSPropertyOp5
 70
     1
102
RTVSPropertyOp6
 70
     1
102
RTVSPropertyOp7
 70
     1
102
RTVSPropertyOp8
 70
     1
102
RTVSPropertyOp9
 70
     1
102
RTVSPropertyOp10
 70
     1
102
RTVSPropertyOp11
 70
     1
102
RTVSPropertyOp12
 70
     1
102
RTVSPropertyOp13
 70
     1
102
RTVSPropertyOp14
 70
     1
102
RTVSPropertyOp15
 70
     1
102
RTVSPropertyOp16
 70
     1
102
RTVSPropertyOp17
 70
     1
102
RTVSPropertyOp18
 70
     1
102
RTVSPropertyOp19
 70
     1
102
RTVSPropertyOp20
 70
     1
102
RTVSPropertyOp21
 70
     1
102
RTVSPropertyOp22
 70
     1
102
RTVSPropertyOp23
 70
     1
102
RTVSPropertyOp24
 70
     1
102
RTVSPropertyOp25
 70
     1
102
RTVSPropertyOp26
 70
     1
102
RTVSPropertyOp27
 70
     1
102
RTVSPropertyOp28
 70
     1
102
RTVSPropertyOp29
 70
     1
102
RTVSPropertyOp30
 70
     1
102
RTVSPropertyOp31
 70
     1
102
RTVSPropertyOp32
 70
     1
102
RTVSPropertyOp33
 70
     1
102
RTVSPropertyOp34
 70
     1
102
RTVSPropertyOp35
 70
     1
102
RTVSPropertyOp36
 70
     1
102
RTVSPropertyOp37
 70
     1
102
RTVSPropertyOp38
 70
     1
102
RTVSPropertyOp39
 70
     1
102
RTVSPropertyOp40
 70
     1
102
RTVSPropertyOp41
 70
     1
102
RTVSPropertyOp42
 70
     1
102
RTVSPropertyOp43
 70
     1
102
RTVSPropertyOp44
 70
     1
102
RTVSPropertyOp45
 70
     1
102
RTVSPropertyOp46
 70
     1
102
RTVSPropertyOp47
 70
     1
102
RTVSPropertyOp48
 70
     1
102
RTVSPropertyOp49
 70
     1
102
RTVSPropertyOp50
 70
     1
102
RTVSPropertyOp51
 70
     0
102
RTVSPropertyOp52
 70
     0
102
RTVSPropertyOp53
 70
     1
102
RTVSPropertyOp54
 70
     1
102
RTVSPropertyOp55
 70
     1
102
RTVSPropertyOp56
 70
     1
102
RTVSPropertyOp57
 70
     1
102
RTVSPost2010Prop28
280
     0
102
RTVSPost2010PropOp28
 70
     1
102
RTVSPost2010Prop29
280
     1
102
RTVSPost2010PropOp29
 70
     1
102
RTVSPost2010Prop30
280
     1
102
RTVSPost2010PropOp30
 70
     1
102
RTVSPost2010Prop31
280
     0
102
RTVSPost2010PropOp31
 70
     1
102
RTVSPost2010Prop32
280
     0
102
RTVSPost2010PropOp32
 70
     1
102
RTVSPost2010Prop33
280
     0
102
RTVSPost2010PropOp33
 70
     1
102
RTVSPost2010Prop34
280
     0
102
RTVSPost2010PropOp34
 70
     1
102
RTVSPost2010Prop35
280
     0
102
RTVSPost2010PropOp35
 70
     1
102
RTVSPost2010Prop36
280
     0
102
RTVSPost2010PropOp36
 70
     1
102
RTVSPost2010Prop37
 90
       50
102
RTVSPost2010PropOp37
 70
     1
102
RTVSPost2010Prop38
140
0.0
102
RTVSPost2010PropOp38
 70
     1
102
RTVSPost2010Prop39
140
1.0
102
RTVSPost2010PropOp39
 70
     1
102
RTVSPost2010Prop40
 90
        0
102
RTVSPost2010PropOp40
 70
     1
102
RTVSPost2010Prop41ColorIndex
 90
       18
102
RTVSPost2010Prop41ColorRGB
 90
        0
102
RTVSPost2010PropOp41
 70
     1
102
RTVSPost2010Prop42
 90
       50
102
RTVSPost2010PropOp42
 70
     1
102
RTVSPost2010Prop43
 90
        3
102
RTVSPost2010PropOp43
 70
     1
102
RTVSPost2010Prop44ColorIndex
 90
        5
102
RTVSPost2010Prop44ColorRGB
 90
      255
102
RTVSPost2010PropOp44
 70
     1
102
RTVSPost2010Prop45
280
     0
102
RTVSPost2010PropOp45
 70
     1
102
RTVSPost2010Prop46
 90
       50
102
RTVSPost2010PropOp46
 70
     1
102
RTVSPost2010Prop47
 90
       50
102
RTVSPost2010PropOp47
 70
     1
102
RTVSPost2010Prop48
 90
       50
102
RTVSPost2010PropOp48
 70
     1
102
RTVSPost2010Prop49
280
     0
102
RTVSPost2010PropOp49
 70
     1
102
RTVSPost2010Prop50
 90
       50
102
RTVSPost2010PropOp50
 70
     1
102
RTVSPost2010Prop51ColorIndex
 90
      256
102
RTVSPost2010Prop51ColorRGB
 90
-16777216
102
RTVSPost2010PropOp51
 70
     0
102
RTVSPost2010Prop52
140
1.0
102
RTVSPost2010PropOp52
 70
     0
102
RTVSPost2010Prop53
 90
        2
102
RTVSPost2010PropOp53
 70
     1
102
RTVSPost2010Prop54
  1
strokes_ogs.tif
102
RTVSPost2010PropOp54
 70
     1
102
RTVSPost2010Prop55
280
     0
102
RTVSPost2010PropOp55
 70
     1
102
RTVSPost2010Prop56
140
1.0
102
RTVSPost2010PropOp56
 70
     1
102
RTVSPost2010Prop57
140
1.0
102
RTVSPost2010PropOp57
 70
     1
  0
XRECORD
  5
87F1F
102
{ACAD_REACTORS
330
876B0
102
}
330
876B0
100
AcDbXrecord
280
     1
102
RTVSPropertyOp0
 70
     1
102
RTVSPropertyOp1
 70
     1
102
RTVSPropertyOp2
 70
     1
102
RTVSPropertyOp3
 70
     1
102
RTVSPropertyOp4
 70
     1
102
RTVSPropertyOp5
 70
     1
102
RTVSPropertyOp6
 70
     1
102
RTVSPropertyOp7
 70
     1
102
RTVSPropertyOp8
 70
     1
102
RTVSPropertyOp9
 70
     1
102
RTVSPropertyOp10
 70
     1
102
RTVSPropertyOp11
 70
     1
102
RTVSPropertyOp12
 70
     1
102
RTVSPropertyOp13
 70
     1
102
RTVSPropertyOp14
 70
     1
102
RTVSPropertyOp15
 70
     1
102
RTVSPropertyOp16
 70
     1
102
RTVSPropertyOp17
 70
     1
102
RTVSPropertyOp18
 70
     1
102
RTVSPropertyOp19
 70
     1
102
RTVSPropertyOp20
 70
     1
102
RTVSPropertyOp21
 70
     1
102
RTVSPropertyOp22
 70
     1
102
RTVSPropertyOp23
 70
     1
102
RTVSPropertyOp24
 70
     1
102
RTVSPropertyOp25
 70
     1
102
RTVSPropertyOp26
 70
     1
102
RTVSPropertyOp27
 70
     1
102
RTVSPropertyOp28
 70
     1
102
RTVSPropertyOp29
 70
     1
102
RTVSPropertyOp30
 70
     1
102
RTVSPropertyOp31
 70
     1
102
RTVSPropertyOp32
 70
     1
102
RTVSPropertyOp33
 70
     1
102
RTVSPropertyOp34
 70
     1
102
RTVSPropertyOp35
 70
     1
102
RTVSPropertyOp36
 70
     1
102
RTVSPropertyOp37
 70
     1
102
RTVSPropertyOp38
 70
     1
102
RTVSPropertyOp39
 70
     1
102
RTVSPropertyOp40
 70
     1
102
RTVSPropertyOp41
 70
     1
102
RTVSPropertyOp42
 70
     1
102
RTVSPropertyOp43
 70
     1
102
RTVSPropertyOp44
 70
     1
102
RTVSPropertyOp45
 70
     1
102
RTVSPropertyOp46
 70
     1
102
RTVSPropertyOp47
 70
     1
102
RTVSPropertyOp48
 70
     1
102
RTVSPropertyOp49
 70
     1
102
RTVSPropertyOp50
 70
     1
102
RTVSPropertyOp51
 70
     0
102
RTVSPropertyOp52
 70
     0
102
RTVSPropertyOp53
 70
     1
102
RTVSPropertyOp54
 70
     1
102
RTVSPropertyOp55
 70
     1
102
RTVSPropertyOp56
 70
     1
102
RTVSPropertyOp57
 70
     1
102
RTVSPost2010Prop28
280
     0
102
RTVSPost2010PropOp28
 70
     1
102
RTVSPost2010Prop29
280
     1
102
RTVSPost2010PropOp29
 70
     1
102
RTVSPost2010Prop30
280
     1
102
RTVSPost2010PropOp30
 70
     1
102
RTVSPost2010Prop31
280
     0
102
RTVSPost2010PropOp31
 70
     1
102
RTVSPost2010Prop32
280
     0
102
RTVSPost2010PropOp32
 70
     1
102
RTVSPost2010Prop33
280
     0
102
RTVSPost2010PropOp33
 70
     1
102
RTVSPost2010Prop34
280
     0
102
RTVSPost2010PropOp34
 70
     1
102
RTVSPost2010Prop35
280
     0
102
RTVSPost2010PropOp35
 70
     1
102
RTVSPost2010Prop36
280
     0
102
RTVSPost2010PropOp36
 70
     1
102
RTVSPost2010Prop37
 90
       50
102
RTVSPost2010PropOp37
 70
     1
102
RTVSPost2010Prop38
140
0.0
102
RTVSPost2010PropOp38
 70
     1
102
RTVSPost2010Prop39
140
1.0
102
RTVSPost2010PropOp39
 70
     1
102
RTVSPost2010Prop40
 90
        0
102
RTVSPost2010PropOp40
 70
     1
102
RTVSPost2010Prop41ColorIndex
 90
       18
102
RTVSPost2010Prop41ColorRGB
 90
        0
102
RTVSPost2010PropOp41
 70
     1
102
RTVSPost2010Prop42
 90
       50
102
RTVSPost2010PropOp42
 70
     1
102
RTVSPost2010Prop43
 90
        3
102
RTVSPost2010PropOp43
 70
     1
102
RTVSPost2010Prop44ColorIndex
 90
        5
102
RTVSPost2010Prop44ColorRGB
 90
      255
102
RTVSPost2010PropOp44
 70
     1
102
RTVSPost2010Prop45
280
     0
102
RTVSPost2010PropOp45
 70
     1
102
RTVSPost2010Prop46
 90
       50
102
RTVSPost2010PropOp46
 70
     1
102
RTVSPost2010Prop47
 90
       50
102
RTVSPost2010PropOp47
 70
     1
102
RTVSPost2010Prop48
 90
       50
102
RTVSPost2010PropOp48
 70
     1
102
RTVSPost2010Prop49
280
     0
102
RTVSPost2010PropOp49
 70
     1
102
RTVSPost2010Prop50
 90
       50
102
RTVSPost2010PropOp50
 70
     1
102
RTVSPost2010Prop51ColorIndex
 90
      256
102
RTVSPost2010Prop51ColorRGB
 90
-16777216
102
RTVSPost2010PropOp51
 70
     0
102
RTVSPost2010Prop52
140
1.0
102
RTVSPost2010PropOp52
 70
     0
102
RTVSPost2010Prop53
 90
        2
102
RTVSPost2010PropOp53
 70
     1
102
RTVSPost2010Prop54
  1
strokes_ogs.tif
102
RTVSPost2010PropOp54
 70
     1
102
RTVSPost2010Prop55
280
     0
102
RTVSPost2010PropOp55
 70
     1
102
RTVSPost2010Prop56
140
1.0
102
RTVSPost2010PropOp56
 70
     1
102
RTVSPost2010Prop57
140
1.0
102
RTVSPost2010PropOp57
 70
     1
  0
XRECORD
  5
87F20
102
{ACAD_REACTORS
330
876CC
102
}
330
876CC
100
AcDbXrecord
280
     1
102
RTVSPropertyOp0
 70
     0
102
RTVSPropertyOp1
 70
     0
102
RTVSPropertyOp2
 70
     0
102
RTVSPropertyOp3
 70
     0
102
RTVSPropertyOp4
 70
     0
102
RTVSPropertyOp5
 70
     0
102
RTVSPropertyOp6
 70
     0
102
RTVSPropertyOp7
 70
     0
102
RTVSPropertyOp8
 70
     0
102
RTVSPropertyOp9
 70
     0
102
RTVSPropertyOp10
 70
     0
102
RTVSPropertyOp11
 70
     0
102
RTVSPropertyOp12
 70
     0
102
RTVSPropertyOp13
 70
     0
102
RTVSPropertyOp14
 70
     2
102
RTVSPropertyOp15
 70
     0
102
RTVSPropertyOp16
 70
     0
102
RTVSPropertyOp17
 70
     0
102
RTVSPropertyOp18
 70
     0
102
RTVSPropertyOp19
 70
     0
102
RTVSPropertyOp20
 70
     0
102
RTVSPropertyOp21
 70
     0
102
RTVSPropertyOp22
 70
     0
102
RTVSPropertyOp23
 70
     0
102
RTVSPropertyOp24
 70
     0
102
RTVSPropertyOp25
 70
     0
102
RTVSPropertyOp26
 70
     0
102
RTVSPropertyOp27
 70
     0
102
RTVSPropertyOp28
 70
     1
102
RTVSPropertyOp29
 70
     1
102
RTVSPropertyOp30
 70
     1
102
RTVSPropertyOp31
 70
     1
102
RTVSPropertyOp32
 70
     1
102
RTVSPropertyOp33
 70
     1
102
RTVSPropertyOp34
 70
     1
102
RTVSPropertyOp35
 70
     1
102
RTVSPropertyOp36
 70
     1
102
RTVSPropertyOp37
 70
     0
102
RTVSPropertyOp38
 70
     0
102
RTVSPropertyOp39
 70
     0
102
RTVSPropertyOp40
 70
     0
102
RTVSPropertyOp41
 70
     0
102
RTVSPropertyOp42
 70
     0
102
RTVSPropertyOp43
 70
     0
102
RTVSPropertyOp44
 70
     0
102
RTVSPropertyOp45
 70
     1
102
RTVSPropertyOp46
 70
     0
102
RTVSPropertyOp47
 70
     0
102
RTVSPropertyOp48
 70
     0
102
RTVSPropertyOp49
 70
     1
102
RTVSPropertyOp50
 70
     0
102
RTVSPropertyOp51
 70
     0
102
RTVSPropertyOp52
 70
     0
102
RTVSPropertyOp53
 70
     0
102
RTVSPropertyOp54
 70
     0
102
RTVSPropertyOp55
 70
     1
102
RTVSPropertyOp56
 70
     0
102
RTVSPropertyOp57
 70
     0
102
RTVSPost2010Prop28
280
     0
102
RTVSPost2010PropOp28
 70
     1
102
RTVSPost2010Prop29
280
     1
102
RTVSPost2010PropOp29
 70
     1
102
RTVSPost2010Prop30
280
     1
102
RTVSPost2010PropOp30
 70
     1
102
RTVSPost2010Prop31
280
     0
102
RTVSPost2010PropOp31
 70
     1
102
RTVSPost2010Prop32
280
     0
102
RTVSPost2010PropOp32
 70
     1
102
RTVSPost2010Prop33
280
     0
102
RTVSPost2010PropOp33
 70
     1
102
RTVSPost2010Prop34
280
     0
102
RTVSPost2010PropOp34
 70
     1
102
RTVSPost2010Prop35
280
     0
102
RTVSPost2010PropOp35
 70
     1
102
RTVSPost2010Prop36
280
     0
102
RTVSPost2010PropOp36
 70
     1
102
RTVSPost2010Prop37
 90
       50
102
RTVSPost2010PropOp37
 70
     0
102
RTVSPost2010Prop38
140
0.0
102
RTVSPost2010PropOp38
 70
     0
102
RTVSPost2010Prop39
140
1.0
102
RTVSPost2010PropOp39
 70
     0
102
RTVSPost2010Prop40
 90
        0
102
RTVSPost2010PropOp40
 70
     0
102
RTVSPost2010Prop41ColorIndex
 90
       18
102
RTVSPost2010Prop41ColorRGB
 90
        0
102
RTVSPost2010PropOp41
 70
     0
102
RTVSPost2010Prop42
 90
       50
102
RTVSPost2010PropOp42
 70
     0
102
RTVSPost2010Prop43
 90
        3
102
RTVSPost2010PropOp43
 70
     0
102
RTVSPost2010Prop44ColorIndex
 90
        5
102
RTVSPost2010Prop44ColorRGB
 90
      255
102
RTVSPost2010PropOp44
 70
     0
102
RTVSPost2010Prop45
280
     0
102
RTVSPost2010PropOp45
 70
     1
102
RTVSPost2010Prop46
 90
       50
102
RTVSPost2010PropOp46
 70
     0
102
RTVSPost2010Prop47
 90
       50
102
RTVSPost2010PropOp47
 70
     0
102
RTVSPost2010Prop48
 90
       50
102
RTVSPost2010PropOp48
 70
     0
102
RTVSPost2010Prop49
280
     0
102
RTVSPost2010PropOp49
 70
     1
102
RTVSPost2010Prop50
 90
       50
102
RTVSPost2010PropOp50
 70
     0
102
RTVSPost2010Prop51ColorIndex
 90
      256
102
RTVSPost2010Prop51ColorRGB
 90
-16777216
102
RTVSPost2010PropOp51
 70
     0
102
RTVSPost2010Prop52
140
1.0
102
RTVSPost2010PropOp52
 70
     0
102
RTVSPost2010Prop53
 90
        2
102
RTVSPost2010PropOp53
 70
     0
102
RTVSPost2010Prop54
  1
strokes_ogs.tif
102
RTVSPost2010PropOp54
 70
     0
102
RTVSPost2010Prop55
280
     0
102
RTVSPost2010PropOp55
 70
     1
102
RTVSPost2010Prop56
140
1.0
102
RTVSPost2010PropOp56
 70
     0
102
RTVSPost2010Prop57
140
1.0
102
RTVSPost2010PropOp57
 70
     0
  0
XRECORD
  5
87F21
102
{ACAD_REACTORS
330
876BC
102
}
330
876BC
100
AcDbXrecord
280
     1
102
RTVSPropertyOp0
 70
     1
102
RTVSPropertyOp1
 70
     1
102
RTVSPropertyOp2
 70
     1
102
RTVSPropertyOp3
 70
     1
102
RTVSPropertyOp4
 70
     1
102
RTVSPropertyOp5
 70
     1
102
RTVSPropertyOp6
 70
     1
102
RTVSPropertyOp7
 70
     1
102
RTVSPropertyOp8
 70
     1
102
RTVSPropertyOp9
 70
     1
102
RTVSPropertyOp10
 70
     1
102
RTVSPropertyOp11
 70
     1
102
RTVSPropertyOp12
 70
     1
102
RTVSPropertyOp13
 70
     1
102
RTVSPropertyOp14
 70
     1
102
RTVSPropertyOp15
 70
     1
102
RTVSPropertyOp16
 70
     1
102
RTVSPropertyOp17
 70
     1
102
RTVSPropertyOp18
 70
     1
102
RTVSPropertyOp19
 70
     1
102
RTVSPropertyOp20
 70
     1
102
RTVSPropertyOp21
 70
     1
102
RTVSPropertyOp22
 70
     1
102
RTVSPropertyOp23
 70
     1
102
RTVSPropertyOp24
 70
     1
102
RTVSPropertyOp25
 70
     1
102
RTVSPropertyOp26
 70
     1
102
RTVSPropertyOp27
 70
     1
102
RTVSPropertyOp28
 70
     1
102
RTVSPropertyOp29
 70
     1
102
RTVSPropertyOp30
 70
     1
102
RTVSPropertyOp31
 70
     1
102
RTVSPropertyOp32
 70
     1
102
RTVSPropertyOp33
 70
     1
102
RTVSPropertyOp34
 70
     1
102
RTVSPropertyOp35
 70
     1
102
RTVSPropertyOp36
 70
     1
102
RTVSPropertyOp37
 70
     1
102
RTVSPropertyOp38
 70
     1
102
RTVSPropertyOp39
 70
     1
102
RTVSPropertyOp40
 70
     1
102
RTVSPropertyOp41
 70
     1
102
RTVSPropertyOp42
 70
     1
102
RTVSPropertyOp43
 70
     1
102
RTVSPropertyOp44
 70
     1
102
RTVSPropertyOp45
 70
     1
102
RTVSPropertyOp46
 70
     1
102
RTVSPropertyOp47
 70
     1
102
RTVSPropertyOp48
 70
     1
102
RTVSPropertyOp49
 70
     1
102
RTVSPropertyOp50
 70
     1
102
RTVSPropertyOp51
 70
     0
102
RTVSPropertyOp52
 70
     0
102
RTVSPropertyOp53
 70
     1
102
RTVSPropertyOp54
 70
     1
102
RTVSPropertyOp55
 70
     1
102
RTVSPropertyOp56
 70
     1
102
RTVSPropertyOp57
 70
     1
102
RTVSPost2010Prop28
280
     0
102
RTVSPost2010PropOp28
 70
     1
102
RTVSPost2010Prop29
280
     1
102
RTVSPost2010PropOp29
 70
     1
102
RTVSPost2010Prop30
280
     1
102
RTVSPost2010PropOp30
 70
     1
102
RTVSPost2010Prop31
280
     0
102
RTVSPost2010PropOp31
 70
     1
102
RTVSPost2010Prop32
280
     0
102
RTVSPost2010PropOp32
 70
     1
102
RTVSPost2010Prop33
280
     0
102
RTVSPost2010PropOp33
 70
     1
102
RTVSPost2010Prop34
280
     0
102
RTVSPost2010PropOp34
 70
     1
102
RTVSPost2010Prop35
280
     0
102
RTVSPost2010PropOp35
 70
     1
102
RTVSPost2010Prop36
280
     0
102
RTVSPost2010PropOp36
 70
     1
102
RTVSPost2010Prop37
 90
       50
102
RTVSPost2010PropOp37
 70
     1
102
RTVSPost2010Prop38
140
0.0
102
RTVSPost2010PropOp38
 70
     1
102
RTVSPost2010Prop39
140
1.0
102
RTVSPost2010PropOp39
 70
     1
102
RTVSPost2010Prop40
 90
        0
102
RTVSPost2010PropOp40
 70
     1
102
RTVSPost2010Prop41ColorIndex
 90
       18
102
RTVSPost2010Prop41ColorRGB
 90
        0
102
RTVSPost2010PropOp41
 70
     1
102
RTVSPost2010Prop42
 90
       50
102
RTVSPost2010PropOp42
 70
     1
102
RTVSPost2010Prop43
 90
        3
102
RTVSPost2010PropOp43
 70
     1
102
RTVSPost2010Prop44ColorIndex
 90
        5
102
RTVSPost2010Prop44ColorRGB
 90
      255
102
RTVSPost2010PropOp44
 70
     1
102
RTVSPost2010Prop45
280
     0
102
RTVSPost2010PropOp45
 70
     1
102
RTVSPost2010Prop46
 90
       50
102
RTVSPost2010PropOp46
 70
     1
102
RTVSPost2010Prop47
 90
       50
102
RTVSPost2010PropOp47
 70
     1
102
RTVSPost2010Prop48
 90
       50
102
RTVSPost2010PropOp48
 70
     1
102
RTVSPost2010Prop49
280
     0
102
RTVSPost2010PropOp49
 70
     1
102
RTVSPost2010Prop50
 90
       50
102
RTVSPost2010PropOp50
 70
     1
102
RTVSPost2010Prop51ColorIndex
 90
      256
102
RTVSPost2010Prop51ColorRGB
 90
-16777216
102
RTVSPost2010PropOp51
 70
     0
102
RTVSPost2010Prop52
140
1.0
102
RTVSPost2010PropOp52
 70
     0
102
RTVSPost2010Prop53
 90
        2
102
RTVSPost2010PropOp53
 70
     1
102
RTVSPost2010Prop54
  1
strokes_ogs.tif
102
RTVSPost2010PropOp54
 70
     1
102
RTVSPost2010Prop55
280
     0
102
RTVSPost2010PropOp55
 70
     1
102
RTVSPost2010Prop56
140
1.0
102
RTVSPost2010PropOp56
 70
     1
102
RTVSPost2010Prop57
140
1.0
102
RTVSPost2010PropOp57
 70
     1
  0
XRECORD
  5
87F22
102
{ACAD_REACTORS
330
876CE
102
}
330
876CE
100
AcDbXrecord
280
     1
102
RTVSPropertyOp0
 70
     0
102
RTVSPropertyOp1
 70
     0
102
RTVSPropertyOp2
 70
     0
102
RTVSPropertyOp3
 70
     0
102
RTVSPropertyOp4
 70
     0
102
RTVSPropertyOp5
 70
     0
102
RTVSPropertyOp6
 70
     0
102
RTVSPropertyOp7
 70
     0
102
RTVSPropertyOp8
 70
     0
102
RTVSPropertyOp9
 70
     0
102
RTVSPropertyOp10
 70
     0
102
RTVSPropertyOp11
 70
     0
102
RTVSPropertyOp12
 70
     0
102
RTVSPropertyOp13
 70
     0
102
RTVSPropertyOp14
 70
     2
102
RTVSPropertyOp15
 70
     0
102
RTVSPropertyOp16
 70
     0
102
RTVSPropertyOp17
 70
     0
102
RTVSPropertyOp18
 70
     0
102
RTVSPropertyOp19
 70
     0
102
RTVSPropertyOp20
 70
     0
102
RTVSPropertyOp21
 70
     0
102
RTVSPropertyOp22
 70
     0
102
RTVSPropertyOp23
 70
     0
102
RTVSPropertyOp24
 70
     0
102
RTVSPropertyOp25
 70
     0
102
RTVSPropertyOp26
 70
     0
102
RTVSPropertyOp27
 70
     0
102
RTVSPropertyOp28
 70
     1
102
RTVSPropertyOp29
 70
     1
102
RTVSPropertyOp30
 70
     1
102
RTVSPropertyOp31
 70
     1
102
RTVSPropertyOp32
 70
     1
102
RTVSPropertyOp33
 70
     1
102
RTVSPropertyOp34
 70
     1
102
RTVSPropertyOp35
 70
     1
102
RTVSPropertyOp36
 70
     1
102
RTVSPropertyOp37
 70
     0
102
RTVSPropertyOp38
 70
     0
102
RTVSPropertyOp39
 70
     0
102
RTVSPropertyOp40
 70
     0
102
RTVSPropertyOp41
 70
     0
102
RTVSPropertyOp42
 70
     0
102
RTVSPropertyOp43
 70
     0
102
RTVSPropertyOp44
 70
     0
102
RTVSPropertyOp45
 70
     1
102
RTVSPropertyOp46
 70
     0
102
RTVSPropertyOp47
 70
     0
102
RTVSPropertyOp48
 70
     0
102
RTVSPropertyOp49
 70
     1
102
RTVSPropertyOp50
 70
     0
102
RTVSPropertyOp51
 70
     0
102
RTVSPropertyOp52
 70
     0
102
RTVSPropertyOp53
 70
     0
102
RTVSPropertyOp54
 70
     0
102
RTVSPropertyOp55
 70
     1
102
RTVSPropertyOp56
 70
     0
102
RTVSPropertyOp57
 70
     0
102
RTVSPost2010Prop28
280
     0
102
RTVSPost2010PropOp28
 70
     1
102
RTVSPost2010Prop29
280
     1
102
RTVSPost2010PropOp29
 70
     1
102
RTVSPost2010Prop30
280
     1
102
RTVSPost2010PropOp30
 70
     1
102
RTVSPost2010Prop31
280
     0
102
RTVSPost2010PropOp31
 70
     1
102
RTVSPost2010Prop32
280
     0
102
RTVSPost2010PropOp32
 70
     1
102
RTVSPost2010Prop33
280
     0
102
RTVSPost2010PropOp33
 70
     1
102
RTVSPost2010Prop34
280
     0
102
RTVSPost2010PropOp34
 70
     1
102
RTVSPost2010Prop35
280
     0
102
RTVSPost2010PropOp35
 70
     1
102
RTVSPost2010Prop36
280
     0
102
RTVSPost2010PropOp36
 70
     1
102
RTVSPost2010Prop37
 90
       50
102
RTVSPost2010PropOp37
 70
     0
102
RTVSPost2010Prop38
140
0.0
102
RTVSPost2010PropOp38
 70
     0
102
RTVSPost2010Prop39
140
1.0
102
RTVSPost2010PropOp39
 70
     0
102
RTVSPost2010Prop40
 90
        0
102
RTVSPost2010PropOp40
 70
     0
102
RTVSPost2010Prop41ColorIndex
 90
       18
102
RTVSPost2010Prop41ColorRGB
 90
        0
102
RTVSPost2010PropOp41
 70
     0
102
RTVSPost2010Prop42
 90
       50
102
RTVSPost2010PropOp42
 70
     0
102
RTVSPost2010Prop43
 90
        3
102
RTVSPost2010PropOp43
 70
     0
102
RTVSPost2010Prop44ColorIndex
 90
        5
102
RTVSPost2010Prop44ColorRGB
 90
      255
102
RTVSPost2010PropOp44
 70
     0
102
RTVSPost2010Prop45
280
     0
102
RTVSPost2010PropOp45
 70
     1
102
RTVSPost2010Prop46
 90
       50
102
RTVSPost2010PropOp46
 70
     0
102
RTVSPost2010Prop47
 90
       50
102
RTVSPost2010PropOp47
 70
     0
102
RTVSPost2010Prop48
 90
       50
102
RTVSPost2010PropOp48
 70
     0
102
RTVSPost2010Prop49
280
     0
102
RTVSPost2010PropOp49
 70
     1
102
RTVSPost2010Prop50
 90
       50
102
RTVSPost2010PropOp50
 70
     0
102
RTVSPost2010Prop51ColorIndex
 90
      256
102
RTVSPost2010Prop51ColorRGB
 90
-16777216
102
RTVSPost2010PropOp51
 70
     0
102
RTVSPost2010Prop52
140
1.0
102
RTVSPost2010PropOp52
 70
     0
102
RTVSPost2010Prop53
 90
        2
102
RTVSPost2010PropOp53
 70
     0
102
RTVSPost2010Prop54
  1
strokes_ogs.tif
102
RTVSPost2010PropOp54
 70
     0
102
RTVSPost2010Prop55
280
     0
102
RTVSPost2010PropOp55
 70
     1
102
RTVSPost2010Prop56
140
1.0
102
RTVSPost2010PropOp56
 70
     0
102
RTVSPost2010Prop57
140
1.0
102
RTVSPost2010PropOp57
 70
     0
  0
XRECORD
  5
87F23
102
{ACAD_REACTORS
330
876B4
102
}
330
876B4
100
AcDbXrecord
280
     1
102
RTVSPropertyOp0
 70
     1
102
RTVSPropertyOp1
 70
     1
102
RTVSPropertyOp2
 70
     1
102
RTVSPropertyOp3
 70
     1
102
RTVSPropertyOp4
 70
     1
102
RTVSPropertyOp5
 70
     1
102
RTVSPropertyOp6
 70
     1
102
RTVSPropertyOp7
 70
     1
102
RTVSPropertyOp8
 70
     1
102
RTVSPropertyOp9
 70
     1
102
RTVSPropertyOp10
 70
     1
102
RTVSPropertyOp11
 70
     1
102
RTVSPropertyOp12
 70
     1
102
RTVSPropertyOp13
 70
     1
102
RTVSPropertyOp14
 70
     1
102
RTVSPropertyOp15
 70
     1
102
RTVSPropertyOp16
 70
     1
102
RTVSPropertyOp17
 70
     1
102
RTVSPropertyOp18
 70
     1
102
RTVSPropertyOp19
 70
     1
102
RTVSPropertyOp20
 70
     1
102
RTVSPropertyOp21
 70
     1
102
RTVSPropertyOp22
 70
     1
102
RTVSPropertyOp23
 70
     1
102
RTVSPropertyOp24
 70
     1
102
RTVSPropertyOp25
 70
     1
102
RTVSPropertyOp26
 70
     1
102
RTVSPropertyOp27
 70
     1
102
RTVSPropertyOp28
 70
     1
102
RTVSPropertyOp29
 70
     1
102
RTVSPropertyOp30
 70
     1
102
RTVSPropertyOp31
 70
     1
102
RTVSPropertyOp32
 70
     1
102
RTVSPropertyOp33
 70
     1
102
RTVSPropertyOp34
 70
     1
102
RTVSPropertyOp35
 70
     1
102
RTVSPropertyOp36
 70
     1
102
RTVSPropertyOp37
 70
     1
102
RTVSPropertyOp38
 70
     1
102
RTVSPropertyOp39
 70
     1
102
RTVSPropertyOp40
 70
     1
102
RTVSPropertyOp41
 70
     1
102
RTVSPropertyOp42
 70
     1
102
RTVSPropertyOp43
 70
     1
102
RTVSPropertyOp44
 70
     1
102
RTVSPropertyOp45
 70
     1
102
RTVSPropertyOp46
 70
     1
102
RTVSPropertyOp47
 70
     1
102
RTVSPropertyOp48
 70
     1
102
RTVSPropertyOp49
 70
     1
102
RTVSPropertyOp50
 70
     1
102
RTVSPropertyOp51
 70
     0
102
RTVSPropertyOp52
 70
     0
102
RTVSPropertyOp53
 70
     1
102
RTVSPropertyOp54
 70
     1
102
RTVSPropertyOp55
 70
     1
102
RTVSPropertyOp56
 70
     1
102
RTVSPropertyOp57
 70
     1
102
RTVSPost2010Prop28
280
     0
102
RTVSPost2010PropOp28
 70
     1
102
RTVSPost2010Prop29
280
     1
102
RTVSPost2010PropOp29
 70
     1
102
RTVSPost2010Prop30
280
     1
102
RTVSPost2010PropOp30
 70
     1
102
RTVSPost2010Prop31
280
     0
102
RTVSPost2010PropOp31
 70
     1
102
RTVSPost2010Prop32
280
     0
102
RTVSPost2010PropOp32
 70
     1
102
RTVSPost2010Prop33
280
     0
102
RTVSPost2010PropOp33
 70
     1
102
RTVSPost2010Prop34
280
     0
102
RTVSPost2010PropOp34
 70
     1
102
RTVSPost2010Prop35
280
     0
102
RTVSPost2010PropOp35
 70
     1
102
RTVSPost2010Prop36
280
     0
102
RTVSPost2010PropOp36
 70
     1
102
RTVSPost2010Prop37
 90
       50
102
RTVSPost2010PropOp37
 70
     1
102
RTVSPost2010Prop38
140
0.0
102
RTVSPost2010PropOp38
 70
     1
102
RTVSPost2010Prop39
140
1.0
102
RTVSPost2010PropOp39
 70
     1
102
RTVSPost2010Prop40
 90
        0
102
RTVSPost2010PropOp40
 70
     1
102
RTVSPost2010Prop41ColorIndex
 90
       18
102
RTVSPost2010Prop41ColorRGB
 90
        0
102
RTVSPost2010PropOp41
 70
     1
102
RTVSPost2010Prop42
 90
       50
102
RTVSPost2010PropOp42
 70
     1
102
RTVSPost2010Prop43
 90
        3
102
RTVSPost2010PropOp43
 70
     1
102
RTVSPost2010Prop44ColorIndex
 90
        5
102
RTVSPost2010Prop44ColorRGB
 90
      255
102
RTVSPost2010PropOp44
 70
     1
102
RTVSPost2010Prop45
280
     0
102
RTVSPost2010PropOp45
 70
     1
102
RTVSPost2010Prop46
 90
       50
102
RTVSPost2010PropOp46
 70
     1
102
RTVSPost2010Prop47
 90
       50
102
RTVSPost2010PropOp47
 70
     1
102
RTVSPost2010Prop48
 90
       50
102
RTVSPost2010PropOp48
 70
     1
102
RTVSPost2010Prop49
280
     0
102
RTVSPost2010PropOp49
 70
     1
102
RTVSPost2010Prop50
 90
       50
102
RTVSPost2010PropOp50
 70
     1
102
RTVSPost2010Prop51ColorIndex
 90
      256
102
RTVSPost2010Prop51ColorRGB
 90
-16777216
102
RTVSPost2010PropOp51
 70
     0
102
RTVSPost2010Prop52
140
1.0
102
RTVSPost2010PropOp52
 70
     0
102
RTVSPost2010Prop53
 90
        2
102
RTVSPost2010PropOp53
 70
     1
102
RTVSPost2010Prop54
  1
strokes_ogs.tif
102
RTVSPost2010PropOp54
 70
     1
102
RTVSPost2010Prop55
280
     0
102
RTVSPost2010PropOp55
 70
     1
102
RTVSPost2010Prop56
140
1.0
102
RTVSPost2010PropOp56
 70
     1
102
RTVSPost2010Prop57
140
1.0
102
RTVSPost2010PropOp57
 70
     1
  0
XRECORD
  5
87F24
102
{ACAD_REACTORS
330
876CA
102
}
330
876CA
100
AcDbXrecord
280
     1
102
RTVSPropertyOp0
 70
     1
102
RTVSPropertyOp1
 70
     1
102
RTVSPropertyOp2
 70
     1
102
RTVSPropertyOp3
 70
     1
102
RTVSPropertyOp4
 70
     1
102
RTVSPropertyOp5
 70
     1
102
RTVSPropertyOp6
 70
     1
102
RTVSPropertyOp7
 70
     1
102
RTVSPropertyOp8
 70
     1
102
RTVSPropertyOp9
 70
     1
102
RTVSPropertyOp10
 70
     1
102
RTVSPropertyOp11
 70
     1
102
RTVSPropertyOp12
 70
     1
102
RTVSPropertyOp13
 70
     1
102
RTVSPropertyOp14
 70
     1
102
RTVSPropertyOp15
 70
     1
102
RTVSPropertyOp16
 70
     1
102
RTVSPropertyOp17
 70
     1
102
RTVSPropertyOp18
 70
     1
102
RTVSPropertyOp19
 70
     1
102
RTVSPropertyOp20
 70
     1
102
RTVSPropertyOp21
 70
     1
102
RTVSPropertyOp22
 70
     1
102
RTVSPropertyOp23
 70
     1
102
RTVSPropertyOp24
 70
     1
102
RTVSPropertyOp25
 70
     1
102
RTVSPropertyOp26
 70
     1
102
RTVSPropertyOp27
 70
     1
102
RTVSPropertyOp28
 70
     1
102
RTVSPropertyOp29
 70
     1
102
RTVSPropertyOp30
 70
     1
102
RTVSPropertyOp31
 70
     1
102
RTVSPropertyOp32
 70
     1
102
RTVSPropertyOp33
 70
     1
102
RTVSPropertyOp34
 70
     1
102
RTVSPropertyOp35
 70
     1
102
RTVSPropertyOp36
 70
     1
102
RTVSPropertyOp37
 70
     1
102
RTVSPropertyOp38
 70
     1
102
RTVSPropertyOp39
 70
     1
102
RTVSPropertyOp40
 70
     1
102
RTVSPropertyOp41
 70
     1
102
RTVSPropertyOp42
 70
     1
102
RTVSPropertyOp43
 70
     1
102
RTVSPropertyOp44
 70
     1
102
RTVSPropertyOp45
 70
     1
102
RTVSPropertyOp46
 70
     1
102
RTVSPropertyOp47
 70
     1
102
RTVSPropertyOp48
 70
     1
102
RTVSPropertyOp49
 70
     1
102
RTVSPropertyOp50
 70
     1
102
RTVSPropertyOp51
 70
     0
102
RTVSPropertyOp52
 70
     0
102
RTVSPropertyOp53
 70
     1
102
RTVSPropertyOp54
 70
     1
102
RTVSPropertyOp55
 70
     1
102
RTVSPropertyOp56
 70
     1
102
RTVSPropertyOp57
 70
     1
102
RTVSPost2010Prop28
280
     0
102
RTVSPost2010PropOp28
 70
     1
102
RTVSPost2010Prop29
280
     1
102
RTVSPost2010PropOp29
 70
     1
102
RTVSPost2010Prop30
280
     1
102
RTVSPost2010PropOp30
 70
     1
102
RTVSPost2010Prop31
280
     0
102
RTVSPost2010PropOp31
 70
     1
102
RTVSPost2010Prop32
280
     0
102
RTVSPost2010PropOp32
 70
     1
102
RTVSPost2010Prop33
280
     0
102
RTVSPost2010PropOp33
 70
     1
102
RTVSPost2010Prop34
280
     0
102
RTVSPost2010PropOp34
 70
     1
102
RTVSPost2010Prop35
280
     0
102
RTVSPost2010PropOp35
 70
     1
102
RTVSPost2010Prop36
280
     0
102
RTVSPost2010PropOp36
 70
     1
102
RTVSPost2010Prop37
 90
       50
102
RTVSPost2010PropOp37
 70
     1
102
RTVSPost2010Prop38
140
0.0
102
RTVSPost2010PropOp38
 70
     1
102
RTVSPost2010Prop39
140
1.0
102
RTVSPost2010PropOp39
 70
     1
102
RTVSPost2010Prop40
 90
        0
102
RTVSPost2010PropOp40
 70
     1
102
RTVSPost2010Prop41ColorIndex
 90
       18
102
RTVSPost2010Prop41ColorRGB
 90
        0
102
RTVSPost2010PropOp41
 70
     1
102
RTVSPost2010Prop42
 90
       50
102
RTVSPost2010PropOp42
 70
     1
102
RTVSPost2010Prop43
 90
        3
102
RTVSPost2010PropOp43
 70
     1
102
RTVSPost2010Prop44ColorIndex
 90
        5
102
RTVSPost2010Prop44ColorRGB
 90
      255
102
RTVSPost2010PropOp44
 70
     1
102
RTVSPost2010Prop45
280
     0
102
RTVSPost2010PropOp45
 70
     1
102
RTVSPost2010Prop46
 90
       50
102
RTVSPost2010PropOp46
 70
     1
102
RTVSPost2010Prop47
 90
       50
102
RTVSPost2010PropOp47
 70
     1
102
RTVSPost2010Prop48
 90
       50
102
RTVSPost2010PropOp48
 70
     1
102
RTVSPost2010Prop49
280
     0
102
RTVSPost2010PropOp49
 70
     1
102
RTVSPost2010Prop50
 90
       50
102
RTVSPost2010PropOp50
 70
     1
102
RTVSPost2010Prop51ColorIndex
 90
      256
102
RTVSPost2010Prop51ColorRGB
 90
-16777216
102
RTVSPost2010PropOp51
 70
     0
102
RTVSPost2010Prop52
140
1.0
102
RTVSPost2010PropOp52
 70
     0
102
RTVSPost2010Prop53
 90
        2
102
RTVSPost2010PropOp53
 70
     1
102
RTVSPost2010Prop54
  1
strokes_ogs.tif
102
RTVSPost2010PropOp54
 70
     1
102
RTVSPost2010Prop55
280
     0
102
RTVSPost2010PropOp55
 70
     1
102
RTVSPost2010Prop56
140
1.0
102
RTVSPost2010PropOp56
 70
     1
102
RTVSPost2010Prop57
140
1.0
102
RTVSPost2010PropOp57
 70
     1
  0
XRECORD
  5
87F25
102
{ACAD_REACTORS
330
876C8
102
}
330
876C8
100
AcDbXrecord
280
     1
102
RTVSPropertyOp0
 70
     1
102
RTVSPropertyOp1
 70
     1
102
RTVSPropertyOp2
 70
     1
102
RTVSPropertyOp3
 70
     1
102
RTVSPropertyOp4
 70
     1
102
RTVSPropertyOp5
 70
     1
102
RTVSPropertyOp6
 70
     1
102
RTVSPropertyOp7
 70
     1
102
RTVSPropertyOp8
 70
     1
102
RTVSPropertyOp9
 70
     1
102
RTVSPropertyOp10
 70
     1
102
RTVSPropertyOp11
 70
     1
102
RTVSPropertyOp12
 70
     1
102
RTVSPropertyOp13
 70
     1
102
RTVSPropertyOp14
 70
     1
102
RTVSPropertyOp15
 70
     1
102
RTVSPropertyOp16
 70
     1
102
RTVSPropertyOp17
 70
     1
102
RTVSPropertyOp18
 70
     1
102
RTVSPropertyOp19
 70
     1
102
RTVSPropertyOp20
 70
     1
102
RTVSPropertyOp21
 70
     1
102
RTVSPropertyOp22
 70
     1
102
RTVSPropertyOp23
 70
     1
102
RTVSPropertyOp24
 70
     1
102
RTVSPropertyOp25
 70
     1
102
RTVSPropertyOp26
 70
     1
102
RTVSPropertyOp27
 70
     1
102
RTVSPropertyOp28
 70
     1
102
RTVSPropertyOp29
 70
     1
102
RTVSPropertyOp30
 70
     1
102
RTVSPropertyOp31
 70
     1
102
RTVSPropertyOp32
 70
     1
102
RTVSPropertyOp33
 70
     1
102
RTVSPropertyOp34
 70
     1
102
RTVSPropertyOp35
 70
     1
102
RTVSPropertyOp36
 70
     1
102
RTVSPropertyOp37
 70
     1
102
RTVSPropertyOp38
 70
     1
102
RTVSPropertyOp39
 70
     1
102
RTVSPropertyOp40
 70
     1
102
RTVSPropertyOp41
 70
     1
102
RTVSPropertyOp42
 70
     1
102
RTVSPropertyOp43
 70
     1
102
RTVSPropertyOp44
 70
     1
102
RTVSPropertyOp45
 70
     1
102
RTVSPropertyOp46
 70
     1
102
RTVSPropertyOp47
 70
     1
102
RTVSPropertyOp48
 70
     1
102
RTVSPropertyOp49
 70
     1
102
RTVSPropertyOp50
 70
     1
102
RTVSPropertyOp51
 70
     0
102
RTVSPropertyOp52
 70
     0
102
RTVSPropertyOp53
 70
     1
102
RTVSPropertyOp54
 70
     1
102
RTVSPropertyOp55
 70
     1
102
RTVSPropertyOp56
 70
     1
102
RTVSPropertyOp57
 70
     1
102
RTVSPost2010Prop28
280
     0
102
RTVSPost2010PropOp28
 70
     1
102
RTVSPost2010Prop29
280
     1
102
RTVSPost2010PropOp29
 70
     1
102
RTVSPost2010Prop30
280
     1
102
RTVSPost2010PropOp30
 70
     1
102
RTVSPost2010Prop31
280
     0
102
RTVSPost2010PropOp31
 70
     1
102
RTVSPost2010Prop32
280
     0
102
RTVSPost2010PropOp32
 70
     1
102
RTVSPost2010Prop33
280
     0
102
RTVSPost2010PropOp33
 70
     1
102
RTVSPost2010Prop34
280
     0
102
RTVSPost2010PropOp34
 70
     1
102
RTVSPost2010Prop35
280
     0
102
RTVSPost2010PropOp35
 70
     1
102
RTVSPost2010Prop36
280
     0
102
RTVSPost2010PropOp36
 70
     1
102
RTVSPost2010Prop37
 90
       50
102
RTVSPost2010PropOp37
 70
     1
102
RTVSPost2010Prop38
140
0.0
102
RTVSPost2010PropOp38
 70
     1
102
RTVSPost2010Prop39
140
1.0
102
RTVSPost2010PropOp39
 70
     1
102
RTVSPost2010Prop40
 90
        0
102
RTVSPost2010PropOp40
 70
     1
102
RTVSPost2010Prop41ColorIndex
 90
       18
102
RTVSPost2010Prop41ColorRGB
 90
        0
102
RTVSPost2010PropOp41
 70
     1
102
RTVSPost2010Prop42
 90
       50
102
RTVSPost2010PropOp42
 70
     1
102
RTVSPost2010Prop43
 90
        3
102
RTVSPost2010PropOp43
 70
     1
102
RTVSPost2010Prop44ColorIndex
 90
        5
102
RTVSPost2010Prop44ColorRGB
 90
      255
102
RTVSPost2010PropOp44
 70
     1
102
RTVSPost2010Prop45
280
     0
102
RTVSPost2010PropOp45
 70
     1
102
RTVSPost2010Prop46
 90
       50
102
RTVSPost2010PropOp46
 70
     1
102
RTVSPost2010Prop47
 90
       50
102
RTVSPost2010PropOp47
 70
     1
102
RTVSPost2010Prop48
 90
       50
102
RTVSPost2010PropOp48
 70
     1
102
RTVSPost2010Prop49
280
     0
102
RTVSPost2010PropOp49
 70
     1
102
RTVSPost2010Prop50
 90
       50
102
RTVSPost2010PropOp50
 70
     1
102
RTVSPost2010Prop51ColorIndex
 90
      256
102
RTVSPost2010Prop51ColorRGB
 90
-16777216
102
RTVSPost2010PropOp51
 70
     0
102
RTVSPost2010Prop52
140
1.0
102
RTVSPost2010PropOp52
 70
     0
102
RTVSPost2010Prop53
 90
        2
102
RTVSPost2010PropOp53
 70
     1
102
RTVSPost2010Prop54
  1
strokes_ogs.tif
102
RTVSPost2010PropOp54
 70
     1
102
RTVSPost2010Prop55
280
     0
102
RTVSPost2010PropOp55
 70
     1
102
RTVSPost2010Prop56
140
1.0
102
RTVSPost2010PropOp56
 70
     1
102
RTVSPost2010Prop57
140
1.0
102
RTVSPost2010PropOp57
 70
     1
  0
XRECORD
  5
87F26
102
{ACAD_REACTORS
330
876C2
102
}
330
876C2
100
AcDbXrecord
280
     1
102
RTVSPropertyOp0
 70
     1
102
RTVSPropertyOp1
 70
     1
102
RTVSPropertyOp2
 70
     1
102
RTVSPropertyOp3
 70
     1
102
RTVSPropertyOp4
 70
     1
102
RTVSPropertyOp5
 70
     1
102
RTVSPropertyOp6
 70
     1
102
RTVSPropertyOp7
 70
     1
102
RTVSPropertyOp8
 70
     1
102
RTVSPropertyOp9
 70
     1
102
RTVSPropertyOp10
 70
     1
102
RTVSPropertyOp11
 70
     1
102
RTVSPropertyOp12
 70
     1
102
RTVSPropertyOp13
 70
     1
102
RTVSPropertyOp14
 70
     1
102
RTVSPropertyOp15
 70
     1
102
RTVSPropertyOp16
 70
     1
102
RTVSPropertyOp17
 70
     1
102
RTVSPropertyOp18
 70
     1
102
RTVSPropertyOp19
 70
     1
102
RTVSPropertyOp20
 70
     1
102
RTVSPropertyOp21
 70
     1
102
RTVSPropertyOp22
 70
     1
102
RTVSPropertyOp23
 70
     1
102
RTVSPropertyOp24
 70
     1
102
RTVSPropertyOp25
 70
     1
102
RTVSPropertyOp26
 70
     1
102
RTVSPropertyOp27
 70
     1
102
RTVSPropertyOp28
 70
     1
102
RTVSPropertyOp29
 70
     1
102
RTVSPropertyOp30
 70
     1
102
RTVSPropertyOp31
 70
     1
102
RTVSPropertyOp32
 70
     1
102
RTVSPropertyOp33
 70
     1
102
RTVSPropertyOp34
 70
     1
102
RTVSPropertyOp35
 70
     1
102
RTVSPropertyOp36
 70
     1
102
RTVSPropertyOp37
 70
     1
102
RTVSPropertyOp38
 70
     1
102
RTVSPropertyOp39
 70
     1
102
RTVSPropertyOp40
 70
     1
102
RTVSPropertyOp41
 70
     1
102
RTVSPropertyOp42
 70
     1
102
RTVSPropertyOp43
 70
     1
102
RTVSPropertyOp44
 70
     1
102
RTVSPropertyOp45
 70
     1
102
RTVSPropertyOp46
 70
     1
102
RTVSPropertyOp47
 70
     1
102
RTVSPropertyOp48
 70
     1
102
RTVSPropertyOp49
 70
     1
102
RTVSPropertyOp50
 70
     1
102
RTVSPropertyOp51
 70
     0
102
RTVSPropertyOp52
 70
     0
102
RTVSPropertyOp53
 70
     1
102
RTVSPropertyOp54
 70
     1
102
RTVSPropertyOp55
 70
     1
102
RTVSPropertyOp56
 70
     1
102
RTVSPropertyOp57
 70
     1
102
RTVSPost2010Prop28
280
     0
102
RTVSPost2010PropOp28
 70
     1
102
RTVSPost2010Prop29
280
     1
102
RTVSPost2010PropOp29
 70
     1
102
RTVSPost2010Prop30
280
     1
102
RTVSPost2010PropOp30
 70
     1
102
RTVSPost2010Prop31
280
     0
102
RTVSPost2010PropOp31
 70
     1
102
RTVSPost2010Prop32
280
     0
102
RTVSPost2010PropOp32
 70
     1
102
RTVSPost2010Prop33
280
     0
102
RTVSPost2010PropOp33
 70
     1
102
RTVSPost2010Prop34
280
     0
102
RTVSPost2010PropOp34
 70
     1
102
RTVSPost2010Prop35
280
     0
102
RTVSPost2010PropOp35
 70
     1
102
RTVSPost2010Prop36
280
     0
102
RTVSPost2010PropOp36
 70
     1
102
RTVSPost2010Prop37
 90
       50
102
RTVSPost2010PropOp37
 70
     1
102
RTVSPost2010Prop38
140
0.0
102
RTVSPost2010PropOp38
 70
     1
102
RTVSPost2010Prop39
140
1.0
102
RTVSPost2010PropOp39
 70
     1
102
RTVSPost2010Prop40
 90
        0
102
RTVSPost2010PropOp40
 70
     1
102
RTVSPost2010Prop41ColorIndex
 90
       18
102
RTVSPost2010Prop41ColorRGB
 90
        0
102
RTVSPost2010PropOp41
 70
     1
102
RTVSPost2010Prop42
 90
       50
102
RTVSPost2010PropOp42
 70
     1
102
RTVSPost2010Prop43
 90
        3
102
RTVSPost2010PropOp43
 70
     1
102
RTVSPost2010Prop44ColorIndex
 90
        5
102
RTVSPost2010Prop44ColorRGB
 90
      255
102
RTVSPost2010PropOp44
 70
     1
102
RTVSPost2010Prop45
280
     0
102
RTVSPost2010PropOp45
 70
     1
102
RTVSPost2010Prop46
 90
       50
102
RTVSPost2010PropOp46
 70
     1
102
RTVSPost2010Prop47
 90
       50
102
RTVSPost2010PropOp47
 70
     1
102
RTVSPost2010Prop48
 90
       50
102
RTVSPost2010PropOp48
 70
     1
102
RTVSPost2010Prop49
280
     0
102
RTVSPost2010PropOp49
 70
     1
102
RTVSPost2010Prop50
 90
       50
102
RTVSPost2010PropOp50
 70
     1
102
RTVSPost2010Prop51ColorIndex
 90
      256
102
RTVSPost2010Prop51ColorRGB
 90
-16777216
102
RTVSPost2010PropOp51
 70
     0
102
RTVSPost2010Prop52
140
1.0
102
RTVSPost2010PropOp52
 70
     0
102
RTVSPost2010Prop53
 90
        2
102
RTVSPost2010PropOp53
 70
     1
102
RTVSPost2010Prop54
  1
strokes_ogs.tif
102
RTVSPost2010PropOp54
 70
     1
102
RTVSPost2010Prop55
280
     0
102
RTVSPost2010PropOp55
 70
     1
102
RTVSPost2010Prop56
140
1.0
102
RTVSPost2010PropOp56
 70
     1
102
RTVSPost2010Prop57
140
1.0
102
RTVSPost2010PropOp57
 70
     1
  0
XRECORD
  5
87F27
102
{ACAD_REACTORS
330
876C4
102
}
330
876C4
100
AcDbXrecord
280
     1
102
RTVSPropertyOp0
 70
     1
102
RTVSPropertyOp1
 70
     1
102
RTVSPropertyOp2
 70
     1
102
RTVSPropertyOp3
 70
     1
102
RTVSPropertyOp4
 70
     1
102
RTVSPropertyOp5
 70
     1
102
RTVSPropertyOp6
 70
     1
102
RTVSPropertyOp7
 70
     1
102
RTVSPropertyOp8
 70
     1
102
RTVSPropertyOp9
 70
     1
102
RTVSPropertyOp10
 70
     1
102
RTVSPropertyOp11
 70
     1
102
RTVSPropertyOp12
 70
     1
102
RTVSPropertyOp13
 70
     1
102
RTVSPropertyOp14
 70
     1
102
RTVSPropertyOp15
 70
     1
102
RTVSPropertyOp16
 70
     1
102
RTVSPropertyOp17
 70
     1
102
RTVSPropertyOp18
 70
     1
102
RTVSPropertyOp19
 70
     1
102
RTVSPropertyOp20
 70
     1
102
RTVSPropertyOp21
 70
     1
102
RTVSPropertyOp22
 70
     1
102
RTVSPropertyOp23
 70
     1
102
RTVSPropertyOp24
 70
     1
102
RTVSPropertyOp25
 70
     1
102
RTVSPropertyOp26
 70
     1
102
RTVSPropertyOp27
 70
     1
102
RTVSPropertyOp28
 70
     1
102
RTVSPropertyOp29
 70
     1
102
RTVSPropertyOp30
 70
     1
102
RTVSPropertyOp31
 70
     1
102
RTVSPropertyOp32
 70
     1
102
RTVSPropertyOp33
 70
     1
102
RTVSPropertyOp34
 70
     1
102
RTVSPropertyOp35
 70
     1
102
RTVSPropertyOp36
 70
     1
102
RTVSPropertyOp37
 70
     1
102
RTVSPropertyOp38
 70
     1
102
RTVSPropertyOp39
 70
     1
102
RTVSPropertyOp40
 70
     1
102
RTVSPropertyOp41
 70
     1
102
RTVSPropertyOp42
 70
     1
102
RTVSPropertyOp43
 70
     1
102
RTVSPropertyOp44
 70
     1
102
RTVSPropertyOp45
 70
     1
102
RTVSPropertyOp46
 70
     1
102
RTVSPropertyOp47
 70
     1
102
RTVSPropertyOp48
 70
     1
102
RTVSPropertyOp49
 70
     1
102
RTVSPropertyOp50
 70
     1
102
RTVSPropertyOp51
 70
     0
102
RTVSPropertyOp52
 70
     0
102
RTVSPropertyOp53
 70
     1
102
RTVSPropertyOp54
 70
     1
102
RTVSPropertyOp55
 70
     1
102
RTVSPropertyOp56
 70
     1
102
RTVSPropertyOp57
 70
     1
102
RTVSPost2010Prop28
280
     0
102
RTVSPost2010PropOp28
 70
     1
102
RTVSPost2010Prop29
280
     1
102
RTVSPost2010PropOp29
 70
     1
102
RTVSPost2010Prop30
280
     1
102
RTVSPost2010PropOp30
 70
     1
102
RTVSPost2010Prop31
280
     0
102
RTVSPost2010PropOp31
 70
     1
102
RTVSPost2010Prop32
280
     0
102
RTVSPost2010PropOp32
 70
     1
102
RTVSPost2010Prop33
280
     0
102
RTVSPost2010PropOp33
 70
     1
102
RTVSPost2010Prop34
280
     0
102
RTVSPost2010PropOp34
 70
     1
102
RTVSPost2010Prop35
280
     0
102
RTVSPost2010PropOp35
 70
     1
102
RTVSPost2010Prop36
280
     0
102
RTVSPost2010PropOp36
 70
     1
102
RTVSPost2010Prop37
 90
       50
102
RTVSPost2010PropOp37
 70
     1
102
RTVSPost2010Prop38
140
0.0
102
RTVSPost2010PropOp38
 70
     1
102
RTVSPost2010Prop39
140
1.0
102
RTVSPost2010PropOp39
 70
     1
102
RTVSPost2010Prop40
 90
        0
102
RTVSPost2010PropOp40
 70
     1
102
RTVSPost2010Prop41ColorIndex
 90
       18
102
RTVSPost2010Prop41ColorRGB
 90
        0
102
RTVSPost2010PropOp41
 70
     1
102
RTVSPost2010Prop42
 90
       50
102
RTVSPost2010PropOp42
 70
     1
102
RTVSPost2010Prop43
 90
        3
102
RTVSPost2010PropOp43
 70
     1
102
RTVSPost2010Prop44ColorIndex
 90
        5
102
RTVSPost2010Prop44ColorRGB
 90
      255
102
RTVSPost2010PropOp44
 70
     1
102
RTVSPost2010Prop45
280
     0
102
RTVSPost2010PropOp45
 70
     1
102
RTVSPost2010Prop46
 90
       50
102
RTVSPost2010PropOp46
 70
     1
102
RTVSPost2010Prop47
 90
       50
102
RTVSPost2010PropOp47
 70
     1
102
RTVSPost2010Prop48
 90
       50
102
RTVSPost2010PropOp48
 70
     1
102
RTVSPost2010Prop49
280
     0
102
RTVSPost2010PropOp49
 70
     1
102
RTVSPost2010Prop50
 90
       50
102
RTVSPost2010PropOp50
 70
     1
102
RTVSPost2010Prop51ColorIndex
 90
      256
102
RTVSPost2010Prop51ColorRGB
 90
-16777216
102
RTVSPost2010PropOp51
 70
     0
102
RTVSPost2010Prop52
140
1.0
102
RTVSPost2010PropOp52
 70
     0
102
RTVSPost2010Prop53
 90
        2
102
RTVSPost2010PropOp53
 70
     1
102
RTVSPost2010Prop54
  1
strokes_ogs.tif
102
RTVSPost2010PropOp54
 70
     1
102
RTVSPost2010Prop55
280
     0
102
RTVSPost2010PropOp55
 70
     1
102
RTVSPost2010Prop56
140
1.0
102
RTVSPost2010PropOp56
 70
     1
102
RTVSPost2010Prop57
140
1.0
102
RTVSPost2010PropOp57
 70
     1
  0
XRECORD
  5
87F28
102
{ACAD_REACTORS
330
876BA
102
}
330
876BA
100
AcDbXrecord
280
     1
102
RTVSPropertyOp0
 70
     1
102
RTVSPropertyOp1
 70
     1
102
RTVSPropertyOp2
 70
     1
102
RTVSPropertyOp3
 70
     1
102
RTVSPropertyOp4
 70
     1
102
RTVSPropertyOp5
 70
     1
102
RTVSPropertyOp6
 70
     1
102
RTVSPropertyOp7
 70
     1
102
RTVSPropertyOp8
 70
     1
102
RTVSPropertyOp9
 70
     1
102
RTVSPropertyOp10
 70
     1
102
RTVSPropertyOp11
 70
     1
102
RTVSPropertyOp12
 70
     1
102
RTVSPropertyOp13
 70
     1
102
RTVSPropertyOp14
 70
     1
102
RTVSPropertyOp15
 70
     1
102
RTVSPropertyOp16
 70
     1
102
RTVSPropertyOp17
 70
     1
102
RTVSPropertyOp18
 70
     1
102
RTVSPropertyOp19
 70
     1
102
RTVSPropertyOp20
 70
     1
102
RTVSPropertyOp21
 70
     1
102
RTVSPropertyOp22
 70
     1
102
RTVSPropertyOp23
 70
     1
102
RTVSPropertyOp24
 70
     1
102
RTVSPropertyOp25
 70
     1
102
RTVSPropertyOp26
 70
     1
102
RTVSPropertyOp27
 70
     1
102
RTVSPropertyOp28
 70
     1
102
RTVSPropertyOp29
 70
     1
102
RTVSPropertyOp30
 70
     1
102
RTVSPropertyOp31
 70
     1
102
RTVSPropertyOp32
 70
     1
102
RTVSPropertyOp33
 70
     1
102
RTVSPropertyOp34
 70
     1
102
RTVSPropertyOp35
 70
     1
102
RTVSPropertyOp36
 70
     1
102
RTVSPropertyOp37
 70
     1
102
RTVSPropertyOp38
 70
     1
102
RTVSPropertyOp39
 70
     1
102
RTVSPropertyOp40
 70
     1
102
RTVSPropertyOp41
 70
     1
102
RTVSPropertyOp42
 70
     1
102
RTVSPropertyOp43
 70
     1
102
RTVSPropertyOp44
 70
     1
102
RTVSPropertyOp45
 70
     1
102
RTVSPropertyOp46
 70
     1
102
RTVSPropertyOp47
 70
     1
102
RTVSPropertyOp48
 70
     1
102
RTVSPropertyOp49
 70
     1
102
RTVSPropertyOp50
 70
     1
102
RTVSPropertyOp51
 70
     0
102
RTVSPropertyOp52
 70
     0
102
RTVSPropertyOp53
 70
     1
102
RTVSPropertyOp54
 70
     1
102
RTVSPropertyOp55
 70
     1
102
RTVSPropertyOp56
 70
     1
102
RTVSPropertyOp57
 70
     1
102
RTVSPost2010Prop28
280
     0
102
RTVSPost2010PropOp28
 70
     1
102
RTVSPost2010Prop29
280
     1
102
RTVSPost2010PropOp29
 70
     1
102
RTVSPost2010Prop30
280
     1
102
RTVSPost2010PropOp30
 70
     1
102
RTVSPost2010Prop31
280
     0
102
RTVSPost2010PropOp31
 70
     1
102
RTVSPost2010Prop32
280
     0
102
RTVSPost2010PropOp32
 70
     1
102
RTVSPost2010Prop33
280
     0
102
RTVSPost2010PropOp33
 70
     1
102
RTVSPost2010Prop34
280
     0
102
RTVSPost2010PropOp34
 70
     1
102
RTVSPost2010Prop35
280
     0
102
RTVSPost2010PropOp35
 70
     1
102
RTVSPost2010Prop36
280
     0
102
RTVSPost2010PropOp36
 70
     1
102
RTVSPost2010Prop37
 90
       50
102
RTVSPost2010PropOp37
 70
     1
102
RTVSPost2010Prop38
140
0.0
102
RTVSPost2010PropOp38
 70
     1
102
RTVSPost2010Prop39
140
1.0
102
RTVSPost2010PropOp39
 70
     1
102
RTVSPost2010Prop40
 90
        0
102
RTVSPost2010PropOp40
 70
     1
102
RTVSPost2010Prop41ColorIndex
 90
       18
102
RTVSPost2010Prop41ColorRGB
 90
        0
102
RTVSPost2010PropOp41
 70
     1
102
RTVSPost2010Prop42
 90
       50
102
RTVSPost2010PropOp42
 70
     1
102
RTVSPost2010Prop43
 90
        3
102
RTVSPost2010PropOp43
 70
     1
102
RTVSPost2010Prop44ColorIndex
 90
        5
102
RTVSPost2010Prop44ColorRGB
 90
      255
102
RTVSPost2010PropOp44
 70
     1
102
RTVSPost2010Prop45
280
     0
102
RTVSPost2010PropOp45
 70
     1
102
RTVSPost2010Prop46
 90
       50
102
RTVSPost2010PropOp46
 70
     1
102
RTVSPost2010Prop47
 90
       50
102
RTVSPost2010PropOp47
 70
     1
102
RTVSPost2010Prop48
 90
       50
102
RTVSPost2010PropOp48
 70
     1
102
RTVSPost2010Prop49
280
     0
102
RTVSPost2010PropOp49
 70
     1
102
RTVSPost2010Prop50
 90
       50
102
RTVSPost2010PropOp50
 70
     1
102
RTVSPost2010Prop51ColorIndex
 90
      256
102
RTVSPost2010Prop51ColorRGB
 90
-16777216
102
RTVSPost2010PropOp51
 70
     0
102
RTVSPost2010Prop52
140
1.0
102
RTVSPost2010PropOp52
 70
     0
102
RTVSPost2010Prop53
 90
        2
102
RTVSPost2010PropOp53
 70
     1
102
RTVSPost2010Prop54
  1
strokes_ogs.tif
102
RTVSPost2010PropOp54
 70
     1
102
RTVSPost2010Prop55
280
     0
102
RTVSPost2010PropOp55
 70
     1
102
RTVSPost2010Prop56
140
1.0
102
RTVSPost2010PropOp56
 70
     1
102
RTVSPost2010Prop57
140
1.0
102
RTVSPost2010PropOp57
 70
     1
  0
XRECORD
  5
87F29
102
{ACAD_REACTORS
330
876AE
102
}
330
876AE
100
AcDbXrecord
280
     1
102
RTVSPropertyOp0
 70
     1
102
RTVSPropertyOp1
 70
     1
102
RTVSPropertyOp2
 70
     1
102
RTVSPropertyOp3
 70
     1
102
RTVSPropertyOp4
 70
     1
102
RTVSPropertyOp5
 70
     1
102
RTVSPropertyOp6
 70
     1
102
RTVSPropertyOp7
 70
     1
102
RTVSPropertyOp8
 70
     1
102
RTVSPropertyOp9
 70
     1
102
RTVSPropertyOp10
 70
     1
102
RTVSPropertyOp11
 70
     1
102
RTVSPropertyOp12
 70
     1
102
RTVSPropertyOp13
 70
     1
102
RTVSPropertyOp14
 70
     1
102
RTVSPropertyOp15
 70
     1
102
RTVSPropertyOp16
 70
     1
102
RTVSPropertyOp17
 70
     1
102
RTVSPropertyOp18
 70
     1
102
RTVSPropertyOp19
 70
     1
102
RTVSPropertyOp20
 70
     1
102
RTVSPropertyOp21
 70
     1
102
RTVSPropertyOp22
 70
     1
102
RTVSPropertyOp23
 70
     1
102
RTVSPropertyOp24
 70
     1
102
RTVSPropertyOp25
 70
     1
102
RTVSPropertyOp26
 70
     1
102
RTVSPropertyOp27
 70
     1
102
RTVSPropertyOp28
 70
     1
102
RTVSPropertyOp29
 70
     1
102
RTVSPropertyOp30
 70
     1
102
RTVSPropertyOp31
 70
     1
102
RTVSPropertyOp32
 70
     1
102
RTVSPropertyOp33
 70
     1
102
RTVSPropertyOp34
 70
     1
102
RTVSPropertyOp35
 70
     1
102
RTVSPropertyOp36
 70
     1
102
RTVSPropertyOp37
 70
     1
102
RTVSPropertyOp38
 70
     1
102
RTVSPropertyOp39
 70
     1
102
RTVSPropertyOp40
 70
     1
102
RTVSPropertyOp41
 70
     1
102
RTVSPropertyOp42
 70
     1
102
RTVSPropertyOp43
 70
     1
102
RTVSPropertyOp44
 70
     1
102
RTVSPropertyOp45
 70
     1
102
RTVSPropertyOp46
 70
     1
102
RTVSPropertyOp47
 70
     1
102
RTVSPropertyOp48
 70
     1
102
RTVSPropertyOp49
 70
     1
102
RTVSPropertyOp50
 70
     1
102
RTVSPropertyOp51
 70
     0
102
RTVSPropertyOp52
 70
     0
102
RTVSPropertyOp53
 70
     1
102
RTVSPropertyOp54
 70
     1
102
RTVSPropertyOp55
 70
     1
102
RTVSPropertyOp56
 70
     1
102
RTVSPropertyOp57
 70
     1
102
RTVSPost2010Prop28
280
     0
102
RTVSPost2010PropOp28
 70
     1
102
RTVSPost2010Prop29
280
     1
102
RTVSPost2010PropOp29
 70
     1
102
RTVSPost2010Prop30
280
     1
102
RTVSPost2010PropOp30
 70
     1
102
RTVSPost2010Prop31
280
     0
102
RTVSPost2010PropOp31
 70
     1
102
RTVSPost2010Prop32
280
     0
102
RTVSPost2010PropOp32
 70
     1
102
RTVSPost2010Prop33
280
     0
102
RTVSPost2010PropOp33
 70
     1
102
RTVSPost2010Prop34
280
     0
102
RTVSPost2010PropOp34
 70
     1
102
RTVSPost2010Prop35
280
     0
102
RTVSPost2010PropOp35
 70
     1
102
RTVSPost2010Prop36
280
     0
102
RTVSPost2010PropOp36
 70
     1
102
RTVSPost2010Prop37
 90
       50
102
RTVSPost2010PropOp37
 70
     1
102
RTVSPost2010Prop38
140
0.0
102
RTVSPost2010PropOp38
 70
     1
102
RTVSPost2010Prop39
140
1.0
102
RTVSPost2010PropOp39
 70
     1
102
RTVSPost2010Prop40
 90
        0
102
RTVSPost2010PropOp40
 70
     1
102
RTVSPost2010Prop41ColorIndex
 90
       18
102
RTVSPost2010Prop41ColorRGB
 90
        0
102
RTVSPost2010PropOp41
 70
     1
102
RTVSPost2010Prop42
 90
       50
102
RTVSPost2010PropOp42
 70
     1
102
RTVSPost2010Prop43
 90
        3
102
RTVSPost2010PropOp43
 70
     1
102
RTVSPost2010Prop44ColorIndex
 90
        5
102
RTVSPost2010Prop44ColorRGB
 90
      255
102
RTVSPost2010PropOp44
 70
     1
102
RTVSPost2010Prop45
280
     0
102
RTVSPost2010PropOp45
 70
     1
102
RTVSPost2010Prop46
 90
       50
102
RTVSPost2010PropOp46
 70
     1
102
RTVSPost2010Prop47
 90
       50
102
RTVSPost2010PropOp47
 70
     1
102
RTVSPost2010Prop48
 90
       50
102
RTVSPost2010PropOp48
 70
     1
102
RTVSPost2010Prop49
280
     0
102
RTVSPost2010PropOp49
 70
     1
102
RTVSPost2010Prop50
 90
       50
102
RTVSPost2010PropOp50
 70
     1
102
RTVSPost2010Prop51ColorIndex
 90
      256
102
RTVSPost2010Prop51ColorRGB
 90
-16777216
102
RTVSPost2010PropOp51
 70
     0
102
RTVSPost2010Prop52
140
1.0
102
RTVSPost2010PropOp52
 70
     0
102
RTVSPost2010Prop53
 90
        2
102
RTVSPost2010PropOp53
 70
     1
102
RTVSPost2010Prop54
  1
strokes_ogs.tif
102
RTVSPost2010PropOp54
 70
     1
102
RTVSPost2010Prop55
280
     0
102
RTVSPost2010PropOp55
 70
     1
102
RTVSPost2010Prop56
140
1.0
102
RTVSPost2010PropOp56
 70
     1
102
RTVSPost2010Prop57
140
1.0
102
RTVSPost2010PropOp57
 70
     1
  0
XRECORD
  5
87F2A
102
{ACAD_REACTORS
330
876C6
102
}
330
876C6
100
AcDbXrecord
280
     1
102
RTVSPropertyOp0
 70
     1
102
RTVSPropertyOp1
 70
     1
102
RTVSPropertyOp2
 70
     1
102
RTVSPropertyOp3
 70
     1
102
RTVSPropertyOp4
 70
     1
102
RTVSPropertyOp5
 70
     1
102
RTVSPropertyOp6
 70
     1
102
RTVSPropertyOp7
 70
     1
102
RTVSPropertyOp8
 70
     1
102
RTVSPropertyOp9
 70
     1
102
RTVSPropertyOp10
 70
     1
102
RTVSPropertyOp11
 70
     1
102
RTVSPropertyOp12
 70
     1
102
RTVSPropertyOp13
 70
     1
102
RTVSPropertyOp14
 70
     1
102
RTVSPropertyOp15
 70
     1
102
RTVSPropertyOp16
 70
     1
102
RTVSPropertyOp17
 70
     1
102
RTVSPropertyOp18
 70
     1
102
RTVSPropertyOp19
 70
     1
102
RTVSPropertyOp20
 70
     1
102
RTVSPropertyOp21
 70
     1
102
RTVSPropertyOp22
 70
     1
102
RTVSPropertyOp23
 70
     1
102
RTVSPropertyOp24
 70
     1
102
RTVSPropertyOp25
 70
     1
102
RTVSPropertyOp26
 70
     1
102
RTVSPropertyOp27
 70
     1
102
RTVSPropertyOp28
 70
     1
102
RTVSPropertyOp29
 70
     1
102
RTVSPropertyOp30
 70
     1
102
RTVSPropertyOp31
 70
     1
102
RTVSPropertyOp32
 70
     1
102
RTVSPropertyOp33
 70
     1
102
RTVSPropertyOp34
 70
     1
102
RTVSPropertyOp35
 70
     1
102
RTVSPropertyOp36
 70
     1
102
RTVSPropertyOp37
 70
     1
102
RTVSPropertyOp38
 70
     1
102
RTVSPropertyOp39
 70
     1
102
RTVSPropertyOp40
 70
     1
102
RTVSPropertyOp41
 70
     1
102
RTVSPropertyOp42
 70
     1
102
RTVSPropertyOp43
 70
     1
102
RTVSPropertyOp44
 70
     1
102
RTVSPropertyOp45
 70
     1
102
RTVSPropertyOp46
 70
     1
102
RTVSPropertyOp47
 70
     1
102
RTVSPropertyOp48
 70
     1
102
RTVSPropertyOp49
 70
     1
102
RTVSPropertyOp50
 70
     1
102
RTVSPropertyOp51
 70
     0
102
RTVSPropertyOp52
 70
     0
102
RTVSPropertyOp53
 70
     1
102
RTVSPropertyOp54
 70
     1
102
RTVSPropertyOp55
 70
     1
102
RTVSPropertyOp56
 70
     1
102
RTVSPropertyOp57
 70
     1
102
RTVSPost2010Prop28
280
     0
102
RTVSPost2010PropOp28
 70
     1
102
RTVSPost2010Prop29
280
     1
102
RTVSPost2010PropOp29
 70
     1
102
RTVSPost2010Prop30
280
     1
102
RTVSPost2010PropOp30
 70
     1
102
RTVSPost2010Prop31
280
     0
102
RTVSPost2010PropOp31
 70
     1
102
RTVSPost2010Prop32
280
     0
102
RTVSPost2010PropOp32
 70
     1
102
RTVSPost2010Prop33
280
     0
102
RTVSPost2010PropOp33
 70
     1
102
RTVSPost2010Prop34
280
     0
102
RTVSPost2010PropOp34
 70
     1
102
RTVSPost2010Prop35
280
     0
102
RTVSPost2010PropOp35
 70
     1
102
RTVSPost2010Prop36
280
     0
102
RTVSPost2010PropOp36
 70
     1
102
RTVSPost2010Prop37
 90
       50
102
RTVSPost2010PropOp37
 70
     1
102
RTVSPost2010Prop38
140
0.0
102
RTVSPost2010PropOp38
 70
     1
102
RTVSPost2010Prop39
140
1.0
102
RTVSPost2010PropOp39
 70
     1
102
RTVSPost2010Prop40
 90
        0
102
RTVSPost2010PropOp40
 70
     1
102
RTVSPost2010Prop41ColorIndex
 90
       18
102
RTVSPost2010Prop41ColorRGB
 90
        0
102
RTVSPost2010PropOp41
 70
     1
102
RTVSPost2010Prop42
 90
       50
102
RTVSPost2010PropOp42
 70
     1
102
RTVSPost2010Prop43
 90
        3
102
RTVSPost2010PropOp43
 70
     1
102
RTVSPost2010Prop44ColorIndex
 90
        5
102
RTVSPost2010Prop44ColorRGB
 90
      255
102
RTVSPost2010PropOp44
 70
     1
102
RTVSPost2010Prop45
280
     0
102
RTVSPost2010PropOp45
 70
     1
102
RTVSPost2010Prop46
 90
       50
102
RTVSPost2010PropOp46
 70
     1
102
RTVSPost2010Prop47
 90
       50
102
RTVSPost2010PropOp47
 70
     1
102
RTVSPost2010Prop48
 90
       50
102
RTVSPost2010PropOp48
 70
     1
102
RTVSPost2010Prop49
280
     0
102
RTVSPost2010PropOp49
 70
     1
102
RTVSPost2010Prop50
 90
       50
102
RTVSPost2010PropOp50
 70
     1
102
RTVSPost2010Prop51ColorIndex
 90
      256
102
RTVSPost2010Prop51ColorRGB
 90
-16777216
102
RTVSPost2010PropOp51
 70
     0
102
RTVSPost2010Prop52
140
1.0
102
RTVSPost2010PropOp52
 70
     0
102
RTVSPost2010Prop53
 90
        2
102
RTVSPost2010PropOp53
 70
     1
102
RTVSPost2010Prop54
  1
strokes_ogs.tif
102
RTVSPost2010PropOp54
 70
     1
102
RTVSPost2010Prop55
280
     0
102
RTVSPost2010PropOp55
 70
     1
102
RTVSPost2010Prop56
140
1.0
102
RTVSPost2010PropOp56
 70
     1
102
RTVSPost2010Prop57
140
1.0
102
RTVSPost2010PropOp57
 70
     1
  0
ENDSEC
  0
EOF
