  0
SECTION
  2
HEADER
  9
$ACADVER
  1
AC1015
  9
$ACADMAINTVER
 70
    20
  9
$DWGCODEPAGE
  3
ANSI_932
  9
$INSBASE
 10
0.0
 20
0.0
 30
0.0
  9
$EXTMIN
 10
-35.61345902791494
 20
-51.5114707344605
 30
0.0
  9
$EXTMAX
 10
106.7333333333334
 20
89.51351328084525
 30
0.0
  9
$LIMMIN
 10
0.0
 20
0.0
  9
$LIMMAX
 10
420.0
 20
297.0
  9
$ORTHOMODE
 70
     0
  9
$REGENMODE
 70
     1
  9
$FILLMODE
 70
     1
  9
$QTEXTMODE
 70
     0
  9
$MIRRTEXT
 70
     1
  9
$LTSCALE
 40
1.0
  9
$ATTMODE
 70
     1
  9
$TEXTSIZE
 40
3.5
  9
$TRACEWID
 40
1.0
  9
$TEXTSTYLE
  7
simplex
  9
$CLAYER
  8
0
  9
$CELTYPE
  6
ByLayer
  9
$CECOLOR
 62
   256
  9
$CELTSCALE
 40
1.0
  9
$DISPSILH
 70
     0
  9
$DIMSCALE
 40
0.0
  9
$DIMASZ
 40
3.5
  9
$DIMEXO
 40
0.0
  9
$DIMDLI
 40
0.38
  9
$DIMRND
 40
0.0
  9
$DIMDLE
 40
0.0
  9
$DIMEXE
 40
1.5
  9
$DIMTP
 40
0.0
  9
$DIMTM
 40
0.0
  9
$DIMTXT
 40
3.5
  9
$DIMCEN
 40
0.09
  9
$DIMTSZ
 40
0.0
  9
$DIMTOL
 70
     0
  9
$DIMLIM
 70
     0
  9
$DIMTIH
 70
     0
  9
$DIMTOH
 70
     0
  9
$DIMSE1
 70
     0
  9
$DIMSE2
 70
     0
  9
$DIMTAD
 70
     1
  9
$DIMZIN
 70
     8
  9
$DIMBLK
  1

  9
$DIMASO
 70
     1
  9
$DIMSHO
 70
     1
  9
$DIMPOST
  1

  9
$DIMAPOST
  1

  9
$DIMALT
 70
     0
  9
$DIMALTD
 70
     2
  9
$DIMALTF
 40
25.4
  9
$DIMLFAC
 40
1.0
  9
$DIMTOFL
 70
     0
  9
$DIMTVP
 40
0.0
  9
$DIMTIX
 70
     0
  9
$DIMSOXD
 70
     0
  9
$DIMSAH
 70
     0
  9
$DIMBLK1
  1

  9
$DIMBLK2
  1

  9
$DIMSTYLE
  2
コピー - ISO-25
  9
$DIMCLRD
 70
   256
  9
$DIMCLRE
 70
   256
  9
$DIMCLRT
 70
   256
  9
$DIMTFAC
 40
1.0
  9
$DIMGAP
 40
2.299999999999998
  9
$DIMJUST
 70
     0
  9
$DIMSD1
 70
     0
  9
$DIMSD2
 70
     0
  9
$DIMTOLJ
 70
     1
  9
$DIMTZIN
 70
     8
  9
$DIMALTZ
 70
     0
  9
$DIMALTTZ
 70
     0
  9
$DIMUPT
 70
     0
  9
$DIMDEC
 70
     2
  9
$DIMTDEC
 70
     2
  9
$DIMALTU
 70
     2
  9
$DIMALTTD
 70
     2
  9
$DIMTXSTY
  7
simplex
  9
$DIMAUNIT
 70
     0
  9
$DIMADEC
 70
     0
  9
$DIMALTRND
 40
0.0
  9
$DIMAZIN
 70
     0
  9
$DIMDSEP
 70
    46
  9
$DIMATFIT
 70
     3
  9
$DIMFRAC
 70
     0
  9
$DIMLDRBLK
  1

  9
$DIMLUNIT
 70
     2
  9
$DIMLWD
 70
    -1
  9
$DIMLWE
 70
    -1
  9
$DIMTMOVE
 70
     0
  9
$LUNITS
 70
     2
  9
$LUPREC
 70
     4
  9
$SKETCHINC
 40
1.0
  9
$FILLETRAD
 40
0.8
  9
$AUNITS
 70
     0
  9
$AUPREC
 70
     0
  9
$MENU
  1
.
  9
$ELEVATION
 40
0.0
  9
$PELEVATION
 40
0.0
  9
$THICKNESS
 40
0.0
  9
$LIMCHECK
 70
     0
  9
$CHAMFERA
 40
10.0
  9
$CHAMFERB
 40
10.0
  9
$CHAMFERC
 40
20.0
  9
$CHAMFERD
 40
0.0
  9
$SKPOLY
 70
     0
  9
$TDCREATE
 40
2455489.391063368
  9
$TDUCREATE
 40
2455489.057730035
  9
$TDUPDATE
 40
2458948.458575694
  9
$TDUUPDATE
 40
2458948.125242361
  9
$TDINDWG
 40
2.502547581
  9
$TDUSRTIMER
 40
2.502495613
  9
$USRTIMER
 70
     1
  9
$ANGBASE
 50
0.0
  9
$ANGDIR
 70
     0
  9
$PDMODE
 70
     0
  9
$PDSIZE
 40
0.0
  9
$PLINEWID
 40
0.0
  9
$SPLFRAME
 70
     0
  9
$SPLINETYPE
 70
     6
  9
$SPLINESEGS
 70
     8
  9
$HANDSEED
  5
8888B
  9
$SURFTAB1
 70
     6
  9
$SURFTAB2
 70
     6
  9
$SURFTYPE
 70
     6
  9
$SURFU
 70
     6
  9
$SURFV
 70
     6
  9
$UCSBASE
  2

  9
$UCSNAME
  2

  9
$UCSORG
 10
0.0
 20
0.0
 30
0.0
  9
$UCSXDIR
 10
1.0
 20
0.0
 30
0.0
  9
$UCSYDIR
 10
0.0
 20
1.0
 30
0.0
  9
$UCSORTHOREF
  2

  9
$UCSORTHOVIEW
 70
     0
  9
$UCSORGTOP
 10
0.0
 20
0.0
 30
0.0
  9
$UCSORGBOTTOM
 10
0.0
 20
0.0
 30
0.0
  9
$UCSORGLEFT
 10
0.0
 20
0.0
 30
0.0
  9
$UCSORGRIGHT
 10
0.0
 20
0.0
 30
0.0
  9
$UCSORGFRONT
 10
0.0
 20
0.0
 30
0.0
  9
$UCSORGBACK
 10
0.0
 20
0.0
 30
0.0
  9
$PUCSBASE
  2

  9
$PUCSNAME
  2

  9
$PUCSORG
 10
0.0
 20
0.0
 30
0.0
  9
$PUCSXDIR
 10
1.0
 20
0.0
 30
0.0
  9
$PUCSYDIR
 10
0.0
 20
1.0
 30
0.0
  9
$PUCSORTHOREF
  2

  9
$PUCSORTHOVIEW
 70
     0
  9
$PUCSORGTOP
 10
0.0
 20
0.0
 30
0.0
  9
$PUCSORGBOTTOM
 10
0.0
 20
0.0
 30
0.0
  9
$PUCSORGLEFT
 10
0.0
 20
0.0
 30
0.0
  9
$PUCSORGRIGHT
 10
0.0
 20
0.0
 30
0.0
  9
$PUCSORGFRONT
 10
0.0
 20
0.0
 30
0.0
  9
$PUCSORGBACK
 10
0.0
 20
0.0
 30
0.0
  9
$USERI1
 70
     0
  9
$USERI2
 70
     0
  9
$USERI3
 70
     0
  9
$USERI4
 70
     0
  9
$USERI5
 70
     0
  9
$USERR1
 40
0.0
  9
$USERR2
 40
0.0
  9
$USERR3
 40
0.0
  9
$USERR4
 40
0.0
  9
$USERR5
 40
0.0
  9
$WORLDVIEW
 70
     1
  9
$SHADEDGE
 70
     3
  9
$SHADEDIF
 70
    70
  9
$TILEMODE
 70
     1
  9
$MAXACTVP
 70
    64
  9
$PINSBASE
 10
0.0
 20
0.0
 30
0.0
  9
$PLIMCHECK
 70
     0
  9
$PEXTMIN
 10
26.66999878883364
 20
20.31999878883365
 30
0.0
  9
$PEXTMAX
 10
240.0299890995025
 20
182.8799890995025
 30
0.0
  9
$PLIMMIN
 10
-6.350006103515625
 20
-6.349999904632567
  9
$PLIMMAX
 10
273.0499877929688
 20
209.5499939918518
  9
$UNITMODE
 70
     0
  9
$VISRETAIN
 70
     1
  9
$PLINEGEN
 70
     0
  9
$PSLTSCALE
 70
     1
  9
$TREEDEPTH
 70
  3020
  9
$CMLSTYLE
  2
Standard
  9
$CMLJUST
 70
     0
  9
$CMLSCALE
 40
20.0
  9
$PROXYGRAPHICS
 70
     1
  9
$MEASUREMENT
 70
     1
  9
$CELWEIGHT
370
    -1
  9
$ENDCAPS
280
     0
  9
$JOINSTYLE
280
     0
  9
$LWDISPLAY
290
     0
  9
$INSUNITS
 70
     4
  9
$HYPERLINKBASE
  1

  9
$STYLESHEET
  1

  9
$XEDIT
290
     1
  9
$CEPSNTYPE
380
     0
  9
$PSTYLEMODE
290
     1
  9
$FINGERPRINTGUID
  2
{E08E68C6-9A8F-41D3-A408-324265B4B446}
  9
$VERSIONGUID
  2
{910F6513-C9EB-49C8-8F84-2617C1F2A692}
  9
$EXTNAMES
290
     1
  9
$PSVPSCALE
 40
0.0
  9
$OLESTARTUP
290
     0
  0
ENDSEC
  0
SECTION
  2
CLASSES
  0
CLASS
  1
ACDBDICTIONARYWDFLT
  2
AcDbDictionaryWithDefault
  3
ObjectDBX Classes
 90
        0
280
     0
281
     0
  0
CLASS
  1
ACDBPLACEHOLDER
  2
AcDbPlaceHolder
  3
ObjectDBX Classes
 90
    32768
280
     0
281
     0
  0
CLASS
  1
LAYOUT
  2
AcDbLayout
  3
ObjectDBX Classes
 90
    32768
280
     0
281
     0
  0
CLASS
  1
DICTIONARYVAR
  2
AcDbDictionaryVar
  3
ObjectDBX Classes
 90
        0
280
     0
281
     0
  0
CLASS
  1
TABLESTYLE
  2
AcDbTableStyle
  3
ObjectDBX Classes
 90
     4095
280
     0
281
     0
  0
CLASS
  1
SORTENTSTABLE
  2
AcDbSortentsTable
  3
ObjectDBX Classes
 90
        0
280
     0
281
     0
  0
CLASS
  1
DIMASSOC
  2
AcDbDimAssoc
  3
"AcDbDimAssoc|Product Desc:     AcDim ARX App For Dimension|Company:          Autodesk, Inc.|WEB Address:      www.autodesk.com"
 90
        0
280
     0
281
     0
  0
CLASS
  1
ACAD_EVALUATION_GRAPH
  2
AcDbEvalGraph
  3
ObjectDBX Classes
 90
    33921
280
     0
281
     0
  0
CLASS
  1
ACAECUSTOBJ
  2
AcAeEditorObj
  3
AcAeEditorObj
 90
    33792
280
     0
281
     0
  0
CLASS
  1
ACDB_DYNAMICBLOCKPURGEPREVENTER_VERSION
  2
AcDbDynamicBlockPurgePreventer
  3
ObjectDBX Classes
 90
    33921
280
     0
281
     0
  0
CLASS
  1
MATERIAL
  2
AcDbMaterial
  3
ObjectDBX Classes
 90
     1153
280
     0
281
     0
  0
CLASS
  1
VISUALSTYLE
  2
AcDbVisualStyle
  3
ObjectDBX Classes
 90
     4095
280
     0
281
     0
  0
CLASS
  1
SCALE
  2
AcDbScale
  3
ObjectDBX Classes
 90
     1153
280
     0
281
     0
  0
CLASS
  1
MLEADERSTYLE
  2
AcDbMLeaderStyle
  3
ACDB_MLEADERSTYLE_CLASS
 90
     4095
280
     0
281
     0
  0
CLASS
  1
ACDBSECTIONVIEWSTYLE
  2
AcDbSectionViewStyle
  3
ObjectDBX Classes
 90
     1025
280
     0
281
     0
  0
CLASS
  1
ACDBDETAILVIEWSTYLE
  2
AcDbDetailViewStyle
  3
ObjectDBX Classes
 90
     1025
280
     0
281
     0
  0
CLASS
  1
CELLSTYLEMAP
  2
AcDbCellStyleMap
  3
ObjectDBX Classes
 90
     1152
280
     0
281
     0
  0
CLASS
  1
ACDBPLACEHOLDER
  2
AcDbPlaceHolder
  3
ObjectDBX Classes
 90
    32768
280
     0
281
     0
  0
CLASS
  1
LAYOUT
  2
AcDbLayout
  3
ObjectDBX Classes
 90
    32768
280
     0
281
     0
  0
CLASS
  1
ACDBPLACEHOLDER
  2
AcDbPlaceHolder
  3
ObjectDBX Classes
 90
    32768
280
     0
281
     0
  0
CLASS
  1
LAYOUT
  2
AcDbLayout
  3
ObjectDBX Classes
 90
    32768
280
     0
281
     0
  0
CLASS
  1
ACDBPLACEHOLDER
  2
AcDbPlaceHolder
  3
ObjectDBX Classes
 90
    32768
280
     0
281
     0
  0
CLASS
  1
LAYOUT
  2
AcDbLayout
  3
ObjectDBX Classes
 90
    32768
280
     0
281
     0
  0
CLASS
  1
ACDBPLACEHOLDER
  2
AcDbPlaceHolder
  3
ObjectDBX Classes
 90
        0
280
     0
281
     0
  0
CLASS
  1
LAYOUT
  2
AcDbLayout
  3
ObjectDBX Classes
 90
        0
280
     0
281
     0
  0
ENDSEC
  0
SECTION
  2
TABLES
  0
TABLE
  2
VPORT
  5
8
102
{ACAD_XDICTIONARY
360
8831E
102
}
330
0
100
AcDbSymbolTable
 70
     1
  0
VPORT
  5
4A360
330
8
100
AcDbSymbolTableRecord
100
AcDbViewportTableRecord
  2
*Active
 70
     0
 10
0.0
 20
0.0
 11
1.0
 21
1.0
 12
33.1953466287973
 22
19.0592659780888
 13
0.0
 23
0.0
 14
10.0
 24
10.0
 15
10.0
 25
10.0
 16
0.0
 26
0.0
 36
1.0
 17
0.0
 27
0.0
 37
0.0
 40
149.2357203739567
 41
1.705156950672645
 42
50.0
 43
0.0
 44
0.0
 50
0.0
 51
0.0
 71
     0
 72
  1000
 73
     1
 74
     1
 75
     0
 76
     0
 77
     0
 78
     0
281
     0
 65
     1
110
0.0
120
0.0
130
0.0
111
1.0
121
0.0
131
0.0
112
0.0
122
1.0
132
0.0
 79
     0
146
0.0
1001
ACAD_NAV_VCDISPLAY
1070
     3
  0
ENDTAB
  0
TABLE
  2
LTYPE
  5
5
330
0
100
AcDbSymbolTable
 70
     3
  0
LTYPE
  5
14
330
5
100
AcDbSymbolTableRecord
100
AcDbLinetypeTableRecord
  2
ByBlock
 70
     0
  3

 72
    65
 73
     0
 40
0.0
  0
LTYPE
  5
15
330
5
100
AcDbSymbolTableRecord
100
AcDbLinetypeTableRecord
  2
ByLayer
 70
     0
  3

 72
    65
 73
     0
 40
0.0
  0
LTYPE
  5
16
330
5
100
AcDbSymbolTableRecord
100
AcDbLinetypeTableRecord
  2
Continuous
 70
     0
  3
Solid line
 72
    65
 73
     0
 40
0.0
  0
LTYPE
  5
4A76E
330
5
100
AcDbSymbolTableRecord
100
AcDbLinetypeTableRecord
  2
CENTER2
 70
     0
  3
Center (.5x) ___ _ ___ _ ___ _ ___ _ ___ _ ___
 72
    65
 73
     4
 40
28.575
 49
19.05
 74
     0
 49
-3.174999999999998
 74
     0
 49
3.174999999999998
 74
     0
 49
-3.174999999999998
 74
     0
  0
LTYPE
  5
876F6
330
5
100
AcDbSymbolTableRecord
100
AcDbLinetypeTableRecord
  2
HIDDEN
 70
     0
  3
Hidden __ __ __ __ __ __ __ __ __ __ __ __ __ _
 72
    65
 73
     2
 40
9.524999999999996
 49
6.349999999999997
 74
     0
 49
-3.174999999999998
 74
     0
  0
ENDTAB
  0
TABLE
  2
LAYER
  5
2
102
{ACAD_XDICTIONARY
360
E2
102
}
330
0
100
AcDbSymbolTable
 70
    10
  0
LAYER
  5
10
102
{ACAD_XDICTIONARY
360
4A86C
102
}
330
2
100
AcDbSymbolTableRecord
100
AcDbLayerTableRecord
  2
0
 70
     0
 62
     7
  6
Continuous
370
    -3
390
F
  0
LAYER
  5
31B6
330
2
100
AcDbSymbolTableRecord
100
AcDbLayerTableRecord
  2
Defpoints
 70
     0
 62
     7
  6
Continuous
290
     0
370
    -3
390
F
  0
LAYER
  5
4A772
102
{ACAD_XDICTIONARY
360
4A773
102
}
330
2
100
AcDbSymbolTableRecord
100
AcDbLayerTableRecord
  2
1
 70
     0
 62
     4
  6
Continuous
370
    50
390
F
1001
AcAecLayerStandard
1000

1000
Contour
  0
LAYER
  5
4A774
102
{ACAD_XDICTIONARY
360
4A775
102
}
330
2
100
AcDbSymbolTableRecord
100
AcDbLayerTableRecord
  2
2
 70
     0
 62
     7
  6
Continuous
370
    25
390
F
1001
AcAecLayerStandard
1000

1000
Dimension milling
  0
LAYER
  5
4A776
102
{ACAD_XDICTIONARY
360
4A777
102
}
330
2
100
AcDbSymbolTableRecord
100
AcDbLayerTableRecord
  2
4
 70
     0
 62
     2
  6
CENTER2
370
    25
390
F
1001
AcAecLayerStandard
1000

1000
Center line
  0
LAYER
  5
4A778
102
{ACAD_XDICTIONARY
360
4A779
102
}
330
2
100
AcDbSymbolTableRecord
100
AcDbLayerTableRecord
  2
cut
 70
     0
 62
     1
  6
Continuous
370
    25
390
F
1001
AcAecLayerStandard
1000

1000
contour
  0
LAYER
  5
4A77A
102
{ACAD_XDICTIONARY
360
4A77B
102
}
330
2
100
AcDbSymbolTableRecord
100
AcDbLayerTableRecord
  2
nocut
 70
     0
 62
     7
  6
Continuous
370
    25
390
F
1001
AcAecLayerStandard
1000

1000
contour
  0
LAYER
  5
4A77E
102
{ACAD_XDICTIONARY
360
4A77F
102
}
330
2
100
AcDbSymbolTableRecord
100
AcDbLayerTableRecord
  2
sk2
 70
     0
 62
     7
  6
Continuous
370
    25
390
F
1001
AcAecLayerStandard
1000

1000
sk2 dimension
  0
LAYER
  5
4A782
102
{ACAD_XDICTIONARY
360
4A783
102
}
330
2
100
AcDbSymbolTableRecord
100
AcDbLayerTableRecord
  2
sk6
 70
     0
 62
     5
  6
Continuous
370
    35
390
F
1001
AcAecLayerStandard
1000

1000
sk6 text
  0
LAYER
  5
876F4
102
{ACAD_XDICTIONARY
360
8831C
102
}
330
2
100
AcDbSymbolTableRecord
100
AcDbLayerTableRecord
  2
sk3
 70
     0
 62
     1
  6
HIDDEN
370
    35
390
F
1001
AcAecLayerStandard
1000

1000

  0
ENDTAB
  0
TABLE
  2
STYLE
  5
3
330
0
100
AcDbSymbolTable
 70
     2
  0
STYLE
  5
11
330
3
100
AcDbSymbolTableRecord
100
AcDbTextStyleTableRecord
  2
Standard
 70
     0
 40
0.0
 41
1.0
 50
0.0
 71
     0
 42
2.5
  3
txt.shx
  4
@extfont2.shx
  0
STYLE
  5
24A
330
3
100
AcDbSymbolTableRecord
100
AcDbTextStyleTableRecord
  2
simplex
 70
     0
 40
3.5
 41
1.0
 50
0.0
 71
     0
 42
3.5
  3
txt.shx
  4

  0
ENDTAB
  0
TABLE
  2
VIEW
  5
6
330
0
100
AcDbSymbolTable
 70
     0
  0
ENDTAB
  0
TABLE
  2
UCS
  5
7
330
0
100
AcDbSymbolTable
 70
     0
  0
ENDTAB
  0
TABLE
  2
APPID
  5
9
330
0
100
AcDbSymbolTable
 70
    28
  0
APPID
  5
12
330
9
100
AcDbSymbolTableRecord
100
AcDbRegAppTableRecord
  2
ACAD
 70
     0
  0
APPID
  5
D2
330
9
100
AcDbSymbolTableRecord
100
AcDbRegAppTableRecord
  2
AcAecLayerStandard
 70
     0
  0
APPID
  5
E6
330
9
100
AcDbSymbolTableRecord
100
AcDbRegAppTableRecord
  2
ACAD_DSTYLE_DIMTEXT_FILL
 70
     0
  0
APPID
  5
4C84
330
9
100
AcDbSymbolTableRecord
100
AcDbRegAppTableRecord
  2
ACAD_EXEMPT_FROM_CAD_STANDARDS
 70
     0
  0
APPID
  5
3493E
330
9
100
AcDbSymbolTableRecord
100
AcDbRegAppTableRecord
  2
DCO15
 70
     0
  0
APPID
  5
3BAB0
330
9
100
AcDbSymbolTableRecord
100
AcDbRegAppTableRecord
  2
ACAD_DSTYLE_DIMEXT_ENABLED
 70
     0
  0
APPID
  5
3BAB1
330
9
100
AcDbSymbolTableRecord
100
AcDbRegAppTableRecord
  2
ACAD_DSTYLE_DIMEXT_LENGTH
 70
     0
  0
APPID
  5
3BEB4
330
9
100
AcDbSymbolTableRecord
100
AcDbRegAppTableRecord
  2
ACAUTHENVIRON
 70
     0
  0
APPID
  5
3BEB7
330
9
100
AcDbSymbolTableRecord
100
AcDbRegAppTableRecord
  2
AcDbDynamicBlockTrueName
 70
     0
  0
APPID
  5
3BEB8
330
9
100
AcDbSymbolTableRecord
100
AcDbRegAppTableRecord
  2
AcDbDynamicBlockGUID
 70
     0
  0
APPID
  5
3BEBA
330
9
100
AcDbSymbolTableRecord
100
AcDbRegAppTableRecord
  2
AcDbBlockRepETag
 70
     0
  0
APPID
  5
4A453
330
9
100
AcDbSymbolTableRecord
100
AcDbRegAppTableRecord
  2
ACAD_PSEXT
 70
     0
  0
APPID
  5
4A454
330
9
100
AcDbSymbolTableRecord
100
AcDbRegAppTableRecord
  2
AcadAnnotative
 70
     0
  0
APPID
  5
4A455
330
9
100
AcDbSymbolTableRecord
100
AcDbRegAppTableRecord
  2
ACAD_DSTYLE_DIMJAG
 70
     0
  0
APPID
  5
4A456
330
9
100
AcDbSymbolTableRecord
100
AcDbRegAppTableRecord
  2
ACAD_DSTYLE_DIMTALN
 70
     0
  0
APPID
  5
4A457
330
9
100
AcDbSymbolTableRecord
100
AcDbRegAppTableRecord
  2
ACAD_NAV_VCDISPLAY
 70
     0
  0
APPID
  5
4A787
330
9
100
AcDbSymbolTableRecord
100
AcDbRegAppTableRecord
  2
ACAD_DSTYLE_DIMINSPECT
 70
     0
  0
APPID
  5
4A788
330
9
100
AcDbSymbolTableRecord
100
AcDbRegAppTableRecord
  2
GENIUS_GENDTOL_13
 70
     0
  0
APPID
  5
4A789
330
9
100
AcDbSymbolTableRecord
100
AcDbRegAppTableRecord
  2
ZWMCAD_GENSTANDARDFRAME_13_
 70
     0
  0
APPID
  5
4A78A
330
9
100
AcDbSymbolTableRecord
100
AcDbRegAppTableRecord
  2
ZW_RECESS_XDATA
 70
     0
  0
APPID
  5
4A78B
330
9
100
AcDbSymbolTableRecord
100
AcDbRegAppTableRecord
  2
ZW_FAC_XDATA
 70
     0
  0
APPID
  5
4A78C
330
9
100
AcDbSymbolTableRecord
100
AcDbRegAppTableRecord
  2
ZW_FLC_XDATA
 70
     0
  0
APPID
  5
4A78D
330
9
100
AcDbSymbolTableRecord
100
AcDbRegAppTableRecord
  2
ZW_SUPERPART
 70
     0
  0
APPID
  5
4A78E
330
9
100
AcDbSymbolTableRecord
100
AcDbRegAppTableRecord
  2
ZW_SUPERSYMBOL
 70
     0
  0
APPID
  5
4A78F
330
9
100
AcDbSymbolTableRecord
100
AcDbRegAppTableRecord
  2
ZW_SUPERSHAFT
 70
     0
  0
APPID
  5
4A790
330
9
100
AcDbSymbolTableRecord
100
AcDbRegAppTableRecord
  2
ZWMCAD_GENFRAME_13_
 70
     0
  0
APPID
  5
4A791
330
9
100
AcDbSymbolTableRecord
100
AcDbRegAppTableRecord
  2
ACAD_MLEADERVER
 70
     0
  0
APPID
  5
4A792
330
9
100
AcDbSymbolTableRecord
100
AcDbRegAppTableRecord
  2
ACAD_DSTYLE_DIMRADIAL_EXTENSION
 70
     0
  0
ENDTAB
  0
TABLE
  2
DIMSTYLE
  5
A
330
0
100
AcDbSymbolTable
 70
     2
100
AcDbDimStyleTable
 71
     2
340
1BF
340
3527
  0
DIMSTYLE
105
1BF
102
{ACAD_REACTORS
330
88618
330
8861B
330
8861E
330
8861F
330
88622
330
88625
330
88689
102
}
330
A
100
AcDbSymbolTableRecord
100
AcDbDimStyleTableRecord
  2
コピー - ISO-25
 70
     0
 40
0.0
 41
3.5
 42
0.0
 44
1.5
 73
     0
 74
     0
 77
     1
 78
     8
140
3.5
147
2.299999999999998
176
   256
177
   256
271
     2
178
   256
271
     2
272
     2
284
     8
340
24A
371
    -1
372
    -1
  0
DIMSTYLE
105
3527
330
A
100
AcDbSymbolTableRecord
100
AcDbDimStyleTableRecord
  2
STANDARD
 70
     0
 41
3.0
 47
0.001
 48
0.001
 71
     1
 73
     0
 74
     0
 77
     1
 78
     8
140
4.0
271
     3
272
     3
284
     8
340
11
341
34B1
342
34B1
343
34B1
344
34B1
  0
ENDTAB
  0
TABLE
  2
BLOCK_RECORD
  5
1
330
0
100
AcDbSymbolTable
 70
    11
  0
BLOCK_RECORD
  5
1F
102
{ACAD_XDICTIONARY
360
31EE
102
}
330
1
100
AcDbSymbolTableRecord
100
AcDbBlockTableRecord
  2
*Model_Space
340
22
  0
BLOCK_RECORD
  5
55
330
1
100
AcDbSymbolTableRecord
100
AcDbBlockTableRecord
  2
*Paper_Space
340
56
  0
BLOCK_RECORD
  5
50
330
1
100
AcDbSymbolTableRecord
100
AcDbBlockTableRecord
  2
*Paper_Space00000
340
51
  0
BLOCK_RECORD
  5
34B1
330
1
100
AcDbSymbolTableRecord
100
AcDbBlockTableRecord
  2
_OPEN
340
0
  0
BLOCK_RECORD
  5
4A6D6
102
{ACAD_XDICTIONARY
360
4A6D7
102
}
330
1
100
AcDbSymbolTableRecord
100
AcDbBlockTableRecord
  2
zero block
340
0
102
{BLKREFS
331
87720
331
878CB
331
87EFA
331
880A4
331
88389
331
8853C
331
4A793
102
}
1001
AcDbDynamicBlockGUID
1000
{A89DF4EB-B2CB-439E-AC69-1EAC9F242D1C}
1001
AcDbBlockRepETag
1070
     1
1071
        7
1001
ACAD
1000
DesignCenter Data
1002
{
1070
     1
1070
     4
1002
}
  0
BLOCK_RECORD
  5
8778B
330
1
100
AcDbSymbolTableRecord
100
AcDbBlockTableRecord
  2
_None
340
0
102
{BLKREFS
331
8778A
331
87A30
331
87A7C
331
87B44
331
87DE9
331
87E35
331
87F64
331
88208
331
88254
331
88292
331
882DE
331
88496
331
886A9
331
886F5
331
8875C
102
}
  0
BLOCK_RECORD
  5
8868C
330
1
100
AcDbSymbolTableRecord
100
AcDbBlockTableRecord
  2
*D1944
340
0
  0
BLOCK_RECORD
  5
88698
330
1
100
AcDbSymbolTableRecord
100
AcDbBlockTableRecord
  2
*D2055
340
0
  0
BLOCK_RECORD
  5
886A5
330
1
100
AcDbSymbolTableRecord
100
AcDbBlockTableRecord
  2
*D2166
340
0
  0
BLOCK_RECORD
  5
886B0
330
1
100
AcDbSymbolTableRecord
100
AcDbBlockTableRecord
  2
*D2277
340
0
  0
BLOCK_RECORD
  5
886BD
330
1
100
AcDbSymbolTableRecord
100
AcDbBlockTableRecord
  2
*D2388
340
0
  0
BLOCK_RECORD
  5
886C9
330
1
100
AcDbSymbolTableRecord
100
AcDbBlockTableRecord
  2
*D2499
340
0
  0
BLOCK_RECORD
  5
886D5
330
1
100
AcDbSymbolTableRecord
100
AcDbBlockTableRecord
  2
*D251010
340
0
  0
ENDTAB
  0
ENDSEC
  0
SECTION
  2
BLOCKS
  0
BLOCK
  5
20
330
1F
100
AcDbEntity
  8
0
100
AcDbBlockBegin
  2
*Model_Space
 70
     0
 10
0.0
 20
0.0
 30
0.0
  3
*Model_Space
  1

  0
ENDBLK
  5
21
330
1F
100
AcDbEntity
  8
0
100
AcDbBlockEnd
  0
BLOCK
  5
57
330
55
100
AcDbEntity
 67
     1
  8
0
100
AcDbBlockBegin
  2
*Paper_Space
 70
     0
 10
0.0
 20
0.0
 30
0.0
  3
*Paper_Space
  1

  0
ENDBLK
  5
58
330
55
100
AcDbEntity
 67
     1
  8
0
100
AcDbBlockEnd
  0
BLOCK
  5
52
330
50
100
AcDbEntity
  8
0
100
AcDbBlockBegin
  2
*Paper_Space00000
 70
     0
 10
0.0
 20
0.0
 30
0.0
  3
*Paper_Space00000
  1

  0
VIEWPORT
  5
6B
102
{ACAD_XDICTIONARY
360
87699
102
}
330
50
100
AcDbEntity
  8
0
100
AcDbViewport
 10
264.3775031494645
 20
160.4455827878762
 30
0.0
 40
567.6219612953822
 41
282.2272140146125
 68
     1
 69
    -1
 12
264.3775031494645
 22
160.4455827878762
 13
0.0
 23
0.0
 14
10.0
 24
10.0
 15
10.0
 25
10.0
 16
0.0
 26
0.0
 36
1.0
 17
0.0
 27
0.0
 37
0.0
 42
50.0
 43
0.0
 44
0.0
 45
282.2272140146125
 50
0.0
 51
0.0
 72
  1000
 90
    32864
  1

281
     0
 71
     1
 74
     0
110
0.0
120
0.0
130
0.0
111
1.0
121
0.0
131
0.0
112
0.0
122
1.0
132
0.0
 79
     0
146
0.0
1001
ACAD
1000
MVIEW
1002
{
1070
    16
1010
0.0
1020
0.0
1030
0.0
1010
0.0
1020
0.0
1030
1.0
1040
0.0
1040
282.2272140146125
1040
264.3775031494645
1040
160.4455827878762
1040
50.0
1040
0.0
1040
0.0
1070
     0
1070
  1000
1070
     0
1070
     3
1070
     0
1070
     0
1070
     0
1070
     0
1040
0.0
1040
0.0
1040
0.0
1040
10.0
1040
10.0
1040
10.0
1040
10.0
1070
     0
1002
{
1002
}
1002
}
  0
VIEWPORT
  5
6D
102
{ACAD_XDICTIONARY
360
8769B
102
}
330
50
100
AcDbEntity
  8
0
100
AcDbViewport
 10
133.3499939441681
 20
101.5999939441681
 30
0.0
 40
213.3599903106689
 41
162.5599903106689
 68
     2
 69
    -1
 12
210.0
 22
148.5
 13
0.0
 23
0.0
 14
10.0
 24
10.0
 15
10.0
 25
10.0
 16
0.0
 26
0.0
 36
1.0
 17
0.0
 27
0.0
 37
0.0
 42
50.0
 43
0.0
 44
0.0
 45
324.0677920111345
 50
0.0
 51
0.0
 72
   100
 90
    32864
  1

281
     0
 71
     1
 74
     0
110
0.0
120
0.0
130
0.0
111
1.0
121
0.0
131
0.0
112
0.0
122
1.0
132
0.0
 79
     0
146
0.0
1001
ACAD
1000
MVIEW
1002
{
1070
    16
1010
0.0
1020
0.0
1030
0.0
1010
0.0
1020
0.0
1030
1.0
1040
0.0
1040
324.0677920111345
1040
210.0
1040
148.5
1040
50.0
1040
0.0
1040
0.0
1070
     0
1070
   100
1070
     0
1070
     3
1070
     0
1070
     0
1070
     0
1070
     0
1040
0.0
1040
0.0
1040
0.0
1040
10.0
1040
10.0
1040
10.0
1040
10.0
1070
     0
1002
{
1002
}
1002
}
  0
ENDBLK
  5
53
330
50
100
AcDbEntity
  8
0
100
AcDbBlockEnd
  0
BLOCK
  5
34B2
330
34B1
100
AcDbEntity
  8
0
100
AcDbBlockBegin
  2
_OPEN
 70
     0
 10
0.0
 20
0.0
 30
0.0
  3
_OPEN
  1

  0
LINE
  5
34B3
330
34B1
100
AcDbEntity
  8
0
  6
ByBlock
 62
     0
100
AcDbLine
 10
0.0
 20
0.0
 30
0.0
 11
-1.0
 21
0.1766666667
 31
0.0
  0
LINE
  5
34B4
330
34B1
100
AcDbEntity
  8
0
  6
ByBlock
 62
     0
100
AcDbLine
 10
-1.0
 20
-0.1766666667
 30
0.0
 11
0.0
 21
0.0
 31
0.0
  0
LINE
  5
34B5
330
34B1
100
AcDbEntity
  8
0
  6
ByBlock
 62
     0
100
AcDbLine
 10
-1.0
 20
0.0
 30
0.0
 11
0.0
 21
0.0
 31
0.0
  0
ENDBLK
  5
34B6
330
34B1
100
AcDbEntity
  8
0
  6
ByBlock
 62
     0
100
AcDbBlockEnd
  0
BLOCK
  5
4A6D9
330
4A6D6
100
AcDbEntity
  8
0
100
AcDbBlockBegin
  2
zero block
 70
     0
 10
0.0
 20
0.0
 30
0.0
  3
zero block
  1

  0
HATCH
  5
4A6DA
330
4A6D6
100
AcDbEntity
  8
0
 62
     7
100
AcDbHatch
 10
0.0
 20
0.0
 30
0.0
210
0.0
220
0.0
230
1.0
  2
SOLID
 70
     1
 71
     0
 91
        2
 92
        7
 72
     1
 73
     1
 93
        3
 10
0.0
 20
0.9999999999999875
 42
0.4142135623730915
 10
-1.0
 20
0.0
 42
0.0
 10
0.0
 20
0.0
 42
0.0
 97
        0
 92
        7
 72
     1
 73
     1
 93
        3
 10
1.000000000000007
 20
0.0
 42
0.0
 10
0.0
 20
0.0
 42
0.0
 10
0.0
 20
-1.0
 42
0.4142135623730974
 97
        0
 75
     0
 76
     1
 47
0.0090601366782909
 98
        2
 10
-0.380591363650975
 20
0.4885804701532896
 10
0.4350764810977559
 20
-0.4536738423704725
1001
AcDbBlockRepETag
1070
     1
1071
        0
1005
4A6DA
  0
LINE
  5
4A6DB
330
4A6D6
100
AcDbEntity
  8
0
 62
     7
 48
0.2
100
AcDbLine
 10
-1.0
 20
0.0
 30
0.0
 11
1.000000000000007
 21
0.0
 31
0.0
1001
AcDbBlockRepETag
1070
     1
1071
        1
1005
4A6DB
  0
LINE
  5
4A6DC
330
4A6D6
100
AcDbEntity
  8
0
 62
     7
 48
0.2
100
AcDbLine
 10
0.0
 20
-1.0
 30
0.0
 11
0.0
 21
0.9999999999999875
 31
0.0
1001
AcDbBlockRepETag
1070
     1
1071
        2
1005
4A6DC
  0
ARC
  5
4A6DD
330
4A6D6
100
AcDbEntity
  8
0
 62
     7
 48
0.2
100
AcDbCircle
 10
0.0
 20
0.0
 30
0.0
 40
1.0
100
AcDbArc
 50
270.0
 51
0.0
1001
AcDbBlockRepETag
1070
     1
1071
        3
1005
4A6DD
  0
ARC
  5
4A6DE
330
4A6D6
100
AcDbEntity
  8
0
 62
     7
 48
0.2
100
AcDbCircle
 10
0.0
 20
0.0
 30
0.0
 40
1.0
100
AcDbArc
 50
0.0
 51
90.0
1001
AcDbBlockRepETag
1070
     1
1071
        4
1005
4A6DE
  0
ARC
  5
4A6DF
330
4A6D6
100
AcDbEntity
  8
0
 62
     7
 48
0.2
100
AcDbCircle
 10
0.0
 20
0.0
 30
0.0
 40
1.0
100
AcDbArc
 50
180.0
 51
270.0
1001
AcDbBlockRepETag
1070
     1
1071
        5
1005
4A6DF
  0
ARC
  5
4A6E0
330
4A6D6
100
AcDbEntity
  8
0
 62
     7
 48
0.2
100
AcDbCircle
 10
0.0
 20
0.0
 30
0.0
 40
1.0
100
AcDbArc
 50
90.0
 51
180.0
1001
AcDbBlockRepETag
1070
     1
1071
        6
1005
4A6E0
  0
ENDBLK
  5
4A6E1
330
4A6D6
100
AcDbEntity
  8
0
100
AcDbBlockEnd
  0
BLOCK
  5
8778C
330
8778B
100
AcDbEntity
  8
0
100
AcDbBlockBegin
  2
_None
 70
     0
 10
0.0
 20
0.0
 30
0.0
  3
_None
  1

  0
ENDBLK
  5
8778D
330
8778B
100
AcDbEntity
  8
0
100
AcDbBlockEnd
  0
BLOCK
  5
88696
330
8868C
100
AcDbEntity
  8
0
100
AcDbBlockBegin
  2
*D1944
 70
     1
 10
0.0
 20
0.0
 30
0.0
  3
*D1944
  1

  0
LINE
  5
88859
330
8868C
100
AcDbEntity
  8
2
100
AcDbLine
 10
0.0
 20
26.28149999889998
 30
0.0
 11
0.0
 21
71.3351448400974
 31
0.0
  0
LINE
  5
8885A
330
8868C
100
AcDbEntity
  8
2
100
AcDbLine
 10
50.80000000000007
 20
37.2999999989
 30
0.0
 11
50.80000000000007
 21
71.3351448400974
 31
0.0
  0
LINE
  5
8885B
330
8868C
100
AcDbEntity
  8
2
100
AcDbLine
 10
3.499999999999999
 20
69.8351448400974
 30
0.0
 11
47.30000000000006
 21
69.8351448400974
 31
0.0
  0
SOLID
  5
8885C
330
8868C
100
AcDbEntity
  8
2
100
AcDbTrace
 10
3.499999999999999
 20
70.41847817343072
 30
0.0
 11
3.499999999999999
 21
69.25181150676407
 31
0.0
 12
0.0
 22
69.8351448400974
 32
0.0
 13
0.0
 23
69.8351448400974
 33
0.0
  0
SOLID
  5
8885D
330
8868C
100
AcDbEntity
  8
2
100
AcDbTrace
 10
47.30000000000006
 20
69.25181150676407
 30
0.0
 11
47.30000000000006
 21
70.41847817343072
 31
0.0
 12
50.80000000000007
 22
69.8351448400974
 32
0.0
 13
50.80000000000007
 23
69.8351448400974
 33
0.0
  0
MTEXT
  5
8885E
330
8868C
100
AcDbEntity
  8
2
100
AcDbMText
 10
25.66273903550535
 20
73.88514484009739
 30
0.0
 40
3.5
 41
0.0
 71
     5
 72
     1
  1
\A1;50.8 [2.000"]
  7
simplex
 73
     1
 44
1.0
1001
ACAD
1000
MTEXTBEGIN
1070
    73
1070
     1
1070
    44
1040
1.0
1070
    74
1070
     0
1000
MTEXTEND
  0
POINT
  5
8885F
330
8868C
100
AcDbEntity
  8
Defpoints
 62
     0
100
AcDbPoint
 10
0.0
 20
26.28149999889998
 30
0.0
  0
POINT
  5
88860
330
8868C
100
AcDbEntity
  8
Defpoints
 62
     0
100
AcDbPoint
 10
50.80000000000007
 20
37.2999999989
 30
0.0
  0
POINT
  5
88861
330
8868C
100
AcDbEntity
  8
Defpoints
 62
     0
100
AcDbPoint
 10
50.80000000000007
 20
69.8351448400974
 30
0.0
  0
ENDBLK
  5
88697
330
8868C
100
AcDbEntity
  8
0
100
AcDbBlockEnd
  0
BLOCK
  5
886A3
330
88698
100
AcDbEntity
  8
0
100
AcDbBlockBegin
  2
*D2055
 70
     1
 10
0.0
 20
0.0
 30
0.0
  3
*D2055
  1

  0
LINE
  5
8884F
330
88698
100
AcDbEntity
  8
2
100
AcDbLine
 10
42.59999999999997
 20
38.09999999889999
 30
0.0
 11
42.59999999999997
 21
61.41922213148585
 31
0.0
  0
LINE
  5
88850
330
88698
100
AcDbEntity
  8
2
100
AcDbLine
 10
50.80000000000007
 20
37.2999999989
 30
0.0
 11
50.80000000000007
 21
61.41922213148585
 31
0.0
  0
LINE
  5
88851
330
88698
100
AcDbEntity
  8
2
100
AcDbLine
 10
54.30000000000006
 20
59.91922213148586
 30
0.0
 11
106.7333333333334
 21
59.91922213148586
 31
0.0
  0
LINE
  5
88852
330
88698
100
AcDbEntity
  8
2
100
AcDbLine
 10
39.09999999999996
 20
59.91922213148586
 30
0.0
 11
35.59999999999997
 21
59.91922213148586
 31
0.0
  0
SOLID
  5
88853
330
88698
100
AcDbEntity
  8
2
100
AcDbTrace
 10
39.09999999999996
 20
59.33588879815252
 30
0.0
 11
39.09999999999996
 21
60.5025554648192
 31
0.0
 12
42.59999999999997
 22
59.91922213148586
 32
0.0
 13
42.59999999999997
 23
59.91922213148586
 33
0.0
  0
SOLID
  5
88854
330
88698
100
AcDbEntity
  8
2
100
AcDbTrace
 10
54.30000000000006
 20
60.5025554648192
 30
0.0
 11
54.30000000000006
 21
59.33588879815252
 31
0.0
 12
50.80000000000007
 22
59.91922213148586
 32
0.0
 13
50.80000000000007
 23
59.91922213148586
 33
0.0
  0
MTEXT
  5
88855
330
88698
100
AcDbEntity
  8
2
100
AcDbMText
 10
82.26666666666673
 20
63.96922213148585
 30
0.0
 40
3.5
 41
0.0
 71
     5
 72
     1
  1
\A1;8.2 [.323"](MAX)
  7
simplex
 73
     1
 44
1.0
1001
ACAD
1000
MTEXTBEGIN
1070
    73
1070
     1
1070
    44
1040
1.0
1070
    74
1070
     0
1000
MTEXTEND
  0
POINT
  5
88856
330
88698
100
AcDbEntity
  8
Defpoints
 62
     0
100
AcDbPoint
 10
42.59999999999997
 20
38.09999999889999
 30
0.0
  0
POINT
  5
88857
330
88698
100
AcDbEntity
  8
Defpoints
 62
     0
100
AcDbPoint
 10
50.80000000000007
 20
37.2999999989
 30
0.0
  0
POINT
  5
88858
330
88698
100
AcDbEntity
  8
Defpoints
 62
     0
100
AcDbPoint
 10
50.80000000000007
 20
59.91922213148586
 30
0.0
  0
ENDBLK
  5
886A4
330
88698
100
AcDbEntity
  8
0
100
AcDbBlockEnd
  0
BLOCK
  5
886AE
330
886A5
100
AcDbEntity
  8
0
100
AcDbBlockBegin
  2
*D2166
 70
     1
 10
0.0
 20
0.0
 30
0.0
  3
*D2166
  1

  0
LINE
  5
88759
330
886A5
100
AcDbEntity
  8
2
100
AcDbLine
 10
50.0
 20
38.09999999890001
 30
0.0
 11
72.20766079186768
 21
38.09999999890001
 31
0.0
  0
LINE
  5
8875A
330
886A5
100
AcDbEntity
  8
2
100
AcDbLine
 10
70.70766079186768
 20
34.59999999890001
 30
0.0
 11
70.70766079186768
 21
-38.09999999889999
 31
0.0
  0
SOLID
  5
8875B
330
886A5
100
AcDbEntity
  8
2
100
AcDbTrace
 10
71.29099412520101
 20
34.59999999890001
 30
0.0
 11
70.12432745853435
 21
34.59999999890001
 31
0.0
 12
70.70766079186768
 22
38.09999999890001
 32
0.0
 13
70.70766079186768
 23
38.09999999890001
 33
0.0
  0
INSERT
  5
8875C
330
886A5
100
AcDbEntity
  8
2
100
AcDbBlockReference
  2
_None
 10
70.70766079186768
 20
-38.09999999889999
 30
0.0
 41
3.5
 42
3.5
 43
3.5
 50
270.0
  0
MTEXT
  5
8875D
330
886A5
100
AcDbEntity
  8
2
100
AcDbMText
 10
66.65766079186767
 20
-1.749999999999992
 30
0.0
 40
3.5
 41
0.0
 71
     5
 72
     1
  1
\A1;%%C76.2 [%%c3.000"]
  7
simplex
 11
0.0
 21
1.0
 31
0.0
 73
     1
 44
1.0
1001
ACAD
1000
MTEXTBEGIN
1070
    73
1070
     1
1070
    44
1040
1.0
1070
    74
1070
     0
1000
MTEXTEND
  0
POINT
  5
8875E
330
886A5
100
AcDbEntity
  8
Defpoints
 62
     0
100
AcDbPoint
 10
50.0
 20
38.09999999890001
 30
0.0
  0
POINT
  5
8875F
330
886A5
100
AcDbEntity
  8
Defpoints
 62
     0
100
AcDbPoint
 10
50.0
 20
-38.09999999889999
 30
0.0
  0
POINT
  5
88760
330
886A5
100
AcDbEntity
  8
Defpoints
 62
     0
100
AcDbPoint
 10
70.70766079186768
 20
-38.09999999889999
 30
0.0
  0
ENDBLK
  5
886AF
330
886A5
100
AcDbEntity
  8
0
100
AcDbBlockEnd
  0
BLOCK
  5
886BB
330
886B0
100
AcDbEntity
  8
0
100
AcDbBlockBegin
  2
*D2277
 70
     1
 10
0.0
 20
0.0
 30
0.0
  3
*D2277
  1

  0
LINE
  5
88761
330
886B0
100
AcDbEntity
  8
sk2
100
AcDbLine
 10
0.0
 20
-26.28147774479999
 30
0.0
 11
0.0
 21
-51.5114707344605
 31
0.0
  0
LINE
  5
88762
330
886B0
100
AcDbEntity
  8
sk2
100
AcDbLine
 10
24.0
 20
-12.3999999989
 30
0.0
 11
24.0
 21
-51.5114707344605
 31
0.0
  0
LINE
  5
88763
330
886B0
100
AcDbEntity
  8
sk2
100
AcDbLine
 10
24.0
 20
-50.01147073446049
 30
0.0
 11
60.09999999999998
 21
-50.01147073446049
 31
0.0
  0
LINE
  5
88764
330
886B0
100
AcDbEntity
  8
sk2
100
AcDbLine
 10
3.5
 20
-50.01147073446049
 30
0.0
 11
20.5
 21
-50.01147073446049
 31
0.0
  0
SOLID
  5
88765
330
886B0
100
AcDbEntity
  8
sk2
100
AcDbTrace
 10
3.5
 20
-49.42813740112716
 30
0.0
 11
3.5
 21
-50.59480406779382
 31
0.0
 12
0.0
 22
-50.01147073446049
 32
0.0
 13
0.0
 23
-50.01147073446049
 33
0.0
  0
SOLID
  5
88766
330
886B0
100
AcDbEntity
  8
sk2
100
AcDbTrace
 10
20.5
 20
-50.59480406779382
 30
0.0
 11
20.5
 21
-49.42813740112716
 31
0.0
 12
24.0
 22
-50.01147073446049
 32
0.0
 13
24.0
 23
-50.01147073446049
 33
0.0
  0
MTEXT
  5
88767
330
886B0
100
AcDbEntity
  8
sk2
100
AcDbMText
 10
43.79999999999999
 20
-45.9614707344605
 30
0.0
 40
3.5
 41
0.0
 71
     5
 72
     1
  1
\A1;24 [.945"]
  7
simplex
 73
     1
 44
1.0
1001
ACAD
1000
MTEXTBEGIN
1070
    73
1070
     1
1070
    44
1040
1.0
1070
    74
1070
     0
1000
MTEXTEND
  0
POINT
  5
88768
330
886B0
100
AcDbEntity
  8
Defpoints
 62
     0
100
AcDbPoint
 10
0.0
 20
-26.28147774479999
 30
0.0
  0
POINT
  5
88769
330
886B0
100
AcDbEntity
  8
Defpoints
 62
     0
100
AcDbPoint
 10
24.0
 20
-12.3999999989
 30
0.0
  0
POINT
  5
8876A
330
886B0
100
AcDbEntity
  8
Defpoints
 62
     0
100
AcDbPoint
 10
24.0
 20
-50.01147073446049
 30
0.0
  0
ENDBLK
  5
886BC
330
886B0
100
AcDbEntity
  8
0
100
AcDbBlockEnd
  0
BLOCK
  5
886C7
330
886BD
100
AcDbEntity
  8
0
100
AcDbBlockBegin
  2
*D2388
 70
     1
 10
0.0
 20
0.0
 30
0.0
  3
*D2388
  1

  0
LINE
  5
8876B
330
886BD
100
AcDbEntity
  8
sk2
100
AcDbLine
 10
1.5
 20
27.78152225520004
 30
0.0
 11
-31.31345902791494
 21
27.78152225520004
 31
0.0
  0
LINE
  5
8876C
330
886BD
100
AcDbEntity
  8
sk2
100
AcDbLine
 10
1.5
 20
-27.78147774479999
 30
0.0
 11
-31.31345902791494
 21
-27.78147774479999
 31
0.0
  0
LINE
  5
8876D
330
886BD
100
AcDbEntity
  8
sk2
100
AcDbLine
 10
-29.81345902791495
 20
24.28152225520004
 30
0.0
 11
-29.81345902791495
 21
-24.28147774479999
 31
0.0
  0
SOLID
  5
8876E
330
886BD
100
AcDbEntity
  8
sk2
100
AcDbTrace
 10
-29.23012569458161
 20
24.28152225520004
 30
0.0
 11
-30.39679236124829
 21
24.28152225520004
 31
0.0
 12
-29.81345902791495
 22
27.78152225520004
 32
0.0
 13
-29.81345902791495
 23
27.78152225520004
 33
0.0
  0
SOLID
  5
8876F
330
886BD
100
AcDbEntity
  8
sk2
100
AcDbTrace
 10
-30.39679236124829
 20
-24.28147774479999
 30
0.0
 11
-29.23012569458161
 21
-24.28147774479999
 31
0.0
 12
-29.81345902791495
 22
-27.78147774479999
 32
0.0
 13
-29.81345902791495
 23
-27.78147774479999
 33
0.0
  0
MTEXT
  5
88770
330
886BD
100
AcDbEntity
  8
sk2
100
AcDbMText
 10
-33.86345902791494
 20
0.0000222552000262
 30
0.0
 40
3.5
 41
0.0
 71
     5
 72
     1
  1
\A1;%%C55.563 [%%c2.188"]
  7
simplex
 11
0.0000000000000001
 21
1.0
 31
0.0
 73
     1
 44
1.0
1001
ACAD
1000
MTEXTBEGIN
1070
    73
1070
     1
1070
    44
1040
1.0
1070
    74
1070
     0
1000
MTEXTEND
  0
POINT
  5
88771
330
886BD
100
AcDbEntity
  8
Defpoints
 62
     0
100
AcDbPoint
 10
1.5
 20
27.78152225520004
 30
0.0
  0
POINT
  5
88772
330
886BD
100
AcDbEntity
  8
Defpoints
 62
     0
100
AcDbPoint
 10
1.5
 20
-27.78147774479999
 30
0.0
  0
POINT
  5
88773
330
886BD
100
AcDbEntity
  8
Defpoints
 62
     0
100
AcDbPoint
 10
-29.81345902791495
 20
-27.78147774479999
 30
0.0
  0
ENDBLK
  5
886C8
330
886BD
100
AcDbEntity
  8
0
100
AcDbBlockEnd
  0
BLOCK
  5
886D3
330
886C9
100
AcDbEntity
  8
0
100
AcDbBlockBegin
  2
*D2499
 70
     1
 10
0.0
 20
0.0
 30
0.0
  3
*D2499
  1

  0
LINE
  5
88774
330
886C9
100
AcDbEntity
  8
sk2
100
AcDbLine
 10
4.0
 20
12.6999999989
 30
0.0
 11
-21.35445918191135
 21
12.6999999989
 31
0.0
  0
LINE
  5
88775
330
886C9
100
AcDbEntity
  8
sk2
100
AcDbLine
 10
4.0
 20
-12.69999999890001
 30
0.0
 11
-21.35445918191135
 21
-12.69999999890001
 31
0.0
  0
LINE
  5
88776
330
886C9
100
AcDbEntity
  8
sk2
100
AcDbLine
 10
-19.85445918191135
 20
9.199999998900006
 30
0.0
 11
-19.85445918191135
 21
-9.199999998900008
 31
0.0
  0
SOLID
  5
88777
330
886C9
100
AcDbEntity
  8
sk2
100
AcDbTrace
 10
-19.27112584857802
 20
9.199999998900006
 30
0.0
 11
-20.43779251524469
 21
9.199999998900006
 31
0.0
 12
-19.85445918191135
 22
12.6999999989
 32
0.0
 13
-19.85445918191135
 23
12.6999999989
 33
0.0
  0
SOLID
  5
88778
330
886C9
100
AcDbEntity
  8
sk2
100
AcDbTrace
 10
-20.43779251524469
 20
-9.199999998900008
 30
0.0
 11
-19.27112584857802
 21
-9.199999998900008
 31
0.0
 12
-19.85445918191135
 22
-12.69999999890001
 32
0.0
 13
-19.85445918191135
 23
-12.69999999890001
 33
0.0
  0
MTEXT
  5
88779
330
886C9
100
AcDbEntity
  8
sk2
100
AcDbMText
 10
-23.90445918191135
 20
-1.255485715559935
 30
0.0
 40
3.5
 41
0.0
 71
     5
 72
     1
  1
\A1;%%C25.4 [%%c1.000"]
  7
simplex
 11
0.0
 21
1.0
 31
0.0
 73
     1
 44
1.0
1001
ACAD
1000
MTEXTBEGIN
1070
    73
1070
     1
1070
    44
1040
1.0
1070
    74
1070
     0
1000
MTEXTEND
  0
POINT
  5
8877A
330
886C9
100
AcDbEntity
  8
Defpoints
 62
     0
100
AcDbPoint
 10
4.0
 20
12.6999999989
 30
0.0
  0
POINT
  5
8877B
330
886C9
100
AcDbEntity
  8
Defpoints
 62
     0
100
AcDbPoint
 10
4.0
 20
-12.69999999890001
 30
0.0
  0
POINT
  5
8877C
330
886C9
100
AcDbEntity
  8
Defpoints
 62
     0
100
AcDbPoint
 10
-19.85445918191135
 20
-12.69999999890001
 30
0.0
  0
ENDBLK
  5
886D4
330
886C9
100
AcDbEntity
  8
0
100
AcDbBlockEnd
  0
BLOCK
  5
886DD
330
886D5
100
AcDbEntity
  8
0
100
AcDbBlockBegin
  2
*D251010
 70
     1
 10
0.0
 20
0.0
 30
0.0
  3
*D251010
  1

  0
LINE
  5
8878B
330
886D5
100
AcDbEntity
  8
2
100
AcDbLine
 10
94.04694390656777
 20
51.34947840924613
 30
0.0
 11
54.09665159621287
 21
38.60669265566615
 31
0.0
  0
MTEXT
  5
8878C
330
886D5
100
AcDbEntity
  8
2
100
AcDbMText
 10
74.5083175266158
 20
49.36835323338705
 30
0.0
 40
3.5
 41
0.0
 71
     5
 72
     1
  1
\A1;R0.8 [R.031"]
  7
simplex
 11
0.9527096735378755
 21
0.303882013201431
 31
0.0
 73
     1
 44
1.0
1001
ACAD
1000
MTEXTBEGIN
1070
    73
1070
     1
1070
    44
1040
1.0
1070
    74
1070
     0
1000
MTEXTEND
  0
SOLID
  5
8878D
330
886D5
100
AcDbEntity
  8
2
100
AcDbTrace
 10
53.91938708851203
 20
39.16243996522992
 30
0.0
 11
54.27391610391371
 21
38.05094534610239
 31
0.0
 12
50.7621677388303
 22
37.54310560946115
 32
0.0
 13
50.7621677388303
 23
37.54310560946115
 33
0.0
  0
LINE
  5
8878E
330
886D5
100
AcDbEntity
  8
2
100
AcDbLine
 10
49.90999999999999
 20
37.2999999989
 30
0.0
 11
50.09
 21
37.2999999989
 31
0.0
  0
LINE
  5
8878F
330
886D5
100
AcDbEntity
  8
2
100
AcDbLine
 10
50.0
 20
37.2099999989
 30
0.0
 11
50.0
 21
37.3899999989
 31
0.0
  0
POINT
  5
88790
330
886D5
100
AcDbEntity
  8
Defpoints
 62
     0
100
AcDbPoint
 10
50.7621677388303
 20
37.54310560946115
 30
0.0
  0
POINT
  5
88791
330
886D5
100
AcDbEntity
  8
Defpoints
 62
     0
100
AcDbPoint
 10
50.0
 20
37.2999999989
 30
0.0
  0
ENDBLK
  5
886DE
330
886D5
100
AcDbEntity
  8
0
100
AcDbBlockEnd
  0
ENDSEC
  0
SECTION
  2
ENTITIES
  0
INSERT
  5
4A793
330
1F
100
AcDbEntity
  8
0
100
AcDbBlockReference
  2
zero block
 10
0.0
 20
0.0
 30
0.0
 50
180.0
  0
MTEXT
  5
8853D
330
1F
100
AcDbEntity
  8
sk6
100
AcDbMText
 10
-3.018852453495383
 20
89.51351328084525
 30
0.0
 40
3.5
 41
139.3353303764208
 71
     1
 72
     5
  1
WWX400UR3_0004CA
 73
     1
 44
0.9
1001
ACAD
1000
MTEXTBEGIN
1070
    73
1070
     1
1070
    44
1040
0.9
1070
    74
1070
     0
1000
MTEXTEND
1000
ACAD_MTEXT_DEFINED_HEIGHT_BEGIN
1070
    46
1040
3.48901801050149
1000
ACAD_MTEXT_DEFINED_HEIGHT_END
  0
LINE
  5
8853E
330
1F
100
AcDbEntity
  8
4
100
AcDbLine
 10
53.13927052441488
 20
0.0
 30
0.0
 11
-2.907861614760518
 21
0.0
 31
0.0
  0
LINE
  5
8853F
330
1F
100
AcDbEntity
  8
1
100
AcDbLine
 10
39.32618060340003
 20
-37.29997774479997
 30
0.0
 11
43.01307488679995
 21
-37.29997774479997
 31
0.0
  0
LINE
  5
88540
330
1F
100
AcDbEntity
  8
1
100
AcDbLine
 10
39.27382338400003
 20
-37.29952083019997
 30
0.0
 11
39.32618060340003
 21
-37.29997774479997
 31
0.0
  0
LINE
  5
88541
330
1F
100
AcDbEntity
  8
1
100
AcDbLine
 10
27.31204344090003
 20
-37.0907271847
 30
0.0
 11
39.27382338400003
 21
-37.29952083019997
 31
0.0
  0
LINE
  5
88542
330
1F
100
AcDbEntity
  8
1
100
AcDbLine
 10
25.4360378312
 20
-36.38931742859998
 30
0.0
 11
16.25464141980001
 21
-28.6852110861
 31
0.0
  0
LINE
  5
88543
330
1F
100
AcDbEntity
  8
1
100
AcDbLine
 10
9.439875870100022
 20
-27.78147774479999
 30
0.0
 11
1.5
 21
-27.78147774479999
 31
0.0
  0
LINE
  5
88544
330
1F
100
AcDbEntity
  8
1
100
AcDbLine
 10
0.0
 20
26.28149999889998
 30
0.0
 11
0.0
 21
5.262522255200025
 31
0.0
  0
LINE
  5
88545
330
1F
100
AcDbEntity
  8
1
100
AcDbLine
 10
0.0
 20
-26.28147774479999
 30
0.0
 11
0.0
 21
-5.262477744799952
 31
0.0
  0
LINE
  5
88546
330
1F
100
AcDbEntity
  8
1
100
AcDbLine
 10
5.560000000000002
 20
3.762522255200023
 30
0.0
 11
5.560000000000002
 21
-3.762477744799952
 31
0.0
  0
LINE
  5
88547
330
1F
100
AcDbEntity
  8
1
100
AcDbLine
 10
25.4360378312
 20
36.38936193900005
 30
0.0
 11
16.25464141980001
 21
28.68525559650001
 31
0.0
  0
LINE
  5
88548
330
1F
100
AcDbEntity
  8
1
100
AcDbLine
 10
0.0
 20
5.262522255200025
 30
0.0
 11
0.5
 21
4.762522255200025
 31
0.0
  0
LINE
  5
88549
330
1F
100
AcDbEntity
  8
1
100
AcDbLine
 10
4.560000000000001
 20
4.762522255200025
 30
0.0
 11
5.560000000000002
 21
3.762522255200023
 31
0.0
  0
LINE
  5
8854A
330
1F
100
AcDbEntity
  8
1
100
AcDbLine
 10
36.72579790010002
 20
34.87587495070002
 30
0.0
 11
39.00544450220002
 21
36.19322016100003
 31
0.0
  0
LINE
  5
8854B
330
1F
100
AcDbEntity
  8
1
100
AcDbLine
 10
35.41702204450003
 20
34.78534222930005
 30
0.0
 11
36.18886195870003
 21
35.07119570120003
 31
0.0
  0
LINE
  5
8854C
330
1F
100
AcDbEntity
  8
1
100
AcDbLine
 10
0.5
 20
-4.762477744799952
 30
0.0
 11
0.0
 21
-5.262477744799952
 31
0.0
  0
LINE
  5
8854D
330
1F
100
AcDbEntity
  8
1
100
AcDbLine
 10
5.560000000000002
 20
-3.762477744799952
 30
0.0
 11
4.560000000000001
 21
-4.762477744799952
 31
0.0
  0
LINE
  5
8854E
330
1F
100
AcDbEntity
  8
1
100
AcDbLine
 10
37.37145337679999
 20
27.52458860729998
 30
0.0
 11
37.33173465840002
 21
27.48652740300002
 31
0.0
  0
LINE
  5
8854F
330
1F
100
AcDbEntity
  8
1
100
AcDbLine
 10
4.560000000000001
 20
-4.762477744799952
 30
0.0
 11
0.5
 21
-4.762477744799952
 31
0.0
  0
LINE
  5
88550
330
1F
100
AcDbEntity
  8
1
100
AcDbLine
 10
0.5
 20
4.762522255200025
 30
0.0
 11
4.560000000000001
 21
4.762522255200025
 31
0.0
  0
LINE
  5
88551
330
1F
100
AcDbEntity
  8
1
100
AcDbLine
 10
35.10861111290004
 20
35.00026084840001
 30
0.0
 11
34.97765376949999
 21
36.3951855032
 31
0.0
  0
LINE
  5
88552
330
1F
100
AcDbEntity
  8
1
100
AcDbLine
 10
48.86259963369997
 20
25.81068691310005
 30
0.0
 11
48.86259963369997
 21
21.57085595549999
 31
0.0
  0
LINE
  5
88553
330
1F
100
AcDbEntity
  8
1
100
AcDbLine
 10
36.28178739580003
 20
28.81361317460001
 30
0.0
 11
34.95710587020003
 21
31.30408560300001
 31
0.0
  0
LINE
  5
88554
330
1F
100
AcDbEntity
  8
1
100
AcDbLine
 10
35.57608503360001
 20
31.02067088549997
 30
0.0
 11
37.37145337679999
 21
27.52458860729998
 31
0.0
  0
LINE
  5
88555
330
1F
100
AcDbEntity
  8
1
100
AcDbLine
 10
49.01307488679996
 20
26.07450096380004
 30
0.0
 11
49.01307488679996
 21
-31.29997670339998
 31
0.0
  0
LINE
  5
88556
330
1F
100
AcDbEntity
  8
1
100
AcDbLine
 10
9.439875870100022
 20
27.78152225520004
 30
0.0
 11
1.5
 21
27.78152225520004
 31
0.0
  0
LINE
  5
88557
330
1F
100
AcDbEntity
  8
1
100
AcDbLine
 10
44.34136927089997
 20
29.15203569840001
 30
0.0
 11
44.15321803699995
 21
29.15203569840001
 31
0.0
  0
LINE
  5
88558
330
1F
100
AcDbEntity
  8
1
100
AcDbLine
 10
42.61690019939999
 20
29.32071917470003
 30
0.0
 11
42.42874896549998
 21
29.32071917470003
 31
0.0
  0
LINE
  5
88559
330
1F
100
AcDbEntity
  8
1
100
AcDbLine
 10
42.8222072561
 20
29.42178750560002
 30
0.0
 11
43.01035848999996
 21
29.42178750560002
 31
0.0
  0
LINE
  5
8855A
330
1F
100
AcDbEntity
  8
1
100
AcDbLine
 10
44.9733351509
 20
29.95762153650005
 30
0.0
 11
45.16148638479998
 21
29.95762153650005
 31
0.0
  0
LINE
  5
8855B
330
1F
100
AcDbEntity
  8
1
100
AcDbLine
 10
45.178195155
 20
29.95750950509997
 30
0.0
 11
45.16148639480002
 21
29.95760907159998
 31
0.0
  0
LINE
  5
8855C
330
1F
100
AcDbEntity
  8
1
100
AcDbLine
 10
35.57608503360001
 20
31.02067088549997
 30
0.0
 11
35.21426076449998
 21
31.10534957960002
 31
0.0
  0
LINE
  5
8855D
330
1F
100
AcDbEntity
  8
1
100
AcDbLine
 10
36.28178739580003
 20
28.81361317460001
 30
0.0
 11
23.55856018869997
 21
33.41989190150004
 31
0.0
  0
LINE
  5
8855E
330
1F
100
AcDbEntity
  8
1
100
AcDbLine
 10
36.10525990640002
 20
34.70370849190001
 30
0.0
 11
36.72579790010002
 21
34.87587495070002
 31
0.0
  0
LINE
  5
8855F
330
1F
100
AcDbEntity
  8
1
100
AcDbLine
 10
45.34888771790003
 20
30.56935423640001
 30
0.0
 11
45.16073648399998
 21
30.56935423640001
 31
0.0
  0
LINE
  5
88560
330
1F
100
AcDbEntity
  8
1
100
AcDbLine
 10
35.3670173333
 20
31.59638505979998
 30
0.0
 11
34.51826941650003
 21
31.59638505979998
 31
0.0
  0
LINE
  5
88561
330
1F
100
AcDbEntity
  8
1
100
AcDbLine
 10
35.343718755
 20
31.64261617510002
 30
0.0
 11
34.4677758846
 21
31.64261617510002
 31
0.0
  0
LINE
  5
88562
330
1F
100
AcDbEntity
  8
1
100
AcDbLine
 10
45.07115263420002
 20
31.69665028700003
 30
0.0
 11
44.88300140029994
 21
31.69665028700003
 31
0.0
  0
LINE
  5
88563
330
1F
100
AcDbEntity
  8
1
100
AcDbLine
 10
44.05032756889997
 20
32.05428791970005
 30
0.0
 11
44.23847880279999
 21
32.05428791970005
 31
0.0
  0
LINE
  5
88564
330
1F
100
AcDbEntity
  8
1
100
AcDbLine
 10
43.522150627
 20
32.47715375549999
 30
0.0
 11
43.33399939309996
 21
32.47715375549999
 31
0.0
  0
LINE
  5
88565
330
1F
100
AcDbEntity
  8
1
100
AcDbLine
 10
33.87399149890001
 20
32.78120717340001
 30
0.0
 11
34.77113463879997
 21
32.78120717340001
 31
0.0
  0
LINE
  5
88566
330
1F
100
AcDbEntity
  8
1
100
AcDbLine
 10
34.13394955500002
 20
33.835832506
 30
0.0
 11
35.06150020720003
 21
33.835832506
 31
0.0
  0
LINE
  5
88567
330
1F
100
AcDbEntity
  8
1
100
AcDbLine
 10
36.13433133040003
 20
34.48738858239997
 30
0.0
 11
35.24100829879998
 21
34.48738858239997
 31
0.0
  0
LINE
  5
88568
330
1F
100
AcDbEntity
  8
1
100
AcDbLine
 10
36.17810188640002
 20
34.5134337588
 30
0.0
 11
35.28732553059999
 21
34.5134337588
 31
0.0
  0
LINE
  5
88569
330
1F
100
AcDbEntity
  8
1
100
AcDbLine
 10
42.07064213769996
 20
31.51856592020001
 30
0.0
 11
42.08735089799995
 21
31.51846635370001
 31
0.0
  0
LINE
  5
8856A
330
1F
100
AcDbEntity
  8
1
100
AcDbLine
 10
36.10525990640002
 20
34.70370849190001
 30
0.0
 11
35.41702204450003
 21
34.78534222930005
 31
0.0
  0
LINE
  5
8856B
330
1F
100
AcDbEntity
  8
1
100
AcDbLine
 10
36.18886195870003
 20
35.07119570120003
 30
0.0
 11
36.48913901029999
 21
34.99185154840006
 31
0.0
  0
LINE
  5
8856C
330
1F
100
AcDbEntity
  8
1
100
AcDbLine
 10
27.31204344090003
 20
37.09077169510004
 30
0.0
 11
35.77675626680002
 21
37.23852380709999
 31
0.0
  0
LINE
  5
8856D
330
1F
100
AcDbEntity
  8
1
100
AcDbLine
 10
41.50101659569995
 20
37.58023426489998
 30
0.0
 11
40.94845491339995
 21
37.58023426489998
 31
0.0
  0
LINE
  5
8856E
330
1F
100
AcDbEntity
  8
1
100
AcDbLine
 10
42.23467245179997
 20
37.76933160190001
 30
0.0
 11
41.68320564359999
 21
37.76933160190001
 31
0.0
  0
LINE
  5
8856F
330
1F
100
AcDbEntity
  8
1
100
AcDbLine
 10
42.26836493450004
 20
37.76897276600004
 30
0.0
 11
42.23467150870003
 21
37.76933160190001
 31
0.0
  0
LINE
  5
88570
330
1F
100
AcDbEntity
  8
nocut
100
AcDbLine
 10
0.0
 20
0.0
 30
0.0
 11
0.0
 21
26.28149999889998
 31
0.0
  0
LINE
  5
88571
330
1F
100
AcDbEntity
  8
sk3
100
AcDbLine
 10
0.9999999754999747
 20
4.762522255200025
 30
0.0
 11
0.9999999754999747
 21
13.1999999989
 31
0.0
  0
LINE
  5
88572
330
1F
100
AcDbEntity
  8
sk3
100
AcDbLine
 10
4.0
 20
4.762522255200025
 30
0.0
 11
4.0
 21
13.1999999989
 31
0.0
  0
LINE
  5
88573
330
1F
100
AcDbEntity
  8
sk3
100
AcDbLine
 10
0.9999999754999747
 20
13.1999999989
 30
0.0
 11
0.0
 21
14.19999997259997
 31
0.0
  0
LINE
  5
88574
330
1F
100
AcDbEntity
  8
nocut
100
AcDbLine
 10
49.01307488679996
 20
0.0
 30
0.0
 11
0.0
 21
0.0
 31
0.0
  0
LINE
  5
88575
330
1F
100
AcDbEntity
  8
sk3
100
AcDbLine
 10
12.92774653969997
 20
12.6999999989
 30
0.0
 11
12.92774653969997
 21
0.0
 31
0.0
  0
LINE
  5
88576
330
1F
100
AcDbEntity
  8
nocut
100
AcDbLine
 10
16.25464141969994
 20
28.68523334019999
 30
0.0
 11
25.43603783110001
 21
36.38933968269999
 31
0.0
  0
LINE
  5
88577
330
1F
100
AcDbEntity
  8
sk3
100
AcDbLine
 10
24.40000000000003
 20
6.849999998899987
 30
0.0
 11
31.4999999195
 21
6.849999998899987
 31
0.0
  0
LINE
  5
88578
330
1F
100
AcDbEntity
  8
sk3
100
AcDbLine
 10
32.40000000000004
 20
9.999999998899994
 30
0.0
 11
44.01307488679996
 21
9.999999998899994
 31
0.0
  0
LINE
  5
88579
102
{ACAD_REACTORS
330
88627
102
}
330
1F
100
AcDbEntity
  8
sk3
100
AcDbLine
 10
4.0
 20
12.6999999989
 30
0.0
 11
12.92774653969997
 21
12.6999999989
 31
0.0
  0
LINE
  5
8857A
330
1F
100
AcDbEntity
  8
sk3
100
AcDbLine
 10
0.9999999754999747
 20
13.1999999989
 30
0.0
 11
4.0
 21
13.1999999989
 31
0.0
  0
LINE
  5
8857B
330
1F
100
AcDbEntity
  8
sk3
100
AcDbLine
 10
14.17735573009994
 20
13.1999999989
 30
0.0
 11
23.19999999999999
 21
13.1999999989
 31
0.0
  0
LINE
  5
8857C
330
1F
100
AcDbEntity
  8
sk3
100
AcDbLine
 10
24.0
 20
0.0
 30
0.0
 11
24.0
 21
12.3999999989
 31
0.0
  0
LINE
  5
8857D
330
1F
100
AcDbEntity
  8
sk3
100
AcDbLine
 10
12.92774653969997
 20
12.6999999989
 30
0.0
 11
13.83926112074365
 21
13.12504622852032
 31
0.0
  0
LINE
  5
8857E
330
1F
100
AcDbEntity
  8
sk3
100
AcDbLine
 10
31.4999999195
 20
6.849999998899987
 30
0.0
 11
31.4999999195
 21
0.0
 31
0.0
  0
LINE
  5
8857F
330
1F
100
AcDbEntity
  8
sk3
100
AcDbLine
 10
32.0
 20
0.0
 30
0.0
 11
32.0
 21
9.599999998899987
 31
0.0
  0
LINE
  5
88580
330
1F
100
AcDbEntity
  8
nocut
100
AcDbLine
 10
1.5
 20
27.78149999889998
 30
0.0
 11
9.439875870099966
 21
27.78149999889998
 31
0.0
  0
LINE
  5
88581
330
1F
100
AcDbEntity
  8
sk3
100
AcDbLine
 10
31.4999999195
 20
6.849999998899987
 30
0.0
 11
32.0
 21
7.350000085299996
 31
0.0
  0
LINE
  5
88582
330
1F
100
AcDbEntity
  8
sk3
100
AcDbLine
 10
44.46450064589996
 20
21.75861742039999
 30
0.0
 11
45.7878634014705
 21
23.88966098422462
 31
0.0
  0
LINE
  5
88583
330
1F
100
AcDbEntity
  8
sk3
100
AcDbLine
 10
44.01307488679996
 20
0.0
 30
0.0
 11
44.01307488679996
 21
20.17597111160001
 31
0.0
  0
LINE
  5
88584
330
1F
100
AcDbEntity
  8
nocut
100
AcDbLine
 10
27.31204344090003
 20
37.09074943880001
 30
0.0
 11
39.27382338399997
 21
37.29954308439999
 31
0.0
  0
LINE
  5
88585
330
1F
100
AcDbEntity
  8
nocut
100
AcDbLine
 10
39.32618060329998
 20
37.2999999989
 30
0.0
 11
43.01307488679995
 21
37.2999999989
 31
0.0
  0
LINE
  5
88586
330
1F
100
AcDbEntity
  8
nocut
100
AcDbLine
 10
49.01307488679996
 20
31.29999999890002
 30
0.0
 11
49.01307488679996
 21
0.0
 31
0.0
  0
ARC
  5
88587
330
1F
100
AcDbEntity
  8
1
100
AcDbCircle
 10
12.39791576160002
 20
-33.2814777448
 30
0.0
 40
6.0
100
AcDbArc
 50
50.00000000000023
 51
109.1881364537007
  0
ARC
  5
88588
330
1F
100
AcDbEntity
  8
1
100
AcDbCircle
 10
12.39791576160002
 20
33.28152225520002
 30
0.0
 40
6.0
100
AcDbArc
 50
250.8118635462993
 51
309.9999999999998
  0
ARC
  5
88589
330
1F
100
AcDbEntity
  8
1
100
AcDbCircle
 10
43.01307488679995
 20
-31.29997774479998
 30
0.0
 40
6.0
100
AcDbArc
 50
270.0
 51
0.0
  0
ARC
  5
8858A
330
1F
100
AcDbEntity
  8
1
100
AcDbCircle
 10
9.439875870100022
 20
24.78152225520004
 30
0.0
 40
3.0
100
AcDbArc
 50
70.81186354629932
 51
90.0
  0
ARC
  5
8858B
330
1F
100
AcDbEntity
  8
1
100
AcDbCircle
 10
9.439875870100022
 20
-24.7814777448
 30
0.0
 40
3.0
100
AcDbArc
 50
270.0
 51
289.1881364537007
  0
ARC
  5
8858C
330
1F
100
AcDbEntity
  8
1
100
AcDbCircle
 10
27.36440066020004
 20
34.09122860970003
 30
0.0
 40
3.0
100
AcDbArc
 50
91.00000000000015
 51
129.9999999999998
  0
ARC
  5
8858D
330
1F
100
AcDbEntity
  8
1
100
AcDbCircle
 10
27.36440066020004
 20
-34.09118409920001
 30
0.0
 40
3.0
100
AcDbArc
 50
230.0000000000002
 51
268.9999999999998
  0
ARC
  5
8858E
102
{ACAD_REACTORS
330
88624
102
}
330
1F
100
AcDbEntity
  8
1
100
AcDbCircle
 10
1.5
 20
26.28152225520004
 30
0.0
 40
1.5
100
AcDbArc
 50
90.0
 51
180.0
  0
ARC
  5
8858F
102
{ACAD_REACTORS
330
88621
330
88624
102
}
330
1F
100
AcDbEntity
  8
1
100
AcDbCircle
 10
1.5
 20
-26.28147774479999
 30
0.0
 40
1.5
100
AcDbArc
 50
180.0
 51
270.0
  0
ARC
  5
88590
330
1F
100
AcDbEntity
  8
nocut
100
AcDbCircle
 10
12.39791576160002
 20
33.28149999889998
 30
0.0
 40
6.0
100
AcDbArc
 50
250.8118635462993
 51
309.9999999999998
  0
ARC
  5
88591
330
1F
100
AcDbEntity
  8
nocut
100
AcDbCircle
 10
43.01307488679995
 20
31.29999999890002
 30
0.0
 40
6.0
100
AcDbArc
 50
0.0
 51
90.0
  0
ARC
  5
88592
330
1F
100
AcDbEntity
  8
nocut
100
AcDbCircle
 10
39.32618060329998
 20
34.29999999890001
 30
0.0
 40
3.0
100
AcDbArc
 50
90.0
 51
91.00000000000015
  0
ARC
  5
88593
330
1F
100
AcDbEntity
  8
nocut
100
AcDbCircle
 10
27.36440066020004
 20
34.09120635340002
 30
0.0
 40
3.0
100
AcDbArc
 50
91.00000000000015
 51
129.9999999999998
  0
ARC
  5
88594
330
1F
100
AcDbEntity
  8
nocut
100
AcDbCircle
 10
9.439875870099966
 20
24.78149999889998
 30
0.0
 40
3.0
100
AcDbArc
 50
70.81186354629932
 51
90.0
  0
ARC
  5
88595
330
1F
100
AcDbEntity
  8
sk3
100
AcDbCircle
 10
47.01307488679995
 20
20.17597111160001
 30
0.0
 40
3.0
100
AcDbArc
 50
148.1600158132999
 51
180.0
  0
ARC
  5
88596
102
{ACAD_REACTORS
330
8861A
102
}
330
1F
100
AcDbEntity
  8
nocut
100
AcDbCircle
 10
1.5
 20
26.28149999889998
 30
0.0
 40
1.5
100
AcDbArc
 50
90.0
 51
180.0
  0
ARC
  5
88597
330
1F
100
AcDbEntity
  8
sk3
100
AcDbCircle
 10
23.19999999999999
 20
12.3999999989
 30
0.0
 40
0.8
100
AcDbArc
 50
0.0
 51
90.0
  0
ARC
  5
88598
330
1F
100
AcDbEntity
  8
sk3
100
AcDbCircle
 10
14.17735573009994
 20
12.3999999989
 30
0.0
 40
0.8
100
AcDbArc
 50
90.0
 51
114.9999999999997
  0
ARC
  5
88599
330
1F
100
AcDbEntity
  8
sk3
100
AcDbCircle
 10
32.40000000000004
 20
9.599999998899987
 30
0.0
 40
0.4
100
AcDbArc
 50
90.0
 51
180.0
  0
ARC
  5
8859A
330
1F
100
AcDbEntity
  8
sk3
100
AcDbCircle
 10
24.40000000000003
 20
7.249999998899992
 30
0.0
 40
0.4
100
AcDbArc
 50
180.0
 51
270.0
  0
SPLINE
  5
8859B
330
1F
100
AcDbEntity
  8
1
100
AcDbSpline
210
0.0
220
0.0
230
1.0
 70
     8
 71
     3
 72
    15
 73
    11
 74
     0
 42
0.000000001
 43
0.0000000001
 40
0.0
 40
0.0
 40
0.0
 40
0.0
 40
0.1246293835
 40
0.2493695473
 40
0.3743259483
 40
0.4994857045
 40
0.6247590985000003
 40
0.7500101368000001
 40
0.875106152
 40
1.0
 40
1.0
 40
1.0
 40
1.0
 10
42.07064213679996
 20
31.51857586119998
 30
0.0
 10
42.03530759399995
 20
31.5185725094
 30
0.0
 10
41.9640717579
 20
31.50688772700001
 30
0.0
 10
41.86880649659997
 20
31.45614174099998
 30
0.0
 10
41.79451621129999
 20
31.37751450270002
 30
0.0
 10
41.74904834229996
 20
31.27922701669998
 30
0.0
 10
41.73708037609995
 20
31.17151761919998
 30
0.0
 10
41.75987206049998
 20
31.06556714180002
 30
0.0
 10
41.81495774379999
 20
30.97246492400004
 30
0.0
 10
41.86975118179995
 20
30.92521149400003
 30
0.0
 10
41.89994957479996
 20
30.90672118890003
 30
0.0
  0
SPLINE
  5
8859C
330
1F
100
AcDbEntity
  8
1
100
AcDbSpline
210
0.0
220
0.0
230
1.0
 70
     8
 71
     3
 72
    11
 73
     7
 74
     0
 42
0.000000001
 43
0.0000000001
 40
0.0
 40
0.0
 40
0.0
 40
0.0
 40
0.2503004004
 40
0.500350793
 40
0.7502244484000001
 40
1.0
 40
1.0
 40
1.0
 40
1.0
 10
41.13253017300002
 20
33.22336439930003
 30
0.0
 10
41.29007812309999
 20
33.37588460100003
 30
0.0
 10
41.63517782240001
 20
33.65128047089998
 30
0.0
 10
42.22125194599994
 20
33.95731791500001
 30
0.0
 10
42.85455013909998
 20
34.14567271150005
 30
0.0
 10
43.293434983
 20
34.18803349739996
 30
0.0
 10
43.51225529409996
 20
34.18803707720004
 30
0.0
  0
SPLINE
  5
8859D
330
1F
100
AcDbEntity
  8
1
100
AcDbSpline
210
0.0
220
0.0
230
1.0
 70
     8
 71
     3
 72
    15
 73
    11
 74
     0
 42
0.000000001
 43
0.0000000001
 40
0.0
 40
0.0
 40
0.0
 40
0.0
 40
0.1251708752
 40
0.2504178639
 40
0.3756803631
 40
0.5008539075
 40
0.6258744928
 40
0.7507162801
 40
0.8754018118999999
 40
1.0
 40
1.0
 40
1.0
 40
1.0
 10
42.17768465849997
 20
29.77942513830001
 30
0.0
 10
42.1629366304
 20
29.75458191679999
 30
0.0
 10
42.13987837069999
 20
29.70072216110001
 30
0.0
 10
42.12750616689999
 20
29.61393409810002
 30
0.0
 10
42.13801261059997
 20
29.52684449890004
 30
0.0
 10
42.17073169289998
 20
29.44551997430005
 30
0.0
 10
42.22339374379996
 20
29.37555846009999
 30
0.0
 10
42.29239933469997
 20
29.32180604540004
 30
0.0
 10
42.37290416510001
 20
29.28798093360003
 30
0.0
 10
42.43073131359998
 20
29.28028967090003
 30
0.0
 10
42.45949013209993
 20
29.28028713540001
 30
0.0
  0
SPLINE
  5
8859E
330
1F
100
AcDbEntity
  8
1
100
AcDbSpline
210
0.0
220
0.0
230
1.0
 70
     8
 71
     3
 72
    11
 73
     7
 74
     0
 42
0.000000001
 43
0.0000000001
 40
0.0
 40
0.0
 40
0.0
 40
0.0
 40
0.2504819519
 40
0.5005874052000002
 40
0.7503850791
 40
1.0
 40
1.0
 40
1.0
 40
1.0
 10
43.7266866658
 20
28.99892166980001
 30
0.0
 10
43.69143954289998
 20
29.06242368690001
 30
0.0
 10
43.60371894270002
 20
29.18057734160001
 30
0.0
 10
43.43069929150003
 20
29.31656982290006
 30
0.0
 10
43.22827572160003
 20
29.40228529919997
 30
0.0
 10
43.08273536319996
 20
29.42179053689999
 30
0.0
 10
43.0103584908
 20
29.42178693529998
 30
0.0
  0
SPLINE
  5
8859F
330
1F
100
AcDbEntity
  8
1
100
AcDbSpline
210
0.0
220
0.0
230
1.0
 70
     8
 71
     3
 72
    11
 73
     7
 74
     0
 42
0.000000001
 43
0.0000000001
 40
0.0
 40
0.0
 40
0.0
 40
0.0
 40
0.2504891883
 40
0.5005834931999999
 40
0.7503857384
 40
1.0
 40
1.0
 40
1.0
 40
1.0
 10
43.7266866658
 20
28.99892166980001
 30
0.0
 10
43.74078828929995
 20
28.97351586459998
 30
0.0
 10
43.77588086900003
 20
28.92624513960001
 30
0.0
 10
43.84510453959999
 20
28.87184525110003
 30
0.0
 10
43.92608426479998
 20
28.83754676200002
 30
0.0
 10
43.98431112029991
 20
28.82974900669998
 30
0.0
 10
44.0132666531
 20
28.82974692979999
 30
0.0
  0
SPLINE
  5
885A0
330
1F
100
AcDbEntity
  8
1
100
AcDbSpline
210
0.0
220
0.0
230
1.0
 70
     8
 71
     3
 72
    15
 73
    11
 74
     0
 42
0.000000001
 43
0.0000000001
 40
0.0
 40
0.0
 40
0.0
 40
0.0
 40
0.125026603
 40
0.2501285277
 40
0.3752757539
 40
0.5004082424
 40
0.6254787929
 40
0.7504494531999999
 40
0.8752866427
 40
1.0
 40
1.0
 40
1.0
 40
1.0
 10
42.17768465849997
 20
29.77942513830001
 30
0.0
 10
42.20501879070002
 20
29.82546979560002
 30
0.0
 10
42.2508380351
 20
29.92318789400004
 30
0.0
 10
42.28987139830002
 20
30.08009674040002
 30
0.0
 10
42.29792572069999
 20
30.2416907487
 30
0.0
 10
42.27464175889998
 20
30.40177410060002
 30
0.0
 10
42.22092646229993
 20
30.55428487579999
 30
0.0
 10
42.13878541819993
 20
30.69343280770001
 30
0.0
 10
42.03141030689996
 20
30.81389970610004
 30
0.0
 10
41.9455016567
 20
30.87882990710003
 30
0.0
 10
41.89994957479996
 20
30.90672118890003
 30
0.0
  0
SPLINE
  5
885A1
330
1F
100
AcDbEntity
  8
1
100
AcDbSpline
210
0.0
220
0.0
230
1.0
 70
     8
 71
     3
 72
    15
 73
    11
 74
     0
 42
0.000000001
 43
0.0000000001
 40
0.0
 40
0.0
 40
0.0
 40
0.0
 40
0.1246819468
 40
0.2493922141
 40
0.3742031403
 40
0.4991330377000003
 40
0.6241948778000001
 40
0.7493820855
 40
0.8746592278000001
 40
1.0
 40
1.0
 40
1.0
 40
1.0
 10
42.08735089869995
 20
31.51845426209999
 30
0.0
 10
42.1401694649
 20
31.5184572843
 30
0.0
 10
42.24610627049996
 20
31.52877606070003
 30
0.0
 10
42.39883893639995
 20
31.57466329460002
 30
0.0
 10
42.5400010429
 20
31.64921028900002
 30
0.0
 10
42.66425100729995
 20
31.74965111590006
 30
0.0
 10
42.76698253079999
 20
31.87221743700007
 30
0.0
 10
42.84435686689996
 20
32.01235960760001
 30
0.0
 10
42.89350749619996
 20
32.16477199210002
 30
0.0
 10
42.90623411889995
 20
32.27095640349997
 30
0.0
 10
42.90746802179995
 20
32.32403972689998
 30
0.0
  0
SPLINE
  5
885A2
330
1F
100
AcDbEntity
  8
1
100
AcDbSpline
210
0.0
220
0.0
230
1.0
 70
     8
 71
     3
 72
    23
 73
    19
 74
     0
 42
0.000000001
 43
0.0000000001
 40
0.0
 40
0.0
 40
0.0
 40
0.0
 40
0.0624839227
 40
0.1250142546
 40
0.1875896653
 40
0.2501977188
 40
0.3128266353
 40
0.3754617975
 40
0.4380882789000001
 40
0.5006918557
 40
0.5632602988000001
 40
0.6257844382
 40
0.6882589717
 40
0.7506829330000003
 40
0.8130597845
 40
0.8753971201
 40
0.9377060038999999
 40
1.0
 40
1.0
 40
1.0
 40
1.0
 10
41.13253017300002
 20
33.22336439930003
 30
0.0
 10
41.01028446389997
 20
33.10501985599998
 30
0.0
 10
40.78294767559998
 20
32.84965557630002
 30
0.0
 10
40.50243876929997
 20
32.42062599459998
 30
0.0
 10
40.28804179580004
 20
31.95453208220004
 30
0.0
 10
40.14458239719997
 20
31.46171140130004
 30
0.0
 10
40.07517470109997
 20
30.95298015270002
 30
0.0
 10
40.08135371369997
 20
30.43952506680002
 30
0.0
 10
40.1629808175
 20
29.932630951
 30
0.0
 10
40.31826636429999
 20
29.44344114350002
 30
0.0
 10
40.5438004515
 20
28.98271136090002
 30
0.0
 10
40.83462925149999
 20
28.56057388870001
 30
0.0
 10
41.18436235899998
 20
28.18631558270001
 30
0.0
 10
41.5853161424
 20
27.86817334230003
 30
0.0
 10
42.02866430999995
 20
27.6131524422
 30
0.0
 10
42.50469501279993
 20
27.42687014570003
 30
0.0
 10
43.00278603889998
 20
27.31343435800003
 30
0.0
 10
43.34262710689996
 20
27.28803557310002
 30
0.0
 10
43.51225529409996
 20
27.2880383481
 30
0.0
  0
SPLINE
  5
885A3
330
1F
100
AcDbEntity
  8
1
100
AcDbSpline
210
0.0
220
0.0
230
1.0
 70
     8
 71
     3
 72
    11
 73
     7
 74
     0
 42
0.000000001
 43
0.0000000001
 40
0.0
 40
0.0
 40
0.0
 40
0.0
 40
0.2493743244
 40
0.4991100527000001
 40
0.749360618
 40
1.0
 40
1.0
 40
1.0
 40
1.0
 10
43.23557063959998
 20
32.64632849549999
 30
0.0
 10
43.19350442569994
 20
32.64633151270001
 30
0.0
 10
43.10840988549997
 20
32.62963503239998
 30
0.0
 10
43.00037315389996
 20
32.55821562169998
 30
0.0
 10
42.926965577
 20
32.45128615880001
 30
0.0
 10
42.90845053099997
 20
32.36630792220006
 30
0.0
 10
42.90746802179995
 20
32.32403972689998
 30
0.0
  0
SPLINE
  5
885A4
330
1F
100
AcDbEntity
  8
1
100
AcDbSpline
210
0.0
220
0.0
230
1.0
 70
     8
 71
     3
 72
     9
 73
     5
 74
     0
 42
0.000000001
 43
0.0000000001
 40
0.0
 40
0.0
 40
0.0
 40
0.0
 40
0.4998171182
 40
1.0
 40
1.0
 40
1.0
 40
1.0
 10
44.23847880189995
 20
32.05428849
 30
0.0
 10
44.30669716899996
 20
32.05429188470001
 30
0.0
 10
44.44373052739996
 20
32.0715464505
 30
0.0
 10
44.57210954459998
 20
32.12247428450004
 30
0.0
 10
44.63193709339996
 20
32.15535625060002
 30
0.0
  0
SPLINE
  5
885A5
330
1F
100
AcDbEntity
  8
1
100
AcDbSpline
210
0.0
220
0.0
230
1.0
 70
     8
 71
     3
 72
     9
 73
     5
 74
     0
 42
0.000000001
 43
0.0000000001
 40
0.0
 40
0.0
 40
0.0
 40
0.0
 40
0.4998063396
 40
1.0
 40
1.0
 40
1.0
 40
1.0
 10
44.78934716069995
 20
32.19578828989997
 30
0.0
 10
44.76205578299999
 20
32.19579069599998
 30
0.0
 10
44.70723262349998
 20
32.18888606660001
 30
0.0
 10
44.65587267990002
 20
32.16851154720004
 30
0.0
 10
44.63193709339996
 20
32.15535625060002
 30
0.0
  0
SPLINE
  5
885A6
330
1F
100
AcDbEntity
  8
1
100
AcDbSpline
210
0.0
220
0.0
230
1.0
 70
     8
 71
     3
 72
    23
 73
    19
 74
     0
 42
0.000000001
 43
0.0000000001
 40
0.0
 40
0.0
 40
0.0
 40
0.0
 40
0.0622939961
 40
0.1246028799
 40
0.1869402155
 40
0.249317067
 40
0.3117410283
 40
0.3742155618
 40
0.4367397012
 40
0.4993081443
 40
0.5619117211
 40
0.6245382025000003
 40
0.6871733647
 40
0.7498022812000002
 40
0.8124103347
 40
0.8749857454
 40
0.9375160772999999
 40
1.0
 40
1.0
 40
1.0
 40
1.0
 10
43.58260726110001
 20
34.18803707720004
 30
0.0
 10
43.75223544819999
 20
34.18803985220004
 30
0.0
 10
44.09207651619996
 20
34.16264106730004
 30
0.0
 10
44.59016754239999
 20
34.04920527959998
 30
0.0
 10
45.06619824509995
 20
33.86292298310003
 30
0.0
 10
45.50954641279995
 20
33.60790208300002
 30
0.0
 10
45.91050019609999
 20
33.28975984259997
 30
0.0
 10
46.26023330359996
 20
32.91550153660003
 30
0.0
 10
46.55106210369996
 20
32.49336406440002
 30
0.0
 10
46.77659619079998
 20
32.0326342818
 30
0.0
 10
46.93188173760001
 20
31.54344447430001
 30
0.0
 10
47.01350884139995
 20
31.03655035850002
 30
0.0
 10
47.01968785399997
 20
30.52309527259998
 30
0.0
 10
46.95028015800001
 20
30.01436402399999
 30
0.0
 10
46.80682075939995
 20
29.52154334310004
 30
0.0
 10
46.59242378580001
 20
29.05544943070001
 30
0.0
 10
46.31191487949997
 20
28.62641984900002
 30
0.0
 10
46.08457809129999
 20
28.3710555693
 30
0.0
 10
45.96233238220003
 20
28.25271102600002
 30
0.0
  0
SPLINE
  5
885A7
330
1F
100
AcDbEntity
  8
1
100
AcDbSpline
210
0.0
220
0.0
230
1.0
 70
     8
 71
     3
 72
    11
 73
     7
 74
     0
 42
0.000000001
 43
0.0000000001
 40
0.0
 40
0.0
 40
0.0
 40
0.0
 40
0.2497755516
 40
0.4996492070000003
 40
0.7496995996
 40
1.0
 40
1.0
 40
1.0
 40
1.0
 10
43.58260726099996
 20
27.2880383481
 30
0.0
 10
43.80142757210001
 20
27.28804192790003
 30
0.0
 10
44.24031241599999
 20
27.33040271380002
 30
0.0
 10
44.8736106092
 20
27.51875751029999
 30
0.0
 10
45.45968473270002
 20
27.8247949544
 30
0.0
 10
45.80478443209995
 20
28.10019082430005
 30
0.0
 10
45.96233238220003
 20
28.25271102600002
 30
0.0
  0
SPLINE
  5
885A8
330
1F
100
AcDbEntity
  8
1
100
AcDbSpline
210
0.0
220
0.0
230
1.0
 70
     8
 71
     3
 72
    23
 73
    19
 74
     0
 42
0.000000001
 43
0.0000000001
 40
0.0
 40
0.0
 40
0.0
 40
0.0
 40
0.0624839227
 40
0.1250142546
 40
0.1875896653
 40
0.2501977188
 40
0.3128266353
 40
0.3754617975
 40
0.4380882789000001
 40
0.5006918557
 40
0.5632602988000001
 40
0.6257844382
 40
0.6882589717
 40
0.7506829330000003
 40
0.8130597845
 40
0.8753971201
 40
0.9377060038999999
 40
1.0
 40
1.0
 40
1.0
 40
1.0
 10
41.20288213999995
 20
33.22336439930003
 30
0.0
 10
41.08063643079996
 20
33.10501985599998
 30
0.0
 10
40.85329964259996
 20
32.84965557630002
 30
0.0
 10
40.57279073629999
 20
32.42062599459998
 30
0.0
 10
40.35839376269999
 20
31.95453208220004
 30
0.0
 10
40.21493436419999
 20
31.46171140130004
 30
0.0
 10
40.14552666809999
 20
30.95298015270002
 30
0.0
 10
40.15170568069999
 20
30.43952506680002
 30
0.0
 10
40.23333278450002
 20
29.932630951
 30
0.0
 10
40.38861833129999
 20
29.44344114350002
 30
0.0
 10
40.61415241839998
 20
28.98271136090002
 30
0.0
 10
40.90498121849996
 20
28.56057388870001
 30
0.0
 10
41.25471432599996
 20
28.18631558270001
 30
0.0
 10
41.65566810929999
 20
27.86817334230003
 30
0.0
 10
42.09901627699998
 20
27.6131524422
 30
0.0
 10
42.57504697979999
 20
27.42687014570003
 30
0.0
 10
43.07313800589994
 20
27.31343435800003
 30
0.0
 10
43.41297907389995
 20
27.28803557310002
 30
0.0
 10
43.58260726099996
 20
27.2880383481
 30
0.0
  0
SPLINE
  5
885A9
330
1F
100
AcDbEntity
  8
1
100
AcDbSpline
210
0.0
220
0.0
230
1.0
 70
     8
 71
     3
 72
    11
 73
     7
 74
     0
 42
0.000000001
 43
0.0000000001
 40
0.0
 40
0.0
 40
0.0
 40
0.0
 40
0.2503004004
 40
0.500350793
 40
0.7502244484000001
 40
1.0
 40
1.0
 40
1.0
 40
1.0
 10
41.20288213999995
 20
33.22336439930003
 30
0.0
 10
41.36043009010001
 20
33.37588460100003
 30
0.0
 10
41.70552978939993
 20
33.65128047089998
 30
0.0
 10
42.29160391290003
 20
33.95731791500001
 30
0.0
 10
42.9249021061
 20
34.14567271150005
 30
0.0
 10
43.36378695000002
 20
34.18803349739996
 30
0.0
 10
43.58260726110001
 20
34.18803707720004
 30
0.0
  0
SPLINE
  5
885AA
330
1F
100
AcDbEntity
  8
1
100
AcDbSpline
210
0.0
220
0.0
230
1.0
 70
     8
 71
     3
 72
    27
 73
    23
 74
     0
 42
0.000000001
 43
0.0000000001
 40
0.0
 40
0.0
 40
0.0
 40
0.0
 40
0.0625100854
 40
0.0938241208
 40
0.1251542875
 40
0.1877745471
 40
0.2504225458
 40
0.2817864651
 40
0.3131477969
 40
0.3757750794
 40
0.4383569629000001
 40
0.5008780541000001
 40
0.5633322387
 40
0.6257235956000004
 40
0.6880657258000003
 40
0.7192627629000004
 40
0.7504558183
 40
0.8127674285999999
 40
0.8751025026
 40
0.9063237387999999
 40
0.9375568347999999
 40
1.0
 40
1.0
 40
1.0
 40
1.0
 10
42.00275045679996
 20
32.43166828900005
 30
0.0
 10
41.89262467359995
 20
32.32505689450003
 30
0.0
 10
41.74257069849995
 20
32.14811338070003
 30
0.0
 10
41.58034513349995
 20
31.88720320000002
 30
0.0
 10
41.44416193699996
 20
31.61139167029997
 30
0.0
 10
41.32550105429999
 20
31.2434709444
 30
0.0
 10
41.28063502339998
 20
30.85941287020002
 30
0.0
 10
41.28988209110002
 20
30.55170446889999
 30
0.0
 10
41.32901909309999
 20
30.24641441169998
 30
0.0
 10
41.43360885589999
 20
29.87425611680001
 30
0.0
 10
41.64325225939998
 20
29.46120901590003
 30
0.0
 10
41.92903048679997
 20
29.09710203530003
 30
0.0
 10
42.28001571640001
 20
28.79605417270003
 30
0.0
 10
42.68261038149996
 20
28.56962409669998
 30
0.0
 10
43.04870524289993
 20
28.45031223020001
 30
0.0
 10
43.35071828080001
 20
28.39939524460002
 30
0.0
 10
43.6562077163
 20
28.37843375280002
 30
0.0
 10
44.03976510299995
 20
28.4089840036
 30
0.0
 10
44.40989660579997
 20
28.51431292200001
 30
0.0
 10
44.68907254970003
 20
28.64066659419998
 30
0.0
 10
44.95465709319995
 20
28.79387530599998
 30
0.0
 10
45.13607894789996
 20
28.9379098747
 30
0.0
 10
45.24608683590003
 20
29.0444071363
 30
0.0
  0
SPLINE
  5
885AB
330
1F
100
AcDbEntity
  8
1
100
AcDbSpline
210
0.0
220
0.0
230
1.0
 70
     8
 71
     3
 72
    15
 73
    11
 74
     0
 42
0.000000001
 43
0.0000000001
 40
0.0
 40
0.0
 40
0.0
 40
0.0
 40
0.125026603
 40
0.2501285277
 40
0.3752757539
 40
0.5004082424
 40
0.6254787929
 40
0.7504494531999999
 40
0.8752866427
 40
1.0
 40
1.0
 40
1.0
 40
1.0
 10
45.07115263420002
 20
31.69665028700003
 30
0.0
 10
45.04381850199997
 20
31.65060562970005
 30
0.0
 10
44.99799925760004
 20
31.5528875313
 30
0.0
 10
44.95896589439992
 20
31.39597868489997
 30
0.0
 10
44.95091157209998
 20
31.2343846766
 30
0.0
 10
44.97419553389996
 20
31.07430132470002
 30
0.0
 10
45.02791083039997
 20
30.9217905495
 30
0.0
 10
45.11005187449998
 20
30.78264261759998
 30
0.0
 10
45.21742698580001
 20
30.66217571920001
 30
0.0
 10
45.30333563599995
 20
30.59724551820005
 30
0.0
 10
45.34888771790003
 20
30.56935423640001
 30
0.0
  0
SPLINE
  5
885AC
330
1F
100
AcDbEntity
  8
1
100
AcDbSpline
210
0.0
220
0.0
230
1.0
 70
     8
 71
     3
 72
     9
 73
     5
 74
     0
 42
0.000000001
 43
0.0000000001
 40
0.0
 40
0.0
 40
0.0
 40
0.0
 40
0.5005275551000004
 40
1.0
 40
1.0
 40
1.0
 40
1.0
 10
43.33399939309996
 20
32.47715375549999
 30
0.0
 10
43.31359644179999
 20
32.51391217590001
 30
0.0
 10
43.25815853619997
 20
32.58013201380001
 30
0.0
 10
43.1817180481
 20
32.62037551850003
 30
0.0
 10
43.14154497949997
 20
32.63246446820002
 30
0.0
  0
SPLINE
  5
885AD
330
1F
100
AcDbEntity
  8
1
100
AcDbSpline
210
0.0
220
0.0
230
1.0
 70
     8
 71
     3
 72
    11
 73
     7
 74
     0
 42
0.000000001
 43
0.0000000001
 40
0.0
 40
0.0
 40
0.0
 40
0.0
 40
0.2496168348
 40
0.4994153088
 40
0.7495138612000001
 40
1.0
 40
1.0
 40
1.0
 40
1.0
 10
44.050327565
 20
32.05429219250002
 30
0.0
 10
43.9779501946
 20
32.05428999030001
 30
0.0
 10
43.832407155
 20
32.073783566
 30
0.0
 10
43.6299897051
 20
32.1595118676
 30
0.0
 10
43.45696598009999
 20
32.29549588520003
 30
0.0
 10
43.36924707739996
 20
32.41365072689998
 30
0.0
 10
43.33399939309996
 20
32.47715375549999
 30
0.0
  0
SPLINE
  5
885AE
330
1F
100
AcDbEntity
  8
1
100
AcDbSpline
210
0.0
220
0.0
230
1.0
 70
     8
 71
     3
 72
    15
 73
    11
 74
     0
 42
0.000000001
 43
0.0000000001
 40
0.0
 40
0.0
 40
0.0
 40
0.0
 40
0.1250874197
 40
0.250273621
 40
0.3754775216
 40
0.5006409471
 40
0.6256989901
 40
0.7506134720000001
 40
0.8753738368999998
 40
1.0
 40
1.0
 40
1.0
 40
1.0
 10
44.88300140029994
 20
31.69665028700003
 30
0.0
 10
44.89572158520002
 20
31.71807758349999
 30
0.0
 10
44.91637266259996
 20
31.7640101894
 30
0.0
 10
44.93106399099993
 20
31.83797403119998
 30
0.0
 10
44.92881963000002
 20
31.91340054249999
 30
0.0
 10
44.90973687310003
 20
31.98637331130001
 30
0.0
 10
44.8747966208
 20
32.05315623779998
 30
0.0
 10
44.82577782779993
 20
32.11031749860004
 30
0.0
 10
44.76524262479996
 20
32.15490144919996
 30
0.0
 10
44.7191430259
 20
32.17474828650003
 30
0.0
 10
44.69537188589995
 20
32.18191027950005
 30
0.0
  0
SPLINE
  5
885AF
330
1F
100
AcDbEntity
  8
1
100
AcDbSpline
210
0.0
220
0.0
230
1.0
 70
     8
 71
     3
 72
    15
 73
    11
 74
     0
 42
0.000000001
 43
0.0000000001
 40
0.0
 40
0.0
 40
0.0
 40
0.0
 40
0.1247096296
 40
0.2495518004
 40
0.3745207713
 40
0.4995917546000002
 40
0.6247246792
 40
0.7498702116000004
 40
0.8749771341
 40
1.0
 40
1.0
 40
1.0
 40
1.0
 10
45.16073648399998
 20
30.56935423640001
 30
0.0
 10
45.11518571209998
 20
30.59724471619997
 30
0.0
 10
45.02927765090001
 20
30.66217633290003
 30
0.0
 10
44.92189861679995
 20
30.78263992739997
 30
0.0
 10
44.8397589109
 20
30.92179081119999
 30
0.0
 10
44.78604140769999
 20
31.07430060760003
 30
0.0
 10
44.7627598536
 20
31.2343841176
 30
0.0
 10
44.7708116231
 20
31.39598012220004
 30
0.0
 10
44.80984998729994
 20
31.55288787420003
 30
0.0
 10
44.85566805420001
 20
31.6506069539
 30
0.0
 10
44.88300140029994
 20
31.69665028700003
 30
0.0
  0
SPLINE
  5
885B0
330
1F
100
AcDbEntity
  8
1
100
AcDbSpline
210
0.0
220
0.0
230
1.0
 70
     8
 71
     3
 72
    15
 73
    11
 74
     0
 42
0.000000001
 43
0.0000000001
 40
0.0
 40
0.0
 40
0.0
 40
0.0
 40
0.1251708752
 40
0.2504178639
 40
0.3756803631
 40
0.5008539075
 40
0.6258744928
 40
0.7507162801
 40
0.8754018118999999
 40
1.0
 40
1.0
 40
1.0
 40
1.0
 10
45.07115263420002
 20
31.69665028700003
 30
0.0
 10
45.0859006623
 20
31.72149350850002
 30
0.0
 10
45.10895892209997
 20
31.77535326410001
 30
0.0
 10
45.12133112590001
 20
31.86214132720002
 30
0.0
 10
45.11082468219996
 20
31.94923092640002
 30
0.0
 10
45.07810559979995
 20
32.03055545100003
 30
0.0
 10
45.02544354889996
 20
32.10051696519999
 30
0.0
 10
44.95643795799995
 20
32.15426937989999
 30
0.0
 10
44.8759331276
 20
32.18809449170001
 30
0.0
 10
44.81810597909998
 20
32.19578575440002
 30
0.0
 10
44.78934716069995
 20
32.19578828989997
 30
0.0
  0
SPLINE
  5
885B1
330
1F
100
AcDbEntity
  8
1
100
AcDbSpline
210
0.0
220
0.0
230
1.0
 70
     8
 71
     3
 72
    15
 73
    11
 74
     0
 42
0.000000001
 43
0.0000000001
 40
0.0
 40
0.0
 40
0.0
 40
0.0
 40
0.1253363587
 40
0.2506186562
 40
0.3758034818
 40
0.5008655515
 40
0.6257953163000001
 40
0.7506048813
 40
0.8753175871999998
 40
1.0
 40
1.0
 40
1.0
 40
1.0
 10
44.15321803699995
 20
29.15203569840001
 30
0.0
 10
44.15445189799996
 20
29.20511721520004
 30
0.0
 10
44.16718017079998
 20
29.31130157660001
 30
0.0
 10
44.21632543200002
 20
29.463715318
 30
0.0
 10
44.29370298860002
 20
29.60385748150005
 30
0.0
 10
44.39643173849995
 20
29.72642497500002
 30
0.0
 10
44.52068239739998
 20
29.82686451840002
 30
0.0
 10
44.66184399819994
 20
29.90141357560002
 30
0.0
 10
44.81457837859998
 20
29.94729908550001
 30
0.0
 10
44.92051634550001
 20
29.95761711370003
 30
0.0
 10
44.97333517150003
 20
29.95762105500002
 30
0.0
  0
SPLINE
  5
885B2
330
1F
100
AcDbEntity
  8
1
100
AcDbSpline
210
0.0
220
0.0
230
1.0
 70
     8
 71
     3
 72
    11
 73
     7
 74
     0
 42
0.000000001
 43
0.0000000001
 40
0.0
 40
0.0
 40
0.0
 40
0.0
 40
0.2504819519
 40
0.5005874052000002
 40
0.7503850791
 40
1.0
 40
1.0
 40
1.0
 40
1.0
 10
43.522150627
 20
32.47715375549999
 30
0.0
 10
43.55739774989999
 20
32.41365173840004
 30
0.0
 10
43.64511834999999
 20
32.2954980836
 30
0.0
 10
43.81813800119997
 20
32.1595056024
 30
0.0
 10
44.02056157109996
 20
32.07379012610001
 30
0.0
 10
44.16610192960002
 20
32.05428488840001
 30
0.0
 10
44.23847880189995
 20
32.05428849
 30
0.0
  0
SPLINE
  5
885B3
330
1F
100
AcDbEntity
  8
1
100
AcDbSpline
210
0.0
220
0.0
230
1.0
 70
     8
 71
     3
 72
     9
 73
     5
 74
     0
 42
0.000000001
 43
0.0000000001
 40
0.0
 40
0.0
 40
0.0
 40
0.0
 40
0.5001923073
 40
1.0
 40
1.0
 40
1.0
 40
1.0
 10
42.42874896549998
 20
29.32071917470003
 30
0.0
 10
42.48857759509997
 20
29.35360173480003
 30
0.0
 10
42.61695611849996
 20
29.40453150670001
 30
0.0
 10
42.75399023240001
 20
29.42178115719999
 30
0.0
 10
42.82220726
 20
29.42178323279998
 30
0.0
  0
SPLINE
  5
885B4
330
1F
100
AcDbEntity
  8
1
100
AcDbSpline
210
0.0
220
0.0
230
1.0
 70
     8
 71
     3
 72
    15
 73
    11
 74
     0
 42
0.000000001
 43
0.0000000001
 40
0.0
 40
0.0
 40
0.0
 40
0.0
 40
0.1246293835
 40
0.2493695473
 40
0.3743259483
 40
0.4994857045
 40
0.6247590985000003
 40
0.7500101368000001
 40
0.875106152
 40
1.0
 40
1.0
 40
1.0
 40
1.0
 10
45.1781951559
 20
29.9574995641
 30
0.0
 10
45.21352969869997
 20
29.95750291589999
 30
0.0
 10
45.28476553479999
 20
29.96918769829998
 30
0.0
 10
45.38003079619993
 20
30.01993368430002
 30
0.0
 10
45.45432108139999
 20
30.0985609226
 30
0.0
 10
45.49978895039996
 20
30.1968484086
 30
0.0
 10
45.51175691669999
 20
30.30455780610001
 30
0.0
 10
45.48896523229995
 20
30.41050828349997
 30
0.0
 10
45.43387954890002
 20
30.50361050130002
 30
0.0
 10
45.37908611099999
 20
30.55086393130002
 30
0.0
 10
45.34888771790003
 20
30.56935423640001
 30
0.0
  0
SPLINE
  5
885B5
330
1F
100
AcDbEntity
  8
1
100
AcDbSpline
210
0.0
220
0.0
230
1.0
 70
     8
 71
     3
 72
    15
 73
    11
 74
     0
 42
0.000000001
 43
0.0000000001
 40
0.0
 40
0.0
 40
0.0
 40
0.0
 40
0.1246400608
 40
0.2493789673
 40
0.3743377152
 40
0.4994979937
 40
0.6247693851000001
 40
0.7500177582
 40
0.8751065924
 40
1.0
 40
1.0
 40
1.0
 40
1.0
 10
44.99327253739997
 20
29.95751604520004
 30
0.0
 10
45.02847589659999
 20
29.95787022140002
 30
0.0
 10
45.09932601139996
 20
29.97016356300001
 30
0.0
 10
45.19381277889999
 20
30.02147999900004
 30
0.0
 10
45.26728784319999
 20
30.10029743560004
 30
0.0
 10
45.31202941729996
 20
30.19845578779998
 30
0.0
 10
45.3235016543
 20
30.3057952567
 30
0.0
 10
45.30046533239995
 20
30.41125968500003
 30
0.0
 10
45.24543009130002
 20
30.50389990390002
 30
0.0
 10
45.19082160110002
 20
30.5509332896
 30
0.0
 10
45.16073648399998
 20
30.56935423640001
 30
0.0
  0
SPLINE
  5
885B6
330
1F
100
AcDbEntity
  8
1
100
AcDbSpline
210
0.0
220
0.0
230
1.0
 70
     8
 71
     3
 72
    15
 73
    11
 74
     0
 42
0.000000001
 43
0.0000000001
 40
0.0
 40
0.0
 40
0.0
 40
0.0
 40
0.1246819468
 40
0.2493922141
 40
0.3742031403
 40
0.4991330377000003
 40
0.6241948778000001
 40
0.7493820855
 40
0.8746592278000001
 40
1.0
 40
1.0
 40
1.0
 40
1.0
 10
45.16148639409997
 20
29.9576211632
 30
0.0
 10
45.10866782779999
 20
29.95761814099998
 30
0.0
 10
45.00273102220001
 20
29.94729936460002
 30
0.0
 10
44.8499983563
 20
29.90141213070005
 30
0.0
 10
44.70883624979999
 20
29.82686513630002
 30
0.0
 10
44.58458628549999
 20
29.72642430940002
 30
0.0
 10
44.48185476199998
 20
29.60385798830002
 30
0.0
 10
44.40448042579999
 20
29.46371581770004
 30
0.0
 10
44.35532979649999
 20
29.31130343320003
 30
0.0
 10
44.34260317389997
 20
29.20511902180001
 30
0.0
 10
44.34136927089997
 20
29.15203569840001
 30
0.0
  0
SPLINE
  5
885B7
330
1F
100
AcDbEntity
  8
1
100
AcDbSpline
210
0.0
220
0.0
230
1.0
 70
     8
 71
     3
 72
    11
 73
     7
 74
     0
 42
0.000000001
 43
0.0000000001
 40
0.0
 40
0.0
 40
0.0
 40
0.0
 40
0.2504891883
 40
0.5005834931999999
 40
0.7503857384
 40
1.0
 40
1.0
 40
1.0
 40
1.0
 10
43.522150627
 20
32.47715375549999
 30
0.0
 10
43.50804900349999
 20
32.50255956070001
 30
0.0
 10
43.47295642379996
 20
32.54983028570003
 30
0.0
 10
43.4037327531
 20
32.60423017420001
 30
0.0
 10
43.32275302790001
 20
32.63852866329997
 30
0.0
 10
43.2645261724
 20
32.6463264186
 30
0.0
 10
43.23557063959998
 20
32.64632849549999
 30
0.0
  0
SPLINE
  5
885B8
330
1F
100
AcDbEntity
  8
1
100
AcDbSpline
210
0.0
220
0.0
230
1.0
 70
     8
 71
     3
 72
    11
 73
     7
 74
     0
 42
0.000000001
 43
0.0000000001
 40
0.0
 40
0.0
 40
0.0
 40
0.0
 40
0.2493743244
 40
0.4991100527000001
 40
0.749360618
 40
1.0
 40
1.0
 40
1.0
 40
1.0
 10
44.0132666531
 20
28.82974692979999
 30
0.0
 10
44.05533286699998
 20
28.82974391259998
 30
0.0
 10
44.14042740720002
 20
28.84644039290002
 30
0.0
 10
44.24846413879999
 20
28.9178598036
 30
0.0
 10
44.32187171569998
 20
29.02478926650005
 30
0.0
 10
44.34038676179993
 20
29.10976750310002
 30
0.0
 10
44.34136927089997
 20
29.15203569840001
 30
0.0
  0
SPLINE
  5
885B9
330
1F
100
AcDbEntity
  8
1
100
AcDbSpline
210
0.0
220
0.0
230
1.0
 70
     8
 71
     3
 72
    11
 73
     7
 74
     0
 42
0.000000001
 43
0.0000000001
 40
0.0
 40
0.0
 40
0.0
 40
0.0
 40
0.2494313411
 40
0.4992627166000001
 40
0.7494790982
 40
1.0
 40
1.0
 40
1.0
 40
1.0
 10
43.91938932349995
 20
28.8436563512
 30
0.0
 10
43.95217900979996
 20
28.85354051160001
 30
0.0
 10
44.01510943349999
 20
28.88395629369997
 30
0.0
 10
44.09045911219999
 20
28.9564359885
 30
0.0
 10
44.13995709869996
 20
29.04868823270002
 30
0.0
 10
44.15241871519995
 20
29.11764834399998
 30
0.0
 10
44.15321803699995
 20
29.15203569840001
 30
0.0
  0
SPLINE
  5
885BA
330
1F
100
AcDbEntity
  8
1
100
AcDbSpline
210
0.0
220
0.0
230
1.0
 70
     8
 71
     3
 72
     9
 73
     5
 74
     0
 42
0.000000001
 43
0.0000000001
 40
0.0
 40
0.0
 40
0.0
 40
0.0
 40
0.4998171182
 40
1.0
 40
1.0
 40
1.0
 40
1.0
 10
43.0103584908
 20
29.42178693529998
 30
0.0
 10
42.94214012369997
 20
29.42178354060004
 30
0.0
 10
42.80510676529993
 20
29.4045289748
 30
0.0
 10
42.67672774819999
 20
29.35360114080001
 30
0.0
 10
42.61690019939999
 20
29.32071917470003
 30
0.0
  0
SPLINE
  5
885BB
330
1F
100
AcDbEntity
  8
1
100
AcDbSpline
210
0.0
220
0.0
230
1.0
 70
     8
 71
     3
 72
    27
 73
    23
 74
     0
 42
0.000000001
 43
0.0000000001
 40
0.0
 40
0.0
 40
0.0
 40
0.0
 40
0.0624431652
 40
0.0936762612
 40
0.1248974974
 40
0.1872325714
 40
0.2495441817
 40
0.2807372371000001
 40
0.3119342742
 40
0.3742764044
 40
0.4366677613000002
 40
0.4991219459
 40
0.5616430371
 40
0.6242249206000002
 40
0.6868522031000001
 40
0.7182135349
 40
0.7495774542
 40
0.8122254529
 40
0.8748457124999998
 40
0.9061758791999999
 40
0.9374899146
 40
1.0
 40
1.0
 40
1.0
 40
1.0
 10
42.00275045679996
 20
32.43166828900005
 30
0.0
 10
42.11275834479996
 20
32.53816555060004
 30
0.0
 10
42.29418019949997
 20
32.68220011930001
 30
0.0
 10
42.55976474299996
 20
32.83540883110001
 30
0.0
 10
42.83894068689995
 20
32.96176250329998
 30
0.0
 10
43.20907218970001
 20
33.06709142169999
 30
0.0
 10
43.59262957639995
 20
33.09764167250003
 30
0.0
 10
43.89811901189998
 20
33.07668018070003
 30
0.0
 10
44.20013204989999
 20
33.02576319509999
 30
0.0
 10
44.56622691130002
 20
32.90645132860002
 30
0.0
 10
44.96882157629997
 20
32.68002125259997
 30
0.0
 10
45.31980680589994
 20
32.37897339000003
 30
0.0
 10
45.60558503330002
 20
32.01486640940002
 30
0.0
 10
45.81522843680001
 20
31.60181930849998
 30
0.0
 10
45.91981819959997
 20
31.22966101360002
 30
0.0
 10
45.95895520159999
 20
30.92437095639999
 30
0.0
 10
45.96820226939994
 20
30.61666255510001
 30
0.0
 10
45.9233362384
 20
30.23260448089999
 30
0.0
 10
45.80467535569994
 20
29.86468375500002
 30
0.0
 10
45.6684921593
 20
29.58887222529997
 30
0.0
 10
45.50626659420004
 20
29.32796204460002
 30
0.0
 10
45.35621261909997
 20
29.15101853079998
 30
0.0
 10
45.24608683590003
 20
29.0444071363
 30
0.0
  0
SPLINE
  5
885BC
330
1F
100
AcDbEntity
  8
1
100
AcDbSpline
210
0.0
220
0.0
230
1.0
 70
     8
 71
     3
 72
     9
 73
     5
 74
     0
 42
0.000000001
 43
0.0000000001
 40
0.0
 40
0.0
 40
0.0
 40
0.0
 40
0.4998063396
 40
1.0
 40
1.0
 40
1.0
 40
1.0
 10
42.45949013209993
 20
29.28028713540001
 30
0.0
 10
42.48678150979995
 20
29.28028472930002
 30
0.0
 10
42.54160466919997
 20
29.28718935869998
 30
0.0
 10
42.59296461279999
 20
29.30756387810001
 30
0.0
 10
42.61690019939999
 20
29.32071917470003
 30
0.0
  0
SPLINE
  5
885BD
330
1F
100
AcDbEntity
  8
1
100
AcDbSpline
210
0.0
220
0.0
230
1.0
 70
     8
 71
     3
 72
     8
 73
     4
 74
     0
 42
0.000000001
 43
0.0000000001
 40
0.0
 40
0.0
 40
0.0
 40
0.0
 40
1.0
 40
1.0
 40
1.0
 40
1.0
 10
42.36520447689994
 20
29.2940718504
 30
0.0
 10
42.38720203869997
 20
29.30067948400002
 30
0.0
 10
42.40862027760002
 20
29.30965619710002
 30
0.0
 10
42.42874896549998
 20
29.32071917470003
 30
0.0
  0
SPLINE
  5
885BE
330
1F
100
AcDbEntity
  8
1
100
AcDbSpline
210
0.0
220
0.0
230
1.0
 70
     8
 71
     3
 72
     9
 73
     5
 74
     0
 42
0.000000001
 43
0.0000000001
 40
0.0
 40
0.0
 40
0.0
 40
0.0
 40
0.2522454042
 40
1.0
 40
1.0
 40
1.0
 40
1.0
 10
50.80000000000001
 20
36.77692169360002
 30
0.0
 10
50.79992950630003
 20
36.66923989780001
 30
0.0
 10
50.79883208010002
 20
36.24234789340003
 30
0.0
 10
50.79443019209998
 20
35.81546389400003
 30
0.0
 10
50.78921801449999
 20
35.4962951835
 30
0.0
  0
SPLINE
  5
885BF
330
1F
100
AcDbEntity
  8
1
100
AcDbSpline
210
0.0
220
0.0
230
1.0
 70
     8
 71
     3
 72
    15
 73
    11
 74
     0
 42
0.000000001
 43
0.0000000001
 40
0.0
 40
0.0
 40
0.0
 40
0.0
 40
0.1258915043
 40
0.25153708
 40
0.3767812244
 40
0.5015565909000001
 40
0.6260263322000002
 40
0.7504187433000002
 40
0.8749935881
 40
1.0
 40
1.0
 40
1.0
 40
1.0
 10
50.80000000000001
 20
36.77692169360002
 30
0.0
 10
50.80003289400004
 20
36.82716864200003
 30
0.0
 10
50.79064120839999
 20
36.92783232360002
 30
0.0
 10
50.7485063904
 20
37.07308384579997
 30
0.0
 10
50.68012708240003
 20
37.20753161299999
 30
0.0
 10
50.58800300579997
 20
37.32637251910003
 30
0.0
 10
50.47529402260005
 20
37.42540826220003
 30
0.0
 10
50.3458351059
 20
37.50113135170002
 30
0.0
 10
50.20413345879997
 20
37.5507760362
 30
0.0
 10
50.10483263240002
 20
37.56519523060003
 30
0.0
 10
50.05499772730003
 20
37.56761656400003
 30
0.0
  0
SPLINE
  5
885C0
330
1F
100
AcDbEntity
  8
1
100
AcDbSpline
210
0.0
220
0.0
230
1.0
 70
     8
 71
     3
 72
     9
 73
     5
 74
     0
 42
0.000000001
 43
0.0000000001
 40
0.0
 40
0.0
 40
0.0
 40
0.0
 40
0.2501268862
 40
1.0
 40
1.0
 40
1.0
 40
1.0
 10
48.77225716989997
 20
37.62913504650001
 30
0.0
 10
48.87920964470004
 20
37.62407244530002
 30
0.0
 10
49.30679934549996
 20
37.6037652803
 30
0.0
 10
49.73437653490003
 20
37.58319461739997
 30
0.0
 10
50.05499772730003
 20
37.56761656400003
 30
0.0
  0
SPLINE
  5
885C1
330
1F
100
AcDbEntity
  8
1
100
AcDbSpline
210
0.0
220
0.0
230
1.0
 70
     8
 71
     3
 72
     9
 73
     5
 74
     0
 42
0.000000001
 43
0.0000000001
 40
0.0
 40
0.0
 40
0.0
 40
0.0
 40
0.2480571321
 40
1.0
 40
1.0
 40
1.0
 40
1.0
 10
42.26836493450004
 20
37.76897276600004
 30
0.0
 10
42.80174751019996
 20
37.75761926630006
 30
0.0
 10
44.9519894348
 20
37.7119005795
 30
0.0
 10
47.10222235429998
 20
37.66575920790003
 30
0.0
 10
48.71907253299998
 20
37.6309653245
 30
0.0
  0
SPLINE
  5
885C2
330
1F
100
AcDbEntity
  8
1
100
AcDbSpline
210
0.0
220
0.0
230
1.0
 70
     8
 71
     3
 72
    11
 73
     7
 74
     0
 42
0.000000001
 43
0.0000000001
 40
0.0
 40
0.0
 40
0.0
 40
0.0
 40
0.1243910754
 40
0.2489587935
 40
0.4986673199000001
 40
1.0
 40
1.0
 40
1.0
 40
1.0
 10
40.94845491339995
 20
37.58023426489998
 30
0.0
 10
40.86172959499996
 20
37.53352344020001
 30
0.0
 10
40.68802370789994
 20
37.44028094799997
 30
0.0
 10
40.3403020937
 20
37.253118725
 30
0.0
 10
39.72985885279994
 20
36.92425732130004
 30
0.0
 10
39.20656041590003
 20
36.64162329889999
 30
0.0
 10
38.85735871569997
 20
36.45275926770003
 30
0.0
  0
LINE
  5
885C3
330
1F
100
AcDbEntity
  8
1
100
AcDbLine
 10
35.72015756760001
 20
34.74938703180001
 30
0.0
 11
35.28732553059999
 21
34.5134337588
 31
0.0
  0
SPLINE
  5
885C4
330
1F
100
AcDbEntity
  8
1
100
AcDbSpline
210
0.0
220
0.0
230
1.0
 70
     8
 71
     3
 72
     9
 73
     5
 74
     0
 42
0.000000001
 43
0.0000000001
 40
0.0
 40
0.0
 40
0.0
 40
0.0
 40
0.2497945285
 40
1.0
 40
1.0
 40
1.0
 40
1.0
 10
35.24100829879998
 20
34.48738858239997
 30
0.0
 10
35.14847293619997
 20
34.43374597239997
 30
0.0
 10
34.77838483620002
 20
34.21838243670001
 30
0.0
 10
34.40970563469998
 20
34.00059738040003
 30
0.0
 10
34.13394955500002
 20
33.835832506
 30
0.0
  0
SPLINE
  5
885C5
330
1F
100
AcDbEntity
  8
1
100
AcDbSpline
210
0.0
220
0.0
230
1.0
 70
     8
 71
     3
 72
     9
 73
     5
 74
     0
 42
0.000000001
 43
0.0000000001
 40
0.0
 40
0.0
 40
0.0
 40
0.0
 40
0.5004207099000002
 40
1.0
 40
1.0
 40
1.0
 40
1.0
 10
34.13394955500002
 20
33.835832506
 30
0.0
 10
34.09366247769998
 20
33.81176088729997
 30
0.0
 10
34.0173411868
 20
33.75627513290002
 30
0.0
 10
33.95225386750002
 20
33.6879637446
 30
0.0
 10
33.9231026306
 20
33.65128546230002
 30
0.0
  0
SPLINE
  5
885C6
330
1F
100
AcDbEntity
  8
1
100
AcDbSpline
210
0.0
220
0.0
230
1.0
 70
     8
 71
     3
 72
     9
 73
     5
 74
     0
 42
0.000000001
 43
0.0000000001
 40
0.0
 40
0.0
 40
0.0
 40
0.0
 40
0.2514597274
 40
1.0
 40
1.0
 40
1.0
 40
1.0
 10
33.88996050650002
 20
32.69285106110004
 30
0.0
 10
33.93478626289999
 20
32.60755772349997
 30
0.0
 10
34.11356019940001
 20
32.26863411889999
 30
0.0
 10
34.29439510689997
 20
31.93079742930005
 30
0.0
 10
34.43093356130004
 20
31.67855254610003
 30
0.0
  0
SPLINE
  5
885C7
330
1F
100
AcDbEntity
  8
1
100
AcDbSpline
210
0.0
220
0.0
230
1.0
 70
     8
 71
     3
 72
    16
 73
    12
 74
     0
 42
0.000000001
 43
0.0000000001
 40
0.0
 40
0.0
 40
0.0
 40
0.0
 40
0.0305942237
 40
0.0612295864
 40
0.1226736246
 40
0.1843234719
 40
0.2461644424
 40
0.3703771168
 40
0.4952395565
 40
0.7466560498999999
 40
1.0
 40
1.0
 40
1.0
 40
1.0
 10
50.31917510599999
 20
28.38084331929999
 30
0.0
 10
50.28803201510005
 20
28.32568988310002
 30
0.0
 10
50.22600855150002
 20
28.2151371734
 30
0.0
 10
50.10133613209998
 20
27.99387457259999
 30
0.0
 10
49.94498698319993
 20
27.71666273180005
 30
0.0
 10
49.75656084589999
 20
27.38337120000004
 30
0.0
 10
49.50381218040002
 20
26.93716618800002
 30
0.0
 10
49.18586996810001
 20
26.37748513800005
 30
0.0
 10
48.67268366750002
 20
25.4773367174
 30
0.0
 10
48.02469636569998
 20
24.34630890420002
 30
0.0
 10
47.5028871206
 20
23.44091579639998
 30
0.0
 10
47.24051562199997
 20
22.9867627536
 30
0.0
  0
SPLINE
  5
885C8
330
1F
100
AcDbEntity
  8
1
100
AcDbSpline
210
0.0
220
0.0
230
1.0
 70
     8
 71
     3
 72
    10
 73
     6
 74
     0
 42
0.000000001
 43
0.0000000001
 40
0.0
 40
0.0
 40
0.0
 40
0.0
 40
0.2504872163
 40
0.5017841586000003
 40
1.0
 40
1.0
 40
1.0
 40
1.0
 10
41.68320506699996
 20
37.7693312889
 30
0.0
 10
41.61930544969999
 20
37.76933043700005
 30
0.0
 10
41.49111406040001
 20
37.76102288450001
 30
0.0
 10
41.24031829829999
 20
37.7119019147
 30
0.0
 10
41.06035206659996
 20
37.64050280460001
 30
0.0
 10
40.94845491339995
 20
37.58023426489998
 30
0.0
  0
SPLINE
  5
885C9
330
1F
100
AcDbEntity
  8
1
100
AcDbSpline
210
0.0
220
0.0
230
1.0
 70
     8
 71
     3
 72
    19
 73
    15
 74
     0
 42
0.000000001
 43
0.0000000001
 40
0.0
 40
0.0
 40
0.0
 40
0.0
 40
0.1285455711
 40
0.1921981002
 40
0.2551404855
 40
0.286276158
 40
0.3171765377
 40
0.3788891721
 40
0.4406803446
 40
0.5025455446000004
 40
0.6264933959000001
 40
0.7507238236
 40
0.8752287154999999
 40
1.0
 40
1.0
 40
1.0
 40
1.0
 10
50.5258176265
 20
29.13501319749999
 30
0.0
 10
50.53046744970004
 20
29.40554226500003
 30
0.0
 10
50.53991563090001
 20
29.80999384820004
 30
0.0
 10
50.55753074440002
 20
30.34673953300004
 30
0.0
 10
50.57056524790005
 20
30.67848529810002
 30
0.0
 10
50.58216940770001
 20
30.94129050669997
 30
0.0
 10
50.59464403499996
 20
31.20146417509996
 30
0.0
 10
50.610219677
 20
31.52608811910003
 30
0.0
 10
50.62867125460002
 20
31.91582542400001
 30
0.0
 10
50.65309920330003
 20
32.4364221387
 30
0.0
 10
50.68322706959998
 20
33.0883211586
 30
0.0
 10
50.71872713810001
 20
33.87195939310001
 30
0.0
 10
50.75358572199997
 20
34.65736133660001
 30
0.0
 10
50.77637724939996
 20
35.18155490370001
 30
0.0
 10
50.78766282320003
 20
35.4439370295
 30
0.0
  0
SPLINE
  5
885CA
330
1F
100
AcDbEntity
  8
1
100
AcDbSpline
210
0.0
220
0.0
230
1.0
 70
     8
 71
     3
 72
     8
 73
     4
 74
     0
 42
0.000000001
 43
0.0000000001
 40
0.0
 40
0.0
 40
0.0
 40
0.0
 40
1.0
 40
1.0
 40
1.0
 40
1.0
 10
50.78921801449999
 20
35.4962951835
 30
0.0
 10
50.7889329155
 20
35.47883709599997
 30
0.0
 10
50.78841313650002
 20
35.46138131599999
 30
0.0
 10
50.78766282320003
 20
35.4439370295
 30
0.0
  0
SPLINE
  5
885CB
330
1F
100
AcDbEntity
  8
1
100
AcDbSpline
210
0.0
220
0.0
230
1.0
 70
     8
 71
     3
 72
     8
 73
     4
 74
     0
 42
0.000000001
 43
0.0000000001
 40
0.0
 40
0.0
 40
0.0
 40
0.0
 40
1.0
 40
1.0
 40
1.0
 40
1.0
 10
48.77225716989997
 20
37.62913504650001
 30
0.0
 10
48.75453830229996
 20
37.6299737701
 30
0.0
 10
48.73680713399997
 20
37.63058368390004
 30
0.0
 10
48.71907253299998
 20
37.6309653245
 30
0.0
  0
SPLINE
  5
885CC
330
1F
100
AcDbEntity
  8
1
100
AcDbSpline
210
0.0
220
0.0
230
1.0
 70
     8
 71
     3
 72
     8
 73
     4
 74
     0
 42
0.000000001
 43
0.0000000001
 40
0.0
 40
0.0
 40
0.0
 40
0.0
 40
1.0
 40
1.0
 40
1.0
 40
1.0
 10
47.21475337869998
 20
22.9434845625
 30
0.0
 10
47.22353089839995
 20
22.95779575220004
 30
0.0
 10
47.23211736549997
 20
22.97222575640003
 30
0.0
 10
47.24051562199997
 20
22.9867627536
 30
0.0
  0
SPLINE
  5
885CD
330
1F
100
AcDbEntity
  8
1
100
AcDbSpline
210
0.0
220
0.0
230
1.0
 70
     8
 71
     3
 72
     8
 73
     4
 74
     0
 42
0.000000001
 43
0.0000000001
 40
0.0
 40
0.0
 40
0.0
 40
0.0
 40
1.0
 40
1.0
 40
1.0
 40
1.0
 10
35.28732553059999
 20
34.5134337588
 30
0.0
 10
35.2717750045
 20
34.5049532752
 30
0.0
 10
35.25633228599998
 20
34.49627187460001
 30
0.0
 10
35.24100829879998
 20
34.48738858239997
 30
0.0
  0
SPLINE
  5
885CE
330
1F
100
AcDbEntity
  8
1
100
AcDbSpline
210
0.0
220
0.0
230
1.0
 70
     8
 71
     3
 72
    10
 73
     6
 74
     0
 42
0.000000001
 43
0.0000000001
 40
0.0
 40
0.0
 40
0.0
 40
0.0
 40
0.4914355096
 40
0.7454198756999999
 40
1.0
 40
1.0
 40
1.0
 40
1.0
 10
50.31917510599999
 20
28.38084331929999
 30
0.0
 10
50.38270270999999
 20
28.49334871160002
 30
0.0
 10
50.45801500459996
 20
28.67695730680001
 30
0.0
 10
50.51365458140003
 20
28.93434075680005
 30
0.0
 10
50.52466739199999
 20
29.06809197369997
 30
0.0
 10
50.5258176265
 20
29.13501319749999
 30
0.0
  0
SPLINE
  5
885CF
330
1F
100
AcDbEntity
  8
1
100
AcDbSpline
210
0.0
220
0.0
230
1.0
 70
     8
 71
     3
 72
    15
 73
    11
 74
     0
 42
0.000000001
 43
0.0000000001
 40
0.0
 40
0.0
 40
0.0
 40
0.0
 40
0.1307002462
 40
0.25793773
 40
0.3197276409
 40
0.3810751515999999
 40
0.5040831716
 40
0.6274884648
 40
0.7512817967000001
 40
1.0
 40
1.0
 40
1.0
 40
1.0
 10
41.50101659569995
 20
37.58023426489998
 30
0.0
 10
41.26749970019996
 20
37.44946225689997
 30
0.0
 10
40.80744629269998
 20
37.18996401380004
 30
0.0
 10
40.23913880629999
 20
36.86486004500004
 30
0.0
 10
39.79558600339999
 20
36.60770951730003
 30
0.0
 10
39.35972517030001
 20
36.35456089729999
 30
0.0
 10
38.81454946470001
 20
36.03840476600002
 30
0.0
 10
38.15861411519998
 20
35.65834366689998
 30
0.0
 10
37.27968811310001
 20
35.14966856959997
 30
0.0
 10
36.619210248
 20
34.76803367380004
 30
0.0
 10
36.17810188640002
 20
34.5134337588
 30
0.0
  0
SPLINE
  5
885D0
330
1F
100
AcDbEntity
  8
1
100
AcDbSpline
210
0.0
220
0.0
230
1.0
 70
     8
 71
     3
 72
     9
 73
     5
 74
     0
 42
0.000000001
 43
0.0000000001
 40
0.0
 40
0.0
 40
0.0
 40
0.0
 40
0.2535396194
 40
1.0
 40
1.0
 40
1.0
 40
1.0
 10
35.06150020720003
 20
33.835832506
 30
0.0
 10
35.15239291220002
 20
33.89052688659998
 30
0.0
 10
35.51067223599998
 20
34.10660837470004
 30
0.0
 10
35.86807527530002
 20
34.32414328970001
 30
0.0
 10
36.13433133040003
 20
34.48738858239997
 30
0.0
  0
SPLINE
  5
885D1
330
1F
100
AcDbEntity
  8
1
100
AcDbSpline
210
0.0
220
0.0
230
1.0
 70
     8
 71
     3
 72
    15
 73
    11
 74
     0
 42
0.000000001
 43
0.0000000001
 40
0.0
 40
0.0
 40
0.0
 40
0.0
 40
0.1239261435
 40
0.2482195959
 40
0.3727461054
 40
0.4974929253
 40
0.6225834159
 40
0.7480710372
 40
0.8739218478999999
 40
1.0
 40
1.0
 40
1.0
 40
1.0
 10
35.06150020720003
 20
33.835832506
 30
0.0
 10
35.01892451930002
 20
33.81021272849997
 30
0.0
 10
34.93836752060003
 20
33.7505575067
 30
0.0
 10
34.83666922340001
 20
33.63986442130001
 30
0.0
 10
34.75754060670005
 20
33.51160430270001
 30
0.0
 10
34.70396532150002
 20
33.37042575480003
 30
0.0
 10
34.67770908130001
 20
33.22134505850002
 30
0.0
 10
34.67966495659997
 20
33.06953473169997
 30
0.0
 10
34.70974121769998
 20
32.92037557840004
 30
0.0
 10
34.7479018766
 20
32.82610480450003
 30
0.0
 10
34.77113463879997
 20
32.78120717340001
 30
0.0
  0
SPLINE
  5
885D2
330
1F
100
AcDbEntity
  8
1
100
AcDbSpline
210
0.0
220
0.0
230
1.0
 70
     8
 71
     3
 72
     9
 73
     5
 74
     0
 42
0.000000001
 43
0.0000000001
 40
0.0
 40
0.0
 40
0.0
 40
0.0
 40
0.2465993856
 40
1.0
 40
1.0
 40
1.0
 40
1.0
 10
35.343718755
 20
31.64261617510002
 30
0.0
 10
35.29777043920001
 20
31.7367635323
 30
0.0
 10
35.11026951040003
 20
32.11797268860002
 30
0.0
 10
34.9182281903
 20
32.49694687040002
 30
0.0
 10
34.77113463879997
 20
32.78120717340001
 30
0.0
  0
SPLINE
  5
885D3
330
1F
100
AcDbEntity
  8
1
100
AcDbSpline
210
0.0
220
0.0
230
1.0
 70
     8
 71
     3
 72
     9
 73
     5
 74
     0
 42
0.000000001
 43
0.0000000001
 40
0.0
 40
0.0
 40
0.0
 40
0.0
 40
0.2469228849
 40
1.0
 40
1.0
 40
1.0
 40
1.0
 10
37.85877241000004
 20
26.7537179408
 30
0.0
 10
37.65585125159996
 20
27.15341638999998
 30
0.0
 10
36.83144770029996
 20
28.77081216310003
 30
0.0
 10
35.998058727
 20
30.38361739029998
 30
0.0
 10
35.3670173333
 20
31.59638505979998
 30
0.0
  0
SPLINE
  5
885D4
330
1F
100
AcDbEntity
  8
1
100
AcDbSpline
210
0.0
220
0.0
230
1.0
 70
     8
 71
     3
 72
     9
 73
     5
 74
     0
 42
0.000000001
 43
0.0000000001
 40
0.0
 40
0.0
 40
0.0
 40
0.0
 40
0.4993535376
 40
1.0
 40
1.0
 40
1.0
 40
1.0
 10
42.23467252749995
 20
37.76933139360003
 30
0.0
 10
42.10751714749997
 20
37.76933045720003
 30
0.0
 10
41.85172100879995
 20
37.73842817549998
 30
0.0
 10
41.61224716799995
 20
37.6425245984
 30
0.0
 10
41.50101659569995
 20
37.58023426489998
 30
0.0
  0
SPLINE
  5
885D5
330
1F
100
AcDbEntity
  8
1
100
AcDbSpline
210
0.0
220
0.0
230
1.0
 70
     8
 71
     3
 72
     8
 73
     4
 74
     0
 42
0.000000001
 43
0.0000000001
 40
0.0
 40
0.0
 40
0.0
 40
0.0
 40
1.0
 40
1.0
 40
1.0
 40
1.0
 10
35.343718755
 20
31.64261617510002
 30
0.0
 10
35.35128752560004
 20
31.62710788630003
 30
0.0
 10
35.35905191670003
 20
31.61169340540002
 30
0.0
 10
35.3670173333
 20
31.59638505979998
 30
0.0
  0
SPLINE
  5
885D6
330
1F
100
AcDbEntity
  8
1
100
AcDbSpline
210
0.0
220
0.0
230
1.0
 70
     8
 71
     3
 72
     8
 73
     4
 74
     0
 42
0.000000001
 43
0.0000000001
 40
0.0
 40
0.0
 40
0.0
 40
0.0
 40
1.0
 40
1.0
 40
1.0
 40
1.0
 10
36.13433133040003
 20
34.48738858239997
 30
0.0
 10
36.14880526940002
 20
34.49626275580001
 30
0.0
 10
36.16339760619999
 20
34.50494670930002
 30
0.0
 10
36.17810188640002
 20
34.5134337588
 30
0.0
  0
SPLINE
  5
885D7
330
1F
100
AcDbEntity
  8
1
100
AcDbSpline
210
0.0
220
0.0
230
1.0
 70
     8
 71
     3
 72
     9
 73
     5
 74
     0
 42
0.000000001
 43
0.0000000001
 40
0.0
 40
0.0
 40
0.0
 40
0.0
 40
0.5066268113
 40
1.0
 40
1.0
 40
1.0
 40
1.0
 10
45.10861800159998
 20
24.30913281259999
 30
0.0
 10
44.77100018539997
 20
24.51360656110003
 30
0.0
 10
44.08553619659993
 20
24.88644487709998
 30
0.0
 10
43.37099064490002
 20
25.19929118799999
 30
0.0
 10
43.01307488679995
 20
25.33945845349999
 30
0.0
  0
SPLINE
  5
885D8
330
1F
100
AcDbEntity
  8
1
100
AcDbSpline
210
0.0
220
0.0
230
1.0
 70
     8
 71
     3
 72
    21
 73
    17
 74
     0
 42
0.000000001
 43
0.0000000001
 40
0.0
 40
0.0
 40
0.0
 40
0.0
 40
0.0147889721
 40
0.0239611429
 40
0.0345305787
 40
0.060345545
 40
0.093052439
 40
0.1332099712
 40
0.181167821
 40
0.2370492693
 40
0.3007192473
 40
0.3717670258
 40
0.4495144389
 40
0.6213409875
 40
0.8076630155
 40
1.0
 40
1.0
 40
1.0
 40
1.0
 10
49.01307488679996
 20
21.27189802610006
 30
0.0
 10
49.01307488679996
 20
21.29654602939998
 30
0.0
 10
49.00418770730002
 20
21.3364058302
 30
0.0
 10
48.98232591970003
 20
21.38959183390003
 30
0.0
 10
48.9466821681
 20
21.4567991995
 30
0.0
 10
48.88075883619999
 20
21.55159833970001
 30
0.0
 10
48.77422171520001
 20
21.67708036529999
 30
0.0
 10
48.6335990257
 20
21.82138509579997
 30
0.0
 10
48.45761610390002
 20
21.98466610919998
 30
0.0
 10
48.24571071969995
 20
22.1665126915
 30
0.0
 10
47.99835857429999
 20
22.36588960650001
 30
0.0
 10
47.71713693479996
 20
22.58112608029998
 30
0.0
 10
47.28600148729995
 20
22.89687941849999
 30
0.0
 10
46.68818171709998
 20
23.30990945580002
 30
0.0
 10
45.91936648249998
 20
23.81072242430002
 30
0.0
 10
45.38280997160001
 20
24.14307208599999
 30
0.0
 10
45.10861800159998
 20
24.30913281259999
 30
0.0
  0
SPLINE
  5
885D9
330
1F
100
AcDbEntity
  8
1
100
AcDbSpline
210
0.0
220
0.0
230
1.0
 70
     8
 71
     3
 72
     9
 73
     5
 74
     0
 42
0.000000001
 43
0.0000000001
 40
0.0
 40
0.0
 40
0.0
 40
0.0
 40
0.2594899379
 40
1.0
 40
1.0
 40
1.0
 40
1.0
 10
38.64254005999999
 20
36.84757063940001
 30
0.0
 10
38.63135837330003
 20
36.85535532640002
 30
0.0
 10
38.5882552878
 20
36.8853378291
 30
0.0
 10
38.54507019560003
 20
36.91520338520004
 30
0.0
 10
38.51297464420003
 20
36.9371487608
 30
0.0
  0
SPLINE
  5
885DA
330
1F
100
AcDbEntity
  8
1
100
AcDbSpline
210
0.0
220
0.0
230
1.0
 70
     8
 71
     3
 72
    26
 73
    22
 74
     0
 42
0.000000001
 43
0.0000000001
 40
0.0
 40
0.0
 40
0.0
 40
0.0
 40
0.2186877844
 40
0.4153585052000003
 40
0.5045481861
 40
0.5872013713000001
 40
0.6630142864000002
 40
0.7317057758
 40
0.7930187860000001
 40
0.8467219051
 40
0.8926110590999998
 40
0.9305111505999999
 40
0.9464191300999999
 40
0.9602782159
 40
0.9720760176999998
 40
0.9818015800999999
 40
0.9894481713999999
 40
0.9950123860999999
 40
0.9985016163
 40
0.9994834751999999
 40
1.0
 40
1.0
 40
1.0
 40
1.0
 10
36.9538043272
 20
37.1668548085
 30
0.0
 10
36.8678595847
 20
37.1696720217
 30
0.0
 10
36.70464412670003
 20
37.17569879639999
 30
0.0
 10
36.50644979900003
 20
37.1846711483
 30
0.0
 10
36.36173762579998
 20
37.19213895099997
 30
0.0
 10
36.26450661540002
 20
37.1975557717
 30
0.0
 10
36.17534463249999
 20
37.20289330570003
 30
0.0
 10
36.09458026800002
 20
37.20807415220008
 30
0.0
 10
36.02251358159995
 20
37.21302454429999
 30
0.0
 10
35.95941432780001
 20
37.21767454089999
 30
0.0
 10
35.90552033909997
 20
37.2219610137
 30
0.0
 10
35.86646439389998
 20
37.22534922690002
 30
0.0
 10
35.8399753268
 20
37.2278630635
 30
0.0
 10
35.82371564490001
 20
37.22951349090004
 30
0.0
 10
35.80988374609999
 20
37.23103489790001
 30
0.0
 10
35.79850407229998
 20
37.23242346330002
 30
0.0
 10
35.78955398029999
 20
37.233665365
 30
0.0
 10
35.78311637430002
 20
37.2347635299
 30
0.0
 10
35.77919233270001
 20
37.23561461290004
 30
0.0
 10
35.77741118420005
 20
37.23628557590004
 30
0.0
 10
35.77685393199999
 20
37.2366290326
 30
0.0
 10
35.77678596980002
 20
37.23682042869999
 30
0.0
  0
SPLINE
  5
885DB
330
1F
100
AcDbEntity
  8
1
100
AcDbSpline
210
0.0
220
0.0
230
1.0
 70
     8
 71
     3
 72
    14
 73
    10
 74
     0
 42
0.000000001
 43
0.0000000001
 40
0.0
 40
0.0
 40
0.0
 40
0.0
 40
0.0621779964
 40
0.1411830409
 40
0.238633329
 40
0.3551359225
 40
0.4905334890999999
 40
0.6440525171
 40
1.0
 40
1.0
 40
1.0
 40
1.0
 10
38.51297464420003
 20
36.9371487608
 30
0.0
 10
38.48580719389997
 20
36.95572454090007
 30
0.0
 10
38.41865605700002
 20
36.98977976720001
 30
0.0
 10
38.29872050679995
 20
37.02999767720005
 30
0.0
 10
38.14750177210001
 20
37.06513529100004
 30
0.0
 10
37.96496311200002
 20
37.09515467110001
 30
0.0
 10
37.75178108240004
 20
37.12019061380003
 30
0.0
 10
37.41159224849997
 20
37.14855800260005
 30
0.0
 10
37.14210691320003
 20
37.16068227870002
 30
0.0
 10
36.9538043272
 20
37.1668548085
 30
0.0
  0
SPLINE
  5
885DC
330
1F
100
AcDbEntity
  8
1
100
AcDbSpline
210
0.0
220
0.0
230
1.0
 70
     8
 71
     3
 72
     9
 73
     5
 74
     0
 42
0.000000001
 43
0.0000000001
 40
0.0
 40
0.0
 40
0.0
 40
0.0
 40
0.243059806
 40
1.0
 40
1.0
 40
1.0
 40
1.0
 10
23.91540341059997
 20
29.8497195198
 30
0.0
 10
24.0386964919
 20
29.83126473870001
 30
0.0
 10
24.54584851240003
 20
29.7546562108
 30
0.0
 10
25.05261869449999
 20
29.67553017980004
 30
0.0
 10
25.4360378312
 20
29.61454764430002
 30
0.0
  0
SPLINE
  5
885DD
330
1F
100
AcDbEntity
  8
1
100
AcDbSpline
210
0.0
220
0.0
230
1.0
 70
     8
 71
     3
 72
    16
 73
    12
 74
     0
 42
0.000000001
 43
0.0000000001
 40
0.0
 40
0.0
 40
0.0
 40
0.0
 40
0.16372796
 40
0.3187822677
 40
0.4638917159000001
 40
0.5977658228000001
 40
0.7191243495000002
 40
0.8268598337
 40
0.8754142165000001
 40
0.9203951332999999
 40
1.0
 40
1.0
 40
1.0
 40
1.0
 10
23.91540341059997
 20
29.8497195198
 30
0.0
 10
23.76864174550002
 20
29.76025660090002
 30
0.0
 10
23.47871240789999
 20
29.5927871498
 30
0.0
 10
23.04441894889999
 20
29.37190232200001
 30
0.0
 10
22.62630340689998
 20
29.19002637720004
 30
0.0
 10
22.22974378219999
 20
29.04957636190003
 30
0.0
 10
21.8606069768
 20
28.95305670650003
 30
0.0
 10
21.57157210330002
 20
28.90946449489998
 30
0.0
 10
21.36015702409998
 20
28.90132842540002
 30
0.0
 10
21.17858348489997
 20
28.90984380700004
 30
0.0
 10
21.0484966567
 20
28.93514681640001
 30
0.0
 10
20.96991958059996
 20
28.96359483419999
 30
0.0
  0
SPLINE
  5
885DE
330
1F
100
AcDbEntity
  8
1
100
AcDbSpline
210
0.0
220
0.0
230
1.0
 70
     8
 71
     3
 72
     9
 73
     5
 74
     0
 42
0.000000001
 43
0.0000000001
 40
0.0
 40
0.0
 40
0.0
 40
0.0
 40
0.2385922423
 40
1.0
 40
1.0
 40
1.0
 40
1.0
 10
34.70910994469998
 20
34.78023574160002
 30
0.0
 10
34.74245560670005
 20
34.78501437280002
 30
0.0
 10
34.88258575589998
 20
34.80232950569998
 30
0.0
 10
35.02417579659999
 20
34.80818928970003
 30
0.0
 10
35.13164760070001
 20
34.80566173010001
 30
0.0
  0
SPLINE
  5
885DF
330
1F
100
AcDbEntity
  8
1
100
AcDbSpline
210
0.0
220
0.0
230
1.0
 70
     8
 71
     3
 72
    11
 73
     7
 74
     0
 42
0.000000001
 43
0.0000000001
 40
0.0
 40
0.0
 40
0.0
 40
0.0
 40
0.3070849831
 40
0.5763043117000001
 40
0.8064601868
 40
1.0
 40
1.0
 40
1.0
 40
1.0
 10
27.31204344090003
 20
29.23558998939999
 30
0.0
 10
27.12123441829999
 20
29.28016291890001
 30
0.0
 10
26.7624962914
 20
29.36107184570003
 30
0.0
 10
26.2587552965
 20
29.46628634300001
 30
0.0
 10
25.82447360869998
 20
29.54937576070003
 30
0.0
 10
25.55799949319999
 20
29.59514973050005
 30
0.0
 10
25.4360378312
 20
29.61454764430002
 30
0.0
  0
SPLINE
  5
885E0
330
1F
100
AcDbEntity
  8
1
100
AcDbSpline
210
0.0
220
0.0
230
1.0
 70
     8
 71
     3
 72
     8
 73
     4
 74
     0
 42
0.000000001
 43
0.0000000001
 40
0.0
 40
0.0
 40
0.0
 40
0.0
 40
1.0
 40
1.0
 40
1.0
 40
1.0
 10
35.16538596250001
 20
35.02243904730003
 30
0.0
 10
35.146333067
 20
35.01538260340002
 30
0.0
 10
35.12740245740002
 20
35.00798688239998
 30
0.0
 10
35.10861111290004
 20
35.00026084840001
 30
0.0
  0
SPLINE
  5
885E1
330
1F
100
AcDbEntity
  8
1
100
AcDbSpline
210
0.0
220
0.0
230
1.0
 70
     8
 71
     3
 72
    18
 73
    14
 74
     0
 42
0.000000001
 43
0.0000000001
 40
0.0
 40
0.0
 40
0.0
 40
0.0
 40
0.0152040862
 40
0.0392918303
 40
0.071970382
 40
0.1128425469
 40
0.1614173174
 40
0.2171201819
 40
0.3472560553
 40
0.4973749056
 40
0.6609039843
 40
0.8308432248
 40
1.0
 40
1.0
 40
1.0
 40
1.0
 10
35.79857592799999
 20
37.23890465310004
 30
0.0
 10
35.8161893999
 20
37.23921221870003
 30
0.0
 10
35.8617219464
 20
37.23861945349997
 30
0.0
 10
35.9450822064
 20
37.23666738919999
 30
0.0
 10
36.05816311529998
 20
37.23329314060001
 30
0.0
 10
36.19959349650003
 20
37.22888052959998
 30
0.0
 10
36.3676921622
 20
37.2237255446
 30
0.0
 10
36.63918449710003
 20
37.215995031
 30
0.0
 10
37.02834140840002
 20
37.20699539630004
 30
0.0
 10
37.5424966132
 20
37.20026946290003
 30
0.0
 10
38.10281837510004
 20
37.19969455259999
 30
0.0
 10
38.68515687459998
 20
37.20679300040004
 30
0.0
 10
39.07793322750001
 20
37.21689473360001
 30
0.0
 10
39.27382338400003
 20
37.22323881680003
 30
0.0
  0
LINE
  5
885E2
330
1F
100
AcDbEntity
  8
1
100
AcDbLine
 10
39.32618060340003
 20
26.4058938944
 30
0.0
 11
39.27382338400003
 21
26.41834798720001
 31
0.0
  0
LINE
  5
885E3
330
1F
100
AcDbEntity
  8
1
100
AcDbLine
 10
39.27382338400003
 20
37.22323881680003
 30
0.0
 11
39.32618060340003
 21
37.22451818710002
 31
0.0
  0
LINE
  5
885E4
330
1F
100
AcDbEntity
  8
1
100
AcDbLine
 10
40.23527616540002
 20
37.2484027124
 30
0.0
 11
40.3311200295
 21
37.24814306859999
 31
0.0
  0
SPLINE
  5
885E5
330
1F
100
AcDbEntity
  8
1
100
AcDbSpline
210
0.0
220
0.0
230
1.0
 70
     8
 71
     3
 72
     9
 73
     5
 74
     0
 42
0.000000001
 43
0.0000000001
 40
0.0
 40
0.0
 40
0.0
 40
0.0
 40
0.2473753013
 40
1.0
 40
1.0
 40
1.0
 40
1.0
 10
43.01307488679995
 20
25.33945845349999
 30
0.0
 10
42.8141454233
 20
25.4173633746
 30
0.0
 10
42.00476100669999
 20
25.71874599169998
 30
0.0
 10
41.17460465559998
 20
25.96465744480002
 30
0.0
 10
40.54239322289999
 20
26.1156289747
 30
0.0
  0
SPLINE
  5
885E6
330
1F
100
AcDbEntity
  8
1
100
AcDbSpline
210
0.0
220
0.0
230
1.0
 70
     8
 71
     3
 72
     9
 73
     5
 74
     0
 42
0.000000001
 43
0.0000000001
 40
0.0
 40
0.0
 40
0.0
 40
0.0
 40
0.2606030761
 40
1.0
 40
1.0
 40
1.0
 40
1.0
 10
39.32618060340003
 20
37.22451818710002
 30
0.0
 10
39.39184700159998
 20
37.22560073450003
 30
0.0
 10
39.64381619060004
 20
37.23031440360003
 30
0.0
 10
39.89574448189998
 20
37.23716243750004
 30
0.0
 10
40.08198014510003
 20
37.2433226381
 30
0.0
  0
LINE
  5
885E7
330
1F
100
AcDbEntity
  8
1
100
AcDbLine
 10
40.08198014510003
 20
37.2433226381
 30
0.0
 11
40.23527616540002
 21
37.2484027124
 31
0.0
  0
SPLINE
  5
885E8
330
1F
100
AcDbEntity
  8
1
100
AcDbSpline
210
0.0
220
0.0
230
1.0
 70
     8
 71
     3
 72
     9
 73
     5
 74
     0
 42
0.000000001
 43
0.0000000001
 40
0.0
 40
0.0
 40
0.0
 40
0.0
 40
0.2509568042
 40
1.0
 40
1.0
 40
1.0
 40
1.0
 10
37.2952390218
 20
26.94821791640001
 30
0.0
 10
37.20906210689998
 20
27.10349553700004
 30
0.0
 10
36.86711779900003
 20
27.72304120999999
 30
0.0
 10
36.53070328619995
 20
28.34563792910003
 30
0.0
 10
36.28178739580003
 20
28.81361317460001
 30
0.0
  0
SPLINE
  5
885E9
330
1F
100
AcDbEntity
  8
1
100
AcDbSpline
210
0.0
220
0.0
230
1.0
 70
     8
 71
     3
 72
     8
 73
     4
 74
     0
 42
0.000000001
 43
0.0000000001
 40
0.0
 40
0.0
 40
0.0
 40
0.0
 40
1.0
 40
1.0
 40
1.0
 40
1.0
 10
37.2803429768
 20
26.89068573850003
 30
0.0
 10
37.28498063889996
 20
26.9099450002
 30
0.0
 10
37.289947375
 20
26.92912798329999
 30
0.0
 10
37.2952390218
 20
26.94821791640001
 30
0.0
  0
SPLINE
  5
885EA
330
1F
100
AcDbEntity
  8
1
100
AcDbSpline
210
0.0
220
0.0
230
1.0
 70
     8
 71
     3
 72
    21
 73
    17
 74
     0
 42
0.000000001
 43
0.0000000001
 40
0.0
 40
0.0
 40
0.0
 40
0.0
 40
0.0617225681
 40
0.1235142337
 40
0.1854251221
 40
0.2474933096
 40
0.3097445347
 40
0.372188157
 40
0.4348182185000001
 40
0.4976146646000001
 40
0.6232486398
 40
0.7490225215000002
 40
0.8119853942
 40
0.8748265278999999
 40
0.9375070352999999
 40
1.0
 40
1.0
 40
1.0
 40
1.0
 10
34.95710587020003
 20
31.30408560300001
 30
0.0
 10
34.87119605469999
 20
31.34551725690002
 30
0.0
 10
34.70526551649996
 20
31.44152843910003
 30
0.0
 10
34.48047810090003
 20
31.62082315360001
 30
0.0
 10
34.28417899429997
 20
31.83172757939999
 30
0.0
 10
34.12037083189999
 20
32.06956666689998
 30
0.0
 10
33.99226414629999
 20
32.32930195010002
 30
0.0
 10
33.90245191549997
 20
32.6055143532
 30
0.0
 10
33.85256342190003
 20
32.89253787130004
 30
0.0
 10
33.8406514815
 20
33.28139792869998
 30
0.0
 10
33.92892011719997
 20
33.76580644190003
 30
0.0
 10
34.14881311779999
 20
34.20675341360001
 30
0.0
 10
34.39256415680001
 20
34.5110258699
 30
0.0
 10
34.60598534910003
 20
34.71078034299998
 30
0.0
 10
34.84527810919999
 20
34.87724936119999
 30
0.0
 10
35.01921394800002
 20
34.96374051540001
 30
0.0
 10
35.10861111290004
 20
35.00026084840001
 30
0.0
  0
SPLINE
  5
885EB
330
1F
100
AcDbEntity
  8
1
100
AcDbSpline
210
0.0
220
0.0
230
1.0
 70
     8
 71
     3
 72
     8
 73
     4
 74
     0
 42
0.000000001
 43
0.0000000001
 40
0.0
 40
0.0
 40
0.0
 40
0.0
 40
1.0
 40
1.0
 40
1.0
 40
1.0
 10
37.33173465840002
 20
27.48652740300002
 30
0.0
 10
37.25744201109999
 20
27.41533508530002
 30
0.0
 10
37.18782890900004
 20
27.33894602810003
 30
0.0
 10
37.12361603840003
 20
27.25854421970004
 30
0.0
  0
SPLINE
  5
885EC
330
1F
100
AcDbEntity
  8
1
100
AcDbSpline
210
0.0
220
0.0
230
1.0
 70
     8
 71
     3
 72
     9
 73
     5
 74
     0
 42
0.000000001
 43
0.0000000001
 40
0.0
 40
0.0
 40
0.0
 40
0.0
 40
0.2558746683
 40
1.0
 40
1.0
 40
1.0
 40
1.0
 10
35.13164760070001
 20
34.80566173010001
 30
0.0
 10
35.1560477258
 20
34.80508787940002
 30
0.0
 10
35.25137683430003
 20
34.80166796620004
 30
0.0
 10
35.34653696769999
 20
34.79370265310004
 30
0.0
 10
35.41702204450003
 20
34.78534222930005
 30
0.0
  0
SPLINE
  5
885ED
330
1F
100
AcDbEntity
  8
1
100
AcDbSpline
210
0.0
220
0.0
230
1.0
 70
     8
 71
     3
 72
     9
 73
     5
 74
     0
 42
0.000000001
 43
0.0000000001
 40
0.0
 40
0.0
 40
0.0
 40
0.0
 40
0.2536272765
 40
1.0
 40
1.0
 40
1.0
 40
1.0
 10
34.56856831930004
 20
34.67041187140003
 30
0.0
 10
34.60736757490002
 20
34.67296293540002
 30
0.0
 10
34.76052592080004
 20
34.6800625337
 30
0.0
 10
34.9142164118
 20
34.67556100890001
 30
0.0
 10
35.0282180122
 20
34.66572965610001
 30
0.0
  0
SPLINE
  5
885EE
330
1F
100
AcDbEntity
  8
1
100
AcDbSpline
210
0.0
220
0.0
230
1.0
 70
     8
 71
     3
 72
     9
 73
     5
 74
     0
 42
0.000000001
 43
0.0000000001
 40
0.0
 40
0.0
 40
0.0
 40
0.0
 40
0.2496181561
 40
1.0
 40
1.0
 40
1.0
 40
1.0
 10
35.03528135610003
 20
31.15698555259998
 30
0.0
 10
35.0499391349
 20
31.15193557739999
 30
0.0
 10
35.10891427349998
 20
31.13245079130005
 30
0.0
 10
35.16888211930002
 20
31.1159696644
 30
0.0
 10
35.21426076449998
 20
31.10534957960002
 30
0.0
  0
SPLINE
  5
885EF
330
1F
100
AcDbEntity
  8
1
100
AcDbSpline
210
0.0
220
0.0
230
1.0
 70
     8
 71
     3
 72
     9
 73
     5
 74
     0
 42
0.000000001
 43
0.0000000001
 40
0.0
 40
0.0
 40
0.0
 40
0.0
 40
0.5435085839
 40
1.0
 40
1.0
 40
1.0
 40
1.0
 10
39.00544450220002
 20
36.19322016100003
 30
0.0
 10
38.99384287779998
 20
36.21457675410002
 30
0.0
 10
38.9737319294
 20
36.25456080970007
 30
0.0
 10
38.9568337696
 20
36.29604283950004
 30
0.0
 10
38.95021530529999
 20
36.31535328290004
 30
0.0
  0
SPLINE
  5
885F0
330
1F
100
AcDbEntity
  8
1
100
AcDbSpline
210
0.0
220
0.0
230
1.0
 70
     8
 71
     3
 72
     9
 73
     5
 74
     0
 42
0.000000001
 43
0.0000000001
 40
0.0
 40
0.0
 40
0.0
 40
0.0
 40
0.2475436299
 40
1.0
 40
1.0
 40
1.0
 40
1.0
 10
38.95021530529999
 20
36.31535328290004
 30
0.0
 10
38.92063418240002
 20
36.35661644060004
 30
0.0
 10
38.80520943399998
 20
36.52619318200001
 30
0.0
 10
38.70649145990001
 20
36.70711644910003
 30
0.0
 10
38.64254005999999
 20
36.84757063940001
 30
0.0
  0
SPLINE
  5
885F1
330
1F
100
AcDbEntity
  8
1
100
AcDbSpline
210
0.0
220
0.0
230
1.0
 70
     8
 71
     3
 72
     8
 73
     4
 74
     0
 42
0.000000001
 43
0.0000000001
 40
0.0
 40
0.0
 40
0.0
 40
0.0
 40
1.0
 40
1.0
 40
1.0
 40
1.0
 10
35.18511527610003
 20
34.80422949369997
 30
0.0
 10
35.13216454860003
 20
34.758811753
 30
0.0
 10
35.07984133779996
 20
34.71265068520003
 30
0.0
 10
35.0282180122
 20
34.66572965610001
 30
0.0
  0
LINE
  5
885F2
330
1F
100
AcDbEntity
  8
1
100
AcDbLine
 10
40.23527616540002
 20
37.2484027124
 30
0.0
 11
40.25494333289993
 21
37.2070954817
 31
0.0
  0
SPLINE
  5
885F3
330
1F
100
AcDbEntity
  8
1
100
AcDbSpline
210
0.0
220
0.0
230
1.0
 70
     8
 71
     3
 72
    11
 73
     7
 74
     0
 42
0.000000001
 43
0.0000000001
 40
0.0
 40
0.0
 40
0.0
 40
0.0
 40
0.0621192757
 40
0.245899114
 40
0.5583370065
 40
1.0
 40
1.0
 40
1.0
 40
1.0
 10
35.77678596980002
 20
37.23682042869999
 30
0.0
 10
35.77663293439997
 20
37.23725140960003
 30
0.0
 10
35.77935645930003
 20
37.23799692960002
 30
0.0
 10
35.78250723470001
 20
37.23823676209999
 30
0.0
 10
35.78995889889998
 20
37.23875616780001
 30
0.0
 10
35.79532473860002
 20
37.23884788099999
 30
0.0
 10
35.79857592799999
 20
37.23890465310004
 30
0.0
  0
SPLINE
  5
885F4
330
1F
100
AcDbEntity
  8
1
100
AcDbSpline
210
0.0
220
0.0
230
1.0
 70
     8
 71
     3
 72
    24
 73
    20
 74
     0
 42
0.000000001
 43
0.0000000001
 40
0.0
 40
0.0
 40
0.0
 40
0.0
 40
0.0334732585
 40
0.0491395286
 40
0.0645657506
 40
0.0801880947
 40
0.0964387134
 40
0.1137008964
 40
0.1322778154
 40
0.1741439987
 40
0.2230473736
 40
0.2790777599
 40
0.3418310854
 40
0.4106573471
 40
0.4847919256
 40
0.5634627208
 40
0.6459133951
 40
0.8193638501
 40
1.0
 40
1.0
 40
1.0
 40
1.0
 10
20.96991958059996
 20
28.96359483419999
 30
0.0
 10
20.91010087230001
 20
28.98525157890001
 30
0.0
 10
20.82509529150002
 20
29.02829216849998
 30
0.0
 10
20.73306605380003
 20
29.11029217560005
 30
0.0
 10
20.6781670309
 20
29.18072303800002
 30
0.0
 10
20.63657071789996
 20
29.26096477780001
 30
0.0
 10
20.60860073559999
 20
29.35052217170002
 30
0.0
 10
20.59432762479994
 20
29.4488545935
 30
0.0
 10
20.59336308019997
 20
29.59692289380003
 30
0.0
 10
20.62963213730001
 20
29.80314672440002
 30
0.0
 10
20.72194348740004
 20
30.06720874110003
 30
0.0
 10
20.86150575290003
 20
30.35434203460003
 30
0.0
 10
21.04447227740002
 20
30.66075168380005
 30
0.0
 10
21.26657863220004
 20
30.98277710790004
 30
0.0
 10
21.52326404740003
 20
31.31694206780001
 30
0.0
 10
21.81009221930003
 20
31.66007485910004
 30
0.0
 10
22.23430132990003
 20
32.13389904319998
 30
0.0
 10
22.81408317899999
 20
32.72789458330001
 30
0.0
 10
23.30434207740001
 20
33.1891620286
 30
0.0
 10
23.55856018869997
 20
33.41989190150004
 30
0.0
  0
SPLINE
  5
885F5
330
1F
100
AcDbEntity
  8
1
100
AcDbSpline
210
0.0
220
0.0
230
1.0
 70
     8
 71
     3
 72
     9
 73
     5
 74
     0
 42
0.000000001
 43
0.0000000001
 40
0.0
 40
0.0
 40
0.0
 40
0.0
 40
0.2510396219
 40
1.0
 40
1.0
 40
1.0
 40
1.0
 10
40.08198283760004
 20
37.24332082029999
 30
0.0
 10
40.07821853450002
 20
37.23027762839997
 30
0.0
 10
40.06301302859995
 20
37.17838196729999
 30
0.0
 10
40.04696457149997
 20
37.1267331342
 30
0.0
 10
40.03446668259996
 20
37.08820795139999
 30
0.0
  0
SPLINE
  5
885F6
330
1F
100
AcDbEntity
  8
1
100
AcDbSpline
210
0.0
220
0.0
230
1.0
 70
     8
 71
     3
 72
     8
 73
     4
 74
     0
 42
0.000000001
 43
0.0000000001
 40
0.0
 40
0.0
 40
0.0
 40
0.0
 40
1.0
 40
1.0
 40
1.0
 40
1.0
 10
23.55856018869997
 20
33.41989190150004
 30
0.0
 10
24.18330630050002
 20
33.98691519579998
 30
0.0
 10
24.8091812959
 20
34.55269657470006
 30
0.0
 10
25.4360378312
 20
35.11738587390001
 30
0.0
  0
SPLINE
  5
885F7
330
1F
100
AcDbEntity
  8
1
100
AcDbSpline
210
0.0
220
0.0
230
1.0
 70
     8
 71
     3
 72
     9
 73
     5
 74
     0
 42
0.000000001
 43
0.0000000001
 40
0.0
 40
0.0
 40
0.0
 40
0.0
 40
0.2689465827
 40
1.0
 40
1.0
 40
1.0
 40
1.0
 10
35.0282180122
 20
34.66572965610001
 30
0.0
 10
34.99362919219999
 20
34.67503333790002
 30
0.0
 10
34.86400065270002
 20
34.70571781890001
 30
0.0
 10
34.73077946109999
 20
34.72121106599999
 30
0.0
 10
34.63344736729999
 20
34.72360232310003
 30
0.0
  0
SPLINE
  5
885F8
330
1F
100
AcDbEntity
  8
1
100
AcDbSpline
210
0.0
220
0.0
230
1.0
 70
     8
 71
     3
 72
    11
 73
     7
 74
     0
 42
0.000000001
 43
0.0000000001
 40
0.0
 40
0.0
 40
0.0
 40
0.0
 40
0.2488769283
 40
0.4975329244
 40
0.7474298843000004
 40
1.0
 40
1.0
 40
1.0
 40
1.0
 10
36.18886195870003
 20
35.07119570120003
 30
0.0
 10
36.10545307310002
 20
35.093235372
 30
0.0
 10
35.935119149
 20
35.12482991810003
 30
0.0
 10
35.6751711345
 20
35.13292450680006
 30
0.0
 10
35.41577261240002
 20
35.10084955760002
 30
0.0
 10
35.24748783310002
 20
35.05284635470005
 30
0.0
 10
35.16538596250001
 20
35.02243904730003
 30
0.0
  0
SPLINE
  5
885F9
330
1F
100
AcDbEntity
  8
1
100
AcDbSpline
210
0.0
220
0.0
230
1.0
 70
     8
 71
     3
 72
    11
 73
     7
 74
     0
 42
0.000000001
 43
0.0000000001
 40
0.0
 40
0.0
 40
0.0
 40
0.0
 40
0.2512857035
 40
0.5017493982
 40
0.7513145224
 40
1.0
 40
1.0
 40
1.0
 40
1.0
 10
25.4360378312
 20
35.11738587390001
 30
0.0
 10
25.5652609325
 20
35.23379353410001
 30
0.0
 10
25.84261202200003
 20
35.44577024489998
 30
0.0
 10
26.30375125670003
 20
35.69101295959998
 30
0.0
 10
26.79746607620002
 20
35.85601897430005
 30
0.0
 10
27.14029324809999
 20
35.90875299749998
 30
0.0
 10
27.31204344090003
 20
35.92008621239997
 30
0.0
  0
SPLINE
  5
885FA
330
1F
100
AcDbEntity
  8
1
100
AcDbSpline
210
0.0
220
0.0
230
1.0
 70
     8
 71
     3
 72
     9
 73
     5
 74
     0
 42
0.000000001
 43
0.0000000001
 40
0.0
 40
0.0
 40
0.0
 40
0.0
 40
0.2546722461
 40
1.0
 40
1.0
 40
1.0
 40
1.0
 10
34.0508512765
 20
33.77843404790004
 30
0.0
 10
34.04523829440001
 20
33.7837987476
 30
0.0
 10
34.0233031061
 20
33.80497313240002
 30
0.0
 10
34.00179439570003
 20
33.82659043200001
 30
0.0
 10
33.98604064389997
 20
33.84296632750004
 30
0.0
  0
SPLINE
  5
885FB
330
1F
100
AcDbEntity
  8
1
100
AcDbSpline
210
0.0
220
0.0
230
1.0
 70
     8
 71
     3
 72
     9
 73
     5
 74
     0
 42
0.000000001
 43
0.0000000001
 40
0.0
 40
0.0
 40
0.0
 40
0.0
 40
0.2662662114
 40
1.0
 40
1.0
 40
1.0
 40
1.0
 10
34.52838025810001
 20
34.07025912060002
 30
0.0
 10
34.49881291400004
 20
34.08645141680003
 30
0.0
 10
34.3870870774
 20
34.14598673640004
 30
0.0
 10
34.27250099830002
 20
34.20033838119999
 30
0.0
 10
34.18658915010002
 20
34.2356739829
 30
0.0
  0
ELLIPSE
  5
885FC
330
1F
100
AcDbEntity
  8
1
100
AcDbEllipse
 10
149.1834554526
 20
-2.718233808099995
 30
0.0
 11
155.9690713654999
 21
-39.1643409654
 31
0.0
210
0.0
220
0.0
230
1.0
 40
0.0131159439
 41
2.356068594300016
 42
2.47096016039999
  0
ELLIPSE
  5
885FD
330
1F
100
AcDbEntity
  8
1
100
AcDbEllipse
 10
138.3562230993
 20
0.0000222552000366
 30
0.0
 11
148.3411397722
 21
-37.24897553010003
 31
0.0
210
0.0
220
0.0
230
1.0
 40
0.0131476604
 41
2.294092564599974
 42
2.305050750499995
  0
ELLIPSE
  5
885FE
330
1F
100
AcDbEntity
  8
1
100
AcDbEllipse
 10
47.38644871999993
 20
0.0551558287000091
 30
0.0
 11
64.8319285069
 21
2.7284554872
 31
0.0
210
0.0
220
0.0
230
1.0
 40
0.5757114083000002
 41
1.681814958199999
 42
1.739102756999998
  0
ELLIPSE
  5
885FF
330
1F
100
AcDbEntity
  8
1
100
AcDbEllipse
 10
77.68377191349998
 20
0.2935272036999947
 30
0.0
 11
198.5157751405005
 21
3.336275950900007
 31
0.0
210
0.0
220
0.0
230
1.0
 40
0.1897341249
 41
1.784428477199999
 42
1.8241529098
  0
ELLIPSE
  5
88600
330
1F
100
AcDbEntity
  8
1
100
AcDbEllipse
 10
38.77250257029999
 20
34.49037547310005
 30
0.0
 11
2.290270677599997
 21
-0.5191456327000003
 31
0.0
210
0.0
220
0.0
230
1.0
 40
0.0703275822
 41
3.236831654079781
 42
3.623163973979991
  0
ELLIPSE
  5
88601
330
1F
100
AcDbEntity
  8
1
100
AcDbEllipse
 10
30.71475951189999
 20
29.83402689070004
 30
0.0
 11
14.1804563124
 21
8.747853867099999
 31
0.0
210
0.0
220
0.0
230
1.0
 40
0.0916604116
 41
0.8957857475999867
 42
1.095628728599993
  0
LINE
  5
88602
330
1F
100
AcDbEntity
  8
sk3
100
AcDbLine
 10
0.9999999754999747
 20
-4.762477744799952
 30
0.0
 11
0.9999999754999747
 21
-13.19999999890001
 31
0.0
  0
LINE
  5
88603
330
1F
100
AcDbEntity
  8
sk3
100
AcDbLine
 10
4.0
 20
-4.762477744799952
 30
0.0
 11
4.0
 21
-13.19999999890001
 31
0.0
  0
LINE
  5
88604
330
1F
100
AcDbEntity
  8
sk3
100
AcDbLine
 10
0.9999999754999747
 20
-13.19999999890001
 30
0.0
 11
0.0
 21
-14.19999997259998
 31
0.0
  0
LINE
  5
88605
330
1F
100
AcDbEntity
  8
sk3
100
AcDbLine
 10
12.92774653969997
 20
-12.69999999890001
 30
0.0
 11
12.92774653969997
 21
0.0
 31
0.0
  0
LINE
  5
88606
330
1F
100
AcDbEntity
  8
sk3
100
AcDbLine
 10
24.40000000000003
 20
-6.849999998899987
 30
0.0
 11
31.4999999195
 21
-6.849999998899987
 31
0.0
  0
LINE
  5
88607
330
1F
100
AcDbEntity
  8
sk3
100
AcDbLine
 10
32.40000000000004
 20
-9.999999998899994
 30
0.0
 11
44.01307488679996
 21
-9.999999998899994
 31
0.0
  0
LINE
  5
88608
102
{ACAD_REACTORS
330
88627
102
}
330
1F
100
AcDbEntity
  8
sk3
100
AcDbLine
 10
4.0
 20
-12.69999999890001
 30
0.0
 11
12.92774653969997
 21
-12.69999999890001
 31
0.0
  0
LINE
  5
88609
330
1F
100
AcDbEntity
  8
sk3
100
AcDbLine
 10
0.9999999754999747
 20
-13.19999999890001
 30
0.0
 11
4.0
 21
-13.19999999890001
 31
0.0
  0
LINE
  5
8860A
330
1F
100
AcDbEntity
  8
sk3
100
AcDbLine
 10
14.17735573009994
 20
-13.19999999890001
 30
0.0
 11
23.19999999999999
 21
-13.19999999890001
 31
0.0
  0
LINE
  5
8860B
102
{ACAD_REACTORS
330
88621
102
}
330
1F
100
AcDbEntity
  8
sk3
100
AcDbLine
 10
24.0
 20
0.0
 30
0.0
 11
24.0
 21
-12.3999999989
 31
0.0
  0
LINE
  5
8860C
330
1F
100
AcDbEntity
  8
sk3
100
AcDbLine
 10
12.92774653969997
 20
-12.69999999890001
 30
0.0
 11
13.83926112070003
 21
-13.12504622849999
 31
0.0
  0
LINE
  5
8860D
330
1F
100
AcDbEntity
  8
sk3
100
AcDbLine
 10
31.4999999195
 20
-6.849999998899987
 30
0.0
 11
31.4999999195
 21
0.0
 31
0.0
  0
LINE
  5
8860E
330
1F
100
AcDbEntity
  8
sk3
100
AcDbLine
 10
32.0
 20
0.0
 30
0.0
 11
32.0
 21
-9.599999998899987
 31
0.0
  0
LINE
  5
8860F
330
1F
100
AcDbEntity
  8
sk3
100
AcDbLine
 10
31.4999999195
 20
-6.849999998899987
 30
0.0
 11
32.0
 21
-7.350000085299996
 31
0.0
  0
LINE
  5
88610
330
1F
100
AcDbEntity
  8
sk3
100
AcDbLine
 10
44.46450064589996
 20
-21.75861742039999
 30
0.0
 11
48.86259963369997
 21
-28.84098429340001
 31
0.0
  0
LINE
  5
88611
330
1F
100
AcDbEntity
  8
sk3
100
AcDbLine
 10
44.01307488679996
 20
0.0
 30
0.0
 11
44.01307488679996
 21
-20.17597111160001
 31
0.0
  0
ARC
  5
88612
330
1F
100
AcDbEntity
  8
sk3
100
AcDbCircle
 10
47.01307488679995
 20
-20.17597111160001
 30
0.0
 40
3.0
100
AcDbArc
 50
180.0
 51
211.8399841867001
  0
ARC
  5
88613
330
1F
100
AcDbEntity
  8
sk3
100
AcDbCircle
 10
48.0130748868
 20
-29.368533063
 30
0.0
 40
1.0
100
AcDbArc
 50
0.0
 51
31.83998418670012
  0
ARC
  5
88614
330
1F
100
AcDbEntity
  8
sk3
100
AcDbCircle
 10
23.19999999999999
 20
-12.3999999989
 30
0.0
 40
0.8
100
AcDbArc
 50
270.0
 51
0.0
  0
ARC
  5
88615
330
1F
100
AcDbEntity
  8
sk3
100
AcDbCircle
 10
14.17735573009994
 20
-12.3999999989
 30
0.0
 40
0.8
100
AcDbArc
 50
245.0000000000003
 51
270.0
  0
ARC
  5
88616
330
1F
100
AcDbEntity
  8
sk3
100
AcDbCircle
 10
32.40000000000004
 20
-9.599999998899987
 30
0.0
 40
0.4
100
AcDbArc
 50
180.0
 51
270.0
  0
ARC
  5
88617
330
1F
100
AcDbEntity
  8
sk3
100
AcDbCircle
 10
24.40000000000003
 20
-7.249999998899992
 30
0.0
 40
0.4
100
AcDbArc
 50
90.0
 51
180.0
  0
DIMENSION
  5
88618
102
{ACAD_XDICTIONARY
360
88619
102
}
102
{ACAD_REACTORS
330
8861A
102
}
330
1F
100
AcDbEntity
  8
2
100
AcDbDimension
  2
*D1944
 10
50.80000000000007
 20
69.8351448400974
 30
0.0
 11
25.66273903550535
 21
69.8351448400974
 31
0.0
 70
   160
 71
     5
 42
50.8
  3
コピー - ISO-25
100
AcDbAlignedDimension
 13
0.0
 23
26.28149999889998
 33
0.0
 14
50.80000000000007
 24
37.2999999989
 34
0.0
 50
0.0
100
AcDbRotatedDimension
1001
ACAD
1000
DSTYLE
1002
{
1070
   170
1070
     1
1070
   171
1070
     3
1070
   143
1040
0.0393700787401575
1070
   285
1070
     4
1070
     4
1000
"
1070
   271
1070
     8
1070
    40
1040
1.0
1002
}
1001
ACAD_DSTYLE_DIMINSPECT
1070
   393
1070
     0
1070
   394
1070
     0
1070
   395
1000

1070
   396
1000

  0
DIMENSION
  5
8861B
330
1F
100
AcDbEntity
  8
2
100
AcDbDimension
  2
*D2055
 10
50.80000000000007
 20
59.91922213148586
 30
0.0
 11
82.26666666666673
 21
59.91922213148586
 31
0.0
 70
   160
  1
<>(MAX)
 71
     5
 42
8.200000000000001
  3
コピー - ISO-25
100
AcDbAlignedDimension
 13
42.59999999999997
 23
38.09999999889999
 33
0.0
 14
50.80000000000007
 24
37.2999999989
 34
0.0
 50
0.0
100
AcDbRotatedDimension
1001
ACAD
1000
DSTYLE
1002
{
1070
   170
1070
     1
1070
   171
1070
     3
1070
   143
1040
0.0393700787401575
1070
   285
1070
     4
1070
     4
1000
"
1070
   271
1070
     8
1070
    40
1040
1.0
1002
}
1001
ACAD_DSTYLE_DIMINSPECT
1070
   393
1070
     0
1070
   394
1070
     0
1070
   395
1000

1070
   396
1000

  0
DIMENSION
  5
8861E
330
1F
100
AcDbEntity
  8
2
100
AcDbDimension
  2
*D2166
 10
70.70766079186768
 20
-38.09999999889999
 30
0.0
 11
66.65766079186767
 21
-1.749999999999992
 31
0.0
 70
    32
  1
%%C<>
 71
     5
 42
76.19999999779999
  3
コピー - ISO-25
100
AcDbAlignedDimension
 13
50.0
 23
38.09999999890001
 33
0.0
 14
50.0
 24
-38.09999999889999
 34
0.0
 50
90.0
100
AcDbRotatedDimension
1001
ACAD
1000
DSTYLE
1002
{
1070
   170
1070
     1
1070
   171
1070
     3
1070
   143
1040
0.0393700787401575
1070
   285
1070
     4
1070
     4
1000
%%c[]"
1070
   344
1005
8778B
1070
   271
1070
     8
1070
   173
1070
     1
1070
    40
1040
1.0
1070
    76
1070
     1
1002
}
1001
ACAD_DSTYLE_DIMINSPECT
1070
   393
1070
     0
1070
   394
1070
     0
1070
   395
1000

1070
   396
1000

  0
DIMENSION
  5
8861F
102
{ACAD_XDICTIONARY
360
88620
102
}
102
{ACAD_REACTORS
330
88621
102
}
330
1F
100
AcDbEntity
  8
sk2
100
AcDbDimension
  2
*D2277
 10
24.0
 20
-50.01147073446049
 30
0.0
 11
43.79999999999999
 21
-45.9614707344605
 31
0.0
 70
    32
 71
     5
 42
24.0
  3
コピー - ISO-25
100
AcDbAlignedDimension
 13
0.0
 23
-26.28147774479999
 33
0.0
 14
24.0
 24
-12.3999999989
 34
0.0
 50
0.0
100
AcDbRotatedDimension
1001
ACAD
1000
DSTYLE
1002
{
1070
   170
1070
     1
1070
   171
1070
     3
1070
   143
1040
0.0393700787401575
1070
   285
1070
     4
1070
     4
1000
"
1070
   271
1070
     8
1070
    40
1040
1.0
1002
}
1001
ACAD_DSTYLE_DIMINSPECT
1070
   393
1070
     0
1070
   394
1070
     0
1070
   395
1000

1070
   396
1000

  0
DIMENSION
  5
88622
102
{ACAD_XDICTIONARY
360
88623
102
}
102
{ACAD_REACTORS
330
88624
102
}
330
1F
100
AcDbEntity
  8
sk2
100
AcDbDimension
  2
*D2388
 10
-29.81345902791495
 20
-27.78147774479999
 30
0.0
 11
-33.86345902791494
 21
0.0000222552000262
 31
0.0
 70
    32
  1
%%C<>
 71
     5
 42
55.563
  3
コピー - ISO-25
100
AcDbAlignedDimension
 13
1.5
 23
27.78152225520004
 33
0.0
 14
1.5
 24
-27.78147774479999
 34
0.0
 50
90.0
100
AcDbRotatedDimension
1001
ACAD
1000
DSTYLE
1002
{
1070
   170
1070
     1
1070
   171
1070
     3
1070
   143
1040
0.0393700787401575
1070
   285
1070
     4
1070
     4
1000
%%c[]"
1070
   271
1070
     8
1070
    40
1040
1.0
1002
}
1001
ACAD_DSTYLE_DIMINSPECT
1070
   393
1070
     0
1070
   394
1070
     0
1070
   395
1000

1070
   396
1000

  0
DIMENSION
  5
88625
102
{ACAD_XDICTIONARY
360
88626
102
}
102
{ACAD_REACTORS
330
88627
102
}
330
1F
100
AcDbEntity
  8
sk2
100
AcDbDimension
  2
*D2499
 10
-19.85445918191135
 20
-12.69999999890001
 30
0.0
 11
-19.85445918191135
 21
-1.255485715559935
 31
0.0
 70
   160
  1
%%C<>
 71
     5
 42
25.3999999978
  3
コピー - ISO-25
100
AcDbAlignedDimension
 13
4.0
 23
12.6999999989
 33
0.0
 14
4.0
 24
-12.69999999890001
 34
0.0
 50
90.0
100
AcDbRotatedDimension
1001
ACAD
1000
DSTYLE
1002
{
1070
   170
1070
     1
1070
   171
1070
     3
1070
   143
1040
0.0393700787401575
1070
   285
1070
     4
1070
     4
1000
%%c[]"
1070
   271
1070
     8
1070
    40
1040
1.0
1002
}
1001
ACAD_DSTYLE_DIMINSPECT
1070
   393
1070
     0
1070
   394
1070
     0
1070
   395
1000

1070
   396
1000

  0
LINE
  5
88628
330
1F
100
AcDbEntity
  8
sk3
100
AcDbLine
 10
14.00000000005636
 20
12.9999999989
 30
0.0
 11
14.00000000005636
 21
-12.99999999890001
 31
0.0
  0
LINE
  5
88629
330
1F
100
AcDbEntity
  8
cut
100
AcDbLine
 10
35.01976038980001
 20
34.60933855689999
 30
0.0
 11
35.04219000470005
 21
34.62282512289999
 31
0.0
  0
LINE
  5
8862A
330
1F
100
AcDbEntity
  8
cut
100
AcDbLine
 10
35.04046713450009
 20
34.62185316879998
 30
0.0
 11
35.06150023609996
 21
34.63361344289999
 31
0.0
  0
LINE
  5
8862B
330
1F
100
AcDbEntity
  8
cut
100
AcDbLine
 10
41.20322816719999
 20
37.74040046849999
 30
0.0
 11
41.40828430689999
 21
37.85206708559999
 31
0.0
  0
LINE
  5
8862C
330
1F
100
AcDbEntity
  8
cut
100
AcDbLine
 10
41.40828430689999
 20
37.85206708559999
 30
0.0
 11
41.42535612790005
 21
37.8612946828
 31
0.0
  0
LINE
  5
8862D
330
1F
100
AcDbEntity
  8
cut
100
AcDbLine
 10
35.06150021309998
 20
34.63361343049998
 30
0.0
 11
35.29216305969999
 21
34.75746963570002
 31
0.0
  0
LINE
  5
8862E
330
1F
100
AcDbEntity
  8
cut
100
AcDbLine
 10
41.13203854200003
 20
37.7021604942
 30
0.0
 11
41.20322816719999
 21
37.74040046849999
 31
0.0
  0
LINE
  5
8862F
330
1F
100
AcDbEntity
  8
cut
100
AcDbLine
 10
35.29216305969999
 20
34.75746963570002
 30
0.0
 11
35.527249869
 21
34.88255918050001
 31
0.0
  0
LINE
  5
88630
330
1F
100
AcDbEntity
  8
cut
100
AcDbLine
 10
41.02767784640002
 20
37.64681525039998
 30
0.0
 11
41.13203854200003
 21
37.7021604942
 31
0.0
  0
LINE
  5
88631
330
1F
100
AcDbEntity
  8
cut
100
AcDbLine
 10
35.527249869
 20
34.88255918050001
 30
0.0
 11
35.76676139669996
 21
35.00887715959998
 31
0.0
  0
LINE
  5
88632
330
1F
100
AcDbEntity
  8
cut
100
AcDbLine
 10
35.76676139669996
 20
35.00887715959998
 30
0.0
 11
36.01070066509999
 21
35.13640395239999
 31
0.0
  0
LINE
  5
88633
330
1F
100
AcDbEntity
  8
cut
100
AcDbLine
 10
40.47697874059998
 20
37.35713775509998
 30
0.0
 11
41.02767784640002
 21
37.64681525039998
 31
0.0
  0
LWPOLYLINE
  5
88634
330
1F
100
AcDbEntity
  8
cut
100
AcDbPolyline
 90
        6
 70
     0
 43
0.0
 10
36.01070066509999
 20
35.13640395239999
 10
36.1415433272
 20
35.20433905089998
 10
36.14878909909999
 20
35.20802963219999
 10
36.15606782890007
 20
35.2116936242
 10
36.16337951649997
 20
35.21533102669999
 10
36.17072416190001
 20
35.21894183989999
  0
LINE
  5
88635
330
1F
100
AcDbEntity
  8
cut
100
AcDbLine
 10
40.14200331280003
 20
37.1838524818
 30
0.0
 11
40.47697874059998
 21
37.35713775509998
 31
0.0
  0
LINE
  5
88636
330
1F
100
AcDbEntity
  8
cut
100
AcDbLine
 10
39.91877627280008
 20
37.06993309769997
 30
0.0
 11
40.14200331280003
 21
37.1838524818
 31
0.0
  0
LINE
  5
88637
330
1F
100
AcDbEntity
  8
cut
100
AcDbLine
 10
39.26151431399997
 20
36.73892069660001
 30
0.0
 11
39.91877627280008
 21
37.06993309769997
 31
0.0
  0
LINE
  5
88638
330
1F
100
AcDbEntity
  8
cut
100
AcDbLine
 10
38.35946654960003
 20
36.2893379486
 30
0.0
 11
39.26151431399997
 21
36.73892069660001
 31
0.0
  0
LINE
  5
88639
330
1F
100
AcDbEntity
  8
cut
100
AcDbLine
 10
37.39784950119997
 20
35.8156388628
 30
0.0
 11
38.35946654960003
 21
36.2893379486
 31
0.0
  0
LINE
  5
8863A
330
1F
100
AcDbEntity
  8
cut
100
AcDbLine
 10
36.60190985860004
 20
35.42766112089998
 30
0.0
 11
37.39784950119997
 21
35.8156388628
 31
0.0
  0
LINE
  5
8863B
330
1F
100
AcDbEntity
  8
cut
100
AcDbLine
 10
36.17072416190001
 20
35.21894183989999
 30
0.0
 11
36.60190985860004
 21
35.42766112089998
 31
0.0
  0
LWPOLYLINE
  5
8863C
330
1F
100
AcDbEntity
  8
cut
100
AcDbPolyline
 90
        8
 70
     0
 43
0.0
 10
34.88507591869995
 20
34.50095069189998
 10
34.90340698720002
 20
34.51899973950001
 10
34.92152557170005
 20
34.53567501169999
 10
34.94019697989995
 20
34.5517367317
 10
34.95944731919997
 20
34.56717483759998
 10
34.97925048210004
 20
34.5819993913
 10
34.99938000200007
 20
34.59606960729999
 10
35.01976038980001
 20
34.60933855689999
  0
LWPOLYLINE
  5
8863D
330
1F
100
AcDbEntity
  8
cut
100
AcDbPolyline
 90
        8
 70
     0
 43
0.0
 10
34.90081420460001
 20
34.5165424527
 10
34.9170213397
 20
34.53165033880001
 10
34.93368512669997
 20
34.5462635307
 10
34.95079651629999
 20
34.56037524710001
 10
34.96834143140006
 20
34.57397551409999
 10
34.98628568369998
 20
34.58704158719998
 10
35.00459005710002
 20
34.59954752949999
 10
35.0232237983
 20
34.61147363510001
  0
LINE
  5
8863E
330
1F
100
AcDbEntity
  8
cut
100
AcDbLine
 10
34.85331795700006
 20
34.46633583500001
 30
0.0
 11
34.86983127099995
 21
34.48490202839999
 31
0.0
  0
LINE
  5
8863F
330
1F
100
AcDbEntity
  8
cut
100
AcDbLine
 10
34.86930317989993
 20
34.48433015109998
 30
0.0
 11
34.88598937120003
 21
34.50188188660001
 31
0.0
  0
LINE
  5
88640
330
1F
100
AcDbEntity
  8
cut
100
AcDbLine
 10
34.68866641839998
 20
34.11065053530001
 30
0.0
 11
34.69309461010005
 21
34.13588753079997
 31
0.0
  0
LINE
  5
88641
330
1F
100
AcDbEntity
  8
cut
100
AcDbLine
 10
34.69283557849998
 20
34.13454904269999
 30
0.0
 11
34.69777942530004
 21
34.1581046121
 31
0.0
  0
LWPOLYLINE
  5
88642
330
1F
100
AcDbEntity
  8
cut
100
AcDbPolyline
 90
       16
 70
     0
 43
0.0
 10
34.69762051839996
 20
34.15739994379998
 10
34.70348706490006
 20
34.18134623299998
 10
34.7098742659
 20
34.2041490175
 10
34.71692148649993
 20
34.22644679960001
 10
34.72464826849999
 20
34.2483057452
 10
34.73302900600004
 20
34.26979946419999
 10
34.74205457100004
 20
34.2909418568
 10
34.7517340915
 20
34.31171902279999
 10
34.76206934599999
 20
34.3321628715
 10
34.77305220029996
 20
34.3522783466
 10
34.78469078880005
 20
34.37206050429998
 10
34.79701129270007
 20
34.39152642240002
 10
34.80999716279996
 20
34.41067561430001
 10
34.82366494849998
 20
34.42950856660001
 10
34.83809047919996
 20
34.44804381630002
 10
34.85331795700006
 20
34.46633583500001
  0
LWPOLYLINE
  5
88643
330
1F
100
AcDbEntity
  8
cut
100
AcDbPolyline
 90
       16
 70
     0
 43
0.0
 10
34.7027945886
 20
34.17873656890002
 10
34.70861035940004
 20
34.19986808869998
 10
34.71506973940007
 20
34.22079795359998
 10
34.72217672940008
 20
34.24153780559998
 10
34.72993299880001
 20
34.26209186400001
 10
34.73833089109997
 20
34.28243465740003
 10
34.74736041800009
 20
34.30253329120001
 10
34.75701157820004
 20
34.32235699490001
 10
34.76727431639995
 20
34.34188349239999
 10
34.77813856370005
 20
34.36109263150001
 10
34.78959232919996
 20
34.37996288790002
 10
34.80161593230003
 20
34.3984672498
 10
34.81418777030001
 20
34.4165773334
 10
34.82729111189997
 20
34.43427102859999
 10
34.84092871250002
 20
34.4515513216
 10
34.85510819900003
 20
34.46842747209998
  0
LWPOLYLINE
  5
88644
330
1F
100
AcDbEntity
  8
cut
100
AcDbPolyline
 90
       34
 70
     0
 43
0.0
 10
46.32552390590001
 20
22.54499540929999
 10
46.30292582770002
 20
22.53013050980003
 10
46.27981279080006
 20
22.51601412639999
 10
46.25618479499997
 20
22.50264625900002
 10
46.23199344350007
 20
22.49000038650001
 10
46.2072871332
 20
22.47810303009998
 10
46.18221105500004
 20
22.46703375339998
 10
46.15676994860007
 20
22.45680527459998
 10
46.13095907429999
 20
22.44740487559999
 10
46.10490940359997
 20
22.43887396549999
 10
46.07866301639996
 20
22.43122501929999
 10
46.05217783270004
 20
22.42444556210001
 10
46.02545858380006
 20
22.4185395776
 10
45.99847602129996
 20
22.4134985128
 10
45.97125939349996
 20
22.40933092069999
 10
45.94390117659995
 20
22.40606644390001
 10
45.91637763789989
 20
22.40371072769999
 10
45.88871251009988
 20
22.40225812669998
 10
45.86106946770008
 20
22.40172134720002
 10
45.83347063689996
 20
22.40210993999999
 10
45.8058938914
 20
22.40341435429999
 10
45.77843652729995
 20
22.4056186434
 10
45.7511296834
 20
22.40871895900001
 10
45.72394222099997
 20
22.4127191494
 10
45.69687802029998
 20
22.41761481329998
 10
45.66989367810005
 20
22.4234141185
 10
45.64303259760004
 20
22.43010889710001
 10
45.61642886950003
 20
22.43767024469999
 10
45.59007623050002
 20
22.44610759279998
 10
45.56398094379995
 20
22.45541150990002
 10
45.53829588990001
 20
22.46552479679999
 10
45.51307202889995
 20
22.4764283874
 10
45.4882584006
 20
22.48814134790002
 10
45.46385500510007
 20
22.50066367829999
  0
LWPOLYLINE
  5
88645
330
1F
100
AcDbEntity
  8
cut
100
AcDbPolyline
 90
        5
 70
     0
 43
0.0
 10
34.68418991830004
 20
33.91680062139999
 10
34.68194459680002
 20
33.94064172849999
 10
34.68049614450001
 20
33.96463458679999
 10
34.6798445613
 20
33.98877919619999
 10
34.67980370600003
 20
33.99720055079998
  0
LWPOLYLINE
  5
88646
330
1F
100
AcDbEntity
  8
cut
100
AcDbPolyline
 90
        7
 70
     0
 43
0.0
 10
34.67979645590003
 20
33.9972005562
 10
34.67983436680004
 20
34.00467641220001
 10
34.68038763760001
 20
34.02670603190002
 10
34.68160189859998
 20
34.04870335429998
 10
34.68347901620007
 20
34.07063307730001
 10
34.68601994640005
 20
34.09248068049998
 10
34.68922541719994
 20
34.11423683910002
  0
LWPOLYLINE
  5
88647
330
1F
100
AcDbEntity
  8
cut
100
AcDbPolyline
 90
        6
 70
     0
 43
0.0
 10
34.67980370600003
 20
33.99720055079998
 10
34.67998368940005
 20
34.01316017119999
 10
34.68091968670001
 20
34.03769289740001
 10
34.6826710268
 20
34.06212353189999
 10
34.68526105119997
 20
34.08643807939998
 10
34.68866641839998
 20
34.11065053530001
  0
LINE
  5
88648
330
1F
100
AcDbEntity
  8
cut
100
AcDbLine
 10
44.46214631500004
 20
23.01209090089999
 30
0.0
 11
44.31501520860002
 21
23.08348191919998
 31
0.0
  0
LINE
  5
88649
330
1F
100
AcDbEntity
  8
cut
100
AcDbLine
 10
44.31501520860002
 20
23.08348191919998
 30
0.0
 11
44.29954191650006
 21
23.09116446599997
 31
0.0
  0
LINE
  5
8864A
330
1F
100
AcDbEntity
  8
cut
100
AcDbLine
 10
44.29954191650006
 20
23.09116446599997
 30
0.0
 11
44.28430738929996
 21
23.09888075960001
 31
0.0
  0
LINE
  5
8864B
330
1F
100
AcDbEntity
  8
cut
100
AcDbLine
 10
44.28430738929996
 20
23.09888075960001
 30
0.0
 11
42.77441715750001
 21
23.87177756089998
 31
0.0
  0
LINE
  5
8864C
330
1F
100
AcDbEntity
  8
cut
100
AcDbLine
 10
42.77441715750001
 20
23.87177756089998
 30
0.0
 11
41.93242941940002
 21
24.30346935619999
 31
0.0
  0
LINE
  5
8864D
330
1F
100
AcDbEntity
  8
cut
100
AcDbLine
 10
41.93242941940002
 20
24.30346935619999
 30
0.0
 11
41.7377711529
 21
24.40339616300001
 31
0.0
  0
LWPOLYLINE
  5
8864E
330
1F
100
AcDbEntity
  8
cut
100
AcDbPolyline
 90
        6
 70
     0
 43
0.0
 10
45.09851932870001
 20
22.69260508509999
 10
44.97400104969996
 20
22.75657814749999
 10
44.84811125039989
 20
22.82054065729999
 10
44.72083996849995
 20
22.884451519
 10
44.5921838831
 20
22.94829703400001
 10
44.46214631500004
 20
23.01209090089999
  0
LINE
  5
8864F
330
1F
100
AcDbEntity
  8
cut
100
AcDbLine
 10
41.7377711529
 20
24.40339616300001
 30
0.0
 11
40.8898415976999
 21
24.83907438639999
 31
0.0
  0
LINE
  5
88650
330
1F
100
AcDbEntity
  8
cut
100
AcDbLine
 10
40.8898415976999
 20
24.83907438639999
 30
0.0
 11
40.36785082840004
 21
25.10787154579997
 31
0.0
  0
LINE
  5
88651
330
1F
100
AcDbEntity
  8
cut
100
AcDbLine
 10
40.36785082840004
 20
25.10787154579997
 30
0.0
 11
40.23868074969991
 21
25.1753135251
 31
0.0
  0
LWPOLYLINE
  5
88652
330
1F
100
AcDbEntity
  8
cut
100
AcDbPolyline
 90
        4
 70
     0
 43
0.0
 10
45.46385500639996
 20
22.50066367759998
 10
45.34344796750004
 20
22.5646546994
 10
45.2216694082
 20
22.62863516849998
 10
45.09851932870001
 20
22.69260508509999
  0
LINE
  5
88653
330
1F
100
AcDbEntity
  8
cut
100
AcDbLine
 10
40.23868074969991
 20
25.1753135251
 30
0.0
 11
40.10870322710002
 21
25.24416780779997
 31
0.0
  0
LINE
  5
88654
330
1F
100
AcDbEntity
  8
cut
100
AcDbLine
 10
40.10870322710002
 20
25.24416780779997
 30
0.0
 11
39.97851483650004
 21
25.31416139390002
 31
0.0
  0
LINE
  5
88655
330
1F
100
AcDbEntity
  8
cut
100
AcDbLine
 10
39.97851483650004
 20
25.31416139390002
 30
0.0
 11
39.85034744430004
 21
25.38399061370002
 31
0.0
  0
LINE
  5
88656
330
1F
100
AcDbEntity
  8
cut
100
AcDbLine
 10
39.85034744430004
 20
25.38399061370002
 30
0.0
 11
39.72904390769996
 21
25.45090066780002
 31
0.0
  0
LINE
  5
88657
330
1F
100
AcDbEntity
  8
cut
100
AcDbLine
 10
39.72904390769996
 20
25.45090066780002
 30
0.0
 11
39.61669951680006
 21
25.51362747720001
 31
0.0
  0
LINE
  5
88658
330
1F
100
AcDbEntity
  8
cut
100
AcDbLine
 10
39.61669951680006
 20
25.51362747720001
 30
0.0
 11
39.51613139040001
 21
25.57034712170001
 31
0.0
  0
LINE
  5
88659
330
1F
100
AcDbEntity
  8
cut
100
AcDbLine
 10
39.51613139040001
 20
25.57034712170001
 30
0.0
 11
39.38124162070002
 21
25.64725951110001
 31
0.0
  0
LINE
  5
8865A
330
1F
100
AcDbEntity
  8
cut
100
AcDbLine
 10
39.38124162070002
 20
25.64725951110001
 30
0.0
 11
39.25840354019999
 21
25.71813570649999
 31
0.0
  0
LINE
  5
8865B
330
1F
100
AcDbEntity
  8
cut
100
AcDbLine
 10
39.25840354019999
 20
25.71813570649999
 30
0.0
 11
39.13897248789999
 21
25.78781399669998
 31
0.0
  0
LINE
  5
8865C
330
1F
100
AcDbEntity
  8
cut
100
AcDbLine
 10
39.13897248789999
 20
25.78781399669998
 30
0.0
 11
39.01896438389997
 21
25.85858542279999
 31
0.0
  0
LINE
  5
8865D
330
1F
100
AcDbEntity
  8
cut
100
AcDbLine
 10
39.01896438389997
 20
25.85858542279999
 30
0.0
 11
38.89863959189995
 21
25.93030100109999
 31
0.0
  0
LWPOLYLINE
  5
8865E
330
1F
100
AcDbEntity
  8
cut
100
AcDbPolyline
 90
        3
 70
     0
 43
0.0
 10
38.89863959189995
 20
25.93030100109999
 10
38.7792291472
 20
26.0022172592
 10
38.7397067441001
 20
26.02618613660002
  0
LWPOLYLINE
  5
8865F
330
1F
100
AcDbEntity
  8
cut
100
AcDbPolyline
 90
       25
 70
     0
 43
0.0
 10
38.73970677500006
 20
26.02618611790002
 10
38.71019979430002
 20
26.04464145490002
 10
38.68135505709995
 20
26.06359702690001
 10
38.65317256309993
 20
26.08305283390001
 10
38.6256715966
 20
26.10300782499999
 10
38.59883287340006
 20
26.12346305099999
 10
38.57259854120002
 20
26.14442166480002
 10
38.54694806999999
 20
26.16587357189999
 10
38.52190198980009
 20
26.1878288668
 10
38.49746403719996
 20
26.21032098559999
 10
38.47362854230005
 20
26.2333510865
 10
38.45040117489998
 20
26.25691801139999
 10
38.42780268199999
 20
26.28105172240001
 10
38.40582905419998
 20
26.3057771387
 10
38.38448430070002
 20
26.33106934110001
 10
38.36380119629996
 20
26.35688353499997
 10
38.34378656609999
 20
26.38322872510001
 10
38.32443358490002
 20
26.41009590660001
 10
38.30575455220003
 20
26.43741327019998
 10
38.28775014180008
 20
26.46518147230001
 10
38.27041967980007
 20
26.49339985649998
 10
38.25377344499998
 20
26.5219946435
 10
38.23781486339999
 20
26.55094124050002
 10
38.22254050899994
 20
26.58026424039999
 10
38.20795038159997
 20
26.60996364320002
  0
LWPOLYLINE
  5
88660
330
1F
100
AcDbEntity
  8
cut
100
AcDbPolyline
 90
       13
 70
     0
 43
0.0
 10
34.77113463889998
 20
33.63664804969999
 10
34.75964862950002
 20
33.65916797790001
 10
34.74892836180004
 20
33.6818867695
 10
34.73897383580004
 20
33.70480442429999
 10
34.72978100390003
 20
33.7279503155
 10
34.72135391360007
 20
33.75129506999999
 10
34.71370470780005
 20
33.77475056849999
 10
34.70683667160006
 20
33.79831826369999
 10
34.70074651979996
 20
33.821996703
 10
34.69543653950007
 20
33.84569340919997
 10
34.69090749309997
 20
33.86937755650001
 10
34.68715861830003
 20
33.89307997060001
 10
34.68418991500005
 20
33.91680065169998
  0
LINE
  5
88661
330
1F
100
AcDbEntity
  8
cut
100
AcDbLine
 10
35.57590673619996
 20
32.0243158019
 30
0.0
 11
35.36312057070006
 21
32.45072645779998
 31
0.0
  0
LINE
  5
88662
330
1F
100
AcDbEntity
  8
cut
100
AcDbLine
 10
35.36312057070006
 20
32.45072645779998
 30
0.0
 11
35.35534465299998
 21
32.46661076280001
 31
0.0
  0
LWPOLYLINE
  5
88663
330
1F
100
AcDbEntity
  8
cut
100
AcDbPolyline
 90
        8
 70
     0
 43
0.0
 10
37.02091219479996
 20
29.08647494589999
 10
36.81638234469995
 20
29.5070241914
 10
36.6112120545
 20
29.92728474989999
 10
36.40539114219996
 20
30.34725271720001
 10
36.19892978990004
 20
30.76693199759997
 10
35.99185854409994
 20
31.1863343037
 10
35.78418758689998
 20
31.6054635399
 10
35.57590673619996
 20
32.0243158019
  0
LWPOLYLINE
  5
88664
330
1F
100
AcDbEntity
  8
cut
100
AcDbPolyline
 90
        9
 70
     0
 43
0.0
 10
35.28517875020011
 20
32.6147495422
 10
35.2253844703
 20
32.7394190436
 10
35.16433525119999
 20
32.8649796405
 10
35.10205152169997
 20
32.99144645030001
 10
35.03851285300005
 20
33.11880435559999
 10
34.97365795849999
 20
33.2470080045
 10
34.90746640910004
 20
33.3760422798
 10
34.83995863400003
 20
33.50592229859998
 10
34.77113463290005
 20
33.63664806099998
  0
LINE
  5
88665
330
1F
100
AcDbEntity
  8
cut
100
AcDbLine
 10
37.65642882290001
 20
27.76862270640002
 30
0.0
 11
37.02091219479996
 21
29.08647494589999
 31
0.0
  0
LWPOLYLINE
  5
88666
330
1F
100
AcDbEntity
  8
cut
100
AcDbPolyline
 90
        3
 70
     0
 43
0.0
 10
35.35534465299998
 20
32.46661076280001
 10
35.34758863570003
 20
32.48277982439998
 10
35.28517875020011
 20
32.6147495422
  0
LINE
  5
88667
330
1F
100
AcDbEntity
  8
cut
100
AcDbLine
 10
38.02071797280007
 20
27.0049804738
 30
0.0
 11
37.65642882290001
 21
27.76862270640002
 31
0.0
  0
LINE
  5
88668
330
1F
100
AcDbEntity
  8
cut
100
AcDbLine
 10
38.20795042999995
 20
26.60996354179999
 30
0.0
 11
38.02071797159999
 21
27.0049804764
 31
0.0
  0
LINE
  5
88669
330
1F
100
AcDbEntity
  8
cut
100
AcDbLine
 10
50.31917510180003
 20
28.6737882823
 30
0.0
 11
50.14014218550006
 21
28.38002403860001
 31
0.0
  0
LINE
  5
8866A
330
1F
100
AcDbEntity
  8
cut
100
AcDbLine
 10
50.14014218550006
 20
28.38002403860001
 30
0.0
 11
49.93528310459999
 21
28.0454717913
 31
0.0
  0
LINE
  5
8866B
330
1F
100
AcDbEntity
  8
cut
100
AcDbLine
 10
49.93528310459999
 20
28.0454717913
 30
0.0
 11
49.74824229429995
 21
27.74151294780001
 31
0.0
  0
LINE
  5
8866C
330
1F
100
AcDbEntity
  8
cut
100
AcDbLine
 10
49.74824229429995
 20
27.74151294780001
 30
0.0
 11
49.55489984510004
 21
27.42870464550001
 31
0.0
  0
LINE
  5
8866D
330
1F
100
AcDbEntity
  8
cut
100
AcDbLine
 10
49.55489984510004
 20
27.42870464550001
 30
0.0
 11
49.3551886264
 21
27.10708671649999
 31
0.0
  0
LWPOLYLINE
  5
8866E
330
1F
100
AcDbEntity
  8
cut
100
AcDbPolyline
 90
        9
 70
     0
 43
0.0
 10
49.3551886264
 20
27.10708671649999
 10
49.03241377259996
 20
26.59031247949999
 10
48.81111099699999
 20
26.23812861490002
 10
48.58904059760002
 20
25.88642005910001
 10
48.36620197700007
 20
25.53518472169999
 10
48.14259573259993
 20
25.184424693
 10
47.91822365590005
 20
24.83414624349999
 10
47.69308634410004
 20
24.48435146349999
 10
47.46718320000002
 20
24.13503826269999
  0
LWPOLYLINE
  5
8866F
330
1F
100
AcDbEntity
  8
cut
100
AcDbPolyline
 90
        6
 70
     0
 43
0.0
 10
47.46718320000002
 20
24.13503826269999
 10
47.23623236130004
 20
23.77966718939998
 10
47.23189986680006
 20
23.77312033029999
 10
47.22751673989996
 20
23.7665660641
 10
47.22308298079997
 20
23.76000439060002
 10
47.21859858950007
 20
23.75343530989999
  0
LINE
  5
88670
330
1F
100
AcDbEntity
  8
cut
100
AcDbLine
 10
46.67683469090002
 20
22.96408525749999
 30
0.0
 11
46.53551072200002
 21
22.75519339249998
 31
0.0
  0
LINE
  5
88671
330
1F
100
AcDbEntity
  8
cut
100
AcDbLine
 10
46.82356083649992
 20
23.17954201589998
 30
0.0
 11
46.67683469090002
 21
22.96408525749999
 31
0.0
  0
LINE
  5
88672
330
1F
100
AcDbEntity
  8
cut
100
AcDbLine
 10
46.97569370430001
 20
23.40155966760001
 30
0.0
 11
46.82356083649992
 21
23.17954201589998
 31
0.0
  0
LINE
  5
88673
330
1F
100
AcDbEntity
  8
cut
100
AcDbLine
 10
47.21859858950007
 20
23.75343530989999
 30
0.0
 11
46.97569370430001
 21
23.40155966760001
 31
0.0
  0
LWPOLYLINE
  5
88674
330
1F
100
AcDbEntity
  8
cut
100
AcDbPolyline
 90
       13
 70
     0
 43
0.0
 10
46.53551072259995
 20
22.75519339349997
 10
46.52154170530002
 20
22.7351684113
 10
46.50690199450003
 20
22.71555892640002
 10
46.49159159039993
 20
22.69636493889998
 10
46.47559326039993
 20
22.67756096099998
 10
46.45892423700002
 20
22.65917248049998
 10
46.44163621810003
 20
22.64127596029998
 10
46.42372749919997
 20
22.62387412980002
 10
46.40519978489995
 20
22.6069642596
 10
46.38610988669995
 20
22.5906146245
 10
46.36647674180006
 20
22.57484798300001
 10
46.34628141300004
 20
22.55964157659999
 10
46.32552390030002
 20
22.5449954055
  0
LINE
  5
88675
330
1F
100
AcDbEntity
  8
cut
100
AcDbLine
 10
42.37290086899998
 20
38.09999999889999
 30
0.0
 11
50.0
 21
38.09999999889999
 31
0.0
  0
LINE
  5
88676
330
1F
100
AcDbEntity
  8
cut
100
AcDbLine
 10
50.78921774239994
 20
35.9213747291
 30
0.0
 11
50.80000000000007
 21
37.2999999989
 31
0.0
  0
LINE
  5
88677
330
1F
100
AcDbEntity
  8
cut
100
AcDbLine
 10
50.5319030427
 20
29.71444572120002
 30
0.0
 11
50.52581762669999
 21
29.40475069849997
 31
0.0
  0
LINE
  5
88678
330
1F
100
AcDbEntity
  8
cut
100
AcDbLine
 10
50.78921774239994
 20
35.9213747291
 30
0.0
 11
50.78885641759992
 21
35.9035117719
 31
0.0
  0
LINE
  5
88679
330
1F
100
AcDbEntity
  8
cut
100
AcDbLine
 10
50.53936947090003
 20
30.0219997282
 30
0.0
 11
50.5319030427
 21
29.71444572120002
 31
0.0
  0
LWPOLYLINE
  5
8867A
330
1F
100
AcDbEntity
  8
cut
100
AcDbPolyline
 90
       25
 70
     0
 43
0.0
 10
50.52581762680006
 20
29.40475070669998
 10
50.52485631709996
 20
29.37139340629999
 10
50.5231983594
 20
29.33831035490003
 10
50.52084375380002
 20
29.3055015523
 10
50.51778228399992
 20
29.27297248089999
 10
50.51402416630003
 20
29.24071765839999
 10
50.50960004950002
 20
29.2087206377
 10
50.50451188379994
 20
29.17698814319999
 10
50.49875771909999
 20
29.14551345059999
 10
50.49236235459996
 20
29.1142599403
 10
50.4853315547
 20
29.08321889670001
 10
50.47765955489999
 20
29.05239903530001
 10
50.46935386100006
 20
29.02178988319999
 10
50.46042237690006
 20
28.99138303279999
 10
50.4508571985
 20
28.96118689169997
 10
50.44064212010005
 20
28.93121620950001
 10
50.42977470230002
 20
28.90145631669998
 10
50.41825738440002
 20
28.8719218828
 10
50.40608127820007
 20
28.84267166620001
 10
50.39324331769996
 20
28.81370555579999
 10
50.37974656879999
 20
28.78502366260001
 10
50.3655913412
 20
28.75668507849999
 10
50.35077773809994
 20
28.72870950070002
 10
50.33530565620004
 20
28.70107723199998
 10
50.31917509569996
 20
28.67378827230002
  0
LINE
  5
8867B
330
1F
100
AcDbEntity
  8
cut
100
AcDbLine
 10
50.54818758390002
 20
30.3277754419
 30
0.0
 11
50.53936947090003
 21
30.0219997282
 31
0.0
  0
LINE
  5
8867C
330
1F
100
AcDbEntity
  8
cut
100
AcDbLine
 10
50.78885641759992
 20
35.9035117719
 30
0.0
 11
50.78833810110007
 21
35.8855847739
 31
0.0
  0
LINE
  5
8867D
330
1F
100
AcDbEntity
  8
cut
100
AcDbLine
 10
50.55823571650001
 20
30.6294552258
 30
0.0
 11
50.54818758390002
 21
30.3277754419
 31
0.0
  0
LINE
  5
8867E
330
1F
100
AcDbEntity
  8
cut
100
AcDbLine
 10
50.56953126740006
 20
30.9280190364
 30
0.0
 11
50.55823571650001
 21
30.6294552258
 31
0.0
  0
LINE
  5
8867F
330
1F
100
AcDbEntity
  8
cut
100
AcDbLine
 10
50.78833810110007
 20
35.8855847739
 30
0.0
 11
50.78766279310002
 21
35.86759373519998
 31
0.0
  0
LINE
  5
88680
330
1F
100
AcDbEntity
  8
cut
100
AcDbLine
 10
50.78766279310002
 20
35.86759373519998
 30
0.0
 11
50.75238040880001
 21
35.0336052488
 31
0.0
  0
LINE
  5
88681
330
1F
100
AcDbEntity
  8
cut
100
AcDbLine
 10
50.75238040880001
 20
35.0336052488
 30
0.0
 11
50.71531914789996
 21
34.17552989460001
 31
0.0
  0
LINE
  5
88682
330
1F
100
AcDbEntity
  8
cut
100
AcDbLine
 10
50.58170592709996
 20
31.21628301289999
 30
0.0
 11
50.56953126740006
 21
30.9280190364
 31
0.0
  0
LINE
  5
88683
330
1F
100
AcDbEntity
  8
cut
100
AcDbLine
 10
50.71531914789996
 20
34.17552989460001
 30
0.0
 11
50.68073463920007
 21
33.39040530159999
 31
0.0
  0
LINE
  5
88684
330
1F
100
AcDbEntity
  8
cut
100
AcDbLine
 10
50.68073463920007
 20
33.39040530159999
 30
0.0
 11
50.6385830708
 21
32.45280074829997
 31
0.0
  0
LINE
  5
88685
330
1F
100
AcDbEntity
  8
cut
100
AcDbLine
 10
50.6385830708
 20
32.45280074829997
 30
0.0
 11
50.59469346369997
 21
31.49878369329999
 31
0.0
  0
LINE
  5
88686
330
1F
100
AcDbEntity
  8
cut
100
AcDbLine
 10
50.59469346369997
 20
31.49878369329999
 30
0.0
 11
50.58170592709996
 21
31.21628301289999
 31
0.0
  0
ARC
  5
88687
330
1F
100
AcDbEntity
  8
cut
100
AcDbCircle
 10
42.37290086899998
 20
36.0999999989
 30
0.0
 40
2.0
100
AcDbArc
 50
90.0
 51
118.2794495167991
  0
ARC
  5
88688
102
{ACAD_REACTORS
330
8868B
102
}
330
1F
100
AcDbEntity
  8
cut
100
AcDbCircle
 10
50.0
 20
37.2999999989
 30
0.0
 40
0.8
100
AcDbArc
 50
0.0
 51
90.0
  0
DIMENSION
  5
88689
102
{ACAD_XDICTIONARY
360
8868A
102
}
102
{ACAD_REACTORS
330
8868B
102
}
330
1F
100
AcDbEntity
  8
2
100
AcDbDimension
  2
*D251010
 10
50.0
 20
37.2999999989
 30
0.0
 11
70.92973933833718
 21
43.97587566446001
 31
0.0
 70
   164
 71
     5
 42
0.8
  3
コピー - ISO-25
100
AcDbRadialDimension
 15
50.7621677388303
 25
37.54310560946115
 35
0.0
 40
0.0
1001
ACAD
1000
DSTYLE
1002
{
1070
   170
1070
     1
1070
   171
1070
     3
1070
   143
1040
0.0393700787401575
1070
   285
1070
     4
1070
     4
1000
"
1070
   271
1070
     8
1070
    40
1040
1.0
1002
}
1001
ACAD_DSTYLE_DIMRADIAL_EXTENSION
1070
   387
1070
     1
1070
   388
1040
0.0
1070
   390
1040
1.570796326794896
1001
ACAD_DSTYLE_DIMINSPECT
1070
   396
1000

1070
   395
1000

1070
   394
1070
     1
1070
   393
1070
     0
1001
ZWMCAD_GENSTANDARDFRAME_13_
1070
   410
1000
GB
1070
   411
1000
ZwmFrameMain_
  0
VIEWPORT
  5
71
102
{ACAD_XDICTIONARY
360
8769D
102
}
330
55
100
AcDbEntity
 67
     1
  8
0
100
AcDbViewport
 10
150.1652135264906
 20
103.6581106594891
 30
0.0
 40
339.1973820494347
 41
168.6522697578383
 68
     1
 69
    -1
 12
150.1652135264906
 22
103.6581106594891
 13
0.0
 23
0.0
 14
10.0
 24
10.0
 15
10.0
 25
10.0
 16
0.0
 26
0.0
 36
1.0
 17
0.0
 27
0.0
 37
0.0
 42
50.0
 43
0.0
 44
0.0
 45
168.6522697578383
 50
0.0
 51
0.0
 72
  1000
 90
    32864
  1

281
     0
 71
     1
 74
     0
110
0.0
120
0.0
130
0.0
111
1.0
121
0.0
131
0.0
112
0.0
122
1.0
132
0.0
 79
     0
146
0.0
1001
ACAD
1000
MVIEW
1002
{
1070
    16
1010
0.0
1020
0.0
1030
0.0
1010
0.0
1020
0.0
1030
1.0
1040
0.0
1040
168.6522697578383
1040
150.1652135264906
1040
103.6581106594891
1040
50.0
1040
0.0
1040
0.0
1070
     0
1070
  1000
1070
     0
1070
     3
1070
     0
1070
     0
1070
     0
1070
     0
1040
0.0
1040
0.0
1040
0.0
1040
10.0
1040
10.0
1040
10.0
1040
10.0
1070
     0
1002
{
1002
}
1002
}
  0
VIEWPORT
  5
73
102
{ACAD_XDICTIONARY
360
8769F
102
}
330
55
100
AcDbEntity
 67
     1
  8
0
100
AcDbViewport
 10
133.3499939441681
 20
101.5999939441681
 30
0.0
 40
213.3599903106689
 41
162.5599903106689
 68
     2
 69
    -1
 12
210.0
 22
148.5
 13
0.0
 23
0.0
 14
10.0
 24
10.0
 15
10.0
 25
10.0
 16
0.0
 26
0.0
 36
1.0
 17
0.0
 27
0.0
 37
0.0
 42
50.0
 43
0.0
 44
0.0
 45
324.0677920111345
 50
0.0
 51
0.0
 72
   100
 90
    32864
  1

281
     0
 71
     1
 74
     0
110
0.0
120
0.0
130
0.0
111
1.0
121
0.0
131
0.0
112
0.0
122
1.0
132
0.0
 79
     0
146
0.0
1001
ACAD
1000
MVIEW
1002
{
1070
    16
1010
0.0
1020
0.0
1030
0.0
1010
0.0
1020
0.0
1030
1.0
1040
0.0
1040
324.0677920111345
1040
210.0
1040
148.5
1040
50.0
1040
0.0
1040
0.0
1070
     0
1070
   100
1070
     0
1070
     3
1070
     0
1070
     0
1070
     0
1070
     0
1040
0.0
1040
0.0
1040
0.0
1040
10.0
1040
10.0
1040
10.0
1040
10.0
1070
     0
1002
{
1002
}
1002
}
  0
ENDSEC
  0
SECTION
  2
OBJECTS
  0
DICTIONARY
  5
C
330
0
100
AcDbDictionary
281
     1
  3
ACAD_CIP_PREVIOUS_PRODUCT_INFO
350
4A3C3
  3
ACAD_COLOR
350
85
  3
ACAD_DETAILVIEWSTYLE
350
4A3BB
  3
ACAD_GROUP
350
D
  3
ACAD_LAYOUT
350
1A
  3
ACAD_MATERIAL
350
84
  3
ACAD_MLEADERSTYLE
350
4A3B7
  3
ACAD_MLINESTYLE
350
17
  3
ACAD_PLOTSETTINGS
350
19
  3
ACAD_PLOTSTYLENAME
350
E
  3
ACAD_SCALELIST
350
4A3A5
  3
ACAD_SECTIONVIEWSTYLE
350
4A3B9
  3
ACAD_TABLESTYLE
350
A1
  3
ACAD_VISUALSTYLE
350
4A38C
  3
ACDB_RECOMPOSE_DATA
350
8768B
  3
ACDBHEADERROUNDTRIPXREC
350
88863
  3
AcDbVariableDictionary
350
5E
  3
ASE_INDEX_DICTIONARY
350
349E9
  3
DWGPROPS
350
88866
  0
DICTIONARY
  5
8831E
330
8
100
AcDbDictionary
280
     1
281
     1
  3
ACAD_XREC_ROUNDTRIP
360
8886C
  0
DICTIONARY
  5
E2
330
2
100
AcDbDictionary
280
     1
281
     1
  3
ACAD_LAYERFILTERS
360
4A339
  3
ACAD_LAYERSTATES
360
3759A
  3
ACLYDICTIONARY
360
4A338
  0
DICTIONARY
  5
4A86C
330
10
100
AcDbDictionary
280
     1
281
     1
  3
ADSK_XREC_LAYER_RECONCILED
360
4A86D
  0
DICTIONARY
  5
4A773
330
4A772
100
AcDbDictionary
280
     1
281
     1
  3
ADSK_XREC_LAYER_RECONCILED
360
4A86E
  0
DICTIONARY
  5
4A775
330
4A774
100
AcDbDictionary
280
     1
281
     1
  3
ADSK_XREC_LAYER_RECONCILED
360
4A86F
  0
DICTIONARY
  5
4A777
330
4A776
100
AcDbDictionary
280
     1
281
     1
  3
ADSK_XREC_LAYER_RECONCILED
360
4A870
  0
DICTIONARY
  5
4A779
330
4A778
100
AcDbDictionary
280
     1
281
     1
  3
ADSK_XREC_LAYER_RECONCILED
360
4A871
  0
DICTIONARY
  5
4A77B
330
4A77A
100
AcDbDictionary
280
     1
281
     1
  3
ADSK_XREC_LAYER_RECONCILED
360
4A872
  0
DICTIONARY
  5
4A77F
330
4A77E
100
AcDbDictionary
280
     1
281
     1
  3
ADSK_XREC_LAYER_RECONCILED
360
4A874
  0
DICTIONARY
  5
4A783
330
4A782
100
AcDbDictionary
280
     1
281
     1
  3
ADSK_XREC_LAYER_RECONCILED
360
4A876
  0
DICTIONARY
  5
8831C
330
876F4
100
AcDbDictionary
280
     1
281
     1
  3
ACAD_XREC_ROUNDTRIP
360
8886B
  0
DICTIONARY
  5
31EE
330
1F
100
AcDbDictionary
280
     1
281
     1
  3
ACAD_SORTENTS
360
31EF
  0
DICTIONARY
  5
4A6D7
330
4A6D6
100
AcDbDictionary
280
     1
281
     1
  3
ACAD_SORTENTS
360
4A6D8
  0
DICTIONARY
  5
87699
330
6B
100
AcDbDictionary
280
     1
281
     1
  3
ACAD_XREC_ROUNDTRIP
360
88869
  0
DICTIONARY
  5
8769B
330
6D
100
AcDbDictionary
280
     1
281
     1
  3
ACAD_XREC_ROUNDTRIP
360
8886A
  0
DICTIONARY
  5
88619
330
88618
100
AcDbDictionary
280
     1
281
     1
  3
ACAD_DIMASSOC
360
8861A
  0
DICTIONARY
  5
88620
330
8861F
100
AcDbDictionary
280
     1
281
     1
  3
ACAD_DIMASSOC
360
88621
  0
DICTIONARY
  5
88623
330
88622
100
AcDbDictionary
280
     1
281
     1
  3
ACAD_DIMASSOC
360
88624
  0
DICTIONARY
  5
88626
330
88625
100
AcDbDictionary
280
     1
281
     1
  3
ACAD_DIMASSOC
360
88627
  0
DICTIONARY
  5
8868A
330
88689
100
AcDbDictionary
280
     1
281
     1
  3
ACAD_DIMASSOC
360
8868B
  0
DICTIONARY
  5
8769D
330
71
100
AcDbDictionary
280
     1
281
     1
  3
ACAD_XREC_ROUNDTRIP
360
88867
  0
DICTIONARY
  5
8769F
330
73
100
AcDbDictionary
280
     1
281
     1
  3
ACAD_XREC_ROUNDTRIP
360
88868
  0
XRECORD
  5
4A3C3
102
{ACAD_REACTORS
330
C
102
}
330
C
100
AcDbXrecord
280
     1
300
ACDLT
300
2020
300

  0
DICTIONARY
  5
85
102
{ACAD_REACTORS
330
C
102
}
330
C
100
AcDbDictionary
281
     1
  0
DICTIONARY
  5
4A3BB
102
{ACAD_REACTORS
330
C
102
}
330
C
100
AcDbDictionary
281
     1
  3
Metric50
350
4A3BC
  0
DICTIONARY
  5
D
102
{ACAD_REACTORS
330
C
102
}
330
C
100
AcDbDictionary
281
     1
  0
DICTIONARY
  5
1A
102
{ACAD_REACTORS
330
C
102
}
330
C
100
AcDbDictionary
281
     1
  3
Model
350
22
  3
レイアウト1
350
51
  3
レイアウト2
350
56
  0
DICTIONARY
  5
84
102
{ACAD_REACTORS
330
C
102
}
330
C
100
AcDbDictionary
281
     1
  3
ByBlock
350
4A37C
  3
ByLayer
350
4A374
  3
Global
350
4A384
  0
DICTIONARY
  5
4A3B7
102
{ACAD_REACTORS
330
C
102
}
330
C
100
AcDbDictionary
281
     1
  3
Standard
350
4A3B8
  0
DICTIONARY
  5
17
102
{ACAD_REACTORS
330
C
102
}
330
C
100
AcDbDictionary
281
     1
  3
Standard
350
18
  0
DICTIONARY
  5
19
102
{ACAD_REACTORS
330
C
102
}
330
C
100
AcDbDictionary
281
     1
  0
ACDBDICTIONARYWDFLT
  5
E
102
{ACAD_REACTORS
330
C
102
}
330
C
100
AcDbDictionary
281
     1
  3
Normal
350
F
100
AcDbDictionaryWithDefault
340
F
  0
DICTIONARY
  5
4A3A5
102
{ACAD_REACTORS
330
C
102
}
330
C
100
AcDbDictionary
281
     1
  3
A0
350
4A3A6
  3
A1
350
4A3A7
  3
A2
350
4A3A8
  3
A3
350
4A3A9
  3
A4
350
4A3AA
  3
A5
350
4A3AB
  3
A6
350
4A3AC
  3
A7
350
4A3AD
  3
A8
350
4A3AE
  3
A9
350
4A3AF
  3
B0
350
4A3B0
  3
B1
350
4A3B1
  3
B2
350
4A3B2
  3
B3
350
4A3B3
  3
B4
350
4A3B4
  3
B5
350
4A3B5
  3
B6
350
4A3B6
  0
DICTIONARY
  5
4A3B9
102
{ACAD_REACTORS
330
C
102
}
330
C
100
AcDbDictionary
281
     1
  3
Metric50
350
4A3BA
  0
DICTIONARY
  5
A1
102
{ACAD_REACTORS
330
C
102
}
330
C
100
AcDbDictionary
281
     1
  3
Standard
350
A2
  0
DICTIONARY
  5
4A38C
102
{ACAD_REACTORS
330
C
102
}
330
C
100
AcDbDictionary
281
     1
  3
2dWireframe
350
4A392
  3
Basic
350
4A391
  3
Brighten
350
4A398
  3
ColorChange
350
4A39C
  3
Conceptual
350
4A395
  3
Dim
350
4A397
  3
EdgeColorOff
350
4A3A4
  3
Facepattern
350
4A39B
  3
Flat
350
4A38D
  3
FlatWithEdges
350
4A38E
  3
Gouraud
350
4A38F
  3
GouraudWithEdges
350
4A390
  3
Hidden
350
4A394
  3
JitterOff
350
4A3A2
  3
Linepattern
350
4A39A
  3
OverhangOff
350
4A3A3
  3
Realistic
350
4A396
  3
Shaded
350
4A3A1
  3
Shaded with edges
350
4A3A0
  3
Shades of Gray
350
4A39D
  3
Sketchy
350
4A39E
  3
Thicken
350
4A399
  3
Wireframe
350
4A393
  3
X-Ray
350
4A39F
  0
XRECORD
  5
8768B
102
{ACAD_REACTORS
330
C
102
}
330
C
100
AcDbXrecord
280
     1
 90
        1
330
A2
  0
DICTIONARY
  5
88863
102
{ACAD_REACTORS
330
C
102
}
330
C
100
AcDbDictionary
281
     1
  3
COLORDICT
350
88864
  3
MATERIALDICT
350
88865
  0
DICTIONARY
  5
5E
102
{ACAD_REACTORS
330
C
102
}
330
C
100
AcDbDictionary
281
     1
  3
CANNOSCALE
350
88862
  3
CMLEADERSTYLE
350
4A6CE
  3
CTABLESTYLE
350
B8
  3
CVIEWDETAILSTYLE
350
4A6CF
  3
CVIEWSECTIONSTYLE
350
4A6D0
  3
DIMASSOC
350
5F
  3
HIDETEXT
350
63
  3
INDEXCTL
350
4A879
  3
LAYEREVAL
350
4A6D4
  3
LAYERNOTIFY
350
4A6D5
  3
LIGHTINGUNITS
350
4A6D3
  3
MSLTSCALE
350
4A6D1
  3
PROJECTNAME
350
31CE
  3
SORTENTS
350
4A878
  3
XCLIPFRAME
350
5A559
  0
DICTIONARY
  5
349E9
102
{ACAD_REACTORS
330
C
102
}
330
C
100
AcDbDictionary
281
     1
  3
ASEBlockHierarchyIndexRecord
350
349EA
1001
DCO15
1040
1842496176.844
  0
XRECORD
  5
88866
102
{ACAD_REACTORS
330
C
102
}
330
C
100
AcDbXrecord
280
     1
  1
DWGPROPS COOKIE
  2

  3

  4

  6

  7

  8
zhangnw
  9

300
=
301
=
302
=
303
=
304
=
305
=
306
=
307
=
308
=
309
=
 40
0.0
 41
2455489.391063368
 42
2458948.458575694
  1

 90
        0
  0
XRECORD
  5
8886C
102
{ACAD_REACTORS
330
8831E
102
}
330
8831E
100
AcDbXrecord
280
     1
102
VTR_0.000_0.000_1.000_1.000_VISUALSTYLE
340
4A392
102
VTR_0.000_0.000_1.000_1.000_GRIDDISPLAY
 70
     3
102
VTR_0.000_0.000_1.000_1.000_GRIDMAJOR
 70
     5
102
VTR_0.000_0.000_1.000_1.000_DEFAULTLIGHTING
280
     1
102
VTR_0.000_0.000_1.000_1.000_DEFAULTLIGHTINGTYPE
 70
     1
102
VTR_0.000_0.000_1.000_1.000_BRIGHTNESS
141
0.0
102
VTR_0.000_0.000_1.000_1.000_CONTRAST
142
0.0
  0
DICTIONARY
  5
4A339
102
{ACAD_REACTORS
330
E2
102
}
330
E2
100
AcDbDictionary
281
     1
  0
DICTIONARY
  5
3759A
102
{ACAD_REACTORS
330
E2
102
}
330
E2
100
AcDbDictionary
281
     1
  0
DICTIONARY
  5
4A338
102
{ACAD_REACTORS
330
E2
102
}
330
E2
100
AcDbDictionary
281
     1
1001
ACAD
1000
<All
  0
XRECORD
  5
4A86D
102
{ACAD_REACTORS
330
4A86C
102
}
330
4A86C
100
AcDbXrecord
280
     1
290
     1
  0
XRECORD
  5
4A86E
102
{ACAD_REACTORS
330
4A773
102
}
330
4A773
100
AcDbXrecord
280
     1
290
     1
  0
XRECORD
  5
4A86F
102
{ACAD_REACTORS
330
4A775
102
}
330
4A775
100
AcDbXrecord
280
     1
290
     1
  0
XRECORD
  5
4A870
102
{ACAD_REACTORS
330
4A777
102
}
330
4A777
100
AcDbXrecord
280
     1
290
     1
  0
XRECORD
  5
4A871
102
{ACAD_REACTORS
330
4A779
102
}
330
4A779
100
AcDbXrecord
280
     1
290
     1
  0
XRECORD
  5
4A872
102
{ACAD_REACTORS
330
4A77B
102
}
330
4A77B
100
AcDbXrecord
280
     1
290
     1
  0
XRECORD
  5
4A874
102
{ACAD_REACTORS
330
4A77F
102
}
330
4A77F
100
AcDbXrecord
280
     1
290
     1
  0
XRECORD
  5
4A876
102
{ACAD_REACTORS
330
4A783
102
}
330
4A783
100
AcDbXrecord
280
     1
290
     1
  0
XRECORD
  5
8886B
102
{ACAD_REACTORS
330
8831C
102
}
330
8831C
100
AcDbXrecord
280
     1
102
MATERIAL
340
4A384
  0
SORTENTSTABLE
  5
31EF
102
{ACAD_REACTORS
330
31EE
102
}
330
31EE
100
AcDbSortentsTable
330
1F
  0
SORTENTSTABLE
  5
4A6D8
102
{ACAD_REACTORS
330
4A6D7
102
}
330
4A6D7
100
AcDbSortentsTable
330
4A6D6
  0
XRECORD
  5
88869
102
{ACAD_REACTORS
330
87699
102
}
330
87699
100
AcDbXrecord
280
     1
102
GRIDDISPLAY
 70
     0
102
GRIDMAJOR
 70
     5
102
DEFAULTLIGHTING
280
     1
102
DEFAULTLIGHTINGTYPE
 70
     1
102
BRIGHTNESS
141
0.0
102
CONTRAST
142
0.0
  0
XRECORD
  5
8886A
102
{ACAD_REACTORS
330
8769B
102
}
330
8769B
100
AcDbXrecord
280
     1
102
GRIDDISPLAY
 70
     0
102
GRIDMAJOR
 70
     5
102
DEFAULTLIGHTING
280
     1
102
DEFAULTLIGHTINGTYPE
 70
     1
102
BRIGHTNESS
141
0.0
102
CONTRAST
142
0.0
  0
DIMASSOC
  5
8861A
102
{ACAD_REACTORS
330
88619
102
}
330
88619
100
AcDbDimAssoc
330
88618
 90
        1
 70
     0
 71
     0
  1
AcDbOsnapPointRef
 72
     1
331
88596
 73
     2
 91
        0
 40
3.141592653589792
 10
0.0
 20
0.0
 30
1.999999999999998E+50
 75
     0
  0
DIMASSOC
  5
88621
102
{ACAD_REACTORS
330
88620
102
}
330
88620
100
AcDbDimAssoc
330
8861F
 90
        3
 70
     0
 71
     0
  1
AcDbOsnapPointRef
 72
    13
331
8858F
 73
     2
 91
        0
 40
3.141592653589792
 10
0.0
 20
0.0
 30
1.999999999999998E+50
 75
     0
  1
AcDbOsnapPointRef
 72
     1
331
8860B
 73
     2
 91
        0
 40
1.0
 10
0.0
 20
0.0
 30
1.999999999999998E+50
 75
     0
  0
DIMASSOC
  5
88624
102
{ACAD_REACTORS
330
88623
102
}
330
88623
100
AcDbDimAssoc
330
88622
 90
        3
 70
     0
 71
     0
  1
AcDbOsnapPointRef
 72
    13
331
8858E
 73
     2
 91
        0
 40
1.570796326794896
 10
0.0
 20
0.0
 30
1.999999999999998E+50
 75
     0
  1
AcDbOsnapPointRef
 72
     1
331
8858F
 73
     2
 91
        0
 40
4.712388980384688
 10
0.0
 20
0.0
 30
1.999999999999998E+50
 75
     0
  0
DIMASSOC
  5
88627
102
{ACAD_REACTORS
330
88626
102
}
330
88626
100
AcDbDimAssoc
330
88625
 90
        3
 70
     0
 71
     0
  1
AcDbOsnapPointRef
 72
    13
331
88579
 73
     2
 91
        0
 40
0.0
 10
0.0
 20
0.0
 30
1.999999999999998E+50
 75
     0
  1
AcDbOsnapPointRef
 72
    13
331
88608
 73
     2
 91
        0
 40
0.0
 10
0.0
 20
0.0
 30
1.999999999999998E+50
 75
     0
  0
DIMASSOC
  5
8868B
102
{ACAD_REACTORS
330
8868A
102
}
330
8868A
100
AcDbDimAssoc
330
88689
 90
        2
 70
     0
 71
     0
  1
AcDbOsnapPointRef
 72
     3
331
88688
 73
     2
 91
        0
 40
0.0
 10
0.0
 20
0.0
 30
0.0
 75
     0
  0
XRECORD
  5
88867
102
{ACAD_REACTORS
330
8769D
102
}
330
8769D
100
AcDbXrecord
280
     1
102
GRIDDISPLAY
 70
     0
102
GRIDMAJOR
 70
     5
102
DEFAULTLIGHTING
280
     1
102
DEFAULTLIGHTINGTYPE
 70
     1
102
BRIGHTNESS
141
0.0
102
CONTRAST
142
0.0
  0
XRECORD
  5
88868
102
{ACAD_REACTORS
330
8769F
102
}
330
8769F
100
AcDbXrecord
280
     1
102
GRIDDISPLAY
 70
     0
102
GRIDMAJOR
 70
     5
102
DEFAULTLIGHTING
280
     1
102
DEFAULTLIGHTINGTYPE
 70
     1
102
BRIGHTNESS
141
0.0
102
CONTRAST
142
0.0
  0
ACDBDETAILVIEWSTYLE
  5
4A3BC
102
{ACAD_XDICTIONARY
360
876D4
102
}
102
{ACAD_REACTORS
330
4A3BB
102
}
330
4A3BB
100
AcDbModelDocViewStyle
 70
     0
  3
Metric50
290
     0
100
AcDbDetailViewStyle
 70
     0
 71
     0
 90
        3
 71
     1
340
11
 40
5.0
340
0
 40
5.0
300

 40
0.0
280
     1
 71
     2
340
16
 90
       25
 71
     3
340
11
 40
5.0
 90
        0
 40
15.0
 90
        1
300
%<\AcVar ViewDetailId>% (%<\AcVar ViewScale \f "%sn">%)
 71
     4
340
16
 90
       25
340
16
 90
       25
280
     0
  0
LAYOUT
  5
22
102
{ACAD_REACTORS
330
1A
102
}
330
1A
100
AcDbPlotSettings
  1

  2
none_device
  4
ANSI_A_(8.50_x_11.00_Inches)
  6

 40
6.349999904632567
 41
19.04999923706055
 42
6.350006103515625
 43
19.04998779296875
 44
215.8999938964844
 45
279.3999938964844
 46
0.0
 47
0.0
 48
0.0
 49
0.0
140
0.0
141
0.0
142
1.0
143
78.436453180766
 70
 11952
 72
     0
 73
     1
 74
     0
  7

 75
     0
147
0.0127491741332998
148
0.0
149
0.0
100
AcDbLayout
  1
Model
 70
     1
 71
     0
 10
0.0
 20
0.0
 11
12.0
 21
9.0
 12
0.0
 22
0.0
 32
0.0
 14
0.0
 24
0.0
 34
0.0
 15
0.0
 25
0.0
 35
0.0
146
0.0
 13
0.0
 23
0.0
 33
0.0
 16
1.0
 26
0.0
 36
0.0
 17
0.0
 27
1.0
 37
0.0
 76
     0
330
1F
331
4A360
  0
LAYOUT
  5
51
102
{ACAD_REACTORS
330
1A
102
}
330
1A
100
AcDbPlotSettings
  1

  2
none_device
  4
Letter_(8.50_x_11.00_Inches)
  6

 40
6.349999904632567
 41
6.349999904632567
 42
6.350006103515625
 43
6.350006103515625
 44
215.8999938964844
 45
279.3999938964844
 46
0.0
 47
0.0
 48
0.0
 49
0.0
140
0.0
141
0.0
142
1.0
143
1.0
 70
   688
 72
     1
 73
     1
 74
     5
  7

 75
    16
147
1.0
148
0.0
149
0.0
100
AcDbLayout
  1
レイアウト1
 70
     1
 71
     1
 10
-6.350006103515625
 20
-6.349999904632567
 11
273.0499877929688
 21
209.5499939918518
 12
0.0
 22
0.0
 32
0.0
 14
26.66999878883364
 24
20.31999878883365
 34
0.0
 15
240.0299890995025
 25
182.8799890995025
 35
0.0
146
0.0
 13
0.0
 23
0.0
 33
0.0
 16
1.0
 26
0.0
 36
0.0
 17
0.0
 27
1.0
 37
0.0
 76
     0
330
50
331
6B
  0
LAYOUT
  5
56
102
{ACAD_REACTORS
330
1A
102
}
330
1A
100
AcDbPlotSettings
  1

  2
none_device
  4
Letter_(8.50_x_11.00_Inches)
  6

 40
6.349999904632567
 41
6.349999904632567
 42
6.350006103515625
 43
6.350006103515625
 44
215.8999938964844
 45
279.3999938964844
 46
0.0
 47
0.0
 48
0.0
 49
0.0
140
0.0
141
0.0
142
1.0
143
1.0
 70
   688
 72
     1
 73
     1
 74
     5
  7

 75
    16
147
1.0
148
0.0
149
0.0
100
AcDbLayout
  1
レイアウト2
 70
     1
 71
     2
 10
-6.350006103515625
 20
-6.349999904632567
 11
273.0499877929688
 21
209.5499939918518
 12
0.0
 22
0.0
 32
0.0
 14
26.66999878883364
 24
20.31999878883365
 34
0.0
 15
240.0299890995025
 25
182.8799890995025
 35
0.0
146
0.0
 13
0.0
 23
0.0
 33
0.0
 16
1.0
 26
0.0
 36
0.0
 17
0.0
 27
1.0
 37
0.0
 76
     0
330
55
331
71
  0
MATERIAL
  5
4A37C
102
{ACAD_XDICTIONARY
360
4A37D
102
}
102
{ACAD_REACTORS
330
84
102
}
330
84
100
AcDbMaterial
  1
ByBlock
 72
     0
 73
     2
 43
0.0008202099737533
 43
0.0
 43
0.0
 43
0.0
 43
0.0
 43
0.0008202099737533
 43
0.0
 43
0.0
 43
0.0
 43
0.0
 43
1.0
 43
0.0
 43
0.0
 43
0.0
 43
0.0
 43
1.0
 77
     0
 78
     2
 47
0.0008202099737533
 47
0.0
 47
0.0
 47
0.0
 47
0.0
 47
0.0008202099737533
 47
0.0
 47
0.0
 47
0.0
 47
0.0
 47
1.0
 47
0.0
 47
0.0
 47
0.0
 47
0.0
 47
1.0
171
     0
172
     2
 49
0.0008202099737533
 49
0.0
 49
0.0
 49
0.0
 49
0.0
 49
0.0008202099737533
 49
0.0
 49
0.0
 49
0.0
 49
0.0
 49
1.0
 49
0.0
 49
0.0
 49
0.0
 49
0.0
 49
1.0
175
     0
176
     2
142
0.0008202099737533
142
0.0
142
0.0
142
0.0
142
0.0
142
0.0008202099737533
142
0.0
142
0.0
142
0.0
142
0.0
142
1.0
142
0.0
142
0.0
142
0.0
142
0.0
142
1.0
179
     0
270
     2
144
0.0008202099737533
144
0.0
144
0.0
144
0.0
144
0.0
144
0.0008202099737533
144
0.0
144
0.0
144
0.0
144
0.0
144
1.0
144
0.0
144
0.0
144
0.0
144
0.0
144
1.0
274
     2
147
0.0008202099737533
147
0.0
147
0.0
147
0.0
147
0.0
147
0.0008202099737533
147
0.0
147
0.0
147
0.0
147
0.0
147
1.0
147
0.0
147
0.0
147
0.0
147
0.0
147
1.0
  0
MATERIAL
  5
4A374
102
{ACAD_XDICTIONARY
360
4A375
102
}
102
{ACAD_REACTORS
330
84
102
}
330
84
100
AcDbMaterial
  1
ByLayer
 72
     0
 73
     2
 43
0.0008202099737533
 43
0.0
 43
0.0
 43
0.0
 43
0.0
 43
0.0008202099737533
 43
0.0
 43
0.0
 43
0.0
 43
0.0
 43
1.0
 43
0.0
 43
0.0
 43
0.0
 43
0.0
 43
1.0
 77
     0
 78
     2
 47
0.0008202099737533
 47
0.0
 47
0.0
 47
0.0
 47
0.0
 47
0.0008202099737533
 47
0.0
 47
0.0
 47
0.0
 47
0.0
 47
1.0
 47
0.0
 47
0.0
 47
0.0
 47
0.0
 47
1.0
171
     0
172
     2
 49
0.0008202099737533
 49
0.0
 49
0.0
 49
0.0
 49
0.0
 49
0.0008202099737533
 49
0.0
 49
0.0
 49
0.0
 49
0.0
 49
1.0
 49
0.0
 49
0.0
 49
0.0
 49
0.0
 49
1.0
175
     0
176
     2
142
0.0008202099737533
142
0.0
142
0.0
142
0.0
142
0.0
142
0.0008202099737533
142
0.0
142
0.0
142
0.0
142
0.0
142
1.0
142
0.0
142
0.0
142
0.0
142
0.0
142
1.0
179
     0
270
     2
144
0.0008202099737533
144
0.0
144
0.0
144
0.0
144
0.0
144
0.0008202099737533
144
0.0
144
0.0
144
0.0
144
0.0
144
1.0
144
0.0
144
0.0
144
0.0
144
0.0
144
1.0
274
     2
147
0.0008202099737533
147
0.0
147
0.0
147
0.0
147
0.0
147
0.0008202099737533
147
0.0
147
0.0
147
0.0
147
0.0
147
1.0
147
0.0
147
0.0
147
0.0
147
0.0
147
1.0
  0
MATERIAL
  5
4A384
102
{ACAD_XDICTIONARY
360
4A385
102
}
102
{ACAD_REACTORS
330
84
102
}
330
84
100
AcDbMaterial
  1
Global
 72
     0
 73
     2
 43
0.0008202099737533
 43
0.0
 43
0.0
 43
0.0
 43
0.0
 43
0.0008202099737533
 43
0.0
 43
0.0
 43
0.0
 43
0.0
 43
1.0
 43
0.0
 43
0.0
 43
0.0
 43
0.0
 43
1.0
 77
     0
 78
     2
 47
0.0008202099737533
 47
0.0
 47
0.0
 47
0.0
 47
0.0
 47
0.0008202099737533
 47
0.0
 47
0.0
 47
0.0
 47
0.0
 47
1.0
 47
0.0
 47
0.0
 47
0.0
 47
0.0
 47
1.0
171
     0
172
     2
 49
0.0008202099737533
 49
0.0
 49
0.0
 49
0.0
 49
0.0
 49
0.0008202099737533
 49
0.0
 49
0.0
 49
0.0
 49
0.0
 49
1.0
 49
0.0
 49
0.0
 49
0.0
 49
0.0
 49
1.0
175
     0
176
     2
142
0.0008202099737533
142
0.0
142
0.0
142
0.0
142
0.0
142
0.0008202099737533
142
0.0
142
0.0
142
0.0
142
0.0
142
1.0
142
0.0
142
0.0
142
0.0
142
0.0
142
1.0
179
     0
270
     2
144
0.0008202099737533
144
0.0
144
0.0
144
0.0
144
0.0
144
0.0008202099737533
144
0.0
144
0.0
144
0.0
144
0.0
144
1.0
144
0.0
144
0.0
144
0.0
144
0.0
144
1.0
274
     2
147
0.0008202099737533
147
0.0
147
0.0
147
0.0
147
0.0
147
0.0008202099737533
147
0.0
147
0.0
147
0.0
147
0.0
147
1.0
147
0.0
147
0.0
147
0.0
147
0.0
147
1.0
  0
MLEADERSTYLE
  5
4A3B8
102
{ACAD_XDICTIONARY
360
88323
102
}
102
{ACAD_REACTORS
330
4A3B7
102
}
330
4A3B7
100
AcDbMLeaderStyle
170
     2
171
     1
172
     0
 90
        2
 40
0.0
 41
0.0
173
     1
 91
-1056964608
340
14
 92
       -2
290
     1
 42
2.0
291
     1
 43
0.36
  3
Standard
 44
4.0
300

342
11
174
     1
178
     6
175
     1
176
     0
 93
-1056964608
 45
4.0
292
     0
297
     0
 46
4.0
 94
-1056964608
 47
1.0
 49
1.0
140
1.0
293
     1
141
0.0
294
     1
177
     0
142
1.0
295
     0
296
     0
143
0.125
1001
ACAD_MLEADERVER
1070
     2
  0
MLINESTYLE
  5
18
102
{ACAD_REACTORS
330
17
102
}
330
17
100
AcDbMlineStyle
  2
STANDARD
 70
     0
  3

 62
   256
 51
90.0
 52
90.0
 71
     2
 49
0.5
 62
   256
  6
BYLAYER
 49
-0.5
 62
   256
  6
BYLAYER
  0
ACDBPLACEHOLDER
  5
F
102
{ACAD_REACTORS
330
E
102
}
330
E
  0
SCALE
  5
4A3A6
102
{ACAD_REACTORS
330
4A3A5
102
}
330
4A3A5
100
AcDbScale
 70
     0
300
1:1
140
1.0
141
1.0
290
     1
  0
SCALE
  5
4A3A7
102
{ACAD_REACTORS
330
4A3A5
102
}
330
4A3A5
100
AcDbScale
 70
     0
300
1:2
140
1.0
141
2.0
290
     0
  0
SCALE
  5
4A3A8
102
{ACAD_REACTORS
330
4A3A5
102
}
330
4A3A5
100
AcDbScale
 70
     0
300
1:4
140
1.0
141
4.0
290
     0
  0
SCALE
  5
4A3A9
102
{ACAD_REACTORS
330
4A3A5
102
}
330
4A3A5
100
AcDbScale
 70
     0
300
1:5
140
1.0
141
5.0
290
     0
  0
SCALE
  5
4A3AA
102
{ACAD_REACTORS
330
4A3A5
102
}
330
4A3A5
100
AcDbScale
 70
     0
300
1:8
140
1.0
141
8.0
290
     0
  0
SCALE
  5
4A3AB
102
{ACAD_REACTORS
330
4A3A5
102
}
330
4A3A5
100
AcDbScale
 70
     0
300
1:10
140
1.0
141
10.0
290
     0
  0
SCALE
  5
4A3AC
102
{ACAD_REACTORS
330
4A3A5
102
}
330
4A3A5
100
AcDbScale
 70
     0
300
1:16
140
1.0
141
16.0
290
     0
  0
SCALE
  5
4A3AD
102
{ACAD_REACTORS
330
4A3A5
102
}
330
4A3A5
100
AcDbScale
 70
     0
300
1:20
140
1.0
141
20.0
290
     0
  0
SCALE
  5
4A3AE
102
{ACAD_REACTORS
330
4A3A5
102
}
330
4A3A5
100
AcDbScale
 70
     0
300
1:30
140
1.0
141
30.0
290
     0
  0
SCALE
  5
4A3AF
102
{ACAD_REACTORS
330
4A3A5
102
}
330
4A3A5
100
AcDbScale
 70
     0
300
1:40
140
1.0
141
40.0
290
     0
  0
SCALE
  5
4A3B0
102
{ACAD_REACTORS
330
4A3A5
102
}
330
4A3A5
100
AcDbScale
 70
     0
300
1:50
140
1.0
141
50.0
290
     0
  0
SCALE
  5
4A3B1
102
{ACAD_REACTORS
330
4A3A5
102
}
330
4A3A5
100
AcDbScale
 70
     0
300
1:100
140
1.0
141
100.0
290
     0
  0
SCALE
  5
4A3B2
102
{ACAD_REACTORS
330
4A3A5
102
}
330
4A3A5
100
AcDbScale
 70
     0
300
2:1
140
2.0
141
1.0
290
     0
  0
SCALE
  5
4A3B3
102
{ACAD_REACTORS
330
4A3A5
102
}
330
4A3A5
100
AcDbScale
 70
     0
300
4:1
140
4.0
141
1.0
290
     0
  0
SCALE
  5
4A3B4
102
{ACAD_REACTORS
330
4A3A5
102
}
330
4A3A5
100
AcDbScale
 70
     0
300
8:1
140
8.0
141
1.0
290
     0
  0
SCALE
  5
4A3B5
102
{ACAD_REACTORS
330
4A3A5
102
}
330
4A3A5
100
AcDbScale
 70
     0
300
10:1
140
10.0
141
1.0
290
     0
  0
SCALE
  5
4A3B6
102
{ACAD_REACTORS
330
4A3A5
102
}
330
4A3A5
100
AcDbScale
 70
     0
300
100:1
140
100.0
141
1.0
290
     0
  0
ACDBSECTIONVIEWSTYLE
  5
4A3BA
102
{ACAD_XDICTIONARY
360
876D2
102
}
102
{ACAD_REACTORS
330
4A3B9
102
}
330
4A3B9
100
AcDbModelDocViewStyle
 70
     0
  3
Metric50
290
     0
100
AcDbSectionViewStyle
 70
     0
 71
     0
 90
      102
 71
     1
340
11
 40
5.0
340
0
340
0
 40
5.0
300
I, O, Q, S, X, Z
 40
10.0
 90
        0
 40
2.5
 90
        0
 71
     2
340
16
 90
       25
340
16
 90
       50
 40
5.0
 40
2.5
 40
5.0
 71
     3
340
11
 40
5.0
 90
        0
 40
15.0
 90
        1
300
%<\AcVar ViewSectionStartId>%-%<\AcVar ViewSectionEndId>% (%<\AcVar ViewScale \f "%sn">%)
 71
     4
300
ANSI31
 40
1.0
 90
        0
290
     0
290
     0
 90
        6
 40
0.0
 40
1.570796326794896
 40
0.2617993877991494
 40
1.308996938995747
 40
-0.2617993877991494
 40
1.832595714594044
  0
TABLESTYLE
  5
A2
102
{ACAD_XDICTIONARY
360
4CD9A
102
}
102
{ACAD_REACTORS
330
A1
102
}
330
A1
100
AcDbTableStyle
  3
Standard
 70
     0
 71
     0
 40
1.5
 41
1.5
280
     0
281
     0
  7
Standard
140
4.5
170
     2
 62
     0
 63
   257
283
     0
274
    -2
284
     1
 64
     0
275
    -2
285
     1
 65
     0
276
    -2
286
     1
 66
     0
277
    -2
287
     1
 67
     0
278
    -2
288
     1
 68
     0
279
    -2
289
     1
 69
     0
  7
Standard
140
6.0
170
     5
 62
     0
 63
   257
283
     0
274
    -2
284
     1
 64
     0
275
    -2
285
     1
 65
     0
276
    -2
286
     1
 66
     0
277
    -2
287
     1
 67
     0
278
    -2
288
     1
 68
     0
279
    -2
289
     1
 69
     0
  7
Standard
140
4.5
170
     5
 62
     0
 63
   257
283
     0
274
    -2
284
     1
 64
     0
275
    -2
285
     1
 65
     0
276
    -2
286
     1
 66
     0
277
    -2
287
     1
 67
     0
278
    -2
288
     1
 68
     0
279
    -2
289
     1
 69
     0
  0
VISUALSTYLE
  5
4A392
102
{ACAD_XDICTIONARY
360
876AC
102
}
102
{ACAD_REACTORS
330
4A38C
102
}
330
4A38C
100
AcDbVisualStyle
  2

 70
     4
 71
     0
 72
     2
 73
     0
 90
        0
 40
-0.6
 41
-30.0
 62
     5
 63
     7
 74
     1
 91
        4
 64
     7
 65
   257
 75
     1
175
     1
 42
1.0
 92
        0
 66
   257
 43
1.0
 76
     1
 77
     6
 78
     2
 67
     7
 79
     5
170
     0
171
     0
290
     0
174
     0
 93
        1
 44
0.0
173
     0
291
     0
 45
0.0
1001
ACAD
1000
AcDbSavedByObjectVersion
1070
     0
  0
VISUALSTYLE
  5
4A391
102
{ACAD_XDICTIONARY
360
876AA
102
}
102
{ACAD_REACTORS
330
4A38C
102
}
330
4A38C
100
AcDbVisualStyle
  2

 70
     7
 71
     1
 72
     0
 73
     1
 90
        0
 40
-0.6
 41
-30.0
 62
     5
 63
     7
 74
     0
 91
        4
 64
     7
 65
   257
 75
     1
175
     1
 42
1.0
 92
        8
 66
     7
 43
1.0
 76
     1
 77
     6
 78
     2
 67
     7
 79
     5
170
     0
171
     0
290
     0
174
     0
 93
        1
 44
0.0
173
     0
291
     1
 45
0.0
1001
ACAD
1000
AcDbSavedByObjectVersion
1070
     0
  0
VISUALSTYLE
  5
4A398
102
{ACAD_XDICTIONARY
360
876B8
102
}
102
{ACAD_REACTORS
330
4A38C
102
}
330
4A38C
100
AcDbVisualStyle
  2

 70
    12
 71
     2
 72
     2
 73
     0
 90
        0
 40
-0.6
 41
-30.0
 62
     5
 63
     7
 74
     1
 91
        4
 64
     7
 65
   257
 75
     1
175
     1
 42
1.0
 92
        8
 66
     7
 43
1.0
 76
     1
 77
     6
 78
     2
 67
     7
 79
     5
170
     0
171
     0
290
     0
174
     0
 93
        1
 44
50.0
173
     0
291
     1
 45
0.0
1001
ACAD
1000
AcDbSavedByObjectVersion
1070
     0
  0
VISUALSTYLE
  5
4A39C
102
{ACAD_XDICTIONARY
360
876C0
102
}
102
{ACAD_REACTORS
330
4A38C
102
}
330
4A38C
100
AcDbVisualStyle
  2

 70
    16
 71
     2
 72
     2
 73
     3
 90
        0
 40
-0.6
 41
-30.0
 62
     5
 63
     8
 74
     1
 91
        4
 64
     7
 65
   257
 75
     1
175
     1
 42
1.0
 92
        8
 66
     8
 43
1.0
 76
     1
 77
     6
 78
     2
 67
     7
 79
     5
170
     0
171
     0
290
     0
174
     0
 93
        1
 44
0.0
173
     0
291
     1
 45
0.0
1001
ACAD
1000
AcDbSavedByObjectVersion
1070
     0
  0
VISUALSTYLE
  5
4A395
102
{ACAD_XDICTIONARY
360
876B2
102
}
102
{ACAD_REACTORS
330
4A38C
102
}
330
4A38C
100
AcDbVisualStyle
  2

 70
     9
 71
     3
 72
     2
 73
     0
 90
        0
 40
-0.6
 41
-30.0
 62
     5
 63
     7
 74
     2
 91
        2
 64
     7
 65
   257
 75
     1
175
     1
 42
179.0
 92
        8
 66
     7
 43
1.0
 76
     1
 77
     6
 78
     2
 67
     7
 79
     3
170
     0
171
     0
290
     0
174
     0
 93
        1
 44
0.0
173
     0
291
     0
 45
0.0
1001
ACAD
1000
AcDbSavedByObjectVersion
1070
     0
  0
VISUALSTYLE
  5
4A397
102
{ACAD_XDICTIONARY
360
876B6
102
}
102
{ACAD_REACTORS
330
4A38C
102
}
330
4A38C
100
AcDbVisualStyle
  2

 70
    11
 71
     2
 72
     2
 73
     0
 90
        0
 40
-0.6
 41
-30.0
 62
     5
 63
     7
 74
     1
 91
        4
 64
     7
 65
   257
 75
     1
175
     1
 42
1.0
 92
        8
 66
     7
 43
1.0
 76
     1
 77
     6
 78
     2
 67
     7
 79
     5
170
     0
171
     0
290
     0
174
     0
 93
        1
 44
-50.0
173
     0
291
     1
 45
0.0
1001
ACAD
1000
AcDbSavedByObjectVersion
1070
     0
  0
VISUALSTYLE
  5
4A3A4
102
{ACAD_XDICTIONARY
360
876D0
102
}
102
{ACAD_REACTORS
330
4A38C
102
}
330
4A38C
100
AcDbVisualStyle
  2

 70
    22
 71
     2
 72
     2
 73
     0
 90
        0
 40
-0.6
 41
-30.0
 62
     5
 63
     7
 74
     1
 91
        4
 64
     7
 65
   257
 75
     1
175
     1
 42
1.0
 92
        8
 66
     7
 43
1.0
 76
     1
 77
     6
 78
     2
 67
     7
 79
     5
170
     0
171
     0
290
     0
174
     0
 93
        1
 44
0.0
173
     0
291
     1
 45
0.0
1001
ACAD
1000
AcDbSavedByObjectVersion
1070
     0
  0
VISUALSTYLE
  5
4A39B
102
{ACAD_XDICTIONARY
360
876BE
102
}
102
{ACAD_REACTORS
330
4A38C
102
}
330
4A38C
100
AcDbVisualStyle
  2

 70
    15
 71
     2
 72
     2
 73
     0
 90
        0
 40
-0.6
 41
-30.0
 62
     5
 63
     7
 74
     1
 91
        4
 64
     7
 65
   257
 75
     1
175
     1
 42
1.0
 92
        8
 66
     7
 43
1.0
 76
     1
 77
     6
 78
     2
 67
     7
 79
     5
170
     0
171
     0
290
     0
174
     0
 93
        1
 44
0.0
173
     0
291
     1
 45
0.0
1001
ACAD
1000
AcDbSavedByObjectVersion
1070
     0
  0
VISUALSTYLE
  5
4A38D
102
{ACAD_XDICTIONARY
360
876A2
102
}
102
{ACAD_REACTORS
330
4A38C
102
}
330
4A38C
100
AcDbVisualStyle
  2

 70
     0
 71
     2
 72
     1
 73
     1
 90
        2
 40
-0.6
 41
30.0
 62
     5
 63
     7
 74
     0
 91
        0
 64
     7
 65
   257
 75
     1
175
     1
 42
1.0
 92
        8
 66
     7
 43
1.0
 76
     1
 77
     6
 78
     2
 67
     7
 79
     5
170
     0
171
     0
290
     0
174
     0
 93
       13
 44
0.0
173
     0
291
     1
 45
0.0
1001
ACAD
1000
AcDbSavedByObjectVersion
1070
     0
  0
VISUALSTYLE
  5
4A38E
102
{ACAD_XDICTIONARY
360
876A4
102
}
102
{ACAD_REACTORS
330
4A38C
102
}
330
4A38C
100
AcDbVisualStyle
  2

 70
     1
 71
     2
 72
     1
 73
     1
 90
        2
 40
-0.6
 41
30.0
 62
     5
 63
     7
 74
     1
 91
        0
 64
     7
 65
   257
 75
     1
175
     1
 42
1.0
 92
        0
 66
   257
 43
1.0
 76
     1
 77
     6
 78
     2
 67
     7
 79
     5
170
     0
171
     0
290
     0
174
     0
 93
       13
 44
0.0
173
     0
291
     1
 45
0.0
1001
ACAD
1000
AcDbSavedByObjectVersion
1070
     0
  0
VISUALSTYLE
  5
4A38F
102
{ACAD_XDICTIONARY
360
876A6
102
}
102
{ACAD_REACTORS
330
4A38C
102
}
330
4A38C
100
AcDbVisualStyle
  2

 70
     2
 71
     2
 72
     2
 73
     1
 90
        2
 40
-0.6
 41
30.0
 62
     5
 63
     7
 74
     0
 91
        0
 64
     7
 65
   257
 75
     1
175
     1
 42
1.0
 92
        0
 66
     7
 43
1.0
 76
     1
 77
     6
 78
     2
 67
     7
 79
     5
170
     0
171
     0
290
     0
174
     0
 93
       13
 44
0.0
173
     0
291
     1
 45
0.0
1001
ACAD
1000
AcDbSavedByObjectVersion
1070
     0
  0
VISUALSTYLE
  5
4A390
102
{ACAD_XDICTIONARY
360
876A8
102
}
102
{ACAD_REACTORS
330
4A38C
102
}
330
4A38C
100
AcDbVisualStyle
  2

 70
     3
 71
     2
 72
     2
 73
     1
 90
        2
 40
-0.6
 41
30.0
 62
     5
 63
     7
 74
     1
 91
        0
 64
     7
 65
   257
 75
     1
175
     1
 42
1.0
 92
        0
 66
   257
 43
1.0
 76
     1
 77
     6
 78
     2
 67
     7
 79
     5
170
     0
171
     0
290
     0
174
     0
 93
       13
 44
0.0
173
     0
291
     1
 45
0.0
1001
ACAD
1000
AcDbSavedByObjectVersion
1070
     0
  0
VISUALSTYLE
  5
4A394
102
{ACAD_XDICTIONARY
360
876B0
102
}
102
{ACAD_REACTORS
330
4A38C
102
}
330
4A38C
100
AcDbVisualStyle
  2

 70
     6
 71
     1
 72
     2
 73
     2
 90
        0
 40
-0.6
 41
-30.0
 62
     5
 63
     7
 74
     2
 91
        2
 64
     7
 65
   257
 75
     2
175
     1
 42
40.0
 92
        0
 66
   257
 43
1.0
 76
     1
 77
     6
 78
     2
 67
     7
 79
     3
170
     0
171
     0
290
     0
174
     0
 93
        1
 44
0.0
173
     0
291
     0
 45
0.0
1001
ACAD
1000
AcDbSavedByObjectVersion
1070
     0
  0
VISUALSTYLE
  5
4A3A2
102
{ACAD_XDICTIONARY
360
876CC
102
}
102
{ACAD_REACTORS
330
4A38C
102
}
330
4A38C
100
AcDbVisualStyle
  2

 70
    20
 71
     2
 72
     2
 73
     0
 90
        0
 40
-0.6
 41
-30.0
 62
     5
 63
     7
 74
     1
 91
        4
 64
     7
 65
   257
 75
     1
175
     1
 42
1.0
 92
       10
 66
     7
 43
1.0
 76
     1
 77
     6
 78
     2
 67
     7
 79
     5
170
     0
171
     0
290
     0
174
     0
 93
        1
 44
0.0
173
     0
291
     1
 45
0.0
1001
ACAD
1000
AcDbSavedByObjectVersion
1070
     0
  0
VISUALSTYLE
  5
4A39A
102
{ACAD_XDICTIONARY
360
876BC
102
}
102
{ACAD_REACTORS
330
4A38C
102
}
330
4A38C
100
AcDbVisualStyle
  2

 70
    14
 71
     2
 72
     2
 73
     0
 90
        0
 40
-0.6
 41
-30.0
 62
     5
 63
     7
 74
     1
 91
        4
 64
     7
 65
   257
 75
     7
175
     7
 42
1.0
 92
        8
 66
     7
 43
1.0
 76
     1
 77
     6
 78
     2
 67
     7
 79
     5
170
     0
171
     0
290
     0
174
     0
 93
        1
 44
0.0
173
     0
291
     1
 45
0.0
1001
ACAD
1000
AcDbSavedByObjectVersion
1070
     0
  0
VISUALSTYLE
  5
4A3A3
102
{ACAD_XDICTIONARY
360
876CE
102
}
102
{ACAD_REACTORS
330
4A38C
102
}
330
4A38C
100
AcDbVisualStyle
  2

 70
    21
 71
     2
 72
     2
 73
     0
 90
        0
 40
-0.6
 41
-30.0
 62
     5
 63
     7
 74
     1
 91
        4
 64
     7
 65
   257
 75
     1
175
     1
 42
1.0
 92
        9
 66
     7
 43
1.0
 76
     1
 77
     6
 78
     2
 67
     7
 79
     5
170
     0
171
     0
290
     0
174
     0
 93
        1
 44
0.0
173
     0
291
     1
 45
0.0
1001
ACAD
1000
AcDbSavedByObjectVersion
1070
     0
  0
VISUALSTYLE
  5
4A396
102
{ACAD_XDICTIONARY
360
876B4
102
}
102
{ACAD_REACTORS
330
4A38C
102
}
330
4A38C
100
AcDbVisualStyle
  2

 70
     8
 71
     2
 72
     3
 73
     0
 90
        2
 40
-0.6
 41
30.0
 62
     5
 63
     7
 74
     0
 91
        0
 64
     7
 65
   257
 75
     1
175
     1
 42
1.0
 92
        8
 66
   257
 43
1.0
 76
     1
 77
     6
 78
     2
 67
     7
 79
     3
170
     0
171
     0
290
     0
174
     0
 93
       13
 44
0.0
173
     0
291
     0
 45
0.0
1001
ACAD
1000
AcDbSavedByObjectVersion
1070
     0
  0
VISUALSTYLE
  5
4A3A1
102
{ACAD_XDICTIONARY
360
876CA
102
}
102
{ACAD_REACTORS
330
4A38C
102
}
330
4A38C
100
AcDbVisualStyle
  2

 70
    27
 71
     2
 72
     2
 73
     1
 90
        2
 40
-0.6
 41
30.0
 62
     5
 63
     7
 74
     0
 91
        4
 64
     7
 65
   257
 75
     1
175
     1
 42
1.0
 92
        8
 66
   257
 43
1.0
 76
     1
 77
     6
 78
     2
 67
     8
 79
     3
170
     0
171
     0
290
     0
174
     0
 93
        5
 44
0.0
173
     0
291
     0
 45
0.0
1001
ACAD
1000
AcDbSavedByObjectVersion
1070
     0
  0
VISUALSTYLE
  5
4A3A0
102
{ACAD_XDICTIONARY
360
876C8
102
}
102
{ACAD_REACTORS
330
4A38C
102
}
330
4A38C
100
AcDbVisualStyle
  2

 70
    26
 71
     2
 72
     2
 73
     1
 90
        2
 40
-0.6
 41
30.0
 62
     5
 63
     7
 74
     1
 91
        2
 64
     7
 65
   257
 75
     2
175
     1
 42
1.0
 92
        8
 66
   257
 43
1.0
 76
     1
 77
     6
 78
     2
 67
     7
 79
     3
170
     0
171
     0
290
     0
174
     0
 93
        5
 44
0.0
173
     0
291
     0
 45
0.0
1001
ACAD
1000
AcDbSavedByObjectVersion
1070
     0
  0
VISUALSTYLE
  5
4A39D
102
{ACAD_XDICTIONARY
360
876C2
102
}
102
{ACAD_REACTORS
330
4A38C
102
}
330
4A38C
100
AcDbVisualStyle
  2

 70
    23
 71
     2
 72
     2
 73
     3
 90
        0
 40
-0.6
 41
-30.0
 62
     5
 63
     7
 74
     2
 91
        2
 64
     7
 65
     7
 75
     1
175
     1
 42
40.0
 92
        8
 66
     7
 43
1.0
 76
     1
 77
     6
 78
     2
 67
     7
 79
     3
170
     0
171
     0
290
     0
174
     0
 93
        1
 44
0.0
173
     0
291
     0
 45
0.0
1001
ACAD
1000
AcDbSavedByObjectVersion
1070
     0
  0
VISUALSTYLE
  5
4A39E
102
{ACAD_XDICTIONARY
360
876C4
102
}
102
{ACAD_REACTORS
330
4A38C
102
}
330
4A38C
100
AcDbVisualStyle
  2

 70
    24
 71
     1
 72
     2
 73
     2
 90
        0
 40
-0.6
 41
-30.0
 62
     5
 63
     7
 74
     2
 91
        2
 64
     7
 65
     7
 75
     1
175
     1
 42
40.0
 92
       11
 66
     7
 43
1.0
 76
     1
 77
     6
 78
     2
 67
     7
 79
     6
170
     0
171
     0
290
     0
174
     0
 93
        1
 44
0.0
173
     0
291
     0
 45
0.0
1001
ACAD
1000
AcDbSavedByObjectVersion
1070
     0
  0
VISUALSTYLE
  5
4A399
102
{ACAD_XDICTIONARY
360
876BA
102
}
102
{ACAD_REACTORS
330
4A38C
102
}
330
4A38C
100
AcDbVisualStyle
  2

 70
    13
 71
     2
 72
     2
 73
     0
 90
        0
 40
-0.6
 41
-30.0
 62
     5
 63
     7
 74
     1
 91
        4
 64
     7
 65
   257
 75
     1
175
     1
 42
1.0
 92
       12
 66
     7
 43
1.0
 76
     1
 77
     6
 78
     2
 67
     7
 79
     5
170
     0
171
     0
290
     0
174
     0
 93
        1
 44
0.0
173
     0
291
     1
 45
0.0
1001
ACAD
1000
AcDbSavedByObjectVersion
1070
     0
  0
VISUALSTYLE
  5
4A393
102
{ACAD_XDICTIONARY
360
876AE
102
}
102
{ACAD_REACTORS
330
4A38C
102
}
330
4A38C
100
AcDbVisualStyle
  2

 70
     5
 71
     0
 72
     2
 73
     0
 90
        0
 40
-0.6
 41
-30.0
 62
     5
 63
     7
 74
     1
 91
        4
 64
     7
 65
   257
 75
     1
175
     1
 42
1.0
 92
        0
 66
   257
 43
1.0
 76
     1
 77
     6
 78
     2
 67
     7
 79
     3
170
     0
171
     0
290
     0
174
     0
 93
        1
 44
0.0
173
     0
291
     0
 45
0.0
1001
ACAD
1000
AcDbSavedByObjectVersion
1070
     0
  0
VISUALSTYLE
  5
4A39F
102
{ACAD_XDICTIONARY
360
876C6
102
}
102
{ACAD_REACTORS
330
4A38C
102
}
330
4A38C
100
AcDbVisualStyle
  2

 70
    25
 71
     2
 72
     2
 73
     1
 90
        1
 40
0.5
 41
-30.0
 62
     5
 63
     7
 74
     1
 91
        0
 64
     7
 65
   257
 75
     1
175
     1
 42
1.0
 92
        8
 66
     7
 43
1.0
 76
     1
 77
     6
 78
     2
 67
     7
 79
     3
170
     0
171
     0
290
     0
174
     0
 93
       13
 44
0.0
173
     0
291
     0
 45
0.0
1001
ACAD
1000
AcDbSavedByObjectVersion
1070
     0
  0
XRECORD
  5
88864
102
{ACAD_REACTORS
330
88863
102
}
330
88863
100
AcDbXrecord
280
     1
340
85
  0
XRECORD
  5
88865
102
{ACAD_REACTORS
330
88863
102
}
330
88863
100
AcDbXrecord
280
     1
340
84
  0
DICTIONARYVAR
  5
88862
102
{ACAD_REACTORS
330
5E
102
}
330
5E
100
DictionaryVariables
280
   100
  1
1:1
  0
DICTIONARYVAR
  5
4A6CE
102
{ACAD_REACTORS
330
5E
102
}
330
5E
100
DictionaryVariables
280
     0
  1
STANDARD
  0
DICTIONARYVAR
  5
B8
102
{ACAD_REACTORS
330
5E
102
}
330
5E
100
DictionaryVariables
280
     0
  1
STANDARD
  0
DICTIONARYVAR
  5
4A6CF
102
{ACAD_REACTORS
330
5E
102
}
330
5E
100
DictionaryVariables
280
     0
  1
Metric50
  0
DICTIONARYVAR
  5
4A6D0
102
{ACAD_REACTORS
330
5E
102
}
330
5E
100
DictionaryVariables
280
     0
  1
Metric50
  0
DICTIONARYVAR
  5
5F
102
{ACAD_REACTORS
330
5E
102
}
330
5E
100
DictionaryVariables
280
     0
  1
2
  0
DICTIONARYVAR
  5
63
102
{ACAD_REACTORS
330
5E
102
}
330
5E
100
DictionaryVariables
280
     0
  1
1
  0
DICTIONARYVAR
  5
4A879
102
{ACAD_REACTORS
330
5E
102
}
330
5E
100
DictionaryVariables
280
     0
  1
0
  0
DICTIONARYVAR
  5
4A6D4
102
{ACAD_REACTORS
330
5E
102
}
330
5E
100
DictionaryVariables
280
     0
  1
1
  0
DICTIONARYVAR
  5
4A6D5
102
{ACAD_REACTORS
330
5E
102
}
330
5E
100
DictionaryVariables
280
     0
  1
15
  0
DICTIONARYVAR
  5
4A6D3
102
{ACAD_REACTORS
330
5E
102
}
330
5E
100
DictionaryVariables
280
     0
  1
0
  0
DICTIONARYVAR
  5
4A6D1
102
{ACAD_REACTORS
330
5E
102
}
330
5E
100
DictionaryVariables
280
     0
  1
0
  0
DICTIONARYVAR
  5
31CE
102
{ACAD_REACTORS
330
5E
102
}
330
5E
100
DictionaryVariables
280
     0
  1

  0
DICTIONARYVAR
  5
4A878
102
{ACAD_REACTORS
330
5E
102
}
330
5E
100
DictionaryVariables
280
     0
  1
127
  0
DICTIONARYVAR
  5
5A559
102
{ACAD_REACTORS
330
5E
102
}
330
5E
100
DictionaryVariables
280
     0
  1
2
  0
XRECORD
  5
349EA
102
{ACAD_REACTORS
330
349E9
102
}
330
349E9
100
AcDbXrecord
280
     1
330
0
330
0
330
0
330
0
330
0
330
0
330
0
330
0
330
0
330
0
330
0
330
0
330
0
330
0
330
0
330
0
330
0
330
0
330
0
330
0
330
0
330
0
330
0
330
0
330
0
330
0
330
0
330
0
330
0
330
0
330
0
330
0
330
0
330
0
330
0
330
0
330
0
330
0
330
0
330
0
330
0
330
0
330
0
330
0
330
0
330
0
330
0
330
0
330
0
330
0
330
0
330
0
330
0
330
0
330
0
330
0
330
0
330
0
330
0
330
0
330
0
330
0
330
0
330
0
330
0
330
0
330
0
330
0
330
0
330
0
330
0
330
0
330
0
330
0
330
0
330
0
330
0
330
0
330
0
330
0
330
0
330
0
330
0
330
0
330
0
330
0
330
0
330
0
330
0
330
0
330
0
330
0
330
0
330
0
330
0
330
0
330
0
330
0
330
0
330
0
330
0
330
0
330
0
330
0
330
0
330
0
330
0
330
0
330
0
330
0
  0
DICTIONARY
  5
876D4
330
4A3BC
100
AcDbDictionary
280
     1
281
     1
  3
ACAD_XREC_ROUNDTRIP
360
876D5
  0
DICTIONARY
  5
4A37D
330
4A37C
100
AcDbDictionary
280
     1
281
     1
  3
ACAD_XREC_ROUNDTRIP
360
8886D
  0
DICTIONARY
  5
4A375
330
4A374
100
AcDbDictionary
280
     1
281
     1
  3
ACAD_XREC_ROUNDTRIP
360
8886E
  0
DICTIONARY
  5
4A385
330
4A384
100
AcDbDictionary
280
     1
281
     1
  3
ACAD_XREC_ROUNDTRIP
360
8886F
  0
DICTIONARY
  5
88323
330
4A3B8
100
AcDbDictionary
280
     1
281
     1
  3
ACAD_XREC_ROUNDTRIP
360
88870
  0
DICTIONARY
  5
876D2
330
4A3BA
100
AcDbDictionary
280
     1
281
     1
  3
ACAD_XREC_ROUNDTRIP
360
876D3
  0
DICTIONARY
  5
4CD9A
330
A2
100
AcDbDictionary
280
     1
281
     1
  3
ACAD_ROUNDTRIP_2008_TABLESTYLE_CELLSTYLEMAP
360
88872
  3
ACAD_XREC_ROUNDTRIP
360
88871
  0
DICTIONARY
  5
876AC
330
4A392
100
AcDbDictionary
280
     1
281
     1
  3
ACAD_XREC_ROUNDTRIP
360
88873
  0
DICTIONARY
  5
876AA
330
4A391
100
AcDbDictionary
280
     1
281
     1
  3
ACAD_XREC_ROUNDTRIP
360
88874
  0
DICTIONARY
  5
876B8
330
4A398
100
AcDbDictionary
280
     1
281
     1
  3
ACAD_XREC_ROUNDTRIP
360
88875
  0
DICTIONARY
  5
876C0
330
4A39C
100
AcDbDictionary
280
     1
281
     1
  3
ACAD_XREC_ROUNDTRIP
360
88876
  0
DICTIONARY
  5
876B2
330
4A395
100
AcDbDictionary
280
     1
281
     1
  3
ACAD_XREC_ROUNDTRIP
360
88877
  0
DICTIONARY
  5
876B6
330
4A397
100
AcDbDictionary
280
     1
281
     1
  3
ACAD_XREC_ROUNDTRIP
360
88878
  0
DICTIONARY
  5
876D0
330
4A3A4
100
AcDbDictionary
280
     1
281
     1
  3
ACAD_XREC_ROUNDTRIP
360
88879
  0
DICTIONARY
  5
876BE
330
4A39B
100
AcDbDictionary
280
     1
281
     1
  3
ACAD_XREC_ROUNDTRIP
360
8887A
  0
DICTIONARY
  5
876A2
330
4A38D
100
AcDbDictionary
280
     1
281
     1
  3
ACAD_XREC_ROUNDTRIP
360
8887B
  0
DICTIONARY
  5
876A4
330
4A38E
100
AcDbDictionary
280
     1
281
     1
  3
ACAD_XREC_ROUNDTRIP
360
8887C
  0
DICTIONARY
  5
876A6
330
4A38F
100
AcDbDictionary
280
     1
281
     1
  3
ACAD_XREC_ROUNDTRIP
360
8887D
  0
DICTIONARY
  5
876A8
330
4A390
100
AcDbDictionary
280
     1
281
     1
  3
ACAD_XREC_ROUNDTRIP
360
8887E
  0
DICTIONARY
  5
876B0
330
4A394
100
AcDbDictionary
280
     1
281
     1
  3
ACAD_XREC_ROUNDTRIP
360
8887F
  0
DICTIONARY
  5
876CC
330
4A3A2
100
AcDbDictionary
280
     1
281
     1
  3
ACAD_XREC_ROUNDTRIP
360
88880
  0
DICTIONARY
  5
876BC
330
4A39A
100
AcDbDictionary
280
     1
281
     1
  3
ACAD_XREC_ROUNDTRIP
360
88881
  0
DICTIONARY
  5
876CE
330
4A3A3
100
AcDbDictionary
280
     1
281
     1
  3
ACAD_XREC_ROUNDTRIP
360
88882
  0
DICTIONARY
  5
876B4
330
4A396
100
AcDbDictionary
280
     1
281
     1
  3
ACAD_XREC_ROUNDTRIP
360
88883
  0
DICTIONARY
  5
876CA
330
4A3A1
100
AcDbDictionary
280
     1
281
     1
  3
ACAD_XREC_ROUNDTRIP
360
88884
  0
DICTIONARY
  5
876C8
330
4A3A0
100
AcDbDictionary
280
     1
281
     1
  3
ACAD_XREC_ROUNDTRIP
360
88885
  0
DICTIONARY
  5
876C2
330
4A39D
100
AcDbDictionary
280
     1
281
     1
  3
ACAD_XREC_ROUNDTRIP
360
88886
  0
DICTIONARY
  5
876C4
330
4A39E
100
AcDbDictionary
280
     1
281
     1
  3
ACAD_XREC_ROUNDTRIP
360
88887
  0
DICTIONARY
  5
876BA
330
4A399
100
AcDbDictionary
280
     1
281
     1
  3
ACAD_XREC_ROUNDTRIP
360
88888
  0
DICTIONARY
  5
876AE
330
4A393
100
AcDbDictionary
280
     1
281
     1
  3
ACAD_XREC_ROUNDTRIP
360
88889
  0
DICTIONARY
  5
876C6
330
4A39F
100
AcDbDictionary
280
     1
281
     1
  3
ACAD_XREC_ROUNDTRIP
360
8888A
  0
XRECORD
  5
876D5
102
{ACAD_REACTORS
330
876D4
102
}
330
876D4
100
AcDbXrecord
280
     1
102
DISPLAYNAME
  1
Metric50
102
FLAGS
 90
        0
  0
XRECORD
  5
8886D
102
{ACAD_REACTORS
330
4A37D
102
}
330
4A37D
100
AcDbXrecord
280
     1
102
MATERIAL
148
0.0
149
0.0
149
0.0
 93
        0
 94
      127
282
     0
 72
     0
 77
     0
171
     0
175
     0
179
     0
273
     0
  0
XRECORD
  5
8886E
102
{ACAD_REACTORS
330
4A375
102
}
330
4A375
100
AcDbXrecord
280
     1
102
MATERIAL
148
0.0
149
0.0
149
0.0
 93
        0
 94
      127
282
     0
 72
     0
 77
     0
171
     0
175
     0
179
     0
273
     0
  0
XRECORD
  5
8886F
102
{ACAD_REACTORS
330
4A385
102
}
330
4A385
100
AcDbXrecord
280
     1
102
MATERIAL
148
0.0
149
0.0
149
0.0
 93
        0
 94
      127
282
     0
 72
     0
 77
     0
171
     0
175
     0
179
     0
273
     0
  0
XRECORD
  5
88870
102
{ACAD_REACTORS
330
88323
102
}
330
88323
100
AcDbXrecord
280
     1
102
ACAD_ROUNDTRIP_2010_MLEADER_STYLE
  0
XRECORD
  5
876D3
102
{ACAD_REACTORS
330
876D2
102
}
330
876D2
100
AcDbXrecord
280
     1
102
DISPLAYNAME
  1
Metric50
102
FLAGS
 90
        0
  0
CELLSTYLEMAP
  5
88872
102
{ACAD_REACTORS
330
4CD9A
102
}
330
4CD9A
100
AcDbCellStyleMap
 90
        3
300
CELLSTYLE
  1
TABLEFORMAT_BEGIN
 90
        5
170
     1
 91
        0
 92
    32768
 62
   257
 93
        1
300
CONTENTFORMAT
  1
CONTENTFORMAT_BEGIN
 90
        0
 91
        0
 92
        4
 93
        0
300

 40
0.0
140
1.0
 94
        5
 62
     0
340
11
144
6.0
309
CONTENTFORMAT_END
171
     1
301
MARGIN
  1
CELLMARGIN_BEGIN
 40
1.5
 40
1.5
 40
1.5
 40
1.5
 40
0.18
 40
0.18
309
CELLMARGIN_END
 94
        6
 95
        1
302
GRIDFORMAT
  1
GRIDFORMAT_BEGIN
 90
        0
 91
        1
 62
     0
 92
       -2
340
0
 93
        0
 40
0.045
309
GRIDFORMAT_END
 95
        2
302
GRIDFORMAT
  1
GRIDFORMAT_BEGIN
 90
        0
 91
        1
 62
     0
 92
       -2
340
0
 93
        0
 40
0.045
309
GRIDFORMAT_END
 95
        4
302
GRIDFORMAT
  1
GRIDFORMAT_BEGIN
 90
        0
 91
        1
 62
     0
 92
       -2
340
0
 93
        0
 40
0.045
309
GRIDFORMAT_END
 95
        8
302
GRIDFORMAT
  1
GRIDFORMAT_BEGIN
 90
        0
 91
        1
 62
     0
 92
       -2
340
0
 93
        0
 40
0.045
309
GRIDFORMAT_END
 95
       16
302
GRIDFORMAT
  1
GRIDFORMAT_BEGIN
 90
        0
 91
        1
 62
     0
 92
       -2
340
0
 93
        0
 40
0.045
309
GRIDFORMAT_END
 95
       32
302
GRIDFORMAT
  1
GRIDFORMAT_BEGIN
 90
        0
 91
        1
 62
     0
 92
       -2
340
0
 93
        0
 40
0.045
309
GRIDFORMAT_END
309
TABLEFORMAT_END
  1
CELLSTYLE_BEGIN
 90
        1
 91
        1
300
_TITLE
309
CELLSTYLE_END
300
CELLSTYLE
  1
TABLEFORMAT_BEGIN
 90
        5
170
     1
 91
        0
 92
        0
 62
   257
 93
        1
300
CONTENTFORMAT
  1
CONTENTFORMAT_BEGIN
 90
        0
 91
        0
 92
        4
 93
        0
300

 40
0.0
140
1.0
 94
        5
 62
     0
340
11
144
4.5
309
CONTENTFORMAT_END
171
     1
301
MARGIN
  1
CELLMARGIN_BEGIN
 40
1.5
 40
1.5
 40
1.5
 40
1.5
 40
0.18
 40
0.18
309
CELLMARGIN_END
 94
        6
 95
        1
302
GRIDFORMAT
  1
GRIDFORMAT_BEGIN
 90
        0
 91
        1
 62
     0
 92
       -2
340
0
 93
        0
 40
0.045
309
GRIDFORMAT_END
 95
        2
302
GRIDFORMAT
  1
GRIDFORMAT_BEGIN
 90
        0
 91
        1
 62
     0
 92
       -2
340
0
 93
        0
 40
0.045
309
GRIDFORMAT_END
 95
        4
302
GRIDFORMAT
  1
GRIDFORMAT_BEGIN
 90
        0
 91
        1
 62
     0
 92
       -2
340
0
 93
        0
 40
0.045
309
GRIDFORMAT_END
 95
        8
302
GRIDFORMAT
  1
GRIDFORMAT_BEGIN
 90
        0
 91
        1
 62
     0
 92
       -2
340
0
 93
        0
 40
0.045
309
GRIDFORMAT_END
 95
       16
302
GRIDFORMAT
  1
GRIDFORMAT_BEGIN
 90
        0
 91
        1
 62
     0
 92
       -2
340
0
 93
        0
 40
0.045
309
GRIDFORMAT_END
 95
       32
302
GRIDFORMAT
  1
GRIDFORMAT_BEGIN
 90
        0
 91
        1
 62
     0
 92
       -2
340
0
 93
        0
 40
0.045
309
GRIDFORMAT_END
309
TABLEFORMAT_END
  1
CELLSTYLE_BEGIN
 90
        2
 91
        1
300
_HEADER
309
CELLSTYLE_END
300
CELLSTYLE
  1
TABLEFORMAT_BEGIN
 90
        5
170
     1
 91
        0
 92
        0
 62
   257
 93
        1
300
CONTENTFORMAT
  1
CONTENTFORMAT_BEGIN
 90
        0
 91
        0
 92
        4
 93
        0
300

 40
0.0
140
1.0
 94
        2
 62
     0
340
11
144
4.5
309
CONTENTFORMAT_END
171
     1
301
MARGIN
  1
CELLMARGIN_BEGIN
 40
1.5
 40
1.5
 40
1.5
 40
1.5
 40
0.18
 40
0.18
309
CELLMARGIN_END
 94
        6
 95
        1
302
GRIDFORMAT
  1
GRIDFORMAT_BEGIN
 90
        0
 91
        1
 62
     0
 92
       -2
340
0
 93
        0
 40
0.045
309
GRIDFORMAT_END
 95
        2
302
GRIDFORMAT
  1
GRIDFORMAT_BEGIN
 90
        0
 91
        1
 62
     0
 92
       -2
340
0
 93
        0
 40
0.045
309
GRIDFORMAT_END
 95
        4
302
GRIDFORMAT
  1
GRIDFORMAT_BEGIN
 90
        0
 91
        1
 62
     0
 92
       -2
340
0
 93
        0
 40
0.045
309
GRIDFORMAT_END
 95
        8
302
GRIDFORMAT
  1
GRIDFORMAT_BEGIN
 90
        0
 91
        1
 62
     0
 92
       -2
340
0
 93
        0
 40
0.045
309
GRIDFORMAT_END
 95
       16
302
GRIDFORMAT
  1
GRIDFORMAT_BEGIN
 90
        0
 91
        1
 62
     0
 92
       -2
340
0
 93
        0
 40
0.045
309
GRIDFORMAT_END
 95
       32
302
GRIDFORMAT
  1
GRIDFORMAT_BEGIN
 90
        0
 91
        1
 62
     0
 92
       -2
340
0
 93
        0
 40
0.045
309
GRIDFORMAT_END
309
TABLEFORMAT_END
  1
CELLSTYLE_BEGIN
 90
        3
 91
        2
300
_DATA
309
CELLSTYLE_END
  0
XRECORD
  5
88871
102
{ACAD_REACTORS
330
4CD9A
102
}
330
4CD9A
100
AcDbXrecord
280
     1
102
ACAD_ROUNDTRIP_PRE2007_TABLESTYLE
 90
        4
 91
        0
  1

 92
        4
 93
        0
  2

 94
        4
 95
        0
  3

  0
XRECORD
  5
88873
102
{ACAD_REACTORS
330
876AC
102
}
330
876AC
100
AcDbXrecord
280
     1
102
RTVSPropertyOp0
 70
     1
102
RTVSPropertyOp1
 70
     1
102
RTVSPropertyOp2
 70
     1
102
RTVSPropertyOp3
 70
     1
102
RTVSPropertyOp4
 70
     1
102
RTVSPropertyOp5
 70
     1
102
RTVSPropertyOp6
 70
     1
102
RTVSPropertyOp7
 70
     1
102
RTVSPropertyOp8
 70
     1
102
RTVSPropertyOp9
 70
     1
102
RTVSPropertyOp10
 70
     1
102
RTVSPropertyOp11
 70
     1
102
RTVSPropertyOp12
 70
     1
102
RTVSPropertyOp13
 70
     1
102
RTVSPropertyOp14
 70
     1
102
RTVSPropertyOp15
 70
     1
102
RTVSPropertyOp16
 70
     1
102
RTVSPropertyOp17
 70
     1
102
RTVSPropertyOp18
 70
     1
102
RTVSPropertyOp19
 70
     1
102
RTVSPropertyOp20
 70
     1
102
RTVSPropertyOp21
 70
     1
102
RTVSPropertyOp22
 70
     1
102
RTVSPropertyOp23
 70
     1
102
RTVSPropertyOp24
 70
     1
102
RTVSPropertyOp25
 70
     1
102
RTVSPropertyOp26
 70
     1
102
RTVSPropertyOp27
 70
     1
102
RTVSPropertyOp28
 70
     1
102
RTVSPropertyOp29
 70
     1
102
RTVSPropertyOp30
 70
     1
102
RTVSPropertyOp31
 70
     1
102
RTVSPropertyOp32
 70
     1
102
RTVSPropertyOp33
 70
     1
102
RTVSPropertyOp34
 70
     1
102
RTVSPropertyOp35
 70
     1
102
RTVSPropertyOp36
 70
     1
102
RTVSPropertyOp37
 70
     1
102
RTVSPropertyOp38
 70
     1
102
RTVSPropertyOp39
 70
     1
102
RTVSPropertyOp40
 70
     1
102
RTVSPropertyOp41
 70
     1
102
RTVSPropertyOp42
 70
     1
102
RTVSPropertyOp43
 70
     1
102
RTVSPropertyOp44
 70
     1
102
RTVSPropertyOp45
 70
     1
102
RTVSPropertyOp46
 70
     1
102
RTVSPropertyOp47
 70
     1
102
RTVSPropertyOp48
 70
     1
102
RTVSPropertyOp49
 70
     1
102
RTVSPropertyOp50
 70
     1
102
RTVSPropertyOp51
 70
     0
102
RTVSPropertyOp52
 70
     0
102
RTVSPropertyOp53
 70
     1
102
RTVSPropertyOp54
 70
     1
102
RTVSPropertyOp55
 70
     1
102
RTVSPropertyOp56
 70
     1
102
RTVSPropertyOp57
 70
     1
102
RTVSPost2010Prop28
280
     1
102
RTVSPost2010PropOp28
 70
     1
102
RTVSPost2010Prop29
280
     1
102
RTVSPost2010PropOp29
 70
     1
102
RTVSPost2010Prop30
280
     0
102
RTVSPost2010PropOp30
 70
     1
102
RTVSPost2010Prop31
280
     0
102
RTVSPost2010PropOp31
 70
     1
102
RTVSPost2010Prop32
280
     0
102
RTVSPost2010PropOp32
 70
     1
102
RTVSPost2010Prop33
280
     0
102
RTVSPost2010PropOp33
 70
     1
102
RTVSPost2010Prop34
280
     0
102
RTVSPost2010PropOp34
 70
     1
102
RTVSPost2010Prop35
280
     0
102
RTVSPost2010PropOp35
 70
     1
102
RTVSPost2010Prop36
280
     0
102
RTVSPost2010PropOp36
 70
     1
102
RTVSPost2010Prop37
 90
       50
102
RTVSPost2010PropOp37
 70
     1
102
RTVSPost2010Prop38
140
0.0
102
RTVSPost2010PropOp38
 70
     1
102
RTVSPost2010Prop39
140
1.0
102
RTVSPost2010PropOp39
 70
     1
102
RTVSPost2010Prop40
 90
        0
102
RTVSPost2010PropOp40
 70
     1
102
RTVSPost2010Prop41ColorIndex
 90
       18
102
RTVSPost2010Prop41ColorRGB
 90
        0
102
RTVSPost2010PropOp41
 70
     1
102
RTVSPost2010Prop42
 90
       50
102
RTVSPost2010PropOp42
 70
     1
102
RTVSPost2010Prop43
 90
        3
102
RTVSPost2010PropOp43
 70
     1
102
RTVSPost2010Prop44ColorIndex
 90
        5
102
RTVSPost2010Prop44ColorRGB
 90
      255
102
RTVSPost2010PropOp44
 70
     1
102
RTVSPost2010Prop45
280
     0
102
RTVSPost2010PropOp45
 70
     1
102
RTVSPost2010Prop46
 90
       50
102
RTVSPost2010PropOp46
 70
     1
102
RTVSPost2010Prop47
 90
       50
102
RTVSPost2010PropOp47
 70
     1
102
RTVSPost2010Prop48
 90
       50
102
RTVSPost2010PropOp48
 70
     1
102
RTVSPost2010Prop49
280
     0
102
RTVSPost2010PropOp49
 70
     1
102
RTVSPost2010Prop50
 90
       50
102
RTVSPost2010PropOp50
 70
     1
102
RTVSPost2010Prop51ColorIndex
 90
      256
102
RTVSPost2010Prop51ColorRGB
 90
-16777216
102
RTVSPost2010PropOp51
 70
     0
102
RTVSPost2010Prop52
140
1.0
102
RTVSPost2010PropOp52
 70
     0
102
RTVSPost2010Prop53
 90
        2
102
RTVSPost2010PropOp53
 70
     1
102
RTVSPost2010Prop54
  1
strokes_ogs.tif
102
RTVSPost2010PropOp54
 70
     1
102
RTVSPost2010Prop55
280
     0
102
RTVSPost2010PropOp55
 70
     1
102
RTVSPost2010Prop56
140
1.0
102
RTVSPost2010PropOp56
 70
     1
102
RTVSPost2010Prop57
140
1.0
102
RTVSPost2010PropOp57
 70
     1
  0
XRECORD
  5
88874
102
{ACAD_REACTORS
330
876AA
102
}
330
876AA
100
AcDbXrecord
280
     1
102
RTVSPropertyOp0
 70
     1
102
RTVSPropertyOp1
 70
     1
102
RTVSPropertyOp2
 70
     1
102
RTVSPropertyOp3
 70
     1
102
RTVSPropertyOp4
 70
     1
102
RTVSPropertyOp5
 70
     1
102
RTVSPropertyOp6
 70
     1
102
RTVSPropertyOp7
 70
     1
102
RTVSPropertyOp8
 70
     1
102
RTVSPropertyOp9
 70
     1
102
RTVSPropertyOp10
 70
     1
102
RTVSPropertyOp11
 70
     1
102
RTVSPropertyOp12
 70
     1
102
RTVSPropertyOp13
 70
     1
102
RTVSPropertyOp14
 70
     1
102
RTVSPropertyOp15
 70
     1
102
RTVSPropertyOp16
 70
     1
102
RTVSPropertyOp17
 70
     1
102
RTVSPropertyOp18
 70
     1
102
RTVSPropertyOp19
 70
     1
102
RTVSPropertyOp20
 70
     1
102
RTVSPropertyOp21
 70
     1
102
RTVSPropertyOp22
 70
     1
102
RTVSPropertyOp23
 70
     1
102
RTVSPropertyOp24
 70
     1
102
RTVSPropertyOp25
 70
     1
102
RTVSPropertyOp26
 70
     1
102
RTVSPropertyOp27
 70
     1
102
RTVSPropertyOp28
 70
     1
102
RTVSPropertyOp29
 70
     1
102
RTVSPropertyOp30
 70
     1
102
RTVSPropertyOp31
 70
     1
102
RTVSPropertyOp32
 70
     1
102
RTVSPropertyOp33
 70
     1
102
RTVSPropertyOp34
 70
     1
102
RTVSPropertyOp35
 70
     1
102
RTVSPropertyOp36
 70
     1
102
RTVSPropertyOp37
 70
     1
102
RTVSPropertyOp38
 70
     1
102
RTVSPropertyOp39
 70
     1
102
RTVSPropertyOp40
 70
     1
102
RTVSPropertyOp41
 70
     1
102
RTVSPropertyOp42
 70
     1
102
RTVSPropertyOp43
 70
     1
102
RTVSPropertyOp44
 70
     1
102
RTVSPropertyOp45
 70
     1
102
RTVSPropertyOp46
 70
     1
102
RTVSPropertyOp47
 70
     1
102
RTVSPropertyOp48
 70
     1
102
RTVSPropertyOp49
 70
     1
102
RTVSPropertyOp50
 70
     1
102
RTVSPropertyOp51
 70
     0
102
RTVSPropertyOp52
 70
     0
102
RTVSPropertyOp53
 70
     1
102
RTVSPropertyOp54
 70
     1
102
RTVSPropertyOp55
 70
     1
102
RTVSPropertyOp56
 70
     1
102
RTVSPropertyOp57
 70
     1
102
RTVSPost2010Prop28
280
     0
102
RTVSPost2010PropOp28
 70
     1
102
RTVSPost2010Prop29
280
     1
102
RTVSPost2010PropOp29
 70
     1
102
RTVSPost2010Prop30
280
     1
102
RTVSPost2010PropOp30
 70
     1
102
RTVSPost2010Prop31
280
     0
102
RTVSPost2010PropOp31
 70
     1
102
RTVSPost2010Prop32
280
     0
102
RTVSPost2010PropOp32
 70
     1
102
RTVSPost2010Prop33
280
     0
102
RTVSPost2010PropOp33
 70
     1
102
RTVSPost2010Prop34
280
     0
102
RTVSPost2010PropOp34
 70
     1
102
RTVSPost2010Prop35
280
     0
102
RTVSPost2010PropOp35
 70
     1
102
RTVSPost2010Prop36
280
     0
102
RTVSPost2010PropOp36
 70
     1
102
RTVSPost2010Prop37
 90
       50
102
RTVSPost2010PropOp37
 70
     1
102
RTVSPost2010Prop38
140
0.0
102
RTVSPost2010PropOp38
 70
     1
102
RTVSPost2010Prop39
140
1.0
102
RTVSPost2010PropOp39
 70
     1
102
RTVSPost2010Prop40
 90
        0
102
RTVSPost2010PropOp40
 70
     1
102
RTVSPost2010Prop41ColorIndex
 90
       18
102
RTVSPost2010Prop41ColorRGB
 90
        0
102
RTVSPost2010PropOp41
 70
     1
102
RTVSPost2010Prop42
 90
       50
102
RTVSPost2010PropOp42
 70
     1
102
RTVSPost2010Prop43
 90
        3
102
RTVSPost2010PropOp43
 70
     1
102
RTVSPost2010Prop44ColorIndex
 90
        5
102
RTVSPost2010Prop44ColorRGB
 90
      255
102
RTVSPost2010PropOp44
 70
     1
102
RTVSPost2010Prop45
280
     0
102
RTVSPost2010PropOp45
 70
     1
102
RTVSPost2010Prop46
 90
       50
102
RTVSPost2010PropOp46
 70
     1
102
RTVSPost2010Prop47
 90
       50
102
RTVSPost2010PropOp47
 70
     1
102
RTVSPost2010Prop48
 90
       50
102
RTVSPost2010PropOp48
 70
     1
102
RTVSPost2010Prop49
280
     0
102
RTVSPost2010PropOp49
 70
     1
102
RTVSPost2010Prop50
 90
       50
102
RTVSPost2010PropOp50
 70
     1
102
RTVSPost2010Prop51ColorIndex
 90
      256
102
RTVSPost2010Prop51ColorRGB
 90
-16777216
102
RTVSPost2010PropOp51
 70
     0
102
RTVSPost2010Prop52
140
1.0
102
RTVSPost2010PropOp52
 70
     0
102
RTVSPost2010Prop53
 90
        2
102
RTVSPost2010PropOp53
 70
     1
102
RTVSPost2010Prop54
  1
strokes_ogs.tif
102
RTVSPost2010PropOp54
 70
     1
102
RTVSPost2010Prop55
280
     0
102
RTVSPost2010PropOp55
 70
     1
102
RTVSPost2010Prop56
140
1.0
102
RTVSPost2010PropOp56
 70
     1
102
RTVSPost2010Prop57
140
1.0
102
RTVSPost2010PropOp57
 70
     1
  0
XRECORD
  5
88875
102
{ACAD_REACTORS
330
876B8
102
}
330
876B8
100
AcDbXrecord
280
     1
102
RTVSPropertyOp0
 70
     1
102
RTVSPropertyOp1
 70
     1
102
RTVSPropertyOp2
 70
     1
102
RTVSPropertyOp3
 70
     1
102
RTVSPropertyOp4
 70
     1
102
RTVSPropertyOp5
 70
     1
102
RTVSPropertyOp6
 70
     1
102
RTVSPropertyOp7
 70
     1
102
RTVSPropertyOp8
 70
     1
102
RTVSPropertyOp9
 70
     1
102
RTVSPropertyOp10
 70
     1
102
RTVSPropertyOp11
 70
     1
102
RTVSPropertyOp12
 70
     1
102
RTVSPropertyOp13
 70
     1
102
RTVSPropertyOp14
 70
     1
102
RTVSPropertyOp15
 70
     1
102
RTVSPropertyOp16
 70
     1
102
RTVSPropertyOp17
 70
     1
102
RTVSPropertyOp18
 70
     1
102
RTVSPropertyOp19
 70
     1
102
RTVSPropertyOp20
 70
     1
102
RTVSPropertyOp21
 70
     1
102
RTVSPropertyOp22
 70
     1
102
RTVSPropertyOp23
 70
     1
102
RTVSPropertyOp24
 70
     1
102
RTVSPropertyOp25
 70
     1
102
RTVSPropertyOp26
 70
     1
102
RTVSPropertyOp27
 70
     1
102
RTVSPropertyOp28
 70
     1
102
RTVSPropertyOp29
 70
     1
102
RTVSPropertyOp30
 70
     1
102
RTVSPropertyOp31
 70
     1
102
RTVSPropertyOp32
 70
     1
102
RTVSPropertyOp33
 70
     1
102
RTVSPropertyOp34
 70
     1
102
RTVSPropertyOp35
 70
     1
102
RTVSPropertyOp36
 70
     1
102
RTVSPropertyOp37
 70
     1
102
RTVSPropertyOp38
 70
     1
102
RTVSPropertyOp39
 70
     1
102
RTVSPropertyOp40
 70
     1
102
RTVSPropertyOp41
 70
     1
102
RTVSPropertyOp42
 70
     1
102
RTVSPropertyOp43
 70
     1
102
RTVSPropertyOp44
 70
     1
102
RTVSPropertyOp45
 70
     1
102
RTVSPropertyOp46
 70
     1
102
RTVSPropertyOp47
 70
     1
102
RTVSPropertyOp48
 70
     1
102
RTVSPropertyOp49
 70
     1
102
RTVSPropertyOp50
 70
     1
102
RTVSPropertyOp51
 70
     0
102
RTVSPropertyOp52
 70
     0
102
RTVSPropertyOp53
 70
     1
102
RTVSPropertyOp54
 70
     1
102
RTVSPropertyOp55
 70
     1
102
RTVSPropertyOp56
 70
     1
102
RTVSPropertyOp57
 70
     1
102
RTVSPost2010Prop28
280
     0
102
RTVSPost2010PropOp28
 70
     1
102
RTVSPost2010Prop29
280
     1
102
RTVSPost2010PropOp29
 70
     1
102
RTVSPost2010Prop30
280
     1
102
RTVSPost2010PropOp30
 70
     1
102
RTVSPost2010Prop31
280
     0
102
RTVSPost2010PropOp31
 70
     1
102
RTVSPost2010Prop32
280
     0
102
RTVSPost2010PropOp32
 70
     1
102
RTVSPost2010Prop33
280
     0
102
RTVSPost2010PropOp33
 70
     1
102
RTVSPost2010Prop34
280
     0
102
RTVSPost2010PropOp34
 70
     1
102
RTVSPost2010Prop35
280
     0
102
RTVSPost2010PropOp35
 70
     1
102
RTVSPost2010Prop36
280
     0
102
RTVSPost2010PropOp36
 70
     1
102
RTVSPost2010Prop37
 90
       50
102
RTVSPost2010PropOp37
 70
     1
102
RTVSPost2010Prop38
140
0.0
102
RTVSPost2010PropOp38
 70
     1
102
RTVSPost2010Prop39
140
1.0
102
RTVSPost2010PropOp39
 70
     1
102
RTVSPost2010Prop40
 90
        0
102
RTVSPost2010PropOp40
 70
     1
102
RTVSPost2010Prop41ColorIndex
 90
       18
102
RTVSPost2010Prop41ColorRGB
 90
        0
102
RTVSPost2010PropOp41
 70
     1
102
RTVSPost2010Prop42
 90
       50
102
RTVSPost2010PropOp42
 70
     1
102
RTVSPost2010Prop43
 90
        3
102
RTVSPost2010PropOp43
 70
     1
102
RTVSPost2010Prop44ColorIndex
 90
        5
102
RTVSPost2010Prop44ColorRGB
 90
      255
102
RTVSPost2010PropOp44
 70
     1
102
RTVSPost2010Prop45
280
     0
102
RTVSPost2010PropOp45
 70
     1
102
RTVSPost2010Prop46
 90
       50
102
RTVSPost2010PropOp46
 70
     1
102
RTVSPost2010Prop47
 90
       50
102
RTVSPost2010PropOp47
 70
     1
102
RTVSPost2010Prop48
 90
       50
102
RTVSPost2010PropOp48
 70
     1
102
RTVSPost2010Prop49
280
     0
102
RTVSPost2010PropOp49
 70
     1
102
RTVSPost2010Prop50
 90
       50
102
RTVSPost2010PropOp50
 70
     1
102
RTVSPost2010Prop51ColorIndex
 90
      256
102
RTVSPost2010Prop51ColorRGB
 90
-16777216
102
RTVSPost2010PropOp51
 70
     0
102
RTVSPost2010Prop52
140
1.0
102
RTVSPost2010PropOp52
 70
     0
102
RTVSPost2010Prop53
 90
        2
102
RTVSPost2010PropOp53
 70
     1
102
RTVSPost2010Prop54
  1
strokes_ogs.tif
102
RTVSPost2010PropOp54
 70
     1
102
RTVSPost2010Prop55
280
     0
102
RTVSPost2010PropOp55
 70
     1
102
RTVSPost2010Prop56
140
1.0
102
RTVSPost2010PropOp56
 70
     1
102
RTVSPost2010Prop57
140
1.0
102
RTVSPost2010PropOp57
 70
     1
  0
XRECORD
  5
88876
102
{ACAD_REACTORS
330
876C0
102
}
330
876C0
100
AcDbXrecord
280
     1
102
RTVSPropertyOp0
 70
     1
102
RTVSPropertyOp1
 70
     1
102
RTVSPropertyOp2
 70
     1
102
RTVSPropertyOp3
 70
     1
102
RTVSPropertyOp4
 70
     1
102
RTVSPropertyOp5
 70
     1
102
RTVSPropertyOp6
 70
     1
102
RTVSPropertyOp7
 70
     1
102
RTVSPropertyOp8
 70
     1
102
RTVSPropertyOp9
 70
     1
102
RTVSPropertyOp10
 70
     1
102
RTVSPropertyOp11
 70
     1
102
RTVSPropertyOp12
 70
     1
102
RTVSPropertyOp13
 70
     1
102
RTVSPropertyOp14
 70
     1
102
RTVSPropertyOp15
 70
     1
102
RTVSPropertyOp16
 70
     1
102
RTVSPropertyOp17
 70
     1
102
RTVSPropertyOp18
 70
     1
102
RTVSPropertyOp19
 70
     1
102
RTVSPropertyOp20
 70
     1
102
RTVSPropertyOp21
 70
     1
102
RTVSPropertyOp22
 70
     1
102
RTVSPropertyOp23
 70
     1
102
RTVSPropertyOp24
 70
     1
102
RTVSPropertyOp25
 70
     1
102
RTVSPropertyOp26
 70
     1
102
RTVSPropertyOp27
 70
     1
102
RTVSPropertyOp28
 70
     1
102
RTVSPropertyOp29
 70
     1
102
RTVSPropertyOp30
 70
     1
102
RTVSPropertyOp31
 70
     1
102
RTVSPropertyOp32
 70
     1
102
RTVSPropertyOp33
 70
     1
102
RTVSPropertyOp34
 70
     1
102
RTVSPropertyOp35
 70
     1
102
RTVSPropertyOp36
 70
     1
102
RTVSPropertyOp37
 70
     1
102
RTVSPropertyOp38
 70
     1
102
RTVSPropertyOp39
 70
     1
102
RTVSPropertyOp40
 70
     1
102
RTVSPropertyOp41
 70
     1
102
RTVSPropertyOp42
 70
     1
102
RTVSPropertyOp43
 70
     1
102
RTVSPropertyOp44
 70
     1
102
RTVSPropertyOp45
 70
     1
102
RTVSPropertyOp46
 70
     1
102
RTVSPropertyOp47
 70
     1
102
RTVSPropertyOp48
 70
     1
102
RTVSPropertyOp49
 70
     1
102
RTVSPropertyOp50
 70
     1
102
RTVSPropertyOp51
 70
     0
102
RTVSPropertyOp52
 70
     0
102
RTVSPropertyOp53
 70
     1
102
RTVSPropertyOp54
 70
     1
102
RTVSPropertyOp55
 70
     1
102
RTVSPropertyOp56
 70
     1
102
RTVSPropertyOp57
 70
     1
102
RTVSPost2010Prop28
280
     0
102
RTVSPost2010PropOp28
 70
     1
102
RTVSPost2010Prop29
280
     1
102
RTVSPost2010PropOp29
 70
     1
102
RTVSPost2010Prop30
280
     1
102
RTVSPost2010PropOp30
 70
     1
102
RTVSPost2010Prop31
280
     0
102
RTVSPost2010PropOp31
 70
     1
102
RTVSPost2010Prop32
280
     0
102
RTVSPost2010PropOp32
 70
     1
102
RTVSPost2010Prop33
280
     0
102
RTVSPost2010PropOp33
 70
     1
102
RTVSPost2010Prop34
280
     0
102
RTVSPost2010PropOp34
 70
     1
102
RTVSPost2010Prop35
280
     0
102
RTVSPost2010PropOp35
 70
     1
102
RTVSPost2010Prop36
280
     0
102
RTVSPost2010PropOp36
 70
     1
102
RTVSPost2010Prop37
 90
       50
102
RTVSPost2010PropOp37
 70
     1
102
RTVSPost2010Prop38
140
0.0
102
RTVSPost2010PropOp38
 70
     1
102
RTVSPost2010Prop39
140
1.0
102
RTVSPost2010PropOp39
 70
     1
102
RTVSPost2010Prop40
 90
        0
102
RTVSPost2010PropOp40
 70
     1
102
RTVSPost2010Prop41ColorIndex
 90
       18
102
RTVSPost2010Prop41ColorRGB
 90
        0
102
RTVSPost2010PropOp41
 70
     1
102
RTVSPost2010Prop42
 90
       50
102
RTVSPost2010PropOp42
 70
     1
102
RTVSPost2010Prop43
 90
        3
102
RTVSPost2010PropOp43
 70
     1
102
RTVSPost2010Prop44ColorIndex
 90
        5
102
RTVSPost2010Prop44ColorRGB
 90
      255
102
RTVSPost2010PropOp44
 70
     1
102
RTVSPost2010Prop45
280
     0
102
RTVSPost2010PropOp45
 70
     1
102
RTVSPost2010Prop46
 90
       50
102
RTVSPost2010PropOp46
 70
     1
102
RTVSPost2010Prop47
 90
       50
102
RTVSPost2010PropOp47
 70
     1
102
RTVSPost2010Prop48
 90
       50
102
RTVSPost2010PropOp48
 70
     1
102
RTVSPost2010Prop49
280
     0
102
RTVSPost2010PropOp49
 70
     1
102
RTVSPost2010Prop50
 90
       50
102
RTVSPost2010PropOp50
 70
     1
102
RTVSPost2010Prop51ColorIndex
 90
      256
102
RTVSPost2010Prop51ColorRGB
 90
-16777216
102
RTVSPost2010PropOp51
 70
     0
102
RTVSPost2010Prop52
140
1.0
102
RTVSPost2010PropOp52
 70
     0
102
RTVSPost2010Prop53
 90
        2
102
RTVSPost2010PropOp53
 70
     1
102
RTVSPost2010Prop54
  1
strokes_ogs.tif
102
RTVSPost2010PropOp54
 70
     1
102
RTVSPost2010Prop55
280
     0
102
RTVSPost2010PropOp55
 70
     1
102
RTVSPost2010Prop56
140
1.0
102
RTVSPost2010PropOp56
 70
     1
102
RTVSPost2010Prop57
140
1.0
102
RTVSPost2010PropOp57
 70
     1
  0
XRECORD
  5
88877
102
{ACAD_REACTORS
330
876B2
102
}
330
876B2
100
AcDbXrecord
280
     1
102
RTVSPropertyOp0
 70
     1
102
RTVSPropertyOp1
 70
     1
102
RTVSPropertyOp2
 70
     1
102
RTVSPropertyOp3
 70
     1
102
RTVSPropertyOp4
 70
     1
102
RTVSPropertyOp5
 70
     1
102
RTVSPropertyOp6
 70
     1
102
RTVSPropertyOp7
 70
     1
102
RTVSPropertyOp8
 70
     1
102
RTVSPropertyOp9
 70
     1
102
RTVSPropertyOp10
 70
     1
102
RTVSPropertyOp11
 70
     1
102
RTVSPropertyOp12
 70
     1
102
RTVSPropertyOp13
 70
     1
102
RTVSPropertyOp14
 70
     1
102
RTVSPropertyOp15
 70
     1
102
RTVSPropertyOp16
 70
     1
102
RTVSPropertyOp17
 70
     1
102
RTVSPropertyOp18
 70
     1
102
RTVSPropertyOp19
 70
     1
102
RTVSPropertyOp20
 70
     1
102
RTVSPropertyOp21
 70
     1
102
RTVSPropertyOp22
 70
     1
102
RTVSPropertyOp23
 70
     1
102
RTVSPropertyOp24
 70
     1
102
RTVSPropertyOp25
 70
     1
102
RTVSPropertyOp26
 70
     1
102
RTVSPropertyOp27
 70
     1
102
RTVSPropertyOp28
 70
     1
102
RTVSPropertyOp29
 70
     1
102
RTVSPropertyOp30
 70
     1
102
RTVSPropertyOp31
 70
     1
102
RTVSPropertyOp32
 70
     1
102
RTVSPropertyOp33
 70
     1
102
RTVSPropertyOp34
 70
     1
102
RTVSPropertyOp35
 70
     1
102
RTVSPropertyOp36
 70
     1
102
RTVSPropertyOp37
 70
     1
102
RTVSPropertyOp38
 70
     1
102
RTVSPropertyOp39
 70
     1
102
RTVSPropertyOp40
 70
     1
102
RTVSPropertyOp41
 70
     1
102
RTVSPropertyOp42
 70
     1
102
RTVSPropertyOp43
 70
     1
102
RTVSPropertyOp44
 70
     1
102
RTVSPropertyOp45
 70
     1
102
RTVSPropertyOp46
 70
     1
102
RTVSPropertyOp47
 70
     1
102
RTVSPropertyOp48
 70
     1
102
RTVSPropertyOp49
 70
     1
102
RTVSPropertyOp50
 70
     1
102
RTVSPropertyOp51
 70
     0
102
RTVSPropertyOp52
 70
     0
102
RTVSPropertyOp53
 70
     1
102
RTVSPropertyOp54
 70
     1
102
RTVSPropertyOp55
 70
     1
102
RTVSPropertyOp56
 70
     1
102
RTVSPropertyOp57
 70
     1
102
RTVSPost2010Prop28
280
     0
102
RTVSPost2010PropOp28
 70
     1
102
RTVSPost2010Prop29
280
     1
102
RTVSPost2010PropOp29
 70
     1
102
RTVSPost2010Prop30
280
     1
102
RTVSPost2010PropOp30
 70
     1
102
RTVSPost2010Prop31
280
     0
102
RTVSPost2010PropOp31
 70
     1
102
RTVSPost2010Prop32
280
     0
102
RTVSPost2010PropOp32
 70
     1
102
RTVSPost2010Prop33
280
     0
102
RTVSPost2010PropOp33
 70
     1
102
RTVSPost2010Prop34
280
     0
102
RTVSPost2010PropOp34
 70
     1
102
RTVSPost2010Prop35
280
     0
102
RTVSPost2010PropOp35
 70
     1
102
RTVSPost2010Prop36
280
     0
102
RTVSPost2010PropOp36
 70
     1
102
RTVSPost2010Prop37
 90
       50
102
RTVSPost2010PropOp37
 70
     1
102
RTVSPost2010Prop38
140
0.0
102
RTVSPost2010PropOp38
 70
     1
102
RTVSPost2010Prop39
140
1.0
102
RTVSPost2010PropOp39
 70
     1
102
RTVSPost2010Prop40
 90
        0
102
RTVSPost2010PropOp40
 70
     1
102
RTVSPost2010Prop41ColorIndex
 90
       18
102
RTVSPost2010Prop41ColorRGB
 90
        0
102
RTVSPost2010PropOp41
 70
     1
102
RTVSPost2010Prop42
 90
       50
102
RTVSPost2010PropOp42
 70
     1
102
RTVSPost2010Prop43
 90
        3
102
RTVSPost2010PropOp43
 70
     1
102
RTVSPost2010Prop44ColorIndex
 90
        5
102
RTVSPost2010Prop44ColorRGB
 90
      255
102
RTVSPost2010PropOp44
 70
     1
102
RTVSPost2010Prop45
280
     0
102
RTVSPost2010PropOp45
 70
     1
102
RTVSPost2010Prop46
 90
       50
102
RTVSPost2010PropOp46
 70
     1
102
RTVSPost2010Prop47
 90
       50
102
RTVSPost2010PropOp47
 70
     1
102
RTVSPost2010Prop48
 90
       50
102
RTVSPost2010PropOp48
 70
     1
102
RTVSPost2010Prop49
280
     0
102
RTVSPost2010PropOp49
 70
     1
102
RTVSPost2010Prop50
 90
       50
102
RTVSPost2010PropOp50
 70
     1
102
RTVSPost2010Prop51ColorIndex
 90
      256
102
RTVSPost2010Prop51ColorRGB
 90
-16777216
102
RTVSPost2010PropOp51
 70
     0
102
RTVSPost2010Prop52
140
1.0
102
RTVSPost2010PropOp52
 70
     0
102
RTVSPost2010Prop53
 90
        2
102
RTVSPost2010PropOp53
 70
     1
102
RTVSPost2010Prop54
  1
strokes_ogs.tif
102
RTVSPost2010PropOp54
 70
     1
102
RTVSPost2010Prop55
280
     0
102
RTVSPost2010PropOp55
 70
     1
102
RTVSPost2010Prop56
140
1.0
102
RTVSPost2010PropOp56
 70
     1
102
RTVSPost2010Prop57
140
1.0
102
RTVSPost2010PropOp57
 70
     1
  0
XRECORD
  5
88878
102
{ACAD_REACTORS
330
876B6
102
}
330
876B6
100
AcDbXrecord
280
     1
102
RTVSPropertyOp0
 70
     1
102
RTVSPropertyOp1
 70
     1
102
RTVSPropertyOp2
 70
     1
102
RTVSPropertyOp3
 70
     1
102
RTVSPropertyOp4
 70
     1
102
RTVSPropertyOp5
 70
     1
102
RTVSPropertyOp6
 70
     1
102
RTVSPropertyOp7
 70
     1
102
RTVSPropertyOp8
 70
     1
102
RTVSPropertyOp9
 70
     1
102
RTVSPropertyOp10
 70
     1
102
RTVSPropertyOp11
 70
     1
102
RTVSPropertyOp12
 70
     1
102
RTVSPropertyOp13
 70
     1
102
RTVSPropertyOp14
 70
     1
102
RTVSPropertyOp15
 70
     1
102
RTVSPropertyOp16
 70
     1
102
RTVSPropertyOp17
 70
     1
102
RTVSPropertyOp18
 70
     1
102
RTVSPropertyOp19
 70
     1
102
RTVSPropertyOp20
 70
     1
102
RTVSPropertyOp21
 70
     1
102
RTVSPropertyOp22
 70
     1
102
RTVSPropertyOp23
 70
     1
102
RTVSPropertyOp24
 70
     1
102
RTVSPropertyOp25
 70
     1
102
RTVSPropertyOp26
 70
     1
102
RTVSPropertyOp27
 70
     1
102
RTVSPropertyOp28
 70
     1
102
RTVSPropertyOp29
 70
     1
102
RTVSPropertyOp30
 70
     1
102
RTVSPropertyOp31
 70
     1
102
RTVSPropertyOp32
 70
     1
102
RTVSPropertyOp33
 70
     1
102
RTVSPropertyOp34
 70
     1
102
RTVSPropertyOp35
 70
     1
102
RTVSPropertyOp36
 70
     1
102
RTVSPropertyOp37
 70
     1
102
RTVSPropertyOp38
 70
     1
102
RTVSPropertyOp39
 70
     1
102
RTVSPropertyOp40
 70
     1
102
RTVSPropertyOp41
 70
     1
102
RTVSPropertyOp42
 70
     1
102
RTVSPropertyOp43
 70
     1
102
RTVSPropertyOp44
 70
     1
102
RTVSPropertyOp45
 70
     1
102
RTVSPropertyOp46
 70
     1
102
RTVSPropertyOp47
 70
     1
102
RTVSPropertyOp48
 70
     1
102
RTVSPropertyOp49
 70
     1
102
RTVSPropertyOp50
 70
     1
102
RTVSPropertyOp51
 70
     0
102
RTVSPropertyOp52
 70
     0
102
RTVSPropertyOp53
 70
     1
102
RTVSPropertyOp54
 70
     1
102
RTVSPropertyOp55
 70
     1
102
RTVSPropertyOp56
 70
     1
102
RTVSPropertyOp57
 70
     1
102
RTVSPost2010Prop28
280
     0
102
RTVSPost2010PropOp28
 70
     1
102
RTVSPost2010Prop29
280
     1
102
RTVSPost2010PropOp29
 70
     1
102
RTVSPost2010Prop30
280
     1
102
RTVSPost2010PropOp30
 70
     1
102
RTVSPost2010Prop31
280
     0
102
RTVSPost2010PropOp31
 70
     1
102
RTVSPost2010Prop32
280
     0
102
RTVSPost2010PropOp32
 70
     1
102
RTVSPost2010Prop33
280
     0
102
RTVSPost2010PropOp33
 70
     1
102
RTVSPost2010Prop34
280
     0
102
RTVSPost2010PropOp34
 70
     1
102
RTVSPost2010Prop35
280
     0
102
RTVSPost2010PropOp35
 70
     1
102
RTVSPost2010Prop36
280
     0
102
RTVSPost2010PropOp36
 70
     1
102
RTVSPost2010Prop37
 90
       50
102
RTVSPost2010PropOp37
 70
     1
102
RTVSPost2010Prop38
140
0.0
102
RTVSPost2010PropOp38
 70
     1
102
RTVSPost2010Prop39
140
1.0
102
RTVSPost2010PropOp39
 70
     1
102
RTVSPost2010Prop40
 90
        0
102
RTVSPost2010PropOp40
 70
     1
102
RTVSPost2010Prop41ColorIndex
 90
       18
102
RTVSPost2010Prop41ColorRGB
 90
        0
102
RTVSPost2010PropOp41
 70
     1
102
RTVSPost2010Prop42
 90
       50
102
RTVSPost2010PropOp42
 70
     1
102
RTVSPost2010Prop43
 90
        3
102
RTVSPost2010PropOp43
 70
     1
102
RTVSPost2010Prop44ColorIndex
 90
        5
102
RTVSPost2010Prop44ColorRGB
 90
      255
102
RTVSPost2010PropOp44
 70
     1
102
RTVSPost2010Prop45
280
     0
102
RTVSPost2010PropOp45
 70
     1
102
RTVSPost2010Prop46
 90
       50
102
RTVSPost2010PropOp46
 70
     1
102
RTVSPost2010Prop47
 90
       50
102
RTVSPost2010PropOp47
 70
     1
102
RTVSPost2010Prop48
 90
       50
102
RTVSPost2010PropOp48
 70
     1
102
RTVSPost2010Prop49
280
     0
102
RTVSPost2010PropOp49
 70
     1
102
RTVSPost2010Prop50
 90
       50
102
RTVSPost2010PropOp50
 70
     1
102
RTVSPost2010Prop51ColorIndex
 90
      256
102
RTVSPost2010Prop51ColorRGB
 90
-16777216
102
RTVSPost2010PropOp51
 70
     0
102
RTVSPost2010Prop52
140
1.0
102
RTVSPost2010PropOp52
 70
     0
102
RTVSPost2010Prop53
 90
        2
102
RTVSPost2010PropOp53
 70
     1
102
RTVSPost2010Prop54
  1
strokes_ogs.tif
102
RTVSPost2010PropOp54
 70
     1
102
RTVSPost2010Prop55
280
     0
102
RTVSPost2010PropOp55
 70
     1
102
RTVSPost2010Prop56
140
1.0
102
RTVSPost2010PropOp56
 70
     1
102
RTVSPost2010Prop57
140
1.0
102
RTVSPost2010PropOp57
 70
     1
  0
XRECORD
  5
88879
102
{ACAD_REACTORS
330
876D0
102
}
330
876D0
100
AcDbXrecord
280
     1
102
RTVSPropertyOp0
 70
     0
102
RTVSPropertyOp1
 70
     0
102
RTVSPropertyOp2
 70
     0
102
RTVSPropertyOp3
 70
     0
102
RTVSPropertyOp4
 70
     0
102
RTVSPropertyOp5
 70
     0
102
RTVSPropertyOp6
 70
     0
102
RTVSPropertyOp7
 70
     0
102
RTVSPropertyOp8
 70
     0
102
RTVSPropertyOp9
 70
     0
102
RTVSPropertyOp10
 70
     0
102
RTVSPropertyOp11
 70
     0
102
RTVSPropertyOp12
 70
     0
102
RTVSPropertyOp13
 70
     0
102
RTVSPropertyOp14
 70
     2
102
RTVSPropertyOp15
 70
     0
102
RTVSPropertyOp16
 70
     0
102
RTVSPropertyOp17
 70
     0
102
RTVSPropertyOp18
 70
     0
102
RTVSPropertyOp19
 70
     0
102
RTVSPropertyOp20
 70
     0
102
RTVSPropertyOp21
 70
     0
102
RTVSPropertyOp22
 70
     0
102
RTVSPropertyOp23
 70
     0
102
RTVSPropertyOp24
 70
     0
102
RTVSPropertyOp25
 70
     0
102
RTVSPropertyOp26
 70
     0
102
RTVSPropertyOp27
 70
     0
102
RTVSPropertyOp28
 70
     1
102
RTVSPropertyOp29
 70
     1
102
RTVSPropertyOp30
 70
     1
102
RTVSPropertyOp31
 70
     1
102
RTVSPropertyOp32
 70
     1
102
RTVSPropertyOp33
 70
     1
102
RTVSPropertyOp34
 70
     1
102
RTVSPropertyOp35
 70
     1
102
RTVSPropertyOp36
 70
     1
102
RTVSPropertyOp37
 70
     0
102
RTVSPropertyOp38
 70
     0
102
RTVSPropertyOp39
 70
     0
102
RTVSPropertyOp40
 70
     0
102
RTVSPropertyOp41
 70
     0
102
RTVSPropertyOp42
 70
     0
102
RTVSPropertyOp43
 70
     0
102
RTVSPropertyOp44
 70
     0
102
RTVSPropertyOp45
 70
     1
102
RTVSPropertyOp46
 70
     0
102
RTVSPropertyOp47
 70
     0
102
RTVSPropertyOp48
 70
     0
102
RTVSPropertyOp49
 70
     1
102
RTVSPropertyOp50
 70
     0
102
RTVSPropertyOp51
 70
     0
102
RTVSPropertyOp52
 70
     0
102
RTVSPropertyOp53
 70
     0
102
RTVSPropertyOp54
 70
     0
102
RTVSPropertyOp55
 70
     1
102
RTVSPropertyOp56
 70
     0
102
RTVSPropertyOp57
 70
     0
102
RTVSPost2010Prop28
280
     0
102
RTVSPost2010PropOp28
 70
     1
102
RTVSPost2010Prop29
280
     1
102
RTVSPost2010PropOp29
 70
     1
102
RTVSPost2010Prop30
280
     1
102
RTVSPost2010PropOp30
 70
     1
102
RTVSPost2010Prop31
280
     0
102
RTVSPost2010PropOp31
 70
     1
102
RTVSPost2010Prop32
280
     0
102
RTVSPost2010PropOp32
 70
     1
102
RTVSPost2010Prop33
280
     0
102
RTVSPost2010PropOp33
 70
     1
102
RTVSPost2010Prop34
280
     0
102
RTVSPost2010PropOp34
 70
     1
102
RTVSPost2010Prop35
280
     0
102
RTVSPost2010PropOp35
 70
     1
102
RTVSPost2010Prop36
280
     0
102
RTVSPost2010PropOp36
 70
     1
102
RTVSPost2010Prop37
 90
       50
102
RTVSPost2010PropOp37
 70
     0
102
RTVSPost2010Prop38
140
0.0
102
RTVSPost2010PropOp38
 70
     0
102
RTVSPost2010Prop39
140
1.0
102
RTVSPost2010PropOp39
 70
     0
102
RTVSPost2010Prop40
 90
        0
102
RTVSPost2010PropOp40
 70
     0
102
RTVSPost2010Prop41ColorIndex
 90
       18
102
RTVSPost2010Prop41ColorRGB
 90
        0
102
RTVSPost2010PropOp41
 70
     0
102
RTVSPost2010Prop42
 90
       50
102
RTVSPost2010PropOp42
 70
     0
102
RTVSPost2010Prop43
 90
        3
102
RTVSPost2010PropOp43
 70
     0
102
RTVSPost2010Prop44ColorIndex
 90
        5
102
RTVSPost2010Prop44ColorRGB
 90
      255
102
RTVSPost2010PropOp44
 70
     0
102
RTVSPost2010Prop45
280
     0
102
RTVSPost2010PropOp45
 70
     1
102
RTVSPost2010Prop46
 90
       50
102
RTVSPost2010PropOp46
 70
     0
102
RTVSPost2010Prop47
 90
       50
102
RTVSPost2010PropOp47
 70
     0
102
RTVSPost2010Prop48
 90
       50
102
RTVSPost2010PropOp48
 70
     0
102
RTVSPost2010Prop49
280
     0
102
RTVSPost2010PropOp49
 70
     1
102
RTVSPost2010Prop50
 90
       50
102
RTVSPost2010PropOp50
 70
     0
102
RTVSPost2010Prop51ColorIndex
 90
      256
102
RTVSPost2010Prop51ColorRGB
 90
-16777216
102
RTVSPost2010PropOp51
 70
     0
102
RTVSPost2010Prop52
140
1.0
102
RTVSPost2010PropOp52
 70
     0
102
RTVSPost2010Prop53
 90
        2
102
RTVSPost2010PropOp53
 70
     0
102
RTVSPost2010Prop54
  1
strokes_ogs.tif
102
RTVSPost2010PropOp54
 70
     0
102
RTVSPost2010Prop55
280
     0
102
RTVSPost2010PropOp55
 70
     1
102
RTVSPost2010Prop56
140
1.0
102
RTVSPost2010PropOp56
 70
     0
102
RTVSPost2010Prop57
140
1.0
102
RTVSPost2010PropOp57
 70
     0
  0
XRECORD
  5
8887A
102
{ACAD_REACTORS
330
876BE
102
}
330
876BE
100
AcDbXrecord
280
     1
102
RTVSPropertyOp0
 70
     1
102
RTVSPropertyOp1
 70
     1
102
RTVSPropertyOp2
 70
     1
102
RTVSPropertyOp3
 70
     1
102
RTVSPropertyOp4
 70
     1
102
RTVSPropertyOp5
 70
     1
102
RTVSPropertyOp6
 70
     1
102
RTVSPropertyOp7
 70
     1
102
RTVSPropertyOp8
 70
     1
102
RTVSPropertyOp9
 70
     1
102
RTVSPropertyOp10
 70
     1
102
RTVSPropertyOp11
 70
     1
102
RTVSPropertyOp12
 70
     1
102
RTVSPropertyOp13
 70
     1
102
RTVSPropertyOp14
 70
     1
102
RTVSPropertyOp15
 70
     1
102
RTVSPropertyOp16
 70
     1
102
RTVSPropertyOp17
 70
     1
102
RTVSPropertyOp18
 70
     1
102
RTVSPropertyOp19
 70
     1
102
RTVSPropertyOp20
 70
     1
102
RTVSPropertyOp21
 70
     1
102
RTVSPropertyOp22
 70
     1
102
RTVSPropertyOp23
 70
     1
102
RTVSPropertyOp24
 70
     1
102
RTVSPropertyOp25
 70
     1
102
RTVSPropertyOp26
 70
     1
102
RTVSPropertyOp27
 70
     1
102
RTVSPropertyOp28
 70
     1
102
RTVSPropertyOp29
 70
     1
102
RTVSPropertyOp30
 70
     1
102
RTVSPropertyOp31
 70
     1
102
RTVSPropertyOp32
 70
     1
102
RTVSPropertyOp33
 70
     1
102
RTVSPropertyOp34
 70
     1
102
RTVSPropertyOp35
 70
     1
102
RTVSPropertyOp36
 70
     1
102
RTVSPropertyOp37
 70
     1
102
RTVSPropertyOp38
 70
     1
102
RTVSPropertyOp39
 70
     1
102
RTVSPropertyOp40
 70
     1
102
RTVSPropertyOp41
 70
     1
102
RTVSPropertyOp42
 70
     1
102
RTVSPropertyOp43
 70
     1
102
RTVSPropertyOp44
 70
     1
102
RTVSPropertyOp45
 70
     1
102
RTVSPropertyOp46
 70
     1
102
RTVSPropertyOp47
 70
     1
102
RTVSPropertyOp48
 70
     1
102
RTVSPropertyOp49
 70
     1
102
RTVSPropertyOp50
 70
     1
102
RTVSPropertyOp51
 70
     0
102
RTVSPropertyOp52
 70
     0
102
RTVSPropertyOp53
 70
     1
102
RTVSPropertyOp54
 70
     1
102
RTVSPropertyOp55
 70
     1
102
RTVSPropertyOp56
 70
     1
102
RTVSPropertyOp57
 70
     1
102
RTVSPost2010Prop28
280
     0
102
RTVSPost2010PropOp28
 70
     1
102
RTVSPost2010Prop29
280
     1
102
RTVSPost2010PropOp29
 70
     1
102
RTVSPost2010Prop30
280
     1
102
RTVSPost2010PropOp30
 70
     1
102
RTVSPost2010Prop31
280
     0
102
RTVSPost2010PropOp31
 70
     1
102
RTVSPost2010Prop32
280
     0
102
RTVSPost2010PropOp32
 70
     1
102
RTVSPost2010Prop33
280
     0
102
RTVSPost2010PropOp33
 70
     1
102
RTVSPost2010Prop34
280
     0
102
RTVSPost2010PropOp34
 70
     1
102
RTVSPost2010Prop35
280
     0
102
RTVSPost2010PropOp35
 70
     1
102
RTVSPost2010Prop36
280
     0
102
RTVSPost2010PropOp36
 70
     1
102
RTVSPost2010Prop37
 90
       50
102
RTVSPost2010PropOp37
 70
     1
102
RTVSPost2010Prop38
140
0.0
102
RTVSPost2010PropOp38
 70
     1
102
RTVSPost2010Prop39
140
1.0
102
RTVSPost2010PropOp39
 70
     1
102
RTVSPost2010Prop40
 90
        0
102
RTVSPost2010PropOp40
 70
     1
102
RTVSPost2010Prop41ColorIndex
 90
       18
102
RTVSPost2010Prop41ColorRGB
 90
        0
102
RTVSPost2010PropOp41
 70
     1
102
RTVSPost2010Prop42
 90
       50
102
RTVSPost2010PropOp42
 70
     1
102
RTVSPost2010Prop43
 90
        3
102
RTVSPost2010PropOp43
 70
     1
102
RTVSPost2010Prop44ColorIndex
 90
        5
102
RTVSPost2010Prop44ColorRGB
 90
      255
102
RTVSPost2010PropOp44
 70
     1
102
RTVSPost2010Prop45
280
     0
102
RTVSPost2010PropOp45
 70
     1
102
RTVSPost2010Prop46
 90
       50
102
RTVSPost2010PropOp46
 70
     1
102
RTVSPost2010Prop47
 90
       50
102
RTVSPost2010PropOp47
 70
     1
102
RTVSPost2010Prop48
 90
       50
102
RTVSPost2010PropOp48
 70
     1
102
RTVSPost2010Prop49
280
     0
102
RTVSPost2010PropOp49
 70
     1
102
RTVSPost2010Prop50
 90
       50
102
RTVSPost2010PropOp50
 70
     1
102
RTVSPost2010Prop51ColorIndex
 90
      256
102
RTVSPost2010Prop51ColorRGB
 90
-16777216
102
RTVSPost2010PropOp51
 70
     0
102
RTVSPost2010Prop52
140
1.0
102
RTVSPost2010PropOp52
 70
     0
102
RTVSPost2010Prop53
 90
        2
102
RTVSPost2010PropOp53
 70
     1
102
RTVSPost2010Prop54
  1
strokes_ogs.tif
102
RTVSPost2010PropOp54
 70
     1
102
RTVSPost2010Prop55
280
     0
102
RTVSPost2010PropOp55
 70
     1
102
RTVSPost2010Prop56
140
1.0
102
RTVSPost2010PropOp56
 70
     1
102
RTVSPost2010Prop57
140
1.0
102
RTVSPost2010PropOp57
 70
     1
  0
XRECORD
  5
8887B
102
{ACAD_REACTORS
330
876A2
102
}
330
876A2
100
AcDbXrecord
280
     1
102
RTVSPropertyOp0
 70
     1
102
RTVSPropertyOp1
 70
     1
102
RTVSPropertyOp2
 70
     1
102
RTVSPropertyOp3
 70
     1
102
RTVSPropertyOp4
 70
     1
102
RTVSPropertyOp5
 70
     1
102
RTVSPropertyOp6
 70
     1
102
RTVSPropertyOp7
 70
     1
102
RTVSPropertyOp8
 70
     1
102
RTVSPropertyOp9
 70
     1
102
RTVSPropertyOp10
 70
     1
102
RTVSPropertyOp11
 70
     1
102
RTVSPropertyOp12
 70
     1
102
RTVSPropertyOp13
 70
     1
102
RTVSPropertyOp14
 70
     1
102
RTVSPropertyOp15
 70
     1
102
RTVSPropertyOp16
 70
     1
102
RTVSPropertyOp17
 70
     1
102
RTVSPropertyOp18
 70
     1
102
RTVSPropertyOp19
 70
     1
102
RTVSPropertyOp20
 70
     1
102
RTVSPropertyOp21
 70
     1
102
RTVSPropertyOp22
 70
     1
102
RTVSPropertyOp23
 70
     1
102
RTVSPropertyOp24
 70
     1
102
RTVSPropertyOp25
 70
     1
102
RTVSPropertyOp26
 70
     1
102
RTVSPropertyOp27
 70
     1
102
RTVSPropertyOp28
 70
     1
102
RTVSPropertyOp29
 70
     1
102
RTVSPropertyOp30
 70
     1
102
RTVSPropertyOp31
 70
     1
102
RTVSPropertyOp32
 70
     1
102
RTVSPropertyOp33
 70
     1
102
RTVSPropertyOp34
 70
     1
102
RTVSPropertyOp35
 70
     1
102
RTVSPropertyOp36
 70
     1
102
RTVSPropertyOp37
 70
     1
102
RTVSPropertyOp38
 70
     1
102
RTVSPropertyOp39
 70
     1
102
RTVSPropertyOp40
 70
     1
102
RTVSPropertyOp41
 70
     1
102
RTVSPropertyOp42
 70
     1
102
RTVSPropertyOp43
 70
     1
102
RTVSPropertyOp44
 70
     1
102
RTVSPropertyOp45
 70
     1
102
RTVSPropertyOp46
 70
     1
102
RTVSPropertyOp47
 70
     1
102
RTVSPropertyOp48
 70
     1
102
RTVSPropertyOp49
 70
     1
102
RTVSPropertyOp50
 70
     1
102
RTVSPropertyOp51
 70
     0
102
RTVSPropertyOp52
 70
     0
102
RTVSPropertyOp53
 70
     1
102
RTVSPropertyOp54
 70
     1
102
RTVSPropertyOp55
 70
     1
102
RTVSPropertyOp56
 70
     1
102
RTVSPropertyOp57
 70
     1
102
RTVSPost2010Prop28
280
     0
102
RTVSPost2010PropOp28
 70
     1
102
RTVSPost2010Prop29
280
     1
102
RTVSPost2010PropOp29
 70
     1
102
RTVSPost2010Prop30
280
     1
102
RTVSPost2010PropOp30
 70
     1
102
RTVSPost2010Prop31
280
     0
102
RTVSPost2010PropOp31
 70
     1
102
RTVSPost2010Prop32
280
     0
102
RTVSPost2010PropOp32
 70
     1
102
RTVSPost2010Prop33
280
     0
102
RTVSPost2010PropOp33
 70
     1
102
RTVSPost2010Prop34
280
     0
102
RTVSPost2010PropOp34
 70
     1
102
RTVSPost2010Prop35
280
     0
102
RTVSPost2010PropOp35
 70
     1
102
RTVSPost2010Prop36
280
     0
102
RTVSPost2010PropOp36
 70
     1
102
RTVSPost2010Prop37
 90
       50
102
RTVSPost2010PropOp37
 70
     1
102
RTVSPost2010Prop38
140
0.0
102
RTVSPost2010PropOp38
 70
     1
102
RTVSPost2010Prop39
140
1.0
102
RTVSPost2010PropOp39
 70
     1
102
RTVSPost2010Prop40
 90
        0
102
RTVSPost2010PropOp40
 70
     1
102
RTVSPost2010Prop41ColorIndex
 90
       18
102
RTVSPost2010Prop41ColorRGB
 90
        0
102
RTVSPost2010PropOp41
 70
     1
102
RTVSPost2010Prop42
 90
       50
102
RTVSPost2010PropOp42
 70
     1
102
RTVSPost2010Prop43
 90
        3
102
RTVSPost2010PropOp43
 70
     1
102
RTVSPost2010Prop44ColorIndex
 90
        5
102
RTVSPost2010Prop44ColorRGB
 90
      255
102
RTVSPost2010PropOp44
 70
     1
102
RTVSPost2010Prop45
280
     0
102
RTVSPost2010PropOp45
 70
     1
102
RTVSPost2010Prop46
 90
       50
102
RTVSPost2010PropOp46
 70
     1
102
RTVSPost2010Prop47
 90
       50
102
RTVSPost2010PropOp47
 70
     1
102
RTVSPost2010Prop48
 90
       50
102
RTVSPost2010PropOp48
 70
     1
102
RTVSPost2010Prop49
280
     0
102
RTVSPost2010PropOp49
 70
     1
102
RTVSPost2010Prop50
 90
       50
102
RTVSPost2010PropOp50
 70
     1
102
RTVSPost2010Prop51ColorIndex
 90
      256
102
RTVSPost2010Prop51ColorRGB
 90
-16777216
102
RTVSPost2010PropOp51
 70
     0
102
RTVSPost2010Prop52
140
1.0
102
RTVSPost2010PropOp52
 70
     0
102
RTVSPost2010Prop53
 90
        2
102
RTVSPost2010PropOp53
 70
     1
102
RTVSPost2010Prop54
  1
strokes_ogs.tif
102
RTVSPost2010PropOp54
 70
     1
102
RTVSPost2010Prop55
280
     0
102
RTVSPost2010PropOp55
 70
     1
102
RTVSPost2010Prop56
140
1.0
102
RTVSPost2010PropOp56
 70
     1
102
RTVSPost2010Prop57
140
1.0
102
RTVSPost2010PropOp57
 70
     1
  0
XRECORD
  5
8887C
102
{ACAD_REACTORS
330
876A4
102
}
330
876A4
100
AcDbXrecord
280
     1
102
RTVSPropertyOp0
 70
     1
102
RTVSPropertyOp1
 70
     1
102
RTVSPropertyOp2
 70
     1
102
RTVSPropertyOp3
 70
     1
102
RTVSPropertyOp4
 70
     1
102
RTVSPropertyOp5
 70
     1
102
RTVSPropertyOp6
 70
     1
102
RTVSPropertyOp7
 70
     1
102
RTVSPropertyOp8
 70
     1
102
RTVSPropertyOp9
 70
     1
102
RTVSPropertyOp10
 70
     1
102
RTVSPropertyOp11
 70
     1
102
RTVSPropertyOp12
 70
     1
102
RTVSPropertyOp13
 70
     1
102
RTVSPropertyOp14
 70
     1
102
RTVSPropertyOp15
 70
     1
102
RTVSPropertyOp16
 70
     1
102
RTVSPropertyOp17
 70
     1
102
RTVSPropertyOp18
 70
     1
102
RTVSPropertyOp19
 70
     1
102
RTVSPropertyOp20
 70
     1
102
RTVSPropertyOp21
 70
     1
102
RTVSPropertyOp22
 70
     1
102
RTVSPropertyOp23
 70
     1
102
RTVSPropertyOp24
 70
     1
102
RTVSPropertyOp25
 70
     1
102
RTVSPropertyOp26
 70
     1
102
RTVSPropertyOp27
 70
     1
102
RTVSPropertyOp28
 70
     1
102
RTVSPropertyOp29
 70
     1
102
RTVSPropertyOp30
 70
     1
102
RTVSPropertyOp31
 70
     1
102
RTVSPropertyOp32
 70
     1
102
RTVSPropertyOp33
 70
     1
102
RTVSPropertyOp34
 70
     1
102
RTVSPropertyOp35
 70
     1
102
RTVSPropertyOp36
 70
     1
102
RTVSPropertyOp37
 70
     1
102
RTVSPropertyOp38
 70
     1
102
RTVSPropertyOp39
 70
     1
102
RTVSPropertyOp40
 70
     1
102
RTVSPropertyOp41
 70
     1
102
RTVSPropertyOp42
 70
     1
102
RTVSPropertyOp43
 70
     1
102
RTVSPropertyOp44
 70
     1
102
RTVSPropertyOp45
 70
     1
102
RTVSPropertyOp46
 70
     1
102
RTVSPropertyOp47
 70
     1
102
RTVSPropertyOp48
 70
     1
102
RTVSPropertyOp49
 70
     1
102
RTVSPropertyOp50
 70
     1
102
RTVSPropertyOp51
 70
     0
102
RTVSPropertyOp52
 70
     0
102
RTVSPropertyOp53
 70
     1
102
RTVSPropertyOp54
 70
     1
102
RTVSPropertyOp55
 70
     1
102
RTVSPropertyOp56
 70
     1
102
RTVSPropertyOp57
 70
     1
102
RTVSPost2010Prop28
280
     0
102
RTVSPost2010PropOp28
 70
     1
102
RTVSPost2010Prop29
280
     1
102
RTVSPost2010PropOp29
 70
     1
102
RTVSPost2010Prop30
280
     1
102
RTVSPost2010PropOp30
 70
     1
102
RTVSPost2010Prop31
280
     0
102
RTVSPost2010PropOp31
 70
     1
102
RTVSPost2010Prop32
280
     0
102
RTVSPost2010PropOp32
 70
     1
102
RTVSPost2010Prop33
280
     0
102
RTVSPost2010PropOp33
 70
     1
102
RTVSPost2010Prop34
280
     0
102
RTVSPost2010PropOp34
 70
     1
102
RTVSPost2010Prop35
280
     0
102
RTVSPost2010PropOp35
 70
     1
102
RTVSPost2010Prop36
280
     0
102
RTVSPost2010PropOp36
 70
     1
102
RTVSPost2010Prop37
 90
       50
102
RTVSPost2010PropOp37
 70
     1
102
RTVSPost2010Prop38
140
0.0
102
RTVSPost2010PropOp38
 70
     1
102
RTVSPost2010Prop39
140
1.0
102
RTVSPost2010PropOp39
 70
     1
102
RTVSPost2010Prop40
 90
        0
102
RTVSPost2010PropOp40
 70
     1
102
RTVSPost2010Prop41ColorIndex
 90
       18
102
RTVSPost2010Prop41ColorRGB
 90
        0
102
RTVSPost2010PropOp41
 70
     1
102
RTVSPost2010Prop42
 90
       50
102
RTVSPost2010PropOp42
 70
     1
102
RTVSPost2010Prop43
 90
        3
102
RTVSPost2010PropOp43
 70
     1
102
RTVSPost2010Prop44ColorIndex
 90
        5
102
RTVSPost2010Prop44ColorRGB
 90
      255
102
RTVSPost2010PropOp44
 70
     1
102
RTVSPost2010Prop45
280
     0
102
RTVSPost2010PropOp45
 70
     1
102
RTVSPost2010Prop46
 90
       50
102
RTVSPost2010PropOp46
 70
     1
102
RTVSPost2010Prop47
 90
       50
102
RTVSPost2010PropOp47
 70
     1
102
RTVSPost2010Prop48
 90
       50
102
RTVSPost2010PropOp48
 70
     1
102
RTVSPost2010Prop49
280
     0
102
RTVSPost2010PropOp49
 70
     1
102
RTVSPost2010Prop50
 90
       50
102
RTVSPost2010PropOp50
 70
     1
102
RTVSPost2010Prop51ColorIndex
 90
      256
102
RTVSPost2010Prop51ColorRGB
 90
-16777216
102
RTVSPost2010PropOp51
 70
     0
102
RTVSPost2010Prop52
140
1.0
102
RTVSPost2010PropOp52
 70
     0
102
RTVSPost2010Prop53
 90
        2
102
RTVSPost2010PropOp53
 70
     1
102
RTVSPost2010Prop54
  1
strokes_ogs.tif
102
RTVSPost2010PropOp54
 70
     1
102
RTVSPost2010Prop55
280
     0
102
RTVSPost2010PropOp55
 70
     1
102
RTVSPost2010Prop56
140
1.0
102
RTVSPost2010PropOp56
 70
     1
102
RTVSPost2010Prop57
140
1.0
102
RTVSPost2010PropOp57
 70
     1
  0
XRECORD
  5
8887D
102
{ACAD_REACTORS
330
876A6
102
}
330
876A6
100
AcDbXrecord
280
     1
102
RTVSPropertyOp0
 70
     1
102
RTVSPropertyOp1
 70
     1
102
RTVSPropertyOp2
 70
     1
102
RTVSPropertyOp3
 70
     1
102
RTVSPropertyOp4
 70
     1
102
RTVSPropertyOp5
 70
     1
102
RTVSPropertyOp6
 70
     1
102
RTVSPropertyOp7
 70
     1
102
RTVSPropertyOp8
 70
     1
102
RTVSPropertyOp9
 70
     1
102
RTVSPropertyOp10
 70
     1
102
RTVSPropertyOp11
 70
     1
102
RTVSPropertyOp12
 70
     1
102
RTVSPropertyOp13
 70
     1
102
RTVSPropertyOp14
 70
     1
102
RTVSPropertyOp15
 70
     1
102
RTVSPropertyOp16
 70
     1
102
RTVSPropertyOp17
 70
     1
102
RTVSPropertyOp18
 70
     1
102
RTVSPropertyOp19
 70
     1
102
RTVSPropertyOp20
 70
     1
102
RTVSPropertyOp21
 70
     1
102
RTVSPropertyOp22
 70
     1
102
RTVSPropertyOp23
 70
     1
102
RTVSPropertyOp24
 70
     1
102
RTVSPropertyOp25
 70
     1
102
RTVSPropertyOp26
 70
     1
102
RTVSPropertyOp27
 70
     1
102
RTVSPropertyOp28
 70
     1
102
RTVSPropertyOp29
 70
     1
102
RTVSPropertyOp30
 70
     1
102
RTVSPropertyOp31
 70
     1
102
RTVSPropertyOp32
 70
     1
102
RTVSPropertyOp33
 70
     1
102
RTVSPropertyOp34
 70
     1
102
RTVSPropertyOp35
 70
     1
102
RTVSPropertyOp36
 70
     1
102
RTVSPropertyOp37
 70
     1
102
RTVSPropertyOp38
 70
     1
102
RTVSPropertyOp39
 70
     1
102
RTVSPropertyOp40
 70
     1
102
RTVSPropertyOp41
 70
     1
102
RTVSPropertyOp42
 70
     1
102
RTVSPropertyOp43
 70
     1
102
RTVSPropertyOp44
 70
     1
102
RTVSPropertyOp45
 70
     1
102
RTVSPropertyOp46
 70
     1
102
RTVSPropertyOp47
 70
     1
102
RTVSPropertyOp48
 70
     1
102
RTVSPropertyOp49
 70
     1
102
RTVSPropertyOp50
 70
     1
102
RTVSPropertyOp51
 70
     0
102
RTVSPropertyOp52
 70
     0
102
RTVSPropertyOp53
 70
     1
102
RTVSPropertyOp54
 70
     1
102
RTVSPropertyOp55
 70
     1
102
RTVSPropertyOp56
 70
     1
102
RTVSPropertyOp57
 70
     1
102
RTVSPost2010Prop28
280
     0
102
RTVSPost2010PropOp28
 70
     1
102
RTVSPost2010Prop29
280
     1
102
RTVSPost2010PropOp29
 70
     1
102
RTVSPost2010Prop30
280
     1
102
RTVSPost2010PropOp30
 70
     1
102
RTVSPost2010Prop31
280
     0
102
RTVSPost2010PropOp31
 70
     1
102
RTVSPost2010Prop32
280
     0
102
RTVSPost2010PropOp32
 70
     1
102
RTVSPost2010Prop33
280
     0
102
RTVSPost2010PropOp33
 70
     1
102
RTVSPost2010Prop34
280
     0
102
RTVSPost2010PropOp34
 70
     1
102
RTVSPost2010Prop35
280
     0
102
RTVSPost2010PropOp35
 70
     1
102
RTVSPost2010Prop36
280
     0
102
RTVSPost2010PropOp36
 70
     1
102
RTVSPost2010Prop37
 90
       50
102
RTVSPost2010PropOp37
 70
     1
102
RTVSPost2010Prop38
140
0.0
102
RTVSPost2010PropOp38
 70
     1
102
RTVSPost2010Prop39
140
1.0
102
RTVSPost2010PropOp39
 70
     1
102
RTVSPost2010Prop40
 90
        0
102
RTVSPost2010PropOp40
 70
     1
102
RTVSPost2010Prop41ColorIndex
 90
       18
102
RTVSPost2010Prop41ColorRGB
 90
        0
102
RTVSPost2010PropOp41
 70
     1
102
RTVSPost2010Prop42
 90
       50
102
RTVSPost2010PropOp42
 70
     1
102
RTVSPost2010Prop43
 90
        3
102
RTVSPost2010PropOp43
 70
     1
102
RTVSPost2010Prop44ColorIndex
 90
        5
102
RTVSPost2010Prop44ColorRGB
 90
      255
102
RTVSPost2010PropOp44
 70
     1
102
RTVSPost2010Prop45
280
     0
102
RTVSPost2010PropOp45
 70
     1
102
RTVSPost2010Prop46
 90
       50
102
RTVSPost2010PropOp46
 70
     1
102
RTVSPost2010Prop47
 90
       50
102
RTVSPost2010PropOp47
 70
     1
102
RTVSPost2010Prop48
 90
       50
102
RTVSPost2010PropOp48
 70
     1
102
RTVSPost2010Prop49
280
     0
102
RTVSPost2010PropOp49
 70
     1
102
RTVSPost2010Prop50
 90
       50
102
RTVSPost2010PropOp50
 70
     1
102
RTVSPost2010Prop51ColorIndex
 90
      256
102
RTVSPost2010Prop51ColorRGB
 90
-16777216
102
RTVSPost2010PropOp51
 70
     0
102
RTVSPost2010Prop52
140
1.0
102
RTVSPost2010PropOp52
 70
     0
102
RTVSPost2010Prop53
 90
        2
102
RTVSPost2010PropOp53
 70
     1
102
RTVSPost2010Prop54
  1
strokes_ogs.tif
102
RTVSPost2010PropOp54
 70
     1
102
RTVSPost2010Prop55
280
     0
102
RTVSPost2010PropOp55
 70
     1
102
RTVSPost2010Prop56
140
1.0
102
RTVSPost2010PropOp56
 70
     1
102
RTVSPost2010Prop57
140
1.0
102
RTVSPost2010PropOp57
 70
     1
  0
XRECORD
  5
8887E
102
{ACAD_REACTORS
330
876A8
102
}
330
876A8
100
AcDbXrecord
280
     1
102
RTVSPropertyOp0
 70
     1
102
RTVSPropertyOp1
 70
     1
102
RTVSPropertyOp2
 70
     1
102
RTVSPropertyOp3
 70
     1
102
RTVSPropertyOp4
 70
     1
102
RTVSPropertyOp5
 70
     1
102
RTVSPropertyOp6
 70
     1
102
RTVSPropertyOp7
 70
     1
102
RTVSPropertyOp8
 70
     1
102
RTVSPropertyOp9
 70
     1
102
RTVSPropertyOp10
 70
     1
102
RTVSPropertyOp11
 70
     1
102
RTVSPropertyOp12
 70
     1
102
RTVSPropertyOp13
 70
     1
102
RTVSPropertyOp14
 70
     1
102
RTVSPropertyOp15
 70
     1
102
RTVSPropertyOp16
 70
     1
102
RTVSPropertyOp17
 70
     1
102
RTVSPropertyOp18
 70
     1
102
RTVSPropertyOp19
 70
     1
102
RTVSPropertyOp20
 70
     1
102
RTVSPropertyOp21
 70
     1
102
RTVSPropertyOp22
 70
     1
102
RTVSPropertyOp23
 70
     1
102
RTVSPropertyOp24
 70
     1
102
RTVSPropertyOp25
 70
     1
102
RTVSPropertyOp26
 70
     1
102
RTVSPropertyOp27
 70
     1
102
RTVSPropertyOp28
 70
     1
102
RTVSPropertyOp29
 70
     1
102
RTVSPropertyOp30
 70
     1
102
RTVSPropertyOp31
 70
     1
102
RTVSPropertyOp32
 70
     1
102
RTVSPropertyOp33
 70
     1
102
RTVSPropertyOp34
 70
     1
102
RTVSPropertyOp35
 70
     1
102
RTVSPropertyOp36
 70
     1
102
RTVSPropertyOp37
 70
     1
102
RTVSPropertyOp38
 70
     1
102
RTVSPropertyOp39
 70
     1
102
RTVSPropertyOp40
 70
     1
102
RTVSPropertyOp41
 70
     1
102
RTVSPropertyOp42
 70
     1
102
RTVSPropertyOp43
 70
     1
102
RTVSPropertyOp44
 70
     1
102
RTVSPropertyOp45
 70
     1
102
RTVSPropertyOp46
 70
     1
102
RTVSPropertyOp47
 70
     1
102
RTVSPropertyOp48
 70
     1
102
RTVSPropertyOp49
 70
     1
102
RTVSPropertyOp50
 70
     1
102
RTVSPropertyOp51
 70
     0
102
RTVSPropertyOp52
 70
     0
102
RTVSPropertyOp53
 70
     1
102
RTVSPropertyOp54
 70
     1
102
RTVSPropertyOp55
 70
     1
102
RTVSPropertyOp56
 70
     1
102
RTVSPropertyOp57
 70
     1
102
RTVSPost2010Prop28
280
     0
102
RTVSPost2010PropOp28
 70
     1
102
RTVSPost2010Prop29
280
     1
102
RTVSPost2010PropOp29
 70
     1
102
RTVSPost2010Prop30
280
     1
102
RTVSPost2010PropOp30
 70
     1
102
RTVSPost2010Prop31
280
     0
102
RTVSPost2010PropOp31
 70
     1
102
RTVSPost2010Prop32
280
     0
102
RTVSPost2010PropOp32
 70
     1
102
RTVSPost2010Prop33
280
     0
102
RTVSPost2010PropOp33
 70
     1
102
RTVSPost2010Prop34
280
     0
102
RTVSPost2010PropOp34
 70
     1
102
RTVSPost2010Prop35
280
     0
102
RTVSPost2010PropOp35
 70
     1
102
RTVSPost2010Prop36
280
     0
102
RTVSPost2010PropOp36
 70
     1
102
RTVSPost2010Prop37
 90
       50
102
RTVSPost2010PropOp37
 70
     1
102
RTVSPost2010Prop38
140
0.0
102
RTVSPost2010PropOp38
 70
     1
102
RTVSPost2010Prop39
140
1.0
102
RTVSPost2010PropOp39
 70
     1
102
RTVSPost2010Prop40
 90
        0
102
RTVSPost2010PropOp40
 70
     1
102
RTVSPost2010Prop41ColorIndex
 90
       18
102
RTVSPost2010Prop41ColorRGB
 90
        0
102
RTVSPost2010PropOp41
 70
     1
102
RTVSPost2010Prop42
 90
       50
102
RTVSPost2010PropOp42
 70
     1
102
RTVSPost2010Prop43
 90
        3
102
RTVSPost2010PropOp43
 70
     1
102
RTVSPost2010Prop44ColorIndex
 90
        5
102
RTVSPost2010Prop44ColorRGB
 90
      255
102
RTVSPost2010PropOp44
 70
     1
102
RTVSPost2010Prop45
280
     0
102
RTVSPost2010PropOp45
 70
     1
102
RTVSPost2010Prop46
 90
       50
102
RTVSPost2010PropOp46
 70
     1
102
RTVSPost2010Prop47
 90
       50
102
RTVSPost2010PropOp47
 70
     1
102
RTVSPost2010Prop48
 90
       50
102
RTVSPost2010PropOp48
 70
     1
102
RTVSPost2010Prop49
280
     0
102
RTVSPost2010PropOp49
 70
     1
102
RTVSPost2010Prop50
 90
       50
102
RTVSPost2010PropOp50
 70
     1
102
RTVSPost2010Prop51ColorIndex
 90
      256
102
RTVSPost2010Prop51ColorRGB
 90
-16777216
102
RTVSPost2010PropOp51
 70
     0
102
RTVSPost2010Prop52
140
1.0
102
RTVSPost2010PropOp52
 70
     0
102
RTVSPost2010Prop53
 90
        2
102
RTVSPost2010PropOp53
 70
     1
102
RTVSPost2010Prop54
  1
strokes_ogs.tif
102
RTVSPost2010PropOp54
 70
     1
102
RTVSPost2010Prop55
280
     0
102
RTVSPost2010PropOp55
 70
     1
102
RTVSPost2010Prop56
140
1.0
102
RTVSPost2010PropOp56
 70
     1
102
RTVSPost2010Prop57
140
1.0
102
RTVSPost2010PropOp57
 70
     1
  0
XRECORD
  5
8887F
102
{ACAD_REACTORS
330
876B0
102
}
330
876B0
100
AcDbXrecord
280
     1
102
RTVSPropertyOp0
 70
     1
102
RTVSPropertyOp1
 70
     1
102
RTVSPropertyOp2
 70
     1
102
RTVSPropertyOp3
 70
     1
102
RTVSPropertyOp4
 70
     1
102
RTVSPropertyOp5
 70
     1
102
RTVSPropertyOp6
 70
     1
102
RTVSPropertyOp7
 70
     1
102
RTVSPropertyOp8
 70
     1
102
RTVSPropertyOp9
 70
     1
102
RTVSPropertyOp10
 70
     1
102
RTVSPropertyOp11
 70
     1
102
RTVSPropertyOp12
 70
     1
102
RTVSPropertyOp13
 70
     1
102
RTVSPropertyOp14
 70
     1
102
RTVSPropertyOp15
 70
     1
102
RTVSPropertyOp16
 70
     1
102
RTVSPropertyOp17
 70
     1
102
RTVSPropertyOp18
 70
     1
102
RTVSPropertyOp19
 70
     1
102
RTVSPropertyOp20
 70
     1
102
RTVSPropertyOp21
 70
     1
102
RTVSPropertyOp22
 70
     1
102
RTVSPropertyOp23
 70
     1
102
RTVSPropertyOp24
 70
     1
102
RTVSPropertyOp25
 70
     1
102
RTVSPropertyOp26
 70
     1
102
RTVSPropertyOp27
 70
     1
102
RTVSPropertyOp28
 70
     1
102
RTVSPropertyOp29
 70
     1
102
RTVSPropertyOp30
 70
     1
102
RTVSPropertyOp31
 70
     1
102
RTVSPropertyOp32
 70
     1
102
RTVSPropertyOp33
 70
     1
102
RTVSPropertyOp34
 70
     1
102
RTVSPropertyOp35
 70
     1
102
RTVSPropertyOp36
 70
     1
102
RTVSPropertyOp37
 70
     1
102
RTVSPropertyOp38
 70
     1
102
RTVSPropertyOp39
 70
     1
102
RTVSPropertyOp40
 70
     1
102
RTVSPropertyOp41
 70
     1
102
RTVSPropertyOp42
 70
     1
102
RTVSPropertyOp43
 70
     1
102
RTVSPropertyOp44
 70
     1
102
RTVSPropertyOp45
 70
     1
102
RTVSPropertyOp46
 70
     1
102
RTVSPropertyOp47
 70
     1
102
RTVSPropertyOp48
 70
     1
102
RTVSPropertyOp49
 70
     1
102
RTVSPropertyOp50
 70
     1
102
RTVSPropertyOp51
 70
     0
102
RTVSPropertyOp52
 70
     0
102
RTVSPropertyOp53
 70
     1
102
RTVSPropertyOp54
 70
     1
102
RTVSPropertyOp55
 70
     1
102
RTVSPropertyOp56
 70
     1
102
RTVSPropertyOp57
 70
     1
102
RTVSPost2010Prop28
280
     0
102
RTVSPost2010PropOp28
 70
     1
102
RTVSPost2010Prop29
280
     1
102
RTVSPost2010PropOp29
 70
     1
102
RTVSPost2010Prop30
280
     1
102
RTVSPost2010PropOp30
 70
     1
102
RTVSPost2010Prop31
280
     0
102
RTVSPost2010PropOp31
 70
     1
102
RTVSPost2010Prop32
280
     0
102
RTVSPost2010PropOp32
 70
     1
102
RTVSPost2010Prop33
280
     0
102
RTVSPost2010PropOp33
 70
     1
102
RTVSPost2010Prop34
280
     0
102
RTVSPost2010PropOp34
 70
     1
102
RTVSPost2010Prop35
280
     0
102
RTVSPost2010PropOp35
 70
     1
102
RTVSPost2010Prop36
280
     0
102
RTVSPost2010PropOp36
 70
     1
102
RTVSPost2010Prop37
 90
       50
102
RTVSPost2010PropOp37
 70
     1
102
RTVSPost2010Prop38
140
0.0
102
RTVSPost2010PropOp38
 70
     1
102
RTVSPost2010Prop39
140
1.0
102
RTVSPost2010PropOp39
 70
     1
102
RTVSPost2010Prop40
 90
        0
102
RTVSPost2010PropOp40
 70
     1
102
RTVSPost2010Prop41ColorIndex
 90
       18
102
RTVSPost2010Prop41ColorRGB
 90
        0
102
RTVSPost2010PropOp41
 70
     1
102
RTVSPost2010Prop42
 90
       50
102
RTVSPost2010PropOp42
 70
     1
102
RTVSPost2010Prop43
 90
        3
102
RTVSPost2010PropOp43
 70
     1
102
RTVSPost2010Prop44ColorIndex
 90
        5
102
RTVSPost2010Prop44ColorRGB
 90
      255
102
RTVSPost2010PropOp44
 70
     1
102
RTVSPost2010Prop45
280
     0
102
RTVSPost2010PropOp45
 70
     1
102
RTVSPost2010Prop46
 90
       50
102
RTVSPost2010PropOp46
 70
     1
102
RTVSPost2010Prop47
 90
       50
102
RTVSPost2010PropOp47
 70
     1
102
RTVSPost2010Prop48
 90
       50
102
RTVSPost2010PropOp48
 70
     1
102
RTVSPost2010Prop49
280
     0
102
RTVSPost2010PropOp49
 70
     1
102
RTVSPost2010Prop50
 90
       50
102
RTVSPost2010PropOp50
 70
     1
102
RTVSPost2010Prop51ColorIndex
 90
      256
102
RTVSPost2010Prop51ColorRGB
 90
-16777216
102
RTVSPost2010PropOp51
 70
     0
102
RTVSPost2010Prop52
140
1.0
102
RTVSPost2010PropOp52
 70
     0
102
RTVSPost2010Prop53
 90
        2
102
RTVSPost2010PropOp53
 70
     1
102
RTVSPost2010Prop54
  1
strokes_ogs.tif
102
RTVSPost2010PropOp54
 70
     1
102
RTVSPost2010Prop55
280
     0
102
RTVSPost2010PropOp55
 70
     1
102
RTVSPost2010Prop56
140
1.0
102
RTVSPost2010PropOp56
 70
     1
102
RTVSPost2010Prop57
140
1.0
102
RTVSPost2010PropOp57
 70
     1
  0
XRECORD
  5
88880
102
{ACAD_REACTORS
330
876CC
102
}
330
876CC
100
AcDbXrecord
280
     1
102
RTVSPropertyOp0
 70
     0
102
RTVSPropertyOp1
 70
     0
102
RTVSPropertyOp2
 70
     0
102
RTVSPropertyOp3
 70
     0
102
RTVSPropertyOp4
 70
     0
102
RTVSPropertyOp5
 70
     0
102
RTVSPropertyOp6
 70
     0
102
RTVSPropertyOp7
 70
     0
102
RTVSPropertyOp8
 70
     0
102
RTVSPropertyOp9
 70
     0
102
RTVSPropertyOp10
 70
     0
102
RTVSPropertyOp11
 70
     0
102
RTVSPropertyOp12
 70
     0
102
RTVSPropertyOp13
 70
     0
102
RTVSPropertyOp14
 70
     2
102
RTVSPropertyOp15
 70
     0
102
RTVSPropertyOp16
 70
     0
102
RTVSPropertyOp17
 70
     0
102
RTVSPropertyOp18
 70
     0
102
RTVSPropertyOp19
 70
     0
102
RTVSPropertyOp20
 70
     0
102
RTVSPropertyOp21
 70
     0
102
RTVSPropertyOp22
 70
     0
102
RTVSPropertyOp23
 70
     0
102
RTVSPropertyOp24
 70
     0
102
RTVSPropertyOp25
 70
     0
102
RTVSPropertyOp26
 70
     0
102
RTVSPropertyOp27
 70
     0
102
RTVSPropertyOp28
 70
     1
102
RTVSPropertyOp29
 70
     1
102
RTVSPropertyOp30
 70
     1
102
RTVSPropertyOp31
 70
     1
102
RTVSPropertyOp32
 70
     1
102
RTVSPropertyOp33
 70
     1
102
RTVSPropertyOp34
 70
     1
102
RTVSPropertyOp35
 70
     1
102
RTVSPropertyOp36
 70
     1
102
RTVSPropertyOp37
 70
     0
102
RTVSPropertyOp38
 70
     0
102
RTVSPropertyOp39
 70
     0
102
RTVSPropertyOp40
 70
     0
102
RTVSPropertyOp41
 70
     0
102
RTVSPropertyOp42
 70
     0
102
RTVSPropertyOp43
 70
     0
102
RTVSPropertyOp44
 70
     0
102
RTVSPropertyOp45
 70
     1
102
RTVSPropertyOp46
 70
     0
102
RTVSPropertyOp47
 70
     0
102
RTVSPropertyOp48
 70
     0
102
RTVSPropertyOp49
 70
     1
102
RTVSPropertyOp50
 70
     0
102
RTVSPropertyOp51
 70
     0
102
RTVSPropertyOp52
 70
     0
102
RTVSPropertyOp53
 70
     0
102
RTVSPropertyOp54
 70
     0
102
RTVSPropertyOp55
 70
     1
102
RTVSPropertyOp56
 70
     0
102
RTVSPropertyOp57
 70
     0
102
RTVSPost2010Prop28
280
     0
102
RTVSPost2010PropOp28
 70
     1
102
RTVSPost2010Prop29
280
     1
102
RTVSPost2010PropOp29
 70
     1
102
RTVSPost2010Prop30
280
     1
102
RTVSPost2010PropOp30
 70
     1
102
RTVSPost2010Prop31
280
     0
102
RTVSPost2010PropOp31
 70
     1
102
RTVSPost2010Prop32
280
     0
102
RTVSPost2010PropOp32
 70
     1
102
RTVSPost2010Prop33
280
     0
102
RTVSPost2010PropOp33
 70
     1
102
RTVSPost2010Prop34
280
     0
102
RTVSPost2010PropOp34
 70
     1
102
RTVSPost2010Prop35
280
     0
102
RTVSPost2010PropOp35
 70
     1
102
RTVSPost2010Prop36
280
     0
102
RTVSPost2010PropOp36
 70
     1
102
RTVSPost2010Prop37
 90
       50
102
RTVSPost2010PropOp37
 70
     0
102
RTVSPost2010Prop38
140
0.0
102
RTVSPost2010PropOp38
 70
     0
102
RTVSPost2010Prop39
140
1.0
102
RTVSPost2010PropOp39
 70
     0
102
RTVSPost2010Prop40
 90
        0
102
RTVSPost2010PropOp40
 70
     0
102
RTVSPost2010Prop41ColorIndex
 90
       18
102
RTVSPost2010Prop41ColorRGB
 90
        0
102
RTVSPost2010PropOp41
 70
     0
102
RTVSPost2010Prop42
 90
       50
102
RTVSPost2010PropOp42
 70
     0
102
RTVSPost2010Prop43
 90
        3
102
RTVSPost2010PropOp43
 70
     0
102
RTVSPost2010Prop44ColorIndex
 90
        5
102
RTVSPost2010Prop44ColorRGB
 90
      255
102
RTVSPost2010PropOp44
 70
     0
102
RTVSPost2010Prop45
280
     0
102
RTVSPost2010PropOp45
 70
     1
102
RTVSPost2010Prop46
 90
       50
102
RTVSPost2010PropOp46
 70
     0
102
RTVSPost2010Prop47
 90
       50
102
RTVSPost2010PropOp47
 70
     0
102
RTVSPost2010Prop48
 90
       50
102
RTVSPost2010PropOp48
 70
     0
102
RTVSPost2010Prop49
280
     0
102
RTVSPost2010PropOp49
 70
     1
102
RTVSPost2010Prop50
 90
       50
102
RTVSPost2010PropOp50
 70
     0
102
RTVSPost2010Prop51ColorIndex
 90
      256
102
RTVSPost2010Prop51ColorRGB
 90
-16777216
102
RTVSPost2010PropOp51
 70
     0
102
RTVSPost2010Prop52
140
1.0
102
RTVSPost2010PropOp52
 70
     0
102
RTVSPost2010Prop53
 90
        2
102
RTVSPost2010PropOp53
 70
     0
102
RTVSPost2010Prop54
  1
strokes_ogs.tif
102
RTVSPost2010PropOp54
 70
     0
102
RTVSPost2010Prop55
280
     0
102
RTVSPost2010PropOp55
 70
     1
102
RTVSPost2010Prop56
140
1.0
102
RTVSPost2010PropOp56
 70
     0
102
RTVSPost2010Prop57
140
1.0
102
RTVSPost2010PropOp57
 70
     0
  0
XRECORD
  5
88881
102
{ACAD_REACTORS
330
876BC
102
}
330
876BC
100
AcDbXrecord
280
     1
102
RTVSPropertyOp0
 70
     1
102
RTVSPropertyOp1
 70
     1
102
RTVSPropertyOp2
 70
     1
102
RTVSPropertyOp3
 70
     1
102
RTVSPropertyOp4
 70
     1
102
RTVSPropertyOp5
 70
     1
102
RTVSPropertyOp6
 70
     1
102
RTVSPropertyOp7
 70
     1
102
RTVSPropertyOp8
 70
     1
102
RTVSPropertyOp9
 70
     1
102
RTVSPropertyOp10
 70
     1
102
RTVSPropertyOp11
 70
     1
102
RTVSPropertyOp12
 70
     1
102
RTVSPropertyOp13
 70
     1
102
RTVSPropertyOp14
 70
     1
102
RTVSPropertyOp15
 70
     1
102
RTVSPropertyOp16
 70
     1
102
RTVSPropertyOp17
 70
     1
102
RTVSPropertyOp18
 70
     1
102
RTVSPropertyOp19
 70
     1
102
RTVSPropertyOp20
 70
     1
102
RTVSPropertyOp21
 70
     1
102
RTVSPropertyOp22
 70
     1
102
RTVSPropertyOp23
 70
     1
102
RTVSPropertyOp24
 70
     1
102
RTVSPropertyOp25
 70
     1
102
RTVSPropertyOp26
 70
     1
102
RTVSPropertyOp27
 70
     1
102
RTVSPropertyOp28
 70
     1
102
RTVSPropertyOp29
 70
     1
102
RTVSPropertyOp30
 70
     1
102
RTVSPropertyOp31
 70
     1
102
RTVSPropertyOp32
 70
     1
102
RTVSPropertyOp33
 70
     1
102
RTVSPropertyOp34
 70
     1
102
RTVSPropertyOp35
 70
     1
102
RTVSPropertyOp36
 70
     1
102
RTVSPropertyOp37
 70
     1
102
RTVSPropertyOp38
 70
     1
102
RTVSPropertyOp39
 70
     1
102
RTVSPropertyOp40
 70
     1
102
RTVSPropertyOp41
 70
     1
102
RTVSPropertyOp42
 70
     1
102
RTVSPropertyOp43
 70
     1
102
RTVSPropertyOp44
 70
     1
102
RTVSPropertyOp45
 70
     1
102
RTVSPropertyOp46
 70
     1
102
RTVSPropertyOp47
 70
     1
102
RTVSPropertyOp48
 70
     1
102
RTVSPropertyOp49
 70
     1
102
RTVSPropertyOp50
 70
     1
102
RTVSPropertyOp51
 70
     0
102
RTVSPropertyOp52
 70
     0
102
RTVSPropertyOp53
 70
     1
102
RTVSPropertyOp54
 70
     1
102
RTVSPropertyOp55
 70
     1
102
RTVSPropertyOp56
 70
     1
102
RTVSPropertyOp57
 70
     1
102
RTVSPost2010Prop28
280
     0
102
RTVSPost2010PropOp28
 70
     1
102
RTVSPost2010Prop29
280
     1
102
RTVSPost2010PropOp29
 70
     1
102
RTVSPost2010Prop30
280
     1
102
RTVSPost2010PropOp30
 70
     1
102
RTVSPost2010Prop31
280
     0
102
RTVSPost2010PropOp31
 70
     1
102
RTVSPost2010Prop32
280
     0
102
RTVSPost2010PropOp32
 70
     1
102
RTVSPost2010Prop33
280
     0
102
RTVSPost2010PropOp33
 70
     1
102
RTVSPost2010Prop34
280
     0
102
RTVSPost2010PropOp34
 70
     1
102
RTVSPost2010Prop35
280
     0
102
RTVSPost2010PropOp35
 70
     1
102
RTVSPost2010Prop36
280
     0
102
RTVSPost2010PropOp36
 70
     1
102
RTVSPost2010Prop37
 90
       50
102
RTVSPost2010PropOp37
 70
     1
102
RTVSPost2010Prop38
140
0.0
102
RTVSPost2010PropOp38
 70
     1
102
RTVSPost2010Prop39
140
1.0
102
RTVSPost2010PropOp39
 70
     1
102
RTVSPost2010Prop40
 90
        0
102
RTVSPost2010PropOp40
 70
     1
102
RTVSPost2010Prop41ColorIndex
 90
       18
102
RTVSPost2010Prop41ColorRGB
 90
        0
102
RTVSPost2010PropOp41
 70
     1
102
RTVSPost2010Prop42
 90
       50
102
RTVSPost2010PropOp42
 70
     1
102
RTVSPost2010Prop43
 90
        3
102
RTVSPost2010PropOp43
 70
     1
102
RTVSPost2010Prop44ColorIndex
 90
        5
102
RTVSPost2010Prop44ColorRGB
 90
      255
102
RTVSPost2010PropOp44
 70
     1
102
RTVSPost2010Prop45
280
     0
102
RTVSPost2010PropOp45
 70
     1
102
RTVSPost2010Prop46
 90
       50
102
RTVSPost2010PropOp46
 70
     1
102
RTVSPost2010Prop47
 90
       50
102
RTVSPost2010PropOp47
 70
     1
102
RTVSPost2010Prop48
 90
       50
102
RTVSPost2010PropOp48
 70
     1
102
RTVSPost2010Prop49
280
     0
102
RTVSPost2010PropOp49
 70
     1
102
RTVSPost2010Prop50
 90
       50
102
RTVSPost2010PropOp50
 70
     1
102
RTVSPost2010Prop51ColorIndex
 90
      256
102
RTVSPost2010Prop51ColorRGB
 90
-16777216
102
RTVSPost2010PropOp51
 70
     0
102
RTVSPost2010Prop52
140
1.0
102
RTVSPost2010PropOp52
 70
     0
102
RTVSPost2010Prop53
 90
        2
102
RTVSPost2010PropOp53
 70
     1
102
RTVSPost2010Prop54
  1
strokes_ogs.tif
102
RTVSPost2010PropOp54
 70
     1
102
RTVSPost2010Prop55
280
     0
102
RTVSPost2010PropOp55
 70
     1
102
RTVSPost2010Prop56
140
1.0
102
RTVSPost2010PropOp56
 70
     1
102
RTVSPost2010Prop57
140
1.0
102
RTVSPost2010PropOp57
 70
     1
  0
XRECORD
  5
88882
102
{ACAD_REACTORS
330
876CE
102
}
330
876CE
100
AcDbXrecord
280
     1
102
RTVSPropertyOp0
 70
     0
102
RTVSPropertyOp1
 70
     0
102
RTVSPropertyOp2
 70
     0
102
RTVSPropertyOp3
 70
     0
102
RTVSPropertyOp4
 70
     0
102
RTVSPropertyOp5
 70
     0
102
RTVSPropertyOp6
 70
     0
102
RTVSPropertyOp7
 70
     0
102
RTVSPropertyOp8
 70
     0
102
RTVSPropertyOp9
 70
     0
102
RTVSPropertyOp10
 70
     0
102
RTVSPropertyOp11
 70
     0
102
RTVSPropertyOp12
 70
     0
102
RTVSPropertyOp13
 70
     0
102
RTVSPropertyOp14
 70
     2
102
RTVSPropertyOp15
 70
     0
102
RTVSPropertyOp16
 70
     0
102
RTVSPropertyOp17
 70
     0
102
RTVSPropertyOp18
 70
     0
102
RTVSPropertyOp19
 70
     0
102
RTVSPropertyOp20
 70
     0
102
RTVSPropertyOp21
 70
     0
102
RTVSPropertyOp22
 70
     0
102
RTVSPropertyOp23
 70
     0
102
RTVSPropertyOp24
 70
     0
102
RTVSPropertyOp25
 70
     0
102
RTVSPropertyOp26
 70
     0
102
RTVSPropertyOp27
 70
     0
102
RTVSPropertyOp28
 70
     1
102
RTVSPropertyOp29
 70
     1
102
RTVSPropertyOp30
 70
     1
102
RTVSPropertyOp31
 70
     1
102
RTVSPropertyOp32
 70
     1
102
RTVSPropertyOp33
 70
     1
102
RTVSPropertyOp34
 70
     1
102
RTVSPropertyOp35
 70
     1
102
RTVSPropertyOp36
 70
     1
102
RTVSPropertyOp37
 70
     0
102
RTVSPropertyOp38
 70
     0
102
RTVSPropertyOp39
 70
     0
102
RTVSPropertyOp40
 70
     0
102
RTVSPropertyOp41
 70
     0
102
RTVSPropertyOp42
 70
     0
102
RTVSPropertyOp43
 70
     0
102
RTVSPropertyOp44
 70
     0
102
RTVSPropertyOp45
 70
     1
102
RTVSPropertyOp46
 70
     0
102
RTVSPropertyOp47
 70
     0
102
RTVSPropertyOp48
 70
     0
102
RTVSPropertyOp49
 70
     1
102
RTVSPropertyOp50
 70
     0
102
RTVSPropertyOp51
 70
     0
102
RTVSPropertyOp52
 70
     0
102
RTVSPropertyOp53
 70
     0
102
RTVSPropertyOp54
 70
     0
102
RTVSPropertyOp55
 70
     1
102
RTVSPropertyOp56
 70
     0
102
RTVSPropertyOp57
 70
     0
102
RTVSPost2010Prop28
280
     0
102
RTVSPost2010PropOp28
 70
     1
102
RTVSPost2010Prop29
280
     1
102
RTVSPost2010PropOp29
 70
     1
102
RTVSPost2010Prop30
280
     1
102
RTVSPost2010PropOp30
 70
     1
102
RTVSPost2010Prop31
280
     0
102
RTVSPost2010PropOp31
 70
     1
102
RTVSPost2010Prop32
280
     0
102
RTVSPost2010PropOp32
 70
     1
102
RTVSPost2010Prop33
280
     0
102
RTVSPost2010PropOp33
 70
     1
102
RTVSPost2010Prop34
280
     0
102
RTVSPost2010PropOp34
 70
     1
102
RTVSPost2010Prop35
280
     0
102
RTVSPost2010PropOp35
 70
     1
102
RTVSPost2010Prop36
280
     0
102
RTVSPost2010PropOp36
 70
     1
102
RTVSPost2010Prop37
 90
       50
102
RTVSPost2010PropOp37
 70
     0
102
RTVSPost2010Prop38
140
0.0
102
RTVSPost2010PropOp38
 70
     0
102
RTVSPost2010Prop39
140
1.0
102
RTVSPost2010PropOp39
 70
     0
102
RTVSPost2010Prop40
 90
        0
102
RTVSPost2010PropOp40
 70
     0
102
RTVSPost2010Prop41ColorIndex
 90
       18
102
RTVSPost2010Prop41ColorRGB
 90
        0
102
RTVSPost2010PropOp41
 70
     0
102
RTVSPost2010Prop42
 90
       50
102
RTVSPost2010PropOp42
 70
     0
102
RTVSPost2010Prop43
 90
        3
102
RTVSPost2010PropOp43
 70
     0
102
RTVSPost2010Prop44ColorIndex
 90
        5
102
RTVSPost2010Prop44ColorRGB
 90
      255
102
RTVSPost2010PropOp44
 70
     0
102
RTVSPost2010Prop45
280
     0
102
RTVSPost2010PropOp45
 70
     1
102
RTVSPost2010Prop46
 90
       50
102
RTVSPost2010PropOp46
 70
     0
102
RTVSPost2010Prop47
 90
       50
102
RTVSPost2010PropOp47
 70
     0
102
RTVSPost2010Prop48
 90
       50
102
RTVSPost2010PropOp48
 70
     0
102
RTVSPost2010Prop49
280
     0
102
RTVSPost2010PropOp49
 70
     1
102
RTVSPost2010Prop50
 90
       50
102
RTVSPost2010PropOp50
 70
     0
102
RTVSPost2010Prop51ColorIndex
 90
      256
102
RTVSPost2010Prop51ColorRGB
 90
-16777216
102
RTVSPost2010PropOp51
 70
     0
102
RTVSPost2010Prop52
140
1.0
102
RTVSPost2010PropOp52
 70
     0
102
RTVSPost2010Prop53
 90
        2
102
RTVSPost2010PropOp53
 70
     0
102
RTVSPost2010Prop54
  1
strokes_ogs.tif
102
RTVSPost2010PropOp54
 70
     0
102
RTVSPost2010Prop55
280
     0
102
RTVSPost2010PropOp55
 70
     1
102
RTVSPost2010Prop56
140
1.0
102
RTVSPost2010PropOp56
 70
     0
102
RTVSPost2010Prop57
140
1.0
102
RTVSPost2010PropOp57
 70
     0
  0
XRECORD
  5
88883
102
{ACAD_REACTORS
330
876B4
102
}
330
876B4
100
AcDbXrecord
280
     1
102
RTVSPropertyOp0
 70
     1
102
RTVSPropertyOp1
 70
     1
102
RTVSPropertyOp2
 70
     1
102
RTVSPropertyOp3
 70
     1
102
RTVSPropertyOp4
 70
     1
102
RTVSPropertyOp5
 70
     1
102
RTVSPropertyOp6
 70
     1
102
RTVSPropertyOp7
 70
     1
102
RTVSPropertyOp8
 70
     1
102
RTVSPropertyOp9
 70
     1
102
RTVSPropertyOp10
 70
     1
102
RTVSPropertyOp11
 70
     1
102
RTVSPropertyOp12
 70
     1
102
RTVSPropertyOp13
 70
     1
102
RTVSPropertyOp14
 70
     1
102
RTVSPropertyOp15
 70
     1
102
RTVSPropertyOp16
 70
     1
102
RTVSPropertyOp17
 70
     1
102
RTVSPropertyOp18
 70
     1
102
RTVSPropertyOp19
 70
     1
102
RTVSPropertyOp20
 70
     1
102
RTVSPropertyOp21
 70
     1
102
RTVSPropertyOp22
 70
     1
102
RTVSPropertyOp23
 70
     1
102
RTVSPropertyOp24
 70
     1
102
RTVSPropertyOp25
 70
     1
102
RTVSPropertyOp26
 70
     1
102
RTVSPropertyOp27
 70
     1
102
RTVSPropertyOp28
 70
     1
102
RTVSPropertyOp29
 70
     1
102
RTVSPropertyOp30
 70
     1
102
RTVSPropertyOp31
 70
     1
102
RTVSPropertyOp32
 70
     1
102
RTVSPropertyOp33
 70
     1
102
RTVSPropertyOp34
 70
     1
102
RTVSPropertyOp35
 70
     1
102
RTVSPropertyOp36
 70
     1
102
RTVSPropertyOp37
 70
     1
102
RTVSPropertyOp38
 70
     1
102
RTVSPropertyOp39
 70
     1
102
RTVSPropertyOp40
 70
     1
102
RTVSPropertyOp41
 70
     1
102
RTVSPropertyOp42
 70
     1
102
RTVSPropertyOp43
 70
     1
102
RTVSPropertyOp44
 70
     1
102
RTVSPropertyOp45
 70
     1
102
RTVSPropertyOp46
 70
     1
102
RTVSPropertyOp47
 70
     1
102
RTVSPropertyOp48
 70
     1
102
RTVSPropertyOp49
 70
     1
102
RTVSPropertyOp50
 70
     1
102
RTVSPropertyOp51
 70
     0
102
RTVSPropertyOp52
 70
     0
102
RTVSPropertyOp53
 70
     1
102
RTVSPropertyOp54
 70
     1
102
RTVSPropertyOp55
 70
     1
102
RTVSPropertyOp56
 70
     1
102
RTVSPropertyOp57
 70
     1
102
RTVSPost2010Prop28
280
     0
102
RTVSPost2010PropOp28
 70
     1
102
RTVSPost2010Prop29
280
     1
102
RTVSPost2010PropOp29
 70
     1
102
RTVSPost2010Prop30
280
     1
102
RTVSPost2010PropOp30
 70
     1
102
RTVSPost2010Prop31
280
     0
102
RTVSPost2010PropOp31
 70
     1
102
RTVSPost2010Prop32
280
     0
102
RTVSPost2010PropOp32
 70
     1
102
RTVSPost2010Prop33
280
     0
102
RTVSPost2010PropOp33
 70
     1
102
RTVSPost2010Prop34
280
     0
102
RTVSPost2010PropOp34
 70
     1
102
RTVSPost2010Prop35
280
     0
102
RTVSPost2010PropOp35
 70
     1
102
RTVSPost2010Prop36
280
     0
102
RTVSPost2010PropOp36
 70
     1
102
RTVSPost2010Prop37
 90
       50
102
RTVSPost2010PropOp37
 70
     1
102
RTVSPost2010Prop38
140
0.0
102
RTVSPost2010PropOp38
 70
     1
102
RTVSPost2010Prop39
140
1.0
102
RTVSPost2010PropOp39
 70
     1
102
RTVSPost2010Prop40
 90
        0
102
RTVSPost2010PropOp40
 70
     1
102
RTVSPost2010Prop41ColorIndex
 90
       18
102
RTVSPost2010Prop41ColorRGB
 90
        0
102
RTVSPost2010PropOp41
 70
     1
102
RTVSPost2010Prop42
 90
       50
102
RTVSPost2010PropOp42
 70
     1
102
RTVSPost2010Prop43
 90
        3
102
RTVSPost2010PropOp43
 70
     1
102
RTVSPost2010Prop44ColorIndex
 90
        5
102
RTVSPost2010Prop44ColorRGB
 90
      255
102
RTVSPost2010PropOp44
 70
     1
102
RTVSPost2010Prop45
280
     0
102
RTVSPost2010PropOp45
 70
     1
102
RTVSPost2010Prop46
 90
       50
102
RTVSPost2010PropOp46
 70
     1
102
RTVSPost2010Prop47
 90
       50
102
RTVSPost2010PropOp47
 70
     1
102
RTVSPost2010Prop48
 90
       50
102
RTVSPost2010PropOp48
 70
     1
102
RTVSPost2010Prop49
280
     0
102
RTVSPost2010PropOp49
 70
     1
102
RTVSPost2010Prop50
 90
       50
102
RTVSPost2010PropOp50
 70
     1
102
RTVSPost2010Prop51ColorIndex
 90
      256
102
RTVSPost2010Prop51ColorRGB
 90
-16777216
102
RTVSPost2010PropOp51
 70
     0
102
RTVSPost2010Prop52
140
1.0
102
RTVSPost2010PropOp52
 70
     0
102
RTVSPost2010Prop53
 90
        2
102
RTVSPost2010PropOp53
 70
     1
102
RTVSPost2010Prop54
  1
strokes_ogs.tif
102
RTVSPost2010PropOp54
 70
     1
102
RTVSPost2010Prop55
280
     0
102
RTVSPost2010PropOp55
 70
     1
102
RTVSPost2010Prop56
140
1.0
102
RTVSPost2010PropOp56
 70
     1
102
RTVSPost2010Prop57
140
1.0
102
RTVSPost2010PropOp57
 70
     1
  0
XRECORD
  5
88884
102
{ACAD_REACTORS
330
876CA
102
}
330
876CA
100
AcDbXrecord
280
     1
102
RTVSPropertyOp0
 70
     1
102
RTVSPropertyOp1
 70
     1
102
RTVSPropertyOp2
 70
     1
102
RTVSPropertyOp3
 70
     1
102
RTVSPropertyOp4
 70
     1
102
RTVSPropertyOp5
 70
     1
102
RTVSPropertyOp6
 70
     1
102
RTVSPropertyOp7
 70
     1
102
RTVSPropertyOp8
 70
     1
102
RTVSPropertyOp9
 70
     1
102
RTVSPropertyOp10
 70
     1
102
RTVSPropertyOp11
 70
     1
102
RTVSPropertyOp12
 70
     1
102
RTVSPropertyOp13
 70
     1
102
RTVSPropertyOp14
 70
     1
102
RTVSPropertyOp15
 70
     1
102
RTVSPropertyOp16
 70
     1
102
RTVSPropertyOp17
 70
     1
102
RTVSPropertyOp18
 70
     1
102
RTVSPropertyOp19
 70
     1
102
RTVSPropertyOp20
 70
     1
102
RTVSPropertyOp21
 70
     1
102
RTVSPropertyOp22
 70
     1
102
RTVSPropertyOp23
 70
     1
102
RTVSPropertyOp24
 70
     1
102
RTVSPropertyOp25
 70
     1
102
RTVSPropertyOp26
 70
     1
102
RTVSPropertyOp27
 70
     1
102
RTVSPropertyOp28
 70
     1
102
RTVSPropertyOp29
 70
     1
102
RTVSPropertyOp30
 70
     1
102
RTVSPropertyOp31
 70
     1
102
RTVSPropertyOp32
 70
     1
102
RTVSPropertyOp33
 70
     1
102
RTVSPropertyOp34
 70
     1
102
RTVSPropertyOp35
 70
     1
102
RTVSPropertyOp36
 70
     1
102
RTVSPropertyOp37
 70
     1
102
RTVSPropertyOp38
 70
     1
102
RTVSPropertyOp39
 70
     1
102
RTVSPropertyOp40
 70
     1
102
RTVSPropertyOp41
 70
     1
102
RTVSPropertyOp42
 70
     1
102
RTVSPropertyOp43
 70
     1
102
RTVSPropertyOp44
 70
     1
102
RTVSPropertyOp45
 70
     1
102
RTVSPropertyOp46
 70
     1
102
RTVSPropertyOp47
 70
     1
102
RTVSPropertyOp48
 70
     1
102
RTVSPropertyOp49
 70
     1
102
RTVSPropertyOp50
 70
     1
102
RTVSPropertyOp51
 70
     0
102
RTVSPropertyOp52
 70
     0
102
RTVSPropertyOp53
 70
     1
102
RTVSPropertyOp54
 70
     1
102
RTVSPropertyOp55
 70
     1
102
RTVSPropertyOp56
 70
     1
102
RTVSPropertyOp57
 70
     1
102
RTVSPost2010Prop28
280
     0
102
RTVSPost2010PropOp28
 70
     1
102
RTVSPost2010Prop29
280
     1
102
RTVSPost2010PropOp29
 70
     1
102
RTVSPost2010Prop30
280
     1
102
RTVSPost2010PropOp30
 70
     1
102
RTVSPost2010Prop31
280
     0
102
RTVSPost2010PropOp31
 70
     1
102
RTVSPost2010Prop32
280
     0
102
RTVSPost2010PropOp32
 70
     1
102
RTVSPost2010Prop33
280
     0
102
RTVSPost2010PropOp33
 70
     1
102
RTVSPost2010Prop34
280
     0
102
RTVSPost2010PropOp34
 70
     1
102
RTVSPost2010Prop35
280
     0
102
RTVSPost2010PropOp35
 70
     1
102
RTVSPost2010Prop36
280
     0
102
RTVSPost2010PropOp36
 70
     1
102
RTVSPost2010Prop37
 90
       50
102
RTVSPost2010PropOp37
 70
     1
102
RTVSPost2010Prop38
140
0.0
102
RTVSPost2010PropOp38
 70
     1
102
RTVSPost2010Prop39
140
1.0
102
RTVSPost2010PropOp39
 70
     1
102
RTVSPost2010Prop40
 90
        0
102
RTVSPost2010PropOp40
 70
     1
102
RTVSPost2010Prop41ColorIndex
 90
       18
102
RTVSPost2010Prop41ColorRGB
 90
        0
102
RTVSPost2010PropOp41
 70
     1
102
RTVSPost2010Prop42
 90
       50
102
RTVSPost2010PropOp42
 70
     1
102
RTVSPost2010Prop43
 90
        3
102
RTVSPost2010PropOp43
 70
     1
102
RTVSPost2010Prop44ColorIndex
 90
        5
102
RTVSPost2010Prop44ColorRGB
 90
      255
102
RTVSPost2010PropOp44
 70
     1
102
RTVSPost2010Prop45
280
     0
102
RTVSPost2010PropOp45
 70
     1
102
RTVSPost2010Prop46
 90
       50
102
RTVSPost2010PropOp46
 70
     1
102
RTVSPost2010Prop47
 90
       50
102
RTVSPost2010PropOp47
 70
     1
102
RTVSPost2010Prop48
 90
       50
102
RTVSPost2010PropOp48
 70
     1
102
RTVSPost2010Prop49
280
     0
102
RTVSPost2010PropOp49
 70
     1
102
RTVSPost2010Prop50
 90
       50
102
RTVSPost2010PropOp50
 70
     1
102
RTVSPost2010Prop51ColorIndex
 90
      256
102
RTVSPost2010Prop51ColorRGB
 90
-16777216
102
RTVSPost2010PropOp51
 70
     0
102
RTVSPost2010Prop52
140
1.0
102
RTVSPost2010PropOp52
 70
     0
102
RTVSPost2010Prop53
 90
        2
102
RTVSPost2010PropOp53
 70
     1
102
RTVSPost2010Prop54
  1
strokes_ogs.tif
102
RTVSPost2010PropOp54
 70
     1
102
RTVSPost2010Prop55
280
     0
102
RTVSPost2010PropOp55
 70
     1
102
RTVSPost2010Prop56
140
1.0
102
RTVSPost2010PropOp56
 70
     1
102
RTVSPost2010Prop57
140
1.0
102
RTVSPost2010PropOp57
 70
     1
  0
XRECORD
  5
88885
102
{ACAD_REACTORS
330
876C8
102
}
330
876C8
100
AcDbXrecord
280
     1
102
RTVSPropertyOp0
 70
     1
102
RTVSPropertyOp1
 70
     1
102
RTVSPropertyOp2
 70
     1
102
RTVSPropertyOp3
 70
     1
102
RTVSPropertyOp4
 70
     1
102
RTVSPropertyOp5
 70
     1
102
RTVSPropertyOp6
 70
     1
102
RTVSPropertyOp7
 70
     1
102
RTVSPropertyOp8
 70
     1
102
RTVSPropertyOp9
 70
     1
102
RTVSPropertyOp10
 70
     1
102
RTVSPropertyOp11
 70
     1
102
RTVSPropertyOp12
 70
     1
102
RTVSPropertyOp13
 70
     1
102
RTVSPropertyOp14
 70
     1
102
RTVSPropertyOp15
 70
     1
102
RTVSPropertyOp16
 70
     1
102
RTVSPropertyOp17
 70
     1
102
RTVSPropertyOp18
 70
     1
102
RTVSPropertyOp19
 70
     1
102
RTVSPropertyOp20
 70
     1
102
RTVSPropertyOp21
 70
     1
102
RTVSPropertyOp22
 70
     1
102
RTVSPropertyOp23
 70
     1
102
RTVSPropertyOp24
 70
     1
102
RTVSPropertyOp25
 70
     1
102
RTVSPropertyOp26
 70
     1
102
RTVSPropertyOp27
 70
     1
102
RTVSPropertyOp28
 70
     1
102
RTVSPropertyOp29
 70
     1
102
RTVSPropertyOp30
 70
     1
102
RTVSPropertyOp31
 70
     1
102
RTVSPropertyOp32
 70
     1
102
RTVSPropertyOp33
 70
     1
102
RTVSPropertyOp34
 70
     1
102
RTVSPropertyOp35
 70
     1
102
RTVSPropertyOp36
 70
     1
102
RTVSPropertyOp37
 70
     1
102
RTVSPropertyOp38
 70
     1
102
RTVSPropertyOp39
 70
     1
102
RTVSPropertyOp40
 70
     1
102
RTVSPropertyOp41
 70
     1
102
RTVSPropertyOp42
 70
     1
102
RTVSPropertyOp43
 70
     1
102
RTVSPropertyOp44
 70
     1
102
RTVSPropertyOp45
 70
     1
102
RTVSPropertyOp46
 70
     1
102
RTVSPropertyOp47
 70
     1
102
RTVSPropertyOp48
 70
     1
102
RTVSPropertyOp49
 70
     1
102
RTVSPropertyOp50
 70
     1
102
RTVSPropertyOp51
 70
     0
102
RTVSPropertyOp52
 70
     0
102
RTVSPropertyOp53
 70
     1
102
RTVSPropertyOp54
 70
     1
102
RTVSPropertyOp55
 70
     1
102
RTVSPropertyOp56
 70
     1
102
RTVSPropertyOp57
 70
     1
102
RTVSPost2010Prop28
280
     0
102
RTVSPost2010PropOp28
 70
     1
102
RTVSPost2010Prop29
280
     1
102
RTVSPost2010PropOp29
 70
     1
102
RTVSPost2010Prop30
280
     1
102
RTVSPost2010PropOp30
 70
     1
102
RTVSPost2010Prop31
280
     0
102
RTVSPost2010PropOp31
 70
     1
102
RTVSPost2010Prop32
280
     0
102
RTVSPost2010PropOp32
 70
     1
102
RTVSPost2010Prop33
280
     0
102
RTVSPost2010PropOp33
 70
     1
102
RTVSPost2010Prop34
280
     0
102
RTVSPost2010PropOp34
 70
     1
102
RTVSPost2010Prop35
280
     0
102
RTVSPost2010PropOp35
 70
     1
102
RTVSPost2010Prop36
280
     0
102
RTVSPost2010PropOp36
 70
     1
102
RTVSPost2010Prop37
 90
       50
102
RTVSPost2010PropOp37
 70
     1
102
RTVSPost2010Prop38
140
0.0
102
RTVSPost2010PropOp38
 70
     1
102
RTVSPost2010Prop39
140
1.0
102
RTVSPost2010PropOp39
 70
     1
102
RTVSPost2010Prop40
 90
        0
102
RTVSPost2010PropOp40
 70
     1
102
RTVSPost2010Prop41ColorIndex
 90
       18
102
RTVSPost2010Prop41ColorRGB
 90
        0
102
RTVSPost2010PropOp41
 70
     1
102
RTVSPost2010Prop42
 90
       50
102
RTVSPost2010PropOp42
 70
     1
102
RTVSPost2010Prop43
 90
        3
102
RTVSPost2010PropOp43
 70
     1
102
RTVSPost2010Prop44ColorIndex
 90
        5
102
RTVSPost2010Prop44ColorRGB
 90
      255
102
RTVSPost2010PropOp44
 70
     1
102
RTVSPost2010Prop45
280
     0
102
RTVSPost2010PropOp45
 70
     1
102
RTVSPost2010Prop46
 90
       50
102
RTVSPost2010PropOp46
 70
     1
102
RTVSPost2010Prop47
 90
       50
102
RTVSPost2010PropOp47
 70
     1
102
RTVSPost2010Prop48
 90
       50
102
RTVSPost2010PropOp48
 70
     1
102
RTVSPost2010Prop49
280
     0
102
RTVSPost2010PropOp49
 70
     1
102
RTVSPost2010Prop50
 90
       50
102
RTVSPost2010PropOp50
 70
     1
102
RTVSPost2010Prop51ColorIndex
 90
      256
102
RTVSPost2010Prop51ColorRGB
 90
-16777216
102
RTVSPost2010PropOp51
 70
     0
102
RTVSPost2010Prop52
140
1.0
102
RTVSPost2010PropOp52
 70
     0
102
RTVSPost2010Prop53
 90
        2
102
RTVSPost2010PropOp53
 70
     1
102
RTVSPost2010Prop54
  1
strokes_ogs.tif
102
RTVSPost2010PropOp54
 70
     1
102
RTVSPost2010Prop55
280
     0
102
RTVSPost2010PropOp55
 70
     1
102
RTVSPost2010Prop56
140
1.0
102
RTVSPost2010PropOp56
 70
     1
102
RTVSPost2010Prop57
140
1.0
102
RTVSPost2010PropOp57
 70
     1
  0
XRECORD
  5
88886
102
{ACAD_REACTORS
330
876C2
102
}
330
876C2
100
AcDbXrecord
280
     1
102
RTVSPropertyOp0
 70
     1
102
RTVSPropertyOp1
 70
     1
102
RTVSPropertyOp2
 70
     1
102
RTVSPropertyOp3
 70
     1
102
RTVSPropertyOp4
 70
     1
102
RTVSPropertyOp5
 70
     1
102
RTVSPropertyOp6
 70
     1
102
RTVSPropertyOp7
 70
     1
102
RTVSPropertyOp8
 70
     1
102
RTVSPropertyOp9
 70
     1
102
RTVSPropertyOp10
 70
     1
102
RTVSPropertyOp11
 70
     1
102
RTVSPropertyOp12
 70
     1
102
RTVSPropertyOp13
 70
     1
102
RTVSPropertyOp14
 70
     1
102
RTVSPropertyOp15
 70
     1
102
RTVSPropertyOp16
 70
     1
102
RTVSPropertyOp17
 70
     1
102
RTVSPropertyOp18
 70
     1
102
RTVSPropertyOp19
 70
     1
102
RTVSPropertyOp20
 70
     1
102
RTVSPropertyOp21
 70
     1
102
RTVSPropertyOp22
 70
     1
102
RTVSPropertyOp23
 70
     1
102
RTVSPropertyOp24
 70
     1
102
RTVSPropertyOp25
 70
     1
102
RTVSPropertyOp26
 70
     1
102
RTVSPropertyOp27
 70
     1
102
RTVSPropertyOp28
 70
     1
102
RTVSPropertyOp29
 70
     1
102
RTVSPropertyOp30
 70
     1
102
RTVSPropertyOp31
 70
     1
102
RTVSPropertyOp32
 70
     1
102
RTVSPropertyOp33
 70
     1
102
RTVSPropertyOp34
 70
     1
102
RTVSPropertyOp35
 70
     1
102
RTVSPropertyOp36
 70
     1
102
RTVSPropertyOp37
 70
     1
102
RTVSPropertyOp38
 70
     1
102
RTVSPropertyOp39
 70
     1
102
RTVSPropertyOp40
 70
     1
102
RTVSPropertyOp41
 70
     1
102
RTVSPropertyOp42
 70
     1
102
RTVSPropertyOp43
 70
     1
102
RTVSPropertyOp44
 70
     1
102
RTVSPropertyOp45
 70
     1
102
RTVSPropertyOp46
 70
     1
102
RTVSPropertyOp47
 70
     1
102
RTVSPropertyOp48
 70
     1
102
RTVSPropertyOp49
 70
     1
102
RTVSPropertyOp50
 70
     1
102
RTVSPropertyOp51
 70
     0
102
RTVSPropertyOp52
 70
     0
102
RTVSPropertyOp53
 70
     1
102
RTVSPropertyOp54
 70
     1
102
RTVSPropertyOp55
 70
     1
102
RTVSPropertyOp56
 70
     1
102
RTVSPropertyOp57
 70
     1
102
RTVSPost2010Prop28
280
     0
102
RTVSPost2010PropOp28
 70
     1
102
RTVSPost2010Prop29
280
     1
102
RTVSPost2010PropOp29
 70
     1
102
RTVSPost2010Prop30
280
     1
102
RTVSPost2010PropOp30
 70
     1
102
RTVSPost2010Prop31
280
     0
102
RTVSPost2010PropOp31
 70
     1
102
RTVSPost2010Prop32
280
     0
102
RTVSPost2010PropOp32
 70
     1
102
RTVSPost2010Prop33
280
     0
102
RTVSPost2010PropOp33
 70
     1
102
RTVSPost2010Prop34
280
     0
102
RTVSPost2010PropOp34
 70
     1
102
RTVSPost2010Prop35
280
     0
102
RTVSPost2010PropOp35
 70
     1
102
RTVSPost2010Prop36
280
     0
102
RTVSPost2010PropOp36
 70
     1
102
RTVSPost2010Prop37
 90
       50
102
RTVSPost2010PropOp37
 70
     1
102
RTVSPost2010Prop38
140
0.0
102
RTVSPost2010PropOp38
 70
     1
102
RTVSPost2010Prop39
140
1.0
102
RTVSPost2010PropOp39
 70
     1
102
RTVSPost2010Prop40
 90
        0
102
RTVSPost2010PropOp40
 70
     1
102
RTVSPost2010Prop41ColorIndex
 90
       18
102
RTVSPost2010Prop41ColorRGB
 90
        0
102
RTVSPost2010PropOp41
 70
     1
102
RTVSPost2010Prop42
 90
       50
102
RTVSPost2010PropOp42
 70
     1
102
RTVSPost2010Prop43
 90
        3
102
RTVSPost2010PropOp43
 70
     1
102
RTVSPost2010Prop44ColorIndex
 90
        5
102
RTVSPost2010Prop44ColorRGB
 90
      255
102
RTVSPost2010PropOp44
 70
     1
102
RTVSPost2010Prop45
280
     0
102
RTVSPost2010PropOp45
 70
     1
102
RTVSPost2010Prop46
 90
       50
102
RTVSPost2010PropOp46
 70
     1
102
RTVSPost2010Prop47
 90
       50
102
RTVSPost2010PropOp47
 70
     1
102
RTVSPost2010Prop48
 90
       50
102
RTVSPost2010PropOp48
 70
     1
102
RTVSPost2010Prop49
280
     0
102
RTVSPost2010PropOp49
 70
     1
102
RTVSPost2010Prop50
 90
       50
102
RTVSPost2010PropOp50
 70
     1
102
RTVSPost2010Prop51ColorIndex
 90
      256
102
RTVSPost2010Prop51ColorRGB
 90
-16777216
102
RTVSPost2010PropOp51
 70
     0
102
RTVSPost2010Prop52
140
1.0
102
RTVSPost2010PropOp52
 70
     0
102
RTVSPost2010Prop53
 90
        2
102
RTVSPost2010PropOp53
 70
     1
102
RTVSPost2010Prop54
  1
strokes_ogs.tif
102
RTVSPost2010PropOp54
 70
     1
102
RTVSPost2010Prop55
280
     0
102
RTVSPost2010PropOp55
 70
     1
102
RTVSPost2010Prop56
140
1.0
102
RTVSPost2010PropOp56
 70
     1
102
RTVSPost2010Prop57
140
1.0
102
RTVSPost2010PropOp57
 70
     1
  0
XRECORD
  5
88887
102
{ACAD_REACTORS
330
876C4
102
}
330
876C4
100
AcDbXrecord
280
     1
102
RTVSPropertyOp0
 70
     1
102
RTVSPropertyOp1
 70
     1
102
RTVSPropertyOp2
 70
     1
102
RTVSPropertyOp3
 70
     1
102
RTVSPropertyOp4
 70
     1
102
RTVSPropertyOp5
 70
     1
102
RTVSPropertyOp6
 70
     1
102
RTVSPropertyOp7
 70
     1
102
RTVSPropertyOp8
 70
     1
102
RTVSPropertyOp9
 70
     1
102
RTVSPropertyOp10
 70
     1
102
RTVSPropertyOp11
 70
     1
102
RTVSPropertyOp12
 70
     1
102
RTVSPropertyOp13
 70
     1
102
RTVSPropertyOp14
 70
     1
102
RTVSPropertyOp15
 70
     1
102
RTVSPropertyOp16
 70
     1
102
RTVSPropertyOp17
 70
     1
102
RTVSPropertyOp18
 70
     1
102
RTVSPropertyOp19
 70
     1
102
RTVSPropertyOp20
 70
     1
102
RTVSPropertyOp21
 70
     1
102
RTVSPropertyOp22
 70
     1
102
RTVSPropertyOp23
 70
     1
102
RTVSPropertyOp24
 70
     1
102
RTVSPropertyOp25
 70
     1
102
RTVSPropertyOp26
 70
     1
102
RTVSPropertyOp27
 70
     1
102
RTVSPropertyOp28
 70
     1
102
RTVSPropertyOp29
 70
     1
102
RTVSPropertyOp30
 70
     1
102
RTVSPropertyOp31
 70
     1
102
RTVSPropertyOp32
 70
     1
102
RTVSPropertyOp33
 70
     1
102
RTVSPropertyOp34
 70
     1
102
RTVSPropertyOp35
 70
     1
102
RTVSPropertyOp36
 70
     1
102
RTVSPropertyOp37
 70
     1
102
RTVSPropertyOp38
 70
     1
102
RTVSPropertyOp39
 70
     1
102
RTVSPropertyOp40
 70
     1
102
RTVSPropertyOp41
 70
     1
102
RTVSPropertyOp42
 70
     1
102
RTVSPropertyOp43
 70
     1
102
RTVSPropertyOp44
 70
     1
102
RTVSPropertyOp45
 70
     1
102
RTVSPropertyOp46
 70
     1
102
RTVSPropertyOp47
 70
     1
102
RTVSPropertyOp48
 70
     1
102
RTVSPropertyOp49
 70
     1
102
RTVSPropertyOp50
 70
     1
102
RTVSPropertyOp51
 70
     0
102
RTVSPropertyOp52
 70
     0
102
RTVSPropertyOp53
 70
     1
102
RTVSPropertyOp54
 70
     1
102
RTVSPropertyOp55
 70
     1
102
RTVSPropertyOp56
 70
     1
102
RTVSPropertyOp57
 70
     1
102
RTVSPost2010Prop28
280
     0
102
RTVSPost2010PropOp28
 70
     1
102
RTVSPost2010Prop29
280
     1
102
RTVSPost2010PropOp29
 70
     1
102
RTVSPost2010Prop30
280
     1
102
RTVSPost2010PropOp30
 70
     1
102
RTVSPost2010Prop31
280
     0
102
RTVSPost2010PropOp31
 70
     1
102
RTVSPost2010Prop32
280
     0
102
RTVSPost2010PropOp32
 70
     1
102
RTVSPost2010Prop33
280
     0
102
RTVSPost2010PropOp33
 70
     1
102
RTVSPost2010Prop34
280
     0
102
RTVSPost2010PropOp34
 70
     1
102
RTVSPost2010Prop35
280
     0
102
RTVSPost2010PropOp35
 70
     1
102
RTVSPost2010Prop36
280
     0
102
RTVSPost2010PropOp36
 70
     1
102
RTVSPost2010Prop37
 90
       50
102
RTVSPost2010PropOp37
 70
     1
102
RTVSPost2010Prop38
140
0.0
102
RTVSPost2010PropOp38
 70
     1
102
RTVSPost2010Prop39
140
1.0
102
RTVSPost2010PropOp39
 70
     1
102
RTVSPost2010Prop40
 90
        0
102
RTVSPost2010PropOp40
 70
     1
102
RTVSPost2010Prop41ColorIndex
 90
       18
102
RTVSPost2010Prop41ColorRGB
 90
        0
102
RTVSPost2010PropOp41
 70
     1
102
RTVSPost2010Prop42
 90
       50
102
RTVSPost2010PropOp42
 70
     1
102
RTVSPost2010Prop43
 90
        3
102
RTVSPost2010PropOp43
 70
     1
102
RTVSPost2010Prop44ColorIndex
 90
        5
102
RTVSPost2010Prop44ColorRGB
 90
      255
102
RTVSPost2010PropOp44
 70
     1
102
RTVSPost2010Prop45
280
     0
102
RTVSPost2010PropOp45
 70
     1
102
RTVSPost2010Prop46
 90
       50
102
RTVSPost2010PropOp46
 70
     1
102
RTVSPost2010Prop47
 90
       50
102
RTVSPost2010PropOp47
 70
     1
102
RTVSPost2010Prop48
 90
       50
102
RTVSPost2010PropOp48
 70
     1
102
RTVSPost2010Prop49
280
     0
102
RTVSPost2010PropOp49
 70
     1
102
RTVSPost2010Prop50
 90
       50
102
RTVSPost2010PropOp50
 70
     1
102
RTVSPost2010Prop51ColorIndex
 90
      256
102
RTVSPost2010Prop51ColorRGB
 90
-16777216
102
RTVSPost2010PropOp51
 70
     0
102
RTVSPost2010Prop52
140
1.0
102
RTVSPost2010PropOp52
 70
     0
102
RTVSPost2010Prop53
 90
        2
102
RTVSPost2010PropOp53
 70
     1
102
RTVSPost2010Prop54
  1
strokes_ogs.tif
102
RTVSPost2010PropOp54
 70
     1
102
RTVSPost2010Prop55
280
     0
102
RTVSPost2010PropOp55
 70
     1
102
RTVSPost2010Prop56
140
1.0
102
RTVSPost2010PropOp56
 70
     1
102
RTVSPost2010Prop57
140
1.0
102
RTVSPost2010PropOp57
 70
     1
  0
XRECORD
  5
88888
102
{ACAD_REACTORS
330
876BA
102
}
330
876BA
100
AcDbXrecord
280
     1
102
RTVSPropertyOp0
 70
     1
102
RTVSPropertyOp1
 70
     1
102
RTVSPropertyOp2
 70
     1
102
RTVSPropertyOp3
 70
     1
102
RTVSPropertyOp4
 70
     1
102
RTVSPropertyOp5
 70
     1
102
RTVSPropertyOp6
 70
     1
102
RTVSPropertyOp7
 70
     1
102
RTVSPropertyOp8
 70
     1
102
RTVSPropertyOp9
 70
     1
102
RTVSPropertyOp10
 70
     1
102
RTVSPropertyOp11
 70
     1
102
RTVSPropertyOp12
 70
     1
102
RTVSPropertyOp13
 70
     1
102
RTVSPropertyOp14
 70
     1
102
RTVSPropertyOp15
 70
     1
102
RTVSPropertyOp16
 70
     1
102
RTVSPropertyOp17
 70
     1
102
RTVSPropertyOp18
 70
     1
102
RTVSPropertyOp19
 70
     1
102
RTVSPropertyOp20
 70
     1
102
RTVSPropertyOp21
 70
     1
102
RTVSPropertyOp22
 70
     1
102
RTVSPropertyOp23
 70
     1
102
RTVSPropertyOp24
 70
     1
102
RTVSPropertyOp25
 70
     1
102
RTVSPropertyOp26
 70
     1
102
RTVSPropertyOp27
 70
     1
102
RTVSPropertyOp28
 70
     1
102
RTVSPropertyOp29
 70
     1
102
RTVSPropertyOp30
 70
     1
102
RTVSPropertyOp31
 70
     1
102
RTVSPropertyOp32
 70
     1
102
RTVSPropertyOp33
 70
     1
102
RTVSPropertyOp34
 70
     1
102
RTVSPropertyOp35
 70
     1
102
RTVSPropertyOp36
 70
     1
102
RTVSPropertyOp37
 70
     1
102
RTVSPropertyOp38
 70
     1
102
RTVSPropertyOp39
 70
     1
102
RTVSPropertyOp40
 70
     1
102
RTVSPropertyOp41
 70
     1
102
RTVSPropertyOp42
 70
     1
102
RTVSPropertyOp43
 70
     1
102
RTVSPropertyOp44
 70
     1
102
RTVSPropertyOp45
 70
     1
102
RTVSPropertyOp46
 70
     1
102
RTVSPropertyOp47
 70
     1
102
RTVSPropertyOp48
 70
     1
102
RTVSPropertyOp49
 70
     1
102
RTVSPropertyOp50
 70
     1
102
RTVSPropertyOp51
 70
     0
102
RTVSPropertyOp52
 70
     0
102
RTVSPropertyOp53
 70
     1
102
RTVSPropertyOp54
 70
     1
102
RTVSPropertyOp55
 70
     1
102
RTVSPropertyOp56
 70
     1
102
RTVSPropertyOp57
 70
     1
102
RTVSPost2010Prop28
280
     0
102
RTVSPost2010PropOp28
 70
     1
102
RTVSPost2010Prop29
280
     1
102
RTVSPost2010PropOp29
 70
     1
102
RTVSPost2010Prop30
280
     1
102
RTVSPost2010PropOp30
 70
     1
102
RTVSPost2010Prop31
280
     0
102
RTVSPost2010PropOp31
 70
     1
102
RTVSPost2010Prop32
280
     0
102
RTVSPost2010PropOp32
 70
     1
102
RTVSPost2010Prop33
280
     0
102
RTVSPost2010PropOp33
 70
     1
102
RTVSPost2010Prop34
280
     0
102
RTVSPost2010PropOp34
 70
     1
102
RTVSPost2010Prop35
280
     0
102
RTVSPost2010PropOp35
 70
     1
102
RTVSPost2010Prop36
280
     0
102
RTVSPost2010PropOp36
 70
     1
102
RTVSPost2010Prop37
 90
       50
102
RTVSPost2010PropOp37
 70
     1
102
RTVSPost2010Prop38
140
0.0
102
RTVSPost2010PropOp38
 70
     1
102
RTVSPost2010Prop39
140
1.0
102
RTVSPost2010PropOp39
 70
     1
102
RTVSPost2010Prop40
 90
        0
102
RTVSPost2010PropOp40
 70
     1
102
RTVSPost2010Prop41ColorIndex
 90
       18
102
RTVSPost2010Prop41ColorRGB
 90
        0
102
RTVSPost2010PropOp41
 70
     1
102
RTVSPost2010Prop42
 90
       50
102
RTVSPost2010PropOp42
 70
     1
102
RTVSPost2010Prop43
 90
        3
102
RTVSPost2010PropOp43
 70
     1
102
RTVSPost2010Prop44ColorIndex
 90
        5
102
RTVSPost2010Prop44ColorRGB
 90
      255
102
RTVSPost2010PropOp44
 70
     1
102
RTVSPost2010Prop45
280
     0
102
RTVSPost2010PropOp45
 70
     1
102
RTVSPost2010Prop46
 90
       50
102
RTVSPost2010PropOp46
 70
     1
102
RTVSPost2010Prop47
 90
       50
102
RTVSPost2010PropOp47
 70
     1
102
RTVSPost2010Prop48
 90
       50
102
RTVSPost2010PropOp48
 70
     1
102
RTVSPost2010Prop49
280
     0
102
RTVSPost2010PropOp49
 70
     1
102
RTVSPost2010Prop50
 90
       50
102
RTVSPost2010PropOp50
 70
     1
102
RTVSPost2010Prop51ColorIndex
 90
      256
102
RTVSPost2010Prop51ColorRGB
 90
-16777216
102
RTVSPost2010PropOp51
 70
     0
102
RTVSPost2010Prop52
140
1.0
102
RTVSPost2010PropOp52
 70
     0
102
RTVSPost2010Prop53
 90
        2
102
RTVSPost2010PropOp53
 70
     1
102
RTVSPost2010Prop54
  1
strokes_ogs.tif
102
RTVSPost2010PropOp54
 70
     1
102
RTVSPost2010Prop55
280
     0
102
RTVSPost2010PropOp55
 70
     1
102
RTVSPost2010Prop56
140
1.0
102
RTVSPost2010PropOp56
 70
     1
102
RTVSPost2010Prop57
140
1.0
102
RTVSPost2010PropOp57
 70
     1
  0
XRECORD
  5
88889
102
{ACAD_REACTORS
330
876AE
102
}
330
876AE
100
AcDbXrecord
280
     1
102
RTVSPropertyOp0
 70
     1
102
RTVSPropertyOp1
 70
     1
102
RTVSPropertyOp2
 70
     1
102
RTVSPropertyOp3
 70
     1
102
RTVSPropertyOp4
 70
     1
102
RTVSPropertyOp5
 70
     1
102
RTVSPropertyOp6
 70
     1
102
RTVSPropertyOp7
 70
     1
102
RTVSPropertyOp8
 70
     1
102
RTVSPropertyOp9
 70
     1
102
RTVSPropertyOp10
 70
     1
102
RTVSPropertyOp11
 70
     1
102
RTVSPropertyOp12
 70
     1
102
RTVSPropertyOp13
 70
     1
102
RTVSPropertyOp14
 70
     1
102
RTVSPropertyOp15
 70
     1
102
RTVSPropertyOp16
 70
     1
102
RTVSPropertyOp17
 70
     1
102
RTVSPropertyOp18
 70
     1
102
RTVSPropertyOp19
 70
     1
102
RTVSPropertyOp20
 70
     1
102
RTVSPropertyOp21
 70
     1
102
RTVSPropertyOp22
 70
     1
102
RTVSPropertyOp23
 70
     1
102
RTVSPropertyOp24
 70
     1
102
RTVSPropertyOp25
 70
     1
102
RTVSPropertyOp26
 70
     1
102
RTVSPropertyOp27
 70
     1
102
RTVSPropertyOp28
 70
     1
102
RTVSPropertyOp29
 70
     1
102
RTVSPropertyOp30
 70
     1
102
RTVSPropertyOp31
 70
     1
102
RTVSPropertyOp32
 70
     1
102
RTVSPropertyOp33
 70
     1
102
RTVSPropertyOp34
 70
     1
102
RTVSPropertyOp35
 70
     1
102
RTVSPropertyOp36
 70
     1
102
RTVSPropertyOp37
 70
     1
102
RTVSPropertyOp38
 70
     1
102
RTVSPropertyOp39
 70
     1
102
RTVSPropertyOp40
 70
     1
102
RTVSPropertyOp41
 70
     1
102
RTVSPropertyOp42
 70
     1
102
RTVSPropertyOp43
 70
     1
102
RTVSPropertyOp44
 70
     1
102
RTVSPropertyOp45
 70
     1
102
RTVSPropertyOp46
 70
     1
102
RTVSPropertyOp47
 70
     1
102
RTVSPropertyOp48
 70
     1
102
RTVSPropertyOp49
 70
     1
102
RTVSPropertyOp50
 70
     1
102
RTVSPropertyOp51
 70
     0
102
RTVSPropertyOp52
 70
     0
102
RTVSPropertyOp53
 70
     1
102
RTVSPropertyOp54
 70
     1
102
RTVSPropertyOp55
 70
     1
102
RTVSPropertyOp56
 70
     1
102
RTVSPropertyOp57
 70
     1
102
RTVSPost2010Prop28
280
     0
102
RTVSPost2010PropOp28
 70
     1
102
RTVSPost2010Prop29
280
     1
102
RTVSPost2010PropOp29
 70
     1
102
RTVSPost2010Prop30
280
     1
102
RTVSPost2010PropOp30
 70
     1
102
RTVSPost2010Prop31
280
     0
102
RTVSPost2010PropOp31
 70
     1
102
RTVSPost2010Prop32
280
     0
102
RTVSPost2010PropOp32
 70
     1
102
RTVSPost2010Prop33
280
     0
102
RTVSPost2010PropOp33
 70
     1
102
RTVSPost2010Prop34
280
     0
102
RTVSPost2010PropOp34
 70
     1
102
RTVSPost2010Prop35
280
     0
102
RTVSPost2010PropOp35
 70
     1
102
RTVSPost2010Prop36
280
     0
102
RTVSPost2010PropOp36
 70
     1
102
RTVSPost2010Prop37
 90
       50
102
RTVSPost2010PropOp37
 70
     1
102
RTVSPost2010Prop38
140
0.0
102
RTVSPost2010PropOp38
 70
     1
102
RTVSPost2010Prop39
140
1.0
102
RTVSPost2010PropOp39
 70
     1
102
RTVSPost2010Prop40
 90
        0
102
RTVSPost2010PropOp40
 70
     1
102
RTVSPost2010Prop41ColorIndex
 90
       18
102
RTVSPost2010Prop41ColorRGB
 90
        0
102
RTVSPost2010PropOp41
 70
     1
102
RTVSPost2010Prop42
 90
       50
102
RTVSPost2010PropOp42
 70
     1
102
RTVSPost2010Prop43
 90
        3
102
RTVSPost2010PropOp43
 70
     1
102
RTVSPost2010Prop44ColorIndex
 90
        5
102
RTVSPost2010Prop44ColorRGB
 90
      255
102
RTVSPost2010PropOp44
 70
     1
102
RTVSPost2010Prop45
280
     0
102
RTVSPost2010PropOp45
 70
     1
102
RTVSPost2010Prop46
 90
       50
102
RTVSPost2010PropOp46
 70
     1
102
RTVSPost2010Prop47
 90
       50
102
RTVSPost2010PropOp47
 70
     1
102
RTVSPost2010Prop48
 90
       50
102
RTVSPost2010PropOp48
 70
     1
102
RTVSPost2010Prop49
280
     0
102
RTVSPost2010PropOp49
 70
     1
102
RTVSPost2010Prop50
 90
       50
102
RTVSPost2010PropOp50
 70
     1
102
RTVSPost2010Prop51ColorIndex
 90
      256
102
RTVSPost2010Prop51ColorRGB
 90
-16777216
102
RTVSPost2010PropOp51
 70
     0
102
RTVSPost2010Prop52
140
1.0
102
RTVSPost2010PropOp52
 70
     0
102
RTVSPost2010Prop53
 90
        2
102
RTVSPost2010PropOp53
 70
     1
102
RTVSPost2010Prop54
  1
strokes_ogs.tif
102
RTVSPost2010PropOp54
 70
     1
102
RTVSPost2010Prop55
280
     0
102
RTVSPost2010PropOp55
 70
     1
102
RTVSPost2010Prop56
140
1.0
102
RTVSPost2010PropOp56
 70
     1
102
RTVSPost2010Prop57
140
1.0
102
RTVSPost2010PropOp57
 70
     1
  0
XRECORD
  5
8888A
102
{ACAD_REACTORS
330
876C6
102
}
330
876C6
100
AcDbXrecord
280
     1
102
RTVSPropertyOp0
 70
     1
102
RTVSPropertyOp1
 70
     1
102
RTVSPropertyOp2
 70
     1
102
RTVSPropertyOp3
 70
     1
102
RTVSPropertyOp4
 70
     1
102
RTVSPropertyOp5
 70
     1
102
RTVSPropertyOp6
 70
     1
102
RTVSPropertyOp7
 70
     1
102
RTVSPropertyOp8
 70
     1
102
RTVSPropertyOp9
 70
     1
102
RTVSPropertyOp10
 70
     1
102
RTVSPropertyOp11
 70
     1
102
RTVSPropertyOp12
 70
     1
102
RTVSPropertyOp13
 70
     1
102
RTVSPropertyOp14
 70
     1
102
RTVSPropertyOp15
 70
     1
102
RTVSPropertyOp16
 70
     1
102
RTVSPropertyOp17
 70
     1
102
RTVSPropertyOp18
 70
     1
102
RTVSPropertyOp19
 70
     1
102
RTVSPropertyOp20
 70
     1
102
RTVSPropertyOp21
 70
     1
102
RTVSPropertyOp22
 70
     1
102
RTVSPropertyOp23
 70
     1
102
RTVSPropertyOp24
 70
     1
102
RTVSPropertyOp25
 70
     1
102
RTVSPropertyOp26
 70
     1
102
RTVSPropertyOp27
 70
     1
102
RTVSPropertyOp28
 70
     1
102
RTVSPropertyOp29
 70
     1
102
RTVSPropertyOp30
 70
     1
102
RTVSPropertyOp31
 70
     1
102
RTVSPropertyOp32
 70
     1
102
RTVSPropertyOp33
 70
     1
102
RTVSPropertyOp34
 70
     1
102
RTVSPropertyOp35
 70
     1
102
RTVSPropertyOp36
 70
     1
102
RTVSPropertyOp37
 70
     1
102
RTVSPropertyOp38
 70
     1
102
RTVSPropertyOp39
 70
     1
102
RTVSPropertyOp40
 70
     1
102
RTVSPropertyOp41
 70
     1
102
RTVSPropertyOp42
 70
     1
102
RTVSPropertyOp43
 70
     1
102
RTVSPropertyOp44
 70
     1
102
RTVSPropertyOp45
 70
     1
102
RTVSPropertyOp46
 70
     1
102
RTVSPropertyOp47
 70
     1
102
RTVSPropertyOp48
 70
     1
102
RTVSPropertyOp49
 70
     1
102
RTVSPropertyOp50
 70
     1
102
RTVSPropertyOp51
 70
     0
102
RTVSPropertyOp52
 70
     0
102
RTVSPropertyOp53
 70
     1
102
RTVSPropertyOp54
 70
     1
102
RTVSPropertyOp55
 70
     1
102
RTVSPropertyOp56
 70
     1
102
RTVSPropertyOp57
 70
     1
102
RTVSPost2010Prop28
280
     0
102
RTVSPost2010PropOp28
 70
     1
102
RTVSPost2010Prop29
280
     1
102
RTVSPost2010PropOp29
 70
     1
102
RTVSPost2010Prop30
280
     1
102
RTVSPost2010PropOp30
 70
     1
102
RTVSPost2010Prop31
280
     0
102
RTVSPost2010PropOp31
 70
     1
102
RTVSPost2010Prop32
280
     0
102
RTVSPost2010PropOp32
 70
     1
102
RTVSPost2010Prop33
280
     0
102
RTVSPost2010PropOp33
 70
     1
102
RTVSPost2010Prop34
280
     0
102
RTVSPost2010PropOp34
 70
     1
102
RTVSPost2010Prop35
280
     0
102
RTVSPost2010PropOp35
 70
     1
102
RTVSPost2010Prop36
280
     0
102
RTVSPost2010PropOp36
 70
     1
102
RTVSPost2010Prop37
 90
       50
102
RTVSPost2010PropOp37
 70
     1
102
RTVSPost2010Prop38
140
0.0
102
RTVSPost2010PropOp38
 70
     1
102
RTVSPost2010Prop39
140
1.0
102
RTVSPost2010PropOp39
 70
     1
102
RTVSPost2010Prop40
 90
        0
102
RTVSPost2010PropOp40
 70
     1
102
RTVSPost2010Prop41ColorIndex
 90
       18
102
RTVSPost2010Prop41ColorRGB
 90
        0
102
RTVSPost2010PropOp41
 70
     1
102
RTVSPost2010Prop42
 90
       50
102
RTVSPost2010PropOp42
 70
     1
102
RTVSPost2010Prop43
 90
        3
102
RTVSPost2010PropOp43
 70
     1
102
RTVSPost2010Prop44ColorIndex
 90
        5
102
RTVSPost2010Prop44ColorRGB
 90
      255
102
RTVSPost2010PropOp44
 70
     1
102
RTVSPost2010Prop45
280
     0
102
RTVSPost2010PropOp45
 70
     1
102
RTVSPost2010Prop46
 90
       50
102
RTVSPost2010PropOp46
 70
     1
102
RTVSPost2010Prop47
 90
       50
102
RTVSPost2010PropOp47
 70
     1
102
RTVSPost2010Prop48
 90
       50
102
RTVSPost2010PropOp48
 70
     1
102
RTVSPost2010Prop49
280
     0
102
RTVSPost2010PropOp49
 70
     1
102
RTVSPost2010Prop50
 90
       50
102
RTVSPost2010PropOp50
 70
     1
102
RTVSPost2010Prop51ColorIndex
 90
      256
102
RTVSPost2010Prop51ColorRGB
 90
-16777216
102
RTVSPost2010PropOp51
 70
     0
102
RTVSPost2010Prop52
140
1.0
102
RTVSPost2010PropOp52
 70
     0
102
RTVSPost2010Prop53
 90
        2
102
RTVSPost2010PropOp53
 70
     1
102
RTVSPost2010Prop54
  1
strokes_ogs.tif
102
RTVSPost2010PropOp54
 70
     1
102
RTVSPost2010Prop55
280
     0
102
RTVSPost2010PropOp55
 70
     1
102
RTVSPost2010Prop56
140
1.0
102
RTVSPost2010PropOp56
 70
     1
102
RTVSPost2010Prop57
140
1.0
102
RTVSPost2010PropOp57
 70
     1
  0
ENDSEC
  0
EOF
