  0
SECTION
  2
HEADER
  9
$ACADVER
  1
AC1015
  9
$ACADMAINTVER
 70
    20
  9
$DWGCODEPAGE
  3
ANSI_932
  9
$INSBASE
 10
0.0
 20
0.0
 30
0.0
  9
$EXTMIN
 10
-25.8
 20
-51.51483934249849
 30
0.0
  9
$EXTMAX
 10
106.7333333333333
 20
82.58907143809981
 30
0.0
  9
$LIMMIN
 10
0.0
 20
0.0
  9
$LIMMAX
 10
420.0
 20
297.0
  9
$ORTHOMODE
 70
     0
  9
$REGENMODE
 70
     1
  9
$FILLMODE
 70
     1
  9
$QTEXTMODE
 70
     0
  9
$MIRRTEXT
 70
     1
  9
$LTSCALE
 40
1.0
  9
$ATTMODE
 70
     1
  9
$TEXTSIZE
 40
3.5
  9
$TRACEWID
 40
1.0
  9
$TEXTSTYLE
  7
simplex
  9
$CLAYER
  8
0
  9
$CELTYPE
  6
ByLayer
  9
$CECOLOR
 62
   256
  9
$CELTSCALE
 40
1.0
  9
$DISPSILH
 70
     0
  9
$DIMSCALE
 40
0.0
  9
$DIMASZ
 40
3.5
  9
$DIMEXO
 40
0.0
  9
$DIMDLI
 40
0.38
  9
$DIMRND
 40
0.0
  9
$DIMDLE
 40
0.0
  9
$DIMEXE
 40
1.5
  9
$DIMTP
 40
0.0
  9
$DIMTM
 40
0.0
  9
$DIMTXT
 40
3.5
  9
$DIMCEN
 40
0.09
  9
$DIMTSZ
 40
0.0
  9
$DIMTOL
 70
     0
  9
$DIMLIM
 70
     0
  9
$DIMTIH
 70
     0
  9
$DIMTOH
 70
     0
  9
$DIMSE1
 70
     0
  9
$DIMSE2
 70
     0
  9
$DIMTAD
 70
     1
  9
$DIMZIN
 70
     8
  9
$DIMBLK
  1

  9
$DIMASO
 70
     1
  9
$DIMSHO
 70
     1
  9
$DIMPOST
  1

  9
$DIMAPOST
  1

  9
$DIMALT
 70
     0
  9
$DIMALTD
 70
     2
  9
$DIMALTF
 40
25.4
  9
$DIMLFAC
 40
1.0
  9
$DIMTOFL
 70
     0
  9
$DIMTVP
 40
0.0
  9
$DIMTIX
 70
     0
  9
$DIMSOXD
 70
     0
  9
$DIMSAH
 70
     0
  9
$DIMBLK1
  1

  9
$DIMBLK2
  1

  9
$DIMSTYLE
  2
コピー - ISO-25
  9
$DIMCLRD
 70
   256
  9
$DIMCLRE
 70
   256
  9
$DIMCLRT
 70
   256
  9
$DIMTFAC
 40
1.0
  9
$DIMGAP
 40
2.299999999999998
  9
$DIMJUST
 70
     0
  9
$DIMSD1
 70
     0
  9
$DIMSD2
 70
     0
  9
$DIMTOLJ
 70
     1
  9
$DIMTZIN
 70
     8
  9
$DIMALTZ
 70
     0
  9
$DIMALTTZ
 70
     0
  9
$DIMUPT
 70
     0
  9
$DIMDEC
 70
     2
  9
$DIMTDEC
 70
     2
  9
$DIMALTU
 70
     2
  9
$DIMALTTD
 70
     2
  9
$DIMTXSTY
  7
simplex
  9
$DIMAUNIT
 70
     0
  9
$DIMADEC
 70
     0
  9
$DIMALTRND
 40
0.0
  9
$DIMAZIN
 70
     0
  9
$DIMDSEP
 70
    46
  9
$DIMATFIT
 70
     3
  9
$DIMFRAC
 70
     0
  9
$DIMLDRBLK
  1

  9
$DIMLUNIT
 70
     2
  9
$DIMLWD
 70
    -1
  9
$DIMLWE
 70
    -1
  9
$DIMTMOVE
 70
     0
  9
$LUNITS
 70
     2
  9
$LUPREC
 70
     4
  9
$SKETCHINC
 40
1.0
  9
$FILLETRAD
 40
0.8
  9
$AUNITS
 70
     0
  9
$AUPREC
 70
     0
  9
$MENU
  1
.
  9
$ELEVATION
 40
0.0
  9
$PELEVATION
 40
0.0
  9
$THICKNESS
 40
0.0
  9
$LIMCHECK
 70
     0
  9
$CHAMFERA
 40
10.0
  9
$CHAMFERB
 40
10.0
  9
$CHAMFERC
 40
20.0
  9
$CHAMFERD
 40
0.0
  9
$SKPOLY
 70
     0
  9
$TDCREATE
 40
2455489.391063368
  9
$TDUCREATE
 40
2455489.057730035
  9
$TDUPDATE
 40
2458948.459335151
  9
$TDUUPDATE
 40
2458948.126001817
  9
$TDINDWG
 40
2.579575451
  9
$TDUSRTIMER
 40
2.579522940
  9
$USRTIMER
 70
     1
  9
$ANGBASE
 50
0.0
  9
$ANGDIR
 70
     0
  9
$PDMODE
 70
     0
  9
$PDSIZE
 40
0.0
  9
$PLINEWID
 40
0.0
  9
$SPLFRAME
 70
     0
  9
$SPLINETYPE
 70
     6
  9
$SPLINESEGS
 70
     8
  9
$HANDSEED
  5
903EC
  9
$SURFTAB1
 70
     6
  9
$SURFTAB2
 70
     6
  9
$SURFTYPE
 70
     6
  9
$SURFU
 70
     6
  9
$SURFV
 70
     6
  9
$UCSBASE
  2

  9
$UCSNAME
  2

  9
$UCSORG
 10
0.0
 20
0.0
 30
0.0
  9
$UCSXDIR
 10
1.0
 20
0.0
 30
0.0
  9
$UCSYDIR
 10
0.0
 20
1.0
 30
0.0
  9
$UCSORTHOREF
  2

  9
$UCSORTHOVIEW
 70
     0
  9
$UCSORGTOP
 10
0.0
 20
0.0
 30
0.0
  9
$UCSORGBOTTOM
 10
0.0
 20
0.0
 30
0.0
  9
$UCSORGLEFT
 10
0.0
 20
0.0
 30
0.0
  9
$UCSORGRIGHT
 10
0.0
 20
0.0
 30
0.0
  9
$UCSORGFRONT
 10
0.0
 20
0.0
 30
0.0
  9
$UCSORGBACK
 10
0.0
 20
0.0
 30
0.0
  9
$PUCSBASE
  2

  9
$PUCSNAME
  2

  9
$PUCSORG
 10
0.0
 20
0.0
 30
0.0
  9
$PUCSXDIR
 10
1.0
 20
0.0
 30
0.0
  9
$PUCSYDIR
 10
0.0
 20
1.0
 30
0.0
  9
$PUCSORTHOREF
  2

  9
$PUCSORTHOVIEW
 70
     0
  9
$PUCSORGTOP
 10
0.0
 20
0.0
 30
0.0
  9
$PUCSORGBOTTOM
 10
0.0
 20
0.0
 30
0.0
  9
$PUCSORGLEFT
 10
0.0
 20
0.0
 30
0.0
  9
$PUCSORGRIGHT
 10
0.0
 20
0.0
 30
0.0
  9
$PUCSORGFRONT
 10
0.0
 20
0.0
 30
0.0
  9
$PUCSORGBACK
 10
0.0
 20
0.0
 30
0.0
  9
$USERI1
 70
     0
  9
$USERI2
 70
     0
  9
$USERI3
 70
     0
  9
$USERI4
 70
     0
  9
$USERI5
 70
     0
  9
$USERR1
 40
0.0
  9
$USERR2
 40
0.0
  9
$USERR3
 40
0.0
  9
$USERR4
 40
0.0
  9
$USERR5
 40
0.0
  9
$WORLDVIEW
 70
     1
  9
$SHADEDGE
 70
     3
  9
$SHADEDIF
 70
    70
  9
$TILEMODE
 70
     1
  9
$MAXACTVP
 70
    64
  9
$PINSBASE
 10
0.0
 20
0.0
 30
0.0
  9
$PLIMCHECK
 70
     0
  9
$PEXTMIN
 10
26.66999878883364
 20
20.31999878883365
 30
0.0
  9
$PEXTMAX
 10
240.0299890995025
 20
182.8799890995025
 30
0.0
  9
$PLIMMIN
 10
-6.350006103515625
 20
-6.349999904632567
  9
$PLIMMAX
 10
273.0499877929688
 20
209.5499939918518
  9
$UNITMODE
 70
     0
  9
$VISRETAIN
 70
     1
  9
$PLINEGEN
 70
     0
  9
$PSLTSCALE
 70
     1
  9
$TREEDEPTH
 70
  3020
  9
$CMLSTYLE
  2
Standard
  9
$CMLJUST
 70
     0
  9
$CMLSCALE
 40
20.0
  9
$PROXYGRAPHICS
 70
     1
  9
$MEASUREMENT
 70
     1
  9
$CELWEIGHT
370
    -1
  9
$ENDCAPS
280
     0
  9
$JOINSTYLE
280
     0
  9
$LWDISPLAY
290
     0
  9
$INSUNITS
 70
     4
  9
$HYPERLINKBASE
  1

  9
$STYLESHEET
  1

  9
$XEDIT
290
     1
  9
$CEPSNTYPE
380
     0
  9
$PSTYLEMODE
290
     1
  9
$FINGERPRINTGUID
  2
{4130B64C-925B-45A5-AF88-EF028D525005}
  9
$VERSIONGUID
  2
{52EC9DFB-624D-4C50-B9F7-548F6EEB563C}
  9
$EXTNAMES
290
     1
  9
$PSVPSCALE
 40
0.0
  9
$OLESTARTUP
290
     0
  0
ENDSEC
  0
SECTION
  2
CLASSES
  0
CLASS
  1
ACDBDICTIONARYWDFLT
  2
AcDbDictionaryWithDefault
  3
ObjectDBX Classes
 90
        0
280
     0
281
     0
  0
CLASS
  1
ACDBPLACEHOLDER
  2
AcDbPlaceHolder
  3
ObjectDBX Classes
 90
    32768
280
     0
281
     0
  0
CLASS
  1
LAYOUT
  2
AcDbLayout
  3
ObjectDBX Classes
 90
    32768
280
     0
281
     0
  0
CLASS
  1
DICTIONARYVAR
  2
AcDbDictionaryVar
  3
ObjectDBX Classes
 90
        0
280
     0
281
     0
  0
CLASS
  1
TABLESTYLE
  2
AcDbTableStyle
  3
ObjectDBX Classes
 90
     4095
280
     0
281
     0
  0
CLASS
  1
SORTENTSTABLE
  2
AcDbSortentsTable
  3
ObjectDBX Classes
 90
        0
280
     0
281
     0
  0
CLASS
  1
DIMASSOC
  2
AcDbDimAssoc
  3
"AcDbDimAssoc|Product Desc:     AcDim ARX App For Dimension|Company:          Autodesk, Inc.|WEB Address:      www.autodesk.com"
 90
        0
280
     0
281
     0
  0
CLASS
  1
ACAD_EVALUATION_GRAPH
  2
AcDbEvalGraph
  3
ObjectDBX Classes
 90
    33921
280
     0
281
     0
  0
CLASS
  1
ACAECUSTOBJ
  2
AcAeEditorObj
  3
AcAeEditorObj
 90
    33792
280
     0
281
     0
  0
CLASS
  1
ACDB_DYNAMICBLOCKPURGEPREVENTER_VERSION
  2
AcDbDynamicBlockPurgePreventer
  3
ObjectDBX Classes
 90
    33921
280
     0
281
     0
  0
CLASS
  1
MATERIAL
  2
AcDbMaterial
  3
ObjectDBX Classes
 90
     1153
280
     0
281
     0
  0
CLASS
  1
VISUALSTYLE
  2
AcDbVisualStyle
  3
ObjectDBX Classes
 90
     4095
280
     0
281
     0
  0
CLASS
  1
SCALE
  2
AcDbScale
  3
ObjectDBX Classes
 90
     1153
280
     0
281
     0
  0
CLASS
  1
MLEADERSTYLE
  2
AcDbMLeaderStyle
  3
ACDB_MLEADERSTYLE_CLASS
 90
     4095
280
     0
281
     0
  0
CLASS
  1
ACDBSECTIONVIEWSTYLE
  2
AcDbSectionViewStyle
  3
ObjectDBX Classes
 90
     1025
280
     0
281
     0
  0
CLASS
  1
ACDBDETAILVIEWSTYLE
  2
AcDbDetailViewStyle
  3
ObjectDBX Classes
 90
     1025
280
     0
281
     0
  0
CLASS
  1
CELLSTYLEMAP
  2
AcDbCellStyleMap
  3
ObjectDBX Classes
 90
     1152
280
     0
281
     0
  0
CLASS
  1
ACDBPLACEHOLDER
  2
AcDbPlaceHolder
  3
ObjectDBX Classes
 90
    32768
280
     0
281
     0
  0
CLASS
  1
LAYOUT
  2
AcDbLayout
  3
ObjectDBX Classes
 90
    32768
280
     0
281
     0
  0
CLASS
  1
ACDBPLACEHOLDER
  2
AcDbPlaceHolder
  3
ObjectDBX Classes
 90
    32768
280
     0
281
     0
  0
CLASS
  1
LAYOUT
  2
AcDbLayout
  3
ObjectDBX Classes
 90
    32768
280
     0
281
     0
  0
CLASS
  1
ACDBPLACEHOLDER
  2
AcDbPlaceHolder
  3
ObjectDBX Classes
 90
    32768
280
     0
281
     0
  0
CLASS
  1
LAYOUT
  2
AcDbLayout
  3
ObjectDBX Classes
 90
    32768
280
     0
281
     0
  0
CLASS
  1
ACDBPLACEHOLDER
  2
AcDbPlaceHolder
  3
ObjectDBX Classes
 90
    32768
280
     0
281
     0
  0
CLASS
  1
LAYOUT
  2
AcDbLayout
  3
ObjectDBX Classes
 90
    32768
280
     0
281
     0
  0
CLASS
  1
ACDBPLACEHOLDER
  2
AcDbPlaceHolder
  3
ObjectDBX Classes
 90
    32768
280
     0
281
     0
  0
CLASS
  1
LAYOUT
  2
AcDbLayout
  3
ObjectDBX Classes
 90
    32768
280
     0
281
     0
  0
CLASS
  1
ACDBPLACEHOLDER
  2
AcDbPlaceHolder
  3
ObjectDBX Classes
 90
        0
280
     0
281
     0
  0
CLASS
  1
LAYOUT
  2
AcDbLayout
  3
ObjectDBX Classes
 90
        0
280
     0
281
     0
  0
ENDSEC
  0
SECTION
  2
TABLES
  0
TABLE
  2
VPORT
  5
8
102
{ACAD_XDICTIONARY
360
8C34E
102
}
330
0
100
AcDbSymbolTable
 70
     1
  0
VPORT
  5
4A360
330
8
100
AcDbSymbolTableRecord
100
AcDbViewportTableRecord
  2
*Active
 70
     0
 10
0.0
 20
0.0
 11
1.0
 21
1.0
 12
32.64215084869036
 22
4.135501260588627
 13
0.0
 23
0.0
 14
10.0
 24
10.0
 15
10.0
 25
10.0
 16
0.0
 26
0.0
 36
1.0
 17
0.0
 27
0.0
 37
0.0
 40
176.5828344038261
 41
1.705156950672645
 42
50.0
 43
0.0
 44
0.0
 50
0.0
 51
0.0
 71
     0
 72
  1000
 73
     1
 74
     1
 75
     0
 76
     0
 77
     0
 78
     0
281
     0
 65
     1
110
0.0
120
0.0
130
0.0
111
1.0
121
0.0
131
0.0
112
0.0
122
1.0
132
0.0
 79
     0
146
0.0
1001
ACAD_NAV_VCDISPLAY
1070
     3
  0
ENDTAB
  0
TABLE
  2
LTYPE
  5
5
330
0
100
AcDbSymbolTable
 70
     3
  0
LTYPE
  5
14
330
5
100
AcDbSymbolTableRecord
100
AcDbLinetypeTableRecord
  2
ByBlock
 70
     0
  3

 72
    65
 73
     0
 40
0.0
  0
LTYPE
  5
15
330
5
100
AcDbSymbolTableRecord
100
AcDbLinetypeTableRecord
  2
ByLayer
 70
     0
  3

 72
    65
 73
     0
 40
0.0
  0
LTYPE
  5
16
330
5
100
AcDbSymbolTableRecord
100
AcDbLinetypeTableRecord
  2
Continuous
 70
     0
  3
Solid line
 72
    65
 73
     0
 40
0.0
  0
LTYPE
  5
4A76E
330
5
100
AcDbSymbolTableRecord
100
AcDbLinetypeTableRecord
  2
CENTER2
 70
     0
  3
Center (.5x) ___ _ ___ _ ___ _ ___ _ ___ _ ___
 72
    65
 73
     4
 40
28.575
 49
19.05
 74
     0
 49
-3.174999999999998
 74
     0
 49
3.174999999999998
 74
     0
 49
-3.174999999999998
 74
     0
  0
LTYPE
  5
87B53
330
5
100
AcDbSymbolTableRecord
100
AcDbLinetypeTableRecord
  2
HIDDEN
 70
     0
  3
Hidden __ __ __ __ __ __ __ __ __ __ __ __ __ _
 72
    65
 73
     2
 40
9.524999999999996
 49
6.349999999999997
 74
     0
 49
-3.174999999999998
 74
     0
  0
ENDTAB
  0
TABLE
  2
LAYER
  5
2
102
{ACAD_XDICTIONARY
360
E2
102
}
330
0
100
AcDbSymbolTable
 70
    10
  0
LAYER
  5
10
102
{ACAD_XDICTIONARY
360
4A86C
102
}
330
2
100
AcDbSymbolTableRecord
100
AcDbLayerTableRecord
  2
0
 70
     0
 62
     7
  6
Continuous
370
    -3
390
F
  0
LAYER
  5
31B6
330
2
100
AcDbSymbolTableRecord
100
AcDbLayerTableRecord
  2
Defpoints
 70
     0
 62
     7
  6
Continuous
290
     0
370
    -3
390
F
  0
LAYER
  5
4A772
102
{ACAD_XDICTIONARY
360
4A773
102
}
330
2
100
AcDbSymbolTableRecord
100
AcDbLayerTableRecord
  2
1
 70
     0
 62
     4
  6
Continuous
370
    50
390
F
1001
AcAecLayerStandard
1000

1000
Contour
  0
LAYER
  5
4A774
102
{ACAD_XDICTIONARY
360
4A775
102
}
330
2
100
AcDbSymbolTableRecord
100
AcDbLayerTableRecord
  2
2
 70
     0
 62
     7
  6
Continuous
370
    25
390
F
1001
AcAecLayerStandard
1000

1000
Dimension milling
  0
LAYER
  5
4A776
102
{ACAD_XDICTIONARY
360
4A777
102
}
330
2
100
AcDbSymbolTableRecord
100
AcDbLayerTableRecord
  2
4
 70
     0
 62
     2
  6
CENTER2
370
    25
390
F
1001
AcAecLayerStandard
1000

1000
Center line
  0
LAYER
  5
4A778
102
{ACAD_XDICTIONARY
360
4A779
102
}
330
2
100
AcDbSymbolTableRecord
100
AcDbLayerTableRecord
  2
cut
 70
     0
 62
     1
  6
Continuous
370
    25
390
F
1001
AcAecLayerStandard
1000

1000
contour
  0
LAYER
  5
4A77A
102
{ACAD_XDICTIONARY
360
4A77B
102
}
330
2
100
AcDbSymbolTableRecord
100
AcDbLayerTableRecord
  2
nocut
 70
     0
 62
     7
  6
Continuous
370
    25
390
F
1001
AcAecLayerStandard
1000

1000
contour
  0
LAYER
  5
4A77E
102
{ACAD_XDICTIONARY
360
4A77F
102
}
330
2
100
AcDbSymbolTableRecord
100
AcDbLayerTableRecord
  2
sk2
 70
     0
 62
     7
  6
Continuous
370
    25
390
F
1001
AcAecLayerStandard
1000

1000
sk2 dimension
  0
LAYER
  5
4A782
102
{ACAD_XDICTIONARY
360
4A783
102
}
330
2
100
AcDbSymbolTableRecord
100
AcDbLayerTableRecord
  2
sk6
 70
     0
 62
     5
  6
Continuous
370
    35
390
F
1001
AcAecLayerStandard
1000

1000
sk6 text
  0
LAYER
  5
87B52
102
{ACAD_XDICTIONARY
360
8C34C
102
}
330
2
100
AcDbSymbolTableRecord
100
AcDbLayerTableRecord
  2
sk3
 70
     0
 62
     1
  6
HIDDEN
370
    35
390
F
1001
AcAecLayerStandard
1000

1000

  0
ENDTAB
  0
TABLE
  2
STYLE
  5
3
330
0
100
AcDbSymbolTable
 70
     2
  0
STYLE
  5
11
330
3
100
AcDbSymbolTableRecord
100
AcDbTextStyleTableRecord
  2
Standard
 70
     0
 40
0.0
 41
1.0
 50
0.0
 71
     0
 42
2.5
  3
txt.shx
  4
@extfont2.shx
  0
STYLE
  5
24A
330
3
100
AcDbSymbolTableRecord
100
AcDbTextStyleTableRecord
  2
simplex
 70
     0
 40
3.5
 41
1.0
 50
0.0
 71
     0
 42
3.5
  3
txt.shx
  4

  0
ENDTAB
  0
TABLE
  2
VIEW
  5
6
330
0
100
AcDbSymbolTable
 70
     0
  0
ENDTAB
  0
TABLE
  2
UCS
  5
7
330
0
100
AcDbSymbolTable
 70
     0
  0
ENDTAB
  0
TABLE
  2
APPID
  5
9
330
0
100
AcDbSymbolTable
 70
    31
  0
APPID
  5
12
330
9
100
AcDbSymbolTableRecord
100
AcDbRegAppTableRecord
  2
ACAD
 70
     0
  0
APPID
  5
D2
330
9
100
AcDbSymbolTableRecord
100
AcDbRegAppTableRecord
  2
AcAecLayerStandard
 70
     0
  0
APPID
  5
E6
330
9
100
AcDbSymbolTableRecord
100
AcDbRegAppTableRecord
  2
ACAD_DSTYLE_DIMTEXT_FILL
 70
     0
  0
APPID
  5
4C84
330
9
100
AcDbSymbolTableRecord
100
AcDbRegAppTableRecord
  2
ACAD_EXEMPT_FROM_CAD_STANDARDS
 70
     0
  0
APPID
  5
3493E
330
9
100
AcDbSymbolTableRecord
100
AcDbRegAppTableRecord
  2
DCO15
 70
     0
  0
APPID
  5
3BAB0
330
9
100
AcDbSymbolTableRecord
100
AcDbRegAppTableRecord
  2
ACAD_DSTYLE_DIMEXT_ENABLED
 70
     0
  0
APPID
  5
3BAB1
330
9
100
AcDbSymbolTableRecord
100
AcDbRegAppTableRecord
  2
ACAD_DSTYLE_DIMEXT_LENGTH
 70
     0
  0
APPID
  5
3BEB4
330
9
100
AcDbSymbolTableRecord
100
AcDbRegAppTableRecord
  2
ACAUTHENVIRON
 70
     0
  0
APPID
  5
3BEB7
330
9
100
AcDbSymbolTableRecord
100
AcDbRegAppTableRecord
  2
AcDbDynamicBlockTrueName
 70
     0
  0
APPID
  5
3BEB8
330
9
100
AcDbSymbolTableRecord
100
AcDbRegAppTableRecord
  2
AcDbDynamicBlockGUID
 70
     0
  0
APPID
  5
3BEBA
330
9
100
AcDbSymbolTableRecord
100
AcDbRegAppTableRecord
  2
AcDbBlockRepETag
 70
     0
  0
APPID
  5
4A453
330
9
100
AcDbSymbolTableRecord
100
AcDbRegAppTableRecord
  2
ACAD_PSEXT
 70
     0
  0
APPID
  5
4A454
330
9
100
AcDbSymbolTableRecord
100
AcDbRegAppTableRecord
  2
AcadAnnotative
 70
     0
  0
APPID
  5
4A455
330
9
100
AcDbSymbolTableRecord
100
AcDbRegAppTableRecord
  2
ACAD_DSTYLE_DIMJAG
 70
     0
  0
APPID
  5
4A456
330
9
100
AcDbSymbolTableRecord
100
AcDbRegAppTableRecord
  2
ACAD_DSTYLE_DIMTALN
 70
     0
  0
APPID
  5
4A457
330
9
100
AcDbSymbolTableRecord
100
AcDbRegAppTableRecord
  2
ACAD_NAV_VCDISPLAY
 70
     0
  0
APPID
  5
4A787
330
9
100
AcDbSymbolTableRecord
100
AcDbRegAppTableRecord
  2
ACAD_DSTYLE_DIMINSPECT
 70
     0
  0
APPID
  5
4A788
330
9
100
AcDbSymbolTableRecord
100
AcDbRegAppTableRecord
  2
GENIUS_GENDTOL_13
 70
     0
  0
APPID
  5
4A789
330
9
100
AcDbSymbolTableRecord
100
AcDbRegAppTableRecord
  2
ZWMCAD_GENSTANDARDFRAME_13_
 70
     0
  0
APPID
  5
4A78A
330
9
100
AcDbSymbolTableRecord
100
AcDbRegAppTableRecord
  2
ZW_RECESS_XDATA
 70
     0
  0
APPID
  5
4A78B
330
9
100
AcDbSymbolTableRecord
100
AcDbRegAppTableRecord
  2
ZW_FAC_XDATA
 70
     0
  0
APPID
  5
4A78C
330
9
100
AcDbSymbolTableRecord
100
AcDbRegAppTableRecord
  2
ZW_FLC_XDATA
 70
     0
  0
APPID
  5
4A78D
330
9
100
AcDbSymbolTableRecord
100
AcDbRegAppTableRecord
  2
ZW_SUPERPART
 70
     0
  0
APPID
  5
4A78E
330
9
100
AcDbSymbolTableRecord
100
AcDbRegAppTableRecord
  2
ZW_SUPERSYMBOL
 70
     0
  0
APPID
  5
4A78F
330
9
100
AcDbSymbolTableRecord
100
AcDbRegAppTableRecord
  2
ZW_SUPERSHAFT
 70
     0
  0
APPID
  5
4A790
330
9
100
AcDbSymbolTableRecord
100
AcDbRegAppTableRecord
  2
ZWMCAD_GENFRAME_13_
 70
     0
  0
APPID
  5
4A791
330
9
100
AcDbSymbolTableRecord
100
AcDbRegAppTableRecord
  2
ACAD_MLEADERVER
 70
     0
  0
APPID
  5
4A792
330
9
100
AcDbSymbolTableRecord
100
AcDbRegAppTableRecord
  2
ACAD_DSTYLE_DIMRADIAL_EXTENSION
 70
     0
  0
APPID
  5
885F1
330
9
100
AcDbSymbolTableRecord
100
AcDbRegAppTableRecord
  2
ZWMCAD_GENSCA_13_
 70
     0
  0
APPID
  5
885EF
330
9
100
AcDbSymbolTableRecord
100
AcDbRegAppTableRecord
  2
ACAD_DSTYLE_DIMRADIAL_EXTE
 70
     0
  0
APPID
  5
885EE
330
9
100
AcDbSymbolTableRecord
100
AcDbRegAppTableRecord
  2
ZWMCAD_GENSTANDARDFRAME_13
 70
     0
  0
ENDTAB
  0
TABLE
  2
DIMSTYLE
  5
A
330
0
100
AcDbSymbolTable
 70
     2
100
AcDbDimStyleTable
 71
     2
340
1BF
340
3527
  0
DIMSTYLE
105
1BF
102
{ACAD_REACTORS
330
8FF45
330
8FF46
330
8FF4B
330
8FF4E
330
8FF47
330
8FF4A
330
902CE
102
}
330
A
100
AcDbSymbolTableRecord
100
AcDbDimStyleTableRecord
  2
コピー - ISO-25
 70
     0
 40
0.0
 41
3.5
 42
0.0
 44
1.5
 73
     0
 74
     0
 77
     1
 78
     8
140
3.5
147
2.299999999999998
176
   256
177
   256
271
     2
178
   256
271
     2
272
     2
284
     8
340
24A
371
    -1
372
    -1
  0
DIMSTYLE
105
3527
330
A
100
AcDbSymbolTableRecord
100
AcDbDimStyleTableRecord
  2
STANDARD
 70
     0
 41
3.0
 47
0.001
 48
0.001
 71
     1
 73
     0
 74
     0
 77
     1
 78
     8
140
4.0
271
     3
272
     3
284
     8
340
11
341
34B1
342
34B1
343
34B1
344
34B1
  0
ENDTAB
  0
TABLE
  2
BLOCK_RECORD
  5
1
330
0
100
AcDbSymbolTable
 70
    11
  0
BLOCK_RECORD
  5
1F
102
{ACAD_XDICTIONARY
360
31EE
102
}
330
1
100
AcDbSymbolTableRecord
100
AcDbBlockTableRecord
  2
*Model_Space
340
22
  0
BLOCK_RECORD
  5
55
330
1
100
AcDbSymbolTableRecord
100
AcDbBlockTableRecord
  2
*Paper_Space
340
56
  0
BLOCK_RECORD
  5
50
330
1
100
AcDbSymbolTableRecord
100
AcDbBlockTableRecord
  2
*Paper_Space0000000
340
51
  0
BLOCK_RECORD
  5
34B1
330
1
100
AcDbSymbolTableRecord
100
AcDbBlockTableRecord
  2
_OPEN
340
0
  0
BLOCK_RECORD
  5
4A6D6
102
{ACAD_XDICTIONARY
360
4A6D7
102
}
330
1
100
AcDbSymbolTableRecord
100
AcDbBlockTableRecord
  2
zero block
340
0
102
{BLKREFS
331
8BFE6
331
4A793
331
880DD
331
882D3
331
87B7F
331
87D7D
331
8FB3B
331
8FDCA
331
8BD57
102
}
1001
AcDbDynamicBlockGUID
1000
{A89DF4EB-B2CB-439E-AC69-1EAC9F242D1C}
1001
AcDbBlockRepETag
1070
     1
1071
        7
1001
ACAD
1000
DesignCenter Data
1002
{
1070
     1
1070
     4
1002
}
  0
BLOCK_RECORD
  5
87D73
330
1
100
AcDbSymbolTableRecord
100
AcDbBlockTableRecord
  2
_None
340
0
102
{BLKREFS
331
8C250
331
8C292
331
8C2BE
331
8C2FE
331
8C332
331
8A12B
331
87FA2
331
87FBD
331
87FC5
331
88042
331
88238
331
884B1
331
884F0
331
88512
331
885AA
331
87D72
331
87F63
331
8FA29
331
8FA4D
331
8FAA7
331
8FD00
331
9002A
331
9006F
331
900CE
331
90117
331
902E5
331
8BC93
331
8BCED
331
8BF27
331
8DEC1
102
}
  0
BLOCK_RECORD
  5
8FFF6
330
1
100
AcDbSymbolTableRecord
100
AcDbBlockTableRecord
  2
*D364444
340
0
  0
BLOCK_RECORD
  5
90002
330
1
100
AcDbSymbolTableRecord
100
AcDbBlockTableRecord
  2
*D375555
340
0
  0
BLOCK_RECORD
  5
9000E
330
1
100
AcDbSymbolTableRecord
100
AcDbBlockTableRecord
  2
*D386666
340
0
  0
BLOCK_RECORD
  5
9001A
330
1
100
AcDbSymbolTableRecord
100
AcDbBlockTableRecord
  2
*D397777
340
0
  0
BLOCK_RECORD
  5
90026
330
1
100
AcDbSymbolTableRecord
100
AcDbBlockTableRecord
  2
*D408888
340
0
  0
BLOCK_RECORD
  5
90031
330
1
100
AcDbSymbolTableRecord
100
AcDbBlockTableRecord
  2
*D419999
340
0
  0
BLOCK_RECORD
  5
902D1
330
1
100
AcDbSymbolTableRecord
100
AcDbBlockTableRecord
  2
*D131010
340
0
  0
ENDTAB
  0
ENDSEC
  0
SECTION
  2
BLOCKS
  0
BLOCK
  5
20
330
1F
100
AcDbEntity
  8
0
100
AcDbBlockBegin
  2
*Model_Space
 70
     0
 10
0.0
 20
0.0
 30
0.0
  3
*Model_Space
  1

  0
ENDBLK
  5
21
330
1F
100
AcDbEntity
  8
0
100
AcDbBlockEnd
  0
BLOCK
  5
57
330
55
100
AcDbEntity
 67
     1
  8
0
100
AcDbBlockBegin
  2
*Paper_Space
 70
     0
 10
0.0
 20
0.0
 30
0.0
  3
*Paper_Space
  1

  0
ENDBLK
  5
58
330
55
100
AcDbEntity
 67
     1
  8
0
100
AcDbBlockEnd
  0
BLOCK
  5
52
330
50
100
AcDbEntity
  8
0
100
AcDbBlockBegin
  2
*Paper_Space0000000
 70
     0
 10
0.0
 20
0.0
 30
0.0
  3
*Paper_Space0000000
  1

  0
VIEWPORT
  5
6B
102
{ACAD_XDICTIONARY
360
87B05
102
}
330
50
100
AcDbEntity
  8
0
100
AcDbViewport
 10
264.3775031494645
 20
160.4455827878762
 30
0.0
 40
567.6219612953822
 41
282.2272140146125
 68
     1
 69
    -1
 12
264.3775031494645
 22
160.4455827878762
 13
0.0
 23
0.0
 14
10.0
 24
10.0
 15
10.0
 25
10.0
 16
0.0
 26
0.0
 36
1.0
 17
0.0
 27
0.0
 37
0.0
 42
50.0
 43
0.0
 44
0.0
 45
282.2272140146125
 50
0.0
 51
0.0
 72
  1000
 90
    32864
  1

281
     0
 71
     1
 74
     0
110
0.0
120
0.0
130
0.0
111
1.0
121
0.0
131
0.0
112
0.0
122
1.0
132
0.0
 79
     0
146
0.0
1001
ACAD
1000
MVIEW
1002
{
1070
    16
1010
0.0
1020
0.0
1030
0.0
1010
0.0
1020
0.0
1030
1.0
1040
0.0
1040
282.2272140146125
1040
264.3775031494645
1040
160.4455827878762
1040
50.0
1040
0.0
1040
0.0
1070
     0
1070
  1000
1070
     0
1070
     3
1070
     0
1070
     0
1070
     0
1070
     0
1040
0.0
1040
0.0
1040
0.0
1040
10.0
1040
10.0
1040
10.0
1040
10.0
1070
     0
1002
{
1002
}
1002
}
  0
VIEWPORT
  5
6D
102
{ACAD_XDICTIONARY
360
87B07
102
}
330
50
100
AcDbEntity
  8
0
100
AcDbViewport
 10
133.3499939441681
 20
101.5999939441681
 30
0.0
 40
213.3599903106689
 41
162.5599903106689
 68
     2
 69
    -1
 12
210.0
 22
148.5
 13
0.0
 23
0.0
 14
10.0
 24
10.0
 15
10.0
 25
10.0
 16
0.0
 26
0.0
 36
1.0
 17
0.0
 27
0.0
 37
0.0
 42
50.0
 43
0.0
 44
0.0
 45
324.0677920111345
 50
0.0
 51
0.0
 72
   100
 90
    32864
  1

281
     0
 71
     1
 74
     0
110
0.0
120
0.0
130
0.0
111
1.0
121
0.0
131
0.0
112
0.0
122
1.0
132
0.0
 79
     0
146
0.0
1001
ACAD
1000
MVIEW
1002
{
1070
    16
1010
0.0
1020
0.0
1030
0.0
1010
0.0
1020
0.0
1030
1.0
1040
0.0
1040
324.0677920111345
1040
210.0
1040
148.5
1040
50.0
1040
0.0
1040
0.0
1070
     0
1070
   100
1070
     0
1070
     3
1070
     0
1070
     0
1070
     0
1070
     0
1040
0.0
1040
0.0
1040
0.0
1040
10.0
1040
10.0
1040
10.0
1040
10.0
1070
     0
1002
{
1002
}
1002
}
  0
ENDBLK
  5
53
330
50
100
AcDbEntity
  8
0
100
AcDbBlockEnd
  0
BLOCK
  5
34B2
330
34B1
100
AcDbEntity
  8
0
100
AcDbBlockBegin
  2
_OPEN
 70
     0
 10
0.0
 20
0.0
 30
0.0
  3
_OPEN
  1

  0
LINE
  5
34B3
330
34B1
100
AcDbEntity
  8
0
  6
ByBlock
 62
     0
100
AcDbLine
 10
0.0
 20
0.0
 30
0.0
 11
-1.0
 21
0.1766666667
 31
0.0
  0
LINE
  5
34B4
330
34B1
100
AcDbEntity
  8
0
  6
ByBlock
 62
     0
100
AcDbLine
 10
-1.0
 20
-0.1766666667
 30
0.0
 11
0.0
 21
0.0
 31
0.0
  0
LINE
  5
34B5
330
34B1
100
AcDbEntity
  8
0
  6
ByBlock
 62
     0
100
AcDbLine
 10
-1.0
 20
0.0
 30
0.0
 11
0.0
 21
0.0
 31
0.0
  0
ENDBLK
  5
34B6
330
34B1
100
AcDbEntity
  8
0
  6
ByBlock
 62
     0
100
AcDbBlockEnd
  0
BLOCK
  5
4A6D9
330
4A6D6
100
AcDbEntity
  8
0
100
AcDbBlockBegin
  2
zero block
 70
     0
 10
0.0
 20
0.0
 30
0.0
  3
zero block
  1

  0
HATCH
  5
4A6DA
330
4A6D6
100
AcDbEntity
  8
0
 62
     7
100
AcDbHatch
 10
0.0
 20
0.0
 30
0.0
210
0.0
220
0.0
230
1.0
  2
SOLID
 70
     1
 71
     0
 91
        2
 92
        7
 72
     1
 73
     1
 93
        3
 10
0.0
 20
0.9999999999999875
 42
0.4142135623730915
 10
-1.0
 20
0.0
 42
0.0
 10
0.0
 20
0.0
 42
0.0
 97
        0
 92
        7
 72
     1
 73
     1
 93
        3
 10
1.000000000000007
 20
0.0
 42
0.0
 10
0.0
 20
0.0
 42
0.0
 10
0.0
 20
-1.0
 42
0.4142135623730974
 97
        0
 75
     0
 76
     1
 47
0.0090601366782909
 98
        2
 10
-0.380591363650975
 20
0.4885804701532896
 10
0.4350764810977559
 20
-0.4536738423704725
1001
AcDbBlockRepETag
1070
     1
1071
        0
1005
4A6DA
  0
LINE
  5
4A6DB
330
4A6D6
100
AcDbEntity
  8
0
 62
     7
 48
0.2
100
AcDbLine
 10
-1.0
 20
0.0
 30
0.0
 11
1.000000000000007
 21
0.0
 31
0.0
1001
AcDbBlockRepETag
1070
     1
1071
        1
1005
4A6DB
  0
LINE
  5
4A6DC
330
4A6D6
100
AcDbEntity
  8
0
 62
     7
 48
0.2
100
AcDbLine
 10
0.0
 20
-1.0
 30
0.0
 11
0.0
 21
0.9999999999999875
 31
0.0
1001
AcDbBlockRepETag
1070
     1
1071
        2
1005
4A6DC
  0
ARC
  5
4A6DD
330
4A6D6
100
AcDbEntity
  8
0
 62
     7
 48
0.2
100
AcDbCircle
 10
0.0
 20
0.0
 30
0.0
 40
1.0
100
AcDbArc
 50
270.0
 51
0.0
1001
AcDbBlockRepETag
1070
     1
1071
        3
1005
4A6DD
  0
ARC
  5
4A6DE
330
4A6D6
100
AcDbEntity
  8
0
 62
     7
 48
0.2
100
AcDbCircle
 10
0.0
 20
0.0
 30
0.0
 40
1.0
100
AcDbArc
 50
0.0
 51
90.0
1001
AcDbBlockRepETag
1070
     1
1071
        4
1005
4A6DE
  0
ARC
  5
4A6DF
330
4A6D6
100
AcDbEntity
  8
0
 62
     7
 48
0.2
100
AcDbCircle
 10
0.0
 20
0.0
 30
0.0
 40
1.0
100
AcDbArc
 50
180.0
 51
270.0
1001
AcDbBlockRepETag
1070
     1
1071
        5
1005
4A6DF
  0
ARC
  5
4A6E0
330
4A6D6
100
AcDbEntity
  8
0
 62
     7
 48
0.2
100
AcDbCircle
 10
0.0
 20
0.0
 30
0.0
 40
1.0
100
AcDbArc
 50
90.0
 51
180.0
1001
AcDbBlockRepETag
1070
     1
1071
        6
1005
4A6E0
  0
ENDBLK
  5
4A6E1
330
4A6D6
100
AcDbEntity
  8
0
100
AcDbBlockEnd
  0
BLOCK
  5
87D74
330
87D73
100
AcDbEntity
  8
0
100
AcDbBlockBegin
  2
_None
 70
     0
 10
0.0
 20
0.0
 30
0.0
  3
_None
  1

  0
ENDBLK
  5
87D75
330
87D73
100
AcDbEntity
  8
0
100
AcDbBlockEnd
  0
BLOCK
  5
90000
330
8FFF6
100
AcDbEntity
  8
0
100
AcDbBlockBegin
  2
*D364444
 70
     1
 10
0.0
 20
0.0
 30
0.0
  3
*D364444
  1

  0
LINE
  5
903B7
330
8FFF6
100
AcDbEntity
  8
2
100
AcDbLine
 10
0.0
 20
26.28148127220004
 30
0.0
 11
0.0
 21
61.5
 31
0.0
  0
LINE
  5
903B8
330
8FFF6
100
AcDbEntity
  8
2
100
AcDbLine
 10
50.79999999999996
 20
30.94999999889937
 30
0.0
 11
50.79999999999996
 21
61.5
 31
0.0
  0
LINE
  5
903B9
330
8FFF6
100
AcDbEntity
  8
2
100
AcDbLine
 10
3.499999999999999
 20
60.0
 30
0.0
 11
47.29999999999995
 21
60.0
 31
0.0
  0
SOLID
  5
903BA
330
8FFF6
100
AcDbEntity
  8
2
100
AcDbTrace
 10
3.499999999999999
 20
60.58333333333333
 30
0.0
 11
3.499999999999999
 21
59.41666666666666
 31
0.0
 12
0.0
 22
60.0
 32
0.0
 13
0.0
 23
60.0
 33
0.0
  0
SOLID
  5
903BB
330
8FFF6
100
AcDbEntity
  8
2
100
AcDbTrace
 10
47.29999999999995
 20
59.41666666666666
 30
0.0
 11
47.29999999999995
 21
60.58333333333333
 31
0.0
 12
50.79999999999996
 22
60.0
 32
0.0
 13
50.79999999999996
 23
60.0
 33
0.0
  0
MTEXT
  5
903BC
330
8FFF6
100
AcDbEntity
  8
2
100
AcDbMText
 10
24.80791937774962
 20
64.05
 30
0.0
 40
3.5
 41
0.0
 71
     5
 72
     1
  1
\A1;50.8 [2.000"]
  7
simplex
 73
     1
 44
1.0
1001
ACAD
1000
MTEXTBEGIN
1070
    73
1070
     1
1070
    44
1040
1.0
1070
    74
1070
     0
1000
MTEXTEND
  0
POINT
  5
903BD
330
8FFF6
100
AcDbEntity
  8
Defpoints
 62
     0
100
AcDbPoint
 10
0.0
 20
26.28148127220004
 30
0.0
  0
POINT
  5
903BE
330
8FFF6
100
AcDbEntity
  8
Defpoints
 62
     0
100
AcDbPoint
 10
50.79999999999996
 20
30.94999999889937
 30
0.0
  0
POINT
  5
903BF
330
8FFF6
100
AcDbEntity
  8
Defpoints
 62
     0
100
AcDbPoint
 10
50.79999999999996
 20
60.0
 30
0.0
  0
ENDBLK
  5
90001
330
8FFF6
100
AcDbEntity
  8
0
100
AcDbBlockEnd
  0
BLOCK
  5
9000C
330
90002
100
AcDbEntity
  8
0
100
AcDbBlockBegin
  2
*D375555
 70
     1
 10
0.0
 20
0.0
 30
0.0
  3
*D375555
  1

  0
LINE
  5
9039B
330
90002
100
AcDbEntity
  8
2
100
AcDbLine
 10
42.59999999999997
 20
31.7499999989
 30
0.0
 11
42.59999999999997
 21
51.52197765512018
 31
0.0
  0
LINE
  5
9039C
330
90002
100
AcDbEntity
  8
2
100
AcDbLine
 10
50.79999999999995
 20
30.94999999889873
 30
0.0
 11
50.79999999999995
 21
51.52197765512018
 31
0.0
  0
LINE
  5
9039D
330
90002
100
AcDbEntity
  8
2
100
AcDbLine
 10
54.29999999999996
 20
50.02197765512018
 30
0.0
 11
106.7333333333333
 21
50.02197765512018
 31
0.0
  0
LINE
  5
9039E
330
90002
100
AcDbEntity
  8
2
100
AcDbLine
 10
39.09999999999996
 20
50.02197765512018
 30
0.0
 11
35.59999999999997
 21
50.02197765512018
 31
0.0
  0
SOLID
  5
9039F
330
90002
100
AcDbEntity
  8
2
100
AcDbTrace
 10
39.09999999999996
 20
49.43864432178685
 30
0.0
 11
39.09999999999996
 21
50.60531098845352
 31
0.0
 12
42.59999999999997
 22
50.02197765512018
 32
0.0
 13
42.59999999999997
 23
50.02197765512018
 33
0.0
  0
SOLID
  5
903A0
330
90002
100
AcDbEntity
  8
2
100
AcDbTrace
 10
54.29999999999996
 20
50.60531098845352
 30
0.0
 11
54.29999999999996
 21
49.43864432178685
 31
0.0
 12
50.79999999999995
 22
50.02197765512018
 32
0.0
 13
50.79999999999995
 23
50.02197765512018
 33
0.0
  0
MTEXT
  5
903A1
330
90002
100
AcDbEntity
  8
2
100
AcDbMText
 10
82.26666666666664
 20
54.07197765512018
 30
0.0
 40
3.5
 41
0.0
 71
     5
 72
     1
  1
\A1;8.2 [.323"](MAX)
  7
simplex
 73
     1
 44
1.0
1001
ACAD
1000
MTEXTBEGIN
1070
    73
1070
     1
1070
    44
1040
1.0
1070
    74
1070
     0
1000
MTEXTEND
  0
POINT
  5
903A2
330
90002
100
AcDbEntity
  8
Defpoints
 62
     0
100
AcDbPoint
 10
42.59999999999997
 20
31.7499999989
 30
0.0
  0
POINT
  5
903A3
330
90002
100
AcDbEntity
  8
Defpoints
 62
     0
100
AcDbPoint
 10
50.79999999999995
 20
30.94999999889873
 30
0.0
  0
POINT
  5
903A4
330
90002
100
AcDbEntity
  8
Defpoints
 62
     0
100
AcDbPoint
 10
50.79999999999995
 20
50.02197765512018
 30
0.0
  0
ENDBLK
  5
9000D
330
90002
100
AcDbEntity
  8
0
100
AcDbBlockEnd
  0
BLOCK
  5
90018
330
9000E
100
AcDbEntity
  8
0
100
AcDbBlockBegin
  2
*D386666
 70
     1
 10
0.0
 20
0.0
 30
0.0
  3
*D386666
  1

  0
LINE
  5
90102
330
9000E
100
AcDbEntity
  8
sk2
100
AcDbLine
 10
4.0
 20
12.69999999889998
 30
0.0
 11
-11.5
 21
12.69999999889998
 31
0.0
  0
LINE
  5
90103
330
9000E
100
AcDbEntity
  8
sk2
100
AcDbLine
 10
4.0
 20
-12.69999999889998
 30
0.0
 11
-11.5
 21
-12.69999999889998
 31
0.0
  0
LINE
  5
90104
330
9000E
100
AcDbEntity
  8
sk2
100
AcDbLine
 10
-10.0
 20
9.199999998899984
 30
0.0
 11
-10.0
 21
-9.199999998899984
 31
0.0
  0
SOLID
  5
90105
330
9000E
100
AcDbEntity
  8
sk2
100
AcDbTrace
 10
-9.416666666666666
 20
9.199999998899984
 30
0.0
 11
-10.58333333333333
 21
9.199999998899984
 31
0.0
 12
-10.0
 22
12.69999999889998
 32
0.0
 13
-10.0
 23
12.69999999889998
 33
0.0
  0
SOLID
  5
90106
330
9000E
100
AcDbEntity
  8
sk2
100
AcDbTrace
 10
-10.58333333333333
 20
-9.199999998899984
 30
0.0
 11
-9.416666666666666
 21
-9.199999998899984
 31
0.0
 12
-10.0
 22
-12.69999999889998
 32
0.0
 13
-10.0
 23
-12.69999999889998
 33
0.0
  0
MTEXT
  5
90107
330
9000E
100
AcDbEntity
  8
sk2
100
AcDbMText
 10
-14.05
 20
0.0
 30
0.0
 40
3.5
 41
0.0
 71
     5
 72
     1
  1
\A1;%%C25.4 [%%c1.000"]
  7
simplex
 11
0.0
 21
1.0
 31
0.0
 73
     1
 44
1.0
1001
ACAD
1000
MTEXTBEGIN
1070
    73
1070
     1
1070
    44
1040
1.0
1070
    74
1070
     0
1000
MTEXTEND
  0
POINT
  5
90108
330
9000E
100
AcDbEntity
  8
Defpoints
 62
     0
100
AcDbPoint
 10
4.0
 20
12.69999999889998
 30
0.0
  0
POINT
  5
90109
330
9000E
100
AcDbEntity
  8
Defpoints
 62
     0
100
AcDbPoint
 10
4.0
 20
-12.69999999889998
 30
0.0
  0
POINT
  5
9010A
330
9000E
100
AcDbEntity
  8
Defpoints
 62
     0
100
AcDbPoint
 10
-10.0
 20
-12.69999999889998
 30
0.0
  0
ENDBLK
  5
90019
330
9000E
100
AcDbEntity
  8
0
100
AcDbBlockEnd
  0
BLOCK
  5
90024
330
9001A
100
AcDbEntity
  8
0
100
AcDbBlockBegin
  2
*D397777
 70
     1
 10
0.0
 20
0.0
 30
0.0
  3
*D397777
  1

  0
LINE
  5
9010B
330
9001A
100
AcDbEntity
  8
sk2
100
AcDbLine
 10
1.5
 20
27.78150000000001
 30
0.0
 11
-21.5
 21
27.78150000000001
 31
0.0
  0
LINE
  5
9010C
330
9001A
100
AcDbEntity
  8
sk2
100
AcDbLine
 10
1.5
 20
-27.7815
 30
0.0
 11
-21.5
 21
-27.7815
 31
0.0
  0
LINE
  5
9010D
330
9001A
100
AcDbEntity
  8
sk2
100
AcDbLine
 10
-20.0
 20
24.28150000000001
 30
0.0
 11
-20.0
 21
-24.2815
 31
0.0
  0
SOLID
  5
9010E
330
9001A
100
AcDbEntity
  8
sk2
100
AcDbTrace
 10
-19.41666666666667
 20
24.28150000000001
 30
0.0
 11
-20.58333333333333
 21
24.28150000000001
 31
0.0
 12
-20.0
 22
27.78150000000001
 32
0.0
 13
-20.0
 23
27.78150000000001
 33
0.0
  0
SOLID
  5
9010F
330
9001A
100
AcDbEntity
  8
sk2
100
AcDbTrace
 10
-20.58333333333333
 20
-24.2815
 30
0.0
 11
-19.41666666666667
 21
-24.2815
 31
0.0
 12
-20.0
 22
-27.7815
 32
0.0
 13
-20.0
 23
-27.7815
 33
0.0
  0
MTEXT
  5
90110
330
9001A
100
AcDbEntity
  8
sk2
100
AcDbMText
 10
-24.05
 20
0.0
 30
0.0
 40
3.5
 41
0.0
 71
     5
 72
     1
  1
\A1;%%C55.563 [%%c2.188"]
  7
simplex
 11
0.0
 21
1.0
 31
0.0
 73
     1
 44
1.0
1001
ACAD
1000
MTEXTBEGIN
1070
    73
1070
     1
1070
    44
1040
1.0
1070
    74
1070
     0
1000
MTEXTEND
  0
POINT
  5
90111
330
9001A
100
AcDbEntity
  8
Defpoints
 62
     0
100
AcDbPoint
 10
1.5
 20
27.78150000000001
 30
0.0
  0
POINT
  5
90112
330
9001A
100
AcDbEntity
  8
Defpoints
 62
     0
100
AcDbPoint
 10
1.5
 20
-27.7815
 30
0.0
  0
POINT
  5
90113
330
9001A
100
AcDbEntity
  8
Defpoints
 62
     0
100
AcDbPoint
 10
-20.0
 20
-27.7815
 30
0.0
  0
ENDBLK
  5
90025
330
9001A
100
AcDbEntity
  8
0
100
AcDbBlockEnd
  0
BLOCK
  5
9002F
330
90026
100
AcDbEntity
  8
0
100
AcDbBlockBegin
  2
*D408888
 70
     1
 10
0.0
 20
0.0
 30
0.0
  3
*D408888
  1

  0
LINE
  5
902E2
330
90026
100
AcDbEntity
  8
2
100
AcDbLine
 10
49.99999999999993
 20
31.74999999890002
 30
0.0
 11
71.5
 21
31.74999999890002
 31
0.0
  0
LINE
  5
902E3
330
90026
100
AcDbEntity
  8
2
100
AcDbLine
 10
70.0
 20
28.24999999890002
 30
0.0
 11
70.0
 21
-31.74999999889999
 31
0.0
  0
SOLID
  5
902E4
330
90026
100
AcDbEntity
  8
2
100
AcDbTrace
 10
70.58333333333333
 20
28.24999999890002
 30
0.0
 11
69.41666666666667
 21
28.24999999890002
 31
0.0
 12
70.0
 22
31.74999999890002
 32
0.0
 13
70.0
 23
31.74999999890002
 33
0.0
  0
INSERT
  5
902E5
330
90026
100
AcDbEntity
  8
2
100
AcDbBlockReference
  2
_None
 10
70.0
 20
-31.74999999889999
 30
0.0
 41
3.5
 42
3.5
 43
3.5
 50
270.0
  0
MTEXT
  5
902E6
330
90026
100
AcDbEntity
  8
2
100
AcDbMText
 10
65.95
 20
0.0
 30
0.0
 40
3.5
 41
0.0
 71
     5
 72
     1
  1
\A1;%%C63.5 [%%c2.500"]
  7
simplex
 11
0.0
 21
1.0
 31
0.0
 73
     1
 44
1.0
1001
ACAD
1000
MTEXTBEGIN
1070
    73
1070
     1
1070
    44
1040
1.0
1070
    74
1070
     0
1000
MTEXTEND
  0
POINT
  5
902E7
330
90026
100
AcDbEntity
  8
Defpoints
 62
     0
100
AcDbPoint
 10
49.99999999999993
 20
31.74999999890002
 30
0.0
  0
POINT
  5
902E8
330
90026
100
AcDbEntity
  8
Defpoints
 62
     0
100
AcDbPoint
 10
49.99999999999993
 20
-31.74999999889999
 30
0.0
  0
POINT
  5
902E9
330
90026
100
AcDbEntity
  8
Defpoints
 62
     0
100
AcDbPoint
 10
70.0
 20
-31.74999999889999
 30
0.0
  0
ENDBLK
  5
90030
330
90026
100
AcDbEntity
  8
0
100
AcDbBlockEnd
  0
BLOCK
  5
9003C
330
90031
100
AcDbEntity
  8
0
100
AcDbBlockBegin
  2
*D419999
 70
     1
 10
0.0
 20
0.0
 30
0.0
  3
*D419999
  1

  0
LINE
  5
9011C
330
90031
100
AcDbEntity
  8
sk2
100
AcDbLine
 10
0.0
 20
-26.2815
 30
0.0
 11
0.0
 21
-51.51483934249849
 31
0.0
  0
LINE
  5
9011D
330
90031
100
AcDbEntity
  8
sk2
100
AcDbLine
 10
24.0
 20
-12.39999999889997
 30
0.0
 11
24.0
 21
-51.51483934249849
 31
0.0
  0
LINE
  5
9011E
330
90031
100
AcDbEntity
  8
sk2
100
AcDbLine
 10
24.0
 20
-50.01483934249849
 30
0.0
 11
60.10000000000001
 21
-50.01483934249849
 31
0.0
  0
LINE
  5
9011F
330
90031
100
AcDbEntity
  8
sk2
100
AcDbLine
 10
3.5
 20
-50.01483934249849
 30
0.0
 11
20.5
 21
-50.01483934249849
 31
0.0
  0
SOLID
  5
90120
330
90031
100
AcDbEntity
  8
sk2
100
AcDbTrace
 10
3.5
 20
-49.43150600916514
 30
0.0
 11
3.5
 21
-50.59817267583182
 31
0.0
 12
0.0
 22
-50.01483934249849
 32
0.0
 13
0.0
 23
-50.01483934249849
 33
0.0
  0
SOLID
  5
90121
330
90031
100
AcDbEntity
  8
sk2
100
AcDbTrace
 10
20.5
 20
-50.59817267583182
 30
0.0
 11
20.5
 21
-49.43150600916514
 31
0.0
 12
24.0
 22
-50.01483934249849
 32
0.0
 13
24.0
 23
-50.01483934249849
 33
0.0
  0
MTEXT
  5
90122
330
90031
100
AcDbEntity
  8
sk2
100
AcDbMText
 10
43.80000000000001
 20
-45.96483934249849
 30
0.0
 40
3.5
 41
0.0
 71
     5
 72
     1
  1
\A1;24 [.945"]
  7
simplex
 73
     1
 44
1.0
1001
ACAD
1000
MTEXTBEGIN
1070
    73
1070
     1
1070
    44
1040
1.0
1070
    74
1070
     0
1000
MTEXTEND
  0
POINT
  5
90123
330
90031
100
AcDbEntity
  8
Defpoints
 62
     0
100
AcDbPoint
 10
0.0
 20
-26.2815
 30
0.0
  0
POINT
  5
90124
330
90031
100
AcDbEntity
  8
Defpoints
 62
     0
100
AcDbPoint
 10
24.0
 20
-12.39999999889997
 30
0.0
  0
POINT
  5
90125
330
90031
100
AcDbEntity
  8
Defpoints
 62
     0
100
AcDbPoint
 10
24.0
 20
-50.01483934249849
 30
0.0
  0
ENDBLK
  5
9003D
330
90031
100
AcDbEntity
  8
0
100
AcDbBlockEnd
  0
BLOCK
  5
902D9
330
902D1
100
AcDbEntity
  8
0
100
AcDbBlockBegin
  2
*D131010
 70
     1
 10
0.0
 20
0.0
 30
0.0
  3
*D131010
  1

  0
LINE
  5
902FF
330
902D1
100
AcDbEntity
  8
2
100
AcDbLine
 10
95.19457987878826
 20
40.69530967540255
 30
0.0
 11
54.2033891884381
 21
31.85637703442188
 31
0.0
  0
MTEXT
  5
90300
330
902D1
100
AcDbEntity
  8
2
100
AcDbMText
 10
75.55598548382322
 20
40.60372382592098
 30
0.0
 40
3.5
 41
0.0
 71
     5
 72
     1
  1
\A1;R0.8 [R.031"]
  7
simplex
 11
0.9775323694042171
 21
0.2107853570981084
 31
0.0
 73
     1
 44
1.0
1001
ACAD
1000
MTEXTBEGIN
1070
    73
1070
     1
1070
    44
1040
1.0
1070
    74
1070
     0
1000
MTEXTEND
  0
SOLID
  5
90301
330
902D1
100
AcDbEntity
  8
2
100
AcDbTrace
 10
54.08043106346418
 20
32.42660424990767
 30
0.0
 11
54.32634731341199
 21
31.28614981893609
 31
0.0
 12
50.78202589552333
 22
31.1186282845785
 32
0.0
 13
50.78202589552333
 23
31.1186282845785
 33
0.0
  0
LINE
  5
90302
330
902D1
100
AcDbEntity
  8
2
100
AcDbLine
 10
49.90999999999996
 20
30.94999999890001
 30
0.0
 11
50.08999999999996
 21
30.94999999890001
 31
0.0
  0
LINE
  5
90303
330
902D1
100
AcDbEntity
  8
2
100
AcDbLine
 10
49.99999999999996
 20
30.85999999890001
 30
0.0
 11
49.99999999999996
 21
31.03999999890001
 31
0.0
  0
POINT
  5
90304
330
902D1
100
AcDbEntity
  8
Defpoints
 62
     0
100
AcDbPoint
 10
50.78202589552333
 20
31.1186282845785
 30
0.0
  0
POINT
  5
90305
330
902D1
100
AcDbEntity
  8
Defpoints
 62
     0
100
AcDbPoint
 10
49.99999999999996
 20
30.94999999890001
 30
0.0
  0
ENDBLK
  5
902DA
330
902D1
100
AcDbEntity
  8
0
100
AcDbBlockEnd
  0
ENDSEC
  0
SECTION
  2
ENTITIES
  0
INSERT
  5
4A793
330
1F
100
AcDbEntity
  8
0
100
AcDbBlockReference
  2
zero block
 10
0.0
 20
0.0
 30
0.0
 50
180.0
  0
MTEXT
  5
8FDC9
330
1F
100
AcDbEntity
  8
sk6
100
AcDbMText
 10
-2.939354901762555
 20
82.58907143809981
 30
0.0
 40
3.5
 41
139.3353303764208
 71
     1
 72
     5
  1
WWX400UR2_5005CA
 73
     1
 44
0.9
1001
ACAD
1000
MTEXTBEGIN
1070
    73
1070
     1
1070
    44
1040
0.9
1070
    74
1070
     0
1000
MTEXTEND
1000
ACAD_MTEXT_DEFINED_HEIGHT_BEGIN
1070
    46
1040
3.48901801050149
1000
ACAD_MTEXT_DEFINED_HEIGHT_END
  0
LINE
  5
8FDCB
330
1F
100
AcDbEntity
  8
4
100
AcDbLine
 10
53.13927052441488
 20
0.0
 30
0.0
 11
-2.907861614760548
 21
0.0
 31
0.0
  0
LINE
  5
8FDCC
330
1F
100
AcDbEntity
  8
nocut
100
AcDbLine
 10
0.0
 20
0.0
 30
0.0
 11
0.0
 21
19.55799999889999
 31
0.0
  0
LINE
  5
8FDCD
330
1F
100
AcDbEntity
  8
nocut
100
AcDbLine
 10
0.0
 20
0.0
 30
0.0
 11
0.0
 21
19.55799999889999
 31
0.0
  0
LINE
  5
8FDCE
330
1F
100
AcDbEntity
  8
nocut
100
AcDbLine
 10
0.0
 20
0.0
 30
0.0
 11
0.0
 21
26.28149999889999
 31
0.0
  0
LINE
  5
8FDCF
330
1F
100
AcDbEntity
  8
sk3
100
AcDbLine
 10
1.000000192299977
 20
4.762499999999987
 30
0.0
 11
1.000000192299977
 21
13.19999999889998
 31
0.0
  0
LINE
  5
8FDD0
330
1F
100
AcDbEntity
  8
sk3
100
AcDbLine
 10
4.0
 20
4.762499999999987
 30
0.0
 11
4.0
 21
13.19999999889998
 31
0.0
  0
LINE
  5
8FDD1
330
1F
100
AcDbEntity
  8
sk3
100
AcDbLine
 10
1.000000192299977
 20
13.19999999889998
 30
0.0
 11
0.0
 21
14.20000020569998
 31
0.0
  0
LINE
  5
8FDD2
330
1F
100
AcDbEntity
  8
nocut
100
AcDbLine
 10
49.01247088229997
 20
0.0
 30
0.0
 11
0.0
 21
0.0
 31
0.0
  0
LINE
  5
8FDD3
330
1F
100
AcDbEntity
  8
sk3
100
AcDbLine
 10
12.92774653969997
 20
12.69999999889998
 30
0.0
 11
12.92774653969997
 21
0.0
 31
0.0
  0
LINE
  5
8FDDE
330
1F
100
AcDbEntity
  8
sk3
100
AcDbLine
 10
24.39999999999998
 20
6.849999998899987
 30
0.0
 11
31.5000000387
 21
6.849999998899987
 31
0.0
  0
LINE
  5
8FE20
330
1F
100
AcDbEntity
  8
sk3
100
AcDbLine
 10
32.39999999999998
 20
9.999999998899994
 30
0.0
 11
44.01247088229996
 21
9.999999998899994
 31
0.0
  0
LINE
  5
8FE23
330
1F
100
AcDbEntity
  8
sk3
100
AcDbLine
 10
12.92774653969997
 20
12.69999999889998
 30
0.0
 11
13.83926112069997
 21
13.12504622849998
 31
0.0
  0
LINE
  5
8FE24
102
{ACAD_REACTORS
330
8FF49
102
}
330
1F
100
AcDbEntity
  8
sk3
100
AcDbLine
 10
4.0
 20
12.69999999889998
 30
0.0
 11
12.92774653969997
 21
12.69999999889998
 31
0.0
  0
LINE
  5
8FE25
330
1F
100
AcDbEntity
  8
sk3
100
AcDbLine
 10
1.000000192299977
 20
13.19999999889998
 30
0.0
 11
4.0
 21
13.19999999889998
 31
0.0
  0
LINE
  5
8FE26
330
1F
100
AcDbEntity
  8
sk3
100
AcDbLine
 10
14.17735573009997
 20
13.19999999889998
 30
0.0
 11
23.19999999999999
 21
13.19999999889998
 31
0.0
  0
LINE
  5
8FE27
330
1F
100
AcDbEntity
  8
sk3
100
AcDbLine
 10
24.0
 20
0.0
 30
0.0
 11
24.0
 21
12.39999999889997
 31
0.0
  0
LINE
  5
8FE29
330
1F
100
AcDbEntity
  8
sk3
100
AcDbLine
 10
31.5000000387
 20
6.849999998899987
 30
0.0
 11
31.5000000387
 21
0.0
 31
0.0
  0
LINE
  5
8FE2C
330
1F
100
AcDbEntity
  8
sk3
100
AcDbLine
 10
32.0
 20
0.0
 30
0.0
 11
32.0
 21
9.599999998899987
 31
0.0
  0
LINE
  5
8FE67
330
1F
100
AcDbEntity
  8
sk3
100
AcDbLine
 10
31.5000000387
 20
6.849999998899987
 30
0.0
 11
32.0
 21
7.349999957299985
 31
0.0
  0
LINE
  5
8FE6B
330
1F
100
AcDbEntity
  8
nocut
100
AcDbLine
 10
1.5
 20
27.78149999889999
 30
0.0
 11
9.674401201499961
 21
27.78149999889999
 31
0.0
  0
LINE
  5
8FE86
330
1F
100
AcDbEntity
  8
nocut
100
AcDbLine
 10
19.62047811069996
 20
27.9629834731
 30
0.0
 11
29.81785408649998
 21
30.69536213070002
 31
0.0
  0
LINE
  5
8FECD
330
1F
100
AcDbEntity
  8
nocut
100
AcDbLine
 10
30.54195400249998
 20
30.7971277373
 30
0.0
 11
39.27382338399997
 21
30.94954308429996
 31
0.0
  0
LINE
  5
8FECE
330
1F
100
AcDbEntity
  8
nocut
100
AcDbLine
 10
39.32618060329998
 20
30.94999999890001
 30
0.0
 11
43.01247088229995
 21
30.94999999890001
 31
0.0
  0
LINE
  5
8FED7
330
1F
100
AcDbEntity
  8
sk3
100
AcDbLine
 10
44.47485140379995
 20
15.5216496159
 30
0.0
 11
46.75178339865897
 21
19.13254776745668
 31
0.0
  0
LINE
  5
8FEFF
330
1F
100
AcDbEntity
  8
sk3
100
AcDbLine
 10
44.01247088229996
 20
0.0
 30
0.0
 11
44.01247088229996
 21
13.92149731619997
 31
0.0
  0
LINE
  5
8FF00
330
1F
100
AcDbEntity
  8
nocut
100
AcDbLine
 10
49.01247088229997
 20
24.94999999890001
 30
0.0
 11
49.01247088229997
 21
0.0
 31
0.0
  0
ARC
  5
8FF20
330
1F
100
AcDbEntity
  8
nocut
100
AcDbCircle
 10
9.674401201499961
 20
24.78149999889999
 30
0.0
 40
3.0
100
AcDbArc
 50
78.03125444529992
 51
90.0
  0
ARC
  5
8FF21
330
1F
100
AcDbEntity
  8
nocut
100
AcDbCircle
 10
1.5
 20
26.28149999889999
 30
0.0
 40
1.5
100
AcDbArc
 50
90.0
 51
180.0
  0
ARC
  5
8FF22
330
1F
100
AcDbEntity
  8
sk3
100
AcDbCircle
 10
23.19999999999999
 20
12.39999999889997
 30
0.0
 40
0.8
100
AcDbArc
 50
0.0
 51
90.0
  0
ARC
  5
8FF23
330
1F
100
AcDbEntity
  8
sk3
100
AcDbCircle
 10
14.17735573009997
 20
12.39999999889997
 30
0.0
 40
0.8
100
AcDbArc
 50
90.0
 51
114.9999999999997
  0
ARC
  5
8FF24
330
1F
100
AcDbEntity
  8
sk3
100
AcDbCircle
 10
24.39999999999998
 20
7.249999998899992
 30
0.0
 40
0.4
100
AcDbArc
 50
180.0
 51
270.0
  0
ARC
  5
8FF25
330
1F
100
AcDbEntity
  8
nocut
100
AcDbCircle
 10
14.4440972086
 20
47.2814999989
 30
0.0
 40
20.0
100
AcDbArc
 50
258.0312544453
 51
284.9999999999996
  0
ARC
  5
8FF26
330
1F
100
AcDbEntity
  8
nocut
100
AcDbCircle
 10
43.01247088229995
 20
24.94999999890001
 30
0.0
 40
6.0
100
AcDbArc
 50
0.0
 51
90.0
  0
ARC
  5
8FF27
330
1F
100
AcDbEntity
  8
sk3
100
AcDbCircle
 10
47.01247088229997
 20
13.92149731619997
 30
0.0
 40
3.0
100
AcDbArc
 50
147.7656087215004
 51
180.0
  0
ARC
  5
8FF28
330
1F
100
AcDbEntity
  8
sk3
100
AcDbCircle
 10
32.39999999999998
 20
9.599999998899987
 30
0.0
 40
0.4
100
AcDbArc
 50
90.0
 51
180.0
  0
ARC
  5
8FF29
330
1F
100
AcDbEntity
  8
nocut
100
AcDbCircle
 10
39.32618060329998
 20
27.94999999890001
 30
0.0
 40
3.0
100
AcDbArc
 50
90.0
 51
91.00000000000015
  0
ARC
  5
8FF2A
330
1F
100
AcDbEntity
  8
nocut
100
AcDbCircle
 10
30.59431122179999
 20
27.7975846519
 30
0.0
 40
3.0
100
AcDbArc
 50
91.00000000000015
 51
104.9999999999995
  0
LINE
  5
8FF2F
330
1F
100
AcDbEntity
  8
sk3
100
AcDbLine
 10
1.000000192299977
 20
-4.762499999999987
 30
0.0
 11
1.000000192299977
 21
-13.19999999889998
 31
0.0
  0
LINE
  5
8FF30
330
1F
100
AcDbEntity
  8
sk3
100
AcDbLine
 10
4.0
 20
-4.762499999999987
 30
0.0
 11
4.0
 21
-13.19999999889998
 31
0.0
  0
LINE
  5
8FF31
330
1F
100
AcDbEntity
  8
sk3
100
AcDbLine
 10
1.000000192299977
 20
-13.19999999889998
 30
0.0
 11
0.0
 21
-14.20000020569998
 31
0.0
  0
LINE
  5
8FF32
330
1F
100
AcDbEntity
  8
sk3
100
AcDbLine
 10
12.92774653969997
 20
-12.69999999889998
 30
0.0
 11
12.92774653969997
 21
0.0
 31
0.0
  0
LINE
  5
8FF33
330
1F
100
AcDbEntity
  8
sk3
100
AcDbLine
 10
24.39999999999998
 20
-6.849999998899987
 30
0.0
 11
31.5000000387
 21
-6.849999998899987
 31
0.0
  0
LINE
  5
8FF34
330
1F
100
AcDbEntity
  8
sk3
100
AcDbLine
 10
32.39999999999998
 20
-9.999999998899994
 30
0.0
 11
44.01247088229996
 21
-9.999999998899994
 31
0.0
  0
LINE
  5
8FF35
330
1F
100
AcDbEntity
  8
sk3
100
AcDbLine
 10
12.92774653969997
 20
-12.69999999889998
 30
0.0
 11
13.83926112069997
 21
-13.12504622849999
 31
0.0
  0
LINE
  5
8FF36
102
{ACAD_REACTORS
330
8FF49
102
}
330
1F
100
AcDbEntity
  8
sk3
100
AcDbLine
 10
4.0
 20
-12.69999999889998
 30
0.0
 11
12.92774653969997
 21
-12.69999999889998
 31
0.0
  0
LINE
  5
8FF37
330
1F
100
AcDbEntity
  8
sk3
100
AcDbLine
 10
1.000000192299977
 20
-13.19999999889998
 30
0.0
 11
4.0
 21
-13.19999999889998
 31
0.0
  0
LINE
  5
8FF38
330
1F
100
AcDbEntity
  8
sk3
100
AcDbLine
 10
14.17735573009997
 20
-13.19999999889998
 30
0.0
 11
23.19999999999999
 21
-13.19999999889998
 31
0.0
  0
LINE
  5
8FF39
102
{ACAD_REACTORS
330
8FF50
102
}
330
1F
100
AcDbEntity
  8
sk3
100
AcDbLine
 10
24.0
 20
0.0
 30
0.0
 11
24.0
 21
-12.39999999889997
 31
0.0
  0
LINE
  5
8FF3A
330
1F
100
AcDbEntity
  8
sk3
100
AcDbLine
 10
31.5000000387
 20
-6.849999998899987
 30
0.0
 11
31.5000000387
 21
0.0
 31
0.0
  0
LINE
  5
8FF3B
330
1F
100
AcDbEntity
  8
sk3
100
AcDbLine
 10
32.0
 20
0.0
 30
0.0
 11
32.0
 21
-9.599999998899987
 31
0.0
  0
LINE
  5
8FF3C
330
1F
100
AcDbEntity
  8
sk3
100
AcDbLine
 10
31.5000000387
 20
-6.849999998899987
 30
0.0
 11
32.0
 21
-7.349999957299985
 31
0.0
  0
LINE
  5
8FF3D
330
1F
100
AcDbEntity
  8
sk3
100
AcDbLine
 10
44.47485140379995
 20
-15.5216496159
 30
0.0
 11
48.85834404179997
 21
-22.47326059929999
 31
0.0
  0
LINE
  5
8FF3E
330
1F
100
AcDbEntity
  8
sk3
100
AcDbLine
 10
44.01247088229996
 20
0.0
 30
0.0
 11
44.01247088229996
 21
-13.92149731619997
 31
0.0
  0
ARC
  5
8FF3F
330
1F
100
AcDbEntity
  8
sk3
100
AcDbCircle
 10
23.19999999999999
 20
-12.39999999889997
 30
0.0
 40
0.8
100
AcDbArc
 50
270.0
 51
0.0
  0
ARC
  5
8FF40
330
1F
100
AcDbEntity
  8
sk3
100
AcDbCircle
 10
14.17735573009997
 20
-12.39999999889997
 30
0.0
 40
0.8
100
AcDbArc
 50
245.0000000000003
 51
270.0
  0
ARC
  5
8FF41
330
1F
100
AcDbEntity
  8
sk3
100
AcDbCircle
 10
24.39999999999998
 20
-7.249999998899992
 30
0.0
 40
0.4
100
AcDbArc
 50
90.0
 51
180.0
  0
ARC
  5
8FF42
330
1F
100
AcDbEntity
  8
sk3
100
AcDbCircle
 10
47.01247088229997
 20
-13.92149731619997
 30
0.0
 40
3.0
100
AcDbArc
 50
180.0
 51
212.2343912784995
  0
ARC
  5
8FF43
330
1F
100
AcDbEntity
  8
sk3
100
AcDbCircle
 10
48.01247088229995
 20
-23.00664469919998
 30
0.0
 40
1.0
100
AcDbArc
 50
0.0
 51
32.23439127849955
  0
ARC
  5
8FF44
330
1F
100
AcDbEntity
  8
sk3
100
AcDbCircle
 10
32.39999999999998
 20
-9.599999998899987
 30
0.0
 40
0.4
100
AcDbArc
 50
180.0
 51
270.0
  0
DIMENSION
  5
8FF45
330
1F
100
AcDbEntity
  8
2
100
AcDbDimension
  2
*D364444
 10
50.79999999999996
 20
60.0
 30
0.0
 11
24.80791937774962
 21
60.0
 31
0.0
 70
   160
 71
     5
 42
50.8
  3
コピー - ISO-25
100
AcDbAlignedDimension
 13
0.0
 23
26.28148127220004
 33
0.0
 14
50.79999999999996
 24
30.94999999889937
 34
0.0
 50
0.0
100
AcDbRotatedDimension
1001
ACAD
1000
DSTYLE
1002
{
1070
   170
1070
     1
1070
   171
1070
     3
1070
   143
1040
0.0393700787401575
1070
   285
1070
     4
1070
     4
1000
"
1070
   271
1070
     8
1070
    40
1040
1.0
1002
}
1001
ACAD_DSTYLE_DIMINSPECT
1070
   393
1070
     0
1070
   394
1070
     0
1070
   395
1000

1070
   396
1000

  0
DIMENSION
  5
8FF46
330
1F
100
AcDbEntity
  8
2
100
AcDbDimension
  2
*D375555
 10
50.79999999999995
 20
50.02197765512018
 30
0.0
 11
82.26666666666664
 21
50.02197765512018
 31
0.0
 70
   160
  1
<>(MAX)
 71
     5
 42
8.200000000000001
  3
コピー - ISO-25
100
AcDbAlignedDimension
 13
42.59999999999997
 23
31.7499999989
 33
0.0
 14
50.79999999999995
 24
30.94999999889873
 34
0.0
 50
0.0
100
AcDbRotatedDimension
1001
ACAD
1000
DSTYLE
1002
{
1070
   170
1070
     1
1070
   171
1070
     3
1070
   143
1040
0.0393700787401575
1070
   285
1070
     4
1070
     4
1000
"
1070
   271
1070
     8
1070
    40
1040
1.0
1002
}
1001
ACAD_DSTYLE_DIMINSPECT
1070
   393
1070
     0
1070
   394
1070
     0
1070
   395
1000

1070
   396
1000

  0
DIMENSION
  5
8FF47
102
{ACAD_XDICTIONARY
360
8FF48
102
}
102
{ACAD_REACTORS
330
8FF49
102
}
330
1F
100
AcDbEntity
  8
sk2
100
AcDbDimension
  2
*D386666
 10
-10.0
 20
-12.69999999889998
 30
0.0
 11
-10.0
 21
0.0
 31
0.0
 70
   160
  1
%%C<>
 71
     5
 42
25.3999999978
  3
コピー - ISO-25
100
AcDbAlignedDimension
 13
4.0
 23
12.69999999889998
 33
0.0
 14
4.0
 24
-12.69999999889998
 34
0.0
 50
90.0
100
AcDbRotatedDimension
1001
ACAD
1000
DSTYLE
1002
{
1070
   170
1070
     1
1070
   171
1070
     3
1070
   143
1040
0.0393700787401575
1070
   285
1070
     4
1070
     4
1000
%%c[]"
1070
   271
1070
     8
1070
    40
1040
1.0
1002
}
1001
ACAD_DSTYLE_DIMINSPECT
1070
   393
1070
     0
1070
   394
1070
     0
1070
   395
1000

1070
   396
1000

  0
DIMENSION
  5
8FF4A
330
1F
100
AcDbEntity
  8
sk2
100
AcDbDimension
  2
*D397777
 10
-20.0
 20
-27.7815
 30
0.0
 11
-20.0
 21
0.0
 31
0.0
 70
   160
  1
%%C<>
 71
     5
 42
55.563
  3
コピー - ISO-25
100
AcDbAlignedDimension
 13
1.5
 23
27.78150000000001
 33
0.0
 14
1.5
 24
-27.7815
 34
0.0
 50
90.0
100
AcDbRotatedDimension
1001
ACAD
1000
DSTYLE
1002
{
1070
   170
1070
     1
1070
   171
1070
     3
1070
   143
1040
0.0393700787401575
1070
   285
1070
     4
1070
     4
1000
%%c[]"
1070
   271
1070
     8
1070
    40
1040
1.0
1002
}
1001
ACAD_DSTYLE_DIMINSPECT
1070
   393
1070
     0
1070
   394
1070
     0
1070
   395
1000

1070
   396
1000

  0
DIMENSION
  5
8FF4B
330
1F
100
AcDbEntity
  8
2
100
AcDbDimension
  2
*D408888
 10
70.0
 20
-31.74999999889999
 30
0.0
 11
70.0
 21
0.0
 31
0.0
 70
   160
  1
%%C<>
 71
     5
 42
63.49999999779999
  3
コピー - ISO-25
100
AcDbAlignedDimension
 13
49.99999999999993
 23
31.74999999890002
 33
0.0
 14
49.99999999999993
 24
-31.74999999889999
 34
0.0
 50
90.0
100
AcDbRotatedDimension
1001
ACAD
1000
DSTYLE
1002
{
1070
   170
1070
     1
1070
   171
1070
     3
1070
   143
1040
0.0393700787401575
1070
   285
1070
     4
1070
     4
1000
%%c[]"
1070
   344
1005
87D73
1070
   271
1070
     8
1070
   173
1070
     1
1070
    40
1040
1.0
1070
    76
1070
     1
1002
}
1001
ACAD_DSTYLE_DIMINSPECT
1070
   393
1070
     0
1070
   394
1070
     0
1070
   395
1000

1070
   396
1000

  0
DIMENSION
  5
8FF4E
102
{ACAD_XDICTIONARY
360
8FF4F
102
}
102
{ACAD_REACTORS
330
8FF50
102
}
330
1F
100
AcDbEntity
  8
sk2
100
AcDbDimension
  2
*D419999
 10
24.0
 20
-50.01483934249849
 30
0.0
 11
43.80000000000001
 21
-50.01483934249849
 31
0.0
 70
   160
 71
     5
 42
24.0
  3
コピー - ISO-25
100
AcDbAlignedDimension
 13
0.0
 23
-26.2815
 33
0.0
 14
24.0
 24
-12.39999999889997
 34
0.0
 50
0.0
100
AcDbRotatedDimension
1001
ACAD
1000
DSTYLE
1002
{
1070
   170
1070
     1
1070
   171
1070
     3
1070
   143
1040
0.0393700787401575
1070
   285
1070
     4
1070
     4
1000
"
1070
   271
1070
     8
1070
    40
1040
1.0
1002
}
1001
ACAD_DSTYLE_DIMINSPECT
1070
   393
1070
     0
1070
   394
1070
     0
1070
   395
1000

1070
   396
1000

  0
LINE
  5
8FF51
330
1F
100
AcDbEntity
  8
1
100
AcDbLine
 10
0.0
 20
26.28148127110004
 30
0.0
 11
0.0
 21
5.26249999890004
 31
0.0
  0
LINE
  5
8FF52
330
1F
100
AcDbEntity
  8
1
100
AcDbLine
 10
0.0
 20
-26.28150000109994
 30
0.0
 11
0.0
 21
-5.262500001099936
 31
0.0
  0
LINE
  5
8FF53
330
1F
100
AcDbEntity
  8
1
100
AcDbLine
 10
39.32618060330003
 20
-30.95000000109994
 30
0.0
 11
43.01247088230002
 21
-30.95000000109994
 31
0.0
  0
LINE
  5
8FF54
330
1F
100
AcDbEntity
  8
1
100
AcDbLine
 10
39.27382338400003
 20
-30.94954308659996
 30
0.0
 11
39.32618060330003
 21
-30.95000000109994
 31
0.0
  0
LINE
  5
8FF55
330
1F
100
AcDbEntity
  8
1
100
AcDbLine
 10
30.54195400250001
 20
-30.79712773959997
 30
0.0
 11
39.27382338400003
 21
-30.94954308659996
 31
0.0
  0
LINE
  5
8FF56
330
1F
100
AcDbEntity
  8
1
100
AcDbLine
 10
19.62047811069998
 20
-27.96298347529998
 30
0.0
 11
29.81785408650001
 21
-30.69536213299997
 31
0.0
  0
LINE
  5
8FF57
330
1F
100
AcDbEntity
  8
1
100
AcDbLine
 10
5.560000000000002
 20
3.762499998900036
 30
0.0
 11
5.560000000000002
 21
-3.762500001099933
 31
0.0
  0
LINE
  5
8FF58
330
1F
100
AcDbEntity
  8
1
100
AcDbLine
 10
9.674401201500018
 20
-27.78150000109994
 30
0.0
 11
1.5
 21
-27.78150000109994
 31
0.0
  0
LINE
  5
8FF59
330
1F
100
AcDbEntity
  8
1
100
AcDbLine
 10
35.41000236920002
 20
28.42943333730004
 30
0.0
 11
36.18286162630003
 21
28.71416674529999
 31
0.0
  0
LINE
  5
8FF5A
330
1F
100
AcDbEntity
  8
1
100
AcDbLine
 10
0.5
 20
-4.762500001099936
 30
0.0
 11
0.0
 21
-5.262500001099936
 31
0.0
  0
LINE
  5
8FF5B
330
1F
100
AcDbEntity
  8
1
100
AcDbLine
 10
36.71909570310004
 20
28.51661208130006
 30
0.0
 11
39.0034311332
 21
29.82543744040001
 31
0.0
  0
LINE
  5
8FF5C
330
1F
100
AcDbEntity
  8
1
100
AcDbLine
 10
0.0
 20
5.26249999890004
 30
0.0
 11
0.5
 21
4.76249999890004
 31
0.0
  0
LINE
  5
8FF5D
330
1F
100
AcDbEntity
  8
1
100
AcDbLine
 10
4.560000000000001
 20
4.76249999890004
 30
0.0
 11
5.560000000000002
 21
3.762499998900036
 31
0.0
  0
LINE
  5
8FF5E
330
1F
100
AcDbEntity
  8
1
100
AcDbLine
 10
5.560000000000002
 20
-3.762500001099933
 30
0.0
 11
4.560000000000001
 21
-4.762500001099936
 31
0.0
  0
LINE
  5
8FF5F
330
1F
100
AcDbEntity
  8
1
100
AcDbLine
 10
4.560000000000001
 20
-4.762500001099936
 30
0.0
 11
0.5
 21
-4.762500001099936
 31
0.0
  0
LINE
  5
8FF60
330
1F
100
AcDbEntity
  8
1
100
AcDbLine
 10
35.10236464560004
 20
28.64732522270006
 30
0.0
 11
34.98642482090003
 21
29.93162849120004
 31
0.0
  0
LINE
  5
8FF61
330
1F
100
AcDbEntity
  8
1
100
AcDbLine
 10
0.5
 20
4.76249999890004
 30
0.0
 11
4.560000000000001
 21
4.76249999890004
 31
0.0
  0
LINE
  5
8FF62
330
1F
100
AcDbEntity
  8
1
100
AcDbLine
 10
48.85834404180002
 20
19.46839348880003
 30
0.0
 11
48.85834404180002
 21
16.96329240150001
 31
0.0
  0
LINE
  5
8FF63
330
1F
100
AcDbEntity
  8
1
100
AcDbLine
 10
36.26565437060004
 20
22.43308715110001
 30
0.0
 11
34.93765392500001
 21
24.95160807890002
 31
0.0
  0
LINE
  5
8FF64
330
1F
100
AcDbEntity
  8
1
100
AcDbLine
 10
35.55561580350004
 20
24.66558783520006
 30
0.0
 11
36.71711996010003
 21
22.38347949250002
 31
0.0
  0
LINE
  5
8FF65
330
1F
100
AcDbEntity
  8
1
100
AcDbLine
 10
49.01247088230002
 20
19.73642538750002
 30
0.0
 11
49.01247088230002
 21
-24.95000000789995
 31
0.0
  0
LINE
  5
8FF66
330
1F
100
AcDbEntity
  8
1
100
AcDbLine
 10
44.31416663390002
 20
22.7651342417
 30
0.0
 11
44.12601539999997
 21
22.7651342417
 31
0.0
  0
LINE
  5
8FF67
330
1F
100
AcDbEntity
  8
1
100
AcDbLine
 10
42.59031138910001
 20
22.94004613800004
 30
0.0
 11
42.40216015520002
 21
22.94004613800004
 31
0.0
  0
LINE
  5
8FF68
330
1F
100
AcDbEntity
  8
1
100
AcDbLine
 10
42.7930298352
 20
23.03969780290002
 30
0.0
 11
42.98118106910002
 21
23.03969780290002
 31
0.0
  0
LINE
  5
8FF69
330
1F
100
AcDbEntity
  8
1
100
AcDbLine
 10
36.25342834610001
 20
22.45624370470003
 30
0.0
 11
23.13705951050002
 21
27.25902881410005
 31
0.0
  0
LINE
  5
8FF6A
330
1F
100
AcDbEntity
  8
1
100
AcDbLine
 10
44.94605835650003
 20
23.56775759569999
 30
0.0
 11
45.13420959040002
 21
23.56775759569999
 31
0.0
  0
LINE
  5
8FF6B
330
1F
100
AcDbEntity
  8
1
100
AcDbLine
 10
45.32674258880001
 20
24.17880405200006
 30
0.0
 11
45.13859135490004
 21
24.17880405200006
 31
0.0
  0
LINE
  5
8FF6C
330
1F
100
AcDbEntity
  8
1
100
AcDbLine
 10
35.34860712870005
 20
25.24243286419997
 30
0.0
 11
34.50309221489999
 21
25.24243286419997
 31
0.0
  0
LINE
  5
8FF6D
330
1F
100
AcDbEntity
  8
1
100
AcDbLine
 10
35.32547388960001
 20
25.28875198130008
 30
0.0
 11
34.45292795770001
 21
25.28875198130008
 31
0.0
  0
LINE
  5
8FF6E
330
1F
100
AcDbEntity
  8
1
100
AcDbLine
 10
45.05303707120003
 20
25.30709612370008
 30
0.0
 11
44.86488583729999
 21
25.30709612370008
 31
0.0
  0
LINE
  5
8FF6F
330
1F
100
AcDbEntity
  8
1
100
AcDbLine
 10
44.03644238499999
 20
25.66773409370004
 30
0.0
 11
44.22459361890003
 21
25.66773409370004
 31
0.0
  0
LINE
  5
8FF70
330
1F
100
AcDbEntity
  8
1
100
AcDbLine
 10
43.50683376130001
 20
26.09319020290005
 30
0.0
 11
43.31868252740004
 21
26.09319020290005
 31
0.0
  0
LINE
  5
8FF71
330
1F
100
AcDbEntity
  8
1
100
AcDbLine
 10
33.86033042409997
 20
26.42944210099998
 30
0.0
 11
34.75696166660001
 21
26.42944210099998
 31
0.0
  0
LINE
  5
8FF72
330
1F
100
AcDbEntity
  8
1
100
AcDbLine
 10
45.15504407219999
 20
23.56757972870005
 30
0.0
 11
45.1342096006
 21
23.56774289669997
 31
0.0
  0
LINE
  5
8FF73
330
1F
100
AcDbEntity
  8
1
100
AcDbLine
 10
42.05073061580003
 20
25.13985216790004
 30
0.0
 11
42.07156508740001
 21
25.13968899990009
 31
0.0
  0
LINE
  5
8FF74
330
1F
100
AcDbEntity
  8
1
100
AcDbLine
 10
35.55561580350004
 20
24.66558783520006
 30
0.0
 11
35.19409646800006
 21
24.75159865169998
 31
0.0
  0
LINE
  5
8FF75
330
1F
100
AcDbEntity
  8
1
100
AcDbLine
 10
36.09794455390005
 20
28.34555889060009
 30
0.0
 11
36.71909570310004
 21
28.51661208130006
 31
0.0
  0
LINE
  5
8FF76
330
1F
100
AcDbEntity
  8
1
100
AcDbLine
 10
19.62047811069998
 20
27.96298347310008
 30
0.0
 11
29.81785408650001
 21
30.69536213080002
 31
0.0
  0
LINE
  5
8FF77
330
1F
100
AcDbEntity
  8
1
100
AcDbLine
 10
30.54195400250001
 20
30.79712773740008
 30
0.0
 11
35.77520363250001
 21
30.88847444950008
 31
0.0
  0
LINE
  5
8FF78
330
1F
100
AcDbEntity
  8
1
100
AcDbLine
 10
34.12354275570002
 20
27.48296800919999
 30
0.0
 11
35.05109340790003
 21
27.48296800919999
 31
0.0
  0
LINE
  5
8FF79
330
1F
100
AcDbEntity
  8
1
100
AcDbLine
 10
9.674401201500018
 20
27.78149999889999
 30
0.0
 11
1.5
 21
27.78149999889999
 31
0.0
  0
LINE
  5
8FF7A
330
1F
100
AcDbEntity
  8
1
100
AcDbLine
 10
36.12624543270003
 20
28.13055877380006
 30
0.0
 11
35.23292240109999
 21
28.13055877380006
 31
0.0
  0
LINE
  5
8FF7B
330
1F
100
AcDbEntity
  8
1
100
AcDbLine
 10
36.17010875530002
 20
28.15644060190002
 30
0.0
 11
35.27933239949999
 21
28.15644060190002
 31
0.0
  0
LINE
  5
8FF7C
330
1F
100
AcDbEntity
  8
1
100
AcDbLine
 10
41.50394560130002
 20
31.20341046709999
 30
0.0
 11
40.95138391909997
 21
31.20341046709999
 31
0.0
  0
LINE
  5
8FF7D
330
1F
100
AcDbEntity
  8
1
100
AcDbLine
 10
42.23274351340001
 20
31.38989700570002
 30
0.0
 11
41.68144948640001
 21
31.38989700570002
 31
0.0
  0
LINE
  5
8FF7E
330
1F
100
AcDbEntity
  8
1
100
AcDbLine
 10
36.09794455390005
 20
28.34555889060009
 30
0.0
 11
35.41000236920002
 21
28.42943333730004
 31
0.0
  0
LINE
  5
8FF7F
330
1F
100
AcDbEntity
  8
1
100
AcDbLine
 10
36.18286162630003
 20
28.71416674529999
 30
0.0
 11
36.4828531494
 21
28.63368359570003
 31
0.0
  0
LINE
  5
8FF80
330
1F
100
AcDbEntity
  8
1
100
AcDbLine
 10
42.27196340379999
 20
31.38941062400002
 30
0.0
 11
42.23274251890001
 21
31.38989700570002
 31
0.0
  0
ARC
  5
8FF81
330
1F
100
AcDbEntity
  8
1
100
AcDbCircle
 10
14.44409720860003
 20
-47.28150000109994
 30
0.0
 40
20.0
100
AcDbArc
 50
75.00000000000048
 51
101.9687455547001
  0
ARC
  5
8FF82
330
1F
100
AcDbEntity
  8
1
100
AcDbCircle
 10
14.44409720860003
 20
47.2814999989
 30
0.0
 40
20.0
100
AcDbArc
 50
258.0312544453
 51
284.9999999999996
  0
ARC
  5
8FF83
330
1F
100
AcDbEntity
  8
1
100
AcDbCircle
 10
43.01247088230002
 20
-24.95000000109994
 30
0.0
 40
6.0
100
AcDbArc
 50
270.0
 51
0.0
  0
ARC
  5
8FF84
330
1F
100
AcDbEntity
  8
1
100
AcDbCircle
 10
9.674401201500018
 20
24.78149999889999
 30
0.0
 40
3.0
100
AcDbArc
 50
78.03125444529992
 51
90.0
  0
ARC
  5
8FF85
330
1F
100
AcDbEntity
  8
1
100
AcDbCircle
 10
9.674401201500018
 20
-24.78150000109994
 30
0.0
 40
3.0
100
AcDbArc
 50
270.0
 51
281.9687455547001
  0
ARC
  5
8FF86
330
1F
100
AcDbEntity
  8
1
100
AcDbCircle
 10
30.5943112219
 20
27.79758465190005
 30
0.0
 40
3.0
100
AcDbArc
 50
91.00000000000015
 51
104.9999999999995
  0
ARC
  5
8FF87
330
1F
100
AcDbEntity
  8
1
100
AcDbCircle
 10
30.5943112219
 20
-27.79758465410001
 30
0.0
 40
3.0
100
AcDbArc
 50
255.0000000000005
 51
268.9999999999998
  0
ARC
  5
8FF88
330
1F
100
AcDbEntity
  8
1
100
AcDbCircle
 10
1.5
 20
26.28149999889999
 30
0.0
 40
1.5
100
AcDbArc
 50
90.0
 51
180.0
  0
ARC
  5
8FF89
330
1F
100
AcDbEntity
  8
1
100
AcDbCircle
 10
1.5
 20
-26.28150000109994
 30
0.0
 40
1.5
100
AcDbArc
 50
180.0
 51
270.0
  0
SPLINE
  5
8FF8A
330
1F
100
AcDbEntity
  8
1
100
AcDbSpline
210
0.0
220
0.0
230
1.0
 70
     8
 71
     3
 72
    15
 73
    11
 74
     0
 42
0.000000001
 43
0.0000000001
 40
0.0
 40
0.0
 40
0.0
 40
0.0
 40
0.1246306667
 40
0.2493700462
 40
0.3743251245000001
 40
0.4994834848
 40
0.6247560296
 40
0.7500072077
 40
0.8751043940999998
 40
1.0
 40
1.0
 40
1.0
 40
1.0
 10
42.05073061450002
 20
25.13986396220005
 30
0.0
 10
42.01544412190003
 20
25.13986000200006
 30
0.0
 10
41.94430715290002
 20
25.12820873160004
 30
0.0
 10
41.849143006
 20
25.07759842800009
 30
0.0
 10
41.77487091950001
 20
24.99916666950006
 30
0.0
 10
41.72931461530004
 20
24.90109050890001
 30
0.0
 10
41.71714783859999
 20
24.79355864710001
 30
0.0
 10
41.73964746370001
 20
24.68770280850002
 30
0.0
 10
41.79438496280003
 20
24.59457228310006
 30
0.0
 10
41.84894135770004
 20
24.54720157030002
 30
0.0
 10
41.8790320992
 20
24.52862784459998
 30
0.0
  0
SPLINE
  5
8FF8B
330
1F
100
AcDbEntity
  8
1
100
AcDbSpline
210
0.0
220
0.0
230
1.0
 70
     8
 71
     3
 72
    11
 73
     7
 74
     0
 42
0.000000001
 43
0.0000000001
 40
0.0
 40
0.0
 40
0.0
 40
0.0
 40
0.2502982113
 40
0.5003479535000001
 40
0.7502225959000001
 40
1.0
 40
1.0
 40
1.0
 40
1.0
 10
41.11989417910002
 20
26.84762316530001
 30
0.0
 10
41.27724775500001
 20
26.99886363120007
 30
0.0
 10
41.62156880389999
 20
27.27186722330002
 30
0.0
 10
42.20555027929997
 20
27.57513978660005
 30
0.0
 10
42.83610416780002
 20
27.76174889350004
 30
0.0
 10
43.2729263685
 20
27.80371131560006
 30
0.0
 10
43.4907239917
 20
27.80371510420001
 30
0.0
  0
SPLINE
  5
8FF8C
330
1F
100
AcDbEntity
  8
1
100
AcDbSpline
210
0.0
220
0.0
230
1.0
 70
     8
 71
     3
 72
    15
 73
    11
 74
     0
 42
0.000000001
 43
0.0000000001
 40
0.0
 40
0.0
 40
0.0
 40
0.0
 40
0.1251690641
 40
0.2504153157
 40
0.3756780478
 40
0.5008524085000003
 40
0.6258738701
 40
0.7507162475
 40
0.8754019431999997
 40
1.0
 40
1.0
 40
1.0
 40
1.0
 10
42.15273761679998
 20
23.40033577290004
 30
0.0
 10
42.1378757306
 20
23.37550390000004
 30
0.0
 10
42.11459664460003
 20
23.32162868950006
 30
0.0
 10
42.10195091200001
 20
23.23472711560007
 30
0.0
 10
42.11226122089999
 20
23.14746083160006
 30
0.0
 10
42.14487312240004
 20
23.06592906760002
 30
0.0
 10
42.1975168105
 20
22.99576314580006
 30
0.0
 10
42.26658181890002
 20
22.94183962360003
 30
0.0
 10
42.34720327400004
 20
22.90790101209998
 30
0.0
 10
42.4051294107
 20
22.90018345960001
 30
0.0
 10
42.43393694199999
 20
22.90018075410003
 30
0.0
  0
SPLINE
  5
8FF8D
330
1F
100
AcDbEntity
  8
1
100
AcDbSpline
210
0.0
220
0.0
230
1.0
 70
     8
 71
     3
 72
    11
 73
     7
 74
     0
 42
0.000000001
 43
0.0000000001
 40
0.0
 40
0.0
 40
0.0
 40
0.0
 40
0.2504838257
 40
0.500590205
 40
0.7503870348000003
 40
1.0
 40
1.0
 40
1.0
 40
1.0
 10
43.6989409267
 20
22.61424169380004
 30
0.0
 10
43.6638031452
 20
22.67808461880006
 30
0.0
 10
43.57615117559999
 20
22.79692435620004
 30
0.0
 10
43.4028412879
 20
22.93377597940005
 30
0.0
 10
43.19983683010002
 20
23.02006261010004
 30
0.0
 10
43.05380145449999
 20
23.03970092180001
 30
0.0
 10
42.98118107029997
 20
23.0396970811
 30
0.0
  0
SPLINE
  5
8FF8E
330
1F
100
AcDbEntity
  8
1
100
AcDbSpline
210
0.0
220
0.0
230
1.0
 70
     8
 71
     3
 72
    11
 73
     7
 74
     0
 42
0.000000001
 43
0.0000000001
 40
0.0
 40
0.0
 40
0.0
 40
0.0
 40
0.2504912436
 40
0.5005863446
 40
0.7503877002000002
 40
1.0
 40
1.0
 40
1.0
 40
1.0
 10
43.6989409267
 20
22.61424169380004
 30
0.0
 10
43.71299881619999
 20
22.58869947820003
 30
0.0
 10
43.74806395429999
 20
22.54115428180003
 30
0.0
 10
43.81740376489998
 20
22.48641066100005
 30
0.0
 10
43.89861584840001
 20
22.45188374220001
 30
0.0
 10
43.9570407287
 20
22.44403249350003
 30
0.0
 10
43.98609368369998
 20
22.44403058710006
 30
0.0
  0
SPLINE
  5
8FF8F
330
1F
100
AcDbEntity
  8
1
100
AcDbSpline
210
0.0
220
0.0
230
1.0
 70
     8
 71
     3
 72
    15
 73
    11
 74
     0
 42
0.000000001
 43
0.0000000001
 40
0.0
 40
0.0
 40
0.0
 40
0.0
 40
0.1250239648
 40
0.250123988
 40
0.3752702235
 40
0.5004026705
 40
0.6254740252000001
 40
0.7504461052
 40
0.8752850064
 40
1.0
 40
1.0
 40
1.0
 40
1.0
 10
42.15273761679998
 20
23.40033577290004
 30
0.0
 10
42.18023614679998
 20
23.44628148910009
 30
0.0
 10
42.22640434920004
 20
23.54383379390002
 30
0.0
 10
42.2659980092
 20
23.700600756
 30
0.0
 10
42.27462952749998
 20
23.86216465819999
 30
0.0
 10
42.25191757900001
 20
24.02233100450005
 30
0.0
 10
42.1987475015
 20
24.17503466460002
 30
0.0
 10
42.1171042121
 20
24.3144782135
 30
0.0
 10
42.01016036229996
 20
24.43533203020006
 30
0.0
 10
41.92448429640001
 20
24.50057215030003
 30
0.0
 10
41.8790320992
 20
24.52862784459998
 30
0.0
  0
SPLINE
  5
8FF90
330
1F
100
AcDbEntity
  8
1
100
AcDbSpline
210
0.0
220
0.0
230
1.0
 70
     8
 71
     3
 72
    15
 73
    11
 74
     0
 42
0.000000001
 43
0.0000000001
 40
0.0
 40
0.0
 40
0.0
 40
0.0
 40
0.1246847547
 40
0.2493950512
 40
0.3742059129999999
 40
0.4991353218
 40
0.6241963563000003
 40
0.7493826784000001
 40
0.8746592724999999
 40
1.0
 40
1.0
 40
1.0
 40
1.0
 10
42.07156508830002
 20
25.13967485710001
 30
0.0
 10
42.12426225
 20
25.13967836919997
 30
0.0
 10
42.22995310319999
 20
25.1499483332
 30
0.0
 10
42.38235895360003
 20
25.1956258054
 30
0.0
 10
42.52327268850002
 20
25.26983888300006
 30
0.0
 10
42.64738769910002
 20
25.36984830640003
 30
0.0
 10
42.75012380550004
 20
25.49191886760005
 30
0.0
 10
42.82765991350003
 20
25.63154042150003
 30
0.0
 10
42.87713632870003
 20
25.78345128040004
 30
0.0
 10
42.89018779809999
 20
25.88934229270004
 30
0.0
 10
42.89160805409999
 20
25.94229765490005
 30
0.0
  0
SPLINE
  5
8FF91
330
1F
100
AcDbEntity
  8
1
100
AcDbSpline
210
0.0
220
0.0
230
1.0
 70
     8
 71
     3
 72
    15
 73
    11
 74
     0
 42
0.000000001
 43
0.0000000001
 40
0.0
 40
0.0
 40
0.0
 40
0.0
 40
0.124853237
 40
0.2498350177
 40
0.374918366
 40
0.5000519345000001
 40
0.6251774459
 40
0.7502379566
 40
0.8751876795999999
 40
1.0
 40
1.0
 40
1.0
 40
1.0
 10
41.11989417910002
 20
26.84762316530001
 30
0.0
 10
40.94720653659999
 20
26.68164435380008
 30
0.0
 10
40.6355231256
 20
26.31211927550007
 30
0.0
 10
40.29356624900002
 20
25.67369865180004
 30
0.0
 10
40.09067057640002
 20
24.97760383430003
 30
0.0
 10
40.03595034269999
 20
24.25441067550006
 30
0.0
 10
40.1316668879
 20
23.53553646020008
 30
0.0
 10
40.37379210259999
 20
22.85222191020003
 30
0.0
 10
40.75147126780001
 20
22.23447199260002
 30
0.0
 10
41.08365994900004
 20
21.88345348920002
 30
0.0
 10
41.26549205819997
 20
21.72766685410008
 30
0.0
  0
SPLINE
  5
8FF92
330
1F
100
AcDbEntity
  8
1
100
AcDbSpline
210
0.0
220
0.0
230
1.0
 70
     8
 71
     3
 72
    11
 73
     7
 74
     0
 42
0.000000001
 43
0.0000000001
 40
0.0
 40
0.0
 40
0.0
 40
0.0
 40
0.2493758055
 40
0.4991114829
 40
0.7493606815
 40
1.0
 40
1.0
 40
1.0
 40
1.0
 10
43.21968100429996
 20
26.26340130950004
 30
0.0
 10
43.17771126460002
 20
26.26340406330006
 30
0.0
 10
43.0928162472
 20
26.24678644020006
 30
0.0
 10
42.98494339400003
 20
26.17568546940006
 30
0.0
 10
42.91147442110002
 20
26.06917800730006
 30
0.0
 10
42.89273897359999
 20
25.98446487999999
 30
0.0
 10
42.89160805409999
 20
25.94229765490005
 30
0.0
  0
SPLINE
  5
8FF93
330
1F
100
AcDbEntity
  8
1
100
AcDbSpline
210
0.0
220
0.0
230
1.0
 70
     8
 71
     3
 72
     9
 73
     5
 74
     0
 42
0.000000001
 43
0.0000000001
 40
0.0
 40
0.0
 40
0.0
 40
0.0
 40
0.4998189853000001
 40
1.0
 40
1.0
 40
1.0
 40
1.0
 10
44.2245936177
 20
25.66773481550004
 30
0.0
 10
44.29232443879999
 20
25.66773839760006
 30
0.0
 10
44.42837010850005
 20
25.68474447610001
 30
0.0
 10
44.55594652070002
 20
25.73495328630006
 30
0.0
 10
44.6154632989
 20
25.7673857586
 30
0.0
  0
SPLINE
  5
8FF94
330
1F
100
AcDbEntity
  8
1
100
AcDbSpline
210
0.0
220
0.0
230
1.0
 70
     8
 71
     3
 72
     9
 73
     5
 74
     0
 42
0.000000001
 43
0.0000000001
 40
0.0
 40
0.0
 40
0.0
 40
0.0
 40
0.4998093977000001
 40
1.0
 40
1.0
 40
1.0
 40
1.0
 10
44.77183774600002
 20
25.80725114250001
 30
0.0
 10
44.74474134800003
 20
25.80725368730006
 30
0.0
 10
44.69031336130001
 20
25.80044786310006
 30
0.0
 10
44.63927449939999
 20
25.78036119390002
 30
0.0
 10
44.6154632989
 20
25.7673857586
 30
0.0
  0
SPLINE
  5
8FF95
330
1F
100
AcDbEntity
  8
1
100
AcDbSpline
210
0.0
220
0.0
230
1.0
 70
     8
 71
     3
 72
    23
 73
    19
 74
     0
 42
0.000000001
 43
0.0000000001
 40
0.0
 40
0.0
 40
0.0
 40
0.0
 40
0.0622940648
 40
0.1246030635
 40
0.1869405958
 40
0.2493177462
 40
0.3117421105
 40
0.3742171312
 40
0.4367418027000002
 40
0.4993107663
 40
0.5619147855
 40
0.6245415612
 40
0.6871768069
 40
0.7498055481
 40
0.812413147
 40
0.8749878301999999
 40
0.9375171909999997
 40
1.0
 40
1.0
 40
1.0
 40
1.0
 10
43.56107595870002
 20
27.80371510420001
 30
0.0
 10
43.73096026319998
 20
27.8037180593
 30
0.0
 10
44.07131622100002
 20
27.77824212110002
 30
0.0
 10
44.57012665479999
 20
27.66446508810006
 30
0.0
 10
45.04677728500001
 20
27.47763025169998
 30
0.0
 10
45.49059990240002
 20
27.22187050790004
 30
0.0
 10
45.89184293100004
 20
26.90283643700005
 30
0.0
 10
46.24164708150003
 20
26.52757424210003
 30
0.0
 10
46.53230402740001
 20
26.1043678714
 30
0.0
 10
46.75740790940003
 20
25.64255579310006
 30
0.0
 10
46.91199949830003
 20
25.15232472210002
 30
0.0
 10
46.99267366479996
 20
24.64448572320001
 30
0.0
 10
46.99765641089999
 20
24.13023665010005
 30
0.0
 10
46.9268350854
 20
23.62091390260005
 30
0.0
 10
46.78178048979996
 20
23.12775103210001
 30
0.0
 10
46.56565118880002
 20
22.66160459350002
 30
0.0
 10
46.2833260845
 20
22.23284427730007
 30
0.0
 10
46.05475884140003
 20
21.97788901930002
 30
0.0
 10
45.93190577130002
 20
21.85980873130004
 30
0.0
  0
SPLINE
  5
8FF96
330
1F
100
AcDbEntity
  8
1
100
AcDbSpline
210
0.0
220
0.0
230
1.0
 70
     8
 71
     3
 72
    11
 73
     7
 74
     0
 42
0.000000001
 43
0.0000000001
 40
0.0
 40
0.0
 40
0.0
 40
0.0
 40
0.2497739043
 40
0.4996616202000002
 40
0.7497158577
 40
1.0
 40
1.0
 40
1.0
 40
1.0
 10
43.8332734626
 20
20.91459081960002
 30
0.0
 10
44.02785314600004
 20
20.93015789960006
 30
0.0
 10
44.41523436229999
 20
20.99493259800002
 30
0.0
 10
44.97070359300005
 20
21.18990184840001
 30
0.0
 10
45.48515359960004
 20
21.47689478570007
 30
0.0
 10
45.7908833765
 20
21.72426498800006
 30
0.0
 10
45.93190577130002
 20
21.85980873130004
 30
0.0
  0
SPLINE
  5
8FF97
330
1F
100
AcDbEntity
  8
1
100
AcDbSpline
210
0.0
220
0.0
230
1.0
 70
     8
 71
     3
 72
    15
 73
    11
 74
     0
 42
0.000000001
 43
0.0000000001
 40
0.0
 40
0.0
 40
0.0
 40
0.0
 40
0.1248552701
 40
0.2498398866
 40
0.3749260929
 40
0.5000617749
 40
0.6251878171000002
 40
0.7502468003000004
 40
0.8751928579000001
 40
1.0
 40
1.0
 40
1.0
 40
1.0
 10
41.19024614609998
 20
26.84762316530001
 30
0.0
 10
41.01646622480001
 20
26.68059450950008
 30
0.0
 10
40.70302228120005
 20
26.30848297530001
 30
0.0
 10
40.36014890890004
 20
25.66528202830004
 30
0.0
 10
40.15826320670004
 20
24.96404624810006
 30
0.0
 10
40.10655513159997
 20
24.23596662060007
 30
0.0
 10
40.20717880590001
 20
23.51307348010002
 30
0.0
 10
40.45584076399999
 20
22.82718034230007
 30
0.0
 10
40.84126068940003
 20
22.2087880247
 30
0.0
 10
41.17906716100003
 20
21.85887063589999
 30
0.0
 10
41.3636945074
 20
21.70406109380005
 30
0.0
  0
SPLINE
  5
8FF98
330
1F
100
AcDbEntity
  8
1
100
AcDbSpline
210
0.0
220
0.0
230
1.0
 70
     8
 71
     3
 72
    11
 73
     7
 74
     0
 42
0.000000001
 43
0.0000000001
 40
0.0
 40
0.0
 40
0.0
 40
0.0
 40
0.2502982113
 40
0.5003479535000001
 40
0.7502225959000001
 40
1.0
 40
1.0
 40
1.0
 40
1.0
 10
41.19024614609998
 20
26.84762316530001
 30
0.0
 10
41.34759972199996
 20
26.99886363120007
 30
0.0
 10
41.69192077080004
 20
27.27186722330002
 30
0.0
 10
42.27590224620001
 20
27.57513978660005
 30
0.0
 10
42.90645613480001
 20
27.76174889350004
 30
0.0
 10
43.34327833550003
 20
27.80371131560006
 30
0.0
 10
43.56107595870002
 20
27.80371510420001
 30
0.0
  0
SPLINE
  5
8FF99
330
1F
100
AcDbEntity
  8
1
100
AcDbSpline
210
0.0
220
0.0
230
1.0
 70
     8
 71
     3
 72
    27
 73
    23
 74
     0
 42
0.000000001
 43
0.0000000001
 40
0.0
 40
0.0
 40
0.0
 40
0.0
 40
0.0625088672
 40
0.0938223471
 40
0.1251520215
 40
0.1877715553
 40
0.2504192639
 40
0.2817832179
 40
0.3131447036
 40
0.3757726261999999
 40
0.4383555037
 40
0.500877792
 40
0.5633331951000004
 40
0.6257256060000001
 40
0.6880684645000003
 40
0.7192657055
 40
0.7504588469
 40
0.8127702661
 40
0.8751046963
 40
0.9063254709999998
 40
0.9375580342999999
 40
1.0
 40
1.0
 40
1.0
 40
1.0
 10
41.98728087929999
 20
26.05319374330006
 30
0.0
 10
41.87677486300002
 20
25.94698083200004
 30
0.0
 10
41.72608948319997
 20
25.7705802813001
 30
0.0
 10
41.562932821
 20
25.51025787160003
 30
0.0
 10
41.42576484170001
 20
25.23493960099998
 30
0.0
 10
41.30579010940005
 20
24.86744898240008
 30
0.0
 10
41.25955250510003
 20
24.48355601880005
 30
0.0
 10
41.26770012809998
 20
24.17581679930001
 30
0.0
 10
41.30574621370004
 20
23.87038682099998
 30
0.0
 10
41.40900593909996
 20
23.49785282450007
 30
0.0
 10
41.61717212790001
 20
23.08405166810004
 30
0.0
 10
41.90164722330002
 20
22.71891527660003
 30
0.0
 10
42.25155399569999
 20
22.41660186650003
 30
0.0
 10
42.6533364192
 20
22.18871904850002
 30
0.0
 10
43.01900281710003
 20
22.06808514300005
 30
0.0
 10
43.32083245929999
 20
22.01607734630002
 30
0.0
 10
43.6262444125
 20
21.99401241960007
 30
0.0
 10
44.00990785330002
 20
22.02317655620007
 30
0.0
 10
44.38041423550004
 20
22.12716772400003
 30
0.0
 10
44.6600403401
 20
22.25251226880002
 30
0.0
 10
44.92617047760001
 20
22.40476049050002
 30
0.0
 10
45.10810606390004
 20
22.54813891880005
 30
0.0
 10
45.21849380870002
 20
22.65423815330004
 30
0.0
  0
SPLINE
  5
8FF9A
330
1F
100
AcDbEntity
  8
1
100
AcDbSpline
210
0.0
220
0.0
230
1.0
 70
     8
 71
     3
 72
    15
 73
    11
 74
     0
 42
0.000000001
 43
0.0000000001
 40
0.0
 40
0.0
 40
0.0
 40
0.0
 40
0.1250239648
 40
0.250123988
 40
0.3752702235
 40
0.5004026705
 40
0.6254740252000001
 40
0.7504461052
 40
0.8752850064
 40
1.0
 40
1.0
 40
1.0
 40
1.0
 10
45.05303707120003
 20
25.30709612370008
 30
0.0
 10
45.02553854120002
 20
25.26115040750004
 30
0.0
 10
44.97937033879997
 20
25.16359810280004
 30
0.0
 10
44.9397766788
 20
25.00683114060004
 30
0.0
 10
44.93114516050002
 20
24.84526723840004
 30
0.0
 10
44.95385710899999
 20
24.6851008921
 30
0.0
 10
45.00702718649999
 20
24.53239723200008
 30
0.0
 10
45.0886704759
 20
24.39295368310006
 30
0.0
 10
45.19561432569997
 20
24.2720998664
 30
0.0
 10
45.28129039160001
 20
24.20685974630008
 30
0.0
 10
45.32674258880001
 20
24.17880405200006
 30
0.0
  0
SPLINE
  5
8FF9B
330
1F
100
AcDbEntity
  8
1
100
AcDbSpline
210
0.0
220
0.0
230
1.0
 70
     8
 71
     3
 72
     9
 73
     5
 74
     0
 42
0.000000001
 43
0.0000000001
 40
0.0
 40
0.0
 40
0.0
 40
0.0
 40
0.5005296858000003
 40
1.0
 40
1.0
 40
1.0
 40
1.0
 10
43.31868252740004
 20
26.09319020290005
 30
0.0
 10
43.29831856089997
 20
26.13019012510003
 30
0.0
 10
43.2427943326
 20
26.19688157690004
 30
0.0
 10
43.16602069069998
 20
26.23738893370003
 30
0.0
 10
43.12566438290001
 20
26.24953436280002
 30
0.0
  0
SPLINE
  5
8FF9C
330
1F
100
AcDbEntity
  8
1
100
AcDbSpline
210
0.0
220
0.0
230
1.0
 70
     8
 71
     3
 72
    11
 73
     7
 74
     0
 42
0.000000001
 43
0.0000000001
 40
0.0
 40
0.0
 40
0.0
 40
0.0
 40
0.2496149404
 40
0.4994124553
 40
0.7495119399
 40
1.0
 40
1.0
 40
1.0
 40
1.0
 10
44.03644238229996
 20
25.66773844630004
 30
0.0
 10
43.96382147999998
 20
25.66773672820003
 30
0.0
 10
43.81778351719996
 20
25.68736272490006
 30
0.0
 10
43.61478497680002
 20
25.77366200500004
 30
0.0
 10
43.44147122359999
 20
25.9105053822
 30
0.0
 10
43.35382087550004
 20
26.02934624830002
 30
0.0
 10
43.31868252740004
 20
26.09319020290005
 30
0.0
  0
SPLINE
  5
8FF9D
330
1F
100
AcDbEntity
  8
1
100
AcDbSpline
210
0.0
220
0.0
230
1.0
 70
     8
 71
     3
 72
    15
 73
    11
 74
     0
 42
0.000000001
 43
0.0000000001
 40
0.0
 40
0.0
 40
0.0
 40
0.0
 40
0.1250857571
 40
0.2502708197
 40
0.3754748568
 40
0.5006388484000001
 40
0.6256977427
 40
0.7506129544000001
 40
0.8753737401
 40
1.0
 40
1.0
 40
1.0
 40
1.0
 10
44.86488583729999
 20
25.30709612370008
 30
0.0
 10
44.8777072784
 20
25.32851873400003
 30
0.0
 10
44.8985534189
 20
25.37447160490008
 30
0.0
 10
44.91348933789999
 20
25.44853699820001
 30
0.0
 10
44.91142788070003
 20
25.52411702750001
 30
0.0
 10
44.89245665760001
 20
25.5972723436
 30
0.0
 10
44.85755498640003
 20
25.66424300690002
 30
0.0
 10
44.80850644679996
 20
25.72157421770007
 30
0.0
 10
44.7478847835
 20
25.76629024110002
 30
0.0
 10
44.70169983579999
 20
25.78618933840008
 30
0.0
 10
44.67788325179998
 20
25.79336686300005
 30
0.0
  0
SPLINE
  5
8FF9E
330
1F
100
AcDbEntity
  8
1
100
AcDbSpline
210
0.0
220
0.0
230
1.0
 70
     8
 71
     3
 72
    15
 73
    11
 74
     0
 42
0.000000001
 43
0.0000000001
 40
0.0
 40
0.0
 40
0.0
 40
0.0
 40
0.1247112658
 40
0.2495551485
 40
0.374525539
 40
0.4995973265
 40
0.6247302097000002
 40
0.7498747513
 40
0.8749797722
 40
1.0
 40
1.0
 40
1.0
 40
1.0
 10
45.13859135490004
 20
24.17880405200006
 30
0.0
 10
45.09314046479999
 20
24.20685893950005
 30
0.0
 10
45.00746499300004
 20
24.27210047330002
 30
0.0
 10
44.90051720859995
 20
24.39295100020004
 30
0.0
 10
44.81887526800004
 20
24.53239749630004
 30
0.0
 10
44.76570298030003
 20
24.68510018540006
 30
0.0
 10
44.74299344010002
 20
24.84526668120006
 30
0.0
 10
44.7516224126
 20
25.00683258870008
 30
0.0
 10
44.79122106960004
 20
25.16359843860002
 30
0.0
 10
44.83738809810001
 20
25.26115172880006
 30
0.0
 10
44.86488583729999
 20
25.30709612370008
 30
0.0
  0
SPLINE
  5
8FF9F
330
1F
100
AcDbEntity
  8
1
100
AcDbSpline
210
0.0
220
0.0
230
1.0
 70
     8
 71
     3
 72
    15
 73
    11
 74
     0
 42
0.000000001
 43
0.0000000001
 40
0.0
 40
0.0
 40
0.0
 40
0.0
 40
0.1251690641
 40
0.2504153157
 40
0.3756780478
 40
0.5008524085000003
 40
0.6258738701
 40
0.7507162475
 40
0.8754019431999997
 40
1.0
 40
1.0
 40
1.0
 40
1.0
 10
45.05303707120003
 20
25.30709612370008
 30
0.0
 10
45.06789895739998
 20
25.33192799660006
 30
0.0
 10
45.09117804340002
 20
25.3858032071
 30
0.0
 10
45.103823776
 20
25.47270478099998
 30
0.0
 10
45.0935134671
 20
25.55997106510003
 30
0.0
 10
45.06090156560003
 20
25.64150282900002
 30
0.0
 10
45.0082578775
 20
25.71166875080006
 30
0.0
 10
44.93919286909997
 20
25.76559227300007
 30
0.0
 10
44.85857141400003
 20
25.79953088450006
 30
0.0
 10
44.80064527730002
 20
25.80724843700008
 30
0.0
 10
44.77183774600002
 20
25.80725114250001
 30
0.0
  0
SPLINE
  5
8FFA0
330
1F
100
AcDbEntity
  8
1
100
AcDbSpline
210
0.0
220
0.0
230
1.0
 70
     8
 71
     3
 72
    15
 73
    11
 74
     0
 42
0.000000001
 43
0.0000000001
 40
0.0
 40
0.0
 40
0.0
 40
0.0
 40
0.1253361589
 40
0.2506179557
 40
0.3758017338
 40
0.5008629552000004
 40
0.6257921002
 40
0.7506016773000001
 40
0.8753138232999997
 40
1.0
 40
1.0
 40
1.0
 40
1.0
 10
44.12601539999997
 20
22.7651342417
 30
0.0
 10
44.1274356059
 20
22.81808773510002
 30
0.0
 10
44.1404887589
 20
22.92397863430003
 30
0.0
 10
44.18995968580002
 20
23.07589078490005
 30
0.0
 10
44.26749903120002
 20
23.21551223330002
 30
0.0
 10
44.3702321856
 20
23.33758391150005
 30
0.0
 10
44.49434774140001
 20
23.43759220190006
 30
0.0
 10
44.6352607681
 20
23.5118070604
 30
0.0
 10
44.78766833580002
 20
23.55748353830003
 30
0.0
 10
44.89336055409999
 20
23.56775225410004
 30
0.0
 10
44.9460583778
 20
23.56775687450008
 30
0.0
  0
SPLINE
  5
8FFA1
330
1F
100
AcDbEntity
  8
1
100
AcDbSpline
210
0.0
220
0.0
230
1.0
 70
     8
 71
     3
 72
    11
 73
     7
 74
     0
 42
0.000000001
 43
0.0000000001
 40
0.0
 40
0.0
 40
0.0
 40
0.0
 40
0.2504838257
 40
0.500590205
 40
0.7503870348000003
 40
1.0
 40
1.0
 40
1.0
 40
1.0
 10
43.50683376130001
 20
26.09319020290005
 30
0.0
 10
43.5419715428
 20
26.02934727779999
 30
0.0
 10
43.62962351240002
 20
25.91050754040002
 30
0.0
 10
43.80293340010005
 20
25.77365591720005
 30
0.0
 10
44.00593785789999
 20
25.68736928650006
 30
0.0
 10
44.15197323350002
 20
25.66773097480004
 30
0.0
 10
44.2245936177
 20
25.66773481550004
 30
0.0
  0
SPLINE
  5
8FFA2
330
1F
100
AcDbEntity
  8
1
100
AcDbSpline
210
0.0
220
0.0
230
1.0
 70
     8
 71
     3
 72
     9
 73
     5
 74
     0
 42
0.000000001
 43
0.0000000001
 40
0.0
 40
0.0
 40
0.0
 40
0.0
 40
0.5001901152000002
 40
1.0
 40
1.0
 40
1.0
 40
1.0
 10
42.40216015520002
 20
22.94004613800004
 30
0.0
 10
42.46167797150002
 20
22.97247917600002
 30
0.0
 10
42.58925388379998
 20
23.02268959980004
 30
0.0
 10
42.72530030090002
 20
23.03969184800005
 30
0.0
 10
42.79302983800003
 20
23.03969345030001
 30
0.0
  0
SPLINE
  5
8FFA3
330
1F
100
AcDbEntity
  8
1
100
AcDbSpline
210
0.0
220
0.0
230
1.0
 70
     8
 71
     3
 72
    15
 73
    11
 74
     0
 42
0.000000001
 43
0.0000000001
 40
0.0
 40
0.0
 40
0.0
 40
0.0
 40
0.1246306667
 40
0.2493700462
 40
0.3743251245000001
 40
0.4994834848
 40
0.6247560296
 40
0.7500072077
 40
0.8751043940999998
 40
1.0
 40
1.0
 40
1.0
 40
1.0
 10
45.15504407349999
 20
23.56756793440005
 30
0.0
 10
45.19033056609996
 20
23.56757189459998
 30
0.0
 10
45.26146753509999
 20
23.579223165
 30
0.0
 10
45.356631682
 20
23.62983346860003
 30
0.0
 10
45.4309037685
 20
23.70826522709998
 30
0.0
 10
45.47646007269998
 20
23.80634138770004
 30
0.0
 10
45.48862684940004
 20
23.91387324950009
 30
0.0
 10
45.4661272243
 20
24.01972908810009
 30
0.0
 10
45.41138972520002
 20
24.11285961349998
 30
0.0
 10
45.35683333030003
 20
24.16023032630008
 30
0.0
 10
45.32674258880001
 20
24.17880405200006
 30
0.0
  0
SPLINE
  5
8FFA4
330
1F
100
AcDbEntity
  8
1
100
AcDbSpline
210
0.0
220
0.0
230
1.0
 70
     8
 71
     3
 72
    15
 73
    11
 74
     0
 42
0.000000001
 43
0.0000000001
 40
0.0
 40
0.0
 40
0.0
 40
0.0
 40
0.1246447334
 40
0.2493848056
 40
0.3743438025
 40
0.4995031723
 40
0.6247725785
 40
0.7500190329000001
 40
0.8751066604
 40
1.0
 40
1.0
 40
1.0
 40
1.0
 10
44.97236084040003
 20
23.56761477580001
 30
0.0
 10
45.0074219914
 20
23.56820946440004
 30
0.0
 10
45.07790242679999
 20
23.58088811420001
 30
0.0
 10
45.17175065999999
 20
23.63245391450008
 30
0.0
 10
45.2446405439
 20
23.71120810800002
 30
0.0
 10
45.28897658140005
 20
23.80906128330005
 30
0.0
 10
45.30029818819996
 20
23.9159680242
 30
0.0
 10
45.27739159529999
 20
24.0210036746
 30
0.0
 10
45.22273380080003
 20
24.11335069530001
 30
0.0
 10
45.16849031819996
 20
24.16034870270008
 30
0.0
 10
45.13859135490004
 20
24.17880405200006
 30
0.0
  0
SPLINE
  5
8FFA5
330
1F
100
AcDbEntity
  8
1
100
AcDbSpline
210
0.0
220
0.0
230
1.0
 70
     8
 71
     3
 72
    15
 73
    11
 74
     0
 42
0.000000001
 43
0.0000000001
 40
0.0
 40
0.0
 40
0.0
 40
0.0
 40
0.1246847547
 40
0.2493950512
 40
0.3742059129999999
 40
0.4991353218
 40
0.6241963563000003
 40
0.7493826784000001
 40
0.8746592724999999
 40
1.0
 40
1.0
 40
1.0
 40
1.0
 10
45.1342095997
 20
23.56775703950004
 30
0.0
 10
45.081512438
 20
23.56775352740007
 30
0.0
 10
44.97582158479995
 20
23.55748356340004
 30
0.0
 10
44.82341573440004
 20
23.51180609120003
 30
0.0
 10
44.68250199949999
 20
23.43759301360002
 30
0.0
 10
44.55838698890005
 20
23.33758359020007
 30
0.0
 10
44.45565088249998
 20
23.21551302900005
 30
0.0
 10
44.37811477450003
 20
23.07589147510001
 30
0.0
 10
44.32863835929999
 20
22.92398061620005
 30
0.0
 10
44.31558688990003
 20
22.81808960390002
 30
0.0
 10
44.31416663390002
 20
22.7651342417
 30
0.0
  0
SPLINE
  5
8FFA6
330
1F
100
AcDbEntity
  8
1
100
AcDbSpline
210
0.0
220
0.0
230
1.0
 70
     8
 71
     3
 72
    11
 73
     7
 74
     0
 42
0.000000001
 43
0.0000000001
 40
0.0
 40
0.0
 40
0.0
 40
0.0
 40
0.2504912436
 40
0.5005863446
 40
0.7503877002000002
 40
1.0
 40
1.0
 40
1.0
 40
1.0
 10
43.50683376130001
 20
26.09319020290005
 30
0.0
 10
43.4927758718
 20
26.11873241840007
 30
0.0
 10
43.45771073370002
 20
26.16627761480008
 30
0.0
 10
43.3883709231
 20
26.22102123560009
 30
0.0
 10
43.30715883960005
 20
26.25554815440003
 30
0.0
 10
43.2487339593
 20
26.26339940310007
 30
0.0
 10
43.21968100429996
 20
26.26340130950004
 30
0.0
  0
SPLINE
  5
8FFA7
330
1F
100
AcDbEntity
  8
1
100
AcDbSpline
210
0.0
220
0.0
230
1.0
 70
     8
 71
     3
 72
    11
 73
     7
 74
     0
 42
0.000000001
 43
0.0000000001
 40
0.0
 40
0.0
 40
0.0
 40
0.0
 40
0.2493758055
 40
0.4991114829
 40
0.7493606815
 40
1.0
 40
1.0
 40
1.0
 40
1.0
 10
43.98609368369998
 20
22.44403058710006
 30
0.0
 10
44.02806342339999
 20
22.44402783330006
 30
0.0
 10
44.1129584408
 20
22.46064545640003
 30
0.0
 10
44.22083129400003
 20
22.53174642720003
 30
0.0
 10
44.29430026689999
 20
22.63825388930005
 30
0.0
 10
44.31303571440003
 20
22.72296701660005
 30
0.0
 10
44.31416663390002
 20
22.7651342417
 30
0.0
  0
SPLINE
  5
8FFA8
330
1F
100
AcDbEntity
  8
1
100
AcDbSpline
210
0.0
220
0.0
230
1.0
 70
     8
 71
     3
 72
    11
 73
     7
 74
     0
 42
0.000000001
 43
0.0000000001
 40
0.0
 40
0.0
 40
0.0
 40
0.0
 40
0.2494323598
 40
0.4992635434000002
 40
0.7494788913
 40
1.0
 40
1.0
 40
1.0
 40
1.0
 10
43.89214778850003
 20
22.45791930999999
 30
0.0
 10
43.92485220939999
 20
22.46776981960002
 30
0.0
 10
43.98762739800003
 20
22.49806142160005
 30
0.0
 10
44.06287692530002
 20
22.57022928030003
 30
0.0
 10
44.11245160940004
 20
22.66211256160004
 30
0.0
 10
44.1250956809
 20
22.73084178870002
 30
0.0
 10
44.12601539999997
 20
22.7651342417
 30
0.0
  0
SPLINE
  5
8FFA9
330
1F
100
AcDbEntity
  8
1
100
AcDbSpline
210
0.0
220
0.0
230
1.0
 70
     8
 71
     3
 72
     9
 73
     5
 74
     0
 42
0.000000001
 43
0.0000000001
 40
0.0
 40
0.0
 40
0.0
 40
0.0
 40
0.4998189853000001
 40
1.0
 40
1.0
 40
1.0
 40
1.0
 10
42.98118107029997
 20
23.0396970811
 30
0.0
 10
42.91345024920002
 20
23.03969349900004
 30
0.0
 10
42.7774045795
 20
23.02268742050003
 30
0.0
 10
42.64982816729996
 20
22.97247861029999
 30
0.0
 10
42.59031138910001
 20
22.94004613800004
 30
0.0
  0
SPLINE
  5
8FFAA
330
1F
100
AcDbEntity
  8
1
100
AcDbSpline
210
0.0
220
0.0
230
1.0
 70
     8
 71
     3
 72
    27
 73
    23
 74
     0
 42
0.000000001
 43
0.0000000001
 40
0.0
 40
0.0
 40
0.0
 40
0.0
 40
0.0624419657
 40
0.093674529
 40
0.1248953037
 40
0.1872297339
 40
0.2495411531
 40
0.2807342945
 40
0.3119315355
 40
0.374274394
 40
0.4366668049000002
 40
0.499122208
 40
0.5616444963000001
 40
0.6242273738000002
 40
0.6868552964
 40
0.7182167821
 40
0.7495807361
 40
0.8122284447
 40
0.8748479784999998
 40
0.9061776528999999
 40
0.9374911327999999
 40
1.0
 40
1.0
 40
1.0
 40
1.0
 10
41.98728087929999
 20
26.05319374330006
 30
0.0
 10
42.09766862409995
 20
26.15929297779999
 30
0.0
 10
42.27960421040001
 20
26.30267140610002
 30
0.0
 10
42.54573434790001
 20
26.45491962780004
 30
0.0
 10
42.82536045249996
 20
26.58026417260001
 30
0.0
 10
43.19586683469998
 20
26.68425534040003
 30
0.0
 10
43.57953027550002
 20
26.71341947700009
 30
0.0
 10
43.88494222870003
 20
26.69135455030002
 30
0.0
 10
44.18677187089997
 20
26.63934675360001
 30
0.0
 10
44.55243826880002
 20
26.51871284810008
 30
0.0
 10
44.95422069229999
 20
26.29083003010001
 30
0.0
 10
45.3041274647
 20
25.98851662000001
 30
0.0
 10
45.58860256010001
 20
25.6233802285
 30
0.0
 10
45.79676874890004
 20
25.20957907210001
 30
0.0
 10
45.90002847430002
 20
24.83704507560006
 30
0.0
 10
45.93807455990003
 20
24.53161509730004
 30
0.0
 10
45.94622218289997
 20
24.2238758778
 30
0.0
 10
45.89998457860002
 20
23.83998291420002
 30
0.0
 10
45.7800098463
 20
23.47249229560005
 30
0.0
 10
45.64284186700001
 20
23.19717402500001
 30
0.0
 10
45.47968520479996
 20
22.93685161530001
 30
0.0
 10
45.32899982499998
 20
22.76045106460001
 30
0.0
 10
45.21849380870002
 20
22.65423815330004
 30
0.0
  0
SPLINE
  5
8FFAB
330
1F
100
AcDbEntity
  8
1
100
AcDbSpline
210
0.0
220
0.0
230
1.0
 70
     8
 71
     3
 72
     9
 73
     5
 74
     0
 42
0.000000001
 43
0.0000000001
 40
0.0
 40
0.0
 40
0.0
 40
0.0
 40
0.4998093977000001
 40
1.0
 40
1.0
 40
1.0
 40
1.0
 10
42.43393694199999
 20
22.90018075410003
 30
0.0
 10
42.46103333999996
 20
22.90017820930004
 30
0.0
 10
42.51546132669999
 20
22.90698403349998
 30
0.0
 10
42.5665001886
 20
22.92707070270004
 30
0.0
 10
42.59031138910001
 20
22.94004613800004
 30
0.0
  0
SPLINE
  5
8FFAC
330
1F
100
AcDbEntity
  8
1
100
AcDbSpline
210
0.0
220
0.0
230
1.0
 70
     8
 71
     3
 72
     8
 73
     4
 74
     0
 42
0.000000001
 43
0.0000000001
 40
0.0
 40
0.0
 40
0.0
 40
0.0
 40
1.0
 40
1.0
 40
1.0
 40
1.0
 10
42.3396932137
 20
22.91397846770005
 30
0.0
 10
42.36130111779996
 20
22.92047229840003
 30
0.0
 10
42.38234817210002
 20
22.92924999590005
 30
0.0
 10
42.40216015520002
 20
22.94004613800004
 30
0.0
  0
SPLINE
  5
8FFAD
330
1F
100
AcDbEntity
  8
1
100
AcDbSpline
210
0.0
220
0.0
230
1.0
 70
     8
 71
     3
 72
     9
 73
     5
 74
     0
 42
0.000000001
 43
0.0000000001
 40
0.0
 40
0.0
 40
0.0
 40
0.0
 40
0.252240146
 40
1.0
 40
1.0
 40
1.0
 40
1.0
 10
50.80000000000001
 20
30.36718412590008
 30
0.0
 10
50.79954475440001
 20
30.25949836160007
 30
0.0
 10
50.7969219702
 20
29.83258464690002
 30
0.0
 10
50.79099475300004
 20
29.40569074530001
 30
0.0
 10
50.78464231510003
 20
29.08651924050005
 30
0.0
  0
SPLINE
  5
8FFAE
330
1F
100
AcDbEntity
  8
1
100
AcDbSpline
210
0.0
220
0.0
230
1.0
 70
     8
 71
     3
 72
    15
 73
    11
 74
     0
 42
0.000000001
 43
0.0000000001
 40
0.0
 40
0.0
 40
0.0
 40
0.0
 40
0.1258919615
 40
0.2515385479
 40
0.3767842579
 40
0.5015613384000001
 40
0.6260321518000001
 40
0.7504243424000001
 40
0.8749972695
 40
1.0
 40
1.0
 40
1.0
 40
1.0
 10
50.80000000000001
 20
30.36718412590008
 30
0.0
 10
50.80021242790002
 20
30.41743275050007
 30
0.0
 10
50.79118041690003
 20
30.5181337752001
 30
0.0
 10
50.74956478450002
 20
30.663542111
 30
0.0
 10
50.6816663605
 20
30.79824164220005
 30
0.0
 10
50.5899678307
 20
30.91742053010003
 30
0.0
 10
50.47761381129999
 20
31.01686887950004
 30
0.0
 10
50.3484266002
 20
31.09306496669999
 30
0.0
 10
50.20690336749999
 20
31.14322629790006
 30
0.0
 10
50.1076539641
 20
31.15800663150006
 30
0.0
 10
50.05782772740002
 20
31.16060885130006
 30
0.0
  0
SPLINE
  5
8FFAF
330
1F
100
AcDbEntity
  8
1
100
AcDbSpline
210
0.0
220
0.0
230
1.0
 70
     8
 71
     3
 72
     9
 73
     5
 74
     0
 42
0.000000001
 43
0.0000000001
 40
0.0
 40
0.0
 40
0.0
 40
0.0
 40
0.2501264543
 40
1.0
 40
1.0
 40
1.0
 40
1.0
 10
48.7753151827
 20
31.22672268170001
 30
0.0
 10
48.88224895420001
 20
31.22128190779998
 30
0.0
 10
49.30976412540001
 20
31.19945778730008
 30
0.0
 10
49.737264846
 20
31.17735053450005
 30
0.0
 10
50.05782772740002
 20
31.16060885130006
 30
0.0
  0
SPLINE
  5
8FFB0
330
1F
100
AcDbEntity
  8
1
100
AcDbSpline
210
0.0
220
0.0
230
1.0
 70
     8
 71
     3
 72
     9
 73
     5
 74
     0
 42
0.000000001
 43
0.0000000001
 40
0.0
 40
0.0
 40
0.0
 40
0.0
 40
0.2480570325
 40
1.0
 40
1.0
 40
1.0
 40
1.0
 10
42.27196340379999
 20
31.38941062400002
 30
0.0
 10
42.805302084
 20
31.37619276240005
 30
0.0
 10
44.95536830149999
 20
31.32296656960003
 30
0.0
 10
47.10542231330004
 20
31.2692483214
 30
0.0
 10
48.72213742120004
 20
31.22874093730006
 30
0.0
  0
SPLINE
  5
8FFB1
330
1F
100
AcDbEntity
  8
1
100
AcDbSpline
210
0.0
220
0.0
230
1.0
 70
     8
 71
     3
 72
    11
 73
     7
 74
     0
 42
0.000000001
 43
0.0000000001
 40
0.0
 40
0.0
 40
0.0
 40
0.0
 40
0.1243918769
 40
0.2489601206
 40
0.4986690237
 40
1.0
 40
1.0
 40
1.0
 40
1.0
 10
40.95138391909997
 20
31.20341046709999
 30
0.0
 10
40.8645388649
 20
31.15702658540002
 30
0.0
 10
40.6905953113
 20
31.06443727900003
 30
0.0
 10
40.34239536950003
 20
30.87858592669997
 30
0.0
 10
39.7311132063
 20
30.55202894359998
 30
0.0
 10
39.20709143770004
 20
30.27137490190003
 30
0.0
 10
38.85740595710003
 20
30.08383396950006
 30
0.0
  0
LINE
  5
8FFB2
330
1F
100
AcDbEntity
  8
1
100
AcDbLine
 10
35.71545641250001
 20
28.39219282780002
 30
0.0
 11
35.27933239949999
 21
28.15644060190002
 31
0.0
  0
SPLINE
  5
8FFB3
330
1F
100
AcDbEntity
  8
1
100
AcDbSpline
210
0.0
220
0.0
230
1.0
 70
     8
 71
     3
 72
     9
 73
     5
 74
     0
 42
0.000000001
 43
0.0000000001
 40
0.0
 40
0.0
 40
0.0
 40
0.0
 40
0.2497989111
 40
1.0
 40
1.0
 40
1.0
 40
1.0
 10
35.23292240109999
 20
28.13055877380006
 30
0.0
 10
35.14019649570001
 20
28.07724293660007
 30
0.0
 10
34.76934774360001
 20
27.86319384040004
 30
0.0
 10
34.39989072380001
 20
27.6467330911
 30
0.0
 10
34.12354275570002
 20
27.48296800919999
 30
0.0
  0
SPLINE
  5
8FFB4
330
1F
100
AcDbEntity
  8
1
100
AcDbSpline
210
0.0
220
0.0
230
1.0
 70
     8
 71
     3
 72
     9
 73
     5
 74
     0
 42
0.000000001
 43
0.0000000001
 40
0.0
 40
0.0
 40
0.0
 40
0.0
 40
0.5004239240999999
 40
1.0
 40
1.0
 40
1.0
 40
1.0
 10
34.12354275570002
 20
27.48296800919999
 30
0.0
 10
34.08285554360003
 20
27.45885657940002
 30
0.0
 10
34.00577223430004
 20
27.40315976470001
 30
0.0
 10
33.94007122180003
 20
27.33441015160007
 30
0.0
 10
33.91066451739999
 20
27.29747124330001
 30
0.0
  0
SPLINE
  5
8FFB5
330
1F
100
AcDbEntity
  8
1
100
AcDbSpline
210
0.0
220
0.0
230
1.0
 70
     8
 71
     3
 72
     9
 73
     5
 74
     0
 42
0.000000001
 43
0.0000000001
 40
0.0
 40
0.0
 40
0.0
 40
0.0
 40
0.2514473596
 40
1.0
 40
1.0
 40
1.0
 40
1.0
 10
33.87646332759999
 20
26.33901958459998
 30
0.0
 10
33.92057644300005
 20
26.25435599560011
 30
0.0
 10
34.09651764739999
 20
25.91791406330006
 30
0.0
 10
34.27448898500002
 20
25.58253357840006
 30
0.0
 10
34.40887030450003
 20
25.33210903780001
 30
0.0
  0
SPLINE
  5
8FFB6
330
1F
100
AcDbEntity
  8
1
100
AcDbSpline
210
0.0
220
0.0
230
1.0
 70
     8
 71
     3
 72
    15
 73
    11
 74
     0
 42
0.000000001
 43
0.0000000001
 40
0.0
 40
0.0
 40
0.0
 40
0.0
 40
0.0307431001
 40
0.0614959634
 40
0.1231379651
 40
0.246903986
 40
0.3712377321
 40
0.4960931420000004
 40
0.7472188169000003
 40
1.0
 40
1.0
 40
1.0
 40
1.0
 10
50.28917829110003
 20
21.97225884640004
 30
0.0
 10
50.26609762970004
 20
21.93172928000004
 30
0.0
 10
50.22013782420003
 20
21.85053854950004
 30
0.0
 10
50.12788877849999
 20
21.68808950620003
 30
0.0
 10
49.96585277719996
 20
21.40297646180002
 30
0.0
 10
49.73319400310003
 20
20.99470110040002
 30
0.0
 10
49.45245912350003
 20
20.50344229040005
 30
0.0
 10
49.07506610260004
 20
19.84487701260005
 30
0.0
 10
48.59937709110004
 20
19.01804317360003
 30
0.0
 10
48.21680875870004
 20
18.35616841020001
 30
0.0
 10
48.02458626109999
 20
18.02432341170001
 30
0.0
  0
SPLINE
  5
8FFB7
330
1F
100
AcDbEntity
  8
1
100
AcDbSpline
210
0.0
220
0.0
230
1.0
 70
     8
 71
     3
 72
    10
 73
     6
 74
     0
 42
0.000000001
 43
0.0000000001
 40
0.0
 40
0.0
 40
0.0
 40
0.0
 40
0.2504975257
 40
0.5018049672
 40
1.0
 40
1.0
 40
1.0
 40
1.0
 10
41.6814487405
 20
31.38989662300004
 30
0.0
 10
41.61799124020001
 20
31.38989582300005
 30
0.0
 10
41.49068940749996
 20
31.38170344740004
 30
0.0
 10
41.24157865339998
 20
31.33327079580002
 30
0.0
 10
41.06270644990002
 20
31.26286775150001
 30
0.0
 10
40.95138391909997
 20
31.20341046709999
 30
0.0
  0
SPLINE
  5
8FFB8
330
1F
100
AcDbEntity
  8
1
100
AcDbSpline
210
0.0
220
0.0
230
1.0
 70
     8
 71
     3
 72
    19
 73
    15
 74
     0
 42
0.000000001
 43
0.0000000001
 40
0.0
 40
0.0
 40
0.0
 40
0.0
 40
0.1285372826
 40
0.1921878525
 40
0.2551297454
 40
0.2862657227
 40
0.3171667421
 40
0.3788807738
 40
0.4406732382
 40
0.5025396294
 40
0.6264895617000003
 40
0.7507216692
 40
0.8752278392
 40
1.0
 40
1.0
 40
1.0
 40
1.0
 10
50.4985140279
 20
22.72564251849998
 30
0.0
 10
50.50413053519998
 20
22.99616025700007
 30
0.0
 10
50.51502399650003
 20
23.4005904972
 30
0.0
 10
50.53455664199997
 20
23.93729577960002
 30
0.0
 10
50.54877636510003
 20
24.26901837340003
 30
0.0
 10
50.56131942150003
 20
24.53180520570001
 30
0.0
 10
50.57472355860003
 20
24.7919611568
 30
0.0
 10
50.59145900669999
 20
25.11656381240007
 30
0.0
 10
50.61130306019999
 20
25.50627619680003
 30
0.0
 10
50.63759099960003
 20
26.02683910030001
 30
0.0
 10
50.6700479773
 20
26.67869581550005
 30
0.0
 10
50.70834786720002
 20
27.46228382130008
 30
0.0
 10
50.7460125746
 20
28.24763543169999
 30
0.0
 10
50.77067700629999
 20
28.77179623999999
 30
0.0
 10
50.78290005180003
 20
29.03416197990006
 30
0.0
  0
SPLINE
  5
8FFB9
330
1F
100
AcDbEntity
  8
1
100
AcDbSpline
210
0.0
220
0.0
230
1.0
 70
     8
 71
     3
 72
     8
 73
     4
 74
     0
 42
0.000000001
 43
0.0000000001
 40
0.0
 40
0.0
 40
0.0
 40
0.0
 40
1.0
 40
1.0
 40
1.0
 40
1.0
 10
50.78464231510003
 20
29.08651924050005
 30
0.0
 10
50.78429483800005
 20
29.06906061790002
 30
0.0
 10
50.78371269040001
 20
29.05160514090008
 30
0.0
 10
50.78290005180003
 20
29.03416197990006
 30
0.0
  0
SPLINE
  5
8FFBA
330
1F
100
AcDbEntity
  8
1
100
AcDbSpline
210
0.0
220
0.0
230
1.0
 70
     8
 71
     3
 72
     8
 73
     4
 74
     0
 42
0.000000001
 43
0.0000000001
 40
0.0
 40
0.0
 40
0.0
 40
0.0
 40
1.0
 40
1.0
 40
1.0
 40
1.0
 10
48.7753151827
 20
31.22672268170001
 30
0.0
 10
48.75759941640001
 20
31.22762405710003
 30
0.0
 10
48.73987053830001
 20
31.22829662760003
 30
0.0
 10
48.72213742120004
 20
31.22874093730006
 30
0.0
  0
SPLINE
  5
8FFBB
330
1F
100
AcDbEntity
  8
1
100
AcDbSpline
210
0.0
220
0.0
230
1.0
 70
     8
 71
     3
 72
     8
 73
     4
 74
     0
 42
0.000000001
 43
0.0000000001
 40
0.0
 40
0.0
 40
0.0
 40
0.0
 40
1.0
 40
1.0
 40
1.0
 40
1.0
 10
35.27933239949999
 20
28.15644060190002
 30
0.0
 10
35.26375166729997
 20
28.14801495310005
 30
0.0
 10
35.24827803390002
 20
28.13938800460002
 30
0.0
 10
35.23292240109999
 20
28.13055877380006
 30
0.0
  0
SPLINE
  5
8FFBC
330
1F
100
AcDbEntity
  8
1
100
AcDbSpline
210
0.0
220
0.0
230
1.0
 70
     8
 71
     3
 72
    10
 73
     6
 74
     0
 42
0.000000001
 43
0.0000000001
 40
0.0
 40
0.0
 40
0.0
 40
0.0
 40
0.4914169275
 40
0.7454080226000001
 40
1.0
 40
1.0
 40
1.0
 40
1.0
 10
50.28917829110003
 20
21.97225884640004
 30
0.0
 10
50.35310965410002
 20
22.08452211210002
 30
0.0
 10
50.42907795860003
 20
22.26784717480004
 30
0.0
 10
50.48563425409998
 20
22.52501699630002
 30
0.0
 10
50.49712470510002
 20
22.65872611840004
 30
0.0
 10
50.4985140279
 20
22.72564251849998
 30
0.0
  0
SPLINE
  5
8FFBD
330
1F
100
AcDbEntity
  8
1
100
AcDbSpline
210
0.0
220
0.0
230
1.0
 70
     8
 71
     3
 72
    15
 73
    11
 74
     0
 42
0.000000001
 43
0.0000000001
 40
0.0
 40
0.0
 40
0.0
 40
0.0
 40
0.1307047057
 40
0.2579435328
 40
0.3197329331
 40
0.381079684
 40
0.5040863557000002
 40
0.6274905222000001
 40
0.751282948
 40
1.0
 40
1.0
 40
1.0
 40
1.0
 10
41.50394560130002
 20
31.20341046709999
 30
0.0
 10
41.26996559670003
 20
31.07348551790004
 30
0.0
 10
40.80899338050002
 20
30.81566829150003
 30
0.0
 10
40.23952533159999
 20
30.49266503860001
 30
0.0
 10
39.79505206480002
 20
30.23717464520004
 30
0.0
 10
39.35828856080002
 20
29.98566230470003
 30
0.0
 10
38.81198682640003
 20
29.67155047500003
 30
0.0
 10
38.15469787060003
 20
29.29394690860002
 30
0.0
 10
37.27395949910003
 20
28.7885605818
 30
0.0
 10
36.61212305940001
 20
28.40939376150003
 30
0.0
 10
36.17010875530002
 20
28.15644060190002
 30
0.0
  0
SPLINE
  5
8FFBE
330
1F
100
AcDbEntity
  8
1
100
AcDbSpline
210
0.0
220
0.0
230
1.0
 70
     8
 71
     3
 72
     9
 73
     5
 74
     0
 42
0.000000001
 43
0.0000000001
 40
0.0
 40
0.0
 40
0.0
 40
0.0
 40
0.2535425232
 40
1.0
 40
1.0
 40
1.0
 40
1.0
 10
35.05109340790003
 20
27.48296800919999
 30
0.0
 10
35.14218059970004
 20
27.53732932200005
 30
0.0
 10
35.50122550110001
 20
27.75209328730004
 30
0.0
 10
35.85940469180002
 20
27.96830503679999
 30
0.0
 10
36.12624543270003
 20
28.13055877380006
 30
0.0
  0
SPLINE
  5
8FFBF
330
1F
100
AcDbEntity
  8
1
100
AcDbSpline
210
0.0
220
0.0
230
1.0
 70
     8
 71
     3
 72
    15
 73
    11
 74
     0
 42
0.000000001
 43
0.0000000001
 40
0.0
 40
0.0
 40
0.0
 40
0.0
 40
0.1239256944
 40
0.2482180337
 40
0.3727429649
 40
0.4974880846
 40
0.622577459
 40
0.7480652020000002
 40
0.8739178931999999
 40
1.0
 40
1.0
 40
1.0
 40
1.0
 10
35.05109340790003
 20
27.48296800919999
 30
0.0
 10
35.00842664950003
 20
27.45750426440006
 30
0.0
 10
34.92765711390001
 20
27.39814452560009
 30
0.0
 10
34.8255638855
 20
27.28782500980006
 30
0.0
 10
34.74597737430002
 20
27.15985729410008
 30
0.0
 10
34.69189788010004
 20
27.01887910520006
 30
0.0
 10
34.66510920130003
 20
26.8699000714
 30
0.0
 10
34.66652283760004
 20
26.71808913639998
 30
0.0
 10
34.69606623930002
 20
26.56882702099998
 30
0.0
 10
34.73388965330002
 20
26.47442214830002
 30
0.0
 10
34.75696166660001
 20
26.42944210099998
 30
0.0
  0
SPLINE
  5
8FFC0
330
1F
100
AcDbEntity
  8
1
100
AcDbSpline
210
0.0
220
0.0
230
1.0
 70
     8
 71
     3
 72
     9
 73
     5
 74
     0
 42
0.000000001
 43
0.0000000001
 40
0.0
 40
0.0
 40
0.0
 40
0.0
 40
0.2466073395
 40
1.0
 40
1.0
 40
1.0
 40
1.0
 10
35.32547388960001
 20
25.28875198130008
 30
0.0
 10
35.27986277360003
 20
25.38307186599999
 30
0.0
 10
35.09373114409999
 20
25.76497158570001
 30
0.0
 10
34.90304317229999
 20
26.14464887730006
 30
0.0
 10
34.75696166660001
 20
26.42944210099998
 30
0.0
  0
SPLINE
  5
8FFC1
330
1F
100
AcDbEntity
  8
1
100
AcDbSpline
210
0.0
220
0.0
230
1.0
 70
     8
 71
     3
 72
     9
 73
     5
 74
     0
 42
0.000000001
 43
0.0000000001
 40
0.0
 40
0.0
 40
0.0
 40
0.0
 40
0.248497335
 40
1.0
 40
1.0
 40
1.0
 40
1.0
 10
36.81979059170004
 20
22.3721861347
 30
0.0
 10
36.69859178820003
 20
22.61027452030007
 30
0.0
 10
36.21014775269998
 20
23.56802180660006
 30
0.0
 10
35.71894661560004
 20
24.52436180760006
 30
0.0
 10
35.34860712870005
 20
25.24243286419997
 30
0.0
  0
SPLINE
  5
8FFC2
330
1F
100
AcDbEntity
  8
1
100
AcDbSpline
210
0.0
220
0.0
230
1.0
 70
     8
 71
     3
 72
     9
 73
     5
 74
     0
 42
0.000000001
 43
0.0000000001
 40
0.0
 40
0.0
 40
0.0
 40
0.0
 40
0.4994142916
 40
1.0
 40
1.0
 40
1.0
 40
1.0
 10
42.23274360600004
 20
31.38989675900004
 30
0.0
 10
42.10648638729995
 20
31.38989596920001
 30
0.0
 10
41.85254477530003
 20
31.35941279830004
 30
0.0
 10
41.61458598000002
 20
31.26484710820003
 30
0.0
 10
41.50394560130002
 20
31.20341046709999
 30
0.0
  0
SPLINE
  5
8FFC3
330
1F
100
AcDbEntity
  8
1
100
AcDbSpline
210
0.0
220
0.0
230
1.0
 70
     8
 71
     3
 72
     8
 73
     4
 74
     0
 42
0.000000001
 43
0.0000000001
 40
0.0
 40
0.0
 40
0.0
 40
0.0
 40
1.0
 40
1.0
 40
1.0
 40
1.0
 10
35.32547388960001
 20
25.28875198130008
 30
0.0
 10
35.33298720880003
 20
25.27321508020006
 30
0.0
 10
35.34069646680001
 20
25.25777126990008
 30
0.0
 10
35.34860712870005
 20
25.24243286419997
 30
0.0
  0
SPLINE
  5
8FFC4
330
1F
100
AcDbEntity
  8
1
100
AcDbSpline
210
0.0
220
0.0
230
1.0
 70
     8
 71
     3
 72
     8
 73
     4
 74
     0
 42
0.000000001
 43
0.0000000001
 40
0.0
 40
0.0
 40
0.0
 40
0.0
 40
1.0
 40
1.0
 40
1.0
 40
1.0
 10
36.12624543270003
 20
28.13055877380006
 30
0.0
 10
36.14075099190003
 20
28.13937894560003
 30
0.0
 10
36.15537426170005
 20
28.14800843880007
 30
0.0
 10
36.17010875530002
 20
28.15644060190002
 30
0.0
  0
SPLINE
  5
8FFC5
330
1F
100
AcDbEntity
  8
1
100
AcDbSpline
210
0.0
220
0.0
230
1.0
 70
     8
 71
     3
 72
     9
 73
     5
 74
     0
 42
0.000000001
 43
0.0000000001
 40
0.0
 40
0.0
 40
0.0
 40
0.0
 40
0.5051953464
 40
1.0
 40
1.0
 40
1.0
 40
1.0
 10
45.54565658749999
 20
19.99441646280003
 30
0.0
 10
45.1494268701
 20
20.257246412
 30
0.0
 10
44.32827097519996
 20
20.72379999850003
 30
0.0
 10
43.45390925119999
 20
21.07948512089999
 30
0.0
 10
43.01247088230002
 20
21.22782795310006
 30
0.0
  0
SPLINE
  5
8FFC6
330
1F
100
AcDbEntity
  8
1
100
AcDbSpline
210
0.0
220
0.0
230
1.0
 70
     8
 71
     3
 72
    20
 73
    16
 74
     0
 42
0.000000001
 43
0.0000000001
 40
0.0
 40
0.0
 40
0.0
 40
0.0
 40
0.027622123
 40
0.0593803006
 40
0.0960129387
 40
0.1380068352
 40
0.1856234664
 40
0.2389198062
 40
0.2977692059
 40
0.3618834391
 40
0.4308394797
 40
0.5041117393
 40
0.6611756192
 40
0.8280742446999999
 40
1.0
 40
1.0
 40
1.0
 40
1.0
 10
49.01247088230002
 20
16.44409173310001
 30
0.0
 10
49.01247088230002
 20
16.49078623650004
 30
0.0
 10
49.00153463909997
 20
16.59126628660007
 30
0.0
 10
48.95752119110003
 20
16.74802818460003
 30
0.0
 10
48.88413048379999
 20
16.9200530711
 30
0.0
 10
48.7806231911
 20
17.10701078760003
 30
0.0
 10
48.64663645280001
 20
17.30829029520001
 30
0.0
 10
48.48230388600001
 20
17.52281786800003
 30
0.0
 10
48.28833000359998
 20
17.74915939249998
 30
0.0
 10
48.06599265760002
 20
17.98556518780006
 30
0.0
 10
47.81710329909997
 20
18.23007104400003
 30
0.0
 10
47.44410588800002
 20
18.57203024450004
 30
0.0
 10
46.92836786109999
 20
19.00268174330003
 30
0.0
 10
46.25923317890005
 20
19.50805980920003
 30
0.0
 10
45.78785313780002
 20
19.8337609031
 30
0.0
 10
45.54565658749999
 20
19.99441646280003
 30
0.0
  0
SPLINE
  5
8FFC7
330
1F
100
AcDbEntity
  8
1
100
AcDbSpline
210
0.0
220
0.0
230
1.0
 70
     8
 71
     3
 72
    29
 73
    25
 74
     0
 42
0.000000001
 43
0.0000000001
 40
0.0
 40
0.0
 40
0.0
 40
0.0
 40
0.2190357424
 40
0.4160415503000002
 40
0.5053830704
 40
0.5881707623
 40
0.6640955012
 40
0.7328703343000002
 40
0.7942324250000004
 40
0.8479445594999999
 40
0.8937971907999997
 40
0.9137188523
 40
0.9316102106
 40
0.9474540908999999
 40
0.9612340868
 40
0.9729371039
 40
0.9825514288
 40
0.9900675698
 40
0.9930368809
 40
0.9954794640999999
 40
0.997394901
 40
0.9987836213999999
 40
0.9996477609999999
 40
1.0
 40
1.0
 40
1.0
 40
1.0
 10
36.95399982729997
 20
30.81623003880006
 30
0.0
 10
36.86781991190003
 20
30.81948754760006
 30
0.0
 10
36.7041539338
 20
30.82639146080002
 30
0.0
 10
36.5054213052
 20
30.83646865860001
 30
0.0
 10
36.36031466050003
 20
30.84471396720002
 30
0.0
 10
36.26282654860001
 20
30.85062415730007
 30
0.0
 10
36.17344176760003
 20
30.85637028740011
 30
0.0
 10
36.09249448710006
 20
30.8618613285
 30
0.0
 10
36.02029040960002
 20
30.8670107911
 30
0.0
 10
35.95710480150001
 20
30.87173856070004
 30
0.0
 10
35.9102031942
 20
30.87541914560009
 30
0.0
 10
35.87737076800004
 20
30.87810258730006
 30
0.0
 10
35.85631852969999
 20
30.87987195740007
 30
0.0
 10
35.83768008810004
 20
30.88148791720002
 30
0.0
 10
35.82147378110003
 20
30.88294423790003
 30
0.0
 10
35.80771472089998
 20
30.88423493270007
 30
0.0
 10
35.79641878710004
 20
30.88535641840005
 30
0.0
 10
35.78854644659998
 20
30.88619589490006
 30
0.0
 10
35.7834957261
 20
30.88679278320004
 30
0.0
 10
35.78062402400003
 20
30.88715359630008
 30
0.0
 10
35.77840940070001
 20
30.8874830357
 30
0.0
 10
35.77673098010001
 20
30.88772769060009
 30
0.0
 10
35.77583755019997
 20
30.88798964740008
 30
0.0
 10
35.7752530601
 20
30.88808837209999
 30
0.0
 10
35.77520746330004
 20
30.88821935020006
 30
0.0
  0
SPLINE
  5
8FFC8
330
1F
100
AcDbEntity
  8
1
100
AcDbSpline
210
0.0
220
0.0
230
1.0
 70
     8
 71
     3
 72
    15
 73
    11
 74
     0
 42
0.000000001
 43
0.0000000001
 40
0.0
 40
0.0
 40
0.0
 40
0.0
 40
0.0652531968
 40
0.1458757668
 40
0.2438547858
 40
0.3601128314
 40
0.4947263860000001
 40
0.6470864518
 40
0.8160338632999998
 40
1.0
 40
1.0
 40
1.0
 40
1.0
 10
38.52198135409998
 20
30.55215949570001
 30
0.0
 10
38.4940706157
 20
30.57313027090007
 30
0.0
 10
38.42581184250003
 20
30.61216936669999
 30
0.0
 10
38.303671071
 20
30.65878302330006
 30
0.0
 10
38.15099293930001
 20
30.69933579639999
 30
0.0
 10
37.96746938199999
 20
30.73388093630004
 30
0.0
 10
37.75358697510004
 20
30.76262666350002
 30
0.0
 10
37.510729212
 20
30.78583856570002
 30
0.0
 10
37.24098150280003
 20
30.80391072700006
 30
0.0
 10
37.05235319180002
 20
30.81251244290006
 30
0.0
 10
36.95399982729997
 20
30.81623003880006
 30
0.0
  0
LINE
  5
8FFC9
330
1F
100
AcDbEntity
  8
1
100
AcDbLine
 10
38.65716425220004
 20
30.45000425810005
 30
0.0
 11
38.52198135409998
 21
30.55215949570001
 31
0.0
  0
SPLINE
  5
8FFCA
330
1F
100
AcDbEntity
  8
1
100
AcDbSpline
210
0.0
220
0.0
230
1.0
 70
     8
 71
     3
 72
     9
 73
     5
 74
     0
 42
0.000000001
 43
0.0000000001
 40
0.0
 40
0.0
 40
0.0
 40
0.0
 40
0.2497491707
 40
1.0
 40
1.0
 40
1.0
 40
1.0
 10
39.27382338400003
 20
22.09818604390003
 30
0.0
 10
39.242805363
 20
22.10220767249999
 30
0.0
 10
39.11857080620001
 20
22.11801690210004
 30
0.0
 10
38.99418637260004
 20
22.13264870500004
 30
0.0
 10
38.90079506090001
 20
22.1429578929
 30
0.0
  0
SPLINE
  5
8FFCB
330
1F
100
AcDbEntity
  8
1
100
AcDbSpline
210
0.0
220
0.0
230
1.0
 70
     8
 71
     3
 72
     9
 73
     5
 74
     0
 42
0.000000001
 43
0.0000000001
 40
0.0
 40
0.0
 40
0.0
 40
0.0
 40
0.2489101663
 40
1.0
 40
1.0
 40
1.0
 40
1.0
 10
25.69985344300005
 20
23.32667245090008
 30
0.0
 10
26.04156857980001
 20
23.31016699150004
 30
0.0
 10
27.41436688560003
 20
23.24288563840005
 30
0.0
 10
28.78698605790001
 20
23.17196778620003
 30
0.0
 10
29.81785408650001
 20
23.11700435490005
 30
0.0
  0
SPLINE
  5
8FFCC
330
1F
100
AcDbEntity
  8
1
100
AcDbSpline
210
0.0
220
0.0
230
1.0
 70
     8
 71
     3
 72
    11
 73
     7
 74
     0
 42
0.000000001
 43
0.0000000001
 40
0.0
 40
0.0
 40
0.0
 40
0.0
 40
0.2780467187
 40
0.537895845
 40
0.7786178762000004
 40
1.0
 40
1.0
 40
1.0
 40
1.0
 10
20.86642977100002
 20
23.03530710410004
 30
0.0
 10
20.74290373460005
 20
23.06054312130007
 30
0.0
 10
20.5058026891
 20
23.11936907830002
 30
0.0
 10
20.17228089310004
 20
23.23702198779998
 30
0.0
 10
19.87663999110001
 20
23.37920009940004
 30
0.0
 10
19.70016208110002
 20
23.49366193290004
 30
0.0
 10
19.62047811069998
 20
23.55471367110002
 30
0.0
  0
SPLINE
  5
8FFCD
330
1F
100
AcDbEntity
  8
1
100
AcDbSpline
210
0.0
220
0.0
230
1.0
 70
     8
 71
     3
 72
     9
 73
     5
 74
     0
 42
0.000000001
 43
0.0000000001
 40
0.0
 40
0.0
 40
0.0
 40
0.0
 40
0.5150993375000003
 40
1.0
 40
1.0
 40
1.0
 40
1.0
 10
21.91864321260005
 20
22.93233798930002
 30
0.0
 10
21.73689803999997
 20
22.93309852940004
 30
0.0
 10
21.38390929990004
 20
22.94994366270008
 30
0.0
 10
21.03405885070001
 20
23.00106096099998
 30
0.0
 10
20.86642977100002
 20
23.03530710410004
 30
0.0
  0
SPLINE
  5
8FFCE
330
1F
100
AcDbEntity
  8
1
100
AcDbSpline
210
0.0
220
0.0
230
1.0
 70
     8
 71
     3
 72
    11
 73
     7
 74
     0
 42
0.000000001
 43
0.0000000001
 40
0.0
 40
0.0
 40
0.0
 40
0.0
 40
0.2566235305
 40
0.5096154768
 40
0.7578837545
 40
1.0
 40
1.0
 40
1.0
 40
1.0
 10
25.69985344300005
 20
23.32667245090008
 30
0.0
 10
25.38062430360003
 20
23.26198191090006
 30
0.0
 10
24.7436111719
 20
23.14816422290002
 30
0.0
 10
23.78940215240004
 20
23.02364483080005
 30
0.0
 10
22.84854476769999
 20
22.94781596550004
 30
0.0
 10
22.22594506410002
 20
22.93104897840007
 30
0.0
 10
21.91864321260005
 20
22.93233798930002
 30
0.0
  0
SPLINE
  5
8FFCF
330
1F
100
AcDbEntity
  8
1
100
AcDbSpline
210
0.0
220
0.0
230
1.0
 70
     8
 71
     3
 72
     9
 73
     5
 74
     0
 42
0.000000001
 43
0.0000000001
 40
0.0
 40
0.0
 40
0.0
 40
0.0
 40
0.2561207138
 40
1.0
 40
1.0
 40
1.0
 40
1.0
 10
19.62047811069998
 20
23.55471367110002
 30
0.0
 10
19.60523912800005
 20
23.56638937419999
 30
0.0
 10
19.54643916769999
 20
23.61287686179999
 30
0.0
 10
19.49051652780002
 20
23.66304019510002
 30
0.0
 10
19.45105351160001
 20
23.70243049830006
 30
0.0
  0
SPLINE
  5
8FFD0
330
1F
100
AcDbEntity
  8
1
100
AcDbSpline
210
0.0
220
0.0
230
1.0
 70
     8
 71
     3
 72
     9
 73
     5
 74
     0
 42
0.000000001
 43
0.0000000001
 40
0.0
 40
0.0
 40
0.0
 40
0.0
 40
0.2384059024
 40
1.0
 40
1.0
 40
1.0
 40
1.0
 10
34.69856408589999
 20
28.4261502089
 30
0.0
 10
34.73217171740003
 20
28.43090295370004
 30
0.0
 10
34.87351112020002
 20
28.44807689709998
 30
0.0
 10
35.01631245960004
 20
28.45359690400002
 30
0.0
 10
35.12470219900001
 20
28.45068912900004
 30
0.0
  0
SPLINE
  5
8FFD1
330
1F
100
AcDbEntity
  8
1
100
AcDbSpline
210
0.0
220
0.0
230
1.0
 70
     8
 71
     3
 72
     9
 73
     5
 74
     0
 42
0.000000001
 43
0.0000000001
 40
0.0
 40
0.0
 40
0.0
 40
0.0
 40
0.257713658
 40
1.0
 40
1.0
 40
1.0
 40
1.0
 10
30.54195400250001
 20
23.058015676
 30
0.0
 10
30.47990437630003
 20
23.06474915660007
 30
0.0
 10
30.23896279830001
 20
23.08925654999999
 30
0.0
 10
29.99736835990004
 20
23.10743308080002
 30
0.0
 10
29.81785408650001
 20
23.11700435490005
 30
0.0
  0
SPLINE
  5
8FFD2
330
1F
100
AcDbEntity
  8
1
100
AcDbSpline
210
0.0
220
0.0
230
1.0
 70
     8
 71
     3
 72
     8
 73
     4
 74
     0
 42
0.000000001
 43
0.0000000001
 40
0.0
 40
0.0
 40
0.0
 40
0.0
 40
1.0
 40
1.0
 40
1.0
 40
1.0
 10
35.1559085673
 20
28.66807296230006
 30
0.0
 10
35.13794770140004
 20
28.66145576310008
 30
0.0
 10
35.1200949862
 20
28.65453736860003
 30
0.0
 10
35.10236464560004
 20
28.64732522270006
 30
0.0
  0
LINE
  5
8FFD3
330
1F
100
AcDbEntity
  8
1
100
AcDbLine
 10
35.7778849732
 20
30.88852118349999
 30
0.0
 11
35.79382078560004
 21
30.88816130980004
 31
0.0
  0
SPLINE
  5
8FFD4
330
1F
100
AcDbEntity
  8
1
100
AcDbSpline
210
0.0
220
0.0
230
1.0
 70
     8
 71
     3
 72
    13
 73
     9
 74
     0
 42
0.000000001
 43
0.0000000001
 40
0.0
 40
0.0
 40
0.0
 40
0.0
 40
0.0423659846
 40
0.1106922363
 40
0.2041432242
 40
0.3215883664
 40
0.6226361080000001
 40
1.0
 40
1.0
 40
1.0
 40
1.0
 10
35.79382078560004
 20
30.88816130980004
 30
0.0
 10
35.81021800300005
 20
30.88754399029998
 30
0.0
 10
35.85303494190004
 20
30.88532272960001
 30
0.0
 10
35.9319807942
 20
30.88096880060007
 30
0.0
 10
36.03995641890004
 20
30.87489042290005
 30
0.0
 10
36.23794399940005
 20
30.86409592940008
 30
0.0
 10
36.54581850710002
 20
30.84892313610001
 30
0.0
 10
36.80838893040002
 20
30.83881482700005
 30
0.0
 10
36.9544707151
 20
30.83411460900001
 30
0.0
  0
SPLINE
  5
8FFD5
330
1F
100
AcDbEntity
  8
1
100
AcDbSpline
210
0.0
220
0.0
230
1.0
 70
     8
 71
     3
 72
     9
 73
     5
 74
     0
 42
0.000000001
 43
0.0000000001
 40
0.0
 40
0.0
 40
0.0
 40
0.0
 40
0.4787840877000001
 40
1.0
 40
1.0
 40
1.0
 40
1.0
 10
36.9544707151
 20
30.83411460900001
 30
0.0
 10
37.32449193040004
 20
30.82220908360003
 30
0.0
 10
38.0977791542
 20
30.80979690910009
 30
0.0
 10
38.87107513520002
 20
30.82434448820001
 30
0.0
 10
39.27382338400003
 20
30.83920937330002
 30
0.0
  0
LINE
  5
8FFD6
330
1F
100
AcDbEntity
  8
1
100
AcDbLine
 10
39.32618060330003
 20
22.09122761120004
 30
0.0
 11
39.27382338400003
 21
22.09818604390003
 31
0.0
  0
LINE
  5
8FFD7
330
1F
100
AcDbEntity
  8
1
100
AcDbLine
 10
39.27382338400003
 20
30.83920937330002
 30
0.0
 11
39.32618060330003
 21
30.84073838090004
 31
0.0
  0
SPLINE
  5
8FFD8
330
1F
100
AcDbEntity
  8
1
100
AcDbSpline
210
0.0
220
0.0
230
1.0
 70
     8
 71
     3
 72
     9
 73
     5
 74
     0
 42
0.000000001
 43
0.0000000001
 40
0.0
 40
0.0
 40
0.0
 40
0.0
 40
0.2468551969
 40
1.0
 40
1.0
 40
1.0
 40
1.0
 10
43.01247088230002
 20
21.22782795310006
 30
0.0
 10
42.71692009589997
 20
21.32714609980005
 30
0.0
 10
41.51047849270002
 20
21.70156021770001
 30
0.0
 10
40.2687482842
 20
21.96288871210007
 30
0.0
 10
39.32618060330003
 20
22.09122761120004
 30
0.0
  0
SPLINE
  5
8FFD9
330
1F
100
AcDbEntity
  8
1
100
AcDbSpline
210
0.0
220
0.0
230
1.0
 70
     8
 71
     3
 72
     9
 73
     5
 74
     0
 42
0.000000001
 43
0.0000000001
 40
0.0
 40
0.0
 40
0.0
 40
0.0
 40
0.2604227302
 40
1.0
 40
1.0
 40
1.0
 40
1.0
 10
39.32618060330003
 20
30.84073838090004
 30
0.0
 10
39.39187371420003
 20
30.84215072170001
 30
0.0
 10
39.64411302290004
 20
30.84831595290004
 30
0.0
 10
39.89628180770001
 20
30.85732447690006
 30
0.0
 10
40.0827078913
 20
30.86550935200005
 30
0.0
  0
LINE
  5
8FFDA
330
1F
100
AcDbEntity
  8
1
100
AcDbLine
 10
40.0827078913
 20
30.86550935200005
 30
0.0
 11
40.23756068469999
 21
30.87233961700005
 31
0.0
  0
LINE
  5
8FFDB
330
1F
100
AcDbEntity
  8
1
100
AcDbLine
 10
40.23756068469999
 20
30.87233961700005
 30
0.0
 11
40.3301050769
 21
30.87198938720005
 31
0.0
  0
SPLINE
  5
8FFDC
330
1F
100
AcDbEntity
  8
1
100
AcDbSpline
210
0.0
220
0.0
230
1.0
 70
     8
 71
     3
 72
    21
 73
    17
 74
     0
 42
0.000000001
 43
0.0000000001
 40
0.0
 40
0.0
 40
0.0
 40
0.0
 40
0.0617238229
 40
0.1235171247
 40
0.1854300719
 40
0.2475004437
 40
0.3097537681
 40
0.3721992743
 40
0.4348307701
 40
0.4976280969
 40
0.6232617572
 40
0.7490327361000002
 40
0.8119933320999999
 40
0.874831874
 40
0.9375096181999998
 40
1.0
 40
1.0
 40
1.0
 40
1.0
 10
34.93765392500001
 20
24.95160807890002
 30
0.0
 10
34.85189218510004
 20
24.99335418540002
 30
0.0
 10
34.68630510350005
 20
25.0899729704
 30
0.0
 10
34.46216068609999
 20
25.27009205400002
 30
0.0
 10
34.2666161533
 20
25.48171643570001
 30
0.0
 10
34.10366029760002
 20
25.72015892419998
 30
0.0
 10
33.97647981710003
 20
25.98036588480002
 30
0.0
 10
33.88765692610002
 20
26.25691315600004
 30
0.0
 10
33.8387975942
 20
26.54412578340006
 30
0.0
 10
33.82826864110001
 20
26.93303645630007
 30
0.0
 10
33.91826908170003
 20
27.41713337060005
 30
0.0
 10
34.13973762199999
 20
27.85729235650004
 30
0.0
 10
34.38457315150003
 20
28.16068767440008
 30
0.0
 10
34.59870708210006
 20
28.35966959000004
 30
0.0
 10
34.83859428020004
 20
28.52526961470002
 30
0.0
 10
35.01283763539999
 20
28.61112983980004
 30
0.0
 10
35.10236464560004
 20
28.64732522270006
 30
0.0
  0
SPLINE
  5
8FFDD
330
1F
100
AcDbEntity
  8
1
100
AcDbSpline
210
0.0
220
0.0
230
1.0
 70
     8
 71
     3
 72
     9
 73
     5
 74
     0
 42
0.000000001
 43
0.0000000001
 40
0.0
 40
0.0
 40
0.0
 40
0.0
 40
0.2558775144
 40
1.0
 40
1.0
 40
1.0
 40
1.0
 10
35.12470219890003
 20
28.45068912900004
 30
0.0
 10
35.14910004390003
 20
28.45003460720004
 30
0.0
 10
35.24441530720003
 20
28.44630018590007
 30
0.0
 10
35.33954670300005
 20
28.43802334700004
 30
0.0
 10
35.41000236920002
 20
28.42943333730004
 30
0.0
  0
SPLINE
  5
8FFDE
330
1F
100
AcDbEntity
  8
1
100
AcDbSpline
210
0.0
220
0.0
230
1.0
 70
     8
 71
     3
 72
     9
 73
     5
 74
     0
 42
0.000000001
 43
0.0000000001
 40
0.0
 40
0.0
 40
0.0
 40
0.0
 40
0.2536651534
 40
1.0
 40
1.0
 40
1.0
 40
1.0
 10
34.55744545890002
 20
28.31640570319999
 30
0.0
 10
34.5965675301
 20
28.31889913470005
 30
0.0
 10
34.75097245210003
 20
28.32572144950004
 30
0.0
 10
34.90589236650004
 20
28.32075526270003
 30
0.0
 10
35.02077216060002
 20
28.31047676270005
 30
0.0
  0
SPLINE
  5
8FFDF
330
1F
100
AcDbEntity
  8
1
100
AcDbSpline
210
0.0
220
0.0
230
1.0
 70
     8
 71
     3
 72
     9
 73
     5
 74
     0
 42
0.000000001
 43
0.0000000001
 40
0.0
 40
0.0
 40
0.0
 40
0.0
 40
0.2496196863
 40
1.0
 40
1.0
 40
1.0
 40
1.0
 10
35.01551329030002
 20
24.80382098919998
 30
0.0
 10
35.03013603700003
 20
24.79872479910004
 30
0.0
 10
35.08897252790001
 20
24.7790523404
 30
0.0
 10
35.14881010570003
 20
24.76237294960001
 30
0.0
 10
35.19409646800006
 20
24.75159865169998
 30
0.0
  0
SPLINE
  5
8FFE0
330
1F
100
AcDbEntity
  8
1
100
AcDbSpline
210
0.0
220
0.0
230
1.0
 70
     8
 71
     3
 72
     9
 73
     5
 74
     0
 42
0.000000001
 43
0.0000000001
 40
0.0
 40
0.0
 40
0.0
 40
0.0
 40
0.5434615854000004
 40
1.0
 40
1.0
 40
1.0
 40
1.0
 10
39.0034311332
 20
29.82543744040001
 30
0.0
 10
38.99190336560002
 20
29.84685128710001
 30
0.0
 10
38.97193099850003
 20
29.88694049730005
 30
0.0
 10
38.95518231690005
 20
29.92851764160005
 30
0.0
 10
38.94863404260002
 20
29.94786958870006
 30
0.0
  0
SPLINE
  5
8FFE1
330
1F
100
AcDbEntity
  8
1
100
AcDbSpline
210
0.0
220
0.0
230
1.0
 70
     8
 71
     3
 72
     9
 73
     5
 74
     0
 42
0.000000001
 43
0.0000000001
 40
0.0
 40
0.0
 40
0.0
 40
0.0
 40
0.2476700611
 40
1.0
 40
1.0
 40
1.0
 40
1.0
 10
38.94863404260002
 20
29.94786958870006
 30
0.0
 10
38.92082822450002
 20
29.98695883820004
 30
0.0
 10
38.81222296950003
 20
30.14736372690001
 30
0.0
 10
38.71849471490003
 20
30.31782417200006
 30
0.0
 10
38.65716425220004
 20
30.45000425810005
 30
0.0
  0
SPLINE
  5
8FFE2
330
1F
100
AcDbEntity
  8
1
100
AcDbSpline
210
0.0
220
0.0
230
1.0
 70
     8
 71
     3
 72
     8
 73
     4
 74
     0
 42
0.000000001
 43
0.0000000001
 40
0.0
 40
0.0
 40
0.0
 40
0.0
 40
1.0
 40
1.0
 40
1.0
 40
1.0
 10
35.1789665032
 20
28.44912681590003
 30
0.0
 10
35.12557967840002
 20
28.40366876480008
 30
0.0
 10
35.07282404620003
 20
28.35745748940005
 30
0.0
 10
35.02077216060002
 20
28.31047676270005
 30
0.0
  0
LINE
  5
8FFE3
330
1F
100
AcDbEntity
  8
1
100
AcDbLine
 10
40.23756068469999
 20
30.87233961700005
 30
0.0
 11
40.2563225951
 21
30.83257291070002
 31
0.0
  0
SPLINE
  5
8FFE4
330
1F
100
AcDbEntity
  8
1
100
AcDbSpline
210
0.0
220
0.0
230
1.0
 70
     8
 71
     3
 72
     9
 73
     5
 74
     0
 42
0.000000001
 43
0.0000000001
 40
0.0
 40
0.0
 40
0.0
 40
0.0
 40
0.2500285105
 40
1.0
 40
1.0
 40
1.0
 40
1.0
 10
23.13705951050002
 20
27.25902881410005
 30
0.0
 10
23.69253297390006
 20
27.44869982650002
 30
0.0
 10
25.91560879000002
 20
28.20309106720002
 30
0.0
 10
28.14407502370006
 20
28.94156757390002
 30
0.0
 10
29.81785408650001
 20
29.48769357620003
 30
0.0
  0
SPLINE
  5
8FFE5
330
1F
100
AcDbEntity
  8
1
100
AcDbSpline
210
0.0
220
0.0
230
1.0
 70
     8
 71
     3
 72
    15
 73
    11
 74
     0
 42
0.000000001
 43
0.0000000001
 40
0.0
 40
0.0
 40
0.0
 40
0.0
 40
0.1269315928
 40
0.2452972638
 40
0.3583336483
 40
0.4705343268
 40
0.5869232922
 40
0.7120173448
 40
0.8490905645999998
 40
1.0
 40
1.0
 40
1.0
 40
1.0
 10
19.45105351160001
 20
23.70243049830006
 30
0.0
 10
19.38990476010002
 20
23.76346657940003
 30
0.0
 10
19.28110350740002
 20
23.89158563550004
 30
0.0
 10
19.16278447630003
 20
24.10699111830004
 30
0.0
 10
19.0996191401
 20
24.33457907400002
 30
0.0
 10
19.09453658730001
 20
24.56945146360002
 30
0.0
 10
19.1475288798
 20
24.80643138640002
 30
0.0
 10
19.25589657850003
 20
25.04193713590004
 30
0.0
 10
19.41587113550002
 20
25.27442398410002
 30
0.0
 10
19.54786763449998
 20
25.4200321479
 30
0.0
 10
19.62047811069998
 20
25.49268772120004
 30
0.0
  0
SPLINE
  5
8FFE6
330
1F
100
AcDbEntity
  8
1
100
AcDbSpline
210
0.0
220
0.0
230
1.0
 70
     8
 71
     3
 72
    16
 73
    12
 74
     0
 42
0.000000001
 43
0.0000000001
 40
0.0
 40
0.0
 40
0.0
 40
0.0
 40
0.1608068437
 40
0.315544923
 40
0.4618767311
 40
0.5976167029
 40
0.7208048297000002
 40
0.8297404
 40
0.9230745663
 40
0.9636201004
 40
1.0
 40
1.0
 40
1.0
 40
1.0
 10
21.72693040360002
 20
26.74011565310005
 30
0.0
 10
21.66378605860001
 20
26.5452910363001
 30
0.0
 10
21.54490135870003
 20
26.16134154310008
 30
0.0
 10
21.38679772280003
 20
25.59466154640003
 30
0.0
 10
21.25390388140005
 20
25.05434627770004
 30
0.0
 10
21.14830384160001
 20
24.54900803450008
 30
0.0
 10
21.07153052260003
 20
24.08665600810005
 30
0.0
 10
21.02472167600001
 20
23.67461476690002
 30
0.0
 10
21.01033784809999
 20
23.36530125210001
 30
0.0
 10
21.01641090300004
 20
23.14845712169998
 30
0.0
 10
21.02497469430003
 20
23.05077045310006
 30
0.0
 10
21.03083979160002
 20
23.00481010230007
 30
0.0
  0
SPLINE
  5
8FFE7
330
1F
100
AcDbEntity
  8
1
100
AcDbSpline
210
0.0
220
0.0
230
1.0
 70
     8
 71
     3
 72
     9
 73
     5
 74
     0
 42
0.000000001
 43
0.0000000001
 40
0.0
 40
0.0
 40
0.0
 40
0.0
 40
0.2510138606
 40
1.0
 40
1.0
 40
1.0
 40
1.0
 10
40.0827102613
 20
30.86550773160005
 30
0.0
 10
40.07899213820002
 20
30.85282789690004
 30
0.0
 10
40.06398008580004
 20
30.80237218959998
 30
0.0
 10
40.04816847979998
 20
30.75215420930002
 30
0.0
 10
40.03587122679999
 20
30.71469327740009
 30
0.0
  0
SPLINE
  5
8FFE8
330
1F
100
AcDbEntity
  8
1
100
AcDbSpline
210
0.0
220
0.0
230
1.0
 70
     8
 71
     3
 72
     9
 73
     5
 74
     0
 42
0.000000001
 43
0.0000000001
 40
0.0
 40
0.0
 40
0.0
 40
0.0
 40
0.4967401139
 40
1.0
 40
1.0
 40
1.0
 40
1.0
 10
21.72693031469998
 20
26.74011560700005
 30
0.0
 10
21.95808676820002
 20
26.83218076
 30
0.0
 10
22.42619056100004
 20
27.01064007830004
 30
0.0
 10
22.89850181750001
 20
27.17757131499999
 30
0.0
 10
23.13705951050002
 20
27.25902881410005
 30
0.0
  0
SPLINE
  5
8FFE9
330
1F
100
AcDbEntity
  8
1
100
AcDbSpline
210
0.0
220
0.0
230
1.0
 70
     8
 71
     3
 72
     9
 73
     5
 74
     0
 42
0.000000001
 43
0.0000000001
 40
0.0
 40
0.0
 40
0.0
 40
0.0
 40
0.2482745106
 40
1.0
 40
1.0
 40
1.0
 40
1.0
 10
21.47093943640005
 20
26.63450740490006
 30
0.0
 10
21.49201321570001
 20
26.64351386080004
 30
0.0
 10
21.5770109915
 20
26.67951627350002
 30
0.0
 10
21.66246502850004
 20
26.71444028050004
 30
0.0
 10
21.72693031469998
 20
26.74011560700005
 30
0.0
  0
SPLINE
  5
8FFEA
330
1F
100
AcDbEntity
  8
1
100
AcDbSpline
210
0.0
220
0.0
230
1.0
 70
     8
 71
     3
 72
    11
 73
     7
 74
     0
 42
0.000000001
 43
0.0000000001
 40
0.0
 40
0.0
 40
0.0
 40
0.0
 40
0.2163722037
 40
0.4571655902
 40
0.7196805037000003
 40
1.0
 40
1.0
 40
1.0
 40
1.0
 10
19.62047811069998
 20
25.49268772120004
 30
0.0
 10
19.73192142520003
 20
25.60420025120007
 30
0.0
 10
19.98659850530003
 20
25.82078336779998
 30
0.0
 10
20.42280596969999
 20
26.11313676390004
 30
0.0
 10
20.92371614220002
 20
26.38840990780004
 30
0.0
 10
21.28312570300005
 20
26.55424007010001
 30
0.0
 10
21.47093943640005
 20
26.63450740490006
 30
0.0
  0
SPLINE
  5
8FFEB
330
1F
100
AcDbEntity
  8
1
100
AcDbSpline
210
0.0
220
0.0
230
1.0
 70
     8
 71
     3
 72
     9
 73
     5
 74
     0
 42
0.000000001
 43
0.0000000001
 40
0.0
 40
0.0
 40
0.0
 40
0.0
 40
0.2691751457
 40
1.0
 40
1.0
 40
1.0
 40
1.0
 10
35.02077216060002
 20
28.31047676270005
 30
0.0
 10
34.985940411
 20
28.31999108210002
 30
0.0
 10
34.85548830200003
 20
28.35137552440003
 30
0.0
 10
34.7213371236
 20
28.36736534410008
 30
0.0
 10
34.62333784030005
 20
28.36999630940002
 30
0.0
  0
SPLINE
  5
8FFEC
330
1F
100
AcDbEntity
  8
1
100
AcDbSpline
210
0.0
220
0.0
230
1.0
 70
     8
 71
     3
 72
    11
 73
     7
 74
     0
 42
0.000000001
 43
0.0000000001
 40
0.0
 40
0.0
 40
0.0
 40
0.0
 40
0.2488734498
 40
0.4975218959000001
 40
0.747416838
 40
1.0
 40
1.0
 40
1.0
 40
1.0
 10
36.18286162630003
 20
28.71416674529999
 30
0.0
 10
36.09925685860003
 20
28.73659662910005
 30
0.0
 10
35.92846065010002
 20
28.76890307760003
 30
0.0
 10
35.66765976620003
 20
28.77781367440006
 30
0.0
 10
35.40729857350005
 20
28.74628175709998
 30
0.0
 10
35.23834343020002
 20
28.69844387610001
 30
0.0
 10
35.1559085673
 20
28.66807296230006
 30
0.0
  0
SPLINE
  5
8FFED
330
1F
100
AcDbEntity
  8
1
100
AcDbSpline
210
0.0
220
0.0
230
1.0
 70
     8
 71
     3
 72
     9
 73
     5
 74
     0
 42
0.000000001
 43
0.0000000001
 40
0.0
 40
0.0
 40
0.0
 40
0.0
 40
0.5006171688000001
 40
1.0
 40
1.0
 40
1.0
 40
1.0
 10
29.81785408650001
 20
29.48769357620003
 30
0.0
 10
29.93513715360001
 20
29.52596107160005
 30
0.0
 10
30.17423449210006
 20
29.58837768190003
 30
0.0
 10
30.41919685170004
 20
29.62111831270008
 30
0.0
 10
30.54195400250001
 20
29.62980399190006
 30
0.0
  0
SPLINE
  5
8FFEE
330
1F
100
AcDbEntity
  8
1
100
AcDbSpline
210
0.0
220
0.0
230
1.0
 70
     8
 71
     3
 72
     9
 73
     5
 74
     0
 42
0.000000001
 43
0.0000000001
 40
0.0
 40
0.0
 40
0.0
 40
0.0
 40
0.2547397692
 40
1.0
 40
1.0
 40
1.0
 40
1.0
 10
34.04005122450002
 20
27.42572375130007
 30
0.0
 10
34.03438142540004
 20
27.43118484270005
 30
0.0
 10
34.01223245670002
 20
27.45273472
 30
0.0
 10
33.99052393860002
 20
27.47473846850002
 30
0.0
 10
33.97463233300005
 20
27.49140755770006
 30
0.0
  0
SPLINE
  5
8FFEF
330
1F
100
AcDbEntity
  8
1
100
AcDbSpline
210
0.0
220
0.0
230
1.0
 70
     8
 71
     3
 72
     9
 73
     5
 74
     0
 42
0.000000001
 43
0.0000000001
 40
0.0
 40
0.0
 40
0.0
 40
0.0
 40
0.2663864534
 40
1.0
 40
1.0
 40
1.0
 40
1.0
 10
34.51850752410002
 20
27.7157928
 30
0.0
 10
34.48884010990003
 20
27.73218066569999
 30
0.0
 10
34.37677783060002
 20
27.79241320220004
 30
0.0
 10
34.26180833300004
 20
27.84742356560006
 30
0.0
 10
34.17559369440005
 20
27.88318881310008
 30
0.0
  0
ELLIPSE
  5
8FFF0
330
1F
100
AcDbEntity
  8
1
100
AcDbEllipse
 10
209.8580073002
 20
-4.411217243399931
 30
0.0
 11
256.4632527044
 21
-33.4478347362
 31
0.0
210
0.0
220
0.0
230
1.0
 40
0.0219567979
 41
2.303288231099998
 42
2.347917141799997
  0
ELLIPSE
  5
8FFF1
330
1F
100
AcDbEntity
  8
1
100
AcDbEllipse
 10
47.10739495170003
 20
0.0473762114000636
 30
0.0
 11
53.8489864064
 21
2.342313429899999
 31
0.0
210
0.0
220
0.0
230
1.0
 40
0.5753809521000001
 41
1.703299890999998
 42
1.7727387599
  0
ELLIPSE
  5
8FFF2
330
1F
100
AcDbEntity
  8
1
100
AcDbEllipse
 10
76.30018075550005
 20
0.2455124628999954
 30
0.0
 11
165.4621164862001
 21
2.785809291300002
 31
0.0
210
0.0
220
0.0
230
1.0
 40
0.1894146596
 41
1.8199630455
 42
1.8478059977
  0
ELLIPSE
  5
8FFF3
330
1F
100
AcDbEntity
  8
1
100
AcDbEllipse
 10
38.76441015270001
 20
28.12392233810007
 30
0.0
 11
2.288398421399997
 21
-0.5275259910000002
 31
0.0
210
0.0
220
0.0
230
1.0
 40
0.0705849368
 41
3.236896659879501
 42
3.62322897977954
  0
ELLIPSE
  5
8FFF4
330
1F
100
AcDbEntity
  8
1
100
AcDbEllipse
 10
30.69008392380002
 20
23.49768278190001
 30
0.0
 11
14.211622245
 21
8.6942035895
 31
0.0
210
0.0
220
0.0
230
1.0
 40
0.0916789304
 41
0.8957939350999872
 42
1.095636261499987
  0
LINE
  5
90189
330
1F
100
AcDbEntity
  8
sk3
100
AcDbLine
 10
14.00000000005625
 20
12.99999999889998
 30
0.0
 11
14.00000000005625
 21
-12.99999999889998
 31
0.0
  0
LINE
  5
90265
330
1F
100
AcDbEntity
  8
cut
100
AcDbLine
 10
35.00910958969998
 20
28.37714715969998
 30
0.0
 11
35.03126325159998
 21
28.39002663439999
 31
0.0
  0
LINE
  5
90266
330
1F
100
AcDbEntity
  8
cut
100
AcDbLine
 10
35.02995869969995
 20
28.38933305909998
 30
0.0
 11
35.0510934478
 21
28.40073000679996
 31
0.0
  0
LINE
  5
90267
330
1F
100
AcDbEntity
  8
cut
100
AcDbLine
 10
41.2255588521
 20
31.40631213719999
 30
0.0
 11
41.40505704209995
 21
31.50251999089997
 31
0.0
  0
LINE
  5
90268
330
1F
100
AcDbEntity
  8
cut
100
AcDbLine
 10
41.40505704209995
 20
31.50251999089997
 30
0.0
 11
41.43787010619997
 21
31.5199305946
 31
0.0
  0
LINE
  5
90269
330
1F
100
AcDbEntity
  8
cut
100
AcDbLine
 10
41.16021611439999
 20
31.3717216682
 30
0.0
 11
41.2255588521
 21
31.40631213719999
 31
0.0
  0
LINE
  5
9026A
330
1F
100
AcDbEntity
  8
cut
100
AcDbLine
 10
41.0775316508
 20
31.32849640699999
 30
0.0
 11
41.16021611439999
 21
31.3717216682
 31
0.0
  0
LINE
  5
9026B
330
1F
100
AcDbEntity
  8
cut
100
AcDbLine
 10
41.43787010619997
 20
31.5199305946
 30
0.0
 11
41.47082813539999
 21
31.53714758339999
 31
0.0
  0
LINE
  5
9026C
330
1F
100
AcDbEntity
  8
cut
100
AcDbLine
 10
35.05109340669998
 20
28.40072998539998
 30
0.0
 11
35.28182705299999
 21
28.52008236809999
 31
0.0
  0
LINE
  5
9026D
330
1F
100
AcDbEntity
  8
cut
100
AcDbLine
 10
40.62745256069997
 20
31.09639101739998
 30
0.0
 11
41.0775316508
 21
31.32849640699999
 31
0.0
  0
LINE
  5
9026E
330
1F
100
AcDbEntity
  8
cut
100
AcDbLine
 10
41.47082813539999
 20
31.53714758339999
 30
0.0
 11
41.50394561599997
 21
31.5541423965
 31
0.0
  0
LINE
  5
9026F
330
1F
100
AcDbEntity
  8
cut
100
AcDbLine
 10
35.28182705299999
 20
28.52008236809999
 30
0.0
 11
35.51723844200002
 21
28.64043772269997
 31
0.0
  0
LINE
  5
90270
330
1F
100
AcDbEntity
  8
cut
100
AcDbLine
 10
40.47115246969998
 20
31.01655855559997
 30
0.0
 11
40.62745256069997
 21
31.09639101739998
 31
0.0
  0
LINE
  5
90271
330
1F
100
AcDbEntity
  8
cut
100
AcDbLine
 10
35.51723844200002
 20
28.64043772269997
 30
0.0
 11
35.75732865479996
 21
28.76178850069999
 31
0.0
  0
LWPOLYLINE
  5
90272
330
1F
100
AcDbEntity
  8
cut
100
AcDbPolyline
 90
       10
 70
     0
 43
0.0
 10
41.50394501339998
 20
31.55414209149999
 10
41.53582855839999
 20
31.5702083896
 10
41.5677483312
 20
31.58553815489998
 10
41.59970433199999
 20
31.6001313873
 10
41.63169773549999
 20
31.61403017109999
 10
41.66372736699999
 20
31.62719242219998
 10
41.69578970199997
 20
31.6394918881
 10
41.72788356589996
 20
31.6508864848
 10
41.76001013329996
 20
31.6614182964
 10
41.79216940439995
 20
31.67108732289998
  0
LINE
  5
90273
330
1F
100
AcDbEntity
  8
cut
100
AcDbLine
 10
35.75732865479996
 20
28.76178850069999
 30
0.0
 11
36.00210201649999
 21
28.88410450870001
 31
0.0
  0
LINE
  5
90274
330
1F
100
AcDbEntity
  8
cut
100
AcDbLine
 10
40.12986031430002
 20
30.84499522730002
 30
0.0
 11
40.47115246969998
 21
31.01655855559997
 31
0.0
  0
LINE
  5
90275
330
1F
100
AcDbEntity
  8
cut
100
AcDbLine
 10
39.97364248359999
 20
30.7676862722
 30
0.0
 11
40.12986031430002
 21
30.84499522730002
 31
0.0
  0
LWPOLYLINE
  5
90276
330
1F
100
AcDbEntity
  8
cut
100
AcDbPolyline
 90
        6
 70
     0
 43
0.0
 10
36.00210201649999
 20
28.88410450870001
 10
36.13346181329998
 20
28.94917189949999
 10
36.14071640459999
 20
28.95269259149998
 10
36.14800838160001
 20
28.9561884371
 10
36.15533774450002
 20
28.95965943629997
 10
36.16270449309997
 20
28.96310558909997
  0
LINE
  5
90277
330
1F
100
AcDbEntity
  8
cut
100
AcDbLine
 10
39.65790896629997
 20
30.61356116709998
 30
0.0
 11
39.97364248359999
 21
30.7676862722
 31
0.0
  0
LINE
  5
90278
330
1F
100
AcDbEntity
  8
cut
100
AcDbLine
 10
38.95764885550001
 20
30.27522664469998
 30
0.0
 11
39.65790896629997
 21
30.61356116709998
 31
0.0
  0
LINE
  5
90279
330
1F
100
AcDbEntity
  8
cut
100
AcDbLine
 10
38.29493661799997
 20
29.95866692359996
 30
0.0
 11
38.95764885550001
 21
30.27522664469998
 31
0.0
  0
LINE
  5
9027A
330
1F
100
AcDbEntity
  8
cut
100
AcDbLine
 10
37.69606989969999
 20
29.67561570149999
 30
0.0
 11
38.29493661799997
 21
29.95866692359996
 31
0.0
  0
LINE
  5
9027B
330
1F
100
AcDbEntity
  8
cut
100
AcDbLine
 10
37.1372309204
 20
29.4139403017
 30
0.0
 11
37.69606989969999
 21
29.67561570149999
 31
0.0
  0
LINE
  5
9027C
330
1F
100
AcDbEntity
  8
cut
100
AcDbLine
 10
36.5135779091
 20
29.12465019449999
 30
0.0
 11
37.1372309204
 21
29.4139403017
 31
0.0
  0
LINE
  5
9027D
330
1F
100
AcDbEntity
  8
cut
100
AcDbLine
 10
36.16270449309997
 20
28.96310558909997
 30
0.0
 11
36.5135779091
 21
29.12465019449999
 31
0.0
  0
LWPOLYLINE
  5
9027E
330
1F
100
AcDbEntity
  8
cut
100
AcDbPolyline
 90
        9
 70
     0
 43
0.0
 10
34.8568115586
 20
28.25388858589997
 10
34.87364537189997
 20
28.27121286309998
 10
34.89126817910001
 20
28.288132733
 10
34.90963816419999
 20
28.3046368844
 10
34.92856953029998
 20
28.3205140449
 10
34.94809225939999
 20
28.33574777730002
 10
34.9681763695
 20
28.35035451879998
 10
34.98854611769998
 20
28.36417230859998
 10
35.00910958969998
 20
28.37714715969998
  0
LWPOLYLINE
  5
9027F
330
1F
100
AcDbEntity
  8
cut
100
AcDbPolyline
 90
        9
 70
     0
 43
0.0
 10
34.87258446419999
 20
28.27015496140001
 10
34.8883292142
 20
28.2854139719
 10
34.90456491709996
 20
28.30021287369999
 10
34.92128623620001
 20
28.31454277980001
 10
34.93849082879997
 20
28.3283979439
 10
34.95617262660001
 20
28.34176975919999
 10
34.97431065689996
 20
28.35463817640002
 10
34.99288022129999
 20
28.36698028570001
 10
35.01186263309997
 20
28.37877726399998
  0
LINE
  5
90280
330
1F
100
AcDbEntity
  8
cut
100
AcDbLine
 10
34.84072492319997
 20
28.23614859019997
 30
0.0
 11
34.85734798109998
 21
28.25445729219999
 31
0.0
  0
LWPOLYLINE
  5
90281
330
1F
100
AcDbEntity
  8
cut
100
AcDbPolyline
 90
       16
 70
     0
 43
0.0
 10
34.68555773160002
 20
27.93574488679997
 10
34.69148192169998
 20
27.95903657029999
 10
34.69794279469996
 20
27.98134151969998
 10
34.70503126199999
 20
28.00307619669999
 10
34.71277196759998
 20
28.02431907669998
 10
34.72113472829996
 20
28.04517055459998
 10
34.73010207860002
 20
28.06563737749997
 10
34.73969148399995
 20
28.08571279839998
 10
34.74992515710001
 20
28.10547697159996
 10
34.76079033290002
 20
28.12493868570001
 10
34.77229977660002
 20
28.14408915210001
 10
34.78451399569998
 20
28.16298215949999
 10
34.79741890939995
 20
28.18162927719999
 10
34.8110285986
 20
28.20001893589998
 10
34.82544581430001
 20
28.2181702158
 10
34.84072492319997
 20
28.23614859019997
  0
LWPOLYLINE
  5
90282
330
1F
100
AcDbEntity
  8
cut
100
AcDbPolyline
 90
       16
 70
     0
 43
0.0
 10
34.69079531410002
 20
27.9565514507
 10
34.69666415000002
 20
27.97715179869999
 10
34.70316373070001
 20
27.9975445771
 10
34.71029495129997
 20
28.01773358879998
 10
34.71805628739999
 20
28.03771670879999
 10
34.7264365352
 20
28.05746810049999
 10
34.73542207129994
 20
28.07695599949997
 10
34.74500209679998
 20
28.09615447689998
 10
34.75517711289997
 20
28.1150609476
 10
34.76595044550001
 20
28.13367866190001
 10
34.77732176499997
 20
28.15200486839998
 10
34.78927611959996
 20
28.17001280749997
 10
34.80179490239995
 20
28.18766971759999
 10
34.81486277730001
 20
28.20494798129999
 10
34.82847749399998
 20
28.22184055899999
 10
34.84264007329996
 20
28.23834555529998
  0
LWPOLYLINE
  5
90283
330
1F
100
AcDbEntity
  8
cut
100
AcDbPolyline
 90
        8
 70
     0
 43
0.0
 10
34.66695654849998
 20
27.7747545728
 10
34.66704434079999
 20
27.78594907120001
 10
34.66771869840001
 20
27.80771216779999
 10
34.66905473369998
 20
27.82937388649998
 10
34.67104866399997
 20
27.85091286219998
 10
34.67369838869998
 20
27.8723239803
 10
34.67700222790002
 20
27.8936061885
 10
34.68095752669997
 20
27.91475408719998
  0
LWPOLYLINE
  5
90284
330
1F
100
AcDbEntity
  8
cut
100
AcDbPolyline
 90
        8
 70
     0
 43
0.0
 10
34.6669629718
 20
27.77475456599999
 10
34.66721395219999
 20
27.79322682949999
 10
34.6682498025
 20
27.81747939539997
 10
34.67010640319997
 20
27.84162020239998
 10
34.6728119861
 20
27.86563566659996
 10
34.6763383193
 20
27.88953937189999
 10
34.68062100649998
 20
27.9130863106
 10
34.68567328709999
 20
27.93623982369999
  0
LINE
  5
90285
330
1F
100
AcDbEntity
  8
cut
100
AcDbLine
 10
44.41060414159996
 20
16.86887852969997
 30
0.0
 11
44.26310182079993
 21
16.93668064119998
 31
0.0
  0
LINE
  5
90286
330
1F
100
AcDbEntity
  8
cut
100
AcDbLine
 10
44.26310182079993
 20
16.93668064119998
 30
0.0
 11
44.2476599643
 21
16.94393174569998
 31
0.0
  0
LINE
  5
90287
330
1F
100
AcDbEntity
  8
cut
100
AcDbLine
 10
44.2476599643
 20
16.94393174569998
 30
0.0
 11
44.2324693827
 21
16.95120873909999
 31
0.0
  0
LINE
  5
90288
330
1F
100
AcDbEntity
  8
cut
100
AcDbLine
 10
44.2324693827
 20
16.95120873909999
 30
0.0
 11
43.69895239799997
 21
17.20973501159997
 31
0.0
  0
LINE
  5
90289
330
1F
100
AcDbEntity
  8
cut
100
AcDbLine
 10
43.69895239799997
 20
17.20973501159997
 30
0.0
 11
43.17469500149996
 21
17.46464011709997
 31
0.0
  0
LINE
  5
9028A
330
1F
100
AcDbEntity
  8
cut
100
AcDbLine
 10
43.17469500149996
 20
17.46464011709997
 30
0.0
 11
42.85323365939997
 21
17.62138975399998
 31
0.0
  0
LWPOLYLINE
  5
9028B
330
1F
100
AcDbEntity
  8
cut
100
AcDbPolyline
 90
        3
 70
     0
 43
0.0
 10
42.85323365939997
 20
17.62138975399998
 10
42.33659192569997
 20
17.87396583629998
 10
42.27187866110003
 20
17.90565882909999
  0
LINE
  5
9028C
330
1F
100
AcDbEntity
  8
cut
100
AcDbLine
 10
42.27187866110003
 20
17.90565882909999
 30
0.0
 11
41.8185094709
 21
18.12810866379999
 31
0.0
  0
LINE
  5
9028D
330
1F
100
AcDbEntity
  8
cut
100
AcDbLine
 10
41.8185094709
 20
18.12810866379999
 30
0.0
 11
41.4309482155
 21
18.31890072339999
 31
0.0
  0
LINE
  5
9028E
330
1F
100
AcDbEntity
  8
cut
100
AcDbLine
 10
41.4309482155
 20
18.31890072339999
 30
0.0
 11
40.90861758219996
 21
18.57668912639996
 31
0.0
  0
LINE
  5
9028F
330
1F
100
AcDbEntity
  8
cut
100
AcDbLine
 10
40.90861758219996
 20
18.57668912639996
 30
0.0
 11
40.3219022844
 21
18.86766773219997
 31
0.0
  0
LWPOLYLINE
  5
90290
330
1F
100
AcDbEntity
  8
cut
100
AcDbPolyline
 90
        7
 70
     0
 43
0.0
 10
45.16910488669997
 20
16.50195746769998
 10
45.04652572939995
 20
16.56344578799999
 10
44.9224180898
 20
16.6248361442
 10
44.79677868229999
 20
16.68611055629998
 10
44.66959765029999
 20
16.74721508459998
 10
44.54087170819998
 20
16.80813174899998
 10
44.41060414159996
 20
16.86887852969997
  0
LWPOLYLINE
  5
90291
330
1F
100
AcDbEntity
  8
cut
100
AcDbPolyline
 90
        3
 70
     0
 43
0.0
 10
40.3219022844
 20
18.86766773219997
 10
40.19291923709995
 20
18.93287406919998
 10
40.12826632949999
 20
18.96599036289998
  0
LWPOLYLINE
  5
90292
330
1F
100
AcDbEntity
  8
cut
100
AcDbPolyline
 90
        3
 70
     0
 43
0.0
 10
45.4096678977
 20
16.37863299509999
 10
45.29015227619999
 20
16.44035320339998
 10
45.16910488669997
 20
16.50195746769998
  0
LINE
  5
90293
330
1F
100
AcDbEntity
  8
cut
100
AcDbLine
 10
40.12826632949999
 20
18.96599036289998
 30
0.0
 11
39.99782523889998
 21
19.03384544319998
 31
0.0
  0
LINE
  5
90294
330
1F
100
AcDbEntity
  8
cut
100
AcDbLine
 10
39.99782523889998
 20
19.03384544319998
 30
0.0
 11
39.86883272879995
 21
19.1021037726
 31
0.0
  0
LINE
  5
90295
330
1F
100
AcDbEntity
  8
cut
100
AcDbLine
 10
39.86883272879995
 20
19.1021037726
 30
0.0
 11
39.74347078169997
 21
19.16952228949998
 31
0.0
  0
LINE
  5
90296
330
1F
100
AcDbEntity
  8
cut
100
AcDbLine
 10
39.74347078169997
 20
19.16952228949998
 30
0.0
 11
39.62664012629996
 21
19.23336205769999
 31
0.0
  0
LINE
  5
90297
330
1F
100
AcDbEntity
  8
cut
100
AcDbLine
 10
39.62664012629996
 20
19.23336205769999
 30
0.0
 11
39.52045628829997
 21
19.29213499399998
 31
0.0
  0
LINE
  5
90298
330
1F
100
AcDbEntity
  8
cut
100
AcDbLine
 10
39.52045628829997
 20
19.29213499399998
 30
0.0
 11
39.38011235960001
 21
19.37098127869998
 31
0.0
  0
LINE
  5
90299
330
1F
100
AcDbEntity
  8
cut
100
AcDbLine
 10
39.38011235960001
 20
19.37098127869998
 30
0.0
 11
39.25480843120001
 21
19.44244806419999
 31
0.0
  0
LINE
  5
9029A
330
1F
100
AcDbEntity
  8
cut
100
AcDbLine
 10
39.25480843120001
 20
19.44244806419999
 30
0.0
 11
39.1358326176
 21
19.51124332339998
 31
0.0
  0
LINE
  5
9029B
330
1F
100
AcDbEntity
  8
cut
100
AcDbLine
 10
39.1358326176
 20
19.51124332339998
 30
0.0
 11
39.01686034579997
 21
19.58094091079999
 31
0.0
  0
LINE
  5
9029C
330
1F
100
AcDbEntity
  8
cut
100
AcDbLine
 10
39.01686034579997
 20
19.58094091079999
 30
0.0
 11
38.89720019169995
 21
19.65194886459997
 31
0.0
  0
LINE
  5
9029D
330
1F
100
AcDbEntity
  8
cut
100
AcDbLine
 10
38.89720019169995
 20
19.65194886459997
 30
0.0
 11
38.77810992419997
 21
19.7235168373
 31
0.0
  0
LINE
  5
9029E
330
1F
100
AcDbEntity
  8
cut
100
AcDbLine
 10
38.77810992419997
 20
19.7235168373
 30
0.0
 11
38.69948742989996
 21
19.77125836709999
 31
0.0
  0
LWPOLYLINE
  5
9029F
330
1F
100
AcDbEntity
  8
cut
100
AcDbPolyline
 90
        5
 70
     0
 43
0.0
 10
34.67105476019999
 20
27.69824232559998
 10
34.6688955735
 20
27.72170363820001
 10
34.66753683769999
 20
27.74533895089997
 10
34.66697855269997
 20
27.7691482637
 10
34.6669629718
 20
27.77475456599999
  0
LWPOLYLINE
  5
902A0
330
1F
100
AcDbEntity
  8
cut
100
AcDbPolyline
 90
       31
 70
     0
 43
0.0
 10
46.2714922533
 20
16.41904365059997
 10
46.24673313749998
 20
16.40342932549998
 10
46.22134429569998
 20
16.38867693099999
 10
46.19532572799996
 20
16.37478646739998
 10
46.1686119304
 20
16.361721985
 10
46.14126840679996
 20
16.34951943350001
 10
46.11349166879996
 20
16.3382866611
 10
46.08529996299997
 20
16.32804355209998
 10
46.05667504279995
 20
16.31877022229997
 10
46.02775867989993
 20
16.31051486799998
 10
45.99858938270002
 20
16.30328609549997
 10
45.9691286429
 20
16.2970752985
 10
45.93940270679996
 20
16.29190485429998
 10
45.90935693939997
 20
16.28776930379999
 10
45.87904597579997
 20
16.28467410629997
 10
45.84865996819996
 20
16.28265801699999
 10
45.81819754069999
 20
16.28173728899998
 10
45.7876600693
 20
16.28189566919999
 10
45.75724183320001
 20
16.28312315479999
 10
45.72699741499998
 20
16.28542223199997
 10
45.69687223209998
 20
16.28879041449997
 10
45.66689681689998
 20
16.29321023979997
 10
45.6370338254
 20
16.29868736959997
 10
45.60732060149995
 20
16.30521614219998
 10
45.57789970939995
 20
16.31276210959998
 10
45.5487494318
 20
16.32133960799999
 10
45.51989148599996
 20
16.33093430129997
 10
45.49153358779995
 20
16.34146873239999
 10
45.463744976
 20
16.3529170825
 10
45.43645641179996
 20
16.36530517049999
 10
45.40966789529996
 20
16.37863299629998
  0
LWPOLYLINE
  5
902A1
330
1F
100
AcDbEntity
  8
cut
100
AcDbPolyline
 90
       25
 70
     0
 43
0.0
 10
38.69948745849998
 20
19.77125834969999
 10
38.67004914059995
 20
19.78973609409999
 10
38.64125563529997
 20
19.80872686539998
 10
38.61310694260001
 20
19.82823066339998
 10
38.58561804829999
 20
19.84824717299997
 10
38.55877396659997
 20
19.86877670929999
 10
38.53252973980001
 20
19.8898202185
 10
38.50686334649994
 20
19.91136729229998
 10
38.48179680809996
 20
19.93342833889997
 10
38.45735123059997
 20
19.95603552899999
 10
38.43352302910002
 20
19.97919144759999
 10
38.4103157885
 20
20.00289350969999
 10
38.38776136959996
 20
20.027166131
 10
38.3658608002
 20
20.05203436189999
 10
38.34461305250001
 20
20.07747315199998
 10
38.32404690279999
 20
20.10343176569998
 10
38.30417162939996
 20
20.12991698189998
 10
38.2849779541
 20
20.15692202169999
 10
38.26646681939998
 20
20.18437581369997
 10
38.24863781419999
 20
20.21227804329999
 10
38.23149134960001
 20
20.24062902509999
 10
38.2150296004
 20
20.26935863119999
 10
38.19925329149994
 20
20.29844348559999
 10
38.18416169799998
 20
20.32790696429998
 10
38.16975482
 20
20.35774906729998
  0
LWPOLYLINE
  5
902A2
330
1F
100
AcDbEntity
  8
cut
100
AcDbPolyline
 90
       13
 70
     0
 43
0.0
 10
34.75696166029998
 20
27.4214315605
 10
34.74552610649995
 20
27.44380898329999
 10
34.73486478729997
 20
27.46636135659997
 10
34.72497770269998
 20
27.48908868019999
 10
34.715861928
 20
27.51202076649998
 10
34.70752038790001
 20
27.5351278032
 10
34.69996185689999
 20
27.5583203537
 10
34.69318987679999
 20
27.58160009489998
 10
34.68720090579997
 20
27.6049653499
 10
34.6819930933
 20
27.62832165169999
 10
34.67756582219995
 20
27.6516375114
 10
34.67391970959996
 20
27.67494441779999
 10
34.67105475529998
 20
27.69824237099999
  0
LINE
  5
902A3
330
1F
100
AcDbEntity
  8
cut
100
AcDbLine
 10
35.65971696570001
 20
25.60054093529999
 30
0.0
 11
35.34860579200002
 21
26.23127253980002
 31
0.0
  0
LINE
  5
902A4
330
1F
100
AcDbEntity
  8
cut
100
AcDbLine
 10
35.96930776199999
 20
24.96934586789999
 30
0.0
 11
35.65971696570001
 21
25.60054093529999
 31
0.0
  0
LINE
  5
902A5
330
1F
100
AcDbEntity
  8
cut
100
AcDbLine
 10
35.34860579200002
 20
26.23127253980002
 30
0.0
 11
35.34087005869999
 21
26.24707547919999
 31
0.0
  0
LINE
  5
902A6
330
1F
100
AcDbEntity
  8
cut
100
AcDbLine
 10
36.27745564929997
 20
24.33717960199999
 30
0.0
 11
35.96930776199999
 21
24.96934586789999
 31
0.0
  0
LINE
  5
902A7
330
1F
100
AcDbEntity
  8
cut
100
AcDbLine
 10
36.5842425118
 20
23.70376310959998
 30
0.0
 11
36.27745564929997
 21
24.33717960199999
 31
0.0
  0
LINE
  5
902A8
330
1F
100
AcDbEntity
  8
cut
100
AcDbLine
 10
36.81343097589998
 20
23.22788266929999
 30
0.0
 11
36.5842425118
 21
23.70376310959998
 31
0.0
  0
LINE
  5
902A9
330
1F
100
AcDbEntity
  8
cut
100
AcDbLine
 10
37.04179115540004
 20
22.75133901299998
 30
0.0
 11
36.81343097589998
 21
23.22788266929999
 31
0.0
  0
LINE
  5
902AA
330
1F
100
AcDbEntity
  8
cut
100
AcDbLine
 10
35.34087005869999
 20
26.24707547919999
 30
0.0
 11
35.33315920359998
 21
26.2631520121
 31
0.0
  0
LWPOLYLINE
  5
902AB
330
1F
100
AcDbEntity
  8
cut
100
AcDbPolyline
 90
        9
 70
     0
 43
0.0
 10
35.26829451429997
 20
26.40159651129997
 10
35.20964066730001
 20
26.524902973
 10
35.14951168809997
 20
26.64942151789998
 10
35.0879371466
 20
26.77517269960001
 10
35.02488747309998
 20
26.90213596449999
 10
34.96027395770001
 20
27.03024965099999
 10
34.89406703059997
 20
27.15949320519996
 10
34.82629626159998
 20
27.28988718099998
 10
34.75696165079997
 20
27.42143157839996
  0
LINE
  5
902AC
330
1F
100
AcDbEntity
  8
cut
100
AcDbLine
 10
37.55644073430001
 20
21.66778074949997
 30
0.0
 11
37.04179115540004
 21
22.75133901299998
 31
0.0
  0
LINE
  5
902AD
330
1F
100
AcDbEntity
  8
cut
100
AcDbLine
 10
35.33315920359998
 20
26.2631520121
 30
0.0
 11
35.26829451429997
 21
26.40159651129997
 31
0.0
  0
LINE
  5
902AE
330
1F
100
AcDbEntity
  8
cut
100
AcDbLine
 10
37.98384602969999
 20
20.75718085219998
 30
0.0
 11
37.55644073430001
 21
21.66778074949997
 31
0.0
  0
LINE
  5
902AF
330
1F
100
AcDbEntity
  8
cut
100
AcDbLine
 10
38.1697548781
 20
20.35774894319999
 30
0.0
 11
37.98384602820001
 21
20.75718085539998
 31
0.0
  0
LINE
  5
902B0
330
1F
100
AcDbEntity
  8
cut
100
AcDbLine
 10
42.34842788139999
 20
31.7499999989
 30
0.0
 11
49.99999999999996
 21
31.7499999989
 31
0.0
  0
LINE
  5
902B1
330
1F
100
AcDbEntity
  8
cut
100
AcDbLine
 10
50.28917828619997
 20
22.30895211869998
 30
0.0
 11
50.13295841099997
 21
22.06010335709999
 31
0.0
  0
LINE
  5
902B2
330
1F
100
AcDbEntity
  8
cut
100
AcDbLine
 10
50.13295841099997
 20
22.06010335709999
 30
0.0
 11
49.99542402499999
 21
21.84205170069998
 31
0.0
  0
LINE
  5
902B3
330
1F
100
AcDbEntity
  8
cut
100
AcDbLine
 10
49.99542402499999
 20
21.84205170069998
 30
0.0
 11
49.8114077607
 21
21.5519225516
 31
0.0
  0
LINE
  5
902B4
330
1F
100
AcDbEntity
  8
cut
100
AcDbLine
 10
49.8114077607
 20
21.5519225516
 30
0.0
 11
49.62027203429997
 21
21.252344986
 31
0.0
  0
LINE
  5
902B5
330
1F
100
AcDbEntity
  8
cut
100
AcDbLine
 10
49.62027203429997
 20
21.252344986
 30
0.0
 11
49.42188825019997
 21
20.94341155839999
 31
0.0
  0
LINE
  5
902B6
330
1F
100
AcDbEntity
  8
cut
100
AcDbLine
 10
49.42188825019997
 20
20.94341155839999
 30
0.0
 11
49.21622425939997
 21
20.6251454074
 31
0.0
  0
LWPOLYLINE
  5
902B7
330
1F
100
AcDbEntity
  8
cut
100
AcDbPolyline
 90
       10
 70
     0
 43
0.0
 10
49.21622425999998
 20
20.62514540839999
 10
48.99610442329993
 20
20.28678090329998
 10
48.77478847159996
 20
19.94908138489998
 10
48.55227640519998
 20
19.61204685319998
 10
48.328598593
 20
19.27565085029999
 10
48.10372466599996
 20
18.93991983409998
 10
47.87756351669999
 20
18.6049331783
 10
47.65008477579995
 20
18.27071734059998
 10
47.42131881259996
 20
17.93724586329998
 10
47.19126562710001
 20
17.60451874629999
  0
LWPOLYLINE
  5
902B8
330
1F
100
AcDbEntity
  8
cut
100
AcDbPolyline
 90
        6
 70
     0
 43
0.0
 10
47.19126562879996
 20
17.60451874869996
 10
47.18698683070001
 20
17.59839162139997
 10
47.18264561049996
 20
17.59224183969999
 10
47.17824196829996
 20
17.58606940359999
 10
47.17377590399997
 20
17.57987431309999
 10
47.16924741769999
 20
17.57365656819999
  0
LWPOLYLINE
  5
902B9
330
1F
100
AcDbEntity
  8
cut
100
AcDbPolyline
 90
        3
 70
     0
 43
0.0
 10
46.6226146657
 20
16.82037605409999
 10
46.55163433939999
 20
16.72025486409998
 10
46.48225978439995
 20
16.62179002639999
  0
LWPOLYLINE
  5
902BA
330
1F
100
AcDbEntity
  8
cut
100
AcDbPolyline
 90
       13
 70
     0
 43
0.0
 10
46.4822597877
 20
16.62179003099999
 10
46.46831768009996
 20
16.60259657759999
 10
46.45369112329997
 20
16.5837783309
 10
46.43838011729996
 20
16.565335291
 10
46.42236915989998
 20
16.54724071889997
 10
46.40567375319995
 20
16.5295213535
 10
46.38834040419995
 20
16.51225741219997
 10
46.37036773730002
 20
16.49545172549997
 10
46.35175712819996
 20
16.47910146299998
 10
46.33255921049999
 20
16.46327835069999
 10
46.31279086219996
 20
16.4480062975
 10
46.29243520540001
 20
16.43326139459998
 10
46.2714922401
 20
16.41904364199999
  0
LWPOLYLINE
  5
902BB
330
1F
100
AcDbEntity
  8
cut
100
AcDbPolyline
 90
        7
 70
     0
 43
0.0
 10
47.16924741769999
 20
17.57365656819999
 10
47.08233891219992
 20
17.455783215
 10
47.00165130399994
 20
17.34578593769998
 10
46.92259368509996
 20
17.23742433709998
 10
46.8451741279
 20
17.1306915216
 10
46.76938456000001
 20
17.02559438279999
 10
46.6226146657
 20
16.82037605409999
  0
LINE
  5
902BC
330
1F
100
AcDbEntity
  8
cut
100
AcDbLine
 10
50.78464204689996
 20
29.56187430169999
 30
0.0
 11
50.79999999999997
 21
30.94999999890001
 31
0.0
  0
LINE
  5
902BD
330
1F
100
AcDbEntity
  8
cut
100
AcDbLine
 10
50.50599219919997
 20
23.35198122829999
 30
0.0
 11
50.49851402819998
 21
23.0323784725
 31
0.0
  0
LINE
  5
902BE
330
1F
100
AcDbEntity
  8
cut
100
AcDbLine
 10
50.78464204689996
 20
29.56187430169999
 30
0.0
 11
50.7842185729
 21
29.54397500979999
 31
0.0
  0
LINE
  5
902BF
330
1F
100
AcDbEntity
  8
cut
100
AcDbLine
 10
50.51492102459999
 20
23.66928084189999
 30
0.0
 11
50.50599219919997
 21
23.35198122829999
 31
0.0
  0
LWPOLYLINE
  5
902C0
330
1F
100
AcDbEntity
  8
cut
100
AcDbPolyline
 90
       25
 70
     0
 43
0.0
 10
50.49851402839995
 20
23.03237848159998
 10
50.49743225489994
 20
22.99917813219997
 10
50.49565714189994
 20
22.96626863559999
 10
50.49318868959996
 20
22.93364999169998
 10
50.49001635709995
 20
22.90132846619997
 10
50.48615068519996
 20
22.86929779339999
 10
50.48162329610001
 20
22.83753917719997
 10
50.47643702879994
 20
22.8060593319
 10
50.47058904429999
 20
22.77485154309997
 10
50.46410244729999
 20
22.74387687149999
 10
50.45698358129995
 20
22.71312573489999
 10
50.44922610289997
 20
22.68260771539997
 10
50.44083408599995
 20
22.65231261949998
 10
50.43181579869997
 20
22.62223274589999
 10
50.42216297299997
 20
22.59237579569998
 10
50.41185487899993
 20
22.56275467929999
 10
50.40088866199996
 20
22.5333540485
 10
50.38926717669996
 20
22.50418925149998
 10
50.37697825729999
 20
22.47531924219999
 10
50.36401881189996
 20
22.44674350669999
 10
50.35039193239994
 20
22.41846255899998
 10
50.3360947284
 20
22.39053689549999
 10
50.32112623639996
 20
22.36298668169999
 10
50.30548741989993
 20
22.33579175219998
 10
50.28917827879992
 20
22.30895210689999
  0
LINE
  5
902C1
330
1F
100
AcDbEntity
  8
cut
100
AcDbLine
 10
50.7842185729
 20
29.54397500979999
 30
0.0
 11
50.78363789839997
 21
29.5260116483
 31
0.0
  0
LINE
  5
902C2
330
1F
100
AcDbEntity
  8
cut
100
AcDbLine
 10
50.52526912669993
 20
23.9848350343
 30
0.0
 11
50.51492102459999
 21
23.66928084189999
 31
0.0
  0
LINE
  5
902C3
330
1F
100
AcDbEntity
  8
cut
100
AcDbLine
 10
50.53686279199998
 20
24.29530239079998
 30
0.0
 11
50.52526912669993
 21
23.9848350343
 31
0.0
  0
LINE
  5
902C4
330
1F
100
AcDbEntity
  8
cut
100
AcDbLine
 10
50.78363789839997
 20
29.5260116483
 30
0.0
 11
50.78290002339999
 21
29.50798421709999
 31
0.0
  0
LINE
  5
902C5
330
1F
100
AcDbEntity
  8
cut
100
AcDbLine
 10
50.54980740639996
 20
24.60404688269998
 30
0.0
 11
50.53686279199998
 21
24.29530239079998
 31
0.0
  0
LINE
  5
902C6
330
1F
100
AcDbEntity
  8
cut
100
AcDbLine
 10
50.78290002339999
 20
29.50798421709999
 30
0.0
 11
50.74469019099996
 21
28.67156089619999
 31
0.0
  0
LINE
  5
902C7
330
1F
100
AcDbEntity
  8
cut
100
AcDbLine
 10
50.74469019099996
 20
28.67156089619999
 30
0.0
 11
50.70377765679996
 21
27.7928181122
 31
0.0
  0
LINE
  5
902C8
330
1F
100
AcDbEntity
  8
cut
100
AcDbLine
 10
50.70377765679996
 20
27.7928181122
 30
0.0
 11
50.66238943529994
 21
26.92058412399999
 31
0.0
  0
LINE
  5
902C9
330
1F
100
AcDbEntity
  8
cut
100
AcDbLine
 10
50.56544963859995
 20
24.93903914620001
 30
0.0
 11
50.54980740639996
 21
24.60404688269998
 31
0.0
  0
LINE
  5
902CA
330
1F
100
AcDbEntity
  8
cut
100
AcDbLine
 10
50.66238943529994
 20
26.92058412399999
 30
0.0
 11
50.62215700939994
 21
26.08801413089998
 31
0.0
  0
LINE
  5
902CB
330
1F
100
AcDbEntity
  8
cut
100
AcDbLine
 10
50.62215700939994
 20
26.08801413089998
 30
0.0
 11
50.56544963859995
 21
24.93903914620001
 31
0.0
  0
ARC
  5
902CC
330
1F
100
AcDbEntity
  8
cut
100
AcDbCircle
 10
42.34842788139999
 20
29.7499999989
 30
0.0
 40
2.0
100
AcDbArc
 50
90.0
 51
106.1485852362997
  0
ARC
  5
902CD
102
{ACAD_REACTORS
330
902D0
102
}
330
1F
100
AcDbEntity
  8
cut
100
AcDbCircle
 10
49.99999999999996
 20
30.94999999890001
 30
0.0
 40
0.8
100
AcDbArc
 50
0.0
 51
90.0
  0
DIMENSION
  5
902CE
102
{ACAD_XDICTIONARY
360
902CF
102
}
102
{ACAD_REACTORS
330
902D0
102
}
330
1F
100
AcDbEntity
  8
2
100
AcDbDimension
  2
*D131010
 10
49.99999999999996
 20
30.94999999890001
 30
0.0
 11
70.73435108901207
 21
35.42094923320384
 31
0.0
 70
   164
 71
     5
 42
0.8
  3
コピー - ISO-25
100
AcDbRadialDimension
 15
50.78202589552333
 25
31.1186282845785
 35
0.0
 40
0.0
1001
ACAD
1000
DSTYLE
1002
{
1070
   170
1070
     1
1070
   171
1070
     3
1070
   143
1040
0.0393700787401575
1070
   285
1070
     4
1070
     4
1000
"
1070
   271
1070
     8
1070
    40
1040
1.0
1002
}
1001
ACAD_DSTYLE_DIMRADIAL_EXTENSION
1070
   387
1070
     1
1070
   388
1040
0.0
1070
   390
1040
1.570796326794896
1001
ACAD_DSTYLE_DIMINSPECT
1070
   396
1000

1070
   395
1000

1070
   394
1070
     1
1070
   393
1070
     0
1001
ZWMCAD_GENSTANDARDFRAME_13_
1070
   410
1000
GB
1070
   411
1000
ZwmFrameMain_
  0
VIEWPORT
  5
71
102
{ACAD_XDICTIONARY
360
87B09
102
}
330
55
100
AcDbEntity
 67
     1
  8
0
100
AcDbViewport
 10
150.1652135264906
 20
103.6581106594891
 30
0.0
 40
339.1973820494347
 41
168.6522697578383
 68
     1
 69
    -1
 12
150.1652135264906
 22
103.6581106594891
 13
0.0
 23
0.0
 14
10.0
 24
10.0
 15
10.0
 25
10.0
 16
0.0
 26
0.0
 36
1.0
 17
0.0
 27
0.0
 37
0.0
 42
50.0
 43
0.0
 44
0.0
 45
168.6522697578383
 50
0.0
 51
0.0
 72
  1000
 90
    32864
  1

281
     0
 71
     1
 74
     0
110
0.0
120
0.0
130
0.0
111
1.0
121
0.0
131
0.0
112
0.0
122
1.0
132
0.0
 79
     0
146
0.0
1001
ACAD
1000
MVIEW
1002
{
1070
    16
1010
0.0
1020
0.0
1030
0.0
1010
0.0
1020
0.0
1030
1.0
1040
0.0
1040
168.6522697578383
1040
150.1652135264906
1040
103.6581106594891
1040
50.0
1040
0.0
1040
0.0
1070
     0
1070
  1000
1070
     0
1070
     3
1070
     0
1070
     0
1070
     0
1070
     0
1040
0.0
1040
0.0
1040
0.0
1040
10.0
1040
10.0
1040
10.0
1040
10.0
1070
     0
1002
{
1002
}
1002
}
  0
VIEWPORT
  5
73
102
{ACAD_XDICTIONARY
360
87B0B
102
}
330
55
100
AcDbEntity
 67
     1
  8
0
100
AcDbViewport
 10
133.3499939441681
 20
101.5999939441681
 30
0.0
 40
213.3599903106689
 41
162.5599903106689
 68
     2
 69
    -1
 12
210.0
 22
148.5
 13
0.0
 23
0.0
 14
10.0
 24
10.0
 15
10.0
 25
10.0
 16
0.0
 26
0.0
 36
1.0
 17
0.0
 27
0.0
 37
0.0
 42
50.0
 43
0.0
 44
0.0
 45
324.0677920111345
 50
0.0
 51
0.0
 72
   100
 90
    32864
  1

281
     0
 71
     1
 74
     0
110
0.0
120
0.0
130
0.0
111
1.0
121
0.0
131
0.0
112
0.0
122
1.0
132
0.0
 79
     0
146
0.0
1001
ACAD
1000
MVIEW
1002
{
1070
    16
1010
0.0
1020
0.0
1030
0.0
1010
0.0
1020
0.0
1030
1.0
1040
0.0
1040
324.0677920111345
1040
210.0
1040
148.5
1040
50.0
1040
0.0
1040
0.0
1070
     0
1070
   100
1070
     0
1070
     3
1070
     0
1070
     0
1070
     0
1070
     0
1040
0.0
1040
0.0
1040
0.0
1040
10.0
1040
10.0
1040
10.0
1040
10.0
1070
     0
1002
{
1002
}
1002
}
  0
ENDSEC
  0
SECTION
  2
OBJECTS
  0
DICTIONARY
  5
C
330
0
100
AcDbDictionary
281
     1
  3
ACAD_2007HEADERVARS_RT
350
903C4
  3
ACAD_CIP_PREVIOUS_PRODUCT_INFO
350
4A3C3
  3
ACAD_COLOR
350
85
  3
ACAD_DETAILVIEWSTYLE
350
4A3BB
  3
ACAD_GROUP
350
D
  3
ACAD_LAYOUT
350
1A
  3
ACAD_MATERIAL
350
84
  3
ACAD_MLEADERSTYLE
350
4A3B7
  3
ACAD_MLINESTYLE
350
17
  3
ACAD_PLOTSETTINGS
350
19
  3
ACAD_PLOTSTYLENAME
350
E
  3
ACAD_SCALELIST
350
4A3A5
  3
ACAD_SECTIONVIEWSTYLE
350
4A3B9
  3
ACAD_TABLESTYLE
350
A1
  3
ACAD_VISUALSTYLE
350
4A38C
  3
ACDB_RECOMPOSE_DATA
350
90158
  3
ACDBHEADERROUNDTRIPXREC
350
903C1
  3
AcDbVariableDictionary
350
5E
  3
ASE_INDEX_DICTIONARY
350
349E9
  3
DWGPROPS
350
903C7
  0
DICTIONARY
  5
8C34E
330
8
100
AcDbDictionary
280
     1
281
     1
  3
ACAD_XREC_ROUNDTRIP
360
903CD
  0
DICTIONARY
  5
E2
330
2
100
AcDbDictionary
280
     1
281
     1
  3
ACAD_LAYERFILTERS
360
4A339
  3
ACAD_LAYERSTATES
360
3759A
  3
ACLYDICTIONARY
360
4A338
  0
DICTIONARY
  5
4A86C
330
10
100
AcDbDictionary
280
     1
281
     1
  3
ADSK_XREC_LAYER_RECONCILED
360
4A86D
  0
DICTIONARY
  5
4A773
330
4A772
100
AcDbDictionary
280
     1
281
     1
  3
ADSK_XREC_LAYER_RECONCILED
360
4A86E
  0
DICTIONARY
  5
4A775
330
4A774
100
AcDbDictionary
280
     1
281
     1
  3
ADSK_XREC_LAYER_RECONCILED
360
4A86F
  0
DICTIONARY
  5
4A777
330
4A776
100
AcDbDictionary
280
     1
281
     1
  3
ADSK_XREC_LAYER_RECONCILED
360
4A870
  0
DICTIONARY
  5
4A779
330
4A778
100
AcDbDictionary
280
     1
281
     1
  3
ADSK_XREC_LAYER_RECONCILED
360
4A871
  0
DICTIONARY
  5
4A77B
330
4A77A
100
AcDbDictionary
280
     1
281
     1
  3
ADSK_XREC_LAYER_RECONCILED
360
4A872
  0
DICTIONARY
  5
4A77F
330
4A77E
100
AcDbDictionary
280
     1
281
     1
  3
ADSK_XREC_LAYER_RECONCILED
360
4A874
  0
DICTIONARY
  5
4A783
330
4A782
100
AcDbDictionary
280
     1
281
     1
  3
ADSK_XREC_LAYER_RECONCILED
360
4A876
  0
DICTIONARY
  5
8C34C
330
87B52
100
AcDbDictionary
280
     1
281
     1
  3
ACAD_XREC_ROUNDTRIP
360
903CC
  0
DICTIONARY
  5
31EE
330
1F
100
AcDbDictionary
280
     1
281
     1
  3
ACAD_SORTENTS
360
31EF
  0
DICTIONARY
  5
4A6D7
330
4A6D6
100
AcDbDictionary
280
     1
281
     1
  3
ACAD_SORTENTS
360
4A6D8
  0
DICTIONARY
  5
87B05
330
6B
100
AcDbDictionary
280
     1
281
     1
  3
ACAD_XREC_ROUNDTRIP
360
903CA
  0
DICTIONARY
  5
87B07
330
6D
100
AcDbDictionary
280
     1
281
     1
  3
ACAD_XREC_ROUNDTRIP
360
903CB
  0
DICTIONARY
  5
8FF48
330
8FF47
100
AcDbDictionary
280
     1
281
     1
  3
ACAD_DIMASSOC
360
8FF49
  0
DICTIONARY
  5
8FF4F
330
8FF4E
100
AcDbDictionary
280
     1
281
     1
  3
ACAD_DIMASSOC
360
8FF50
  0
DICTIONARY
  5
902CF
330
902CE
100
AcDbDictionary
280
     1
281
     1
  3
ACAD_DIMASSOC
360
902D0
  0
DICTIONARY
  5
87B09
330
71
100
AcDbDictionary
280
     1
281
     1
  3
ACAD_XREC_ROUNDTRIP
360
903C8
  0
DICTIONARY
  5
87B0B
330
73
100
AcDbDictionary
280
     1
281
     1
  3
ACAD_XREC_ROUNDTRIP
360
903C9
  0
DICTIONARY
  5
903C4
102
{ACAD_REACTORS
330
C
102
}
330
C
100
AcDbDictionary
281
     1
  3
DIMTFILL
350
903C5
  3
DIMTFILLCLR
350
903C6
  0
XRECORD
  5
4A3C3
102
{ACAD_REACTORS
330
C
102
}
330
C
100
AcDbXrecord
280
     1
300
ACDLT
300
2020
300

  0
DICTIONARY
  5
85
102
{ACAD_REACTORS
330
C
102
}
330
C
100
AcDbDictionary
281
     1
  0
DICTIONARY
  5
4A3BB
102
{ACAD_REACTORS
330
C
102
}
330
C
100
AcDbDictionary
281
     1
  3
Metric50
350
4A3BC
  0
DICTIONARY
  5
D
102
{ACAD_REACTORS
330
C
102
}
330
C
100
AcDbDictionary
281
     1
  0
DICTIONARY
  5
1A
102
{ACAD_REACTORS
330
C
102
}
330
C
100
AcDbDictionary
281
     1
  3
Model
350
22
  3
レイアウト1
350
51
  3
レイアウト2
350
56
  0
DICTIONARY
  5
84
102
{ACAD_REACTORS
330
C
102
}
330
C
100
AcDbDictionary
281
     1
  3
ByBlock
350
4A37C
  3
ByLayer
350
4A374
  3
Global
350
4A384
  0
DICTIONARY
  5
4A3B7
102
{ACAD_REACTORS
330
C
102
}
330
C
100
AcDbDictionary
281
     1
  3
Standard
350
4A3B8
  0
DICTIONARY
  5
17
102
{ACAD_REACTORS
330
C
102
}
330
C
100
AcDbDictionary
281
     1
  3
Standard
350
18
  0
DICTIONARY
  5
19
102
{ACAD_REACTORS
330
C
102
}
330
C
100
AcDbDictionary
281
     1
  0
ACDBDICTIONARYWDFLT
  5
E
102
{ACAD_REACTORS
330
C
102
}
330
C
100
AcDbDictionary
281
     1
  3
Normal
350
F
100
AcDbDictionaryWithDefault
340
F
  0
DICTIONARY
  5
4A3A5
102
{ACAD_REACTORS
330
C
102
}
330
C
100
AcDbDictionary
281
     1
  3
A0
350
4A3A6
  3
A1
350
4A3A7
  3
A2
350
4A3A8
  3
A3
350
4A3A9
  3
A4
350
4A3AA
  3
A5
350
4A3AB
  3
A6
350
4A3AC
  3
A7
350
4A3AD
  3
A8
350
4A3AE
  3
A9
350
4A3AF
  3
B0
350
4A3B0
  3
B1
350
4A3B1
  3
B2
350
4A3B2
  3
B3
350
4A3B3
  3
B4
350
4A3B4
  3
B5
350
4A3B5
  3
B6
350
4A3B6
  0
DICTIONARY
  5
4A3B9
102
{ACAD_REACTORS
330
C
102
}
330
C
100
AcDbDictionary
281
     1
  3
Metric50
350
4A3BA
  0
DICTIONARY
  5
A1
102
{ACAD_REACTORS
330
C
102
}
330
C
100
AcDbDictionary
281
     1
  3
Standard
350
A2
  0
DICTIONARY
  5
4A38C
102
{ACAD_REACTORS
330
C
102
}
330
C
100
AcDbDictionary
281
     1
  3
2dWireframe
350
4A392
  3
Basic
350
4A391
  3
Brighten
350
4A398
  3
ColorChange
350
4A39C
  3
Conceptual
350
4A395
  3
Dim
350
4A397
  3
EdgeColorOff
350
4A3A4
  3
Facepattern
350
4A39B
  3
Flat
350
4A38D
  3
FlatWithEdges
350
4A38E
  3
Gouraud
350
4A38F
  3
GouraudWithEdges
350
4A390
  3
Hidden
350
4A394
  3
JitterOff
350
4A3A2
  3
Linepattern
350
4A39A
  3
OverhangOff
350
4A3A3
  3
Realistic
350
4A396
  3
Shaded
350
4A3A1
  3
Shaded with edges
350
4A3A0
  3
Shades of Gray
350
4A39D
  3
Sketchy
350
4A39E
  3
Thicken
350
4A399
  3
Wireframe
350
4A393
  3
X-Ray
350
4A39F
  0
XRECORD
  5
90158
102
{ACAD_REACTORS
330
C
102
}
330
C
100
AcDbXrecord
280
     1
 90
        1
330
A2
  0
DICTIONARY
  5
903C1
102
{ACAD_REACTORS
330
C
102
}
330
C
100
AcDbDictionary
281
     1
  3
COLORDICT
350
903C2
  3
MATERIALDICT
350
903C3
  0
DICTIONARY
  5
5E
102
{ACAD_REACTORS
330
C
102
}
330
C
100
AcDbDictionary
281
     1
  3
CANNOSCALE
350
903C0
  3
CMLEADERSTYLE
350
4A6CE
  3
CTABLESTYLE
350
B8
  3
CVIEWDETAILSTYLE
350
4A6CF
  3
CVIEWSECTIONSTYLE
350
4A6D0
  3
DIMASSOC
350
5F
  3
HIDETEXT
350
63
  3
INDEXCTL
350
4A879
  3
LAYEREVAL
350
4A6D4
  3
LAYERNOTIFY
350
4A6D5
  3
LIGHTINGUNITS
350
4A6D3
  3
MSLTSCALE
350
4A6D1
  3
PROJECTNAME
350
31CE
  3
SORTENTS
350
4A878
  3
XCLIPFRAME
350
87AF9
  0
DICTIONARY
  5
349E9
102
{ACAD_REACTORS
330
C
102
}
330
C
100
AcDbDictionary
281
     1
  3
ASEBlockHierarchyIndexRecord
350
349EA
1001
DCO15
1040
1842496176.844
  0
XRECORD
  5
903C7
102
{ACAD_REACTORS
330
C
102
}
330
C
100
AcDbXrecord
280
     1
  1
DWGPROPS COOKIE
  2

  3

  4

  6

  7

  8
zhangnw
  9

300
=
301
=
302
=
303
=
304
=
305
=
306
=
307
=
308
=
309
=
 40
0.0
 41
2455489.391063368
 42
2458948.459335151
  1

 90
        0
  0
XRECORD
  5
903CD
102
{ACAD_REACTORS
330
8C34E
102
}
330
8C34E
100
AcDbXrecord
280
     1
102
VTR_0.000_0.000_1.000_1.000_VISUALSTYLE
340
4A392
102
VTR_0.000_0.000_1.000_1.000_GRIDDISPLAY
 70
     3
102
VTR_0.000_0.000_1.000_1.000_GRIDMAJOR
 70
     5
102
VTR_0.000_0.000_1.000_1.000_DEFAULTLIGHTING
280
     1
102
VTR_0.000_0.000_1.000_1.000_DEFAULTLIGHTINGTYPE
 70
     1
102
VTR_0.000_0.000_1.000_1.000_BRIGHTNESS
141
0.0
102
VTR_0.000_0.000_1.000_1.000_CONTRAST
142
0.0
  0
DICTIONARY
  5
4A339
102
{ACAD_REACTORS
330
E2
102
}
330
E2
100
AcDbDictionary
281
     1
  0
DICTIONARY
  5
3759A
102
{ACAD_REACTORS
330
E2
102
}
330
E2
100
AcDbDictionary
281
     1
  0
DICTIONARY
  5
4A338
102
{ACAD_REACTORS
330
E2
102
}
330
E2
100
AcDbDictionary
281
     1
1001
ACAD
1000
<All
  0
XRECORD
  5
4A86D
102
{ACAD_REACTORS
330
4A86C
102
}
330
4A86C
100
AcDbXrecord
280
     1
290
     1
  0
XRECORD
  5
4A86E
102
{ACAD_REACTORS
330
4A773
102
}
330
4A773
100
AcDbXrecord
280
     1
290
     1
  0
XRECORD
  5
4A86F
102
{ACAD_REACTORS
330
4A775
102
}
330
4A775
100
AcDbXrecord
280
     1
290
     1
  0
XRECORD
  5
4A870
102
{ACAD_REACTORS
330
4A777
102
}
330
4A777
100
AcDbXrecord
280
     1
290
     1
  0
XRECORD
  5
4A871
102
{ACAD_REACTORS
330
4A779
102
}
330
4A779
100
AcDbXrecord
280
     1
290
     1
  0
XRECORD
  5
4A872
102
{ACAD_REACTORS
330
4A77B
102
}
330
4A77B
100
AcDbXrecord
280
     1
290
     1
  0
XRECORD
  5
4A874
102
{ACAD_REACTORS
330
4A77F
102
}
330
4A77F
100
AcDbXrecord
280
     1
290
     1
  0
XRECORD
  5
4A876
102
{ACAD_REACTORS
330
4A783
102
}
330
4A783
100
AcDbXrecord
280
     1
290
     1
  0
XRECORD
  5
903CC
102
{ACAD_REACTORS
330
8C34C
102
}
330
8C34C
100
AcDbXrecord
280
     1
102
MATERIAL
340
4A384
  0
SORTENTSTABLE
  5
31EF
102
{ACAD_REACTORS
330
31EE
102
}
330
31EE
100
AcDbSortentsTable
330
1F
  0
SORTENTSTABLE
  5
4A6D8
102
{ACAD_REACTORS
330
4A6D7
102
}
330
4A6D7
100
AcDbSortentsTable
330
4A6D6
  0
XRECORD
  5
903CA
102
{ACAD_REACTORS
330
87B05
102
}
330
87B05
100
AcDbXrecord
280
     1
102
GRIDDISPLAY
 70
     0
102
GRIDMAJOR
 70
     5
102
DEFAULTLIGHTING
280
     1
102
DEFAULTLIGHTINGTYPE
 70
     1
102
BRIGHTNESS
141
0.0
102
CONTRAST
142
0.0
  0
XRECORD
  5
903CB
102
{ACAD_REACTORS
330
87B07
102
}
330
87B07
100
AcDbXrecord
280
     1
102
GRIDDISPLAY
 70
     0
102
GRIDMAJOR
 70
     5
102
DEFAULTLIGHTING
280
     1
102
DEFAULTLIGHTINGTYPE
 70
     1
102
BRIGHTNESS
141
0.0
102
CONTRAST
142
0.0
  0
DIMASSOC
  5
8FF49
102
{ACAD_REACTORS
330
8FF48
102
}
330
8FF48
100
AcDbDimAssoc
330
8FF47
 90
        3
 70
     0
 71
     0
  1
AcDbOsnapPointRef
 72
    13
331
8FE24
 73
     2
 91
        0
 40
0.0
 10
0.0
 20
0.0
 30
1.999999999999998E+50
 75
     0
  1
AcDbOsnapPointRef
 72
    13
331
8FF36
 73
     2
 91
        0
 40
0.0
 10
0.0
 20
0.0
 30
1.999999999999998E+50
 75
     0
  0
DIMASSOC
  5
8FF50
102
{ACAD_REACTORS
330
8FF4F
102
}
330
8FF4F
100
AcDbDimAssoc
330
8FF4E
 90
        2
 70
     0
 71
     0
  1
AcDbOsnapPointRef
 72
     1
331
8FF39
 73
     2
 91
        0
 40
1.0
 10
0.0
 20
0.0
 30
1.999999999999998E+50
 75
     0
  0
DIMASSOC
  5
902D0
102
{ACAD_REACTORS
330
902CF
102
}
330
902CF
100
AcDbDimAssoc
330
902CE
 90
        2
 70
     0
 71
     0
  1
AcDbOsnapPointRef
 72
     3
331
902CD
 73
     2
 91
        0
 40
0.0
 10
0.0
 20
0.0
 30
0.0
 75
     0
  0
XRECORD
  5
903C8
102
{ACAD_REACTORS
330
87B09
102
}
330
87B09
100
AcDbXrecord
280
     1
102
GRIDDISPLAY
 70
     0
102
GRIDMAJOR
 70
     5
102
DEFAULTLIGHTING
280
     1
102
DEFAULTLIGHTINGTYPE
 70
     1
102
BRIGHTNESS
141
0.0
102
CONTRAST
142
0.0
  0
XRECORD
  5
903C9
102
{ACAD_REACTORS
330
87B0B
102
}
330
87B0B
100
AcDbXrecord
280
     1
102
GRIDDISPLAY
 70
     0
102
GRIDMAJOR
 70
     5
102
DEFAULTLIGHTING
280
     1
102
DEFAULTLIGHTINGTYPE
 70
     1
102
BRIGHTNESS
141
0.0
102
CONTRAST
142
0.0
  0
XRECORD
  5
903C5
102
{ACAD_REACTORS
330
903C4
102
}
330
903C4
100
AcDbXrecord
280
     1
 70
     1
  0
XRECORD
  5
903C6
102
{ACAD_REACTORS
330
903C4
102
}
330
903C4
100
AcDbXrecord
280
     1
1004
1800000001000000000000C1000000000000000000000000
  0
ACDBDETAILVIEWSTYLE
  5
4A3BC
102
{ACAD_XDICTIONARY
360
87B40
102
}
102
{ACAD_REACTORS
330
4A3BB
102
}
330
4A3BB
100
AcDbModelDocViewStyle
 70
     0
  3
Metric50
290
     0
100
AcDbDetailViewStyle
 70
     0
 71
     0
 90
        3
 71
     1
340
11
 40
5.0
340
0
 40
5.0
300

 40
0.0
280
     1
 71
     2
340
16
 90
       25
 71
     3
340
11
 40
5.0
 90
        0
 40
15.0
 90
        1
300
%<\AcVar ViewDetailId>% (%<\AcVar ViewScale \f "%sn">%)
 71
     4
340
16
 90
       25
340
16
 90
       25
280
     0
  0
LAYOUT
  5
22
102
{ACAD_REACTORS
330
1A
102
}
330
1A
100
AcDbPlotSettings
  1

  2
none_device
  4
ANSI_A_(8.50_x_11.00_Inches)
  6

 40
6.349999904632567
 41
19.04999923706055
 42
6.350006103515625
 43
19.04998779296875
 44
215.8999938964844
 45
279.3999938964844
 46
0.0
 47
0.0
 48
0.0
 49
0.0
140
0.0
141
0.0
142
1.0
143
78.436453180766
 70
 11952
 72
     0
 73
     1
 74
     0
  7

 75
     0
147
0.0127491741332998
148
0.0
149
0.0
100
AcDbLayout
  1
Model
 70
     1
 71
     0
 10
0.0
 20
0.0
 11
12.0
 21
9.0
 12
0.0
 22
0.0
 32
0.0
 14
0.0
 24
0.0
 34
0.0
 15
0.0
 25
0.0
 35
0.0
146
0.0
 13
0.0
 23
0.0
 33
0.0
 16
1.0
 26
0.0
 36
0.0
 17
0.0
 27
1.0
 37
0.0
 76
     0
330
1F
331
4A360
  0
LAYOUT
  5
51
102
{ACAD_REACTORS
330
1A
102
}
330
1A
100
AcDbPlotSettings
  1

  2
none_device
  4
Letter_(8.50_x_11.00_Inches)
  6

 40
6.349999904632567
 41
6.349999904632567
 42
6.350006103515625
 43
6.350006103515625
 44
215.8999938964844
 45
279.3999938964844
 46
0.0
 47
0.0
 48
0.0
 49
0.0
140
0.0
141
0.0
142
1.0
143
1.0
 70
   688
 72
     1
 73
     1
 74
     5
  7

 75
    16
147
1.0
148
0.0
149
0.0
100
AcDbLayout
  1
レイアウト1
 70
     1
 71
     1
 10
-6.350006103515625
 20
-6.349999904632567
 11
273.0499877929688
 21
209.5499939918518
 12
0.0
 22
0.0
 32
0.0
 14
26.66999878883364
 24
20.31999878883365
 34
0.0
 15
240.0299890995025
 25
182.8799890995025
 35
0.0
146
0.0
 13
0.0
 23
0.0
 33
0.0
 16
1.0
 26
0.0
 36
0.0
 17
0.0
 27
1.0
 37
0.0
 76
     0
330
50
331
6B
  0
LAYOUT
  5
56
102
{ACAD_REACTORS
330
1A
102
}
330
1A
100
AcDbPlotSettings
  1

  2
none_device
  4
Letter_(8.50_x_11.00_Inches)
  6

 40
6.349999904632567
 41
6.349999904632567
 42
6.350006103515625
 43
6.350006103515625
 44
215.8999938964844
 45
279.3999938964844
 46
0.0
 47
0.0
 48
0.0
 49
0.0
140
0.0
141
0.0
142
1.0
143
1.0
 70
   688
 72
     1
 73
     1
 74
     5
  7

 75
    16
147
1.0
148
0.0
149
0.0
100
AcDbLayout
  1
レイアウト2
 70
     1
 71
     2
 10
-6.350006103515625
 20
-6.349999904632567
 11
273.0499877929688
 21
209.5499939918518
 12
0.0
 22
0.0
 32
0.0
 14
26.66999878883364
 24
20.31999878883365
 34
0.0
 15
240.0299890995025
 25
182.8799890995025
 35
0.0
146
0.0
 13
0.0
 23
0.0
 33
0.0
 16
1.0
 26
0.0
 36
0.0
 17
0.0
 27
1.0
 37
0.0
 76
     0
330
55
331
71
  0
MATERIAL
  5
4A37C
102
{ACAD_XDICTIONARY
360
4A37D
102
}
102
{ACAD_REACTORS
330
84
102
}
330
84
100
AcDbMaterial
  1
ByBlock
 72
     0
 73
     2
 43
0.0008202099737533
 43
0.0
 43
0.0
 43
0.0
 43
0.0
 43
0.0008202099737533
 43
0.0
 43
0.0
 43
0.0
 43
0.0
 43
1.0
 43
0.0
 43
0.0
 43
0.0
 43
0.0
 43
1.0
 77
     0
 78
     2
 47
0.0008202099737533
 47
0.0
 47
0.0
 47
0.0
 47
0.0
 47
0.0008202099737533
 47
0.0
 47
0.0
 47
0.0
 47
0.0
 47
1.0
 47
0.0
 47
0.0
 47
0.0
 47
0.0
 47
1.0
171
     0
172
     2
 49
0.0008202099737533
 49
0.0
 49
0.0
 49
0.0
 49
0.0
 49
0.0008202099737533
 49
0.0
 49
0.0
 49
0.0
 49
0.0
 49
1.0
 49
0.0
 49
0.0
 49
0.0
 49
0.0
 49
1.0
175
     0
176
     2
142
0.0008202099737533
142
0.0
142
0.0
142
0.0
142
0.0
142
0.0008202099737533
142
0.0
142
0.0
142
0.0
142
0.0
142
1.0
142
0.0
142
0.0
142
0.0
142
0.0
142
1.0
179
     0
270
     2
144
0.0008202099737533
144
0.0
144
0.0
144
0.0
144
0.0
144
0.0008202099737533
144
0.0
144
0.0
144
0.0
144
0.0
144
1.0
144
0.0
144
0.0
144
0.0
144
0.0
144
1.0
274
     2
147
0.0008202099737533
147
0.0
147
0.0
147
0.0
147
0.0
147
0.0008202099737533
147
0.0
147
0.0
147
0.0
147
0.0
147
1.0
147
0.0
147
0.0
147
0.0
147
0.0
147
1.0
  0
MATERIAL
  5
4A374
102
{ACAD_XDICTIONARY
360
4A375
102
}
102
{ACAD_REACTORS
330
84
102
}
330
84
100
AcDbMaterial
  1
ByLayer
 72
     0
 73
     2
 43
0.0008202099737533
 43
0.0
 43
0.0
 43
0.0
 43
0.0
 43
0.0008202099737533
 43
0.0
 43
0.0
 43
0.0
 43
0.0
 43
1.0
 43
0.0
 43
0.0
 43
0.0
 43
0.0
 43
1.0
 77
     0
 78
     2
 47
0.0008202099737533
 47
0.0
 47
0.0
 47
0.0
 47
0.0
 47
0.0008202099737533
 47
0.0
 47
0.0
 47
0.0
 47
0.0
 47
1.0
 47
0.0
 47
0.0
 47
0.0
 47
0.0
 47
1.0
171
     0
172
     2
 49
0.0008202099737533
 49
0.0
 49
0.0
 49
0.0
 49
0.0
 49
0.0008202099737533
 49
0.0
 49
0.0
 49
0.0
 49
0.0
 49
1.0
 49
0.0
 49
0.0
 49
0.0
 49
0.0
 49
1.0
175
     0
176
     2
142
0.0008202099737533
142
0.0
142
0.0
142
0.0
142
0.0
142
0.0008202099737533
142
0.0
142
0.0
142
0.0
142
0.0
142
1.0
142
0.0
142
0.0
142
0.0
142
0.0
142
1.0
179
     0
270
     2
144
0.0008202099737533
144
0.0
144
0.0
144
0.0
144
0.0
144
0.0008202099737533
144
0.0
144
0.0
144
0.0
144
0.0
144
1.0
144
0.0
144
0.0
144
0.0
144
0.0
144
1.0
274
     2
147
0.0008202099737533
147
0.0
147
0.0
147
0.0
147
0.0
147
0.0008202099737533
147
0.0
147
0.0
147
0.0
147
0.0
147
1.0
147
0.0
147
0.0
147
0.0
147
0.0
147
1.0
  0
MATERIAL
  5
4A384
102
{ACAD_XDICTIONARY
360
4A385
102
}
102
{ACAD_REACTORS
330
84
102
}
330
84
100
AcDbMaterial
  1
Global
 72
     0
 73
     2
 43
0.0008202099737533
 43
0.0
 43
0.0
 43
0.0
 43
0.0
 43
0.0008202099737533
 43
0.0
 43
0.0
 43
0.0
 43
0.0
 43
1.0
 43
0.0
 43
0.0
 43
0.0
 43
0.0
 43
1.0
 77
     0
 78
     2
 47
0.0008202099737533
 47
0.0
 47
0.0
 47
0.0
 47
0.0
 47
0.0008202099737533
 47
0.0
 47
0.0
 47
0.0
 47
0.0
 47
1.0
 47
0.0
 47
0.0
 47
0.0
 47
0.0
 47
1.0
171
     0
172
     2
 49
0.0008202099737533
 49
0.0
 49
0.0
 49
0.0
 49
0.0
 49
0.0008202099737533
 49
0.0
 49
0.0
 49
0.0
 49
0.0
 49
1.0
 49
0.0
 49
0.0
 49
0.0
 49
0.0
 49
1.0
175
     0
176
     2
142
0.0008202099737533
142
0.0
142
0.0
142
0.0
142
0.0
142
0.0008202099737533
142
0.0
142
0.0
142
0.0
142
0.0
142
1.0
142
0.0
142
0.0
142
0.0
142
0.0
142
1.0
179
     0
270
     2
144
0.0008202099737533
144
0.0
144
0.0
144
0.0
144
0.0
144
0.0008202099737533
144
0.0
144
0.0
144
0.0
144
0.0
144
1.0
144
0.0
144
0.0
144
0.0
144
0.0
144
1.0
274
     2
147
0.0008202099737533
147
0.0
147
0.0
147
0.0
147
0.0
147
0.0008202099737533
147
0.0
147
0.0
147
0.0
147
0.0
147
1.0
147
0.0
147
0.0
147
0.0
147
0.0
147
1.0
  0
MLEADERSTYLE
  5
4A3B8
102
{ACAD_XDICTIONARY
360
8C353
102
}
102
{ACAD_REACTORS
330
4A3B7
102
}
330
4A3B7
100
AcDbMLeaderStyle
170
     2
171
     1
172
     0
 90
        2
 40
0.0
 41
0.0
173
     1
 91
-1056964608
340
14
 92
       -2
290
     1
 42
2.0
291
     1
 43
0.36
  3
Standard
 44
4.0
300

342
11
174
     1
178
     6
175
     1
176
     0
 93
-1056964608
 45
4.0
292
     0
297
     0
 46
4.0
 94
-1056964608
 47
1.0
 49
1.0
140
1.0
293
     1
141
0.0
294
     1
177
     0
142
1.0
295
     0
296
     0
143
0.125
1001
ACAD_MLEADERVER
1070
     2
  0
MLINESTYLE
  5
18
102
{ACAD_REACTORS
330
17
102
}
330
17
100
AcDbMlineStyle
  2
STANDARD
 70
     0
  3

 62
   256
 51
90.0
 52
90.0
 71
     2
 49
0.5
 62
   256
  6
BYLAYER
 49
-0.5
 62
   256
  6
BYLAYER
  0
ACDBPLACEHOLDER
  5
F
102
{ACAD_REACTORS
330
E
102
}
330
E
  0
SCALE
  5
4A3A6
102
{ACAD_REACTORS
330
4A3A5
102
}
330
4A3A5
100
AcDbScale
 70
     0
300
1:1
140
1.0
141
1.0
290
     1
  0
SCALE
  5
4A3A7
102
{ACAD_REACTORS
330
4A3A5
102
}
330
4A3A5
100
AcDbScale
 70
     0
300
1:2
140
1.0
141
2.0
290
     0
  0
SCALE
  5
4A3A8
102
{ACAD_REACTORS
330
4A3A5
102
}
330
4A3A5
100
AcDbScale
 70
     0
300
1:4
140
1.0
141
4.0
290
     0
  0
SCALE
  5
4A3A9
102
{ACAD_REACTORS
330
4A3A5
102
}
330
4A3A5
100
AcDbScale
 70
     0
300
1:5
140
1.0
141
5.0
290
     0
  0
SCALE
  5
4A3AA
102
{ACAD_REACTORS
330
4A3A5
102
}
330
4A3A5
100
AcDbScale
 70
     0
300
1:8
140
1.0
141
8.0
290
     0
  0
SCALE
  5
4A3AB
102
{ACAD_REACTORS
330
4A3A5
102
}
330
4A3A5
100
AcDbScale
 70
     0
300
1:10
140
1.0
141
10.0
290
     0
  0
SCALE
  5
4A3AC
102
{ACAD_REACTORS
330
4A3A5
102
}
330
4A3A5
100
AcDbScale
 70
     0
300
1:16
140
1.0
141
16.0
290
     0
  0
SCALE
  5
4A3AD
102
{ACAD_REACTORS
330
4A3A5
102
}
330
4A3A5
100
AcDbScale
 70
     0
300
1:20
140
1.0
141
20.0
290
     0
  0
SCALE
  5
4A3AE
102
{ACAD_REACTORS
330
4A3A5
102
}
330
4A3A5
100
AcDbScale
 70
     0
300
1:30
140
1.0
141
30.0
290
     0
  0
SCALE
  5
4A3AF
102
{ACAD_REACTORS
330
4A3A5
102
}
330
4A3A5
100
AcDbScale
 70
     0
300
1:40
140
1.0
141
40.0
290
     0
  0
SCALE
  5
4A3B0
102
{ACAD_REACTORS
330
4A3A5
102
}
330
4A3A5
100
AcDbScale
 70
     0
300
1:50
140
1.0
141
50.0
290
     0
  0
SCALE
  5
4A3B1
102
{ACAD_REACTORS
330
4A3A5
102
}
330
4A3A5
100
AcDbScale
 70
     0
300
1:100
140
1.0
141
100.0
290
     0
  0
SCALE
  5
4A3B2
102
{ACAD_REACTORS
330
4A3A5
102
}
330
4A3A5
100
AcDbScale
 70
     0
300
2:1
140
2.0
141
1.0
290
     0
  0
SCALE
  5
4A3B3
102
{ACAD_REACTORS
330
4A3A5
102
}
330
4A3A5
100
AcDbScale
 70
     0
300
4:1
140
4.0
141
1.0
290
     0
  0
SCALE
  5
4A3B4
102
{ACAD_REACTORS
330
4A3A5
102
}
330
4A3A5
100
AcDbScale
 70
     0
300
8:1
140
8.0
141
1.0
290
     0
  0
SCALE
  5
4A3B5
102
{ACAD_REACTORS
330
4A3A5
102
}
330
4A3A5
100
AcDbScale
 70
     0
300
10:1
140
10.0
141
1.0
290
     0
  0
SCALE
  5
4A3B6
102
{ACAD_REACTORS
330
4A3A5
102
}
330
4A3A5
100
AcDbScale
 70
     0
300
100:1
140
100.0
141
1.0
290
     0
  0
ACDBSECTIONVIEWSTYLE
  5
4A3BA
102
{ACAD_XDICTIONARY
360
87B3E
102
}
102
{ACAD_REACTORS
330
4A3B9
102
}
330
4A3B9
100
AcDbModelDocViewStyle
 70
     0
  3
Metric50
290
     0
100
AcDbSectionViewStyle
 70
     0
 71
     0
 90
      102
 71
     1
340
11
 40
5.0
340
0
340
0
 40
5.0
300
I, O, Q, S, X, Z
 40
10.0
 90
        0
 40
2.5
 90
        0
 71
     2
340
16
 90
       25
340
16
 90
       50
 40
5.0
 40
2.5
 40
5.0
 71
     3
340
11
 40
5.0
 90
        0
 40
15.0
 90
        1
300
%<\AcVar ViewSectionStartId>%-%<\AcVar ViewSectionEndId>% (%<\AcVar ViewScale \f "%sn">%)
 71
     4
300
ANSI31
 40
1.0
 90
        0
290
     0
290
     0
 90
        6
 40
0.0
 40
1.570796326794896
 40
0.2617993877991494
 40
1.308996938995747
 40
-0.2617993877991494
 40
1.832595714594044
  0
TABLESTYLE
  5
A2
102
{ACAD_XDICTIONARY
360
4CD9A
102
}
102
{ACAD_REACTORS
330
A1
102
}
330
A1
100
AcDbTableStyle
  3
Standard
 70
     0
 71
     0
 40
1.5
 41
1.5
280
     0
281
     0
  7
Standard
140
4.5
170
     2
 62
     0
 63
   257
283
     0
274
    -2
284
     1
 64
     0
275
    -2
285
     1
 65
     0
276
    -2
286
     1
 66
     0
277
    -2
287
     1
 67
     0
278
    -2
288
     1
 68
     0
279
    -2
289
     1
 69
     0
  7
Standard
140
6.0
170
     5
 62
     0
 63
   257
283
     0
274
    -2
284
     1
 64
     0
275
    -2
285
     1
 65
     0
276
    -2
286
     1
 66
     0
277
    -2
287
     1
 67
     0
278
    -2
288
     1
 68
     0
279
    -2
289
     1
 69
     0
  7
Standard
140
4.5
170
     5
 62
     0
 63
   257
283
     0
274
    -2
284
     1
 64
     0
275
    -2
285
     1
 65
     0
276
    -2
286
     1
 66
     0
277
    -2
287
     1
 67
     0
278
    -2
288
     1
 68
     0
279
    -2
289
     1
 69
     0
  0
VISUALSTYLE
  5
4A392
102
{ACAD_XDICTIONARY
360
87B18
102
}
102
{ACAD_REACTORS
330
4A38C
102
}
330
4A38C
100
AcDbVisualStyle
  2

 70
     4
 71
     0
 72
     2
 73
     0
 90
        0
 40
-0.6
 41
-30.0
 62
     5
 63
     7
 74
     1
 91
        4
 64
     7
 65
   257
 75
     1
175
     1
 42
1.0
 92
        0
 66
   257
 43
1.0
 76
     1
 77
     6
 78
     2
 67
     7
 79
     5
170
     0
171
     0
290
     0
174
     0
 93
        1
 44
0.0
173
     0
291
     0
 45
0.0
1001
ACAD
1000
AcDbSavedByObjectVersion
1070
     0
  0
VISUALSTYLE
  5
4A391
102
{ACAD_XDICTIONARY
360
87B16
102
}
102
{ACAD_REACTORS
330
4A38C
102
}
330
4A38C
100
AcDbVisualStyle
  2

 70
     7
 71
     1
 72
     0
 73
     1
 90
        0
 40
-0.6
 41
-30.0
 62
     5
 63
     7
 74
     0
 91
        4
 64
     7
 65
   257
 75
     1
175
     1
 42
1.0
 92
        8
 66
     7
 43
1.0
 76
     1
 77
     6
 78
     2
 67
     7
 79
     5
170
     0
171
     0
290
     0
174
     0
 93
        1
 44
0.0
173
     0
291
     1
 45
0.0
1001
ACAD
1000
AcDbSavedByObjectVersion
1070
     0
  0
VISUALSTYLE
  5
4A398
102
{ACAD_XDICTIONARY
360
87B24
102
}
102
{ACAD_REACTORS
330
4A38C
102
}
330
4A38C
100
AcDbVisualStyle
  2

 70
    12
 71
     2
 72
     2
 73
     0
 90
        0
 40
-0.6
 41
-30.0
 62
     5
 63
     7
 74
     1
 91
        4
 64
     7
 65
   257
 75
     1
175
     1
 42
1.0
 92
        8
 66
     7
 43
1.0
 76
     1
 77
     6
 78
     2
 67
     7
 79
     5
170
     0
171
     0
290
     0
174
     0
 93
        1
 44
50.0
173
     0
291
     1
 45
0.0
1001
ACAD
1000
AcDbSavedByObjectVersion
1070
     0
  0
VISUALSTYLE
  5
4A39C
102
{ACAD_XDICTIONARY
360
87B2C
102
}
102
{ACAD_REACTORS
330
4A38C
102
}
330
4A38C
100
AcDbVisualStyle
  2

 70
    16
 71
     2
 72
     2
 73
     3
 90
        0
 40
-0.6
 41
-30.0
 62
     5
 63
     8
 74
     1
 91
        4
 64
     7
 65
   257
 75
     1
175
     1
 42
1.0
 92
        8
 66
     8
 43
1.0
 76
     1
 77
     6
 78
     2
 67
     7
 79
     5
170
     0
171
     0
290
     0
174
     0
 93
        1
 44
0.0
173
     0
291
     1
 45
0.0
1001
ACAD
1000
AcDbSavedByObjectVersion
1070
     0
  0
VISUALSTYLE
  5
4A395
102
{ACAD_XDICTIONARY
360
87B1E
102
}
102
{ACAD_REACTORS
330
4A38C
102
}
330
4A38C
100
AcDbVisualStyle
  2

 70
     9
 71
     3
 72
     2
 73
     0
 90
        0
 40
-0.6
 41
-30.0
 62
     5
 63
     7
 74
     2
 91
        2
 64
     7
 65
   257
 75
     1
175
     1
 42
179.0
 92
        8
 66
     7
 43
1.0
 76
     1
 77
     6
 78
     2
 67
     7
 79
     3
170
     0
171
     0
290
     0
174
     0
 93
        1
 44
0.0
173
     0
291
     0
 45
0.0
1001
ACAD
1000
AcDbSavedByObjectVersion
1070
     0
  0
VISUALSTYLE
  5
4A397
102
{ACAD_XDICTIONARY
360
87B22
102
}
102
{ACAD_REACTORS
330
4A38C
102
}
330
4A38C
100
AcDbVisualStyle
  2

 70
    11
 71
     2
 72
     2
 73
     0
 90
        0
 40
-0.6
 41
-30.0
 62
     5
 63
     7
 74
     1
 91
        4
 64
     7
 65
   257
 75
     1
175
     1
 42
1.0
 92
        8
 66
     7
 43
1.0
 76
     1
 77
     6
 78
     2
 67
     7
 79
     5
170
     0
171
     0
290
     0
174
     0
 93
        1
 44
-50.0
173
     0
291
     1
 45
0.0
1001
ACAD
1000
AcDbSavedByObjectVersion
1070
     0
  0
VISUALSTYLE
  5
4A3A4
102
{ACAD_XDICTIONARY
360
87B3C
102
}
102
{ACAD_REACTORS
330
4A38C
102
}
330
4A38C
100
AcDbVisualStyle
  2

 70
    22
 71
     2
 72
     2
 73
     0
 90
        0
 40
-0.6
 41
-30.0
 62
     5
 63
     7
 74
     1
 91
        4
 64
     7
 65
   257
 75
     1
175
     1
 42
1.0
 92
        8
 66
     7
 43
1.0
 76
     1
 77
     6
 78
     2
 67
     7
 79
     5
170
     0
171
     0
290
     0
174
     0
 93
        1
 44
0.0
173
     0
291
     1
 45
0.0
1001
ACAD
1000
AcDbSavedByObjectVersion
1070
     0
  0
VISUALSTYLE
  5
4A39B
102
{ACAD_XDICTIONARY
360
87B2A
102
}
102
{ACAD_REACTORS
330
4A38C
102
}
330
4A38C
100
AcDbVisualStyle
  2

 70
    15
 71
     2
 72
     2
 73
     0
 90
        0
 40
-0.6
 41
-30.0
 62
     5
 63
     7
 74
     1
 91
        4
 64
     7
 65
   257
 75
     1
175
     1
 42
1.0
 92
        8
 66
     7
 43
1.0
 76
     1
 77
     6
 78
     2
 67
     7
 79
     5
170
     0
171
     0
290
     0
174
     0
 93
        1
 44
0.0
173
     0
291
     1
 45
0.0
1001
ACAD
1000
AcDbSavedByObjectVersion
1070
     0
  0
VISUALSTYLE
  5
4A38D
102
{ACAD_XDICTIONARY
360
87B0E
102
}
102
{ACAD_REACTORS
330
4A38C
102
}
330
4A38C
100
AcDbVisualStyle
  2

 70
     0
 71
     2
 72
     1
 73
     1
 90
        2
 40
-0.6
 41
30.0
 62
     5
 63
     7
 74
     0
 91
        0
 64
     7
 65
   257
 75
     1
175
     1
 42
1.0
 92
        8
 66
     7
 43
1.0
 76
     1
 77
     6
 78
     2
 67
     7
 79
     5
170
     0
171
     0
290
     0
174
     0
 93
       13
 44
0.0
173
     0
291
     1
 45
0.0
1001
ACAD
1000
AcDbSavedByObjectVersion
1070
     0
  0
VISUALSTYLE
  5
4A38E
102
{ACAD_XDICTIONARY
360
87B10
102
}
102
{ACAD_REACTORS
330
4A38C
102
}
330
4A38C
100
AcDbVisualStyle
  2

 70
     1
 71
     2
 72
     1
 73
     1
 90
        2
 40
-0.6
 41
30.0
 62
     5
 63
     7
 74
     1
 91
        0
 64
     7
 65
   257
 75
     1
175
     1
 42
1.0
 92
        0
 66
   257
 43
1.0
 76
     1
 77
     6
 78
     2
 67
     7
 79
     5
170
     0
171
     0
290
     0
174
     0
 93
       13
 44
0.0
173
     0
291
     1
 45
0.0
1001
ACAD
1000
AcDbSavedByObjectVersion
1070
     0
  0
VISUALSTYLE
  5
4A38F
102
{ACAD_XDICTIONARY
360
87B12
102
}
102
{ACAD_REACTORS
330
4A38C
102
}
330
4A38C
100
AcDbVisualStyle
  2

 70
     2
 71
     2
 72
     2
 73
     1
 90
        2
 40
-0.6
 41
30.0
 62
     5
 63
     7
 74
     0
 91
        0
 64
     7
 65
   257
 75
     1
175
     1
 42
1.0
 92
        0
 66
     7
 43
1.0
 76
     1
 77
     6
 78
     2
 67
     7
 79
     5
170
     0
171
     0
290
     0
174
     0
 93
       13
 44
0.0
173
     0
291
     1
 45
0.0
1001
ACAD
1000
AcDbSavedByObjectVersion
1070
     0
  0
VISUALSTYLE
  5
4A390
102
{ACAD_XDICTIONARY
360
87B14
102
}
102
{ACAD_REACTORS
330
4A38C
102
}
330
4A38C
100
AcDbVisualStyle
  2

 70
     3
 71
     2
 72
     2
 73
     1
 90
        2
 40
-0.6
 41
30.0
 62
     5
 63
     7
 74
     1
 91
        0
 64
     7
 65
   257
 75
     1
175
     1
 42
1.0
 92
        0
 66
   257
 43
1.0
 76
     1
 77
     6
 78
     2
 67
     7
 79
     5
170
     0
171
     0
290
     0
174
     0
 93
       13
 44
0.0
173
     0
291
     1
 45
0.0
1001
ACAD
1000
AcDbSavedByObjectVersion
1070
     0
  0
VISUALSTYLE
  5
4A394
102
{ACAD_XDICTIONARY
360
87B1C
102
}
102
{ACAD_REACTORS
330
4A38C
102
}
330
4A38C
100
AcDbVisualStyle
  2

 70
     6
 71
     1
 72
     2
 73
     2
 90
        0
 40
-0.6
 41
-30.0
 62
     5
 63
     7
 74
     2
 91
        2
 64
     7
 65
   257
 75
     2
175
     1
 42
40.0
 92
        0
 66
   257
 43
1.0
 76
     1
 77
     6
 78
     2
 67
     7
 79
     3
170
     0
171
     0
290
     0
174
     0
 93
        1
 44
0.0
173
     0
291
     0
 45
0.0
1001
ACAD
1000
AcDbSavedByObjectVersion
1070
     0
  0
VISUALSTYLE
  5
4A3A2
102
{ACAD_XDICTIONARY
360
87B38
102
}
102
{ACAD_REACTORS
330
4A38C
102
}
330
4A38C
100
AcDbVisualStyle
  2

 70
    20
 71
     2
 72
     2
 73
     0
 90
        0
 40
-0.6
 41
-30.0
 62
     5
 63
     7
 74
     1
 91
        4
 64
     7
 65
   257
 75
     1
175
     1
 42
1.0
 92
       10
 66
     7
 43
1.0
 76
     1
 77
     6
 78
     2
 67
     7
 79
     5
170
     0
171
     0
290
     0
174
     0
 93
        1
 44
0.0
173
     0
291
     1
 45
0.0
1001
ACAD
1000
AcDbSavedByObjectVersion
1070
     0
  0
VISUALSTYLE
  5
4A39A
102
{ACAD_XDICTIONARY
360
87B28
102
}
102
{ACAD_REACTORS
330
4A38C
102
}
330
4A38C
100
AcDbVisualStyle
  2

 70
    14
 71
     2
 72
     2
 73
     0
 90
        0
 40
-0.6
 41
-30.0
 62
     5
 63
     7
 74
     1
 91
        4
 64
     7
 65
   257
 75
     7
175
     7
 42
1.0
 92
        8
 66
     7
 43
1.0
 76
     1
 77
     6
 78
     2
 67
     7
 79
     5
170
     0
171
     0
290
     0
174
     0
 93
        1
 44
0.0
173
     0
291
     1
 45
0.0
1001
ACAD
1000
AcDbSavedByObjectVersion
1070
     0
  0
VISUALSTYLE
  5
4A3A3
102
{ACAD_XDICTIONARY
360
87B3A
102
}
102
{ACAD_REACTORS
330
4A38C
102
}
330
4A38C
100
AcDbVisualStyle
  2

 70
    21
 71
     2
 72
     2
 73
     0
 90
        0
 40
-0.6
 41
-30.0
 62
     5
 63
     7
 74
     1
 91
        4
 64
     7
 65
   257
 75
     1
175
     1
 42
1.0
 92
        9
 66
     7
 43
1.0
 76
     1
 77
     6
 78
     2
 67
     7
 79
     5
170
     0
171
     0
290
     0
174
     0
 93
        1
 44
0.0
173
     0
291
     1
 45
0.0
1001
ACAD
1000
AcDbSavedByObjectVersion
1070
     0
  0
VISUALSTYLE
  5
4A396
102
{ACAD_XDICTIONARY
360
87B20
102
}
102
{ACAD_REACTORS
330
4A38C
102
}
330
4A38C
100
AcDbVisualStyle
  2

 70
     8
 71
     2
 72
     3
 73
     0
 90
        2
 40
-0.6
 41
30.0
 62
     5
 63
     7
 74
     0
 91
        0
 64
     7
 65
   257
 75
     1
175
     1
 42
1.0
 92
        8
 66
   257
 43
1.0
 76
     1
 77
     6
 78
     2
 67
     7
 79
     3
170
     0
171
     0
290
     0
174
     0
 93
       13
 44
0.0
173
     0
291
     0
 45
0.0
1001
ACAD
1000
AcDbSavedByObjectVersion
1070
     0
  0
VISUALSTYLE
  5
4A3A1
102
{ACAD_XDICTIONARY
360
87B36
102
}
102
{ACAD_REACTORS
330
4A38C
102
}
330
4A38C
100
AcDbVisualStyle
  2

 70
    27
 71
     2
 72
     2
 73
     1
 90
        2
 40
-0.6
 41
30.0
 62
     5
 63
     7
 74
     0
 91
        4
 64
     7
 65
   257
 75
     1
175
     1
 42
1.0
 92
        8
 66
   257
 43
1.0
 76
     1
 77
     6
 78
     2
 67
     8
 79
     3
170
     0
171
     0
290
     0
174
     0
 93
        5
 44
0.0
173
     0
291
     0
 45
0.0
1001
ACAD
1000
AcDbSavedByObjectVersion
1070
     0
  0
VISUALSTYLE
  5
4A3A0
102
{ACAD_XDICTIONARY
360
87B34
102
}
102
{ACAD_REACTORS
330
4A38C
102
}
330
4A38C
100
AcDbVisualStyle
  2

 70
    26
 71
     2
 72
     2
 73
     1
 90
        2
 40
-0.6
 41
30.0
 62
     5
 63
     7
 74
     1
 91
        2
 64
     7
 65
   257
 75
     2
175
     1
 42
1.0
 92
        8
 66
   257
 43
1.0
 76
     1
 77
     6
 78
     2
 67
     7
 79
     3
170
     0
171
     0
290
     0
174
     0
 93
        5
 44
0.0
173
     0
291
     0
 45
0.0
1001
ACAD
1000
AcDbSavedByObjectVersion
1070
     0
  0
VISUALSTYLE
  5
4A39D
102
{ACAD_XDICTIONARY
360
87B2E
102
}
102
{ACAD_REACTORS
330
4A38C
102
}
330
4A38C
100
AcDbVisualStyle
  2

 70
    23
 71
     2
 72
     2
 73
     3
 90
        0
 40
-0.6
 41
-30.0
 62
     5
 63
     7
 74
     2
 91
        2
 64
     7
 65
     7
 75
     1
175
     1
 42
40.0
 92
        8
 66
     7
 43
1.0
 76
     1
 77
     6
 78
     2
 67
     7
 79
     3
170
     0
171
     0
290
     0
174
     0
 93
        1
 44
0.0
173
     0
291
     0
 45
0.0
1001
ACAD
1000
AcDbSavedByObjectVersion
1070
     0
  0
VISUALSTYLE
  5
4A39E
102
{ACAD_XDICTIONARY
360
87B30
102
}
102
{ACAD_REACTORS
330
4A38C
102
}
330
4A38C
100
AcDbVisualStyle
  2

 70
    24
 71
     1
 72
     2
 73
     2
 90
        0
 40
-0.6
 41
-30.0
 62
     5
 63
     7
 74
     2
 91
        2
 64
     7
 65
     7
 75
     1
175
     1
 42
40.0
 92
       11
 66
     7
 43
1.0
 76
     1
 77
     6
 78
     2
 67
     7
 79
     6
170
     0
171
     0
290
     0
174
     0
 93
        1
 44
0.0
173
     0
291
     0
 45
0.0
1001
ACAD
1000
AcDbSavedByObjectVersion
1070
     0
  0
VISUALSTYLE
  5
4A399
102
{ACAD_XDICTIONARY
360
87B26
102
}
102
{ACAD_REACTORS
330
4A38C
102
}
330
4A38C
100
AcDbVisualStyle
  2

 70
    13
 71
     2
 72
     2
 73
     0
 90
        0
 40
-0.6
 41
-30.0
 62
     5
 63
     7
 74
     1
 91
        4
 64
     7
 65
   257
 75
     1
175
     1
 42
1.0
 92
       12
 66
     7
 43
1.0
 76
     1
 77
     6
 78
     2
 67
     7
 79
     5
170
     0
171
     0
290
     0
174
     0
 93
        1
 44
0.0
173
     0
291
     1
 45
0.0
1001
ACAD
1000
AcDbSavedByObjectVersion
1070
     0
  0
VISUALSTYLE
  5
4A393
102
{ACAD_XDICTIONARY
360
87B1A
102
}
102
{ACAD_REACTORS
330
4A38C
102
}
330
4A38C
100
AcDbVisualStyle
  2

 70
     5
 71
     0
 72
     2
 73
     0
 90
        0
 40
-0.6
 41
-30.0
 62
     5
 63
     7
 74
     1
 91
        4
 64
     7
 65
   257
 75
     1
175
     1
 42
1.0
 92
        0
 66
   257
 43
1.0
 76
     1
 77
     6
 78
     2
 67
     7
 79
     3
170
     0
171
     0
290
     0
174
     0
 93
        1
 44
0.0
173
     0
291
     0
 45
0.0
1001
ACAD
1000
AcDbSavedByObjectVersion
1070
     0
  0
VISUALSTYLE
  5
4A39F
102
{ACAD_XDICTIONARY
360
87B32
102
}
102
{ACAD_REACTORS
330
4A38C
102
}
330
4A38C
100
AcDbVisualStyle
  2

 70
    25
 71
     2
 72
     2
 73
     1
 90
        1
 40
0.5
 41
-30.0
 62
     5
 63
     7
 74
     1
 91
        0
 64
     7
 65
   257
 75
     1
175
     1
 42
1.0
 92
        8
 66
     7
 43
1.0
 76
     1
 77
     6
 78
     2
 67
     7
 79
     3
170
     0
171
     0
290
     0
174
     0
 93
       13
 44
0.0
173
     0
291
     0
 45
0.0
1001
ACAD
1000
AcDbSavedByObjectVersion
1070
     0
  0
XRECORD
  5
903C2
102
{ACAD_REACTORS
330
903C1
102
}
330
903C1
100
AcDbXrecord
280
     1
340
85
  0
XRECORD
  5
903C3
102
{ACAD_REACTORS
330
903C1
102
}
330
903C1
100
AcDbXrecord
280
     1
340
84
  0
DICTIONARYVAR
  5
903C0
102
{ACAD_REACTORS
330
5E
102
}
330
5E
100
DictionaryVariables
280
   100
  1
1:1
  0
DICTIONARYVAR
  5
4A6CE
102
{ACAD_REACTORS
330
5E
102
}
330
5E
100
DictionaryVariables
280
     0
  1
STANDARD
  0
DICTIONARYVAR
  5
B8
102
{ACAD_REACTORS
330
5E
102
}
330
5E
100
DictionaryVariables
280
     0
  1
STANDARD
  0
DICTIONARYVAR
  5
4A6CF
102
{ACAD_REACTORS
330
5E
102
}
330
5E
100
DictionaryVariables
280
     0
  1
Metric50
  0
DICTIONARYVAR
  5
4A6D0
102
{ACAD_REACTORS
330
5E
102
}
330
5E
100
DictionaryVariables
280
     0
  1
Metric50
  0
DICTIONARYVAR
  5
5F
102
{ACAD_REACTORS
330
5E
102
}
330
5E
100
DictionaryVariables
280
     0
  1
2
  0
DICTIONARYVAR
  5
63
102
{ACAD_REACTORS
330
5E
102
}
330
5E
100
DictionaryVariables
280
     0
  1
1
  0
DICTIONARYVAR
  5
4A879
102
{ACAD_REACTORS
330
5E
102
}
330
5E
100
DictionaryVariables
280
     0
  1
0
  0
DICTIONARYVAR
  5
4A6D4
102
{ACAD_REACTORS
330
5E
102
}
330
5E
100
DictionaryVariables
280
     0
  1
1
  0
DICTIONARYVAR
  5
4A6D5
102
{ACAD_REACTORS
330
5E
102
}
330
5E
100
DictionaryVariables
280
     0
  1
15
  0
DICTIONARYVAR
  5
4A6D3
102
{ACAD_REACTORS
330
5E
102
}
330
5E
100
DictionaryVariables
280
     0
  1
0
  0
DICTIONARYVAR
  5
4A6D1
102
{ACAD_REACTORS
330
5E
102
}
330
5E
100
DictionaryVariables
280
     0
  1
0
  0
DICTIONARYVAR
  5
31CE
102
{ACAD_REACTORS
330
5E
102
}
330
5E
100
DictionaryVariables
280
     0
  1

  0
DICTIONARYVAR
  5
4A878
102
{ACAD_REACTORS
330
5E
102
}
330
5E
100
DictionaryVariables
280
     0
  1
127
  0
DICTIONARYVAR
  5
87AF9
102
{ACAD_REACTORS
330
5E
102
}
330
5E
100
DictionaryVariables
280
     0
  1
2
  0
XRECORD
  5
349EA
102
{ACAD_REACTORS
330
349E9
102
}
330
349E9
100
AcDbXrecord
280
     1
330
0
330
0
330
0
330
0
330
0
330
0
330
0
330
0
330
0
330
0
330
0
330
0
330
0
330
0
330
0
330
0
330
0
330
0
330
0
330
0
330
0
330
0
330
0
330
0
330
0
330
0
330
0
330
0
330
0
330
0
330
0
330
0
330
0
330
0
330
0
330
0
330
0
330
0
330
0
330
0
330
0
330
0
330
0
330
0
330
0
330
0
330
0
330
0
330
0
330
0
330
0
330
0
330
0
330
0
330
0
330
0
330
0
330
0
330
0
330
0
330
0
330
0
330
0
330
0
330
0
330
0
330
0
330
0
330
0
330
0
330
0
330
0
330
0
330
0
330
0
330
0
330
0
330
0
330
0
330
0
330
0
330
0
330
0
330
0
330
0
330
0
330
0
330
0
330
0
330
0
330
0
330
0
330
0
330
0
330
0
330
0
330
0
330
0
330
0
330
0
330
0
330
0
330
0
330
0
330
0
330
0
330
0
330
0
330
0
330
0
  0
DICTIONARY
  5
87B40
330
4A3BC
100
AcDbDictionary
280
     1
281
     1
  3
ACAD_XREC_ROUNDTRIP
360
87B41
  0
DICTIONARY
  5
4A37D
330
4A37C
100
AcDbDictionary
280
     1
281
     1
  3
ACAD_XREC_ROUNDTRIP
360
903CE
  0
DICTIONARY
  5
4A375
330
4A374
100
AcDbDictionary
280
     1
281
     1
  3
ACAD_XREC_ROUNDTRIP
360
903CF
  0
DICTIONARY
  5
4A385
330
4A384
100
AcDbDictionary
280
     1
281
     1
  3
ACAD_XREC_ROUNDTRIP
360
903D0
  0
DICTIONARY
  5
8C353
330
4A3B8
100
AcDbDictionary
280
     1
281
     1
  3
ACAD_XREC_ROUNDTRIP
360
903D1
  0
DICTIONARY
  5
87B3E
330
4A3BA
100
AcDbDictionary
280
     1
281
     1
  3
ACAD_XREC_ROUNDTRIP
360
87B3F
  0
DICTIONARY
  5
4CD9A
330
A2
100
AcDbDictionary
280
     1
281
     1
  3
ACAD_ROUNDTRIP_2008_TABLESTYLE_CELLSTYLEMAP
360
903D3
  3
ACAD_XREC_ROUNDTRIP
360
903D2
  0
DICTIONARY
  5
87B18
330
4A392
100
AcDbDictionary
280
     1
281
     1
  3
ACAD_XREC_ROUNDTRIP
360
903D4
  0
DICTIONARY
  5
87B16
330
4A391
100
AcDbDictionary
280
     1
281
     1
  3
ACAD_XREC_ROUNDTRIP
360
903D5
  0
DICTIONARY
  5
87B24
330
4A398
100
AcDbDictionary
280
     1
281
     1
  3
ACAD_XREC_ROUNDTRIP
360
903D6
  0
DICTIONARY
  5
87B2C
330
4A39C
100
AcDbDictionary
280
     1
281
     1
  3
ACAD_XREC_ROUNDTRIP
360
903D7
  0
DICTIONARY
  5
87B1E
330
4A395
100
AcDbDictionary
280
     1
281
     1
  3
ACAD_XREC_ROUNDTRIP
360
903D8
  0
DICTIONARY
  5
87B22
330
4A397
100
AcDbDictionary
280
     1
281
     1
  3
ACAD_XREC_ROUNDTRIP
360
903D9
  0
DICTIONARY
  5
87B3C
330
4A3A4
100
AcDbDictionary
280
     1
281
     1
  3
ACAD_XREC_ROUNDTRIP
360
903DA
  0
DICTIONARY
  5
87B2A
330
4A39B
100
AcDbDictionary
280
     1
281
     1
  3
ACAD_XREC_ROUNDTRIP
360
903DB
  0
DICTIONARY
  5
87B0E
330
4A38D
100
AcDbDictionary
280
     1
281
     1
  3
ACAD_XREC_ROUNDTRIP
360
903DC
  0
DICTIONARY
  5
87B10
330
4A38E
100
AcDbDictionary
280
     1
281
     1
  3
ACAD_XREC_ROUNDTRIP
360
903DD
  0
DICTIONARY
  5
87B12
330
4A38F
100
AcDbDictionary
280
     1
281
     1
  3
ACAD_XREC_ROUNDTRIP
360
903DE
  0
DICTIONARY
  5
87B14
330
4A390
100
AcDbDictionary
280
     1
281
     1
  3
ACAD_XREC_ROUNDTRIP
360
903DF
  0
DICTIONARY
  5
87B1C
330
4A394
100
AcDbDictionary
280
     1
281
     1
  3
ACAD_XREC_ROUNDTRIP
360
903E0
  0
DICTIONARY
  5
87B38
330
4A3A2
100
AcDbDictionary
280
     1
281
     1
  3
ACAD_XREC_ROUNDTRIP
360
903E1
  0
DICTIONARY
  5
87B28
330
4A39A
100
AcDbDictionary
280
     1
281
     1
  3
ACAD_XREC_ROUNDTRIP
360
903E2
  0
DICTIONARY
  5
87B3A
330
4A3A3
100
AcDbDictionary
280
     1
281
     1
  3
ACAD_XREC_ROUNDTRIP
360
903E3
  0
DICTIONARY
  5
87B20
330
4A396
100
AcDbDictionary
280
     1
281
     1
  3
ACAD_XREC_ROUNDTRIP
360
903E4
  0
DICTIONARY
  5
87B36
330
4A3A1
100
AcDbDictionary
280
     1
281
     1
  3
ACAD_XREC_ROUNDTRIP
360
903E5
  0
DICTIONARY
  5
87B34
330
4A3A0
100
AcDbDictionary
280
     1
281
     1
  3
ACAD_XREC_ROUNDTRIP
360
903E6
  0
DICTIONARY
  5
87B2E
330
4A39D
100
AcDbDictionary
280
     1
281
     1
  3
ACAD_XREC_ROUNDTRIP
360
903E7
  0
DICTIONARY
  5
87B30
330
4A39E
100
AcDbDictionary
280
     1
281
     1
  3
ACAD_XREC_ROUNDTRIP
360
903E8
  0
DICTIONARY
  5
87B26
330
4A399
100
AcDbDictionary
280
     1
281
     1
  3
ACAD_XREC_ROUNDTRIP
360
903E9
  0
DICTIONARY
  5
87B1A
330
4A393
100
AcDbDictionary
280
     1
281
     1
  3
ACAD_XREC_ROUNDTRIP
360
903EA
  0
DICTIONARY
  5
87B32
330
4A39F
100
AcDbDictionary
280
     1
281
     1
  3
ACAD_XREC_ROUNDTRIP
360
903EB
  0
XRECORD
  5
87B41
102
{ACAD_REACTORS
330
87B40
102
}
330
87B40
100
AcDbXrecord
280
     1
102
DISPLAYNAME
  1
Metric50
102
FLAGS
 90
        0
  0
XRECORD
  5
903CE
102
{ACAD_REACTORS
330
4A37D
102
}
330
4A37D
100
AcDbXrecord
280
     1
102
MATERIAL
148
0.0
149
0.0
149
0.0
 93
        0
 94
      127
282
     0
 72
     0
 77
     0
171
     0
175
     0
179
     0
273
     0
  0
XRECORD
  5
903CF
102
{ACAD_REACTORS
330
4A375
102
}
330
4A375
100
AcDbXrecord
280
     1
102
MATERIAL
148
0.0
149
0.0
149
0.0
 93
        0
 94
      127
282
     0
 72
     0
 77
     0
171
     0
175
     0
179
     0
273
     0
  0
XRECORD
  5
903D0
102
{ACAD_REACTORS
330
4A385
102
}
330
4A385
100
AcDbXrecord
280
     1
102
MATERIAL
148
0.0
149
0.0
149
0.0
 93
        0
 94
      127
282
     0
 72
     0
 77
     0
171
     0
175
     0
179
     0
273
     0
  0
XRECORD
  5
903D1
102
{ACAD_REACTORS
330
8C353
102
}
330
8C353
100
AcDbXrecord
280
     1
102
ACAD_ROUNDTRIP_2010_MLEADER_STYLE
  0
XRECORD
  5
87B3F
102
{ACAD_REACTORS
330
87B3E
102
}
330
87B3E
100
AcDbXrecord
280
     1
102
DISPLAYNAME
  1
Metric50
102
FLAGS
 90
        0
  0
CELLSTYLEMAP
  5
903D3
102
{ACAD_REACTORS
330
4CD9A
102
}
330
4CD9A
100
AcDbCellStyleMap
 90
        3
300
CELLSTYLE
  1
TABLEFORMAT_BEGIN
 90
        5
170
     1
 91
        0
 92
    32768
 62
   257
 93
        1
300
CONTENTFORMAT
  1
CONTENTFORMAT_BEGIN
 90
        0
 91
        0
 92
        4
 93
        0
300

 40
0.0
140
1.0
 94
        5
 62
     0
340
11
144
6.0
309
CONTENTFORMAT_END
171
     1
301
MARGIN
  1
CELLMARGIN_BEGIN
 40
1.5
 40
1.5
 40
1.5
 40
1.5
 40
0.18
 40
0.18
309
CELLMARGIN_END
 94
        6
 95
        1
302
GRIDFORMAT
  1
GRIDFORMAT_BEGIN
 90
        0
 91
        1
 62
     0
 92
       -2
340
0
 93
        0
 40
0.045
309
GRIDFORMAT_END
 95
        2
302
GRIDFORMAT
  1
GRIDFORMAT_BEGIN
 90
        0
 91
        1
 62
     0
 92
       -2
340
0
 93
        0
 40
0.045
309
GRIDFORMAT_END
 95
        4
302
GRIDFORMAT
  1
GRIDFORMAT_BEGIN
 90
        0
 91
        1
 62
     0
 92
       -2
340
0
 93
        0
 40
0.045
309
GRIDFORMAT_END
 95
        8
302
GRIDFORMAT
  1
GRIDFORMAT_BEGIN
 90
        0
 91
        1
 62
     0
 92
       -2
340
0
 93
        0
 40
0.045
309
GRIDFORMAT_END
 95
       16
302
GRIDFORMAT
  1
GRIDFORMAT_BEGIN
 90
        0
 91
        1
 62
     0
 92
       -2
340
0
 93
        0
 40
0.045
309
GRIDFORMAT_END
 95
       32
302
GRIDFORMAT
  1
GRIDFORMAT_BEGIN
 90
        0
 91
        1
 62
     0
 92
       -2
340
0
 93
        0
 40
0.045
309
GRIDFORMAT_END
309
TABLEFORMAT_END
  1
CELLSTYLE_BEGIN
 90
        1
 91
        1
300
_TITLE
309
CELLSTYLE_END
300
CELLSTYLE
  1
TABLEFORMAT_BEGIN
 90
        5
170
     1
 91
        0
 92
        0
 62
   257
 93
        1
300
CONTENTFORMAT
  1
CONTENTFORMAT_BEGIN
 90
        0
 91
        0
 92
        4
 93
        0
300

 40
0.0
140
1.0
 94
        5
 62
     0
340
11
144
4.5
309
CONTENTFORMAT_END
171
     1
301
MARGIN
  1
CELLMARGIN_BEGIN
 40
1.5
 40
1.5
 40
1.5
 40
1.5
 40
0.18
 40
0.18
309
CELLMARGIN_END
 94
        6
 95
        1
302
GRIDFORMAT
  1
GRIDFORMAT_BEGIN
 90
        0
 91
        1
 62
     0
 92
       -2
340
0
 93
        0
 40
0.045
309
GRIDFORMAT_END
 95
        2
302
GRIDFORMAT
  1
GRIDFORMAT_BEGIN
 90
        0
 91
        1
 62
     0
 92
       -2
340
0
 93
        0
 40
0.045
309
GRIDFORMAT_END
 95
        4
302
GRIDFORMAT
  1
GRIDFORMAT_BEGIN
 90
        0
 91
        1
 62
     0
 92
       -2
340
0
 93
        0
 40
0.045
309
GRIDFORMAT_END
 95
        8
302
GRIDFORMAT
  1
GRIDFORMAT_BEGIN
 90
        0
 91
        1
 62
     0
 92
       -2
340
0
 93
        0
 40
0.045
309
GRIDFORMAT_END
 95
       16
302
GRIDFORMAT
  1
GRIDFORMAT_BEGIN
 90
        0
 91
        1
 62
     0
 92
       -2
340
0
 93
        0
 40
0.045
309
GRIDFORMAT_END
 95
       32
302
GRIDFORMAT
  1
GRIDFORMAT_BEGIN
 90
        0
 91
        1
 62
     0
 92
       -2
340
0
 93
        0
 40
0.045
309
GRIDFORMAT_END
309
TABLEFORMAT_END
  1
CELLSTYLE_BEGIN
 90
        2
 91
        1
300
_HEADER
309
CELLSTYLE_END
300
CELLSTYLE
  1
TABLEFORMAT_BEGIN
 90
        5
170
     1
 91
        0
 92
        0
 62
   257
 93
        1
300
CONTENTFORMAT
  1
CONTENTFORMAT_BEGIN
 90
        0
 91
        0
 92
        4
 93
        0
300

 40
0.0
140
1.0
 94
        2
 62
     0
340
11
144
4.5
309
CONTENTFORMAT_END
171
     1
301
MARGIN
  1
CELLMARGIN_BEGIN
 40
1.5
 40
1.5
 40
1.5
 40
1.5
 40
0.18
 40
0.18
309
CELLMARGIN_END
 94
        6
 95
        1
302
GRIDFORMAT
  1
GRIDFORMAT_BEGIN
 90
        0
 91
        1
 62
     0
 92
       -2
340
0
 93
        0
 40
0.045
309
GRIDFORMAT_END
 95
        2
302
GRIDFORMAT
  1
GRIDFORMAT_BEGIN
 90
        0
 91
        1
 62
     0
 92
       -2
340
0
 93
        0
 40
0.045
309
GRIDFORMAT_END
 95
        4
302
GRIDFORMAT
  1
GRIDFORMAT_BEGIN
 90
        0
 91
        1
 62
     0
 92
       -2
340
0
 93
        0
 40
0.045
309
GRIDFORMAT_END
 95
        8
302
GRIDFORMAT
  1
GRIDFORMAT_BEGIN
 90
        0
 91
        1
 62
     0
 92
       -2
340
0
 93
        0
 40
0.045
309
GRIDFORMAT_END
 95
       16
302
GRIDFORMAT
  1
GRIDFORMAT_BEGIN
 90
        0
 91
        1
 62
     0
 92
       -2
340
0
 93
        0
 40
0.045
309
GRIDFORMAT_END
 95
       32
302
GRIDFORMAT
  1
GRIDFORMAT_BEGIN
 90
        0
 91
        1
 62
     0
 92
       -2
340
0
 93
        0
 40
0.045
309
GRIDFORMAT_END
309
TABLEFORMAT_END
  1
CELLSTYLE_BEGIN
 90
        3
 91
        2
300
_DATA
309
CELLSTYLE_END
  0
XRECORD
  5
903D2
102
{ACAD_REACTORS
330
4CD9A
102
}
330
4CD9A
100
AcDbXrecord
280
     1
102
ACAD_ROUNDTRIP_PRE2007_TABLESTYLE
 90
        4
 91
        0
  1

 92
        4
 93
        0
  2

 94
        4
 95
        0
  3

  0
XRECORD
  5
903D4
102
{ACAD_REACTORS
330
87B18
102
}
330
87B18
100
AcDbXrecord
280
     1
102
RTVSPropertyOp0
 70
     1
102
RTVSPropertyOp1
 70
     1
102
RTVSPropertyOp2
 70
     1
102
RTVSPropertyOp3
 70
     1
102
RTVSPropertyOp4
 70
     1
102
RTVSPropertyOp5
 70
     1
102
RTVSPropertyOp6
 70
     1
102
RTVSPropertyOp7
 70
     1
102
RTVSPropertyOp8
 70
     1
102
RTVSPropertyOp9
 70
     1
102
RTVSPropertyOp10
 70
     1
102
RTVSPropertyOp11
 70
     1
102
RTVSPropertyOp12
 70
     1
102
RTVSPropertyOp13
 70
     1
102
RTVSPropertyOp14
 70
     1
102
RTVSPropertyOp15
 70
     1
102
RTVSPropertyOp16
 70
     1
102
RTVSPropertyOp17
 70
     1
102
RTVSPropertyOp18
 70
     1
102
RTVSPropertyOp19
 70
     1
102
RTVSPropertyOp20
 70
     1
102
RTVSPropertyOp21
 70
     1
102
RTVSPropertyOp22
 70
     1
102
RTVSPropertyOp23
 70
     1
102
RTVSPropertyOp24
 70
     1
102
RTVSPropertyOp25
 70
     1
102
RTVSPropertyOp26
 70
     1
102
RTVSPropertyOp27
 70
     1
102
RTVSPropertyOp28
 70
     1
102
RTVSPropertyOp29
 70
     1
102
RTVSPropertyOp30
 70
     1
102
RTVSPropertyOp31
 70
     1
102
RTVSPropertyOp32
 70
     1
102
RTVSPropertyOp33
 70
     1
102
RTVSPropertyOp34
 70
     1
102
RTVSPropertyOp35
 70
     1
102
RTVSPropertyOp36
 70
     1
102
RTVSPropertyOp37
 70
     1
102
RTVSPropertyOp38
 70
     1
102
RTVSPropertyOp39
 70
     1
102
RTVSPropertyOp40
 70
     1
102
RTVSPropertyOp41
 70
     1
102
RTVSPropertyOp42
 70
     1
102
RTVSPropertyOp43
 70
     1
102
RTVSPropertyOp44
 70
     1
102
RTVSPropertyOp45
 70
     1
102
RTVSPropertyOp46
 70
     1
102
RTVSPropertyOp47
 70
     1
102
RTVSPropertyOp48
 70
     1
102
RTVSPropertyOp49
 70
     1
102
RTVSPropertyOp50
 70
     1
102
RTVSPropertyOp51
 70
     0
102
RTVSPropertyOp52
 70
     0
102
RTVSPropertyOp53
 70
     1
102
RTVSPropertyOp54
 70
     1
102
RTVSPropertyOp55
 70
     1
102
RTVSPropertyOp56
 70
     1
102
RTVSPropertyOp57
 70
     1
102
RTVSPost2010Prop28
280
     1
102
RTVSPost2010PropOp28
 70
     1
102
RTVSPost2010Prop29
280
     1
102
RTVSPost2010PropOp29
 70
     1
102
RTVSPost2010Prop30
280
     0
102
RTVSPost2010PropOp30
 70
     1
102
RTVSPost2010Prop31
280
     0
102
RTVSPost2010PropOp31
 70
     1
102
RTVSPost2010Prop32
280
     0
102
RTVSPost2010PropOp32
 70
     1
102
RTVSPost2010Prop33
280
     0
102
RTVSPost2010PropOp33
 70
     1
102
RTVSPost2010Prop34
280
     0
102
RTVSPost2010PropOp34
 70
     1
102
RTVSPost2010Prop35
280
     0
102
RTVSPost2010PropOp35
 70
     1
102
RTVSPost2010Prop36
280
     0
102
RTVSPost2010PropOp36
 70
     1
102
RTVSPost2010Prop37
 90
       50
102
RTVSPost2010PropOp37
 70
     1
102
RTVSPost2010Prop38
140
0.0
102
RTVSPost2010PropOp38
 70
     1
102
RTVSPost2010Prop39
140
1.0
102
RTVSPost2010PropOp39
 70
     1
102
RTVSPost2010Prop40
 90
        0
102
RTVSPost2010PropOp40
 70
     1
102
RTVSPost2010Prop41ColorIndex
 90
       18
102
RTVSPost2010Prop41ColorRGB
 90
        0
102
RTVSPost2010PropOp41
 70
     1
102
RTVSPost2010Prop42
 90
       50
102
RTVSPost2010PropOp42
 70
     1
102
RTVSPost2010Prop43
 90
        3
102
RTVSPost2010PropOp43
 70
     1
102
RTVSPost2010Prop44ColorIndex
 90
        5
102
RTVSPost2010Prop44ColorRGB
 90
      255
102
RTVSPost2010PropOp44
 70
     1
102
RTVSPost2010Prop45
280
     0
102
RTVSPost2010PropOp45
 70
     1
102
RTVSPost2010Prop46
 90
       50
102
RTVSPost2010PropOp46
 70
     1
102
RTVSPost2010Prop47
 90
       50
102
RTVSPost2010PropOp47
 70
     1
102
RTVSPost2010Prop48
 90
       50
102
RTVSPost2010PropOp48
 70
     1
102
RTVSPost2010Prop49
280
     0
102
RTVSPost2010PropOp49
 70
     1
102
RTVSPost2010Prop50
 90
       50
102
RTVSPost2010PropOp50
 70
     1
102
RTVSPost2010Prop51ColorIndex
 90
      256
102
RTVSPost2010Prop51ColorRGB
 90
-16777216
102
RTVSPost2010PropOp51
 70
     0
102
RTVSPost2010Prop52
140
1.0
102
RTVSPost2010PropOp52
 70
     0
102
RTVSPost2010Prop53
 90
        2
102
RTVSPost2010PropOp53
 70
     1
102
RTVSPost2010Prop54
  1
strokes_ogs.tif
102
RTVSPost2010PropOp54
 70
     1
102
RTVSPost2010Prop55
280
     0
102
RTVSPost2010PropOp55
 70
     1
102
RTVSPost2010Prop56
140
1.0
102
RTVSPost2010PropOp56
 70
     1
102
RTVSPost2010Prop57
140
1.0
102
RTVSPost2010PropOp57
 70
     1
  0
XRECORD
  5
903D5
102
{ACAD_REACTORS
330
87B16
102
}
330
87B16
100
AcDbXrecord
280
     1
102
RTVSPropertyOp0
 70
     1
102
RTVSPropertyOp1
 70
     1
102
RTVSPropertyOp2
 70
     1
102
RTVSPropertyOp3
 70
     1
102
RTVSPropertyOp4
 70
     1
102
RTVSPropertyOp5
 70
     1
102
RTVSPropertyOp6
 70
     1
102
RTVSPropertyOp7
 70
     1
102
RTVSPropertyOp8
 70
     1
102
RTVSPropertyOp9
 70
     1
102
RTVSPropertyOp10
 70
     1
102
RTVSPropertyOp11
 70
     1
102
RTVSPropertyOp12
 70
     1
102
RTVSPropertyOp13
 70
     1
102
RTVSPropertyOp14
 70
     1
102
RTVSPropertyOp15
 70
     1
102
RTVSPropertyOp16
 70
     1
102
RTVSPropertyOp17
 70
     1
102
RTVSPropertyOp18
 70
     1
102
RTVSPropertyOp19
 70
     1
102
RTVSPropertyOp20
 70
     1
102
RTVSPropertyOp21
 70
     1
102
RTVSPropertyOp22
 70
     1
102
RTVSPropertyOp23
 70
     1
102
RTVSPropertyOp24
 70
     1
102
RTVSPropertyOp25
 70
     1
102
RTVSPropertyOp26
 70
     1
102
RTVSPropertyOp27
 70
     1
102
RTVSPropertyOp28
 70
     1
102
RTVSPropertyOp29
 70
     1
102
RTVSPropertyOp30
 70
     1
102
RTVSPropertyOp31
 70
     1
102
RTVSPropertyOp32
 70
     1
102
RTVSPropertyOp33
 70
     1
102
RTVSPropertyOp34
 70
     1
102
RTVSPropertyOp35
 70
     1
102
RTVSPropertyOp36
 70
     1
102
RTVSPropertyOp37
 70
     1
102
RTVSPropertyOp38
 70
     1
102
RTVSPropertyOp39
 70
     1
102
RTVSPropertyOp40
 70
     1
102
RTVSPropertyOp41
 70
     1
102
RTVSPropertyOp42
 70
     1
102
RTVSPropertyOp43
 70
     1
102
RTVSPropertyOp44
 70
     1
102
RTVSPropertyOp45
 70
     1
102
RTVSPropertyOp46
 70
     1
102
RTVSPropertyOp47
 70
     1
102
RTVSPropertyOp48
 70
     1
102
RTVSPropertyOp49
 70
     1
102
RTVSPropertyOp50
 70
     1
102
RTVSPropertyOp51
 70
     0
102
RTVSPropertyOp52
 70
     0
102
RTVSPropertyOp53
 70
     1
102
RTVSPropertyOp54
 70
     1
102
RTVSPropertyOp55
 70
     1
102
RTVSPropertyOp56
 70
     1
102
RTVSPropertyOp57
 70
     1
102
RTVSPost2010Prop28
280
     0
102
RTVSPost2010PropOp28
 70
     1
102
RTVSPost2010Prop29
280
     1
102
RTVSPost2010PropOp29
 70
     1
102
RTVSPost2010Prop30
280
     1
102
RTVSPost2010PropOp30
 70
     1
102
RTVSPost2010Prop31
280
     0
102
RTVSPost2010PropOp31
 70
     1
102
RTVSPost2010Prop32
280
     0
102
RTVSPost2010PropOp32
 70
     1
102
RTVSPost2010Prop33
280
     0
102
RTVSPost2010PropOp33
 70
     1
102
RTVSPost2010Prop34
280
     0
102
RTVSPost2010PropOp34
 70
     1
102
RTVSPost2010Prop35
280
     0
102
RTVSPost2010PropOp35
 70
     1
102
RTVSPost2010Prop36
280
     0
102
RTVSPost2010PropOp36
 70
     1
102
RTVSPost2010Prop37
 90
       50
102
RTVSPost2010PropOp37
 70
     1
102
RTVSPost2010Prop38
140
0.0
102
RTVSPost2010PropOp38
 70
     1
102
RTVSPost2010Prop39
140
1.0
102
RTVSPost2010PropOp39
 70
     1
102
RTVSPost2010Prop40
 90
        0
102
RTVSPost2010PropOp40
 70
     1
102
RTVSPost2010Prop41ColorIndex
 90
       18
102
RTVSPost2010Prop41ColorRGB
 90
        0
102
RTVSPost2010PropOp41
 70
     1
102
RTVSPost2010Prop42
 90
       50
102
RTVSPost2010PropOp42
 70
     1
102
RTVSPost2010Prop43
 90
        3
102
RTVSPost2010PropOp43
 70
     1
102
RTVSPost2010Prop44ColorIndex
 90
        5
102
RTVSPost2010Prop44ColorRGB
 90
      255
102
RTVSPost2010PropOp44
 70
     1
102
RTVSPost2010Prop45
280
     0
102
RTVSPost2010PropOp45
 70
     1
102
RTVSPost2010Prop46
 90
       50
102
RTVSPost2010PropOp46
 70
     1
102
RTVSPost2010Prop47
 90
       50
102
RTVSPost2010PropOp47
 70
     1
102
RTVSPost2010Prop48
 90
       50
102
RTVSPost2010PropOp48
 70
     1
102
RTVSPost2010Prop49
280
     0
102
RTVSPost2010PropOp49
 70
     1
102
RTVSPost2010Prop50
 90
       50
102
RTVSPost2010PropOp50
 70
     1
102
RTVSPost2010Prop51ColorIndex
 90
      256
102
RTVSPost2010Prop51ColorRGB
 90
-16777216
102
RTVSPost2010PropOp51
 70
     0
102
RTVSPost2010Prop52
140
1.0
102
RTVSPost2010PropOp52
 70
     0
102
RTVSPost2010Prop53
 90
        2
102
RTVSPost2010PropOp53
 70
     1
102
RTVSPost2010Prop54
  1
strokes_ogs.tif
102
RTVSPost2010PropOp54
 70
     1
102
RTVSPost2010Prop55
280
     0
102
RTVSPost2010PropOp55
 70
     1
102
RTVSPost2010Prop56
140
1.0
102
RTVSPost2010PropOp56
 70
     1
102
RTVSPost2010Prop57
140
1.0
102
RTVSPost2010PropOp57
 70
     1
  0
XRECORD
  5
903D6
102
{ACAD_REACTORS
330
87B24
102
}
330
87B24
100
AcDbXrecord
280
     1
102
RTVSPropertyOp0
 70
     1
102
RTVSPropertyOp1
 70
     1
102
RTVSPropertyOp2
 70
     1
102
RTVSPropertyOp3
 70
     1
102
RTVSPropertyOp4
 70
     1
102
RTVSPropertyOp5
 70
     1
102
RTVSPropertyOp6
 70
     1
102
RTVSPropertyOp7
 70
     1
102
RTVSPropertyOp8
 70
     1
102
RTVSPropertyOp9
 70
     1
102
RTVSPropertyOp10
 70
     1
102
RTVSPropertyOp11
 70
     1
102
RTVSPropertyOp12
 70
     1
102
RTVSPropertyOp13
 70
     1
102
RTVSPropertyOp14
 70
     1
102
RTVSPropertyOp15
 70
     1
102
RTVSPropertyOp16
 70
     1
102
RTVSPropertyOp17
 70
     1
102
RTVSPropertyOp18
 70
     1
102
RTVSPropertyOp19
 70
     1
102
RTVSPropertyOp20
 70
     1
102
RTVSPropertyOp21
 70
     1
102
RTVSPropertyOp22
 70
     1
102
RTVSPropertyOp23
 70
     1
102
RTVSPropertyOp24
 70
     1
102
RTVSPropertyOp25
 70
     1
102
RTVSPropertyOp26
 70
     1
102
RTVSPropertyOp27
 70
     1
102
RTVSPropertyOp28
 70
     1
102
RTVSPropertyOp29
 70
     1
102
RTVSPropertyOp30
 70
     1
102
RTVSPropertyOp31
 70
     1
102
RTVSPropertyOp32
 70
     1
102
RTVSPropertyOp33
 70
     1
102
RTVSPropertyOp34
 70
     1
102
RTVSPropertyOp35
 70
     1
102
RTVSPropertyOp36
 70
     1
102
RTVSPropertyOp37
 70
     1
102
RTVSPropertyOp38
 70
     1
102
RTVSPropertyOp39
 70
     1
102
RTVSPropertyOp40
 70
     1
102
RTVSPropertyOp41
 70
     1
102
RTVSPropertyOp42
 70
     1
102
RTVSPropertyOp43
 70
     1
102
RTVSPropertyOp44
 70
     1
102
RTVSPropertyOp45
 70
     1
102
RTVSPropertyOp46
 70
     1
102
RTVSPropertyOp47
 70
     1
102
RTVSPropertyOp48
 70
     1
102
RTVSPropertyOp49
 70
     1
102
RTVSPropertyOp50
 70
     1
102
RTVSPropertyOp51
 70
     0
102
RTVSPropertyOp52
 70
     0
102
RTVSPropertyOp53
 70
     1
102
RTVSPropertyOp54
 70
     1
102
RTVSPropertyOp55
 70
     1
102
RTVSPropertyOp56
 70
     1
102
RTVSPropertyOp57
 70
     1
102
RTVSPost2010Prop28
280
     0
102
RTVSPost2010PropOp28
 70
     1
102
RTVSPost2010Prop29
280
     1
102
RTVSPost2010PropOp29
 70
     1
102
RTVSPost2010Prop30
280
     1
102
RTVSPost2010PropOp30
 70
     1
102
RTVSPost2010Prop31
280
     0
102
RTVSPost2010PropOp31
 70
     1
102
RTVSPost2010Prop32
280
     0
102
RTVSPost2010PropOp32
 70
     1
102
RTVSPost2010Prop33
280
     0
102
RTVSPost2010PropOp33
 70
     1
102
RTVSPost2010Prop34
280
     0
102
RTVSPost2010PropOp34
 70
     1
102
RTVSPost2010Prop35
280
     0
102
RTVSPost2010PropOp35
 70
     1
102
RTVSPost2010Prop36
280
     0
102
RTVSPost2010PropOp36
 70
     1
102
RTVSPost2010Prop37
 90
       50
102
RTVSPost2010PropOp37
 70
     1
102
RTVSPost2010Prop38
140
0.0
102
RTVSPost2010PropOp38
 70
     1
102
RTVSPost2010Prop39
140
1.0
102
RTVSPost2010PropOp39
 70
     1
102
RTVSPost2010Prop40
 90
        0
102
RTVSPost2010PropOp40
 70
     1
102
RTVSPost2010Prop41ColorIndex
 90
       18
102
RTVSPost2010Prop41ColorRGB
 90
        0
102
RTVSPost2010PropOp41
 70
     1
102
RTVSPost2010Prop42
 90
       50
102
RTVSPost2010PropOp42
 70
     1
102
RTVSPost2010Prop43
 90
        3
102
RTVSPost2010PropOp43
 70
     1
102
RTVSPost2010Prop44ColorIndex
 90
        5
102
RTVSPost2010Prop44ColorRGB
 90
      255
102
RTVSPost2010PropOp44
 70
     1
102
RTVSPost2010Prop45
280
     0
102
RTVSPost2010PropOp45
 70
     1
102
RTVSPost2010Prop46
 90
       50
102
RTVSPost2010PropOp46
 70
     1
102
RTVSPost2010Prop47
 90
       50
102
RTVSPost2010PropOp47
 70
     1
102
RTVSPost2010Prop48
 90
       50
102
RTVSPost2010PropOp48
 70
     1
102
RTVSPost2010Prop49
280
     0
102
RTVSPost2010PropOp49
 70
     1
102
RTVSPost2010Prop50
 90
       50
102
RTVSPost2010PropOp50
 70
     1
102
RTVSPost2010Prop51ColorIndex
 90
      256
102
RTVSPost2010Prop51ColorRGB
 90
-16777216
102
RTVSPost2010PropOp51
 70
     0
102
RTVSPost2010Prop52
140
1.0
102
RTVSPost2010PropOp52
 70
     0
102
RTVSPost2010Prop53
 90
        2
102
RTVSPost2010PropOp53
 70
     1
102
RTVSPost2010Prop54
  1
strokes_ogs.tif
102
RTVSPost2010PropOp54
 70
     1
102
RTVSPost2010Prop55
280
     0
102
RTVSPost2010PropOp55
 70
     1
102
RTVSPost2010Prop56
140
1.0
102
RTVSPost2010PropOp56
 70
     1
102
RTVSPost2010Prop57
140
1.0
102
RTVSPost2010PropOp57
 70
     1
  0
XRECORD
  5
903D7
102
{ACAD_REACTORS
330
87B2C
102
}
330
87B2C
100
AcDbXrecord
280
     1
102
RTVSPropertyOp0
 70
     1
102
RTVSPropertyOp1
 70
     1
102
RTVSPropertyOp2
 70
     1
102
RTVSPropertyOp3
 70
     1
102
RTVSPropertyOp4
 70
     1
102
RTVSPropertyOp5
 70
     1
102
RTVSPropertyOp6
 70
     1
102
RTVSPropertyOp7
 70
     1
102
RTVSPropertyOp8
 70
     1
102
RTVSPropertyOp9
 70
     1
102
RTVSPropertyOp10
 70
     1
102
RTVSPropertyOp11
 70
     1
102
RTVSPropertyOp12
 70
     1
102
RTVSPropertyOp13
 70
     1
102
RTVSPropertyOp14
 70
     1
102
RTVSPropertyOp15
 70
     1
102
RTVSPropertyOp16
 70
     1
102
RTVSPropertyOp17
 70
     1
102
RTVSPropertyOp18
 70
     1
102
RTVSPropertyOp19
 70
     1
102
RTVSPropertyOp20
 70
     1
102
RTVSPropertyOp21
 70
     1
102
RTVSPropertyOp22
 70
     1
102
RTVSPropertyOp23
 70
     1
102
RTVSPropertyOp24
 70
     1
102
RTVSPropertyOp25
 70
     1
102
RTVSPropertyOp26
 70
     1
102
RTVSPropertyOp27
 70
     1
102
RTVSPropertyOp28
 70
     1
102
RTVSPropertyOp29
 70
     1
102
RTVSPropertyOp30
 70
     1
102
RTVSPropertyOp31
 70
     1
102
RTVSPropertyOp32
 70
     1
102
RTVSPropertyOp33
 70
     1
102
RTVSPropertyOp34
 70
     1
102
RTVSPropertyOp35
 70
     1
102
RTVSPropertyOp36
 70
     1
102
RTVSPropertyOp37
 70
     1
102
RTVSPropertyOp38
 70
     1
102
RTVSPropertyOp39
 70
     1
102
RTVSPropertyOp40
 70
     1
102
RTVSPropertyOp41
 70
     1
102
RTVSPropertyOp42
 70
     1
102
RTVSPropertyOp43
 70
     1
102
RTVSPropertyOp44
 70
     1
102
RTVSPropertyOp45
 70
     1
102
RTVSPropertyOp46
 70
     1
102
RTVSPropertyOp47
 70
     1
102
RTVSPropertyOp48
 70
     1
102
RTVSPropertyOp49
 70
     1
102
RTVSPropertyOp50
 70
     1
102
RTVSPropertyOp51
 70
     0
102
RTVSPropertyOp52
 70
     0
102
RTVSPropertyOp53
 70
     1
102
RTVSPropertyOp54
 70
     1
102
RTVSPropertyOp55
 70
     1
102
RTVSPropertyOp56
 70
     1
102
RTVSPropertyOp57
 70
     1
102
RTVSPost2010Prop28
280
     0
102
RTVSPost2010PropOp28
 70
     1
102
RTVSPost2010Prop29
280
     1
102
RTVSPost2010PropOp29
 70
     1
102
RTVSPost2010Prop30
280
     1
102
RTVSPost2010PropOp30
 70
     1
102
RTVSPost2010Prop31
280
     0
102
RTVSPost2010PropOp31
 70
     1
102
RTVSPost2010Prop32
280
     0
102
RTVSPost2010PropOp32
 70
     1
102
RTVSPost2010Prop33
280
     0
102
RTVSPost2010PropOp33
 70
     1
102
RTVSPost2010Prop34
280
     0
102
RTVSPost2010PropOp34
 70
     1
102
RTVSPost2010Prop35
280
     0
102
RTVSPost2010PropOp35
 70
     1
102
RTVSPost2010Prop36
280
     0
102
RTVSPost2010PropOp36
 70
     1
102
RTVSPost2010Prop37
 90
       50
102
RTVSPost2010PropOp37
 70
     1
102
RTVSPost2010Prop38
140
0.0
102
RTVSPost2010PropOp38
 70
     1
102
RTVSPost2010Prop39
140
1.0
102
RTVSPost2010PropOp39
 70
     1
102
RTVSPost2010Prop40
 90
        0
102
RTVSPost2010PropOp40
 70
     1
102
RTVSPost2010Prop41ColorIndex
 90
       18
102
RTVSPost2010Prop41ColorRGB
 90
        0
102
RTVSPost2010PropOp41
 70
     1
102
RTVSPost2010Prop42
 90
       50
102
RTVSPost2010PropOp42
 70
     1
102
RTVSPost2010Prop43
 90
        3
102
RTVSPost2010PropOp43
 70
     1
102
RTVSPost2010Prop44ColorIndex
 90
        5
102
RTVSPost2010Prop44ColorRGB
 90
      255
102
RTVSPost2010PropOp44
 70
     1
102
RTVSPost2010Prop45
280
     0
102
RTVSPost2010PropOp45
 70
     1
102
RTVSPost2010Prop46
 90
       50
102
RTVSPost2010PropOp46
 70
     1
102
RTVSPost2010Prop47
 90
       50
102
RTVSPost2010PropOp47
 70
     1
102
RTVSPost2010Prop48
 90
       50
102
RTVSPost2010PropOp48
 70
     1
102
RTVSPost2010Prop49
280
     0
102
RTVSPost2010PropOp49
 70
     1
102
RTVSPost2010Prop50
 90
       50
102
RTVSPost2010PropOp50
 70
     1
102
RTVSPost2010Prop51ColorIndex
 90
      256
102
RTVSPost2010Prop51ColorRGB
 90
-16777216
102
RTVSPost2010PropOp51
 70
     0
102
RTVSPost2010Prop52
140
1.0
102
RTVSPost2010PropOp52
 70
     0
102
RTVSPost2010Prop53
 90
        2
102
RTVSPost2010PropOp53
 70
     1
102
RTVSPost2010Prop54
  1
strokes_ogs.tif
102
RTVSPost2010PropOp54
 70
     1
102
RTVSPost2010Prop55
280
     0
102
RTVSPost2010PropOp55
 70
     1
102
RTVSPost2010Prop56
140
1.0
102
RTVSPost2010PropOp56
 70
     1
102
RTVSPost2010Prop57
140
1.0
102
RTVSPost2010PropOp57
 70
     1
  0
XRECORD
  5
903D8
102
{ACAD_REACTORS
330
87B1E
102
}
330
87B1E
100
AcDbXrecord
280
     1
102
RTVSPropertyOp0
 70
     1
102
RTVSPropertyOp1
 70
     1
102
RTVSPropertyOp2
 70
     1
102
RTVSPropertyOp3
 70
     1
102
RTVSPropertyOp4
 70
     1
102
RTVSPropertyOp5
 70
     1
102
RTVSPropertyOp6
 70
     1
102
RTVSPropertyOp7
 70
     1
102
RTVSPropertyOp8
 70
     1
102
RTVSPropertyOp9
 70
     1
102
RTVSPropertyOp10
 70
     1
102
RTVSPropertyOp11
 70
     1
102
RTVSPropertyOp12
 70
     1
102
RTVSPropertyOp13
 70
     1
102
RTVSPropertyOp14
 70
     1
102
RTVSPropertyOp15
 70
     1
102
RTVSPropertyOp16
 70
     1
102
RTVSPropertyOp17
 70
     1
102
RTVSPropertyOp18
 70
     1
102
RTVSPropertyOp19
 70
     1
102
RTVSPropertyOp20
 70
     1
102
RTVSPropertyOp21
 70
     1
102
RTVSPropertyOp22
 70
     1
102
RTVSPropertyOp23
 70
     1
102
RTVSPropertyOp24
 70
     1
102
RTVSPropertyOp25
 70
     1
102
RTVSPropertyOp26
 70
     1
102
RTVSPropertyOp27
 70
     1
102
RTVSPropertyOp28
 70
     1
102
RTVSPropertyOp29
 70
     1
102
RTVSPropertyOp30
 70
     1
102
RTVSPropertyOp31
 70
     1
102
RTVSPropertyOp32
 70
     1
102
RTVSPropertyOp33
 70
     1
102
RTVSPropertyOp34
 70
     1
102
RTVSPropertyOp35
 70
     1
102
RTVSPropertyOp36
 70
     1
102
RTVSPropertyOp37
 70
     1
102
RTVSPropertyOp38
 70
     1
102
RTVSPropertyOp39
 70
     1
102
RTVSPropertyOp40
 70
     1
102
RTVSPropertyOp41
 70
     1
102
RTVSPropertyOp42
 70
     1
102
RTVSPropertyOp43
 70
     1
102
RTVSPropertyOp44
 70
     1
102
RTVSPropertyOp45
 70
     1
102
RTVSPropertyOp46
 70
     1
102
RTVSPropertyOp47
 70
     1
102
RTVSPropertyOp48
 70
     1
102
RTVSPropertyOp49
 70
     1
102
RTVSPropertyOp50
 70
     1
102
RTVSPropertyOp51
 70
     0
102
RTVSPropertyOp52
 70
     0
102
RTVSPropertyOp53
 70
     1
102
RTVSPropertyOp54
 70
     1
102
RTVSPropertyOp55
 70
     1
102
RTVSPropertyOp56
 70
     1
102
RTVSPropertyOp57
 70
     1
102
RTVSPost2010Prop28
280
     0
102
RTVSPost2010PropOp28
 70
     1
102
RTVSPost2010Prop29
280
     1
102
RTVSPost2010PropOp29
 70
     1
102
RTVSPost2010Prop30
280
     1
102
RTVSPost2010PropOp30
 70
     1
102
RTVSPost2010Prop31
280
     0
102
RTVSPost2010PropOp31
 70
     1
102
RTVSPost2010Prop32
280
     0
102
RTVSPost2010PropOp32
 70
     1
102
RTVSPost2010Prop33
280
     0
102
RTVSPost2010PropOp33
 70
     1
102
RTVSPost2010Prop34
280
     0
102
RTVSPost2010PropOp34
 70
     1
102
RTVSPost2010Prop35
280
     0
102
RTVSPost2010PropOp35
 70
     1
102
RTVSPost2010Prop36
280
     0
102
RTVSPost2010PropOp36
 70
     1
102
RTVSPost2010Prop37
 90
       50
102
RTVSPost2010PropOp37
 70
     1
102
RTVSPost2010Prop38
140
0.0
102
RTVSPost2010PropOp38
 70
     1
102
RTVSPost2010Prop39
140
1.0
102
RTVSPost2010PropOp39
 70
     1
102
RTVSPost2010Prop40
 90
        0
102
RTVSPost2010PropOp40
 70
     1
102
RTVSPost2010Prop41ColorIndex
 90
       18
102
RTVSPost2010Prop41ColorRGB
 90
        0
102
RTVSPost2010PropOp41
 70
     1
102
RTVSPost2010Prop42
 90
       50
102
RTVSPost2010PropOp42
 70
     1
102
RTVSPost2010Prop43
 90
        3
102
RTVSPost2010PropOp43
 70
     1
102
RTVSPost2010Prop44ColorIndex
 90
        5
102
RTVSPost2010Prop44ColorRGB
 90
      255
102
RTVSPost2010PropOp44
 70
     1
102
RTVSPost2010Prop45
280
     0
102
RTVSPost2010PropOp45
 70
     1
102
RTVSPost2010Prop46
 90
       50
102
RTVSPost2010PropOp46
 70
     1
102
RTVSPost2010Prop47
 90
       50
102
RTVSPost2010PropOp47
 70
     1
102
RTVSPost2010Prop48
 90
       50
102
RTVSPost2010PropOp48
 70
     1
102
RTVSPost2010Prop49
280
     0
102
RTVSPost2010PropOp49
 70
     1
102
RTVSPost2010Prop50
 90
       50
102
RTVSPost2010PropOp50
 70
     1
102
RTVSPost2010Prop51ColorIndex
 90
      256
102
RTVSPost2010Prop51ColorRGB
 90
-16777216
102
RTVSPost2010PropOp51
 70
     0
102
RTVSPost2010Prop52
140
1.0
102
RTVSPost2010PropOp52
 70
     0
102
RTVSPost2010Prop53
 90
        2
102
RTVSPost2010PropOp53
 70
     1
102
RTVSPost2010Prop54
  1
strokes_ogs.tif
102
RTVSPost2010PropOp54
 70
     1
102
RTVSPost2010Prop55
280
     0
102
RTVSPost2010PropOp55
 70
     1
102
RTVSPost2010Prop56
140
1.0
102
RTVSPost2010PropOp56
 70
     1
102
RTVSPost2010Prop57
140
1.0
102
RTVSPost2010PropOp57
 70
     1
  0
XRECORD
  5
903D9
102
{ACAD_REACTORS
330
87B22
102
}
330
87B22
100
AcDbXrecord
280
     1
102
RTVSPropertyOp0
 70
     1
102
RTVSPropertyOp1
 70
     1
102
RTVSPropertyOp2
 70
     1
102
RTVSPropertyOp3
 70
     1
102
RTVSPropertyOp4
 70
     1
102
RTVSPropertyOp5
 70
     1
102
RTVSPropertyOp6
 70
     1
102
RTVSPropertyOp7
 70
     1
102
RTVSPropertyOp8
 70
     1
102
RTVSPropertyOp9
 70
     1
102
RTVSPropertyOp10
 70
     1
102
RTVSPropertyOp11
 70
     1
102
RTVSPropertyOp12
 70
     1
102
RTVSPropertyOp13
 70
     1
102
RTVSPropertyOp14
 70
     1
102
RTVSPropertyOp15
 70
     1
102
RTVSPropertyOp16
 70
     1
102
RTVSPropertyOp17
 70
     1
102
RTVSPropertyOp18
 70
     1
102
RTVSPropertyOp19
 70
     1
102
RTVSPropertyOp20
 70
     1
102
RTVSPropertyOp21
 70
     1
102
RTVSPropertyOp22
 70
     1
102
RTVSPropertyOp23
 70
     1
102
RTVSPropertyOp24
 70
     1
102
RTVSPropertyOp25
 70
     1
102
RTVSPropertyOp26
 70
     1
102
RTVSPropertyOp27
 70
     1
102
RTVSPropertyOp28
 70
     1
102
RTVSPropertyOp29
 70
     1
102
RTVSPropertyOp30
 70
     1
102
RTVSPropertyOp31
 70
     1
102
RTVSPropertyOp32
 70
     1
102
RTVSPropertyOp33
 70
     1
102
RTVSPropertyOp34
 70
     1
102
RTVSPropertyOp35
 70
     1
102
RTVSPropertyOp36
 70
     1
102
RTVSPropertyOp37
 70
     1
102
RTVSPropertyOp38
 70
     1
102
RTVSPropertyOp39
 70
     1
102
RTVSPropertyOp40
 70
     1
102
RTVSPropertyOp41
 70
     1
102
RTVSPropertyOp42
 70
     1
102
RTVSPropertyOp43
 70
     1
102
RTVSPropertyOp44
 70
     1
102
RTVSPropertyOp45
 70
     1
102
RTVSPropertyOp46
 70
     1
102
RTVSPropertyOp47
 70
     1
102
RTVSPropertyOp48
 70
     1
102
RTVSPropertyOp49
 70
     1
102
RTVSPropertyOp50
 70
     1
102
RTVSPropertyOp51
 70
     0
102
RTVSPropertyOp52
 70
     0
102
RTVSPropertyOp53
 70
     1
102
RTVSPropertyOp54
 70
     1
102
RTVSPropertyOp55
 70
     1
102
RTVSPropertyOp56
 70
     1
102
RTVSPropertyOp57
 70
     1
102
RTVSPost2010Prop28
280
     0
102
RTVSPost2010PropOp28
 70
     1
102
RTVSPost2010Prop29
280
     1
102
RTVSPost2010PropOp29
 70
     1
102
RTVSPost2010Prop30
280
     1
102
RTVSPost2010PropOp30
 70
     1
102
RTVSPost2010Prop31
280
     0
102
RTVSPost2010PropOp31
 70
     1
102
RTVSPost2010Prop32
280
     0
102
RTVSPost2010PropOp32
 70
     1
102
RTVSPost2010Prop33
280
     0
102
RTVSPost2010PropOp33
 70
     1
102
RTVSPost2010Prop34
280
     0
102
RTVSPost2010PropOp34
 70
     1
102
RTVSPost2010Prop35
280
     0
102
RTVSPost2010PropOp35
 70
     1
102
RTVSPost2010Prop36
280
     0
102
RTVSPost2010PropOp36
 70
     1
102
RTVSPost2010Prop37
 90
       50
102
RTVSPost2010PropOp37
 70
     1
102
RTVSPost2010Prop38
140
0.0
102
RTVSPost2010PropOp38
 70
     1
102
RTVSPost2010Prop39
140
1.0
102
RTVSPost2010PropOp39
 70
     1
102
RTVSPost2010Prop40
 90
        0
102
RTVSPost2010PropOp40
 70
     1
102
RTVSPost2010Prop41ColorIndex
 90
       18
102
RTVSPost2010Prop41ColorRGB
 90
        0
102
RTVSPost2010PropOp41
 70
     1
102
RTVSPost2010Prop42
 90
       50
102
RTVSPost2010PropOp42
 70
     1
102
RTVSPost2010Prop43
 90
        3
102
RTVSPost2010PropOp43
 70
     1
102
RTVSPost2010Prop44ColorIndex
 90
        5
102
RTVSPost2010Prop44ColorRGB
 90
      255
102
RTVSPost2010PropOp44
 70
     1
102
RTVSPost2010Prop45
280
     0
102
RTVSPost2010PropOp45
 70
     1
102
RTVSPost2010Prop46
 90
       50
102
RTVSPost2010PropOp46
 70
     1
102
RTVSPost2010Prop47
 90
       50
102
RTVSPost2010PropOp47
 70
     1
102
RTVSPost2010Prop48
 90
       50
102
RTVSPost2010PropOp48
 70
     1
102
RTVSPost2010Prop49
280
     0
102
RTVSPost2010PropOp49
 70
     1
102
RTVSPost2010Prop50
 90
       50
102
RTVSPost2010PropOp50
 70
     1
102
RTVSPost2010Prop51ColorIndex
 90
      256
102
RTVSPost2010Prop51ColorRGB
 90
-16777216
102
RTVSPost2010PropOp51
 70
     0
102
RTVSPost2010Prop52
140
1.0
102
RTVSPost2010PropOp52
 70
     0
102
RTVSPost2010Prop53
 90
        2
102
RTVSPost2010PropOp53
 70
     1
102
RTVSPost2010Prop54
  1
strokes_ogs.tif
102
RTVSPost2010PropOp54
 70
     1
102
RTVSPost2010Prop55
280
     0
102
RTVSPost2010PropOp55
 70
     1
102
RTVSPost2010Prop56
140
1.0
102
RTVSPost2010PropOp56
 70
     1
102
RTVSPost2010Prop57
140
1.0
102
RTVSPost2010PropOp57
 70
     1
  0
XRECORD
  5
903DA
102
{ACAD_REACTORS
330
87B3C
102
}
330
87B3C
100
AcDbXrecord
280
     1
102
RTVSPropertyOp0
 70
     0
102
RTVSPropertyOp1
 70
     0
102
RTVSPropertyOp2
 70
     0
102
RTVSPropertyOp3
 70
     0
102
RTVSPropertyOp4
 70
     0
102
RTVSPropertyOp5
 70
     0
102
RTVSPropertyOp6
 70
     0
102
RTVSPropertyOp7
 70
     0
102
RTVSPropertyOp8
 70
     0
102
RTVSPropertyOp9
 70
     0
102
RTVSPropertyOp10
 70
     0
102
RTVSPropertyOp11
 70
     0
102
RTVSPropertyOp12
 70
     0
102
RTVSPropertyOp13
 70
     0
102
RTVSPropertyOp14
 70
     2
102
RTVSPropertyOp15
 70
     0
102
RTVSPropertyOp16
 70
     0
102
RTVSPropertyOp17
 70
     0
102
RTVSPropertyOp18
 70
     0
102
RTVSPropertyOp19
 70
     0
102
RTVSPropertyOp20
 70
     0
102
RTVSPropertyOp21
 70
     0
102
RTVSPropertyOp22
 70
     0
102
RTVSPropertyOp23
 70
     0
102
RTVSPropertyOp24
 70
     0
102
RTVSPropertyOp25
 70
     0
102
RTVSPropertyOp26
 70
     0
102
RTVSPropertyOp27
 70
     0
102
RTVSPropertyOp28
 70
     1
102
RTVSPropertyOp29
 70
     1
102
RTVSPropertyOp30
 70
     1
102
RTVSPropertyOp31
 70
     1
102
RTVSPropertyOp32
 70
     1
102
RTVSPropertyOp33
 70
     1
102
RTVSPropertyOp34
 70
     1
102
RTVSPropertyOp35
 70
     1
102
RTVSPropertyOp36
 70
     1
102
RTVSPropertyOp37
 70
     0
102
RTVSPropertyOp38
 70
     0
102
RTVSPropertyOp39
 70
     0
102
RTVSPropertyOp40
 70
     0
102
RTVSPropertyOp41
 70
     0
102
RTVSPropertyOp42
 70
     0
102
RTVSPropertyOp43
 70
     0
102
RTVSPropertyOp44
 70
     0
102
RTVSPropertyOp45
 70
     1
102
RTVSPropertyOp46
 70
     0
102
RTVSPropertyOp47
 70
     0
102
RTVSPropertyOp48
 70
     0
102
RTVSPropertyOp49
 70
     1
102
RTVSPropertyOp50
 70
     0
102
RTVSPropertyOp51
 70
     0
102
RTVSPropertyOp52
 70
     0
102
RTVSPropertyOp53
 70
     0
102
RTVSPropertyOp54
 70
     0
102
RTVSPropertyOp55
 70
     1
102
RTVSPropertyOp56
 70
     0
102
RTVSPropertyOp57
 70
     0
102
RTVSPost2010Prop28
280
     0
102
RTVSPost2010PropOp28
 70
     1
102
RTVSPost2010Prop29
280
     1
102
RTVSPost2010PropOp29
 70
     1
102
RTVSPost2010Prop30
280
     1
102
RTVSPost2010PropOp30
 70
     1
102
RTVSPost2010Prop31
280
     0
102
RTVSPost2010PropOp31
 70
     1
102
RTVSPost2010Prop32
280
     0
102
RTVSPost2010PropOp32
 70
     1
102
RTVSPost2010Prop33
280
     0
102
RTVSPost2010PropOp33
 70
     1
102
RTVSPost2010Prop34
280
     0
102
RTVSPost2010PropOp34
 70
     1
102
RTVSPost2010Prop35
280
     0
102
RTVSPost2010PropOp35
 70
     1
102
RTVSPost2010Prop36
280
     0
102
RTVSPost2010PropOp36
 70
     1
102
RTVSPost2010Prop37
 90
       50
102
RTVSPost2010PropOp37
 70
     0
102
RTVSPost2010Prop38
140
0.0
102
RTVSPost2010PropOp38
 70
     0
102
RTVSPost2010Prop39
140
1.0
102
RTVSPost2010PropOp39
 70
     0
102
RTVSPost2010Prop40
 90
        0
102
RTVSPost2010PropOp40
 70
     0
102
RTVSPost2010Prop41ColorIndex
 90
       18
102
RTVSPost2010Prop41ColorRGB
 90
        0
102
RTVSPost2010PropOp41
 70
     0
102
RTVSPost2010Prop42
 90
       50
102
RTVSPost2010PropOp42
 70
     0
102
RTVSPost2010Prop43
 90
        3
102
RTVSPost2010PropOp43
 70
     0
102
RTVSPost2010Prop44ColorIndex
 90
        5
102
RTVSPost2010Prop44ColorRGB
 90
      255
102
RTVSPost2010PropOp44
 70
     0
102
RTVSPost2010Prop45
280
     0
102
RTVSPost2010PropOp45
 70
     1
102
RTVSPost2010Prop46
 90
       50
102
RTVSPost2010PropOp46
 70
     0
102
RTVSPost2010Prop47
 90
       50
102
RTVSPost2010PropOp47
 70
     0
102
RTVSPost2010Prop48
 90
       50
102
RTVSPost2010PropOp48
 70
     0
102
RTVSPost2010Prop49
280
     0
102
RTVSPost2010PropOp49
 70
     1
102
RTVSPost2010Prop50
 90
       50
102
RTVSPost2010PropOp50
 70
     0
102
RTVSPost2010Prop51ColorIndex
 90
      256
102
RTVSPost2010Prop51ColorRGB
 90
-16777216
102
RTVSPost2010PropOp51
 70
     0
102
RTVSPost2010Prop52
140
1.0
102
RTVSPost2010PropOp52
 70
     0
102
RTVSPost2010Prop53
 90
        2
102
RTVSPost2010PropOp53
 70
     0
102
RTVSPost2010Prop54
  1
strokes_ogs.tif
102
RTVSPost2010PropOp54
 70
     0
102
RTVSPost2010Prop55
280
     0
102
RTVSPost2010PropOp55
 70
     1
102
RTVSPost2010Prop56
140
1.0
102
RTVSPost2010PropOp56
 70
     0
102
RTVSPost2010Prop57
140
1.0
102
RTVSPost2010PropOp57
 70
     0
  0
XRECORD
  5
903DB
102
{ACAD_REACTORS
330
87B2A
102
}
330
87B2A
100
AcDbXrecord
280
     1
102
RTVSPropertyOp0
 70
     1
102
RTVSPropertyOp1
 70
     1
102
RTVSPropertyOp2
 70
     1
102
RTVSPropertyOp3
 70
     1
102
RTVSPropertyOp4
 70
     1
102
RTVSPropertyOp5
 70
     1
102
RTVSPropertyOp6
 70
     1
102
RTVSPropertyOp7
 70
     1
102
RTVSPropertyOp8
 70
     1
102
RTVSPropertyOp9
 70
     1
102
RTVSPropertyOp10
 70
     1
102
RTVSPropertyOp11
 70
     1
102
RTVSPropertyOp12
 70
     1
102
RTVSPropertyOp13
 70
     1
102
RTVSPropertyOp14
 70
     1
102
RTVSPropertyOp15
 70
     1
102
RTVSPropertyOp16
 70
     1
102
RTVSPropertyOp17
 70
     1
102
RTVSPropertyOp18
 70
     1
102
RTVSPropertyOp19
 70
     1
102
RTVSPropertyOp20
 70
     1
102
RTVSPropertyOp21
 70
     1
102
RTVSPropertyOp22
 70
     1
102
RTVSPropertyOp23
 70
     1
102
RTVSPropertyOp24
 70
     1
102
RTVSPropertyOp25
 70
     1
102
RTVSPropertyOp26
 70
     1
102
RTVSPropertyOp27
 70
     1
102
RTVSPropertyOp28
 70
     1
102
RTVSPropertyOp29
 70
     1
102
RTVSPropertyOp30
 70
     1
102
RTVSPropertyOp31
 70
     1
102
RTVSPropertyOp32
 70
     1
102
RTVSPropertyOp33
 70
     1
102
RTVSPropertyOp34
 70
     1
102
RTVSPropertyOp35
 70
     1
102
RTVSPropertyOp36
 70
     1
102
RTVSPropertyOp37
 70
     1
102
RTVSPropertyOp38
 70
     1
102
RTVSPropertyOp39
 70
     1
102
RTVSPropertyOp40
 70
     1
102
RTVSPropertyOp41
 70
     1
102
RTVSPropertyOp42
 70
     1
102
RTVSPropertyOp43
 70
     1
102
RTVSPropertyOp44
 70
     1
102
RTVSPropertyOp45
 70
     1
102
RTVSPropertyOp46
 70
     1
102
RTVSPropertyOp47
 70
     1
102
RTVSPropertyOp48
 70
     1
102
RTVSPropertyOp49
 70
     1
102
RTVSPropertyOp50
 70
     1
102
RTVSPropertyOp51
 70
     0
102
RTVSPropertyOp52
 70
     0
102
RTVSPropertyOp53
 70
     1
102
RTVSPropertyOp54
 70
     1
102
RTVSPropertyOp55
 70
     1
102
RTVSPropertyOp56
 70
     1
102
RTVSPropertyOp57
 70
     1
102
RTVSPost2010Prop28
280
     0
102
RTVSPost2010PropOp28
 70
     1
102
RTVSPost2010Prop29
280
     1
102
RTVSPost2010PropOp29
 70
     1
102
RTVSPost2010Prop30
280
     1
102
RTVSPost2010PropOp30
 70
     1
102
RTVSPost2010Prop31
280
     0
102
RTVSPost2010PropOp31
 70
     1
102
RTVSPost2010Prop32
280
     0
102
RTVSPost2010PropOp32
 70
     1
102
RTVSPost2010Prop33
280
     0
102
RTVSPost2010PropOp33
 70
     1
102
RTVSPost2010Prop34
280
     0
102
RTVSPost2010PropOp34
 70
     1
102
RTVSPost2010Prop35
280
     0
102
RTVSPost2010PropOp35
 70
     1
102
RTVSPost2010Prop36
280
     0
102
RTVSPost2010PropOp36
 70
     1
102
RTVSPost2010Prop37
 90
       50
102
RTVSPost2010PropOp37
 70
     1
102
RTVSPost2010Prop38
140
0.0
102
RTVSPost2010PropOp38
 70
     1
102
RTVSPost2010Prop39
140
1.0
102
RTVSPost2010PropOp39
 70
     1
102
RTVSPost2010Prop40
 90
        0
102
RTVSPost2010PropOp40
 70
     1
102
RTVSPost2010Prop41ColorIndex
 90
       18
102
RTVSPost2010Prop41ColorRGB
 90
        0
102
RTVSPost2010PropOp41
 70
     1
102
RTVSPost2010Prop42
 90
       50
102
RTVSPost2010PropOp42
 70
     1
102
RTVSPost2010Prop43
 90
        3
102
RTVSPost2010PropOp43
 70
     1
102
RTVSPost2010Prop44ColorIndex
 90
        5
102
RTVSPost2010Prop44ColorRGB
 90
      255
102
RTVSPost2010PropOp44
 70
     1
102
RTVSPost2010Prop45
280
     0
102
RTVSPost2010PropOp45
 70
     1
102
RTVSPost2010Prop46
 90
       50
102
RTVSPost2010PropOp46
 70
     1
102
RTVSPost2010Prop47
 90
       50
102
RTVSPost2010PropOp47
 70
     1
102
RTVSPost2010Prop48
 90
       50
102
RTVSPost2010PropOp48
 70
     1
102
RTVSPost2010Prop49
280
     0
102
RTVSPost2010PropOp49
 70
     1
102
RTVSPost2010Prop50
 90
       50
102
RTVSPost2010PropOp50
 70
     1
102
RTVSPost2010Prop51ColorIndex
 90
      256
102
RTVSPost2010Prop51ColorRGB
 90
-16777216
102
RTVSPost2010PropOp51
 70
     0
102
RTVSPost2010Prop52
140
1.0
102
RTVSPost2010PropOp52
 70
     0
102
RTVSPost2010Prop53
 90
        2
102
RTVSPost2010PropOp53
 70
     1
102
RTVSPost2010Prop54
  1
strokes_ogs.tif
102
RTVSPost2010PropOp54
 70
     1
102
RTVSPost2010Prop55
280
     0
102
RTVSPost2010PropOp55
 70
     1
102
RTVSPost2010Prop56
140
1.0
102
RTVSPost2010PropOp56
 70
     1
102
RTVSPost2010Prop57
140
1.0
102
RTVSPost2010PropOp57
 70
     1
  0
XRECORD
  5
903DC
102
{ACAD_REACTORS
330
87B0E
102
}
330
87B0E
100
AcDbXrecord
280
     1
102
RTVSPropertyOp0
 70
     1
102
RTVSPropertyOp1
 70
     1
102
RTVSPropertyOp2
 70
     1
102
RTVSPropertyOp3
 70
     1
102
RTVSPropertyOp4
 70
     1
102
RTVSPropertyOp5
 70
     1
102
RTVSPropertyOp6
 70
     1
102
RTVSPropertyOp7
 70
     1
102
RTVSPropertyOp8
 70
     1
102
RTVSPropertyOp9
 70
     1
102
RTVSPropertyOp10
 70
     1
102
RTVSPropertyOp11
 70
     1
102
RTVSPropertyOp12
 70
     1
102
RTVSPropertyOp13
 70
     1
102
RTVSPropertyOp14
 70
     1
102
RTVSPropertyOp15
 70
     1
102
RTVSPropertyOp16
 70
     1
102
RTVSPropertyOp17
 70
     1
102
RTVSPropertyOp18
 70
     1
102
RTVSPropertyOp19
 70
     1
102
RTVSPropertyOp20
 70
     1
102
RTVSPropertyOp21
 70
     1
102
RTVSPropertyOp22
 70
     1
102
RTVSPropertyOp23
 70
     1
102
RTVSPropertyOp24
 70
     1
102
RTVSPropertyOp25
 70
     1
102
RTVSPropertyOp26
 70
     1
102
RTVSPropertyOp27
 70
     1
102
RTVSPropertyOp28
 70
     1
102
RTVSPropertyOp29
 70
     1
102
RTVSPropertyOp30
 70
     1
102
RTVSPropertyOp31
 70
     1
102
RTVSPropertyOp32
 70
     1
102
RTVSPropertyOp33
 70
     1
102
RTVSPropertyOp34
 70
     1
102
RTVSPropertyOp35
 70
     1
102
RTVSPropertyOp36
 70
     1
102
RTVSPropertyOp37
 70
     1
102
RTVSPropertyOp38
 70
     1
102
RTVSPropertyOp39
 70
     1
102
RTVSPropertyOp40
 70
     1
102
RTVSPropertyOp41
 70
     1
102
RTVSPropertyOp42
 70
     1
102
RTVSPropertyOp43
 70
     1
102
RTVSPropertyOp44
 70
     1
102
RTVSPropertyOp45
 70
     1
102
RTVSPropertyOp46
 70
     1
102
RTVSPropertyOp47
 70
     1
102
RTVSPropertyOp48
 70
     1
102
RTVSPropertyOp49
 70
     1
102
RTVSPropertyOp50
 70
     1
102
RTVSPropertyOp51
 70
     0
102
RTVSPropertyOp52
 70
     0
102
RTVSPropertyOp53
 70
     1
102
RTVSPropertyOp54
 70
     1
102
RTVSPropertyOp55
 70
     1
102
RTVSPropertyOp56
 70
     1
102
RTVSPropertyOp57
 70
     1
102
RTVSPost2010Prop28
280
     0
102
RTVSPost2010PropOp28
 70
     1
102
RTVSPost2010Prop29
280
     1
102
RTVSPost2010PropOp29
 70
     1
102
RTVSPost2010Prop30
280
     1
102
RTVSPost2010PropOp30
 70
     1
102
RTVSPost2010Prop31
280
     0
102
RTVSPost2010PropOp31
 70
     1
102
RTVSPost2010Prop32
280
     0
102
RTVSPost2010PropOp32
 70
     1
102
RTVSPost2010Prop33
280
     0
102
RTVSPost2010PropOp33
 70
     1
102
RTVSPost2010Prop34
280
     0
102
RTVSPost2010PropOp34
 70
     1
102
RTVSPost2010Prop35
280
     0
102
RTVSPost2010PropOp35
 70
     1
102
RTVSPost2010Prop36
280
     0
102
RTVSPost2010PropOp36
 70
     1
102
RTVSPost2010Prop37
 90
       50
102
RTVSPost2010PropOp37
 70
     1
102
RTVSPost2010Prop38
140
0.0
102
RTVSPost2010PropOp38
 70
     1
102
RTVSPost2010Prop39
140
1.0
102
RTVSPost2010PropOp39
 70
     1
102
RTVSPost2010Prop40
 90
        0
102
RTVSPost2010PropOp40
 70
     1
102
RTVSPost2010Prop41ColorIndex
 90
       18
102
RTVSPost2010Prop41ColorRGB
 90
        0
102
RTVSPost2010PropOp41
 70
     1
102
RTVSPost2010Prop42
 90
       50
102
RTVSPost2010PropOp42
 70
     1
102
RTVSPost2010Prop43
 90
        3
102
RTVSPost2010PropOp43
 70
     1
102
RTVSPost2010Prop44ColorIndex
 90
        5
102
RTVSPost2010Prop44ColorRGB
 90
      255
102
RTVSPost2010PropOp44
 70
     1
102
RTVSPost2010Prop45
280
     0
102
RTVSPost2010PropOp45
 70
     1
102
RTVSPost2010Prop46
 90
       50
102
RTVSPost2010PropOp46
 70
     1
102
RTVSPost2010Prop47
 90
       50
102
RTVSPost2010PropOp47
 70
     1
102
RTVSPost2010Prop48
 90
       50
102
RTVSPost2010PropOp48
 70
     1
102
RTVSPost2010Prop49
280
     0
102
RTVSPost2010PropOp49
 70
     1
102
RTVSPost2010Prop50
 90
       50
102
RTVSPost2010PropOp50
 70
     1
102
RTVSPost2010Prop51ColorIndex
 90
      256
102
RTVSPost2010Prop51ColorRGB
 90
-16777216
102
RTVSPost2010PropOp51
 70
     0
102
RTVSPost2010Prop52
140
1.0
102
RTVSPost2010PropOp52
 70
     0
102
RTVSPost2010Prop53
 90
        2
102
RTVSPost2010PropOp53
 70
     1
102
RTVSPost2010Prop54
  1
strokes_ogs.tif
102
RTVSPost2010PropOp54
 70
     1
102
RTVSPost2010Prop55
280
     0
102
RTVSPost2010PropOp55
 70
     1
102
RTVSPost2010Prop56
140
1.0
102
RTVSPost2010PropOp56
 70
     1
102
RTVSPost2010Prop57
140
1.0
102
RTVSPost2010PropOp57
 70
     1
  0
XRECORD
  5
903DD
102
{ACAD_REACTORS
330
87B10
102
}
330
87B10
100
AcDbXrecord
280
     1
102
RTVSPropertyOp0
 70
     1
102
RTVSPropertyOp1
 70
     1
102
RTVSPropertyOp2
 70
     1
102
RTVSPropertyOp3
 70
     1
102
RTVSPropertyOp4
 70
     1
102
RTVSPropertyOp5
 70
     1
102
RTVSPropertyOp6
 70
     1
102
RTVSPropertyOp7
 70
     1
102
RTVSPropertyOp8
 70
     1
102
RTVSPropertyOp9
 70
     1
102
RTVSPropertyOp10
 70
     1
102
RTVSPropertyOp11
 70
     1
102
RTVSPropertyOp12
 70
     1
102
RTVSPropertyOp13
 70
     1
102
RTVSPropertyOp14
 70
     1
102
RTVSPropertyOp15
 70
     1
102
RTVSPropertyOp16
 70
     1
102
RTVSPropertyOp17
 70
     1
102
RTVSPropertyOp18
 70
     1
102
RTVSPropertyOp19
 70
     1
102
RTVSPropertyOp20
 70
     1
102
RTVSPropertyOp21
 70
     1
102
RTVSPropertyOp22
 70
     1
102
RTVSPropertyOp23
 70
     1
102
RTVSPropertyOp24
 70
     1
102
RTVSPropertyOp25
 70
     1
102
RTVSPropertyOp26
 70
     1
102
RTVSPropertyOp27
 70
     1
102
RTVSPropertyOp28
 70
     1
102
RTVSPropertyOp29
 70
     1
102
RTVSPropertyOp30
 70
     1
102
RTVSPropertyOp31
 70
     1
102
RTVSPropertyOp32
 70
     1
102
RTVSPropertyOp33
 70
     1
102
RTVSPropertyOp34
 70
     1
102
RTVSPropertyOp35
 70
     1
102
RTVSPropertyOp36
 70
     1
102
RTVSPropertyOp37
 70
     1
102
RTVSPropertyOp38
 70
     1
102
RTVSPropertyOp39
 70
     1
102
RTVSPropertyOp40
 70
     1
102
RTVSPropertyOp41
 70
     1
102
RTVSPropertyOp42
 70
     1
102
RTVSPropertyOp43
 70
     1
102
RTVSPropertyOp44
 70
     1
102
RTVSPropertyOp45
 70
     1
102
RTVSPropertyOp46
 70
     1
102
RTVSPropertyOp47
 70
     1
102
RTVSPropertyOp48
 70
     1
102
RTVSPropertyOp49
 70
     1
102
RTVSPropertyOp50
 70
     1
102
RTVSPropertyOp51
 70
     0
102
RTVSPropertyOp52
 70
     0
102
RTVSPropertyOp53
 70
     1
102
RTVSPropertyOp54
 70
     1
102
RTVSPropertyOp55
 70
     1
102
RTVSPropertyOp56
 70
     1
102
RTVSPropertyOp57
 70
     1
102
RTVSPost2010Prop28
280
     0
102
RTVSPost2010PropOp28
 70
     1
102
RTVSPost2010Prop29
280
     1
102
RTVSPost2010PropOp29
 70
     1
102
RTVSPost2010Prop30
280
     1
102
RTVSPost2010PropOp30
 70
     1
102
RTVSPost2010Prop31
280
     0
102
RTVSPost2010PropOp31
 70
     1
102
RTVSPost2010Prop32
280
     0
102
RTVSPost2010PropOp32
 70
     1
102
RTVSPost2010Prop33
280
     0
102
RTVSPost2010PropOp33
 70
     1
102
RTVSPost2010Prop34
280
     0
102
RTVSPost2010PropOp34
 70
     1
102
RTVSPost2010Prop35
280
     0
102
RTVSPost2010PropOp35
 70
     1
102
RTVSPost2010Prop36
280
     0
102
RTVSPost2010PropOp36
 70
     1
102
RTVSPost2010Prop37
 90
       50
102
RTVSPost2010PropOp37
 70
     1
102
RTVSPost2010Prop38
140
0.0
102
RTVSPost2010PropOp38
 70
     1
102
RTVSPost2010Prop39
140
1.0
102
RTVSPost2010PropOp39
 70
     1
102
RTVSPost2010Prop40
 90
        0
102
RTVSPost2010PropOp40
 70
     1
102
RTVSPost2010Prop41ColorIndex
 90
       18
102
RTVSPost2010Prop41ColorRGB
 90
        0
102
RTVSPost2010PropOp41
 70
     1
102
RTVSPost2010Prop42
 90
       50
102
RTVSPost2010PropOp42
 70
     1
102
RTVSPost2010Prop43
 90
        3
102
RTVSPost2010PropOp43
 70
     1
102
RTVSPost2010Prop44ColorIndex
 90
        5
102
RTVSPost2010Prop44ColorRGB
 90
      255
102
RTVSPost2010PropOp44
 70
     1
102
RTVSPost2010Prop45
280
     0
102
RTVSPost2010PropOp45
 70
     1
102
RTVSPost2010Prop46
 90
       50
102
RTVSPost2010PropOp46
 70
     1
102
RTVSPost2010Prop47
 90
       50
102
RTVSPost2010PropOp47
 70
     1
102
RTVSPost2010Prop48
 90
       50
102
RTVSPost2010PropOp48
 70
     1
102
RTVSPost2010Prop49
280
     0
102
RTVSPost2010PropOp49
 70
     1
102
RTVSPost2010Prop50
 90
       50
102
RTVSPost2010PropOp50
 70
     1
102
RTVSPost2010Prop51ColorIndex
 90
      256
102
RTVSPost2010Prop51ColorRGB
 90
-16777216
102
RTVSPost2010PropOp51
 70
     0
102
RTVSPost2010Prop52
140
1.0
102
RTVSPost2010PropOp52
 70
     0
102
RTVSPost2010Prop53
 90
        2
102
RTVSPost2010PropOp53
 70
     1
102
RTVSPost2010Prop54
  1
strokes_ogs.tif
102
RTVSPost2010PropOp54
 70
     1
102
RTVSPost2010Prop55
280
     0
102
RTVSPost2010PropOp55
 70
     1
102
RTVSPost2010Prop56
140
1.0
102
RTVSPost2010PropOp56
 70
     1
102
RTVSPost2010Prop57
140
1.0
102
RTVSPost2010PropOp57
 70
     1
  0
XRECORD
  5
903DE
102
{ACAD_REACTORS
330
87B12
102
}
330
87B12
100
AcDbXrecord
280
     1
102
RTVSPropertyOp0
 70
     1
102
RTVSPropertyOp1
 70
     1
102
RTVSPropertyOp2
 70
     1
102
RTVSPropertyOp3
 70
     1
102
RTVSPropertyOp4
 70
     1
102
RTVSPropertyOp5
 70
     1
102
RTVSPropertyOp6
 70
     1
102
RTVSPropertyOp7
 70
     1
102
RTVSPropertyOp8
 70
     1
102
RTVSPropertyOp9
 70
     1
102
RTVSPropertyOp10
 70
     1
102
RTVSPropertyOp11
 70
     1
102
RTVSPropertyOp12
 70
     1
102
RTVSPropertyOp13
 70
     1
102
RTVSPropertyOp14
 70
     1
102
RTVSPropertyOp15
 70
     1
102
RTVSPropertyOp16
 70
     1
102
RTVSPropertyOp17
 70
     1
102
RTVSPropertyOp18
 70
     1
102
RTVSPropertyOp19
 70
     1
102
RTVSPropertyOp20
 70
     1
102
RTVSPropertyOp21
 70
     1
102
RTVSPropertyOp22
 70
     1
102
RTVSPropertyOp23
 70
     1
102
RTVSPropertyOp24
 70
     1
102
RTVSPropertyOp25
 70
     1
102
RTVSPropertyOp26
 70
     1
102
RTVSPropertyOp27
 70
     1
102
RTVSPropertyOp28
 70
     1
102
RTVSPropertyOp29
 70
     1
102
RTVSPropertyOp30
 70
     1
102
RTVSPropertyOp31
 70
     1
102
RTVSPropertyOp32
 70
     1
102
RTVSPropertyOp33
 70
     1
102
RTVSPropertyOp34
 70
     1
102
RTVSPropertyOp35
 70
     1
102
RTVSPropertyOp36
 70
     1
102
RTVSPropertyOp37
 70
     1
102
RTVSPropertyOp38
 70
     1
102
RTVSPropertyOp39
 70
     1
102
RTVSPropertyOp40
 70
     1
102
RTVSPropertyOp41
 70
     1
102
RTVSPropertyOp42
 70
     1
102
RTVSPropertyOp43
 70
     1
102
RTVSPropertyOp44
 70
     1
102
RTVSPropertyOp45
 70
     1
102
RTVSPropertyOp46
 70
     1
102
RTVSPropertyOp47
 70
     1
102
RTVSPropertyOp48
 70
     1
102
RTVSPropertyOp49
 70
     1
102
RTVSPropertyOp50
 70
     1
102
RTVSPropertyOp51
 70
     0
102
RTVSPropertyOp52
 70
     0
102
RTVSPropertyOp53
 70
     1
102
RTVSPropertyOp54
 70
     1
102
RTVSPropertyOp55
 70
     1
102
RTVSPropertyOp56
 70
     1
102
RTVSPropertyOp57
 70
     1
102
RTVSPost2010Prop28
280
     0
102
RTVSPost2010PropOp28
 70
     1
102
RTVSPost2010Prop29
280
     1
102
RTVSPost2010PropOp29
 70
     1
102
RTVSPost2010Prop30
280
     1
102
RTVSPost2010PropOp30
 70
     1
102
RTVSPost2010Prop31
280
     0
102
RTVSPost2010PropOp31
 70
     1
102
RTVSPost2010Prop32
280
     0
102
RTVSPost2010PropOp32
 70
     1
102
RTVSPost2010Prop33
280
     0
102
RTVSPost2010PropOp33
 70
     1
102
RTVSPost2010Prop34
280
     0
102
RTVSPost2010PropOp34
 70
     1
102
RTVSPost2010Prop35
280
     0
102
RTVSPost2010PropOp35
 70
     1
102
RTVSPost2010Prop36
280
     0
102
RTVSPost2010PropOp36
 70
     1
102
RTVSPost2010Prop37
 90
       50
102
RTVSPost2010PropOp37
 70
     1
102
RTVSPost2010Prop38
140
0.0
102
RTVSPost2010PropOp38
 70
     1
102
RTVSPost2010Prop39
140
1.0
102
RTVSPost2010PropOp39
 70
     1
102
RTVSPost2010Prop40
 90
        0
102
RTVSPost2010PropOp40
 70
     1
102
RTVSPost2010Prop41ColorIndex
 90
       18
102
RTVSPost2010Prop41ColorRGB
 90
        0
102
RTVSPost2010PropOp41
 70
     1
102
RTVSPost2010Prop42
 90
       50
102
RTVSPost2010PropOp42
 70
     1
102
RTVSPost2010Prop43
 90
        3
102
RTVSPost2010PropOp43
 70
     1
102
RTVSPost2010Prop44ColorIndex
 90
        5
102
RTVSPost2010Prop44ColorRGB
 90
      255
102
RTVSPost2010PropOp44
 70
     1
102
RTVSPost2010Prop45
280
     0
102
RTVSPost2010PropOp45
 70
     1
102
RTVSPost2010Prop46
 90
       50
102
RTVSPost2010PropOp46
 70
     1
102
RTVSPost2010Prop47
 90
       50
102
RTVSPost2010PropOp47
 70
     1
102
RTVSPost2010Prop48
 90
       50
102
RTVSPost2010PropOp48
 70
     1
102
RTVSPost2010Prop49
280
     0
102
RTVSPost2010PropOp49
 70
     1
102
RTVSPost2010Prop50
 90
       50
102
RTVSPost2010PropOp50
 70
     1
102
RTVSPost2010Prop51ColorIndex
 90
      256
102
RTVSPost2010Prop51ColorRGB
 90
-16777216
102
RTVSPost2010PropOp51
 70
     0
102
RTVSPost2010Prop52
140
1.0
102
RTVSPost2010PropOp52
 70
     0
102
RTVSPost2010Prop53
 90
        2
102
RTVSPost2010PropOp53
 70
     1
102
RTVSPost2010Prop54
  1
strokes_ogs.tif
102
RTVSPost2010PropOp54
 70
     1
102
RTVSPost2010Prop55
280
     0
102
RTVSPost2010PropOp55
 70
     1
102
RTVSPost2010Prop56
140
1.0
102
RTVSPost2010PropOp56
 70
     1
102
RTVSPost2010Prop57
140
1.0
102
RTVSPost2010PropOp57
 70
     1
  0
XRECORD
  5
903DF
102
{ACAD_REACTORS
330
87B14
102
}
330
87B14
100
AcDbXrecord
280
     1
102
RTVSPropertyOp0
 70
     1
102
RTVSPropertyOp1
 70
     1
102
RTVSPropertyOp2
 70
     1
102
RTVSPropertyOp3
 70
     1
102
RTVSPropertyOp4
 70
     1
102
RTVSPropertyOp5
 70
     1
102
RTVSPropertyOp6
 70
     1
102
RTVSPropertyOp7
 70
     1
102
RTVSPropertyOp8
 70
     1
102
RTVSPropertyOp9
 70
     1
102
RTVSPropertyOp10
 70
     1
102
RTVSPropertyOp11
 70
     1
102
RTVSPropertyOp12
 70
     1
102
RTVSPropertyOp13
 70
     1
102
RTVSPropertyOp14
 70
     1
102
RTVSPropertyOp15
 70
     1
102
RTVSPropertyOp16
 70
     1
102
RTVSPropertyOp17
 70
     1
102
RTVSPropertyOp18
 70
     1
102
RTVSPropertyOp19
 70
     1
102
RTVSPropertyOp20
 70
     1
102
RTVSPropertyOp21
 70
     1
102
RTVSPropertyOp22
 70
     1
102
RTVSPropertyOp23
 70
     1
102
RTVSPropertyOp24
 70
     1
102
RTVSPropertyOp25
 70
     1
102
RTVSPropertyOp26
 70
     1
102
RTVSPropertyOp27
 70
     1
102
RTVSPropertyOp28
 70
     1
102
RTVSPropertyOp29
 70
     1
102
RTVSPropertyOp30
 70
     1
102
RTVSPropertyOp31
 70
     1
102
RTVSPropertyOp32
 70
     1
102
RTVSPropertyOp33
 70
     1
102
RTVSPropertyOp34
 70
     1
102
RTVSPropertyOp35
 70
     1
102
RTVSPropertyOp36
 70
     1
102
RTVSPropertyOp37
 70
     1
102
RTVSPropertyOp38
 70
     1
102
RTVSPropertyOp39
 70
     1
102
RTVSPropertyOp40
 70
     1
102
RTVSPropertyOp41
 70
     1
102
RTVSPropertyOp42
 70
     1
102
RTVSPropertyOp43
 70
     1
102
RTVSPropertyOp44
 70
     1
102
RTVSPropertyOp45
 70
     1
102
RTVSPropertyOp46
 70
     1
102
RTVSPropertyOp47
 70
     1
102
RTVSPropertyOp48
 70
     1
102
RTVSPropertyOp49
 70
     1
102
RTVSPropertyOp50
 70
     1
102
RTVSPropertyOp51
 70
     0
102
RTVSPropertyOp52
 70
     0
102
RTVSPropertyOp53
 70
     1
102
RTVSPropertyOp54
 70
     1
102
RTVSPropertyOp55
 70
     1
102
RTVSPropertyOp56
 70
     1
102
RTVSPropertyOp57
 70
     1
102
RTVSPost2010Prop28
280
     0
102
RTVSPost2010PropOp28
 70
     1
102
RTVSPost2010Prop29
280
     1
102
RTVSPost2010PropOp29
 70
     1
102
RTVSPost2010Prop30
280
     1
102
RTVSPost2010PropOp30
 70
     1
102
RTVSPost2010Prop31
280
     0
102
RTVSPost2010PropOp31
 70
     1
102
RTVSPost2010Prop32
280
     0
102
RTVSPost2010PropOp32
 70
     1
102
RTVSPost2010Prop33
280
     0
102
RTVSPost2010PropOp33
 70
     1
102
RTVSPost2010Prop34
280
     0
102
RTVSPost2010PropOp34
 70
     1
102
RTVSPost2010Prop35
280
     0
102
RTVSPost2010PropOp35
 70
     1
102
RTVSPost2010Prop36
280
     0
102
RTVSPost2010PropOp36
 70
     1
102
RTVSPost2010Prop37
 90
       50
102
RTVSPost2010PropOp37
 70
     1
102
RTVSPost2010Prop38
140
0.0
102
RTVSPost2010PropOp38
 70
     1
102
RTVSPost2010Prop39
140
1.0
102
RTVSPost2010PropOp39
 70
     1
102
RTVSPost2010Prop40
 90
        0
102
RTVSPost2010PropOp40
 70
     1
102
RTVSPost2010Prop41ColorIndex
 90
       18
102
RTVSPost2010Prop41ColorRGB
 90
        0
102
RTVSPost2010PropOp41
 70
     1
102
RTVSPost2010Prop42
 90
       50
102
RTVSPost2010PropOp42
 70
     1
102
RTVSPost2010Prop43
 90
        3
102
RTVSPost2010PropOp43
 70
     1
102
RTVSPost2010Prop44ColorIndex
 90
        5
102
RTVSPost2010Prop44ColorRGB
 90
      255
102
RTVSPost2010PropOp44
 70
     1
102
RTVSPost2010Prop45
280
     0
102
RTVSPost2010PropOp45
 70
     1
102
RTVSPost2010Prop46
 90
       50
102
RTVSPost2010PropOp46
 70
     1
102
RTVSPost2010Prop47
 90
       50
102
RTVSPost2010PropOp47
 70
     1
102
RTVSPost2010Prop48
 90
       50
102
RTVSPost2010PropOp48
 70
     1
102
RTVSPost2010Prop49
280
     0
102
RTVSPost2010PropOp49
 70
     1
102
RTVSPost2010Prop50
 90
       50
102
RTVSPost2010PropOp50
 70
     1
102
RTVSPost2010Prop51ColorIndex
 90
      256
102
RTVSPost2010Prop51ColorRGB
 90
-16777216
102
RTVSPost2010PropOp51
 70
     0
102
RTVSPost2010Prop52
140
1.0
102
RTVSPost2010PropOp52
 70
     0
102
RTVSPost2010Prop53
 90
        2
102
RTVSPost2010PropOp53
 70
     1
102
RTVSPost2010Prop54
  1
strokes_ogs.tif
102
RTVSPost2010PropOp54
 70
     1
102
RTVSPost2010Prop55
280
     0
102
RTVSPost2010PropOp55
 70
     1
102
RTVSPost2010Prop56
140
1.0
102
RTVSPost2010PropOp56
 70
     1
102
RTVSPost2010Prop57
140
1.0
102
RTVSPost2010PropOp57
 70
     1
  0
XRECORD
  5
903E0
102
{ACAD_REACTORS
330
87B1C
102
}
330
87B1C
100
AcDbXrecord
280
     1
102
RTVSPropertyOp0
 70
     1
102
RTVSPropertyOp1
 70
     1
102
RTVSPropertyOp2
 70
     1
102
RTVSPropertyOp3
 70
     1
102
RTVSPropertyOp4
 70
     1
102
RTVSPropertyOp5
 70
     1
102
RTVSPropertyOp6
 70
     1
102
RTVSPropertyOp7
 70
     1
102
RTVSPropertyOp8
 70
     1
102
RTVSPropertyOp9
 70
     1
102
RTVSPropertyOp10
 70
     1
102
RTVSPropertyOp11
 70
     1
102
RTVSPropertyOp12
 70
     1
102
RTVSPropertyOp13
 70
     1
102
RTVSPropertyOp14
 70
     1
102
RTVSPropertyOp15
 70
     1
102
RTVSPropertyOp16
 70
     1
102
RTVSPropertyOp17
 70
     1
102
RTVSPropertyOp18
 70
     1
102
RTVSPropertyOp19
 70
     1
102
RTVSPropertyOp20
 70
     1
102
RTVSPropertyOp21
 70
     1
102
RTVSPropertyOp22
 70
     1
102
RTVSPropertyOp23
 70
     1
102
RTVSPropertyOp24
 70
     1
102
RTVSPropertyOp25
 70
     1
102
RTVSPropertyOp26
 70
     1
102
RTVSPropertyOp27
 70
     1
102
RTVSPropertyOp28
 70
     1
102
RTVSPropertyOp29
 70
     1
102
RTVSPropertyOp30
 70
     1
102
RTVSPropertyOp31
 70
     1
102
RTVSPropertyOp32
 70
     1
102
RTVSPropertyOp33
 70
     1
102
RTVSPropertyOp34
 70
     1
102
RTVSPropertyOp35
 70
     1
102
RTVSPropertyOp36
 70
     1
102
RTVSPropertyOp37
 70
     1
102
RTVSPropertyOp38
 70
     1
102
RTVSPropertyOp39
 70
     1
102
RTVSPropertyOp40
 70
     1
102
RTVSPropertyOp41
 70
     1
102
RTVSPropertyOp42
 70
     1
102
RTVSPropertyOp43
 70
     1
102
RTVSPropertyOp44
 70
     1
102
RTVSPropertyOp45
 70
     1
102
RTVSPropertyOp46
 70
     1
102
RTVSPropertyOp47
 70
     1
102
RTVSPropertyOp48
 70
     1
102
RTVSPropertyOp49
 70
     1
102
RTVSPropertyOp50
 70
     1
102
RTVSPropertyOp51
 70
     0
102
RTVSPropertyOp52
 70
     0
102
RTVSPropertyOp53
 70
     1
102
RTVSPropertyOp54
 70
     1
102
RTVSPropertyOp55
 70
     1
102
RTVSPropertyOp56
 70
     1
102
RTVSPropertyOp57
 70
     1
102
RTVSPost2010Prop28
280
     0
102
RTVSPost2010PropOp28
 70
     1
102
RTVSPost2010Prop29
280
     1
102
RTVSPost2010PropOp29
 70
     1
102
RTVSPost2010Prop30
280
     1
102
RTVSPost2010PropOp30
 70
     1
102
RTVSPost2010Prop31
280
     0
102
RTVSPost2010PropOp31
 70
     1
102
RTVSPost2010Prop32
280
     0
102
RTVSPost2010PropOp32
 70
     1
102
RTVSPost2010Prop33
280
     0
102
RTVSPost2010PropOp33
 70
     1
102
RTVSPost2010Prop34
280
     0
102
RTVSPost2010PropOp34
 70
     1
102
RTVSPost2010Prop35
280
     0
102
RTVSPost2010PropOp35
 70
     1
102
RTVSPost2010Prop36
280
     0
102
RTVSPost2010PropOp36
 70
     1
102
RTVSPost2010Prop37
 90
       50
102
RTVSPost2010PropOp37
 70
     1
102
RTVSPost2010Prop38
140
0.0
102
RTVSPost2010PropOp38
 70
     1
102
RTVSPost2010Prop39
140
1.0
102
RTVSPost2010PropOp39
 70
     1
102
RTVSPost2010Prop40
 90
        0
102
RTVSPost2010PropOp40
 70
     1
102
RTVSPost2010Prop41ColorIndex
 90
       18
102
RTVSPost2010Prop41ColorRGB
 90
        0
102
RTVSPost2010PropOp41
 70
     1
102
RTVSPost2010Prop42
 90
       50
102
RTVSPost2010PropOp42
 70
     1
102
RTVSPost2010Prop43
 90
        3
102
RTVSPost2010PropOp43
 70
     1
102
RTVSPost2010Prop44ColorIndex
 90
        5
102
RTVSPost2010Prop44ColorRGB
 90
      255
102
RTVSPost2010PropOp44
 70
     1
102
RTVSPost2010Prop45
280
     0
102
RTVSPost2010PropOp45
 70
     1
102
RTVSPost2010Prop46
 90
       50
102
RTVSPost2010PropOp46
 70
     1
102
RTVSPost2010Prop47
 90
       50
102
RTVSPost2010PropOp47
 70
     1
102
RTVSPost2010Prop48
 90
       50
102
RTVSPost2010PropOp48
 70
     1
102
RTVSPost2010Prop49
280
     0
102
RTVSPost2010PropOp49
 70
     1
102
RTVSPost2010Prop50
 90
       50
102
RTVSPost2010PropOp50
 70
     1
102
RTVSPost2010Prop51ColorIndex
 90
      256
102
RTVSPost2010Prop51ColorRGB
 90
-16777216
102
RTVSPost2010PropOp51
 70
     0
102
RTVSPost2010Prop52
140
1.0
102
RTVSPost2010PropOp52
 70
     0
102
RTVSPost2010Prop53
 90
        2
102
RTVSPost2010PropOp53
 70
     1
102
RTVSPost2010Prop54
  1
strokes_ogs.tif
102
RTVSPost2010PropOp54
 70
     1
102
RTVSPost2010Prop55
280
     0
102
RTVSPost2010PropOp55
 70
     1
102
RTVSPost2010Prop56
140
1.0
102
RTVSPost2010PropOp56
 70
     1
102
RTVSPost2010Prop57
140
1.0
102
RTVSPost2010PropOp57
 70
     1
  0
XRECORD
  5
903E1
102
{ACAD_REACTORS
330
87B38
102
}
330
87B38
100
AcDbXrecord
280
     1
102
RTVSPropertyOp0
 70
     0
102
RTVSPropertyOp1
 70
     0
102
RTVSPropertyOp2
 70
     0
102
RTVSPropertyOp3
 70
     0
102
RTVSPropertyOp4
 70
     0
102
RTVSPropertyOp5
 70
     0
102
RTVSPropertyOp6
 70
     0
102
RTVSPropertyOp7
 70
     0
102
RTVSPropertyOp8
 70
     0
102
RTVSPropertyOp9
 70
     0
102
RTVSPropertyOp10
 70
     0
102
RTVSPropertyOp11
 70
     0
102
RTVSPropertyOp12
 70
     0
102
RTVSPropertyOp13
 70
     0
102
RTVSPropertyOp14
 70
     2
102
RTVSPropertyOp15
 70
     0
102
RTVSPropertyOp16
 70
     0
102
RTVSPropertyOp17
 70
     0
102
RTVSPropertyOp18
 70
     0
102
RTVSPropertyOp19
 70
     0
102
RTVSPropertyOp20
 70
     0
102
RTVSPropertyOp21
 70
     0
102
RTVSPropertyOp22
 70
     0
102
RTVSPropertyOp23
 70
     0
102
RTVSPropertyOp24
 70
     0
102
RTVSPropertyOp25
 70
     0
102
RTVSPropertyOp26
 70
     0
102
RTVSPropertyOp27
 70
     0
102
RTVSPropertyOp28
 70
     1
102
RTVSPropertyOp29
 70
     1
102
RTVSPropertyOp30
 70
     1
102
RTVSPropertyOp31
 70
     1
102
RTVSPropertyOp32
 70
     1
102
RTVSPropertyOp33
 70
     1
102
RTVSPropertyOp34
 70
     1
102
RTVSPropertyOp35
 70
     1
102
RTVSPropertyOp36
 70
     1
102
RTVSPropertyOp37
 70
     0
102
RTVSPropertyOp38
 70
     0
102
RTVSPropertyOp39
 70
     0
102
RTVSPropertyOp40
 70
     0
102
RTVSPropertyOp41
 70
     0
102
RTVSPropertyOp42
 70
     0
102
RTVSPropertyOp43
 70
     0
102
RTVSPropertyOp44
 70
     0
102
RTVSPropertyOp45
 70
     1
102
RTVSPropertyOp46
 70
     0
102
RTVSPropertyOp47
 70
     0
102
RTVSPropertyOp48
 70
     0
102
RTVSPropertyOp49
 70
     1
102
RTVSPropertyOp50
 70
     0
102
RTVSPropertyOp51
 70
     0
102
RTVSPropertyOp52
 70
     0
102
RTVSPropertyOp53
 70
     0
102
RTVSPropertyOp54
 70
     0
102
RTVSPropertyOp55
 70
     1
102
RTVSPropertyOp56
 70
     0
102
RTVSPropertyOp57
 70
     0
102
RTVSPost2010Prop28
280
     0
102
RTVSPost2010PropOp28
 70
     1
102
RTVSPost2010Prop29
280
     1
102
RTVSPost2010PropOp29
 70
     1
102
RTVSPost2010Prop30
280
     1
102
RTVSPost2010PropOp30
 70
     1
102
RTVSPost2010Prop31
280
     0
102
RTVSPost2010PropOp31
 70
     1
102
RTVSPost2010Prop32
280
     0
102
RTVSPost2010PropOp32
 70
     1
102
RTVSPost2010Prop33
280
     0
102
RTVSPost2010PropOp33
 70
     1
102
RTVSPost2010Prop34
280
     0
102
RTVSPost2010PropOp34
 70
     1
102
RTVSPost2010Prop35
280
     0
102
RTVSPost2010PropOp35
 70
     1
102
RTVSPost2010Prop36
280
     0
102
RTVSPost2010PropOp36
 70
     1
102
RTVSPost2010Prop37
 90
       50
102
RTVSPost2010PropOp37
 70
     0
102
RTVSPost2010Prop38
140
0.0
102
RTVSPost2010PropOp38
 70
     0
102
RTVSPost2010Prop39
140
1.0
102
RTVSPost2010PropOp39
 70
     0
102
RTVSPost2010Prop40
 90
        0
102
RTVSPost2010PropOp40
 70
     0
102
RTVSPost2010Prop41ColorIndex
 90
       18
102
RTVSPost2010Prop41ColorRGB
 90
        0
102
RTVSPost2010PropOp41
 70
     0
102
RTVSPost2010Prop42
 90
       50
102
RTVSPost2010PropOp42
 70
     0
102
RTVSPost2010Prop43
 90
        3
102
RTVSPost2010PropOp43
 70
     0
102
RTVSPost2010Prop44ColorIndex
 90
        5
102
RTVSPost2010Prop44ColorRGB
 90
      255
102
RTVSPost2010PropOp44
 70
     0
102
RTVSPost2010Prop45
280
     0
102
RTVSPost2010PropOp45
 70
     1
102
RTVSPost2010Prop46
 90
       50
102
RTVSPost2010PropOp46
 70
     0
102
RTVSPost2010Prop47
 90
       50
102
RTVSPost2010PropOp47
 70
     0
102
RTVSPost2010Prop48
 90
       50
102
RTVSPost2010PropOp48
 70
     0
102
RTVSPost2010Prop49
280
     0
102
RTVSPost2010PropOp49
 70
     1
102
RTVSPost2010Prop50
 90
       50
102
RTVSPost2010PropOp50
 70
     0
102
RTVSPost2010Prop51ColorIndex
 90
      256
102
RTVSPost2010Prop51ColorRGB
 90
-16777216
102
RTVSPost2010PropOp51
 70
     0
102
RTVSPost2010Prop52
140
1.0
102
RTVSPost2010PropOp52
 70
     0
102
RTVSPost2010Prop53
 90
        2
102
RTVSPost2010PropOp53
 70
     0
102
RTVSPost2010Prop54
  1
strokes_ogs.tif
102
RTVSPost2010PropOp54
 70
     0
102
RTVSPost2010Prop55
280
     0
102
RTVSPost2010PropOp55
 70
     1
102
RTVSPost2010Prop56
140
1.0
102
RTVSPost2010PropOp56
 70
     0
102
RTVSPost2010Prop57
140
1.0
102
RTVSPost2010PropOp57
 70
     0
  0
XRECORD
  5
903E2
102
{ACAD_REACTORS
330
87B28
102
}
330
87B28
100
AcDbXrecord
280
     1
102
RTVSPropertyOp0
 70
     1
102
RTVSPropertyOp1
 70
     1
102
RTVSPropertyOp2
 70
     1
102
RTVSPropertyOp3
 70
     1
102
RTVSPropertyOp4
 70
     1
102
RTVSPropertyOp5
 70
     1
102
RTVSPropertyOp6
 70
     1
102
RTVSPropertyOp7
 70
     1
102
RTVSPropertyOp8
 70
     1
102
RTVSPropertyOp9
 70
     1
102
RTVSPropertyOp10
 70
     1
102
RTVSPropertyOp11
 70
     1
102
RTVSPropertyOp12
 70
     1
102
RTVSPropertyOp13
 70
     1
102
RTVSPropertyOp14
 70
     1
102
RTVSPropertyOp15
 70
     1
102
RTVSPropertyOp16
 70
     1
102
RTVSPropertyOp17
 70
     1
102
RTVSPropertyOp18
 70
     1
102
RTVSPropertyOp19
 70
     1
102
RTVSPropertyOp20
 70
     1
102
RTVSPropertyOp21
 70
     1
102
RTVSPropertyOp22
 70
     1
102
RTVSPropertyOp23
 70
     1
102
RTVSPropertyOp24
 70
     1
102
RTVSPropertyOp25
 70
     1
102
RTVSPropertyOp26
 70
     1
102
RTVSPropertyOp27
 70
     1
102
RTVSPropertyOp28
 70
     1
102
RTVSPropertyOp29
 70
     1
102
RTVSPropertyOp30
 70
     1
102
RTVSPropertyOp31
 70
     1
102
RTVSPropertyOp32
 70
     1
102
RTVSPropertyOp33
 70
     1
102
RTVSPropertyOp34
 70
     1
102
RTVSPropertyOp35
 70
     1
102
RTVSPropertyOp36
 70
     1
102
RTVSPropertyOp37
 70
     1
102
RTVSPropertyOp38
 70
     1
102
RTVSPropertyOp39
 70
     1
102
RTVSPropertyOp40
 70
     1
102
RTVSPropertyOp41
 70
     1
102
RTVSPropertyOp42
 70
     1
102
RTVSPropertyOp43
 70
     1
102
RTVSPropertyOp44
 70
     1
102
RTVSPropertyOp45
 70
     1
102
RTVSPropertyOp46
 70
     1
102
RTVSPropertyOp47
 70
     1
102
RTVSPropertyOp48
 70
     1
102
RTVSPropertyOp49
 70
     1
102
RTVSPropertyOp50
 70
     1
102
RTVSPropertyOp51
 70
     0
102
RTVSPropertyOp52
 70
     0
102
RTVSPropertyOp53
 70
     1
102
RTVSPropertyOp54
 70
     1
102
RTVSPropertyOp55
 70
     1
102
RTVSPropertyOp56
 70
     1
102
RTVSPropertyOp57
 70
     1
102
RTVSPost2010Prop28
280
     0
102
RTVSPost2010PropOp28
 70
     1
102
RTVSPost2010Prop29
280
     1
102
RTVSPost2010PropOp29
 70
     1
102
RTVSPost2010Prop30
280
     1
102
RTVSPost2010PropOp30
 70
     1
102
RTVSPost2010Prop31
280
     0
102
RTVSPost2010PropOp31
 70
     1
102
RTVSPost2010Prop32
280
     0
102
RTVSPost2010PropOp32
 70
     1
102
RTVSPost2010Prop33
280
     0
102
RTVSPost2010PropOp33
 70
     1
102
RTVSPost2010Prop34
280
     0
102
RTVSPost2010PropOp34
 70
     1
102
RTVSPost2010Prop35
280
     0
102
RTVSPost2010PropOp35
 70
     1
102
RTVSPost2010Prop36
280
     0
102
RTVSPost2010PropOp36
 70
     1
102
RTVSPost2010Prop37
 90
       50
102
RTVSPost2010PropOp37
 70
     1
102
RTVSPost2010Prop38
140
0.0
102
RTVSPost2010PropOp38
 70
     1
102
RTVSPost2010Prop39
140
1.0
102
RTVSPost2010PropOp39
 70
     1
102
RTVSPost2010Prop40
 90
        0
102
RTVSPost2010PropOp40
 70
     1
102
RTVSPost2010Prop41ColorIndex
 90
       18
102
RTVSPost2010Prop41ColorRGB
 90
        0
102
RTVSPost2010PropOp41
 70
     1
102
RTVSPost2010Prop42
 90
       50
102
RTVSPost2010PropOp42
 70
     1
102
RTVSPost2010Prop43
 90
        3
102
RTVSPost2010PropOp43
 70
     1
102
RTVSPost2010Prop44ColorIndex
 90
        5
102
RTVSPost2010Prop44ColorRGB
 90
      255
102
RTVSPost2010PropOp44
 70
     1
102
RTVSPost2010Prop45
280
     0
102
RTVSPost2010PropOp45
 70
     1
102
RTVSPost2010Prop46
 90
       50
102
RTVSPost2010PropOp46
 70
     1
102
RTVSPost2010Prop47
 90
       50
102
RTVSPost2010PropOp47
 70
     1
102
RTVSPost2010Prop48
 90
       50
102
RTVSPost2010PropOp48
 70
     1
102
RTVSPost2010Prop49
280
     0
102
RTVSPost2010PropOp49
 70
     1
102
RTVSPost2010Prop50
 90
       50
102
RTVSPost2010PropOp50
 70
     1
102
RTVSPost2010Prop51ColorIndex
 90
      256
102
RTVSPost2010Prop51ColorRGB
 90
-16777216
102
RTVSPost2010PropOp51
 70
     0
102
RTVSPost2010Prop52
140
1.0
102
RTVSPost2010PropOp52
 70
     0
102
RTVSPost2010Prop53
 90
        2
102
RTVSPost2010PropOp53
 70
     1
102
RTVSPost2010Prop54
  1
strokes_ogs.tif
102
RTVSPost2010PropOp54
 70
     1
102
RTVSPost2010Prop55
280
     0
102
RTVSPost2010PropOp55
 70
     1
102
RTVSPost2010Prop56
140
1.0
102
RTVSPost2010PropOp56
 70
     1
102
RTVSPost2010Prop57
140
1.0
102
RTVSPost2010PropOp57
 70
     1
  0
XRECORD
  5
903E3
102
{ACAD_REACTORS
330
87B3A
102
}
330
87B3A
100
AcDbXrecord
280
     1
102
RTVSPropertyOp0
 70
     0
102
RTVSPropertyOp1
 70
     0
102
RTVSPropertyOp2
 70
     0
102
RTVSPropertyOp3
 70
     0
102
RTVSPropertyOp4
 70
     0
102
RTVSPropertyOp5
 70
     0
102
RTVSPropertyOp6
 70
     0
102
RTVSPropertyOp7
 70
     0
102
RTVSPropertyOp8
 70
     0
102
RTVSPropertyOp9
 70
     0
102
RTVSPropertyOp10
 70
     0
102
RTVSPropertyOp11
 70
     0
102
RTVSPropertyOp12
 70
     0
102
RTVSPropertyOp13
 70
     0
102
RTVSPropertyOp14
 70
     2
102
RTVSPropertyOp15
 70
     0
102
RTVSPropertyOp16
 70
     0
102
RTVSPropertyOp17
 70
     0
102
RTVSPropertyOp18
 70
     0
102
RTVSPropertyOp19
 70
     0
102
RTVSPropertyOp20
 70
     0
102
RTVSPropertyOp21
 70
     0
102
RTVSPropertyOp22
 70
     0
102
RTVSPropertyOp23
 70
     0
102
RTVSPropertyOp24
 70
     0
102
RTVSPropertyOp25
 70
     0
102
RTVSPropertyOp26
 70
     0
102
RTVSPropertyOp27
 70
     0
102
RTVSPropertyOp28
 70
     1
102
RTVSPropertyOp29
 70
     1
102
RTVSPropertyOp30
 70
     1
102
RTVSPropertyOp31
 70
     1
102
RTVSPropertyOp32
 70
     1
102
RTVSPropertyOp33
 70
     1
102
RTVSPropertyOp34
 70
     1
102
RTVSPropertyOp35
 70
     1
102
RTVSPropertyOp36
 70
     1
102
RTVSPropertyOp37
 70
     0
102
RTVSPropertyOp38
 70
     0
102
RTVSPropertyOp39
 70
     0
102
RTVSPropertyOp40
 70
     0
102
RTVSPropertyOp41
 70
     0
102
RTVSPropertyOp42
 70
     0
102
RTVSPropertyOp43
 70
     0
102
RTVSPropertyOp44
 70
     0
102
RTVSPropertyOp45
 70
     1
102
RTVSPropertyOp46
 70
     0
102
RTVSPropertyOp47
 70
     0
102
RTVSPropertyOp48
 70
     0
102
RTVSPropertyOp49
 70
     1
102
RTVSPropertyOp50
 70
     0
102
RTVSPropertyOp51
 70
     0
102
RTVSPropertyOp52
 70
     0
102
RTVSPropertyOp53
 70
     0
102
RTVSPropertyOp54
 70
     0
102
RTVSPropertyOp55
 70
     1
102
RTVSPropertyOp56
 70
     0
102
RTVSPropertyOp57
 70
     0
102
RTVSPost2010Prop28
280
     0
102
RTVSPost2010PropOp28
 70
     1
102
RTVSPost2010Prop29
280
     1
102
RTVSPost2010PropOp29
 70
     1
102
RTVSPost2010Prop30
280
     1
102
RTVSPost2010PropOp30
 70
     1
102
RTVSPost2010Prop31
280
     0
102
RTVSPost2010PropOp31
 70
     1
102
RTVSPost2010Prop32
280
     0
102
RTVSPost2010PropOp32
 70
     1
102
RTVSPost2010Prop33
280
     0
102
RTVSPost2010PropOp33
 70
     1
102
RTVSPost2010Prop34
280
     0
102
RTVSPost2010PropOp34
 70
     1
102
RTVSPost2010Prop35
280
     0
102
RTVSPost2010PropOp35
 70
     1
102
RTVSPost2010Prop36
280
     0
102
RTVSPost2010PropOp36
 70
     1
102
RTVSPost2010Prop37
 90
       50
102
RTVSPost2010PropOp37
 70
     0
102
RTVSPost2010Prop38
140
0.0
102
RTVSPost2010PropOp38
 70
     0
102
RTVSPost2010Prop39
140
1.0
102
RTVSPost2010PropOp39
 70
     0
102
RTVSPost2010Prop40
 90
        0
102
RTVSPost2010PropOp40
 70
     0
102
RTVSPost2010Prop41ColorIndex
 90
       18
102
RTVSPost2010Prop41ColorRGB
 90
        0
102
RTVSPost2010PropOp41
 70
     0
102
RTVSPost2010Prop42
 90
       50
102
RTVSPost2010PropOp42
 70
     0
102
RTVSPost2010Prop43
 90
        3
102
RTVSPost2010PropOp43
 70
     0
102
RTVSPost2010Prop44ColorIndex
 90
        5
102
RTVSPost2010Prop44ColorRGB
 90
      255
102
RTVSPost2010PropOp44
 70
     0
102
RTVSPost2010Prop45
280
     0
102
RTVSPost2010PropOp45
 70
     1
102
RTVSPost2010Prop46
 90
       50
102
RTVSPost2010PropOp46
 70
     0
102
RTVSPost2010Prop47
 90
       50
102
RTVSPost2010PropOp47
 70
     0
102
RTVSPost2010Prop48
 90
       50
102
RTVSPost2010PropOp48
 70
     0
102
RTVSPost2010Prop49
280
     0
102
RTVSPost2010PropOp49
 70
     1
102
RTVSPost2010Prop50
 90
       50
102
RTVSPost2010PropOp50
 70
     0
102
RTVSPost2010Prop51ColorIndex
 90
      256
102
RTVSPost2010Prop51ColorRGB
 90
-16777216
102
RTVSPost2010PropOp51
 70
     0
102
RTVSPost2010Prop52
140
1.0
102
RTVSPost2010PropOp52
 70
     0
102
RTVSPost2010Prop53
 90
        2
102
RTVSPost2010PropOp53
 70
     0
102
RTVSPost2010Prop54
  1
strokes_ogs.tif
102
RTVSPost2010PropOp54
 70
     0
102
RTVSPost2010Prop55
280
     0
102
RTVSPost2010PropOp55
 70
     1
102
RTVSPost2010Prop56
140
1.0
102
RTVSPost2010PropOp56
 70
     0
102
RTVSPost2010Prop57
140
1.0
102
RTVSPost2010PropOp57
 70
     0
  0
XRECORD
  5
903E4
102
{ACAD_REACTORS
330
87B20
102
}
330
87B20
100
AcDbXrecord
280
     1
102
RTVSPropertyOp0
 70
     1
102
RTVSPropertyOp1
 70
     1
102
RTVSPropertyOp2
 70
     1
102
RTVSPropertyOp3
 70
     1
102
RTVSPropertyOp4
 70
     1
102
RTVSPropertyOp5
 70
     1
102
RTVSPropertyOp6
 70
     1
102
RTVSPropertyOp7
 70
     1
102
RTVSPropertyOp8
 70
     1
102
RTVSPropertyOp9
 70
     1
102
RTVSPropertyOp10
 70
     1
102
RTVSPropertyOp11
 70
     1
102
RTVSPropertyOp12
 70
     1
102
RTVSPropertyOp13
 70
     1
102
RTVSPropertyOp14
 70
     1
102
RTVSPropertyOp15
 70
     1
102
RTVSPropertyOp16
 70
     1
102
RTVSPropertyOp17
 70
     1
102
RTVSPropertyOp18
 70
     1
102
RTVSPropertyOp19
 70
     1
102
RTVSPropertyOp20
 70
     1
102
RTVSPropertyOp21
 70
     1
102
RTVSPropertyOp22
 70
     1
102
RTVSPropertyOp23
 70
     1
102
RTVSPropertyOp24
 70
     1
102
RTVSPropertyOp25
 70
     1
102
RTVSPropertyOp26
 70
     1
102
RTVSPropertyOp27
 70
     1
102
RTVSPropertyOp28
 70
     1
102
RTVSPropertyOp29
 70
     1
102
RTVSPropertyOp30
 70
     1
102
RTVSPropertyOp31
 70
     1
102
RTVSPropertyOp32
 70
     1
102
RTVSPropertyOp33
 70
     1
102
RTVSPropertyOp34
 70
     1
102
RTVSPropertyOp35
 70
     1
102
RTVSPropertyOp36
 70
     1
102
RTVSPropertyOp37
 70
     1
102
RTVSPropertyOp38
 70
     1
102
RTVSPropertyOp39
 70
     1
102
RTVSPropertyOp40
 70
     1
102
RTVSPropertyOp41
 70
     1
102
RTVSPropertyOp42
 70
     1
102
RTVSPropertyOp43
 70
     1
102
RTVSPropertyOp44
 70
     1
102
RTVSPropertyOp45
 70
     1
102
RTVSPropertyOp46
 70
     1
102
RTVSPropertyOp47
 70
     1
102
RTVSPropertyOp48
 70
     1
102
RTVSPropertyOp49
 70
     1
102
RTVSPropertyOp50
 70
     1
102
RTVSPropertyOp51
 70
     0
102
RTVSPropertyOp52
 70
     0
102
RTVSPropertyOp53
 70
     1
102
RTVSPropertyOp54
 70
     1
102
RTVSPropertyOp55
 70
     1
102
RTVSPropertyOp56
 70
     1
102
RTVSPropertyOp57
 70
     1
102
RTVSPost2010Prop28
280
     0
102
RTVSPost2010PropOp28
 70
     1
102
RTVSPost2010Prop29
280
     1
102
RTVSPost2010PropOp29
 70
     1
102
RTVSPost2010Prop30
280
     1
102
RTVSPost2010PropOp30
 70
     1
102
RTVSPost2010Prop31
280
     0
102
RTVSPost2010PropOp31
 70
     1
102
RTVSPost2010Prop32
280
     0
102
RTVSPost2010PropOp32
 70
     1
102
RTVSPost2010Prop33
280
     0
102
RTVSPost2010PropOp33
 70
     1
102
RTVSPost2010Prop34
280
     0
102
RTVSPost2010PropOp34
 70
     1
102
RTVSPost2010Prop35
280
     0
102
RTVSPost2010PropOp35
 70
     1
102
RTVSPost2010Prop36
280
     0
102
RTVSPost2010PropOp36
 70
     1
102
RTVSPost2010Prop37
 90
       50
102
RTVSPost2010PropOp37
 70
     1
102
RTVSPost2010Prop38
140
0.0
102
RTVSPost2010PropOp38
 70
     1
102
RTVSPost2010Prop39
140
1.0
102
RTVSPost2010PropOp39
 70
     1
102
RTVSPost2010Prop40
 90
        0
102
RTVSPost2010PropOp40
 70
     1
102
RTVSPost2010Prop41ColorIndex
 90
       18
102
RTVSPost2010Prop41ColorRGB
 90
        0
102
RTVSPost2010PropOp41
 70
     1
102
RTVSPost2010Prop42
 90
       50
102
RTVSPost2010PropOp42
 70
     1
102
RTVSPost2010Prop43
 90
        3
102
RTVSPost2010PropOp43
 70
     1
102
RTVSPost2010Prop44ColorIndex
 90
        5
102
RTVSPost2010Prop44ColorRGB
 90
      255
102
RTVSPost2010PropOp44
 70
     1
102
RTVSPost2010Prop45
280
     0
102
RTVSPost2010PropOp45
 70
     1
102
RTVSPost2010Prop46
 90
       50
102
RTVSPost2010PropOp46
 70
     1
102
RTVSPost2010Prop47
 90
       50
102
RTVSPost2010PropOp47
 70
     1
102
RTVSPost2010Prop48
 90
       50
102
RTVSPost2010PropOp48
 70
     1
102
RTVSPost2010Prop49
280
     0
102
RTVSPost2010PropOp49
 70
     1
102
RTVSPost2010Prop50
 90
       50
102
RTVSPost2010PropOp50
 70
     1
102
RTVSPost2010Prop51ColorIndex
 90
      256
102
RTVSPost2010Prop51ColorRGB
 90
-16777216
102
RTVSPost2010PropOp51
 70
     0
102
RTVSPost2010Prop52
140
1.0
102
RTVSPost2010PropOp52
 70
     0
102
RTVSPost2010Prop53
 90
        2
102
RTVSPost2010PropOp53
 70
     1
102
RTVSPost2010Prop54
  1
strokes_ogs.tif
102
RTVSPost2010PropOp54
 70
     1
102
RTVSPost2010Prop55
280
     0
102
RTVSPost2010PropOp55
 70
     1
102
RTVSPost2010Prop56
140
1.0
102
RTVSPost2010PropOp56
 70
     1
102
RTVSPost2010Prop57
140
1.0
102
RTVSPost2010PropOp57
 70
     1
  0
XRECORD
  5
903E5
102
{ACAD_REACTORS
330
87B36
102
}
330
87B36
100
AcDbXrecord
280
     1
102
RTVSPropertyOp0
 70
     1
102
RTVSPropertyOp1
 70
     1
102
RTVSPropertyOp2
 70
     1
102
RTVSPropertyOp3
 70
     1
102
RTVSPropertyOp4
 70
     1
102
RTVSPropertyOp5
 70
     1
102
RTVSPropertyOp6
 70
     1
102
RTVSPropertyOp7
 70
     1
102
RTVSPropertyOp8
 70
     1
102
RTVSPropertyOp9
 70
     1
102
RTVSPropertyOp10
 70
     1
102
RTVSPropertyOp11
 70
     1
102
RTVSPropertyOp12
 70
     1
102
RTVSPropertyOp13
 70
     1
102
RTVSPropertyOp14
 70
     1
102
RTVSPropertyOp15
 70
     1
102
RTVSPropertyOp16
 70
     1
102
RTVSPropertyOp17
 70
     1
102
RTVSPropertyOp18
 70
     1
102
RTVSPropertyOp19
 70
     1
102
RTVSPropertyOp20
 70
     1
102
RTVSPropertyOp21
 70
     1
102
RTVSPropertyOp22
 70
     1
102
RTVSPropertyOp23
 70
     1
102
RTVSPropertyOp24
 70
     1
102
RTVSPropertyOp25
 70
     1
102
RTVSPropertyOp26
 70
     1
102
RTVSPropertyOp27
 70
     1
102
RTVSPropertyOp28
 70
     1
102
RTVSPropertyOp29
 70
     1
102
RTVSPropertyOp30
 70
     1
102
RTVSPropertyOp31
 70
     1
102
RTVSPropertyOp32
 70
     1
102
RTVSPropertyOp33
 70
     1
102
RTVSPropertyOp34
 70
     1
102
RTVSPropertyOp35
 70
     1
102
RTVSPropertyOp36
 70
     1
102
RTVSPropertyOp37
 70
     1
102
RTVSPropertyOp38
 70
     1
102
RTVSPropertyOp39
 70
     1
102
RTVSPropertyOp40
 70
     1
102
RTVSPropertyOp41
 70
     1
102
RTVSPropertyOp42
 70
     1
102
RTVSPropertyOp43
 70
     1
102
RTVSPropertyOp44
 70
     1
102
RTVSPropertyOp45
 70
     1
102
RTVSPropertyOp46
 70
     1
102
RTVSPropertyOp47
 70
     1
102
RTVSPropertyOp48
 70
     1
102
RTVSPropertyOp49
 70
     1
102
RTVSPropertyOp50
 70
     1
102
RTVSPropertyOp51
 70
     0
102
RTVSPropertyOp52
 70
     0
102
RTVSPropertyOp53
 70
     1
102
RTVSPropertyOp54
 70
     1
102
RTVSPropertyOp55
 70
     1
102
RTVSPropertyOp56
 70
     1
102
RTVSPropertyOp57
 70
     1
102
RTVSPost2010Prop28
280
     0
102
RTVSPost2010PropOp28
 70
     1
102
RTVSPost2010Prop29
280
     1
102
RTVSPost2010PropOp29
 70
     1
102
RTVSPost2010Prop30
280
     1
102
RTVSPost2010PropOp30
 70
     1
102
RTVSPost2010Prop31
280
     0
102
RTVSPost2010PropOp31
 70
     1
102
RTVSPost2010Prop32
280
     0
102
RTVSPost2010PropOp32
 70
     1
102
RTVSPost2010Prop33
280
     0
102
RTVSPost2010PropOp33
 70
     1
102
RTVSPost2010Prop34
280
     0
102
RTVSPost2010PropOp34
 70
     1
102
RTVSPost2010Prop35
280
     0
102
RTVSPost2010PropOp35
 70
     1
102
RTVSPost2010Prop36
280
     0
102
RTVSPost2010PropOp36
 70
     1
102
RTVSPost2010Prop37
 90
       50
102
RTVSPost2010PropOp37
 70
     1
102
RTVSPost2010Prop38
140
0.0
102
RTVSPost2010PropOp38
 70
     1
102
RTVSPost2010Prop39
140
1.0
102
RTVSPost2010PropOp39
 70
     1
102
RTVSPost2010Prop40
 90
        0
102
RTVSPost2010PropOp40
 70
     1
102
RTVSPost2010Prop41ColorIndex
 90
       18
102
RTVSPost2010Prop41ColorRGB
 90
        0
102
RTVSPost2010PropOp41
 70
     1
102
RTVSPost2010Prop42
 90
       50
102
RTVSPost2010PropOp42
 70
     1
102
RTVSPost2010Prop43
 90
        3
102
RTVSPost2010PropOp43
 70
     1
102
RTVSPost2010Prop44ColorIndex
 90
        5
102
RTVSPost2010Prop44ColorRGB
 90
      255
102
RTVSPost2010PropOp44
 70
     1
102
RTVSPost2010Prop45
280
     0
102
RTVSPost2010PropOp45
 70
     1
102
RTVSPost2010Prop46
 90
       50
102
RTVSPost2010PropOp46
 70
     1
102
RTVSPost2010Prop47
 90
       50
102
RTVSPost2010PropOp47
 70
     1
102
RTVSPost2010Prop48
 90
       50
102
RTVSPost2010PropOp48
 70
     1
102
RTVSPost2010Prop49
280
     0
102
RTVSPost2010PropOp49
 70
     1
102
RTVSPost2010Prop50
 90
       50
102
RTVSPost2010PropOp50
 70
     1
102
RTVSPost2010Prop51ColorIndex
 90
      256
102
RTVSPost2010Prop51ColorRGB
 90
-16777216
102
RTVSPost2010PropOp51
 70
     0
102
RTVSPost2010Prop52
140
1.0
102
RTVSPost2010PropOp52
 70
     0
102
RTVSPost2010Prop53
 90
        2
102
RTVSPost2010PropOp53
 70
     1
102
RTVSPost2010Prop54
  1
strokes_ogs.tif
102
RTVSPost2010PropOp54
 70
     1
102
RTVSPost2010Prop55
280
     0
102
RTVSPost2010PropOp55
 70
     1
102
RTVSPost2010Prop56
140
1.0
102
RTVSPost2010PropOp56
 70
     1
102
RTVSPost2010Prop57
140
1.0
102
RTVSPost2010PropOp57
 70
     1
  0
XRECORD
  5
903E6
102
{ACAD_REACTORS
330
87B34
102
}
330
87B34
100
AcDbXrecord
280
     1
102
RTVSPropertyOp0
 70
     1
102
RTVSPropertyOp1
 70
     1
102
RTVSPropertyOp2
 70
     1
102
RTVSPropertyOp3
 70
     1
102
RTVSPropertyOp4
 70
     1
102
RTVSPropertyOp5
 70
     1
102
RTVSPropertyOp6
 70
     1
102
RTVSPropertyOp7
 70
     1
102
RTVSPropertyOp8
 70
     1
102
RTVSPropertyOp9
 70
     1
102
RTVSPropertyOp10
 70
     1
102
RTVSPropertyOp11
 70
     1
102
RTVSPropertyOp12
 70
     1
102
RTVSPropertyOp13
 70
     1
102
RTVSPropertyOp14
 70
     1
102
RTVSPropertyOp15
 70
     1
102
RTVSPropertyOp16
 70
     1
102
RTVSPropertyOp17
 70
     1
102
RTVSPropertyOp18
 70
     1
102
RTVSPropertyOp19
 70
     1
102
RTVSPropertyOp20
 70
     1
102
RTVSPropertyOp21
 70
     1
102
RTVSPropertyOp22
 70
     1
102
RTVSPropertyOp23
 70
     1
102
RTVSPropertyOp24
 70
     1
102
RTVSPropertyOp25
 70
     1
102
RTVSPropertyOp26
 70
     1
102
RTVSPropertyOp27
 70
     1
102
RTVSPropertyOp28
 70
     1
102
RTVSPropertyOp29
 70
     1
102
RTVSPropertyOp30
 70
     1
102
RTVSPropertyOp31
 70
     1
102
RTVSPropertyOp32
 70
     1
102
RTVSPropertyOp33
 70
     1
102
RTVSPropertyOp34
 70
     1
102
RTVSPropertyOp35
 70
     1
102
RTVSPropertyOp36
 70
     1
102
RTVSPropertyOp37
 70
     1
102
RTVSPropertyOp38
 70
     1
102
RTVSPropertyOp39
 70
     1
102
RTVSPropertyOp40
 70
     1
102
RTVSPropertyOp41
 70
     1
102
RTVSPropertyOp42
 70
     1
102
RTVSPropertyOp43
 70
     1
102
RTVSPropertyOp44
 70
     1
102
RTVSPropertyOp45
 70
     1
102
RTVSPropertyOp46
 70
     1
102
RTVSPropertyOp47
 70
     1
102
RTVSPropertyOp48
 70
     1
102
RTVSPropertyOp49
 70
     1
102
RTVSPropertyOp50
 70
     1
102
RTVSPropertyOp51
 70
     0
102
RTVSPropertyOp52
 70
     0
102
RTVSPropertyOp53
 70
     1
102
RTVSPropertyOp54
 70
     1
102
RTVSPropertyOp55
 70
     1
102
RTVSPropertyOp56
 70
     1
102
RTVSPropertyOp57
 70
     1
102
RTVSPost2010Prop28
280
     0
102
RTVSPost2010PropOp28
 70
     1
102
RTVSPost2010Prop29
280
     1
102
RTVSPost2010PropOp29
 70
     1
102
RTVSPost2010Prop30
280
     1
102
RTVSPost2010PropOp30
 70
     1
102
RTVSPost2010Prop31
280
     0
102
RTVSPost2010PropOp31
 70
     1
102
RTVSPost2010Prop32
280
     0
102
RTVSPost2010PropOp32
 70
     1
102
RTVSPost2010Prop33
280
     0
102
RTVSPost2010PropOp33
 70
     1
102
RTVSPost2010Prop34
280
     0
102
RTVSPost2010PropOp34
 70
     1
102
RTVSPost2010Prop35
280
     0
102
RTVSPost2010PropOp35
 70
     1
102
RTVSPost2010Prop36
280
     0
102
RTVSPost2010PropOp36
 70
     1
102
RTVSPost2010Prop37
 90
       50
102
RTVSPost2010PropOp37
 70
     1
102
RTVSPost2010Prop38
140
0.0
102
RTVSPost2010PropOp38
 70
     1
102
RTVSPost2010Prop39
140
1.0
102
RTVSPost2010PropOp39
 70
     1
102
RTVSPost2010Prop40
 90
        0
102
RTVSPost2010PropOp40
 70
     1
102
RTVSPost2010Prop41ColorIndex
 90
       18
102
RTVSPost2010Prop41ColorRGB
 90
        0
102
RTVSPost2010PropOp41
 70
     1
102
RTVSPost2010Prop42
 90
       50
102
RTVSPost2010PropOp42
 70
     1
102
RTVSPost2010Prop43
 90
        3
102
RTVSPost2010PropOp43
 70
     1
102
RTVSPost2010Prop44ColorIndex
 90
        5
102
RTVSPost2010Prop44ColorRGB
 90
      255
102
RTVSPost2010PropOp44
 70
     1
102
RTVSPost2010Prop45
280
     0
102
RTVSPost2010PropOp45
 70
     1
102
RTVSPost2010Prop46
 90
       50
102
RTVSPost2010PropOp46
 70
     1
102
RTVSPost2010Prop47
 90
       50
102
RTVSPost2010PropOp47
 70
     1
102
RTVSPost2010Prop48
 90
       50
102
RTVSPost2010PropOp48
 70
     1
102
RTVSPost2010Prop49
280
     0
102
RTVSPost2010PropOp49
 70
     1
102
RTVSPost2010Prop50
 90
       50
102
RTVSPost2010PropOp50
 70
     1
102
RTVSPost2010Prop51ColorIndex
 90
      256
102
RTVSPost2010Prop51ColorRGB
 90
-16777216
102
RTVSPost2010PropOp51
 70
     0
102
RTVSPost2010Prop52
140
1.0
102
RTVSPost2010PropOp52
 70
     0
102
RTVSPost2010Prop53
 90
        2
102
RTVSPost2010PropOp53
 70
     1
102
RTVSPost2010Prop54
  1
strokes_ogs.tif
102
RTVSPost2010PropOp54
 70
     1
102
RTVSPost2010Prop55
280
     0
102
RTVSPost2010PropOp55
 70
     1
102
RTVSPost2010Prop56
140
1.0
102
RTVSPost2010PropOp56
 70
     1
102
RTVSPost2010Prop57
140
1.0
102
RTVSPost2010PropOp57
 70
     1
  0
XRECORD
  5
903E7
102
{ACAD_REACTORS
330
87B2E
102
}
330
87B2E
100
AcDbXrecord
280
     1
102
RTVSPropertyOp0
 70
     1
102
RTVSPropertyOp1
 70
     1
102
RTVSPropertyOp2
 70
     1
102
RTVSPropertyOp3
 70
     1
102
RTVSPropertyOp4
 70
     1
102
RTVSPropertyOp5
 70
     1
102
RTVSPropertyOp6
 70
     1
102
RTVSPropertyOp7
 70
     1
102
RTVSPropertyOp8
 70
     1
102
RTVSPropertyOp9
 70
     1
102
RTVSPropertyOp10
 70
     1
102
RTVSPropertyOp11
 70
     1
102
RTVSPropertyOp12
 70
     1
102
RTVSPropertyOp13
 70
     1
102
RTVSPropertyOp14
 70
     1
102
RTVSPropertyOp15
 70
     1
102
RTVSPropertyOp16
 70
     1
102
RTVSPropertyOp17
 70
     1
102
RTVSPropertyOp18
 70
     1
102
RTVSPropertyOp19
 70
     1
102
RTVSPropertyOp20
 70
     1
102
RTVSPropertyOp21
 70
     1
102
RTVSPropertyOp22
 70
     1
102
RTVSPropertyOp23
 70
     1
102
RTVSPropertyOp24
 70
     1
102
RTVSPropertyOp25
 70
     1
102
RTVSPropertyOp26
 70
     1
102
RTVSPropertyOp27
 70
     1
102
RTVSPropertyOp28
 70
     1
102
RTVSPropertyOp29
 70
     1
102
RTVSPropertyOp30
 70
     1
102
RTVSPropertyOp31
 70
     1
102
RTVSPropertyOp32
 70
     1
102
RTVSPropertyOp33
 70
     1
102
RTVSPropertyOp34
 70
     1
102
RTVSPropertyOp35
 70
     1
102
RTVSPropertyOp36
 70
     1
102
RTVSPropertyOp37
 70
     1
102
RTVSPropertyOp38
 70
     1
102
RTVSPropertyOp39
 70
     1
102
RTVSPropertyOp40
 70
     1
102
RTVSPropertyOp41
 70
     1
102
RTVSPropertyOp42
 70
     1
102
RTVSPropertyOp43
 70
     1
102
RTVSPropertyOp44
 70
     1
102
RTVSPropertyOp45
 70
     1
102
RTVSPropertyOp46
 70
     1
102
RTVSPropertyOp47
 70
     1
102
RTVSPropertyOp48
 70
     1
102
RTVSPropertyOp49
 70
     1
102
RTVSPropertyOp50
 70
     1
102
RTVSPropertyOp51
 70
     0
102
RTVSPropertyOp52
 70
     0
102
RTVSPropertyOp53
 70
     1
102
RTVSPropertyOp54
 70
     1
102
RTVSPropertyOp55
 70
     1
102
RTVSPropertyOp56
 70
     1
102
RTVSPropertyOp57
 70
     1
102
RTVSPost2010Prop28
280
     0
102
RTVSPost2010PropOp28
 70
     1
102
RTVSPost2010Prop29
280
     1
102
RTVSPost2010PropOp29
 70
     1
102
RTVSPost2010Prop30
280
     1
102
RTVSPost2010PropOp30
 70
     1
102
RTVSPost2010Prop31
280
     0
102
RTVSPost2010PropOp31
 70
     1
102
RTVSPost2010Prop32
280
     0
102
RTVSPost2010PropOp32
 70
     1
102
RTVSPost2010Prop33
280
     0
102
RTVSPost2010PropOp33
 70
     1
102
RTVSPost2010Prop34
280
     0
102
RTVSPost2010PropOp34
 70
     1
102
RTVSPost2010Prop35
280
     0
102
RTVSPost2010PropOp35
 70
     1
102
RTVSPost2010Prop36
280
     0
102
RTVSPost2010PropOp36
 70
     1
102
RTVSPost2010Prop37
 90
       50
102
RTVSPost2010PropOp37
 70
     1
102
RTVSPost2010Prop38
140
0.0
102
RTVSPost2010PropOp38
 70
     1
102
RTVSPost2010Prop39
140
1.0
102
RTVSPost2010PropOp39
 70
     1
102
RTVSPost2010Prop40
 90
        0
102
RTVSPost2010PropOp40
 70
     1
102
RTVSPost2010Prop41ColorIndex
 90
       18
102
RTVSPost2010Prop41ColorRGB
 90
        0
102
RTVSPost2010PropOp41
 70
     1
102
RTVSPost2010Prop42
 90
       50
102
RTVSPost2010PropOp42
 70
     1
102
RTVSPost2010Prop43
 90
        3
102
RTVSPost2010PropOp43
 70
     1
102
RTVSPost2010Prop44ColorIndex
 90
        5
102
RTVSPost2010Prop44ColorRGB
 90
      255
102
RTVSPost2010PropOp44
 70
     1
102
RTVSPost2010Prop45
280
     0
102
RTVSPost2010PropOp45
 70
     1
102
RTVSPost2010Prop46
 90
       50
102
RTVSPost2010PropOp46
 70
     1
102
RTVSPost2010Prop47
 90
       50
102
RTVSPost2010PropOp47
 70
     1
102
RTVSPost2010Prop48
 90
       50
102
RTVSPost2010PropOp48
 70
     1
102
RTVSPost2010Prop49
280
     0
102
RTVSPost2010PropOp49
 70
     1
102
RTVSPost2010Prop50
 90
       50
102
RTVSPost2010PropOp50
 70
     1
102
RTVSPost2010Prop51ColorIndex
 90
      256
102
RTVSPost2010Prop51ColorRGB
 90
-16777216
102
RTVSPost2010PropOp51
 70
     0
102
RTVSPost2010Prop52
140
1.0
102
RTVSPost2010PropOp52
 70
     0
102
RTVSPost2010Prop53
 90
        2
102
RTVSPost2010PropOp53
 70
     1
102
RTVSPost2010Prop54
  1
strokes_ogs.tif
102
RTVSPost2010PropOp54
 70
     1
102
RTVSPost2010Prop55
280
     0
102
RTVSPost2010PropOp55
 70
     1
102
RTVSPost2010Prop56
140
1.0
102
RTVSPost2010PropOp56
 70
     1
102
RTVSPost2010Prop57
140
1.0
102
RTVSPost2010PropOp57
 70
     1
  0
XRECORD
  5
903E8
102
{ACAD_REACTORS
330
87B30
102
}
330
87B30
100
AcDbXrecord
280
     1
102
RTVSPropertyOp0
 70
     1
102
RTVSPropertyOp1
 70
     1
102
RTVSPropertyOp2
 70
     1
102
RTVSPropertyOp3
 70
     1
102
RTVSPropertyOp4
 70
     1
102
RTVSPropertyOp5
 70
     1
102
RTVSPropertyOp6
 70
     1
102
RTVSPropertyOp7
 70
     1
102
RTVSPropertyOp8
 70
     1
102
RTVSPropertyOp9
 70
     1
102
RTVSPropertyOp10
 70
     1
102
RTVSPropertyOp11
 70
     1
102
RTVSPropertyOp12
 70
     1
102
RTVSPropertyOp13
 70
     1
102
RTVSPropertyOp14
 70
     1
102
RTVSPropertyOp15
 70
     1
102
RTVSPropertyOp16
 70
     1
102
RTVSPropertyOp17
 70
     1
102
RTVSPropertyOp18
 70
     1
102
RTVSPropertyOp19
 70
     1
102
RTVSPropertyOp20
 70
     1
102
RTVSPropertyOp21
 70
     1
102
RTVSPropertyOp22
 70
     1
102
RTVSPropertyOp23
 70
     1
102
RTVSPropertyOp24
 70
     1
102
RTVSPropertyOp25
 70
     1
102
RTVSPropertyOp26
 70
     1
102
RTVSPropertyOp27
 70
     1
102
RTVSPropertyOp28
 70
     1
102
RTVSPropertyOp29
 70
     1
102
RTVSPropertyOp30
 70
     1
102
RTVSPropertyOp31
 70
     1
102
RTVSPropertyOp32
 70
     1
102
RTVSPropertyOp33
 70
     1
102
RTVSPropertyOp34
 70
     1
102
RTVSPropertyOp35
 70
     1
102
RTVSPropertyOp36
 70
     1
102
RTVSPropertyOp37
 70
     1
102
RTVSPropertyOp38
 70
     1
102
RTVSPropertyOp39
 70
     1
102
RTVSPropertyOp40
 70
     1
102
RTVSPropertyOp41
 70
     1
102
RTVSPropertyOp42
 70
     1
102
RTVSPropertyOp43
 70
     1
102
RTVSPropertyOp44
 70
     1
102
RTVSPropertyOp45
 70
     1
102
RTVSPropertyOp46
 70
     1
102
RTVSPropertyOp47
 70
     1
102
RTVSPropertyOp48
 70
     1
102
RTVSPropertyOp49
 70
     1
102
RTVSPropertyOp50
 70
     1
102
RTVSPropertyOp51
 70
     0
102
RTVSPropertyOp52
 70
     0
102
RTVSPropertyOp53
 70
     1
102
RTVSPropertyOp54
 70
     1
102
RTVSPropertyOp55
 70
     1
102
RTVSPropertyOp56
 70
     1
102
RTVSPropertyOp57
 70
     1
102
RTVSPost2010Prop28
280
     0
102
RTVSPost2010PropOp28
 70
     1
102
RTVSPost2010Prop29
280
     1
102
RTVSPost2010PropOp29
 70
     1
102
RTVSPost2010Prop30
280
     1
102
RTVSPost2010PropOp30
 70
     1
102
RTVSPost2010Prop31
280
     0
102
RTVSPost2010PropOp31
 70
     1
102
RTVSPost2010Prop32
280
     0
102
RTVSPost2010PropOp32
 70
     1
102
RTVSPost2010Prop33
280
     0
102
RTVSPost2010PropOp33
 70
     1
102
RTVSPost2010Prop34
280
     0
102
RTVSPost2010PropOp34
 70
     1
102
RTVSPost2010Prop35
280
     0
102
RTVSPost2010PropOp35
 70
     1
102
RTVSPost2010Prop36
280
     0
102
RTVSPost2010PropOp36
 70
     1
102
RTVSPost2010Prop37
 90
       50
102
RTVSPost2010PropOp37
 70
     1
102
RTVSPost2010Prop38
140
0.0
102
RTVSPost2010PropOp38
 70
     1
102
RTVSPost2010Prop39
140
1.0
102
RTVSPost2010PropOp39
 70
     1
102
RTVSPost2010Prop40
 90
        0
102
RTVSPost2010PropOp40
 70
     1
102
RTVSPost2010Prop41ColorIndex
 90
       18
102
RTVSPost2010Prop41ColorRGB
 90
        0
102
RTVSPost2010PropOp41
 70
     1
102
RTVSPost2010Prop42
 90
       50
102
RTVSPost2010PropOp42
 70
     1
102
RTVSPost2010Prop43
 90
        3
102
RTVSPost2010PropOp43
 70
     1
102
RTVSPost2010Prop44ColorIndex
 90
        5
102
RTVSPost2010Prop44ColorRGB
 90
      255
102
RTVSPost2010PropOp44
 70
     1
102
RTVSPost2010Prop45
280
     0
102
RTVSPost2010PropOp45
 70
     1
102
RTVSPost2010Prop46
 90
       50
102
RTVSPost2010PropOp46
 70
     1
102
RTVSPost2010Prop47
 90
       50
102
RTVSPost2010PropOp47
 70
     1
102
RTVSPost2010Prop48
 90
       50
102
RTVSPost2010PropOp48
 70
     1
102
RTVSPost2010Prop49
280
     0
102
RTVSPost2010PropOp49
 70
     1
102
RTVSPost2010Prop50
 90
       50
102
RTVSPost2010PropOp50
 70
     1
102
RTVSPost2010Prop51ColorIndex
 90
      256
102
RTVSPost2010Prop51ColorRGB
 90
-16777216
102
RTVSPost2010PropOp51
 70
     0
102
RTVSPost2010Prop52
140
1.0
102
RTVSPost2010PropOp52
 70
     0
102
RTVSPost2010Prop53
 90
        2
102
RTVSPost2010PropOp53
 70
     1
102
RTVSPost2010Prop54
  1
strokes_ogs.tif
102
RTVSPost2010PropOp54
 70
     1
102
RTVSPost2010Prop55
280
     0
102
RTVSPost2010PropOp55
 70
     1
102
RTVSPost2010Prop56
140
1.0
102
RTVSPost2010PropOp56
 70
     1
102
RTVSPost2010Prop57
140
1.0
102
RTVSPost2010PropOp57
 70
     1
  0
XRECORD
  5
903E9
102
{ACAD_REACTORS
330
87B26
102
}
330
87B26
100
AcDbXrecord
280
     1
102
RTVSPropertyOp0
 70
     1
102
RTVSPropertyOp1
 70
     1
102
RTVSPropertyOp2
 70
     1
102
RTVSPropertyOp3
 70
     1
102
RTVSPropertyOp4
 70
     1
102
RTVSPropertyOp5
 70
     1
102
RTVSPropertyOp6
 70
     1
102
RTVSPropertyOp7
 70
     1
102
RTVSPropertyOp8
 70
     1
102
RTVSPropertyOp9
 70
     1
102
RTVSPropertyOp10
 70
     1
102
RTVSPropertyOp11
 70
     1
102
RTVSPropertyOp12
 70
     1
102
RTVSPropertyOp13
 70
     1
102
RTVSPropertyOp14
 70
     1
102
RTVSPropertyOp15
 70
     1
102
RTVSPropertyOp16
 70
     1
102
RTVSPropertyOp17
 70
     1
102
RTVSPropertyOp18
 70
     1
102
RTVSPropertyOp19
 70
     1
102
RTVSPropertyOp20
 70
     1
102
RTVSPropertyOp21
 70
     1
102
RTVSPropertyOp22
 70
     1
102
RTVSPropertyOp23
 70
     1
102
RTVSPropertyOp24
 70
     1
102
RTVSPropertyOp25
 70
     1
102
RTVSPropertyOp26
 70
     1
102
RTVSPropertyOp27
 70
     1
102
RTVSPropertyOp28
 70
     1
102
RTVSPropertyOp29
 70
     1
102
RTVSPropertyOp30
 70
     1
102
RTVSPropertyOp31
 70
     1
102
RTVSPropertyOp32
 70
     1
102
RTVSPropertyOp33
 70
     1
102
RTVSPropertyOp34
 70
     1
102
RTVSPropertyOp35
 70
     1
102
RTVSPropertyOp36
 70
     1
102
RTVSPropertyOp37
 70
     1
102
RTVSPropertyOp38
 70
     1
102
RTVSPropertyOp39
 70
     1
102
RTVSPropertyOp40
 70
     1
102
RTVSPropertyOp41
 70
     1
102
RTVSPropertyOp42
 70
     1
102
RTVSPropertyOp43
 70
     1
102
RTVSPropertyOp44
 70
     1
102
RTVSPropertyOp45
 70
     1
102
RTVSPropertyOp46
 70
     1
102
RTVSPropertyOp47
 70
     1
102
RTVSPropertyOp48
 70
     1
102
RTVSPropertyOp49
 70
     1
102
RTVSPropertyOp50
 70
     1
102
RTVSPropertyOp51
 70
     0
102
RTVSPropertyOp52
 70
     0
102
RTVSPropertyOp53
 70
     1
102
RTVSPropertyOp54
 70
     1
102
RTVSPropertyOp55
 70
     1
102
RTVSPropertyOp56
 70
     1
102
RTVSPropertyOp57
 70
     1
102
RTVSPost2010Prop28
280
     0
102
RTVSPost2010PropOp28
 70
     1
102
RTVSPost2010Prop29
280
     1
102
RTVSPost2010PropOp29
 70
     1
102
RTVSPost2010Prop30
280
     1
102
RTVSPost2010PropOp30
 70
     1
102
RTVSPost2010Prop31
280
     0
102
RTVSPost2010PropOp31
 70
     1
102
RTVSPost2010Prop32
280
     0
102
RTVSPost2010PropOp32
 70
     1
102
RTVSPost2010Prop33
280
     0
102
RTVSPost2010PropOp33
 70
     1
102
RTVSPost2010Prop34
280
     0
102
RTVSPost2010PropOp34
 70
     1
102
RTVSPost2010Prop35
280
     0
102
RTVSPost2010PropOp35
 70
     1
102
RTVSPost2010Prop36
280
     0
102
RTVSPost2010PropOp36
 70
     1
102
RTVSPost2010Prop37
 90
       50
102
RTVSPost2010PropOp37
 70
     1
102
RTVSPost2010Prop38
140
0.0
102
RTVSPost2010PropOp38
 70
     1
102
RTVSPost2010Prop39
140
1.0
102
RTVSPost2010PropOp39
 70
     1
102
RTVSPost2010Prop40
 90
        0
102
RTVSPost2010PropOp40
 70
     1
102
RTVSPost2010Prop41ColorIndex
 90
       18
102
RTVSPost2010Prop41ColorRGB
 90
        0
102
RTVSPost2010PropOp41
 70
     1
102
RTVSPost2010Prop42
 90
       50
102
RTVSPost2010PropOp42
 70
     1
102
RTVSPost2010Prop43
 90
        3
102
RTVSPost2010PropOp43
 70
     1
102
RTVSPost2010Prop44ColorIndex
 90
        5
102
RTVSPost2010Prop44ColorRGB
 90
      255
102
RTVSPost2010PropOp44
 70
     1
102
RTVSPost2010Prop45
280
     0
102
RTVSPost2010PropOp45
 70
     1
102
RTVSPost2010Prop46
 90
       50
102
RTVSPost2010PropOp46
 70
     1
102
RTVSPost2010Prop47
 90
       50
102
RTVSPost2010PropOp47
 70
     1
102
RTVSPost2010Prop48
 90
       50
102
RTVSPost2010PropOp48
 70
     1
102
RTVSPost2010Prop49
280
     0
102
RTVSPost2010PropOp49
 70
     1
102
RTVSPost2010Prop50
 90
       50
102
RTVSPost2010PropOp50
 70
     1
102
RTVSPost2010Prop51ColorIndex
 90
      256
102
RTVSPost2010Prop51ColorRGB
 90
-16777216
102
RTVSPost2010PropOp51
 70
     0
102
RTVSPost2010Prop52
140
1.0
102
RTVSPost2010PropOp52
 70
     0
102
RTVSPost2010Prop53
 90
        2
102
RTVSPost2010PropOp53
 70
     1
102
RTVSPost2010Prop54
  1
strokes_ogs.tif
102
RTVSPost2010PropOp54
 70
     1
102
RTVSPost2010Prop55
280
     0
102
RTVSPost2010PropOp55
 70
     1
102
RTVSPost2010Prop56
140
1.0
102
RTVSPost2010PropOp56
 70
     1
102
RTVSPost2010Prop57
140
1.0
102
RTVSPost2010PropOp57
 70
     1
  0
XRECORD
  5
903EA
102
{ACAD_REACTORS
330
87B1A
102
}
330
87B1A
100
AcDbXrecord
280
     1
102
RTVSPropertyOp0
 70
     1
102
RTVSPropertyOp1
 70
     1
102
RTVSPropertyOp2
 70
     1
102
RTVSPropertyOp3
 70
     1
102
RTVSPropertyOp4
 70
     1
102
RTVSPropertyOp5
 70
     1
102
RTVSPropertyOp6
 70
     1
102
RTVSPropertyOp7
 70
     1
102
RTVSPropertyOp8
 70
     1
102
RTVSPropertyOp9
 70
     1
102
RTVSPropertyOp10
 70
     1
102
RTVSPropertyOp11
 70
     1
102
RTVSPropertyOp12
 70
     1
102
RTVSPropertyOp13
 70
     1
102
RTVSPropertyOp14
 70
     1
102
RTVSPropertyOp15
 70
     1
102
RTVSPropertyOp16
 70
     1
102
RTVSPropertyOp17
 70
     1
102
RTVSPropertyOp18
 70
     1
102
RTVSPropertyOp19
 70
     1
102
RTVSPropertyOp20
 70
     1
102
RTVSPropertyOp21
 70
     1
102
RTVSPropertyOp22
 70
     1
102
RTVSPropertyOp23
 70
     1
102
RTVSPropertyOp24
 70
     1
102
RTVSPropertyOp25
 70
     1
102
RTVSPropertyOp26
 70
     1
102
RTVSPropertyOp27
 70
     1
102
RTVSPropertyOp28
 70
     1
102
RTVSPropertyOp29
 70
     1
102
RTVSPropertyOp30
 70
     1
102
RTVSPropertyOp31
 70
     1
102
RTVSPropertyOp32
 70
     1
102
RTVSPropertyOp33
 70
     1
102
RTVSPropertyOp34
 70
     1
102
RTVSPropertyOp35
 70
     1
102
RTVSPropertyOp36
 70
     1
102
RTVSPropertyOp37
 70
     1
102
RTVSPropertyOp38
 70
     1
102
RTVSPropertyOp39
 70
     1
102
RTVSPropertyOp40
 70
     1
102
RTVSPropertyOp41
 70
     1
102
RTVSPropertyOp42
 70
     1
102
RTVSPropertyOp43
 70
     1
102
RTVSPropertyOp44
 70
     1
102
RTVSPropertyOp45
 70
     1
102
RTVSPropertyOp46
 70
     1
102
RTVSPropertyOp47
 70
     1
102
RTVSPropertyOp48
 70
     1
102
RTVSPropertyOp49
 70
     1
102
RTVSPropertyOp50
 70
     1
102
RTVSPropertyOp51
 70
     0
102
RTVSPropertyOp52
 70
     0
102
RTVSPropertyOp53
 70
     1
102
RTVSPropertyOp54
 70
     1
102
RTVSPropertyOp55
 70
     1
102
RTVSPropertyOp56
 70
     1
102
RTVSPropertyOp57
 70
     1
102
RTVSPost2010Prop28
280
     0
102
RTVSPost2010PropOp28
 70
     1
102
RTVSPost2010Prop29
280
     1
102
RTVSPost2010PropOp29
 70
     1
102
RTVSPost2010Prop30
280
     1
102
RTVSPost2010PropOp30
 70
     1
102
RTVSPost2010Prop31
280
     0
102
RTVSPost2010PropOp31
 70
     1
102
RTVSPost2010Prop32
280
     0
102
RTVSPost2010PropOp32
 70
     1
102
RTVSPost2010Prop33
280
     0
102
RTVSPost2010PropOp33
 70
     1
102
RTVSPost2010Prop34
280
     0
102
RTVSPost2010PropOp34
 70
     1
102
RTVSPost2010Prop35
280
     0
102
RTVSPost2010PropOp35
 70
     1
102
RTVSPost2010Prop36
280
     0
102
RTVSPost2010PropOp36
 70
     1
102
RTVSPost2010Prop37
 90
       50
102
RTVSPost2010PropOp37
 70
     1
102
RTVSPost2010Prop38
140
0.0
102
RTVSPost2010PropOp38
 70
     1
102
RTVSPost2010Prop39
140
1.0
102
RTVSPost2010PropOp39
 70
     1
102
RTVSPost2010Prop40
 90
        0
102
RTVSPost2010PropOp40
 70
     1
102
RTVSPost2010Prop41ColorIndex
 90
       18
102
RTVSPost2010Prop41ColorRGB
 90
        0
102
RTVSPost2010PropOp41
 70
     1
102
RTVSPost2010Prop42
 90
       50
102
RTVSPost2010PropOp42
 70
     1
102
RTVSPost2010Prop43
 90
        3
102
RTVSPost2010PropOp43
 70
     1
102
RTVSPost2010Prop44ColorIndex
 90
        5
102
RTVSPost2010Prop44ColorRGB
 90
      255
102
RTVSPost2010PropOp44
 70
     1
102
RTVSPost2010Prop45
280
     0
102
RTVSPost2010PropOp45
 70
     1
102
RTVSPost2010Prop46
 90
       50
102
RTVSPost2010PropOp46
 70
     1
102
RTVSPost2010Prop47
 90
       50
102
RTVSPost2010PropOp47
 70
     1
102
RTVSPost2010Prop48
 90
       50
102
RTVSPost2010PropOp48
 70
     1
102
RTVSPost2010Prop49
280
     0
102
RTVSPost2010PropOp49
 70
     1
102
RTVSPost2010Prop50
 90
       50
102
RTVSPost2010PropOp50
 70
     1
102
RTVSPost2010Prop51ColorIndex
 90
      256
102
RTVSPost2010Prop51ColorRGB
 90
-16777216
102
RTVSPost2010PropOp51
 70
     0
102
RTVSPost2010Prop52
140
1.0
102
RTVSPost2010PropOp52
 70
     0
102
RTVSPost2010Prop53
 90
        2
102
RTVSPost2010PropOp53
 70
     1
102
RTVSPost2010Prop54
  1
strokes_ogs.tif
102
RTVSPost2010PropOp54
 70
     1
102
RTVSPost2010Prop55
280
     0
102
RTVSPost2010PropOp55
 70
     1
102
RTVSPost2010Prop56
140
1.0
102
RTVSPost2010PropOp56
 70
     1
102
RTVSPost2010Prop57
140
1.0
102
RTVSPost2010PropOp57
 70
     1
  0
XRECORD
  5
903EB
102
{ACAD_REACTORS
330
87B32
102
}
330
87B32
100
AcDbXrecord
280
     1
102
RTVSPropertyOp0
 70
     1
102
RTVSPropertyOp1
 70
     1
102
RTVSPropertyOp2
 70
     1
102
RTVSPropertyOp3
 70
     1
102
RTVSPropertyOp4
 70
     1
102
RTVSPropertyOp5
 70
     1
102
RTVSPropertyOp6
 70
     1
102
RTVSPropertyOp7
 70
     1
102
RTVSPropertyOp8
 70
     1
102
RTVSPropertyOp9
 70
     1
102
RTVSPropertyOp10
 70
     1
102
RTVSPropertyOp11
 70
     1
102
RTVSPropertyOp12
 70
     1
102
RTVSPropertyOp13
 70
     1
102
RTVSPropertyOp14
 70
     1
102
RTVSPropertyOp15
 70
     1
102
RTVSPropertyOp16
 70
     1
102
RTVSPropertyOp17
 70
     1
102
RTVSPropertyOp18
 70
     1
102
RTVSPropertyOp19
 70
     1
102
RTVSPropertyOp20
 70
     1
102
RTVSPropertyOp21
 70
     1
102
RTVSPropertyOp22
 70
     1
102
RTVSPropertyOp23
 70
     1
102
RTVSPropertyOp24
 70
     1
102
RTVSPropertyOp25
 70
     1
102
RTVSPropertyOp26
 70
     1
102
RTVSPropertyOp27
 70
     1
102
RTVSPropertyOp28
 70
     1
102
RTVSPropertyOp29
 70
     1
102
RTVSPropertyOp30
 70
     1
102
RTVSPropertyOp31
 70
     1
102
RTVSPropertyOp32
 70
     1
102
RTVSPropertyOp33
 70
     1
102
RTVSPropertyOp34
 70
     1
102
RTVSPropertyOp35
 70
     1
102
RTVSPropertyOp36
 70
     1
102
RTVSPropertyOp37
 70
     1
102
RTVSPropertyOp38
 70
     1
102
RTVSPropertyOp39
 70
     1
102
RTVSPropertyOp40
 70
     1
102
RTVSPropertyOp41
 70
     1
102
RTVSPropertyOp42
 70
     1
102
RTVSPropertyOp43
 70
     1
102
RTVSPropertyOp44
 70
     1
102
RTVSPropertyOp45
 70
     1
102
RTVSPropertyOp46
 70
     1
102
RTVSPropertyOp47
 70
     1
102
RTVSPropertyOp48
 70
     1
102
RTVSPropertyOp49
 70
     1
102
RTVSPropertyOp50
 70
     1
102
RTVSPropertyOp51
 70
     0
102
RTVSPropertyOp52
 70
     0
102
RTVSPropertyOp53
 70
     1
102
RTVSPropertyOp54
 70
     1
102
RTVSPropertyOp55
 70
     1
102
RTVSPropertyOp56
 70
     1
102
RTVSPropertyOp57
 70
     1
102
RTVSPost2010Prop28
280
     0
102
RTVSPost2010PropOp28
 70
     1
102
RTVSPost2010Prop29
280
     1
102
RTVSPost2010PropOp29
 70
     1
102
RTVSPost2010Prop30
280
     1
102
RTVSPost2010PropOp30
 70
     1
102
RTVSPost2010Prop31
280
     0
102
RTVSPost2010PropOp31
 70
     1
102
RTVSPost2010Prop32
280
     0
102
RTVSPost2010PropOp32
 70
     1
102
RTVSPost2010Prop33
280
     0
102
RTVSPost2010PropOp33
 70
     1
102
RTVSPost2010Prop34
280
     0
102
RTVSPost2010PropOp34
 70
     1
102
RTVSPost2010Prop35
280
     0
102
RTVSPost2010PropOp35
 70
     1
102
RTVSPost2010Prop36
280
     0
102
RTVSPost2010PropOp36
 70
     1
102
RTVSPost2010Prop37
 90
       50
102
RTVSPost2010PropOp37
 70
     1
102
RTVSPost2010Prop38
140
0.0
102
RTVSPost2010PropOp38
 70
     1
102
RTVSPost2010Prop39
140
1.0
102
RTVSPost2010PropOp39
 70
     1
102
RTVSPost2010Prop40
 90
        0
102
RTVSPost2010PropOp40
 70
     1
102
RTVSPost2010Prop41ColorIndex
 90
       18
102
RTVSPost2010Prop41ColorRGB
 90
        0
102
RTVSPost2010PropOp41
 70
     1
102
RTVSPost2010Prop42
 90
       50
102
RTVSPost2010PropOp42
 70
     1
102
RTVSPost2010Prop43
 90
        3
102
RTVSPost2010PropOp43
 70
     1
102
RTVSPost2010Prop44ColorIndex
 90
        5
102
RTVSPost2010Prop44ColorRGB
 90
      255
102
RTVSPost2010PropOp44
 70
     1
102
RTVSPost2010Prop45
280
     0
102
RTVSPost2010PropOp45
 70
     1
102
RTVSPost2010Prop46
 90
       50
102
RTVSPost2010PropOp46
 70
     1
102
RTVSPost2010Prop47
 90
       50
102
RTVSPost2010PropOp47
 70
     1
102
RTVSPost2010Prop48
 90
       50
102
RTVSPost2010PropOp48
 70
     1
102
RTVSPost2010Prop49
280
     0
102
RTVSPost2010PropOp49
 70
     1
102
RTVSPost2010Prop50
 90
       50
102
RTVSPost2010PropOp50
 70
     1
102
RTVSPost2010Prop51ColorIndex
 90
      256
102
RTVSPost2010Prop51ColorRGB
 90
-16777216
102
RTVSPost2010PropOp51
 70
     0
102
RTVSPost2010Prop52
140
1.0
102
RTVSPost2010PropOp52
 70
     0
102
RTVSPost2010Prop53
 90
        2
102
RTVSPost2010PropOp53
 70
     1
102
RTVSPost2010Prop54
  1
strokes_ogs.tif
102
RTVSPost2010PropOp54
 70
     1
102
RTVSPost2010Prop55
280
     0
102
RTVSPost2010PropOp55
 70
     1
102
RTVSPost2010Prop56
140
1.0
102
RTVSPost2010PropOp56
 70
     1
102
RTVSPost2010Prop57
140
1.0
102
RTVSPost2010PropOp57
 70
     1
  0
ENDSEC
  0
EOF
