  0
SECTION
  2
HEADER
  9
$ACADVER
  1
AC1015
  9
$ACADMAINTVER
 70
    20
  9
$DWGCODEPAGE
  3
ANSI_932
  9
$INSBASE
 10
0.0
 20
0.0
 30
0.0
  9
$EXTMIN
 10
-35.61345902791497
 20
-51.5114707344605
 30
0.0
  9
$EXTMAX
 10
106.7333333333334
 20
92.5582317162314
 30
0.0
  9
$LIMMIN
 10
0.0
 20
0.0
  9
$LIMMAX
 10
420.0
 20
297.0
  9
$ORTHOMODE
 70
     0
  9
$REGENMODE
 70
     1
  9
$FILLMODE
 70
     1
  9
$QTEXTMODE
 70
     0
  9
$MIRRTEXT
 70
     1
  9
$LTSCALE
 40
1.0
  9
$ATTMODE
 70
     1
  9
$TEXTSIZE
 40
3.5
  9
$TRACEWID
 40
1.0
  9
$TEXTSTYLE
  7
simplex
  9
$CLAYER
  8
0
  9
$CELTYPE
  6
ByLayer
  9
$CECOLOR
 62
   256
  9
$CELTSCALE
 40
1.0
  9
$DISPSILH
 70
     0
  9
$DIMSCALE
 40
0.0
  9
$DIMASZ
 40
3.5
  9
$DIMEXO
 40
0.0
  9
$DIMDLI
 40
0.38
  9
$DIMRND
 40
0.0
  9
$DIMDLE
 40
0.0
  9
$DIMEXE
 40
1.5
  9
$DIMTP
 40
0.0
  9
$DIMTM
 40
0.0
  9
$DIMTXT
 40
3.5
  9
$DIMCEN
 40
0.09
  9
$DIMTSZ
 40
0.0
  9
$DIMTOL
 70
     0
  9
$DIMLIM
 70
     0
  9
$DIMTIH
 70
     0
  9
$DIMTOH
 70
     0
  9
$DIMSE1
 70
     0
  9
$DIMSE2
 70
     0
  9
$DIMTAD
 70
     1
  9
$DIMZIN
 70
     8
  9
$DIMBLK
  1

  9
$DIMASO
 70
     1
  9
$DIMSHO
 70
     1
  9
$DIMPOST
  1

  9
$DIMAPOST
  1

  9
$DIMALT
 70
     0
  9
$DIMALTD
 70
     2
  9
$DIMALTF
 40
25.4
  9
$DIMLFAC
 40
1.0
  9
$DIMTOFL
 70
     0
  9
$DIMTVP
 40
0.0
  9
$DIMTIX
 70
     0
  9
$DIMSOXD
 70
     0
  9
$DIMSAH
 70
     0
  9
$DIMBLK1
  1

  9
$DIMBLK2
  1

  9
$DIMSTYLE
  2
コピー - ISO-25
  9
$DIMCLRD
 70
   256
  9
$DIMCLRE
 70
   256
  9
$DIMCLRT
 70
   256
  9
$DIMTFAC
 40
1.0
  9
$DIMGAP
 40
2.299999999999998
  9
$DIMJUST
 70
     0
  9
$DIMSD1
 70
     0
  9
$DIMSD2
 70
     0
  9
$DIMTOLJ
 70
     1
  9
$DIMTZIN
 70
     8
  9
$DIMALTZ
 70
     0
  9
$DIMALTTZ
 70
     0
  9
$DIMUPT
 70
     0
  9
$DIMDEC
 70
     2
  9
$DIMTDEC
 70
     2
  9
$DIMALTU
 70
     2
  9
$DIMALTTD
 70
     2
  9
$DIMTXSTY
  7
simplex
  9
$DIMAUNIT
 70
     0
  9
$DIMADEC
 70
     0
  9
$DIMALTRND
 40
0.0
  9
$DIMAZIN
 70
     0
  9
$DIMDSEP
 70
    46
  9
$DIMATFIT
 70
     3
  9
$DIMFRAC
 70
     0
  9
$DIMLDRBLK
  1

  9
$DIMLUNIT
 70
     2
  9
$DIMLWD
 70
    -1
  9
$DIMLWE
 70
    -1
  9
$DIMTMOVE
 70
     0
  9
$LUNITS
 70
     2
  9
$LUPREC
 70
     4
  9
$SKETCHINC
 40
1.0
  9
$FILLETRAD
 40
0.8
  9
$AUNITS
 70
     0
  9
$AUPREC
 70
     0
  9
$MENU
  1
.
  9
$ELEVATION
 40
0.0
  9
$PELEVATION
 40
0.0
  9
$THICKNESS
 40
0.0
  9
$LIMCHECK
 70
     0
  9
$CHAMFERA
 40
10.0
  9
$CHAMFERB
 40
10.0
  9
$CHAMFERC
 40
20.0
  9
$CHAMFERD
 40
0.0
  9
$SKPOLY
 70
     0
  9
$TDCREATE
 40
2455489.391063368
  9
$TDUCREATE
 40
2455489.057730035
  9
$TDUPDATE
 40
2458948.458148067
  9
$TDUUPDATE
 40
2458948.124814734
  9
$TDINDWG
 40
2.499423021
  9
$TDUSRTIMER
 40
2.499371007
  9
$USRTIMER
 70
     1
  9
$ANGBASE
 50
0.0
  9
$ANGDIR
 70
     0
  9
$PDMODE
 70
     0
  9
$PDSIZE
 40
0.0
  9
$PLINEWID
 40
0.0
  9
$SPLFRAME
 70
     0
  9
$SPLINETYPE
 70
     6
  9
$SPLINESEGS
 70
     8
  9
$HANDSEED
  5
883B6
  9
$SURFTAB1
 70
     6
  9
$SURFTAB2
 70
     6
  9
$SURFTYPE
 70
     6
  9
$SURFU
 70
     6
  9
$SURFV
 70
     6
  9
$UCSBASE
  2

  9
$UCSNAME
  2

  9
$UCSORG
 10
0.0
 20
0.0
 30
0.0
  9
$UCSXDIR
 10
1.0
 20
0.0
 30
0.0
  9
$UCSYDIR
 10
0.0
 20
1.0
 30
0.0
  9
$UCSORTHOREF
  2

  9
$UCSORTHOVIEW
 70
     0
  9
$UCSORGTOP
 10
0.0
 20
0.0
 30
0.0
  9
$UCSORGBOTTOM
 10
0.0
 20
0.0
 30
0.0
  9
$UCSORGLEFT
 10
0.0
 20
0.0
 30
0.0
  9
$UCSORGRIGHT
 10
0.0
 20
0.0
 30
0.0
  9
$UCSORGFRONT
 10
0.0
 20
0.0
 30
0.0
  9
$UCSORGBACK
 10
0.0
 20
0.0
 30
0.0
  9
$PUCSBASE
  2

  9
$PUCSNAME
  2

  9
$PUCSORG
 10
0.0
 20
0.0
 30
0.0
  9
$PUCSXDIR
 10
1.0
 20
0.0
 30
0.0
  9
$PUCSYDIR
 10
0.0
 20
1.0
 30
0.0
  9
$PUCSORTHOREF
  2

  9
$PUCSORTHOVIEW
 70
     0
  9
$PUCSORGTOP
 10
0.0
 20
0.0
 30
0.0
  9
$PUCSORGBOTTOM
 10
0.0
 20
0.0
 30
0.0
  9
$PUCSORGLEFT
 10
0.0
 20
0.0
 30
0.0
  9
$PUCSORGRIGHT
 10
0.0
 20
0.0
 30
0.0
  9
$PUCSORGFRONT
 10
0.0
 20
0.0
 30
0.0
  9
$PUCSORGBACK
 10
0.0
 20
0.0
 30
0.0
  9
$USERI1
 70
     0
  9
$USERI2
 70
     0
  9
$USERI3
 70
     0
  9
$USERI4
 70
     0
  9
$USERI5
 70
     0
  9
$USERR1
 40
0.0
  9
$USERR2
 40
0.0
  9
$USERR3
 40
0.0
  9
$USERR4
 40
0.0
  9
$USERR5
 40
0.0
  9
$WORLDVIEW
 70
     1
  9
$SHADEDGE
 70
     3
  9
$SHADEDIF
 70
    70
  9
$TILEMODE
 70
     1
  9
$MAXACTVP
 70
    64
  9
$PINSBASE
 10
0.0
 20
0.0
 30
0.0
  9
$PLIMCHECK
 70
     0
  9
$PEXTMIN
 10
26.66999878883364
 20
20.31999878883365
 30
0.0
  9
$PEXTMAX
 10
240.0299890995025
 20
182.8799890995025
 30
0.0
  9
$PLIMMIN
 10
-6.350006103515625
 20
-6.349999904632567
  9
$PLIMMAX
 10
273.0499877929688
 20
209.5499939918518
  9
$UNITMODE
 70
     0
  9
$VISRETAIN
 70
     1
  9
$PLINEGEN
 70
     0
  9
$PSLTSCALE
 70
     1
  9
$TREEDEPTH
 70
  3020
  9
$CMLSTYLE
  2
Standard
  9
$CMLJUST
 70
     0
  9
$CMLSCALE
 40
20.0
  9
$PROXYGRAPHICS
 70
     1
  9
$MEASUREMENT
 70
     1
  9
$CELWEIGHT
370
    -1
  9
$ENDCAPS
280
     0
  9
$JOINSTYLE
280
     0
  9
$LWDISPLAY
290
     0
  9
$INSUNITS
 70
     4
  9
$HYPERLINKBASE
  1

  9
$STYLESHEET
  1

  9
$XEDIT
290
     1
  9
$CEPSNTYPE
380
     0
  9
$PSTYLEMODE
290
     1
  9
$FINGERPRINTGUID
  2
{38E643CC-375A-4C9B-A5E4-6A728B1D9FEE}
  9
$VERSIONGUID
  2
{3F98F572-9696-4F56-8F26-F7B7C903DAB6}
  9
$EXTNAMES
290
     1
  9
$PSVPSCALE
 40
0.0
  9
$OLESTARTUP
290
     0
  0
ENDSEC
  0
SECTION
  2
CLASSES
  0
CLASS
  1
ACDBDICTIONARYWDFLT
  2
AcDbDictionaryWithDefault
  3
ObjectDBX Classes
 90
        0
280
     0
281
     0
  0
CLASS
  1
ACDBPLACEHOLDER
  2
AcDbPlaceHolder
  3
ObjectDBX Classes
 90
    32768
280
     0
281
     0
  0
CLASS
  1
LAYOUT
  2
AcDbLayout
  3
ObjectDBX Classes
 90
    32768
280
     0
281
     0
  0
CLASS
  1
DICTIONARYVAR
  2
AcDbDictionaryVar
  3
ObjectDBX Classes
 90
        0
280
     0
281
     0
  0
CLASS
  1
TABLESTYLE
  2
AcDbTableStyle
  3
ObjectDBX Classes
 90
     4095
280
     0
281
     0
  0
CLASS
  1
SORTENTSTABLE
  2
AcDbSortentsTable
  3
ObjectDBX Classes
 90
        0
280
     0
281
     0
  0
CLASS
  1
DIMASSOC
  2
AcDbDimAssoc
  3
"AcDbDimAssoc|Product Desc:     AcDim ARX App For Dimension|Company:          Autodesk, Inc.|WEB Address:      www.autodesk.com"
 90
        0
280
     0
281
     0
  0
CLASS
  1
ACAD_EVALUATION_GRAPH
  2
AcDbEvalGraph
  3
ObjectDBX Classes
 90
    33921
280
     0
281
     0
  0
CLASS
  1
ACAECUSTOBJ
  2
AcAeEditorObj
  3
AcAeEditorObj
 90
    33792
280
     0
281
     0
  0
CLASS
  1
ACDB_DYNAMICBLOCKPURGEPREVENTER_VERSION
  2
AcDbDynamicBlockPurgePreventer
  3
ObjectDBX Classes
 90
    33921
280
     0
281
     0
  0
CLASS
  1
MATERIAL
  2
AcDbMaterial
  3
ObjectDBX Classes
 90
     1153
280
     0
281
     0
  0
CLASS
  1
VISUALSTYLE
  2
AcDbVisualStyle
  3
ObjectDBX Classes
 90
     4095
280
     0
281
     0
  0
CLASS
  1
SCALE
  2
AcDbScale
  3
ObjectDBX Classes
 90
     1153
280
     0
281
     0
  0
CLASS
  1
MLEADERSTYLE
  2
AcDbMLeaderStyle
  3
ACDB_MLEADERSTYLE_CLASS
 90
     4095
280
     0
281
     0
  0
CLASS
  1
ACDBSECTIONVIEWSTYLE
  2
AcDbSectionViewStyle
  3
ObjectDBX Classes
 90
     1025
280
     0
281
     0
  0
CLASS
  1
ACDBDETAILVIEWSTYLE
  2
AcDbDetailViewStyle
  3
ObjectDBX Classes
 90
     1025
280
     0
281
     0
  0
CLASS
  1
CELLSTYLEMAP
  2
AcDbCellStyleMap
  3
ObjectDBX Classes
 90
     1152
280
     0
281
     0
  0
CLASS
  1
ACDBPLACEHOLDER
  2
AcDbPlaceHolder
  3
ObjectDBX Classes
 90
    32768
280
     0
281
     0
  0
CLASS
  1
LAYOUT
  2
AcDbLayout
  3
ObjectDBX Classes
 90
    32768
280
     0
281
     0
  0
CLASS
  1
ACDBPLACEHOLDER
  2
AcDbPlaceHolder
  3
ObjectDBX Classes
 90
    32768
280
     0
281
     0
  0
CLASS
  1
LAYOUT
  2
AcDbLayout
  3
ObjectDBX Classes
 90
    32768
280
     0
281
     0
  0
CLASS
  1
ACDBPLACEHOLDER
  2
AcDbPlaceHolder
  3
ObjectDBX Classes
 90
        0
280
     0
281
     0
  0
CLASS
  1
LAYOUT
  2
AcDbLayout
  3
ObjectDBX Classes
 90
        0
280
     0
281
     0
  0
ENDSEC
  0
SECTION
  2
TABLES
  0
TABLE
  2
VPORT
  5
8
102
{ACAD_XDICTIONARY
360
8831E
102
}
330
0
100
AcDbSymbolTable
 70
     1
  0
VPORT
  5
4A360
330
8
100
AcDbSymbolTableRecord
100
AcDbViewportTableRecord
  2
*Active
 70
     0
 10
0.0
 20
0.0
 11
1.0
 21
1.0
 12
27.81567069111608
 22
16.29379603033487
 13
0.0
 23
0.0
 14
10.0
 24
10.0
 15
10.0
 25
10.0
 16
0.0
 26
0.0
 36
1.0
 17
0.0
 27
0.0
 37
0.0
 40
183.9255403229321
 41
1.705156950672645
 42
50.0
 43
0.0
 44
0.0
 50
0.0
 51
0.0
 71
     0
 72
  1000
 73
     1
 74
     1
 75
     0
 76
     0
 77
     0
 78
     0
281
     0
 65
     1
110
0.0
120
0.0
130
0.0
111
1.0
121
0.0
131
0.0
112
0.0
122
1.0
132
0.0
 79
     0
146
0.0
1001
ACAD_NAV_VCDISPLAY
1070
     3
  0
ENDTAB
  0
TABLE
  2
LTYPE
  5
5
330
0
100
AcDbSymbolTable
 70
     3
  0
LTYPE
  5
14
330
5
100
AcDbSymbolTableRecord
100
AcDbLinetypeTableRecord
  2
ByBlock
 70
     0
  3

 72
    65
 73
     0
 40
0.0
  0
LTYPE
  5
15
330
5
100
AcDbSymbolTableRecord
100
AcDbLinetypeTableRecord
  2
ByLayer
 70
     0
  3

 72
    65
 73
     0
 40
0.0
  0
LTYPE
  5
16
330
5
100
AcDbSymbolTableRecord
100
AcDbLinetypeTableRecord
  2
Continuous
 70
     0
  3
Solid line
 72
    65
 73
     0
 40
0.0
  0
LTYPE
  5
4A76E
330
5
100
AcDbSymbolTableRecord
100
AcDbLinetypeTableRecord
  2
CENTER2
 70
     0
  3
Center (.5x) ___ _ ___ _ ___ _ ___ _ ___ _ ___
 72
    65
 73
     4
 40
28.575
 49
19.05
 74
     0
 49
-3.174999999999998
 74
     0
 49
3.174999999999998
 74
     0
 49
-3.174999999999998
 74
     0
  0
LTYPE
  5
876F6
330
5
100
AcDbSymbolTableRecord
100
AcDbLinetypeTableRecord
  2
HIDDEN
 70
     0
  3
Hidden __ __ __ __ __ __ __ __ __ __ __ __ __ _
 72
    65
 73
     2
 40
9.524999999999996
 49
6.349999999999997
 74
     0
 49
-3.174999999999998
 74
     0
  0
ENDTAB
  0
TABLE
  2
LAYER
  5
2
102
{ACAD_XDICTIONARY
360
E2
102
}
330
0
100
AcDbSymbolTable
 70
    10
  0
LAYER
  5
10
102
{ACAD_XDICTIONARY
360
4A86C
102
}
330
2
100
AcDbSymbolTableRecord
100
AcDbLayerTableRecord
  2
0
 70
     0
 62
     7
  6
Continuous
370
    -3
390
F
  0
LAYER
  5
31B6
330
2
100
AcDbSymbolTableRecord
100
AcDbLayerTableRecord
  2
Defpoints
 70
     0
 62
     7
  6
Continuous
290
     0
370
    -3
390
F
  0
LAYER
  5
4A772
102
{ACAD_XDICTIONARY
360
4A773
102
}
330
2
100
AcDbSymbolTableRecord
100
AcDbLayerTableRecord
  2
1
 70
     0
 62
     4
  6
Continuous
370
    50
390
F
1001
AcAecLayerStandard
1000

1000
Contour
  0
LAYER
  5
4A774
102
{ACAD_XDICTIONARY
360
4A775
102
}
330
2
100
AcDbSymbolTableRecord
100
AcDbLayerTableRecord
  2
2
 70
     0
 62
     7
  6
Continuous
370
    25
390
F
1001
AcAecLayerStandard
1000

1000
Dimension milling
  0
LAYER
  5
4A776
102
{ACAD_XDICTIONARY
360
4A777
102
}
330
2
100
AcDbSymbolTableRecord
100
AcDbLayerTableRecord
  2
4
 70
     0
 62
     2
  6
CENTER2
370
    25
390
F
1001
AcAecLayerStandard
1000

1000
Center line
  0
LAYER
  5
4A778
102
{ACAD_XDICTIONARY
360
4A779
102
}
330
2
100
AcDbSymbolTableRecord
100
AcDbLayerTableRecord
  2
cut
 70
     0
 62
     1
  6
Continuous
370
    25
390
F
1001
AcAecLayerStandard
1000

1000
contour
  0
LAYER
  5
4A77A
102
{ACAD_XDICTIONARY
360
4A77B
102
}
330
2
100
AcDbSymbolTableRecord
100
AcDbLayerTableRecord
  2
nocut
 70
     0
 62
     7
  6
Continuous
370
    25
390
F
1001
AcAecLayerStandard
1000

1000
contour
  0
LAYER
  5
4A77E
102
{ACAD_XDICTIONARY
360
4A77F
102
}
330
2
100
AcDbSymbolTableRecord
100
AcDbLayerTableRecord
  2
sk2
 70
     0
 62
     7
  6
Continuous
370
    25
390
F
1001
AcAecLayerStandard
1000

1000
sk2 dimension
  0
LAYER
  5
4A782
102
{ACAD_XDICTIONARY
360
4A783
102
}
330
2
100
AcDbSymbolTableRecord
100
AcDbLayerTableRecord
  2
sk6
 70
     0
 62
     5
  6
Continuous
370
    35
390
F
1001
AcAecLayerStandard
1000

1000
sk6 text
  0
LAYER
  5
876F4
102
{ACAD_XDICTIONARY
360
8831C
102
}
330
2
100
AcDbSymbolTableRecord
100
AcDbLayerTableRecord
  2
sk3
 70
     0
 62
     1
  6
HIDDEN
370
    35
390
F
1001
AcAecLayerStandard
1000

1000

  0
ENDTAB
  0
TABLE
  2
STYLE
  5
3
330
0
100
AcDbSymbolTable
 70
     2
  0
STYLE
  5
11
330
3
100
AcDbSymbolTableRecord
100
AcDbTextStyleTableRecord
  2
Standard
 70
     0
 40
0.0
 41
1.0
 50
0.0
 71
     0
 42
2.5
  3
txt.shx
  4
@extfont2.shx
  0
STYLE
  5
24A
330
3
100
AcDbSymbolTableRecord
100
AcDbTextStyleTableRecord
  2
simplex
 70
     0
 40
3.5
 41
1.0
 50
0.0
 71
     0
 42
3.5
  3
txt.shx
  4

  0
ENDTAB
  0
TABLE
  2
VIEW
  5
6
330
0
100
AcDbSymbolTable
 70
     0
  0
ENDTAB
  0
TABLE
  2
UCS
  5
7
330
0
100
AcDbSymbolTable
 70
     0
  0
ENDTAB
  0
TABLE
  2
APPID
  5
9
330
0
100
AcDbSymbolTable
 70
    28
  0
APPID
  5
12
330
9
100
AcDbSymbolTableRecord
100
AcDbRegAppTableRecord
  2
ACAD
 70
     0
  0
APPID
  5
D2
330
9
100
AcDbSymbolTableRecord
100
AcDbRegAppTableRecord
  2
AcAecLayerStandard
 70
     0
  0
APPID
  5
E6
330
9
100
AcDbSymbolTableRecord
100
AcDbRegAppTableRecord
  2
ACAD_DSTYLE_DIMTEXT_FILL
 70
     0
  0
APPID
  5
4C84
330
9
100
AcDbSymbolTableRecord
100
AcDbRegAppTableRecord
  2
ACAD_EXEMPT_FROM_CAD_STANDARDS
 70
     0
  0
APPID
  5
3493E
330
9
100
AcDbSymbolTableRecord
100
AcDbRegAppTableRecord
  2
DCO15
 70
     0
  0
APPID
  5
3BAB0
330
9
100
AcDbSymbolTableRecord
100
AcDbRegAppTableRecord
  2
ACAD_DSTYLE_DIMEXT_ENABLED
 70
     0
  0
APPID
  5
3BAB1
330
9
100
AcDbSymbolTableRecord
100
AcDbRegAppTableRecord
  2
ACAD_DSTYLE_DIMEXT_LENGTH
 70
     0
  0
APPID
  5
3BEB4
330
9
100
AcDbSymbolTableRecord
100
AcDbRegAppTableRecord
  2
ACAUTHENVIRON
 70
     0
  0
APPID
  5
3BEB7
330
9
100
AcDbSymbolTableRecord
100
AcDbRegAppTableRecord
  2
AcDbDynamicBlockTrueName
 70
     0
  0
APPID
  5
3BEB8
330
9
100
AcDbSymbolTableRecord
100
AcDbRegAppTableRecord
  2
AcDbDynamicBlockGUID
 70
     0
  0
APPID
  5
3BEBA
330
9
100
AcDbSymbolTableRecord
100
AcDbRegAppTableRecord
  2
AcDbBlockRepETag
 70
     0
  0
APPID
  5
4A453
330
9
100
AcDbSymbolTableRecord
100
AcDbRegAppTableRecord
  2
ACAD_PSEXT
 70
     0
  0
APPID
  5
4A454
330
9
100
AcDbSymbolTableRecord
100
AcDbRegAppTableRecord
  2
AcadAnnotative
 70
     0
  0
APPID
  5
4A455
330
9
100
AcDbSymbolTableRecord
100
AcDbRegAppTableRecord
  2
ACAD_DSTYLE_DIMJAG
 70
     0
  0
APPID
  5
4A456
330
9
100
AcDbSymbolTableRecord
100
AcDbRegAppTableRecord
  2
ACAD_DSTYLE_DIMTALN
 70
     0
  0
APPID
  5
4A457
330
9
100
AcDbSymbolTableRecord
100
AcDbRegAppTableRecord
  2
ACAD_NAV_VCDISPLAY
 70
     0
  0
APPID
  5
4A787
330
9
100
AcDbSymbolTableRecord
100
AcDbRegAppTableRecord
  2
ACAD_DSTYLE_DIMINSPECT
 70
     0
  0
APPID
  5
4A788
330
9
100
AcDbSymbolTableRecord
100
AcDbRegAppTableRecord
  2
GENIUS_GENDTOL_13
 70
     0
  0
APPID
  5
4A789
330
9
100
AcDbSymbolTableRecord
100
AcDbRegAppTableRecord
  2
ZWMCAD_GENSTANDARDFRAME_13_
 70
     0
  0
APPID
  5
4A78A
330
9
100
AcDbSymbolTableRecord
100
AcDbRegAppTableRecord
  2
ZW_RECESS_XDATA
 70
     0
  0
APPID
  5
4A78B
330
9
100
AcDbSymbolTableRecord
100
AcDbRegAppTableRecord
  2
ZW_FAC_XDATA
 70
     0
  0
APPID
  5
4A78C
330
9
100
AcDbSymbolTableRecord
100
AcDbRegAppTableRecord
  2
ZW_FLC_XDATA
 70
     0
  0
APPID
  5
4A78D
330
9
100
AcDbSymbolTableRecord
100
AcDbRegAppTableRecord
  2
ZW_SUPERPART
 70
     0
  0
APPID
  5
4A78E
330
9
100
AcDbSymbolTableRecord
100
AcDbRegAppTableRecord
  2
ZW_SUPERSYMBOL
 70
     0
  0
APPID
  5
4A78F
330
9
100
AcDbSymbolTableRecord
100
AcDbRegAppTableRecord
  2
ZW_SUPERSHAFT
 70
     0
  0
APPID
  5
4A790
330
9
100
AcDbSymbolTableRecord
100
AcDbRegAppTableRecord
  2
ZWMCAD_GENFRAME_13_
 70
     0
  0
APPID
  5
4A791
330
9
100
AcDbSymbolTableRecord
100
AcDbRegAppTableRecord
  2
ACAD_MLEADERVER
 70
     0
  0
APPID
  5
4A792
330
9
100
AcDbSymbolTableRecord
100
AcDbRegAppTableRecord
  2
ACAD_DSTYLE_DIMRADIAL_EXTENSION
 70
     0
  0
ENDTAB
  0
TABLE
  2
DIMSTYLE
  5
A
330
0
100
AcDbSymbolTable
 70
     2
100
AcDbDimStyleTable
 71
     2
340
1BF
340
3527
  0
DIMSTYLE
105
1BF
102
{ACAD_REACTORS
330
87F50
330
880DF
330
880E2
330
880E3
330
880E4
330
880E7
330
880E8
330
881E8
102
}
330
A
100
AcDbSymbolTableRecord
100
AcDbDimStyleTableRecord
  2
コピー - ISO-25
 70
     0
 40
0.0
 41
3.5
 42
0.0
 44
1.5
 73
     0
 74
     0
 77
     1
 78
     8
140
3.5
147
2.299999999999998
176
   256
177
   256
271
     2
178
   256
271
     2
272
     2
284
     8
340
24A
371
    -1
372
    -1
  0
DIMSTYLE
105
3527
330
A
100
AcDbSymbolTableRecord
100
AcDbDimStyleTableRecord
  2
STANDARD
 70
     0
 41
3.0
 47
0.001
 48
0.001
 71
     1
 73
     0
 74
     0
 77
     1
 78
     8
140
4.0
271
     3
272
     3
284
     8
340
11
341
34B1
342
34B1
343
34B1
344
34B1
  0
ENDTAB
  0
TABLE
  2
BLOCK_RECORD
  5
1
330
0
100
AcDbSymbolTable
 70
    11
  0
BLOCK_RECORD
  5
1F
102
{ACAD_XDICTIONARY
360
31EE
102
}
330
1
100
AcDbSymbolTableRecord
100
AcDbBlockTableRecord
  2
*Model_Space
340
22
  0
BLOCK_RECORD
  5
55
330
1
100
AcDbSymbolTableRecord
100
AcDbBlockTableRecord
  2
*Paper_Space
340
56
  0
BLOCK_RECORD
  5
50
330
1
100
AcDbSymbolTableRecord
100
AcDbBlockTableRecord
  2
*Paper_Space0000
340
51
  0
BLOCK_RECORD
  5
34B1
330
1
100
AcDbSymbolTableRecord
100
AcDbBlockTableRecord
  2
_OPEN
340
0
  0
BLOCK_RECORD
  5
4A6D6
102
{ACAD_XDICTIONARY
360
4A6D7
102
}
330
1
100
AcDbSymbolTableRecord
100
AcDbBlockTableRecord
  2
zero block
340
0
102
{BLKREFS
331
880A4
331
4A793
331
87720
331
878CB
331
87EFA
102
}
1001
AcDbDynamicBlockGUID
1000
{A89DF4EB-B2CB-439E-AC69-1EAC9F242D1C}
1001
AcDbBlockRepETag
1070
     1
1071
        7
1001
ACAD
1000
DesignCenter Data
1002
{
1070
     1
1070
     4
1002
}
  0
BLOCK_RECORD
  5
8778B
330
1
100
AcDbSymbolTableRecord
100
AcDbBlockTableRecord
  2
_None
340
0
102
{BLKREFS
331
88208
331
88254
331
88292
331
882DE
331
8778A
331
87A30
331
87A7C
331
87B44
331
87DE9
331
87E35
331
87F64
102
}
  0
BLOCK_RECORD
  5
881EB
330
1
100
AcDbSymbolTableRecord
100
AcDbBlockTableRecord
  2
*D5444
340
0
  0
BLOCK_RECORD
  5
881F7
330
1
100
AcDbSymbolTableRecord
100
AcDbBlockTableRecord
  2
*D5555
340
0
  0
BLOCK_RECORD
  5
88204
330
1
100
AcDbSymbolTableRecord
100
AcDbBlockTableRecord
  2
*D5666
340
0
  0
BLOCK_RECORD
  5
8820F
330
1
100
AcDbSymbolTableRecord
100
AcDbBlockTableRecord
  2
*D5777
340
0
  0
BLOCK_RECORD
  5
8821C
330
1
100
AcDbSymbolTableRecord
100
AcDbBlockTableRecord
  2
*D5888
340
0
  0
BLOCK_RECORD
  5
88228
330
1
100
AcDbSymbolTableRecord
100
AcDbBlockTableRecord
  2
*D5999
340
0
  0
BLOCK_RECORD
  5
88234
330
1
100
AcDbSymbolTableRecord
100
AcDbBlockTableRecord
  2
*D601010
340
0
  0
ENDTAB
  0
ENDSEC
  0
SECTION
  2
BLOCKS
  0
BLOCK
  5
20
330
1F
100
AcDbEntity
  8
0
100
AcDbBlockBegin
  2
*Model_Space
 70
     0
 10
0.0
 20
0.0
 30
0.0
  3
*Model_Space
  1

  0
ENDBLK
  5
21
330
1F
100
AcDbEntity
  8
0
100
AcDbBlockEnd
  0
BLOCK
  5
57
330
55
100
AcDbEntity
 67
     1
  8
0
100
AcDbBlockBegin
  2
*Paper_Space
 70
     0
 10
0.0
 20
0.0
 30
0.0
  3
*Paper_Space
  1

  0
ENDBLK
  5
58
330
55
100
AcDbEntity
 67
     1
  8
0
100
AcDbBlockEnd
  0
BLOCK
  5
52
330
50
100
AcDbEntity
  8
0
100
AcDbBlockBegin
  2
*Paper_Space0000
 70
     0
 10
0.0
 20
0.0
 30
0.0
  3
*Paper_Space0000
  1

  0
VIEWPORT
  5
6B
102
{ACAD_XDICTIONARY
360
87699
102
}
330
50
100
AcDbEntity
  8
0
100
AcDbViewport
 10
264.3775031494645
 20
160.4455827878762
 30
0.0
 40
567.6219612953822
 41
282.2272140146125
 68
     1
 69
    -1
 12
264.3775031494645
 22
160.4455827878762
 13
0.0
 23
0.0
 14
10.0
 24
10.0
 15
10.0
 25
10.0
 16
0.0
 26
0.0
 36
1.0
 17
0.0
 27
0.0
 37
0.0
 42
50.0
 43
0.0
 44
0.0
 45
282.2272140146125
 50
0.0
 51
0.0
 72
  1000
 90
    32864
  1

281
     0
 71
     1
 74
     0
110
0.0
120
0.0
130
0.0
111
1.0
121
0.0
131
0.0
112
0.0
122
1.0
132
0.0
 79
     0
146
0.0
1001
ACAD
1000
MVIEW
1002
{
1070
    16
1010
0.0
1020
0.0
1030
0.0
1010
0.0
1020
0.0
1030
1.0
1040
0.0
1040
282.2272140146125
1040
264.3775031494645
1040
160.4455827878762
1040
50.0
1040
0.0
1040
0.0
1070
     0
1070
  1000
1070
     0
1070
     3
1070
     0
1070
     0
1070
     0
1070
     0
1040
0.0
1040
0.0
1040
0.0
1040
10.0
1040
10.0
1040
10.0
1040
10.0
1070
     0
1002
{
1002
}
1002
}
  0
VIEWPORT
  5
6D
102
{ACAD_XDICTIONARY
360
8769B
102
}
330
50
100
AcDbEntity
  8
0
100
AcDbViewport
 10
133.3499939441681
 20
101.5999939441681
 30
0.0
 40
213.3599903106689
 41
162.5599903106689
 68
     2
 69
    -1
 12
210.0
 22
148.5
 13
0.0
 23
0.0
 14
10.0
 24
10.0
 15
10.0
 25
10.0
 16
0.0
 26
0.0
 36
1.0
 17
0.0
 27
0.0
 37
0.0
 42
50.0
 43
0.0
 44
0.0
 45
324.0677920111345
 50
0.0
 51
0.0
 72
   100
 90
    32864
  1

281
     0
 71
     1
 74
     0
110
0.0
120
0.0
130
0.0
111
1.0
121
0.0
131
0.0
112
0.0
122
1.0
132
0.0
 79
     0
146
0.0
1001
ACAD
1000
MVIEW
1002
{
1070
    16
1010
0.0
1020
0.0
1030
0.0
1010
0.0
1020
0.0
1030
1.0
1040
0.0
1040
324.0677920111345
1040
210.0
1040
148.5
1040
50.0
1040
0.0
1040
0.0
1070
     0
1070
   100
1070
     0
1070
     3
1070
     0
1070
     0
1070
     0
1070
     0
1040
0.0
1040
0.0
1040
0.0
1040
10.0
1040
10.0
1040
10.0
1040
10.0
1070
     0
1002
{
1002
}
1002
}
  0
ENDBLK
  5
53
330
50
100
AcDbEntity
  8
0
100
AcDbBlockEnd
  0
BLOCK
  5
34B2
330
34B1
100
AcDbEntity
  8
0
100
AcDbBlockBegin
  2
_OPEN
 70
     0
 10
0.0
 20
0.0
 30
0.0
  3
_OPEN
  1

  0
LINE
  5
34B3
330
34B1
100
AcDbEntity
  8
0
  6
ByBlock
 62
     0
100
AcDbLine
 10
0.0
 20
0.0
 30
0.0
 11
-1.0
 21
0.1766666667
 31
0.0
  0
LINE
  5
34B4
330
34B1
100
AcDbEntity
  8
0
  6
ByBlock
 62
     0
100
AcDbLine
 10
-1.0
 20
-0.1766666667
 30
0.0
 11
0.0
 21
0.0
 31
0.0
  0
LINE
  5
34B5
330
34B1
100
AcDbEntity
  8
0
  6
ByBlock
 62
     0
100
AcDbLine
 10
-1.0
 20
0.0
 30
0.0
 11
0.0
 21
0.0
 31
0.0
  0
ENDBLK
  5
34B6
330
34B1
100
AcDbEntity
  8
0
  6
ByBlock
 62
     0
100
AcDbBlockEnd
  0
BLOCK
  5
4A6D9
330
4A6D6
100
AcDbEntity
  8
0
100
AcDbBlockBegin
  2
zero block
 70
     0
 10
0.0
 20
0.0
 30
0.0
  3
zero block
  1

  0
HATCH
  5
4A6DA
330
4A6D6
100
AcDbEntity
  8
0
 62
     7
100
AcDbHatch
 10
0.0
 20
0.0
 30
0.0
210
0.0
220
0.0
230
1.0
  2
SOLID
 70
     1
 71
     0
 91
        2
 92
        7
 72
     1
 73
     1
 93
        3
 10
0.0
 20
0.9999999999999875
 42
0.4142135623730915
 10
-1.0
 20
0.0
 42
0.0
 10
0.0
 20
0.0
 42
0.0
 97
        0
 92
        7
 72
     1
 73
     1
 93
        3
 10
1.000000000000007
 20
0.0
 42
0.0
 10
0.0
 20
0.0
 42
0.0
 10
0.0
 20
-1.0
 42
0.4142135623730974
 97
        0
 75
     0
 76
     1
 47
0.0090601366782909
 98
        2
 10
-0.380591363650975
 20
0.4885804701532896
 10
0.4350764810977559
 20
-0.4536738423704725
1001
AcDbBlockRepETag
1070
     1
1071
        0
1005
4A6DA
  0
LINE
  5
4A6DB
330
4A6D6
100
AcDbEntity
  8
0
 62
     7
 48
0.2
100
AcDbLine
 10
-1.0
 20
0.0
 30
0.0
 11
1.000000000000007
 21
0.0
 31
0.0
1001
AcDbBlockRepETag
1070
     1
1071
        1
1005
4A6DB
  0
LINE
  5
4A6DC
330
4A6D6
100
AcDbEntity
  8
0
 62
     7
 48
0.2
100
AcDbLine
 10
0.0
 20
-1.0
 30
0.0
 11
0.0
 21
0.9999999999999875
 31
0.0
1001
AcDbBlockRepETag
1070
     1
1071
        2
1005
4A6DC
  0
ARC
  5
4A6DD
330
4A6D6
100
AcDbEntity
  8
0
 62
     7
 48
0.2
100
AcDbCircle
 10
0.0
 20
0.0
 30
0.0
 40
1.0
100
AcDbArc
 50
270.0
 51
0.0
1001
AcDbBlockRepETag
1070
     1
1071
        3
1005
4A6DD
  0
ARC
  5
4A6DE
330
4A6D6
100
AcDbEntity
  8
0
 62
     7
 48
0.2
100
AcDbCircle
 10
0.0
 20
0.0
 30
0.0
 40
1.0
100
AcDbArc
 50
0.0
 51
90.0
1001
AcDbBlockRepETag
1070
     1
1071
        4
1005
4A6DE
  0
ARC
  5
4A6DF
330
4A6D6
100
AcDbEntity
  8
0
 62
     7
 48
0.2
100
AcDbCircle
 10
0.0
 20
0.0
 30
0.0
 40
1.0
100
AcDbArc
 50
180.0
 51
270.0
1001
AcDbBlockRepETag
1070
     1
1071
        5
1005
4A6DF
  0
ARC
  5
4A6E0
330
4A6D6
100
AcDbEntity
  8
0
 62
     7
 48
0.2
100
AcDbCircle
 10
0.0
 20
0.0
 30
0.0
 40
1.0
100
AcDbArc
 50
90.0
 51
180.0
1001
AcDbBlockRepETag
1070
     1
1071
        6
1005
4A6E0
  0
ENDBLK
  5
4A6E1
330
4A6D6
100
AcDbEntity
  8
0
100
AcDbBlockEnd
  0
BLOCK
  5
8778C
330
8778B
100
AcDbEntity
  8
0
100
AcDbBlockBegin
  2
_None
 70
     0
 10
0.0
 20
0.0
 30
0.0
  3
_None
  1

  0
ENDBLK
  5
8778D
330
8778B
100
AcDbEntity
  8
0
100
AcDbBlockEnd
  0
BLOCK
  5
881F5
330
881EB
100
AcDbEntity
  8
0
100
AcDbBlockBegin
  2
*D5444
 70
     1
 10
0.0
 20
0.0
 30
0.0
  3
*D5444
  1

  0
LINE
  5
88384
330
881EB
100
AcDbEntity
  8
2
100
AcDbLine
 10
0.0
 20
26.28149999889999
 30
0.0
 11
0.0
 21
71.3351448400974
 31
0.0
  0
LINE
  5
88385
330
881EB
100
AcDbEntity
  8
2
100
AcDbLine
 10
50.8
 20
37.29999999889092
 30
0.0
 11
50.8
 21
71.3351448400974
 31
0.0
  0
LINE
  5
88386
330
881EB
100
AcDbEntity
  8
2
100
AcDbLine
 10
3.499999999999999
 20
69.8351448400974
 30
0.0
 11
47.29999999999999
 21
69.8351448400974
 31
0.0
  0
SOLID
  5
88387
330
881EB
100
AcDbEntity
  8
2
100
AcDbTrace
 10
3.499999999999999
 20
70.41847817343072
 30
0.0
 11
3.499999999999999
 21
69.25181150676407
 31
0.0
 12
0.0
 22
69.8351448400974
 32
0.0
 13
0.0
 23
69.8351448400974
 33
0.0
  0
SOLID
  5
88388
330
881EB
100
AcDbEntity
  8
2
100
AcDbTrace
 10
47.29999999999999
 20
69.25181150676407
 30
0.0
 11
47.29999999999999
 21
70.41847817343072
 31
0.0
 12
50.8
 22
69.8351448400974
 32
0.0
 13
50.8
 23
69.8351448400974
 33
0.0
  0
MTEXT
  5
88389
330
881EB
100
AcDbEntity
  8
2
100
AcDbMText
 10
25.66273903550541
 20
73.88514484009739
 30
0.0
 40
3.5
 41
0.0
 71
     5
 72
     1
  1
\A1;50.8 [2.000"]
  7
simplex
 73
     1
 44
1.0
1001
ACAD
1000
MTEXTBEGIN
1070
    73
1070
     1
1070
    44
1040
1.0
1070
    74
1070
     0
1000
MTEXTEND
  0
POINT
  5
8838A
330
881EB
100
AcDbEntity
  8
Defpoints
 62
     0
100
AcDbPoint
 10
0.0
 20
26.28149999889999
 30
0.0
  0
POINT
  5
8838B
330
881EB
100
AcDbEntity
  8
Defpoints
 62
     0
100
AcDbPoint
 10
50.8
 20
37.29999999889092
 30
0.0
  0
POINT
  5
8838C
330
881EB
100
AcDbEntity
  8
Defpoints
 62
     0
100
AcDbPoint
 10
50.8
 20
69.8351448400974
 30
0.0
  0
ENDBLK
  5
881F6
330
881EB
100
AcDbEntity
  8
0
100
AcDbBlockEnd
  0
BLOCK
  5
88202
330
881F7
100
AcDbEntity
  8
0
100
AcDbBlockBegin
  2
*D5555
 70
     1
 10
0.0
 20
0.0
 30
0.0
  3
*D5555
  1

  0
LINE
  5
8837A
330
881F7
100
AcDbEntity
  8
2
100
AcDbLine
 10
42.60000000000002
 20
38.09999999889999
 30
0.0
 11
42.60000000000002
 21
61.41922213148585
 31
0.0
  0
LINE
  5
8837B
330
881F7
100
AcDbEntity
  8
2
100
AcDbLine
 10
50.8
 20
37.29999999890001
 30
0.0
 11
50.8
 21
61.41922213148585
 31
0.0
  0
LINE
  5
8837C
330
881F7
100
AcDbEntity
  8
2
100
AcDbLine
 10
54.29999999999999
 20
59.91922213148586
 30
0.0
 11
106.7333333333334
 21
59.91922213148586
 31
0.0
  0
LINE
  5
8837D
330
881F7
100
AcDbEntity
  8
2
100
AcDbLine
 10
39.10000000000002
 20
59.91922213148586
 30
0.0
 11
35.60000000000002
 21
59.91922213148586
 31
0.0
  0
SOLID
  5
8837E
330
881F7
100
AcDbEntity
  8
2
100
AcDbTrace
 10
39.10000000000002
 20
59.33588879815252
 30
0.0
 11
39.10000000000002
 21
60.5025554648192
 31
0.0
 12
42.60000000000002
 22
59.91922213148586
 32
0.0
 13
42.60000000000002
 23
59.91922213148586
 33
0.0
  0
SOLID
  5
8837F
330
881F7
100
AcDbEntity
  8
2
100
AcDbTrace
 10
54.29999999999999
 20
60.5025554648192
 30
0.0
 11
54.29999999999999
 21
59.33588879815252
 31
0.0
 12
50.8
 22
59.91922213148586
 32
0.0
 13
50.8
 23
59.91922213148586
 33
0.0
  0
MTEXT
  5
88380
330
881F7
100
AcDbEntity
  8
2
100
AcDbMText
 10
82.26666666666673
 20
63.96922213148585
 30
0.0
 40
3.5
 41
0.0
 71
     5
 72
     1
  1
\A1;8.2 [.323"](MAX)
  7
simplex
 73
     1
 44
1.0
1001
ACAD
1000
MTEXTBEGIN
1070
    73
1070
     1
1070
    44
1040
1.0
1070
    74
1070
     0
1000
MTEXTEND
  0
POINT
  5
88381
330
881F7
100
AcDbEntity
  8
Defpoints
 62
     0
100
AcDbPoint
 10
42.60000000000002
 20
38.09999999889999
 30
0.0
  0
POINT
  5
88382
330
881F7
100
AcDbEntity
  8
Defpoints
 62
     0
100
AcDbPoint
 10
50.8
 20
37.29999999890001
 30
0.0
  0
POINT
  5
88383
330
881F7
100
AcDbEntity
  8
Defpoints
 62
     0
100
AcDbPoint
 10
50.8
 20
59.91922213148586
 30
0.0
  0
ENDBLK
  5
88203
330
881F7
100
AcDbEntity
  8
0
100
AcDbBlockEnd
  0
BLOCK
  5
8820D
330
88204
100
AcDbEntity
  8
0
100
AcDbBlockBegin
  2
*D5666
 70
     1
 10
0.0
 20
0.0
 30
0.0
  3
*D5666
  1

  0
LINE
  5
882DB
330
88204
100
AcDbEntity
  8
2
100
AcDbLine
 10
50.0
 20
38.09999999890003
 30
0.0
 11
72.20766079186773
 21
38.09999999890003
 31
0.0
  0
LINE
  5
882DC
330
88204
100
AcDbEntity
  8
2
100
AcDbLine
 10
70.70766079186774
 20
34.59999999890002
 30
0.0
 11
70.70766079186774
 21
-38.09999999889999
 31
0.0
  0
SOLID
  5
882DD
330
88204
100
AcDbEntity
  8
2
100
AcDbTrace
 10
71.29099412520107
 20
34.59999999890002
 30
0.0
 11
70.12432745853441
 21
34.59999999890002
 31
0.0
 12
70.70766079186774
 22
38.09999999890003
 32
0.0
 13
70.70766079186774
 23
38.09999999890003
 33
0.0
  0
INSERT
  5
882DE
330
88204
100
AcDbEntity
  8
2
100
AcDbBlockReference
  2
_None
 10
70.70766079186774
 20
-38.09999999889999
 30
0.0
 41
3.5
 42
3.5
 43
3.5
 50
270.0
  0
MTEXT
  5
882DF
330
88204
100
AcDbEntity
  8
2
100
AcDbMText
 10
66.65766079186774
 20
-1.749999999999985
 30
0.0
 40
3.5
 41
0.0
 71
     5
 72
     1
  1
\A1;%%C76.2 [%%c3.000"]
  7
simplex
 11
0.0
 21
1.0
 31
0.0
 73
     1
 44
1.0
1001
ACAD
1000
MTEXTBEGIN
1070
    73
1070
     1
1070
    44
1040
1.0
1070
    74
1070
     0
1000
MTEXTEND
  0
POINT
  5
882E0
330
88204
100
AcDbEntity
  8
Defpoints
 62
     0
100
AcDbPoint
 10
50.0
 20
38.09999999890003
 30
0.0
  0
POINT
  5
882E1
330
88204
100
AcDbEntity
  8
Defpoints
 62
     0
100
AcDbPoint
 10
50.0
 20
-38.09999999889999
 30
0.0
  0
POINT
  5
882E2
330
88204
100
AcDbEntity
  8
Defpoints
 62
     0
100
AcDbPoint
 10
70.70766079186774
 20
-38.09999999889999
 30
0.0
  0
ENDBLK
  5
8820E
330
88204
100
AcDbEntity
  8
0
100
AcDbBlockEnd
  0
BLOCK
  5
8821A
330
8820F
100
AcDbEntity
  8
0
100
AcDbBlockBegin
  2
*D5777
 70
     1
 10
0.0
 20
0.0
 30
0.0
  3
*D5777
  1

  0
LINE
  5
882E3
330
8820F
100
AcDbEntity
  8
sk2
100
AcDbLine
 10
0.0
 20
-26.28147774479999
 30
0.0
 11
0.0
 21
-51.5114707344605
 31
0.0
  0
LINE
  5
882E4
330
8820F
100
AcDbEntity
  8
sk2
100
AcDbLine
 10
24.0
 20
-12.3999999989
 30
0.0
 11
24.0
 21
-51.5114707344605
 31
0.0
  0
LINE
  5
882E5
330
8820F
100
AcDbEntity
  8
sk2
100
AcDbLine
 10
24.0
 20
-50.01147073446048
 30
0.0
 11
60.09999999999998
 21
-50.01147073446048
 31
0.0
  0
LINE
  5
882E6
330
8820F
100
AcDbEntity
  8
sk2
100
AcDbLine
 10
3.5
 20
-50.01147073446048
 30
0.0
 11
20.5
 21
-50.01147073446048
 31
0.0
  0
SOLID
  5
882E7
330
8820F
100
AcDbEntity
  8
sk2
100
AcDbTrace
 10
3.5
 20
-49.42813740112715
 30
0.0
 11
3.5
 21
-50.59480406779382
 31
0.0
 12
0.0
 22
-50.01147073446048
 32
0.0
 13
0.0
 23
-50.01147073446048
 33
0.0
  0
SOLID
  5
882E8
330
8820F
100
AcDbEntity
  8
sk2
100
AcDbTrace
 10
20.5
 20
-50.59480406779382
 30
0.0
 11
20.5
 21
-49.42813740112715
 31
0.0
 12
24.0
 22
-50.01147073446048
 32
0.0
 13
24.0
 23
-50.01147073446048
 33
0.0
  0
MTEXT
  5
882E9
330
8820F
100
AcDbEntity
  8
sk2
100
AcDbMText
 10
43.79999999999999
 20
-45.9614707344605
 30
0.0
 40
3.5
 41
0.0
 71
     5
 72
     1
  1
\A1;24 [.945"]
  7
simplex
 73
     1
 44
1.0
1001
ACAD
1000
MTEXTBEGIN
1070
    73
1070
     1
1070
    44
1040
1.0
1070
    74
1070
     0
1000
MTEXTEND
  0
POINT
  5
882EA
330
8820F
100
AcDbEntity
  8
Defpoints
 62
     0
100
AcDbPoint
 10
0.0
 20
-26.28147774479999
 30
0.0
  0
POINT
  5
882EB
330
8820F
100
AcDbEntity
  8
Defpoints
 62
     0
100
AcDbPoint
 10
24.0
 20
-12.3999999989
 30
0.0
  0
POINT
  5
882EC
330
8820F
100
AcDbEntity
  8
Defpoints
 62
     0
100
AcDbPoint
 10
24.0
 20
-50.01147073446048
 30
0.0
  0
ENDBLK
  5
8821B
330
8820F
100
AcDbEntity
  8
0
100
AcDbBlockEnd
  0
BLOCK
  5
88226
330
8821C
100
AcDbEntity
  8
0
100
AcDbBlockBegin
  2
*D5888
 70
     1
 10
0.0
 20
0.0
 30
0.0
  3
*D5888
  1

  0
LINE
  5
882ED
330
8821C
100
AcDbEntity
  8
sk2
100
AcDbLine
 10
1.5
 20
27.78152225520006
 30
0.0
 11
-31.31345902791497
 21
27.78152225520007
 31
0.0
  0
LINE
  5
882EE
330
8821C
100
AcDbEntity
  8
sk2
100
AcDbLine
 10
1.5
 20
-27.78147774479999
 30
0.0
 11
-31.31345902791498
 21
-27.78147774479998
 31
0.0
  0
LINE
  5
882EF
330
8821C
100
AcDbEntity
  8
sk2
100
AcDbLine
 10
-29.81345902791497
 20
24.28152225520006
 30
0.0
 11
-29.81345902791498
 21
-24.28147774479998
 31
0.0
  0
SOLID
  5
882F0
330
8821C
100
AcDbEntity
  8
sk2
100
AcDbTrace
 10
-29.23012569458164
 20
24.28152225520006
 30
0.0
 11
-30.3967923612483
 21
24.28152225520006
 31
0.0
 12
-29.81345902791497
 22
27.78152225520007
 32
0.0
 13
-29.81345902791497
 23
27.78152225520007
 33
0.0
  0
SOLID
  5
882F1
330
8821C
100
AcDbEntity
  8
sk2
100
AcDbTrace
 10
-30.39679236124831
 20
-24.28147774479998
 30
0.0
 11
-29.23012569458164
 21
-24.28147774479998
 31
0.0
 12
-29.81345902791498
 22
-27.78147774479998
 32
0.0
 13
-29.81345902791498
 23
-27.78147774479998
 33
0.0
  0
MTEXT
  5
882F2
330
8821C
100
AcDbEntity
  8
sk2
100
AcDbMText
 10
-33.86345902791497
 20
0.0000222552000404
 30
0.0
 40
3.5
 41
0.0
 71
     5
 72
     1
  1
\A1;%%C55.563 [%%c2.188"]
  7
simplex
 11
0.0000000000000001
 21
1.0
 31
0.0
 73
     1
 44
1.0
1001
ACAD
1000
MTEXTBEGIN
1070
    73
1070
     1
1070
    44
1040
1.0
1070
    74
1070
     0
1000
MTEXTEND
  0
POINT
  5
882F3
330
8821C
100
AcDbEntity
  8
Defpoints
 62
     0
100
AcDbPoint
 10
1.5
 20
27.78152225520006
 30
0.0
  0
POINT
  5
882F4
330
8821C
100
AcDbEntity
  8
Defpoints
 62
     0
100
AcDbPoint
 10
1.5
 20
-27.78147774479999
 30
0.0
  0
POINT
  5
882F5
330
8821C
100
AcDbEntity
  8
Defpoints
 62
     0
100
AcDbPoint
 10
-29.81345902791498
 20
-27.78147774479998
 30
0.0
  0
ENDBLK
  5
88227
330
8821C
100
AcDbEntity
  8
0
100
AcDbBlockEnd
  0
BLOCK
  5
88232
330
88228
100
AcDbEntity
  8
0
100
AcDbBlockBegin
  2
*D5999
 70
     1
 10
0.0
 20
0.0
 30
0.0
  3
*D5999
  1

  0
LINE
  5
882F6
330
88228
100
AcDbEntity
  8
sk2
100
AcDbLine
 10
4.0
 20
12.69999999890001
 30
0.0
 11
-21.35445918191135
 21
12.69999999890001
 31
0.0
  0
LINE
  5
882F7
330
88228
100
AcDbEntity
  8
sk2
100
AcDbLine
 10
4.0
 20
-12.69999999890001
 30
0.0
 11
-21.35445918191135
 21
-12.69999999890001
 31
0.0
  0
LINE
  5
882F8
330
88228
100
AcDbEntity
  8
sk2
100
AcDbLine
 10
-19.85445918191135
 20
9.199999998900011
 30
0.0
 11
-19.85445918191135
 21
-9.199999998900008
 31
0.0
  0
SOLID
  5
882F9
330
88228
100
AcDbEntity
  8
sk2
100
AcDbTrace
 10
-19.27112584857802
 20
9.199999998900011
 30
0.0
 11
-20.43779251524469
 21
9.199999998900011
 31
0.0
 12
-19.85445918191135
 22
12.69999999890001
 32
0.0
 13
-19.85445918191135
 23
12.69999999890001
 33
0.0
  0
SOLID
  5
882FA
330
88228
100
AcDbEntity
  8
sk2
100
AcDbTrace
 10
-20.43779251524469
 20
-9.199999998900008
 30
0.0
 11
-19.27112584857802
 21
-9.199999998900008
 31
0.0
 12
-19.85445918191135
 22
-12.69999999890001
 32
0.0
 13
-19.85445918191135
 23
-12.69999999890001
 33
0.0
  0
MTEXT
  5
882FB
330
88228
100
AcDbEntity
  8
sk2
100
AcDbMText
 10
-23.90445918191135
 20
-1.255485715559927
 30
0.0
 40
3.5
 41
0.0
 71
     5
 72
     1
  1
\A1;%%C25.4 [%%c1.000"]
  7
simplex
 11
0.0
 21
1.0
 31
0.0
 73
     1
 44
1.0
1001
ACAD
1000
MTEXTBEGIN
1070
    73
1070
     1
1070
    44
1040
1.0
1070
    74
1070
     0
1000
MTEXTEND
  0
POINT
  5
882FC
330
88228
100
AcDbEntity
  8
Defpoints
 62
     0
100
AcDbPoint
 10
4.0
 20
12.69999999890001
 30
0.0
  0
POINT
  5
882FD
330
88228
100
AcDbEntity
  8
Defpoints
 62
     0
100
AcDbPoint
 10
4.0
 20
-12.69999999890001
 30
0.0
  0
POINT
  5
882FE
330
88228
100
AcDbEntity
  8
Defpoints
 62
     0
100
AcDbPoint
 10
-19.85445918191135
 20
-12.69999999890001
 30
0.0
  0
ENDBLK
  5
88233
330
88228
100
AcDbEntity
  8
0
100
AcDbBlockEnd
  0
BLOCK
  5
8823C
330
88234
100
AcDbEntity
  8
0
100
AcDbBlockBegin
  2
*D601010
 70
     1
 10
0.0
 20
0.0
 30
0.0
  3
*D601010
  1

  0
LINE
  5
8830D
330
88234
100
AcDbEntity
  8
2
100
AcDbLine
 10
94.8338492778012
 20
48.58924576850375
 30
0.0
 11
54.16983890182867
 21
38.3499731094111
 31
0.0
  0
MTEXT
  5
8830E
330
88234
100
AcDbEntity
  8
2
100
AcDbMText
 10
75.20994338763592
 20
47.82433048449242
 30
0.0
 40
3.5
 41
0.0
 71
     5
 72
     1
  1
\A1;R0.8 [R.031"]
  7
simplex
 11
0.9697299771694563
 21
0.2441797931421143
 31
0.0
 73
     1
 44
1.0
1001
ACAD
1000
MTEXTBEGIN
1070
    73
1070
     1
1070
    44
1040
1.0
1070
    74
1070
     0
1000
MTEXTEND
  0
SOLID
  5
8830F
330
88234
100
AcDbEntity
  8
2
100
AcDbTrace
 10
54.02740068916243
 20
38.91564892942661
 30
0.0
 11
54.31227711449491
 21
37.78429728939558
 31
0.0
 12
50.77578398173557
 22
37.4953438334137
 32
0.0
 13
50.77578398173557
 23
37.4953438334137
 33
0.0
  0
LINE
  5
88310
330
88234
100
AcDbEntity
  8
2
100
AcDbLine
 10
49.90999999999999
 20
37.29999999890001
 30
0.0
 11
50.09
 21
37.29999999890001
 31
0.0
  0
LINE
  5
88311
330
88234
100
AcDbEntity
  8
2
100
AcDbLine
 10
50.0
 20
37.2099999989
 30
0.0
 11
50.0
 21
37.38999999890001
 31
0.0
  0
POINT
  5
88312
330
88234
100
AcDbEntity
  8
Defpoints
 62
     0
100
AcDbPoint
 10
50.77578398173557
 20
37.4953438334137
 30
0.0
  0
POINT
  5
88313
330
88234
100
AcDbEntity
  8
Defpoints
 62
     0
100
AcDbPoint
 10
50.0
 20
37.29999999890001
 30
0.0
  0
ENDBLK
  5
8823D
330
88234
100
AcDbEntity
  8
0
100
AcDbBlockEnd
  0
ENDSEC
  0
SECTION
  2
ENTITIES
  0
INSERT
  5
4A793
330
1F
100
AcDbEntity
  8
0
100
AcDbBlockReference
  2
zero block
 10
0.0
 20
0.0
 30
0.0
 50
180.0
  0
MTEXT
  5
880A5
330
1F
100
AcDbEntity
  8
sk6
100
AcDbMText
 10
-1.844259487124531
 20
92.5582317162314
 30
0.0
 40
3.5
 41
139.3353303764208
 71
     1
 72
     5
  1
WWX400UR3_0005CA
 73
     1
 44
0.9
1001
ACAD
1000
MTEXTBEGIN
1070
    73
1070
     1
1070
    44
1040
0.9
1070
    74
1070
     0
1000
MTEXTEND
1000
ACAD_MTEXT_DEFINED_HEIGHT_BEGIN
1070
    46
1040
3.48901801050149
1000
ACAD_MTEXT_DEFINED_HEIGHT_END
  0
LINE
  5
880A6
330
1F
100
AcDbEntity
  8
4
100
AcDbLine
 10
53.13927052441488
 20
0.0
 30
0.0
 11
-2.907861614760462
 21
0.0
 31
0.0
  0
LINE
  5
880A7
330
1F
100
AcDbEntity
  8
nocut
100
AcDbLine
 10
0.0
 20
0.0
 30
0.0
 11
0.0
 21
26.28149999889999
 31
0.0
  0
LINE
  5
880A8
330
1F
100
AcDbEntity
  8
sk3
100
AcDbLine
 10
0.9999999755000315
 20
4.762522255200025
 30
0.0
 11
0.9999999755000315
 21
13.19999999890001
 31
0.0
  0
LINE
  5
880A9
330
1F
100
AcDbEntity
  8
sk3
100
AcDbLine
 10
4.0
 20
4.762522255200025
 30
0.0
 11
4.0
 21
13.19999999890001
 31
0.0
  0
LINE
  5
880AA
330
1F
100
AcDbEntity
  8
sk3
100
AcDbLine
 10
0.9999999755000315
 20
13.19999999890001
 30
0.0
 11
0.0
 21
14.19999997259998
 31
0.0
  0
LINE
  5
880AB
330
1F
100
AcDbEntity
  8
nocut
100
AcDbLine
 10
49.01307488679993
 20
0.0
 30
0.0
 11
0.0
 21
0.0
 31
0.0
  0
LINE
  5
880AC
330
1F
100
AcDbEntity
  8
sk3
100
AcDbLine
 10
12.92774653970002
 20
12.69999999890001
 30
0.0
 11
12.92774653970002
 21
0.0
 31
0.0
  0
LINE
  5
880AD
330
1F
100
AcDbEntity
  8
nocut
100
AcDbLine
 10
16.25464141969996
 20
28.6852333402
 30
0.0
 11
25.43603783110007
 21
36.38933968269999
 31
0.0
  0
LINE
  5
880AE
330
1F
100
AcDbEntity
  8
sk3
100
AcDbLine
 10
24.39999999999998
 20
6.849999998899987
 30
0.0
 11
31.49999991950006
 21
6.849999998899987
 31
0.0
  0
LINE
  5
880AF
330
1F
100
AcDbEntity
  8
sk3
100
AcDbLine
 10
32.39999999999998
 20
9.999999998899994
 30
0.0
 11
44.01307488679992
 21
9.999999998899994
 31
0.0
  0
LINE
  5
880B0
102
{ACAD_REACTORS
330
880EA
102
}
330
1F
100
AcDbEntity
  8
sk3
100
AcDbLine
 10
4.0
 20
12.69999999890001
 30
0.0
 11
12.92774653970002
 21
12.69999999890001
 31
0.0
  0
LINE
  5
880B1
330
1F
100
AcDbEntity
  8
sk3
100
AcDbLine
 10
0.9999999755000315
 20
13.19999999890001
 30
0.0
 11
4.0
 21
13.19999999890001
 31
0.0
  0
LINE
  5
880B2
330
1F
100
AcDbEntity
  8
sk3
100
AcDbLine
 10
14.17735573009997
 20
13.19999999890001
 30
0.0
 11
23.20000000000005
 21
13.19999999890001
 31
0.0
  0
LINE
  5
880B3
330
1F
100
AcDbEntity
  8
sk3
100
AcDbLine
 10
24.0
 20
0.0
 30
0.0
 11
24.0
 21
12.3999999989
 31
0.0
  0
LINE
  5
880B4
330
1F
100
AcDbEntity
  8
sk3
100
AcDbLine
 10
12.92774653970002
 20
12.69999999890001
 30
0.0
 11
13.83926112070003
 21
13.12504622849999
 31
0.0
  0
LINE
  5
880B5
330
1F
100
AcDbEntity
  8
sk3
100
AcDbLine
 10
31.49999991950006
 20
6.849999998899987
 30
0.0
 11
31.49999991950006
 21
0.0
 31
0.0
  0
LINE
  5
880B6
330
1F
100
AcDbEntity
  8
sk3
100
AcDbLine
 10
32.0
 20
0.0
 30
0.0
 11
32.0
 21
9.599999998899987
 31
0.0
  0
LINE
  5
880B7
330
1F
100
AcDbEntity
  8
nocut
100
AcDbLine
 10
1.5
 20
27.78149999889999
 30
0.0
 11
9.439875870099966
 21
27.78149999889999
 31
0.0
  0
LINE
  5
880B8
330
1F
100
AcDbEntity
  8
sk3
100
AcDbLine
 10
31.49999991950006
 20
6.849999998899987
 30
0.0
 11
32.0
 21
7.350000085299996
 31
0.0
  0
LINE
  5
880B9
330
1F
100
AcDbEntity
  8
sk3
100
AcDbLine
 10
44.46450064589997
 20
21.75861742040002
 30
0.0
 11
46.29639945979909
 21
24.70856909502953
 31
0.0
  0
LINE
  5
880BA
330
1F
100
AcDbEntity
  8
sk3
100
AcDbLine
 10
44.01307488679992
 20
0.0
 30
0.0
 11
44.01307488679992
 21
20.17597111160001
 31
0.0
  0
LINE
  5
880BB
330
1F
100
AcDbEntity
  8
nocut
100
AcDbLine
 10
27.31204344090008
 20
37.09074943880001
 30
0.0
 11
39.27382338400003
 21
37.2995430844
 31
0.0
  0
LINE
  5
880BC
330
1F
100
AcDbEntity
  8
nocut
100
AcDbLine
 10
39.32618060330003
 20
37.29999999890001
 30
0.0
 11
43.01307488680004
 21
37.29999999890001
 31
0.0
  0
LINE
  5
880BD
330
1F
100
AcDbEntity
  8
nocut
100
AcDbLine
 10
49.01307488679993
 20
31.29999999890003
 30
0.0
 11
49.01307488679993
 21
0.0
 31
0.0
  0
ARC
  5
880BE
330
1F
100
AcDbEntity
  8
nocut
100
AcDbCircle
 10
12.39791576159996
 20
33.28149999889999
 30
0.0
 40
6.0
100
AcDbArc
 50
250.8118635462974
 51
310.0000000000036
  0
ARC
  5
880BF
330
1F
100
AcDbEntity
  8
nocut
100
AcDbCircle
 10
43.01307488680004
 20
31.29999999890003
 30
0.0
 40
6.0
100
AcDbArc
 50
0.0
 51
90.0
  0
ARC
  5
880C0
330
1F
100
AcDbEntity
  8
nocut
100
AcDbCircle
 10
39.32618060330003
 20
34.29999999890004
 30
0.0
 40
3.0
100
AcDbArc
 50
90.0
 51
91.00000000000177
  0
ARC
  5
880C1
330
1F
100
AcDbEntity
  8
nocut
100
AcDbCircle
 10
27.36440066019998
 20
34.09120635340002
 30
0.0
 40
3.0
100
AcDbArc
 50
91.00000000000177
 51
130.0000000000036
  0
ARC
  5
880C2
330
1F
100
AcDbEntity
  8
nocut
100
AcDbCircle
 10
9.439875870099966
 20
24.78149999889999
 30
0.0
 40
3.0
100
AcDbArc
 50
70.81186354629743
 51
90.0
  0
ARC
  5
880C3
330
1F
100
AcDbEntity
  8
sk3
100
AcDbCircle
 10
47.01307488679993
 20
20.17597111160001
 30
0.0
 40
3.0
100
AcDbArc
 50
148.1600158133031
 51
180.0
  0
ARC
  5
880C4
102
{ACAD_REACTORS
330
880E1
102
}
330
1F
100
AcDbEntity
  8
nocut
100
AcDbCircle
 10
1.5
 20
26.28149999889999
 30
0.0
 40
1.5
100
AcDbArc
 50
90.0
 51
180.0
  0
ARC
  5
880C5
330
1F
100
AcDbEntity
  8
sk3
100
AcDbCircle
 10
23.20000000000005
 20
12.3999999989
 30
0.0
 40
0.8
100
AcDbArc
 50
0.0
 51
90.0
  0
ARC
  5
880C6
330
1F
100
AcDbEntity
  8
sk3
100
AcDbCircle
 10
14.17735573009997
 20
12.3999999989
 30
0.0
 40
0.8
100
AcDbArc
 50
90.0
 51
115.0
  0
ARC
  5
880C7
330
1F
100
AcDbEntity
  8
sk3
100
AcDbCircle
 10
32.39999999999998
 20
9.599999998899987
 30
0.0
 40
0.4
100
AcDbArc
 50
90.0
 51
180.0
  0
ARC
  5
880C8
330
1F
100
AcDbEntity
  8
sk3
100
AcDbCircle
 10
24.39999999999998
 20
7.249999998899992
 30
0.0
 40
0.4
100
AcDbArc
 50
180.0
 51
270.0
  0
LINE
  5
880C9
330
1F
100
AcDbEntity
  8
sk3
100
AcDbLine
 10
0.9999999755000315
 20
-4.762477744799952
 30
0.0
 11
0.9999999755000315
 21
-13.19999999890001
 31
0.0
  0
LINE
  5
880CA
330
1F
100
AcDbEntity
  8
sk3
100
AcDbLine
 10
4.0
 20
-4.762477744799952
 30
0.0
 11
4.0
 21
-13.19999999890001
 31
0.0
  0
LINE
  5
880CB
330
1F
100
AcDbEntity
  8
sk3
100
AcDbLine
 10
0.9999999755000315
 20
-13.19999999890001
 30
0.0
 11
0.0
 21
-14.19999997259998
 31
0.0
  0
LINE
  5
880CC
330
1F
100
AcDbEntity
  8
sk3
100
AcDbLine
 10
12.92774653970002
 20
-12.69999999890001
 30
0.0
 11
12.92774653970002
 21
0.0
 31
0.0
  0
LINE
  5
880CD
330
1F
100
AcDbEntity
  8
sk3
100
AcDbLine
 10
24.39999999999998
 20
-6.849999998899987
 30
0.0
 11
31.49999991950006
 21
-6.849999998899987
 31
0.0
  0
LINE
  5
880CE
330
1F
100
AcDbEntity
  8
sk3
100
AcDbLine
 10
32.39999999999998
 20
-9.999999998899966
 30
0.0
 11
44.01307488679992
 21
-9.999999998899966
 31
0.0
  0
LINE
  5
880CF
102
{ACAD_REACTORS
330
880EA
102
}
330
1F
100
AcDbEntity
  8
sk3
100
AcDbLine
 10
4.0
 20
-12.69999999890001
 30
0.0
 11
12.92774653970002
 21
-12.69999999890001
 31
0.0
  0
LINE
  5
880D0
330
1F
100
AcDbEntity
  8
sk3
100
AcDbLine
 10
0.9999999755000315
 20
-13.19999999890001
 30
0.0
 11
4.0
 21
-13.19999999890001
 31
0.0
  0
LINE
  5
880D1
330
1F
100
AcDbEntity
  8
sk3
100
AcDbLine
 10
14.17735573009997
 20
-13.19999999890001
 30
0.0
 11
23.20000000000005
 21
-13.19999999890001
 31
0.0
  0
LINE
  5
880D2
102
{ACAD_REACTORS
330
880E6
102
}
330
1F
100
AcDbEntity
  8
sk3
100
AcDbLine
 10
24.0
 20
0.0
 30
0.0
 11
24.0
 21
-12.3999999989
 31
0.0
  0
LINE
  5
880D3
330
1F
100
AcDbEntity
  8
sk3
100
AcDbLine
 10
12.92774653970002
 20
-12.69999999890001
 30
0.0
 11
13.83926112070003
 21
-13.12504622849997
 31
0.0
  0
LINE
  5
880D4
330
1F
100
AcDbEntity
  8
sk3
100
AcDbLine
 10
31.49999991950006
 20
-6.849999998899987
 30
0.0
 11
31.49999991950006
 21
0.0
 31
0.0
  0
LINE
  5
880D5
330
1F
100
AcDbEntity
  8
sk3
100
AcDbLine
 10
32.0
 20
0.0
 30
0.0
 11
32.0
 21
-9.599999998899987
 31
0.0
  0
LINE
  5
880D6
330
1F
100
AcDbEntity
  8
sk3
100
AcDbLine
 10
31.49999991950006
 20
-6.849999998899987
 30
0.0
 11
32.0
 21
-7.350000085299996
 31
0.0
  0
LINE
  5
880D7
330
1F
100
AcDbEntity
  8
sk3
100
AcDbLine
 10
44.46450064589997
 20
-21.75861742039996
 30
0.0
 11
48.86259963370003
 21
-28.84098429339997
 31
0.0
  0
LINE
  5
880D8
330
1F
100
AcDbEntity
  8
sk3
100
AcDbLine
 10
44.01307488679992
 20
0.0
 30
0.0
 11
44.01307488679992
 21
-20.17597111160001
 31
0.0
  0
ARC
  5
880D9
330
1F
100
AcDbEntity
  8
sk3
100
AcDbCircle
 10
47.01307488679993
 20
-20.17597111160001
 30
0.0
 40
3.0
100
AcDbArc
 50
180.0
 51
211.8399841866969
  0
ARC
  5
880DA
330
1F
100
AcDbEntity
  8
sk3
100
AcDbCircle
 10
48.01307488680004
 20
-29.36853306299997
 30
0.0
 40
1.0
100
AcDbArc
 50
0.0
 51
31.83998418669693
  0
ARC
  5
880DB
330
1F
100
AcDbEntity
  8
sk3
100
AcDbCircle
 10
23.20000000000005
 20
-12.3999999989
 30
0.0
 40
0.8
100
AcDbArc
 50
270.0
 51
0.0
  0
ARC
  5
880DC
330
1F
100
AcDbEntity
  8
sk3
100
AcDbCircle
 10
14.17735573009997
 20
-12.3999999989
 30
0.0
 40
0.8
100
AcDbArc
 50
244.9999999999999
 51
270.0
  0
ARC
  5
880DD
330
1F
100
AcDbEntity
  8
sk3
100
AcDbCircle
 10
32.39999999999998
 20
-9.599999998899987
 30
0.0
 40
0.4
100
AcDbArc
 50
180.0
 51
270.0
  0
ARC
  5
880DE
330
1F
100
AcDbEntity
  8
sk3
100
AcDbCircle
 10
24.39999999999998
 20
-7.249999998899992
 30
0.0
 40
0.4
100
AcDbArc
 50
90.0
 51
180.0
  0
DIMENSION
  5
880DF
102
{ACAD_XDICTIONARY
360
880E0
102
}
102
{ACAD_REACTORS
330
880E1
102
}
330
1F
100
AcDbEntity
  8
2
100
AcDbDimension
  2
*D5444
 10
50.8
 20
69.8351448400974
 30
0.0
 11
25.66273903550541
 21
69.8351448400974
 31
0.0
 70
   160
 71
     5
 42
50.8
  3
コピー - ISO-25
100
AcDbAlignedDimension
 13
0.0
 23
26.28149999889999
 33
0.0
 14
50.8
 24
37.29999999889092
 34
0.0
 50
0.0
100
AcDbRotatedDimension
1001
ACAD
1000
DSTYLE
1002
{
1070
   170
1070
     1
1070
   171
1070
     3
1070
   143
1040
0.0393700787401575
1070
   285
1070
     4
1070
     4
1000
"
1070
   271
1070
     8
1070
    40
1040
1.0
1002
}
1001
ACAD_DSTYLE_DIMINSPECT
1070
   393
1070
     0
1070
   394
1070
     0
1070
   395
1000

1070
   396
1000

  0
DIMENSION
  5
880E2
330
1F
100
AcDbEntity
  8
2
100
AcDbDimension
  2
*D5555
 10
50.8
 20
59.91922213148586
 30
0.0
 11
82.26666666666673
 21
59.91922213148586
 31
0.0
 70
   160
  1
<>(MAX)
 71
     5
 42
8.200000000000001
  3
コピー - ISO-25
100
AcDbAlignedDimension
 13
42.60000000000002
 23
38.09999999889999
 33
0.0
 14
50.8
 24
37.29999999890001
 34
0.0
 50
0.0
100
AcDbRotatedDimension
1001
ACAD
1000
DSTYLE
1002
{
1070
   170
1070
     1
1070
   171
1070
     3
1070
   143
1040
0.0393700787401575
1070
   285
1070
     4
1070
     4
1000
"
1070
   271
1070
     8
1070
    40
1040
1.0
1002
}
1001
ACAD_DSTYLE_DIMINSPECT
1070
   393
1070
     0
1070
   394
1070
     0
1070
   395
1000

1070
   396
1000

  0
DIMENSION
  5
880E3
330
1F
100
AcDbEntity
  8
2
100
AcDbDimension
  2
*D5666
 10
70.70766079186774
 20
-38.09999999889999
 30
0.0
 11
66.65766079186774
 21
-1.749999999999985
 31
0.0
 70
    32
  1
%%C<>
 71
     5
 42
76.19999999779999
  3
コピー - ISO-25
100
AcDbAlignedDimension
 13
50.0
 23
38.09999999890003
 33
0.0
 14
50.0
 24
-38.09999999889999
 34
0.0
 50
90.0
100
AcDbRotatedDimension
1001
ACAD
1000
DSTYLE
1002
{
1070
   170
1070
     1
1070
   171
1070
     3
1070
   143
1040
0.0393700787401575
1070
   285
1070
     4
1070
     4
1000
%%c[]"
1070
   344
1005
8778B
1070
   271
1070
     8
1070
   173
1070
     1
1070
    40
1040
1.0
1070
    76
1070
     1
1002
}
1001
ACAD_DSTYLE_DIMINSPECT
1070
   393
1070
     0
1070
   394
1070
     0
1070
   395
1000

1070
   396
1000

  0
DIMENSION
  5
880E4
102
{ACAD_XDICTIONARY
360
880E5
102
}
102
{ACAD_REACTORS
330
880E6
102
}
330
1F
100
AcDbEntity
  8
sk2
100
AcDbDimension
  2
*D5777
 10
24.0
 20
-50.01147073446048
 30
0.0
 11
43.79999999999999
 21
-45.9614707344605
 31
0.0
 70
    32
 71
     5
 42
24.0
  3
コピー - ISO-25
100
AcDbAlignedDimension
 13
0.0
 23
-26.28147774479999
 33
0.0
 14
24.0
 24
-12.3999999989
 34
0.0
 50
0.0
100
AcDbRotatedDimension
1001
ACAD
1000
DSTYLE
1002
{
1070
   170
1070
     1
1070
   171
1070
     3
1070
   143
1040
0.0393700787401575
1070
   285
1070
     4
1070
     4
1000
"
1070
   271
1070
     8
1070
    40
1040
1.0
1002
}
1001
ACAD_DSTYLE_DIMINSPECT
1070
   393
1070
     0
1070
   394
1070
     0
1070
   395
1000

1070
   396
1000

  0
DIMENSION
  5
880E7
330
1F
100
AcDbEntity
  8
sk2
100
AcDbDimension
  2
*D5888
 10
-29.81345902791498
 20
-27.78147774479998
 30
0.0
 11
-33.86345902791497
 21
0.0000222552000404
 31
0.0
 70
    32
  1
%%C<>
 71
     5
 42
55.563
  3
コピー - ISO-25
100
AcDbAlignedDimension
 13
1.5
 23
27.78152225520006
 33
0.0
 14
1.5
 24
-27.78147774479999
 34
0.0
 50
90.0
100
AcDbRotatedDimension
1001
ACAD
1000
DSTYLE
1002
{
1070
   170
1070
     1
1070
   171
1070
     3
1070
   143
1040
0.0393700787401575
1070
   285
1070
     4
1070
     4
1000
%%c[]"
1070
   271
1070
     8
1070
    40
1040
1.0
1002
}
1001
ACAD_DSTYLE_DIMINSPECT
1070
   393
1070
     0
1070
   394
1070
     0
1070
   395
1000

1070
   396
1000

  0
DIMENSION
  5
880E8
102
{ACAD_XDICTIONARY
360
880E9
102
}
102
{ACAD_REACTORS
330
880EA
102
}
330
1F
100
AcDbEntity
  8
sk2
100
AcDbDimension
  2
*D5999
 10
-19.85445918191135
 20
-12.69999999890001
 30
0.0
 11
-19.85445918191135
 21
-1.255485715559927
 31
0.0
 70
   160
  1
%%C<>
 71
     5
 42
25.3999999978
  3
コピー - ISO-25
100
AcDbAlignedDimension
 13
4.0
 23
12.69999999890001
 33
0.0
 14
4.0
 24
-12.69999999890001
 34
0.0
 50
90.0
100
AcDbRotatedDimension
1001
ACAD
1000
DSTYLE
1002
{
1070
   170
1070
     1
1070
   171
1070
     3
1070
   143
1040
0.0393700787401575
1070
   285
1070
     4
1070
     4
1000
%%c[]"
1070
   271
1070
     8
1070
    40
1040
1.0
1002
}
1001
ACAD_DSTYLE_DIMINSPECT
1070
   393
1070
     0
1070
   394
1070
     0
1070
   395
1000

1070
   396
1000

  0
LINE
  5
880EB
330
1F
100
AcDbEntity
  8
1
100
AcDbLine
 10
39.32618060340008
 20
-37.30000000109999
 30
0.0
 11
43.01307488680004
 21
-37.30000000109999
 31
0.0
  0
LINE
  5
880EC
330
1F
100
AcDbEntity
  8
1
100
AcDbLine
 10
39.27382338410007
 20
-37.29954308659995
 30
0.0
 11
39.32618060340008
 21
-37.30000000109999
 31
0.0
  0
LINE
  5
880ED
330
1F
100
AcDbEntity
  8
1
100
AcDbLine
 10
27.31204344090008
 20
-37.09074944100001
 30
0.0
 11
39.27382338410007
 21
-37.29954308659995
 31
0.0
  0
LINE
  5
880EE
330
1F
100
AcDbEntity
  8
1
100
AcDbLine
 10
25.4360378312
 20
-36.38933968489999
 30
0.0
 11
16.25464141980001
 21
-28.68523334239995
 31
0.0
  0
LINE
  5
880EF
330
1F
100
AcDbEntity
  8
1
100
AcDbLine
 10
9.439875870099966
 20
-27.78150000109997
 30
0.0
 11
1.5
 21
-27.78150000109997
 31
0.0
  0
LINE
  5
880F0
330
1F
100
AcDbEntity
  8
1
100
AcDbLine
 10
0.0
 20
26.2814777426
 30
0.0
 11
0.0
 21
5.26249999890004
 31
0.0
  0
LINE
  5
880F1
330
1F
100
AcDbEntity
  8
1
100
AcDbLine
 10
0.0
 20
-26.28150000109997
 30
0.0
 11
0.0
 21
-5.262500001099994
 31
0.0
  0
LINE
  5
880F2
330
1F
100
AcDbEntity
  8
1
100
AcDbLine
 10
5.560000000000058
 20
3.762499998900038
 30
0.0
 11
5.560000000000058
 21
-3.762500001099993
 31
0.0
  0
LINE
  5
880F3
330
1F
100
AcDbEntity
  8
1
100
AcDbLine
 10
25.4360378312
 20
36.38933968270001
 30
0.0
 11
16.25464141980001
 21
28.68523334009998
 31
0.0
  0
LINE
  5
880F4
330
1F
100
AcDbEntity
  8
1
100
AcDbLine
 10
0.0
 20
5.26249999890004
 30
0.0
 11
0.5
 21
4.76249999890004
 31
0.0
  0
LINE
  5
880F5
330
1F
100
AcDbEntity
  8
1
100
AcDbLine
 10
4.560000000000058
 20
4.76249999890004
 30
0.0
 11
5.560000000000058
 21
3.762499998900038
 31
0.0
  0
LINE
  5
880F6
330
1F
100
AcDbEntity
  8
1
100
AcDbLine
 10
36.72579790010002
 20
34.87585269430005
 30
0.0
 11
39.00544450220002
 21
36.19319790470001
 31
0.0
  0
LINE
  5
880F7
330
1F
100
AcDbEntity
  8
1
100
AcDbLine
 10
35.41702204450007
 20
34.7853199729
 30
0.0
 11
36.18886195870004
 21
35.07117344489998
 31
0.0
  0
LINE
  5
880F8
330
1F
100
AcDbEntity
  8
1
100
AcDbLine
 10
0.5
 20
-4.762500001099994
 30
0.0
 11
0.0
 21
-5.262500001099994
 31
0.0
  0
LINE
  5
880F9
330
1F
100
AcDbEntity
  8
1
100
AcDbLine
 10
5.560000000000058
 20
-3.762500001099993
 30
0.0
 11
4.560000000000058
 21
-4.762500001099994
 31
0.0
  0
LINE
  5
880FA
330
1F
100
AcDbEntity
  8
1
100
AcDbLine
 10
4.560000000000058
 20
-4.762500001099994
 30
0.0
 11
0.5
 21
-4.762500001099994
 31
0.0
  0
LINE
  5
880FB
330
1F
100
AcDbEntity
  8
1
100
AcDbLine
 10
0.5
 20
4.76249999890004
 30
0.0
 11
4.560000000000058
 21
4.76249999890004
 31
0.0
  0
LINE
  5
880FC
330
1F
100
AcDbEntity
  8
1
100
AcDbLine
 10
35.10861111290012
 20
35.00023859210003
 30
0.0
 11
34.97765376950008
 21
36.39516324680002
 31
0.0
  0
LINE
  5
880FD
330
1F
100
AcDbEntity
  8
1
100
AcDbLine
 10
48.86259963380005
 20
25.81066465670005
 30
0.0
 11
48.86259963380005
 21
22.50828091560004
 31
0.0
  0
LINE
  5
880FE
330
1F
100
AcDbEntity
  8
1
100
AcDbLine
 10
36.04027982670004
 20
29.26763812160004
 30
0.0
 11
34.95710587020005
 21
31.30406334660003
 31
0.0
  0
LINE
  5
880FF
330
1F
100
AcDbEntity
  8
1
100
AcDbLine
 10
35.57608503360007
 20
31.02064862920002
 30
0.0
 11
36.5285328768
 21
29.16596736660006
 31
0.0
  0
LINE
  5
88100
330
1F
100
AcDbEntity
  8
1
100
AcDbLine
 10
49.01307488680004
 20
26.07447870740003
 30
0.0
 11
49.01307488680004
 21
-31.29999922259998
 31
0.0
  0
LINE
  5
88101
330
1F
100
AcDbEntity
  8
1
100
AcDbLine
 10
9.439875870099966
 20
27.78149999889999
 30
0.0
 11
1.5
 21
27.78149999889999
 31
0.0
  0
LINE
  5
88102
330
1F
100
AcDbEntity
  8
1
100
AcDbLine
 10
44.34136927090003
 20
29.15201344210004
 30
0.0
 11
44.1532180370001
 21
29.15201344210004
 31
0.0
  0
LINE
  5
88103
330
1F
100
AcDbEntity
  8
1
100
AcDbLine
 10
42.61690019939999
 20
29.3206969183
 30
0.0
 11
42.42874896550006
 21
29.3206969183
 31
0.0
  0
LINE
  5
88104
330
1F
100
AcDbEntity
  8
1
100
AcDbLine
 10
42.8222072561
 20
29.42176524930005
 30
0.0
 11
43.01035849000004
 21
29.42176524930005
 31
0.0
  0
LINE
  5
88105
330
1F
100
AcDbEntity
  8
1
100
AcDbLine
 10
44.97333515089997
 20
29.95759928010006
 30
0.0
 11
45.16148638479999
 21
29.95759928010006
 31
0.0
  0
LINE
  5
88106
330
1F
100
AcDbEntity
  8
1
100
AcDbLine
 10
45.17819515500002
 20
29.95748724870003
 30
0.0
 11
45.16148639480002
 21
29.95758681520005
 31
0.0
  0
LINE
  5
88107
330
1F
100
AcDbEntity
  8
1
100
AcDbLine
 10
35.57608503360007
 20
31.02064862920002
 30
0.0
 11
35.21426076450007
 21
31.10532732320007
 31
0.0
  0
LINE
  5
88108
330
1F
100
AcDbEntity
  8
1
100
AcDbLine
 10
33.6658639650001
 20
29.76065193150004
 30
0.0
 11
23.55856018869997
 21
33.41986964510002
 31
0.0
  0
LINE
  5
88109
330
1F
100
AcDbEntity
  8
1
100
AcDbLine
 10
36.10525990639998
 20
34.70368623559997
 30
0.0
 11
36.72579790010002
 21
34.87585269430005
 31
0.0
  0
LINE
  5
8810A
330
1F
100
AcDbEntity
  8
1
100
AcDbLine
 10
45.34888771790007
 20
30.56933198000007
 30
0.0
 11
45.16073648400003
 21
30.56933198000007
 31
0.0
  0
LINE
  5
8810B
330
1F
100
AcDbEntity
  8
1
100
AcDbLine
 10
35.36701733329993
 20
31.59636280340001
 30
0.0
 11
34.51826941650006
 21
31.59636280340001
 31
0.0
  0
LINE
  5
8810C
330
1F
100
AcDbEntity
  8
1
100
AcDbLine
 10
35.34371875500005
 20
31.64259391870002
 30
0.0
 11
34.46777588459998
 21
31.64259391870002
 31
0.0
  0
LINE
  5
8810D
330
1F
100
AcDbEntity
  8
1
100
AcDbLine
 10
45.07115263420007
 20
31.69662803060004
 30
0.0
 11
44.88300140030004
 21
31.69662803060004
 31
0.0
  0
LINE
  5
8810E
330
1F
100
AcDbEntity
  8
1
100
AcDbLine
 10
44.0503275689
 20
32.05426566330002
 30
0.0
 11
44.23847880280003
 21
32.05426566330002
 31
0.0
  0
LINE
  5
8810F
330
1F
100
AcDbEntity
  8
1
100
AcDbLine
 10
43.52215062699996
 20
32.47713149910001
 30
0.0
 11
43.33399939310004
 21
32.47713149910001
 31
0.0
  0
LINE
  5
88110
330
1F
100
AcDbEntity
  8
1
100
AcDbLine
 10
33.87399149889996
 20
32.78118491699999
 30
0.0
 11
34.77113463880005
 21
32.78118491699999
 31
0.0
  0
LINE
  5
88111
330
1F
100
AcDbEntity
  8
1
100
AcDbLine
 10
34.13394955500007
 20
33.83581024970006
 30
0.0
 11
35.06150020720009
 21
33.83581024970006
 31
0.0
  0
LINE
  5
88112
330
1F
100
AcDbEntity
  8
1
100
AcDbLine
 10
36.13433133040008
 20
34.487366326
 30
0.0
 11
35.2410082988
 21
34.487366326
 31
0.0
  0
LINE
  5
88113
330
1F
100
AcDbEntity
  8
1
100
AcDbLine
 10
36.1781018864
 20
34.51341150239997
 30
0.0
 11
35.28732553060001
 21
34.51341150239997
 31
0.0
  0
LINE
  5
88114
330
1F
100
AcDbEntity
  8
1
100
AcDbLine
 10
42.07064213770002
 20
31.51854366390003
 30
0.0
 11
42.08735089799995
 21
31.51844409730003
 31
0.0
  0
LINE
  5
88115
330
1F
100
AcDbEntity
  8
1
100
AcDbLine
 10
36.10525990639998
 20
34.70368623559997
 30
0.0
 11
35.41702204450007
 21
34.7853199729
 31
0.0
  0
LINE
  5
88116
330
1F
100
AcDbEntity
  8
1
100
AcDbLine
 10
36.18886195870004
 20
35.07117344489998
 30
0.0
 11
36.48913901030005
 21
34.99182929200003
 31
0.0
  0
LINE
  5
88117
330
1F
100
AcDbEntity
  8
1
100
AcDbLine
 10
27.31204344090008
 20
37.09074943879997
 30
0.0
 11
35.77675626920007
 21
37.23850155080001
 31
0.0
  0
LINE
  5
88118
330
1F
100
AcDbEntity
  8
1
100
AcDbLine
 10
41.50101659569997
 20
37.58021200850001
 30
0.0
 11
40.94845491340004
 21
37.58021200850001
 31
0.0
  0
LINE
  5
88119
330
1F
100
AcDbEntity
  8
1
100
AcDbLine
 10
42.23467245180006
 20
37.76930934550006
 30
0.0
 11
41.68320564359999
 21
37.76930934550006
 31
0.0
  0
LINE
  5
8811A
330
1F
100
AcDbEntity
  8
1
100
AcDbLine
 10
42.26836493450004
 20
37.76895050969998
 30
0.0
 11
42.23467150869999
 21
37.76930934550006
 31
0.0
  0
ARC
  5
8811B
330
1F
100
AcDbEntity
  8
1
100
AcDbCircle
 10
12.3979157617
 20
-33.28150000109997
 30
0.0
 40
6.0
100
AcDbArc
 50
49.99999999999637
 51
109.1881364537025
  0
ARC
  5
8811C
330
1F
100
AcDbEntity
  8
1
100
AcDbCircle
 10
12.3979157617
 20
33.28149999889999
 30
0.0
 40
6.0
100
AcDbArc
 50
250.8118635462974
 51
309.9999999999955
  0
ARC
  5
8811D
330
1F
100
AcDbEntity
  8
1
100
AcDbCircle
 10
43.01307488680004
 20
-31.30000000109999
 30
0.0
 40
6.0
100
AcDbArc
 50
270.0
 51
0.0
  0
ARC
  5
8811E
330
1F
100
AcDbEntity
  8
1
100
AcDbCircle
 10
9.439875870099966
 20
24.78149999889999
 30
0.0
 40
3.0
100
AcDbArc
 50
70.81186354629743
 51
90.0
  0
ARC
  5
8811F
330
1F
100
AcDbEntity
  8
1
100
AcDbCircle
 10
9.439875870099966
 20
-24.78150000109997
 30
0.0
 40
3.0
100
AcDbArc
 50
270.0
 51
289.1881364537026
  0
ARC
  5
88120
330
1F
100
AcDbEntity
  8
1
100
AcDbCircle
 10
27.36440066019998
 20
34.09120635330004
 30
0.0
 40
3.0
100
AcDbArc
 50
91.00000000000177
 51
130.0000000000036
  0
ARC
  5
88121
330
1F
100
AcDbEntity
  8
1
100
AcDbCircle
 10
27.36440066019998
 20
-34.09120635559998
 30
0.0
 40
3.0
100
AcDbArc
 50
229.9999999999964
 51
268.9999999999983
  0
ARC
  5
88122
330
1F
100
AcDbEntity
  8
1
100
AcDbCircle
 10
1.5
 20
26.28149999889999
 30
0.0
 40
1.5
100
AcDbArc
 50
90.0
 51
180.0
  0
ARC
  5
88123
330
1F
100
AcDbEntity
  8
1
100
AcDbCircle
 10
1.5
 20
-26.28150000109997
 30
0.0
 40
1.5
100
AcDbArc
 50
180.0
 51
270.0
  0
SPLINE
  5
88124
330
1F
100
AcDbEntity
  8
1
100
AcDbSpline
210
0.0
220
0.0
230
1.0
 70
     8
 71
     3
 72
    15
 73
    11
 74
     0
 42
0.000000001
 43
0.0000000001
 40
0.0
 40
0.0
 40
0.0
 40
0.0
 40
0.1246293835
 40
0.2493695473
 40
0.3743259483
 40
0.4994857045
 40
0.6247590985000003
 40
0.7500101368000001
 40
0.875106152
 40
1.0
 40
1.0
 40
1.0
 40
1.0
 10
42.07064213680006
 20
31.51855360480002
 30
0.0
 10
42.03530759400007
 20
31.51855025310002
 30
0.0
 10
41.9640717579
 20
31.50686547059999
 30
0.0
 10
41.86880649659997
 20
31.45611948460001
 30
0.0
 10
41.79451621129999
 20
31.37749224630002
 30
0.0
 10
41.74904834239998
 20
31.27920476030005
 30
0.0
 10
41.73708037610004
 20
31.1714953629
 30
0.0
 10
41.75987206050002
 20
31.06554488540002
 30
0.0
 10
41.81495774389996
 20
30.97244266770002
 30
0.0
 10
41.86975118179996
 20
30.92518923760002
 30
0.0
 10
41.89994957479996
 20
30.90669893250004
 30
0.0
  0
SPLINE
  5
88125
330
1F
100
AcDbEntity
  8
1
100
AcDbSpline
210
0.0
220
0.0
230
1.0
 70
     8
 71
     3
 72
    11
 73
     7
 74
     0
 42
0.000000001
 43
0.0000000001
 40
0.0
 40
0.0
 40
0.0
 40
0.0
 40
0.2503004004
 40
0.500350793
 40
0.7502244484000001
 40
1.0
 40
1.0
 40
1.0
 40
1.0
 10
41.13253017299995
 20
33.22334214290004
 30
0.0
 10
41.29007812309999
 20
33.37586234460002
 30
0.0
 10
41.63517782240001
 20
33.65125821460003
 30
0.0
 10
42.22125194600003
 20
33.9572956586
 30
0.0
 10
42.85455013910007
 20
34.14565045520004
 30
0.0
 10
43.293434983
 20
34.188011241
 30
0.0
 10
43.51225529409997
 20
34.18801482080002
 30
0.0
  0
SPLINE
  5
88126
330
1F
100
AcDbEntity
  8
1
100
AcDbSpline
210
0.0
220
0.0
230
1.0
 70
     8
 71
     3
 72
    15
 73
    11
 74
     0
 42
0.000000001
 43
0.0000000001
 40
0.0
 40
0.0
 40
0.0
 40
0.0
 40
0.1251708752
 40
0.2504178639
 40
0.3756803631
 40
0.5008539075
 40
0.6258744928
 40
0.7507162801
 40
0.8754018118999999
 40
1.0
 40
1.0
 40
1.0
 40
1.0
 10
42.17768465849997
 20
29.77940288189998
 30
0.0
 10
42.16293663040004
 20
29.75455966040002
 30
0.0
 10
42.13987837069999
 20
29.70069990480002
 30
0.0
 10
42.12750616690004
 20
29.6139118417
 30
0.0
 10
42.13801261060007
 20
29.52682224250003
 30
0.0
 10
42.17073169290006
 20
29.44549771790003
 30
0.0
 10
42.22339374390003
 20
29.37553620370002
 30
0.0
 10
42.2923993347
 20
29.32178378900002
 30
0.0
 10
42.37290416510006
 20
29.28795867730002
 30
0.0
 10
42.43073131360006
 20
29.2802674145
 30
0.0
 10
42.45949013210007
 20
29.28026487899998
 30
0.0
  0
SPLINE
  5
88127
330
1F
100
AcDbEntity
  8
1
100
AcDbSpline
210
0.0
220
0.0
230
1.0
 70
     8
 71
     3
 72
    11
 73
     7
 74
     0
 42
0.000000001
 43
0.0000000001
 40
0.0
 40
0.0
 40
0.0
 40
0.0
 40
0.2504819519
 40
0.5005874052000002
 40
0.7503850791
 40
1.0
 40
1.0
 40
1.0
 40
1.0
 10
43.7266866658
 20
28.99889941350006
 30
0.0
 10
43.69143954290006
 20
29.06240143049999
 30
0.0
 10
43.60371894270008
 20
29.18055508530006
 30
0.0
 10
43.4306992915
 20
29.31654756660004
 30
0.0
 10
43.22827572159996
 20
29.4022630428
 30
0.0
 10
43.08273536319996
 20
29.42176828059999
 30
0.0
 10
43.01035849080006
 20
29.42176467890002
 30
0.0
  0
SPLINE
  5
88128
330
1F
100
AcDbEntity
  8
1
100
AcDbSpline
210
0.0
220
0.0
230
1.0
 70
     8
 71
     3
 72
    11
 73
     7
 74
     0
 42
0.000000001
 43
0.0000000001
 40
0.0
 40
0.0
 40
0.0
 40
0.0
 40
0.2504891883
 40
0.5005834931999999
 40
0.7503857384
 40
1.0
 40
1.0
 40
1.0
 40
1.0
 10
43.7266866658
 20
28.99889941350006
 30
0.0
 10
43.74078828929998
 20
28.97349360830003
 30
0.0
 10
43.77588086900003
 20
28.92622288320004
 30
0.0
 10
43.84510453959999
 20
28.87182299470001
 30
0.0
 10
43.92608426479999
 20
28.83752450570003
 30
0.0
 10
43.98431112030003
 20
28.82972675030001
 30
0.0
 10
44.0132666531
 20
28.82972467340002
 30
0.0
  0
SPLINE
  5
88129
330
1F
100
AcDbEntity
  8
1
100
AcDbSpline
210
0.0
220
0.0
230
1.0
 70
     8
 71
     3
 72
    15
 73
    11
 74
     0
 42
0.000000001
 43
0.0000000001
 40
0.0
 40
0.0
 40
0.0
 40
0.0
 40
0.125026603
 40
0.2501285277
 40
0.3752757539
 40
0.5004082424
 40
0.6254787929
 40
0.7504494531999999
 40
0.8752866427
 40
1.0
 40
1.0
 40
1.0
 40
1.0
 10
42.17768465849997
 20
29.77940288189998
 30
0.0
 10
42.20501879070002
 20
29.82544753919999
 30
0.0
 10
42.25083803509995
 20
29.92316563760002
 30
0.0
 10
42.28987139830008
 20
30.08007448399999
 30
0.0
 10
42.29792572070004
 20
30.24166849230002
 30
0.0
 10
42.27464175889998
 20
30.40175184419999
 30
0.0
 10
42.22092646240002
 20
30.55426261940002
 30
0.0
 10
42.13878541819997
 20
30.69341055140004
 30
0.0
 10
42.03141030690003
 20
30.81387744970005
 30
0.0
 10
41.9455016567
 20
30.87880765070003
 30
0.0
 10
41.89994957479996
 20
30.90669893250004
 30
0.0
  0
SPLINE
  5
8812A
330
1F
100
AcDbEntity
  8
1
100
AcDbSpline
210
0.0
220
0.0
230
1.0
 70
     8
 71
     3
 72
    15
 73
    11
 74
     0
 42
0.000000001
 43
0.0000000001
 40
0.0
 40
0.0
 40
0.0
 40
0.0
 40
0.1246819468
 40
0.2493922141
 40
0.3742031403
 40
0.4991330377000003
 40
0.6241948778000001
 40
0.7493820855
 40
0.8746592278000001
 40
1.0
 40
1.0
 40
1.0
 40
1.0
 10
42.08735089870002
 20
31.51843200570002
 30
0.0
 10
42.14016946490004
 20
31.51843502789998
 30
0.0
 10
42.24610627050004
 20
31.52875380430004
 30
0.0
 10
42.3988389364
 20
31.57464103820004
 30
0.0
 10
42.54000104290002
 20
31.64918803259999
 30
0.0
 10
42.6642510073001
 20
31.74962885950004
 30
0.0
 10
42.76698253079996
 20
31.87219518060004
 30
0.0
 10
42.84435686690005
 20
32.01233735130001
 30
0.0
 10
42.89350749619996
 20
32.16474973580003
 30
0.0
 10
42.90623411889996
 20
32.2709341472
 30
0.0
 10
42.90746802180001
 20
32.32401747050005
 30
0.0
  0
SPLINE
  5
8812B
330
1F
100
AcDbEntity
  8
1
100
AcDbSpline
210
0.0
220
0.0
230
1.0
 70
     8
 71
     3
 72
    23
 73
    19
 74
     0
 42
0.000000001
 43
0.0000000001
 40
0.0
 40
0.0
 40
0.0
 40
0.0
 40
0.0624839227
 40
0.1250142546
 40
0.1875896653
 40
0.2501977188
 40
0.3128266353
 40
0.3754617975
 40
0.4380882789000001
 40
0.5006918557
 40
0.5632602988000001
 40
0.6257844382
 40
0.6882589717
 40
0.7506829330000003
 40
0.8130597845
 40
0.8753971201
 40
0.9377060038999999
 40
1.0
 40
1.0
 40
1.0
 40
1.0
 10
41.13253017299995
 20
33.22334214290004
 30
0.0
 10
41.01028446389999
 20
33.10499759960001
 30
0.0
 10
40.78294767559998
 20
32.84963332000004
 30
0.0
 10
40.50243876930005
 20
32.4206037383
 30
0.0
 10
40.28804179580004
 20
31.95450982579999
 30
0.0
 10
40.14458239719997
 20
31.46168914500001
 30
0.0
 10
40.07517470109997
 20
30.95295789640002
 30
0.0
 10
40.08135371369997
 20
30.43950281049999
 30
0.0
 10
40.16298081750004
 20
29.93260869460002
 30
0.0
 10
40.31826636430003
 20
29.44341888720001
 30
0.0
 10
40.54380045150003
 20
28.98268910460004
 30
0.0
 10
40.8346292515
 20
28.56055163229999
 30
0.0
 10
41.18436235900002
 20
28.18629332629999
 30
0.0
 10
41.58531614240007
 20
27.86815108600001
 30
0.0
 10
42.02866431000006
 20
27.61313018579997
 30
0.0
 10
42.50469501279996
 20
27.42684788930006
 30
0.0
 10
43.0027860389
 20
27.31341210169998
 30
0.0
 10
43.342627107
 20
27.28801331669999
 30
0.0
 10
43.51225529409997
 20
27.28801609180002
 30
0.0
  0
SPLINE
  5
8812C
330
1F
100
AcDbEntity
  8
1
100
AcDbSpline
210
0.0
220
0.0
230
1.0
 70
     8
 71
     3
 72
    11
 73
     7
 74
     0
 42
0.000000001
 43
0.0000000001
 40
0.0
 40
0.0
 40
0.0
 40
0.0
 40
0.2493743244
 40
0.4991100527000001
 40
0.749360618
 40
1.0
 40
1.0
 40
1.0
 40
1.0
 10
43.23557063960004
 20
32.64630623910007
 30
0.0
 10
43.19350442569997
 20
32.64630925629999
 30
0.0
 10
43.1084098855
 20
32.6296127761
 30
0.0
 10
43.0003731539
 20
32.55819336530001
 30
0.0
 10
42.92696557700003
 20
32.4512639024
 30
0.0
 10
42.90845053099997
 20
32.36628566580004
 30
0.0
 10
42.90746802180001
 20
32.32401747050005
 30
0.0
  0
SPLINE
  5
8812D
330
1F
100
AcDbEntity
  8
1
100
AcDbSpline
210
0.0
220
0.0
230
1.0
 70
     8
 71
     3
 72
     9
 73
     5
 74
     0
 42
0.000000001
 43
0.0000000001
 40
0.0
 40
0.0
 40
0.0
 40
0.0
 40
0.4998171182
 40
1.0
 40
1.0
 40
1.0
 40
1.0
 10
44.23847880200002
 20
32.05426623359997
 30
0.0
 10
44.30669716910005
 20
32.05426962829998
 30
0.0
 10
44.44373052750006
 20
32.07152419410002
 30
0.0
 10
44.57210954460004
 20
32.1224520282
 30
0.0
 10
44.6319370934001
 20
32.15533399430007
 30
0.0
  0
SPLINE
  5
8812E
330
1F
100
AcDbEntity
  8
1
100
AcDbSpline
210
0.0
220
0.0
230
1.0
 70
     8
 71
     3
 72
     9
 73
     5
 74
     0
 42
0.000000001
 43
0.0000000001
 40
0.0
 40
0.0
 40
0.0
 40
0.0
 40
0.4998063396
 40
1.0
 40
1.0
 40
1.0
 40
1.0
 10
44.78934716069999
 20
32.19576603350004
 30
0.0
 10
44.76205578300005
 20
32.1957684397
 30
0.0
 10
44.70723262349998
 20
32.18886381019999
 30
0.0
 10
44.65587267990009
 20
32.16848929080001
 30
0.0
 10
44.6319370934001
 20
32.15533399430007
 30
0.0
  0
SPLINE
  5
8812F
330
1F
100
AcDbEntity
  8
1
100
AcDbSpline
210
0.0
220
0.0
230
1.0
 70
     8
 71
     3
 72
    23
 73
    19
 74
     0
 42
0.000000001
 43
0.0000000001
 40
0.0
 40
0.0
 40
0.0
 40
0.0
 40
0.0622939961
 40
0.1246028799
 40
0.1869402155
 40
0.249317067
 40
0.3117410283
 40
0.3742155618
 40
0.4367397012
 40
0.4993081443
 40
0.5619117211
 40
0.6245382025000003
 40
0.6871733647
 40
0.7498022812000002
 40
0.8124103347
 40
0.8749857454
 40
0.9375160772999999
 40
1.0
 40
1.0
 40
1.0
 40
1.0
 10
43.58260726110006
 20
34.18801482080002
 30
0.0
 10
43.75223544820005
 20
34.18801759590005
 30
0.0
 10
44.0920765162001
 20
34.1626188109
 30
0.0
 10
44.59016754240007
 20
34.04918302320004
 30
0.0
 10
45.06619824510003
 20
33.86290072670002
 30
0.0
 10
45.50954641279997
 20
33.6078798266
 30
0.0
 10
45.91050019609997
 20
33.28973758629999
 30
0.0
 10
46.26023330370002
 20
32.9154792802
 30
0.0
 10
46.55106210370003
 20
32.49334180800004
 30
0.0
 10
46.77659619079998
 20
32.03261202539997
 30
0.0
 10
46.93188173759994
 20
31.5434222179
 30
0.0
 10
47.01350884150008
 20
31.03652810209999
 30
0.0
 10
47.01968785400003
 20
30.52307301620004
 30
0.0
 10
46.95028015800004
 20
30.01434176760003
 30
0.0
 10
46.8068207594
 20
29.52152108680005
 30
0.0
 10
46.59242378579995
 20
29.05542717430007
 30
0.0
 10
46.31191487950003
 20
28.62639759260003
 30
0.0
 10
46.08457809130004
 20
28.37103331300006
 30
0.0
 10
45.96233238220007
 20
28.25268876969997
 30
0.0
  0
SPLINE
  5
88130
330
1F
100
AcDbEntity
  8
1
100
AcDbSpline
210
0.0
220
0.0
230
1.0
 70
     8
 71
     3
 72
    11
 73
     7
 74
     0
 42
0.000000001
 43
0.0000000001
 40
0.0
 40
0.0
 40
0.0
 40
0.0
 40
0.2497755516
 40
0.4996492070000003
 40
0.7496995996
 40
1.0
 40
1.0
 40
1.0
 40
1.0
 10
43.58260726110006
 20
27.28801609180002
 30
0.0
 10
43.80142757220006
 20
27.28801967160004
 30
0.0
 10
44.24031241609998
 20
27.33038045740002
 30
0.0
 10
44.8736106092
 20
27.51873525390002
 30
0.0
 10
45.4596847327001
 20
27.82477269800003
 30
0.0
 10
45.80478443209995
 20
28.10016856799999
 30
0.0
 10
45.96233238220007
 20
28.25268876969997
 30
0.0
  0
SPLINE
  5
88131
330
1F
100
AcDbEntity
  8
1
100
AcDbSpline
210
0.0
220
0.0
230
1.0
 70
     8
 71
     3
 72
    23
 73
    19
 74
     0
 42
0.000000001
 43
0.0000000001
 40
0.0
 40
0.0
 40
0.0
 40
0.0
 40
0.0624839227
 40
0.1250142546
 40
0.1875896653
 40
0.2501977188
 40
0.3128266353
 40
0.3754617975
 40
0.4380882789000001
 40
0.5006918557
 40
0.5632602988000001
 40
0.6257844382
 40
0.6882589717
 40
0.7506829330000003
 40
0.8130597845
 40
0.8753971201
 40
0.9377060038999999
 40
1.0
 40
1.0
 40
1.0
 40
1.0
 10
41.20288214000003
 20
33.22334214290004
 30
0.0
 10
41.08063643089995
 20
33.10499759960001
 30
0.0
 10
40.85329964259996
 20
32.84963332000004
 30
0.0
 10
40.57279073630001
 20
32.4206037383
 30
0.0
 10
40.35839376270007
 20
31.95450982579999
 30
0.0
 10
40.21493436420008
 20
31.46168914500001
 30
0.0
 10
40.14552666810003
 20
30.95295789640002
 30
0.0
 10
40.15170568070003
 20
30.43950281049999
 30
0.0
 10
40.23333278450002
 20
29.93260869460002
 30
0.0
 10
40.38861833130011
 20
29.44341888720001
 30
0.0
 10
40.61415241840006
 20
28.98268910460004
 30
0.0
 10
40.90498121849996
 20
28.56055163229999
 30
0.0
 10
41.254714326
 20
28.18629332629999
 30
0.0
 10
41.65566810929999
 20
27.86815108600001
 30
0.0
 10
42.09901627700003
 20
27.61313018579997
 30
0.0
 10
42.57504697980005
 20
27.42684788930006
 30
0.0
 10
43.07313800589997
 20
27.31341210169998
 30
0.0
 10
43.41297907390003
 20
27.28801331669999
 30
0.0
 10
43.58260726110006
 20
27.28801609180002
 30
0.0
  0
SPLINE
  5
88132
330
1F
100
AcDbEntity
  8
1
100
AcDbSpline
210
0.0
220
0.0
230
1.0
 70
     8
 71
     3
 72
    11
 73
     7
 74
     0
 42
0.000000001
 43
0.0000000001
 40
0.0
 40
0.0
 40
0.0
 40
0.0
 40
0.2503004004
 40
0.500350793
 40
0.7502244484000001
 40
1.0
 40
1.0
 40
1.0
 40
1.0
 10
41.20288214000003
 20
33.22334214290004
 30
0.0
 10
41.36043009009995
 20
33.37586234460002
 30
0.0
 10
41.70552978939997
 20
33.65125821460003
 30
0.0
 10
42.29160391290007
 20
33.9572956586
 30
0.0
 10
42.92490210610004
 20
34.14565045520004
 30
0.0
 10
43.36378694999996
 20
34.188011241
 30
0.0
 10
43.58260726110006
 20
34.18801482080002
 30
0.0
  0
SPLINE
  5
88133
330
1F
100
AcDbEntity
  8
1
100
AcDbSpline
210
0.0
220
0.0
230
1.0
 70
     8
 71
     3
 72
    27
 73
    23
 74
     0
 42
0.000000001
 43
0.0000000001
 40
0.0
 40
0.0
 40
0.0
 40
0.0
 40
0.0625100854
 40
0.0938241208
 40
0.1251542875
 40
0.1877745471
 40
0.2504225458
 40
0.2817864651
 40
0.3131477969
 40
0.3757750794
 40
0.4383569629000001
 40
0.5008780541000001
 40
0.5633322387
 40
0.6257235956000004
 40
0.6880657258000003
 40
0.7192627629000004
 40
0.7504558183
 40
0.8127674285999999
 40
0.8751025026
 40
0.9063237387999999
 40
0.9375568347999999
 40
1.0
 40
1.0
 40
1.0
 40
1.0
 10
42.00275045680007
 20
32.43164603260004
 30
0.0
 10
41.89262467369997
 20
32.32503463810002
 30
0.0
 10
41.74257069849999
 20
32.14809112430001
 30
0.0
 10
41.58034513350003
 20
31.88718094359999
 30
0.0
 10
41.4441619370001
 20
31.61136941390004
 30
0.0
 10
41.32550105430005
 20
31.24344868800003
 30
0.0
 10
41.2806350234
 20
30.8593906138
 30
0.0
 10
41.28988209119993
 20
30.55168221250005
 30
0.0
 10
41.32901909309999
 20
30.24639215540004
 30
0.0
 10
41.43360885590005
 20
29.87423386050006
 30
0.0
 10
41.64325225939999
 20
29.46118675950004
 30
0.0
 10
41.92903048679999
 20
29.09707977890003
 30
0.0
 10
42.28001571640002
 20
28.79603191630002
 30
0.0
 10
42.6826103815
 20
28.56960184040003
 30
0.0
 10
43.04870524290002
 20
28.45028997379998
 30
0.0
 10
43.35071828080002
 20
28.39937298830006
 30
0.0
 10
43.65620771630005
 20
28.37841149639999
 30
0.0
 10
44.03976510300004
 20
28.40896174719998
 30
0.0
 10
44.40989660579997
 20
28.51429066560001
 30
0.0
 10
44.68907254969996
 20
28.64064433780001
 30
0.0
 10
44.9546570932
 20
28.79385304960005
 30
0.0
 10
45.13607894790005
 20
28.93788761829998
 30
0.0
 10
45.24608683589997
 20
29.04438488000002
 30
0.0
  0
SPLINE
  5
88134
330
1F
100
AcDbEntity
  8
1
100
AcDbSpline
210
0.0
220
0.0
230
1.0
 70
     8
 71
     3
 72
    15
 73
    11
 74
     0
 42
0.000000001
 43
0.0000000001
 40
0.0
 40
0.0
 40
0.0
 40
0.0
 40
0.125026603
 40
0.2501285277
 40
0.3752757539
 40
0.5004082424
 40
0.6254787929
 40
0.7504494531999999
 40
0.8752866427
 40
1.0
 40
1.0
 40
1.0
 40
1.0
 10
45.07115263420007
 20
31.69662803060004
 30
0.0
 10
45.04381850200003
 20
31.65058337340003
 30
0.0
 10
44.99799925770003
 20
31.55286527500005
 30
0.0
 10
44.95896589439996
 20
31.3959564285
 30
0.0
 10
44.95091157210004
 20
31.23436242019997
 30
0.0
 10
44.9741955339
 20
31.0742790683
 30
0.0
 10
45.02791083040007
 20
30.92176829309997
 30
0.0
 10
45.11005187450007
 20
30.7826203612
 30
0.0
 10
45.21742698579997
 20
30.66215346280003
 30
0.0
 10
45.30333563600004
 20
30.59722326189998
 30
0.0
 10
45.34888771790007
 20
30.56933198000007
 30
0.0
  0
SPLINE
  5
88135
330
1F
100
AcDbEntity
  8
1
100
AcDbSpline
210
0.0
220
0.0
230
1.0
 70
     8
 71
     3
 72
     9
 73
     5
 74
     0
 42
0.000000001
 43
0.0000000001
 40
0.0
 40
0.0
 40
0.0
 40
0.0
 40
0.5005275551000004
 40
1.0
 40
1.0
 40
1.0
 40
1.0
 10
43.33399939310004
 20
32.47713149910001
 30
0.0
 10
43.31359644179996
 20
32.5138899195
 30
0.0
 10
43.25815853619997
 20
32.58010975750006
 30
0.0
 10
43.18171804810003
 20
32.62035326210003
 30
0.0
 10
43.14154497950005
 20
32.63244221189999
 30
0.0
  0
SPLINE
  5
88136
330
1F
100
AcDbEntity
  8
1
100
AcDbSpline
210
0.0
220
0.0
230
1.0
 70
     8
 71
     3
 72
    11
 73
     7
 74
     0
 42
0.000000001
 43
0.0000000001
 40
0.0
 40
0.0
 40
0.0
 40
0.0
 40
0.2496168348
 40
0.4994153088
 40
0.7495138612000001
 40
1.0
 40
1.0
 40
1.0
 40
1.0
 10
44.05032756499998
 20
32.05426993609999
 30
0.0
 10
43.9779501946
 20
32.05426773389999
 30
0.0
 10
43.83240715509996
 20
32.07376130970005
 30
0.0
 10
43.6299897051
 20
32.15948961120003
 30
0.0
 10
43.45696598009999
 20
32.29547362880001
 30
0.0
 10
43.36924707740002
 20
32.4136284706
 30
0.0
 10
43.33399939310004
 20
32.47713149910001
 30
0.0
  0
SPLINE
  5
88137
330
1F
100
AcDbEntity
  8
1
100
AcDbSpline
210
0.0
220
0.0
230
1.0
 70
     8
 71
     3
 72
    15
 73
    11
 74
     0
 42
0.000000001
 43
0.0000000001
 40
0.0
 40
0.0
 40
0.0
 40
0.0
 40
0.1250874197
 40
0.250273621
 40
0.3754775216
 40
0.5006409471
 40
0.6256989901
 40
0.7506134720000001
 40
0.8753738368999998
 40
1.0
 40
1.0
 40
1.0
 40
1.0
 10
44.88300140030004
 20
31.69662803060004
 30
0.0
 10
44.89572158520002
 20
31.71805532710002
 30
0.0
 10
44.91637266259997
 20
31.76398793310005
 30
0.0
 10
44.93106399099996
 20
31.83795177480002
 30
0.0
 10
44.92881963000002
 20
31.91337828609997
 30
0.0
 10
44.90973687310009
 20
31.98635105500006
 30
0.0
 10
44.8747966208
 20
32.05313398150003
 30
0.0
 10
44.82577782780004
 20
32.11029524220001
 30
0.0
 10
44.76524262479996
 20
32.15487919280003
 30
0.0
 10
44.71914302590005
 20
32.1747260301
 30
0.0
 10
44.69537188590003
 20
32.18188802310002
 30
0.0
  0
SPLINE
  5
88138
330
1F
100
AcDbEntity
  8
1
100
AcDbSpline
210
0.0
220
0.0
230
1.0
 70
     8
 71
     3
 72
    15
 73
    11
 74
     0
 42
0.000000001
 43
0.0000000001
 40
0.0
 40
0.0
 40
0.0
 40
0.0
 40
0.1247096296
 40
0.2495518004
 40
0.3745207713
 40
0.4995917546000002
 40
0.6247246792
 40
0.7498702116000004
 40
0.8749771341
 40
1.0
 40
1.0
 40
1.0
 40
1.0
 10
45.16073648400003
 20
30.56933198000007
 30
0.0
 10
45.11518571209999
 20
30.59722245980001
 30
0.0
 10
45.02927765090009
 20
30.66215407660008
 30
0.0
 10
44.92189861680002
 20
30.78261767100002
 30
0.0
 10
44.83975891090006
 20
30.92176855490001
 30
0.0
 10
44.78604140770004
 20
31.07427835120004
 30
0.0
 10
44.76275985360007
 20
31.23436186120006
 30
0.0
 10
44.77081162310002
 20
31.3959578658
 30
0.0
 10
44.80984998730002
 20
31.55286561789998
 30
0.0
 10
44.85566805420001
 20
31.65058469750005
 30
0.0
 10
44.88300140030004
 20
31.69662803060004
 30
0.0
  0
SPLINE
  5
88139
330
1F
100
AcDbEntity
  8
1
100
AcDbSpline
210
0.0
220
0.0
230
1.0
 70
     8
 71
     3
 72
    15
 73
    11
 74
     0
 42
0.000000001
 43
0.0000000001
 40
0.0
 40
0.0
 40
0.0
 40
0.0
 40
0.1251708752
 40
0.2504178639
 40
0.3756803631
 40
0.5008539075
 40
0.6258744928
 40
0.7507162801
 40
0.8754018118999999
 40
1.0
 40
1.0
 40
1.0
 40
1.0
 10
45.07115263420007
 20
31.69662803060004
 30
0.0
 10
45.08590066240003
 20
31.72147125220005
 30
0.0
 10
45.10895892209997
 20
31.77533100780002
 30
0.0
 10
45.12133112590004
 20
31.86211907090007
 30
0.0
 10
45.11082468220002
 20
31.94920867009998
 30
0.0
 10
45.07810559979996
 20
32.03053319460003
 30
0.0
 10
45.02544354890004
 20
32.10049470879997
 30
0.0
 10
44.95643795800003
 20
32.15424712350006
 30
0.0
 10
44.87593312759996
 20
32.18807223529998
 30
0.0
 10
44.81810597909998
 20
32.19576349799999
 30
0.0
 10
44.78934716069999
 20
32.19576603350004
 30
0.0
  0
SPLINE
  5
8813A
330
1F
100
AcDbEntity
  8
1
100
AcDbSpline
210
0.0
220
0.0
230
1.0
 70
     8
 71
     3
 72
    15
 73
    11
 74
     0
 42
0.000000001
 43
0.0000000001
 40
0.0
 40
0.0
 40
0.0
 40
0.0
 40
0.1253363587
 40
0.2506186562
 40
0.3758034818
 40
0.5008655515
 40
0.6257953163000001
 40
0.7506048813
 40
0.8753175871999998
 40
1.0
 40
1.0
 40
1.0
 40
1.0
 10
44.1532180370001
 20
29.15201344210004
 30
0.0
 10
44.15445189800005
 20
29.20509495880003
 30
0.0
 10
44.16718017079995
 20
29.31127932030003
 30
0.0
 10
44.21632543200007
 20
29.46369306170004
 30
0.0
 10
44.2937029886001
 20
29.60383522510006
 30
0.0
 10
44.39643173850003
 20
29.72640271870006
 30
0.0
 10
44.52068239740003
 20
29.82684226210003
 30
0.0
 10
44.66184399819995
 20
29.90139131920003
 30
0.0
 10
44.81457837870005
 20
29.94727682910008
 30
0.0
 10
44.92051634560004
 20
29.95759485730003
 30
0.0
 10
44.97333517150003
 20
29.95759879860003
 30
0.0
  0
SPLINE
  5
8813B
330
1F
100
AcDbEntity
  8
1
100
AcDbSpline
210
0.0
220
0.0
230
1.0
 70
     8
 71
     3
 72
    11
 73
     7
 74
     0
 42
0.000000001
 43
0.0000000001
 40
0.0
 40
0.0
 40
0.0
 40
0.0
 40
0.2504819519
 40
0.5005874052000002
 40
0.7503850791
 40
1.0
 40
1.0
 40
1.0
 40
1.0
 10
43.52215062699996
 20
32.47713149910001
 30
0.0
 10
43.55739774989999
 20
32.41362948200003
 30
0.0
 10
43.64511834999996
 20
32.29547582730001
 30
0.0
 10
43.81813800120005
 20
32.15948334600003
 30
0.0
 10
44.02056157110007
 20
32.07376786980004
 30
0.0
 10
44.16610192960002
 20
32.05426263199999
 30
0.0
 10
44.23847880200002
 20
32.05426623359997
 30
0.0
  0
SPLINE
  5
8813C
330
1F
100
AcDbEntity
  8
1
100
AcDbSpline
210
0.0
220
0.0
230
1.0
 70
     8
 71
     3
 72
     9
 73
     5
 74
     0
 42
0.000000001
 43
0.0000000001
 40
0.0
 40
0.0
 40
0.0
 40
0.0
 40
0.5001923073
 40
1.0
 40
1.0
 40
1.0
 40
1.0
 10
42.42874896550006
 20
29.3206969183
 30
0.0
 10
42.48857759509997
 20
29.35357947840003
 30
0.0
 10
42.61695611849996
 20
29.4045092504
 30
0.0
 10
42.75399023240004
 20
29.42175890080006
 30
0.0
 10
42.82220726000002
 20
29.42176097640004
 30
0.0
  0
SPLINE
  5
8813D
330
1F
100
AcDbEntity
  8
1
100
AcDbSpline
210
0.0
220
0.0
230
1.0
 70
     8
 71
     3
 72
    15
 73
    11
 74
     0
 42
0.000000001
 43
0.0000000001
 40
0.0
 40
0.0
 40
0.0
 40
0.0
 40
0.1246293835
 40
0.2493695473
 40
0.3743259483
 40
0.4994857045
 40
0.6247590985000003
 40
0.7500101368000001
 40
0.875106152
 40
1.0
 40
1.0
 40
1.0
 40
1.0
 10
45.17819515589997
 20
29.95747730780005
 30
0.0
 10
45.21352969869997
 20
29.95748065949996
 30
0.0
 10
45.28476553480004
 20
29.96916544199999
 30
0.0
 10
45.3800307962
 20
30.01991142790001
 30
0.0
 10
45.45432108140005
 20
30.09853866630005
 30
0.0
 10
45.49978895039997
 20
30.19682615220001
 30
0.0
 10
45.51175691670005
 20
30.30453554969998
 30
0.0
 10
45.48896523229995
 20
30.41048602710004
 30
0.0
 10
45.4338795489001
 20
30.50358824489999
 30
0.0
 10
45.37908611099999
 20
30.5508416749
 30
0.0
 10
45.34888771790007
 20
30.56933198000007
 30
0.0
  0
SPLINE
  5
8813E
330
1F
100
AcDbEntity
  8
1
100
AcDbSpline
210
0.0
220
0.0
230
1.0
 70
     8
 71
     3
 72
    15
 73
    11
 74
     0
 42
0.000000001
 43
0.0000000001
 40
0.0
 40
0.0
 40
0.0
 40
0.0
 40
0.1246400608
 40
0.2493789673
 40
0.3743377152
 40
0.4994979937
 40
0.6247693851000001
 40
0.7500177582
 40
0.8751065924
 40
1.0
 40
1.0
 40
1.0
 40
1.0
 10
44.99327253739998
 20
29.95749378880004
 30
0.0
 10
45.02847589669999
 20
29.95784796500004
 30
0.0
 10
45.09932601139996
 20
29.97014130660005
 30
0.0
 10
45.19381277889999
 20
30.02145774270002
 30
0.0
 10
45.26728784320003
 20
30.10027517920003
 30
0.0
 10
45.31202941729996
 20
30.19843353140001
 30
0.0
 10
45.3235016543
 20
30.30577300030007
 30
0.0
 10
45.30046533239999
 20
30.4112374286
 30
0.0
 10
45.24543009130002
 20
30.50387764750008
 30
0.0
 10
45.19082160110008
 20
30.55091103320007
 30
0.0
 10
45.16073648400003
 20
30.56933198000007
 30
0.0
  0
SPLINE
  5
8813F
330
1F
100
AcDbEntity
  8
1
100
AcDbSpline
210
0.0
220
0.0
230
1.0
 70
     8
 71
     3
 72
    15
 73
    11
 74
     0
 42
0.000000001
 43
0.0000000001
 40
0.0
 40
0.0
 40
0.0
 40
0.0
 40
0.1246819468
 40
0.2493922141
 40
0.3742031403
 40
0.4991330377000003
 40
0.6241948778000001
 40
0.7493820855
 40
0.8746592278000001
 40
1.0
 40
1.0
 40
1.0
 40
1.0
 10
45.16148639410004
 20
29.95759890690005
 30
0.0
 10
45.10866782779999
 20
29.95759588460001
 30
0.0
 10
45.00273102230003
 20
29.94727710830006
 30
0.0
 10
44.84999835630001
 20
29.90138987430004
 30
0.0
 10
44.70883624979999
 20
29.82684288000007
 30
0.0
 10
44.58458628549999
 20
29.72640205299999
 30
0.0
 10
44.48185476199999
 20
29.60383573190006
 30
0.0
 10
44.40448042579999
 20
29.46369356130004
 30
0.0
 10
44.35532979650008
 20
29.31128117680004
 30
0.0
 10
44.34260317389997
 20
29.20509676540002
 30
0.0
 10
44.34136927090003
 20
29.15201344210004
 30
0.0
  0
SPLINE
  5
88140
330
1F
100
AcDbEntity
  8
1
100
AcDbSpline
210
0.0
220
0.0
230
1.0
 70
     8
 71
     3
 72
    11
 73
     7
 74
     0
 42
0.000000001
 43
0.0000000001
 40
0.0
 40
0.0
 40
0.0
 40
0.0
 40
0.2504891883
 40
0.5005834931999999
 40
0.7503857384
 40
1.0
 40
1.0
 40
1.0
 40
1.0
 10
43.52215062699996
 20
32.47713149910001
 30
0.0
 10
43.50804900349999
 20
32.50253730430003
 30
0.0
 10
43.47295642380004
 20
32.54980802930001
 30
0.0
 10
43.40373275310002
 20
32.60420791789997
 30
0.0
 10
43.32275302790002
 20
32.63850640690001
 30
0.0
 10
43.2645261724
 20
32.64630416230005
 30
0.0
 10
43.23557063960004
 20
32.64630623910007
 30
0.0
  0
SPLINE
  5
88141
330
1F
100
AcDbEntity
  8
1
100
AcDbSpline
210
0.0
220
0.0
230
1.0
 70
     8
 71
     3
 72
    11
 73
     7
 74
     0
 42
0.000000001
 43
0.0000000001
 40
0.0
 40
0.0
 40
0.0
 40
0.0
 40
0.2493743244
 40
0.4991100527000001
 40
0.749360618
 40
1.0
 40
1.0
 40
1.0
 40
1.0
 10
44.0132666531
 20
28.82972467340002
 30
0.0
 10
44.05533286700006
 20
28.82972165620003
 30
0.0
 10
44.14042740720002
 20
28.84641813650001
 30
0.0
 10
44.24846413880003
 20
28.91783754719998
 30
0.0
 10
44.32187171569999
 20
29.02476701020001
 30
0.0
 10
44.34038676180001
 20
29.10974524680003
 30
0.0
 10
44.34136927090003
 20
29.15201344210004
 30
0.0
  0
SPLINE
  5
88142
330
1F
100
AcDbEntity
  8
1
100
AcDbSpline
210
0.0
220
0.0
230
1.0
 70
     8
 71
     3
 72
    11
 73
     7
 74
     0
 42
0.000000001
 43
0.0000000001
 40
0.0
 40
0.0
 40
0.0
 40
0.0
 40
0.2494313411
 40
0.4992627166000001
 40
0.7494790982
 40
1.0
 40
1.0
 40
1.0
 40
1.0
 10
43.9193893235
 20
28.84363409480002
 30
0.0
 10
43.95217900980003
 20
28.85351825520002
 30
0.0
 10
44.01510943349999
 20
28.88393403730001
 30
0.0
 10
44.09045911220005
 20
28.95641373219999
 30
0.0
 10
44.13995709870003
 20
29.04866597629999
 30
0.0
 10
44.15241871520004
 20
29.11762608760003
 30
0.0
 10
44.1532180370001
 20
29.15201344210004
 30
0.0
  0
SPLINE
  5
88143
330
1F
100
AcDbEntity
  8
1
100
AcDbSpline
210
0.0
220
0.0
230
1.0
 70
     8
 71
     3
 72
     9
 73
     5
 74
     0
 42
0.000000001
 43
0.0000000001
 40
0.0
 40
0.0
 40
0.0
 40
0.0
 40
0.4998171182
 40
1.0
 40
1.0
 40
1.0
 40
1.0
 10
43.01035849080006
 20
29.42176467890002
 30
0.0
 10
42.94214012370002
 20
29.42176128420005
 30
0.0
 10
42.80510676530002
 20
29.40450671850001
 30
0.0
 10
42.67672774820003
 20
29.35357888440007
 30
0.0
 10
42.61690019939999
 20
29.3206969183
 30
0.0
  0
SPLINE
  5
88144
330
1F
100
AcDbEntity
  8
1
100
AcDbSpline
210
0.0
220
0.0
230
1.0
 70
     8
 71
     3
 72
    27
 73
    23
 74
     0
 42
0.000000001
 43
0.0000000001
 40
0.0
 40
0.0
 40
0.0
 40
0.0
 40
0.0624431652
 40
0.0936762612
 40
0.1248974974
 40
0.1872325714
 40
0.2495441817
 40
0.2807372371000001
 40
0.3119342742
 40
0.3742764044
 40
0.4366677613000002
 40
0.4991219459
 40
0.5616430371
 40
0.6242249206000002
 40
0.6868522031000001
 40
0.7182135349
 40
0.7495774542
 40
0.8122254529
 40
0.8748457124999998
 40
0.9061758791999999
 40
0.9374899146
 40
1.0
 40
1.0
 40
1.0
 40
1.0
 10
42.00275045680007
 20
32.43164603260004
 30
0.0
 10
42.1127583448
 20
32.53814329420001
 30
0.0
 10
42.29418019950003
 20
32.68217786290001
 30
0.0
 10
42.55976474299996
 20
32.83538657469998
 30
0.0
 10
42.83894068689995
 20
32.96174024690001
 30
0.0
 10
43.20907218970001
 20
33.0670691654
 30
0.0
 10
43.59262957639996
 20
33.09761941619999
 30
0.0
 10
43.89811901189999
 20
33.07665792430004
 30
0.0
 10
44.20013204990005
 20
33.0257409388
 30
0.0
 10
44.56622691130005
 20
32.90642907220001
 30
0.0
 10
44.96882157629999
 20
32.67999899629999
 30
0.0
 10
45.31980680590002
 20
32.37895113370001
 30
0.0
 10
45.60558503330002
 20
32.01484415309997
 30
0.0
 10
45.81522843690004
 20
31.60179705210001
 30
0.0
 10
45.91981819959992
 20
31.22963875719998
 30
0.0
 10
45.9589552016
 20
30.92434870010001
 30
0.0
 10
45.96820226939995
 20
30.61664029869999
 30
0.0
 10
45.9233362384
 20
30.23258222449996
 30
0.0
 10
45.80467535570003
 20
29.86466149859999
 30
0.0
 10
45.66849215930004
 20
29.58884996900002
 30
0.0
 10
45.50626659419992
 20
29.32793978830006
 30
0.0
 10
45.35621261910001
 20
29.15099627449999
 30
0.0
 10
45.24608683589997
 20
29.04438488000002
 30
0.0
  0
SPLINE
  5
88145
330
1F
100
AcDbEntity
  8
1
100
AcDbSpline
210
0.0
220
0.0
230
1.0
 70
     8
 71
     3
 72
     9
 73
     5
 74
     0
 42
0.000000001
 43
0.0000000001
 40
0.0
 40
0.0
 40
0.0
 40
0.0
 40
0.4998063396
 40
1.0
 40
1.0
 40
1.0
 40
1.0
 10
42.45949013210007
 20
29.28026487899998
 30
0.0
 10
42.48678150980004
 20
29.28026247290001
 30
0.0
 10
42.54160466919995
 20
29.28716710230004
 30
0.0
 10
42.59296461280007
 20
29.30754162180006
 30
0.0
 10
42.61690019939999
 20
29.3206969183
 30
0.0
  0
SPLINE
  5
88146
330
1F
100
AcDbEntity
  8
1
100
AcDbSpline
210
0.0
220
0.0
230
1.0
 70
     8
 71
     3
 72
     8
 73
     4
 74
     0
 42
0.000000001
 43
0.0000000001
 40
0.0
 40
0.0
 40
0.0
 40
0.0
 40
1.0
 40
1.0
 40
1.0
 40
1.0
 10
42.36520447689996
 20
29.29404959399997
 30
0.0
 10
42.38720203870002
 20
29.30065722760003
 30
0.0
 10
42.40862027770003
 20
29.30963394070005
 30
0.0
 10
42.42874896550006
 20
29.3206969183
 30
0.0
  0
SPLINE
  5
88147
330
1F
100
AcDbEntity
  8
1
100
AcDbSpline
210
0.0
220
0.0
230
1.0
 70
     8
 71
     3
 72
     9
 73
     5
 74
     0
 42
0.000000001
 43
0.0000000001
 40
0.0
 40
0.0
 40
0.0
 40
0.0
 40
0.2522454042
 40
1.0
 40
1.0
 40
1.0
 40
1.0
 10
50.80000000000007
 20
36.7768994372
 30
0.0
 10
50.79992950630003
 20
36.6692176415
 30
0.0
 10
50.79883208010006
 20
36.24232563700002
 30
0.0
 10
50.79443019209998
 20
35.8154416376
 30
0.0
 10
50.78921801450007
 20
35.49627292720001
 30
0.0
  0
SPLINE
  5
88148
330
1F
100
AcDbEntity
  8
1
100
AcDbSpline
210
0.0
220
0.0
230
1.0
 70
     8
 71
     3
 72
    15
 73
    11
 74
     0
 42
0.000000001
 43
0.0000000001
 40
0.0
 40
0.0
 40
0.0
 40
0.0
 40
0.1258915043
 40
0.25153708
 40
0.3767812244
 40
0.5015565909000001
 40
0.6260263322000002
 40
0.7504187433000002
 40
0.8749935881
 40
1.0
 40
1.0
 40
1.0
 40
1.0
 10
50.80000000000007
 20
36.7768994372
 30
0.0
 10
50.80003289410001
 20
36.8271463856
 30
0.0
 10
50.79064120840008
 20
36.9278100672
 30
0.0
 10
50.74850639040004
 20
37.07306158950002
 30
0.0
 10
50.68012708240008
 20
37.2075093567
 30
0.0
 10
50.58800300580003
 20
37.3263502627
 30
0.0
 10
50.4752940226
 20
37.42538600580002
 30
0.0
 10
50.34583510590005
 20
37.50110909530003
 30
0.0
 10
50.20413345880001
 20
37.55075377980003
 30
0.0
 10
50.10483263240008
 20
37.5651729742
 30
0.0
 10
50.05499772740006
 20
37.56759430759999
 30
0.0
  0
SPLINE
  5
88149
330
1F
100
AcDbEntity
  8
1
100
AcDbSpline
210
0.0
220
0.0
230
1.0
 70
     8
 71
     3
 72
     9
 73
     5
 74
     0
 42
0.000000001
 43
0.0000000001
 40
0.0
 40
0.0
 40
0.0
 40
0.0
 40
0.2501268862
 40
1.0
 40
1.0
 40
1.0
 40
1.0
 10
48.77225716990007
 20
37.62911279019997
 30
0.0
 10
48.87920964470004
 20
37.62405018890004
 30
0.0
 10
49.30679934550004
 20
37.60374302400001
 30
0.0
 10
49.73437653490009
 20
37.58317236110003
 30
0.0
 10
50.05499772740006
 20
37.56759430759999
 30
0.0
  0
SPLINE
  5
8814A
330
1F
100
AcDbEntity
  8
1
100
AcDbSpline
210
0.0
220
0.0
230
1.0
 70
     8
 71
     3
 72
     9
 73
     5
 74
     0
 42
0.000000001
 43
0.0000000001
 40
0.0
 40
0.0
 40
0.0
 40
0.0
 40
0.2480571321
 40
1.0
 40
1.0
 40
1.0
 40
1.0
 10
42.26836493450004
 20
37.76895050969998
 30
0.0
 10
42.80174751020001
 20
37.75759700990005
 30
0.0
 10
44.95198943490003
 20
37.71187832310002
 30
0.0
 10
47.1022223543
 20
37.66573695150001
 30
0.0
 10
48.71907253300003
 20
37.63094306820006
 30
0.0
  0
SPLINE
  5
8814B
330
1F
100
AcDbEntity
  8
1
100
AcDbSpline
210
0.0
220
0.0
230
1.0
 70
     8
 71
     3
 72
    11
 73
     7
 74
     0
 42
0.000000001
 43
0.0000000001
 40
0.0
 40
0.0
 40
0.0
 40
0.0
 40
0.1243910754
 40
0.2489587935
 40
0.4986673199000001
 40
1.0
 40
1.0
 40
1.0
 40
1.0
 10
40.94845491340004
 20
37.58021200850001
 30
0.0
 10
40.86172959500003
 20
37.53350118390003
 30
0.0
 10
40.68802370790002
 20
37.44025869170002
 30
0.0
 10
40.34030209369996
 20
37.25309646859998
 30
0.0
 10
39.72985885280002
 20
36.92423506490003
 30
0.0
 10
39.20656041590007
 20
36.64160104250001
 30
0.0
 10
38.8573587157
 20
36.4527370113
 30
0.0
  0
LINE
  5
8814C
330
1F
100
AcDbEntity
  8
1
100
AcDbLine
 10
35.72015756760004
 20
34.74936477539998
 30
0.0
 11
35.28732553060001
 21
34.51341150239997
 31
0.0
  0
SPLINE
  5
8814D
330
1F
100
AcDbEntity
  8
1
100
AcDbSpline
210
0.0
220
0.0
230
1.0
 70
     8
 71
     3
 72
     9
 73
     5
 74
     0
 42
0.000000001
 43
0.0000000001
 40
0.0
 40
0.0
 40
0.0
 40
0.0
 40
0.2497945285
 40
1.0
 40
1.0
 40
1.0
 40
1.0
 10
35.2410082988
 20
34.487366326
 30
0.0
 10
35.14847293629998
 20
34.43372371600003
 30
0.0
 10
34.77838483619996
 20
34.21836018029998
 30
0.0
 10
34.4097056347
 20
34.00057512400002
 30
0.0
 10
34.13394955500007
 20
33.83581024970006
 30
0.0
  0
SPLINE
  5
8814E
330
1F
100
AcDbEntity
  8
1
100
AcDbSpline
210
0.0
220
0.0
230
1.0
 70
     8
 71
     3
 72
     9
 73
     5
 74
     0
 42
0.000000001
 43
0.0000000001
 40
0.0
 40
0.0
 40
0.0
 40
0.0
 40
0.5004207099000002
 40
1.0
 40
1.0
 40
1.0
 40
1.0
 10
34.13394955500007
 20
33.83581024970006
 30
0.0
 10
34.09366247770004
 20
33.81173863090001
 30
0.0
 10
34.01734118680008
 20
33.75625287660003
 30
0.0
 10
33.95225386749996
 20
33.68794148820004
 30
0.0
 10
33.92310263069999
 20
33.65126320590005
 30
0.0
  0
SPLINE
  5
8814F
330
1F
100
AcDbEntity
  8
1
100
AcDbSpline
210
0.0
220
0.0
230
1.0
 70
     8
 71
     3
 72
     9
 73
     5
 74
     0
 42
0.000000001
 43
0.0000000001
 40
0.0
 40
0.0
 40
0.0
 40
0.0
 40
0.2514597274
 40
1.0
 40
1.0
 40
1.0
 40
1.0
 10
33.88996050650007
 20
32.69282880469999
 30
0.0
 10
33.93478626290006
 20
32.60753546710001
 30
0.0
 10
34.11356019940001
 20
32.26861186250002
 30
0.0
 10
34.29439510689997
 20
31.93077517290004
 30
0.0
 10
34.4309335613001
 20
31.67853028980002
 30
0.0
  0
SPLINE
  5
88150
330
1F
100
AcDbEntity
  8
1
100
AcDbSpline
210
0.0
220
0.0
230
1.0
 70
     8
 71
     3
 72
    15
 73
    11
 74
     0
 42
0.000000001
 43
0.0000000001
 40
0.0
 40
0.0
 40
0.0
 40
0.0
 40
0.0306648407
 40
0.0613588136
 40
0.1228987742
 40
0.2465199891
 40
0.3707881419
 40
0.4956447960000001
 40
0.7469200284000001
 40
1.0
 40
1.0
 40
1.0
 40
1.0
 10
50.31917510599999
 20
28.38082106300004
 30
0.0
 10
50.29215849670004
 20
28.33297549610001
 30
0.0
 10
50.23835943760002
 20
28.23709246350006
 30
0.0
 10
50.1302806481001
 20
28.04522467620003
 30
0.0
 10
49.94033790770004
 20
27.7083005332
 30
0.0
 10
49.66741479140001
 20
27.2256790232
 30
0.0
 10
49.33782921090005
 20
26.64476375490006
 30
0.0
 10
48.89429374689996
 20
25.86551496730006
 30
0.0
 10
48.33470359830005
 20
24.88674569190005
 30
0.0
 10
47.88436502820002
 20
24.10322309180003
 30
0.0
 10
47.65798127489995
 20
23.71029562420003
 30
0.0
  0
SPLINE
  5
88151
330
1F
100
AcDbEntity
  8
1
100
AcDbSpline
210
0.0
220
0.0
230
1.0
 70
     8
 71
     3
 72
    10
 73
     6
 74
     0
 42
0.000000001
 43
0.0000000001
 40
0.0
 40
0.0
 40
0.0
 40
0.0
 40
0.2504872163
 40
0.5017841586000003
 40
1.0
 40
1.0
 40
1.0
 40
1.0
 10
41.68320506700001
 20
37.76930903250005
 30
0.0
 10
41.61930544970004
 20
37.76930818060001
 30
0.0
 10
41.49111406040002
 20
37.76100062809999
 30
0.0
 10
41.24031829829994
 20
37.71187965829998
 30
0.0
 10
41.06035206659996
 20
37.64048054830005
 30
0.0
 10
40.94845491340004
 20
37.58021200850001
 30
0.0
  0
SPLINE
  5
88152
330
1F
100
AcDbEntity
  8
1
100
AcDbSpline
210
0.0
220
0.0
230
1.0
 70
     8
 71
     3
 72
    19
 73
    15
 74
     0
 42
0.000000001
 43
0.0000000001
 40
0.0
 40
0.0
 40
0.0
 40
0.0
 40
0.1285455711
 40
0.1921981002
 40
0.2551404855
 40
0.286276158
 40
0.3171765377
 40
0.3788891721
 40
0.4406803446
 40
0.5025455446000004
 40
0.6264933959000001
 40
0.7507238236
 40
0.8752287154999999
 40
1.0
 40
1.0
 40
1.0
 40
1.0
 10
50.52581762650003
 20
29.13499094120004
 30
0.0
 10
50.53046744979996
 20
29.40552000860004
 30
0.0
 10
50.53991563090004
 20
29.80997159190002
 30
0.0
 10
50.55753074439997
 20
30.34671727660003
 30
0.0
 10
50.57056524790005
 20
30.67846304170001
 30
0.0
 10
50.58216940770001
 20
30.94126825030003
 30
0.0
 10
50.59464403499998
 20
31.2014419187
 30
0.0
 10
50.61021967700003
 20
31.52606586270002
 30
0.0
 10
50.62867125460002
 20
31.9158031677
 30
0.0
 10
50.65309920330003
 20
32.43639988230004
 30
0.0
 10
50.68322706970002
 20
33.08829890220002
 30
0.0
 10
50.71872713810001
 20
33.87193713669998
 30
0.0
 10
50.75358572200002
 20
34.65733908030003
 30
0.0
 10
50.77637724940007
 20
35.18153264730003
 30
0.0
 10
50.78766282319998
 20
35.44391477320004
 30
0.0
  0
SPLINE
  5
88153
330
1F
100
AcDbEntity
  8
1
100
AcDbSpline
210
0.0
220
0.0
230
1.0
 70
     8
 71
     3
 72
     8
 73
     4
 74
     0
 42
0.000000001
 43
0.0000000001
 40
0.0
 40
0.0
 40
0.0
 40
0.0
 40
1.0
 40
1.0
 40
1.0
 40
1.0
 10
50.78921801450007
 20
35.49627292720001
 30
0.0
 10
50.78893291560007
 20
35.47881483969999
 30
0.0
 10
50.78841313650002
 20
35.46135905970004
 30
0.0
 10
50.78766282319998
 20
35.44391477320004
 30
0.0
  0
SPLINE
  5
88154
330
1F
100
AcDbEntity
  8
1
100
AcDbSpline
210
0.0
220
0.0
230
1.0
 70
     8
 71
     3
 72
     8
 73
     4
 74
     0
 42
0.000000001
 43
0.0000000001
 40
0.0
 40
0.0
 40
0.0
 40
0.0
 40
1.0
 40
1.0
 40
1.0
 40
1.0
 10
48.77225716990007
 20
37.62911279019997
 30
0.0
 10
48.75453830230004
 20
37.62995151370004
 30
0.0
 10
48.73680713409999
 20
37.63056142760002
 30
0.0
 10
48.71907253300003
 20
37.63094306820006
 30
0.0
  0
SPLINE
  5
88155
330
1F
100
AcDbEntity
  8
1
100
AcDbSpline
210
0.0
220
0.0
230
1.0
 70
     8
 71
     3
 72
     8
 73
     4
 74
     0
 42
0.000000001
 43
0.0000000001
 40
0.0
 40
0.0
 40
0.0
 40
0.0
 40
1.0
 40
1.0
 40
1.0
 40
1.0
 10
35.28732553060001
 20
34.51341150239997
 30
0.0
 10
35.2717750045
 20
34.50493101880002
 30
0.0
 10
35.25633228599998
 20
34.49624961820004
 30
0.0
 10
35.2410082988
 20
34.487366326
 30
0.0
  0
SPLINE
  5
88156
330
1F
100
AcDbEntity
  8
1
100
AcDbSpline
210
0.0
220
0.0
230
1.0
 70
     8
 71
     3
 72
    10
 73
     6
 74
     0
 42
0.000000001
 43
0.0000000001
 40
0.0
 40
0.0
 40
0.0
 40
0.0
 40
0.4914355096
 40
0.7454198756999999
 40
1.0
 40
1.0
 40
1.0
 40
1.0
 10
50.31917510599999
 20
28.38082106300004
 30
0.0
 10
50.38270270999999
 20
28.49332645519999
 30
0.0
 10
50.45801500460004
 20
28.6769350504
 30
0.0
 10
50.51365458139992
 20
28.93431850040002
 30
0.0
 10
50.52466739200007
 20
29.06806971740002
 30
0.0
 10
50.52581762650003
 20
29.13499094120004
 30
0.0
  0
SPLINE
  5
88157
330
1F
100
AcDbEntity
  8
1
100
AcDbSpline
210
0.0
220
0.0
230
1.0
 70
     8
 71
     3
 72
    15
 73
    11
 74
     0
 42
0.000000001
 43
0.0000000001
 40
0.0
 40
0.0
 40
0.0
 40
0.0
 40
0.1307002462
 40
0.25793773
 40
0.3197276409
 40
0.3810751515999999
 40
0.5040831716
 40
0.6274884648
 40
0.7512817967000001
 40
1.0
 40
1.0
 40
1.0
 40
1.0
 10
41.50101659569997
 20
37.58021200850001
 30
0.0
 10
41.26749970019999
 20
37.44944000050001
 30
0.0
 10
40.80744629269998
 20
37.18994175740002
 30
0.0
 10
40.23913880630002
 20
36.86483778870002
 30
0.0
 10
39.79558600339999
 20
36.60768726090001
 30
0.0
 10
39.35972517030007
 20
36.354538641
 30
0.0
 10
38.81454946470001
 20
36.03838250960004
 30
0.0
 10
38.15861411520007
 20
35.65832141050001
 30
0.0
 10
37.27968811310006
 20
35.14964631320001
 30
0.0
 10
36.61921024800007
 20
34.76801141740003
 30
0.0
 10
36.1781018864
 20
34.51341150239997
 30
0.0
  0
SPLINE
  5
88158
330
1F
100
AcDbEntity
  8
1
100
AcDbSpline
210
0.0
220
0.0
230
1.0
 70
     8
 71
     3
 72
     9
 73
     5
 74
     0
 42
0.000000001
 43
0.0000000001
 40
0.0
 40
0.0
 40
0.0
 40
0.0
 40
0.2535396194
 40
1.0
 40
1.0
 40
1.0
 40
1.0
 10
35.06150020720009
 20
33.83581024970006
 30
0.0
 10
35.15239291220007
 20
33.89050463020004
 30
0.0
 10
35.510672236
 20
34.10658611829999
 30
0.0
 10
35.86807527530004
 20
34.3241210333
 30
0.0
 10
36.13433133040008
 20
34.487366326
 30
0.0
  0
SPLINE
  5
88159
330
1F
100
AcDbEntity
  8
1
100
AcDbSpline
210
0.0
220
0.0
230
1.0
 70
     8
 71
     3
 72
    15
 73
    11
 74
     0
 42
0.000000001
 43
0.0000000001
 40
0.0
 40
0.0
 40
0.0
 40
0.0
 40
0.1239261435
 40
0.2482195959
 40
0.3727461054
 40
0.4974929253
 40
0.6225834159
 40
0.7480710372
 40
0.8739218478999999
 40
1.0
 40
1.0
 40
1.0
 40
1.0
 10
35.06150020720009
 20
33.83581024970006
 30
0.0
 10
35.01892451930007
 20
33.81019047219999
 30
0.0
 10
34.93836752070001
 20
33.75053525030003
 30
0.0
 10
34.83666922340001
 20
33.63984216489999
 30
0.0
 10
34.75754060669999
 20
33.51158204629999
 30
0.0
 10
34.70396532150005
 20
33.37040349840001
 30
0.0
 10
34.67770908140006
 20
33.22132280219998
 30
0.0
 10
34.67966495660005
 20
33.06951247539999
 30
0.0
 10
34.70974121770007
 20
32.92035332200001
 30
0.0
 10
34.74790187660005
 20
32.82608254819999
 30
0.0
 10
34.77113463880005
 20
32.78118491699999
 30
0.0
  0
SPLINE
  5
8815A
330
1F
100
AcDbEntity
  8
1
100
AcDbSpline
210
0.0
220
0.0
230
1.0
 70
     8
 71
     3
 72
     9
 73
     5
 74
     0
 42
0.000000001
 43
0.0000000001
 40
0.0
 40
0.0
 40
0.0
 40
0.0
 40
0.2465993856
 40
1.0
 40
1.0
 40
1.0
 40
1.0
 10
35.34371875500005
 20
31.64259391870002
 30
0.0
 10
35.29777043920001
 20
31.73674127590004
 30
0.0
 10
35.11026951040003
 20
32.11795043230003
 30
0.0
 10
34.91822819030006
 20
32.49692461400002
 30
0.0
 10
34.77113463880005
 20
32.78118491699999
 30
0.0
  0
SPLINE
  5
8815B
330
1F
100
AcDbEntity
  8
1
100
AcDbSpline
210
0.0
220
0.0
230
1.0
 70
     8
 71
     3
 72
     9
 73
     5
 74
     0
 42
0.000000001
 43
0.0000000001
 40
0.0
 40
0.0
 40
0.0
 40
0.0
 40
0.2487552648
 40
1.0
 40
1.0
 40
1.0
 40
1.0
 10
36.63709952700003
 20
29.14278805290002
 30
0.0
 10
36.53225919980002
 20
29.34647881420005
 30
0.0
 10
36.11029935320004
 20
30.165061393
 30
0.0
 10
35.68636443590003
 20
30.98262518620004
 30
0.0
 10
35.36701733329993
 20
31.59636280340001
 30
0.0
  0
SPLINE
  5
8815C
330
1F
100
AcDbEntity
  8
1
100
AcDbSpline
210
0.0
220
0.0
230
1.0
 70
     8
 71
     3
 72
     9
 73
     5
 74
     0
 42
0.000000001
 43
0.0000000001
 40
0.0
 40
0.0
 40
0.0
 40
0.0
 40
0.4993535376
 40
1.0
 40
1.0
 40
1.0
 40
1.0
 10
42.23467252750004
 20
37.7693091372
 30
0.0
 10
42.10751714750005
 20
37.7693082008
 30
0.0
 10
41.85172100880004
 20
37.73840591920001
 30
0.0
 10
41.61224716799995
 20
37.64250234199997
 30
0.0
 10
41.50101659569997
 20
37.58021200850001
 30
0.0
  0
SPLINE
  5
8815D
330
1F
100
AcDbEntity
  8
1
100
AcDbSpline
210
0.0
220
0.0
230
1.0
 70
     8
 71
     3
 72
     8
 73
     4
 74
     0
 42
0.000000001
 43
0.0000000001
 40
0.0
 40
0.0
 40
0.0
 40
0.0
 40
1.0
 40
1.0
 40
1.0
 40
1.0
 10
35.34371875500005
 20
31.64259391870002
 30
0.0
 10
35.35128752560002
 20
31.62708563000004
 30
0.0
 10
35.35905191669997
 20
31.61167114910006
 30
0.0
 10
35.36701733329993
 20
31.59636280340001
 30
0.0
  0
SPLINE
  5
8815E
330
1F
100
AcDbEntity
  8
1
100
AcDbSpline
210
0.0
220
0.0
230
1.0
 70
     8
 71
     3
 72
     8
 73
     4
 74
     0
 42
0.000000001
 43
0.0000000001
 40
0.0
 40
0.0
 40
0.0
 40
0.0
 40
1.0
 40
1.0
 40
1.0
 40
1.0
 10
36.13433133040008
 20
34.487366326
 30
0.0
 10
36.14880526950003
 20
34.49624049949998
 30
0.0
 10
36.16339760619997
 20
34.50492445300003
 30
0.0
 10
36.1781018864
 20
34.51341150239997
 30
0.0
  0
SPLINE
  5
8815F
330
1F
100
AcDbEntity
  8
1
100
AcDbSpline
210
0.0
220
0.0
230
1.0
 70
     8
 71
     3
 72
    23
 73
    19
 74
     0
 42
0.000000001
 43
0.0000000001
 40
0.0
 40
0.0
 40
0.0
 40
0.0
 40
0.0185639166
 40
0.0299397819
 40
0.0429737577
 40
0.0578267521
 40
0.0746273637
 40
0.093474378
 40
0.1144371655
 40
0.1628265043
 40
0.2197194147
 40
0.2844888932
 40
0.3560157642
 40
0.4328332231
 40
0.5133281103
 40
0.6792427665
 40
0.8436399831999999
 40
1.0
 40
1.0
 40
1.0
 40
1.0
 10
49.01307488680004
 20
22.11692572040002
 30
0.0
 10
49.01307488680004
 20
22.16418052010005
 30
0.0
 10
48.99724164860003
 20
22.24034802629998
 30
0.0
 10
48.95706866960007
 20
22.34204313090001
 30
0.0
 10
48.91129100069997
 20
22.43111015489998
 30
0.0
 10
48.8513603322
 20
22.52788324460002
 30
0.0
 10
48.77668510860008
 20
22.6326188116
 30
0.0
 10
48.68681470670003
 20
22.74533546820001
 30
0.0
 10
48.5390223961
 20
22.91442558720001
 30
0.0
 10
48.31338543760001
 20
23.14362598660006
 30
0.0
 10
47.99286541979995
 20
23.43478677109999
 30
0.0
 10
47.61458145410006
 20
23.74921862109997
 30
0.0
 10
47.18524169149996
 20
24.08096790019996
 30
0.0
 10
46.71381617760005
 20
24.42326918340007
 30
0.0
 10
46.03573016040002
 20
24.88940642020003
 30
0.0
 10
45.15397262179999
 20
25.45220135219998
 30
0.0
 10
44.085091486
 20
26.07893011889999
 30
0.0
 10
43.36657709569999
 20
26.46715651160003
 30
0.0
 10
43.01307488680004
 20
26.65006090080004
 30
0.0
  0
SPLINE
  5
88160
330
1F
100
AcDbEntity
  8
1
100
AcDbSpline
210
0.0
220
0.0
230
1.0
 70
     8
 71
     3
 72
     9
 73
     5
 74
     0
 42
0.000000001
 43
0.0000000001
 40
0.0
 40
0.0
 40
0.0
 40
0.0
 40
0.2385922423
 40
1.0
 40
1.0
 40
1.0
 40
1.0
 10
34.7091099447
 20
34.78021348530004
 30
0.0
 10
34.74245560669999
 20
34.78499211639999
 30
0.0
 10
34.88258575590009
 20
34.80230724930001
 30
0.0
 10
35.02417579660005
 20
34.80816703330004
 30
0.0
 10
35.13164760070004
 20
34.80563947369998
 30
0.0
  0
SPLINE
  5
88161
330
1F
100
AcDbEntity
  8
1
100
AcDbSpline
210
0.0
220
0.0
230
1.0
 70
     8
 71
     3
 72
    26
 73
    22
 74
     0
 42
0.000000001
 43
0.0000000001
 40
0.0
 40
0.0
 40
0.0
 40
0.0
 40
0.2186876504
 40
0.4153584338
 40
0.5045481259000001
 40
0.5872013217000001
 40
0.6630142457
 40
0.7317057428
 40
0.79301876
 40
0.8467218856
 40
0.8926110463
 40
0.9305111429
 40
0.9464191229999999
 40
0.9602782116
 40
0.9720760144999999
 40
0.9818015778999999
 40
0.9894481710999999
 40
0.9950123851
 40
0.9985016169999999
 40
0.9994834760999999
 40
1.0
 40
1.0
 40
1.0
 40
1.0
 10
36.95380432709999
 20
37.16683255210003
 30
0.0
 10
36.8678596374001
 20
37.16964976360001
 30
0.0
 10
36.70464420750011
 20
37.1756765369
 30
0.0
 10
36.50644990350008
 20
37.18464888680003
 30
0.0
 10
36.36173769710001
 20
37.19211669070003
 30
0.0
 10
36.26450667460006
 20
37.19753351199997
 30
0.0
 10
36.17534468099997
 20
37.20287104640002
 30
0.0
 10
36.09458030740007
 20
37.20805189320001
 30
0.0
 10
36.02251361269998
 20
37.21300228559997
 30
0.0
 10
35.95941435099997
 20
37.21765228260003
 30
0.0
 10
35.90552035500002
 20
37.22193875590003
 30
0.0
 10
35.86646440510004
 20
37.22532696990001
 30
0.0
 10
35.83997533450008
 20
37.22784080600002
 30
0.0
 10
35.82371565100004
 20
37.22949123410004
 30
0.0
 10
35.80988375020002
 20
37.23101264109997
 30
0.0
 10
35.79850407490005
 20
37.2324012064
 30
0.0
 10
35.78955398200003
 20
37.23364310870002
 30
0.0
 10
35.78311637490003
 20
37.23474127310004
 30
0.0
 10
35.77919233279999
 20
37.23559235680006
 30
0.0
 10
35.77741118400002
 20
37.23626331919999
 30
0.0
 10
35.77685393190007
 20
37.23660677620003
 30
0.0
 10
35.77678597030001
 20
37.23679817230004
 30
0.0
  0
SPLINE
  5
88162
330
1F
100
AcDbEntity
  8
1
100
AcDbSpline
210
0.0
220
0.0
230
1.0
 70
     8
 71
     3
 72
    14
 73
    10
 74
     0
 42
0.000000001
 43
0.0000000001
 40
0.0
 40
0.0
 40
0.0
 40
0.0
 40
0.0621779964
 40
0.1411830409
 40
0.238633329
 40
0.3551359225
 40
0.4905334890999999
 40
0.6440525171
 40
1.0
 40
1.0
 40
1.0
 40
1.0
 10
38.51297464419996
 20
36.93712650440003
 30
0.0
 10
38.48580719390009
 20
36.95570228450001
 30
0.0
 10
38.41865605700002
 20
36.98975751090003
 30
0.0
 10
38.29872050680001
 20
37.02997542080004
 30
0.0
 10
38.1475017721
 20
37.06511303459999
 30
0.0
 10
37.96496311200008
 20
37.09513241470001
 30
0.0
 10
37.75178108240004
 20
37.12016835750006
 30
0.0
 10
37.41159224850004
 20
37.1485357462
 30
0.0
 10
37.14210691320011
 20
37.16066002229999
 30
0.0
 10
36.95380432709999
 20
37.16683255210003
 30
0.0
  0
SPLINE
  5
88163
330
1F
100
AcDbEntity
  8
1
100
AcDbSpline
210
0.0
220
0.0
230
1.0
 70
     8
 71
     3
 72
     9
 73
     5
 74
     0
 42
0.000000001
 43
0.0000000001
 40
0.0
 40
0.0
 40
0.0
 40
0.0
 40
0.2594899379
 40
1.0
 40
1.0
 40
1.0
 40
1.0
 10
38.64254005999999
 20
36.84754838310005
 30
0.0
 10
38.63135837330003
 20
36.85533307010003
 30
0.0
 10
38.58825528780005
 20
36.88531557269997
 30
0.0
 10
38.54507019560003
 20
36.91518112880004
 30
0.0
 10
38.51297464419996
 20
36.93712650440003
 30
0.0
  0
SPLINE
  5
88164
330
1F
100
AcDbEntity
  8
1
100
AcDbSpline
210
0.0
220
0.0
230
1.0
 70
     8
 71
     3
 72
     9
 73
     5
 74
     0
 42
0.000000001
 43
0.0000000001
 40
0.0
 40
0.0
 40
0.0
 40
0.0
 40
0.2460368955
 40
1.0
 40
1.0
 40
1.0
 40
1.0
 10
39.27382338410007
 20
28.38895940550003
 30
0.0
 10
39.05366538960004
 20
28.46814351880002
 30
0.0
 10
38.15347279210005
 20
28.7747921726
 30
0.0
 10
37.23198008070006
 20
29.01927151370003
 30
0.0
 10
36.53010944640005
 20
29.1656390716
 30
0.0
  0
SPLINE
  5
88165
330
1F
100
AcDbEntity
  8
1
100
AcDbSpline
210
0.0
220
0.0
230
1.0
 70
     8
 71
     3
 72
    19
 73
    15
 74
     0
 42
0.000000001
 43
0.0000000001
 40
0.0
 40
0.0
 40
0.0
 40
0.0
 40
0.162534321
 40
0.3187440294
 40
0.4663860872
 40
0.6032301928
 40
0.6669073069
 40
0.7270293459000003
 40
0.7833055078
 40
0.835465508
 40
0.8832799148999999
 40
0.9265933676999999
 40
0.9654136323999999
 40
1.0
 40
1.0
 40
1.0
 40
1.0
 10
25.4360378312
 20
30.94378547720004
 30
0.0
 10
25.22655498780011
 20
30.76995927070001
 30
0.0
 10
24.80620259119997
 20
30.44034481680006
 30
0.0
 10
24.16352291370003
 20
29.99554131980005
 30
0.0
 10
23.52998541839998
 20
29.61580270900004
 30
0.0
 10
23.00835407049999
 20
29.35357916840004
 30
0.0
 10
22.60569410730011
 20
29.18461850849999
 30
0.0
 10
22.321946916
 20
29.08199815380001
 30
0.0
 10
22.05123944800005
 20
29.00130918960002
 30
0.0
 10
21.79579733920002
 20
28.94343161750001
 30
0.0
 10
21.55797651500007
 20
28.90914992000003
 30
0.0
 10
21.34011014810005
 20
28.89935359170002
 30
0.0
 10
21.14467055080002
 20
28.91463991740002
 30
0.0
 10
21.0243847296
 20
28.94385385410001
 30
0.0
 10
20.96991947139998
 20
28.96357246800005
 30
0.0
  0
SPLINE
  5
88166
330
1F
100
AcDbEntity
  8
1
100
AcDbSpline
210
0.0
220
0.0
230
1.0
 70
     8
 71
     3
 72
     8
 73
     4
 74
     0
 42
0.000000001
 43
0.0000000001
 40
0.0
 40
0.0
 40
0.0
 40
0.0
 40
1.0
 40
1.0
 40
1.0
 40
1.0
 10
35.16538596250008
 20
35.02241679100001
 30
0.0
 10
35.146333067
 20
35.01536034700001
 30
0.0
 10
35.12740245740008
 20
35.00796462600002
 30
0.0
 10
35.10861111290012
 20
35.00023859210003
 30
0.0
  0
SPLINE
  5
88167
330
1F
100
AcDbEntity
  8
1
100
AcDbSpline
210
0.0
220
0.0
230
1.0
 70
     8
 71
     3
 72
     9
 73
     5
 74
     0
 42
0.000000001
 43
0.0000000001
 40
0.0
 40
0.0
 40
0.0
 40
0.0
 40
0.5510323238
 40
1.0
 40
1.0
 40
1.0
 40
1.0
 10
27.31204344090008
 20
31.06325427900003
 30
0.0
 10
27.05726923079999
 20
31.11494056130005
 30
0.0
 10
26.59290648450008
 20
31.19920385709998
 30
0.0
 10
26.12520915410005
 20
31.26265640900005
 30
0.0
 10
25.91459823449998
 20
31.28518543140004
 30
0.0
  0
SPLINE
  5
88168
330
1F
100
AcDbEntity
  8
1
100
AcDbSpline
210
0.0
220
0.0
230
1.0
 70
     8
 71
     3
 72
     9
 73
     5
 74
     0
 42
0.000000001
 43
0.0000000001
 40
0.0
 40
0.0
 40
0.0
 40
0.0
 40
0.2515005037
 40
1.0
 40
1.0
 40
1.0
 40
1.0
 10
25.91459823449998
 20
31.28518543140004
 30
0.0
 10
25.87248169099996
 20
31.25954695640004
 30
0.0
 10
25.70691259570003
 20
31.1545293847
 30
0.0
 10
25.5489655573
 20
31.03749147199997
 30
0.0
 10
25.4360378312
 20
30.94378547720004
 30
0.0
  0
SPLINE
  5
88169
330
1F
100
AcDbEntity
  8
1
100
AcDbSpline
210
0.0
220
0.0
230
1.0
 70
     8
 71
     3
 72
    18
 73
    14
 74
     0
 42
0.000000001
 43
0.0000000001
 40
0.0
 40
0.0
 40
0.0
 40
0.0
 40
0.0152040866
 40
0.0392918303
 40
0.0719703824
 40
0.112842547
 40
0.1614173177
 40
0.2171201821
 40
0.3472560555
 40
0.4973749058
 40
0.6609039844
 40
0.8308432248999999
 40
1.0
 40
1.0
 40
1.0
 40
1.0
 10
35.79857592730002
 20
37.23888239689998
 30
0.0
 10
35.81618939970008
 20
37.2391899623
 30
0.0
 10
35.86172194619996
 20
37.23859719690003
 30
0.0
 10
35.94508220670002
 20
37.23664513320003
 30
0.0
 10
36.05816311529998
 20
37.23327088400001
 30
0.0
 10
36.19959349680005
 20
37.22885827340005
 30
0.0
 10
36.36769216230005
 20
37.22370328809998
 30
0.0
 10
36.63918449740004
 20
37.21597277460003
 30
0.0
 10
37.0283414086
 20
37.20697313990001
 30
0.0
 10
37.54249661339998
 20
37.20024720650002
 30
0.0
 10
38.10281837529999
 20
37.19967229630001
 30
0.0
 10
38.68515687470006
 20
37.2067707441
 30
0.0
 10
39.07793322750001
 20
37.21687247719998
 30
0.0
 10
39.27382338410007
 20
37.22321656049999
 30
0.0
  0
LINE
  5
8816A
330
1F
100
AcDbEntity
  8
1
100
AcDbLine
 10
39.32618060340008
 20
28.36995640850006
 30
0.0
 11
39.27382338410007
 21
28.38895940550003
 31
0.0
  0
LINE
  5
8816B
330
1F
100
AcDbEntity
  8
1
100
AcDbLine
 10
39.27382338410007
 20
37.22321656049999
 30
0.0
 11
39.32618060340008
 21
37.22449593079998
 31
0.0
  0
SPLINE
  5
8816C
330
1F
100
AcDbEntity
  8
1
100
AcDbSpline
210
0.0
220
0.0
230
1.0
 70
     8
 71
     3
 72
     9
 73
     5
 74
     0
 42
0.000000001
 43
0.0000000001
 40
0.0
 40
0.0
 40
0.0
 40
0.0
 40
0.2469982329
 40
1.0
 40
1.0
 40
1.0
 40
1.0
 10
41.62361797250002
 20
27.3655408068
 30
0.0
 10
41.43982842000002
 20
27.4597172432
 30
0.0
 10
40.68995494559999
 20
27.8296125013
 30
0.0
 10
39.91735971210005
 20
28.15344449230003
 30
0.0
 10
39.32618060340008
 20
28.36995640850006
 30
0.0
  0
SPLINE
  5
8816D
330
1F
100
AcDbEntity
  8
1
100
AcDbSpline
210
0.0
220
0.0
230
1.0
 70
     8
 71
     3
 72
     9
 73
     5
 74
     0
 42
0.000000001
 43
0.0000000001
 40
0.0
 40
0.0
 40
0.0
 40
0.0
 40
0.2606030761
 40
1.0
 40
1.0
 40
1.0
 40
1.0
 10
39.32618060340008
 20
37.22449593079998
 30
0.0
 10
39.39184700160001
 20
37.2255784781
 30
0.0
 10
39.64381619059998
 20
37.2302921472
 30
0.0
 10
39.89574448190001
 20
37.23714018120003
 30
0.0
 10
40.08198014510003
 20
37.24330038169997
 30
0.0
  0
LINE
  5
8816E
330
1F
100
AcDbEntity
  8
1
100
AcDbLine
 10
40.08198014510003
 20
37.24330038169997
 30
0.0
 11
40.23527616540002
 21
37.24838045600004
 31
0.0
  0
LINE
  5
8816F
330
1F
100
AcDbEntity
  8
1
100
AcDbLine
 10
40.23527616540002
 20
37.24838045600004
 30
0.0
 11
40.33112002960002
 21
37.24812081219997
 31
0.0
  0
SPLINE
  5
88170
330
1F
100
AcDbEntity
  8
1
100
AcDbSpline
210
0.0
220
0.0
230
1.0
 70
     8
 71
     3
 72
    21
 73
    17
 74
     0
 42
0.000000001
 43
0.0000000001
 40
0.0
 40
0.0
 40
0.0
 40
0.0
 40
0.0617225681
 40
0.1235142337
 40
0.1854251221
 40
0.2474933096
 40
0.3097445347
 40
0.372188157
 40
0.4348182185000001
 40
0.4976146646000001
 40
0.6232486398
 40
0.7490225215000002
 40
0.8119853942
 40
0.8748265278999999
 40
0.9375070352999999
 40
1.0
 40
1.0
 40
1.0
 40
1.0
 10
34.95710587020005
 20
31.30406334660003
 30
0.0
 10
34.87119605470002
 20
31.34549500059998
 30
0.0
 10
34.70526551650005
 20
31.44150618270001
 30
0.0
 10
34.4804781009001
 20
31.62080089719998
 30
0.0
 10
34.28417899440001
 20
31.83170532300002
 30
0.0
 10
34.1203708319
 20
32.06954441060003
 30
0.0
 10
33.99226414630005
 20
32.3292796938
 30
0.0
 10
33.90245191550003
 20
32.60549209680002
 30
0.0
 10
33.85256342190007
 20
32.89251561500001
 30
0.0
 10
33.8406514815
 20
33.28137567230001
 30
0.0
 10
33.92892011729998
 20
33.76578418550002
 30
0.0
 10
34.14881311780006
 20
34.20673115719998
 30
0.0
 10
34.39256415680006
 20
34.51100361349998
 30
0.0
 10
34.60598534910003
 20
34.71075808660005
 30
0.0
 10
34.84527810919997
 20
34.87722710480006
 30
0.0
 10
35.01921394800002
 20
34.96371825899999
 30
0.0
 10
35.10861111290012
 20
35.00023859210003
 30
0.0
  0
SPLINE
  5
88171
330
1F
100
AcDbEntity
  8
1
100
AcDbSpline
210
0.0
220
0.0
230
1.0
 70
     8
 71
     3
 72
     9
 73
     5
 74
     0
 42
0.000000001
 43
0.0000000001
 40
0.0
 40
0.0
 40
0.0
 40
0.0
 40
0.2558746683
 40
1.0
 40
1.0
 40
1.0
 40
1.0
 10
35.13164760070004
 20
34.80563947369998
 30
0.0
 10
35.15604772580001
 20
34.80506562299999
 30
0.0
 10
35.25137683430001
 20
34.8016457098
 30
0.0
 10
35.34653696769999
 20
34.7936803968
 30
0.0
 10
35.41702204450007
 20
34.7853199729
 30
0.0
  0
SPLINE
  5
88172
330
1F
100
AcDbEntity
  8
1
100
AcDbSpline
210
0.0
220
0.0
230
1.0
 70
     8
 71
     3
 72
     9
 73
     5
 74
     0
 42
0.000000001
 43
0.0000000001
 40
0.0
 40
0.0
 40
0.0
 40
0.0
 40
0.2536272765
 40
1.0
 40
1.0
 40
1.0
 40
1.0
 10
34.56856831929997
 20
34.67038961500004
 30
0.0
 10
34.60736757490008
 20
34.67294067899999
 30
0.0
 10
34.76052592079998
 20
34.68004027730004
 30
0.0
 10
34.91421641190004
 20
34.67553875260006
 30
0.0
 10
35.0282180122
 20
34.66570739980006
 30
0.0
  0
SPLINE
  5
88173
330
1F
100
AcDbEntity
  8
1
100
AcDbSpline
210
0.0
220
0.0
230
1.0
 70
     8
 71
     3
 72
     9
 73
     5
 74
     0
 42
0.000000001
 43
0.0000000001
 40
0.0
 40
0.0
 40
0.0
 40
0.0
 40
0.2496181561
 40
1.0
 40
1.0
 40
1.0
 40
1.0
 10
35.03528135609997
 20
31.15696329620002
 30
0.0
 10
35.0499391349
 20
31.15191332110001
 30
0.0
 10
35.10891427349998
 20
31.13242853490004
 30
0.0
 10
35.16888211930008
 20
31.11594740800004
 30
0.0
 10
35.21426076450007
 20
31.10532732320007
 30
0.0
  0
SPLINE
  5
88174
330
1F
100
AcDbEntity
  8
1
100
AcDbSpline
210
0.0
220
0.0
230
1.0
 70
     8
 71
     3
 72
     9
 73
     5
 74
     0
 42
0.000000001
 43
0.0000000001
 40
0.0
 40
0.0
 40
0.0
 40
0.0
 40
0.5435085839
 40
1.0
 40
1.0
 40
1.0
 40
1.0
 10
39.00544450220002
 20
36.19319790470001
 30
0.0
 10
38.99384287780004
 20
36.21455449770002
 30
0.0
 10
38.97373192940006
 20
36.2545385534
 30
0.0
 10
38.95683376960004
 20
36.29602058320003
 30
0.0
 10
38.95021530530005
 20
36.31533102649999
 30
0.0
  0
SPLINE
  5
88175
330
1F
100
AcDbEntity
  8
1
100
AcDbSpline
210
0.0
220
0.0
230
1.0
 70
     8
 71
     3
 72
     9
 73
     5
 74
     0
 42
0.000000001
 43
0.0000000001
 40
0.0
 40
0.0
 40
0.0
 40
0.0
 40
0.2475436299
 40
1.0
 40
1.0
 40
1.0
 40
1.0
 10
38.95021530530005
 20
36.31533102649999
 30
0.0
 10
38.92063418240002
 20
36.35659418420005
 30
0.0
 10
38.80520943400006
 20
36.52617092570003
 30
0.0
 10
38.70649145990001
 20
36.70709419280001
 30
0.0
 10
38.64254005999999
 20
36.84754838310005
 30
0.0
  0
SPLINE
  5
88176
330
1F
100
AcDbEntity
  8
1
100
AcDbSpline
210
0.0
220
0.0
230
1.0
 70
     8
 71
     3
 72
     8
 73
     4
 74
     0
 42
0.000000001
 43
0.0000000001
 40
0.0
 40
0.0
 40
0.0
 40
0.0
 40
1.0
 40
1.0
 40
1.0
 40
1.0
 10
35.18511527610008
 20
34.80420723730003
 30
0.0
 10
35.13216454860003
 20
34.75878949660003
 30
0.0
 10
35.07984133780008
 20
34.7126284288
 30
0.0
 10
35.0282180122
 20
34.66570739980006
 30
0.0
  0
LINE
  5
88177
330
1F
100
AcDbEntity
  8
1
100
AcDbLine
 10
40.23527616540002
 20
37.24838045600004
 30
0.0
 11
40.25494333290009
 21
37.20707322530007
 31
0.0
  0
SPLINE
  5
88178
330
1F
100
AcDbEntity
  8
1
100
AcDbSpline
210
0.0
220
0.0
230
1.0
 70
     8
 71
     3
 72
     9
 73
     5
 74
     0
 42
0.000000001
 43
0.0000000001
 40
0.0
 40
0.0
 40
0.0
 40
0.0
 40
0.2510396219
 40
1.0
 40
1.0
 40
1.0
 40
1.0
 10
40.08198283759996
 20
37.24329856400004
 30
0.0
 10
40.07821853450002
 20
37.23025537210003
 30
0.0
 10
40.06301302860004
 20
37.17835971100001
 30
0.0
 10
40.04696457149997
 20
37.12671087789999
 30
0.0
 10
40.03446668269996
 20
37.08818569510001
 30
0.0
  0
SPLINE
  5
88179
330
1F
100
AcDbEntity
  8
1
100
AcDbSpline
210
0.0
220
0.0
230
1.0
 70
     8
 71
     3
 72
     8
 73
     4
 74
     0
 42
0.000000001
 43
0.0000000001
 40
0.0
 40
0.0
 40
0.0
 40
0.0
 40
1.0
 40
1.0
 40
1.0
 40
1.0
 10
23.55856018869997
 20
33.41986964510002
 30
0.0
 10
24.18330630050002
 20
33.98689293949999
 30
0.0
 10
24.80918129589998
 20
34.55267431830004
 30
0.0
 10
25.4360378312
 20
35.11736361759998
 30
0.0
  0
SPLINE
  5
8817A
330
1F
100
AcDbEntity
  8
1
100
AcDbSpline
210
0.0
220
0.0
230
1.0
 70
     8
 71
     3
 72
    11
 73
     7
 74
     0
 42
0.000000001
 43
0.0000000001
 40
0.0
 40
0.0
 40
0.0
 40
0.0
 40
0.0621192646
 40
0.2458990964
 40
0.5583370382
 40
1.0
 40
1.0
 40
1.0
 40
1.0
 10
35.77678597030001
 20
37.23679817230004
 30
0.0
 10
35.77663293590001
 20
37.23722915340002
 30
0.0
 10
35.7793564576001
 20
37.23797467310004
 30
0.0
 10
35.78250723580004
 20
37.23821450599999
 30
0.0
 10
35.78995889810006
 20
37.23873391090004
 30
0.0
 10
35.7953247383
 20
37.2388256248
 30
0.0
 10
35.79857592730002
 20
37.23888239689998
 30
0.0
  0
SPLINE
  5
8817B
330
1F
100
AcDbEntity
  8
1
100
AcDbSpline
210
0.0
220
0.0
230
1.0
 70
     8
 71
     3
 72
     9
 73
     5
 74
     0
 42
0.000000001
 43
0.0000000001
 40
0.0
 40
0.0
 40
0.0
 40
0.0
 40
0.2689465827
 40
1.0
 40
1.0
 40
1.0
 40
1.0
 10
35.0282180122
 20
34.66570739980006
 30
0.0
 10
34.99362919220005
 20
34.6750110815
 30
0.0
 10
34.86400065270004
 20
34.70569556260003
 30
0.0
 10
34.73077946110004
 20
34.72118880960002
 30
0.0
 10
34.63344736730005
 20
34.72358006670001
 30
0.0
  0
SPLINE
  5
8817C
330
1F
100
AcDbEntity
  8
1
100
AcDbSpline
210
0.0
220
0.0
230
1.0
 70
     8
 71
     3
 72
     9
 73
     5
 74
     0
 42
0.000000001
 43
0.0000000001
 40
0.0
 40
0.0
 40
0.0
 40
0.0
 40
0.2546722461
 40
1.0
 40
1.0
 40
1.0
 40
1.0
 10
34.05085127650011
 20
33.77841179150002
 30
0.0
 10
34.04523829440007
 20
33.78377649130002
 30
0.0
 10
34.0233031061
 20
33.80495087609998
 30
0.0
 10
34.00179439570003
 20
33.82656817559999
 30
0.0
 10
33.98604064390009
 20
33.84294407120004
 30
0.0
  0
SPLINE
  5
8817D
330
1F
100
AcDbEntity
  8
1
100
AcDbSpline
210
0.0
220
0.0
230
1.0
 70
     8
 71
     3
 72
    11
 73
     7
 74
     0
 42
0.000000001
 43
0.0000000001
 40
0.0
 40
0.0
 40
0.0
 40
0.0
 40
0.2488769283
 40
0.4975329244
 40
0.7474298843000004
 40
1.0
 40
1.0
 40
1.0
 40
1.0
 10
36.18886195870004
 20
35.07117344489998
 30
0.0
 10
36.10545307310008
 20
35.09321311570005
 30
0.0
 10
35.93511914900012
 20
35.12480766180002
 30
0.0
 10
35.67517113450004
 20
35.13290225040004
 30
0.0
 10
35.41577261240002
 20
35.10082730120001
 30
0.0
 10
35.24748783310008
 20
35.05282409830002
 30
0.0
 10
35.16538596250008
 20
35.02241679100001
 30
0.0
  0
SPLINE
  5
8817E
330
1F
100
AcDbEntity
  8
1
100
AcDbSpline
210
0.0
220
0.0
230
1.0
 70
     8
 71
     3
 72
    11
 73
     7
 74
     0
 42
0.000000001
 43
0.0000000001
 40
0.0
 40
0.0
 40
0.0
 40
0.0
 40
0.2512857035
 40
0.5017493982
 40
0.7513145224
 40
1.0
 40
1.0
 40
1.0
 40
1.0
 10
25.4360378312
 20
35.11736361759998
 30
0.0
 10
25.56526093250011
 20
35.23377127770004
 30
0.0
 10
25.84261202200003
 20
35.44574798860001
 30
0.0
 10
26.30375125670003
 20
35.69099070320004
 30
0.0
 10
26.79746607630011
 20
35.85599671790004
 30
0.0
 10
27.14029324810008
 20
35.90873074110005
 30
0.0
 10
27.31204344090008
 20
35.92006395600001
 30
0.0
  0
SPLINE
  5
8817F
330
1F
100
AcDbEntity
  8
1
100
AcDbSpline
210
0.0
220
0.0
230
1.0
 70
     8
 71
     3
 72
     9
 73
     5
 74
     0
 42
0.000000001
 43
0.0000000001
 40
0.0
 40
0.0
 40
0.0
 40
0.0
 40
0.2662662114
 40
1.0
 40
1.0
 40
1.0
 40
1.0
 10
34.52838025810001
 20
34.07023686430003
 30
0.0
 10
34.49881291400004
 20
34.0864291604
 30
0.0
 10
34.3870870774
 20
34.14596448000003
 30
0.0
 10
34.27250099829996
 20
34.20031612480002
 30
0.0
 10
34.18658915010008
 20
34.23565172649998
 30
0.0
  0
SPLINE
  5
88180
330
1F
100
AcDbEntity
  8
1
100
AcDbSpline
210
0.0
220
0.0
230
1.0
 70
     8
 71
     3
 72
    24
 73
    20
 74
     0
 42
0.000000001
 43
0.0000000001
 40
0.0
 40
0.0
 40
0.0
 40
0.0
 40
0.0334732551
 40
0.0491395229
 40
0.0645657499
 40
0.0801880825
 40
0.0964387391
 40
0.1137008944
 40
0.1322778113
 40
0.1741439913
 40
0.2230474102
 40
0.2790778065
 40
0.3418311149
 40
0.4106573809000003
 40
0.4847919835
 40
0.563462759
 40
0.6459134300000004
 40
0.8193638661999999
 40
1.0
 40
1.0
 40
1.0
 40
1.0
 10
20.96991947139998
 20
28.96357246800005
 30
0.0
 10
20.91010078090005
 20
28.98522923970001
 30
0.0
 10
20.82509546209997
 20
29.02827015290002
 30
0.0
 10
20.73306586620004
 20
29.11026981680001
 30
0.0
 10
20.67816736650002
 20
29.18070101150002
 30
0.0
 10
20.63657015230001
 20
29.26094237870004
 30
0.0
 10
20.60860138880002
 20
29.35050017969999
 30
0.0
 10
20.59432747239998
 20
29.44883242590004
 30
0.0
 10
20.59336316790007
 20
29.5969007285
 30
0.0
 10
20.62963200030003
 20
29.80312461300002
 30
0.0
 10
20.72194370529996
 20
30.06718664500002
 30
0.0
 10
20.86150589860006
 20
30.35432001490006
 30
0.0
 10
21.04447236559997
 20
30.66072969719997
 30
0.0
 10
21.26657877210005
 20
30.98275510430005
 30
0.0
 10
21.52326433400003
 20
31.31691996050003
 30
0.0
 10
21.81009237910007
 20
31.66005284830001
 30
0.0
 10
22.23430153640004
 20
32.13387687190004
 30
0.0
 10
22.814083267
 20
32.72787239829998
 30
0.0
 10
23.30434210470014
 20
33.18913979690004
 30
0.0
 10
23.55856018869997
 20
33.41986964510002
 30
0.0
  0
ELLIPSE
  5
88181
330
1F
100
AcDbEntity
  8
1
100
AcDbEllipse
 10
159.6838806112999
 20
-2.865729285199988
 30
0.0
 11
165.1342124027
 21
-39.1960864536
 31
0.0
210
0.0
220
0.0
230
1.0
 40
0.0242481797
 41
2.418237955399999
 42
2.506498782699984
  0
ELLIPSE
  5
88182
330
1F
100
AcDbEntity
  8
1
100
AcDbEllipse
 10
77.35981943980005
 20
-0.0000000011000054
 30
0.0
 11
60.9354843464
 21
-36.910461478
 31
0.0
210
0.0
220
0.0
230
1.0
 40
0.0882343122
 41
2.222026597700001
 42
2.249841133600008
  0
ELLIPSE
  5
88183
330
1F
100
AcDbEntity
  8
1
100
AcDbEllipse
 10
47.38644871999997
 20
0.0551335724000239
 30
0.0
 11
64.8319285069
 21
2.7284554872
 31
0.0
210
0.0
220
0.0
230
1.0
 40
0.5757114083000002
 41
1.681814958199998
 42
1.739102756999998
  0
ELLIPSE
  5
88184
330
1F
100
AcDbEntity
  8
1
100
AcDbEllipse
 10
77.68377191349998
 20
0.293504947300022
 30
0.0
 11
198.5157751405005
 21
3.336275950900007
 31
0.0
210
0.0
220
0.0
230
1.0
 40
0.1897341249
 41
1.784428477199999
 42
1.824152909799997
  0
ELLIPSE
  5
88185
330
1F
100
AcDbEntity
  8
1
100
AcDbEllipse
 10
38.77250257030005
 20
34.49035321670005
 30
0.0
 11
2.290270677599998
 21
-0.5191456327000004
 31
0.0
210
0.0
220
0.0
230
1.0
 40
0.0703275822
 41
3.236831654079566
 42
3.623163973979845
  0
ELLIPSE
  5
88186
330
1F
100
AcDbEntity
  8
1
100
AcDbEllipse
 10
30.71475951190008
 20
29.83400463430007
 30
0.0
 11
14.1804563124
 21
8.747853867099999
 31
0.0
210
0.0
220
0.0
230
1.0
 40
0.0916604116
 41
0.8957857475999968
 42
1.095628728600019
  0
LINE
  5
88187
330
1F
100
AcDbEntity
  8
sk3
100
AcDbLine
 10
14.00000000005639
 20
12.99999999890002
 30
0.0
 11
14.00000000005639
 21
-12.99999999890002
 31
0.0
  0
LINE
  5
88188
330
1F
100
AcDbEntity
  8
cut
100
AcDbLine
 10
35.01976038980001
 20
34.60933855689999
 30
0.0
 11
35.04219000470005
 21
34.6228251229
 31
0.0
  0
LINE
  5
88189
330
1F
100
AcDbEntity
  8
cut
100
AcDbLine
 10
35.04046713450009
 20
34.62185316879999
 30
0.0
 11
35.06150023609996
 21
34.63361344289999
 31
0.0
  0
LINE
  5
8818A
330
1F
100
AcDbEntity
  8
cut
100
AcDbLine
 10
41.20322816719999
 20
37.74040046849999
 30
0.0
 11
41.40828430689999
 21
37.8520670856
 31
0.0
  0
LINE
  5
8818B
330
1F
100
AcDbEntity
  8
cut
100
AcDbLine
 10
41.40828430689999
 20
37.8520670856
 30
0.0
 11
41.42535612790005
 21
37.86129468280001
 31
0.0
  0
LINE
  5
8818C
330
1F
100
AcDbEntity
  8
cut
100
AcDbLine
 10
35.06150021309998
 20
34.63361343049998
 30
0.0
 11
35.29216305969999
 21
34.75746963570002
 31
0.0
  0
LINE
  5
8818D
330
1F
100
AcDbEntity
  8
cut
100
AcDbLine
 10
41.13203854200003
 20
37.7021604942
 30
0.0
 11
41.20322816719999
 21
37.74040046849999
 31
0.0
  0
LINE
  5
8818E
330
1F
100
AcDbEntity
  8
cut
100
AcDbLine
 10
35.29216305969999
 20
34.75746963570002
 30
0.0
 11
35.527249869
 21
34.88255918050001
 31
0.0
  0
LINE
  5
8818F
330
1F
100
AcDbEntity
  8
cut
100
AcDbLine
 10
41.02767784640002
 20
37.64681525039998
 30
0.0
 11
41.13203854200003
 21
37.7021604942
 31
0.0
  0
LINE
  5
88190
330
1F
100
AcDbEntity
  8
cut
100
AcDbLine
 10
35.527249869
 20
34.88255918050001
 30
0.0
 11
35.76676139669996
 21
35.00887715959998
 31
0.0
  0
LINE
  5
88191
330
1F
100
AcDbEntity
  8
cut
100
AcDbLine
 10
35.76676139669996
 20
35.00887715959998
 30
0.0
 11
36.01070066509999
 21
35.13640395239999
 31
0.0
  0
LINE
  5
88192
330
1F
100
AcDbEntity
  8
cut
100
AcDbLine
 10
40.47697874059998
 20
37.35713775509998
 30
0.0
 11
41.02767784640002
 21
37.64681525039998
 31
0.0
  0
LWPOLYLINE
  5
88193
330
1F
100
AcDbEntity
  8
cut
100
AcDbPolyline
 90
        6
 70
     0
 43
0.0
 10
36.01070066509999
 20
35.13640395239999
 10
36.1415433272
 20
35.20433905089999
 10
36.14878909909999
 20
35.20802963220001
 10
36.15606782890007
 20
35.2116936242
 10
36.16337951649997
 20
35.2153310267
 10
36.17072416190001
 20
35.2189418399
  0
LINE
  5
88194
330
1F
100
AcDbEntity
  8
cut
100
AcDbLine
 10
40.14200331280004
 20
37.1838524818
 30
0.0
 11
40.47697874059998
 21
37.35713775509998
 31
0.0
  0
LINE
  5
88195
330
1F
100
AcDbEntity
  8
cut
100
AcDbLine
 10
39.91877627280008
 20
37.06993309769999
 30
0.0
 11
40.14200331280004
 21
37.1838524818
 31
0.0
  0
LINE
  5
88196
330
1F
100
AcDbEntity
  8
cut
100
AcDbLine
 10
39.26151431400001
 20
36.73892069660002
 30
0.0
 11
39.91877627280008
 21
37.06993309769999
 31
0.0
  0
LINE
  5
88197
330
1F
100
AcDbEntity
  8
cut
100
AcDbLine
 10
38.35946654960003
 20
36.28933794860001
 30
0.0
 11
39.26151431400001
 21
36.73892069660002
 31
0.0
  0
LINE
  5
88198
330
1F
100
AcDbEntity
  8
cut
100
AcDbLine
 10
37.39784950119997
 20
35.8156388628
 30
0.0
 11
38.35946654960003
 21
36.28933794860001
 31
0.0
  0
LINE
  5
88199
330
1F
100
AcDbEntity
  8
cut
100
AcDbLine
 10
36.60190985860004
 20
35.42766112089998
 30
0.0
 11
37.39784950119997
 21
35.8156388628
 31
0.0
  0
LINE
  5
8819A
330
1F
100
AcDbEntity
  8
cut
100
AcDbLine
 10
36.17072416190001
 20
35.2189418399
 30
0.0
 11
36.60190985860004
 21
35.42766112089998
 31
0.0
  0
LWPOLYLINE
  5
8819B
330
1F
100
AcDbEntity
  8
cut
100
AcDbPolyline
 90
        8
 70
     0
 43
0.0
 10
34.88507591869995
 20
34.50095069189999
 10
34.90340698720002
 20
34.51899973950001
 10
34.92152557170005
 20
34.53567501169999
 10
34.94019697989995
 20
34.5517367317
 10
34.95944731919997
 20
34.56717483759998
 10
34.97925048210004
 20
34.5819993913
 10
34.99938000200007
 20
34.59606960729999
 10
35.01976038980001
 20
34.60933855689999
  0
LWPOLYLINE
  5
8819C
330
1F
100
AcDbEntity
  8
cut
100
AcDbPolyline
 90
        8
 70
     0
 43
0.0
 10
34.90081420460001
 20
34.51654245270001
 10
34.9170213397
 20
34.53165033880001
 10
34.93368512669997
 20
34.5462635307
 10
34.95079651629999
 20
34.56037524710001
 10
34.96834143140006
 20
34.5739755141
 10
34.98628568369998
 20
34.58704158719999
 10
35.00459005710002
 20
34.5995475295
 10
35.02322379830002
 20
34.61147363510001
  0
LINE
  5
8819D
330
1F
100
AcDbEntity
  8
cut
100
AcDbLine
 10
34.85331795700006
 20
34.46633583500001
 30
0.0
 11
34.86983127099995
 21
34.4849020284
 31
0.0
  0
LINE
  5
8819E
330
1F
100
AcDbEntity
  8
cut
100
AcDbLine
 10
34.86930317989993
 20
34.48433015109998
 30
0.0
 11
34.88598937120003
 21
34.50188188660002
 31
0.0
  0
LINE
  5
8819F
330
1F
100
AcDbEntity
  8
cut
100
AcDbLine
 10
34.68866641839998
 20
34.11065053530001
 30
0.0
 11
34.69309461010005
 21
34.13588753079998
 31
0.0
  0
LINE
  5
881A0
330
1F
100
AcDbEntity
  8
cut
100
AcDbLine
 10
34.69283557849998
 20
34.1345490427
 30
0.0
 11
34.69777942530004
 21
34.1581046121
 31
0.0
  0
LWPOLYLINE
  5
881A1
330
1F
100
AcDbEntity
  8
cut
100
AcDbPolyline
 90
       16
 70
     0
 43
0.0
 10
34.69762051839996
 20
34.15739994379999
 10
34.70348706490006
 20
34.181346233
 10
34.7098742659
 20
34.2041490175
 10
34.71692148649993
 20
34.22644679960001
 10
34.7246482685
 20
34.2483057452
 10
34.73302900600004
 20
34.26979946419999
 10
34.74205457100004
 20
34.2909418568
 10
34.7517340915
 20
34.31171902279999
 10
34.76206934599999
 20
34.3321628715
 10
34.77305220029996
 20
34.3522783466
 10
34.78469078880005
 20
34.37206050429998
 10
34.79701129270007
 20
34.39152642240002
 10
34.80999716279996
 20
34.41067561430001
 10
34.82366494849998
 20
34.42950856660002
 10
34.83809047919999
 20
34.44804381630002
 10
34.85331795700006
 20
34.46633583500001
  0
LWPOLYLINE
  5
881A2
330
1F
100
AcDbEntity
  8
cut
100
AcDbPolyline
 90
       16
 70
     0
 43
0.0
 10
34.7027945886
 20
34.17873656890002
 10
34.70861035940004
 20
34.19986808869999
 10
34.71506973940007
 20
34.2207979536
 10
34.72217672940008
 20
34.24153780559999
 10
34.72993299880001
 20
34.26209186400001
 10
34.73833089109997
 20
34.28243465740003
 10
34.74736041800009
 20
34.30253329120001
 10
34.75701157820004
 20
34.32235699490002
 10
34.76727431639995
 20
34.3418834924
 10
34.77813856370005
 20
34.36109263150001
 10
34.78959232919998
 20
34.37996288790002
 10
34.80161593230003
 20
34.39846724980001
 10
34.81418777030001
 20
34.4165773334
 10
34.82729111189997
 20
34.43427102859999
 10
34.84092871250004
 20
34.4515513216
 10
34.85510819900003
 20
34.46842747209999
  0
LWPOLYLINE
  5
881A3
330
1F
100
AcDbEntity
  8
cut
100
AcDbPolyline
 90
       34
 70
     0
 43
0.0
 10
46.32552390590001
 20
22.54499540929999
 10
46.30292582770004
 20
22.53013050980002
 10
46.27981279080006
 20
22.51601412639999
 10
46.25618479499997
 20
22.50264625900002
 10
46.23199344350007
 20
22.49000038650001
 10
46.2072871332
 20
22.47810303009999
 10
46.18221105500004
 20
22.46703375339999
 10
46.15676994860007
 20
22.45680527459999
 10
46.13095907429999
 20
22.4474048756
 10
46.1049094036
 20
22.43887396549999
 10
46.0786630164
 20
22.4312250193
 10
46.05217783270004
 20
22.42444556210001
 10
46.02545858380006
 20
22.4185395776
 10
45.9984760213
 20
22.4134985128
 10
45.97125939349996
 20
22.4093309207
 10
45.94390117659997
 20
22.40606644390002
 10
45.91637763789992
 20
22.4037107277
 10
45.88871251009993
 20
22.40225812669999
 10
45.86106946770008
 20
22.40172134720001
 10
45.83347063689996
 20
22.40210994
 10
45.80589389140004
 20
22.4034143543
 10
45.77843652729995
 20
22.4056186434
 10
45.7511296834
 20
22.408718959
 10
45.723942221
 20
22.4127191494
 10
45.69687802029998
 20
22.41761481329999
 10
45.66989367810005
 20
22.4234141185
 10
45.64303259760004
 20
22.43010889710001
 10
45.61642886950003
 20
22.4376702447
 10
45.59007623050002
 20
22.44610759279999
 10
45.56398094379995
 20
22.45541150990002
 10
45.53829588990003
 20
22.4655247968
 10
45.51307202889995
 20
22.4764283874
 10
45.4882584006
 20
22.48814134790002
 10
45.46385500510007
 20
22.50066367829999
  0
LWPOLYLINE
  5
881A4
330
1F
100
AcDbEntity
  8
cut
100
AcDbPolyline
 90
        5
 70
     0
 43
0.0
 10
34.68418991830004
 20
33.9168006214
 10
34.68194459680002
 20
33.9406417285
 10
34.68049614450001
 20
33.96463458679999
 10
34.6798445613
 20
33.9887791962
 10
34.67980370600003
 20
33.99720055079999
  0
LWPOLYLINE
  5
881A5
330
1F
100
AcDbEntity
  8
cut
100
AcDbPolyline
 90
        7
 70
     0
 43
0.0
 10
34.67979645590003
 20
33.9972005562
 10
34.67983436680004
 20
34.00467641220001
 10
34.68038763760001
 20
34.02670603190002
 10
34.68160189859998
 20
34.04870335429999
 10
34.68347901620007
 20
34.07063307730002
 10
34.68601994640005
 20
34.09248068049999
 10
34.68922541719996
 20
34.11423683910002
  0
LWPOLYLINE
  5
881A6
330
1F
100
AcDbEntity
  8
cut
100
AcDbPolyline
 90
        6
 70
     0
 43
0.0
 10
34.67980370600003
 20
33.99720055079999
 10
34.67998368940005
 20
34.01316017119999
 10
34.68091968670001
 20
34.03769289740001
 10
34.6826710268
 20
34.0621235319
 10
34.68526105119997
 20
34.08643807939998
 10
34.68866641839998
 20
34.11065053530001
  0
LINE
  5
881A7
330
1F
100
AcDbEntity
  8
cut
100
AcDbLine
 10
44.46214631500004
 20
23.01209090089998
 30
0.0
 11
44.31501520860002
 21
23.08348191919998
 31
0.0
  0
LINE
  5
881A8
330
1F
100
AcDbEntity
  8
cut
100
AcDbLine
 10
44.31501520860002
 20
23.08348191919998
 30
0.0
 11
44.29954191650006
 21
23.09116446599998
 31
0.0
  0
LINE
  5
881A9
330
1F
100
AcDbEntity
  8
cut
100
AcDbLine
 10
44.29954191650006
 20
23.09116446599998
 30
0.0
 11
44.2843073893
 21
23.09888075960001
 31
0.0
  0
LINE
  5
881AA
330
1F
100
AcDbEntity
  8
cut
100
AcDbLine
 10
44.2843073893
 20
23.09888075960001
 30
0.0
 11
42.77441715750001
 21
23.8717775609
 31
0.0
  0
LINE
  5
881AB
330
1F
100
AcDbEntity
  8
cut
100
AcDbLine
 10
42.77441715750001
 20
23.8717775609
 30
0.0
 11
41.93242941940002
 21
24.3034693562
 31
0.0
  0
LINE
  5
881AC
330
1F
100
AcDbEntity
  8
cut
100
AcDbLine
 10
41.93242941940002
 20
24.3034693562
 30
0.0
 11
41.7377711529
 21
24.40339616300001
 31
0.0
  0
LWPOLYLINE
  5
881AD
330
1F
100
AcDbEntity
  8
cut
100
AcDbPolyline
 90
        6
 70
     0
 43
0.0
 10
45.09851932870002
 20
22.69260508509999
 10
44.97400104969996
 20
22.75657814749999
 10
44.84811125039993
 20
22.8205406573
 10
44.72083996849995
 20
22.88445151900001
 10
44.5921838831
 20
22.94829703400001
 10
44.46214631500004
 20
23.01209090089998
  0
LINE
  5
881AE
330
1F
100
AcDbEntity
  8
cut
100
AcDbLine
 10
41.7377711529
 20
24.40339616300001
 30
0.0
 11
40.88984159769995
 21
24.8390743864
 31
0.0
  0
LINE
  5
881AF
330
1F
100
AcDbEntity
  8
cut
100
AcDbLine
 10
40.88984159769995
 20
24.8390743864
 30
0.0
 11
40.36785082840004
 21
25.10787154579998
 31
0.0
  0
LINE
  5
881B0
330
1F
100
AcDbEntity
  8
cut
100
AcDbLine
 10
40.36785082840004
 20
25.10787154579998
 30
0.0
 11
40.23868074969993
 21
25.1753135251
 31
0.0
  0
LWPOLYLINE
  5
881B1
330
1F
100
AcDbEntity
  8
cut
100
AcDbPolyline
 90
        4
 70
     0
 43
0.0
 10
45.46385500639996
 20
22.50066367759999
 10
45.34344796750008
 20
22.5646546994
 10
45.2216694082
 20
22.62863516849998
 10
45.09851932870002
 20
22.69260508509999
  0
LINE
  5
881B2
330
1F
100
AcDbEntity
  8
cut
100
AcDbLine
 10
40.23868074969993
 20
25.1753135251
 30
0.0
 11
40.10870322710002
 21
25.24416780779998
 31
0.0
  0
LINE
  5
881B3
330
1F
100
AcDbEntity
  8
cut
100
AcDbLine
 10
40.10870322710002
 20
25.24416780779998
 30
0.0
 11
39.97851483650004
 21
25.31416139390001
 31
0.0
  0
LINE
  5
881B4
330
1F
100
AcDbEntity
  8
cut
100
AcDbLine
 10
39.97851483650004
 20
25.31416139390001
 30
0.0
 11
39.85034744430004
 21
25.38399061370002
 31
0.0
  0
LINE
  5
881B5
330
1F
100
AcDbEntity
  8
cut
100
AcDbLine
 10
39.85034744430004
 20
25.38399061370002
 30
0.0
 11
39.72904390769997
 21
25.4509006678
 31
0.0
  0
LINE
  5
881B6
330
1F
100
AcDbEntity
  8
cut
100
AcDbLine
 10
39.72904390769997
 20
25.4509006678
 30
0.0
 11
39.61669951680006
 21
25.51362747720001
 31
0.0
  0
LINE
  5
881B7
330
1F
100
AcDbEntity
  8
cut
100
AcDbLine
 10
39.61669951680006
 20
25.51362747720001
 30
0.0
 11
39.51613139040001
 21
25.5703471217
 31
0.0
  0
LINE
  5
881B8
330
1F
100
AcDbEntity
  8
cut
100
AcDbLine
 10
39.51613139040001
 20
25.5703471217
 30
0.0
 11
39.38124162070005
 21
25.64725951110001
 31
0.0
  0
LINE
  5
881B9
330
1F
100
AcDbEntity
  8
cut
100
AcDbLine
 10
39.38124162070005
 20
25.64725951110001
 30
0.0
 11
39.25840354019999
 21
25.71813570649999
 31
0.0
  0
LINE
  5
881BA
330
1F
100
AcDbEntity
  8
cut
100
AcDbLine
 10
39.25840354019999
 20
25.71813570649999
 30
0.0
 11
39.13897248789999
 21
25.78781399669998
 31
0.0
  0
LINE
  5
881BB
330
1F
100
AcDbEntity
  8
cut
100
AcDbLine
 10
39.13897248789999
 20
25.78781399669998
 30
0.0
 11
39.01896438389997
 21
25.85858542279999
 31
0.0
  0
LINE
  5
881BC
330
1F
100
AcDbEntity
  8
cut
100
AcDbLine
 10
39.01896438389997
 20
25.85858542279999
 30
0.0
 11
38.89863959189995
 21
25.93030100109999
 31
0.0
  0
LWPOLYLINE
  5
881BD
330
1F
100
AcDbEntity
  8
cut
100
AcDbPolyline
 90
        3
 70
     0
 43
0.0
 10
38.89863959189995
 20
25.93030100109999
 10
38.7792291472
 20
26.0022172592
 10
38.7397067441001
 20
26.02618613660002
  0
LWPOLYLINE
  5
881BE
330
1F
100
AcDbEntity
  8
cut
100
AcDbPolyline
 90
       25
 70
     0
 43
0.0
 10
38.73970677500006
 20
26.02618611790001
 10
38.71019979430002
 20
26.04464145490002
 10
38.68135505709995
 20
26.0635970269
 10
38.65317256309993
 20
26.08305283390001
 10
38.6256715966
 20
26.10300782499999
 10
38.59883287340006
 20
26.12346305099999
 10
38.57259854120002
 20
26.14442166480001
 10
38.54694806999999
 20
26.16587357189999
 10
38.52190198980009
 20
26.1878288668
 10
38.49746403719996
 20
26.21032098559999
 10
38.47362854230005
 20
26.2333510865
 10
38.45040117489998
 20
26.25691801139999
 10
38.42780268199999
 20
26.28105172240001
 10
38.40582905420001
 20
26.3057771387
 10
38.38448430070002
 20
26.33106934110001
 10
38.36380119629996
 20
26.35688353499998
 10
38.34378656609999
 20
26.38322872510001
 10
38.32443358490002
 20
26.41009590660002
 10
38.30575455220003
 20
26.43741327019998
 10
38.28775014180008
 20
26.46518147230001
 10
38.27041967980007
 20
26.49339985649999
 10
38.25377344499998
 20
26.5219946435
 10
38.23781486339999
 20
26.55094124050001
 10
38.22254050899994
 20
26.5802642404
 10
38.20795038159997
 20
26.60996364320002
  0
LWPOLYLINE
  5
881BF
330
1F
100
AcDbEntity
  8
cut
100
AcDbPolyline
 90
       13
 70
     0
 43
0.0
 10
34.77113463889998
 20
33.6366480497
 10
34.75964862950002
 20
33.65916797790001
 10
34.74892836180004
 20
33.68188676950001
 10
34.73897383580004
 20
33.70480442429999
 10
34.72978100390003
 20
33.72795031550001
 10
34.72135391360007
 20
33.75129507
 10
34.71370470780005
 20
33.7747505685
 10
34.70683667160006
 20
33.7983182637
 10
34.70074651979996
 20
33.821996703
 10
34.69543653950007
 20
33.84569340919998
 10
34.69090749309998
 20
33.86937755650001
 10
34.68715861830003
 20
33.89307997060001
 10
34.68418991500005
 20
33.91680065169999
  0
LINE
  5
881C0
330
1F
100
AcDbEntity
  8
cut
100
AcDbLine
 10
35.57590673619996
 20
32.0243158019
 30
0.0
 11
35.36312057070006
 21
32.45072645779999
 31
0.0
  0
LINE
  5
881C1
330
1F
100
AcDbEntity
  8
cut
100
AcDbLine
 10
35.36312057070006
 20
32.45072645779999
 30
0.0
 11
35.35534465299998
 21
32.46661076280001
 31
0.0
  0
LWPOLYLINE
  5
881C2
330
1F
100
AcDbEntity
  8
cut
100
AcDbPolyline
 90
        8
 70
     0
 43
0.0
 10
37.02091219479996
 20
29.08647494589999
 10
36.81638234469995
 20
29.5070241914
 10
36.61121205450001
 20
29.9272847499
 10
36.40539114219996
 20
30.34725271720001
 10
36.19892978990004
 20
30.76693199759998
 10
35.99185854409995
 20
31.1863343037
 10
35.78418758689998
 20
31.6054635399
 10
35.57590673619996
 20
32.0243158019
  0
LWPOLYLINE
  5
881C3
330
1F
100
AcDbEntity
  8
cut
100
AcDbPolyline
 90
        9
 70
     0
 43
0.0
 10
35.28517875020011
 20
32.6147495422
 10
35.22538447030001
 20
32.73941904360001
 10
35.16433525119999
 20
32.8649796405
 10
35.10205152169998
 20
32.99144645030001
 10
35.03851285300005
 20
33.11880435559999
 10
34.97365795849999
 20
33.2470080045
 10
34.90746640910004
 20
33.3760422798
 10
34.83995863400003
 20
33.50592229859998
 10
34.77113463290005
 20
33.63664806099999
  0
LINE
  5
881C4
330
1F
100
AcDbEntity
  8
cut
100
AcDbLine
 10
37.65642882290001
 20
27.76862270640001
 30
0.0
 11
37.02091219479996
 21
29.08647494589999
 31
0.0
  0
LWPOLYLINE
  5
881C5
330
1F
100
AcDbEntity
  8
cut
100
AcDbPolyline
 90
        3
 70
     0
 43
0.0
 10
35.35534465299998
 20
32.46661076280001
 10
35.34758863570004
 20
32.48277982439998
 10
35.28517875020011
 20
32.6147495422
  0
LINE
  5
881C6
330
1F
100
AcDbEntity
  8
cut
100
AcDbLine
 10
38.02071797280007
 20
27.0049804738
 30
0.0
 11
37.65642882290001
 21
27.76862270640001
 31
0.0
  0
LINE
  5
881C7
330
1F
100
AcDbEntity
  8
cut
100
AcDbLine
 10
38.20795042999998
 20
26.6099635418
 30
0.0
 11
38.02071797159999
 21
27.0049804764
 31
0.0
  0
LINE
  5
881C8
330
1F
100
AcDbEntity
  8
cut
100
AcDbLine
 10
50.31917510180004
 20
28.6737882823
 30
0.0
 11
50.14014218550006
 21
28.3800240386
 31
0.0
  0
LINE
  5
881C9
330
1F
100
AcDbEntity
  8
cut
100
AcDbLine
 10
50.14014218550006
 20
28.3800240386
 30
0.0
 11
49.93528310459999
 21
28.0454717913
 31
0.0
  0
LINE
  5
881CA
330
1F
100
AcDbEntity
  8
cut
100
AcDbLine
 10
49.93528310459999
 20
28.0454717913
 30
0.0
 11
49.74824229429998
 21
27.74151294780001
 31
0.0
  0
LINE
  5
881CB
330
1F
100
AcDbEntity
  8
cut
100
AcDbLine
 10
49.74824229429998
 20
27.74151294780001
 30
0.0
 11
49.55489984510005
 21
27.42870464550001
 31
0.0
  0
LINE
  5
881CC
330
1F
100
AcDbEntity
  8
cut
100
AcDbLine
 10
49.55489984510005
 20
27.42870464550001
 30
0.0
 11
49.35518862640003
 21
27.10708671649999
 31
0.0
  0
LWPOLYLINE
  5
881CD
330
1F
100
AcDbEntity
  8
cut
100
AcDbPolyline
 90
        9
 70
     0
 43
0.0
 10
49.35518862640003
 20
27.10708671649999
 10
49.03241377259996
 20
26.5903124795
 10
48.811110997
 20
26.23812861490002
 10
48.58904059760003
 20
25.88642005910001
 10
48.36620197700007
 20
25.53518472169998
 10
48.14259573259993
 20
25.18442469300001
 10
47.91822365590006
 20
24.83414624349999
 10
47.69308634410004
 20
24.48435146349999
 10
47.46718320000002
 20
24.13503826269999
  0
LWPOLYLINE
  5
881CE
330
1F
100
AcDbEntity
  8
cut
100
AcDbPolyline
 90
        6
 70
     0
 43
0.0
 10
47.46718320000002
 20
24.13503826269999
 10
47.23623236130004
 20
23.77966718939999
 10
47.23189986680006
 20
23.7731203303
 10
47.22751673989999
 20
23.7665660641
 10
47.22308298079997
 20
23.76000439060002
 10
47.21859858950007
 20
23.7534353099
  0
LINE
  5
881CF
330
1F
100
AcDbEntity
  8
cut
100
AcDbLine
 10
46.67683469090002
 20
22.96408525749999
 30
0.0
 11
46.53551072200002
 21
22.75519339249999
 31
0.0
  0
LINE
  5
881D0
330
1F
100
AcDbEntity
  8
cut
100
AcDbLine
 10
46.82356083649994
 20
23.17954201589998
 30
0.0
 11
46.67683469090002
 21
22.96408525749999
 31
0.0
  0
LINE
  5
881D1
330
1F
100
AcDbEntity
  8
cut
100
AcDbLine
 10
46.97569370430005
 20
23.4015596676
 30
0.0
 11
46.82356083649994
 21
23.17954201589998
 31
0.0
  0
LINE
  5
881D2
330
1F
100
AcDbEntity
  8
cut
100
AcDbLine
 10
47.21859858950007
 20
23.7534353099
 30
0.0
 11
46.97569370430005
 21
23.4015596676
 31
0.0
  0
LWPOLYLINE
  5
881D3
330
1F
100
AcDbEntity
  8
cut
100
AcDbPolyline
 90
       13
 70
     0
 43
0.0
 10
46.53551072259995
 20
22.75519339349998
 10
46.52154170530002
 20
22.73516841130001
 10
46.50690199450003
 20
22.71555892640002
 10
46.49159159039993
 20
22.69636493889999
 10
46.47559326039993
 20
22.67756096099998
 10
46.45892423700002
 20
22.65917248049999
 10
46.44163621810003
 20
22.64127596029999
 10
46.42372749920002
 20
22.62387412980002
 10
46.40519978489997
 20
22.6069642596
 10
46.38610988669995
 20
22.5906146245
 10
46.36647674180006
 20
22.57484798300001
 10
46.34628141300004
 20
22.5596415766
 10
46.32552390030002
 20
22.5449954055
  0
LINE
  5
881D4
330
1F
100
AcDbEntity
  8
cut
100
AcDbLine
 10
42.37290086899998
 20
38.09999999889999
 30
0.0
 11
50.0
 21
38.09999999889999
 31
0.0
  0
LINE
  5
881D5
330
1F
100
AcDbEntity
  8
cut
100
AcDbLine
 10
50.78921774239995
 20
35.9213747291
 30
0.0
 11
50.80000000000007
 21
37.29999999890001
 31
0.0
  0
LINE
  5
881D6
330
1F
100
AcDbEntity
  8
cut
100
AcDbLine
 10
50.53190304270003
 20
29.71444572120002
 30
0.0
 11
50.52581762670001
 21
29.40475069849998
 31
0.0
  0
LINE
  5
881D7
330
1F
100
AcDbEntity
  8
cut
100
AcDbLine
 10
50.78921774239995
 20
35.9213747291
 30
0.0
 11
50.78885641759995
 21
35.9035117719
 31
0.0
  0
LINE
  5
881D8
330
1F
100
AcDbEntity
  8
cut
100
AcDbLine
 10
50.53936947090004
 20
30.0219997282
 30
0.0
 11
50.53190304270003
 21
29.71444572120002
 31
0.0
  0
LWPOLYLINE
  5
881D9
330
1F
100
AcDbEntity
  8
cut
100
AcDbPolyline
 90
       25
 70
     0
 43
0.0
 10
50.52581762680006
 20
29.40475070669999
 10
50.52485631709998
 20
29.3713934063
 10
50.5231983594
 20
29.33831035490002
 10
50.52084375380002
 20
29.3055015523
 10
50.51778228399996
 20
29.27297248089999
 10
50.51402416630003
 20
29.2407176584
 10
50.50960004950002
 20
29.2087206377
 10
50.50451188379997
 20
29.17698814319999
 10
50.4987577191
 20
29.14551345059999
 10
50.4923623546
 20
29.1142599403
 10
50.4853315547
 20
29.08321889670001
 10
50.4776595549
 20
29.0523990353
 10
50.46935386100006
 20
29.0217898832
 10
50.46042237690006
 20
28.9913830328
 10
50.4508571985
 20
28.96118689169998
 10
50.44064212010005
 20
28.93121620950001
 10
50.42977470230004
 20
28.90145631669998
 10
50.41825738440002
 20
28.8719218828
 10
50.40608127820007
 20
28.84267166620001
 10
50.3932433177
 20
28.8137055558
 10
50.37974656879999
 20
28.78502366260001
 10
50.3655913412
 20
28.7566850785
 10
50.35077773809995
 20
28.72870950070001
 10
50.33530565620004
 20
28.70107723199999
 10
50.31917509569996
 20
28.67378827230002
  0
LINE
  5
881DA
330
1F
100
AcDbEntity
  8
cut
100
AcDbLine
 10
50.54818758390002
 20
30.3277754419
 30
0.0
 11
50.53936947090004
 21
30.0219997282
 31
0.0
  0
LINE
  5
881DB
330
1F
100
AcDbEntity
  8
cut
100
AcDbLine
 10
50.78885641759995
 20
35.9035117719
 30
0.0
 11
50.78833810110007
 21
35.88558477390001
 31
0.0
  0
LINE
  5
881DC
330
1F
100
AcDbEntity
  8
cut
100
AcDbLine
 10
50.55823571650001
 20
30.6294552258
 30
0.0
 11
50.54818758390002
 21
30.3277754419
 31
0.0
  0
LINE
  5
881DD
330
1F
100
AcDbEntity
  8
cut
100
AcDbLine
 10
50.56953126740006
 20
30.9280190364
 30
0.0
 11
50.55823571650001
 21
30.6294552258
 31
0.0
  0
LINE
  5
881DE
330
1F
100
AcDbEntity
  8
cut
100
AcDbLine
 10
50.78833810110007
 20
35.88558477390001
 30
0.0
 11
50.78766279310002
 21
35.86759373519999
 31
0.0
  0
LINE
  5
881DF
330
1F
100
AcDbEntity
  8
cut
100
AcDbLine
 10
50.78766279310002
 20
35.86759373519999
 30
0.0
 11
50.75238040880003
 21
35.0336052488
 31
0.0
  0
LINE
  5
881E0
330
1F
100
AcDbEntity
  8
cut
100
AcDbLine
 10
50.75238040880003
 20
35.0336052488
 30
0.0
 11
50.7153191479
 21
34.17552989460001
 31
0.0
  0
LINE
  5
881E1
330
1F
100
AcDbEntity
  8
cut
100
AcDbLine
 10
50.58170592709996
 20
31.21628301289999
 30
0.0
 11
50.56953126740006
 21
30.9280190364
 31
0.0
  0
LINE
  5
881E2
330
1F
100
AcDbEntity
  8
cut
100
AcDbLine
 10
50.7153191479
 20
34.17552989460001
 30
0.0
 11
50.68073463920007
 21
33.3904053016
 31
0.0
  0
LINE
  5
881E3
330
1F
100
AcDbEntity
  8
cut
100
AcDbLine
 10
50.68073463920007
 20
33.3904053016
 30
0.0
 11
50.6385830708
 21
32.45280074829998
 31
0.0
  0
LINE
  5
881E4
330
1F
100
AcDbEntity
  8
cut
100
AcDbLine
 10
50.6385830708
 20
32.45280074829998
 30
0.0
 11
50.59469346369997
 21
31.4987836933
 31
0.0
  0
LINE
  5
881E5
330
1F
100
AcDbEntity
  8
cut
100
AcDbLine
 10
50.59469346369997
 20
31.4987836933
 30
0.0
 11
50.58170592709996
 21
31.21628301289999
 31
0.0
  0
ARC
  5
881E6
330
1F
100
AcDbEntity
  8
cut
100
AcDbCircle
 10
42.37290086899998
 20
36.0999999989
 30
0.0
 40
2.0
100
AcDbArc
 50
90.0
 51
118.279449516799
  0
ARC
  5
881E7
102
{ACAD_REACTORS
330
881EA
102
}
330
1F
100
AcDbEntity
  8
cut
100
AcDbCircle
 10
50.0
 20
37.29999999890001
 30
0.0
 40
0.8
100
AcDbArc
 50
0.0
 51
90.0
  0
DIMENSION
  5
881E8
102
{ACAD_XDICTIONARY
360
881E9
102
}
102
{ACAD_REACTORS
330
881EA
102
}
330
1F
100
AcDbEntity
  8
2
100
AcDbDimension
  2
*D601010
 10
50.0
 20
37.29999999890001
 30
0.0
 11
63.51637964020198
 21
40.70344927063278
 31
0.0
 70
   164
 71
     5
 42
0.8
  3
コピー - ISO-25
100
AcDbRadialDimension
 15
50.77578398173557
 25
37.4953438334137
 35
0.0
 40
0.0
1001
ACAD
1000
DSTYLE
1002
{
1070
   170
1070
     1
1070
   171
1070
     3
1070
   143
1040
0.0393700787401575
1070
   285
1070
     4
1070
     4
1000
"
1070
   271
1070
     8
1070
    40
1040
1.0
1002
}
1001
ACAD_DSTYLE_DIMRADIAL_EXTENSION
1070
   387
1070
     1
1070
   388
1040
0.0
1070
   390
1040
1.570796326794896
1001
ACAD_DSTYLE_DIMINSPECT
1070
   396
1000

1070
   395
1000

1070
   394
1070
     1
1070
   393
1070
     0
1001
ZWMCAD_GENSTANDARDFRAME_13_
1070
   410
1000
GB
1070
   411
1000
ZwmFrameMain_
  0
VIEWPORT
  5
71
102
{ACAD_XDICTIONARY
360
8769D
102
}
330
55
100
AcDbEntity
 67
     1
  8
0
100
AcDbViewport
 10
150.1652135264906
 20
103.6581106594891
 30
0.0
 40
339.1973820494347
 41
168.6522697578383
 68
     1
 69
    -1
 12
150.1652135264906
 22
103.6581106594891
 13
0.0
 23
0.0
 14
10.0
 24
10.0
 15
10.0
 25
10.0
 16
0.0
 26
0.0
 36
1.0
 17
0.0
 27
0.0
 37
0.0
 42
50.0
 43
0.0
 44
0.0
 45
168.6522697578383
 50
0.0
 51
0.0
 72
  1000
 90
    32864
  1

281
     0
 71
     1
 74
     0
110
0.0
120
0.0
130
0.0
111
1.0
121
0.0
131
0.0
112
0.0
122
1.0
132
0.0
 79
     0
146
0.0
1001
ACAD
1000
MVIEW
1002
{
1070
    16
1010
0.0
1020
0.0
1030
0.0
1010
0.0
1020
0.0
1030
1.0
1040
0.0
1040
168.6522697578383
1040
150.1652135264906
1040
103.6581106594891
1040
50.0
1040
0.0
1040
0.0
1070
     0
1070
  1000
1070
     0
1070
     3
1070
     0
1070
     0
1070
     0
1070
     0
1040
0.0
1040
0.0
1040
0.0
1040
10.0
1040
10.0
1040
10.0
1040
10.0
1070
     0
1002
{
1002
}
1002
}
  0
VIEWPORT
  5
73
102
{ACAD_XDICTIONARY
360
8769F
102
}
330
55
100
AcDbEntity
 67
     1
  8
0
100
AcDbViewport
 10
133.3499939441681
 20
101.5999939441681
 30
0.0
 40
213.3599903106689
 41
162.5599903106689
 68
     2
 69
    -1
 12
210.0
 22
148.5
 13
0.0
 23
0.0
 14
10.0
 24
10.0
 15
10.0
 25
10.0
 16
0.0
 26
0.0
 36
1.0
 17
0.0
 27
0.0
 37
0.0
 42
50.0
 43
0.0
 44
0.0
 45
324.0677920111345
 50
0.0
 51
0.0
 72
   100
 90
    32864
  1

281
     0
 71
     1
 74
     0
110
0.0
120
0.0
130
0.0
111
1.0
121
0.0
131
0.0
112
0.0
122
1.0
132
0.0
 79
     0
146
0.0
1001
ACAD
1000
MVIEW
1002
{
1070
    16
1010
0.0
1020
0.0
1030
0.0
1010
0.0
1020
0.0
1030
1.0
1040
0.0
1040
324.0677920111345
1040
210.0
1040
148.5
1040
50.0
1040
0.0
1040
0.0
1070
     0
1070
   100
1070
     0
1070
     3
1070
     0
1070
     0
1070
     0
1070
     0
1040
0.0
1040
0.0
1040
0.0
1040
10.0
1040
10.0
1040
10.0
1040
10.0
1070
     0
1002
{
1002
}
1002
}
  0
ENDSEC
  0
SECTION
  2
OBJECTS
  0
DICTIONARY
  5
C
330
0
100
AcDbDictionary
281
     1
  3
ACAD_CIP_PREVIOUS_PRODUCT_INFO
350
4A3C3
  3
ACAD_COLOR
350
85
  3
ACAD_DETAILVIEWSTYLE
350
4A3BB
  3
ACAD_GROUP
350
D
  3
ACAD_LAYOUT
350
1A
  3
ACAD_MATERIAL
350
84
  3
ACAD_MLEADERSTYLE
350
4A3B7
  3
ACAD_MLINESTYLE
350
17
  3
ACAD_PLOTSETTINGS
350
19
  3
ACAD_PLOTSTYLENAME
350
E
  3
ACAD_SCALELIST
350
4A3A5
  3
ACAD_SECTIONVIEWSTYLE
350
4A3B9
  3
ACAD_TABLESTYLE
350
A1
  3
ACAD_VISUALSTYLE
350
4A38C
  3
ACDB_RECOMPOSE_DATA
350
8768B
  3
ACDBHEADERROUNDTRIPXREC
350
8838E
  3
AcDbVariableDictionary
350
5E
  3
ASE_INDEX_DICTIONARY
350
349E9
  3
DWGPROPS
350
88391
  0
DICTIONARY
  5
8831E
330
8
100
AcDbDictionary
280
     1
281
     1
  3
ACAD_XREC_ROUNDTRIP
360
88397
  0
DICTIONARY
  5
E2
330
2
100
AcDbDictionary
280
     1
281
     1
  3
ACAD_LAYERFILTERS
360
4A339
  3
ACAD_LAYERSTATES
360
3759A
  3
ACLYDICTIONARY
360
4A338
  0
DICTIONARY
  5
4A86C
330
10
100
AcDbDictionary
280
     1
281
     1
  3
ADSK_XREC_LAYER_RECONCILED
360
4A86D
  0
DICTIONARY
  5
4A773
330
4A772
100
AcDbDictionary
280
     1
281
     1
  3
ADSK_XREC_LAYER_RECONCILED
360
4A86E
  0
DICTIONARY
  5
4A775
330
4A774
100
AcDbDictionary
280
     1
281
     1
  3
ADSK_XREC_LAYER_RECONCILED
360
4A86F
  0
DICTIONARY
  5
4A777
330
4A776
100
AcDbDictionary
280
     1
281
     1
  3
ADSK_XREC_LAYER_RECONCILED
360
4A870
  0
DICTIONARY
  5
4A779
330
4A778
100
AcDbDictionary
280
     1
281
     1
  3
ADSK_XREC_LAYER_RECONCILED
360
4A871
  0
DICTIONARY
  5
4A77B
330
4A77A
100
AcDbDictionary
280
     1
281
     1
  3
ADSK_XREC_LAYER_RECONCILED
360
4A872
  0
DICTIONARY
  5
4A77F
330
4A77E
100
AcDbDictionary
280
     1
281
     1
  3
ADSK_XREC_LAYER_RECONCILED
360
4A874
  0
DICTIONARY
  5
4A783
330
4A782
100
AcDbDictionary
280
     1
281
     1
  3
ADSK_XREC_LAYER_RECONCILED
360
4A876
  0
DICTIONARY
  5
8831C
330
876F4
100
AcDbDictionary
280
     1
281
     1
  3
ACAD_XREC_ROUNDTRIP
360
88396
  0
DICTIONARY
  5
31EE
330
1F
100
AcDbDictionary
280
     1
281
     1
  3
ACAD_SORTENTS
360
31EF
  0
DICTIONARY
  5
4A6D7
330
4A6D6
100
AcDbDictionary
280
     1
281
     1
  3
ACAD_SORTENTS
360
4A6D8
  0
DICTIONARY
  5
87699
330
6B
100
AcDbDictionary
280
     1
281
     1
  3
ACAD_XREC_ROUNDTRIP
360
88394
  0
DICTIONARY
  5
8769B
330
6D
100
AcDbDictionary
280
     1
281
     1
  3
ACAD_XREC_ROUNDTRIP
360
88395
  0
DICTIONARY
  5
880E0
330
880DF
100
AcDbDictionary
280
     1
281
     1
  3
ACAD_DIMASSOC
360
880E1
  0
DICTIONARY
  5
880E5
330
880E4
100
AcDbDictionary
280
     1
281
     1
  3
ACAD_DIMASSOC
360
880E6
  0
DICTIONARY
  5
880E9
330
880E8
100
AcDbDictionary
280
     1
281
     1
  3
ACAD_DIMASSOC
360
880EA
  0
DICTIONARY
  5
881E9
330
881E8
100
AcDbDictionary
280
     1
281
     1
  3
ACAD_DIMASSOC
360
881EA
  0
DICTIONARY
  5
8769D
330
71
100
AcDbDictionary
280
     1
281
     1
  3
ACAD_XREC_ROUNDTRIP
360
88392
  0
DICTIONARY
  5
8769F
330
73
100
AcDbDictionary
280
     1
281
     1
  3
ACAD_XREC_ROUNDTRIP
360
88393
  0
XRECORD
  5
4A3C3
102
{ACAD_REACTORS
330
C
102
}
330
C
100
AcDbXrecord
280
     1
300
ACDLT
300
2020
300

  0
DICTIONARY
  5
85
102
{ACAD_REACTORS
330
C
102
}
330
C
100
AcDbDictionary
281
     1
  0
DICTIONARY
  5
4A3BB
102
{ACAD_REACTORS
330
C
102
}
330
C
100
AcDbDictionary
281
     1
  3
Metric50
350
4A3BC
  0
DICTIONARY
  5
D
102
{ACAD_REACTORS
330
C
102
}
330
C
100
AcDbDictionary
281
     1
  0
DICTIONARY
  5
1A
102
{ACAD_REACTORS
330
C
102
}
330
C
100
AcDbDictionary
281
     1
  3
Model
350
22
  3
レイアウト1
350
51
  3
レイアウト2
350
56
  0
DICTIONARY
  5
84
102
{ACAD_REACTORS
330
C
102
}
330
C
100
AcDbDictionary
281
     1
  3
ByBlock
350
4A37C
  3
ByLayer
350
4A374
  3
Global
350
4A384
  0
DICTIONARY
  5
4A3B7
102
{ACAD_REACTORS
330
C
102
}
330
C
100
AcDbDictionary
281
     1
  3
Standard
350
4A3B8
  0
DICTIONARY
  5
17
102
{ACAD_REACTORS
330
C
102
}
330
C
100
AcDbDictionary
281
     1
  3
Standard
350
18
  0
DICTIONARY
  5
19
102
{ACAD_REACTORS
330
C
102
}
330
C
100
AcDbDictionary
281
     1
  0
ACDBDICTIONARYWDFLT
  5
E
102
{ACAD_REACTORS
330
C
102
}
330
C
100
AcDbDictionary
281
     1
  3
Normal
350
F
100
AcDbDictionaryWithDefault
340
F
  0
DICTIONARY
  5
4A3A5
102
{ACAD_REACTORS
330
C
102
}
330
C
100
AcDbDictionary
281
     1
  3
A0
350
4A3A6
  3
A1
350
4A3A7
  3
A2
350
4A3A8
  3
A3
350
4A3A9
  3
A4
350
4A3AA
  3
A5
350
4A3AB
  3
A6
350
4A3AC
  3
A7
350
4A3AD
  3
A8
350
4A3AE
  3
A9
350
4A3AF
  3
B0
350
4A3B0
  3
B1
350
4A3B1
  3
B2
350
4A3B2
  3
B3
350
4A3B3
  3
B4
350
4A3B4
  3
B5
350
4A3B5
  3
B6
350
4A3B6
  0
DICTIONARY
  5
4A3B9
102
{ACAD_REACTORS
330
C
102
}
330
C
100
AcDbDictionary
281
     1
  3
Metric50
350
4A3BA
  0
DICTIONARY
  5
A1
102
{ACAD_REACTORS
330
C
102
}
330
C
100
AcDbDictionary
281
     1
  3
Standard
350
A2
  0
DICTIONARY
  5
4A38C
102
{ACAD_REACTORS
330
C
102
}
330
C
100
AcDbDictionary
281
     1
  3
2dWireframe
350
4A392
  3
Basic
350
4A391
  3
Brighten
350
4A398
  3
ColorChange
350
4A39C
  3
Conceptual
350
4A395
  3
Dim
350
4A397
  3
EdgeColorOff
350
4A3A4
  3
Facepattern
350
4A39B
  3
Flat
350
4A38D
  3
FlatWithEdges
350
4A38E
  3
Gouraud
350
4A38F
  3
GouraudWithEdges
350
4A390
  3
Hidden
350
4A394
  3
JitterOff
350
4A3A2
  3
Linepattern
350
4A39A
  3
OverhangOff
350
4A3A3
  3
Realistic
350
4A396
  3
Shaded
350
4A3A1
  3
Shaded with edges
350
4A3A0
  3
Shades of Gray
350
4A39D
  3
Sketchy
350
4A39E
  3
Thicken
350
4A399
  3
Wireframe
350
4A393
  3
X-Ray
350
4A39F
  0
XRECORD
  5
8768B
102
{ACAD_REACTORS
330
C
102
}
330
C
100
AcDbXrecord
280
     1
 90
        1
330
A2
  0
DICTIONARY
  5
8838E
102
{ACAD_REACTORS
330
C
102
}
330
C
100
AcDbDictionary
281
     1
  3
COLORDICT
350
8838F
  3
MATERIALDICT
350
88390
  0
DICTIONARY
  5
5E
102
{ACAD_REACTORS
330
C
102
}
330
C
100
AcDbDictionary
281
     1
  3
CANNOSCALE
350
8838D
  3
CMLEADERSTYLE
350
4A6CE
  3
CTABLESTYLE
350
B8
  3
CVIEWDETAILSTYLE
350
4A6CF
  3
CVIEWSECTIONSTYLE
350
4A6D0
  3
DIMASSOC
350
5F
  3
HIDETEXT
350
63
  3
INDEXCTL
350
4A879
  3
LAYEREVAL
350
4A6D4
  3
LAYERNOTIFY
350
4A6D5
  3
LIGHTINGUNITS
350
4A6D3
  3
MSLTSCALE
350
4A6D1
  3
PROJECTNAME
350
31CE
  3
SORTENTS
350
4A878
  3
XCLIPFRAME
350
5A559
  0
DICTIONARY
  5
349E9
102
{ACAD_REACTORS
330
C
102
}
330
C
100
AcDbDictionary
281
     1
  3
ASEBlockHierarchyIndexRecord
350
349EA
1001
DCO15
1040
1842496176.844
  0
XRECORD
  5
88391
102
{ACAD_REACTORS
330
C
102
}
330
C
100
AcDbXrecord
280
     1
  1
DWGPROPS COOKIE
  2

  3

  4

  6

  7

  8
zhangnw
  9

300
=
301
=
302
=
303
=
304
=
305
=
306
=
307
=
308
=
309
=
 40
0.0
 41
2455489.391063368
 42
2458948.458148068
  1

 90
        0
  0
XRECORD
  5
88397
102
{ACAD_REACTORS
330
8831E
102
}
330
8831E
100
AcDbXrecord
280
     1
102
VTR_0.000_0.000_1.000_1.000_VISUALSTYLE
340
4A392
102
VTR_0.000_0.000_1.000_1.000_GRIDDISPLAY
 70
     3
102
VTR_0.000_0.000_1.000_1.000_GRIDMAJOR
 70
     5
102
VTR_0.000_0.000_1.000_1.000_DEFAULTLIGHTING
280
     1
102
VTR_0.000_0.000_1.000_1.000_DEFAULTLIGHTINGTYPE
 70
     1
102
VTR_0.000_0.000_1.000_1.000_BRIGHTNESS
141
0.0
102
VTR_0.000_0.000_1.000_1.000_CONTRAST
142
0.0
  0
DICTIONARY
  5
4A339
102
{ACAD_REACTORS
330
E2
102
}
330
E2
100
AcDbDictionary
281
     1
  0
DICTIONARY
  5
3759A
102
{ACAD_REACTORS
330
E2
102
}
330
E2
100
AcDbDictionary
281
     1
  0
DICTIONARY
  5
4A338
102
{ACAD_REACTORS
330
E2
102
}
330
E2
100
AcDbDictionary
281
     1
1001
ACAD
1000
<All
  0
XRECORD
  5
4A86D
102
{ACAD_REACTORS
330
4A86C
102
}
330
4A86C
100
AcDbXrecord
280
     1
290
     1
  0
XRECORD
  5
4A86E
102
{ACAD_REACTORS
330
4A773
102
}
330
4A773
100
AcDbXrecord
280
     1
290
     1
  0
XRECORD
  5
4A86F
102
{ACAD_REACTORS
330
4A775
102
}
330
4A775
100
AcDbXrecord
280
     1
290
     1
  0
XRECORD
  5
4A870
102
{ACAD_REACTORS
330
4A777
102
}
330
4A777
100
AcDbXrecord
280
     1
290
     1
  0
XRECORD
  5
4A871
102
{ACAD_REACTORS
330
4A779
102
}
330
4A779
100
AcDbXrecord
280
     1
290
     1
  0
XRECORD
  5
4A872
102
{ACAD_REACTORS
330
4A77B
102
}
330
4A77B
100
AcDbXrecord
280
     1
290
     1
  0
XRECORD
  5
4A874
102
{ACAD_REACTORS
330
4A77F
102
}
330
4A77F
100
AcDbXrecord
280
     1
290
     1
  0
XRECORD
  5
4A876
102
{ACAD_REACTORS
330
4A783
102
}
330
4A783
100
AcDbXrecord
280
     1
290
     1
  0
XRECORD
  5
88396
102
{ACAD_REACTORS
330
8831C
102
}
330
8831C
100
AcDbXrecord
280
     1
102
MATERIAL
340
4A384
  0
SORTENTSTABLE
  5
31EF
102
{ACAD_REACTORS
330
31EE
102
}
330
31EE
100
AcDbSortentsTable
330
1F
  0
SORTENTSTABLE
  5
4A6D8
102
{ACAD_REACTORS
330
4A6D7
102
}
330
4A6D7
100
AcDbSortentsTable
330
4A6D6
  0
XRECORD
  5
88394
102
{ACAD_REACTORS
330
87699
102
}
330
87699
100
AcDbXrecord
280
     1
102
GRIDDISPLAY
 70
     0
102
GRIDMAJOR
 70
     5
102
DEFAULTLIGHTING
280
     1
102
DEFAULTLIGHTINGTYPE
 70
     1
102
BRIGHTNESS
141
0.0
102
CONTRAST
142
0.0
  0
XRECORD
  5
88395
102
{ACAD_REACTORS
330
8769B
102
}
330
8769B
100
AcDbXrecord
280
     1
102
GRIDDISPLAY
 70
     0
102
GRIDMAJOR
 70
     5
102
DEFAULTLIGHTING
280
     1
102
DEFAULTLIGHTINGTYPE
 70
     1
102
BRIGHTNESS
141
0.0
102
CONTRAST
142
0.0
  0
DIMASSOC
  5
880E1
102
{ACAD_REACTORS
330
880E0
102
}
330
880E0
100
AcDbDimAssoc
330
880DF
 90
        1
 70
     0
 71
     0
  1
AcDbOsnapPointRef
 72
     1
331
880C4
 73
     2
 91
        0
 40
3.141592653589792
 10
0.0
 20
0.0
 30
1.999999999999998E+50
 75
     0
  0
DIMASSOC
  5
880E6
102
{ACAD_REACTORS
330
880E5
102
}
330
880E5
100
AcDbDimAssoc
330
880E4
 90
        2
 70
     0
 71
     0
  1
AcDbOsnapPointRef
 72
     1
331
880D2
 73
     2
 91
        0
 40
1.0
 10
0.0
 20
0.0
 30
1.999999999999998E+50
 75
     0
  0
DIMASSOC
  5
880EA
102
{ACAD_REACTORS
330
880E9
102
}
330
880E9
100
AcDbDimAssoc
330
880E8
 90
        3
 70
     0
 71
     0
  1
AcDbOsnapPointRef
 72
    13
331
880B0
 73
     2
 91
        0
 40
0.0
 10
0.0
 20
0.0
 30
1.999999999999998E+50
 75
     0
  1
AcDbOsnapPointRef
 72
    13
331
880CF
 73
     2
 91
        0
 40
0.0
 10
0.0
 20
0.0
 30
1.999999999999998E+50
 75
     0
  0
DIMASSOC
  5
881EA
102
{ACAD_REACTORS
330
881E9
102
}
330
881E9
100
AcDbDimAssoc
330
881E8
 90
        2
 70
     0
 71
     0
  1
AcDbOsnapPointRef
 72
     3
331
881E7
 73
     2
 91
        0
 40
0.0
 10
0.0
 20
0.0
 30
0.0
 75
     0
  0
XRECORD
  5
88392
102
{ACAD_REACTORS
330
8769D
102
}
330
8769D
100
AcDbXrecord
280
     1
102
GRIDDISPLAY
 70
     0
102
GRIDMAJOR
 70
     5
102
DEFAULTLIGHTING
280
     1
102
DEFAULTLIGHTINGTYPE
 70
     1
102
BRIGHTNESS
141
0.0
102
CONTRAST
142
0.0
  0
XRECORD
  5
88393
102
{ACAD_REACTORS
330
8769F
102
}
330
8769F
100
AcDbXrecord
280
     1
102
GRIDDISPLAY
 70
     0
102
GRIDMAJOR
 70
     5
102
DEFAULTLIGHTING
280
     1
102
DEFAULTLIGHTINGTYPE
 70
     1
102
BRIGHTNESS
141
0.0
102
CONTRAST
142
0.0
  0
ACDBDETAILVIEWSTYLE
  5
4A3BC
102
{ACAD_XDICTIONARY
360
876D4
102
}
102
{ACAD_REACTORS
330
4A3BB
102
}
330
4A3BB
100
AcDbModelDocViewStyle
 70
     0
  3
Metric50
290
     0
100
AcDbDetailViewStyle
 70
     0
 71
     0
 90
        3
 71
     1
340
11
 40
5.0
340
0
 40
5.0
300

 40
0.0
280
     1
 71
     2
340
16
 90
       25
 71
     3
340
11
 40
5.0
 90
        0
 40
15.0
 90
        1
300
%<\AcVar ViewDetailId>% (%<\AcVar ViewScale \f "%sn">%)
 71
     4
340
16
 90
       25
340
16
 90
       25
280
     0
  0
LAYOUT
  5
22
102
{ACAD_REACTORS
330
1A
102
}
330
1A
100
AcDbPlotSettings
  1

  2
none_device
  4
ANSI_A_(8.50_x_11.00_Inches)
  6

 40
6.349999904632567
 41
19.04999923706055
 42
6.350006103515625
 43
19.04998779296875
 44
215.8999938964844
 45
279.3999938964844
 46
0.0
 47
0.0
 48
0.0
 49
0.0
140
0.0
141
0.0
142
1.0
143
78.436453180766
 70
 11952
 72
     0
 73
     1
 74
     0
  7

 75
     0
147
0.0127491741332998
148
0.0
149
0.0
100
AcDbLayout
  1
Model
 70
     1
 71
     0
 10
0.0
 20
0.0
 11
12.0
 21
9.0
 12
0.0
 22
0.0
 32
0.0
 14
0.0
 24
0.0
 34
0.0
 15
0.0
 25
0.0
 35
0.0
146
0.0
 13
0.0
 23
0.0
 33
0.0
 16
1.0
 26
0.0
 36
0.0
 17
0.0
 27
1.0
 37
0.0
 76
     0
330
1F
331
4A360
  0
LAYOUT
  5
51
102
{ACAD_REACTORS
330
1A
102
}
330
1A
100
AcDbPlotSettings
  1

  2
none_device
  4
Letter_(8.50_x_11.00_Inches)
  6

 40
6.349999904632567
 41
6.349999904632567
 42
6.350006103515625
 43
6.350006103515625
 44
215.8999938964844
 45
279.3999938964844
 46
0.0
 47
0.0
 48
0.0
 49
0.0
140
0.0
141
0.0
142
1.0
143
1.0
 70
   688
 72
     1
 73
     1
 74
     5
  7

 75
    16
147
1.0
148
0.0
149
0.0
100
AcDbLayout
  1
レイアウト1
 70
     1
 71
     1
 10
-6.350006103515625
 20
-6.349999904632567
 11
273.0499877929688
 21
209.5499939918518
 12
0.0
 22
0.0
 32
0.0
 14
26.66999878883364
 24
20.31999878883365
 34
0.0
 15
240.0299890995025
 25
182.8799890995025
 35
0.0
146
0.0
 13
0.0
 23
0.0
 33
0.0
 16
1.0
 26
0.0
 36
0.0
 17
0.0
 27
1.0
 37
0.0
 76
     0
330
50
331
6B
  0
LAYOUT
  5
56
102
{ACAD_REACTORS
330
1A
102
}
330
1A
100
AcDbPlotSettings
  1

  2
none_device
  4
Letter_(8.50_x_11.00_Inches)
  6

 40
6.349999904632567
 41
6.349999904632567
 42
6.350006103515625
 43
6.350006103515625
 44
215.8999938964844
 45
279.3999938964844
 46
0.0
 47
0.0
 48
0.0
 49
0.0
140
0.0
141
0.0
142
1.0
143
1.0
 70
   688
 72
     1
 73
     1
 74
     5
  7

 75
    16
147
1.0
148
0.0
149
0.0
100
AcDbLayout
  1
レイアウト2
 70
     1
 71
     2
 10
-6.350006103515625
 20
-6.349999904632567
 11
273.0499877929688
 21
209.5499939918518
 12
0.0
 22
0.0
 32
0.0
 14
26.66999878883364
 24
20.31999878883365
 34
0.0
 15
240.0299890995025
 25
182.8799890995025
 35
0.0
146
0.0
 13
0.0
 23
0.0
 33
0.0
 16
1.0
 26
0.0
 36
0.0
 17
0.0
 27
1.0
 37
0.0
 76
     0
330
55
331
71
  0
MATERIAL
  5
4A37C
102
{ACAD_XDICTIONARY
360
4A37D
102
}
102
{ACAD_REACTORS
330
84
102
}
330
84
100
AcDbMaterial
  1
ByBlock
 72
     0
 73
     2
 43
0.0008202099737533
 43
0.0
 43
0.0
 43
0.0
 43
0.0
 43
0.0008202099737533
 43
0.0
 43
0.0
 43
0.0
 43
0.0
 43
1.0
 43
0.0
 43
0.0
 43
0.0
 43
0.0
 43
1.0
 77
     0
 78
     2
 47
0.0008202099737533
 47
0.0
 47
0.0
 47
0.0
 47
0.0
 47
0.0008202099737533
 47
0.0
 47
0.0
 47
0.0
 47
0.0
 47
1.0
 47
0.0
 47
0.0
 47
0.0
 47
0.0
 47
1.0
171
     0
172
     2
 49
0.0008202099737533
 49
0.0
 49
0.0
 49
0.0
 49
0.0
 49
0.0008202099737533
 49
0.0
 49
0.0
 49
0.0
 49
0.0
 49
1.0
 49
0.0
 49
0.0
 49
0.0
 49
0.0
 49
1.0
175
     0
176
     2
142
0.0008202099737533
142
0.0
142
0.0
142
0.0
142
0.0
142
0.0008202099737533
142
0.0
142
0.0
142
0.0
142
0.0
142
1.0
142
0.0
142
0.0
142
0.0
142
0.0
142
1.0
179
     0
270
     2
144
0.0008202099737533
144
0.0
144
0.0
144
0.0
144
0.0
144
0.0008202099737533
144
0.0
144
0.0
144
0.0
144
0.0
144
1.0
144
0.0
144
0.0
144
0.0
144
0.0
144
1.0
274
     2
147
0.0008202099737533
147
0.0
147
0.0
147
0.0
147
0.0
147
0.0008202099737533
147
0.0
147
0.0
147
0.0
147
0.0
147
1.0
147
0.0
147
0.0
147
0.0
147
0.0
147
1.0
  0
MATERIAL
  5
4A374
102
{ACAD_XDICTIONARY
360
4A375
102
}
102
{ACAD_REACTORS
330
84
102
}
330
84
100
AcDbMaterial
  1
ByLayer
 72
     0
 73
     2
 43
0.0008202099737533
 43
0.0
 43
0.0
 43
0.0
 43
0.0
 43
0.0008202099737533
 43
0.0
 43
0.0
 43
0.0
 43
0.0
 43
1.0
 43
0.0
 43
0.0
 43
0.0
 43
0.0
 43
1.0
 77
     0
 78
     2
 47
0.0008202099737533
 47
0.0
 47
0.0
 47
0.0
 47
0.0
 47
0.0008202099737533
 47
0.0
 47
0.0
 47
0.0
 47
0.0
 47
1.0
 47
0.0
 47
0.0
 47
0.0
 47
0.0
 47
1.0
171
     0
172
     2
 49
0.0008202099737533
 49
0.0
 49
0.0
 49
0.0
 49
0.0
 49
0.0008202099737533
 49
0.0
 49
0.0
 49
0.0
 49
0.0
 49
1.0
 49
0.0
 49
0.0
 49
0.0
 49
0.0
 49
1.0
175
     0
176
     2
142
0.0008202099737533
142
0.0
142
0.0
142
0.0
142
0.0
142
0.0008202099737533
142
0.0
142
0.0
142
0.0
142
0.0
142
1.0
142
0.0
142
0.0
142
0.0
142
0.0
142
1.0
179
     0
270
     2
144
0.0008202099737533
144
0.0
144
0.0
144
0.0
144
0.0
144
0.0008202099737533
144
0.0
144
0.0
144
0.0
144
0.0
144
1.0
144
0.0
144
0.0
144
0.0
144
0.0
144
1.0
274
     2
147
0.0008202099737533
147
0.0
147
0.0
147
0.0
147
0.0
147
0.0008202099737533
147
0.0
147
0.0
147
0.0
147
0.0
147
1.0
147
0.0
147
0.0
147
0.0
147
0.0
147
1.0
  0
MATERIAL
  5
4A384
102
{ACAD_XDICTIONARY
360
4A385
102
}
102
{ACAD_REACTORS
330
84
102
}
330
84
100
AcDbMaterial
  1
Global
 72
     0
 73
     2
 43
0.0008202099737533
 43
0.0
 43
0.0
 43
0.0
 43
0.0
 43
0.0008202099737533
 43
0.0
 43
0.0
 43
0.0
 43
0.0
 43
1.0
 43
0.0
 43
0.0
 43
0.0
 43
0.0
 43
1.0
 77
     0
 78
     2
 47
0.0008202099737533
 47
0.0
 47
0.0
 47
0.0
 47
0.0
 47
0.0008202099737533
 47
0.0
 47
0.0
 47
0.0
 47
0.0
 47
1.0
 47
0.0
 47
0.0
 47
0.0
 47
0.0
 47
1.0
171
     0
172
     2
 49
0.0008202099737533
 49
0.0
 49
0.0
 49
0.0
 49
0.0
 49
0.0008202099737533
 49
0.0
 49
0.0
 49
0.0
 49
0.0
 49
1.0
 49
0.0
 49
0.0
 49
0.0
 49
0.0
 49
1.0
175
     0
176
     2
142
0.0008202099737533
142
0.0
142
0.0
142
0.0
142
0.0
142
0.0008202099737533
142
0.0
142
0.0
142
0.0
142
0.0
142
1.0
142
0.0
142
0.0
142
0.0
142
0.0
142
1.0
179
     0
270
     2
144
0.0008202099737533
144
0.0
144
0.0
144
0.0
144
0.0
144
0.0008202099737533
144
0.0
144
0.0
144
0.0
144
0.0
144
1.0
144
0.0
144
0.0
144
0.0
144
0.0
144
1.0
274
     2
147
0.0008202099737533
147
0.0
147
0.0
147
0.0
147
0.0
147
0.0008202099737533
147
0.0
147
0.0
147
0.0
147
0.0
147
1.0
147
0.0
147
0.0
147
0.0
147
0.0
147
1.0
  0
MLEADERSTYLE
  5
4A3B8
102
{ACAD_XDICTIONARY
360
88323
102
}
102
{ACAD_REACTORS
330
4A3B7
102
}
330
4A3B7
100
AcDbMLeaderStyle
170
     2
171
     1
172
     0
 90
        2
 40
0.0
 41
0.0
173
     1
 91
-1056964608
340
14
 92
       -2
290
     1
 42
2.0
291
     1
 43
0.36
  3
Standard
 44
4.0
300

342
11
174
     1
178
     6
175
     1
176
     0
 93
-1056964608
 45
4.0
292
     0
297
     0
 46
4.0
 94
-1056964608
 47
1.0
 49
1.0
140
1.0
293
     1
141
0.0
294
     1
177
     0
142
1.0
295
     0
296
     0
143
0.125
1001
ACAD_MLEADERVER
1070
     2
  0
MLINESTYLE
  5
18
102
{ACAD_REACTORS
330
17
102
}
330
17
100
AcDbMlineStyle
  2
STANDARD
 70
     0
  3

 62
   256
 51
90.0
 52
90.0
 71
     2
 49
0.5
 62
   256
  6
BYLAYER
 49
-0.5
 62
   256
  6
BYLAYER
  0
ACDBPLACEHOLDER
  5
F
102
{ACAD_REACTORS
330
E
102
}
330
E
  0
SCALE
  5
4A3A6
102
{ACAD_REACTORS
330
4A3A5
102
}
330
4A3A5
100
AcDbScale
 70
     0
300
1:1
140
1.0
141
1.0
290
     1
  0
SCALE
  5
4A3A7
102
{ACAD_REACTORS
330
4A3A5
102
}
330
4A3A5
100
AcDbScale
 70
     0
300
1:2
140
1.0
141
2.0
290
     0
  0
SCALE
  5
4A3A8
102
{ACAD_REACTORS
330
4A3A5
102
}
330
4A3A5
100
AcDbScale
 70
     0
300
1:4
140
1.0
141
4.0
290
     0
  0
SCALE
  5
4A3A9
102
{ACAD_REACTORS
330
4A3A5
102
}
330
4A3A5
100
AcDbScale
 70
     0
300
1:5
140
1.0
141
5.0
290
     0
  0
SCALE
  5
4A3AA
102
{ACAD_REACTORS
330
4A3A5
102
}
330
4A3A5
100
AcDbScale
 70
     0
300
1:8
140
1.0
141
8.0
290
     0
  0
SCALE
  5
4A3AB
102
{ACAD_REACTORS
330
4A3A5
102
}
330
4A3A5
100
AcDbScale
 70
     0
300
1:10
140
1.0
141
10.0
290
     0
  0
SCALE
  5
4A3AC
102
{ACAD_REACTORS
330
4A3A5
102
}
330
4A3A5
100
AcDbScale
 70
     0
300
1:16
140
1.0
141
16.0
290
     0
  0
SCALE
  5
4A3AD
102
{ACAD_REACTORS
330
4A3A5
102
}
330
4A3A5
100
AcDbScale
 70
     0
300
1:20
140
1.0
141
20.0
290
     0
  0
SCALE
  5
4A3AE
102
{ACAD_REACTORS
330
4A3A5
102
}
330
4A3A5
100
AcDbScale
 70
     0
300
1:30
140
1.0
141
30.0
290
     0
  0
SCALE
  5
4A3AF
102
{ACAD_REACTORS
330
4A3A5
102
}
330
4A3A5
100
AcDbScale
 70
     0
300
1:40
140
1.0
141
40.0
290
     0
  0
SCALE
  5
4A3B0
102
{ACAD_REACTORS
330
4A3A5
102
}
330
4A3A5
100
AcDbScale
 70
     0
300
1:50
140
1.0
141
50.0
290
     0
  0
SCALE
  5
4A3B1
102
{ACAD_REACTORS
330
4A3A5
102
}
330
4A3A5
100
AcDbScale
 70
     0
300
1:100
140
1.0
141
100.0
290
     0
  0
SCALE
  5
4A3B2
102
{ACAD_REACTORS
330
4A3A5
102
}
330
4A3A5
100
AcDbScale
 70
     0
300
2:1
140
2.0
141
1.0
290
     0
  0
SCALE
  5
4A3B3
102
{ACAD_REACTORS
330
4A3A5
102
}
330
4A3A5
100
AcDbScale
 70
     0
300
4:1
140
4.0
141
1.0
290
     0
  0
SCALE
  5
4A3B4
102
{ACAD_REACTORS
330
4A3A5
102
}
330
4A3A5
100
AcDbScale
 70
     0
300
8:1
140
8.0
141
1.0
290
     0
  0
SCALE
  5
4A3B5
102
{ACAD_REACTORS
330
4A3A5
102
}
330
4A3A5
100
AcDbScale
 70
     0
300
10:1
140
10.0
141
1.0
290
     0
  0
SCALE
  5
4A3B6
102
{ACAD_REACTORS
330
4A3A5
102
}
330
4A3A5
100
AcDbScale
 70
     0
300
100:1
140
100.0
141
1.0
290
     0
  0
ACDBSECTIONVIEWSTYLE
  5
4A3BA
102
{ACAD_XDICTIONARY
360
876D2
102
}
102
{ACAD_REACTORS
330
4A3B9
102
}
330
4A3B9
100
AcDbModelDocViewStyle
 70
     0
  3
Metric50
290
     0
100
AcDbSectionViewStyle
 70
     0
 71
     0
 90
      102
 71
     1
340
11
 40
5.0
340
0
340
0
 40
5.0
300
I, O, Q, S, X, Z
 40
10.0
 90
        0
 40
2.5
 90
        0
 71
     2
340
16
 90
       25
340
16
 90
       50
 40
5.0
 40
2.5
 40
5.0
 71
     3
340
11
 40
5.0
 90
        0
 40
15.0
 90
        1
300
%<\AcVar ViewSectionStartId>%-%<\AcVar ViewSectionEndId>% (%<\AcVar ViewScale \f "%sn">%)
 71
     4
300
ANSI31
 40
1.0
 90
        0
290
     0
290
     0
 90
        6
 40
0.0
 40
1.570796326794896
 40
0.2617993877991494
 40
1.308996938995747
 40
-0.2617993877991494
 40
1.832595714594044
  0
TABLESTYLE
  5
A2
102
{ACAD_XDICTIONARY
360
4CD9A
102
}
102
{ACAD_REACTORS
330
A1
102
}
330
A1
100
AcDbTableStyle
  3
Standard
 70
     0
 71
     0
 40
1.5
 41
1.5
280
     0
281
     0
  7
Standard
140
4.5
170
     2
 62
     0
 63
   257
283
     0
274
    -2
284
     1
 64
     0
275
    -2
285
     1
 65
     0
276
    -2
286
     1
 66
     0
277
    -2
287
     1
 67
     0
278
    -2
288
     1
 68
     0
279
    -2
289
     1
 69
     0
  7
Standard
140
6.0
170
     5
 62
     0
 63
   257
283
     0
274
    -2
284
     1
 64
     0
275
    -2
285
     1
 65
     0
276
    -2
286
     1
 66
     0
277
    -2
287
     1
 67
     0
278
    -2
288
     1
 68
     0
279
    -2
289
     1
 69
     0
  7
Standard
140
4.5
170
     5
 62
     0
 63
   257
283
     0
274
    -2
284
     1
 64
     0
275
    -2
285
     1
 65
     0
276
    -2
286
     1
 66
     0
277
    -2
287
     1
 67
     0
278
    -2
288
     1
 68
     0
279
    -2
289
     1
 69
     0
  0
VISUALSTYLE
  5
4A392
102
{ACAD_XDICTIONARY
360
876AC
102
}
102
{ACAD_REACTORS
330
4A38C
102
}
330
4A38C
100
AcDbVisualStyle
  2

 70
     4
 71
     0
 72
     2
 73
     0
 90
        0
 40
-0.6
 41
-30.0
 62
     5
 63
     7
 74
     1
 91
        4
 64
     7
 65
   257
 75
     1
175
     1
 42
1.0
 92
        0
 66
   257
 43
1.0
 76
     1
 77
     6
 78
     2
 67
     7
 79
     5
170
     0
171
     0
290
     0
174
     0
 93
        1
 44
0.0
173
     0
291
     0
 45
0.0
1001
ACAD
1000
AcDbSavedByObjectVersion
1070
     0
  0
VISUALSTYLE
  5
4A391
102
{ACAD_XDICTIONARY
360
876AA
102
}
102
{ACAD_REACTORS
330
4A38C
102
}
330
4A38C
100
AcDbVisualStyle
  2

 70
     7
 71
     1
 72
     0
 73
     1
 90
        0
 40
-0.6
 41
-30.0
 62
     5
 63
     7
 74
     0
 91
        4
 64
     7
 65
   257
 75
     1
175
     1
 42
1.0
 92
        8
 66
     7
 43
1.0
 76
     1
 77
     6
 78
     2
 67
     7
 79
     5
170
     0
171
     0
290
     0
174
     0
 93
        1
 44
0.0
173
     0
291
     1
 45
0.0
1001
ACAD
1000
AcDbSavedByObjectVersion
1070
     0
  0
VISUALSTYLE
  5
4A398
102
{ACAD_XDICTIONARY
360
876B8
102
}
102
{ACAD_REACTORS
330
4A38C
102
}
330
4A38C
100
AcDbVisualStyle
  2

 70
    12
 71
     2
 72
     2
 73
     0
 90
        0
 40
-0.6
 41
-30.0
 62
     5
 63
     7
 74
     1
 91
        4
 64
     7
 65
   257
 75
     1
175
     1
 42
1.0
 92
        8
 66
     7
 43
1.0
 76
     1
 77
     6
 78
     2
 67
     7
 79
     5
170
     0
171
     0
290
     0
174
     0
 93
        1
 44
50.0
173
     0
291
     1
 45
0.0
1001
ACAD
1000
AcDbSavedByObjectVersion
1070
     0
  0
VISUALSTYLE
  5
4A39C
102
{ACAD_XDICTIONARY
360
876C0
102
}
102
{ACAD_REACTORS
330
4A38C
102
}
330
4A38C
100
AcDbVisualStyle
  2

 70
    16
 71
     2
 72
     2
 73
     3
 90
        0
 40
-0.6
 41
-30.0
 62
     5
 63
     8
 74
     1
 91
        4
 64
     7
 65
   257
 75
     1
175
     1
 42
1.0
 92
        8
 66
     8
 43
1.0
 76
     1
 77
     6
 78
     2
 67
     7
 79
     5
170
     0
171
     0
290
     0
174
     0
 93
        1
 44
0.0
173
     0
291
     1
 45
0.0
1001
ACAD
1000
AcDbSavedByObjectVersion
1070
     0
  0
VISUALSTYLE
  5
4A395
102
{ACAD_XDICTIONARY
360
876B2
102
}
102
{ACAD_REACTORS
330
4A38C
102
}
330
4A38C
100
AcDbVisualStyle
  2

 70
     9
 71
     3
 72
     2
 73
     0
 90
        0
 40
-0.6
 41
-30.0
 62
     5
 63
     7
 74
     2
 91
        2
 64
     7
 65
   257
 75
     1
175
     1
 42
179.0
 92
        8
 66
     7
 43
1.0
 76
     1
 77
     6
 78
     2
 67
     7
 79
     3
170
     0
171
     0
290
     0
174
     0
 93
        1
 44
0.0
173
     0
291
     0
 45
0.0
1001
ACAD
1000
AcDbSavedByObjectVersion
1070
     0
  0
VISUALSTYLE
  5
4A397
102
{ACAD_XDICTIONARY
360
876B6
102
}
102
{ACAD_REACTORS
330
4A38C
102
}
330
4A38C
100
AcDbVisualStyle
  2

 70
    11
 71
     2
 72
     2
 73
     0
 90
        0
 40
-0.6
 41
-30.0
 62
     5
 63
     7
 74
     1
 91
        4
 64
     7
 65
   257
 75
     1
175
     1
 42
1.0
 92
        8
 66
     7
 43
1.0
 76
     1
 77
     6
 78
     2
 67
     7
 79
     5
170
     0
171
     0
290
     0
174
     0
 93
        1
 44
-50.0
173
     0
291
     1
 45
0.0
1001
ACAD
1000
AcDbSavedByObjectVersion
1070
     0
  0
VISUALSTYLE
  5
4A3A4
102
{ACAD_XDICTIONARY
360
876D0
102
}
102
{ACAD_REACTORS
330
4A38C
102
}
330
4A38C
100
AcDbVisualStyle
  2

 70
    22
 71
     2
 72
     2
 73
     0
 90
        0
 40
-0.6
 41
-30.0
 62
     5
 63
     7
 74
     1
 91
        4
 64
     7
 65
   257
 75
     1
175
     1
 42
1.0
 92
        8
 66
     7
 43
1.0
 76
     1
 77
     6
 78
     2
 67
     7
 79
     5
170
     0
171
     0
290
     0
174
     0
 93
        1
 44
0.0
173
     0
291
     1
 45
0.0
1001
ACAD
1000
AcDbSavedByObjectVersion
1070
     0
  0
VISUALSTYLE
  5
4A39B
102
{ACAD_XDICTIONARY
360
876BE
102
}
102
{ACAD_REACTORS
330
4A38C
102
}
330
4A38C
100
AcDbVisualStyle
  2

 70
    15
 71
     2
 72
     2
 73
     0
 90
        0
 40
-0.6
 41
-30.0
 62
     5
 63
     7
 74
     1
 91
        4
 64
     7
 65
   257
 75
     1
175
     1
 42
1.0
 92
        8
 66
     7
 43
1.0
 76
     1
 77
     6
 78
     2
 67
     7
 79
     5
170
     0
171
     0
290
     0
174
     0
 93
        1
 44
0.0
173
     0
291
     1
 45
0.0
1001
ACAD
1000
AcDbSavedByObjectVersion
1070
     0
  0
VISUALSTYLE
  5
4A38D
102
{ACAD_XDICTIONARY
360
876A2
102
}
102
{ACAD_REACTORS
330
4A38C
102
}
330
4A38C
100
AcDbVisualStyle
  2

 70
     0
 71
     2
 72
     1
 73
     1
 90
        2
 40
-0.6
 41
30.0
 62
     5
 63
     7
 74
     0
 91
        0
 64
     7
 65
   257
 75
     1
175
     1
 42
1.0
 92
        8
 66
     7
 43
1.0
 76
     1
 77
     6
 78
     2
 67
     7
 79
     5
170
     0
171
     0
290
     0
174
     0
 93
       13
 44
0.0
173
     0
291
     1
 45
0.0
1001
ACAD
1000
AcDbSavedByObjectVersion
1070
     0
  0
VISUALSTYLE
  5
4A38E
102
{ACAD_XDICTIONARY
360
876A4
102
}
102
{ACAD_REACTORS
330
4A38C
102
}
330
4A38C
100
AcDbVisualStyle
  2

 70
     1
 71
     2
 72
     1
 73
     1
 90
        2
 40
-0.6
 41
30.0
 62
     5
 63
     7
 74
     1
 91
        0
 64
     7
 65
   257
 75
     1
175
     1
 42
1.0
 92
        0
 66
   257
 43
1.0
 76
     1
 77
     6
 78
     2
 67
     7
 79
     5
170
     0
171
     0
290
     0
174
     0
 93
       13
 44
0.0
173
     0
291
     1
 45
0.0
1001
ACAD
1000
AcDbSavedByObjectVersion
1070
     0
  0
VISUALSTYLE
  5
4A38F
102
{ACAD_XDICTIONARY
360
876A6
102
}
102
{ACAD_REACTORS
330
4A38C
102
}
330
4A38C
100
AcDbVisualStyle
  2

 70
     2
 71
     2
 72
     2
 73
     1
 90
        2
 40
-0.6
 41
30.0
 62
     5
 63
     7
 74
     0
 91
        0
 64
     7
 65
   257
 75
     1
175
     1
 42
1.0
 92
        0
 66
     7
 43
1.0
 76
     1
 77
     6
 78
     2
 67
     7
 79
     5
170
     0
171
     0
290
     0
174
     0
 93
       13
 44
0.0
173
     0
291
     1
 45
0.0
1001
ACAD
1000
AcDbSavedByObjectVersion
1070
     0
  0
VISUALSTYLE
  5
4A390
102
{ACAD_XDICTIONARY
360
876A8
102
}
102
{ACAD_REACTORS
330
4A38C
102
}
330
4A38C
100
AcDbVisualStyle
  2

 70
     3
 71
     2
 72
     2
 73
     1
 90
        2
 40
-0.6
 41
30.0
 62
     5
 63
     7
 74
     1
 91
        0
 64
     7
 65
   257
 75
     1
175
     1
 42
1.0
 92
        0
 66
   257
 43
1.0
 76
     1
 77
     6
 78
     2
 67
     7
 79
     5
170
     0
171
     0
290
     0
174
     0
 93
       13
 44
0.0
173
     0
291
     1
 45
0.0
1001
ACAD
1000
AcDbSavedByObjectVersion
1070
     0
  0
VISUALSTYLE
  5
4A394
102
{ACAD_XDICTIONARY
360
876B0
102
}
102
{ACAD_REACTORS
330
4A38C
102
}
330
4A38C
100
AcDbVisualStyle
  2

 70
     6
 71
     1
 72
     2
 73
     2
 90
        0
 40
-0.6
 41
-30.0
 62
     5
 63
     7
 74
     2
 91
        2
 64
     7
 65
   257
 75
     2
175
     1
 42
40.0
 92
        0
 66
   257
 43
1.0
 76
     1
 77
     6
 78
     2
 67
     7
 79
     3
170
     0
171
     0
290
     0
174
     0
 93
        1
 44
0.0
173
     0
291
     0
 45
0.0
1001
ACAD
1000
AcDbSavedByObjectVersion
1070
     0
  0
VISUALSTYLE
  5
4A3A2
102
{ACAD_XDICTIONARY
360
876CC
102
}
102
{ACAD_REACTORS
330
4A38C
102
}
330
4A38C
100
AcDbVisualStyle
  2

 70
    20
 71
     2
 72
     2
 73
     0
 90
        0
 40
-0.6
 41
-30.0
 62
     5
 63
     7
 74
     1
 91
        4
 64
     7
 65
   257
 75
     1
175
     1
 42
1.0
 92
       10
 66
     7
 43
1.0
 76
     1
 77
     6
 78
     2
 67
     7
 79
     5
170
     0
171
     0
290
     0
174
     0
 93
        1
 44
0.0
173
     0
291
     1
 45
0.0
1001
ACAD
1000
AcDbSavedByObjectVersion
1070
     0
  0
VISUALSTYLE
  5
4A39A
102
{ACAD_XDICTIONARY
360
876BC
102
}
102
{ACAD_REACTORS
330
4A38C
102
}
330
4A38C
100
AcDbVisualStyle
  2

 70
    14
 71
     2
 72
     2
 73
     0
 90
        0
 40
-0.6
 41
-30.0
 62
     5
 63
     7
 74
     1
 91
        4
 64
     7
 65
   257
 75
     7
175
     7
 42
1.0
 92
        8
 66
     7
 43
1.0
 76
     1
 77
     6
 78
     2
 67
     7
 79
     5
170
     0
171
     0
290
     0
174
     0
 93
        1
 44
0.0
173
     0
291
     1
 45
0.0
1001
ACAD
1000
AcDbSavedByObjectVersion
1070
     0
  0
VISUALSTYLE
  5
4A3A3
102
{ACAD_XDICTIONARY
360
876CE
102
}
102
{ACAD_REACTORS
330
4A38C
102
}
330
4A38C
100
AcDbVisualStyle
  2

 70
    21
 71
     2
 72
     2
 73
     0
 90
        0
 40
-0.6
 41
-30.0
 62
     5
 63
     7
 74
     1
 91
        4
 64
     7
 65
   257
 75
     1
175
     1
 42
1.0
 92
        9
 66
     7
 43
1.0
 76
     1
 77
     6
 78
     2
 67
     7
 79
     5
170
     0
171
     0
290
     0
174
     0
 93
        1
 44
0.0
173
     0
291
     1
 45
0.0
1001
ACAD
1000
AcDbSavedByObjectVersion
1070
     0
  0
VISUALSTYLE
  5
4A396
102
{ACAD_XDICTIONARY
360
876B4
102
}
102
{ACAD_REACTORS
330
4A38C
102
}
330
4A38C
100
AcDbVisualStyle
  2

 70
     8
 71
     2
 72
     3
 73
     0
 90
        2
 40
-0.6
 41
30.0
 62
     5
 63
     7
 74
     0
 91
        0
 64
     7
 65
   257
 75
     1
175
     1
 42
1.0
 92
        8
 66
   257
 43
1.0
 76
     1
 77
     6
 78
     2
 67
     7
 79
     3
170
     0
171
     0
290
     0
174
     0
 93
       13
 44
0.0
173
     0
291
     0
 45
0.0
1001
ACAD
1000
AcDbSavedByObjectVersion
1070
     0
  0
VISUALSTYLE
  5
4A3A1
102
{ACAD_XDICTIONARY
360
876CA
102
}
102
{ACAD_REACTORS
330
4A38C
102
}
330
4A38C
100
AcDbVisualStyle
  2

 70
    27
 71
     2
 72
     2
 73
     1
 90
        2
 40
-0.6
 41
30.0
 62
     5
 63
     7
 74
     0
 91
        4
 64
     7
 65
   257
 75
     1
175
     1
 42
1.0
 92
        8
 66
   257
 43
1.0
 76
     1
 77
     6
 78
     2
 67
     8
 79
     3
170
     0
171
     0
290
     0
174
     0
 93
        5
 44
0.0
173
     0
291
     0
 45
0.0
1001
ACAD
1000
AcDbSavedByObjectVersion
1070
     0
  0
VISUALSTYLE
  5
4A3A0
102
{ACAD_XDICTIONARY
360
876C8
102
}
102
{ACAD_REACTORS
330
4A38C
102
}
330
4A38C
100
AcDbVisualStyle
  2

 70
    26
 71
     2
 72
     2
 73
     1
 90
        2
 40
-0.6
 41
30.0
 62
     5
 63
     7
 74
     1
 91
        2
 64
     7
 65
   257
 75
     2
175
     1
 42
1.0
 92
        8
 66
   257
 43
1.0
 76
     1
 77
     6
 78
     2
 67
     7
 79
     3
170
     0
171
     0
290
     0
174
     0
 93
        5
 44
0.0
173
     0
291
     0
 45
0.0
1001
ACAD
1000
AcDbSavedByObjectVersion
1070
     0
  0
VISUALSTYLE
  5
4A39D
102
{ACAD_XDICTIONARY
360
876C2
102
}
102
{ACAD_REACTORS
330
4A38C
102
}
330
4A38C
100
AcDbVisualStyle
  2

 70
    23
 71
     2
 72
     2
 73
     3
 90
        0
 40
-0.6
 41
-30.0
 62
     5
 63
     7
 74
     2
 91
        2
 64
     7
 65
     7
 75
     1
175
     1
 42
40.0
 92
        8
 66
     7
 43
1.0
 76
     1
 77
     6
 78
     2
 67
     7
 79
     3
170
     0
171
     0
290
     0
174
     0
 93
        1
 44
0.0
173
     0
291
     0
 45
0.0
1001
ACAD
1000
AcDbSavedByObjectVersion
1070
     0
  0
VISUALSTYLE
  5
4A39E
102
{ACAD_XDICTIONARY
360
876C4
102
}
102
{ACAD_REACTORS
330
4A38C
102
}
330
4A38C
100
AcDbVisualStyle
  2

 70
    24
 71
     1
 72
     2
 73
     2
 90
        0
 40
-0.6
 41
-30.0
 62
     5
 63
     7
 74
     2
 91
        2
 64
     7
 65
     7
 75
     1
175
     1
 42
40.0
 92
       11
 66
     7
 43
1.0
 76
     1
 77
     6
 78
     2
 67
     7
 79
     6
170
     0
171
     0
290
     0
174
     0
 93
        1
 44
0.0
173
     0
291
     0
 45
0.0
1001
ACAD
1000
AcDbSavedByObjectVersion
1070
     0
  0
VISUALSTYLE
  5
4A399
102
{ACAD_XDICTIONARY
360
876BA
102
}
102
{ACAD_REACTORS
330
4A38C
102
}
330
4A38C
100
AcDbVisualStyle
  2

 70
    13
 71
     2
 72
     2
 73
     0
 90
        0
 40
-0.6
 41
-30.0
 62
     5
 63
     7
 74
     1
 91
        4
 64
     7
 65
   257
 75
     1
175
     1
 42
1.0
 92
       12
 66
     7
 43
1.0
 76
     1
 77
     6
 78
     2
 67
     7
 79
     5
170
     0
171
     0
290
     0
174
     0
 93
        1
 44
0.0
173
     0
291
     1
 45
0.0
1001
ACAD
1000
AcDbSavedByObjectVersion
1070
     0
  0
VISUALSTYLE
  5
4A393
102
{ACAD_XDICTIONARY
360
876AE
102
}
102
{ACAD_REACTORS
330
4A38C
102
}
330
4A38C
100
AcDbVisualStyle
  2

 70
     5
 71
     0
 72
     2
 73
     0
 90
        0
 40
-0.6
 41
-30.0
 62
     5
 63
     7
 74
     1
 91
        4
 64
     7
 65
   257
 75
     1
175
     1
 42
1.0
 92
        0
 66
   257
 43
1.0
 76
     1
 77
     6
 78
     2
 67
     7
 79
     3
170
     0
171
     0
290
     0
174
     0
 93
        1
 44
0.0
173
     0
291
     0
 45
0.0
1001
ACAD
1000
AcDbSavedByObjectVersion
1070
     0
  0
VISUALSTYLE
  5
4A39F
102
{ACAD_XDICTIONARY
360
876C6
102
}
102
{ACAD_REACTORS
330
4A38C
102
}
330
4A38C
100
AcDbVisualStyle
  2

 70
    25
 71
     2
 72
     2
 73
     1
 90
        1
 40
0.5
 41
-30.0
 62
     5
 63
     7
 74
     1
 91
        0
 64
     7
 65
   257
 75
     1
175
     1
 42
1.0
 92
        8
 66
     7
 43
1.0
 76
     1
 77
     6
 78
     2
 67
     7
 79
     3
170
     0
171
     0
290
     0
174
     0
 93
       13
 44
0.0
173
     0
291
     0
 45
0.0
1001
ACAD
1000
AcDbSavedByObjectVersion
1070
     0
  0
XRECORD
  5
8838F
102
{ACAD_REACTORS
330
8838E
102
}
330
8838E
100
AcDbXrecord
280
     1
340
85
  0
XRECORD
  5
88390
102
{ACAD_REACTORS
330
8838E
102
}
330
8838E
100
AcDbXrecord
280
     1
340
84
  0
DICTIONARYVAR
  5
8838D
102
{ACAD_REACTORS
330
5E
102
}
330
5E
100
DictionaryVariables
280
   100
  1
1:1
  0
DICTIONARYVAR
  5
4A6CE
102
{ACAD_REACTORS
330
5E
102
}
330
5E
100
DictionaryVariables
280
     0
  1
STANDARD
  0
DICTIONARYVAR
  5
B8
102
{ACAD_REACTORS
330
5E
102
}
330
5E
100
DictionaryVariables
280
     0
  1
STANDARD
  0
DICTIONARYVAR
  5
4A6CF
102
{ACAD_REACTORS
330
5E
102
}
330
5E
100
DictionaryVariables
280
     0
  1
Metric50
  0
DICTIONARYVAR
  5
4A6D0
102
{ACAD_REACTORS
330
5E
102
}
330
5E
100
DictionaryVariables
280
     0
  1
Metric50
  0
DICTIONARYVAR
  5
5F
102
{ACAD_REACTORS
330
5E
102
}
330
5E
100
DictionaryVariables
280
     0
  1
2
  0
DICTIONARYVAR
  5
63
102
{ACAD_REACTORS
330
5E
102
}
330
5E
100
DictionaryVariables
280
     0
  1
1
  0
DICTIONARYVAR
  5
4A879
102
{ACAD_REACTORS
330
5E
102
}
330
5E
100
DictionaryVariables
280
     0
  1
0
  0
DICTIONARYVAR
  5
4A6D4
102
{ACAD_REACTORS
330
5E
102
}
330
5E
100
DictionaryVariables
280
     0
  1
1
  0
DICTIONARYVAR
  5
4A6D5
102
{ACAD_REACTORS
330
5E
102
}
330
5E
100
DictionaryVariables
280
     0
  1
15
  0
DICTIONARYVAR
  5
4A6D3
102
{ACAD_REACTORS
330
5E
102
}
330
5E
100
DictionaryVariables
280
     0
  1
0
  0
DICTIONARYVAR
  5
4A6D1
102
{ACAD_REACTORS
330
5E
102
}
330
5E
100
DictionaryVariables
280
     0
  1
0
  0
DICTIONARYVAR
  5
31CE
102
{ACAD_REACTORS
330
5E
102
}
330
5E
100
DictionaryVariables
280
     0
  1

  0
DICTIONARYVAR
  5
4A878
102
{ACAD_REACTORS
330
5E
102
}
330
5E
100
DictionaryVariables
280
     0
  1
127
  0
DICTIONARYVAR
  5
5A559
102
{ACAD_REACTORS
330
5E
102
}
330
5E
100
DictionaryVariables
280
     0
  1
2
  0
XRECORD
  5
349EA
102
{ACAD_REACTORS
330
349E9
102
}
330
349E9
100
AcDbXrecord
280
     1
330
0
330
0
330
0
330
0
330
0
330
0
330
0
330
0
330
0
330
0
330
0
330
0
330
0
330
0
330
0
330
0
330
0
330
0
330
0
330
0
330
0
330
0
330
0
330
0
330
0
330
0
330
0
330
0
330
0
330
0
330
0
330
0
330
0
330
0
330
0
330
0
330
0
330
0
330
0
330
0
330
0
330
0
330
0
330
0
330
0
330
0
330
0
330
0
330
0
330
0
330
0
330
0
330
0
330
0
330
0
330
0
330
0
330
0
330
0
330
0
330
0
330
0
330
0
330
0
330
0
330
0
330
0
330
0
330
0
330
0
330
0
330
0
330
0
330
0
330
0
330
0
330
0
330
0
330
0
330
0
330
0
330
0
330
0
330
0
330
0
330
0
330
0
330
0
330
0
330
0
330
0
330
0
330
0
330
0
330
0
330
0
330
0
330
0
330
0
330
0
330
0
330
0
330
0
330
0
330
0
330
0
330
0
330
0
330
0
330
0
  0
DICTIONARY
  5
876D4
330
4A3BC
100
AcDbDictionary
280
     1
281
     1
  3
ACAD_XREC_ROUNDTRIP
360
876D5
  0
DICTIONARY
  5
4A37D
330
4A37C
100
AcDbDictionary
280
     1
281
     1
  3
ACAD_XREC_ROUNDTRIP
360
88398
  0
DICTIONARY
  5
4A375
330
4A374
100
AcDbDictionary
280
     1
281
     1
  3
ACAD_XREC_ROUNDTRIP
360
88399
  0
DICTIONARY
  5
4A385
330
4A384
100
AcDbDictionary
280
     1
281
     1
  3
ACAD_XREC_ROUNDTRIP
360
8839A
  0
DICTIONARY
  5
88323
330
4A3B8
100
AcDbDictionary
280
     1
281
     1
  3
ACAD_XREC_ROUNDTRIP
360
8839B
  0
DICTIONARY
  5
876D2
330
4A3BA
100
AcDbDictionary
280
     1
281
     1
  3
ACAD_XREC_ROUNDTRIP
360
876D3
  0
DICTIONARY
  5
4CD9A
330
A2
100
AcDbDictionary
280
     1
281
     1
  3
ACAD_ROUNDTRIP_2008_TABLESTYLE_CELLSTYLEMAP
360
8839D
  3
ACAD_XREC_ROUNDTRIP
360
8839C
  0
DICTIONARY
  5
876AC
330
4A392
100
AcDbDictionary
280
     1
281
     1
  3
ACAD_XREC_ROUNDTRIP
360
8839E
  0
DICTIONARY
  5
876AA
330
4A391
100
AcDbDictionary
280
     1
281
     1
  3
ACAD_XREC_ROUNDTRIP
360
8839F
  0
DICTIONARY
  5
876B8
330
4A398
100
AcDbDictionary
280
     1
281
     1
  3
ACAD_XREC_ROUNDTRIP
360
883A0
  0
DICTIONARY
  5
876C0
330
4A39C
100
AcDbDictionary
280
     1
281
     1
  3
ACAD_XREC_ROUNDTRIP
360
883A1
  0
DICTIONARY
  5
876B2
330
4A395
100
AcDbDictionary
280
     1
281
     1
  3
ACAD_XREC_ROUNDTRIP
360
883A2
  0
DICTIONARY
  5
876B6
330
4A397
100
AcDbDictionary
280
     1
281
     1
  3
ACAD_XREC_ROUNDTRIP
360
883A3
  0
DICTIONARY
  5
876D0
330
4A3A4
100
AcDbDictionary
280
     1
281
     1
  3
ACAD_XREC_ROUNDTRIP
360
883A4
  0
DICTIONARY
  5
876BE
330
4A39B
100
AcDbDictionary
280
     1
281
     1
  3
ACAD_XREC_ROUNDTRIP
360
883A5
  0
DICTIONARY
  5
876A2
330
4A38D
100
AcDbDictionary
280
     1
281
     1
  3
ACAD_XREC_ROUNDTRIP
360
883A6
  0
DICTIONARY
  5
876A4
330
4A38E
100
AcDbDictionary
280
     1
281
     1
  3
ACAD_XREC_ROUNDTRIP
360
883A7
  0
DICTIONARY
  5
876A6
330
4A38F
100
AcDbDictionary
280
     1
281
     1
  3
ACAD_XREC_ROUNDTRIP
360
883A8
  0
DICTIONARY
  5
876A8
330
4A390
100
AcDbDictionary
280
     1
281
     1
  3
ACAD_XREC_ROUNDTRIP
360
883A9
  0
DICTIONARY
  5
876B0
330
4A394
100
AcDbDictionary
280
     1
281
     1
  3
ACAD_XREC_ROUNDTRIP
360
883AA
  0
DICTIONARY
  5
876CC
330
4A3A2
100
AcDbDictionary
280
     1
281
     1
  3
ACAD_XREC_ROUNDTRIP
360
883AB
  0
DICTIONARY
  5
876BC
330
4A39A
100
AcDbDictionary
280
     1
281
     1
  3
ACAD_XREC_ROUNDTRIP
360
883AC
  0
DICTIONARY
  5
876CE
330
4A3A3
100
AcDbDictionary
280
     1
281
     1
  3
ACAD_XREC_ROUNDTRIP
360
883AD
  0
DICTIONARY
  5
876B4
330
4A396
100
AcDbDictionary
280
     1
281
     1
  3
ACAD_XREC_ROUNDTRIP
360
883AE
  0
DICTIONARY
  5
876CA
330
4A3A1
100
AcDbDictionary
280
     1
281
     1
  3
ACAD_XREC_ROUNDTRIP
360
883AF
  0
DICTIONARY
  5
876C8
330
4A3A0
100
AcDbDictionary
280
     1
281
     1
  3
ACAD_XREC_ROUNDTRIP
360
883B0
  0
DICTIONARY
  5
876C2
330
4A39D
100
AcDbDictionary
280
     1
281
     1
  3
ACAD_XREC_ROUNDTRIP
360
883B1
  0
DICTIONARY
  5
876C4
330
4A39E
100
AcDbDictionary
280
     1
281
     1
  3
ACAD_XREC_ROUNDTRIP
360
883B2
  0
DICTIONARY
  5
876BA
330
4A399
100
AcDbDictionary
280
     1
281
     1
  3
ACAD_XREC_ROUNDTRIP
360
883B3
  0
DICTIONARY
  5
876AE
330
4A393
100
AcDbDictionary
280
     1
281
     1
  3
ACAD_XREC_ROUNDTRIP
360
883B4
  0
DICTIONARY
  5
876C6
330
4A39F
100
AcDbDictionary
280
     1
281
     1
  3
ACAD_XREC_ROUNDTRIP
360
883B5
  0
XRECORD
  5
876D5
102
{ACAD_REACTORS
330
876D4
102
}
330
876D4
100
AcDbXrecord
280
     1
102
DISPLAYNAME
  1
Metric50
102
FLAGS
 90
        0
  0
XRECORD
  5
88398
102
{ACAD_REACTORS
330
4A37D
102
}
330
4A37D
100
AcDbXrecord
280
     1
102
MATERIAL
148
0.0
149
0.0
149
0.0
 93
        0
 94
      127
282
     0
 72
     0
 77
     0
171
     0
175
     0
179
     0
273
     0
  0
XRECORD
  5
88399
102
{ACAD_REACTORS
330
4A375
102
}
330
4A375
100
AcDbXrecord
280
     1
102
MATERIAL
148
0.0
149
0.0
149
0.0
 93
        0
 94
      127
282
     0
 72
     0
 77
     0
171
     0
175
     0
179
     0
273
     0
  0
XRECORD
  5
8839A
102
{ACAD_REACTORS
330
4A385
102
}
330
4A385
100
AcDbXrecord
280
     1
102
MATERIAL
148
0.0
149
0.0
149
0.0
 93
        0
 94
      127
282
     0
 72
     0
 77
     0
171
     0
175
     0
179
     0
273
     0
  0
XRECORD
  5
8839B
102
{ACAD_REACTORS
330
88323
102
}
330
88323
100
AcDbXrecord
280
     1
102
ACAD_ROUNDTRIP_2010_MLEADER_STYLE
  0
XRECORD
  5
876D3
102
{ACAD_REACTORS
330
876D2
102
}
330
876D2
100
AcDbXrecord
280
     1
102
DISPLAYNAME
  1
Metric50
102
FLAGS
 90
        0
  0
CELLSTYLEMAP
  5
8839D
102
{ACAD_REACTORS
330
4CD9A
102
}
330
4CD9A
100
AcDbCellStyleMap
 90
        3
300
CELLSTYLE
  1
TABLEFORMAT_BEGIN
 90
        5
170
     1
 91
        0
 92
    32768
 62
   257
 93
        1
300
CONTENTFORMAT
  1
CONTENTFORMAT_BEGIN
 90
        0
 91
        0
 92
        4
 93
        0
300

 40
0.0
140
1.0
 94
        5
 62
     0
340
11
144
6.0
309
CONTENTFORMAT_END
171
     1
301
MARGIN
  1
CELLMARGIN_BEGIN
 40
1.5
 40
1.5
 40
1.5
 40
1.5
 40
0.18
 40
0.18
309
CELLMARGIN_END
 94
        6
 95
        1
302
GRIDFORMAT
  1
GRIDFORMAT_BEGIN
 90
        0
 91
        1
 62
     0
 92
       -2
340
0
 93
        0
 40
0.045
309
GRIDFORMAT_END
 95
        2
302
GRIDFORMAT
  1
GRIDFORMAT_BEGIN
 90
        0
 91
        1
 62
     0
 92
       -2
340
0
 93
        0
 40
0.045
309
GRIDFORMAT_END
 95
        4
302
GRIDFORMAT
  1
GRIDFORMAT_BEGIN
 90
        0
 91
        1
 62
     0
 92
       -2
340
0
 93
        0
 40
0.045
309
GRIDFORMAT_END
 95
        8
302
GRIDFORMAT
  1
GRIDFORMAT_BEGIN
 90
        0
 91
        1
 62
     0
 92
       -2
340
0
 93
        0
 40
0.045
309
GRIDFORMAT_END
 95
       16
302
GRIDFORMAT
  1
GRIDFORMAT_BEGIN
 90
        0
 91
        1
 62
     0
 92
       -2
340
0
 93
        0
 40
0.045
309
GRIDFORMAT_END
 95
       32
302
GRIDFORMAT
  1
GRIDFORMAT_BEGIN
 90
        0
 91
        1
 62
     0
 92
       -2
340
0
 93
        0
 40
0.045
309
GRIDFORMAT_END
309
TABLEFORMAT_END
  1
CELLSTYLE_BEGIN
 90
        1
 91
        1
300
_TITLE
309
CELLSTYLE_END
300
CELLSTYLE
  1
TABLEFORMAT_BEGIN
 90
        5
170
     1
 91
        0
 92
        0
 62
   257
 93
        1
300
CONTENTFORMAT
  1
CONTENTFORMAT_BEGIN
 90
        0
 91
        0
 92
        4
 93
        0
300

 40
0.0
140
1.0
 94
        5
 62
     0
340
11
144
4.5
309
CONTENTFORMAT_END
171
     1
301
MARGIN
  1
CELLMARGIN_BEGIN
 40
1.5
 40
1.5
 40
1.5
 40
1.5
 40
0.18
 40
0.18
309
CELLMARGIN_END
 94
        6
 95
        1
302
GRIDFORMAT
  1
GRIDFORMAT_BEGIN
 90
        0
 91
        1
 62
     0
 92
       -2
340
0
 93
        0
 40
0.045
309
GRIDFORMAT_END
 95
        2
302
GRIDFORMAT
  1
GRIDFORMAT_BEGIN
 90
        0
 91
        1
 62
     0
 92
       -2
340
0
 93
        0
 40
0.045
309
GRIDFORMAT_END
 95
        4
302
GRIDFORMAT
  1
GRIDFORMAT_BEGIN
 90
        0
 91
        1
 62
     0
 92
       -2
340
0
 93
        0
 40
0.045
309
GRIDFORMAT_END
 95
        8
302
GRIDFORMAT
  1
GRIDFORMAT_BEGIN
 90
        0
 91
        1
 62
     0
 92
       -2
340
0
 93
        0
 40
0.045
309
GRIDFORMAT_END
 95
       16
302
GRIDFORMAT
  1
GRIDFORMAT_BEGIN
 90
        0
 91
        1
 62
     0
 92
       -2
340
0
 93
        0
 40
0.045
309
GRIDFORMAT_END
 95
       32
302
GRIDFORMAT
  1
GRIDFORMAT_BEGIN
 90
        0
 91
        1
 62
     0
 92
       -2
340
0
 93
        0
 40
0.045
309
GRIDFORMAT_END
309
TABLEFORMAT_END
  1
CELLSTYLE_BEGIN
 90
        2
 91
        1
300
_HEADER
309
CELLSTYLE_END
300
CELLSTYLE
  1
TABLEFORMAT_BEGIN
 90
        5
170
     1
 91
        0
 92
        0
 62
   257
 93
        1
300
CONTENTFORMAT
  1
CONTENTFORMAT_BEGIN
 90
        0
 91
        0
 92
        4
 93
        0
300

 40
0.0
140
1.0
 94
        2
 62
     0
340
11
144
4.5
309
CONTENTFORMAT_END
171
     1
301
MARGIN
  1
CELLMARGIN_BEGIN
 40
1.5
 40
1.5
 40
1.5
 40
1.5
 40
0.18
 40
0.18
309
CELLMARGIN_END
 94
        6
 95
        1
302
GRIDFORMAT
  1
GRIDFORMAT_BEGIN
 90
        0
 91
        1
 62
     0
 92
       -2
340
0
 93
        0
 40
0.045
309
GRIDFORMAT_END
 95
        2
302
GRIDFORMAT
  1
GRIDFORMAT_BEGIN
 90
        0
 91
        1
 62
     0
 92
       -2
340
0
 93
        0
 40
0.045
309
GRIDFORMAT_END
 95
        4
302
GRIDFORMAT
  1
GRIDFORMAT_BEGIN
 90
        0
 91
        1
 62
     0
 92
       -2
340
0
 93
        0
 40
0.045
309
GRIDFORMAT_END
 95
        8
302
GRIDFORMAT
  1
GRIDFORMAT_BEGIN
 90
        0
 91
        1
 62
     0
 92
       -2
340
0
 93
        0
 40
0.045
309
GRIDFORMAT_END
 95
       16
302
GRIDFORMAT
  1
GRIDFORMAT_BEGIN
 90
        0
 91
        1
 62
     0
 92
       -2
340
0
 93
        0
 40
0.045
309
GRIDFORMAT_END
 95
       32
302
GRIDFORMAT
  1
GRIDFORMAT_BEGIN
 90
        0
 91
        1
 62
     0
 92
       -2
340
0
 93
        0
 40
0.045
309
GRIDFORMAT_END
309
TABLEFORMAT_END
  1
CELLSTYLE_BEGIN
 90
        3
 91
        2
300
_DATA
309
CELLSTYLE_END
  0
XRECORD
  5
8839C
102
{ACAD_REACTORS
330
4CD9A
102
}
330
4CD9A
100
AcDbXrecord
280
     1
102
ACAD_ROUNDTRIP_PRE2007_TABLESTYLE
 90
        4
 91
        0
  1

 92
        4
 93
        0
  2

 94
        4
 95
        0
  3

  0
XRECORD
  5
8839E
102
{ACAD_REACTORS
330
876AC
102
}
330
876AC
100
AcDbXrecord
280
     1
102
RTVSPropertyOp0
 70
     1
102
RTVSPropertyOp1
 70
     1
102
RTVSPropertyOp2
 70
     1
102
RTVSPropertyOp3
 70
     1
102
RTVSPropertyOp4
 70
     1
102
RTVSPropertyOp5
 70
     1
102
RTVSPropertyOp6
 70
     1
102
RTVSPropertyOp7
 70
     1
102
RTVSPropertyOp8
 70
     1
102
RTVSPropertyOp9
 70
     1
102
RTVSPropertyOp10
 70
     1
102
RTVSPropertyOp11
 70
     1
102
RTVSPropertyOp12
 70
     1
102
RTVSPropertyOp13
 70
     1
102
RTVSPropertyOp14
 70
     1
102
RTVSPropertyOp15
 70
     1
102
RTVSPropertyOp16
 70
     1
102
RTVSPropertyOp17
 70
     1
102
RTVSPropertyOp18
 70
     1
102
RTVSPropertyOp19
 70
     1
102
RTVSPropertyOp20
 70
     1
102
RTVSPropertyOp21
 70
     1
102
RTVSPropertyOp22
 70
     1
102
RTVSPropertyOp23
 70
     1
102
RTVSPropertyOp24
 70
     1
102
RTVSPropertyOp25
 70
     1
102
RTVSPropertyOp26
 70
     1
102
RTVSPropertyOp27
 70
     1
102
RTVSPropertyOp28
 70
     1
102
RTVSPropertyOp29
 70
     1
102
RTVSPropertyOp30
 70
     1
102
RTVSPropertyOp31
 70
     1
102
RTVSPropertyOp32
 70
     1
102
RTVSPropertyOp33
 70
     1
102
RTVSPropertyOp34
 70
     1
102
RTVSPropertyOp35
 70
     1
102
RTVSPropertyOp36
 70
     1
102
RTVSPropertyOp37
 70
     1
102
RTVSPropertyOp38
 70
     1
102
RTVSPropertyOp39
 70
     1
102
RTVSPropertyOp40
 70
     1
102
RTVSPropertyOp41
 70
     1
102
RTVSPropertyOp42
 70
     1
102
RTVSPropertyOp43
 70
     1
102
RTVSPropertyOp44
 70
     1
102
RTVSPropertyOp45
 70
     1
102
RTVSPropertyOp46
 70
     1
102
RTVSPropertyOp47
 70
     1
102
RTVSPropertyOp48
 70
     1
102
RTVSPropertyOp49
 70
     1
102
RTVSPropertyOp50
 70
     1
102
RTVSPropertyOp51
 70
     0
102
RTVSPropertyOp52
 70
     0
102
RTVSPropertyOp53
 70
     1
102
RTVSPropertyOp54
 70
     1
102
RTVSPropertyOp55
 70
     1
102
RTVSPropertyOp56
 70
     1
102
RTVSPropertyOp57
 70
     1
102
RTVSPost2010Prop28
280
     1
102
RTVSPost2010PropOp28
 70
     1
102
RTVSPost2010Prop29
280
     1
102
RTVSPost2010PropOp29
 70
     1
102
RTVSPost2010Prop30
280
     0
102
RTVSPost2010PropOp30
 70
     1
102
RTVSPost2010Prop31
280
     0
102
RTVSPost2010PropOp31
 70
     1
102
RTVSPost2010Prop32
280
     0
102
RTVSPost2010PropOp32
 70
     1
102
RTVSPost2010Prop33
280
     0
102
RTVSPost2010PropOp33
 70
     1
102
RTVSPost2010Prop34
280
     0
102
RTVSPost2010PropOp34
 70
     1
102
RTVSPost2010Prop35
280
     0
102
RTVSPost2010PropOp35
 70
     1
102
RTVSPost2010Prop36
280
     0
102
RTVSPost2010PropOp36
 70
     1
102
RTVSPost2010Prop37
 90
       50
102
RTVSPost2010PropOp37
 70
     1
102
RTVSPost2010Prop38
140
0.0
102
RTVSPost2010PropOp38
 70
     1
102
RTVSPost2010Prop39
140
1.0
102
RTVSPost2010PropOp39
 70
     1
102
RTVSPost2010Prop40
 90
        0
102
RTVSPost2010PropOp40
 70
     1
102
RTVSPost2010Prop41ColorIndex
 90
       18
102
RTVSPost2010Prop41ColorRGB
 90
        0
102
RTVSPost2010PropOp41
 70
     1
102
RTVSPost2010Prop42
 90
       50
102
RTVSPost2010PropOp42
 70
     1
102
RTVSPost2010Prop43
 90
        3
102
RTVSPost2010PropOp43
 70
     1
102
RTVSPost2010Prop44ColorIndex
 90
        5
102
RTVSPost2010Prop44ColorRGB
 90
      255
102
RTVSPost2010PropOp44
 70
     1
102
RTVSPost2010Prop45
280
     0
102
RTVSPost2010PropOp45
 70
     1
102
RTVSPost2010Prop46
 90
       50
102
RTVSPost2010PropOp46
 70
     1
102
RTVSPost2010Prop47
 90
       50
102
RTVSPost2010PropOp47
 70
     1
102
RTVSPost2010Prop48
 90
       50
102
RTVSPost2010PropOp48
 70
     1
102
RTVSPost2010Prop49
280
     0
102
RTVSPost2010PropOp49
 70
     1
102
RTVSPost2010Prop50
 90
       50
102
RTVSPost2010PropOp50
 70
     1
102
RTVSPost2010Prop51ColorIndex
 90
      256
102
RTVSPost2010Prop51ColorRGB
 90
-16777216
102
RTVSPost2010PropOp51
 70
     0
102
RTVSPost2010Prop52
140
1.0
102
RTVSPost2010PropOp52
 70
     0
102
RTVSPost2010Prop53
 90
        2
102
RTVSPost2010PropOp53
 70
     1
102
RTVSPost2010Prop54
  1
strokes_ogs.tif
102
RTVSPost2010PropOp54
 70
     1
102
RTVSPost2010Prop55
280
     0
102
RTVSPost2010PropOp55
 70
     1
102
RTVSPost2010Prop56
140
1.0
102
RTVSPost2010PropOp56
 70
     1
102
RTVSPost2010Prop57
140
1.0
102
RTVSPost2010PropOp57
 70
     1
  0
XRECORD
  5
8839F
102
{ACAD_REACTORS
330
876AA
102
}
330
876AA
100
AcDbXrecord
280
     1
102
RTVSPropertyOp0
 70
     1
102
RTVSPropertyOp1
 70
     1
102
RTVSPropertyOp2
 70
     1
102
RTVSPropertyOp3
 70
     1
102
RTVSPropertyOp4
 70
     1
102
RTVSPropertyOp5
 70
     1
102
RTVSPropertyOp6
 70
     1
102
RTVSPropertyOp7
 70
     1
102
RTVSPropertyOp8
 70
     1
102
RTVSPropertyOp9
 70
     1
102
RTVSPropertyOp10
 70
     1
102
RTVSPropertyOp11
 70
     1
102
RTVSPropertyOp12
 70
     1
102
RTVSPropertyOp13
 70
     1
102
RTVSPropertyOp14
 70
     1
102
RTVSPropertyOp15
 70
     1
102
RTVSPropertyOp16
 70
     1
102
RTVSPropertyOp17
 70
     1
102
RTVSPropertyOp18
 70
     1
102
RTVSPropertyOp19
 70
     1
102
RTVSPropertyOp20
 70
     1
102
RTVSPropertyOp21
 70
     1
102
RTVSPropertyOp22
 70
     1
102
RTVSPropertyOp23
 70
     1
102
RTVSPropertyOp24
 70
     1
102
RTVSPropertyOp25
 70
     1
102
RTVSPropertyOp26
 70
     1
102
RTVSPropertyOp27
 70
     1
102
RTVSPropertyOp28
 70
     1
102
RTVSPropertyOp29
 70
     1
102
RTVSPropertyOp30
 70
     1
102
RTVSPropertyOp31
 70
     1
102
RTVSPropertyOp32
 70
     1
102
RTVSPropertyOp33
 70
     1
102
RTVSPropertyOp34
 70
     1
102
RTVSPropertyOp35
 70
     1
102
RTVSPropertyOp36
 70
     1
102
RTVSPropertyOp37
 70
     1
102
RTVSPropertyOp38
 70
     1
102
RTVSPropertyOp39
 70
     1
102
RTVSPropertyOp40
 70
     1
102
RTVSPropertyOp41
 70
     1
102
RTVSPropertyOp42
 70
     1
102
RTVSPropertyOp43
 70
     1
102
RTVSPropertyOp44
 70
     1
102
RTVSPropertyOp45
 70
     1
102
RTVSPropertyOp46
 70
     1
102
RTVSPropertyOp47
 70
     1
102
RTVSPropertyOp48
 70
     1
102
RTVSPropertyOp49
 70
     1
102
RTVSPropertyOp50
 70
     1
102
RTVSPropertyOp51
 70
     0
102
RTVSPropertyOp52
 70
     0
102
RTVSPropertyOp53
 70
     1
102
RTVSPropertyOp54
 70
     1
102
RTVSPropertyOp55
 70
     1
102
RTVSPropertyOp56
 70
     1
102
RTVSPropertyOp57
 70
     1
102
RTVSPost2010Prop28
280
     0
102
RTVSPost2010PropOp28
 70
     1
102
RTVSPost2010Prop29
280
     1
102
RTVSPost2010PropOp29
 70
     1
102
RTVSPost2010Prop30
280
     1
102
RTVSPost2010PropOp30
 70
     1
102
RTVSPost2010Prop31
280
     0
102
RTVSPost2010PropOp31
 70
     1
102
RTVSPost2010Prop32
280
     0
102
RTVSPost2010PropOp32
 70
     1
102
RTVSPost2010Prop33
280
     0
102
RTVSPost2010PropOp33
 70
     1
102
RTVSPost2010Prop34
280
     0
102
RTVSPost2010PropOp34
 70
     1
102
RTVSPost2010Prop35
280
     0
102
RTVSPost2010PropOp35
 70
     1
102
RTVSPost2010Prop36
280
     0
102
RTVSPost2010PropOp36
 70
     1
102
RTVSPost2010Prop37
 90
       50
102
RTVSPost2010PropOp37
 70
     1
102
RTVSPost2010Prop38
140
0.0
102
RTVSPost2010PropOp38
 70
     1
102
RTVSPost2010Prop39
140
1.0
102
RTVSPost2010PropOp39
 70
     1
102
RTVSPost2010Prop40
 90
        0
102
RTVSPost2010PropOp40
 70
     1
102
RTVSPost2010Prop41ColorIndex
 90
       18
102
RTVSPost2010Prop41ColorRGB
 90
        0
102
RTVSPost2010PropOp41
 70
     1
102
RTVSPost2010Prop42
 90
       50
102
RTVSPost2010PropOp42
 70
     1
102
RTVSPost2010Prop43
 90
        3
102
RTVSPost2010PropOp43
 70
     1
102
RTVSPost2010Prop44ColorIndex
 90
        5
102
RTVSPost2010Prop44ColorRGB
 90
      255
102
RTVSPost2010PropOp44
 70
     1
102
RTVSPost2010Prop45
280
     0
102
RTVSPost2010PropOp45
 70
     1
102
RTVSPost2010Prop46
 90
       50
102
RTVSPost2010PropOp46
 70
     1
102
RTVSPost2010Prop47
 90
       50
102
RTVSPost2010PropOp47
 70
     1
102
RTVSPost2010Prop48
 90
       50
102
RTVSPost2010PropOp48
 70
     1
102
RTVSPost2010Prop49
280
     0
102
RTVSPost2010PropOp49
 70
     1
102
RTVSPost2010Prop50
 90
       50
102
RTVSPost2010PropOp50
 70
     1
102
RTVSPost2010Prop51ColorIndex
 90
      256
102
RTVSPost2010Prop51ColorRGB
 90
-16777216
102
RTVSPost2010PropOp51
 70
     0
102
RTVSPost2010Prop52
140
1.0
102
RTVSPost2010PropOp52
 70
     0
102
RTVSPost2010Prop53
 90
        2
102
RTVSPost2010PropOp53
 70
     1
102
RTVSPost2010Prop54
  1
strokes_ogs.tif
102
RTVSPost2010PropOp54
 70
     1
102
RTVSPost2010Prop55
280
     0
102
RTVSPost2010PropOp55
 70
     1
102
RTVSPost2010Prop56
140
1.0
102
RTVSPost2010PropOp56
 70
     1
102
RTVSPost2010Prop57
140
1.0
102
RTVSPost2010PropOp57
 70
     1
  0
XRECORD
  5
883A0
102
{ACAD_REACTORS
330
876B8
102
}
330
876B8
100
AcDbXrecord
280
     1
102
RTVSPropertyOp0
 70
     1
102
RTVSPropertyOp1
 70
     1
102
RTVSPropertyOp2
 70
     1
102
RTVSPropertyOp3
 70
     1
102
RTVSPropertyOp4
 70
     1
102
RTVSPropertyOp5
 70
     1
102
RTVSPropertyOp6
 70
     1
102
RTVSPropertyOp7
 70
     1
102
RTVSPropertyOp8
 70
     1
102
RTVSPropertyOp9
 70
     1
102
RTVSPropertyOp10
 70
     1
102
RTVSPropertyOp11
 70
     1
102
RTVSPropertyOp12
 70
     1
102
RTVSPropertyOp13
 70
     1
102
RTVSPropertyOp14
 70
     1
102
RTVSPropertyOp15
 70
     1
102
RTVSPropertyOp16
 70
     1
102
RTVSPropertyOp17
 70
     1
102
RTVSPropertyOp18
 70
     1
102
RTVSPropertyOp19
 70
     1
102
RTVSPropertyOp20
 70
     1
102
RTVSPropertyOp21
 70
     1
102
RTVSPropertyOp22
 70
     1
102
RTVSPropertyOp23
 70
     1
102
RTVSPropertyOp24
 70
     1
102
RTVSPropertyOp25
 70
     1
102
RTVSPropertyOp26
 70
     1
102
RTVSPropertyOp27
 70
     1
102
RTVSPropertyOp28
 70
     1
102
RTVSPropertyOp29
 70
     1
102
RTVSPropertyOp30
 70
     1
102
RTVSPropertyOp31
 70
     1
102
RTVSPropertyOp32
 70
     1
102
RTVSPropertyOp33
 70
     1
102
RTVSPropertyOp34
 70
     1
102
RTVSPropertyOp35
 70
     1
102
RTVSPropertyOp36
 70
     1
102
RTVSPropertyOp37
 70
     1
102
RTVSPropertyOp38
 70
     1
102
RTVSPropertyOp39
 70
     1
102
RTVSPropertyOp40
 70
     1
102
RTVSPropertyOp41
 70
     1
102
RTVSPropertyOp42
 70
     1
102
RTVSPropertyOp43
 70
     1
102
RTVSPropertyOp44
 70
     1
102
RTVSPropertyOp45
 70
     1
102
RTVSPropertyOp46
 70
     1
102
RTVSPropertyOp47
 70
     1
102
RTVSPropertyOp48
 70
     1
102
RTVSPropertyOp49
 70
     1
102
RTVSPropertyOp50
 70
     1
102
RTVSPropertyOp51
 70
     0
102
RTVSPropertyOp52
 70
     0
102
RTVSPropertyOp53
 70
     1
102
RTVSPropertyOp54
 70
     1
102
RTVSPropertyOp55
 70
     1
102
RTVSPropertyOp56
 70
     1
102
RTVSPropertyOp57
 70
     1
102
RTVSPost2010Prop28
280
     0
102
RTVSPost2010PropOp28
 70
     1
102
RTVSPost2010Prop29
280
     1
102
RTVSPost2010PropOp29
 70
     1
102
RTVSPost2010Prop30
280
     1
102
RTVSPost2010PropOp30
 70
     1
102
RTVSPost2010Prop31
280
     0
102
RTVSPost2010PropOp31
 70
     1
102
RTVSPost2010Prop32
280
     0
102
RTVSPost2010PropOp32
 70
     1
102
RTVSPost2010Prop33
280
     0
102
RTVSPost2010PropOp33
 70
     1
102
RTVSPost2010Prop34
280
     0
102
RTVSPost2010PropOp34
 70
     1
102
RTVSPost2010Prop35
280
     0
102
RTVSPost2010PropOp35
 70
     1
102
RTVSPost2010Prop36
280
     0
102
RTVSPost2010PropOp36
 70
     1
102
RTVSPost2010Prop37
 90
       50
102
RTVSPost2010PropOp37
 70
     1
102
RTVSPost2010Prop38
140
0.0
102
RTVSPost2010PropOp38
 70
     1
102
RTVSPost2010Prop39
140
1.0
102
RTVSPost2010PropOp39
 70
     1
102
RTVSPost2010Prop40
 90
        0
102
RTVSPost2010PropOp40
 70
     1
102
RTVSPost2010Prop41ColorIndex
 90
       18
102
RTVSPost2010Prop41ColorRGB
 90
        0
102
RTVSPost2010PropOp41
 70
     1
102
RTVSPost2010Prop42
 90
       50
102
RTVSPost2010PropOp42
 70
     1
102
RTVSPost2010Prop43
 90
        3
102
RTVSPost2010PropOp43
 70
     1
102
RTVSPost2010Prop44ColorIndex
 90
        5
102
RTVSPost2010Prop44ColorRGB
 90
      255
102
RTVSPost2010PropOp44
 70
     1
102
RTVSPost2010Prop45
280
     0
102
RTVSPost2010PropOp45
 70
     1
102
RTVSPost2010Prop46
 90
       50
102
RTVSPost2010PropOp46
 70
     1
102
RTVSPost2010Prop47
 90
       50
102
RTVSPost2010PropOp47
 70
     1
102
RTVSPost2010Prop48
 90
       50
102
RTVSPost2010PropOp48
 70
     1
102
RTVSPost2010Prop49
280
     0
102
RTVSPost2010PropOp49
 70
     1
102
RTVSPost2010Prop50
 90
       50
102
RTVSPost2010PropOp50
 70
     1
102
RTVSPost2010Prop51ColorIndex
 90
      256
102
RTVSPost2010Prop51ColorRGB
 90
-16777216
102
RTVSPost2010PropOp51
 70
     0
102
RTVSPost2010Prop52
140
1.0
102
RTVSPost2010PropOp52
 70
     0
102
RTVSPost2010Prop53
 90
        2
102
RTVSPost2010PropOp53
 70
     1
102
RTVSPost2010Prop54
  1
strokes_ogs.tif
102
RTVSPost2010PropOp54
 70
     1
102
RTVSPost2010Prop55
280
     0
102
RTVSPost2010PropOp55
 70
     1
102
RTVSPost2010Prop56
140
1.0
102
RTVSPost2010PropOp56
 70
     1
102
RTVSPost2010Prop57
140
1.0
102
RTVSPost2010PropOp57
 70
     1
  0
XRECORD
  5
883A1
102
{ACAD_REACTORS
330
876C0
102
}
330
876C0
100
AcDbXrecord
280
     1
102
RTVSPropertyOp0
 70
     1
102
RTVSPropertyOp1
 70
     1
102
RTVSPropertyOp2
 70
     1
102
RTVSPropertyOp3
 70
     1
102
RTVSPropertyOp4
 70
     1
102
RTVSPropertyOp5
 70
     1
102
RTVSPropertyOp6
 70
     1
102
RTVSPropertyOp7
 70
     1
102
RTVSPropertyOp8
 70
     1
102
RTVSPropertyOp9
 70
     1
102
RTVSPropertyOp10
 70
     1
102
RTVSPropertyOp11
 70
     1
102
RTVSPropertyOp12
 70
     1
102
RTVSPropertyOp13
 70
     1
102
RTVSPropertyOp14
 70
     1
102
RTVSPropertyOp15
 70
     1
102
RTVSPropertyOp16
 70
     1
102
RTVSPropertyOp17
 70
     1
102
RTVSPropertyOp18
 70
     1
102
RTVSPropertyOp19
 70
     1
102
RTVSPropertyOp20
 70
     1
102
RTVSPropertyOp21
 70
     1
102
RTVSPropertyOp22
 70
     1
102
RTVSPropertyOp23
 70
     1
102
RTVSPropertyOp24
 70
     1
102
RTVSPropertyOp25
 70
     1
102
RTVSPropertyOp26
 70
     1
102
RTVSPropertyOp27
 70
     1
102
RTVSPropertyOp28
 70
     1
102
RTVSPropertyOp29
 70
     1
102
RTVSPropertyOp30
 70
     1
102
RTVSPropertyOp31
 70
     1
102
RTVSPropertyOp32
 70
     1
102
RTVSPropertyOp33
 70
     1
102
RTVSPropertyOp34
 70
     1
102
RTVSPropertyOp35
 70
     1
102
RTVSPropertyOp36
 70
     1
102
RTVSPropertyOp37
 70
     1
102
RTVSPropertyOp38
 70
     1
102
RTVSPropertyOp39
 70
     1
102
RTVSPropertyOp40
 70
     1
102
RTVSPropertyOp41
 70
     1
102
RTVSPropertyOp42
 70
     1
102
RTVSPropertyOp43
 70
     1
102
RTVSPropertyOp44
 70
     1
102
RTVSPropertyOp45
 70
     1
102
RTVSPropertyOp46
 70
     1
102
RTVSPropertyOp47
 70
     1
102
RTVSPropertyOp48
 70
     1
102
RTVSPropertyOp49
 70
     1
102
RTVSPropertyOp50
 70
     1
102
RTVSPropertyOp51
 70
     0
102
RTVSPropertyOp52
 70
     0
102
RTVSPropertyOp53
 70
     1
102
RTVSPropertyOp54
 70
     1
102
RTVSPropertyOp55
 70
     1
102
RTVSPropertyOp56
 70
     1
102
RTVSPropertyOp57
 70
     1
102
RTVSPost2010Prop28
280
     0
102
RTVSPost2010PropOp28
 70
     1
102
RTVSPost2010Prop29
280
     1
102
RTVSPost2010PropOp29
 70
     1
102
RTVSPost2010Prop30
280
     1
102
RTVSPost2010PropOp30
 70
     1
102
RTVSPost2010Prop31
280
     0
102
RTVSPost2010PropOp31
 70
     1
102
RTVSPost2010Prop32
280
     0
102
RTVSPost2010PropOp32
 70
     1
102
RTVSPost2010Prop33
280
     0
102
RTVSPost2010PropOp33
 70
     1
102
RTVSPost2010Prop34
280
     0
102
RTVSPost2010PropOp34
 70
     1
102
RTVSPost2010Prop35
280
     0
102
RTVSPost2010PropOp35
 70
     1
102
RTVSPost2010Prop36
280
     0
102
RTVSPost2010PropOp36
 70
     1
102
RTVSPost2010Prop37
 90
       50
102
RTVSPost2010PropOp37
 70
     1
102
RTVSPost2010Prop38
140
0.0
102
RTVSPost2010PropOp38
 70
     1
102
RTVSPost2010Prop39
140
1.0
102
RTVSPost2010PropOp39
 70
     1
102
RTVSPost2010Prop40
 90
        0
102
RTVSPost2010PropOp40
 70
     1
102
RTVSPost2010Prop41ColorIndex
 90
       18
102
RTVSPost2010Prop41ColorRGB
 90
        0
102
RTVSPost2010PropOp41
 70
     1
102
RTVSPost2010Prop42
 90
       50
102
RTVSPost2010PropOp42
 70
     1
102
RTVSPost2010Prop43
 90
        3
102
RTVSPost2010PropOp43
 70
     1
102
RTVSPost2010Prop44ColorIndex
 90
        5
102
RTVSPost2010Prop44ColorRGB
 90
      255
102
RTVSPost2010PropOp44
 70
     1
102
RTVSPost2010Prop45
280
     0
102
RTVSPost2010PropOp45
 70
     1
102
RTVSPost2010Prop46
 90
       50
102
RTVSPost2010PropOp46
 70
     1
102
RTVSPost2010Prop47
 90
       50
102
RTVSPost2010PropOp47
 70
     1
102
RTVSPost2010Prop48
 90
       50
102
RTVSPost2010PropOp48
 70
     1
102
RTVSPost2010Prop49
280
     0
102
RTVSPost2010PropOp49
 70
     1
102
RTVSPost2010Prop50
 90
       50
102
RTVSPost2010PropOp50
 70
     1
102
RTVSPost2010Prop51ColorIndex
 90
      256
102
RTVSPost2010Prop51ColorRGB
 90
-16777216
102
RTVSPost2010PropOp51
 70
     0
102
RTVSPost2010Prop52
140
1.0
102
RTVSPost2010PropOp52
 70
     0
102
RTVSPost2010Prop53
 90
        2
102
RTVSPost2010PropOp53
 70
     1
102
RTVSPost2010Prop54
  1
strokes_ogs.tif
102
RTVSPost2010PropOp54
 70
     1
102
RTVSPost2010Prop55
280
     0
102
RTVSPost2010PropOp55
 70
     1
102
RTVSPost2010Prop56
140
1.0
102
RTVSPost2010PropOp56
 70
     1
102
RTVSPost2010Prop57
140
1.0
102
RTVSPost2010PropOp57
 70
     1
  0
XRECORD
  5
883A2
102
{ACAD_REACTORS
330
876B2
102
}
330
876B2
100
AcDbXrecord
280
     1
102
RTVSPropertyOp0
 70
     1
102
RTVSPropertyOp1
 70
     1
102
RTVSPropertyOp2
 70
     1
102
RTVSPropertyOp3
 70
     1
102
RTVSPropertyOp4
 70
     1
102
RTVSPropertyOp5
 70
     1
102
RTVSPropertyOp6
 70
     1
102
RTVSPropertyOp7
 70
     1
102
RTVSPropertyOp8
 70
     1
102
RTVSPropertyOp9
 70
     1
102
RTVSPropertyOp10
 70
     1
102
RTVSPropertyOp11
 70
     1
102
RTVSPropertyOp12
 70
     1
102
RTVSPropertyOp13
 70
     1
102
RTVSPropertyOp14
 70
     1
102
RTVSPropertyOp15
 70
     1
102
RTVSPropertyOp16
 70
     1
102
RTVSPropertyOp17
 70
     1
102
RTVSPropertyOp18
 70
     1
102
RTVSPropertyOp19
 70
     1
102
RTVSPropertyOp20
 70
     1
102
RTVSPropertyOp21
 70
     1
102
RTVSPropertyOp22
 70
     1
102
RTVSPropertyOp23
 70
     1
102
RTVSPropertyOp24
 70
     1
102
RTVSPropertyOp25
 70
     1
102
RTVSPropertyOp26
 70
     1
102
RTVSPropertyOp27
 70
     1
102
RTVSPropertyOp28
 70
     1
102
RTVSPropertyOp29
 70
     1
102
RTVSPropertyOp30
 70
     1
102
RTVSPropertyOp31
 70
     1
102
RTVSPropertyOp32
 70
     1
102
RTVSPropertyOp33
 70
     1
102
RTVSPropertyOp34
 70
     1
102
RTVSPropertyOp35
 70
     1
102
RTVSPropertyOp36
 70
     1
102
RTVSPropertyOp37
 70
     1
102
RTVSPropertyOp38
 70
     1
102
RTVSPropertyOp39
 70
     1
102
RTVSPropertyOp40
 70
     1
102
RTVSPropertyOp41
 70
     1
102
RTVSPropertyOp42
 70
     1
102
RTVSPropertyOp43
 70
     1
102
RTVSPropertyOp44
 70
     1
102
RTVSPropertyOp45
 70
     1
102
RTVSPropertyOp46
 70
     1
102
RTVSPropertyOp47
 70
     1
102
RTVSPropertyOp48
 70
     1
102
RTVSPropertyOp49
 70
     1
102
RTVSPropertyOp50
 70
     1
102
RTVSPropertyOp51
 70
     0
102
RTVSPropertyOp52
 70
     0
102
RTVSPropertyOp53
 70
     1
102
RTVSPropertyOp54
 70
     1
102
RTVSPropertyOp55
 70
     1
102
RTVSPropertyOp56
 70
     1
102
RTVSPropertyOp57
 70
     1
102
RTVSPost2010Prop28
280
     0
102
RTVSPost2010PropOp28
 70
     1
102
RTVSPost2010Prop29
280
     1
102
RTVSPost2010PropOp29
 70
     1
102
RTVSPost2010Prop30
280
     1
102
RTVSPost2010PropOp30
 70
     1
102
RTVSPost2010Prop31
280
     0
102
RTVSPost2010PropOp31
 70
     1
102
RTVSPost2010Prop32
280
     0
102
RTVSPost2010PropOp32
 70
     1
102
RTVSPost2010Prop33
280
     0
102
RTVSPost2010PropOp33
 70
     1
102
RTVSPost2010Prop34
280
     0
102
RTVSPost2010PropOp34
 70
     1
102
RTVSPost2010Prop35
280
     0
102
RTVSPost2010PropOp35
 70
     1
102
RTVSPost2010Prop36
280
     0
102
RTVSPost2010PropOp36
 70
     1
102
RTVSPost2010Prop37
 90
       50
102
RTVSPost2010PropOp37
 70
     1
102
RTVSPost2010Prop38
140
0.0
102
RTVSPost2010PropOp38
 70
     1
102
RTVSPost2010Prop39
140
1.0
102
RTVSPost2010PropOp39
 70
     1
102
RTVSPost2010Prop40
 90
        0
102
RTVSPost2010PropOp40
 70
     1
102
RTVSPost2010Prop41ColorIndex
 90
       18
102
RTVSPost2010Prop41ColorRGB
 90
        0
102
RTVSPost2010PropOp41
 70
     1
102
RTVSPost2010Prop42
 90
       50
102
RTVSPost2010PropOp42
 70
     1
102
RTVSPost2010Prop43
 90
        3
102
RTVSPost2010PropOp43
 70
     1
102
RTVSPost2010Prop44ColorIndex
 90
        5
102
RTVSPost2010Prop44ColorRGB
 90
      255
102
RTVSPost2010PropOp44
 70
     1
102
RTVSPost2010Prop45
280
     0
102
RTVSPost2010PropOp45
 70
     1
102
RTVSPost2010Prop46
 90
       50
102
RTVSPost2010PropOp46
 70
     1
102
RTVSPost2010Prop47
 90
       50
102
RTVSPost2010PropOp47
 70
     1
102
RTVSPost2010Prop48
 90
       50
102
RTVSPost2010PropOp48
 70
     1
102
RTVSPost2010Prop49
280
     0
102
RTVSPost2010PropOp49
 70
     1
102
RTVSPost2010Prop50
 90
       50
102
RTVSPost2010PropOp50
 70
     1
102
RTVSPost2010Prop51ColorIndex
 90
      256
102
RTVSPost2010Prop51ColorRGB
 90
-16777216
102
RTVSPost2010PropOp51
 70
     0
102
RTVSPost2010Prop52
140
1.0
102
RTVSPost2010PropOp52
 70
     0
102
RTVSPost2010Prop53
 90
        2
102
RTVSPost2010PropOp53
 70
     1
102
RTVSPost2010Prop54
  1
strokes_ogs.tif
102
RTVSPost2010PropOp54
 70
     1
102
RTVSPost2010Prop55
280
     0
102
RTVSPost2010PropOp55
 70
     1
102
RTVSPost2010Prop56
140
1.0
102
RTVSPost2010PropOp56
 70
     1
102
RTVSPost2010Prop57
140
1.0
102
RTVSPost2010PropOp57
 70
     1
  0
XRECORD
  5
883A3
102
{ACAD_REACTORS
330
876B6
102
}
330
876B6
100
AcDbXrecord
280
     1
102
RTVSPropertyOp0
 70
     1
102
RTVSPropertyOp1
 70
     1
102
RTVSPropertyOp2
 70
     1
102
RTVSPropertyOp3
 70
     1
102
RTVSPropertyOp4
 70
     1
102
RTVSPropertyOp5
 70
     1
102
RTVSPropertyOp6
 70
     1
102
RTVSPropertyOp7
 70
     1
102
RTVSPropertyOp8
 70
     1
102
RTVSPropertyOp9
 70
     1
102
RTVSPropertyOp10
 70
     1
102
RTVSPropertyOp11
 70
     1
102
RTVSPropertyOp12
 70
     1
102
RTVSPropertyOp13
 70
     1
102
RTVSPropertyOp14
 70
     1
102
RTVSPropertyOp15
 70
     1
102
RTVSPropertyOp16
 70
     1
102
RTVSPropertyOp17
 70
     1
102
RTVSPropertyOp18
 70
     1
102
RTVSPropertyOp19
 70
     1
102
RTVSPropertyOp20
 70
     1
102
RTVSPropertyOp21
 70
     1
102
RTVSPropertyOp22
 70
     1
102
RTVSPropertyOp23
 70
     1
102
RTVSPropertyOp24
 70
     1
102
RTVSPropertyOp25
 70
     1
102
RTVSPropertyOp26
 70
     1
102
RTVSPropertyOp27
 70
     1
102
RTVSPropertyOp28
 70
     1
102
RTVSPropertyOp29
 70
     1
102
RTVSPropertyOp30
 70
     1
102
RTVSPropertyOp31
 70
     1
102
RTVSPropertyOp32
 70
     1
102
RTVSPropertyOp33
 70
     1
102
RTVSPropertyOp34
 70
     1
102
RTVSPropertyOp35
 70
     1
102
RTVSPropertyOp36
 70
     1
102
RTVSPropertyOp37
 70
     1
102
RTVSPropertyOp38
 70
     1
102
RTVSPropertyOp39
 70
     1
102
RTVSPropertyOp40
 70
     1
102
RTVSPropertyOp41
 70
     1
102
RTVSPropertyOp42
 70
     1
102
RTVSPropertyOp43
 70
     1
102
RTVSPropertyOp44
 70
     1
102
RTVSPropertyOp45
 70
     1
102
RTVSPropertyOp46
 70
     1
102
RTVSPropertyOp47
 70
     1
102
RTVSPropertyOp48
 70
     1
102
RTVSPropertyOp49
 70
     1
102
RTVSPropertyOp50
 70
     1
102
RTVSPropertyOp51
 70
     0
102
RTVSPropertyOp52
 70
     0
102
RTVSPropertyOp53
 70
     1
102
RTVSPropertyOp54
 70
     1
102
RTVSPropertyOp55
 70
     1
102
RTVSPropertyOp56
 70
     1
102
RTVSPropertyOp57
 70
     1
102
RTVSPost2010Prop28
280
     0
102
RTVSPost2010PropOp28
 70
     1
102
RTVSPost2010Prop29
280
     1
102
RTVSPost2010PropOp29
 70
     1
102
RTVSPost2010Prop30
280
     1
102
RTVSPost2010PropOp30
 70
     1
102
RTVSPost2010Prop31
280
     0
102
RTVSPost2010PropOp31
 70
     1
102
RTVSPost2010Prop32
280
     0
102
RTVSPost2010PropOp32
 70
     1
102
RTVSPost2010Prop33
280
     0
102
RTVSPost2010PropOp33
 70
     1
102
RTVSPost2010Prop34
280
     0
102
RTVSPost2010PropOp34
 70
     1
102
RTVSPost2010Prop35
280
     0
102
RTVSPost2010PropOp35
 70
     1
102
RTVSPost2010Prop36
280
     0
102
RTVSPost2010PropOp36
 70
     1
102
RTVSPost2010Prop37
 90
       50
102
RTVSPost2010PropOp37
 70
     1
102
RTVSPost2010Prop38
140
0.0
102
RTVSPost2010PropOp38
 70
     1
102
RTVSPost2010Prop39
140
1.0
102
RTVSPost2010PropOp39
 70
     1
102
RTVSPost2010Prop40
 90
        0
102
RTVSPost2010PropOp40
 70
     1
102
RTVSPost2010Prop41ColorIndex
 90
       18
102
RTVSPost2010Prop41ColorRGB
 90
        0
102
RTVSPost2010PropOp41
 70
     1
102
RTVSPost2010Prop42
 90
       50
102
RTVSPost2010PropOp42
 70
     1
102
RTVSPost2010Prop43
 90
        3
102
RTVSPost2010PropOp43
 70
     1
102
RTVSPost2010Prop44ColorIndex
 90
        5
102
RTVSPost2010Prop44ColorRGB
 90
      255
102
RTVSPost2010PropOp44
 70
     1
102
RTVSPost2010Prop45
280
     0
102
RTVSPost2010PropOp45
 70
     1
102
RTVSPost2010Prop46
 90
       50
102
RTVSPost2010PropOp46
 70
     1
102
RTVSPost2010Prop47
 90
       50
102
RTVSPost2010PropOp47
 70
     1
102
RTVSPost2010Prop48
 90
       50
102
RTVSPost2010PropOp48
 70
     1
102
RTVSPost2010Prop49
280
     0
102
RTVSPost2010PropOp49
 70
     1
102
RTVSPost2010Prop50
 90
       50
102
RTVSPost2010PropOp50
 70
     1
102
RTVSPost2010Prop51ColorIndex
 90
      256
102
RTVSPost2010Prop51ColorRGB
 90
-16777216
102
RTVSPost2010PropOp51
 70
     0
102
RTVSPost2010Prop52
140
1.0
102
RTVSPost2010PropOp52
 70
     0
102
RTVSPost2010Prop53
 90
        2
102
RTVSPost2010PropOp53
 70
     1
102
RTVSPost2010Prop54
  1
strokes_ogs.tif
102
RTVSPost2010PropOp54
 70
     1
102
RTVSPost2010Prop55
280
     0
102
RTVSPost2010PropOp55
 70
     1
102
RTVSPost2010Prop56
140
1.0
102
RTVSPost2010PropOp56
 70
     1
102
RTVSPost2010Prop57
140
1.0
102
RTVSPost2010PropOp57
 70
     1
  0
XRECORD
  5
883A4
102
{ACAD_REACTORS
330
876D0
102
}
330
876D0
100
AcDbXrecord
280
     1
102
RTVSPropertyOp0
 70
     0
102
RTVSPropertyOp1
 70
     0
102
RTVSPropertyOp2
 70
     0
102
RTVSPropertyOp3
 70
     0
102
RTVSPropertyOp4
 70
     0
102
RTVSPropertyOp5
 70
     0
102
RTVSPropertyOp6
 70
     0
102
RTVSPropertyOp7
 70
     0
102
RTVSPropertyOp8
 70
     0
102
RTVSPropertyOp9
 70
     0
102
RTVSPropertyOp10
 70
     0
102
RTVSPropertyOp11
 70
     0
102
RTVSPropertyOp12
 70
     0
102
RTVSPropertyOp13
 70
     0
102
RTVSPropertyOp14
 70
     2
102
RTVSPropertyOp15
 70
     0
102
RTVSPropertyOp16
 70
     0
102
RTVSPropertyOp17
 70
     0
102
RTVSPropertyOp18
 70
     0
102
RTVSPropertyOp19
 70
     0
102
RTVSPropertyOp20
 70
     0
102
RTVSPropertyOp21
 70
     0
102
RTVSPropertyOp22
 70
     0
102
RTVSPropertyOp23
 70
     0
102
RTVSPropertyOp24
 70
     0
102
RTVSPropertyOp25
 70
     0
102
RTVSPropertyOp26
 70
     0
102
RTVSPropertyOp27
 70
     0
102
RTVSPropertyOp28
 70
     1
102
RTVSPropertyOp29
 70
     1
102
RTVSPropertyOp30
 70
     1
102
RTVSPropertyOp31
 70
     1
102
RTVSPropertyOp32
 70
     1
102
RTVSPropertyOp33
 70
     1
102
RTVSPropertyOp34
 70
     1
102
RTVSPropertyOp35
 70
     1
102
RTVSPropertyOp36
 70
     1
102
RTVSPropertyOp37
 70
     0
102
RTVSPropertyOp38
 70
     0
102
RTVSPropertyOp39
 70
     0
102
RTVSPropertyOp40
 70
     0
102
RTVSPropertyOp41
 70
     0
102
RTVSPropertyOp42
 70
     0
102
RTVSPropertyOp43
 70
     0
102
RTVSPropertyOp44
 70
     0
102
RTVSPropertyOp45
 70
     1
102
RTVSPropertyOp46
 70
     0
102
RTVSPropertyOp47
 70
     0
102
RTVSPropertyOp48
 70
     0
102
RTVSPropertyOp49
 70
     1
102
RTVSPropertyOp50
 70
     0
102
RTVSPropertyOp51
 70
     0
102
RTVSPropertyOp52
 70
     0
102
RTVSPropertyOp53
 70
     0
102
RTVSPropertyOp54
 70
     0
102
RTVSPropertyOp55
 70
     1
102
RTVSPropertyOp56
 70
     0
102
RTVSPropertyOp57
 70
     0
102
RTVSPost2010Prop28
280
     0
102
RTVSPost2010PropOp28
 70
     1
102
RTVSPost2010Prop29
280
     1
102
RTVSPost2010PropOp29
 70
     1
102
RTVSPost2010Prop30
280
     1
102
RTVSPost2010PropOp30
 70
     1
102
RTVSPost2010Prop31
280
     0
102
RTVSPost2010PropOp31
 70
     1
102
RTVSPost2010Prop32
280
     0
102
RTVSPost2010PropOp32
 70
     1
102
RTVSPost2010Prop33
280
     0
102
RTVSPost2010PropOp33
 70
     1
102
RTVSPost2010Prop34
280
     0
102
RTVSPost2010PropOp34
 70
     1
102
RTVSPost2010Prop35
280
     0
102
RTVSPost2010PropOp35
 70
     1
102
RTVSPost2010Prop36
280
     0
102
RTVSPost2010PropOp36
 70
     1
102
RTVSPost2010Prop37
 90
       50
102
RTVSPost2010PropOp37
 70
     0
102
RTVSPost2010Prop38
140
0.0
102
RTVSPost2010PropOp38
 70
     0
102
RTVSPost2010Prop39
140
1.0
102
RTVSPost2010PropOp39
 70
     0
102
RTVSPost2010Prop40
 90
        0
102
RTVSPost2010PropOp40
 70
     0
102
RTVSPost2010Prop41ColorIndex
 90
       18
102
RTVSPost2010Prop41ColorRGB
 90
        0
102
RTVSPost2010PropOp41
 70
     0
102
RTVSPost2010Prop42
 90
       50
102
RTVSPost2010PropOp42
 70
     0
102
RTVSPost2010Prop43
 90
        3
102
RTVSPost2010PropOp43
 70
     0
102
RTVSPost2010Prop44ColorIndex
 90
        5
102
RTVSPost2010Prop44ColorRGB
 90
      255
102
RTVSPost2010PropOp44
 70
     0
102
RTVSPost2010Prop45
280
     0
102
RTVSPost2010PropOp45
 70
     1
102
RTVSPost2010Prop46
 90
       50
102
RTVSPost2010PropOp46
 70
     0
102
RTVSPost2010Prop47
 90
       50
102
RTVSPost2010PropOp47
 70
     0
102
RTVSPost2010Prop48
 90
       50
102
RTVSPost2010PropOp48
 70
     0
102
RTVSPost2010Prop49
280
     0
102
RTVSPost2010PropOp49
 70
     1
102
RTVSPost2010Prop50
 90
       50
102
RTVSPost2010PropOp50
 70
     0
102
RTVSPost2010Prop51ColorIndex
 90
      256
102
RTVSPost2010Prop51ColorRGB
 90
-16777216
102
RTVSPost2010PropOp51
 70
     0
102
RTVSPost2010Prop52
140
1.0
102
RTVSPost2010PropOp52
 70
     0
102
RTVSPost2010Prop53
 90
        2
102
RTVSPost2010PropOp53
 70
     0
102
RTVSPost2010Prop54
  1
strokes_ogs.tif
102
RTVSPost2010PropOp54
 70
     0
102
RTVSPost2010Prop55
280
     0
102
RTVSPost2010PropOp55
 70
     1
102
RTVSPost2010Prop56
140
1.0
102
RTVSPost2010PropOp56
 70
     0
102
RTVSPost2010Prop57
140
1.0
102
RTVSPost2010PropOp57
 70
     0
  0
XRECORD
  5
883A5
102
{ACAD_REACTORS
330
876BE
102
}
330
876BE
100
AcDbXrecord
280
     1
102
RTVSPropertyOp0
 70
     1
102
RTVSPropertyOp1
 70
     1
102
RTVSPropertyOp2
 70
     1
102
RTVSPropertyOp3
 70
     1
102
RTVSPropertyOp4
 70
     1
102
RTVSPropertyOp5
 70
     1
102
RTVSPropertyOp6
 70
     1
102
RTVSPropertyOp7
 70
     1
102
RTVSPropertyOp8
 70
     1
102
RTVSPropertyOp9
 70
     1
102
RTVSPropertyOp10
 70
     1
102
RTVSPropertyOp11
 70
     1
102
RTVSPropertyOp12
 70
     1
102
RTVSPropertyOp13
 70
     1
102
RTVSPropertyOp14
 70
     1
102
RTVSPropertyOp15
 70
     1
102
RTVSPropertyOp16
 70
     1
102
RTVSPropertyOp17
 70
     1
102
RTVSPropertyOp18
 70
     1
102
RTVSPropertyOp19
 70
     1
102
RTVSPropertyOp20
 70
     1
102
RTVSPropertyOp21
 70
     1
102
RTVSPropertyOp22
 70
     1
102
RTVSPropertyOp23
 70
     1
102
RTVSPropertyOp24
 70
     1
102
RTVSPropertyOp25
 70
     1
102
RTVSPropertyOp26
 70
     1
102
RTVSPropertyOp27
 70
     1
102
RTVSPropertyOp28
 70
     1
102
RTVSPropertyOp29
 70
     1
102
RTVSPropertyOp30
 70
     1
102
RTVSPropertyOp31
 70
     1
102
RTVSPropertyOp32
 70
     1
102
RTVSPropertyOp33
 70
     1
102
RTVSPropertyOp34
 70
     1
102
RTVSPropertyOp35
 70
     1
102
RTVSPropertyOp36
 70
     1
102
RTVSPropertyOp37
 70
     1
102
RTVSPropertyOp38
 70
     1
102
RTVSPropertyOp39
 70
     1
102
RTVSPropertyOp40
 70
     1
102
RTVSPropertyOp41
 70
     1
102
RTVSPropertyOp42
 70
     1
102
RTVSPropertyOp43
 70
     1
102
RTVSPropertyOp44
 70
     1
102
RTVSPropertyOp45
 70
     1
102
RTVSPropertyOp46
 70
     1
102
RTVSPropertyOp47
 70
     1
102
RTVSPropertyOp48
 70
     1
102
RTVSPropertyOp49
 70
     1
102
RTVSPropertyOp50
 70
     1
102
RTVSPropertyOp51
 70
     0
102
RTVSPropertyOp52
 70
     0
102
RTVSPropertyOp53
 70
     1
102
RTVSPropertyOp54
 70
     1
102
RTVSPropertyOp55
 70
     1
102
RTVSPropertyOp56
 70
     1
102
RTVSPropertyOp57
 70
     1
102
RTVSPost2010Prop28
280
     0
102
RTVSPost2010PropOp28
 70
     1
102
RTVSPost2010Prop29
280
     1
102
RTVSPost2010PropOp29
 70
     1
102
RTVSPost2010Prop30
280
     1
102
RTVSPost2010PropOp30
 70
     1
102
RTVSPost2010Prop31
280
     0
102
RTVSPost2010PropOp31
 70
     1
102
RTVSPost2010Prop32
280
     0
102
RTVSPost2010PropOp32
 70
     1
102
RTVSPost2010Prop33
280
     0
102
RTVSPost2010PropOp33
 70
     1
102
RTVSPost2010Prop34
280
     0
102
RTVSPost2010PropOp34
 70
     1
102
RTVSPost2010Prop35
280
     0
102
RTVSPost2010PropOp35
 70
     1
102
RTVSPost2010Prop36
280
     0
102
RTVSPost2010PropOp36
 70
     1
102
RTVSPost2010Prop37
 90
       50
102
RTVSPost2010PropOp37
 70
     1
102
RTVSPost2010Prop38
140
0.0
102
RTVSPost2010PropOp38
 70
     1
102
RTVSPost2010Prop39
140
1.0
102
RTVSPost2010PropOp39
 70
     1
102
RTVSPost2010Prop40
 90
        0
102
RTVSPost2010PropOp40
 70
     1
102
RTVSPost2010Prop41ColorIndex
 90
       18
102
RTVSPost2010Prop41ColorRGB
 90
        0
102
RTVSPost2010PropOp41
 70
     1
102
RTVSPost2010Prop42
 90
       50
102
RTVSPost2010PropOp42
 70
     1
102
RTVSPost2010Prop43
 90
        3
102
RTVSPost2010PropOp43
 70
     1
102
RTVSPost2010Prop44ColorIndex
 90
        5
102
RTVSPost2010Prop44ColorRGB
 90
      255
102
RTVSPost2010PropOp44
 70
     1
102
RTVSPost2010Prop45
280
     0
102
RTVSPost2010PropOp45
 70
     1
102
RTVSPost2010Prop46
 90
       50
102
RTVSPost2010PropOp46
 70
     1
102
RTVSPost2010Prop47
 90
       50
102
RTVSPost2010PropOp47
 70
     1
102
RTVSPost2010Prop48
 90
       50
102
RTVSPost2010PropOp48
 70
     1
102
RTVSPost2010Prop49
280
     0
102
RTVSPost2010PropOp49
 70
     1
102
RTVSPost2010Prop50
 90
       50
102
RTVSPost2010PropOp50
 70
     1
102
RTVSPost2010Prop51ColorIndex
 90
      256
102
RTVSPost2010Prop51ColorRGB
 90
-16777216
102
RTVSPost2010PropOp51
 70
     0
102
RTVSPost2010Prop52
140
1.0
102
RTVSPost2010PropOp52
 70
     0
102
RTVSPost2010Prop53
 90
        2
102
RTVSPost2010PropOp53
 70
     1
102
RTVSPost2010Prop54
  1
strokes_ogs.tif
102
RTVSPost2010PropOp54
 70
     1
102
RTVSPost2010Prop55
280
     0
102
RTVSPost2010PropOp55
 70
     1
102
RTVSPost2010Prop56
140
1.0
102
RTVSPost2010PropOp56
 70
     1
102
RTVSPost2010Prop57
140
1.0
102
RTVSPost2010PropOp57
 70
     1
  0
XRECORD
  5
883A6
102
{ACAD_REACTORS
330
876A2
102
}
330
876A2
100
AcDbXrecord
280
     1
102
RTVSPropertyOp0
 70
     1
102
RTVSPropertyOp1
 70
     1
102
RTVSPropertyOp2
 70
     1
102
RTVSPropertyOp3
 70
     1
102
RTVSPropertyOp4
 70
     1
102
RTVSPropertyOp5
 70
     1
102
RTVSPropertyOp6
 70
     1
102
RTVSPropertyOp7
 70
     1
102
RTVSPropertyOp8
 70
     1
102
RTVSPropertyOp9
 70
     1
102
RTVSPropertyOp10
 70
     1
102
RTVSPropertyOp11
 70
     1
102
RTVSPropertyOp12
 70
     1
102
RTVSPropertyOp13
 70
     1
102
RTVSPropertyOp14
 70
     1
102
RTVSPropertyOp15
 70
     1
102
RTVSPropertyOp16
 70
     1
102
RTVSPropertyOp17
 70
     1
102
RTVSPropertyOp18
 70
     1
102
RTVSPropertyOp19
 70
     1
102
RTVSPropertyOp20
 70
     1
102
RTVSPropertyOp21
 70
     1
102
RTVSPropertyOp22
 70
     1
102
RTVSPropertyOp23
 70
     1
102
RTVSPropertyOp24
 70
     1
102
RTVSPropertyOp25
 70
     1
102
RTVSPropertyOp26
 70
     1
102
RTVSPropertyOp27
 70
     1
102
RTVSPropertyOp28
 70
     1
102
RTVSPropertyOp29
 70
     1
102
RTVSPropertyOp30
 70
     1
102
RTVSPropertyOp31
 70
     1
102
RTVSPropertyOp32
 70
     1
102
RTVSPropertyOp33
 70
     1
102
RTVSPropertyOp34
 70
     1
102
RTVSPropertyOp35
 70
     1
102
RTVSPropertyOp36
 70
     1
102
RTVSPropertyOp37
 70
     1
102
RTVSPropertyOp38
 70
     1
102
RTVSPropertyOp39
 70
     1
102
RTVSPropertyOp40
 70
     1
102
RTVSPropertyOp41
 70
     1
102
RTVSPropertyOp42
 70
     1
102
RTVSPropertyOp43
 70
     1
102
RTVSPropertyOp44
 70
     1
102
RTVSPropertyOp45
 70
     1
102
RTVSPropertyOp46
 70
     1
102
RTVSPropertyOp47
 70
     1
102
RTVSPropertyOp48
 70
     1
102
RTVSPropertyOp49
 70
     1
102
RTVSPropertyOp50
 70
     1
102
RTVSPropertyOp51
 70
     0
102
RTVSPropertyOp52
 70
     0
102
RTVSPropertyOp53
 70
     1
102
RTVSPropertyOp54
 70
     1
102
RTVSPropertyOp55
 70
     1
102
RTVSPropertyOp56
 70
     1
102
RTVSPropertyOp57
 70
     1
102
RTVSPost2010Prop28
280
     0
102
RTVSPost2010PropOp28
 70
     1
102
RTVSPost2010Prop29
280
     1
102
RTVSPost2010PropOp29
 70
     1
102
RTVSPost2010Prop30
280
     1
102
RTVSPost2010PropOp30
 70
     1
102
RTVSPost2010Prop31
280
     0
102
RTVSPost2010PropOp31
 70
     1
102
RTVSPost2010Prop32
280
     0
102
RTVSPost2010PropOp32
 70
     1
102
RTVSPost2010Prop33
280
     0
102
RTVSPost2010PropOp33
 70
     1
102
RTVSPost2010Prop34
280
     0
102
RTVSPost2010PropOp34
 70
     1
102
RTVSPost2010Prop35
280
     0
102
RTVSPost2010PropOp35
 70
     1
102
RTVSPost2010Prop36
280
     0
102
RTVSPost2010PropOp36
 70
     1
102
RTVSPost2010Prop37
 90
       50
102
RTVSPost2010PropOp37
 70
     1
102
RTVSPost2010Prop38
140
0.0
102
RTVSPost2010PropOp38
 70
     1
102
RTVSPost2010Prop39
140
1.0
102
RTVSPost2010PropOp39
 70
     1
102
RTVSPost2010Prop40
 90
        0
102
RTVSPost2010PropOp40
 70
     1
102
RTVSPost2010Prop41ColorIndex
 90
       18
102
RTVSPost2010Prop41ColorRGB
 90
        0
102
RTVSPost2010PropOp41
 70
     1
102
RTVSPost2010Prop42
 90
       50
102
RTVSPost2010PropOp42
 70
     1
102
RTVSPost2010Prop43
 90
        3
102
RTVSPost2010PropOp43
 70
     1
102
RTVSPost2010Prop44ColorIndex
 90
        5
102
RTVSPost2010Prop44ColorRGB
 90
      255
102
RTVSPost2010PropOp44
 70
     1
102
RTVSPost2010Prop45
280
     0
102
RTVSPost2010PropOp45
 70
     1
102
RTVSPost2010Prop46
 90
       50
102
RTVSPost2010PropOp46
 70
     1
102
RTVSPost2010Prop47
 90
       50
102
RTVSPost2010PropOp47
 70
     1
102
RTVSPost2010Prop48
 90
       50
102
RTVSPost2010PropOp48
 70
     1
102
RTVSPost2010Prop49
280
     0
102
RTVSPost2010PropOp49
 70
     1
102
RTVSPost2010Prop50
 90
       50
102
RTVSPost2010PropOp50
 70
     1
102
RTVSPost2010Prop51ColorIndex
 90
      256
102
RTVSPost2010Prop51ColorRGB
 90
-16777216
102
RTVSPost2010PropOp51
 70
     0
102
RTVSPost2010Prop52
140
1.0
102
RTVSPost2010PropOp52
 70
     0
102
RTVSPost2010Prop53
 90
        2
102
RTVSPost2010PropOp53
 70
     1
102
RTVSPost2010Prop54
  1
strokes_ogs.tif
102
RTVSPost2010PropOp54
 70
     1
102
RTVSPost2010Prop55
280
     0
102
RTVSPost2010PropOp55
 70
     1
102
RTVSPost2010Prop56
140
1.0
102
RTVSPost2010PropOp56
 70
     1
102
RTVSPost2010Prop57
140
1.0
102
RTVSPost2010PropOp57
 70
     1
  0
XRECORD
  5
883A7
102
{ACAD_REACTORS
330
876A4
102
}
330
876A4
100
AcDbXrecord
280
     1
102
RTVSPropertyOp0
 70
     1
102
RTVSPropertyOp1
 70
     1
102
RTVSPropertyOp2
 70
     1
102
RTVSPropertyOp3
 70
     1
102
RTVSPropertyOp4
 70
     1
102
RTVSPropertyOp5
 70
     1
102
RTVSPropertyOp6
 70
     1
102
RTVSPropertyOp7
 70
     1
102
RTVSPropertyOp8
 70
     1
102
RTVSPropertyOp9
 70
     1
102
RTVSPropertyOp10
 70
     1
102
RTVSPropertyOp11
 70
     1
102
RTVSPropertyOp12
 70
     1
102
RTVSPropertyOp13
 70
     1
102
RTVSPropertyOp14
 70
     1
102
RTVSPropertyOp15
 70
     1
102
RTVSPropertyOp16
 70
     1
102
RTVSPropertyOp17
 70
     1
102
RTVSPropertyOp18
 70
     1
102
RTVSPropertyOp19
 70
     1
102
RTVSPropertyOp20
 70
     1
102
RTVSPropertyOp21
 70
     1
102
RTVSPropertyOp22
 70
     1
102
RTVSPropertyOp23
 70
     1
102
RTVSPropertyOp24
 70
     1
102
RTVSPropertyOp25
 70
     1
102
RTVSPropertyOp26
 70
     1
102
RTVSPropertyOp27
 70
     1
102
RTVSPropertyOp28
 70
     1
102
RTVSPropertyOp29
 70
     1
102
RTVSPropertyOp30
 70
     1
102
RTVSPropertyOp31
 70
     1
102
RTVSPropertyOp32
 70
     1
102
RTVSPropertyOp33
 70
     1
102
RTVSPropertyOp34
 70
     1
102
RTVSPropertyOp35
 70
     1
102
RTVSPropertyOp36
 70
     1
102
RTVSPropertyOp37
 70
     1
102
RTVSPropertyOp38
 70
     1
102
RTVSPropertyOp39
 70
     1
102
RTVSPropertyOp40
 70
     1
102
RTVSPropertyOp41
 70
     1
102
RTVSPropertyOp42
 70
     1
102
RTVSPropertyOp43
 70
     1
102
RTVSPropertyOp44
 70
     1
102
RTVSPropertyOp45
 70
     1
102
RTVSPropertyOp46
 70
     1
102
RTVSPropertyOp47
 70
     1
102
RTVSPropertyOp48
 70
     1
102
RTVSPropertyOp49
 70
     1
102
RTVSPropertyOp50
 70
     1
102
RTVSPropertyOp51
 70
     0
102
RTVSPropertyOp52
 70
     0
102
RTVSPropertyOp53
 70
     1
102
RTVSPropertyOp54
 70
     1
102
RTVSPropertyOp55
 70
     1
102
RTVSPropertyOp56
 70
     1
102
RTVSPropertyOp57
 70
     1
102
RTVSPost2010Prop28
280
     0
102
RTVSPost2010PropOp28
 70
     1
102
RTVSPost2010Prop29
280
     1
102
RTVSPost2010PropOp29
 70
     1
102
RTVSPost2010Prop30
280
     1
102
RTVSPost2010PropOp30
 70
     1
102
RTVSPost2010Prop31
280
     0
102
RTVSPost2010PropOp31
 70
     1
102
RTVSPost2010Prop32
280
     0
102
RTVSPost2010PropOp32
 70
     1
102
RTVSPost2010Prop33
280
     0
102
RTVSPost2010PropOp33
 70
     1
102
RTVSPost2010Prop34
280
     0
102
RTVSPost2010PropOp34
 70
     1
102
RTVSPost2010Prop35
280
     0
102
RTVSPost2010PropOp35
 70
     1
102
RTVSPost2010Prop36
280
     0
102
RTVSPost2010PropOp36
 70
     1
102
RTVSPost2010Prop37
 90
       50
102
RTVSPost2010PropOp37
 70
     1
102
RTVSPost2010Prop38
140
0.0
102
RTVSPost2010PropOp38
 70
     1
102
RTVSPost2010Prop39
140
1.0
102
RTVSPost2010PropOp39
 70
     1
102
RTVSPost2010Prop40
 90
        0
102
RTVSPost2010PropOp40
 70
     1
102
RTVSPost2010Prop41ColorIndex
 90
       18
102
RTVSPost2010Prop41ColorRGB
 90
        0
102
RTVSPost2010PropOp41
 70
     1
102
RTVSPost2010Prop42
 90
       50
102
RTVSPost2010PropOp42
 70
     1
102
RTVSPost2010Prop43
 90
        3
102
RTVSPost2010PropOp43
 70
     1
102
RTVSPost2010Prop44ColorIndex
 90
        5
102
RTVSPost2010Prop44ColorRGB
 90
      255
102
RTVSPost2010PropOp44
 70
     1
102
RTVSPost2010Prop45
280
     0
102
RTVSPost2010PropOp45
 70
     1
102
RTVSPost2010Prop46
 90
       50
102
RTVSPost2010PropOp46
 70
     1
102
RTVSPost2010Prop47
 90
       50
102
RTVSPost2010PropOp47
 70
     1
102
RTVSPost2010Prop48
 90
       50
102
RTVSPost2010PropOp48
 70
     1
102
RTVSPost2010Prop49
280
     0
102
RTVSPost2010PropOp49
 70
     1
102
RTVSPost2010Prop50
 90
       50
102
RTVSPost2010PropOp50
 70
     1
102
RTVSPost2010Prop51ColorIndex
 90
      256
102
RTVSPost2010Prop51ColorRGB
 90
-16777216
102
RTVSPost2010PropOp51
 70
     0
102
RTVSPost2010Prop52
140
1.0
102
RTVSPost2010PropOp52
 70
     0
102
RTVSPost2010Prop53
 90
        2
102
RTVSPost2010PropOp53
 70
     1
102
RTVSPost2010Prop54
  1
strokes_ogs.tif
102
RTVSPost2010PropOp54
 70
     1
102
RTVSPost2010Prop55
280
     0
102
RTVSPost2010PropOp55
 70
     1
102
RTVSPost2010Prop56
140
1.0
102
RTVSPost2010PropOp56
 70
     1
102
RTVSPost2010Prop57
140
1.0
102
RTVSPost2010PropOp57
 70
     1
  0
XRECORD
  5
883A8
102
{ACAD_REACTORS
330
876A6
102
}
330
876A6
100
AcDbXrecord
280
     1
102
RTVSPropertyOp0
 70
     1
102
RTVSPropertyOp1
 70
     1
102
RTVSPropertyOp2
 70
     1
102
RTVSPropertyOp3
 70
     1
102
RTVSPropertyOp4
 70
     1
102
RTVSPropertyOp5
 70
     1
102
RTVSPropertyOp6
 70
     1
102
RTVSPropertyOp7
 70
     1
102
RTVSPropertyOp8
 70
     1
102
RTVSPropertyOp9
 70
     1
102
RTVSPropertyOp10
 70
     1
102
RTVSPropertyOp11
 70
     1
102
RTVSPropertyOp12
 70
     1
102
RTVSPropertyOp13
 70
     1
102
RTVSPropertyOp14
 70
     1
102
RTVSPropertyOp15
 70
     1
102
RTVSPropertyOp16
 70
     1
102
RTVSPropertyOp17
 70
     1
102
RTVSPropertyOp18
 70
     1
102
RTVSPropertyOp19
 70
     1
102
RTVSPropertyOp20
 70
     1
102
RTVSPropertyOp21
 70
     1
102
RTVSPropertyOp22
 70
     1
102
RTVSPropertyOp23
 70
     1
102
RTVSPropertyOp24
 70
     1
102
RTVSPropertyOp25
 70
     1
102
RTVSPropertyOp26
 70
     1
102
RTVSPropertyOp27
 70
     1
102
RTVSPropertyOp28
 70
     1
102
RTVSPropertyOp29
 70
     1
102
RTVSPropertyOp30
 70
     1
102
RTVSPropertyOp31
 70
     1
102
RTVSPropertyOp32
 70
     1
102
RTVSPropertyOp33
 70
     1
102
RTVSPropertyOp34
 70
     1
102
RTVSPropertyOp35
 70
     1
102
RTVSPropertyOp36
 70
     1
102
RTVSPropertyOp37
 70
     1
102
RTVSPropertyOp38
 70
     1
102
RTVSPropertyOp39
 70
     1
102
RTVSPropertyOp40
 70
     1
102
RTVSPropertyOp41
 70
     1
102
RTVSPropertyOp42
 70
     1
102
RTVSPropertyOp43
 70
     1
102
RTVSPropertyOp44
 70
     1
102
RTVSPropertyOp45
 70
     1
102
RTVSPropertyOp46
 70
     1
102
RTVSPropertyOp47
 70
     1
102
RTVSPropertyOp48
 70
     1
102
RTVSPropertyOp49
 70
     1
102
RTVSPropertyOp50
 70
     1
102
RTVSPropertyOp51
 70
     0
102
RTVSPropertyOp52
 70
     0
102
RTVSPropertyOp53
 70
     1
102
RTVSPropertyOp54
 70
     1
102
RTVSPropertyOp55
 70
     1
102
RTVSPropertyOp56
 70
     1
102
RTVSPropertyOp57
 70
     1
102
RTVSPost2010Prop28
280
     0
102
RTVSPost2010PropOp28
 70
     1
102
RTVSPost2010Prop29
280
     1
102
RTVSPost2010PropOp29
 70
     1
102
RTVSPost2010Prop30
280
     1
102
RTVSPost2010PropOp30
 70
     1
102
RTVSPost2010Prop31
280
     0
102
RTVSPost2010PropOp31
 70
     1
102
RTVSPost2010Prop32
280
     0
102
RTVSPost2010PropOp32
 70
     1
102
RTVSPost2010Prop33
280
     0
102
RTVSPost2010PropOp33
 70
     1
102
RTVSPost2010Prop34
280
     0
102
RTVSPost2010PropOp34
 70
     1
102
RTVSPost2010Prop35
280
     0
102
RTVSPost2010PropOp35
 70
     1
102
RTVSPost2010Prop36
280
     0
102
RTVSPost2010PropOp36
 70
     1
102
RTVSPost2010Prop37
 90
       50
102
RTVSPost2010PropOp37
 70
     1
102
RTVSPost2010Prop38
140
0.0
102
RTVSPost2010PropOp38
 70
     1
102
RTVSPost2010Prop39
140
1.0
102
RTVSPost2010PropOp39
 70
     1
102
RTVSPost2010Prop40
 90
        0
102
RTVSPost2010PropOp40
 70
     1
102
RTVSPost2010Prop41ColorIndex
 90
       18
102
RTVSPost2010Prop41ColorRGB
 90
        0
102
RTVSPost2010PropOp41
 70
     1
102
RTVSPost2010Prop42
 90
       50
102
RTVSPost2010PropOp42
 70
     1
102
RTVSPost2010Prop43
 90
        3
102
RTVSPost2010PropOp43
 70
     1
102
RTVSPost2010Prop44ColorIndex
 90
        5
102
RTVSPost2010Prop44ColorRGB
 90
      255
102
RTVSPost2010PropOp44
 70
     1
102
RTVSPost2010Prop45
280
     0
102
RTVSPost2010PropOp45
 70
     1
102
RTVSPost2010Prop46
 90
       50
102
RTVSPost2010PropOp46
 70
     1
102
RTVSPost2010Prop47
 90
       50
102
RTVSPost2010PropOp47
 70
     1
102
RTVSPost2010Prop48
 90
       50
102
RTVSPost2010PropOp48
 70
     1
102
RTVSPost2010Prop49
280
     0
102
RTVSPost2010PropOp49
 70
     1
102
RTVSPost2010Prop50
 90
       50
102
RTVSPost2010PropOp50
 70
     1
102
RTVSPost2010Prop51ColorIndex
 90
      256
102
RTVSPost2010Prop51ColorRGB
 90
-16777216
102
RTVSPost2010PropOp51
 70
     0
102
RTVSPost2010Prop52
140
1.0
102
RTVSPost2010PropOp52
 70
     0
102
RTVSPost2010Prop53
 90
        2
102
RTVSPost2010PropOp53
 70
     1
102
RTVSPost2010Prop54
  1
strokes_ogs.tif
102
RTVSPost2010PropOp54
 70
     1
102
RTVSPost2010Prop55
280
     0
102
RTVSPost2010PropOp55
 70
     1
102
RTVSPost2010Prop56
140
1.0
102
RTVSPost2010PropOp56
 70
     1
102
RTVSPost2010Prop57
140
1.0
102
RTVSPost2010PropOp57
 70
     1
  0
XRECORD
  5
883A9
102
{ACAD_REACTORS
330
876A8
102
}
330
876A8
100
AcDbXrecord
280
     1
102
RTVSPropertyOp0
 70
     1
102
RTVSPropertyOp1
 70
     1
102
RTVSPropertyOp2
 70
     1
102
RTVSPropertyOp3
 70
     1
102
RTVSPropertyOp4
 70
     1
102
RTVSPropertyOp5
 70
     1
102
RTVSPropertyOp6
 70
     1
102
RTVSPropertyOp7
 70
     1
102
RTVSPropertyOp8
 70
     1
102
RTVSPropertyOp9
 70
     1
102
RTVSPropertyOp10
 70
     1
102
RTVSPropertyOp11
 70
     1
102
RTVSPropertyOp12
 70
     1
102
RTVSPropertyOp13
 70
     1
102
RTVSPropertyOp14
 70
     1
102
RTVSPropertyOp15
 70
     1
102
RTVSPropertyOp16
 70
     1
102
RTVSPropertyOp17
 70
     1
102
RTVSPropertyOp18
 70
     1
102
RTVSPropertyOp19
 70
     1
102
RTVSPropertyOp20
 70
     1
102
RTVSPropertyOp21
 70
     1
102
RTVSPropertyOp22
 70
     1
102
RTVSPropertyOp23
 70
     1
102
RTVSPropertyOp24
 70
     1
102
RTVSPropertyOp25
 70
     1
102
RTVSPropertyOp26
 70
     1
102
RTVSPropertyOp27
 70
     1
102
RTVSPropertyOp28
 70
     1
102
RTVSPropertyOp29
 70
     1
102
RTVSPropertyOp30
 70
     1
102
RTVSPropertyOp31
 70
     1
102
RTVSPropertyOp32
 70
     1
102
RTVSPropertyOp33
 70
     1
102
RTVSPropertyOp34
 70
     1
102
RTVSPropertyOp35
 70
     1
102
RTVSPropertyOp36
 70
     1
102
RTVSPropertyOp37
 70
     1
102
RTVSPropertyOp38
 70
     1
102
RTVSPropertyOp39
 70
     1
102
RTVSPropertyOp40
 70
     1
102
RTVSPropertyOp41
 70
     1
102
RTVSPropertyOp42
 70
     1
102
RTVSPropertyOp43
 70
     1
102
RTVSPropertyOp44
 70
     1
102
RTVSPropertyOp45
 70
     1
102
RTVSPropertyOp46
 70
     1
102
RTVSPropertyOp47
 70
     1
102
RTVSPropertyOp48
 70
     1
102
RTVSPropertyOp49
 70
     1
102
RTVSPropertyOp50
 70
     1
102
RTVSPropertyOp51
 70
     0
102
RTVSPropertyOp52
 70
     0
102
RTVSPropertyOp53
 70
     1
102
RTVSPropertyOp54
 70
     1
102
RTVSPropertyOp55
 70
     1
102
RTVSPropertyOp56
 70
     1
102
RTVSPropertyOp57
 70
     1
102
RTVSPost2010Prop28
280
     0
102
RTVSPost2010PropOp28
 70
     1
102
RTVSPost2010Prop29
280
     1
102
RTVSPost2010PropOp29
 70
     1
102
RTVSPost2010Prop30
280
     1
102
RTVSPost2010PropOp30
 70
     1
102
RTVSPost2010Prop31
280
     0
102
RTVSPost2010PropOp31
 70
     1
102
RTVSPost2010Prop32
280
     0
102
RTVSPost2010PropOp32
 70
     1
102
RTVSPost2010Prop33
280
     0
102
RTVSPost2010PropOp33
 70
     1
102
RTVSPost2010Prop34
280
     0
102
RTVSPost2010PropOp34
 70
     1
102
RTVSPost2010Prop35
280
     0
102
RTVSPost2010PropOp35
 70
     1
102
RTVSPost2010Prop36
280
     0
102
RTVSPost2010PropOp36
 70
     1
102
RTVSPost2010Prop37
 90
       50
102
RTVSPost2010PropOp37
 70
     1
102
RTVSPost2010Prop38
140
0.0
102
RTVSPost2010PropOp38
 70
     1
102
RTVSPost2010Prop39
140
1.0
102
RTVSPost2010PropOp39
 70
     1
102
RTVSPost2010Prop40
 90
        0
102
RTVSPost2010PropOp40
 70
     1
102
RTVSPost2010Prop41ColorIndex
 90
       18
102
RTVSPost2010Prop41ColorRGB
 90
        0
102
RTVSPost2010PropOp41
 70
     1
102
RTVSPost2010Prop42
 90
       50
102
RTVSPost2010PropOp42
 70
     1
102
RTVSPost2010Prop43
 90
        3
102
RTVSPost2010PropOp43
 70
     1
102
RTVSPost2010Prop44ColorIndex
 90
        5
102
RTVSPost2010Prop44ColorRGB
 90
      255
102
RTVSPost2010PropOp44
 70
     1
102
RTVSPost2010Prop45
280
     0
102
RTVSPost2010PropOp45
 70
     1
102
RTVSPost2010Prop46
 90
       50
102
RTVSPost2010PropOp46
 70
     1
102
RTVSPost2010Prop47
 90
       50
102
RTVSPost2010PropOp47
 70
     1
102
RTVSPost2010Prop48
 90
       50
102
RTVSPost2010PropOp48
 70
     1
102
RTVSPost2010Prop49
280
     0
102
RTVSPost2010PropOp49
 70
     1
102
RTVSPost2010Prop50
 90
       50
102
RTVSPost2010PropOp50
 70
     1
102
RTVSPost2010Prop51ColorIndex
 90
      256
102
RTVSPost2010Prop51ColorRGB
 90
-16777216
102
RTVSPost2010PropOp51
 70
     0
102
RTVSPost2010Prop52
140
1.0
102
RTVSPost2010PropOp52
 70
     0
102
RTVSPost2010Prop53
 90
        2
102
RTVSPost2010PropOp53
 70
     1
102
RTVSPost2010Prop54
  1
strokes_ogs.tif
102
RTVSPost2010PropOp54
 70
     1
102
RTVSPost2010Prop55
280
     0
102
RTVSPost2010PropOp55
 70
     1
102
RTVSPost2010Prop56
140
1.0
102
RTVSPost2010PropOp56
 70
     1
102
RTVSPost2010Prop57
140
1.0
102
RTVSPost2010PropOp57
 70
     1
  0
XRECORD
  5
883AA
102
{ACAD_REACTORS
330
876B0
102
}
330
876B0
100
AcDbXrecord
280
     1
102
RTVSPropertyOp0
 70
     1
102
RTVSPropertyOp1
 70
     1
102
RTVSPropertyOp2
 70
     1
102
RTVSPropertyOp3
 70
     1
102
RTVSPropertyOp4
 70
     1
102
RTVSPropertyOp5
 70
     1
102
RTVSPropertyOp6
 70
     1
102
RTVSPropertyOp7
 70
     1
102
RTVSPropertyOp8
 70
     1
102
RTVSPropertyOp9
 70
     1
102
RTVSPropertyOp10
 70
     1
102
RTVSPropertyOp11
 70
     1
102
RTVSPropertyOp12
 70
     1
102
RTVSPropertyOp13
 70
     1
102
RTVSPropertyOp14
 70
     1
102
RTVSPropertyOp15
 70
     1
102
RTVSPropertyOp16
 70
     1
102
RTVSPropertyOp17
 70
     1
102
RTVSPropertyOp18
 70
     1
102
RTVSPropertyOp19
 70
     1
102
RTVSPropertyOp20
 70
     1
102
RTVSPropertyOp21
 70
     1
102
RTVSPropertyOp22
 70
     1
102
RTVSPropertyOp23
 70
     1
102
RTVSPropertyOp24
 70
     1
102
RTVSPropertyOp25
 70
     1
102
RTVSPropertyOp26
 70
     1
102
RTVSPropertyOp27
 70
     1
102
RTVSPropertyOp28
 70
     1
102
RTVSPropertyOp29
 70
     1
102
RTVSPropertyOp30
 70
     1
102
RTVSPropertyOp31
 70
     1
102
RTVSPropertyOp32
 70
     1
102
RTVSPropertyOp33
 70
     1
102
RTVSPropertyOp34
 70
     1
102
RTVSPropertyOp35
 70
     1
102
RTVSPropertyOp36
 70
     1
102
RTVSPropertyOp37
 70
     1
102
RTVSPropertyOp38
 70
     1
102
RTVSPropertyOp39
 70
     1
102
RTVSPropertyOp40
 70
     1
102
RTVSPropertyOp41
 70
     1
102
RTVSPropertyOp42
 70
     1
102
RTVSPropertyOp43
 70
     1
102
RTVSPropertyOp44
 70
     1
102
RTVSPropertyOp45
 70
     1
102
RTVSPropertyOp46
 70
     1
102
RTVSPropertyOp47
 70
     1
102
RTVSPropertyOp48
 70
     1
102
RTVSPropertyOp49
 70
     1
102
RTVSPropertyOp50
 70
     1
102
RTVSPropertyOp51
 70
     0
102
RTVSPropertyOp52
 70
     0
102
RTVSPropertyOp53
 70
     1
102
RTVSPropertyOp54
 70
     1
102
RTVSPropertyOp55
 70
     1
102
RTVSPropertyOp56
 70
     1
102
RTVSPropertyOp57
 70
     1
102
RTVSPost2010Prop28
280
     0
102
RTVSPost2010PropOp28
 70
     1
102
RTVSPost2010Prop29
280
     1
102
RTVSPost2010PropOp29
 70
     1
102
RTVSPost2010Prop30
280
     1
102
RTVSPost2010PropOp30
 70
     1
102
RTVSPost2010Prop31
280
     0
102
RTVSPost2010PropOp31
 70
     1
102
RTVSPost2010Prop32
280
     0
102
RTVSPost2010PropOp32
 70
     1
102
RTVSPost2010Prop33
280
     0
102
RTVSPost2010PropOp33
 70
     1
102
RTVSPost2010Prop34
280
     0
102
RTVSPost2010PropOp34
 70
     1
102
RTVSPost2010Prop35
280
     0
102
RTVSPost2010PropOp35
 70
     1
102
RTVSPost2010Prop36
280
     0
102
RTVSPost2010PropOp36
 70
     1
102
RTVSPost2010Prop37
 90
       50
102
RTVSPost2010PropOp37
 70
     1
102
RTVSPost2010Prop38
140
0.0
102
RTVSPost2010PropOp38
 70
     1
102
RTVSPost2010Prop39
140
1.0
102
RTVSPost2010PropOp39
 70
     1
102
RTVSPost2010Prop40
 90
        0
102
RTVSPost2010PropOp40
 70
     1
102
RTVSPost2010Prop41ColorIndex
 90
       18
102
RTVSPost2010Prop41ColorRGB
 90
        0
102
RTVSPost2010PropOp41
 70
     1
102
RTVSPost2010Prop42
 90
       50
102
RTVSPost2010PropOp42
 70
     1
102
RTVSPost2010Prop43
 90
        3
102
RTVSPost2010PropOp43
 70
     1
102
RTVSPost2010Prop44ColorIndex
 90
        5
102
RTVSPost2010Prop44ColorRGB
 90
      255
102
RTVSPost2010PropOp44
 70
     1
102
RTVSPost2010Prop45
280
     0
102
RTVSPost2010PropOp45
 70
     1
102
RTVSPost2010Prop46
 90
       50
102
RTVSPost2010PropOp46
 70
     1
102
RTVSPost2010Prop47
 90
       50
102
RTVSPost2010PropOp47
 70
     1
102
RTVSPost2010Prop48
 90
       50
102
RTVSPost2010PropOp48
 70
     1
102
RTVSPost2010Prop49
280
     0
102
RTVSPost2010PropOp49
 70
     1
102
RTVSPost2010Prop50
 90
       50
102
RTVSPost2010PropOp50
 70
     1
102
RTVSPost2010Prop51ColorIndex
 90
      256
102
RTVSPost2010Prop51ColorRGB
 90
-16777216
102
RTVSPost2010PropOp51
 70
     0
102
RTVSPost2010Prop52
140
1.0
102
RTVSPost2010PropOp52
 70
     0
102
RTVSPost2010Prop53
 90
        2
102
RTVSPost2010PropOp53
 70
     1
102
RTVSPost2010Prop54
  1
strokes_ogs.tif
102
RTVSPost2010PropOp54
 70
     1
102
RTVSPost2010Prop55
280
     0
102
RTVSPost2010PropOp55
 70
     1
102
RTVSPost2010Prop56
140
1.0
102
RTVSPost2010PropOp56
 70
     1
102
RTVSPost2010Prop57
140
1.0
102
RTVSPost2010PropOp57
 70
     1
  0
XRECORD
  5
883AB
102
{ACAD_REACTORS
330
876CC
102
}
330
876CC
100
AcDbXrecord
280
     1
102
RTVSPropertyOp0
 70
     0
102
RTVSPropertyOp1
 70
     0
102
RTVSPropertyOp2
 70
     0
102
RTVSPropertyOp3
 70
     0
102
RTVSPropertyOp4
 70
     0
102
RTVSPropertyOp5
 70
     0
102
RTVSPropertyOp6
 70
     0
102
RTVSPropertyOp7
 70
     0
102
RTVSPropertyOp8
 70
     0
102
RTVSPropertyOp9
 70
     0
102
RTVSPropertyOp10
 70
     0
102
RTVSPropertyOp11
 70
     0
102
RTVSPropertyOp12
 70
     0
102
RTVSPropertyOp13
 70
     0
102
RTVSPropertyOp14
 70
     2
102
RTVSPropertyOp15
 70
     0
102
RTVSPropertyOp16
 70
     0
102
RTVSPropertyOp17
 70
     0
102
RTVSPropertyOp18
 70
     0
102
RTVSPropertyOp19
 70
     0
102
RTVSPropertyOp20
 70
     0
102
RTVSPropertyOp21
 70
     0
102
RTVSPropertyOp22
 70
     0
102
RTVSPropertyOp23
 70
     0
102
RTVSPropertyOp24
 70
     0
102
RTVSPropertyOp25
 70
     0
102
RTVSPropertyOp26
 70
     0
102
RTVSPropertyOp27
 70
     0
102
RTVSPropertyOp28
 70
     1
102
RTVSPropertyOp29
 70
     1
102
RTVSPropertyOp30
 70
     1
102
RTVSPropertyOp31
 70
     1
102
RTVSPropertyOp32
 70
     1
102
RTVSPropertyOp33
 70
     1
102
RTVSPropertyOp34
 70
     1
102
RTVSPropertyOp35
 70
     1
102
RTVSPropertyOp36
 70
     1
102
RTVSPropertyOp37
 70
     0
102
RTVSPropertyOp38
 70
     0
102
RTVSPropertyOp39
 70
     0
102
RTVSPropertyOp40
 70
     0
102
RTVSPropertyOp41
 70
     0
102
RTVSPropertyOp42
 70
     0
102
RTVSPropertyOp43
 70
     0
102
RTVSPropertyOp44
 70
     0
102
RTVSPropertyOp45
 70
     1
102
RTVSPropertyOp46
 70
     0
102
RTVSPropertyOp47
 70
     0
102
RTVSPropertyOp48
 70
     0
102
RTVSPropertyOp49
 70
     1
102
RTVSPropertyOp50
 70
     0
102
RTVSPropertyOp51
 70
     0
102
RTVSPropertyOp52
 70
     0
102
RTVSPropertyOp53
 70
     0
102
RTVSPropertyOp54
 70
     0
102
RTVSPropertyOp55
 70
     1
102
RTVSPropertyOp56
 70
     0
102
RTVSPropertyOp57
 70
     0
102
RTVSPost2010Prop28
280
     0
102
RTVSPost2010PropOp28
 70
     1
102
RTVSPost2010Prop29
280
     1
102
RTVSPost2010PropOp29
 70
     1
102
RTVSPost2010Prop30
280
     1
102
RTVSPost2010PropOp30
 70
     1
102
RTVSPost2010Prop31
280
     0
102
RTVSPost2010PropOp31
 70
     1
102
RTVSPost2010Prop32
280
     0
102
RTVSPost2010PropOp32
 70
     1
102
RTVSPost2010Prop33
280
     0
102
RTVSPost2010PropOp33
 70
     1
102
RTVSPost2010Prop34
280
     0
102
RTVSPost2010PropOp34
 70
     1
102
RTVSPost2010Prop35
280
     0
102
RTVSPost2010PropOp35
 70
     1
102
RTVSPost2010Prop36
280
     0
102
RTVSPost2010PropOp36
 70
     1
102
RTVSPost2010Prop37
 90
       50
102
RTVSPost2010PropOp37
 70
     0
102
RTVSPost2010Prop38
140
0.0
102
RTVSPost2010PropOp38
 70
     0
102
RTVSPost2010Prop39
140
1.0
102
RTVSPost2010PropOp39
 70
     0
102
RTVSPost2010Prop40
 90
        0
102
RTVSPost2010PropOp40
 70
     0
102
RTVSPost2010Prop41ColorIndex
 90
       18
102
RTVSPost2010Prop41ColorRGB
 90
        0
102
RTVSPost2010PropOp41
 70
     0
102
RTVSPost2010Prop42
 90
       50
102
RTVSPost2010PropOp42
 70
     0
102
RTVSPost2010Prop43
 90
        3
102
RTVSPost2010PropOp43
 70
     0
102
RTVSPost2010Prop44ColorIndex
 90
        5
102
RTVSPost2010Prop44ColorRGB
 90
      255
102
RTVSPost2010PropOp44
 70
     0
102
RTVSPost2010Prop45
280
     0
102
RTVSPost2010PropOp45
 70
     1
102
RTVSPost2010Prop46
 90
       50
102
RTVSPost2010PropOp46
 70
     0
102
RTVSPost2010Prop47
 90
       50
102
RTVSPost2010PropOp47
 70
     0
102
RTVSPost2010Prop48
 90
       50
102
RTVSPost2010PropOp48
 70
     0
102
RTVSPost2010Prop49
280
     0
102
RTVSPost2010PropOp49
 70
     1
102
RTVSPost2010Prop50
 90
       50
102
RTVSPost2010PropOp50
 70
     0
102
RTVSPost2010Prop51ColorIndex
 90
      256
102
RTVSPost2010Prop51ColorRGB
 90
-16777216
102
RTVSPost2010PropOp51
 70
     0
102
RTVSPost2010Prop52
140
1.0
102
RTVSPost2010PropOp52
 70
     0
102
RTVSPost2010Prop53
 90
        2
102
RTVSPost2010PropOp53
 70
     0
102
RTVSPost2010Prop54
  1
strokes_ogs.tif
102
RTVSPost2010PropOp54
 70
     0
102
RTVSPost2010Prop55
280
     0
102
RTVSPost2010PropOp55
 70
     1
102
RTVSPost2010Prop56
140
1.0
102
RTVSPost2010PropOp56
 70
     0
102
RTVSPost2010Prop57
140
1.0
102
RTVSPost2010PropOp57
 70
     0
  0
XRECORD
  5
883AC
102
{ACAD_REACTORS
330
876BC
102
}
330
876BC
100
AcDbXrecord
280
     1
102
RTVSPropertyOp0
 70
     1
102
RTVSPropertyOp1
 70
     1
102
RTVSPropertyOp2
 70
     1
102
RTVSPropertyOp3
 70
     1
102
RTVSPropertyOp4
 70
     1
102
RTVSPropertyOp5
 70
     1
102
RTVSPropertyOp6
 70
     1
102
RTVSPropertyOp7
 70
     1
102
RTVSPropertyOp8
 70
     1
102
RTVSPropertyOp9
 70
     1
102
RTVSPropertyOp10
 70
     1
102
RTVSPropertyOp11
 70
     1
102
RTVSPropertyOp12
 70
     1
102
RTVSPropertyOp13
 70
     1
102
RTVSPropertyOp14
 70
     1
102
RTVSPropertyOp15
 70
     1
102
RTVSPropertyOp16
 70
     1
102
RTVSPropertyOp17
 70
     1
102
RTVSPropertyOp18
 70
     1
102
RTVSPropertyOp19
 70
     1
102
RTVSPropertyOp20
 70
     1
102
RTVSPropertyOp21
 70
     1
102
RTVSPropertyOp22
 70
     1
102
RTVSPropertyOp23
 70
     1
102
RTVSPropertyOp24
 70
     1
102
RTVSPropertyOp25
 70
     1
102
RTVSPropertyOp26
 70
     1
102
RTVSPropertyOp27
 70
     1
102
RTVSPropertyOp28
 70
     1
102
RTVSPropertyOp29
 70
     1
102
RTVSPropertyOp30
 70
     1
102
RTVSPropertyOp31
 70
     1
102
RTVSPropertyOp32
 70
     1
102
RTVSPropertyOp33
 70
     1
102
RTVSPropertyOp34
 70
     1
102
RTVSPropertyOp35
 70
     1
102
RTVSPropertyOp36
 70
     1
102
RTVSPropertyOp37
 70
     1
102
RTVSPropertyOp38
 70
     1
102
RTVSPropertyOp39
 70
     1
102
RTVSPropertyOp40
 70
     1
102
RTVSPropertyOp41
 70
     1
102
RTVSPropertyOp42
 70
     1
102
RTVSPropertyOp43
 70
     1
102
RTVSPropertyOp44
 70
     1
102
RTVSPropertyOp45
 70
     1
102
RTVSPropertyOp46
 70
     1
102
RTVSPropertyOp47
 70
     1
102
RTVSPropertyOp48
 70
     1
102
RTVSPropertyOp49
 70
     1
102
RTVSPropertyOp50
 70
     1
102
RTVSPropertyOp51
 70
     0
102
RTVSPropertyOp52
 70
     0
102
RTVSPropertyOp53
 70
     1
102
RTVSPropertyOp54
 70
     1
102
RTVSPropertyOp55
 70
     1
102
RTVSPropertyOp56
 70
     1
102
RTVSPropertyOp57
 70
     1
102
RTVSPost2010Prop28
280
     0
102
RTVSPost2010PropOp28
 70
     1
102
RTVSPost2010Prop29
280
     1
102
RTVSPost2010PropOp29
 70
     1
102
RTVSPost2010Prop30
280
     1
102
RTVSPost2010PropOp30
 70
     1
102
RTVSPost2010Prop31
280
     0
102
RTVSPost2010PropOp31
 70
     1
102
RTVSPost2010Prop32
280
     0
102
RTVSPost2010PropOp32
 70
     1
102
RTVSPost2010Prop33
280
     0
102
RTVSPost2010PropOp33
 70
     1
102
RTVSPost2010Prop34
280
     0
102
RTVSPost2010PropOp34
 70
     1
102
RTVSPost2010Prop35
280
     0
102
RTVSPost2010PropOp35
 70
     1
102
RTVSPost2010Prop36
280
     0
102
RTVSPost2010PropOp36
 70
     1
102
RTVSPost2010Prop37
 90
       50
102
RTVSPost2010PropOp37
 70
     1
102
RTVSPost2010Prop38
140
0.0
102
RTVSPost2010PropOp38
 70
     1
102
RTVSPost2010Prop39
140
1.0
102
RTVSPost2010PropOp39
 70
     1
102
RTVSPost2010Prop40
 90
        0
102
RTVSPost2010PropOp40
 70
     1
102
RTVSPost2010Prop41ColorIndex
 90
       18
102
RTVSPost2010Prop41ColorRGB
 90
        0
102
RTVSPost2010PropOp41
 70
     1
102
RTVSPost2010Prop42
 90
       50
102
RTVSPost2010PropOp42
 70
     1
102
RTVSPost2010Prop43
 90
        3
102
RTVSPost2010PropOp43
 70
     1
102
RTVSPost2010Prop44ColorIndex
 90
        5
102
RTVSPost2010Prop44ColorRGB
 90
      255
102
RTVSPost2010PropOp44
 70
     1
102
RTVSPost2010Prop45
280
     0
102
RTVSPost2010PropOp45
 70
     1
102
RTVSPost2010Prop46
 90
       50
102
RTVSPost2010PropOp46
 70
     1
102
RTVSPost2010Prop47
 90
       50
102
RTVSPost2010PropOp47
 70
     1
102
RTVSPost2010Prop48
 90
       50
102
RTVSPost2010PropOp48
 70
     1
102
RTVSPost2010Prop49
280
     0
102
RTVSPost2010PropOp49
 70
     1
102
RTVSPost2010Prop50
 90
       50
102
RTVSPost2010PropOp50
 70
     1
102
RTVSPost2010Prop51ColorIndex
 90
      256
102
RTVSPost2010Prop51ColorRGB
 90
-16777216
102
RTVSPost2010PropOp51
 70
     0
102
RTVSPost2010Prop52
140
1.0
102
RTVSPost2010PropOp52
 70
     0
102
RTVSPost2010Prop53
 90
        2
102
RTVSPost2010PropOp53
 70
     1
102
RTVSPost2010Prop54
  1
strokes_ogs.tif
102
RTVSPost2010PropOp54
 70
     1
102
RTVSPost2010Prop55
280
     0
102
RTVSPost2010PropOp55
 70
     1
102
RTVSPost2010Prop56
140
1.0
102
RTVSPost2010PropOp56
 70
     1
102
RTVSPost2010Prop57
140
1.0
102
RTVSPost2010PropOp57
 70
     1
  0
XRECORD
  5
883AD
102
{ACAD_REACTORS
330
876CE
102
}
330
876CE
100
AcDbXrecord
280
     1
102
RTVSPropertyOp0
 70
     0
102
RTVSPropertyOp1
 70
     0
102
RTVSPropertyOp2
 70
     0
102
RTVSPropertyOp3
 70
     0
102
RTVSPropertyOp4
 70
     0
102
RTVSPropertyOp5
 70
     0
102
RTVSPropertyOp6
 70
     0
102
RTVSPropertyOp7
 70
     0
102
RTVSPropertyOp8
 70
     0
102
RTVSPropertyOp9
 70
     0
102
RTVSPropertyOp10
 70
     0
102
RTVSPropertyOp11
 70
     0
102
RTVSPropertyOp12
 70
     0
102
RTVSPropertyOp13
 70
     0
102
RTVSPropertyOp14
 70
     2
102
RTVSPropertyOp15
 70
     0
102
RTVSPropertyOp16
 70
     0
102
RTVSPropertyOp17
 70
     0
102
RTVSPropertyOp18
 70
     0
102
RTVSPropertyOp19
 70
     0
102
RTVSPropertyOp20
 70
     0
102
RTVSPropertyOp21
 70
     0
102
RTVSPropertyOp22
 70
     0
102
RTVSPropertyOp23
 70
     0
102
RTVSPropertyOp24
 70
     0
102
RTVSPropertyOp25
 70
     0
102
RTVSPropertyOp26
 70
     0
102
RTVSPropertyOp27
 70
     0
102
RTVSPropertyOp28
 70
     1
102
RTVSPropertyOp29
 70
     1
102
RTVSPropertyOp30
 70
     1
102
RTVSPropertyOp31
 70
     1
102
RTVSPropertyOp32
 70
     1
102
RTVSPropertyOp33
 70
     1
102
RTVSPropertyOp34
 70
     1
102
RTVSPropertyOp35
 70
     1
102
RTVSPropertyOp36
 70
     1
102
RTVSPropertyOp37
 70
     0
102
RTVSPropertyOp38
 70
     0
102
RTVSPropertyOp39
 70
     0
102
RTVSPropertyOp40
 70
     0
102
RTVSPropertyOp41
 70
     0
102
RTVSPropertyOp42
 70
     0
102
RTVSPropertyOp43
 70
     0
102
RTVSPropertyOp44
 70
     0
102
RTVSPropertyOp45
 70
     1
102
RTVSPropertyOp46
 70
     0
102
RTVSPropertyOp47
 70
     0
102
RTVSPropertyOp48
 70
     0
102
RTVSPropertyOp49
 70
     1
102
RTVSPropertyOp50
 70
     0
102
RTVSPropertyOp51
 70
     0
102
RTVSPropertyOp52
 70
     0
102
RTVSPropertyOp53
 70
     0
102
RTVSPropertyOp54
 70
     0
102
RTVSPropertyOp55
 70
     1
102
RTVSPropertyOp56
 70
     0
102
RTVSPropertyOp57
 70
     0
102
RTVSPost2010Prop28
280
     0
102
RTVSPost2010PropOp28
 70
     1
102
RTVSPost2010Prop29
280
     1
102
RTVSPost2010PropOp29
 70
     1
102
RTVSPost2010Prop30
280
     1
102
RTVSPost2010PropOp30
 70
     1
102
RTVSPost2010Prop31
280
     0
102
RTVSPost2010PropOp31
 70
     1
102
RTVSPost2010Prop32
280
     0
102
RTVSPost2010PropOp32
 70
     1
102
RTVSPost2010Prop33
280
     0
102
RTVSPost2010PropOp33
 70
     1
102
RTVSPost2010Prop34
280
     0
102
RTVSPost2010PropOp34
 70
     1
102
RTVSPost2010Prop35
280
     0
102
RTVSPost2010PropOp35
 70
     1
102
RTVSPost2010Prop36
280
     0
102
RTVSPost2010PropOp36
 70
     1
102
RTVSPost2010Prop37
 90
       50
102
RTVSPost2010PropOp37
 70
     0
102
RTVSPost2010Prop38
140
0.0
102
RTVSPost2010PropOp38
 70
     0
102
RTVSPost2010Prop39
140
1.0
102
RTVSPost2010PropOp39
 70
     0
102
RTVSPost2010Prop40
 90
        0
102
RTVSPost2010PropOp40
 70
     0
102
RTVSPost2010Prop41ColorIndex
 90
       18
102
RTVSPost2010Prop41ColorRGB
 90
        0
102
RTVSPost2010PropOp41
 70
     0
102
RTVSPost2010Prop42
 90
       50
102
RTVSPost2010PropOp42
 70
     0
102
RTVSPost2010Prop43
 90
        3
102
RTVSPost2010PropOp43
 70
     0
102
RTVSPost2010Prop44ColorIndex
 90
        5
102
RTVSPost2010Prop44ColorRGB
 90
      255
102
RTVSPost2010PropOp44
 70
     0
102
RTVSPost2010Prop45
280
     0
102
RTVSPost2010PropOp45
 70
     1
102
RTVSPost2010Prop46
 90
       50
102
RTVSPost2010PropOp46
 70
     0
102
RTVSPost2010Prop47
 90
       50
102
RTVSPost2010PropOp47
 70
     0
102
RTVSPost2010Prop48
 90
       50
102
RTVSPost2010PropOp48
 70
     0
102
RTVSPost2010Prop49
280
     0
102
RTVSPost2010PropOp49
 70
     1
102
RTVSPost2010Prop50
 90
       50
102
RTVSPost2010PropOp50
 70
     0
102
RTVSPost2010Prop51ColorIndex
 90
      256
102
RTVSPost2010Prop51ColorRGB
 90
-16777216
102
RTVSPost2010PropOp51
 70
     0
102
RTVSPost2010Prop52
140
1.0
102
RTVSPost2010PropOp52
 70
     0
102
RTVSPost2010Prop53
 90
        2
102
RTVSPost2010PropOp53
 70
     0
102
RTVSPost2010Prop54
  1
strokes_ogs.tif
102
RTVSPost2010PropOp54
 70
     0
102
RTVSPost2010Prop55
280
     0
102
RTVSPost2010PropOp55
 70
     1
102
RTVSPost2010Prop56
140
1.0
102
RTVSPost2010PropOp56
 70
     0
102
RTVSPost2010Prop57
140
1.0
102
RTVSPost2010PropOp57
 70
     0
  0
XRECORD
  5
883AE
102
{ACAD_REACTORS
330
876B4
102
}
330
876B4
100
AcDbXrecord
280
     1
102
RTVSPropertyOp0
 70
     1
102
RTVSPropertyOp1
 70
     1
102
RTVSPropertyOp2
 70
     1
102
RTVSPropertyOp3
 70
     1
102
RTVSPropertyOp4
 70
     1
102
RTVSPropertyOp5
 70
     1
102
RTVSPropertyOp6
 70
     1
102
RTVSPropertyOp7
 70
     1
102
RTVSPropertyOp8
 70
     1
102
RTVSPropertyOp9
 70
     1
102
RTVSPropertyOp10
 70
     1
102
RTVSPropertyOp11
 70
     1
102
RTVSPropertyOp12
 70
     1
102
RTVSPropertyOp13
 70
     1
102
RTVSPropertyOp14
 70
     1
102
RTVSPropertyOp15
 70
     1
102
RTVSPropertyOp16
 70
     1
102
RTVSPropertyOp17
 70
     1
102
RTVSPropertyOp18
 70
     1
102
RTVSPropertyOp19
 70
     1
102
RTVSPropertyOp20
 70
     1
102
RTVSPropertyOp21
 70
     1
102
RTVSPropertyOp22
 70
     1
102
RTVSPropertyOp23
 70
     1
102
RTVSPropertyOp24
 70
     1
102
RTVSPropertyOp25
 70
     1
102
RTVSPropertyOp26
 70
     1
102
RTVSPropertyOp27
 70
     1
102
RTVSPropertyOp28
 70
     1
102
RTVSPropertyOp29
 70
     1
102
RTVSPropertyOp30
 70
     1
102
RTVSPropertyOp31
 70
     1
102
RTVSPropertyOp32
 70
     1
102
RTVSPropertyOp33
 70
     1
102
RTVSPropertyOp34
 70
     1
102
RTVSPropertyOp35
 70
     1
102
RTVSPropertyOp36
 70
     1
102
RTVSPropertyOp37
 70
     1
102
RTVSPropertyOp38
 70
     1
102
RTVSPropertyOp39
 70
     1
102
RTVSPropertyOp40
 70
     1
102
RTVSPropertyOp41
 70
     1
102
RTVSPropertyOp42
 70
     1
102
RTVSPropertyOp43
 70
     1
102
RTVSPropertyOp44
 70
     1
102
RTVSPropertyOp45
 70
     1
102
RTVSPropertyOp46
 70
     1
102
RTVSPropertyOp47
 70
     1
102
RTVSPropertyOp48
 70
     1
102
RTVSPropertyOp49
 70
     1
102
RTVSPropertyOp50
 70
     1
102
RTVSPropertyOp51
 70
     0
102
RTVSPropertyOp52
 70
     0
102
RTVSPropertyOp53
 70
     1
102
RTVSPropertyOp54
 70
     1
102
RTVSPropertyOp55
 70
     1
102
RTVSPropertyOp56
 70
     1
102
RTVSPropertyOp57
 70
     1
102
RTVSPost2010Prop28
280
     0
102
RTVSPost2010PropOp28
 70
     1
102
RTVSPost2010Prop29
280
     1
102
RTVSPost2010PropOp29
 70
     1
102
RTVSPost2010Prop30
280
     1
102
RTVSPost2010PropOp30
 70
     1
102
RTVSPost2010Prop31
280
     0
102
RTVSPost2010PropOp31
 70
     1
102
RTVSPost2010Prop32
280
     0
102
RTVSPost2010PropOp32
 70
     1
102
RTVSPost2010Prop33
280
     0
102
RTVSPost2010PropOp33
 70
     1
102
RTVSPost2010Prop34
280
     0
102
RTVSPost2010PropOp34
 70
     1
102
RTVSPost2010Prop35
280
     0
102
RTVSPost2010PropOp35
 70
     1
102
RTVSPost2010Prop36
280
     0
102
RTVSPost2010PropOp36
 70
     1
102
RTVSPost2010Prop37
 90
       50
102
RTVSPost2010PropOp37
 70
     1
102
RTVSPost2010Prop38
140
0.0
102
RTVSPost2010PropOp38
 70
     1
102
RTVSPost2010Prop39
140
1.0
102
RTVSPost2010PropOp39
 70
     1
102
RTVSPost2010Prop40
 90
        0
102
RTVSPost2010PropOp40
 70
     1
102
RTVSPost2010Prop41ColorIndex
 90
       18
102
RTVSPost2010Prop41ColorRGB
 90
        0
102
RTVSPost2010PropOp41
 70
     1
102
RTVSPost2010Prop42
 90
       50
102
RTVSPost2010PropOp42
 70
     1
102
RTVSPost2010Prop43
 90
        3
102
RTVSPost2010PropOp43
 70
     1
102
RTVSPost2010Prop44ColorIndex
 90
        5
102
RTVSPost2010Prop44ColorRGB
 90
      255
102
RTVSPost2010PropOp44
 70
     1
102
RTVSPost2010Prop45
280
     0
102
RTVSPost2010PropOp45
 70
     1
102
RTVSPost2010Prop46
 90
       50
102
RTVSPost2010PropOp46
 70
     1
102
RTVSPost2010Prop47
 90
       50
102
RTVSPost2010PropOp47
 70
     1
102
RTVSPost2010Prop48
 90
       50
102
RTVSPost2010PropOp48
 70
     1
102
RTVSPost2010Prop49
280
     0
102
RTVSPost2010PropOp49
 70
     1
102
RTVSPost2010Prop50
 90
       50
102
RTVSPost2010PropOp50
 70
     1
102
RTVSPost2010Prop51ColorIndex
 90
      256
102
RTVSPost2010Prop51ColorRGB
 90
-16777216
102
RTVSPost2010PropOp51
 70
     0
102
RTVSPost2010Prop52
140
1.0
102
RTVSPost2010PropOp52
 70
     0
102
RTVSPost2010Prop53
 90
        2
102
RTVSPost2010PropOp53
 70
     1
102
RTVSPost2010Prop54
  1
strokes_ogs.tif
102
RTVSPost2010PropOp54
 70
     1
102
RTVSPost2010Prop55
280
     0
102
RTVSPost2010PropOp55
 70
     1
102
RTVSPost2010Prop56
140
1.0
102
RTVSPost2010PropOp56
 70
     1
102
RTVSPost2010Prop57
140
1.0
102
RTVSPost2010PropOp57
 70
     1
  0
XRECORD
  5
883AF
102
{ACAD_REACTORS
330
876CA
102
}
330
876CA
100
AcDbXrecord
280
     1
102
RTVSPropertyOp0
 70
     1
102
RTVSPropertyOp1
 70
     1
102
RTVSPropertyOp2
 70
     1
102
RTVSPropertyOp3
 70
     1
102
RTVSPropertyOp4
 70
     1
102
RTVSPropertyOp5
 70
     1
102
RTVSPropertyOp6
 70
     1
102
RTVSPropertyOp7
 70
     1
102
RTVSPropertyOp8
 70
     1
102
RTVSPropertyOp9
 70
     1
102
RTVSPropertyOp10
 70
     1
102
RTVSPropertyOp11
 70
     1
102
RTVSPropertyOp12
 70
     1
102
RTVSPropertyOp13
 70
     1
102
RTVSPropertyOp14
 70
     1
102
RTVSPropertyOp15
 70
     1
102
RTVSPropertyOp16
 70
     1
102
RTVSPropertyOp17
 70
     1
102
RTVSPropertyOp18
 70
     1
102
RTVSPropertyOp19
 70
     1
102
RTVSPropertyOp20
 70
     1
102
RTVSPropertyOp21
 70
     1
102
RTVSPropertyOp22
 70
     1
102
RTVSPropertyOp23
 70
     1
102
RTVSPropertyOp24
 70
     1
102
RTVSPropertyOp25
 70
     1
102
RTVSPropertyOp26
 70
     1
102
RTVSPropertyOp27
 70
     1
102
RTVSPropertyOp28
 70
     1
102
RTVSPropertyOp29
 70
     1
102
RTVSPropertyOp30
 70
     1
102
RTVSPropertyOp31
 70
     1
102
RTVSPropertyOp32
 70
     1
102
RTVSPropertyOp33
 70
     1
102
RTVSPropertyOp34
 70
     1
102
RTVSPropertyOp35
 70
     1
102
RTVSPropertyOp36
 70
     1
102
RTVSPropertyOp37
 70
     1
102
RTVSPropertyOp38
 70
     1
102
RTVSPropertyOp39
 70
     1
102
RTVSPropertyOp40
 70
     1
102
RTVSPropertyOp41
 70
     1
102
RTVSPropertyOp42
 70
     1
102
RTVSPropertyOp43
 70
     1
102
RTVSPropertyOp44
 70
     1
102
RTVSPropertyOp45
 70
     1
102
RTVSPropertyOp46
 70
     1
102
RTVSPropertyOp47
 70
     1
102
RTVSPropertyOp48
 70
     1
102
RTVSPropertyOp49
 70
     1
102
RTVSPropertyOp50
 70
     1
102
RTVSPropertyOp51
 70
     0
102
RTVSPropertyOp52
 70
     0
102
RTVSPropertyOp53
 70
     1
102
RTVSPropertyOp54
 70
     1
102
RTVSPropertyOp55
 70
     1
102
RTVSPropertyOp56
 70
     1
102
RTVSPropertyOp57
 70
     1
102
RTVSPost2010Prop28
280
     0
102
RTVSPost2010PropOp28
 70
     1
102
RTVSPost2010Prop29
280
     1
102
RTVSPost2010PropOp29
 70
     1
102
RTVSPost2010Prop30
280
     1
102
RTVSPost2010PropOp30
 70
     1
102
RTVSPost2010Prop31
280
     0
102
RTVSPost2010PropOp31
 70
     1
102
RTVSPost2010Prop32
280
     0
102
RTVSPost2010PropOp32
 70
     1
102
RTVSPost2010Prop33
280
     0
102
RTVSPost2010PropOp33
 70
     1
102
RTVSPost2010Prop34
280
     0
102
RTVSPost2010PropOp34
 70
     1
102
RTVSPost2010Prop35
280
     0
102
RTVSPost2010PropOp35
 70
     1
102
RTVSPost2010Prop36
280
     0
102
RTVSPost2010PropOp36
 70
     1
102
RTVSPost2010Prop37
 90
       50
102
RTVSPost2010PropOp37
 70
     1
102
RTVSPost2010Prop38
140
0.0
102
RTVSPost2010PropOp38
 70
     1
102
RTVSPost2010Prop39
140
1.0
102
RTVSPost2010PropOp39
 70
     1
102
RTVSPost2010Prop40
 90
        0
102
RTVSPost2010PropOp40
 70
     1
102
RTVSPost2010Prop41ColorIndex
 90
       18
102
RTVSPost2010Prop41ColorRGB
 90
        0
102
RTVSPost2010PropOp41
 70
     1
102
RTVSPost2010Prop42
 90
       50
102
RTVSPost2010PropOp42
 70
     1
102
RTVSPost2010Prop43
 90
        3
102
RTVSPost2010PropOp43
 70
     1
102
RTVSPost2010Prop44ColorIndex
 90
        5
102
RTVSPost2010Prop44ColorRGB
 90
      255
102
RTVSPost2010PropOp44
 70
     1
102
RTVSPost2010Prop45
280
     0
102
RTVSPost2010PropOp45
 70
     1
102
RTVSPost2010Prop46
 90
       50
102
RTVSPost2010PropOp46
 70
     1
102
RTVSPost2010Prop47
 90
       50
102
RTVSPost2010PropOp47
 70
     1
102
RTVSPost2010Prop48
 90
       50
102
RTVSPost2010PropOp48
 70
     1
102
RTVSPost2010Prop49
280
     0
102
RTVSPost2010PropOp49
 70
     1
102
RTVSPost2010Prop50
 90
       50
102
RTVSPost2010PropOp50
 70
     1
102
RTVSPost2010Prop51ColorIndex
 90
      256
102
RTVSPost2010Prop51ColorRGB
 90
-16777216
102
RTVSPost2010PropOp51
 70
     0
102
RTVSPost2010Prop52
140
1.0
102
RTVSPost2010PropOp52
 70
     0
102
RTVSPost2010Prop53
 90
        2
102
RTVSPost2010PropOp53
 70
     1
102
RTVSPost2010Prop54
  1
strokes_ogs.tif
102
RTVSPost2010PropOp54
 70
     1
102
RTVSPost2010Prop55
280
     0
102
RTVSPost2010PropOp55
 70
     1
102
RTVSPost2010Prop56
140
1.0
102
RTVSPost2010PropOp56
 70
     1
102
RTVSPost2010Prop57
140
1.0
102
RTVSPost2010PropOp57
 70
     1
  0
XRECORD
  5
883B0
102
{ACAD_REACTORS
330
876C8
102
}
330
876C8
100
AcDbXrecord
280
     1
102
RTVSPropertyOp0
 70
     1
102
RTVSPropertyOp1
 70
     1
102
RTVSPropertyOp2
 70
     1
102
RTVSPropertyOp3
 70
     1
102
RTVSPropertyOp4
 70
     1
102
RTVSPropertyOp5
 70
     1
102
RTVSPropertyOp6
 70
     1
102
RTVSPropertyOp7
 70
     1
102
RTVSPropertyOp8
 70
     1
102
RTVSPropertyOp9
 70
     1
102
RTVSPropertyOp10
 70
     1
102
RTVSPropertyOp11
 70
     1
102
RTVSPropertyOp12
 70
     1
102
RTVSPropertyOp13
 70
     1
102
RTVSPropertyOp14
 70
     1
102
RTVSPropertyOp15
 70
     1
102
RTVSPropertyOp16
 70
     1
102
RTVSPropertyOp17
 70
     1
102
RTVSPropertyOp18
 70
     1
102
RTVSPropertyOp19
 70
     1
102
RTVSPropertyOp20
 70
     1
102
RTVSPropertyOp21
 70
     1
102
RTVSPropertyOp22
 70
     1
102
RTVSPropertyOp23
 70
     1
102
RTVSPropertyOp24
 70
     1
102
RTVSPropertyOp25
 70
     1
102
RTVSPropertyOp26
 70
     1
102
RTVSPropertyOp27
 70
     1
102
RTVSPropertyOp28
 70
     1
102
RTVSPropertyOp29
 70
     1
102
RTVSPropertyOp30
 70
     1
102
RTVSPropertyOp31
 70
     1
102
RTVSPropertyOp32
 70
     1
102
RTVSPropertyOp33
 70
     1
102
RTVSPropertyOp34
 70
     1
102
RTVSPropertyOp35
 70
     1
102
RTVSPropertyOp36
 70
     1
102
RTVSPropertyOp37
 70
     1
102
RTVSPropertyOp38
 70
     1
102
RTVSPropertyOp39
 70
     1
102
RTVSPropertyOp40
 70
     1
102
RTVSPropertyOp41
 70
     1
102
RTVSPropertyOp42
 70
     1
102
RTVSPropertyOp43
 70
     1
102
RTVSPropertyOp44
 70
     1
102
RTVSPropertyOp45
 70
     1
102
RTVSPropertyOp46
 70
     1
102
RTVSPropertyOp47
 70
     1
102
RTVSPropertyOp48
 70
     1
102
RTVSPropertyOp49
 70
     1
102
RTVSPropertyOp50
 70
     1
102
RTVSPropertyOp51
 70
     0
102
RTVSPropertyOp52
 70
     0
102
RTVSPropertyOp53
 70
     1
102
RTVSPropertyOp54
 70
     1
102
RTVSPropertyOp55
 70
     1
102
RTVSPropertyOp56
 70
     1
102
RTVSPropertyOp57
 70
     1
102
RTVSPost2010Prop28
280
     0
102
RTVSPost2010PropOp28
 70
     1
102
RTVSPost2010Prop29
280
     1
102
RTVSPost2010PropOp29
 70
     1
102
RTVSPost2010Prop30
280
     1
102
RTVSPost2010PropOp30
 70
     1
102
RTVSPost2010Prop31
280
     0
102
RTVSPost2010PropOp31
 70
     1
102
RTVSPost2010Prop32
280
     0
102
RTVSPost2010PropOp32
 70
     1
102
RTVSPost2010Prop33
280
     0
102
RTVSPost2010PropOp33
 70
     1
102
RTVSPost2010Prop34
280
     0
102
RTVSPost2010PropOp34
 70
     1
102
RTVSPost2010Prop35
280
     0
102
RTVSPost2010PropOp35
 70
     1
102
RTVSPost2010Prop36
280
     0
102
RTVSPost2010PropOp36
 70
     1
102
RTVSPost2010Prop37
 90
       50
102
RTVSPost2010PropOp37
 70
     1
102
RTVSPost2010Prop38
140
0.0
102
RTVSPost2010PropOp38
 70
     1
102
RTVSPost2010Prop39
140
1.0
102
RTVSPost2010PropOp39
 70
     1
102
RTVSPost2010Prop40
 90
        0
102
RTVSPost2010PropOp40
 70
     1
102
RTVSPost2010Prop41ColorIndex
 90
       18
102
RTVSPost2010Prop41ColorRGB
 90
        0
102
RTVSPost2010PropOp41
 70
     1
102
RTVSPost2010Prop42
 90
       50
102
RTVSPost2010PropOp42
 70
     1
102
RTVSPost2010Prop43
 90
        3
102
RTVSPost2010PropOp43
 70
     1
102
RTVSPost2010Prop44ColorIndex
 90
        5
102
RTVSPost2010Prop44ColorRGB
 90
      255
102
RTVSPost2010PropOp44
 70
     1
102
RTVSPost2010Prop45
280
     0
102
RTVSPost2010PropOp45
 70
     1
102
RTVSPost2010Prop46
 90
       50
102
RTVSPost2010PropOp46
 70
     1
102
RTVSPost2010Prop47
 90
       50
102
RTVSPost2010PropOp47
 70
     1
102
RTVSPost2010Prop48
 90
       50
102
RTVSPost2010PropOp48
 70
     1
102
RTVSPost2010Prop49
280
     0
102
RTVSPost2010PropOp49
 70
     1
102
RTVSPost2010Prop50
 90
       50
102
RTVSPost2010PropOp50
 70
     1
102
RTVSPost2010Prop51ColorIndex
 90
      256
102
RTVSPost2010Prop51ColorRGB
 90
-16777216
102
RTVSPost2010PropOp51
 70
     0
102
RTVSPost2010Prop52
140
1.0
102
RTVSPost2010PropOp52
 70
     0
102
RTVSPost2010Prop53
 90
        2
102
RTVSPost2010PropOp53
 70
     1
102
RTVSPost2010Prop54
  1
strokes_ogs.tif
102
RTVSPost2010PropOp54
 70
     1
102
RTVSPost2010Prop55
280
     0
102
RTVSPost2010PropOp55
 70
     1
102
RTVSPost2010Prop56
140
1.0
102
RTVSPost2010PropOp56
 70
     1
102
RTVSPost2010Prop57
140
1.0
102
RTVSPost2010PropOp57
 70
     1
  0
XRECORD
  5
883B1
102
{ACAD_REACTORS
330
876C2
102
}
330
876C2
100
AcDbXrecord
280
     1
102
RTVSPropertyOp0
 70
     1
102
RTVSPropertyOp1
 70
     1
102
RTVSPropertyOp2
 70
     1
102
RTVSPropertyOp3
 70
     1
102
RTVSPropertyOp4
 70
     1
102
RTVSPropertyOp5
 70
     1
102
RTVSPropertyOp6
 70
     1
102
RTVSPropertyOp7
 70
     1
102
RTVSPropertyOp8
 70
     1
102
RTVSPropertyOp9
 70
     1
102
RTVSPropertyOp10
 70
     1
102
RTVSPropertyOp11
 70
     1
102
RTVSPropertyOp12
 70
     1
102
RTVSPropertyOp13
 70
     1
102
RTVSPropertyOp14
 70
     1
102
RTVSPropertyOp15
 70
     1
102
RTVSPropertyOp16
 70
     1
102
RTVSPropertyOp17
 70
     1
102
RTVSPropertyOp18
 70
     1
102
RTVSPropertyOp19
 70
     1
102
RTVSPropertyOp20
 70
     1
102
RTVSPropertyOp21
 70
     1
102
RTVSPropertyOp22
 70
     1
102
RTVSPropertyOp23
 70
     1
102
RTVSPropertyOp24
 70
     1
102
RTVSPropertyOp25
 70
     1
102
RTVSPropertyOp26
 70
     1
102
RTVSPropertyOp27
 70
     1
102
RTVSPropertyOp28
 70
     1
102
RTVSPropertyOp29
 70
     1
102
RTVSPropertyOp30
 70
     1
102
RTVSPropertyOp31
 70
     1
102
RTVSPropertyOp32
 70
     1
102
RTVSPropertyOp33
 70
     1
102
RTVSPropertyOp34
 70
     1
102
RTVSPropertyOp35
 70
     1
102
RTVSPropertyOp36
 70
     1
102
RTVSPropertyOp37
 70
     1
102
RTVSPropertyOp38
 70
     1
102
RTVSPropertyOp39
 70
     1
102
RTVSPropertyOp40
 70
     1
102
RTVSPropertyOp41
 70
     1
102
RTVSPropertyOp42
 70
     1
102
RTVSPropertyOp43
 70
     1
102
RTVSPropertyOp44
 70
     1
102
RTVSPropertyOp45
 70
     1
102
RTVSPropertyOp46
 70
     1
102
RTVSPropertyOp47
 70
     1
102
RTVSPropertyOp48
 70
     1
102
RTVSPropertyOp49
 70
     1
102
RTVSPropertyOp50
 70
     1
102
RTVSPropertyOp51
 70
     0
102
RTVSPropertyOp52
 70
     0
102
RTVSPropertyOp53
 70
     1
102
RTVSPropertyOp54
 70
     1
102
RTVSPropertyOp55
 70
     1
102
RTVSPropertyOp56
 70
     1
102
RTVSPropertyOp57
 70
     1
102
RTVSPost2010Prop28
280
     0
102
RTVSPost2010PropOp28
 70
     1
102
RTVSPost2010Prop29
280
     1
102
RTVSPost2010PropOp29
 70
     1
102
RTVSPost2010Prop30
280
     1
102
RTVSPost2010PropOp30
 70
     1
102
RTVSPost2010Prop31
280
     0
102
RTVSPost2010PropOp31
 70
     1
102
RTVSPost2010Prop32
280
     0
102
RTVSPost2010PropOp32
 70
     1
102
RTVSPost2010Prop33
280
     0
102
RTVSPost2010PropOp33
 70
     1
102
RTVSPost2010Prop34
280
     0
102
RTVSPost2010PropOp34
 70
     1
102
RTVSPost2010Prop35
280
     0
102
RTVSPost2010PropOp35
 70
     1
102
RTVSPost2010Prop36
280
     0
102
RTVSPost2010PropOp36
 70
     1
102
RTVSPost2010Prop37
 90
       50
102
RTVSPost2010PropOp37
 70
     1
102
RTVSPost2010Prop38
140
0.0
102
RTVSPost2010PropOp38
 70
     1
102
RTVSPost2010Prop39
140
1.0
102
RTVSPost2010PropOp39
 70
     1
102
RTVSPost2010Prop40
 90
        0
102
RTVSPost2010PropOp40
 70
     1
102
RTVSPost2010Prop41ColorIndex
 90
       18
102
RTVSPost2010Prop41ColorRGB
 90
        0
102
RTVSPost2010PropOp41
 70
     1
102
RTVSPost2010Prop42
 90
       50
102
RTVSPost2010PropOp42
 70
     1
102
RTVSPost2010Prop43
 90
        3
102
RTVSPost2010PropOp43
 70
     1
102
RTVSPost2010Prop44ColorIndex
 90
        5
102
RTVSPost2010Prop44ColorRGB
 90
      255
102
RTVSPost2010PropOp44
 70
     1
102
RTVSPost2010Prop45
280
     0
102
RTVSPost2010PropOp45
 70
     1
102
RTVSPost2010Prop46
 90
       50
102
RTVSPost2010PropOp46
 70
     1
102
RTVSPost2010Prop47
 90
       50
102
RTVSPost2010PropOp47
 70
     1
102
RTVSPost2010Prop48
 90
       50
102
RTVSPost2010PropOp48
 70
     1
102
RTVSPost2010Prop49
280
     0
102
RTVSPost2010PropOp49
 70
     1
102
RTVSPost2010Prop50
 90
       50
102
RTVSPost2010PropOp50
 70
     1
102
RTVSPost2010Prop51ColorIndex
 90
      256
102
RTVSPost2010Prop51ColorRGB
 90
-16777216
102
RTVSPost2010PropOp51
 70
     0
102
RTVSPost2010Prop52
140
1.0
102
RTVSPost2010PropOp52
 70
     0
102
RTVSPost2010Prop53
 90
        2
102
RTVSPost2010PropOp53
 70
     1
102
RTVSPost2010Prop54
  1
strokes_ogs.tif
102
RTVSPost2010PropOp54
 70
     1
102
RTVSPost2010Prop55
280
     0
102
RTVSPost2010PropOp55
 70
     1
102
RTVSPost2010Prop56
140
1.0
102
RTVSPost2010PropOp56
 70
     1
102
RTVSPost2010Prop57
140
1.0
102
RTVSPost2010PropOp57
 70
     1
  0
XRECORD
  5
883B2
102
{ACAD_REACTORS
330
876C4
102
}
330
876C4
100
AcDbXrecord
280
     1
102
RTVSPropertyOp0
 70
     1
102
RTVSPropertyOp1
 70
     1
102
RTVSPropertyOp2
 70
     1
102
RTVSPropertyOp3
 70
     1
102
RTVSPropertyOp4
 70
     1
102
RTVSPropertyOp5
 70
     1
102
RTVSPropertyOp6
 70
     1
102
RTVSPropertyOp7
 70
     1
102
RTVSPropertyOp8
 70
     1
102
RTVSPropertyOp9
 70
     1
102
RTVSPropertyOp10
 70
     1
102
RTVSPropertyOp11
 70
     1
102
RTVSPropertyOp12
 70
     1
102
RTVSPropertyOp13
 70
     1
102
RTVSPropertyOp14
 70
     1
102
RTVSPropertyOp15
 70
     1
102
RTVSPropertyOp16
 70
     1
102
RTVSPropertyOp17
 70
     1
102
RTVSPropertyOp18
 70
     1
102
RTVSPropertyOp19
 70
     1
102
RTVSPropertyOp20
 70
     1
102
RTVSPropertyOp21
 70
     1
102
RTVSPropertyOp22
 70
     1
102
RTVSPropertyOp23
 70
     1
102
RTVSPropertyOp24
 70
     1
102
RTVSPropertyOp25
 70
     1
102
RTVSPropertyOp26
 70
     1
102
RTVSPropertyOp27
 70
     1
102
RTVSPropertyOp28
 70
     1
102
RTVSPropertyOp29
 70
     1
102
RTVSPropertyOp30
 70
     1
102
RTVSPropertyOp31
 70
     1
102
RTVSPropertyOp32
 70
     1
102
RTVSPropertyOp33
 70
     1
102
RTVSPropertyOp34
 70
     1
102
RTVSPropertyOp35
 70
     1
102
RTVSPropertyOp36
 70
     1
102
RTVSPropertyOp37
 70
     1
102
RTVSPropertyOp38
 70
     1
102
RTVSPropertyOp39
 70
     1
102
RTVSPropertyOp40
 70
     1
102
RTVSPropertyOp41
 70
     1
102
RTVSPropertyOp42
 70
     1
102
RTVSPropertyOp43
 70
     1
102
RTVSPropertyOp44
 70
     1
102
RTVSPropertyOp45
 70
     1
102
RTVSPropertyOp46
 70
     1
102
RTVSPropertyOp47
 70
     1
102
RTVSPropertyOp48
 70
     1
102
RTVSPropertyOp49
 70
     1
102
RTVSPropertyOp50
 70
     1
102
RTVSPropertyOp51
 70
     0
102
RTVSPropertyOp52
 70
     0
102
RTVSPropertyOp53
 70
     1
102
RTVSPropertyOp54
 70
     1
102
RTVSPropertyOp55
 70
     1
102
RTVSPropertyOp56
 70
     1
102
RTVSPropertyOp57
 70
     1
102
RTVSPost2010Prop28
280
     0
102
RTVSPost2010PropOp28
 70
     1
102
RTVSPost2010Prop29
280
     1
102
RTVSPost2010PropOp29
 70
     1
102
RTVSPost2010Prop30
280
     1
102
RTVSPost2010PropOp30
 70
     1
102
RTVSPost2010Prop31
280
     0
102
RTVSPost2010PropOp31
 70
     1
102
RTVSPost2010Prop32
280
     0
102
RTVSPost2010PropOp32
 70
     1
102
RTVSPost2010Prop33
280
     0
102
RTVSPost2010PropOp33
 70
     1
102
RTVSPost2010Prop34
280
     0
102
RTVSPost2010PropOp34
 70
     1
102
RTVSPost2010Prop35
280
     0
102
RTVSPost2010PropOp35
 70
     1
102
RTVSPost2010Prop36
280
     0
102
RTVSPost2010PropOp36
 70
     1
102
RTVSPost2010Prop37
 90
       50
102
RTVSPost2010PropOp37
 70
     1
102
RTVSPost2010Prop38
140
0.0
102
RTVSPost2010PropOp38
 70
     1
102
RTVSPost2010Prop39
140
1.0
102
RTVSPost2010PropOp39
 70
     1
102
RTVSPost2010Prop40
 90
        0
102
RTVSPost2010PropOp40
 70
     1
102
RTVSPost2010Prop41ColorIndex
 90
       18
102
RTVSPost2010Prop41ColorRGB
 90
        0
102
RTVSPost2010PropOp41
 70
     1
102
RTVSPost2010Prop42
 90
       50
102
RTVSPost2010PropOp42
 70
     1
102
RTVSPost2010Prop43
 90
        3
102
RTVSPost2010PropOp43
 70
     1
102
RTVSPost2010Prop44ColorIndex
 90
        5
102
RTVSPost2010Prop44ColorRGB
 90
      255
102
RTVSPost2010PropOp44
 70
     1
102
RTVSPost2010Prop45
280
     0
102
RTVSPost2010PropOp45
 70
     1
102
RTVSPost2010Prop46
 90
       50
102
RTVSPost2010PropOp46
 70
     1
102
RTVSPost2010Prop47
 90
       50
102
RTVSPost2010PropOp47
 70
     1
102
RTVSPost2010Prop48
 90
       50
102
RTVSPost2010PropOp48
 70
     1
102
RTVSPost2010Prop49
280
     0
102
RTVSPost2010PropOp49
 70
     1
102
RTVSPost2010Prop50
 90
       50
102
RTVSPost2010PropOp50
 70
     1
102
RTVSPost2010Prop51ColorIndex
 90
      256
102
RTVSPost2010Prop51ColorRGB
 90
-16777216
102
RTVSPost2010PropOp51
 70
     0
102
RTVSPost2010Prop52
140
1.0
102
RTVSPost2010PropOp52
 70
     0
102
RTVSPost2010Prop53
 90
        2
102
RTVSPost2010PropOp53
 70
     1
102
RTVSPost2010Prop54
  1
strokes_ogs.tif
102
RTVSPost2010PropOp54
 70
     1
102
RTVSPost2010Prop55
280
     0
102
RTVSPost2010PropOp55
 70
     1
102
RTVSPost2010Prop56
140
1.0
102
RTVSPost2010PropOp56
 70
     1
102
RTVSPost2010Prop57
140
1.0
102
RTVSPost2010PropOp57
 70
     1
  0
XRECORD
  5
883B3
102
{ACAD_REACTORS
330
876BA
102
}
330
876BA
100
AcDbXrecord
280
     1
102
RTVSPropertyOp0
 70
     1
102
RTVSPropertyOp1
 70
     1
102
RTVSPropertyOp2
 70
     1
102
RTVSPropertyOp3
 70
     1
102
RTVSPropertyOp4
 70
     1
102
RTVSPropertyOp5
 70
     1
102
RTVSPropertyOp6
 70
     1
102
RTVSPropertyOp7
 70
     1
102
RTVSPropertyOp8
 70
     1
102
RTVSPropertyOp9
 70
     1
102
RTVSPropertyOp10
 70
     1
102
RTVSPropertyOp11
 70
     1
102
RTVSPropertyOp12
 70
     1
102
RTVSPropertyOp13
 70
     1
102
RTVSPropertyOp14
 70
     1
102
RTVSPropertyOp15
 70
     1
102
RTVSPropertyOp16
 70
     1
102
RTVSPropertyOp17
 70
     1
102
RTVSPropertyOp18
 70
     1
102
RTVSPropertyOp19
 70
     1
102
RTVSPropertyOp20
 70
     1
102
RTVSPropertyOp21
 70
     1
102
RTVSPropertyOp22
 70
     1
102
RTVSPropertyOp23
 70
     1
102
RTVSPropertyOp24
 70
     1
102
RTVSPropertyOp25
 70
     1
102
RTVSPropertyOp26
 70
     1
102
RTVSPropertyOp27
 70
     1
102
RTVSPropertyOp28
 70
     1
102
RTVSPropertyOp29
 70
     1
102
RTVSPropertyOp30
 70
     1
102
RTVSPropertyOp31
 70
     1
102
RTVSPropertyOp32
 70
     1
102
RTVSPropertyOp33
 70
     1
102
RTVSPropertyOp34
 70
     1
102
RTVSPropertyOp35
 70
     1
102
RTVSPropertyOp36
 70
     1
102
RTVSPropertyOp37
 70
     1
102
RTVSPropertyOp38
 70
     1
102
RTVSPropertyOp39
 70
     1
102
RTVSPropertyOp40
 70
     1
102
RTVSPropertyOp41
 70
     1
102
RTVSPropertyOp42
 70
     1
102
RTVSPropertyOp43
 70
     1
102
RTVSPropertyOp44
 70
     1
102
RTVSPropertyOp45
 70
     1
102
RTVSPropertyOp46
 70
     1
102
RTVSPropertyOp47
 70
     1
102
RTVSPropertyOp48
 70
     1
102
RTVSPropertyOp49
 70
     1
102
RTVSPropertyOp50
 70
     1
102
RTVSPropertyOp51
 70
     0
102
RTVSPropertyOp52
 70
     0
102
RTVSPropertyOp53
 70
     1
102
RTVSPropertyOp54
 70
     1
102
RTVSPropertyOp55
 70
     1
102
RTVSPropertyOp56
 70
     1
102
RTVSPropertyOp57
 70
     1
102
RTVSPost2010Prop28
280
     0
102
RTVSPost2010PropOp28
 70
     1
102
RTVSPost2010Prop29
280
     1
102
RTVSPost2010PropOp29
 70
     1
102
RTVSPost2010Prop30
280
     1
102
RTVSPost2010PropOp30
 70
     1
102
RTVSPost2010Prop31
280
     0
102
RTVSPost2010PropOp31
 70
     1
102
RTVSPost2010Prop32
280
     0
102
RTVSPost2010PropOp32
 70
     1
102
RTVSPost2010Prop33
280
     0
102
RTVSPost2010PropOp33
 70
     1
102
RTVSPost2010Prop34
280
     0
102
RTVSPost2010PropOp34
 70
     1
102
RTVSPost2010Prop35
280
     0
102
RTVSPost2010PropOp35
 70
     1
102
RTVSPost2010Prop36
280
     0
102
RTVSPost2010PropOp36
 70
     1
102
RTVSPost2010Prop37
 90
       50
102
RTVSPost2010PropOp37
 70
     1
102
RTVSPost2010Prop38
140
0.0
102
RTVSPost2010PropOp38
 70
     1
102
RTVSPost2010Prop39
140
1.0
102
RTVSPost2010PropOp39
 70
     1
102
RTVSPost2010Prop40
 90
        0
102
RTVSPost2010PropOp40
 70
     1
102
RTVSPost2010Prop41ColorIndex
 90
       18
102
RTVSPost2010Prop41ColorRGB
 90
        0
102
RTVSPost2010PropOp41
 70
     1
102
RTVSPost2010Prop42
 90
       50
102
RTVSPost2010PropOp42
 70
     1
102
RTVSPost2010Prop43
 90
        3
102
RTVSPost2010PropOp43
 70
     1
102
RTVSPost2010Prop44ColorIndex
 90
        5
102
RTVSPost2010Prop44ColorRGB
 90
      255
102
RTVSPost2010PropOp44
 70
     1
102
RTVSPost2010Prop45
280
     0
102
RTVSPost2010PropOp45
 70
     1
102
RTVSPost2010Prop46
 90
       50
102
RTVSPost2010PropOp46
 70
     1
102
RTVSPost2010Prop47
 90
       50
102
RTVSPost2010PropOp47
 70
     1
102
RTVSPost2010Prop48
 90
       50
102
RTVSPost2010PropOp48
 70
     1
102
RTVSPost2010Prop49
280
     0
102
RTVSPost2010PropOp49
 70
     1
102
RTVSPost2010Prop50
 90
       50
102
RTVSPost2010PropOp50
 70
     1
102
RTVSPost2010Prop51ColorIndex
 90
      256
102
RTVSPost2010Prop51ColorRGB
 90
-16777216
102
RTVSPost2010PropOp51
 70
     0
102
RTVSPost2010Prop52
140
1.0
102
RTVSPost2010PropOp52
 70
     0
102
RTVSPost2010Prop53
 90
        2
102
RTVSPost2010PropOp53
 70
     1
102
RTVSPost2010Prop54
  1
strokes_ogs.tif
102
RTVSPost2010PropOp54
 70
     1
102
RTVSPost2010Prop55
280
     0
102
RTVSPost2010PropOp55
 70
     1
102
RTVSPost2010Prop56
140
1.0
102
RTVSPost2010PropOp56
 70
     1
102
RTVSPost2010Prop57
140
1.0
102
RTVSPost2010PropOp57
 70
     1
  0
XRECORD
  5
883B4
102
{ACAD_REACTORS
330
876AE
102
}
330
876AE
100
AcDbXrecord
280
     1
102
RTVSPropertyOp0
 70
     1
102
RTVSPropertyOp1
 70
     1
102
RTVSPropertyOp2
 70
     1
102
RTVSPropertyOp3
 70
     1
102
RTVSPropertyOp4
 70
     1
102
RTVSPropertyOp5
 70
     1
102
RTVSPropertyOp6
 70
     1
102
RTVSPropertyOp7
 70
     1
102
RTVSPropertyOp8
 70
     1
102
RTVSPropertyOp9
 70
     1
102
RTVSPropertyOp10
 70
     1
102
RTVSPropertyOp11
 70
     1
102
RTVSPropertyOp12
 70
     1
102
RTVSPropertyOp13
 70
     1
102
RTVSPropertyOp14
 70
     1
102
RTVSPropertyOp15
 70
     1
102
RTVSPropertyOp16
 70
     1
102
RTVSPropertyOp17
 70
     1
102
RTVSPropertyOp18
 70
     1
102
RTVSPropertyOp19
 70
     1
102
RTVSPropertyOp20
 70
     1
102
RTVSPropertyOp21
 70
     1
102
RTVSPropertyOp22
 70
     1
102
RTVSPropertyOp23
 70
     1
102
RTVSPropertyOp24
 70
     1
102
RTVSPropertyOp25
 70
     1
102
RTVSPropertyOp26
 70
     1
102
RTVSPropertyOp27
 70
     1
102
RTVSPropertyOp28
 70
     1
102
RTVSPropertyOp29
 70
     1
102
RTVSPropertyOp30
 70
     1
102
RTVSPropertyOp31
 70
     1
102
RTVSPropertyOp32
 70
     1
102
RTVSPropertyOp33
 70
     1
102
RTVSPropertyOp34
 70
     1
102
RTVSPropertyOp35
 70
     1
102
RTVSPropertyOp36
 70
     1
102
RTVSPropertyOp37
 70
     1
102
RTVSPropertyOp38
 70
     1
102
RTVSPropertyOp39
 70
     1
102
RTVSPropertyOp40
 70
     1
102
RTVSPropertyOp41
 70
     1
102
RTVSPropertyOp42
 70
     1
102
RTVSPropertyOp43
 70
     1
102
RTVSPropertyOp44
 70
     1
102
RTVSPropertyOp45
 70
     1
102
RTVSPropertyOp46
 70
     1
102
RTVSPropertyOp47
 70
     1
102
RTVSPropertyOp48
 70
     1
102
RTVSPropertyOp49
 70
     1
102
RTVSPropertyOp50
 70
     1
102
RTVSPropertyOp51
 70
     0
102
RTVSPropertyOp52
 70
     0
102
RTVSPropertyOp53
 70
     1
102
RTVSPropertyOp54
 70
     1
102
RTVSPropertyOp55
 70
     1
102
RTVSPropertyOp56
 70
     1
102
RTVSPropertyOp57
 70
     1
102
RTVSPost2010Prop28
280
     0
102
RTVSPost2010PropOp28
 70
     1
102
RTVSPost2010Prop29
280
     1
102
RTVSPost2010PropOp29
 70
     1
102
RTVSPost2010Prop30
280
     1
102
RTVSPost2010PropOp30
 70
     1
102
RTVSPost2010Prop31
280
     0
102
RTVSPost2010PropOp31
 70
     1
102
RTVSPost2010Prop32
280
     0
102
RTVSPost2010PropOp32
 70
     1
102
RTVSPost2010Prop33
280
     0
102
RTVSPost2010PropOp33
 70
     1
102
RTVSPost2010Prop34
280
     0
102
RTVSPost2010PropOp34
 70
     1
102
RTVSPost2010Prop35
280
     0
102
RTVSPost2010PropOp35
 70
     1
102
RTVSPost2010Prop36
280
     0
102
RTVSPost2010PropOp36
 70
     1
102
RTVSPost2010Prop37
 90
       50
102
RTVSPost2010PropOp37
 70
     1
102
RTVSPost2010Prop38
140
0.0
102
RTVSPost2010PropOp38
 70
     1
102
RTVSPost2010Prop39
140
1.0
102
RTVSPost2010PropOp39
 70
     1
102
RTVSPost2010Prop40
 90
        0
102
RTVSPost2010PropOp40
 70
     1
102
RTVSPost2010Prop41ColorIndex
 90
       18
102
RTVSPost2010Prop41ColorRGB
 90
        0
102
RTVSPost2010PropOp41
 70
     1
102
RTVSPost2010Prop42
 90
       50
102
RTVSPost2010PropOp42
 70
     1
102
RTVSPost2010Prop43
 90
        3
102
RTVSPost2010PropOp43
 70
     1
102
RTVSPost2010Prop44ColorIndex
 90
        5
102
RTVSPost2010Prop44ColorRGB
 90
      255
102
RTVSPost2010PropOp44
 70
     1
102
RTVSPost2010Prop45
280
     0
102
RTVSPost2010PropOp45
 70
     1
102
RTVSPost2010Prop46
 90
       50
102
RTVSPost2010PropOp46
 70
     1
102
RTVSPost2010Prop47
 90
       50
102
RTVSPost2010PropOp47
 70
     1
102
RTVSPost2010Prop48
 90
       50
102
RTVSPost2010PropOp48
 70
     1
102
RTVSPost2010Prop49
280
     0
102
RTVSPost2010PropOp49
 70
     1
102
RTVSPost2010Prop50
 90
       50
102
RTVSPost2010PropOp50
 70
     1
102
RTVSPost2010Prop51ColorIndex
 90
      256
102
RTVSPost2010Prop51ColorRGB
 90
-16777216
102
RTVSPost2010PropOp51
 70
     0
102
RTVSPost2010Prop52
140
1.0
102
RTVSPost2010PropOp52
 70
     0
102
RTVSPost2010Prop53
 90
        2
102
RTVSPost2010PropOp53
 70
     1
102
RTVSPost2010Prop54
  1
strokes_ogs.tif
102
RTVSPost2010PropOp54
 70
     1
102
RTVSPost2010Prop55
280
     0
102
RTVSPost2010PropOp55
 70
     1
102
RTVSPost2010Prop56
140
1.0
102
RTVSPost2010PropOp56
 70
     1
102
RTVSPost2010Prop57
140
1.0
102
RTVSPost2010PropOp57
 70
     1
  0
XRECORD
  5
883B5
102
{ACAD_REACTORS
330
876C6
102
}
330
876C6
100
AcDbXrecord
280
     1
102
RTVSPropertyOp0
 70
     1
102
RTVSPropertyOp1
 70
     1
102
RTVSPropertyOp2
 70
     1
102
RTVSPropertyOp3
 70
     1
102
RTVSPropertyOp4
 70
     1
102
RTVSPropertyOp5
 70
     1
102
RTVSPropertyOp6
 70
     1
102
RTVSPropertyOp7
 70
     1
102
RTVSPropertyOp8
 70
     1
102
RTVSPropertyOp9
 70
     1
102
RTVSPropertyOp10
 70
     1
102
RTVSPropertyOp11
 70
     1
102
RTVSPropertyOp12
 70
     1
102
RTVSPropertyOp13
 70
     1
102
RTVSPropertyOp14
 70
     1
102
RTVSPropertyOp15
 70
     1
102
RTVSPropertyOp16
 70
     1
102
RTVSPropertyOp17
 70
     1
102
RTVSPropertyOp18
 70
     1
102
RTVSPropertyOp19
 70
     1
102
RTVSPropertyOp20
 70
     1
102
RTVSPropertyOp21
 70
     1
102
RTVSPropertyOp22
 70
     1
102
RTVSPropertyOp23
 70
     1
102
RTVSPropertyOp24
 70
     1
102
RTVSPropertyOp25
 70
     1
102
RTVSPropertyOp26
 70
     1
102
RTVSPropertyOp27
 70
     1
102
RTVSPropertyOp28
 70
     1
102
RTVSPropertyOp29
 70
     1
102
RTVSPropertyOp30
 70
     1
102
RTVSPropertyOp31
 70
     1
102
RTVSPropertyOp32
 70
     1
102
RTVSPropertyOp33
 70
     1
102
RTVSPropertyOp34
 70
     1
102
RTVSPropertyOp35
 70
     1
102
RTVSPropertyOp36
 70
     1
102
RTVSPropertyOp37
 70
     1
102
RTVSPropertyOp38
 70
     1
102
RTVSPropertyOp39
 70
     1
102
RTVSPropertyOp40
 70
     1
102
RTVSPropertyOp41
 70
     1
102
RTVSPropertyOp42
 70
     1
102
RTVSPropertyOp43
 70
     1
102
RTVSPropertyOp44
 70
     1
102
RTVSPropertyOp45
 70
     1
102
RTVSPropertyOp46
 70
     1
102
RTVSPropertyOp47
 70
     1
102
RTVSPropertyOp48
 70
     1
102
RTVSPropertyOp49
 70
     1
102
RTVSPropertyOp50
 70
     1
102
RTVSPropertyOp51
 70
     0
102
RTVSPropertyOp52
 70
     0
102
RTVSPropertyOp53
 70
     1
102
RTVSPropertyOp54
 70
     1
102
RTVSPropertyOp55
 70
     1
102
RTVSPropertyOp56
 70
     1
102
RTVSPropertyOp57
 70
     1
102
RTVSPost2010Prop28
280
     0
102
RTVSPost2010PropOp28
 70
     1
102
RTVSPost2010Prop29
280
     1
102
RTVSPost2010PropOp29
 70
     1
102
RTVSPost2010Prop30
280
     1
102
RTVSPost2010PropOp30
 70
     1
102
RTVSPost2010Prop31
280
     0
102
RTVSPost2010PropOp31
 70
     1
102
RTVSPost2010Prop32
280
     0
102
RTVSPost2010PropOp32
 70
     1
102
RTVSPost2010Prop33
280
     0
102
RTVSPost2010PropOp33
 70
     1
102
RTVSPost2010Prop34
280
     0
102
RTVSPost2010PropOp34
 70
     1
102
RTVSPost2010Prop35
280
     0
102
RTVSPost2010PropOp35
 70
     1
102
RTVSPost2010Prop36
280
     0
102
RTVSPost2010PropOp36
 70
     1
102
RTVSPost2010Prop37
 90
       50
102
RTVSPost2010PropOp37
 70
     1
102
RTVSPost2010Prop38
140
0.0
102
RTVSPost2010PropOp38
 70
     1
102
RTVSPost2010Prop39
140
1.0
102
RTVSPost2010PropOp39
 70
     1
102
RTVSPost2010Prop40
 90
        0
102
RTVSPost2010PropOp40
 70
     1
102
RTVSPost2010Prop41ColorIndex
 90
       18
102
RTVSPost2010Prop41ColorRGB
 90
        0
102
RTVSPost2010PropOp41
 70
     1
102
RTVSPost2010Prop42
 90
       50
102
RTVSPost2010PropOp42
 70
     1
102
RTVSPost2010Prop43
 90
        3
102
RTVSPost2010PropOp43
 70
     1
102
RTVSPost2010Prop44ColorIndex
 90
        5
102
RTVSPost2010Prop44ColorRGB
 90
      255
102
RTVSPost2010PropOp44
 70
     1
102
RTVSPost2010Prop45
280
     0
102
RTVSPost2010PropOp45
 70
     1
102
RTVSPost2010Prop46
 90
       50
102
RTVSPost2010PropOp46
 70
     1
102
RTVSPost2010Prop47
 90
       50
102
RTVSPost2010PropOp47
 70
     1
102
RTVSPost2010Prop48
 90
       50
102
RTVSPost2010PropOp48
 70
     1
102
RTVSPost2010Prop49
280
     0
102
RTVSPost2010PropOp49
 70
     1
102
RTVSPost2010Prop50
 90
       50
102
RTVSPost2010PropOp50
 70
     1
102
RTVSPost2010Prop51ColorIndex
 90
      256
102
RTVSPost2010Prop51ColorRGB
 90
-16777216
102
RTVSPost2010PropOp51
 70
     0
102
RTVSPost2010Prop52
140
1.0
102
RTVSPost2010PropOp52
 70
     0
102
RTVSPost2010Prop53
 90
        2
102
RTVSPost2010PropOp53
 70
     1
102
RTVSPost2010Prop54
  1
strokes_ogs.tif
102
RTVSPost2010PropOp54
 70
     1
102
RTVSPost2010Prop55
280
     0
102
RTVSPost2010PropOp55
 70
     1
102
RTVSPost2010Prop56
140
1.0
102
RTVSPost2010PropOp56
 70
     1
102
RTVSPost2010Prop57
140
1.0
102
RTVSPost2010PropOp57
 70
     1
  0
ENDSEC
  0
EOF
