  0
SECTION
  2
HEADER
  9
$ACADVER
  1
AC1015
  9
$ACADMAINTVER
 70
    20
  9
$DWGCODEPAGE
  3
ANSI_932
  9
$INSBASE
 10
0.0
 20
0.0
 30
0.0
  9
$EXTMIN
 10
-25.91753199580572
 20
-67.36312418500563
 30
0.0
  9
$EXTMAX
 10
119.4333333333333
 20
101.8830965513409
 30
0.0
  9
$LIMMIN
 10
0.0
 20
0.0
  9
$LIMMAX
 10
420.0
 20
297.0
  9
$ORTHOMODE
 70
     1
  9
$REGENMODE
 70
     1
  9
$FILLMODE
 70
     1
  9
$QTEXTMODE
 70
     0
  9
$MIRRTEXT
 70
     1
  9
$LTSCALE
 40
1.0
  9
$ATTMODE
 70
     1
  9
$TEXTSIZE
 40
3.5
  9
$TRACEWID
 40
1.0
  9
$TEXTSTYLE
  7
simplex
  9
$CLAYER
  8
0
  9
$CELTYPE
  6
ByLayer
  9
$CECOLOR
 62
   256
  9
$CELTSCALE
 40
1.0
  9
$DISPSILH
 70
     0
  9
$DIMSCALE
 40
0.0
  9
$DIMASZ
 40
3.5
  9
$DIMEXO
 40
0.0
  9
$DIMDLI
 40
0.38
  9
$DIMRND
 40
0.0
  9
$DIMDLE
 40
0.0
  9
$DIMEXE
 40
1.5
  9
$DIMTP
 40
0.0
  9
$DIMTM
 40
0.0
  9
$DIMTXT
 40
3.5
  9
$DIMCEN
 40
0.09
  9
$DIMTSZ
 40
0.0
  9
$DIMTOL
 70
     0
  9
$DIMLIM
 70
     0
  9
$DIMTIH
 70
     0
  9
$DIMTOH
 70
     0
  9
$DIMSE1
 70
     0
  9
$DIMSE2
 70
     0
  9
$DIMTAD
 70
     1
  9
$DIMZIN
 70
     8
  9
$DIMBLK
  1

  9
$DIMASO
 70
     1
  9
$DIMSHO
 70
     1
  9
$DIMPOST
  1

  9
$DIMAPOST
  1

  9
$DIMALT
 70
     0
  9
$DIMALTD
 70
     2
  9
$DIMALTF
 40
25.4
  9
$DIMLFAC
 40
1.0
  9
$DIMTOFL
 70
     0
  9
$DIMTVP
 40
0.0
  9
$DIMTIX
 70
     0
  9
$DIMSOXD
 70
     0
  9
$DIMSAH
 70
     0
  9
$DIMBLK1
  1

  9
$DIMBLK2
  1

  9
$DIMSTYLE
  2
コピー - ISO-25
  9
$DIMCLRD
 70
   256
  9
$DIMCLRE
 70
   256
  9
$DIMCLRT
 70
   256
  9
$DIMTFAC
 40
1.0
  9
$DIMGAP
 40
2.299999999999998
  9
$DIMJUST
 70
     0
  9
$DIMSD1
 70
     0
  9
$DIMSD2
 70
     0
  9
$DIMTOLJ
 70
     1
  9
$DIMTZIN
 70
     8
  9
$DIMALTZ
 70
     0
  9
$DIMALTTZ
 70
     0
  9
$DIMUPT
 70
     0
  9
$DIMDEC
 70
     2
  9
$DIMTDEC
 70
     2
  9
$DIMALTU
 70
     2
  9
$DIMALTTD
 70
     2
  9
$DIMTXSTY
  7
simplex
  9
$DIMAUNIT
 70
     0
  9
$DIMADEC
 70
     0
  9
$DIMALTRND
 40
0.0
  9
$DIMAZIN
 70
     0
  9
$DIMDSEP
 70
    46
  9
$DIMATFIT
 70
     3
  9
$DIMFRAC
 70
     0
  9
$DIMLDRBLK
  1

  9
$DIMLUNIT
 70
     2
  9
$DIMLWD
 70
    -1
  9
$DIMLWE
 70
    -1
  9
$DIMTMOVE
 70
     0
  9
$LUNITS
 70
     2
  9
$LUPREC
 70
     4
  9
$SKETCHINC
 40
1.0
  9
$FILLETRAD
 40
0.8
  9
$AUNITS
 70
     0
  9
$AUPREC
 70
     0
  9
$MENU
  1
.
  9
$ELEVATION
 40
0.0
  9
$PELEVATION
 40
0.0
  9
$THICKNESS
 40
0.0
  9
$LIMCHECK
 70
     0
  9
$CHAMFERA
 40
10.0
  9
$CHAMFERB
 40
10.0
  9
$CHAMFERC
 40
20.0
  9
$CHAMFERD
 40
0.0
  9
$SKPOLY
 70
     0
  9
$TDCREATE
 40
2455489.391063368
  9
$TDUCREATE
 40
2455489.057730035
  9
$TDUPDATE
 40
2458948.456752627
  9
$TDUUPDATE
 40
2458948.123419294
  9
$TDINDWG
 40
2.587204815
  9
$TDUSRTIMER
 40
2.587151829
  9
$USRTIMER
 70
     1
  9
$ANGBASE
 50
0.0
  9
$ANGDIR
 70
     0
  9
$PDMODE
 70
     0
  9
$PDSIZE
 40
0.0
  9
$PLINEWID
 40
0.0
  9
$SPLFRAME
 70
     0
  9
$SPLINETYPE
 70
     6
  9
$SPLINESEGS
 70
     8
  9
$HANDSEED
  5
91C46
  9
$SURFTAB1
 70
     6
  9
$SURFTAB2
 70
     6
  9
$SURFTYPE
 70
     6
  9
$SURFU
 70
     6
  9
$SURFV
 70
     6
  9
$UCSBASE
  2

  9
$UCSNAME
  2

  9
$UCSORG
 10
0.0
 20
0.0
 30
0.0
  9
$UCSXDIR
 10
1.0
 20
0.0
 30
0.0
  9
$UCSYDIR
 10
0.0
 20
1.0
 30
0.0
  9
$UCSORTHOREF
  2

  9
$UCSORTHOVIEW
 70
     0
  9
$UCSORGTOP
 10
0.0
 20
0.0
 30
0.0
  9
$UCSORGBOTTOM
 10
0.0
 20
0.0
 30
0.0
  9
$UCSORGLEFT
 10
0.0
 20
0.0
 30
0.0
  9
$UCSORGRIGHT
 10
0.0
 20
0.0
 30
0.0
  9
$UCSORGFRONT
 10
0.0
 20
0.0
 30
0.0
  9
$UCSORGBACK
 10
0.0
 20
0.0
 30
0.0
  9
$PUCSBASE
  2

  9
$PUCSNAME
  2

  9
$PUCSORG
 10
0.0
 20
0.0
 30
0.0
  9
$PUCSXDIR
 10
1.0
 20
0.0
 30
0.0
  9
$PUCSYDIR
 10
0.0
 20
1.0
 30
0.0
  9
$PUCSORTHOREF
  2

  9
$PUCSORTHOVIEW
 70
     0
  9
$PUCSORGTOP
 10
0.0
 20
0.0
 30
0.0
  9
$PUCSORGBOTTOM
 10
0.0
 20
0.0
 30
0.0
  9
$PUCSORGLEFT
 10
0.0
 20
0.0
 30
0.0
  9
$PUCSORGRIGHT
 10
0.0
 20
0.0
 30
0.0
  9
$PUCSORGFRONT
 10
0.0
 20
0.0
 30
0.0
  9
$PUCSORGBACK
 10
0.0
 20
0.0
 30
0.0
  9
$USERI1
 70
     0
  9
$USERI2
 70
     0
  9
$USERI3
 70
     0
  9
$USERI4
 70
     0
  9
$USERI5
 70
     0
  9
$USERR1
 40
0.0
  9
$USERR2
 40
0.0
  9
$USERR3
 40
0.0
  9
$USERR4
 40
0.0
  9
$USERR5
 40
0.0
  9
$WORLDVIEW
 70
     1
  9
$SHADEDGE
 70
     3
  9
$SHADEDIF
 70
    70
  9
$TILEMODE
 70
     1
  9
$MAXACTVP
 70
    64
  9
$PINSBASE
 10
0.0
 20
0.0
 30
0.0
  9
$PLIMCHECK
 70
     0
  9
$PEXTMIN
 10
26.66999878883364
 20
20.31999878883365
 30
0.0
  9
$PEXTMAX
 10
240.0299890995025
 20
182.8799890995025
 30
0.0
  9
$PLIMMIN
 10
-6.350006103515625
 20
-6.349999904632567
  9
$PLIMMAX
 10
273.0499877929688
 20
209.5499939918518
  9
$UNITMODE
 70
     0
  9
$VISRETAIN
 70
     1
  9
$PLINEGEN
 70
     0
  9
$PSLTSCALE
 70
     1
  9
$TREEDEPTH
 70
  3020
  9
$CMLSTYLE
  2
Standard
  9
$CMLJUST
 70
     0
  9
$CMLSCALE
 40
20.0
  9
$PROXYGRAPHICS
 70
     1
  9
$MEASUREMENT
 70
     1
  9
$CELWEIGHT
370
    -1
  9
$ENDCAPS
280
     0
  9
$JOINSTYLE
280
     0
  9
$LWDISPLAY
290
     0
  9
$INSUNITS
 70
     4
  9
$HYPERLINKBASE
  1

  9
$STYLESHEET
  1

  9
$XEDIT
290
     1
  9
$CEPSNTYPE
380
     0
  9
$PSTYLEMODE
290
     1
  9
$FINGERPRINTGUID
  2
{BC742675-F7A3-4376-B606-1B990ABC73B0}
  9
$VERSIONGUID
  2
{AE532D87-FA0C-4F26-AA7C-1424DB475867}
  9
$EXTNAMES
290
     1
  9
$PSVPSCALE
 40
0.0
  9
$OLESTARTUP
290
     0
  0
ENDSEC
  0
SECTION
  2
CLASSES
  0
CLASS
  1
ACDBDICTIONARYWDFLT
  2
AcDbDictionaryWithDefault
  3
ObjectDBX Classes
 90
        0
280
     0
281
     0
  0
CLASS
  1
ACDBPLACEHOLDER
  2
AcDbPlaceHolder
  3
ObjectDBX Classes
 90
    32768
280
     0
281
     0
  0
CLASS
  1
LAYOUT
  2
AcDbLayout
  3
ObjectDBX Classes
 90
    32768
280
     0
281
     0
  0
CLASS
  1
DICTIONARYVAR
  2
AcDbDictionaryVar
  3
ObjectDBX Classes
 90
        0
280
     0
281
     0
  0
CLASS
  1
TABLESTYLE
  2
AcDbTableStyle
  3
ObjectDBX Classes
 90
     4095
280
     0
281
     0
  0
CLASS
  1
SORTENTSTABLE
  2
AcDbSortentsTable
  3
ObjectDBX Classes
 90
        0
280
     0
281
     0
  0
CLASS
  1
DIMASSOC
  2
AcDbDimAssoc
  3
"AcDbDimAssoc|Product Desc:     AcDim ARX App For Dimension|Company:          Autodesk, Inc.|WEB Address:      www.autodesk.com"
 90
        0
280
     0
281
     0
  0
CLASS
  1
ACAD_EVALUATION_GRAPH
  2
AcDbEvalGraph
  3
ObjectDBX Classes
 90
    33921
280
     0
281
     0
  0
CLASS
  1
ACAECUSTOBJ
  2
AcAeEditorObj
  3
AcAeEditorObj
 90
    33792
280
     0
281
     0
  0
CLASS
  1
ACDB_DYNAMICBLOCKPURGEPREVENTER_VERSION
  2
AcDbDynamicBlockPurgePreventer
  3
ObjectDBX Classes
 90
    33921
280
     0
281
     0
  0
CLASS
  1
MATERIAL
  2
AcDbMaterial
  3
ObjectDBX Classes
 90
     1153
280
     0
281
     0
  0
CLASS
  1
VISUALSTYLE
  2
AcDbVisualStyle
  3
ObjectDBX Classes
 90
     4095
280
     0
281
     0
  0
CLASS
  1
SCALE
  2
AcDbScale
  3
ObjectDBX Classes
 90
     1153
280
     0
281
     0
  0
CLASS
  1
MLEADERSTYLE
  2
AcDbMLeaderStyle
  3
ACDB_MLEADERSTYLE_CLASS
 90
     4095
280
     0
281
     0
  0
CLASS
  1
ACDBSECTIONVIEWSTYLE
  2
AcDbSectionViewStyle
  3
ObjectDBX Classes
 90
     1025
280
     0
281
     0
  0
CLASS
  1
ACDBDETAILVIEWSTYLE
  2
AcDbDetailViewStyle
  3
ObjectDBX Classes
 90
     1025
280
     0
281
     0
  0
CLASS
  1
CELLSTYLEMAP
  2
AcDbCellStyleMap
  3
ObjectDBX Classes
 90
     1152
280
     0
281
     0
  0
CLASS
  1
ACDBPLACEHOLDER
  2
AcDbPlaceHolder
  3
ObjectDBX Classes
 90
    32768
280
     0
281
     0
  0
CLASS
  1
LAYOUT
  2
AcDbLayout
  3
ObjectDBX Classes
 90
    32768
280
     0
281
     0
  0
CLASS
  1
ACDBPLACEHOLDER
  2
AcDbPlaceHolder
  3
ObjectDBX Classes
 90
    32768
280
     0
281
     0
  0
CLASS
  1
LAYOUT
  2
AcDbLayout
  3
ObjectDBX Classes
 90
    32768
280
     0
281
     0
  0
CLASS
  1
ACDBPLACEHOLDER
  2
AcDbPlaceHolder
  3
ObjectDBX Classes
 90
    32768
280
     0
281
     0
  0
CLASS
  1
LAYOUT
  2
AcDbLayout
  3
ObjectDBX Classes
 90
    32768
280
     0
281
     0
  0
CLASS
  1
ACDBPLACEHOLDER
  2
AcDbPlaceHolder
  3
ObjectDBX Classes
 90
    32768
280
     0
281
     0
  0
CLASS
  1
LAYOUT
  2
AcDbLayout
  3
ObjectDBX Classes
 90
    32768
280
     0
281
     0
  0
CLASS
  1
ACDBPLACEHOLDER
  2
AcDbPlaceHolder
  3
ObjectDBX Classes
 90
    32768
280
     0
281
     0
  0
CLASS
  1
LAYOUT
  2
AcDbLayout
  3
ObjectDBX Classes
 90
    32768
280
     0
281
     0
  0
CLASS
  1
ACDBPLACEHOLDER
  2
AcDbPlaceHolder
  3
ObjectDBX Classes
 90
        0
280
     0
281
     0
  0
CLASS
  1
LAYOUT
  2
AcDbLayout
  3
ObjectDBX Classes
 90
        0
280
     0
281
     0
  0
ENDSEC
  0
SECTION
  2
TABLES
  0
TABLE
  2
VPORT
  5
8
102
{ACAD_XDICTIONARY
360
8C34E
102
}
330
0
100
AcDbSymbolTable
 70
     1
  0
VPORT
  5
4A360
330
8
100
AcDbSymbolTableRecord
100
AcDbViewportTableRecord
  2
*Active
 70
     0
 10
0.0
 20
0.0
 11
1.0
 21
1.0
 12
38.65838644085629
 22
18.7695062060245
 13
0.0
 23
0.0
 14
10.0
 24
10.0
 15
10.0
 25
10.0
 16
0.0
 26
0.0
 36
1.0
 17
0.0
 27
0.0
 37
0.0
 40
196.7757753926693
 41
1.705156950672645
 42
50.0
 43
0.0
 44
0.0
 50
0.0
 51
0.0
 71
     0
 72
  1000
 73
     1
 74
     1
 75
     0
 76
     0
 77
     0
 78
     0
281
     0
 65
     1
110
0.0
120
0.0
130
0.0
111
1.0
121
0.0
131
0.0
112
0.0
122
1.0
132
0.0
 79
     0
146
0.0
1001
ACAD_NAV_VCDISPLAY
1070
     3
  0
ENDTAB
  0
TABLE
  2
LTYPE
  5
5
330
0
100
AcDbSymbolTable
 70
     3
  0
LTYPE
  5
14
330
5
100
AcDbSymbolTableRecord
100
AcDbLinetypeTableRecord
  2
ByBlock
 70
     0
  3

 72
    65
 73
     0
 40
0.0
  0
LTYPE
  5
15
330
5
100
AcDbSymbolTableRecord
100
AcDbLinetypeTableRecord
  2
ByLayer
 70
     0
  3

 72
    65
 73
     0
 40
0.0
  0
LTYPE
  5
16
330
5
100
AcDbSymbolTableRecord
100
AcDbLinetypeTableRecord
  2
Continuous
 70
     0
  3
Solid line
 72
    65
 73
     0
 40
0.0
  0
LTYPE
  5
4A76E
330
5
100
AcDbSymbolTableRecord
100
AcDbLinetypeTableRecord
  2
CENTER2
 70
     0
  3
Center (.5x) ___ _ ___ _ ___ _ ___ _ ___ _ ___
 72
    65
 73
     4
 40
28.575
 49
19.05
 74
     0
 49
-3.174999999999998
 74
     0
 49
3.174999999999998
 74
     0
 49
-3.174999999999998
 74
     0
  0
LTYPE
  5
87B53
330
5
100
AcDbSymbolTableRecord
100
AcDbLinetypeTableRecord
  2
HIDDEN
 70
     0
  3
Hidden __ __ __ __ __ __ __ __ __ __ __ __ __ _
 72
    65
 73
     2
 40
9.524999999999996
 49
6.349999999999997
 74
     0
 49
-3.174999999999998
 74
     0
  0
ENDTAB
  0
TABLE
  2
LAYER
  5
2
102
{ACAD_XDICTIONARY
360
E2
102
}
330
0
100
AcDbSymbolTable
 70
    10
  0
LAYER
  5
10
102
{ACAD_XDICTIONARY
360
4A86C
102
}
330
2
100
AcDbSymbolTableRecord
100
AcDbLayerTableRecord
  2
0
 70
     0
 62
     7
  6
Continuous
370
    -3
390
F
  0
LAYER
  5
31B6
330
2
100
AcDbSymbolTableRecord
100
AcDbLayerTableRecord
  2
Defpoints
 70
     0
 62
     7
  6
Continuous
290
     0
370
    -3
390
F
  0
LAYER
  5
4A772
102
{ACAD_XDICTIONARY
360
4A773
102
}
330
2
100
AcDbSymbolTableRecord
100
AcDbLayerTableRecord
  2
1
 70
     0
 62
     4
  6
Continuous
370
    50
390
F
1001
AcAecLayerStandard
1000

1000
Contour
  0
LAYER
  5
4A774
102
{ACAD_XDICTIONARY
360
4A775
102
}
330
2
100
AcDbSymbolTableRecord
100
AcDbLayerTableRecord
  2
2
 70
     0
 62
     7
  6
Continuous
370
    25
390
F
1001
AcAecLayerStandard
1000

1000
Dimension milling
  0
LAYER
  5
4A776
102
{ACAD_XDICTIONARY
360
4A777
102
}
330
2
100
AcDbSymbolTableRecord
100
AcDbLayerTableRecord
  2
4
 70
     0
 62
     2
  6
CENTER2
370
    25
390
F
1001
AcAecLayerStandard
1000

1000
Center line
  0
LAYER
  5
4A778
102
{ACAD_XDICTIONARY
360
4A779
102
}
330
2
100
AcDbSymbolTableRecord
100
AcDbLayerTableRecord
  2
cut
 70
     0
 62
     1
  6
Continuous
370
    25
390
F
1001
AcAecLayerStandard
1000

1000
contour
  0
LAYER
  5
4A77A
102
{ACAD_XDICTIONARY
360
4A77B
102
}
330
2
100
AcDbSymbolTableRecord
100
AcDbLayerTableRecord
  2
nocut
 70
     0
 62
     7
  6
Continuous
370
    25
390
F
1001
AcAecLayerStandard
1000

1000
contour
  0
LAYER
  5
4A77E
102
{ACAD_XDICTIONARY
360
4A77F
102
}
330
2
100
AcDbSymbolTableRecord
100
AcDbLayerTableRecord
  2
sk2
 70
     0
 62
     7
  6
Continuous
370
    25
390
F
1001
AcAecLayerStandard
1000

1000
sk2 dimension
  0
LAYER
  5
4A782
102
{ACAD_XDICTIONARY
360
4A783
102
}
330
2
100
AcDbSymbolTableRecord
100
AcDbLayerTableRecord
  2
sk6
 70
     0
 62
     5
  6
Continuous
370
    35
390
F
1001
AcAecLayerStandard
1000

1000
sk6 text
  0
LAYER
  5
87B52
102
{ACAD_XDICTIONARY
360
8C34C
102
}
330
2
100
AcDbSymbolTableRecord
100
AcDbLayerTableRecord
  2
sk3
 70
     0
 62
     1
  6
HIDDEN
370
    35
390
F
1001
AcAecLayerStandard
1000

1000

  0
ENDTAB
  0
TABLE
  2
STYLE
  5
3
330
0
100
AcDbSymbolTable
 70
     2
  0
STYLE
  5
11
330
3
100
AcDbSymbolTableRecord
100
AcDbTextStyleTableRecord
  2
Standard
 70
     0
 40
0.0
 41
1.0
 50
0.0
 71
     0
 42
2.5
  3
txt.shx
  4
@extfont2.shx
  0
STYLE
  5
24A
330
3
100
AcDbSymbolTableRecord
100
AcDbTextStyleTableRecord
  2
simplex
 70
     0
 40
3.5
 41
1.0
 50
0.0
 71
     0
 42
3.5
  3
txt.shx
  4

  0
ENDTAB
  0
TABLE
  2
VIEW
  5
6
330
0
100
AcDbSymbolTable
 70
     0
  0
ENDTAB
  0
TABLE
  2
UCS
  5
7
330
0
100
AcDbSymbolTable
 70
     0
  0
ENDTAB
  0
TABLE
  2
APPID
  5
9
330
0
100
AcDbSymbolTable
 70
    31
  0
APPID
  5
12
330
9
100
AcDbSymbolTableRecord
100
AcDbRegAppTableRecord
  2
ACAD
 70
     0
  0
APPID
  5
D2
330
9
100
AcDbSymbolTableRecord
100
AcDbRegAppTableRecord
  2
AcAecLayerStandard
 70
     0
  0
APPID
  5
E6
330
9
100
AcDbSymbolTableRecord
100
AcDbRegAppTableRecord
  2
ACAD_DSTYLE_DIMTEXT_FILL
 70
     0
  0
APPID
  5
4C84
330
9
100
AcDbSymbolTableRecord
100
AcDbRegAppTableRecord
  2
ACAD_EXEMPT_FROM_CAD_STANDARDS
 70
     0
  0
APPID
  5
3493E
330
9
100
AcDbSymbolTableRecord
100
AcDbRegAppTableRecord
  2
DCO15
 70
     0
  0
APPID
  5
3BAB0
330
9
100
AcDbSymbolTableRecord
100
AcDbRegAppTableRecord
  2
ACAD_DSTYLE_DIMEXT_ENABLED
 70
     0
  0
APPID
  5
3BAB1
330
9
100
AcDbSymbolTableRecord
100
AcDbRegAppTableRecord
  2
ACAD_DSTYLE_DIMEXT_LENGTH
 70
     0
  0
APPID
  5
3BEB4
330
9
100
AcDbSymbolTableRecord
100
AcDbRegAppTableRecord
  2
ACAUTHENVIRON
 70
     0
  0
APPID
  5
3BEB7
330
9
100
AcDbSymbolTableRecord
100
AcDbRegAppTableRecord
  2
AcDbDynamicBlockTrueName
 70
     0
  0
APPID
  5
3BEB8
330
9
100
AcDbSymbolTableRecord
100
AcDbRegAppTableRecord
  2
AcDbDynamicBlockGUID
 70
     0
  0
APPID
  5
3BEBA
330
9
100
AcDbSymbolTableRecord
100
AcDbRegAppTableRecord
  2
AcDbBlockRepETag
 70
     0
  0
APPID
  5
4A453
330
9
100
AcDbSymbolTableRecord
100
AcDbRegAppTableRecord
  2
ACAD_PSEXT
 70
     0
  0
APPID
  5
4A454
330
9
100
AcDbSymbolTableRecord
100
AcDbRegAppTableRecord
  2
AcadAnnotative
 70
     0
  0
APPID
  5
4A455
330
9
100
AcDbSymbolTableRecord
100
AcDbRegAppTableRecord
  2
ACAD_DSTYLE_DIMJAG
 70
     0
  0
APPID
  5
4A456
330
9
100
AcDbSymbolTableRecord
100
AcDbRegAppTableRecord
  2
ACAD_DSTYLE_DIMTALN
 70
     0
  0
APPID
  5
4A457
330
9
100
AcDbSymbolTableRecord
100
AcDbRegAppTableRecord
  2
ACAD_NAV_VCDISPLAY
 70
     0
  0
APPID
  5
4A787
330
9
100
AcDbSymbolTableRecord
100
AcDbRegAppTableRecord
  2
ACAD_DSTYLE_DIMINSPECT
 70
     0
  0
APPID
  5
4A788
330
9
100
AcDbSymbolTableRecord
100
AcDbRegAppTableRecord
  2
GENIUS_GENDTOL_13
 70
     0
  0
APPID
  5
4A789
330
9
100
AcDbSymbolTableRecord
100
AcDbRegAppTableRecord
  2
ZWMCAD_GENSTANDARDFRAME_13_
 70
     0
  0
APPID
  5
4A78A
330
9
100
AcDbSymbolTableRecord
100
AcDbRegAppTableRecord
  2
ZW_RECESS_XDATA
 70
     0
  0
APPID
  5
4A78B
330
9
100
AcDbSymbolTableRecord
100
AcDbRegAppTableRecord
  2
ZW_FAC_XDATA
 70
     0
  0
APPID
  5
4A78C
330
9
100
AcDbSymbolTableRecord
100
AcDbRegAppTableRecord
  2
ZW_FLC_XDATA
 70
     0
  0
APPID
  5
4A78D
330
9
100
AcDbSymbolTableRecord
100
AcDbRegAppTableRecord
  2
ZW_SUPERPART
 70
     0
  0
APPID
  5
4A78E
330
9
100
AcDbSymbolTableRecord
100
AcDbRegAppTableRecord
  2
ZW_SUPERSYMBOL
 70
     0
  0
APPID
  5
4A78F
330
9
100
AcDbSymbolTableRecord
100
AcDbRegAppTableRecord
  2
ZW_SUPERSHAFT
 70
     0
  0
APPID
  5
4A790
330
9
100
AcDbSymbolTableRecord
100
AcDbRegAppTableRecord
  2
ZWMCAD_GENFRAME_13_
 70
     0
  0
APPID
  5
4A791
330
9
100
AcDbSymbolTableRecord
100
AcDbRegAppTableRecord
  2
ACAD_MLEADERVER
 70
     0
  0
APPID
  5
4A792
330
9
100
AcDbSymbolTableRecord
100
AcDbRegAppTableRecord
  2
ACAD_DSTYLE_DIMRADIAL_EXTENSION
 70
     0
  0
APPID
  5
885F1
330
9
100
AcDbSymbolTableRecord
100
AcDbRegAppTableRecord
  2
ZWMCAD_GENSCA_13_
 70
     0
  0
APPID
  5
885EF
330
9
100
AcDbSymbolTableRecord
100
AcDbRegAppTableRecord
  2
ACAD_DSTYLE_DIMRADIAL_EXTE
 70
     0
  0
APPID
  5
885EE
330
9
100
AcDbSymbolTableRecord
100
AcDbRegAppTableRecord
  2
ZWMCAD_GENSTANDARDFRAME_13
 70
     0
  0
ENDTAB
  0
TABLE
  2
DIMSTYLE
  5
A
330
0
100
AcDbSymbolTable
 70
     2
100
AcDbDimStyleTable
 71
    21
340
1BF
340
3527
340
90771
340
907A6
340
907AC
340
907B1
340
907B7
340
919EE
340
919F4
340
919F9
340
919FF
340
91A04
340
91A0A
340
91A0F
340
91A15
340
91A1A
340
91A20
340
91A25
340
91A2B
340
91A30
340
91A36
  0
DIMSTYLE
105
1BF
102
{ACAD_REACTORS
330
917EC
330
91890
330
917E5
330
917E8
330
917EB
330
917ED
330
91BBB
102
}
330
A
100
AcDbSymbolTableRecord
100
AcDbDimStyleTableRecord
  2
コピー - ISO-25
 70
     0
 40
0.0
 41
3.5
 42
0.0
 44
1.5
 73
     0
 74
     0
 77
     1
 78
     8
140
3.5
147
2.299999999999998
176
   256
177
   256
271
     2
178
   256
271
     2
272
     2
284
     8
340
24A
371
    -1
372
    -1
  0
DIMSTYLE
105
3527
330
A
100
AcDbSymbolTableRecord
100
AcDbDimStyleTableRecord
  2
STANDARD
 70
     0
 41
3.0
 47
0.001
 48
0.001
 71
     1
 73
     0
 74
     0
 77
     1
 78
     8
140
4.0
271
     3
272
     3
284
     8
340
11
341
34B1
342
34B1
343
34B1
344
34B1
  0
ENDTAB
  0
TABLE
  2
BLOCK_RECORD
  5
1
330
0
100
AcDbSymbolTable
 70
    11
  0
BLOCK_RECORD
  5
1F
102
{ACAD_XDICTIONARY
360
31EE
102
}
330
1
100
AcDbSymbolTableRecord
100
AcDbBlockTableRecord
  2
*Model_Space
340
22
  0
BLOCK_RECORD
  5
55
330
1
100
AcDbSymbolTableRecord
100
AcDbBlockTableRecord
  2
*Paper_Space
340
56
  0
BLOCK_RECORD
  5
50
330
1
100
AcDbSymbolTableRecord
100
AcDbBlockTableRecord
  2
*Paper_Space0000000
340
51
  0
BLOCK_RECORD
  5
34B1
330
1
100
AcDbSymbolTableRecord
100
AcDbBlockTableRecord
  2
_OPEN
340
0
  0
BLOCK_RECORD
  5
4A6D6
102
{ACAD_XDICTIONARY
360
4A6D7
102
}
330
1
100
AcDbSymbolTableRecord
100
AcDbBlockTableRecord
  2
zero block
340
0
102
{BLKREFS
331
4A793
331
87B7F
331
87D7D
331
880DD
331
882D3
331
90190
331
903FC
331
90821
331
90A84
331
90E49
331
910AD
331
91473
331
916B3
331
8FB3B
331
8FDCA
331
8BD57
331
8BFE6
102
}
1001
AcDbDynamicBlockGUID
1000
{A89DF4EB-B2CB-439E-AC69-1EAC9F242D1C}
1001
AcDbBlockRepETag
1070
     1
1071
        7
1001
ACAD
1000
DesignCenter Data
1002
{
1070
     1
1070
     4
1002
}
  0
BLOCK_RECORD
  5
87D73
330
1
100
AcDbSymbolTableRecord
100
AcDbBlockTableRecord
  2
_None
340
0
102
{BLKREFS
331
87D72
331
87F63
331
87FA2
331
87FBD
331
87FC5
331
88042
331
88238
331
884B1
331
884F0
331
88512
331
885AA
331
9002A
331
9006F
331
900CE
331
90117
331
903C3
331
9062B
331
90673
331
906DD
331
90724
331
909A6
331
90CA0
331
90CEB
331
90D5B
331
90DBF
331
90FCE
331
912CA
331
91315
331
9135A
331
913E9
331
915B9
331
91895
331
918E5
331
91966
331
91989
331
91AA1
331
8A12B
331
8DEC1
331
8FA29
331
8FA4D
331
8FAA7
331
8FD00
331
8BC93
331
8BCED
331
8BF27
331
8C250
331
8C292
331
8C2BE
331
8C2FE
331
8C332
102
}
  0
BLOCK_RECORD
  5
91891
330
1
100
AcDbSymbolTableRecord
100
AcDbBlockTableRecord
  2
*D55444
340
0
  0
BLOCK_RECORD
  5
9189C
330
1
100
AcDbSymbolTableRecord
100
AcDbBlockTableRecord
  2
*D56555
340
0
  0
BLOCK_RECORD
  5
918A8
330
1
100
AcDbSymbolTableRecord
100
AcDbBlockTableRecord
  2
*D57666
340
0
  0
BLOCK_RECORD
  5
918B4
330
1
100
AcDbSymbolTableRecord
100
AcDbBlockTableRecord
  2
*D58777
340
0
  0
BLOCK_RECORD
  5
918C0
330
1
100
AcDbSymbolTableRecord
100
AcDbBlockTableRecord
  2
*D59888
340
0
  0
BLOCK_RECORD
  5
918D6
330
1
100
AcDbSymbolTableRecord
100
AcDbBlockTableRecord
  2
*D6110109
340
0
  0
BLOCK_RECORD
  5
91BBC
330
1
100
AcDbSymbolTableRecord
100
AcDbBlockTableRecord
  2
*D1310
340
0
  0
ENDTAB
  0
ENDSEC
  0
SECTION
  2
BLOCKS
  0
BLOCK
  5
20
330
1F
100
AcDbEntity
  8
0
100
AcDbBlockBegin
  2
*Model_Space
 70
     0
 10
0.0
 20
0.0
 30
0.0
  3
*Model_Space
  1

  0
ENDBLK
  5
21
330
1F
100
AcDbEntity
  8
0
100
AcDbBlockEnd
  0
BLOCK
  5
57
330
55
100
AcDbEntity
 67
     1
  8
0
100
AcDbBlockBegin
  2
*Paper_Space
 70
     0
 10
0.0
 20
0.0
 30
0.0
  3
*Paper_Space
  1

  0
ENDBLK
  5
58
330
55
100
AcDbEntity
 67
     1
  8
0
100
AcDbBlockEnd
  0
BLOCK
  5
52
330
50
100
AcDbEntity
  8
0
100
AcDbBlockBegin
  2
*Paper_Space0000000
 70
     0
 10
0.0
 20
0.0
 30
0.0
  3
*Paper_Space0000000
  1

  0
VIEWPORT
  5
6B
102
{ACAD_XDICTIONARY
360
87B05
102
}
330
50
100
AcDbEntity
  8
0
100
AcDbViewport
 10
264.3775031494645
 20
160.4455827878762
 30
0.0
 40
567.6219612953822
 41
282.2272140146125
 68
     1
 69
    -1
 12
264.3775031494645
 22
160.4455827878762
 13
0.0
 23
0.0
 14
10.0
 24
10.0
 15
10.0
 25
10.0
 16
0.0
 26
0.0
 36
1.0
 17
0.0
 27
0.0
 37
0.0
 42
50.0
 43
0.0
 44
0.0
 45
282.2272140146125
 50
0.0
 51
0.0
 72
  1000
 90
    32864
  1

281
     0
 71
     1
 74
     0
110
0.0
120
0.0
130
0.0
111
1.0
121
0.0
131
0.0
112
0.0
122
1.0
132
0.0
 79
     0
146
0.0
1001
ACAD
1000
MVIEW
1002
{
1070
    16
1010
0.0
1020
0.0
1030
0.0
1010
0.0
1020
0.0
1030
1.0
1040
0.0
1040
282.2272140146125
1040
264.3775031494645
1040
160.4455827878762
1040
50.0
1040
0.0
1040
0.0
1070
     0
1070
  1000
1070
     0
1070
     3
1070
     0
1070
     0
1070
     0
1070
     0
1040
0.0
1040
0.0
1040
0.0
1040
10.0
1040
10.0
1040
10.0
1040
10.0
1070
     0
1002
{
1002
}
1002
}
  0
VIEWPORT
  5
6D
102
{ACAD_XDICTIONARY
360
87B07
102
}
330
50
100
AcDbEntity
  8
0
100
AcDbViewport
 10
133.3499939441681
 20
101.5999939441681
 30
0.0
 40
213.3599903106689
 41
162.5599903106689
 68
     2
 69
    -1
 12
210.0
 22
148.5
 13
0.0
 23
0.0
 14
10.0
 24
10.0
 15
10.0
 25
10.0
 16
0.0
 26
0.0
 36
1.0
 17
0.0
 27
0.0
 37
0.0
 42
50.0
 43
0.0
 44
0.0
 45
324.0677920111345
 50
0.0
 51
0.0
 72
   100
 90
    32864
  1

281
     0
 71
     1
 74
     0
110
0.0
120
0.0
130
0.0
111
1.0
121
0.0
131
0.0
112
0.0
122
1.0
132
0.0
 79
     0
146
0.0
1001
ACAD
1000
MVIEW
1002
{
1070
    16
1010
0.0
1020
0.0
1030
0.0
1010
0.0
1020
0.0
1030
1.0
1040
0.0
1040
324.0677920111345
1040
210.0
1040
148.5
1040
50.0
1040
0.0
1040
0.0
1070
     0
1070
   100
1070
     0
1070
     3
1070
     0
1070
     0
1070
     0
1070
     0
1040
0.0
1040
0.0
1040
0.0
1040
10.0
1040
10.0
1040
10.0
1040
10.0
1070
     0
1002
{
1002
}
1002
}
  0
ENDBLK
  5
53
330
50
100
AcDbEntity
  8
0
100
AcDbBlockEnd
  0
BLOCK
  5
34B2
330
34B1
100
AcDbEntity
  8
0
100
AcDbBlockBegin
  2
_OPEN
 70
     0
 10
0.0
 20
0.0
 30
0.0
  3
_OPEN
  1

  0
LINE
  5
34B3
330
34B1
100
AcDbEntity
  8
0
  6
ByBlock
 62
     0
100
AcDbLine
 10
0.0
 20
0.0
 30
0.0
 11
-1.0
 21
0.1766666667
 31
0.0
  0
LINE
  5
34B4
330
34B1
100
AcDbEntity
  8
0
  6
ByBlock
 62
     0
100
AcDbLine
 10
-1.0
 20
-0.1766666667
 30
0.0
 11
0.0
 21
0.0
 31
0.0
  0
LINE
  5
34B5
330
34B1
100
AcDbEntity
  8
0
  6
ByBlock
 62
     0
100
AcDbLine
 10
-1.0
 20
0.0
 30
0.0
 11
0.0
 21
0.0
 31
0.0
  0
ENDBLK
  5
34B6
330
34B1
100
AcDbEntity
  8
0
  6
ByBlock
 62
     0
100
AcDbBlockEnd
  0
BLOCK
  5
4A6D9
330
4A6D6
100
AcDbEntity
  8
0
100
AcDbBlockBegin
  2
zero block
 70
     0
 10
0.0
 20
0.0
 30
0.0
  3
zero block
  1

  0
HATCH
  5
4A6DA
330
4A6D6
100
AcDbEntity
  8
0
 62
     7
100
AcDbHatch
 10
0.0
 20
0.0
 30
0.0
210
0.0
220
0.0
230
1.0
  2
SOLID
 70
     1
 71
     0
 91
        2
 92
        7
 72
     1
 73
     1
 93
        3
 10
0.0
 20
0.9999999999999875
 42
0.4142135623730915
 10
-1.0
 20
0.0
 42
0.0
 10
0.0
 20
0.0
 42
0.0
 97
        0
 92
        7
 72
     1
 73
     1
 93
        3
 10
1.000000000000007
 20
0.0
 42
0.0
 10
0.0
 20
0.0
 42
0.0
 10
0.0
 20
-1.0
 42
0.4142135623730974
 97
        0
 75
     0
 76
     1
 47
0.0090601366782909
 98
        2
 10
-0.380591363650975
 20
0.4885804701532896
 10
0.4350764810977559
 20
-0.4536738423704725
1001
AcDbBlockRepETag
1070
     1
1071
        0
1005
4A6DA
  0
LINE
  5
4A6DB
330
4A6D6
100
AcDbEntity
  8
0
 62
     7
 48
0.2
100
AcDbLine
 10
-1.0
 20
0.0
 30
0.0
 11
1.000000000000007
 21
0.0
 31
0.0
1001
AcDbBlockRepETag
1070
     1
1071
        1
1005
4A6DB
  0
LINE
  5
4A6DC
330
4A6D6
100
AcDbEntity
  8
0
 62
     7
 48
0.2
100
AcDbLine
 10
0.0
 20
-1.0
 30
0.0
 11
0.0
 21
0.9999999999999875
 31
0.0
1001
AcDbBlockRepETag
1070
     1
1071
        2
1005
4A6DC
  0
ARC
  5
4A6DD
330
4A6D6
100
AcDbEntity
  8
0
 62
     7
 48
0.2
100
AcDbCircle
 10
0.0
 20
0.0
 30
0.0
 40
1.0
100
AcDbArc
 50
270.0
 51
0.0
1001
AcDbBlockRepETag
1070
     1
1071
        3
1005
4A6DD
  0
ARC
  5
4A6DE
330
4A6D6
100
AcDbEntity
  8
0
 62
     7
 48
0.2
100
AcDbCircle
 10
0.0
 20
0.0
 30
0.0
 40
1.0
100
AcDbArc
 50
0.0
 51
90.0
1001
AcDbBlockRepETag
1070
     1
1071
        4
1005
4A6DE
  0
ARC
  5
4A6DF
330
4A6D6
100
AcDbEntity
  8
0
 62
     7
 48
0.2
100
AcDbCircle
 10
0.0
 20
0.0
 30
0.0
 40
1.0
100
AcDbArc
 50
180.0
 51
270.0
1001
AcDbBlockRepETag
1070
     1
1071
        5
1005
4A6DF
  0
ARC
  5
4A6E0
330
4A6D6
100
AcDbEntity
  8
0
 62
     7
 48
0.2
100
AcDbCircle
 10
0.0
 20
0.0
 30
0.0
 40
1.0
100
AcDbArc
 50
90.0
 51
180.0
1001
AcDbBlockRepETag
1070
     1
1071
        6
1005
4A6E0
  0
ENDBLK
  5
4A6E1
330
4A6D6
100
AcDbEntity
  8
0
100
AcDbBlockEnd
  0
BLOCK
  5
87D74
330
87D73
100
AcDbEntity
  8
0
100
AcDbBlockBegin
  2
_None
 70
     0
 10
0.0
 20
0.0
 30
0.0
  3
_None
  1

  0
ENDBLK
  5
87D75
330
87D73
100
AcDbEntity
  8
0
100
AcDbBlockEnd
  0
BLOCK
  5
9189A
330
91891
100
AcDbEntity
  8
0
100
AcDbBlockBegin
  2
*D55444
 70
     1
 10
0.0
 20
0.0
 30
0.0
  3
*D55444
  1

  0
LINE
  5
91A9E
330
91891
100
AcDbEntity
  8
2
100
AcDbLine
 10
62.70000000000002
 20
50.79999999889999
 30
0.0
 11
91.15552348087021
 21
50.79999999889999
 31
0.0
  0
LINE
  5
91A9F
330
91891
100
AcDbEntity
  8
2
100
AcDbLine
 10
89.65552348087021
 20
47.29999999889999
 30
0.0
 11
89.65552348087021
 21
-50.7999999989
 31
0.0
  0
SOLID
  5
91AA0
330
91891
100
AcDbEntity
  8
2
100
AcDbTrace
 10
90.23885681420354
 20
47.29999999889999
 30
0.0
 11
89.07219014753689
 21
47.29999999889999
 31
0.0
 12
89.65552348087021
 22
50.79999999889999
 32
0.0
 13
89.65552348087021
 23
50.79999999889999
 33
0.0
  0
INSERT
  5
91AA1
330
91891
100
AcDbEntity
  8
2
100
AcDbBlockReference
  2
_None
 10
89.65552348087021
 20
-50.7999999989
 30
0.0
 41
3.5
 42
3.5
 43
3.5
 50
270.0
  0
MTEXT
  5
91AA2
330
91891
100
AcDbEntity
  8
2
100
AcDbMText
 10
85.6055234808702
 20
-1.750000000000006
 30
0.0
 40
3.5
 41
0.0
 71
     5
 72
     1
  1
\A1;%%C101.6 [%%c4.000"]
  7
simplex
 11
0.0
 21
1.0
 31
0.0
 73
     1
 44
1.0
1001
ACAD
1000
MTEXTBEGIN
1070
    73
1070
     1
1070
    44
1040
1.0
1070
    74
1070
     0
1000
MTEXTEND
  0
POINT
  5
91AA3
330
91891
100
AcDbEntity
  8
Defpoints
 62
     0
100
AcDbPoint
 10
62.70000000000002
 20
50.79999999889999
 30
0.0
  0
POINT
  5
91AA4
330
91891
100
AcDbEntity
  8
Defpoints
 62
     0
100
AcDbPoint
 10
62.70000000000002
 20
-50.7999999989
 30
0.0
  0
POINT
  5
91AA5
330
91891
100
AcDbEntity
  8
Defpoints
 62
     0
100
AcDbPoint
 10
89.65552348087021
 20
-50.7999999989
 30
0.0
  0
ENDBLK
  5
9189B
330
91891
100
AcDbEntity
  8
0
100
AcDbBlockEnd
  0
BLOCK
  5
918A6
330
9189C
100
AcDbEntity
  8
0
100
AcDbBlockBegin
  2
*D56555
 70
     1
 10
0.0
 20
0.0
 30
0.0
  3
*D56555
  1

  0
LINE
  5
9198E
330
9189C
100
AcDbEntity
  8
sk2
100
AcDbLine
 10
8.0
 20
19.0499999989
 30
0.0
 11
-11.33416996484121
 21
19.0499999989
 31
0.0
  0
LINE
  5
9198F
330
9189C
100
AcDbEntity
  8
sk2
100
AcDbLine
 10
8.0
 20
-19.0499999989
 30
0.0
 11
-11.33416996484121
 21
-19.0499999989
 31
0.0
  0
LINE
  5
91990
330
9189C
100
AcDbEntity
  8
sk2
100
AcDbLine
 10
-9.834169964841207
 20
15.5499999989
 30
0.0
 11
-9.834169964841207
 21
-15.5499999989
 31
0.0
  0
SOLID
  5
91991
330
9189C
100
AcDbEntity
  8
sk2
100
AcDbTrace
 10
-9.250836631507873
 20
15.5499999989
 30
0.0
 11
-10.41750329817454
 21
15.5499999989
 31
0.0
 12
-9.834169964841207
 22
19.0499999989
 32
0.0
 13
-9.834169964841207
 23
19.0499999989
 33
0.0
  0
SOLID
  5
91992
330
9189C
100
AcDbEntity
  8
sk2
100
AcDbTrace
 10
-10.41750329817454
 20
-15.5499999989
 30
0.0
 11
-9.250836631507873
 21
-15.5499999989
 31
0.0
 12
-9.834169964841207
 22
-19.0499999989
 32
0.0
 13
-9.834169964841207
 23
-19.0499999989
 33
0.0
  0
MTEXT
  5
91993
330
9189C
100
AcDbEntity
  8
sk2
100
AcDbMText
 10
-13.8841699648412
 20
0.260355164284519
 30
0.0
 40
3.5
 41
0.0
 71
     5
 72
     1
  1
\A1;%%C38.1 [%%c1.500"]
  7
simplex
 11
0.0
 21
1.0
 31
0.0
 73
     1
 44
1.0
1001
ACAD
1000
MTEXTBEGIN
1070
    73
1070
     1
1070
    44
1040
1.0
1070
    74
1070
     0
1000
MTEXTEND
  0
POINT
  5
91994
330
9189C
100
AcDbEntity
  8
Defpoints
 62
     0
100
AcDbPoint
 10
8.0
 20
19.0499999989
 30
0.0
  0
POINT
  5
91995
330
9189C
100
AcDbEntity
  8
Defpoints
 62
     0
100
AcDbPoint
 10
8.0
 20
-19.0499999989
 30
0.0
  0
POINT
  5
91996
330
9189C
100
AcDbEntity
  8
Defpoints
 62
     0
100
AcDbPoint
 10
-9.834169964841207
 20
-19.0499999989
 30
0.0
  0
ENDBLK
  5
918A7
330
9189C
100
AcDbEntity
  8
0
100
AcDbBlockEnd
  0
BLOCK
  5
918B2
330
918A8
100
AcDbEntity
  8
0
100
AcDbBlockBegin
  2
*D57666
 70
     1
 10
0.0
 20
0.0
 30
0.0
  3
*D57666
  1

  0
LINE
  5
91997
330
918A8
100
AcDbEntity
  8
sk2
100
AcDbLine
 10
7.837200600800002
 20
44.45000638569992
 30
0.0
 11
-21.61753199580572
 21
44.45000638569992
 31
0.0
  0
LINE
  5
91998
330
918A8
100
AcDbEntity
  8
sk2
100
AcDbLine
 10
7.837200600800002
 20
-44.44999361430004
 30
0.0
 11
-21.61753199580572
 21
-44.44999361430004
 31
0.0
  0
LINE
  5
91999
330
918A8
100
AcDbEntity
  8
sk2
100
AcDbLine
 10
-20.11753199580572
 20
40.95000638569992
 30
0.0
 11
-20.11753199580573
 21
-40.94999361430004
 31
0.0
  0
SOLID
  5
9199A
330
918A8
100
AcDbEntity
  8
sk2
100
AcDbTrace
 10
-19.53419866247238
 20
40.95000638569992
 30
0.0
 11
-20.70086532913905
 21
40.95000638569992
 31
0.0
 12
-20.11753199580572
 22
44.45000638569992
 32
0.0
 13
-20.11753199580572
 23
44.45000638569992
 33
0.0
  0
SOLID
  5
9199B
330
918A8
100
AcDbEntity
  8
sk2
100
AcDbTrace
 10
-20.70086532913906
 20
-40.94999361430004
 30
0.0
 11
-19.53419866247239
 21
-40.94999361430004
 31
0.0
 12
-20.11753199580573
 22
-44.44999361430004
 32
0.0
 13
-20.11753199580573
 23
-44.44999361430004
 33
0.0
  0
MTEXT
  5
9199C
330
918A8
100
AcDbEntity
  8
sk2
100
AcDbMText
 10
-24.16753199580572
 20
0.0000063856999478
 30
0.0
 40
3.5
 41
0.0
 71
     5
 72
     1
  1
\A1;%%C88.9 [%%c3.500"]
  7
simplex
 11
0.0000000000000001
 21
1.0
 31
0.0
 73
     1
 44
1.0
1001
ACAD
1000
MTEXTBEGIN
1070
    73
1070
     1
1070
    44
1040
1.0
1070
    74
1070
     0
1000
MTEXTEND
  0
POINT
  5
9199D
330
918A8
100
AcDbEntity
  8
Defpoints
 62
     0
100
AcDbPoint
 10
7.837200600800002
 20
44.45000638569992
 30
0.0
  0
POINT
  5
9199E
330
918A8
100
AcDbEntity
  8
Defpoints
 62
     0
100
AcDbPoint
 10
7.837200600800002
 20
-44.44999361430004
 30
0.0
  0
POINT
  5
9199F
330
918A8
100
AcDbEntity
  8
Defpoints
 62
     0
100
AcDbPoint
 10
-20.11753199580573
 20
-44.44999361430004
 30
0.0
  0
ENDBLK
  5
918B3
330
918A8
100
AcDbEntity
  8
0
100
AcDbBlockEnd
  0
BLOCK
  5
918BE
330
918B4
100
AcDbEntity
  8
0
100
AcDbBlockBegin
  2
*D58777
 70
     1
 10
0.0
 20
0.0
 30
0.0
  3
*D58777
  1

  0
LINE
  5
91C11
330
918B4
100
AcDbEntity
  8
2
100
AcDbLine
 10
0.0
 20
42.44999999889997
 30
0.0
 11
0.0
 21
80.49442999719628
 31
0.0
  0
LINE
  5
91C12
330
918B4
100
AcDbEntity
  8
2
100
AcDbLine
 10
63.5
 20
49.99999999888119
 30
0.0
 11
63.5
 21
80.49442999719628
 31
0.0
  0
LINE
  5
91C13
330
918B4
100
AcDbEntity
  8
2
100
AcDbLine
 10
3.5
 20
78.99442999719628
 30
0.0
 11
60.0
 21
78.99442999719628
 31
0.0
  0
SOLID
  5
91C14
330
918B4
100
AcDbEntity
  8
2
100
AcDbTrace
 10
3.5
 20
79.57776333052961
 30
0.0
 11
3.5
 21
78.41109666386294
 31
0.0
 12
0.0
 22
78.99442999719628
 32
0.0
 13
0.0
 23
78.99442999719628
 33
0.0
  0
SOLID
  5
91C15
330
918B4
100
AcDbEntity
  8
2
100
AcDbTrace
 10
60.0
 20
78.41109666386294
 30
0.0
 11
60.0
 21
79.57776333052961
 31
0.0
 12
63.5
 22
78.99442999719628
 32
0.0
 13
63.5
 23
78.99442999719628
 33
0.0
  0
MTEXT
  5
91C16
330
918B4
100
AcDbEntity
  8
2
100
AcDbMText
 10
31.75
 20
83.04442999719627
 30
0.0
 40
3.5
 41
0.0
 71
     5
 72
     1
  1
\A1;63.5 [2.500"]
  7
simplex
 73
     1
 44
1.0
1001
ACAD
1000
MTEXTBEGIN
1070
    73
1070
     1
1070
    44
1040
1.0
1070
    74
1070
     0
1000
MTEXTEND
  0
POINT
  5
91C17
330
918B4
100
AcDbEntity
  8
Defpoints
 62
     0
100
AcDbPoint
 10
0.0
 20
42.44999999889997
 30
0.0
  0
POINT
  5
91C18
330
918B4
100
AcDbEntity
  8
Defpoints
 62
     0
100
AcDbPoint
 10
63.5
 20
49.99999999888119
 30
0.0
  0
POINT
  5
91C19
330
918B4
100
AcDbEntity
  8
Defpoints
 62
     0
100
AcDbPoint
 10
63.5
 20
78.99442999719628
 30
0.0
  0
ENDBLK
  5
918BF
330
918B4
100
AcDbEntity
  8
0
100
AcDbBlockEnd
  0
BLOCK
  5
918CA
330
918C0
100
AcDbEntity
  8
0
100
AcDbBlockBegin
  2
*D59888
 70
     1
 10
0.0
 20
0.0
 30
0.0
  3
*D59888
  1

  0
LINE
  5
919A9
330
918C0
100
AcDbEntity
  8
sk2
100
AcDbLine
 10
0.0
 20
-42.44999170410003
 30
0.0
 11
0.0
 21
-67.36312418500563
 31
0.0
  0
LINE
  5
919AA
330
918C0
100
AcDbEntity
  8
sk2
100
AcDbLine
 10
42.0
 20
-26.9999999989
 30
0.0
 11
42.0
 21
-67.36312418500563
 31
0.0
  0
LINE
  5
919AB
330
918C0
100
AcDbEntity
  8
sk2
100
AcDbLine
 10
3.5
 20
-65.86312418500563
 30
0.0
 11
38.5
 21
-65.86312418500563
 31
0.0
  0
SOLID
  5
919AC
330
918C0
100
AcDbEntity
  8
sk2
100
AcDbTrace
 10
3.5
 20
-65.2797908516723
 30
0.0
 11
3.5
 21
-66.44645751833896
 31
0.0
 12
0.0
 22
-65.86312418500563
 32
0.0
 13
0.0
 23
-65.86312418500563
 33
0.0
  0
SOLID
  5
919AD
330
918C0
100
AcDbEntity
  8
sk2
100
AcDbTrace
 10
38.5
 20
-66.44645751833896
 30
0.0
 11
38.5
 21
-65.2797908516723
 31
0.0
 12
42.0
 22
-65.86312418500563
 32
0.0
 13
42.0
 23
-65.86312418500563
 33
0.0
  0
MTEXT
  5
919AE
330
918C0
100
AcDbEntity
  8
sk2
100
AcDbMText
 10
21.0
 20
-61.81312418500564
 30
0.0
 40
3.5
 41
0.0
 71
     5
 72
     1
  1
\A1;42 [1.654"]
  7
simplex
 73
     1
 44
1.0
1001
ACAD
1000
MTEXTBEGIN
1070
    73
1070
     1
1070
    44
1040
1.0
1070
    74
1070
     0
1000
MTEXTEND
  0
POINT
  5
919AF
330
918C0
100
AcDbEntity
  8
Defpoints
 62
     0
100
AcDbPoint
 10
0.0
 20
-42.44999170410003
 30
0.0
  0
POINT
  5
919B0
330
918C0
100
AcDbEntity
  8
Defpoints
 62
     0
100
AcDbPoint
 10
42.0
 20
-26.9999999989
 30
0.0
  0
POINT
  5
919B1
330
918C0
100
AcDbEntity
  8
Defpoints
 62
     0
100
AcDbPoint
 10
42.0
 20
-65.86312418500563
 30
0.0
  0
ENDBLK
  5
918CB
330
918C0
100
AcDbEntity
  8
0
100
AcDbBlockEnd
  0
BLOCK
  5
918E0
330
918D6
100
AcDbEntity
  8
0
100
AcDbBlockBegin
  2
*D6110109
 70
     1
 10
0.0
 20
0.0
 30
0.0
  3
*D6110109
  1

  0
LINE
  5
91C07
330
918D6
100
AcDbEntity
  8
2
100
AcDbLine
 10
55.29999999999998
 20
50.79999999889998
 30
0.0
 11
55.29999999999998
 21
68.15392239015074
 31
0.0
  0
LINE
  5
91C08
330
918D6
100
AcDbEntity
  8
2
100
AcDbLine
 10
63.5
 20
49.99999999888119
 30
0.0
 11
63.5
 21
68.15392239015074
 31
0.0
  0
LINE
  5
91C09
330
918D6
100
AcDbEntity
  8
2
100
AcDbLine
 10
67.0
 20
66.65392239015074
 30
0.0
 11
119.4333333333333
 21
66.65392239015074
 31
0.0
  0
LINE
  5
91C0A
330
918D6
100
AcDbEntity
  8
2
100
AcDbLine
 10
51.79999999999998
 20
66.65392239015074
 30
0.0
 11
48.29999999999998
 21
66.65392239015074
 31
0.0
  0
SOLID
  5
91C0B
330
918D6
100
AcDbEntity
  8
2
100
AcDbTrace
 10
51.79999999999998
 20
66.07058905681741
 30
0.0
 11
51.79999999999998
 21
67.23725572348406
 31
0.0
 12
55.29999999999998
 22
66.65392239015074
 32
0.0
 13
55.29999999999998
 23
66.65392239015074
 33
0.0
  0
SOLID
  5
91C0C
330
918D6
100
AcDbEntity
  8
2
100
AcDbTrace
 10
67.0
 20
67.23725572348406
 30
0.0
 11
67.0
 21
66.07058905681741
 31
0.0
 12
63.5
 22
66.65392239015074
 32
0.0
 13
63.5
 23
66.65392239015074
 33
0.0
  0
MTEXT
  5
91C0D
330
918D6
100
AcDbEntity
  8
2
100
AcDbMText
 10
94.96666666666667
 20
70.70392239015074
 30
0.0
 40
3.5
 41
0.0
 71
     5
 72
     1
  1
\A1;8.2 [.323"](MAX)
  7
simplex
 73
     1
 44
1.0
1001
ACAD
1000
MTEXTBEGIN
1070
    73
1070
     1
1070
    44
1040
1.0
1070
    74
1070
     0
1000
MTEXTEND
  0
POINT
  5
91C0E
330
918D6
100
AcDbEntity
  8
Defpoints
 62
     0
100
AcDbPoint
 10
55.29999999999998
 20
50.79999999889998
 30
0.0
  0
POINT
  5
91C0F
330
918D6
100
AcDbEntity
  8
Defpoints
 62
     0
100
AcDbPoint
 10
63.5
 20
49.99999999888119
 30
0.0
  0
POINT
  5
91C10
330
918D6
100
AcDbEntity
  8
Defpoints
 62
     0
100
AcDbPoint
 10
63.5
 20
66.65392239015074
 30
0.0
  0
ENDBLK
  5
918E1
330
918D6
100
AcDbEntity
  8
0
100
AcDbBlockEnd
  0
BLOCK
  5
91BC4
330
91BBC
100
AcDbEntity
  8
0
100
AcDbBlockBegin
  2
*D1310
 70
     1
 10
0.0
 20
0.0
 30
0.0
  3
*D1310
  1

  0
LINE
  5
91BC6
330
91BBC
100
AcDbEntity
  8
2
100
AcDbLine
 10
107.7062447564847
 20
60.58107007855195
 30
0.0
 11
66.88587279999028
 21
50.9841081750176
 31
0.0
  0
MTEXT
  5
91BC7
330
91BBC
100
AcDbEntity
  8
2
100
AcDbMText
 10
88.07271907747162
 20
60.1256063705444
 30
0.0
 40
3.5
 41
0.0
 71
     5
 72
     1
  1
\A1;R0.8 [R.031"]
  7
simplex
 11
0.9734587906954152
 21
0.228862366538975
 31
0.0
 73
     1
 44
1.0
1001
ACAD
1000
MTEXTBEGIN
1070
    73
1070
     1
1070
    44
1040
1.0
1070
    74
1070
     0
1000
MTEXTEND
  0
SOLID
  5
91BC8
330
91BBC
100
AcDbEntity
  8
2
100
AcDbTrace
 10
66.75236975284254
 20
51.55195913625659
 30
0.0
 11
67.01937584713802
 21
50.41625721377862
 31
0.0
 12
63.47876703255632
 22
50.18308989213118
 32
0.0
 13
63.47876703255632
 23
50.18308989213118
 33
0.0
  0
LINE
  5
91BC9
330
91BBC
100
AcDbEntity
  8
2
100
AcDbLine
 10
62.61000000000003
 20
49.99999999890002
 30
0.0
 11
62.79000000000005
 21
49.99999999890002
 31
0.0
  0
LINE
  5
91BCA
330
91BBC
100
AcDbEntity
  8
2
100
AcDbLine
 10
62.70000000000004
 20
49.90999999890002
 30
0.0
 11
62.70000000000004
 21
50.08999999890002
 31
0.0
  0
POINT
  5
91BCB
330
91BBC
100
AcDbEntity
  8
Defpoints
 62
     0
100
AcDbPoint
 10
63.47876703255632
 20
50.18308989213118
 30
0.0
  0
POINT
  5
91BCC
330
91BBC
100
AcDbEntity
  8
Defpoints
 62
     0
100
AcDbPoint
 10
62.70000000000004
 20
49.99999999890002
 30
0.0
  0
ENDBLK
  5
91BC5
330
91BBC
100
AcDbEntity
  8
0
100
AcDbBlockEnd
  0
ENDSEC
  0
SECTION
  2
ENTITIES
  0
INSERT
  5
4A793
330
1F
100
AcDbEntity
  8
0
100
AcDbBlockReference
  2
zero block
 10
0.0
 20
0.0
 30
0.0
 50
180.0
  0
MTEXT
  5
916B2
330
1F
100
AcDbEntity
  8
sk6
100
AcDbMText
 10
3.070779697113181
 20
101.8830965513409
 30
0.0
 40
3.5
 41
139.3353303764208
 71
     1
 72
     5
  1
WWX400UR4_0005EA
 73
     1
 44
0.9
1001
ACAD
1000
MTEXTBEGIN
1070
    73
1070
     1
1070
    44
1040
0.9
1070
    74
1070
     0
1000
MTEXTEND
1000
ACAD_MTEXT_DEFINED_HEIGHT_BEGIN
1070
    46
1040
3.48901801050149
1000
ACAD_MTEXT_DEFINED_HEIGHT_END
  0
LINE
  5
916B4
330
1F
100
AcDbEntity
  8
4
100
AcDbLine
 10
68.83693405598953
 20
0.0
 30
0.0
 11
-2.907861614760518
 21
0.0
 31
0.0
  0
LINE
  5
916B5
330
1F
100
AcDbEntity
  8
nocut
100
AcDbLine
 10
0.0
 20
0.0
 30
0.0
 11
0.0
 21
42.44999999889997
 31
0.0
  0
LINE
  5
916B6
330
1F
100
AcDbEntity
  8
sk3
100
AcDbLine
 10
0.9999999044000276
 20
7.937506385699946
 30
0.0
 11
0.9999999044000276
 21
19.5499999989
 31
0.0
  0
LINE
  5
916B7
330
1F
100
AcDbEntity
  8
nocut
100
AcDbLine
 10
61.71340946179999
 20
0.0
 30
0.0
 11
0.0
 21
0.0
 31
0.0
  0
LINE
  5
916B8
330
1F
100
AcDbEntity
  8
sk3
100
AcDbLine
 10
0.9999999044000276
 20
19.5499999989
 30
0.0
 11
0.0
 21
20.54999989839999
 31
0.0
  0
LINE
  5
916B9
330
1F
100
AcDbEntity
  8
sk3
100
AcDbLine
 10
8.0
 20
7.937506385699946
 30
0.0
 11
8.0
 21
19.5499999989
 31
0.0
  0
LINE
  5
916BA
330
1F
100
AcDbEntity
  8
nocut
100
AcDbLine
 10
25.28450007520002
 20
45.15614758319997
 30
0.0
 11
37.44576409039999
 21
49.58248569580003
 31
0.0
  0
LINE
  5
916E6
330
1F
100
AcDbEntity
  8
sk3
100
AcDbLine
 10
25.89046496530003
 20
19.0499999989
 30
0.0
 11
25.89046496530003
 21
0.0
 31
0.0
  0
LINE
  5
916E7
102
{ACAD_REACTORS
330
917EA
102
}
330
1F
100
AcDbEntity
  8
sk3
100
AcDbLine
 10
8.0
 20
19.0499999989
 30
0.0
 11
25.89046496530003
 21
19.0499999989
 31
0.0
  0
LINE
  5
916E8
330
1F
100
AcDbEntity
  8
sk3
100
AcDbLine
 10
39.2868907649
 20
19.0499999989
 30
0.0
 11
41.00000001139995
 21
19.0499999989
 31
0.0
  0
LINE
  5
916E9
330
1F
100
AcDbEntity
  8
sk3
100
AcDbLine
 10
0.9999999044000276
 20
19.5499999989
 30
0.0
 11
8.0
 21
19.5499999989
 31
0.0
  0
LINE
  5
916EC
330
1F
100
AcDbEntity
  8
sk3
100
AcDbLine
 10
29.17735573010001
 20
20.49999999889999
 30
0.0
 11
35.8226442699
 21
20.49999999889999
 31
0.0
  0
LINE
  5
916ED
330
1F
100
AcDbEntity
  8
sk3
100
AcDbLine
 10
36.16073887926839
 20
20.42504622851475
 30
0.0
 11
38.94879615550005
 21
19.12495376929999
 31
0.0
  0
LINE
  5
916F1
330
1F
100
AcDbEntity
  8
sk3
100
AcDbLine
 10
43.00000000000003
 20
27.9999999989
 30
0.0
 11
55.71340946179996
 21
27.9999999989
 31
0.0
  0
LINE
  5
916F2
330
1F
100
AcDbEntity
  8
sk3
100
AcDbLine
 10
25.89046496530003
 20
19.0499999989
 30
0.0
 11
28.83926112074484
 21
20.42504622847427
 31
0.0
  0
LINE
  5
916FA
330
1F
100
AcDbEntity
  8
sk3
100
AcDbLine
 10
41.00000001139995
 20
19.0499999989
 30
0.0
 11
41.00000001139995
 21
0.0
 31
0.0
  0
LINE
  5
916FB
330
1F
100
AcDbEntity
  8
sk3
100
AcDbLine
 10
42.0
 20
0.0
 30
0.0
 11
42.0
 21
26.9999999989
 31
0.0
  0
LINE
  5
91700
330
1F
100
AcDbEntity
  8
sk3
100
AcDbLine
 10
41.00000001139995
 20
19.0499999989
 30
0.0
 11
42.0
 21
20.04999998689999
 31
0.0
  0
LINE
  5
91708
330
1F
100
AcDbEntity
  8
sk3
100
AcDbLine
 10
55.71340946179996
 20
27.9999999989
 30
0.0
 11
56.71340946179999
 21
28.99999999889999
 31
0.0
  0
LINE
  5
9171F
330
1F
100
AcDbEntity
  8
sk3
100
AcDbLine
 10
57.1600186849
 20
34.30093006869999
 30
0.0
 11
58.74852222184603
 21
36.87643573864161
 31
0.0
  0
LINE
  5
91736
330
1F
100
AcDbEntity
  8
nocut
100
AcDbLine
 10
2.0
 20
44.44999999889995
 30
0.0
 11
13.6744012016
 21
44.44999999889995
 31
0.0
  0
LINE
  5
9176F
330
1F
100
AcDbEntity
  8
sk3
100
AcDbLine
 10
55.71340946179996
 20
27.9999999989
 30
0.0
 11
55.71340946179996
 21
0.0
 31
0.0
  0
LINE
  5
91770
330
1F
100
AcDbEntity
  8
nocut
100
AcDbLine
 10
38.41946730109999
 20
49.76295091889998
 30
0.0
 11
51.97382338410003
 21
49.99954308440003
 31
0.0
  0
LINE
  5
91771
330
1F
100
AcDbEntity
  8
nocut
100
AcDbLine
 10
52.02618060339995
 20
49.99999999889999
 30
0.0
 11
55.71340946179996
 21
49.99999999889999
 31
0.0
  0
LINE
  5
9179A
330
1F
100
AcDbEntity
  8
sk3
100
AcDbLine
 10
56.71340946179999
 20
32.7260664108
 30
0.0
 11
56.71340946179999
 21
0.0
 31
0.0
  0
LINE
  5
9179D
330
1F
100
AcDbEntity
  8
nocut
100
AcDbLine
 10
61.71340946179999
 20
43.99999999889999
 30
0.0
 11
61.71340946179999
 21
0.0
 31
0.0
  0
ARC
  5
917BE
330
1F
100
AcDbEntity
  8
nocut
100
AcDbCircle
 10
18.44409720870004
 20
63.94999999889996
 30
0.0
 40
20.0
100
AcDbArc
 50
258.0312544452999
 51
290.0
  0
ARC
  5
917BF
330
1F
100
AcDbEntity
  8
nocut
100
AcDbCircle
 10
55.71340946179996
 20
43.99999999889999
 30
0.0
 40
6.0
100
AcDbArc
 50
0.0
 51
90.0
  0
ARC
  5
917C0
330
1F
100
AcDbEntity
  8
nocut
100
AcDbCircle
 10
52.02618060339995
 20
46.99999999889999
 30
0.0
 40
3.0
100
AcDbArc
 50
90.0
 51
91.00000000000015
  0
ARC
  5
917C1
330
1F
100
AcDbEntity
  8
nocut
100
AcDbCircle
 10
38.47182452040004
 20
46.76340783339997
 30
0.0
 40
3.0
100
AcDbArc
 50
91.00000000000015
 51
110.0
  0
ARC
  5
917C2
330
1F
100
AcDbEntity
  8
nocut
100
AcDbCircle
 10
13.6744012016
 20
41.44999999889996
 30
0.0
 40
3.0
100
AcDbArc
 50
78.03125444529992
 51
90.0
  0
ARC
  5
917C3
330
1F
100
AcDbEntity
  8
sk3
100
AcDbCircle
 10
59.71340946179996
 20
32.7260664108
 30
0.0
 40
3.0
100
AcDbArc
 50
148.3348161917008
 51
180.0
  0
ARC
  5
917C6
330
1F
100
AcDbEntity
  8
nocut
100
AcDbCircle
 10
2.0
 20
42.44999999889997
 30
0.0
 40
2.0
100
AcDbArc
 50
90.0
 51
180.0
  0
ARC
  5
917C7
330
1F
100
AcDbEntity
  8
sk3
100
AcDbCircle
 10
43.00000000000003
 20
26.9999999989
 30
0.0
 40
1.0
100
AcDbArc
 50
90.0
 51
180.0
  0
ARC
  5
917CA
330
1F
100
AcDbEntity
  8
sk3
100
AcDbCircle
 10
29.17735573010001
 20
19.69999999890001
 30
0.0
 40
0.8
100
AcDbArc
 50
90.0
 51
114.9999999999997
  0
ARC
  5
917CB
330
1F
100
AcDbEntity
  8
sk3
100
AcDbCircle
 10
39.2868907649
 20
19.84999999890002
 30
0.0
 40
0.8
100
AcDbArc
 50
245.0000000000003
 51
270.0
  0
ARC
  5
917CC
330
1F
100
AcDbEntity
  8
sk3
100
AcDbCircle
 10
35.8226442699
 20
19.69999999890001
 30
0.0
 40
0.8
100
AcDbArc
 50
65.0000000000003
 51
90.0
  0
LINE
  5
917CD
330
1F
100
AcDbEntity
  8
sk3
100
AcDbLine
 10
0.9999999044000276
 20
-7.937493614300053
 30
0.0
 11
0.9999999044000276
 21
-19.5499999989
 31
0.0
  0
LINE
  5
917CE
330
1F
100
AcDbEntity
  8
sk3
100
AcDbLine
 10
0.9999999044000276
 20
-19.5499999989
 30
0.0
 11
0.0
 21
-20.54999989839999
 31
0.0
  0
LINE
  5
917CF
330
1F
100
AcDbEntity
  8
sk3
100
AcDbLine
 10
8.0
 20
-7.937493614300053
 30
0.0
 11
8.0
 21
-19.5499999989
 31
0.0
  0
LINE
  5
917D0
330
1F
100
AcDbEntity
  8
sk3
100
AcDbLine
 10
25.89046496530003
 20
-19.0499999989
 30
0.0
 11
25.89046496530003
 21
-0.0000000000000142
 31
0.0
  0
LINE
  5
917D1
102
{ACAD_REACTORS
330
917EA
102
}
330
1F
100
AcDbEntity
  8
sk3
100
AcDbLine
 10
8.0
 20
-19.0499999989
 30
0.0
 11
25.89046496530003
 21
-19.0499999989
 31
0.0
  0
LINE
  5
917D2
330
1F
100
AcDbEntity
  8
sk3
100
AcDbLine
 10
39.2868907649
 20
-19.0499999989
 30
0.0
 11
41.00000001139995
 21
-19.0499999989
 31
0.0
  0
LINE
  5
917D3
330
1F
100
AcDbEntity
  8
sk3
100
AcDbLine
 10
0.9999999044000276
 20
-19.5499999989
 30
0.0
 11
8.0
 21
-19.5499999989
 31
0.0
  0
LINE
  5
917D4
330
1F
100
AcDbEntity
  8
sk3
100
AcDbLine
 10
29.17735573010001
 20
-20.49999999889999
 30
0.0
 11
35.8226442699
 21
-20.49999999889999
 31
0.0
  0
LINE
  5
917D5
330
1F
100
AcDbEntity
  8
sk3
100
AcDbLine
 10
36.1607388793
 20
-20.42504622850001
 30
0.0
 11
38.94879615553161
 21
-19.12495376928527
 31
0.0
  0
LINE
  5
917D6
330
1F
100
AcDbEntity
  8
sk3
100
AcDbLine
 10
43.00000000000003
 20
-27.9999999989
 30
0.0
 11
55.71340946179996
 21
-27.9999999989
 31
0.0
  0
LINE
  5
917D7
330
1F
100
AcDbEntity
  8
sk3
100
AcDbLine
 10
25.89046496530003
 20
-19.0499999989
 30
0.0
 11
28.83926112080002
 21
-20.42504622850001
 31
0.0
  0
LINE
  5
917D8
330
1F
100
AcDbEntity
  8
sk3
100
AcDbLine
 10
41.00000001139995
 20
-19.0499999989
 30
0.0
 11
41.00000001139995
 21
-0.0000000000000142
 31
0.0
  0
LINE
  5
917D9
330
1F
100
AcDbEntity
  8
sk3
100
AcDbLine
 10
42.0
 20
-0.0000000000000142
 30
0.0
 11
42.0
 21
-26.9999999989
 31
0.0
  0
LINE
  5
917DA
330
1F
100
AcDbEntity
  8
sk3
100
AcDbLine
 10
41.00000001139995
 20
-19.0499999989
 30
0.0
 11
42.0
 21
-20.04999998689999
 31
0.0
  0
LINE
  5
917DB
330
1F
100
AcDbEntity
  8
sk3
100
AcDbLine
 10
55.71340946179996
 20
-27.9999999989
 30
0.0
 11
56.71340946179999
 21
-28.99999999889999
 31
0.0
  0
LINE
  5
917DC
330
1F
100
AcDbEntity
  8
sk3
100
AcDbLine
 10
57.1600186849
 20
-34.30093006869999
 30
0.0
 11
61.56453972070003
 21
-41.44215993520001
 31
0.0
  0
LINE
  5
917DD
330
1F
100
AcDbEntity
  8
sk3
100
AcDbLine
 10
55.71340946179996
 20
-27.9999999989
 30
0.0
 11
55.71340946179996
 21
-0.0000000000000142
 31
0.0
  0
LINE
  5
917DE
330
1F
100
AcDbEntity
  8
sk3
100
AcDbLine
 10
56.71340946179999
 20
-32.7260664108
 30
0.0
 11
56.71340946179999
 21
-0.0000000000000142
 31
0.0
  0
ARC
  5
917DF
330
1F
100
AcDbEntity
  8
sk3
100
AcDbCircle
 10
59.71340946179996
 20
-32.7260664108
 30
0.0
 40
3.0
100
AcDbArc
 50
180.0
 51
211.6651838082992
  0
ARC
  5
917E0
330
1F
100
AcDbEntity
  8
sk3
100
AcDbCircle
 10
60.71340946179996
 20
-41.9671144879
 30
0.0
 40
1.0
100
AcDbArc
 50
0.0
 51
31.66518380829922
  0
ARC
  5
917E1
102
{ACAD_REACTORS
330
917EF
102
}
330
1F
100
AcDbEntity
  8
sk3
100
AcDbCircle
 10
43.00000000000003
 20
-26.9999999989
 30
0.0
 40
1.0
100
AcDbArc
 50
180.0
 51
270.0
  0
ARC
  5
917E2
330
1F
100
AcDbEntity
  8
sk3
100
AcDbCircle
 10
29.17735573010001
 20
-19.69999999890001
 30
0.0
 40
0.8
100
AcDbArc
 50
245.0000000000003
 51
270.0
  0
ARC
  5
917E3
330
1F
100
AcDbEntity
  8
sk3
100
AcDbCircle
 10
39.2868907649
 20
-19.84999999890002
 30
0.0
 40
0.8
100
AcDbArc
 50
90.0
 51
114.9999999999997
  0
ARC
  5
917E4
330
1F
100
AcDbEntity
  8
sk3
100
AcDbCircle
 10
35.8226442699
 20
-19.69999999890001
 30
0.0
 40
0.8
100
AcDbArc
 50
270.0
 51
294.9999999999997
  0
DIMENSION
  5
917E5
330
1F
100
AcDbEntity
  8
2
100
AcDbDimension
  2
*D55444
 10
89.65552348087021
 20
-50.7999999989
 30
0.0
 11
85.6055234808702
 21
-1.750000000000006
 31
0.0
 70
    32
  1
%%C<>
 71
     5
 42
101.5999999978
  3
コピー - ISO-25
100
AcDbAlignedDimension
 13
62.70000000000002
 23
50.79999999889999
 33
0.0
 14
62.70000000000002
 24
-50.7999999989
 34
0.0
 50
90.0
100
AcDbRotatedDimension
1001
ACAD
1000
DSTYLE
1002
{
1070
   170
1070
     1
1070
   171
1070
     3
1070
   143
1040
0.0393700787401575
1070
   285
1070
     4
1070
     4
1000
%%c[]"
1070
   344
1005
87D73
1070
   271
1070
     8
1070
   173
1070
     1
1070
    40
1040
1.0
1070
    76
1070
     1
1002
}
1001
ACAD_DSTYLE_DIMINSPECT
1070
   393
1070
     0
1070
   394
1070
     0
1070
   395
1000

1070
   396
1000

  0
DIMENSION
  5
917E8
102
{ACAD_XDICTIONARY
360
917E9
102
}
102
{ACAD_REACTORS
330
917EA
102
}
330
1F
100
AcDbEntity
  8
sk2
100
AcDbDimension
  2
*D56555
 10
-9.834169964841207
 20
-19.0499999989
 30
0.0
 11
-9.834169964841207
 21
0.260355164284519
 31
0.0
 70
   160
  1
%%C<>
 71
     5
 42
38.0999999978
  3
コピー - ISO-25
100
AcDbAlignedDimension
 13
8.0
 23
19.0499999989
 33
0.0
 14
8.0
 24
-19.0499999989
 34
0.0
 50
90.0
100
AcDbRotatedDimension
1001
ACAD
1000
DSTYLE
1002
{
1070
   170
1070
     1
1070
   171
1070
     3
1070
   143
1040
0.0393700787401575
1070
   285
1070
     4
1070
     4
1000
%%c[]"
1070
   271
1070
     8
1070
    40
1040
1.0
1002
}
1001
ACAD_DSTYLE_DIMINSPECT
1070
   393
1070
     0
1070
   394
1070
     0
1070
   395
1000

1070
   396
1000

  0
DIMENSION
  5
917EB
330
1F
100
AcDbEntity
  8
sk2
100
AcDbDimension
  2
*D57666
 10
-20.11753199580573
 20
-44.44999361430004
 30
0.0
 11
-20.11753199580572
 21
0.0000063856999475
 31
0.0
 70
   160
  1
%%C<>
 71
     5
 42
88.9
  3
コピー - ISO-25
100
AcDbAlignedDimension
 13
7.837200600800002
 23
44.45000638569992
 33
0.0
 14
7.837200600800002
 24
-44.44999361430004
 34
0.0
 50
90.0
100
AcDbRotatedDimension
1001
ACAD
1000
DSTYLE
1002
{
1070
   170
1070
     1
1070
   171
1070
     3
1070
   143
1040
0.0393700787401575
1070
   285
1070
     4
1070
     4
1000
%%c[]"
1070
   271
1070
     8
1070
    40
1040
1.0
1002
}
1001
ACAD_DSTYLE_DIMINSPECT
1070
   393
1070
     0
1070
   394
1070
     0
1070
   395
1000

1070
   396
1000

  0
DIMENSION
  5
917EC
330
1F
100
AcDbEntity
  8
2
100
AcDbDimension
  2
*D58777
 10
63.5
 20
78.99442999719628
 30
0.0
 11
31.75
 21
83.04442999719627
 31
0.0
 70
    32
 71
     5
 42
63.5
  3
コピー - ISO-25
100
AcDbAlignedDimension
 13
0.0
 23
42.44999999889997
 33
0.0
 14
63.5
 24
49.99999999888119
 34
0.0
 50
0.0
100
AcDbRotatedDimension
1001
ACAD
1000
DSTYLE
1002
{
1070
   170
1070
     1
1070
   171
1070
     3
1070
   143
1040
0.0393700787401575
1070
   285
1070
     4
1070
     4
1000
"
1070
   271
1070
     8
1070
    40
1040
1.0
1002
}
1001
ACAD_DSTYLE_DIMINSPECT
1070
   393
1070
     0
1070
   394
1070
     0
1070
   395
1000

1070
   396
1000

  0
DIMENSION
  5
917ED
102
{ACAD_XDICTIONARY
360
917EE
102
}
102
{ACAD_REACTORS
330
917EF
102
}
330
1F
100
AcDbEntity
  8
sk2
100
AcDbDimension
  2
*D59888
 10
42.0
 20
-65.86312418500563
 30
0.0
 11
21.0
 21
-61.81312418500564
 31
0.0
 70
    32
 71
     5
 42
42.0
  3
コピー - ISO-25
100
AcDbAlignedDimension
 13
0.0
 23
-42.44999170410003
 33
0.0
 14
42.0
 24
-26.9999999989
 34
0.0
 50
0.0
100
AcDbRotatedDimension
1001
ACAD
1000
DSTYLE
1002
{
1070
   170
1070
     1
1070
   171
1070
     3
1070
   143
1040
0.0393700787401575
1070
   285
1070
     4
1070
     4
1000
"
1070
   271
1070
     8
1070
    40
1040
1.0
1002
}
1001
ACAD_DSTYLE_DIMINSPECT
1070
   393
1070
     0
1070
   394
1070
     0
1070
   395
1000

1070
   396
1000

  0
LINE
  5
917F0
330
1F
100
AcDbEntity
  8
1
100
AcDbLine
 10
52.0261806034
 20
-49.99999361430003
 30
0.0
 11
55.71340946179996
 21
-49.99999361430003
 31
0.0
  0
LINE
  5
917F1
330
1F
100
AcDbEntity
  8
1
100
AcDbLine
 10
51.9738233841
 20
-49.99953669980002
 30
0.0
 11
52.0261806034
 21
-49.99999361430003
 31
0.0
  0
LINE
  5
917F2
330
1F
100
AcDbEntity
  8
1
100
AcDbLine
 10
38.41946730109999
 20
-49.76294453430003
 30
0.0
 11
51.9738233841
 21
-49.99953669980002
 31
0.0
  0
ARC
  5
917F3
330
1F
100
AcDbEntity
  8
1
100
AcDbCircle
 10
38.47182452039999
 20
-46.76340144880003
 30
0.0
 40
3.0
100
AcDbArc
 50
250.0
 51
268.9999999999998
  0
LINE
  5
917F4
330
1F
100
AcDbEntity
  8
1
100
AcDbLine
 10
37.44576409040003
 20
-49.58247931120002
 30
0.0
 11
25.28450007520002
 21
-45.15614119860003
 31
0.0
  0
LINE
  5
917F5
330
1F
100
AcDbEntity
  8
1
100
AcDbLine
 10
13.6744012016
 20
-44.44999361430005
 30
0.0
 11
2.0
 21
-44.44999361430005
 31
0.0
  0
LINE
  5
917F6
330
1F
100
AcDbEntity
  8
1
100
AcDbLine
 10
0.0
 20
42.44999999889997
 30
0.0
 11
0.0
 21
8.937506385699947
 31
0.0
  0
LINE
  5
917F7
330
1F
100
AcDbEntity
  8
1
100
AcDbLine
 10
0.0
 20
-42.44999170410003
 30
0.0
 11
0.0
 21
-8.937493614300059
 31
0.0
  0
LINE
  5
917F8
330
1F
100
AcDbEntity
  8
1
100
AcDbLine
 10
37.44576409040003
 20
49.58249208259999
 30
0.0
 11
25.28450007520002
 21
45.15615396999996
 31
0.0
  0
LINE
  5
917F9
330
1F
100
AcDbEntity
  8
1
100
AcDbLine
 10
9.525000000000003
 20
6.937506385699946
 30
0.0
 11
9.525000000000003
 21
-6.937493614300057
 31
0.0
  0
LINE
  5
917FA
330
1F
100
AcDbEntity
  8
1
100
AcDbLine
 10
48.1209305653
 20
47.41909084019996
 30
0.0
 11
48.89221299410003
 21
47.70555347889996
 31
0.0
  0
LINE
  5
917FB
330
1F
100
AcDbEntity
  8
1
100
AcDbLine
 10
0.0
 20
8.937506385699947
 30
0.0
 11
1.0
 21
7.937506385699946
 31
0.0
  0
LINE
  5
917FC
330
1F
100
AcDbEntity
  8
1
100
AcDbLine
 10
49.4295282666
 20
47.51145184399995
 30
0.0
 11
51.70659732050001
 21
48.83343067849996
 31
0.0
  0
LINE
  5
917FD
330
1F
100
AcDbEntity
  8
1
100
AcDbLine
 10
8.525000000000002
 20
7.937506385699946
 30
0.0
 11
9.525000000000003
 21
6.937506385699946
 31
0.0
  0
LINE
  5
917FE
330
1F
100
AcDbEntity
  8
1
100
AcDbLine
 10
1.0
 20
-7.937493614300057
 30
0.0
 11
0.0
 21
-8.937493614300059
 31
0.0
  0
LINE
  5
917FF
330
1F
100
AcDbEntity
  8
1
100
AcDbLine
 10
50.08950385539998
 20
40.16167079809997
 30
0.0
 11
50.04985936209999
 21
40.12353222669999
 31
0.0
  0
LINE
  5
91800
330
1F
100
AcDbEntity
  8
1
100
AcDbLine
 10
8.525000000000002
 20
-7.937493614300057
 30
0.0
 11
1.0
 21
-7.937493614300057
 31
0.0
  0
LINE
  5
91801
330
1F
100
AcDbEntity
  8
1
100
AcDbLine
 10
9.525000000000003
 20
-6.937493614300057
 30
0.0
 11
8.525000000000002
 21
-7.937493614300057
 31
0.0
  0
LINE
  5
91802
330
1F
100
AcDbEntity
  8
1
100
AcDbLine
 10
1.0
 20
7.937506385699946
 30
0.0
 11
8.525000000000002
 21
7.937506385699946
 31
0.0
  0
LINE
  5
91803
330
1F
100
AcDbEntity
  8
1
100
AcDbLine
 10
47.81210181080001
 20
47.63239445229995
 30
0.0
 11
47.6715436142
 21
49.09884876929996
 31
0.0
  0
LINE
  5
91804
330
1F
100
AcDbEntity
  8
1
100
AcDbLine
 10
61.5645397207
 20
38.43595034819994
 30
0.0
 11
61.5645397207
 21
34.70883587329999
 31
0.0
  0
LINE
  5
91805
330
1F
100
AcDbEntity
  8
1
100
AcDbLine
 10
61.71340946179999
 20
38.69810045699998
 30
0.0
 11
61.71340946179999
 21
-43.99999268090001
 31
0.0
  0
LINE
  5
91806
330
1F
100
AcDbEntity
  8
1
100
AcDbLine
 10
48.99732907109999
 20
41.44819064479992
 30
0.0
 11
47.66779960769997
 21
43.9359796972
 31
0.0
  0
LINE
  5
91807
330
1F
100
AcDbEntity
  8
1
100
AcDbLine
 10
48.28732820459999
 20
43.65398967209998
 30
0.0
 11
50.08950385539998
 21
40.16167079809997
 31
0.0
  0
LINE
  5
91808
330
1F
100
AcDbEntity
  8
1
100
AcDbLine
 10
48.80932627340001
 20
47.33867930579996
 30
0.0
 11
49.4295282666
 21
47.51145184399995
 31
0.0
  0
LINE
  5
91809
330
1F
100
AcDbEntity
  8
1
100
AcDbLine
 10
57.05623595719996
 20
41.80271380629998
 30
0.0
 11
56.8680847233
 21
41.80271380629998
 31
0.0
  0
LINE
  5
9180A
330
1F
100
AcDbEntity
  8
1
100
AcDbLine
 10
55.33144156999998
 20
41.96800028509996
 30
0.0
 11
55.14329033619998
 21
41.96800028509996
 31
0.0
  0
LINE
  5
9180B
330
1F
100
AcDbEntity
  8
1
100
AcDbLine
 10
55.53815794150001
 20
42.06984499659998
 30
0.0
 11
55.72630917539999
 21
42.06984499659998
 31
0.0
  0
LINE
  5
9180C
330
1F
100
AcDbEntity
  8
1
100
AcDbLine
 10
57.6882378126
 20
42.60991505979997
 30
0.0
 11
57.87638904650004
 21
42.60991505979997
 31
0.0
  0
LINE
  5
9180D
330
1F
100
AcDbEntity
  8
1
100
AcDbLine
 10
58.06099129189999
 20
43.22201412639993
 30
0.0
 11
57.87284005800001
 21
43.22201412639993
 31
0.0
  0
LINE
  5
9180E
330
1F
100
AcDbEntity
  8
1
100
AcDbLine
 10
48.07713951709996
 20
44.22908411119997
 30
0.0
 11
47.22637314299999
 21
44.22908411119997
 31
0.0
  0
LINE
  5
9180F
330
1F
100
AcDbEntity
  8
1
100
AcDbLine
 10
48.05375091959996
 20
44.27526699159996
 30
0.0
 11
47.17598517600004
 21
44.27526699159996
 31
0.0
  0
LINE
  5
91810
330
1F
100
AcDbEntity
  8
1
100
AcDbLine
 10
57.78106057540004
 20
44.34876096139997
 30
0.0
 11
57.5929093415
 21
44.34876096139997
 31
0.0
  0
LINE
  5
91811
330
1F
100
AcDbEntity
  8
1
100
AcDbLine
 10
13.6744012016
 20
44.45000638569992
 30
0.0
 11
2.0
 21
44.45000638569992
 31
0.0
  0
LINE
  5
91812
330
1F
100
AcDbEntity
  8
1
100
AcDbLine
 10
56.75793340029997
 20
44.70475621389996
 30
0.0
 11
56.94608463409998
 21
44.70475621389996
 31
0.0
  0
LINE
  5
91813
330
1F
100
AcDbEntity
  8
1
100
AcDbLine
 10
56.23054098569998
 20
45.12621187479996
 30
0.0
 11
56.04238975179999
 21
45.12621187479996
 31
0.0
  0
LINE
  5
91814
330
1F
100
AcDbEntity
  8
1
100
AcDbLine
 10
46.58159468639996
 20
45.41270724139994
 30
0.0
 11
47.47894975190003
 21
45.41270724139994
 31
0.0
  0
LINE
  5
91815
330
1F
100
AcDbEntity
  8
1
100
AcDbLine
 10
57.89084815929999
 20
42.60983256109997
 30
0.0
 11
57.87638905599999
 21
42.60990394539994
 31
0.0
  0
LINE
  5
91816
330
1F
100
AcDbEntity
  8
1
100
AcDbLine
 10
54.78154565020003
 20
44.16476864949994
 30
0.0
 11
54.79600475350004
 21
44.16469726519998
 31
0.0
  0
LINE
  5
91817
330
1F
100
AcDbEntity
  8
1
100
AcDbLine
 10
48.28732820459999
 20
43.65398967209998
 30
0.0
 11
47.92533967470001
 21
43.73794155859999
 31
0.0
  0
LINE
  5
91818
330
1F
100
AcDbEntity
  8
1
100
AcDbLine
 10
48.99732907109999
 20
41.44819064479992
 30
0.0
 11
33.87114899860002
 21
46.89043050779995
 31
0.0
  0
LINE
  5
91819
330
1F
100
AcDbEntity
  8
1
100
AcDbLine
 10
38.41946730109999
 20
49.76295730569997
 30
0.0
 11
48.92627401959998
 21
49.94635429909997
 31
0.0
  0
LINE
  5
9181A
330
1F
100
AcDbEntity
  8
1
100
AcDbLine
 10
46.83970949709999
 20
46.46792630679995
 30
0.0
 11
47.7672601493
 21
46.46792630679995
 31
0.0
  0
LINE
  5
9181B
330
1F
100
AcDbEntity
  8
1
100
AcDbLine
 10
48.83881982580003
 20
47.12164094829996
 30
0.0
 11
47.94549679420003
 21
47.12164094829996
 31
0.0
  0
LINE
  5
9181C
330
1F
100
AcDbEntity
  8
1
100
AcDbLine
 10
48.88253955470003
 20
47.14777504959997
 30
0.0
 11
47.9917631989
 21
47.14777504959997
 31
0.0
  0
LINE
  5
9181D
330
1F
100
AcDbEntity
  8
1
100
AcDbLine
 10
54.1994690894
 20
50.22537164589998
 30
0.0
 11
53.6469074071
 21
50.22537164589998
 31
0.0
  0
LINE
  5
9181E
330
1F
100
AcDbEntity
  8
1
100
AcDbLine
 10
54.93577045689999
 20
50.41589966309995
 30
0.0
 11
54.38420860109999
 21
50.41589966309995
 31
0.0
  0
LINE
  5
9181F
330
1F
100
AcDbEntity
  8
1
100
AcDbLine
 10
54.96644827949999
 20
50.41560221799997
 30
0.0
 11
54.93576955279997
 21
50.41589966309995
 31
0.0
  0
LINE
  5
91820
330
1F
100
AcDbEntity
  8
1
100
AcDbLine
 10
48.80932627340001
 20
47.33867930579996
 30
0.0
 11
48.1209305653
 21
47.41909084019996
 31
0.0
  0
LINE
  5
91821
330
1F
100
AcDbEntity
  8
1
100
AcDbLine
 10
48.89221299410003
 20
47.70555347889996
 30
0.0
 11
49.19264401639996
 21
47.62683080169997
 31
0.0
  0
ARC
  5
91822
330
1F
100
AcDbEntity
  8
1
100
AcDbCircle
 10
18.44409720869998
 20
-63.94999361430005
 30
0.0
 40
20.0
100
AcDbArc
 50
69.99999999999996
 51
101.9687455547001
  0
ARC
  5
91823
330
1F
100
AcDbEntity
  8
1
100
AcDbCircle
 10
18.44409720869998
 20
63.9500063856999
 30
0.0
 40
20.0
100
AcDbArc
 50
258.0312544452999
 51
290.0
  0
ARC
  5
91824
330
1F
100
AcDbEntity
  8
1
100
AcDbCircle
 10
55.71340946179996
 20
-43.99999361430003
 30
0.0
 40
6.0
100
AcDbArc
 50
270.0
 51
0.0
  0
ARC
  5
91825
330
1F
100
AcDbEntity
  8
1
100
AcDbCircle
 10
13.6744012016
 20
41.45000638569992
 30
0.0
 40
3.0
100
AcDbArc
 50
78.03125444529992
 51
90.0
  0
ARC
  5
91826
330
1F
100
AcDbEntity
  8
1
100
AcDbCircle
 10
13.6744012016
 20
-41.44999361430005
 30
0.0
 40
3.0
100
AcDbArc
 50
270.0
 51
281.9687455547001
  0
ARC
  5
91827
330
1F
100
AcDbEntity
  8
1
100
AcDbCircle
 10
38.47182452039999
 20
46.76341422019995
 30
0.0
 40
3.0
100
AcDbArc
 50
91.00000000000015
 51
110.0
  0
ARC
  5
91828
330
1F
100
AcDbEntity
  8
1
100
AcDbCircle
 10
2.0
 20
42.45000638569993
 30
0.0
 40
2.0
100
AcDbArc
 50
90.0
 51
180.0
  0
ARC
  5
91829
330
1F
100
AcDbEntity
  8
1
100
AcDbCircle
 10
2.0
 20
-42.44999361430005
 30
0.0
 40
2.0
100
AcDbArc
 50
180.0
 51
270.0
  0
SPLINE
  5
9182A
330
1F
100
AcDbEntity
  8
1
100
AcDbSpline
210
0.0
220
0.0
230
1.0
 70
     8
 71
     3
 72
    15
 73
    11
 74
     0
 42
0.000000001
 43
0.0000000001
 40
0.0
 40
0.0
 40
0.0
 40
0.0
 40
0.1246286297
 40
0.2493692327
 40
0.3743263633
 40
0.4994868881000001
 40
0.6247607511
 40
0.7500117186000002
 40
0.8751071011
 40
1.0
 40
1.0
 40
1.0
 40
1.0
 10
54.78154564940002
 20
44.16477748509996
 30
0.0
 10
54.74618492410002
 20
44.16477450009996
 30
0.0
 10
54.67489518959997
 20
44.15307139819995
 30
0.0
 10
54.57957485729997
 20
44.10225138469999
 30
0.0
 10
54.50527476690002
 20
44.02351750299994
 30
0.0
 10
54.4598553413
 20
43.92511479609995
 30
0.0
 10
54.44799604209999
 20
43.81730874039996
 30
0.0
 10
54.47094722740001
 20
43.71130698499999
 30
0.0
 10
54.52622288999998
 20
43.61822071409998
 30
0.0
 10
54.58114551400001
 20
43.57103167719992
 30
0.0
 10
54.61140251760003
 20
43.55258708409993
 30
0.0
  0
SPLINE
  5
9182B
330
1F
100
AcDbEntity
  8
1
100
AcDbSpline
210
0.0
220
0.0
230
1.0
 70
     8
 71
     3
 72
    11
 73
     7
 74
     0
 42
0.000000001
 43
0.0000000001
 40
0.0
 40
0.0
 40
0.0
 40
0.0
 40
0.250301594
 40
0.5003523427000001
 40
0.7502254609000003
 40
1.0
 40
1.0
 40
1.0
 40
1.0
 10
53.83947115529998
 20
45.86793519669996
 30
0.0
 10
53.99712207490001
 20
46.02115457869992
 30
0.0
 10
54.34264156000001
 20
46.2978581472
 30
0.0
 10
54.92985289350002
 20
46.60540784519992
 30
0.0
 10
55.56464608920004
 20
46.79471781599996
 30
0.0
 10
56.0046556346
 20
46.83729666709993
 30
0.0
 10
56.22403355249996
 20
46.83730007709995
 30
0.0
  0
SPLINE
  5
9182C
330
1F
100
AcDbEntity
  8
1
100
AcDbSpline
210
0.0
220
0.0
230
1.0
 70
     8
 71
     3
 72
    15
 73
    11
 74
     0
 42
0.000000001
 43
0.0000000001
 40
0.0
 40
0.0
 40
0.0
 40
0.0
 40
0.12517186
 40
0.2504192486
 40
0.3756816193
 40
0.500854719
 40
0.6258748281999999
 40
0.7507162961000004
 40
0.8754017411999999
 40
1.0
 40
1.0
 40
1.0
 40
1.0
 10
54.89133323409999
 20
42.42584024909997
 30
0.0
 10
54.87664724130002
 20
42.40099105159996
 30
0.0
 10
54.85370923120001
 20
42.34714009010001
 30
0.0
 10
54.84148584680003
 20
42.26041427739995
 30
0.0
 10
54.85209889589999
 20
42.17342119649996
 30
0.0
 10
54.88487612749998
 20
42.09220970829997
 30
0.0
 10
54.93754798219999
 20
42.02235959769995
 30
0.0
 10
55.0065210532
 20
41.96870038769993
 30
0.0
 10
55.08696224940003
 20
41.93493708969993
 30
0.0
 10
55.14473542460001
 20
41.92726013289997
 30
0.0
 10
55.17346768100003
 20
41.92725769639993
 30
0.0
  0
SPLINE
  5
9182D
330
1F
100
AcDbEntity
  8
1
100
AcDbSpline
210
0.0
220
0.0
230
1.0
 70
     8
 71
     3
 72
    11
 73
     7
 74
     0
 42
0.000000001
 43
0.0000000001
 40
0.0
 40
0.0
 40
0.0
 40
0.0
 40
0.2504809262
 40
0.5005858755000001
 40
0.750384011
 40
1.0
 40
1.0
 40
1.0
 40
1.0
 10
56.44185282379999
 20
41.64838933579996
 30
0.0
 10
56.40654691920001
 20
41.71170548149997
 30
0.0
 10
56.31879031560004
 20
41.82948539929991
 30
0.0
 10
56.14593011990002
 20
41.96501029139997
 30
0.0
 10
55.94382372799998
 20
42.05041512839996
 30
0.0
 10
55.79855326689999
 20
42.06984794769996
 30
0.0
 10
55.72630917600003
 20
42.06984450459993
 30
0.0
  0
SPLINE
  5
9182E
330
1F
100
AcDbEntity
  8
1
100
AcDbSpline
210
0.0
220
0.0
230
1.0
 70
     8
 71
     3
 72
    11
 73
     7
 74
     0
 42
0.000000001
 43
0.0000000001
 40
0.0
 40
0.0
 40
0.0
 40
0.0
 40
0.2504880625
 40
0.5005819384
 40
0.7503846693999999
 40
1.0
 40
1.0
 40
1.0
 40
1.0
 10
56.44185282379999
 20
41.64838933579996
 30
0.0
 10
56.45597795840001
 20
41.62305790479993
 30
0.0
 10
56.49108493469999
 20
41.5759366969
 30
0.0
 10
56.5602447961
 20
41.52172387729993
 30
0.0
 10
56.6410976504
 20
41.48754964469993
 30
0.0
 10
56.69921653670002
 20
41.47978096449993
 30
0.0
 10
56.72811894709997
 20
41.47977880869992
 30
0.0
  0
SPLINE
  5
9182F
330
1F
100
AcDbEntity
  8
1
100
AcDbSpline
210
0.0
220
0.0
230
1.0
 70
     8
 71
     3
 72
    15
 73
    11
 74
     0
 42
0.000000001
 43
0.0000000001
 40
0.0
 40
0.0
 40
0.0
 40
0.0
 40
0.125028041
 40
0.2501310002
 40
0.3752787635
 40
0.5004112717
 40
0.6254813822
 40
0.7504512691
 40
0.8752875286
 40
1.0
 40
1.0
 40
1.0
 40
1.0
 10
54.89133323409999
 20
42.42584024909997
 30
0.0
 10
54.9185775789
 20
42.47193860349997
 30
0.0
 10
54.96420630379995
 20
42.56974656949997
 30
0.0
 10
55.00293395060005
 20
42.72673192670001
 30
0.0
 10
55.01067351010004
 20
42.88834147299993
 30
0.0
 10
54.98707778100004
 20
43.04837870229995
 30
0.0
 10
54.93306549200003
 20
43.20078347719996
 30
0.0
 10
54.85065349
 20
43.33976946579999
 30
0.0
 10
54.74304381389996
 20
43.46002473909996
 30
0.0
 10
54.65700881380001
 20
43.52478560079996
 30
0.0
 10
54.61140251760003
 20
43.55258708409993
 30
0.0
  0
SPLINE
  5
91830
330
1F
100
AcDbEntity
  8
1
100
AcDbSpline
210
0.0
220
0.0
230
1.0
 70
     8
 71
     3
 72
    15
 73
    11
 74
     0
 42
0.000000001
 43
0.0000000001
 40
0.0
 40
0.0
 40
0.0
 40
0.0
 40
0.124680339
 40
0.2493906157
 40
0.3742015863
 40
0.4991317614
 40
0.6241940515
 40
0.7493817505
 40
0.8746591993
 40
1.0
 40
1.0
 40
1.0
 40
1.0
 10
54.79600475400002
 20
44.16468643659995
 30
0.0
 10
54.8488894807
 20
44.16468915139995
 30
0.0
 10
54.95496037039998
 20
44.17503462859992
 30
0.0
 10
55.10787114190003
 20
44.22103638299997
 30
0.0
 10
55.2491684648
 20
44.29576573299995
 30
0.0
 10
55.3734915983
 20
44.39644207109997
 30
0.0
 10
55.47621997980002
 20
44.51927892239996
 30
0.0
 10
55.55350524690005
 20
44.65970499789998
 30
0.0
 10
55.60247720100001
 20
44.81239059999999
 30
0.0
 10
55.6150259368
 20
44.91873458539996
 30
0.0
 10
55.61615785229998
 20
44.97188740419995
 30
0.0
  0
SPLINE
  5
91831
330
1F
100
AcDbEntity
  8
1
100
AcDbSpline
210
0.0
220
0.0
230
1.0
 70
     8
 71
     3
 72
    23
 73
    19
 74
     0
 42
0.000000001
 43
0.0000000001
 40
0.0
 40
0.0
 40
0.0
 40
0.0
 40
0.0624845302
 40
0.1250153912
 40
0.1875911975
 40
0.2501994978
 40
0.3128285086
 40
0.3754636244
 40
0.4380899448
 40
0.5006932803000002
 40
0.5632614398
 40
0.6257852896000001
 40
0.6882595581000001
 40
0.7506833006
 40
0.8130599898999999
 40
0.875397219
 40
0.9377060408
 40
1.0
 40
1.0
 40
1.0
 40
1.0
 10
53.83947115529998
 20
45.86793519669996
 30
0.0
 10
53.7175567415
 20
45.74944777419997
 30
0.0
 10
53.49089088690004
 20
45.49386279499993
 30
0.0
 10
53.21137173950001
 20
45.06468948009996
 30
0.0
 10
52.99791835159999
 20
44.59862684119992
 30
0.0
 10
52.85532745289998
 20
44.10599488709997
 30
0.0
 10
52.78668906580002
 20
43.59758780779993
 30
0.0
 10
52.79351879289999
 20
43.08456682299996
 30
0.0
 10
52.87566396240003
 20
42.57818864999996
 30
0.0
 10
53.0313264687
 20
42.08956695909995
 30
0.0
 10
53.25709386799997
 20
41.62942735619995
 30
0.0
 10
53.54801532760001
 20
41.20787252989996
 30
0.0
 10
53.89770888790001
 20
40.83416127549994
 30
0.0
 10
54.29850438260001
 20
40.51650491959994
 30
0.0
 10
54.74159349209998
 20
40.26188649259998
 30
0.0
 10
55.2172859909
 20
40.07590516059997
 30
0.0
 10
55.71498469549999
 20
39.96265522970001
 30
0.0
 10
56.0545450157
 20
39.93729849889994
 30
0.0
 10
56.22403355249996
 20
39.93730113339998
 30
0.0
  0
SPLINE
  5
91832
330
1F
100
AcDbEntity
  8
1
100
AcDbSpline
210
0.0
220
0.0
230
1.0
 70
     8
 71
     3
 72
    11
 73
     7
 74
     0
 42
0.000000001
 43
0.0000000001
 40
0.0
 40
0.0
 40
0.0
 40
0.0
 40
0.2493735195
 40
0.4991092802
 40
0.7493605911
 40
1.0
 40
1.0
 40
1.0
 40
1.0
 10
55.94427486239998
 20
45.29482240189999
 30
0.0
 10
55.90215604909997
 20
45.29482554349995
 30
0.0
 10
55.8169527114
 20
45.27808601889995
 30
0.0
 10
55.70882687830003
 20
45.20649270119995
 30
0.0
 10
55.6354533979
 20
45.09933301139996
 30
0.0
 10
55.617059142
 20
45.01421042889997
 30
0.0
 10
55.61615785229998
 20
44.97188740419995
 30
0.0
  0
SPLINE
  5
91833
330
1F
100
AcDbEntity
  8
1
100
AcDbSpline
210
0.0
220
0.0
230
1.0
 70
     8
 71
     3
 72
     9
 73
     5
 74
     0
 42
0.000000001
 43
0.0000000001
 40
0.0
 40
0.0
 40
0.0
 40
0.0
 40
0.4998160979
 40
1.0
 40
1.0
 40
1.0
 40
1.0
 10
56.94608463350005
 20
44.70475670589999
 30
0.0
 10
57.01456881560001
 20
44.70475996989995
 30
0.0
 10
57.15214074950001
 20
44.72215082469996
 30
0.0
 10
57.28095629619996
 20
44.77347276209993
 30
0.0
 10
57.34095223949998
 20
44.80660092539998
 30
0.0
  0
SPLINE
  5
91834
330
1F
100
AcDbEntity
  8
1
100
AcDbSpline
210
0.0
220
0.0
230
1.0
 70
     8
 71
     3
 72
     9
 73
     5
 74
     0
 42
0.000000001
 43
0.0000000001
 40
0.0
 40
0.0
 40
0.0
 40
0.0
 40
0.4998046985000001
 40
1.0
 40
1.0
 40
1.0
 40
1.0
 10
57.49892612850004
 20
44.84734351409993
 30
0.0
 10
57.47152844470003
 20
44.84734583739995
 30
0.0
 10
57.41648980299999
 20
44.84038703249999
 30
0.0
 10
57.36495522510001
 20
44.81985473529997
 30
0.0
 10
57.34095223949998
 20
44.80660092539998
 30
0.0
  0
SPLINE
  5
91835
330
1F
100
AcDbEntity
  8
1
100
AcDbSpline
210
0.0
220
0.0
230
1.0
 70
     8
 71
     3
 72
    23
 73
    19
 74
     0
 42
0.000000001
 43
0.0000000001
 40
0.0
 40
0.0
 40
0.0
 40
0.0
 40
0.0622939592
 40
0.124602781
 40
0.1869400101
 40
0.2493166994
 40
0.3117404419
 40
0.3742147104
 40
0.4367385602000002
 40
0.4993067197000002
 40
0.5619100552000002
 40
0.6245363756
 40
0.6871714914
 40
0.7498005022
 40
0.8124088025
 40
0.8749846087999999
 40
0.9375154697999999
 40
1.0
 40
1.0
 40
1.0
 40
1.0
 10
56.29438551939999
 20
46.83730007709995
 30
0.0
 10
56.46387405619996
 20
46.83730271159996
 30
0.0
 10
56.80343437639999
 20
46.81194598089996
 30
0.0
 10
57.30113308100005
 20
46.69869604999993
 30
0.0
 10
57.7768255798
 20
46.51271471789995
 30
0.0
 10
58.21991468930002
 20
46.25809629089992
 30
0.0
 10
58.62071018399999
 20
45.94043993509997
 30
0.0
 10
58.97040374430003
 20
45.56672868059997
 30
0.0
 10
59.26132520390002
 20
45.14517385429992
 30
0.0
 10
59.48709260319997
 20
44.68503425139996
 30
0.0
 10
59.64275510959999
 20
44.19641256059994
 30
0.0
 10
59.724900279
 20
43.69003438749998
 30
0.0
 10
59.73173000610001
 20
43.17701340279993
 30
0.0
 10
59.66309161899999
 20
42.66860632339997
 30
0.0
 10
59.52050072039998
 20
42.17597436929994
 30
0.0
 10
59.30704733250002
 20
41.70991173049992
 30
0.0
 10
59.02752818499997
 20
41.28073841549993
 30
0.0
 10
58.80086233039998
 20
41.02515343629996
 30
0.0
 10
58.67894791660001
 20
40.90666601379997
 30
0.0
  0
SPLINE
  5
91836
330
1F
100
AcDbEntity
  8
1
100
AcDbSpline
210
0.0
220
0.0
230
1.0
 70
     8
 71
     3
 72
    11
 73
     7
 74
     0
 42
0.000000001
 43
0.0000000001
 40
0.0
 40
0.0
 40
0.0
 40
0.0
 40
0.2497745391
 40
0.4996476573
 40
0.7496984059999999
 40
1.0
 40
1.0
 40
1.0
 40
1.0
 10
56.29438551939999
 20
39.93730113339998
 30
0.0
 10
56.51376343729999
 20
39.93730454339996
 30
0.0
 10
56.9537729827
 20
39.97988339459997
 30
0.0
 10
57.58856617840002
 20
40.16919336539998
 30
0.0
 10
58.17577751190004
 20
40.47674306330001
 30
0.0
 10
58.52129699699998
 20
40.75344663179996
 30
0.0
 10
58.67894791660001
 20
40.90666601379997
 30
0.0
  0
SPLINE
  5
91837
330
1F
100
AcDbEntity
  8
1
100
AcDbSpline
210
0.0
220
0.0
230
1.0
 70
     8
 71
     3
 72
    23
 73
    19
 74
     0
 42
0.000000001
 43
0.0000000001
 40
0.0
 40
0.0
 40
0.0
 40
0.0
 40
0.0624845302
 40
0.1250153912
 40
0.1875911975
 40
0.2501994978
 40
0.3128285086
 40
0.3754636244
 40
0.4380899448
 40
0.5006932803000002
 40
0.5632614398
 40
0.6257852896000001
 40
0.6882595581000001
 40
0.7506833006
 40
0.8130599898999999
 40
0.875397219
 40
0.9377060408
 40
1.0
 40
1.0
 40
1.0
 40
1.0
 10
53.90982312220001
 20
45.86793519669996
 30
0.0
 10
53.78790870850004
 20
45.74944777419997
 30
0.0
 10
53.56124285380001
 20
45.49386279499993
 30
0.0
 10
53.28172370639999
 20
45.06468948009996
 30
0.0
 10
53.06827031850002
 20
44.59862684119992
 30
0.0
 10
52.9256794199
 20
44.10599488709997
 30
0.0
 10
52.8570410328
 20
43.59758780779993
 30
0.0
 10
52.86387075990001
 20
43.08456682299996
 30
0.0
 10
52.94601592930002
 20
42.57818864999996
 30
0.0
 10
53.10167843570003
 20
42.08956695909995
 30
0.0
 10
53.32744583499999
 20
41.62942735619995
 30
0.0
 10
53.61836729459998
 20
41.20787252989996
 30
0.0
 10
53.96806085489998
 20
40.83416127549994
 30
0.0
 10
54.36885634959998
 20
40.51650491959994
 30
0.0
 10
54.8119454591
 20
40.26188649259998
 30
0.0
 10
55.28763795790002
 20
40.07590516059997
 30
0.0
 10
55.78533666250002
 20
39.96265522970001
 30
0.0
 10
56.12489698270002
 20
39.93729849889994
 30
0.0
 10
56.29438551939999
 20
39.93730113339998
 30
0.0
  0
SPLINE
  5
91838
330
1F
100
AcDbEntity
  8
1
100
AcDbSpline
210
0.0
220
0.0
230
1.0
 70
     8
 71
     3
 72
    11
 73
     7
 74
     0
 42
0.000000001
 43
0.0000000001
 40
0.0
 40
0.0
 40
0.0
 40
0.0
 40
0.250301594
 40
0.5003523427000001
 40
0.7502254609000003
 40
1.0
 40
1.0
 40
1.0
 40
1.0
 10
53.90982312220001
 20
45.86793519669996
 30
0.0
 10
54.06747404190003
 20
46.02115457869992
 30
0.0
 10
54.41299352700003
 20
46.2978581472
 30
0.0
 10
55.0002048604
 20
46.60540784519992
 30
0.0
 10
55.63499805620001
 20
46.79471781599996
 30
0.0
 10
56.07500760160003
 20
46.83729666709993
 30
0.0
 10
56.29438551939999
 20
46.83730007709995
 30
0.0
  0
SPLINE
  5
91839
330
1F
100
AcDbEntity
  8
1
100
AcDbSpline
210
0.0
220
0.0
230
1.0
 70
     8
 71
     3
 72
    27
 73
    23
 74
     0
 42
0.000000001
 43
0.0000000001
 40
0.0
 40
0.0
 40
0.0
 40
0.0
 40
0.062510749
 40
0.0938250864
 40
0.1251555205
 40
0.1877761728
 40
0.2504243261
 40
0.2817882246
 40
0.3131494707
 40
0.375776401
 40
0.4383577404
 40
0.5008781778
 40
0.5633316986
 40
0.6257224829
 40
0.6880642190000003
 40
0.7192611467
 40
0.7504541571
 40
0.8127658752
 40
0.8751013033999999
 40
0.9063227924999999
 40
0.9375561798999999
 40
1.0
 40
1.0
 40
1.0
 40
1.0
 10
54.71123234430002
 20
45.07773374449995
 30
0.0
 10
54.60131448530001
 20
44.97090565579997
 30
0.0
 10
54.45160560250002
 20
44.79366705229995
 30
0.0
 10
54.28988860449997
 20
44.53243780319994
 30
0.0
 10
54.15424310569999
 20
44.25635882259999
 30
0.0
 10
54.03629924869999
 20
43.88820557929996
 30
0.0
 10
53.99218132089997
 20
43.50405956289995
 30
0.0
 10
54.00202781850004
 20
43.19636963789993
 30
0.0
 10
54.04175943440003
 20
42.89115753219997
 30
0.0
 10
54.14707383889997
 20
42.51920611099996
 30
0.0
 10
54.3575215651
 20
42.10657240829997
 30
0.0
 10
54.64400878139997
 20
41.74302870069996
 30
0.0
 10
54.99558013889997
 20
41.44267252449995
 30
0.0
 10
55.39861549400001
 20
41.21703579859999
 30
0.0
 10
55.76494198359999
 20
41.09844543049994
 30
0.0
 10
56.06705337529994
 20
41.04812349139993
 30
0.0
 10
56.37258339700003
 20
41.02776376929996
 30
0.0
 10
56.75608086860001
 20
41.05906964199997
 30
0.0
 10
57.12600595380002
 20
41.16512740019993
 30
0.0
 10
57.40493492850004
 20
41.29203061639993
 30
0.0
 10
57.67022053799998
 20
41.44576220679996
 30
0.0
 10
57.85136129299996
 20
41.59015375599998
 30
0.0
 10
57.96116146520001
 20
41.69686746609996
 30
0.0
  0
SPLINE
  5
9183A
330
1F
100
AcDbEntity
  8
1
100
AcDbSpline
210
0.0
220
0.0
230
1.0
 70
     8
 71
     3
 72
    15
 73
    11
 74
     0
 42
0.000000001
 43
0.0000000001
 40
0.0
 40
0.0
 40
0.0
 40
0.0
 40
0.125028041
 40
0.2501310002
 40
0.3752787635
 40
0.5004112717
 40
0.6254813822
 40
0.7504512691
 40
0.8752875286
 40
1.0
 40
1.0
 40
1.0
 40
1.0
 10
57.78106057540004
 20
44.34876096139997
 30
0.0
 10
57.75381623060003
 20
44.30266260699997
 30
0.0
 10
57.70818750569997
 20
44.20485464109995
 30
0.0
 10
57.66945985889996
 20
44.0478692838
 30
0.0
 10
57.66172029940003
 20
43.88625973759999
 30
0.0
 10
57.68531602850003
 20
43.72622250829997
 30
0.0
 10
57.73932831749998
 20
43.57381773329999
 30
0.0
 10
57.82174031950001
 20
43.43483174479993
 30
0.0
 10
57.92934999560003
 20
43.31457647139997
 30
0.0
 10
58.0153849957
 20
43.24981560969996
 30
0.0
 10
58.06099129189999
 20
43.22201412639993
 30
0.0
  0
SPLINE
  5
9183B
330
1F
100
AcDbEntity
  8
1
100
AcDbSpline
210
0.0
220
0.0
230
1.0
 70
     8
 71
     3
 72
     9
 73
     5
 74
     0
 42
0.000000001
 43
0.0000000001
 40
0.0
 40
0.0
 40
0.0
 40
0.0
 40
0.5005263902000002
 40
1.0
 40
1.0
 40
1.0
 40
1.0
 10
56.04238975179999
 20
45.12621187479996
 30
0.0
 10
56.02196613140001
 20
45.16283874899996
 30
0.0
 10
55.96657601899999
 20
45.22880203489997
 30
0.0
 10
55.89031707790002
 20
45.26890196069992
 30
0.0
 10
55.85024385449997
 20
45.28096009599996
 30
0.0
  0
SPLINE
  5
9183C
330
1F
100
AcDbEntity
  8
1
100
AcDbSpline
210
0.0
220
0.0
230
1.0
 70
     8
 71
     3
 72
    11
 73
     7
 74
     0
 42
0.000000001
 43
0.0000000001
 40
0.0
 40
0.0
 40
0.0
 40
0.0
 40
0.2496178661
 40
0.4994168656000002
 40
0.7495149126000003
 40
1.0
 40
1.0
 40
1.0
 40
1.0
 10
56.75793339580003
 20
44.70476043499993
 30
0.0
 10
56.68568881869997
 20
44.70475797669997
 30
0.0
 10
56.54041563159999
 20
44.72417955149999
 30
0.0
 10
56.33831545970004
 20
44.80959726849996
 30
0.0
 10
56.16545108180003
 20
44.94511359329997
 30
0.0
 10
56.07769621500001
 20
45.06289472729995
 30
0.0
 10
56.04238975179999
 20
45.12621187479996
 30
0.0
  0
SPLINE
  5
9183D
330
1F
100
AcDbEntity
  8
1
100
AcDbSpline
210
0.0
220
0.0
230
1.0
 70
     8
 71
     3
 72
    15
 73
    11
 74
     0
 42
0.000000001
 43
0.0000000001
 40
0.0
 40
0.0
 40
0.0
 40
0.0
 40
0.1250883725
 40
0.2502752249
 40
0.3754790892
 40
0.5006422172000004
 40
0.6256997839000002
 40
0.7506138325000001
 40
0.8753739228
 40
1.0
 40
1.0
 40
1.0
 40
1.0
 10
57.5929093415
 20
44.34876096139997
 30
0.0
 10
57.6055754875
 20
44.37019250969996
 30
0.0
 10
57.62612175480001
 20
44.41611806249997
 30
0.0
 10
57.64067910429996
 20
44.49003325019996
 30
0.0
 10
57.6383313677
 20
44.565382496
 30
0.0
 10
57.61918126979995
 20
44.63826084269995
 30
0.0
 10
57.58421107930002
 20
44.70494422879997
 30
0.0
 10
57.53519798529999
 20
44.7620125658
 30
0.0
 10
57.47469879920004
 20
44.80652062739998
 30
0.0
 10
57.42863863970001
 20
44.82633379879996
 30
0.0
 10
57.40488904929996
 20
44.83348412129996
 30
0.0
  0
SPLINE
  5
9183E
330
1F
100
AcDbEntity
  8
1
100
AcDbSpline
210
0.0
220
0.0
230
1.0
 70
     8
 71
     3
 72
    15
 73
    11
 74
     0
 42
0.000000001
 43
0.0000000001
 40
0.0
 40
0.0
 40
0.0
 40
0.0
 40
0.1247087438
 40
0.2495499846
 40
0.374518182
 40
0.4995887253000002
 40
0.6247216697
 40
0.749867739
 40
0.8749756962000001
 40
1.0
 40
1.0
 40
1.0
 40
1.0
 10
57.87284005800001
 20
43.22201412639993
 30
0.0
 10
57.8272350733
 20
43.24981481019995
 30
0.0
 10
57.74120065949998
 20
43.31457708889991
 30
0.0
 10
57.633587067
 20
43.43482905059995
 30
0.0
 10
57.5511763975
 20
43.57381799369997
 30
0.0
 10
57.49716190369998
 20
43.72622178549997
 30
0.0
 10
57.47356858199998
 20
43.88625917760001
 30
0.0
 10
57.48130558479999
 20
44.04787071519995
 30
0.0
 10
57.5200382346
 20
44.20485498779995
 30
0.0
 10
57.56566578019999
 20
44.30266393269995
 30
0.0
 10
57.5929093415
 20
44.34876096139997
 30
0.0
  0
SPLINE
  5
9183F
330
1F
100
AcDbEntity
  8
1
100
AcDbSpline
210
0.0
220
0.0
230
1.0
 70
     8
 71
     3
 72
    15
 73
    11
 74
     0
 42
0.000000001
 43
0.0000000001
 40
0.0
 40
0.0
 40
0.0
 40
0.0
 40
0.12517186
 40
0.2504192486
 40
0.3756816193
 40
0.500854719
 40
0.6258748281999999
 40
0.7507162961000004
 40
0.8754017411999999
 40
1.0
 40
1.0
 40
1.0
 40
1.0
 10
57.78106057540004
 20
44.34876096139997
 30
0.0
 10
57.79574656819999
 20
44.37361015899996
 30
0.0
 10
57.8186845783
 20
44.42746112039992
 30
0.0
 10
57.83090796269999
 20
44.51418693319996
 30
0.0
 10
57.82029491359998
 20
44.60118001399997
 30
0.0
 10
57.78751768199999
 20
44.68239150219996
 30
0.0
 10
57.73484582729998
 20
44.75224161279995
 30
0.0
 10
57.66587275630001
 20
44.80590082289999
 30
0.0
 10
57.5854315601
 20
44.83966412089997
 30
0.0
 10
57.52765838490001
 20
44.84734107759996
 30
0.0
 10
57.49892612850004
 20
44.84734351409993
 30
0.0
  0
SPLINE
  5
91840
330
1F
100
AcDbEntity
  8
1
100
AcDbSpline
210
0.0
220
0.0
230
1.0
 70
     8
 71
     3
 72
    15
 73
    11
 74
     0
 42
0.000000001
 43
0.0000000001
 40
0.0
 40
0.0
 40
0.0
 40
0.0
 40
0.1253364732
 40
0.2506190534
 40
0.37580446
 40
0.5008670042
 40
0.6257971196000001
 40
0.7506066865000001
 40
0.8753197295999999
 40
1.0
 40
1.0
 40
1.0
 40
1.0
 10
56.8680847233
 20
41.80271380629998
 30
0.0
 10
56.8692166011
 20
41.85586485309996
 30
0.0
 10
56.88176696889996
 20
41.96220882399996
 30
0.0
 10
56.93073362189999
 20
42.11489582009996
 30
0.0
 10
57.0080221029
 20
42.25532194190001
 30
0.0
 10
57.11074781109999
 20
42.37815999549993
 30
0.0
 10
57.23507172379999
 20
42.47883496429998
 30
0.0
 10
57.37636865450003
 20
42.55356653169999
 30
0.0
 10
57.52928113619997
 20
42.59956615589995
 30
0.0
 10
57.6353530719
 20
42.60991116749996
 30
0.0
 10
57.6882378322
 20
42.60991469199995
 30
0.0
  0
SPLINE
  5
91841
330
1F
100
AcDbEntity
  8
1
100
AcDbSpline
210
0.0
220
0.0
230
1.0
 70
     8
 71
     3
 72
    11
 73
     7
 74
     0
 42
0.000000001
 43
0.0000000001
 40
0.0
 40
0.0
 40
0.0
 40
0.0
 40
0.2504809262
 40
0.5005858755000001
 40
0.750384011
 40
1.0
 40
1.0
 40
1.0
 40
1.0
 10
56.23054098569998
 20
45.12621187479996
 30
0.0
 10
56.2658468903
 20
45.06289572899992
 30
0.0
 10
56.35360349389998
 20
44.94511581119994
 30
0.0
 10
56.52646368949999
 20
44.80959091919996
 30
0.0
 10
56.72857008150003
 20
44.72418608209998
 30
0.0
 10
56.87384054260002
 20
44.70475326279991
 30
0.0
 10
56.94608463350005
 20
44.70475670589999
 30
0.0
  0
SPLINE
  5
91842
330
1F
100
AcDbEntity
  8
1
100
AcDbSpline
210
0.0
220
0.0
230
1.0
 70
     8
 71
     3
 72
     9
 73
     5
 74
     0
 42
0.000000001
 43
0.0000000001
 40
0.0
 40
0.0
 40
0.0
 40
0.0
 40
0.5001934921000001
 40
1.0
 40
1.0
 40
1.0
 40
1.0
 10
55.14329033619998
 20
41.96800028509996
 30
0.0
 10
55.20328738239999
 20
42.00112905739998
 30
0.0
 10
55.33210244040002
 20
42.05245311459996
 30
0.0
 10
55.46967513190003
 20
42.06983844539997
 30
0.0
 10
55.53815794590001
 20
42.0698407756
 30
0.0
  0
SPLINE
  5
91843
330
1F
100
AcDbEntity
  8
1
100
AcDbSpline
210
0.0
220
0.0
230
1.0
 70
     8
 71
     3
 72
    15
 73
    11
 74
     0
 42
0.000000001
 43
0.0000000001
 40
0.0
 40
0.0
 40
0.0
 40
0.0
 40
0.1246286297
 40
0.2493692327
 40
0.3743263633
 40
0.4994868881000001
 40
0.6247607511
 40
0.7500117186000002
 40
0.8751071011
 40
1.0
 40
1.0
 40
1.0
 40
1.0
 10
57.89084816009999
 20
42.60982372539998
 30
0.0
 10
57.9262088854
 20
42.60982671039997
 30
0.0
 10
57.9974986199
 20
42.62152981239998
 30
0.0
 10
58.09281895219999
 20
42.67234982589992
 30
0.0
 10
58.16711904259999
 20
42.75108370759997
 30
0.0
 10
58.21253846820003
 20
42.84948641449997
 30
0.0
 10
58.22439776740004
 20
42.95729247009997
 30
0.0
 10
58.20144658210001
 20
43.0632942256
 30
0.0
 10
58.14617091949997
 20
43.15638049639996
 30
0.0
 10
58.0912482955
 20
43.2035695333
 30
0.0
 10
58.06099129189999
 20
43.22201412639993
 30
0.0
  0
SPLINE
  5
91844
330
1F
100
AcDbEntity
  8
1
100
AcDbSpline
210
0.0
220
0.0
230
1.0
 70
     8
 71
     3
 72
    15
 73
    11
 74
     0
 42
0.000000001
 43
0.0000000001
 40
0.0
 40
0.0
 40
0.0
 40
0.0
 40
0.1246375717
 40
0.2493761774
 40
0.3743350482
 40
0.4994959254
 40
0.6247683031
 40
0.7500175027
 40
0.8751067386999999
 40
1.0
 40
1.0
 40
1.0
 40
1.0
 10
57.70499080590003
 20
42.60983210839994
 30
0.0
 10
57.74025906430001
 20
42.61008508089996
 30
0.0
 10
57.8112754375
 20
42.62222092749996
 30
0.0
 10
57.90604146369997
 20
42.67344907719997
 30
0.0
 10
57.9797635571
 20
42.752316944
 30
0.0
 10
58.02466351240004
 20
42.85062928619995
 30
0.0
 10
58.03617341580003
 20
42.95817195449996
 30
0.0
 10
58.0130455492
 20
43.06382735579997
 30
0.0
 10
57.95780794670003
 20
43.15658595839997
 30
0.0
 10
57.90301663930001
 20
43.20361855860002
 30
0.0
 10
57.87284005800001
 20
43.22201412639993
 30
0.0
  0
SPLINE
  5
91845
330
1F
100
AcDbEntity
  8
1
100
AcDbSpline
210
0.0
220
0.0
230
1.0
 70
     8
 71
     3
 72
    15
 73
    11
 74
     0
 42
0.000000001
 43
0.0000000001
 40
0.0
 40
0.0
 40
0.0
 40
0.0
 40
0.124680339
 40
0.2493906157
 40
0.3742015863
 40
0.4991317614
 40
0.6241940515
 40
0.7493817505
 40
0.8746591993
 40
1.0
 40
1.0
 40
1.0
 40
1.0
 10
57.8763890555
 20
42.60991477389997
 30
0.0
 10
57.82350432880003
 20
42.60991205909997
 30
0.0
 10
57.71743343909998
 20
42.59956658190001
 30
0.0
 10
57.56452266760003
 20
42.55356482749997
 30
0.0
 10
57.42322534470003
 20
42.47883547759996
 30
0.0
 10
57.29890221120001
 20
42.37815913949996
 30
0.0
 10
57.1961738297
 20
42.25532228819996
 30
0.0
 10
57.11888856260003
 20
42.11489621269996
 30
0.0
 10
57.06991660850002
 20
41.96221061049995
 30
0.0
 10
57.05736787270001
 20
41.85586662519996
 30
0.0
 10
57.05623595719996
 20
41.80271380629998
 30
0.0
  0
SPLINE
  5
91846
330
1F
100
AcDbEntity
  8
1
100
AcDbSpline
210
0.0
220
0.0
230
1.0
 70
     8
 71
     3
 72
    11
 73
     7
 74
     0
 42
0.000000001
 43
0.0000000001
 40
0.0
 40
0.0
 40
0.0
 40
0.0
 40
0.2504880625
 40
0.5005819384
 40
0.7503846693999999
 40
1.0
 40
1.0
 40
1.0
 40
1.0
 10
56.23054098569998
 20
45.12621187479996
 30
0.0
 10
56.21641585110001
 20
45.15154330569996
 30
0.0
 10
56.18130887479996
 20
45.19866451369995
 30
0.0
 10
56.11214901340003
 20
45.25287733329999
 30
0.0
 10
56.03129615910001
 20
45.28705156589997
 30
0.0
 10
55.9731772728
 20
45.294820246
 30
0.0
 10
55.94427486239998
 20
45.29482240189999
 30
0.0
  0
SPLINE
  5
91847
330
1F
100
AcDbEntity
  8
1
100
AcDbSpline
210
0.0
220
0.0
230
1.0
 70
     8
 71
     3
 72
    11
 73
     7
 74
     0
 42
0.000000001
 43
0.0000000001
 40
0.0
 40
0.0
 40
0.0
 40
0.0
 40
0.2493735195
 40
0.4991092802
 40
0.7493605911
 40
1.0
 40
1.0
 40
1.0
 40
1.0
 10
56.72811894709997
 20
41.47977880869992
 30
0.0
 10
56.77023776039999
 20
41.47977566699998
 30
0.0
 10
56.85544109810003
 20
41.49651519169998
 30
0.0
 10
56.96356693119998
 20
41.56810850939996
 30
0.0
 10
57.03694041159997
 20
41.67526819909997
 30
0.0
 10
57.05533466750001
 20
41.7603907817
 30
0.0
 10
57.05623595719996
 20
41.80271380629998
 30
0.0
  0
SPLINE
  5
91848
330
1F
100
AcDbEntity
  8
1
100
AcDbSpline
210
0.0
220
0.0
230
1.0
 70
     8
 71
     3
 72
    11
 73
     7
 74
     0
 42
0.000000001
 43
0.0000000001
 40
0.0
 40
0.0
 40
0.0
 40
0.0
 40
0.2494307897
 40
0.4992622723000001
 40
0.7494792189
 40
1.0
 40
1.0
 40
1.0
 40
1.0
 10
56.6342785915
 20
41.49369939399996
 30
0.0
 10
56.66711480560002
 20
41.50360189339997
 30
0.0
 10
56.7301299353
 20
41.5340854385
 30
0.0
 10
56.80553406249998
 20
41.60673538509999
 30
0.0
 10
56.85498972880004
 20
41.69918895889995
 30
0.0
 10
56.86735132879999
 20
41.76827485309996
 30
0.0
 10
56.8680847233
 20
41.80271380629998
 30
0.0
  0
SPLINE
  5
91849
330
1F
100
AcDbEntity
  8
1
100
AcDbSpline
210
0.0
220
0.0
230
1.0
 70
     8
 71
     3
 72
     9
 73
     5
 74
     0
 42
0.000000001
 43
0.0000000001
 40
0.0
 40
0.0
 40
0.0
 40
0.0
 40
0.4998160979
 40
1.0
 40
1.0
 40
1.0
 40
1.0
 10
55.72630917600003
 20
42.06984450459993
 30
0.0
 10
55.65782499389996
 20
42.06984124069996
 30
0.0
 10
55.52025306
 20
42.05245038589995
 30
0.0
 10
55.39143751329999
 20
42.00112844839995
 30
0.0
 10
55.33144156999998
 20
41.96800028509996
 30
0.0
  0
SPLINE
  5
9184A
330
1F
100
AcDbEntity
  8
1
100
AcDbSpline
210
0.0
220
0.0
230
1.0
 70
     8
 71
     3
 72
    27
 73
    23
 74
     0
 42
0.000000001
 43
0.0000000001
 40
0.0
 40
0.0
 40
0.0
 40
0.0
 40
0.0624438201
 40
0.0936772075
 40
0.1248986966
 40
0.1872341248
 40
0.2495458429
 40
0.2807388533
 40
0.311935781
 40
0.3742775171
 40
0.4366683014000003
 40
0.4991218222000002
 40
0.5616422596000003
 40
0.6242235990000001
 40
0.6868505293000001
 40
0.7182117754
 40
0.7495756739
 40
0.8122238272
 40
0.8748444794999999
 40
0.9061749135999999
 40
0.9374892509999998
 40
1.0
 40
1.0
 40
1.0
 40
1.0
 10
54.71123234430002
 20
45.07773374449995
 30
0.0
 10
54.82103251649999
 20
45.18444745459996
 30
0.0
 10
55.0021732715
 20
45.32883900369998
 30
0.0
 10
55.26745888100004
 20
45.48257059419997
 30
0.0
 10
55.54638785569999
 20
45.60947381029992
 30
0.0
 10
55.91631294090001
 20
45.71553156849995
 30
0.0
 10
56.29981041249997
 20
45.74683744119997
 30
0.0
 10
56.6053404342
 20
45.72647771919997
 30
0.0
 10
56.90745182590001
 20
45.67615578009998
 30
0.0
 10
57.27377831550001
 20
45.55756541189999
 30
0.0
 10
57.67681367060004
 20
45.33192868599999
 30
0.0
 10
58.02838502810001
 20
45.03157250979998
 30
0.0
 10
58.31487224440002
 20
44.66802880219995
 30
0.0
 10
58.52531997060005
 20
44.25539509959992
 30
0.0
 10
58.63063437510003
 20
43.88344367829996
 30
0.0
 10
58.67036599100003
 20
43.57823157259999
 30
0.0
 10
58.68021248859998
 20
43.27054164769996
 30
0.0
 10
58.63609456080002
 20
42.88639563129996
 30
0.0
 10
58.51815070380002
 20
42.51824238789995
 30
0.0
 10
58.38250520499997
 20
42.24216340729994
 30
0.0
 10
58.22078820689999
 20
41.98093415829996
 30
0.0
 10
58.07107932420001
 20
41.8036955547
 30
0.0
 10
57.96116146520001
 20
41.69686746609996
 30
0.0
  0
SPLINE
  5
9184B
330
1F
100
AcDbEntity
  8
1
100
AcDbSpline
210
0.0
220
0.0
230
1.0
 70
     8
 71
     3
 72
     9
 73
     5
 74
     0
 42
0.000000001
 43
0.0000000001
 40
0.0
 40
0.0
 40
0.0
 40
0.0
 40
0.4998046985000001
 40
1.0
 40
1.0
 40
1.0
 40
1.0
 10
55.17346768100003
 20
41.92725769639993
 30
0.0
 10
55.2008653648
 20
41.92725537309999
 30
0.0
 10
55.25590400650003
 20
41.93421417799996
 30
0.0
 10
55.3074385844
 20
41.95474647519996
 30
0.0
 10
55.33144156999998
 20
41.96800028509996
 30
0.0
  0
SPLINE
  5
9184C
330
1F
100
AcDbEntity
  8
1
100
AcDbSpline
210
0.0
220
0.0
230
1.0
 70
     8
 71
     3
 72
     8
 73
     4
 74
     0
 42
0.000000001
 43
0.0000000001
 40
0.0
 40
0.0
 40
0.0
 40
0.0
 40
1.0
 40
1.0
 40
1.0
 40
1.0
 10
55.07915873329999
 20
41.9410352019
 30
0.0
 10
55.10136889889998
 20
41.94770482689996
 30
0.0
 10
55.12298956249998
 20
41.95679073809992
 30
0.0
 10
55.14329033619998
 20
41.96800028509996
 30
0.0
  0
SPLINE
  5
9184D
330
1F
100
AcDbEntity
  8
1
100
AcDbSpline
210
0.0
220
0.0
230
1.0
 70
     8
 71
     3
 72
     9
 73
     5
 74
     0
 42
0.000000001
 43
0.0000000001
 40
0.0
 40
0.0
 40
0.0
 40
0.0
 40
0.2522482717
 40
1.0
 40
1.0
 40
1.0
 40
1.0
 10
63.5
 20
49.44000985619997
 30
0.0
 10
63.5001392863
 20
49.33233080989996
 30
0.0
 10
63.49987351959999
 20
48.9054529647
 30
0.0
 10
63.49630331110001
 20
48.47857668599997
 30
0.0
 10
63.49171286950003
 20
48.15941123389997
 30
0.0
  0
SPLINE
  5
9184E
330
1F
100
AcDbEntity
  8
1
100
AcDbSpline
210
0.0
220
0.0
230
1.0
 70
     8
 71
     3
 72
    15
 73
    11
 74
     0
 42
0.000000001
 43
0.0000000001
 40
0.0
 40
0.0
 40
0.0
 40
0.0
 40
0.1258912443
 40
0.2515362607
 40
0.3767795465
 40
0.5015539775
 40
0.6260231372999999
 40
0.7504156747000002
 40
0.8749915729999997
 40
1.0
 40
1.0
 40
1.0
 40
1.0
 10
63.5
 20
49.44000985619997
 30
0.0
 10
63.49993500549999
 20
49.49025561779993
 30
0.0
 10
63.4903472625
 20
49.59089839179998
 30
0.0
 10
63.44792959270001
 20
49.73606362149999
 30
0.0
 10
63.37928845940002
 20
49.87037338189999
 30
0.0
 10
63.28693285989999
 20
49.989029354
 30
0.0
 10
63.17403095259999
 20
50.08783958089995
 30
0.0
 10
63.04442460040002
 20
50.16330435249997
 30
0.0
 10
62.90262645130002
 20
50.21266706169997
 30
0.0
 10
62.80329813049998
 20
50.22688926689998
 30
0.0
 10
62.75345877100001
 20
50.22921195879996
 30
0.0
  0
SPLINE
  5
9184F
330
1F
100
AcDbEntity
  8
1
100
AcDbSpline
210
0.0
220
0.0
230
1.0
 70
     8
 71
     3
 72
     9
 73
     5
 74
     0
 42
0.000000001
 43
0.0000000001
 40
0.0
 40
0.0
 40
0.0
 40
0.0
 40
0.2501271085
 40
1.0
 40
1.0
 40
1.0
 40
1.0
 10
61.47060080590001
 20
50.28822446819996
 30
0.0
 10
61.57756291139996
 20
50.28336809489999
 30
0.0
 10
62.0051909887
 20
50.26388816549992
 30
0.0
 10
62.43280755310003
 20
50.24415544949995
 30
0.0
 10
62.75345877100001
 20
50.22921195879996
 30
0.0
  0
SPLINE
  5
91850
330
1F
100
AcDbEntity
  8
1
100
AcDbSpline
210
0.0
220
0.0
230
1.0
 70
     8
 71
     3
 72
     9
 73
     5
 74
     0
 42
0.000000001
 43
0.0000000001
 40
0.0
 40
0.0
 40
0.0
 40
0.0
 40
0.2480571801
 40
1.0
 40
1.0
 40
1.0
 40
1.0
 10
54.96644827949999
 20
50.41560221799997
 30
0.0
 10
55.49985198310003
 20
50.40526533339996
 30
0.0
 10
57.6501784797
 20
50.36364039969996
 30
0.0
 10
59.80049751159999
 20
50.32163061459996
 30
0.0
 10
61.4174127032
 20
50.28995224039997
 30
0.0
  0
SPLINE
  5
91851
330
1F
100
AcDbEntity
  8
1
100
AcDbSpline
210
0.0
220
0.0
230
1.0
 70
     8
 71
     3
 72
    11
 73
     7
 74
     0
 42
0.000000001
 43
0.0000000001
 40
0.0
 40
0.0
 40
0.0
 40
0.0
 40
0.1243906053
 40
0.2489580189
 40
0.4986663276
 40
1.0
 40
1.0
 40
1.0
 40
1.0
 10
53.6469074071
 20
50.22537164589998
 30
0.0
 10
53.56024289020002
 20
50.17847995799993
 30
0.0
 10
53.3866575934
 20
50.08487612049997
 30
0.0
 10
53.03917876649999
 20
49.89698869169997
 30
0.0
 10
52.42916122440004
 20
49.56685236489995
 30
0.0
 10
51.90623000300002
 20
49.28312288089998
 30
0.0
 10
51.55727393590002
 20
49.09352680089997
 30
0.0
  0
LINE
  5
91852
330
1F
100
AcDbEntity
  8
1
100
AcDbLine
 10
48.42280235880003
 20
47.38382960529992
 30
0.0
 11
47.9917631989
 21
47.14777504959997
 31
0.0
  0
SPLINE
  5
91853
330
1F
100
AcDbEntity
  8
1
100
AcDbSpline
210
0.0
220
0.0
230
1.0
 70
     8
 71
     3
 72
     9
 73
     5
 74
     0
 42
0.000000001
 43
0.0000000001
 40
0.0
 40
0.0
 40
0.0
 40
0.0
 40
0.2497921276
 40
1.0
 40
1.0
 40
1.0
 40
1.0
 10
47.94549679420003
 20
47.12164094829996
 30
0.0
 10
47.85306581660001
 20
47.06782045289992
 30
0.0
 10
47.48339443179996
 20
46.85174135379994
 30
0.0
 10
47.11514133499997
 20
46.63323540479992
 30
0.0
 10
46.83970949709999
 20
46.46792630679995
 30
0.0
  0
SPLINE
  5
91854
330
1F
100
AcDbEntity
  8
1
100
AcDbSpline
210
0.0
220
0.0
230
1.0
 70
     8
 71
     3
 72
     9
 73
     5
 74
     0
 42
0.000000001
 43
0.0000000001
 40
0.0
 40
0.0
 40
0.0
 40
0.0
 40
0.5004189035000001
 40
1.0
 40
1.0
 40
1.0
 40
1.0
 10
46.83970949709999
 20
46.46792630679995
 30
0.0
 10
46.7996644763
 20
46.44389202549993
 30
0.0
 10
46.72380126220001
 20
46.38856097429996
 30
0.0
 10
46.65907636920002
 20
46.32054142259996
 30
0.0
 10
46.63007385859997
 20
46.28403379170001
 30
0.0
  0
SPLINE
  5
91855
330
1F
100
AcDbEntity
  8
1
100
AcDbSpline
210
0.0
220
0.0
230
1.0
 70
     8
 71
     3
 72
     9
 73
     5
 74
     0
 42
0.000000001
 43
0.0000000001
 40
0.0
 40
0.0
 40
0.0
 40
0.0
 40
0.2514664261
 40
1.0
 40
1.0
 40
1.0
 40
1.0
 10
46.59728045119999
 20
45.32570404579998
 30
0.0
 10
46.6425036796
 20
45.24005559789992
 30
0.0
 10
46.82285765029996
 20
44.89973233379996
 30
0.0
 10
47.00529004869998
 20
44.56051033729997
 30
0.0
 10
47.14303205890002
 20
44.30723870949996
 30
0.0
  0
SPLINE
  5
91856
330
1F
100
AcDbEntity
  8
1
100
AcDbSpline
210
0.0
220
0.0
230
1.0
 70
     8
 71
     3
 72
    16
 73
    12
 74
     0
 42
0.000000001
 43
0.0000000001
 40
0.0
 40
0.0
 40
0.0
 40
0.0
 40
0.0306229452
 40
0.0612825983
 40
0.1227660521
 40
0.1844466435
 40
0.2463099047
 40
0.3705446714
 40
0.4954043502000001
 40
0.7467622811
 40
1.0
 40
1.0
 40
1.0
 40
1.0
 10
63.03553268799999
 20
41.04334840409997
 30
0.0
 10
63.00620353779999
 20
40.99116560419999
 30
0.0
 10
62.9477973594
 20
40.88657628809996
 30
0.0
 10
62.83041886260003
 20
40.67726500729992
 30
0.0
 10
62.68324672159997
 20
40.41505711639993
 30
0.0
 10
62.50591050369997
 20
40.09983360789997
 30
0.0
 10
62.26809988680003
 20
39.67788993190001
 30
0.0
 10
61.96902587490001
 20
39.14871124729998
 30
0.0
 10
61.4864481468
 20
38.29776443929997
 30
0.0
 10
60.87728985220002
 20
37.2287076922
 30
0.0
 10
60.38687527860004
 20
36.37290502699997
 30
0.0
 10
60.1402944143
 20
35.94367416139997
 30
0.0
  0
SPLINE
  5
91857
330
1F
100
AcDbEntity
  8
1
100
AcDbSpline
210
0.0
220
0.0
230
1.0
 70
     8
 71
     3
 72
    10
 73
     6
 74
     0
 42
0.000000001
 43
0.0000000001
 40
0.0
 40
0.0
 40
0.0
 40
0.0
 40
0.2504815494
 40
0.5017728216
 40
1.0
 40
1.0
 40
1.0
 40
1.0
 10
54.38420811359996
 20
50.41589938920001
 30
0.0
 10
54.32006748729998
 20
50.41589852629996
 30
0.0
 10
54.1913911331
 20
50.40752778879998
 30
0.0
 10
53.93967724840003
 20
50.35802962829999
 30
0.0
 10
53.75911602609999
 20
50.28608451579994
 30
0.0
 10
53.6469074071
 20
50.22537164589998
 30
0.0
  0
SPLINE
  5
91858
330
1F
100
AcDbEntity
  8
1
100
AcDbSpline
210
0.0
220
0.0
230
1.0
 70
     8
 71
     3
 72
    19
 73
    15
 74
     0
 42
0.000000001
 43
0.0000000001
 40
0.0
 40
0.0
 40
0.0
 40
0.0
 40
0.1285500918
 40
0.1922036895
 40
0.2551463433999999
 40
0.2862818495
 40
0.3171818804
 40
0.3788937527
 40
0.4406842205
 40
0.5025487707
 40
0.6264954870000004
 40
0.7507249987000001
 40
0.8752291934
 40
1.0
 40
1.0
 40
1.0
 40
1.0
 10
63.24070554150001
 20
41.79794286469998
 30
0.0
 10
63.24482826959997
 20
42.06847663779988
 30
0.0
 10
63.2534883824
 20
42.47293765819995
 30
0.0
 10
63.27005788639997
 20
43.00970245479995
 30
0.0
 10
63.2824461079
 20
43.34145905049992
 30
0.0
 10
63.29353830190001
 20
43.60427285029994
 30
0.0
 10
63.30550608310001
 20
43.86445476469996
 30
0.0
 10
63.32044930479998
 20
44.18908855129997
 30
0.0
 10
63.33814159370001
 20
44.5788373251
 30
0.0
 10
63.3615553258
 20
45.09944964489998
 30
0.0
 10
63.39041317330003
 20
45.75136818699997
 30
0.0
 10
63.42438655559999
 20
46.53502954809995
 30
0.0
 10
63.45771501730002
 20
47.32045466549997
 30
0.0
 10
63.47948529029998
 20
47.84466324389996
 30
0.0
 10
63.49025968119997
 20
48.10705287749996
 30
0.0
  0
SPLINE
  5
91859
330
1F
100
AcDbEntity
  8
1
100
AcDbSpline
210
0.0
220
0.0
230
1.0
 70
     8
 71
     3
 72
     8
 73
     4
 74
     0
 42
0.000000001
 43
0.0000000001
 40
0.0
 40
0.0
 40
0.0
 40
0.0
 40
1.0
 40
1.0
 40
1.0
 40
1.0
 10
63.49171286950003
 20
48.15941123389997
 30
0.0
 10
63.49146178159998
 20
48.14195353310001
 30
0.0
 10
63.49097600959999
 20
48.12449768279996
 30
0.0
 10
63.49025968119997
 20
48.10705287749996
 30
0.0
  0
SPLINE
  5
9185A
330
1F
100
AcDbEntity
  8
1
100
AcDbSpline
210
0.0
220
0.0
230
1.0
 70
     8
 71
     3
 72
     8
 73
     4
 74
     0
 42
0.000000001
 43
0.0000000001
 40
0.0
 40
0.0
 40
0.0
 40
0.0
 40
1.0
 40
1.0
 40
1.0
 40
1.0
 10
61.47060080590001
 20
50.28822446819996
 30
0.0
 10
61.4528803417
 20
50.289029026
 30
0.0
 10
61.435148019
 20
50.28960477259996
 30
0.0
 10
61.4174127032
 20
50.28995224039997
 30
0.0
  0
SPLINE
  5
9185B
330
1F
100
AcDbEntity
  8
1
100
AcDbSpline
210
0.0
220
0.0
230
1.0
 70
     8
 71
     3
 72
     8
 73
     4
 74
     0
 42
0.000000001
 43
0.0000000001
 40
0.0
 40
0.0
 40
0.0
 40
0.0
 40
1.0
 40
1.0
 40
1.0
 40
1.0
 10
47.9917631989
 20
47.14777504959997
 30
0.0
 10
47.97622922529996
 20
47.13926471319992
 30
0.0
 10
47.96080344509999
 20
47.13055366949996
 30
0.0
 10
47.94549679420003
 20
47.12164094829996
 30
0.0
  0
SPLINE
  5
9185C
330
1F
100
AcDbEntity
  8
1
100
AcDbSpline
210
0.0
220
0.0
230
1.0
 70
     8
 71
     3
 72
    10
 73
     6
 74
     0
 42
0.000000001
 43
0.0000000001
 40
0.0
 40
0.0
 40
0.0
 40
0.0
 40
0.4914456555
 40
0.7454263468000001
 40
1.0
 40
1.0
 40
1.0
 40
1.0
 10
63.03553268799999
 20
41.04334840409997
 30
0.0
 10
63.0988397794
 20
41.15598519219999
 30
0.0
 10
63.17379396720003
 20
41.33974738369995
 30
0.0
 10
63.22893336779998
 20
41.59724593109998
 30
0.0
 10
63.23968567859997
 20
41.73101937459995
 30
0.0
 10
63.24070554150001
 20
41.79794286469998
 30
0.0
  0
SPLINE
  5
9185D
330
1F
100
AcDbEntity
  8
1
100
AcDbSpline
210
0.0
220
0.0
230
1.0
 70
     8
 71
     3
 72
    15
 73
    11
 74
     0
 42
0.000000001
 43
0.0000000001
 40
0.0
 40
0.0
 40
0.0
 40
0.0
 40
0.1306978029
 40
0.2579345507
 40
0.3197247414
 40
0.3810726685
 40
0.5040814271000002
 40
0.6274873376
 40
0.751281166
 40
1.0
 40
1.0
 40
1.0
 40
1.0
 10
54.1994690894
 20
50.22537164589998
 30
0.0
 10
53.96620597570001
 20
50.0941384735
 30
0.0
 10
53.50665607189999
 20
49.83372503309997
 30
0.0
 10
52.9389845526
 20
49.50747741749998
 30
0.0
 10
52.49593614209999
 20
49.24942311219997
 30
0.0
 10
52.0605699578
 20
48.99538368349997
 30
0.0
 10
51.51601129969996
 20
48.67811460479996
 30
0.0
 10
50.86081770690004
 20
48.29671558939999
 30
0.0
 10
49.98288485590001
 20
47.78625004139992
 30
0.0
 10
49.32315147130004
 20
47.40327148629996
 30
0.0
 10
48.88253955470003
 20
47.14777504959997
 30
0.0
  0
SPLINE
  5
9185E
330
1F
100
AcDbEntity
  8
1
100
AcDbSpline
210
0.0
220
0.0
230
1.0
 70
     8
 71
     3
 72
     9
 73
     5
 74
     0
 42
0.000000001
 43
0.0000000001
 40
0.0
 40
0.0
 40
0.0
 40
0.0
 40
0.253538029
 40
1.0
 40
1.0
 40
1.0
 40
1.0
 10
47.7672601493
 20
46.46792630679995
 30
0.0
 10
47.85804630900003
 20
46.52280199849999
 30
0.0
 10
48.21590622279996
 20
46.73960071709993
 30
0.0
 10
48.57288406959998
 20
46.95785590679991
 30
0.0
 10
48.83881982580003
 20
47.12164094829996
 30
0.0
  0
SPLINE
  5
9185F
330
1F
100
AcDbEntity
  8
1
100
AcDbSpline
210
0.0
220
0.0
230
1.0
 70
     8
 71
     3
 72
    15
 73
    11
 74
     0
 42
0.000000001
 43
0.0000000001
 40
0.0
 40
0.0
 40
0.0
 40
0.0
 40
0.1239263988
 40
0.2482204645
 40
0.3727478374
 40
0.4974955837
 40
0.6225866795
 40
0.7480742292000003
 40
0.8739240088999999
 40
1.0
 40
1.0
 40
1.0
 40
1.0
 10
47.7672601493
 20
46.46792630679995
 30
0.0
 10
47.72473435350002
 20
46.44222159069996
 30
0.0
 10
47.64429368740002
 20
46.38240558039998
 30
0.0
 10
47.54281128920001
 20
46.27150940649996
 30
0.0
 10
47.46393278020002
 20
46.14309055149997
 30
0.0
 10
47.41063271680002
 20
46.00180352479994
 30
0.0
 10
47.38466694240003
 20
45.8526682065
 30
0.0
 10
47.38691847350003
 20
45.70085903539998
 30
0.0
 10
47.41728512259999
 20
45.55175683189999
 30
0.0
 10
47.4556294646
 20
45.45755968959993
 30
0.0
 10
47.47894975190003
 20
45.41270724139994
 30
0.0
  0
SPLINE
  5
91860
330
1F
100
AcDbEntity
  8
1
100
AcDbSpline
210
0.0
220
0.0
230
1.0
 70
     8
 71
     3
 72
     9
 73
     5
 74
     0
 42
0.000000001
 43
0.0000000001
 40
0.0
 40
0.0
 40
0.0
 40
0.0
 40
0.2465950541
 40
1.0
 40
1.0
 40
1.0
 40
1.0
 10
48.05375091959996
 20
44.27526699159996
 30
0.0
 10
48.007619003
 20
44.36931976309995
 30
0.0
 10
47.81937248520001
 20
44.75015028599997
 30
0.0
 10
47.62659431219996
 20
45.12873904159997
 30
0.0
 10
47.47894975190003
 20
45.41270724139994
 30
0.0
  0
SPLINE
  5
91861
330
1F
100
AcDbEntity
  8
1
100
AcDbSpline
210
0.0
220
0.0
230
1.0
 70
     8
 71
     3
 72
     9
 73
     5
 74
     0
 42
0.000000001
 43
0.0000000001
 40
0.0
 40
0.0
 40
0.0
 40
0.0
 40
0.2471129689
 40
1.0
 40
1.0
 40
1.0
 40
1.0
 10
50.47329898279997
 20
39.59734614919997
 30
0.0
 10
50.27787599790002
 20
39.97987109889996
 30
0.0
 10
49.4847512531
 20
41.52667195929995
 30
0.0
 10
48.68351919369995
 20
43.06930705499993
 30
0.0
 10
48.07713951709996
 20
44.22908411119997
 30
0.0
  0
SPLINE
  5
91862
330
1F
100
AcDbEntity
  8
1
100
AcDbSpline
210
0.0
220
0.0
230
1.0
 70
     8
 71
     3
 72
     9
 73
     5
 74
     0
 42
0.000000001
 43
0.0000000001
 40
0.0
 40
0.0
 40
0.0
 40
0.0
 40
0.4993199409000001
 40
1.0
 40
1.0
 40
1.0
 40
1.0
 10
54.9357705231
 20
50.41589947779996
 30
0.0
 10
54.80812557119998
 20
50.41589848509996
 30
0.0
 10
54.55131797859997
 20
50.38476651449999
 30
0.0
 10
54.31101971850001
 20
50.28812971639993
 30
0.0
 10
54.1994690894
 20
50.22537164589998
 30
0.0
  0
SPLINE
  5
91863
330
1F
100
AcDbEntity
  8
1
100
AcDbSpline
210
0.0
220
0.0
230
1.0
 70
     8
 71
     3
 72
     8
 73
     4
 74
     0
 42
0.000000001
 43
0.0000000001
 40
0.0
 40
0.0
 40
0.0
 40
0.0
 40
1.0
 40
1.0
 40
1.0
 40
1.0
 10
48.05375091959996
 20
44.27526699159996
 30
0.0
 10
48.06134988209999
 20
44.25977438819995
 30
0.0
 10
48.06914429049999
 20
44.24437598299998
 30
0.0
 10
48.07713951709996
 20
44.22908411119997
 30
0.0
  0
SPLINE
  5
91864
330
1F
100
AcDbEntity
  8
1
100
AcDbSpline
210
0.0
220
0.0
230
1.0
 70
     8
 71
     3
 72
     8
 73
     4
 74
     0
 42
0.000000001
 43
0.0000000001
 40
0.0
 40
0.0
 40
0.0
 40
0.0
 40
1.0
 40
1.0
 40
1.0
 40
1.0
 10
48.83881982580003
 20
47.12164094829996
 30
0.0
 10
48.85327644270001
 20
47.13054451809997
 30
0.0
 10
48.86785183109997
 20
47.13925811919997
 30
0.0
 10
48.88253955470003
 20
47.14777504959997
 30
0.0
  0
SPLINE
  5
91865
330
1F
100
AcDbEntity
  8
1
100
AcDbSpline
210
0.0
220
0.0
230
1.0
 70
     8
 71
     3
 72
     9
 73
     5
 74
     0
 42
0.000000001
 43
0.0000000001
 40
0.0
 40
0.0
 40
0.0
 40
0.0
 40
0.5073249016
 40
1.0
 40
1.0
 40
1.0
 40
1.0
 10
58.62166871100004
 20
36.95608275549998
 30
0.0
 10
58.16140374629997
 20
37.24376290999996
 30
0.0
 10
57.21410082799997
 20
37.74852855709994
 30
0.0
 10
56.21428199640003
 20
38.13588276829998
 30
0.0
 10
55.71340946179996
 20
38.30008319659997
 30
0.0
  0
SPLINE
  5
91866
330
1F
100
AcDbEntity
  8
1
100
AcDbSpline
210
0.0
220
0.0
230
1.0
 70
     8
 71
     3
 72
    20
 73
    16
 74
     0
 42
0.000000001
 43
0.0000000001
 40
0.0
 40
0.0
 40
0.0
 40
0.0
 40
0.0160020816
 40
0.0357489142
 40
0.0602176134
 40
0.0902110139
 40
0.1264275579
 40
0.1694897072
 40
0.2199384176
 40
0.2782017425
 40
0.3445411235
 40
0.4189880867000002
 40
0.5908172104000001
 40
0.7877422865000005
 40
1.0
 40
1.0
 40
1.0
 40
1.0
 10
61.71340946179999
 20
34.3880965672
 30
0.0
 10
61.71340946179999
 20
34.40982953549994
 30
0.0
 10
61.70575555779999
 20
34.45839166019997
 30
0.0
 10
61.67637164450002
 20
34.53508361249995
 30
0.0
 10
61.6268660458
 20
34.62318236079998
 30
0.0
 10
61.55541573619996
 20
34.72368640080001
 30
0.0
 10
61.46010924990004
 20
34.83759721729999
 30
0.0
 10
61.3390309591
 20
34.96570263729998
 30
0.0
 10
61.19040769840001
 20
35.10862343829999
 30
0.0
 10
61.01276345529999
 20
35.26669703420001
 30
0.0
 10
60.80513765389998
 20
35.43988521159994
 30
0.0
 10
60.4718315723
 20
35.70295427419998
 30
0.0
 10
59.98617620510003
 20
36.05887744229998
 30
0.0
 10
59.33398724330004
 20
36.50326797459994
 30
0.0
 10
58.86612142350003
 20
36.80329208169999
 30
0.0
 10
58.62166871100004
 20
36.95608275549998
 30
0.0
  0
LINE
  5
91867
330
1F
100
AcDbEntity
  8
1
100
AcDbLine
 10
51.33477177279996
 20
49.50383220349997
 30
0.0
 11
51.20836091749999
 21
49.58621702789994
 31
0.0
  0
SPLINE
  5
91868
330
1F
100
AcDbEntity
  8
1
100
AcDbSpline
210
0.0
220
0.0
230
1.0
 70
     8
 71
     3
 72
    21
 73
    17
 74
     0
 42
0.000000001
 43
0.0000000001
 40
0.0
 40
0.0
 40
0.0
 40
0.0
 40
0.2164479347
 40
0.4112880174000001
 40
0.5817972945000001
 40
0.6571597459000002
 40
0.7255607584
 40
0.7867556843000001
 40
0.8405261202
 40
0.8866822490999998
 40
0.9250660534999999
 40
0.9555575625999999
 40
0.9780899315999999
 40
0.9927029981
 40
0.9971633676999999
 40
1.0
 40
1.0
 40
1.0
 40
1.0
 10
49.6521361101
 20
49.81099242539997
 30
0.0
 10
49.56574459649999
 20
49.81421170189999
 30
0.0
 10
49.4016152958
 20
49.82116496269996
 30
0.0
 10
49.1695687097
 20
49.83361587779993
 30
0.0
 10
48.99392047679999
 20
49.84521543139996
 30
0.0
 10
48.86877141240001
 20
49.85492221989996
 30
0.0
 10
48.78720914850004
 20
49.86193732909995
 30
0.0
 10
48.71430274859999
 20
49.86892212159998
 30
0.0
 10
48.65031877739999
 20
49.87581179699994
 30
0.0
 10
48.59548011279997
 20
49.8825380415
 30
0.0
 10
48.55000680500001
 20
49.88904344399999
 30
0.0
 10
48.51398536889997
 20
49.89523161139996
 30
0.0
 10
48.48767030560003
 20
49.90106691409997
 30
0.0
 10
48.47161142610002
 20
49.90595456759996
 30
0.0
 10
48.46394158179997
 20
49.91006617929992
 30
0.0
 10
48.46175427130003
 20
49.91226312199998
 30
0.0
 10
48.46138855399999
 20
49.91333545269995
 30
0.0
  0
SPLINE
  5
91869
330
1F
100
AcDbEntity
  8
1
100
AcDbSpline
210
0.0
220
0.0
230
1.0
 70
     8
 71
     3
 72
    14
 73
    10
 74
     0
 42
0.000000001
 43
0.0000000001
 40
0.0
 40
0.0
 40
0.0
 40
0.0
 40
0.0606304767
 40
0.1389220934
 40
0.2362055323
 40
0.3528866038
 40
0.4886790715
 40
0.6427310223
 40
1.0
 40
1.0
 40
1.0
 40
1.0
 10
51.20836091749999
 20
49.58621702789994
 30
0.0
 10
51.18151093469997
 20
49.60359823999997
 30
0.0
 10
51.11487548159999
 20
49.63534178909995
 30
0.0
 10
50.99600321029999
 20
49.67317938549992
 30
0.0
 10
50.84538617300001
 20
49.70687000929999
 30
0.0
 10
50.66316860389996
 20
49.73626704419999
 30
0.0
 10
50.45013457330004
 20
49.76137212679993
 30
0.0
 10
50.10997821379999
 20
49.79063163949998
 30
0.0
 10
49.84047793720003
 20
49.8039739786
 30
0.0
 10
49.6521361101
 20
49.81099242539997
 30
0.0
  0
SPLINE
  5
9186A
330
1F
100
AcDbEntity
  8
1
100
AcDbSpline
210
0.0
220
0.0
230
1.0
 70
     8
 71
     3
 72
     9
 73
     5
 74
     0
 42
0.000000001
 43
0.0000000001
 40
0.0
 40
0.0
 40
0.0
 40
0.0
 40
0.4865992611000002
 40
1.0
 40
1.0
 40
1.0
 40
1.0
 10
32.81975358290003
 20
43.43577986569996
 30
0.0
 10
33.57098869520001
 20
43.30027360719992
 30
0.0
 10
35.11376157239999
 20
43.01582865359995
 30
0.0
 10
36.65488522700002
 20
42.72261764209996
 30
0.0
 10
37.44576409040003
 20
42.57034950239996
 30
0.0
  0
SPLINE
  5
9186B
330
1F
100
AcDbEntity
  8
1
100
AcDbSpline
210
0.0
220
0.0
230
1.0
 70
     8
 71
     3
 72
    16
 73
    12
 74
     0
 42
0.000000001
 43
0.0000000001
 40
0.0
 40
0.0
 40
0.0
 40
0.0
 40
0.2943886571
 40
0.43445822
 40
0.5681506984000002
 40
0.6938298247
 40
0.8093956865
 40
0.8626241893000001
 40
0.9123474029
 40
0.9582329564
 40
1.0
 40
1.0
 40
1.0
 40
1.0
 10
32.81975358290003
 20
43.43577986569996
 30
0.0
 10
32.46007300630004
 20
43.35498824229996
 30
0.0
 10
31.92574602600001
 20
43.25007100229995
 30
0.0
 10
31.22116972549998
 20
43.15038723159998
 30
0.0
 10
30.72325306250002
 20
43.10083565649994
 30
0.0
 10
30.25409863639999
 20
43.07778384039997
 30
0.0
 10
29.88498037200003
 20
43.08322715189997
 30
0.0
 10
29.61217708470002
 20
43.10580214849998
 30
0.0
 10
29.42742221970002
 20
43.13122708989996
 30
0.0
 10
29.25880544389997
 20
43.16599013029994
 30
0.0
 10
29.15334681540004
 20
43.19717423839997
 30
0.0
 10
29.10413355409998
 20
43.21488167899999
 30
0.0
  0
SPLINE
  5
9186C
330
1F
100
AcDbEntity
  8
1
100
AcDbSpline
210
0.0
220
0.0
230
1.0
 70
     8
 71
     3
 72
     9
 73
     5
 74
     0
 42
0.000000001
 43
0.0000000001
 40
0.0
 40
0.0
 40
0.0
 40
0.0
 40
0.2386870263
 40
1.0
 40
1.0
 40
1.0
 40
1.0
 10
47.41526871779996
 20
47.41304372659995
 30
0.0
 10
47.44844594769999
 20
47.41782734629995
 30
0.0
 10
47.58781279300001
 20
47.4351884333
 30
0.0
 10
47.72863465699997
 20
47.4412267488999
 30
0.0
 10
47.83552537700001
 20
47.43890389309997
 30
0.0
  0
SPLINE
  5
9186D
330
1F
100
AcDbEntity
  8
1
100
AcDbSpline
210
0.0
220
0.0
230
1.0
 70
     8
 71
     3
 72
     8
 73
     4
 74
     0
 42
0.000000001
 43
0.0000000001
 40
0.0
 40
0.0
 40
0.0
 40
0.0
 40
1.0
 40
1.0
 40
1.0
 40
1.0
 10
47.8704724062
 20
47.655292241
 30
0.0
 10
47.85087972859995
 20
47.64801535209996
 30
0.0
 10
47.83141658200002
 20
47.64037979759996
 30
0.0
 10
47.81210181080001
 20
47.63239445229995
 30
0.0
  0
SPLINE
  5
9186E
330
1F
100
AcDbEntity
  8
1
100
AcDbSpline
210
0.0
220
0.0
230
1.0
 70
     8
 71
     3
 72
     9
 73
     5
 74
     0
 42
0.000000001
 43
0.0000000001
 40
0.0
 40
0.0
 40
0.0
 40
0.0
 40
0.2765694288
 40
1.0
 40
1.0
 40
1.0
 40
1.0
 10
38.41946730109999
 20
42.36519279789995
 30
0.0
 10
38.33001329299998
 20
42.38553951439999
 30
0.0
 10
38.00626529060004
 20
42.45774893049993
 30
0.0
 10
37.68140037510001
 20
42.52498237939996
 30
0.0
 10
37.44576409040003
 20
42.57034950239996
 30
0.0
  0
SPLINE
  5
9186F
330
1F
100
AcDbEntity
  8
1
100
AcDbSpline
210
0.0
220
0.0
230
1.0
 70
     8
 71
     3
 72
    12
 73
     8
 74
     0
 42
0.000000001
 43
0.0000000001
 40
0.0
 40
0.0
 40
0.0
 40
0.0
 40
0.0876612515
 40
0.1915670177
 40
0.4378355588
 40
0.7157970406000001
 40
1.0
 40
1.0
 40
1.0
 40
1.0
 10
48.92627412310003
 20
49.94635428689999
 30
0.0
 10
49.01531936489998
 20
49.94790862099996
 30
0.0
 10
49.20992928869998
 20
49.95020340559996
 30
0.0
 10
49.6547322984
 20
49.95351769039999
 30
0.0
 10
50.2928707547
 20
49.95749945779997
 30
0.0
 10
51.11414194540003
 20
49.96718952329999
 30
0.0
 10
51.68516657129996
 20
49.97833923799996
 30
0.0
 10
51.9738233841
 20
49.98501146129997
 30
0.0
  0
LINE
  5
91870
330
1F
100
AcDbEntity
  8
1
100
AcDbLine
 10
52.0261806034
 20
39.23752713229996
 30
0.0
 11
51.9738233841
 21
39.24970776669997
 31
0.0
  0
SPLINE
  5
91871
330
1F
100
AcDbEntity
  8
1
100
AcDbSpline
210
0.0
220
0.0
230
1.0
 70
     8
 71
     3
 72
     8
 73
     4
 74
     0
 42
0.000000001
 43
0.0000000001
 40
0.0
 40
0.0
 40
0.0
 40
0.0
 40
1.0
 40
1.0
 40
1.0
 40
1.0
 10
51.9738233841
 20
49.98501146129997
 30
0.0
 10
51.99127300449998
 20
49.98541480449997
 30
0.0
 10
52.00872665769995
 20
49.98567069489999
 30
0.0
 10
52.0261806034
 20
49.98577893949995
 30
0.0
  0
LINE
  5
91872
330
1F
100
AcDbEntity
  8
1
100
AcDbLine
 10
52.88781012930002
 20
49.99344461579998
 30
0.0
 11
53.2170666416
 21
49.9931620531
 31
0.0
  0
SPLINE
  5
91873
330
1F
100
AcDbEntity
  8
1
100
AcDbSpline
210
0.0
220
0.0
230
1.0
 70
     8
 71
     3
 72
     9
 73
     5
 74
     0
 42
0.000000001
 43
0.0000000001
 40
0.0
 40
0.0
 40
0.0
 40
0.0
 40
0.2474919323
 40
1.0
 40
1.0
 40
1.0
 40
1.0
 10
55.71340946179996
 20
38.30008319659997
 30
0.0
 10
55.58172590399999
 20
38.34325285569994
 30
0.0
 10
55.04783412389997
 20
38.51207003029994
 30
0.0
 10
54.50665667200002
 20
38.65793667249997
 30
0.0
 10
54.0963717202
 20
38.75388539899999
 30
0.0
  0
SPLINE
  5
91874
330
1F
100
AcDbEntity
  8
1
100
AcDbSpline
210
0.0
220
0.0
230
1.0
 70
     8
 71
     3
 72
     9
 73
     5
 74
     0
 42
0.000000001
 43
0.0000000001
 40
0.0
 40
0.0
 40
0.0
 40
0.0
 40
0.2612182031
 40
1.0
 40
1.0
 40
1.0
 40
1.0
 10
52.0261806034
 20
49.98577893949995
 30
0.0
 10
52.09443850050002
 20
49.98620225609997
 30
0.0
 10
52.35574331769999
 20
49.9880284745
 30
0.0
 10
52.6170423369
 20
49.9905941483
 30
0.0
 10
52.8100834073
 20
49.99263575769996
 30
0.0
  0
LINE
  5
91875
330
1F
100
AcDbEntity
  8
1
100
AcDbLine
 10
52.8100834073
 20
49.99263575769996
 30
0.0
 11
52.88781012930002
 21
49.99344461579998
 31
0.0
  0
SPLINE
  5
91876
330
1F
100
AcDbEntity
  8
1
100
AcDbSpline
210
0.0
220
0.0
230
1.0
 70
     8
 71
     3
 72
     9
 73
     5
 74
     0
 42
0.000000001
 43
0.0000000001
 40
0.0
 40
0.0
 40
0.0
 40
0.0
 40
0.2510288126
 40
1.0
 40
1.0
 40
1.0
 40
1.0
 10
49.93855139409999
 20
39.72108716979997
 30
0.0
 10
49.85859988020003
 20
39.86494907799997
 30
0.0
 10
49.5413320668
 20
40.43871973449998
 30
0.0
 10
49.2287828442
 20
41.01509895439996
 30
0.0
 10
48.99732907109999
 20
41.44819064479992
 30
0.0
  0
SPLINE
  5
91877
330
1F
100
AcDbEntity
  8
1
100
AcDbSpline
210
0.0
220
0.0
230
1.0
 70
     8
 71
     3
 72
    23
 73
    19
 74
     0
 42
0.000000001
 43
0.0000000001
 40
0.0
 40
0.0
 40
0.0
 40
0.0
 40
0.061683355
 40
0.1234354713
 40
0.185306494
 40
0.2473348818
 40
0.309545692
 40
0.3719493763
 40
0.4345396834000001
 40
0.4972961208
 40
0.5601854372
 40
0.6231628589
 40
0.6861773789
 40
0.7491742116
 40
0.8120986333999999
 40
0.8749021256999998
 40
0.9375448052000001
 40
1.0
 40
1.0
 40
1.0
 40
1.0
 10
47.66779960769997
 20
43.9359796972
 30
0.0
 10
47.5818118788
 20
43.97724528269995
 30
0.0
 10
47.41568287979996
 20
44.07290558529992
 30
0.0
 10
47.19056660789997
 20
44.25177679749995
 30
0.0
 10
46.9938309418
 20
44.46226241039997
 30
0.0
 10
46.82957480399999
 20
44.69978675859993
 30
0.0
 10
46.70097265279998
 20
44.95926179929996
 30
0.0
 10
46.61058194579999
 20
45.2352909601
 30
0.0
 10
46.56018120200002
 20
45.52217899039995
 30
0.0
 10
46.55067826610003
 20
45.81404815549992
 30
0.0
 10
46.5823432583
 20
46.10495111759997
 30
0.0
 10
46.6545829693
 20
46.38892425119993
 30
0.0
 10
46.76597923909997
 20
46.66012747759999
 30
0.0
 10
46.91445331339997
 20
46.91286230939995
 30
0.0
 10
47.09702779269997
 20
47.14176774089994
 30
0.0
 10
47.31002291560002
 20
47.34192844579999
 30
0.0
 10
47.54902646740003
 20
47.50883382829997
 30
0.0
 10
47.72277264550001
 20
47.59570499359996
 30
0.0
 10
47.81210181080001
 20
47.63239445229995
 30
0.0
  0
SPLINE
  5
91878
330
1F
100
AcDbEntity
  8
1
100
AcDbSpline
210
0.0
220
0.0
230
1.0
 70
     8
 71
     3
 72
     8
 73
     4
 74
     0
 42
0.000000001
 43
0.0000000001
 40
0.0
 40
0.0
 40
0.0
 40
0.0
 40
1.0
 40
1.0
 40
1.0
 40
1.0
 10
50.04985936209999
 20
40.12353222669999
 30
0.0
 10
49.97566552550001
 20
40.05215669119992
 30
0.0
 10
49.90616325400003
 20
39.97559083229996
 30
0.0
 10
49.84207685500002
 20
39.89501710260001
 30
0.0
  0
SPLINE
  5
91879
330
1F
100
AcDbEntity
  8
1
100
AcDbSpline
210
0.0
220
0.0
230
1.0
 70
     8
 71
     3
 72
     9
 73
     5
 74
     0
 42
0.000000001
 43
0.0000000001
 40
0.0
 40
0.0
 40
0.0
 40
0.0
 40
0.2558725668
 40
1.0
 40
1.0
 40
1.0
 40
1.0
 10
47.83552537700001
 20
47.43890389309997
 30
0.0
 10
47.8599258758
 20
47.43837364279996
 30
0.0
 10
47.95525932359999
 20
47.43512333529994
 30
0.0
 10
48.05043172659998
 20
47.42732581279997
 30
0.0
 10
48.1209305653
 20
47.41909084019996
 30
0.0
  0
SPLINE
  5
9187A
330
1F
100
AcDbEntity
  8
1
100
AcDbSpline
210
0.0
220
0.0
230
1.0
 70
     8
 71
     3
 72
     9
 73
     5
 74
     0
 42
0.000000001
 43
0.0000000001
 40
0.0
 40
0.0
 40
0.0
 40
0.0
 40
0.2536114458
 40
1.0
 40
1.0
 40
1.0
 40
1.0
 10
47.27450576040001
 20
47.30312033509996
 30
0.0
 10
47.31314645629999
 20
47.30570788279996
 30
0.0
 10
47.4656916082
 20
47.31297180609995
 30
0.0
 10
47.61877909289998
 20
47.30871722609996
 30
0.0
 10
47.73235029969995
 20
47.29912231979997
 30
0.0
  0
SPLINE
  5
9187B
330
1F
100
AcDbEntity
  8
1
100
AcDbSpline
210
0.0
220
0.0
230
1.0
 70
     8
 71
     3
 72
     9
 73
     5
 74
     0
 42
0.000000001
 43
0.0000000001
 40
0.0
 40
0.0
 40
0.0
 40
0.0
 40
0.24961736
 40
1.0
 40
1.0
 40
1.0
 40
1.0
 10
47.74614697690004
 20
43.78925222659996
 30
0.0
 10
47.7608236894
 20
43.78422802599996
 30
0.0
 10
47.81987375859997
 20
43.76484798019996
 30
0.0
 10
47.87991170880002
 20
43.74847715049994
 30
0.0
 10
47.92533967470001
 20
43.73794155859999
 30
0.0
  0
SPLINE
  5
9187C
330
1F
100
AcDbEntity
  8
1
100
AcDbSpline
210
0.0
220
0.0
230
1.0
 70
     8
 71
     3
 72
     9
 73
     5
 74
     0
 42
0.000000001
 43
0.0000000001
 40
0.0
 40
0.0
 40
0.0
 40
0.0
 40
0.5435318997000002
 40
1.0
 40
1.0
 40
1.0
 40
1.0
 10
51.70659732050001
 20
48.83343067849996
 30
0.0
 10
51.6949557767
 20
48.85475614749996
 30
0.0
 10
51.67477071740001
 20
48.89468369059997
 30
0.0
 10
51.657793803
 20
48.93611503949998
 30
0.0
 10
51.65113847409998
 20
48.95540345689997
 30
0.0
  0
SPLINE
  5
9187D
330
1F
100
AcDbEntity
  8
1
100
AcDbSpline
210
0.0
220
0.0
230
1.0
 70
     8
 71
     3
 72
     9
 73
     5
 74
     0
 42
0.000000001
 43
0.0000000001
 40
0.0
 40
0.0
 40
0.0
 40
0.0
 40
0.2474836919
 40
1.0
 40
1.0
 40
1.0
 40
1.0
 10
51.65113847409998
 20
48.95540345689997
 30
0.0
 10
51.62059660049999
 20
48.99783383149999
 30
0.0
 10
51.5014922757
 20
49.17234244499994
 30
0.0
 10
51.40008632220002
 20
49.35890545909998
 30
0.0
 10
51.33477177279996
 20
49.50383220349997
 30
0.0
  0
SPLINE
  5
9187E
330
1F
100
AcDbEntity
  8
1
100
AcDbSpline
210
0.0
220
0.0
230
1.0
 70
     8
 71
     3
 72
     8
 73
     4
 74
     0
 42
0.000000001
 43
0.0000000001
 40
0.0
 40
0.0
 40
0.0
 40
0.0
 40
1.0
 40
1.0
 40
1.0
 40
1.0
 10
47.88848165870001
 20
47.43748985709996
 30
0.0
 10
47.83578669990003
 20
47.39211273549996
 30
0.0
 10
47.78371820940003
 20
47.34599640329999
 30
0.0
 10
47.73235029969995
 20
47.29912231979997
 30
0.0
  0
SPLINE
  5
9187F
330
1F
100
AcDbEntity
  8
1
100
AcDbSpline
210
0.0
220
0.0
230
1.0
 70
     8
 71
     3
 72
     8
 73
     4
 74
     0
 42
0.000000001
 43
0.0000000001
 40
0.0
 40
0.0
 40
0.0
 40
0.0
 40
1.0
 40
1.0
 40
1.0
 40
1.0
 10
33.87114899860002
 20
46.89043050779995
 30
0.0
 10
35.06172853830003
 20
47.38250529369994
 30
0.0
 10
36.25329744139997
 20
47.87219204079998
 30
0.0
 10
37.44576409040003
 20
48.35967591369993
 30
0.0
  0
SPLINE
  5
91880
330
1F
100
AcDbEntity
  8
1
100
AcDbSpline
210
0.0
220
0.0
230
1.0
 70
     8
 71
     3
 72
    21
 73
    17
 74
     0
 42
0.000000001
 43
0.0000000001
 40
0.0
 40
0.0
 40
0.0
 40
0.0
 40
0.0034469298
 40
0.0073142691
 40
0.0124681011
 40
0.0193006685
 40
0.0385613758
 40
0.0656609198
 40
0.1007355428
 40
0.1438143649
 40
0.194874899
 40
0.2538691275
 40
0.3953577816
 40
0.5675406848
 40
0.7694657348
 40
1.0
 40
1.0
 40
1.0
 40
1.0
 10
48.46138855399999
 20
49.91333545269995
 30
0.0
 10
48.46121425519999
 20
49.9138465192
 30
0.0
 10
48.46115317139997
 20
49.91507544149996
 30
0.0
 10
48.46226777610002
 20
49.91677816589993
 30
0.0
 10
48.46425832619996
 20
49.91829121209993
 30
0.0
 10
48.46864300750002
 20
49.92050647440001
 30
0.0
 10
48.47665476819997
 20
49.9229358218
 30
0.0
 10
48.48913737740002
 20
49.92556092959998
 30
0.0
 10
48.50544631920001
 20
49.92804917659995
 30
0.0
 10
48.52555078990002
 20
49.930410599
 30
0.0
 10
48.5494392539
 20
49.93262747129997
 30
0.0
 10
48.58873549449999
 20
49.93556965449997
 30
0.0
 10
48.6470350939
 20
49.93871747749998
 30
0.0
 10
48.72774763289999
 20
49.94179350619996
 30
0.0
 10
48.82243277459997
 20
49.94437711659994
 30
0.0
 10
48.89016577630002
 20
49.94572399559999
 30
0.0
 10
48.92627412310003
 20
49.94635428689999
 30
0.0
  0
SPLINE
  5
91881
330
1F
100
AcDbEntity
  8
1
100
AcDbSpline
210
0.0
220
0.0
230
1.0
 70
     8
 71
     3
 72
     9
 73
     5
 74
     0
 42
0.000000001
 43
0.0000000001
 40
0.0
 40
0.0
 40
0.0
 40
0.0
 40
0.2531542795
 40
1.0
 40
1.0
 40
1.0
 40
1.0
 10
52.88781012930002
 20
49.99344461579998
 30
0.0
 10
52.89325706399999
 20
49.98134355609995
 30
0.0
 10
52.91492121150003
 20
49.9336092847
 30
0.0
 10
52.93720767440004
 20
49.88615624759995
 30
0.0
 10
52.95426663400004
 20
49.85091834139993
 30
0.0
  0
SPLINE
  5
91882
330
1F
100
AcDbEntity
  8
1
100
AcDbSpline
210
0.0
220
0.0
230
1.0
 70
     8
 71
     3
 72
     9
 73
     5
 74
     0
 42
0.000000001
 43
0.0000000001
 40
0.0
 40
0.0
 40
0.0
 40
0.0
 40
0.2516367532999999
 40
1.0
 40
1.0
 40
1.0
 40
1.0
 10
52.81008462630001
 20
49.99263503949996
 30
0.0
 10
52.80427536860003
 20
49.97057179239996
 30
0.0
 10
52.7806033388
 20
49.8830483742
 30
0.0
 10
52.75458323279996
 20
49.79615879499997
 30
0.0
 10
52.73376920229996
 20
49.73157800099997
 30
0.0
  0
SPLINE
  5
91883
330
1F
100
AcDbEntity
  8
1
100
AcDbSpline
210
0.0
220
0.0
230
1.0
 70
     8
 71
     3
 72
     9
 73
     5
 74
     0
 42
0.000000001
 43
0.0000000001
 40
0.0
 40
0.0
 40
0.0
 40
0.0
 40
0.5008459565
 40
1.0
 40
1.0
 40
1.0
 40
1.0
 10
37.44576409040003
 20
48.35967591369993
 30
0.0
 10
37.60064010810004
 20
48.42298968519994
 30
0.0
 10
37.9206261311
 20
48.5245962974
 30
0.0
 10
38.25300797929997
 20
48.57241318459998
 30
0.0
 10
38.41946730109999
 20
48.58229682409998
 30
0.0
  0
SPLINE
  5
91884
330
1F
100
AcDbEntity
  8
1
100
AcDbSpline
210
0.0
220
0.0
230
1.0
 70
     8
 71
     3
 72
    30
 73
    26
 74
     0
 42
0.000000001
 43
0.0000000001
 40
0.0
 40
0.0
 40
0.0
 40
0.0
 40
0.0203583726
 40
0.0296885935
 40
0.0384786464
 40
0.0546005135
 40
0.0693258668
 40
0.0835744231
 40
0.0984089849
 40
0.1147356402
 40
0.1331223774
 40
0.1538236951
 40
0.1768804456
 40
0.2021964092
 40
0.2296100034
 40
0.2589361779
 40
0.2899811049
 40
0.3564919307
 40
0.4278661738000002
 40
0.5030689454
 40
0.5813025895
 40
0.6619416886
 40
0.7444972261000001
 40
0.8285712112
 40
1.0
 40
1.0
 40
1.0
 40
1.0
 10
29.10413355409998
 20
43.21488167899999
 30
0.0
 10
29.06029696220003
 20
43.23065453839997
 30
0.0
 10
28.99740380240002
 20
43.25699621709993
 30
0.0
 10
28.92041295870001
 20
43.29991379069993
 30
0.0
 10
28.85537161440004
 20
43.34372630609997
 30
0.0
 10
28.78739611539998
 20
43.40493961159999
 30
0.0
 10
28.72959602029999
 20
43.49202791629998
 30
0.0
 10
28.7006910728
 20
43.58962642589997
 30
0.0
 10
28.7014787494
 20
43.69484441249997
 30
0.0
 10
28.73023929110002
 20
43.80542538069994
 30
0.0
 10
28.78467217560002
 20
43.92055495669997
 30
0.0
 10
28.86290388930002
 20
44.0397198935
 30
0.0
 10
28.96312823160002
 20
44.16223065959993
 30
0.0
 10
29.08339923569997
 20
44.28737580319998
 30
0.0
 10
29.2217810706
 20
44.41444316699995
 30
0.0
 10
29.37640546670002
 20
44.54279266829998
 30
0.0
 10
29.6072496082
 20
44.71901258879997
 30
0.0
 10
29.9263161792
 20
44.93770481549996
 30
0.0
 10
30.34133459639998
 20
45.19394292999995
 30
0.0
 10
30.78871057880002
 20
45.44813501309995
 30
0.0
 10
31.26193234409999
 20
45.69923406499992
 30
0.0
 10
31.75597046370001
 20
45.94663944329997
 30
0.0
 10
32.26688672100005
 20
46.18991817329995
 30
0.0
 10
32.97098457470003
 20
46.51047640259998
 30
0.0
 10
33.50859890160001
 20
46.74058603679994
 30
0.0
 10
33.87114899860002
 20
46.89043050779995
 30
0.0
  0
SPLINE
  5
91885
330
1F
100
AcDbEntity
  8
1
100
AcDbSpline
210
0.0
220
0.0
230
1.0
 70
     8
 71
     3
 72
     9
 73
     5
 74
     0
 42
0.000000001
 43
0.0000000001
 40
0.0
 40
0.0
 40
0.0
 40
0.0
 40
0.5258267584000002
 40
1.0
 40
1.0
 40
1.0
 40
1.0
 10
47.73235029969995
 20
47.29912231979997
 30
0.0
 10
47.66492815569999
 20
47.31710209369995
 30
0.0
 10
47.53454015259999
 20
47.34373940409997
 30
0.0
 10
47.40195770400003
 20
47.35463184239995
 30
0.0
 10
47.3390509816
 20
47.35609835699998
 30
0.0
  0
SPLINE
  5
91886
330
1F
100
AcDbEntity
  8
1
100
AcDbSpline
210
0.0
220
0.0
230
1.0
 70
     8
 71
     3
 72
     9
 73
     5
 74
     0
 42
0.000000001
 43
0.0000000001
 40
0.0
 40
0.0
 40
0.0
 40
0.0
 40
0.2546345774
 40
1.0
 40
1.0
 40
1.0
 40
1.0
 10
46.75682796389996
 20
46.41044298969997
 30
0.0
 10
46.7512471279
 20
46.41575449179993
 30
0.0
 10
46.72943305389996
 20
46.4367215856
 30
0.0
 10
46.7080378135
 20
46.45812551159994
 30
0.0
 10
46.69236258869998
 20
46.47433949499992
 30
0.0
  0
SPLINE
  5
91887
330
1F
100
AcDbEntity
  8
1
100
AcDbSpline
210
0.0
220
0.0
230
1.0
 70
     8
 71
     3
 72
    11
 73
     7
 74
     0
 42
0.000000001
 43
0.0000000001
 40
0.0
 40
0.0
 40
0.0
 40
0.0
 40
0.2488782931
 40
0.4975385556000001
 40
0.7474361728
 40
1.0
 40
1.0
 40
1.0
 40
1.0
 10
48.89221299410003
 20
47.70555347889996
 30
0.0
 10
48.80889772199997
 20
47.72738478389996
 30
0.0
 10
48.6387889665
 20
47.75860774779995
 30
0.0
 10
48.3792631188
 20
47.76622957449998
 30
0.0
 10
48.1203431011
 20
47.73386570579996
 30
0.0
 10
47.95240717229999
 20
47.68572351739996
 30
0.0
 10
47.8704724062
 20
47.655292241
 30
0.0
  0
SPLINE
  5
91888
330
1F
100
AcDbEntity
  8
1
100
AcDbSpline
210
0.0
220
0.0
230
1.0
 70
     8
 71
     3
 72
     9
 73
     5
 74
     0
 42
0.000000001
 43
0.0000000001
 40
0.0
 40
0.0
 40
0.0
 40
0.0
 40
0.5223694529000003
 40
1.0
 40
1.0
 40
1.0
 40
1.0
 10
47.2338679106
 20
46.70322153009997
 30
0.0
 10
47.17595493930001
 20
46.73482335759996
 30
0.0
 10
47.06368166889999
 20
46.79278320239999
 30
0.0
 10
46.94847182309999
 20
46.84474635849997
 30
0.0
 10
46.89264594139999
 20
46.86760290439999
 30
0.0
  0
ELLIPSE
  5
91889
330
1F
100
AcDbEntity
  8
1
100
AcDbEllipse
 10
217.0896323247
 20
-3.695724782399998
 30
0.0
 11
212.0523020756
 21
-52.8097279704
 31
0.0
210
0.0
220
0.0
230
1.0
 40
0.0129660012
 41
2.4665399611
 42
2.57606553929998
  0
ELLIPSE
  5
9188A
330
1F
100
AcDbEntity
  8
1
100
AcDbEllipse
 10
202.2471349558001
 20
0.0000063856999475
 30
0.0
 11
200.4970491878
 21
-49.9320395563
 31
0.0
210
0.0
220
0.0
230
1.0
 40
0.0129978791
 41
2.405489836900013
 42
2.420945317100013
  0
ELLIPSE
  5
9188B
330
1F
100
AcDbEntity
  8
1
100
AcDbEllipse
 10
61.87442999220002
 20
0.0724793250999767
 30
0.0
 11
86.85895064270027
 21
3.588373897500008
 31
0.0
210
0.0
220
0.0
230
1.0
 40
0.5758869974000002
 41
1.6686167971
 42
1.711216760299999
  0
ELLIPSE
  5
9188C
330
1F
100
AcDbEntity
  8
1
100
AcDbEllipse
 10
97.2417681676
 20
0.3914870015999696
 30
0.0
 11
265.303089989701
 21
4.454247708200012
 31
0.0
210
0.0
220
0.0
230
1.0
 40
0.1899078622999998
 41
1.755555285699998
 42
1.791182079599995
  0
ELLIPSE
  5
9188D
330
1F
100
AcDbEntity
  8
1
100
AcDbEllipse
 10
51.47698013550002
 20
47.12987499429996
 30
0.0
 11
2.2912788819
 21
-0.5145734649000008
 31
0.0
210
0.0
220
0.0
230
1.0
 40
0.0701871493
 41
3.236796615279546
 42
3.623128935079658
  0
ELLIPSE
  5
9188E
330
1F
100
AcDbEntity
  8
1
100
AcDbEllipse
 10
43.42832441730002
 20
42.45713461879996
 30
0.0
 11
14.16338226030001
 21
8.777059342800006
 31
0.0
210
0.0
220
0.0
230
1.0
 40
0.0916503009
 41
0.8957815453999952
 42
1.095624657200007
  0
DIMENSION
  5
91890
330
1F
100
AcDbEntity
  8
2
100
AcDbDimension
  2
*D6110109
 10
63.5
 20
66.65392239015074
 30
0.0
 11
94.96666666666667
 21
70.70392239015074
 31
0.0
 70
    32
  1
<>(MAX)
 71
     5
 42
8.200000000000001
  3
コピー - ISO-25
100
AcDbAlignedDimension
 13
55.29999999999998
 23
50.79999999889998
 33
0.0
 14
63.5
 24
49.99999999888119
 34
0.0
 50
0.0
100
AcDbRotatedDimension
1001
ACAD
1000
DSTYLE
1002
{
1070
   170
1070
     1
1070
   171
1070
     3
1070
   143
1040
0.0393700787401575
1070
   285
1070
     4
1070
     4
1000
"
1070
   271
1070
     8
1070
    40
1040
1.0
1002
}
1001
ACAD_DSTYLE_DIMINSPECT
1070
   393
1070
     0
1070
   394
1070
     0
1070
   395
1000

1070
   396
1000

  0
LINE
  5
91A09
330
1F
100
AcDbEntity
  8
sk3
100
AcDbLine
 10
29.00000000014668
 20
20.2999999989
 30
0.0
 11
29.00000000014668
 21
-20.29999999889999
 31
0.0
  0
LINE
  5
91A14
330
1F
100
AcDbEntity
  8
sk3
100
AcDbLine
 10
35.99999999995068
 20
20.2999999989
 30
0.0
 11
35.99999999995068
 21
-20.29999999889999
 31
0.0
  0
LINE
  5
91A35
330
1F
100
AcDbEntity
  8
sk3
100
AcDbLine
 10
39.10953503484935
 20
-18.8499999989
 30
0.0
 11
39.10953503484935
 21
18.8499999989
 31
0.0
  0
LINE
  5
91B4F
330
1F
100
AcDbEntity
  8
cut
100
AcDbLine
 10
47.74605423640003
 20
47.24684923279999
 30
0.0
 11
47.76726014660004
 21
47.25903691690001
 31
0.0
  0
LINE
  5
91B50
330
1F
100
AcDbEntity
  8
cut
100
AcDbLine
 10
47.76726014630003
 20
47.25903691670004
 30
0.0
 11
47.99837786890008
 21
47.3863620047
 31
0.0
  0
LINE
  5
91B51
330
1F
100
AcDbEntity
  8
cut
100
AcDbLine
 10
54.09361746630009
 20
50.54292201089999
 30
0.0
 11
54.12066551810004
 21
50.55772170359995
 31
0.0
  0
LINE
  5
91B52
330
1F
100
AcDbEntity
  8
cut
100
AcDbLine
 10
53.90639320080004
 20
50.4400960981
 30
0.0
 11
54.09361746630009
 21
50.54292201089999
 31
0.0
  0
LINE
  5
91B53
330
1F
100
AcDbEntity
  8
cut
100
AcDbLine
 10
47.99837786890008
 20
47.3863620047
 30
0.0
 11
48.23349737720002
 21
47.51495291549997
 31
0.0
  0
LINE
  5
91B54
330
1F
100
AcDbEntity
  8
cut
100
AcDbLine
 10
48.23349737720002
 20
47.51495291549997
 30
0.0
 11
48.47261996489999
 21
47.64480482480002
 31
0.0
  0
LINE
  5
91B55
330
1F
100
AcDbEntity
  8
cut
100
AcDbLine
 10
53.82561092270009
 20
50.39631226889998
 30
0.0
 11
53.90639320080004
 21
50.4400960981
 31
0.0
  0
LINE
  5
91B56
330
1F
100
AcDbEntity
  8
cut
100
AcDbLine
 10
48.47261996489999
 20
47.64480482480002
 30
0.0
 11
48.71575080700006
 21
47.77589843649996
 31
0.0
  0
LINE
  5
91B57
330
1F
100
AcDbEntity
  8
cut
100
AcDbLine
 10
53.71616711700005
 20
50.33775407979994
 30
0.0
 11
53.82561092270009
 21
50.39631226889998
 31
0.0
  0
LWPOLYLINE
  5
91B58
330
1F
100
AcDbEntity
  8
cut
100
AcDbPolyline
 90
        6
 70
     0
 43
0.0
 10
48.71575080700006
 20
47.77589843649996
 10
48.84603181670001
 20
47.84575258559999
 10
48.85327420170006
 20
47.84956499889999
 10
48.86054615499995
 20
47.85334932669996
 10
48.8678476765
 20
47.85710556909998
 10
48.87517876630011
 20
47.86083372590002
  0
LINE
  5
91B59
330
1F
100
AcDbEntity
  8
cut
100
AcDbLine
 10
53.60635700570004
 20
50.27939262369994
 30
0.0
 11
53.71616711700005
 21
50.33775407979994
 31
0.0
  0
LINE
  5
91B5A
330
1F
100
AcDbEntity
  8
cut
100
AcDbLine
 10
53.18080214029999
 20
50.05290674940004
 30
0.0
 11
53.60635700570004
 21
50.27939262369994
 31
0.0
  0
LINE
  5
91B5B
330
1F
100
AcDbEntity
  8
cut
100
AcDbLine
 10
52.79083482220006
 20
49.84841376490003
 30
0.0
 11
53.18080214029999
 21
50.05290674940004
 31
0.0
  0
LINE
  5
91B5C
330
1F
100
AcDbEntity
  8
cut
100
AcDbLine
 10
52.47631955090003
 20
49.68578189010003
 30
0.0
 11
52.79083482220006
 21
49.84841376490003
 31
0.0
  0
LINE
  5
91B5D
330
1F
100
AcDbEntity
  8
cut
100
AcDbLine
 10
51.5398786119
 20
49.20597001300001
 30
0.0
 11
52.47631955090003
 21
49.68578189010003
 31
0.0
  0
LINE
  5
91B5E
330
1F
100
AcDbEntity
  8
cut
100
AcDbLine
 10
50.60812789450007
 20
48.73238328639996
 30
0.0
 11
51.5398786119
 21
49.20597001300001
 31
0.0
  0
LINE
  5
91B5F
330
1F
100
AcDbEntity
  8
cut
100
AcDbLine
 10
49.47697465919997
 20
48.16221847979996
 30
0.0
 11
50.60812789450007
 21
48.73238328639996
 31
0.0
  0
LINE
  5
91B60
330
1F
100
AcDbEntity
  8
cut
100
AcDbLine
 10
48.87517876630011
 20
47.86083372590002
 30
0.0
 11
49.47697465919997
 21
48.16221847979996
 31
0.0
  0
LINE
  5
91B61
330
1F
100
AcDbEntity
  8
cut
100
AcDbLine
 10
47.72532060469997
 20
47.23401948510002
 30
0.0
 11
47.74775074980004
 21
47.2478649344
 31
0.0
  0
LWPOLYLINE
  5
91B62
330
1F
100
AcDbEntity
  8
cut
100
AcDbPolyline
 90
       10
 70
     0
 43
0.0
 10
47.56104393740009
 20
47.09050343659998
 10
47.5778930491
 20
47.10965120959997
 10
47.59426257660003
 20
47.12702598970003
 10
47.61127489030002
 20
47.1439471425
 10
47.62890831590005
 20
47.16039050339997
 10
47.64710886380011
 20
47.17627985839999
 10
47.66589015200007
 20
47.19161915540001
 10
47.6852385625001
 20
47.20640444639996
 10
47.70505925160001
 20
47.22054767380001
 10
47.72532060469997
 20
47.23401948510002
  0
LWPOLYLINE
  5
91B63
330
1F
100
AcDbEntity
  8
cut
100
AcDbPolyline
 90
       10
 70
     0
 43
0.0
 10
47.57563644900004
 20
47.10715861060005
 10
47.59072453710007
 20
47.123364422
 10
47.60631183640009
 20
47.13912629889995
 10
47.62239956860002
 20
47.15444606609998
 10
47.63897930359997
 20
47.16931113369997
 10
47.65604019859995
 20
47.18370530839997
 10
47.67356745280006
 20
47.19761058369994
 10
47.69153043409994
 20
47.21100169970003
 10
47.70989455260006
 20
47.22385158360004
 10
47.72863308210003
 20
47.23613885859998
  0
LINE
  5
91B64
330
1F
100
AcDbEntity
  8
cut
100
AcDbLine
 10
47.51853388589995
 20
47.03537725229995
 30
0.0
 11
47.533368579
 21
47.05586842069999
 31
0.0
  0
LINE
  5
91B65
330
1F
100
AcDbEntity
  8
cut
100
AcDbLine
 10
47.53246505200002
 20
47.05466165909996
 30
0.0
 11
47.54700629690012
 21
47.07347199470001
 31
0.0
  0
LINE
  5
91B66
330
1F
100
AcDbEntity
  8
cut
100
AcDbLine
 10
47.54694805190013
 20
47.0733991135
 30
0.0
 11
47.56214463360003
 21
47.09179863780002
 31
0.0
  0
LWPOLYLINE
  5
91B67
330
1F
100
AcDbEntity
  8
cut
100
AcDbPolyline
 90
       11
 70
     0
 43
0.0
 10
47.42219566560004
 20
46.84107161850005
 10
47.42929508300004
 20
46.86204396780005
 10
47.4370211401
 20
46.88277329399999
 10
47.44536029760014
 20
46.9032339322
 10
47.45429797940004
 20
46.92340061279998
 10
47.46382300360004
 20
46.94325408679997
 10
47.47393776570003
 20
46.96279918680001
 10
47.48464805540003
 20
46.98204676589995
 10
47.49595669970005
 20
47.00100126479997
 10
47.50785467370007
 20
47.01964147580002
 10
47.5203299896001
 20
47.0379397789
  0
LWPOLYLINE
  5
91B68
330
1F
100
AcDbEntity
  8
cut
100
AcDbPolyline
 90
       37
 70
     0
 43
0.0
 10
59.05500934360009
 20
35.115153459
 10
59.0342703084001
 20
35.10119245479998
 10
59.01309587940011
 20
35.08787418490002
 10
58.9914860568
 20
35.07519864940003
 10
58.96940123870002
 20
35.0631442193
 10
58.94688102700001
 20
35.05173252360001
 10
58.92404422640004
 20
35.0410284491
 10
58.90089736829998
 20
35.0310429525
 10
58.87743392139999
 20
35.0217650772
 10
58.85375309630001
 20
35.01322683979998
 10
58.82988311290011
 20
35.005438554
 10
58.80579575119998
 20
34.99838990600004
 10
58.78150556280012
 20
34.99208197159999
 10
58.75699968030005
 20
34.9865088199
 10
58.73229097100001
 20
34.98167638179999
 10
58.70743258790003
 20
34.97760352540002
 10
58.6824088646
 20
34.9742905199
 10
58.65723546750007
 20
34.97173709609999
 10
58.63201254950002
 20
34.96996131350002
 10
58.60673953550008
 20
34.96896983260001
 10
58.58141700060002
 20
34.96875599290002
 10
58.55614682340001
 20
34.96931787350002
 10
58.53094501340001
 20
34.9706586996
 10
58.50579556119999
 20
34.97277524589998
 10
58.48075231690007
 20
34.97565591590002
 10
58.45582814730004
 20
34.97929739520001
 10
58.43101018570007
 20
34.9837029981
 10
58.4063136819001
 20
34.9888710704
 10
58.38170988860008
 20
34.99480826369998
 10
58.35722755319999
 20
35.00150792650001
 10
58.3329681670001
 20
35.0089484497
 10
58.3089235952001
 20
35.01713835549998
 10
58.28510197270009
 20
35.0260691217
 10
58.26162919609997
 20
35.03569357310002
 10
58.23854723069995
 20
35.04599598459999
 10
58.21581411120007
 20
35.0569920813
 10
58.1934298376001
 20
35.06868186310001
  0
LINE
  5
91B69
330
1F
100
AcDbEntity
  8
cut
100
AcDbLine
 10
47.3994761819
 20
46.75130715250002
 30
0.0
 11
47.40474561320001
 21
46.77696839440004
 31
0.0
  0
LINE
  5
91B6A
330
1F
100
AcDbEntity
  8
cut
100
AcDbLine
 10
47.40426236270002
 20
46.77478852129996
 30
0.0
 11
47.40991327460005
 21
46.79850723869998
 31
0.0
  0
LINE
  5
91B6B
330
1F
100
AcDbEntity
  8
cut
100
AcDbLine
 10
47.40981023350002
 20
46.7980931692
 30
0.0
 11
47.41609944590003
 21
46.82115159510003
 31
0.0
  0
LWPOLYLINE
  5
91B6C
330
1F
100
AcDbEntity
  8
cut
100
AcDbPolyline
 90
       11
 70
     0
 43
0.0
 10
47.41573227829997
 20
46.81988349429996
 10
47.42312858680008
 20
46.84395304449997
 10
47.43089906920011
 20
46.8665082718
 10
47.43939478490005
 20
46.88878003910002
 10
47.4486224397
 20
46.91078305039996
 10
47.45857532759997
 20
46.93250260170002
 10
47.46921722290005
 20
46.95385734320001
 10
47.48055305030003
 20
46.97484571720003
 10
47.49257788500004
 20
46.99546928130001
 10
47.50524072710003
 20
47.0156513589
 10
47.51853388589995
 20
47.03537725229995
  0
LWPOLYLINE
  5
91B6D
330
1F
100
AcDbEntity
  8
cut
100
AcDbPolyline
 90
        8
 70
     0
 43
0.0
 10
47.38688226370004
 20
46.61465617389995
 10
47.38692022930002
 20
46.62223083669998
 10
47.38748246560009
 20
46.64477645380002
 10
47.38871293780004
 20
46.66720405040002
 10
47.39060650210001
 20
46.68945285549995
 10
47.39315945129999
 20
46.71153230650003
 10
47.39636843730011
 20
46.733469393
 10
47.40023067280003
 20
46.75528409999998
  0
LWPOLYLINE
  5
91B6E
330
1F
100
AcDbEntity
  8
cut
100
AcDbPolyline
 90
        7
 70
     0
 43
0.0
 10
47.38688253840006
 20
46.61465617380001
 10
47.3870590483001
 20
46.63070646609996
 10
47.3879951358
 20
46.6554261694
 10
47.38970812800005
 20
46.67987222179999
 10
47.39219231289996
 20
46.70392520629997
 10
47.39545340239998
 20
46.7277045399
 10
47.3994761819
 20
46.75130715250002
  0
LWPOLYLINE
  5
91B6F
330
1F
100
AcDbEntity
  8
cut
100
AcDbPolyline
 90
        5
 70
     0
 43
0.0
 10
47.39143960319995
 20
46.53196567190002
 10
47.38912788549997
 20
46.55664758899995
 10
47.38762542310007
 20
46.58131717580004
 10
47.38693221620007
 20
46.60597443260002
 10
47.38688253840006
 20
46.61465617380001
  0
LINE
  5
91B70
330
1F
100
AcDbEntity
  8
cut
100
AcDbLine
 10
63.03553268460007
 20
41.3850603163
 30
0.0
 11
62.83310007170006
 21
41.04810187499999
 31
0.0
  0
LINE
  5
91B71
330
1F
100
AcDbEntity
  8
cut
100
AcDbLine
 10
62.8331000718
 20
41.04810187519999
 30
0.0
 11
62.6535019639
 21
40.75017109539999
 31
0.0
  0
LINE
  5
91B72
330
1F
100
AcDbEntity
  8
cut
100
AcDbLine
 10
62.6535019639
 20
40.75017109539999
 30
0.0
 11
62.46732437060007
 21
40.44233195219999
 31
0.0
  0
LINE
  5
91B73
330
1F
100
AcDbEntity
  8
cut
100
AcDbLine
 10
62.46732437060007
 20
40.44233195219999
 30
0.0
 11
62.27455748120006
 21
40.12458927109999
 31
0.0
  0
LINE
  5
91B74
330
1F
100
AcDbEntity
  8
cut
100
AcDbLine
 10
62.27455748120006
 20
40.12458927109999
 30
0.0
 11
62.07516205319996
 21
39.79696235490003
 31
0.0
  0
LINE
  5
91B75
330
1F
100
AcDbEntity
  8
cut
100
AcDbLine
 10
62.07516205319996
 20
39.79696235490003
 30
0.0
 11
61.80718624730002
 21
39.35820566119998
 31
0.0
  0
LINE
  5
91B76
330
1F
100
AcDbEntity
  8
cut
100
AcDbLine
 10
61.80718624730002
 20
39.35820566119998
 30
0.0
 11
61.55775633180008
 21
38.95138591630001
 31
0.0
  0
LINE
  5
91B77
330
1F
100
AcDbEntity
  8
cut
100
AcDbLine
 10
61.55775633180008
 20
38.95138591630001
 30
0.0
 11
61.30762642139996
 21
38.5448737152
 31
0.0
  0
LINE
  5
91B78
330
1F
100
AcDbEntity
  8
cut
100
AcDbLine
 10
61.30762642139996
 20
38.5448737152
 30
0.0
 11
61.0570757424001
 21
38.13907437209997
 31
0.0
  0
LINE
  5
91B79
330
1F
100
AcDbEntity
  8
cut
100
AcDbLine
 10
61.0570757424001
 20
38.13907437209997
 30
0.0
 11
60.80632949330004
 21
37.73430725530003
 31
0.0
  0
LINE
  5
91B7A
330
1F
100
AcDbEntity
  8
cut
100
AcDbLine
 10
60.80632949330004
 20
37.73430725530003
 30
0.0
 11
60.55533552400003
 21
37.3304462168
 31
0.0
  0
LINE
  5
91B7B
330
1F
100
AcDbEntity
  8
cut
100
AcDbLine
 10
60.55533552400003
 20
37.3304462168
 30
0.0
 11
60.30386363970013
 21
36.92708900310001
 31
0.0
  0
LINE
  5
91B7C
330
1F
100
AcDbEntity
  8
cut
100
AcDbLine
 10
60.30386363970013
 20
36.92708900310001
 30
0.0
 11
60.05164366790006
 21
36.52377906629999
 31
0.0
  0
LWPOLYLINE
  5
91B7D
330
1F
100
AcDbEntity
  8
cut
100
AcDbPolyline
 90
        6
 70
     0
 43
0.0
 10
60.05164366790006
 20
36.52377906629999
 10
59.9630938545
 20
36.3825119607
 10
59.9587605718001
 20
36.37570780429999
 10
59.95438679910001
 20
36.36891116940001
 10
59.94997253650002
 20
36.36212205609999
 10
59.94551778400012
 20
36.35534046440003
  0
LINE
  5
91B7E
330
1F
100
AcDbEntity
  8
cut
100
AcDbLine
 10
59.55500889079996
 20
35.7683868627
 30
0.0
 11
59.26456933979999
 21
35.32936749449999
 31
0.0
  0
LINE
  5
91B7F
330
1F
100
AcDbEntity
  8
cut
100
AcDbLine
 10
59.94551778400012
 20
36.35534046440003
 30
0.0
 11
59.55500889079996
 21
35.7683868627
 31
0.0
  0
LWPOLYLINE
  5
91B80
330
1F
100
AcDbEntity
  8
cut
100
AcDbPolyline
 90
       16
 70
     0
 43
0.0
 10
59.26456934019995
 20
35.32936749499999
 10
59.25345154679996
 20
35.31296747299999
 10
59.24189915620003
 20
35.29683528709997
 10
59.22991216839999
 20
35.28097093720001
 10
59.21747650750001
 20
35.26535636220001
 10
59.20460624940004
 20
35.2500096232
 10
59.19134362140005
 20
35.23498490400001
 10
59.17770091850013
 20
35.22029660850001
 10
59.16366584570004
 20
35.20593033290001
 10
59.14924374470001
 20
35.19189704920001
 10
59.13442102160002
 20
35.178184069
 10
59.11921127020002
 20
35.16480408069998
 10
59.10366061430011
 20
35.15180612180002
 10
59.08778442830009
 20
35.139206538
 10
59.07156733790009
 20
35.1269889836
 10
59.0550093429
 20
35.1151534585
  0
LINE
  5
91B81
330
1F
100
AcDbEntity
  8
cut
100
AcDbLine
 10
57.18957267780012
 20
35.59312240240001
 30
0.0
 11
57.04338744680001
 21
35.66642127310001
 31
0.0
  0
LWPOLYLINE
  5
91B82
330
1F
100
AcDbEntity
  8
cut
100
AcDbPolyline
 90
        4
 70
     0
 43
0.0
 10
57.57435806010005
 20
35.3966675925
 10
57.4472136472001
 20
35.46220160299998
 10
57.31895099700011
 20
35.5276832804
 10
57.18957267780012
 20
35.59312240240001
  0
LINE
  5
91B83
330
1F
100
AcDbEntity
  8
cut
100
AcDbLine
 10
57.04338744680001
 20
35.66642127310001
 30
0.0
 11
57.02789709600006
 21
35.67437798310002
 31
0.0
  0
LINE
  5
91B84
330
1F
100
AcDbEntity
  8
cut
100
AcDbLine
 10
57.8253075832
 20
35.2655012374
 30
0.0
 11
57.57435806010005
 21
35.3966675925
 31
0.0
  0
LINE
  5
91B85
330
1F
100
AcDbEntity
  8
cut
100
AcDbLine
 10
57.02789709600006
 20
35.67437798310002
 30
0.0
 11
57.01260763770005
 21
35.68238909869999
 31
0.0
  0
LINE
  5
91B86
330
1F
100
AcDbEntity
  8
cut
100
AcDbLine
 10
56.29967655020004
 20
36.05932762839998
 30
0.0
 11
53.28795167639999
 21
37.64740623479998
 31
0.0
  0
LINE
  5
91B87
330
1F
100
AcDbEntity
  8
cut
100
AcDbLine
 10
56.47895687870004
 20
35.96458775150001
 30
0.0
 11
56.29967655020004
 21
36.05932762839998
 31
0.0
  0
LINE
  5
91B88
330
1F
100
AcDbEntity
  8
cut
100
AcDbLine
 10
53.28795167639999
 20
37.64740623479998
 30
0.0
 11
53.09373751379997
 21
37.7497807494
 31
0.0
  0
LWPOLYLINE
  5
91B89
330
1F
100
AcDbEntity
  8
cut
100
AcDbPolyline
 90
        3
 70
     0
 43
0.0
 10
56.7465687568
 20
35.8231110474
 10
56.65753947640006
 20
35.8701859027
 10
56.47895687870004
 20
35.96458775150001
  0
LWPOLYLINE
  5
91B8A
330
1F
100
AcDbEntity
  8
cut
100
AcDbPolyline
 90
        3
 70
     0
 43
0.0
 10
57.01260763760013
 20
35.68238909869999
 10
56.92410278810007
 20
35.72921255330002
 10
56.7465687568
 20
35.8231110474
  0
LINE
  5
91B8B
330
1F
100
AcDbEntity
  8
cut
100
AcDbLine
 10
53.09373751379997
 20
37.7497807494
 30
0.0
 11
52.96443792650006
 21
37.8186233902
 31
0.0
  0
LWPOLYLINE
  5
91B8C
330
1F
100
AcDbEntity
  8
cut
100
AcDbPolyline
 90
        4
 70
     0
 43
0.0
 10
58.19342983830007
 20
35.06868186270001
 10
58.07183038449999
 20
35.13430154420002
 10
57.94912296610004
 20
35.19990800240001
 10
57.8253075832
 20
35.2655012374
  0
LINE
  5
91B8D
330
1F
100
AcDbEntity
  8
cut
100
AcDbLine
 10
52.96443792650006
 20
37.8186233902
 30
0.0
 11
52.83432461170002
 21
37.88873167810002
 31
0.0
  0
LINE
  5
91B8E
330
1F
100
AcDbEntity
  8
cut
100
AcDbLine
 10
52.83432461170002
 20
37.88873167810002
 30
0.0
 11
52.70399334010004
 21
37.95982594720002
 31
0.0
  0
LINE
  5
91B8F
330
1F
100
AcDbEntity
  8
cut
100
AcDbLine
 10
52.70399334010004
 20
37.95982594720002
 30
0.0
 11
52.57567754110004
 21
38.03060193389999
 31
0.0
  0
LINE
  5
91B90
330
1F
100
AcDbEntity
  8
cut
100
AcDbLine
 10
52.57567754110004
 20
38.03060193389999
 30
0.0
 11
52.45420761070011
 21
38.09830073679999
 31
0.0
  0
LINE
  5
91B91
330
1F
100
AcDbEntity
  8
cut
100
AcDbLine
 10
52.45420761070011
 20
38.09830073679999
 30
0.0
 11
52.28993913429996
 21
38.1909796667
 31
0.0
  0
LINE
  5
91B92
330
1F
100
AcDbEntity
  8
cut
100
AcDbLine
 10
52.28993913429996
 20
38.1909796667
 30
0.0
 11
52.14876708530004
 21
38.2716177284
 31
0.0
  0
LINE
  5
91B93
330
1F
100
AcDbEntity
  8
cut
100
AcDbLine
 10
52.14876708530004
 20
38.2716177284
 30
0.0
 11
52.02251163369999
 21
38.34449774019999
 31
0.0
  0
LINE
  5
91B94
330
1F
100
AcDbEntity
  8
cut
100
AcDbLine
 10
52.02251163369999
 20
38.34449774019999
 30
0.0
 11
51.90249895330009
 21
38.41444748409998
 31
0.0
  0
LINE
  5
91B95
330
1F
100
AcDbEntity
  8
cut
100
AcDbLine
 10
51.90249895330009
 20
38.41444748409998
 30
0.0
 11
51.78243577039996
 21
38.4850803015
 31
0.0
  0
LINE
  5
91B96
330
1F
100
AcDbEntity
  8
cut
100
AcDbLine
 10
51.78243577039996
 20
38.4850803015
 30
0.0
 11
51.66161033760011
 21
38.55682080080001
 31
0.0
  0
LINE
  5
91B97
330
1F
100
AcDbEntity
  8
cut
100
AcDbLine
 10
51.66161033760011
 20
38.55682080080001
 30
0.0
 11
51.54124600220007
 21
38.62894388659999
 31
0.0
  0
LINE
  5
91B98
330
1F
100
AcDbEntity
  8
cut
100
AcDbLine
 10
51.54124600220007
 20
38.62894388659999
 30
0.0
 11
51.46170111050003
 21
38.6769693251
 31
0.0
  0
LWPOLYLINE
  5
91B99
330
1F
100
AcDbEntity
  8
cut
100
AcDbPolyline
 90
       37
 70
     0
 43
0.0
 10
51.4617011207
 20
38.67696931899999
 10
51.44146065360008
 20
38.68947563010002
 10
51.4215965571001
 20
38.70217294
 10
51.40210883120005
 20
38.71506124869998
 10
51.38301363080007
 20
38.7281403298
 10
51.36429480089997
 20
38.7414104097
 10
51.34590387650007
 20
38.75487216740001
 10
51.32783557300001
 20
38.7685229848
 10
51.31009517480004
 20
38.78236548010003
 10
51.2926500699001
 20
38.79640818670001
 10
51.27549676020009
 20
38.8106464786
 10
51.25863874380002
 20
38.8250849818
 10
51.24205390229996
 20
38.8397461077
 10
51.22573610539996
 20
38.85463138270001
 10
51.20969148360007
 20
38.86973928049997
 10
51.19391630999996
 20
38.88508763299999
 10
51.17840697420014
 20
38.9006805692
 10
51.16316708680006
 20
38.91651396010002
 10
51.14820375260014
 20
38.9325932518
 10
51.13351485830002
 20
38.94892538790001
 10
51.11910251730001
 20
38.96550342479998
 10
51.10498017420002
 20
38.9823119772
 10
51.09114808569994
 20
38.99935551830001
 10
51.07760599510005
 20
39.01662957500001
 10
51.06436657670007
 20
39.03410534260002
 10
51.05143525220011
 20
39.0517782229
 10
51.03880659990011
 20
39.06965281409997
 10
51.02647702900004
 20
39.08771410690003
 10
51.01444666120007
 20
39.10596076510001
 10
51.00271537469996
 20
39.12439412490002
 10
50.99127921390004
 20
39.143003185
 10
50.98013714680007
 20
39.16178674330001
 10
50.96929020530012
 20
39.18074600200001
 10
50.95873752890009
 20
39.1998735661
 10
50.94847883090006
 20
39.21916697090001
 10
50.93851439790011
 20
39.23862868110001
 10
50.92884423010001
 20
39.25825869690001
  0
LWPOLYLINE
  5
91B9A
330
1F
100
AcDbEntity
  8
cut
100
AcDbPolyline
 90
       16
 70
     0
 43
0.0
 10
47.47894974050007
 20
46.24942999249998
 10
47.46968790250003
 20
46.26748287349999
 10
47.46090879719996
 20
46.28568999459997
 10
47.45261242479999
 20
46.30405135550001
 10
47.44479391900006
 20
46.32258855649996
 10
47.43745814600003
 20
46.34127999749995
 10
47.43061970420001
 20
46.36006087790002
 10
47.42428506730004
 20
46.37891401749999
 10
47.41844776150003
 20
46.39785659659998
 10
47.41310296359994
 20
46.4168753546
 10
47.4082463843
 20
46.43598792580003
 10
47.4038823129
 20
46.455176676
 10
47.40001879450004
 20
46.47437544209998
 10
47.39665851090001
 20
46.49356216999996
 10
47.39379878040007
 20
46.51275891380004
 10
47.39143960300009
 20
46.53196567359997
  0
LINE
  5
91B9B
330
1F
100
AcDbEntity
  8
cut
100
AcDbLine
 10
48.45864996810007
 20
44.2944232593
 30
0.0
 11
48.07713817380011
 21
45.0540730523
 31
0.0
  0
LINE
  5
91B9C
330
1F
100
AcDbEntity
  8
cut
100
AcDbLine
 10
48.83671850589998
 20
43.53739916269997
 30
0.0
 11
48.45864996810007
 21
44.2944232593
 31
0.0
  0
LINE
  5
91B9D
330
1F
100
AcDbEntity
  8
cut
100
AcDbLine
 10
48.07713817380011
 20
45.0540730523
 30
0.0
 11
48.06933030779998
 21
45.0697390327
 31
0.0
  0
LINE
  5
91B9E
330
1F
100
AcDbEntity
  8
cut
100
AcDbLine
 10
49.14176988259999
 20
42.92322289180001
 30
0.0
 11
48.83671850589998
 21
43.53739916269997
 31
0.0
  0
LINE
  5
91B9F
330
1F
100
AcDbEntity
  8
cut
100
AcDbLine
 10
49.45351768860007
 20
42.29239027790001
 30
0.0
 11
49.14176988259999
 21
42.92322289180001
 31
0.0
  0
LINE
  5
91BA0
330
1F
100
AcDbEntity
  8
cut
100
AcDbLine
 10
49.77580463059997
 20
41.63676434129999
 30
0.0
 11
49.45351768860007
 21
42.29239027790001
 31
0.0
  0
LINE
  5
91BA1
330
1F
100
AcDbEntity
  8
cut
100
AcDbLine
 10
48.06933030779998
 20
45.0697390327
 30
0.0
 11
48.06153433420002
 21
45.08570690610002
 31
0.0
  0
LINE
  5
91BA2
330
1F
100
AcDbEntity
  8
cut
100
AcDbLine
 10
50.40835753149996
 20
40.33869950990001
 30
0.0
 11
49.77580463059997
 21
41.63676434129999
 31
0.0
  0
LWPOLYLINE
  5
91BA3
330
1F
100
AcDbEntity
  8
cut
100
AcDbPolyline
 90
        9
 70
     0
 43
0.0
 10
47.99408594800013
 20
45.22723441229999
 10
47.93338078359999
 20
45.35305938200003
 10
47.87163476010005
 20
45.47945158110002
 10
47.80886087179999
 20
45.60642162409998
 10
47.74504612450003
 20
45.73395889639999
 10
47.68015153580006
 20
45.86203155409998
 10
47.61416411150003
 20
45.99062898250003
 10
47.54709684589999
 20
46.1197617963
 10
47.47894973890004
 20
46.24942999549995
  0
LINE
  5
91BA4
330
1F
100
AcDbEntity
  8
cut
100
AcDbLine
 10
50.7408912085001
 20
39.64979540869999
 30
0.0
 11
50.40835753149996
 21
40.33869950990001
 31
0.0
  0
LINE
  5
91BA5
330
1F
100
AcDbEntity
  8
cut
100
AcDbLine
 10
50.92884427160004
 20
39.258258611
 30
0.0
 11
50.7408912075001
 21
39.64979541090001
 31
0.0
  0
LINE
  5
91BA6
330
1F
100
AcDbEntity
  8
cut
100
AcDbLine
 10
48.06153433420002
 20
45.08570690610002
 30
0.0
 11
47.99408594800013
 21
45.22723441229999
 31
0.0
  0
LINE
  5
91BA7
330
1F
100
AcDbEntity
  8
cut
100
AcDbLine
 10
55.07482190410008
 20
50.79999999889998
 30
0.0
 11
62.70000000000004
 21
50.79999999889998
 31
0.0
  0
LINE
  5
91BA8
330
1F
100
AcDbEntity
  8
cut
100
AcDbLine
 10
63.49171259540003
 20
48.62742310690005
 30
0.0
 11
63.50000000000012
 21
49.99999999890002
 31
0.0
  0
LINE
  5
91BA9
330
1F
100
AcDbEntity
  8
cut
100
AcDbLine
 10
63.49171259540003
 20
48.62742310690005
 30
0.0
 11
63.49156848540007
 21
48.6185132571
 31
0.0
  0
LINE
  5
91BAA
330
1F
100
AcDbEntity
  8
cut
100
AcDbLine
 10
63.24617919470006
 20
42.4290658535
 30
0.0
 11
63.24070554170011
 21
42.1192791747
 31
0.0
  0
LINE
  5
91BAB
330
1F
100
AcDbEntity
  8
cut
100
AcDbLine
 10
63.25304341280014
 20
42.73671024459996
 30
0.0
 11
63.24617919470006
 21
42.4290658535
 31
0.0
  0
LINE
  5
91BAC
330
1F
100
AcDbEntity
  8
cut
100
AcDbLine
 10
63.49156848540007
 20
48.6185132571
 30
0.0
 11
63.49116260829998
 21
48.60064557970003
 31
0.0
  0
LWPOLYLINE
  5
91BAD
330
1F
100
AcDbEntity
  8
cut
100
AcDbPolyline
 90
       25
 70
     0
 43
0.0
 10
63.24070554180003
 20
42.11927918319998
 10
63.23980988110008
 20
42.0858807413
 10
63.23821817290002
 20
42.05275564929999
 10
63.23593041700007
 20
42.01990390709997
 10
63.23293666050005
 20
41.98733332719998
 10
63.22924685650002
 20
41.95503609720001
 10
63.2248908639
 20
41.9229887792
 10
63.21987088030004
 20
41.89119790979997
 10
63.21418470800006
 20
41.85965695239999
 10
63.20785561380001
 20
41.82832285949999
 10
63.20088941560005
 20
41.797186409
 10
63.1932802954001
 20
41.7662568231
 10
63.18503406520004
 20
41.7355187213
 10
63.17615755520012
 20
41.7049600349
 10
63.16664393530004
 20
41.67459283280002
 10
63.15647852650011
 20
41.6444379406
 10
63.14565816319998
 20
41.61448001139999
 10
63.134186011
 20
41.58473439209998
 10
63.12205688910001
 20
41.5552679499
 10
63.10926695
 20
41.5260809528
 10
63.09582004109994
 20
41.4971731328
 10
63.08172252350004
 20
41.468610552
 10
63.06697651750004
 20
41.44041523109999
 10
63.05157990270004
 20
41.4125651495
 10
63.0355326791
 20
41.38506030720001
  0
LINE
  5
91BAE
330
1F
100
AcDbEntity
  8
cut
100
AcDbLine
 10
63.26127022930005
 20
43.04258319549997
 30
0.0
 11
63.25304341280014
 21
42.73671024459996
 31
0.0
  0
LINE
  5
91BAF
330
1F
100
AcDbEntity
  8
cut
100
AcDbLine
 10
63.27074317340009
 20
43.34433656819999
 30
0.0
 11
63.26127022930005
 21
43.04258319549997
 31
0.0
  0
LINE
  5
91BB0
330
1F
100
AcDbEntity
  8
cut
100
AcDbLine
 10
63.49116260829998
 20
48.60064557970003
 30
0.0
 11
63.4905998552
 21
48.58271393169997
 31
0.0
  0
LINE
  5
91BB1
330
1F
100
AcDbEntity
  8
cut
100
AcDbLine
 10
63.28148218529998
 20
43.64302452469999
 30
0.0
 11
63.27074317340009
 21
43.34433656819999
 31
0.0
  0
LINE
  5
91BB2
330
1F
100
AcDbEntity
  8
cut
100
AcDbLine
 10
63.4905998552
 20
48.58271393169997
 30
0.0
 11
63.4607900008001
 21
47.84463696829998
 31
0.0
  0
LINE
  5
91BB3
330
1F
100
AcDbEntity
  8
cut
100
AcDbLine
 10
63.4607900008001
 20
47.84463696829998
 30
0.0
 11
63.42508234280001
 21
46.97927799019999
 31
0.0
  0
LINE
  5
91BB4
330
1F
100
AcDbEntity
  8
cut
100
AcDbLine
 10
63.29312693010013
 20
43.93128010819999
 30
0.0
 11
63.28148218529998
 21
43.64302452469999
 31
0.0
  0
LINE
  5
91BB5
330
1F
100
AcDbEntity
  8
cut
100
AcDbLine
 10
63.42508234280001
 20
46.97927799019999
 30
0.0
 11
63.3909862741001
 21
46.17027295929999
 31
0.0
  0
LINE
  5
91BB6
330
1F
100
AcDbEntity
  8
cut
100
AcDbLine
 10
63.3909862741001
 20
46.17027295929999
 30
0.0
 11
63.3560934620001
 21
45.35896876299996
 31
0.0
  0
LINE
  5
91BB7
330
1F
100
AcDbEntity
  8
cut
100
AcDbLine
 10
63.3560934620001
 20
45.35896876299996
 30
0.0
 11
63.31514640870011
 21
44.42744710970001
 31
0.0
  0
LWPOLYLINE
  5
91BB8
330
1F
100
AcDbEntity
  8
cut
100
AcDbPolyline
 90
        4
 70
     0
 43
0.0
 10
63.31514640870011
 20
44.42744710970001
 10
63.30722022760006
 20
44.24979228010002
 10
63.30559220940006
 20
44.2134943907
 10
63.29312693010013
 20
43.93128010819999
  0
ARC
  5
91BB9
330
1F
100
AcDbEntity
  8
cut
100
AcDbCircle
 10
55.07482190410008
 20
48.79999999889998
 30
0.0
 40
2.0
100
AcDbArc
 50
90.0
 51
118.494748856002
  0
ARC
  5
91BBA
330
1F
100
AcDbEntity
  8
cut
100
AcDbCircle
 10
62.70000000000004
 20
49.99999999890002
 30
0.0
 40
0.8
100
AcDbArc
 50
0.0
 51
90.0
  0
DIMENSION
  5
91BBB
330
1F
100
AcDbEntity
  8
2
100
AcDbDimension
  2
*D1310
 10
62.70000000000004
 20
49.99999999890002
 30
0.0
 11
78.34957646052703
 21
53.67925087045506
 31
0.0
 70
   164
 71
     5
 42
0.8
  3
コピー - ISO-25
100
AcDbRadialDimension
 15
63.47876703255632
 25
50.18308989213118
 35
0.0
 40
0.0
1001
ACAD
1000
DSTYLE
1002
{
1070
   170
1070
     1
1070
   171
1070
     3
1070
   143
1040
0.0393700787401575
1070
   285
1070
     4
1070
     4
1000
"
1070
   271
1070
     8
1070
    40
1040
1.0
1002
}
1001
ACAD_DSTYLE_DIMRADIAL_EXTENSION
1070
   387
1070
     1
1070
   388
1040
0.0
1070
   390
1040
1.570796326794896
1001
ACAD_DSTYLE_DIMINSPECT
1070
   396
1000

1070
   395
1000

1070
   394
1070
     1
1070
   393
1070
     0
1001
ZWMCAD_GENSTANDARDFRAME_13_
1070
   410
1000
GB
1070
   411
1000
ZwmFrameMain_
  0
VIEWPORT
  5
71
102
{ACAD_XDICTIONARY
360
87B09
102
}
330
55
100
AcDbEntity
 67
     1
  8
0
100
AcDbViewport
 10
150.1652135264906
 20
103.6581106594891
 30
0.0
 40
339.1973820494347
 41
168.6522697578383
 68
     1
 69
    -1
 12
150.1652135264906
 22
103.6581106594891
 13
0.0
 23
0.0
 14
10.0
 24
10.0
 15
10.0
 25
10.0
 16
0.0
 26
0.0
 36
1.0
 17
0.0
 27
0.0
 37
0.0
 42
50.0
 43
0.0
 44
0.0
 45
168.6522697578383
 50
0.0
 51
0.0
 72
  1000
 90
    32864
  1

281
     0
 71
     1
 74
     0
110
0.0
120
0.0
130
0.0
111
1.0
121
0.0
131
0.0
112
0.0
122
1.0
132
0.0
 79
     0
146
0.0
1001
ACAD
1000
MVIEW
1002
{
1070
    16
1010
0.0
1020
0.0
1030
0.0
1010
0.0
1020
0.0
1030
1.0
1040
0.0
1040
168.6522697578383
1040
150.1652135264906
1040
103.6581106594891
1040
50.0
1040
0.0
1040
0.0
1070
     0
1070
  1000
1070
     0
1070
     3
1070
     0
1070
     0
1070
     0
1070
     0
1040
0.0
1040
0.0
1040
0.0
1040
10.0
1040
10.0
1040
10.0
1040
10.0
1070
     0
1002
{
1002
}
1002
}
  0
VIEWPORT
  5
73
102
{ACAD_XDICTIONARY
360
87B0B
102
}
330
55
100
AcDbEntity
 67
     1
  8
0
100
AcDbViewport
 10
133.3499939441681
 20
101.5999939441681
 30
0.0
 40
213.3599903106689
 41
162.5599903106689
 68
     2
 69
    -1
 12
210.0
 22
148.5
 13
0.0
 23
0.0
 14
10.0
 24
10.0
 15
10.0
 25
10.0
 16
0.0
 26
0.0
 36
1.0
 17
0.0
 27
0.0
 37
0.0
 42
50.0
 43
0.0
 44
0.0
 45
324.0677920111345
 50
0.0
 51
0.0
 72
   100
 90
    32864
  1

281
     0
 71
     1
 74
     0
110
0.0
120
0.0
130
0.0
111
1.0
121
0.0
131
0.0
112
0.0
122
1.0
132
0.0
 79
     0
146
0.0
1001
ACAD
1000
MVIEW
1002
{
1070
    16
1010
0.0
1020
0.0
1030
0.0
1010
0.0
1020
0.0
1030
1.0
1040
0.0
1040
324.0677920111345
1040
210.0
1040
148.5
1040
50.0
1040
0.0
1040
0.0
1070
     0
1070
   100
1070
     0
1070
     3
1070
     0
1070
     0
1070
     0
1070
     0
1040
0.0
1040
0.0
1040
0.0
1040
10.0
1040
10.0
1040
10.0
1040
10.0
1070
     0
1002
{
1002
}
1002
}
  0
ENDSEC
  0
SECTION
  2
OBJECTS
  0
DICTIONARY
  5
C
330
0
100
AcDbDictionary
281
     1
  3
ACAD_2007HEADERVARS_RT
350
91C1E
  3
ACAD_CIP_PREVIOUS_PRODUCT_INFO
350
4A3C3
  3
ACAD_COLOR
350
85
  3
ACAD_DETAILVIEWSTYLE
350
4A3BB
  3
ACAD_GROUP
350
D
  3
ACAD_LAYOUT
350
1A
  3
ACAD_MATERIAL
350
84
  3
ACAD_MLEADERSTYLE
350
4A3B7
  3
ACAD_MLINESTYLE
350
17
  3
ACAD_PLOTSETTINGS
350
19
  3
ACAD_PLOTSTYLENAME
350
E
  3
ACAD_SCALELIST
350
4A3A5
  3
ACAD_SECTIONVIEWSTYLE
350
4A3B9
  3
ACAD_TABLESTYLE
350
A1
  3
ACAD_VISUALSTYLE
350
4A38C
  3
ACDB_RECOMPOSE_DATA
350
907A1
  3
ACDBHEADERROUNDTRIPXREC
350
91C1B
  3
AcDbVariableDictionary
350
5E
  3
ASE_INDEX_DICTIONARY
350
349E9
  3
DWGPROPS
350
91C21
  0
DICTIONARY
  5
8C34E
330
8
100
AcDbDictionary
280
     1
281
     1
  3
ACAD_XREC_ROUNDTRIP
360
91C27
  0
DICTIONARY
  5
E2
330
2
100
AcDbDictionary
280
     1
281
     1
  3
ACAD_LAYERFILTERS
360
4A339
  3
ACAD_LAYERSTATES
360
3759A
  3
ACLYDICTIONARY
360
4A338
  0
DICTIONARY
  5
4A86C
330
10
100
AcDbDictionary
280
     1
281
     1
  3
ADSK_XREC_LAYER_RECONCILED
360
4A86D
  0
DICTIONARY
  5
4A773
330
4A772
100
AcDbDictionary
280
     1
281
     1
  3
ADSK_XREC_LAYER_RECONCILED
360
4A86E
  0
DICTIONARY
  5
4A775
330
4A774
100
AcDbDictionary
280
     1
281
     1
  3
ADSK_XREC_LAYER_RECONCILED
360
4A86F
  0
DICTIONARY
  5
4A777
330
4A776
100
AcDbDictionary
280
     1
281
     1
  3
ADSK_XREC_LAYER_RECONCILED
360
4A870
  0
DICTIONARY
  5
4A779
330
4A778
100
AcDbDictionary
280
     1
281
     1
  3
ADSK_XREC_LAYER_RECONCILED
360
4A871
  0
DICTIONARY
  5
4A77B
330
4A77A
100
AcDbDictionary
280
     1
281
     1
  3
ADSK_XREC_LAYER_RECONCILED
360
4A872
  0
DICTIONARY
  5
4A77F
330
4A77E
100
AcDbDictionary
280
     1
281
     1
  3
ADSK_XREC_LAYER_RECONCILED
360
4A874
  0
DICTIONARY
  5
4A783
330
4A782
100
AcDbDictionary
280
     1
281
     1
  3
ADSK_XREC_LAYER_RECONCILED
360
4A876
  0
DICTIONARY
  5
8C34C
330
87B52
100
AcDbDictionary
280
     1
281
     1
  3
ACAD_XREC_ROUNDTRIP
360
91C26
  0
DICTIONARY
  5
31EE
330
1F
100
AcDbDictionary
280
     1
281
     1
  3
ACAD_SORTENTS
360
31EF
  0
DICTIONARY
  5
4A6D7
330
4A6D6
100
AcDbDictionary
280
     1
281
     1
  3
ACAD_SORTENTS
360
4A6D8
  0
DICTIONARY
  5
87B05
330
6B
100
AcDbDictionary
280
     1
281
     1
  3
ACAD_XREC_ROUNDTRIP
360
91C24
  0
DICTIONARY
  5
87B07
330
6D
100
AcDbDictionary
280
     1
281
     1
  3
ACAD_XREC_ROUNDTRIP
360
91C25
  0
DICTIONARY
  5
917E9
330
917E8
100
AcDbDictionary
280
     1
281
     1
  3
ACAD_DIMASSOC
360
917EA
  0
DICTIONARY
  5
917EE
330
917ED
100
AcDbDictionary
280
     1
281
     1
  3
ACAD_DIMASSOC
360
917EF
  0
DICTIONARY
  5
87B09
330
71
100
AcDbDictionary
280
     1
281
     1
  3
ACAD_XREC_ROUNDTRIP
360
91C22
  0
DICTIONARY
  5
87B0B
330
73
100
AcDbDictionary
280
     1
281
     1
  3
ACAD_XREC_ROUNDTRIP
360
91C23
  0
DICTIONARY
  5
91C1E
102
{ACAD_REACTORS
330
C
102
}
330
C
100
AcDbDictionary
281
     1
  3
DIMTFILL
350
91C1F
  3
DIMTFILLCLR
350
91C20
  0
XRECORD
  5
4A3C3
102
{ACAD_REACTORS
330
C
102
}
330
C
100
AcDbXrecord
280
     1
300
ACDLT
300
2020
300

  0
DICTIONARY
  5
85
102
{ACAD_REACTORS
330
C
102
}
330
C
100
AcDbDictionary
281
     1
  0
DICTIONARY
  5
4A3BB
102
{ACAD_REACTORS
330
C
102
}
330
C
100
AcDbDictionary
281
     1
  3
Metric50
350
4A3BC
  0
DICTIONARY
  5
D
102
{ACAD_REACTORS
330
C
102
}
330
C
100
AcDbDictionary
281
     1
  0
DICTIONARY
  5
1A
102
{ACAD_REACTORS
330
C
102
}
330
C
100
AcDbDictionary
281
     1
  3
Model
350
22
  3
レイアウト1
350
51
  3
レイアウト2
350
56
  0
DICTIONARY
  5
84
102
{ACAD_REACTORS
330
C
102
}
330
C
100
AcDbDictionary
281
     1
  3
ByBlock
350
4A37C
  3
ByLayer
350
4A374
  3
Global
350
4A384
  0
DICTIONARY
  5
4A3B7
102
{ACAD_REACTORS
330
C
102
}
330
C
100
AcDbDictionary
281
     1
  3
Standard
350
4A3B8
  0
DICTIONARY
  5
17
102
{ACAD_REACTORS
330
C
102
}
330
C
100
AcDbDictionary
281
     1
  3
Standard
350
18
  0
DICTIONARY
  5
19
102
{ACAD_REACTORS
330
C
102
}
330
C
100
AcDbDictionary
281
     1
  0
ACDBDICTIONARYWDFLT
  5
E
102
{ACAD_REACTORS
330
C
102
}
330
C
100
AcDbDictionary
281
     1
  3
Normal
350
F
100
AcDbDictionaryWithDefault
340
F
  0
DICTIONARY
  5
4A3A5
102
{ACAD_REACTORS
330
C
102
}
330
C
100
AcDbDictionary
281
     1
  3
A0
350
4A3A6
  3
A1
350
4A3A7
  3
A2
350
4A3A8
  3
A3
350
4A3A9
  3
A4
350
4A3AA
  3
A5
350
4A3AB
  3
A6
350
4A3AC
  3
A7
350
4A3AD
  3
A8
350
4A3AE
  3
A9
350
4A3AF
  3
B0
350
4A3B0
  3
B1
350
4A3B1
  3
B2
350
4A3B2
  3
B3
350
4A3B3
  3
B4
350
4A3B4
  3
B5
350
4A3B5
  3
B6
350
4A3B6
  0
DICTIONARY
  5
4A3B9
102
{ACAD_REACTORS
330
C
102
}
330
C
100
AcDbDictionary
281
     1
  3
Metric50
350
4A3BA
  0
DICTIONARY
  5
A1
102
{ACAD_REACTORS
330
C
102
}
330
C
100
AcDbDictionary
281
     1
  3
Standard
350
A2
  0
DICTIONARY
  5
4A38C
102
{ACAD_REACTORS
330
C
102
}
330
C
100
AcDbDictionary
281
     1
  3
2dWireframe
350
4A392
  3
Basic
350
4A391
  3
Brighten
350
4A398
  3
ColorChange
350
4A39C
  3
Conceptual
350
4A395
  3
Dim
350
4A397
  3
EdgeColorOff
350
4A3A4
  3
Facepattern
350
4A39B
  3
Flat
350
4A38D
  3
FlatWithEdges
350
4A38E
  3
Gouraud
350
4A38F
  3
GouraudWithEdges
350
4A390
  3
Hidden
350
4A394
  3
JitterOff
350
4A3A2
  3
Linepattern
350
4A39A
  3
OverhangOff
350
4A3A3
  3
Realistic
350
4A396
  3
Shaded
350
4A3A1
  3
Shaded with edges
350
4A3A0
  3
Shades of Gray
350
4A39D
  3
Sketchy
350
4A39E
  3
Thicken
350
4A399
  3
Wireframe
350
4A393
  3
X-Ray
350
4A39F
  0
XRECORD
  5
907A1
102
{ACAD_REACTORS
330
C
102
}
330
C
100
AcDbXrecord
280
     1
 90
        1
330
A2
  0
DICTIONARY
  5
91C1B
102
{ACAD_REACTORS
330
C
102
}
330
C
100
AcDbDictionary
281
     1
  3
COLORDICT
350
91C1C
  3
MATERIALDICT
350
91C1D
  0
DICTIONARY
  5
5E
102
{ACAD_REACTORS
330
C
102
}
330
C
100
AcDbDictionary
281
     1
  3
CANNOSCALE
350
91C1A
  3
CMLEADERSTYLE
350
4A6CE
  3
CTABLESTYLE
350
B8
  3
CVIEWDETAILSTYLE
350
4A6CF
  3
CVIEWSECTIONSTYLE
350
4A6D0
  3
DIMASSOC
350
5F
  3
HIDETEXT
350
63
  3
INDEXCTL
350
4A879
  3
LAYEREVAL
350
4A6D4
  3
LAYERNOTIFY
350
4A6D5
  3
LIGHTINGUNITS
350
4A6D3
  3
MSLTSCALE
350
4A6D1
  3
PROJECTNAME
350
31CE
  3
SORTENTS
350
4A878
  3
XCLIPFRAME
350
87AF9
  0
DICTIONARY
  5
349E9
102
{ACAD_REACTORS
330
C
102
}
330
C
100
AcDbDictionary
281
     1
  3
ASEBlockHierarchyIndexRecord
350
349EA
1001
DCO15
1040
1842496176.844
  0
XRECORD
  5
91C21
102
{ACAD_REACTORS
330
C
102
}
330
C
100
AcDbXrecord
280
     1
  1
DWGPROPS COOKIE
  2

  3

  4

  6

  7

  8
zhangnw
  9

300
=
301
=
302
=
303
=
304
=
305
=
306
=
307
=
308
=
309
=
 40
0.0
 41
2455489.391063368
 42
2458948.456752627
  1

 90
        0
  0
XRECORD
  5
91C27
102
{ACAD_REACTORS
330
8C34E
102
}
330
8C34E
100
AcDbXrecord
280
     1
102
VTR_0.000_0.000_1.000_1.000_VISUALSTYLE
340
4A392
102
VTR_0.000_0.000_1.000_1.000_GRIDDISPLAY
 70
     3
102
VTR_0.000_0.000_1.000_1.000_GRIDMAJOR
 70
     5
102
VTR_0.000_0.000_1.000_1.000_DEFAULTLIGHTING
280
     1
102
VTR_0.000_0.000_1.000_1.000_DEFAULTLIGHTINGTYPE
 70
     1
102
VTR_0.000_0.000_1.000_1.000_BRIGHTNESS
141
0.0
102
VTR_0.000_0.000_1.000_1.000_CONTRAST
142
0.0
  0
DICTIONARY
  5
4A339
102
{ACAD_REACTORS
330
E2
102
}
330
E2
100
AcDbDictionary
281
     1
  0
DICTIONARY
  5
3759A
102
{ACAD_REACTORS
330
E2
102
}
330
E2
100
AcDbDictionary
281
     1
  0
DICTIONARY
  5
4A338
102
{ACAD_REACTORS
330
E2
102
}
330
E2
100
AcDbDictionary
281
     1
1001
ACAD
1000
<All
  0
XRECORD
  5
4A86D
102
{ACAD_REACTORS
330
4A86C
102
}
330
4A86C
100
AcDbXrecord
280
     1
290
     1
  0
XRECORD
  5
4A86E
102
{ACAD_REACTORS
330
4A773
102
}
330
4A773
100
AcDbXrecord
280
     1
290
     1
  0
XRECORD
  5
4A86F
102
{ACAD_REACTORS
330
4A775
102
}
330
4A775
100
AcDbXrecord
280
     1
290
     1
  0
XRECORD
  5
4A870
102
{ACAD_REACTORS
330
4A777
102
}
330
4A777
100
AcDbXrecord
280
     1
290
     1
  0
XRECORD
  5
4A871
102
{ACAD_REACTORS
330
4A779
102
}
330
4A779
100
AcDbXrecord
280
     1
290
     1
  0
XRECORD
  5
4A872
102
{ACAD_REACTORS
330
4A77B
102
}
330
4A77B
100
AcDbXrecord
280
     1
290
     1
  0
XRECORD
  5
4A874
102
{ACAD_REACTORS
330
4A77F
102
}
330
4A77F
100
AcDbXrecord
280
     1
290
     1
  0
XRECORD
  5
4A876
102
{ACAD_REACTORS
330
4A783
102
}
330
4A783
100
AcDbXrecord
280
     1
290
     1
  0
XRECORD
  5
91C26
102
{ACAD_REACTORS
330
8C34C
102
}
330
8C34C
100
AcDbXrecord
280
     1
102
MATERIAL
340
4A384
  0
SORTENTSTABLE
  5
31EF
102
{ACAD_REACTORS
330
31EE
102
}
330
31EE
100
AcDbSortentsTable
330
1F
  0
SORTENTSTABLE
  5
4A6D8
102
{ACAD_REACTORS
330
4A6D7
102
}
330
4A6D7
100
AcDbSortentsTable
330
4A6D6
  0
XRECORD
  5
91C24
102
{ACAD_REACTORS
330
87B05
102
}
330
87B05
100
AcDbXrecord
280
     1
102
GRIDDISPLAY
 70
     0
102
GRIDMAJOR
 70
     5
102
DEFAULTLIGHTING
280
     1
102
DEFAULTLIGHTINGTYPE
 70
     1
102
BRIGHTNESS
141
0.0
102
CONTRAST
142
0.0
  0
XRECORD
  5
91C25
102
{ACAD_REACTORS
330
87B07
102
}
330
87B07
100
AcDbXrecord
280
     1
102
GRIDDISPLAY
 70
     0
102
GRIDMAJOR
 70
     5
102
DEFAULTLIGHTING
280
     1
102
DEFAULTLIGHTINGTYPE
 70
     1
102
BRIGHTNESS
141
0.0
102
CONTRAST
142
0.0
  0
DIMASSOC
  5
917EA
102
{ACAD_REACTORS
330
917E9
102
}
330
917E9
100
AcDbDimAssoc
330
917E8
 90
        3
 70
     0
 71
     0
  1
AcDbOsnapPointRef
 72
    13
331
916E7
 73
     2
 91
        0
 40
0.0
 10
0.0
 20
0.0
 30
1.999999999999998E+50
 75
     0
  1
AcDbOsnapPointRef
 72
    13
331
917D1
 73
     2
 91
        0
 40
0.0
 10
0.0
 20
0.0
 30
1.999999999999998E+50
 75
     0
  0
DIMASSOC
  5
917EF
102
{ACAD_REACTORS
330
917EE
102
}
330
917EE
100
AcDbDimAssoc
330
917ED
 90
        2
 70
     0
 71
     0
  1
AcDbOsnapPointRef
 72
    13
331
917E1
 73
     2
 91
        0
 40
3.141592653589792
 10
0.0
 20
0.0
 30
1.999999999999998E+50
 75
     0
  0
XRECORD
  5
91C22
102
{ACAD_REACTORS
330
87B09
102
}
330
87B09
100
AcDbXrecord
280
     1
102
GRIDDISPLAY
 70
     0
102
GRIDMAJOR
 70
     5
102
DEFAULTLIGHTING
280
     1
102
DEFAULTLIGHTINGTYPE
 70
     1
102
BRIGHTNESS
141
0.0
102
CONTRAST
142
0.0
  0
XRECORD
  5
91C23
102
{ACAD_REACTORS
330
87B0B
102
}
330
87B0B
100
AcDbXrecord
280
     1
102
GRIDDISPLAY
 70
     0
102
GRIDMAJOR
 70
     5
102
DEFAULTLIGHTING
280
     1
102
DEFAULTLIGHTINGTYPE
 70
     1
102
BRIGHTNESS
141
0.0
102
CONTRAST
142
0.0
  0
XRECORD
  5
91C1F
102
{ACAD_REACTORS
330
91C1E
102
}
330
91C1E
100
AcDbXrecord
280
     1
 70
     1
  0
XRECORD
  5
91C20
102
{ACAD_REACTORS
330
91C1E
102
}
330
91C1E
100
AcDbXrecord
280
     1
1004
1800000001000000000000C1000000000000000000000000
  0
ACDBDETAILVIEWSTYLE
  5
4A3BC
102
{ACAD_XDICTIONARY
360
87B40
102
}
102
{ACAD_REACTORS
330
4A3BB
102
}
330
4A3BB
100
AcDbModelDocViewStyle
 70
     0
  3
Metric50
290
     0
100
AcDbDetailViewStyle
 70
     0
 71
     0
 90
        3
 71
     1
340
11
 40
5.0
340
0
 40
5.0
300

 40
0.0
280
     1
 71
     2
340
16
 90
       25
 71
     3
340
11
 40
5.0
 90
        0
 40
15.0
 90
        1
300
%<\AcVar ViewDetailId>% (%<\AcVar ViewScale \f "%sn">%)
 71
     4
340
16
 90
       25
340
16
 90
       25
280
     0
  0
LAYOUT
  5
22
102
{ACAD_REACTORS
330
1A
102
}
330
1A
100
AcDbPlotSettings
  1

  2
none_device
  4
ANSI_A_(8.50_x_11.00_Inches)
  6

 40
6.349999904632567
 41
19.04999923706055
 42
6.350006103515625
 43
19.04998779296875
 44
215.8999938964844
 45
279.3999938964844
 46
0.0
 47
0.0
 48
0.0
 49
0.0
140
0.0
141
0.0
142
1.0
143
78.436453180766
 70
 11952
 72
     0
 73
     1
 74
     0
  7

 75
     0
147
0.0127491741332998
148
0.0
149
0.0
100
AcDbLayout
  1
Model
 70
     1
 71
     0
 10
0.0
 20
0.0
 11
12.0
 21
9.0
 12
0.0
 22
0.0
 32
0.0
 14
0.0
 24
0.0
 34
0.0
 15
0.0
 25
0.0
 35
0.0
146
0.0
 13
0.0
 23
0.0
 33
0.0
 16
1.0
 26
0.0
 36
0.0
 17
0.0
 27
1.0
 37
0.0
 76
     0
330
1F
331
4A360
  0
LAYOUT
  5
51
102
{ACAD_REACTORS
330
1A
102
}
330
1A
100
AcDbPlotSettings
  1

  2
none_device
  4
Letter_(8.50_x_11.00_Inches)
  6

 40
6.349999904632567
 41
6.349999904632567
 42
6.350006103515625
 43
6.350006103515625
 44
215.8999938964844
 45
279.3999938964844
 46
0.0
 47
0.0
 48
0.0
 49
0.0
140
0.0
141
0.0
142
1.0
143
1.0
 70
   688
 72
     1
 73
     1
 74
     5
  7

 75
    16
147
1.0
148
0.0
149
0.0
100
AcDbLayout
  1
レイアウト1
 70
     1
 71
     1
 10
-6.350006103515625
 20
-6.349999904632567
 11
273.0499877929688
 21
209.5499939918518
 12
0.0
 22
0.0
 32
0.0
 14
26.66999878883364
 24
20.31999878883365
 34
0.0
 15
240.0299890995025
 25
182.8799890995025
 35
0.0
146
0.0
 13
0.0
 23
0.0
 33
0.0
 16
1.0
 26
0.0
 36
0.0
 17
0.0
 27
1.0
 37
0.0
 76
     0
330
50
331
6B
  0
LAYOUT
  5
56
102
{ACAD_REACTORS
330
1A
102
}
330
1A
100
AcDbPlotSettings
  1

  2
none_device
  4
Letter_(8.50_x_11.00_Inches)
  6

 40
6.349999904632567
 41
6.349999904632567
 42
6.350006103515625
 43
6.350006103515625
 44
215.8999938964844
 45
279.3999938964844
 46
0.0
 47
0.0
 48
0.0
 49
0.0
140
0.0
141
0.0
142
1.0
143
1.0
 70
   688
 72
     1
 73
     1
 74
     5
  7

 75
    16
147
1.0
148
0.0
149
0.0
100
AcDbLayout
  1
レイアウト2
 70
     1
 71
     2
 10
-6.350006103515625
 20
-6.349999904632567
 11
273.0499877929688
 21
209.5499939918518
 12
0.0
 22
0.0
 32
0.0
 14
26.66999878883364
 24
20.31999878883365
 34
0.0
 15
240.0299890995025
 25
182.8799890995025
 35
0.0
146
0.0
 13
0.0
 23
0.0
 33
0.0
 16
1.0
 26
0.0
 36
0.0
 17
0.0
 27
1.0
 37
0.0
 76
     0
330
55
331
71
  0
MATERIAL
  5
4A37C
102
{ACAD_XDICTIONARY
360
4A37D
102
}
102
{ACAD_REACTORS
330
84
102
}
330
84
100
AcDbMaterial
  1
ByBlock
 72
     0
 73
     2
 43
0.0008202099737533
 43
0.0
 43
0.0
 43
0.0
 43
0.0
 43
0.0008202099737533
 43
0.0
 43
0.0
 43
0.0
 43
0.0
 43
1.0
 43
0.0
 43
0.0
 43
0.0
 43
0.0
 43
1.0
 77
     0
 78
     2
 47
0.0008202099737533
 47
0.0
 47
0.0
 47
0.0
 47
0.0
 47
0.0008202099737533
 47
0.0
 47
0.0
 47
0.0
 47
0.0
 47
1.0
 47
0.0
 47
0.0
 47
0.0
 47
0.0
 47
1.0
171
     0
172
     2
 49
0.0008202099737533
 49
0.0
 49
0.0
 49
0.0
 49
0.0
 49
0.0008202099737533
 49
0.0
 49
0.0
 49
0.0
 49
0.0
 49
1.0
 49
0.0
 49
0.0
 49
0.0
 49
0.0
 49
1.0
175
     0
176
     2
142
0.0008202099737533
142
0.0
142
0.0
142
0.0
142
0.0
142
0.0008202099737533
142
0.0
142
0.0
142
0.0
142
0.0
142
1.0
142
0.0
142
0.0
142
0.0
142
0.0
142
1.0
179
     0
270
     2
144
0.0008202099737533
144
0.0
144
0.0
144
0.0
144
0.0
144
0.0008202099737533
144
0.0
144
0.0
144
0.0
144
0.0
144
1.0
144
0.0
144
0.0
144
0.0
144
0.0
144
1.0
274
     2
147
0.0008202099737533
147
0.0
147
0.0
147
0.0
147
0.0
147
0.0008202099737533
147
0.0
147
0.0
147
0.0
147
0.0
147
1.0
147
0.0
147
0.0
147
0.0
147
0.0
147
1.0
  0
MATERIAL
  5
4A374
102
{ACAD_XDICTIONARY
360
4A375
102
}
102
{ACAD_REACTORS
330
84
102
}
330
84
100
AcDbMaterial
  1
ByLayer
 72
     0
 73
     2
 43
0.0008202099737533
 43
0.0
 43
0.0
 43
0.0
 43
0.0
 43
0.0008202099737533
 43
0.0
 43
0.0
 43
0.0
 43
0.0
 43
1.0
 43
0.0
 43
0.0
 43
0.0
 43
0.0
 43
1.0
 77
     0
 78
     2
 47
0.0008202099737533
 47
0.0
 47
0.0
 47
0.0
 47
0.0
 47
0.0008202099737533
 47
0.0
 47
0.0
 47
0.0
 47
0.0
 47
1.0
 47
0.0
 47
0.0
 47
0.0
 47
0.0
 47
1.0
171
     0
172
     2
 49
0.0008202099737533
 49
0.0
 49
0.0
 49
0.0
 49
0.0
 49
0.0008202099737533
 49
0.0
 49
0.0
 49
0.0
 49
0.0
 49
1.0
 49
0.0
 49
0.0
 49
0.0
 49
0.0
 49
1.0
175
     0
176
     2
142
0.0008202099737533
142
0.0
142
0.0
142
0.0
142
0.0
142
0.0008202099737533
142
0.0
142
0.0
142
0.0
142
0.0
142
1.0
142
0.0
142
0.0
142
0.0
142
0.0
142
1.0
179
     0
270
     2
144
0.0008202099737533
144
0.0
144
0.0
144
0.0
144
0.0
144
0.0008202099737533
144
0.0
144
0.0
144
0.0
144
0.0
144
1.0
144
0.0
144
0.0
144
0.0
144
0.0
144
1.0
274
     2
147
0.0008202099737533
147
0.0
147
0.0
147
0.0
147
0.0
147
0.0008202099737533
147
0.0
147
0.0
147
0.0
147
0.0
147
1.0
147
0.0
147
0.0
147
0.0
147
0.0
147
1.0
  0
MATERIAL
  5
4A384
102
{ACAD_XDICTIONARY
360
4A385
102
}
102
{ACAD_REACTORS
330
84
102
}
330
84
100
AcDbMaterial
  1
Global
 72
     0
 73
     2
 43
0.0008202099737533
 43
0.0
 43
0.0
 43
0.0
 43
0.0
 43
0.0008202099737533
 43
0.0
 43
0.0
 43
0.0
 43
0.0
 43
1.0
 43
0.0
 43
0.0
 43
0.0
 43
0.0
 43
1.0
 77
     0
 78
     2
 47
0.0008202099737533
 47
0.0
 47
0.0
 47
0.0
 47
0.0
 47
0.0008202099737533
 47
0.0
 47
0.0
 47
0.0
 47
0.0
 47
1.0
 47
0.0
 47
0.0
 47
0.0
 47
0.0
 47
1.0
171
     0
172
     2
 49
0.0008202099737533
 49
0.0
 49
0.0
 49
0.0
 49
0.0
 49
0.0008202099737533
 49
0.0
 49
0.0
 49
0.0
 49
0.0
 49
1.0
 49
0.0
 49
0.0
 49
0.0
 49
0.0
 49
1.0
175
     0
176
     2
142
0.0008202099737533
142
0.0
142
0.0
142
0.0
142
0.0
142
0.0008202099737533
142
0.0
142
0.0
142
0.0
142
0.0
142
1.0
142
0.0
142
0.0
142
0.0
142
0.0
142
1.0
179
     0
270
     2
144
0.0008202099737533
144
0.0
144
0.0
144
0.0
144
0.0
144
0.0008202099737533
144
0.0
144
0.0
144
0.0
144
0.0
144
1.0
144
0.0
144
0.0
144
0.0
144
0.0
144
1.0
274
     2
147
0.0008202099737533
147
0.0
147
0.0
147
0.0
147
0.0
147
0.0008202099737533
147
0.0
147
0.0
147
0.0
147
0.0
147
1.0
147
0.0
147
0.0
147
0.0
147
0.0
147
1.0
  0
MLEADERSTYLE
  5
4A3B8
102
{ACAD_XDICTIONARY
360
8C353
102
}
102
{ACAD_REACTORS
330
4A3B7
102
}
330
4A3B7
100
AcDbMLeaderStyle
170
     2
171
     1
172
     0
 90
        2
 40
0.0
 41
0.0
173
     1
 91
-1056964608
340
14
 92
       -2
290
     1
 42
2.0
291
     1
 43
0.36
  3
Standard
 44
4.0
300

342
11
174
     1
178
     6
175
     1
176
     0
 93
-1056964608
 45
4.0
292
     0
297
     0
 46
4.0
 94
-1056964608
 47
1.0
 49
1.0
140
1.0
293
     1
141
0.0
294
     1
177
     0
142
1.0
295
     0
296
     0
143
0.125
1001
ACAD_MLEADERVER
1070
     2
  0
MLINESTYLE
  5
18
102
{ACAD_REACTORS
330
17
102
}
330
17
100
AcDbMlineStyle
  2
STANDARD
 70
     0
  3

 62
   256
 51
90.0
 52
90.0
 71
     2
 49
0.5
 62
   256
  6
BYLAYER
 49
-0.5
 62
   256
  6
BYLAYER
  0
ACDBPLACEHOLDER
  5
F
102
{ACAD_REACTORS
330
E
102
}
330
E
  0
SCALE
  5
4A3A6
102
{ACAD_REACTORS
330
4A3A5
102
}
330
4A3A5
100
AcDbScale
 70
     0
300
1:1
140
1.0
141
1.0
290
     1
  0
SCALE
  5
4A3A7
102
{ACAD_REACTORS
330
4A3A5
102
}
330
4A3A5
100
AcDbScale
 70
     0
300
1:2
140
1.0
141
2.0
290
     0
  0
SCALE
  5
4A3A8
102
{ACAD_REACTORS
330
4A3A5
102
}
330
4A3A5
100
AcDbScale
 70
     0
300
1:4
140
1.0
141
4.0
290
     0
  0
SCALE
  5
4A3A9
102
{ACAD_REACTORS
330
4A3A5
102
}
330
4A3A5
100
AcDbScale
 70
     0
300
1:5
140
1.0
141
5.0
290
     0
  0
SCALE
  5
4A3AA
102
{ACAD_REACTORS
330
4A3A5
102
}
330
4A3A5
100
AcDbScale
 70
     0
300
1:8
140
1.0
141
8.0
290
     0
  0
SCALE
  5
4A3AB
102
{ACAD_REACTORS
330
4A3A5
102
}
330
4A3A5
100
AcDbScale
 70
     0
300
1:10
140
1.0
141
10.0
290
     0
  0
SCALE
  5
4A3AC
102
{ACAD_REACTORS
330
4A3A5
102
}
330
4A3A5
100
AcDbScale
 70
     0
300
1:16
140
1.0
141
16.0
290
     0
  0
SCALE
  5
4A3AD
102
{ACAD_REACTORS
330
4A3A5
102
}
330
4A3A5
100
AcDbScale
 70
     0
300
1:20
140
1.0
141
20.0
290
     0
  0
SCALE
  5
4A3AE
102
{ACAD_REACTORS
330
4A3A5
102
}
330
4A3A5
100
AcDbScale
 70
     0
300
1:30
140
1.0
141
30.0
290
     0
  0
SCALE
  5
4A3AF
102
{ACAD_REACTORS
330
4A3A5
102
}
330
4A3A5
100
AcDbScale
 70
     0
300
1:40
140
1.0
141
40.0
290
     0
  0
SCALE
  5
4A3B0
102
{ACAD_REACTORS
330
4A3A5
102
}
330
4A3A5
100
AcDbScale
 70
     0
300
1:50
140
1.0
141
50.0
290
     0
  0
SCALE
  5
4A3B1
102
{ACAD_REACTORS
330
4A3A5
102
}
330
4A3A5
100
AcDbScale
 70
     0
300
1:100
140
1.0
141
100.0
290
     0
  0
SCALE
  5
4A3B2
102
{ACAD_REACTORS
330
4A3A5
102
}
330
4A3A5
100
AcDbScale
 70
     0
300
2:1
140
2.0
141
1.0
290
     0
  0
SCALE
  5
4A3B3
102
{ACAD_REACTORS
330
4A3A5
102
}
330
4A3A5
100
AcDbScale
 70
     0
300
4:1
140
4.0
141
1.0
290
     0
  0
SCALE
  5
4A3B4
102
{ACAD_REACTORS
330
4A3A5
102
}
330
4A3A5
100
AcDbScale
 70
     0
300
8:1
140
8.0
141
1.0
290
     0
  0
SCALE
  5
4A3B5
102
{ACAD_REACTORS
330
4A3A5
102
}
330
4A3A5
100
AcDbScale
 70
     0
300
10:1
140
10.0
141
1.0
290
     0
  0
SCALE
  5
4A3B6
102
{ACAD_REACTORS
330
4A3A5
102
}
330
4A3A5
100
AcDbScale
 70
     0
300
100:1
140
100.0
141
1.0
290
     0
  0
ACDBSECTIONVIEWSTYLE
  5
4A3BA
102
{ACAD_XDICTIONARY
360
87B3E
102
}
102
{ACAD_REACTORS
330
4A3B9
102
}
330
4A3B9
100
AcDbModelDocViewStyle
 70
     0
  3
Metric50
290
     0
100
AcDbSectionViewStyle
 70
     0
 71
     0
 90
      102
 71
     1
340
11
 40
5.0
340
0
340
0
 40
5.0
300
I, O, Q, S, X, Z
 40
10.0
 90
        0
 40
2.5
 90
        0
 71
     2
340
16
 90
       25
340
16
 90
       50
 40
5.0
 40
2.5
 40
5.0
 71
     3
340
11
 40
5.0
 90
        0
 40
15.0
 90
        1
300
%<\AcVar ViewSectionStartId>%-%<\AcVar ViewSectionEndId>% (%<\AcVar ViewScale \f "%sn">%)
 71
     4
300
ANSI31
 40
1.0
 90
        0
290
     0
290
     0
 90
        6
 40
0.0
 40
1.570796326794896
 40
0.2617993877991494
 40
1.308996938995747
 40
-0.2617993877991494
 40
1.832595714594044
  0
TABLESTYLE
  5
A2
102
{ACAD_XDICTIONARY
360
4CD9A
102
}
102
{ACAD_REACTORS
330
A1
102
}
330
A1
100
AcDbTableStyle
  3
Standard
 70
     0
 71
     0
 40
1.5
 41
1.5
280
     0
281
     0
  7
Standard
140
4.5
170
     2
 62
     0
 63
   257
283
     0
274
    -2
284
     1
 64
     0
275
    -2
285
     1
 65
     0
276
    -2
286
     1
 66
     0
277
    -2
287
     1
 67
     0
278
    -2
288
     1
 68
     0
279
    -2
289
     1
 69
     0
  7
Standard
140
6.0
170
     5
 62
     0
 63
   257
283
     0
274
    -2
284
     1
 64
     0
275
    -2
285
     1
 65
     0
276
    -2
286
     1
 66
     0
277
    -2
287
     1
 67
     0
278
    -2
288
     1
 68
     0
279
    -2
289
     1
 69
     0
  7
Standard
140
4.5
170
     5
 62
     0
 63
   257
283
     0
274
    -2
284
     1
 64
     0
275
    -2
285
     1
 65
     0
276
    -2
286
     1
 66
     0
277
    -2
287
     1
 67
     0
278
    -2
288
     1
 68
     0
279
    -2
289
     1
 69
     0
  0
VISUALSTYLE
  5
4A392
102
{ACAD_XDICTIONARY
360
87B18
102
}
102
{ACAD_REACTORS
330
4A38C
102
}
330
4A38C
100
AcDbVisualStyle
  2

 70
     4
 71
     0
 72
     2
 73
     0
 90
        0
 40
-0.6
 41
-30.0
 62
     5
 63
     7
 74
     1
 91
        4
 64
     7
 65
   257
 75
     1
175
     1
 42
1.0
 92
        0
 66
   257
 43
1.0
 76
     1
 77
     6
 78
     2
 67
     7
 79
     5
170
     0
171
     0
290
     0
174
     0
 93
        1
 44
0.0
173
     0
291
     0
 45
0.0
1001
ACAD
1000
AcDbSavedByObjectVersion
1070
     0
  0
VISUALSTYLE
  5
4A391
102
{ACAD_XDICTIONARY
360
87B16
102
}
102
{ACAD_REACTORS
330
4A38C
102
}
330
4A38C
100
AcDbVisualStyle
  2

 70
     7
 71
     1
 72
     0
 73
     1
 90
        0
 40
-0.6
 41
-30.0
 62
     5
 63
     7
 74
     0
 91
        4
 64
     7
 65
   257
 75
     1
175
     1
 42
1.0
 92
        8
 66
     7
 43
1.0
 76
     1
 77
     6
 78
     2
 67
     7
 79
     5
170
     0
171
     0
290
     0
174
     0
 93
        1
 44
0.0
173
     0
291
     1
 45
0.0
1001
ACAD
1000
AcDbSavedByObjectVersion
1070
     0
  0
VISUALSTYLE
  5
4A398
102
{ACAD_XDICTIONARY
360
87B24
102
}
102
{ACAD_REACTORS
330
4A38C
102
}
330
4A38C
100
AcDbVisualStyle
  2

 70
    12
 71
     2
 72
     2
 73
     0
 90
        0
 40
-0.6
 41
-30.0
 62
     5
 63
     7
 74
     1
 91
        4
 64
     7
 65
   257
 75
     1
175
     1
 42
1.0
 92
        8
 66
     7
 43
1.0
 76
     1
 77
     6
 78
     2
 67
     7
 79
     5
170
     0
171
     0
290
     0
174
     0
 93
        1
 44
50.0
173
     0
291
     1
 45
0.0
1001
ACAD
1000
AcDbSavedByObjectVersion
1070
     0
  0
VISUALSTYLE
  5
4A39C
102
{ACAD_XDICTIONARY
360
87B2C
102
}
102
{ACAD_REACTORS
330
4A38C
102
}
330
4A38C
100
AcDbVisualStyle
  2

 70
    16
 71
     2
 72
     2
 73
     3
 90
        0
 40
-0.6
 41
-30.0
 62
     5
 63
     8
 74
     1
 91
        4
 64
     7
 65
   257
 75
     1
175
     1
 42
1.0
 92
        8
 66
     8
 43
1.0
 76
     1
 77
     6
 78
     2
 67
     7
 79
     5
170
     0
171
     0
290
     0
174
     0
 93
        1
 44
0.0
173
     0
291
     1
 45
0.0
1001
ACAD
1000
AcDbSavedByObjectVersion
1070
     0
  0
VISUALSTYLE
  5
4A395
102
{ACAD_XDICTIONARY
360
87B1E
102
}
102
{ACAD_REACTORS
330
4A38C
102
}
330
4A38C
100
AcDbVisualStyle
  2

 70
     9
 71
     3
 72
     2
 73
     0
 90
        0
 40
-0.6
 41
-30.0
 62
     5
 63
     7
 74
     2
 91
        2
 64
     7
 65
   257
 75
     1
175
     1
 42
179.0
 92
        8
 66
     7
 43
1.0
 76
     1
 77
     6
 78
     2
 67
     7
 79
     3
170
     0
171
     0
290
     0
174
     0
 93
        1
 44
0.0
173
     0
291
     0
 45
0.0
1001
ACAD
1000
AcDbSavedByObjectVersion
1070
     0
  0
VISUALSTYLE
  5
4A397
102
{ACAD_XDICTIONARY
360
87B22
102
}
102
{ACAD_REACTORS
330
4A38C
102
}
330
4A38C
100
AcDbVisualStyle
  2

 70
    11
 71
     2
 72
     2
 73
     0
 90
        0
 40
-0.6
 41
-30.0
 62
     5
 63
     7
 74
     1
 91
        4
 64
     7
 65
   257
 75
     1
175
     1
 42
1.0
 92
        8
 66
     7
 43
1.0
 76
     1
 77
     6
 78
     2
 67
     7
 79
     5
170
     0
171
     0
290
     0
174
     0
 93
        1
 44
-50.0
173
     0
291
     1
 45
0.0
1001
ACAD
1000
AcDbSavedByObjectVersion
1070
     0
  0
VISUALSTYLE
  5
4A3A4
102
{ACAD_XDICTIONARY
360
87B3C
102
}
102
{ACAD_REACTORS
330
4A38C
102
}
330
4A38C
100
AcDbVisualStyle
  2

 70
    22
 71
     2
 72
     2
 73
     0
 90
        0
 40
-0.6
 41
-30.0
 62
     5
 63
     7
 74
     1
 91
        4
 64
     7
 65
   257
 75
     1
175
     1
 42
1.0
 92
        8
 66
     7
 43
1.0
 76
     1
 77
     6
 78
     2
 67
     7
 79
     5
170
     0
171
     0
290
     0
174
     0
 93
        1
 44
0.0
173
     0
291
     1
 45
0.0
1001
ACAD
1000
AcDbSavedByObjectVersion
1070
     0
  0
VISUALSTYLE
  5
4A39B
102
{ACAD_XDICTIONARY
360
87B2A
102
}
102
{ACAD_REACTORS
330
4A38C
102
}
330
4A38C
100
AcDbVisualStyle
  2

 70
    15
 71
     2
 72
     2
 73
     0
 90
        0
 40
-0.6
 41
-30.0
 62
     5
 63
     7
 74
     1
 91
        4
 64
     7
 65
   257
 75
     1
175
     1
 42
1.0
 92
        8
 66
     7
 43
1.0
 76
     1
 77
     6
 78
     2
 67
     7
 79
     5
170
     0
171
     0
290
     0
174
     0
 93
        1
 44
0.0
173
     0
291
     1
 45
0.0
1001
ACAD
1000
AcDbSavedByObjectVersion
1070
     0
  0
VISUALSTYLE
  5
4A38D
102
{ACAD_XDICTIONARY
360
87B0E
102
}
102
{ACAD_REACTORS
330
4A38C
102
}
330
4A38C
100
AcDbVisualStyle
  2

 70
     0
 71
     2
 72
     1
 73
     1
 90
        2
 40
-0.6
 41
30.0
 62
     5
 63
     7
 74
     0
 91
        0
 64
     7
 65
   257
 75
     1
175
     1
 42
1.0
 92
        8
 66
     7
 43
1.0
 76
     1
 77
     6
 78
     2
 67
     7
 79
     5
170
     0
171
     0
290
     0
174
     0
 93
       13
 44
0.0
173
     0
291
     1
 45
0.0
1001
ACAD
1000
AcDbSavedByObjectVersion
1070
     0
  0
VISUALSTYLE
  5
4A38E
102
{ACAD_XDICTIONARY
360
87B10
102
}
102
{ACAD_REACTORS
330
4A38C
102
}
330
4A38C
100
AcDbVisualStyle
  2

 70
     1
 71
     2
 72
     1
 73
     1
 90
        2
 40
-0.6
 41
30.0
 62
     5
 63
     7
 74
     1
 91
        0
 64
     7
 65
   257
 75
     1
175
     1
 42
1.0
 92
        0
 66
   257
 43
1.0
 76
     1
 77
     6
 78
     2
 67
     7
 79
     5
170
     0
171
     0
290
     0
174
     0
 93
       13
 44
0.0
173
     0
291
     1
 45
0.0
1001
ACAD
1000
AcDbSavedByObjectVersion
1070
     0
  0
VISUALSTYLE
  5
4A38F
102
{ACAD_XDICTIONARY
360
87B12
102
}
102
{ACAD_REACTORS
330
4A38C
102
}
330
4A38C
100
AcDbVisualStyle
  2

 70
     2
 71
     2
 72
     2
 73
     1
 90
        2
 40
-0.6
 41
30.0
 62
     5
 63
     7
 74
     0
 91
        0
 64
     7
 65
   257
 75
     1
175
     1
 42
1.0
 92
        0
 66
     7
 43
1.0
 76
     1
 77
     6
 78
     2
 67
     7
 79
     5
170
     0
171
     0
290
     0
174
     0
 93
       13
 44
0.0
173
     0
291
     1
 45
0.0
1001
ACAD
1000
AcDbSavedByObjectVersion
1070
     0
  0
VISUALSTYLE
  5
4A390
102
{ACAD_XDICTIONARY
360
87B14
102
}
102
{ACAD_REACTORS
330
4A38C
102
}
330
4A38C
100
AcDbVisualStyle
  2

 70
     3
 71
     2
 72
     2
 73
     1
 90
        2
 40
-0.6
 41
30.0
 62
     5
 63
     7
 74
     1
 91
        0
 64
     7
 65
   257
 75
     1
175
     1
 42
1.0
 92
        0
 66
   257
 43
1.0
 76
     1
 77
     6
 78
     2
 67
     7
 79
     5
170
     0
171
     0
290
     0
174
     0
 93
       13
 44
0.0
173
     0
291
     1
 45
0.0
1001
ACAD
1000
AcDbSavedByObjectVersion
1070
     0
  0
VISUALSTYLE
  5
4A394
102
{ACAD_XDICTIONARY
360
87B1C
102
}
102
{ACAD_REACTORS
330
4A38C
102
}
330
4A38C
100
AcDbVisualStyle
  2

 70
     6
 71
     1
 72
     2
 73
     2
 90
        0
 40
-0.6
 41
-30.0
 62
     5
 63
     7
 74
     2
 91
        2
 64
     7
 65
   257
 75
     2
175
     1
 42
40.0
 92
        0
 66
   257
 43
1.0
 76
     1
 77
     6
 78
     2
 67
     7
 79
     3
170
     0
171
     0
290
     0
174
     0
 93
        1
 44
0.0
173
     0
291
     0
 45
0.0
1001
ACAD
1000
AcDbSavedByObjectVersion
1070
     0
  0
VISUALSTYLE
  5
4A3A2
102
{ACAD_XDICTIONARY
360
87B38
102
}
102
{ACAD_REACTORS
330
4A38C
102
}
330
4A38C
100
AcDbVisualStyle
  2

 70
    20
 71
     2
 72
     2
 73
     0
 90
        0
 40
-0.6
 41
-30.0
 62
     5
 63
     7
 74
     1
 91
        4
 64
     7
 65
   257
 75
     1
175
     1
 42
1.0
 92
       10
 66
     7
 43
1.0
 76
     1
 77
     6
 78
     2
 67
     7
 79
     5
170
     0
171
     0
290
     0
174
     0
 93
        1
 44
0.0
173
     0
291
     1
 45
0.0
1001
ACAD
1000
AcDbSavedByObjectVersion
1070
     0
  0
VISUALSTYLE
  5
4A39A
102
{ACAD_XDICTIONARY
360
87B28
102
}
102
{ACAD_REACTORS
330
4A38C
102
}
330
4A38C
100
AcDbVisualStyle
  2

 70
    14
 71
     2
 72
     2
 73
     0
 90
        0
 40
-0.6
 41
-30.0
 62
     5
 63
     7
 74
     1
 91
        4
 64
     7
 65
   257
 75
     7
175
     7
 42
1.0
 92
        8
 66
     7
 43
1.0
 76
     1
 77
     6
 78
     2
 67
     7
 79
     5
170
     0
171
     0
290
     0
174
     0
 93
        1
 44
0.0
173
     0
291
     1
 45
0.0
1001
ACAD
1000
AcDbSavedByObjectVersion
1070
     0
  0
VISUALSTYLE
  5
4A3A3
102
{ACAD_XDICTIONARY
360
87B3A
102
}
102
{ACAD_REACTORS
330
4A38C
102
}
330
4A38C
100
AcDbVisualStyle
  2

 70
    21
 71
     2
 72
     2
 73
     0
 90
        0
 40
-0.6
 41
-30.0
 62
     5
 63
     7
 74
     1
 91
        4
 64
     7
 65
   257
 75
     1
175
     1
 42
1.0
 92
        9
 66
     7
 43
1.0
 76
     1
 77
     6
 78
     2
 67
     7
 79
     5
170
     0
171
     0
290
     0
174
     0
 93
        1
 44
0.0
173
     0
291
     1
 45
0.0
1001
ACAD
1000
AcDbSavedByObjectVersion
1070
     0
  0
VISUALSTYLE
  5
4A396
102
{ACAD_XDICTIONARY
360
87B20
102
}
102
{ACAD_REACTORS
330
4A38C
102
}
330
4A38C
100
AcDbVisualStyle
  2

 70
     8
 71
     2
 72
     3
 73
     0
 90
        2
 40
-0.6
 41
30.0
 62
     5
 63
     7
 74
     0
 91
        0
 64
     7
 65
   257
 75
     1
175
     1
 42
1.0
 92
        8
 66
   257
 43
1.0
 76
     1
 77
     6
 78
     2
 67
     7
 79
     3
170
     0
171
     0
290
     0
174
     0
 93
       13
 44
0.0
173
     0
291
     0
 45
0.0
1001
ACAD
1000
AcDbSavedByObjectVersion
1070
     0
  0
VISUALSTYLE
  5
4A3A1
102
{ACAD_XDICTIONARY
360
87B36
102
}
102
{ACAD_REACTORS
330
4A38C
102
}
330
4A38C
100
AcDbVisualStyle
  2

 70
    27
 71
     2
 72
     2
 73
     1
 90
        2
 40
-0.6
 41
30.0
 62
     5
 63
     7
 74
     0
 91
        4
 64
     7
 65
   257
 75
     1
175
     1
 42
1.0
 92
        8
 66
   257
 43
1.0
 76
     1
 77
     6
 78
     2
 67
     8
 79
     3
170
     0
171
     0
290
     0
174
     0
 93
        5
 44
0.0
173
     0
291
     0
 45
0.0
1001
ACAD
1000
AcDbSavedByObjectVersion
1070
     0
  0
VISUALSTYLE
  5
4A3A0
102
{ACAD_XDICTIONARY
360
87B34
102
}
102
{ACAD_REACTORS
330
4A38C
102
}
330
4A38C
100
AcDbVisualStyle
  2

 70
    26
 71
     2
 72
     2
 73
     1
 90
        2
 40
-0.6
 41
30.0
 62
     5
 63
     7
 74
     1
 91
        2
 64
     7
 65
   257
 75
     2
175
     1
 42
1.0
 92
        8
 66
   257
 43
1.0
 76
     1
 77
     6
 78
     2
 67
     7
 79
     3
170
     0
171
     0
290
     0
174
     0
 93
        5
 44
0.0
173
     0
291
     0
 45
0.0
1001
ACAD
1000
AcDbSavedByObjectVersion
1070
     0
  0
VISUALSTYLE
  5
4A39D
102
{ACAD_XDICTIONARY
360
87B2E
102
}
102
{ACAD_REACTORS
330
4A38C
102
}
330
4A38C
100
AcDbVisualStyle
  2

 70
    23
 71
     2
 72
     2
 73
     3
 90
        0
 40
-0.6
 41
-30.0
 62
     5
 63
     7
 74
     2
 91
        2
 64
     7
 65
     7
 75
     1
175
     1
 42
40.0
 92
        8
 66
     7
 43
1.0
 76
     1
 77
     6
 78
     2
 67
     7
 79
     3
170
     0
171
     0
290
     0
174
     0
 93
        1
 44
0.0
173
     0
291
     0
 45
0.0
1001
ACAD
1000
AcDbSavedByObjectVersion
1070
     0
  0
VISUALSTYLE
  5
4A39E
102
{ACAD_XDICTIONARY
360
87B30
102
}
102
{ACAD_REACTORS
330
4A38C
102
}
330
4A38C
100
AcDbVisualStyle
  2

 70
    24
 71
     1
 72
     2
 73
     2
 90
        0
 40
-0.6
 41
-30.0
 62
     5
 63
     7
 74
     2
 91
        2
 64
     7
 65
     7
 75
     1
175
     1
 42
40.0
 92
       11
 66
     7
 43
1.0
 76
     1
 77
     6
 78
     2
 67
     7
 79
     6
170
     0
171
     0
290
     0
174
     0
 93
        1
 44
0.0
173
     0
291
     0
 45
0.0
1001
ACAD
1000
AcDbSavedByObjectVersion
1070
     0
  0
VISUALSTYLE
  5
4A399
102
{ACAD_XDICTIONARY
360
87B26
102
}
102
{ACAD_REACTORS
330
4A38C
102
}
330
4A38C
100
AcDbVisualStyle
  2

 70
    13
 71
     2
 72
     2
 73
     0
 90
        0
 40
-0.6
 41
-30.0
 62
     5
 63
     7
 74
     1
 91
        4
 64
     7
 65
   257
 75
     1
175
     1
 42
1.0
 92
       12
 66
     7
 43
1.0
 76
     1
 77
     6
 78
     2
 67
     7
 79
     5
170
     0
171
     0
290
     0
174
     0
 93
        1
 44
0.0
173
     0
291
     1
 45
0.0
1001
ACAD
1000
AcDbSavedByObjectVersion
1070
     0
  0
VISUALSTYLE
  5
4A393
102
{ACAD_XDICTIONARY
360
87B1A
102
}
102
{ACAD_REACTORS
330
4A38C
102
}
330
4A38C
100
AcDbVisualStyle
  2

 70
     5
 71
     0
 72
     2
 73
     0
 90
        0
 40
-0.6
 41
-30.0
 62
     5
 63
     7
 74
     1
 91
        4
 64
     7
 65
   257
 75
     1
175
     1
 42
1.0
 92
        0
 66
   257
 43
1.0
 76
     1
 77
     6
 78
     2
 67
     7
 79
     3
170
     0
171
     0
290
     0
174
     0
 93
        1
 44
0.0
173
     0
291
     0
 45
0.0
1001
ACAD
1000
AcDbSavedByObjectVersion
1070
     0
  0
VISUALSTYLE
  5
4A39F
102
{ACAD_XDICTIONARY
360
87B32
102
}
102
{ACAD_REACTORS
330
4A38C
102
}
330
4A38C
100
AcDbVisualStyle
  2

 70
    25
 71
     2
 72
     2
 73
     1
 90
        1
 40
0.5
 41
-30.0
 62
     5
 63
     7
 74
     1
 91
        0
 64
     7
 65
   257
 75
     1
175
     1
 42
1.0
 92
        8
 66
     7
 43
1.0
 76
     1
 77
     6
 78
     2
 67
     7
 79
     3
170
     0
171
     0
290
     0
174
     0
 93
       13
 44
0.0
173
     0
291
     0
 45
0.0
1001
ACAD
1000
AcDbSavedByObjectVersion
1070
     0
  0
XRECORD
  5
91C1C
102
{ACAD_REACTORS
330
91C1B
102
}
330
91C1B
100
AcDbXrecord
280
     1
340
85
  0
XRECORD
  5
91C1D
102
{ACAD_REACTORS
330
91C1B
102
}
330
91C1B
100
AcDbXrecord
280
     1
340
84
  0
DICTIONARYVAR
  5
91C1A
102
{ACAD_REACTORS
330
5E
102
}
330
5E
100
DictionaryVariables
280
   100
  1
1:1
  0
DICTIONARYVAR
  5
4A6CE
102
{ACAD_REACTORS
330
5E
102
}
330
5E
100
DictionaryVariables
280
     0
  1
STANDARD
  0
DICTIONARYVAR
  5
B8
102
{ACAD_REACTORS
330
5E
102
}
330
5E
100
DictionaryVariables
280
     0
  1
STANDARD
  0
DICTIONARYVAR
  5
4A6CF
102
{ACAD_REACTORS
330
5E
102
}
330
5E
100
DictionaryVariables
280
     0
  1
Metric50
  0
DICTIONARYVAR
  5
4A6D0
102
{ACAD_REACTORS
330
5E
102
}
330
5E
100
DictionaryVariables
280
     0
  1
Metric50
  0
DICTIONARYVAR
  5
5F
102
{ACAD_REACTORS
330
5E
102
}
330
5E
100
DictionaryVariables
280
     0
  1
2
  0
DICTIONARYVAR
  5
63
102
{ACAD_REACTORS
330
5E
102
}
330
5E
100
DictionaryVariables
280
     0
  1
1
  0
DICTIONARYVAR
  5
4A879
102
{ACAD_REACTORS
330
5E
102
}
330
5E
100
DictionaryVariables
280
     0
  1
0
  0
DICTIONARYVAR
  5
4A6D4
102
{ACAD_REACTORS
330
5E
102
}
330
5E
100
DictionaryVariables
280
     0
  1
1
  0
DICTIONARYVAR
  5
4A6D5
102
{ACAD_REACTORS
330
5E
102
}
330
5E
100
DictionaryVariables
280
     0
  1
15
  0
DICTIONARYVAR
  5
4A6D3
102
{ACAD_REACTORS
330
5E
102
}
330
5E
100
DictionaryVariables
280
     0
  1
0
  0
DICTIONARYVAR
  5
4A6D1
102
{ACAD_REACTORS
330
5E
102
}
330
5E
100
DictionaryVariables
280
     0
  1
0
  0
DICTIONARYVAR
  5
31CE
102
{ACAD_REACTORS
330
5E
102
}
330
5E
100
DictionaryVariables
280
     0
  1

  0
DICTIONARYVAR
  5
4A878
102
{ACAD_REACTORS
330
5E
102
}
330
5E
100
DictionaryVariables
280
     0
  1
127
  0
DICTIONARYVAR
  5
87AF9
102
{ACAD_REACTORS
330
5E
102
}
330
5E
100
DictionaryVariables
280
     0
  1
2
  0
XRECORD
  5
349EA
102
{ACAD_REACTORS
330
349E9
102
}
330
349E9
100
AcDbXrecord
280
     1
330
0
330
0
330
0
330
0
330
0
330
0
330
0
330
0
330
0
330
0
330
0
330
0
330
0
330
0
330
0
330
0
330
0
330
0
330
0
330
0
330
0
330
0
330
0
330
0
330
0
330
0
330
0
330
0
330
0
330
0
330
0
330
0
330
0
330
0
330
0
330
0
330
0
330
0
330
0
330
0
330
0
330
0
330
0
330
0
330
0
330
0
330
0
330
0
330
0
330
0
330
0
330
0
330
0
330
0
330
0
330
0
330
0
330
0
330
0
330
0
330
0
330
0
330
0
330
0
330
0
330
0
330
0
330
0
330
0
330
0
330
0
330
0
330
0
330
0
330
0
330
0
330
0
330
0
330
0
330
0
330
0
330
0
330
0
330
0
330
0
330
0
330
0
330
0
330
0
330
0
330
0
330
0
330
0
330
0
330
0
330
0
330
0
330
0
330
0
330
0
330
0
330
0
330
0
330
0
330
0
330
0
330
0
330
0
330
0
330
0
  0
DICTIONARY
  5
87B40
330
4A3BC
100
AcDbDictionary
280
     1
281
     1
  3
ACAD_XREC_ROUNDTRIP
360
87B41
  0
DICTIONARY
  5
4A37D
330
4A37C
100
AcDbDictionary
280
     1
281
     1
  3
ACAD_XREC_ROUNDTRIP
360
91C28
  0
DICTIONARY
  5
4A375
330
4A374
100
AcDbDictionary
280
     1
281
     1
  3
ACAD_XREC_ROUNDTRIP
360
91C29
  0
DICTIONARY
  5
4A385
330
4A384
100
AcDbDictionary
280
     1
281
     1
  3
ACAD_XREC_ROUNDTRIP
360
91C2A
  0
DICTIONARY
  5
8C353
330
4A3B8
100
AcDbDictionary
280
     1
281
     1
  3
ACAD_XREC_ROUNDTRIP
360
91C2B
  0
DICTIONARY
  5
87B3E
330
4A3BA
100
AcDbDictionary
280
     1
281
     1
  3
ACAD_XREC_ROUNDTRIP
360
87B3F
  0
DICTIONARY
  5
4CD9A
330
A2
100
AcDbDictionary
280
     1
281
     1
  3
ACAD_ROUNDTRIP_2008_TABLESTYLE_CELLSTYLEMAP
360
91C2D
  3
ACAD_XREC_ROUNDTRIP
360
91C2C
  0
DICTIONARY
  5
87B18
330
4A392
100
AcDbDictionary
280
     1
281
     1
  3
ACAD_XREC_ROUNDTRIP
360
91C2E
  0
DICTIONARY
  5
87B16
330
4A391
100
AcDbDictionary
280
     1
281
     1
  3
ACAD_XREC_ROUNDTRIP
360
91C2F
  0
DICTIONARY
  5
87B24
330
4A398
100
AcDbDictionary
280
     1
281
     1
  3
ACAD_XREC_ROUNDTRIP
360
91C30
  0
DICTIONARY
  5
87B2C
330
4A39C
100
AcDbDictionary
280
     1
281
     1
  3
ACAD_XREC_ROUNDTRIP
360
91C31
  0
DICTIONARY
  5
87B1E
330
4A395
100
AcDbDictionary
280
     1
281
     1
  3
ACAD_XREC_ROUNDTRIP
360
91C32
  0
DICTIONARY
  5
87B22
330
4A397
100
AcDbDictionary
280
     1
281
     1
  3
ACAD_XREC_ROUNDTRIP
360
91C33
  0
DICTIONARY
  5
87B3C
330
4A3A4
100
AcDbDictionary
280
     1
281
     1
  3
ACAD_XREC_ROUNDTRIP
360
91C34
  0
DICTIONARY
  5
87B2A
330
4A39B
100
AcDbDictionary
280
     1
281
     1
  3
ACAD_XREC_ROUNDTRIP
360
91C35
  0
DICTIONARY
  5
87B0E
330
4A38D
100
AcDbDictionary
280
     1
281
     1
  3
ACAD_XREC_ROUNDTRIP
360
91C36
  0
DICTIONARY
  5
87B10
330
4A38E
100
AcDbDictionary
280
     1
281
     1
  3
ACAD_XREC_ROUNDTRIP
360
91C37
  0
DICTIONARY
  5
87B12
330
4A38F
100
AcDbDictionary
280
     1
281
     1
  3
ACAD_XREC_ROUNDTRIP
360
91C38
  0
DICTIONARY
  5
87B14
330
4A390
100
AcDbDictionary
280
     1
281
     1
  3
ACAD_XREC_ROUNDTRIP
360
91C39
  0
DICTIONARY
  5
87B1C
330
4A394
100
AcDbDictionary
280
     1
281
     1
  3
ACAD_XREC_ROUNDTRIP
360
91C3A
  0
DICTIONARY
  5
87B38
330
4A3A2
100
AcDbDictionary
280
     1
281
     1
  3
ACAD_XREC_ROUNDTRIP
360
91C3B
  0
DICTIONARY
  5
87B28
330
4A39A
100
AcDbDictionary
280
     1
281
     1
  3
ACAD_XREC_ROUNDTRIP
360
91C3C
  0
DICTIONARY
  5
87B3A
330
4A3A3
100
AcDbDictionary
280
     1
281
     1
  3
ACAD_XREC_ROUNDTRIP
360
91C3D
  0
DICTIONARY
  5
87B20
330
4A396
100
AcDbDictionary
280
     1
281
     1
  3
ACAD_XREC_ROUNDTRIP
360
91C3E
  0
DICTIONARY
  5
87B36
330
4A3A1
100
AcDbDictionary
280
     1
281
     1
  3
ACAD_XREC_ROUNDTRIP
360
91C3F
  0
DICTIONARY
  5
87B34
330
4A3A0
100
AcDbDictionary
280
     1
281
     1
  3
ACAD_XREC_ROUNDTRIP
360
91C40
  0
DICTIONARY
  5
87B2E
330
4A39D
100
AcDbDictionary
280
     1
281
     1
  3
ACAD_XREC_ROUNDTRIP
360
91C41
  0
DICTIONARY
  5
87B30
330
4A39E
100
AcDbDictionary
280
     1
281
     1
  3
ACAD_XREC_ROUNDTRIP
360
91C42
  0
DICTIONARY
  5
87B26
330
4A399
100
AcDbDictionary
280
     1
281
     1
  3
ACAD_XREC_ROUNDTRIP
360
91C43
  0
DICTIONARY
  5
87B1A
330
4A393
100
AcDbDictionary
280
     1
281
     1
  3
ACAD_XREC_ROUNDTRIP
360
91C44
  0
DICTIONARY
  5
87B32
330
4A39F
100
AcDbDictionary
280
     1
281
     1
  3
ACAD_XREC_ROUNDTRIP
360
91C45
  0
XRECORD
  5
87B41
102
{ACAD_REACTORS
330
87B40
102
}
330
87B40
100
AcDbXrecord
280
     1
102
DISPLAYNAME
  1
Metric50
102
FLAGS
 90
        0
  0
XRECORD
  5
91C28
102
{ACAD_REACTORS
330
4A37D
102
}
330
4A37D
100
AcDbXrecord
280
     1
102
MATERIAL
148
0.0
149
0.0
149
0.0
 93
        0
 94
      127
282
     0
 72
     0
 77
     0
171
     0
175
     0
179
     0
273
     0
  0
XRECORD
  5
91C29
102
{ACAD_REACTORS
330
4A375
102
}
330
4A375
100
AcDbXrecord
280
     1
102
MATERIAL
148
0.0
149
0.0
149
0.0
 93
        0
 94
      127
282
     0
 72
     0
 77
     0
171
     0
175
     0
179
     0
273
     0
  0
XRECORD
  5
91C2A
102
{ACAD_REACTORS
330
4A385
102
}
330
4A385
100
AcDbXrecord
280
     1
102
MATERIAL
148
0.0
149
0.0
149
0.0
 93
        0
 94
      127
282
     0
 72
     0
 77
     0
171
     0
175
     0
179
     0
273
     0
  0
XRECORD
  5
91C2B
102
{ACAD_REACTORS
330
8C353
102
}
330
8C353
100
AcDbXrecord
280
     1
102
ACAD_ROUNDTRIP_2010_MLEADER_STYLE
  0
XRECORD
  5
87B3F
102
{ACAD_REACTORS
330
87B3E
102
}
330
87B3E
100
AcDbXrecord
280
     1
102
DISPLAYNAME
  1
Metric50
102
FLAGS
 90
        0
  0
CELLSTYLEMAP
  5
91C2D
102
{ACAD_REACTORS
330
4CD9A
102
}
330
4CD9A
100
AcDbCellStyleMap
 90
        3
300
CELLSTYLE
  1
TABLEFORMAT_BEGIN
 90
        5
170
     1
 91
        0
 92
    32768
 62
   257
 93
        1
300
CONTENTFORMAT
  1
CONTENTFORMAT_BEGIN
 90
        0
 91
        0
 92
        4
 93
        0
300

 40
0.0
140
1.0
 94
        5
 62
     0
340
11
144
6.0
309
CONTENTFORMAT_END
171
     1
301
MARGIN
  1
CELLMARGIN_BEGIN
 40
1.5
 40
1.5
 40
1.5
 40
1.5
 40
0.18
 40
0.18
309
CELLMARGIN_END
 94
        6
 95
        1
302
GRIDFORMAT
  1
GRIDFORMAT_BEGIN
 90
        0
 91
        1
 62
     0
 92
       -2
340
0
 93
        0
 40
0.045
309
GRIDFORMAT_END
 95
        2
302
GRIDFORMAT
  1
GRIDFORMAT_BEGIN
 90
        0
 91
        1
 62
     0
 92
       -2
340
0
 93
        0
 40
0.045
309
GRIDFORMAT_END
 95
        4
302
GRIDFORMAT
  1
GRIDFORMAT_BEGIN
 90
        0
 91
        1
 62
     0
 92
       -2
340
0
 93
        0
 40
0.045
309
GRIDFORMAT_END
 95
        8
302
GRIDFORMAT
  1
GRIDFORMAT_BEGIN
 90
        0
 91
        1
 62
     0
 92
       -2
340
0
 93
        0
 40
0.045
309
GRIDFORMAT_END
 95
       16
302
GRIDFORMAT
  1
GRIDFORMAT_BEGIN
 90
        0
 91
        1
 62
     0
 92
       -2
340
0
 93
        0
 40
0.045
309
GRIDFORMAT_END
 95
       32
302
GRIDFORMAT
  1
GRIDFORMAT_BEGIN
 90
        0
 91
        1
 62
     0
 92
       -2
340
0
 93
        0
 40
0.045
309
GRIDFORMAT_END
309
TABLEFORMAT_END
  1
CELLSTYLE_BEGIN
 90
        1
 91
        1
300
_TITLE
309
CELLSTYLE_END
300
CELLSTYLE
  1
TABLEFORMAT_BEGIN
 90
        5
170
     1
 91
        0
 92
        0
 62
   257
 93
        1
300
CONTENTFORMAT
  1
CONTENTFORMAT_BEGIN
 90
        0
 91
        0
 92
        4
 93
        0
300

 40
0.0
140
1.0
 94
        5
 62
     0
340
11
144
4.5
309
CONTENTFORMAT_END
171
     1
301
MARGIN
  1
CELLMARGIN_BEGIN
 40
1.5
 40
1.5
 40
1.5
 40
1.5
 40
0.18
 40
0.18
309
CELLMARGIN_END
 94
        6
 95
        1
302
GRIDFORMAT
  1
GRIDFORMAT_BEGIN
 90
        0
 91
        1
 62
     0
 92
       -2
340
0
 93
        0
 40
0.045
309
GRIDFORMAT_END
 95
        2
302
GRIDFORMAT
  1
GRIDFORMAT_BEGIN
 90
        0
 91
        1
 62
     0
 92
       -2
340
0
 93
        0
 40
0.045
309
GRIDFORMAT_END
 95
        4
302
GRIDFORMAT
  1
GRIDFORMAT_BEGIN
 90
        0
 91
        1
 62
     0
 92
       -2
340
0
 93
        0
 40
0.045
309
GRIDFORMAT_END
 95
        8
302
GRIDFORMAT
  1
GRIDFORMAT_BEGIN
 90
        0
 91
        1
 62
     0
 92
       -2
340
0
 93
        0
 40
0.045
309
GRIDFORMAT_END
 95
       16
302
GRIDFORMAT
  1
GRIDFORMAT_BEGIN
 90
        0
 91
        1
 62
     0
 92
       -2
340
0
 93
        0
 40
0.045
309
GRIDFORMAT_END
 95
       32
302
GRIDFORMAT
  1
GRIDFORMAT_BEGIN
 90
        0
 91
        1
 62
     0
 92
       -2
340
0
 93
        0
 40
0.045
309
GRIDFORMAT_END
309
TABLEFORMAT_END
  1
CELLSTYLE_BEGIN
 90
        2
 91
        1
300
_HEADER
309
CELLSTYLE_END
300
CELLSTYLE
  1
TABLEFORMAT_BEGIN
 90
        5
170
     1
 91
        0
 92
        0
 62
   257
 93
        1
300
CONTENTFORMAT
  1
CONTENTFORMAT_BEGIN
 90
        0
 91
        0
 92
        4
 93
        0
300

 40
0.0
140
1.0
 94
        2
 62
     0
340
11
144
4.5
309
CONTENTFORMAT_END
171
     1
301
MARGIN
  1
CELLMARGIN_BEGIN
 40
1.5
 40
1.5
 40
1.5
 40
1.5
 40
0.18
 40
0.18
309
CELLMARGIN_END
 94
        6
 95
        1
302
GRIDFORMAT
  1
GRIDFORMAT_BEGIN
 90
        0
 91
        1
 62
     0
 92
       -2
340
0
 93
        0
 40
0.045
309
GRIDFORMAT_END
 95
        2
302
GRIDFORMAT
  1
GRIDFORMAT_BEGIN
 90
        0
 91
        1
 62
     0
 92
       -2
340
0
 93
        0
 40
0.045
309
GRIDFORMAT_END
 95
        4
302
GRIDFORMAT
  1
GRIDFORMAT_BEGIN
 90
        0
 91
        1
 62
     0
 92
       -2
340
0
 93
        0
 40
0.045
309
GRIDFORMAT_END
 95
        8
302
GRIDFORMAT
  1
GRIDFORMAT_BEGIN
 90
        0
 91
        1
 62
     0
 92
       -2
340
0
 93
        0
 40
0.045
309
GRIDFORMAT_END
 95
       16
302
GRIDFORMAT
  1
GRIDFORMAT_BEGIN
 90
        0
 91
        1
 62
     0
 92
       -2
340
0
 93
        0
 40
0.045
309
GRIDFORMAT_END
 95
       32
302
GRIDFORMAT
  1
GRIDFORMAT_BEGIN
 90
        0
 91
        1
 62
     0
 92
       -2
340
0
 93
        0
 40
0.045
309
GRIDFORMAT_END
309
TABLEFORMAT_END
  1
CELLSTYLE_BEGIN
 90
        3
 91
        2
300
_DATA
309
CELLSTYLE_END
  0
XRECORD
  5
91C2C
102
{ACAD_REACTORS
330
4CD9A
102
}
330
4CD9A
100
AcDbXrecord
280
     1
102
ACAD_ROUNDTRIP_PRE2007_TABLESTYLE
 90
        4
 91
        0
  1

 92
        4
 93
        0
  2

 94
        4
 95
        0
  3

  0
XRECORD
  5
91C2E
102
{ACAD_REACTORS
330
87B18
102
}
330
87B18
100
AcDbXrecord
280
     1
102
RTVSPropertyOp0
 70
     1
102
RTVSPropertyOp1
 70
     1
102
RTVSPropertyOp2
 70
     1
102
RTVSPropertyOp3
 70
     1
102
RTVSPropertyOp4
 70
     1
102
RTVSPropertyOp5
 70
     1
102
RTVSPropertyOp6
 70
     1
102
RTVSPropertyOp7
 70
     1
102
RTVSPropertyOp8
 70
     1
102
RTVSPropertyOp9
 70
     1
102
RTVSPropertyOp10
 70
     1
102
RTVSPropertyOp11
 70
     1
102
RTVSPropertyOp12
 70
     1
102
RTVSPropertyOp13
 70
     1
102
RTVSPropertyOp14
 70
     1
102
RTVSPropertyOp15
 70
     1
102
RTVSPropertyOp16
 70
     1
102
RTVSPropertyOp17
 70
     1
102
RTVSPropertyOp18
 70
     1
102
RTVSPropertyOp19
 70
     1
102
RTVSPropertyOp20
 70
     1
102
RTVSPropertyOp21
 70
     1
102
RTVSPropertyOp22
 70
     1
102
RTVSPropertyOp23
 70
     1
102
RTVSPropertyOp24
 70
     1
102
RTVSPropertyOp25
 70
     1
102
RTVSPropertyOp26
 70
     1
102
RTVSPropertyOp27
 70
     1
102
RTVSPropertyOp28
 70
     1
102
RTVSPropertyOp29
 70
     1
102
RTVSPropertyOp30
 70
     1
102
RTVSPropertyOp31
 70
     1
102
RTVSPropertyOp32
 70
     1
102
RTVSPropertyOp33
 70
     1
102
RTVSPropertyOp34
 70
     1
102
RTVSPropertyOp35
 70
     1
102
RTVSPropertyOp36
 70
     1
102
RTVSPropertyOp37
 70
     1
102
RTVSPropertyOp38
 70
     1
102
RTVSPropertyOp39
 70
     1
102
RTVSPropertyOp40
 70
     1
102
RTVSPropertyOp41
 70
     1
102
RTVSPropertyOp42
 70
     1
102
RTVSPropertyOp43
 70
     1
102
RTVSPropertyOp44
 70
     1
102
RTVSPropertyOp45
 70
     1
102
RTVSPropertyOp46
 70
     1
102
RTVSPropertyOp47
 70
     1
102
RTVSPropertyOp48
 70
     1
102
RTVSPropertyOp49
 70
     1
102
RTVSPropertyOp50
 70
     1
102
RTVSPropertyOp51
 70
     0
102
RTVSPropertyOp52
 70
     0
102
RTVSPropertyOp53
 70
     1
102
RTVSPropertyOp54
 70
     1
102
RTVSPropertyOp55
 70
     1
102
RTVSPropertyOp56
 70
     1
102
RTVSPropertyOp57
 70
     1
102
RTVSPost2010Prop28
280
     1
102
RTVSPost2010PropOp28
 70
     1
102
RTVSPost2010Prop29
280
     1
102
RTVSPost2010PropOp29
 70
     1
102
RTVSPost2010Prop30
280
     0
102
RTVSPost2010PropOp30
 70
     1
102
RTVSPost2010Prop31
280
     0
102
RTVSPost2010PropOp31
 70
     1
102
RTVSPost2010Prop32
280
     0
102
RTVSPost2010PropOp32
 70
     1
102
RTVSPost2010Prop33
280
     0
102
RTVSPost2010PropOp33
 70
     1
102
RTVSPost2010Prop34
280
     0
102
RTVSPost2010PropOp34
 70
     1
102
RTVSPost2010Prop35
280
     0
102
RTVSPost2010PropOp35
 70
     1
102
RTVSPost2010Prop36
280
     0
102
RTVSPost2010PropOp36
 70
     1
102
RTVSPost2010Prop37
 90
       50
102
RTVSPost2010PropOp37
 70
     1
102
RTVSPost2010Prop38
140
0.0
102
RTVSPost2010PropOp38
 70
     1
102
RTVSPost2010Prop39
140
1.0
102
RTVSPost2010PropOp39
 70
     1
102
RTVSPost2010Prop40
 90
        0
102
RTVSPost2010PropOp40
 70
     1
102
RTVSPost2010Prop41ColorIndex
 90
       18
102
RTVSPost2010Prop41ColorRGB
 90
        0
102
RTVSPost2010PropOp41
 70
     1
102
RTVSPost2010Prop42
 90
       50
102
RTVSPost2010PropOp42
 70
     1
102
RTVSPost2010Prop43
 90
        3
102
RTVSPost2010PropOp43
 70
     1
102
RTVSPost2010Prop44ColorIndex
 90
        5
102
RTVSPost2010Prop44ColorRGB
 90
      255
102
RTVSPost2010PropOp44
 70
     1
102
RTVSPost2010Prop45
280
     0
102
RTVSPost2010PropOp45
 70
     1
102
RTVSPost2010Prop46
 90
       50
102
RTVSPost2010PropOp46
 70
     1
102
RTVSPost2010Prop47
 90
       50
102
RTVSPost2010PropOp47
 70
     1
102
RTVSPost2010Prop48
 90
       50
102
RTVSPost2010PropOp48
 70
     1
102
RTVSPost2010Prop49
280
     0
102
RTVSPost2010PropOp49
 70
     1
102
RTVSPost2010Prop50
 90
       50
102
RTVSPost2010PropOp50
 70
     1
102
RTVSPost2010Prop51ColorIndex
 90
      256
102
RTVSPost2010Prop51ColorRGB
 90
-16777216
102
RTVSPost2010PropOp51
 70
     0
102
RTVSPost2010Prop52
140
1.0
102
RTVSPost2010PropOp52
 70
     0
102
RTVSPost2010Prop53
 90
        2
102
RTVSPost2010PropOp53
 70
     1
102
RTVSPost2010Prop54
  1
strokes_ogs.tif
102
RTVSPost2010PropOp54
 70
     1
102
RTVSPost2010Prop55
280
     0
102
RTVSPost2010PropOp55
 70
     1
102
RTVSPost2010Prop56
140
1.0
102
RTVSPost2010PropOp56
 70
     1
102
RTVSPost2010Prop57
140
1.0
102
RTVSPost2010PropOp57
 70
     1
  0
XRECORD
  5
91C2F
102
{ACAD_REACTORS
330
87B16
102
}
330
87B16
100
AcDbXrecord
280
     1
102
RTVSPropertyOp0
 70
     1
102
RTVSPropertyOp1
 70
     1
102
RTVSPropertyOp2
 70
     1
102
RTVSPropertyOp3
 70
     1
102
RTVSPropertyOp4
 70
     1
102
RTVSPropertyOp5
 70
     1
102
RTVSPropertyOp6
 70
     1
102
RTVSPropertyOp7
 70
     1
102
RTVSPropertyOp8
 70
     1
102
RTVSPropertyOp9
 70
     1
102
RTVSPropertyOp10
 70
     1
102
RTVSPropertyOp11
 70
     1
102
RTVSPropertyOp12
 70
     1
102
RTVSPropertyOp13
 70
     1
102
RTVSPropertyOp14
 70
     1
102
RTVSPropertyOp15
 70
     1
102
RTVSPropertyOp16
 70
     1
102
RTVSPropertyOp17
 70
     1
102
RTVSPropertyOp18
 70
     1
102
RTVSPropertyOp19
 70
     1
102
RTVSPropertyOp20
 70
     1
102
RTVSPropertyOp21
 70
     1
102
RTVSPropertyOp22
 70
     1
102
RTVSPropertyOp23
 70
     1
102
RTVSPropertyOp24
 70
     1
102
RTVSPropertyOp25
 70
     1
102
RTVSPropertyOp26
 70
     1
102
RTVSPropertyOp27
 70
     1
102
RTVSPropertyOp28
 70
     1
102
RTVSPropertyOp29
 70
     1
102
RTVSPropertyOp30
 70
     1
102
RTVSPropertyOp31
 70
     1
102
RTVSPropertyOp32
 70
     1
102
RTVSPropertyOp33
 70
     1
102
RTVSPropertyOp34
 70
     1
102
RTVSPropertyOp35
 70
     1
102
RTVSPropertyOp36
 70
     1
102
RTVSPropertyOp37
 70
     1
102
RTVSPropertyOp38
 70
     1
102
RTVSPropertyOp39
 70
     1
102
RTVSPropertyOp40
 70
     1
102
RTVSPropertyOp41
 70
     1
102
RTVSPropertyOp42
 70
     1
102
RTVSPropertyOp43
 70
     1
102
RTVSPropertyOp44
 70
     1
102
RTVSPropertyOp45
 70
     1
102
RTVSPropertyOp46
 70
     1
102
RTVSPropertyOp47
 70
     1
102
RTVSPropertyOp48
 70
     1
102
RTVSPropertyOp49
 70
     1
102
RTVSPropertyOp50
 70
     1
102
RTVSPropertyOp51
 70
     0
102
RTVSPropertyOp52
 70
     0
102
RTVSPropertyOp53
 70
     1
102
RTVSPropertyOp54
 70
     1
102
RTVSPropertyOp55
 70
     1
102
RTVSPropertyOp56
 70
     1
102
RTVSPropertyOp57
 70
     1
102
RTVSPost2010Prop28
280
     0
102
RTVSPost2010PropOp28
 70
     1
102
RTVSPost2010Prop29
280
     1
102
RTVSPost2010PropOp29
 70
     1
102
RTVSPost2010Prop30
280
     1
102
RTVSPost2010PropOp30
 70
     1
102
RTVSPost2010Prop31
280
     0
102
RTVSPost2010PropOp31
 70
     1
102
RTVSPost2010Prop32
280
     0
102
RTVSPost2010PropOp32
 70
     1
102
RTVSPost2010Prop33
280
     0
102
RTVSPost2010PropOp33
 70
     1
102
RTVSPost2010Prop34
280
     0
102
RTVSPost2010PropOp34
 70
     1
102
RTVSPost2010Prop35
280
     0
102
RTVSPost2010PropOp35
 70
     1
102
RTVSPost2010Prop36
280
     0
102
RTVSPost2010PropOp36
 70
     1
102
RTVSPost2010Prop37
 90
       50
102
RTVSPost2010PropOp37
 70
     1
102
RTVSPost2010Prop38
140
0.0
102
RTVSPost2010PropOp38
 70
     1
102
RTVSPost2010Prop39
140
1.0
102
RTVSPost2010PropOp39
 70
     1
102
RTVSPost2010Prop40
 90
        0
102
RTVSPost2010PropOp40
 70
     1
102
RTVSPost2010Prop41ColorIndex
 90
       18
102
RTVSPost2010Prop41ColorRGB
 90
        0
102
RTVSPost2010PropOp41
 70
     1
102
RTVSPost2010Prop42
 90
       50
102
RTVSPost2010PropOp42
 70
     1
102
RTVSPost2010Prop43
 90
        3
102
RTVSPost2010PropOp43
 70
     1
102
RTVSPost2010Prop44ColorIndex
 90
        5
102
RTVSPost2010Prop44ColorRGB
 90
      255
102
RTVSPost2010PropOp44
 70
     1
102
RTVSPost2010Prop45
280
     0
102
RTVSPost2010PropOp45
 70
     1
102
RTVSPost2010Prop46
 90
       50
102
RTVSPost2010PropOp46
 70
     1
102
RTVSPost2010Prop47
 90
       50
102
RTVSPost2010PropOp47
 70
     1
102
RTVSPost2010Prop48
 90
       50
102
RTVSPost2010PropOp48
 70
     1
102
RTVSPost2010Prop49
280
     0
102
RTVSPost2010PropOp49
 70
     1
102
RTVSPost2010Prop50
 90
       50
102
RTVSPost2010PropOp50
 70
     1
102
RTVSPost2010Prop51ColorIndex
 90
      256
102
RTVSPost2010Prop51ColorRGB
 90
-16777216
102
RTVSPost2010PropOp51
 70
     0
102
RTVSPost2010Prop52
140
1.0
102
RTVSPost2010PropOp52
 70
     0
102
RTVSPost2010Prop53
 90
        2
102
RTVSPost2010PropOp53
 70
     1
102
RTVSPost2010Prop54
  1
strokes_ogs.tif
102
RTVSPost2010PropOp54
 70
     1
102
RTVSPost2010Prop55
280
     0
102
RTVSPost2010PropOp55
 70
     1
102
RTVSPost2010Prop56
140
1.0
102
RTVSPost2010PropOp56
 70
     1
102
RTVSPost2010Prop57
140
1.0
102
RTVSPost2010PropOp57
 70
     1
  0
XRECORD
  5
91C30
102
{ACAD_REACTORS
330
87B24
102
}
330
87B24
100
AcDbXrecord
280
     1
102
RTVSPropertyOp0
 70
     1
102
RTVSPropertyOp1
 70
     1
102
RTVSPropertyOp2
 70
     1
102
RTVSPropertyOp3
 70
     1
102
RTVSPropertyOp4
 70
     1
102
RTVSPropertyOp5
 70
     1
102
RTVSPropertyOp6
 70
     1
102
RTVSPropertyOp7
 70
     1
102
RTVSPropertyOp8
 70
     1
102
RTVSPropertyOp9
 70
     1
102
RTVSPropertyOp10
 70
     1
102
RTVSPropertyOp11
 70
     1
102
RTVSPropertyOp12
 70
     1
102
RTVSPropertyOp13
 70
     1
102
RTVSPropertyOp14
 70
     1
102
RTVSPropertyOp15
 70
     1
102
RTVSPropertyOp16
 70
     1
102
RTVSPropertyOp17
 70
     1
102
RTVSPropertyOp18
 70
     1
102
RTVSPropertyOp19
 70
     1
102
RTVSPropertyOp20
 70
     1
102
RTVSPropertyOp21
 70
     1
102
RTVSPropertyOp22
 70
     1
102
RTVSPropertyOp23
 70
     1
102
RTVSPropertyOp24
 70
     1
102
RTVSPropertyOp25
 70
     1
102
RTVSPropertyOp26
 70
     1
102
RTVSPropertyOp27
 70
     1
102
RTVSPropertyOp28
 70
     1
102
RTVSPropertyOp29
 70
     1
102
RTVSPropertyOp30
 70
     1
102
RTVSPropertyOp31
 70
     1
102
RTVSPropertyOp32
 70
     1
102
RTVSPropertyOp33
 70
     1
102
RTVSPropertyOp34
 70
     1
102
RTVSPropertyOp35
 70
     1
102
RTVSPropertyOp36
 70
     1
102
RTVSPropertyOp37
 70
     1
102
RTVSPropertyOp38
 70
     1
102
RTVSPropertyOp39
 70
     1
102
RTVSPropertyOp40
 70
     1
102
RTVSPropertyOp41
 70
     1
102
RTVSPropertyOp42
 70
     1
102
RTVSPropertyOp43
 70
     1
102
RTVSPropertyOp44
 70
     1
102
RTVSPropertyOp45
 70
     1
102
RTVSPropertyOp46
 70
     1
102
RTVSPropertyOp47
 70
     1
102
RTVSPropertyOp48
 70
     1
102
RTVSPropertyOp49
 70
     1
102
RTVSPropertyOp50
 70
     1
102
RTVSPropertyOp51
 70
     0
102
RTVSPropertyOp52
 70
     0
102
RTVSPropertyOp53
 70
     1
102
RTVSPropertyOp54
 70
     1
102
RTVSPropertyOp55
 70
     1
102
RTVSPropertyOp56
 70
     1
102
RTVSPropertyOp57
 70
     1
102
RTVSPost2010Prop28
280
     0
102
RTVSPost2010PropOp28
 70
     1
102
RTVSPost2010Prop29
280
     1
102
RTVSPost2010PropOp29
 70
     1
102
RTVSPost2010Prop30
280
     1
102
RTVSPost2010PropOp30
 70
     1
102
RTVSPost2010Prop31
280
     0
102
RTVSPost2010PropOp31
 70
     1
102
RTVSPost2010Prop32
280
     0
102
RTVSPost2010PropOp32
 70
     1
102
RTVSPost2010Prop33
280
     0
102
RTVSPost2010PropOp33
 70
     1
102
RTVSPost2010Prop34
280
     0
102
RTVSPost2010PropOp34
 70
     1
102
RTVSPost2010Prop35
280
     0
102
RTVSPost2010PropOp35
 70
     1
102
RTVSPost2010Prop36
280
     0
102
RTVSPost2010PropOp36
 70
     1
102
RTVSPost2010Prop37
 90
       50
102
RTVSPost2010PropOp37
 70
     1
102
RTVSPost2010Prop38
140
0.0
102
RTVSPost2010PropOp38
 70
     1
102
RTVSPost2010Prop39
140
1.0
102
RTVSPost2010PropOp39
 70
     1
102
RTVSPost2010Prop40
 90
        0
102
RTVSPost2010PropOp40
 70
     1
102
RTVSPost2010Prop41ColorIndex
 90
       18
102
RTVSPost2010Prop41ColorRGB
 90
        0
102
RTVSPost2010PropOp41
 70
     1
102
RTVSPost2010Prop42
 90
       50
102
RTVSPost2010PropOp42
 70
     1
102
RTVSPost2010Prop43
 90
        3
102
RTVSPost2010PropOp43
 70
     1
102
RTVSPost2010Prop44ColorIndex
 90
        5
102
RTVSPost2010Prop44ColorRGB
 90
      255
102
RTVSPost2010PropOp44
 70
     1
102
RTVSPost2010Prop45
280
     0
102
RTVSPost2010PropOp45
 70
     1
102
RTVSPost2010Prop46
 90
       50
102
RTVSPost2010PropOp46
 70
     1
102
RTVSPost2010Prop47
 90
       50
102
RTVSPost2010PropOp47
 70
     1
102
RTVSPost2010Prop48
 90
       50
102
RTVSPost2010PropOp48
 70
     1
102
RTVSPost2010Prop49
280
     0
102
RTVSPost2010PropOp49
 70
     1
102
RTVSPost2010Prop50
 90
       50
102
RTVSPost2010PropOp50
 70
     1
102
RTVSPost2010Prop51ColorIndex
 90
      256
102
RTVSPost2010Prop51ColorRGB
 90
-16777216
102
RTVSPost2010PropOp51
 70
     0
102
RTVSPost2010Prop52
140
1.0
102
RTVSPost2010PropOp52
 70
     0
102
RTVSPost2010Prop53
 90
        2
102
RTVSPost2010PropOp53
 70
     1
102
RTVSPost2010Prop54
  1
strokes_ogs.tif
102
RTVSPost2010PropOp54
 70
     1
102
RTVSPost2010Prop55
280
     0
102
RTVSPost2010PropOp55
 70
     1
102
RTVSPost2010Prop56
140
1.0
102
RTVSPost2010PropOp56
 70
     1
102
RTVSPost2010Prop57
140
1.0
102
RTVSPost2010PropOp57
 70
     1
  0
XRECORD
  5
91C31
102
{ACAD_REACTORS
330
87B2C
102
}
330
87B2C
100
AcDbXrecord
280
     1
102
RTVSPropertyOp0
 70
     1
102
RTVSPropertyOp1
 70
     1
102
RTVSPropertyOp2
 70
     1
102
RTVSPropertyOp3
 70
     1
102
RTVSPropertyOp4
 70
     1
102
RTVSPropertyOp5
 70
     1
102
RTVSPropertyOp6
 70
     1
102
RTVSPropertyOp7
 70
     1
102
RTVSPropertyOp8
 70
     1
102
RTVSPropertyOp9
 70
     1
102
RTVSPropertyOp10
 70
     1
102
RTVSPropertyOp11
 70
     1
102
RTVSPropertyOp12
 70
     1
102
RTVSPropertyOp13
 70
     1
102
RTVSPropertyOp14
 70
     1
102
RTVSPropertyOp15
 70
     1
102
RTVSPropertyOp16
 70
     1
102
RTVSPropertyOp17
 70
     1
102
RTVSPropertyOp18
 70
     1
102
RTVSPropertyOp19
 70
     1
102
RTVSPropertyOp20
 70
     1
102
RTVSPropertyOp21
 70
     1
102
RTVSPropertyOp22
 70
     1
102
RTVSPropertyOp23
 70
     1
102
RTVSPropertyOp24
 70
     1
102
RTVSPropertyOp25
 70
     1
102
RTVSPropertyOp26
 70
     1
102
RTVSPropertyOp27
 70
     1
102
RTVSPropertyOp28
 70
     1
102
RTVSPropertyOp29
 70
     1
102
RTVSPropertyOp30
 70
     1
102
RTVSPropertyOp31
 70
     1
102
RTVSPropertyOp32
 70
     1
102
RTVSPropertyOp33
 70
     1
102
RTVSPropertyOp34
 70
     1
102
RTVSPropertyOp35
 70
     1
102
RTVSPropertyOp36
 70
     1
102
RTVSPropertyOp37
 70
     1
102
RTVSPropertyOp38
 70
     1
102
RTVSPropertyOp39
 70
     1
102
RTVSPropertyOp40
 70
     1
102
RTVSPropertyOp41
 70
     1
102
RTVSPropertyOp42
 70
     1
102
RTVSPropertyOp43
 70
     1
102
RTVSPropertyOp44
 70
     1
102
RTVSPropertyOp45
 70
     1
102
RTVSPropertyOp46
 70
     1
102
RTVSPropertyOp47
 70
     1
102
RTVSPropertyOp48
 70
     1
102
RTVSPropertyOp49
 70
     1
102
RTVSPropertyOp50
 70
     1
102
RTVSPropertyOp51
 70
     0
102
RTVSPropertyOp52
 70
     0
102
RTVSPropertyOp53
 70
     1
102
RTVSPropertyOp54
 70
     1
102
RTVSPropertyOp55
 70
     1
102
RTVSPropertyOp56
 70
     1
102
RTVSPropertyOp57
 70
     1
102
RTVSPost2010Prop28
280
     0
102
RTVSPost2010PropOp28
 70
     1
102
RTVSPost2010Prop29
280
     1
102
RTVSPost2010PropOp29
 70
     1
102
RTVSPost2010Prop30
280
     1
102
RTVSPost2010PropOp30
 70
     1
102
RTVSPost2010Prop31
280
     0
102
RTVSPost2010PropOp31
 70
     1
102
RTVSPost2010Prop32
280
     0
102
RTVSPost2010PropOp32
 70
     1
102
RTVSPost2010Prop33
280
     0
102
RTVSPost2010PropOp33
 70
     1
102
RTVSPost2010Prop34
280
     0
102
RTVSPost2010PropOp34
 70
     1
102
RTVSPost2010Prop35
280
     0
102
RTVSPost2010PropOp35
 70
     1
102
RTVSPost2010Prop36
280
     0
102
RTVSPost2010PropOp36
 70
     1
102
RTVSPost2010Prop37
 90
       50
102
RTVSPost2010PropOp37
 70
     1
102
RTVSPost2010Prop38
140
0.0
102
RTVSPost2010PropOp38
 70
     1
102
RTVSPost2010Prop39
140
1.0
102
RTVSPost2010PropOp39
 70
     1
102
RTVSPost2010Prop40
 90
        0
102
RTVSPost2010PropOp40
 70
     1
102
RTVSPost2010Prop41ColorIndex
 90
       18
102
RTVSPost2010Prop41ColorRGB
 90
        0
102
RTVSPost2010PropOp41
 70
     1
102
RTVSPost2010Prop42
 90
       50
102
RTVSPost2010PropOp42
 70
     1
102
RTVSPost2010Prop43
 90
        3
102
RTVSPost2010PropOp43
 70
     1
102
RTVSPost2010Prop44ColorIndex
 90
        5
102
RTVSPost2010Prop44ColorRGB
 90
      255
102
RTVSPost2010PropOp44
 70
     1
102
RTVSPost2010Prop45
280
     0
102
RTVSPost2010PropOp45
 70
     1
102
RTVSPost2010Prop46
 90
       50
102
RTVSPost2010PropOp46
 70
     1
102
RTVSPost2010Prop47
 90
       50
102
RTVSPost2010PropOp47
 70
     1
102
RTVSPost2010Prop48
 90
       50
102
RTVSPost2010PropOp48
 70
     1
102
RTVSPost2010Prop49
280
     0
102
RTVSPost2010PropOp49
 70
     1
102
RTVSPost2010Prop50
 90
       50
102
RTVSPost2010PropOp50
 70
     1
102
RTVSPost2010Prop51ColorIndex
 90
      256
102
RTVSPost2010Prop51ColorRGB
 90
-16777216
102
RTVSPost2010PropOp51
 70
     0
102
RTVSPost2010Prop52
140
1.0
102
RTVSPost2010PropOp52
 70
     0
102
RTVSPost2010Prop53
 90
        2
102
RTVSPost2010PropOp53
 70
     1
102
RTVSPost2010Prop54
  1
strokes_ogs.tif
102
RTVSPost2010PropOp54
 70
     1
102
RTVSPost2010Prop55
280
     0
102
RTVSPost2010PropOp55
 70
     1
102
RTVSPost2010Prop56
140
1.0
102
RTVSPost2010PropOp56
 70
     1
102
RTVSPost2010Prop57
140
1.0
102
RTVSPost2010PropOp57
 70
     1
  0
XRECORD
  5
91C32
102
{ACAD_REACTORS
330
87B1E
102
}
330
87B1E
100
AcDbXrecord
280
     1
102
RTVSPropertyOp0
 70
     1
102
RTVSPropertyOp1
 70
     1
102
RTVSPropertyOp2
 70
     1
102
RTVSPropertyOp3
 70
     1
102
RTVSPropertyOp4
 70
     1
102
RTVSPropertyOp5
 70
     1
102
RTVSPropertyOp6
 70
     1
102
RTVSPropertyOp7
 70
     1
102
RTVSPropertyOp8
 70
     1
102
RTVSPropertyOp9
 70
     1
102
RTVSPropertyOp10
 70
     1
102
RTVSPropertyOp11
 70
     1
102
RTVSPropertyOp12
 70
     1
102
RTVSPropertyOp13
 70
     1
102
RTVSPropertyOp14
 70
     1
102
RTVSPropertyOp15
 70
     1
102
RTVSPropertyOp16
 70
     1
102
RTVSPropertyOp17
 70
     1
102
RTVSPropertyOp18
 70
     1
102
RTVSPropertyOp19
 70
     1
102
RTVSPropertyOp20
 70
     1
102
RTVSPropertyOp21
 70
     1
102
RTVSPropertyOp22
 70
     1
102
RTVSPropertyOp23
 70
     1
102
RTVSPropertyOp24
 70
     1
102
RTVSPropertyOp25
 70
     1
102
RTVSPropertyOp26
 70
     1
102
RTVSPropertyOp27
 70
     1
102
RTVSPropertyOp28
 70
     1
102
RTVSPropertyOp29
 70
     1
102
RTVSPropertyOp30
 70
     1
102
RTVSPropertyOp31
 70
     1
102
RTVSPropertyOp32
 70
     1
102
RTVSPropertyOp33
 70
     1
102
RTVSPropertyOp34
 70
     1
102
RTVSPropertyOp35
 70
     1
102
RTVSPropertyOp36
 70
     1
102
RTVSPropertyOp37
 70
     1
102
RTVSPropertyOp38
 70
     1
102
RTVSPropertyOp39
 70
     1
102
RTVSPropertyOp40
 70
     1
102
RTVSPropertyOp41
 70
     1
102
RTVSPropertyOp42
 70
     1
102
RTVSPropertyOp43
 70
     1
102
RTVSPropertyOp44
 70
     1
102
RTVSPropertyOp45
 70
     1
102
RTVSPropertyOp46
 70
     1
102
RTVSPropertyOp47
 70
     1
102
RTVSPropertyOp48
 70
     1
102
RTVSPropertyOp49
 70
     1
102
RTVSPropertyOp50
 70
     1
102
RTVSPropertyOp51
 70
     0
102
RTVSPropertyOp52
 70
     0
102
RTVSPropertyOp53
 70
     1
102
RTVSPropertyOp54
 70
     1
102
RTVSPropertyOp55
 70
     1
102
RTVSPropertyOp56
 70
     1
102
RTVSPropertyOp57
 70
     1
102
RTVSPost2010Prop28
280
     0
102
RTVSPost2010PropOp28
 70
     1
102
RTVSPost2010Prop29
280
     1
102
RTVSPost2010PropOp29
 70
     1
102
RTVSPost2010Prop30
280
     1
102
RTVSPost2010PropOp30
 70
     1
102
RTVSPost2010Prop31
280
     0
102
RTVSPost2010PropOp31
 70
     1
102
RTVSPost2010Prop32
280
     0
102
RTVSPost2010PropOp32
 70
     1
102
RTVSPost2010Prop33
280
     0
102
RTVSPost2010PropOp33
 70
     1
102
RTVSPost2010Prop34
280
     0
102
RTVSPost2010PropOp34
 70
     1
102
RTVSPost2010Prop35
280
     0
102
RTVSPost2010PropOp35
 70
     1
102
RTVSPost2010Prop36
280
     0
102
RTVSPost2010PropOp36
 70
     1
102
RTVSPost2010Prop37
 90
       50
102
RTVSPost2010PropOp37
 70
     1
102
RTVSPost2010Prop38
140
0.0
102
RTVSPost2010PropOp38
 70
     1
102
RTVSPost2010Prop39
140
1.0
102
RTVSPost2010PropOp39
 70
     1
102
RTVSPost2010Prop40
 90
        0
102
RTVSPost2010PropOp40
 70
     1
102
RTVSPost2010Prop41ColorIndex
 90
       18
102
RTVSPost2010Prop41ColorRGB
 90
        0
102
RTVSPost2010PropOp41
 70
     1
102
RTVSPost2010Prop42
 90
       50
102
RTVSPost2010PropOp42
 70
     1
102
RTVSPost2010Prop43
 90
        3
102
RTVSPost2010PropOp43
 70
     1
102
RTVSPost2010Prop44ColorIndex
 90
        5
102
RTVSPost2010Prop44ColorRGB
 90
      255
102
RTVSPost2010PropOp44
 70
     1
102
RTVSPost2010Prop45
280
     0
102
RTVSPost2010PropOp45
 70
     1
102
RTVSPost2010Prop46
 90
       50
102
RTVSPost2010PropOp46
 70
     1
102
RTVSPost2010Prop47
 90
       50
102
RTVSPost2010PropOp47
 70
     1
102
RTVSPost2010Prop48
 90
       50
102
RTVSPost2010PropOp48
 70
     1
102
RTVSPost2010Prop49
280
     0
102
RTVSPost2010PropOp49
 70
     1
102
RTVSPost2010Prop50
 90
       50
102
RTVSPost2010PropOp50
 70
     1
102
RTVSPost2010Prop51ColorIndex
 90
      256
102
RTVSPost2010Prop51ColorRGB
 90
-16777216
102
RTVSPost2010PropOp51
 70
     0
102
RTVSPost2010Prop52
140
1.0
102
RTVSPost2010PropOp52
 70
     0
102
RTVSPost2010Prop53
 90
        2
102
RTVSPost2010PropOp53
 70
     1
102
RTVSPost2010Prop54
  1
strokes_ogs.tif
102
RTVSPost2010PropOp54
 70
     1
102
RTVSPost2010Prop55
280
     0
102
RTVSPost2010PropOp55
 70
     1
102
RTVSPost2010Prop56
140
1.0
102
RTVSPost2010PropOp56
 70
     1
102
RTVSPost2010Prop57
140
1.0
102
RTVSPost2010PropOp57
 70
     1
  0
XRECORD
  5
91C33
102
{ACAD_REACTORS
330
87B22
102
}
330
87B22
100
AcDbXrecord
280
     1
102
RTVSPropertyOp0
 70
     1
102
RTVSPropertyOp1
 70
     1
102
RTVSPropertyOp2
 70
     1
102
RTVSPropertyOp3
 70
     1
102
RTVSPropertyOp4
 70
     1
102
RTVSPropertyOp5
 70
     1
102
RTVSPropertyOp6
 70
     1
102
RTVSPropertyOp7
 70
     1
102
RTVSPropertyOp8
 70
     1
102
RTVSPropertyOp9
 70
     1
102
RTVSPropertyOp10
 70
     1
102
RTVSPropertyOp11
 70
     1
102
RTVSPropertyOp12
 70
     1
102
RTVSPropertyOp13
 70
     1
102
RTVSPropertyOp14
 70
     1
102
RTVSPropertyOp15
 70
     1
102
RTVSPropertyOp16
 70
     1
102
RTVSPropertyOp17
 70
     1
102
RTVSPropertyOp18
 70
     1
102
RTVSPropertyOp19
 70
     1
102
RTVSPropertyOp20
 70
     1
102
RTVSPropertyOp21
 70
     1
102
RTVSPropertyOp22
 70
     1
102
RTVSPropertyOp23
 70
     1
102
RTVSPropertyOp24
 70
     1
102
RTVSPropertyOp25
 70
     1
102
RTVSPropertyOp26
 70
     1
102
RTVSPropertyOp27
 70
     1
102
RTVSPropertyOp28
 70
     1
102
RTVSPropertyOp29
 70
     1
102
RTVSPropertyOp30
 70
     1
102
RTVSPropertyOp31
 70
     1
102
RTVSPropertyOp32
 70
     1
102
RTVSPropertyOp33
 70
     1
102
RTVSPropertyOp34
 70
     1
102
RTVSPropertyOp35
 70
     1
102
RTVSPropertyOp36
 70
     1
102
RTVSPropertyOp37
 70
     1
102
RTVSPropertyOp38
 70
     1
102
RTVSPropertyOp39
 70
     1
102
RTVSPropertyOp40
 70
     1
102
RTVSPropertyOp41
 70
     1
102
RTVSPropertyOp42
 70
     1
102
RTVSPropertyOp43
 70
     1
102
RTVSPropertyOp44
 70
     1
102
RTVSPropertyOp45
 70
     1
102
RTVSPropertyOp46
 70
     1
102
RTVSPropertyOp47
 70
     1
102
RTVSPropertyOp48
 70
     1
102
RTVSPropertyOp49
 70
     1
102
RTVSPropertyOp50
 70
     1
102
RTVSPropertyOp51
 70
     0
102
RTVSPropertyOp52
 70
     0
102
RTVSPropertyOp53
 70
     1
102
RTVSPropertyOp54
 70
     1
102
RTVSPropertyOp55
 70
     1
102
RTVSPropertyOp56
 70
     1
102
RTVSPropertyOp57
 70
     1
102
RTVSPost2010Prop28
280
     0
102
RTVSPost2010PropOp28
 70
     1
102
RTVSPost2010Prop29
280
     1
102
RTVSPost2010PropOp29
 70
     1
102
RTVSPost2010Prop30
280
     1
102
RTVSPost2010PropOp30
 70
     1
102
RTVSPost2010Prop31
280
     0
102
RTVSPost2010PropOp31
 70
     1
102
RTVSPost2010Prop32
280
     0
102
RTVSPost2010PropOp32
 70
     1
102
RTVSPost2010Prop33
280
     0
102
RTVSPost2010PropOp33
 70
     1
102
RTVSPost2010Prop34
280
     0
102
RTVSPost2010PropOp34
 70
     1
102
RTVSPost2010Prop35
280
     0
102
RTVSPost2010PropOp35
 70
     1
102
RTVSPost2010Prop36
280
     0
102
RTVSPost2010PropOp36
 70
     1
102
RTVSPost2010Prop37
 90
       50
102
RTVSPost2010PropOp37
 70
     1
102
RTVSPost2010Prop38
140
0.0
102
RTVSPost2010PropOp38
 70
     1
102
RTVSPost2010Prop39
140
1.0
102
RTVSPost2010PropOp39
 70
     1
102
RTVSPost2010Prop40
 90
        0
102
RTVSPost2010PropOp40
 70
     1
102
RTVSPost2010Prop41ColorIndex
 90
       18
102
RTVSPost2010Prop41ColorRGB
 90
        0
102
RTVSPost2010PropOp41
 70
     1
102
RTVSPost2010Prop42
 90
       50
102
RTVSPost2010PropOp42
 70
     1
102
RTVSPost2010Prop43
 90
        3
102
RTVSPost2010PropOp43
 70
     1
102
RTVSPost2010Prop44ColorIndex
 90
        5
102
RTVSPost2010Prop44ColorRGB
 90
      255
102
RTVSPost2010PropOp44
 70
     1
102
RTVSPost2010Prop45
280
     0
102
RTVSPost2010PropOp45
 70
     1
102
RTVSPost2010Prop46
 90
       50
102
RTVSPost2010PropOp46
 70
     1
102
RTVSPost2010Prop47
 90
       50
102
RTVSPost2010PropOp47
 70
     1
102
RTVSPost2010Prop48
 90
       50
102
RTVSPost2010PropOp48
 70
     1
102
RTVSPost2010Prop49
280
     0
102
RTVSPost2010PropOp49
 70
     1
102
RTVSPost2010Prop50
 90
       50
102
RTVSPost2010PropOp50
 70
     1
102
RTVSPost2010Prop51ColorIndex
 90
      256
102
RTVSPost2010Prop51ColorRGB
 90
-16777216
102
RTVSPost2010PropOp51
 70
     0
102
RTVSPost2010Prop52
140
1.0
102
RTVSPost2010PropOp52
 70
     0
102
RTVSPost2010Prop53
 90
        2
102
RTVSPost2010PropOp53
 70
     1
102
RTVSPost2010Prop54
  1
strokes_ogs.tif
102
RTVSPost2010PropOp54
 70
     1
102
RTVSPost2010Prop55
280
     0
102
RTVSPost2010PropOp55
 70
     1
102
RTVSPost2010Prop56
140
1.0
102
RTVSPost2010PropOp56
 70
     1
102
RTVSPost2010Prop57
140
1.0
102
RTVSPost2010PropOp57
 70
     1
  0
XRECORD
  5
91C34
102
{ACAD_REACTORS
330
87B3C
102
}
330
87B3C
100
AcDbXrecord
280
     1
102
RTVSPropertyOp0
 70
     0
102
RTVSPropertyOp1
 70
     0
102
RTVSPropertyOp2
 70
     0
102
RTVSPropertyOp3
 70
     0
102
RTVSPropertyOp4
 70
     0
102
RTVSPropertyOp5
 70
     0
102
RTVSPropertyOp6
 70
     0
102
RTVSPropertyOp7
 70
     0
102
RTVSPropertyOp8
 70
     0
102
RTVSPropertyOp9
 70
     0
102
RTVSPropertyOp10
 70
     0
102
RTVSPropertyOp11
 70
     0
102
RTVSPropertyOp12
 70
     0
102
RTVSPropertyOp13
 70
     0
102
RTVSPropertyOp14
 70
     2
102
RTVSPropertyOp15
 70
     0
102
RTVSPropertyOp16
 70
     0
102
RTVSPropertyOp17
 70
     0
102
RTVSPropertyOp18
 70
     0
102
RTVSPropertyOp19
 70
     0
102
RTVSPropertyOp20
 70
     0
102
RTVSPropertyOp21
 70
     0
102
RTVSPropertyOp22
 70
     0
102
RTVSPropertyOp23
 70
     0
102
RTVSPropertyOp24
 70
     0
102
RTVSPropertyOp25
 70
     0
102
RTVSPropertyOp26
 70
     0
102
RTVSPropertyOp27
 70
     0
102
RTVSPropertyOp28
 70
     1
102
RTVSPropertyOp29
 70
     1
102
RTVSPropertyOp30
 70
     1
102
RTVSPropertyOp31
 70
     1
102
RTVSPropertyOp32
 70
     1
102
RTVSPropertyOp33
 70
     1
102
RTVSPropertyOp34
 70
     1
102
RTVSPropertyOp35
 70
     1
102
RTVSPropertyOp36
 70
     1
102
RTVSPropertyOp37
 70
     0
102
RTVSPropertyOp38
 70
     0
102
RTVSPropertyOp39
 70
     0
102
RTVSPropertyOp40
 70
     0
102
RTVSPropertyOp41
 70
     0
102
RTVSPropertyOp42
 70
     0
102
RTVSPropertyOp43
 70
     0
102
RTVSPropertyOp44
 70
     0
102
RTVSPropertyOp45
 70
     1
102
RTVSPropertyOp46
 70
     0
102
RTVSPropertyOp47
 70
     0
102
RTVSPropertyOp48
 70
     0
102
RTVSPropertyOp49
 70
     1
102
RTVSPropertyOp50
 70
     0
102
RTVSPropertyOp51
 70
     0
102
RTVSPropertyOp52
 70
     0
102
RTVSPropertyOp53
 70
     0
102
RTVSPropertyOp54
 70
     0
102
RTVSPropertyOp55
 70
     1
102
RTVSPropertyOp56
 70
     0
102
RTVSPropertyOp57
 70
     0
102
RTVSPost2010Prop28
280
     0
102
RTVSPost2010PropOp28
 70
     1
102
RTVSPost2010Prop29
280
     1
102
RTVSPost2010PropOp29
 70
     1
102
RTVSPost2010Prop30
280
     1
102
RTVSPost2010PropOp30
 70
     1
102
RTVSPost2010Prop31
280
     0
102
RTVSPost2010PropOp31
 70
     1
102
RTVSPost2010Prop32
280
     0
102
RTVSPost2010PropOp32
 70
     1
102
RTVSPost2010Prop33
280
     0
102
RTVSPost2010PropOp33
 70
     1
102
RTVSPost2010Prop34
280
     0
102
RTVSPost2010PropOp34
 70
     1
102
RTVSPost2010Prop35
280
     0
102
RTVSPost2010PropOp35
 70
     1
102
RTVSPost2010Prop36
280
     0
102
RTVSPost2010PropOp36
 70
     1
102
RTVSPost2010Prop37
 90
       50
102
RTVSPost2010PropOp37
 70
     0
102
RTVSPost2010Prop38
140
0.0
102
RTVSPost2010PropOp38
 70
     0
102
RTVSPost2010Prop39
140
1.0
102
RTVSPost2010PropOp39
 70
     0
102
RTVSPost2010Prop40
 90
        0
102
RTVSPost2010PropOp40
 70
     0
102
RTVSPost2010Prop41ColorIndex
 90
       18
102
RTVSPost2010Prop41ColorRGB
 90
        0
102
RTVSPost2010PropOp41
 70
     0
102
RTVSPost2010Prop42
 90
       50
102
RTVSPost2010PropOp42
 70
     0
102
RTVSPost2010Prop43
 90
        3
102
RTVSPost2010PropOp43
 70
     0
102
RTVSPost2010Prop44ColorIndex
 90
        5
102
RTVSPost2010Prop44ColorRGB
 90
      255
102
RTVSPost2010PropOp44
 70
     0
102
RTVSPost2010Prop45
280
     0
102
RTVSPost2010PropOp45
 70
     1
102
RTVSPost2010Prop46
 90
       50
102
RTVSPost2010PropOp46
 70
     0
102
RTVSPost2010Prop47
 90
       50
102
RTVSPost2010PropOp47
 70
     0
102
RTVSPost2010Prop48
 90
       50
102
RTVSPost2010PropOp48
 70
     0
102
RTVSPost2010Prop49
280
     0
102
RTVSPost2010PropOp49
 70
     1
102
RTVSPost2010Prop50
 90
       50
102
RTVSPost2010PropOp50
 70
     0
102
RTVSPost2010Prop51ColorIndex
 90
      256
102
RTVSPost2010Prop51ColorRGB
 90
-16777216
102
RTVSPost2010PropOp51
 70
     0
102
RTVSPost2010Prop52
140
1.0
102
RTVSPost2010PropOp52
 70
     0
102
RTVSPost2010Prop53
 90
        2
102
RTVSPost2010PropOp53
 70
     0
102
RTVSPost2010Prop54
  1
strokes_ogs.tif
102
RTVSPost2010PropOp54
 70
     0
102
RTVSPost2010Prop55
280
     0
102
RTVSPost2010PropOp55
 70
     1
102
RTVSPost2010Prop56
140
1.0
102
RTVSPost2010PropOp56
 70
     0
102
RTVSPost2010Prop57
140
1.0
102
RTVSPost2010PropOp57
 70
     0
  0
XRECORD
  5
91C35
102
{ACAD_REACTORS
330
87B2A
102
}
330
87B2A
100
AcDbXrecord
280
     1
102
RTVSPropertyOp0
 70
     1
102
RTVSPropertyOp1
 70
     1
102
RTVSPropertyOp2
 70
     1
102
RTVSPropertyOp3
 70
     1
102
RTVSPropertyOp4
 70
     1
102
RTVSPropertyOp5
 70
     1
102
RTVSPropertyOp6
 70
     1
102
RTVSPropertyOp7
 70
     1
102
RTVSPropertyOp8
 70
     1
102
RTVSPropertyOp9
 70
     1
102
RTVSPropertyOp10
 70
     1
102
RTVSPropertyOp11
 70
     1
102
RTVSPropertyOp12
 70
     1
102
RTVSPropertyOp13
 70
     1
102
RTVSPropertyOp14
 70
     1
102
RTVSPropertyOp15
 70
     1
102
RTVSPropertyOp16
 70
     1
102
RTVSPropertyOp17
 70
     1
102
RTVSPropertyOp18
 70
     1
102
RTVSPropertyOp19
 70
     1
102
RTVSPropertyOp20
 70
     1
102
RTVSPropertyOp21
 70
     1
102
RTVSPropertyOp22
 70
     1
102
RTVSPropertyOp23
 70
     1
102
RTVSPropertyOp24
 70
     1
102
RTVSPropertyOp25
 70
     1
102
RTVSPropertyOp26
 70
     1
102
RTVSPropertyOp27
 70
     1
102
RTVSPropertyOp28
 70
     1
102
RTVSPropertyOp29
 70
     1
102
RTVSPropertyOp30
 70
     1
102
RTVSPropertyOp31
 70
     1
102
RTVSPropertyOp32
 70
     1
102
RTVSPropertyOp33
 70
     1
102
RTVSPropertyOp34
 70
     1
102
RTVSPropertyOp35
 70
     1
102
RTVSPropertyOp36
 70
     1
102
RTVSPropertyOp37
 70
     1
102
RTVSPropertyOp38
 70
     1
102
RTVSPropertyOp39
 70
     1
102
RTVSPropertyOp40
 70
     1
102
RTVSPropertyOp41
 70
     1
102
RTVSPropertyOp42
 70
     1
102
RTVSPropertyOp43
 70
     1
102
RTVSPropertyOp44
 70
     1
102
RTVSPropertyOp45
 70
     1
102
RTVSPropertyOp46
 70
     1
102
RTVSPropertyOp47
 70
     1
102
RTVSPropertyOp48
 70
     1
102
RTVSPropertyOp49
 70
     1
102
RTVSPropertyOp50
 70
     1
102
RTVSPropertyOp51
 70
     0
102
RTVSPropertyOp52
 70
     0
102
RTVSPropertyOp53
 70
     1
102
RTVSPropertyOp54
 70
     1
102
RTVSPropertyOp55
 70
     1
102
RTVSPropertyOp56
 70
     1
102
RTVSPropertyOp57
 70
     1
102
RTVSPost2010Prop28
280
     0
102
RTVSPost2010PropOp28
 70
     1
102
RTVSPost2010Prop29
280
     1
102
RTVSPost2010PropOp29
 70
     1
102
RTVSPost2010Prop30
280
     1
102
RTVSPost2010PropOp30
 70
     1
102
RTVSPost2010Prop31
280
     0
102
RTVSPost2010PropOp31
 70
     1
102
RTVSPost2010Prop32
280
     0
102
RTVSPost2010PropOp32
 70
     1
102
RTVSPost2010Prop33
280
     0
102
RTVSPost2010PropOp33
 70
     1
102
RTVSPost2010Prop34
280
     0
102
RTVSPost2010PropOp34
 70
     1
102
RTVSPost2010Prop35
280
     0
102
RTVSPost2010PropOp35
 70
     1
102
RTVSPost2010Prop36
280
     0
102
RTVSPost2010PropOp36
 70
     1
102
RTVSPost2010Prop37
 90
       50
102
RTVSPost2010PropOp37
 70
     1
102
RTVSPost2010Prop38
140
0.0
102
RTVSPost2010PropOp38
 70
     1
102
RTVSPost2010Prop39
140
1.0
102
RTVSPost2010PropOp39
 70
     1
102
RTVSPost2010Prop40
 90
        0
102
RTVSPost2010PropOp40
 70
     1
102
RTVSPost2010Prop41ColorIndex
 90
       18
102
RTVSPost2010Prop41ColorRGB
 90
        0
102
RTVSPost2010PropOp41
 70
     1
102
RTVSPost2010Prop42
 90
       50
102
RTVSPost2010PropOp42
 70
     1
102
RTVSPost2010Prop43
 90
        3
102
RTVSPost2010PropOp43
 70
     1
102
RTVSPost2010Prop44ColorIndex
 90
        5
102
RTVSPost2010Prop44ColorRGB
 90
      255
102
RTVSPost2010PropOp44
 70
     1
102
RTVSPost2010Prop45
280
     0
102
RTVSPost2010PropOp45
 70
     1
102
RTVSPost2010Prop46
 90
       50
102
RTVSPost2010PropOp46
 70
     1
102
RTVSPost2010Prop47
 90
       50
102
RTVSPost2010PropOp47
 70
     1
102
RTVSPost2010Prop48
 90
       50
102
RTVSPost2010PropOp48
 70
     1
102
RTVSPost2010Prop49
280
     0
102
RTVSPost2010PropOp49
 70
     1
102
RTVSPost2010Prop50
 90
       50
102
RTVSPost2010PropOp50
 70
     1
102
RTVSPost2010Prop51ColorIndex
 90
      256
102
RTVSPost2010Prop51ColorRGB
 90
-16777216
102
RTVSPost2010PropOp51
 70
     0
102
RTVSPost2010Prop52
140
1.0
102
RTVSPost2010PropOp52
 70
     0
102
RTVSPost2010Prop53
 90
        2
102
RTVSPost2010PropOp53
 70
     1
102
RTVSPost2010Prop54
  1
strokes_ogs.tif
102
RTVSPost2010PropOp54
 70
     1
102
RTVSPost2010Prop55
280
     0
102
RTVSPost2010PropOp55
 70
     1
102
RTVSPost2010Prop56
140
1.0
102
RTVSPost2010PropOp56
 70
     1
102
RTVSPost2010Prop57
140
1.0
102
RTVSPost2010PropOp57
 70
     1
  0
XRECORD
  5
91C36
102
{ACAD_REACTORS
330
87B0E
102
}
330
87B0E
100
AcDbXrecord
280
     1
102
RTVSPropertyOp0
 70
     1
102
RTVSPropertyOp1
 70
     1
102
RTVSPropertyOp2
 70
     1
102
RTVSPropertyOp3
 70
     1
102
RTVSPropertyOp4
 70
     1
102
RTVSPropertyOp5
 70
     1
102
RTVSPropertyOp6
 70
     1
102
RTVSPropertyOp7
 70
     1
102
RTVSPropertyOp8
 70
     1
102
RTVSPropertyOp9
 70
     1
102
RTVSPropertyOp10
 70
     1
102
RTVSPropertyOp11
 70
     1
102
RTVSPropertyOp12
 70
     1
102
RTVSPropertyOp13
 70
     1
102
RTVSPropertyOp14
 70
     1
102
RTVSPropertyOp15
 70
     1
102
RTVSPropertyOp16
 70
     1
102
RTVSPropertyOp17
 70
     1
102
RTVSPropertyOp18
 70
     1
102
RTVSPropertyOp19
 70
     1
102
RTVSPropertyOp20
 70
     1
102
RTVSPropertyOp21
 70
     1
102
RTVSPropertyOp22
 70
     1
102
RTVSPropertyOp23
 70
     1
102
RTVSPropertyOp24
 70
     1
102
RTVSPropertyOp25
 70
     1
102
RTVSPropertyOp26
 70
     1
102
RTVSPropertyOp27
 70
     1
102
RTVSPropertyOp28
 70
     1
102
RTVSPropertyOp29
 70
     1
102
RTVSPropertyOp30
 70
     1
102
RTVSPropertyOp31
 70
     1
102
RTVSPropertyOp32
 70
     1
102
RTVSPropertyOp33
 70
     1
102
RTVSPropertyOp34
 70
     1
102
RTVSPropertyOp35
 70
     1
102
RTVSPropertyOp36
 70
     1
102
RTVSPropertyOp37
 70
     1
102
RTVSPropertyOp38
 70
     1
102
RTVSPropertyOp39
 70
     1
102
RTVSPropertyOp40
 70
     1
102
RTVSPropertyOp41
 70
     1
102
RTVSPropertyOp42
 70
     1
102
RTVSPropertyOp43
 70
     1
102
RTVSPropertyOp44
 70
     1
102
RTVSPropertyOp45
 70
     1
102
RTVSPropertyOp46
 70
     1
102
RTVSPropertyOp47
 70
     1
102
RTVSPropertyOp48
 70
     1
102
RTVSPropertyOp49
 70
     1
102
RTVSPropertyOp50
 70
     1
102
RTVSPropertyOp51
 70
     0
102
RTVSPropertyOp52
 70
     0
102
RTVSPropertyOp53
 70
     1
102
RTVSPropertyOp54
 70
     1
102
RTVSPropertyOp55
 70
     1
102
RTVSPropertyOp56
 70
     1
102
RTVSPropertyOp57
 70
     1
102
RTVSPost2010Prop28
280
     0
102
RTVSPost2010PropOp28
 70
     1
102
RTVSPost2010Prop29
280
     1
102
RTVSPost2010PropOp29
 70
     1
102
RTVSPost2010Prop30
280
     1
102
RTVSPost2010PropOp30
 70
     1
102
RTVSPost2010Prop31
280
     0
102
RTVSPost2010PropOp31
 70
     1
102
RTVSPost2010Prop32
280
     0
102
RTVSPost2010PropOp32
 70
     1
102
RTVSPost2010Prop33
280
     0
102
RTVSPost2010PropOp33
 70
     1
102
RTVSPost2010Prop34
280
     0
102
RTVSPost2010PropOp34
 70
     1
102
RTVSPost2010Prop35
280
     0
102
RTVSPost2010PropOp35
 70
     1
102
RTVSPost2010Prop36
280
     0
102
RTVSPost2010PropOp36
 70
     1
102
RTVSPost2010Prop37
 90
       50
102
RTVSPost2010PropOp37
 70
     1
102
RTVSPost2010Prop38
140
0.0
102
RTVSPost2010PropOp38
 70
     1
102
RTVSPost2010Prop39
140
1.0
102
RTVSPost2010PropOp39
 70
     1
102
RTVSPost2010Prop40
 90
        0
102
RTVSPost2010PropOp40
 70
     1
102
RTVSPost2010Prop41ColorIndex
 90
       18
102
RTVSPost2010Prop41ColorRGB
 90
        0
102
RTVSPost2010PropOp41
 70
     1
102
RTVSPost2010Prop42
 90
       50
102
RTVSPost2010PropOp42
 70
     1
102
RTVSPost2010Prop43
 90
        3
102
RTVSPost2010PropOp43
 70
     1
102
RTVSPost2010Prop44ColorIndex
 90
        5
102
RTVSPost2010Prop44ColorRGB
 90
      255
102
RTVSPost2010PropOp44
 70
     1
102
RTVSPost2010Prop45
280
     0
102
RTVSPost2010PropOp45
 70
     1
102
RTVSPost2010Prop46
 90
       50
102
RTVSPost2010PropOp46
 70
     1
102
RTVSPost2010Prop47
 90
       50
102
RTVSPost2010PropOp47
 70
     1
102
RTVSPost2010Prop48
 90
       50
102
RTVSPost2010PropOp48
 70
     1
102
RTVSPost2010Prop49
280
     0
102
RTVSPost2010PropOp49
 70
     1
102
RTVSPost2010Prop50
 90
       50
102
RTVSPost2010PropOp50
 70
     1
102
RTVSPost2010Prop51ColorIndex
 90
      256
102
RTVSPost2010Prop51ColorRGB
 90
-16777216
102
RTVSPost2010PropOp51
 70
     0
102
RTVSPost2010Prop52
140
1.0
102
RTVSPost2010PropOp52
 70
     0
102
RTVSPost2010Prop53
 90
        2
102
RTVSPost2010PropOp53
 70
     1
102
RTVSPost2010Prop54
  1
strokes_ogs.tif
102
RTVSPost2010PropOp54
 70
     1
102
RTVSPost2010Prop55
280
     0
102
RTVSPost2010PropOp55
 70
     1
102
RTVSPost2010Prop56
140
1.0
102
RTVSPost2010PropOp56
 70
     1
102
RTVSPost2010Prop57
140
1.0
102
RTVSPost2010PropOp57
 70
     1
  0
XRECORD
  5
91C37
102
{ACAD_REACTORS
330
87B10
102
}
330
87B10
100
AcDbXrecord
280
     1
102
RTVSPropertyOp0
 70
     1
102
RTVSPropertyOp1
 70
     1
102
RTVSPropertyOp2
 70
     1
102
RTVSPropertyOp3
 70
     1
102
RTVSPropertyOp4
 70
     1
102
RTVSPropertyOp5
 70
     1
102
RTVSPropertyOp6
 70
     1
102
RTVSPropertyOp7
 70
     1
102
RTVSPropertyOp8
 70
     1
102
RTVSPropertyOp9
 70
     1
102
RTVSPropertyOp10
 70
     1
102
RTVSPropertyOp11
 70
     1
102
RTVSPropertyOp12
 70
     1
102
RTVSPropertyOp13
 70
     1
102
RTVSPropertyOp14
 70
     1
102
RTVSPropertyOp15
 70
     1
102
RTVSPropertyOp16
 70
     1
102
RTVSPropertyOp17
 70
     1
102
RTVSPropertyOp18
 70
     1
102
RTVSPropertyOp19
 70
     1
102
RTVSPropertyOp20
 70
     1
102
RTVSPropertyOp21
 70
     1
102
RTVSPropertyOp22
 70
     1
102
RTVSPropertyOp23
 70
     1
102
RTVSPropertyOp24
 70
     1
102
RTVSPropertyOp25
 70
     1
102
RTVSPropertyOp26
 70
     1
102
RTVSPropertyOp27
 70
     1
102
RTVSPropertyOp28
 70
     1
102
RTVSPropertyOp29
 70
     1
102
RTVSPropertyOp30
 70
     1
102
RTVSPropertyOp31
 70
     1
102
RTVSPropertyOp32
 70
     1
102
RTVSPropertyOp33
 70
     1
102
RTVSPropertyOp34
 70
     1
102
RTVSPropertyOp35
 70
     1
102
RTVSPropertyOp36
 70
     1
102
RTVSPropertyOp37
 70
     1
102
RTVSPropertyOp38
 70
     1
102
RTVSPropertyOp39
 70
     1
102
RTVSPropertyOp40
 70
     1
102
RTVSPropertyOp41
 70
     1
102
RTVSPropertyOp42
 70
     1
102
RTVSPropertyOp43
 70
     1
102
RTVSPropertyOp44
 70
     1
102
RTVSPropertyOp45
 70
     1
102
RTVSPropertyOp46
 70
     1
102
RTVSPropertyOp47
 70
     1
102
RTVSPropertyOp48
 70
     1
102
RTVSPropertyOp49
 70
     1
102
RTVSPropertyOp50
 70
     1
102
RTVSPropertyOp51
 70
     0
102
RTVSPropertyOp52
 70
     0
102
RTVSPropertyOp53
 70
     1
102
RTVSPropertyOp54
 70
     1
102
RTVSPropertyOp55
 70
     1
102
RTVSPropertyOp56
 70
     1
102
RTVSPropertyOp57
 70
     1
102
RTVSPost2010Prop28
280
     0
102
RTVSPost2010PropOp28
 70
     1
102
RTVSPost2010Prop29
280
     1
102
RTVSPost2010PropOp29
 70
     1
102
RTVSPost2010Prop30
280
     1
102
RTVSPost2010PropOp30
 70
     1
102
RTVSPost2010Prop31
280
     0
102
RTVSPost2010PropOp31
 70
     1
102
RTVSPost2010Prop32
280
     0
102
RTVSPost2010PropOp32
 70
     1
102
RTVSPost2010Prop33
280
     0
102
RTVSPost2010PropOp33
 70
     1
102
RTVSPost2010Prop34
280
     0
102
RTVSPost2010PropOp34
 70
     1
102
RTVSPost2010Prop35
280
     0
102
RTVSPost2010PropOp35
 70
     1
102
RTVSPost2010Prop36
280
     0
102
RTVSPost2010PropOp36
 70
     1
102
RTVSPost2010Prop37
 90
       50
102
RTVSPost2010PropOp37
 70
     1
102
RTVSPost2010Prop38
140
0.0
102
RTVSPost2010PropOp38
 70
     1
102
RTVSPost2010Prop39
140
1.0
102
RTVSPost2010PropOp39
 70
     1
102
RTVSPost2010Prop40
 90
        0
102
RTVSPost2010PropOp40
 70
     1
102
RTVSPost2010Prop41ColorIndex
 90
       18
102
RTVSPost2010Prop41ColorRGB
 90
        0
102
RTVSPost2010PropOp41
 70
     1
102
RTVSPost2010Prop42
 90
       50
102
RTVSPost2010PropOp42
 70
     1
102
RTVSPost2010Prop43
 90
        3
102
RTVSPost2010PropOp43
 70
     1
102
RTVSPost2010Prop44ColorIndex
 90
        5
102
RTVSPost2010Prop44ColorRGB
 90
      255
102
RTVSPost2010PropOp44
 70
     1
102
RTVSPost2010Prop45
280
     0
102
RTVSPost2010PropOp45
 70
     1
102
RTVSPost2010Prop46
 90
       50
102
RTVSPost2010PropOp46
 70
     1
102
RTVSPost2010Prop47
 90
       50
102
RTVSPost2010PropOp47
 70
     1
102
RTVSPost2010Prop48
 90
       50
102
RTVSPost2010PropOp48
 70
     1
102
RTVSPost2010Prop49
280
     0
102
RTVSPost2010PropOp49
 70
     1
102
RTVSPost2010Prop50
 90
       50
102
RTVSPost2010PropOp50
 70
     1
102
RTVSPost2010Prop51ColorIndex
 90
      256
102
RTVSPost2010Prop51ColorRGB
 90
-16777216
102
RTVSPost2010PropOp51
 70
     0
102
RTVSPost2010Prop52
140
1.0
102
RTVSPost2010PropOp52
 70
     0
102
RTVSPost2010Prop53
 90
        2
102
RTVSPost2010PropOp53
 70
     1
102
RTVSPost2010Prop54
  1
strokes_ogs.tif
102
RTVSPost2010PropOp54
 70
     1
102
RTVSPost2010Prop55
280
     0
102
RTVSPost2010PropOp55
 70
     1
102
RTVSPost2010Prop56
140
1.0
102
RTVSPost2010PropOp56
 70
     1
102
RTVSPost2010Prop57
140
1.0
102
RTVSPost2010PropOp57
 70
     1
  0
XRECORD
  5
91C38
102
{ACAD_REACTORS
330
87B12
102
}
330
87B12
100
AcDbXrecord
280
     1
102
RTVSPropertyOp0
 70
     1
102
RTVSPropertyOp1
 70
     1
102
RTVSPropertyOp2
 70
     1
102
RTVSPropertyOp3
 70
     1
102
RTVSPropertyOp4
 70
     1
102
RTVSPropertyOp5
 70
     1
102
RTVSPropertyOp6
 70
     1
102
RTVSPropertyOp7
 70
     1
102
RTVSPropertyOp8
 70
     1
102
RTVSPropertyOp9
 70
     1
102
RTVSPropertyOp10
 70
     1
102
RTVSPropertyOp11
 70
     1
102
RTVSPropertyOp12
 70
     1
102
RTVSPropertyOp13
 70
     1
102
RTVSPropertyOp14
 70
     1
102
RTVSPropertyOp15
 70
     1
102
RTVSPropertyOp16
 70
     1
102
RTVSPropertyOp17
 70
     1
102
RTVSPropertyOp18
 70
     1
102
RTVSPropertyOp19
 70
     1
102
RTVSPropertyOp20
 70
     1
102
RTVSPropertyOp21
 70
     1
102
RTVSPropertyOp22
 70
     1
102
RTVSPropertyOp23
 70
     1
102
RTVSPropertyOp24
 70
     1
102
RTVSPropertyOp25
 70
     1
102
RTVSPropertyOp26
 70
     1
102
RTVSPropertyOp27
 70
     1
102
RTVSPropertyOp28
 70
     1
102
RTVSPropertyOp29
 70
     1
102
RTVSPropertyOp30
 70
     1
102
RTVSPropertyOp31
 70
     1
102
RTVSPropertyOp32
 70
     1
102
RTVSPropertyOp33
 70
     1
102
RTVSPropertyOp34
 70
     1
102
RTVSPropertyOp35
 70
     1
102
RTVSPropertyOp36
 70
     1
102
RTVSPropertyOp37
 70
     1
102
RTVSPropertyOp38
 70
     1
102
RTVSPropertyOp39
 70
     1
102
RTVSPropertyOp40
 70
     1
102
RTVSPropertyOp41
 70
     1
102
RTVSPropertyOp42
 70
     1
102
RTVSPropertyOp43
 70
     1
102
RTVSPropertyOp44
 70
     1
102
RTVSPropertyOp45
 70
     1
102
RTVSPropertyOp46
 70
     1
102
RTVSPropertyOp47
 70
     1
102
RTVSPropertyOp48
 70
     1
102
RTVSPropertyOp49
 70
     1
102
RTVSPropertyOp50
 70
     1
102
RTVSPropertyOp51
 70
     0
102
RTVSPropertyOp52
 70
     0
102
RTVSPropertyOp53
 70
     1
102
RTVSPropertyOp54
 70
     1
102
RTVSPropertyOp55
 70
     1
102
RTVSPropertyOp56
 70
     1
102
RTVSPropertyOp57
 70
     1
102
RTVSPost2010Prop28
280
     0
102
RTVSPost2010PropOp28
 70
     1
102
RTVSPost2010Prop29
280
     1
102
RTVSPost2010PropOp29
 70
     1
102
RTVSPost2010Prop30
280
     1
102
RTVSPost2010PropOp30
 70
     1
102
RTVSPost2010Prop31
280
     0
102
RTVSPost2010PropOp31
 70
     1
102
RTVSPost2010Prop32
280
     0
102
RTVSPost2010PropOp32
 70
     1
102
RTVSPost2010Prop33
280
     0
102
RTVSPost2010PropOp33
 70
     1
102
RTVSPost2010Prop34
280
     0
102
RTVSPost2010PropOp34
 70
     1
102
RTVSPost2010Prop35
280
     0
102
RTVSPost2010PropOp35
 70
     1
102
RTVSPost2010Prop36
280
     0
102
RTVSPost2010PropOp36
 70
     1
102
RTVSPost2010Prop37
 90
       50
102
RTVSPost2010PropOp37
 70
     1
102
RTVSPost2010Prop38
140
0.0
102
RTVSPost2010PropOp38
 70
     1
102
RTVSPost2010Prop39
140
1.0
102
RTVSPost2010PropOp39
 70
     1
102
RTVSPost2010Prop40
 90
        0
102
RTVSPost2010PropOp40
 70
     1
102
RTVSPost2010Prop41ColorIndex
 90
       18
102
RTVSPost2010Prop41ColorRGB
 90
        0
102
RTVSPost2010PropOp41
 70
     1
102
RTVSPost2010Prop42
 90
       50
102
RTVSPost2010PropOp42
 70
     1
102
RTVSPost2010Prop43
 90
        3
102
RTVSPost2010PropOp43
 70
     1
102
RTVSPost2010Prop44ColorIndex
 90
        5
102
RTVSPost2010Prop44ColorRGB
 90
      255
102
RTVSPost2010PropOp44
 70
     1
102
RTVSPost2010Prop45
280
     0
102
RTVSPost2010PropOp45
 70
     1
102
RTVSPost2010Prop46
 90
       50
102
RTVSPost2010PropOp46
 70
     1
102
RTVSPost2010Prop47
 90
       50
102
RTVSPost2010PropOp47
 70
     1
102
RTVSPost2010Prop48
 90
       50
102
RTVSPost2010PropOp48
 70
     1
102
RTVSPost2010Prop49
280
     0
102
RTVSPost2010PropOp49
 70
     1
102
RTVSPost2010Prop50
 90
       50
102
RTVSPost2010PropOp50
 70
     1
102
RTVSPost2010Prop51ColorIndex
 90
      256
102
RTVSPost2010Prop51ColorRGB
 90
-16777216
102
RTVSPost2010PropOp51
 70
     0
102
RTVSPost2010Prop52
140
1.0
102
RTVSPost2010PropOp52
 70
     0
102
RTVSPost2010Prop53
 90
        2
102
RTVSPost2010PropOp53
 70
     1
102
RTVSPost2010Prop54
  1
strokes_ogs.tif
102
RTVSPost2010PropOp54
 70
     1
102
RTVSPost2010Prop55
280
     0
102
RTVSPost2010PropOp55
 70
     1
102
RTVSPost2010Prop56
140
1.0
102
RTVSPost2010PropOp56
 70
     1
102
RTVSPost2010Prop57
140
1.0
102
RTVSPost2010PropOp57
 70
     1
  0
XRECORD
  5
91C39
102
{ACAD_REACTORS
330
87B14
102
}
330
87B14
100
AcDbXrecord
280
     1
102
RTVSPropertyOp0
 70
     1
102
RTVSPropertyOp1
 70
     1
102
RTVSPropertyOp2
 70
     1
102
RTVSPropertyOp3
 70
     1
102
RTVSPropertyOp4
 70
     1
102
RTVSPropertyOp5
 70
     1
102
RTVSPropertyOp6
 70
     1
102
RTVSPropertyOp7
 70
     1
102
RTVSPropertyOp8
 70
     1
102
RTVSPropertyOp9
 70
     1
102
RTVSPropertyOp10
 70
     1
102
RTVSPropertyOp11
 70
     1
102
RTVSPropertyOp12
 70
     1
102
RTVSPropertyOp13
 70
     1
102
RTVSPropertyOp14
 70
     1
102
RTVSPropertyOp15
 70
     1
102
RTVSPropertyOp16
 70
     1
102
RTVSPropertyOp17
 70
     1
102
RTVSPropertyOp18
 70
     1
102
RTVSPropertyOp19
 70
     1
102
RTVSPropertyOp20
 70
     1
102
RTVSPropertyOp21
 70
     1
102
RTVSPropertyOp22
 70
     1
102
RTVSPropertyOp23
 70
     1
102
RTVSPropertyOp24
 70
     1
102
RTVSPropertyOp25
 70
     1
102
RTVSPropertyOp26
 70
     1
102
RTVSPropertyOp27
 70
     1
102
RTVSPropertyOp28
 70
     1
102
RTVSPropertyOp29
 70
     1
102
RTVSPropertyOp30
 70
     1
102
RTVSPropertyOp31
 70
     1
102
RTVSPropertyOp32
 70
     1
102
RTVSPropertyOp33
 70
     1
102
RTVSPropertyOp34
 70
     1
102
RTVSPropertyOp35
 70
     1
102
RTVSPropertyOp36
 70
     1
102
RTVSPropertyOp37
 70
     1
102
RTVSPropertyOp38
 70
     1
102
RTVSPropertyOp39
 70
     1
102
RTVSPropertyOp40
 70
     1
102
RTVSPropertyOp41
 70
     1
102
RTVSPropertyOp42
 70
     1
102
RTVSPropertyOp43
 70
     1
102
RTVSPropertyOp44
 70
     1
102
RTVSPropertyOp45
 70
     1
102
RTVSPropertyOp46
 70
     1
102
RTVSPropertyOp47
 70
     1
102
RTVSPropertyOp48
 70
     1
102
RTVSPropertyOp49
 70
     1
102
RTVSPropertyOp50
 70
     1
102
RTVSPropertyOp51
 70
     0
102
RTVSPropertyOp52
 70
     0
102
RTVSPropertyOp53
 70
     1
102
RTVSPropertyOp54
 70
     1
102
RTVSPropertyOp55
 70
     1
102
RTVSPropertyOp56
 70
     1
102
RTVSPropertyOp57
 70
     1
102
RTVSPost2010Prop28
280
     0
102
RTVSPost2010PropOp28
 70
     1
102
RTVSPost2010Prop29
280
     1
102
RTVSPost2010PropOp29
 70
     1
102
RTVSPost2010Prop30
280
     1
102
RTVSPost2010PropOp30
 70
     1
102
RTVSPost2010Prop31
280
     0
102
RTVSPost2010PropOp31
 70
     1
102
RTVSPost2010Prop32
280
     0
102
RTVSPost2010PropOp32
 70
     1
102
RTVSPost2010Prop33
280
     0
102
RTVSPost2010PropOp33
 70
     1
102
RTVSPost2010Prop34
280
     0
102
RTVSPost2010PropOp34
 70
     1
102
RTVSPost2010Prop35
280
     0
102
RTVSPost2010PropOp35
 70
     1
102
RTVSPost2010Prop36
280
     0
102
RTVSPost2010PropOp36
 70
     1
102
RTVSPost2010Prop37
 90
       50
102
RTVSPost2010PropOp37
 70
     1
102
RTVSPost2010Prop38
140
0.0
102
RTVSPost2010PropOp38
 70
     1
102
RTVSPost2010Prop39
140
1.0
102
RTVSPost2010PropOp39
 70
     1
102
RTVSPost2010Prop40
 90
        0
102
RTVSPost2010PropOp40
 70
     1
102
RTVSPost2010Prop41ColorIndex
 90
       18
102
RTVSPost2010Prop41ColorRGB
 90
        0
102
RTVSPost2010PropOp41
 70
     1
102
RTVSPost2010Prop42
 90
       50
102
RTVSPost2010PropOp42
 70
     1
102
RTVSPost2010Prop43
 90
        3
102
RTVSPost2010PropOp43
 70
     1
102
RTVSPost2010Prop44ColorIndex
 90
        5
102
RTVSPost2010Prop44ColorRGB
 90
      255
102
RTVSPost2010PropOp44
 70
     1
102
RTVSPost2010Prop45
280
     0
102
RTVSPost2010PropOp45
 70
     1
102
RTVSPost2010Prop46
 90
       50
102
RTVSPost2010PropOp46
 70
     1
102
RTVSPost2010Prop47
 90
       50
102
RTVSPost2010PropOp47
 70
     1
102
RTVSPost2010Prop48
 90
       50
102
RTVSPost2010PropOp48
 70
     1
102
RTVSPost2010Prop49
280
     0
102
RTVSPost2010PropOp49
 70
     1
102
RTVSPost2010Prop50
 90
       50
102
RTVSPost2010PropOp50
 70
     1
102
RTVSPost2010Prop51ColorIndex
 90
      256
102
RTVSPost2010Prop51ColorRGB
 90
-16777216
102
RTVSPost2010PropOp51
 70
     0
102
RTVSPost2010Prop52
140
1.0
102
RTVSPost2010PropOp52
 70
     0
102
RTVSPost2010Prop53
 90
        2
102
RTVSPost2010PropOp53
 70
     1
102
RTVSPost2010Prop54
  1
strokes_ogs.tif
102
RTVSPost2010PropOp54
 70
     1
102
RTVSPost2010Prop55
280
     0
102
RTVSPost2010PropOp55
 70
     1
102
RTVSPost2010Prop56
140
1.0
102
RTVSPost2010PropOp56
 70
     1
102
RTVSPost2010Prop57
140
1.0
102
RTVSPost2010PropOp57
 70
     1
  0
XRECORD
  5
91C3A
102
{ACAD_REACTORS
330
87B1C
102
}
330
87B1C
100
AcDbXrecord
280
     1
102
RTVSPropertyOp0
 70
     1
102
RTVSPropertyOp1
 70
     1
102
RTVSPropertyOp2
 70
     1
102
RTVSPropertyOp3
 70
     1
102
RTVSPropertyOp4
 70
     1
102
RTVSPropertyOp5
 70
     1
102
RTVSPropertyOp6
 70
     1
102
RTVSPropertyOp7
 70
     1
102
RTVSPropertyOp8
 70
     1
102
RTVSPropertyOp9
 70
     1
102
RTVSPropertyOp10
 70
     1
102
RTVSPropertyOp11
 70
     1
102
RTVSPropertyOp12
 70
     1
102
RTVSPropertyOp13
 70
     1
102
RTVSPropertyOp14
 70
     1
102
RTVSPropertyOp15
 70
     1
102
RTVSPropertyOp16
 70
     1
102
RTVSPropertyOp17
 70
     1
102
RTVSPropertyOp18
 70
     1
102
RTVSPropertyOp19
 70
     1
102
RTVSPropertyOp20
 70
     1
102
RTVSPropertyOp21
 70
     1
102
RTVSPropertyOp22
 70
     1
102
RTVSPropertyOp23
 70
     1
102
RTVSPropertyOp24
 70
     1
102
RTVSPropertyOp25
 70
     1
102
RTVSPropertyOp26
 70
     1
102
RTVSPropertyOp27
 70
     1
102
RTVSPropertyOp28
 70
     1
102
RTVSPropertyOp29
 70
     1
102
RTVSPropertyOp30
 70
     1
102
RTVSPropertyOp31
 70
     1
102
RTVSPropertyOp32
 70
     1
102
RTVSPropertyOp33
 70
     1
102
RTVSPropertyOp34
 70
     1
102
RTVSPropertyOp35
 70
     1
102
RTVSPropertyOp36
 70
     1
102
RTVSPropertyOp37
 70
     1
102
RTVSPropertyOp38
 70
     1
102
RTVSPropertyOp39
 70
     1
102
RTVSPropertyOp40
 70
     1
102
RTVSPropertyOp41
 70
     1
102
RTVSPropertyOp42
 70
     1
102
RTVSPropertyOp43
 70
     1
102
RTVSPropertyOp44
 70
     1
102
RTVSPropertyOp45
 70
     1
102
RTVSPropertyOp46
 70
     1
102
RTVSPropertyOp47
 70
     1
102
RTVSPropertyOp48
 70
     1
102
RTVSPropertyOp49
 70
     1
102
RTVSPropertyOp50
 70
     1
102
RTVSPropertyOp51
 70
     0
102
RTVSPropertyOp52
 70
     0
102
RTVSPropertyOp53
 70
     1
102
RTVSPropertyOp54
 70
     1
102
RTVSPropertyOp55
 70
     1
102
RTVSPropertyOp56
 70
     1
102
RTVSPropertyOp57
 70
     1
102
RTVSPost2010Prop28
280
     0
102
RTVSPost2010PropOp28
 70
     1
102
RTVSPost2010Prop29
280
     1
102
RTVSPost2010PropOp29
 70
     1
102
RTVSPost2010Prop30
280
     1
102
RTVSPost2010PropOp30
 70
     1
102
RTVSPost2010Prop31
280
     0
102
RTVSPost2010PropOp31
 70
     1
102
RTVSPost2010Prop32
280
     0
102
RTVSPost2010PropOp32
 70
     1
102
RTVSPost2010Prop33
280
     0
102
RTVSPost2010PropOp33
 70
     1
102
RTVSPost2010Prop34
280
     0
102
RTVSPost2010PropOp34
 70
     1
102
RTVSPost2010Prop35
280
     0
102
RTVSPost2010PropOp35
 70
     1
102
RTVSPost2010Prop36
280
     0
102
RTVSPost2010PropOp36
 70
     1
102
RTVSPost2010Prop37
 90
       50
102
RTVSPost2010PropOp37
 70
     1
102
RTVSPost2010Prop38
140
0.0
102
RTVSPost2010PropOp38
 70
     1
102
RTVSPost2010Prop39
140
1.0
102
RTVSPost2010PropOp39
 70
     1
102
RTVSPost2010Prop40
 90
        0
102
RTVSPost2010PropOp40
 70
     1
102
RTVSPost2010Prop41ColorIndex
 90
       18
102
RTVSPost2010Prop41ColorRGB
 90
        0
102
RTVSPost2010PropOp41
 70
     1
102
RTVSPost2010Prop42
 90
       50
102
RTVSPost2010PropOp42
 70
     1
102
RTVSPost2010Prop43
 90
        3
102
RTVSPost2010PropOp43
 70
     1
102
RTVSPost2010Prop44ColorIndex
 90
        5
102
RTVSPost2010Prop44ColorRGB
 90
      255
102
RTVSPost2010PropOp44
 70
     1
102
RTVSPost2010Prop45
280
     0
102
RTVSPost2010PropOp45
 70
     1
102
RTVSPost2010Prop46
 90
       50
102
RTVSPost2010PropOp46
 70
     1
102
RTVSPost2010Prop47
 90
       50
102
RTVSPost2010PropOp47
 70
     1
102
RTVSPost2010Prop48
 90
       50
102
RTVSPost2010PropOp48
 70
     1
102
RTVSPost2010Prop49
280
     0
102
RTVSPost2010PropOp49
 70
     1
102
RTVSPost2010Prop50
 90
       50
102
RTVSPost2010PropOp50
 70
     1
102
RTVSPost2010Prop51ColorIndex
 90
      256
102
RTVSPost2010Prop51ColorRGB
 90
-16777216
102
RTVSPost2010PropOp51
 70
     0
102
RTVSPost2010Prop52
140
1.0
102
RTVSPost2010PropOp52
 70
     0
102
RTVSPost2010Prop53
 90
        2
102
RTVSPost2010PropOp53
 70
     1
102
RTVSPost2010Prop54
  1
strokes_ogs.tif
102
RTVSPost2010PropOp54
 70
     1
102
RTVSPost2010Prop55
280
     0
102
RTVSPost2010PropOp55
 70
     1
102
RTVSPost2010Prop56
140
1.0
102
RTVSPost2010PropOp56
 70
     1
102
RTVSPost2010Prop57
140
1.0
102
RTVSPost2010PropOp57
 70
     1
  0
XRECORD
  5
91C3B
102
{ACAD_REACTORS
330
87B38
102
}
330
87B38
100
AcDbXrecord
280
     1
102
RTVSPropertyOp0
 70
     0
102
RTVSPropertyOp1
 70
     0
102
RTVSPropertyOp2
 70
     0
102
RTVSPropertyOp3
 70
     0
102
RTVSPropertyOp4
 70
     0
102
RTVSPropertyOp5
 70
     0
102
RTVSPropertyOp6
 70
     0
102
RTVSPropertyOp7
 70
     0
102
RTVSPropertyOp8
 70
     0
102
RTVSPropertyOp9
 70
     0
102
RTVSPropertyOp10
 70
     0
102
RTVSPropertyOp11
 70
     0
102
RTVSPropertyOp12
 70
     0
102
RTVSPropertyOp13
 70
     0
102
RTVSPropertyOp14
 70
     2
102
RTVSPropertyOp15
 70
     0
102
RTVSPropertyOp16
 70
     0
102
RTVSPropertyOp17
 70
     0
102
RTVSPropertyOp18
 70
     0
102
RTVSPropertyOp19
 70
     0
102
RTVSPropertyOp20
 70
     0
102
RTVSPropertyOp21
 70
     0
102
RTVSPropertyOp22
 70
     0
102
RTVSPropertyOp23
 70
     0
102
RTVSPropertyOp24
 70
     0
102
RTVSPropertyOp25
 70
     0
102
RTVSPropertyOp26
 70
     0
102
RTVSPropertyOp27
 70
     0
102
RTVSPropertyOp28
 70
     1
102
RTVSPropertyOp29
 70
     1
102
RTVSPropertyOp30
 70
     1
102
RTVSPropertyOp31
 70
     1
102
RTVSPropertyOp32
 70
     1
102
RTVSPropertyOp33
 70
     1
102
RTVSPropertyOp34
 70
     1
102
RTVSPropertyOp35
 70
     1
102
RTVSPropertyOp36
 70
     1
102
RTVSPropertyOp37
 70
     0
102
RTVSPropertyOp38
 70
     0
102
RTVSPropertyOp39
 70
     0
102
RTVSPropertyOp40
 70
     0
102
RTVSPropertyOp41
 70
     0
102
RTVSPropertyOp42
 70
     0
102
RTVSPropertyOp43
 70
     0
102
RTVSPropertyOp44
 70
     0
102
RTVSPropertyOp45
 70
     1
102
RTVSPropertyOp46
 70
     0
102
RTVSPropertyOp47
 70
     0
102
RTVSPropertyOp48
 70
     0
102
RTVSPropertyOp49
 70
     1
102
RTVSPropertyOp50
 70
     0
102
RTVSPropertyOp51
 70
     0
102
RTVSPropertyOp52
 70
     0
102
RTVSPropertyOp53
 70
     0
102
RTVSPropertyOp54
 70
     0
102
RTVSPropertyOp55
 70
     1
102
RTVSPropertyOp56
 70
     0
102
RTVSPropertyOp57
 70
     0
102
RTVSPost2010Prop28
280
     0
102
RTVSPost2010PropOp28
 70
     1
102
RTVSPost2010Prop29
280
     1
102
RTVSPost2010PropOp29
 70
     1
102
RTVSPost2010Prop30
280
     1
102
RTVSPost2010PropOp30
 70
     1
102
RTVSPost2010Prop31
280
     0
102
RTVSPost2010PropOp31
 70
     1
102
RTVSPost2010Prop32
280
     0
102
RTVSPost2010PropOp32
 70
     1
102
RTVSPost2010Prop33
280
     0
102
RTVSPost2010PropOp33
 70
     1
102
RTVSPost2010Prop34
280
     0
102
RTVSPost2010PropOp34
 70
     1
102
RTVSPost2010Prop35
280
     0
102
RTVSPost2010PropOp35
 70
     1
102
RTVSPost2010Prop36
280
     0
102
RTVSPost2010PropOp36
 70
     1
102
RTVSPost2010Prop37
 90
       50
102
RTVSPost2010PropOp37
 70
     0
102
RTVSPost2010Prop38
140
0.0
102
RTVSPost2010PropOp38
 70
     0
102
RTVSPost2010Prop39
140
1.0
102
RTVSPost2010PropOp39
 70
     0
102
RTVSPost2010Prop40
 90
        0
102
RTVSPost2010PropOp40
 70
     0
102
RTVSPost2010Prop41ColorIndex
 90
       18
102
RTVSPost2010Prop41ColorRGB
 90
        0
102
RTVSPost2010PropOp41
 70
     0
102
RTVSPost2010Prop42
 90
       50
102
RTVSPost2010PropOp42
 70
     0
102
RTVSPost2010Prop43
 90
        3
102
RTVSPost2010PropOp43
 70
     0
102
RTVSPost2010Prop44ColorIndex
 90
        5
102
RTVSPost2010Prop44ColorRGB
 90
      255
102
RTVSPost2010PropOp44
 70
     0
102
RTVSPost2010Prop45
280
     0
102
RTVSPost2010PropOp45
 70
     1
102
RTVSPost2010Prop46
 90
       50
102
RTVSPost2010PropOp46
 70
     0
102
RTVSPost2010Prop47
 90
       50
102
RTVSPost2010PropOp47
 70
     0
102
RTVSPost2010Prop48
 90
       50
102
RTVSPost2010PropOp48
 70
     0
102
RTVSPost2010Prop49
280
     0
102
RTVSPost2010PropOp49
 70
     1
102
RTVSPost2010Prop50
 90
       50
102
RTVSPost2010PropOp50
 70
     0
102
RTVSPost2010Prop51ColorIndex
 90
      256
102
RTVSPost2010Prop51ColorRGB
 90
-16777216
102
RTVSPost2010PropOp51
 70
     0
102
RTVSPost2010Prop52
140
1.0
102
RTVSPost2010PropOp52
 70
     0
102
RTVSPost2010Prop53
 90
        2
102
RTVSPost2010PropOp53
 70
     0
102
RTVSPost2010Prop54
  1
strokes_ogs.tif
102
RTVSPost2010PropOp54
 70
     0
102
RTVSPost2010Prop55
280
     0
102
RTVSPost2010PropOp55
 70
     1
102
RTVSPost2010Prop56
140
1.0
102
RTVSPost2010PropOp56
 70
     0
102
RTVSPost2010Prop57
140
1.0
102
RTVSPost2010PropOp57
 70
     0
  0
XRECORD
  5
91C3C
102
{ACAD_REACTORS
330
87B28
102
}
330
87B28
100
AcDbXrecord
280
     1
102
RTVSPropertyOp0
 70
     1
102
RTVSPropertyOp1
 70
     1
102
RTVSPropertyOp2
 70
     1
102
RTVSPropertyOp3
 70
     1
102
RTVSPropertyOp4
 70
     1
102
RTVSPropertyOp5
 70
     1
102
RTVSPropertyOp6
 70
     1
102
RTVSPropertyOp7
 70
     1
102
RTVSPropertyOp8
 70
     1
102
RTVSPropertyOp9
 70
     1
102
RTVSPropertyOp10
 70
     1
102
RTVSPropertyOp11
 70
     1
102
RTVSPropertyOp12
 70
     1
102
RTVSPropertyOp13
 70
     1
102
RTVSPropertyOp14
 70
     1
102
RTVSPropertyOp15
 70
     1
102
RTVSPropertyOp16
 70
     1
102
RTVSPropertyOp17
 70
     1
102
RTVSPropertyOp18
 70
     1
102
RTVSPropertyOp19
 70
     1
102
RTVSPropertyOp20
 70
     1
102
RTVSPropertyOp21
 70
     1
102
RTVSPropertyOp22
 70
     1
102
RTVSPropertyOp23
 70
     1
102
RTVSPropertyOp24
 70
     1
102
RTVSPropertyOp25
 70
     1
102
RTVSPropertyOp26
 70
     1
102
RTVSPropertyOp27
 70
     1
102
RTVSPropertyOp28
 70
     1
102
RTVSPropertyOp29
 70
     1
102
RTVSPropertyOp30
 70
     1
102
RTVSPropertyOp31
 70
     1
102
RTVSPropertyOp32
 70
     1
102
RTVSPropertyOp33
 70
     1
102
RTVSPropertyOp34
 70
     1
102
RTVSPropertyOp35
 70
     1
102
RTVSPropertyOp36
 70
     1
102
RTVSPropertyOp37
 70
     1
102
RTVSPropertyOp38
 70
     1
102
RTVSPropertyOp39
 70
     1
102
RTVSPropertyOp40
 70
     1
102
RTVSPropertyOp41
 70
     1
102
RTVSPropertyOp42
 70
     1
102
RTVSPropertyOp43
 70
     1
102
RTVSPropertyOp44
 70
     1
102
RTVSPropertyOp45
 70
     1
102
RTVSPropertyOp46
 70
     1
102
RTVSPropertyOp47
 70
     1
102
RTVSPropertyOp48
 70
     1
102
RTVSPropertyOp49
 70
     1
102
RTVSPropertyOp50
 70
     1
102
RTVSPropertyOp51
 70
     0
102
RTVSPropertyOp52
 70
     0
102
RTVSPropertyOp53
 70
     1
102
RTVSPropertyOp54
 70
     1
102
RTVSPropertyOp55
 70
     1
102
RTVSPropertyOp56
 70
     1
102
RTVSPropertyOp57
 70
     1
102
RTVSPost2010Prop28
280
     0
102
RTVSPost2010PropOp28
 70
     1
102
RTVSPost2010Prop29
280
     1
102
RTVSPost2010PropOp29
 70
     1
102
RTVSPost2010Prop30
280
     1
102
RTVSPost2010PropOp30
 70
     1
102
RTVSPost2010Prop31
280
     0
102
RTVSPost2010PropOp31
 70
     1
102
RTVSPost2010Prop32
280
     0
102
RTVSPost2010PropOp32
 70
     1
102
RTVSPost2010Prop33
280
     0
102
RTVSPost2010PropOp33
 70
     1
102
RTVSPost2010Prop34
280
     0
102
RTVSPost2010PropOp34
 70
     1
102
RTVSPost2010Prop35
280
     0
102
RTVSPost2010PropOp35
 70
     1
102
RTVSPost2010Prop36
280
     0
102
RTVSPost2010PropOp36
 70
     1
102
RTVSPost2010Prop37
 90
       50
102
RTVSPost2010PropOp37
 70
     1
102
RTVSPost2010Prop38
140
0.0
102
RTVSPost2010PropOp38
 70
     1
102
RTVSPost2010Prop39
140
1.0
102
RTVSPost2010PropOp39
 70
     1
102
RTVSPost2010Prop40
 90
        0
102
RTVSPost2010PropOp40
 70
     1
102
RTVSPost2010Prop41ColorIndex
 90
       18
102
RTVSPost2010Prop41ColorRGB
 90
        0
102
RTVSPost2010PropOp41
 70
     1
102
RTVSPost2010Prop42
 90
       50
102
RTVSPost2010PropOp42
 70
     1
102
RTVSPost2010Prop43
 90
        3
102
RTVSPost2010PropOp43
 70
     1
102
RTVSPost2010Prop44ColorIndex
 90
        5
102
RTVSPost2010Prop44ColorRGB
 90
      255
102
RTVSPost2010PropOp44
 70
     1
102
RTVSPost2010Prop45
280
     0
102
RTVSPost2010PropOp45
 70
     1
102
RTVSPost2010Prop46
 90
       50
102
RTVSPost2010PropOp46
 70
     1
102
RTVSPost2010Prop47
 90
       50
102
RTVSPost2010PropOp47
 70
     1
102
RTVSPost2010Prop48
 90
       50
102
RTVSPost2010PropOp48
 70
     1
102
RTVSPost2010Prop49
280
     0
102
RTVSPost2010PropOp49
 70
     1
102
RTVSPost2010Prop50
 90
       50
102
RTVSPost2010PropOp50
 70
     1
102
RTVSPost2010Prop51ColorIndex
 90
      256
102
RTVSPost2010Prop51ColorRGB
 90
-16777216
102
RTVSPost2010PropOp51
 70
     0
102
RTVSPost2010Prop52
140
1.0
102
RTVSPost2010PropOp52
 70
     0
102
RTVSPost2010Prop53
 90
        2
102
RTVSPost2010PropOp53
 70
     1
102
RTVSPost2010Prop54
  1
strokes_ogs.tif
102
RTVSPost2010PropOp54
 70
     1
102
RTVSPost2010Prop55
280
     0
102
RTVSPost2010PropOp55
 70
     1
102
RTVSPost2010Prop56
140
1.0
102
RTVSPost2010PropOp56
 70
     1
102
RTVSPost2010Prop57
140
1.0
102
RTVSPost2010PropOp57
 70
     1
  0
XRECORD
  5
91C3D
102
{ACAD_REACTORS
330
87B3A
102
}
330
87B3A
100
AcDbXrecord
280
     1
102
RTVSPropertyOp0
 70
     0
102
RTVSPropertyOp1
 70
     0
102
RTVSPropertyOp2
 70
     0
102
RTVSPropertyOp3
 70
     0
102
RTVSPropertyOp4
 70
     0
102
RTVSPropertyOp5
 70
     0
102
RTVSPropertyOp6
 70
     0
102
RTVSPropertyOp7
 70
     0
102
RTVSPropertyOp8
 70
     0
102
RTVSPropertyOp9
 70
     0
102
RTVSPropertyOp10
 70
     0
102
RTVSPropertyOp11
 70
     0
102
RTVSPropertyOp12
 70
     0
102
RTVSPropertyOp13
 70
     0
102
RTVSPropertyOp14
 70
     2
102
RTVSPropertyOp15
 70
     0
102
RTVSPropertyOp16
 70
     0
102
RTVSPropertyOp17
 70
     0
102
RTVSPropertyOp18
 70
     0
102
RTVSPropertyOp19
 70
     0
102
RTVSPropertyOp20
 70
     0
102
RTVSPropertyOp21
 70
     0
102
RTVSPropertyOp22
 70
     0
102
RTVSPropertyOp23
 70
     0
102
RTVSPropertyOp24
 70
     0
102
RTVSPropertyOp25
 70
     0
102
RTVSPropertyOp26
 70
     0
102
RTVSPropertyOp27
 70
     0
102
RTVSPropertyOp28
 70
     1
102
RTVSPropertyOp29
 70
     1
102
RTVSPropertyOp30
 70
     1
102
RTVSPropertyOp31
 70
     1
102
RTVSPropertyOp32
 70
     1
102
RTVSPropertyOp33
 70
     1
102
RTVSPropertyOp34
 70
     1
102
RTVSPropertyOp35
 70
     1
102
RTVSPropertyOp36
 70
     1
102
RTVSPropertyOp37
 70
     0
102
RTVSPropertyOp38
 70
     0
102
RTVSPropertyOp39
 70
     0
102
RTVSPropertyOp40
 70
     0
102
RTVSPropertyOp41
 70
     0
102
RTVSPropertyOp42
 70
     0
102
RTVSPropertyOp43
 70
     0
102
RTVSPropertyOp44
 70
     0
102
RTVSPropertyOp45
 70
     1
102
RTVSPropertyOp46
 70
     0
102
RTVSPropertyOp47
 70
     0
102
RTVSPropertyOp48
 70
     0
102
RTVSPropertyOp49
 70
     1
102
RTVSPropertyOp50
 70
     0
102
RTVSPropertyOp51
 70
     0
102
RTVSPropertyOp52
 70
     0
102
RTVSPropertyOp53
 70
     0
102
RTVSPropertyOp54
 70
     0
102
RTVSPropertyOp55
 70
     1
102
RTVSPropertyOp56
 70
     0
102
RTVSPropertyOp57
 70
     0
102
RTVSPost2010Prop28
280
     0
102
RTVSPost2010PropOp28
 70
     1
102
RTVSPost2010Prop29
280
     1
102
RTVSPost2010PropOp29
 70
     1
102
RTVSPost2010Prop30
280
     1
102
RTVSPost2010PropOp30
 70
     1
102
RTVSPost2010Prop31
280
     0
102
RTVSPost2010PropOp31
 70
     1
102
RTVSPost2010Prop32
280
     0
102
RTVSPost2010PropOp32
 70
     1
102
RTVSPost2010Prop33
280
     0
102
RTVSPost2010PropOp33
 70
     1
102
RTVSPost2010Prop34
280
     0
102
RTVSPost2010PropOp34
 70
     1
102
RTVSPost2010Prop35
280
     0
102
RTVSPost2010PropOp35
 70
     1
102
RTVSPost2010Prop36
280
     0
102
RTVSPost2010PropOp36
 70
     1
102
RTVSPost2010Prop37
 90
       50
102
RTVSPost2010PropOp37
 70
     0
102
RTVSPost2010Prop38
140
0.0
102
RTVSPost2010PropOp38
 70
     0
102
RTVSPost2010Prop39
140
1.0
102
RTVSPost2010PropOp39
 70
     0
102
RTVSPost2010Prop40
 90
        0
102
RTVSPost2010PropOp40
 70
     0
102
RTVSPost2010Prop41ColorIndex
 90
       18
102
RTVSPost2010Prop41ColorRGB
 90
        0
102
RTVSPost2010PropOp41
 70
     0
102
RTVSPost2010Prop42
 90
       50
102
RTVSPost2010PropOp42
 70
     0
102
RTVSPost2010Prop43
 90
        3
102
RTVSPost2010PropOp43
 70
     0
102
RTVSPost2010Prop44ColorIndex
 90
        5
102
RTVSPost2010Prop44ColorRGB
 90
      255
102
RTVSPost2010PropOp44
 70
     0
102
RTVSPost2010Prop45
280
     0
102
RTVSPost2010PropOp45
 70
     1
102
RTVSPost2010Prop46
 90
       50
102
RTVSPost2010PropOp46
 70
     0
102
RTVSPost2010Prop47
 90
       50
102
RTVSPost2010PropOp47
 70
     0
102
RTVSPost2010Prop48
 90
       50
102
RTVSPost2010PropOp48
 70
     0
102
RTVSPost2010Prop49
280
     0
102
RTVSPost2010PropOp49
 70
     1
102
RTVSPost2010Prop50
 90
       50
102
RTVSPost2010PropOp50
 70
     0
102
RTVSPost2010Prop51ColorIndex
 90
      256
102
RTVSPost2010Prop51ColorRGB
 90
-16777216
102
RTVSPost2010PropOp51
 70
     0
102
RTVSPost2010Prop52
140
1.0
102
RTVSPost2010PropOp52
 70
     0
102
RTVSPost2010Prop53
 90
        2
102
RTVSPost2010PropOp53
 70
     0
102
RTVSPost2010Prop54
  1
strokes_ogs.tif
102
RTVSPost2010PropOp54
 70
     0
102
RTVSPost2010Prop55
280
     0
102
RTVSPost2010PropOp55
 70
     1
102
RTVSPost2010Prop56
140
1.0
102
RTVSPost2010PropOp56
 70
     0
102
RTVSPost2010Prop57
140
1.0
102
RTVSPost2010PropOp57
 70
     0
  0
XRECORD
  5
91C3E
102
{ACAD_REACTORS
330
87B20
102
}
330
87B20
100
AcDbXrecord
280
     1
102
RTVSPropertyOp0
 70
     1
102
RTVSPropertyOp1
 70
     1
102
RTVSPropertyOp2
 70
     1
102
RTVSPropertyOp3
 70
     1
102
RTVSPropertyOp4
 70
     1
102
RTVSPropertyOp5
 70
     1
102
RTVSPropertyOp6
 70
     1
102
RTVSPropertyOp7
 70
     1
102
RTVSPropertyOp8
 70
     1
102
RTVSPropertyOp9
 70
     1
102
RTVSPropertyOp10
 70
     1
102
RTVSPropertyOp11
 70
     1
102
RTVSPropertyOp12
 70
     1
102
RTVSPropertyOp13
 70
     1
102
RTVSPropertyOp14
 70
     1
102
RTVSPropertyOp15
 70
     1
102
RTVSPropertyOp16
 70
     1
102
RTVSPropertyOp17
 70
     1
102
RTVSPropertyOp18
 70
     1
102
RTVSPropertyOp19
 70
     1
102
RTVSPropertyOp20
 70
     1
102
RTVSPropertyOp21
 70
     1
102
RTVSPropertyOp22
 70
     1
102
RTVSPropertyOp23
 70
     1
102
RTVSPropertyOp24
 70
     1
102
RTVSPropertyOp25
 70
     1
102
RTVSPropertyOp26
 70
     1
102
RTVSPropertyOp27
 70
     1
102
RTVSPropertyOp28
 70
     1
102
RTVSPropertyOp29
 70
     1
102
RTVSPropertyOp30
 70
     1
102
RTVSPropertyOp31
 70
     1
102
RTVSPropertyOp32
 70
     1
102
RTVSPropertyOp33
 70
     1
102
RTVSPropertyOp34
 70
     1
102
RTVSPropertyOp35
 70
     1
102
RTVSPropertyOp36
 70
     1
102
RTVSPropertyOp37
 70
     1
102
RTVSPropertyOp38
 70
     1
102
RTVSPropertyOp39
 70
     1
102
RTVSPropertyOp40
 70
     1
102
RTVSPropertyOp41
 70
     1
102
RTVSPropertyOp42
 70
     1
102
RTVSPropertyOp43
 70
     1
102
RTVSPropertyOp44
 70
     1
102
RTVSPropertyOp45
 70
     1
102
RTVSPropertyOp46
 70
     1
102
RTVSPropertyOp47
 70
     1
102
RTVSPropertyOp48
 70
     1
102
RTVSPropertyOp49
 70
     1
102
RTVSPropertyOp50
 70
     1
102
RTVSPropertyOp51
 70
     0
102
RTVSPropertyOp52
 70
     0
102
RTVSPropertyOp53
 70
     1
102
RTVSPropertyOp54
 70
     1
102
RTVSPropertyOp55
 70
     1
102
RTVSPropertyOp56
 70
     1
102
RTVSPropertyOp57
 70
     1
102
RTVSPost2010Prop28
280
     0
102
RTVSPost2010PropOp28
 70
     1
102
RTVSPost2010Prop29
280
     1
102
RTVSPost2010PropOp29
 70
     1
102
RTVSPost2010Prop30
280
     1
102
RTVSPost2010PropOp30
 70
     1
102
RTVSPost2010Prop31
280
     0
102
RTVSPost2010PropOp31
 70
     1
102
RTVSPost2010Prop32
280
     0
102
RTVSPost2010PropOp32
 70
     1
102
RTVSPost2010Prop33
280
     0
102
RTVSPost2010PropOp33
 70
     1
102
RTVSPost2010Prop34
280
     0
102
RTVSPost2010PropOp34
 70
     1
102
RTVSPost2010Prop35
280
     0
102
RTVSPost2010PropOp35
 70
     1
102
RTVSPost2010Prop36
280
     0
102
RTVSPost2010PropOp36
 70
     1
102
RTVSPost2010Prop37
 90
       50
102
RTVSPost2010PropOp37
 70
     1
102
RTVSPost2010Prop38
140
0.0
102
RTVSPost2010PropOp38
 70
     1
102
RTVSPost2010Prop39
140
1.0
102
RTVSPost2010PropOp39
 70
     1
102
RTVSPost2010Prop40
 90
        0
102
RTVSPost2010PropOp40
 70
     1
102
RTVSPost2010Prop41ColorIndex
 90
       18
102
RTVSPost2010Prop41ColorRGB
 90
        0
102
RTVSPost2010PropOp41
 70
     1
102
RTVSPost2010Prop42
 90
       50
102
RTVSPost2010PropOp42
 70
     1
102
RTVSPost2010Prop43
 90
        3
102
RTVSPost2010PropOp43
 70
     1
102
RTVSPost2010Prop44ColorIndex
 90
        5
102
RTVSPost2010Prop44ColorRGB
 90
      255
102
RTVSPost2010PropOp44
 70
     1
102
RTVSPost2010Prop45
280
     0
102
RTVSPost2010PropOp45
 70
     1
102
RTVSPost2010Prop46
 90
       50
102
RTVSPost2010PropOp46
 70
     1
102
RTVSPost2010Prop47
 90
       50
102
RTVSPost2010PropOp47
 70
     1
102
RTVSPost2010Prop48
 90
       50
102
RTVSPost2010PropOp48
 70
     1
102
RTVSPost2010Prop49
280
     0
102
RTVSPost2010PropOp49
 70
     1
102
RTVSPost2010Prop50
 90
       50
102
RTVSPost2010PropOp50
 70
     1
102
RTVSPost2010Prop51ColorIndex
 90
      256
102
RTVSPost2010Prop51ColorRGB
 90
-16777216
102
RTVSPost2010PropOp51
 70
     0
102
RTVSPost2010Prop52
140
1.0
102
RTVSPost2010PropOp52
 70
     0
102
RTVSPost2010Prop53
 90
        2
102
RTVSPost2010PropOp53
 70
     1
102
RTVSPost2010Prop54
  1
strokes_ogs.tif
102
RTVSPost2010PropOp54
 70
     1
102
RTVSPost2010Prop55
280
     0
102
RTVSPost2010PropOp55
 70
     1
102
RTVSPost2010Prop56
140
1.0
102
RTVSPost2010PropOp56
 70
     1
102
RTVSPost2010Prop57
140
1.0
102
RTVSPost2010PropOp57
 70
     1
  0
XRECORD
  5
91C3F
102
{ACAD_REACTORS
330
87B36
102
}
330
87B36
100
AcDbXrecord
280
     1
102
RTVSPropertyOp0
 70
     1
102
RTVSPropertyOp1
 70
     1
102
RTVSPropertyOp2
 70
     1
102
RTVSPropertyOp3
 70
     1
102
RTVSPropertyOp4
 70
     1
102
RTVSPropertyOp5
 70
     1
102
RTVSPropertyOp6
 70
     1
102
RTVSPropertyOp7
 70
     1
102
RTVSPropertyOp8
 70
     1
102
RTVSPropertyOp9
 70
     1
102
RTVSPropertyOp10
 70
     1
102
RTVSPropertyOp11
 70
     1
102
RTVSPropertyOp12
 70
     1
102
RTVSPropertyOp13
 70
     1
102
RTVSPropertyOp14
 70
     1
102
RTVSPropertyOp15
 70
     1
102
RTVSPropertyOp16
 70
     1
102
RTVSPropertyOp17
 70
     1
102
RTVSPropertyOp18
 70
     1
102
RTVSPropertyOp19
 70
     1
102
RTVSPropertyOp20
 70
     1
102
RTVSPropertyOp21
 70
     1
102
RTVSPropertyOp22
 70
     1
102
RTVSPropertyOp23
 70
     1
102
RTVSPropertyOp24
 70
     1
102
RTVSPropertyOp25
 70
     1
102
RTVSPropertyOp26
 70
     1
102
RTVSPropertyOp27
 70
     1
102
RTVSPropertyOp28
 70
     1
102
RTVSPropertyOp29
 70
     1
102
RTVSPropertyOp30
 70
     1
102
RTVSPropertyOp31
 70
     1
102
RTVSPropertyOp32
 70
     1
102
RTVSPropertyOp33
 70
     1
102
RTVSPropertyOp34
 70
     1
102
RTVSPropertyOp35
 70
     1
102
RTVSPropertyOp36
 70
     1
102
RTVSPropertyOp37
 70
     1
102
RTVSPropertyOp38
 70
     1
102
RTVSPropertyOp39
 70
     1
102
RTVSPropertyOp40
 70
     1
102
RTVSPropertyOp41
 70
     1
102
RTVSPropertyOp42
 70
     1
102
RTVSPropertyOp43
 70
     1
102
RTVSPropertyOp44
 70
     1
102
RTVSPropertyOp45
 70
     1
102
RTVSPropertyOp46
 70
     1
102
RTVSPropertyOp47
 70
     1
102
RTVSPropertyOp48
 70
     1
102
RTVSPropertyOp49
 70
     1
102
RTVSPropertyOp50
 70
     1
102
RTVSPropertyOp51
 70
     0
102
RTVSPropertyOp52
 70
     0
102
RTVSPropertyOp53
 70
     1
102
RTVSPropertyOp54
 70
     1
102
RTVSPropertyOp55
 70
     1
102
RTVSPropertyOp56
 70
     1
102
RTVSPropertyOp57
 70
     1
102
RTVSPost2010Prop28
280
     0
102
RTVSPost2010PropOp28
 70
     1
102
RTVSPost2010Prop29
280
     1
102
RTVSPost2010PropOp29
 70
     1
102
RTVSPost2010Prop30
280
     1
102
RTVSPost2010PropOp30
 70
     1
102
RTVSPost2010Prop31
280
     0
102
RTVSPost2010PropOp31
 70
     1
102
RTVSPost2010Prop32
280
     0
102
RTVSPost2010PropOp32
 70
     1
102
RTVSPost2010Prop33
280
     0
102
RTVSPost2010PropOp33
 70
     1
102
RTVSPost2010Prop34
280
     0
102
RTVSPost2010PropOp34
 70
     1
102
RTVSPost2010Prop35
280
     0
102
RTVSPost2010PropOp35
 70
     1
102
RTVSPost2010Prop36
280
     0
102
RTVSPost2010PropOp36
 70
     1
102
RTVSPost2010Prop37
 90
       50
102
RTVSPost2010PropOp37
 70
     1
102
RTVSPost2010Prop38
140
0.0
102
RTVSPost2010PropOp38
 70
     1
102
RTVSPost2010Prop39
140
1.0
102
RTVSPost2010PropOp39
 70
     1
102
RTVSPost2010Prop40
 90
        0
102
RTVSPost2010PropOp40
 70
     1
102
RTVSPost2010Prop41ColorIndex
 90
       18
102
RTVSPost2010Prop41ColorRGB
 90
        0
102
RTVSPost2010PropOp41
 70
     1
102
RTVSPost2010Prop42
 90
       50
102
RTVSPost2010PropOp42
 70
     1
102
RTVSPost2010Prop43
 90
        3
102
RTVSPost2010PropOp43
 70
     1
102
RTVSPost2010Prop44ColorIndex
 90
        5
102
RTVSPost2010Prop44ColorRGB
 90
      255
102
RTVSPost2010PropOp44
 70
     1
102
RTVSPost2010Prop45
280
     0
102
RTVSPost2010PropOp45
 70
     1
102
RTVSPost2010Prop46
 90
       50
102
RTVSPost2010PropOp46
 70
     1
102
RTVSPost2010Prop47
 90
       50
102
RTVSPost2010PropOp47
 70
     1
102
RTVSPost2010Prop48
 90
       50
102
RTVSPost2010PropOp48
 70
     1
102
RTVSPost2010Prop49
280
     0
102
RTVSPost2010PropOp49
 70
     1
102
RTVSPost2010Prop50
 90
       50
102
RTVSPost2010PropOp50
 70
     1
102
RTVSPost2010Prop51ColorIndex
 90
      256
102
RTVSPost2010Prop51ColorRGB
 90
-16777216
102
RTVSPost2010PropOp51
 70
     0
102
RTVSPost2010Prop52
140
1.0
102
RTVSPost2010PropOp52
 70
     0
102
RTVSPost2010Prop53
 90
        2
102
RTVSPost2010PropOp53
 70
     1
102
RTVSPost2010Prop54
  1
strokes_ogs.tif
102
RTVSPost2010PropOp54
 70
     1
102
RTVSPost2010Prop55
280
     0
102
RTVSPost2010PropOp55
 70
     1
102
RTVSPost2010Prop56
140
1.0
102
RTVSPost2010PropOp56
 70
     1
102
RTVSPost2010Prop57
140
1.0
102
RTVSPost2010PropOp57
 70
     1
  0
XRECORD
  5
91C40
102
{ACAD_REACTORS
330
87B34
102
}
330
87B34
100
AcDbXrecord
280
     1
102
RTVSPropertyOp0
 70
     1
102
RTVSPropertyOp1
 70
     1
102
RTVSPropertyOp2
 70
     1
102
RTVSPropertyOp3
 70
     1
102
RTVSPropertyOp4
 70
     1
102
RTVSPropertyOp5
 70
     1
102
RTVSPropertyOp6
 70
     1
102
RTVSPropertyOp7
 70
     1
102
RTVSPropertyOp8
 70
     1
102
RTVSPropertyOp9
 70
     1
102
RTVSPropertyOp10
 70
     1
102
RTVSPropertyOp11
 70
     1
102
RTVSPropertyOp12
 70
     1
102
RTVSPropertyOp13
 70
     1
102
RTVSPropertyOp14
 70
     1
102
RTVSPropertyOp15
 70
     1
102
RTVSPropertyOp16
 70
     1
102
RTVSPropertyOp17
 70
     1
102
RTVSPropertyOp18
 70
     1
102
RTVSPropertyOp19
 70
     1
102
RTVSPropertyOp20
 70
     1
102
RTVSPropertyOp21
 70
     1
102
RTVSPropertyOp22
 70
     1
102
RTVSPropertyOp23
 70
     1
102
RTVSPropertyOp24
 70
     1
102
RTVSPropertyOp25
 70
     1
102
RTVSPropertyOp26
 70
     1
102
RTVSPropertyOp27
 70
     1
102
RTVSPropertyOp28
 70
     1
102
RTVSPropertyOp29
 70
     1
102
RTVSPropertyOp30
 70
     1
102
RTVSPropertyOp31
 70
     1
102
RTVSPropertyOp32
 70
     1
102
RTVSPropertyOp33
 70
     1
102
RTVSPropertyOp34
 70
     1
102
RTVSPropertyOp35
 70
     1
102
RTVSPropertyOp36
 70
     1
102
RTVSPropertyOp37
 70
     1
102
RTVSPropertyOp38
 70
     1
102
RTVSPropertyOp39
 70
     1
102
RTVSPropertyOp40
 70
     1
102
RTVSPropertyOp41
 70
     1
102
RTVSPropertyOp42
 70
     1
102
RTVSPropertyOp43
 70
     1
102
RTVSPropertyOp44
 70
     1
102
RTVSPropertyOp45
 70
     1
102
RTVSPropertyOp46
 70
     1
102
RTVSPropertyOp47
 70
     1
102
RTVSPropertyOp48
 70
     1
102
RTVSPropertyOp49
 70
     1
102
RTVSPropertyOp50
 70
     1
102
RTVSPropertyOp51
 70
     0
102
RTVSPropertyOp52
 70
     0
102
RTVSPropertyOp53
 70
     1
102
RTVSPropertyOp54
 70
     1
102
RTVSPropertyOp55
 70
     1
102
RTVSPropertyOp56
 70
     1
102
RTVSPropertyOp57
 70
     1
102
RTVSPost2010Prop28
280
     0
102
RTVSPost2010PropOp28
 70
     1
102
RTVSPost2010Prop29
280
     1
102
RTVSPost2010PropOp29
 70
     1
102
RTVSPost2010Prop30
280
     1
102
RTVSPost2010PropOp30
 70
     1
102
RTVSPost2010Prop31
280
     0
102
RTVSPost2010PropOp31
 70
     1
102
RTVSPost2010Prop32
280
     0
102
RTVSPost2010PropOp32
 70
     1
102
RTVSPost2010Prop33
280
     0
102
RTVSPost2010PropOp33
 70
     1
102
RTVSPost2010Prop34
280
     0
102
RTVSPost2010PropOp34
 70
     1
102
RTVSPost2010Prop35
280
     0
102
RTVSPost2010PropOp35
 70
     1
102
RTVSPost2010Prop36
280
     0
102
RTVSPost2010PropOp36
 70
     1
102
RTVSPost2010Prop37
 90
       50
102
RTVSPost2010PropOp37
 70
     1
102
RTVSPost2010Prop38
140
0.0
102
RTVSPost2010PropOp38
 70
     1
102
RTVSPost2010Prop39
140
1.0
102
RTVSPost2010PropOp39
 70
     1
102
RTVSPost2010Prop40
 90
        0
102
RTVSPost2010PropOp40
 70
     1
102
RTVSPost2010Prop41ColorIndex
 90
       18
102
RTVSPost2010Prop41ColorRGB
 90
        0
102
RTVSPost2010PropOp41
 70
     1
102
RTVSPost2010Prop42
 90
       50
102
RTVSPost2010PropOp42
 70
     1
102
RTVSPost2010Prop43
 90
        3
102
RTVSPost2010PropOp43
 70
     1
102
RTVSPost2010Prop44ColorIndex
 90
        5
102
RTVSPost2010Prop44ColorRGB
 90
      255
102
RTVSPost2010PropOp44
 70
     1
102
RTVSPost2010Prop45
280
     0
102
RTVSPost2010PropOp45
 70
     1
102
RTVSPost2010Prop46
 90
       50
102
RTVSPost2010PropOp46
 70
     1
102
RTVSPost2010Prop47
 90
       50
102
RTVSPost2010PropOp47
 70
     1
102
RTVSPost2010Prop48
 90
       50
102
RTVSPost2010PropOp48
 70
     1
102
RTVSPost2010Prop49
280
     0
102
RTVSPost2010PropOp49
 70
     1
102
RTVSPost2010Prop50
 90
       50
102
RTVSPost2010PropOp50
 70
     1
102
RTVSPost2010Prop51ColorIndex
 90
      256
102
RTVSPost2010Prop51ColorRGB
 90
-16777216
102
RTVSPost2010PropOp51
 70
     0
102
RTVSPost2010Prop52
140
1.0
102
RTVSPost2010PropOp52
 70
     0
102
RTVSPost2010Prop53
 90
        2
102
RTVSPost2010PropOp53
 70
     1
102
RTVSPost2010Prop54
  1
strokes_ogs.tif
102
RTVSPost2010PropOp54
 70
     1
102
RTVSPost2010Prop55
280
     0
102
RTVSPost2010PropOp55
 70
     1
102
RTVSPost2010Prop56
140
1.0
102
RTVSPost2010PropOp56
 70
     1
102
RTVSPost2010Prop57
140
1.0
102
RTVSPost2010PropOp57
 70
     1
  0
XRECORD
  5
91C41
102
{ACAD_REACTORS
330
87B2E
102
}
330
87B2E
100
AcDbXrecord
280
     1
102
RTVSPropertyOp0
 70
     1
102
RTVSPropertyOp1
 70
     1
102
RTVSPropertyOp2
 70
     1
102
RTVSPropertyOp3
 70
     1
102
RTVSPropertyOp4
 70
     1
102
RTVSPropertyOp5
 70
     1
102
RTVSPropertyOp6
 70
     1
102
RTVSPropertyOp7
 70
     1
102
RTVSPropertyOp8
 70
     1
102
RTVSPropertyOp9
 70
     1
102
RTVSPropertyOp10
 70
     1
102
RTVSPropertyOp11
 70
     1
102
RTVSPropertyOp12
 70
     1
102
RTVSPropertyOp13
 70
     1
102
RTVSPropertyOp14
 70
     1
102
RTVSPropertyOp15
 70
     1
102
RTVSPropertyOp16
 70
     1
102
RTVSPropertyOp17
 70
     1
102
RTVSPropertyOp18
 70
     1
102
RTVSPropertyOp19
 70
     1
102
RTVSPropertyOp20
 70
     1
102
RTVSPropertyOp21
 70
     1
102
RTVSPropertyOp22
 70
     1
102
RTVSPropertyOp23
 70
     1
102
RTVSPropertyOp24
 70
     1
102
RTVSPropertyOp25
 70
     1
102
RTVSPropertyOp26
 70
     1
102
RTVSPropertyOp27
 70
     1
102
RTVSPropertyOp28
 70
     1
102
RTVSPropertyOp29
 70
     1
102
RTVSPropertyOp30
 70
     1
102
RTVSPropertyOp31
 70
     1
102
RTVSPropertyOp32
 70
     1
102
RTVSPropertyOp33
 70
     1
102
RTVSPropertyOp34
 70
     1
102
RTVSPropertyOp35
 70
     1
102
RTVSPropertyOp36
 70
     1
102
RTVSPropertyOp37
 70
     1
102
RTVSPropertyOp38
 70
     1
102
RTVSPropertyOp39
 70
     1
102
RTVSPropertyOp40
 70
     1
102
RTVSPropertyOp41
 70
     1
102
RTVSPropertyOp42
 70
     1
102
RTVSPropertyOp43
 70
     1
102
RTVSPropertyOp44
 70
     1
102
RTVSPropertyOp45
 70
     1
102
RTVSPropertyOp46
 70
     1
102
RTVSPropertyOp47
 70
     1
102
RTVSPropertyOp48
 70
     1
102
RTVSPropertyOp49
 70
     1
102
RTVSPropertyOp50
 70
     1
102
RTVSPropertyOp51
 70
     0
102
RTVSPropertyOp52
 70
     0
102
RTVSPropertyOp53
 70
     1
102
RTVSPropertyOp54
 70
     1
102
RTVSPropertyOp55
 70
     1
102
RTVSPropertyOp56
 70
     1
102
RTVSPropertyOp57
 70
     1
102
RTVSPost2010Prop28
280
     0
102
RTVSPost2010PropOp28
 70
     1
102
RTVSPost2010Prop29
280
     1
102
RTVSPost2010PropOp29
 70
     1
102
RTVSPost2010Prop30
280
     1
102
RTVSPost2010PropOp30
 70
     1
102
RTVSPost2010Prop31
280
     0
102
RTVSPost2010PropOp31
 70
     1
102
RTVSPost2010Prop32
280
     0
102
RTVSPost2010PropOp32
 70
     1
102
RTVSPost2010Prop33
280
     0
102
RTVSPost2010PropOp33
 70
     1
102
RTVSPost2010Prop34
280
     0
102
RTVSPost2010PropOp34
 70
     1
102
RTVSPost2010Prop35
280
     0
102
RTVSPost2010PropOp35
 70
     1
102
RTVSPost2010Prop36
280
     0
102
RTVSPost2010PropOp36
 70
     1
102
RTVSPost2010Prop37
 90
       50
102
RTVSPost2010PropOp37
 70
     1
102
RTVSPost2010Prop38
140
0.0
102
RTVSPost2010PropOp38
 70
     1
102
RTVSPost2010Prop39
140
1.0
102
RTVSPost2010PropOp39
 70
     1
102
RTVSPost2010Prop40
 90
        0
102
RTVSPost2010PropOp40
 70
     1
102
RTVSPost2010Prop41ColorIndex
 90
       18
102
RTVSPost2010Prop41ColorRGB
 90
        0
102
RTVSPost2010PropOp41
 70
     1
102
RTVSPost2010Prop42
 90
       50
102
RTVSPost2010PropOp42
 70
     1
102
RTVSPost2010Prop43
 90
        3
102
RTVSPost2010PropOp43
 70
     1
102
RTVSPost2010Prop44ColorIndex
 90
        5
102
RTVSPost2010Prop44ColorRGB
 90
      255
102
RTVSPost2010PropOp44
 70
     1
102
RTVSPost2010Prop45
280
     0
102
RTVSPost2010PropOp45
 70
     1
102
RTVSPost2010Prop46
 90
       50
102
RTVSPost2010PropOp46
 70
     1
102
RTVSPost2010Prop47
 90
       50
102
RTVSPost2010PropOp47
 70
     1
102
RTVSPost2010Prop48
 90
       50
102
RTVSPost2010PropOp48
 70
     1
102
RTVSPost2010Prop49
280
     0
102
RTVSPost2010PropOp49
 70
     1
102
RTVSPost2010Prop50
 90
       50
102
RTVSPost2010PropOp50
 70
     1
102
RTVSPost2010Prop51ColorIndex
 90
      256
102
RTVSPost2010Prop51ColorRGB
 90
-16777216
102
RTVSPost2010PropOp51
 70
     0
102
RTVSPost2010Prop52
140
1.0
102
RTVSPost2010PropOp52
 70
     0
102
RTVSPost2010Prop53
 90
        2
102
RTVSPost2010PropOp53
 70
     1
102
RTVSPost2010Prop54
  1
strokes_ogs.tif
102
RTVSPost2010PropOp54
 70
     1
102
RTVSPost2010Prop55
280
     0
102
RTVSPost2010PropOp55
 70
     1
102
RTVSPost2010Prop56
140
1.0
102
RTVSPost2010PropOp56
 70
     1
102
RTVSPost2010Prop57
140
1.0
102
RTVSPost2010PropOp57
 70
     1
  0
XRECORD
  5
91C42
102
{ACAD_REACTORS
330
87B30
102
}
330
87B30
100
AcDbXrecord
280
     1
102
RTVSPropertyOp0
 70
     1
102
RTVSPropertyOp1
 70
     1
102
RTVSPropertyOp2
 70
     1
102
RTVSPropertyOp3
 70
     1
102
RTVSPropertyOp4
 70
     1
102
RTVSPropertyOp5
 70
     1
102
RTVSPropertyOp6
 70
     1
102
RTVSPropertyOp7
 70
     1
102
RTVSPropertyOp8
 70
     1
102
RTVSPropertyOp9
 70
     1
102
RTVSPropertyOp10
 70
     1
102
RTVSPropertyOp11
 70
     1
102
RTVSPropertyOp12
 70
     1
102
RTVSPropertyOp13
 70
     1
102
RTVSPropertyOp14
 70
     1
102
RTVSPropertyOp15
 70
     1
102
RTVSPropertyOp16
 70
     1
102
RTVSPropertyOp17
 70
     1
102
RTVSPropertyOp18
 70
     1
102
RTVSPropertyOp19
 70
     1
102
RTVSPropertyOp20
 70
     1
102
RTVSPropertyOp21
 70
     1
102
RTVSPropertyOp22
 70
     1
102
RTVSPropertyOp23
 70
     1
102
RTVSPropertyOp24
 70
     1
102
RTVSPropertyOp25
 70
     1
102
RTVSPropertyOp26
 70
     1
102
RTVSPropertyOp27
 70
     1
102
RTVSPropertyOp28
 70
     1
102
RTVSPropertyOp29
 70
     1
102
RTVSPropertyOp30
 70
     1
102
RTVSPropertyOp31
 70
     1
102
RTVSPropertyOp32
 70
     1
102
RTVSPropertyOp33
 70
     1
102
RTVSPropertyOp34
 70
     1
102
RTVSPropertyOp35
 70
     1
102
RTVSPropertyOp36
 70
     1
102
RTVSPropertyOp37
 70
     1
102
RTVSPropertyOp38
 70
     1
102
RTVSPropertyOp39
 70
     1
102
RTVSPropertyOp40
 70
     1
102
RTVSPropertyOp41
 70
     1
102
RTVSPropertyOp42
 70
     1
102
RTVSPropertyOp43
 70
     1
102
RTVSPropertyOp44
 70
     1
102
RTVSPropertyOp45
 70
     1
102
RTVSPropertyOp46
 70
     1
102
RTVSPropertyOp47
 70
     1
102
RTVSPropertyOp48
 70
     1
102
RTVSPropertyOp49
 70
     1
102
RTVSPropertyOp50
 70
     1
102
RTVSPropertyOp51
 70
     0
102
RTVSPropertyOp52
 70
     0
102
RTVSPropertyOp53
 70
     1
102
RTVSPropertyOp54
 70
     1
102
RTVSPropertyOp55
 70
     1
102
RTVSPropertyOp56
 70
     1
102
RTVSPropertyOp57
 70
     1
102
RTVSPost2010Prop28
280
     0
102
RTVSPost2010PropOp28
 70
     1
102
RTVSPost2010Prop29
280
     1
102
RTVSPost2010PropOp29
 70
     1
102
RTVSPost2010Prop30
280
     1
102
RTVSPost2010PropOp30
 70
     1
102
RTVSPost2010Prop31
280
     0
102
RTVSPost2010PropOp31
 70
     1
102
RTVSPost2010Prop32
280
     0
102
RTVSPost2010PropOp32
 70
     1
102
RTVSPost2010Prop33
280
     0
102
RTVSPost2010PropOp33
 70
     1
102
RTVSPost2010Prop34
280
     0
102
RTVSPost2010PropOp34
 70
     1
102
RTVSPost2010Prop35
280
     0
102
RTVSPost2010PropOp35
 70
     1
102
RTVSPost2010Prop36
280
     0
102
RTVSPost2010PropOp36
 70
     1
102
RTVSPost2010Prop37
 90
       50
102
RTVSPost2010PropOp37
 70
     1
102
RTVSPost2010Prop38
140
0.0
102
RTVSPost2010PropOp38
 70
     1
102
RTVSPost2010Prop39
140
1.0
102
RTVSPost2010PropOp39
 70
     1
102
RTVSPost2010Prop40
 90
        0
102
RTVSPost2010PropOp40
 70
     1
102
RTVSPost2010Prop41ColorIndex
 90
       18
102
RTVSPost2010Prop41ColorRGB
 90
        0
102
RTVSPost2010PropOp41
 70
     1
102
RTVSPost2010Prop42
 90
       50
102
RTVSPost2010PropOp42
 70
     1
102
RTVSPost2010Prop43
 90
        3
102
RTVSPost2010PropOp43
 70
     1
102
RTVSPost2010Prop44ColorIndex
 90
        5
102
RTVSPost2010Prop44ColorRGB
 90
      255
102
RTVSPost2010PropOp44
 70
     1
102
RTVSPost2010Prop45
280
     0
102
RTVSPost2010PropOp45
 70
     1
102
RTVSPost2010Prop46
 90
       50
102
RTVSPost2010PropOp46
 70
     1
102
RTVSPost2010Prop47
 90
       50
102
RTVSPost2010PropOp47
 70
     1
102
RTVSPost2010Prop48
 90
       50
102
RTVSPost2010PropOp48
 70
     1
102
RTVSPost2010Prop49
280
     0
102
RTVSPost2010PropOp49
 70
     1
102
RTVSPost2010Prop50
 90
       50
102
RTVSPost2010PropOp50
 70
     1
102
RTVSPost2010Prop51ColorIndex
 90
      256
102
RTVSPost2010Prop51ColorRGB
 90
-16777216
102
RTVSPost2010PropOp51
 70
     0
102
RTVSPost2010Prop52
140
1.0
102
RTVSPost2010PropOp52
 70
     0
102
RTVSPost2010Prop53
 90
        2
102
RTVSPost2010PropOp53
 70
     1
102
RTVSPost2010Prop54
  1
strokes_ogs.tif
102
RTVSPost2010PropOp54
 70
     1
102
RTVSPost2010Prop55
280
     0
102
RTVSPost2010PropOp55
 70
     1
102
RTVSPost2010Prop56
140
1.0
102
RTVSPost2010PropOp56
 70
     1
102
RTVSPost2010Prop57
140
1.0
102
RTVSPost2010PropOp57
 70
     1
  0
XRECORD
  5
91C43
102
{ACAD_REACTORS
330
87B26
102
}
330
87B26
100
AcDbXrecord
280
     1
102
RTVSPropertyOp0
 70
     1
102
RTVSPropertyOp1
 70
     1
102
RTVSPropertyOp2
 70
     1
102
RTVSPropertyOp3
 70
     1
102
RTVSPropertyOp4
 70
     1
102
RTVSPropertyOp5
 70
     1
102
RTVSPropertyOp6
 70
     1
102
RTVSPropertyOp7
 70
     1
102
RTVSPropertyOp8
 70
     1
102
RTVSPropertyOp9
 70
     1
102
RTVSPropertyOp10
 70
     1
102
RTVSPropertyOp11
 70
     1
102
RTVSPropertyOp12
 70
     1
102
RTVSPropertyOp13
 70
     1
102
RTVSPropertyOp14
 70
     1
102
RTVSPropertyOp15
 70
     1
102
RTVSPropertyOp16
 70
     1
102
RTVSPropertyOp17
 70
     1
102
RTVSPropertyOp18
 70
     1
102
RTVSPropertyOp19
 70
     1
102
RTVSPropertyOp20
 70
     1
102
RTVSPropertyOp21
 70
     1
102
RTVSPropertyOp22
 70
     1
102
RTVSPropertyOp23
 70
     1
102
RTVSPropertyOp24
 70
     1
102
RTVSPropertyOp25
 70
     1
102
RTVSPropertyOp26
 70
     1
102
RTVSPropertyOp27
 70
     1
102
RTVSPropertyOp28
 70
     1
102
RTVSPropertyOp29
 70
     1
102
RTVSPropertyOp30
 70
     1
102
RTVSPropertyOp31
 70
     1
102
RTVSPropertyOp32
 70
     1
102
RTVSPropertyOp33
 70
     1
102
RTVSPropertyOp34
 70
     1
102
RTVSPropertyOp35
 70
     1
102
RTVSPropertyOp36
 70
     1
102
RTVSPropertyOp37
 70
     1
102
RTVSPropertyOp38
 70
     1
102
RTVSPropertyOp39
 70
     1
102
RTVSPropertyOp40
 70
     1
102
RTVSPropertyOp41
 70
     1
102
RTVSPropertyOp42
 70
     1
102
RTVSPropertyOp43
 70
     1
102
RTVSPropertyOp44
 70
     1
102
RTVSPropertyOp45
 70
     1
102
RTVSPropertyOp46
 70
     1
102
RTVSPropertyOp47
 70
     1
102
RTVSPropertyOp48
 70
     1
102
RTVSPropertyOp49
 70
     1
102
RTVSPropertyOp50
 70
     1
102
RTVSPropertyOp51
 70
     0
102
RTVSPropertyOp52
 70
     0
102
RTVSPropertyOp53
 70
     1
102
RTVSPropertyOp54
 70
     1
102
RTVSPropertyOp55
 70
     1
102
RTVSPropertyOp56
 70
     1
102
RTVSPropertyOp57
 70
     1
102
RTVSPost2010Prop28
280
     0
102
RTVSPost2010PropOp28
 70
     1
102
RTVSPost2010Prop29
280
     1
102
RTVSPost2010PropOp29
 70
     1
102
RTVSPost2010Prop30
280
     1
102
RTVSPost2010PropOp30
 70
     1
102
RTVSPost2010Prop31
280
     0
102
RTVSPost2010PropOp31
 70
     1
102
RTVSPost2010Prop32
280
     0
102
RTVSPost2010PropOp32
 70
     1
102
RTVSPost2010Prop33
280
     0
102
RTVSPost2010PropOp33
 70
     1
102
RTVSPost2010Prop34
280
     0
102
RTVSPost2010PropOp34
 70
     1
102
RTVSPost2010Prop35
280
     0
102
RTVSPost2010PropOp35
 70
     1
102
RTVSPost2010Prop36
280
     0
102
RTVSPost2010PropOp36
 70
     1
102
RTVSPost2010Prop37
 90
       50
102
RTVSPost2010PropOp37
 70
     1
102
RTVSPost2010Prop38
140
0.0
102
RTVSPost2010PropOp38
 70
     1
102
RTVSPost2010Prop39
140
1.0
102
RTVSPost2010PropOp39
 70
     1
102
RTVSPost2010Prop40
 90
        0
102
RTVSPost2010PropOp40
 70
     1
102
RTVSPost2010Prop41ColorIndex
 90
       18
102
RTVSPost2010Prop41ColorRGB
 90
        0
102
RTVSPost2010PropOp41
 70
     1
102
RTVSPost2010Prop42
 90
       50
102
RTVSPost2010PropOp42
 70
     1
102
RTVSPost2010Prop43
 90
        3
102
RTVSPost2010PropOp43
 70
     1
102
RTVSPost2010Prop44ColorIndex
 90
        5
102
RTVSPost2010Prop44ColorRGB
 90
      255
102
RTVSPost2010PropOp44
 70
     1
102
RTVSPost2010Prop45
280
     0
102
RTVSPost2010PropOp45
 70
     1
102
RTVSPost2010Prop46
 90
       50
102
RTVSPost2010PropOp46
 70
     1
102
RTVSPost2010Prop47
 90
       50
102
RTVSPost2010PropOp47
 70
     1
102
RTVSPost2010Prop48
 90
       50
102
RTVSPost2010PropOp48
 70
     1
102
RTVSPost2010Prop49
280
     0
102
RTVSPost2010PropOp49
 70
     1
102
RTVSPost2010Prop50
 90
       50
102
RTVSPost2010PropOp50
 70
     1
102
RTVSPost2010Prop51ColorIndex
 90
      256
102
RTVSPost2010Prop51ColorRGB
 90
-16777216
102
RTVSPost2010PropOp51
 70
     0
102
RTVSPost2010Prop52
140
1.0
102
RTVSPost2010PropOp52
 70
     0
102
RTVSPost2010Prop53
 90
        2
102
RTVSPost2010PropOp53
 70
     1
102
RTVSPost2010Prop54
  1
strokes_ogs.tif
102
RTVSPost2010PropOp54
 70
     1
102
RTVSPost2010Prop55
280
     0
102
RTVSPost2010PropOp55
 70
     1
102
RTVSPost2010Prop56
140
1.0
102
RTVSPost2010PropOp56
 70
     1
102
RTVSPost2010Prop57
140
1.0
102
RTVSPost2010PropOp57
 70
     1
  0
XRECORD
  5
91C44
102
{ACAD_REACTORS
330
87B1A
102
}
330
87B1A
100
AcDbXrecord
280
     1
102
RTVSPropertyOp0
 70
     1
102
RTVSPropertyOp1
 70
     1
102
RTVSPropertyOp2
 70
     1
102
RTVSPropertyOp3
 70
     1
102
RTVSPropertyOp4
 70
     1
102
RTVSPropertyOp5
 70
     1
102
RTVSPropertyOp6
 70
     1
102
RTVSPropertyOp7
 70
     1
102
RTVSPropertyOp8
 70
     1
102
RTVSPropertyOp9
 70
     1
102
RTVSPropertyOp10
 70
     1
102
RTVSPropertyOp11
 70
     1
102
RTVSPropertyOp12
 70
     1
102
RTVSPropertyOp13
 70
     1
102
RTVSPropertyOp14
 70
     1
102
RTVSPropertyOp15
 70
     1
102
RTVSPropertyOp16
 70
     1
102
RTVSPropertyOp17
 70
     1
102
RTVSPropertyOp18
 70
     1
102
RTVSPropertyOp19
 70
     1
102
RTVSPropertyOp20
 70
     1
102
RTVSPropertyOp21
 70
     1
102
RTVSPropertyOp22
 70
     1
102
RTVSPropertyOp23
 70
     1
102
RTVSPropertyOp24
 70
     1
102
RTVSPropertyOp25
 70
     1
102
RTVSPropertyOp26
 70
     1
102
RTVSPropertyOp27
 70
     1
102
RTVSPropertyOp28
 70
     1
102
RTVSPropertyOp29
 70
     1
102
RTVSPropertyOp30
 70
     1
102
RTVSPropertyOp31
 70
     1
102
RTVSPropertyOp32
 70
     1
102
RTVSPropertyOp33
 70
     1
102
RTVSPropertyOp34
 70
     1
102
RTVSPropertyOp35
 70
     1
102
RTVSPropertyOp36
 70
     1
102
RTVSPropertyOp37
 70
     1
102
RTVSPropertyOp38
 70
     1
102
RTVSPropertyOp39
 70
     1
102
RTVSPropertyOp40
 70
     1
102
RTVSPropertyOp41
 70
     1
102
RTVSPropertyOp42
 70
     1
102
RTVSPropertyOp43
 70
     1
102
RTVSPropertyOp44
 70
     1
102
RTVSPropertyOp45
 70
     1
102
RTVSPropertyOp46
 70
     1
102
RTVSPropertyOp47
 70
     1
102
RTVSPropertyOp48
 70
     1
102
RTVSPropertyOp49
 70
     1
102
RTVSPropertyOp50
 70
     1
102
RTVSPropertyOp51
 70
     0
102
RTVSPropertyOp52
 70
     0
102
RTVSPropertyOp53
 70
     1
102
RTVSPropertyOp54
 70
     1
102
RTVSPropertyOp55
 70
     1
102
RTVSPropertyOp56
 70
     1
102
RTVSPropertyOp57
 70
     1
102
RTVSPost2010Prop28
280
     0
102
RTVSPost2010PropOp28
 70
     1
102
RTVSPost2010Prop29
280
     1
102
RTVSPost2010PropOp29
 70
     1
102
RTVSPost2010Prop30
280
     1
102
RTVSPost2010PropOp30
 70
     1
102
RTVSPost2010Prop31
280
     0
102
RTVSPost2010PropOp31
 70
     1
102
RTVSPost2010Prop32
280
     0
102
RTVSPost2010PropOp32
 70
     1
102
RTVSPost2010Prop33
280
     0
102
RTVSPost2010PropOp33
 70
     1
102
RTVSPost2010Prop34
280
     0
102
RTVSPost2010PropOp34
 70
     1
102
RTVSPost2010Prop35
280
     0
102
RTVSPost2010PropOp35
 70
     1
102
RTVSPost2010Prop36
280
     0
102
RTVSPost2010PropOp36
 70
     1
102
RTVSPost2010Prop37
 90
       50
102
RTVSPost2010PropOp37
 70
     1
102
RTVSPost2010Prop38
140
0.0
102
RTVSPost2010PropOp38
 70
     1
102
RTVSPost2010Prop39
140
1.0
102
RTVSPost2010PropOp39
 70
     1
102
RTVSPost2010Prop40
 90
        0
102
RTVSPost2010PropOp40
 70
     1
102
RTVSPost2010Prop41ColorIndex
 90
       18
102
RTVSPost2010Prop41ColorRGB
 90
        0
102
RTVSPost2010PropOp41
 70
     1
102
RTVSPost2010Prop42
 90
       50
102
RTVSPost2010PropOp42
 70
     1
102
RTVSPost2010Prop43
 90
        3
102
RTVSPost2010PropOp43
 70
     1
102
RTVSPost2010Prop44ColorIndex
 90
        5
102
RTVSPost2010Prop44ColorRGB
 90
      255
102
RTVSPost2010PropOp44
 70
     1
102
RTVSPost2010Prop45
280
     0
102
RTVSPost2010PropOp45
 70
     1
102
RTVSPost2010Prop46
 90
       50
102
RTVSPost2010PropOp46
 70
     1
102
RTVSPost2010Prop47
 90
       50
102
RTVSPost2010PropOp47
 70
     1
102
RTVSPost2010Prop48
 90
       50
102
RTVSPost2010PropOp48
 70
     1
102
RTVSPost2010Prop49
280
     0
102
RTVSPost2010PropOp49
 70
     1
102
RTVSPost2010Prop50
 90
       50
102
RTVSPost2010PropOp50
 70
     1
102
RTVSPost2010Prop51ColorIndex
 90
      256
102
RTVSPost2010Prop51ColorRGB
 90
-16777216
102
RTVSPost2010PropOp51
 70
     0
102
RTVSPost2010Prop52
140
1.0
102
RTVSPost2010PropOp52
 70
     0
102
RTVSPost2010Prop53
 90
        2
102
RTVSPost2010PropOp53
 70
     1
102
RTVSPost2010Prop54
  1
strokes_ogs.tif
102
RTVSPost2010PropOp54
 70
     1
102
RTVSPost2010Prop55
280
     0
102
RTVSPost2010PropOp55
 70
     1
102
RTVSPost2010Prop56
140
1.0
102
RTVSPost2010PropOp56
 70
     1
102
RTVSPost2010Prop57
140
1.0
102
RTVSPost2010PropOp57
 70
     1
  0
XRECORD
  5
91C45
102
{ACAD_REACTORS
330
87B32
102
}
330
87B32
100
AcDbXrecord
280
     1
102
RTVSPropertyOp0
 70
     1
102
RTVSPropertyOp1
 70
     1
102
RTVSPropertyOp2
 70
     1
102
RTVSPropertyOp3
 70
     1
102
RTVSPropertyOp4
 70
     1
102
RTVSPropertyOp5
 70
     1
102
RTVSPropertyOp6
 70
     1
102
RTVSPropertyOp7
 70
     1
102
RTVSPropertyOp8
 70
     1
102
RTVSPropertyOp9
 70
     1
102
RTVSPropertyOp10
 70
     1
102
RTVSPropertyOp11
 70
     1
102
RTVSPropertyOp12
 70
     1
102
RTVSPropertyOp13
 70
     1
102
RTVSPropertyOp14
 70
     1
102
RTVSPropertyOp15
 70
     1
102
RTVSPropertyOp16
 70
     1
102
RTVSPropertyOp17
 70
     1
102
RTVSPropertyOp18
 70
     1
102
RTVSPropertyOp19
 70
     1
102
RTVSPropertyOp20
 70
     1
102
RTVSPropertyOp21
 70
     1
102
RTVSPropertyOp22
 70
     1
102
RTVSPropertyOp23
 70
     1
102
RTVSPropertyOp24
 70
     1
102
RTVSPropertyOp25
 70
     1
102
RTVSPropertyOp26
 70
     1
102
RTVSPropertyOp27
 70
     1
102
RTVSPropertyOp28
 70
     1
102
RTVSPropertyOp29
 70
     1
102
RTVSPropertyOp30
 70
     1
102
RTVSPropertyOp31
 70
     1
102
RTVSPropertyOp32
 70
     1
102
RTVSPropertyOp33
 70
     1
102
RTVSPropertyOp34
 70
     1
102
RTVSPropertyOp35
 70
     1
102
RTVSPropertyOp36
 70
     1
102
RTVSPropertyOp37
 70
     1
102
RTVSPropertyOp38
 70
     1
102
RTVSPropertyOp39
 70
     1
102
RTVSPropertyOp40
 70
     1
102
RTVSPropertyOp41
 70
     1
102
RTVSPropertyOp42
 70
     1
102
RTVSPropertyOp43
 70
     1
102
RTVSPropertyOp44
 70
     1
102
RTVSPropertyOp45
 70
     1
102
RTVSPropertyOp46
 70
     1
102
RTVSPropertyOp47
 70
     1
102
RTVSPropertyOp48
 70
     1
102
RTVSPropertyOp49
 70
     1
102
RTVSPropertyOp50
 70
     1
102
RTVSPropertyOp51
 70
     0
102
RTVSPropertyOp52
 70
     0
102
RTVSPropertyOp53
 70
     1
102
RTVSPropertyOp54
 70
     1
102
RTVSPropertyOp55
 70
     1
102
RTVSPropertyOp56
 70
     1
102
RTVSPropertyOp57
 70
     1
102
RTVSPost2010Prop28
280
     0
102
RTVSPost2010PropOp28
 70
     1
102
RTVSPost2010Prop29
280
     1
102
RTVSPost2010PropOp29
 70
     1
102
RTVSPost2010Prop30
280
     1
102
RTVSPost2010PropOp30
 70
     1
102
RTVSPost2010Prop31
280
     0
102
RTVSPost2010PropOp31
 70
     1
102
RTVSPost2010Prop32
280
     0
102
RTVSPost2010PropOp32
 70
     1
102
RTVSPost2010Prop33
280
     0
102
RTVSPost2010PropOp33
 70
     1
102
RTVSPost2010Prop34
280
     0
102
RTVSPost2010PropOp34
 70
     1
102
RTVSPost2010Prop35
280
     0
102
RTVSPost2010PropOp35
 70
     1
102
RTVSPost2010Prop36
280
     0
102
RTVSPost2010PropOp36
 70
     1
102
RTVSPost2010Prop37
 90
       50
102
RTVSPost2010PropOp37
 70
     1
102
RTVSPost2010Prop38
140
0.0
102
RTVSPost2010PropOp38
 70
     1
102
RTVSPost2010Prop39
140
1.0
102
RTVSPost2010PropOp39
 70
     1
102
RTVSPost2010Prop40
 90
        0
102
RTVSPost2010PropOp40
 70
     1
102
RTVSPost2010Prop41ColorIndex
 90
       18
102
RTVSPost2010Prop41ColorRGB
 90
        0
102
RTVSPost2010PropOp41
 70
     1
102
RTVSPost2010Prop42
 90
       50
102
RTVSPost2010PropOp42
 70
     1
102
RTVSPost2010Prop43
 90
        3
102
RTVSPost2010PropOp43
 70
     1
102
RTVSPost2010Prop44ColorIndex
 90
        5
102
RTVSPost2010Prop44ColorRGB
 90
      255
102
RTVSPost2010PropOp44
 70
     1
102
RTVSPost2010Prop45
280
     0
102
RTVSPost2010PropOp45
 70
     1
102
RTVSPost2010Prop46
 90
       50
102
RTVSPost2010PropOp46
 70
     1
102
RTVSPost2010Prop47
 90
       50
102
RTVSPost2010PropOp47
 70
     1
102
RTVSPost2010Prop48
 90
       50
102
RTVSPost2010PropOp48
 70
     1
102
RTVSPost2010Prop49
280
     0
102
RTVSPost2010PropOp49
 70
     1
102
RTVSPost2010Prop50
 90
       50
102
RTVSPost2010PropOp50
 70
     1
102
RTVSPost2010Prop51ColorIndex
 90
      256
102
RTVSPost2010Prop51ColorRGB
 90
-16777216
102
RTVSPost2010PropOp51
 70
     0
102
RTVSPost2010Prop52
140
1.0
102
RTVSPost2010PropOp52
 70
     0
102
RTVSPost2010Prop53
 90
        2
102
RTVSPost2010PropOp53
 70
     1
102
RTVSPost2010Prop54
  1
strokes_ogs.tif
102
RTVSPost2010PropOp54
 70
     1
102
RTVSPost2010Prop55
280
     0
102
RTVSPost2010PropOp55
 70
     1
102
RTVSPost2010Prop56
140
1.0
102
RTVSPost2010PropOp56
 70
     1
102
RTVSPost2010Prop57
140
1.0
102
RTVSPost2010PropOp57
 70
     1
  0
ENDSEC
  0
EOF
