  0
SECTION
  2
HEADER
  9
$ACADVER
  1
AC1015
  9
$ACADMAINTVER
 70
    20
  9
$DWGCODEPAGE
  3
ANSI_932
  9
$INSBASE
 10
0.0
 20
0.0
 30
0.0
  9
$EXTMIN
 10
-25.8
 20
-48.78149999999997
 30
0.0
  9
$EXTMAX
 10
128.8999193707265
 20
80.18561737781869
 30
0.0
  9
$LIMMIN
 10
0.0
 20
0.0
  9
$LIMMAX
 10
420.0
 20
297.0
  9
$ORTHOMODE
 70
     0
  9
$REGENMODE
 70
     1
  9
$FILLMODE
 70
     1
  9
$QTEXTMODE
 70
     0
  9
$MIRRTEXT
 70
     1
  9
$LTSCALE
 40
1.0
  9
$ATTMODE
 70
     1
  9
$TEXTSIZE
 40
3.5
  9
$TRACEWID
 40
1.0
  9
$TEXTSTYLE
  7
simplex
  9
$CLAYER
  8
0
  9
$CELTYPE
  6
ByLayer
  9
$CECOLOR
 62
   256
  9
$CELTSCALE
 40
1.0
  9
$DISPSILH
 70
     0
  9
$DIMSCALE
 40
0.0
  9
$DIMASZ
 40
3.5
  9
$DIMEXO
 40
0.0
  9
$DIMDLI
 40
0.38
  9
$DIMRND
 40
0.0
  9
$DIMDLE
 40
0.0
  9
$DIMEXE
 40
1.5
  9
$DIMTP
 40
0.0
  9
$DIMTM
 40
0.0
  9
$DIMTXT
 40
3.5
  9
$DIMCEN
 40
0.09
  9
$DIMTSZ
 40
0.0
  9
$DIMTOL
 70
     0
  9
$DIMLIM
 70
     0
  9
$DIMTIH
 70
     0
  9
$DIMTOH
 70
     0
  9
$DIMSE1
 70
     0
  9
$DIMSE2
 70
     0
  9
$DIMTAD
 70
     1
  9
$DIMZIN
 70
     8
  9
$DIMBLK
  1

  9
$DIMASO
 70
     1
  9
$DIMSHO
 70
     1
  9
$DIMPOST
  1

  9
$DIMAPOST
  1

  9
$DIMALT
 70
     0
  9
$DIMALTD
 70
     2
  9
$DIMALTF
 40
25.4
  9
$DIMLFAC
 40
1.0
  9
$DIMTOFL
 70
     0
  9
$DIMTVP
 40
0.0
  9
$DIMTIX
 70
     0
  9
$DIMSOXD
 70
     0
  9
$DIMSAH
 70
     0
  9
$DIMBLK1
  1

  9
$DIMBLK2
  1

  9
$DIMSTYLE
  2
コピー - ISO-25
  9
$DIMCLRD
 70
   256
  9
$DIMCLRE
 70
   256
  9
$DIMCLRT
 70
   256
  9
$DIMTFAC
 40
1.0
  9
$DIMGAP
 40
2.299999999999998
  9
$DIMJUST
 70
     0
  9
$DIMSD1
 70
     0
  9
$DIMSD2
 70
     0
  9
$DIMTOLJ
 70
     1
  9
$DIMTZIN
 70
     8
  9
$DIMALTZ
 70
     0
  9
$DIMALTTZ
 70
     0
  9
$DIMUPT
 70
     0
  9
$DIMDEC
 70
     2
  9
$DIMTDEC
 70
     2
  9
$DIMALTU
 70
     2
  9
$DIMALTTD
 70
     2
  9
$DIMTXSTY
  7
simplex
  9
$DIMAUNIT
 70
     0
  9
$DIMADEC
 70
     0
  9
$DIMALTRND
 40
0.0
  9
$DIMAZIN
 70
     0
  9
$DIMDSEP
 70
    46
  9
$DIMATFIT
 70
     3
  9
$DIMFRAC
 70
     0
  9
$DIMLDRBLK
  1

  9
$DIMLUNIT
 70
     2
  9
$DIMLWD
 70
    -1
  9
$DIMLWE
 70
    -1
  9
$DIMTMOVE
 70
     0
  9
$LUNITS
 70
     2
  9
$LUPREC
 70
     4
  9
$SKETCHINC
 40
1.0
  9
$FILLETRAD
 40
0.8
  9
$AUNITS
 70
     0
  9
$AUPREC
 70
     0
  9
$MENU
  1
.
  9
$ELEVATION
 40
0.0
  9
$PELEVATION
 40
0.0
  9
$THICKNESS
 40
0.0
  9
$LIMCHECK
 70
     0
  9
$CHAMFERA
 40
10.0
  9
$CHAMFERB
 40
10.0
  9
$CHAMFERC
 40
20.0
  9
$CHAMFERD
 40
0.0
  9
$SKPOLY
 70
     0
  9
$TDCREATE
 40
2455489.391063368
  9
$TDUCREATE
 40
2455489.057730035
  9
$TDUPDATE
 40
2458948.463023368
  9
$TDUUPDATE
 40
2458948.129690035
  9
$TDINDWG
 40
2.550951493
  9
$TDUSRTIMER
 40
2.550899178
  9
$USRTIMER
 70
     1
  9
$ANGBASE
 50
0.0
  9
$ANGDIR
 70
     0
  9
$PDMODE
 70
     0
  9
$PDSIZE
 40
0.0
  9
$PLINEWID
 40
0.0
  9
$SPLFRAME
 70
     0
  9
$SPLINETYPE
 70
     6
  9
$SPLINESEGS
 70
     8
  9
$HANDSEED
  5
8C618
  9
$SURFTAB1
 70
     6
  9
$SURFTAB2
 70
     6
  9
$SURFTYPE
 70
     6
  9
$SURFU
 70
     6
  9
$SURFV
 70
     6
  9
$UCSBASE
  2

  9
$UCSNAME
  2

  9
$UCSORG
 10
0.0
 20
0.0
 30
0.0
  9
$UCSXDIR
 10
1.0
 20
0.0
 30
0.0
  9
$UCSYDIR
 10
0.0
 20
1.0
 30
0.0
  9
$UCSORTHOREF
  2

  9
$UCSORTHOVIEW
 70
     0
  9
$UCSORGTOP
 10
0.0
 20
0.0
 30
0.0
  9
$UCSORGBOTTOM
 10
0.0
 20
0.0
 30
0.0
  9
$UCSORGLEFT
 10
0.0
 20
0.0
 30
0.0
  9
$UCSORGRIGHT
 10
0.0
 20
0.0
 30
0.0
  9
$UCSORGFRONT
 10
0.0
 20
0.0
 30
0.0
  9
$UCSORGBACK
 10
0.0
 20
0.0
 30
0.0
  9
$PUCSBASE
  2

  9
$PUCSNAME
  2

  9
$PUCSORG
 10
0.0
 20
0.0
 30
0.0
  9
$PUCSXDIR
 10
1.0
 20
0.0
 30
0.0
  9
$PUCSYDIR
 10
0.0
 20
1.0
 30
0.0
  9
$PUCSORTHOREF
  2

  9
$PUCSORTHOVIEW
 70
     0
  9
$PUCSORGTOP
 10
0.0
 20
0.0
 30
0.0
  9
$PUCSORGBOTTOM
 10
0.0
 20
0.0
 30
0.0
  9
$PUCSORGLEFT
 10
0.0
 20
0.0
 30
0.0
  9
$PUCSORGRIGHT
 10
0.0
 20
0.0
 30
0.0
  9
$PUCSORGFRONT
 10
0.0
 20
0.0
 30
0.0
  9
$PUCSORGBACK
 10
0.0
 20
0.0
 30
0.0
  9
$USERI1
 70
     0
  9
$USERI2
 70
     0
  9
$USERI3
 70
     0
  9
$USERI4
 70
     0
  9
$USERI5
 70
     0
  9
$USERR1
 40
0.0
  9
$USERR2
 40
0.0
  9
$USERR3
 40
0.0
  9
$USERR4
 40
0.0
  9
$USERR5
 40
0.0
  9
$WORLDVIEW
 70
     1
  9
$SHADEDGE
 70
     3
  9
$SHADEDIF
 70
    70
  9
$TILEMODE
 70
     1
  9
$MAXACTVP
 70
    64
  9
$PINSBASE
 10
0.0
 20
0.0
 30
0.0
  9
$PLIMCHECK
 70
     0
  9
$PEXTMIN
 10
26.66999878883364
 20
20.31999878883365
 30
0.0
  9
$PEXTMAX
 10
240.0299890995025
 20
182.8799890995025
 30
0.0
  9
$PLIMMIN
 10
-6.350006103515625
 20
-6.349999904632567
  9
$PLIMMAX
 10
273.0499877929688
 20
209.5499939918518
  9
$UNITMODE
 70
     0
  9
$VISRETAIN
 70
     1
  9
$PLINEGEN
 70
     0
  9
$PSLTSCALE
 70
     1
  9
$TREEDEPTH
 70
  3020
  9
$CMLSTYLE
  2
Standard
  9
$CMLJUST
 70
     0
  9
$CMLSCALE
 40
20.0
  9
$PROXYGRAPHICS
 70
     1
  9
$MEASUREMENT
 70
     1
  9
$CELWEIGHT
370
    -1
  9
$ENDCAPS
280
     0
  9
$JOINSTYLE
280
     0
  9
$LWDISPLAY
290
     0
  9
$INSUNITS
 70
     4
  9
$HYPERLINKBASE
  1

  9
$STYLESHEET
  1

  9
$XEDIT
290
     1
  9
$CEPSNTYPE
380
     0
  9
$PSTYLEMODE
290
     1
  9
$FINGERPRINTGUID
  2
{9855A269-878F-4510-A0C1-B8D5D3B288C8}
  9
$VERSIONGUID
  2
{806F8239-4FA0-4C4F-A64C-7C440556E7FF}
  9
$EXTNAMES
290
     1
  9
$PSVPSCALE
 40
0.0
  9
$OLESTARTUP
290
     0
  0
ENDSEC
  0
SECTION
  2
CLASSES
  0
CLASS
  1
ACDBDICTIONARYWDFLT
  2
AcDbDictionaryWithDefault
  3
ObjectDBX Classes
 90
        0
280
     0
281
     0
  0
CLASS
  1
ACDBPLACEHOLDER
  2
AcDbPlaceHolder
  3
ObjectDBX Classes
 90
    32768
280
     0
281
     0
  0
CLASS
  1
LAYOUT
  2
AcDbLayout
  3
ObjectDBX Classes
 90
    32768
280
     0
281
     0
  0
CLASS
  1
DICTIONARYVAR
  2
AcDbDictionaryVar
  3
ObjectDBX Classes
 90
        0
280
     0
281
     0
  0
CLASS
  1
TABLESTYLE
  2
AcDbTableStyle
  3
ObjectDBX Classes
 90
     4095
280
     0
281
     0
  0
CLASS
  1
SORTENTSTABLE
  2
AcDbSortentsTable
  3
ObjectDBX Classes
 90
        0
280
     0
281
     0
  0
CLASS
  1
DIMASSOC
  2
AcDbDimAssoc
  3
"AcDbDimAssoc|Product Desc:     AcDim ARX App For Dimension|Company:          Autodesk, Inc.|WEB Address:      www.autodesk.com"
 90
        0
280
     0
281
     0
  0
CLASS
  1
ACAD_EVALUATION_GRAPH
  2
AcDbEvalGraph
  3
ObjectDBX Classes
 90
    33921
280
     0
281
     0
  0
CLASS
  1
ACAECUSTOBJ
  2
AcAeEditorObj
  3
AcAeEditorObj
 90
    33792
280
     0
281
     0
  0
CLASS
  1
ACDB_DYNAMICBLOCKPURGEPREVENTER_VERSION
  2
AcDbDynamicBlockPurgePreventer
  3
ObjectDBX Classes
 90
    33921
280
     0
281
     0
  0
CLASS
  1
MATERIAL
  2
AcDbMaterial
  3
ObjectDBX Classes
 90
     1153
280
     0
281
     0
  0
CLASS
  1
VISUALSTYLE
  2
AcDbVisualStyle
  3
ObjectDBX Classes
 90
     4095
280
     0
281
     0
  0
CLASS
  1
SCALE
  2
AcDbScale
  3
ObjectDBX Classes
 90
     1153
280
     0
281
     0
  0
CLASS
  1
MLEADERSTYLE
  2
AcDbMLeaderStyle
  3
ACDB_MLEADERSTYLE_CLASS
 90
     4095
280
     0
281
     0
  0
CLASS
  1
ACDBSECTIONVIEWSTYLE
  2
AcDbSectionViewStyle
  3
ObjectDBX Classes
 90
     1025
280
     0
281
     0
  0
CLASS
  1
ACDBDETAILVIEWSTYLE
  2
AcDbDetailViewStyle
  3
ObjectDBX Classes
 90
     1025
280
     0
281
     0
  0
CLASS
  1
CELLSTYLEMAP
  2
AcDbCellStyleMap
  3
ObjectDBX Classes
 90
     1152
280
     0
281
     0
  0
CLASS
  1
ACDBPLACEHOLDER
  2
AcDbPlaceHolder
  3
ObjectDBX Classes
 90
    32768
280
     0
281
     0
  0
CLASS
  1
LAYOUT
  2
AcDbLayout
  3
ObjectDBX Classes
 90
    32768
280
     0
281
     0
  0
CLASS
  1
ACDBPLACEHOLDER
  2
AcDbPlaceHolder
  3
ObjectDBX Classes
 90
    32768
280
     0
281
     0
  0
CLASS
  1
LAYOUT
  2
AcDbLayout
  3
ObjectDBX Classes
 90
    32768
280
     0
281
     0
  0
CLASS
  1
ACDBPLACEHOLDER
  2
AcDbPlaceHolder
  3
ObjectDBX Classes
 90
    32768
280
     0
281
     0
  0
CLASS
  1
LAYOUT
  2
AcDbLayout
  3
ObjectDBX Classes
 90
    32768
280
     0
281
     0
  0
CLASS
  1
ACDBPLACEHOLDER
  2
AcDbPlaceHolder
  3
ObjectDBX Classes
 90
    32768
280
     0
281
     0
  0
CLASS
  1
LAYOUT
  2
AcDbLayout
  3
ObjectDBX Classes
 90
    32768
280
     0
281
     0
  0
CLASS
  1
ACDBPLACEHOLDER
  2
AcDbPlaceHolder
  3
ObjectDBX Classes
 90
        0
280
     0
281
     0
  0
CLASS
  1
LAYOUT
  2
AcDbLayout
  3
ObjectDBX Classes
 90
        0
280
     0
281
     0
  0
ENDSEC
  0
SECTION
  2
TABLES
  0
TABLE
  2
VPORT
  5
8
102
{ACAD_XDICTIONARY
360
8C37C
102
}
330
0
100
AcDbSymbolTable
 70
     1
  0
VPORT
  5
4A360
330
8
100
AcDbSymbolTableRecord
100
AcDbViewportTableRecord
  2
*Active
 70
     0
 10
0.0
 20
0.0
 11
1.0
 21
1.0
 12
39.69673617997217
 22
13.98689763384207
 13
0.0
 23
0.0
 14
10.0
 24
10.0
 15
10.0
 25
10.0
 16
0.0
 26
0.0
 36
1.0
 17
0.0
 27
0.0
 37
0.0
 40
181.2449104391071
 41
1.705156950672645
 42
50.0
 43
0.0
 44
0.0
 50
0.0
 51
0.0
 71
     0
 72
  1000
 73
     1
 74
     1
 75
     0
 76
     0
 77
     0
 78
     0
281
     0
 65
     1
110
0.0
120
0.0
130
0.0
111
1.0
121
0.0
131
0.0
112
0.0
122
1.0
132
0.0
 79
     0
146
0.0
1001
ACAD_NAV_VCDISPLAY
1070
     3
  0
ENDTAB
  0
TABLE
  2
LTYPE
  5
5
330
0
100
AcDbSymbolTable
 70
     3
  0
LTYPE
  5
14
330
5
100
AcDbSymbolTableRecord
100
AcDbLinetypeTableRecord
  2
ByBlock
 70
     0
  3

 72
    65
 73
     0
 40
0.0
  0
LTYPE
  5
15
330
5
100
AcDbSymbolTableRecord
100
AcDbLinetypeTableRecord
  2
ByLayer
 70
     0
  3

 72
    65
 73
     0
 40
0.0
  0
LTYPE
  5
16
330
5
100
AcDbSymbolTableRecord
100
AcDbLinetypeTableRecord
  2
Continuous
 70
     0
  3
Solid line
 72
    65
 73
     0
 40
0.0
  0
LTYPE
  5
4A76E
330
5
100
AcDbSymbolTableRecord
100
AcDbLinetypeTableRecord
  2
CENTER2
 70
     0
  3
Center (.5x) ___ _ ___ _ ___ _ ___ _ ___ _ ___
 72
    65
 73
     4
 40
28.575
 49
19.05
 74
     0
 49
-3.174999999999998
 74
     0
 49
3.174999999999998
 74
     0
 49
-3.174999999999998
 74
     0
  0
LTYPE
  5
87B53
330
5
100
AcDbSymbolTableRecord
100
AcDbLinetypeTableRecord
  2
HIDDEN
 70
     0
  3
Hidden __ __ __ __ __ __ __ __ __ __ __ __ __ _
 72
    65
 73
     2
 40
9.524999999999996
 49
6.349999999999997
 74
     0
 49
-3.174999999999998
 74
     0
  0
ENDTAB
  0
TABLE
  2
LAYER
  5
2
102
{ACAD_XDICTIONARY
360
E2
102
}
330
0
100
AcDbSymbolTable
 70
    10
  0
LAYER
  5
10
102
{ACAD_XDICTIONARY
360
4A86C
102
}
330
2
100
AcDbSymbolTableRecord
100
AcDbLayerTableRecord
  2
0
 70
     0
 62
     7
  6
Continuous
370
    -3
390
F
  0
LAYER
  5
31B6
330
2
100
AcDbSymbolTableRecord
100
AcDbLayerTableRecord
  2
Defpoints
 70
     0
 62
     7
  6
Continuous
290
     0
370
    -3
390
F
  0
LAYER
  5
4A772
102
{ACAD_XDICTIONARY
360
4A773
102
}
330
2
100
AcDbSymbolTableRecord
100
AcDbLayerTableRecord
  2
1
 70
     0
 62
     4
  6
Continuous
370
    50
390
F
1001
AcAecLayerStandard
1000

1000
Contour
  0
LAYER
  5
4A774
102
{ACAD_XDICTIONARY
360
4A775
102
}
330
2
100
AcDbSymbolTableRecord
100
AcDbLayerTableRecord
  2
2
 70
     0
 62
     7
  6
Continuous
370
    25
390
F
1001
AcAecLayerStandard
1000

1000
Dimension milling
  0
LAYER
  5
4A776
102
{ACAD_XDICTIONARY
360
4A777
102
}
330
2
100
AcDbSymbolTableRecord
100
AcDbLayerTableRecord
  2
4
 70
     0
 62
     2
  6
CENTER2
370
    25
390
F
1001
AcAecLayerStandard
1000

1000
Center line
  0
LAYER
  5
4A778
102
{ACAD_XDICTIONARY
360
4A779
102
}
330
2
100
AcDbSymbolTableRecord
100
AcDbLayerTableRecord
  2
cut
 70
     0
 62
     1
  6
Continuous
370
    25
390
F
1001
AcAecLayerStandard
1000

1000
contour
  0
LAYER
  5
4A77A
102
{ACAD_XDICTIONARY
360
4A77B
102
}
330
2
100
AcDbSymbolTableRecord
100
AcDbLayerTableRecord
  2
nocut
 70
     0
 62
     7
  6
Continuous
370
    25
390
F
1001
AcAecLayerStandard
1000

1000
contour
  0
LAYER
  5
4A77E
102
{ACAD_XDICTIONARY
360
4A77F
102
}
330
2
100
AcDbSymbolTableRecord
100
AcDbLayerTableRecord
  2
sk2
 70
     0
 62
     7
  6
Continuous
370
    25
390
F
1001
AcAecLayerStandard
1000

1000
sk2 dimension
  0
LAYER
  5
4A782
102
{ACAD_XDICTIONARY
360
4A783
102
}
330
2
100
AcDbSymbolTableRecord
100
AcDbLayerTableRecord
  2
sk6
 70
     0
 62
     5
  6
Continuous
370
    35
390
F
1001
AcAecLayerStandard
1000

1000
sk6 text
  0
LAYER
  5
87B52
102
{ACAD_XDICTIONARY
360
8C37A
102
}
330
2
100
AcDbSymbolTableRecord
100
AcDbLayerTableRecord
  2
sk3
 70
     0
 62
     1
  6
HIDDEN
370
    35
390
F
1001
AcAecLayerStandard
1000

1000

  0
ENDTAB
  0
TABLE
  2
STYLE
  5
3
330
0
100
AcDbSymbolTable
 70
     2
  0
STYLE
  5
11
330
3
100
AcDbSymbolTableRecord
100
AcDbTextStyleTableRecord
  2
Standard
 70
     0
 40
0.0
 41
1.0
 50
0.0
 71
     0
 42
2.5
  3
txt.shx
  4
@extfont2.shx
  0
STYLE
  5
24A
330
3
100
AcDbSymbolTableRecord
100
AcDbTextStyleTableRecord
  2
simplex
 70
     0
 40
3.5
 41
1.0
 50
0.0
 71
     0
 42
3.5
  3
txt.shx
  4

  0
ENDTAB
  0
TABLE
  2
VIEW
  5
6
330
0
100
AcDbSymbolTable
 70
     0
  0
ENDTAB
  0
TABLE
  2
UCS
  5
7
330
0
100
AcDbSymbolTable
 70
     0
  0
ENDTAB
  0
TABLE
  2
APPID
  5
9
330
0
100
AcDbSymbolTable
 70
    31
  0
APPID
  5
12
330
9
100
AcDbSymbolTableRecord
100
AcDbRegAppTableRecord
  2
ACAD
 70
     0
  0
APPID
  5
D2
330
9
100
AcDbSymbolTableRecord
100
AcDbRegAppTableRecord
  2
AcAecLayerStandard
 70
     0
  0
APPID
  5
E6
330
9
100
AcDbSymbolTableRecord
100
AcDbRegAppTableRecord
  2
ACAD_DSTYLE_DIMTEXT_FILL
 70
     0
  0
APPID
  5
4C84
330
9
100
AcDbSymbolTableRecord
100
AcDbRegAppTableRecord
  2
ACAD_EXEMPT_FROM_CAD_STANDARDS
 70
     0
  0
APPID
  5
3493E
330
9
100
AcDbSymbolTableRecord
100
AcDbRegAppTableRecord
  2
DCO15
 70
     0
  0
APPID
  5
3BAB0
330
9
100
AcDbSymbolTableRecord
100
AcDbRegAppTableRecord
  2
ACAD_DSTYLE_DIMEXT_ENABLED
 70
     0
  0
APPID
  5
3BAB1
330
9
100
AcDbSymbolTableRecord
100
AcDbRegAppTableRecord
  2
ACAD_DSTYLE_DIMEXT_LENGTH
 70
     0
  0
APPID
  5
3BEB4
330
9
100
AcDbSymbolTableRecord
100
AcDbRegAppTableRecord
  2
ACAUTHENVIRON
 70
     0
  0
APPID
  5
3BEB7
330
9
100
AcDbSymbolTableRecord
100
AcDbRegAppTableRecord
  2
AcDbDynamicBlockTrueName
 70
     0
  0
APPID
  5
3BEB8
330
9
100
AcDbSymbolTableRecord
100
AcDbRegAppTableRecord
  2
AcDbDynamicBlockGUID
 70
     0
  0
APPID
  5
3BEBA
330
9
100
AcDbSymbolTableRecord
100
AcDbRegAppTableRecord
  2
AcDbBlockRepETag
 70
     0
  0
APPID
  5
4A453
330
9
100
AcDbSymbolTableRecord
100
AcDbRegAppTableRecord
  2
ACAD_PSEXT
 70
     0
  0
APPID
  5
4A454
330
9
100
AcDbSymbolTableRecord
100
AcDbRegAppTableRecord
  2
AcadAnnotative
 70
     0
  0
APPID
  5
4A455
330
9
100
AcDbSymbolTableRecord
100
AcDbRegAppTableRecord
  2
ACAD_DSTYLE_DIMJAG
 70
     0
  0
APPID
  5
4A456
330
9
100
AcDbSymbolTableRecord
100
AcDbRegAppTableRecord
  2
ACAD_DSTYLE_DIMTALN
 70
     0
  0
APPID
  5
4A457
330
9
100
AcDbSymbolTableRecord
100
AcDbRegAppTableRecord
  2
ACAD_NAV_VCDISPLAY
 70
     0
  0
APPID
  5
4A787
330
9
100
AcDbSymbolTableRecord
100
AcDbRegAppTableRecord
  2
ACAD_DSTYLE_DIMINSPECT
 70
     0
  0
APPID
  5
4A788
330
9
100
AcDbSymbolTableRecord
100
AcDbRegAppTableRecord
  2
GENIUS_GENDTOL_13
 70
     0
  0
APPID
  5
4A789
330
9
100
AcDbSymbolTableRecord
100
AcDbRegAppTableRecord
  2
ZWMCAD_GENSTANDARDFRAME_13_
 70
     0
  0
APPID
  5
4A78A
330
9
100
AcDbSymbolTableRecord
100
AcDbRegAppTableRecord
  2
ZW_RECESS_XDATA
 70
     0
  0
APPID
  5
4A78B
330
9
100
AcDbSymbolTableRecord
100
AcDbRegAppTableRecord
  2
ZW_FAC_XDATA
 70
     0
  0
APPID
  5
4A78C
330
9
100
AcDbSymbolTableRecord
100
AcDbRegAppTableRecord
  2
ZW_FLC_XDATA
 70
     0
  0
APPID
  5
4A78D
330
9
100
AcDbSymbolTableRecord
100
AcDbRegAppTableRecord
  2
ZW_SUPERPART
 70
     0
  0
APPID
  5
4A78E
330
9
100
AcDbSymbolTableRecord
100
AcDbRegAppTableRecord
  2
ZW_SUPERSYMBOL
 70
     0
  0
APPID
  5
4A78F
330
9
100
AcDbSymbolTableRecord
100
AcDbRegAppTableRecord
  2
ZW_SUPERSHAFT
 70
     0
  0
APPID
  5
4A790
330
9
100
AcDbSymbolTableRecord
100
AcDbRegAppTableRecord
  2
ZWMCAD_GENFRAME_13_
 70
     0
  0
APPID
  5
4A791
330
9
100
AcDbSymbolTableRecord
100
AcDbRegAppTableRecord
  2
ACAD_MLEADERVER
 70
     0
  0
APPID
  5
4A792
330
9
100
AcDbSymbolTableRecord
100
AcDbRegAppTableRecord
  2
ACAD_DSTYLE_DIMRADIAL_EXTENSION
 70
     0
  0
APPID
  5
885F1
330
9
100
AcDbSymbolTableRecord
100
AcDbRegAppTableRecord
  2
ZWMCAD_GENSCA_13_
 70
     0
  0
APPID
  5
885EF
330
9
100
AcDbSymbolTableRecord
100
AcDbRegAppTableRecord
  2
ACAD_DSTYLE_DIMRADIAL_EXTE
 70
     0
  0
APPID
  5
885EE
330
9
100
AcDbSymbolTableRecord
100
AcDbRegAppTableRecord
  2
ZWMCAD_GENSTANDARDFRAME_13
 70
     0
  0
ENDTAB
  0
TABLE
  2
DIMSTYLE
  5
A
330
0
100
AcDbSymbolTable
 70
     3
100
AcDbDimStyleTable
 71
     3
340
1BF
340
3527
340
8C5CA
  0
DIMSTYLE
105
1BF
102
{ACAD_REACTORS
330
8C161
330
8C162
330
8C168
330
8C164
330
8C167
330
8C20F
330
8C517
102
}
330
A
100
AcDbSymbolTableRecord
100
AcDbDimStyleTableRecord
  2
コピー - ISO-25
 70
     0
 40
0.0
 41
3.5
 42
0.0
 44
1.5
 73
     0
 74
     0
 77
     1
 78
     8
140
3.5
147
2.299999999999998
176
   256
177
   256
271
     2
178
   256
271
     2
272
     2
284
     8
340
24A
371
    -1
372
    -1
  0
DIMSTYLE
105
3527
330
A
100
AcDbSymbolTableRecord
100
AcDbDimStyleTableRecord
  2
STANDARD
 70
     0
 41
3.0
 47
0.001
 48
0.001
 71
     1
 73
     0
 74
     0
 77
     1
 78
     8
140
4.0
271
     3
272
     3
284
     8
340
11
341
34B1
342
34B1
343
34B1
344
34B1
  0
ENDTAB
  0
TABLE
  2
BLOCK_RECORD
  5
1
330
0
100
AcDbSymbolTable
 70
    12
  0
BLOCK_RECORD
  5
1F
102
{ACAD_XDICTIONARY
360
31EE
102
}
330
1
100
AcDbSymbolTableRecord
100
AcDbBlockTableRecord
  2
*Model_Space
340
22
  0
BLOCK_RECORD
  5
55
330
1
100
AcDbSymbolTableRecord
100
AcDbBlockTableRecord
  2
*Paper_Space
340
56
  0
BLOCK_RECORD
  5
50
330
1
100
AcDbSymbolTableRecord
100
AcDbBlockTableRecord
  2
*Paper_Space000000
340
51
  0
BLOCK_RECORD
  5
34B1
330
1
100
AcDbSymbolTableRecord
100
AcDbBlockTableRecord
  2
_OPEN
340
0
  0
BLOCK_RECORD
  5
4A6D6
102
{ACAD_XDICTIONARY
360
4A6D7
102
}
330
1
100
AcDbSymbolTableRecord
100
AcDbBlockTableRecord
  2
zero block
340
0
102
{BLKREFS
331
8BD57
331
880DD
331
882D3
331
87B7F
331
87D7D
331
8BFE6
331
4A793
102
}
1001
AcDbDynamicBlockGUID
1000
{A89DF4EB-B2CB-439E-AC69-1EAC9F242D1C}
1001
AcDbBlockRepETag
1070
     1
1071
        7
1001
ACAD
1000
DesignCenter Data
1002
{
1070
     1
1070
     4
1002
}
  0
BLOCK_RECORD
  5
87D73
330
1
100
AcDbSymbolTableRecord
100
AcDbBlockTableRecord
  2
_None
340
0
102
{BLKREFS
331
8BC93
331
8BCED
331
8BF27
331
8A12B
331
87FA2
331
87FBD
331
87FC5
331
88042
331
88238
331
884B1
331
884F0
331
88512
331
885AA
331
87D72
331
87F63
331
8C250
331
8C292
331
8C2BE
331
8C2FE
331
8C332
331
8C401
102
}
  0
BLOCK_RECORD
  5
8C212
330
1
100
AcDbSymbolTableRecord
100
AcDbBlockTableRecord
  2
*D674444
340
0
  0
BLOCK_RECORD
  5
8C21E
330
1
100
AcDbSymbolTableRecord
100
AcDbBlockTableRecord
  2
*D685555
340
0
  0
BLOCK_RECORD
  5
8C234
330
1
100
AcDbSymbolTableRecord
100
AcDbBlockTableRecord
  2
*D707766
340
0
  0
BLOCK_RECORD
  5
8C240
330
1
100
AcDbSymbolTableRecord
100
AcDbBlockTableRecord
  2
*D718877
340
0
  0
BLOCK_RECORD
  5
8C24C
330
1
100
AcDbSymbolTableRecord
100
AcDbBlockTableRecord
  2
*D729988
340
0
  0
BLOCK_RECORD
  5
8C257
330
1
100
AcDbSymbolTableRecord
100
AcDbBlockTableRecord
  2
*D73101099
340
0
  0
BLOCK_RECORD
  5
8C51A
330
1
100
AcDbSymbolTableRecord
100
AcDbBlockTableRecord
  2
*D131010
340
0
  0
ENDTAB
  0
ENDSEC
  0
SECTION
  2
BLOCKS
  0
BLOCK
  5
20
330
1F
100
AcDbEntity
  8
0
100
AcDbBlockBegin
  2
*Model_Space
 70
     0
 10
0.0
 20
0.0
 30
0.0
  3
*Model_Space
  1

  0
ENDBLK
  5
21
330
1F
100
AcDbEntity
  8
0
100
AcDbBlockEnd
  0
BLOCK
  5
57
330
55
100
AcDbEntity
 67
     1
  8
0
100
AcDbBlockBegin
  2
*Paper_Space
 70
     0
 10
0.0
 20
0.0
 30
0.0
  3
*Paper_Space
  1

  0
ENDBLK
  5
58
330
55
100
AcDbEntity
 67
     1
  8
0
100
AcDbBlockEnd
  0
BLOCK
  5
52
330
50
100
AcDbEntity
  8
0
100
AcDbBlockBegin
  2
*Paper_Space000000
 70
     0
 10
0.0
 20
0.0
 30
0.0
  3
*Paper_Space000000
  1

  0
VIEWPORT
  5
6B
102
{ACAD_XDICTIONARY
360
87B05
102
}
330
50
100
AcDbEntity
  8
0
100
AcDbViewport
 10
264.3775031494645
 20
160.4455827878762
 30
0.0
 40
567.6219612953822
 41
282.2272140146125
 68
     1
 69
    -1
 12
264.3775031494645
 22
160.4455827878762
 13
0.0
 23
0.0
 14
10.0
 24
10.0
 15
10.0
 25
10.0
 16
0.0
 26
0.0
 36
1.0
 17
0.0
 27
0.0
 37
0.0
 42
50.0
 43
0.0
 44
0.0
 45
282.2272140146125
 50
0.0
 51
0.0
 72
  1000
 90
    32864
  1

281
     0
 71
     1
 74
     0
110
0.0
120
0.0
130
0.0
111
1.0
121
0.0
131
0.0
112
0.0
122
1.0
132
0.0
 79
     0
146
0.0
1001
ACAD
1000
MVIEW
1002
{
1070
    16
1010
0.0
1020
0.0
1030
0.0
1010
0.0
1020
0.0
1030
1.0
1040
0.0
1040
282.2272140146125
1040
264.3775031494645
1040
160.4455827878762
1040
50.0
1040
0.0
1040
0.0
1070
     0
1070
  1000
1070
     0
1070
     3
1070
     0
1070
     0
1070
     0
1070
     0
1040
0.0
1040
0.0
1040
0.0
1040
10.0
1040
10.0
1040
10.0
1040
10.0
1070
     0
1002
{
1002
}
1002
}
  0
VIEWPORT
  5
6D
102
{ACAD_XDICTIONARY
360
87B07
102
}
330
50
100
AcDbEntity
  8
0
100
AcDbViewport
 10
133.3499939441681
 20
101.5999939441681
 30
0.0
 40
213.3599903106689
 41
162.5599903106689
 68
     2
 69
    -1
 12
210.0
 22
148.5
 13
0.0
 23
0.0
 14
10.0
 24
10.0
 15
10.0
 25
10.0
 16
0.0
 26
0.0
 36
1.0
 17
0.0
 27
0.0
 37
0.0
 42
50.0
 43
0.0
 44
0.0
 45
324.0677920111345
 50
0.0
 51
0.0
 72
   100
 90
    32864
  1

281
     0
 71
     1
 74
     0
110
0.0
120
0.0
130
0.0
111
1.0
121
0.0
131
0.0
112
0.0
122
1.0
132
0.0
 79
     0
146
0.0
1001
ACAD
1000
MVIEW
1002
{
1070
    16
1010
0.0
1020
0.0
1030
0.0
1010
0.0
1020
0.0
1030
1.0
1040
0.0
1040
324.0677920111345
1040
210.0
1040
148.5
1040
50.0
1040
0.0
1040
0.0
1070
     0
1070
   100
1070
     0
1070
     3
1070
     0
1070
     0
1070
     0
1070
     0
1040
0.0
1040
0.0
1040
0.0
1040
10.0
1040
10.0
1040
10.0
1040
10.0
1070
     0
1002
{
1002
}
1002
}
  0
ENDBLK
  5
53
330
50
100
AcDbEntity
  8
0
100
AcDbBlockEnd
  0
BLOCK
  5
34B2
330
34B1
100
AcDbEntity
  8
0
100
AcDbBlockBegin
  2
_OPEN
 70
     0
 10
0.0
 20
0.0
 30
0.0
  3
_OPEN
  1

  0
LINE
  5
34B3
330
34B1
100
AcDbEntity
  8
0
  6
ByBlock
 62
     0
100
AcDbLine
 10
0.0
 20
0.0
 30
0.0
 11
-1.0
 21
0.1766666667
 31
0.0
  0
LINE
  5
34B4
330
34B1
100
AcDbEntity
  8
0
  6
ByBlock
 62
     0
100
AcDbLine
 10
-1.0
 20
-0.1766666667
 30
0.0
 11
0.0
 21
0.0
 31
0.0
  0
LINE
  5
34B5
330
34B1
100
AcDbEntity
  8
0
  6
ByBlock
 62
     0
100
AcDbLine
 10
-1.0
 20
0.0
 30
0.0
 11
0.0
 21
0.0
 31
0.0
  0
ENDBLK
  5
34B6
330
34B1
100
AcDbEntity
  8
0
  6
ByBlock
 62
     0
100
AcDbBlockEnd
  0
BLOCK
  5
4A6D9
330
4A6D6
100
AcDbEntity
  8
0
100
AcDbBlockBegin
  2
zero block
 70
     0
 10
0.0
 20
0.0
 30
0.0
  3
zero block
  1

  0
HATCH
  5
4A6DA
330
4A6D6
100
AcDbEntity
  8
0
 62
     7
100
AcDbHatch
 10
0.0
 20
0.0
 30
0.0
210
0.0
220
0.0
230
1.0
  2
SOLID
 70
     1
 71
     0
 91
        2
 92
        7
 72
     1
 73
     1
 93
        3
 10
0.0
 20
0.9999999999999875
 42
0.4142135623730915
 10
-1.0
 20
0.0
 42
0.0
 10
0.0
 20
0.0
 42
0.0
 97
        0
 92
        7
 72
     1
 73
     1
 93
        3
 10
1.000000000000007
 20
0.0
 42
0.0
 10
0.0
 20
0.0
 42
0.0
 10
0.0
 20
-1.0
 42
0.4142135623730974
 97
        0
 75
     0
 76
     1
 47
0.0090601366782909
 98
        2
 10
-0.380591363650975
 20
0.4885804701532896
 10
0.4350764810977559
 20
-0.4536738423704725
1001
AcDbBlockRepETag
1070
     1
1071
        0
1005
4A6DA
  0
LINE
  5
4A6DB
330
4A6D6
100
AcDbEntity
  8
0
 62
     7
 48
0.2
100
AcDbLine
 10
-1.0
 20
0.0
 30
0.0
 11
1.000000000000007
 21
0.0
 31
0.0
1001
AcDbBlockRepETag
1070
     1
1071
        1
1005
4A6DB
  0
LINE
  5
4A6DC
330
4A6D6
100
AcDbEntity
  8
0
 62
     7
 48
0.2
100
AcDbLine
 10
0.0
 20
-1.0
 30
0.0
 11
0.0
 21
0.9999999999999875
 31
0.0
1001
AcDbBlockRepETag
1070
     1
1071
        2
1005
4A6DC
  0
ARC
  5
4A6DD
330
4A6D6
100
AcDbEntity
  8
0
 62
     7
 48
0.2
100
AcDbCircle
 10
0.0
 20
0.0
 30
0.0
 40
1.0
100
AcDbArc
 50
270.0
 51
0.0
1001
AcDbBlockRepETag
1070
     1
1071
        3
1005
4A6DD
  0
ARC
  5
4A6DE
330
4A6D6
100
AcDbEntity
  8
0
 62
     7
 48
0.2
100
AcDbCircle
 10
0.0
 20
0.0
 30
0.0
 40
1.0
100
AcDbArc
 50
0.0
 51
90.0
1001
AcDbBlockRepETag
1070
     1
1071
        4
1005
4A6DE
  0
ARC
  5
4A6DF
330
4A6D6
100
AcDbEntity
  8
0
 62
     7
 48
0.2
100
AcDbCircle
 10
0.0
 20
0.0
 30
0.0
 40
1.0
100
AcDbArc
 50
180.0
 51
270.0
1001
AcDbBlockRepETag
1070
     1
1071
        5
1005
4A6DF
  0
ARC
  5
4A6E0
330
4A6D6
100
AcDbEntity
  8
0
 62
     7
 48
0.2
100
AcDbCircle
 10
0.0
 20
0.0
 30
0.0
 40
1.0
100
AcDbArc
 50
90.0
 51
180.0
1001
AcDbBlockRepETag
1070
     1
1071
        6
1005
4A6E0
  0
ENDBLK
  5
4A6E1
330
4A6D6
100
AcDbEntity
  8
0
100
AcDbBlockEnd
  0
BLOCK
  5
87D74
330
87D73
100
AcDbEntity
  8
0
100
AcDbBlockBegin
  2
_None
 70
     0
 10
0.0
 20
0.0
 30
0.0
  3
_None
  1

  0
ENDBLK
  5
87D75
330
87D73
100
AcDbEntity
  8
0
100
AcDbBlockEnd
  0
BLOCK
  5
8C21C
330
8C212
100
AcDbEntity
  8
0
100
AcDbBlockBegin
  2
*D674444
 70
     1
 10
0.0
 20
0.0
 30
0.0
  3
*D674444
  1

  0
LINE
  5
8C5CF
330
8C212
100
AcDbEntity
  8
2
100
AcDbLine
 10
0.0
 20
26.28148127220003
 30
0.0
 11
0.0
 21
61.5
 31
0.0
  0
LINE
  5
8C5D0
330
8C212
100
AcDbEntity
  8
2
100
AcDbLine
 10
50.79999999999997
 20
30.94999999890001
 30
0.0
 11
50.79999999999997
 21
61.5
 31
0.0
  0
LINE
  5
8C5D1
330
8C212
100
AcDbEntity
  8
2
100
AcDbLine
 10
3.5
 20
60.0
 30
0.0
 11
47.29999999999996
 21
60.0
 31
0.0
  0
SOLID
  5
8C5D2
330
8C212
100
AcDbEntity
  8
2
100
AcDbTrace
 10
3.5
 20
60.58333333333333
 30
0.0
 11
3.5
 21
59.41666666666666
 31
0.0
 12
0.0
 22
60.0
 32
0.0
 13
0.0
 23
60.0
 33
0.0
  0
SOLID
  5
8C5D3
330
8C212
100
AcDbEntity
  8
2
100
AcDbTrace
 10
47.29999999999996
 20
59.41666666666666
 30
0.0
 11
47.29999999999996
 21
60.58333333333333
 31
0.0
 12
50.79999999999997
 22
60.0
 32
0.0
 13
50.79999999999997
 23
60.0
 33
0.0
  0
MTEXT
  5
8C5D4
330
8C212
100
AcDbEntity
  8
2
100
AcDbMText
 10
24.80791937774964
 20
64.05
 30
0.0
 40
3.5
 41
0.0
 71
     5
 72
     1
  1
\A1;50.8 [2.000"]
  7
simplex
 73
     1
 44
1.0
1001
ACAD
1000
MTEXTBEGIN
1070
    73
1070
     1
1070
    44
1040
1.0
1070
    74
1070
     0
1000
MTEXTEND
  0
POINT
  5
8C5D5
330
8C212
100
AcDbEntity
  8
Defpoints
 62
     0
100
AcDbPoint
 10
0.0
 20
26.28148127220003
 30
0.0
  0
POINT
  5
8C5D6
330
8C212
100
AcDbEntity
  8
Defpoints
 62
     0
100
AcDbPoint
 10
50.79999999999997
 20
30.94999999890001
 30
0.0
  0
POINT
  5
8C5D7
330
8C212
100
AcDbEntity
  8
Defpoints
 62
     0
100
AcDbPoint
 10
50.79999999999997
 20
60.0
 30
0.0
  0
ENDBLK
  5
8C21D
330
8C212
100
AcDbEntity
  8
0
100
AcDbBlockEnd
  0
BLOCK
  5
8C228
330
8C21E
100
AcDbEntity
  8
0
100
AcDbBlockBegin
  2
*D685555
 70
     1
 10
0.0
 20
0.0
 30
0.0
  3
*D685555
  1

  0
LINE
  5
8C5E2
330
8C21E
100
AcDbEntity
  8
2
100
AcDbLine
 10
42.59999999999993
 20
31.7499999989
 30
0.0
 11
42.59999999999993
 21
51.52197765512018
 31
0.0
  0
LINE
  5
8C5E3
330
8C21E
100
AcDbEntity
  8
2
100
AcDbLine
 10
50.79999999999996
 20
30.94999999889946
 30
0.0
 11
50.79999999999996
 21
51.52197765512018
 31
0.0
  0
LINE
  5
8C5E4
330
8C21E
100
AcDbEntity
  8
2
100
AcDbLine
 10
54.29999999999996
 20
50.02197765512018
 30
0.0
 11
106.7333333333333
 21
50.02197765512018
 31
0.0
  0
LINE
  5
8C5E5
330
8C21E
100
AcDbEntity
  8
2
100
AcDbLine
 10
39.09999999999993
 20
50.02197765512018
 30
0.0
 11
35.59999999999993
 21
50.02197765512018
 31
0.0
  0
SOLID
  5
8C5E6
330
8C21E
100
AcDbEntity
  8
2
100
AcDbTrace
 10
39.09999999999993
 20
49.43864432178685
 30
0.0
 11
39.09999999999993
 21
50.60531098845352
 31
0.0
 12
42.59999999999993
 22
50.02197765512018
 32
0.0
 13
42.59999999999993
 23
50.02197765512018
 33
0.0
  0
SOLID
  5
8C5E7
330
8C21E
100
AcDbEntity
  8
2
100
AcDbTrace
 10
54.29999999999996
 20
50.60531098845352
 30
0.0
 11
54.29999999999996
 21
49.43864432178685
 31
0.0
 12
50.79999999999996
 22
50.02197765512018
 32
0.0
 13
50.79999999999996
 23
50.02197765512018
 33
0.0
  0
MTEXT
  5
8C5E8
330
8C21E
100
AcDbEntity
  8
2
100
AcDbMText
 10
82.26666666666664
 20
54.07197765512018
 30
0.0
 40
3.5
 41
0.0
 71
     5
 72
     1
  1
\A1;8.2 [.323"](MAX)
  7
simplex
 73
     1
 44
1.0
1001
ACAD
1000
MTEXTBEGIN
1070
    73
1070
     1
1070
    44
1040
1.0
1070
    74
1070
     0
1000
MTEXTEND
  0
POINT
  5
8C5E9
330
8C21E
100
AcDbEntity
  8
Defpoints
 62
     0
100
AcDbPoint
 10
42.59999999999993
 20
31.7499999989
 30
0.0
  0
POINT
  5
8C5EA
330
8C21E
100
AcDbEntity
  8
Defpoints
 62
     0
100
AcDbPoint
 10
50.79999999999996
 20
30.94999999889946
 30
0.0
  0
POINT
  5
8C5EB
330
8C21E
100
AcDbEntity
  8
Defpoints
 62
     0
100
AcDbPoint
 10
50.79999999999996
 20
50.02197765512018
 30
0.0
  0
ENDBLK
  5
8C229
330
8C21E
100
AcDbEntity
  8
0
100
AcDbBlockEnd
  0
BLOCK
  5
8C23E
330
8C234
100
AcDbEntity
  8
0
100
AcDbBlockBegin
  2
*D707766
 70
     1
 10
0.0
 20
0.0
 30
0.0
  3
*D707766
  1

  0
LINE
  5
8C31D
330
8C234
100
AcDbEntity
  8
sk2
100
AcDbLine
 10
4.0
 20
12.69999999889998
 30
0.0
 11
-11.5
 21
12.69999999889998
 31
0.0
  0
LINE
  5
8C31E
330
8C234
100
AcDbEntity
  8
sk2
100
AcDbLine
 10
4.0
 20
-12.69999999889998
 30
0.0
 11
-11.5
 21
-12.69999999889998
 31
0.0
  0
LINE
  5
8C31F
330
8C234
100
AcDbEntity
  8
sk2
100
AcDbLine
 10
-10.0
 20
9.199999998899976
 30
0.0
 11
-10.0
 21
-9.199999998899976
 31
0.0
  0
SOLID
  5
8C320
330
8C234
100
AcDbEntity
  8
sk2
100
AcDbTrace
 10
-9.416666666666666
 20
9.199999998899976
 30
0.0
 11
-10.58333333333333
 21
9.199999998899976
 31
0.0
 12
-10.0
 22
12.69999999889998
 32
0.0
 13
-10.0
 23
12.69999999889998
 33
0.0
  0
SOLID
  5
8C321
330
8C234
100
AcDbEntity
  8
sk2
100
AcDbTrace
 10
-10.58333333333333
 20
-9.199999998899976
 30
0.0
 11
-9.416666666666666
 21
-9.199999998899976
 31
0.0
 12
-10.0
 22
-12.69999999889998
 32
0.0
 13
-10.0
 23
-12.69999999889998
 33
0.0
  0
MTEXT
  5
8C322
330
8C234
100
AcDbEntity
  8
sk2
100
AcDbMText
 10
-14.05
 20
0.0
 30
0.0
 40
3.5
 41
0.0
 71
     5
 72
     1
  1
\A1;%%C25.4 [%%c1.000"]
  7
simplex
 11
0.0
 21
1.0
 31
0.0
 73
     1
 44
1.0
1001
ACAD
1000
MTEXTBEGIN
1070
    73
1070
     1
1070
    44
1040
1.0
1070
    74
1070
     0
1000
MTEXTEND
  0
POINT
  5
8C323
330
8C234
100
AcDbEntity
  8
Defpoints
 62
     0
100
AcDbPoint
 10
4.0
 20
12.69999999889998
 30
0.0
  0
POINT
  5
8C324
330
8C234
100
AcDbEntity
  8
Defpoints
 62
     0
100
AcDbPoint
 10
4.0
 20
-12.69999999889998
 30
0.0
  0
POINT
  5
8C325
330
8C234
100
AcDbEntity
  8
Defpoints
 62
     0
100
AcDbPoint
 10
-10.0
 20
-12.69999999889998
 30
0.0
  0
ENDBLK
  5
8C23F
330
8C234
100
AcDbEntity
  8
0
100
AcDbBlockEnd
  0
BLOCK
  5
8C24A
330
8C240
100
AcDbEntity
  8
0
100
AcDbBlockBegin
  2
*D718877
 70
     1
 10
0.0
 20
0.0
 30
0.0
  3
*D718877
  1

  0
LINE
  5
8C326
330
8C240
100
AcDbEntity
  8
sk2
100
AcDbLine
 10
1.5
 20
27.7815
 30
0.0
 11
-21.5
 21
27.7815
 31
0.0
  0
LINE
  5
8C327
330
8C240
100
AcDbEntity
  8
sk2
100
AcDbLine
 10
1.5
 20
-27.7815
 30
0.0
 11
-21.5
 21
-27.7815
 31
0.0
  0
LINE
  5
8C328
330
8C240
100
AcDbEntity
  8
sk2
100
AcDbLine
 10
-20.0
 20
24.2815
 30
0.0
 11
-20.0
 21
-24.2815
 31
0.0
  0
SOLID
  5
8C329
330
8C240
100
AcDbEntity
  8
sk2
100
AcDbTrace
 10
-19.41666666666667
 20
24.2815
 30
0.0
 11
-20.58333333333333
 21
24.2815
 31
0.0
 12
-20.0
 22
27.7815
 32
0.0
 13
-20.0
 23
27.7815
 33
0.0
  0
SOLID
  5
8C32A
330
8C240
100
AcDbEntity
  8
sk2
100
AcDbTrace
 10
-20.58333333333333
 20
-24.2815
 30
0.0
 11
-19.41666666666667
 21
-24.2815
 31
0.0
 12
-20.0
 22
-27.7815
 32
0.0
 13
-20.0
 23
-27.7815
 33
0.0
  0
MTEXT
  5
8C32B
330
8C240
100
AcDbEntity
  8
sk2
100
AcDbMText
 10
-24.05
 20
0.0
 30
0.0
 40
3.5
 41
0.0
 71
     5
 72
     1
  1
\A1;%%C55.563 [%%c2.188"]
  7
simplex
 11
0.0
 21
1.0
 31
0.0
 73
     1
 44
1.0
1001
ACAD
1000
MTEXTBEGIN
1070
    73
1070
     1
1070
    44
1040
1.0
1070
    74
1070
     0
1000
MTEXTEND
  0
POINT
  5
8C32C
330
8C240
100
AcDbEntity
  8
Defpoints
 62
     0
100
AcDbPoint
 10
1.5
 20
27.7815
 30
0.0
  0
POINT
  5
8C32D
330
8C240
100
AcDbEntity
  8
Defpoints
 62
     0
100
AcDbPoint
 10
1.5
 20
-27.7815
 30
0.0
  0
POINT
  5
8C32E
330
8C240
100
AcDbEntity
  8
Defpoints
 62
     0
100
AcDbPoint
 10
-20.0
 20
-27.7815
 30
0.0
  0
ENDBLK
  5
8C24B
330
8C240
100
AcDbEntity
  8
0
100
AcDbBlockEnd
  0
BLOCK
  5
8C255
330
8C24C
100
AcDbEntity
  8
0
100
AcDbBlockBegin
  2
*D729988
 70
     1
 10
0.0
 20
0.0
 30
0.0
  3
*D729988
  1

  0
LINE
  5
8C3FE
330
8C24C
100
AcDbEntity
  8
2
100
AcDbLine
 10
49.99999999999997
 20
31.74999999890002
 30
0.0
 11
71.49999999999997
 21
31.74999999890002
 31
0.0
  0
LINE
  5
8C3FF
330
8C24C
100
AcDbEntity
  8
2
100
AcDbLine
 10
69.99999999999997
 20
28.24999999890002
 30
0.0
 11
69.99999999999997
 21
-31.74999999889999
 31
0.0
  0
SOLID
  5
8C400
330
8C24C
100
AcDbEntity
  8
2
100
AcDbTrace
 10
70.5833333333333
 20
28.24999999890002
 30
0.0
 11
69.41666666666664
 21
28.24999999890002
 31
0.0
 12
69.99999999999997
 22
31.74999999890002
 32
0.0
 13
69.99999999999997
 23
31.74999999890002
 33
0.0
  0
INSERT
  5
8C401
330
8C24C
100
AcDbEntity
  8
2
100
AcDbBlockReference
  2
_None
 10
69.99999999999997
 20
-31.74999999889999
 30
0.0
 41
3.5
 42
3.5
 43
3.5
 50
270.0
  0
MTEXT
  5
8C402
330
8C24C
100
AcDbEntity
  8
2
100
AcDbMText
 10
65.94999999999997
 20
0.0
 30
0.0
 40
3.5
 41
0.0
 71
     5
 72
     1
  1
\A1;%%C63.5 [%%c2.500"]
  7
simplex
 11
0.0
 21
1.0
 31
0.0
 73
     1
 44
1.0
1001
ACAD
1000
MTEXTBEGIN
1070
    73
1070
     1
1070
    44
1040
1.0
1070
    74
1070
     0
1000
MTEXTEND
  0
POINT
  5
8C403
330
8C24C
100
AcDbEntity
  8
Defpoints
 62
     0
100
AcDbPoint
 10
49.99999999999997
 20
31.74999999890002
 30
0.0
  0
POINT
  5
8C404
330
8C24C
100
AcDbEntity
  8
Defpoints
 62
     0
100
AcDbPoint
 10
49.99999999999997
 20
-31.74999999889999
 30
0.0
  0
POINT
  5
8C405
330
8C24C
100
AcDbEntity
  8
Defpoints
 62
     0
100
AcDbPoint
 10
69.99999999999997
 20
-31.74999999889999
 30
0.0
  0
ENDBLK
  5
8C256
330
8C24C
100
AcDbEntity
  8
0
100
AcDbBlockEnd
  0
BLOCK
  5
8C262
330
8C257
100
AcDbEntity
  8
0
100
AcDbBlockBegin
  2
*D73101099
 70
     1
 10
0.0
 20
0.0
 30
0.0
  3
*D73101099
  1

  0
LINE
  5
8C337
330
8C257
100
AcDbEntity
  8
sk2
100
AcDbLine
 10
0.0
 20
-26.2815
 30
0.0
 11
0.0
 21
-48.78149999999997
 31
0.0
  0
LINE
  5
8C338
330
8C257
100
AcDbEntity
  8
sk2
100
AcDbLine
 10
23.99999999999997
 20
-12.39999999889997
 30
0.0
 11
23.99999999999997
 21
-48.78149999999997
 31
0.0
  0
LINE
  5
8C339
330
8C257
100
AcDbEntity
  8
sk2
100
AcDbLine
 10
23.99999999999997
 20
-47.28149999999998
 30
0.0
 11
60.09999999999996
 21
-47.28149999999998
 31
0.0
  0
LINE
  5
8C33A
330
8C257
100
AcDbEntity
  8
sk2
100
AcDbLine
 10
3.499999999999998
 20
-47.28149999999998
 30
0.0
 11
20.49999999999997
 21
-47.28149999999998
 31
0.0
  0
SOLID
  5
8C33B
330
8C257
100
AcDbEntity
  8
sk2
100
AcDbTrace
 10
3.499999999999998
 20
-46.69816666666664
 30
0.0
 11
3.499999999999998
 21
-47.86483333333332
 31
0.0
 12
0.0
 22
-47.28149999999998
 32
0.0
 13
0.0
 23
-47.28149999999998
 33
0.0
  0
SOLID
  5
8C33C
330
8C257
100
AcDbEntity
  8
sk2
100
AcDbTrace
 10
20.49999999999997
 20
-47.86483333333332
 30
0.0
 11
20.49999999999997
 21
-46.69816666666664
 31
0.0
 12
23.99999999999997
 22
-47.28149999999998
 32
0.0
 13
23.99999999999997
 23
-47.28149999999998
 33
0.0
  0
MTEXT
  5
8C33D
330
8C257
100
AcDbEntity
  8
sk2
100
AcDbMText
 10
43.79999999999997
 20
-43.23149999999998
 30
0.0
 40
3.5
 41
0.0
 71
     5
 72
     1
  1
\A1;24 [.945"]
  7
simplex
 73
     1
 44
1.0
1001
ACAD
1000
MTEXTBEGIN
1070
    73
1070
     1
1070
    44
1040
1.0
1070
    74
1070
     0
1000
MTEXTEND
  0
POINT
  5
8C33E
330
8C257
100
AcDbEntity
  8
Defpoints
 62
     0
100
AcDbPoint
 10
0.0
 20
-26.2815
 30
0.0
  0
POINT
  5
8C33F
330
8C257
100
AcDbEntity
  8
Defpoints
 62
     0
100
AcDbPoint
 10
23.99999999999997
 20
-12.39999999889997
 30
0.0
  0
POINT
  5
8C340
330
8C257
100
AcDbEntity
  8
Defpoints
 62
     0
100
AcDbPoint
 10
23.99999999999997
 20
-47.28149999999998
 30
0.0
  0
ENDBLK
  5
8C263
330
8C257
100
AcDbEntity
  8
0
100
AcDbBlockEnd
  0
BLOCK
  5
8C522
330
8C51A
100
AcDbEntity
  8
0
100
AcDbBlockBegin
  2
*D131010
 70
     1
 10
0.0
 20
0.0
 30
0.0
  3
*D131010
  1

  0
LINE
  5
8C524
330
8C51A
100
AcDbEntity
  8
2
100
AcDbLine
 10
95.19457987878826
 20
40.69530967540255
 30
0.0
 11
54.2033891884381
 21
31.85637703442188
 31
0.0
  0
MTEXT
  5
8C525
330
8C51A
100
AcDbEntity
  8
2
100
AcDbMText
 10
75.55598548382322
 20
40.60372382592098
 30
0.0
 40
3.5
 41
0.0
 71
     5
 72
     1
  1
\A1;R0.8 [R.031"]
  7
simplex
 11
0.9775323694042171
 21
0.2107853570981084
 31
0.0
 73
     1
 44
1.0
1001
ACAD
1000
MTEXTBEGIN
1070
    73
1070
     1
1070
    44
1040
1.0
1070
    74
1070
     0
1000
MTEXTEND
  0
SOLID
  5
8C526
330
8C51A
100
AcDbEntity
  8
2
100
AcDbTrace
 10
54.08043106346418
 20
32.42660424990767
 30
0.0
 11
54.32634731341199
 21
31.28614981893609
 31
0.0
 12
50.78202589552333
 22
31.1186282845785
 32
0.0
 13
50.78202589552333
 23
31.1186282845785
 33
0.0
  0
LINE
  5
8C527
330
8C51A
100
AcDbEntity
  8
2
100
AcDbLine
 10
49.90999999999996
 20
30.94999999890001
 30
0.0
 11
50.08999999999996
 21
30.94999999890001
 31
0.0
  0
LINE
  5
8C528
330
8C51A
100
AcDbEntity
  8
2
100
AcDbLine
 10
49.99999999999996
 20
30.85999999890001
 30
0.0
 11
49.99999999999996
 21
31.03999999890001
 31
0.0
  0
POINT
  5
8C529
330
8C51A
100
AcDbEntity
  8
Defpoints
 62
     0
100
AcDbPoint
 10
50.78202589552333
 20
31.1186282845785
 30
0.0
  0
POINT
  5
8C52A
330
8C51A
100
AcDbEntity
  8
Defpoints
 62
     0
100
AcDbPoint
 10
49.99999999999996
 20
30.94999999890001
 30
0.0
  0
ENDBLK
  5
8C523
330
8C51A
100
AcDbEntity
  8
0
100
AcDbBlockEnd
  0
ENDSEC
  0
SECTION
  2
ENTITIES
  0
INSERT
  5
4A793
330
1F
100
AcDbEntity
  8
0
100
AcDbBlockReference
  2
zero block
 10
0.0
 20
0.0
 30
0.0
 50
180.0
  0
MTEXT
  5
8BFE5
330
1F
100
AcDbEntity
  8
sk6
100
AcDbMText
 10
-3.428003664095851
 20
80.18561737781869
 30
0.0
 40
3.5
 41
139.3353303764208
 71
     1
 72
     5
  1
WWX400UR2_5004CA
 73
     1
 44
0.9
1001
ACAD
1000
MTEXTBEGIN
1070
    73
1070
     1
1070
    44
1040
0.9
1070
    74
1070
     0
1000
MTEXTEND
1000
ACAD_MTEXT_DEFINED_HEIGHT_BEGIN
1070
    46
1040
3.48901801050149
1000
ACAD_MTEXT_DEFINED_HEIGHT_END
  0
LINE
  5
8BFE7
330
1F
100
AcDbEntity
  8
4
100
AcDbLine
 10
53.13927052441485
 20
0.0
 30
0.0
 11
-2.907861614760548
 21
0.0
 31
0.0
  0
LINE
  5
8BFE8
330
1F
100
AcDbEntity
  8
nocut
100
AcDbLine
 10
0.0
 20
0.0
 30
0.0
 11
0.0
 21
19.55799999889999
 31
0.0
  0
LINE
  5
8BFE9
330
1F
100
AcDbEntity
  8
nocut
100
AcDbLine
 10
0.0
 20
0.0
 30
0.0
 11
0.0
 21
19.55799999889999
 31
0.0
  0
LINE
  5
8BFEA
330
1F
100
AcDbEntity
  8
nocut
100
AcDbLine
 10
0.0
 20
0.0
 30
0.0
 11
0.0
 21
26.28149999889998
 31
0.0
  0
LINE
  5
8BFEB
330
1F
100
AcDbEntity
  8
sk3
100
AcDbLine
 10
1.000000192299977
 20
4.762499999999987
 30
0.0
 11
1.000000192299977
 21
13.19999999889997
 31
0.0
  0
LINE
  5
8BFEC
330
1F
100
AcDbEntity
  8
sk3
100
AcDbLine
 10
4.0
 20
4.762499999999987
 30
0.0
 11
4.0
 21
13.19999999889997
 31
0.0
  0
LINE
  5
8BFED
330
1F
100
AcDbEntity
  8
sk3
100
AcDbLine
 10
1.000000192299977
 20
13.19999999889997
 30
0.0
 11
0.0
 21
14.20000020569998
 31
0.0
  0
LINE
  5
8BFEE
330
1F
100
AcDbEntity
  8
nocut
100
AcDbLine
 10
49.01247088229999
 20
0.0
 30
0.0
 11
0.0
 21
0.0
 31
0.0
  0
LINE
  5
8BFEF
330
1F
100
AcDbEntity
  8
sk3
100
AcDbLine
 10
12.92774653969997
 20
12.69999999889998
 30
0.0
 11
12.92774653969997
 21
0.0
 31
0.0
  0
LINE
  5
8BFFA
330
1F
100
AcDbEntity
  8
sk3
100
AcDbLine
 10
24.39999999999998
 20
6.849999998899987
 30
0.0
 11
31.5000000387
 21
6.849999998899987
 31
0.0
  0
LINE
  5
8C03C
330
1F
100
AcDbEntity
  8
sk3
100
AcDbLine
 10
32.39999999999998
 20
9.999999998899994
 30
0.0
 11
44.01247088229999
 21
9.999999998899994
 31
0.0
  0
LINE
  5
8C03F
330
1F
100
AcDbEntity
  8
sk3
100
AcDbLine
 10
12.92774653969997
 20
12.69999999889998
 30
0.0
 11
13.8392611207
 21
13.12504622849999
 31
0.0
  0
LINE
  5
8C040
102
{ACAD_REACTORS
330
8C166
102
}
330
1F
100
AcDbEntity
  8
sk3
100
AcDbLine
 10
4.0
 20
12.69999999889998
 30
0.0
 11
12.92774653969997
 21
12.69999999889998
 31
0.0
  0
LINE
  5
8C041
330
1F
100
AcDbEntity
  8
sk3
100
AcDbLine
 10
1.000000192299977
 20
13.19999999889997
 30
0.0
 11
4.0
 21
13.19999999889997
 31
0.0
  0
LINE
  5
8C042
330
1F
100
AcDbEntity
  8
sk3
100
AcDbLine
 10
14.17735573009994
 20
13.19999999889997
 30
0.0
 11
23.19999999999999
 21
13.19999999889997
 31
0.0
  0
LINE
  5
8C043
330
1F
100
AcDbEntity
  8
sk3
100
AcDbLine
 10
23.99999999999997
 20
0.0
 30
0.0
 11
23.99999999999997
 21
12.39999999889997
 31
0.0
  0
LINE
  5
8C045
330
1F
100
AcDbEntity
  8
sk3
100
AcDbLine
 10
31.5000000387
 20
6.849999998899987
 30
0.0
 11
31.5000000387
 21
0.0
 31
0.0
  0
LINE
  5
8C048
330
1F
100
AcDbEntity
  8
sk3
100
AcDbLine
 10
31.99999999999997
 20
0.0
 30
0.0
 11
31.99999999999997
 21
9.599999998899987
 31
0.0
  0
LINE
  5
8C083
330
1F
100
AcDbEntity
  8
sk3
100
AcDbLine
 10
31.5000000387
 20
6.849999998899987
 30
0.0
 11
31.99999999999997
 21
7.349999957299985
 31
0.0
  0
LINE
  5
8C087
330
1F
100
AcDbEntity
  8
nocut
100
AcDbLine
 10
1.5
 20
27.78149999889998
 30
0.0
 11
9.674401201499927
 21
27.78149999889998
 31
0.0
  0
LINE
  5
8C0A2
330
1F
100
AcDbEntity
  8
nocut
100
AcDbLine
 10
19.62047811069996
 20
27.9629834731
 30
0.0
 11
29.81785408649998
 21
30.69536213070001
 31
0.0
  0
LINE
  5
8C0E9
330
1F
100
AcDbEntity
  8
nocut
100
AcDbLine
 10
30.54195400249998
 20
30.7971277373
 30
0.0
 11
39.27382338399994
 21
30.94954308429996
 31
0.0
  0
LINE
  5
8C0EA
330
1F
100
AcDbEntity
  8
nocut
100
AcDbLine
 10
39.32618060329995
 20
30.94999999890001
 30
0.0
 11
43.01247088229999
 21
30.94999999890001
 31
0.0
  0
LINE
  5
8C0F3
330
1F
100
AcDbEntity
  8
sk3
100
AcDbLine
 10
44.47485140379993
 20
15.52164961589999
 30
0.0
 11
46.04089169625836
 21
18.005172184896
 31
0.0
  0
LINE
  5
8C11B
330
1F
100
AcDbEntity
  8
sk3
100
AcDbLine
 10
44.01247088229999
 20
0.0
 30
0.0
 11
44.01247088229999
 21
13.92149731619997
 31
0.0
  0
LINE
  5
8C11C
330
1F
100
AcDbEntity
  8
nocut
100
AcDbLine
 10
49.01247088229999
 20
24.9499999989
 30
0.0
 11
49.01247088229999
 21
0.0
 31
0.0
  0
ARC
  5
8C13C
330
1F
100
AcDbEntity
  8
nocut
100
AcDbCircle
 10
9.674401201499927
 20
24.78149999889998
 30
0.0
 40
3.0
100
AcDbArc
 50
78.03125444529992
 51
90.0
  0
ARC
  5
8C13D
330
1F
100
AcDbEntity
  8
nocut
100
AcDbCircle
 10
1.5
 20
26.28149999889998
 30
0.0
 40
1.5
100
AcDbArc
 50
90.0
 51
180.0
  0
ARC
  5
8C13E
330
1F
100
AcDbEntity
  8
sk3
100
AcDbCircle
 10
23.19999999999999
 20
12.39999999889997
 30
0.0
 40
0.8
100
AcDbArc
 50
0.0
 51
90.0
  0
ARC
  5
8C13F
330
1F
100
AcDbEntity
  8
sk3
100
AcDbCircle
 10
14.17735573009994
 20
12.39999999889997
 30
0.0
 40
0.8
100
AcDbArc
 50
90.0
 51
114.9999999999997
  0
ARC
  5
8C140
330
1F
100
AcDbEntity
  8
sk3
100
AcDbCircle
 10
24.39999999999998
 20
7.249999998899992
 30
0.0
 40
0.4
100
AcDbArc
 50
180.0
 51
270.0
  0
ARC
  5
8C141
330
1F
100
AcDbEntity
  8
nocut
100
AcDbCircle
 10
14.44409720859997
 20
47.28149999889999
 30
0.0
 40
20.0
100
AcDbArc
 50
258.0312544452999
 51
284.9999999999996
  0
ARC
  5
8C142
330
1F
100
AcDbEntity
  8
nocut
100
AcDbCircle
 10
43.01247088229999
 20
24.9499999989
 30
0.0
 40
6.0
100
AcDbArc
 50
0.0
 51
90.0
  0
ARC
  5
8C143
330
1F
100
AcDbEntity
  8
sk3
100
AcDbCircle
 10
47.01247088229999
 20
13.92149731619997
 30
0.0
 40
3.0
100
AcDbArc
 50
147.7656087215005
 51
180.0
  0
ARC
  5
8C144
330
1F
100
AcDbEntity
  8
sk3
100
AcDbCircle
 10
32.39999999999998
 20
9.599999998899987
 30
0.0
 40
0.4
100
AcDbArc
 50
90.0
 51
180.0
  0
ARC
  5
8C145
330
1F
100
AcDbEntity
  8
nocut
100
AcDbCircle
 10
39.32618060329995
 20
27.94999999890001
 30
0.0
 40
3.0
100
AcDbArc
 50
90.0
 51
91.00000000000015
  0
ARC
  5
8C146
330
1F
100
AcDbEntity
  8
nocut
100
AcDbCircle
 10
30.59431122179999
 20
27.7975846519
 30
0.0
 40
3.0
100
AcDbArc
 50
91.00000000000015
 51
104.9999999999995
  0
LINE
  5
8C14B
330
1F
100
AcDbEntity
  8
sk3
100
AcDbLine
 10
1.000000192299977
 20
-4.762499999999987
 30
0.0
 11
1.000000192299977
 21
-13.19999999889997
 31
0.0
  0
LINE
  5
8C14C
330
1F
100
AcDbEntity
  8
sk3
100
AcDbLine
 10
4.0
 20
-4.762499999999987
 30
0.0
 11
4.0
 21
-13.19999999889997
 31
0.0
  0
LINE
  5
8C14D
330
1F
100
AcDbEntity
  8
sk3
100
AcDbLine
 10
1.000000192299977
 20
-13.19999999889997
 30
0.0
 11
0.0
 21
-14.20000020569998
 31
0.0
  0
LINE
  5
8C14E
330
1F
100
AcDbEntity
  8
sk3
100
AcDbLine
 10
12.92774653969997
 20
-12.69999999889998
 30
0.0
 11
12.92774653969997
 21
0.0
 31
0.0
  0
LINE
  5
8C14F
330
1F
100
AcDbEntity
  8
sk3
100
AcDbLine
 10
24.39999999999998
 20
-6.849999998899987
 30
0.0
 11
31.5000000387
 21
-6.849999998899987
 31
0.0
  0
LINE
  5
8C150
330
1F
100
AcDbEntity
  8
sk3
100
AcDbLine
 10
32.39999999999998
 20
-9.999999998899994
 30
0.0
 11
44.01247088229999
 21
-9.999999998899994
 31
0.0
  0
LINE
  5
8C151
330
1F
100
AcDbEntity
  8
sk3
100
AcDbLine
 10
12.92774653969997
 20
-12.69999999889998
 30
0.0
 11
13.8392611207
 21
-13.12504622849999
 31
0.0
  0
LINE
  5
8C152
102
{ACAD_REACTORS
330
8C166
102
}
330
1F
100
AcDbEntity
  8
sk3
100
AcDbLine
 10
4.0
 20
-12.69999999889998
 30
0.0
 11
12.92774653969997
 21
-12.69999999889998
 31
0.0
  0
LINE
  5
8C153
330
1F
100
AcDbEntity
  8
sk3
100
AcDbLine
 10
1.000000192299977
 20
-13.19999999889997
 30
0.0
 11
4.0
 21
-13.19999999889997
 31
0.0
  0
LINE
  5
8C154
330
1F
100
AcDbEntity
  8
sk3
100
AcDbLine
 10
14.17735573009994
 20
-13.19999999889997
 30
0.0
 11
23.19999999999999
 21
-13.19999999889997
 31
0.0
  0
LINE
  5
8C155
102
{ACAD_REACTORS
330
8C211
102
}
330
1F
100
AcDbEntity
  8
sk3
100
AcDbLine
 10
23.99999999999997
 20
0.0
 30
0.0
 11
23.99999999999997
 21
-12.39999999889997
 31
0.0
  0
LINE
  5
8C156
330
1F
100
AcDbEntity
  8
sk3
100
AcDbLine
 10
31.5000000387
 20
-6.849999998899987
 30
0.0
 11
31.5000000387
 21
0.0
 31
0.0
  0
LINE
  5
8C157
330
1F
100
AcDbEntity
  8
sk3
100
AcDbLine
 10
31.99999999999997
 20
0.0
 30
0.0
 11
31.99999999999997
 21
-9.599999998899987
 31
0.0
  0
LINE
  5
8C158
330
1F
100
AcDbEntity
  8
sk3
100
AcDbLine
 10
31.5000000387
 20
-6.849999998899987
 30
0.0
 11
31.99999999999997
 21
-7.349999957299985
 31
0.0
  0
LINE
  5
8C159
330
1F
100
AcDbEntity
  8
sk3
100
AcDbLine
 10
44.47485140379993
 20
-15.52164961589999
 30
0.0
 11
48.85834404179999
 21
-22.47326059929999
 31
0.0
  0
LINE
  5
8C15A
330
1F
100
AcDbEntity
  8
sk3
100
AcDbLine
 10
44.01247088229999
 20
0.0
 30
0.0
 11
44.01247088229999
 21
-13.92149731619997
 31
0.0
  0
ARC
  5
8C15B
330
1F
100
AcDbEntity
  8
sk3
100
AcDbCircle
 10
23.19999999999999
 20
-12.39999999889997
 30
0.0
 40
0.8
100
AcDbArc
 50
270.0
 51
0.0
  0
ARC
  5
8C15C
330
1F
100
AcDbEntity
  8
sk3
100
AcDbCircle
 10
14.17735573009994
 20
-12.39999999889997
 30
0.0
 40
0.8
100
AcDbArc
 50
245.0000000000003
 51
270.0
  0
ARC
  5
8C15D
330
1F
100
AcDbEntity
  8
sk3
100
AcDbCircle
 10
24.39999999999998
 20
-7.249999998899992
 30
0.0
 40
0.4
100
AcDbArc
 50
90.0
 51
180.0
  0
ARC
  5
8C15E
330
1F
100
AcDbEntity
  8
sk3
100
AcDbCircle
 10
47.01247088229999
 20
-13.92149731619997
 30
0.0
 40
3.0
100
AcDbArc
 50
180.0
 51
212.2343912784995
  0
ARC
  5
8C15F
330
1F
100
AcDbEntity
  8
sk3
100
AcDbCircle
 10
48.01247088229999
 20
-23.00664469919998
 30
0.0
 40
1.0
100
AcDbArc
 50
0.0
 51
32.23439127849952
  0
ARC
  5
8C160
330
1F
100
AcDbEntity
  8
sk3
100
AcDbCircle
 10
32.39999999999998
 20
-9.599999998899987
 30
0.0
 40
0.4
100
AcDbArc
 50
180.0
 51
270.0
  0
DIMENSION
  5
8C161
330
1F
100
AcDbEntity
  8
2
100
AcDbDimension
  2
*D674444
 10
50.79999999999997
 20
60.0
 30
0.0
 11
24.80791937774964
 21
60.0
 31
0.0
 70
   160
 71
     5
 42
50.8
  3
コピー - ISO-25
100
AcDbAlignedDimension
 13
0.0
 23
26.28148127220003
 33
0.0
 14
50.79999999999997
 24
30.94999999890001
 34
0.0
 50
0.0
100
AcDbRotatedDimension
1001
ACAD
1000
DSTYLE
1002
{
1070
   170
1070
     1
1070
   171
1070
     3
1070
   143
1040
0.0393700787401575
1070
   285
1070
     4
1070
     4
1000
"
1070
   271
1070
     8
1070
    40
1040
1.0
1002
}
1001
ACAD_DSTYLE_DIMINSPECT
1070
   393
1070
     0
1070
   394
1070
     0
1070
   395
1000

1070
   396
1000

  0
DIMENSION
  5
8C162
330
1F
100
AcDbEntity
  8
2
100
AcDbDimension
  2
*D685555
 10
50.79999999999996
 20
50.02197765512018
 30
0.0
 11
82.26666666666664
 21
50.02197765512018
 31
0.0
 70
   160
  1
<>(MAX)
 71
     5
 42
8.200000000000001
  3
コピー - ISO-25
100
AcDbAlignedDimension
 13
42.59999999999993
 23
31.7499999989
 33
0.0
 14
50.79999999999996
 24
30.94999999889946
 34
0.0
 50
0.0
100
AcDbRotatedDimension
1001
ACAD
1000
DSTYLE
1002
{
1070
   170
1070
     1
1070
   171
1070
     3
1070
   143
1040
0.0393700787401575
1070
   285
1070
     4
1070
     4
1000
"
1070
   271
1070
     8
1070
    40
1040
1.0
1002
}
1001
ACAD_DSTYLE_DIMINSPECT
1070
   393
1070
     0
1070
   394
1070
     0
1070
   395
1000

1070
   396
1000

  0
DIMENSION
  5
8C164
102
{ACAD_XDICTIONARY
360
8C165
102
}
102
{ACAD_REACTORS
330
8C166
102
}
330
1F
100
AcDbEntity
  8
sk2
100
AcDbDimension
  2
*D707766
 10
-10.0
 20
-12.69999999889998
 30
0.0
 11
-10.0
 21
0.0
 31
0.0
 70
   160
  1
%%C<>
 71
     5
 42
25.3999999978
  3
コピー - ISO-25
100
AcDbAlignedDimension
 13
4.0
 23
12.69999999889998
 33
0.0
 14
4.0
 24
-12.69999999889998
 34
0.0
 50
90.0
100
AcDbRotatedDimension
1001
ACAD
1000
DSTYLE
1002
{
1070
   170
1070
     1
1070
   171
1070
     3
1070
   143
1040
0.0393700787401575
1070
   285
1070
     4
1070
     4
1000
%%c[]"
1070
   271
1070
     8
1070
    40
1040
1.0
1002
}
1001
ACAD_DSTYLE_DIMINSPECT
1070
   393
1070
     0
1070
   394
1070
     0
1070
   395
1000

1070
   396
1000

  0
DIMENSION
  5
8C167
330
1F
100
AcDbEntity
  8
sk2
100
AcDbDimension
  2
*D718877
 10
-20.0
 20
-27.7815
 30
0.0
 11
-20.0
 21
0.0
 31
0.0
 70
   160
  1
%%C<>
 71
     5
 42
55.563
  3
コピー - ISO-25
100
AcDbAlignedDimension
 13
1.5
 23
27.7815
 33
0.0
 14
1.5
 24
-27.7815
 34
0.0
 50
90.0
100
AcDbRotatedDimension
1001
ACAD
1000
DSTYLE
1002
{
1070
   170
1070
     1
1070
   171
1070
     3
1070
   143
1040
0.0393700787401575
1070
   285
1070
     4
1070
     4
1000
%%c[]"
1070
   271
1070
     8
1070
    40
1040
1.0
1002
}
1001
ACAD_DSTYLE_DIMINSPECT
1070
   393
1070
     0
1070
   394
1070
     0
1070
   395
1000

1070
   396
1000

  0
DIMENSION
  5
8C168
330
1F
100
AcDbEntity
  8
2
100
AcDbDimension
  2
*D729988
 10
69.99999999999997
 20
-31.74999999889999
 30
0.0
 11
69.99999999999997
 21
0.0
 31
0.0
 70
   160
  1
%%C<>
 71
     5
 42
63.49999999779999
  3
コピー - ISO-25
100
AcDbAlignedDimension
 13
49.99999999999997
 23
31.74999999890002
 33
0.0
 14
49.99999999999997
 24
-31.74999999889999
 34
0.0
 50
90.0
100
AcDbRotatedDimension
1001
ACAD
1000
DSTYLE
1002
{
1070
   170
1070
     1
1070
   171
1070
     3
1070
   143
1040
0.0393700787401575
1070
   285
1070
     4
1070
     4
1000
%%c[]"
1070
   344
1005
87D73
1070
   271
1070
     8
1070
   173
1070
     1
1070
    40
1040
1.0
1070
    76
1070
     1
1002
}
1001
ACAD_DSTYLE_DIMINSPECT
1070
   393
1070
     0
1070
   394
1070
     0
1070
   395
1000

1070
   396
1000

  0
LINE
  5
8C16B
330
1F
100
AcDbEntity
  8
1
100
AcDbLine
 10
0.0
 20
26.28148127220003
 30
0.0
 11
0.0
 21
5.262499999999987
 31
0.0
  0
LINE
  5
8C16C
330
1F
100
AcDbEntity
  8
1
100
AcDbLine
 10
0.0
 20
-26.2815
 30
0.0
 11
0.0
 21
-5.262499999999987
 31
0.0
  0
LINE
  5
8C16D
330
1F
100
AcDbEntity
  8
1
100
AcDbLine
 10
39.32618060339999
 20
-30.94999999999999
 30
0.0
 11
43.01247088229999
 21
-30.94999999999999
 31
0.0
  0
LINE
  5
8C16E
330
1F
100
AcDbEntity
  8
1
100
AcDbLine
 10
39.27382338409998
 20
-30.94954308539997
 30
0.0
 11
39.32618060339999
 21
-30.94999999999999
 31
0.0
  0
LINE
  5
8C16F
330
1F
100
AcDbEntity
  8
1
100
AcDbLine
 10
30.54195400259997
 20
-30.79712773839995
 30
0.0
 11
39.27382338409998
 21
-30.94954308539997
 31
0.0
  0
LINE
  5
8C170
330
1F
100
AcDbEntity
  8
1
100
AcDbLine
 10
19.62047811070002
 20
-27.96298347419997
 30
0.0
 11
29.81785408660002
 21
-30.69536213179996
 31
0.0
  0
LINE
  5
8C171
330
1F
100
AcDbEntity
  8
1
100
AcDbLine
 10
5.560000000000002
 20
3.762499999999988
 30
0.0
 11
5.560000000000002
 21
-3.762499999999988
 31
0.0
  0
LINE
  5
8C172
330
1F
100
AcDbEntity
  8
1
100
AcDbLine
 10
9.674401201599977
 20
-27.7815
 30
0.0
 11
1.5
 21
-27.7815
 31
0.0
  0
LINE
  5
8C173
330
1F
100
AcDbEntity
  8
1
100
AcDbLine
 10
35.41000236929998
 20
28.42943333840003
 30
0.0
 11
36.18286162629997
 21
28.71416674640006
 31
0.0
  0
LINE
  5
8C174
330
1F
100
AcDbEntity
  8
1
100
AcDbLine
 10
0.5
 20
-4.762499999999987
 30
0.0
 11
0.0
 21
-5.262499999999987
 31
0.0
  0
LINE
  5
8C175
330
1F
100
AcDbEntity
  8
1
100
AcDbLine
 10
36.71909570309995
 20
28.51661208239999
 30
0.0
 11
39.0034311332
 21
29.82543744150002
 31
0.0
  0
LINE
  5
8C176
330
1F
100
AcDbEntity
  8
1
100
AcDbLine
 10
0.0
 20
5.262499999999987
 30
0.0
 11
0.5
 21
4.762499999999987
 31
0.0
  0
LINE
  5
8C177
330
1F
100
AcDbEntity
  8
1
100
AcDbLine
 10
4.560000000000001
 20
4.762499999999987
 30
0.0
 11
5.560000000000002
 21
3.762499999999988
 31
0.0
  0
LINE
  5
8C178
330
1F
100
AcDbEntity
  8
1
100
AcDbLine
 10
5.560000000000002
 20
-3.762499999999988
 30
0.0
 11
4.560000000000001
 21
-4.762499999999987
 31
0.0
  0
LINE
  5
8C179
330
1F
100
AcDbEntity
  8
1
100
AcDbLine
 10
4.560000000000001
 20
-4.762499999999987
 30
0.0
 11
0.5
 21
-4.762499999999987
 31
0.0
  0
LINE
  5
8C17A
330
1F
100
AcDbEntity
  8
1
100
AcDbLine
 10
35.10236464559998
 20
28.64732522380001
 30
0.0
 11
34.9864248209
 21
29.93162849230003
 31
0.0
  0
LINE
  5
8C17B
330
1F
100
AcDbEntity
  8
1
100
AcDbLine
 10
0.5
 20
4.762499999999987
 30
0.0
 11
4.560000000000001
 21
4.762499999999987
 31
0.0
  0
LINE
  5
8C17C
330
1F
100
AcDbEntity
  8
1
100
AcDbLine
 10
48.85834404179999
 20
19.46839348990003
 30
0.0
 11
48.85834404179999
 21
15.62896428820004
 31
0.0
  0
LINE
  5
8C17D
330
1F
100
AcDbEntity
  8
1
100
AcDbLine
 10
36.13099470309996
 20
22.68843894090004
 30
0.0
 11
34.93765392499998
 21
24.95160808000004
 31
0.0
  0
LINE
  5
8C17E
330
1F
100
AcDbEntity
  8
1
100
AcDbLine
 10
35.5556158035
 20
24.66558783630001
 30
0.0
 11
36.6204412672
 21
22.573432539
 31
0.0
  0
LINE
  5
8C17F
330
1F
100
AcDbEntity
  8
1
100
AcDbLine
 10
49.01247088229999
 20
19.7364253887
 30
0.0
 11
49.01247088229999
 21
-24.94999817249999
 31
0.0
  0
LINE
  5
8C180
330
1F
100
AcDbEntity
  8
1
100
AcDbLine
 10
44.31416663399992
 20
22.76513424289998
 30
0.0
 11
44.12601540009997
 21
22.76513424289998
 31
0.0
  0
LINE
  5
8C181
330
1F
100
AcDbEntity
  8
1
100
AcDbLine
 10
42.59031138919996
 20
22.94004613910006
 30
0.0
 11
42.40216015529995
 21
22.94004613910006
 31
0.0
  0
LINE
  5
8C182
330
1F
100
AcDbEntity
  8
1
100
AcDbLine
 10
42.79302983519992
 20
23.039697804
 30
0.0
 11
42.98118106910002
 21
23.039697804
 31
0.0
  0
LINE
  5
8C183
330
1F
100
AcDbEntity
  8
1
100
AcDbLine
 10
34.88513596620001
 20
22.95726760580004
 30
0.0
 11
23.13705951059998
 21
27.25902881520001
 31
0.0
  0
LINE
  5
8C184
330
1F
100
AcDbEntity
  8
1
100
AcDbLine
 10
44.94605835649994
 20
23.56775759679999
 30
0.0
 11
45.13420959039999
 21
23.56775759679999
 31
0.0
  0
LINE
  5
8C185
330
1F
100
AcDbEntity
  8
1
100
AcDbLine
 10
45.32674258879999
 20
24.17880405310002
 30
0.0
 11
45.13859135499996
 21
24.17880405310002
 31
0.0
  0
LINE
  5
8C186
330
1F
100
AcDbEntity
  8
1
100
AcDbLine
 10
35.34860712869997
 20
25.24243286530003
 30
0.0
 11
34.50309221489997
 21
25.24243286530003
 31
0.0
  0
LINE
  5
8C187
330
1F
100
AcDbEntity
  8
1
100
AcDbLine
 10
35.32547388969997
 20
25.28875198240001
 30
0.0
 11
34.45292795779997
 21
25.28875198240001
 31
0.0
  0
LINE
  5
8C188
330
1F
100
AcDbEntity
  8
1
100
AcDbLine
 10
45.05303707120001
 20
25.30709612480008
 30
0.0
 11
44.86488583739995
 21
25.30709612480008
 31
0.0
  0
LINE
  5
8C189
330
1F
100
AcDbEntity
  8
1
100
AcDbLine
 10
44.03644238499999
 20
25.66773409480003
 30
0.0
 11
44.2245936189
 21
25.66773409480003
 31
0.0
  0
LINE
  5
8C18A
330
1F
100
AcDbEntity
  8
1
100
AcDbLine
 10
43.50683376129999
 20
26.093190204
 30
0.0
 11
43.3186825274
 21
26.093190204
 31
0.0
  0
LINE
  5
8C18B
330
1F
100
AcDbEntity
  8
1
100
AcDbLine
 10
33.86033042419999
 20
26.42944210210004
 30
0.0
 11
34.75696166660001
 21
26.42944210210004
 31
0.0
  0
LINE
  5
8C18C
330
1F
100
AcDbEntity
  8
1
100
AcDbLine
 10
45.15504407229999
 20
23.56757972980005
 30
0.0
 11
45.13420960070003
 21
23.56774289790001
 31
0.0
  0
LINE
  5
8C18D
330
1F
100
AcDbEntity
  8
1
100
AcDbLine
 10
42.05073061579992
 20
25.13985216910004
 30
0.0
 11
42.07156508739998
 21
25.13968900100002
 31
0.0
  0
LINE
  5
8C18E
330
1F
100
AcDbEntity
  8
1
100
AcDbLine
 10
35.5556158035
 20
24.66558783630001
 30
0.0
 11
35.19409646799997
 21
24.75159865290005
 31
0.0
  0
LINE
  5
8C18F
330
1F
100
AcDbEntity
  8
1
100
AcDbLine
 10
36.09794455389997
 20
28.34555889180002
 30
0.0
 11
36.71909570309995
 21
28.51661208239999
 31
0.0
  0
LINE
  5
8C190
330
1F
100
AcDbEntity
  8
1
100
AcDbLine
 10
19.62047811070002
 20
27.96298347430001
 30
0.0
 11
29.81785408660002
 21
30.69536213190004
 31
0.0
  0
LINE
  5
8C191
330
1F
100
AcDbEntity
  8
1
100
AcDbLine
 10
30.54195400259997
 20
30.79712773850002
 30
0.0
 11
35.77520363070004
 21
30.88847445050003
 31
0.0
  0
LINE
  5
8C192
330
1F
100
AcDbEntity
  8
1
100
AcDbLine
 10
34.12354275570002
 20
27.48296801030007
 30
0.0
 11
35.05109340800002
 21
27.48296801030007
 31
0.0
  0
LINE
  5
8C193
330
1F
100
AcDbEntity
  8
1
100
AcDbLine
 10
9.674401201599977
 20
27.7815
 30
0.0
 11
1.5
 21
27.7815
 31
0.0
  0
LINE
  5
8C194
330
1F
100
AcDbEntity
  8
1
100
AcDbLine
 10
36.12624543280001
 20
28.13055877490002
 30
0.0
 11
35.2329224012
 21
28.13055877490002
 31
0.0
  0
LINE
  5
8C195
330
1F
100
AcDbEntity
  8
1
100
AcDbLine
 10
36.17010875529999
 20
28.15644060300002
 30
0.0
 11
35.27933239950002
 21
28.15644060300002
 31
0.0
  0
LINE
  5
8C196
330
1F
100
AcDbEntity
  8
1
100
AcDbLine
 10
41.50394560139995
 20
31.20341046820005
 30
0.0
 11
40.95138391909995
 21
31.20341046820005
 31
0.0
  0
LINE
  5
8C197
330
1F
100
AcDbEntity
  8
1
100
AcDbLine
 10
42.23274351339995
 20
31.38989700680003
 30
0.0
 11
41.68144948649998
 21
31.38989700680003
 31
0.0
  0
LINE
  5
8C198
330
1F
100
AcDbEntity
  8
1
100
AcDbLine
 10
36.09794455389997
 20
28.34555889180002
 30
0.0
 11
35.41000236929998
 21
28.42943333840003
 31
0.0
  0
LINE
  5
8C199
330
1F
100
AcDbEntity
  8
1
100
AcDbLine
 10
36.18286162629997
 20
28.71416674640006
 30
0.0
 11
36.48285314939997
 21
28.63368359690002
 31
0.0
  0
LINE
  5
8C19A
330
1F
100
AcDbEntity
  8
1
100
AcDbLine
 10
42.27196340379996
 20
31.38941062510003
 30
0.0
 11
42.23274251889995
 21
31.38989700680003
 31
0.0
  0
ARC
  5
8C19B
330
1F
100
AcDbEntity
  8
1
100
AcDbCircle
 10
14.44409720870001
 20
-47.28149999999998
 30
0.0
 40
20.0
100
AcDbArc
 50
75.00000000000048
 51
101.9687455547001
  0
ARC
  5
8C19C
330
1F
100
AcDbEntity
  8
1
100
AcDbCircle
 10
14.44409720870001
 20
47.28149999999998
 30
0.0
 40
20.0
100
AcDbArc
 50
258.0312544452999
 51
284.9999999999996
  0
ARC
  5
8C19D
330
1F
100
AcDbEntity
  8
1
100
AcDbCircle
 10
43.01247088229999
 20
-24.94999999999999
 30
0.0
 40
6.0
100
AcDbArc
 50
270.0
 51
0.0
  0
ARC
  5
8C19E
330
1F
100
AcDbEntity
  8
1
100
AcDbCircle
 10
9.674401201599977
 20
24.78149999999999
 30
0.0
 40
3.0
100
AcDbArc
 50
78.03125444529992
 51
90.0
  0
ARC
  5
8C19F
330
1F
100
AcDbEntity
  8
1
100
AcDbCircle
 10
9.674401201599977
 20
-24.78149999999999
 30
0.0
 40
3.0
100
AcDbArc
 50
270.0
 51
281.9687455547001
  0
ARC
  5
8C1A0
330
1F
100
AcDbEntity
  8
1
100
AcDbCircle
 10
30.59431122189997
 20
27.79758465300005
 30
0.0
 40
3.0
100
AcDbArc
 50
91.00000000000015
 51
104.9999999999995
  0
ARC
  5
8C1A1
330
1F
100
AcDbEntity
  8
1
100
AcDbCircle
 10
30.59431122189997
 20
-27.79758465299997
 30
0.0
 40
3.0
100
AcDbArc
 50
255.0000000000005
 51
268.9999999999998
  0
ARC
  5
8C1A2
330
1F
100
AcDbEntity
  8
1
100
AcDbCircle
 10
1.5
 20
26.2815
 30
0.0
 40
1.5
100
AcDbArc
 50
90.0
 51
180.0
  0
ARC
  5
8C1A3
102
{ACAD_REACTORS
330
8C211
102
}
330
1F
100
AcDbEntity
  8
1
100
AcDbCircle
 10
1.5
 20
-26.2815
 30
0.0
 40
1.5
100
AcDbArc
 50
180.0
 51
270.0
  0
SPLINE
  5
8C1A4
330
1F
100
AcDbEntity
  8
1
100
AcDbSpline
210
0.0
220
0.0
230
1.0
 70
     8
 71
     3
 72
    15
 73
    11
 74
     0
 42
0.000000001
 43
0.0000000001
 40
0.0
 40
0.0
 40
0.0
 40
0.0
 40
0.1246306667
 40
0.2493700462
 40
0.3743251245000001
 40
0.4994834848
 40
0.6247560296
 40
0.7500072077
 40
0.8751043940999998
 40
1.0
 40
1.0
 40
1.0
 40
1.0
 10
42.0507306145
 20
25.13986396329999
 30
0.0
 10
42.0154441219
 20
25.13986000320006
 30
0.0
 10
41.94430715299995
 20
25.12820873280003
 30
0.0
 10
41.84914300599999
 20
25.07759842910001
 30
0.0
 10
41.77487091949996
 20
24.99916667060003
 30
0.0
 10
41.7293146154
 20
24.90109051000004
 30
0.0
 10
41.71714783860003
 20
24.79355864820003
 30
0.0
 10
41.73964746369995
 20
24.68770280960001
 30
0.0
 10
41.79438496279994
 20
24.59457228420002
 30
0.0
 10
41.8489413577
 20
24.54720157140002
 30
0.0
 10
41.87903209919997
 20
24.52862784570005
 30
0.0
  0
SPLINE
  5
8C1A5
330
1F
100
AcDbEntity
  8
1
100
AcDbSpline
210
0.0
220
0.0
230
1.0
 70
     8
 71
     3
 72
    11
 73
     7
 74
     0
 42
0.000000001
 43
0.0000000001
 40
0.0
 40
0.0
 40
0.0
 40
0.0
 40
0.2502982113
 40
0.5003479535000001
 40
0.7502225959000001
 40
1.0
 40
1.0
 40
1.0
 40
1.0
 10
41.11989417919994
 20
26.8476231664
 30
0.0
 10
41.27724775499999
 20
26.99886363230002
 30
0.0
 10
41.62156880389995
 20
27.27186722440001
 30
0.0
 10
42.20555027929997
 20
27.57513978770003
 30
0.0
 10
42.83610416779995
 20
27.76174889460004
 30
0.0
 10
43.27292636849995
 20
27.8037113167
 30
0.0
 10
43.49072399180002
 20
27.80371510530006
 30
0.0
  0
SPLINE
  5
8C1A6
330
1F
100
AcDbEntity
  8
1
100
AcDbSpline
210
0.0
220
0.0
230
1.0
 70
     8
 71
     3
 72
    15
 73
    11
 74
     0
 42
0.000000001
 43
0.0000000001
 40
0.0
 40
0.0
 40
0.0
 40
0.0
 40
0.1251690641
 40
0.2504153157
 40
0.3756780478
 40
0.5008524085000003
 40
0.6258738701
 40
0.7507162475
 40
0.8754019431999997
 40
1.0
 40
1.0
 40
1.0
 40
1.0
 10
42.15273761680001
 20
23.40033577400003
 30
0.0
 10
42.13787573059997
 20
23.37550390109998
 30
0.0
 10
42.11459664469995
 20
23.32162869059999
 30
0.0
 10
42.10195091199997
 20
23.23472711670001
 30
0.0
 10
42.11226122090002
 20
23.14746083270001
 30
0.0
 10
42.14487312239995
 20
23.06592906870004
 30
0.0
 10
42.19751681059998
 20
22.99576314690005
 30
0.0
 10
42.26658181889999
 20
22.94183962480003
 30
0.0
 10
42.34720327399995
 20
22.90790101330003
 30
0.0
 10
42.40512941079995
 20
22.90018346070001
 30
0.0
 10
42.43393694200003
 20
22.90018075520003
 30
0.0
  0
SPLINE
  5
8C1A7
330
1F
100
AcDbEntity
  8
1
100
AcDbSpline
210
0.0
220
0.0
230
1.0
 70
     8
 71
     3
 72
    11
 73
     7
 74
     0
 42
0.000000001
 43
0.0000000001
 40
0.0
 40
0.0
 40
0.0
 40
0.0
 40
0.2504838257
 40
0.500590205
 40
0.7503870348000003
 40
1.0
 40
1.0
 40
1.0
 40
1.0
 10
43.69894092669997
 20
22.61424169490005
 30
0.0
 10
43.66380314519996
 20
22.6780846199
 30
0.0
 10
43.57615117559995
 20
22.79692435730003
 30
0.0
 10
43.40284128799996
 20
22.93377598050005
 30
0.0
 10
43.1998368301
 20
23.02006261120006
 30
0.0
 10
43.05380145449999
 20
23.03970092290002
 30
0.0
 10
42.98118107029995
 20
23.03969708220002
 30
0.0
  0
SPLINE
  5
8C1A8
330
1F
100
AcDbEntity
  8
1
100
AcDbSpline
210
0.0
220
0.0
230
1.0
 70
     8
 71
     3
 72
    11
 73
     7
 74
     0
 42
0.000000001
 43
0.0000000001
 40
0.0
 40
0.0
 40
0.0
 40
0.0
 40
0.2504912436
 40
0.5005863446
 40
0.7503877002000002
 40
1.0
 40
1.0
 40
1.0
 40
1.0
 10
43.69894092669997
 20
22.61424169490005
 30
0.0
 10
43.71299881629997
 20
22.58869947940001
 30
0.0
 10
43.74806395439995
 20
22.54115428290003
 30
0.0
 10
43.81740376499998
 20
22.48641066219999
 30
0.0
 10
43.89861584849995
 20
22.45188374330002
 30
0.0
 10
43.95704072869998
 20
22.44403249460003
 30
0.0
 10
43.98609368369998
 20
22.44403058830005
 30
0.0
  0
SPLINE
  5
8C1A9
330
1F
100
AcDbEntity
  8
1
100
AcDbSpline
210
0.0
220
0.0
230
1.0
 70
     8
 71
     3
 72
    15
 73
    11
 74
     0
 42
0.000000001
 43
0.0000000001
 40
0.0
 40
0.0
 40
0.0
 40
0.0
 40
0.1250239648
 40
0.250123988
 40
0.3752702235
 40
0.5004026705
 40
0.6254740252000001
 40
0.7504461052
 40
0.8752850064
 40
1.0
 40
1.0
 40
1.0
 40
1.0
 10
42.15273761680001
 20
23.40033577400003
 30
0.0
 10
42.18023614679998
 20
23.44628149020001
 30
0.0
 10
42.22640434919995
 20
23.54383379500001
 30
0.0
 10
42.26599800919996
 20
23.70060075710005
 30
0.0
 10
42.27462952750002
 20
23.86216465929999
 30
0.0
 10
42.25191757899998
 20
24.02233100570003
 30
0.0
 10
42.19874750149998
 20
24.17503466570003
 30
0.0
 10
42.11710421209994
 20
24.31447821460006
 30
0.0
 10
42.01016036230001
 20
24.43533203129998
 30
0.0
 10
41.92448429639995
 20
24.50057215140003
 30
0.0
 10
41.87903209919997
 20
24.52862784570005
 30
0.0
  0
SPLINE
  5
8C1AA
330
1F
100
AcDbEntity
  8
1
100
AcDbSpline
210
0.0
220
0.0
230
1.0
 70
     8
 71
     3
 72
    15
 73
    11
 74
     0
 42
0.000000001
 43
0.0000000001
 40
0.0
 40
0.0
 40
0.0
 40
0.0
 40
0.1246847547
 40
0.2493950512
 40
0.3742059129999999
 40
0.4991353218
 40
0.6241963563000003
 40
0.7493826784000001
 40
0.8746592724999999
 40
1.0
 40
1.0
 40
1.0
 40
1.0
 10
42.07156508829996
 20
25.13967485820006
 30
0.0
 10
42.12426224999996
 20
25.13967837030004
 30
0.0
 10
42.22995310319999
 20
25.14994833440006
 30
0.0
 10
42.38235895369999
 20
25.19562580650001
 30
0.0
 10
42.52327268849994
 20
25.26983888410008
 30
0.0
 10
42.64738769909999
 20
25.36984830750004
 30
0.0
 10
42.75012380550001
 20
25.49191886870005
 30
0.0
 10
42.82765991349996
 20
25.63154042260003
 30
0.0
 10
42.8771363287
 20
25.78345128150004
 30
0.0
 10
42.8901877982
 20
25.88934229390004
 30
0.0
 10
42.89160805409998
 20
25.94229765600005
 30
0.0
  0
SPLINE
  5
8C1AB
330
1F
100
AcDbEntity
  8
1
100
AcDbSpline
210
0.0
220
0.0
230
1.0
 70
     8
 71
     3
 72
    23
 73
    19
 74
     0
 42
0.000000001
 43
0.0000000001
 40
0.0
 40
0.0
 40
0.0
 40
0.0
 40
0.062482809
 40
0.1250121698
 40
0.187586853
 40
0.2501944519
 40
0.3128231931
 40
0.3754584388
 40
0.4380852145000003
 40
0.5006892337
 40
0.5632581972999999
 40
0.6257828688
 40
0.6882578895
 40
0.7506822538
 40
0.8130594042
 40
0.8753969364999999
 40
0.9377059351999999
 40
1.0
 40
1.0
 40
1.0
 40
1.0
 10
41.11989417919994
 20
26.8476231664
 30
0.0
 10
40.99704110909994
 20
26.7295428785
 30
0.0
 10
40.76847386589998
 20
26.47458762050002
 30
0.0
 10
40.48614876159999
 20
26.04582730420002
 30
0.0
 10
40.27001946069995
 20
25.57968086560003
 30
0.0
 10
40.12496486509999
 20
25.08651799510005
 30
0.0
 10
40.0541435396
 20
24.57719524769998
 30
0.0
 10
40.05912628569999
 20
24.06294617450003
 30
0.0
 10
40.13980045219997
 20
23.55510717560004
 30
0.0
 10
40.294392041
 20
23.06487610460004
 30
0.0
 10
40.51949592309997
 20
22.60306402640003
 30
0.0
 10
40.81015286899995
 20
22.17985765570006
 30
0.0
 10
41.15995701950001
 20
21.80459546070006
 30
0.0
 10
41.56120004809989
 20
21.48556138980008
 30
0.0
 10
42.00502266539999
 20
21.22980164609999
 30
0.0
 10
42.48167329559996
 20
21.04296680970003
 30
0.0
 10
42.98048372939999
 20
20.92918977660003
 30
0.0
 10
43.32083968729995
 20
20.90371383839999
 30
0.0
 10
43.49072399169997
 20
20.90371679350004
 30
0.0
  0
SPLINE
  5
8C1AC
330
1F
100
AcDbEntity
  8
1
100
AcDbSpline
210
0.0
220
0.0
230
1.0
 70
     8
 71
     3
 72
    11
 73
     7
 74
     0
 42
0.000000001
 43
0.0000000001
 40
0.0
 40
0.0
 40
0.0
 40
0.0
 40
0.2493758055
 40
0.4991114829
 40
0.7493606815
 40
1.0
 40
1.0
 40
1.0
 40
1.0
 10
43.21968100429995
 20
26.26340131060004
 30
0.0
 10
43.17771126459999
 20
26.26340406440006
 30
0.0
 10
43.09281624719996
 20
26.2467864413
 30
0.0
 10
42.984943394
 20
26.17568547050002
 30
0.0
 10
42.91147442109994
 20
26.06917800850006
 30
0.0
 10
42.89273897359999
 20
25.98446488120004
 30
0.0
 10
42.89160805409998
 20
25.94229765600005
 30
0.0
  0
SPLINE
  5
8C1AD
330
1F
100
AcDbEntity
  8
1
100
AcDbSpline
210
0.0
220
0.0
230
1.0
 70
     8
 71
     3
 72
     9
 73
     5
 74
     0
 42
0.000000001
 43
0.0000000001
 40
0.0
 40
0.0
 40
0.0
 40
0.0
 40
0.4998189853000001
 40
1.0
 40
1.0
 40
1.0
 40
1.0
 10
44.22459361779996
 20
25.66773481660006
 30
0.0
 10
44.29232443879996
 20
25.66773839870002
 30
0.0
 10
44.42837010849999
 20
25.68474447730006
 30
0.0
 10
44.55594652079994
 20
25.7349532874
 30
0.0
 10
44.61546329889995
 20
25.76738575970001
 30
0.0
  0
SPLINE
  5
8C1AE
330
1F
100
AcDbEntity
  8
1
100
AcDbSpline
210
0.0
220
0.0
230
1.0
 70
     8
 71
     3
 72
     9
 73
     5
 74
     0
 42
0.000000001
 43
0.0000000001
 40
0.0
 40
0.0
 40
0.0
 40
0.0
 40
0.4998093977000001
 40
1.0
 40
1.0
 40
1.0
 40
1.0
 10
44.77183774609994
 20
25.80725114360002
 30
0.0
 10
44.74474134799996
 20
25.8072536884
 30
0.0
 10
44.69031336139996
 20
25.8004478642
 30
0.0
 10
44.63927449950002
 20
25.780361195
 30
0.0
 10
44.61546329889995
 20
25.76738575970001
 30
0.0
  0
SPLINE
  5
8C1AF
330
1F
100
AcDbEntity
  8
1
100
AcDbSpline
210
0.0
220
0.0
230
1.0
 70
     8
 71
     3
 72
    23
 73
    19
 74
     0
 42
0.000000001
 43
0.0000000001
 40
0.0
 40
0.0
 40
0.0
 40
0.0
 40
0.0622940648
 40
0.1246030635
 40
0.1869405958
 40
0.2493177462
 40
0.3117421105
 40
0.3742171312
 40
0.4367418027000002
 40
0.4993107663
 40
0.5619147855
 40
0.6245415612
 40
0.6871768069
 40
0.7498055481
 40
0.812413147
 40
0.8749878301999999
 40
0.9375171909999997
 40
1.0
 40
1.0
 40
1.0
 40
1.0
 10
43.5610759587
 20
27.80371510530006
 30
0.0
 10
43.73096026319996
 20
27.80371806050006
 30
0.0
 10
44.07131622099996
 20
27.77824212230001
 30
0.0
 10
44.57012665480002
 20
27.66446508920001
 30
0.0
 10
45.04677728509995
 20
27.47763025280006
 30
0.0
 10
45.4905999023999
 20
27.22187050910005
 30
0.0
 10
45.89184293099996
 20
26.9028364381
 30
0.0
 10
46.24164708149993
 20
26.52757424320004
 30
0.0
 10
46.53230402739999
 20
26.10436787250002
 30
0.0
 10
46.75740790949996
 20
25.64255579420001
 30
0.0
 10
46.91199949829999
 20
25.15232472320003
 30
0.0
 10
46.99267366479996
 20
24.64448572440006
 30
0.0
 10
46.99765641090002
 20
24.13023665120004
 30
0.0
 10
46.92683508540002
 20
23.62091390380005
 30
0.0
 10
46.78178048979996
 20
23.12775103329999
 30
0.0
 10
46.56565118879996
 20
22.66160459460001
 30
0.0
 10
46.28332608459996
 20
22.23284427840003
 30
0.0
 10
46.0547588414
 20
21.97788902040004
 30
0.0
 10
45.93190577129999
 20
21.85980873240003
 30
0.0
  0
SPLINE
  5
8C1B0
330
1F
100
AcDbEntity
  8
1
100
AcDbSpline
210
0.0
220
0.0
230
1.0
 70
     8
 71
     3
 72
    11
 73
     7
 74
     0
 42
0.000000001
 43
0.0000000001
 40
0.0
 40
0.0
 40
0.0
 40
0.0
 40
0.2497774041
 40
0.4996520465
 40
0.7497017887000002
 40
1.0
 40
1.0
 40
1.0
 40
1.0
 10
43.5610759587
 20
20.90371679350004
 30
0.0
 10
43.77887358199996
 20
20.90372058210004
 30
0.0
 10
44.21569578259997
 20
20.94568300420001
 30
0.0
 10
44.84624967120001
 20
21.13229211120005
 30
0.0
 10
45.43023114659995
 20
21.43556467440003
 30
0.0
 10
45.77455219549997
 20
21.70856826650003
 30
0.0
 10
45.93190577129999
 20
21.85980873240003
 30
0.0
  0
SPLINE
  5
8C1B1
330
1F
100
AcDbEntity
  8
1
100
AcDbSpline
210
0.0
220
0.0
230
1.0
 70
     8
 71
     3
 72
    23
 73
    19
 74
     0
 42
0.000000001
 43
0.0000000001
 40
0.0
 40
0.0
 40
0.0
 40
0.0
 40
0.062482809
 40
0.1250121698
 40
0.187586853
 40
0.2501944519
 40
0.3128231931
 40
0.3754584388
 40
0.4380852145000003
 40
0.5006892337
 40
0.5632581972999999
 40
0.6257828688
 40
0.6882578895
 40
0.7506822538
 40
0.8130594042
 40
0.8753969364999999
 40
0.9377059351999999
 40
1.0
 40
1.0
 40
1.0
 40
1.0
 10
41.1902461461
 20
26.8476231664
 30
0.0
 10
41.06739307609996
 20
26.7295428785
 30
0.0
 10
40.83882583290002
 20
26.47458762050002
 30
0.0
 10
40.55650072859998
 20
26.04582730420002
 30
0.0
 10
40.34037142759999
 20
25.57968086560003
 30
0.0
 10
40.19531683200002
 20
25.08651799510005
 30
0.0
 10
40.12449550659996
 20
24.57719524769998
 30
0.0
 10
40.12947825270001
 20
24.06294617450003
 30
0.0
 10
40.21015241909998
 20
23.55510717560004
 30
0.0
 10
40.36474400799995
 20
23.06487610460004
 30
0.0
 10
40.58984789000001
 20
22.60306402640003
 30
0.0
 10
40.88050483589998
 20
22.17985765570006
 30
0.0
 10
41.23030898639996
 20
21.80459546070006
 30
0.0
 10
41.63155201509993
 20
21.48556138980008
 30
0.0
 10
42.07537463239996
 20
21.22980164609999
 30
0.0
 10
42.55202526259995
 20
21.04296680970003
 30
0.0
 10
43.05083569639996
 20
20.92918977660003
 30
0.0
 10
43.39119165419996
 20
20.90371383839999
 30
0.0
 10
43.5610759587
 20
20.90371679350004
 30
0.0
  0
SPLINE
  5
8C1B2
330
1F
100
AcDbEntity
  8
1
100
AcDbSpline
210
0.0
220
0.0
230
1.0
 70
     8
 71
     3
 72
    11
 73
     7
 74
     0
 42
0.000000001
 43
0.0000000001
 40
0.0
 40
0.0
 40
0.0
 40
0.0
 40
0.2502982113
 40
0.5003479535000001
 40
0.7502225959000001
 40
1.0
 40
1.0
 40
1.0
 40
1.0
 10
41.1902461461
 20
26.8476231664
 30
0.0
 10
41.34759972199996
 20
26.99886363230002
 30
0.0
 10
41.69192077089999
 20
27.27186722440001
 30
0.0
 10
42.2759022462
 20
27.57513978770003
 30
0.0
 10
42.90645613479995
 20
27.76174889460004
 30
0.0
 10
43.3432783355
 20
27.8037113167
 30
0.0
 10
43.5610759587
 20
27.80371510530006
 30
0.0
  0
SPLINE
  5
8C1B3
330
1F
100
AcDbEntity
  8
1
100
AcDbSpline
210
0.0
220
0.0
230
1.0
 70
     8
 71
     3
 72
    27
 73
    23
 74
     0
 42
0.000000001
 43
0.0000000001
 40
0.0
 40
0.0
 40
0.0
 40
0.0
 40
0.0625088672
 40
0.0938223471
 40
0.1251520215
 40
0.1877715553
 40
0.2504192639
 40
0.2817832179
 40
0.3131447036
 40
0.3757726261999999
 40
0.4383555037
 40
0.500877792
 40
0.5633331951000004
 40
0.6257256060000001
 40
0.6880684645000003
 40
0.7192657055
 40
0.7504588469
 40
0.8127702661
 40
0.8751046963
 40
0.9063254709999998
 40
0.9375580342999999
 40
1.0
 40
1.0
 40
1.0
 40
1.0
 10
41.98728087930001
 20
26.0531937444
 30
0.0
 10
41.87677486300001
 20
25.94698083310003
 30
0.0
 10
41.72608948319997
 20
25.77058028240003
 30
0.0
 10
41.56293282109999
 20
25.51025787270003
 30
0.0
 10
41.42576484169999
 20
25.23493960220004
 30
0.0
 10
41.30579010939996
 20
24.86744898350004
 30
0.0
 10
41.2595525051
 20
24.48355601999998
 30
0.0
 10
41.26770012809996
 20
24.17581680040001
 30
0.0
 10
41.30574621369996
 20
23.87038682210004
 30
0.0
 10
41.40900593909996
 20
23.49785282560004
 30
0.0
 10
41.61717212790003
 20
23.08405166920004
 30
0.0
 10
41.90164722339996
 20
22.71891527780002
 30
0.0
 10
42.25155399569999
 20
22.41660186760004
 30
0.0
 10
42.65333641919997
 20
22.18871904960002
 30
0.0
 10
43.01900281709999
 20
22.06808514410004
 30
0.0
 10
43.32083245930002
 20
22.01607734740004
 30
0.0
 10
43.62624441249997
 20
21.99401242070003
 30
0.0
 10
44.00990785329994
 20
22.02317655730001
 30
0.0
 10
44.38041423550001
 20
22.12716772510004
 30
0.0
 10
44.66004034020002
 20
22.25251226990001
 30
0.0
 10
44.92617047759995
 20
22.40476049160004
 30
0.0
 10
45.10810606399999
 20
22.54813891989999
 30
0.0
 10
45.21849380869997
 20
22.65423815440005
 30
0.0
  0
SPLINE
  5
8C1B4
330
1F
100
AcDbEntity
  8
1
100
AcDbSpline
210
0.0
220
0.0
230
1.0
 70
     8
 71
     3
 72
    15
 73
    11
 74
     0
 42
0.000000001
 43
0.0000000001
 40
0.0
 40
0.0
 40
0.0
 40
0.0
 40
0.1250239648
 40
0.250123988
 40
0.3752702235
 40
0.5004026705
 40
0.6254740252000001
 40
0.7504461052
 40
0.8752850064
 40
1.0
 40
1.0
 40
1.0
 40
1.0
 10
45.05303707120001
 20
25.30709612480008
 30
0.0
 10
45.02553854120001
 20
25.26115040860002
 30
0.0
 10
44.97937033879995
 20
25.16359810390004
 30
0.0
 10
44.93977667879997
 20
25.00683114170004
 30
0.0
 10
44.93114516059992
 20
24.84526723950001
 30
0.0
 10
44.95385710899998
 20
24.68510089320005
 30
0.0
 10
45.00702718659996
 20
24.53239723320002
 30
0.0
 10
45.08867047599998
 20
24.39295368429998
 30
0.0
 10
45.19561432579997
 20
24.27209986760006
 30
0.0
 10
45.28129039169993
 20
24.20685974740003
 30
0.0
 10
45.32674258879999
 20
24.17880405310002
 30
0.0
  0
SPLINE
  5
8C1B5
330
1F
100
AcDbEntity
  8
1
100
AcDbSpline
210
0.0
220
0.0
230
1.0
 70
     8
 71
     3
 72
     9
 73
     5
 74
     0
 42
0.000000001
 43
0.0000000001
 40
0.0
 40
0.0
 40
0.0
 40
0.0
 40
0.5005296858000003
 40
1.0
 40
1.0
 40
1.0
 40
1.0
 10
43.3186825274
 20
26.093190204
 30
0.0
 10
43.298318561
 20
26.13019012630001
 30
0.0
 10
43.24279433259996
 20
26.19688157800005
 30
0.0
 10
43.16602069069998
 20
26.23738893480004
 30
0.0
 10
43.1256643829
 20
26.24953436390008
 30
0.0
  0
SPLINE
  5
8C1B6
330
1F
100
AcDbEntity
  8
1
100
AcDbSpline
210
0.0
220
0.0
230
1.0
 70
     8
 71
     3
 72
    11
 73
     7
 74
     0
 42
0.000000001
 43
0.0000000001
 40
0.0
 40
0.0
 40
0.0
 40
0.0
 40
0.2496149404
 40
0.4994124553
 40
0.7495119399
 40
1.0
 40
1.0
 40
1.0
 40
1.0
 10
44.03644238229996
 20
25.66773844740004
 30
0.0
 10
43.96382147999998
 20
25.66773672930003
 30
0.0
 10
43.81778351719995
 20
25.68736272600002
 30
0.0
 10
43.61478497679999
 20
25.77366200610003
 30
0.0
 10
43.44147122359999
 20
25.91050538339999
 30
0.0
 10
43.35382087559991
 20
26.02934624940001
 30
0.0
 10
43.3186825274
 20
26.093190204
 30
0.0
  0
SPLINE
  5
8C1B7
330
1F
100
AcDbEntity
  8
1
100
AcDbSpline
210
0.0
220
0.0
230
1.0
 70
     8
 71
     3
 72
    15
 73
    11
 74
     0
 42
0.000000001
 43
0.0000000001
 40
0.0
 40
0.0
 40
0.0
 40
0.0
 40
0.1250857571
 40
0.2502708197
 40
0.3754748568
 40
0.5006388484000001
 40
0.6256977427
 40
0.7506129544000001
 40
0.8753737401
 40
1.0
 40
1.0
 40
1.0
 40
1.0
 10
44.86488583739995
 20
25.30709612480008
 30
0.0
 10
44.87770727839997
 20
25.32851873510003
 30
0.0
 10
44.89855341889994
 20
25.37447160600005
 30
0.0
 10
44.913489338
 20
25.44853699940001
 30
0.0
 10
44.9114278808
 20
25.52411702860002
 30
0.0
 10
44.89245665759995
 20
25.59727234480006
 30
0.0
 10
44.8575549864
 20
25.66424300800004
 30
0.0
 10
44.8085064468
 20
25.72157421890005
 30
0.0
 10
44.74788478349998
 20
25.76629024219999
 30
0.0
 10
44.70169983579999
 20
25.78618933960001
 30
0.0
 10
44.6778832518
 20
25.79336686420003
 30
0.0
  0
SPLINE
  5
8C1B8
330
1F
100
AcDbEntity
  8
1
100
AcDbSpline
210
0.0
220
0.0
230
1.0
 70
     8
 71
     3
 72
    15
 73
    11
 74
     0
 42
0.000000001
 43
0.0000000001
 40
0.0
 40
0.0
 40
0.0
 40
0.0
 40
0.1247112658
 40
0.2495551485
 40
0.374525539
 40
0.4995973265
 40
0.6247302097000002
 40
0.7498747513
 40
0.8749797722
 40
1.0
 40
1.0
 40
1.0
 40
1.0
 10
45.13859135499996
 20
24.17880405310002
 30
0.0
 10
45.09314046489996
 20
24.2068589406
 30
0.0
 10
45.00746499300001
 20
24.27210047440001
 30
0.0
 10
44.90051720869995
 20
24.39295100140003
 30
0.0
 10
44.81887526799996
 20
24.53239749740003
 30
0.0
 10
44.7657029803
 20
24.68510018650004
 30
0.0
 10
44.74299344009994
 20
24.84526668230007
 30
0.0
 10
44.75162241269996
 20
25.00683258980008
 30
0.0
 10
44.79122106969995
 20
25.16359843970003
 30
0.0
 10
44.83738809809998
 20
25.26115172990002
 30
0.0
 10
44.86488583739995
 20
25.30709612480008
 30
0.0
  0
SPLINE
  5
8C1B9
330
1F
100
AcDbEntity
  8
1
100
AcDbSpline
210
0.0
220
0.0
230
1.0
 70
     8
 71
     3
 72
    15
 73
    11
 74
     0
 42
0.000000001
 43
0.0000000001
 40
0.0
 40
0.0
 40
0.0
 40
0.0
 40
0.1251690641
 40
0.2504153157
 40
0.3756780478
 40
0.5008524085000003
 40
0.6258738701
 40
0.7507162475
 40
0.8754019431999997
 40
1.0
 40
1.0
 40
1.0
 40
1.0
 10
45.05303707120001
 20
25.30709612480008
 30
0.0
 10
45.06789895739996
 20
25.33192799780005
 30
0.0
 10
45.09117804339999
 20
25.38580320830006
 30
0.0
 10
45.10382377599998
 20
25.47270478210003
 30
0.0
 10
45.09351346709999
 20
25.55997106620004
 30
0.0
 10
45.06090156559989
 20
25.6415028302
 30
0.0
 10
45.00825787749997
 20
25.71166875190006
 30
0.0
 10
44.93919286909997
 20
25.76559227410007
 30
0.0
 10
44.8585714141
 20
25.79953088560002
 30
0.0
 10
44.80064527729999
 20
25.80724843820001
 30
0.0
 10
44.77183774609994
 20
25.80725114360002
 30
0.0
  0
SPLINE
  5
8C1BA
330
1F
100
AcDbEntity
  8
1
100
AcDbSpline
210
0.0
220
0.0
230
1.0
 70
     8
 71
     3
 72
    15
 73
    11
 74
     0
 42
0.000000001
 43
0.0000000001
 40
0.0
 40
0.0
 40
0.0
 40
0.0
 40
0.1253361589
 40
0.2506179557
 40
0.3758017338
 40
0.5008629552000004
 40
0.6257921002
 40
0.7506016773000001
 40
0.8753138232999997
 40
1.0
 40
1.0
 40
1.0
 40
1.0
 10
44.12601540009997
 20
22.76513424289998
 30
0.0
 10
44.12743560589999
 20
22.81808773620003
 30
0.0
 10
44.14048875889998
 20
22.92397863540003
 30
0.0
 10
44.18995968579998
 20
23.07589078599999
 30
0.0
 10
44.2674990312
 20
23.21551223450001
 30
0.0
 10
44.37023218559994
 20
23.33758391270003
 30
0.0
 10
44.49434774139999
 20
23.43759220300007
 30
0.0
 10
44.63526076809995
 20
23.51180706150001
 30
0.0
 10
44.78766833579996
 20
23.55748353940003
 30
0.0
 10
44.89336055419997
 20
23.56775225519998
 30
0.0
 10
44.94605837779997
 20
23.56775687560002
 30
0.0
  0
SPLINE
  5
8C1BB
330
1F
100
AcDbEntity
  8
1
100
AcDbSpline
210
0.0
220
0.0
230
1.0
 70
     8
 71
     3
 72
    11
 73
     7
 74
     0
 42
0.000000001
 43
0.0000000001
 40
0.0
 40
0.0
 40
0.0
 40
0.0
 40
0.2504838257
 40
0.500590205
 40
0.7503870348000003
 40
1.0
 40
1.0
 40
1.0
 40
1.0
 10
43.50683376129999
 20
26.093190204
 30
0.0
 10
43.54197154290003
 20
26.02934727890005
 30
0.0
 10
43.62962351239995
 20
25.91050754160006
 30
0.0
 10
43.80293340009997
 20
25.77365591830004
 30
0.0
 10
44.005937858
 20
25.68736928760003
 30
0.0
 10
44.1519732335
 20
25.66773097600004
 30
0.0
 10
44.22459361779996
 20
25.66773481660006
 30
0.0
  0
SPLINE
  5
8C1BC
330
1F
100
AcDbEntity
  8
1
100
AcDbSpline
210
0.0
220
0.0
230
1.0
 70
     8
 71
     3
 72
     9
 73
     5
 74
     0
 42
0.000000001
 43
0.0000000001
 40
0.0
 40
0.0
 40
0.0
 40
0.0
 40
0.5001901152000002
 40
1.0
 40
1.0
 40
1.0
 40
1.0
 10
42.40216015529995
 20
22.94004613910006
 30
0.0
 10
42.46167797159995
 20
22.9724791772
 30
0.0
 10
42.58925388379995
 20
23.02268960090005
 30
0.0
 10
42.72530030089998
 20
23.03969184910005
 30
0.0
 10
42.79302983799996
 20
23.0396934514
 30
0.0
  0
SPLINE
  5
8C1BD
330
1F
100
AcDbEntity
  8
1
100
AcDbSpline
210
0.0
220
0.0
230
1.0
 70
     8
 71
     3
 72
    15
 73
    11
 74
     0
 42
0.000000001
 43
0.0000000001
 40
0.0
 40
0.0
 40
0.0
 40
0.0
 40
0.1246306667
 40
0.2493700462
 40
0.3743251245000001
 40
0.4994834848
 40
0.6247560296
 40
0.7500072077
 40
0.8751043940999998
 40
1.0
 40
1.0
 40
1.0
 40
1.0
 10
45.15504407359997
 20
23.56756793560003
 30
0.0
 10
45.19033056619996
 20
23.56757189570004
 30
0.0
 10
45.26146753509997
 20
23.57922316610002
 30
0.0
 10
45.35663168210001
 20
23.62983346970002
 30
0.0
 10
45.43090376860003
 20
23.70826522820004
 30
0.0
 10
45.4764600727
 20
23.80634138880004
 30
0.0
 10
45.4886268494
 20
23.91387325060003
 30
0.0
 10
45.46612722439997
 20
24.01972908920003
 30
0.0
 10
45.41138972519999
 20
24.11285961460003
 30
0.0
 10
45.35683333029996
 20
24.16023032740004
 30
0.0
 10
45.32674258879999
 20
24.17880405310002
 30
0.0
  0
SPLINE
  5
8C1BE
330
1F
100
AcDbEntity
  8
1
100
AcDbSpline
210
0.0
220
0.0
230
1.0
 70
     8
 71
     3
 72
    15
 73
    11
 74
     0
 42
0.000000001
 43
0.0000000001
 40
0.0
 40
0.0
 40
0.0
 40
0.0
 40
0.1246447334
 40
0.2493848056
 40
0.3743438025
 40
0.4995031723
 40
0.6247725785
 40
0.7500190329000001
 40
0.8751066604
 40
1.0
 40
1.0
 40
1.0
 40
1.0
 10
44.97236084049997
 20
23.56761477690002
 30
0.0
 10
45.00742199139994
 20
23.56820946550005
 30
0.0
 10
45.07790242680002
 20
23.5808881153
 30
0.0
 10
45.17175065999999
 20
23.63245391560003
 30
0.0
 10
45.24464054399992
 20
23.71120810910003
 30
0.0
 10
45.28897658139996
 20
23.80906128449998
 30
0.0
 10
45.30029818829999
 20
23.91596802530005
 30
0.0
 10
45.27739159529994
 20
24.02100367570005
 30
0.0
 10
45.22273380089997
 20
24.11335069650004
 30
0.0
 10
45.16849031819996
 20
24.16034870390002
 30
0.0
 10
45.13859135499996
 20
24.17880405310002
 30
0.0
  0
SPLINE
  5
8C1BF
330
1F
100
AcDbEntity
  8
1
100
AcDbSpline
210
0.0
220
0.0
230
1.0
 70
     8
 71
     3
 72
    15
 73
    11
 74
     0
 42
0.000000001
 43
0.0000000001
 40
0.0
 40
0.0
 40
0.0
 40
0.0
 40
0.1246847547
 40
0.2493950512
 40
0.3742059129999999
 40
0.4991353218
 40
0.6241963563000003
 40
0.7493826784000001
 40
0.8746592724999999
 40
1.0
 40
1.0
 40
1.0
 40
1.0
 10
45.13420959969996
 20
23.56775704060003
 30
0.0
 10
45.08151243799997
 20
23.56775352850001
 30
0.0
 10
44.97582158489999
 20
23.55748356449998
 30
0.0
 10
44.82341573439995
 20
23.51180609240004
 30
0.0
 10
44.68250199960002
 20
23.43759301480003
 30
0.0
 10
44.55838698899992
 20
23.33758359130003
 30
0.0
 10
44.45565088250001
 20
23.21551303010005
 30
0.0
 10
44.37811477459999
 20
23.07589147620001
 30
0.0
 10
44.32863835929999
 20
22.92398061740005
 30
0.0
 10
44.3155868899
 20
22.81808960500001
 30
0.0
 10
44.31416663399992
 20
22.76513424289998
 30
0.0
  0
SPLINE
  5
8C1C0
330
1F
100
AcDbEntity
  8
1
100
AcDbSpline
210
0.0
220
0.0
230
1.0
 70
     8
 71
     3
 72
    11
 73
     7
 74
     0
 42
0.000000001
 43
0.0000000001
 40
0.0
 40
0.0
 40
0.0
 40
0.0
 40
0.2504912436
 40
0.5005863446
 40
0.7503877002000002
 40
1.0
 40
1.0
 40
1.0
 40
1.0
 10
43.50683376129999
 20
26.093190204
 30
0.0
 10
43.49277587179996
 20
26.11873241950001
 30
0.0
 10
43.45771073369999
 20
26.16627761590001
 30
0.0
 10
43.38837092309993
 20
26.22102123670003
 30
0.0
 10
43.30715883959996
 20
26.25554815550005
 30
0.0
 10
43.24873395929995
 20
26.2633994043
 30
0.0
 10
43.21968100429995
 20
26.26340131060004
 30
0.0
  0
SPLINE
  5
8C1C1
330
1F
100
AcDbEntity
  8
1
100
AcDbSpline
210
0.0
220
0.0
230
1.0
 70
     8
 71
     3
 72
    11
 73
     7
 74
     0
 42
0.000000001
 43
0.0000000001
 40
0.0
 40
0.0
 40
0.0
 40
0.0
 40
0.2493758055
 40
0.4991114829
 40
0.7493606815
 40
1.0
 40
1.0
 40
1.0
 40
1.0
 10
43.98609368369998
 20
22.44403058830005
 30
0.0
 10
44.02806342349996
 20
22.44402783440005
 30
0.0
 10
44.11295844089997
 20
22.46064545749999
 30
0.0
 10
44.2208312941
 20
22.53174642830003
 30
0.0
 10
44.29430026689995
 20
22.63825389039999
 30
0.0
 10
44.31303571439999
 20
22.72296701769999
 30
0.0
 10
44.31416663399992
 20
22.76513424289998
 30
0.0
  0
SPLINE
  5
8C1C2
330
1F
100
AcDbEntity
  8
1
100
AcDbSpline
210
0.0
220
0.0
230
1.0
 70
     8
 71
     3
 72
    11
 73
     7
 74
     0
 42
0.000000001
 43
0.0000000001
 40
0.0
 40
0.0
 40
0.0
 40
0.0
 40
0.2494323598
 40
0.4992635434000002
 40
0.7494788913
 40
1.0
 40
1.0
 40
1.0
 40
1.0
 10
43.89214778849996
 20
22.45791931110001
 30
0.0
 10
43.92485220939994
 20
22.46776982070004
 30
0.0
 10
43.987627398
 20
22.49806142270001
 30
0.0
 10
44.06287692529994
 20
22.57022928140003
 30
0.0
 10
44.11245160939995
 20
22.66211256270004
 30
0.0
 10
44.12509568089999
 20
22.7308417899
 30
0.0
 10
44.12601540009997
 20
22.76513424289998
 30
0.0
  0
SPLINE
  5
8C1C3
330
1F
100
AcDbEntity
  8
1
100
AcDbSpline
210
0.0
220
0.0
230
1.0
 70
     8
 71
     3
 72
     9
 73
     5
 74
     0
 42
0.000000001
 43
0.0000000001
 40
0.0
 40
0.0
 40
0.0
 40
0.0
 40
0.4998189853000001
 40
1.0
 40
1.0
 40
1.0
 40
1.0
 10
42.98118107029995
 20
23.03969708220002
 30
0.0
 10
42.9134502492
 20
23.03969350010004
 30
0.0
 10
42.77740457960002
 20
23.02268742160003
 30
0.0
 10
42.64982816729999
 20
22.97247861140004
 30
0.0
 10
42.59031138919996
 20
22.94004613910006
 30
0.0
  0
SPLINE
  5
8C1C4
330
1F
100
AcDbEntity
  8
1
100
AcDbSpline
210
0.0
220
0.0
230
1.0
 70
     8
 71
     3
 72
    27
 73
    23
 74
     0
 42
0.000000001
 43
0.0000000001
 40
0.0
 40
0.0
 40
0.0
 40
0.0
 40
0.0624419657
 40
0.093674529
 40
0.1248953037
 40
0.1872297339
 40
0.2495411531
 40
0.2807342945
 40
0.3119315355
 40
0.374274394
 40
0.4366668049000002
 40
0.499122208
 40
0.5616444963000001
 40
0.6242273738000002
 40
0.6868552964
 40
0.7182167821
 40
0.7495807361
 40
0.8122284447
 40
0.8748479784999998
 40
0.9061776528999999
 40
0.9374911327999999
 40
1.0
 40
1.0
 40
1.0
 40
1.0
 10
41.98728087930001
 20
26.0531937444
 30
0.0
 10
42.09766862410001
 20
26.15929297890005
 30
0.0
 10
42.27960421049997
 20
26.30267140730008
 30
0.0
 10
42.54573434789997
 20
26.45491962890004
 30
0.0
 10
42.8253604525
 20
26.58026417370003
 30
0.0
 10
43.19586683469995
 20
26.68425534150003
 30
0.0
 10
43.57953027559998
 20
26.71341947810003
 30
0.0
 10
43.8849422287
 20
26.69135455140003
 30
0.0
 10
44.18677187100001
 20
26.63934675469999
 30
0.0
 10
44.55243826879999
 20
26.51871284920002
 30
0.0
 10
44.95422069229997
 20
26.29083003120002
 30
0.0
 10
45.30412746469997
 20
25.98851662110003
 30
0.0
 10
45.58860256009999
 20
25.62338022960005
 30
0.0
 10
45.79676874899999
 20
25.20957907320003
 30
0.0
 10
45.9000284743
 20
24.83704507680001
 30
0.0
 10
45.93807455989995
 20
24.53161509850004
 30
0.0
 10
45.946222183
 20
24.22387587890006
 30
0.0
 10
45.8999845786
 20
23.83998291530003
 30
0.0
 10
45.78000984629997
 20
23.4724922967
 30
0.0
 10
45.64284186699999
 20
23.19717402610002
 30
0.0
 10
45.47968520479996
 20
22.93685161640001
 30
0.0
 10
45.3289998251
 20
22.76045106570006
 30
0.0
 10
45.21849380869997
 20
22.65423815440005
 30
0.0
  0
SPLINE
  5
8C1C5
330
1F
100
AcDbEntity
  8
1
100
AcDbSpline
210
0.0
220
0.0
230
1.0
 70
     8
 71
     3
 72
     9
 73
     5
 74
     0
 42
0.000000001
 43
0.0000000001
 40
0.0
 40
0.0
 40
0.0
 40
0.0
 40
0.4998093977000001
 40
1.0
 40
1.0
 40
1.0
 40
1.0
 10
42.43393694200003
 20
22.90018075520003
 30
0.0
 10
42.46103334009998
 20
22.90017821040004
 30
0.0
 10
42.51546132669997
 20
22.90698403460003
 30
0.0
 10
42.56650018860002
 20
22.92707070390004
 30
0.0
 10
42.59031138919996
 20
22.94004613910006
 30
0.0
  0
SPLINE
  5
8C1C6
330
1F
100
AcDbEntity
  8
1
100
AcDbSpline
210
0.0
220
0.0
230
1.0
 70
     8
 71
     3
 72
     8
 73
     4
 74
     0
 42
0.000000001
 43
0.0000000001
 40
0.0
 40
0.0
 40
0.0
 40
0.0
 40
1.0
 40
1.0
 40
1.0
 40
1.0
 10
42.33969321369997
 20
22.91397846890003
 30
0.0
 10
42.36130111790001
 20
22.92047229950004
 30
0.0
 10
42.38234817219995
 20
22.92924999710004
 30
0.0
 10
42.40216015529995
 20
22.94004613910006
 30
0.0
  0
SPLINE
  5
8C1C7
330
1F
100
AcDbEntity
  8
1
100
AcDbSpline
210
0.0
220
0.0
230
1.0
 70
     8
 71
     3
 72
     9
 73
     5
 74
     0
 42
0.000000001
 43
0.0000000001
 40
0.0
 40
0.0
 40
0.0
 40
0.0
 40
0.252240146
 40
1.0
 40
1.0
 40
1.0
 40
1.0
 10
50.79999999999998
 20
30.36718412700003
 30
0.0
 10
50.7995447544
 20
30.25949836270001
 30
0.0
 10
50.79692197019998
 20
29.83258464800002
 30
0.0
 10
50.79099475299997
 20
29.40569074640001
 30
0.0
 10
50.78464231519999
 20
29.08651924170005
 30
0.0
  0
SPLINE
  5
8C1C8
330
1F
100
AcDbEntity
  8
1
100
AcDbSpline
210
0.0
220
0.0
230
1.0
 70
     8
 71
     3
 72
    15
 73
    11
 74
     0
 42
0.000000001
 43
0.0000000001
 40
0.0
 40
0.0
 40
0.0
 40
0.0
 40
0.1258919615
 40
0.2515385479
 40
0.3767842579
 40
0.5015613384000001
 40
0.6260321518000001
 40
0.7504243424000001
 40
0.8749972695
 40
1.0
 40
1.0
 40
1.0
 40
1.0
 10
50.79999999999998
 20
30.36718412700003
 30
0.0
 10
50.8002124279
 20
30.41743275160002
 30
0.0
 10
50.79118041699999
 20
30.51813377630003
 30
0.0
 10
50.74956478459998
 20
30.66354211210005
 30
0.0
 10
50.68166636049998
 20
30.79824164330001
 30
0.0
 10
50.58996783069995
 20
30.91742053120003
 30
0.0
 10
50.47761381129996
 20
31.01686888060005
 30
0.0
 10
50.34842660019998
 20
31.09306496780006
 30
0.0
 10
50.20690336750002
 20
31.14322629910006
 30
0.0
 10
50.10765396419995
 20
31.15800663260003
 30
0.0
 10
50.05782772749999
 20
31.1606088524
 30
0.0
  0
SPLINE
  5
8C1C9
330
1F
100
AcDbEntity
  8
1
100
AcDbSpline
210
0.0
220
0.0
230
1.0
 70
     8
 71
     3
 72
     9
 73
     5
 74
     0
 42
0.000000001
 43
0.0000000001
 40
0.0
 40
0.0
 40
0.0
 40
0.0
 40
0.2501264543
 40
1.0
 40
1.0
 40
1.0
 40
1.0
 10
48.77531518269993
 20
31.22672268280002
 30
0.0
 10
48.88224895419997
 20
31.22128190900003
 30
0.0
 10
49.30976412539997
 20
31.19945778840004
 30
0.0
 10
49.737264846
 20
31.17735053559999
 30
0.0
 10
50.05782772749999
 20
31.1606088524
 30
0.0
  0
SPLINE
  5
8C1CA
330
1F
100
AcDbEntity
  8
1
100
AcDbSpline
210
0.0
220
0.0
230
1.0
 70
     8
 71
     3
 72
     9
 73
     5
 74
     0
 42
0.000000001
 43
0.0000000001
 40
0.0
 40
0.0
 40
0.0
 40
0.0
 40
0.2480570325
 40
1.0
 40
1.0
 40
1.0
 40
1.0
 10
42.27196340379996
 20
31.38941062510003
 30
0.0
 10
42.80530208409999
 20
31.37619276350005
 30
0.0
 10
44.95536830149998
 20
31.32296657070003
 30
0.0
 10
47.10542231329995
 20
31.26924832260004
 30
0.0
 10
48.72213742119996
 20
31.2287409384
 30
0.0
  0
SPLINE
  5
8C1CB
330
1F
100
AcDbEntity
  8
1
100
AcDbSpline
210
0.0
220
0.0
230
1.0
 70
     8
 71
     3
 72
    11
 73
     7
 74
     0
 42
0.000000001
 43
0.0000000001
 40
0.0
 40
0.0
 40
0.0
 40
0.0
 40
0.1243918769
 40
0.2489601206
 40
0.4986690237
 40
1.0
 40
1.0
 40
1.0
 40
1.0
 10
40.95138391909995
 20
31.20341046820005
 30
0.0
 10
40.86453886489997
 20
31.15702658660008
 30
0.0
 10
40.69059531129997
 20
31.06443728010005
 30
0.0
 10
40.34239536949999
 20
30.87858592780003
 30
0.0
 10
39.73111320629996
 20
30.55202894480004
 30
0.0
 10
39.20709143770004
 20
30.27137490300005
 30
0.0
 10
38.85740595719997
 20
30.08383397060003
 30
0.0
  0
LINE
  5
8C1CC
330
1F
100
AcDbEntity
  8
1
100
AcDbLine
 10
35.71545641250001
 20
28.39219282890002
 30
0.0
 11
35.27933239950002
 21
28.15644060300002
 31
0.0
  0
SPLINE
  5
8C1CD
330
1F
100
AcDbEntity
  8
1
100
AcDbSpline
210
0.0
220
0.0
230
1.0
 70
     8
 71
     3
 72
     9
 73
     5
 74
     0
 42
0.000000001
 43
0.0000000001
 40
0.0
 40
0.0
 40
0.0
 40
0.0
 40
0.2497989111
 40
1.0
 40
1.0
 40
1.0
 40
1.0
 10
35.2329224012
 20
28.13055877490002
 30
0.0
 10
35.14019649570001
 20
28.07724293780001
 30
0.0
 10
34.76934774369997
 20
27.86319384150004
 30
0.0
 10
34.39989072379999
 20
27.64673309220003
 30
0.0
 10
34.12354275570002
 20
27.48296801030007
 30
0.0
  0
SPLINE
  5
8C1CE
330
1F
100
AcDbEntity
  8
1
100
AcDbSpline
210
0.0
220
0.0
230
1.0
 70
     8
 71
     3
 72
     9
 73
     5
 74
     0
 42
0.000000001
 43
0.0000000001
 40
0.0
 40
0.0
 40
0.0
 40
0.0
 40
0.5004239240999999
 40
1.0
 40
1.0
 40
1.0
 40
1.0
 10
34.12354275570002
 20
27.48296801030007
 30
0.0
 10
34.08285554369999
 20
27.45885658050003
 30
0.0
 10
34.0057722343
 20
27.40315976580002
 30
0.0
 10
33.94007122180003
 20
27.33441015269999
 30
0.0
 10
33.91066451739997
 20
27.29747124440002
 30
0.0
  0
SPLINE
  5
8C1CF
330
1F
100
AcDbEntity
  8
1
100
AcDbSpline
210
0.0
220
0.0
230
1.0
 70
     8
 71
     3
 72
     9
 73
     5
 74
     0
 42
0.000000001
 43
0.0000000001
 40
0.0
 40
0.0
 40
0.0
 40
0.0
 40
0.2514473596
 40
1.0
 40
1.0
 40
1.0
 40
1.0
 10
33.87646332759997
 20
26.33901958570004
 30
0.0
 10
33.92057644299999
 20
26.25435599670004
 30
0.0
 10
34.09651764739996
 20
25.9179140645
 30
0.0
 10
34.27448898499998
 20
25.58253357950003
 30
0.0
 10
34.40887030460002
 20
25.33210903890007
 30
0.0
  0
SPLINE
  5
8C1D0
330
1F
100
AcDbEntity
  8
1
100
AcDbSpline
210
0.0
220
0.0
230
1.0
 70
     8
 71
     3
 72
    15
 73
    11
 74
     0
 42
0.000000001
 43
0.0000000001
 40
0.0
 40
0.0
 40
0.0
 40
0.0
 40
0.0306327481
 40
0.0613004474
 40
0.1227969331
 40
0.2463582717
 40
0.3706001372
 40
0.4954585453
 40
0.7467969293000003
 40
1.0
 40
1.0
 40
1.0
 40
1.0
 10
50.2891782911
 20
21.97225884750004
 30
0.0
 10
50.26019942279996
 20
21.92137204890002
 30
0.0
 10
50.20248720469997
 20
21.81938203620002
 30
0.0
 10
50.08651938319999
 20
21.61527974890003
 30
0.0
 10
49.88265660009997
 20
21.25679603640003
 30
0.0
 10
49.58965352649997
 20
20.74321981000004
 30
0.0
 10
49.23570957489997
 20
20.12495881710003
 30
0.0
 10
48.75919966729997
 20
19.29540249239998
 30
0.0
 10
48.15780766349999
 20
18.25327310140005
 30
0.0
 10
47.67371727099996
 20
17.41903609550001
 30
0.0
 10
47.43033460379999
 20
17.00063386700002
 30
0.0
  0
SPLINE
  5
8C1D1
330
1F
100
AcDbEntity
  8
1
100
AcDbSpline
210
0.0
220
0.0
230
1.0
 70
     8
 71
     3
 72
    10
 73
     6
 74
     0
 42
0.000000001
 43
0.0000000001
 40
0.0
 40
0.0
 40
0.0
 40
0.0
 40
0.2504975257
 40
0.5018049672
 40
1.0
 40
1.0
 40
1.0
 40
1.0
 10
41.68144874059996
 20
31.38989662410005
 30
0.0
 10
41.61799124029997
 20
31.38989582410005
 30
0.0
 10
41.49068940750001
 20
31.38170344850006
 30
0.0
 10
41.2415786534
 20
31.33327079690003
 30
0.0
 10
41.06270644999995
 20
31.2628677527
 30
0.0
 10
40.95138391909995
 20
31.20341046820005
 30
0.0
  0
SPLINE
  5
8C1D2
330
1F
100
AcDbEntity
  8
1
100
AcDbSpline
210
0.0
220
0.0
230
1.0
 70
     8
 71
     3
 72
    19
 73
    15
 74
     0
 42
0.000000001
 43
0.0000000001
 40
0.0
 40
0.0
 40
0.0
 40
0.0
 40
0.1285372826
 40
0.1921878525
 40
0.2551297454
 40
0.2862657227
 40
0.3171667421
 40
0.3788807738
 40
0.4406732382
 40
0.5025396294
 40
0.6264895617000003
 40
0.7507216692
 40
0.8752278392
 40
1.0
 40
1.0
 40
1.0
 40
1.0
 10
50.49851402790003
 20
22.72564251960005
 30
0.0
 10
50.50413053529997
 20
22.99616025820006
 30
0.0
 10
50.5150239965
 20
23.40059049830001
 30
0.0
 10
50.5345566421
 20
23.93729578080002
 30
0.0
 10
50.54877636519993
 20
24.26901837450003
 30
0.0
 10
50.56131942160003
 20
24.53180520690005
 30
0.0
 10
50.57472355860003
 20
24.79196115800004
 30
0.0
 10
50.59145900669997
 20
25.11656381350003
 30
0.0
 10
50.61130306029998
 20
25.50627619790005
 30
0.0
 10
50.63759099960001
 20
26.02683910140001
 30
0.0
 10
50.67004797730001
 20
26.67869581660005
 30
0.0
 10
50.70834786729998
 20
27.46228382240003
 30
0.0
 10
50.74601257469996
 20
28.24763543280005
 30
0.0
 10
50.77067700629996
 20
28.77179624109999
 30
0.0
 10
50.78290005180001
 20
29.03416198100002
 30
0.0
  0
SPLINE
  5
8C1D3
330
1F
100
AcDbEntity
  8
1
100
AcDbSpline
210
0.0
220
0.0
230
1.0
 70
     8
 71
     3
 72
     8
 73
     4
 74
     0
 42
0.000000001
 43
0.0000000001
 40
0.0
 40
0.0
 40
0.0
 40
0.0
 40
1.0
 40
1.0
 40
1.0
 40
1.0
 10
50.78464231519999
 20
29.08651924170005
 30
0.0
 10
50.78429483799997
 20
29.06906061900004
 30
0.0
 10
50.78371269049998
 20
29.05160514200004
 30
0.0
 10
50.78290005180001
 20
29.03416198100002
 30
0.0
  0
SPLINE
  5
8C1D4
330
1F
100
AcDbEntity
  8
1
100
AcDbSpline
210
0.0
220
0.0
230
1.0
 70
     8
 71
     3
 72
     8
 73
     4
 74
     0
 42
0.000000001
 43
0.0000000001
 40
0.0
 40
0.0
 40
0.0
 40
0.0
 40
1.0
 40
1.0
 40
1.0
 40
1.0
 10
48.77531518269993
 20
31.22672268280002
 30
0.0
 10
48.75759941639998
 20
31.22762405830002
 30
0.0
 10
48.73987053829998
 20
31.22829662870004
 30
0.0
 10
48.72213742119996
 20
31.2287409384
 30
0.0
  0
SPLINE
  5
8C1D5
330
1F
100
AcDbEntity
  8
1
100
AcDbSpline
210
0.0
220
0.0
230
1.0
 70
     8
 71
     3
 72
     8
 73
     4
 74
     0
 42
0.000000001
 43
0.0000000001
 40
0.0
 40
0.0
 40
0.0
 40
0.0
 40
1.0
 40
1.0
 40
1.0
 40
1.0
 10
35.27933239950002
 20
28.15644060300002
 30
0.0
 10
35.2637516673
 20
28.14801495420005
 30
0.0
 10
35.24827803399998
 20
28.13938800570003
 30
0.0
 10
35.2329224012
 20
28.13055877490002
 30
0.0
  0
SPLINE
  5
8C1D6
330
1F
100
AcDbEntity
  8
1
100
AcDbSpline
210
0.0
220
0.0
230
1.0
 70
     8
 71
     3
 72
    10
 73
     6
 74
     0
 42
0.000000001
 43
0.0000000001
 40
0.0
 40
0.0
 40
0.0
 40
0.0
 40
0.4914169275
 40
0.7454080226000001
 40
1.0
 40
1.0
 40
1.0
 40
1.0
 10
50.2891782911
 20
21.97225884750004
 30
0.0
 10
50.35310965419999
 20
22.08452211330002
 30
0.0
 10
50.42907795859999
 20
22.26784717589998
 30
0.0
 10
50.48563425410001
 20
22.52501699750001
 30
0.0
 10
50.49712470519995
 20
22.65872611949998
 30
0.0
 10
50.49851402790003
 20
22.72564251960005
 30
0.0
  0
SPLINE
  5
8C1D7
330
1F
100
AcDbEntity
  8
1
100
AcDbSpline
210
0.0
220
0.0
230
1.0
 70
     8
 71
     3
 72
    15
 73
    11
 74
     0
 42
0.000000001
 43
0.0000000001
 40
0.0
 40
0.0
 40
0.0
 40
0.0
 40
0.1307047057
 40
0.2579435328
 40
0.3197329331
 40
0.381079684
 40
0.5040863557000002
 40
0.6274905222000001
 40
0.751282948
 40
1.0
 40
1.0
 40
1.0
 40
1.0
 10
41.50394560139995
 20
31.20341046820005
 30
0.0
 10
41.26996559669996
 20
31.07348551910002
 30
0.0
 10
40.80899338059995
 20
30.81566829260005
 30
0.0
 10
40.23952533159999
 20
30.49266503969999
 30
0.0
 10
39.79505206489998
 20
30.23717464629998
 30
0.0
 10
39.35828856079999
 20
29.98566230590002
 30
0.0
 10
38.8119868264
 20
29.67155047620003
 30
0.0
 10
38.15469787059996
 20
29.29394690970003
 30
0.0
 10
37.27395949910003
 20
28.78856058290003
 30
0.0
 10
36.61212305939998
 20
28.40939376260003
 30
0.0
 10
36.17010875529999
 20
28.15644060300002
 30
0.0
  0
SPLINE
  5
8C1D8
330
1F
100
AcDbEntity
  8
1
100
AcDbSpline
210
0.0
220
0.0
230
1.0
 70
     8
 71
     3
 72
     9
 73
     5
 74
     0
 42
0.000000001
 43
0.0000000001
 40
0.0
 40
0.0
 40
0.0
 40
0.0
 40
0.2535425232
 40
1.0
 40
1.0
 40
1.0
 40
1.0
 10
35.05109340800002
 20
27.48296801030007
 30
0.0
 10
35.14218059969997
 20
27.53732932310003
 30
0.0
 10
35.50122550109998
 20
27.75209328840003
 30
0.0
 10
35.8594046918
 20
27.9683050379
 30
0.0
 10
36.12624543280001
 20
28.13055877490002
 30
0.0
  0
SPLINE
  5
8C1D9
330
1F
100
AcDbEntity
  8
1
100
AcDbSpline
210
0.0
220
0.0
230
1.0
 70
     8
 71
     3
 72
    15
 73
    11
 74
     0
 42
0.000000001
 43
0.0000000001
 40
0.0
 40
0.0
 40
0.0
 40
0.0
 40
0.1239256944
 40
0.2482180337
 40
0.3727429649
 40
0.4974880846
 40
0.622577459
 40
0.7480652020000002
 40
0.8739178931999999
 40
1.0
 40
1.0
 40
1.0
 40
1.0
 10
35.05109340800002
 20
27.48296801030007
 30
0.0
 10
35.00842664950003
 20
27.45750426550007
 30
0.0
 10
34.92765711389998
 20
27.39814452670005
 30
0.0
 10
34.82556388559996
 20
27.28782501100005
 30
0.0
 10
34.7459773743
 20
27.15985729520003
 30
0.0
 10
34.69189788009996
 20
27.01887910630001
 30
0.0
 10
34.6651092013
 20
26.86990007249999
 30
0.0
 10
34.66652283759996
 20
26.7180891375
 30
0.0
 10
34.6960662393
 20
26.56882702210003
 30
0.0
 10
34.7338896533
 20
26.47442214940003
 30
0.0
 10
34.75696166660001
 20
26.42944210210004
 30
0.0
  0
SPLINE
  5
8C1DA
330
1F
100
AcDbEntity
  8
1
100
AcDbSpline
210
0.0
220
0.0
230
1.0
 70
     8
 71
     3
 72
     9
 73
     5
 74
     0
 42
0.000000001
 43
0.0000000001
 40
0.0
 40
0.0
 40
0.0
 40
0.0
 40
0.2466073395
 40
1.0
 40
1.0
 40
1.0
 40
1.0
 10
35.32547388969997
 20
25.28875198240001
 30
0.0
 10
35.2798627737
 20
25.38307186710005
 30
0.0
 10
35.09373114410002
 20
25.76497158680001
 30
0.0
 10
34.90304317230002
 20
26.1446488784
 30
0.0
 10
34.75696166660001
 20
26.42944210210004
 30
0.0
  0
SPLINE
  5
8C1DB
330
1F
100
AcDbEntity
  8
1
100
AcDbSpline
210
0.0
220
0.0
230
1.0
 70
     8
 71
     3
 72
     9
 73
     5
 74
     0
 42
0.000000001
 43
0.0000000001
 40
0.0
 40
0.0
 40
0.0
 40
0.0
 40
0.2486085965
 40
1.0
 40
1.0
 40
1.0
 40
1.0
 10
36.73169641339999
 20
22.54516435420003
 30
0.0
 10
36.61765975149999
 20
22.76898200700003
 30
0.0
 10
36.15833967469999
 20
23.66894707750004
 30
0.0
 10
35.6966059442
 20
24.56767933270004
 30
0.0
 10
35.34860712869997
 20
25.24243286530003
 30
0.0
  0
SPLINE
  5
8C1DC
330
1F
100
AcDbEntity
  8
1
100
AcDbSpline
210
0.0
220
0.0
230
1.0
 70
     8
 71
     3
 72
     9
 73
     5
 74
     0
 42
0.000000001
 43
0.0000000001
 40
0.0
 40
0.0
 40
0.0
 40
0.0
 40
0.4994142916
 40
1.0
 40
1.0
 40
1.0
 40
1.0
 10
42.23274360599996
 20
31.38989676010004
 30
0.0
 10
42.10648638730001
 20
31.38989597040004
 30
0.0
 10
41.8525447753
 20
31.35941279950003
 30
0.0
 10
41.61458598009994
 20
31.26484710930004
 30
0.0
 10
41.50394560139995
 20
31.20341046820005
 30
0.0
  0
SPLINE
  5
8C1DD
330
1F
100
AcDbEntity
  8
1
100
AcDbSpline
210
0.0
220
0.0
230
1.0
 70
     8
 71
     3
 72
     8
 73
     4
 74
     0
 42
0.000000001
 43
0.0000000001
 40
0.0
 40
0.0
 40
0.0
 40
0.0
 40
1.0
 40
1.0
 40
1.0
 40
1.0
 10
35.32547388969997
 20
25.28875198240001
 30
0.0
 10
35.33298720889999
 20
25.2732150813
 30
0.0
 10
35.34069646689997
 20
25.2577712711
 30
0.0
 10
35.34860712869997
 20
25.24243286530003
 30
0.0
  0
SPLINE
  5
8C1DE
330
1F
100
AcDbEntity
  8
1
100
AcDbSpline
210
0.0
220
0.0
230
1.0
 70
     8
 71
     3
 72
     8
 73
     4
 74
     0
 42
0.000000001
 43
0.0000000001
 40
0.0
 40
0.0
 40
0.0
 40
0.0
 40
1.0
 40
1.0
 40
1.0
 40
1.0
 10
36.12624543280001
 20
28.13055877490002
 30
0.0
 10
36.14075099189998
 20
28.13937894670004
 30
0.0
 10
36.15537426169996
 20
28.14800843990003
 30
0.0
 10
36.17010875529999
 20
28.15644060300002
 30
0.0
  0
SPLINE
  5
8C1DF
330
1F
100
AcDbEntity
  8
1
100
AcDbSpline
210
0.0
220
0.0
230
1.0
 70
     8
 71
     3
 72
    24
 73
    20
 74
     0
 42
0.000000001
 43
0.0000000001
 40
0.0
 40
0.0
 40
0.0
 40
0.0
 40
0.0086771329
 40
0.0187424278
 40
0.0304552753
 40
0.0440046565
 40
0.0595244377
 40
0.0771046048
 40
0.0967973313
 40
0.1186204855
 40
0.1685651279
 40
0.226481915
 40
0.2915037807
 40
0.3624769294
 40
0.4380965497
 40
0.5170343864
 40
0.6799679674
 40
0.8429415009000001
 40
1.0
 40
1.0
 40
1.0
 40
1.0
 10
49.01247088229999
 20
15.24891464390004
 30
0.0
 10
49.01247088229999
 20
15.27105012880002
 30
0.0
 10
49.00703438069999
 20
15.31890279840002
 30
0.0
 10
48.98549595839997
 20
15.39379988820001
 30
0.0
 10
48.94971400759996
 20
15.47672432839999
 30
0.0
 10
48.89923905739997
 20
15.56783935660002
 30
0.0
 10
48.8336693016
 20
15.66726085330003
 30
0.0
 10
48.75269665129994
 20
15.77495965170004
 30
0.0
 10
48.65614716860004
 20
15.89080849160007
 30
0.0
 10
48.49940371219997
 20
16.06370578550001
 30
0.0
 10
48.26415615149997
 20
16.29663595370004
 30
0.0
 10
47.93547752629999
 20
16.59088907960005
 30
0.0
 10
47.55412137869998
 20
16.9061264517
 30
0.0
 10
47.12721587119998
 20
17.23665588140004
 30
0.0
 10
46.66296349569992
 20
17.57657759740004
 30
0.0
 10
45.99846469950002
 20
18.0397308588
 30
0.0
 10
45.13300827660001
 20
18.60379532350004
 30
0.0
 10
44.07786213069994
 20
19.24028612519998
 30
0.0
 10
43.36530784479998
 20
19.63911667210004
 30
0.0
 10
43.01247088229999
 20
19.82894084830001
 30
0.0
  0
SPLINE
  5
8C1E0
330
1F
100
AcDbEntity
  8
1
100
AcDbSpline
210
0.0
220
0.0
230
1.0
 70
     8
 71
     3
 72
     9
 73
     5
 74
     0
 42
0.000000001
 43
0.0000000001
 40
0.0
 40
0.0
 40
0.0
 40
0.0
 40
0.2384059024
 40
1.0
 40
1.0
 40
1.0
 40
1.0
 10
34.69856408590002
 20
28.42615021
 30
0.0
 10
34.73217171739995
 20
28.43090295480005
 30
0.0
 10
34.87351112019999
 20
28.44807689820004
 30
0.0
 10
35.01631245969996
 20
28.45359690510004
 30
0.0
 10
35.12470219899999
 20
28.45068913010005
 30
0.0
  0
SPLINE
  5
8C1E1
330
1F
100
AcDbEntity
  8
1
100
AcDbSpline
210
0.0
220
0.0
230
1.0
 70
     8
 71
     3
 72
    29
 73
    25
 74
     0
 42
0.000000001
 43
0.0000000001
 40
0.0
 40
0.0
 40
0.0
 40
0.0
 40
0.2190357113
 40
0.4160414825000001
 40
0.5053830091
 40
0.5881707115000001
 40
0.664095459
 40
0.7328702997
 40
0.7942323977
 40
0.8479445401000001
 40
0.8937971774999999
 40
0.9137188399999999
 40
0.9316102014
 40
0.9474540839999999
 40
0.9612340804999998
 40
0.9729371005
 40
0.9825514251000001
 40
0.9900675679999999
 40
0.9930368801
 40
0.9954794631
 40
0.9973948992
 40
0.9987836199
 40
0.9996477604
 40
1.0
 40
1.0
 40
1.0
 40
1.0
 10
36.9539998274
 20
30.81623003990003
 30
0.0
 10
36.86781992410003
 20
30.8194875483
 30
0.0
 10
36.70415397259996
 20
30.82639146010001
 30
0.0
 10
36.50542136790003
 20
30.83646865650003
 30
0.0
 10
36.36031473079996
 20
30.84471396420003
 30
0.0
 10
36.26282660870001
 20
30.85062415470004
 30
0.0
 10
36.17344181709999
 20
30.85637028530005
 30
0.0
 10
36.09249452739997
 20
30.86186132680002
 30
0.0
 10
36.02029044079998
 20
30.86701078970004
 30
0.0
 10
35.95710482439998
 20
30.87173855999998
 30
0.0
 10
35.91020321129994
 20
30.87541914590004
 30
0.0
 10
35.87737078090001
 20
30.87810258699999
 30
0.0
 10
35.85631854020002
 20
30.87987195770001
 30
0.0
 10
35.8376800961
 20
30.88148791790001
 30
0.0
 10
35.8214737868
 20
30.88294423800004
 30
0.0
 10
35.80771472540003
 20
30.88423493380002
 30
0.0
 10
35.79641878969997
 20
30.88535641890001
 30
0.0
 10
35.78854644829997
 20
30.88619589580004
 30
0.0
 10
35.78349572669996
 20
30.88679278440003
 30
0.0
 10
35.78062402459997
 20
30.8871535975
 30
0.0
 10
35.77840940140001
 20
30.88748303650004
 30
0.0
 10
35.77673098079996
 20
30.88772769140001
 30
0.0
 10
35.77583755020001
 20
30.88798964870007
 30
0.0
 10
35.7752530595
 20
30.88808837330003
 30
0.0
 10
35.77520746249999
 20
30.88821935150003
 30
0.0
  0
SPLINE
  5
8C1E2
330
1F
100
AcDbEntity
  8
1
100
AcDbSpline
210
0.0
220
0.0
230
1.0
 70
     8
 71
     3
 72
    15
 73
    11
 74
     0
 42
0.000000001
 43
0.0000000001
 40
0.0
 40
0.0
 40
0.0
 40
0.0
 40
0.0652531968
 40
0.1458757668
 40
0.2438547858
 40
0.3601128314
 40
0.4947263860000001
 40
0.6470864518
 40
0.8160338632999998
 40
1.0
 40
1.0
 40
1.0
 40
1.0
 10
38.52198135410001
 20
30.55215949680001
 30
0.0
 10
38.4940706157
 20
30.57313027200001
 30
0.0
 10
38.42581184250001
 20
30.61216936780005
 30
0.0
 10
38.30367107110001
 20
30.6587830244
 30
0.0
 10
38.15099293939997
 20
30.69933579750001
 30
0.0
 10
37.96746938200002
 20
30.73388093750003
 30
0.0
 10
37.75358697520002
 20
30.76262666470003
 30
0.0
 10
37.51072921200003
 20
30.78583856680002
 30
0.0
 10
37.24098150280001
 20
30.80391072810006
 30
0.0
 10
37.0523531918
 20
30.81251244400004
 30
0.0
 10
36.9539998274
 20
30.81623003990003
 30
0.0
  0
LINE
  5
8C1E3
330
1F
100
AcDbEntity
  8
1
100
AcDbLine
 10
38.65716425219998
 20
30.4500042592
 30
0.0
 11
38.52198135410001
 21
30.55215949680001
 31
0.0
  0
SPLINE
  5
8C1E4
330
1F
100
AcDbEntity
  8
1
100
AcDbSpline
210
0.0
220
0.0
230
1.0
 70
     8
 71
     3
 72
     9
 73
     5
 74
     0
 42
0.000000001
 43
0.0000000001
 40
0.0
 40
0.0
 40
0.0
 40
0.0
 40
0.2463495794
 40
1.0
 40
1.0
 40
1.0
 40
1.0
 10
39.27382338409998
 20
21.70967546420003
 30
0.0
 10
39.0144332687
 20
21.8148288415
 30
0.0
 10
37.95260409169995
 20
22.21934517990002
 30
0.0
 10
36.8559195901
 20
22.53281142490004
 30
0.0
 10
36.01887467589998
 20
22.71324338280004
 30
0.0
  0
SPLINE
  5
8C1E5
330
1F
100
AcDbEntity
  8
1
100
AcDbSpline
210
0.0
220
0.0
230
1.0
 70
     8
 71
     3
 72
     9
 73
     5
 74
     0
 42
0.000000001
 43
0.0000000001
 40
0.0
 40
0.0
 40
0.0
 40
0.0
 40
0.2491900146
 40
1.0
 40
1.0
 40
1.0
 40
1.0
 10
28.78592660029998
 20
24.20317058000001
 30
0.0
 10
28.8716568271
 20
24.18849140940006
 30
0.0
 10
29.21567707770001
 20
24.12949447140004
 30
0.0
 10
29.55963727539998
 20
24.07014743490004
 30
0.0
 10
29.81785408660002
 20
24.02540513570006
 30
0.0
  0
SPLINE
  5
8C1E6
330
1F
100
AcDbEntity
  8
1
100
AcDbSpline
210
0.0
220
0.0
230
1.0
 70
     8
 71
     3
 72
    11
 73
     7
 74
     0
 42
0.000000001
 43
0.0000000001
 40
0.0
 40
0.0
 40
0.0
 40
0.0
 40
0.2780467187
 40
0.537895845
 40
0.7786178762000004
 40
1.0
 40
1.0
 40
1.0
 40
1.0
 10
20.86642977110003
 20
23.03530710530004
 30
0.0
 10
20.74290373459999
 20
23.06054312240001
 30
0.0
 10
20.50580268910002
 20
23.11936907940002
 30
0.0
 10
20.17228089309995
 20
23.23702198890003
 30
0.0
 10
19.87663999110001
 20
23.37920010050003
 30
0.0
 10
19.70016208109999
 20
23.49366193400005
 30
0.0
 10
19.62047811070002
 20
23.55471367220002
 30
0.0
  0
SPLINE
  5
8C1E7
330
1F
100
AcDbEntity
  8
1
100
AcDbSpline
210
0.0
220
0.0
230
1.0
 70
     8
 71
     3
 72
     9
 73
     5
 74
     0
 42
0.000000001
 43
0.0000000001
 40
0.0
 40
0.0
 40
0.0
 40
0.0
 40
0.5150993375000003
 40
1.0
 40
1.0
 40
1.0
 40
1.0
 10
21.91864321270001
 20
22.93233799050005
 30
0.0
 10
21.73689804
 20
22.93309853050006
 30
0.0
 10
21.38390929989995
 20
22.9499436638
 30
0.0
 10
21.03405885070001
 20
23.00106096210003
 30
0.0
 10
20.86642977110003
 20
23.03530710530004
 30
0.0
  0
SPLINE
  5
8C1E8
330
1F
100
AcDbEntity
  8
1
100
AcDbSpline
210
0.0
220
0.0
230
1.0
 70
     8
 71
     3
 72
    13
 73
     9
 74
     0
 42
0.000000001
 43
0.0000000001
 40
0.0
 40
0.0
 40
0.0
 40
0.0
 40
0.2566907718
 40
0.5110194035
 40
0.6363669626
 40
0.7599759489000001
 40
0.8813863954
 40
1.0
 40
1.0
 40
1.0
 40
1.0
 10
28.78592660029998
 20
24.20317058000001
 30
0.0
 10
28.22314210639999
 20
23.99373469620002
 30
0.0
 10
27.08267750190001
 20
23.62921702240003
 30
0.0
 10
25.6295468452
 20
23.29767067340004
 30
0.0
 10
24.46713731729995
 20
23.10871179800005
 30
0.0
 10
23.60645805930003
 20
23.00660828540003
 30
0.0
 10
22.75776725529997
 20
22.94462086010002
 30
0.0
 10
22.19612030319999
 20
22.9311740827
 30
0.0
 10
21.91864321270001
 20
22.93233799050005
 30
0.0
  0
SPLINE
  5
8C1E9
330
1F
100
AcDbEntity
  8
1
100
AcDbSpline
210
0.0
220
0.0
230
1.0
 70
     8
 71
     3
 72
     9
 73
     5
 74
     0
 42
0.000000001
 43
0.0000000001
 40
0.0
 40
0.0
 40
0.0
 40
0.0
 40
0.2561207138
 40
1.0
 40
1.0
 40
1.0
 40
1.0
 10
19.62047811070002
 20
23.55471367220002
 30
0.0
 10
19.60523912799996
 20
23.56638937530005
 30
0.0
 10
19.54643916770001
 20
23.61287686300006
 30
0.0
 10
19.49051652779997
 20
23.66304019620004
 30
0.0
 10
19.45105351160001
 20
23.7024304994
 30
0.0
  0
SPLINE
  5
8C1EA
330
1F
100
AcDbEntity
  8
1
100
AcDbSpline
210
0.0
220
0.0
230
1.0
 70
     8
 71
     3
 72
     8
 73
     4
 74
     0
 42
0.000000001
 43
0.0000000001
 40
0.0
 40
0.0
 40
0.0
 40
0.0
 40
1.0
 40
1.0
 40
1.0
 40
1.0
 10
35.15590856729998
 20
28.66807296339999
 30
0.0
 10
35.13794770140002
 20
28.66145576420001
 30
0.0
 10
35.12009498619998
 20
28.6545373697
 30
0.0
 10
35.10236464559998
 20
28.64732522380001
 30
0.0
  0
SPLINE
  5
8C1EB
330
1F
100
AcDbEntity
  8
1
100
AcDbSpline
210
0.0
220
0.0
230
1.0
 70
     8
 71
     3
 72
     9
 73
     5
 74
     0
 42
0.000000001
 43
0.0000000001
 40
0.0
 40
0.0
 40
0.0
 40
0.0
 40
0.2620727887
 40
1.0
 40
1.0
 40
1.0
 40
1.0
 10
30.54195400259997
 20
23.88545158120003
 30
0.0
 10
30.4789314576
 20
23.8988375811
 30
0.0
 10
30.23821843919999
 20
23.94879576430001
 30
0.0
 10
29.99660393129997
 20
23.99443240770001
 30
0.0
 10
29.81785408660002
 20
24.02540513570006
 30
0.0
  0
LINE
  5
8C1EC
330
1F
100
AcDbEntity
  8
1
100
AcDbLine
 10
35.77788497379997
 20
30.88852118450001
 30
0.0
 11
35.79379501879996
 21
30.88816228050001
 31
0.0
  0
SPLINE
  5
8C1ED
330
1F
100
AcDbEntity
  8
1
100
AcDbSpline
210
0.0
220
0.0
230
1.0
 70
     8
 71
     3
 72
    13
 73
     9
 74
     0
 42
0.000000001
 43
0.0000000001
 40
0.0
 40
0.0
 40
0.0
 40
0.0
 40
0.04235033
 40
0.1106657364
 40
0.2041106585
 40
0.3215543648
 40
0.6226119899000003
 40
1.0
 40
1.0
 40
1.0
 40
1.0
 10
35.79379501879996
 20
30.88816228050001
 30
0.0
 10
35.81018655979998
 20
30.88754554860003
 30
0.0
 10
35.85299422209997
 20
30.88532488650002
 30
0.0
 10
35.9319292608
 20
30.880971729
 30
0.0
 10
36.03990021489997
 20
30.87489353870001
 30
0.0
 10
36.23789315489998
 20
30.86409855570003
 30
0.0
 10
36.54578716169996
 20
30.84892440150002
 30
0.0
 10
36.808376643
 20
30.83881522230001
 30
0.0
 10
36.95447104770003
 20
30.83411459940003
 30
0.0
  0
SPLINE
  5
8C1EE
330
1F
100
AcDbEntity
  8
1
100
AcDbSpline
210
0.0
220
0.0
230
1.0
 70
     8
 71
     3
 72
     9
 73
     5
 74
     0
 42
0.000000001
 43
0.0000000001
 40
0.0
 40
0.0
 40
0.0
 40
0.0
 40
0.4787840993
 40
1.0
 40
1.0
 40
1.0
 40
1.0
 10
36.95447104770003
 20
30.83411459940003
 30
0.0
 10
37.32449221899995
 20
30.82220907830004
 30
0.0
 10
38.09777933199999
 20
30.80979691290004
 30
0.0
 10
38.87107520200002
 20
30.82434449179999
 30
0.0
 10
39.27382338409998
 20
30.83920937440002
 30
0.0
  0
LINE
  5
8C1EF
330
1F
100
AcDbEntity
  8
1
100
AcDbLine
 10
39.27382338409998
 20
30.83920937440002
 30
0.0
 11
39.32618060339999
 21
30.84073838200004
 31
0.0
  0
LINE
  5
8C1F0
330
1F
100
AcDbEntity
  8
1
100
AcDbLine
 10
39.32618060339999
 20
21.68827238890003
 30
0.0
 11
39.27382338409998
 21
21.70967546420003
 31
0.0
  0
SPLINE
  5
8C1F1
330
1F
100
AcDbEntity
  8
1
100
AcDbSpline
210
0.0
220
0.0
230
1.0
 70
     8
 71
     3
 72
     9
 73
     5
 74
     0
 42
0.000000001
 43
0.0000000001
 40
0.0
 40
0.0
 40
0.0
 40
0.0
 40
0.2604227302
 40
1.0
 40
1.0
 40
1.0
 40
1.0
 10
39.32618060339999
 20
30.84073838200004
 30
0.0
 10
39.39187371429998
 20
30.84215072280006
 30
0.0
 10
39.64411302290004
 20
30.84831595410002
 30
0.0
 10
39.89628180769998
 20
30.85732447800007
 30
0.0
 10
40.0827078912
 20
30.86550935310004
 30
0.0
  0
LINE
  5
8C1F2
330
1F
100
AcDbEntity
  8
1
100
AcDbLine
 10
40.0827078912
 20
30.86550935310004
 30
0.0
 11
40.23756068469995
 21
30.87233961809999
 31
0.0
  0
LINE
  5
8C1F3
330
1F
100
AcDbEntity
  8
1
100
AcDbLine
 10
40.23756068469995
 20
30.87233961809999
 30
0.0
 11
40.33010507689996
 21
30.87198938839998
 31
0.0
  0
SPLINE
  5
8C1F4
330
1F
100
AcDbEntity
  8
1
100
AcDbSpline
210
0.0
220
0.0
230
1.0
 70
     8
 71
     3
 72
     9
 73
     5
 74
     0
 42
0.000000001
 43
0.0000000001
 40
0.0
 40
0.0
 40
0.0
 40
0.0
 40
0.2483149773
 40
1.0
 40
1.0
 40
1.0
 40
1.0
 10
41.0412020789
 20
20.88237055870003
 30
0.0
 10
40.90262586290001
 20
20.95591228280007
 30
0.0
 10
40.34097639269996
 20
21.24527555880002
 30
0.0
 10
39.7652447884
 20
21.50728947050003
 30
0.0
 10
39.32618060339999
 20
21.68827238890003
 30
0.0
  0
SPLINE
  5
8C1F5
330
1F
100
AcDbEntity
  8
1
100
AcDbSpline
210
0.0
220
0.0
230
1.0
 70
     8
 71
     3
 72
    21
 73
    17
 74
     0
 42
0.000000001
 43
0.0000000001
 40
0.0
 40
0.0
 40
0.0
 40
0.0
 40
0.0617238229
 40
0.1235171247
 40
0.1854300719
 40
0.2475004437
 40
0.3097537681
 40
0.3721992743
 40
0.4348307701
 40
0.4976280969
 40
0.6232617572
 40
0.7490327361000002
 40
0.8119933320999999
 40
0.874831874
 40
0.9375096181999998
 40
1.0
 40
1.0
 40
1.0
 40
1.0
 10
34.93765392499998
 20
24.95160808000004
 30
0.0
 10
34.85189218509996
 20
24.99335418650002
 30
0.0
 10
34.68630510360001
 20
25.0899729715
 30
0.0
 10
34.46216068610002
 20
25.27009205510001
 30
0.0
 10
34.26661615340001
 20
25.48171643690006
 30
0.0
 10
34.10366029759999
 20
25.72015892530004
 30
0.0
 10
33.9764798171
 20
25.98036588590004
 30
0.0
 10
33.88765692619998
 20
26.25691315710002
 30
0.0
 10
33.83879759430002
 20
26.54412578450001
 30
0.0
 10
33.82826864109998
 20
26.93303645740002
 30
0.0
 10
33.9182690817
 20
27.41713337170001
 30
0.0
 10
34.13973762200001
 20
27.85729235760005
 30
0.0
 10
34.38457315159999
 20
28.16068767550002
 30
0.0
 10
34.59870708209999
 20
28.35966959109999
 30
0.0
 10
34.8385942802
 20
28.52526961580004
 30
0.0
 10
35.01283763550001
 20
28.61112984089999
 30
0.0
 10
35.10236464559998
 20
28.64732522380001
 30
0.0
  0
SPLINE
  5
8C1F6
330
1F
100
AcDbEntity
  8
1
100
AcDbSpline
210
0.0
220
0.0
230
1.0
 70
     8
 71
     3
 72
     9
 73
     5
 74
     0
 42
0.000000001
 43
0.0000000001
 40
0.0
 40
0.0
 40
0.0
 40
0.0
 40
0.2558775144
 40
1.0
 40
1.0
 40
1.0
 40
1.0
 10
35.12470219899999
 20
28.45068913010005
 30
0.0
 10
35.14910004390002
 20
28.45003460840003
 30
0.0
 10
35.24441530719994
 20
28.44630018700001
 30
0.0
 10
35.33954670299997
 20
28.43802334810006
 30
0.0
 10
35.41000236929998
 20
28.42943333840003
 30
0.0
  0
SPLINE
  5
8C1F7
330
1F
100
AcDbEntity
  8
1
100
AcDbSpline
210
0.0
220
0.0
230
1.0
 70
     8
 71
     3
 72
     9
 73
     5
 74
     0
 42
0.000000001
 43
0.0000000001
 40
0.0
 40
0.0
 40
0.0
 40
0.0
 40
0.2536651534
 40
1.0
 40
1.0
 40
1.0
 40
1.0
 10
34.55744545899998
 20
28.3164057043
 30
0.0
 10
34.59656753009998
 20
28.31889913580005
 30
0.0
 10
34.7509724521
 20
28.32572145060004
 30
0.0
 10
34.90589236649995
 20
28.32075526380003
 30
0.0
 10
35.02077216059999
 20
28.31047676380001
 30
0.0
  0
SPLINE
  5
8C1F8
330
1F
100
AcDbEntity
  8
1
100
AcDbSpline
210
0.0
220
0.0
230
1.0
 70
     8
 71
     3
 72
     9
 73
     5
 74
     0
 42
0.000000001
 43
0.0000000001
 40
0.0
 40
0.0
 40
0.0
 40
0.0
 40
0.2496196863
 40
1.0
 40
1.0
 40
1.0
 40
1.0
 10
35.01551329029999
 20
24.80382099040003
 30
0.0
 10
35.03013603700001
 20
24.79872480020004
 30
0.0
 10
35.08897252799997
 20
24.7790523415
 30
0.0
 10
35.14881010569999
 20
24.76237295070006
 30
0.0
 10
35.19409646799997
 20
24.75159865290005
 30
0.0
  0
SPLINE
  5
8C1F9
330
1F
100
AcDbEntity
  8
1
100
AcDbSpline
210
0.0
220
0.0
230
1.0
 70
     8
 71
     3
 72
     9
 73
     5
 74
     0
 42
0.000000001
 43
0.0000000001
 40
0.0
 40
0.0
 40
0.0
 40
0.0
 40
0.5434615854000004
 40
1.0
 40
1.0
 40
1.0
 40
1.0
 10
39.0034311332
 20
29.82543744150002
 30
0.0
 10
38.9919033656
 20
29.84685128820006
 30
0.0
 10
38.97193099849997
 20
29.88694049850005
 30
0.0
 10
38.95518231700001
 20
29.9285176427
 30
0.0
 10
38.94863404259999
 20
29.94786958990005
 30
0.0
  0
SPLINE
  5
8C1FA
330
1F
100
AcDbEntity
  8
1
100
AcDbSpline
210
0.0
220
0.0
230
1.0
 70
     8
 71
     3
 72
     9
 73
     5
 74
     0
 42
0.000000001
 43
0.0000000001
 40
0.0
 40
0.0
 40
0.0
 40
0.0
 40
0.2476700611
 40
1.0
 40
1.0
 40
1.0
 40
1.0
 10
38.94863404259999
 20
29.94786958990005
 30
0.0
 10
38.9208282246
 20
29.98695883930002
 30
0.0
 10
38.81222296950003
 20
30.14736372810002
 30
0.0
 10
38.71849471499999
 20
30.31782417310001
 30
0.0
 10
38.65716425219998
 20
30.4500042592
 30
0.0
  0
SPLINE
  5
8C1FB
330
1F
100
AcDbEntity
  8
1
100
AcDbSpline
210
0.0
220
0.0
230
1.0
 70
     8
 71
     3
 72
     8
 73
     4
 74
     0
 42
0.000000001
 43
0.0000000001
 40
0.0
 40
0.0
 40
0.0
 40
0.0
 40
1.0
 40
1.0
 40
1.0
 40
1.0
 10
35.17896650319997
 20
28.44912681700004
 30
0.0
 10
35.12557967839999
 20
28.40366876590002
 30
0.0
 10
35.0728240462
 20
28.35745749050005
 30
0.0
 10
35.02077216059999
 20
28.31047676380001
 30
0.0
  0
LINE
  5
8C1FC
330
1F
100
AcDbEntity
  8
1
100
AcDbLine
 10
40.23756068469995
 20
30.87233961809999
 30
0.0
 11
40.2563225951
 21
30.83257291190005
 31
0.0
  0
SPLINE
  5
8C1FD
330
1F
100
AcDbEntity
  8
1
100
AcDbSpline
210
0.0
220
0.0
230
1.0
 70
     8
 71
     3
 72
    15
 73
    11
 74
     0
 42
0.000000001
 43
0.0000000001
 40
0.0
 40
0.0
 40
0.0
 40
0.0
 40
0.1269315928
 40
0.2452972638
 40
0.3583336483
 40
0.4705343268
 40
0.5869232922
 40
0.7120173448
 40
0.8490905645999998
 40
1.0
 40
1.0
 40
1.0
 40
1.0
 10
19.45105351160001
 20
23.7024304994
 30
0.0
 10
19.38990476019998
 20
23.76346658050005
 30
0.0
 10
19.28110350739999
 20
23.89158563660004
 30
0.0
 10
19.16278447629995
 20
24.10699111940006
 30
0.0
 10
19.09961914009997
 20
24.33457907510002
 30
0.0
 10
19.09453658729998
 20
24.56945146470002
 30
0.0
 10
19.14752887979998
 20
24.80643138760001
 30
0.0
 10
19.25589657859999
 20
25.04193713699998
 30
0.0
 10
19.41587113549997
 20
25.27442398520004
 30
0.0
 10
19.54786763450002
 20
25.42003214900002
 30
0.0
 10
19.62047811070002
 20
25.49268772230006
 30
0.0
  0
SPLINE
  5
8C1FE
330
1F
100
AcDbEntity
  8
1
100
AcDbSpline
210
0.0
220
0.0
230
1.0
 70
     8
 71
     3
 72
     9
 73
     5
 74
     0
 42
0.000000001
 43
0.0000000001
 40
0.0
 40
0.0
 40
0.0
 40
0.0
 40
0.2510138606
 40
1.0
 40
1.0
 40
1.0
 40
1.0
 10
40.08271026129998
 20
30.8655077327
 30
0.0
 10
40.07899213819999
 20
30.85282789800004
 30
0.0
 10
40.06398008579995
 20
30.80237219070006
 30
0.0
 10
40.04816847980001
 20
30.75215421040002
 30
0.0
 10
40.03587122669995
 20
30.71469327840004
 30
0.0
  0
SPLINE
  5
8C1FF
330
1F
100
AcDbEntity
  8
1
100
AcDbSpline
210
0.0
220
0.0
230
1.0
 70
     8
 71
     3
 72
    16
 73
    12
 74
     0
 42
0.000000001
 43
0.0000000001
 40
0.0
 40
0.0
 40
0.0
 40
0.0
 40
0.1608068437
 40
0.315544923
 40
0.4618767311
 40
0.5976167029
 40
0.7208048297000002
 40
0.8297404
 40
0.9230745663
 40
0.9636201004
 40
1.0
 40
1.0
 40
1.0
 40
1.0
 10
21.72693040369998
 20
26.74011565429998
 30
0.0
 10
21.66378605859998
 20
26.54529103740003
 30
0.0
 10
21.54490135879999
 20
26.16134154420001
 30
0.0
 10
21.38679772290001
 20
25.59466154760003
 30
0.0
 10
21.25390388149995
 20
25.05434627890004
 30
0.0
 10
21.14830384159998
 20
24.54900803560003
 30
0.0
 10
21.0715305226
 20
24.08665600920006
 30
0.0
 10
21.02472167610003
 20
23.67461476800003
 30
0.0
 10
21.01033784820001
 20
23.36530125320003
 30
0.0
 10
21.01641090309997
 20
23.14845712280003
 30
0.0
 10
21.02497469430003
 20
23.0507704542
 30
0.0
 10
21.03083979160002
 20
23.00481010340003
 30
0.0
  0
SPLINE
  5
8C200
330
1F
100
AcDbEntity
  8
1
100
AcDbSpline
210
0.0
220
0.0
230
1.0
 70
     8
 71
     3
 72
     9
 73
     5
 74
     0
 42
0.000000001
 43
0.0000000001
 40
0.0
 40
0.0
 40
0.0
 40
0.0
 40
0.2500285105
 40
1.0
 40
1.0
 40
1.0
 40
1.0
 10
23.13705951059998
 20
27.25902881520001
 30
0.0
 10
23.6925329739
 20
27.44869982760003
 30
0.0
 10
25.91560878999999
 20
28.20309106830002
 30
0.0
 10
28.14407502379996
 20
28.94156757500002
 30
0.0
 10
29.81785408660002
 20
29.48769357730004
 30
0.0
  0
SPLINE
  5
8C201
330
1F
100
AcDbEntity
  8
1
100
AcDbSpline
210
0.0
220
0.0
230
1.0
 70
     8
 71
     3
 72
     9
 73
     5
 74
     0
 42
0.000000001
 43
0.0000000001
 40
0.0
 40
0.0
 40
0.0
 40
0.0
 40
0.2691751457
 40
1.0
 40
1.0
 40
1.0
 40
1.0
 10
35.02077216059999
 20
28.31047676380001
 30
0.0
 10
34.98594041110002
 20
28.31999108320001
 30
0.0
 10
34.85548830209999
 20
28.35137552560001
 30
0.0
 10
34.72133712360002
 20
28.36736534530002
 30
0.0
 10
34.62333784040001
 20
28.36999631050004
 30
0.0
  0
SPLINE
  5
8C202
330
1F
100
AcDbEntity
  8
1
100
AcDbSpline
210
0.0
220
0.0
230
1.0
 70
     8
 71
     3
 72
     9
 73
     5
 74
     0
 42
0.000000001
 43
0.0000000001
 40
0.0
 40
0.0
 40
0.0
 40
0.0
 40
0.4967401139
 40
1.0
 40
1.0
 40
1.0
 40
1.0
 10
21.72693031469996
 20
26.74011560810003
 30
0.0
 10
21.95808676819999
 20
26.83218076110001
 30
0.0
 10
22.42619056099997
 20
27.01064007940006
 30
0.0
 10
22.89850181759996
 20
27.17757131609999
 30
0.0
 10
23.13705951059998
 20
27.25902881520001
 30
0.0
  0
SPLINE
  5
8C203
330
1F
100
AcDbEntity
  8
1
100
AcDbSpline
210
0.0
220
0.0
230
1.0
 70
     8
 71
     3
 72
    11
 73
     7
 74
     0
 42
0.000000001
 43
0.0000000001
 40
0.0
 40
0.0
 40
0.0
 40
0.0
 40
0.2488734498
 40
0.4975218959000001
 40
0.747416838
 40
1.0
 40
1.0
 40
1.0
 40
1.0
 10
36.18286162629997
 20
28.71416674640006
 30
0.0
 10
36.0992568586
 20
28.73659663020003
 30
0.0
 10
35.92846065009999
 20
28.76890307870001
 30
0.0
 10
35.6676597662
 20
28.77781367550007
 30
0.0
 10
35.40729857349996
 20
28.74628175820003
 30
0.0
 10
35.23834343019999
 20
28.69844387720002
 30
0.0
 10
35.15590856729998
 20
28.66807296339999
 30
0.0
  0
SPLINE
  5
8C204
330
1F
100
AcDbEntity
  8
1
100
AcDbSpline
210
0.0
220
0.0
230
1.0
 70
     8
 71
     3
 72
     9
 73
     5
 74
     0
 42
0.000000001
 43
0.0000000001
 40
0.0
 40
0.0
 40
0.0
 40
0.0
 40
0.2482745106
 40
1.0
 40
1.0
 40
1.0
 40
1.0
 10
21.47093943649995
 20
26.63450740610001
 30
0.0
 10
21.49201321579997
 20
26.64351386190003
 30
0.0
 10
21.57701099160002
 20
26.67951627460001
 30
0.0
 10
21.66246502850001
 20
26.71444028160006
 30
0.0
 10
21.72693031469996
 20
26.74011560810003
 30
0.0
  0
SPLINE
  5
8C205
330
1F
100
AcDbEntity
  8
1
100
AcDbSpline
210
0.0
220
0.0
230
1.0
 70
     8
 71
     3
 72
    11
 73
     7
 74
     0
 42
0.000000001
 43
0.0000000001
 40
0.0
 40
0.0
 40
0.0
 40
0.0
 40
0.2163722037
 40
0.4571655902
 40
0.7196805037000003
 40
1.0
 40
1.0
 40
1.0
 40
1.0
 10
19.62047811070002
 20
25.49268772230006
 30
0.0
 10
19.7319214252
 20
25.60420025230001
 30
0.0
 10
19.98659850530001
 20
25.82078336890003
 30
0.0
 10
20.42280596969996
 20
26.11313676500004
 30
0.0
 10
20.92371614229998
 20
26.38840990890004
 30
0.0
 10
21.28312570299997
 20
26.55424007120001
 30
0.0
 10
21.47093943649995
 20
26.63450740610001
 30
0.0
  0
SPLINE
  5
8C206
330
1F
100
AcDbEntity
  8
1
100
AcDbSpline
210
0.0
220
0.0
230
1.0
 70
     8
 71
     3
 72
     9
 73
     5
 74
     0
 42
0.000000001
 43
0.0000000001
 40
0.0
 40
0.0
 40
0.0
 40
0.0
 40
0.5006171688000001
 40
1.0
 40
1.0
 40
1.0
 40
1.0
 10
29.81785408660002
 20
29.48769357730004
 30
0.0
 10
29.93513715359998
 20
29.52596107269999
 30
0.0
 10
30.1742344921
 20
29.58837768300004
 30
0.0
 10
30.41919685169998
 20
29.62111831380003
 30
0.0
 10
30.54195400259997
 20
29.62980399310004
 30
0.0
  0
SPLINE
  5
8C207
330
1F
100
AcDbEntity
  8
1
100
AcDbSpline
210
0.0
220
0.0
230
1.0
 70
     8
 71
     3
 72
     9
 73
     5
 74
     0
 42
0.000000001
 43
0.0000000001
 40
0.0
 40
0.0
 40
0.0
 40
0.0
 40
0.2547397692
 40
1.0
 40
1.0
 40
1.0
 40
1.0
 10
34.04005122449999
 20
27.42572375240003
 30
0.0
 10
34.03438142540004
 20
27.4311848438
 30
0.0
 10
34.01223245679998
 20
27.4527347211
 30
0.0
 10
33.99052393859999
 20
27.47473846960004
 30
0.0
 10
33.97463233309995
 20
27.49140755890004
 30
0.0
  0
SPLINE
  5
8C208
330
1F
100
AcDbEntity
  8
1
100
AcDbSpline
210
0.0
220
0.0
230
1.0
 70
     8
 71
     3
 72
     9
 73
     5
 74
     0
 42
0.000000001
 43
0.0000000001
 40
0.0
 40
0.0
 40
0.0
 40
0.0
 40
0.2663864534
 40
1.0
 40
1.0
 40
1.0
 40
1.0
 10
34.51850752419999
 20
27.71579280110002
 30
0.0
 10
34.48884010999999
 20
27.73218066679998
 30
0.0
 10
34.37677783059999
 20
27.79241320330005
 30
0.0
 10
34.26180833309999
 20
27.84742356679998
 30
0.0
 10
34.17559369439997
 20
27.88318881420003
 30
0.0
  0
ELLIPSE
  5
8C209
330
1F
100
AcDbEntity
  8
1
100
AcDbEllipse
 10
129.5137989369999
 20
-2.328785298699981
 30
0.0
 11
134.200120929
 21
-32.35438760490001
 31
0.0
210
0.0
220
0.0
230
1.0
 40
0.0246969256
 41
2.347496321999999
 42
2.40608392189999
  0
ELLIPSE
  5
8C20A
330
1F
100
AcDbEntity
  8
1
100
AcDbEllipse
 10
66.9444138126
 20
0.0
 30
0.0
 11
50.1637431293
 21
-30.62691178880001
 31
0.0
210
0.0
220
0.0
230
1.0
 40
0.0889159295000001
 41
2.121557011700003
 42
2.166753786699997
  0
ELLIPSE
  5
8C20B
330
1F
100
AcDbEntity
  8
1
100
AcDbEllipse
 10
38.76441015279997
 20
28.12392233920002
 30
0.0
 11
2.288398421400001
 21
-0.5275259910000011
 31
0.0
210
0.0
220
0.0
230
1.0
 40
0.0705849368
 41
3.236896659879327
 42
3.623228979779482
  0
ELLIPSE
  5
8C20C
330
1F
100
AcDbEntity
  8
1
100
AcDbEllipse
 10
47.1073949517
 20
0.0473762125000121
 30
0.0
 11
53.8489864064
 21
2.342313429899999
 31
0.0
210
0.0
220
0.0
230
1.0
 40
0.5753809521000001
 41
1.703299890999999
 42
1.772738759899995
  0
ELLIPSE
  5
8C20D
330
1F
100
AcDbEntity
  8
1
100
AcDbEllipse
 10
76.30018075559997
 20
0.2455124640000008
 30
0.0
 11
165.4621164862001
 21
2.785809291300002
 31
0.0
210
0.0
220
0.0
230
1.0
 40
0.1894146596
 41
1.8199630455
 42
1.8478059977
  0
ELLIPSE
  5
8C20E
330
1F
100
AcDbEntity
  8
1
100
AcDbEllipse
 10
30.69008392379997
 20
23.49768278300002
 30
0.0
 11
14.211622245
 21
8.6942035895
 31
0.0
210
0.0
220
0.0
230
1.0
 40
0.0916789304
 41
0.8957939350999993
 42
1.095636261500001
  0
DIMENSION
  5
8C20F
102
{ACAD_XDICTIONARY
360
8C210
102
}
102
{ACAD_REACTORS
330
8C211
102
}
330
1F
100
AcDbEntity
  8
sk2
100
AcDbDimension
  2
*D73101099
 10
23.99999999999997
 20
-47.28149999999998
 30
0.0
 11
43.79999999999997
 21
-43.23149999999998
 31
0.0
 70
    32
 71
     5
 42
24.0
  3
コピー - ISO-25
100
AcDbAlignedDimension
 13
0.0
 23
-26.2815
 33
0.0
 14
23.99999999999997
 24
-12.39999999889997
 34
0.0
 50
0.0
100
AcDbRotatedDimension
1001
ACAD
1000
DSTYLE
1002
{
1070
   170
1070
     1
1070
   171
1070
     3
1070
   143
1040
0.0393700787401575
1070
   285
1070
     4
1070
     4
1000
"
1070
   271
1070
     8
1070
    40
1040
1.0
1002
}
1001
ACAD_DSTYLE_DIMINSPECT
1070
   393
1070
     0
1070
   394
1070
     0
1070
   395
1000

1070
   396
1000

  0
LINE
  5
8C3CD
330
1F
100
AcDbEntity
  8
sk3
100
AcDbLine
 10
14.00000000005625
 20
12.99999999889998
 30
0.0
 11
14.00000000005625
 21
-12.99999999889998
 31
0.0
  0
LINE
  5
8C4AE
330
1F
100
AcDbEntity
  8
cut
100
AcDbLine
 10
35.00910958969998
 20
28.37714715969998
 30
0.0
 11
35.03126325159998
 21
28.39002663439999
 31
0.0
  0
LINE
  5
8C4AF
330
1F
100
AcDbEntity
  8
cut
100
AcDbLine
 10
35.02995869969995
 20
28.38933305909998
 30
0.0
 11
35.0510934478
 21
28.40073000679996
 31
0.0
  0
LINE
  5
8C4B0
330
1F
100
AcDbEntity
  8
cut
100
AcDbLine
 10
41.2255588521
 20
31.40631213719999
 30
0.0
 11
41.40505704209995
 21
31.50251999089997
 31
0.0
  0
LINE
  5
8C4B1
330
1F
100
AcDbEntity
  8
cut
100
AcDbLine
 10
41.40505704209995
 20
31.50251999089997
 30
0.0
 11
41.43787010619997
 21
31.5199305946
 31
0.0
  0
LINE
  5
8C4B2
330
1F
100
AcDbEntity
  8
cut
100
AcDbLine
 10
41.16021611439999
 20
31.3717216682
 30
0.0
 11
41.2255588521
 21
31.40631213719999
 31
0.0
  0
LINE
  5
8C4B3
330
1F
100
AcDbEntity
  8
cut
100
AcDbLine
 10
41.0775316508
 20
31.32849640699999
 30
0.0
 11
41.16021611439999
 21
31.3717216682
 31
0.0
  0
LINE
  5
8C4B4
330
1F
100
AcDbEntity
  8
cut
100
AcDbLine
 10
41.43787010619997
 20
31.5199305946
 30
0.0
 11
41.47082813539999
 21
31.53714758339999
 31
0.0
  0
LINE
  5
8C4B5
330
1F
100
AcDbEntity
  8
cut
100
AcDbLine
 10
35.05109340669998
 20
28.40072998539998
 30
0.0
 11
35.28182705299999
 21
28.52008236809999
 31
0.0
  0
LINE
  5
8C4B6
330
1F
100
AcDbEntity
  8
cut
100
AcDbLine
 10
40.62745256069997
 20
31.09639101739998
 30
0.0
 11
41.0775316508
 21
31.32849640699999
 31
0.0
  0
LINE
  5
8C4B7
330
1F
100
AcDbEntity
  8
cut
100
AcDbLine
 10
41.47082813539999
 20
31.53714758339999
 30
0.0
 11
41.50394561599997
 21
31.5541423965
 31
0.0
  0
LINE
  5
8C4B8
330
1F
100
AcDbEntity
  8
cut
100
AcDbLine
 10
35.28182705299999
 20
28.52008236809999
 30
0.0
 11
35.51723844200002
 21
28.64043772269997
 31
0.0
  0
LINE
  5
8C4B9
330
1F
100
AcDbEntity
  8
cut
100
AcDbLine
 10
40.47115246969998
 20
31.01655855559997
 30
0.0
 11
40.62745256069997
 21
31.09639101739998
 31
0.0
  0
LINE
  5
8C4BA
330
1F
100
AcDbEntity
  8
cut
100
AcDbLine
 10
35.51723844200002
 20
28.64043772269997
 30
0.0
 11
35.75732865479996
 21
28.76178850069999
 31
0.0
  0
LWPOLYLINE
  5
8C4BB
330
1F
100
AcDbEntity
  8
cut
100
AcDbPolyline
 90
       10
 70
     0
 43
0.0
 10
41.50394501339998
 20
31.55414209149999
 10
41.53582855839999
 20
31.5702083896
 10
41.5677483312
 20
31.58553815489998
 10
41.59970433199999
 20
31.6001313873
 10
41.63169773549999
 20
31.61403017109999
 10
41.66372736699999
 20
31.62719242219998
 10
41.69578970199997
 20
31.6394918881
 10
41.72788356589996
 20
31.6508864848
 10
41.76001013329996
 20
31.6614182964
 10
41.79216940439995
 20
31.67108732289998
  0
LINE
  5
8C4BC
330
1F
100
AcDbEntity
  8
cut
100
AcDbLine
 10
35.75732865479996
 20
28.76178850069999
 30
0.0
 11
36.00210201649999
 21
28.88410450870001
 31
0.0
  0
LINE
  5
8C4BD
330
1F
100
AcDbEntity
  8
cut
100
AcDbLine
 10
40.12986031430002
 20
30.84499522730002
 30
0.0
 11
40.47115246969998
 21
31.01655855559997
 31
0.0
  0
LINE
  5
8C4BE
330
1F
100
AcDbEntity
  8
cut
100
AcDbLine
 10
39.97364248359999
 20
30.7676862722
 30
0.0
 11
40.12986031430002
 21
30.84499522730002
 31
0.0
  0
LWPOLYLINE
  5
8C4BF
330
1F
100
AcDbEntity
  8
cut
100
AcDbPolyline
 90
        6
 70
     0
 43
0.0
 10
36.00210201649999
 20
28.88410450870001
 10
36.13346181329998
 20
28.94917189949999
 10
36.14071640459999
 20
28.95269259149998
 10
36.14800838160001
 20
28.9561884371
 10
36.15533774450002
 20
28.95965943629997
 10
36.16270449309997
 20
28.96310558909997
  0
LINE
  5
8C4C0
330
1F
100
AcDbEntity
  8
cut
100
AcDbLine
 10
39.65790896629997
 20
30.61356116709998
 30
0.0
 11
39.97364248359999
 21
30.7676862722
 31
0.0
  0
LINE
  5
8C4C1
330
1F
100
AcDbEntity
  8
cut
100
AcDbLine
 10
38.95764885550001
 20
30.27522664469998
 30
0.0
 11
39.65790896629997
 21
30.61356116709998
 31
0.0
  0
LINE
  5
8C4C2
330
1F
100
AcDbEntity
  8
cut
100
AcDbLine
 10
38.29493661799997
 20
29.95866692359996
 30
0.0
 11
38.95764885550001
 21
30.27522664469998
 31
0.0
  0
LINE
  5
8C4C3
330
1F
100
AcDbEntity
  8
cut
100
AcDbLine
 10
37.69606989969999
 20
29.67561570149999
 30
0.0
 11
38.29493661799997
 21
29.95866692359996
 31
0.0
  0
LINE
  5
8C4C4
330
1F
100
AcDbEntity
  8
cut
100
AcDbLine
 10
37.1372309204
 20
29.4139403017
 30
0.0
 11
37.69606989969999
 21
29.67561570149999
 31
0.0
  0
LINE
  5
8C4C5
330
1F
100
AcDbEntity
  8
cut
100
AcDbLine
 10
36.5135779091
 20
29.12465019449999
 30
0.0
 11
37.1372309204
 21
29.4139403017
 31
0.0
  0
LINE
  5
8C4C6
330
1F
100
AcDbEntity
  8
cut
100
AcDbLine
 10
36.16270449309997
 20
28.96310558909997
 30
0.0
 11
36.5135779091
 21
29.12465019449999
 31
0.0
  0
LWPOLYLINE
  5
8C4C7
330
1F
100
AcDbEntity
  8
cut
100
AcDbPolyline
 90
        9
 70
     0
 43
0.0
 10
34.8568115586
 20
28.25388858589997
 10
34.87364537189997
 20
28.27121286309998
 10
34.89126817910001
 20
28.288132733
 10
34.90963816419999
 20
28.3046368844
 10
34.92856953029998
 20
28.3205140449
 10
34.94809225939999
 20
28.33574777730002
 10
34.9681763695
 20
28.35035451879998
 10
34.98854611769998
 20
28.36417230859998
 10
35.00910958969998
 20
28.37714715969998
  0
LWPOLYLINE
  5
8C4C8
330
1F
100
AcDbEntity
  8
cut
100
AcDbPolyline
 90
        9
 70
     0
 43
0.0
 10
34.87258446419999
 20
28.27015496140001
 10
34.8883292142
 20
28.2854139719
 10
34.90456491709996
 20
28.30021287369999
 10
34.92128623620001
 20
28.31454277980001
 10
34.93849082879997
 20
28.3283979439
 10
34.95617262660001
 20
28.34176975919999
 10
34.97431065689996
 20
28.35463817640002
 10
34.99288022129999
 20
28.36698028570001
 10
35.01186263309997
 20
28.37877726399998
  0
LINE
  5
8C4C9
330
1F
100
AcDbEntity
  8
cut
100
AcDbLine
 10
34.84072492319997
 20
28.23614859019997
 30
0.0
 11
34.85734798109998
 21
28.25445729219999
 31
0.0
  0
LWPOLYLINE
  5
8C4CA
330
1F
100
AcDbEntity
  8
cut
100
AcDbPolyline
 90
       16
 70
     0
 43
0.0
 10
34.68555773160002
 20
27.93574488679997
 10
34.69148192169998
 20
27.95903657029999
 10
34.69794279469996
 20
27.98134151969998
 10
34.70503126199999
 20
28.00307619669999
 10
34.71277196759998
 20
28.02431907669998
 10
34.72113472829996
 20
28.04517055459998
 10
34.73010207860002
 20
28.06563737749997
 10
34.73969148399995
 20
28.08571279839998
 10
34.74992515710001
 20
28.10547697159996
 10
34.76079033290002
 20
28.12493868570001
 10
34.77229977660002
 20
28.14408915210001
 10
34.78451399569998
 20
28.16298215949999
 10
34.79741890939995
 20
28.18162927719999
 10
34.8110285986
 20
28.20001893589998
 10
34.82544581430001
 20
28.2181702158
 10
34.84072492319997
 20
28.23614859019997
  0
LWPOLYLINE
  5
8C4CB
330
1F
100
AcDbEntity
  8
cut
100
AcDbPolyline
 90
       16
 70
     0
 43
0.0
 10
34.69079531410002
 20
27.9565514507
 10
34.69666415000002
 20
27.97715179869999
 10
34.70316373070001
 20
27.9975445771
 10
34.71029495129997
 20
28.01773358879998
 10
34.71805628739999
 20
28.03771670879999
 10
34.7264365352
 20
28.05746810049999
 10
34.73542207129994
 20
28.07695599949997
 10
34.74500209679998
 20
28.09615447689998
 10
34.75517711289997
 20
28.1150609476
 10
34.76595044550001
 20
28.13367866190001
 10
34.77732176499997
 20
28.15200486839998
 10
34.78927611959996
 20
28.17001280749997
 10
34.80179490239995
 20
28.18766971759999
 10
34.81486277730001
 20
28.20494798129999
 10
34.82847749399998
 20
28.22184055899999
 10
34.84264007329996
 20
28.23834555529998
  0
LWPOLYLINE
  5
8C4CC
330
1F
100
AcDbEntity
  8
cut
100
AcDbPolyline
 90
        8
 70
     0
 43
0.0
 10
34.66695654849998
 20
27.7747545728
 10
34.66704434079999
 20
27.78594907120001
 10
34.66771869840001
 20
27.80771216779999
 10
34.66905473369998
 20
27.82937388649998
 10
34.67104866399997
 20
27.85091286219998
 10
34.67369838869998
 20
27.8723239803
 10
34.67700222790002
 20
27.8936061885
 10
34.68095752669997
 20
27.91475408719998
  0
LWPOLYLINE
  5
8C4CD
330
1F
100
AcDbEntity
  8
cut
100
AcDbPolyline
 90
        8
 70
     0
 43
0.0
 10
34.6669629718
 20
27.77475456599999
 10
34.66721395219999
 20
27.79322682949999
 10
34.6682498025
 20
27.81747939539997
 10
34.67010640319997
 20
27.84162020239998
 10
34.6728119861
 20
27.86563566659996
 10
34.6763383193
 20
27.88953937189999
 10
34.68062100649998
 20
27.9130863106
 10
34.68567328709999
 20
27.93623982369999
  0
LINE
  5
8C4CE
330
1F
100
AcDbEntity
  8
cut
100
AcDbLine
 10
44.41060414159996
 20
16.86887852969997
 30
0.0
 11
44.26310182079993
 21
16.93668064119998
 31
0.0
  0
LINE
  5
8C4CF
330
1F
100
AcDbEntity
  8
cut
100
AcDbLine
 10
44.26310182079993
 20
16.93668064119998
 30
0.0
 11
44.2476599643
 21
16.94393174569998
 31
0.0
  0
LINE
  5
8C4D0
330
1F
100
AcDbEntity
  8
cut
100
AcDbLine
 10
44.2476599643
 20
16.94393174569998
 30
0.0
 11
44.2324693827
 21
16.95120873909999
 31
0.0
  0
LINE
  5
8C4D1
330
1F
100
AcDbEntity
  8
cut
100
AcDbLine
 10
44.2324693827
 20
16.95120873909999
 30
0.0
 11
43.69895239799997
 21
17.20973501159997
 31
0.0
  0
LINE
  5
8C4D2
330
1F
100
AcDbEntity
  8
cut
100
AcDbLine
 10
43.69895239799997
 20
17.20973501159997
 30
0.0
 11
43.17469500149996
 21
17.46464011709997
 31
0.0
  0
LINE
  5
8C4D3
330
1F
100
AcDbEntity
  8
cut
100
AcDbLine
 10
43.17469500149996
 20
17.46464011709997
 30
0.0
 11
42.85323365939997
 21
17.62138975399998
 31
0.0
  0
LWPOLYLINE
  5
8C4D4
330
1F
100
AcDbEntity
  8
cut
100
AcDbPolyline
 90
        3
 70
     0
 43
0.0
 10
42.85323365939997
 20
17.62138975399998
 10
42.33659192569997
 20
17.87396583629998
 10
42.27187866110003
 20
17.90565882909999
  0
LINE
  5
8C4D5
330
1F
100
AcDbEntity
  8
cut
100
AcDbLine
 10
42.27187866110003
 20
17.90565882909999
 30
0.0
 11
41.8185094709
 21
18.12810866379999
 31
0.0
  0
LINE
  5
8C4D6
330
1F
100
AcDbEntity
  8
cut
100
AcDbLine
 10
41.8185094709
 20
18.12810866379999
 30
0.0
 11
41.4309482155
 21
18.31890072339999
 31
0.0
  0
LINE
  5
8C4D7
330
1F
100
AcDbEntity
  8
cut
100
AcDbLine
 10
41.4309482155
 20
18.31890072339999
 30
0.0
 11
40.90861758219996
 21
18.57668912639996
 31
0.0
  0
LINE
  5
8C4D8
330
1F
100
AcDbEntity
  8
cut
100
AcDbLine
 10
40.90861758219996
 20
18.57668912639996
 30
0.0
 11
40.3219022844
 21
18.86766773219997
 31
0.0
  0
LWPOLYLINE
  5
8C4D9
330
1F
100
AcDbEntity
  8
cut
100
AcDbPolyline
 90
        7
 70
     0
 43
0.0
 10
45.16910488669997
 20
16.50195746769998
 10
45.04652572939995
 20
16.56344578799999
 10
44.9224180898
 20
16.6248361442
 10
44.79677868229999
 20
16.68611055629998
 10
44.66959765029999
 20
16.74721508459998
 10
44.54087170819998
 20
16.80813174899998
 10
44.41060414159996
 20
16.86887852969997
  0
LWPOLYLINE
  5
8C4DA
330
1F
100
AcDbEntity
  8
cut
100
AcDbPolyline
 90
        3
 70
     0
 43
0.0
 10
40.3219022844
 20
18.86766773219997
 10
40.19291923709995
 20
18.93287406919998
 10
40.12826632949999
 20
18.96599036289998
  0
LWPOLYLINE
  5
8C4DB
330
1F
100
AcDbEntity
  8
cut
100
AcDbPolyline
 90
        3
 70
     0
 43
0.0
 10
45.4096678977
 20
16.37863299509999
 10
45.29015227619999
 20
16.44035320339998
 10
45.16910488669997
 20
16.50195746769998
  0
LINE
  5
8C4DC
330
1F
100
AcDbEntity
  8
cut
100
AcDbLine
 10
40.12826632949999
 20
18.96599036289998
 30
0.0
 11
39.99782523889998
 21
19.03384544319998
 31
0.0
  0
LINE
  5
8C4DD
330
1F
100
AcDbEntity
  8
cut
100
AcDbLine
 10
39.99782523889998
 20
19.03384544319998
 30
0.0
 11
39.86883272879995
 21
19.1021037726
 31
0.0
  0
LINE
  5
8C4DE
330
1F
100
AcDbEntity
  8
cut
100
AcDbLine
 10
39.86883272879995
 20
19.1021037726
 30
0.0
 11
39.74347078169997
 21
19.16952228949998
 31
0.0
  0
LINE
  5
8C4DF
330
1F
100
AcDbEntity
  8
cut
100
AcDbLine
 10
39.74347078169997
 20
19.16952228949998
 30
0.0
 11
39.62664012629996
 21
19.23336205769999
 31
0.0
  0
LINE
  5
8C4E0
330
1F
100
AcDbEntity
  8
cut
100
AcDbLine
 10
39.62664012629996
 20
19.23336205769999
 30
0.0
 11
39.52045628829997
 21
19.29213499399998
 31
0.0
  0
LINE
  5
8C4E1
330
1F
100
AcDbEntity
  8
cut
100
AcDbLine
 10
39.52045628829997
 20
19.29213499399998
 30
0.0
 11
39.38011235960001
 21
19.37098127869998
 31
0.0
  0
LINE
  5
8C4E2
330
1F
100
AcDbEntity
  8
cut
100
AcDbLine
 10
39.38011235960001
 20
19.37098127869998
 30
0.0
 11
39.25480843120001
 21
19.44244806419999
 31
0.0
  0
LINE
  5
8C4E3
330
1F
100
AcDbEntity
  8
cut
100
AcDbLine
 10
39.25480843120001
 20
19.44244806419999
 30
0.0
 11
39.1358326176
 21
19.51124332339998
 31
0.0
  0
LINE
  5
8C4E4
330
1F
100
AcDbEntity
  8
cut
100
AcDbLine
 10
39.1358326176
 20
19.51124332339998
 30
0.0
 11
39.01686034579997
 21
19.58094091079999
 31
0.0
  0
LINE
  5
8C4E5
330
1F
100
AcDbEntity
  8
cut
100
AcDbLine
 10
39.01686034579997
 20
19.58094091079999
 30
0.0
 11
38.89720019169995
 21
19.65194886459997
 31
0.0
  0
LINE
  5
8C4E6
330
1F
100
AcDbEntity
  8
cut
100
AcDbLine
 10
38.89720019169995
 20
19.65194886459997
 30
0.0
 11
38.77810992419997
 21
19.7235168373
 31
0.0
  0
LINE
  5
8C4E7
330
1F
100
AcDbEntity
  8
cut
100
AcDbLine
 10
38.77810992419997
 20
19.7235168373
 30
0.0
 11
38.69948742989996
 21
19.77125836709999
 31
0.0
  0
LWPOLYLINE
  5
8C4E8
330
1F
100
AcDbEntity
  8
cut
100
AcDbPolyline
 90
        5
 70
     0
 43
0.0
 10
34.67105476019999
 20
27.69824232559998
 10
34.6688955735
 20
27.72170363820001
 10
34.66753683769999
 20
27.74533895089997
 10
34.66697855269997
 20
27.7691482637
 10
34.6669629718
 20
27.77475456599999
  0
LWPOLYLINE
  5
8C4E9
330
1F
100
AcDbEntity
  8
cut
100
AcDbPolyline
 90
       31
 70
     0
 43
0.0
 10
46.2714922533
 20
16.41904365059997
 10
46.24673313749998
 20
16.40342932549998
 10
46.22134429569998
 20
16.38867693099999
 10
46.19532572799996
 20
16.37478646739998
 10
46.1686119304
 20
16.361721985
 10
46.14126840679996
 20
16.34951943350001
 10
46.11349166879996
 20
16.3382866611
 10
46.08529996299997
 20
16.32804355209998
 10
46.05667504279995
 20
16.31877022229997
 10
46.02775867989993
 20
16.31051486799998
 10
45.99858938270002
 20
16.30328609549997
 10
45.9691286429
 20
16.2970752985
 10
45.93940270679996
 20
16.29190485429998
 10
45.90935693939997
 20
16.28776930379999
 10
45.87904597579997
 20
16.28467410629997
 10
45.84865996819996
 20
16.28265801699999
 10
45.81819754069999
 20
16.28173728899998
 10
45.7876600693
 20
16.28189566919999
 10
45.75724183320001
 20
16.28312315479999
 10
45.72699741499998
 20
16.28542223199997
 10
45.69687223209998
 20
16.28879041449997
 10
45.66689681689998
 20
16.29321023979997
 10
45.6370338254
 20
16.29868736959997
 10
45.60732060149995
 20
16.30521614219998
 10
45.57789970939995
 20
16.31276210959998
 10
45.5487494318
 20
16.32133960799999
 10
45.51989148599996
 20
16.33093430129997
 10
45.49153358779995
 20
16.34146873239999
 10
45.463744976
 20
16.3529170825
 10
45.43645641179996
 20
16.36530517049999
 10
45.40966789529996
 20
16.37863299629998
  0
LWPOLYLINE
  5
8C4EA
330
1F
100
AcDbEntity
  8
cut
100
AcDbPolyline
 90
       25
 70
     0
 43
0.0
 10
38.69948745849998
 20
19.77125834969999
 10
38.67004914059995
 20
19.78973609409999
 10
38.64125563529997
 20
19.80872686539998
 10
38.61310694260001
 20
19.82823066339998
 10
38.58561804829999
 20
19.84824717299997
 10
38.55877396659997
 20
19.86877670929999
 10
38.53252973980001
 20
19.8898202185
 10
38.50686334649994
 20
19.91136729229998
 10
38.48179680809996
 20
19.93342833889997
 10
38.45735123059997
 20
19.95603552899999
 10
38.43352302910002
 20
19.97919144759999
 10
38.4103157885
 20
20.00289350969999
 10
38.38776136959996
 20
20.027166131
 10
38.3658608002
 20
20.05203436189999
 10
38.34461305250001
 20
20.07747315199998
 10
38.32404690279999
 20
20.10343176569998
 10
38.30417162939996
 20
20.12991698189998
 10
38.2849779541
 20
20.15692202169999
 10
38.26646681939998
 20
20.18437581369997
 10
38.24863781419999
 20
20.21227804329999
 10
38.23149134960001
 20
20.24062902509999
 10
38.2150296004
 20
20.26935863119999
 10
38.19925329149994
 20
20.29844348559999
 10
38.18416169799998
 20
20.32790696429998
 10
38.16975482
 20
20.35774906729998
  0
LWPOLYLINE
  5
8C4EB
330
1F
100
AcDbEntity
  8
cut
100
AcDbPolyline
 90
       13
 70
     0
 43
0.0
 10
34.75696166029998
 20
27.4214315605
 10
34.74552610649995
 20
27.44380898329999
 10
34.73486478729997
 20
27.46636135659997
 10
34.72497770269998
 20
27.48908868019999
 10
34.715861928
 20
27.51202076649998
 10
34.70752038790001
 20
27.5351278032
 10
34.69996185689999
 20
27.5583203537
 10
34.69318987679999
 20
27.58160009489998
 10
34.68720090579997
 20
27.6049653499
 10
34.6819930933
 20
27.62832165169999
 10
34.67756582219995
 20
27.6516375114
 10
34.67391970959996
 20
27.67494441779999
 10
34.67105475529998
 20
27.69824237099999
  0
LINE
  5
8C4EC
330
1F
100
AcDbEntity
  8
cut
100
AcDbLine
 10
35.65971696570001
 20
25.60054093529999
 30
0.0
 11
35.34860579200002
 21
26.23127253980002
 31
0.0
  0
LINE
  5
8C4ED
330
1F
100
AcDbEntity
  8
cut
100
AcDbLine
 10
35.96930776199999
 20
24.96934586789999
 30
0.0
 11
35.65971696570001
 21
25.60054093529999
 31
0.0
  0
LINE
  5
8C4EE
330
1F
100
AcDbEntity
  8
cut
100
AcDbLine
 10
35.34860579200002
 20
26.23127253980002
 30
0.0
 11
35.34087005869999
 21
26.24707547919999
 31
0.0
  0
LINE
  5
8C4EF
330
1F
100
AcDbEntity
  8
cut
100
AcDbLine
 10
36.27745564929997
 20
24.33717960199999
 30
0.0
 11
35.96930776199999
 21
24.96934586789999
 31
0.0
  0
LINE
  5
8C4F0
330
1F
100
AcDbEntity
  8
cut
100
AcDbLine
 10
36.5842425118
 20
23.70376310959998
 30
0.0
 11
36.27745564929997
 21
24.33717960199999
 31
0.0
  0
LINE
  5
8C4F1
330
1F
100
AcDbEntity
  8
cut
100
AcDbLine
 10
36.81343097589998
 20
23.22788266929999
 30
0.0
 11
36.5842425118
 21
23.70376310959998
 31
0.0
  0
LINE
  5
8C4F2
330
1F
100
AcDbEntity
  8
cut
100
AcDbLine
 10
37.04179115540004
 20
22.75133901299998
 30
0.0
 11
36.81343097589998
 21
23.22788266929999
 31
0.0
  0
LINE
  5
8C4F3
330
1F
100
AcDbEntity
  8
cut
100
AcDbLine
 10
35.34087005869999
 20
26.24707547919999
 30
0.0
 11
35.33315920359998
 21
26.2631520121
 31
0.0
  0
LWPOLYLINE
  5
8C4F4
330
1F
100
AcDbEntity
  8
cut
100
AcDbPolyline
 90
        9
 70
     0
 43
0.0
 10
35.26829451429997
 20
26.40159651129997
 10
35.20964066730001
 20
26.524902973
 10
35.14951168809997
 20
26.64942151789998
 10
35.0879371466
 20
26.77517269960001
 10
35.02488747309998
 20
26.90213596449999
 10
34.96027395770001
 20
27.03024965099999
 10
34.89406703059997
 20
27.15949320519996
 10
34.82629626159998
 20
27.28988718099998
 10
34.75696165079997
 20
27.42143157839996
  0
LINE
  5
8C4F5
330
1F
100
AcDbEntity
  8
cut
100
AcDbLine
 10
37.55644073430001
 20
21.66778074949997
 30
0.0
 11
37.04179115540004
 21
22.75133901299998
 31
0.0
  0
LINE
  5
8C4F6
330
1F
100
AcDbEntity
  8
cut
100
AcDbLine
 10
35.33315920359998
 20
26.2631520121
 30
0.0
 11
35.26829451429997
 21
26.40159651129997
 31
0.0
  0
LINE
  5
8C4F7
330
1F
100
AcDbEntity
  8
cut
100
AcDbLine
 10
37.98384602969999
 20
20.75718085219998
 30
0.0
 11
37.55644073430001
 21
21.66778074949997
 31
0.0
  0
LINE
  5
8C4F8
330
1F
100
AcDbEntity
  8
cut
100
AcDbLine
 10
38.1697548781
 20
20.35774894319999
 30
0.0
 11
37.98384602820001
 21
20.75718085539998
 31
0.0
  0
LINE
  5
8C4F9
330
1F
100
AcDbEntity
  8
cut
100
AcDbLine
 10
42.34842788139999
 20
31.7499999989
 30
0.0
 11
49.99999999999996
 21
31.7499999989
 31
0.0
  0
LINE
  5
8C4FA
330
1F
100
AcDbEntity
  8
cut
100
AcDbLine
 10
50.28917828619997
 20
22.30895211869998
 30
0.0
 11
50.13295841099997
 21
22.06010335709999
 31
0.0
  0
LINE
  5
8C4FB
330
1F
100
AcDbEntity
  8
cut
100
AcDbLine
 10
50.13295841099997
 20
22.06010335709999
 30
0.0
 11
49.99542402499999
 21
21.84205170069998
 31
0.0
  0
LINE
  5
8C4FC
330
1F
100
AcDbEntity
  8
cut
100
AcDbLine
 10
49.99542402499999
 20
21.84205170069998
 30
0.0
 11
49.8114077607
 21
21.5519225516
 31
0.0
  0
LINE
  5
8C4FD
330
1F
100
AcDbEntity
  8
cut
100
AcDbLine
 10
49.8114077607
 20
21.5519225516
 30
0.0
 11
49.62027203429997
 21
21.252344986
 31
0.0
  0
LINE
  5
8C4FE
330
1F
100
AcDbEntity
  8
cut
100
AcDbLine
 10
49.62027203429997
 20
21.252344986
 30
0.0
 11
49.42188825019997
 21
20.94341155839999
 31
0.0
  0
LINE
  5
8C4FF
330
1F
100
AcDbEntity
  8
cut
100
AcDbLine
 10
49.42188825019997
 20
20.94341155839999
 30
0.0
 11
49.21622425939997
 21
20.6251454074
 31
0.0
  0
LWPOLYLINE
  5
8C500
330
1F
100
AcDbEntity
  8
cut
100
AcDbPolyline
 90
       10
 70
     0
 43
0.0
 10
49.21622425999998
 20
20.62514540839999
 10
48.99610442329993
 20
20.28678090329998
 10
48.77478847159996
 20
19.94908138489998
 10
48.55227640519998
 20
19.61204685319998
 10
48.328598593
 20
19.27565085029999
 10
48.10372466599996
 20
18.93991983409998
 10
47.87756351669999
 20
18.6049331783
 10
47.65008477579995
 20
18.27071734059998
 10
47.42131881259996
 20
17.93724586329998
 10
47.19126562710001
 20
17.60451874629999
  0
LWPOLYLINE
  5
8C501
330
1F
100
AcDbEntity
  8
cut
100
AcDbPolyline
 90
        6
 70
     0
 43
0.0
 10
47.19126562879996
 20
17.60451874869996
 10
47.18698683070001
 20
17.59839162139997
 10
47.18264561049996
 20
17.59224183969999
 10
47.17824196829996
 20
17.58606940359999
 10
47.17377590399997
 20
17.57987431309999
 10
47.16924741769999
 20
17.57365656819999
  0
LWPOLYLINE
  5
8C502
330
1F
100
AcDbEntity
  8
cut
100
AcDbPolyline
 90
        3
 70
     0
 43
0.0
 10
46.6226146657
 20
16.82037605409999
 10
46.55163433939999
 20
16.72025486409998
 10
46.48225978439995
 20
16.62179002639999
  0
LWPOLYLINE
  5
8C503
330
1F
100
AcDbEntity
  8
cut
100
AcDbPolyline
 90
       13
 70
     0
 43
0.0
 10
46.4822597877
 20
16.62179003099999
 10
46.46831768009996
 20
16.60259657759999
 10
46.45369112329997
 20
16.5837783309
 10
46.43838011729996
 20
16.565335291
 10
46.42236915989998
 20
16.54724071889997
 10
46.40567375319995
 20
16.5295213535
 10
46.38834040419995
 20
16.51225741219997
 10
46.37036773730002
 20
16.49545172549997
 10
46.35175712819996
 20
16.47910146299998
 10
46.33255921049999
 20
16.46327835069999
 10
46.31279086219996
 20
16.4480062975
 10
46.29243520540001
 20
16.43326139459998
 10
46.2714922401
 20
16.41904364199999
  0
LWPOLYLINE
  5
8C504
330
1F
100
AcDbEntity
  8
cut
100
AcDbPolyline
 90
        7
 70
     0
 43
0.0
 10
47.16924741769999
 20
17.57365656819999
 10
47.08233891219992
 20
17.455783215
 10
47.00165130399994
 20
17.34578593769998
 10
46.92259368509996
 20
17.23742433709998
 10
46.8451741279
 20
17.1306915216
 10
46.76938456000001
 20
17.02559438279999
 10
46.6226146657
 20
16.82037605409999
  0
LINE
  5
8C505
330
1F
100
AcDbEntity
  8
cut
100
AcDbLine
 10
50.78464204689996
 20
29.56187430169999
 30
0.0
 11
50.79999999999997
 21
30.94999999890001
 31
0.0
  0
LINE
  5
8C506
330
1F
100
AcDbEntity
  8
cut
100
AcDbLine
 10
50.50599219919997
 20
23.35198122829999
 30
0.0
 11
50.49851402819998
 21
23.0323784725
 31
0.0
  0
LINE
  5
8C507
330
1F
100
AcDbEntity
  8
cut
100
AcDbLine
 10
50.78464204689996
 20
29.56187430169999
 30
0.0
 11
50.7842185729
 21
29.54397500979999
 31
0.0
  0
LINE
  5
8C508
330
1F
100
AcDbEntity
  8
cut
100
AcDbLine
 10
50.51492102459999
 20
23.66928084189999
 30
0.0
 11
50.50599219919997
 21
23.35198122829999
 31
0.0
  0
LWPOLYLINE
  5
8C509
330
1F
100
AcDbEntity
  8
cut
100
AcDbPolyline
 90
       25
 70
     0
 43
0.0
 10
50.49851402839995
 20
23.03237848159998
 10
50.49743225489994
 20
22.99917813219997
 10
50.49565714189994
 20
22.96626863559999
 10
50.49318868959996
 20
22.93364999169998
 10
50.49001635709995
 20
22.90132846619997
 10
50.48615068519996
 20
22.86929779339999
 10
50.48162329610001
 20
22.83753917719997
 10
50.47643702879994
 20
22.8060593319
 10
50.47058904429999
 20
22.77485154309997
 10
50.46410244729999
 20
22.74387687149999
 10
50.45698358129995
 20
22.71312573489999
 10
50.44922610289997
 20
22.68260771539997
 10
50.44083408599995
 20
22.65231261949998
 10
50.43181579869997
 20
22.62223274589999
 10
50.42216297299997
 20
22.59237579569998
 10
50.41185487899993
 20
22.56275467929999
 10
50.40088866199996
 20
22.5333540485
 10
50.38926717669996
 20
22.50418925149998
 10
50.37697825729999
 20
22.47531924219999
 10
50.36401881189996
 20
22.44674350669999
 10
50.35039193239994
 20
22.41846255899998
 10
50.3360947284
 20
22.39053689549999
 10
50.32112623639996
 20
22.36298668169999
 10
50.30548741989993
 20
22.33579175219998
 10
50.28917827879992
 20
22.30895210689999
  0
LINE
  5
8C50A
330
1F
100
AcDbEntity
  8
cut
100
AcDbLine
 10
50.7842185729
 20
29.54397500979999
 30
0.0
 11
50.78363789839997
 21
29.5260116483
 31
0.0
  0
LINE
  5
8C50B
330
1F
100
AcDbEntity
  8
cut
100
AcDbLine
 10
50.52526912669993
 20
23.9848350343
 30
0.0
 11
50.51492102459999
 21
23.66928084189999
 31
0.0
  0
LINE
  5
8C50C
330
1F
100
AcDbEntity
  8
cut
100
AcDbLine
 10
50.53686279199998
 20
24.29530239079998
 30
0.0
 11
50.52526912669993
 21
23.9848350343
 31
0.0
  0
LINE
  5
8C50D
330
1F
100
AcDbEntity
  8
cut
100
AcDbLine
 10
50.78363789839997
 20
29.5260116483
 30
0.0
 11
50.78290002339999
 21
29.50798421709999
 31
0.0
  0
LINE
  5
8C50E
330
1F
100
AcDbEntity
  8
cut
100
AcDbLine
 10
50.54980740639996
 20
24.60404688269998
 30
0.0
 11
50.53686279199998
 21
24.29530239079998
 31
0.0
  0
LINE
  5
8C50F
330
1F
100
AcDbEntity
  8
cut
100
AcDbLine
 10
50.78290002339999
 20
29.50798421709999
 30
0.0
 11
50.74469019099996
 21
28.67156089619999
 31
0.0
  0
LINE
  5
8C510
330
1F
100
AcDbEntity
  8
cut
100
AcDbLine
 10
50.74469019099996
 20
28.67156089619999
 30
0.0
 11
50.70377765679996
 21
27.7928181122
 31
0.0
  0
LINE
  5
8C511
330
1F
100
AcDbEntity
  8
cut
100
AcDbLine
 10
50.70377765679996
 20
27.7928181122
 30
0.0
 11
50.66238943529994
 21
26.92058412399999
 31
0.0
  0
LINE
  5
8C512
330
1F
100
AcDbEntity
  8
cut
100
AcDbLine
 10
50.56544963859995
 20
24.93903914620001
 30
0.0
 11
50.54980740639996
 21
24.60404688269998
 31
0.0
  0
LINE
  5
8C513
330
1F
100
AcDbEntity
  8
cut
100
AcDbLine
 10
50.66238943529994
 20
26.92058412399999
 30
0.0
 11
50.62215700939994
 21
26.08801413089998
 31
0.0
  0
LINE
  5
8C514
330
1F
100
AcDbEntity
  8
cut
100
AcDbLine
 10
50.62215700939994
 20
26.08801413089998
 30
0.0
 11
50.56544963859995
 21
24.93903914620001
 31
0.0
  0
ARC
  5
8C515
330
1F
100
AcDbEntity
  8
cut
100
AcDbCircle
 10
42.34842788139999
 20
29.7499999989
 30
0.0
 40
2.0
100
AcDbArc
 50
90.0
 51
106.1485852362997
  0
ARC
  5
8C516
102
{ACAD_REACTORS
330
8C519
102
}
330
1F
100
AcDbEntity
  8
cut
100
AcDbCircle
 10
49.99999999999996
 20
30.94999999890001
 30
0.0
 40
0.8
100
AcDbArc
 50
0.0
 51
90.0
  0
DIMENSION
  5
8C517
102
{ACAD_XDICTIONARY
360
8C518
102
}
102
{ACAD_REACTORS
330
8C519
102
}
330
1F
100
AcDbEntity
  8
2
100
AcDbDimension
  2
*D131010
 10
49.99999999999996
 20
30.94999999890001
 30
0.0
 11
70.73435108901207
 21
35.42094923320384
 31
0.0
 70
   164
 71
     5
 42
0.8
  3
コピー - ISO-25
100
AcDbRadialDimension
 15
50.78202589552333
 25
31.1186282845785
 35
0.0
 40
0.0
1001
ACAD
1000
DSTYLE
1002
{
1070
   170
1070
     1
1070
   171
1070
     3
1070
   143
1040
0.0393700787401575
1070
   285
1070
     4
1070
     4
1000
"
1070
   271
1070
     8
1070
    40
1040
1.0
1002
}
1001
ACAD_DSTYLE_DIMRADIAL_EXTENSION
1070
   387
1070
     1
1070
   388
1040
0.0
1070
   390
1040
1.570796326794896
1001
ACAD_DSTYLE_DIMINSPECT
1070
   396
1000

1070
   395
1000

1070
   394
1070
     1
1070
   393
1070
     0
1001
ZWMCAD_GENSTANDARDFRAME_13_
1070
   410
1000
GB
1070
   411
1000
ZwmFrameMain_
  0
VIEWPORT
  5
71
102
{ACAD_XDICTIONARY
360
87B09
102
}
330
55
100
AcDbEntity
 67
     1
  8
0
100
AcDbViewport
 10
150.1652135264906
 20
103.6581106594891
 30
0.0
 40
339.1973820494347
 41
168.6522697578383
 68
     1
 69
    -1
 12
150.1652135264906
 22
103.6581106594891
 13
0.0
 23
0.0
 14
10.0
 24
10.0
 15
10.0
 25
10.0
 16
0.0
 26
0.0
 36
1.0
 17
0.0
 27
0.0
 37
0.0
 42
50.0
 43
0.0
 44
0.0
 45
168.6522697578383
 50
0.0
 51
0.0
 72
  1000
 90
    32864
  1

281
     0
 71
     1
 74
     0
110
0.0
120
0.0
130
0.0
111
1.0
121
0.0
131
0.0
112
0.0
122
1.0
132
0.0
 79
     0
146
0.0
1001
ACAD
1000
MVIEW
1002
{
1070
    16
1010
0.0
1020
0.0
1030
0.0
1010
0.0
1020
0.0
1030
1.0
1040
0.0
1040
168.6522697578383
1040
150.1652135264906
1040
103.6581106594891
1040
50.0
1040
0.0
1040
0.0
1070
     0
1070
  1000
1070
     0
1070
     3
1070
     0
1070
     0
1070
     0
1070
     0
1040
0.0
1040
0.0
1040
0.0
1040
10.0
1040
10.0
1040
10.0
1040
10.0
1070
     0
1002
{
1002
}
1002
}
  0
VIEWPORT
  5
73
102
{ACAD_XDICTIONARY
360
87B0B
102
}
330
55
100
AcDbEntity
 67
     1
  8
0
100
AcDbViewport
 10
133.3499939441681
 20
101.5999939441681
 30
0.0
 40
213.3599903106689
 41
162.5599903106689
 68
     2
 69
    -1
 12
210.0
 22
148.5
 13
0.0
 23
0.0
 14
10.0
 24
10.0
 15
10.0
 25
10.0
 16
0.0
 26
0.0
 36
1.0
 17
0.0
 27
0.0
 37
0.0
 42
50.0
 43
0.0
 44
0.0
 45
324.0677920111345
 50
0.0
 51
0.0
 72
   100
 90
    32864
  1

281
     0
 71
     1
 74
     0
110
0.0
120
0.0
130
0.0
111
1.0
121
0.0
131
0.0
112
0.0
122
1.0
132
0.0
 79
     0
146
0.0
1001
ACAD
1000
MVIEW
1002
{
1070
    16
1010
0.0
1020
0.0
1030
0.0
1010
0.0
1020
0.0
1030
1.0
1040
0.0
1040
324.0677920111345
1040
210.0
1040
148.5
1040
50.0
1040
0.0
1040
0.0
1070
     0
1070
   100
1070
     0
1070
     3
1070
     0
1070
     0
1070
     0
1070
     0
1040
0.0
1040
0.0
1040
0.0
1040
10.0
1040
10.0
1040
10.0
1040
10.0
1070
     0
1002
{
1002
}
1002
}
  0
ENDSEC
  0
SECTION
  2
OBJECTS
  0
DICTIONARY
  5
C
330
0
100
AcDbDictionary
281
     1
  3
ACAD_2007HEADERVARS_RT
350
8C5F0
  3
ACAD_CIP_PREVIOUS_PRODUCT_INFO
350
4A3C3
  3
ACAD_COLOR
350
85
  3
ACAD_DETAILVIEWSTYLE
350
4A3BB
  3
ACAD_GROUP
350
D
  3
ACAD_LAYOUT
350
1A
  3
ACAD_MATERIAL
350
84
  3
ACAD_MLEADERSTYLE
350
4A3B7
  3
ACAD_MLINESTYLE
350
17
  3
ACAD_PLOTSETTINGS
350
19
  3
ACAD_PLOTSTYLENAME
350
E
  3
ACAD_SCALELIST
350
4A3A5
  3
ACAD_SECTIONVIEWSTYLE
350
4A3B9
  3
ACAD_TABLESTYLE
350
A1
  3
ACAD_VISUALSTYLE
350
4A38C
  3
ACDB_RECOMPOSE_DATA
350
87AFB
  3
ACDBHEADERROUNDTRIPXREC
350
8C5ED
  3
AcDbVariableDictionary
350
5E
  3
ASE_INDEX_DICTIONARY
350
349E9
  3
DWGPROPS
350
8C5F3
  0
DICTIONARY
  5
8C37C
330
8
100
AcDbDictionary
280
     1
281
     1
  3
ACAD_XREC_ROUNDTRIP
360
8C5F9
  0
DICTIONARY
  5
E2
330
2
100
AcDbDictionary
280
     1
281
     1
  3
ACAD_LAYERFILTERS
360
4A339
  3
ACAD_LAYERSTATES
360
3759A
  3
ACLYDICTIONARY
360
4A338
  0
DICTIONARY
  5
4A86C
330
10
100
AcDbDictionary
280
     1
281
     1
  3
ADSK_XREC_LAYER_RECONCILED
360
4A86D
  0
DICTIONARY
  5
4A773
330
4A772
100
AcDbDictionary
280
     1
281
     1
  3
ADSK_XREC_LAYER_RECONCILED
360
4A86E
  0
DICTIONARY
  5
4A775
330
4A774
100
AcDbDictionary
280
     1
281
     1
  3
ADSK_XREC_LAYER_RECONCILED
360
4A86F
  0
DICTIONARY
  5
4A777
330
4A776
100
AcDbDictionary
280
     1
281
     1
  3
ADSK_XREC_LAYER_RECONCILED
360
4A870
  0
DICTIONARY
  5
4A779
330
4A778
100
AcDbDictionary
280
     1
281
     1
  3
ADSK_XREC_LAYER_RECONCILED
360
4A871
  0
DICTIONARY
  5
4A77B
330
4A77A
100
AcDbDictionary
280
     1
281
     1
  3
ADSK_XREC_LAYER_RECONCILED
360
4A872
  0
DICTIONARY
  5
4A77F
330
4A77E
100
AcDbDictionary
280
     1
281
     1
  3
ADSK_XREC_LAYER_RECONCILED
360
4A874
  0
DICTIONARY
  5
4A783
330
4A782
100
AcDbDictionary
280
     1
281
     1
  3
ADSK_XREC_LAYER_RECONCILED
360
4A876
  0
DICTIONARY
  5
8C37A
330
87B52
100
AcDbDictionary
280
     1
281
     1
  3
ACAD_XREC_ROUNDTRIP
360
8C5F8
  0
DICTIONARY
  5
31EE
330
1F
100
AcDbDictionary
280
     1
281
     1
  3
ACAD_SORTENTS
360
31EF
  0
DICTIONARY
  5
4A6D7
330
4A6D6
100
AcDbDictionary
280
     1
281
     1
  3
ACAD_SORTENTS
360
4A6D8
  0
DICTIONARY
  5
87B05
330
6B
100
AcDbDictionary
280
     1
281
     1
  3
ACAD_XREC_ROUNDTRIP
360
8C5F6
  0
DICTIONARY
  5
87B07
330
6D
100
AcDbDictionary
280
     1
281
     1
  3
ACAD_XREC_ROUNDTRIP
360
8C5F7
  0
DICTIONARY
  5
8C165
330
8C164
100
AcDbDictionary
280
     1
281
     1
  3
ACAD_DIMASSOC
360
8C166
  0
DICTIONARY
  5
8C210
330
8C20F
100
AcDbDictionary
280
     1
281
     1
  3
ACAD_DIMASSOC
360
8C211
  0
DICTIONARY
  5
8C518
330
8C517
100
AcDbDictionary
280
     1
281
     1
  3
ACAD_DIMASSOC
360
8C519
  0
DICTIONARY
  5
87B09
330
71
100
AcDbDictionary
280
     1
281
     1
  3
ACAD_XREC_ROUNDTRIP
360
8C5F4
  0
DICTIONARY
  5
87B0B
330
73
100
AcDbDictionary
280
     1
281
     1
  3
ACAD_XREC_ROUNDTRIP
360
8C5F5
  0
DICTIONARY
  5
8C5F0
102
{ACAD_REACTORS
330
C
102
}
330
C
100
AcDbDictionary
281
     1
  3
DIMTFILL
350
8C5F1
  3
DIMTFILLCLR
350
8C5F2
  0
XRECORD
  5
4A3C3
102
{ACAD_REACTORS
330
C
102
}
330
C
100
AcDbXrecord
280
     1
300
ACDLT
300
2020
300

  0
DICTIONARY
  5
85
102
{ACAD_REACTORS
330
C
102
}
330
C
100
AcDbDictionary
281
     1
  0
DICTIONARY
  5
4A3BB
102
{ACAD_REACTORS
330
C
102
}
330
C
100
AcDbDictionary
281
     1
  3
Metric50
350
4A3BC
  0
DICTIONARY
  5
D
102
{ACAD_REACTORS
330
C
102
}
330
C
100
AcDbDictionary
281
     1
  0
DICTIONARY
  5
1A
102
{ACAD_REACTORS
330
C
102
}
330
C
100
AcDbDictionary
281
     1
  3
Model
350
22
  3
レイアウト1
350
51
  3
レイアウト2
350
56
  0
DICTIONARY
  5
84
102
{ACAD_REACTORS
330
C
102
}
330
C
100
AcDbDictionary
281
     1
  3
ByBlock
350
4A37C
  3
ByLayer
350
4A374
  3
Global
350
4A384
  0
DICTIONARY
  5
4A3B7
102
{ACAD_REACTORS
330
C
102
}
330
C
100
AcDbDictionary
281
     1
  3
Standard
350
4A3B8
  0
DICTIONARY
  5
17
102
{ACAD_REACTORS
330
C
102
}
330
C
100
AcDbDictionary
281
     1
  3
Standard
350
18
  0
DICTIONARY
  5
19
102
{ACAD_REACTORS
330
C
102
}
330
C
100
AcDbDictionary
281
     1
  0
ACDBDICTIONARYWDFLT
  5
E
102
{ACAD_REACTORS
330
C
102
}
330
C
100
AcDbDictionary
281
     1
  3
Normal
350
F
100
AcDbDictionaryWithDefault
340
F
  0
DICTIONARY
  5
4A3A5
102
{ACAD_REACTORS
330
C
102
}
330
C
100
AcDbDictionary
281
     1
  3
A0
350
4A3A6
  3
A1
350
4A3A7
  3
A2
350
4A3A8
  3
A3
350
4A3A9
  3
A4
350
4A3AA
  3
A5
350
4A3AB
  3
A6
350
4A3AC
  3
A7
350
4A3AD
  3
A8
350
4A3AE
  3
A9
350
4A3AF
  3
B0
350
4A3B0
  3
B1
350
4A3B1
  3
B2
350
4A3B2
  3
B3
350
4A3B3
  3
B4
350
4A3B4
  3
B5
350
4A3B5
  3
B6
350
4A3B6
  0
DICTIONARY
  5
4A3B9
102
{ACAD_REACTORS
330
C
102
}
330
C
100
AcDbDictionary
281
     1
  3
Metric50
350
4A3BA
  0
DICTIONARY
  5
A1
102
{ACAD_REACTORS
330
C
102
}
330
C
100
AcDbDictionary
281
     1
  3
Standard
350
A2
  0
DICTIONARY
  5
4A38C
102
{ACAD_REACTORS
330
C
102
}
330
C
100
AcDbDictionary
281
     1
  3
2dWireframe
350
4A392
  3
Basic
350
4A391
  3
Brighten
350
4A398
  3
ColorChange
350
4A39C
  3
Conceptual
350
4A395
  3
Dim
350
4A397
  3
EdgeColorOff
350
4A3A4
  3
Facepattern
350
4A39B
  3
Flat
350
4A38D
  3
FlatWithEdges
350
4A38E
  3
Gouraud
350
4A38F
  3
GouraudWithEdges
350
4A390
  3
Hidden
350
4A394
  3
JitterOff
350
4A3A2
  3
Linepattern
350
4A39A
  3
OverhangOff
350
4A3A3
  3
Realistic
350
4A396
  3
Shaded
350
4A3A1
  3
Shaded with edges
350
4A3A0
  3
Shades of Gray
350
4A39D
  3
Sketchy
350
4A39E
  3
Thicken
350
4A399
  3
Wireframe
350
4A393
  3
X-Ray
350
4A39F
  0
XRECORD
  5
87AFB
102
{ACAD_REACTORS
330
C
102
}
330
C
100
AcDbXrecord
280
     1
 90
        1
330
A2
  0
DICTIONARY
  5
8C5ED
102
{ACAD_REACTORS
330
C
102
}
330
C
100
AcDbDictionary
281
     1
  3
COLORDICT
350
8C5EE
  3
MATERIALDICT
350
8C5EF
  0
DICTIONARY
  5
5E
102
{ACAD_REACTORS
330
C
102
}
330
C
100
AcDbDictionary
281
     1
  3
CANNOSCALE
350
8C5EC
  3
CMLEADERSTYLE
350
4A6CE
  3
CTABLESTYLE
350
B8
  3
CVIEWDETAILSTYLE
350
4A6CF
  3
CVIEWSECTIONSTYLE
350
4A6D0
  3
DIMASSOC
350
5F
  3
HIDETEXT
350
63
  3
INDEXCTL
350
4A879
  3
LAYEREVAL
350
4A6D4
  3
LAYERNOTIFY
350
4A6D5
  3
LIGHTINGUNITS
350
4A6D3
  3
MSLTSCALE
350
4A6D1
  3
PROJECTNAME
350
31CE
  3
SORTENTS
350
4A878
  3
XCLIPFRAME
350
87AF9
  0
DICTIONARY
  5
349E9
102
{ACAD_REACTORS
330
C
102
}
330
C
100
AcDbDictionary
281
     1
  3
ASEBlockHierarchyIndexRecord
350
349EA
1001
DCO15
1040
1842496176.844
  0
XRECORD
  5
8C5F3
102
{ACAD_REACTORS
330
C
102
}
330
C
100
AcDbXrecord
280
     1
  1
DWGPROPS COOKIE
  2

  3

  4

  6

  7

  8
zhangnw
  9

300
=
301
=
302
=
303
=
304
=
305
=
306
=
307
=
308
=
309
=
 40
0.0
 41
2455489.391063368
 42
2458948.463023368
  1

 90
        0
  0
XRECORD
  5
8C5F9
102
{ACAD_REACTORS
330
8C37C
102
}
330
8C37C
100
AcDbXrecord
280
     1
102
VTR_0.000_0.000_1.000_1.000_VISUALSTYLE
340
4A392
102
VTR_0.000_0.000_1.000_1.000_GRIDDISPLAY
 70
     3
102
VTR_0.000_0.000_1.000_1.000_GRIDMAJOR
 70
     5
102
VTR_0.000_0.000_1.000_1.000_DEFAULTLIGHTING
280
     1
102
VTR_0.000_0.000_1.000_1.000_DEFAULTLIGHTINGTYPE
 70
     1
102
VTR_0.000_0.000_1.000_1.000_BRIGHTNESS
141
0.0
102
VTR_0.000_0.000_1.000_1.000_CONTRAST
142
0.0
  0
DICTIONARY
  5
4A339
102
{ACAD_REACTORS
330
E2
102
}
330
E2
100
AcDbDictionary
281
     1
  0
DICTIONARY
  5
3759A
102
{ACAD_REACTORS
330
E2
102
}
330
E2
100
AcDbDictionary
281
     1
  0
DICTIONARY
  5
4A338
102
{ACAD_REACTORS
330
E2
102
}
330
E2
100
AcDbDictionary
281
     1
1001
ACAD
1000
<All
  0
XRECORD
  5
4A86D
102
{ACAD_REACTORS
330
4A86C
102
}
330
4A86C
100
AcDbXrecord
280
     1
290
     1
  0
XRECORD
  5
4A86E
102
{ACAD_REACTORS
330
4A773
102
}
330
4A773
100
AcDbXrecord
280
     1
290
     1
  0
XRECORD
  5
4A86F
102
{ACAD_REACTORS
330
4A775
102
}
330
4A775
100
AcDbXrecord
280
     1
290
     1
  0
XRECORD
  5
4A870
102
{ACAD_REACTORS
330
4A777
102
}
330
4A777
100
AcDbXrecord
280
     1
290
     1
  0
XRECORD
  5
4A871
102
{ACAD_REACTORS
330
4A779
102
}
330
4A779
100
AcDbXrecord
280
     1
290
     1
  0
XRECORD
  5
4A872
102
{ACAD_REACTORS
330
4A77B
102
}
330
4A77B
100
AcDbXrecord
280
     1
290
     1
  0
XRECORD
  5
4A874
102
{ACAD_REACTORS
330
4A77F
102
}
330
4A77F
100
AcDbXrecord
280
     1
290
     1
  0
XRECORD
  5
4A876
102
{ACAD_REACTORS
330
4A783
102
}
330
4A783
100
AcDbXrecord
280
     1
290
     1
  0
XRECORD
  5
8C5F8
102
{ACAD_REACTORS
330
8C37A
102
}
330
8C37A
100
AcDbXrecord
280
     1
102
MATERIAL
340
4A384
  0
SORTENTSTABLE
  5
31EF
102
{ACAD_REACTORS
330
31EE
102
}
330
31EE
100
AcDbSortentsTable
330
1F
  0
SORTENTSTABLE
  5
4A6D8
102
{ACAD_REACTORS
330
4A6D7
102
}
330
4A6D7
100
AcDbSortentsTable
330
4A6D6
  0
XRECORD
  5
8C5F6
102
{ACAD_REACTORS
330
87B05
102
}
330
87B05
100
AcDbXrecord
280
     1
102
GRIDDISPLAY
 70
     0
102
GRIDMAJOR
 70
     5
102
DEFAULTLIGHTING
280
     1
102
DEFAULTLIGHTINGTYPE
 70
     1
102
BRIGHTNESS
141
0.0
102
CONTRAST
142
0.0
  0
XRECORD
  5
8C5F7
102
{ACAD_REACTORS
330
87B07
102
}
330
87B07
100
AcDbXrecord
280
     1
102
GRIDDISPLAY
 70
     0
102
GRIDMAJOR
 70
     5
102
DEFAULTLIGHTING
280
     1
102
DEFAULTLIGHTINGTYPE
 70
     1
102
BRIGHTNESS
141
0.0
102
CONTRAST
142
0.0
  0
DIMASSOC
  5
8C166
102
{ACAD_REACTORS
330
8C165
102
}
330
8C165
100
AcDbDimAssoc
330
8C164
 90
        3
 70
     0
 71
     0
  1
AcDbOsnapPointRef
 72
    13
331
8C040
 73
     2
 91
        0
 40
0.0
 10
0.0
 20
0.0
 30
1.999999999999998E+50
 75
     0
  1
AcDbOsnapPointRef
 72
    13
331
8C152
 73
     2
 91
        0
 40
0.0
 10
0.0
 20
0.0
 30
1.999999999999998E+50
 75
     0
  0
DIMASSOC
  5
8C211
102
{ACAD_REACTORS
330
8C210
102
}
330
8C210
100
AcDbDimAssoc
330
8C20F
 90
        3
 70
     0
 71
     0
  1
AcDbOsnapPointRef
 72
    13
331
8C1A3
 73
     2
 91
        0
 40
3.141592653589792
 10
0.0
 20
0.0
 30
1.999999999999998E+50
 75
     0
  1
AcDbOsnapPointRef
 72
     1
331
8C155
 73
     2
 91
        0
 40
1.0
 10
0.0
 20
0.0
 30
1.999999999999998E+50
 75
     0
  0
DIMASSOC
  5
8C519
102
{ACAD_REACTORS
330
8C518
102
}
330
8C518
100
AcDbDimAssoc
330
8C517
 90
        2
 70
     0
 71
     0
  1
AcDbOsnapPointRef
 72
     3
331
8C516
 73
     2
 91
        0
 40
0.0
 10
0.0
 20
0.0
 30
0.0
 75
     0
  0
XRECORD
  5
8C5F4
102
{ACAD_REACTORS
330
87B09
102
}
330
87B09
100
AcDbXrecord
280
     1
102
GRIDDISPLAY
 70
     0
102
GRIDMAJOR
 70
     5
102
DEFAULTLIGHTING
280
     1
102
DEFAULTLIGHTINGTYPE
 70
     1
102
BRIGHTNESS
141
0.0
102
CONTRAST
142
0.0
  0
XRECORD
  5
8C5F5
102
{ACAD_REACTORS
330
87B0B
102
}
330
87B0B
100
AcDbXrecord
280
     1
102
GRIDDISPLAY
 70
     0
102
GRIDMAJOR
 70
     5
102
DEFAULTLIGHTING
280
     1
102
DEFAULTLIGHTINGTYPE
 70
     1
102
BRIGHTNESS
141
0.0
102
CONTRAST
142
0.0
  0
XRECORD
  5
8C5F1
102
{ACAD_REACTORS
330
8C5F0
102
}
330
8C5F0
100
AcDbXrecord
280
     1
 70
     1
  0
XRECORD
  5
8C5F2
102
{ACAD_REACTORS
330
8C5F0
102
}
330
8C5F0
100
AcDbXrecord
280
     1
1004
1800000001000000000000C1000000000000000000000000
  0
ACDBDETAILVIEWSTYLE
  5
4A3BC
102
{ACAD_XDICTIONARY
360
87B40
102
}
102
{ACAD_REACTORS
330
4A3BB
102
}
330
4A3BB
100
AcDbModelDocViewStyle
 70
     0
  3
Metric50
290
     0
100
AcDbDetailViewStyle
 70
     0
 71
     0
 90
        3
 71
     1
340
11
 40
5.0
340
0
 40
5.0
300

 40
0.0
280
     1
 71
     2
340
16
 90
       25
 71
     3
340
11
 40
5.0
 90
        0
 40
15.0
 90
        1
300
%<\AcVar ViewDetailId>% (%<\AcVar ViewScale \f "%sn">%)
 71
     4
340
16
 90
       25
340
16
 90
       25
280
     0
  0
LAYOUT
  5
22
102
{ACAD_REACTORS
330
1A
102
}
330
1A
100
AcDbPlotSettings
  1

  2
none_device
  4
ANSI_A_(8.50_x_11.00_Inches)
  6

 40
6.349999904632567
 41
19.04999923706055
 42
6.350006103515625
 43
19.04998779296875
 44
215.8999938964844
 45
279.3999938964844
 46
0.0
 47
0.0
 48
0.0
 49
0.0
140
0.0
141
0.0
142
1.0
143
78.436453180766
 70
 11952
 72
     0
 73
     1
 74
     0
  7

 75
     0
147
0.0127491741332998
148
0.0
149
0.0
100
AcDbLayout
  1
Model
 70
     1
 71
     0
 10
0.0
 20
0.0
 11
12.0
 21
9.0
 12
0.0
 22
0.0
 32
0.0
 14
0.0
 24
0.0
 34
0.0
 15
0.0
 25
0.0
 35
0.0
146
0.0
 13
0.0
 23
0.0
 33
0.0
 16
1.0
 26
0.0
 36
0.0
 17
0.0
 27
1.0
 37
0.0
 76
     0
330
1F
331
4A360
  0
LAYOUT
  5
51
102
{ACAD_REACTORS
330
1A
102
}
330
1A
100
AcDbPlotSettings
  1

  2
none_device
  4
Letter_(8.50_x_11.00_Inches)
  6

 40
6.349999904632567
 41
6.349999904632567
 42
6.350006103515625
 43
6.350006103515625
 44
215.8999938964844
 45
279.3999938964844
 46
0.0
 47
0.0
 48
0.0
 49
0.0
140
0.0
141
0.0
142
1.0
143
1.0
 70
   688
 72
     1
 73
     1
 74
     5
  7

 75
    16
147
1.0
148
0.0
149
0.0
100
AcDbLayout
  1
レイアウト1
 70
     1
 71
     1
 10
-6.350006103515625
 20
-6.349999904632567
 11
273.0499877929688
 21
209.5499939918518
 12
0.0
 22
0.0
 32
0.0
 14
26.66999878883364
 24
20.31999878883365
 34
0.0
 15
240.0299890995025
 25
182.8799890995025
 35
0.0
146
0.0
 13
0.0
 23
0.0
 33
0.0
 16
1.0
 26
0.0
 36
0.0
 17
0.0
 27
1.0
 37
0.0
 76
     0
330
50
331
6B
  0
LAYOUT
  5
56
102
{ACAD_REACTORS
330
1A
102
}
330
1A
100
AcDbPlotSettings
  1

  2
none_device
  4
Letter_(8.50_x_11.00_Inches)
  6

 40
6.349999904632567
 41
6.349999904632567
 42
6.350006103515625
 43
6.350006103515625
 44
215.8999938964844
 45
279.3999938964844
 46
0.0
 47
0.0
 48
0.0
 49
0.0
140
0.0
141
0.0
142
1.0
143
1.0
 70
   688
 72
     1
 73
     1
 74
     5
  7

 75
    16
147
1.0
148
0.0
149
0.0
100
AcDbLayout
  1
レイアウト2
 70
     1
 71
     2
 10
-6.350006103515625
 20
-6.349999904632567
 11
273.0499877929688
 21
209.5499939918518
 12
0.0
 22
0.0
 32
0.0
 14
26.66999878883364
 24
20.31999878883365
 34
0.0
 15
240.0299890995025
 25
182.8799890995025
 35
0.0
146
0.0
 13
0.0
 23
0.0
 33
0.0
 16
1.0
 26
0.0
 36
0.0
 17
0.0
 27
1.0
 37
0.0
 76
     0
330
55
331
71
  0
MATERIAL
  5
4A37C
102
{ACAD_XDICTIONARY
360
4A37D
102
}
102
{ACAD_REACTORS
330
84
102
}
330
84
100
AcDbMaterial
  1
ByBlock
 72
     0
 73
     2
 43
0.0008202099737533
 43
0.0
 43
0.0
 43
0.0
 43
0.0
 43
0.0008202099737533
 43
0.0
 43
0.0
 43
0.0
 43
0.0
 43
1.0
 43
0.0
 43
0.0
 43
0.0
 43
0.0
 43
1.0
 77
     0
 78
     2
 47
0.0008202099737533
 47
0.0
 47
0.0
 47
0.0
 47
0.0
 47
0.0008202099737533
 47
0.0
 47
0.0
 47
0.0
 47
0.0
 47
1.0
 47
0.0
 47
0.0
 47
0.0
 47
0.0
 47
1.0
171
     0
172
     2
 49
0.0008202099737533
 49
0.0
 49
0.0
 49
0.0
 49
0.0
 49
0.0008202099737533
 49
0.0
 49
0.0
 49
0.0
 49
0.0
 49
1.0
 49
0.0
 49
0.0
 49
0.0
 49
0.0
 49
1.0
175
     0
176
     2
142
0.0008202099737533
142
0.0
142
0.0
142
0.0
142
0.0
142
0.0008202099737533
142
0.0
142
0.0
142
0.0
142
0.0
142
1.0
142
0.0
142
0.0
142
0.0
142
0.0
142
1.0
179
     0
270
     2
144
0.0008202099737533
144
0.0
144
0.0
144
0.0
144
0.0
144
0.0008202099737533
144
0.0
144
0.0
144
0.0
144
0.0
144
1.0
144
0.0
144
0.0
144
0.0
144
0.0
144
1.0
274
     2
147
0.0008202099737533
147
0.0
147
0.0
147
0.0
147
0.0
147
0.0008202099737533
147
0.0
147
0.0
147
0.0
147
0.0
147
1.0
147
0.0
147
0.0
147
0.0
147
0.0
147
1.0
  0
MATERIAL
  5
4A374
102
{ACAD_XDICTIONARY
360
4A375
102
}
102
{ACAD_REACTORS
330
84
102
}
330
84
100
AcDbMaterial
  1
ByLayer
 72
     0
 73
     2
 43
0.0008202099737533
 43
0.0
 43
0.0
 43
0.0
 43
0.0
 43
0.0008202099737533
 43
0.0
 43
0.0
 43
0.0
 43
0.0
 43
1.0
 43
0.0
 43
0.0
 43
0.0
 43
0.0
 43
1.0
 77
     0
 78
     2
 47
0.0008202099737533
 47
0.0
 47
0.0
 47
0.0
 47
0.0
 47
0.0008202099737533
 47
0.0
 47
0.0
 47
0.0
 47
0.0
 47
1.0
 47
0.0
 47
0.0
 47
0.0
 47
0.0
 47
1.0
171
     0
172
     2
 49
0.0008202099737533
 49
0.0
 49
0.0
 49
0.0
 49
0.0
 49
0.0008202099737533
 49
0.0
 49
0.0
 49
0.0
 49
0.0
 49
1.0
 49
0.0
 49
0.0
 49
0.0
 49
0.0
 49
1.0
175
     0
176
     2
142
0.0008202099737533
142
0.0
142
0.0
142
0.0
142
0.0
142
0.0008202099737533
142
0.0
142
0.0
142
0.0
142
0.0
142
1.0
142
0.0
142
0.0
142
0.0
142
0.0
142
1.0
179
     0
270
     2
144
0.0008202099737533
144
0.0
144
0.0
144
0.0
144
0.0
144
0.0008202099737533
144
0.0
144
0.0
144
0.0
144
0.0
144
1.0
144
0.0
144
0.0
144
0.0
144
0.0
144
1.0
274
     2
147
0.0008202099737533
147
0.0
147
0.0
147
0.0
147
0.0
147
0.0008202099737533
147
0.0
147
0.0
147
0.0
147
0.0
147
1.0
147
0.0
147
0.0
147
0.0
147
0.0
147
1.0
  0
MATERIAL
  5
4A384
102
{ACAD_XDICTIONARY
360
4A385
102
}
102
{ACAD_REACTORS
330
84
102
}
330
84
100
AcDbMaterial
  1
Global
 72
     0
 73
     2
 43
0.0008202099737533
 43
0.0
 43
0.0
 43
0.0
 43
0.0
 43
0.0008202099737533
 43
0.0
 43
0.0
 43
0.0
 43
0.0
 43
1.0
 43
0.0
 43
0.0
 43
0.0
 43
0.0
 43
1.0
 77
     0
 78
     2
 47
0.0008202099737533
 47
0.0
 47
0.0
 47
0.0
 47
0.0
 47
0.0008202099737533
 47
0.0
 47
0.0
 47
0.0
 47
0.0
 47
1.0
 47
0.0
 47
0.0
 47
0.0
 47
0.0
 47
1.0
171
     0
172
     2
 49
0.0008202099737533
 49
0.0
 49
0.0
 49
0.0
 49
0.0
 49
0.0008202099737533
 49
0.0
 49
0.0
 49
0.0
 49
0.0
 49
1.0
 49
0.0
 49
0.0
 49
0.0
 49
0.0
 49
1.0
175
     0
176
     2
142
0.0008202099737533
142
0.0
142
0.0
142
0.0
142
0.0
142
0.0008202099737533
142
0.0
142
0.0
142
0.0
142
0.0
142
1.0
142
0.0
142
0.0
142
0.0
142
0.0
142
1.0
179
     0
270
     2
144
0.0008202099737533
144
0.0
144
0.0
144
0.0
144
0.0
144
0.0008202099737533
144
0.0
144
0.0
144
0.0
144
0.0
144
1.0
144
0.0
144
0.0
144
0.0
144
0.0
144
1.0
274
     2
147
0.0008202099737533
147
0.0
147
0.0
147
0.0
147
0.0
147
0.0008202099737533
147
0.0
147
0.0
147
0.0
147
0.0
147
1.0
147
0.0
147
0.0
147
0.0
147
0.0
147
1.0
  0
MLEADERSTYLE
  5
4A3B8
102
{ACAD_XDICTIONARY
360
8C381
102
}
102
{ACAD_REACTORS
330
4A3B7
102
}
330
4A3B7
100
AcDbMLeaderStyle
170
     2
171
     1
172
     0
 90
        2
 40
0.0
 41
0.0
173
     1
 91
-1056964608
340
14
 92
       -2
290
     1
 42
2.0
291
     1
 43
0.36
  3
Standard
 44
4.0
300

342
11
174
     1
178
     6
175
     1
176
     0
 93
-1056964608
 45
4.0
292
     0
297
     0
 46
4.0
 94
-1056964608
 47
1.0
 49
1.0
140
1.0
293
     1
141
0.0
294
     1
177
     0
142
1.0
295
     0
296
     0
143
0.125
1001
ACAD_MLEADERVER
1070
     2
  0
MLINESTYLE
  5
18
102
{ACAD_REACTORS
330
17
102
}
330
17
100
AcDbMlineStyle
  2
STANDARD
 70
     0
  3

 62
   256
 51
90.0
 52
90.0
 71
     2
 49
0.5
 62
   256
  6
BYLAYER
 49
-0.5
 62
   256
  6
BYLAYER
  0
ACDBPLACEHOLDER
  5
F
102
{ACAD_REACTORS
330
E
102
}
330
E
  0
SCALE
  5
4A3A6
102
{ACAD_REACTORS
330
4A3A5
102
}
330
4A3A5
100
AcDbScale
 70
     0
300
1:1
140
1.0
141
1.0
290
     1
  0
SCALE
  5
4A3A7
102
{ACAD_REACTORS
330
4A3A5
102
}
330
4A3A5
100
AcDbScale
 70
     0
300
1:2
140
1.0
141
2.0
290
     0
  0
SCALE
  5
4A3A8
102
{ACAD_REACTORS
330
4A3A5
102
}
330
4A3A5
100
AcDbScale
 70
     0
300
1:4
140
1.0
141
4.0
290
     0
  0
SCALE
  5
4A3A9
102
{ACAD_REACTORS
330
4A3A5
102
}
330
4A3A5
100
AcDbScale
 70
     0
300
1:5
140
1.0
141
5.0
290
     0
  0
SCALE
  5
4A3AA
102
{ACAD_REACTORS
330
4A3A5
102
}
330
4A3A5
100
AcDbScale
 70
     0
300
1:8
140
1.0
141
8.0
290
     0
  0
SCALE
  5
4A3AB
102
{ACAD_REACTORS
330
4A3A5
102
}
330
4A3A5
100
AcDbScale
 70
     0
300
1:10
140
1.0
141
10.0
290
     0
  0
SCALE
  5
4A3AC
102
{ACAD_REACTORS
330
4A3A5
102
}
330
4A3A5
100
AcDbScale
 70
     0
300
1:16
140
1.0
141
16.0
290
     0
  0
SCALE
  5
4A3AD
102
{ACAD_REACTORS
330
4A3A5
102
}
330
4A3A5
100
AcDbScale
 70
     0
300
1:20
140
1.0
141
20.0
290
     0
  0
SCALE
  5
4A3AE
102
{ACAD_REACTORS
330
4A3A5
102
}
330
4A3A5
100
AcDbScale
 70
     0
300
1:30
140
1.0
141
30.0
290
     0
  0
SCALE
  5
4A3AF
102
{ACAD_REACTORS
330
4A3A5
102
}
330
4A3A5
100
AcDbScale
 70
     0
300
1:40
140
1.0
141
40.0
290
     0
  0
SCALE
  5
4A3B0
102
{ACAD_REACTORS
330
4A3A5
102
}
330
4A3A5
100
AcDbScale
 70
     0
300
1:50
140
1.0
141
50.0
290
     0
  0
SCALE
  5
4A3B1
102
{ACAD_REACTORS
330
4A3A5
102
}
330
4A3A5
100
AcDbScale
 70
     0
300
1:100
140
1.0
141
100.0
290
     0
  0
SCALE
  5
4A3B2
102
{ACAD_REACTORS
330
4A3A5
102
}
330
4A3A5
100
AcDbScale
 70
     0
300
2:1
140
2.0
141
1.0
290
     0
  0
SCALE
  5
4A3B3
102
{ACAD_REACTORS
330
4A3A5
102
}
330
4A3A5
100
AcDbScale
 70
     0
300
4:1
140
4.0
141
1.0
290
     0
  0
SCALE
  5
4A3B4
102
{ACAD_REACTORS
330
4A3A5
102
}
330
4A3A5
100
AcDbScale
 70
     0
300
8:1
140
8.0
141
1.0
290
     0
  0
SCALE
  5
4A3B5
102
{ACAD_REACTORS
330
4A3A5
102
}
330
4A3A5
100
AcDbScale
 70
     0
300
10:1
140
10.0
141
1.0
290
     0
  0
SCALE
  5
4A3B6
102
{ACAD_REACTORS
330
4A3A5
102
}
330
4A3A5
100
AcDbScale
 70
     0
300
100:1
140
100.0
141
1.0
290
     0
  0
ACDBSECTIONVIEWSTYLE
  5
4A3BA
102
{ACAD_XDICTIONARY
360
87B3E
102
}
102
{ACAD_REACTORS
330
4A3B9
102
}
330
4A3B9
100
AcDbModelDocViewStyle
 70
     0
  3
Metric50
290
     0
100
AcDbSectionViewStyle
 70
     0
 71
     0
 90
      102
 71
     1
340
11
 40
5.0
340
0
340
0
 40
5.0
300
I, O, Q, S, X, Z
 40
10.0
 90
        0
 40
2.5
 90
        0
 71
     2
340
16
 90
       25
340
16
 90
       50
 40
5.0
 40
2.5
 40
5.0
 71
     3
340
11
 40
5.0
 90
        0
 40
15.0
 90
        1
300
%<\AcVar ViewSectionStartId>%-%<\AcVar ViewSectionEndId>% (%<\AcVar ViewScale \f "%sn">%)
 71
     4
300
ANSI31
 40
1.0
 90
        0
290
     0
290
     0
 90
        6
 40
0.0
 40
1.570796326794896
 40
0.2617993877991494
 40
1.308996938995747
 40
-0.2617993877991494
 40
1.832595714594044
  0
TABLESTYLE
  5
A2
102
{ACAD_XDICTIONARY
360
4CD9A
102
}
102
{ACAD_REACTORS
330
A1
102
}
330
A1
100
AcDbTableStyle
  3
Standard
 70
     0
 71
     0
 40
1.5
 41
1.5
280
     0
281
     0
  7
Standard
140
4.5
170
     2
 62
     0
 63
   257
283
     0
274
    -2
284
     1
 64
     0
275
    -2
285
     1
 65
     0
276
    -2
286
     1
 66
     0
277
    -2
287
     1
 67
     0
278
    -2
288
     1
 68
     0
279
    -2
289
     1
 69
     0
  7
Standard
140
6.0
170
     5
 62
     0
 63
   257
283
     0
274
    -2
284
     1
 64
     0
275
    -2
285
     1
 65
     0
276
    -2
286
     1
 66
     0
277
    -2
287
     1
 67
     0
278
    -2
288
     1
 68
     0
279
    -2
289
     1
 69
     0
  7
Standard
140
4.5
170
     5
 62
     0
 63
   257
283
     0
274
    -2
284
     1
 64
     0
275
    -2
285
     1
 65
     0
276
    -2
286
     1
 66
     0
277
    -2
287
     1
 67
     0
278
    -2
288
     1
 68
     0
279
    -2
289
     1
 69
     0
  0
VISUALSTYLE
  5
4A392
102
{ACAD_XDICTIONARY
360
87B18
102
}
102
{ACAD_REACTORS
330
4A38C
102
}
330
4A38C
100
AcDbVisualStyle
  2

 70
     4
 71
     0
 72
     2
 73
     0
 90
        0
 40
-0.6
 41
-30.0
 62
     5
 63
     7
 74
     1
 91
        4
 64
     7
 65
   257
 75
     1
175
     1
 42
1.0
 92
        0
 66
   257
 43
1.0
 76
     1
 77
     6
 78
     2
 67
     7
 79
     5
170
     0
171
     0
290
     0
174
     0
 93
        1
 44
0.0
173
     0
291
     0
 45
0.0
1001
ACAD
1000
AcDbSavedByObjectVersion
1070
     0
  0
VISUALSTYLE
  5
4A391
102
{ACAD_XDICTIONARY
360
87B16
102
}
102
{ACAD_REACTORS
330
4A38C
102
}
330
4A38C
100
AcDbVisualStyle
  2

 70
     7
 71
     1
 72
     0
 73
     1
 90
        0
 40
-0.6
 41
-30.0
 62
     5
 63
     7
 74
     0
 91
        4
 64
     7
 65
   257
 75
     1
175
     1
 42
1.0
 92
        8
 66
     7
 43
1.0
 76
     1
 77
     6
 78
     2
 67
     7
 79
     5
170
     0
171
     0
290
     0
174
     0
 93
        1
 44
0.0
173
     0
291
     1
 45
0.0
1001
ACAD
1000
AcDbSavedByObjectVersion
1070
     0
  0
VISUALSTYLE
  5
4A398
102
{ACAD_XDICTIONARY
360
87B24
102
}
102
{ACAD_REACTORS
330
4A38C
102
}
330
4A38C
100
AcDbVisualStyle
  2

 70
    12
 71
     2
 72
     2
 73
     0
 90
        0
 40
-0.6
 41
-30.0
 62
     5
 63
     7
 74
     1
 91
        4
 64
     7
 65
   257
 75
     1
175
     1
 42
1.0
 92
        8
 66
     7
 43
1.0
 76
     1
 77
     6
 78
     2
 67
     7
 79
     5
170
     0
171
     0
290
     0
174
     0
 93
        1
 44
50.0
173
     0
291
     1
 45
0.0
1001
ACAD
1000
AcDbSavedByObjectVersion
1070
     0
  0
VISUALSTYLE
  5
4A39C
102
{ACAD_XDICTIONARY
360
87B2C
102
}
102
{ACAD_REACTORS
330
4A38C
102
}
330
4A38C
100
AcDbVisualStyle
  2

 70
    16
 71
     2
 72
     2
 73
     3
 90
        0
 40
-0.6
 41
-30.0
 62
     5
 63
     8
 74
     1
 91
        4
 64
     7
 65
   257
 75
     1
175
     1
 42
1.0
 92
        8
 66
     8
 43
1.0
 76
     1
 77
     6
 78
     2
 67
     7
 79
     5
170
     0
171
     0
290
     0
174
     0
 93
        1
 44
0.0
173
     0
291
     1
 45
0.0
1001
ACAD
1000
AcDbSavedByObjectVersion
1070
     0
  0
VISUALSTYLE
  5
4A395
102
{ACAD_XDICTIONARY
360
87B1E
102
}
102
{ACAD_REACTORS
330
4A38C
102
}
330
4A38C
100
AcDbVisualStyle
  2

 70
     9
 71
     3
 72
     2
 73
     0
 90
        0
 40
-0.6
 41
-30.0
 62
     5
 63
     7
 74
     2
 91
        2
 64
     7
 65
   257
 75
     1
175
     1
 42
179.0
 92
        8
 66
     7
 43
1.0
 76
     1
 77
     6
 78
     2
 67
     7
 79
     3
170
     0
171
     0
290
     0
174
     0
 93
        1
 44
0.0
173
     0
291
     0
 45
0.0
1001
ACAD
1000
AcDbSavedByObjectVersion
1070
     0
  0
VISUALSTYLE
  5
4A397
102
{ACAD_XDICTIONARY
360
87B22
102
}
102
{ACAD_REACTORS
330
4A38C
102
}
330
4A38C
100
AcDbVisualStyle
  2

 70
    11
 71
     2
 72
     2
 73
     0
 90
        0
 40
-0.6
 41
-30.0
 62
     5
 63
     7
 74
     1
 91
        4
 64
     7
 65
   257
 75
     1
175
     1
 42
1.0
 92
        8
 66
     7
 43
1.0
 76
     1
 77
     6
 78
     2
 67
     7
 79
     5
170
     0
171
     0
290
     0
174
     0
 93
        1
 44
-50.0
173
     0
291
     1
 45
0.0
1001
ACAD
1000
AcDbSavedByObjectVersion
1070
     0
  0
VISUALSTYLE
  5
4A3A4
102
{ACAD_XDICTIONARY
360
87B3C
102
}
102
{ACAD_REACTORS
330
4A38C
102
}
330
4A38C
100
AcDbVisualStyle
  2

 70
    22
 71
     2
 72
     2
 73
     0
 90
        0
 40
-0.6
 41
-30.0
 62
     5
 63
     7
 74
     1
 91
        4
 64
     7
 65
   257
 75
     1
175
     1
 42
1.0
 92
        8
 66
     7
 43
1.0
 76
     1
 77
     6
 78
     2
 67
     7
 79
     5
170
     0
171
     0
290
     0
174
     0
 93
        1
 44
0.0
173
     0
291
     1
 45
0.0
1001
ACAD
1000
AcDbSavedByObjectVersion
1070
     0
  0
VISUALSTYLE
  5
4A39B
102
{ACAD_XDICTIONARY
360
87B2A
102
}
102
{ACAD_REACTORS
330
4A38C
102
}
330
4A38C
100
AcDbVisualStyle
  2

 70
    15
 71
     2
 72
     2
 73
     0
 90
        0
 40
-0.6
 41
-30.0
 62
     5
 63
     7
 74
     1
 91
        4
 64
     7
 65
   257
 75
     1
175
     1
 42
1.0
 92
        8
 66
     7
 43
1.0
 76
     1
 77
     6
 78
     2
 67
     7
 79
     5
170
     0
171
     0
290
     0
174
     0
 93
        1
 44
0.0
173
     0
291
     1
 45
0.0
1001
ACAD
1000
AcDbSavedByObjectVersion
1070
     0
  0
VISUALSTYLE
  5
4A38D
102
{ACAD_XDICTIONARY
360
87B0E
102
}
102
{ACAD_REACTORS
330
4A38C
102
}
330
4A38C
100
AcDbVisualStyle
  2

 70
     0
 71
     2
 72
     1
 73
     1
 90
        2
 40
-0.6
 41
30.0
 62
     5
 63
     7
 74
     0
 91
        0
 64
     7
 65
   257
 75
     1
175
     1
 42
1.0
 92
        8
 66
     7
 43
1.0
 76
     1
 77
     6
 78
     2
 67
     7
 79
     5
170
     0
171
     0
290
     0
174
     0
 93
       13
 44
0.0
173
     0
291
     1
 45
0.0
1001
ACAD
1000
AcDbSavedByObjectVersion
1070
     0
  0
VISUALSTYLE
  5
4A38E
102
{ACAD_XDICTIONARY
360
87B10
102
}
102
{ACAD_REACTORS
330
4A38C
102
}
330
4A38C
100
AcDbVisualStyle
  2

 70
     1
 71
     2
 72
     1
 73
     1
 90
        2
 40
-0.6
 41
30.0
 62
     5
 63
     7
 74
     1
 91
        0
 64
     7
 65
   257
 75
     1
175
     1
 42
1.0
 92
        0
 66
   257
 43
1.0
 76
     1
 77
     6
 78
     2
 67
     7
 79
     5
170
     0
171
     0
290
     0
174
     0
 93
       13
 44
0.0
173
     0
291
     1
 45
0.0
1001
ACAD
1000
AcDbSavedByObjectVersion
1070
     0
  0
VISUALSTYLE
  5
4A38F
102
{ACAD_XDICTIONARY
360
87B12
102
}
102
{ACAD_REACTORS
330
4A38C
102
}
330
4A38C
100
AcDbVisualStyle
  2

 70
     2
 71
     2
 72
     2
 73
     1
 90
        2
 40
-0.6
 41
30.0
 62
     5
 63
     7
 74
     0
 91
        0
 64
     7
 65
   257
 75
     1
175
     1
 42
1.0
 92
        0
 66
     7
 43
1.0
 76
     1
 77
     6
 78
     2
 67
     7
 79
     5
170
     0
171
     0
290
     0
174
     0
 93
       13
 44
0.0
173
     0
291
     1
 45
0.0
1001
ACAD
1000
AcDbSavedByObjectVersion
1070
     0
  0
VISUALSTYLE
  5
4A390
102
{ACAD_XDICTIONARY
360
87B14
102
}
102
{ACAD_REACTORS
330
4A38C
102
}
330
4A38C
100
AcDbVisualStyle
  2

 70
     3
 71
     2
 72
     2
 73
     1
 90
        2
 40
-0.6
 41
30.0
 62
     5
 63
     7
 74
     1
 91
        0
 64
     7
 65
   257
 75
     1
175
     1
 42
1.0
 92
        0
 66
   257
 43
1.0
 76
     1
 77
     6
 78
     2
 67
     7
 79
     5
170
     0
171
     0
290
     0
174
     0
 93
       13
 44
0.0
173
     0
291
     1
 45
0.0
1001
ACAD
1000
AcDbSavedByObjectVersion
1070
     0
  0
VISUALSTYLE
  5
4A394
102
{ACAD_XDICTIONARY
360
87B1C
102
}
102
{ACAD_REACTORS
330
4A38C
102
}
330
4A38C
100
AcDbVisualStyle
  2

 70
     6
 71
     1
 72
     2
 73
     2
 90
        0
 40
-0.6
 41
-30.0
 62
     5
 63
     7
 74
     2
 91
        2
 64
     7
 65
   257
 75
     2
175
     1
 42
40.0
 92
        0
 66
   257
 43
1.0
 76
     1
 77
     6
 78
     2
 67
     7
 79
     3
170
     0
171
     0
290
     0
174
     0
 93
        1
 44
0.0
173
     0
291
     0
 45
0.0
1001
ACAD
1000
AcDbSavedByObjectVersion
1070
     0
  0
VISUALSTYLE
  5
4A3A2
102
{ACAD_XDICTIONARY
360
87B38
102
}
102
{ACAD_REACTORS
330
4A38C
102
}
330
4A38C
100
AcDbVisualStyle
  2

 70
    20
 71
     2
 72
     2
 73
     0
 90
        0
 40
-0.6
 41
-30.0
 62
     5
 63
     7
 74
     1
 91
        4
 64
     7
 65
   257
 75
     1
175
     1
 42
1.0
 92
       10
 66
     7
 43
1.0
 76
     1
 77
     6
 78
     2
 67
     7
 79
     5
170
     0
171
     0
290
     0
174
     0
 93
        1
 44
0.0
173
     0
291
     1
 45
0.0
1001
ACAD
1000
AcDbSavedByObjectVersion
1070
     0
  0
VISUALSTYLE
  5
4A39A
102
{ACAD_XDICTIONARY
360
87B28
102
}
102
{ACAD_REACTORS
330
4A38C
102
}
330
4A38C
100
AcDbVisualStyle
  2

 70
    14
 71
     2
 72
     2
 73
     0
 90
        0
 40
-0.6
 41
-30.0
 62
     5
 63
     7
 74
     1
 91
        4
 64
     7
 65
   257
 75
     7
175
     7
 42
1.0
 92
        8
 66
     7
 43
1.0
 76
     1
 77
     6
 78
     2
 67
     7
 79
     5
170
     0
171
     0
290
     0
174
     0
 93
        1
 44
0.0
173
     0
291
     1
 45
0.0
1001
ACAD
1000
AcDbSavedByObjectVersion
1070
     0
  0
VISUALSTYLE
  5
4A3A3
102
{ACAD_XDICTIONARY
360
87B3A
102
}
102
{ACAD_REACTORS
330
4A38C
102
}
330
4A38C
100
AcDbVisualStyle
  2

 70
    21
 71
     2
 72
     2
 73
     0
 90
        0
 40
-0.6
 41
-30.0
 62
     5
 63
     7
 74
     1
 91
        4
 64
     7
 65
   257
 75
     1
175
     1
 42
1.0
 92
        9
 66
     7
 43
1.0
 76
     1
 77
     6
 78
     2
 67
     7
 79
     5
170
     0
171
     0
290
     0
174
     0
 93
        1
 44
0.0
173
     0
291
     1
 45
0.0
1001
ACAD
1000
AcDbSavedByObjectVersion
1070
     0
  0
VISUALSTYLE
  5
4A396
102
{ACAD_XDICTIONARY
360
87B20
102
}
102
{ACAD_REACTORS
330
4A38C
102
}
330
4A38C
100
AcDbVisualStyle
  2

 70
     8
 71
     2
 72
     3
 73
     0
 90
        2
 40
-0.6
 41
30.0
 62
     5
 63
     7
 74
     0
 91
        0
 64
     7
 65
   257
 75
     1
175
     1
 42
1.0
 92
        8
 66
   257
 43
1.0
 76
     1
 77
     6
 78
     2
 67
     7
 79
     3
170
     0
171
     0
290
     0
174
     0
 93
       13
 44
0.0
173
     0
291
     0
 45
0.0
1001
ACAD
1000
AcDbSavedByObjectVersion
1070
     0
  0
VISUALSTYLE
  5
4A3A1
102
{ACAD_XDICTIONARY
360
87B36
102
}
102
{ACAD_REACTORS
330
4A38C
102
}
330
4A38C
100
AcDbVisualStyle
  2

 70
    27
 71
     2
 72
     2
 73
     1
 90
        2
 40
-0.6
 41
30.0
 62
     5
 63
     7
 74
     0
 91
        4
 64
     7
 65
   257
 75
     1
175
     1
 42
1.0
 92
        8
 66
   257
 43
1.0
 76
     1
 77
     6
 78
     2
 67
     8
 79
     3
170
     0
171
     0
290
     0
174
     0
 93
        5
 44
0.0
173
     0
291
     0
 45
0.0
1001
ACAD
1000
AcDbSavedByObjectVersion
1070
     0
  0
VISUALSTYLE
  5
4A3A0
102
{ACAD_XDICTIONARY
360
87B34
102
}
102
{ACAD_REACTORS
330
4A38C
102
}
330
4A38C
100
AcDbVisualStyle
  2

 70
    26
 71
     2
 72
     2
 73
     1
 90
        2
 40
-0.6
 41
30.0
 62
     5
 63
     7
 74
     1
 91
        2
 64
     7
 65
   257
 75
     2
175
     1
 42
1.0
 92
        8
 66
   257
 43
1.0
 76
     1
 77
     6
 78
     2
 67
     7
 79
     3
170
     0
171
     0
290
     0
174
     0
 93
        5
 44
0.0
173
     0
291
     0
 45
0.0
1001
ACAD
1000
AcDbSavedByObjectVersion
1070
     0
  0
VISUALSTYLE
  5
4A39D
102
{ACAD_XDICTIONARY
360
87B2E
102
}
102
{ACAD_REACTORS
330
4A38C
102
}
330
4A38C
100
AcDbVisualStyle
  2

 70
    23
 71
     2
 72
     2
 73
     3
 90
        0
 40
-0.6
 41
-30.0
 62
     5
 63
     7
 74
     2
 91
        2
 64
     7
 65
     7
 75
     1
175
     1
 42
40.0
 92
        8
 66
     7
 43
1.0
 76
     1
 77
     6
 78
     2
 67
     7
 79
     3
170
     0
171
     0
290
     0
174
     0
 93
        1
 44
0.0
173
     0
291
     0
 45
0.0
1001
ACAD
1000
AcDbSavedByObjectVersion
1070
     0
  0
VISUALSTYLE
  5
4A39E
102
{ACAD_XDICTIONARY
360
87B30
102
}
102
{ACAD_REACTORS
330
4A38C
102
}
330
4A38C
100
AcDbVisualStyle
  2

 70
    24
 71
     1
 72
     2
 73
     2
 90
        0
 40
-0.6
 41
-30.0
 62
     5
 63
     7
 74
     2
 91
        2
 64
     7
 65
     7
 75
     1
175
     1
 42
40.0
 92
       11
 66
     7
 43
1.0
 76
     1
 77
     6
 78
     2
 67
     7
 79
     6
170
     0
171
     0
290
     0
174
     0
 93
        1
 44
0.0
173
     0
291
     0
 45
0.0
1001
ACAD
1000
AcDbSavedByObjectVersion
1070
     0
  0
VISUALSTYLE
  5
4A399
102
{ACAD_XDICTIONARY
360
87B26
102
}
102
{ACAD_REACTORS
330
4A38C
102
}
330
4A38C
100
AcDbVisualStyle
  2

 70
    13
 71
     2
 72
     2
 73
     0
 90
        0
 40
-0.6
 41
-30.0
 62
     5
 63
     7
 74
     1
 91
        4
 64
     7
 65
   257
 75
     1
175
     1
 42
1.0
 92
       12
 66
     7
 43
1.0
 76
     1
 77
     6
 78
     2
 67
     7
 79
     5
170
     0
171
     0
290
     0
174
     0
 93
        1
 44
0.0
173
     0
291
     1
 45
0.0
1001
ACAD
1000
AcDbSavedByObjectVersion
1070
     0
  0
VISUALSTYLE
  5
4A393
102
{ACAD_XDICTIONARY
360
87B1A
102
}
102
{ACAD_REACTORS
330
4A38C
102
}
330
4A38C
100
AcDbVisualStyle
  2

 70
     5
 71
     0
 72
     2
 73
     0
 90
        0
 40
-0.6
 41
-30.0
 62
     5
 63
     7
 74
     1
 91
        4
 64
     7
 65
   257
 75
     1
175
     1
 42
1.0
 92
        0
 66
   257
 43
1.0
 76
     1
 77
     6
 78
     2
 67
     7
 79
     3
170
     0
171
     0
290
     0
174
     0
 93
        1
 44
0.0
173
     0
291
     0
 45
0.0
1001
ACAD
1000
AcDbSavedByObjectVersion
1070
     0
  0
VISUALSTYLE
  5
4A39F
102
{ACAD_XDICTIONARY
360
87B32
102
}
102
{ACAD_REACTORS
330
4A38C
102
}
330
4A38C
100
AcDbVisualStyle
  2

 70
    25
 71
     2
 72
     2
 73
     1
 90
        1
 40
0.5
 41
-30.0
 62
     5
 63
     7
 74
     1
 91
        0
 64
     7
 65
   257
 75
     1
175
     1
 42
1.0
 92
        8
 66
     7
 43
1.0
 76
     1
 77
     6
 78
     2
 67
     7
 79
     3
170
     0
171
     0
290
     0
174
     0
 93
       13
 44
0.0
173
     0
291
     0
 45
0.0
1001
ACAD
1000
AcDbSavedByObjectVersion
1070
     0
  0
XRECORD
  5
8C5EE
102
{ACAD_REACTORS
330
8C5ED
102
}
330
8C5ED
100
AcDbXrecord
280
     1
340
85
  0
XRECORD
  5
8C5EF
102
{ACAD_REACTORS
330
8C5ED
102
}
330
8C5ED
100
AcDbXrecord
280
     1
340
84
  0
DICTIONARYVAR
  5
8C5EC
102
{ACAD_REACTORS
330
5E
102
}
330
5E
100
DictionaryVariables
280
   100
  1
1:1
  0
DICTIONARYVAR
  5
4A6CE
102
{ACAD_REACTORS
330
5E
102
}
330
5E
100
DictionaryVariables
280
     0
  1
STANDARD
  0
DICTIONARYVAR
  5
B8
102
{ACAD_REACTORS
330
5E
102
}
330
5E
100
DictionaryVariables
280
     0
  1
STANDARD
  0
DICTIONARYVAR
  5
4A6CF
102
{ACAD_REACTORS
330
5E
102
}
330
5E
100
DictionaryVariables
280
     0
  1
Metric50
  0
DICTIONARYVAR
  5
4A6D0
102
{ACAD_REACTORS
330
5E
102
}
330
5E
100
DictionaryVariables
280
     0
  1
Metric50
  0
DICTIONARYVAR
  5
5F
102
{ACAD_REACTORS
330
5E
102
}
330
5E
100
DictionaryVariables
280
     0
  1
2
  0
DICTIONARYVAR
  5
63
102
{ACAD_REACTORS
330
5E
102
}
330
5E
100
DictionaryVariables
280
     0
  1
1
  0
DICTIONARYVAR
  5
4A879
102
{ACAD_REACTORS
330
5E
102
}
330
5E
100
DictionaryVariables
280
     0
  1
0
  0
DICTIONARYVAR
  5
4A6D4
102
{ACAD_REACTORS
330
5E
102
}
330
5E
100
DictionaryVariables
280
     0
  1
1
  0
DICTIONARYVAR
  5
4A6D5
102
{ACAD_REACTORS
330
5E
102
}
330
5E
100
DictionaryVariables
280
     0
  1
15
  0
DICTIONARYVAR
  5
4A6D3
102
{ACAD_REACTORS
330
5E
102
}
330
5E
100
DictionaryVariables
280
     0
  1
0
  0
DICTIONARYVAR
  5
4A6D1
102
{ACAD_REACTORS
330
5E
102
}
330
5E
100
DictionaryVariables
280
     0
  1
0
  0
DICTIONARYVAR
  5
31CE
102
{ACAD_REACTORS
330
5E
102
}
330
5E
100
DictionaryVariables
280
     0
  1

  0
DICTIONARYVAR
  5
4A878
102
{ACAD_REACTORS
330
5E
102
}
330
5E
100
DictionaryVariables
280
     0
  1
127
  0
DICTIONARYVAR
  5
87AF9
102
{ACAD_REACTORS
330
5E
102
}
330
5E
100
DictionaryVariables
280
     0
  1
2
  0
XRECORD
  5
349EA
102
{ACAD_REACTORS
330
349E9
102
}
330
349E9
100
AcDbXrecord
280
     1
330
0
330
0
330
0
330
0
330
0
330
0
330
0
330
0
330
0
330
0
330
0
330
0
330
0
330
0
330
0
330
0
330
0
330
0
330
0
330
0
330
0
330
0
330
0
330
0
330
0
330
0
330
0
330
0
330
0
330
0
330
0
330
0
330
0
330
0
330
0
330
0
330
0
330
0
330
0
330
0
330
0
330
0
330
0
330
0
330
0
330
0
330
0
330
0
330
0
330
0
330
0
330
0
330
0
330
0
330
0
330
0
330
0
330
0
330
0
330
0
330
0
330
0
330
0
330
0
330
0
330
0
330
0
330
0
330
0
330
0
330
0
330
0
330
0
330
0
330
0
330
0
330
0
330
0
330
0
330
0
330
0
330
0
330
0
330
0
330
0
330
0
330
0
330
0
330
0
330
0
330
0
330
0
330
0
330
0
330
0
330
0
330
0
330
0
330
0
330
0
330
0
330
0
330
0
330
0
330
0
330
0
330
0
330
0
330
0
330
0
  0
DICTIONARY
  5
87B40
330
4A3BC
100
AcDbDictionary
280
     1
281
     1
  3
ACAD_XREC_ROUNDTRIP
360
87B41
  0
DICTIONARY
  5
4A37D
330
4A37C
100
AcDbDictionary
280
     1
281
     1
  3
ACAD_XREC_ROUNDTRIP
360
8C5FA
  0
DICTIONARY
  5
4A375
330
4A374
100
AcDbDictionary
280
     1
281
     1
  3
ACAD_XREC_ROUNDTRIP
360
8C5FB
  0
DICTIONARY
  5
4A385
330
4A384
100
AcDbDictionary
280
     1
281
     1
  3
ACAD_XREC_ROUNDTRIP
360
8C5FC
  0
DICTIONARY
  5
8C381
330
4A3B8
100
AcDbDictionary
280
     1
281
     1
  3
ACAD_XREC_ROUNDTRIP
360
8C5FD
  0
DICTIONARY
  5
87B3E
330
4A3BA
100
AcDbDictionary
280
     1
281
     1
  3
ACAD_XREC_ROUNDTRIP
360
87B3F
  0
DICTIONARY
  5
4CD9A
330
A2
100
AcDbDictionary
280
     1
281
     1
  3
ACAD_ROUNDTRIP_2008_TABLESTYLE_CELLSTYLEMAP
360
8C5FF
  3
ACAD_XREC_ROUNDTRIP
360
8C5FE
  0
DICTIONARY
  5
87B18
330
4A392
100
AcDbDictionary
280
     1
281
     1
  3
ACAD_XREC_ROUNDTRIP
360
8C600
  0
DICTIONARY
  5
87B16
330
4A391
100
AcDbDictionary
280
     1
281
     1
  3
ACAD_XREC_ROUNDTRIP
360
8C601
  0
DICTIONARY
  5
87B24
330
4A398
100
AcDbDictionary
280
     1
281
     1
  3
ACAD_XREC_ROUNDTRIP
360
8C602
  0
DICTIONARY
  5
87B2C
330
4A39C
100
AcDbDictionary
280
     1
281
     1
  3
ACAD_XREC_ROUNDTRIP
360
8C603
  0
DICTIONARY
  5
87B1E
330
4A395
100
AcDbDictionary
280
     1
281
     1
  3
ACAD_XREC_ROUNDTRIP
360
8C604
  0
DICTIONARY
  5
87B22
330
4A397
100
AcDbDictionary
280
     1
281
     1
  3
ACAD_XREC_ROUNDTRIP
360
8C605
  0
DICTIONARY
  5
87B3C
330
4A3A4
100
AcDbDictionary
280
     1
281
     1
  3
ACAD_XREC_ROUNDTRIP
360
8C606
  0
DICTIONARY
  5
87B2A
330
4A39B
100
AcDbDictionary
280
     1
281
     1
  3
ACAD_XREC_ROUNDTRIP
360
8C607
  0
DICTIONARY
  5
87B0E
330
4A38D
100
AcDbDictionary
280
     1
281
     1
  3
ACAD_XREC_ROUNDTRIP
360
8C608
  0
DICTIONARY
  5
87B10
330
4A38E
100
AcDbDictionary
280
     1
281
     1
  3
ACAD_XREC_ROUNDTRIP
360
8C609
  0
DICTIONARY
  5
87B12
330
4A38F
100
AcDbDictionary
280
     1
281
     1
  3
ACAD_XREC_ROUNDTRIP
360
8C60A
  0
DICTIONARY
  5
87B14
330
4A390
100
AcDbDictionary
280
     1
281
     1
  3
ACAD_XREC_ROUNDTRIP
360
8C60B
  0
DICTIONARY
  5
87B1C
330
4A394
100
AcDbDictionary
280
     1
281
     1
  3
ACAD_XREC_ROUNDTRIP
360
8C60C
  0
DICTIONARY
  5
87B38
330
4A3A2
100
AcDbDictionary
280
     1
281
     1
  3
ACAD_XREC_ROUNDTRIP
360
8C60D
  0
DICTIONARY
  5
87B28
330
4A39A
100
AcDbDictionary
280
     1
281
     1
  3
ACAD_XREC_ROUNDTRIP
360
8C60E
  0
DICTIONARY
  5
87B3A
330
4A3A3
100
AcDbDictionary
280
     1
281
     1
  3
ACAD_XREC_ROUNDTRIP
360
8C60F
  0
DICTIONARY
  5
87B20
330
4A396
100
AcDbDictionary
280
     1
281
     1
  3
ACAD_XREC_ROUNDTRIP
360
8C610
  0
DICTIONARY
  5
87B36
330
4A3A1
100
AcDbDictionary
280
     1
281
     1
  3
ACAD_XREC_ROUNDTRIP
360
8C611
  0
DICTIONARY
  5
87B34
330
4A3A0
100
AcDbDictionary
280
     1
281
     1
  3
ACAD_XREC_ROUNDTRIP
360
8C612
  0
DICTIONARY
  5
87B2E
330
4A39D
100
AcDbDictionary
280
     1
281
     1
  3
ACAD_XREC_ROUNDTRIP
360
8C613
  0
DICTIONARY
  5
87B30
330
4A39E
100
AcDbDictionary
280
     1
281
     1
  3
ACAD_XREC_ROUNDTRIP
360
8C614
  0
DICTIONARY
  5
87B26
330
4A399
100
AcDbDictionary
280
     1
281
     1
  3
ACAD_XREC_ROUNDTRIP
360
8C615
  0
DICTIONARY
  5
87B1A
330
4A393
100
AcDbDictionary
280
     1
281
     1
  3
ACAD_XREC_ROUNDTRIP
360
8C616
  0
DICTIONARY
  5
87B32
330
4A39F
100
AcDbDictionary
280
     1
281
     1
  3
ACAD_XREC_ROUNDTRIP
360
8C617
  0
XRECORD
  5
87B41
102
{ACAD_REACTORS
330
87B40
102
}
330
87B40
100
AcDbXrecord
280
     1
102
DISPLAYNAME
  1
Metric50
102
FLAGS
 90
        0
  0
XRECORD
  5
8C5FA
102
{ACAD_REACTORS
330
4A37D
102
}
330
4A37D
100
AcDbXrecord
280
     1
102
MATERIAL
148
0.0
149
0.0
149
0.0
 93
        0
 94
      127
282
     0
 72
     0
 77
     0
171
     0
175
     0
179
     0
273
     0
  0
XRECORD
  5
8C5FB
102
{ACAD_REACTORS
330
4A375
102
}
330
4A375
100
AcDbXrecord
280
     1
102
MATERIAL
148
0.0
149
0.0
149
0.0
 93
        0
 94
      127
282
     0
 72
     0
 77
     0
171
     0
175
     0
179
     0
273
     0
  0
XRECORD
  5
8C5FC
102
{ACAD_REACTORS
330
4A385
102
}
330
4A385
100
AcDbXrecord
280
     1
102
MATERIAL
148
0.0
149
0.0
149
0.0
 93
        0
 94
      127
282
     0
 72
     0
 77
     0
171
     0
175
     0
179
     0
273
     0
  0
XRECORD
  5
8C5FD
102
{ACAD_REACTORS
330
8C381
102
}
330
8C381
100
AcDbXrecord
280
     1
102
ACAD_ROUNDTRIP_2010_MLEADER_STYLE
  0
XRECORD
  5
87B3F
102
{ACAD_REACTORS
330
87B3E
102
}
330
87B3E
100
AcDbXrecord
280
     1
102
DISPLAYNAME
  1
Metric50
102
FLAGS
 90
        0
  0
CELLSTYLEMAP
  5
8C5FF
102
{ACAD_REACTORS
330
4CD9A
102
}
330
4CD9A
100
AcDbCellStyleMap
 90
        3
300
CELLSTYLE
  1
TABLEFORMAT_BEGIN
 90
        5
170
     1
 91
        0
 92
    32768
 62
   257
 93
        1
300
CONTENTFORMAT
  1
CONTENTFORMAT_BEGIN
 90
        0
 91
        0
 92
        4
 93
        0
300

 40
0.0
140
1.0
 94
        5
 62
     0
340
11
144
6.0
309
CONTENTFORMAT_END
171
     1
301
MARGIN
  1
CELLMARGIN_BEGIN
 40
1.5
 40
1.5
 40
1.5
 40
1.5
 40
0.18
 40
0.18
309
CELLMARGIN_END
 94
        6
 95
        1
302
GRIDFORMAT
  1
GRIDFORMAT_BEGIN
 90
        0
 91
        1
 62
     0
 92
       -2
340
0
 93
        0
 40
0.045
309
GRIDFORMAT_END
 95
        2
302
GRIDFORMAT
  1
GRIDFORMAT_BEGIN
 90
        0
 91
        1
 62
     0
 92
       -2
340
0
 93
        0
 40
0.045
309
GRIDFORMAT_END
 95
        4
302
GRIDFORMAT
  1
GRIDFORMAT_BEGIN
 90
        0
 91
        1
 62
     0
 92
       -2
340
0
 93
        0
 40
0.045
309
GRIDFORMAT_END
 95
        8
302
GRIDFORMAT
  1
GRIDFORMAT_BEGIN
 90
        0
 91
        1
 62
     0
 92
       -2
340
0
 93
        0
 40
0.045
309
GRIDFORMAT_END
 95
       16
302
GRIDFORMAT
  1
GRIDFORMAT_BEGIN
 90
        0
 91
        1
 62
     0
 92
       -2
340
0
 93
        0
 40
0.045
309
GRIDFORMAT_END
 95
       32
302
GRIDFORMAT
  1
GRIDFORMAT_BEGIN
 90
        0
 91
        1
 62
     0
 92
       -2
340
0
 93
        0
 40
0.045
309
GRIDFORMAT_END
309
TABLEFORMAT_END
  1
CELLSTYLE_BEGIN
 90
        1
 91
        1
300
_TITLE
309
CELLSTYLE_END
300
CELLSTYLE
  1
TABLEFORMAT_BEGIN
 90
        5
170
     1
 91
        0
 92
        0
 62
   257
 93
        1
300
CONTENTFORMAT
  1
CONTENTFORMAT_BEGIN
 90
        0
 91
        0
 92
        4
 93
        0
300

 40
0.0
140
1.0
 94
        5
 62
     0
340
11
144
4.5
309
CONTENTFORMAT_END
171
     1
301
MARGIN
  1
CELLMARGIN_BEGIN
 40
1.5
 40
1.5
 40
1.5
 40
1.5
 40
0.18
 40
0.18
309
CELLMARGIN_END
 94
        6
 95
        1
302
GRIDFORMAT
  1
GRIDFORMAT_BEGIN
 90
        0
 91
        1
 62
     0
 92
       -2
340
0
 93
        0
 40
0.045
309
GRIDFORMAT_END
 95
        2
302
GRIDFORMAT
  1
GRIDFORMAT_BEGIN
 90
        0
 91
        1
 62
     0
 92
       -2
340
0
 93
        0
 40
0.045
309
GRIDFORMAT_END
 95
        4
302
GRIDFORMAT
  1
GRIDFORMAT_BEGIN
 90
        0
 91
        1
 62
     0
 92
       -2
340
0
 93
        0
 40
0.045
309
GRIDFORMAT_END
 95
        8
302
GRIDFORMAT
  1
GRIDFORMAT_BEGIN
 90
        0
 91
        1
 62
     0
 92
       -2
340
0
 93
        0
 40
0.045
309
GRIDFORMAT_END
 95
       16
302
GRIDFORMAT
  1
GRIDFORMAT_BEGIN
 90
        0
 91
        1
 62
     0
 92
       -2
340
0
 93
        0
 40
0.045
309
GRIDFORMAT_END
 95
       32
302
GRIDFORMAT
  1
GRIDFORMAT_BEGIN
 90
        0
 91
        1
 62
     0
 92
       -2
340
0
 93
        0
 40
0.045
309
GRIDFORMAT_END
309
TABLEFORMAT_END
  1
CELLSTYLE_BEGIN
 90
        2
 91
        1
300
_HEADER
309
CELLSTYLE_END
300
CELLSTYLE
  1
TABLEFORMAT_BEGIN
 90
        5
170
     1
 91
        0
 92
        0
 62
   257
 93
        1
300
CONTENTFORMAT
  1
CONTENTFORMAT_BEGIN
 90
        0
 91
        0
 92
        4
 93
        0
300

 40
0.0
140
1.0
 94
        2
 62
     0
340
11
144
4.5
309
CONTENTFORMAT_END
171
     1
301
MARGIN
  1
CELLMARGIN_BEGIN
 40
1.5
 40
1.5
 40
1.5
 40
1.5
 40
0.18
 40
0.18
309
CELLMARGIN_END
 94
        6
 95
        1
302
GRIDFORMAT
  1
GRIDFORMAT_BEGIN
 90
        0
 91
        1
 62
     0
 92
       -2
340
0
 93
        0
 40
0.045
309
GRIDFORMAT_END
 95
        2
302
GRIDFORMAT
  1
GRIDFORMAT_BEGIN
 90
        0
 91
        1
 62
     0
 92
       -2
340
0
 93
        0
 40
0.045
309
GRIDFORMAT_END
 95
        4
302
GRIDFORMAT
  1
GRIDFORMAT_BEGIN
 90
        0
 91
        1
 62
     0
 92
       -2
340
0
 93
        0
 40
0.045
309
GRIDFORMAT_END
 95
        8
302
GRIDFORMAT
  1
GRIDFORMAT_BEGIN
 90
        0
 91
        1
 62
     0
 92
       -2
340
0
 93
        0
 40
0.045
309
GRIDFORMAT_END
 95
       16
302
GRIDFORMAT
  1
GRIDFORMAT_BEGIN
 90
        0
 91
        1
 62
     0
 92
       -2
340
0
 93
        0
 40
0.045
309
GRIDFORMAT_END
 95
       32
302
GRIDFORMAT
  1
GRIDFORMAT_BEGIN
 90
        0
 91
        1
 62
     0
 92
       -2
340
0
 93
        0
 40
0.045
309
GRIDFORMAT_END
309
TABLEFORMAT_END
  1
CELLSTYLE_BEGIN
 90
        3
 91
        2
300
_DATA
309
CELLSTYLE_END
  0
XRECORD
  5
8C5FE
102
{ACAD_REACTORS
330
4CD9A
102
}
330
4CD9A
100
AcDbXrecord
280
     1
102
ACAD_ROUNDTRIP_PRE2007_TABLESTYLE
 90
        4
 91
        0
  1

 92
        4
 93
        0
  2

 94
        4
 95
        0
  3

  0
XRECORD
  5
8C600
102
{ACAD_REACTORS
330
87B18
102
}
330
87B18
100
AcDbXrecord
280
     1
102
RTVSPropertyOp0
 70
     1
102
RTVSPropertyOp1
 70
     1
102
RTVSPropertyOp2
 70
     1
102
RTVSPropertyOp3
 70
     1
102
RTVSPropertyOp4
 70
     1
102
RTVSPropertyOp5
 70
     1
102
RTVSPropertyOp6
 70
     1
102
RTVSPropertyOp7
 70
     1
102
RTVSPropertyOp8
 70
     1
102
RTVSPropertyOp9
 70
     1
102
RTVSPropertyOp10
 70
     1
102
RTVSPropertyOp11
 70
     1
102
RTVSPropertyOp12
 70
     1
102
RTVSPropertyOp13
 70
     1
102
RTVSPropertyOp14
 70
     1
102
RTVSPropertyOp15
 70
     1
102
RTVSPropertyOp16
 70
     1
102
RTVSPropertyOp17
 70
     1
102
RTVSPropertyOp18
 70
     1
102
RTVSPropertyOp19
 70
     1
102
RTVSPropertyOp20
 70
     1
102
RTVSPropertyOp21
 70
     1
102
RTVSPropertyOp22
 70
     1
102
RTVSPropertyOp23
 70
     1
102
RTVSPropertyOp24
 70
     1
102
RTVSPropertyOp25
 70
     1
102
RTVSPropertyOp26
 70
     1
102
RTVSPropertyOp27
 70
     1
102
RTVSPropertyOp28
 70
     1
102
RTVSPropertyOp29
 70
     1
102
RTVSPropertyOp30
 70
     1
102
RTVSPropertyOp31
 70
     1
102
RTVSPropertyOp32
 70
     1
102
RTVSPropertyOp33
 70
     1
102
RTVSPropertyOp34
 70
     1
102
RTVSPropertyOp35
 70
     1
102
RTVSPropertyOp36
 70
     1
102
RTVSPropertyOp37
 70
     1
102
RTVSPropertyOp38
 70
     1
102
RTVSPropertyOp39
 70
     1
102
RTVSPropertyOp40
 70
     1
102
RTVSPropertyOp41
 70
     1
102
RTVSPropertyOp42
 70
     1
102
RTVSPropertyOp43
 70
     1
102
RTVSPropertyOp44
 70
     1
102
RTVSPropertyOp45
 70
     1
102
RTVSPropertyOp46
 70
     1
102
RTVSPropertyOp47
 70
     1
102
RTVSPropertyOp48
 70
     1
102
RTVSPropertyOp49
 70
     1
102
RTVSPropertyOp50
 70
     1
102
RTVSPropertyOp51
 70
     0
102
RTVSPropertyOp52
 70
     0
102
RTVSPropertyOp53
 70
     1
102
RTVSPropertyOp54
 70
     1
102
RTVSPropertyOp55
 70
     1
102
RTVSPropertyOp56
 70
     1
102
RTVSPropertyOp57
 70
     1
102
RTVSPost2010Prop28
280
     1
102
RTVSPost2010PropOp28
 70
     1
102
RTVSPost2010Prop29
280
     1
102
RTVSPost2010PropOp29
 70
     1
102
RTVSPost2010Prop30
280
     0
102
RTVSPost2010PropOp30
 70
     1
102
RTVSPost2010Prop31
280
     0
102
RTVSPost2010PropOp31
 70
     1
102
RTVSPost2010Prop32
280
     0
102
RTVSPost2010PropOp32
 70
     1
102
RTVSPost2010Prop33
280
     0
102
RTVSPost2010PropOp33
 70
     1
102
RTVSPost2010Prop34
280
     0
102
RTVSPost2010PropOp34
 70
     1
102
RTVSPost2010Prop35
280
     0
102
RTVSPost2010PropOp35
 70
     1
102
RTVSPost2010Prop36
280
     0
102
RTVSPost2010PropOp36
 70
     1
102
RTVSPost2010Prop37
 90
       50
102
RTVSPost2010PropOp37
 70
     1
102
RTVSPost2010Prop38
140
0.0
102
RTVSPost2010PropOp38
 70
     1
102
RTVSPost2010Prop39
140
1.0
102
RTVSPost2010PropOp39
 70
     1
102
RTVSPost2010Prop40
 90
        0
102
RTVSPost2010PropOp40
 70
     1
102
RTVSPost2010Prop41ColorIndex
 90
       18
102
RTVSPost2010Prop41ColorRGB
 90
        0
102
RTVSPost2010PropOp41
 70
     1
102
RTVSPost2010Prop42
 90
       50
102
RTVSPost2010PropOp42
 70
     1
102
RTVSPost2010Prop43
 90
        3
102
RTVSPost2010PropOp43
 70
     1
102
RTVSPost2010Prop44ColorIndex
 90
        5
102
RTVSPost2010Prop44ColorRGB
 90
      255
102
RTVSPost2010PropOp44
 70
     1
102
RTVSPost2010Prop45
280
     0
102
RTVSPost2010PropOp45
 70
     1
102
RTVSPost2010Prop46
 90
       50
102
RTVSPost2010PropOp46
 70
     1
102
RTVSPost2010Prop47
 90
       50
102
RTVSPost2010PropOp47
 70
     1
102
RTVSPost2010Prop48
 90
       50
102
RTVSPost2010PropOp48
 70
     1
102
RTVSPost2010Prop49
280
     0
102
RTVSPost2010PropOp49
 70
     1
102
RTVSPost2010Prop50
 90
       50
102
RTVSPost2010PropOp50
 70
     1
102
RTVSPost2010Prop51ColorIndex
 90
      256
102
RTVSPost2010Prop51ColorRGB
 90
-16777216
102
RTVSPost2010PropOp51
 70
     0
102
RTVSPost2010Prop52
140
1.0
102
RTVSPost2010PropOp52
 70
     0
102
RTVSPost2010Prop53
 90
        2
102
RTVSPost2010PropOp53
 70
     1
102
RTVSPost2010Prop54
  1
strokes_ogs.tif
102
RTVSPost2010PropOp54
 70
     1
102
RTVSPost2010Prop55
280
     0
102
RTVSPost2010PropOp55
 70
     1
102
RTVSPost2010Prop56
140
1.0
102
RTVSPost2010PropOp56
 70
     1
102
RTVSPost2010Prop57
140
1.0
102
RTVSPost2010PropOp57
 70
     1
  0
XRECORD
  5
8C601
102
{ACAD_REACTORS
330
87B16
102
}
330
87B16
100
AcDbXrecord
280
     1
102
RTVSPropertyOp0
 70
     1
102
RTVSPropertyOp1
 70
     1
102
RTVSPropertyOp2
 70
     1
102
RTVSPropertyOp3
 70
     1
102
RTVSPropertyOp4
 70
     1
102
RTVSPropertyOp5
 70
     1
102
RTVSPropertyOp6
 70
     1
102
RTVSPropertyOp7
 70
     1
102
RTVSPropertyOp8
 70
     1
102
RTVSPropertyOp9
 70
     1
102
RTVSPropertyOp10
 70
     1
102
RTVSPropertyOp11
 70
     1
102
RTVSPropertyOp12
 70
     1
102
RTVSPropertyOp13
 70
     1
102
RTVSPropertyOp14
 70
     1
102
RTVSPropertyOp15
 70
     1
102
RTVSPropertyOp16
 70
     1
102
RTVSPropertyOp17
 70
     1
102
RTVSPropertyOp18
 70
     1
102
RTVSPropertyOp19
 70
     1
102
RTVSPropertyOp20
 70
     1
102
RTVSPropertyOp21
 70
     1
102
RTVSPropertyOp22
 70
     1
102
RTVSPropertyOp23
 70
     1
102
RTVSPropertyOp24
 70
     1
102
RTVSPropertyOp25
 70
     1
102
RTVSPropertyOp26
 70
     1
102
RTVSPropertyOp27
 70
     1
102
RTVSPropertyOp28
 70
     1
102
RTVSPropertyOp29
 70
     1
102
RTVSPropertyOp30
 70
     1
102
RTVSPropertyOp31
 70
     1
102
RTVSPropertyOp32
 70
     1
102
RTVSPropertyOp33
 70
     1
102
RTVSPropertyOp34
 70
     1
102
RTVSPropertyOp35
 70
     1
102
RTVSPropertyOp36
 70
     1
102
RTVSPropertyOp37
 70
     1
102
RTVSPropertyOp38
 70
     1
102
RTVSPropertyOp39
 70
     1
102
RTVSPropertyOp40
 70
     1
102
RTVSPropertyOp41
 70
     1
102
RTVSPropertyOp42
 70
     1
102
RTVSPropertyOp43
 70
     1
102
RTVSPropertyOp44
 70
     1
102
RTVSPropertyOp45
 70
     1
102
RTVSPropertyOp46
 70
     1
102
RTVSPropertyOp47
 70
     1
102
RTVSPropertyOp48
 70
     1
102
RTVSPropertyOp49
 70
     1
102
RTVSPropertyOp50
 70
     1
102
RTVSPropertyOp51
 70
     0
102
RTVSPropertyOp52
 70
     0
102
RTVSPropertyOp53
 70
     1
102
RTVSPropertyOp54
 70
     1
102
RTVSPropertyOp55
 70
     1
102
RTVSPropertyOp56
 70
     1
102
RTVSPropertyOp57
 70
     1
102
RTVSPost2010Prop28
280
     0
102
RTVSPost2010PropOp28
 70
     1
102
RTVSPost2010Prop29
280
     1
102
RTVSPost2010PropOp29
 70
     1
102
RTVSPost2010Prop30
280
     1
102
RTVSPost2010PropOp30
 70
     1
102
RTVSPost2010Prop31
280
     0
102
RTVSPost2010PropOp31
 70
     1
102
RTVSPost2010Prop32
280
     0
102
RTVSPost2010PropOp32
 70
     1
102
RTVSPost2010Prop33
280
     0
102
RTVSPost2010PropOp33
 70
     1
102
RTVSPost2010Prop34
280
     0
102
RTVSPost2010PropOp34
 70
     1
102
RTVSPost2010Prop35
280
     0
102
RTVSPost2010PropOp35
 70
     1
102
RTVSPost2010Prop36
280
     0
102
RTVSPost2010PropOp36
 70
     1
102
RTVSPost2010Prop37
 90
       50
102
RTVSPost2010PropOp37
 70
     1
102
RTVSPost2010Prop38
140
0.0
102
RTVSPost2010PropOp38
 70
     1
102
RTVSPost2010Prop39
140
1.0
102
RTVSPost2010PropOp39
 70
     1
102
RTVSPost2010Prop40
 90
        0
102
RTVSPost2010PropOp40
 70
     1
102
RTVSPost2010Prop41ColorIndex
 90
       18
102
RTVSPost2010Prop41ColorRGB
 90
        0
102
RTVSPost2010PropOp41
 70
     1
102
RTVSPost2010Prop42
 90
       50
102
RTVSPost2010PropOp42
 70
     1
102
RTVSPost2010Prop43
 90
        3
102
RTVSPost2010PropOp43
 70
     1
102
RTVSPost2010Prop44ColorIndex
 90
        5
102
RTVSPost2010Prop44ColorRGB
 90
      255
102
RTVSPost2010PropOp44
 70
     1
102
RTVSPost2010Prop45
280
     0
102
RTVSPost2010PropOp45
 70
     1
102
RTVSPost2010Prop46
 90
       50
102
RTVSPost2010PropOp46
 70
     1
102
RTVSPost2010Prop47
 90
       50
102
RTVSPost2010PropOp47
 70
     1
102
RTVSPost2010Prop48
 90
       50
102
RTVSPost2010PropOp48
 70
     1
102
RTVSPost2010Prop49
280
     0
102
RTVSPost2010PropOp49
 70
     1
102
RTVSPost2010Prop50
 90
       50
102
RTVSPost2010PropOp50
 70
     1
102
RTVSPost2010Prop51ColorIndex
 90
      256
102
RTVSPost2010Prop51ColorRGB
 90
-16777216
102
RTVSPost2010PropOp51
 70
     0
102
RTVSPost2010Prop52
140
1.0
102
RTVSPost2010PropOp52
 70
     0
102
RTVSPost2010Prop53
 90
        2
102
RTVSPost2010PropOp53
 70
     1
102
RTVSPost2010Prop54
  1
strokes_ogs.tif
102
RTVSPost2010PropOp54
 70
     1
102
RTVSPost2010Prop55
280
     0
102
RTVSPost2010PropOp55
 70
     1
102
RTVSPost2010Prop56
140
1.0
102
RTVSPost2010PropOp56
 70
     1
102
RTVSPost2010Prop57
140
1.0
102
RTVSPost2010PropOp57
 70
     1
  0
XRECORD
  5
8C602
102
{ACAD_REACTORS
330
87B24
102
}
330
87B24
100
AcDbXrecord
280
     1
102
RTVSPropertyOp0
 70
     1
102
RTVSPropertyOp1
 70
     1
102
RTVSPropertyOp2
 70
     1
102
RTVSPropertyOp3
 70
     1
102
RTVSPropertyOp4
 70
     1
102
RTVSPropertyOp5
 70
     1
102
RTVSPropertyOp6
 70
     1
102
RTVSPropertyOp7
 70
     1
102
RTVSPropertyOp8
 70
     1
102
RTVSPropertyOp9
 70
     1
102
RTVSPropertyOp10
 70
     1
102
RTVSPropertyOp11
 70
     1
102
RTVSPropertyOp12
 70
     1
102
RTVSPropertyOp13
 70
     1
102
RTVSPropertyOp14
 70
     1
102
RTVSPropertyOp15
 70
     1
102
RTVSPropertyOp16
 70
     1
102
RTVSPropertyOp17
 70
     1
102
RTVSPropertyOp18
 70
     1
102
RTVSPropertyOp19
 70
     1
102
RTVSPropertyOp20
 70
     1
102
RTVSPropertyOp21
 70
     1
102
RTVSPropertyOp22
 70
     1
102
RTVSPropertyOp23
 70
     1
102
RTVSPropertyOp24
 70
     1
102
RTVSPropertyOp25
 70
     1
102
RTVSPropertyOp26
 70
     1
102
RTVSPropertyOp27
 70
     1
102
RTVSPropertyOp28
 70
     1
102
RTVSPropertyOp29
 70
     1
102
RTVSPropertyOp30
 70
     1
102
RTVSPropertyOp31
 70
     1
102
RTVSPropertyOp32
 70
     1
102
RTVSPropertyOp33
 70
     1
102
RTVSPropertyOp34
 70
     1
102
RTVSPropertyOp35
 70
     1
102
RTVSPropertyOp36
 70
     1
102
RTVSPropertyOp37
 70
     1
102
RTVSPropertyOp38
 70
     1
102
RTVSPropertyOp39
 70
     1
102
RTVSPropertyOp40
 70
     1
102
RTVSPropertyOp41
 70
     1
102
RTVSPropertyOp42
 70
     1
102
RTVSPropertyOp43
 70
     1
102
RTVSPropertyOp44
 70
     1
102
RTVSPropertyOp45
 70
     1
102
RTVSPropertyOp46
 70
     1
102
RTVSPropertyOp47
 70
     1
102
RTVSPropertyOp48
 70
     1
102
RTVSPropertyOp49
 70
     1
102
RTVSPropertyOp50
 70
     1
102
RTVSPropertyOp51
 70
     0
102
RTVSPropertyOp52
 70
     0
102
RTVSPropertyOp53
 70
     1
102
RTVSPropertyOp54
 70
     1
102
RTVSPropertyOp55
 70
     1
102
RTVSPropertyOp56
 70
     1
102
RTVSPropertyOp57
 70
     1
102
RTVSPost2010Prop28
280
     0
102
RTVSPost2010PropOp28
 70
     1
102
RTVSPost2010Prop29
280
     1
102
RTVSPost2010PropOp29
 70
     1
102
RTVSPost2010Prop30
280
     1
102
RTVSPost2010PropOp30
 70
     1
102
RTVSPost2010Prop31
280
     0
102
RTVSPost2010PropOp31
 70
     1
102
RTVSPost2010Prop32
280
     0
102
RTVSPost2010PropOp32
 70
     1
102
RTVSPost2010Prop33
280
     0
102
RTVSPost2010PropOp33
 70
     1
102
RTVSPost2010Prop34
280
     0
102
RTVSPost2010PropOp34
 70
     1
102
RTVSPost2010Prop35
280
     0
102
RTVSPost2010PropOp35
 70
     1
102
RTVSPost2010Prop36
280
     0
102
RTVSPost2010PropOp36
 70
     1
102
RTVSPost2010Prop37
 90
       50
102
RTVSPost2010PropOp37
 70
     1
102
RTVSPost2010Prop38
140
0.0
102
RTVSPost2010PropOp38
 70
     1
102
RTVSPost2010Prop39
140
1.0
102
RTVSPost2010PropOp39
 70
     1
102
RTVSPost2010Prop40
 90
        0
102
RTVSPost2010PropOp40
 70
     1
102
RTVSPost2010Prop41ColorIndex
 90
       18
102
RTVSPost2010Prop41ColorRGB
 90
        0
102
RTVSPost2010PropOp41
 70
     1
102
RTVSPost2010Prop42
 90
       50
102
RTVSPost2010PropOp42
 70
     1
102
RTVSPost2010Prop43
 90
        3
102
RTVSPost2010PropOp43
 70
     1
102
RTVSPost2010Prop44ColorIndex
 90
        5
102
RTVSPost2010Prop44ColorRGB
 90
      255
102
RTVSPost2010PropOp44
 70
     1
102
RTVSPost2010Prop45
280
     0
102
RTVSPost2010PropOp45
 70
     1
102
RTVSPost2010Prop46
 90
       50
102
RTVSPost2010PropOp46
 70
     1
102
RTVSPost2010Prop47
 90
       50
102
RTVSPost2010PropOp47
 70
     1
102
RTVSPost2010Prop48
 90
       50
102
RTVSPost2010PropOp48
 70
     1
102
RTVSPost2010Prop49
280
     0
102
RTVSPost2010PropOp49
 70
     1
102
RTVSPost2010Prop50
 90
       50
102
RTVSPost2010PropOp50
 70
     1
102
RTVSPost2010Prop51ColorIndex
 90
      256
102
RTVSPost2010Prop51ColorRGB
 90
-16777216
102
RTVSPost2010PropOp51
 70
     0
102
RTVSPost2010Prop52
140
1.0
102
RTVSPost2010PropOp52
 70
     0
102
RTVSPost2010Prop53
 90
        2
102
RTVSPost2010PropOp53
 70
     1
102
RTVSPost2010Prop54
  1
strokes_ogs.tif
102
RTVSPost2010PropOp54
 70
     1
102
RTVSPost2010Prop55
280
     0
102
RTVSPost2010PropOp55
 70
     1
102
RTVSPost2010Prop56
140
1.0
102
RTVSPost2010PropOp56
 70
     1
102
RTVSPost2010Prop57
140
1.0
102
RTVSPost2010PropOp57
 70
     1
  0
XRECORD
  5
8C603
102
{ACAD_REACTORS
330
87B2C
102
}
330
87B2C
100
AcDbXrecord
280
     1
102
RTVSPropertyOp0
 70
     1
102
RTVSPropertyOp1
 70
     1
102
RTVSPropertyOp2
 70
     1
102
RTVSPropertyOp3
 70
     1
102
RTVSPropertyOp4
 70
     1
102
RTVSPropertyOp5
 70
     1
102
RTVSPropertyOp6
 70
     1
102
RTVSPropertyOp7
 70
     1
102
RTVSPropertyOp8
 70
     1
102
RTVSPropertyOp9
 70
     1
102
RTVSPropertyOp10
 70
     1
102
RTVSPropertyOp11
 70
     1
102
RTVSPropertyOp12
 70
     1
102
RTVSPropertyOp13
 70
     1
102
RTVSPropertyOp14
 70
     1
102
RTVSPropertyOp15
 70
     1
102
RTVSPropertyOp16
 70
     1
102
RTVSPropertyOp17
 70
     1
102
RTVSPropertyOp18
 70
     1
102
RTVSPropertyOp19
 70
     1
102
RTVSPropertyOp20
 70
     1
102
RTVSPropertyOp21
 70
     1
102
RTVSPropertyOp22
 70
     1
102
RTVSPropertyOp23
 70
     1
102
RTVSPropertyOp24
 70
     1
102
RTVSPropertyOp25
 70
     1
102
RTVSPropertyOp26
 70
     1
102
RTVSPropertyOp27
 70
     1
102
RTVSPropertyOp28
 70
     1
102
RTVSPropertyOp29
 70
     1
102
RTVSPropertyOp30
 70
     1
102
RTVSPropertyOp31
 70
     1
102
RTVSPropertyOp32
 70
     1
102
RTVSPropertyOp33
 70
     1
102
RTVSPropertyOp34
 70
     1
102
RTVSPropertyOp35
 70
     1
102
RTVSPropertyOp36
 70
     1
102
RTVSPropertyOp37
 70
     1
102
RTVSPropertyOp38
 70
     1
102
RTVSPropertyOp39
 70
     1
102
RTVSPropertyOp40
 70
     1
102
RTVSPropertyOp41
 70
     1
102
RTVSPropertyOp42
 70
     1
102
RTVSPropertyOp43
 70
     1
102
RTVSPropertyOp44
 70
     1
102
RTVSPropertyOp45
 70
     1
102
RTVSPropertyOp46
 70
     1
102
RTVSPropertyOp47
 70
     1
102
RTVSPropertyOp48
 70
     1
102
RTVSPropertyOp49
 70
     1
102
RTVSPropertyOp50
 70
     1
102
RTVSPropertyOp51
 70
     0
102
RTVSPropertyOp52
 70
     0
102
RTVSPropertyOp53
 70
     1
102
RTVSPropertyOp54
 70
     1
102
RTVSPropertyOp55
 70
     1
102
RTVSPropertyOp56
 70
     1
102
RTVSPropertyOp57
 70
     1
102
RTVSPost2010Prop28
280
     0
102
RTVSPost2010PropOp28
 70
     1
102
RTVSPost2010Prop29
280
     1
102
RTVSPost2010PropOp29
 70
     1
102
RTVSPost2010Prop30
280
     1
102
RTVSPost2010PropOp30
 70
     1
102
RTVSPost2010Prop31
280
     0
102
RTVSPost2010PropOp31
 70
     1
102
RTVSPost2010Prop32
280
     0
102
RTVSPost2010PropOp32
 70
     1
102
RTVSPost2010Prop33
280
     0
102
RTVSPost2010PropOp33
 70
     1
102
RTVSPost2010Prop34
280
     0
102
RTVSPost2010PropOp34
 70
     1
102
RTVSPost2010Prop35
280
     0
102
RTVSPost2010PropOp35
 70
     1
102
RTVSPost2010Prop36
280
     0
102
RTVSPost2010PropOp36
 70
     1
102
RTVSPost2010Prop37
 90
       50
102
RTVSPost2010PropOp37
 70
     1
102
RTVSPost2010Prop38
140
0.0
102
RTVSPost2010PropOp38
 70
     1
102
RTVSPost2010Prop39
140
1.0
102
RTVSPost2010PropOp39
 70
     1
102
RTVSPost2010Prop40
 90
        0
102
RTVSPost2010PropOp40
 70
     1
102
RTVSPost2010Prop41ColorIndex
 90
       18
102
RTVSPost2010Prop41ColorRGB
 90
        0
102
RTVSPost2010PropOp41
 70
     1
102
RTVSPost2010Prop42
 90
       50
102
RTVSPost2010PropOp42
 70
     1
102
RTVSPost2010Prop43
 90
        3
102
RTVSPost2010PropOp43
 70
     1
102
RTVSPost2010Prop44ColorIndex
 90
        5
102
RTVSPost2010Prop44ColorRGB
 90
      255
102
RTVSPost2010PropOp44
 70
     1
102
RTVSPost2010Prop45
280
     0
102
RTVSPost2010PropOp45
 70
     1
102
RTVSPost2010Prop46
 90
       50
102
RTVSPost2010PropOp46
 70
     1
102
RTVSPost2010Prop47
 90
       50
102
RTVSPost2010PropOp47
 70
     1
102
RTVSPost2010Prop48
 90
       50
102
RTVSPost2010PropOp48
 70
     1
102
RTVSPost2010Prop49
280
     0
102
RTVSPost2010PropOp49
 70
     1
102
RTVSPost2010Prop50
 90
       50
102
RTVSPost2010PropOp50
 70
     1
102
RTVSPost2010Prop51ColorIndex
 90
      256
102
RTVSPost2010Prop51ColorRGB
 90
-16777216
102
RTVSPost2010PropOp51
 70
     0
102
RTVSPost2010Prop52
140
1.0
102
RTVSPost2010PropOp52
 70
     0
102
RTVSPost2010Prop53
 90
        2
102
RTVSPost2010PropOp53
 70
     1
102
RTVSPost2010Prop54
  1
strokes_ogs.tif
102
RTVSPost2010PropOp54
 70
     1
102
RTVSPost2010Prop55
280
     0
102
RTVSPost2010PropOp55
 70
     1
102
RTVSPost2010Prop56
140
1.0
102
RTVSPost2010PropOp56
 70
     1
102
RTVSPost2010Prop57
140
1.0
102
RTVSPost2010PropOp57
 70
     1
  0
XRECORD
  5
8C604
102
{ACAD_REACTORS
330
87B1E
102
}
330
87B1E
100
AcDbXrecord
280
     1
102
RTVSPropertyOp0
 70
     1
102
RTVSPropertyOp1
 70
     1
102
RTVSPropertyOp2
 70
     1
102
RTVSPropertyOp3
 70
     1
102
RTVSPropertyOp4
 70
     1
102
RTVSPropertyOp5
 70
     1
102
RTVSPropertyOp6
 70
     1
102
RTVSPropertyOp7
 70
     1
102
RTVSPropertyOp8
 70
     1
102
RTVSPropertyOp9
 70
     1
102
RTVSPropertyOp10
 70
     1
102
RTVSPropertyOp11
 70
     1
102
RTVSPropertyOp12
 70
     1
102
RTVSPropertyOp13
 70
     1
102
RTVSPropertyOp14
 70
     1
102
RTVSPropertyOp15
 70
     1
102
RTVSPropertyOp16
 70
     1
102
RTVSPropertyOp17
 70
     1
102
RTVSPropertyOp18
 70
     1
102
RTVSPropertyOp19
 70
     1
102
RTVSPropertyOp20
 70
     1
102
RTVSPropertyOp21
 70
     1
102
RTVSPropertyOp22
 70
     1
102
RTVSPropertyOp23
 70
     1
102
RTVSPropertyOp24
 70
     1
102
RTVSPropertyOp25
 70
     1
102
RTVSPropertyOp26
 70
     1
102
RTVSPropertyOp27
 70
     1
102
RTVSPropertyOp28
 70
     1
102
RTVSPropertyOp29
 70
     1
102
RTVSPropertyOp30
 70
     1
102
RTVSPropertyOp31
 70
     1
102
RTVSPropertyOp32
 70
     1
102
RTVSPropertyOp33
 70
     1
102
RTVSPropertyOp34
 70
     1
102
RTVSPropertyOp35
 70
     1
102
RTVSPropertyOp36
 70
     1
102
RTVSPropertyOp37
 70
     1
102
RTVSPropertyOp38
 70
     1
102
RTVSPropertyOp39
 70
     1
102
RTVSPropertyOp40
 70
     1
102
RTVSPropertyOp41
 70
     1
102
RTVSPropertyOp42
 70
     1
102
RTVSPropertyOp43
 70
     1
102
RTVSPropertyOp44
 70
     1
102
RTVSPropertyOp45
 70
     1
102
RTVSPropertyOp46
 70
     1
102
RTVSPropertyOp47
 70
     1
102
RTVSPropertyOp48
 70
     1
102
RTVSPropertyOp49
 70
     1
102
RTVSPropertyOp50
 70
     1
102
RTVSPropertyOp51
 70
     0
102
RTVSPropertyOp52
 70
     0
102
RTVSPropertyOp53
 70
     1
102
RTVSPropertyOp54
 70
     1
102
RTVSPropertyOp55
 70
     1
102
RTVSPropertyOp56
 70
     1
102
RTVSPropertyOp57
 70
     1
102
RTVSPost2010Prop28
280
     0
102
RTVSPost2010PropOp28
 70
     1
102
RTVSPost2010Prop29
280
     1
102
RTVSPost2010PropOp29
 70
     1
102
RTVSPost2010Prop30
280
     1
102
RTVSPost2010PropOp30
 70
     1
102
RTVSPost2010Prop31
280
     0
102
RTVSPost2010PropOp31
 70
     1
102
RTVSPost2010Prop32
280
     0
102
RTVSPost2010PropOp32
 70
     1
102
RTVSPost2010Prop33
280
     0
102
RTVSPost2010PropOp33
 70
     1
102
RTVSPost2010Prop34
280
     0
102
RTVSPost2010PropOp34
 70
     1
102
RTVSPost2010Prop35
280
     0
102
RTVSPost2010PropOp35
 70
     1
102
RTVSPost2010Prop36
280
     0
102
RTVSPost2010PropOp36
 70
     1
102
RTVSPost2010Prop37
 90
       50
102
RTVSPost2010PropOp37
 70
     1
102
RTVSPost2010Prop38
140
0.0
102
RTVSPost2010PropOp38
 70
     1
102
RTVSPost2010Prop39
140
1.0
102
RTVSPost2010PropOp39
 70
     1
102
RTVSPost2010Prop40
 90
        0
102
RTVSPost2010PropOp40
 70
     1
102
RTVSPost2010Prop41ColorIndex
 90
       18
102
RTVSPost2010Prop41ColorRGB
 90
        0
102
RTVSPost2010PropOp41
 70
     1
102
RTVSPost2010Prop42
 90
       50
102
RTVSPost2010PropOp42
 70
     1
102
RTVSPost2010Prop43
 90
        3
102
RTVSPost2010PropOp43
 70
     1
102
RTVSPost2010Prop44ColorIndex
 90
        5
102
RTVSPost2010Prop44ColorRGB
 90
      255
102
RTVSPost2010PropOp44
 70
     1
102
RTVSPost2010Prop45
280
     0
102
RTVSPost2010PropOp45
 70
     1
102
RTVSPost2010Prop46
 90
       50
102
RTVSPost2010PropOp46
 70
     1
102
RTVSPost2010Prop47
 90
       50
102
RTVSPost2010PropOp47
 70
     1
102
RTVSPost2010Prop48
 90
       50
102
RTVSPost2010PropOp48
 70
     1
102
RTVSPost2010Prop49
280
     0
102
RTVSPost2010PropOp49
 70
     1
102
RTVSPost2010Prop50
 90
       50
102
RTVSPost2010PropOp50
 70
     1
102
RTVSPost2010Prop51ColorIndex
 90
      256
102
RTVSPost2010Prop51ColorRGB
 90
-16777216
102
RTVSPost2010PropOp51
 70
     0
102
RTVSPost2010Prop52
140
1.0
102
RTVSPost2010PropOp52
 70
     0
102
RTVSPost2010Prop53
 90
        2
102
RTVSPost2010PropOp53
 70
     1
102
RTVSPost2010Prop54
  1
strokes_ogs.tif
102
RTVSPost2010PropOp54
 70
     1
102
RTVSPost2010Prop55
280
     0
102
RTVSPost2010PropOp55
 70
     1
102
RTVSPost2010Prop56
140
1.0
102
RTVSPost2010PropOp56
 70
     1
102
RTVSPost2010Prop57
140
1.0
102
RTVSPost2010PropOp57
 70
     1
  0
XRECORD
  5
8C605
102
{ACAD_REACTORS
330
87B22
102
}
330
87B22
100
AcDbXrecord
280
     1
102
RTVSPropertyOp0
 70
     1
102
RTVSPropertyOp1
 70
     1
102
RTVSPropertyOp2
 70
     1
102
RTVSPropertyOp3
 70
     1
102
RTVSPropertyOp4
 70
     1
102
RTVSPropertyOp5
 70
     1
102
RTVSPropertyOp6
 70
     1
102
RTVSPropertyOp7
 70
     1
102
RTVSPropertyOp8
 70
     1
102
RTVSPropertyOp9
 70
     1
102
RTVSPropertyOp10
 70
     1
102
RTVSPropertyOp11
 70
     1
102
RTVSPropertyOp12
 70
     1
102
RTVSPropertyOp13
 70
     1
102
RTVSPropertyOp14
 70
     1
102
RTVSPropertyOp15
 70
     1
102
RTVSPropertyOp16
 70
     1
102
RTVSPropertyOp17
 70
     1
102
RTVSPropertyOp18
 70
     1
102
RTVSPropertyOp19
 70
     1
102
RTVSPropertyOp20
 70
     1
102
RTVSPropertyOp21
 70
     1
102
RTVSPropertyOp22
 70
     1
102
RTVSPropertyOp23
 70
     1
102
RTVSPropertyOp24
 70
     1
102
RTVSPropertyOp25
 70
     1
102
RTVSPropertyOp26
 70
     1
102
RTVSPropertyOp27
 70
     1
102
RTVSPropertyOp28
 70
     1
102
RTVSPropertyOp29
 70
     1
102
RTVSPropertyOp30
 70
     1
102
RTVSPropertyOp31
 70
     1
102
RTVSPropertyOp32
 70
     1
102
RTVSPropertyOp33
 70
     1
102
RTVSPropertyOp34
 70
     1
102
RTVSPropertyOp35
 70
     1
102
RTVSPropertyOp36
 70
     1
102
RTVSPropertyOp37
 70
     1
102
RTVSPropertyOp38
 70
     1
102
RTVSPropertyOp39
 70
     1
102
RTVSPropertyOp40
 70
     1
102
RTVSPropertyOp41
 70
     1
102
RTVSPropertyOp42
 70
     1
102
RTVSPropertyOp43
 70
     1
102
RTVSPropertyOp44
 70
     1
102
RTVSPropertyOp45
 70
     1
102
RTVSPropertyOp46
 70
     1
102
RTVSPropertyOp47
 70
     1
102
RTVSPropertyOp48
 70
     1
102
RTVSPropertyOp49
 70
     1
102
RTVSPropertyOp50
 70
     1
102
RTVSPropertyOp51
 70
     0
102
RTVSPropertyOp52
 70
     0
102
RTVSPropertyOp53
 70
     1
102
RTVSPropertyOp54
 70
     1
102
RTVSPropertyOp55
 70
     1
102
RTVSPropertyOp56
 70
     1
102
RTVSPropertyOp57
 70
     1
102
RTVSPost2010Prop28
280
     0
102
RTVSPost2010PropOp28
 70
     1
102
RTVSPost2010Prop29
280
     1
102
RTVSPost2010PropOp29
 70
     1
102
RTVSPost2010Prop30
280
     1
102
RTVSPost2010PropOp30
 70
     1
102
RTVSPost2010Prop31
280
     0
102
RTVSPost2010PropOp31
 70
     1
102
RTVSPost2010Prop32
280
     0
102
RTVSPost2010PropOp32
 70
     1
102
RTVSPost2010Prop33
280
     0
102
RTVSPost2010PropOp33
 70
     1
102
RTVSPost2010Prop34
280
     0
102
RTVSPost2010PropOp34
 70
     1
102
RTVSPost2010Prop35
280
     0
102
RTVSPost2010PropOp35
 70
     1
102
RTVSPost2010Prop36
280
     0
102
RTVSPost2010PropOp36
 70
     1
102
RTVSPost2010Prop37
 90
       50
102
RTVSPost2010PropOp37
 70
     1
102
RTVSPost2010Prop38
140
0.0
102
RTVSPost2010PropOp38
 70
     1
102
RTVSPost2010Prop39
140
1.0
102
RTVSPost2010PropOp39
 70
     1
102
RTVSPost2010Prop40
 90
        0
102
RTVSPost2010PropOp40
 70
     1
102
RTVSPost2010Prop41ColorIndex
 90
       18
102
RTVSPost2010Prop41ColorRGB
 90
        0
102
RTVSPost2010PropOp41
 70
     1
102
RTVSPost2010Prop42
 90
       50
102
RTVSPost2010PropOp42
 70
     1
102
RTVSPost2010Prop43
 90
        3
102
RTVSPost2010PropOp43
 70
     1
102
RTVSPost2010Prop44ColorIndex
 90
        5
102
RTVSPost2010Prop44ColorRGB
 90
      255
102
RTVSPost2010PropOp44
 70
     1
102
RTVSPost2010Prop45
280
     0
102
RTVSPost2010PropOp45
 70
     1
102
RTVSPost2010Prop46
 90
       50
102
RTVSPost2010PropOp46
 70
     1
102
RTVSPost2010Prop47
 90
       50
102
RTVSPost2010PropOp47
 70
     1
102
RTVSPost2010Prop48
 90
       50
102
RTVSPost2010PropOp48
 70
     1
102
RTVSPost2010Prop49
280
     0
102
RTVSPost2010PropOp49
 70
     1
102
RTVSPost2010Prop50
 90
       50
102
RTVSPost2010PropOp50
 70
     1
102
RTVSPost2010Prop51ColorIndex
 90
      256
102
RTVSPost2010Prop51ColorRGB
 90
-16777216
102
RTVSPost2010PropOp51
 70
     0
102
RTVSPost2010Prop52
140
1.0
102
RTVSPost2010PropOp52
 70
     0
102
RTVSPost2010Prop53
 90
        2
102
RTVSPost2010PropOp53
 70
     1
102
RTVSPost2010Prop54
  1
strokes_ogs.tif
102
RTVSPost2010PropOp54
 70
     1
102
RTVSPost2010Prop55
280
     0
102
RTVSPost2010PropOp55
 70
     1
102
RTVSPost2010Prop56
140
1.0
102
RTVSPost2010PropOp56
 70
     1
102
RTVSPost2010Prop57
140
1.0
102
RTVSPost2010PropOp57
 70
     1
  0
XRECORD
  5
8C606
102
{ACAD_REACTORS
330
87B3C
102
}
330
87B3C
100
AcDbXrecord
280
     1
102
RTVSPropertyOp0
 70
     0
102
RTVSPropertyOp1
 70
     0
102
RTVSPropertyOp2
 70
     0
102
RTVSPropertyOp3
 70
     0
102
RTVSPropertyOp4
 70
     0
102
RTVSPropertyOp5
 70
     0
102
RTVSPropertyOp6
 70
     0
102
RTVSPropertyOp7
 70
     0
102
RTVSPropertyOp8
 70
     0
102
RTVSPropertyOp9
 70
     0
102
RTVSPropertyOp10
 70
     0
102
RTVSPropertyOp11
 70
     0
102
RTVSPropertyOp12
 70
     0
102
RTVSPropertyOp13
 70
     0
102
RTVSPropertyOp14
 70
     2
102
RTVSPropertyOp15
 70
     0
102
RTVSPropertyOp16
 70
     0
102
RTVSPropertyOp17
 70
     0
102
RTVSPropertyOp18
 70
     0
102
RTVSPropertyOp19
 70
     0
102
RTVSPropertyOp20
 70
     0
102
RTVSPropertyOp21
 70
     0
102
RTVSPropertyOp22
 70
     0
102
RTVSPropertyOp23
 70
     0
102
RTVSPropertyOp24
 70
     0
102
RTVSPropertyOp25
 70
     0
102
RTVSPropertyOp26
 70
     0
102
RTVSPropertyOp27
 70
     0
102
RTVSPropertyOp28
 70
     1
102
RTVSPropertyOp29
 70
     1
102
RTVSPropertyOp30
 70
     1
102
RTVSPropertyOp31
 70
     1
102
RTVSPropertyOp32
 70
     1
102
RTVSPropertyOp33
 70
     1
102
RTVSPropertyOp34
 70
     1
102
RTVSPropertyOp35
 70
     1
102
RTVSPropertyOp36
 70
     1
102
RTVSPropertyOp37
 70
     0
102
RTVSPropertyOp38
 70
     0
102
RTVSPropertyOp39
 70
     0
102
RTVSPropertyOp40
 70
     0
102
RTVSPropertyOp41
 70
     0
102
RTVSPropertyOp42
 70
     0
102
RTVSPropertyOp43
 70
     0
102
RTVSPropertyOp44
 70
     0
102
RTVSPropertyOp45
 70
     1
102
RTVSPropertyOp46
 70
     0
102
RTVSPropertyOp47
 70
     0
102
RTVSPropertyOp48
 70
     0
102
RTVSPropertyOp49
 70
     1
102
RTVSPropertyOp50
 70
     0
102
RTVSPropertyOp51
 70
     0
102
RTVSPropertyOp52
 70
     0
102
RTVSPropertyOp53
 70
     0
102
RTVSPropertyOp54
 70
     0
102
RTVSPropertyOp55
 70
     1
102
RTVSPropertyOp56
 70
     0
102
RTVSPropertyOp57
 70
     0
102
RTVSPost2010Prop28
280
     0
102
RTVSPost2010PropOp28
 70
     1
102
RTVSPost2010Prop29
280
     1
102
RTVSPost2010PropOp29
 70
     1
102
RTVSPost2010Prop30
280
     1
102
RTVSPost2010PropOp30
 70
     1
102
RTVSPost2010Prop31
280
     0
102
RTVSPost2010PropOp31
 70
     1
102
RTVSPost2010Prop32
280
     0
102
RTVSPost2010PropOp32
 70
     1
102
RTVSPost2010Prop33
280
     0
102
RTVSPost2010PropOp33
 70
     1
102
RTVSPost2010Prop34
280
     0
102
RTVSPost2010PropOp34
 70
     1
102
RTVSPost2010Prop35
280
     0
102
RTVSPost2010PropOp35
 70
     1
102
RTVSPost2010Prop36
280
     0
102
RTVSPost2010PropOp36
 70
     1
102
RTVSPost2010Prop37
 90
       50
102
RTVSPost2010PropOp37
 70
     0
102
RTVSPost2010Prop38
140
0.0
102
RTVSPost2010PropOp38
 70
     0
102
RTVSPost2010Prop39
140
1.0
102
RTVSPost2010PropOp39
 70
     0
102
RTVSPost2010Prop40
 90
        0
102
RTVSPost2010PropOp40
 70
     0
102
RTVSPost2010Prop41ColorIndex
 90
       18
102
RTVSPost2010Prop41ColorRGB
 90
        0
102
RTVSPost2010PropOp41
 70
     0
102
RTVSPost2010Prop42
 90
       50
102
RTVSPost2010PropOp42
 70
     0
102
RTVSPost2010Prop43
 90
        3
102
RTVSPost2010PropOp43
 70
     0
102
RTVSPost2010Prop44ColorIndex
 90
        5
102
RTVSPost2010Prop44ColorRGB
 90
      255
102
RTVSPost2010PropOp44
 70
     0
102
RTVSPost2010Prop45
280
     0
102
RTVSPost2010PropOp45
 70
     1
102
RTVSPost2010Prop46
 90
       50
102
RTVSPost2010PropOp46
 70
     0
102
RTVSPost2010Prop47
 90
       50
102
RTVSPost2010PropOp47
 70
     0
102
RTVSPost2010Prop48
 90
       50
102
RTVSPost2010PropOp48
 70
     0
102
RTVSPost2010Prop49
280
     0
102
RTVSPost2010PropOp49
 70
     1
102
RTVSPost2010Prop50
 90
       50
102
RTVSPost2010PropOp50
 70
     0
102
RTVSPost2010Prop51ColorIndex
 90
      256
102
RTVSPost2010Prop51ColorRGB
 90
-16777216
102
RTVSPost2010PropOp51
 70
     0
102
RTVSPost2010Prop52
140
1.0
102
RTVSPost2010PropOp52
 70
     0
102
RTVSPost2010Prop53
 90
        2
102
RTVSPost2010PropOp53
 70
     0
102
RTVSPost2010Prop54
  1
strokes_ogs.tif
102
RTVSPost2010PropOp54
 70
     0
102
RTVSPost2010Prop55
280
     0
102
RTVSPost2010PropOp55
 70
     1
102
RTVSPost2010Prop56
140
1.0
102
RTVSPost2010PropOp56
 70
     0
102
RTVSPost2010Prop57
140
1.0
102
RTVSPost2010PropOp57
 70
     0
  0
XRECORD
  5
8C607
102
{ACAD_REACTORS
330
87B2A
102
}
330
87B2A
100
AcDbXrecord
280
     1
102
RTVSPropertyOp0
 70
     1
102
RTVSPropertyOp1
 70
     1
102
RTVSPropertyOp2
 70
     1
102
RTVSPropertyOp3
 70
     1
102
RTVSPropertyOp4
 70
     1
102
RTVSPropertyOp5
 70
     1
102
RTVSPropertyOp6
 70
     1
102
RTVSPropertyOp7
 70
     1
102
RTVSPropertyOp8
 70
     1
102
RTVSPropertyOp9
 70
     1
102
RTVSPropertyOp10
 70
     1
102
RTVSPropertyOp11
 70
     1
102
RTVSPropertyOp12
 70
     1
102
RTVSPropertyOp13
 70
     1
102
RTVSPropertyOp14
 70
     1
102
RTVSPropertyOp15
 70
     1
102
RTVSPropertyOp16
 70
     1
102
RTVSPropertyOp17
 70
     1
102
RTVSPropertyOp18
 70
     1
102
RTVSPropertyOp19
 70
     1
102
RTVSPropertyOp20
 70
     1
102
RTVSPropertyOp21
 70
     1
102
RTVSPropertyOp22
 70
     1
102
RTVSPropertyOp23
 70
     1
102
RTVSPropertyOp24
 70
     1
102
RTVSPropertyOp25
 70
     1
102
RTVSPropertyOp26
 70
     1
102
RTVSPropertyOp27
 70
     1
102
RTVSPropertyOp28
 70
     1
102
RTVSPropertyOp29
 70
     1
102
RTVSPropertyOp30
 70
     1
102
RTVSPropertyOp31
 70
     1
102
RTVSPropertyOp32
 70
     1
102
RTVSPropertyOp33
 70
     1
102
RTVSPropertyOp34
 70
     1
102
RTVSPropertyOp35
 70
     1
102
RTVSPropertyOp36
 70
     1
102
RTVSPropertyOp37
 70
     1
102
RTVSPropertyOp38
 70
     1
102
RTVSPropertyOp39
 70
     1
102
RTVSPropertyOp40
 70
     1
102
RTVSPropertyOp41
 70
     1
102
RTVSPropertyOp42
 70
     1
102
RTVSPropertyOp43
 70
     1
102
RTVSPropertyOp44
 70
     1
102
RTVSPropertyOp45
 70
     1
102
RTVSPropertyOp46
 70
     1
102
RTVSPropertyOp47
 70
     1
102
RTVSPropertyOp48
 70
     1
102
RTVSPropertyOp49
 70
     1
102
RTVSPropertyOp50
 70
     1
102
RTVSPropertyOp51
 70
     0
102
RTVSPropertyOp52
 70
     0
102
RTVSPropertyOp53
 70
     1
102
RTVSPropertyOp54
 70
     1
102
RTVSPropertyOp55
 70
     1
102
RTVSPropertyOp56
 70
     1
102
RTVSPropertyOp57
 70
     1
102
RTVSPost2010Prop28
280
     0
102
RTVSPost2010PropOp28
 70
     1
102
RTVSPost2010Prop29
280
     1
102
RTVSPost2010PropOp29
 70
     1
102
RTVSPost2010Prop30
280
     1
102
RTVSPost2010PropOp30
 70
     1
102
RTVSPost2010Prop31
280
     0
102
RTVSPost2010PropOp31
 70
     1
102
RTVSPost2010Prop32
280
     0
102
RTVSPost2010PropOp32
 70
     1
102
RTVSPost2010Prop33
280
     0
102
RTVSPost2010PropOp33
 70
     1
102
RTVSPost2010Prop34
280
     0
102
RTVSPost2010PropOp34
 70
     1
102
RTVSPost2010Prop35
280
     0
102
RTVSPost2010PropOp35
 70
     1
102
RTVSPost2010Prop36
280
     0
102
RTVSPost2010PropOp36
 70
     1
102
RTVSPost2010Prop37
 90
       50
102
RTVSPost2010PropOp37
 70
     1
102
RTVSPost2010Prop38
140
0.0
102
RTVSPost2010PropOp38
 70
     1
102
RTVSPost2010Prop39
140
1.0
102
RTVSPost2010PropOp39
 70
     1
102
RTVSPost2010Prop40
 90
        0
102
RTVSPost2010PropOp40
 70
     1
102
RTVSPost2010Prop41ColorIndex
 90
       18
102
RTVSPost2010Prop41ColorRGB
 90
        0
102
RTVSPost2010PropOp41
 70
     1
102
RTVSPost2010Prop42
 90
       50
102
RTVSPost2010PropOp42
 70
     1
102
RTVSPost2010Prop43
 90
        3
102
RTVSPost2010PropOp43
 70
     1
102
RTVSPost2010Prop44ColorIndex
 90
        5
102
RTVSPost2010Prop44ColorRGB
 90
      255
102
RTVSPost2010PropOp44
 70
     1
102
RTVSPost2010Prop45
280
     0
102
RTVSPost2010PropOp45
 70
     1
102
RTVSPost2010Prop46
 90
       50
102
RTVSPost2010PropOp46
 70
     1
102
RTVSPost2010Prop47
 90
       50
102
RTVSPost2010PropOp47
 70
     1
102
RTVSPost2010Prop48
 90
       50
102
RTVSPost2010PropOp48
 70
     1
102
RTVSPost2010Prop49
280
     0
102
RTVSPost2010PropOp49
 70
     1
102
RTVSPost2010Prop50
 90
       50
102
RTVSPost2010PropOp50
 70
     1
102
RTVSPost2010Prop51ColorIndex
 90
      256
102
RTVSPost2010Prop51ColorRGB
 90
-16777216
102
RTVSPost2010PropOp51
 70
     0
102
RTVSPost2010Prop52
140
1.0
102
RTVSPost2010PropOp52
 70
     0
102
RTVSPost2010Prop53
 90
        2
102
RTVSPost2010PropOp53
 70
     1
102
RTVSPost2010Prop54
  1
strokes_ogs.tif
102
RTVSPost2010PropOp54
 70
     1
102
RTVSPost2010Prop55
280
     0
102
RTVSPost2010PropOp55
 70
     1
102
RTVSPost2010Prop56
140
1.0
102
RTVSPost2010PropOp56
 70
     1
102
RTVSPost2010Prop57
140
1.0
102
RTVSPost2010PropOp57
 70
     1
  0
XRECORD
  5
8C608
102
{ACAD_REACTORS
330
87B0E
102
}
330
87B0E
100
AcDbXrecord
280
     1
102
RTVSPropertyOp0
 70
     1
102
RTVSPropertyOp1
 70
     1
102
RTVSPropertyOp2
 70
     1
102
RTVSPropertyOp3
 70
     1
102
RTVSPropertyOp4
 70
     1
102
RTVSPropertyOp5
 70
     1
102
RTVSPropertyOp6
 70
     1
102
RTVSPropertyOp7
 70
     1
102
RTVSPropertyOp8
 70
     1
102
RTVSPropertyOp9
 70
     1
102
RTVSPropertyOp10
 70
     1
102
RTVSPropertyOp11
 70
     1
102
RTVSPropertyOp12
 70
     1
102
RTVSPropertyOp13
 70
     1
102
RTVSPropertyOp14
 70
     1
102
RTVSPropertyOp15
 70
     1
102
RTVSPropertyOp16
 70
     1
102
RTVSPropertyOp17
 70
     1
102
RTVSPropertyOp18
 70
     1
102
RTVSPropertyOp19
 70
     1
102
RTVSPropertyOp20
 70
     1
102
RTVSPropertyOp21
 70
     1
102
RTVSPropertyOp22
 70
     1
102
RTVSPropertyOp23
 70
     1
102
RTVSPropertyOp24
 70
     1
102
RTVSPropertyOp25
 70
     1
102
RTVSPropertyOp26
 70
     1
102
RTVSPropertyOp27
 70
     1
102
RTVSPropertyOp28
 70
     1
102
RTVSPropertyOp29
 70
     1
102
RTVSPropertyOp30
 70
     1
102
RTVSPropertyOp31
 70
     1
102
RTVSPropertyOp32
 70
     1
102
RTVSPropertyOp33
 70
     1
102
RTVSPropertyOp34
 70
     1
102
RTVSPropertyOp35
 70
     1
102
RTVSPropertyOp36
 70
     1
102
RTVSPropertyOp37
 70
     1
102
RTVSPropertyOp38
 70
     1
102
RTVSPropertyOp39
 70
     1
102
RTVSPropertyOp40
 70
     1
102
RTVSPropertyOp41
 70
     1
102
RTVSPropertyOp42
 70
     1
102
RTVSPropertyOp43
 70
     1
102
RTVSPropertyOp44
 70
     1
102
RTVSPropertyOp45
 70
     1
102
RTVSPropertyOp46
 70
     1
102
RTVSPropertyOp47
 70
     1
102
RTVSPropertyOp48
 70
     1
102
RTVSPropertyOp49
 70
     1
102
RTVSPropertyOp50
 70
     1
102
RTVSPropertyOp51
 70
     0
102
RTVSPropertyOp52
 70
     0
102
RTVSPropertyOp53
 70
     1
102
RTVSPropertyOp54
 70
     1
102
RTVSPropertyOp55
 70
     1
102
RTVSPropertyOp56
 70
     1
102
RTVSPropertyOp57
 70
     1
102
RTVSPost2010Prop28
280
     0
102
RTVSPost2010PropOp28
 70
     1
102
RTVSPost2010Prop29
280
     1
102
RTVSPost2010PropOp29
 70
     1
102
RTVSPost2010Prop30
280
     1
102
RTVSPost2010PropOp30
 70
     1
102
RTVSPost2010Prop31
280
     0
102
RTVSPost2010PropOp31
 70
     1
102
RTVSPost2010Prop32
280
     0
102
RTVSPost2010PropOp32
 70
     1
102
RTVSPost2010Prop33
280
     0
102
RTVSPost2010PropOp33
 70
     1
102
RTVSPost2010Prop34
280
     0
102
RTVSPost2010PropOp34
 70
     1
102
RTVSPost2010Prop35
280
     0
102
RTVSPost2010PropOp35
 70
     1
102
RTVSPost2010Prop36
280
     0
102
RTVSPost2010PropOp36
 70
     1
102
RTVSPost2010Prop37
 90
       50
102
RTVSPost2010PropOp37
 70
     1
102
RTVSPost2010Prop38
140
0.0
102
RTVSPost2010PropOp38
 70
     1
102
RTVSPost2010Prop39
140
1.0
102
RTVSPost2010PropOp39
 70
     1
102
RTVSPost2010Prop40
 90
        0
102
RTVSPost2010PropOp40
 70
     1
102
RTVSPost2010Prop41ColorIndex
 90
       18
102
RTVSPost2010Prop41ColorRGB
 90
        0
102
RTVSPost2010PropOp41
 70
     1
102
RTVSPost2010Prop42
 90
       50
102
RTVSPost2010PropOp42
 70
     1
102
RTVSPost2010Prop43
 90
        3
102
RTVSPost2010PropOp43
 70
     1
102
RTVSPost2010Prop44ColorIndex
 90
        5
102
RTVSPost2010Prop44ColorRGB
 90
      255
102
RTVSPost2010PropOp44
 70
     1
102
RTVSPost2010Prop45
280
     0
102
RTVSPost2010PropOp45
 70
     1
102
RTVSPost2010Prop46
 90
       50
102
RTVSPost2010PropOp46
 70
     1
102
RTVSPost2010Prop47
 90
       50
102
RTVSPost2010PropOp47
 70
     1
102
RTVSPost2010Prop48
 90
       50
102
RTVSPost2010PropOp48
 70
     1
102
RTVSPost2010Prop49
280
     0
102
RTVSPost2010PropOp49
 70
     1
102
RTVSPost2010Prop50
 90
       50
102
RTVSPost2010PropOp50
 70
     1
102
RTVSPost2010Prop51ColorIndex
 90
      256
102
RTVSPost2010Prop51ColorRGB
 90
-16777216
102
RTVSPost2010PropOp51
 70
     0
102
RTVSPost2010Prop52
140
1.0
102
RTVSPost2010PropOp52
 70
     0
102
RTVSPost2010Prop53
 90
        2
102
RTVSPost2010PropOp53
 70
     1
102
RTVSPost2010Prop54
  1
strokes_ogs.tif
102
RTVSPost2010PropOp54
 70
     1
102
RTVSPost2010Prop55
280
     0
102
RTVSPost2010PropOp55
 70
     1
102
RTVSPost2010Prop56
140
1.0
102
RTVSPost2010PropOp56
 70
     1
102
RTVSPost2010Prop57
140
1.0
102
RTVSPost2010PropOp57
 70
     1
  0
XRECORD
  5
8C609
102
{ACAD_REACTORS
330
87B10
102
}
330
87B10
100
AcDbXrecord
280
     1
102
RTVSPropertyOp0
 70
     1
102
RTVSPropertyOp1
 70
     1
102
RTVSPropertyOp2
 70
     1
102
RTVSPropertyOp3
 70
     1
102
RTVSPropertyOp4
 70
     1
102
RTVSPropertyOp5
 70
     1
102
RTVSPropertyOp6
 70
     1
102
RTVSPropertyOp7
 70
     1
102
RTVSPropertyOp8
 70
     1
102
RTVSPropertyOp9
 70
     1
102
RTVSPropertyOp10
 70
     1
102
RTVSPropertyOp11
 70
     1
102
RTVSPropertyOp12
 70
     1
102
RTVSPropertyOp13
 70
     1
102
RTVSPropertyOp14
 70
     1
102
RTVSPropertyOp15
 70
     1
102
RTVSPropertyOp16
 70
     1
102
RTVSPropertyOp17
 70
     1
102
RTVSPropertyOp18
 70
     1
102
RTVSPropertyOp19
 70
     1
102
RTVSPropertyOp20
 70
     1
102
RTVSPropertyOp21
 70
     1
102
RTVSPropertyOp22
 70
     1
102
RTVSPropertyOp23
 70
     1
102
RTVSPropertyOp24
 70
     1
102
RTVSPropertyOp25
 70
     1
102
RTVSPropertyOp26
 70
     1
102
RTVSPropertyOp27
 70
     1
102
RTVSPropertyOp28
 70
     1
102
RTVSPropertyOp29
 70
     1
102
RTVSPropertyOp30
 70
     1
102
RTVSPropertyOp31
 70
     1
102
RTVSPropertyOp32
 70
     1
102
RTVSPropertyOp33
 70
     1
102
RTVSPropertyOp34
 70
     1
102
RTVSPropertyOp35
 70
     1
102
RTVSPropertyOp36
 70
     1
102
RTVSPropertyOp37
 70
     1
102
RTVSPropertyOp38
 70
     1
102
RTVSPropertyOp39
 70
     1
102
RTVSPropertyOp40
 70
     1
102
RTVSPropertyOp41
 70
     1
102
RTVSPropertyOp42
 70
     1
102
RTVSPropertyOp43
 70
     1
102
RTVSPropertyOp44
 70
     1
102
RTVSPropertyOp45
 70
     1
102
RTVSPropertyOp46
 70
     1
102
RTVSPropertyOp47
 70
     1
102
RTVSPropertyOp48
 70
     1
102
RTVSPropertyOp49
 70
     1
102
RTVSPropertyOp50
 70
     1
102
RTVSPropertyOp51
 70
     0
102
RTVSPropertyOp52
 70
     0
102
RTVSPropertyOp53
 70
     1
102
RTVSPropertyOp54
 70
     1
102
RTVSPropertyOp55
 70
     1
102
RTVSPropertyOp56
 70
     1
102
RTVSPropertyOp57
 70
     1
102
RTVSPost2010Prop28
280
     0
102
RTVSPost2010PropOp28
 70
     1
102
RTVSPost2010Prop29
280
     1
102
RTVSPost2010PropOp29
 70
     1
102
RTVSPost2010Prop30
280
     1
102
RTVSPost2010PropOp30
 70
     1
102
RTVSPost2010Prop31
280
     0
102
RTVSPost2010PropOp31
 70
     1
102
RTVSPost2010Prop32
280
     0
102
RTVSPost2010PropOp32
 70
     1
102
RTVSPost2010Prop33
280
     0
102
RTVSPost2010PropOp33
 70
     1
102
RTVSPost2010Prop34
280
     0
102
RTVSPost2010PropOp34
 70
     1
102
RTVSPost2010Prop35
280
     0
102
RTVSPost2010PropOp35
 70
     1
102
RTVSPost2010Prop36
280
     0
102
RTVSPost2010PropOp36
 70
     1
102
RTVSPost2010Prop37
 90
       50
102
RTVSPost2010PropOp37
 70
     1
102
RTVSPost2010Prop38
140
0.0
102
RTVSPost2010PropOp38
 70
     1
102
RTVSPost2010Prop39
140
1.0
102
RTVSPost2010PropOp39
 70
     1
102
RTVSPost2010Prop40
 90
        0
102
RTVSPost2010PropOp40
 70
     1
102
RTVSPost2010Prop41ColorIndex
 90
       18
102
RTVSPost2010Prop41ColorRGB
 90
        0
102
RTVSPost2010PropOp41
 70
     1
102
RTVSPost2010Prop42
 90
       50
102
RTVSPost2010PropOp42
 70
     1
102
RTVSPost2010Prop43
 90
        3
102
RTVSPost2010PropOp43
 70
     1
102
RTVSPost2010Prop44ColorIndex
 90
        5
102
RTVSPost2010Prop44ColorRGB
 90
      255
102
RTVSPost2010PropOp44
 70
     1
102
RTVSPost2010Prop45
280
     0
102
RTVSPost2010PropOp45
 70
     1
102
RTVSPost2010Prop46
 90
       50
102
RTVSPost2010PropOp46
 70
     1
102
RTVSPost2010Prop47
 90
       50
102
RTVSPost2010PropOp47
 70
     1
102
RTVSPost2010Prop48
 90
       50
102
RTVSPost2010PropOp48
 70
     1
102
RTVSPost2010Prop49
280
     0
102
RTVSPost2010PropOp49
 70
     1
102
RTVSPost2010Prop50
 90
       50
102
RTVSPost2010PropOp50
 70
     1
102
RTVSPost2010Prop51ColorIndex
 90
      256
102
RTVSPost2010Prop51ColorRGB
 90
-16777216
102
RTVSPost2010PropOp51
 70
     0
102
RTVSPost2010Prop52
140
1.0
102
RTVSPost2010PropOp52
 70
     0
102
RTVSPost2010Prop53
 90
        2
102
RTVSPost2010PropOp53
 70
     1
102
RTVSPost2010Prop54
  1
strokes_ogs.tif
102
RTVSPost2010PropOp54
 70
     1
102
RTVSPost2010Prop55
280
     0
102
RTVSPost2010PropOp55
 70
     1
102
RTVSPost2010Prop56
140
1.0
102
RTVSPost2010PropOp56
 70
     1
102
RTVSPost2010Prop57
140
1.0
102
RTVSPost2010PropOp57
 70
     1
  0
XRECORD
  5
8C60A
102
{ACAD_REACTORS
330
87B12
102
}
330
87B12
100
AcDbXrecord
280
     1
102
RTVSPropertyOp0
 70
     1
102
RTVSPropertyOp1
 70
     1
102
RTVSPropertyOp2
 70
     1
102
RTVSPropertyOp3
 70
     1
102
RTVSPropertyOp4
 70
     1
102
RTVSPropertyOp5
 70
     1
102
RTVSPropertyOp6
 70
     1
102
RTVSPropertyOp7
 70
     1
102
RTVSPropertyOp8
 70
     1
102
RTVSPropertyOp9
 70
     1
102
RTVSPropertyOp10
 70
     1
102
RTVSPropertyOp11
 70
     1
102
RTVSPropertyOp12
 70
     1
102
RTVSPropertyOp13
 70
     1
102
RTVSPropertyOp14
 70
     1
102
RTVSPropertyOp15
 70
     1
102
RTVSPropertyOp16
 70
     1
102
RTVSPropertyOp17
 70
     1
102
RTVSPropertyOp18
 70
     1
102
RTVSPropertyOp19
 70
     1
102
RTVSPropertyOp20
 70
     1
102
RTVSPropertyOp21
 70
     1
102
RTVSPropertyOp22
 70
     1
102
RTVSPropertyOp23
 70
     1
102
RTVSPropertyOp24
 70
     1
102
RTVSPropertyOp25
 70
     1
102
RTVSPropertyOp26
 70
     1
102
RTVSPropertyOp27
 70
     1
102
RTVSPropertyOp28
 70
     1
102
RTVSPropertyOp29
 70
     1
102
RTVSPropertyOp30
 70
     1
102
RTVSPropertyOp31
 70
     1
102
RTVSPropertyOp32
 70
     1
102
RTVSPropertyOp33
 70
     1
102
RTVSPropertyOp34
 70
     1
102
RTVSPropertyOp35
 70
     1
102
RTVSPropertyOp36
 70
     1
102
RTVSPropertyOp37
 70
     1
102
RTVSPropertyOp38
 70
     1
102
RTVSPropertyOp39
 70
     1
102
RTVSPropertyOp40
 70
     1
102
RTVSPropertyOp41
 70
     1
102
RTVSPropertyOp42
 70
     1
102
RTVSPropertyOp43
 70
     1
102
RTVSPropertyOp44
 70
     1
102
RTVSPropertyOp45
 70
     1
102
RTVSPropertyOp46
 70
     1
102
RTVSPropertyOp47
 70
     1
102
RTVSPropertyOp48
 70
     1
102
RTVSPropertyOp49
 70
     1
102
RTVSPropertyOp50
 70
     1
102
RTVSPropertyOp51
 70
     0
102
RTVSPropertyOp52
 70
     0
102
RTVSPropertyOp53
 70
     1
102
RTVSPropertyOp54
 70
     1
102
RTVSPropertyOp55
 70
     1
102
RTVSPropertyOp56
 70
     1
102
RTVSPropertyOp57
 70
     1
102
RTVSPost2010Prop28
280
     0
102
RTVSPost2010PropOp28
 70
     1
102
RTVSPost2010Prop29
280
     1
102
RTVSPost2010PropOp29
 70
     1
102
RTVSPost2010Prop30
280
     1
102
RTVSPost2010PropOp30
 70
     1
102
RTVSPost2010Prop31
280
     0
102
RTVSPost2010PropOp31
 70
     1
102
RTVSPost2010Prop32
280
     0
102
RTVSPost2010PropOp32
 70
     1
102
RTVSPost2010Prop33
280
     0
102
RTVSPost2010PropOp33
 70
     1
102
RTVSPost2010Prop34
280
     0
102
RTVSPost2010PropOp34
 70
     1
102
RTVSPost2010Prop35
280
     0
102
RTVSPost2010PropOp35
 70
     1
102
RTVSPost2010Prop36
280
     0
102
RTVSPost2010PropOp36
 70
     1
102
RTVSPost2010Prop37
 90
       50
102
RTVSPost2010PropOp37
 70
     1
102
RTVSPost2010Prop38
140
0.0
102
RTVSPost2010PropOp38
 70
     1
102
RTVSPost2010Prop39
140
1.0
102
RTVSPost2010PropOp39
 70
     1
102
RTVSPost2010Prop40
 90
        0
102
RTVSPost2010PropOp40
 70
     1
102
RTVSPost2010Prop41ColorIndex
 90
       18
102
RTVSPost2010Prop41ColorRGB
 90
        0
102
RTVSPost2010PropOp41
 70
     1
102
RTVSPost2010Prop42
 90
       50
102
RTVSPost2010PropOp42
 70
     1
102
RTVSPost2010Prop43
 90
        3
102
RTVSPost2010PropOp43
 70
     1
102
RTVSPost2010Prop44ColorIndex
 90
        5
102
RTVSPost2010Prop44ColorRGB
 90
      255
102
RTVSPost2010PropOp44
 70
     1
102
RTVSPost2010Prop45
280
     0
102
RTVSPost2010PropOp45
 70
     1
102
RTVSPost2010Prop46
 90
       50
102
RTVSPost2010PropOp46
 70
     1
102
RTVSPost2010Prop47
 90
       50
102
RTVSPost2010PropOp47
 70
     1
102
RTVSPost2010Prop48
 90
       50
102
RTVSPost2010PropOp48
 70
     1
102
RTVSPost2010Prop49
280
     0
102
RTVSPost2010PropOp49
 70
     1
102
RTVSPost2010Prop50
 90
       50
102
RTVSPost2010PropOp50
 70
     1
102
RTVSPost2010Prop51ColorIndex
 90
      256
102
RTVSPost2010Prop51ColorRGB
 90
-16777216
102
RTVSPost2010PropOp51
 70
     0
102
RTVSPost2010Prop52
140
1.0
102
RTVSPost2010PropOp52
 70
     0
102
RTVSPost2010Prop53
 90
        2
102
RTVSPost2010PropOp53
 70
     1
102
RTVSPost2010Prop54
  1
strokes_ogs.tif
102
RTVSPost2010PropOp54
 70
     1
102
RTVSPost2010Prop55
280
     0
102
RTVSPost2010PropOp55
 70
     1
102
RTVSPost2010Prop56
140
1.0
102
RTVSPost2010PropOp56
 70
     1
102
RTVSPost2010Prop57
140
1.0
102
RTVSPost2010PropOp57
 70
     1
  0
XRECORD
  5
8C60B
102
{ACAD_REACTORS
330
87B14
102
}
330
87B14
100
AcDbXrecord
280
     1
102
RTVSPropertyOp0
 70
     1
102
RTVSPropertyOp1
 70
     1
102
RTVSPropertyOp2
 70
     1
102
RTVSPropertyOp3
 70
     1
102
RTVSPropertyOp4
 70
     1
102
RTVSPropertyOp5
 70
     1
102
RTVSPropertyOp6
 70
     1
102
RTVSPropertyOp7
 70
     1
102
RTVSPropertyOp8
 70
     1
102
RTVSPropertyOp9
 70
     1
102
RTVSPropertyOp10
 70
     1
102
RTVSPropertyOp11
 70
     1
102
RTVSPropertyOp12
 70
     1
102
RTVSPropertyOp13
 70
     1
102
RTVSPropertyOp14
 70
     1
102
RTVSPropertyOp15
 70
     1
102
RTVSPropertyOp16
 70
     1
102
RTVSPropertyOp17
 70
     1
102
RTVSPropertyOp18
 70
     1
102
RTVSPropertyOp19
 70
     1
102
RTVSPropertyOp20
 70
     1
102
RTVSPropertyOp21
 70
     1
102
RTVSPropertyOp22
 70
     1
102
RTVSPropertyOp23
 70
     1
102
RTVSPropertyOp24
 70
     1
102
RTVSPropertyOp25
 70
     1
102
RTVSPropertyOp26
 70
     1
102
RTVSPropertyOp27
 70
     1
102
RTVSPropertyOp28
 70
     1
102
RTVSPropertyOp29
 70
     1
102
RTVSPropertyOp30
 70
     1
102
RTVSPropertyOp31
 70
     1
102
RTVSPropertyOp32
 70
     1
102
RTVSPropertyOp33
 70
     1
102
RTVSPropertyOp34
 70
     1
102
RTVSPropertyOp35
 70
     1
102
RTVSPropertyOp36
 70
     1
102
RTVSPropertyOp37
 70
     1
102
RTVSPropertyOp38
 70
     1
102
RTVSPropertyOp39
 70
     1
102
RTVSPropertyOp40
 70
     1
102
RTVSPropertyOp41
 70
     1
102
RTVSPropertyOp42
 70
     1
102
RTVSPropertyOp43
 70
     1
102
RTVSPropertyOp44
 70
     1
102
RTVSPropertyOp45
 70
     1
102
RTVSPropertyOp46
 70
     1
102
RTVSPropertyOp47
 70
     1
102
RTVSPropertyOp48
 70
     1
102
RTVSPropertyOp49
 70
     1
102
RTVSPropertyOp50
 70
     1
102
RTVSPropertyOp51
 70
     0
102
RTVSPropertyOp52
 70
     0
102
RTVSPropertyOp53
 70
     1
102
RTVSPropertyOp54
 70
     1
102
RTVSPropertyOp55
 70
     1
102
RTVSPropertyOp56
 70
     1
102
RTVSPropertyOp57
 70
     1
102
RTVSPost2010Prop28
280
     0
102
RTVSPost2010PropOp28
 70
     1
102
RTVSPost2010Prop29
280
     1
102
RTVSPost2010PropOp29
 70
     1
102
RTVSPost2010Prop30
280
     1
102
RTVSPost2010PropOp30
 70
     1
102
RTVSPost2010Prop31
280
     0
102
RTVSPost2010PropOp31
 70
     1
102
RTVSPost2010Prop32
280
     0
102
RTVSPost2010PropOp32
 70
     1
102
RTVSPost2010Prop33
280
     0
102
RTVSPost2010PropOp33
 70
     1
102
RTVSPost2010Prop34
280
     0
102
RTVSPost2010PropOp34
 70
     1
102
RTVSPost2010Prop35
280
     0
102
RTVSPost2010PropOp35
 70
     1
102
RTVSPost2010Prop36
280
     0
102
RTVSPost2010PropOp36
 70
     1
102
RTVSPost2010Prop37
 90
       50
102
RTVSPost2010PropOp37
 70
     1
102
RTVSPost2010Prop38
140
0.0
102
RTVSPost2010PropOp38
 70
     1
102
RTVSPost2010Prop39
140
1.0
102
RTVSPost2010PropOp39
 70
     1
102
RTVSPost2010Prop40
 90
        0
102
RTVSPost2010PropOp40
 70
     1
102
RTVSPost2010Prop41ColorIndex
 90
       18
102
RTVSPost2010Prop41ColorRGB
 90
        0
102
RTVSPost2010PropOp41
 70
     1
102
RTVSPost2010Prop42
 90
       50
102
RTVSPost2010PropOp42
 70
     1
102
RTVSPost2010Prop43
 90
        3
102
RTVSPost2010PropOp43
 70
     1
102
RTVSPost2010Prop44ColorIndex
 90
        5
102
RTVSPost2010Prop44ColorRGB
 90
      255
102
RTVSPost2010PropOp44
 70
     1
102
RTVSPost2010Prop45
280
     0
102
RTVSPost2010PropOp45
 70
     1
102
RTVSPost2010Prop46
 90
       50
102
RTVSPost2010PropOp46
 70
     1
102
RTVSPost2010Prop47
 90
       50
102
RTVSPost2010PropOp47
 70
     1
102
RTVSPost2010Prop48
 90
       50
102
RTVSPost2010PropOp48
 70
     1
102
RTVSPost2010Prop49
280
     0
102
RTVSPost2010PropOp49
 70
     1
102
RTVSPost2010Prop50
 90
       50
102
RTVSPost2010PropOp50
 70
     1
102
RTVSPost2010Prop51ColorIndex
 90
      256
102
RTVSPost2010Prop51ColorRGB
 90
-16777216
102
RTVSPost2010PropOp51
 70
     0
102
RTVSPost2010Prop52
140
1.0
102
RTVSPost2010PropOp52
 70
     0
102
RTVSPost2010Prop53
 90
        2
102
RTVSPost2010PropOp53
 70
     1
102
RTVSPost2010Prop54
  1
strokes_ogs.tif
102
RTVSPost2010PropOp54
 70
     1
102
RTVSPost2010Prop55
280
     0
102
RTVSPost2010PropOp55
 70
     1
102
RTVSPost2010Prop56
140
1.0
102
RTVSPost2010PropOp56
 70
     1
102
RTVSPost2010Prop57
140
1.0
102
RTVSPost2010PropOp57
 70
     1
  0
XRECORD
  5
8C60C
102
{ACAD_REACTORS
330
87B1C
102
}
330
87B1C
100
AcDbXrecord
280
     1
102
RTVSPropertyOp0
 70
     1
102
RTVSPropertyOp1
 70
     1
102
RTVSPropertyOp2
 70
     1
102
RTVSPropertyOp3
 70
     1
102
RTVSPropertyOp4
 70
     1
102
RTVSPropertyOp5
 70
     1
102
RTVSPropertyOp6
 70
     1
102
RTVSPropertyOp7
 70
     1
102
RTVSPropertyOp8
 70
     1
102
RTVSPropertyOp9
 70
     1
102
RTVSPropertyOp10
 70
     1
102
RTVSPropertyOp11
 70
     1
102
RTVSPropertyOp12
 70
     1
102
RTVSPropertyOp13
 70
     1
102
RTVSPropertyOp14
 70
     1
102
RTVSPropertyOp15
 70
     1
102
RTVSPropertyOp16
 70
     1
102
RTVSPropertyOp17
 70
     1
102
RTVSPropertyOp18
 70
     1
102
RTVSPropertyOp19
 70
     1
102
RTVSPropertyOp20
 70
     1
102
RTVSPropertyOp21
 70
     1
102
RTVSPropertyOp22
 70
     1
102
RTVSPropertyOp23
 70
     1
102
RTVSPropertyOp24
 70
     1
102
RTVSPropertyOp25
 70
     1
102
RTVSPropertyOp26
 70
     1
102
RTVSPropertyOp27
 70
     1
102
RTVSPropertyOp28
 70
     1
102
RTVSPropertyOp29
 70
     1
102
RTVSPropertyOp30
 70
     1
102
RTVSPropertyOp31
 70
     1
102
RTVSPropertyOp32
 70
     1
102
RTVSPropertyOp33
 70
     1
102
RTVSPropertyOp34
 70
     1
102
RTVSPropertyOp35
 70
     1
102
RTVSPropertyOp36
 70
     1
102
RTVSPropertyOp37
 70
     1
102
RTVSPropertyOp38
 70
     1
102
RTVSPropertyOp39
 70
     1
102
RTVSPropertyOp40
 70
     1
102
RTVSPropertyOp41
 70
     1
102
RTVSPropertyOp42
 70
     1
102
RTVSPropertyOp43
 70
     1
102
RTVSPropertyOp44
 70
     1
102
RTVSPropertyOp45
 70
     1
102
RTVSPropertyOp46
 70
     1
102
RTVSPropertyOp47
 70
     1
102
RTVSPropertyOp48
 70
     1
102
RTVSPropertyOp49
 70
     1
102
RTVSPropertyOp50
 70
     1
102
RTVSPropertyOp51
 70
     0
102
RTVSPropertyOp52
 70
     0
102
RTVSPropertyOp53
 70
     1
102
RTVSPropertyOp54
 70
     1
102
RTVSPropertyOp55
 70
     1
102
RTVSPropertyOp56
 70
     1
102
RTVSPropertyOp57
 70
     1
102
RTVSPost2010Prop28
280
     0
102
RTVSPost2010PropOp28
 70
     1
102
RTVSPost2010Prop29
280
     1
102
RTVSPost2010PropOp29
 70
     1
102
RTVSPost2010Prop30
280
     1
102
RTVSPost2010PropOp30
 70
     1
102
RTVSPost2010Prop31
280
     0
102
RTVSPost2010PropOp31
 70
     1
102
RTVSPost2010Prop32
280
     0
102
RTVSPost2010PropOp32
 70
     1
102
RTVSPost2010Prop33
280
     0
102
RTVSPost2010PropOp33
 70
     1
102
RTVSPost2010Prop34
280
     0
102
RTVSPost2010PropOp34
 70
     1
102
RTVSPost2010Prop35
280
     0
102
RTVSPost2010PropOp35
 70
     1
102
RTVSPost2010Prop36
280
     0
102
RTVSPost2010PropOp36
 70
     1
102
RTVSPost2010Prop37
 90
       50
102
RTVSPost2010PropOp37
 70
     1
102
RTVSPost2010Prop38
140
0.0
102
RTVSPost2010PropOp38
 70
     1
102
RTVSPost2010Prop39
140
1.0
102
RTVSPost2010PropOp39
 70
     1
102
RTVSPost2010Prop40
 90
        0
102
RTVSPost2010PropOp40
 70
     1
102
RTVSPost2010Prop41ColorIndex
 90
       18
102
RTVSPost2010Prop41ColorRGB
 90
        0
102
RTVSPost2010PropOp41
 70
     1
102
RTVSPost2010Prop42
 90
       50
102
RTVSPost2010PropOp42
 70
     1
102
RTVSPost2010Prop43
 90
        3
102
RTVSPost2010PropOp43
 70
     1
102
RTVSPost2010Prop44ColorIndex
 90
        5
102
RTVSPost2010Prop44ColorRGB
 90
      255
102
RTVSPost2010PropOp44
 70
     1
102
RTVSPost2010Prop45
280
     0
102
RTVSPost2010PropOp45
 70
     1
102
RTVSPost2010Prop46
 90
       50
102
RTVSPost2010PropOp46
 70
     1
102
RTVSPost2010Prop47
 90
       50
102
RTVSPost2010PropOp47
 70
     1
102
RTVSPost2010Prop48
 90
       50
102
RTVSPost2010PropOp48
 70
     1
102
RTVSPost2010Prop49
280
     0
102
RTVSPost2010PropOp49
 70
     1
102
RTVSPost2010Prop50
 90
       50
102
RTVSPost2010PropOp50
 70
     1
102
RTVSPost2010Prop51ColorIndex
 90
      256
102
RTVSPost2010Prop51ColorRGB
 90
-16777216
102
RTVSPost2010PropOp51
 70
     0
102
RTVSPost2010Prop52
140
1.0
102
RTVSPost2010PropOp52
 70
     0
102
RTVSPost2010Prop53
 90
        2
102
RTVSPost2010PropOp53
 70
     1
102
RTVSPost2010Prop54
  1
strokes_ogs.tif
102
RTVSPost2010PropOp54
 70
     1
102
RTVSPost2010Prop55
280
     0
102
RTVSPost2010PropOp55
 70
     1
102
RTVSPost2010Prop56
140
1.0
102
RTVSPost2010PropOp56
 70
     1
102
RTVSPost2010Prop57
140
1.0
102
RTVSPost2010PropOp57
 70
     1
  0
XRECORD
  5
8C60D
102
{ACAD_REACTORS
330
87B38
102
}
330
87B38
100
AcDbXrecord
280
     1
102
RTVSPropertyOp0
 70
     0
102
RTVSPropertyOp1
 70
     0
102
RTVSPropertyOp2
 70
     0
102
RTVSPropertyOp3
 70
     0
102
RTVSPropertyOp4
 70
     0
102
RTVSPropertyOp5
 70
     0
102
RTVSPropertyOp6
 70
     0
102
RTVSPropertyOp7
 70
     0
102
RTVSPropertyOp8
 70
     0
102
RTVSPropertyOp9
 70
     0
102
RTVSPropertyOp10
 70
     0
102
RTVSPropertyOp11
 70
     0
102
RTVSPropertyOp12
 70
     0
102
RTVSPropertyOp13
 70
     0
102
RTVSPropertyOp14
 70
     2
102
RTVSPropertyOp15
 70
     0
102
RTVSPropertyOp16
 70
     0
102
RTVSPropertyOp17
 70
     0
102
RTVSPropertyOp18
 70
     0
102
RTVSPropertyOp19
 70
     0
102
RTVSPropertyOp20
 70
     0
102
RTVSPropertyOp21
 70
     0
102
RTVSPropertyOp22
 70
     0
102
RTVSPropertyOp23
 70
     0
102
RTVSPropertyOp24
 70
     0
102
RTVSPropertyOp25
 70
     0
102
RTVSPropertyOp26
 70
     0
102
RTVSPropertyOp27
 70
     0
102
RTVSPropertyOp28
 70
     1
102
RTVSPropertyOp29
 70
     1
102
RTVSPropertyOp30
 70
     1
102
RTVSPropertyOp31
 70
     1
102
RTVSPropertyOp32
 70
     1
102
RTVSPropertyOp33
 70
     1
102
RTVSPropertyOp34
 70
     1
102
RTVSPropertyOp35
 70
     1
102
RTVSPropertyOp36
 70
     1
102
RTVSPropertyOp37
 70
     0
102
RTVSPropertyOp38
 70
     0
102
RTVSPropertyOp39
 70
     0
102
RTVSPropertyOp40
 70
     0
102
RTVSPropertyOp41
 70
     0
102
RTVSPropertyOp42
 70
     0
102
RTVSPropertyOp43
 70
     0
102
RTVSPropertyOp44
 70
     0
102
RTVSPropertyOp45
 70
     1
102
RTVSPropertyOp46
 70
     0
102
RTVSPropertyOp47
 70
     0
102
RTVSPropertyOp48
 70
     0
102
RTVSPropertyOp49
 70
     1
102
RTVSPropertyOp50
 70
     0
102
RTVSPropertyOp51
 70
     0
102
RTVSPropertyOp52
 70
     0
102
RTVSPropertyOp53
 70
     0
102
RTVSPropertyOp54
 70
     0
102
RTVSPropertyOp55
 70
     1
102
RTVSPropertyOp56
 70
     0
102
RTVSPropertyOp57
 70
     0
102
RTVSPost2010Prop28
280
     0
102
RTVSPost2010PropOp28
 70
     1
102
RTVSPost2010Prop29
280
     1
102
RTVSPost2010PropOp29
 70
     1
102
RTVSPost2010Prop30
280
     1
102
RTVSPost2010PropOp30
 70
     1
102
RTVSPost2010Prop31
280
     0
102
RTVSPost2010PropOp31
 70
     1
102
RTVSPost2010Prop32
280
     0
102
RTVSPost2010PropOp32
 70
     1
102
RTVSPost2010Prop33
280
     0
102
RTVSPost2010PropOp33
 70
     1
102
RTVSPost2010Prop34
280
     0
102
RTVSPost2010PropOp34
 70
     1
102
RTVSPost2010Prop35
280
     0
102
RTVSPost2010PropOp35
 70
     1
102
RTVSPost2010Prop36
280
     0
102
RTVSPost2010PropOp36
 70
     1
102
RTVSPost2010Prop37
 90
       50
102
RTVSPost2010PropOp37
 70
     0
102
RTVSPost2010Prop38
140
0.0
102
RTVSPost2010PropOp38
 70
     0
102
RTVSPost2010Prop39
140
1.0
102
RTVSPost2010PropOp39
 70
     0
102
RTVSPost2010Prop40
 90
        0
102
RTVSPost2010PropOp40
 70
     0
102
RTVSPost2010Prop41ColorIndex
 90
       18
102
RTVSPost2010Prop41ColorRGB
 90
        0
102
RTVSPost2010PropOp41
 70
     0
102
RTVSPost2010Prop42
 90
       50
102
RTVSPost2010PropOp42
 70
     0
102
RTVSPost2010Prop43
 90
        3
102
RTVSPost2010PropOp43
 70
     0
102
RTVSPost2010Prop44ColorIndex
 90
        5
102
RTVSPost2010Prop44ColorRGB
 90
      255
102
RTVSPost2010PropOp44
 70
     0
102
RTVSPost2010Prop45
280
     0
102
RTVSPost2010PropOp45
 70
     1
102
RTVSPost2010Prop46
 90
       50
102
RTVSPost2010PropOp46
 70
     0
102
RTVSPost2010Prop47
 90
       50
102
RTVSPost2010PropOp47
 70
     0
102
RTVSPost2010Prop48
 90
       50
102
RTVSPost2010PropOp48
 70
     0
102
RTVSPost2010Prop49
280
     0
102
RTVSPost2010PropOp49
 70
     1
102
RTVSPost2010Prop50
 90
       50
102
RTVSPost2010PropOp50
 70
     0
102
RTVSPost2010Prop51ColorIndex
 90
      256
102
RTVSPost2010Prop51ColorRGB
 90
-16777216
102
RTVSPost2010PropOp51
 70
     0
102
RTVSPost2010Prop52
140
1.0
102
RTVSPost2010PropOp52
 70
     0
102
RTVSPost2010Prop53
 90
        2
102
RTVSPost2010PropOp53
 70
     0
102
RTVSPost2010Prop54
  1
strokes_ogs.tif
102
RTVSPost2010PropOp54
 70
     0
102
RTVSPost2010Prop55
280
     0
102
RTVSPost2010PropOp55
 70
     1
102
RTVSPost2010Prop56
140
1.0
102
RTVSPost2010PropOp56
 70
     0
102
RTVSPost2010Prop57
140
1.0
102
RTVSPost2010PropOp57
 70
     0
  0
XRECORD
  5
8C60E
102
{ACAD_REACTORS
330
87B28
102
}
330
87B28
100
AcDbXrecord
280
     1
102
RTVSPropertyOp0
 70
     1
102
RTVSPropertyOp1
 70
     1
102
RTVSPropertyOp2
 70
     1
102
RTVSPropertyOp3
 70
     1
102
RTVSPropertyOp4
 70
     1
102
RTVSPropertyOp5
 70
     1
102
RTVSPropertyOp6
 70
     1
102
RTVSPropertyOp7
 70
     1
102
RTVSPropertyOp8
 70
     1
102
RTVSPropertyOp9
 70
     1
102
RTVSPropertyOp10
 70
     1
102
RTVSPropertyOp11
 70
     1
102
RTVSPropertyOp12
 70
     1
102
RTVSPropertyOp13
 70
     1
102
RTVSPropertyOp14
 70
     1
102
RTVSPropertyOp15
 70
     1
102
RTVSPropertyOp16
 70
     1
102
RTVSPropertyOp17
 70
     1
102
RTVSPropertyOp18
 70
     1
102
RTVSPropertyOp19
 70
     1
102
RTVSPropertyOp20
 70
     1
102
RTVSPropertyOp21
 70
     1
102
RTVSPropertyOp22
 70
     1
102
RTVSPropertyOp23
 70
     1
102
RTVSPropertyOp24
 70
     1
102
RTVSPropertyOp25
 70
     1
102
RTVSPropertyOp26
 70
     1
102
RTVSPropertyOp27
 70
     1
102
RTVSPropertyOp28
 70
     1
102
RTVSPropertyOp29
 70
     1
102
RTVSPropertyOp30
 70
     1
102
RTVSPropertyOp31
 70
     1
102
RTVSPropertyOp32
 70
     1
102
RTVSPropertyOp33
 70
     1
102
RTVSPropertyOp34
 70
     1
102
RTVSPropertyOp35
 70
     1
102
RTVSPropertyOp36
 70
     1
102
RTVSPropertyOp37
 70
     1
102
RTVSPropertyOp38
 70
     1
102
RTVSPropertyOp39
 70
     1
102
RTVSPropertyOp40
 70
     1
102
RTVSPropertyOp41
 70
     1
102
RTVSPropertyOp42
 70
     1
102
RTVSPropertyOp43
 70
     1
102
RTVSPropertyOp44
 70
     1
102
RTVSPropertyOp45
 70
     1
102
RTVSPropertyOp46
 70
     1
102
RTVSPropertyOp47
 70
     1
102
RTVSPropertyOp48
 70
     1
102
RTVSPropertyOp49
 70
     1
102
RTVSPropertyOp50
 70
     1
102
RTVSPropertyOp51
 70
     0
102
RTVSPropertyOp52
 70
     0
102
RTVSPropertyOp53
 70
     1
102
RTVSPropertyOp54
 70
     1
102
RTVSPropertyOp55
 70
     1
102
RTVSPropertyOp56
 70
     1
102
RTVSPropertyOp57
 70
     1
102
RTVSPost2010Prop28
280
     0
102
RTVSPost2010PropOp28
 70
     1
102
RTVSPost2010Prop29
280
     1
102
RTVSPost2010PropOp29
 70
     1
102
RTVSPost2010Prop30
280
     1
102
RTVSPost2010PropOp30
 70
     1
102
RTVSPost2010Prop31
280
     0
102
RTVSPost2010PropOp31
 70
     1
102
RTVSPost2010Prop32
280
     0
102
RTVSPost2010PropOp32
 70
     1
102
RTVSPost2010Prop33
280
     0
102
RTVSPost2010PropOp33
 70
     1
102
RTVSPost2010Prop34
280
     0
102
RTVSPost2010PropOp34
 70
     1
102
RTVSPost2010Prop35
280
     0
102
RTVSPost2010PropOp35
 70
     1
102
RTVSPost2010Prop36
280
     0
102
RTVSPost2010PropOp36
 70
     1
102
RTVSPost2010Prop37
 90
       50
102
RTVSPost2010PropOp37
 70
     1
102
RTVSPost2010Prop38
140
0.0
102
RTVSPost2010PropOp38
 70
     1
102
RTVSPost2010Prop39
140
1.0
102
RTVSPost2010PropOp39
 70
     1
102
RTVSPost2010Prop40
 90
        0
102
RTVSPost2010PropOp40
 70
     1
102
RTVSPost2010Prop41ColorIndex
 90
       18
102
RTVSPost2010Prop41ColorRGB
 90
        0
102
RTVSPost2010PropOp41
 70
     1
102
RTVSPost2010Prop42
 90
       50
102
RTVSPost2010PropOp42
 70
     1
102
RTVSPost2010Prop43
 90
        3
102
RTVSPost2010PropOp43
 70
     1
102
RTVSPost2010Prop44ColorIndex
 90
        5
102
RTVSPost2010Prop44ColorRGB
 90
      255
102
RTVSPost2010PropOp44
 70
     1
102
RTVSPost2010Prop45
280
     0
102
RTVSPost2010PropOp45
 70
     1
102
RTVSPost2010Prop46
 90
       50
102
RTVSPost2010PropOp46
 70
     1
102
RTVSPost2010Prop47
 90
       50
102
RTVSPost2010PropOp47
 70
     1
102
RTVSPost2010Prop48
 90
       50
102
RTVSPost2010PropOp48
 70
     1
102
RTVSPost2010Prop49
280
     0
102
RTVSPost2010PropOp49
 70
     1
102
RTVSPost2010Prop50
 90
       50
102
RTVSPost2010PropOp50
 70
     1
102
RTVSPost2010Prop51ColorIndex
 90
      256
102
RTVSPost2010Prop51ColorRGB
 90
-16777216
102
RTVSPost2010PropOp51
 70
     0
102
RTVSPost2010Prop52
140
1.0
102
RTVSPost2010PropOp52
 70
     0
102
RTVSPost2010Prop53
 90
        2
102
RTVSPost2010PropOp53
 70
     1
102
RTVSPost2010Prop54
  1
strokes_ogs.tif
102
RTVSPost2010PropOp54
 70
     1
102
RTVSPost2010Prop55
280
     0
102
RTVSPost2010PropOp55
 70
     1
102
RTVSPost2010Prop56
140
1.0
102
RTVSPost2010PropOp56
 70
     1
102
RTVSPost2010Prop57
140
1.0
102
RTVSPost2010PropOp57
 70
     1
  0
XRECORD
  5
8C60F
102
{ACAD_REACTORS
330
87B3A
102
}
330
87B3A
100
AcDbXrecord
280
     1
102
RTVSPropertyOp0
 70
     0
102
RTVSPropertyOp1
 70
     0
102
RTVSPropertyOp2
 70
     0
102
RTVSPropertyOp3
 70
     0
102
RTVSPropertyOp4
 70
     0
102
RTVSPropertyOp5
 70
     0
102
RTVSPropertyOp6
 70
     0
102
RTVSPropertyOp7
 70
     0
102
RTVSPropertyOp8
 70
     0
102
RTVSPropertyOp9
 70
     0
102
RTVSPropertyOp10
 70
     0
102
RTVSPropertyOp11
 70
     0
102
RTVSPropertyOp12
 70
     0
102
RTVSPropertyOp13
 70
     0
102
RTVSPropertyOp14
 70
     2
102
RTVSPropertyOp15
 70
     0
102
RTVSPropertyOp16
 70
     0
102
RTVSPropertyOp17
 70
     0
102
RTVSPropertyOp18
 70
     0
102
RTVSPropertyOp19
 70
     0
102
RTVSPropertyOp20
 70
     0
102
RTVSPropertyOp21
 70
     0
102
RTVSPropertyOp22
 70
     0
102
RTVSPropertyOp23
 70
     0
102
RTVSPropertyOp24
 70
     0
102
RTVSPropertyOp25
 70
     0
102
RTVSPropertyOp26
 70
     0
102
RTVSPropertyOp27
 70
     0
102
RTVSPropertyOp28
 70
     1
102
RTVSPropertyOp29
 70
     1
102
RTVSPropertyOp30
 70
     1
102
RTVSPropertyOp31
 70
     1
102
RTVSPropertyOp32
 70
     1
102
RTVSPropertyOp33
 70
     1
102
RTVSPropertyOp34
 70
     1
102
RTVSPropertyOp35
 70
     1
102
RTVSPropertyOp36
 70
     1
102
RTVSPropertyOp37
 70
     0
102
RTVSPropertyOp38
 70
     0
102
RTVSPropertyOp39
 70
     0
102
RTVSPropertyOp40
 70
     0
102
RTVSPropertyOp41
 70
     0
102
RTVSPropertyOp42
 70
     0
102
RTVSPropertyOp43
 70
     0
102
RTVSPropertyOp44
 70
     0
102
RTVSPropertyOp45
 70
     1
102
RTVSPropertyOp46
 70
     0
102
RTVSPropertyOp47
 70
     0
102
RTVSPropertyOp48
 70
     0
102
RTVSPropertyOp49
 70
     1
102
RTVSPropertyOp50
 70
     0
102
RTVSPropertyOp51
 70
     0
102
RTVSPropertyOp52
 70
     0
102
RTVSPropertyOp53
 70
     0
102
RTVSPropertyOp54
 70
     0
102
RTVSPropertyOp55
 70
     1
102
RTVSPropertyOp56
 70
     0
102
RTVSPropertyOp57
 70
     0
102
RTVSPost2010Prop28
280
     0
102
RTVSPost2010PropOp28
 70
     1
102
RTVSPost2010Prop29
280
     1
102
RTVSPost2010PropOp29
 70
     1
102
RTVSPost2010Prop30
280
     1
102
RTVSPost2010PropOp30
 70
     1
102
RTVSPost2010Prop31
280
     0
102
RTVSPost2010PropOp31
 70
     1
102
RTVSPost2010Prop32
280
     0
102
RTVSPost2010PropOp32
 70
     1
102
RTVSPost2010Prop33
280
     0
102
RTVSPost2010PropOp33
 70
     1
102
RTVSPost2010Prop34
280
     0
102
RTVSPost2010PropOp34
 70
     1
102
RTVSPost2010Prop35
280
     0
102
RTVSPost2010PropOp35
 70
     1
102
RTVSPost2010Prop36
280
     0
102
RTVSPost2010PropOp36
 70
     1
102
RTVSPost2010Prop37
 90
       50
102
RTVSPost2010PropOp37
 70
     0
102
RTVSPost2010Prop38
140
0.0
102
RTVSPost2010PropOp38
 70
     0
102
RTVSPost2010Prop39
140
1.0
102
RTVSPost2010PropOp39
 70
     0
102
RTVSPost2010Prop40
 90
        0
102
RTVSPost2010PropOp40
 70
     0
102
RTVSPost2010Prop41ColorIndex
 90
       18
102
RTVSPost2010Prop41ColorRGB
 90
        0
102
RTVSPost2010PropOp41
 70
     0
102
RTVSPost2010Prop42
 90
       50
102
RTVSPost2010PropOp42
 70
     0
102
RTVSPost2010Prop43
 90
        3
102
RTVSPost2010PropOp43
 70
     0
102
RTVSPost2010Prop44ColorIndex
 90
        5
102
RTVSPost2010Prop44ColorRGB
 90
      255
102
RTVSPost2010PropOp44
 70
     0
102
RTVSPost2010Prop45
280
     0
102
RTVSPost2010PropOp45
 70
     1
102
RTVSPost2010Prop46
 90
       50
102
RTVSPost2010PropOp46
 70
     0
102
RTVSPost2010Prop47
 90
       50
102
RTVSPost2010PropOp47
 70
     0
102
RTVSPost2010Prop48
 90
       50
102
RTVSPost2010PropOp48
 70
     0
102
RTVSPost2010Prop49
280
     0
102
RTVSPost2010PropOp49
 70
     1
102
RTVSPost2010Prop50
 90
       50
102
RTVSPost2010PropOp50
 70
     0
102
RTVSPost2010Prop51ColorIndex
 90
      256
102
RTVSPost2010Prop51ColorRGB
 90
-16777216
102
RTVSPost2010PropOp51
 70
     0
102
RTVSPost2010Prop52
140
1.0
102
RTVSPost2010PropOp52
 70
     0
102
RTVSPost2010Prop53
 90
        2
102
RTVSPost2010PropOp53
 70
     0
102
RTVSPost2010Prop54
  1
strokes_ogs.tif
102
RTVSPost2010PropOp54
 70
     0
102
RTVSPost2010Prop55
280
     0
102
RTVSPost2010PropOp55
 70
     1
102
RTVSPost2010Prop56
140
1.0
102
RTVSPost2010PropOp56
 70
     0
102
RTVSPost2010Prop57
140
1.0
102
RTVSPost2010PropOp57
 70
     0
  0
XRECORD
  5
8C610
102
{ACAD_REACTORS
330
87B20
102
}
330
87B20
100
AcDbXrecord
280
     1
102
RTVSPropertyOp0
 70
     1
102
RTVSPropertyOp1
 70
     1
102
RTVSPropertyOp2
 70
     1
102
RTVSPropertyOp3
 70
     1
102
RTVSPropertyOp4
 70
     1
102
RTVSPropertyOp5
 70
     1
102
RTVSPropertyOp6
 70
     1
102
RTVSPropertyOp7
 70
     1
102
RTVSPropertyOp8
 70
     1
102
RTVSPropertyOp9
 70
     1
102
RTVSPropertyOp10
 70
     1
102
RTVSPropertyOp11
 70
     1
102
RTVSPropertyOp12
 70
     1
102
RTVSPropertyOp13
 70
     1
102
RTVSPropertyOp14
 70
     1
102
RTVSPropertyOp15
 70
     1
102
RTVSPropertyOp16
 70
     1
102
RTVSPropertyOp17
 70
     1
102
RTVSPropertyOp18
 70
     1
102
RTVSPropertyOp19
 70
     1
102
RTVSPropertyOp20
 70
     1
102
RTVSPropertyOp21
 70
     1
102
RTVSPropertyOp22
 70
     1
102
RTVSPropertyOp23
 70
     1
102
RTVSPropertyOp24
 70
     1
102
RTVSPropertyOp25
 70
     1
102
RTVSPropertyOp26
 70
     1
102
RTVSPropertyOp27
 70
     1
102
RTVSPropertyOp28
 70
     1
102
RTVSPropertyOp29
 70
     1
102
RTVSPropertyOp30
 70
     1
102
RTVSPropertyOp31
 70
     1
102
RTVSPropertyOp32
 70
     1
102
RTVSPropertyOp33
 70
     1
102
RTVSPropertyOp34
 70
     1
102
RTVSPropertyOp35
 70
     1
102
RTVSPropertyOp36
 70
     1
102
RTVSPropertyOp37
 70
     1
102
RTVSPropertyOp38
 70
     1
102
RTVSPropertyOp39
 70
     1
102
RTVSPropertyOp40
 70
     1
102
RTVSPropertyOp41
 70
     1
102
RTVSPropertyOp42
 70
     1
102
RTVSPropertyOp43
 70
     1
102
RTVSPropertyOp44
 70
     1
102
RTVSPropertyOp45
 70
     1
102
RTVSPropertyOp46
 70
     1
102
RTVSPropertyOp47
 70
     1
102
RTVSPropertyOp48
 70
     1
102
RTVSPropertyOp49
 70
     1
102
RTVSPropertyOp50
 70
     1
102
RTVSPropertyOp51
 70
     0
102
RTVSPropertyOp52
 70
     0
102
RTVSPropertyOp53
 70
     1
102
RTVSPropertyOp54
 70
     1
102
RTVSPropertyOp55
 70
     1
102
RTVSPropertyOp56
 70
     1
102
RTVSPropertyOp57
 70
     1
102
RTVSPost2010Prop28
280
     0
102
RTVSPost2010PropOp28
 70
     1
102
RTVSPost2010Prop29
280
     1
102
RTVSPost2010PropOp29
 70
     1
102
RTVSPost2010Prop30
280
     1
102
RTVSPost2010PropOp30
 70
     1
102
RTVSPost2010Prop31
280
     0
102
RTVSPost2010PropOp31
 70
     1
102
RTVSPost2010Prop32
280
     0
102
RTVSPost2010PropOp32
 70
     1
102
RTVSPost2010Prop33
280
     0
102
RTVSPost2010PropOp33
 70
     1
102
RTVSPost2010Prop34
280
     0
102
RTVSPost2010PropOp34
 70
     1
102
RTVSPost2010Prop35
280
     0
102
RTVSPost2010PropOp35
 70
     1
102
RTVSPost2010Prop36
280
     0
102
RTVSPost2010PropOp36
 70
     1
102
RTVSPost2010Prop37
 90
       50
102
RTVSPost2010PropOp37
 70
     1
102
RTVSPost2010Prop38
140
0.0
102
RTVSPost2010PropOp38
 70
     1
102
RTVSPost2010Prop39
140
1.0
102
RTVSPost2010PropOp39
 70
     1
102
RTVSPost2010Prop40
 90
        0
102
RTVSPost2010PropOp40
 70
     1
102
RTVSPost2010Prop41ColorIndex
 90
       18
102
RTVSPost2010Prop41ColorRGB
 90
        0
102
RTVSPost2010PropOp41
 70
     1
102
RTVSPost2010Prop42
 90
       50
102
RTVSPost2010PropOp42
 70
     1
102
RTVSPost2010Prop43
 90
        3
102
RTVSPost2010PropOp43
 70
     1
102
RTVSPost2010Prop44ColorIndex
 90
        5
102
RTVSPost2010Prop44ColorRGB
 90
      255
102
RTVSPost2010PropOp44
 70
     1
102
RTVSPost2010Prop45
280
     0
102
RTVSPost2010PropOp45
 70
     1
102
RTVSPost2010Prop46
 90
       50
102
RTVSPost2010PropOp46
 70
     1
102
RTVSPost2010Prop47
 90
       50
102
RTVSPost2010PropOp47
 70
     1
102
RTVSPost2010Prop48
 90
       50
102
RTVSPost2010PropOp48
 70
     1
102
RTVSPost2010Prop49
280
     0
102
RTVSPost2010PropOp49
 70
     1
102
RTVSPost2010Prop50
 90
       50
102
RTVSPost2010PropOp50
 70
     1
102
RTVSPost2010Prop51ColorIndex
 90
      256
102
RTVSPost2010Prop51ColorRGB
 90
-16777216
102
RTVSPost2010PropOp51
 70
     0
102
RTVSPost2010Prop52
140
1.0
102
RTVSPost2010PropOp52
 70
     0
102
RTVSPost2010Prop53
 90
        2
102
RTVSPost2010PropOp53
 70
     1
102
RTVSPost2010Prop54
  1
strokes_ogs.tif
102
RTVSPost2010PropOp54
 70
     1
102
RTVSPost2010Prop55
280
     0
102
RTVSPost2010PropOp55
 70
     1
102
RTVSPost2010Prop56
140
1.0
102
RTVSPost2010PropOp56
 70
     1
102
RTVSPost2010Prop57
140
1.0
102
RTVSPost2010PropOp57
 70
     1
  0
XRECORD
  5
8C611
102
{ACAD_REACTORS
330
87B36
102
}
330
87B36
100
AcDbXrecord
280
     1
102
RTVSPropertyOp0
 70
     1
102
RTVSPropertyOp1
 70
     1
102
RTVSPropertyOp2
 70
     1
102
RTVSPropertyOp3
 70
     1
102
RTVSPropertyOp4
 70
     1
102
RTVSPropertyOp5
 70
     1
102
RTVSPropertyOp6
 70
     1
102
RTVSPropertyOp7
 70
     1
102
RTVSPropertyOp8
 70
     1
102
RTVSPropertyOp9
 70
     1
102
RTVSPropertyOp10
 70
     1
102
RTVSPropertyOp11
 70
     1
102
RTVSPropertyOp12
 70
     1
102
RTVSPropertyOp13
 70
     1
102
RTVSPropertyOp14
 70
     1
102
RTVSPropertyOp15
 70
     1
102
RTVSPropertyOp16
 70
     1
102
RTVSPropertyOp17
 70
     1
102
RTVSPropertyOp18
 70
     1
102
RTVSPropertyOp19
 70
     1
102
RTVSPropertyOp20
 70
     1
102
RTVSPropertyOp21
 70
     1
102
RTVSPropertyOp22
 70
     1
102
RTVSPropertyOp23
 70
     1
102
RTVSPropertyOp24
 70
     1
102
RTVSPropertyOp25
 70
     1
102
RTVSPropertyOp26
 70
     1
102
RTVSPropertyOp27
 70
     1
102
RTVSPropertyOp28
 70
     1
102
RTVSPropertyOp29
 70
     1
102
RTVSPropertyOp30
 70
     1
102
RTVSPropertyOp31
 70
     1
102
RTVSPropertyOp32
 70
     1
102
RTVSPropertyOp33
 70
     1
102
RTVSPropertyOp34
 70
     1
102
RTVSPropertyOp35
 70
     1
102
RTVSPropertyOp36
 70
     1
102
RTVSPropertyOp37
 70
     1
102
RTVSPropertyOp38
 70
     1
102
RTVSPropertyOp39
 70
     1
102
RTVSPropertyOp40
 70
     1
102
RTVSPropertyOp41
 70
     1
102
RTVSPropertyOp42
 70
     1
102
RTVSPropertyOp43
 70
     1
102
RTVSPropertyOp44
 70
     1
102
RTVSPropertyOp45
 70
     1
102
RTVSPropertyOp46
 70
     1
102
RTVSPropertyOp47
 70
     1
102
RTVSPropertyOp48
 70
     1
102
RTVSPropertyOp49
 70
     1
102
RTVSPropertyOp50
 70
     1
102
RTVSPropertyOp51
 70
     0
102
RTVSPropertyOp52
 70
     0
102
RTVSPropertyOp53
 70
     1
102
RTVSPropertyOp54
 70
     1
102
RTVSPropertyOp55
 70
     1
102
RTVSPropertyOp56
 70
     1
102
RTVSPropertyOp57
 70
     1
102
RTVSPost2010Prop28
280
     0
102
RTVSPost2010PropOp28
 70
     1
102
RTVSPost2010Prop29
280
     1
102
RTVSPost2010PropOp29
 70
     1
102
RTVSPost2010Prop30
280
     1
102
RTVSPost2010PropOp30
 70
     1
102
RTVSPost2010Prop31
280
     0
102
RTVSPost2010PropOp31
 70
     1
102
RTVSPost2010Prop32
280
     0
102
RTVSPost2010PropOp32
 70
     1
102
RTVSPost2010Prop33
280
     0
102
RTVSPost2010PropOp33
 70
     1
102
RTVSPost2010Prop34
280
     0
102
RTVSPost2010PropOp34
 70
     1
102
RTVSPost2010Prop35
280
     0
102
RTVSPost2010PropOp35
 70
     1
102
RTVSPost2010Prop36
280
     0
102
RTVSPost2010PropOp36
 70
     1
102
RTVSPost2010Prop37
 90
       50
102
RTVSPost2010PropOp37
 70
     1
102
RTVSPost2010Prop38
140
0.0
102
RTVSPost2010PropOp38
 70
     1
102
RTVSPost2010Prop39
140
1.0
102
RTVSPost2010PropOp39
 70
     1
102
RTVSPost2010Prop40
 90
        0
102
RTVSPost2010PropOp40
 70
     1
102
RTVSPost2010Prop41ColorIndex
 90
       18
102
RTVSPost2010Prop41ColorRGB
 90
        0
102
RTVSPost2010PropOp41
 70
     1
102
RTVSPost2010Prop42
 90
       50
102
RTVSPost2010PropOp42
 70
     1
102
RTVSPost2010Prop43
 90
        3
102
RTVSPost2010PropOp43
 70
     1
102
RTVSPost2010Prop44ColorIndex
 90
        5
102
RTVSPost2010Prop44ColorRGB
 90
      255
102
RTVSPost2010PropOp44
 70
     1
102
RTVSPost2010Prop45
280
     0
102
RTVSPost2010PropOp45
 70
     1
102
RTVSPost2010Prop46
 90
       50
102
RTVSPost2010PropOp46
 70
     1
102
RTVSPost2010Prop47
 90
       50
102
RTVSPost2010PropOp47
 70
     1
102
RTVSPost2010Prop48
 90
       50
102
RTVSPost2010PropOp48
 70
     1
102
RTVSPost2010Prop49
280
     0
102
RTVSPost2010PropOp49
 70
     1
102
RTVSPost2010Prop50
 90
       50
102
RTVSPost2010PropOp50
 70
     1
102
RTVSPost2010Prop51ColorIndex
 90
      256
102
RTVSPost2010Prop51ColorRGB
 90
-16777216
102
RTVSPost2010PropOp51
 70
     0
102
RTVSPost2010Prop52
140
1.0
102
RTVSPost2010PropOp52
 70
     0
102
RTVSPost2010Prop53
 90
        2
102
RTVSPost2010PropOp53
 70
     1
102
RTVSPost2010Prop54
  1
strokes_ogs.tif
102
RTVSPost2010PropOp54
 70
     1
102
RTVSPost2010Prop55
280
     0
102
RTVSPost2010PropOp55
 70
     1
102
RTVSPost2010Prop56
140
1.0
102
RTVSPost2010PropOp56
 70
     1
102
RTVSPost2010Prop57
140
1.0
102
RTVSPost2010PropOp57
 70
     1
  0
XRECORD
  5
8C612
102
{ACAD_REACTORS
330
87B34
102
}
330
87B34
100
AcDbXrecord
280
     1
102
RTVSPropertyOp0
 70
     1
102
RTVSPropertyOp1
 70
     1
102
RTVSPropertyOp2
 70
     1
102
RTVSPropertyOp3
 70
     1
102
RTVSPropertyOp4
 70
     1
102
RTVSPropertyOp5
 70
     1
102
RTVSPropertyOp6
 70
     1
102
RTVSPropertyOp7
 70
     1
102
RTVSPropertyOp8
 70
     1
102
RTVSPropertyOp9
 70
     1
102
RTVSPropertyOp10
 70
     1
102
RTVSPropertyOp11
 70
     1
102
RTVSPropertyOp12
 70
     1
102
RTVSPropertyOp13
 70
     1
102
RTVSPropertyOp14
 70
     1
102
RTVSPropertyOp15
 70
     1
102
RTVSPropertyOp16
 70
     1
102
RTVSPropertyOp17
 70
     1
102
RTVSPropertyOp18
 70
     1
102
RTVSPropertyOp19
 70
     1
102
RTVSPropertyOp20
 70
     1
102
RTVSPropertyOp21
 70
     1
102
RTVSPropertyOp22
 70
     1
102
RTVSPropertyOp23
 70
     1
102
RTVSPropertyOp24
 70
     1
102
RTVSPropertyOp25
 70
     1
102
RTVSPropertyOp26
 70
     1
102
RTVSPropertyOp27
 70
     1
102
RTVSPropertyOp28
 70
     1
102
RTVSPropertyOp29
 70
     1
102
RTVSPropertyOp30
 70
     1
102
RTVSPropertyOp31
 70
     1
102
RTVSPropertyOp32
 70
     1
102
RTVSPropertyOp33
 70
     1
102
RTVSPropertyOp34
 70
     1
102
RTVSPropertyOp35
 70
     1
102
RTVSPropertyOp36
 70
     1
102
RTVSPropertyOp37
 70
     1
102
RTVSPropertyOp38
 70
     1
102
RTVSPropertyOp39
 70
     1
102
RTVSPropertyOp40
 70
     1
102
RTVSPropertyOp41
 70
     1
102
RTVSPropertyOp42
 70
     1
102
RTVSPropertyOp43
 70
     1
102
RTVSPropertyOp44
 70
     1
102
RTVSPropertyOp45
 70
     1
102
RTVSPropertyOp46
 70
     1
102
RTVSPropertyOp47
 70
     1
102
RTVSPropertyOp48
 70
     1
102
RTVSPropertyOp49
 70
     1
102
RTVSPropertyOp50
 70
     1
102
RTVSPropertyOp51
 70
     0
102
RTVSPropertyOp52
 70
     0
102
RTVSPropertyOp53
 70
     1
102
RTVSPropertyOp54
 70
     1
102
RTVSPropertyOp55
 70
     1
102
RTVSPropertyOp56
 70
     1
102
RTVSPropertyOp57
 70
     1
102
RTVSPost2010Prop28
280
     0
102
RTVSPost2010PropOp28
 70
     1
102
RTVSPost2010Prop29
280
     1
102
RTVSPost2010PropOp29
 70
     1
102
RTVSPost2010Prop30
280
     1
102
RTVSPost2010PropOp30
 70
     1
102
RTVSPost2010Prop31
280
     0
102
RTVSPost2010PropOp31
 70
     1
102
RTVSPost2010Prop32
280
     0
102
RTVSPost2010PropOp32
 70
     1
102
RTVSPost2010Prop33
280
     0
102
RTVSPost2010PropOp33
 70
     1
102
RTVSPost2010Prop34
280
     0
102
RTVSPost2010PropOp34
 70
     1
102
RTVSPost2010Prop35
280
     0
102
RTVSPost2010PropOp35
 70
     1
102
RTVSPost2010Prop36
280
     0
102
RTVSPost2010PropOp36
 70
     1
102
RTVSPost2010Prop37
 90
       50
102
RTVSPost2010PropOp37
 70
     1
102
RTVSPost2010Prop38
140
0.0
102
RTVSPost2010PropOp38
 70
     1
102
RTVSPost2010Prop39
140
1.0
102
RTVSPost2010PropOp39
 70
     1
102
RTVSPost2010Prop40
 90
        0
102
RTVSPost2010PropOp40
 70
     1
102
RTVSPost2010Prop41ColorIndex
 90
       18
102
RTVSPost2010Prop41ColorRGB
 90
        0
102
RTVSPost2010PropOp41
 70
     1
102
RTVSPost2010Prop42
 90
       50
102
RTVSPost2010PropOp42
 70
     1
102
RTVSPost2010Prop43
 90
        3
102
RTVSPost2010PropOp43
 70
     1
102
RTVSPost2010Prop44ColorIndex
 90
        5
102
RTVSPost2010Prop44ColorRGB
 90
      255
102
RTVSPost2010PropOp44
 70
     1
102
RTVSPost2010Prop45
280
     0
102
RTVSPost2010PropOp45
 70
     1
102
RTVSPost2010Prop46
 90
       50
102
RTVSPost2010PropOp46
 70
     1
102
RTVSPost2010Prop47
 90
       50
102
RTVSPost2010PropOp47
 70
     1
102
RTVSPost2010Prop48
 90
       50
102
RTVSPost2010PropOp48
 70
     1
102
RTVSPost2010Prop49
280
     0
102
RTVSPost2010PropOp49
 70
     1
102
RTVSPost2010Prop50
 90
       50
102
RTVSPost2010PropOp50
 70
     1
102
RTVSPost2010Prop51ColorIndex
 90
      256
102
RTVSPost2010Prop51ColorRGB
 90
-16777216
102
RTVSPost2010PropOp51
 70
     0
102
RTVSPost2010Prop52
140
1.0
102
RTVSPost2010PropOp52
 70
     0
102
RTVSPost2010Prop53
 90
        2
102
RTVSPost2010PropOp53
 70
     1
102
RTVSPost2010Prop54
  1
strokes_ogs.tif
102
RTVSPost2010PropOp54
 70
     1
102
RTVSPost2010Prop55
280
     0
102
RTVSPost2010PropOp55
 70
     1
102
RTVSPost2010Prop56
140
1.0
102
RTVSPost2010PropOp56
 70
     1
102
RTVSPost2010Prop57
140
1.0
102
RTVSPost2010PropOp57
 70
     1
  0
XRECORD
  5
8C613
102
{ACAD_REACTORS
330
87B2E
102
}
330
87B2E
100
AcDbXrecord
280
     1
102
RTVSPropertyOp0
 70
     1
102
RTVSPropertyOp1
 70
     1
102
RTVSPropertyOp2
 70
     1
102
RTVSPropertyOp3
 70
     1
102
RTVSPropertyOp4
 70
     1
102
RTVSPropertyOp5
 70
     1
102
RTVSPropertyOp6
 70
     1
102
RTVSPropertyOp7
 70
     1
102
RTVSPropertyOp8
 70
     1
102
RTVSPropertyOp9
 70
     1
102
RTVSPropertyOp10
 70
     1
102
RTVSPropertyOp11
 70
     1
102
RTVSPropertyOp12
 70
     1
102
RTVSPropertyOp13
 70
     1
102
RTVSPropertyOp14
 70
     1
102
RTVSPropertyOp15
 70
     1
102
RTVSPropertyOp16
 70
     1
102
RTVSPropertyOp17
 70
     1
102
RTVSPropertyOp18
 70
     1
102
RTVSPropertyOp19
 70
     1
102
RTVSPropertyOp20
 70
     1
102
RTVSPropertyOp21
 70
     1
102
RTVSPropertyOp22
 70
     1
102
RTVSPropertyOp23
 70
     1
102
RTVSPropertyOp24
 70
     1
102
RTVSPropertyOp25
 70
     1
102
RTVSPropertyOp26
 70
     1
102
RTVSPropertyOp27
 70
     1
102
RTVSPropertyOp28
 70
     1
102
RTVSPropertyOp29
 70
     1
102
RTVSPropertyOp30
 70
     1
102
RTVSPropertyOp31
 70
     1
102
RTVSPropertyOp32
 70
     1
102
RTVSPropertyOp33
 70
     1
102
RTVSPropertyOp34
 70
     1
102
RTVSPropertyOp35
 70
     1
102
RTVSPropertyOp36
 70
     1
102
RTVSPropertyOp37
 70
     1
102
RTVSPropertyOp38
 70
     1
102
RTVSPropertyOp39
 70
     1
102
RTVSPropertyOp40
 70
     1
102
RTVSPropertyOp41
 70
     1
102
RTVSPropertyOp42
 70
     1
102
RTVSPropertyOp43
 70
     1
102
RTVSPropertyOp44
 70
     1
102
RTVSPropertyOp45
 70
     1
102
RTVSPropertyOp46
 70
     1
102
RTVSPropertyOp47
 70
     1
102
RTVSPropertyOp48
 70
     1
102
RTVSPropertyOp49
 70
     1
102
RTVSPropertyOp50
 70
     1
102
RTVSPropertyOp51
 70
     0
102
RTVSPropertyOp52
 70
     0
102
RTVSPropertyOp53
 70
     1
102
RTVSPropertyOp54
 70
     1
102
RTVSPropertyOp55
 70
     1
102
RTVSPropertyOp56
 70
     1
102
RTVSPropertyOp57
 70
     1
102
RTVSPost2010Prop28
280
     0
102
RTVSPost2010PropOp28
 70
     1
102
RTVSPost2010Prop29
280
     1
102
RTVSPost2010PropOp29
 70
     1
102
RTVSPost2010Prop30
280
     1
102
RTVSPost2010PropOp30
 70
     1
102
RTVSPost2010Prop31
280
     0
102
RTVSPost2010PropOp31
 70
     1
102
RTVSPost2010Prop32
280
     0
102
RTVSPost2010PropOp32
 70
     1
102
RTVSPost2010Prop33
280
     0
102
RTVSPost2010PropOp33
 70
     1
102
RTVSPost2010Prop34
280
     0
102
RTVSPost2010PropOp34
 70
     1
102
RTVSPost2010Prop35
280
     0
102
RTVSPost2010PropOp35
 70
     1
102
RTVSPost2010Prop36
280
     0
102
RTVSPost2010PropOp36
 70
     1
102
RTVSPost2010Prop37
 90
       50
102
RTVSPost2010PropOp37
 70
     1
102
RTVSPost2010Prop38
140
0.0
102
RTVSPost2010PropOp38
 70
     1
102
RTVSPost2010Prop39
140
1.0
102
RTVSPost2010PropOp39
 70
     1
102
RTVSPost2010Prop40
 90
        0
102
RTVSPost2010PropOp40
 70
     1
102
RTVSPost2010Prop41ColorIndex
 90
       18
102
RTVSPost2010Prop41ColorRGB
 90
        0
102
RTVSPost2010PropOp41
 70
     1
102
RTVSPost2010Prop42
 90
       50
102
RTVSPost2010PropOp42
 70
     1
102
RTVSPost2010Prop43
 90
        3
102
RTVSPost2010PropOp43
 70
     1
102
RTVSPost2010Prop44ColorIndex
 90
        5
102
RTVSPost2010Prop44ColorRGB
 90
      255
102
RTVSPost2010PropOp44
 70
     1
102
RTVSPost2010Prop45
280
     0
102
RTVSPost2010PropOp45
 70
     1
102
RTVSPost2010Prop46
 90
       50
102
RTVSPost2010PropOp46
 70
     1
102
RTVSPost2010Prop47
 90
       50
102
RTVSPost2010PropOp47
 70
     1
102
RTVSPost2010Prop48
 90
       50
102
RTVSPost2010PropOp48
 70
     1
102
RTVSPost2010Prop49
280
     0
102
RTVSPost2010PropOp49
 70
     1
102
RTVSPost2010Prop50
 90
       50
102
RTVSPost2010PropOp50
 70
     1
102
RTVSPost2010Prop51ColorIndex
 90
      256
102
RTVSPost2010Prop51ColorRGB
 90
-16777216
102
RTVSPost2010PropOp51
 70
     0
102
RTVSPost2010Prop52
140
1.0
102
RTVSPost2010PropOp52
 70
     0
102
RTVSPost2010Prop53
 90
        2
102
RTVSPost2010PropOp53
 70
     1
102
RTVSPost2010Prop54
  1
strokes_ogs.tif
102
RTVSPost2010PropOp54
 70
     1
102
RTVSPost2010Prop55
280
     0
102
RTVSPost2010PropOp55
 70
     1
102
RTVSPost2010Prop56
140
1.0
102
RTVSPost2010PropOp56
 70
     1
102
RTVSPost2010Prop57
140
1.0
102
RTVSPost2010PropOp57
 70
     1
  0
XRECORD
  5
8C614
102
{ACAD_REACTORS
330
87B30
102
}
330
87B30
100
AcDbXrecord
280
     1
102
RTVSPropertyOp0
 70
     1
102
RTVSPropertyOp1
 70
     1
102
RTVSPropertyOp2
 70
     1
102
RTVSPropertyOp3
 70
     1
102
RTVSPropertyOp4
 70
     1
102
RTVSPropertyOp5
 70
     1
102
RTVSPropertyOp6
 70
     1
102
RTVSPropertyOp7
 70
     1
102
RTVSPropertyOp8
 70
     1
102
RTVSPropertyOp9
 70
     1
102
RTVSPropertyOp10
 70
     1
102
RTVSPropertyOp11
 70
     1
102
RTVSPropertyOp12
 70
     1
102
RTVSPropertyOp13
 70
     1
102
RTVSPropertyOp14
 70
     1
102
RTVSPropertyOp15
 70
     1
102
RTVSPropertyOp16
 70
     1
102
RTVSPropertyOp17
 70
     1
102
RTVSPropertyOp18
 70
     1
102
RTVSPropertyOp19
 70
     1
102
RTVSPropertyOp20
 70
     1
102
RTVSPropertyOp21
 70
     1
102
RTVSPropertyOp22
 70
     1
102
RTVSPropertyOp23
 70
     1
102
RTVSPropertyOp24
 70
     1
102
RTVSPropertyOp25
 70
     1
102
RTVSPropertyOp26
 70
     1
102
RTVSPropertyOp27
 70
     1
102
RTVSPropertyOp28
 70
     1
102
RTVSPropertyOp29
 70
     1
102
RTVSPropertyOp30
 70
     1
102
RTVSPropertyOp31
 70
     1
102
RTVSPropertyOp32
 70
     1
102
RTVSPropertyOp33
 70
     1
102
RTVSPropertyOp34
 70
     1
102
RTVSPropertyOp35
 70
     1
102
RTVSPropertyOp36
 70
     1
102
RTVSPropertyOp37
 70
     1
102
RTVSPropertyOp38
 70
     1
102
RTVSPropertyOp39
 70
     1
102
RTVSPropertyOp40
 70
     1
102
RTVSPropertyOp41
 70
     1
102
RTVSPropertyOp42
 70
     1
102
RTVSPropertyOp43
 70
     1
102
RTVSPropertyOp44
 70
     1
102
RTVSPropertyOp45
 70
     1
102
RTVSPropertyOp46
 70
     1
102
RTVSPropertyOp47
 70
     1
102
RTVSPropertyOp48
 70
     1
102
RTVSPropertyOp49
 70
     1
102
RTVSPropertyOp50
 70
     1
102
RTVSPropertyOp51
 70
     0
102
RTVSPropertyOp52
 70
     0
102
RTVSPropertyOp53
 70
     1
102
RTVSPropertyOp54
 70
     1
102
RTVSPropertyOp55
 70
     1
102
RTVSPropertyOp56
 70
     1
102
RTVSPropertyOp57
 70
     1
102
RTVSPost2010Prop28
280
     0
102
RTVSPost2010PropOp28
 70
     1
102
RTVSPost2010Prop29
280
     1
102
RTVSPost2010PropOp29
 70
     1
102
RTVSPost2010Prop30
280
     1
102
RTVSPost2010PropOp30
 70
     1
102
RTVSPost2010Prop31
280
     0
102
RTVSPost2010PropOp31
 70
     1
102
RTVSPost2010Prop32
280
     0
102
RTVSPost2010PropOp32
 70
     1
102
RTVSPost2010Prop33
280
     0
102
RTVSPost2010PropOp33
 70
     1
102
RTVSPost2010Prop34
280
     0
102
RTVSPost2010PropOp34
 70
     1
102
RTVSPost2010Prop35
280
     0
102
RTVSPost2010PropOp35
 70
     1
102
RTVSPost2010Prop36
280
     0
102
RTVSPost2010PropOp36
 70
     1
102
RTVSPost2010Prop37
 90
       50
102
RTVSPost2010PropOp37
 70
     1
102
RTVSPost2010Prop38
140
0.0
102
RTVSPost2010PropOp38
 70
     1
102
RTVSPost2010Prop39
140
1.0
102
RTVSPost2010PropOp39
 70
     1
102
RTVSPost2010Prop40
 90
        0
102
RTVSPost2010PropOp40
 70
     1
102
RTVSPost2010Prop41ColorIndex
 90
       18
102
RTVSPost2010Prop41ColorRGB
 90
        0
102
RTVSPost2010PropOp41
 70
     1
102
RTVSPost2010Prop42
 90
       50
102
RTVSPost2010PropOp42
 70
     1
102
RTVSPost2010Prop43
 90
        3
102
RTVSPost2010PropOp43
 70
     1
102
RTVSPost2010Prop44ColorIndex
 90
        5
102
RTVSPost2010Prop44ColorRGB
 90
      255
102
RTVSPost2010PropOp44
 70
     1
102
RTVSPost2010Prop45
280
     0
102
RTVSPost2010PropOp45
 70
     1
102
RTVSPost2010Prop46
 90
       50
102
RTVSPost2010PropOp46
 70
     1
102
RTVSPost2010Prop47
 90
       50
102
RTVSPost2010PropOp47
 70
     1
102
RTVSPost2010Prop48
 90
       50
102
RTVSPost2010PropOp48
 70
     1
102
RTVSPost2010Prop49
280
     0
102
RTVSPost2010PropOp49
 70
     1
102
RTVSPost2010Prop50
 90
       50
102
RTVSPost2010PropOp50
 70
     1
102
RTVSPost2010Prop51ColorIndex
 90
      256
102
RTVSPost2010Prop51ColorRGB
 90
-16777216
102
RTVSPost2010PropOp51
 70
     0
102
RTVSPost2010Prop52
140
1.0
102
RTVSPost2010PropOp52
 70
     0
102
RTVSPost2010Prop53
 90
        2
102
RTVSPost2010PropOp53
 70
     1
102
RTVSPost2010Prop54
  1
strokes_ogs.tif
102
RTVSPost2010PropOp54
 70
     1
102
RTVSPost2010Prop55
280
     0
102
RTVSPost2010PropOp55
 70
     1
102
RTVSPost2010Prop56
140
1.0
102
RTVSPost2010PropOp56
 70
     1
102
RTVSPost2010Prop57
140
1.0
102
RTVSPost2010PropOp57
 70
     1
  0
XRECORD
  5
8C615
102
{ACAD_REACTORS
330
87B26
102
}
330
87B26
100
AcDbXrecord
280
     1
102
RTVSPropertyOp0
 70
     1
102
RTVSPropertyOp1
 70
     1
102
RTVSPropertyOp2
 70
     1
102
RTVSPropertyOp3
 70
     1
102
RTVSPropertyOp4
 70
     1
102
RTVSPropertyOp5
 70
     1
102
RTVSPropertyOp6
 70
     1
102
RTVSPropertyOp7
 70
     1
102
RTVSPropertyOp8
 70
     1
102
RTVSPropertyOp9
 70
     1
102
RTVSPropertyOp10
 70
     1
102
RTVSPropertyOp11
 70
     1
102
RTVSPropertyOp12
 70
     1
102
RTVSPropertyOp13
 70
     1
102
RTVSPropertyOp14
 70
     1
102
RTVSPropertyOp15
 70
     1
102
RTVSPropertyOp16
 70
     1
102
RTVSPropertyOp17
 70
     1
102
RTVSPropertyOp18
 70
     1
102
RTVSPropertyOp19
 70
     1
102
RTVSPropertyOp20
 70
     1
102
RTVSPropertyOp21
 70
     1
102
RTVSPropertyOp22
 70
     1
102
RTVSPropertyOp23
 70
     1
102
RTVSPropertyOp24
 70
     1
102
RTVSPropertyOp25
 70
     1
102
RTVSPropertyOp26
 70
     1
102
RTVSPropertyOp27
 70
     1
102
RTVSPropertyOp28
 70
     1
102
RTVSPropertyOp29
 70
     1
102
RTVSPropertyOp30
 70
     1
102
RTVSPropertyOp31
 70
     1
102
RTVSPropertyOp32
 70
     1
102
RTVSPropertyOp33
 70
     1
102
RTVSPropertyOp34
 70
     1
102
RTVSPropertyOp35
 70
     1
102
RTVSPropertyOp36
 70
     1
102
RTVSPropertyOp37
 70
     1
102
RTVSPropertyOp38
 70
     1
102
RTVSPropertyOp39
 70
     1
102
RTVSPropertyOp40
 70
     1
102
RTVSPropertyOp41
 70
     1
102
RTVSPropertyOp42
 70
     1
102
RTVSPropertyOp43
 70
     1
102
RTVSPropertyOp44
 70
     1
102
RTVSPropertyOp45
 70
     1
102
RTVSPropertyOp46
 70
     1
102
RTVSPropertyOp47
 70
     1
102
RTVSPropertyOp48
 70
     1
102
RTVSPropertyOp49
 70
     1
102
RTVSPropertyOp50
 70
     1
102
RTVSPropertyOp51
 70
     0
102
RTVSPropertyOp52
 70
     0
102
RTVSPropertyOp53
 70
     1
102
RTVSPropertyOp54
 70
     1
102
RTVSPropertyOp55
 70
     1
102
RTVSPropertyOp56
 70
     1
102
RTVSPropertyOp57
 70
     1
102
RTVSPost2010Prop28
280
     0
102
RTVSPost2010PropOp28
 70
     1
102
RTVSPost2010Prop29
280
     1
102
RTVSPost2010PropOp29
 70
     1
102
RTVSPost2010Prop30
280
     1
102
RTVSPost2010PropOp30
 70
     1
102
RTVSPost2010Prop31
280
     0
102
RTVSPost2010PropOp31
 70
     1
102
RTVSPost2010Prop32
280
     0
102
RTVSPost2010PropOp32
 70
     1
102
RTVSPost2010Prop33
280
     0
102
RTVSPost2010PropOp33
 70
     1
102
RTVSPost2010Prop34
280
     0
102
RTVSPost2010PropOp34
 70
     1
102
RTVSPost2010Prop35
280
     0
102
RTVSPost2010PropOp35
 70
     1
102
RTVSPost2010Prop36
280
     0
102
RTVSPost2010PropOp36
 70
     1
102
RTVSPost2010Prop37
 90
       50
102
RTVSPost2010PropOp37
 70
     1
102
RTVSPost2010Prop38
140
0.0
102
RTVSPost2010PropOp38
 70
     1
102
RTVSPost2010Prop39
140
1.0
102
RTVSPost2010PropOp39
 70
     1
102
RTVSPost2010Prop40
 90
        0
102
RTVSPost2010PropOp40
 70
     1
102
RTVSPost2010Prop41ColorIndex
 90
       18
102
RTVSPost2010Prop41ColorRGB
 90
        0
102
RTVSPost2010PropOp41
 70
     1
102
RTVSPost2010Prop42
 90
       50
102
RTVSPost2010PropOp42
 70
     1
102
RTVSPost2010Prop43
 90
        3
102
RTVSPost2010PropOp43
 70
     1
102
RTVSPost2010Prop44ColorIndex
 90
        5
102
RTVSPost2010Prop44ColorRGB
 90
      255
102
RTVSPost2010PropOp44
 70
     1
102
RTVSPost2010Prop45
280
     0
102
RTVSPost2010PropOp45
 70
     1
102
RTVSPost2010Prop46
 90
       50
102
RTVSPost2010PropOp46
 70
     1
102
RTVSPost2010Prop47
 90
       50
102
RTVSPost2010PropOp47
 70
     1
102
RTVSPost2010Prop48
 90
       50
102
RTVSPost2010PropOp48
 70
     1
102
RTVSPost2010Prop49
280
     0
102
RTVSPost2010PropOp49
 70
     1
102
RTVSPost2010Prop50
 90
       50
102
RTVSPost2010PropOp50
 70
     1
102
RTVSPost2010Prop51ColorIndex
 90
      256
102
RTVSPost2010Prop51ColorRGB
 90
-16777216
102
RTVSPost2010PropOp51
 70
     0
102
RTVSPost2010Prop52
140
1.0
102
RTVSPost2010PropOp52
 70
     0
102
RTVSPost2010Prop53
 90
        2
102
RTVSPost2010PropOp53
 70
     1
102
RTVSPost2010Prop54
  1
strokes_ogs.tif
102
RTVSPost2010PropOp54
 70
     1
102
RTVSPost2010Prop55
280
     0
102
RTVSPost2010PropOp55
 70
     1
102
RTVSPost2010Prop56
140
1.0
102
RTVSPost2010PropOp56
 70
     1
102
RTVSPost2010Prop57
140
1.0
102
RTVSPost2010PropOp57
 70
     1
  0
XRECORD
  5
8C616
102
{ACAD_REACTORS
330
87B1A
102
}
330
87B1A
100
AcDbXrecord
280
     1
102
RTVSPropertyOp0
 70
     1
102
RTVSPropertyOp1
 70
     1
102
RTVSPropertyOp2
 70
     1
102
RTVSPropertyOp3
 70
     1
102
RTVSPropertyOp4
 70
     1
102
RTVSPropertyOp5
 70
     1
102
RTVSPropertyOp6
 70
     1
102
RTVSPropertyOp7
 70
     1
102
RTVSPropertyOp8
 70
     1
102
RTVSPropertyOp9
 70
     1
102
RTVSPropertyOp10
 70
     1
102
RTVSPropertyOp11
 70
     1
102
RTVSPropertyOp12
 70
     1
102
RTVSPropertyOp13
 70
     1
102
RTVSPropertyOp14
 70
     1
102
RTVSPropertyOp15
 70
     1
102
RTVSPropertyOp16
 70
     1
102
RTVSPropertyOp17
 70
     1
102
RTVSPropertyOp18
 70
     1
102
RTVSPropertyOp19
 70
     1
102
RTVSPropertyOp20
 70
     1
102
RTVSPropertyOp21
 70
     1
102
RTVSPropertyOp22
 70
     1
102
RTVSPropertyOp23
 70
     1
102
RTVSPropertyOp24
 70
     1
102
RTVSPropertyOp25
 70
     1
102
RTVSPropertyOp26
 70
     1
102
RTVSPropertyOp27
 70
     1
102
RTVSPropertyOp28
 70
     1
102
RTVSPropertyOp29
 70
     1
102
RTVSPropertyOp30
 70
     1
102
RTVSPropertyOp31
 70
     1
102
RTVSPropertyOp32
 70
     1
102
RTVSPropertyOp33
 70
     1
102
RTVSPropertyOp34
 70
     1
102
RTVSPropertyOp35
 70
     1
102
RTVSPropertyOp36
 70
     1
102
RTVSPropertyOp37
 70
     1
102
RTVSPropertyOp38
 70
     1
102
RTVSPropertyOp39
 70
     1
102
RTVSPropertyOp40
 70
     1
102
RTVSPropertyOp41
 70
     1
102
RTVSPropertyOp42
 70
     1
102
RTVSPropertyOp43
 70
     1
102
RTVSPropertyOp44
 70
     1
102
RTVSPropertyOp45
 70
     1
102
RTVSPropertyOp46
 70
     1
102
RTVSPropertyOp47
 70
     1
102
RTVSPropertyOp48
 70
     1
102
RTVSPropertyOp49
 70
     1
102
RTVSPropertyOp50
 70
     1
102
RTVSPropertyOp51
 70
     0
102
RTVSPropertyOp52
 70
     0
102
RTVSPropertyOp53
 70
     1
102
RTVSPropertyOp54
 70
     1
102
RTVSPropertyOp55
 70
     1
102
RTVSPropertyOp56
 70
     1
102
RTVSPropertyOp57
 70
     1
102
RTVSPost2010Prop28
280
     0
102
RTVSPost2010PropOp28
 70
     1
102
RTVSPost2010Prop29
280
     1
102
RTVSPost2010PropOp29
 70
     1
102
RTVSPost2010Prop30
280
     1
102
RTVSPost2010PropOp30
 70
     1
102
RTVSPost2010Prop31
280
     0
102
RTVSPost2010PropOp31
 70
     1
102
RTVSPost2010Prop32
280
     0
102
RTVSPost2010PropOp32
 70
     1
102
RTVSPost2010Prop33
280
     0
102
RTVSPost2010PropOp33
 70
     1
102
RTVSPost2010Prop34
280
     0
102
RTVSPost2010PropOp34
 70
     1
102
RTVSPost2010Prop35
280
     0
102
RTVSPost2010PropOp35
 70
     1
102
RTVSPost2010Prop36
280
     0
102
RTVSPost2010PropOp36
 70
     1
102
RTVSPost2010Prop37
 90
       50
102
RTVSPost2010PropOp37
 70
     1
102
RTVSPost2010Prop38
140
0.0
102
RTVSPost2010PropOp38
 70
     1
102
RTVSPost2010Prop39
140
1.0
102
RTVSPost2010PropOp39
 70
     1
102
RTVSPost2010Prop40
 90
        0
102
RTVSPost2010PropOp40
 70
     1
102
RTVSPost2010Prop41ColorIndex
 90
       18
102
RTVSPost2010Prop41ColorRGB
 90
        0
102
RTVSPost2010PropOp41
 70
     1
102
RTVSPost2010Prop42
 90
       50
102
RTVSPost2010PropOp42
 70
     1
102
RTVSPost2010Prop43
 90
        3
102
RTVSPost2010PropOp43
 70
     1
102
RTVSPost2010Prop44ColorIndex
 90
        5
102
RTVSPost2010Prop44ColorRGB
 90
      255
102
RTVSPost2010PropOp44
 70
     1
102
RTVSPost2010Prop45
280
     0
102
RTVSPost2010PropOp45
 70
     1
102
RTVSPost2010Prop46
 90
       50
102
RTVSPost2010PropOp46
 70
     1
102
RTVSPost2010Prop47
 90
       50
102
RTVSPost2010PropOp47
 70
     1
102
RTVSPost2010Prop48
 90
       50
102
RTVSPost2010PropOp48
 70
     1
102
RTVSPost2010Prop49
280
     0
102
RTVSPost2010PropOp49
 70
     1
102
RTVSPost2010Prop50
 90
       50
102
RTVSPost2010PropOp50
 70
     1
102
RTVSPost2010Prop51ColorIndex
 90
      256
102
RTVSPost2010Prop51ColorRGB
 90
-16777216
102
RTVSPost2010PropOp51
 70
     0
102
RTVSPost2010Prop52
140
1.0
102
RTVSPost2010PropOp52
 70
     0
102
RTVSPost2010Prop53
 90
        2
102
RTVSPost2010PropOp53
 70
     1
102
RTVSPost2010Prop54
  1
strokes_ogs.tif
102
RTVSPost2010PropOp54
 70
     1
102
RTVSPost2010Prop55
280
     0
102
RTVSPost2010PropOp55
 70
     1
102
RTVSPost2010Prop56
140
1.0
102
RTVSPost2010PropOp56
 70
     1
102
RTVSPost2010Prop57
140
1.0
102
RTVSPost2010PropOp57
 70
     1
  0
XRECORD
  5
8C617
102
{ACAD_REACTORS
330
87B32
102
}
330
87B32
100
AcDbXrecord
280
     1
102
RTVSPropertyOp0
 70
     1
102
RTVSPropertyOp1
 70
     1
102
RTVSPropertyOp2
 70
     1
102
RTVSPropertyOp3
 70
     1
102
RTVSPropertyOp4
 70
     1
102
RTVSPropertyOp5
 70
     1
102
RTVSPropertyOp6
 70
     1
102
RTVSPropertyOp7
 70
     1
102
RTVSPropertyOp8
 70
     1
102
RTVSPropertyOp9
 70
     1
102
RTVSPropertyOp10
 70
     1
102
RTVSPropertyOp11
 70
     1
102
RTVSPropertyOp12
 70
     1
102
RTVSPropertyOp13
 70
     1
102
RTVSPropertyOp14
 70
     1
102
RTVSPropertyOp15
 70
     1
102
RTVSPropertyOp16
 70
     1
102
RTVSPropertyOp17
 70
     1
102
RTVSPropertyOp18
 70
     1
102
RTVSPropertyOp19
 70
     1
102
RTVSPropertyOp20
 70
     1
102
RTVSPropertyOp21
 70
     1
102
RTVSPropertyOp22
 70
     1
102
RTVSPropertyOp23
 70
     1
102
RTVSPropertyOp24
 70
     1
102
RTVSPropertyOp25
 70
     1
102
RTVSPropertyOp26
 70
     1
102
RTVSPropertyOp27
 70
     1
102
RTVSPropertyOp28
 70
     1
102
RTVSPropertyOp29
 70
     1
102
RTVSPropertyOp30
 70
     1
102
RTVSPropertyOp31
 70
     1
102
RTVSPropertyOp32
 70
     1
102
RTVSPropertyOp33
 70
     1
102
RTVSPropertyOp34
 70
     1
102
RTVSPropertyOp35
 70
     1
102
RTVSPropertyOp36
 70
     1
102
RTVSPropertyOp37
 70
     1
102
RTVSPropertyOp38
 70
     1
102
RTVSPropertyOp39
 70
     1
102
RTVSPropertyOp40
 70
     1
102
RTVSPropertyOp41
 70
     1
102
RTVSPropertyOp42
 70
     1
102
RTVSPropertyOp43
 70
     1
102
RTVSPropertyOp44
 70
     1
102
RTVSPropertyOp45
 70
     1
102
RTVSPropertyOp46
 70
     1
102
RTVSPropertyOp47
 70
     1
102
RTVSPropertyOp48
 70
     1
102
RTVSPropertyOp49
 70
     1
102
RTVSPropertyOp50
 70
     1
102
RTVSPropertyOp51
 70
     0
102
RTVSPropertyOp52
 70
     0
102
RTVSPropertyOp53
 70
     1
102
RTVSPropertyOp54
 70
     1
102
RTVSPropertyOp55
 70
     1
102
RTVSPropertyOp56
 70
     1
102
RTVSPropertyOp57
 70
     1
102
RTVSPost2010Prop28
280
     0
102
RTVSPost2010PropOp28
 70
     1
102
RTVSPost2010Prop29
280
     1
102
RTVSPost2010PropOp29
 70
     1
102
RTVSPost2010Prop30
280
     1
102
RTVSPost2010PropOp30
 70
     1
102
RTVSPost2010Prop31
280
     0
102
RTVSPost2010PropOp31
 70
     1
102
RTVSPost2010Prop32
280
     0
102
RTVSPost2010PropOp32
 70
     1
102
RTVSPost2010Prop33
280
     0
102
RTVSPost2010PropOp33
 70
     1
102
RTVSPost2010Prop34
280
     0
102
RTVSPost2010PropOp34
 70
     1
102
RTVSPost2010Prop35
280
     0
102
RTVSPost2010PropOp35
 70
     1
102
RTVSPost2010Prop36
280
     0
102
RTVSPost2010PropOp36
 70
     1
102
RTVSPost2010Prop37
 90
       50
102
RTVSPost2010PropOp37
 70
     1
102
RTVSPost2010Prop38
140
0.0
102
RTVSPost2010PropOp38
 70
     1
102
RTVSPost2010Prop39
140
1.0
102
RTVSPost2010PropOp39
 70
     1
102
RTVSPost2010Prop40
 90
        0
102
RTVSPost2010PropOp40
 70
     1
102
RTVSPost2010Prop41ColorIndex
 90
       18
102
RTVSPost2010Prop41ColorRGB
 90
        0
102
RTVSPost2010PropOp41
 70
     1
102
RTVSPost2010Prop42
 90
       50
102
RTVSPost2010PropOp42
 70
     1
102
RTVSPost2010Prop43
 90
        3
102
RTVSPost2010PropOp43
 70
     1
102
RTVSPost2010Prop44ColorIndex
 90
        5
102
RTVSPost2010Prop44ColorRGB
 90
      255
102
RTVSPost2010PropOp44
 70
     1
102
RTVSPost2010Prop45
280
     0
102
RTVSPost2010PropOp45
 70
     1
102
RTVSPost2010Prop46
 90
       50
102
RTVSPost2010PropOp46
 70
     1
102
RTVSPost2010Prop47
 90
       50
102
RTVSPost2010PropOp47
 70
     1
102
RTVSPost2010Prop48
 90
       50
102
RTVSPost2010PropOp48
 70
     1
102
RTVSPost2010Prop49
280
     0
102
RTVSPost2010PropOp49
 70
     1
102
RTVSPost2010Prop50
 90
       50
102
RTVSPost2010PropOp50
 70
     1
102
RTVSPost2010Prop51ColorIndex
 90
      256
102
RTVSPost2010Prop51ColorRGB
 90
-16777216
102
RTVSPost2010PropOp51
 70
     0
102
RTVSPost2010Prop52
140
1.0
102
RTVSPost2010PropOp52
 70
     0
102
RTVSPost2010Prop53
 90
        2
102
RTVSPost2010PropOp53
 70
     1
102
RTVSPost2010Prop54
  1
strokes_ogs.tif
102
RTVSPost2010PropOp54
 70
     1
102
RTVSPost2010Prop55
280
     0
102
RTVSPost2010PropOp55
 70
     1
102
RTVSPost2010Prop56
140
1.0
102
RTVSPost2010PropOp56
 70
     1
102
RTVSPost2010Prop57
140
1.0
102
RTVSPost2010PropOp57
 70
     1
  0
ENDSEC
  0
EOF
